  0
SECTION
  2
HEADER
  9
$ACADVER
  1
AC1015
  9
$ACADMAINTVER
 70
    20
  9
$DWGCODEPAGE
  3
ANSI_1252
  9
$INSBASE
 10
0.0
 20
0.0
 30
0.0
  9
$EXTMIN
 10
-0.0000000000000568
 20
-0.0000000000000497
 30
0.0
  9
$EXTMAX
 10
443.3333333333334
 20
298.9999999999999
 30
0.0
  9
$LIMMIN
 10
0.0
 20
0.0
  9
$LIMMAX
 10
12.0
 20
9.0
  9
$ORTHOMODE
 70
     1
  9
$REGENMODE
 70
     1
  9
$FILLMODE
 70
     1
  9
$QTEXTMODE
 70
     0
  9
$MIRRTEXT
 70
     1
  9
$LTSCALE
 40
1.0
  9
$ATTMODE
 70
     1
  9
$TEXTSIZE
 40
0.2
  9
$TRACEWID
 40
0.05
  9
$TEXTSTYLE
  7
Standard
  9
$CLAYER
  8
0
  9
$CELTYPE
  6
ByLayer
  9
$CECOLOR
 62
   256
  9
$CELTSCALE
 40
1.0
  9
$DISPSILH
 70
     0
  9
$DIMSCALE
 40
1.0
  9
$DIMASZ
 40
0.18
  9
$DIMEXO
 40
0.0625
  9
$DIMDLI
 40
0.38
  9
$DIMRND
 40
0.0
  9
$DIMDLE
 40
0.0
  9
$DIMEXE
 40
0.18
  9
$DIMTP
 40
0.0
  9
$DIMTM
 40
0.0
  9
$DIMTXT
 40
0.18
  9
$DIMCEN
 40
0.09
  9
$DIMTSZ
 40
0.0
  9
$DIMTOL
 70
     0
  9
$DIMLIM
 70
     0
  9
$DIMTIH
 70
     1
  9
$DIMTOH
 70
     1
  9
$DIMSE1
 70
     0
  9
$DIMSE2
 70
     0
  9
$DIMTAD
 70
     0
  9
$DIMZIN
 70
     0
  9
$DIMBLK
  1

  9
$DIMASO
 70
     1
  9
$DIMSHO
 70
     1
  9
$DIMPOST
  1

  9
$DIMAPOST
  1

  9
$DIMALT
 70
     0
  9
$DIMALTD
 70
     2
  9
$DIMALTF
 40
25.4
  9
$DIMLFAC
 40
1.0
  9
$DIMTOFL
 70
     0
  9
$DIMTVP
 40
0.0
  9
$DIMTIX
 70
     0
  9
$DIMSOXD
 70
     0
  9
$DIMSAH
 70
     0
  9
$DIMBLK1
  1

  9
$DIMBLK2
  1

  9
$DIMSTYLE
  2
Standard
  9
$DIMCLRD
 70
     0
  9
$DIMCLRE
 70
     0
  9
$DIMCLRT
 70
     0
  9
$DIMTFAC
 40
1.0
  9
$DIMGAP
 40
0.09
  9
$DIMJUST
 70
     0
  9
$DIMSD1
 70
     0
  9
$DIMSD2
 70
     0
  9
$DIMTOLJ
 70
     1
  9
$DIMTZIN
 70
     0
  9
$DIMALTZ
 70
     0
  9
$DIMALTTZ
 70
     0
  9
$DIMUPT
 70
     0
  9
$DIMDEC
 70
     2
  9
$DIMTDEC
 70
     4
  9
$DIMALTU
 70
     2
  9
$DIMALTTD
 70
     2
  9
$DIMTXSTY
  7
Standard
  9
$DIMAUNIT
 70
     0
  9
$DIMADEC
 70
     0
  9
$DIMALTRND
 40
0.0
  9
$DIMAZIN
 70
     0
  9
$DIMDSEP
 70
    46
  9
$DIMATFIT
 70
     3
  9
$DIMFRAC
 70
     0
  9
$DIMLDRBLK
  1

  9
$DIMLUNIT
 70
     2
  9
$DIMLWD
 70
    -2
  9
$DIMLWE
 70
    -2
  9
$DIMTMOVE
 70
     0
  9
$LUNITS
 70
     2
  9
$LUPREC
 70
     3
  9
$SKETCHINC
 40
0.1
  9
$FILLETRAD
 40
0.0
  9
$AUNITS
 70
     0
  9
$AUPREC
 70
     0
  9
$MENU
  1
.
  9
$ELEVATION
 40
0.0
  9
$PELEVATION
 40
0.0
  9
$THICKNESS
 40
0.0
  9
$LIMCHECK
 70
     0
  9
$CHAMFERA
 40
0.5
  9
$CHAMFERB
 40
0.5
  9
$CHAMFERC
 40
1.0
  9
$CHAMFERD
 40
0.0
  9
$SKPOLY
 70
     0
  9
$TDCREATE
 40
2454769.747552616
  9
$TDUCREATE
 40
2454769.705885949
  9
$TDUPDATE
 40
2455146.453434560
  9
$TDUUPDATE
 40
2455146.411767894
  9
$TDINDWG
 40
0.0337268866
  9
$TDUSRTIMER
 40
0.0337268866
  9
$USRTIMER
 70
     1
  9
$ANGBASE
 50
0.0
  9
$ANGDIR
 70
     0
  9
$PDMODE
 70
     0
  9
$PDSIZE
 40
0.0
  9
$PLINEWID
 40
0.0
  9
$SPLFRAME
 70
     0
  9
$SPLINETYPE
 70
     6
  9
$SPLINESEGS
 70
     8
  9
$HANDSEED
  5
B98
  9
$SURFTAB1
 70
     6
  9
$SURFTAB2
 70
     6
  9
$SURFTYPE
 70
     6
  9
$SURFU
 70
     6
  9
$SURFV
 70
     6
  9
$UCSBASE
  2

  9
$UCSNAME
  2

  9
$UCSORG
 10
0.0
 20
0.0
 30
0.0
  9
$UCSXDIR
 10
1.0
 20
0.0
 30
0.0
  9
$UCSYDIR
 10
0.0
 20
1.0
 30
0.0
  9
$UCSORTHOREF
  2

  9
$UCSORTHOVIEW
 70
     0
  9
$UCSORGTOP
 10
0.0
 20
0.0
 30
0.0
  9
$UCSORGBOTTOM
 10
0.0
 20
0.0
 30
0.0
  9
$UCSORGLEFT
 10
0.0
 20
0.0
 30
0.0
  9
$UCSORGRIGHT
 10
0.0
 20
0.0
 30
0.0
  9
$UCSORGFRONT
 10
0.0
 20
0.0
 30
0.0
  9
$UCSORGBACK
 10
0.0
 20
0.0
 30
0.0
  9
$PUCSBASE
  2

  9
$PUCSNAME
  2

  9
$PUCSORG
 10
0.0
 20
0.0
 30
0.0
  9
$PUCSXDIR
 10
1.0
 20
0.0
 30
0.0
  9
$PUCSYDIR
 10
0.0
 20
1.0
 30
0.0
  9
$PUCSORTHOREF
  2

  9
$PUCSORTHOVIEW
 70
     0
  9
$PUCSORGTOP
 10
0.0
 20
0.0
 30
0.0
  9
$PUCSORGBOTTOM
 10
0.0
 20
0.0
 30
0.0
  9
$PUCSORGLEFT
 10
0.0
 20
0.0
 30
0.0
  9
$PUCSORGRIGHT
 10
0.0
 20
0.0
 30
0.0
  9
$PUCSORGFRONT
 10
0.0
 20
0.0
 30
0.0
  9
$PUCSORGBACK
 10
0.0
 20
0.0
 30
0.0
  9
$USERI1
 70
     0
  9
$USERI2
 70
     0
  9
$USERI3
 70
     0
  9
$USERI4
 70
     0
  9
$USERI5
 70
     0
  9
$USERR1
 40
0.0
  9
$USERR2
 40
0.0
  9
$USERR3
 40
0.0
  9
$USERR4
 40
0.0
  9
$USERR5
 40
0.0
  9
$WORLDVIEW
 70
     1
  9
$SHADEDGE
 70
     3
  9
$SHADEDIF
 70
    70
  9
$TILEMODE
 70
     1
  9
$MAXACTVP
 70
    64
  9
$PINSBASE
 10
0.0
 20
0.0
 30
0.0
  9
$PLIMCHECK
 70
     0
  9
$PEXTMIN
 10
1.000000000000000E+20
 20
1.000000000000000E+20
 30
1.000000000000000E+20
  9
$PEXTMAX
 10
-1.000000000000000E+20
 20
-1.000000000000000E+20
 30
-1.000000000000000E+20
  9
$PLIMMIN
 10
0.0
 20
0.0
  9
$PLIMMAX
 10
12.0
 20
9.0
  9
$UNITMODE
 70
     0
  9
$VISRETAIN
 70
     1
  9
$PLINEGEN
 70
     0
  9
$PSLTSCALE
 70
     1
  9
$TREEDEPTH
 70
  3020
  9
$CMLSTYLE
  2
Standard
  9
$CMLJUST
 70
     0
  9
$CMLSCALE
 40
1.0
  9
$PROXYGRAPHICS
 70
     1
  9
$MEASUREMENT
 70
     0
  9
$CELWEIGHT
370
    -1
  9
$ENDCAPS
280
     0
  9
$JOINSTYLE
280
     0
  9
$LWDISPLAY
290
     0
  9
$INSUNITS
 70
     4
  9
$HYPERLINKBASE
  1

  9
$STYLESHEET
  1

  9
$XEDIT
290
     1
  9
$CEPSNTYPE
380
     0
  9
$PSTYLEMODE
290
     1
  9
$FINGERPRINTGUID
  2
{D5973A25-E041-421D-B916-0FAB295AAF52}
  9
$VERSIONGUID
  2
{FD75208A-CC25-4E67-A562-196C606D1E33}
  9
$EXTNAMES
290
     1
  9
$PSVPSCALE
 40
0.0
  9
$OLESTARTUP
290
     0
  0
ENDSEC
  0
SECTION
  2
CLASSES
  0
CLASS
  1
ACDBDICTIONARYWDFLT
  2
AcDbDictionaryWithDefault
  3
ObjectDBX Classes
 90
        0
280
     0
281
     0
  0
CLASS
  1
TABLESTYLE
  2
AcDbTableStyle
  3
ObjectDBX Classes
 90
     4095
280
     0
281
     0
  0
CLASS
  1
ACME_DOCUMENT
  2
AcMeDbDoc
  3
AcMeServices
 90
     1024
280
     0
281
     0
  0
CLASS
  1
AMGSETTINGSOBJ
  2
AmgSettingsObj
  3
"AcadM|Product Description: AutoCAD Mechanical|Company: Autodesk, Inc."
 90
     1024
280
     0
281
     0
  0
CLASS
  1
ACMESCOPE
  2
AcMeScope
  3
AcMeServices
 90
     1024
280
     0
281
     0
  0
CLASS
  1
ACMECOMMANDHISTORY
  2
AcMeCommandHistory
  3
AcMeServices
 90
     1024
280
     0
281
     0
  0
CLASS
  1
ACIMSYSVARMAN
  2
AcImSysVarManager
  3
AcMeServices
 90
     1024
280
     0
281
     0
  0
CLASS
  1
ACIMINTSYSVAR
  2
AcImIntSysVar
  3
AcMeServices
 90
     1024
280
     0
281
     0
  0
CLASS
  1
ACMEDRAWINGMAN
  2
AcMeDrawingMan
  3
AcMeServices
 90
     1024
280
     0
281
     0
  0
CLASS
  1
ACMEVIEW
  2
AcMeView
  3
AcMeServices
 90
     1024
280
     0
281
     0
  0
CLASS
  1
ACDBENTITYCACHE
  2
AcMeEntityCache
  3
AcMeServices
 90
     1024
280
     0
281
     0
  0
CLASS
  1
GSMANAGER
  2
AcMeGSManager
  3
AcMeServices
 90
     1024
280
     0
281
     0
  0
CLASS
  1
AMDTINTERNALREACTOR
  2
AmdtInternalReactor
  3
AcMeServices
 90
     1024
280
     0
281
     0
  0
CLASS
  1
ACMESTATEMGR
  2
AcMeStateMgr
  3
AcMeServices
 90
     1024
280
     0
281
     0
  0
CLASS
  1
ACGREFMASTER
  2
AcGrefMaster
  3
AcAttribServices
 90
     1024
280
     0
281
     0
  0
CLASS
  1
AM_DRAWING_MGR
  2
AcDmDwgMgr
  3
AcMechDwgViewMgmt
 90
     1024
280
     0
281
     0
  0
CLASS
  1
AM_DWG_DOCUMENT
  2
AcDmDwgDocument
  3
AcMechDwgViewMgmt
 90
     1024
280
     0
281
     0
  0
CLASS
  1
AM_DWG_SHEET
  2
AcDmSheet
  3
AcMechDwgViewMgmt
 90
     1024
280
     0
281
     0
  0
CLASS
  1
AM_VIEWDIMPARMAP
  2
AcDmViewDimParMap
  3
AcMechDwgViewMgmt
 90
     1024
280
     0
281
     0
  0
CLASS
  1
ACIMREALSYSVAR
  2
AcImRealSysVar
  3
AcMeServices
 90
     1024
280
     0
281
     0
  0
CLASS
  1
AM_DWGMGR_NAME
  2
AcDmDwgMgrName
  3
AcMechDwgViewMgmt
 90
     1024
280
     0
281
     0
  0
CLASS
  1
ACME_DATABASE
  2
AcMeDbDatabase
  3
AcMeServices
 90
     1024
280
     0
281
     0
  0
CLASS
  1
ACRFINSADJUSTERMGR
  2
AcRfInsAdjusterMgr
  3
AcMeServices
 90
     1024
280
     0
281
     0
  0
CLASS
  1
ACGREFACADMASTER
  2
AcGrefacadMaster
  3
AcGrefServices
 90
     1024
280
     0
281
     0
  0
CLASS
  1
AMDTMENUSTATEMGR
  2
AmdtMenuStateMgr
  3
McadcomServices
 90
     1024
280
     0
281
     0
  0
CLASS
  1
AMDTMCOMMENUSTATE
  2
AmdtMcomMenuState
  3
McadcomServices
 90
     1024
280
     0
281
     0
  0
CLASS
  1
AMIMASTER
  2
AmiMaster
  3
AmiServices
 90
     1024
280
     0
281
     0
  0
CLASS
  1
MAPIAMMOUDLE
  2
MApiAmModule
  3
MApiAmServices
 90
     1024
280
     0
281
     0
  0
CLASS
  1
ACIMSTRSYSVAR
  2
AcImStrSysVar
  3
AcMeServices
 90
     1024
280
     0
281
     0
  0
CLASS
  1
AMDTADMENUSTATE
  2
AmdtAdMenuState
  3
DesignerServices
 90
     1024
280
     0
281
     0
  0
CLASS
  1
ADAPPL
  2
AcAdAppl
  3
DesignerServices
 90
     1024
280
     0
281
     0
  0
CLASS
  1
DEPMGR
  2
AcAdDepMgr
  3
DesignerServices
 90
     1024
280
     0
281
     0
  0
CLASS
  1
PARAMMGR
  2
AcAdParamMgr
  3
DesignerServices
 90
     1024
280
     0
281
     0
  0
CLASS
  1
PARAMSCOPE
  2
AcAdParamScope
  3
DesignerServices
 90
     1024
280
     0
281
     0
  0
CLASS
  1
NAMEDAPPL
  2
AcAdNamedAppl
  3
DesignerServices
 90
     1024
280
     0
281
     0
  0
CLASS
  1
AMDTDMMENUSTATE
  2
AmdtDmMenuState
  3
AcMechDwgViewMgmt
 90
     1024
280
     0
281
     0
  0
CLASS
  1
AMDTAMMENUSTATE
  2
AmdtAmMenuState
  3
DesignerAssemblies
 90
     1024
280
     0
281
     0
  0
CLASS
  1
ACAMPROJECT
  2
AcAmProject
  3
DesignerAssemblies
 90
     1024
280
     0
281
     0
  0
CLASS
  1
ACAMGRCOMPDEF
  2
AcAmGrCompDef
  3
DesignerAssemblies
 90
     1024
280
     0
281
     0
  0
CLASS
  1
ACCMCONTEXT
  2
AcCmContext
  3
DesignerAssemblies
 90
     1024
280
     0
281
     0
  0
CLASS
  1
ACAMCOMPDEF
  2
AcAmCompDef
  3
DesignerAssemblies
 90
     1024
280
     0
281
     0
  0
CLASS
  1
ACAMCOMPDEFMGR
  2
AcAmCompDefMgr
  3
DesignerAssemblies
 90
     1024
280
     0
281
     0
  0
CLASS
  1
AMCONTEXTMGR
  2
AcAmContextMgr
  3
DesignerAssemblies
 90
     1024
280
     0
281
     0
  0
CLASS
  1
ACAMCONTEXTMODELER
  2
AcAmContextModeler
  3
DesignerAssemblies
 90
     1024
280
     0
281
     0
  0
CLASS
  1
ACMDATADICTIONARY
  2
AcmDataDictionary
  3
"AcmSymBB|Product Description: AutoCAD Mechanical|Company: Autodesk, Inc."
 90
     1024
280
     0
281
     0
  0
CLASS
  1
CATALOGSTATE
  2
AcAmCatalogState
  3
DesignerAssemblies
 90
     1024
280
     0
281
     0
  0
CLASS
  1
ACAMGRCOMPDEFSET
  2
AcAmGrCompDefSet
  3
DesignerAssemblies
 90
     1024
280
     0
281
     0
  0
CLASS
  1
AMDTBROWSERDBTAB
  2
AmdtBrowserDbTab
  3
McadcomServices
 90
     1024
280
     0
281
     0
  0
CLASS
  1
CBROWSERAPPOBJECT
  2
CBrowserAppObject
  3
McadcomServices
 90
     1024
280
     0
281
     0
  0
CLASS
  1
DM_PLACEHOLDER
  2
AcDmSelsetPlaceholder
  3
AcMechDwgViewMgmt
 90
     1024
280
     0
281
     0
  0
CLASS
  1
ACMSTANDARDANSI
  2
AcmStandardANSI
  3
"Amdt_StdImp|Product Description: AutoCAD Mechanical|Company: Autodesk, Inc."
 90
     1024
280
     0
281
     0
  0
CLASS
  1
AMGOBJPROPCFG
  2
AmgObjPropCfg
  3
"AmgLay|Product Description: AutoCAD Mechanical|Company: Autodesk, Inc."
 90
     1025
280
     0
281
     0
  0
CLASS
  1
ACMSURFSTANDARDANSI
  2
AcmSurfTextStdANSI
  3
"Amdt_StdImp|Product Description: AutoCAD Mechanical|Company: Autodesk, Inc."
 90
     1024
280
     0
281
     0
  0
CLASS
  1
ACMFCFSTANDARDANSI
  2
AcmFCFStdANSI
  3
"Amdt_StdImp|Product Description: AutoCAD Mechanical|Company: Autodesk, Inc."
 90
     1024
280
     0
281
     0
  0
CLASS
  1
ACMWELDSTANDARDANSI
  2
AcmWeldingStdANSI
  3
"Amdt_StdImp|Product Description: AutoCAD Mechanical|Company: Autodesk, Inc."
 90
     1024
280
     0
281
     0
  0
CLASS
  1
ACMIDSTANDARDANSI
  2
AcmIdStdANSI
  3
"Amdt_StdImp|Product Description: AutoCAD Mechanical|Company: Autodesk, Inc."
 90
     1024
280
     0
281
     0
  0
CLASS
  1
ACMDATUMSTANDARDANSI
  2
AcmDatumStdANSI
  3
"Amdt_StdImp|Product Description: AutoCAD Mechanical|Company: Autodesk, Inc."
 90
     1024
280
     0
281
     0
  0
CLASS
  1
ACMBOMSTANDARDANSI
  2
AcmBOMStdANSI
  3
"Amdt_StdImp|Product Description: AutoCAD Mechanical|Company: Autodesk, Inc."
 90
     1024
280
     0
281
     0
  0
CLASS
  1
ACMDETAILSTANDARDANSI
  2
AmdtDetailSymStdANSI
  3
"Amdt_StdImp|Product Description: AutoCAD Mechanical|Company: Autodesk, Inc."
 90
     1024
280
     0
281
     0
  0
CLASS
  1
ACMSECTIONSTANDARDANSI
  2
AmdtSectionSymStdANSI
  3
"Amdt_StdImp|Product Description: AutoCAD Mechanical|Company: Autodesk, Inc."
 90
     1024
280
     0
281
     0
  0
CLASS
  1
ACMCENTERLINESTANDARDANSI
  2
AmdtCenterLineStdANSI
  3
"Amdt_StdImp|Product Description: AutoCAD Mechanical|Company: Autodesk, Inc."
 90
     1024
280
     0
281
     0
  0
CLASS
  1
ACMTHREADLINESTANDARDANSI
  2
AmdtThreadLineStdANSI
  3
"Amdt_StdImp|Product Description: AutoCAD Mechanical|Company: Autodesk, Inc."
 90
     1024
280
     0
281
     0
  0
CLASS
  1
ACMNOTESTANDARDANSI
  2
AmdtNoteStdANSI
  3
"Amdt_StdImp|Product Description: AutoCAD Mechanical|Company: Autodesk, Inc."
 90
     1024
280
     0
281
     0
  0
CLASS
  1
AMDTNOTETEMPLATEDB
  2
AmdtNoteTemplateDB
  3
AcmSymBB|Product Description: AutoCAD Mechanical|Company: Autodesk, Inc.
 90
     1024
280
     0
281
     0
  0
CLASS
  1
ACAMGLAYSTD
  2
AcAmgLayStd
  3
"AmgLay|Product Description: AutoCAD Mechanical|Company: Autodesk, Inc."
 90
     1024
280
     0
281
     0
  0
CLASS
  1
ACAMGDIMSTD
  2
AcAmgDimStd
  3
"AmgDim|Product Description: AutoCAD Mechanical|Company: Autodesk, Inc."
 90
     1024
280
     0
281
     0
  0
CLASS
  1
ACAMGHOLECHARTSTDANSI
  2
AcAmgHoleChartStdANSI
  3
AmgDim|Product Description: AutoCAD Mechanical|Company: Autodesk, Inc.
 90
     1024
280
     0
281
     0
  0
CLASS
  1
ACAMGTITLESTD
  2
AcAmgTitleStd
  3
"AmgTitle|Product Description: AutoCAD Mechanical|Company: Autodesk, Inc."
 90
     4095
280
     0
281
     0
  0
CLASS
  1
DICTIONARYVAR
  2
AcDbDictionaryVar
  3
ObjectDBX Classes
 90
        0
280
     0
281
     0
  0
CLASS
  1
ACAMGFILTERDAT
  2
AcAmgFilterDat
  3
"AcadM|Product Description: AutoCAD Mechanical|Company: Autodesk, Inc."
 90
     1024
280
     0
281
     0
  0
CLASS
  1
MATERIAL
  2
AcDbMaterial
  3
ObjectDBX Classes
 90
     1153
280
     0
281
     0
  0
CLASS
  1
SORTENTSTABLE
  2
AcDbSortentsTable
  3
ObjectDBX Classes
 90
    32768
280
     0
281
     0
  0
CLASS
  1
ACMSTANDARDISO
  2
AcmStandardISO
  3
"Amdt_StdImp|Product Description: AutoCAD Mechanical|Company: Autodesk, Inc."
 90
     1024
280
     0
281
     0
  0
CLASS
  1
AMDTEDGESTANDARDISO
  2
AmdtEdgeStdISO
  3
"Amdt_StdImp|Product Description: AutoCAD Mechanical|Company: Autodesk, Inc."
 90
     1024
280
     0
281
     0
  0
CLASS
  1
ACMSURFSTANDARDISO
  2
AcmSurfTextStdISO
  3
"Amdt_StdImp|Product Description: AutoCAD Mechanical|Company: Autodesk, Inc."
 90
     1024
280
     0
281
     0
  0
CLASS
  1
ACMFCFSTANDARDISO
  2
AcmFCFStdISO
  3
"Amdt_StdImp|Product Description: AutoCAD Mechanical|Company: Autodesk, Inc."
 90
     1024
280
     0
281
     0
  0
CLASS
  1
ACMWELDSTANDARDISO
  2
AcmWeldingStdISO
  3
"Amdt_StdImp|Product Description: AutoCAD Mechanical|Company: Autodesk, Inc."
 90
     1024
280
     0
281
     0
  0
CLASS
  1
ACMIDSTANDARDISO
  2
AcmIdStdISO
  3
"Amdt_StdImp|Product Description: AutoCAD Mechanical|Company: Autodesk, Inc."
 90
     1024
280
     0
281
     0
  0
CLASS
  1
ACMDATUMSTANDARDISO
  2
AcmDatumStdISO
  3
"Amdt_StdImp|Product Description: AutoCAD Mechanical|Company: Autodesk, Inc."
 90
     1024
280
     0
281
     0
  0
CLASS
  1
ACMBOMSTANDARDISO
  2
AcmBOMStdISO
  3
"Amdt_StdImp|Product Description: AutoCAD Mechanical|Company: Autodesk, Inc."
 90
     1024
280
     0
281
     0
  0
CLASS
  1
ACMDETAILSTANDARDISO
  2
AmdtDetailSymStdISO
  3
"Amdt_StdImp|Product Description: AutoCAD Mechanical|Company: Autodesk, Inc."
 90
     1024
280
     0
281
     0
  0
CLASS
  1
ACMSECTIONSTANDARDISO
  2
AmdtSectionSymStdISO
  3
"Amdt_StdImp|Product Description: AutoCAD Mechanical|Company: Autodesk, Inc."
 90
     1024
280
     0
281
     0
  0
CLASS
  1
ACMCENTERLINESTANDARDISO
  2
AmdtCenterLineStdISO
  3
"Amdt_StdImp|Product Description: AutoCAD Mechanical|Company: Autodesk, Inc."
 90
     1024
280
     0
281
     0
  0
CLASS
  1
ACMNOTESTANDARDISO
  2
AmdtNoteStdISO
  3
"Amdt_StdImp|Product Description: AutoCAD Mechanical|Company: Autodesk, Inc."
 90
     1024
280
     0
281
     0
  0
CLASS
  1
ACAMGHOLECHARTSTDISO
  2
AcAmgHoleChartStdISO
  3
AmgDim|Product Description: AutoCAD Mechanical|Company: Autodesk, Inc.
 90
     1024
280
     0
281
     0
  0
CLASS
  1
ACMTHREADLINESTANDARDISO
  2
AmdtThreadLineStdISO
  3
"Amdt_StdImp|Product Description: AutoCAD Mechanical|Company: Autodesk, Inc."
 90
     1024
280
     0
281
     0
  0
CLASS
  1
ACMDATAENTRYBLOCK
  2
AcmDataEntryBlock
  3
AcmSymBB|Product Description: AutoCAD Mechanical|Company: Autodesk, Inc.
 90
    33792
280
     0
281
     0
  0
CLASS
  1
DIMASSOC
  2
AcDbDimAssoc
  3
"AcDbDimAssoc|Product Desc:     AcDim ARX App For Dimension|Company:          Autodesk, Inc.|WEB Address:      www.autodesk.com"
 90
        0
280
     0
281
     0
  0
CLASS
  1
IMAGE
  2
AcDbRasterImage
  3
ISM
 90
    34943
280
     0
281
     1
  0
CLASS
  1
IMAGEDEF_REACTOR
  2
AcDbRasterImageDefReactor
  3
ISM
 90
    32769
280
     0
281
     0
  0
CLASS
  1
IMAGEDEF
  2
AcDbRasterImageDef
  3
ISM
 90
    32768
280
     0
281
     0
  0
CLASS
  1
RASTERVARIABLES
  2
AcDbRasterVariables
  3
ISM
 90
    32768
280
     0
281
     0
  0
CLASS
  1
VISUALSTYLE
  2
AcDbVisualStyle
  3
ObjectDBX Classes
 90
     4095
280
     0
281
     0
  0
CLASS
  1
SCALE
  2
AcDbScale
  3
ObjectDBX Classes
 90
     1153
280
     0
281
     0
  0
CLASS
  1
MLEADERSTYLE
  2
AcDbMLeaderStyle
  3
ACDB_MLEADERSTYLE_CLASS
 90
     4095
280
     0
281
     0
  0
CLASS
  1
ACMTAPERSTANDARDANSI
  2
AcmTaperStdANSI
  3
"Amdt_StdImp|Product Description: AutoCAD Mechanical|Company: Autodesk, Inc."
 90
     1024
280
     0
281
     0
  0
CLASS
  1
ACMANOOTATIONVIEWSTANDARDANSI
  2
AmdtAnViewStdANSI
  3
"Amdt_StdImp|Product Description: AutoCAD Mechanical|Company: Autodesk, Inc."
 90
     1024
280
     0
281
     0
  0
CLASS
  1
ACMTAPERSTANDARDISO
  2
AcmTaperStdISO
  3
"Amdt_StdImp|Product Description: AutoCAD Mechanical|Company: Autodesk, Inc."
 90
     1024
280
     0
281
     0
  0
CLASS
  1
ACMANOOTATIONVIEWSTANDARDISO
  2
AmdtAnViewStdISO
  3
"Amdt_StdImp|Product Description: AutoCAD Mechanical|Company: Autodesk, Inc."
 90
     1024
280
     0
281
     0
  0
CLASS
  1
EXACXREFPANELOBJECT
  2
ExAcXREFPanelObject
  3
EXAC_ESW
 90
     1025
280
     0
281
     0
  0
CLASS
  1
NPOCOLLECTION
  2
AcDbImpNonPersistentObjectsCollection
  3
ObjectDBX Classes
 90
     1153
280
     0
281
     0
  0
CLASS
  1
CAMSSTRUCTBTNSTATE
  2
StructBtnState
  3
DesignerAssemblies
 90
     1024
280
     0
281
     0
  0
CLASS
  1
CELLSTYLEMAP
  2
AcDbCellStyleMap
  3
ObjectDBX Classes
 90
     1152
280
     0
281
     0
  0
CLASS
  1
ACDBLINERES
  2
AcDbLineRes
  3
AcGrefServices
 90
     1024
280
     0
281
     0
  0
CLASS
  1
ACMFCFRAME
  2
AcmFCF
  3
"AcmSymBB|Product Description: AutoCAD Mechanical|Company: Autodesk, Inc."
 90
     4095
280
     0
281
     1
  0
CLASS
  1
AEC_REFEDIT_STATUS_TRACKER
  2
AecDbRefEditStatusTracker
  3
AecArchBase50|Product Desc: Autodesk Architectural Desktop 2007 |Company: Autodesk,Inc. |WEB Address: www.autodesk.com
 90
      129
280
     0
281
     0
  0
CLASS
  1
ACDBPLACEHOLDER
  2
AcDbPlaceHolder
  3
ObjectDBX Classes
 90
        0
280
     0
281
     0
  0
CLASS
  1
LAYOUT
  2
AcDbLayout
  3
ObjectDBX Classes
 90
        0
280
     0
281
     0
  0
ENDSEC
  0
SECTION
  2
TABLES
  0
TABLE
  2
VPORT
  5
8
330
0
100
AcDbSymbolTable
 70
     1
  0
VPORT
  5
98F
330
8
100
AcDbSymbolTableRecord
100
AcDbViewportTableRecord
  2
*Active
 70
     0
 10
0.0
 20
0.0
 11
1.0
 21
1.0
 12
154.8814167817716
 22
71.15664600523536
 13
0.0
 23
0.0
 14
0.5
 24
0.5
 15
0.5
 25
0.5
 16
0.0
 26
0.0
 36
1.0
 17
62.99643643703934
 27
62.99908033914673
 37
0.0
 40
435.5133686821044
 41
1.833531510107015
 42
50.0
 43
0.0
 44
0.0
 50
0.0
 51
0.0
 71
     0
 72
   100
 73
     1
 74
     3
 75
     0
 76
     0
 77
     0
 78
     0
281
     0
 65
     1
110
0.0
120
0.0
130
0.0
111
1.0
121
0.0
131
0.0
112
0.0
122
1.0
132
0.0
 79
     0
146
0.0
  0
ENDTAB
  0
TABLE
  2
LTYPE
  5
5
330
0
100
AcDbSymbolTable
 70
    21
  0
LTYPE
  5
14
330
5
100
AcDbSymbolTableRecord
100
AcDbLinetypeTableRecord
  2
ByBlock
 70
     0
  3

 72
    65
 73
     0
 40
0.0
  0
LTYPE
  5
15
330
5
100
AcDbSymbolTableRecord
100
AcDbLinetypeTableRecord
  2
ByLayer
 70
     0
  3

 72
    65
 73
     0
 40
0.0
  0
LTYPE
  5
16
330
5
100
AcDbSymbolTableRecord
100
AcDbLinetypeTableRecord
  2
Continuous
 70
     0
  3
Solid line
 72
    65
 73
     0
 40
0.0
  0
LTYPE
  5
154
330
5
100
AcDbSymbolTableRecord
100
AcDbLinetypeTableRecord
  2
HIDDEN
 70
     0
  3
Verdeckt
 72
    65
 73
     2
 40
0.375
 49
0.25
 74
     0
 49
-0.125
 74
     0
  0
LTYPE
  5
155
330
5
100
AcDbSymbolTableRecord
100
AcDbLinetypeTableRecord
  2
PHANTOM2
 70
     0
  3
Phantom (.5x) ___ _ _ ___ _ _ ___ _ _ ___ _ _
 72
    65
 73
     6
 40
1.25
 49
0.625
 74
     0
 49
-0.125
 74
     0
 49
0.125
 74
     0
 49
-0.125
 74
     0
 49
0.125
 74
     0
 49
-0.125
 74
     0
  0
LTYPE
  5
156
330
5
100
AcDbSymbolTableRecord
100
AcDbLinetypeTableRecord
  2
CENTER
 70
     0
  3
Mitte ____ _ ____ _ ____ _ ____ _ ____ _ ____
 72
    65
 73
     4
 40
2.0
 49
1.25
 74
     0
 49
-0.25
 74
     0
 49
0.25
 74
     0
 49
-0.25
 74
     0
  0
LTYPE
  5
18A
330
5
100
AcDbSymbolTableRecord
100
AcDbLinetypeTableRecord
  2
AM_ISO02W050
 70
     0
  3
__ __ __ __ __ __ __ __ __ __ __ __ __ __ __
 72
    65
 73
     2
 40
7.5
 49
6.0
 74
     0
 49
-1.5
 74
     0
  0
LTYPE
  5
18B
330
5
100
AcDbSymbolTableRecord
100
AcDbLinetypeTableRecord
  2
AM_ISO08W050
 70
     0
  3
____ . ____ . ____ . ____ . ____ . ____ . ____
 72
    65
 73
     4
 40
18.0
 49
12.0
 74
     0
 49
-1.5
 74
     0
 49
3.0
 74
     0
 49
-1.5
 74
     0
  0
LTYPE
  5
18C
330
5
100
AcDbSymbolTableRecord
100
AcDbLinetypeTableRecord
  2
AM_ISO09W050
 70
     0
  3
_____ . . _____ . . _____ . . ____ .. ____
 72
    65
 73
     6
 40
22.5
 49
12.0
 74
     0
 49
-1.5
 74
     0
 49
3.0
 74
     0
 49
-1.5
 74
     0
 49
3.0
 74
     0
 49
-1.5
 74
     0
  0
LTYPE
  5
18D
330
5
100
AcDbSymbolTableRecord
100
AcDbLinetypeTableRecord
  2
Amconstr
 70
     0
  3
_______________________
 72
    65
 73
     2
 40
9999.0
 49
9999.0
 74
     0
 49
0.0
 74
     0
  0
LTYPE
  5
18E
330
5
100
AcDbSymbolTableRecord
100
AcDbLinetypeTableRecord
  2
AM_ISO08W050x2
 70
     0
  3
__ . __ . __ . __ . __ . __
 72
    65
 73
     4
 40
9.0
 49
6.0
 74
     0
 49
-0.75
 74
     0
 49
1.5
 74
     0
 49
-0.75
 74
     0
  0
LTYPE
  5
18F
330
5
100
AcDbSymbolTableRecord
100
AcDbLinetypeTableRecord
  2
AM_ISO02W050x2
 70
     0
  3
 _ _ _ _ _ _ _ _ _ _ _ _
 72
    65
 73
     2
 40
3.75
 49
3.0
 74
     0
 49
-0.75
 74
     0
  0
LTYPE
  5
192
330
5
100
AcDbSymbolTableRecord
100
AcDbLinetypeTableRecord
  2
Amzigzag
 70
     0
  3
/\/-/\/-/\/-/\/-/\/-/\/
 72
    65
 73
     2
 40
11.0001
 49
0.0001
 74
     4
 75
   136
340
191
 46
0.04
 50
0.0
 44
0.0
 45
0.0
 49
-11.0
 74
     0
  0
LTYPE
  5
193
330
5
100
AcDbSymbolTableRecord
100
AcDbLinetypeTableRecord
  2
CENTER2
 70
     0
  3
Center (.5x) ___ _ ___ _ ___ _ ___ _ ___ _ ___
 72
    65
 73
     4
 40
1.125
 49
0.75
 74
     0
 49
-0.125
 74
     0
 49
0.125
 74
     0
 49
-0.125
 74
     0
  0
LTYPE
  5
194
330
5
100
AcDbSymbolTableRecord
100
AcDbLinetypeTableRecord
  2
HIDDEN2
 70
     0
  3
Hidden (.5x) _ _ _ _ _ _ _ _ _ _ _ _ _ _ _ _ _
 72
    65
 73
     2
 40
0.1875
 49
0.125
 74
     0
 49
-0.0625
 74
     0
  0
LTYPE
  5
195
330
5
100
AcDbSymbolTableRecord
100
AcDbLinetypeTableRecord
  2
Amzigzag2
 70
     0
  3
/\/-/\/-/\/-/\/-/\/-/\/
 72
    65
 73
     2
 40
0.4401
 49
0.0001
 74
     4
 75
   136
340
191
 46
0.0016
 50
0.0
 44
0.0
 45
0.0
 49
-0.4400000000000001
 74
     0
  0
LTYPE
  5
1A3
330
5
100
AcDbSymbolTableRecord
100
AcDbLinetypeTableRecord
  2
ACANSTGB
 70
     0
  3
__ . . __ . .
 72
    65
 73
     6
 40
0.35433070866
 49
0.15748031496
 74
     0
 49
-0.03937007874
 74
     0
 49
0.03937007874
 74
     0
 49
-0.03937007874
 74
     0
 49
0.03937007874
 74
     0
 49
-0.03937007874
 74
     0
  0
LTYPE
  5
1A4
330
5
100
AcDbSymbolTableRecord
100
AcDbLinetypeTableRecord
  2
ACANSTGL
 70
     0
  3
_ _ _ _ _
 72
    65
 73
     2
 40
0.11811023622
 49
0.07874015748
 74
     0
 49
-0.03937007874
 74
     0
  0
LTYPE
  5
20F
330
5
100
AcDbSymbolTableRecord
100
AcDbLinetypeTableRecord
  2
ACISOWELD
 70
     0
  3
_ _ _ _ _
 72
    65
 73
     2
 40
2.0
 49
2.0
 74
     0
 49
-1.0
 74
     0
  0
LTYPE
  5
210
330
5
100
AcDbSymbolTableRecord
100
AcDbLinetypeTableRecord
  2
ACISOTGB
 70
     0
  3
__ . . __ . .
 72
    65
 73
     6
 40
9.0
 49
4.0
 74
     0
 49
-1.0
 74
     0
 49
1.0
 74
     0
 49
-1.0
 74
     0
 49
1.0
 74
     0
 49
-1.0
 74
     0
  0
LTYPE
  5
211
330
5
100
AcDbSymbolTableRecord
100
AcDbLinetypeTableRecord
  2
ACISOTGL
 70
     0
  3
_ _ _ _ _
 72
    65
 73
     2
 40
3.0
 49
2.0
 74
     0
 49
-1.0
 74
     0
  0
LTYPE
  5
594
330
5
100
AcDbSymbolTableRecord
100
AcDbLinetypeTableRecord
  2
AUSGEZOGEN
 70
     0
  3
Ausgezogene Linie
 72
    65
 73
     0
 40
0.0
  0
LTYPE
  5
595
330
5
100
AcDbSymbolTableRecord
100
AcDbLinetypeTableRecord
  2
STRICHPUNKT
 70
     0
  3
__ . __ . __ . __ . __ . __ . __ . __ . __ . __
 72
    65
 73
     4
 40
1.0
 49
0.5
 74
     0
 49
-0.25
 74
     0
 49
0.0
 74
     0
 49
-0.25
 74
     0
  0
ENDTAB
  0
TABLE
  2
LAYER
  5
2
102
{ACAD_XDICTIONARY
360
221
102
}
330
0
100
AcDbSymbolTable
 70
    20
  0
LAYER
  5
10
102
{ACAD_XDICTIONARY
360
A65
102
}
330
2
100
AcDbSymbolTableRecord
100
AcDbLayerTableRecord
  2
0
 70
     0
 62
     7
  6
Continuous
370
    -3
390
F
  0
LAYER
  5
2A
102
{ACAD_XDICTIONARY
360
A67
102
}
330
2
100
AcDbSymbolTableRecord
100
AcDbLayerTableRecord
  2
OHNE VERRIEGELUNG
 70
     0
 62
     7
  6
Continuous
370
    -3
390
F
  0
LAYER
  5
202
102
{ACAD_XDICTIONARY
360
A69
102
}
330
2
100
AcDbSymbolTableRecord
100
AcDbLayerTableRecord
  2
AM_7
 70
     0
 62
     4
  6
CENTER
370
    15
390
F
1001
AcAecLayerStandard
1000

1000

  0
LAYER
  5
212
102
{ACAD_XDICTIONARY
360
A6B
102
}
330
2
100
AcDbSymbolTableRecord
100
AcDbLayerTableRecord
  2
WHITE
 70
     0
 62
     7
  6
Continuous
370
    -3
390
F
  0
LAYER
  5
596
330
2
100
AcDbSymbolTableRecord
100
AcDbLayerTableRecord
  2
Defpoints
 70
     0
 62
     7
  6
Continuous
290
     0
370
    -3
390
F
  0
LAYER
  5
597
102
{ACAD_XDICTIONARY
360
A6D
102
}
330
2
100
AcDbSymbolTableRecord
100
AcDbLayerTableRecord
  2
RAHM2
 70
     0
 62
     1
  6
Continuous
370
    -3
390
F
  0
LAYER
  5
598
102
{ACAD_XDICTIONARY
360
A6F
102
}
330
2
100
AcDbSymbolTableRecord
100
AcDbLayerTableRecord
  2
6
 70
     0
 62
     2
  6
Continuous
370
    -3
390
F
  0
LAYER
  5
599
102
{ACAD_XDICTIONARY
360
A71
102
}
330
2
100
AcDbSymbolTableRecord
100
AcDbLayerTableRecord
  2
5
 70
     0
 62
     3
  6
Continuous
370
    -3
390
F
  0
LAYER
  5
59A
102
{ACAD_XDICTIONARY
360
A73
102
}
330
2
100
AcDbSymbolTableRecord
100
AcDbLayerTableRecord
  2
0N
 70
     0
 62
     7
  6
Continuous
370
    -3
390
F
  0
LAYER
  5
59B
102
{ACAD_XDICTIONARY
360
A75
102
}
330
2
100
AcDbSymbolTableRecord
100
AcDbLayerTableRecord
  2
RAHM3
 70
     0
 62
     2
  6
Continuous
370
    -3
390
F
  0
LAYER
  5
59C
102
{ACAD_XDICTIONARY
360
A77
102
}
330
2
100
AcDbSymbolTableRecord
100
AcDbLayerTableRecord
  2
MITTE
 70
     0
 62
     1
  6
STRICHPUNKT
370
    -3
390
F
  0
LAYER
  5
59D
102
{ACAD_XDICTIONARY
360
A79
102
}
330
2
100
AcDbSymbolTableRecord
100
AcDbLayerTableRecord
  2
TEXT50
 70
     0
 62
     7
  6
Continuous
370
    -3
390
F
  0
LAYER
  5
59E
102
{ACAD_XDICTIONARY
360
A7B
102
}
330
2
100
AcDbSymbolTableRecord
100
AcDbLayerTableRecord
  2
TEXT35
 70
     0
 62
   132
  6
Continuous
370
    -3
390
F
  0
LAYER
  5
59F
102
{ACAD_XDICTIONARY
360
A7D
102
}
330
2
100
AcDbSymbolTableRecord
100
AcDbLayerTableRecord
  2
TEXT25
 70
     0
 62
     3
  6
Continuous
370
    -3
390
F
  0
LAYER
  5
5A0
102
{ACAD_XDICTIONARY
360
A7F
102
}
330
2
100
AcDbSymbolTableRecord
100
AcDbLayerTableRecord
  2
KOPF
 70
     0
 62
     1
  6
AUSGEZOGEN
370
    -3
390
F
  0
LAYER
  5
5A1
102
{ACAD_XDICTIONARY
360
A81
102
}
330
2
100
AcDbSymbolTableRecord
100
AcDbLayerTableRecord
  2
Sperrlayer
 70
     1
 62
     7
  6
Continuous
370
    50
390
F
  0
LAYER
  5
5A2
102
{ACAD_XDICTIONARY
360
A83
102
}
330
2
100
AcDbSymbolTableRecord
100
AcDbLayerTableRecord
  2
AM_8
 70
     0
 62
     1
  6
Continuous
370
    15
390
F
1001
AcAecLayerStandard
1000

1000

  0
LAYER
  5
5A3
102
{ACAD_XDICTIONARY
360
A85
102
}
330
2
100
AcDbSymbolTableRecord
100
AcDbLayerTableRecord
  2
AM_0
 70
     0
 62
     7
  6
Continuous
370
    30
390
F
1001
AcAecLayerStandard
1000

1000

  0
LAYER
  5
79A
102
{ACAD_XDICTIONARY
360
A87
102
}
330
2
100
AcDbSymbolTableRecord
100
AcDbLayerTableRecord
  2
AM_5
 70
     0
 62
     3
  6
Continuous
370
    15
390
F
1001
AcAecLayerStandard
1000

1000

  0
LAYER
  5
A4D
102
{ACAD_XDICTIONARY
360
A89
102
}
330
2
100
AcDbSymbolTableRecord
100
AcDbLayerTableRecord
  2
AM_CL
 70
     0
 62
     1
  6
Amconstr
370
    15
390
F
1001
AcAecLayerStandard
1000

1000

  0
ENDTAB
  0
TABLE
  2
STYLE
  5
3
330
0
100
AcDbSymbolTable
 70
    10
  0
STYLE
  5
11
330
3
100
AcDbSymbolTableRecord
100
AcDbTextStyleTableRecord
  2
Standard
 70
     0
 40
0.0
 41
1.0
 50
0.0
 71
     0
 42
0.2
  3
txt
  4

  0
STYLE
  5
191
330
3
100
AcDbSymbolTableRecord
100
AcDbTextStyleTableRecord
  2

 70
     1
 40
0.0
 41
1.0
 50
0.0
 71
     0
 42
0.2
  3
genltshp.shx
  4

  0
STYLE
  5
196
330
3
100
AcDbSymbolTableRecord
100
AcDbTextStyleTableRecord
  2
ACANSTS
 70
     0
 40
1.0
 41
1.0
 50
0.0
 71
     0
 42
0.2
  3
romans.shx
  4

  0
STYLE
  5
1A2
330
3
100
AcDbSymbolTableRecord
100
AcDbTextStyleTableRecord
  2
ACANSGDT
 70
     0
 40
0.0
 41
1.0
 50
0.0
 71
     0
 42
0.2
  3
amgdt.shx
  4

  0
STYLE
  5
215
330
3
100
AcDbSymbolTableRecord
100
AcDbTextStyleTableRecord
  2
ACISOTS
 70
     0
 40
1.0
 41
1.0
 50
0.0
 71
     0
 42
2.5
  3
isocp.shx
  4
bigfont.shx
  0
STYLE
  5
216
330
3
100
AcDbSymbolTableRecord
100
AcDbTextStyleTableRecord
  2
ACISOGDT
 70
     0
 40
0.0
 41
1.0
 50
0.0
 71
     0
 42
2.5
  3
AMGDT
  4
bigfont.shx
  0
STYLE
  5
5A4
330
3
100
AcDbSymbolTableRecord
100
AcDbTextStyleTableRecord
  2
KOPF
 70
     0
 40
0.0
 41
0.9
 50
10.0
 71
     0
 42
2.5
  3
dutchi.ttf
  4

1001
ACAD
1000
Dutch801 Rm BT
1071
 16777234
  0
STYLE
  5
5A5
330
3
100
AcDbSymbolTableRecord
100
AcDbTextStyleTableRecord
  2
TEXT20
 70
     0
 40
2.0
 41
0.8
 50
0.0
 71
     0
 42
2.0
  3
isocp3.shx
  4

  0
STYLE
  5
5A6
330
3
100
AcDbSymbolTableRecord
100
AcDbTextStyleTableRecord
  2
TEXT35
 70
     0
 40
3.5
 41
0.8
 50
0.0
 71
     0
 42
3.5
  3
isocp3.shx
  4

  0
STYLE
  5
5A7
330
3
100
AcDbSymbolTableRecord
100
AcDbTextStyleTableRecord
  2
TEXT50
 70
     0
 40
5.0
 41
0.8
 50
0.0
 71
     0
 42
5.0
  3
isocp3.shx
  4

  0
ENDTAB
  0
TABLE
  2
VIEW
  5
6
330
0
100
AcDbSymbolTable
 70
     0
  0
ENDTAB
  0
TABLE
  2
UCS
  5
7
330
0
100
AcDbSymbolTable
 70
     0
  0
ENDTAB
  0
TABLE
  2
APPID
  5
9
330
0
100
AcDbSymbolTable
 70
    29
  0
APPID
  5
12
330
9
100
AcDbSymbolTableRecord
100
AcDbRegAppTableRecord
  2
ACAD
 70
     0
  0
APPID
  5
125
330
9
100
AcDbSymbolTableRecord
100
AcDbRegAppTableRecord
  2
MCAD_NO_VIS
 70
     0
  0
APPID
  5
126
330
9
100
AcDbSymbolTableRecord
100
AcDbRegAppTableRecord
  2
ACAD_TEMP_GRAPHIC
 70
     0
  0
APPID
  5
158
330
9
100
AcDbSymbolTableRecord
100
AcDbRegAppTableRecord
  2
AD_DRAW
 70
     0
  0
APPID
  5
15B
330
9
100
AcDbSymbolTableRecord
100
AcDbRegAppTableRecord
  2
ACATTRIBSERVICES
 70
     0
  0
APPID
  5
17B
330
9
100
AcDbSymbolTableRecord
100
AcDbRegAppTableRecord
  2
DESIGNERASSEMBLIES
 70
     0
  0
APPID
  5
181
330
9
100
AcDbSymbolTableRecord
100
AcDbRegAppTableRecord
  2
ACADM_DIM_EDIT
 70
     0
  0
APPID
  5
182
330
9
100
AcDbSymbolTableRecord
100
AcDbRegAppTableRecord
  2
AMDT_DM_ADJ
 70
     0
  0
APPID
  5
1B0
330
9
100
AcDbSymbolTableRecord
100
AcDbRegAppTableRecord
  2
ACAD_DSTYLE_DIMARC_LENGTH_SYMBOL
 70
     0
  0
APPID
  5
1B1
330
9
100
AcDbSymbolTableRecord
100
AcDbRegAppTableRecord
  2
ACAD_DSTYLE_DIMJOGGED_JOGANGLE_SYMBOL
 70
     0
  0
APPID
  5
203
330
9
100
AcDbSymbolTableRecord
100
AcDbRegAppTableRecord
  2
AcAecLayerStandard
 70
     0
  0
APPID
  5
209
330
9
100
AcDbSymbolTableRecord
100
AcDbRegAppTableRecord
  2
GENIUS_GENOENT_13
 70
     0
  0
APPID
  5
20A
330
9
100
AcDbSymbolTableRecord
100
AcDbRegAppTableRecord
  2
GENIUS_GENOBJ-N-CRS_13
 70
     0
  0
APPID
  5
20B
330
9
100
AcDbSymbolTableRecord
100
AcDbRegAppTableRecord
  2
GENIUS_GENOLIS_13
 70
     0
  0
APPID
  5
20C
330
9
100
AcDbSymbolTableRecord
100
AcDbRegAppTableRecord
  2
GENIUS_GENODEF_13
 70
     0
  0
APPID
  5
20D
330
9
100
AcDbSymbolTableRecord
100
AcDbRegAppTableRecord
  2
GENIUS_GENOREF_13
 70
     0
  0
APPID
  5
5AC
330
9
100
AcDbSymbolTableRecord
100
AcDbRegAppTableRecord
  2
GENIUS_VERSION2
 70
     0
  0
APPID
  5
5AD
330
9
100
AcDbSymbolTableRecord
100
AcDbRegAppTableRecord
  2
GENIUS_GENOBJ-N-HTC_13
 70
     0
  0
APPID
  5
5AE
330
9
100
AcDbSymbolTableRecord
100
AcDbRegAppTableRecord
  2
GENIUS_GENHATCH_13
 70
     0
  0
APPID
  5
5AF
330
9
100
AcDbSymbolTableRecord
100
AcDbRegAppTableRecord
  2
GENIUS_GENBLLY_14
 70
     0
  0
APPID
  5
5B0
330
9
100
AcDbSymbolTableRecord
100
AcDbRegAppTableRecord
  2
GENIUS_GENREC_14
 70
     0
  0
APPID
  5
5B1
330
9
100
AcDbSymbolTableRecord
100
AcDbRegAppTableRecord
  2
GENIUS_GENOBJ-N-REC_13
 70
     0
  0
APPID
  5
5B2
330
9
100
AcDbSymbolTableRecord
100
AcDbRegAppTableRecord
  2
GENIUS_AMGTXT_16
 70
     0
  0
APPID
  5
5B3
330
9
100
AcDbSymbolTableRecord
100
AcDbRegAppTableRecord
  2
DCO15
 70
     0
  0
APPID
  5
82D
330
9
100
AcDbSymbolTableRecord
100
AcDbRegAppTableRecord
  2
GENIUS_GENDTOL_13
 70
     0
  0
APPID
  5
9D6
330
9
100
AcDbSymbolTableRecord
100
AcDbRegAppTableRecord
  2
ACAD_MLEADERVER
 70
     0
  0
APPID
  5
A30
330
9
100
AcDbSymbolTableRecord
100
AcDbRegAppTableRecord
  2
ACAD_DSTYLE_DIMINSPECT
 70
     0
  0
APPID
  5
A31
330
9
100
AcDbSymbolTableRecord
100
AcDbRegAppTableRecord
  2
ACAD_DSTYLE_DIMRADIAL_EXTENSION
 70
     0
  0
APPID
  5
AD5
330
9
100
AcDbSymbolTableRecord
100
AcDbRegAppTableRecord
  2
ACAD_EXEMPT_FROM_CAD_STANDARDS
 70
     0
  0
ENDTAB
  0
TABLE
  2
DIMSTYLE
  5
A
330
0
100
AcDbSymbolTable
 70
    18
100
AcDbDimStyleTable
 71
     2
340
27
340
5A8
  0
DIMSTYLE
105
27
330
A
100
AcDbSymbolTableRecord
100
AcDbDimStyleTableRecord
  2
Standard
 70
     0
340
11
  0
DIMSTYLE
105
1AF
330
A
100
AcDbSymbolTableRecord
100
AcDbDimStyleTableRecord
  2
AM_ANSI
 70
     0
  4
mm
 41
0.1
 42
0.05
 43
0.5
 44
0.1
 47
0.1
 48
0.1
 78
     7
 79
     2
140
0.12
141
0.0
146
0.71
147
0.06
176
   256
177
   256
178
     2
274
     4
284
     7
340
11
371
    -1
372
    -1
1001
ACAD_DSTYLE_DIMJOGGED_JOGANGLE_SYMBOL
1070
   384
1040
0.7853981633974483
1001
ACAD_DSTYLE_DIMARC_LENGTH_SYMBOL
1070
   379
1070
     1
  0
DIMSTYLE
105
1B8
330
A
100
AcDbSymbolTableRecord
100
AcDbDimStyleTableRecord
  2
AM_ANSI$3
 70
     0
  4
mm
 41
0.1
 42
0.05
 43
0.5
 44
0.1
 47
0.1
 48
0.1
 78
     7
 79
     2
140
0.12
141
0.0
146
0.71
147
0.06
176
   256
177
   256
178
     2
274
     4
284
     7
288
     1
289
     0
340
11
371
    -1
372
    -1
1001
ACAD_DSTYLE_DIMJOGGED_JOGANGLE_SYMBOL
1070
   384
1040
0.7853981633974483
1001
ACAD_DSTYLE_DIMARC_LENGTH_SYMBOL
1070
   379
1070
     1
  0
DIMSTYLE
105
1BB
330
A
100
AcDbSymbolTableRecord
100
AcDbDimStyleTableRecord
  2
AM_ANSI$4
 70
     0
  4
mm
 41
0.1
 42
0.05
 43
0.5
 44
0.1
 47
0.1
 48
0.1
 78
     7
 79
     2
140
0.12
141
0.0
146
0.71
147
0.06
176
   256
177
   256
178
     2
274
     4
284
     7
288
     1
289
     0
340
11
371
    -1
372
    -1
1001
ACAD_DSTYLE_DIMJOGGED_JOGANGLE_SYMBOL
1070
   384
1040
0.7853981633974483
1001
ACAD_DSTYLE_DIMARC_LENGTH_SYMBOL
1070
   379
1070
     1
  0
DIMSTYLE
105
1C0
330
A
100
AcDbSymbolTableRecord
100
AcDbDimStyleTableRecord
  2
AM_ANSI$7
 70
     0
  4
mm
 41
0.1
 42
0.05
 43
0.5
 44
0.1
 47
0.1
 48
0.1
 78
     7
 79
     2
140
0.24
141
0.0
146
0.71
147
0.06
176
   256
177
   256
178
     2
274
     4
284
     7
340
11
371
    -1
372
    -1
1001
ACAD_DSTYLE_DIMJOGGED_JOGANGLE_SYMBOL
1070
   384
1040
0.7853981633974483
1001
ACAD_DSTYLE_DIMARC_LENGTH_SYMBOL
1070
   379
1070
     1
  0
DIMSTYLE
105
1C3
330
A
100
AcDbSymbolTableRecord
100
AcDbDimStyleTableRecord
  2
AM_ANSI$SF
 70
     0
  4
mm
 41
0.1
 42
0.05
 43
0.5
 44
0.1
 47
0.1
 48
0.1
 75
     1
 76
     1
 78
     7
 79
     2
140
0.12
141
0.0
146
0.71
147
0.06
176
   256
177
   256
178
     2
274
     4
284
     7
340
11
371
    -1
372
    -1
1001
ACAD_DSTYLE_DIMJOGGED_JOGANGLE_SYMBOL
1070
   384
1040
0.7853981633974483
1001
ACAD_DSTYLE_DIMARC_LENGTH_SYMBOL
1070
   379
1070
     1
  0
DIMSTYLE
105
1CA
330
A
100
AcDbSymbolTableRecord
100
AcDbDimStyleTableRecord
  2
AM_ANSI$SH
 70
     0
  4
mm
 41
0.1
 42
0.05
 43
0.5
 44
0.1
 47
0.1
 48
0.1
 75
     1
 76
     1
 78
     7
 79
     2
140
0.12
141
0.0
146
0.71
147
0.06
173
     1
176
   256
177
   256
178
     2
274
     4
284
     7
340
11
343
1C4
371
    -1
372
    -1
1001
ACAD_DSTYLE_DIMJOGGED_JOGANGLE_SYMBOL
1070
   384
1040
0.7853981633974483
1001
ACAD_DSTYLE_DIMARC_LENGTH_SYMBOL
1070
   379
1070
     1
  0
DIMSTYLE
105
217
330
A
100
AcDbSymbolTableRecord
100
AcDbDimStyleTableRecord
  2
AM_ISO
 70
     0
  4
"
 41
2.5
 42
1.0
 43
10.0
 44
1.0
 47
0.1
 48
0.1
 73
     0
 74
     0
 77
     1
 78
     8
 79
     2
140
3.5
141
0.0
143
0.0393701
146
0.71
147
1.5
172
     1
176
   256
177
   256
178
     2
271
     2
272
     3
274
     4
283
     0
284
     8
340
11
371
    -1
372
    -1
1001
ACAD_DSTYLE_DIMJOGGED_JOGANGLE_SYMBOL
1070
   384
1040
0.7853981633974483
1001
ACAD_DSTYLE_DIMARC_LENGTH_SYMBOL
1070
   379
1070
     1
  0
DIMSTYLE
105
218
330
A
100
AcDbSymbolTableRecord
100
AcDbDimStyleTableRecord
  2
AM_ISO$3
 70
     0
  4
"
 41
2.5
 42
1.0
 43
10.0
 44
1.0
 47
0.1
 48
0.1
 73
     0
 77
     1
 78
     8
 79
     2
140
3.5
141
0.0
143
0.0393701
146
0.71
147
1.5
176
   256
177
   256
178
     2
271
     2
272
     3
274
     4
283
     0
284
     8
288
     1
289
     0
340
11
371
    -1
372
    -1
1001
ACAD_DSTYLE_DIMJOGGED_JOGANGLE_SYMBOL
1070
   384
1040
0.7853981633974483
1001
ACAD_DSTYLE_DIMARC_LENGTH_SYMBOL
1070
   379
1070
     1
  0
DIMSTYLE
105
219
330
A
100
AcDbSymbolTableRecord
100
AcDbDimStyleTableRecord
  2
AM_ISO$4
 70
     0
  4
"
 41
2.5
 42
1.0
 43
10.0
 44
1.0
 47
0.1
 48
0.1
 73
     0
 77
     1
 78
     8
 79
     2
140
3.5
141
0.0
143
0.0393701
146
0.71
147
1.5
176
   256
177
   256
178
     2
271
     2
272
     3
274
     4
283
     0
284
     8
288
     1
289
     0
340
11
371
    -1
372
    -1
1001
ACAD_DSTYLE_DIMJOGGED_JOGANGLE_SYMBOL
1070
   384
1040
0.7853981633974483
1001
ACAD_DSTYLE_DIMARC_LENGTH_SYMBOL
1070
   379
1070
     1
  0
DIMSTYLE
105
21A
330
A
100
AcDbSymbolTableRecord
100
AcDbDimStyleTableRecord
  2
AM_ISO$6
 70
     0
  4
"
 41
2.5
 42
1.0
 43
10.0
 44
1.0
 47
0.1
 48
0.1
 73
     0
 74
     0
 78
     8
 79
     2
140
3.5
141
0.0
143
0.0393701
146
0.71
147
1.5
172
     1
176
   256
177
   256
178
     2
271
     2
272
     3
274
     4
283
     0
284
     8
340
11
371
    -1
372
    -1
1001
ACAD_DSTYLE_DIMJOGGED_JOGANGLE_SYMBOL
1070
   384
1040
0.7853981633974483
1001
ACAD_DSTYLE_DIMARC_LENGTH_SYMBOL
1070
   379
1070
     1
  0
DIMSTYLE
105
21B
330
A
100
AcDbSymbolTableRecord
100
AcDbDimStyleTableRecord
  2
AM_ISO$7
 70
     0
  4
"
 41
2.5
 42
1.0
 43
10.0
 44
1.0
 47
0.1
 48
0.1
 73
     0
 74
     0
 77
     1
 78
     8
 79
     2
140
5.0
141
0.0
143
0.0393701
146
0.71
147
1.5
172
     1
176
   256
177
   256
178
     2
271
     2
272
     3
274
     4
283
     0
284
     8
340
11
371
    -1
372
    -1
1001
ACAD_DSTYLE_DIMJOGGED_JOGANGLE_SYMBOL
1070
   384
1040
0.7853981633974483
1001
ACAD_DSTYLE_DIMARC_LENGTH_SYMBOL
1070
   379
1070
     1
  0
DIMSTYLE
105
21C
330
A
100
AcDbSymbolTableRecord
100
AcDbDimStyleTableRecord
  2
AM_ISO$SF
 70
     0
  4
"
 41
2.5
 42
1.0
 43
10.0
 44
1.0
 47
0.1
 48
0.1
 73
     0
 74
     0
 75
     1
 76
     1
 77
     1
 78
     8
 79
     2
140
3.5
141
0.0
143
0.0393701
146
0.71
147
1.5
172
     1
176
   256
177
   256
178
     2
271
     2
272
     3
274
     4
283
     0
284
     8
340
11
371
    -1
372
    -1
1001
ACAD_DSTYLE_DIMJOGGED_JOGANGLE_SYMBOL
1070
   384
1040
0.7853981633974483
1001
ACAD_DSTYLE_DIMARC_LENGTH_SYMBOL
1070
   379
1070
     1
  0
DIMSTYLE
105
21D
330
A
100
AcDbSymbolTableRecord
100
AcDbDimStyleTableRecord
  2
AM_ISO$SH
 70
     0
  4
"
 41
2.5
 42
1.0
 43
10.0
 44
1.0
 47
0.1
 48
0.1
 73
     0
 74
     0
 75
     1
 76
     1
 77
     1
 78
     8
 79
     2
140
3.5
141
0.0
143
0.0393701
144
2.0
146
0.71
147
1.5
172
     1
173
     1
176
   256
177
   256
178
     2
271
     2
272
     3
274
     4
283
     0
284
     8
340
11
343
1C4
371
    -1
372
    -1
1001
ACAD_DSTYLE_DIMJOGGED_JOGANGLE_SYMBOL
1070
   384
1040
0.7853981633974483
1001
ACAD_DSTYLE_DIMARC_LENGTH_SYMBOL
1070
   379
1070
     1
  0
DIMSTYLE
105
5A8
330
A
100
AcDbSymbolTableRecord
100
AcDbDimStyleTableRecord
  2
GEN-ISO
 70
     0
  3
<>
  4
"
 41
2.5
 42
1.0
 43
7.0
 44
1.0
 47
0.1
 48
0.1
 73
     0
 74
     0
 77
     1
 78
     8
140
3.5
141
0.0
143
0.0393701
146
0.71
147
0.6
172
     1
176
   256
177
   256
178
     2
271
     2
272
     3
274
     4
283
     0
340
11
  0
DIMSTYLE
105
5A9
330
A
100
AcDbSymbolTableRecord
100
AcDbDimStyleTableRecord
  2
GEN-ISO$4
 70
     0
  3
<>
  4
"
 41
2.5
 42
1.0
 43
7.0
 44
1.0
 47
0.1
 48
0.1
 73
     0
 77
     1
 78
     8
140
3.5
141
0.0
143
0.0393701
146
0.71
147
0.6
176
   256
177
   256
178
     2
271
     2
272
     3
274
     4
283
     0
288
     1
289
     0
340
11
  0
DIMSTYLE
105
5AA
102
{ACAD_REACTORS
330
662
330
665
330
7A9
330
7D5
102
}
330
A
100
AcDbSymbolTableRecord
100
AcDbDimStyleTableRecord
  2
GEN-ISO$0
 70
     0
  3
<>
  4
"
 41
2.5
 42
1.0
 43
7.0
 44
1.0
 47
0.1
 48
0.1
 73
     0
 74
     0
 77
     1
 78
     8
140
3.5
141
0.0
143
0.0393701
146
0.71
147
0.6
172
     1
176
   256
177
   256
178
     2
271
     2
272
     3
274
     4
283
     0
340
11
  0
DIMSTYLE
105
5AB
330
A
100
AcDbSymbolTableRecord
100
AcDbDimStyleTableRecord
  2
Standard$0
 70
     0
340
11
  0
ENDTAB
  0
TABLE
  2
BLOCK_RECORD
  5
1
330
0
100
AcDbSymbolTable
 70
    21
  0
BLOCK_RECORD
  5
1F
330
1
100
AcDbSymbolTableRecord
100
AcDbBlockTableRecord
  2
*Model_Space
340
22
  0
BLOCK_RECORD
  5
1B
330
1
100
AcDbSymbolTableRecord
100
AcDbBlockTableRecord
  2
*Paper_Space
340
1E
  0
BLOCK_RECORD
  5
23
330
1
100
AcDbSymbolTableRecord
100
AcDbBlockTableRecord
  2
*Paper_Space0
340
26
  0
BLOCK_RECORD
  5
1C4
330
1
100
AcDbSymbolTableRecord
100
AcDbBlockTableRecord
  2
GENAXEH
340
0
  0
BLOCK_RECORD
  5
270
330
1
100
AcDbSymbolTableRecord
100
AcDbBlockTableRecord
  2
ACO_A3
340
0
  0
BLOCK_RECORD
  5
2B3
330
1
100
AcDbSymbolTableRecord
100
AcDbBlockTableRecord
  2
ACO-SF02-GR
340
0
  0
BLOCK_RECORD
  5
4E8
330
1
100
AcDbSymbolTableRecord
100
AcDbBlockTableRecord
  2
GENZOOIJNBVB3
340
0
  0
BLOCK_RECORD
  5
669
330
1
100
AcDbSymbolTableRecord
100
AcDbBlockTableRecord
  2
*D6
340
0
  0
BLOCK_RECORD
  5
675
330
1
100
AcDbSymbolTableRecord
100
AcDbBlockTableRecord
  2
*D7
340
0
  0
BLOCK_RECORD
  5
681
330
1
100
AcDbSymbolTableRecord
100
AcDbBlockTableRecord
  2
*D8
340
0
  0
BLOCK_RECORD
  5
68F
330
1
100
AcDbSymbolTableRecord
100
AcDbBlockTableRecord
  2
*D9
340
0
  0
BLOCK_RECORD
  5
69B
330
1
100
AcDbSymbolTableRecord
100
AcDbBlockTableRecord
  2
*D10
340
0
  0
BLOCK_RECORD
  5
6A7
330
1
100
AcDbSymbolTableRecord
100
AcDbBlockTableRecord
  2
*D11
340
0
  0
BLOCK_RECORD
  5
6B3
330
1
100
AcDbSymbolTableRecord
100
AcDbBlockTableRecord
  2
*D12
340
0
  0
BLOCK_RECORD
  5
6C1
330
1
100
AcDbSymbolTableRecord
100
AcDbBlockTableRecord
  2
*D13
340
0
  0
BLOCK_RECORD
  5
6CF
330
1
100
AcDbSymbolTableRecord
100
AcDbBlockTableRecord
  2
*D14
340
0
  0
BLOCK_RECORD
  5
6D8
330
1
100
AcDbSymbolTableRecord
100
AcDbBlockTableRecord
  2
*D15
340
0
  0
BLOCK_RECORD
  5
6E1
330
1
100
AcDbSymbolTableRecord
100
AcDbBlockTableRecord
  2
*D16
340
0
  0
BLOCK_RECORD
  5
6EF
330
1
100
AcDbSymbolTableRecord
100
AcDbBlockTableRecord
  2
*D17
340
0
  0
BLOCK_RECORD
  5
7AA
330
1
100
AcDbSymbolTableRecord
100
AcDbBlockTableRecord
  2
*D18
340
0
  0
BLOCK_RECORD
  5
7D6
330
1
100
AcDbSymbolTableRecord
100
AcDbBlockTableRecord
  2
*D19
340
0
  0
BLOCK_RECORD
  5
B74
330
1
100
AcDbSymbolTableRecord
100
AcDbBlockTableRecord
  2
*S20
340
0
  0
ENDTAB
  0
ENDSEC
  0
SECTION
  2
BLOCKS
  0
BLOCK
  5
20
330
1F
100
AcDbEntity
  8
0
100
AcDbBlockBegin
  2
*Model_Space
 70
     0
 10
0.0
 20
0.0
 30
0.0
  3
*Model_Space
  1

  0
ENDBLK
  5
21
330
1F
100
AcDbEntity
  8
0
100
AcDbBlockEnd
  0
BLOCK
  5
1C
330
1B
100
AcDbEntity
 67
     1
  8
0
100
AcDbBlockBegin
  2
*Paper_Space
 70
     0
 10
0.0
 20
0.0
 30
0.0
  3
*Paper_Space
  1

  0
ENDBLK
  5
1D
330
1B
100
AcDbEntity
 67
     1
  8
0
100
AcDbBlockEnd
  0
BLOCK
  5
24
330
23
100
AcDbEntity
 67
     1
  8
0
100
AcDbBlockBegin
  2
*Paper_Space0
 70
     0
 10
0.0
 20
0.0
 30
0.0
  3
*Paper_Space0
  1

  0
ENDBLK
  5
25
330
23
100
AcDbEntity
 67
     1
  8
0
100
AcDbBlockEnd
  0
BLOCK
  5
1C6
330
1C4
100
AcDbEntity
  8
0
100
AcDbBlockBegin
  2
GENAXEH
 70
     0
 10
0.0
 20
0.0
 30
0.0
  3
GENAXEH
  1

  0
LINE
  5
1C5
330
1C4
100
AcDbEntity
  8
0
100
AcDbLine
 10
-1.0
 20
0.0
 30
0.0
 11
1.0
 21
0.0
 31
0.0
  0
ENDBLK
  5
1C7
330
1C4
100
AcDbEntity
  8
0
100
AcDbBlockEnd
  0
BLOCK
  5
271
330
270
100
AcDbEntity
  8
0
100
AcDbBlockBegin
  2
ACO_A3
 70
     0
 10
0.0
 20
0.0
 30
0.0
  3
ACO_A3
  1

  0
LINE
  5
272
330
270
100
AcDbEntity
  8
RAHM2
100
AcDbLine
 10
420.0
 20
297.0
 30
0.0
 11
419.9999999999999
 21
0.0
 31
0.0
1001
GENIUS_GENBLLY_14
1000
BOR2
  0
LINE
  5
273
330
270
100
AcDbEntity
  8
RAHM2
100
AcDbLine
 10
230.0
 20
5.00000000000005
 30
0.0
 11
230.0
 21
0.0000000000000233
 31
0.0
1001
GENIUS_GENBLLY_14
1000
BOR2
  0
LINE
  5
274
330
270
100
AcDbEntity
  8
RAHM2
100
AcDbLine
 10
157.12
 20
10.00000000000003
 30
0.0
 11
9.999999999999943
 21
10.00000000000005
 31
0.0
1001
GENIUS_GENBLLY_14
1000
BOR2
  0
TEXT
  5
275
330
270
100
AcDbEntity
  8
RAHM2
100
AcDbText
 10
411.0
 20
262.0
 30
0.0
 40
4.0
  1
A
100
AcDbText
1001
GENIUS_GENBLLY_14
1000
BOR2
  0
TEXT
  5
276
330
270
100
AcDbEntity
  8
RAHM2
100
AcDbText
 10
411.0
 20
216.0
 30
0.0
 40
4.0
  1
B
100
AcDbText
1001
GENIUS_GENBLLY_14
1000
BOR2
  0
TEXT
  5
277
330
270
100
AcDbEntity
  8
RAHM2
100
AcDbText
 10
411.0
 20
170.0
 30
0.0
 40
4.0
  1
C
100
AcDbText
1001
GENIUS_GENBLLY_14
1000
BOR2
  0
TEXT
  5
278
330
270
100
AcDbEntity
  8
RAHM2
100
AcDbText
 10
411.0
 20
123.0
 30
0.0
 40
4.0
  1
D
100
AcDbText
1001
GENIUS_GENBLLY_14
1000
BOR2
  0
TEXT
  5
279
330
270
100
AcDbEntity
  8
RAHM2
100
AcDbText
 10
411.0
 20
77.0
 30
0.0
 40
4.0
  1
E
100
AcDbText
1001
GENIUS_GENBLLY_14
1000
BOR2
  0
TEXT
  5
27A
330
270
100
AcDbEntity
  8
RAHM2
100
AcDbText
 10
411.0
 20
31.0
 30
0.0
 40
4.0
  1
F
100
AcDbText
1001
GENIUS_GENBLLY_14
1000
BOR2
  0
LINE
  5
27B
330
270
100
AcDbEntity
  8
RAHM2
100
AcDbLine
 10
415.0
 20
240.83
 30
0.0
 11
410.0
 21
240.83
 31
0.0
1001
GENIUS_GENBLLY_14
1000
BOR2
  0
LINE
  5
27C
330
270
100
AcDbEntity
  8
RAHM2
100
AcDbLine
 10
415.0
 20
194.664
 30
0.0
 11
410.0
 21
194.664
 31
0.0
1001
GENIUS_GENBLLY_14
1000
BOR2
  0
LINE
  5
27D
330
270
100
AcDbEntity
  8
RAHM2
100
AcDbLine
 10
415.0
 20
148.498
 30
0.0
 11
410.0
 21
148.498
 31
0.0
1001
GENIUS_GENBLLY_14
1000
BOR2
  0
LINE
  5
27E
330
270
100
AcDbEntity
  8
RAHM2
100
AcDbLine
 10
415.0
 20
102.332
 30
0.0
 11
410.0
 21
102.332
 31
0.0
1001
GENIUS_GENBLLY_14
1000
BOR2
  0
LINE
  5
27F
330
270
100
AcDbEntity
  8
RAHM2
100
AcDbLine
 10
415.0
 20
56.166
 30
0.0
 11
410.0
 21
56.166
 31
0.0
1001
GENIUS_GENBLLY_14
1000
BOR2
  0
LINE
  5
280
330
270
100
AcDbEntity
  8
RAHM2
100
AcDbLine
 10
60.0
 20
291.9999999999999
 30
0.0
 11
60.0
 21
287.0
 31
0.0
1001
GENIUS_GENBLLY_14
1000
BOR2
  0
LINE
  5
281
330
270
100
AcDbEntity
  8
RAHM2
100
AcDbLine
 10
110.0
 20
291.9999999999999
 30
0.0
 11
110.0
 21
287.0
 31
0.0
1001
GENIUS_GENBLLY_14
1000
BOR2
  0
LINE
  5
282
330
270
100
AcDbEntity
  8
RAHM2
100
AcDbLine
 10
160.0
 20
291.9999999999999
 30
0.0
 11
160.0
 21
287.0
 31
0.0
1001
GENIUS_GENBLLY_14
1000
BOR2
  0
LINE
  5
283
330
270
100
AcDbEntity
  8
RAHM2
100
AcDbLine
 10
210.0
 20
291.9999999999999
 30
0.0
 11
210.0
 21
287.0
 31
0.0
1001
GENIUS_GENBLLY_14
1000
BOR2
  0
LINE
  5
284
330
270
100
AcDbEntity
  8
RAHM2
100
AcDbLine
 10
260.0
 20
291.9999999999999
 30
0.0
 11
260.0
 21
287.0
 31
0.0
1001
GENIUS_GENBLLY_14
1000
BOR2
  0
LINE
  5
285
330
270
100
AcDbEntity
  8
RAHM2
100
AcDbLine
 10
310.0
 20
291.9999999999999
 30
0.0
 11
310.0
 21
287.0
 31
0.0
1001
GENIUS_GENBLLY_14
1000
BOR2
  0
LINE
  5
286
330
270
100
AcDbEntity
  8
RAHM2
100
AcDbLine
 10
360.0
 20
291.9999999999999
 30
0.0
 11
360.0
 21
287.0
 31
0.0
1001
GENIUS_GENBLLY_14
1000
BOR2
  0
TEXT
  5
287
330
270
100
AcDbEntity
  8
RAHM2
100
AcDbText
 10
384.0
 20
287.5
 30
0.0
 40
4.0
  1
8
100
AcDbText
1001
GENIUS_GENBLLY_14
1000
BOR2
  0
TEXT
  5
288
330
270
100
AcDbEntity
  8
RAHM2
100
AcDbText
 10
334.0
 20
287.5
 30
0.0
 40
4.0
  1
7
100
AcDbText
1001
GENIUS_GENBLLY_14
1000
BOR2
  0
TEXT
  5
289
330
270
100
AcDbEntity
  8
RAHM2
100
AcDbText
 10
284.0
 20
287.5
 30
0.0
 40
4.0
  1
6
100
AcDbText
1001
GENIUS_GENBLLY_14
1000
BOR2
  0
TEXT
  5
28A
330
270
100
AcDbEntity
  8
RAHM2
100
AcDbText
 10
233.5
 20
287.5
 30
0.0
 40
4.0
  1
5
100
AcDbText
1001
GENIUS_GENBLLY_14
1000
BOR2
  0
TEXT
  5
28B
330
270
100
AcDbEntity
  8
RAHM2
100
AcDbText
 10
183.5
 20
287.5
 30
0.0
 40
4.0
  1
4
100
AcDbText
1001
GENIUS_GENBLLY_14
1000
BOR2
  0
TEXT
  5
28C
330
270
100
AcDbEntity
  8
RAHM2
100
AcDbText
 10
133.5
 20
287.5
 30
0.0
 40
4.0
  1
3
100
AcDbText
1001
GENIUS_GENBLLY_14
1000
BOR2
  0
TEXT
  5
28D
330
270
100
AcDbEntity
  8
RAHM2
100
AcDbText
 10
83.49999999999999
 20
287.5
 30
0.0
 40
4.0
  1
2
100
AcDbText
1001
GENIUS_GENBLLY_14
1000
BOR2
  0
TEXT
  5
28E
330
270
100
AcDbEntity
  8
RAHM2
100
AcDbText
 10
33.5
 20
287.5
 30
0.0
 40
4.0
  1
1
100
AcDbText
1001
GENIUS_GENBLLY_14
1000
BOR2
  0
TEXT
  5
28F
330
270
100
AcDbEntity
  8
RAHM2
100
AcDbText
 10
33.5
 20
5.5
 30
0.0
 40
4.0
  1
1
100
AcDbText
1001
GENIUS_GENBLLY_14
1000
BOR2
  0
TEXT
  5
290
330
270
100
AcDbEntity
  8
RAHM2
100
AcDbText
 10
83.49999999999999
 20
5.5
 30
0.0
 40
4.0
  1
2
100
AcDbText
1001
GENIUS_GENBLLY_14
1000
BOR2
  0
TEXT
  5
291
330
270
100
AcDbEntity
  8
RAHM2
100
AcDbText
 10
133.5
 20
5.5
 30
0.0
 40
4.0
  1
3
100
AcDbText
1001
GENIUS_GENBLLY_14
1000
BOR2
  0
TEXT
  5
292
330
270
100
AcDbEntity
  8
RAHM2
100
AcDbText
 10
6.0
 20
262.0
 30
0.0
 40
4.0
  1
A
100
AcDbText
1001
GENIUS_GENBLLY_14
1000
BOR2
  0
TEXT
  5
293
330
270
100
AcDbEntity
  8
RAHM2
100
AcDbText
 10
6.0
 20
216.0
 30
0.0
 40
4.0
  1
B
100
AcDbText
1001
GENIUS_GENBLLY_14
1000
BOR2
  0
TEXT
  5
294
330
270
100
AcDbEntity
  8
RAHM2
100
AcDbText
 10
6.0
 20
170.0
 30
0.0
 40
4.0
  1
C
100
AcDbText
1001
GENIUS_GENBLLY_14
1000
BOR2
  0
TEXT
  5
295
330
270
100
AcDbEntity
  8
RAHM2
100
AcDbText
 10
6.0
 20
123.0
 30
0.0
 40
4.0
  1
D
100
AcDbText
1001
GENIUS_GENBLLY_14
1000
BOR2
  0
TEXT
  5
296
330
270
100
AcDbEntity
  8
RAHM2
100
AcDbText
 10
6.0
 20
77.0
 30
0.0
 40
4.0
  1
E
100
AcDbText
1001
GENIUS_GENBLLY_14
1000
BOR2
  0
TEXT
  5
297
330
270
100
AcDbEntity
  8
RAHM2
100
AcDbText
 10
6.0
 20
31.0
 30
0.0
 40
4.0
  1
F
100
AcDbText
1001
GENIUS_GENBLLY_14
1000
BOR2
  0
LINE
  5
298
330
270
100
AcDbEntity
  8
RAHM2
100
AcDbLine
 10
110.0
 20
10.0
 30
0.0
 11
110.0
 21
5.0
 31
0.0
1001
GENIUS_GENBLLY_14
1000
BOR2
  0
LINE
  5
299
330
270
100
AcDbEntity
  8
RAHM2
100
AcDbLine
 10
60.0
 20
10.0
 30
0.0
 11
60.0
 21
5.0
 31
0.0
1001
GENIUS_GENBLLY_14
1000
BOR2
  0
LINE
  5
29A
330
270
100
AcDbEntity
  8
RAHM2
100
AcDbLine
 10
10.0
 20
240.83
 30
0.0
 11
5.0
 21
240.83
 31
0.0
1001
GENIUS_GENBLLY_14
1000
BOR2
  0
LINE
  5
29B
330
270
100
AcDbEntity
  8
RAHM2
100
AcDbLine
 10
10.0
 20
194.664
 30
0.0
 11
5.0
 21
194.664
 31
0.0
1001
GENIUS_GENBLLY_14
1000
BOR2
  0
LINE
  5
29C
330
270
100
AcDbEntity
  8
RAHM2
100
AcDbLine
 10
10.0
 20
148.498
 30
0.0
 11
5.0
 21
148.498
 31
0.0
1001
GENIUS_GENBLLY_14
1000
BOR2
  0
LINE
  5
29D
330
270
100
AcDbEntity
  8
RAHM2
100
AcDbLine
 10
10.0
 20
102.332
 30
0.0
 11
5.0
 21
102.332
 31
0.0
1001
GENIUS_GENBLLY_14
1000
BOR2
  0
LINE
  5
29E
330
270
100
AcDbEntity
  8
RAHM2
100
AcDbLine
 10
10.0
 20
56.166
 30
0.0
 11
5.0
 21
56.166
 31
0.0
1001
GENIUS_GENBLLY_14
1000
BOR2
  0
LINE
  5
29F
330
270
100
AcDbEntity
  8
RAHM2
100
AcDbLine
 10
410.0
 20
287.0
 30
0.0
 11
409.9999999999999
 21
5.0
 31
0.0
1001
GENIUS_GENBLLY_14
1000
BOR2
  0
LINE
  5
2A0
330
270
100
AcDbEntity
  8
RAHM2
100
AcDbLine
 10
10.00000000000001
 20
287.0
 30
0.0
 11
410.0
 21
287.0
 31
0.0
1001
GENIUS_GENBLLY_14
1000
BOR2
  0
LINE
  5
2A1
330
270
100
AcDbEntity
  8
RAHM2
100
AcDbLine
 10
10.0
 20
10.0
 30
0.0
 11
10.00000000000001
 21
287.0
 31
0.0
1001
GENIUS_GENBLLY_14
1000
BOR2
  0
LINE
  5
2A2
330
270
100
AcDbEntity
  8
0
100
AcDbLine
 10
414.9999999999999
 20
5.0
 30
0.0
 11
4.999999999999943
 21
5.00000000000005
 31
0.0
  0
LINE
  5
2A3
330
270
100
AcDbEntity
  8
0
100
AcDbLine
 10
415.0
 20
292.0
 30
0.0
 11
414.9999999999999
 21
5.0
 31
0.0
  0
LINE
  5
2A4
330
270
100
AcDbEntity
  8
0
100
AcDbLine
 10
5.000000000000017
 20
292.0
 30
0.0
 11
415.0
 21
292.0
 31
0.0
  0
LINE
  5
2A5
330
270
100
AcDbEntity
  8
RAHM2
100
AcDbLine
 10
0.0000000000000182
 20
297.0
 30
0.0
 11
420.0
 21
297.0
 31
0.0
1001
GENIUS_GENBLLY_14
1000
BOR2
  0
LINE
  5
2A6
330
270
100
AcDbEntity
  8
RAHM2
100
AcDbLine
 10
0.0
 20
0.0
 30
0.0
 11
0.0000000000000182
 21
297.0
 31
0.0
1001
GENIUS_GENBLLY_14
1000
BOR2
  0
LINE
  5
2A7
330
270
100
AcDbEntity
  8
RAHM2
100
AcDbLine
 10
125.0
 20
0.0000000000000514
 30
0.0
 11
125.0
 21
5.000000000000035
 31
0.0
1001
GENIUS_GENBLLY_14
1000
BOR2
  0
TEXT
  5
2A8
330
270
100
AcDbEntity
  8
0
100
AcDbText
 10
420.0
 20
297.0
 30
0.0
 40
2.0
  1
!GENTITLE-MAX
100
AcDbText
  0
TEXT
  5
2A9
330
270
100
AcDbEntity
  8
0
100
AcDbText
 10
410.0
 20
287.0
 30
0.0
 40
2.0
  1
!GENTITLE-RU
100
AcDbText
  0
TEXT
  5
2AA
330
270
100
AcDbEntity
  8
0
100
AcDbText
 10
409.9999999999999
 20
5.0
 30
0.0
 40
2.0
  1
!GENTITLE-INSERT
100
AcDbText
  0
TEXT
  5
2AB
330
270
100
AcDbEntity
  8
0
100
AcDbText
 10
10.0
 20
10.00000000000005
 30
0.0
 40
2.0
  1
!GENTITLE-LL
100
AcDbText
  0
LINE
  5
2AC
330
270
100
AcDbEntity
  8
0
100
AcDbLine
 10
5.0
 20
5.0
 30
0.0
 11
5.000000000000017
 21
292.0
 31
0.0
  0
LINE
  5
2AD
330
270
100
AcDbEntity
  8
RAHM2
100
AcDbLine
 10
419.9999999999999
 20
0.0
 30
0.0
 11
-0.0000000000000568
 21
0.0000000000000514
 31
0.0
1001
GENIUS_VERSION2
1070
     2
1001
GENIUS_GENBLLY_14
1000
BOR2
  0
LWPOLYLINE
  5
2AE
330
270
100
AcDbEntity
  8
RAHM2
100
AcDbPolyline
 90
        4
 70
     1
 43
0.0
 10
227.1200000000001
 20
5.000000000000031
 10
157.12
 20
5.000000000000031
 10
157.12
 20
13.50000000000003
 10
227.1200000000001
 20
13.50000000000002
1001
GENIUS_GENREC_14
1002
{
1000
PXDIR
1011
157.12
1021
5.000000000000031
1031
0.0
1002
}
1002
{
1000
PORI
1011
227.1200000000001
1021
5.000000000000031
1031
0.0
1002
}
1002
{
1000
PINS
1011
227.1200000000001
1021
5.000000000000031
1031
0.0
1002
}
1002
{
1000
HVAL
1000
8.5
1002
}
1002
{
1000
H
1070
     2
1002
}
1002
{
1000
WVAL
1000
-70
1002
}
1002
{
1000
W
1070
     2
1002
}
1002
{
1000
C
1070
     1
1002
}
1001
GENIUS_GENODEF_13
1002
{
1000
HIER
1070
     0
1002
}
1002
{
1000
MANEDIT
1070
     0
1002
}
1002
{
1000
NOSEL
1070
     0
1002
}
1002
{
1000
BEHIND
1070
     0
1002
}
1002
{
1000
REACTOR
1002
}
1001
GENIUS_GENOBJ-N-REC_13
1002
{
1000
OWNER
1000
GEN
1002
}
  0
MTEXT
  5
2AF
102
{ACAD_XDICTIONARY
360
B94
102
}
330
270
100
AcDbEntity
  8
RAHM2
100
AcDbMText
 10
158.8183525451007
 20
12.32474728438519
 30
0.0
 40
3.5
 41
4.301759591192151
 71
     1
 72
     5
  1
\fArial|b0|i0|c0|p32;\U+00A9
 73
     1
 44
1.0
1001
ACAD
1000
MTEXTBEGIN
1070
    73
1070
     1
1070
    44
1040
1.0
1070
    74
1070
     0
1000
MTEXTEND
  0
MTEXT
  5
2B0
330
270
100
AcDbEntity
  8
RAHM2
100
AcDbMText
 10
200.9022594589521
 20
9.282856166729633
 30
0.0
 40
2.5
 41
51.25
 71
     5
 72
     5
  1
\fArial Black|b0|i0|c0|p34;ACO\Fgeniso.shx; \fDutch801 Rm BT|b0|i1|c0|p18;passavant \P\Fgeniso.shx;\H1.8;Schutzvermerk nach DIN 34
 73
     1
 44
1.0
1001
ACAD
1000
MTEXTBEGIN
1070
    73
1070
     1
1070
    44
1040
1.0
1070
    74
1070
     0
1000
MTEXTEND
  0
MTEXT
  5
2B1
330
270
100
AcDbEntity
  8
RAHM2
100
AcDbMText
 10
165.5515418910248
 20
11.24554815700972
 30
0.0
 40
2.0
 41
5.5175
 71
     1
 72
     5
  1
2001
 73
     1
 44
1.0
1001
ACAD
1000
MTEXTBEGIN
1070
    73
1070
     1
1070
    44
1040
1.0
1070
    74
1070
     0
1000
MTEXTEND
  0
ENDBLK
  5
2B2
330
270
100
AcDbEntity
  8
0
100
AcDbBlockEnd
  0
BLOCK
  5
2B4
330
2B3
100
AcDbEntity
  8
0
100
AcDbBlockBegin
  2
ACO-SF02-GR
 70
     2
 10
0.0
 20
0.0
 30
0.0
  3
ACO-SF02-GR
  1

  0
LINE
  5
2B5
330
2B3
100
AcDbEntity
  8
KOPF
 62
    12
100
AcDbLine
 10
0.0
 20
5.0
 30
0.0
 11
-83.0
 21
5.0
 31
0.0
  0
LWPOLYLINE
  5
2B6
330
2B3
100
AcDbEntity
  8
KOPF
 62
    12
100
AcDbPolyline
 90
        2
 70
     0
 43
0.5
 10
-83.0
 20
10.0
 10
0.0
 20
10.0
  0
LINE
  5
2B7
330
2B3
100
AcDbEntity
  8
KOPF
100
AcDbLine
 10
-83.0
 20
10.0
 30
0.0
 11
0.0
 21
10.0
 31
0.0
  0
LINE
  5
2B8
330
2B3
100
AcDbEntity
  8
KOPF
100
AcDbLine
 10
0.0
 20
5.0
 30
0.0
 11
-83.0
 21
5.0
 31
0.0
  0
LWPOLYLINE
  5
2B9
330
2B3
100
AcDbEntity
  8
KOPF
 62
    12
100
AcDbPolyline
 90
        2
 70
     0
 43
0.5
 10
0.0
 20
68.49999999999997
 10
-182.0
 20
68.49999999999997
  0
LWPOLYLINE
  5
2BA
330
2B3
100
AcDbEntity
  8
KOPF
 62
    12
100
AcDbPolyline
 90
        2
 70
     0
 43
0.5
 10
0.0
 20
46.99999999999997
 10
-182.0
 20
46.99999999999997
  0
LWPOLYLINE
  5
2BB
330
2B3
100
AcDbEntity
  8
KOPF
 62
    12
100
AcDbPolyline
 90
        2
 70
     0
 43
0.5
 10
-0.2154115848244373
 20
27.23910754630094
 10
-182.1882840408789
 20
27.23910754630094
  0
LINE
  5
2BC
330
2B3
100
AcDbEntity
  8
KOPF
 62
    12
100
AcDbLine
 10
0.0
 20
88.49999999999996
 30
0.0
 11
-182.0
 21
88.49999999999996
 31
0.0
  0
LINE
  5
2BD
330
2B3
100
AcDbEntity
  8
KOPF
 62
    12
100
AcDbLine
 10
-182.0
 20
83.49999999999997
 30
0.0
 11
0.0
 21
83.49999999999997
 31
0.0
  0
LINE
  5
2BE
330
2B3
100
AcDbEntity
  8
KOPF
 62
    12
100
AcDbLine
 10
0.0
 20
73.49999999999997
 30
0.0
 11
-182.0
 21
73.49999999999997
 31
0.0
  0
LINE
  5
2BF
330
2B3
100
AcDbEntity
  8
KOPF
 62
    12
100
AcDbLine
 10
-162.682677
 20
78.49999999999997
 30
0.0
 11
0.0
 21
78.49999999999997
 31
0.0
  0
LINE
  5
2C0
330
2B3
100
AcDbEntity
  8
KOPF
100
AcDbLine
 10
0.0
 20
68.49999999999997
 30
0.0
 11
-182.0
 21
68.49999999999997
 31
0.0
  0
LINE
  5
2C1
330
2B3
100
AcDbEntity
  8
KOPF
100
AcDbLine
 10
0.0
 20
88.49999999999996
 30
0.0
 11
-182.0
 21
88.49999999999996
 31
0.0
  0
LINE
  5
2C2
330
2B3
100
AcDbEntity
  8
KOPF
100
AcDbLine
 10
-182.0
 20
83.49999999999997
 30
0.0
 11
0.0
 21
83.49999999999997
 31
0.0
  0
LINE
  5
2C3
330
2B3
100
AcDbEntity
  8
KOPF
100
AcDbLine
 10
0.0
 20
73.49999999999997
 30
0.0
 11
-182.0
 21
73.49999999999997
 31
0.0
  0
LINE
  5
2C4
330
2B3
100
AcDbEntity
  8
KOPF
100
AcDbLine
 10
-162.682677
 20
78.49999999999997
 30
0.0
 11
0.0
 21
78.49999999999997
 31
0.0
  0
LINE
  5
2C5
330
2B3
100
AcDbEntity
  8
KOPF
 62
    12
100
AcDbLine
 10
-182.0
 20
57.74999999999997
 30
0.0
 11
-100.0
 21
57.74999999999997
 31
0.0
  0
LINE
  5
2C6
330
2B3
100
AcDbEntity
  8
KOPF
 62
    12
100
AcDbLine
 10
-182.0
 20
41.99999999999996
 30
0.0
 11
-113.4
 21
41.99999999999996
 31
0.0
  0
LINE
  5
2C7
330
2B3
100
AcDbEntity
  8
KOPF
100
AcDbLine
 10
-182.0
 20
57.74999999999997
 30
0.0
 11
-100.0
 21
57.74999999999997
 31
0.0
  0
LINE
  5
2C8
330
2B3
100
AcDbEntity
  8
KOPF
100
AcDbLine
 10
-182.0
 20
41.99999999999996
 30
0.0
 11
-113.4
 21
41.99999999999996
 31
0.0
  0
LINE
  5
2C9
330
2B3
100
AcDbEntity
  8
KOPF
 62
    12
100
AcDbLine
 10
-142.0
 20
68.49999999999997
 30
0.0
 11
-142.0
 21
46.99999999999997
 31
0.0
  0
LINE
  5
2CA
330
2B3
100
AcDbEntity
  8
KOPF
 62
    12
100
AcDbLine
 10
-142.0
 20
68.49999999999997
 30
0.0
 11
-142.0
 21
46.99999999999997
 31
0.0
  0
ATTDEF
  5
2CB
330
2B3
100
AcDbEntity
  8
TEXT35
100
AcDbText
 10
-140.2
 20
49.4
 30
0.0
 40
3.5
  1

 41
0.8
  7
TEXT35
100
AcDbAttributeDefinition
  3
Oberfläche:
  2
F63
 70
     0
  0
LWPOLYLINE
  5
2CC
330
2B3
100
AcDbEntity
  8
KOPF
 62
    12
100
AcDbPolyline
 90
        2
 70
     0
 43
0.7
 10
-182.0
 20
103.4999999999999
 10
-182.0
 20
0.0
  0
LINE
  5
2CD
330
2B3
100
AcDbEntity
  8
KOPF
100
AcDbLine
 10
-182.0
 20
103.4999999999999
 30
0.0
 11
-182.0
 21
0.0
 31
0.0
  0
TEXT
  5
2CE
330
2B3
100
AcDbEntity
  8
KOPF
100
AcDbText
 10
-179.738589
 20
38.32439403633659
 30
0.0
 40
2.0
  1
Gezeichnet:
 41
0.8
  7
TEXT20
100
AcDbText
  0
ATTDEF
  5
2CF
330
2B3
100
AcDbEntity
  8
TEXT35
100
AcDbText
 10
-176.6
 20
3.399999999999999
 30
0.0
 40
3.5
  1

 41
0.8
  7
TEXT35
100
AcDbAttributeDefinition
  3
Z-Titel 3
  2
F13
 70
     0
  0
ATTDEF
  5
2D0
330
2B3
100
AcDbEntity
  8
TEXT50
100
AcDbText
 10
-176.6
 20
10.63250279796295
 30
0.0
 40
5.0
  1

 41
0.8
  7
TEXT50
100
AcDbAttributeDefinition
  3
Z-Titel 2
  2
F3
 70
     0
  0
ATTDEF
  5
2D1
330
2B3
100
AcDbEntity
  8
TEXT50
100
AcDbText
 10
-176.6
 20
18.56318324460701
 30
0.0
 40
5.0
  1

 41
0.8
  7
TEXT50
100
AcDbAttributeDefinition
  3
Z-Titel 1
  2
F2
 70
     0
  0
TEXT
  5
2D2
330
2B3
100
AcDbEntity
  8
KOPF
100
AcDbText
 10
-179.738589
 20
28.52395361420514
 30
0.0
 40
2.0
  1
Update:
 41
0.8
  7
TEXT20
100
AcDbText
  0
TEXT
  5
2D3
330
2B3
100
AcDbEntity
  8
KOPF
100
AcDbText
 10
-179.738589
 20
33.43577642824449
 30
0.0
 40
2.0
  1
Geprüft
 41
0.8
  7
TEXT20
100
AcDbText
  0
LINE
  5
2D4
330
2B3
100
AcDbEntity
  8
KOPF
 62
    12
100
AcDbLine
 10
-163.0
 20
46.99999999999997
 30
0.0
 11
-163.0
 21
27.0
 31
0.0
  0
LINE
  5
2D5
330
2B3
100
AcDbEntity
  8
KOPF
100
AcDbLine
 10
-163.0
 20
46.99999999999997
 30
0.0
 11
-163.0
 21
27.0
 31
0.0
  0
ATTDEF
  5
2D6
330
2B3
100
AcDbEntity
  8
TEXT25
100
AcDbText
 10
-161.5009557098303
 20
28.32091209119023
 30
0.0
 40
2.0
  1

 41
0.8
  7
TEXT20
100
AcDbAttributeDefinition
  3
Update am:
  2
F53
 70
     0
  0
ATTDEF
  5
2D7
330
2B3
100
AcDbEntity
  8
TEXT25
100
AcDbText
 10
-161.5539333606331
 20
33.12227989587696
 30
0.0
 40
2.0
  1

 41
0.8
  7
TEXT20
100
AcDbAttributeDefinition
  3
Geprüft am:
  2
F22
 70
     0
  0
ATTDEF
  5
2D8
330
2B3
100
AcDbEntity
  8
TEXT25
100
AcDbText
 10
-161.5207141482394
 20
38.33983936444393
 30
0.0
 40
2.0
  1

 41
0.8
  7
TEXT20
100
AcDbAttributeDefinition
  3
Gezeichnet am:
  2
F9
 70
     0
  0
TEXT
  5
2D9
330
2B3
100
AcDbEntity
  8
KOPF
100
AcDbText
 10
-155.964455
 20
43.13467299999999
 30
0.0
 40
2.0
  1
Datum
 41
0.8
  7
TEXT20
100
AcDbText
  0
LINE
  5
2DA
330
2B3
100
AcDbEntity
  8
KOPF
 62
    12
100
AcDbLine
 10
-138.4
 20
46.99999999999997
 30
0.0
 11
-138.4
 21
27.0
 31
0.0
  0
LINE
  5
2DB
330
2B3
100
AcDbEntity
  8
KOPF
100
AcDbLine
 10
-138.4
 20
46.99999999999997
 30
0.0
 11
-138.4
 21
27.0
 31
0.0
  0
TEXT
  5
2DC
330
2B3
100
AcDbEntity
  8
KOPF
100
AcDbText
 10
-130.065072
 20
43.14125800000002
 30
0.0
 40
2.0
  1
Name
 41
0.8
  7
TEXT20
100
AcDbText
  0
ATTDEF
  5
2DD
330
2B3
100
AcDbEntity
  8
TEXT25
100
AcDbText
 10
-136.2746977811447
 20
33.28471223400234
 30
0.0
 40
2.0
  1

 41
0.8
  7
TEXT20
100
AcDbAttributeDefinition
  3
Geprüft von:
  2
F21
 70
     0
  0
ATTDEF
  5
2DE
330
2B3
100
AcDbEntity
  8
TEXT25
100
AcDbText
 10
-136.3996291720711
 20
28.23101841142455
 30
0.0
 40
2.0
  1

 41
0.8
  7
TEXT20
100
AcDbAttributeDefinition
  3
Update von:
  2
F52
 70
     0
  0
ATTDEF
  5
2DF
330
2B3
100
AcDbEntity
  8
TEXT25
100
AcDbText
 10
-136.1922113552417
 20
38.48172579575253
 30
0.0
 40
2.0
  1

 41
0.8
  7
TEXT20
100
AcDbAttributeDefinition
  3
Gezeichnet von
  2
F8
 70
     0
  0
TEXT
  5
2E0
330
2B3
100
AcDbEntity
  8
KOPF
100
AcDbText
 10
-174.6925639999999
 20
69.53813999999997
 30
0.0
 40
2.0
  1
Index
 41
0.8
  7
TEXT20
100
AcDbText
  0
LINE
  5
2E1
330
2B3
100
AcDbEntity
  8
KOPF
100
AcDbLine
 10
-182.0
 20
78.49999999999997
 30
0.0
 11
-162.682677
 21
78.49999999999997
 31
0.0
  0
LINE
  5
2E2
330
2B3
100
AcDbEntity
  8
KOPF
100
AcDbLine
 10
-182.0
 20
78.49999999999997
 30
0.0
 11
-162.682677
 21
78.49999999999997
 31
0.0
  0
TEXT
  5
2E3
330
2B3
100
AcDbEntity
  8
KOPF
100
AcDbText
 10
-180.0
 20
65.166273
 30
0.0
 40
2.0
  1
Werkstoff:
 41
0.8
  7
TEXT20
100
AcDbText
  0
TEXT
  5
2E4
330
2B3
100
AcDbEntity
  8
KOPF
100
AcDbText
 10
-181.0
 20
54.49999999999997
 30
0.0
 40
2.0
  1
zul. Abweich.:
 41
0.8
  7
TEXT20
100
AcDbText
  0
ATTDEF
  5
2E5
330
2B3
100
AcDbEntity
  8
TEXT35
100
AcDbText
 10
-179.7
 20
59.6
 30
0.0
 40
3.5
  1

 41
0.8
  7
TEXT35
100
AcDbAttributeDefinition
  3
Werkstoff:
  2
F61
 70
     0
  0
ATTDEF
  5
2E6
330
2B3
100
AcDbEntity
  8
TEXT35
100
AcDbText
 10
-179.7
 20
49.7
 30
0.0
 40
3.5
  1

 41
0.8
  7
TEXT35
100
AcDbAttributeDefinition
  3
zul. Abweichung
  2
F62
 70
     0
  0
ATTDEF
  5
2E7
330
2B3
100
AcDbEntity
  8
TEXT25
100
AcDbText
 10
-174.360415155955
 20
74.59999999999999
 30
0.0
 40
2.0
  1

 41
0.8
  7
TEXT20
100
AcDbAttributeDefinition
  3
Index vv.:
  2
F72
 70
     0
  0
ATTDEF
  5
2E8
330
2B3
100
AcDbEntity
  8
TEXT25
100
AcDbText
 10
-174.4435409453564
 20
79.47378932523601
 30
0.0
 40
2.0
  1

 41
0.8
  7
TEXT20
100
AcDbAttributeDefinition
  3
Index v.:
  2
F68
 70
     0
  0
ATTDEF
  5
2E9
330
2B3
100
AcDbEntity
  8
TEXT25
100
AcDbText
 10
-174.3700408782365
 20
84.63034186138365
 30
0.0
 40
2.0
  1

 41
0.8
  7
TEXT20
100
AcDbAttributeDefinition
  3
Index l.:
  2
F64
 70
     0
  0
LINE
  5
2EA
330
2B3
100
AcDbEntity
  8
KOPF
100
AcDbLine
 10
-162.682677
 20
88.49999999999996
 30
0.0
 11
-162.682677
 21
68.49999999999997
 31
0.0
  0
LINE
  5
2EB
330
2B3
100
AcDbEntity
  8
KOPF
100
AcDbLine
 10
-162.682677
 20
88.49999999999996
 30
0.0
 11
-162.682677
 21
68.49999999999997
 31
0.0
  0
TEXT
  5
2EC
330
2B3
100
AcDbEntity
  8
KOPF
100
AcDbText
 10
-156.706568
 20
69.53813999999997
 30
0.0
 40
2.0
  1
Datum
 41
0.8
  7
TEXT20
100
AcDbText
  0
ATTDEF
  5
2ED
330
2B3
100
AcDbEntity
  8
TEXT25
100
AcDbText
 10
-160.9
 20
75.09999999999999
 30
0.0
 40
2.0
  1

 41
0.8
  7
TEXT20
100
AcDbAttributeDefinition
  3
Datum vv.:
  2
F73
 70
     0
  0
ATTDEF
  5
2EE
330
2B3
100
AcDbEntity
  8
TEXT25
100
AcDbText
 10
-160.9
 20
79.40000000000001
 30
0.0
 40
2.0
  1

 41
0.8
  7
TEXT20
100
AcDbAttributeDefinition
  3
Datum v.:
  2
F69
 70
     0
  0
ATTDEF
  5
2EF
330
2B3
100
AcDbEntity
  8
TEXT25
100
AcDbText
 10
-160.6
 20
84.50000000000001
 30
0.0
 40
2.0
  1

 41
0.8
  7
TEXT20
100
AcDbAttributeDefinition
  3
Datum l.:
  2
F65
 70
     0
  0
LINE
  5
2F0
330
2B3
100
AcDbEntity
  8
KOPF
 62
    12
100
AcDbLine
 10
-142.0
 20
68.49999999999997
 30
0.0
 11
-142.0
 21
88.49999999999996
 31
0.0
  0
LINE
  5
2F1
330
2B3
100
AcDbEntity
  8
KOPF
100
AcDbLine
 10
-142.0
 20
68.49999999999997
 30
0.0
 11
-142.0
 21
88.49999999999996
 31
0.0
  0
ATTDEF
  5
2F2
330
2B3
100
AcDbEntity
  8
TEXT35
100
AcDbText
 10
-139.9
 20
59.29999999999999
 30
0.0
 40
3.5
  1

 41
0.8
  7
TEXT35
100
AcDbAttributeDefinition
  3
Gewicht:
  2
F60
 70
     0
  0
TEXT
  5
2F3
330
2B3
100
AcDbEntity
  8
KOPF
100
AcDbText
 10
-140.387393
 20
54.54752599999996
 30
0.0
 40
2.0
  1
Oberfläche
 41
0.8
  7
TEXT20
100
AcDbText
  0
TEXT
  5
2F4
330
2B3
100
AcDbEntity
  8
KOPF
100
AcDbText
 10
-140.1020469999999
 20
65.166273
 30
0.0
 40
2.0
  1
Gewicht:
 41
0.8
  7
TEXT20
100
AcDbText
  0
TEXT
  5
2F5
330
2B3
100
AcDbEntity
  8
KOPF
100
AcDbText
 10
-140.1020469999999
 20
65.166273
 30
0.0
 40
2.0
  1
Gewicht:
 41
0.8
  7
TEXT20
100
AcDbText
  0
ATTDEF
  5
2F6
330
2B3
100
AcDbEntity
  8
TEXT25
100
AcDbText
 10
-140.4
 20
74.59999999999999
 30
0.0
 40
2.0
  1

 41
0.8
  7
TEXT20
100
AcDbAttributeDefinition
  3
Bennenung vv.:
  2
F74
 70
     0
  0
ATTDEF
  5
2F7
330
2B3
100
AcDbEntity
  8
TEXT25
100
AcDbText
 10
-140.5063960262479
 20
79.64480359078786
 30
0.0
 40
2.0
  1

 41
0.8
  7
TEXT20
100
AcDbAttributeDefinition
  3
Benennung v.:
  2
F70
 70
     0
  0
ATTDEF
  5
2F8
330
2B3
100
AcDbEntity
  8
TEXT25
100
AcDbText
 10
-140.390233442385
 20
84.56120109651198
 30
0.0
 40
2.0
  1

 41
0.8
  7
TEXT20
100
AcDbAttributeDefinition
  3
Bennenung l.:
  2
F66
 70
     0
  0
LINE
  5
2F9
330
2B3
100
AcDbEntity
  8
KOPF
 62
    12
100
AcDbLine
 10
-100.0
 20
68.49999999999997
 30
0.0
 11
-100.0
 21
46.99999999999997
 31
0.0
  0
LWPOLYLINE
  5
2FA
330
2B3
100
AcDbEntity
  8
KOPF
 62
    12
100
AcDbPolyline
 90
        2
 70
     0
 43
0.5
 10
-83.0
 20
46.99999999999997
 10
-83.0
 20
0.0
  0
LINE
  5
2FB
330
2B3
100
AcDbEntity
  8
KOPF
100
AcDbLine
 10
-83.0
 20
46.99999999999997
 30
0.0
 11
-83.0
 21
0.0
 31
0.0
  0
TEXT
  5
2FC
330
2B3
100
AcDbEntity
  8
KOPF
100
AcDbText
 10
-81.0
 20
1.714285999999985
 30
0.0
 40
2.0
  1
Ersetzt durch:
 41
0.8
  7
TEXT20
100
AcDbText
  0
LINE
  5
2FD
330
2B3
100
AcDbEntity
  8
KOPF
 62
    12
100
AcDbLine
 10
-113.4
 20
27.0
 30
0.0
 11
-113.4
 21
46.99999999999997
 31
0.0
  0
LWPOLYLINE
  5
2FE
330
2B3
100
AcDbEntity
  8
KOPF
100
AcDbPolyline
 90
        2
 70
     0
 43
0.5
 10
-113.4
 20
27.0
 10
-113.4
 20
46.99999999999997
  0
LINE
  5
2FF
330
2B3
100
AcDbEntity
  8
KOPF
100
AcDbLine
 10
-113.4
 20
27.0
 30
0.0
 11
-113.4
 21
46.99999999999997
 31
0.0
  0
LINE
  5
300
330
2B3
100
AcDbEntity
  8
KOPF
100
AcDbLine
 10
-113.4
 20
27.0
 30
0.0
 11
-113.4
 21
46.99999999999997
 31
0.0
  0
ATTDEF
  5
301
330
2B3
100
AcDbEntity
  8
TEXT35
100
AcDbText
 10
-104.4935632823758
 20
33.13408015176805
 30
0.0
 40
3.5
  1

 41
0.8
  7
TEXT35
100
AcDbAttributeDefinition
  3
Maßstab 2:
  2
F54
 70
     0
  0
ATTDEF
  5
302
330
2B3
100
AcDbEntity
  8
TEXT35
100
AcDbText
 10
-104.487948258847
 20
28.6
 30
0.0
 40
3.5
  1

 41
0.8
  7
TEXT35
100
AcDbAttributeDefinition
  3
Maßstab 3:
  2
F55
 70
     0
  0
ATTDEF
  5
303
330
2B3
100
AcDbEntity
  8
TEXT50
100
AcDbText
 10
-106.6
 20
37.8
 30
0.0
 40
5.0
  1

 41
0.8
  7
TEXT50
100
AcDbAttributeDefinition
  3
Maßstab 1:
  2
F25
 70
     0
  0
TEXT
  5
304
330
2B3
100
AcDbEntity
  8
KOPF
100
AcDbText
 10
-112.263457
 20
43.88678899999999
 30
0.0
 40
2.0
  1
Massstab:
 41
0.8
  7
TEXT20
100
AcDbText
  0
LINE
  5
305
330
2B3
100
AcDbEntity
  8
KOPF
 62
    12
100
AcDbLine
 10
-57.80813400000011
 20
27.0
 30
0.0
 11
-57.80813400000011
 21
46.99999999999997
 31
0.0
  0
LINE
  5
306
330
2B3
100
AcDbEntity
  8
KOPF
100
AcDbLine
 10
-57.80813400000011
 20
27.0
 30
0.0
 11
-57.80813400000011
 21
46.99999999999997
 31
0.0
  0
TEXT
  5
307
330
2B3
100
AcDbEntity
  8
KOPF
100
AcDbText
 10
-81.59296000000006
 20
23.69783599999999
 30
0.0
 40
2.0
  1
Zeichnung Nr.:
 41
0.8
  7
TEXT20
100
AcDbText
  0
TEXT
  5
308
330
2B3
100
AcDbEntity
  8
KOPF
100
AcDbText
 10
-81.00375700000006
 20
5.924711999999997
 30
0.0
 40
2.0
  1
Ersatz für:
 41
0.8
  7
TEXT20
100
AcDbText
  0
TEXT
  5
309
330
2B3
100
AcDbEntity
  8
KOPF
100
AcDbText
 10
-81.59296000000006
 20
23.69783599999999
 30
0.0
 40
2.0
  1
Zeichnung Nr.:
 41
0.8
  7
TEXT20
100
AcDbText
  0
ATTDEF
  5
30A
330
2B3
100
AcDbEntity
  8
TEXT50
100
AcDbText
 10
-78.29193986361122
 20
14.50587824180555
 30
0.0
 40
5.0
  1

 41
0.8
  7
TEXT50
100
AcDbAttributeDefinition
  3
Standart:
  2
F1
 70
     0
  0
TEXT
  5
30B
330
2B3
100
AcDbEntity
  8
KOPF
100
AcDbText
 10
-81.48889200000008
 20
43.86057200000001
 30
0.0
 40
2.0
  1
Masseinheit:
 41
0.8
  7
TEXT20
100
AcDbText
  0
LINE
  5
30C
330
2B3
100
AcDbEntity
  8
KOPF
 62
    12
100
AcDbLine
 10
-57.80813400000011
 20
36.213444
 30
0.0
 11
-83.0
 21
36.213444
 31
0.0
  0
LINE
  5
30D
330
2B3
100
AcDbEntity
  8
KOPF
100
AcDbLine
 10
-57.80813400000011
 20
36.213444
 30
0.0
 11
-83.0
 21
36.213444
 31
0.0
  0
ATTDEF
  5
30E
330
2B3
100
AcDbEntity
  8
TEXT35
100
AcDbText
 10
-79.40896486611496
 20
38.08722024605356
 30
0.0
 40
3.5
  1

 41
0.8
  7
TEXT35
100
AcDbAttributeDefinition
  3
Maßeinheit:
  2
F56
 70
     0
  0
TEXT
  5
30F
330
2B3
100
AcDbEntity
  8
KOPF
100
AcDbText
 10
-33.57569784693112
 20
42.62823225872138
 30
0.0
 40
1.54
  1
Diese Zeichnung darf weder kopiert
 41
0.8
  7
TEXT20
100
AcDbText
  0
TEXT
  5
310
330
2B3
100
AcDbEntity
  8
KOPF
100
AcDbText
 10
-33.57569784693112
 20
40.26106040199917
 30
0.0
 40
1.54
  1
noch dritten Personen, insbesondere
 41
0.8
  7
TEXT20
100
AcDbText
  0
TEXT
  5
311
330
2B3
100
AcDbEntity
  8
KOPF
100
AcDbText
 10
-33.57569784693112
 20
35.63814072439632
 30
0.0
 40
1.54
  1
mitgeteilt werden und bleibt unser
 41
0.8
  7
TEXT20
100
AcDbText
  0
TEXT
  5
312
330
2B3
100
AcDbEntity
  8
KOPF
100
AcDbText
 10
-33.57569784693112
 20
33.37532604459598
 30
0.0
 40
1.54
  1
Eigentum.
 41
0.8
  7
TEXT20
100
AcDbText
  0
TEXT
  5
313
330
2B3
100
AcDbEntity
  8
KOPF
100
AcDbText
 10
-33.57569784693112
 20
37.97994933403727
 30
0.0
 40
1.54
  1
zum Zweck anderweitiger Benutzung
 41
0.8
  7
TEXT20
100
AcDbText
  0
TEXT
  5
314
330
2B3
100
AcDbEntity
  8
KOPF
100
AcDbText
 10
-33.7904806989385
 20
30.30982488917614
 30
0.0
 40
1.54
  1
Schutzvermerk nach DIN 34 beachten
 41
0.75
  7
TEXT20
100
AcDbText
  0
LINE
  5
315
330
2B3
100
AcDbEntity
  8
KOPF
100
AcDbLine
 10
-34.94281200000012
 20
47.01203199999999
 30
0.0
 11
-34.94281200000012
 21
27.0
 31
0.0
  0
LINE
  5
316
330
2B3
100
AcDbEntity
  8
KOPF
100
AcDbLine
 10
-34.94281200000012
 20
47.01203199999999
 30
0.0
 11
-34.94281200000012
 21
27.0
 31
0.0
  0
LINE
  5
317
330
2B3
100
AcDbEntity
  8
MITTE
100
AcDbLine
 10
-45.85521401410289
 20
36.04852954632858
 30
0.0
 11
-35.23444858652556
 21
36.04852954632858
 31
0.0
  0
LINE
  5
318
330
2B3
100
AcDbEntity
  8
TEXT50
100
AcDbLine
 10
-45.05865660703466
 20
32.02559619470341
 30
0.0
 11
-36.50894043783512
 21
34.06858135367652
 31
0.0
  0
LINE
  5
319
330
2B3
100
AcDbEntity
  8
TEXT50
100
AcDbLine
 10
-36.50894043783512
 20
38.02847773898061
 30
0.0
 11
-45.05865660703466
 21
40.07146289795374
 31
0.0
  0
TEXT
  5
31A
330
2B3
100
AcDbEntity
  8
KOPF
100
AcDbText
 10
-57.12244047883302
 20
43.82431699999997
 30
0.0
 40
2.0
  1
Projektion: ISO-E
 41
0.8
  7
TEXT20
100
AcDbText
  0
LINE
  5
31B
330
2B3
100
AcDbEntity
  8
TEXT50
100
AcDbLine
 10
-45.05865660703466
 20
40.07146289795374
 30
0.0
 11
-45.05865660703466
 21
32.02559619470346
 31
0.0
  0
LINE
  5
31C
330
2B3
100
AcDbEntity
  8
MITTE
100
AcDbLine
 10
-51.4945506424383
 20
40.07146289795374
 30
0.0
 11
-51.4945506424383
 21
30.76413131482123
 31
0.0
  0
CIRCLE
  5
31D
330
2B3
100
AcDbEntity
  8
TEXT50
100
AcDbCircle
 10
-51.4945506424383
 20
36.04852954632858
 30
0.0
 40
4.022933351625178
  0
CIRCLE
  5
31E
330
2B3
100
AcDbEntity
  8
TEXT50
100
AcDbCircle
 10
-51.4945506424383
 20
36.04852954632858
 30
0.0
 40
1.979948192651899
  0
LINE
  5
31F
330
2B3
100
AcDbEntity
  8
MITTE
100
AcDbLine
 10
-56.48631039339966
 20
36.04852954632858
 30
0.0
 11
-46.50279089147699
 21
36.04852954632858
 31
0.0
  0
LINE
  5
320
330
2B3
100
AcDbEntity
  8
TEXT50
100
AcDbLine
 10
-36.50894043783512
 20
38.02847773898061
 30
0.0
 11
-36.50894043783512
 21
34.06858135367652
 31
0.0
  0
LWPOLYLINE
  5
321
330
2B3
100
AcDbEntity
  8
KOPF
 62
    12
100
AcDbPolyline
 90
        2
 70
     0
 43
0.5
 10
-12.0
 20
27.0
 10
-12.0
 20
10.0
  0
LINE
  5
322
330
2B3
100
AcDbEntity
  8
KOPF
100
AcDbLine
 10
-12.0
 20
27.0
 30
0.0
 11
-12.0
 21
10.0
 31
0.0
  0
ATTDEF
  5
323
330
2B3
100
AcDbEntity
  8
TEXT50
100
AcDbText
 10
-5.58570360403041
 20
17.00587824180555
 30
0.0
 40
5.0
  1

 41
0.8
  7
TEXT50
 72
     4
 11
-5.58570360403041
 21
17.00587824180555
 31
0.0
100
AcDbAttributeDefinition
  3
Index:
  2
F1B
 70
     0
  0
TEXT
  5
324
330
2B3
100
AcDbEntity
  8
KOPF
100
AcDbText
 10
-8.353129999999964
 20
23.330072
 30
0.0
 40
2.0
  1
Index
 41
0.8
  7
TEXT20
100
AcDbText
  0
TEXT
  5
325
330
2B3
100
AcDbEntity
  8
KOPF
100
AcDbText
 10
-94.40535829344497
 20
70.39773773357916
 30
0.0
 40
2.0
  1
Benennung
 41
0.8
  7
TEXT20
100
AcDbText
  0
LINE
  5
326
330
2B3
100
AcDbEntity
  8
KOPF
100
AcDbLine
 10
-15.0
 20
88.49999999999996
 30
0.0
 11
-15.0
 21
68.49999999999997
 31
0.0
  0
LINE
  5
327
330
2B3
100
AcDbEntity
  8
KOPF
100
AcDbLine
 10
-15.0
 20
88.49999999999996
 30
0.0
 11
-15.0
 21
68.49999999999997
 31
0.0
  0
TEXT
  5
328
330
2B3
100
AcDbEntity
  8
KOPF
100
AcDbText
 10
-11.65833600000008
 20
69.53813999999997
 30
0.0
 40
2.0
  1
Name
 41
0.8
  7
TEXT20
100
AcDbText
  0
TEXT
  5
329
330
2B3
100
AcDbEntity
  8
KOPF
100
AcDbText
 10
-11.65833600000008
 20
69.53813999999997
 30
0.0
 40
2.0
  1
Name
 41
0.8
  7
TEXT20
100
AcDbText
  0
ATTDEF
  5
32A
330
2B3
100
AcDbEntity
  8
TEXT25
100
AcDbText
 10
-13.39999999999998
 20
74.90000000000001
 30
0.0
 40
2.0
  1

 41
0.8
  7
TEXT20
100
AcDbAttributeDefinition
  3
Name vv.:
  2
F75
 70
     0
  0
ATTDEF
  5
32B
330
2B3
100
AcDbEntity
  8
TEXT25
100
AcDbText
 10
-13.39999999999998
 20
79.7
 30
0.0
 40
2.0
  1

 41
0.8
  7
TEXT20
100
AcDbAttributeDefinition
  3
Name v.:
  2
F71
 70
     0
  0
ATTDEF
  5
32C
330
2B3
100
AcDbEntity
  8
TEXT25
100
AcDbText
 10
-13.31006638105163
 20
84.29999999999999
 30
0.0
 40
2.0
  1

 41
0.8
  7
TEXT20
100
AcDbAttributeDefinition
  3
Name l.:
  2
F67
 70
     0
  0
LINE
  5
32D
330
2B3
100
AcDbEntity
  8
KOPF
100
AcDbLine
 10
-182.0
 20
36.99999999999997
 30
0.0
 11
-113.4
 21
36.99999999999997
 31
0.0
  0
LINE
  5
32E
330
2B3
100
AcDbEntity
  8
KOPF
100
AcDbLine
 10
-182.0
 20
31.99999999999997
 30
0.0
 11
-113.4
 21
31.99999999999997
 31
0.0
  0
MTEXT
  5
32F
330
2B3
100
AcDbEntity
  8
Sperrlayer
 62
     1
100
AcDbMText
 10
-166.0749851709908
 20
9.027899370527848
 30
0.0
 40
10.0
 41
771.0
 71
     1
 72
     5
  1
VORABZUG - nicht FREIGEGEBEN !
  7
TEXT20
 11
0.8660254037844387
 21
0.5
 31
0.0
 73
     1
 44
1.0
1001
ACAD
1000
MTEXTBEGIN
1070
    73
1070
     1
1070
    44
1040
1.0
1070
    74
1070
     0
1000
MTEXTEND
  0
SOLID
  5
330
330
2B3
100
AcDbEntity
  8
RAHM2
100
AcDbTrace
 10
-65.27552397868255
 20
61.53746598194189
 30
0.0
 11
-62.05035543935675
 21
61.53746598194189
 31
0.0
 12
-65.27552397868255
 22
61.25701654373962
 32
0.0
 13
-62.05035543935675
 23
61.25701654373962
 33
0.0
  0
TEXT
  5
331
330
2B3
100
AcDbEntity
  8
RAHM2
100
AcDbText
 10
-40.91775160745712
 20
53.63170934671963
 30
0.0
 40
2.6
  1
GmbH
  7
KOPF
 72
     1
 11
-35.478939452761
 21
53.63170934671963
 31
0.0
100
AcDbText
  0
TEXT
  5
332
330
2B3
100
AcDbEntity
  8
RAHM2
100
AcDbText
 10
-58.33566801898796
 20
50.12594670488301
 30
0.0
 40
2.6
  1
36269 Philippsthal
  7
KOPF
 72
     1
 11
-44.32206304661227
 21
50.12594670488301
 31
0.0
100
AcDbText
  0
SOLID
  5
333
330
2B3
100
AcDbEntity
  8
RAHM2
100
AcDbTrace
 10
-67.51911948430052
 20
62.09836485834642
 30
0.0
 11
-66.95822060789598
 21
62.09836485834642
 31
0.0
 12
-67.51911948430052
 22
61.9581401392452
 32
0.0
 13
-66.95822060789598
 23
61.9581401392452
 33
0.0
  0
SOLID
  5
334
330
2B3
100
AcDbEntity
  8
RAHM2
100
AcDbTrace
 10
-68.36046779890714
 20
61.9581401392452
 30
0.0
 11
-66.11687229328918
 21
61.9581401392452
 31
0.0
 12
-68.36046779890714
 22
61.81791542014416
 32
0.0
 13
-66.11687229328918
 23
61.81791542014416
 33
0.0
  0
SOLID
  5
335
330
2B3
100
AcDbEntity
  8
RAHM2
100
AcDbTrace
 10
-68.64091723710941
 20
61.81791542014416
 30
0.0
 11
-66.11687229328918
 21
61.81791542014416
 31
0.0
 12
-68.64091723710941
 22
61.67769070104293
 32
0.0
 13
-66.11687229328918
 23
61.67769070104293
 33
0.0
  0
SOLID
  5
336
330
2B3
100
AcDbEntity
  8
RAHM2
100
AcDbTrace
 10
-68.92136667531167
 20
61.67769070104293
 30
0.0
 11
-66.2570970123904
 21
61.67769070104293
 31
0.0
 12
-68.92136667531167
 22
61.53746598194189
 32
0.0
 13
-66.2570970123904
 23
61.53746598194189
 33
0.0
  0
SOLID
  5
337
330
2B3
100
AcDbEntity
  8
RAHM2
100
AcDbTrace
 10
-69.0615913944129
 20
61.53746598194189
 30
0.0
 11
-66.2570970123904
 21
61.53746598194189
 31
0.0
 12
-69.0615913944129
 22
61.39724126284066
 32
0.0
 13
-66.2570970123904
 23
61.39724126284066
 33
0.0
  0
SOLID
  5
338
330
2B3
100
AcDbEntity
  8
RAHM2
100
AcDbTrace
 10
-69.20181611351394
 20
61.39724126284066
 30
0.0
 11
-66.2570970123904
 21
61.39724126284066
 31
0.0
 12
-69.20181611351394
 22
61.25701654373962
 32
0.0
 13
-66.2570970123904
 23
61.25701654373962
 33
0.0
  0
SOLID
  5
339
330
2B3
100
AcDbEntity
  8
RAHM2
100
AcDbTrace
 10
-69.34204083261517
 20
61.25701654373962
 30
0.0
 11
-67.09844532699702
 21
61.25701654373962
 31
0.0
 12
-69.34204083261517
 22
61.1167918246384
 32
0.0
 13
-67.09844532699702
 23
61.1167918246384
 33
0.0
  0
SOLID
  5
33A
330
2B3
100
AcDbEntity
  8
RAHM2
100
AcDbTrace
 10
-69.20181611351394
 20
58.59274688081836
 30
0.0
 11
-66.39732173149145
 21
58.59274688081836
 31
0.0
 12
-69.20181611351394
 22
58.45252216171712
 32
0.0
 13
-66.39732173149145
 23
58.45252216171712
 33
0.0
  0
SOLID
  5
33B
330
2B3
100
AcDbEntity
  8
RAHM2
100
AcDbTrace
 10
-69.0615913944129
 20
58.45252216171712
 30
0.0
 11
-66.2570970123904
 21
58.45252216171712
 31
0.0
 12
-69.0615913944129
 22
58.17207272351486
 32
0.0
 13
-66.2570970123904
 23
58.17207272351486
 33
0.0
  0
SOLID
  5
33C
330
2B3
100
AcDbEntity
  8
RAHM2
100
AcDbTrace
 10
-68.78114195621063
 20
58.17207272351486
 30
0.0
 11
-66.2570970123904
 21
58.17207272351486
 31
0.0
 12
-68.78114195621063
 22
58.03184800441382
 32
0.0
 13
-66.2570970123904
 23
58.03184800441382
 33
0.0
  0
SOLID
  5
33D
330
2B3
100
AcDbEntity
  8
RAHM2
100
AcDbTrace
 10
-68.50069251800836
 20
58.03184800441382
 30
0.0
 11
-66.11687229328918
 21
58.03184800441382
 31
0.0
 12
-68.50069251800836
 22
57.89162328531259
 32
0.0
 13
-66.11687229328918
 23
57.89162328531259
 33
0.0
  0
SOLID
  5
33E
330
2B3
100
AcDbEntity
  8
RAHM2
100
AcDbTrace
 10
-68.22024307980609
 20
57.89162328531259
 30
0.0
 11
-66.11687229328918
 21
57.89162328531259
 31
0.0
 12
-68.22024307980609
 22
57.75139856621155
 32
0.0
 13
-66.11687229328918
 23
57.75139856621155
 33
0.0
  0
SOLID
  5
33F
330
2B3
100
AcDbEntity
  8
RAHM2
100
AcDbTrace
 10
-67.79956892250279
 20
57.75139856621155
 30
0.0
 11
-66.39732173149145
 21
57.75139856621155
 31
0.0
 12
-67.79956892250279
 22
57.61117384711032
 32
0.0
 13
-66.39732173149145
 23
57.61117384711032
 33
0.0
  0
SOLID
  5
340
330
2B3
100
AcDbEntity
  8
RAHM2
100
AcDbTrace
 10
-81.82204083261508
 20
64.86384610464772
 30
0.0
 11
-79.99911948430043
 21
64.86384610464772
 31
0.0
 12
-81.82204083261508
 22
60.23643037431057
 32
0.0
 13
-79.99911948430043
 23
60.23643037431057
 33
0.0
  0
SOLID
  5
341
330
2B3
100
AcDbEntity
  8
RAHM2
100
AcDbTrace
 10
-79.4382206078959
 20
64.86384610464772
 30
0.0
 11
-77.61529925958143
 21
64.86384610464772
 31
0.0
 12
-79.4382206078959
 22
60.23643037431057
 32
0.0
 13
-77.61529925958143
 23
60.23643037431057
 33
0.0
  0
SOLID
  5
342
330
2B3
100
AcDbEntity
  8
RAHM2
100
AcDbTrace
 10
-77.19462510227794
 20
64.86384610464772
 30
0.0
 11
-75.23147903486225
 21
64.86384610464772
 31
0.0
 12
-77.19462510227794
 22
60.23643037431057
 32
0.0
 13
-75.23147903486225
 23
60.23643037431057
 33
0.0
  0
SOLID
  5
343
330
2B3
100
AcDbEntity
  8
RAHM2
100
AcDbTrace
 10
-72.70743409104202
 20
62.09836485834642
 30
0.0
 11
-71.58563633823312
 21
62.09836485834642
 31
0.0
 12
-72.70743409104202
 22
61.9581401392452
 32
0.0
 13
-71.58563633823312
 23
61.9581401392452
 33
0.0
  0
SOLID
  5
344
330
2B3
100
AcDbEntity
  8
RAHM2
100
AcDbTrace
 10
-72.70743409104202
 20
61.9581401392452
 30
0.0
 11
-71.4454116191319
 21
61.9581401392452
 31
0.0
 12
-72.70743409104202
 22
61.81791542014416
 32
0.0
 13
-71.4454116191319
 23
61.81791542014416
 33
0.0
  0
SOLID
  5
345
330
2B3
100
AcDbEntity
  8
RAHM2
100
AcDbTrace
 10
-72.84765881014324
 20
61.81791542014416
 30
0.0
 11
-71.4454116191319
 21
61.81791542014416
 31
0.0
 12
-72.84765881014324
 22
61.67769070104293
 32
0.0
 13
-71.4454116191319
 23
61.67769070104293
 33
0.0
  0
SOLID
  5
346
330
2B3
100
AcDbEntity
  8
RAHM2
100
AcDbTrace
 10
-72.84765881014324
 20
61.67769070104293
 30
0.0
 11
-71.30518690003086
 21
61.67769070104293
 31
0.0
 12
-72.84765881014324
 22
61.53746598194189
 32
0.0
 13
-71.30518690003086
 23
61.53746598194189
 33
0.0
  0
SOLID
  5
347
330
2B3
100
AcDbEntity
  8
RAHM2
100
AcDbTrace
 10
-72.98788352924429
 20
61.53746598194189
 30
0.0
 11
-71.30518690003086
 21
61.53746598194189
 31
0.0
 12
-72.98788352924429
 22
61.25701654373962
 32
0.0
 13
-71.30518690003086
 23
61.25701654373962
 33
0.0
  0
SOLID
  5
348
330
2B3
100
AcDbEntity
  8
RAHM2
100
AcDbTrace
 10
-72.98788352924429
 20
61.25701654373962
 30
0.0
 11
-71.16496218092963
 21
61.25701654373962
 31
0.0
 12
-72.98788352924429
 22
61.1167918246384
 32
0.0
 13
-71.16496218092963
 23
61.1167918246384
 33
0.0
  0
SOLID
  5
349
330
2B3
100
AcDbEntity
  8
RAHM2
100
AcDbTrace
 10
-73.12810824834551
 20
61.1167918246384
 30
0.0
 11
-71.16496218092963
 21
61.1167918246384
 31
0.0
 12
-73.12810824834551
 22
60.97656710553735
 32
0.0
 13
-71.16496218092963
 23
60.97656710553735
 33
0.0
  0
SOLID
  5
34A
330
2B3
100
AcDbEntity
  8
RAHM2
100
AcDbTrace
 10
-73.12810824834551
 20
60.97656710553735
 30
0.0
 11
-72.28675993373871
 21
60.97656710553735
 31
0.0
 12
-73.12810824834551
 22
60.83634238643631
 32
0.0
 13
-72.28675993373871
 23
60.83634238643631
 33
0.0
  0
SOLID
  5
34B
330
2B3
100
AcDbEntity
  8
RAHM2
100
AcDbTrace
 10
-73.26833296744656
 20
60.83634238643631
 30
0.0
 11
-72.28675993373871
 21
60.83634238643631
 31
0.0
 12
-73.26833296744656
 22
60.69611766733508
 32
0.0
 13
-72.28675993373871
 23
60.69611766733508
 33
0.0
  0
SOLID
  5
34C
330
2B3
100
AcDbEntity
  8
RAHM2
100
AcDbTrace
 10
-73.26833296744656
 20
60.69611766733508
 30
0.0
 11
-72.42698465283975
 21
60.69611766733508
 31
0.0
 12
-73.26833296744656
 22
60.41566822913281
 32
0.0
 13
-72.42698465283975
 23
60.41566822913281
 33
0.0
  0
SOLID
  5
34D
330
2B3
100
AcDbEntity
  8
RAHM2
100
AcDbTrace
 10
-73.40855768654759
 20
60.41566822913281
 30
0.0
 11
-72.42698465283975
 21
60.41566822913281
 31
0.0
 12
-73.40855768654759
 22
60.27544351003178
 32
0.0
 13
-72.42698465283975
 23
60.27544351003178
 33
0.0
  0
SOLID
  5
34E
330
2B3
100
AcDbEntity
  8
RAHM2
100
AcDbTrace
 10
-73.40855768654759
 20
60.27544351003178
 30
0.0
 11
-72.56720937194097
 21
60.27544351003178
 31
0.0
 12
-73.40855768654759
 22
60.13521879093055
 32
0.0
 13
-72.56720937194097
 23
60.13521879093055
 33
0.0
  0
SOLID
  5
34F
330
2B3
100
AcDbEntity
  8
RAHM2
100
AcDbTrace
 10
-73.54878240564882
 20
60.13521879093055
 30
0.0
 11
-72.56720937194097
 21
60.13521879093055
 31
0.0
 12
-73.54878240564882
 22
59.85476935272828
 32
0.0
 13
-72.56720937194097
 23
59.85476935272828
 33
0.0
  0
SOLID
  5
350
330
2B3
100
AcDbEntity
  8
RAHM2
100
AcDbTrace
 10
-73.68900712474986
 20
59.85476935272828
 30
0.0
 11
-72.70743409104202
 21
59.85476935272828
 31
0.0
 12
-73.68900712474986
 22
59.43409519542497
 32
0.0
 13
-72.70743409104202
 23
59.43409519542497
 33
0.0
  0
SOLID
  5
351
330
2B3
100
AcDbEntity
  8
RAHM2
100
AcDbTrace
 10
-72.28675993373871
 20
60.97656710553735
 30
0.0
 11
-71.16496218092963
 21
60.97656710553735
 31
0.0
 12
-72.28675993373871
 22
60.83634238643631
 32
0.0
 13
-71.16496218092963
 23
60.83634238643631
 33
0.0
  0
SOLID
  5
352
330
2B3
100
AcDbEntity
  8
RAHM2
100
AcDbTrace
 10
-72.14653521463748
 20
60.83634238643631
 30
0.0
 11
-71.02473746182859
 21
60.83634238643631
 31
0.0
 12
-72.14653521463748
 22
60.55589294823405
 32
0.0
 13
-71.02473746182859
 23
60.55589294823405
 33
0.0
  0
SOLID
  5
353
330
2B3
100
AcDbEntity
  8
RAHM2
100
AcDbTrace
 10
-72.14653521463748
 20
60.55589294823405
 30
0.0
 11
-70.88451274272737
 21
60.55589294823405
 31
0.0
 12
-72.14653521463748
 22
60.27544351003178
 32
0.0
 13
-70.88451274272737
 23
60.27544351003178
 33
0.0
  0
SOLID
  5
354
330
2B3
100
AcDbEntity
  8
RAHM2
100
AcDbTrace
 10
-72.00631049553644
 20
60.27544351003178
 30
0.0
 11
-70.88451274272737
 21
60.27544351003178
 31
0.0
 12
-72.00631049553644
 22
60.13521879093055
 32
0.0
 13
-70.88451274272737
 23
60.13521879093055
 33
0.0
  0
SOLID
  5
355
330
2B3
100
AcDbEntity
  8
RAHM2
100
AcDbTrace
 10
-72.00631049553644
 20
60.13521879093055
 30
0.0
 11
-70.74428802362632
 21
60.13521879093055
 31
0.0
 12
-72.00631049553644
 22
59.85476935272828
 32
0.0
 13
-70.74428802362632
 23
59.85476935272828
 33
0.0
  0
SOLID
  5
356
330
2B3
100
AcDbEntity
  8
RAHM2
100
AcDbTrace
 10
-72.00631049553644
 20
59.85476935272828
 30
0.0
 11
-70.60406330452528
 21
59.85476935272828
 31
0.0
 12
-72.00631049553644
 22
59.71454463362724
 32
0.0
 13
-70.60406330452528
 23
59.71454463362724
 33
0.0
  0
SOLID
  5
357
330
2B3
100
AcDbEntity
  8
RAHM2
100
AcDbTrace
 10
-71.86608577643539
 20
59.71454463362724
 30
0.0
 11
-70.60406330452528
 21
59.71454463362724
 31
0.0
 12
-71.86608577643539
 22
59.43409519542497
 32
0.0
 13
-70.60406330452528
 23
59.43409519542497
 33
0.0
  0
SOLID
  5
358
330
2B3
100
AcDbEntity
  8
RAHM2
100
AcDbTrace
 10
-73.82923184385109
 20
59.43409519542497
 30
0.0
 11
-70.46383858542405
 21
59.43409519542497
 31
0.0
 12
-73.82923184385109
 22
59.15364575722271
 32
0.0
 13
-70.46383858542405
 23
59.15364575722271
 33
0.0
  0
SOLID
  5
359
330
2B3
100
AcDbEntity
  8
RAHM2
100
AcDbTrace
 10
-73.96945656295213
 20
59.15364575722271
 30
0.0
 11
-70.46383858542405
 21
59.15364575722271
 31
0.0
 12
-73.96945656295213
 22
59.01342103812166
 32
0.0
 13
-70.46383858542405
 23
59.01342103812166
 33
0.0
  0
SOLID
  5
35A
330
2B3
100
AcDbEntity
  8
RAHM2
100
AcDbTrace
 10
-73.96945656295213
 20
59.01342103812166
 30
0.0
 11
-70.32361386632302
 21
59.01342103812166
 31
0.0
 12
-73.96945656295213
 22
58.87319631902044
 32
0.0
 13
-70.32361386632302
 23
58.87319631902044
 33
0.0
  0
SOLID
  5
35B
330
2B3
100
AcDbEntity
  8
RAHM2
100
AcDbTrace
 10
-74.10968128205336
 20
58.87319631902044
 30
0.0
 11
-70.32361386632302
 21
58.87319631902044
 31
0.0
 12
-74.10968128205336
 22
58.73297159991939
 32
0.0
 13
-70.32361386632302
 23
58.73297159991939
 33
0.0
  0
SOLID
  5
35C
330
2B3
100
AcDbEntity
  8
RAHM2
100
AcDbTrace
 10
-74.10968128205336
 20
58.73297159991939
 30
0.0
 11
-72.98788352924429
 21
58.73297159991939
 31
0.0
 12
-74.10968128205336
 22
58.45252216171712
 32
0.0
 13
-72.98788352924429
 23
58.45252216171712
 33
0.0
  0
SOLID
  5
35D
330
2B3
100
AcDbEntity
  8
RAHM2
100
AcDbTrace
 10
-74.2499060011544
 20
58.45252216171712
 30
0.0
 11
-73.12810824834551
 21
58.45252216171712
 31
0.0
 12
-74.2499060011544
 22
58.17207272351486
 32
0.0
 13
-73.12810824834551
 23
58.17207272351486
 33
0.0
  0
SOLID
  5
35E
330
2B3
100
AcDbEntity
  8
RAHM2
100
AcDbTrace
 10
-74.39013072025563
 20
58.17207272351486
 30
0.0
 11
-73.26833296744656
 21
58.17207272351486
 31
0.0
 12
-74.39013072025563
 22
57.75139856621155
 32
0.0
 13
-73.26833296744656
 23
57.75139856621155
 33
0.0
  0
SOLID
  5
35F
330
2B3
100
AcDbEntity
  8
RAHM2
100
AcDbTrace
 10
-71.72586105733417
 20
58.73297159991939
 30
0.0
 11
-70.18338914722178
 21
58.73297159991939
 31
0.0
 12
-71.72586105733417
 22
58.59274688081836
 32
0.0
 13
-70.18338914722178
 23
58.59274688081836
 33
0.0
  0
SOLID
  5
360
330
2B3
100
AcDbEntity
  8
RAHM2
100
AcDbTrace
 10
-71.58563633823312
 20
58.59274688081836
 30
0.0
 11
-70.18338914722178
 21
58.59274688081836
 31
0.0
 12
-71.58563633823312
 22
58.31229744261609
 32
0.0
 13
-70.18338914722178
 23
58.31229744261609
 33
0.0
  0
SOLID
  5
361
330
2B3
100
AcDbEntity
  8
RAHM2
100
AcDbTrace
 10
-71.4454116191319
 20
58.31229744261609
 30
0.0
 11
-70.04316442812075
 21
58.31229744261609
 31
0.0
 12
-71.4454116191319
 22
58.03184800441382
 32
0.0
 13
-70.04316442812075
 23
58.03184800441382
 33
0.0
  0
SOLID
  5
362
330
2B3
100
AcDbEntity
  8
RAHM2
100
AcDbTrace
 10
-71.4454116191319
 20
58.03184800441382
 30
0.0
 11
-69.90293970901952
 21
58.03184800441382
 31
0.0
 12
-71.4454116191319
 22
57.89162328531259
 32
0.0
 13
-69.90293970901952
 23
57.89162328531259
 33
0.0
  0
SOLID
  5
363
330
2B3
100
AcDbEntity
  8
RAHM2
100
AcDbTrace
 10
-71.30518690003086
 20
57.89162328531259
 30
0.0
 11
-69.90293970901952
 21
57.89162328531259
 31
0.0
 12
-71.30518690003086
 22
57.75139856621155
 32
0.0
 13
-69.90293970901952
 23
57.75139856621155
 33
0.0
  0
SOLID
  5
364
330
2B3
100
AcDbEntity
  8
RAHM2
100
AcDbTrace
 10
-69.34204083261517
 20
61.1167918246384
 30
0.0
 11
-67.51911948430052
 21
61.1167918246384
 31
0.0
 12
-69.34204083261517
 22
60.97656710553735
 32
0.0
 13
-67.51911948430052
 23
60.97656710553735
 33
0.0
  0
SOLID
  5
365
330
2B3
100
AcDbEntity
  8
RAHM2
100
AcDbTrace
 10
-69.48226555171621
 20
60.97656710553735
 30
0.0
 11
-67.93979364160382
 21
60.97656710553735
 31
0.0
 12
-69.48226555171621
 22
60.83634238643631
 32
0.0
 13
-67.93979364160382
 23
60.83634238643631
 33
0.0
  0
SOLID
  5
366
330
2B3
100
AcDbEntity
  8
RAHM2
100
AcDbTrace
 10
-69.62249027081725
 20
60.83634238643631
 30
0.0
 11
-68.08001836070506
 21
60.83634238643631
 31
0.0
 12
-69.62249027081725
 22
60.69611766733508
 32
0.0
 13
-68.08001836070506
 23
60.69611766733508
 33
0.0
  0
SOLID
  5
367
330
2B3
100
AcDbEntity
  8
RAHM2
100
AcDbTrace
 10
-69.62249027081725
 20
60.69611766733508
 30
0.0
 11
-68.22024307980609
 21
60.69611766733508
 31
0.0
 12
-69.62249027081725
 22
60.55589294823405
 32
0.0
 13
-68.22024307980609
 23
60.55589294823405
 33
0.0
  0
SOLID
  5
368
330
2B3
100
AcDbEntity
  8
RAHM2
100
AcDbTrace
 10
-69.62249027081725
 20
60.55589294823405
 30
0.0
 11
-68.36046779890714
 21
60.55589294823405
 31
0.0
 12
-69.62249027081725
 22
60.41566822913281
 32
0.0
 13
-68.36046779890714
 23
60.41566822913281
 33
0.0
  0
SOLID
  5
369
330
2B3
100
AcDbEntity
  8
RAHM2
100
AcDbTrace
 10
-69.62249027081725
 20
60.41566822913281
 30
0.0
 11
-68.36046779890714
 21
60.41566822913281
 31
0.0
 12
-69.62249027081725
 22
60.13521879093055
 32
0.0
 13
-68.36046779890714
 23
60.13521879093055
 33
0.0
  0
SOLID
  5
36A
330
2B3
100
AcDbEntity
  8
RAHM2
100
AcDbTrace
 10
-69.76271498991848
 20
60.13521879093055
 30
0.0
 11
-68.36046779890714
 21
60.13521879093055
 31
0.0
 12
-69.76271498991848
 22
59.99499407182951
 32
0.0
 13
-68.36046779890714
 23
59.99499407182951
 33
0.0
  0
SOLID
  5
36B
330
2B3
100
AcDbEntity
  8
RAHM2
100
AcDbTrace
 10
-69.76271498991848
 20
59.99499407182951
 30
0.0
 11
-68.50069251800836
 21
59.99499407182951
 31
0.0
 12
-69.76271498991848
 22
59.85476935272828
 32
0.0
 13
-68.50069251800836
 23
59.85476935272828
 33
0.0
  0
SOLID
  5
36C
330
2B3
100
AcDbEntity
  8
RAHM2
100
AcDbTrace
 10
-69.76271498991848
 20
59.85476935272828
 30
0.0
 11
-68.50069251800836
 21
59.85476935272828
 31
0.0
 12
-69.76271498991848
 22
59.71454463362724
 32
0.0
 13
-68.50069251800836
 23
59.71454463362724
 33
0.0
  0
SOLID
  5
36D
330
2B3
100
AcDbEntity
  8
RAHM2
100
AcDbTrace
 10
-69.62249027081725
 20
59.71454463362724
 30
0.0
 11
-68.36046779890714
 21
59.71454463362724
 31
0.0
 12
-69.62249027081725
 22
59.29387047632393
 32
0.0
 13
-68.36046779890714
 23
59.29387047632393
 33
0.0
  0
SOLID
  5
36E
330
2B3
100
AcDbEntity
  8
RAHM2
100
AcDbTrace
 10
-69.62249027081725
 20
59.29387047632393
 30
0.0
 11
-68.36046779890714
 21
59.29387047632393
 31
0.0
 12
-69.62249027081725
 22
59.15364575722271
 32
0.0
 13
-68.36046779890714
 23
59.15364575722271
 33
0.0
  0
SOLID
  5
36F
330
2B3
100
AcDbEntity
  8
RAHM2
100
AcDbTrace
 10
-69.62249027081725
 20
59.15364575722271
 30
0.0
 11
-68.22024307980609
 21
59.15364575722271
 31
0.0
 12
-69.62249027081725
 22
59.01342103812166
 32
0.0
 13
-68.22024307980609
 23
59.01342103812166
 33
0.0
  0
SOLID
  5
370
330
2B3
100
AcDbEntity
  8
RAHM2
100
AcDbTrace
 10
-69.48226555171621
 20
59.01342103812166
 30
0.0
 11
-68.08001836070506
 21
59.01342103812166
 31
0.0
 12
-69.48226555171621
 22
58.87319631902044
 32
0.0
 13
-68.08001836070506
 23
58.87319631902044
 33
0.0
  0
SOLID
  5
371
330
2B3
100
AcDbEntity
  8
RAHM2
100
AcDbTrace
 10
-69.48226555171621
 20
58.87319631902044
 30
0.0
 11
-67.93979364160382
 21
58.87319631902044
 31
0.0
 12
-69.48226555171621
 22
58.73297159991939
 32
0.0
 13
-67.93979364160382
 23
58.73297159991939
 33
0.0
  0
SOLID
  5
372
330
2B3
100
AcDbEntity
  8
RAHM2
100
AcDbTrace
 10
-69.34204083261517
 20
58.73297159991939
 30
0.0
 11
-67.37889476519929
 21
58.73297159991939
 31
0.0
 12
-69.34204083261517
 22
58.59274688081836
 32
0.0
 13
-67.37889476519929
 23
58.59274688081836
 33
0.0
  0
SOLID
  5
373
330
2B3
100
AcDbEntity
  8
RAHM2
100
AcDbTrace
 10
-52.09440038317687
 20
60.55589294823405
 30
0.0
 11
-51.67372622587357
 21
60.55589294823405
 31
0.0
 12
-52.09440038317687
 22
60.41566822913281
 32
0.0
 13
-51.67372622587357
 23
60.41566822913281
 33
0.0
  0
SOLID
  5
374
330
2B3
100
AcDbEntity
  8
RAHM2
100
AcDbTrace
 10
-52.23462510227792
 20
60.41566822913281
 30
0.0
 11
-51.8139509449746
 21
60.41566822913281
 31
0.0
 12
-52.23462510227792
 22
60.13521879093055
 32
0.0
 13
-51.8139509449746
 23
60.13521879093055
 33
0.0
  0
SOLID
  5
375
330
2B3
100
AcDbEntity
  8
RAHM2
100
AcDbTrace
 10
-52.37484982137914
 20
60.13521879093055
 30
0.0
 11
-51.95417566407583
 21
60.13521879093055
 31
0.0
 12
-52.37484982137914
 22
59.99499407182951
 32
0.0
 13
-51.95417566407583
 23
59.99499407182951
 33
0.0
  0
SOLID
  5
376
330
2B3
100
AcDbEntity
  8
RAHM2
100
AcDbTrace
 10
-52.37484982137914
 20
59.99499407182951
 30
0.0
 11
-51.8139509449746
 21
59.99499407182951
 31
0.0
 12
-52.37484982137914
 22
59.85476935272828
 32
0.0
 13
-51.8139509449746
 23
59.85476935272828
 33
0.0
  0
SOLID
  5
377
330
2B3
100
AcDbEntity
  8
RAHM2
100
AcDbTrace
 10
-52.23462510227792
 20
59.85476935272828
 30
0.0
 11
-51.67372622587357
 21
59.85476935272828
 31
0.0
 12
-52.23462510227792
 22
59.71454463362724
 32
0.0
 13
-51.67372622587357
 23
59.71454463362724
 33
0.0
  0
SOLID
  5
378
330
2B3
100
AcDbEntity
  8
RAHM2
100
AcDbTrace
 10
-52.23462510227792
 20
59.71454463362724
 30
0.0
 11
-51.53350150677233
 21
59.71454463362724
 31
0.0
 12
-52.23462510227792
 22
59.5743199145262
 32
0.0
 13
-51.53350150677233
 23
59.5743199145262
 33
0.0
  0
SOLID
  5
379
330
2B3
100
AcDbEntity
  8
RAHM2
100
AcDbTrace
 10
-52.23462510227792
 20
59.5743199145262
 30
0.0
 11
-51.3932767876713
 21
59.5743199145262
 31
0.0
 12
-52.23462510227792
 22
59.43409519542497
 32
0.0
 13
-51.3932767876713
 23
59.43409519542497
 33
0.0
  0
SOLID
  5
37A
330
2B3
100
AcDbEntity
  8
RAHM2
100
AcDbTrace
 10
-52.09440038317687
 20
59.43409519542497
 30
0.0
 11
-51.3932767876713
 21
59.43409519542497
 31
0.0
 12
-52.09440038317687
 22
59.29387047632393
 32
0.0
 13
-51.3932767876713
 23
59.29387047632393
 33
0.0
  0
SOLID
  5
37B
330
2B3
100
AcDbEntity
  8
RAHM2
100
AcDbTrace
 10
-52.65529925958141
 20
57.75139856621155
 30
0.0
 11
-51.67372622587357
 21
57.75139856621155
 31
0.0
 12
-52.65529925958141
 22
57.61117384711032
 32
0.0
 13
-51.67372622587357
 23
57.61117384711032
 33
0.0
  0
SOLID
  5
37C
330
2B3
100
AcDbEntity
  8
RAHM2
100
AcDbTrace
 10
-59.80675993373861
 20
59.99499407182951
 30
0.0
 11
-59.38608577643529
 21
59.99499407182951
 31
0.0
 12
-59.80675993373861
 22
59.85476935272828
 32
0.0
 13
-59.38608577643529
 23
59.85476935272828
 33
0.0
  0
SOLID
  5
37D
330
2B3
100
AcDbEntity
  8
RAHM2
100
AcDbTrace
 10
-59.80675993373861
 20
59.85476935272828
 30
0.0
 11
-59.66653521463756
 21
59.85476935272828
 31
0.0
 12
-59.80675993373861
 22
59.71454463362724
 32
0.0
 13
-59.66653521463756
 23
59.71454463362724
 33
0.0
  0
SOLID
  5
37E
330
2B3
100
AcDbEntity
  8
RAHM2
100
AcDbTrace
 10
-59.80675993373861
 20
58.17207272351486
 30
0.0
 11
-59.10563633823302
 21
58.17207272351486
 31
0.0
 12
-59.80675993373861
 22
58.03184800441382
 32
0.0
 13
-59.10563633823302
 23
58.03184800441382
 33
0.0
  0
SOLID
  5
37F
330
2B3
100
AcDbEntity
  8
RAHM2
100
AcDbTrace
 10
-59.80675993373861
 20
58.03184800441382
 30
0.0
 11
-59.24586105733425
 21
58.03184800441382
 31
0.0
 12
-59.80675993373861
 22
57.89162328531259
 32
0.0
 13
-59.24586105733425
 23
57.89162328531259
 33
0.0
  0
SOLID
  5
380
330
2B3
100
AcDbEntity
  8
RAHM2
100
AcDbTrace
 10
-59.80675993373861
 20
57.89162328531259
 30
0.0
 11
-58.26428802362641
 21
57.89162328531259
 31
0.0
 12
-59.80675993373861
 22
57.75139856621155
 32
0.0
 13
-58.26428802362641
 23
57.75139856621155
 33
0.0
  0
SOLID
  5
381
330
2B3
100
AcDbEntity
  8
RAHM2
100
AcDbTrace
 10
-59.80675993373861
 20
57.75139856621155
 30
0.0
 11
-58.68496218092971
 21
57.75139856621155
 31
0.0
 12
-59.80675993373861
 22
57.61117384711032
 32
0.0
 13
-58.68496218092971
 23
57.61117384711032
 33
0.0
  0
SOLID
  5
382
330
2B3
100
AcDbEntity
  8
RAHM2
100
AcDbTrace
 10
-59.80675993373861
 20
57.61117384711032
 30
0.0
 11
-59.24586105733425
 21
57.61117384711032
 31
0.0
 12
-59.80675993373861
 22
57.47094912800928
 32
0.0
 13
-59.24586105733425
 23
57.47094912800928
 33
0.0
  0
SOLID
  5
383
330
2B3
100
AcDbEntity
  8
RAHM2
100
AcDbTrace
 10
-59.94698465283983
 20
57.47094912800928
 30
0.0
 11
-59.24586105733425
 21
57.47094912800928
 31
0.0
 12
-59.94698465283983
 22
57.19049968980701
 32
0.0
 13
-59.24586105733425
 23
57.19049968980701
 33
0.0
  0
SOLID
  5
384
330
2B3
100
AcDbEntity
  8
RAHM2
100
AcDbTrace
 10
-59.94698465283983
 20
57.19049968980701
 30
0.0
 11
-59.38608577643529
 21
57.19049968980701
 31
0.0
 12
-59.94698465283983
 22
56.7698255325037
 32
0.0
 13
-59.38608577643529
 23
56.7698255325037
 33
0.0
  0
SOLID
  5
385
330
2B3
100
AcDbEntity
  8
RAHM2
100
AcDbTrace
 10
-60.08720937194087
 20
56.7698255325037
 30
0.0
 11
-59.52631049553652
 21
56.7698255325037
 31
0.0
 12
-60.08720937194087
 22
56.62960081340248
 32
0.0
 13
-59.52631049553652
 23
56.62960081340248
 33
0.0
  0
SOLID
  5
386
330
2B3
100
AcDbEntity
  8
RAHM2
100
AcDbTrace
 10
-60.08720937194087
 20
56.62960081340248
 30
0.0
 11
-59.52631049553652
 21
56.62960081340248
 31
0.0
 12
-60.08720937194087
 22
56.34915137520021
 32
0.0
 13
-59.52631049553652
 23
56.34915137520021
 33
0.0
  0
SOLID
  5
387
330
2B3
100
AcDbEntity
  8
RAHM2
100
AcDbTrace
 10
-60.08720937194087
 20
56.34915137520021
 30
0.0
 11
-59.38608577643529
 21
56.34915137520021
 31
0.0
 12
-60.08720937194087
 22
56.20892665609916
 32
0.0
 13
-59.38608577643529
 23
56.20892665609916
 33
0.0
  0
SOLID
  5
388
330
2B3
100
AcDbEntity
  8
RAHM2
100
AcDbTrace
 10
-60.64810824834541
 20
56.20892665609916
 30
0.0
 11
-58.96541161913198
 21
56.20892665609916
 31
0.0
 12
-60.64810824834541
 22
56.06870193699812
 32
0.0
 13
-58.96541161913198
 23
56.06870193699812
 33
0.0
  0
SOLID
  5
389
330
2B3
100
AcDbEntity
  8
RAHM2
100
AcDbTrace
 10
-66.81799588879494
 20
61.25701654373962
 30
0.0
 11
-66.2570970123904
 21
61.25701654373962
 31
0.0
 12
-66.81799588879494
 22
61.1167918246384
 32
0.0
 13
-66.2570970123904
 23
61.1167918246384
 33
0.0
  0
SOLID
  5
38A
330
2B3
100
AcDbEntity
  8
RAHM2
100
AcDbTrace
 10
-63.87327678767121
 20
62.09836485834642
 30
0.0
 11
-63.45260263036791
 21
62.09836485834642
 31
0.0
 12
-63.87327678767121
 22
61.9581401392452
 32
0.0
 13
-63.45260263036791
 23
61.9581401392452
 33
0.0
  0
SOLID
  5
38B
330
2B3
100
AcDbEntity
  8
RAHM2
100
AcDbTrace
 10
-64.57440038317698
 20
61.9581401392452
 30
0.0
 11
-62.75147903486232
 21
61.9581401392452
 31
0.0
 12
-64.57440038317698
 22
61.81791542014416
 32
0.0
 13
-62.75147903486232
 23
61.81791542014416
 33
0.0
  0
SOLID
  5
38C
330
2B3
100
AcDbEntity
  8
RAHM2
100
AcDbTrace
 10
-64.85484982137906
 20
61.81791542014416
 30
0.0
 11
-62.47102959666006
 21
61.81791542014416
 31
0.0
 12
-64.85484982137906
 22
61.67769070104293
 32
0.0
 13
-62.47102959666006
 23
61.67769070104293
 33
0.0
  0
SOLID
  5
38D
330
2B3
100
AcDbEntity
  8
RAHM2
100
AcDbTrace
 10
-64.99507454048028
 20
61.67769070104293
 30
0.0
 11
-62.33080487755883
 21
61.67769070104293
 31
0.0
 12
-64.99507454048028
 22
61.53746598194189
 32
0.0
 13
-62.33080487755883
 23
61.53746598194189
 33
0.0
  0
SOLID
  5
38E
330
2B3
100
AcDbEntity
  8
RAHM2
100
AcDbTrace
 10
-65.4157486977836
 20
61.25701654373962
 30
0.0
 11
-63.73305206857017
 21
61.25701654373962
 31
0.0
 12
-65.4157486977836
 22
61.1167918246384
 32
0.0
 13
-63.73305206857017
 23
61.1167918246384
 33
0.0
  0
SOLID
  5
38F
330
2B3
100
AcDbEntity
  8
RAHM2
100
AcDbTrace
 10
-63.59282734946894
 20
61.25701654373962
 30
0.0
 11
-61.91013072025552
 21
61.25701654373962
 31
0.0
 12
-63.59282734946894
 22
61.1167918246384
 32
0.0
 13
-61.91013072025552
 23
61.1167918246384
 33
0.0
  0
SOLID
  5
390
330
2B3
100
AcDbEntity
  8
RAHM2
100
AcDbTrace
 10
-65.55597341688482
 20
61.1167918246384
 30
0.0
 11
-64.01350150677244
 21
61.1167918246384
 31
0.0
 12
-65.55597341688482
 22
60.97656710553735
 32
0.0
 13
-64.01350150677244
 23
60.97656710553735
 33
0.0
  0
SOLID
  5
391
330
2B3
100
AcDbEntity
  8
RAHM2
100
AcDbTrace
 10
-65.55597341688482
 20
60.97656710553735
 30
0.0
 11
-64.15372622587348
 21
60.97656710553735
 31
0.0
 12
-65.55597341688482
 22
60.83634238643631
 32
0.0
 13
-64.15372622587348
 23
60.83634238643631
 33
0.0
  0
SOLID
  5
392
330
2B3
100
AcDbEntity
  8
RAHM2
100
AcDbTrace
 10
-63.17215319216564
 20
61.1167918246384
 30
0.0
 11
-61.76990600115448
 21
61.1167918246384
 31
0.0
 12
-63.17215319216564
 22
60.97656710553735
 32
0.0
 13
-61.76990600115448
 23
60.97656710553735
 33
0.0
  0
SOLID
  5
393
330
2B3
100
AcDbEntity
  8
RAHM2
100
AcDbTrace
 10
-63.03192847306459
 20
60.97656710553735
 30
0.0
 11
-61.76990600115448
 21
60.97656710553735
 31
0.0
 12
-63.03192847306459
 22
60.83634238643631
 32
0.0
 13
-61.76990600115448
 23
60.83634238643631
 33
0.0
  0
SOLID
  5
394
330
2B3
100
AcDbEntity
  8
RAHM2
100
AcDbTrace
 10
-65.69619813598587
 20
60.83634238643631
 30
0.0
 11
-64.29395094497471
 21
60.83634238643631
 31
0.0
 12
-65.69619813598587
 22
60.13521879093055
 32
0.0
 13
-64.29395094497471
 23
60.13521879093055
 33
0.0
  0
SOLID
  5
395
330
2B3
100
AcDbEntity
  8
RAHM2
100
AcDbTrace
 10
-65.83642285508691
 20
60.13521879093055
 30
0.0
 11
-64.43417566407575
 21
60.13521879093055
 31
0.0
 12
-65.83642285508691
 22
59.99499407182951
 32
0.0
 13
-64.43417566407575
 23
59.99499407182951
 33
0.0
  0
SOLID
  5
396
330
2B3
100
AcDbEntity
  8
RAHM2
100
AcDbTrace
 10
-63.03192847306459
 20
60.83634238643631
 30
0.0
 11
-61.62968128205325
 21
60.83634238643631
 31
0.0
 12
-63.03192847306459
 22
60.41566822913281
 32
0.0
 13
-61.62968128205325
 23
60.41566822913281
 33
0.0
  0
SOLID
  5
397
330
2B3
100
AcDbEntity
  8
RAHM2
100
AcDbTrace
 10
-62.89170375396337
 20
60.41566822913281
 30
0.0
 11
-61.48945656295222
 21
60.41566822913281
 31
0.0
 12
-62.89170375396337
 22
59.99499407182951
 32
0.0
 13
-61.48945656295222
 23
59.99499407182951
 33
0.0
  0
SOLID
  5
398
330
2B3
100
AcDbEntity
  8
RAHM2
100
AcDbTrace
 10
-65.83642285508691
 20
59.99499407182951
 30
0.0
 11
-64.43417566407575
 21
59.99499407182951
 31
0.0
 12
-65.83642285508691
 22
59.71454463362724
 32
0.0
 13
-64.43417566407575
 23
59.71454463362724
 33
0.0
  0
SOLID
  5
399
330
2B3
100
AcDbEntity
  8
RAHM2
100
AcDbTrace
 10
-65.69619813598587
 20
59.71454463362724
 30
0.0
 11
-64.29395094497471
 21
59.71454463362724
 31
0.0
 12
-65.69619813598587
 22
59.01342103812166
 32
0.0
 13
-64.29395094497471
 23
59.01342103812166
 33
0.0
  0
SOLID
  5
39A
330
2B3
100
AcDbEntity
  8
RAHM2
100
AcDbTrace
 10
-62.89170375396337
 20
59.99499407182951
 30
0.0
 11
-61.48945656295222
 21
59.99499407182951
 31
0.0
 12
-62.89170375396337
 22
59.29387047632393
 32
0.0
 13
-61.48945656295222
 23
59.29387047632393
 33
0.0
  0
SOLID
  5
39B
330
2B3
100
AcDbEntity
  8
RAHM2
100
AcDbTrace
 10
-63.03192847306459
 20
59.29387047632393
 30
0.0
 11
-61.62968128205325
 21
59.29387047632393
 31
0.0
 12
-63.03192847306459
 22
59.01342103812166
 32
0.0
 13
-61.62968128205325
 23
59.01342103812166
 33
0.0
  0
SOLID
  5
39C
330
2B3
100
AcDbEntity
  8
RAHM2
100
AcDbTrace
 10
-65.69619813598587
 20
59.01342103812166
 30
0.0
 11
-64.29395094497471
 21
59.01342103812166
 31
0.0
 12
-65.69619813598587
 22
58.87319631902044
 32
0.0
 13
-64.29395094497471
 23
58.87319631902044
 33
0.0
  0
SOLID
  5
39D
330
2B3
100
AcDbEntity
  8
RAHM2
100
AcDbTrace
 10
-63.03192847306459
 20
59.01342103812166
 30
0.0
 11
-61.62968128205325
 21
59.01342103812166
 31
0.0
 12
-63.03192847306459
 22
58.87319631902044
 32
0.0
 13
-61.62968128205325
 23
58.87319631902044
 33
0.0
  0
SOLID
  5
39E
330
2B3
100
AcDbEntity
  8
RAHM2
100
AcDbTrace
 10
-65.55597341688482
 20
58.87319631902044
 30
0.0
 11
-64.15372622587348
 21
58.87319631902044
 31
0.0
 12
-65.55597341688482
 22
58.73297159991939
 32
0.0
 13
-64.15372622587348
 23
58.73297159991939
 33
0.0
  0
SOLID
  5
39F
330
2B3
100
AcDbEntity
  8
RAHM2
100
AcDbTrace
 10
-65.4157486977836
 20
58.73297159991939
 30
0.0
 11
-64.01350150677244
 21
58.73297159991939
 31
0.0
 12
-65.4157486977836
 22
58.59274688081836
 32
0.0
 13
-64.01350150677244
 23
58.59274688081836
 33
0.0
  0
SOLID
  5
3A0
330
2B3
100
AcDbEntity
  8
RAHM2
100
AcDbTrace
 10
-63.17215319216564
 20
58.87319631902044
 30
0.0
 11
-61.76990600115448
 21
58.87319631902044
 31
0.0
 12
-63.17215319216564
 22
58.73297159991939
 32
0.0
 13
-61.76990600115448
 23
58.73297159991939
 33
0.0
  0
SOLID
  5
3A1
330
2B3
100
AcDbEntity
  8
RAHM2
100
AcDbTrace
 10
-63.31237791126686
 20
58.73297159991939
 30
0.0
 11
-61.76990600115448
 21
58.73297159991939
 31
0.0
 12
-63.31237791126686
 22
58.59274688081836
 32
0.0
 13
-61.76990600115448
 23
58.59274688081836
 33
0.0
  0
SOLID
  5
3A2
330
2B3
100
AcDbEntity
  8
RAHM2
100
AcDbTrace
 10
-65.4157486977836
 20
58.59274688081836
 30
0.0
 11
-61.91013072025552
 21
58.59274688081836
 31
0.0
 12
-65.4157486977836
 22
58.45252216171712
 32
0.0
 13
-61.91013072025552
 23
58.45252216171712
 33
0.0
  0
SOLID
  5
3A3
330
2B3
100
AcDbEntity
  8
RAHM2
100
AcDbTrace
 10
-65.27552397868255
 20
58.45252216171712
 30
0.0
 11
-62.05035543935675
 21
58.45252216171712
 31
0.0
 12
-65.27552397868255
 22
58.31229744261609
 32
0.0
 13
-62.05035543935675
 23
58.31229744261609
 33
0.0
  0
SOLID
  5
3A4
330
2B3
100
AcDbEntity
  8
RAHM2
100
AcDbTrace
 10
-65.27552397868255
 20
58.31229744261609
 30
0.0
 11
-62.05035543935675
 21
58.31229744261609
 31
0.0
 12
-65.27552397868255
 22
58.17207272351486
 32
0.0
 13
-62.05035543935675
 23
58.17207272351486
 33
0.0
  0
SOLID
  5
3A5
330
2B3
100
AcDbEntity
  8
RAHM2
100
AcDbTrace
 10
-64.99507454048028
 20
58.17207272351486
 30
0.0
 11
-62.33080487755883
 21
58.17207272351486
 31
0.0
 12
-64.99507454048028
 22
58.03184800441382
 32
0.0
 13
-62.33080487755883
 23
58.03184800441382
 33
0.0
  0
SOLID
  5
3A6
330
2B3
100
AcDbEntity
  8
RAHM2
100
AcDbTrace
 10
-64.85484982137906
 20
58.03184800441382
 30
0.0
 11
-62.47102959666006
 21
58.03184800441382
 31
0.0
 12
-64.85484982137906
 22
57.89162328531259
 32
0.0
 13
-62.47102959666006
 23
57.89162328531259
 33
0.0
  0
SOLID
  5
3A7
330
2B3
100
AcDbEntity
  8
RAHM2
100
AcDbTrace
 10
-64.71462510227802
 20
57.89162328531259
 30
0.0
 11
-62.6112543157611
 21
57.89162328531259
 31
0.0
 12
-64.71462510227802
 22
57.75139856621155
 32
0.0
 13
-62.6112543157611
 23
57.75139856621155
 33
0.0
  0
SOLID
  5
3A8
330
2B3
100
AcDbEntity
  8
RAHM2
100
AcDbTrace
 10
-64.15372622587348
 20
57.75139856621155
 30
0.0
 11
-63.17215319216564
 21
57.75139856621155
 31
0.0
 12
-64.15372622587348
 22
57.61117384711032
 32
0.0
 13
-63.17215319216564
 23
57.61117384711032
 33
0.0
  0
SOLID
  5
3A9
330
2B3
100
AcDbEntity
  8
RAHM2
100
AcDbTrace
 10
-58.82518690003076
 20
61.1167918246384
 30
0.0
 11
-58.54473746182849
 21
61.1167918246384
 31
0.0
 12
-58.82518690003076
 22
60.97656710553735
 32
0.0
 13
-58.54473746182849
 23
60.97656710553735
 33
0.0
  0
SOLID
  5
3AA
330
2B3
100
AcDbEntity
  8
RAHM2
100
AcDbTrace
 10
-59.10563633823302
 20
60.97656710553735
 30
0.0
 11
-58.54473746182849
 21
60.97656710553735
 31
0.0
 12
-59.10563633823302
 22
60.83634238643631
 32
0.0
 13
-58.54473746182849
 23
60.83634238643631
 33
0.0
  0
SOLID
  5
3AB
330
2B3
100
AcDbEntity
  8
RAHM2
100
AcDbTrace
 10
-59.10563633823302
 20
60.83634238643631
 30
0.0
 11
-58.54473746182849
 21
60.83634238643631
 31
0.0
 12
-59.10563633823302
 22
60.69611766733508
 32
0.0
 13
-58.54473746182849
 23
60.69611766733508
 33
0.0
  0
SOLID
  5
3AC
330
2B3
100
AcDbEntity
  8
RAHM2
100
AcDbTrace
 10
-57.70338914722187
 20
60.83634238643631
 30
0.0
 11
-57.4229397090196
 21
60.83634238643631
 31
0.0
 12
-57.70338914722187
 22
60.69611766733508
 32
0.0
 13
-57.4229397090196
 23
60.69611766733508
 33
0.0
  0
SOLID
  5
3AD
330
2B3
100
AcDbEntity
  8
RAHM2
100
AcDbTrace
 10
-59.10563633823302
 20
60.69611766733508
 30
0.0
 11
-58.54473746182849
 21
60.69611766733508
 31
0.0
 12
-59.10563633823302
 22
60.55589294823405
 32
0.0
 13
-58.54473746182849
 23
60.55589294823405
 33
0.0
  0
SOLID
  5
3AE
330
2B3
100
AcDbEntity
  8
RAHM2
100
AcDbTrace
 10
-58.26428802362641
 20
60.69611766733508
 30
0.0
 11
-57.14249027081733
 21
60.69611766733508
 31
0.0
 12
-58.26428802362641
 22
60.55589294823405
 32
0.0
 13
-57.14249027081733
 23
60.55589294823405
 33
0.0
  0
SOLID
  5
3AF
330
2B3
100
AcDbEntity
  8
RAHM2
100
AcDbTrace
 10
-59.10563633823302
 20
60.55589294823405
 30
0.0
 11
-58.68496218092971
 21
60.55589294823405
 31
0.0
 12
-59.10563633823302
 22
60.41566822913281
 32
0.0
 13
-58.68496218092971
 23
60.41566822913281
 33
0.0
  0
SOLID
  5
3B0
330
2B3
100
AcDbEntity
  8
RAHM2
100
AcDbTrace
 10
-58.54473746182849
 20
60.55589294823405
 30
0.0
 11
-57.98383858542414
 21
60.55589294823405
 31
0.0
 12
-58.54473746182849
 22
60.41566822913281
 32
0.0
 13
-57.98383858542414
 23
60.41566822913281
 33
0.0
  0
SOLID
  5
3B1
330
2B3
100
AcDbEntity
  8
RAHM2
100
AcDbTrace
 10
-57.84361386632291
 20
60.55589294823405
 30
0.0
 11
-57.00226555171629
 21
60.55589294823405
 31
0.0
 12
-57.84361386632291
 22
60.41566822913281
 32
0.0
 13
-57.00226555171629
 23
60.41566822913281
 33
0.0
  0
SOLID
  5
3B2
330
2B3
100
AcDbEntity
  8
RAHM2
100
AcDbTrace
 10
-59.10563633823302
 20
60.41566822913281
 30
0.0
 11
-58.40451274272744
 21
60.41566822913281
 31
0.0
 12
-59.10563633823302
 22
60.27544351003178
 32
0.0
 13
-58.40451274272744
 23
60.27544351003178
 33
0.0
  0
SOLID
  5
3B3
330
2B3
100
AcDbEntity
  8
RAHM2
100
AcDbTrace
 10
-57.70338914722187
 20
60.41566822913281
 30
0.0
 11
-57.00226555171629
 21
60.41566822913281
 31
0.0
 12
-57.70338914722187
 22
60.27544351003178
 32
0.0
 13
-57.00226555171629
 23
60.27544351003178
 33
0.0
  0
SOLID
  5
3B4
330
2B3
100
AcDbEntity
  8
RAHM2
100
AcDbTrace
 10
-59.24586105733425
 20
60.27544351003178
 30
0.0
 11
-58.68496218092971
 21
60.27544351003178
 31
0.0
 12
-59.24586105733425
 22
60.13521879093055
 32
0.0
 13
-58.68496218092971
 23
60.13521879093055
 33
0.0
  0
SOLID
  5
3B5
330
2B3
100
AcDbEntity
  8
RAHM2
100
AcDbTrace
 10
-57.56316442812064
 20
60.27544351003178
 30
0.0
 11
-57.00226555171629
 21
60.27544351003178
 31
0.0
 12
-57.56316442812064
 22
60.13521879093055
 32
0.0
 13
-57.00226555171629
 23
60.13521879093055
 33
0.0
  0
SOLID
  5
3B6
330
2B3
100
AcDbEntity
  8
RAHM2
100
AcDbTrace
 10
-59.38608577643529
 20
60.13521879093055
 30
0.0
 11
-58.68496218092971
 21
60.13521879093055
 31
0.0
 12
-59.38608577643529
 22
59.99499407182951
 32
0.0
 13
-58.68496218092971
 23
59.99499407182951
 33
0.0
  0
SOLID
  5
3B7
330
2B3
100
AcDbEntity
  8
RAHM2
100
AcDbTrace
 10
-57.56316442812064
 20
60.13521879093055
 30
0.0
 11
-57.00226555171629
 21
60.13521879093055
 31
0.0
 12
-57.56316442812064
 22
59.99499407182951
 32
0.0
 13
-57.00226555171629
 23
59.99499407182951
 33
0.0
  0
SOLID
  5
3B8
330
2B3
100
AcDbEntity
  8
RAHM2
100
AcDbTrace
 10
-59.38608577643529
 20
59.99499407182951
 30
0.0
 11
-58.68496218092971
 21
59.99499407182951
 31
0.0
 12
-59.38608577643529
 22
59.85476935272828
 32
0.0
 13
-58.68496218092971
 23
59.85476935272828
 33
0.0
  0
SOLID
  5
3B9
330
2B3
100
AcDbEntity
  8
RAHM2
100
AcDbTrace
 10
-59.38608577643529
 20
59.85476935272828
 30
0.0
 11
-58.82518690003076
 21
59.85476935272828
 31
0.0
 12
-59.38608577643529
 22
59.71454463362724
 32
0.0
 13
-58.82518690003076
 23
59.71454463362724
 33
0.0
  0
SOLID
  5
3BA
330
2B3
100
AcDbEntity
  8
RAHM2
100
AcDbTrace
 10
-57.56316442812064
 20
59.99499407182951
 30
0.0
 11
-57.00226555171629
 21
59.99499407182951
 31
0.0
 12
-57.56316442812064
 22
59.71454463362724
 32
0.0
 13
-57.00226555171629
 23
59.71454463362724
 33
0.0
  0
SOLID
  5
3BB
330
2B3
100
AcDbEntity
  8
RAHM2
100
AcDbTrace
 10
-59.38608577643529
 20
59.71454463362724
 30
0.0
 11
-58.82518690003076
 21
59.71454463362724
 31
0.0
 12
-59.38608577643529
 22
59.43409519542497
 32
0.0
 13
-58.82518690003076
 23
59.43409519542497
 33
0.0
  0
SOLID
  5
3BC
330
2B3
100
AcDbEntity
  8
RAHM2
100
AcDbTrace
 10
-59.52631049553652
 20
59.43409519542497
 30
0.0
 11
-58.82518690003076
 21
59.43409519542497
 31
0.0
 12
-59.52631049553652
 22
59.15364575722271
 32
0.0
 13
-58.82518690003076
 23
59.15364575722271
 33
0.0
  0
SOLID
  5
3BD
330
2B3
100
AcDbEntity
  8
RAHM2
100
AcDbTrace
 10
-57.56316442812064
 20
59.71454463362724
 30
0.0
 11
-57.00226555171629
 21
59.71454463362724
 31
0.0
 12
-57.56316442812064
 22
59.43409519542497
 32
0.0
 13
-57.00226555171629
 23
59.43409519542497
 33
0.0
  0
SOLID
  5
3BE
330
2B3
100
AcDbEntity
  8
RAHM2
100
AcDbTrace
 10
-57.56316442812064
 20
59.43409519542497
 30
0.0
 11
-57.14249027081733
 21
59.43409519542497
 31
0.0
 12
-57.56316442812064
 22
59.29387047632393
 32
0.0
 13
-57.14249027081733
 23
59.29387047632393
 33
0.0
  0
SOLID
  5
3BF
330
2B3
100
AcDbEntity
  8
RAHM2
100
AcDbTrace
 10
-57.70338914722187
 20
59.29387047632393
 30
0.0
 11
-57.14249027081733
 21
59.29387047632393
 31
0.0
 12
-57.70338914722187
 22
59.15364575722271
 32
0.0
 13
-57.14249027081733
 23
59.15364575722271
 33
0.0
  0
SOLID
  5
3C0
330
2B3
100
AcDbEntity
  8
RAHM2
100
AcDbTrace
 10
-59.52631049553652
 20
59.15364575722271
 30
0.0
 11
-58.96541161913198
 21
59.15364575722271
 31
0.0
 12
-59.52631049553652
 22
59.01342103812166
 32
0.0
 13
-58.96541161913198
 23
59.01342103812166
 33
0.0
  0
SOLID
  5
3C1
330
2B3
100
AcDbEntity
  8
RAHM2
100
AcDbTrace
 10
-57.70338914722187
 20
59.15364575722271
 30
0.0
 11
-57.14249027081733
 21
59.15364575722271
 31
0.0
 12
-57.70338914722187
 22
59.01342103812166
 32
0.0
 13
-57.14249027081733
 23
59.01342103812166
 33
0.0
  0
SOLID
  5
3C2
330
2B3
100
AcDbEntity
  8
RAHM2
100
AcDbTrace
 10
-59.52631049553652
 20
59.01342103812166
 30
0.0
 11
-58.96541161913198
 21
59.01342103812166
 31
0.0
 12
-59.52631049553652
 22
58.73297159991939
 32
0.0
 13
-58.96541161913198
 23
58.73297159991939
 33
0.0
  0
SOLID
  5
3C3
330
2B3
100
AcDbEntity
  8
RAHM2
100
AcDbTrace
 10
-59.66653521463756
 20
58.73297159991939
 30
0.0
 11
-58.96541161913198
 21
58.73297159991939
 31
0.0
 12
-59.66653521463756
 22
58.59274688081836
 32
0.0
 13
-58.96541161913198
 23
58.59274688081836
 33
0.0
  0
SOLID
  5
3C4
330
2B3
100
AcDbEntity
  8
RAHM2
100
AcDbTrace
 10
-59.66653521463756
 20
58.59274688081836
 30
0.0
 11
-59.10563633823302
 21
58.59274688081836
 31
0.0
 12
-59.66653521463756
 22
58.45252216171712
 32
0.0
 13
-59.10563633823302
 23
58.45252216171712
 33
0.0
  0
SOLID
  5
3C5
330
2B3
100
AcDbEntity
  8
RAHM2
100
AcDbTrace
 10
-57.70338914722187
 20
59.01342103812166
 30
0.0
 11
-57.14249027081733
 21
59.01342103812166
 31
0.0
 12
-57.70338914722187
 22
58.87319631902044
 32
0.0
 13
-57.14249027081733
 23
58.87319631902044
 33
0.0
  0
SOLID
  5
3C6
330
2B3
100
AcDbEntity
  8
RAHM2
100
AcDbTrace
 10
-57.84361386632291
 20
58.87319631902044
 30
0.0
 11
-57.28271498991837
 21
58.87319631902044
 31
0.0
 12
-57.84361386632291
 22
58.73297159991939
 32
0.0
 13
-57.28271498991837
 23
58.73297159991939
 33
0.0
  0
SOLID
  5
3C7
330
2B3
100
AcDbEntity
  8
RAHM2
100
AcDbTrace
 10
-57.84361386632291
 20
58.73297159991939
 30
0.0
 11
-57.4229397090196
 21
58.73297159991939
 31
0.0
 12
-57.84361386632291
 22
58.59274688081836
 32
0.0
 13
-57.4229397090196
 23
58.59274688081836
 33
0.0
  0
SOLID
  5
3C8
330
2B3
100
AcDbEntity
  8
RAHM2
100
AcDbTrace
 10
-57.98383858542414
 20
58.59274688081836
 30
0.0
 11
-57.4229397090196
 21
58.59274688081836
 31
0.0
 12
-57.98383858542414
 22
58.45252216171712
 32
0.0
 13
-57.4229397090196
 23
58.45252216171712
 33
0.0
  0
SOLID
  5
3C9
330
2B3
100
AcDbEntity
  8
RAHM2
100
AcDbTrace
 10
-59.66653521463756
 20
58.45252216171712
 30
0.0
 11
-59.10563633823302
 21
58.45252216171712
 31
0.0
 12
-59.66653521463756
 22
58.17207272351486
 32
0.0
 13
-59.10563633823302
 23
58.17207272351486
 33
0.0
  0
SOLID
  5
3CA
330
2B3
100
AcDbEntity
  8
RAHM2
100
AcDbTrace
 10
-58.12406330452517
 20
58.45252216171712
 30
0.0
 11
-57.56316442812064
 21
58.45252216171712
 31
0.0
 12
-58.12406330452517
 22
58.31229744261609
 32
0.0
 13
-57.56316442812064
 23
58.31229744261609
 33
0.0
  0
SOLID
  5
3CB
330
2B3
100
AcDbEntity
  8
RAHM2
100
AcDbTrace
 10
-58.26428802362641
 20
58.31229744261609
 30
0.0
 11
-57.70338914722187
 21
58.31229744261609
 31
0.0
 12
-58.26428802362641
 22
58.17207272351486
 32
0.0
 13
-57.70338914722187
 23
58.17207272351486
 33
0.0
  0
SOLID
  5
3CC
330
2B3
100
AcDbEntity
  8
RAHM2
100
AcDbTrace
 10
-58.40451274272744
 20
58.17207272351486
 30
0.0
 11
-57.84361386632291
 21
58.17207272351486
 31
0.0
 12
-58.40451274272744
 22
58.03184800441382
 32
0.0
 13
-57.84361386632291
 23
58.03184800441382
 33
0.0
  0
SOLID
  5
3CD
330
2B3
100
AcDbEntity
  8
RAHM2
100
AcDbTrace
 10
-58.54473746182849
 20
58.03184800441382
 30
0.0
 11
-58.12406330452517
 21
58.03184800441382
 31
0.0
 12
-58.54473746182849
 22
57.89162328531259
 32
0.0
 13
-58.12406330452517
 23
57.89162328531259
 33
0.0
  0
SOLID
  5
3CE
330
2B3
100
AcDbEntity
  8
RAHM2
100
AcDbTrace
 10
-54.33799588879484
 20
60.83634238643631
 30
0.0
 11
-53.49664757418803
 21
60.83634238643631
 31
0.0
 12
-54.33799588879484
 22
60.69611766733508
 32
0.0
 13
-53.49664757418803
 23
60.69611766733508
 33
0.0
  0
SOLID
  5
3CF
330
2B3
100
AcDbEntity
  8
RAHM2
100
AcDbTrace
 10
-54.89889476519937
 20
60.69611766733508
 30
0.0
 11
-53.49664757418803
 21
60.69611766733508
 31
0.0
 12
-54.89889476519937
 22
60.55589294823405
 32
0.0
 13
-53.49664757418803
 23
60.55589294823405
 33
0.0
  0
SOLID
  5
3D0
330
2B3
100
AcDbEntity
  8
RAHM2
100
AcDbTrace
 10
-55.17934420340164
 20
60.55589294823405
 30
0.0
 11
-54.61844532699711
 21
60.55589294823405
 31
0.0
 12
-55.17934420340164
 22
60.41566822913281
 32
0.0
 13
-54.61844532699711
 23
60.41566822913281
 33
0.0
  0
SOLID
  5
3D1
330
2B3
100
AcDbEntity
  8
RAHM2
100
AcDbTrace
 10
-55.45979364160391
 20
60.41566822913281
 30
0.0
 11
-55.03911948430041
 21
60.41566822913281
 31
0.0
 12
-55.45979364160391
 22
60.27544351003178
 32
0.0
 13
-55.03911948430041
 23
60.27544351003178
 33
0.0
  0
SOLID
  5
3D2
330
2B3
100
AcDbEntity
  8
RAHM2
100
AcDbTrace
 10
-54.05754645059257
 20
60.55589294823405
 30
0.0
 11
-53.49664757418803
 21
60.55589294823405
 31
0.0
 12
-54.05754645059257
 22
60.27544351003178
 32
0.0
 13
-53.49664757418803
 23
60.27544351003178
 33
0.0
  0
SOLID
  5
3D3
330
2B3
100
AcDbEntity
  8
RAHM2
100
AcDbTrace
 10
-55.60001836070495
 20
60.27544351003178
 30
0.0
 11
-55.31956892250268
 21
60.27544351003178
 31
0.0
 12
-55.60001836070495
 22
60.13521879093055
 32
0.0
 13
-55.31956892250268
 23
60.13521879093055
 33
0.0
  0
SOLID
  5
3D4
330
2B3
100
AcDbEntity
  8
RAHM2
100
AcDbTrace
 10
-55.74024307980618
 20
60.13521879093055
 30
0.0
 11
-55.31956892250268
 21
60.13521879093055
 31
0.0
 12
-55.74024307980618
 22
59.99499407182951
 32
0.0
 13
-55.31956892250268
 23
59.99499407182951
 33
0.0
  0
SOLID
  5
3D5
330
2B3
100
AcDbEntity
  8
RAHM2
100
AcDbTrace
 10
-54.05754645059257
 20
60.27544351003178
 30
0.0
 11
-53.63687229328926
 21
60.27544351003178
 31
0.0
 12
-54.05754645059257
 22
60.13521879093055
 32
0.0
 13
-53.63687229328926
 23
60.13521879093055
 33
0.0
  0
SOLID
  5
3D6
330
2B3
100
AcDbEntity
  8
RAHM2
100
AcDbTrace
 10
-54.19777116969379
 20
60.13521879093055
 30
0.0
 11
-53.63687229328926
 21
60.13521879093055
 31
0.0
 12
-54.19777116969379
 22
59.99499407182951
 32
0.0
 13
-53.63687229328926
 23
59.99499407182951
 33
0.0
  0
SOLID
  5
3D7
330
2B3
100
AcDbEntity
  8
RAHM2
100
AcDbTrace
 10
-55.88046779890722
 20
59.99499407182951
 30
0.0
 11
-55.45979364160391
 21
59.99499407182951
 31
0.0
 12
-55.88046779890722
 22
59.85476935272828
 32
0.0
 13
-55.45979364160391
 23
59.85476935272828
 33
0.0
  0
SOLID
  5
3D8
330
2B3
100
AcDbEntity
  8
RAHM2
100
AcDbTrace
 10
-56.02069251800826
 20
59.85476935272828
 30
0.0
 11
-55.60001836070495
 21
59.85476935272828
 31
0.0
 12
-56.02069251800826
 22
59.71454463362724
 32
0.0
 13
-55.60001836070495
 23
59.71454463362724
 33
0.0
  0
SOLID
  5
3D9
330
2B3
100
AcDbEntity
  8
RAHM2
100
AcDbTrace
 10
-54.19777116969379
 20
59.99499407182951
 30
0.0
 11
-53.63687229328926
 21
59.99499407182951
 31
0.0
 12
-54.19777116969379
 22
59.71454463362724
 32
0.0
 13
-53.63687229328926
 23
59.71454463362724
 33
0.0
  0
SOLID
  5
3DA
330
2B3
100
AcDbEntity
  8
RAHM2
100
AcDbTrace
 10
-56.02069251800826
 20
59.71454463362724
 30
0.0
 11
-55.60001836070495
 21
59.71454463362724
 31
0.0
 12
-56.02069251800826
 22
59.5743199145262
 32
0.0
 13
-55.60001836070495
 23
59.5743199145262
 33
0.0
  0
SOLID
  5
3DB
330
2B3
100
AcDbEntity
  8
RAHM2
100
AcDbTrace
 10
-56.16091723710948
 20
59.5743199145262
 30
0.0
 11
-55.60001836070495
 21
59.5743199145262
 31
0.0
 12
-56.16091723710948
 22
59.43409519542497
 32
0.0
 13
-55.60001836070495
 23
59.43409519542497
 33
0.0
  0
SOLID
  5
3DC
330
2B3
100
AcDbEntity
  8
RAHM2
100
AcDbTrace
 10
-54.33799588879484
 20
59.71454463362724
 30
0.0
 11
-53.7770970123903
 21
59.71454463362724
 31
0.0
 12
-54.33799588879484
 22
59.43409519542497
 32
0.0
 13
-53.7770970123903
 23
59.43409519542497
 33
0.0
  0
SOLID
  5
3DD
330
2B3
100
AcDbEntity
  8
RAHM2
100
AcDbTrace
 10
-56.16091723710948
 20
59.43409519542497
 30
0.0
 11
-55.74024307980618
 21
59.43409519542497
 31
0.0
 12
-56.16091723710948
 22
59.29387047632393
 32
0.0
 13
-55.74024307980618
 23
59.29387047632393
 33
0.0
  0
SOLID
  5
3DE
330
2B3
100
AcDbEntity
  8
RAHM2
100
AcDbTrace
 10
-56.30114195621053
 20
59.29387047632393
 30
0.0
 11
-55.74024307980618
 21
59.29387047632393
 31
0.0
 12
-56.30114195621053
 22
59.15364575722271
 32
0.0
 13
-55.74024307980618
 23
59.15364575722271
 33
0.0
  0
SOLID
  5
3DF
330
2B3
100
AcDbEntity
  8
RAHM2
100
AcDbTrace
 10
-54.47822060789606
 20
59.43409519542497
 30
0.0
 11
-53.7770970123903
 21
59.43409519542497
 31
0.0
 12
-54.47822060789606
 22
59.15364575722271
 32
0.0
 13
-53.7770970123903
 23
59.15364575722271
 33
0.0
  0
SOLID
  5
3E0
330
2B3
100
AcDbEntity
  8
RAHM2
100
AcDbTrace
 10
-56.30114195621053
 20
59.15364575722271
 30
0.0
 11
-55.74024307980618
 21
59.15364575722271
 31
0.0
 12
-56.30114195621053
 22
59.01342103812166
 32
0.0
 13
-55.74024307980618
 23
59.01342103812166
 33
0.0
  0
SOLID
  5
3E1
330
2B3
100
AcDbEntity
  8
RAHM2
100
AcDbTrace
 10
-54.61844532699711
 20
59.15364575722271
 30
0.0
 11
-53.7770970123903
 21
59.15364575722271
 31
0.0
 12
-54.61844532699711
 22
59.01342103812166
 32
0.0
 13
-53.7770970123903
 23
59.01342103812166
 33
0.0
  0
SOLID
  5
3E2
330
2B3
100
AcDbEntity
  8
RAHM2
100
AcDbTrace
 10
-56.30114195621053
 20
59.01342103812166
 30
0.0
 11
-55.74024307980618
 21
59.01342103812166
 31
0.0
 12
-56.30114195621053
 22
58.73297159991939
 32
0.0
 13
-55.74024307980618
 23
58.73297159991939
 33
0.0
  0
SOLID
  5
3E3
330
2B3
100
AcDbEntity
  8
RAHM2
100
AcDbTrace
 10
-56.30114195621053
 20
58.73297159991939
 30
0.0
 11
-55.88046779890722
 21
58.73297159991939
 31
0.0
 12
-56.30114195621053
 22
58.59274688081836
 32
0.0
 13
-55.88046779890722
 23
58.59274688081836
 33
0.0
  0
SOLID
  5
3E4
330
2B3
100
AcDbEntity
  8
RAHM2
100
AcDbTrace
 10
-54.61844532699711
 20
59.01342103812166
 30
0.0
 11
-54.47822060789606
 21
59.01342103812166
 31
0.0
 12
-54.61844532699711
 22
58.87319631902044
 32
0.0
 13
-54.47822060789606
 23
58.87319631902044
 33
0.0
  0
SOLID
  5
3E5
330
2B3
100
AcDbEntity
  8
RAHM2
100
AcDbTrace
 10
-54.75867004609814
 20
58.87319631902044
 30
0.0
 11
-54.61844532699711
 21
58.87319631902044
 31
0.0
 12
-54.75867004609814
 22
58.73297159991939
 32
0.0
 13
-54.61844532699711
 23
58.73297159991939
 33
0.0
  0
SOLID
  5
3E6
330
2B3
100
AcDbEntity
  8
RAHM2
100
AcDbTrace
 10
-54.47822060789606
 20
59.01342103812166
 30
0.0
 11
-53.91732173149152
 21
59.01342103812166
 31
0.0
 12
-54.47822060789606
 22
58.59274688081836
 32
0.0
 13
-53.91732173149152
 23
58.59274688081836
 33
0.0
  0
SOLID
  5
3E7
330
2B3
100
AcDbEntity
  8
RAHM2
100
AcDbTrace
 10
-56.44136667531175
 20
58.59274688081836
 30
0.0
 11
-55.88046779890722
 21
58.59274688081836
 31
0.0
 12
-56.44136667531175
 22
58.31229744261609
 32
0.0
 13
-55.88046779890722
 23
58.31229744261609
 33
0.0
  0
SOLID
  5
3E8
330
2B3
100
AcDbEntity
  8
RAHM2
100
AcDbTrace
 10
-54.89889476519937
 20
58.59274688081836
 30
0.0
 11
-54.75867004609814
 21
58.59274688081836
 31
0.0
 12
-54.89889476519937
 22
58.45252216171712
 32
0.0
 13
-54.75867004609814
 23
58.45252216171712
 33
0.0
  0
SOLID
  5
3E9
330
2B3
100
AcDbEntity
  8
RAHM2
100
AcDbTrace
 10
-55.17934420340164
 20
58.45252216171712
 30
0.0
 11
-54.89889476519937
 21
58.45252216171712
 31
0.0
 12
-55.17934420340164
 22
58.31229744261609
 32
0.0
 13
-54.89889476519937
 23
58.31229744261609
 33
0.0
  0
SOLID
  5
3EA
330
2B3
100
AcDbEntity
  8
RAHM2
100
AcDbTrace
 10
-54.47822060789606
 20
58.59274688081836
 30
0.0
 11
-53.91732173149152
 21
58.59274688081836
 31
0.0
 12
-54.47822060789606
 22
58.45252216171712
 32
0.0
 13
-53.91732173149152
 23
58.45252216171712
 33
0.0
  0
SOLID
  5
3EB
330
2B3
100
AcDbEntity
  8
RAHM2
100
AcDbTrace
 10
-54.47822060789606
 20
58.45252216171712
 30
0.0
 11
-54.05754645059257
 21
58.45252216171712
 31
0.0
 12
-54.47822060789606
 22
58.31229744261609
 32
0.0
 13
-54.05754645059257
 23
58.31229744261609
 33
0.0
  0
SOLID
  5
3EC
330
2B3
100
AcDbEntity
  8
RAHM2
100
AcDbTrace
 10
-56.44136667531175
 20
58.31229744261609
 30
0.0
 11
-55.88046779890722
 21
58.31229744261609
 31
0.0
 12
-56.44136667531175
 22
58.17207272351486
 32
0.0
 13
-55.88046779890722
 23
58.17207272351486
 33
0.0
  0
SOLID
  5
3ED
330
2B3
100
AcDbEntity
  8
RAHM2
100
AcDbTrace
 10
-55.31956892250268
 20
58.31229744261609
 30
0.0
 11
-55.03911948430041
 21
58.31229744261609
 31
0.0
 12
-55.31956892250268
 22
58.17207272351486
 32
0.0
 13
-55.03911948430041
 23
58.17207272351486
 33
0.0
  0
SOLID
  5
3EE
330
2B3
100
AcDbEntity
  8
RAHM2
100
AcDbTrace
 10
-54.61844532699711
 20
58.31229744261609
 30
0.0
 11
-54.05754645059257
 21
58.31229744261609
 31
0.0
 12
-54.61844532699711
 22
58.17207272351486
 32
0.0
 13
-54.05754645059257
 23
58.17207272351486
 33
0.0
  0
SOLID
  5
3EF
330
2B3
100
AcDbEntity
  8
RAHM2
100
AcDbTrace
 10
-56.44136667531175
 20
58.17207272351486
 30
0.0
 11
-55.74024307980618
 21
58.17207272351486
 31
0.0
 12
-56.44136667531175
 22
58.03184800441382
 32
0.0
 13
-55.74024307980618
 23
58.03184800441382
 33
0.0
  0
SOLID
  5
3F0
330
2B3
100
AcDbEntity
  8
RAHM2
100
AcDbTrace
 10
-55.45979364160391
 20
58.17207272351486
 30
0.0
 11
-55.17934420340164
 21
58.17207272351486
 31
0.0
 12
-55.45979364160391
 22
58.03184800441382
 32
0.0
 13
-55.17934420340164
 23
58.03184800441382
 33
0.0
  0
SOLID
  5
3F1
330
2B3
100
AcDbEntity
  8
RAHM2
100
AcDbTrace
 10
-54.61844532699711
 20
58.17207272351486
 30
0.0
 11
-54.05754645059257
 21
58.17207272351486
 31
0.0
 12
-54.61844532699711
 22
58.03184800441382
 32
0.0
 13
-54.05754645059257
 23
58.03184800441382
 33
0.0
  0
SOLID
  5
3F2
330
2B3
100
AcDbEntity
  8
RAHM2
100
AcDbTrace
 10
-53.91732173149152
 20
58.17207272351486
 30
0.0
 11
-53.49664757418803
 21
58.17207272351486
 31
0.0
 12
-53.91732173149152
 22
58.03184800441382
 32
0.0
 13
-53.49664757418803
 23
58.03184800441382
 33
0.0
  0
SOLID
  5
3F3
330
2B3
100
AcDbEntity
  8
RAHM2
100
AcDbTrace
 10
-56.44136667531175
 20
58.03184800441382
 30
0.0
 11
-55.31956892250268
 21
58.03184800441382
 31
0.0
 12
-56.44136667531175
 22
57.89162328531259
 32
0.0
 13
-55.31956892250268
 23
57.89162328531259
 33
0.0
  0
SOLID
  5
3F4
330
2B3
100
AcDbEntity
  8
RAHM2
100
AcDbTrace
 10
-56.30114195621053
 20
57.89162328531259
 30
0.0
 11
-55.45979364160391
 21
57.89162328531259
 31
0.0
 12
-56.30114195621053
 22
57.75139856621155
 32
0.0
 13
-55.45979364160391
 23
57.75139856621155
 33
0.0
  0
SOLID
  5
3F5
330
2B3
100
AcDbEntity
  8
RAHM2
100
AcDbTrace
 10
-54.61844532699711
 20
58.03184800441382
 30
0.0
 11
-53.7770970123903
 21
58.03184800441382
 31
0.0
 12
-54.61844532699711
 22
57.89162328531259
 32
0.0
 13
-53.7770970123903
 23
57.89162328531259
 33
0.0
  0
SOLID
  5
3F6
330
2B3
100
AcDbEntity
  8
RAHM2
100
AcDbTrace
 10
-54.75867004609814
 20
57.89162328531259
 30
0.0
 11
-54.05754645059257
 21
57.89162328531259
 31
0.0
 12
-54.75867004609814
 22
57.75139856621155
 32
0.0
 13
-54.05754645059257
 23
57.75139856621155
 33
0.0
  0
SOLID
  5
3F7
330
2B3
100
AcDbEntity
  8
RAHM2
100
AcDbTrace
 10
-56.16091723710948
 20
57.75139856621155
 30
0.0
 11
-55.74024307980618
 21
57.75139856621155
 31
0.0
 12
-56.16091723710948
 22
57.61117384711032
 32
0.0
 13
-55.74024307980618
 23
57.61117384711032
 33
0.0
  0
SOLID
  5
3F8
330
2B3
100
AcDbEntity
  8
RAHM2
100
AcDbTrace
 10
-54.61844532699711
 20
57.75139856621155
 30
0.0
 11
-54.33799588879484
 21
57.75139856621155
 31
0.0
 12
-54.61844532699711
 22
57.61117384711032
 32
0.0
 13
-54.33799588879484
 23
57.61117384711032
 33
0.0
  0
SOLID
  5
3F9
330
2B3
100
AcDbEntity
  8
RAHM2
100
AcDbTrace
 10
-52.79552397868245
 20
58.45252216171712
 30
0.0
 11
-52.65529925958141
 21
58.45252216171712
 31
0.0
 12
-52.79552397868245
 22
58.31229744261609
 32
0.0
 13
-52.65529925958141
 23
58.31229744261609
 33
0.0
  0
SOLID
  5
3FA
330
2B3
100
AcDbEntity
  8
RAHM2
100
AcDbTrace
 10
-52.79552397868245
 20
58.31229744261609
 30
0.0
 11
-52.51507454048018
 21
58.31229744261609
 31
0.0
 12
-52.79552397868245
 22
57.89162328531259
 32
0.0
 13
-52.51507454048018
 23
57.89162328531259
 33
0.0
  0
SOLID
  5
3FB
330
2B3
100
AcDbEntity
  8
RAHM2
100
AcDbTrace
 10
-52.93574869778367
 20
57.89162328531259
 30
0.0
 11
-52.23462510227792
 21
57.89162328531259
 31
0.0
 12
-52.93574869778367
 22
57.75139856621155
 32
0.0
 13
-52.23462510227792
 23
57.75139856621155
 33
0.0
  0
SOLID
  5
3FC
330
2B3
100
AcDbEntity
  8
RAHM2
100
AcDbTrace
 10
-45.08316442812072
 20
60.83634238643631
 30
0.0
 11
-44.24181611351392
 21
60.83634238643631
 31
0.0
 12
-45.08316442812072
 22
60.69611766733508
 32
0.0
 13
-44.24181611351392
 23
60.69611766733508
 33
0.0
  0
SOLID
  5
3FD
330
2B3
100
AcDbEntity
  8
RAHM2
100
AcDbTrace
 10
-45.64406330452526
 20
60.69611766733508
 30
0.0
 11
-44.24181611351392
 21
60.69611766733508
 31
0.0
 12
-45.64406330452526
 22
60.55589294823405
 32
0.0
 13
-44.24181611351392
 23
60.55589294823405
 33
0.0
  0
SOLID
  5
3FE
330
2B3
100
AcDbEntity
  8
RAHM2
100
AcDbTrace
 10
-44.80271498991846
 20
60.55589294823405
 30
0.0
 11
-44.24181611351392
 21
60.55589294823405
 31
0.0
 12
-44.80271498991846
 22
60.27544351003178
 32
0.0
 13
-44.24181611351392
 23
60.27544351003178
 33
0.0
  0
SOLID
  5
3FF
330
2B3
100
AcDbEntity
  8
RAHM2
100
AcDbTrace
 10
-44.38204083261514
 20
58.31229744261609
 30
0.0
 11
-44.24181611351392
 21
58.31229744261609
 31
0.0
 12
-44.38204083261514
 22
58.17207272351486
 32
0.0
 13
-44.24181611351392
 23
58.17207272351486
 33
0.0
  0
SOLID
  5
400
330
2B3
100
AcDbEntity
  8
RAHM2
100
AcDbTrace
 10
-44.66249027081741
 20
58.17207272351486
 30
0.0
 11
-44.24181611351392
 21
58.17207272351486
 31
0.0
 12
-44.66249027081741
 22
58.03184800441382
 32
0.0
 13
-44.24181611351392
 23
58.03184800441382
 33
0.0
  0
SOLID
  5
401
330
2B3
100
AcDbEntity
  8
RAHM2
100
AcDbTrace
 10
-51.53350150677233
 20
60.83634238643631
 30
0.0
 11
-51.11282734946903
 21
60.83634238643631
 31
0.0
 12
-51.53350150677233
 22
60.69611766733508
 32
0.0
 13
-51.11282734946903
 23
60.69611766733508
 33
0.0
  0
SOLID
  5
402
330
2B3
100
AcDbEntity
  8
RAHM2
100
AcDbTrace
 10
-51.95417566407583
 20
60.69611766733508
 30
0.0
 11
-51.3932767876713
 21
60.69611766733508
 31
0.0
 12
-51.95417566407583
 22
60.55589294823405
 32
0.0
 13
-51.3932767876713
 23
60.55589294823405
 33
0.0
  0
SOLID
  5
403
330
2B3
100
AcDbEntity
  8
RAHM2
100
AcDbTrace
 10
-51.25305206857007
 20
60.69611766733508
 30
0.0
 11
-50.69215319216572
 21
60.69611766733508
 31
0.0
 12
-51.25305206857007
 22
60.55589294823405
 32
0.0
 13
-50.69215319216572
 23
60.55589294823405
 33
0.0
  0
SOLID
  5
404
330
2B3
100
AcDbEntity
  8
RAHM2
100
AcDbTrace
 10
-50.97260263036798
 20
60.55589294823405
 30
0.0
 11
-50.69215319216572
 21
60.55589294823405
 31
0.0
 12
-50.97260263036798
 22
60.41566822913281
 32
0.0
 13
-50.69215319216572
 23
60.41566822913281
 33
0.0
  0
SOLID
  5
405
330
2B3
100
AcDbEntity
  8
RAHM2
100
AcDbTrace
 10
-50.97260263036798
 20
60.41566822913281
 30
0.0
 11
-50.69215319216572
 21
60.41566822913281
 31
0.0
 12
-50.97260263036798
 22
60.27544351003178
 32
0.0
 13
-50.69215319216572
 23
60.27544351003178
 33
0.0
  0
SOLID
  5
406
330
2B3
100
AcDbEntity
  8
RAHM2
100
AcDbTrace
 10
-50.97260263036798
 20
60.27544351003178
 30
0.0
 11
-50.83237791126676
 21
60.27544351003178
 31
0.0
 12
-50.97260263036798
 22
60.13521879093055
 32
0.0
 13
-50.83237791126676
 23
60.13521879093055
 33
0.0
  0
SOLID
  5
407
330
2B3
100
AcDbEntity
  8
RAHM2
100
AcDbTrace
 10
-51.95417566407583
 20
59.29387047632393
 30
0.0
 11
-51.25305206857007
 21
59.29387047632393
 31
0.0
 12
-51.95417566407583
 22
59.15364575722271
 32
0.0
 13
-51.25305206857007
 23
59.15364575722271
 33
0.0
  0
SOLID
  5
408
330
2B3
100
AcDbEntity
  8
RAHM2
100
AcDbTrace
 10
-51.8139509449746
 20
59.15364575722271
 30
0.0
 11
-51.11282734946903
 21
59.15364575722271
 31
0.0
 12
-51.8139509449746
 22
59.01342103812166
 32
0.0
 13
-51.11282734946903
 23
59.01342103812166
 33
0.0
  0
SOLID
  5
409
330
2B3
100
AcDbEntity
  8
RAHM2
100
AcDbTrace
 10
-51.67372622587357
 20
59.01342103812166
 30
0.0
 11
-50.97260263036798
 21
59.01342103812166
 31
0.0
 12
-51.67372622587357
 22
58.87319631902044
 32
0.0
 13
-50.97260263036798
 23
58.87319631902044
 33
0.0
  0
SOLID
  5
40A
330
2B3
100
AcDbEntity
  8
RAHM2
100
AcDbTrace
 10
-51.53350150677233
 20
58.87319631902044
 30
0.0
 11
-50.97260263036798
 21
58.87319631902044
 31
0.0
 12
-51.53350150677233
 22
58.73297159991939
 32
0.0
 13
-50.97260263036798
 23
58.73297159991939
 33
0.0
  0
SOLID
  5
40B
330
2B3
100
AcDbEntity
  8
RAHM2
100
AcDbTrace
 10
-51.3932767876713
 20
58.73297159991939
 30
0.0
 11
-50.83237791126676
 21
58.73297159991939
 31
0.0
 12
-51.3932767876713
 22
58.45252216171712
 32
0.0
 13
-50.83237791126676
 23
58.45252216171712
 33
0.0
  0
SOLID
  5
40C
330
2B3
100
AcDbEntity
  8
RAHM2
100
AcDbTrace
 10
-51.3932767876713
 20
58.45252216171712
 30
0.0
 11
-50.83237791126676
 21
58.45252216171712
 31
0.0
 12
-51.3932767876713
 22
58.31229744261609
 32
0.0
 13
-50.83237791126676
 23
58.31229744261609
 33
0.0
  0
SOLID
  5
40D
330
2B3
100
AcDbEntity
  8
RAHM2
100
AcDbTrace
 10
-51.3932767876713
 20
58.31229744261609
 30
0.0
 11
-50.97260263036798
 21
58.31229744261609
 31
0.0
 12
-51.3932767876713
 22
58.03184800441382
 32
0.0
 13
-50.97260263036798
 23
58.03184800441382
 33
0.0
  0
SOLID
  5
40E
330
2B3
100
AcDbEntity
  8
RAHM2
100
AcDbTrace
 10
-51.53350150677233
 20
58.03184800441382
 30
0.0
 11
-51.11282734946903
 21
58.03184800441382
 31
0.0
 12
-51.53350150677233
 22
57.89162328531259
 32
0.0
 13
-51.11282734946903
 23
57.89162328531259
 33
0.0
  0
SOLID
  5
40F
330
2B3
100
AcDbEntity
  8
RAHM2
100
AcDbTrace
 10
-51.67372622587357
 20
57.89162328531259
 30
0.0
 11
-51.25305206857007
 21
57.89162328531259
 31
0.0
 12
-51.67372622587357
 22
57.75139856621155
 32
0.0
 13
-51.25305206857007
 23
57.75139856621155
 33
0.0
  0
SOLID
  5
410
330
2B3
100
AcDbEntity
  8
RAHM2
100
AcDbTrace
 10
-48.86923184385107
 20
60.83634238643631
 30
0.0
 11
-48.44855768654776
 21
60.83634238643631
 31
0.0
 12
-48.86923184385107
 22
60.69611766733508
 32
0.0
 13
-48.44855768654776
 23
60.69611766733508
 33
0.0
  0
SOLID
  5
411
330
2B3
100
AcDbEntity
  8
RAHM2
100
AcDbTrace
 10
-49.28990600115437
 20
60.69611766733508
 30
0.0
 11
-48.72900712474984
 21
60.69611766733508
 31
0.0
 12
-49.28990600115437
 22
60.55589294823405
 32
0.0
 13
-48.72900712474984
 23
60.55589294823405
 33
0.0
  0
SOLID
  5
412
330
2B3
100
AcDbEntity
  8
RAHM2
100
AcDbTrace
 10
-48.5887824056488
 20
60.69611766733508
 30
0.0
 11
-47.88765881014322
 21
60.69611766733508
 31
0.0
 12
-48.5887824056488
 22
60.55589294823405
 32
0.0
 13
-47.88765881014322
 23
60.55589294823405
 33
0.0
  0
SOLID
  5
413
330
2B3
100
AcDbEntity
  8
RAHM2
100
AcDbTrace
 10
-49.28990600115437
 20
60.55589294823405
 30
0.0
 11
-49.00945656295211
 21
60.55589294823405
 31
0.0
 12
-49.28990600115437
 22
60.41566822913281
 32
0.0
 13
-49.00945656295211
 23
60.41566822913281
 33
0.0
  0
SOLID
  5
414
330
2B3
100
AcDbEntity
  8
RAHM2
100
AcDbTrace
 10
-48.30833296744653
 20
60.55589294823405
 30
0.0
 11
-47.88765881014322
 21
60.55589294823405
 31
0.0
 12
-48.30833296744653
 22
60.41566822913281
 32
0.0
 13
-47.88765881014322
 23
60.41566822913281
 33
0.0
  0
SOLID
  5
415
330
2B3
100
AcDbEntity
  8
RAHM2
100
AcDbTrace
 10
-49.43013072025561
 20
60.41566822913281
 30
0.0
 11
-49.00945656295211
 21
60.41566822913281
 31
0.0
 12
-49.43013072025561
 22
60.13521879093055
 32
0.0
 13
-49.00945656295211
 23
60.13521879093055
 33
0.0
  0
SOLID
  5
416
330
2B3
100
AcDbEntity
  8
RAHM2
100
AcDbTrace
 10
-48.16810824834549
 20
60.41566822913281
 30
0.0
 11
-47.88765881014322
 21
60.41566822913281
 31
0.0
 12
-48.16810824834549
 22
60.27544351003178
 32
0.0
 13
-47.88765881014322
 23
60.27544351003178
 33
0.0
  0
SOLID
  5
417
330
2B3
100
AcDbEntity
  8
RAHM2
100
AcDbTrace
 10
-48.16810824834549
 20
60.27544351003178
 30
0.0
 11
-48.02788352924427
 21
60.27544351003178
 31
0.0
 12
-48.16810824834549
 22
60.13521879093055
 32
0.0
 13
-48.02788352924427
 23
60.13521879093055
 33
0.0
  0
SOLID
  5
418
330
2B3
100
AcDbEntity
  8
RAHM2
100
AcDbTrace
 10
-49.57035543935664
 20
60.13521879093055
 30
0.0
 11
-49.14968128205334
 21
60.13521879093055
 31
0.0
 12
-49.57035543935664
 22
59.99499407182951
 32
0.0
 13
-49.14968128205334
 23
59.99499407182951
 33
0.0
  0
SOLID
  5
419
330
2B3
100
AcDbEntity
  8
RAHM2
100
AcDbTrace
 10
-49.57035543935664
 20
59.99499407182951
 30
0.0
 11
-49.00945656295211
 21
59.99499407182951
 31
0.0
 12
-49.57035543935664
 22
59.85476935272828
 32
0.0
 13
-49.00945656295211
 23
59.85476935272828
 33
0.0
  0
SOLID
  5
41A
330
2B3
100
AcDbEntity
  8
RAHM2
100
AcDbTrace
 10
-49.57035543935664
 20
59.85476935272828
 30
0.0
 11
-48.86923184385107
 21
59.85476935272828
 31
0.0
 12
-49.57035543935664
 22
59.71454463362724
 32
0.0
 13
-48.86923184385107
 23
59.71454463362724
 33
0.0
  0
SOLID
  5
41B
330
2B3
100
AcDbEntity
  8
RAHM2
100
AcDbTrace
 10
-49.57035543935664
 20
59.71454463362724
 30
0.0
 11
-48.72900712474984
 21
59.71454463362724
 31
0.0
 12
-49.57035543935664
 22
59.5743199145262
 32
0.0
 13
-48.72900712474984
 23
59.5743199145262
 33
0.0
  0
SOLID
  5
41C
330
2B3
100
AcDbEntity
  8
RAHM2
100
AcDbTrace
 10
-49.43013072025561
 20
59.5743199145262
 30
0.0
 11
-48.5887824056488
 21
59.5743199145262
 31
0.0
 12
-49.43013072025561
 22
59.43409519542497
 32
0.0
 13
-48.5887824056488
 23
59.43409519542497
 33
0.0
  0
SOLID
  5
41D
330
2B3
100
AcDbEntity
  8
RAHM2
100
AcDbTrace
 10
-49.28990600115437
 20
59.43409519542497
 30
0.0
 11
-48.5887824056488
 21
59.43409519542497
 31
0.0
 12
-49.28990600115437
 22
59.29387047632393
 32
0.0
 13
-48.5887824056488
 23
59.29387047632393
 33
0.0
  0
SOLID
  5
41E
330
2B3
100
AcDbEntity
  8
RAHM2
100
AcDbTrace
 10
-49.14968128205334
 20
59.29387047632393
 30
0.0
 11
-48.44855768654776
 21
59.29387047632393
 31
0.0
 12
-49.14968128205334
 22
59.15364575722271
 32
0.0
 13
-48.44855768654776
 23
59.15364575722271
 33
0.0
  0
SOLID
  5
41F
330
2B3
100
AcDbEntity
  8
RAHM2
100
AcDbTrace
 10
-49.14968128205334
 20
59.15364575722271
 30
0.0
 11
-48.30833296744653
 21
59.15364575722271
 31
0.0
 12
-49.14968128205334
 22
59.01342103812166
 32
0.0
 13
-48.30833296744653
 23
59.01342103812166
 33
0.0
  0
SOLID
  5
420
330
2B3
100
AcDbEntity
  8
RAHM2
100
AcDbTrace
 10
-49.00945656295211
 20
59.01342103812166
 30
0.0
 11
-48.16810824834549
 21
59.01342103812166
 31
0.0
 12
-49.00945656295211
 22
58.87319631902044
 32
0.0
 13
-48.16810824834549
 23
58.87319631902044
 33
0.0
  0
SOLID
  5
421
330
2B3
100
AcDbEntity
  8
RAHM2
100
AcDbTrace
 10
-48.86923184385107
 20
58.87319631902044
 30
0.0
 11
-48.16810824834549
 21
58.87319631902044
 31
0.0
 12
-48.86923184385107
 22
58.73297159991939
 32
0.0
 13
-48.16810824834549
 23
58.73297159991939
 33
0.0
  0
SOLID
  5
422
330
2B3
100
AcDbEntity
  8
RAHM2
100
AcDbTrace
 10
-48.86923184385107
 20
58.73297159991939
 30
0.0
 11
-48.02788352924427
 21
58.73297159991939
 31
0.0
 12
-48.86923184385107
 22
58.59274688081836
 32
0.0
 13
-48.02788352924427
 23
58.59274688081836
 33
0.0
  0
SOLID
  5
423
330
2B3
100
AcDbEntity
  8
RAHM2
100
AcDbTrace
 10
-48.72900712474984
 20
58.59274688081836
 30
0.0
 11
-48.02788352924427
 21
58.59274688081836
 31
0.0
 12
-48.72900712474984
 22
58.45252216171712
 32
0.0
 13
-48.02788352924427
 23
58.45252216171712
 33
0.0
  0
SOLID
  5
424
330
2B3
100
AcDbEntity
  8
RAHM2
100
AcDbTrace
 10
-49.99102959665996
 20
58.45252216171712
 30
0.0
 11
-49.85080487755891
 21
58.45252216171712
 31
0.0
 12
-49.99102959665996
 22
58.31229744261609
 32
0.0
 13
-49.85080487755891
 23
58.31229744261609
 33
0.0
  0
SOLID
  5
425
330
2B3
100
AcDbEntity
  8
RAHM2
100
AcDbTrace
 10
-48.5887824056488
 20
58.45252216171712
 30
0.0
 11
-48.02788352924427
 21
58.45252216171712
 31
0.0
 12
-48.5887824056488
 22
58.31229744261609
 32
0.0
 13
-48.02788352924427
 23
58.31229744261609
 33
0.0
  0
SOLID
  5
426
330
2B3
100
AcDbEntity
  8
RAHM2
100
AcDbTrace
 10
-49.99102959665996
 20
58.31229744261609
 30
0.0
 11
-49.71058015845769
 21
58.31229744261609
 31
0.0
 12
-49.99102959665996
 22
57.89162328531259
 32
0.0
 13
-49.71058015845769
 23
57.89162328531259
 33
0.0
  0
SOLID
  5
427
330
2B3
100
AcDbEntity
  8
RAHM2
100
AcDbTrace
 10
-48.5887824056488
 20
58.31229744261609
 30
0.0
 11
-48.16810824834549
 21
58.31229744261609
 31
0.0
 12
-48.5887824056488
 22
58.17207272351486
 32
0.0
 13
-48.16810824834549
 23
58.17207272351486
 33
0.0
  0
SOLID
  5
428
330
2B3
100
AcDbEntity
  8
RAHM2
100
AcDbTrace
 10
-48.72900712474984
 20
58.17207272351486
 30
0.0
 11
-48.16810824834549
 21
58.17207272351486
 31
0.0
 12
-48.72900712474984
 22
58.03184800441382
 32
0.0
 13
-48.16810824834549
 23
58.03184800441382
 33
0.0
  0
SOLID
  5
429
330
2B3
100
AcDbEntity
  8
RAHM2
100
AcDbTrace
 10
-48.72900712474984
 20
58.03184800441382
 30
0.0
 11
-48.30833296744653
 21
58.03184800441382
 31
0.0
 12
-48.72900712474984
 22
57.89162328531259
 32
0.0
 13
-48.30833296744653
 23
57.89162328531259
 33
0.0
  0
SOLID
  5
42A
330
2B3
100
AcDbEntity
  8
RAHM2
100
AcDbTrace
 10
-50.13125431576118
 20
57.89162328531259
 30
0.0
 11
-49.57035543935664
 21
57.89162328531259
 31
0.0
 12
-50.13125431576118
 22
57.75139856621155
 32
0.0
 13
-49.57035543935664
 23
57.75139856621155
 33
0.0
  0
SOLID
  5
42B
330
2B3
100
AcDbEntity
  8
RAHM2
100
AcDbTrace
 10
-49.00945656295211
 20
57.89162328531259
 30
0.0
 11
-48.44855768654776
 21
57.89162328531259
 31
0.0
 12
-49.00945656295211
 22
57.75139856621155
 32
0.0
 13
-48.44855768654776
 23
57.75139856621155
 33
0.0
  0
SOLID
  5
42C
330
2B3
100
AcDbEntity
  8
RAHM2
100
AcDbTrace
 10
-49.85080487755891
 20
57.75139856621155
 30
0.0
 11
-48.86923184385107
 21
57.75139856621155
 31
0.0
 12
-49.85080487755891
 22
57.61117384711032
 32
0.0
 13
-48.86923184385107
 23
57.61117384711032
 33
0.0
  0
SOLID
  5
42D
330
2B3
100
AcDbEntity
  8
RAHM2
100
AcDbTrace
 10
-45.92451274272753
 20
60.55589294823405
 30
0.0
 11
-45.36361386632299
 21
60.55589294823405
 31
0.0
 12
-45.92451274272753
 22
60.41566822913281
 32
0.0
 13
-45.36361386632299
 23
60.41566822913281
 33
0.0
  0
SOLID
  5
42E
330
2B3
100
AcDbEntity
  8
RAHM2
100
AcDbTrace
 10
-46.20496218092961
 20
60.41566822913281
 30
0.0
 11
-45.7842880236263
 21
60.41566822913281
 31
0.0
 12
-46.20496218092961
 22
60.27544351003178
 32
0.0
 13
-45.7842880236263
 23
60.27544351003178
 33
0.0
  0
SOLID
  5
42F
330
2B3
100
AcDbEntity
  8
RAHM2
100
AcDbTrace
 10
-46.34518690003083
 20
60.27544351003178
 30
0.0
 11
-46.06473746182857
 21
60.27544351003178
 31
0.0
 12
-46.34518690003083
 22
60.13521879093055
 32
0.0
 13
-46.06473746182857
 23
60.13521879093055
 33
0.0
  0
SOLID
  5
430
330
2B3
100
AcDbEntity
  8
RAHM2
100
AcDbTrace
 10
-46.48541161913188
 20
60.13521879093055
 30
0.0
 11
-46.06473746182857
 21
60.13521879093055
 31
0.0
 12
-46.48541161913188
 22
59.99499407182951
 32
0.0
 13
-46.06473746182857
 23
59.99499407182951
 33
0.0
  0
SOLID
  5
431
330
2B3
100
AcDbEntity
  8
RAHM2
100
AcDbTrace
 10
-44.80271498991846
 20
60.27544351003178
 30
0.0
 11
-44.38204083261514
 21
60.27544351003178
 31
0.0
 12
-44.80271498991846
 22
60.13521879093055
 32
0.0
 13
-44.38204083261514
 23
60.13521879093055
 33
0.0
  0
SOLID
  5
432
330
2B3
100
AcDbEntity
  8
RAHM2
100
AcDbTrace
 10
-44.94293970901949
 20
60.13521879093055
 30
0.0
 11
-44.38204083261514
 21
60.13521879093055
 31
0.0
 12
-44.94293970901949
 22
59.99499407182951
 32
0.0
 13
-44.38204083261514
 23
59.99499407182951
 33
0.0
  0
SOLID
  5
433
330
2B3
100
AcDbEntity
  8
RAHM2
100
AcDbTrace
 10
-46.6256363382331
 20
59.99499407182951
 30
0.0
 11
-46.20496218092961
 21
59.99499407182951
 31
0.0
 12
-46.6256363382331
 22
59.85476935272828
 32
0.0
 13
-46.20496218092961
 23
59.85476935272828
 33
0.0
  0
SOLID
  5
434
330
2B3
100
AcDbEntity
  8
RAHM2
100
AcDbTrace
 10
-46.76586105733415
 20
59.85476935272828
 30
0.0
 11
-46.34518690003083
 21
59.85476935272828
 31
0.0
 12
-46.76586105733415
 22
59.71454463362724
 32
0.0
 13
-46.34518690003083
 23
59.71454463362724
 33
0.0
  0
SOLID
  5
435
330
2B3
100
AcDbEntity
  8
RAHM2
100
AcDbTrace
 10
-44.94293970901949
 20
59.99499407182951
 30
0.0
 11
-44.38204083261514
 21
59.99499407182951
 31
0.0
 12
-44.94293970901949
 22
59.71454463362724
 32
0.0
 13
-44.38204083261514
 23
59.71454463362724
 33
0.0
  0
SOLID
  5
436
330
2B3
100
AcDbEntity
  8
RAHM2
100
AcDbTrace
 10
-46.76586105733415
 20
59.71454463362724
 30
0.0
 11
-46.34518690003083
 21
59.71454463362724
 31
0.0
 12
-46.76586105733415
 22
59.5743199145262
 32
0.0
 13
-46.34518690003083
 23
59.5743199145262
 33
0.0
  0
SOLID
  5
437
330
2B3
100
AcDbEntity
  8
RAHM2
100
AcDbTrace
 10
-46.90608577643537
 20
59.5743199145262
 30
0.0
 11
-46.34518690003083
 21
59.5743199145262
 31
0.0
 12
-46.90608577643537
 22
59.43409519542497
 32
0.0
 13
-46.34518690003083
 23
59.43409519542497
 33
0.0
  0
SOLID
  5
438
330
2B3
100
AcDbEntity
  8
RAHM2
100
AcDbTrace
 10
-45.08316442812072
 20
59.71454463362724
 30
0.0
 11
-44.52226555171619
 21
59.71454463362724
 31
0.0
 12
-45.08316442812072
 22
59.43409519542497
 32
0.0
 13
-44.52226555171619
 23
59.43409519542497
 33
0.0
  0
SOLID
  5
439
330
2B3
100
AcDbEntity
  8
RAHM2
100
AcDbTrace
 10
-46.90608577643537
 20
59.43409519542497
 30
0.0
 11
-46.48541161913188
 21
59.43409519542497
 31
0.0
 12
-46.90608577643537
 22
59.29387047632393
 32
0.0
 13
-46.48541161913188
 23
59.29387047632393
 33
0.0
  0
SOLID
  5
43A
330
2B3
100
AcDbEntity
  8
RAHM2
100
AcDbTrace
 10
-47.04631049553642
 20
59.29387047632393
 30
0.0
 11
-46.48541161913188
 21
59.29387047632393
 31
0.0
 12
-47.04631049553642
 22
59.15364575722271
 32
0.0
 13
-46.48541161913188
 23
59.15364575722271
 33
0.0
  0
SOLID
  5
43B
330
2B3
100
AcDbEntity
  8
RAHM2
100
AcDbTrace
 10
-45.22338914722176
 20
59.43409519542497
 30
0.0
 11
-44.52226555171619
 21
59.43409519542497
 31
0.0
 12
-45.22338914722176
 22
59.15364575722271
 32
0.0
 13
-44.52226555171619
 23
59.15364575722271
 33
0.0
  0
SOLID
  5
43C
330
2B3
100
AcDbEntity
  8
RAHM2
100
AcDbTrace
 10
-47.04631049553642
 20
59.15364575722271
 30
0.0
 11
-46.48541161913188
 21
59.15364575722271
 31
0.0
 12
-47.04631049553642
 22
59.01342103812166
 32
0.0
 13
-46.48541161913188
 23
59.01342103812166
 33
0.0
  0
SOLID
  5
43D
330
2B3
100
AcDbEntity
  8
RAHM2
100
AcDbTrace
 10
-45.36361386632299
 20
59.15364575722271
 30
0.0
 11
-44.52226555171619
 21
59.15364575722271
 31
0.0
 12
-45.36361386632299
 22
59.01342103812166
 32
0.0
 13
-44.52226555171619
 23
59.01342103812166
 33
0.0
  0
SOLID
  5
43E
330
2B3
100
AcDbEntity
  8
RAHM2
100
AcDbTrace
 10
-47.04631049553642
 20
59.01342103812166
 30
0.0
 11
-46.48541161913188
 21
59.01342103812166
 31
0.0
 12
-47.04631049553642
 22
58.73297159991939
 32
0.0
 13
-46.48541161913188
 23
58.73297159991939
 33
0.0
  0
SOLID
  5
43F
330
2B3
100
AcDbEntity
  8
RAHM2
100
AcDbTrace
 10
-47.04631049553642
 20
58.73297159991939
 30
0.0
 11
-46.6256363382331
 21
58.73297159991939
 31
0.0
 12
-47.04631049553642
 22
58.59274688081836
 32
0.0
 13
-46.6256363382331
 23
58.59274688081836
 33
0.0
  0
SOLID
  5
440
330
2B3
100
AcDbEntity
  8
RAHM2
100
AcDbTrace
 10
-45.36361386632299
 20
59.01342103812166
 30
0.0
 11
-45.22338914722176
 21
59.01342103812166
 31
0.0
 12
-45.36361386632299
 22
58.87319631902044
 32
0.0
 13
-45.22338914722176
 23
58.87319631902044
 33
0.0
  0
SOLID
  5
441
330
2B3
100
AcDbEntity
  8
RAHM2
100
AcDbTrace
 10
-45.50383858542403
 20
58.87319631902044
 30
0.0
 11
-45.36361386632299
 21
58.87319631902044
 31
0.0
 12
-45.50383858542403
 22
58.73297159991939
 32
0.0
 13
-45.36361386632299
 23
58.73297159991939
 33
0.0
  0
SOLID
  5
442
330
2B3
100
AcDbEntity
  8
RAHM2
100
AcDbTrace
 10
-45.22338914722176
 20
59.01342103812166
 30
0.0
 11
-44.66249027081741
 21
59.01342103812166
 31
0.0
 12
-45.22338914722176
 22
58.59274688081836
 32
0.0
 13
-44.66249027081741
 23
58.59274688081836
 33
0.0
  0
SOLID
  5
443
330
2B3
100
AcDbEntity
  8
RAHM2
100
AcDbTrace
 10
-47.18653521463764
 20
58.59274688081836
 30
0.0
 11
-46.6256363382331
 21
58.59274688081836
 31
0.0
 12
-47.18653521463764
 22
58.31229744261609
 32
0.0
 13
-46.6256363382331
 23
58.31229744261609
 33
0.0
  0
SOLID
  5
444
330
2B3
100
AcDbEntity
  8
RAHM2
100
AcDbTrace
 10
-45.7842880236263
 20
58.59274688081836
 30
0.0
 11
-45.50383858542403
 21
58.59274688081836
 31
0.0
 12
-45.7842880236263
 22
58.45252216171712
 32
0.0
 13
-45.50383858542403
 23
58.45252216171712
 33
0.0
  0
SOLID
  5
445
330
2B3
100
AcDbEntity
  8
RAHM2
100
AcDbTrace
 10
-45.92451274272753
 20
58.45252216171712
 30
0.0
 11
-45.64406330452526
 21
58.45252216171712
 31
0.0
 12
-45.92451274272753
 22
58.31229744261609
 32
0.0
 13
-45.64406330452526
 23
58.31229744261609
 33
0.0
  0
SOLID
  5
446
330
2B3
100
AcDbEntity
  8
RAHM2
100
AcDbTrace
 10
-45.22338914722176
 20
58.59274688081836
 30
0.0
 11
-44.66249027081741
 21
58.59274688081836
 31
0.0
 12
-45.22338914722176
 22
58.45252216171712
 32
0.0
 13
-44.66249027081741
 23
58.45252216171712
 33
0.0
  0
SOLID
  5
447
330
2B3
100
AcDbEntity
  8
RAHM2
100
AcDbTrace
 10
-45.22338914722176
 20
58.45252216171712
 30
0.0
 11
-44.80271498991846
 21
58.45252216171712
 31
0.0
 12
-45.22338914722176
 22
58.31229744261609
 32
0.0
 13
-44.80271498991846
 23
58.31229744261609
 33
0.0
  0
SOLID
  5
448
330
2B3
100
AcDbEntity
  8
RAHM2
100
AcDbTrace
 10
-47.18653521463764
 20
58.31229744261609
 30
0.0
 11
-46.6256363382331
 21
58.31229744261609
 31
0.0
 12
-47.18653521463764
 22
58.17207272351486
 32
0.0
 13
-46.6256363382331
 23
58.17207272351486
 33
0.0
  0
SOLID
  5
449
330
2B3
100
AcDbEntity
  8
RAHM2
100
AcDbTrace
 10
-46.06473746182857
 20
58.31229744261609
 30
0.0
 11
-45.7842880236263
 21
58.31229744261609
 31
0.0
 12
-46.06473746182857
 22
58.17207272351486
 32
0.0
 13
-45.7842880236263
 23
58.17207272351486
 33
0.0
  0
SOLID
  5
44A
330
2B3
100
AcDbEntity
  8
RAHM2
100
AcDbTrace
 10
-45.36361386632299
 20
58.31229744261609
 30
0.0
 11
-44.80271498991846
 21
58.31229744261609
 31
0.0
 12
-45.36361386632299
 22
58.17207272351486
 32
0.0
 13
-44.80271498991846
 23
58.17207272351486
 33
0.0
  0
SOLID
  5
44B
330
2B3
100
AcDbEntity
  8
RAHM2
100
AcDbTrace
 10
-47.18653521463764
 20
58.17207272351486
 30
0.0
 11
-46.48541161913188
 21
58.17207272351486
 31
0.0
 12
-47.18653521463764
 22
58.03184800441382
 32
0.0
 13
-46.48541161913188
 23
58.03184800441382
 33
0.0
  0
SOLID
  5
44C
330
2B3
100
AcDbEntity
  8
RAHM2
100
AcDbTrace
 10
-46.20496218092961
 20
58.17207272351486
 30
0.0
 11
-45.92451274272753
 21
58.17207272351486
 31
0.0
 12
-46.20496218092961
 22
58.03184800441382
 32
0.0
 13
-45.92451274272753
 23
58.03184800441382
 33
0.0
  0
SOLID
  5
44D
330
2B3
100
AcDbEntity
  8
RAHM2
100
AcDbTrace
 10
-45.36361386632299
 20
58.17207272351486
 30
0.0
 11
-44.80271498991846
 21
58.17207272351486
 31
0.0
 12
-45.36361386632299
 22
58.03184800441382
 32
0.0
 13
-44.80271498991846
 23
58.03184800441382
 33
0.0
  0
SOLID
  5
44E
330
2B3
100
AcDbEntity
  8
RAHM2
100
AcDbTrace
 10
-47.18653521463764
 20
58.03184800441382
 30
0.0
 11
-46.06473746182857
 21
58.03184800441382
 31
0.0
 12
-47.18653521463764
 22
57.89162328531259
 32
0.0
 13
-46.06473746182857
 23
57.89162328531259
 33
0.0
  0
SOLID
  5
44F
330
2B3
100
AcDbEntity
  8
RAHM2
100
AcDbTrace
 10
-47.04631049553642
 20
57.89162328531259
 30
0.0
 11
-46.34518690003083
 21
57.89162328531259
 31
0.0
 12
-47.04631049553642
 22
57.75139856621155
 32
0.0
 13
-46.34518690003083
 23
57.75139856621155
 33
0.0
  0
SOLID
  5
450
330
2B3
100
AcDbEntity
  8
RAHM2
100
AcDbTrace
 10
-45.36361386632299
 20
58.03184800441382
 30
0.0
 11
-44.52226555171619
 21
58.03184800441382
 31
0.0
 12
-45.36361386632299
 22
57.89162328531259
 32
0.0
 13
-44.52226555171619
 23
57.89162328531259
 33
0.0
  0
SOLID
  5
451
330
2B3
100
AcDbEntity
  8
RAHM2
100
AcDbTrace
 10
-45.36361386632299
 20
57.89162328531259
 30
0.0
 11
-44.80271498991846
 21
57.89162328531259
 31
0.0
 12
-45.36361386632299
 22
57.75139856621155
 32
0.0
 13
-44.80271498991846
 23
57.75139856621155
 33
0.0
  0
SOLID
  5
452
330
2B3
100
AcDbEntity
  8
RAHM2
100
AcDbTrace
 10
-46.90608577643537
 20
57.75139856621155
 30
0.0
 11
-46.48541161913188
 21
57.75139856621155
 31
0.0
 12
-46.90608577643537
 22
57.61117384711032
 32
0.0
 13
-46.48541161913188
 23
57.61117384711032
 33
0.0
  0
SOLID
  5
453
330
2B3
100
AcDbEntity
  8
RAHM2
100
AcDbTrace
 10
-45.36361386632299
 20
57.75139856621155
 30
0.0
 11
-45.08316442812072
 21
57.75139856621155
 31
0.0
 12
-45.36361386632299
 22
57.61117384711032
 32
0.0
 13
-45.08316442812072
 23
57.61117384711032
 33
0.0
  0
SOLID
  5
454
330
2B3
100
AcDbEntity
  8
RAHM2
100
AcDbTrace
 10
-42.55911948430049
 20
60.83634238643631
 30
0.0
 11
-42.41889476519945
 21
60.83634238643631
 31
0.0
 12
-42.55911948430049
 22
60.69611766733508
 32
0.0
 13
-42.41889476519945
 23
60.69611766733508
 33
0.0
  0
SOLID
  5
455
330
2B3
100
AcDbEntity
  8
RAHM2
100
AcDbTrace
 10
-40.87642285508707
 20
60.83634238643631
 30
0.0
 11
-40.5959734168848
 21
60.83634238643631
 31
0.0
 12
-40.87642285508707
 22
60.69611766733508
 32
0.0
 13
-40.5959734168848
 23
60.69611766733508
 33
0.0
  0
SOLID
  5
456
330
2B3
100
AcDbEntity
  8
RAHM2
100
AcDbTrace
 10
-42.9797936416038
 20
60.69611766733508
 30
0.0
 11
-42.41889476519945
 21
60.69611766733508
 31
0.0
 12
-42.9797936416038
 22
60.55589294823405
 32
0.0
 13
-42.41889476519945
 23
60.55589294823405
 33
0.0
  0
SOLID
  5
457
330
2B3
100
AcDbEntity
  8
RAHM2
100
AcDbTrace
 10
-41.01664757418811
 20
60.69611766733508
 30
0.0
 11
-40.5959734168848
 21
60.69611766733508
 31
0.0
 12
-41.01664757418811
 22
60.55589294823405
 32
0.0
 13
-40.5959734168848
 23
60.55589294823405
 33
0.0
  0
SOLID
  5
458
330
2B3
100
AcDbEntity
  8
RAHM2
100
AcDbTrace
 10
-43.40046779890729
 20
60.55589294823405
 30
0.0
 11
-42.41889476519945
 21
60.55589294823405
 31
0.0
 12
-43.40046779890729
 22
60.41566822913281
 32
0.0
 13
-42.41889476519945
 23
60.41566822913281
 33
0.0
  0
SOLID
  5
459
330
2B3
100
AcDbEntity
  8
RAHM2
100
AcDbTrace
 10
-41.01664757418811
 20
60.55589294823405
 30
0.0
 11
-40.45574869778358
 21
60.55589294823405
 31
0.0
 12
-41.01664757418811
 22
60.41566822913281
 32
0.0
 13
-40.45574869778358
 23
60.41566822913281
 33
0.0
  0
SOLID
  5
45A
330
2B3
100
AcDbEntity
  8
RAHM2
100
AcDbTrace
 10
-43.12001836070503
 20
60.41566822913281
 30
0.0
 11
-42.41889476519945
 21
60.41566822913281
 31
0.0
 12
-43.12001836070503
 22
60.27544351003178
 32
0.0
 13
-42.41889476519945
 23
60.27544351003178
 33
0.0
  0
SOLID
  5
45B
330
2B3
100
AcDbEntity
  8
RAHM2
100
AcDbTrace
 10
-41.01664757418811
 20
60.41566822913281
 30
0.0
 11
-40.45574869778358
 21
60.41566822913281
 31
0.0
 12
-41.01664757418811
 22
60.27544351003178
 32
0.0
 13
-40.45574869778358
 23
60.27544351003178
 33
0.0
  0
SOLID
  5
45C
330
2B3
100
AcDbEntity
  8
RAHM2
100
AcDbTrace
 10
-42.83956892250276
 20
60.27544351003178
 30
0.0
 11
-42.27867004609822
 21
60.27544351003178
 31
0.0
 12
-42.83956892250276
 22
59.99499407182951
 32
0.0
 13
-42.27867004609822
 23
59.99499407182951
 33
0.0
  0
SOLID
  5
45D
330
2B3
100
AcDbEntity
  8
RAHM2
100
AcDbTrace
 10
-41.01664757418811
 20
60.27544351003178
 30
0.0
 11
-40.45574869778358
 21
60.27544351003178
 31
0.0
 12
-41.01664757418811
 22
60.13521879093055
 32
0.0
 13
-40.45574869778358
 23
60.13521879093055
 33
0.0
  0
SOLID
  5
45E
330
2B3
100
AcDbEntity
  8
RAHM2
100
AcDbTrace
 10
-41.01664757418811
 20
60.13521879093055
 30
0.0
 11
-40.5959734168848
 21
60.13521879093055
 31
0.0
 12
-41.01664757418811
 22
59.99499407182951
 32
0.0
 13
-40.5959734168848
 23
59.99499407182951
 33
0.0
  0
SOLID
  5
45F
330
2B3
100
AcDbEntity
  8
RAHM2
100
AcDbTrace
 10
-42.83956892250276
 20
59.99499407182951
 30
0.0
 11
-42.27867004609822
 21
59.99499407182951
 31
0.0
 12
-42.83956892250276
 22
59.71454463362724
 32
0.0
 13
-42.27867004609822
 23
59.71454463362724
 33
0.0
  0
SOLID
  5
460
330
2B3
100
AcDbEntity
  8
RAHM2
100
AcDbTrace
 10
-41.01664757418811
 20
59.99499407182951
 30
0.0
 11
-40.73619813598584
 21
59.99499407182951
 31
0.0
 12
-41.01664757418811
 22
59.85476935272828
 32
0.0
 13
-40.73619813598584
 23
59.85476935272828
 33
0.0
  0
SOLID
  5
461
330
2B3
100
AcDbEntity
  8
RAHM2
100
AcDbTrace
 10
-41.15687229328933
 20
59.85476935272828
 30
0.0
 11
-40.73619813598584
 21
59.85476935272828
 31
0.0
 12
-41.15687229328933
 22
59.71454463362724
 32
0.0
 13
-40.73619813598584
 23
59.71454463362724
 33
0.0
  0
SOLID
  5
462
330
2B3
100
AcDbEntity
  8
RAHM2
100
AcDbTrace
 10
-42.83956892250276
 20
59.71454463362724
 30
0.0
 11
-42.27867004609822
 21
59.71454463362724
 31
0.0
 12
-42.83956892250276
 22
59.5743199145262
 32
0.0
 13
-42.27867004609822
 23
59.5743199145262
 33
0.0
  0
SOLID
  5
463
330
2B3
100
AcDbEntity
  8
RAHM2
100
AcDbTrace
 10
-41.15687229328933
 20
59.71454463362724
 30
0.0
 11
-40.87642285508707
 21
59.71454463362724
 31
0.0
 12
-41.15687229328933
 22
59.5743199145262
 32
0.0
 13
-40.87642285508707
 23
59.5743199145262
 33
0.0
  0
SOLID
  5
464
330
2B3
100
AcDbEntity
  8
RAHM2
100
AcDbTrace
 10
-42.83956892250276
 20
59.5743199145262
 30
0.0
 11
-42.27867004609822
 21
59.5743199145262
 31
0.0
 12
-42.83956892250276
 22
59.15364575722271
 32
0.0
 13
-42.27867004609822
 23
59.15364575722271
 33
0.0
  0
SOLID
  5
465
330
2B3
100
AcDbEntity
  8
RAHM2
100
AcDbTrace
 10
-42.69934420340153
 20
59.15364575722271
 30
0.0
 11
-42.13844532699718
 21
59.15364575722271
 31
0.0
 12
-42.69934420340153
 22
58.31229744261609
 32
0.0
 13
-42.13844532699718
 23
58.31229744261609
 33
0.0
  0
SOLID
  5
466
330
2B3
100
AcDbEntity
  8
RAHM2
100
AcDbTrace
 10
-41.29709701239038
 20
59.5743199145262
 30
0.0
 11
-41.01664757418811
 21
59.5743199145262
 31
0.0
 12
-41.29709701239038
 22
59.43409519542497
 32
0.0
 13
-41.01664757418811
 23
59.43409519542497
 33
0.0
  0
SOLID
  5
467
330
2B3
100
AcDbEntity
  8
RAHM2
100
AcDbTrace
 10
-41.43732173149142
 20
59.43409519542497
 30
0.0
 11
-41.01664757418811
 21
59.43409519542497
 31
0.0
 12
-41.43732173149142
 22
59.29387047632393
 32
0.0
 13
-41.01664757418811
 23
59.29387047632393
 33
0.0
  0
SOLID
  5
468
330
2B3
100
AcDbEntity
  8
RAHM2
100
AcDbTrace
 10
-41.43732173149142
 20
59.29387047632393
 30
0.0
 11
-41.15687229328933
 21
59.29387047632393
 31
0.0
 12
-41.43732173149142
 22
59.15364575722271
 32
0.0
 13
-41.15687229328933
 23
59.15364575722271
 33
0.0
  0
SOLID
  5
469
330
2B3
100
AcDbEntity
  8
RAHM2
100
AcDbTrace
 10
-41.57754645059265
 20
59.15364575722271
 30
0.0
 11
-41.29709701239038
 21
59.15364575722271
 31
0.0
 12
-41.57754645059265
 22
59.01342103812166
 32
0.0
 13
-41.29709701239038
 23
59.01342103812166
 33
0.0
  0
SOLID
  5
46A
330
2B3
100
AcDbEntity
  8
RAHM2
100
AcDbTrace
 10
-41.71777116969368
 20
59.01342103812166
 30
0.0
 11
-41.43732173149142
 21
59.01342103812166
 31
0.0
 12
-41.71777116969368
 22
58.73297159991939
 32
0.0
 13
-41.43732173149142
 23
58.73297159991939
 33
0.0
  0
SOLID
  5
46B
330
2B3
100
AcDbEntity
  8
RAHM2
100
AcDbTrace
 10
-41.85799588879492
 20
58.73297159991939
 30
0.0
 11
-41.57754645059265
 21
58.73297159991939
 31
0.0
 12
-41.85799588879492
 22
58.59274688081836
 32
0.0
 13
-41.57754645059265
 23
58.59274688081836
 33
0.0
  0
SOLID
  5
46C
330
2B3
100
AcDbEntity
  8
RAHM2
100
AcDbTrace
 10
-41.99822060789595
 20
58.59274688081836
 30
0.0
 11
-41.71777116969368
 21
58.59274688081836
 31
0.0
 12
-41.99822060789595
 22
58.45252216171712
 32
0.0
 13
-41.71777116969368
 23
58.45252216171712
 33
0.0
  0
SOLID
  5
46D
330
2B3
100
AcDbEntity
  8
RAHM2
100
AcDbTrace
 10
-41.99822060789595
 20
58.45252216171712
 30
0.0
 11
-41.85799588879492
 21
58.45252216171712
 31
0.0
 12
-41.99822060789595
 22
58.31229744261609
 32
0.0
 13
-41.85799588879492
 23
58.31229744261609
 33
0.0
  0
SOLID
  5
46E
330
2B3
100
AcDbEntity
  8
RAHM2
100
AcDbTrace
 10
-42.69934420340153
 20
58.31229744261609
 30
0.0
 11
-41.85799588879492
 21
58.31229744261609
 31
0.0
 12
-42.69934420340153
 22
58.17207272351486
 32
0.0
 13
-41.85799588879492
 23
58.17207272351486
 33
0.0
  0
SOLID
  5
46F
330
2B3
100
AcDbEntity
  8
RAHM2
100
AcDbTrace
 10
-42.69934420340153
 20
58.17207272351486
 30
0.0
 11
-41.99822060789595
 21
58.17207272351486
 31
0.0
 12
-42.69934420340153
 22
58.03184800441382
 32
0.0
 13
-41.99822060789595
 23
58.03184800441382
 33
0.0
  0
SOLID
  5
470
330
2B3
100
AcDbEntity
  8
RAHM2
100
AcDbTrace
 10
-42.69934420340153
 20
58.03184800441382
 30
0.0
 11
-42.13844532699718
 21
58.03184800441382
 31
0.0
 12
-42.69934420340153
 22
57.75139856621155
 32
0.0
 13
-42.13844532699718
 23
57.75139856621155
 33
0.0
  0
SOLID
  5
471
330
2B3
100
AcDbEntity
  8
RAHM2
100
AcDbTrace
 10
-42.69934420340153
 20
57.75139856621155
 30
0.0
 11
-42.27867004609822
 21
57.75139856621155
 31
0.0
 12
-42.69934420340153
 22
57.61117384711032
 32
0.0
 13
-42.27867004609822
 23
57.61117384711032
 33
0.0
  0
SOLID
  5
472
330
2B3
100
AcDbEntity
  8
RAHM2
100
AcDbTrace
 10
-38.07192847306458
 20
60.83634238643631
 30
0.0
 11
-37.23058015845777
 21
60.83634238643631
 31
0.0
 12
-38.07192847306458
 22
60.69611766733508
 32
0.0
 13
-37.23058015845777
 23
60.69611766733508
 33
0.0
  0
SOLID
  5
473
330
2B3
100
AcDbEntity
  8
RAHM2
100
AcDbTrace
 10
-38.63282734946911
 20
60.69611766733508
 30
0.0
 11
-37.23058015845777
 21
60.69611766733508
 31
0.0
 12
-38.63282734946911
 22
60.55589294823405
 32
0.0
 13
-37.23058015845777
 23
60.55589294823405
 33
0.0
  0
SOLID
  5
474
330
2B3
100
AcDbEntity
  8
RAHM2
100
AcDbTrace
 10
-38.91327678767119
 20
60.55589294823405
 30
0.0
 11
-38.35237791126684
 21
60.55589294823405
 31
0.0
 12
-38.91327678767119
 22
60.41566822913281
 32
0.0
 13
-38.35237791126684
 23
60.41566822913281
 33
0.0
  0
SOLID
  5
475
330
2B3
100
AcDbEntity
  8
RAHM2
100
AcDbTrace
 10
-39.19372622587346
 20
60.41566822913281
 30
0.0
 11
-38.77305206857015
 21
60.41566822913281
 31
0.0
 12
-39.19372622587346
 22
60.27544351003178
 32
0.0
 13
-38.77305206857015
 23
60.27544351003178
 33
0.0
  0
SOLID
  5
476
330
2B3
100
AcDbEntity
  8
RAHM2
100
AcDbTrace
 10
-37.79147903486231
 20
60.55589294823405
 30
0.0
 11
-37.23058015845777
 21
60.55589294823405
 31
0.0
 12
-37.79147903486231
 22
60.27544351003178
 32
0.0
 13
-37.23058015845777
 23
60.27544351003178
 33
0.0
  0
SOLID
  5
477
330
2B3
100
AcDbEntity
  8
RAHM2
100
AcDbTrace
 10
-39.33395094497469
 20
60.27544351003178
 30
0.0
 11
-39.05350150677242
 21
60.27544351003178
 31
0.0
 12
-39.33395094497469
 22
60.13521879093055
 32
0.0
 13
-39.05350150677242
 23
60.13521879093055
 33
0.0
  0
SOLID
  5
478
330
2B3
100
AcDbEntity
  8
RAHM2
100
AcDbTrace
 10
-39.47417566407573
 20
60.13521879093055
 30
0.0
 11
-39.05350150677242
 21
60.13521879093055
 31
0.0
 12
-39.47417566407573
 22
59.99499407182951
 32
0.0
 13
-39.05350150677242
 23
59.99499407182951
 33
0.0
  0
SOLID
  5
479
330
2B3
100
AcDbEntity
  8
RAHM2
100
AcDbTrace
 10
-37.79147903486231
 20
60.27544351003178
 30
0.0
 11
-37.370804877559
 21
60.27544351003178
 31
0.0
 12
-37.79147903486231
 22
60.13521879093055
 32
0.0
 13
-37.370804877559
 23
60.13521879093055
 33
0.0
  0
SOLID
  5
47A
330
2B3
100
AcDbEntity
  8
RAHM2
100
AcDbTrace
 10
-37.93170375396335
 20
60.13521879093055
 30
0.0
 11
-37.370804877559
 21
60.13521879093055
 31
0.0
 12
-37.93170375396335
 22
59.99499407182951
 32
0.0
 13
-37.370804877559
 23
59.99499407182951
 33
0.0
  0
SOLID
  5
47B
330
2B3
100
AcDbEntity
  8
RAHM2
100
AcDbTrace
 10
-39.61440038317696
 20
59.99499407182951
 30
0.0
 11
-39.19372622587346
 21
59.99499407182951
 31
0.0
 12
-39.61440038317696
 22
59.85476935272828
 32
0.0
 13
-39.19372622587346
 23
59.85476935272828
 33
0.0
  0
SOLID
  5
47C
330
2B3
100
AcDbEntity
  8
RAHM2
100
AcDbTrace
 10
-39.754625102278
 20
59.85476935272828
 30
0.0
 11
-39.33395094497469
 21
59.85476935272828
 31
0.0
 12
-39.754625102278
 22
59.71454463362724
 32
0.0
 13
-39.33395094497469
 23
59.71454463362724
 33
0.0
  0
SOLID
  5
47D
330
2B3
100
AcDbEntity
  8
RAHM2
100
AcDbTrace
 10
-37.93170375396335
 20
59.99499407182951
 30
0.0
 11
-37.370804877559
 21
59.99499407182951
 31
0.0
 12
-37.93170375396335
 22
59.71454463362724
 32
0.0
 13
-37.370804877559
 23
59.71454463362724
 33
0.0
  0
SOLID
  5
47E
330
2B3
100
AcDbEntity
  8
RAHM2
100
AcDbTrace
 10
-39.754625102278
 20
59.71454463362724
 30
0.0
 11
-39.33395094497469
 21
59.71454463362724
 31
0.0
 12
-39.754625102278
 22
59.5743199145262
 32
0.0
 13
-39.33395094497469
 23
59.5743199145262
 33
0.0
  0
SOLID
  5
47F
330
2B3
100
AcDbEntity
  8
RAHM2
100
AcDbTrace
 10
-39.89484982137923
 20
59.5743199145262
 30
0.0
 11
-39.33395094497469
 21
59.5743199145262
 31
0.0
 12
-39.89484982137923
 22
59.43409519542497
 32
0.0
 13
-39.33395094497469
 23
59.43409519542497
 33
0.0
  0
SOLID
  5
480
330
2B3
100
AcDbEntity
  8
RAHM2
100
AcDbTrace
 10
-38.07192847306458
 20
59.71454463362724
 30
0.0
 11
-37.51102959666004
 21
59.71454463362724
 31
0.0
 12
-38.07192847306458
 22
59.43409519542497
 32
0.0
 13
-37.51102959666004
 23
59.43409519542497
 33
0.0
  0
SOLID
  5
481
330
2B3
100
AcDbEntity
  8
RAHM2
100
AcDbTrace
 10
-39.89484982137923
 20
59.43409519542497
 30
0.0
 11
-39.47417566407573
 21
59.43409519542497
 31
0.0
 12
-39.89484982137923
 22
59.29387047632393
 32
0.0
 13
-39.47417566407573
 23
59.29387047632393
 33
0.0
  0
SOLID
  5
482
330
2B3
100
AcDbEntity
  8
RAHM2
100
AcDbTrace
 10
-40.03507454048026
 20
59.29387047632393
 30
0.0
 11
-39.47417566407573
 21
59.29387047632393
 31
0.0
 12
-40.03507454048026
 22
59.15364575722271
 32
0.0
 13
-39.47417566407573
 23
59.15364575722271
 33
0.0
  0
SOLID
  5
483
330
2B3
100
AcDbEntity
  8
RAHM2
100
AcDbTrace
 10
-38.21215319216562
 20
59.43409519542497
 30
0.0
 11
-37.51102959666004
 21
59.43409519542497
 31
0.0
 12
-38.21215319216562
 22
59.15364575722271
 32
0.0
 13
-37.51102959666004
 23
59.15364575722271
 33
0.0
  0
SOLID
  5
484
330
2B3
100
AcDbEntity
  8
RAHM2
100
AcDbTrace
 10
-40.03507454048026
 20
59.15364575722271
 30
0.0
 11
-39.47417566407573
 21
59.15364575722271
 31
0.0
 12
-40.03507454048026
 22
59.01342103812166
 32
0.0
 13
-39.47417566407573
 23
59.01342103812166
 33
0.0
  0
SOLID
  5
485
330
2B3
100
AcDbEntity
  8
RAHM2
100
AcDbTrace
 10
-38.35237791126684
 20
59.15364575722271
 30
0.0
 11
-37.51102959666004
 21
59.15364575722271
 31
0.0
 12
-38.35237791126684
 22
59.01342103812166
 32
0.0
 13
-37.51102959666004
 23
59.01342103812166
 33
0.0
  0
SOLID
  5
486
330
2B3
100
AcDbEntity
  8
RAHM2
100
AcDbTrace
 10
-40.03507454048026
 20
59.01342103812166
 30
0.0
 11
-39.47417566407573
 21
59.01342103812166
 31
0.0
 12
-40.03507454048026
 22
58.73297159991939
 32
0.0
 13
-39.47417566407573
 23
58.73297159991939
 33
0.0
  0
SOLID
  5
487
330
2B3
100
AcDbEntity
  8
RAHM2
100
AcDbTrace
 10
-40.03507454048026
 20
58.73297159991939
 30
0.0
 11
-39.61440038317696
 21
58.73297159991939
 31
0.0
 12
-40.03507454048026
 22
58.59274688081836
 32
0.0
 13
-39.61440038317696
 23
58.59274688081836
 33
0.0
  0
SOLID
  5
488
330
2B3
100
AcDbEntity
  8
RAHM2
100
AcDbTrace
 10
-38.35237791126684
 20
59.01342103812166
 30
0.0
 11
-38.21215319216562
 21
59.01342103812166
 31
0.0
 12
-38.35237791126684
 22
58.87319631902044
 32
0.0
 13
-38.21215319216562
 23
58.87319631902044
 33
0.0
  0
SOLID
  5
489
330
2B3
100
AcDbEntity
  8
RAHM2
100
AcDbTrace
 10
-38.49260263036788
 20
58.87319631902044
 30
0.0
 11
-38.35237791126684
 21
58.87319631902044
 31
0.0
 12
-38.49260263036788
 22
58.73297159991939
 32
0.0
 13
-38.35237791126684
 23
58.73297159991939
 33
0.0
  0
SOLID
  5
48A
330
2B3
100
AcDbEntity
  8
RAHM2
100
AcDbTrace
 10
-38.21215319216562
 20
59.01342103812166
 30
0.0
 11
-37.65125431576108
 21
59.01342103812166
 31
0.0
 12
-38.21215319216562
 22
58.59274688081836
 32
0.0
 13
-37.65125431576108
 23
58.59274688081836
 33
0.0
  0
SOLID
  5
48B
330
2B3
100
AcDbEntity
  8
RAHM2
100
AcDbTrace
 10
-40.03507454048026
 20
58.59274688081836
 30
0.0
 11
-39.61440038317696
 21
58.59274688081836
 31
0.0
 12
-40.03507454048026
 22
58.45252216171712
 32
0.0
 13
-39.61440038317696
 23
58.45252216171712
 33
0.0
  0
SOLID
  5
48C
330
2B3
100
AcDbEntity
  8
RAHM2
100
AcDbTrace
 10
-40.17529925958131
 20
58.45252216171712
 30
0.0
 11
-39.61440038317696
 21
58.45252216171712
 31
0.0
 12
-40.17529925958131
 22
58.31229744261609
 32
0.0
 13
-39.61440038317696
 23
58.31229744261609
 33
0.0
  0
SOLID
  5
48D
330
2B3
100
AcDbEntity
  8
RAHM2
100
AcDbTrace
 10
-38.63282734946911
 20
58.59274688081836
 30
0.0
 11
-38.49260263036788
 21
58.59274688081836
 31
0.0
 12
-38.63282734946911
 22
58.45252216171712
 32
0.0
 13
-38.49260263036788
 23
58.45252216171712
 33
0.0
  0
SOLID
  5
48E
330
2B3
100
AcDbEntity
  8
RAHM2
100
AcDbTrace
 10
-38.91327678767119
 20
58.45252216171712
 30
0.0
 11
-38.63282734946911
 21
58.45252216171712
 31
0.0
 12
-38.91327678767119
 22
58.31229744261609
 32
0.0
 13
-38.63282734946911
 23
58.31229744261609
 33
0.0
  0
SOLID
  5
48F
330
2B3
100
AcDbEntity
  8
RAHM2
100
AcDbTrace
 10
-38.21215319216562
 20
58.59274688081836
 30
0.0
 11
-37.65125431576108
 21
58.59274688081836
 31
0.0
 12
-38.21215319216562
 22
58.45252216171712
 32
0.0
 13
-37.65125431576108
 23
58.45252216171712
 33
0.0
  0
SOLID
  5
490
330
2B3
100
AcDbEntity
  8
RAHM2
100
AcDbTrace
 10
-38.21215319216562
 20
58.45252216171712
 30
0.0
 11
-37.79147903486231
 21
58.45252216171712
 31
0.0
 12
-38.21215319216562
 22
58.31229744261609
 32
0.0
 13
-37.79147903486231
 23
58.31229744261609
 33
0.0
  0
SOLID
  5
491
330
2B3
100
AcDbEntity
  8
RAHM2
100
AcDbTrace
 10
-40.17529925958131
 20
58.31229744261609
 30
0.0
 11
-39.61440038317696
 21
58.31229744261609
 31
0.0
 12
-40.17529925958131
 22
58.17207272351486
 32
0.0
 13
-39.61440038317696
 23
58.17207272351486
 33
0.0
  0
SOLID
  5
492
330
2B3
100
AcDbEntity
  8
RAHM2
100
AcDbTrace
 10
-39.05350150677242
 20
58.31229744261609
 30
0.0
 11
-38.77305206857015
 21
58.31229744261609
 31
0.0
 12
-39.05350150677242
 22
58.17207272351486
 32
0.0
 13
-38.77305206857015
 23
58.17207272351486
 33
0.0
  0
SOLID
  5
493
330
2B3
100
AcDbEntity
  8
RAHM2
100
AcDbTrace
 10
-38.35237791126684
 20
58.31229744261609
 30
0.0
 11
-37.79147903486231
 21
58.31229744261609
 31
0.0
 12
-38.35237791126684
 22
58.17207272351486
 32
0.0
 13
-37.79147903486231
 23
58.17207272351486
 33
0.0
  0
SOLID
  5
494
330
2B3
100
AcDbEntity
  8
RAHM2
100
AcDbTrace
 10
-40.17529925958131
 20
58.17207272351486
 30
0.0
 11
-39.47417566407573
 21
58.17207272351486
 31
0.0
 12
-40.17529925958131
 22
58.03184800441382
 32
0.0
 13
-39.47417566407573
 23
58.03184800441382
 33
0.0
  0
SOLID
  5
495
330
2B3
100
AcDbEntity
  8
RAHM2
100
AcDbTrace
 10
-39.19372622587346
 20
58.17207272351486
 30
0.0
 11
-38.91327678767119
 21
58.17207272351486
 31
0.0
 12
-39.19372622587346
 22
58.03184800441382
 32
0.0
 13
-38.91327678767119
 23
58.03184800441382
 33
0.0
  0
SOLID
  5
496
330
2B3
100
AcDbEntity
  8
RAHM2
100
AcDbTrace
 10
-38.35237791126684
 20
58.17207272351486
 30
0.0
 11
-37.79147903486231
 21
58.17207272351486
 31
0.0
 12
-38.35237791126684
 22
58.03184800441382
 32
0.0
 13
-37.79147903486231
 23
58.03184800441382
 33
0.0
  0
SOLID
  5
497
330
2B3
100
AcDbEntity
  8
RAHM2
100
AcDbTrace
 10
-37.65125431576108
 20
58.17207272351486
 30
0.0
 11
-37.23058015845777
 21
58.17207272351486
 31
0.0
 12
-37.65125431576108
 22
58.03184800441382
 32
0.0
 13
-37.23058015845777
 23
58.03184800441382
 33
0.0
  0
SOLID
  5
498
330
2B3
100
AcDbEntity
  8
RAHM2
100
AcDbTrace
 10
-40.03507454048026
 20
58.03184800441382
 30
0.0
 11
-39.05350150677242
 21
58.03184800441382
 31
0.0
 12
-40.03507454048026
 22
57.89162328531259
 32
0.0
 13
-39.05350150677242
 23
57.89162328531259
 33
0.0
  0
SOLID
  5
499
330
2B3
100
AcDbEntity
  8
RAHM2
100
AcDbTrace
 10
-40.03507454048026
 20
57.89162328531259
 30
0.0
 11
-39.19372622587346
 21
57.89162328531259
 31
0.0
 12
-40.03507454048026
 22
57.75139856621155
 32
0.0
 13
-39.19372622587346
 23
57.75139856621155
 33
0.0
  0
SOLID
  5
49A
330
2B3
100
AcDbEntity
  8
RAHM2
100
AcDbTrace
 10
-38.35237791126684
 20
58.03184800441382
 30
0.0
 11
-37.51102959666004
 21
58.03184800441382
 31
0.0
 12
-38.35237791126684
 22
57.89162328531259
 32
0.0
 13
-37.51102959666004
 23
57.89162328531259
 33
0.0
  0
SOLID
  5
49B
330
2B3
100
AcDbEntity
  8
RAHM2
100
AcDbTrace
 10
-38.35237791126684
 20
57.89162328531259
 30
0.0
 11
-37.79147903486231
 21
57.89162328531259
 31
0.0
 12
-38.35237791126684
 22
57.75139856621155
 32
0.0
 13
-37.79147903486231
 23
57.75139856621155
 33
0.0
  0
SOLID
  5
49C
330
2B3
100
AcDbEntity
  8
RAHM2
100
AcDbTrace
 10
-39.89484982137923
 20
57.75139856621155
 30
0.0
 11
-39.47417566407573
 21
57.75139856621155
 31
0.0
 12
-39.89484982137923
 22
57.61117384711032
 32
0.0
 13
-39.47417566407573
 23
57.61117384711032
 33
0.0
  0
SOLID
  5
49D
330
2B3
100
AcDbEntity
  8
RAHM2
100
AcDbTrace
 10
-38.35237791126684
 20
57.75139856621155
 30
0.0
 11
-37.93170375396335
 21
57.75139856621155
 31
0.0
 12
-38.35237791126684
 22
57.61117384711032
 32
0.0
 13
-37.93170375396335
 23
57.61117384711032
 33
0.0
  0
SOLID
  5
49E
330
2B3
100
AcDbEntity
  8
RAHM2
100
AcDbTrace
 10
-35.26743409104208
 20
60.83634238643631
 30
0.0
 11
-35.12720937194085
 21
60.83634238643631
 31
0.0
 12
-35.26743409104208
 22
60.69611766733508
 32
0.0
 13
-35.12720937194085
 23
60.69611766733508
 33
0.0
  0
SOLID
  5
49F
330
2B3
100
AcDbEntity
  8
RAHM2
100
AcDbTrace
 10
-33.72496218092969
 20
60.83634238643631
 30
0.0
 11
-33.44451274272743
 21
60.83634238643631
 31
0.0
 12
-33.72496218092969
 22
60.69611766733508
 32
0.0
 13
-33.44451274272743
 23
60.69611766733508
 33
0.0
  0
SOLID
  5
4A0
330
2B3
100
AcDbEntity
  8
RAHM2
100
AcDbTrace
 10
-35.68810824834539
 20
60.69611766733508
 30
0.0
 11
-35.12720937194085
 21
60.69611766733508
 31
0.0
 12
-35.68810824834539
 22
60.55589294823405
 32
0.0
 13
-35.12720937194085
 23
60.55589294823405
 33
0.0
  0
SOLID
  5
4A1
330
2B3
100
AcDbEntity
  8
RAHM2
100
AcDbTrace
 10
-34.14563633823301
 20
60.69611766733508
 30
0.0
 11
-33.30428802362638
 21
60.69611766733508
 31
0.0
 12
-34.14563633823301
 22
60.55589294823405
 32
0.0
 13
-33.30428802362638
 23
60.55589294823405
 33
0.0
  0
SOLID
  5
4A2
330
2B3
100
AcDbEntity
  8
RAHM2
100
AcDbTrace
 10
-36.10878240564888
 20
60.55589294823405
 30
0.0
 11
-35.12720937194085
 21
60.55589294823405
 31
0.0
 12
-36.10878240564888
 22
60.41566822913281
 32
0.0
 13
-35.12720937194085
 23
60.41566822913281
 33
0.0
  0
SOLID
  5
4A3
330
2B3
100
AcDbEntity
  8
RAHM2
100
AcDbTrace
 10
-34.28586105733423
 20
60.55589294823405
 30
0.0
 11
-33.30428802362638
 21
60.55589294823405
 31
0.0
 12
-34.28586105733423
 22
60.41566822913281
 32
0.0
 13
-33.30428802362638
 23
60.41566822913281
 33
0.0
  0
SOLID
  5
4A4
330
2B3
100
AcDbEntity
  8
RAHM2
100
AcDbTrace
 10
-36.38923184385097
 20
60.41566822913281
 30
0.0
 11
-36.10878240564888
 21
60.41566822913281
 31
0.0
 12
-36.38923184385097
 22
60.27544351003178
 32
0.0
 13
-36.10878240564888
 23
60.27544351003178
 33
0.0
  0
SOLID
  5
4A5
330
2B3
100
AcDbEntity
  8
RAHM2
100
AcDbTrace
 10
-35.82833296744662
 20
60.41566822913281
 30
0.0
 11
-35.12720937194085
 21
60.41566822913281
 31
0.0
 12
-35.82833296744662
 22
60.27544351003178
 32
0.0
 13
-35.12720937194085
 23
60.27544351003178
 33
0.0
  0
SOLID
  5
4A6
330
2B3
100
AcDbEntity
  8
RAHM2
100
AcDbTrace
 10
-34.5663104955365
 20
60.41566822913281
 30
0.0
 11
-34.14563633823301
 21
60.41566822913281
 31
0.0
 12
-34.5663104955365
 22
60.27544351003178
 32
0.0
 13
-34.14563633823301
 23
60.27544351003178
 33
0.0
  0
SOLID
  5
4A7
330
2B3
100
AcDbEntity
  8
RAHM2
100
AcDbTrace
 10
-33.86518690003074
 20
60.41566822913281
 30
0.0
 11
-33.30428802362638
 21
60.41566822913281
 31
0.0
 12
-33.86518690003074
 22
60.27544351003178
 32
0.0
 13
-33.30428802362638
 23
60.27544351003178
 33
0.0
  0
SOLID
  5
4A8
330
2B3
100
AcDbEntity
  8
RAHM2
100
AcDbTrace
 10
-35.82833296744662
 20
60.27544351003178
 30
0.0
 11
-35.12720937194085
 21
60.27544351003178
 31
0.0
 12
-35.82833296744662
 22
60.13521879093055
 32
0.0
 13
-35.12720937194085
 23
60.13521879093055
 33
0.0
  0
SOLID
  5
4A9
330
2B3
100
AcDbEntity
  8
RAHM2
100
AcDbTrace
 10
-34.70653521463754
 20
60.27544351003178
 30
0.0
 11
-34.42608577643528
 21
60.27544351003178
 31
0.0
 12
-34.70653521463754
 22
60.13521879093055
 32
0.0
 13
-34.42608577643528
 23
60.13521879093055
 33
0.0
  0
SOLID
  5
4AA
330
2B3
100
AcDbEntity
  8
RAHM2
100
AcDbTrace
 10
-33.86518690003074
 20
60.27544351003178
 30
0.0
 11
-33.30428802362638
 21
60.27544351003178
 31
0.0
 12
-33.86518690003074
 22
60.13521879093055
 32
0.0
 13
-33.30428802362638
 23
60.13521879093055
 33
0.0
  0
SOLID
  5
4AB
330
2B3
100
AcDbEntity
  8
RAHM2
100
AcDbTrace
 10
-35.82833296744662
 20
60.13521879093055
 30
0.0
 11
-35.26743409104208
 21
60.13521879093055
 31
0.0
 12
-35.82833296744662
 22
59.85476935272828
 32
0.0
 13
-35.26743409104208
 23
59.85476935272828
 33
0.0
  0
SOLID
  5
4AC
330
2B3
100
AcDbEntity
  8
RAHM2
100
AcDbTrace
 10
-34.84675993373877
 20
60.13521879093055
 30
0.0
 11
-34.5663104955365
 21
60.13521879093055
 31
0.0
 12
-34.84675993373877
 22
59.99499407182951
 32
0.0
 13
-34.5663104955365
 23
59.99499407182951
 33
0.0
  0
SOLID
  5
4AD
330
2B3
100
AcDbEntity
  8
RAHM2
100
AcDbTrace
 10
-34.98698465283981
 20
59.99499407182951
 30
0.0
 11
-34.70653521463754
 21
59.99499407182951
 31
0.0
 12
-34.98698465283981
 22
59.85476935272828
 32
0.0
 13
-34.70653521463754
 23
59.85476935272828
 33
0.0
  0
SOLID
  5
4AE
330
2B3
100
AcDbEntity
  8
RAHM2
100
AcDbTrace
 10
-33.86518690003074
 20
60.13521879093055
 30
0.0
 11
-33.30428802362638
 21
60.13521879093055
 31
0.0
 12
-33.86518690003074
 22
59.85476935272828
 32
0.0
 13
-33.30428802362638
 23
59.85476935272828
 33
0.0
  0
SOLID
  5
4AF
330
2B3
100
AcDbEntity
  8
RAHM2
100
AcDbTrace
 10
-35.82833296744662
 20
59.85476935272828
 30
0.0
 11
-35.26743409104208
 21
59.85476935272828
 31
0.0
 12
-35.82833296744662
 22
59.71454463362724
 32
0.0
 13
-35.26743409104208
 23
59.71454463362724
 33
0.0
  0
SOLID
  5
4B0
330
2B3
100
AcDbEntity
  8
RAHM2
100
AcDbTrace
 10
-34.98698465283981
 20
59.85476935272828
 30
0.0
 11
-34.84675993373877
 21
59.85476935272828
 31
0.0
 12
-34.98698465283981
 22
59.71454463362724
 32
0.0
 13
-34.84675993373877
 23
59.71454463362724
 33
0.0
  0
SOLID
  5
4B1
330
2B3
100
AcDbEntity
  8
RAHM2
100
AcDbTrace
 10
-33.86518690003074
 20
59.85476935272828
 30
0.0
 11
-33.30428802362638
 21
59.85476935272828
 31
0.0
 12
-33.86518690003074
 22
59.71454463362724
 32
0.0
 13
-33.30428802362638
 23
59.71454463362724
 33
0.0
  0
SOLID
  5
4B2
330
2B3
100
AcDbEntity
  8
RAHM2
100
AcDbTrace
 10
-35.82833296744662
 20
59.71454463362724
 30
0.0
 11
-35.26743409104208
 21
59.71454463362724
 31
0.0
 12
-35.82833296744662
 22
59.5743199145262
 32
0.0
 13
-35.26743409104208
 23
59.5743199145262
 33
0.0
  0
SOLID
  5
4B3
330
2B3
100
AcDbEntity
  8
RAHM2
100
AcDbTrace
 10
-35.96855768654766
 20
59.5743199145262
 30
0.0
 11
-35.40765881014312
 21
59.5743199145262
 31
0.0
 12
-35.96855768654766
 22
59.43409519542497
 32
0.0
 13
-35.40765881014312
 23
59.43409519542497
 33
0.0
  0
SOLID
  5
4B4
330
2B3
100
AcDbEntity
  8
RAHM2
100
AcDbTrace
 10
-35.12720937194085
 20
59.71454463362724
 30
0.0
 11
-34.98698465283981
 21
59.71454463362724
 31
0.0
 12
-35.12720937194085
 22
59.5743199145262
 32
0.0
 13
-34.98698465283981
 23
59.5743199145262
 33
0.0
  0
SOLID
  5
4B5
330
2B3
100
AcDbEntity
  8
RAHM2
100
AcDbTrace
 10
-35.26743409104208
 20
59.5743199145262
 30
0.0
 11
-35.12720937194085
 21
59.5743199145262
 31
0.0
 12
-35.26743409104208
 22
59.43409519542497
 32
0.0
 13
-35.12720937194085
 23
59.43409519542497
 33
0.0
  0
SOLID
  5
4B6
330
2B3
100
AcDbEntity
  8
RAHM2
100
AcDbTrace
 10
-33.86518690003074
 20
59.71454463362724
 30
0.0
 11
-33.44451274272743
 21
59.71454463362724
 31
0.0
 12
-33.86518690003074
 22
59.43409519542497
 32
0.0
 13
-33.44451274272743
 23
59.43409519542497
 33
0.0
  0
SOLID
  5
4B7
330
2B3
100
AcDbEntity
  8
RAHM2
100
AcDbTrace
 10
-35.96855768654766
 20
59.43409519542497
 30
0.0
 11
-35.12720937194085
 21
59.43409519542497
 31
0.0
 12
-35.96855768654766
 22
59.29387047632393
 32
0.0
 13
-35.12720937194085
 23
59.29387047632393
 33
0.0
  0
SOLID
  5
4B8
330
2B3
100
AcDbEntity
  8
RAHM2
100
AcDbTrace
 10
-35.96855768654766
 20
59.29387047632393
 30
0.0
 11
-35.26743409104208
 21
59.29387047632393
 31
0.0
 12
-35.96855768654766
 22
59.01342103812166
 32
0.0
 13
-35.26743409104208
 23
59.01342103812166
 33
0.0
  0
SOLID
  5
4B9
330
2B3
100
AcDbEntity
  8
RAHM2
100
AcDbTrace
 10
-34.00541161913196
 20
59.43409519542497
 30
0.0
 11
-33.44451274272743
 21
59.43409519542497
 31
0.0
 12
-34.00541161913196
 22
59.15364575722271
 32
0.0
 13
-33.44451274272743
 23
59.15364575722271
 33
0.0
  0
SOLID
  5
4BA
330
2B3
100
AcDbEntity
  8
RAHM2
100
AcDbTrace
 10
-34.00541161913196
 20
59.15364575722271
 30
0.0
 11
-33.58473746182865
 21
59.15364575722271
 31
0.0
 12
-34.00541161913196
 22
59.01342103812166
 32
0.0
 13
-33.58473746182865
 23
59.01342103812166
 33
0.0
  0
SOLID
  5
4BB
330
2B3
100
AcDbEntity
  8
RAHM2
100
AcDbTrace
 10
-36.10878240564888
 20
59.01342103812166
 30
0.0
 11
-35.40765881014312
 21
59.01342103812166
 31
0.0
 12
-36.10878240564888
 22
58.73297159991939
 32
0.0
 13
-35.40765881014312
 23
58.73297159991939
 33
0.0
  0
SOLID
  5
4BC
330
2B3
100
AcDbEntity
  8
RAHM2
100
AcDbTrace
 10
-36.10878240564888
 20
58.73297159991939
 30
0.0
 11
-35.54788352924435
 21
58.73297159991939
 31
0.0
 12
-36.10878240564888
 22
58.45252216171712
 32
0.0
 13
-35.54788352924435
 23
58.45252216171712
 33
0.0
  0
SOLID
  5
4BD
330
2B3
100
AcDbEntity
  8
RAHM2
100
AcDbTrace
 10
-34.00541161913196
 20
59.01342103812166
 30
0.0
 11
-33.58473746182865
 21
59.01342103812166
 31
0.0
 12
-34.00541161913196
 22
58.87319631902044
 32
0.0
 13
-33.58473746182865
 23
58.87319631902044
 33
0.0
  0
SOLID
  5
4BE
330
2B3
100
AcDbEntity
  8
RAHM2
100
AcDbTrace
 10
-34.14563633823301
 20
58.87319631902044
 30
0.0
 11
-33.58473746182865
 21
58.87319631902044
 31
0.0
 12
-34.14563633823301
 22
58.59274688081836
 32
0.0
 13
-33.58473746182865
 23
58.59274688081836
 33
0.0
  0
SOLID
  5
4BF
330
2B3
100
AcDbEntity
  8
RAHM2
100
AcDbTrace
 10
-34.14563633823301
 20
58.59274688081836
 30
0.0
 11
-33.72496218092969
 21
58.59274688081836
 31
0.0
 12
-34.14563633823301
 22
58.45252216171712
 32
0.0
 13
-33.72496218092969
 23
58.45252216171712
 33
0.0
  0
SOLID
  5
4C0
330
2B3
100
AcDbEntity
  8
RAHM2
100
AcDbTrace
 10
-36.10878240564888
 20
58.45252216171712
 30
0.0
 11
-35.54788352924435
 21
58.45252216171712
 31
0.0
 12
-36.10878240564888
 22
58.31229744261609
 32
0.0
 13
-35.54788352924435
 23
58.31229744261609
 33
0.0
  0
SOLID
  5
4C1
330
2B3
100
AcDbEntity
  8
RAHM2
100
AcDbTrace
 10
-34.28586105733423
 20
58.45252216171712
 30
0.0
 11
-33.72496218092969
 21
58.45252216171712
 31
0.0
 12
-34.28586105733423
 22
58.31229744261609
 32
0.0
 13
-33.72496218092969
 23
58.31229744261609
 33
0.0
  0
SOLID
  5
4C2
330
2B3
100
AcDbEntity
  8
RAHM2
100
AcDbTrace
 10
-36.24900712474993
 20
58.31229744261609
 30
0.0
 11
-35.68810824834539
 21
58.31229744261609
 31
0.0
 12
-36.24900712474993
 22
58.17207272351486
 32
0.0
 13
-35.68810824834539
 23
58.17207272351486
 33
0.0
  0
SOLID
  5
4C3
330
2B3
100
AcDbEntity
  8
RAHM2
100
AcDbTrace
 10
-34.28586105733423
 20
58.31229744261609
 30
0.0
 11
-33.72496218092969
 21
58.31229744261609
 31
0.0
 12
-34.28586105733423
 22
58.17207272351486
 32
0.0
 13
-33.72496218092969
 23
58.17207272351486
 33
0.0
  0
SOLID
  5
4C4
330
2B3
100
AcDbEntity
  8
RAHM2
100
AcDbTrace
 10
-33.30428802362638
 20
58.31229744261609
 30
0.0
 11
-33.16406330452516
 21
58.31229744261609
 31
0.0
 12
-33.30428802362638
 22
58.17207272351486
 32
0.0
 13
-33.16406330452516
 23
58.17207272351486
 33
0.0
  0
SOLID
  5
4C5
330
2B3
100
AcDbEntity
  8
RAHM2
100
AcDbTrace
 10
-36.24900712474993
 20
58.17207272351486
 30
0.0
 11
-35.68810824834539
 21
58.17207272351486
 31
0.0
 12
-36.24900712474993
 22
58.03184800441382
 32
0.0
 13
-35.68810824834539
 23
58.03184800441382
 33
0.0
  0
SOLID
  5
4C6
330
2B3
100
AcDbEntity
  8
RAHM2
100
AcDbTrace
 10
-34.28586105733423
 20
58.17207272351486
 30
0.0
 11
-33.72496218092969
 21
58.17207272351486
 31
0.0
 12
-34.28586105733423
 22
58.03184800441382
 32
0.0
 13
-33.72496218092969
 23
58.03184800441382
 33
0.0
  0
SOLID
  5
4C7
330
2B3
100
AcDbEntity
  8
RAHM2
100
AcDbTrace
 10
-33.58473746182865
 20
58.17207272351486
 30
0.0
 11
-33.16406330452516
 21
58.17207272351486
 31
0.0
 12
-33.58473746182865
 22
58.03184800441382
 32
0.0
 13
-33.16406330452516
 23
58.03184800441382
 33
0.0
  0
SOLID
  5
4C8
330
2B3
100
AcDbEntity
  8
RAHM2
100
AcDbTrace
 10
-36.24900712474993
 20
58.03184800441382
 30
0.0
 11
-35.68810824834539
 21
58.03184800441382
 31
0.0
 12
-36.24900712474993
 22
57.75139856621155
 32
0.0
 13
-35.68810824834539
 23
57.75139856621155
 33
0.0
  0
SOLID
  5
4C9
330
2B3
100
AcDbEntity
  8
RAHM2
100
AcDbTrace
 10
-34.28586105733423
 20
58.03184800441382
 30
0.0
 11
-33.44451274272743
 21
58.03184800441382
 31
0.0
 12
-34.28586105733423
 22
57.89162328531259
 32
0.0
 13
-33.44451274272743
 23
57.89162328531259
 33
0.0
  0
SOLID
  5
4CA
330
2B3
100
AcDbEntity
  8
RAHM2
100
AcDbTrace
 10
-34.42608577643528
 20
57.89162328531259
 30
0.0
 11
-33.72496218092969
 21
57.89162328531259
 31
0.0
 12
-34.42608577643528
 22
57.75139856621155
 32
0.0
 13
-33.72496218092969
 23
57.75139856621155
 33
0.0
  0
SOLID
  5
4CB
330
2B3
100
AcDbEntity
  8
RAHM2
100
AcDbTrace
 10
-36.38923184385097
 20
57.75139856621155
 30
0.0
 11
-35.82833296744662
 21
57.75139856621155
 31
0.0
 12
-36.38923184385097
 22
57.61117384711032
 32
0.0
 13
-35.82833296744662
 23
57.61117384711032
 33
0.0
  0
SOLID
  5
4CC
330
2B3
100
AcDbEntity
  8
RAHM2
100
AcDbTrace
 10
-34.28586105733423
 20
57.75139856621155
 30
0.0
 11
-34.00541161913196
 21
57.75139856621155
 31
0.0
 12
-34.28586105733423
 22
57.61117384711032
 32
0.0
 13
-34.00541161913196
 23
57.61117384711032
 33
0.0
  0
SOLID
  5
4CD
330
2B3
100
AcDbEntity
  8
RAHM2
100
AcDbTrace
 10
-30.92046779890719
 20
61.81791542014416
 30
0.0
 11
-30.78024307980615
 21
61.81791542014416
 31
0.0
 12
-30.92046779890719
 22
61.67769070104293
 32
0.0
 13
-30.78024307980615
 23
61.67769070104293
 33
0.0
  0
SOLID
  5
4CE
330
2B3
100
AcDbEntity
  8
RAHM2
100
AcDbTrace
 10
-31.06069251800842
 20
61.67769070104293
 30
0.0
 11
-30.78024307980615
 21
61.67769070104293
 31
0.0
 12
-31.06069251800842
 22
61.53746598194189
 32
0.0
 13
-30.78024307980615
 23
61.53746598194189
 33
0.0
  0
SOLID
  5
4CF
330
2B3
100
AcDbEntity
  8
RAHM2
100
AcDbTrace
 10
-31.20091723710946
 20
61.53746598194189
 30
0.0
 11
-30.78024307980615
 21
61.53746598194189
 31
0.0
 12
-31.20091723710946
 22
61.39724126284066
 32
0.0
 13
-30.78024307980615
 23
61.39724126284066
 33
0.0
  0
SOLID
  5
4D0
330
2B3
100
AcDbEntity
  8
RAHM2
100
AcDbTrace
 10
-31.3411419562105
 20
61.39724126284066
 30
0.0
 11
-30.78024307980615
 21
61.39724126284066
 31
0.0
 12
-31.3411419562105
 22
61.1167918246384
 32
0.0
 13
-30.78024307980615
 23
61.1167918246384
 33
0.0
  0
SOLID
  5
4D1
330
2B3
100
AcDbEntity
  8
RAHM2
100
AcDbTrace
 10
-31.3411419562105
 20
61.1167918246384
 30
0.0
 11
-30.92046779890719
 21
61.1167918246384
 31
0.0
 12
-31.3411419562105
 22
60.97656710553735
 32
0.0
 13
-30.92046779890719
 23
60.97656710553735
 33
0.0
  0
SOLID
  5
4D2
330
2B3
100
AcDbEntity
  8
RAHM2
100
AcDbTrace
 10
-31.48136667531173
 20
60.97656710553735
 30
0.0
 11
-30.92046779890719
 21
60.97656710553735
 31
0.0
 12
-31.48136667531173
 22
60.83634238643631
 32
0.0
 13
-30.92046779890719
 23
60.83634238643631
 33
0.0
  0
SOLID
  5
4D3
330
2B3
100
AcDbEntity
  8
RAHM2
100
AcDbTrace
 10
-32.04226555171627
 20
60.83634238643631
 30
0.0
 11
-30.07911948430039
 21
60.83634238643631
 31
0.0
 12
-32.04226555171627
 22
60.69611766733508
 32
0.0
 13
-30.07911948430039
 23
60.69611766733508
 33
0.0
  0
SOLID
  5
4D4
330
2B3
100
AcDbEntity
  8
RAHM2
100
AcDbTrace
 10
-32.04226555171627
 20
60.69611766733508
 30
0.0
 11
-30.07911948430039
 21
60.69611766733508
 31
0.0
 12
-32.04226555171627
 22
60.55589294823405
 32
0.0
 13
-30.07911948430039
 23
60.55589294823405
 33
0.0
  0
SOLID
  5
4D5
330
2B3
100
AcDbEntity
  8
RAHM2
100
AcDbTrace
 10
-31.62159139441277
 20
60.55589294823405
 30
0.0
 11
-31.06069251800842
 21
60.55589294823405
 31
0.0
 12
-31.62159139441277
 22
59.99499407182951
 32
0.0
 13
-31.06069251800842
 23
59.99499407182951
 33
0.0
  0
SOLID
  5
4D6
330
2B3
100
AcDbEntity
  8
RAHM2
100
AcDbTrace
 10
-31.761816113514
 20
59.99499407182951
 30
0.0
 11
-31.20091723710946
 21
59.99499407182951
 31
0.0
 12
-31.761816113514
 22
59.43409519542497
 32
0.0
 13
-31.20091723710946
 23
59.43409519542497
 33
0.0
  0
SOLID
  5
4D7
330
2B3
100
AcDbEntity
  8
RAHM2
100
AcDbTrace
 10
-31.761816113514
 20
59.43409519542497
 30
0.0
 11
-31.3411419562105
 21
59.43409519542497
 31
0.0
 12
-31.761816113514
 22
59.15364575722271
 32
0.0
 13
-31.3411419562105
 23
59.15364575722271
 33
0.0
  0
SOLID
  5
4D8
330
2B3
100
AcDbEntity
  8
RAHM2
100
AcDbTrace
 10
-31.90204083261504
 20
59.15364575722271
 30
0.0
 11
-31.3411419562105
 21
59.15364575722271
 31
0.0
 12
-31.90204083261504
 22
58.73297159991939
 32
0.0
 13
-31.3411419562105
 23
58.73297159991939
 33
0.0
  0
SOLID
  5
4D9
330
2B3
100
AcDbEntity
  8
RAHM2
100
AcDbTrace
 10
-31.90204083261504
 20
58.73297159991939
 30
0.0
 11
-31.48136667531173
 21
58.73297159991939
 31
0.0
 12
-31.90204083261504
 22
58.59274688081836
 32
0.0
 13
-31.48136667531173
 23
58.59274688081836
 33
0.0
  0
SOLID
  5
4DA
330
2B3
100
AcDbEntity
  8
RAHM2
100
AcDbTrace
 10
-31.90204083261504
 20
58.59274688081836
 30
0.0
 11
-31.48136667531173
 21
58.59274688081836
 31
0.0
 12
-31.90204083261504
 22
58.45252216171712
 32
0.0
 13
-31.48136667531173
 23
58.45252216171712
 33
0.0
  0
SOLID
  5
4DB
330
2B3
100
AcDbEntity
  8
RAHM2
100
AcDbTrace
 10
-32.04226555171627
 20
58.45252216171712
 30
0.0
 11
-31.48136667531173
 21
58.45252216171712
 31
0.0
 12
-32.04226555171627
 22
58.31229744261609
 32
0.0
 13
-31.48136667531173
 23
58.31229744261609
 33
0.0
  0
SOLID
  5
4DC
330
2B3
100
AcDbEntity
  8
RAHM2
100
AcDbTrace
 10
-32.04226555171627
 20
58.31229744261609
 30
0.0
 11
-31.3411419562105
 21
58.31229744261609
 31
0.0
 12
-32.04226555171627
 22
58.17207272351486
 32
0.0
 13
-31.3411419562105
 23
58.17207272351486
 33
0.0
  0
SOLID
  5
4DD
330
2B3
100
AcDbEntity
  8
RAHM2
100
AcDbTrace
 10
-32.04226555171627
 20
58.17207272351486
 30
0.0
 11
-31.3411419562105
 21
58.17207272351486
 31
0.0
 12
-32.04226555171627
 22
58.03184800441382
 32
0.0
 13
-31.3411419562105
 23
58.03184800441382
 33
0.0
  0
SOLID
  5
4DE
330
2B3
100
AcDbEntity
  8
RAHM2
100
AcDbTrace
 10
-30.64001836070493
 20
58.17207272351486
 30
0.0
 11
-30.49979364160388
 21
58.17207272351486
 31
0.0
 12
-30.64001836070493
 22
58.03184800441382
 32
0.0
 13
-30.49979364160388
 23
58.03184800441382
 33
0.0
  0
SOLID
  5
4DF
330
2B3
100
AcDbEntity
  8
RAHM2
100
AcDbTrace
 10
-32.04226555171627
 20
58.03184800441382
 30
0.0
 11
-30.49979364160388
 21
58.03184800441382
 31
0.0
 12
-32.04226555171627
 22
57.89162328531259
 32
0.0
 13
-30.49979364160388
 23
57.89162328531259
 33
0.0
  0
SOLID
  5
4E0
330
2B3
100
AcDbEntity
  8
RAHM2
100
AcDbTrace
 10
-32.04226555171627
 20
57.89162328531259
 30
0.0
 11
-30.64001836070493
 21
57.89162328531259
 31
0.0
 12
-32.04226555171627
 22
57.75139856621155
 32
0.0
 13
-30.64001836070493
 23
57.75139856621155
 33
0.0
  0
SOLID
  5
4E1
330
2B3
100
AcDbEntity
  8
RAHM2
100
AcDbTrace
 10
-31.90204083261504
 20
57.75139856621155
 30
0.0
 11
-31.20091723710946
 21
57.75139856621155
 31
0.0
 12
-31.90204083261504
 22
57.61117384711032
 32
0.0
 13
-31.20091723710946
 23
57.61117384711032
 33
0.0
  0
ATTDEF
  5
4E2
330
2B3
100
AcDbEntity
  8
RAHM3
100
AcDbText
 10
-100.6895275842899
 20
38.58583043117892
 30
0.0
 40
3.0
  1
-
 72
     1
 11
-99.68952758428997
 21
38.58583043117892
 31
0.0
100
AcDbAttributeDefinition
  3
(genmsg"gendwg"83)
  2
GEN-TITLE-SCA{5.42}
 70
     0
1001
GENIUS_GENBLLY_14
1000
BOR3
  0
TEXT
  5
4E3
330
2B3
100
AcDbEntity
  8
0N
100
AcDbText
 10
-180.0433753026868
 20
97.16012098886922
 30
0.0
 40
3.5
  1
Zeichnungen größer darstellenden Maßstabes bzw. Einzelteilzeichnungen
 41
0.9
100
AcDbText
  0
TEXT
  5
4E4
330
2B3
100
AcDbEntity
  8
0N
100
AcDbText
 10
-180.0433753026868
 20
91.14471067045299
 30
0.0
 40
3.5
  1
haben vorrangige Gültigkeit
 41
0.9
100
AcDbText
  0
LINE
  5
4E5
330
2B3
100
AcDbEntity
  8
KOPF
 62
    12
100
AcDbLine
 10
0.0
 20
103.4999999999999
 30
0.0
 11
-182.0
 21
103.4999999999999
 31
0.0
  0
LINE
  5
4E6
330
2B3
100
AcDbEntity
  8
KOPF
100
AcDbLine
 10
0.0
 20
103.4999999999999
 30
0.0
 11
-182.0
 21
103.4999999999999
 31
0.0
  0
ENDBLK
  5
4E7
330
2B3
100
AcDbEntity
  8
0
100
AcDbBlockEnd
  0
BLOCK
  5
4E9
330
4E8
100
AcDbEntity
  8
0
100
AcDbBlockBegin
  2
GENZOOIJNBVB3
 70
     0
 10
0.0
 20
0.0
 30
0.0
  3
GENZOOIJNBVB3
  1

  0
CIRCLE
  5
4EA
330
4E8
100
AcDbEntity
  8
WHITE
  6
Continuous
100
AcDbCircle
 10
6.453833318453121
 20
0.0
 30
0.0
 40
2.277733996314847
  0
CIRCLE
  5
4EB
330
4E8
100
AcDbEntity
  8
WHITE
  6
Continuous
100
AcDbCircle
 10
6.453833318453121
 20
0.0
 30
0.0
 40
1.576892766679509
  0
ARC
  5
4EC
330
4E8
100
AcDbEntity
  8
WHITE
100
AcDbCircle
 10
-3.124894526218326
 20
-2.333109784966268
 30
0.0
 40
4.905835633809448
100
AcDbArc
 50
172.3057540000012
 51
179.7112909999983
  0
LINE
  5
4ED
330
4E8
100
AcDbEntity
  8
WHITE
100
AcDbLine
 10
-7.98656033324346
 20
-1.676283536096804
 30
0.0
 11
-4.921112416005485
 21
-1.676283536096804
 31
0.0
  0
ARC
  5
4EE
330
4E8
100
AcDbEntity
  8
WHITE
100
AcDbCircle
 10
-9.782843421354186
 20
-2.333113859861612
 30
0.0
 40
4.905898794685424
100
AcDbArc
 50
0.2887579999957042
 51
7.694197000004674
  0
LINE
  5
4EF
330
4E8
100
AcDbEntity
  8
WHITE
100
AcDbLine
 10
-4.877005750097168
 20
-2.308389433087711
 30
0.0
 11
-4.176158408119135
 21
-2.308389433087711
 31
0.0
  0
ARC
  5
4F0
330
4E8
100
AcDbEntity
  8
WHITE
100
AcDbCircle
 10
-9.782843421354186
 20
-2.333113859861612
 30
0.0
 40
5.606740024320764
100
AcDbArc
 50
0.2526630000050822
 51
53.57637100000324
  0
ARC
  5
4F1
330
4E8
100
AcDbEntity
  8
WHITE
100
AcDbCircle
 10
-3.124894526218326
 20
-2.333109784966268
 30
0.0
 40
5.606699275368519
100
AcDbArc
 50
126.4231449999945
 51
179.7473799999977
  0
LINE
  5
4F2
330
4E8
100
AcDbEntity
  8
WHITE
100
AcDbLine
 10
-8.731516378577907
 20
-2.308389433087711
 30
0.0
 11
-8.03066699915189
 21
-2.308389433087711
 31
0.0
  0
ARC
  5
4F3
330
4E8
100
AcDbEntity
  8
WHITE
  6
Continuous
100
AcDbCircle
 10
0.0
 20
0.0
 30
0.0
 40
1.576890729231897
100
AcDbArc
 50
31.05578300000499
 51
329.9999750000025
  0
LINE
  5
4F4
330
4E8
100
AcDbEntity
  8
WHITE
  6
Continuous
100
AcDbLine
 10
1.350868515823094
 20
0.8134754085312891
 30
0.0
 11
1.957885282917686
 21
1.163938809748742
 31
0.0
  0
ARC
  5
4F5
330
4E8
100
AcDbEntity
  8
WHITE
  6
Continuous
100
AcDbCircle
 10
0.0
 20
0.0
 30
0.0
 40
2.277731958867235
100
AcDbArc
 50
30.73095099999774
 51
329.9999720000071
  0
LINE
  5
4F6
330
4E8
100
AcDbEntity
  8
WHITE
  6
Continuous
100
AcDbLine
 10
1.972573242753924
 20
-1.138865979433802
 30
0.0
 11
1.365627786325603
 21
-0.7884453646161802
 31
0.0
  0
ARC
  5
4F7
330
4E8
100
AcDbEntity
  8
WHITE
100
AcDbCircle
 10
-9.782843421354186
 20
-2.333113859861612
 30
0.0
 40
4.905898794685424
100
AcDbArc
 50
16.0658920000019
 51
47.26783700000162
  0
LINE
  5
4F8
330
4E8
100
AcDbEntity
  8
WHITE
100
AcDbLine
 10
-5.06854823756521
 20
-0.9754423064612467
 30
0.0
 11
-7.839126549131606
 21
-0.9754423064612467
 31
0.0
  0
ARC
  5
4F9
330
4E8
100
AcDbEntity
  8
WHITE
100
AcDbCircle
 10
-3.124894526218326
 20
-2.333109784966268
 30
0.0
 40
4.905851933390343
100
AcDbArc
 50
132.7316659999998
 51
163.9339569999975
  0
HATCH
  5
4FA
330
4E8
100
AcDbEntity
  8
AM_8
100
AcDbHatch
 10
0.0
 20
0.0
 30
0.0
210
0.0
220
0.0
230
1.0
  2
_U
 70
     0
 71
     0
 91
        1
 92
        1
 93
        4
 72
     2
 10
0.0
 20
0.0
 40
2.277731958867238
 50
30.73096496929825
 51
329.9999720000063
 73
     1
 72
     1
 10
1.972573182835617
 20
-1.138866943414654
 11
1.365627086482618
 21
-0.788445960483216
 72
     2
 10
0.0
 20
-0.0000000000000142
 40
1.576890729231897
 50
30.0000249999977
 51
328.9442169999937
 73
     0
 72
     1
 10
1.350867814038679
 20
0.8134743517356355
 11
1.957884245333985
 21
1.163938210695889
 97
        0
 75
     0
 76
     0
 52
45.0
 41
0.09
 77
     1
 78
     2
 53
45.0
 43
-176.4571517690805
 44
-54.26157204673851
 45
-0.0636396103067893
 46
0.0636396103067893
 79
     0
 53
135.0
 43
-176.4571517690805
 44
-54.26157204673851
 45
-0.0636396103067893
 46
-0.0636396103067893
 79
     0
 98
        1
 10
-176.4571517690805
 20
-54.26157204673851
1001
GENIUS_GENODEF_13
1002
{
1000
HIER
1070
     0
1002
}
1002
{
1000
MANEDIT
1070
     0
1002
}
1002
{
1000
NOSEL
1070
     0
1002
}
1002
{
1000
BEHIND
1070
     0
1002
}
1002
{
1000
OTHER
1070
     0
1002
}
1002
{
1000
REACTOR
1002
}
1001
GENIUS_GENOBJ-N-HTC_13
1002
{
1000
OWNER
1000
GEN
1002
}
1001
GENIUS_GENHATCH_13
1002
{
1000
DATA
1040
45.0
1042
0.09
1000
_U
1070
     1
1011
-1.371550383403359
1021
1.131275704293642
1031
0.0
1002
}
1002
{
1000
UCS
1010
0.0
1020
0.0
1030
0.0
1010
1.0
1020
0.0
1030
0.0
1010
0.0
1020
1.0
1030
0.0
1002
}
  0
HATCH
  5
4FB
330
4E8
100
AcDbEntity
  8
AM_8
100
AcDbHatch
 10
0.0
 20
0.0
 30
0.0
210
0.0
220
0.0
230
1.0
  2
_U
 70
     0
 71
     0
 91
        2
 92
        1
 93
        2
 72
     2
 10
6.453833318453121
 20
-0.0000000000000426
 40
2.277733996314838
 50
191.4591559026153
 51
535.1587630986702
 73
     1
 72
     2
 10
6.453833318453121
 20
-0.0000000000000426
 40
2.277733996314837
 50
175.1587630986701
 51
191.4591559026153
 73
     1
 97
        0
 92
       16
 93
        2
 72
     2
 10
6.453833318453121
 20
0.0
 40
1.576892766679508
 50
348.5408440973836
 51
544.8412369013289
 73
     0
 72
     2
 10
6.453833318453121
 20
0.0
 40
1.576892766679513
 50
184.8412369013289
 51
348.5408440973836
 73
     0
 97
        0
 75
     0
 76
     0
 52
45.0
 41
0.09
 77
     1
 78
     2
 53
45.0
 43
-176.4571517690805
 44
-54.26157204673851
 45
-0.0636396103067893
 46
0.0636396103067893
 79
     0
 53
135.0
 43
-176.4571517690805
 44
-54.26157204673851
 45
-0.0636396103067893
 46
-0.0636396103067893
 79
     0
 98
        1
 10
-176.4571517690805
 20
-54.26157204673851
1001
GENIUS_GENODEF_13
1002
{
1000
HIER
1070
     0
1002
}
1002
{
1000
MANEDIT
1070
     0
1002
}
1002
{
1000
NOSEL
1070
     0
1002
}
1002
{
1000
BEHIND
1070
     0
1002
}
1002
{
1000
OTHER
1070
     0
1002
}
1002
{
1000
REACTOR
1002
}
1001
GENIUS_GENOBJ-N-HTC_13
1002
{
1000
OWNER
1000
GEN
1002
}
1001
GENIUS_GENHATCH_13
1002
{
1000
DATA
1040
45.0
1042
0.09
1000
_U
1070
     1
1011
4.645613787216802
1021
0.1531511037996154
1031
0.0
1002
}
1002
{
1000
UCS
1010
0.0
1020
0.0
1030
0.0
1010
1.0
1020
0.0
1030
0.0
1010
0.0
1020
1.0
1030
0.0
1002
}
  0
HATCH
  5
4FC
330
4E8
100
AcDbEntity
  8
AM_8
100
AcDbHatch
 10
0.0
 20
0.0
 30
0.0
210
0.0
220
0.0
230
1.0
  2
_U
 70
     0
 71
     0
 91
        2
 92
        1
 93
        2
 72
     2
 10
6.453833318453121
 20
0.0
 40
2.277733996314846
 50
191.4591559026164
 51
474.0889047300826
 73
     1
 72
     2
 10
6.453833318453121
 20
0.0
 40
2.27773399631485
 50
114.0889047300826
 51
191.4591559026164
 73
     1
 97
        0
 92
       16
 93
        2
 72
     2
 10
6.453833318453121
 20
0.0
 40
1.576892766679481
 50
348.5408440973834
 51
605.911095269917
 73
     0
 72
     2
 10
6.453833318453121
 20
0.0
 40
1.576892766679515
 50
245.9110952699171
 51
348.5408440973834
 73
     0
 97
        0
 75
     0
 76
     0
 52
45.0
 41
0.09
 77
     1
 78
     2
 53
45.0
 43
-176.4571517690805
 44
-54.26157204673851
 45
-0.0636396103067893
 46
0.0636396103067893
 79
     0
 53
135.0
 43
-176.4571517690805
 44
-54.26157204673851
 45
-0.0636396103067893
 46
-0.0636396103067893
 79
     0
 98
        1
 10
-176.4571517690805
 20
-54.26157204673851
1001
GENIUS_GENOBJ-N-HTC_13
1002
{
1000
OWNER
1000
GEN
1002
}
1001
GENIUS_GENODEF_13
1002
{
1000
HIER
1070
     0
1002
}
1002
{
1000
MANEDIT
1070
     0
1002
}
1002
{
1000
NOSEL
1070
     0
1002
}
1002
{
1000
BEHIND
1070
     0
1002
}
1002
{
1000
OTHER
1070
     0
1002
}
1002
{
1000
REACTOR
1002
}
1001
GENIUS_GENHATCH_13
1002
{
1000
DATA
1040
45.0
1042
0.09
1000
_U
1070
     1
1011
5.696521842210927
1021
1.693870951949719
1031
0.0
1002
}
1002
{
1000
UCS
1010
0.0
1020
0.0
1030
0.0
1010
1.0
1020
0.0
1030
0.0
1010
0.0
1020
1.0
1030
0.0
1002
}
  0
LINE
  5
4FD
330
4E8
100
AcDbEntity
  8
0
100
AcDbLine
 10
-4.921113586658179
 20
-1.676283594022066
 30
0.0
 11
-4.921113586658179
 21
-1.676283594022066
 31
0.0
  0
LINE
  5
4FE
330
4E8
100
AcDbEntity
  8
0
100
AcDbLine
 10
-4.176157912251255
 20
-2.30838933083865
 30
0.0
 11
-4.176157912251255
 21
-2.30838933083865
 31
0.0
  0
HATCH
  5
4FF
330
4E8
100
AcDbEntity
  8
AM_8
100
AcDbHatch
 10
0.0
 20
0.0
 30
0.0
210
0.0
220
0.0
230
1.0
  2
_U
 70
     0
 71
     0
 91
        2
 92
        1
 93
        4
 72
     1
 10
1.957884529114039
 20
1.163937733343487
 11
1.350868515823094
 21
0.813475408531282
 72
     2
 10
-0.0000000103964339
 20
0.00000112835842
 40
1.576891302415311
 50
31.05576742335645
 51
329.9999396831432
 73
     1
 72
     1
 10
1.365627086482618
 20
-0.788445960483216
 11
1.972573182835617
 21
-1.138866943414654
 72
     2
 10
-0.0000000000001137
 20
-0.0000000000000426
 40
2.277731958867243
 50
30.0000279999924
 51
329.269049000002
 73
     0
 97
        0
 92
        1
 93
        2
 72
     1
 10
-6.45383755364196
 20
1.270433126186262
 11
-6.453760069863676
 21
1.270363214094082
 72
     1
 10
-6.453760069863619
 20
1.270363214094089
 11
-6.453837553641903
 21
1.270433126186269
 97
        0
 75
     0
 76
     0
 52
45.0
 41
0.09
 77
     1
 78
     2
 53
45.0
 43
-176.4571517690805
 44
-54.26157204673851
 45
-0.0636396103067893
 46
0.0636396103067893
 79
     0
 53
135.0
 43
-176.4571517690805
 44
-54.26157204673851
 45
-0.0636396103067893
 46
-0.0636396103067893
 79
     0
 98
        1
 10
-176.4571517690805
 20
-54.26157204673851
1001
GENIUS_GENOBJ-N-HTC_13
1002
{
1000
OWNER
1000
GEN
1002
}
1001
GENIUS_GENODEF_13
1002
{
1000
HIER
1070
     0
1002
}
1002
{
1000
MANEDIT
1070
     0
1002
}
1002
{
1000
NOSEL
1070
     0
1002
}
1002
{
1000
BEHIND
1070
     0
1002
}
1002
{
1000
OTHER
1070
     0
1002
}
1002
{
1000
REACTOR
1002
}
1001
GENIUS_GENHATCH_13
1002
{
1000
DATA
1040
45.0
1042
0.09
1000
_U
1070
     1
1011
-6.974571080846772
1021
0.9674675190033497
1031
0.0
1002
}
1002
{
1000
UCS
1010
0.0
1020
0.0
1030
0.0
1010
1.0
1020
0.0
1030
0.0
1010
0.0
1020
1.0
1030
0.0
1002
}
  0
HATCH
  5
500
330
4E8
100
AcDbEntity
  8
AM_8
100
AcDbHatch
 10
0.0
 20
0.0
 30
0.0
210
0.0
220
0.0
230
1.0
  2
_U
 70
     0
 71
     0
 91
        2
 92
        1
 93
       43
 72
     1
 10
-7.98656033324346
 20
-1.676283536096804
 11
-4.921113586658208
 21
-1.676283594022088
 72
     2
 10
-9.782843421354186
 20
-2.333113859861668
 40
4.905898794685422
 50
352.305802999994
 51
359.7108172679506
 73
     0
 72
     1
 10
-4.877007113300464
 20
-2.308352957657263
 11
-4.87700575009714
 21
-2.308389433087711
 72
     1
 10
-4.877005750097168
 20
-2.308389433087711
 11
-4.176158408119135
 21
-2.308389433087711
 72
     1
 10
-4.176158408119135
 20
-2.308389433087711
 11
-4.185576899990763
 21
-2.03695700745618
 72
     1
 10
-4.185576899990792
 20
-2.03695700745618
 11
-4.205716101885343
 21
-1.757627489254723
 72
     2
 10
-9.782843421354186
 20
-2.333113859861526
 40
5.606740024320776
 50
5.891322448679513
 51
10.01155376516831
 73
     1
 72
     1
 10
-4.261478816228418
 20
-1.358400262139298
 11
-4.31760204673418
 21
-1.081446804506228
 72
     2
 10
-9.782843421354073
 20
-2.333113859862208
 40
5.606740024320759
 50
12.89959841733238
 51
13.74468133579606
 73
     1
 72
     1
 10
-4.336657277835911
 20
-1.000976408068737
 11
-4.473245849456418
 21
-0.5320843418310944
 72
     2
 10
-9.782843421354073
 20
-2.333113859862038
 40
5.606740024320804
 50
18.73707193417068
 51
19.34996135248807
 73
     1
 72
     1
 10
-4.49281475478017
 20
-0.4753920273082031
 11
-4.75298323684521
 21
0.1421632830709427
 72
     1
 10
-4.752983236845238
 20
0.1421632830709427
 11
-4.928712158876322
 21
0.4727627209870989
 72
     2
 10
-9.782843421354073
 20
-2.333113859861725
 40
5.60674002432075
 50
30.02958189183695
 51
33.33627185401258
 73
     1
 72
     1
 10
-5.09863848789223
 20
0.7480803634309297
 11
-5.138660865507631
 21
0.8080805130308448
 72
     2
 10
-9.782843421354186
 20
-2.333113859861583
 40
5.606740024320772
 50
34.07331412204379
 51
37.96952971603585
 73
     1
 72
     1
 10
-5.362836895098666
 20
1.116389873746868
 11
-5.55634551943541
 21
1.350939503676485
 72
     2
 10
-9.782843421354186
 20
-2.333113859861697
 40
5.606740024320796
 50
41.07723853974786
 51
41.7849099604546
 73
     1
 72
     1
 10
-5.602169205213385
 20
1.402859480355914
 11
-5.934529615065173
 21
1.74142275478141
 72
     1
 10
-5.93452961506523
 20
1.74142275478141
 11
-6.189526065605605
 21
1.970791817682474
 72
     2
 10
-9.782843421354073
 20
-2.333113859861668
 40
5.606740024320699
 50
50.14160045082939
 51
50.63287161007293
 73
     1
 72
     1
 10
-6.226560675684709
 20
2.001443410860957
 11
-6.453838469888012
 21
2.178343305150342
 72
     1
 10
-6.453838469888069
 20
2.178343305150349
 11
-6.552277665487594
 21
2.104020096057162
 72
     2
 10
-3.124894526218213
 20
-2.333109784966126
 40
5.606699275368516
 50
127.683662553009
 51
130.2598590092964
 73
     1
 72
     1
 10
-6.748253654859695
 20
1.945481734366836
 11
-7.021551729907741
 21
1.694187143316575
 72
     1
 10
-7.021551729907741
 20
1.694187143316582
 11
-7.227711389014615
 21
1.48814270011929
 72
     2
 10
-3.124894526218213
 20
-2.333109784965941
 40
5.606699275368423
 50
137.0350233487508
 51
137.6540480887846
 73
     1
 72
     1
 10
-7.268756021495846
 20
1.443593628379062
 11
-7.585074629266955
 21
1.064223023692179
 72
     2
 10
-3.12489452621628
 20
-2.333109784965259
 40
5.606699275369539
 50
142.7033646660853
 51
142.8216597002024
 73
     1
 72
     1
 10
-7.592079379868437
 20
1.055007132694214
 11
-7.860094419581059
 21
0.6690492271974336
 72
     2
 10
-3.124894526218099
 20
-2.333109784965898
 40
5.606699275368515
 50
147.6249377417097
 51
149.0670983871278
 73
     1
 72
     1
 10
-7.934152221209274
 20
0.5489237310755187
 11
-8.076625443805141
 21
0.2966121935388486
 72
     2
 10
-3.124894526218326
 20
-2.333109784966239
 40
5.606699275368516
 50
152.0285131198598
 51
154.3414573586053
 73
     1
 72
     1
 10
-8.178720365011372
 20
0.0946301425313294
 11
-8.330609067681052
 21
-0.2528326446147275
 72
     1
 10
-8.330609067681052
 20
-0.2528326446147275
 11
-8.457695598812108
 21
-0.6021246652841655
 72
     2
 10
-3.124894526218099
 20
-2.333109784965671
 40
5.606699275368532
 50
162.016978950881
 51
163.4414752505082
 73
     1
 72
     1
 10
-8.49907909006049
 20
-0.7352308664689815
 11
-8.630641129756838
 21
-1.276656782582229
 72
     1
 10
-8.630641129756895
 20
-1.276656782582222
 11
-8.703270018325412
 21
-1.770256666046812
 72
     2
 10
-3.124894526218213
 20
-2.333109784966126
 40
5.606699275368573
 50
174.238406294719
 51
176.3825340783078
 73
     1
 72
     1
 10
-8.720422683888841
 20
-1.979356479491457
 11
-8.731539305319074
 21
-2.308389643377473
 72
     1
 10
-8.731539305319074
 20
-2.308389643377466
 11
-8.030667878757896
 21
-2.308389763381427
 72
     2
 10
-3.124894526218326
 20
-2.333109784966353
 40
4.905835633809412
 50
180.2887090000028
 51
183.9914775000014
 73
     0
 72
     1
 10
-8.018830639676252
 20
-1.991623938484991
 11
-7.986560333243488
 21
-1.676283536096796
 97
        0
 92
       16
 93
       21
 72
     1
 10
-5.068549074126622
 20
-0.9754424005628834
 11
-7.839126549131577
 21
-0.9754423064612396
 72
     1
 10
-7.839126549131606
 20
-0.9754423064612467
 11
-7.783579277884854
 21
-0.7998499933333392
 72
     1
 10
-7.783579277884882
 20
-0.7998499933333392
 11
-7.728318635382947
 21
-0.6420501996990993
 72
     1
 10
-7.728318635382947
 20
-0.6420501996990993
 11
-7.613850443832689
 21
-0.3501208963448903
 72
     1
 10
-7.613850443832689
 20
-0.3501208963448903
 11
-7.590312164318618
 21
-0.3015024140176123
 72
     2
 10
-3.124894526218326
 20
-2.333109784966239
 40
4.905851933390338
 50
204.4638591797037
 51
209.5711748127995
 73
     0
 72
     1
 10
-7.391726468587989
 20
0.0879495633198815
 11
-7.377019259925617
 21
0.1153878651378406
 72
     1
 10
-7.377019259925646
 20
0.1153878651378477
 11
-7.270444881467483
 21
0.2929121081945709
 72
     1
 10
-7.270444881467483
 20
0.2929121081945709
 11
-7.241477213598983
 21
0.3354347940707498
 72
     2
 10
-3.124894526218326
 20
-2.333109784966296
 40
4.905851933390331
 50
212.9530288293097
 51
227.2680634576603
 73
     0
 72
     1
 10
-6.453854569010331
 20
1.270417407361264
 11
-6.453837337125094
 21
1.270434596155268
 72
     2
 10
-9.782843421354414
 20
-2.333113859861413
 40
4.905898794685419
 50
312.732163000002
 51
315.445619133743
 73
     0
 72
     1
 10
-6.286974130352291
 20
1.1087956223773
 11
-6.248111142606063
 21
1.071149375617835
 72
     1
 10
-6.248111142606148
 20
1.071149375617835
 11
-6.21442952233275
 21
1.033526190539731
 72
     2
 10
-9.782843421354186
 20
-2.333113859861555
 40
4.905898794685414
 50
316.6665377932571
 51
324.6089167120336
 73
     0
 72
     1
 10
-5.783466726528786
 20
0.508158572796603
 11
-5.742112982373498
 21
0.4530508543929273
 72
     1
 10
-5.742112982373555
 20
0.4530508543929273
 11
-5.709368291387249
 21
0.4008655382386124
 72
     2
 10
-9.782843421354186
 20
-2.333113859861597
 40
4.905898794685411
 50
326.1318174816516
 51
335.126920261769
 73
     0
 72
     1
 10
-5.332007278957462
 20
-0.2696457556179723
 11
-5.28722508894063
 21
-0.3591607879468555
 72
     1
 10
-5.287225088940658
 20
-0.3591607879468484
 11
-5.243307024379589
 21
-0.4728847653040376
 72
     2
 10
-9.782843421354186
 20
-2.333113859861583
 40
4.905898794685409
 50
337.7169696472817
 51
343.9341079999992
 73
     0
 97
        0
 75
     0
 76
     0
 52
45.0
 41
0.1
 77
     1
 78
     2
 53
45.0
 43
-176.4571513522422
 44
-54.26157211694988
 45
-0.0707106781186548
 46
0.0707106781186548
 79
     0
 53
135.0
 43
-176.4571513522422
 44
-54.26157211694988
 45
-0.0707106781186548
 46
-0.0707106781186548
 79
     0
 98
        1
 10
-176.4571513522422
 20
-54.26157211694988
1001
GENIUS_GENODEF_13
1002
{
1000
HIER
1070
     0
1002
}
1002
{
1000
MANEDIT
1070
     0
1002
}
1002
{
1000
NOSEL
1070
     0
1002
}
1002
{
1000
BEHIND
1070
     0
1002
}
1002
{
1000
OTHER
1070
     0
1002
}
1002
{
1000
REACTOR
1002
}
1001
GENIUS_GENOBJ-N-HTC_13
1002
{
1000
OWNER
1000
GEN
1002
}
1001
GENIUS_GENHATCH_13
1002
{
1000
DATA
1040
45.0
1042
0.1
1000
_U
1070
     1
1011
-6.315948351937777
1021
-1.141903832062041
1031
0.0
1002
}
1002
{
1000
UCS
1010
0.0
1020
0.0
1030
0.0
1010
1.0
1020
0.0
1030
0.0
1010
0.0
1020
1.0
1030
0.0
1002
}
  0
ENDBLK
  5
501
330
4E8
100
AcDbEntity
  8
0
100
AcDbBlockEnd
  0
BLOCK
  5
673
330
669
100
AcDbEntity
  8
0
100
AcDbBlockBegin
  2
*D6
 70
     1
 10
0.0
 20
0.0
 30
0.0
  3
*D6
  1

  0
LINE
  5
70A
330
669
100
AcDbEntity
  8
5
370
    -2
100
AcDbLine
 10
315.5885823326932
 20
244.7536652404502
 30
0.0
 11
292.3519942533295
 21
244.7536652404502
 31
0.0
  0
LINE
  5
70B
330
669
100
AcDbEntity
  8
5
370
    -2
100
AcDbLine
 10
308.7554759359193
 20
231.2934646169241
 30
0.0
 11
292.3519942533295
 21
231.2934646169241
 31
0.0
  0
LINE
  5
70C
330
669
100
AcDbEntity
  8
5
370
    -2
100
AcDbLine
 10
293.3519942533294
 20
242.2536652404502
 30
0.0
 11
293.3519942533294
 21
233.7934646169241
 31
0.0
  0
SOLID
  5
70D
330
669
100
AcDbEntity
  8
5
100
AcDbTrace
 10
292.9353275866628
 20
242.2536652404502
 30
0.0
 11
293.7686609199961
 21
242.2536652404502
 31
0.0
 12
293.3519942533294
 22
244.7536652404502
 32
0.0
 13
293.3519942533294
 23
244.7536652404502
 33
0.0
  0
SOLID
  5
70E
330
669
100
AcDbEntity
  8
5
100
AcDbTrace
 10
292.9353275866628
 20
233.7934646169241
 30
0.0
 11
293.7686609199961
 21
233.7934646169241
 31
0.0
 12
293.3519942533294
 22
231.2934646169241
 32
0.0
 13
293.3519942533294
 23
231.2934646169241
 33
0.0
  0
MTEXT
  5
70F
330
669
100
AcDbEntity
  8
5
 62
     2
100
AcDbMText
 10
291.0019942533294
 20
238.0235649286872
 30
0.0
 40
3.5
 41
0.0
 71
     5
 72
     1
  1
4.5
 11
0.0000000000000001
 21
1.0
 31
0.0
 73
     1
 44
1.0
1001
ACAD
1000
MTEXTBEGIN
1070
    73
1070
     1
1070
    44
1040
1.0
1070
    74
1070
     0
1000
MTEXTEND
  0
POINT
  5
710
330
669
100
AcDbEntity
  8
Defpoints
 62
     0
100
AcDbPoint
 10
316.5885823326933
 20
244.7536652404502
 30
0.0
  0
POINT
  5
711
330
669
100
AcDbEntity
  8
Defpoints
 62
     0
100
AcDbPoint
 10
309.7554759359193
 20
231.2934646169241
 30
0.0
  0
POINT
  5
712
330
669
100
AcDbEntity
  8
Defpoints
 62
     0
100
AcDbPoint
 10
293.3519942533294
 20
231.2934646169241
 30
0.0
  0
ENDBLK
  5
674
330
669
100
AcDbEntity
  8
0
100
AcDbBlockEnd
  0
BLOCK
  5
67F
330
675
100
AcDbEntity
  8
0
100
AcDbBlockBegin
  2
*D7
 70
     1
 10
0.0
 20
0.0
 30
0.0
  3
*D7
  1

  0
LINE
  5
713
330
675
100
AcDbEntity
  8
5
370
    -2
100
AcDbLine
 10
309.7554759359193
 20
232.2934646169242
 30
0.0
 11
309.7554759359193
 21
254.9448157871537
 31
0.0
  0
LINE
  5
714
330
675
100
AcDbEntity
  8
5
370
    -2
100
AcDbLine
 10
323.421620115123
 20
232.2934655545406
 30
0.0
 11
323.421620115123
 21
254.9448157871537
 31
0.0
  0
LINE
  5
715
330
675
100
AcDbEntity
  8
5
370
    -2
100
AcDbLine
 10
312.2554759359193
 20
253.9448157871536
 30
0.0
 11
320.921620115123
 21
253.9448157871536
 31
0.0
  0
SOLID
  5
716
330
675
100
AcDbEntity
  8
5
100
AcDbTrace
 10
312.2554759359193
 20
254.3614824538203
 30
0.0
 11
312.2554759359193
 21
253.528149120487
 31
0.0
 12
309.7554759359193
 22
253.9448157871536
 32
0.0
 13
309.7554759359193
 23
253.9448157871536
 33
0.0
  0
SOLID
  5
717
330
675
100
AcDbEntity
  8
5
100
AcDbTrace
 10
320.921620115123
 20
254.3614824538203
 30
0.0
 11
320.921620115123
 21
253.528149120487
 31
0.0
 12
323.421620115123
 22
253.9448157871536
 32
0.0
 13
323.421620115123
 23
253.9448157871536
 33
0.0
  0
MTEXT
  5
718
330
675
100
AcDbEntity
  8
5
 62
     2
100
AcDbMText
 10
316.5885480255212
 20
256.2948157871537
 30
0.0
 40
3.5
 41
0.0
 71
     5
 72
     1
  1
4.6
 73
     1
 44
1.0
1001
ACAD
1000
MTEXTBEGIN
1070
    73
1070
     1
1070
    44
1040
1.0
1070
    74
1070
     0
1000
MTEXTEND
  0
POINT
  5
719
330
675
100
AcDbEntity
  8
Defpoints
 62
     0
100
AcDbPoint
 10
309.7554759359193
 20
231.2934646169242
 30
0.0
  0
POINT
  5
71A
330
675
100
AcDbEntity
  8
Defpoints
 62
     0
100
AcDbPoint
 10
323.421620115123
 20
231.2934655545406
 30
0.0
  0
POINT
  5
71B
330
675
100
AcDbEntity
  8
Defpoints
 62
     0
100
AcDbPoint
 10
323.421620115123
 20
253.9448157871536
 30
0.0
  0
ENDBLK
  5
680
330
675
100
AcDbEntity
  8
0
100
AcDbBlockEnd
  0
BLOCK
  5
68D
330
681
100
AcDbEntity
  8
0
100
AcDbBlockBegin
  2
*D8
 70
     1
 10
0.0
 20
0.0
 30
0.0
  3
*D8
  1

  0
LINE
  5
71C
330
681
100
AcDbEntity
  8
5
370
    -2
100
AcDbLine
 10
348.4783918182913
 20
239.2186335470566
 30
0.0
 11
348.4783918182913
 21
254.9448157871536
 31
0.0
  0
LINE
  5
71D
330
681
100
AcDbEntity
  8
5
370
    -2
100
AcDbLine
 10
350.5809155071974
 20
239.2186335470566
 30
0.0
 11
350.5809155071974
 21
254.9448157871536
 31
0.0
  0
LINE
  5
71E
330
681
100
AcDbEntity
  8
5
370
    -2
100
AcDbLine
 10
345.9783918182913
 20
253.9448157871536
 30
0.0
 11
343.4783918182914
 21
253.9448157871536
 31
0.0
  0
LINE
  5
71F
330
681
100
AcDbEntity
  8
5
370
    -2
100
AcDbLine
 10
353.0809155071974
 20
253.9448157871536
 30
0.0
 11
355.5809155071975
 21
253.9448157871536
 31
0.0
  0
LINE
  5
720
330
681
100
AcDbEntity
  8
5
370
    -2
100
AcDbLine
 10
348.4783918182913
 20
253.9448157871536
 30
0.0
 11
350.5809155071974
 21
253.9448157871536
 31
0.0
  0
SOLID
  5
721
330
681
100
AcDbEntity
  8
5
100
AcDbTrace
 10
345.9783918182913
 20
254.3614824538203
 30
0.0
 11
345.9783918182913
 21
253.528149120487
 31
0.0
 12
348.4783918182913
 22
253.9448157871536
 32
0.0
 13
348.4783918182913
 23
253.9448157871536
 33
0.0
  0
SOLID
  5
722
330
681
100
AcDbEntity
  8
5
100
AcDbTrace
 10
353.0809155071974
 20
254.3614824538203
 30
0.0
 11
353.0809155071974
 21
253.528149120487
 31
0.0
 12
350.5809155071974
 22
253.9448157871536
 32
0.0
 13
350.5809155071974
 23
253.9448157871536
 33
0.0
  0
MTEXT
  5
723
330
681
100
AcDbEntity
  8
5
 62
     2
100
AcDbMText
 10
349.5296536627444
 20
256.2948157871537
 30
0.0
 40
3.5
 41
0.0
 71
     5
 72
     1
  1
0.7
 73
     1
 44
1.0
1001
ACAD
1000
MTEXTBEGIN
1070
    73
1070
     1
1070
    44
1040
1.0
1070
    74
1070
     0
1000
MTEXTEND
  0
POINT
  5
724
330
681
100
AcDbEntity
  8
Defpoints
 62
     0
100
AcDbPoint
 10
348.4783918182913
 20
238.2186335470566
 30
0.0
  0
POINT
  5
725
330
681
100
AcDbEntity
  8
Defpoints
 62
     0
100
AcDbPoint
 10
350.5809155071974
 20
238.2186335470566
 30
0.0
  0
POINT
  5
726
330
681
100
AcDbEntity
  8
Defpoints
 62
     0
100
AcDbPoint
 10
350.5809155071974
 20
253.9448157871536
 30
0.0
  0
ENDBLK
  5
68E
330
681
100
AcDbEntity
  8
0
100
AcDbBlockEnd
  0
BLOCK
  5
699
330
68F
100
AcDbEntity
  8
0
100
AcDbBlockBegin
  2
*D9
 70
     1
 10
0.0
 20
0.0
 30
0.0
  3
*D9
  1

  0
LINE
  5
727
330
68F
100
AcDbEntity
  8
5
370
    -2
100
AcDbLine
 10
362.1447957961805
 20
237.2186335470566
 30
0.0
 11
362.1447957961805
 21
209.2812021197588
 31
0.0
  0
LINE
  5
728
330
68F
100
AcDbEntity
  8
5
370
    -2
100
AcDbLine
 10
309.7555447161428
 20
230.2934652477934
 30
0.0
 11
309.7555447161428
 21
209.2812021197588
 31
0.0
  0
LINE
  5
729
330
68F
100
AcDbEntity
  8
5
370
    -2
100
AcDbLine
 10
359.6447957961804
 20
210.2812021197587
 30
0.0
 11
312.2555447161428
 21
210.2812021197587
 31
0.0
  0
SOLID
  5
72A
330
68F
100
AcDbEntity
  8
5
100
AcDbTrace
 10
359.6447957961804
 20
210.6978687864254
 30
0.0
 11
359.6447957961804
 21
209.8645354530921
 31
0.0
 12
362.1447957961805
 22
210.2812021197587
 32
0.0
 13
362.1447957961805
 23
210.2812021197587
 33
0.0
  0
SOLID
  5
72B
330
68F
100
AcDbEntity
  8
5
100
AcDbTrace
 10
312.2555447161428
 20
210.6978687864254
 30
0.0
 11
312.2555447161428
 21
209.8645354530921
 31
0.0
 12
309.7555447161428
 22
210.2812021197587
 32
0.0
 13
309.7555447161428
 23
210.2812021197587
 33
0.0
  0
MTEXT
  5
72C
330
68F
100
AcDbEntity
  8
5
 62
     2
100
AcDbMText
 10
336.805061445913
 20
212.6312021197587
 30
0.0
 40
3.5
 41
0.0
 71
     5
 72
     1
  1
17.5
 73
     1
 44
1.0
1001
ACAD
1000
MTEXTBEGIN
1070
    73
1070
     1
1070
    44
1040
1.0
1070
    74
1070
     0
1000
MTEXTEND
  0
POINT
  5
72D
330
68F
100
AcDbEntity
  8
Defpoints
 62
     0
100
AcDbPoint
 10
362.1447957961805
 20
238.2186335470566
 30
0.0
  0
POINT
  5
72E
330
68F
100
AcDbEntity
  8
Defpoints
 62
     0
100
AcDbPoint
 10
309.7555447161428
 20
231.2934652477934
 30
0.0
  0
POINT
  5
72F
330
68F
100
AcDbEntity
  8
Defpoints
 62
     0
100
AcDbPoint
 10
309.7555447161428
 20
210.2812021197587
 30
0.0
  0
ENDBLK
  5
69A
330
68F
100
AcDbEntity
  8
0
100
AcDbBlockEnd
  0
BLOCK
  5
6A5
330
69B
100
AcDbEntity
  8
0
100
AcDbBlockBegin
  2
*D10
 70
     1
 10
0.0
 20
0.0
 30
0.0
  3
*D10
  1

  0
LINE
  5
730
330
69B
100
AcDbEntity
  8
5
370
    -2
100
AcDbLine
 10
335.9500938518765
 20
237.2186335470566
 30
0.0
 11
335.9500938518765
 21
218.489973901493
 31
0.0
  0
LINE
  5
731
330
69B
100
AcDbEntity
  8
5
370
    -2
100
AcDbLine
 10
316.5885816718315
 20
234.2923066276728
 30
0.0
 11
316.5885816718315
 21
218.489973901493
 31
0.0
  0
LINE
  5
732
330
69B
100
AcDbEntity
  8
5
370
    -2
100
AcDbLine
 10
333.4500938518766
 20
219.489973901493
 30
0.0
 11
319.0885816718314
 21
219.489973901493
 31
0.0
  0
SOLID
  5
733
330
69B
100
AcDbEntity
  8
5
100
AcDbTrace
 10
333.4500938518766
 20
219.9066405681596
 30
0.0
 11
333.4500938518766
 21
219.0733072348263
 31
0.0
 12
335.9500938518765
 22
219.489973901493
 32
0.0
 13
335.9500938518765
 23
219.489973901493
 33
0.0
  0
SOLID
  5
734
330
69B
100
AcDbEntity
  8
5
100
AcDbTrace
 10
319.0885816718314
 20
219.9066405681596
 30
0.0
 11
319.0885816718314
 21
219.0733072348263
 31
0.0
 12
316.5885816718315
 22
219.489973901493
 32
0.0
 13
316.5885816718315
 23
219.489973901493
 33
0.0
  0
MTEXT
  5
735
330
69B
100
AcDbEntity
  8
5
 62
     2
100
AcDbMText
 10
328.0299130343758
 20
221.839973901493
 30
0.0
 40
3.5
 41
0.0
 71
     5
 72
     1
  1
6.5
 73
     1
 44
1.0
1001
ACAD
1000
MTEXTBEGIN
1070
    73
1070
     1
1070
    44
1040
1.0
1070
    74
1070
     0
1000
MTEXTEND
  0
POINT
  5
736
330
69B
100
AcDbEntity
  8
Defpoints
 62
     0
100
AcDbPoint
 10
335.9500938518765
 20
238.2186335470566
 30
0.0
  0
POINT
  5
737
330
69B
100
AcDbEntity
  8
Defpoints
 62
     0
100
AcDbPoint
 10
316.5885816718315
 20
235.2923066276728
 30
0.0
  0
POINT
  5
738
330
69B
100
AcDbEntity
  8
Defpoints
 62
     0
100
AcDbPoint
 10
316.5885816718315
 20
219.489973901493
 30
0.0
  0
ENDBLK
  5
6A6
330
69B
100
AcDbEntity
  8
0
100
AcDbBlockEnd
  0
BLOCK
  5
6B1
330
6A7
100
AcDbEntity
  8
0
100
AcDbBlockBegin
  2
*D11
 70
     1
 10
0.0
 20
0.0
 30
0.0
  3
*D11
  1

  0
LINE
  5
778
330
6A7
100
AcDbEntity
  8
5
370
    -2
100
AcDbLine
 10
355.311593807236
 20
237.2186335470566
 30
0.0
 11
355.311593807236
 21
218.489973901493
 31
0.0
  0
LINE
  5
779
330
6A7
100
AcDbEntity
  8
5
370
    -2
100
AcDbLine
 10
335.9500938518765
 20
237.2186335470566
 30
0.0
 11
335.9500938518765
 21
218.489973901493
 31
0.0
  0
LINE
  5
77A
330
6A7
100
AcDbEntity
  8
5
370
    -2
100
AcDbLine
 10
352.811593807236
 20
219.489973901493
 30
0.0
 11
338.4500938518765
 21
219.489973901493
 31
0.0
  0
SOLID
  5
77B
330
6A7
100
AcDbEntity
  8
5
100
AcDbTrace
 10
352.811593807236
 20
219.9066405681597
 30
0.0
 11
352.811593807236
 21
219.0733072348264
 31
0.0
 12
355.311593807236
 22
219.489973901493
 32
0.0
 13
355.311593807236
 23
219.489973901493
 33
0.0
  0
SOLID
  5
77C
330
6A7
100
AcDbEntity
  8
5
100
AcDbTrace
 10
338.4500938518765
 20
219.9066405681597
 30
0.0
 11
338.4500938518765
 21
219.0733072348264
 31
0.0
 12
335.9500938518765
 22
219.489973901493
 32
0.0
 13
335.9500938518765
 23
219.489973901493
 33
0.0
  0
MTEXT
  5
77D
330
6A7
100
AcDbEntity
  8
5
 62
     2
100
AcDbMText
 10
346.0189682712471
 20
221.839973901493
 30
0.0
 40
3.5
 41
0.0
 71
     5
 72
     1
  1
6.5
 73
     1
 44
1.0
1001
ACAD
1000
MTEXTBEGIN
1070
    73
1070
     1
1070
    44
1040
1.0
1070
    74
1070
     0
1000
MTEXTEND
  0
POINT
  5
77E
330
6A7
100
AcDbEntity
  8
Defpoints
 62
     0
100
AcDbPoint
 10
355.311593807236
 20
238.2186335470566
 30
0.0
  0
POINT
  5
77F
330
6A7
100
AcDbEntity
  8
Defpoints
 62
     0
100
AcDbPoint
 10
335.9500938518765
 20
238.2186335470566
 30
0.0
  0
POINT
  5
780
330
6A7
100
AcDbEntity
  8
Defpoints
 62
     0
100
AcDbPoint
 10
335.9500938518765
 20
219.489973901493
 30
0.0
  0
ENDBLK
  5
6B2
330
6A7
100
AcDbEntity
  8
0
100
AcDbBlockEnd
  0
BLOCK
  5
6BF
330
6B3
100
AcDbEntity
  8
0
100
AcDbBlockBegin
  2
*D12
 70
     1
 10
0.0
 20
0.0
 30
0.0
  3
*D12
  1

  0
LINE
  5
742
330
6B3
100
AcDbEntity
  8
5
370
    -2
100
AcDbLine
 10
341.0026972939928
 20
240.6590566022634
 30
0.0
 11
345.8996870358202
 21
240.6590566022634
 31
0.0
  0
LINE
  5
743
330
6B3
100
AcDbEntity
  8
5
370
    -2
100
AcDbLine
 10
341.0469772108535
 20
235.8532974532081
 30
0.0
 11
345.8996870358202
 21
235.8532974532081
 31
0.0
  0
LINE
  5
744
330
6B3
100
AcDbEntity
  8
5
370
    -2
100
AcDbLine
 10
344.8996870358203
 20
233.3532974532081
 30
0.0
 11
344.8996870358203
 21
230.8532974532081
 31
0.0
  0
LINE
  5
745
330
6B3
100
AcDbEntity
  8
5
370
    -2
100
AcDbLine
 10
344.8996870358203
 20
243.1590566022634
 30
0.0
 11
344.8996870358203
 21
252.6923899355969
 31
0.0
  0
LINE
  5
746
330
6B3
100
AcDbEntity
  8
5
370
    -2
100
AcDbLine
 10
344.8996870358203
 20
235.8532974532081
 30
0.0
 11
344.8996870358203
 21
240.6590566022634
 31
0.0
  0
SOLID
  5
747
330
6B3
100
AcDbEntity
  8
5
100
AcDbTrace
 10
344.4830203691536
 20
233.3532974532081
 30
0.0
 11
345.3163537024869
 21
233.3532974532081
 31
0.0
 12
344.8996870358203
 22
235.8532974532081
 32
0.0
 13
344.8996870358203
 23
235.8532974532081
 33
0.0
  0
SOLID
  5
748
330
6B3
100
AcDbEntity
  8
5
100
AcDbTrace
 10
344.4830203691536
 20
243.1590566022634
 30
0.0
 11
345.3163537024869
 21
243.1590566022634
 31
0.0
 12
344.8996870358203
 22
240.6590566022634
 32
0.0
 13
344.8996870358203
 23
240.6590566022634
 33
0.0
  0
MTEXT
  5
749
330
6B3
100
AcDbEntity
  8
5
 62
     2
100
AcDbMText
 10
342.5496870358202
 20
249.1757232689303
 30
0.0
 40
3.5
 41
0.0
 71
     5
 72
     1
  1
1.6
 11
0.0000000000000001
 21
1.0
 31
0.0
 73
     1
 44
1.0
1001
ACAD
1000
MTEXTBEGIN
1070
    73
1070
     1
1070
    44
1040
1.0
1070
    74
1070
     0
1000
MTEXTEND
  0
POINT
  5
74A
330
6B3
100
AcDbEntity
  8
Defpoints
 62
     0
100
AcDbPoint
 10
340.0026972939928
 20
240.6590566022634
 30
0.0
  0
POINT
  5
74B
330
6B3
100
AcDbEntity
  8
Defpoints
 62
     0
100
AcDbPoint
 10
340.0469772108535
 20
235.8532974532081
 30
0.0
  0
POINT
  5
74C
330
6B3
100
AcDbEntity
  8
Defpoints
 62
     0
100
AcDbPoint
 10
344.8996870358203
 20
235.8532974532081
 30
0.0
  0
ENDBLK
  5
6C0
330
6B3
100
AcDbEntity
  8
0
100
AcDbBlockEnd
  0
BLOCK
  5
6CD
330
6C1
100
AcDbEntity
  8
0
100
AcDbBlockBegin
  2
*D13
 70
     1
 10
0.0
 20
0.0
 30
0.0
  3
*D13
  1

  0
LINE
  5
74D
330
6C1
100
AcDbEntity
  8
5
370
    -2
100
AcDbLine
 10
308.7554759359193
 20
231.2934646169242
 30
0.0
 11
300.1819504606504
 21
231.2934646169242
 31
0.0
  0
LINE
  5
74E
330
6C1
100
AcDbEntity
  8
5
370
    -2
100
AcDbLine
 10
310.9904102309743
 20
233.1897820938964
 30
0.0
 11
300.1819504606504
 21
233.1897820938964
 31
0.0
  0
LINE
  5
74F
330
6C1
100
AcDbEntity
  8
5
370
    -2
100
AcDbLine
 10
301.1819504606504
 20
235.6897820938963
 30
0.0
 11
301.1819504606504
 21
238.1897820938963
 31
0.0
  0
LINE
  5
750
330
6C1
100
AcDbEntity
  8
5
370
    -2
100
AcDbLine
 10
301.1819504606504
 20
228.7934646169242
 30
0.0
 11
301.1819504606504
 21
218.6767979502575
 31
0.0
  0
LINE
  5
751
330
6C1
100
AcDbEntity
  8
5
370
    -2
100
AcDbLine
 10
301.1819504606504
 20
233.1897820938964
 30
0.0
 11
301.1819504606504
 21
231.2934646169242
 31
0.0
  0
SOLID
  5
752
330
6C1
100
AcDbEntity
  8
5
100
AcDbTrace
 10
300.7652837939837
 20
235.6897820938963
 30
0.0
 11
301.5986171273171
 21
235.6897820938963
 31
0.0
 12
301.1819504606504
 22
233.1897820938964
 32
0.0
 13
301.1819504606504
 23
233.1897820938964
 33
0.0
  0
SOLID
  5
753
330
6C1
100
AcDbEntity
  8
5
100
AcDbTrace
 10
300.7652837939837
 20
228.7934646169242
 30
0.0
 11
301.5986171273171
 21
228.7934646169242
 31
0.0
 12
301.1819504606504
 22
231.2934646169242
 32
0.0
 13
301.1819504606504
 23
231.2934646169242
 33
0.0
  0
MTEXT
  5
754
330
6C1
100
AcDbEntity
  8
5
 62
     2
100
AcDbMText
 10
298.8319504606503
 20
222.4851312835909
 30
0.0
 40
3.5
 41
0.0
 71
     5
 72
     1
  1
0.6
 11
0.0000000000000001
 21
1.0
 31
0.0
 73
     1
 44
1.0
1001
ACAD
1000
MTEXTBEGIN
1070
    73
1070
     1
1070
    44
1040
1.0
1070
    74
1070
     0
1000
MTEXTEND
  0
POINT
  5
755
330
6C1
100
AcDbEntity
  8
Defpoints
 62
     0
100
AcDbPoint
 10
309.7554759359193
 20
231.2934646169242
 30
0.0
  0
POINT
  5
756
330
6C1
100
AcDbEntity
  8
Defpoints
 62
     0
100
AcDbPoint
 10
311.9904102309742
 20
233.1897820938964
 30
0.0
  0
POINT
  5
757
330
6C1
100
AcDbEntity
  8
Defpoints
 62
     0
100
AcDbPoint
 10
301.1819504606504
 20
233.1897820938964
 30
0.0
  0
ENDBLK
  5
6CE
330
6C1
100
AcDbEntity
  8
0
100
AcDbBlockEnd
  0
BLOCK
  5
6D6
330
6CF
100
AcDbEntity
  8
0
100
AcDbBlockBegin
  2
*D14
 70
     1
 10
0.0
 20
0.0
 30
0.0
  3
*D14
  1

  0
LINE
  5
86B
330
6CF
100
AcDbEntity
  8
5
370
    -2
100
AcDbLine
 10
380.1236892113738
 20
248.9496135317072
 30
0.0
 11
363.8779596513733
 21
241.9235000211434
 31
0.0
  0
MTEXT
  5
86C
330
6CF
100
AcDbEntity
  8
5
 62
     2
100
AcDbMText
 10
372.2152761375982
 20
248.0896701297702
 30
0.0
 40
3.5
 41
0.0
 71
     5
 72
     1
  1
R 2.3
 11
0.9178378282486136
 21
0.3969555655685762
 31
0.0
 73
     1
 44
1.0
1001
ACAD
1000
MTEXTBEGIN
1070
    73
1070
     1
1070
    44
1040
1.0
1070
    74
1070
     0
1000
MTEXTEND
  0
LINE
  5
86D
330
6CF
100
AcDbEntity
  8
5
370
    -2
100
AcDbLine
 10
355.3115938072359
 20
238.2186335470566
 30
0.0
 11
361.5833650807518
 21
240.9311111072219
 31
0.0
  0
SOLID
  5
86E
330
6CF
100
AcDbEntity
  8
5
100
AcDbTrace
 10
363.7125614990531
 20
242.3059324495802
 30
0.0
 11
364.0433578036935
 21
241.5410675927064
 31
0.0
 12
361.5833650807518
 22
240.9311111072219
 32
0.0
 13
361.5833650807518
 23
240.9311111072219
 33
0.0
  0
POINT
  5
86F
330
6CF
100
AcDbEntity
  8
Defpoints
 62
     0
100
AcDbPoint
 10
361.5833650807518
 20
240.9311111072219
 30
0.0
  0
POINT
  5
870
330
6CF
100
AcDbEntity
  8
Defpoints
 62
     0
100
AcDbPoint
 10
355.3115938072359
 20
238.2186335470566
 30
0.0
  0
ENDBLK
  5
6D7
330
6CF
100
AcDbEntity
  8
0
100
AcDbBlockEnd
  0
BLOCK
  5
6DF
330
6D8
100
AcDbEntity
  8
0
100
AcDbBlockBegin
  2
*D15
 70
     1
 10
0.0
 20
0.0
 30
0.0
  3
*D15
  1

  0
LINE
  5
864
330
6D8
100
AcDbEntity
  8
5
370
    -2
100
AcDbLine
 10
340.5440049726652
 20
259.001638420377
 30
0.0
 11
321.5521583270764
 21
243.4565555754028
 31
0.0
  0
MTEXT
  5
865
330
6D8
100
AcDbEntity
  8
5
 62
     2
100
AcDbMText
 10
333.1744155498048
 20
256.0063668569855
 30
0.0
 40
3.5
 41
0.0
 71
     5
 72
     1
  1
R 5.6
 11
0.7738314927471189
 21
0.6333915225457046
 31
0.0
 73
     1
 44
1.0
1001
ACAD
1000
MTEXTBEGIN
1070
    73
1070
     1
1070
    44
1040
1.0
1070
    74
1070
     0
1000
MTEXTEND
  0
LINE
  5
866
330
6D8
100
AcDbEntity
  8
5
370
    -2
100
AcDbLine
 10
306.6015635878139
 20
231.2192919674718
 30
0.0
 11
319.6175795952086
 21
241.8730767690385
 31
0.0
  0
SOLID
  5
867
330
6D8
100
AcDbEntity
  8
5
100
AcDbTrace
 10
321.2882451926824
 20
243.7789853640474
 30
0.0
 11
321.8160714614705
 21
243.1341257867582
 31
0.0
 12
319.6175795952086
 22
241.8730767690385
 32
0.0
 13
319.6175795952086
 23
241.8730767690385
 33
0.0
  0
POINT
  5
868
330
6D8
100
AcDbEntity
  8
Defpoints
 62
     0
100
AcDbPoint
 10
319.6175795952086
 20
241.8730767690385
 30
0.0
  0
POINT
  5
869
330
6D8
100
AcDbEntity
  8
Defpoints
 62
     0
100
AcDbPoint
 10
306.6015635878139
 20
231.2192919674718
 30
0.0
  0
ENDBLK
  5
6E0
330
6D8
100
AcDbEntity
  8
0
100
AcDbBlockEnd
  0
BLOCK
  5
6ED
330
6E1
100
AcDbEntity
  8
0
100
AcDbBlockBegin
  2
*D16
 70
     1
 10
0.0
 20
0.0
 30
0.0
  3
*D16
  1

  0
LINE
  5
AE5
330
6E1
100
AcDbEntity
  8
5
370
    -2
100
AcDbLine
 10
187.904848551247
 20
222.6863454416628
 30
0.0
 11
201.5211007409925
 21
222.6863454416628
 31
0.0
  0
LINE
  5
AE6
330
6E1
100
AcDbEntity
  8
5
370
    -2
100
AcDbLine
 10
187.904848551247
 20
217.6863454416628
 30
0.0
 11
201.5211007409925
 21
217.6863454416628
 31
0.0
  0
LINE
  5
AE7
330
6E1
100
AcDbEntity
  8
5
370
    -2
100
AcDbLine
 10
200.5211007409925
 20
215.1863454416628
 30
0.0
 11
200.5211007409925
 21
212.6863454416628
 31
0.0
  0
LINE
  5
AE8
330
6E1
100
AcDbEntity
  8
5
370
    -2
100
AcDbLine
 10
200.5211007409925
 20
225.1863454416628
 30
0.0
 11
200.5211007409925
 21
231.2196787749961
 31
0.0
  0
LINE
  5
AE9
330
6E1
100
AcDbEntity
  8
5
370
    -2
100
AcDbLine
 10
200.5211007409925
 20
217.6863454416628
 30
0.0
 11
200.5211007409925
 21
222.6863454416628
 31
0.0
  0
SOLID
  5
AEA
330
6E1
100
AcDbEntity
  8
5
100
AcDbTrace
 10
200.1044340743258
 20
215.1863454416628
 30
0.0
 11
200.9377674076592
 21
215.1863454416628
 31
0.0
 12
200.5211007409925
 22
217.6863454416628
 32
0.0
 13
200.5211007409925
 23
217.6863454416628
 33
0.0
  0
SOLID
  5
AEB
330
6E1
100
AcDbEntity
  8
5
100
AcDbTrace
 10
200.1044340743258
 20
225.1863454416628
 30
0.0
 11
200.9377674076592
 21
225.1863454416628
 31
0.0
 12
200.5211007409925
 22
222.6863454416628
 32
0.0
 13
200.5211007409925
 23
222.6863454416628
 33
0.0
  0
MTEXT
  5
AEC
330
6E1
100
AcDbEntity
  8
5
 62
     2
100
AcDbMText
 10
198.1711007409924
 20
229.4530121083295
 30
0.0
 40
3.5
 41
0.0
 71
     5
 72
     1
  1
5
 11
0.0000000000000001
 21
1.0
 31
0.0
 73
     1
 44
1.0
1001
ACAD
1000
MTEXTBEGIN
1070
    73
1070
     1
1070
    44
1040
1.0
1070
    74
1070
     0
1000
MTEXTEND
  0
POINT
  5
AED
330
6E1
100
AcDbEntity
  8
Defpoints
 62
     0
100
AcDbPoint
 10
186.904848551247
 20
222.6863454416628
 30
0.0
  0
POINT
  5
AEE
330
6E1
100
AcDbEntity
  8
Defpoints
 62
     0
100
AcDbPoint
 10
186.904848551247
 20
217.6863454416628
 30
0.0
  0
POINT
  5
AEF
330
6E1
100
AcDbEntity
  8
Defpoints
 62
     0
100
AcDbPoint
 10
200.5211007409925
 20
217.6863454416628
 30
0.0
  0
ENDBLK
  5
6EE
330
6E1
100
AcDbEntity
  8
0
100
AcDbBlockEnd
  0
BLOCK
  5
6F9
330
6EF
100
AcDbEntity
  8
0
100
AcDbBlockBegin
  2
*D17
 70
     1
 10
0.0
 20
0.0
 30
0.0
  3
*D17
  1

  0
LINE
  5
AF0
330
6EF
100
AcDbEntity
  8
5
370
    -2
100
AcDbLine
 10
186.904848551247
 20
223.6863454416628
 30
0.0
 11
186.904848551247
 21
235.5553306070142
 31
0.0
  0
LINE
  5
AF1
330
6EF
100
AcDbEntity
  8
5
370
    -2
100
AcDbLine
 10
59.70625138533016
 20
223.6863454416646
 30
0.0
 11
59.70625138533016
 21
235.5553306070142
 31
0.0
  0
LINE
  5
AF2
330
6EF
100
AcDbEntity
  8
5
370
    -2
100
AcDbLine
 10
184.404848551247
 20
234.5553306070142
 30
0.0
 11
62.20625138533016
 21
234.5553306070142
 31
0.0
  0
SOLID
  5
AF3
330
6EF
100
AcDbEntity
  8
5
100
AcDbTrace
 10
184.404848551247
 20
234.9719972736809
 30
0.0
 11
184.404848551247
 21
234.1386639403475
 31
0.0
 12
186.904848551247
 22
234.5553306070142
 32
0.0
 13
186.904848551247
 23
234.5553306070142
 33
0.0
  0
SOLID
  5
AF4
330
6EF
100
AcDbEntity
  8
5
100
AcDbTrace
 10
62.20625138533016
 20
234.9719972736809
 30
0.0
 11
62.20625138533016
 21
234.1386639403475
 31
0.0
 12
59.70625138533016
 22
234.5553306070142
 32
0.0
 13
59.70625138533016
 23
234.5553306070142
 33
0.0
  0
MTEXT
  5
AF5
330
6EF
100
AcDbEntity
  8
5
 62
     2
100
AcDbMText
 10
123.3055499682885
 20
236.9053306070142
 30
0.0
 40
3.5
 41
0.0
 71
     5
 72
     1
  1
%%c127.2
 73
     1
 44
1.0
1001
ACAD
1000
MTEXTBEGIN
1070
    73
1070
     1
1070
    44
1040
1.0
1070
    74
1070
     0
1000
MTEXTEND
  0
POINT
  5
AF6
330
6EF
100
AcDbEntity
  8
Defpoints
 62
     0
100
AcDbPoint
 10
186.904848551247
 20
222.6863454416628
 30
0.0
  0
POINT
  5
AF7
330
6EF
100
AcDbEntity
  8
Defpoints
 62
     0
100
AcDbPoint
 10
59.70625138533016
 20
222.6863454416645
 30
0.0
  0
POINT
  5
AF8
330
6EF
100
AcDbEntity
  8
Defpoints
 62
     0
100
AcDbPoint
 10
59.70625138533016
 20
234.5553306070142
 30
0.0
  0
ENDBLK
  5
6FA
330
6EF
100
AcDbEntity
  8
0
100
AcDbBlockEnd
  0
BLOCK
  5
7B5
330
7AA
100
AcDbEntity
  8
0
100
AcDbBlockBegin
  2
*D18
 70
     1
 10
0.0
 20
0.0
 30
0.0
  3
*D18
  1

  0
LINE
  5
80F
330
7AA
100
AcDbEntity
  8
5
370
    -2
100
AcDbLine
 10
121.929222675778
 20
114.9853745574522
 30
0.0
 11
42.51731793337427
 21
114.9853745574522
 31
0.0
  0
LINE
  5
810
330
7AA
100
AcDbEntity
  8
5
370
    -2
100
AcDbLine
 10
91.36330971419567
 20
79.9265703811027
 30
0.0
 11
42.51731793337426
 21
79.9265703811027
 31
0.0
  0
LINE
  5
811
330
7AA
100
AcDbEntity
  8
5
370
    -2
100
AcDbLine
 10
43.51731793337427
 20
112.4853745574522
 30
0.0
 11
43.51731793337427
 21
82.42657038110271
 31
0.0
  0
SOLID
  5
812
330
7AA
100
AcDbEntity
  8
5
100
AcDbTrace
 10
43.10065126670761
 20
112.4853745574522
 30
0.0
 11
43.93398460004094
 21
112.4853745574522
 31
0.0
 12
43.51731793337427
 22
114.9853745574522
 32
0.0
 13
43.51731793337427
 23
114.9853745574522
 33
0.0
  0
SOLID
  5
813
330
7AA
100
AcDbEntity
  8
5
100
AcDbTrace
 10
43.1006512667076
 20
82.42657038110271
 30
0.0
 11
43.93398460004093
 21
82.42657038110271
 31
0.0
 12
43.51731793337426
 22
79.9265703811027
 32
0.0
 13
43.51731793337426
 23
79.9265703811027
 33
0.0
  0
MTEXT
  5
814
330
7AA
100
AcDbEntity
  8
5
 62
     2
100
AcDbMText
 10
41.16731793337425
 20
97.45597246927751
 30
0.0
 40
3.5
 41
0.0
 71
     5
 72
     1
  1
35
 11
0.0000000000000001
 21
1.0
 31
0.0
 73
     1
 44
1.0
1001
ACAD
1000
MTEXTBEGIN
1070
    73
1070
     1
1070
    44
1040
1.0
1070
    74
1070
     0
1000
MTEXTEND
  0
POINT
  5
815
330
7AA
100
AcDbEntity
  8
Defpoints
 62
     0
100
AcDbPoint
 10
122.929222675778
 20
114.9853745574522
 30
0.0
  0
POINT
  5
816
330
7AA
100
AcDbEntity
  8
Defpoints
 62
     0
100
AcDbPoint
 10
92.36330971419567
 20
79.9265703811027
 30
0.0
  0
POINT
  5
817
330
7AA
100
AcDbEntity
  8
Defpoints
 62
     0
100
AcDbPoint
 10
43.51731793337426
 20
79.9265703811027
 30
0.0
  0
ENDBLK
  5
7B6
330
7AA
100
AcDbEntity
  8
0
100
AcDbBlockEnd
  0
BLOCK
  5
7E1
330
7D6
100
AcDbEntity
  8
0
100
AcDbBlockBegin
  2
*D19
 70
     1
 10
0.0
 20
0.0
 30
0.0
  3
*D19
  1

  0
LINE
  5
82E
330
7D6
100
AcDbEntity
  8
5
370
    -2
100
AcDbLine
 10
122.929222675778
 20
113.9853745574522
 30
0.0
 11
122.929222675778
 21
33.72510851970847
 31
0.0
  0
LINE
  5
82F
330
7D6
100
AcDbEntity
  8
5
370
    -2
100
AcDbLine
 10
92.36330971419567
 20
78.92657038110271
 30
0.0
 11
92.36330971419567
 21
33.72510851970847
 31
0.0
  0
LINE
  5
830
330
7D6
100
AcDbEntity
  8
5
370
    -2
100
AcDbLine
 10
120.429222675778
 20
34.72510851970847
 30
0.0
 11
94.86330971419567
 21
34.72510851970847
 31
0.0
  0
SOLID
  5
831
330
7D6
100
AcDbEntity
  8
5
100
AcDbTrace
 10
120.429222675778
 20
35.14177518637513
 30
0.0
 11
120.429222675778
 21
34.30844185304181
 31
0.0
 12
122.929222675778
 22
34.72510851970847
 32
0.0
 13
122.929222675778
 23
34.72510851970847
 33
0.0
  0
SOLID
  5
832
330
7D6
100
AcDbEntity
  8
5
100
AcDbTrace
 10
94.86330971419567
 20
35.14177518637513
 30
0.0
 11
94.86330971419567
 21
34.30844185304181
 31
0.0
 12
92.36330971419567
 22
34.72510851970847
 32
0.0
 13
92.36330971419567
 23
34.72510851970847
 33
0.0
  0
MTEXT
  5
833
330
7D6
100
AcDbEntity
  8
5
 62
     2
100
AcDbMText
 10
107.6462661949868
 20
37.07510851970847
 30
0.0
 40
3.5
 41
0.0
 71
     5
 72
     1
  1
30.5
 73
     1
 44
1.0
1001
ACAD
1000
MTEXTBEGIN
1070
    73
1070
     1
1070
    44
1040
1.0
1070
    74
1070
     0
1000
MTEXTEND
  0
POINT
  5
834
330
7D6
100
AcDbEntity
  8
Defpoints
 62
     0
100
AcDbPoint
 10
122.929222675778
 20
114.9853745574522
 30
0.0
  0
POINT
  5
835
330
7D6
100
AcDbEntity
  8
Defpoints
 62
     0
100
AcDbPoint
 10
92.36330971419567
 20
79.9265703811027
 30
0.0
  0
POINT
  5
836
330
7D6
100
AcDbEntity
  8
Defpoints
 62
     0
100
AcDbPoint
 10
92.36330971419567
 20
34.72510851970847
 30
0.0
  0
ENDBLK
  5
7E2
330
7D6
100
AcDbEntity
  8
0
100
AcDbBlockEnd
  0
BLOCK
  5
B7F
330
B74
100
AcDbEntity
  8
0
100
AcDbBlockBegin
  2
*S20
 70
     1
 10
0.0
 20
0.0
 30
0.0
  3
*S20
  1

  0
LINE
  5
B75
330
B74
100
AcDbEntity
  8
AM_5
 62
     3
100
AcDbLine
 10
180.3419829987197
 20
207.553589776285
 30
0.0
 11
177.9419829987196
 21
207.553589776285
 31
0.0
  0
LINE
  5
B76
330
B74
100
AcDbEntity
  8
AM_5
 62
     3
100
AcDbLine
 10
177.9419829987196
 20
207.553589776285
 30
0.0
 11
177.9419829987196
 21
215.2863454416634
 31
0.0
  0
TRACE
  5
B77
330
B74
100
AcDbEntity
  8
AM_5
  6
Continuous
 62
     3
100
AcDbTrace
 10
178.3419829971196
 20
215.2863454416634
 30
0.0
 11
177.5419830003196
 21
215.2863454416634
 31
0.0
 12
177.9419829987196
 22
217.6863454416634
 32
0.0
 13
177.9419829987196
 23
217.6863454416634
 33
0.0
  0
MTEXT
  5
B78
330
B74
100
AcDbEntity
  8
AM_5
 62
     2
100
AcDbMText
 10
182.7419829987197
 20
207.553589776285
 30
0.0
 40
2.399999999999999
 41
0.0
 71
     5
 72
     5
  1
c
  7
ACANSGDT
 73
     1
 44
1.0
1001
ACAD
1000
MTEXTBEGIN
1070
    73
1070
     1
1070
    44
1040
1.0
1070
    74
1070
     0
1000
MTEXTEND
  0
LINE
  5
B79
330
B74
100
AcDbEntity
  8
AM_5
 62
     2
100
AcDbLine
 10
185.1419829987197
 20
209.953589776285
 30
0.0
 11
185.1419829987197
 21
205.1535897762849
 31
0.0
  0
MTEXT
  5
B7A
330
B74
100
AcDbEntity
  8
AM_5
 62
     2
100
AcDbMText
 10
185.7419829987197
 20
207.553589776285
 30
0.0
 40
2.399999999999999
 41
0.0
 71
     4
 72
     5
  1
0.3
  7
ACANSTS
 73
     1
 44
1.0
1001
ACAD
1000
MTEXTBEGIN
1070
    73
1070
     1
1070
    44
1040
1.0
1070
    74
1070
     0
1000
MTEXTEND
  0
LINE
  5
B7B
330
B74
100
AcDbEntity
  8
AM_5
 62
     2
100
AcDbLine
 10
191.3705544272911
 20
209.953589776285
 30
0.0
 11
191.3705544272911
 21
205.1535897762849
 31
0.0
  0
LINE
  5
B7C
330
B74
100
AcDbEntity
  8
AM_5
 62
     2
100
AcDbLine
 10
180.3419829987197
 20
209.953589776285
 30
0.0
 11
191.3705544272911
 21
209.953589776285
 31
0.0
  0
LINE
  5
B7D
330
B74
100
AcDbEntity
  8
AM_5
 62
     2
100
AcDbLine
 10
180.3419829987197
 20
205.1535897762849
 30
0.0
 11
191.3705544272911
 21
205.1535897762849
 31
0.0
  0
LINE
  5
B7E
330
B74
100
AcDbEntity
  8
AM_5
 62
     2
100
AcDbLine
 10
180.3419829987197
 20
209.953589776285
 30
0.0
 11
180.3419829987197
 21
205.1535897762849
 31
0.0
  0
ENDBLK
  5
B80
330
B74
100
AcDbEntity
  8
0
100
AcDbBlockEnd
  0
ENDSEC
  0
SECTION
  2
ENTITIES
  0
POLYLINE
  5
2B
330
1F
100
AcDbEntity
  8
OHNE VERRIEGELUNG
100
AcDb2dPolyline
 66
     1
 10
0.0
 20
0.0
 30
0.0
  0
VERTEX
  5
2D
330
2B
100
AcDbEntity
  8
OHNE VERRIEGELUNG
100
AcDbVertex
100
AcDb2dVertex
 10
72.28814630884253
 20
91.09340076037836
 30
0.0
  0
VERTEX
  5
2E
330
2B
100
AcDbEntity
  8
OHNE VERRIEGELUNG
100
AcDbVertex
100
AcDb2dVertex
 10
90.4295943663188
 20
91.09340076037836
 30
0.0
 42
0.4142135623731128
  0
VERTEX
  5
2F
330
2B
100
AcDbEntity
  8
OHNE VERRIEGELUNG
100
AcDbVertex
100
AcDb2dVertex
 10
90.92959436631881
 20
91.59340076037835
 30
0.0
  0
VERTEX
  5
30
330
2B
100
AcDbEntity
  8
OHNE VERRIEGELUNG
100
AcDbVertex
100
AcDb2dVertex
 10
90.92959436631881
 20
96.09339791040667
 30
0.0
 42
0.4142135623730966
  0
VERTEX
  5
31
330
2B
100
AcDbEntity
  8
OHNE VERRIEGELUNG
100
AcDbVertex
100
AcDb2dVertex
 10
90.4295943663188
 20
96.59339791040668
 30
0.0
  0
VERTEX
  5
32
330
2B
100
AcDbEntity
  8
OHNE VERRIEGELUNG
100
AcDbVertex
100
AcDb2dVertex
 10
72.28814630884253
 20
96.59339791040668
 30
0.0
 42
0.4142135623730921
  0
VERTEX
  5
33
330
2B
100
AcDbEntity
  8
OHNE VERRIEGELUNG
100
AcDbVertex
100
AcDb2dVertex
 10
71.78814630884253
 20
96.09339791040667
 30
0.0
  0
VERTEX
  5
34
330
2B
100
AcDbEntity
  8
OHNE VERRIEGELUNG
100
AcDbVertex
100
AcDb2dVertex
 10
71.78814630884253
 20
91.59340076037835
 30
0.0
 42
0.4142135623730774
  0
VERTEX
  5
35
330
2B
100
AcDbEntity
  8
OHNE VERRIEGELUNG
100
AcDbVertex
100
AcDb2dVertex
 10
72.2881463088425
 20
91.09340076037836
 30
0.0
  0
SEQEND
  5
2C
330
2B
100
AcDbEntity
  8
OHNE VERRIEGELUNG
  0
POLYLINE
  5
36
330
1F
100
AcDbEntity
  8
OHNE VERRIEGELUNG
100
AcDb2dPolyline
 66
     1
 10
0.0
 20
0.0
 30
0.0
  0
VERTEX
  5
38
330
36
100
AcDbEntity
  8
OHNE VERRIEGELUNG
100
AcDbVertex
100
AcDb2dVertex
 10
129.6827862387387
 20
138.9483553398215
 30
0.0
  0
VERTEX
  5
39
330
36
100
AcDbEntity
  8
OHNE VERRIEGELUNG
100
AcDbVertex
100
AcDb2dVertex
 10
173.4579916761846
 20
138.9483553398217
 30
0.0
 42
-0.4142135623728306
  0
VERTEX
  5
3A
330
36
100
AcDbEntity
  8
OHNE VERRIEGELUNG
100
AcDbVertex
100
AcDb2dVertex
 10
173.9579916761841
 20
138.4483553398217
 30
0.0
  0
VERTEX
  5
3B
330
36
100
AcDbEntity
  8
OHNE VERRIEGELUNG
100
AcDbVertex
100
AcDb2dVertex
 10
173.9579916761841
 20
133.9483551871285
 30
0.0
 42
-0.4142135623731146
  0
VERTEX
  5
3C
330
36
100
AcDbEntity
  8
OHNE VERRIEGELUNG
100
AcDbVertex
100
AcDb2dVertex
 10
173.4579916761841
 20
133.4483551871284
 30
0.0
  0
VERTEX
  5
3D
330
36
100
AcDbEntity
  8
OHNE VERRIEGELUNG
100
AcDbVertex
100
AcDb2dVertex
 10
122.1119408041082
 20
133.4483551871284
 30
0.0
 42
-0.4142135623730951
  0
VERTEX
  5
3E
330
36
100
AcDbEntity
  8
OHNE VERRIEGELUNG
100
AcDbVertex
100
AcDb2dVertex
 10
121.6119408041082
 20
133.9483551871284
 30
0.0
  0
VERTEX
  5
3F
330
36
100
AcDbEntity
  8
OHNE VERRIEGELUNG
100
AcDbVertex
100
AcDb2dVertex
 10
121.6119408041082
 20
138.4483553398216
 30
0.0
 42
-0.4142135623728242
  0
VERTEX
  5
40
330
36
100
AcDbEntity
  8
OHNE VERRIEGELUNG
100
AcDbVertex
100
AcDb2dVertex
 10
122.1119408041078
 20
138.9483553398215
 30
0.0
  0
VERTEX
  5
41
330
36
100
AcDbEntity
  8
OHNE VERRIEGELUNG
100
AcDbVertex
100
AcDb2dVertex
 10
129.6827862387387
 20
138.9483553398215
 30
0.0
  0
SEQEND
  5
37
330
36
100
AcDbEntity
  8
OHNE VERRIEGELUNG
  0
POLYLINE
  5
42
330
1F
100
AcDbEntity
  8
OHNE VERRIEGELUNG
100
AcDb2dPolyline
 66
     1
 10
0.0
 20
0.0
 30
0.0
  0
VERTEX
  5
44
330
42
100
AcDbEntity
  8
OHNE VERRIEGELUNG
100
AcDbVertex
100
AcDb2dVertex
 10
143.4280641606448
 20
161.9521777116666
 30
0.0
  0
VERTEX
  5
45
330
42
100
AcDbEntity
  8
OHNE VERRIEGELUNG
100
AcDbVertex
100
AcDb2dVertex
 10
143.4280641606448
 20
166.4521766941786
 30
0.0
 42
0.4142135623730951
  0
VERTEX
  5
46
330
42
100
AcDbEntity
  8
OHNE VERRIEGELUNG
100
AcDbVertex
100
AcDb2dVertex
 10
142.9280641606447
 20
166.9521766941786
 30
0.0
  0
VERTEX
  5
47
330
42
100
AcDbEntity
  8
OHNE VERRIEGELUNG
100
AcDbVertex
100
AcDb2dVertex
 10
102.9496414790488
 20
166.9521766941786
 30
0.0
 42
0.4142135623730951
  0
VERTEX
  5
48
330
42
100
AcDbEntity
  8
OHNE VERRIEGELUNG
100
AcDbVertex
100
AcDb2dVertex
 10
102.4496414790488
 20
166.4521766941786
 30
0.0
  0
VERTEX
  5
49
330
42
100
AcDbEntity
  8
OHNE VERRIEGELUNG
100
AcDbVertex
100
AcDb2dVertex
 10
102.4496414790488
 20
161.9521777116666
 30
0.0
 42
0.4142135623730951
  0
VERTEX
  5
4A
330
42
100
AcDbEntity
  8
OHNE VERRIEGELUNG
100
AcDbVertex
100
AcDb2dVertex
 10
102.9496414790488
 20
161.4521777116667
 30
0.0
  0
VERTEX
  5
4B
330
42
100
AcDbEntity
  8
OHNE VERRIEGELUNG
100
AcDbVertex
100
AcDb2dVertex
 10
142.9280641606447
 20
161.4521777116667
 30
0.0
 42
0.4142135623730951
  0
VERTEX
  5
4C
330
42
100
AcDbEntity
  8
OHNE VERRIEGELUNG
100
AcDbVertex
100
AcDb2dVertex
 10
143.4280641606448
 20
161.9521777116666
 30
0.0
  0
SEQEND
  5
43
330
42
100
AcDbEntity
  8
OHNE VERRIEGELUNG
  0
POLYLINE
  5
4D
330
1F
100
AcDbEntity
  8
OHNE VERRIEGELUNG
100
AcDb2dPolyline
 66
     1
 10
0.0
 20
0.0
 30
0.0
  0
VERTEX
  5
4F
330
4D
100
AcDbEntity
  8
OHNE VERRIEGELUNG
100
AcDbVertex
100
AcDb2dVertex
 10
166.2793017512104
 20
119.4483730330522
 30
0.0
  0
VERTEX
  5
50
330
4D
100
AcDbEntity
  8
OHNE VERRIEGELUNG
100
AcDbVertex
100
AcDb2dVertex
 10
177.4029781203145
 20
119.4483730330522
 30
0.0
 42
0.4142135623730951
  0
VERTEX
  5
51
330
4D
100
AcDbEntity
  8
OHNE VERRIEGELUNG
100
AcDbVertex
100
AcDb2dVertex
 10
177.9029781203145
 20
119.9483730330522
 30
0.0
  0
VERTEX
  5
52
330
4D
100
AcDbEntity
  8
OHNE VERRIEGELUNG
100
AcDbVertex
100
AcDb2dVertex
 10
177.9029781203145
 20
124.4483551894419
 30
0.0
 42
0.4142135623730749
  0
VERTEX
  5
53
330
4D
100
AcDbEntity
  8
OHNE VERRIEGELUNG
100
AcDbVertex
100
AcDb2dVertex
 10
177.4029781203145
 20
124.9483551894419
 30
0.0
  0
VERTEX
  5
54
330
4D
100
AcDbEntity
  8
OHNE VERRIEGELUNG
100
AcDbVertex
100
AcDb2dVertex
 10
166.2793017512104
 20
124.9483551894419
 30
0.0
 42
0.4142135623732094
  0
VERTEX
  5
55
330
4D
100
AcDbEntity
  8
OHNE VERRIEGELUNG
100
AcDbVertex
100
AcDb2dVertex
 10
165.7793017512104
 20
124.4483551894417
 30
0.0
  0
VERTEX
  5
56
330
4D
100
AcDbEntity
  8
OHNE VERRIEGELUNG
100
AcDbVertex
100
AcDb2dVertex
 10
165.77930175121
 20
119.9483730330522
 30
0.0
 42
0.4142135623733634
  0
VERTEX
  5
57
330
4D
100
AcDbEntity
  8
OHNE VERRIEGELUNG
100
AcDbVertex
100
AcDb2dVertex
 10
166.2793017512104
 20
119.4483730330522
 30
0.0
  0
SEQEND
  5
4E
330
4D
100
AcDbEntity
  8
OHNE VERRIEGELUNG
  0
POLYLINE
  5
58
330
1F
100
AcDbEntity
  8
OHNE VERRIEGELUNG
100
AcDb2dPolyline
 66
     1
 10
0.0
 20
0.0
 30
0.0
  0
VERTEX
  5
5A
330
58
100
AcDbEntity
  8
OHNE VERRIEGELUNG
100
AcDbVertex
100
AcDb2dVertex
 10
68.43524277736069
 20
119.4483552126117
 30
0.0
  0
VERTEX
  5
5B
330
58
100
AcDbEntity
  8
OHNE VERRIEGELUNG
100
AcDbVertex
100
AcDb2dVertex
 10
121.1793017512101
 20
119.4483552126118
 30
0.0
 42
0.4142135623730951
  0
VERTEX
  5
5C
330
58
100
AcDbEntity
  8
OHNE VERRIEGELUNG
100
AcDbVertex
100
AcDb2dVertex
 10
121.6793017512101
 20
119.9483552126118
 30
0.0
  0
VERTEX
  5
5D
330
58
100
AcDbEntity
  8
OHNE VERRIEGELUNG
100
AcDbVertex
100
AcDb2dVertex
 10
121.6793017512101
 20
124.4483551880245
 30
0.0
 42
0.4142135623730779
  0
VERTEX
  5
5E
330
58
100
AcDbEntity
  8
OHNE VERRIEGELUNG
100
AcDbVertex
100
AcDb2dVertex
 10
121.1793017512101
 20
124.9483551880245
 30
0.0
  0
VERTEX
  5
5F
330
58
100
AcDbEntity
  8
OHNE VERRIEGELUNG
100
AcDbVertex
100
AcDb2dVertex
 10
68.43524277736069
 20
124.9483551880245
 30
0.0
 42
0.414213562373107
  0
VERTEX
  5
60
330
58
100
AcDbEntity
  8
OHNE VERRIEGELUNG
100
AcDbVertex
100
AcDb2dVertex
 10
67.93524277736068
 20
124.4483551880245
 30
0.0
  0
VERTEX
  5
61
330
58
100
AcDbEntity
  8
OHNE VERRIEGELUNG
100
AcDbVertex
100
AcDb2dVertex
 10
67.93524277736068
 20
119.9483552126118
 30
0.0
 42
0.4142135623731204
  0
VERTEX
  5
62
330
58
100
AcDbEntity
  8
OHNE VERRIEGELUNG
100
AcDbVertex
100
AcDb2dVertex
 10
68.43524277736071
 20
119.4483552126118
 30
0.0
  0
SEQEND
  5
59
330
58
100
AcDbEntity
  8
OHNE VERRIEGELUNG
  0
POLYLINE
  5
63
330
1F
100
AcDbEntity
  8
OHNE VERRIEGELUNG
100
AcDb2dPolyline
 66
     1
 10
0.0
 20
0.0
 30
0.0
  0
VERTEX
  5
65
330
63
100
AcDbEntity
  8
OHNE VERRIEGELUNG
100
AcDbVertex
100
AcDb2dVertex
 10
88.93278623873877
 20
133.4483552201224
 30
0.0
  0
VERTEX
  5
66
330
63
100
AcDbEntity
  8
OHNE VERRIEGELUNG
100
AcDbVertex
100
AcDb2dVertex
 10
102.1119408041077
 20
133.4483552201224
 30
0.0
 42
0.4142135623733583
  0
VERTEX
  5
67
330
63
100
AcDbEntity
  8
OHNE VERRIEGELUNG
100
AcDbVertex
100
AcDb2dVertex
 10
102.6119408041082
 20
133.9483552201224
 30
0.0
  0
VERTEX
  5
68
330
63
100
AcDbEntity
  8
OHNE VERRIEGELUNG
100
AcDbVertex
100
AcDb2dVertex
 10
102.6119408041082
 20
138.4483552095166
 30
0.0
 42
0.4142135623730786
  0
VERTEX
  5
69
330
63
100
AcDbEntity
  8
OHNE VERRIEGELUNG
100
AcDbVertex
100
AcDb2dVertex
 10
102.1119408041082
 20
138.9483552095165
 30
0.0
  0
VERTEX
  5
6A
330
63
100
AcDbEntity
  8
OHNE VERRIEGELUNG
100
AcDbVertex
100
AcDb2dVertex
 10
72.40045367536376
 20
138.9483552095165
 30
0.0
 42
0.4142135623731333
  0
VERTEX
  5
6B
330
63
100
AcDbEntity
  8
OHNE VERRIEGELUNG
100
AcDbVertex
100
AcDb2dVertex
 10
71.90045367536376
 20
138.4483552095164
 30
0.0
  0
VERTEX
  5
6C
330
63
100
AcDbEntity
  8
OHNE VERRIEGELUNG
100
AcDbVertex
100
AcDb2dVertex
 10
71.90045367536376
 20
133.9483552201223
 30
0.0
 42
0.4142135623730807
  0
VERTEX
  5
6D
330
63
100
AcDbEntity
  8
OHNE VERRIEGELUNG
100
AcDbVertex
100
AcDb2dVertex
 10
72.40045367536376
 20
133.4483552201224
 30
0.0
  0
VERTEX
  5
6E
330
63
100
AcDbEntity
  8
OHNE VERRIEGELUNG
100
AcDbVertex
100
AcDb2dVertex
 10
88.93278623873877
 20
133.4483552201224
 30
0.0
  0
SEQEND
  5
64
330
63
100
AcDbEntity
  8
OHNE VERRIEGELUNG
  0
POLYLINE
  5
81
330
1F
100
AcDbEntity
  8
OHNE VERRIEGELUNG
100
AcDb2dPolyline
 66
     1
 10
0.0
 20
0.0
 30
0.0
  0
VERTEX
  5
83
330
81
100
AcDbEntity
  8
OHNE VERRIEGELUNG
100
AcDbVertex
100
AcDb2dVertex
 10
136.371890432552
 20
82.08959593958173
 30
0.0
  0
VERTEX
  5
84
330
81
100
AcDbEntity
  8
OHNE VERRIEGELUNG
100
AcDbVertex
100
AcDb2dVertex
 10
136.371890432552
 20
77.58961374225791
 30
0.0
 42
-0.4142135623731108
  0
VERTEX
  5
85
330
81
100
AcDbEntity
  8
OHNE VERRIEGELUNG
100
AcDbVertex
100
AcDb2dVertex
 10
135.871890432552
 20
77.08961374225788
 30
0.0
  0
VERTEX
  5
86
330
81
100
AcDbEntity
  8
OHNE VERRIEGELUNG
100
AcDbVertex
100
AcDb2dVertex
 10
108.1119408041091
 20
77.08961374225793
 30
0.0
 42
-0.4142135623733278
  0
VERTEX
  5
87
330
81
100
AcDbEntity
  8
OHNE VERRIEGELUNG
100
AcDbVertex
100
AcDb2dVertex
 10
107.6119408041087
 20
77.58961374225794
 30
0.0
  0
VERTEX
  5
88
330
81
100
AcDbEntity
  8
OHNE VERRIEGELUNG
100
AcDbVertex
100
AcDb2dVertex
 10
107.6119408041087
 20
82.08959593958173
 30
0.0
 42
-0.4142135623730915
  0
VERTEX
  5
89
330
81
100
AcDbEntity
  8
OHNE VERRIEGELUNG
100
AcDbVertex
100
AcDb2dVertex
 10
108.1119408041087
 20
82.58959593958172
 30
0.0
  0
VERTEX
  5
8A
330
81
100
AcDbEntity
  8
OHNE VERRIEGELUNG
100
AcDbVertex
100
AcDb2dVertex
 10
135.871890432552
 20
82.58959593958167
 30
0.0
 42
-0.414213562373075
  0
VERTEX
  5
8B
330
81
100
AcDbEntity
  8
OHNE VERRIEGELUNG
100
AcDbVertex
100
AcDb2dVertex
 10
136.371890432552
 20
82.08959593958169
 30
0.0
  0
SEQEND
  5
82
330
81
100
AcDbEntity
  8
OHNE VERRIEGELUNG
  0
LINE
  5
94
330
1F
100
AcDbEntity
  8
OHNE VERRIEGELUNG
100
AcDbLine
 10
173.9837451698391
 20
105.0934229379271
 30
0.0
 11
153.5375741090784
 21
105.0934008067698
 31
0.0
  0
POLYLINE
  5
95
330
1F
100
AcDbEntity
  8
OHNE VERRIEGELUNG
100
AcDb2dPolyline
 66
     1
 10
0.0
 20
0.0
 30
0.0
  0
VERTEX
  5
97
330
95
100
AcDbEntity
  8
OHNE VERRIEGELUNG
100
AcDbVertex
100
AcDb2dVertex
 10
170.5002053155572
 20
105.0934229379271
 30
0.0
  0
VERTEX
  5
98
330
95
100
AcDbEntity
  8
OHNE VERRIEGELUNG
100
AcDbVertex
100
AcDb2dVertex
 10
177.4672850241214
 20
105.0934229379271
 30
0.0
 42
0.4142135623730951
  0
VERTEX
  5
99
330
95
100
AcDbEntity
  8
OHNE VERRIEGELUNG
100
AcDbVertex
100
AcDb2dVertex
 10
177.9672850241214
 20
105.5934229379271
 30
0.0
  0
VERTEX
  5
9A
330
95
100
AcDbEntity
  8
OHNE VERRIEGELUNG
100
AcDbVertex
100
AcDb2dVertex
 10
177.9672850241214
 20
110.0933873085597
 30
0.0
 42
0.4142135623728255
  0
VERTEX
  5
9B
330
95
100
AcDbEntity
  8
OHNE VERRIEGELUNG
100
AcDbVertex
100
AcDb2dVertex
 10
177.4672850241219
 20
110.5933873085597
 30
0.0
  0
VERTEX
  5
9C
330
95
100
AcDbEntity
  8
OHNE VERRIEGELUNG
100
AcDbVertex
100
AcDb2dVertex
 10
170.5002053155568
 20
110.5933873085597
 30
0.0
  0
SEQEND
  5
96
330
95
100
AcDbEntity
  8
OHNE VERRIEGELUNG
  0
POLYLINE
  5
9D
330
1F
100
AcDbEntity
  8
OHNE VERRIEGELUNG
100
AcDb2dPolyline
 66
     1
 10
0.0
 20
0.0
 30
0.0
  0
VERTEX
  5
9F
330
9D
100
AcDbEntity
  8
OHNE VERRIEGELUNG
100
AcDbVertex
100
AcDb2dVertex
 10
82.25020531547816
 20
105.5934008067698
 30
0.0
 42
0.4142135623730966
  0
VERTEX
  5
A0
330
9D
100
AcDbEntity
  8
OHNE VERRIEGELUNG
100
AcDbVertex
100
AcDb2dVertex
 10
82.75020531547815
 20
105.0934008067698
 30
0.0
  0
VERTEX
  5
A1
330
9D
100
AcDbEntity
  8
OHNE VERRIEGELUNG
100
AcDbVertex
100
AcDb2dVertex
 10
134.8674348074747
 20
105.0934008067698
 30
0.0
 42
0.4142135623730951
  0
VERTEX
  5
A2
330
9D
100
AcDbEntity
  8
OHNE VERRIEGELUNG
100
AcDbVertex
100
AcDb2dVertex
 10
135.3674348074747
 20
105.5934008067698
 30
0.0
  0
VERTEX
  5
A3
330
9D
100
AcDbEntity
  8
OHNE VERRIEGELUNG
100
AcDbVertex
100
AcDb2dVertex
 10
135.3674348074747
 20
110.0934008620661
 30
0.0
 42
0.4142135623730338
  0
VERTEX
  5
A4
330
9D
100
AcDbEntity
  8
OHNE VERRIEGELUNG
100
AcDbVertex
100
AcDb2dVertex
 10
134.8674348074747
 20
110.593400862066
 30
0.0
  0
VERTEX
  5
A5
330
9D
100
AcDbEntity
  8
OHNE VERRIEGELUNG
100
AcDbVertex
100
AcDb2dVertex
 10
82.75020531547815
 20
110.593400862066
 30
0.0
 42
0.4142135623730915
  0
VERTEX
  5
A6
330
9D
100
AcDbEntity
  8
OHNE VERRIEGELUNG
100
AcDbVertex
100
AcDb2dVertex
 10
82.25020531547816
 20
110.093400862066
 30
0.0
  0
VERTEX
  5
A7
330
9D
100
AcDbEntity
  8
OHNE VERRIEGELUNG
100
AcDbVertex
100
AcDb2dVertex
 10
82.25020531547816
 20
105.5934008067698
 30
0.0
  0
SEQEND
  5
9E
330
9D
100
AcDbEntity
  8
OHNE VERRIEGELUNG
  0
POLYLINE
  5
A8
330
1F
100
AcDbEntity
  8
OHNE VERRIEGELUNG
100
AcDb2dPolyline
 66
     1
 10
0.0
 20
0.0
 30
0.0
  0
VERTEX
  5
AA
330
A8
100
AcDbEntity
  8
OHNE VERRIEGELUNG
100
AcDbVertex
100
AcDb2dVertex
 10
146.6827862387388
 20
82.58959593958172
 30
0.0
  0
VERTEX
  5
AB
330
A8
100
AcDbEntity
  8
OHNE VERRIEGELUNG
100
AcDbVertex
100
AcDb2dVertex
 10
141.8646182675184
 20
82.58959593958172
 30
0.0
 42
0.4142135623733571
  0
VERTEX
  5
AC
330
A8
100
AcDbEntity
  8
OHNE VERRIEGELUNG
100
AcDbVertex
100
AcDb2dVertex
 10
141.364618267518
 20
82.08959593958173
 30
0.0
  0
VERTEX
  5
AD
330
A8
100
AcDbEntity
  8
OHNE VERRIEGELUNG
100
AcDbVertex
100
AcDb2dVertex
 10
141.3646182675171
 20
77.58961374225794
 30
0.0
 42
0.4142135623730915
  0
VERTEX
  5
AE
330
A8
100
AcDbEntity
  8
OHNE VERRIEGELUNG
100
AcDbVertex
100
AcDb2dVertex
 10
141.8646182675171
 20
77.08961374225793
 30
0.0
  0
VERTEX
  5
AF
330
A8
100
AcDbEntity
  8
OHNE VERRIEGELUNG
100
AcDbVertex
100
AcDb2dVertex
 10
164.6318400609958
 20
77.08961374225793
 30
0.0
 42
0.4142135623728248
  0
VERTEX
  5
B0
330
A8
100
AcDbEntity
  8
OHNE VERRIEGELUNG
100
AcDbVertex
100
AcDb2dVertex
 10
165.1318400609953
 20
77.58961374225794
 30
0.0
  0
VERTEX
  5
B1
330
A8
100
AcDbEntity
  8
OHNE VERRIEGELUNG
100
AcDbVertex
100
AcDb2dVertex
 10
165.1318400609953
 20
82.08959593958173
 30
0.0
 42
0.4142135623730915
  0
VERTEX
  5
B2
330
A8
100
AcDbEntity
  8
OHNE VERRIEGELUNG
100
AcDbVertex
100
AcDb2dVertex
 10
164.6318400609953
 20
82.58959593958172
 30
0.0
  0
VERTEX
  5
B3
330
A8
100
AcDbEntity
  8
OHNE VERRIEGELUNG
100
AcDbVertex
100
AcDb2dVertex
 10
146.6827862387388
 20
82.58959593958172
 30
0.0
  0
SEQEND
  5
A9
330
A8
100
AcDbEntity
  8
OHNE VERRIEGELUNG
  0
POLYLINE
  5
B4
330
1F
100
AcDbEntity
  8
OHNE VERRIEGELUNG
100
AcDb2dPolyline
 66
     1
 10
0.0
 20
0.0
 30
0.0
  0
VERTEX
  5
B6
330
B4
100
AcDbEntity
  8
OHNE VERRIEGELUNG
100
AcDbVertex
100
AcDb2dVertex
 10
73.93278623873877
 20
105.0934008094442
 30
0.0
  0
VERTEX
  5
B7
330
B4
100
AcDbEntity
  8
OHNE VERRIEGELUNG
100
AcDbVertex
100
AcDb2dVertex
 10
76.75020531547861
 20
105.0934008094442
 30
0.0
 42
0.4142135623730915
  0
VERTEX
  5
B8
330
B4
100
AcDbEntity
  8
OHNE VERRIEGELUNG
100
AcDbVertex
100
AcDb2dVertex
 10
77.25020531547861
 20
105.5934008094442
 30
0.0
  0
VERTEX
  5
B9
330
B4
100
AcDbEntity
  8
OHNE VERRIEGELUNG
100
AcDbVertex
100
AcDb2dVertex
 10
77.25020531547861
 20
110.0934012750568
 30
0.0
 42
0.414213562373114
  0
VERTEX
  5
BA
330
B4
100
AcDbEntity
  8
OHNE VERRIEGELUNG
100
AcDbVertex
100
AcDb2dVertex
 10
76.75020531547861
 20
110.5934012750568
 30
0.0
  0
VERTEX
  5
BB
330
B4
100
AcDbEntity
  8
OHNE VERRIEGELUNG
100
AcDbVertex
100
AcDb2dVertex
 10
68.40002580397968
 20
110.5934012750568
 30
0.0
 42
0.4142135623730921
  0
VERTEX
  5
BC
330
B4
100
AcDbEntity
  8
OHNE VERRIEGELUNG
100
AcDbVertex
100
AcDb2dVertex
 10
67.90002580397967
 20
110.0934012750568
 30
0.0
  0
VERTEX
  5
BD
330
B4
100
AcDbEntity
  8
OHNE VERRIEGELUNG
100
AcDbVertex
100
AcDb2dVertex
 10
67.90002580397967
 20
105.5934008094442
 30
0.0
 42
0.414213562373098
  0
VERTEX
  5
BE
330
B4
100
AcDbEntity
  8
OHNE VERRIEGELUNG
100
AcDbVertex
100
AcDb2dVertex
 10
68.40002580397968
 20
105.0934008094442
 30
0.0
  0
VERTEX
  5
BF
330
B4
100
AcDbEntity
  8
OHNE VERRIEGELUNG
100
AcDbVertex
100
AcDb2dVertex
 10
73.93278623873877
 20
105.0934008094442
 30
0.0
  0
SEQEND
  5
B5
330
B4
100
AcDbEntity
  8
OHNE VERRIEGELUNG
  0
LINE
  5
C0
330
1F
100
AcDbEntity
  8
OHNE VERRIEGELUNG
100
AcDbLine
 10
173.9837451698391
 20
110.5933873085597
 30
0.0
 11
153.3635219518156
 21
110.593400862066
 31
0.0
  0
POLYLINE
  5
C1
330
1F
100
AcDbEntity
  8
OHNE VERRIEGELUNG
100
AcDb2dPolyline
 66
     1
 10
0.0
 20
0.0
 30
0.0
  0
VERTEX
  5
C3
330
C1
100
AcDbEntity
  8
OHNE VERRIEGELUNG
100
AcDbVertex
100
AcDb2dVertex
 10
96.4295943664193
 20
91.09340135839067
 30
0.0
  0
VERTEX
  5
C4
330
C1
100
AcDbEntity
  8
OHNE VERRIEGELUNG
100
AcDbVertex
100
AcDb2dVertex
 10
159.7795943663196
 20
91.09340135839067
 30
0.0
 42
0.4142135623730779
  0
VERTEX
  5
C5
330
C1
100
AcDbEntity
  8
OHNE VERRIEGELUNG
100
AcDbVertex
100
AcDb2dVertex
 10
160.2795943663196
 20
91.59340135839068
 30
0.0
  0
VERTEX
  5
C6
330
C1
100
AcDbEntity
  8
OHNE VERRIEGELUNG
100
AcDbVertex
100
AcDb2dVertex
 10
160.2795943663196
 20
96.09342477443318
 30
0.0
 42
0.4142135623731081
  0
VERTEX
  5
C7
330
C1
100
AcDbEntity
  8
OHNE VERRIEGELUNG
100
AcDbVertex
100
AcDb2dVertex
 10
159.7795943663196
 20
96.59342477443317
 30
0.0
  0
VERTEX
  5
C8
330
C1
100
AcDbEntity
  8
OHNE VERRIEGELUNG
100
AcDbVertex
100
AcDb2dVertex
 10
96.4295943664193
 20
96.59342477443317
 30
0.0
 42
0.4142135623730951
  0
VERTEX
  5
C9
330
C1
100
AcDbEntity
  8
OHNE VERRIEGELUNG
100
AcDbVertex
100
AcDb2dVertex
 10
95.92959436641931
 20
96.09342477443318
 30
0.0
  0
VERTEX
  5
CA
330
C1
100
AcDbEntity
  8
OHNE VERRIEGELUNG
100
AcDbVertex
100
AcDb2dVertex
 10
95.92959436641931
 20
91.59340135839068
 30
0.0
 42
0.414213562373114
  0
VERTEX
  5
CB
330
C1
100
AcDbEntity
  8
OHNE VERRIEGELUNG
100
AcDbVertex
100
AcDb2dVertex
 10
96.42959436641934
 20
91.09340135839067
 30
0.0
  0
SEQEND
  5
C2
330
C1
100
AcDbEntity
  8
OHNE VERRIEGELUNG
  0
POLYLINE
  5
CC
330
1F
100
AcDbEntity
  8
OHNE VERRIEGELUNG
100
AcDb2dPolyline
 66
     1
 10
0.0
 20
0.0
 30
0.0
  0
VERTEX
  5
CE
330
CC
100
AcDbEntity
  8
OHNE VERRIEGELUNG
100
AcDbVertex
100
AcDb2dVertex
 10
165.7795943663196
 20
96.59340147441946
 30
0.0
  0
VERTEX
  5
CF
330
CC
100
AcDbEntity
  8
OHNE VERRIEGELUNG
100
AcDbVertex
100
AcDb2dVertex
 10
173.5611099842923
 20
96.59340147441946
 30
0.0
 42
-0.4142135623728277
  0
VERTEX
  5
D0
330
CC
100
AcDbEntity
  8
OHNE VERRIEGELUNG
100
AcDbVertex
100
AcDb2dVertex
 10
174.0611099842918
 20
96.09340147441947
 30
0.0
  0
VERTEX
  5
D1
330
CC
100
AcDbEntity
  8
OHNE VERRIEGELUNG
100
AcDbVertex
100
AcDb2dVertex
 10
174.0611099842918
 20
91.59340160583099
 30
0.0
 42
-0.4142135623730951
  0
VERTEX
  5
D2
330
CC
100
AcDbEntity
  8
OHNE VERRIEGELUNG
100
AcDbVertex
100
AcDb2dVertex
 10
173.5611099842918
 20
91.093401605831
 30
0.0
  0
VERTEX
  5
D3
330
CC
100
AcDbEntity
  8
OHNE VERRIEGELUNG
100
AcDbVertex
100
AcDb2dVertex
 10
165.7795943663196
 20
91.093401605831
 30
0.0
 42
-0.4142135623730951
  0
VERTEX
  5
D4
330
CC
100
AcDbEntity
  8
OHNE VERRIEGELUNG
100
AcDbVertex
100
AcDb2dVertex
 10
165.2795943663196
 20
91.59340160583099
 30
0.0
  0
VERTEX
  5
D5
330
CC
100
AcDbEntity
  8
OHNE VERRIEGELUNG
100
AcDbVertex
100
AcDb2dVertex
 10
165.2795943663196
 20
96.09340147441947
 30
0.0
 42
-0.4142135623730951
  0
VERTEX
  5
D6
330
CC
100
AcDbEntity
  8
OHNE VERRIEGELUNG
100
AcDbVertex
100
AcDb2dVertex
 10
165.7795943663196
 20
96.59340147441946
 30
0.0
  0
SEQEND
  5
CD
330
CC
100
AcDbEntity
  8
OHNE VERRIEGELUNG
  0
POLYLINE
  5
D8
330
1F
100
AcDbEntity
  8
OHNE VERRIEGELUNG
100
AcDb2dPolyline
 66
     1
 10
0.0
 20
0.0
 30
0.0
  0
VERTEX
  5
DA
330
D8
100
AcDbEntity
  8
OHNE VERRIEGELUNG
100
AcDbVertex
100
AcDb2dVertex
 10
127.1793017512101
 20
119.4483553847004
 30
0.0
  0
VERTEX
  5
DB
330
D8
100
AcDbEntity
  8
OHNE VERRIEGELUNG
100
AcDbVertex
100
AcDb2dVertex
 10
160.2793017512095
 20
119.4483553847005
 30
0.0
 42
0.4142135623733511
  0
VERTEX
  5
DC
330
D8
100
AcDbEntity
  8
OHNE VERRIEGELUNG
100
AcDbVertex
100
AcDb2dVertex
 10
160.77930175121
 20
119.9483553847005
 30
0.0
  0
VERTEX
  5
DD
330
D8
100
AcDbEntity
  8
OHNE VERRIEGELUNG
100
AcDbVertex
100
AcDb2dVertex
 10
160.77930175121
 20
124.4483551869599
 30
0.0
 42
0.4142135623730951
  0
VERTEX
  5
DE
330
D8
100
AcDbEntity
  8
OHNE VERRIEGELUNG
100
AcDbVertex
100
AcDb2dVertex
 10
160.27930175121
 20
124.9483551869599
 30
0.0
  0
VERTEX
  5
DF
330
D8
100
AcDbEntity
  8
OHNE VERRIEGELUNG
100
AcDbVertex
100
AcDb2dVertex
 10
127.1793017512096
 20
124.9483551869599
 30
0.0
 42
0.4142135623730951
  0
VERTEX
  5
E0
330
D8
100
AcDbEntity
  8
OHNE VERRIEGELUNG
100
AcDbVertex
100
AcDb2dVertex
 10
126.6793017512096
 20
124.4483551869599
 30
0.0
  0
VERTEX
  5
E1
330
D8
100
AcDbEntity
  8
OHNE VERRIEGELUNG
100
AcDbVertex
100
AcDb2dVertex
 10
126.6793017512096
 20
119.9483553847005
 30
0.0
 42
0.4142135623733634
  0
VERTEX
  5
E2
330
D8
100
AcDbEntity
  8
OHNE VERRIEGELUNG
100
AcDbVertex
100
AcDb2dVertex
 10
127.1793017512101
 20
119.4483553847005
 30
0.0
  0
SEQEND
  5
D9
330
D8
100
AcDbEntity
  8
OHNE VERRIEGELUNG
  0
POLYLINE
  5
E3
330
1F
100
AcDbEntity
  8
OHNE VERRIEGELUNG
100
AcDb2dPolyline
 66
     1
 10
0.0
 20
0.0
 30
0.0
  0
VERTEX
  5
E5
330
E3
100
AcDbEntity
  8
OHNE VERRIEGELUNG
100
AcDbVertex
100
AcDb2dVertex
 10
81.40459519667691
 20
147.4521607958223
 30
0.0
  0
VERTEX
  5
E6
330
E3
100
AcDbEntity
  8
OHNE VERRIEGELUNG
100
AcDbVertex
100
AcDb2dVertex
 10
98.73843266334834
 20
147.4521607958223
 30
0.0
 42
0.4142135623727434
  0
VERTEX
  5
E7
330
E3
100
AcDbEntity
  8
OHNE VERRIEGELUNG
100
AcDbVertex
100
AcDb2dVertex
 10
99.23843266334788
 20
147.9521607958222
 30
0.0
  0
VERTEX
  5
E8
330
E3
100
AcDbEntity
  8
OHNE VERRIEGELUNG
100
AcDbVertex
100
AcDb2dVertex
 10
99.23843266334788
 20
152.4521621394408
 30
0.0
 42
0.4142135623727564
  0
VERTEX
  5
E9
330
E3
100
AcDbEntity
  8
OHNE VERRIEGELUNG
100
AcDbVertex
100
AcDb2dVertex
 10
98.73843266334834
 20
152.9521621394407
 30
0.0
  0
VERTEX
  5
EA
330
E3
100
AcDbEntity
  8
OHNE VERRIEGELUNG
100
AcDbVertex
100
AcDb2dVertex
 10
81.40459519667691
 20
152.9521621394407
 30
0.0
 42
0.4142135623730915
  0
VERTEX
  5
EB
330
E3
100
AcDbEntity
  8
OHNE VERRIEGELUNG
100
AcDbVertex
100
AcDb2dVertex
 10
80.90459519667692
 20
152.4521621394407
 30
0.0
  0
VERTEX
  5
EC
330
E3
100
AcDbEntity
  8
OHNE VERRIEGELUNG
100
AcDbVertex
100
AcDb2dVertex
 10
80.90459519667692
 20
147.9521607958223
 30
0.0
 42
0.414213562373077
  0
VERTEX
  5
ED
330
E3
100
AcDbEntity
  8
OHNE VERRIEGELUNG
100
AcDbVertex
100
AcDb2dVertex
 10
81.40459519667695
 20
147.4521607958223
 30
0.0
  0
SEQEND
  5
E4
330
E3
100
AcDbEntity
  8
OHNE VERRIEGELUNG
  0
POLYLINE
  5
EE
330
1F
100
AcDbEntity
  8
OHNE VERRIEGELUNG
100
AcDb2dPolyline
 66
     1
 10
0.0
 20
0.0
 30
0.0
  0
VERTEX
  5
F0
330
EE
100
AcDbEntity
  8
OHNE VERRIEGELUNG
100
AcDbVertex
100
AcDb2dVertex
 10
104.7384326633474
 20
147.4521605399841
 30
0.0
  0
VERTEX
  5
F1
330
EE
100
AcDbEntity
  8
OHNE VERRIEGELUNG
100
AcDbVertex
100
AcDb2dVertex
 10
164.4538501548801
 20
147.4521605399842
 30
0.0
 42
0.4142135623730951
  0
VERTEX
  5
F2
330
EE
100
AcDbEntity
  8
OHNE VERRIEGELUNG
100
AcDbVertex
100
AcDb2dVertex
 10
164.9538501548801
 20
147.9521605399842
 30
0.0
  0
VERTEX
  5
F3
330
EE
100
AcDbEntity
  8
OHNE VERRIEGELUNG
100
AcDbVertex
100
AcDb2dVertex
 10
164.9538501548801
 20
152.4521608070778
 30
0.0
 42
0.4142135623728184
  0
VERTEX
  5
F4
330
EE
100
AcDbEntity
  8
OHNE VERRIEGELUNG
100
AcDbVertex
100
AcDb2dVertex
 10
164.4538501548805
 20
152.9521608070778
 30
0.0
  0
VERTEX
  5
F5
330
EE
100
AcDbEntity
  8
OHNE VERRIEGELUNG
100
AcDbVertex
100
AcDb2dVertex
 10
104.7384326633479
 20
152.9521608070778
 30
0.0
 42
0.4142135623730951
  0
VERTEX
  5
F6
330
EE
100
AcDbEntity
  8
OHNE VERRIEGELUNG
100
AcDbVertex
100
AcDb2dVertex
 10
104.2384326633479
 20
152.4521608070778
 30
0.0
  0
VERTEX
  5
F7
330
EE
100
AcDbEntity
  8
OHNE VERRIEGELUNG
100
AcDbVertex
100
AcDb2dVertex
 10
104.2384326633479
 20
147.9521605399841
 30
0.0
 42
0.4142135623728242
  0
VERTEX
  5
F8
330
EE
100
AcDbEntity
  8
OHNE VERRIEGELUNG
100
AcDbVertex
100
AcDb2dVertex
 10
104.7384326633474
 20
147.4521605399841
 30
0.0
  0
SEQEND
  5
EF
330
EE
100
AcDbEntity
  8
OHNE VERRIEGELUNG
  0
POLYLINE
  5
F9
330
1F
100
AcDbEntity
  8
OHNE VERRIEGELUNG
100
AcDb2dPolyline
 66
     1
 10
0.0
 20
0.0
 30
0.0
  0
VERTEX
  5
FB
330
F9
100
AcDbEntity
  8
OHNE VERRIEGELUNG
100
AcDbVertex
100
AcDb2dVertex
 10
107.6119408041087
 20
138.4483551975292
 30
0.0
  0
VERTEX
  5
FC
330
F9
100
AcDbEntity
  8
OHNE VERRIEGELUNG
100
AcDbVertex
100
AcDb2dVertex
 10
107.6119408041087
 20
133.9483564982412
 30
0.0
 42
0.4142135623730951
  0
VERTEX
  5
FD
330
F9
100
AcDbEntity
  8
OHNE VERRIEGELUNG
100
AcDbVertex
100
AcDb2dVertex
 10
108.1119408041087
 20
133.4483564982412
 30
0.0
  0
VERTEX
  5
FE
330
F9
100
AcDbEntity
  8
OHNE VERRIEGELUNG
100
AcDbVertex
100
AcDb2dVertex
 10
116.1119408041078
 20
133.4483564982412
 30
0.0
 42
0.4142135623733583
  0
VERTEX
  5
FF
330
F9
100
AcDbEntity
  8
OHNE VERRIEGELUNG
100
AcDbVertex
100
AcDb2dVertex
 10
116.6119408041082
 20
133.9483564982412
 30
0.0
  0
VERTEX
  5
100
330
F9
100
AcDbEntity
  8
OHNE VERRIEGELUNG
100
AcDbVertex
100
AcDb2dVertex
 10
116.6119408041082
 20
138.4483551975292
 30
0.0
 42
0.4142135623730951
  0
VERTEX
  5
101
330
F9
100
AcDbEntity
  8
OHNE VERRIEGELUNG
100
AcDbVertex
100
AcDb2dVertex
 10
116.1119408041082
 20
138.9483551975292
 30
0.0
  0
VERTEX
  5
102
330
F9
100
AcDbEntity
  8
OHNE VERRIEGELUNG
100
AcDbVertex
100
AcDb2dVertex
 10
108.1119408041087
 20
138.9483551975292
 30
0.0
 42
0.4142135623730951
  0
VERTEX
  5
103
330
F9
100
AcDbEntity
  8
OHNE VERRIEGELUNG
100
AcDbVertex
100
AcDb2dVertex
 10
107.6119408041087
 20
138.4483551975292
 30
0.0
  0
SEQEND
  5
FA
330
F9
100
AcDbEntity
  8
OHNE VERRIEGELUNG
  0
POLYLINE
  5
104
330
1F
100
AcDbEntity
  8
OHNE VERRIEGELUNG
100
AcDb2dPolyline
 66
     1
 10
0.0
 20
0.0
 30
0.0
  0
VERTEX
  5
106
330
104
100
AcDbEntity
  8
OHNE VERRIEGELUNG
100
AcDbVertex
100
AcDb2dVertex
 10
142.9152130898129
 20
68.52363298602734
 30
0.0
  0
VERTEX
  5
107
330
104
100
AcDbEntity
  8
OHNE VERRIEGELUNG
100
AcDbVertex
100
AcDb2dVertex
 10
102.9367904082169
 20
68.52363298602734
 30
0.0
 42
0.4142135623730655
  0
VERTEX
  5
108
330
104
100
AcDbEntity
  8
OHNE VERRIEGELUNG
100
AcDbVertex
100
AcDb2dVertex
 10
102.436790408217
 20
68.02363298602734
 30
0.0
  0
VERTEX
  5
109
330
104
100
AcDbEntity
  8
OHNE VERRIEGELUNG
100
AcDbVertex
100
AcDb2dVertex
 10
102.436790408217
 20
63.5236319686183
 30
0.0
 42
0.4142135623730921
  0
VERTEX
  5
10A
330
104
100
AcDbEntity
  8
OHNE VERRIEGELUNG
100
AcDbVertex
100
AcDb2dVertex
 10
102.9367904082169
 20
63.0236319686183
 30
0.0
  0
VERTEX
  5
10B
330
104
100
AcDbEntity
  8
OHNE VERRIEGELUNG
100
AcDbVertex
100
AcDb2dVertex
 10
142.9152130898129
 20
63.0236319686183
 30
0.0
 42
0.414213562373098
  0
VERTEX
  5
10C
330
104
100
AcDbEntity
  8
OHNE VERRIEGELUNG
100
AcDbVertex
100
AcDb2dVertex
 10
143.4152130898129
 20
63.5236319686183
 30
0.0
  0
VERTEX
  5
10D
330
104
100
AcDbEntity
  8
OHNE VERRIEGELUNG
100
AcDbVertex
100
AcDb2dVertex
 10
143.4152130898129
 20
68.02363298602728
 30
0.0
 42
0.4142135623731381
  0
VERTEX
  5
10E
330
104
100
AcDbEntity
  8
OHNE VERRIEGELUNG
100
AcDbVertex
100
AcDb2dVertex
 10
142.9152130898129
 20
68.52363298602734
 30
0.0
  0
SEQEND
  5
105
330
104
100
AcDbEntity
  8
OHNE VERRIEGELUNG
  0
POLYLINE
  5
10F
330
1F
100
AcDbEntity
  8
OHNE VERRIEGELUNG
100
AcDb2dPolyline
 66
     1
 10
0.0
 20
0.0
 30
0.0
  0
VERTEX
  5
111
330
10F
100
AcDbEntity
  8
OHNE VERRIEGELUNG
100
AcDbVertex
100
AcDb2dVertex
 10
164.2502053154754
 20
105.0934008067698
 30
0.0
  0
VERTEX
  5
112
330
10F
100
AcDbEntity
  8
OHNE VERRIEGELUNG
100
AcDbVertex
100
AcDb2dVertex
 10
140.8674348074747
 20
105.0934008067698
 30
0.0
 42
-0.414213562372965
  0
VERTEX
  5
113
330
10F
100
AcDbEntity
  8
OHNE VERRIEGELUNG
100
AcDbVertex
100
AcDb2dVertex
 10
140.3674348074751
 20
105.5934008067701
 30
0.0
  0
VERTEX
  5
114
330
10F
100
AcDbEntity
  8
OHNE VERRIEGELUNG
100
AcDbVertex
100
AcDb2dVertex
 10
140.3674348074751
 20
110.0934008620659
 30
0.0
 42
-0.4142135623730951
  0
VERTEX
  5
115
330
10F
100
AcDbEntity
  8
OHNE VERRIEGELUNG
100
AcDbVertex
100
AcDb2dVertex
 10
140.8674348074752
 20
110.5934008620659
 30
0.0
  0
VERTEX
  5
116
330
10F
100
AcDbEntity
  8
OHNE VERRIEGELUNG
100
AcDbVertex
100
AcDb2dVertex
 10
164.2502053154754
 20
110.593400862066
 30
0.0
  0
SEQEND
  5
110
330
10F
100
AcDbEntity
  8
OHNE VERRIEGELUNG
  0
CIRCLE
  5
24A
330
1F
100
AcDbEntity
  8
WHITE
  6
Continuous
100
AcDbCircle
 10
98.81714303264892
 20
79.9265703811027
 30
0.0
 40
2.277733996314847
  0
CIRCLE
  5
24B
330
1F
100
AcDbEntity
  8
WHITE
  6
Continuous
100
AcDbCircle
 10
98.81714303264892
 20
79.9265703811027
 30
0.0
 40
1.576892766679509
  0
ARC
  5
24C
102
{ACAD_REACTORS
330
7B8
330
7E4
102
}
330
1F
100
AcDbEntity
  8
WHITE
  6
Continuous
100
AcDbCircle
 10
92.36330971419567
 20
79.9265703811027
 30
0.0
 40
1.576890729231897
100
AcDbArc
 50
31.05578300000554
 51
329.9999749999982
  0
LINE
  5
24D
330
1F
100
AcDbEntity
  8
WHITE
  6
Continuous
100
AcDbLine
 10
93.714178230019
 20
80.74004578963402
 30
0.0
 11
94.3211949971136
 21
81.09050919085145
 31
0.0
  0
ARC
  5
24E
330
1F
100
AcDbEntity
  8
WHITE
  6
Continuous
100
AcDbCircle
 10
92.36330971419567
 20
79.9265703811027
 30
0.0
 40
2.277731958867235
100
AcDbArc
 50
30.73095099999753
 51
329.999972000006
  0
LINE
  5
24F
330
1F
100
AcDbEntity
  8
WHITE
  6
Continuous
100
AcDbLine
 10
94.33588295694983
 20
78.78770440166899
 30
0.0
 11
93.72893750052151
 21
79.1381250164866
 31
0.0
  0
HATCH
  5
250
330
1F
100
AcDbEntity
  8
0
100
AcDbHatch
 10
0.0
 20
0.0
 30
0.0
210
0.0
220
0.0
230
1.0
  2
SOLID
 70
     1
 71
     0
 91
        5
 92
        7
 72
     1
 73
     1
 93
        4
 10
94.33588332942724
 20
78.78770418661874
 42
0.0
 10
93.72893723365734
 20
79.13812517056091
 42
-3.664441712880978
 10
93.71417723706953
 20
80.74004521635096
 42
0.0
 10
94.32119395952975
 20
81.09050859179856
 42
3.684997770613025
 97
        0
 92
        7
 72
     1
 73
     1
 93
        2
 10
96.53940903633419
 20
79.9265703811027
 42
1.0
 10
101.0948770289638
 20
79.9265703811027
 42
1.0
 97
        0
 92
       22
 72
     1
 73
     1
 93
        2
 10
100.3940357993284
 20
79.9265703811027
 42
-1.0
 10
97.2402502659694
 20
79.9265703811027
 42
-1.0
 97
        0
 92
        7
 72
     1
 73
     1
 93
        7
 10
85.90947229430765
 20
82.10491446103448
 42
0.2369624768135127
 10
83.6317704098036
 20
77.61818094801505
 42
0.0
 10
84.33264183710219
 20
77.61818094801505
 42
-0.0323239992921771
 10
84.37674854527688
 20
78.25028684500593
 42
0.0
 10
87.44219611971187
 20
78.25028684500593
 42
-0.0323235821139967
 10
87.48630278485951
 20
77.61818094801505
 42
0.0
 10
88.18715180239554
 20
77.61818094801505
 42
0.2369600159374391
 97
        0
 92
       22
 72
     1
 73
     1
 93
        4
 10
85.90947237707053
 20
81.19700497725821
 42
-0.1369916014750728
 10
87.29476061296884
 20
78.95112807464149
 42
0.0
 10
84.5241684602214
 20
78.95112807464149
 42
-0.1369933941410354
 10
85.90947306441888
 20
81.19700434227663
 42
0.0
 97
        0
 75
     0
 76
     1
 47
0.0243724694748106
 98
        5
 10
91.96971641079711
 20
81.89178164388172
 10
98.94331063409675
 20
81.89178164388172
 10
98.94331063409675
 20
81.89178164388172
 10
86.02021625968665
 20
81.50182202333009
 10
86.02021625968665
 20
81.50182202333009
1001
ACAD
1010
0.0
1020
0.0
1030
0.0
  0
LINE
  5
614
330
1F
100
AcDbEntity
  8
0
100
AcDbLine
 10
59.70625138533016
 20
222.6863454416645
 30
0.0
 11
186.904848551247
 21
222.6863454416628
 31
0.0
  0
LINE
  5
615
330
1F
100
AcDbEntity
  8
0
100
AcDbLine
 10
59.70625138533015
 20
217.6863454416645
 30
0.0
 11
186.904848551247
 21
217.6863454416628
 31
0.0
  0
POINT
  5
616
330
1F
100
AcDbEntity
  8
0
  6
ByBlock
 62
     0
100
AcDbPoint
 10
70.08580644670118
 20
222.6863454416644
 30
0.0
  0
POINT
  5
617
330
1F
100
AcDbEntity
  8
0
  6
ByBlock
 62
     0
100
AcDbPoint
 10
67.18580644670109
 20
217.6863454416644
 30
0.0
  0
POINT
  5
618
330
1F
100
AcDbEntity
  8
0
  6
ByBlock
 62
     0
100
AcDbPoint
 10
60.58580644670119
 20
217.6863454416646
 30
0.0
  0
LINE
  5
65F
330
1F
100
AcDbEntity
  8
AM_7
100
AcDbLine
 10
122.929222675778
 20
229.8009263589247
 30
0.0
 11
122.929222675778
 21
209.4004879775457
 31
0.0
  0
LINE
  5
660
102
{ACAD_REACTORS
330
667
102
}
330
1F
100
AcDbEntity
  8
0
100
AcDbLine
 10
59.70625138533016
 20
222.6863454416645
 30
0.0
 11
59.70625138533016
 21
217.6863454416646
 31
0.0
  0
LINE
  5
661
102
{ACAD_REACTORS
330
664
330
667
102
}
330
1F
100
AcDbEntity
  8
0
100
AcDbLine
 10
186.904848551247
 20
222.6863454416628
 30
0.0
 11
186.904848551247
 21
217.6863454416628
 31
0.0
  0
DIMENSION
  5
662
102
{ACAD_XDICTIONARY
360
663
102
}
102
{ACAD_REACTORS
330
664
102
}
330
1F
100
AcDbEntity
  8
5
100
AcDbDimension
  2
*D16
 10
200.5211007409925
 20
217.6863454416628
 30
0.0
 11
200.5211007409924
 21
229.4530121083295
 31
0.0
 70
   160
 71
     5
 42
5.0
  3
GEN-ISO$0
100
AcDbAlignedDimension
 13
186.904848551247
 23
222.6863454416628
 33
0.0
 14
186.904848551247
 24
217.6863454416628
 34
0.0
 50
90.0
100
AcDbRotatedDimension
  0
DIMENSION
  5
665
102
{ACAD_XDICTIONARY
360
666
102
}
102
{ACAD_REACTORS
330
667
102
}
330
1F
100
AcDbEntity
  8
5
100
AcDbDimension
  2
*D17
 10
59.70625138533016
 20
234.5553306070142
 30
0.0
 11
123.3055499682885
 21
236.9053306070142
 31
0.0
 70
    32
  1
%%c<>
 71
     5
 42
127.1985971659168
  3
GEN-ISO$0
100
AcDbAlignedDimension
 13
186.904848551247
 23
222.6863454416628
 33
0.0
 14
59.70625138533016
 24
222.6863454416645
 34
0.0
100
AcDbRotatedDimension
  0
LINE
  5
794
330
1F
100
AcDbEntity
  8
AM_7
100
AcDbLine
 10
122.929222675778
 20
114.9853745574522
 30
0.0
 11
125.0838107377769
 21
114.9853745574522
 31
0.0
1001
GENIUS_GENOREF_13
1005
798
  0
LINE
  5
795
330
1F
100
AcDbEntity
  8
AM_7
100
AcDbLine
 10
122.929222675778
 20
114.9853745574522
 30
0.0
 11
122.929222675778
 21
117.1399626194511
 31
0.0
1001
GENIUS_GENOREF_13
1005
798
  0
LINE
  5
796
330
1F
100
AcDbEntity
  8
AM_7
100
AcDbLine
 10
122.929222675778
 20
114.9853745574522
 30
0.0
 11
120.7746346137792
 21
114.9853745574522
 31
0.0
1001
GENIUS_GENOREF_13
1005
798
  0
LINE
  5
797
102
{ACAD_REACTORS
330
7B8
330
7E4
102
}
330
1F
100
AcDbEntity
  8
AM_7
100
AcDbLine
 10
122.929222675778
 20
114.9853745574522
 30
0.0
 11
122.929222675778
 21
112.8307864954534
 31
0.0
1001
GENIUS_GENOREF_13
1005
798
  0
POINT
  5
798
330
1F
100
AcDbEntity
  8
0
 60
     1
100
AcDbPoint
 10
0.0
 20
0.0
 30
0.0
1001
GENIUS_GENOENT_13
1002
{
1000
MYREF
1005
798
1002
}
1002
{
1000
GRP
1005
0
1002
}
1001
GENIUS_GENOBJ-N-CRS_13
1002
{
1000
OWNER
1000
GEN
1002
}
1001
GENIUS_GENODEF_13
1002
{
1000
HIER
1070
    10
1002
}
1002
{
1000
MANEDIT
1070
     0
1002
}
1002
{
1000
NOSEL
1070
     0
1002
}
1002
{
1000
BEHIND
1070
     0
1002
}
1002
{
1000
OTHER
1070
     0
1002
}
1002
{
1000
REACTOR
1002
}
1001
GENIUS_GENOLIS_13
1002
{
1000
ENT
1005
797
1005
796
1005
795
1005
794
1002
}
  0
DIMENSION
  5
7A9
102
{ACAD_XDICTIONARY
360
7B7
102
}
102
{ACAD_REACTORS
330
7B8
102
}
330
1F
100
AcDbEntity
  8
5
100
AcDbDimension
  2
*D18
 10
43.51731793337426
 20
79.9265703811027
 30
0.0
 11
41.16731793337425
 21
97.45597246927751
 31
0.0
 70
    32
 71
     5
 42
35.05880417634955
  3
GEN-ISO$0
100
AcDbAlignedDimension
 13
122.929222675778
 23
114.9853745574522
 33
0.0
 14
92.36330971419567
 24
79.9265703811027
 34
0.0
 50
90.0
100
AcDbRotatedDimension
1001
ACAD
1000
DSTYLE
1002
{
1070
   271
1070
     0
1002
}
  0
DIMENSION
  5
7D5
102
{ACAD_XDICTIONARY
360
7E3
102
}
102
{ACAD_REACTORS
330
7E4
102
}
330
1F
100
AcDbEntity
  8
5
100
AcDbDimension
  2
*D19
 10
92.36330971419567
 20
34.72510851970847
 30
0.0
 11
107.6462661949868
 21
37.07510851970847
 31
0.0
 70
    32
  1
30.5
 71
     5
 42
30.56591296158237
  3
GEN-ISO$0
100
AcDbAlignedDimension
 13
122.929222675778
 23
114.9853745574522
 33
0.0
 14
92.36330971419567
 24
79.9265703811027
 34
0.0
 50
0.0000000000001132
100
AcDbRotatedDimension
1001
ACAD
1000
DSTYLE
1002
{
1070
   271
1070
     1
1002
}
  0
CIRCLE
  5
ADB
330
1F
100
AcDbEntity
  8
0
100
AcDbCircle
 10
122.929222675778
 20
114.9853745574522
 30
0.0
 40
63.6
  0
INSERT
  5
AFB
330
1F
100
AcDbEntity
  8
AM_5
100
AcDbBlockReference
  2
*S20
 10
0.0
 20
0.0
 30
0.0
  0
ENDSEC
  0
SECTION
  2
OBJECTS
  0
DICTIONARY
  5
C
330
0
100
AcDbDictionary
281
     1
  3
ACAD_2007HEADERVARS_RT
350
B89
  3
ACAD_COLOR
350
119
  3
ACAD_GROUP
350
D
  3
ACAD_LAYOUT
350
1A
  3
ACAD_MATERIAL
350
118
  3
ACAD_MLEADERSTYLE
350
9D4
  3
ACAD_MLINESTYLE
350
17
  3
ACAD_PLOTSETTINGS
350
19
  3
ACAD_PLOTSTYLENAME
350
E
  3
ACAD_SCALELIST
350
9B2
  3
ACAD_TABLESTYLE
350
11A
  3
ACAD_VISUALSTYLE
350
9A1
  3
ACDB_RECOMPOSE_DATA
350
AA9
  3
AcDbVariableDictionary
350
1D0
  3
AcmDictionary
350
17C
  3
AMG
350
120
  3
AMGSNAPSETTINGS
350
1F1
  3
ASE_INDEX_DICTIONARY
350
838
  3
DWGPROPS
350
B88
  0
DICTIONARY
  5
221
330
2
100
AcDbDictionary
280
     1
281
     1
  3
ACAD_LAYERSTATES
360
222
  0
DICTIONARY
  5
A65
330
10
100
AcDbDictionary
280
     1
281
     1
  3
ADSK_XREC_LAYER_RECONCILED
360
A66
  0
DICTIONARY
  5
A67
330
2A
100
AcDbDictionary
280
     1
281
     1
  3
ADSK_XREC_LAYER_RECONCILED
360
A68
  0
DICTIONARY
  5
A69
330
202
100
AcDbDictionary
280
     1
281
     1
  3
ADSK_XREC_LAYER_RECONCILED
360
A6A
  0
DICTIONARY
  5
A6B
330
212
100
AcDbDictionary
280
     1
281
     1
  3
ADSK_XREC_LAYER_RECONCILED
360
A6C
  0
DICTIONARY
  5
A6D
330
597
100
AcDbDictionary
280
     1
281
     1
  3
ADSK_XREC_LAYER_RECONCILED
360
A6E
  0
DICTIONARY
  5
A6F
330
598
100
AcDbDictionary
280
     1
281
     1
  3
ADSK_XREC_LAYER_RECONCILED
360
A70
  0
DICTIONARY
  5
A71
330
599
100
AcDbDictionary
280
     1
281
     1
  3
ADSK_XREC_LAYER_RECONCILED
360
A72
  0
DICTIONARY
  5
A73
330
59A
100
AcDbDictionary
280
     1
281
     1
  3
ADSK_XREC_LAYER_RECONCILED
360
A74
  0
DICTIONARY
  5
A75
330
59B
100
AcDbDictionary
280
     1
281
     1
  3
ADSK_XREC_LAYER_RECONCILED
360
A76
  0
DICTIONARY
  5
A77
330
59C
100
AcDbDictionary
280
     1
281
     1
  3
ADSK_XREC_LAYER_RECONCILED
360
A78
  0
DICTIONARY
  5
A79
330
59D
100
AcDbDictionary
280
     1
281
     1
  3
ADSK_XREC_LAYER_RECONCILED
360
A7A
  0
DICTIONARY
  5
A7B
330
59E
100
AcDbDictionary
280
     1
281
     1
  3
ADSK_XREC_LAYER_RECONCILED
360
A7C
  0
DICTIONARY
  5
A7D
330
59F
100
AcDbDictionary
280
     1
281
     1
  3
ADSK_XREC_LAYER_RECONCILED
360
A7E
  0
DICTIONARY
  5
A7F
330
5A0
100
AcDbDictionary
280
     1
281
     1
  3
ADSK_XREC_LAYER_RECONCILED
360
A80
  0
DICTIONARY
  5
A81
330
5A1
100
AcDbDictionary
280
     1
281
     1
  3
ADSK_XREC_LAYER_RECONCILED
360
A82
  0
DICTIONARY
  5
A83
330
5A2
100
AcDbDictionary
280
     1
281
     1
  3
ADSK_XREC_LAYER_RECONCILED
360
A84
  0
DICTIONARY
  5
A85
330
5A3
100
AcDbDictionary
280
     1
281
     1
  3
ADSK_XREC_LAYER_RECONCILED
360
A86
  0
DICTIONARY
  5
A87
330
79A
100
AcDbDictionary
280
     1
281
     1
  3
ADSK_XREC_LAYER_RECONCILED
360
A88
  0
DICTIONARY
  5
A89
330
A4D
100
AcDbDictionary
280
     1
281
     1
  3
ADSK_XREC_LAYER_RECONCILED
360
A8A
  0
DICTIONARY
  5
B94
330
2AF
100
AcDbDictionary
280
     1
281
     1
  3
ACAD_MTEXT_RT
360
B95
  0
DICTIONARY
  5
663
330
662
100
AcDbDictionary
280
     1
281
     1
  3
ACAD_DIMASSOC
360
664
  0
DICTIONARY
  5
666
330
665
100
AcDbDictionary
280
     1
281
     1
  3
ACAD_DIMASSOC
360
667
  0
DICTIONARY
  5
7B7
330
7A9
100
AcDbDictionary
280
     1
281
     1
  3
ACAD_DIMASSOC
360
7B8
  0
DICTIONARY
  5
7E3
330
7D5
100
AcDbDictionary
280
     1
281
     1
  3
ACAD_DIMASSOC
360
7E4
  0
DICTIONARY
  5
B89
102
{ACAD_REACTORS
330
C
102
}
330
C
100
AcDbDictionary
281
     1
  3
DIMARCSYM
350
B8A
  0
DICTIONARY
  5
119
102
{ACAD_REACTORS
330
C
102
}
330
C
100
AcDbDictionary
281
     1
  0
DICTIONARY
  5
D
102
{ACAD_REACTORS
330
C
102
}
330
C
100
AcDbDictionary
281
     1
  0
DICTIONARY
  5
1A
102
{ACAD_REACTORS
330
C
102
}
330
C
100
AcDbDictionary
281
     1
  3
Layout1
350
1E
  3
Layout2
350
26
  3
Model
350
22
  0
DICTIONARY
  5
118
102
{ACAD_REACTORS
330
C
102
}
330
C
100
AcDbDictionary
281
     1
  3
ByBlock
350
999
  3
ByLayer
350
991
  3
Global
350
21E
  0
DICTIONARY
  5
9D4
102
{ACAD_REACTORS
330
C
102
}
330
C
100
AcDbDictionary
281
     1
  3
Standard
350
9D5
  0
DICTIONARY
  5
17
102
{ACAD_REACTORS
330
C
102
}
330
C
100
AcDbDictionary
281
     1
  3
Standard
350
18
  0
DICTIONARY
  5
19
102
{ACAD_REACTORS
330
C
102
}
330
C
100
AcDbDictionary
281
     1
  0
ACDBDICTIONARYWDFLT
  5
E
102
{ACAD_REACTORS
330
C
102
}
330
C
100
AcDbDictionary
281
     1
  3
Normal
350
F
100
AcDbDictionaryWithDefault
340
F
  0
DICTIONARY
  5
9B2
102
{ACAD_REACTORS
330
C
102
}
330
C
100
AcDbDictionary
281
     1
  3
A0
350
9B3
  3
A1
350
9B4
  3
A2
350
9B5
  3
A3
350
9B6
  3
A4
350
9B7
  3
A5
350
9B8
  3
A6
350
9B9
  3
A7
350
9BA
  3
A8
350
9BB
  3
A9
350
9BC
  3
B0
350
9BD
  3
B1
350
9BE
  3
B2
350
9BF
  3
B3
350
9C0
  3
B4
350
9C1
  3
B5
350
9C2
  3
B6
350
9C3
  3
B7
350
9C4
  3
B8
350
9C5
  3
B9
350
9C6
  3
C0
350
9C7
  3
C1
350
9C8
  3
C2
350
9C9
  3
C3
350
9CA
  3
C4
350
9CB
  3
C5
350
9CC
  3
C6
350
9CD
  3
C7
350
9CE
  3
C8
350
9CF
  3
C9
350
9D0
  3
D0
350
9D1
  3
D1
350
9D2
  3
D2
350
9D3
  0
DICTIONARY
  5
11A
102
{ACAD_REACTORS
330
C
102
}
330
C
100
AcDbDictionary
281
     1
  3
Standard
350
11B
  0
DICTIONARY
  5
9A1
102
{ACAD_REACTORS
330
C
102
}
330
C
100
AcDbDictionary
281
     1
  3
2dWireframe
350
9A7
  3
3D Hidden
350
9A9
  3
3dWireframe
350
9A8
  3
Basic
350
9A6
  3
Brighten
350
9AD
  3
ColorChange
350
9B1
  3
Conceptual
350
9AA
  3
Dim
350
9AC
  3
Facepattern
350
9B0
  3
Flat
350
9A2
  3
FlatWithEdges
350
9A3
  3
Gouraud
350
9A4
  3
GouraudWithEdges
350
9A5
  3
Linepattern
350
9AF
  3
Realistic
350
9AB
  3
Thicken
350
9AE
  0
XRECORD
  5
AA9
102
{ACAD_REACTORS
330
C
102
}
330
C
100
AcDbXrecord
280
     1
 90
        1
330
11B
  0
DICTIONARY
  5
1D0
102
{ACAD_REACTORS
330
C
102
}
330
C
100
AcDbDictionary
281
     1
  3
CANNOSCALE
350
AAC
  3
CMLEADERSTYLE
350
AAA
  3
CTABLESTYLE
350
1D1
  3
DIMASSOC
350
B86
  3
HIDETEXT
350
B85
  3
INDEXCTL
350
B84
  3
LAYEREVAL
350
AAE
  3
LAYERNOTIFY
350
AAF
  3
LIGHTINGUNITS
350
AAD
  3
MSLTSCALE
350
AAB
  3
SORTENTS
350
B83
  0
DICTIONARY
  5
17C
102
{ACAD_REACTORS
330
C
102
}
330
C
100
AcDbDictionary
281
     1
  3
AcmStdDictionary
350
187
  3
AMDTSECTSYM_ARROWCOLOR
350
1A6
  0
DICTIONARY
  5
120
102
{ACAD_REACTORS
330
C
102
}
330
C
100
AcDbDictionary
281
     1
  0
DICTIONARY
  5
1F1
102
{ACAD_REACTORS
330
C
102
}
330
C
100
AcDbDictionary
281
     1
  0
DICTIONARY
  5
838
102
{ACAD_REACTORS
330
C
102
}
330
C
100
AcDbDictionary
281
     1
  3
ASEBlockHierarchyIndexRecord
350
839
1001
DCO15
1040
1643089578.544
  0
XRECORD
  5
B88
102
{ACAD_REACTORS
330
C
102
}
330
C
100
AcDbXrecord
280
     1
  1
DWGPROPS COOKIE
  2

  3

  4

  6

  7

  8
jamoeller
  9

300
=
301
=
302
=
303
=
304
=
305
=
306
=
307
=
308
=
309
=
 40
0.0337265277777778
 41
2454769.747552616
 42
2455146.45343456
  1

 90
        0
  0
DICTIONARY
  5
222
102
{ACAD_REACTORS
330
221
102
}
330
221
100
AcDbDictionary
281
     1
  0
XRECORD
  5
A66
102
{ACAD_REACTORS
330
A65
102
}
330
A65
100
AcDbXrecord
280
     1
290
     1
  0
XRECORD
  5
A68
102
{ACAD_REACTORS
330
A67
102
}
330
A67
100
AcDbXrecord
280
     1
290
     1
  0
XRECORD
  5
A6A
102
{ACAD_REACTORS
330
A69
102
}
330
A69
100
AcDbXrecord
280
     1
290
     1
  0
XRECORD
  5
A6C
102
{ACAD_REACTORS
330
A6B
102
}
330
A6B
100
AcDbXrecord
280
     1
290
     1
  0
XRECORD
  5
A6E
102
{ACAD_REACTORS
330
A6D
102
}
330
A6D
100
AcDbXrecord
280
     1
290
     1
  0
XRECORD
  5
A70
102
{ACAD_REACTORS
330
A6F
102
}
330
A6F
100
AcDbXrecord
280
     1
290
     1
  0
XRECORD
  5
A72
102
{ACAD_REACTORS
330
A71
102
}
330
A71
100
AcDbXrecord
280
     1
290
     1
  0
XRECORD
  5
A74
102
{ACAD_REACTORS
330
A73
102
}
330
A73
100
AcDbXrecord
280
     1
290
     1
  0
XRECORD
  5
A76
102
{ACAD_REACTORS
330
A75
102
}
330
A75
100
AcDbXrecord
280
     1
290
     1
  0
XRECORD
  5
A78
102
{ACAD_REACTORS
330
A77
102
}
330
A77
100
AcDbXrecord
280
     1
290
     1
  0
XRECORD
  5
A7A
102
{ACAD_REACTORS
330
A79
102
}
330
A79
100
AcDbXrecord
280
     1
290
     1
  0
XRECORD
  5
A7C
102
{ACAD_REACTORS
330
A7B
102
}
330
A7B
100
AcDbXrecord
280
     1
290
     1
  0
XRECORD
  5
A7E
102
{ACAD_REACTORS
330
A7D
102
}
330
A7D
100
AcDbXrecord
280
     1
290
     1
  0
XRECORD
  5
A80
102
{ACAD_REACTORS
330
A7F
102
}
330
A7F
100
AcDbXrecord
280
     1
290
     1
  0
XRECORD
  5
A82
102
{ACAD_REACTORS
330
A81
102
}
330
A81
100
AcDbXrecord
280
     1
290
     1
  0
XRECORD
  5
A84
102
{ACAD_REACTORS
330
A83
102
}
330
A83
100
AcDbXrecord
280
     1
290
     1
  0
XRECORD
  5
A86
102
{ACAD_REACTORS
330
A85
102
}
330
A85
100
AcDbXrecord
280
     1
290
     1
  0
XRECORD
  5
A88
102
{ACAD_REACTORS
330
A87
102
}
330
A87
100
AcDbXrecord
280
     1
290
     1
  0
XRECORD
  5
A8A
102
{ACAD_REACTORS
330
A89
102
}
330
A89
100
AcDbXrecord
280
     1
290
     1
  0
XRECORD
  5
B95
102
{ACAD_REACTORS
330
B94
102
}
330
B94
100
AcDbXrecord
280
     1
 40
30543.0
  1
\fArial|b0|i0|c0|p32;©
  0
DIMASSOC
  5
664
102
{ACAD_REACTORS
330
663
102
}
330
663
100
AcDbDimAssoc
330
662
 90
        3
 70
     0
 71
     0
  1
AcDbOsnapPointRef
 72
    13
331
661
 73
     0
 91
        0
 40
0.0
 10
0.0
 20
0.0
 30
2.000000000000000E+50
 75
     0
  1
AcDbOsnapPointRef
 72
     1
331
661
 73
     0
 91
        0
 40
0.0
 10
0.0
 20
0.0
 30
2.000000000000000E+50
 75
     0
  0
DIMASSOC
  5
667
102
{ACAD_REACTORS
330
666
102
}
330
666
100
AcDbDimAssoc
330
665
 90
        3
 70
     0
 71
     0
  1
AcDbOsnapPointRef
 72
    13
331
661
 73
     0
 91
        0
 40
0.0
 10
0.0
 20
0.0
 30
2.000000000000000E+50
 75
     0
  1
AcDbOsnapPointRef
 72
    13
331
660
 73
     0
 91
        0
 40
0.0
 10
0.0
 20
0.0
 30
2.000000000000000E+50
 75
     0
  0
DIMASSOC
  5
7B8
102
{ACAD_REACTORS
330
7B7
102
}
330
7B7
100
AcDbDimAssoc
330
7A9
 90
        3
 70
     0
 71
     0
  1
AcDbOsnapPointRef
 72
    13
331
797
 73
     0
 91
        0
 40
0.0
 10
0.0
 20
0.0
 30
2.000000000000000E+50
 75
     0
  1
AcDbOsnapPointRef
 72
     3
331
24C
 73
     0
 91
        0
 40
0.5420256651349789
 10
0.0
 20
0.0
 30
0.0
 75
     0
  0
DIMASSOC
  5
7E4
102
{ACAD_REACTORS
330
7E3
102
}
330
7E3
100
AcDbDimAssoc
330
7D5
 90
        3
 70
     0
 71
     0
  1
AcDbOsnapPointRef
 72
    13
331
797
 73
     0
 91
        0
 40
0.0
 10
0.0
 20
0.0
 30
2.000000000000000E+50
 75
     0
  1
AcDbOsnapPointRef
 72
     3
331
24C
 73
     0
 91
        0
 40
0.5420256651349789
 10
0.0
 20
0.0
 30
0.0
 75
     0
  0
XRECORD
  5
B8A
102
{ACAD_REACTORS
330
B89
102
}
330
B89
100
AcDbXrecord
280
     1
 70
     1
  0
LAYOUT
  5
1E
102
{ACAD_XDICTIONARY
360
B8B
102
}
102
{ACAD_REACTORS
330
1A
102
}
330
1A
100
AcDbPlotSettings
  1

  2
none_device
  4

  6

 40
0.0
 41
0.0
 42
0.0
 43
0.0
 44
0.0
 45
0.0
 46
0.0
 47
0.0
 48
0.0
 49
0.0
140
0.0
141
0.0
142
1.0
143
1.0
 70
   688
 72
     0
 73
     0
 74
     5
  7

 75
    16
147
1.0
148
0.0
149
0.0
100
AcDbLayout
  1
Layout1
 70
     1
 71
     1
 10
0.0
 20
0.0
 11
12.0
 21
9.0
 12
0.0
 22
0.0
 32
0.0
 14
1.000000000000000E+20
 24
1.000000000000000E+20
 34
1.000000000000000E+20
 15
-1.000000000000000E+20
 25
-1.000000000000000E+20
 35
-1.000000000000000E+20
146
0.0
 13
0.0
 23
0.0
 33
0.0
 16
1.0
 26
0.0
 36
0.0
 17
0.0
 27
1.0
 37
0.0
 76
     0
330
1B
  0
LAYOUT
  5
26
102
{ACAD_XDICTIONARY
360
B8F
102
}
102
{ACAD_REACTORS
330
1A
102
}
330
1A
100
AcDbPlotSettings
  1

  2
none_device
  4

  6

 40
0.0
 41
0.0
 42
0.0
 43
0.0
 44
0.0
 45
0.0
 46
0.0
 47
0.0
 48
0.0
 49
0.0
140
0.0
141
0.0
142
1.0
143
1.0
 70
   688
 72
     0
 73
     0
 74
     5
  7

 75
    16
147
1.0
148
0.0
149
0.0
100
AcDbLayout
  1
Layout2
 70
     1
 71
     2
 10
0.0
 20
0.0
 11
0.0
 21
0.0
 12
0.0
 22
0.0
 32
0.0
 14
0.0
 24
0.0
 34
0.0
 15
0.0
 25
0.0
 35
0.0
146
0.0
 13
0.0
 23
0.0
 33
0.0
 16
1.0
 26
0.0
 36
0.0
 17
0.0
 27
1.0
 37
0.0
 76
     0
330
23
  0
LAYOUT
  5
22
102
{ACAD_XDICTIONARY
360
B8D
102
}
102
{ACAD_REACTORS
330
1A
102
}
330
1A
100
AcDbPlotSettings
  1

  2
none_device
  4

  6

 40
0.0
 41
0.0
 42
0.0
 43
0.0
 44
0.0
 45
0.0
 46
0.0
 47
0.0
 48
0.0
 49
0.0
140
0.0
141
0.0
142
1.0
143
1.0
 70
  1712
 72
     0
 73
     0
 74
     0
  7

 75
     0
147
1.0
148
0.0
149
0.0
100
AcDbLayout
  1
Model
 70
     1
 71
     0
 10
0.0
 20
0.0
 11
12.0
 21
9.0
 12
0.0
 22
0.0
 32
0.0
 14
-0.0035635629606645
 24
-0.0009196608532704
 34
0.0
 15
125.9964364370393
 25
125.9990803391467
 35
0.0
146
0.0
 13
0.0
 23
0.0
 33
0.0
 16
1.0
 26
0.0
 36
0.0
 17
0.0
 27
1.0
 37
0.0
 76
     0
330
1F
331
98F
  0
MATERIAL
  5
999
102
{ACAD_XDICTIONARY
360
99A
102
}
102
{ACAD_REACTORS
330
118
102
}
330
118
100
AcDbMaterial
  1
ByBlock
 72
     0
 43
0.0008202099737533
 43
0.0
 43
0.0
 43
0.0
 43
0.0
 43
0.0008202099737533
 43
0.0
 43
0.0
 43
0.0
 43
0.0
 43
1.0
 43
0.0
 43
0.0
 43
0.0
 43
0.0
 43
1.0
 77
     0
 47
0.0008202099737533
 47
0.0
 47
0.0
 47
0.0
 47
0.0
 47
0.0008202099737533
 47
0.0
 47
0.0
 47
0.0
 47
0.0
 47
1.0
 47
0.0
 47
0.0
 47
0.0
 47
0.0
 47
1.0
171
     0
 49
0.0008202099737533
 49
0.0
 49
0.0
 49
0.0
 49
0.0
 49
0.0008202099737533
 49
0.0
 49
0.0
 49
0.0
 49
0.0
 49
1.0
 49
0.0
 49
0.0
 49
0.0
 49
0.0
 49
1.0
175
     0
142
0.0008202099737533
142
0.0
142
0.0
142
0.0
142
0.0
142
0.0008202099737533
142
0.0
142
0.0
142
0.0
142
0.0
142
1.0
142
0.0
142
0.0
142
0.0
142
0.0
142
1.0
179
     0
144
0.0008202099737533
144
0.0
144
0.0
144
0.0
144
0.0
144
0.0008202099737533
144
0.0
144
0.0
144
0.0
144
0.0
144
1.0
144
0.0
144
0.0
144
0.0
144
0.0
144
1.0
147
0.0008202099737533
147
0.0
147
0.0
147
0.0
147
0.0
147
0.0008202099737533
147
0.0
147
0.0
147
0.0
147
0.0
147
1.0
147
0.0
147
0.0
147
0.0
147
0.0
147
1.0
  0
MATERIAL
  5
991
102
{ACAD_XDICTIONARY
360
992
102
}
102
{ACAD_REACTORS
330
118
102
}
330
118
100
AcDbMaterial
  1
ByLayer
 72
     0
 43
0.0008202099737533
 43
0.0
 43
0.0
 43
0.0
 43
0.0
 43
0.0008202099737533
 43
0.0
 43
0.0
 43
0.0
 43
0.0
 43
1.0
 43
0.0
 43
0.0
 43
0.0
 43
0.0
 43
1.0
 77
     0
 47
0.0008202099737533
 47
0.0
 47
0.0
 47
0.0
 47
0.0
 47
0.0008202099737533
 47
0.0
 47
0.0
 47
0.0
 47
0.0
 47
1.0
 47
0.0
 47
0.0
 47
0.0
 47
0.0
 47
1.0
171
     0
 49
0.0008202099737533
 49
0.0
 49
0.0
 49
0.0
 49
0.0
 49
0.0008202099737533
 49
0.0
 49
0.0
 49
0.0
 49
0.0
 49
1.0
 49
0.0
 49
0.0
 49
0.0
 49
0.0
 49
1.0
175
     0
142
0.0008202099737533
142
0.0
142
0.0
142
0.0
142
0.0
142
0.0008202099737533
142
0.0
142
0.0
142
0.0
142
0.0
142
1.0
142
0.0
142
0.0
142
0.0
142
0.0
142
1.0
179
     0
144
0.0008202099737533
144
0.0
144
0.0
144
0.0
144
0.0
144
0.0008202099737533
144
0.0
144
0.0
144
0.0
144
0.0
144
1.0
144
0.0
144
0.0
144
0.0
144
0.0
144
1.0
147
0.0008202099737533
147
0.0
147
0.0
147
0.0
147
0.0
147
0.0008202099737533
147
0.0
147
0.0
147
0.0
147
0.0
147
1.0
147
0.0
147
0.0
147
0.0
147
0.0
147
1.0
  0
MATERIAL
  5
21E
102
{ACAD_XDICTIONARY
360
B92
102
}
102
{ACAD_REACTORS
330
118
102
}
330
118
100
AcDbMaterial
  1
Global
 73
     1
 78
     1
172
     1
176
     1
270
     1
274
     1
  0
MLEADERSTYLE
  5
9D5
102
{ACAD_REACTORS
330
9D4
102
}
330
9D4
100
AcDbMLeaderStyle
170
     2
171
     1
172
     0
 90
        2
 40
0.0
 41
0.0
173
     1
 91
-1056964608
340
14
 92
       -2
290
     1
 42
0.09
291
     1
 43
0.36
  3
Standard
 44
0.18
300

342
11
174
     1
178
     6
175
     1
176
     0
 93
-1056964608
 45
0.18
292
     0
297
     0
 46
0.18
 94
-1056964608
 47
1.0
 49
1.0
140
1.0
293
     1
141
0.0
294
     1
177
     0
142
1.0
295
     0
296
     0
143
0.125
1001
ACAD_MLEADERVER
1070
     2
  0
MLINESTYLE
  5
18
102
{ACAD_REACTORS
330
17
102
}
330
17
100
AcDbMlineStyle
  2
STANDARD
 70
     0
  3

 62
   256
 51
90.0
 52
90.0
 71
     2
 49
0.5
 62
   256
  6
BYLAYER
 49
-0.5
 62
   256
  6
BYLAYER
  0
ACDBPLACEHOLDER
  5
F
102
{ACAD_REACTORS
330
E
102
}
330
E
  0
SCALE
  5
9B3
102
{ACAD_REACTORS
330
9B2
102
}
330
9B2
100
AcDbScale
 70
     0
300
1:1
140
1.0
141
1.0
290
     1
  0
SCALE
  5
9B4
102
{ACAD_REACTORS
330
9B2
102
}
330
9B2
100
AcDbScale
 70
     0
300
1:2
140
1.0
141
2.0
290
     0
  0
SCALE
  5
9B5
102
{ACAD_REACTORS
330
9B2
102
}
330
9B2
100
AcDbScale
 70
     0
300
1:4
140
1.0
141
4.0
290
     0
  0
SCALE
  5
9B6
102
{ACAD_REACTORS
330
9B2
102
}
330
9B2
100
AcDbScale
 70
     0
300
1:5
140
1.0
141
5.0
290
     0
  0
SCALE
  5
9B7
102
{ACAD_REACTORS
330
9B2
102
}
330
9B2
100
AcDbScale
 70
     0
300
1:8
140
1.0
141
8.0
290
     0
  0
SCALE
  5
9B8
102
{ACAD_REACTORS
330
9B2
102
}
330
9B2
100
AcDbScale
 70
     0
300
1:10
140
1.0
141
10.0
290
     0
  0
SCALE
  5
9B9
102
{ACAD_REACTORS
330
9B2
102
}
330
9B2
100
AcDbScale
 70
     0
300
1:16
140
1.0
141
16.0
290
     0
  0
SCALE
  5
9BA
102
{ACAD_REACTORS
330
9B2
102
}
330
9B2
100
AcDbScale
 70
     0
300
1:20
140
1.0
141
20.0
290
     0
  0
SCALE
  5
9BB
102
{ACAD_REACTORS
330
9B2
102
}
330
9B2
100
AcDbScale
 70
     0
300
1:30
140
1.0
141
30.0
290
     0
  0
SCALE
  5
9BC
102
{ACAD_REACTORS
330
9B2
102
}
330
9B2
100
AcDbScale
 70
     0
300
1:40
140
1.0
141
40.0
290
     0
  0
SCALE
  5
9BD
102
{ACAD_REACTORS
330
9B2
102
}
330
9B2
100
AcDbScale
 70
     0
300
1:50
140
1.0
141
50.0
290
     0
  0
SCALE
  5
9BE
102
{ACAD_REACTORS
330
9B2
102
}
330
9B2
100
AcDbScale
 70
     0
300
1:100
140
1.0
141
100.0
290
     0
  0
SCALE
  5
9BF
102
{ACAD_REACTORS
330
9B2
102
}
330
9B2
100
AcDbScale
 70
     0
300
2:1
140
2.0
141
1.0
290
     0
  0
SCALE
  5
9C0
102
{ACAD_REACTORS
330
9B2
102
}
330
9B2
100
AcDbScale
 70
     0
300
4:1
140
4.0
141
1.0
290
     0
  0
SCALE
  5
9C1
102
{ACAD_REACTORS
330
9B2
102
}
330
9B2
100
AcDbScale
 70
     0
300
8:1
140
8.0
141
1.0
290
     0
  0
SCALE
  5
9C2
102
{ACAD_REACTORS
330
9B2
102
}
330
9B2
100
AcDbScale
 70
     0
300
10:1
140
10.0
141
1.0
290
     0
  0
SCALE
  5
9C3
102
{ACAD_REACTORS
330
9B2
102
}
330
9B2
100
AcDbScale
 70
     0
300
100:1
140
100.0
141
1.0
290
     0
  0
SCALE
  5
9C4
102
{ACAD_REACTORS
330
9B2
102
}
330
9B2
100
AcDbScale
 70
     0
300
1/128" = 1'-0"
140
0.0078125
141
12.0
290
     0
  0
SCALE
  5
9C5
102
{ACAD_REACTORS
330
9B2
102
}
330
9B2
100
AcDbScale
 70
     0
300
1/64" = 1'-0"
140
0.015625
141
12.0
290
     0
  0
SCALE
  5
9C6
102
{ACAD_REACTORS
330
9B2
102
}
330
9B2
100
AcDbScale
 70
     0
300
1/32" = 1'-0"
140
0.03125
141
12.0
290
     0
  0
SCALE
  5
9C7
102
{ACAD_REACTORS
330
9B2
102
}
330
9B2
100
AcDbScale
 70
     0
300
1/16" = 1'-0"
140
0.0625
141
12.0
290
     0
  0
SCALE
  5
9C8
102
{ACAD_REACTORS
330
9B2
102
}
330
9B2
100
AcDbScale
 70
     0
300
3/32" = 1'-0"
140
0.09375
141
12.0
290
     0
  0
SCALE
  5
9C9
102
{ACAD_REACTORS
330
9B2
102
}
330
9B2
100
AcDbScale
 70
     0
300
1/8" = 1'-0"
140
0.125
141
12.0
290
     0
  0
SCALE
  5
9CA
102
{ACAD_REACTORS
330
9B2
102
}
330
9B2
100
AcDbScale
 70
     0
300
3/16" = 1'-0"
140
0.1875
141
12.0
290
     0
  0
SCALE
  5
9CB
102
{ACAD_REACTORS
330
9B2
102
}
330
9B2
100
AcDbScale
 70
     0
300
1/4" = 1'-0"
140
0.25
141
12.0
290
     0
  0
SCALE
  5
9CC
102
{ACAD_REACTORS
330
9B2
102
}
330
9B2
100
AcDbScale
 70
     0
300
3/8" = 1'-0"
140
0.375
141
12.0
290
     0
  0
SCALE
  5
9CD
102
{ACAD_REACTORS
330
9B2
102
}
330
9B2
100
AcDbScale
 70
     0
300
1/2" = 1'-0"
140
0.5
141
12.0
290
     0
  0
SCALE
  5
9CE
102
{ACAD_REACTORS
330
9B2
102
}
330
9B2
100
AcDbScale
 70
     0
300
3/4" = 1'-0"
140
0.75
141
12.0
290
     0
  0
SCALE
  5
9CF
102
{ACAD_REACTORS
330
9B2
102
}
330
9B2
100
AcDbScale
 70
     0
300
1" = 1'-0"
140
1.0
141
12.0
290
     0
  0
SCALE
  5
9D0
102
{ACAD_REACTORS
330
9B2
102
}
330
9B2
100
AcDbScale
 70
     0
300
1-1/2" = 1'-0"
140
1.5
141
12.0
290
     0
  0
SCALE
  5
9D1
102
{ACAD_REACTORS
330
9B2
102
}
330
9B2
100
AcDbScale
 70
     0
300
3" = 1'-0"
140
3.0
141
12.0
290
     0
  0
SCALE
  5
9D2
102
{ACAD_REACTORS
330
9B2
102
}
330
9B2
100
AcDbScale
 70
     0
300
6" = 1'-0"
140
6.0
141
12.0
290
     0
  0
SCALE
  5
9D3
102
{ACAD_REACTORS
330
9B2
102
}
330
9B2
100
AcDbScale
 70
     0
300
1'-0" = 1'-0"
140
12.0
141
12.0
290
     0
  0
TABLESTYLE
  5
11B
102
{ACAD_XDICTIONARY
360
AA7
102
}
102
{ACAD_REACTORS
330
11A
102
}
330
11A
100
AcDbTableStyle
  3
Standard
 70
     0
 71
     0
 40
0.06
 41
0.06
280
     0
281
     0
  7
Standard
140
0.18
170
     2
 62
     0
 63
     7
283
     0
274
    -2
284
     1
 64
     0
275
    -2
285
     1
 65
     0
276
    -2
286
     1
 66
     0
277
    -2
287
     1
 67
     0
278
    -2
288
     1
 68
     0
279
    -2
289
     1
 69
     0
  7
Standard
140
0.25
170
     5
 62
     0
 63
     7
283
     0
274
    -2
284
     1
 64
     0
275
    -2
285
     1
 65
     0
276
    -2
286
     1
 66
     0
277
    -2
287
     1
 67
     0
278
    -2
288
     1
 68
     0
279
    -2
289
     1
 69
     0
  7
Standard
140
0.18
170
     5
 62
     0
 63
     7
283
     0
274
    -2
284
     1
 64
     0
275
    -2
285
     1
 65
     0
276
    -2
286
     1
 66
     0
277
    -2
287
     1
 67
     0
278
    -2
288
     1
 68
     0
279
    -2
289
     1
 69
     0
  0
VISUALSTYLE
  5
9A7
102
{ACAD_REACTORS
330
9A1
102
}
330
9A1
100
AcDbVisualStyle
  2
2dWireframe
 70
     4
 71
     0
 72
     2
 73
     0
 90
        0
 40
-0.6
 41
-30.0
 62
     5
 63
     7
 74
     1
 91
        4
 64
     7
 65
   257
 75
     1
175
     1
 42
1.0
 92
        0
 66
   257
 43
1.0
 76
     1
 77
     6
 78
     2
 67
     7
 79
     5
170
     0
171
     0
290
     0
174
     0
 93
        1
 44
0.0
173
     0
291
     0
 45
0.0
1001
ACAD
1000
AcDbSavedByObjectVersion
1070
     0
  0
VISUALSTYLE
  5
9A9
102
{ACAD_REACTORS
330
9A1
102
}
330
9A1
100
AcDbVisualStyle
  2
3D Hidden
 70
     6
 71
     1
 72
     2
 73
     2
 90
        0
 40
-0.6
 41
-30.0
 62
     5
 63
     7
 74
     2
 91
        2
 64
     7
 65
   257
 75
     2
175
     1
 42
40.0
 92
        0
 66
   257
 43
1.0
 76
     1
 77
     6
 78
     2
 67
     7
 79
     3
170
     0
171
     0
290
     0
174
     0
 93
        1
 44
0.0
173
     0
291
     0
 45
0.0
1001
ACAD
1000
AcDbSavedByObjectVersion
1070
     0
  0
VISUALSTYLE
  5
9A8
102
{ACAD_REACTORS
330
9A1
102
}
330
9A1
100
AcDbVisualStyle
  2
3dWireframe
 70
     5
 71
     0
 72
     2
 73
     0
 90
        0
 40
-0.6
 41
-30.0
 62
     5
 63
     7
 74
     1
 91
        4
 64
     7
 65
   257
 75
     1
175
     1
 42
1.0
 92
        0
 66
   257
 43
1.0
 76
     1
 77
     6
 78
     2
 67
     7
 79
     5
170
     0
171
     0
290
     0
174
     0
 93
        1
 44
0.0
173
     0
291
     0
 45
0.0
1001
ACAD
1000
AcDbSavedByObjectVersion
1070
     0
  0
VISUALSTYLE
  5
9A6
102
{ACAD_REACTORS
330
9A1
102
}
330
9A1
100
AcDbVisualStyle
  2
Basic
 70
     7
 71
     1
 72
     0
 73
     1
 90
        0
 40
-0.6
 41
-30.0
 62
     5
 63
     7
 74
     0
 91
        4
 64
     7
 65
   257
 75
     1
175
     1
 42
1.0
 92
        8
 66
     7
 43
1.0
 76
     1
 77
     6
 78
     2
 67
     7
 79
     5
170
     0
171
     0
290
     0
174
     0
 93
        1
 44
0.0
173
     0
291
     1
 45
0.0
1001
ACAD
1000
AcDbSavedByObjectVersion
1070
     0
  0
VISUALSTYLE
  5
9AD
102
{ACAD_REACTORS
330
9A1
102
}
330
9A1
100
AcDbVisualStyle
  2
Brighten
 70
    12
 71
     2
 72
     2
 73
     0
 90
        0
 40
-0.6
 41
-30.0
 62
     5
 63
     7
 74
     1
 91
        4
 64
     7
 65
   257
 75
     1
175
     1
 42
1.0
 92
        8
 66
     7
 43
1.0
 76
     1
 77
     6
 78
     2
 67
     7
 79
     5
170
     0
171
     0
290
     0
174
     0
 93
        1
 44
50.0
173
     0
291
     1
 45
0.0
1001
ACAD
1000
AcDbSavedByObjectVersion
1070
     0
  0
VISUALSTYLE
  5
9B1
102
{ACAD_REACTORS
330
9A1
102
}
330
9A1
100
AcDbVisualStyle
  2
ColorChange
 70
    16
 71
     2
 72
     2
 73
     3
 90
        0
 40
-0.6
 41
-30.0
 62
     5
 63
     8
 74
     1
 91
        4
 64
     7
 65
   257
 75
     1
175
     1
 42
1.0
 92
        8
 66
     8
 43
1.0
 76
     1
 77
     6
 78
     2
 67
     7
 79
     5
170
     0
171
     0
290
     0
174
     0
 93
        1
 44
0.0
173
     0
291
     1
 45
0.0
1001
ACAD
1000
AcDbSavedByObjectVersion
1070
     0
  0
VISUALSTYLE
  5
9AA
102
{ACAD_REACTORS
330
9A1
102
}
330
9A1
100
AcDbVisualStyle
  2
Conceptual
 70
     9
 71
     3
 72
     2
 73
     0
 90
        0
 40
-0.6
 41
-30.0
 62
     5
 63
     7
 74
     2
 91
        2
 64
     7
 65
   257
 75
     1
175
     1
 42
40.0
 92
        8
 66
     7
 43
1.0
 76
     1
 77
     6
 78
     2
 67
     7
 79
     3
170
     0
171
     0
290
     0
174
     0
 93
        1
 44
0.0
173
     0
291
     0
 45
0.0
1001
ACAD
1000
AcDbSavedByObjectVersion
1070
     0
  0
VISUALSTYLE
  5
9AC
102
{ACAD_REACTORS
330
9A1
102
}
330
9A1
100
AcDbVisualStyle
  2
Dim
 70
    11
 71
     2
 72
     2
 73
     0
 90
        0
 40
-0.6
 41
-30.0
 62
     5
 63
     7
 74
     1
 91
        4
 64
     7
 65
   257
 75
     1
175
     1
 42
1.0
 92
        8
 66
     7
 43
1.0
 76
     1
 77
     6
 78
     2
 67
     7
 79
     5
170
     0
171
     0
290
     0
174
     0
 93
        1
 44
-50.0
173
     0
291
     1
 45
0.0
1001
ACAD
1000
AcDbSavedByObjectVersion
1070
     0
  0
VISUALSTYLE
  5
9B0
102
{ACAD_REACTORS
330
9A1
102
}
330
9A1
100
AcDbVisualStyle
  2
Facepattern
 70
    15
 71
     2
 72
     2
 73
     0
 90
        0
 40
-0.6
 41
-30.0
 62
     5
 63
     7
 74
     1
 91
        4
 64
     7
 65
   257
 75
     1
175
     1
 42
1.0
 92
        8
 66
     7
 43
1.0
 76
     1
 77
     6
 78
     2
 67
     7
 79
     5
170
     0
171
     0
290
     0
174
     0
 93
        1
 44
0.0
173
     0
291
     1
 45
0.0
1001
ACAD
1000
AcDbSavedByObjectVersion
1070
     0
  0
VISUALSTYLE
  5
9A2
102
{ACAD_REACTORS
330
9A1
102
}
330
9A1
100
AcDbVisualStyle
  2
Flat
 70
     0
 71
     2
 72
     1
 73
     1
 90
        2
 40
-0.6
 41
30.0
 62
     5
 63
     7
 74
     0
 91
        4
 64
     7
 65
   257
 75
     1
175
     1
 42
1.0
 92
        8
 66
     7
 43
1.0
 76
     1
 77
     6
 78
     2
 67
     7
 79
     5
170
     0
171
     0
290
     0
174
     0
 93
       13
 44
0.0
173
     0
291
     1
 45
0.0
1001
ACAD
1000
AcDbSavedByObjectVersion
1070
     0
  0
VISUALSTYLE
  5
9A3
102
{ACAD_REACTORS
330
9A1
102
}
330
9A1
100
AcDbVisualStyle
  2
FlatWithEdges
 70
     1
 71
     2
 72
     1
 73
     1
 90
        2
 40
-0.6
 41
30.0
 62
     5
 63
     7
 74
     1
 91
        4
 64
     7
 65
   257
 75
     1
175
     1
 42
1.0
 92
        0
 66
   257
 43
1.0
 76
     1
 77
     6
 78
     2
 67
     7
 79
     5
170
     0
171
     0
290
     0
174
     0
 93
       13
 44
0.0
173
     0
291
     1
 45
0.0
1001
ACAD
1000
AcDbSavedByObjectVersion
1070
     0
  0
VISUALSTYLE
  5
9A4
102
{ACAD_REACTORS
330
9A1
102
}
330
9A1
100
AcDbVisualStyle
  2
Gouraud
 70
     2
 71
     2
 72
     2
 73
     1
 90
        2
 40
-0.6
 41
30.0
 62
     5
 63
     7
 74
     0
 91
        4
 64
     7
 65
   257
 75
     1
175
     1
 42
1.0
 92
        0
 66
     7
 43
1.0
 76
     1
 77
     6
 78
     2
 67
     7
 79
     5
170
     0
171
     0
290
     0
174
     0
 93
       13
 44
0.0
173
     0
291
     1
 45
0.0
1001
ACAD
1000
AcDbSavedByObjectVersion
1070
     0
  0
VISUALSTYLE
  5
9A5
102
{ACAD_REACTORS
330
9A1
102
}
330
9A1
100
AcDbVisualStyle
  2
GouraudWithEdges
 70
     3
 71
     2
 72
     2
 73
     1
 90
        2
 40
-0.6
 41
30.0
 62
     5
 63
     7
 74
     1
 91
        4
 64
     7
 65
   257
 75
     1
175
     1
 42
1.0
 92
        0
 66
   257
 43
1.0
 76
     1
 77
     6
 78
     2
 67
     7
 79
     5
170
     0
171
     0
290
     0
174
     0
 93
       13
 44
0.0
173
     0
291
     1
 45
0.0
1001
ACAD
1000
AcDbSavedByObjectVersion
1070
     0
  0
VISUALSTYLE
  5
9AF
102
{ACAD_REACTORS
330
9A1
102
}
330
9A1
100
AcDbVisualStyle
  2
Linepattern
 70
    14
 71
     2
 72
     2
 73
     0
 90
        0
 40
-0.6
 41
-30.0
 62
     5
 63
     7
 74
     1
 91
        4
 64
     7
 65
   257
 75
     7
175
     7
 42
1.0
 92
        8
 66
     7
 43
1.0
 76
     1
 77
     6
 78
     2
 67
     7
 79
     5
170
     0
171
     0
290
     0
174
     0
 93
        1
 44
0.0
173
     0
291
     1
 45
0.0
1001
ACAD
1000
AcDbSavedByObjectVersion
1070
     0
  0
VISUALSTYLE
  5
9AB
102
{ACAD_REACTORS
330
9A1
102
}
330
9A1
100
AcDbVisualStyle
  2
Realistic
 70
     8
 71
     2
 72
     2
 73
     0
 90
        0
 40
-0.6
 41
-30.0
 62
     5
 63
     7
 74
     1
 91
        0
 64
     7
 65
   257
 75
     1
175
     1
 42
1.0
 92
        8
 66
     8
 43
1.0
 76
     1
 77
     6
 78
     2
 67
     7
 79
     5
170
     0
171
     0
290
     0
174
     0
 93
       13
 44
0.0
173
     0
291
     0
 45
0.0
1001
ACAD
1000
AcDbSavedByObjectVersion
1070
     0
  0
VISUALSTYLE
  5
9AE
102
{ACAD_REACTORS
330
9A1
102
}
330
9A1
100
AcDbVisualStyle
  2
Thicken
 70
    13
 71
     2
 72
     2
 73
     0
 90
        0
 40
-0.6
 41
-30.0
 62
     5
 63
     7
 74
     1
 91
        4
 64
     7
 65
   257
 75
     1
175
     1
 42
1.0
 92
       12
 66
     7
 43
1.0
 76
     1
 77
     6
 78
     2
 67
     7
 79
     5
170
     0
171
     0
290
     0
174
     0
 93
        1
 44
0.0
173
     0
291
     1
 45
0.0
1001
ACAD
1000
AcDbSavedByObjectVersion
1070
     0
  0
DICTIONARYVAR
  5
AAC
102
{ACAD_REACTORS
330
1D0
102
}
330
1D0
100
DictionaryVariables
280
     0
  1
1:1
  0
DICTIONARYVAR
  5
AAA
102
{ACAD_REACTORS
330
1D0
102
}
330
1D0
100
DictionaryVariables
280
     0
  1
STANDARD
  0
DICTIONARYVAR
  5
1D1
102
{ACAD_REACTORS
330
1D0
102
}
330
1D0
100
DictionaryVariables
280
     0
  1
STANDARD
  0
DICTIONARYVAR
  5
B86
102
{ACAD_REACTORS
330
1D0
102
}
330
1D0
100
DictionaryVariables
280
     0
  1
2
  0
DICTIONARYVAR
  5
B85
102
{ACAD_REACTORS
330
1D0
102
}
330
1D0
100
DictionaryVariables
280
     0
  1
1
  0
DICTIONARYVAR
  5
B84
102
{ACAD_REACTORS
330
1D0
102
}
330
1D0
100
DictionaryVariables
280
     0
  1
0
  0
DICTIONARYVAR
  5
AAE
102
{ACAD_REACTORS
330
1D0
102
}
330
1D0
100
DictionaryVariables
280
     0
  1
1
  0
DICTIONARYVAR
  5
AAF
102
{ACAD_REACTORS
330
1D0
102
}
330
1D0
100
DictionaryVariables
280
     0
  1
15
  0
DICTIONARYVAR
  5
AAD
102
{ACAD_REACTORS
330
1D0
102
}
330
1D0
100
DictionaryVariables
280
     0
  1
0
  0
DICTIONARYVAR
  5
AAB
102
{ACAD_REACTORS
330
1D0
102
}
330
1D0
100
DictionaryVariables
280
     0
  1
0
  0
DICTIONARYVAR
  5
B83
102
{ACAD_REACTORS
330
1D0
102
}
330
1D0
100
DictionaryVariables
280
     0
  1
127
  0
DICTIONARY
  5
187
102
{ACAD_REACTORS
330
17C
102
}
330
17C
100
AcDbDictionary
281
     1
  0
XRECORD
  5
1A6
102
{ACAD_REACTORS
330
17C
102
}
330
17C
100
AcDbXrecord
280
     1
 90
-1023410169
  0
XRECORD
  5
839
102
{ACAD_REACTORS
330
838
102
}
330
838
100
AcDbXrecord
280
     1
330
619
330
61A
330
63E
330
0
330
0
330
0
  0
DICTIONARY
  5
B8B
330
1E
100
AcDbDictionary
280
     1
281
     1
  3
ACAD_XREC_ROUNDTRIP
360
B8C
  0
DICTIONARY
  5
B8F
330
26
100
AcDbDictionary
280
     1
281
     1
  3
ACAD_XREC_ROUNDTRIP
360
B90
  0
DICTIONARY
  5
B8D
330
22
100
AcDbDictionary
280
     1
281
     1
  3
ACAD_XREC_ROUNDTRIP
360
B8E
  0
DICTIONARY
  5
99A
330
999
100
AcDbDictionary
280
     1
281
     1
  3
ACAD_XREC_ROUNDTRIP
360
B97
  3
BUMPTILE
360
99C
  3
DIFFUSETILE
360
99B
  3
OPACITYTILE
360
99F
  3
REFLECTIONTILE
360
99E
  3
REFRACTIONTILE
360
9A0
  3
SPECULARTILE
360
99D
  0
DICTIONARY
  5
992
330
991
100
AcDbDictionary
280
     1
281
     1
  3
ACAD_XREC_ROUNDTRIP
360
B96
  3
BUMPTILE
360
994
  3
DIFFUSETILE
360
993
  3
OPACITYTILE
360
997
  3
REFLECTIONTILE
360
996
  3
REFRACTIONTILE
360
998
  3
SPECULARTILE
360
995
  0
DICTIONARY
  5
B92
330
21E
100
AcDbDictionary
280
     1
281
     1
  3
ACAD_XREC_ROUNDTRIP
360
B93
  0
DICTIONARY
  5
AA7
330
11B
100
AcDbDictionary
280
     1
281
     1
  3
ACAD_ROUNDTRIP_2008_TABLESTYLE_CELLSTYLEMAP
360
B87
  3
ACAD_XREC_ROUNDTRIP
360
B91
  0
XRECORD
  5
B8C
102
{ACAD_REACTORS
330
B8B
102
}
330
B8B
100
AcDbXrecord
280
     1
102
SHADEPLOT
 70
     0
102
SHADEPLOTRESLEVEL
 70
     2
102
SHADEPLOTCUSTOMDPI
 70
   300
  0
XRECORD
  5
B90
102
{ACAD_REACTORS
330
B8F
102
}
330
B8F
100
AcDbXrecord
280
     1
102
SHADEPLOT
 70
     0
102
SHADEPLOTRESLEVEL
 70
     2
102
SHADEPLOTCUSTOMDPI
 70
   300
  0
XRECORD
  5
B8E
102
{ACAD_REACTORS
330
B8D
102
}
330
B8D
100
AcDbXrecord
280
     1
102
SHADEPLOT
 70
     0
102
SHADEPLOTRESLEVEL
 70
     2
102
SHADEPLOTCUSTOMDPI
 70
   300
  0
XRECORD
  5
B97
102
{ACAD_REACTORS
330
99A
102
}
330
99A
100
AcDbXrecord
280
     1
102
MATERIAL
148
0.0
149
0.0
149
0.0
 93
        0
 94
      127
282
     0
 72
     0
 77
     0
171
     0
175
     0
179
     0
273
     0
  0
XRECORD
  5
99C
102
{ACAD_REACTORS
330
99A
102
}
330
99A
100
AcDbXrecord
280
     1
270
     1
271
     1
  0
XRECORD
  5
99B
102
{ACAD_REACTORS
330
99A
102
}
330
99A
100
AcDbXrecord
280
     1
270
     1
271
     1
  0
XRECORD
  5
99F
102
{ACAD_REACTORS
330
99A
102
}
330
99A
100
AcDbXrecord
280
     1
270
     1
271
     1
  0
XRECORD
  5
99E
102
{ACAD_REACTORS
330
99A
102
}
330
99A
100
AcDbXrecord
280
     1
270
     1
271
     1
  0
XRECORD
  5
9A0
102
{ACAD_REACTORS
330
99A
102
}
330
99A
100
AcDbXrecord
280
     1
270
     1
271
     1
  0
XRECORD
  5
99D
102
{ACAD_REACTORS
330
99A
102
}
330
99A
100
AcDbXrecord
280
     1
270
     1
271
     1
  0
XRECORD
  5
B96
102
{ACAD_REACTORS
330
992
102
}
330
992
100
AcDbXrecord
280
     1
102
MATERIAL
148
0.0
149
0.0
149
0.0
 93
        0
 94
      127
282
     0
 72
     0
 77
     0
171
     0
175
     0
179
     0
273
     0
  0
XRECORD
  5
994
102
{ACAD_REACTORS
330
992
102
}
330
992
100
AcDbXrecord
280
     1
270
     1
271
     1
  0
XRECORD
  5
993
102
{ACAD_REACTORS
330
992
102
}
330
992
100
AcDbXrecord
280
     1
270
     1
271
     1
  0
XRECORD
  5
997
102
{ACAD_REACTORS
330
992
102
}
330
992
100
AcDbXrecord
280
     1
270
     1
271
     1
  0
XRECORD
  5
996
102
{ACAD_REACTORS
330
992
102
}
330
992
100
AcDbXrecord
280
     1
270
     1
271
     1
  0
XRECORD
  5
998
102
{ACAD_REACTORS
330
992
102
}
330
992
100
AcDbXrecord
280
     1
270
     1
271
     1
  0
XRECORD
  5
995
102
{ACAD_REACTORS
330
992
102
}
330
992
100
AcDbXrecord
280
     1
270
     1
271
     1
  0
XRECORD
  5
B93
102
{ACAD_REACTORS
330
B92
102
}
330
B92
100
AcDbXrecord
280
     1
102
MATERIAL
148
0.0
149
0.0
149
0.0
 93
        0
 94
       63
282
     0
 72
     1
 77
     1
171
     1
175
     1
179
     1
273
     0
  0
CELLSTYLEMAP
  5
B87
102
{ACAD_REACTORS
330
AA7
102
}
330
AA7
100
AcDbCellStyleMap
 90
        3
300
CELLSTYLE
  1
TABLEFORMAT_BEGIN
 90
        5
170
     1
 91
        0
 92
    32768
 62
   257
 93
        1
300
CONTENTFORMAT
  1
CONTENTFORMAT_BEGIN
 90
        0
 91
        0
 92
        4
 93
        0
300

 40
0.0
140
1.0
 94
        5
 62
     0
340
11
144
0.25
309
CONTENTFORMAT_END
171
     0
 94
        6
 95
        1
302
GRIDFORMAT
  1
GRIDFORMAT_BEGIN
 90
        0
 91
        1
 62
     0
 92
       -2
340
0
 93
        0
 40
0.045
309
GRIDFORMAT_END
 95
        2
302
GRIDFORMAT
  1
GRIDFORMAT_BEGIN
 90
        0
 91
        1
 62
     0
 92
       -2
340
0
 93
        0
 40
0.045
309
GRIDFORMAT_END
 95
        4
302
GRIDFORMAT
  1
GRIDFORMAT_BEGIN
 90
        0
 91
        1
 62
     0
 92
       -2
340
0
 93
        0
 40
0.045
309
GRIDFORMAT_END
 95
        8
302
GRIDFORMAT
  1
GRIDFORMAT_BEGIN
 90
        0
 91
        1
 62
     0
 92
       -2
340
0
 93
        0
 40
0.045
309
GRIDFORMAT_END
 95
       16
302
GRIDFORMAT
  1
GRIDFORMAT_BEGIN
 90
        0
 91
        1
 62
     0
 92
       -2
340
0
 93
        0
 40
0.045
309
GRIDFORMAT_END
 95
       32
302
GRIDFORMAT
  1
GRIDFORMAT_BEGIN
 90
        0
 91
        1
 62
     0
 92
       -2
340
0
 93
        0
 40
0.045
309
GRIDFORMAT_END
309
TABLEFORMAT_END
  1
CELLSTYLE_BEGIN
 90
        1
 91
        1
300
_TITLE
309
CELLSTYLE_END
300
CELLSTYLE
  1
TABLEFORMAT_BEGIN
 90
        5
170
     1
 91
        0
 92
        0
 62
   257
 93
        1
300
CONTENTFORMAT
  1
CONTENTFORMAT_BEGIN
 90
        0
 91
        0
 92
        4
 93
        0
300

 40
0.0
140
1.0
 94
        5
 62
     0
340
11
144
0.18
309
CONTENTFORMAT_END
171
     0
 94
        6
 95
        1
302
GRIDFORMAT
  1
GRIDFORMAT_BEGIN
 90
        0
 91
        1
 62
     0
 92
       -2
340
0
 93
        0
 40
0.045
309
GRIDFORMAT_END
 95
        2
302
GRIDFORMAT
  1
GRIDFORMAT_BEGIN
 90
        0
 91
        1
 62
     0
 92
       -2
340
0
 93
        0
 40
0.045
309
GRIDFORMAT_END
 95
        4
302
GRIDFORMAT
  1
GRIDFORMAT_BEGIN
 90
        0
 91
        1
 62
     0
 92
       -2
340
0
 93
        0
 40
0.045
309
GRIDFORMAT_END
 95
        8
302
GRIDFORMAT
  1
GRIDFORMAT_BEGIN
 90
        0
 91
        1
 62
     0
 92
       -2
340
0
 93
        0
 40
0.045
309
GRIDFORMAT_END
 95
       16
302
GRIDFORMAT
  1
GRIDFORMAT_BEGIN
 90
        0
 91
        1
 62
     0
 92
       -2
340
0
 93
        0
 40
0.045
309
GRIDFORMAT_END
 95
       32
302
GRIDFORMAT
  1
GRIDFORMAT_BEGIN
 90
        0
 91
        1
 62
     0
 92
       -2
340
0
 93
        0
 40
0.045
309
GRIDFORMAT_END
309
TABLEFORMAT_END
  1
CELLSTYLE_BEGIN
 90
        2
 91
        1
300
_HEADER
309
CELLSTYLE_END
300
CELLSTYLE
  1
TABLEFORMAT_BEGIN
 90
        5
170
     1
 91
        0
 92
        0
 62
   257
 93
        1
300
CONTENTFORMAT
  1
CONTENTFORMAT_BEGIN
 90
        0
 91
        0
 92
        4
 93
        0
300

 40
0.0
140
1.0
 94
        2
 62
     0
340
11
144
0.18
309
CONTENTFORMAT_END
171
     0
 94
        6
 95
        1
302
GRIDFORMAT
  1
GRIDFORMAT_BEGIN
 90
        0
 91
        1
 62
     0
 92
       -2
340
0
 93
        0
 40
0.045
309
GRIDFORMAT_END
 95
        2
302
GRIDFORMAT
  1
GRIDFORMAT_BEGIN
 90
        0
 91
        1
 62
     0
 92
       -2
340
0
 93
        0
 40
0.045
309
GRIDFORMAT_END
 95
        4
302
GRIDFORMAT
  1
GRIDFORMAT_BEGIN
 90
        0
 91
        1
 62
     0
 92
       -2
340
0
 93
        0
 40
0.045
309
GRIDFORMAT_END
 95
        8
302
GRIDFORMAT
  1
GRIDFORMAT_BEGIN
 90
        0
 91
        1
 62
     0
 92
       -2
340
0
 93
        0
 40
0.045
309
GRIDFORMAT_END
 95
       16
302
GRIDFORMAT
  1
GRIDFORMAT_BEGIN
 90
        0
 91
        1
 62
     0
 92
       -2
340
0
 93
        0
 40
0.045
309
GRIDFORMAT_END
 95
       32
302
GRIDFORMAT
  1
GRIDFORMAT_BEGIN
 90
        0
 91
        1
 62
     0
 92
       -2
340
0
 93
        0
 40
0.045
309
GRIDFORMAT_END
309
TABLEFORMAT_END
  1
CELLSTYLE_BEGIN
 90
        3
 91
        2
300
_DATA
309
CELLSTYLE_END
  0
XRECORD
  5
B91
102
{ACAD_REACTORS
330
AA7
102
}
330
AA7
100
AcDbXrecord
280
     1
102
ACAD_ROUNDTRIP_PRE2007_TABLESTYLE
 90
        4
 91
        0
  1

 92
        4
 93
        0
  2

 94
        4
 95
        0
  3

  0
ENDSEC
  0
EOF
