  0
SECTION
  2
HEADER
  9
$ACADVER
  1
AC1015
  9
$ACADMAINTVER
 70
    20
  9
$DWGCODEPAGE
  3
ANSI_1252
  9
$INSBASE
 10
0.0
 20
0.0
 30
0.0
  9
$EXTMIN
 10
46.09836285286019
 20
26.61939310026469
 30
-0.0000000000000053
  9
$EXTMAX
 10
200.425549113942
 20
269.6341608909055
 30
0.0000000000000099
  9
$LIMMIN
 10
0.0
 20
0.0
  9
$LIMMAX
 10
420.0
 20
297.0
  9
$ORTHOMODE
 70
     0
  9
$REGENMODE
 70
     1
  9
$FILLMODE
 70
     1
  9
$QTEXTMODE
 70
     0
  9
$MIRRTEXT
 70
     1
  9
$LTSCALE
 40
1.0
  9
$ATTMODE
 70
     1
  9
$TEXTSIZE
 40
2.5
  9
$TRACEWID
 40
1.0
  9
$TEXTSTYLE
  7
Standard
  9
$CLAYER
  8
0
  9
$CELTYPE
  6
ByLayer
  9
$CECOLOR
 62
   256
  9
$CELTSCALE
 40
1.0
  9
$DISPSILH
 70
     0
  9
$DIMSCALE
 40
1.0
  9
$DIMASZ
 40
2.5
  9
$DIMEXO
 40
0.625
  9
$DIMDLI
 40
3.75
  9
$DIMRND
 40
0.0
  9
$DIMDLE
 40
0.0
  9
$DIMEXE
 40
1.25
  9
$DIMTP
 40
0.1
  9
$DIMTM
 40
0.1
  9
$DIMTXT
 40
2.5
  9
$DIMCEN
 40
2.5
  9
$DIMTSZ
 40
0.0
  9
$DIMTOL
 70
     0
  9
$DIMLIM
 70
     0
  9
$DIMTIH
 70
     0
  9
$DIMTOH
 70
     0
  9
$DIMSE1
 70
     0
  9
$DIMSE2
 70
     0
  9
$DIMTAD
 70
     1
  9
$DIMZIN
 70
     8
  9
$DIMBLK
  1

  9
$DIMASO
 70
     1
  9
$DIMSHO
 70
     1
  9
$DIMPOST
  1

  9
$DIMAPOST
  1

  9
$DIMALT
 70
     0
  9
$DIMALTD
 70
     3
  9
$DIMALTF
 40
0.03937007874016
  9
$DIMLFAC
 40
1.0
  9
$DIMTOFL
 70
     1
  9
$DIMTVP
 40
0.0
  9
$DIMTIX
 70
     0
  9
$DIMSOXD
 70
     0
  9
$DIMSAH
 70
     0
  9
$DIMBLK1
  1

  9
$DIMBLK2
  1

  9
$DIMSTYLE
  2
ISO-25
  9
$DIMCLRD
 70
     0
  9
$DIMCLRE
 70
     0
  9
$DIMCLRT
 70
     0
  9
$DIMTFAC
 40
1.0
  9
$DIMGAP
 40
0.625
  9
$DIMJUST
 70
     0
  9
$DIMSD1
 70
     0
  9
$DIMSD2
 70
     0
  9
$DIMTOLJ
 70
     0
  9
$DIMTZIN
 70
     8
  9
$DIMALTZ
 70
     0
  9
$DIMALTTZ
 70
     0
  9
$DIMUPT
 70
     0
  9
$DIMDEC
 70
     1
  9
$DIMTDEC
 70
     2
  9
$DIMALTU
 70
     2
  9
$DIMALTTD
 70
     3
  9
$DIMTXSTY
  7
Standard
  9
$DIMAUNIT
 70
     0
  9
$DIMADEC
 70
     0
  9
$DIMALTRND
 40
0.0
  9
$DIMAZIN
 70
     0
  9
$DIMDSEP
 70
    44
  9
$DIMATFIT
 70
     3
  9
$DIMFRAC
 70
     0
  9
$DIMLDRBLK
  1

  9
$DIMLUNIT
 70
     2
  9
$DIMLWD
 70
    -2
  9
$DIMLWE
 70
    -2
  9
$DIMTMOVE
 70
     0
  9
$LUNITS
 70
     2
  9
$LUPREC
 70
     4
  9
$SKETCHINC
 40
1.0
  9
$FILLETRAD
 40
1.0
  9
$AUNITS
 70
     0
  9
$AUPREC
 70
     0
  9
$MENU
  1
.
  9
$ELEVATION
 40
0.0
  9
$PELEVATION
 40
0.0
  9
$THICKNESS
 40
0.0
  9
$LIMCHECK
 70
     0
  9
$CHAMFERA
 40
10.0
  9
$CHAMFERB
 40
10.0
  9
$CHAMFERC
 40
20.0
  9
$CHAMFERD
 40
0.0
  9
$SKPOLY
 70
     0
  9
$TDCREATE
 40
2452544.484270219
  9
$TDUCREATE
 40
2452544.442603553
  9
$TDUPDATE
 40
2454041.812535000
  9
$TDUUPDATE
 40
2454041.770868334
  9
$TDINDWG
 40
0.3966092245
  9
$TDUSRTIMER
 40
0.3966088773
  9
$USRTIMER
 70
     1
  9
$ANGBASE
 50
0.0
  9
$ANGDIR
 70
     0
  9
$PDMODE
 70
     0
  9
$PDSIZE
 40
0.0
  9
$PLINEWID
 40
0.0
  9
$SPLFRAME
 70
     0
  9
$SPLINETYPE
 70
     6
  9
$SPLINESEGS
 70
     8
  9
$HANDSEED
  5
483D
  9
$SURFTAB1
 70
     6
  9
$SURFTAB2
 70
     6
  9
$SURFTYPE
 70
     6
  9
$SURFU
 70
     6
  9
$SURFV
 70
     6
  9
$UCSBASE
  2

  9
$UCSNAME
  2

  9
$UCSORG
 10
0.0
 20
0.0
 30
0.0
  9
$UCSXDIR
 10
1.0
 20
0.0
 30
0.0
  9
$UCSYDIR
 10
0.0
 20
1.0
 30
0.0
  9
$UCSORTHOREF
  2

  9
$UCSORTHOVIEW
 70
     0
  9
$UCSORGTOP
 10
0.0
 20
0.0
 30
0.0
  9
$UCSORGBOTTOM
 10
0.0
 20
0.0
 30
0.0
  9
$UCSORGLEFT
 10
0.0
 20
0.0
 30
0.0
  9
$UCSORGRIGHT
 10
0.0
 20
0.0
 30
0.0
  9
$UCSORGFRONT
 10
0.0
 20
0.0
 30
0.0
  9
$UCSORGBACK
 10
0.0
 20
0.0
 30
0.0
  9
$PUCSBASE
  2

  9
$PUCSNAME
  2

  9
$PUCSORG
 10
0.0
 20
0.0
 30
0.0
  9
$PUCSXDIR
 10
1.0
 20
0.0
 30
0.0
  9
$PUCSYDIR
 10
0.0
 20
1.0
 30
0.0
  9
$PUCSORTHOREF
  2

  9
$PUCSORTHOVIEW
 70
     0
  9
$PUCSORGTOP
 10
0.0
 20
0.0
 30
0.0
  9
$PUCSORGBOTTOM
 10
0.0
 20
0.0
 30
0.0
  9
$PUCSORGLEFT
 10
0.0
 20
0.0
 30
0.0
  9
$PUCSORGRIGHT
 10
0.0
 20
0.0
 30
0.0
  9
$PUCSORGFRONT
 10
0.0
 20
0.0
 30
0.0
  9
$PUCSORGBACK
 10
0.0
 20
0.0
 30
0.0
  9
$USERI1
 70
     0
  9
$USERI2
 70
     0
  9
$USERI3
 70
     0
  9
$USERI4
 70
     0
  9
$USERI5
 70
     0
  9
$USERR1
 40
0.0
  9
$USERR2
 40
0.0
  9
$USERR3
 40
0.0
  9
$USERR4
 40
0.0
  9
$USERR5
 40
0.0
  9
$WORLDVIEW
 70
     1
  9
$SHADEDGE
 70
     3
  9
$SHADEDIF
 70
    70
  9
$TILEMODE
 70
     1
  9
$MAXACTVP
 70
    64
  9
$PINSBASE
 10
0.0
 20
0.0
 30
0.0
  9
$PLIMCHECK
 70
     0
  9
$PEXTMIN
 10
0.0
 20
0.0
 30
0.0
  9
$PEXTMAX
 10
0.0
 20
0.0
 30
0.0
  9
$PLIMMIN
 10
0.0
 20
0.0
  9
$PLIMMAX
 10
12.0
 20
9.0
  9
$UNITMODE
 70
     0
  9
$VISRETAIN
 70
     1
  9
$PLINEGEN
 70
     0
  9
$PSLTSCALE
 70
     1
  9
$TREEDEPTH
 70
  3020
  9
$CMLSTYLE
  2
Standard
  9
$CMLJUST
 70
     0
  9
$CMLSCALE
 40
20.0
  9
$PROXYGRAPHICS
 70
     1
  9
$MEASUREMENT
 70
     1
  9
$CELWEIGHT
370
    -1
  9
$ENDCAPS
280
     0
  9
$JOINSTYLE
280
     0
  9
$LWDISPLAY
290
     0
  9
$INSUNITS
 70
     4
  9
$HYPERLINKBASE
  1

  9
$STYLESHEET
  1
monochrome.ctb
  9
$XEDIT
290
     1
  9
$CEPSNTYPE
380
     0
  9
$PSTYLEMODE
290
     1
  9
$FINGERPRINTGUID
  2
{FDEAD578-A652-11D2-9A35-0060089B3A3F}
  9
$VERSIONGUID
  2
{9450F0CD-E5F4-422F-B0D4-76721493CE56}
  9
$EXTNAMES
290
     1
  9
$PSVPSCALE
 40
0.0
  9
$OLESTARTUP
290
     0
  0
ENDSEC
  0
SECTION
  2
CLASSES
  0
CLASS
  1
ACDBDICTIONARYWDFLT
  2
AcDbDictionaryWithDefault
  3
ObjectDBX Classes
 90
        0
280
     0
281
     0
  0
CLASS
  1
ACDBPLACEHOLDER
  2
AcDbPlaceHolder
  3
ObjectDBX Classes
 90
        0
280
     0
281
     0
  0
CLASS
  1
LAYOUT
  2
AcDbLayout
  3
ObjectDBX Classes
 90
        0
280
     0
281
     0
  0
CLASS
  1
DICTIONARYVAR
  2
AcDbDictionaryVar
  3
ObjectDBX Classes
 90
        0
280
     0
281
     0
  0
CLASS
  1
ACME_DOCUMENT
  2
AcMeDbDoc
  3
AcMeServices
 90
        0
280
     0
281
     0
  0
CLASS
  1
AMGSETTINGSOBJ
  2
AmgSettingsObj
  3
"AcadM|Product Description: AutoCAD Mechanical 2000|Company: Autodesk"
 90
        0
280
     0
281
     0
  0
CLASS
  1
ACMESCOPE
  2
AcMeScope
  3
AcMeServices
 90
        0
280
     0
281
     0
  0
CLASS
  1
ACMECOMMANDHISTORY
  2
AcMeCommandHistory
  3
AcMeServices
 90
        0
280
     0
281
     0
  0
CLASS
  1
ACIMSYSVARMAN
  2
AcImSysVarManager
  3
AcMeServices
 90
        0
280
     0
281
     0
  0
CLASS
  1
ACIMREALSYSVAR
  2
AcImRealSysVar
  3
AcMeServices
 90
        0
280
     0
281
     0
  0
CLASS
  1
ACIMINTSYSVAR
  2
AcImIntSysVar
  3
AcMeServices
 90
        0
280
     0
281
     0
  0
CLASS
  1
ACMEDRAWINGMAN
  2
AcMeDrawingMan
  3
AcMeServices
 90
        0
280
     0
281
     0
  0
CLASS
  1
ACMEVIEW
  2
AcMeView
  3
AcMeServices
 90
        0
280
     0
281
     0
  0
CLASS
  1
ACDBENTITYCACHE
  2
AcMeEntityCache
  3
AcMeServices
 90
        0
280
     0
281
     0
  0
CLASS
  1
GSMANAGER
  2
AcMeGSManager
  3
AcMeServices
 90
        0
280
     0
281
     0
  0
CLASS
  1
AMDTINTERNALREACTOR
  2
AmdtInternalReactor
  3
AcMeServices
 90
        0
280
     0
281
     0
  0
CLASS
  1
ACMESTATEMGR
  2
AcMeStateMgr
  3
AcMeServices
 90
        0
280
     0
281
     0
  0
CLASS
  1
ACGREFMASTER
  2
AcGrefMaster
  3
AcAttribServices
 90
        0
280
     0
281
     0
  0
CLASS
  1
ACME_DATABASE
  2
AcMeDbDatabase
  3
AcMeServices
 90
        0
280
     0
281
     0
  0
CLASS
  1
ACRFINSADJUSTERMGR
  2
AcRfInsAdjusterMgr
  3
AcMeServices
 90
        0
280
     0
281
     0
  0
CLASS
  1
ACGREFACADMASTER
  2
AcGrefacadMaster
  3
AcGrefServices
 90
        0
280
     0
281
     0
  0
CLASS
  1
AMIMASTER
  2
AmiMaster
  3
AmiServices
 90
        0
280
     0
281
     0
  0
CLASS
  1
ACMDATADICTIONARY
  2
AcmDataDictionary
  3
"AcmSymBB|Product Description: AutoCAD Mechanical 2004 DX|Company: Autodesk"
 90
        0
280
     0
281
     0
  0
CLASS
  1
ACMDATAENTRYBLOCK
  2
AcmDataEntryBlock
  3
"AcmSymBB|Product Description: AutoCAD Mechanical 2004 DX|Company: Autodesk"
 90
        0
280
     0
281
     0
  0
CLASS
  1
ACIMSTRSYSVAR
  2
AcImStrSysVar
  3
AcMeServices
 90
        0
280
     0
281
     0
  0
CLASS
  1
ACMSTANDARDDIN
  2
AcmStandardDIN
  3
"Amdt_StdImp|Product Description: AutoCAD Mechanical 2004 DX|Company: Autodesk"
 90
        0
280
     0
281
     0
  0
CLASS
  1
AMGOBJPROPCFG
  2
AmgObjPropCfg
  3
"AmgLay|Product Description: AutoCAD Mechanical 2000|Company: Autodesk"
 90
        1
280
     0
281
     0
  0
CLASS
  1
AMDTEDGESTANDARDDIN
  2
AmdtEdgeStdDIN
  3
"Amdt_StdImp|Product Description: AutoCAD Mechanical 2004 DX|Company: Autodesk"
 90
        0
280
     0
281
     0
  0
CLASS
  1
ACMSURFSTANDARDDIN
  2
AcmSurfTextStdDIN
  3
"Amdt_StdImp|Product Description: AutoCAD Mechanical 2004 DX|Company: Autodesk"
 90
        0
280
     0
281
     0
  0
CLASS
  1
ACMFCFSTANDARDDIN
  2
AcmFCFStdDIN
  3
"Amdt_StdImp|Product Description: AutoCAD Mechanical 2004 DX|Company: Autodesk"
 90
        0
280
     0
281
     0
  0
CLASS
  1
ACMWELDSTANDARDDIN
  2
AcmWeldingStdDIN
  3
"Amdt_StdImp|Product Description: AutoCAD Mechanical 2004 DX|Company: Autodesk"
 90
        0
280
     0
281
     0
  0
CLASS
  1
ACMIDSTANDARDDIN
  2
AcmIdStdDIN
  3
"Amdt_StdImp|Product Description: AutoCAD Mechanical 2004 DX|Company: Autodesk"
 90
        0
280
     0
281
     0
  0
CLASS
  1
ACMDATUMSTANDARDDIN
  2
AcmDatumStdDIN
  3
"Amdt_StdImp|Product Description: AutoCAD Mechanical 2004 DX|Company: Autodesk"
 90
        0
280
     0
281
     0
  0
CLASS
  1
ACMBOMSTANDARDDIN
  2
AcmBOMStdDIN
  3
"Amdt_StdImp|Product Description: AutoCAD Mechanical 2004 DX|Company: Autodesk"
 90
        0
280
     0
281
     0
  0
CLASS
  1
ACMDETAILSTANDARDDIN
  2
AmdtDetailSymStdDIN
  3
"Amdt_StdImp|Product Description: AutoCAD Mechanical 2004 DX|Company: Autodesk"
 90
        0
280
     0
281
     0
  0
CLASS
  1
ACMSECTIONSTANDARDDIN
  2
AmdtSectionSymStdDIN
  3
"Amdt_StdImp|Product Description: AutoCAD Mechanical 2004 DX|Company: Autodesk"
 90
        0
280
     0
281
     0
  0
CLASS
  1
ACMCENTERLINESTANDARDDIN
  2
AmdtCenterLineStdDIN
  3
"Amdt_StdImp|Product Description: AutoCAD Mechanical 2004 DX|Company: Autodesk"
 90
        0
280
     0
281
     0
  0
CLASS
  1
ACAMGLAYSTD
  2
AcAmgLayStd
  3
"AcAmgLayStd|Product Description: AutoCAD Mechanical 2000|Company: Autodesk"
 90
        0
280
     0
281
     0
  0
CLASS
  1
ACAMGDIMSTD
  2
AcAmgDimStd
  3
"AcAmgDimStd|Product Description: AutoCAD Mechanical 2000|Company: Autodesk"
 90
        0
280
     0
281
     0
  0
CLASS
  1
ACAMGTITLESTD
  2
AcAmgTitleStd
  3
"TITLEAPP"
 90
        0
280
     0
281
     0
  0
CLASS
  1
ACAMGFILTERDAT
  2
AcAmgFilterDat
  3
"AcadM|Product Description: AutoCAD Mechanical 2000|Company: Autodesk"
 90
        0
280
     0
281
     0
  0
CLASS
  1
ACMSTANDARDANSI
  2
AcmStandardANSI
  3
"Amdt_StdImp|Product Description: AutoCAD Mechanical 2004 DX|Company: Autodesk"
 90
        0
280
     0
281
     0
  0
CLASS
  1
ACMSURFSTANDARDANSI
  2
AcmSurfTextStdANSI
  3
"Amdt_StdImp|Product Description: AutoCAD Mechanical 2004 DX|Company: Autodesk"
 90
        0
280
     0
281
     0
  0
CLASS
  1
ACMFCFSTANDARDANSI
  2
AcmFCFStdANSI
  3
"Amdt_StdImp|Product Description: AutoCAD Mechanical 2004 DX|Company: Autodesk"
 90
        0
280
     0
281
     0
  0
CLASS
  1
ACMWELDSTANDARDANSI
  2
AcmWeldingStdANSI
  3
"Amdt_StdImp|Product Description: AutoCAD Mechanical 2004 DX|Company: Autodesk"
 90
        0
280
     0
281
     0
  0
CLASS
  1
ACMIDSTANDARDANSI
  2
AcmIdStdANSI
  3
"Amdt_StdImp|Product Description: AutoCAD Mechanical 2004 DX|Company: Autodesk"
 90
        0
280
     0
281
     0
  0
CLASS
  1
ACMDATUMSTANDARDANSI
  2
AcmDatumStdANSI
  3
"Amdt_StdImp|Product Description: AutoCAD Mechanical 2004 DX|Company: Autodesk"
 90
        0
280
     0
281
     0
  0
CLASS
  1
ACMBOMSTANDARDANSI
  2
AcmBOMStdANSI
  3
"Amdt_StdImp|Product Description: AutoCAD Mechanical 2004 DX|Company: Autodesk"
 90
        0
280
     0
281
     0
  0
CLASS
  1
ACMDETAILSTANDARDANSI
  2
AmdtDetailSymStdANSI
  3
"Amdt_StdImp|Product Description: AutoCAD Mechanical 2004 DX|Company: Autodesk"
 90
        0
280
     0
281
     0
  0
CLASS
  1
ACMSECTIONSTANDARDANSI
  2
AmdtSectionSymStdANSI
  3
"Amdt_StdImp|Product Description: AutoCAD Mechanical 2004 DX|Company: Autodesk"
 90
        0
280
     0
281
     0
  0
CLASS
  1
ACMCENTERLINESTANDARDANSI
  2
AmdtCenterLineStdANSI
  3
"Amdt_StdImp|Product Description: AutoCAD Mechanical 2004 DX|Company: Autodesk"
 90
        0
280
     0
281
     0
  0
CLASS
  1
AMDTFORMULAUPDATEDISPATCHER
  2
AmdtFormulaUpdateDispatcher
  3
AcMeServices
 90
        0
280
     0
281
     0
  0
CLASS
  1
LAYER_INDEX
  2
AcDbLayerIndex
  3
ObjectDBX Classes
 90
        0
280
     0
281
     0
  0
CLASS
  1
IDBUFFER
  2
AcDbIdBuffer
  3
ObjectDBX Classes
 90
        0
280
     0
281
     0
  0
CLASS
  1
TABLESTYLE
  2
AcDbTableStyle
  3
ObjectDBX Classes
 90
     2047
280
     0
281
     0
  0
CLASS
  1
AM_DRAWING_MGR
  2
AcDmDwgMgr
  3
AcMechDwgViewMgmt
 90
        0
280
     0
281
     0
  0
CLASS
  1
AM_DWG_DOCUMENT
  2
AcDmDwgDocument
  3
AcMechDwgViewMgmt
 90
        0
280
     0
281
     0
  0
CLASS
  1
AM_DWG_SHEET
  2
AcDmSheet
  3
AcMechDwgViewMgmt
 90
        0
280
     0
281
     0
  0
CLASS
  1
AM_VIEWDIMPARMAP
  2
AcDmViewDimParMap
  3
AcMechDwgViewMgmt
 90
        0
280
     0
281
     0
  0
CLASS
  1
AM_DWGMGR_NAME
  2
AcDmDwgMgrName
  3
AcMechDwgViewMgmt
 90
        0
280
     0
281
     0
  0
CLASS
  1
AMDTMENUSTATEMGR
  2
AmdtMenuStateMgr
  3
McadcomServices
 90
        0
280
     0
281
     0
  0
CLASS
  1
AMDTMCOMMENUSTATE
  2
AmdtMcomMenuState
  3
McadcomServices
 90
        0
280
     0
281
     0
  0
CLASS
  1
MAPIAMMOUDLE
  2
MApiAmModule
  3
MApiAmServices
 90
        0
280
     0
281
     0
  0
CLASS
  1
AMDTADMENUSTATE
  2
AmdtAdMenuState
  3
DesignerServices
 90
        0
280
     0
281
     0
  0
CLASS
  1
ADAPPL
  2
AcAdAppl
  3
DesignerServices
 90
        0
280
     0
281
     0
  0
CLASS
  1
DEPMGR
  2
AcAdDepMgr
  3
DesignerServices
 90
        0
280
     0
281
     0
  0
CLASS
  1
PARAMMGR
  2
AcAdParamMgr
  3
DesignerServices
 90
        0
280
     0
281
     0
  0
CLASS
  1
PARAMSCOPE
  2
AcAdParamScope
  3
DesignerServices
 90
        0
280
     0
281
     0
  0
CLASS
  1
NAMEDAPPL
  2
AcAdNamedAppl
  3
DesignerServices
 90
        0
280
     0
281
     0
  0
CLASS
  1
AMDTDMMENUSTATE
  2
AmdtDmMenuState
  3
AcMechDwgViewMgmt
 90
        0
280
     0
281
     0
  0
CLASS
  1
AMDTAMMENUSTATE
  2
AmdtAmMenuState
  3
DesignerAssemblies
 90
        0
280
     0
281
     0
  0
CLASS
  1
ACAMPROJECT
  2
AcAmProject
  3
DesignerAssemblies
 90
        0
280
     0
281
     0
  0
CLASS
  1
ACAMGRCOMPDEF
  2
AcAmGrCompDef
  3
DesignerAssemblies
 90
        0
280
     0
281
     0
  0
CLASS
  1
ACCMCONTEXT
  2
AcCmContext
  3
DesignerAssemblies
 90
        0
280
     0
281
     0
  0
CLASS
  1
ACAMCOMPDEF
  2
AcAmCompDef
  3
DesignerAssemblies
 90
        0
280
     0
281
     0
  0
CLASS
  1
ACAMCOMPDEFMGR
  2
AcAmCompDefMgr
  3
DesignerAssemblies
 90
        0
280
     0
281
     0
  0
CLASS
  1
AMCONTEXTMGR
  2
AcAmContextMgr
  3
DesignerAssemblies
 90
        0
280
     0
281
     0
  0
CLASS
  1
ACAMCONTEXTMODELER
  2
AcAmContextModeler
  3
DesignerAssemblies
 90
        0
280
     0
281
     0
  0
CLASS
  1
ACMTHREADLINESTANDARDDIN
  2
AmdtThreadLineStdDIN
  3
"Amdt_StdImp|Product Description: AutoCAD Mechanical 2004 DX|Company: Autodesk"
 90
        0
280
     0
281
     0
  0
CLASS
  1
ACMNOTESTANDARDDIN
  2
AmdtNoteStdDIN
  3
"Amdt_StdImp|Product Description: AutoCAD Mechanical 2004 DX|Company: Autodesk"
 90
        0
280
     0
281
     0
  0
CLASS
  1
AMDTNOTETEMPLATEDB
  2
AmdtNoteTemplateDB
  3
AMDT_STDIMP_MODULE_NAME
 90
        0
280
     0
281
     0
  0
CLASS
  1
ACMTHREADLINESTANDARDANSI
  2
AmdtThreadLineStdANSI
  3
"Amdt_StdImp|Product Description: AutoCAD Mechanical 2004 DX|Company: Autodesk"
 90
        0
280
     0
281
     0
  0
CLASS
  1
ACMNOTESTANDARDANSI
  2
AmdtNoteStdANSI
  3
"Amdt_StdImp|Product Description: AutoCAD Mechanical 2004 DX|Company: Autodesk"
 90
        0
280
     0
281
     0
  0
CLASS
  1
CATALOGSTATE
  2
AcAmCatalogState
  3
DesignerAssemblies
 90
        0
280
     0
281
     0
  0
CLASS
  1
ACAMGRCOMPDEFSET
  2
AcAmGrCompDefSet
  3
DesignerAssemblies
 90
        0
280
     0
281
     0
  0
CLASS
  1
AMDTBROWSERDBTAB
  2
AmdtBrowserDbTab
  3
McadcomServices
 90
        0
280
     0
281
     0
  0
CLASS
  1
CBROWSERAPPOBJECT
  2
CBrowserAppObject
  3
McadcomServices
 90
        0
280
     0
281
     0
  0
CLASS
  1
DM_PLACEHOLDER
  2
AcDmSelsetPlaceholder
  3
AcMechDwgViewMgmt
 90
        0
280
     0
281
     0
  0
ENDSEC
  0
SECTION
  2
TABLES
  0
TABLE
  2
VPORT
  5
8
330
0
100
AcDbSymbolTable
 70
    13
  0
VPORT
  5
4832
330
8
100
AcDbSymbolTableRecord
100
AcDbViewportTableRecord
  2
*Active
 70
     0
 10
0.0
 20
0.0
 11
1.0
 21
1.0
 12
123.2619559834011
 22
148.1267769955851
 13
0.0
 23
0.0
 14
10.0
 24
10.0
 15
10.0
 25
10.0
 16
0.0
 26
0.0
 36
1.0
 17
0.0
 27
0.0
 37
0.0
 40
244.7800082346406
 41
1.494545454545454
 42
50.0
 43
0.0
 44
0.0
 50
0.0
 51
0.0
 71
     0
 72
   100
 73
     1
 74
     3
 75
     0
 76
     0
 77
     0
 78
     0
281
     0
 65
     1
110
0.0
120
0.0
130
0.0
111
1.0
121
0.0
131
0.0
112
0.0
122
1.0
132
0.0
 79
     0
146
0.0
  0
ENDTAB
  0
TABLE
  2
LTYPE
  5
5
330
0
100
AcDbSymbolTable
 70
    32
  0
LTYPE
  5
14
330
5
100
AcDbSymbolTableRecord
100
AcDbLinetypeTableRecord
  2
ByBlock
 70
     0
  3

 72
    65
 73
     0
 40
0.0
  0
LTYPE
  5
15
330
5
100
AcDbSymbolTableRecord
100
AcDbLinetypeTableRecord
  2
ByLayer
 70
     0
  3

 72
    65
 73
     0
 40
0.0
  0
LTYPE
  5
16
330
5
100
AcDbSymbolTableRecord
100
AcDbLinetypeTableRecord
  2
Continuous
 70
     0
  3
Solid line
 72
    65
 73
     0
 40
0.0
  0
LTYPE
  5
9F
330
5
100
AcDbSymbolTableRecord
100
AcDbLinetypeTableRecord
  2
Amconstr
 70
     0
  3
_______________________
 72
    65
 73
     2
 40
9999.0
 49
9999.0
 74
     0
 49
0.0
 74
     0
  0
LTYPE
  5
A4
330
5
100
AcDbSymbolTableRecord
100
AcDbLinetypeTableRecord
  2
Amzigzag
 70
     0
  3
/\/-/\/-/\/-/\/-/\/-/\/
 72
    65
 73
     2
 40
11.0001
 49
0.0001
 74
     4
 75
   135
340
A3
 46
0.04
 50
0.0
 44
0.0
 45
0.0
 49
-11.0
 74
     0
  0
LTYPE
  5
A5
330
5
100
AcDbSymbolTableRecord
100
AcDbLinetypeTableRecord
  2
AM_DIN_F_W050
 70
     0
  3
__ __ __ __ __ __ __ __ __ __ __ __ __ __ __
 72
    65
 73
     2
 40
6.25
 49
4.75
 74
     0
 49
-1.5
 74
     0
  0
LTYPE
  5
A6
330
5
100
AcDbSymbolTableRecord
100
AcDbLinetypeTableRecord
  2
AM_DIN_G_W050
 70
     0
  3
____ . ____ . ____ . ____ . ____ . ____ . ____
 72
    65
 73
     4
 40
13.75
 49
9.75
 74
     0
 49
-1.5
 74
     0
 49
1.0
 74
     0
 49
-1.5
 74
     0
  0
LTYPE
  5
A7
330
5
100
AcDbSymbolTableRecord
100
AcDbLinetypeTableRecord
  2
AM_DIN_K_W050
 70
     0
  3
_____ . . _____ . . _____ . . ____ .. ____
 72
    65
 73
     6
 40
16.25
 49
9.75
 74
     0
 49
-1.5
 74
     0
 49
1.0
 74
     0
 49
-1.5
 74
     0
 49
1.0
 74
     0
 49
-1.5
 74
     0
  0
LTYPE
  5
A8
330
5
100
AcDbSymbolTableRecord
100
AcDbLinetypeTableRecord
  2
AM_DIN_G_W050x2
 70
     0
  3
__ . __ . __ . __ . __ . __
 72
    65
 73
     4
 40
6.875
 49
4.75
 74
     0
 49
-0.875
 74
     0
 49
0.375
 74
     0
 49
-0.875
 74
     0
  0
LTYPE
  5
A9
330
5
100
AcDbSymbolTableRecord
100
AcDbLinetypeTableRecord
  2
AM_DIN_F_W050x2
 70
     0
  3
 _ _ _ _ _ _ _ _ _ _ _ _
 72
    65
 73
     2
 40
3.125
 49
2.25
 74
     0
 49
-0.875
 74
     0
  0
LTYPE
  5
B6
330
5
100
AcDbSymbolTableRecord
100
AcDbLinetypeTableRecord
  2
ACDINWELD
 70
     0
  3
_ _ _ _ _
 72
    65
 73
     2
 40
2.0
 49
2.0
 74
     0
 49
-1.0
 74
     0
  0
LTYPE
  5
B7
330
5
100
AcDbSymbolTableRecord
100
AcDbLinetypeTableRecord
  2
ACDINTGB
 70
     0
  3
__ . . __ . .
 72
    65
 73
     6
 40
9.0
 49
4.0
 74
     0
 49
-1.0
 74
     0
 49
1.0
 74
     0
 49
-1.0
 74
     0
 49
1.0
 74
     0
 49
-1.0
 74
     0
  0
LTYPE
  5
B8
330
5
100
AcDbSymbolTableRecord
100
AcDbLinetypeTableRecord
  2
ACDINTGL
 70
     0
  3
_ _ _ _ _
 72
    65
 73
     2
 40
3.0
 49
2.0
 74
     0
 49
-1.0
 74
     0
  0
LTYPE
  5
B9
330
5
100
AcDbSymbolTableRecord
100
AcDbLinetypeTableRecord
  2
CENTER
 70
     0
  3
__ . __
 72
    65
 73
     4
 40
7.0
 49
4.0
 74
     0
 49
-1.0
 74
     0
 49
1.0
 74
     0
 49
-1.0
 74
     0
  0
LTYPE
  5
641
330
5
100
AcDbSymbolTableRecord
100
AcDbLinetypeTableRecord
  2
HIDDEN
 70
     0
  3
Hidden __ __ __ __ __ __ __ __ __ __ __ __ __ _
 72
    65
 73
     2
 40
0.375
 49
0.25
 74
     0
 49
-0.125
 74
     0
  0
LTYPE
  5
642
330
5
100
AcDbSymbolTableRecord
100
AcDbLinetypeTableRecord
  2
PHANTOM2
 70
     0
  3
Phantom (.5x) ___ _ _ ___ _ _ ___ _ _ ___ _ _
 72
    65
 73
     6
 40
1.25
 49
0.625
 74
     0
 49
-0.125
 74
     0
 49
0.125
 74
     0
 49
-0.125
 74
     0
 49
0.125
 74
     0
 49
-0.125
 74
     0
  0
LTYPE
  5
646
330
5
100
AcDbSymbolTableRecord
100
AcDbLinetypeTableRecord
  2
ACANSTGB
 70
     0
  3
__ . . __ . .
 72
    65
 73
     6
 40
0.35433070866
 49
0.15748031496
 74
     0
 49
-0.03937007874
 74
     0
 49
0.03937007874
 74
     0
 49
-0.03937007874
 74
     0
 49
0.03937007874
 74
     0
 49
-0.03937007874
 74
     0
  0
LTYPE
  5
647
330
5
100
AcDbSymbolTableRecord
100
AcDbLinetypeTableRecord
  2
ACANSTGL
 70
     0
  3
_ _ _ _ _
 72
    65
 73
     2
 40
0.11811023622
 49
0.07874015748
 74
     0
 49
-0.03937007874
 74
     0
  0
LTYPE
  5
649
330
5
100
AcDbSymbolTableRecord
100
AcDbLinetypeTableRecord
  2
GEN7
 70
     0
  3
____ . ____ . ____ . ____ . ____ . ____ . ____
 72
    65
 73
     4
 40
13.75
 49
9.75
 74
     0
 49
-1.5
 74
     0
 49
1.0
 74
     0
 49
-1.5
 74
     0
  0
ENDTAB
  0
TABLE
  2
LAYER
  5
2
102
{ACAD_XDICTIONARY
360
130
102
}
330
0
100
AcDbSymbolTable
 70
    28
  0
LAYER
  5
10
330
2
100
AcDbSymbolTableRecord
100
AcDbLayerTableRecord
  2
0
 70
     0
 62
     7
  6
Continuous
370
    -3
390
F
  0
LAYER
  5
957
330
2
100
AcDbSymbolTableRecord
100
AcDbLayerTableRecord
  2
7
 70
     0
 62
     4
  6
GEN7
370
    -3
390
F
  0
LAYER
  5
959
330
2
100
AcDbSymbolTableRecord
100
AcDbLayerTableRecord
  2
5
 70
     0
 62
     3
  6
Continuous
370
    -3
390
F
  0
LAYER
  5
95A
330
2
100
AcDbSymbolTableRecord
100
AcDbLayerTableRecord
  2
DEFPOINTS
 70
     0
 62
     7
  6
Continuous
290
     0
370
    -3
390
F
  0
LAYER
  5
1D6D
330
2
100
AcDbSymbolTableRecord
100
AcDbLayerTableRecord
  2
AM_7
 70
     0
 62
     4
  6
AM_DIN_G_W050
370
    25
390
F
  0
LAYER
  5
2164
330
2
100
AcDbSymbolTableRecord
100
AcDbLayerTableRecord
  2
AM_4
 70
     0
 62
     3
  6
Continuous
370
    25
390
F
  0
LAYER
  5
2179
330
2
100
AcDbSymbolTableRecord
100
AcDbLayerTableRecord
  2
AM_8
 70
     0
 62
     1
  6
Continuous
370
    25
390
F
  0
ENDTAB
  0
TABLE
  2
STYLE
  5
3
330
0
100
AcDbSymbolTable
 70
    12
  0
STYLE
  5
11
330
3
100
AcDbSymbolTableRecord
100
AcDbTextStyleTableRecord
  2
Standard
 70
     0
 40
0.0
 41
1.0
 50
0.0
 71
     0
 42
2.5
  3
isocp.shx
  4

  0
STYLE
  5
A3
330
3
100
AcDbSymbolTableRecord
100
AcDbTextStyleTableRecord
  2

 70
     1
 40
0.0
 41
1.0
 50
0.0
 71
     0
 42
2.5
  3
ltypeshp.shx
  4

  0
STYLE
  5
AA
330
3
100
AcDbSymbolTableRecord
100
AcDbTextStyleTableRecord
  2
ACDINTS
 70
     0
 40
1.0
 41
1.0
 50
0.0
 71
     0
 42
2.5
  3
isocp.shx
  4

  0
STYLE
  5
B5
330
3
100
AcDbSymbolTableRecord
100
AcDbTextStyleTableRecord
  2
ACDINGDT
 70
     0
 40
0.0
 41
1.0
 50
0.0
 71
     0
 42
2.5
  3
amgdt.shx
  4

  0
STYLE
  5
65B
330
3
100
AcDbSymbolTableRecord
100
AcDbTextStyleTableRecord
  2
ACANSTS
 70
     0
 40
1.0
 41
1.0
 50
0.0
 71
     0
 42
2.0
  3
romans.shx
  4

  0
STYLE
  5
65C
330
3
100
AcDbSymbolTableRecord
100
AcDbTextStyleTableRecord
  2
ACANSGDT
 70
     0
 40
0.0
 41
1.0
 50
0.0
 71
     0
 42
2.0
  3
amgdtans.shx
  4

  0
ENDTAB
  0
TABLE
  2
VIEW
  5
6
330
0
100
AcDbSymbolTable
 70
     0
  0
ENDTAB
  0
TABLE
  2
UCS
  5
7
330
0
100
AcDbSymbolTable
 70
     0
  0
ENDTAB
  0
TABLE
  2
APPID
  5
9
330
0
100
AcDbSymbolTable
 70
    37
  0
APPID
  5
12
330
9
100
AcDbSymbolTableRecord
100
AcDbRegAppTableRecord
  2
ACAD
 70
     0
  0
APPID
  5
7D
330
9
100
AcDbSymbolTableRecord
100
AcDbRegAppTableRecord
  2
MCAD_NO_VIS
 70
     0
  0
APPID
  5
7E
330
9
100
AcDbSymbolTableRecord
100
AcDbRegAppTableRecord
  2
ACAD_TEMP_GRAPHIC
 70
     0
  0
APPID
  5
90
330
9
100
AcDbSymbolTableRecord
100
AcDbRegAppTableRecord
  2
ACATTRIBSERVICES
 70
     0
  0
APPID
  5
D2
330
9
100
AcDbSymbolTableRecord
100
AcDbRegAppTableRecord
  2
GENIUS_GENBLLY_14
 70
     0
  0
APPID
  5
D3
330
9
100
AcDbSymbolTableRecord
100
AcDbRegAppTableRecord
  2
GENIUS_GENCFG_13
 70
     0
  0
APPID
  5
D4
330
9
100
AcDbSymbolTableRecord
100
AcDbRegAppTableRecord
  2
GENIUS_GENCFG0_13
 70
     0
  0
APPID
  5
D5
330
9
100
AcDbSymbolTableRecord
100
AcDbRegAppTableRecord
  2
GENIUS_GENCFG1_13
 70
     0
  0
APPID
  5
D6
330
9
100
AcDbSymbolTableRecord
100
AcDbRegAppTableRecord
  2
GENIUS_GENCFG2_13
 70
     0
  0
APPID
  5
D7
330
9
100
AcDbSymbolTableRecord
100
AcDbRegAppTableRecord
  2
GENIUS_GENCFG3_13
 70
     0
  0
APPID
  5
D8
330
9
100
AcDbSymbolTableRecord
100
AcDbRegAppTableRecord
  2
GENIUS_GENCFG4_13
 70
     0
  0
APPID
  5
D9
330
9
100
AcDbSymbolTableRecord
100
AcDbRegAppTableRecord
  2
GENIUS_VERSION2
 70
     0
  0
APPID
  5
DA
330
9
100
AcDbSymbolTableRecord
100
AcDbRegAppTableRecord
  2
GENIUS_GENOENT_13
 70
     0
  0
APPID
  5
DB
330
9
100
AcDbSymbolTableRecord
100
AcDbRegAppTableRecord
  2
GENIUS_GENCFG5_13
 70
     0
  0
APPID
  5
DC
330
9
100
AcDbSymbolTableRecord
100
AcDbRegAppTableRecord
  2
GENIUS_GEVCFG0_13
 70
     0
  0
APPID
  5
DD
330
9
100
AcDbSymbolTableRecord
100
AcDbRegAppTableRecord
  2
GENIUS_GENREC_14
 70
     0
  0
APPID
  5
DE
330
9
100
AcDbSymbolTableRecord
100
AcDbRegAppTableRecord
  2
GENIUS_GENODEF_13
 70
     0
  0
APPID
  5
DF
330
9
100
AcDbSymbolTableRecord
100
AcDbRegAppTableRecord
  2
GENIUS_GENOBJ-N-REC_13
 70
     0
  0
APPID
  5
95E
330
9
100
AcDbSymbolTableRecord
100
AcDbRegAppTableRecord
  2
GENIUS_GENOLIS_13
 70
     0
  0
APPID
  5
95F
330
9
100
AcDbSymbolTableRecord
100
AcDbRegAppTableRecord
  2
GENIUS_GENOREF_13
 70
     0
  0
APPID
  5
960
330
9
100
AcDbSymbolTableRecord
100
AcDbRegAppTableRecord
  2
GENIUS_GENOBJ-N-CEN_13
 70
     0
  0
APPID
  5
961
330
9
100
AcDbSymbolTableRecord
100
AcDbRegAppTableRecord
  2
GENIUS_GENOBJ-N-FIL_13
 70
     0
  0
APPID
  5
962
330
9
100
AcDbSymbolTableRecord
100
AcDbRegAppTableRecord
  2
GENIUS_GENDTOL_13
 70
     0
  0
APPID
  5
963
330
9
100
AcDbSymbolTableRecord
100
AcDbRegAppTableRecord
  2
GENIUS_GENOBJ-N-HTC_13
 70
     0
  0
APPID
  5
964
330
9
100
AcDbSymbolTableRecord
100
AcDbRegAppTableRecord
  2
GENIUS_GENHATCH_13
 70
     0
  0
APPID
  5
965
330
9
100
AcDbSymbolTableRecord
100
AcDbRegAppTableRecord
  2
GENIUS_GENOBJ-N-SEC_13
 70
     0
  0
APPID
  5
966
330
9
100
AcDbSymbolTableRecord
100
AcDbRegAppTableRecord
  2
GENIUS_AMGTXT_16
 70
     0
  0
APPID
  5
1EED
330
9
100
AcDbSymbolTableRecord
100
AcDbRegAppTableRecord
  2
GENIUS_GENOBJ-N-CRS_13
 70
     0
  0
APPID
  5
1F7C
330
9
100
AcDbSymbolTableRecord
100
AcDbRegAppTableRecord
  2
GENIUS_GENOBJ-F-SUF_13
 70
     0
  0
APPID
  5
28D0
330
9
100
AcDbSymbolTableRecord
100
AcDbRegAppTableRecord
  2
DCO15
 70
     0
  0
APPID
  5
4763
330
9
100
AcDbSymbolTableRecord
100
AcDbRegAppTableRecord
  2
AD_DRAW
 70
     0
  0
APPID
  5
4781
330
9
100
AcDbSymbolTableRecord
100
AcDbRegAppTableRecord
  2
DESIGNERASSEMBLIES
 70
     0
  0
APPID
  5
478B
330
9
100
AcDbSymbolTableRecord
100
AcDbRegAppTableRecord
  2
ACAD_DSTYLE_DIMARC_LENGTH_SYMBOL
 70
     0
  0
APPID
  5
478C
330
9
100
AcDbSymbolTableRecord
100
AcDbRegAppTableRecord
  2
ACAD_DSTYLE_DIMJOGGED_JOGANGLE_SYMBOL
 70
     0
  0
APPID
  5
47B0
330
9
100
AcDbSymbolTableRecord
100
AcDbRegAppTableRecord
  2
ACADM_DIM_EDIT
 70
     0
  0
APPID
  5
47B1
330
9
100
AcDbSymbolTableRecord
100
AcDbRegAppTableRecord
  2
AMDT_DM_ADJ
 70
     0
  0
APPID
  5
47B9
330
9
100
AcDbSymbolTableRecord
100
AcDbRegAppTableRecord
  2
GENIUS_GENDIMSH_14
 70
     0
  0
ENDTAB
  0
TABLE
  2
DIMSTYLE
  5
A
330
0
100
AcDbSymbolTable
 70
    17
100
AcDbDimStyleTable
 71
     2
340
D1
340
27
  0
DIMSTYLE
105
27
330
A
100
AcDbSymbolTableRecord
100
AcDbDimStyleTableRecord
  2
ISO-25
 70
     0
 41
2.5
 42
0.625
 43
3.75
 44
1.25
 73
     0
 74
     0
 77
     1
 78
     8
140
2.5
141
2.5
143
0.03937007874016
147
0.625
171
     3
172
     1
271
     2
272
     2
274
     3
278
    44
283
     0
284
     8
340
11
  0
DIMSTYLE
105
BC
330
A
100
AcDbSymbolTableRecord
100
AcDbDimStyleTableRecord
  2
AM_DIN
 70
     0
  4
"
 41
2.5
 42
1.0
 43
10.0
 44
1.0
 47
0.1
 48
0.1
 73
     0
 74
     0
 77
     1
 78
     8
 79
     2
140
3.5
141
0.0
143
0.0393701
146
0.71
147
1.5
172
     1
176
   256
177
   256
178
     2
271
     2
272
     3
274
     4
283
     0
284
     8
340
11
371
    -1
372
    -1
1001
ACAD_DSTYLE_DIMARC_LENGTH_SYMBOL
1070
   379
1070
     0
1001
ACAD_DSTYLE_DIMJOGGED_JOGANGLE_SYMBOL
1070
   384
1040
1.570796326794896
  0
DIMSTYLE
105
BD
330
A
100
AcDbSymbolTableRecord
100
AcDbDimStyleTableRecord
  2
AM_DIN$3
 70
     0
  4
"
 41
2.5
 42
1.0
 43
10.0
 44
1.0
 47
0.1
 48
0.1
 73
     0
 77
     1
 78
     8
 79
     2
140
3.5
141
0.0
143
0.0393701
146
0.71
147
1.5
176
   256
177
   256
178
     2
271
     2
272
     3
274
     4
283
     0
284
     8
288
     1
289
     0
340
11
371
    -1
372
    -1
1001
ACAD_DSTYLE_DIMARC_LENGTH_SYMBOL
1070
   379
1070
     0
1001
ACAD_DSTYLE_DIMJOGGED_JOGANGLE_SYMBOL
1070
   384
1040
1.570796326794896
  0
DIMSTYLE
105
BE
330
A
100
AcDbSymbolTableRecord
100
AcDbDimStyleTableRecord
  2
AM_DIN$4
 70
     0
  4
"
 41
2.5
 42
1.0
 43
10.0
 44
1.0
 47
0.1
 48
0.1
 73
     0
 77
     1
 78
     8
 79
     2
140
3.5
141
0.0
143
0.0393701
146
0.71
147
1.5
176
   256
177
   256
178
     2
271
     2
272
     3
274
     4
283
     0
284
     8
288
     1
289
     0
340
11
371
    -1
372
    -1
1001
ACAD_DSTYLE_DIMARC_LENGTH_SYMBOL
1070
   379
1070
     0
1001
ACAD_DSTYLE_DIMJOGGED_JOGANGLE_SYMBOL
1070
   384
1040
1.570796326794896
  0
DIMSTYLE
105
BF
330
A
100
AcDbSymbolTableRecord
100
AcDbDimStyleTableRecord
  2
AM_DIN$6
 70
     0
  4
"
 41
2.5
 42
1.0
 43
10.0
 44
1.0
 47
0.1
 48
0.1
 73
     0
 74
     0
 78
     8
 79
     2
140
3.5
141
0.0
143
0.0393701
146
0.71
147
1.5
172
     1
176
   256
177
   256
178
     2
271
     2
272
     3
274
     4
283
     0
284
     8
340
11
371
    -1
372
    -1
1001
ACAD_DSTYLE_DIMARC_LENGTH_SYMBOL
1070
   379
1070
     0
1001
ACAD_DSTYLE_DIMJOGGED_JOGANGLE_SYMBOL
1070
   384
1040
1.570796326794896
  0
DIMSTYLE
105
C0
330
A
100
AcDbSymbolTableRecord
100
AcDbDimStyleTableRecord
  2
AM_DIN$7
 70
     0
  4
"
 41
2.5
 42
1.0
 43
10.0
 44
1.0
 47
0.1
 48
0.1
 73
     0
 74
     0
 77
     1
 78
     8
 79
     2
140
5.0
141
0.0
143
0.0393701
146
0.71
147
1.5
172
     1
176
   256
177
   256
178
     2
271
     2
272
     3
274
     4
283
     0
284
     8
340
11
371
    -1
372
    -1
1001
ACAD_DSTYLE_DIMARC_LENGTH_SYMBOL
1070
   379
1070
     0
1001
ACAD_DSTYLE_DIMJOGGED_JOGANGLE_SYMBOL
1070
   384
1040
1.570796326794896
  0
DIMSTYLE
105
C1
330
A
100
AcDbSymbolTableRecord
100
AcDbDimStyleTableRecord
  2
AM_DIN$SF
 70
     0
  4
"
 41
2.5
 42
1.0
 43
10.0
 44
1.0
 47
0.1
 48
0.1
 73
     0
 74
     0
 75
     1
 76
     1
 77
     1
 78
     8
 79
     2
140
3.5
141
0.0
143
0.0393701
146
0.71
147
1.5
172
     1
176
   256
177
   256
178
     2
271
     2
272
     3
274
     4
283
     0
284
     8
340
11
371
    -1
372
    -1
1001
ACAD_DSTYLE_DIMARC_LENGTH_SYMBOL
1070
   379
1070
     0
1001
ACAD_DSTYLE_DIMJOGGED_JOGANGLE_SYMBOL
1070
   384
1040
1.570796326794896
  0
DIMSTYLE
105
C6
330
A
100
AcDbSymbolTableRecord
100
AcDbDimStyleTableRecord
  2
AM_DIN$SH
 70
     0
  4
"
 41
2.5
 42
1.0
 43
10.0
 44
1.0
 47
0.1
 48
0.1
 73
     0
 74
     0
 75
     1
 76
     1
 77
     1
 78
     8
 79
     2
140
3.5
141
0.0
143
0.0393701
144
2.0
146
0.71
147
1.5
172
     1
173
     1
176
   256
177
   256
178
     2
271
     2
272
     3
274
     4
283
     0
284
     8
340
11
343
C2
371
    -1
372
    -1
1001
ACAD_DSTYLE_DIMARC_LENGTH_SYMBOL
1070
   379
1070
     0
1001
ACAD_DSTYLE_DIMJOGGED_JOGANGLE_SYMBOL
1070
   384
1040
1.570796326794896
  0
DIMSTYLE
105
D1
102
{ACAD_REACTORS
330
C9B
330
4482
330
B2C
102
}
330
A
100
AcDbSymbolTableRecord
100
AcDbDimStyleTableRecord
  2
GEN-ISO
 70
     0
 41
2.5
 42
1.0
 43
7.0
 44
1.0
 47
0.1
 48
0.1
 73
     0
 74
     0
 77
     1
 78
     8
140
3.5
141
0.0
143
0.0393701
146
0.71
147
0.6
172
     1
176
   256
177
   256
178
     2
271
     2
272
     3
274
     4
283
     0
340
11
  0
DIMSTYLE
105
65F
330
A
100
AcDbSymbolTableRecord
100
AcDbDimStyleTableRecord
  2
STANDARD
 70
     0
340
11
  0
DIMSTYLE
105
660
330
A
100
AcDbSymbolTableRecord
100
AcDbDimStyleTableRecord
  2
AM_ANSI
 70
     0
  4
mm
 41
0.1
 42
0.05
 43
0.5
 44
0.1
 47
0.1
 48
0.1
 78
     7
 79
     2
140
0.12
141
0.0
146
0.71
147
0.06
176
   256
177
   256
178
     2
274
     4
284
     7
340
11
371
    -1
372
    -1
1001
ACAD_DSTYLE_DIMARC_LENGTH_SYMBOL
1070
   379
1070
     1
1001
ACAD_DSTYLE_DIMJOGGED_JOGANGLE_SYMBOL
1070
   384
1040
0.7853981633974483
  0
DIMSTYLE
105
661
330
A
100
AcDbSymbolTableRecord
100
AcDbDimStyleTableRecord
  2
AM_ANSI$3
 70
     0
  4
mm
 41
0.1
 42
0.05
 43
0.5
 44
0.1
 47
0.1
 48
0.1
 78
     7
 79
     2
140
0.12
141
0.0
146
0.71
147
0.06
176
   256
177
   256
178
     2
274
     4
284
     7
288
     1
289
     0
340
11
371
    -1
372
    -1
1001
ACAD_DSTYLE_DIMARC_LENGTH_SYMBOL
1070
   379
1070
     1
1001
ACAD_DSTYLE_DIMJOGGED_JOGANGLE_SYMBOL
1070
   384
1040
0.7853981633974483
  0
DIMSTYLE
105
662
330
A
100
AcDbSymbolTableRecord
100
AcDbDimStyleTableRecord
  2
AM_ANSI$4
 70
     0
  4
mm
 41
0.1
 42
0.05
 43
0.5
 44
0.1
 47
0.1
 48
0.1
 78
     7
 79
     2
140
0.12
141
0.0
146
0.71
147
0.06
176
   256
177
   256
178
     2
274
     4
284
     7
288
     1
289
     0
340
11
371
    -1
372
    -1
1001
ACAD_DSTYLE_DIMARC_LENGTH_SYMBOL
1070
   379
1070
     1
1001
ACAD_DSTYLE_DIMJOGGED_JOGANGLE_SYMBOL
1070
   384
1040
0.7853981633974483
  0
DIMSTYLE
105
663
330
A
100
AcDbSymbolTableRecord
100
AcDbDimStyleTableRecord
  2
AM_ANSI$7
 70
     0
  4
mm
 41
0.1
 42
0.05
 43
0.5
 44
0.1
 47
0.1
 48
0.1
 78
     7
 79
     2
140
0.24
141
0.0
146
0.71
147
0.06
176
   256
177
   256
178
     2
274
     4
284
     7
340
11
371
    -1
372
    -1
1001
ACAD_DSTYLE_DIMARC_LENGTH_SYMBOL
1070
   379
1070
     1
1001
ACAD_DSTYLE_DIMJOGGED_JOGANGLE_SYMBOL
1070
   384
1040
0.7853981633974483
  0
DIMSTYLE
105
664
330
A
100
AcDbSymbolTableRecord
100
AcDbDimStyleTableRecord
  2
AM_ANSI$SF
 70
     0
  4
mm
 41
0.1
 42
0.05
 43
0.5
 44
0.1
 47
0.1
 48
0.1
 75
     1
 76
     1
 78
     7
 79
     2
140
0.12
141
0.0
146
0.71
147
0.06
176
   256
177
   256
178
     2
274
     4
284
     7
340
11
371
    -1
372
    -1
1001
ACAD_DSTYLE_DIMARC_LENGTH_SYMBOL
1070
   379
1070
     1
1001
ACAD_DSTYLE_DIMJOGGED_JOGANGLE_SYMBOL
1070
   384
1040
0.7853981633974483
  0
DIMSTYLE
105
665
330
A
100
AcDbSymbolTableRecord
100
AcDbDimStyleTableRecord
  2
AM_ANSI$SH
 70
     0
  4
mm
 41
0.1
 42
0.05
 43
0.5
 44
0.1
 47
0.1
 48
0.1
 75
     1
 76
     1
 78
     7
 79
     2
140
0.12
141
0.0
146
0.71
147
0.06
173
     1
176
   256
177
   256
178
     2
274
     4
284
     7
340
11
343
C2
371
    -1
372
    -1
1001
ACAD_DSTYLE_DIMARC_LENGTH_SYMBOL
1070
   379
1070
     1
1001
ACAD_DSTYLE_DIMJOGGED_JOGANGLE_SYMBOL
1070
   384
1040
0.7853981633974483
  0
ENDTAB
  0
TABLE
  2
BLOCK_RECORD
  5
1
330
0
100
AcDbSymbolTable
 70
    28
  0
BLOCK_RECORD
  5
1F
102
{ACAD_XDICTIONARY
360
8D1
102
}
330
1
100
AcDbSymbolTableRecord
100
AcDbBlockTableRecord
  2
*Model_Space
340
22
  0
BLOCK_RECORD
  5
50
330
1
100
AcDbSymbolTableRecord
100
AcDbBlockTableRecord
  2
*Paper_Space
340
51
  0
BLOCK_RECORD
  5
55
330
1
100
AcDbSymbolTableRecord
100
AcDbBlockTableRecord
  2
*Paper_Space0
340
56
  0
BLOCK_RECORD
  5
C2
330
1
100
AcDbSymbolTableRecord
100
AcDbBlockTableRecord
  2
GENAXEH
340
0
  0
BLOCK_RECORD
  5
CFD
330
1
100
AcDbSymbolTableRecord
100
AcDbBlockTableRecord
  2
*D5
340
0
  0
BLOCK_RECORD
  5
D0B
330
1
100
AcDbSymbolTableRecord
100
AcDbBlockTableRecord
  2
*D6
340
0
  0
BLOCK_RECORD
  5
4483
330
1
100
AcDbSymbolTableRecord
100
AcDbBlockTableRecord
  2
*D14
340
0
  0
ENDTAB
  0
ENDSEC
  0
SECTION
  2
BLOCKS
  0
BLOCK
  5
20
330
1F
100
AcDbEntity
  8
0
100
AcDbBlockBegin
  2
*Model_Space
 70
     0
 10
0.0
 20
0.0
 30
0.0
  3
*Model_Space
  1

  0
ENDBLK
  5
21
330
1F
100
AcDbEntity
  8
0
100
AcDbBlockEnd
  0
BLOCK
  5
52
330
50
100
AcDbEntity
 67
     1
  8
0
100
AcDbBlockBegin
  2
*Paper_Space
 70
     0
 10
0.0
 20
0.0
 30
0.0
  3
*Paper_Space
  1

  0
ENDBLK
  5
53
330
50
100
AcDbEntity
 67
     1
  8
0
100
AcDbBlockEnd
  0
BLOCK
  5
57
330
55
100
AcDbEntity
 67
     1
  8
0
100
AcDbBlockBegin
  2
*Paper_Space0
 70
     0
 10
0.0
 20
0.0
 30
0.0
  3
*Paper_Space0
  1

  0
ENDBLK
  5
58
330
55
100
AcDbEntity
 67
     1
  8
0
100
AcDbBlockEnd
  0
BLOCK
  5
C4
330
C2
100
AcDbEntity
  8
0
100
AcDbBlockBegin
  2
GENAXEH
 70
     0
 10
0.0
 20
0.0
 30
0.0
  3
GENAXEH
  1

  0
LINE
  5
C3
330
C2
100
AcDbEntity
  8
0
100
AcDbLine
 10
-1.0
 20
0.0
 30
0.0
 11
1.0
 21
0.0
 31
0.0
  0
ENDBLK
  5
C5
330
C2
100
AcDbEntity
  8
0
100
AcDbBlockEnd
  0
BLOCK
  5
D09
330
CFD
100
AcDbEntity
  8
0
100
AcDbBlockBegin
  2
*D5
 70
     1
 10
0.0
 20
0.0
 30
0.0
  3
*D5
  1

  0
LINE
  5
47ED
330
CFD
100
AcDbEntity
  8
5
370
    -2
100
AcDbLine
 10
190.2256351347488
 20
251.325036352094
 30
0.0
 11
200.2256351347488
 21
251.325036352094
 31
0.0
  0
LINE
  5
47EE
330
CFD
100
AcDbEntity
  8
5
370
    -2
100
AcDbLine
 10
190.2256351347487
 20
246.325036352094
 30
0.0
 11
200.2256351347488
 21
246.325036352094
 31
0.0
  0
LINE
  5
47EF
330
CFD
100
AcDbEntity
  8
5
370
    -2
100
AcDbLine
 10
199.2256351347488
 20
239.325036352094
 30
0.0
 11
199.2256351347488
 21
232.325036352094
 31
0.0
  0
LINE
  5
47F0
330
CFD
100
AcDbEntity
  8
5
370
    -2
100
AcDbLine
 10
199.2256351347488
 20
258.325036352094
 30
0.0
 11
199.2256351347488
 21
269.6149858457551
 31
0.0
  0
LINE
  5
47F1
330
CFD
100
AcDbEntity
  8
5
370
    -2
100
AcDbLine
 10
199.2256351347488
 20
246.325036352094
 30
0.0
 11
199.2256351347488
 21
251.325036352094
 31
0.0
  0
SOLID
  5
47F2
330
CFD
100
AcDbEntity
  8
5
100
AcDbTrace
 10
198.0589684680822
 20
239.325036352094
 30
0.0
 11
200.3923018014155
 21
239.325036352094
 31
0.0
 12
199.2256351347488
 22
246.325036352094
 32
0.0
 13
199.2256351347488
 23
246.325036352094
 33
0.0
  0
SOLID
  5
47F3
330
CFD
100
AcDbEntity
  8
5
100
AcDbTrace
 10
198.0589684680822
 20
258.325036352094
 30
0.0
 11
200.3923018014155
 21
258.325036352094
 31
0.0
 12
199.2256351347488
 22
251.325036352094
 32
0.0
 13
199.2256351347488
 23
251.325036352094
 33
0.0
  0
MTEXT
  5
47F4
330
CFD
100
AcDbEntity
  8
5
 62
     2
100
AcDbMText
 10
195.1256351347488
 20
267.4700110989246
 30
0.0
 40
7.0
 41
0.0
 71
     5
 72
     1
  1
5
 11
0.0000000000000001
 21
1.0
 31
0.0
 73
     1
 44
1.0
1001
ACAD
1000
MTEXTBEGIN
1070
    73
1070
     1
1070
    44
1040
1.0
1070
    74
1070
     0
1000
MTEXTEND
  0
POINT
  5
47F5
330
CFD
100
AcDbEntity
  8
DEFPOINTS
 62
     0
100
AcDbPoint
 10
189.2256351347488
 20
251.325036352094
 30
0.0
  0
POINT
  5
47F6
330
CFD
100
AcDbEntity
  8
DEFPOINTS
 62
     0
100
AcDbPoint
 10
189.2256351347487
 20
246.325036352094
 30
0.0
  0
POINT
  5
47F7
330
CFD
100
AcDbEntity
  8
DEFPOINTS
 62
     0
100
AcDbPoint
 10
199.2256351347488
 20
246.325036352094
 30
0.0
  0
ENDBLK
  5
D0A
330
CFD
100
AcDbEntity
  8
0
100
AcDbBlockEnd
  0
BLOCK
  5
D15
330
D0B
100
AcDbEntity
  8
0
100
AcDbBlockBegin
  2
*D6
 70
     1
 10
0.0
 20
0.0
 30
0.0
  3
*D6
  1

  0
LINE
  5
480D
330
D0B
100
AcDbEntity
  8
5
370
    -2
100
AcDbLine
 10
189.2256351347488
 20
48.45318278183649
 30
0.0
 11
189.2256351347488
 21
26.80884585402896
 31
0.0
  0
LINE
  5
480E
330
D0B
100
AcDbEntity
  8
5
370
    -2
100
AcDbLine
 10
49.12563513474889
 20
48.45318278183649
 30
0.0
 11
49.12563513474889
 21
26.80884585402896
 31
0.0
  0
LINE
  5
480F
330
D0B
100
AcDbEntity
  8
5
370
    -2
100
AcDbLine
 10
182.2256351347488
 20
27.80884585402896
 30
0.0
 11
56.12563513474889
 21
27.80884585402896
 31
0.0
  0
SOLID
  5
4810
330
D0B
100
AcDbEntity
  8
5
100
AcDbTrace
 10
182.2256351347488
 20
28.97551252069563
 30
0.0
 11
182.2256351347488
 21
26.64217918736229
 31
0.0
 12
189.2256351347488
 22
27.80884585402896
 32
0.0
 13
189.2256351347488
 23
27.80884585402896
 33
0.0
  0
SOLID
  5
4811
330
D0B
100
AcDbEntity
  8
5
100
AcDbTrace
 10
56.12563513474889
 20
28.97551252069563
 30
0.0
 11
56.12563513474889
 21
26.64217918736229
 31
0.0
 12
49.12563513474889
 22
27.80884585402896
 32
0.0
 13
49.12563513474889
 23
27.80884585402896
 33
0.0
  0
MTEXT
  5
4812
330
D0B
100
AcDbEntity
  8
5
 62
     2
100
AcDbMText
 10
119.4814798435708
 20
31.90884585402896
 30
0.0
 40
7.0
 41
0.0
 71
     5
 72
     1
  1
{\Famgdt|c0;o}140
 73
     1
 44
1.0
1001
ACAD
1000
MTEXTBEGIN
1070
    73
1070
     1
1070
    44
1040
1.0
1070
    74
1070
     0
1000
MTEXTEND
  0
POINT
  5
4813
330
D0B
100
AcDbEntity
  8
DEFPOINTS
 62
     0
100
AcDbPoint
 10
189.2256351347488
 20
49.45318278183648
 30
0.0
  0
POINT
  5
4814
330
D0B
100
AcDbEntity
  8
DEFPOINTS
 62
     0
100
AcDbPoint
 10
49.12563513474889
 20
49.45318278183648
 30
0.0
  0
POINT
  5
4815
330
D0B
100
AcDbEntity
  8
DEFPOINTS
 62
     0
100
AcDbPoint
 10
49.12563513474889
 20
27.80884585402896
 30
0.0
  0
ENDBLK
  5
D16
330
D0B
100
AcDbEntity
  8
0
100
AcDbBlockEnd
  0
BLOCK
  5
448F
330
4483
100
AcDbEntity
  8
0
100
AcDbBlockBegin
  2
*D14
 70
     1
 10
0.0
 20
0.0
 30
0.0
  3
*D14
  1

  0
LINE
  5
4817
330
4483
100
AcDbEntity
  8
5
370
    -2
100
AcDbLine
 10
128.1756351347488
 20
181.5012142473866
 30
0.0
 11
128.1756351347488
 21
206.4693093685365
 31
0.0
  0
LINE
  5
4818
330
4483
100
AcDbEntity
  8
5
370
    -2
100
AcDbLine
 10
122.1756351347488
 20
181.8780604725216
 30
0.0
 11
122.1756351347488
 21
206.4693093685365
 31
0.0
  0
LINE
  5
4819
330
4483
100
AcDbEntity
  8
5
370
    -2
100
AcDbLine
 10
135.1756351347488
 20
205.4693093685365
 30
0.0
 11
142.1756351347488
 21
205.4693093685365
 31
0.0
  0
LINE
  5
481A
330
4483
100
AcDbEntity
  8
5
370
    -2
100
AcDbLine
 10
115.1756351347488
 20
205.4693093685365
 30
0.0
 11
108.1756351347488
 21
205.4693093685365
 31
0.0
  0
LINE
  5
481B
330
4483
100
AcDbEntity
  8
5
370
    -2
100
AcDbLine
 10
128.1756351347488
 20
205.4693093685365
 30
0.0
 11
122.1756351347488
 21
205.4693093685365
 31
0.0
  0
SOLID
  5
481C
330
4483
100
AcDbEntity
  8
5
100
AcDbTrace
 10
135.1756351347488
 20
206.6359760352032
 30
0.0
 11
135.1756351347488
 21
204.3026427018699
 31
0.0
 12
128.1756351347488
 22
205.4693093685365
 32
0.0
 13
128.1756351347488
 23
205.4693093685365
 33
0.0
  0
SOLID
  5
481D
330
4483
100
AcDbEntity
  8
5
100
AcDbTrace
 10
115.1756351347488
 20
206.6359760352032
 30
0.0
 11
115.1756351347488
 21
204.3026427018699
 31
0.0
 12
122.1756351347488
 22
205.4693093685365
 32
0.0
 13
122.1756351347488
 23
205.4693093685365
 33
0.0
  0
MTEXT
  5
481E
330
4483
100
AcDbEntity
  8
5
 62
     2
100
AcDbMText
 10
125.1756351347488
 20
209.5693093685365
 30
0.0
 40
7.0
 41
0.0
 71
     5
 72
     1
  1
6
 73
     1
 44
1.0
1001
ACAD
1000
MTEXTBEGIN
1070
    73
1070
     1
1070
    44
1040
1.0
1070
    74
1070
     0
1000
MTEXTEND
  0
POINT
  5
481F
330
4483
100
AcDbEntity
  8
DEFPOINTS
 62
     0
100
AcDbPoint
 10
128.1756351347488
 20
180.5012142473866
 30
0.0
  0
POINT
  5
4820
330
4483
100
AcDbEntity
  8
DEFPOINTS
 62
     0
100
AcDbPoint
 10
122.1756351347488
 20
180.8780604725216
 30
0.0
  0
POINT
  5
4821
330
4483
100
AcDbEntity
  8
DEFPOINTS
 62
     0
100
AcDbPoint
 10
122.1756351347488
 20
205.4693093685365
 30
0.0
  0
ENDBLK
  5
4490
330
4483
100
AcDbEntity
  8
0
100
AcDbBlockEnd
  0
ENDSEC
  0
SECTION
  2
ENTITIES
  0
LINE
  5
B25
330
1F
100
AcDbEntity
  8
0
100
AcDbLine
 10
189.2256351347488
 20
49.45318278183648
 30
0.0
 11
189.2256351347488
 21
184.5531827818364
 31
0.0
  0
LINE
  5
B26
330
1F
100
AcDbEntity
  8
0
100
AcDbLine
 10
49.12563513474889
 20
49.45318278183648
 30
0.0
 11
49.12563513474887
 21
184.5531827818365
 31
0.0
  0
ARC
  5
B2B
330
1F
100
AcDbEntity
  8
0
100
AcDbCircle
 10
186.7256351347488
 20
49.45318278183648
 30
0.0
 40
2.5
100
AcDbArc
 50
270.0
 51
0.0
1001
GENIUS_GENODEF_13
1002
{
1000
HIER
1070
     0
1002
}
1002
{
1000
MANEDIT
1070
     0
1002
}
1002
{
1000
NOSEL
1070
     0
1002
}
1002
{
1000
BEHIND
1070
     0
1002
}
1002
{
1000
REACTOR
1002
}
1001
GENIUS_GENOBJ-N-FIL_13
1002
{
1000
OWNER
1000
GEN
1002
}
  0
DIMENSION
  5
B2C
330
1F
100
AcDbEntity
  8
5
100
AcDbDimension
  2
*D6
 10
49.12563513474889
 20
27.80884585402896
 30
0.0
 11
119.4814798435708
 21
27.80884585402896
 31
0.0
 70
   160
  1
{\Famgdt;o}<>
 71
     5
 42
140.0999999999999
  3
GEN-ISO
100
AcDbAlignedDimension
 13
189.2256351347488
 23
49.45318278183648
 33
0.0
 14
49.12563513474889
 24
49.45318278183648
 34
0.0
100
AcDbRotatedDimension
1001
GENIUS_GENDTOL_13
1000

1000
h7
1000

1040
0.0
1001
ACAD
1000
DSTYLE
1002
{
1070
    41
1040
7.0
1070
   140
1040
7.0
1070
   271
1070
     0
1002
}
  0
LINE
  5
B2D
330
1F
100
AcDbEntity
  8
0
100
AcDbLine
 10
51.62563513474889
 20
46.95318278183648
 30
0.0
 11
186.7256351347488
 21
46.95318278183648
 31
0.0
  0
ARC
  5
B2E
330
1F
100
AcDbEntity
  8
0
100
AcDbCircle
 10
51.62563513474889
 20
49.45318278183648
 30
0.0
 40
2.5
100
AcDbArc
 50
180.0
 51
270.0
1001
GENIUS_GENODEF_13
1002
{
1000
HIER
1070
     0
1002
}
1002
{
1000
MANEDIT
1070
     0
1002
}
1002
{
1000
NOSEL
1070
     0
1002
}
1002
{
1000
BEHIND
1070
     0
1002
}
1002
{
1000
REACTOR
1002
}
1001
GENIUS_GENOBJ-N-FIL_13
1002
{
1000
OWNER
1000
GEN
1002
}
  0
ARC
  5
BAB
330
1F
100
AcDbEntity
  8
0
100
AcDbCircle
 10
186.7256351347488
 20
184.5531827818364
 30
0.0
 40
2.5
100
AcDbArc
 50
0.0
 51
90.0
1001
GENIUS_GENODEF_13
1002
{
1000
HIER
1070
     0
1002
}
1002
{
1000
MANEDIT
1070
     0
1002
}
1002
{
1000
NOSEL
1070
     0
1002
}
1002
{
1000
BEHIND
1070
     0
1002
}
1002
{
1000
REACTOR
1002
}
1001
GENIUS_GENOBJ-N-FIL_13
1002
{
1000
OWNER
1000
GEN
1002
}
  0
LINE
  5
C5C
330
1F
100
AcDbEntity
  8
0
100
AcDbLine
 10
51.62563513474887
 20
187.0531827818365
 30
0.0
 11
186.7256351347488
 21
187.0531827818364
 31
0.0
  0
ARC
  5
C7C
330
1F
100
AcDbEntity
  8
0
100
AcDbCircle
 10
51.62563513474887
 20
184.5531827818365
 30
0.0
 40
2.5
100
AcDbArc
 50
90.0
 51
180.0
1001
GENIUS_GENODEF_13
1002
{
1000
HIER
1070
     0
1002
}
1002
{
1000
MANEDIT
1070
     0
1002
}
1002
{
1000
NOSEL
1070
     0
1002
}
1002
{
1000
BEHIND
1070
     0
1002
}
1002
{
1000
REACTOR
1002
}
1001
GENIUS_GENOBJ-N-FIL_13
1002
{
1000
OWNER
1000
GEN
1002
}
  0
DIMENSION
  5
C9B
330
1F
100
AcDbEntity
  8
5
100
AcDbDimension
  2
*D5
 10
199.2256351347488
 20
246.325036352094
 30
0.0
 11
199.2256351347488
 21
267.4700110989246
 31
0.0
 70
   160
  1
<>
 71
     5
 42
5.0
  3
GEN-ISO
100
AcDbAlignedDimension
 13
189.2256351347488
 23
251.325036352094
 33
0.0
 14
189.2256351347487
 24
246.325036352094
 34
0.0
 50
90.0
100
AcDbRotatedDimension
1001
GENIUS_GENDTOL_13
1000

1000
h7
1000

1040
0.0
1001
ACAD
1000
DSTYLE
1002
{
1070
   140
1040
7.0
1070
    41
1040
7.0
1070
    40
1040
1.0
1002
}
  0
LINE
  5
C9C
330
1F
100
AcDbEntity
  8
0
100
AcDbLine
 10
49.1256351347488
 20
246.3250363520959
 30
0.0
 11
189.2256351347487
 21
246.325036352094
 31
0.0
  0
LINE
  5
C9D
330
1F
100
AcDbEntity
  8
0
100
AcDbLine
 10
49.12563513474887
 20
251.3250363520959
 30
0.0
 11
189.2256351347488
 21
251.325036352094
 31
0.0
  0
POINT
  5
C9F
330
1F
100
AcDbEntity
  8
DEFPOINTS
  6
ByBlock
 62
     0
100
AcDbPoint
 10
56.83221890567215
 20
246.3250363520958
 30
0.0
  0
POINT
  5
CA0
330
1F
100
AcDbEntity
  8
DEFPOINTS
  6
ByBlock
 62
     0
100
AcDbPoint
 10
53.9322189056721
 20
251.3250363520959
 30
0.0
  0
LINE
  5
CA1
330
1F
100
AcDbEntity
  8
0
100
AcDbLine
 10
49.12563513474887
 20
251.3250363520959
 30
0.0
 11
49.12563513474887
 21
246.3250363520959
 31
0.0
  0
POINT
  5
CA3
330
1F
100
AcDbEntity
  8
DEFPOINTS
  6
ByBlock
 62
     0
100
AcDbPoint
 10
63.43221890567213
 20
246.3250363520958
 30
0.0
  0
POINT
  5
CA4
330
1F
100
AcDbEntity
  8
DEFPOINTS
  6
ByBlock
 62
     0
100
AcDbPoint
 10
66.3322189056721
 20
251.3250363520957
 30
0.0
  0
LINE
  5
CB0
330
1F
100
AcDbEntity
  8
7
100
AcDbLine
 10
119.1756351347488
 20
256.325036352095
 30
0.0
 11
119.1756351347488
 21
241.325036352095
 31
0.0
  0
LINE
  5
CBC
330
1F
100
AcDbEntity
  8
0
100
AcDbLine
 10
189.2256351347488
 20
251.325036352094
 30
0.0
 11
189.2256351347488
 21
246.325036352094
 31
0.0
  0
LINE
  5
20DF
330
1F
100
AcDbEntity
  8
0
100
AcDbLine
 10
56.83221890567215
 20
248.4250363520958
 30
0.0
 11
63.43221890567213
 21
248.4250363520957
 31
0.0
  0
LINE
  5
20E0
330
1F
100
AcDbEntity
  8
7
100
AcDbLine
 10
60.13221890567215
 20
255.3250363520958
 30
0.0
 11
60.13221890567215
 21
242.3250363520958
 31
0.0
  0
LINE
  5
20F7
330
1F
100
AcDbEntity
  8
0
100
AcDbLine
 10
56.83221890567215
 20
248.4250363520958
 30
0.0
 11
53.9322189056721
 21
251.3250363520959
 31
0.0
  0
LINE
  5
20F8
330
1F
100
AcDbEntity
  8
0
100
AcDbLine
 10
56.83221890567215
 20
248.4250363520958
 30
0.0
 11
56.83221890567215
 21
246.3250363520958
 31
0.0
  0
LINE
  5
20F9
330
1F
100
AcDbEntity
  8
0
100
AcDbLine
 10
63.43221890567213
 20
248.4250363520957
 30
0.0
 11
63.43221890567213
 21
246.3250363520957
 31
0.0
  0
LINE
  5
20FA
330
1F
100
AcDbEntity
  8
0
100
AcDbLine
 10
63.43221890567213
 20
248.4250363520957
 30
0.0
 11
66.3322189056721
 21
251.3250363520957
 31
0.0
  0
LINE
  5
2165
330
1F
100
AcDbEntity
  8
AM_4
  6
Amzigzag
100
AcDbLine
 10
79.07451888601828
 20
251.3250363520955
 30
0.0
 11
79.07451888601828
 21
246.3250363520955
 31
0.0
  0
HATCH
  5
2178
330
1F
100
AcDbEntity
  8
AM_8
100
AcDbHatch
 10
0.0
 20
0.0
 30
0.0
210
0.0
220
0.0
230
1.0
  2
_U
 70
     0
 71
     0
 91
        1
 92
        1
 93
        5
 72
     1
 10
56.83221890567215
 20
248.4250363520958
 11
53.9322189056721
 21
251.3250363520959
 72
     1
 10
53.9322189056721
 20
251.3250363520959
 11
49.12563513474887
 21
251.3250363520959
 72
     1
 10
49.12563513474887
 20
251.3250363520959
 11
49.1256351347488
 21
246.3250363520959
 72
     1
 10
49.1256351347488
 20
246.3250363520959
 11
56.83221890567215
 21
246.3250363520958
 72
     1
 10
56.83221890567215
 20
246.3250363520958
 11
56.83221890567215
 21
248.4250363520958
 97
        0
 75
     0
 76
     0
 52
45.0
 41
1.5
 77
     0
 78
     1
 53
45.0
 43
0.0
 44
-5.94044138127117
 45
-1.060660171779821
 46
1.060660171779821
 79
     0
 98
        1
 10
0.0
 20
-5.94044138127117
1001
GENIUS_GENOBJ-N-HTC_13
1002
{
1000
OWNER
1000
GEN
1002
}
1001
GENIUS_GENODEF_13
1002
{
1000
HIER
1070
     0
1002
}
1002
{
1000
MANEDIT
1070
     0
1002
}
1002
{
1000
NOSEL
1070
     0
1002
}
1002
{
1000
BEHIND
1070
     0
1002
}
1002
{
1000
OTHER
1070
     0
1002
}
1002
{
1000
REACTOR
1002
}
1001
GENIUS_GENHATCH_13
1002
{
1000
DATA
1040
45.0
1042
2.5
1000
_U
1070
     0
1011
52.48601381482365
1021
247.4982853396534
1031
0.0
1002
}
1002
{
1000
UCS
1010
0.0
1020
0.0
1030
0.0
1010
1.0
1020
0.0
1030
0.0
1010
0.0
1020
1.0
1030
0.0
1002
}
  0
HATCH
  5
2530
330
1F
100
AcDbEntity
  8
AM_8
100
AcDbHatch
 10
0.0
 20
0.0
 30
0.0
210
0.0
220
0.0
230
1.0
  2
_U
 70
     0
 71
     0
 91
        1
 92
        1
 93
        5
 72
     1
 10
63.43221890567213
 20
248.4250363520957
 11
63.43221890567213
 21
246.3250363520957
 72
     1
 10
63.43221890567213
 20
246.3250363520957
 11
79.07451888601828
 21
246.3250363520955
 72
     1
 10
79.07451888601828
 20
246.3250363520955
 11
79.07451888601828
 21
251.3250363520955
 72
     1
 10
79.07451888601828
 20
251.3250363520955
 11
66.3322189056721
 21
251.3250363520957
 72
     1
 10
66.3322189056721
 20
251.3250363520957
 11
63.43221890567213
 21
248.4250363520957
 97
        0
 75
     0
 76
     0
 52
45.0
 41
2.5
 77
     0
 78
     1
 53
45.0
 43
0.0
 44
-5.94044138127117
 45
-1.767766952966368
 46
1.767766952966368
 79
     0
 98
        1
 10
0.0
 20
-5.94044138127117
1001
GENIUS_GENODEF_13
1002
{
1000
HIER
1070
     0
1002
}
1002
{
1000
MANEDIT
1070
     0
1002
}
1002
{
1000
NOSEL
1070
     0
1002
}
1002
{
1000
BEHIND
1070
     0
1002
}
1002
{
1000
OTHER
1070
     0
1002
}
1002
{
1000
REACTOR
1002
}
1001
GENIUS_GENOBJ-N-HTC_13
1002
{
1000
OWNER
1000
GEN
1002
}
1001
GENIUS_GENHATCH_13
1002
{
1000
DATA
1040
45.0
1042
2.5
1000
_U
1070
     0
1011
72.96634864233533
1021
248.9348048955031
1031
0.0
1002
}
1002
{
1000
UCS
1010
0.0
1020
0.0
1030
0.0
1010
1.0
1020
0.0
1030
0.0
1010
0.0
1020
1.0
1030
0.0
1002
}
  0
LINE
  5
27A6
330
1F
100
AcDbEntity
  8
AM_7
100
AcDbLine
 10
46.12563513474888
 20
117.0031827818365
 30
0.0
 11
192.2256351347488
 21
117.0031827818365
 31
0.0
1001
GENIUS_GENOBJ-N-CEN_13
1002
{
1000
OWNER
1000
GEN
1002
}
1001
GENIUS_GENODEF_13
1002
{
1000
HIER
1070
     0
1002
}
1002
{
1000
MANEDIT
1070
     0
1002
}
1002
{
1000
NOSEL
1070
     0
1002
}
1002
{
1000
BEHIND
1070
     0
1002
}
1002
{
1000
OTHER
1070
     0
1002
}
1002
{
1000
REACTOR
1002
}
  0
LINE
  5
27B3
330
1F
100
AcDbEntity
  8
AM_7
100
AcDbLine
 10
119.1756351347488
 20
190.0531827818365
 30
0.0
 11
119.1756351347488
 21
43.95318278183649
 31
0.0
1001
GENIUS_GENODEF_13
1002
{
1000
HIER
1070
     0
1002
}
1002
{
1000
MANEDIT
1070
     0
1002
}
1002
{
1000
NOSEL
1070
     0
1002
}
1002
{
1000
BEHIND
1070
     0
1002
}
1002
{
1000
OTHER
1070
     0
1002
}
1002
{
1000
REACTOR
1002
}
1001
GENIUS_GENOBJ-N-CEN_13
1002
{
1000
OWNER
1000
GEN
1002
}
  0
LINE
  5
3341
330
1F
100
AcDbEntity
  8
AM_7
100
AcDbLine
 10
192.2256351347488
 20
117.0031827818365
 30
0.0
 11
46.12563513474888
 21
117.0031827818364
 31
0.0
1001
GENIUS_GENOBJ-N-CEN_13
1002
{
1000
OWNER
1000
GEN
1002
}
1001
GENIUS_GENODEF_13
1002
{
1000
HIER
1070
     0
1002
}
1002
{
1000
MANEDIT
1070
     0
1002
}
1002
{
1000
NOSEL
1070
     0
1002
}
1002
{
1000
BEHIND
1070
     0
1002
}
1002
{
1000
OTHER
1070
     0
1002
}
1002
{
1000
REACTOR
1002
}
  0
ARC
  5
43A8
330
1F
100
AcDbEntity
  8
0
  6
ByBlock
100
AcDbCircle
 10
151.2818851347491
 20
137.4344327818367
 30
0.0
 40
35.05584404037011
100
AcDbArc
 50
283.4023859165384
 51
290.4409934258834
  0
ARC
  5
43A9
330
1F
100
AcDbEntity
  8
0
  6
ByBlock
100
AcDbCircle
 10
151.2818851347491
 20
137.4344327818367
 30
0.0
 40
41.05584404037011
100
AcDbArc
 50
280.8184061744419
 51
286.4278962782698
  0
ARC
  5
43AA
330
1F
100
AcDbEntity
  8
0
100
AcDbCircle
 10
119.1756351347488
 20
117.0031827818364
 30
0.0
 40
65.0
100
AcDbArc
 50
308.6821874534889
 51
313.4325365577899
  0
LINE
  5
43AB
330
1F
100
AcDbEntity
  8
0
100
AcDbLine
 10
158.1756351347488
 20
166.9631667690236
 30
0.0
 11
158.1756351347488
 21
104.3060578709011
 31
0.0
1001
GENIUS_GENODEF_13
1002
{
1000
HIER
1070
     0
1002
}
1002
{
1000
MANEDIT
1070
     0
1002
}
1002
{
1000
NOSEL
1070
     0
1002
}
1002
{
1000
BEHIND
1070
     0
1002
}
1002
{
1000
OTHER
1070
     0
1002
}
1002
{
1000
REACTOR
1002
}
1001
GENIUS_GENOBJ-N-CEN_13
1002
{
1000
OWNER
1000
GEN
1002
}
  0
LINE
  5
43AC
330
1F
100
AcDbEntity
  8
0
100
AcDbLine
 10
152.1756351347488
 20
172.4288086240404
 30
0.0
 11
152.1756351347488
 21
103.3787544852662
 31
0.0
1001
GENIUS_GENODEF_13
1002
{
1000
HIER
1070
     0
1002
}
1002
{
1000
MANEDIT
1070
     0
1002
}
1002
{
1000
NOSEL
1070
     0
1002
}
1002
{
1000
BEHIND
1070
     0
1002
}
1002
{
1000
OTHER
1070
     0
1002
}
1002
{
1000
REACTOR
1002
}
1001
GENIUS_GENOBJ-N-CEN_13
1002
{
1000
OWNER
1000
GEN
1002
}
  0
LINE
  5
43AD
330
1F
100
AcDbEntity
  8
0
100
AcDbLine
 10
146.1756351347489
 20
174.553161061589
 30
0.0
 11
146.1756351347494
 21
103.627048614476
 31
0.0
1001
GENIUS_GENODEF_13
1002
{
1000
HIER
1070
     0
1002
}
1002
{
1000
MANEDIT
1070
     0
1002
}
1002
{
1000
NOSEL
1070
     0
1002
}
1002
{
1000
BEHIND
1070
     0
1002
}
1002
{
1000
OTHER
1070
     0
1002
}
1002
{
1000
REACTOR
1002
}
1001
GENIUS_GENOBJ-N-CEN_13
1002
{
1000
OWNER
1000
GEN
1002
}
  0
LINE
  5
43AE
330
1F
100
AcDbEntity
  8
0
100
AcDbLine
 10
140.1756351347488
 20
177.797919396119
 30
0.0
 11
140.1756351347488
 21
105.6030139595552
 31
0.0
1001
GENIUS_GENODEF_13
1002
{
1000
HIER
1070
     0
1002
}
1002
{
1000
MANEDIT
1070
     0
1002
}
1002
{
1000
NOSEL
1070
     0
1002
}
1002
{
1000
BEHIND
1070
     0
1002
}
1002
{
1000
OTHER
1070
     0
1002
}
1002
{
1000
REACTOR
1002
}
1001
GENIUS_GENOBJ-N-CEN_13
1002
{
1000
OWNER
1000
GEN
1002
}
  0
LINE
  5
43AF
330
1F
100
AcDbEntity
  8
0
100
AcDbLine
 10
134.1756351347488
 20
178.970916321155
 30
0.0
 11
134.1756351347488
 21
107.4279464123949
 31
0.0
1001
GENIUS_GENODEF_13
1002
{
1000
HIER
1070
     0
1002
}
1002
{
1000
MANEDIT
1070
     0
1002
}
1002
{
1000
NOSEL
1070
     0
1002
}
1002
{
1000
BEHIND
1070
     0
1002
}
1002
{
1000
OTHER
1070
     0
1002
}
1002
{
1000
REACTOR
1002
}
1001
GENIUS_GENOBJ-N-CEN_13
1002
{
1000
OWNER
1000
GEN
1002
}
  0
LINE
  5
43B0
330
1F
100
AcDbEntity
  8
0
100
AcDbLine
 10
158.1756351347488
 20
96.1260470849176
 30
0.0
 11
158.1756351347488
 21
67.0431987946492
 31
0.0
1001
GENIUS_GENODEF_13
1002
{
1000
HIER
1070
     0
1002
}
1002
{
1000
MANEDIT
1070
     0
1002
}
1002
{
1000
NOSEL
1070
     0
1002
}
1002
{
1000
BEHIND
1070
     0
1002
}
1002
{
1000
OTHER
1070
     0
1002
}
1002
{
1000
REACTOR
1002
}
1001
GENIUS_GENOBJ-N-CEN_13
1002
{
1000
OWNER
1000
GEN
1002
}
  0
LINE
  5
43B1
330
1F
100
AcDbEntity
  8
0
100
AcDbLine
 10
128.1756351347488
 20
102.9731105656852
 30
0.0
 11
128.1756351347489
 21
52.62927502411212
 31
0.0
1001
GENIUS_GENODEF_13
1002
{
1000
HIER
1070
     0
1002
}
1002
{
1000
MANEDIT
1070
     0
1002
}
1002
{
1000
NOSEL
1070
     0
1002
}
1002
{
1000
BEHIND
1070
     0
1002
}
1002
{
1000
OTHER
1070
     0
1002
}
1002
{
1000
REACTOR
1002
}
1001
GENIUS_GENOBJ-N-CEN_13
1002
{
1000
OWNER
1000
GEN
1002
}
  0
LINE
  5
43B2
330
1F
100
AcDbEntity
  8
0
100
AcDbLine
 10
122.1756351347488
 20
106.1497283899871
 30
0.0
 11
122.175635134749
 21
53.12830509115115
 31
0.0
1001
GENIUS_GENODEF_13
1002
{
1000
HIER
1070
     0
1002
}
1002
{
1000
MANEDIT
1070
     0
1002
}
1002
{
1000
NOSEL
1070
     0
1002
}
1002
{
1000
BEHIND
1070
     0
1002
}
1002
{
1000
OTHER
1070
     0
1002
}
1002
{
1000
REACTOR
1002
}
1001
GENIUS_GENOBJ-N-CEN_13
1002
{
1000
OWNER
1000
GEN
1002
}
  0
LINE
  5
43B3
330
1F
100
AcDbEntity
  8
0
100
AcDbLine
 10
134.1756351347488
 20
98.58494463996517
 30
0.0
 11
134.1756351347488
 21
55.03544924251774
 31
0.0
1001
GENIUS_GENODEF_13
1002
{
1000
HIER
1070
     0
1002
}
1002
{
1000
MANEDIT
1070
     0
1002
}
1002
{
1000
NOSEL
1070
     0
1002
}
1002
{
1000
BEHIND
1070
     0
1002
}
1002
{
1000
OTHER
1070
     0
1002
}
1002
{
1000
REACTOR
1002
}
1001
GENIUS_GENOBJ-N-CEN_13
1002
{
1000
OWNER
1000
GEN
1002
}
  0
LINE
  5
43B4
330
1F
100
AcDbEntity
  8
0
100
AcDbLine
 10
140.1756351347488
 20
97.15872386336553
 30
0.0
 11
140.1756351347489
 21
56.20844616755376
 31
0.0
1001
GENIUS_GENODEF_13
1002
{
1000
HIER
1070
     0
1002
}
1002
{
1000
MANEDIT
1070
     0
1002
}
1002
{
1000
NOSEL
1070
     0
1002
}
1002
{
1000
BEHIND
1070
     0
1002
}
1002
{
1000
OTHER
1070
     0
1002
}
1002
{
1000
REACTOR
1002
}
1001
GENIUS_GENOBJ-N-CEN_13
1002
{
1000
OWNER
1000
GEN
1002
}
  0
LINE
  5
43B5
330
1F
100
AcDbEntity
  8
0
100
AcDbLine
 10
146.1756351347494
 20
95.57953188737242
 30
0.0
 11
146.175635134749
 21
59.45320450208386
 31
0.0
1001
GENIUS_GENODEF_13
1002
{
1000
HIER
1070
     0
1002
}
1002
{
1000
MANEDIT
1070
     0
1002
}
1002
{
1000
NOSEL
1070
     0
1002
}
1002
{
1000
BEHIND
1070
     0
1002
}
1002
{
1000
OTHER
1070
     0
1002
}
1002
{
1000
REACTOR
1002
}
1001
GENIUS_GENOBJ-N-CEN_13
1002
{
1000
OWNER
1000
GEN
1002
}
  0
LINE
  5
43B6
330
1F
100
AcDbEntity
  8
0
100
AcDbLine
 10
152.1756351347488
 20
95.37872295682687
 30
0.0
 11
152.1756351347488
 21
61.57755693963231
 31
0.0
1001
GENIUS_GENODEF_13
1002
{
1000
HIER
1070
     0
1002
}
1002
{
1000
MANEDIT
1070
     0
1002
}
1002
{
1000
NOSEL
1070
     0
1002
}
1002
{
1000
BEHIND
1070
     0
1002
}
1002
{
1000
OTHER
1070
     0
1002
}
1002
{
1000
REACTOR
1002
}
1001
GENIUS_GENOBJ-N-CEN_13
1002
{
1000
OWNER
1000
GEN
1002
}
  0
ARC
  5
43B7
330
1F
100
AcDbEntity
  8
0
100
AcDbCircle
 10
119.1756351347488
 20
117.0031827818364
 30
0.0
 40
65.0
100
AcDbArc
 50
273.5833216984719
 51
277.9588318815455
  0
ARC
  5
43B8
330
1F
100
AcDbEntity
  8
0
100
AcDbCircle
 10
123.1756351347489
 20
53.12830509115115
 30
0.0
 40
1.0
100
AcDbArc
 50
180.0
 51
273.5833216984719
  0
ARC
  5
43B9
330
1F
100
AcDbEntity
  8
0
100
AcDbCircle
 10
159.1756351347488
 20
67.0431987946492
 30
0.0
 40
1.0
100
AcDbArc
 50
180.0
 51
308.6821874534889
  0
ARC
  5
43BA
330
1F
100
AcDbEntity
  8
0
100
AcDbCircle
 10
135.1756351347488
 20
55.03544924251774
 30
0.0
 40
1.0
100
AcDbArc
 50
180.0
 51
284.4775121859299
  0
ARC
  5
43BB
330
1F
100
AcDbEntity
  8
0
100
AcDbCircle
 10
119.1756351347488
 20
117.0031827818364
 30
0.0
 40
65.0
100
AcDbArc
 50
284.4775121859299
 51
288.2099568642828
  0
ARC
  5
43BC
330
1F
100
AcDbEntity
  8
0
100
AcDbCircle
 10
139.1756351347488
 20
56.20844616755376
 30
0.0
 40
1.0
100
AcDbArc
 50
288.2099568642828
 51
0.0
  0
ARC
  5
43BD
330
1F
100
AcDbEntity
  8
0
100
AcDbCircle
 10
151.1756351347488
 20
61.57755693963231
 30
0.0
 40
1.0
100
AcDbArc
 50
299.9999999999997
 51
0.0
  0
ARC
  5
43BE
330
1F
100
AcDbEntity
  8
0
100
AcDbCircle
 10
119.1756351347488
 20
117.0031827818364
 30
0.0
 40
65.0
100
AcDbArc
 50
295.9444797723701
 51
299.9999999999997
  0
ARC
  5
43BF
330
1F
100
AcDbEntity
  8
0
100
AcDbCircle
 10
147.175635134749
 20
59.45320450208384
 30
0.0
 40
1.0
100
AcDbArc
 50
179.9999999999984
 51
295.9444797723701
  0
ARC
  5
43C0
330
1F
100
AcDbEntity
  8
0
  6
ByBlock
100
AcDbCircle
 10
151.2818851347491
 20
137.4344327818367
 30
0.0
 40
41.05584404037011
100
AcDbArc
 50
228.0634034835665
 51
235.0265913861482
  0
ARC
  5
43C1
330
1F
100
AcDbEntity
  8
0
100
AcDbCircle
 10
123.1756351347488
 20
106.1497283899871
 30
0.0
 40
1.0
100
AcDbArc
 50
48.06340348356656
 51
180.0
  0
ARC
  5
43C2
330
1F
100
AcDbEntity
  8
0
100
AcDbCircle
 10
135.1756351347488
 20
98.58494463996517
 30
0.0
 40
1.0
100
AcDbArc
 50
67.48204493122493
 51
180.0
  0
ARC
  5
43C3
330
1F
100
AcDbEntity
  8
0
  6
ByBlock
100
AcDbCircle
 10
151.2818851347491
 20
137.4344327818367
 30
0.0
 40
41.05584404037011
100
AcDbArc
 50
247.4820449312249
 51
253.2700414997457
  0
ARC
  5
43C4
330
1F
100
AcDbEntity
  8
0
100
AcDbCircle
 10
139.1756351347488
 20
97.15872386336553
 30
0.0
 40
1.0
100
AcDbArc
 50
0.0
 51
73.27004149974624
  0
ARC
  5
43C5
330
1F
100
AcDbEntity
  8
0
  6
ByBlock
100
AcDbCircle
 10
151.2818851347491
 20
137.4344327818367
 30
0.0
 40
35.05584404037011
100
AcDbArc
 50
241.7749226510445
 51
249.176993260058
  0
ARC
  5
43C6
330
1F
100
AcDbEntity
  8
0
100
AcDbCircle
 10
135.1756351347488
 20
107.4279464123949
 30
0.0
 40
1.0
100
AcDbArc
 50
180.0
 51
241.7749226510445
  0
ARC
  5
43C7
330
1F
100
AcDbEntity
  8
0
100
AcDbCircle
 10
127.1756351347488
 20
102.9731105656852
 30
0.0
 40
1.0
100
AcDbArc
 50
0.0
 51
55.02659138614721
  0
ARC
  5
43C8
330
1F
100
AcDbEntity
  8
0
100
AcDbCircle
 10
139.1756351347488
 20
105.6030139595552
 30
0.0
 40
1.0
100
AcDbArc
 50
249.176993260058
 51
0.0
  0
ARC
  5
43C9
330
1F
100
AcDbEntity
  8
0
100
AcDbCircle
 10
151.1756351347488
 20
95.37872295682687
 30
0.0
 40
1.0
100
AcDbArc
 50
0.0
 51
89.85524763114158
  0
ARC
  5
43CA
330
1F
100
AcDbEntity
  8
0
  6
ByBlock
100
AcDbCircle
 10
151.2818851347491
 20
137.4344327818367
 30
0.0
 40
41.05584404037011
100
AcDbArc
 50
264.3968257879249
 51
269.8552476311383
  0
ARC
  5
43CB
330
1F
100
AcDbEntity
  8
0
100
AcDbCircle
 10
147.1756351347493
 20
95.5795318873724
 30
0.0
 40
1.0
100
AcDbArc
 50
84.3968257879281
 51
179.9999999999984
  0
ARC
  5
43CC
330
1F
100
AcDbEntity
  8
0
100
AcDbCircle
 10
159.1756351347488
 20
96.1260470849176
 30
0.0
 40
1.0
100
AcDbArc
 50
100.8184061744451
 51
180.0
  0
ARC
  5
43CD
330
1F
100
AcDbEntity
  8
0
100
AcDbCircle
 10
151.1756351347488
 20
103.3787544852662
 30
0.0
 40
1.0
100
AcDbArc
 50
269.8212440002356
 51
0.0
  0
ARC
  5
43CE
330
1F
100
AcDbEntity
  8
0
  6
ByBlock
100
AcDbCircle
 10
151.2818851347491
 20
137.4344327818367
 30
0.0
 40
35.05584404037011
100
AcDbArc
 50
263.0747679835923
 51
269.8212440002356
  0
ARC
  5
43CF
330
1F
100
AcDbEntity
  8
0
100
AcDbCircle
 10
147.1756351347494
 20
103.627048614476
 30
0.0
 40
1.0
100
AcDbArc
 50
180.0
 51
263.074767983589
  0
ARC
  5
43D0
330
1F
100
AcDbEntity
  8
0
100
AcDbCircle
 10
159.1756351347488
 20
104.3060578709011
 30
0.0
 40
1.0
100
AcDbArc
 50
180.0
 51
283.4023859165352
  0
LINE
  5
43D1
330
1F
100
AcDbEntity
  8
0
100
AcDbLine
 10
164.1756351347489
 20
163.4789829363253
 30
0.0
 11
164.1756351347489
 21
105.52300498176
 31
0.0
1001
GENIUS_GENODEF_13
1002
{
1000
HIER
1070
     0
1002
}
1002
{
1000
MANEDIT
1070
     0
1002
}
1002
{
1000
NOSEL
1070
     0
1002
}
1002
{
1000
BEHIND
1070
     0
1002
}
1002
{
1000
OTHER
1070
     0
1002
}
1002
{
1000
REACTOR
1002
}
1001
GENIUS_GENOBJ-N-CEN_13
1002
{
1000
OWNER
1000
GEN
1002
}
  0
LINE
  5
43D2
330
1F
100
AcDbEntity
  8
0
100
AcDbLine
 10
170.1756351347488
 20
154.3126989941917
 30
0.0
 11
170.1756351347488
 21
109.7931733271823
 31
0.0
1001
GENIUS_GENODEF_13
1002
{
1000
HIER
1070
     0
1002
}
1002
{
1000
MANEDIT
1070
     0
1002
}
1002
{
1000
NOSEL
1070
     0
1002
}
1002
{
1000
BEHIND
1070
     0
1002
}
1002
{
1000
OTHER
1070
     0
1002
}
1002
{
1000
REACTOR
1002
}
1001
GENIUS_GENOBJ-N-CEN_13
1002
{
1000
OWNER
1000
GEN
1002
}
  0
LINE
  5
43D3
330
1F
100
AcDbEntity
  8
0
100
AcDbLine
 10
164.1756351347489
 20
97.09545995300242
 30
0.0
 11
164.1756351347489
 21
70.52738262734751
 31
0.0
1001
GENIUS_GENODEF_13
1002
{
1000
HIER
1070
     0
1002
}
1002
{
1000
MANEDIT
1070
     0
1002
}
1002
{
1000
NOSEL
1070
     0
1002
}
1002
{
1000
BEHIND
1070
     0
1002
}
1002
{
1000
OTHER
1070
     0
1002
}
1002
{
1000
REACTOR
1002
}
1001
GENIUS_GENOBJ-N-CEN_13
1002
{
1000
OWNER
1000
GEN
1002
}
  0
LINE
  5
43D4
330
1F
100
AcDbEntity
  8
0
100
AcDbLine
 10
170.1756351347488
 20
100.3813259095994
 30
0.0
 11
170.1756351347488
 21
79.69366656948107
 31
0.0
1001
GENIUS_GENODEF_13
1002
{
1000
HIER
1070
     0
1002
}
1002
{
1000
MANEDIT
1070
     0
1002
}
1002
{
1000
NOSEL
1070
     0
1002
}
1002
{
1000
BEHIND
1070
     0
1002
}
1002
{
1000
OTHER
1070
     0
1002
}
1002
{
1000
REACTOR
1002
}
1001
GENIUS_GENOBJ-N-CEN_13
1002
{
1000
OWNER
1000
GEN
1002
}
  0
LINE
  5
43D5
330
1F
100
AcDbEntity
  8
0
100
AcDbLine
 10
176.1756351347488
 20
102.8254349794524
 30
0.0
 11
176.1756351347488
 21
86.01931601217698
 31
0.0
1001
GENIUS_GENODEF_13
1002
{
1000
HIER
1070
     0
1002
}
1002
{
1000
MANEDIT
1070
     0
1002
}
1002
{
1000
NOSEL
1070
     0
1002
}
1002
{
1000
BEHIND
1070
     0
1002
}
1002
{
1000
OTHER
1070
     0
1002
}
1002
{
1000
REACTOR
1002
}
1001
GENIUS_GENOBJ-N-CEN_13
1002
{
1000
OWNER
1000
GEN
1002
}
  0
ARC
  5
43D6
330
1F
100
AcDbEntity
  8
0
100
AcDbCircle
 10
163.1756351347489
 20
70.52738262734753
 30
0.0
 40
1.0
100
AcDbArc
 50
313.4325365577899
 51
359.9999999999984
  0
ARC
  5
43D7
330
1F
100
AcDbEntity
  8
0
100
AcDbCircle
 10
163.1756351347489
 20
70.52738262734751
 30
0.0
 40
1.0
100
AcDbArc
 50
313.4325365577888
 51
0.0
  0
ARC
  5
43D8
330
1F
100
AcDbEntity
  8
0
100
AcDbCircle
 10
119.1756351347488
 20
117.0031827818364
 30
0.0
 40
65.0
100
AcDbArc
 50
324.3409123038611
 51
331.0449756281407
  0
ARC
  5
43D9
330
1F
100
AcDbEntity
  8
0
100
AcDbCircle
 10
171.1756351347487
 20
79.69366656948107
 30
0.0
 40
1.0
100
AcDbArc
 50
180.0
 51
324.3409123038611
  0
ARC
  5
43DA
330
1F
100
AcDbEntity
  8
0
100
AcDbCircle
 10
175.1756351347488
 20
86.01931601217698
 30
0.0
 40
1.0
100
AcDbArc
 50
331.0449756281407
 51
0.0
  0
ARC
  5
43DB
330
1F
100
AcDbEntity
  8
0
100
AcDbCircle
 10
171.1756351347488
 20
100.3813259095994
 30
0.0
 40
1.0
100
AcDbArc
 50
118.2312754120523
 51
180.0
  0
ARC
  5
43DC
330
1F
100
AcDbEntity
  8
0
100
AcDbCircle
 10
163.1756351347489
 20
97.09545995300242
 30
0.0
 40
1.0
100
AcDbArc
 50
0.0
 51
106.4278962782698
  0
ARC
  5
43DD
330
1F
100
AcDbEntity
  8
0
100
AcDbCircle
 10
163.1756351347489
 20
105.52300498176
 30
0.0
 40
1.0
100
AcDbArc
 50
290.4409934258834
 51
0.0
  0
ARC
  5
43DE
330
1F
100
AcDbEntity
  8
0
  6
ByBlock
100
AcDbCircle
 10
151.2818851347491
 20
137.4344327818367
 30
0.0
 40
41.05584404037011
100
AcDbArc
 50
298.2312754120523
 51
304.62086023333
  0
ARC
  5
43DF
330
1F
100
AcDbEntity
  8
0
100
AcDbCircle
 10
175.1756351347488
 20
102.8254349794524
 30
0.0
 40
1.0
100
AcDbArc
 50
0.0
 51
124.6208602333336
  0
ARC
  5
43E0
330
1F
100
AcDbEntity
  8
0
  6
ByBlock
100
AcDbCircle
 10
151.2818851347491
 20
137.4344327818367
 30
0.0
 40
35.05584404037011
100
AcDbArc
 50
305.7430235802474
 51
314.55591455053
  0
ARC
  5
43E1
330
1F
100
AcDbEntity
  8
0
100
AcDbCircle
 10
171.1756351347488
 20
109.7931733271823
 30
0.0
 40
1.0
100
AcDbArc
 50
180.0
 51
305.7430235802474
  0
ARC
  5
43E2
330
1F
100
AcDbEntity
  8
0
100
AcDbCircle
 10
119.1756351347488
 20
117.0031827818364
 30
0.0
 40
65.0
100
AcDbArc
 50
46.56746344221008
 51
51.31781254651103
  0
LINE
  5
43E3
330
1F
100
AcDbEntity
  8
0
100
AcDbLine
 10
128.1756351347488
 20
180.5012142473866
 30
0.0
 11
128.1756351347488
 21
113.3784725174968
 31
0.0
1001
GENIUS_GENODEF_13
1002
{
1000
HIER
1070
     0
1002
}
1002
{
1000
MANEDIT
1070
     0
1002
}
1002
{
1000
NOSEL
1070
     0
1002
}
1002
{
1000
BEHIND
1070
     0
1002
}
1002
{
1000
OTHER
1070
     0
1002
}
1002
{
1000
REACTOR
1002
}
1001
GENIUS_GENOBJ-N-CEN_13
1002
{
1000
OWNER
1000
GEN
1002
}
  0
LINE
  5
43E4
330
1F
100
AcDbEntity
  8
0
100
AcDbLine
 10
122.1756351347488
 20
180.8780604725216
 30
0.0
 11
122.1756351347488
 21
118.20322834115
 31
0.0
1001
GENIUS_GENODEF_13
1002
{
1000
HIER
1070
     0
1002
}
1002
{
1000
MANEDIT
1070
     0
1002
}
1002
{
1000
NOSEL
1070
     0
1002
}
1002
{
1000
BEHIND
1070
     0
1002
}
1002
{
1000
OTHER
1070
     0
1002
}
1002
{
1000
REACTOR
1002
}
1001
GENIUS_GENOBJ-N-CEN_13
1002
{
1000
OWNER
1000
GEN
1002
}
  0
ARC
  5
43E5
330
1F
100
AcDbEntity
  8
0
100
AcDbCircle
 10
119.1756351347488
 20
117.0031827818364
 30
0.0
 40
65.0
100
AcDbArc
 50
82.81924421854165
 51
86.41667830152803
  0
ARC
  5
43E6
330
1F
100
AcDbEntity
  8
0
100
AcDbCircle
 10
123.1756351347488
 20
180.8780604725216
 30
0.0
 40
1.0
100
AcDbArc
 50
86.41667830152803
 51
180.0
  0
ARC
  5
43E7
330
1F
100
AcDbEntity
  8
0
100
AcDbCircle
 10
135.1756351347488
 20
178.970916321155
 30
0.0
 40
1.0
100
AcDbArc
 50
75.52248781407015
 51
179.9999999999984
  0
ARC
  5
43E8
330
1F
100
AcDbEntity
  8
0
100
AcDbCircle
 10
127.1756351347488
 20
180.5012142473866
 30
0.0
 40
1.0
100
AcDbArc
 50
0.0
 51
82.81924421854165
  0
ARC
  5
43E9
330
1F
100
AcDbEntity
  8
0
100
AcDbCircle
 10
119.1756351347488
 20
117.0031827818364
 30
0.0
 40
65.0
100
AcDbArc
 50
71.79004313571723
 51
75.52248781407015
  0
ARC
  5
43EA
330
1F
100
AcDbEntity
  8
0
100
AcDbCircle
 10
139.1756351347488
 20
177.797919396119
 30
0.0
 40
1.0
100
AcDbArc
 50
359.9999999999984
 51
71.79004313571723
  0
ARC
  5
43EB
330
1F
100
AcDbEntity
  8
0
100
AcDbCircle
 10
159.1756351347488
 20
166.9631667690236
 30
0.0
 40
1.0
100
AcDbArc
 50
51.31781254651103
 51
180.0
  0
ARC
  5
43EC
330
1F
100
AcDbEntity
  8
0
100
AcDbCircle
 10
151.1756351347488
 20
172.4288086240404
 30
0.0
 40
1.0
100
AcDbArc
 50
0.0000000000016284
 51
60.00000000000028
  0
ARC
  5
43ED
330
1F
100
AcDbEntity
  8
0
100
AcDbCircle
 10
119.1756351347488
 20
117.0031827818364
 30
0.0
 40
65.0
100
AcDbArc
 50
60.00000000000028
 51
64.05552022762989
  0
ARC
  5
43EE
330
1F
100
AcDbEntity
  8
0
100
AcDbCircle
 10
147.175635134749
 20
174.553161061589
 30
0.0
 40
1.0
100
AcDbArc
 50
64.05552022762989
 51
180.0
  0
LINE
  5
43EF
330
1F
100
AcDbEntity
  8
0
100
AcDbLine
 10
176.1756351347488
 20
148.244181485463
 30
0.0
 11
176.1756351347488
 21
113.1673929079763
 31
0.0
1001
GENIUS_GENODEF_13
1002
{
1000
HIER
1070
     0
1002
}
1002
{
1000
MANEDIT
1070
     0
1002
}
1002
{
1000
NOSEL
1070
     0
1002
}
1002
{
1000
BEHIND
1070
     0
1002
}
1002
{
1000
OTHER
1070
     0
1002
}
1002
{
1000
REACTOR
1002
}
1001
GENIUS_GENOBJ-N-CEN_13
1002
{
1000
OWNER
1000
GEN
1002
}
  0
LINE
  5
43F0
330
1F
100
AcDbEntity
  8
0
100
AcDbLine
 10
170.1756351347488
 20
154.3126989941917
 30
0.0
 11
170.1756351347488
 21
112.7521838502608
 31
0.0
1001
GENIUS_GENODEF_13
1002
{
1000
HIER
1070
     0
1002
}
1002
{
1000
MANEDIT
1070
     0
1002
}
1002
{
1000
NOSEL
1070
     0
1002
}
1002
{
1000
BEHIND
1070
     0
1002
}
1002
{
1000
OTHER
1070
     0
1002
}
1002
{
1000
REACTOR
1002
}
1001
GENIUS_GENOBJ-N-CEN_13
1002
{
1000
OWNER
1000
GEN
1002
}
  0
LINE
  5
43F1
330
1F
100
AcDbEntity
  8
0
100
AcDbLine
 10
170.1756351347488
 20
154.3126989941917
 30
0.0
 11
170.1756351347488
 21
112.7521838502608
 31
0.0
1001
GENIUS_GENODEF_13
1002
{
1000
HIER
1070
     0
1002
}
1002
{
1000
MANEDIT
1070
     0
1002
}
1002
{
1000
NOSEL
1070
     0
1002
}
1002
{
1000
BEHIND
1070
     0
1002
}
1002
{
1000
OTHER
1070
     0
1002
}
1002
{
1000
REACTOR
1002
}
1001
GENIUS_GENOBJ-N-CEN_13
1002
{
1000
OWNER
1000
GEN
1002
}
  0
ARC
  5
43F2
330
1F
100
AcDbEntity
  8
0
100
AcDbCircle
 10
119.1756351347488
 20
117.0031827818364
 30
0.0
 40
65.0
100
AcDbArc
 50
28.72660534814063
 51
35.6590876961389
  0
ARC
  5
43F3
330
1F
100
AcDbEntity
  8
0
100
AcDbCircle
 10
171.1756351347488
 20
154.3126989941917
 30
0.0
 40
1.0
100
AcDbArc
 50
35.6590876961389
 51
180.0
  0
ARC
  5
43F4
330
1F
100
AcDbEntity
  8
0
100
AcDbCircle
 10
163.1756351347489
 20
163.4789829363253
 30
0.0
 40
1.0
100
AcDbArc
 50
0.0
 51
46.56746344221008
  0
ARC
  5
43F5
330
1F
100
AcDbEntity
  8
0
100
AcDbCircle
 10
91.17563513474886
 20
59.45320450208377
 30
0.0
 40
1.0
100
AcDbArc
 50
244.055520227627
 51
0.0
  0
LINE
  5
43F6
330
1F
100
AcDbEntity
  8
0
100
AcDbLine
 10
62.17563513474885
 20
120.8389726556975
 30
0.0
 11
62.17563513474885
 21
86.01931601217707
 31
0.0
1001
GENIUS_GENODEF_13
1002
{
1000
HIER
1070
     0
1002
}
1002
{
1000
MANEDIT
1070
     0
1002
}
1002
{
1000
NOSEL
1070
     0
1002
}
1002
{
1000
BEHIND
1070
     0
1002
}
1002
{
1000
OTHER
1070
     0
1002
}
1002
{
1000
REACTOR
1002
}
1001
GENIUS_GENOBJ-N-CEN_13
1002
{
1000
OWNER
1000
GEN
1002
}
  0
LINE
  5
43F7
330
1F
100
AcDbEntity
  8
0
100
AcDbLine
 10
68.17563513474886
 20
124.2131922364916
 30
0.0
 11
68.17563513474886
 21
79.69366656948112
 31
0.0
1001
GENIUS_GENODEF_13
1002
{
1000
HIER
1070
     0
1002
}
1002
{
1000
MANEDIT
1070
     0
1002
}
1002
{
1000
NOSEL
1070
     0
1002
}
1002
{
1000
BEHIND
1070
     0
1002
}
1002
{
1000
OTHER
1070
     0
1002
}
1002
{
1000
REACTOR
1002
}
1001
GENIUS_GENOBJ-N-CEN_13
1002
{
1000
OWNER
1000
GEN
1002
}
  0
LINE
  5
43F8
330
1F
100
AcDbEntity
  8
0
100
AcDbLine
 10
74.17563513474886
 20
128.4833605819141
 30
0.0
 11
74.17563513474886
 21
70.52738262734742
 31
0.0
1001
GENIUS_GENODEF_13
1002
{
1000
HIER
1070
     0
1002
}
1002
{
1000
MANEDIT
1070
     0
1002
}
1002
{
1000
NOSEL
1070
     0
1002
}
1002
{
1000
BEHIND
1070
     0
1002
}
1002
{
1000
OTHER
1070
     0
1002
}
1002
{
1000
REACTOR
1002
}
1001
GENIUS_GENOBJ-N-CEN_13
1002
{
1000
OWNER
1000
GEN
1002
}
  0
LINE
  5
43F9
330
1F
100
AcDbEntity
  8
0
100
AcDbLine
 10
80.17563513474886
 20
129.700307692773
 30
0.0
 11
80.17563513474886
 21
67.04319879464923
 31
0.0
1001
GENIUS_GENODEF_13
1002
{
1000
HIER
1070
     0
1002
}
1002
{
1000
MANEDIT
1070
     0
1002
}
1002
{
1000
NOSEL
1070
     0
1002
}
1002
{
1000
BEHIND
1070
     0
1002
}
1002
{
1000
OTHER
1070
     0
1002
}
1002
{
1000
REACTOR
1002
}
1001
GENIUS_GENOBJ-N-CEN_13
1002
{
1000
OWNER
1000
GEN
1002
}
  0
LINE
  5
43FA
330
1F
100
AcDbEntity
  8
0
100
AcDbLine
 10
86.17563513474886
 20
130.627611078408
 30
0.0
 11
86.17563513474886
 21
61.57755693963235
 31
0.0
1001
GENIUS_GENODEF_13
1002
{
1000
HIER
1070
     0
1002
}
1002
{
1000
MANEDIT
1070
     0
1002
}
1002
{
1000
NOSEL
1070
     0
1002
}
1002
{
1000
BEHIND
1070
     0
1002
}
1002
{
1000
OTHER
1070
     0
1002
}
1002
{
1000
REACTOR
1002
}
1001
GENIUS_GENOBJ-N-CEN_13
1002
{
1000
OWNER
1000
GEN
1002
}
  0
LINE
  5
43FB
330
1F
100
AcDbEntity
  8
0
100
AcDbLine
 10
92.17563513474885
 20
130.3793169491981
 30
0.0
 11
92.17563513474885
 21
59.45320450208377
 31
0.0
1001
GENIUS_GENODEF_13
1002
{
1000
HIER
1070
     0
1002
}
1002
{
1000
MANEDIT
1070
     0
1002
}
1002
{
1000
NOSEL
1070
     0
1002
}
1002
{
1000
BEHIND
1070
     0
1002
}
1002
{
1000
OTHER
1070
     0
1002
}
1002
{
1000
REACTOR
1002
}
1001
GENIUS_GENOBJ-N-CEN_13
1002
{
1000
OWNER
1000
GEN
1002
}
  0
ARC
  5
43FC
330
1F
100
AcDbEntity
  8
0
100
AcDbCircle
 10
79.17563513474886
 20
67.04319879464923
 30
0.0
 40
1.0
100
AcDbArc
 50
231.3178125465101
 51
0.0
  0
ARC
  5
43FD
330
1F
100
AcDbEntity
  8
0
100
AcDbCircle
 10
119.1756351347488
 20
117.0031827818364
 30
0.0
 40
65.0
100
AcDbArc
 50
240.0000000000002
 51
244.0555202276299
  0
ARC
  5
43FE
330
1F
100
AcDbEntity
  8
0
100
AcDbCircle
 10
87.17563513474885
 20
61.57755693963235
 30
0.0
 40
1.0
100
AcDbArc
 50
180.0
 51
240.0000000000031
  0
ARC
  5
43FF
330
1F
100
AcDbEntity
  8
0
100
AcDbCircle
 10
119.1756351347488
 20
117.0031827818364
 30
0.0
 40
65.0
100
AcDbArc
 50
226.5674634422101
 51
231.317812546511
  0
ARC
  5
4400
330
1F
100
AcDbEntity
  8
0
100
AcDbCircle
 10
75.1756351347488
 20
70.52738262734742
 30
0.0
 40
1.0
100
AcDbArc
 50
179.9999999999984
 51
226.5674634422101
  0
ARC
  5
4401
330
1F
100
AcDbEntity
  8
0
100
AcDbCircle
 10
67.1756351347488
 20
79.69366656948115
 30
0.0
 40
1.0
100
AcDbArc
 50
215.6590876961389
 51
359.9999999999984
  0
ARC
  5
4402
330
1F
100
AcDbEntity
  8
0
100
AcDbCircle
 10
119.1756351347488
 20
117.0031827818364
 30
0.0
 40
65.0
100
AcDbArc
 50
208.9550243718592
 51
215.6590876961389
  0
ARC
  5
4403
330
1F
100
AcDbEntity
  8
0
100
AcDbCircle
 10
63.17563513474886
 20
86.01931601217707
 30
0.0
 40
1.0
100
AcDbArc
 50
180.0
 51
208.9550243718592
  0
LINE
  5
4404
330
1F
100
AcDbEntity
  8
0
100
AcDbLine
 10
98.17563513474887
 20
128.4033516041193
 30
0.0
 11
98.17563513474887
 21
56.20844616755373
 31
0.0
1001
GENIUS_GENODEF_13
1002
{
1000
HIER
1070
     0
1002
}
1002
{
1000
MANEDIT
1070
     0
1002
}
1002
{
1000
NOSEL
1070
     0
1002
}
1002
{
1000
BEHIND
1070
     0
1002
}
1002
{
1000
OTHER
1070
     0
1002
}
1002
{
1000
REACTOR
1002
}
1001
GENIUS_GENOBJ-N-CEN_13
1002
{
1000
OWNER
1000
GEN
1002
}
  0
LINE
  5
4405
330
1F
100
AcDbEntity
  8
0
100
AcDbLine
 10
104.1756351347493
 20
126.5784191512793
 30
0.0
 11
104.1756351347489
 21
55.03544924251769
 31
0.0
1001
GENIUS_GENODEF_13
1002
{
1000
HIER
1070
     0
1002
}
1002
{
1000
MANEDIT
1070
     0
1002
}
1002
{
1000
NOSEL
1070
     0
1002
}
1002
{
1000
BEHIND
1070
     0
1002
}
1002
{
1000
OTHER
1070
     0
1002
}
1002
{
1000
REACTOR
1002
}
1001
GENIUS_GENOBJ-N-CEN_13
1002
{
1000
OWNER
1000
GEN
1002
}
  0
LINE
  5
4406
330
1F
100
AcDbEntity
  8
0
100
AcDbLine
 10
110.1756351347488
 20
120.627893046178
 30
0.0
 11
110.1756351347488
 21
53.50515131628622
 31
0.0
1001
GENIUS_GENODEF_13
1002
{
1000
HIER
1070
     0
1002
}
1002
{
1000
MANEDIT
1070
     0
1002
}
1002
{
1000
NOSEL
1070
     0
1002
}
1002
{
1000
BEHIND
1070
     0
1002
}
1002
{
1000
OTHER
1070
     0
1002
}
1002
{
1000
REACTOR
1002
}
1001
GENIUS_GENOBJ-N-CEN_13
1002
{
1000
OWNER
1000
GEN
1002
}
  0
ARC
  5
4407
330
1F
100
AcDbEntity
  8
0
100
AcDbCircle
 10
103.1756351347489
 20
55.03544924251769
 30
0.0
 40
1.0
100
AcDbArc
 50
255.5224878140701
 51
359.9999999999984
  0
ARC
  5
4408
330
1F
100
AcDbEntity
  8
0
100
AcDbCircle
 10
119.1756351347488
 20
117.0031827818364
 30
0.0
 40
65.0
100
AcDbArc
 50
251.7900431357172
 51
255.5224878140701
  0
ARC
  5
4409
330
1F
100
AcDbEntity
  8
0
100
AcDbCircle
 10
99.17563513474886
 20
56.20844616755373
 30
0.0
 40
1.0
100
AcDbArc
 50
180.0
 51
251.7900431357203
  0
ARC
  5
440A
330
1F
100
AcDbEntity
  8
0
100
AcDbCircle
 10
119.1756351347488
 20
117.0031827818364
 30
0.0
 40
65.0
100
AcDbArc
 50
262.8192442185417
 51
266.4166783015281
  0
ARC
  5
440B
330
1F
100
AcDbEntity
  8
0
100
AcDbCircle
 10
111.1756351347488
 20
53.50515131628622
 30
0.0
 40
1.0
100
AcDbArc
 50
180.0
 51
262.8192442185384
  0
ARC
  5
440C
330
1F
100
AcDbEntity
  8
0
100
AcDbCircle
 10
115.1756351347488
 20
53.12830509115115
 30
0.0
 40
1.0
100
AcDbArc
 50
266.4166783015281
 51
0.0
  0
LINE
  5
440D
330
1F
100
AcDbEntity
  8
0
100
AcDbLine
 10
116.1756351347488
 20
116.1100599264819
 30
0.0
 11
116.1756351347488
 21
53.12830509115115
 31
0.0
1001
GENIUS_GENODEF_13
1002
{
1000
HIER
1070
     0
1002
}
1002
{
1000
MANEDIT
1070
     0
1002
}
1002
{
1000
NOSEL
1070
     0
1002
}
1002
{
1000
BEHIND
1070
     0
1002
}
1002
{
1000
OTHER
1070
     0
1002
}
1002
{
1000
REACTOR
1002
}
1001
GENIUS_GENOBJ-N-CEN_13
1002
{
1000
OWNER
1000
GEN
1002
}
  0
ARC
  5
440E
330
1F
100
AcDbEntity
  8
0
  6
ByBlock
100
AcDbCircle
 10
151.2818851347491
 20
137.4344327818367
 30
0.0
 40
35.05584404037011
100
AcDbArc
 50
214.3811949530797
 51
224.940173249044
  0
ARC
  5
440F
330
1F
100
AcDbEntity
  8
0
100
AcDbCircle
 10
99.17563513474886
 20
136.8476417003089
 30
0.0
 40
1.0
100
AcDbArc
 50
180.0
 51
253.2700414997462
  0
ARC
  5
4410
330
1F
100
AcDbEntity
  8
0
100
AcDbCircle
 10
75.17563513474886
 20
136.9109056106717
 30
0.0
 40
1.0
100
AcDbArc
 50
179.9999999999984
 51
286.4278962782698
  0
ARC
  5
4411
330
1F
100
AcDbEntity
  8
0
  6
ByBlock
100
AcDbCircle
 10
87.06938513474904
 20
96.57193278183699
 30
0.0
 40
41.05584404037058
100
AcDbArc
 50
100.8184061744451
 51
106.4278962782698
  0
LINE
  5
4412
330
1F
100
AcDbEntity
  8
0
100
AcDbLine
 10
68.17563513474886
 20
154.3126989941916
 30
0.0
 11
68.17563513474886
 21
133.6250396540746
 31
0.0
1001
GENIUS_GENODEF_13
1002
{
1000
HIER
1070
     0
1002
}
1002
{
1000
MANEDIT
1070
     0
1002
}
1002
{
1000
NOSEL
1070
     0
1002
}
1002
{
1000
BEHIND
1070
     0
1002
}
1002
{
1000
OTHER
1070
     0
1002
}
1002
{
1000
REACTOR
1002
}
1001
GENIUS_GENOBJ-N-CEN_13
1002
{
1000
OWNER
1000
GEN
1002
}
  0
LINE
  5
4413
330
1F
100
AcDbEntity
  8
0
100
AcDbLine
 10
62.17563513474885
 20
147.9870495514957
 30
0.0
 11
62.17563513474885
 21
131.1809305842216
 31
0.0
1001
GENIUS_GENODEF_13
1002
{
1000
HIER
1070
     0
1002
}
1002
{
1000
MANEDIT
1070
     0
1002
}
1002
{
1000
NOSEL
1070
     0
1002
}
1002
{
1000
BEHIND
1070
     0
1002
}
1002
{
1000
OTHER
1070
     0
1002
}
1002
{
1000
REACTOR
1002
}
1001
GENIUS_GENOBJ-N-CEN_13
1002
{
1000
OWNER
1000
GEN
1002
}
  0
LINE
  5
4414
330
1F
100
AcDbEntity
  8
0
100
AcDbLine
 10
110.1756351347488
 20
180.5012142473866
 30
0.0
 11
110.1756351347488
 21
131.0332549979894
 31
0.0
1001
GENIUS_GENODEF_13
1002
{
1000
HIER
1070
     0
1002
}
1002
{
1000
MANEDIT
1070
     0
1002
}
1002
{
1000
NOSEL
1070
     0
1002
}
1002
{
1000
BEHIND
1070
     0
1002
}
1002
{
1000
OTHER
1070
     0
1002
}
1002
{
1000
REACTOR
1002
}
1001
GENIUS_GENOBJ-N-CEN_13
1002
{
1000
OWNER
1000
GEN
1002
}
  0
LINE
  5
4415
330
1F
100
AcDbEntity
  8
0
100
AcDbLine
 10
104.1756351347489
 20
178.9709163211551
 30
0.0
 11
104.1756351347493
 21
135.4214209237091
 31
0.0
1001
GENIUS_GENODEF_13
1002
{
1000
HIER
1070
     0
1002
}
1002
{
1000
MANEDIT
1070
     0
1002
}
1002
{
1000
NOSEL
1070
     0
1002
}
1002
{
1000
BEHIND
1070
     0
1002
}
1002
{
1000
OTHER
1070
     0
1002
}
1002
{
1000
REACTOR
1002
}
1001
GENIUS_GENOBJ-N-CEN_13
1002
{
1000
OWNER
1000
GEN
1002
}
  0
ARC
  5
4416
330
1F
100
AcDbEntity
  8
0
100
AcDbCircle
 10
91.17563513474886
 20
130.3793169491981
 30
0.0
 40
1.0
100
AcDbArc
 50
0.0
 51
83.07476798359227
  0
ARC
  5
4417
330
1F
100
AcDbEntity
  8
0
  6
ByBlock
100
AcDbCircle
 10
87.06938513474904
 20
96.57193278183699
 30
0.0
 40
35.05584404037058
100
AcDbArc
 50
103.4023859165384
 51
110.4409934258834
  0
ARC
  5
4418
330
1F
100
AcDbEntity
  8
0
100
AcDbCircle
 10
67.1756351347488
 20
124.2131922364916
 30
0.0
 40
1.0
100
AcDbArc
 50
0.0
 51
125.7430235802474
  0
ARC
  5
4419
330
1F
100
AcDbEntity
  8
0
  6
ByBlock
100
AcDbCircle
 10
87.06938513474904
 20
96.57193278183699
 30
0.0
 40
35.05584404037058
100
AcDbArc
 50
125.7430235802474
 51
134.5559145505304
  0
ARC
  5
441A
330
1F
100
AcDbEntity
  8
0
  6
ByBlock
100
AcDbCircle
 10
87.06938513474904
 20
96.57193278183699
 30
0.0
 40
41.05584404037058
100
AcDbArc
 50
118.2312754120523
 51
124.6208602333299
  0
ARC
  5
441B
330
1F
100
AcDbEntity
  8
0
100
AcDbCircle
 10
63.17563513474886
 20
131.1809305842216
 30
0.0
 40
1.0
100
AcDbArc
 50
180.0
 51
304.6208602333326
  0
ARC
  5
441C
330
1F
100
AcDbEntity
  8
0
100
AcDbCircle
 10
75.17563513474886
 20
128.4833605819141
 30
0.0
 40
1.0
100
AcDbArc
 50
110.4409934258804
 51
180.0
  0
ARC
  5
441D
330
1F
100
AcDbEntity
  8
0
100
AcDbCircle
 10
67.17563513474885
 20
133.6250396540746
 30
0.0
 40
1.0
100
AcDbArc
 50
298.2312754120523
 51
0.0
  0
ARC
  5
441E
330
1F
100
AcDbEntity
  8
0
100
AcDbCircle
 10
79.1756351347488
 20
129.700307692773
 30
0.0
 40
1.0
100
AcDbArc
 50
0.0
 51
103.4023859165384
  0
ARC
  5
441F
330
1F
100
AcDbEntity
  8
0
  6
ByBlock
100
AcDbCircle
 10
87.06938513474904
 20
96.57193278183699
 30
0.0
 40
35.05584404037058
100
AcDbArc
 50
83.07476798359227
 51
89.82124400023886
  0
ARC
  5
4420
330
1F
100
AcDbEntity
  8
0
100
AcDbCircle
 10
87.1756351347488
 20
130.627611078408
 30
0.0
 40
1.0
100
AcDbArc
 50
89.82124400023886
 51
180.0
  0
ARC
  5
4421
330
1F
100
AcDbEntity
  8
0
  6
ByBlock
100
AcDbCircle
 10
87.06938513474904
 20
96.57193278183699
 30
0.0
 40
41.05584404037058
100
AcDbArc
 50
67.48204493122493
 51
73.27004149974624
  0
ARC
  5
4422
330
1F
100
AcDbEntity
  8
0
  6
ByBlock
100
AcDbCircle
 10
87.06938513474904
 20
96.57193278183699
 30
0.0
 40
35.05584404037058
100
AcDbArc
 50
61.77492265104164
 51
69.17699326006104
  0
ARC
  5
4423
330
1F
100
AcDbEntity
  8
0
100
AcDbCircle
 10
99.17563513474886
 20
128.4033516041193
 30
0.0
 40
1.0
100
AcDbArc
 50
69.17699326006104
 51
180.0
  0
ARC
  5
4424
330
1F
100
AcDbEntity
  8
0
100
AcDbCircle
 10
103.1756351347493
 20
126.5784191512793
 30
0.0
 40
1.0
100
AcDbArc
 50
0.0
 51
61.77492265104164
  0
ARC
  5
4425
330
1F
100
AcDbEntity
  8
0
100
AcDbCircle
 10
103.1756351347493
 20
135.4214209237091
 30
0.0
 40
1.0
100
AcDbArc
 50
247.4820449312249
 51
0.0
  0
ARC
  5
4426
330
1F
100
AcDbEntity
  8
0
100
AcDbCircle
 10
111.1756351347488
 20
131.0332549979894
 30
0.0
 40
1.0
100
AcDbArc
 50
180.0
 51
235.0265913861482
  0
ARC
  5
4427
330
1F
100
AcDbEntity
  8
0
100
AcDbCircle
 10
111.1756351347488
 20
131.0332549979894
 30
0.0
 40
1.0
100
AcDbArc
 50
180.0
 51
235.0265913861482
  0
ARC
  5
4428
330
1F
100
AcDbEntity
  8
0
  6
ByBlock
100
AcDbCircle
 10
87.06938513474904
 20
96.57193278183699
 30
0.0
 40
41.05584404037058
100
AcDbArc
 50
48.06340348357007
 51
55.02659138615081
  0
ARC
  5
4429
330
1F
100
AcDbEntity
  8
0
100
AcDbCircle
 10
115.1756351347488
 20
127.8566371736876
 30
0.0
 40
1.0
100
AcDbArc
 50
228.0634034835677
 51
0.0
  0
ARC
  5
442A
330
1F
100
AcDbEntity
  8
0
100
AcDbCircle
 10
91.17563513474886
 20
174.5531610615891
 30
0.0
 40
1.0
100
AcDbArc
 50
359.9999999999984
 51
115.9444797723701
  0
ARC
  5
442B
330
1F
100
AcDbEntity
  8
0
100
AcDbCircle
 10
91.17563513474886
 20
138.4268336763018
 30
0.0
 40
1.0
100
AcDbArc
 50
264.3968257879249
 51
0.0
  0
LINE
  5
442C
330
1F
100
AcDbEntity
  8
0
100
AcDbLine
 10
92.17563513474885
 20
174.553161061589
 30
0.0
 11
92.17563513474885
 21
138.4268336763018
 31
0.0
1001
GENIUS_GENODEF_13
1002
{
1000
HIER
1070
     0
1002
}
1002
{
1000
MANEDIT
1070
     0
1002
}
1002
{
1000
NOSEL
1070
     0
1002
}
1002
{
1000
BEHIND
1070
     0
1002
}
1002
{
1000
OTHER
1070
     0
1002
}
1002
{
1000
REACTOR
1002
}
1001
GENIUS_GENOBJ-N-CEN_13
1002
{
1000
OWNER
1000
GEN
1002
}
  0
LINE
  5
442D
330
1F
100
AcDbEntity
  8
0
100
AcDbLine
 10
86.17563513474886
 20
172.4288086240404
 30
0.0
 11
86.17563513474886
 21
138.6276426068473
 31
0.0
1001
GENIUS_GENODEF_13
1002
{
1000
HIER
1070
     0
1002
}
1002
{
1000
MANEDIT
1070
     0
1002
}
1002
{
1000
NOSEL
1070
     0
1002
}
1002
{
1000
BEHIND
1070
     0
1002
}
1002
{
1000
OTHER
1070
     0
1002
}
1002
{
1000
REACTOR
1002
}
1001
GENIUS_GENOBJ-N-CEN_13
1002
{
1000
OWNER
1000
GEN
1002
}
  0
LINE
  5
442E
330
1F
100
AcDbEntity
  8
0
100
AcDbLine
 10
80.17563513474886
 20
166.9631667690236
 30
0.0
 11
80.17563513474886
 21
137.8803184787565
 31
0.0
1001
GENIUS_GENODEF_13
1002
{
1000
HIER
1070
     0
1002
}
1002
{
1000
MANEDIT
1070
     0
1002
}
1002
{
1000
NOSEL
1070
     0
1002
}
1002
{
1000
BEHIND
1070
     0
1002
}
1002
{
1000
OTHER
1070
     0
1002
}
1002
{
1000
REACTOR
1002
}
1001
GENIUS_GENOBJ-N-CEN_13
1002
{
1000
OWNER
1000
GEN
1002
}
  0
LINE
  5
442F
330
1F
100
AcDbEntity
  8
0
100
AcDbLine
 10
74.1756351347488
 20
163.4789829363254
 30
0.0
 11
74.17563513474886
 21
136.9109056106717
 31
0.0
1001
GENIUS_GENODEF_13
1002
{
1000
HIER
1070
     0
1002
}
1002
{
1000
MANEDIT
1070
     0
1002
}
1002
{
1000
NOSEL
1070
     0
1002
}
1002
{
1000
BEHIND
1070
     0
1002
}
1002
{
1000
OTHER
1070
     0
1002
}
1002
{
1000
REACTOR
1002
}
1001
GENIUS_GENOBJ-N-CEN_13
1002
{
1000
OWNER
1000
GEN
1002
}
  0
ARC
  5
4430
330
1F
100
AcDbEntity
  8
0
100
AcDbCircle
 10
67.1756351347488
 20
154.3126989941916
 30
0.0
 40
1.0
100
AcDbArc
 50
0.0
 51
144.3409123038611
  0
ARC
  5
4431
330
1F
100
AcDbEntity
  8
0
100
AcDbCircle
 10
119.1756351347488
 20
117.0031827818364
 30
0.0
 40
65.0
100
AcDbArc
 50
144.3409123038611
 51
151.0449756281408
  0
ARC
  5
4432
330
1F
100
AcDbEntity
  8
0
100
AcDbCircle
 10
63.17563513474886
 20
147.9870495514957
 30
0.0
 40
1.0
100
AcDbArc
 50
151.0449756281393
 51
179.9999999999984
  0
ARC
  5
4433
330
1F
100
AcDbEntity
  8
0
100
AcDbCircle
 10
79.1756351347488
 20
137.8803184787565
 30
0.0
 40
1.0
100
AcDbArc
 50
280.8184061744419
 51
0.0
  0
ARC
  5
4434
330
1F
100
AcDbEntity
  8
0
  6
ByBlock
100
AcDbCircle
 10
87.06938513474904
 20
96.57193278183699
 30
0.0
 40
41.05584404037058
100
AcDbArc
 50
84.39682578792485
 51
89.85524763114158
  0
ARC
  5
4435
330
1F
100
AcDbEntity
  8
0
100
AcDbCircle
 10
87.17563513474885
 20
138.6276426068473
 30
0.0
 40
1.0
100
AcDbArc
 50
180.0
 51
269.8552476311383
  0
ARC
  5
4436
330
1F
100
AcDbEntity
  8
0
100
AcDbCircle
 10
119.1756351347488
 20
117.0031827818364
 30
0.0
 40
65.0
100
AcDbArc
 50
128.6821874534889
 51
133.4325365577899
  0
ARC
  5
4437
330
1F
100
AcDbEntity
  8
0
100
AcDbCircle
 10
75.17563513474886
 20
163.4789829363254
 30
0.0
 40
1.0
100
AcDbArc
 50
133.4325365577899
 51
180.0
  0
ARC
  5
4438
330
1F
100
AcDbEntity
  8
0
100
AcDbCircle
 10
79.17563513474886
 20
166.9631667690236
 30
0.0
 40
1.0
100
AcDbArc
 50
0.0
 51
128.6821874534889
  0
ARC
  5
4439
330
1F
100
AcDbEntity
  8
0
100
AcDbCircle
 10
119.1756351347488
 20
117.0031827818364
 30
0.0
 40
65.0
100
AcDbArc
 50
115.9444797723701
 51
119.9999999999997
  0
ARC
  5
443A
330
1F
100
AcDbEntity
  8
0
100
AcDbCircle
 10
87.17563513474885
 20
172.4288086240404
 30
0.0
 40
1.0
100
AcDbArc
 50
119.9999999999997
 51
180.0000000000016
  0
LINE
  5
443B
330
1F
100
AcDbEntity
  8
0
100
AcDbLine
 10
98.17563513474887
 20
177.7979193961191
 30
0.0
 11
98.17563513474887
 21
136.8476417003089
 31
0.0
1001
GENIUS_GENODEF_13
1002
{
1000
HIER
1070
     0
1002
}
1002
{
1000
MANEDIT
1070
     0
1002
}
1002
{
1000
NOSEL
1070
     0
1002
}
1002
{
1000
BEHIND
1070
     0
1002
}
1002
{
1000
OTHER
1070
     0
1002
}
1002
{
1000
REACTOR
1002
}
1001
GENIUS_GENOBJ-N-CEN_13
1002
{
1000
OWNER
1000
GEN
1002
}
  0
ARC
  5
443C
330
1F
100
AcDbEntity
  8
0
100
AcDbCircle
 10
119.1756351347488
 20
117.0031827818364
 30
0.0
 40
65.0
100
AcDbArc
 50
104.4775121859298
 51
108.2099568642828
  0
ARC
  5
443D
330
1F
100
AcDbEntity
  8
0
100
AcDbCircle
 10
99.17563513474886
 20
177.7979193961191
 30
0.0
 40
1.0
100
AcDbArc
 50
108.2099568642797
 51
180.0
  0
ARC
  5
443E
330
1F
100
AcDbEntity
  8
0
100
AcDbCircle
 10
103.1756351347489
 20
178.9709163211551
 30
0.0
 40
1.0
100
AcDbArc
 50
0.0
 51
104.4775121859298
  0
ARC
  5
443F
330
1F
100
AcDbEntity
  8
0
100
AcDbCircle
 10
119.1756351347488
 20
117.0031827818364
 30
0.0
 40
65.0
100
AcDbArc
 50
93.58332169847198
 51
97.18075578145835
  0
ARC
  5
4440
330
1F
100
AcDbEntity
  8
0
100
AcDbCircle
 10
111.1756351347488
 20
180.5012142473866
 30
0.0
 40
1.0
100
AcDbArc
 50
97.18075578145835
 51
180.0
  0
ARC
  5
4441
330
1F
100
AcDbEntity
  8
0
100
AcDbCircle
 10
115.1756351347488
 20
180.8780604725216
 30
0.0
 40
1.0
100
AcDbArc
 50
0.0
 51
93.58332169847198
  0
LINE
  5
4442
330
1F
100
AcDbEntity
  8
0
100
AcDbLine
 10
116.1756351347488
 20
180.8780604725216
 30
0.0
 11
116.1756351347488
 21
127.8566371736876
 31
0.0
1001
GENIUS_GENODEF_13
1002
{
1000
HIER
1070
     0
1002
}
1002
{
1000
MANEDIT
1070
     0
1002
}
1002
{
1000
NOSEL
1070
     0
1002
}
1002
{
1000
BEHIND
1070
     0
1002
}
1002
{
1000
OTHER
1070
     0
1002
}
1002
{
1000
REACTOR
1002
}
1001
GENIUS_GENOBJ-N-CEN_13
1002
{
1000
OWNER
1000
GEN
1002
}
  0
ARC
  5
4443
330
1F
100
AcDbEntity
  8
0
  6
ByBlock
100
AcDbCircle
 10
87.06938513474904
 20
96.57193278183699
 30
0.0
 40
35.05584404037058
100
AcDbArc
 50
33.87224270421266
 51
44.94017324904585
  0
DIMENSION
  5
4482
330
1F
100
AcDbEntity
  8
5
100
AcDbDimension
  2
*D14
 10
122.1756351347488
 20
205.4693093685365
 30
0.0
 11
125.1756351347488
 21
205.4693093685365
 31
0.0
 70
   160
 71
     5
 42
6.0
  3
GEN-ISO
100
AcDbAlignedDimension
 13
128.1756351347488
 23
180.5012142473866
 33
0.0
 14
122.1756351347488
 24
180.8780604725216
 34
0.0
100
AcDbRotatedDimension
1001
ACAD
1000
DSTYLE
1002
{
1070
    41
1040
7.0
1070
   140
1040
7.0
1002
}
  0
ARC
  5
44F5
330
1F
100
AcDbEntity
  8
0
100
AcDbCircle
 10
127.1756351347488
 20
113.3784725174968
 30
0.0
 40
1.0
100
AcDbArc
 50
224.9401732490434
 51
0.0
  0
ARC
  5
44F6
330
1F
100
AcDbEntity
  8
0
100
AcDbCircle
 10
175.1756351347488
 20
113.1673929079763
 30
0.0
 40
1.0
100
AcDbArc
 50
314.5559145505296
 51
0.0
  0
ARC
  5
44F8
330
1F
100
AcDbEntity
  8
0
100
AcDbCircle
 10
111.1756351347488
 20
120.627893046178
 30
0.0
 40
1.0
100
AcDbArc
 50
44.94017324904572
 51
180.0000000000008
  0
ARC
  5
4668
330
1F
100
AcDbEntity
  8
0
100
AcDbCircle
 10
63.17563513474886
 20
120.8389726556975
 30
0.0
 40
1.0
100
AcDbArc
 50
134.5559145505296
 51
180.0
  0
ENDSEC
  0
SECTION
  2
OBJECTS
  0
DICTIONARY
  5
C
330
0
100
AcDbDictionary
281
     1
  3
ACAD_COLOR
350
472B
  3
ACAD_GROUP
350
D
  3
ACAD_LAYOUT
350
1A
  3
ACAD_MATERIAL
350
472A
  3
ACAD_MLINESTYLE
350
17
  3
ACAD_PLOTSETTINGS
350
19
  3
ACAD_PLOTSTYLENAME
350
E
  3
ACAD_TABLESTYLE
350
472C
  3
ACDBHEADERROUNDTRIPXREC
350
4834
  3
AcDbVariableDictionary
350
5E
  3
AcmDictionary
350
93
  3
AMG
350
78
  3
AMGSNAPSETTINGS
350
124
  3
ASE_INDEX_DICTIONARY
350
28CF
  3
DWGPROPS
350
4833
  0
DICTIONARY
  5
130
330
2
100
AcDbDictionary
280
     1
281
     1
  3
ACAD_LAYERFILTERS
360
131
  3
ACAD_LAYERSTATES
360
666
  0
DICTIONARY
  5
8D1
330
1F
100
AcDbDictionary
280
     1
281
     1
  0
DICTIONARY
  5
472B
102
{ACAD_REACTORS
330
C
102
}
330
C
100
AcDbDictionary
281
     1
  0
DICTIONARY
  5
D
102
{ACAD_REACTORS
330
C
102
}
330
C
100
AcDbDictionary
281
     1
  0
DICTIONARY
  5
1A
102
{ACAD_REACTORS
330
C
102
}
330
C
100
AcDbDictionary
281
     1
  3
Layout1
350
51
  3
Layout2
350
56
  3
Model
350
22
  0
DICTIONARY
  5
472A
102
{ACAD_REACTORS
330
C
102
}
330
C
100
AcDbDictionary
281
     1
  0
DICTIONARY
  5
17
102
{ACAD_REACTORS
330
C
102
}
330
C
100
AcDbDictionary
281
     1
  3
Standard
350
18
  0
DICTIONARY
  5
19
102
{ACAD_REACTORS
330
C
102
}
330
C
100
AcDbDictionary
281
     1
  0
ACDBDICTIONARYWDFLT
  5
E
102
{ACAD_REACTORS
330
C
102
}
330
C
100
AcDbDictionary
281
     1
  3
Normal
350
F
100
AcDbDictionaryWithDefault
340
F
  0
DICTIONARY
  5
472C
102
{ACAD_REACTORS
330
C
102
}
330
C
100
AcDbDictionary
281
     1
  3
Standard
350
472D
  0
DICTIONARY
  5
4834
102
{ACAD_REACTORS
330
C
102
}
330
C
100
AcDbDictionary
281
     1
  0
DICTIONARY
  5
5E
102
{ACAD_REACTORS
330
C
102
}
330
C
100
AcDbDictionary
281
     1
  3
CTABLESTYLE
350
4823
  3
DIMASSOC
350
5F
  3
HIDETEXT
350
63
  3
INDEXCTL
350
81
  3
PROJECTNAME
350
4831
  0
DICTIONARY
  5
93
102
{ACAD_REACTORS
330
C
102
}
330
C
100
AcDbDictionary
281
     1
  3
AcmStdDictionary
350
99
  3
AMDTSECTSYM_ARROWCOLOR
350
478A
  0
DICTIONARY
  5
78
102
{ACAD_REACTORS
330
C
102
}
330
C
100
AcDbDictionary
281
     1
  0
DICTIONARY
  5
124
102
{ACAD_REACTORS
330
C
102
}
330
C
100
AcDbDictionary
281
     1
  0
DICTIONARY
  5
28CF
102
{ACAD_REACTORS
330
C
102
}
330
C
100
AcDbDictionary
281
     1
  3
ASEBlockHierarchyIndexRecord
350
28D1
1001
DCO15
1040
1527658868.649
  0
XRECORD
  5
4833
102
{ACAD_REACTORS
330
C
102
}
330
C
100
AcDbXrecord
280
     1
  1
DWGPROPS COOKIE
  2

  3

  4

  6

  7

  8

  9

300
AmdtFileType=84
301
=
302
=
303
=
304
=
305
=
306
=
307
=
308
=
309
=
 40
0.3966082986111111
 41
2452544.484270219
 42
2454041.812535
  1

 90
        1
  0
DICTIONARY
  5
131
102
{ACAD_REACTORS
330
130
102
}
330
130
100
AcDbDictionary
280
     1
281
     1
  3
$
360
132
  3
$$$
360
133
  3
(A)15
360
134
  3
-
360
135
  3
-COL-
360
136
  3
-CON-
360
137
  3
-FL_
360
138
  3
-FURN-TEX-
360
139
  3
-np
360
13A
  3
-solid
360
13B
  3
-ST_
360
13C
  3
-WAL-
360
13D
  3
0
360
13E
  3
00
360
13F
  3
000
360
140
  3
003T
360
141
  3
009
360
142
  3
00x
360
143
  3
01
360
144
  3
013
360
145
  3
018
360
146
  3
02
360
147
  3
025
360
148
  3
02planung
360
149
  3
032
360
14A
  3
032G
360
14B
  3
035
360
14C
  3
04
360
14D
  3
04x
360
14E
  3
05
360
14F
  3
050
360
150
  3
05S
360
151
  3
06
360
152
  3
070
360
153
  3
0l
360
154
  3
0sani
360
155
  3
0TEMP
360
156
  3
1
360
157
  3
1 GA
360
158
  3
1.og
360
159
  3
10
360
15A
  3
100
360
15B
  3
100TEXT
360
15C
  3
1120
360
15D
  3
117
360
15E
  3
12
360
15F
  3
121
360
160
  3
124
360
161
  3
132
360
162
  3
1343
360
163
  3
14-6
360
164
  3
15
360
165
  3
150
360
166
  3
170
360
167
  3
1784frst$0$
360
168
  3
1GRID
360
169
  3
2
360
16A
  3
2 SPACE PLAN
360
16B
  3
20
360
16C
  3
200
360
16D
  3
200TEXT
360
16E
  3
201
360
16F
  3
21
360
170
  3
210
360
171
  3
210H
360
172
  3
212
360
173
  3
21A
360
174
  3
22
360
175
  3
220g
360
176
  3
22A
360
177
  3
231
360
178
  3
24
360
179
  3
24A
360
17A
  3
25
360
17B
  3
25's
360
17C
  3
250
360
17D
  3
26
360
17E
  3
27
360
17F
  3
27A
360
180
  3
28
360
181
  3
288SHT
360
182
  3
28A
360
183
  3
2B
360
184
  3
2D
360
185
  3
2DPLAN
360
186
  3
2K
360
187
  3
2kk
360
188
  3
2L
360
189
  3
2l-schraff
360
18A
  3
2l_bem
360
18B
  3
2S
360
18C
  3
3
360
18D
  3
3 CEILING
360
18E
  3
300
360
18F
  3
300-1
360
190
  3
3000
360
191
  3
31
360
192
  3
31A
360
193
  3
32
360
194
  3
32A
360
195
  3
33
360
196
  3
33A
360
197
  3
35
360
198
  3
38
360
199
  3
3845-000
360
19A
  3
3D
360
19B
  3
3D LAYERS
360
19C
  3
3d view
360
19D
  3
3d_buildc
360
19E
  3
3d_buildd
360
19F
  3
3d_builde
360
1A0
  3
3d_buildf
360
1A1
  3
3d_buildg
360
1A2
  3
3d_buildh
360
1A3
  3
4
360
1A4
  3
4 ELECTRIC
360
1A5
  3
40
360
1A6
  3
440
360
1A7
  3
443
360
1A8
  3
443ha
360
1A9
  3
5
360
1AA
  3
5 DEMO
360
1AB
  3
50
360
1AC
  3
500
360
1AD
  3
50text
360
1AE
  3
6
360
1AF
  3
6 LAYER 1
360
1B0
  3
600
360
1B1
  3
7
360
1B2
  3
7 LAYER 2
360
1B3
  3
70
360
1B4
  3
75
360
1B5
  3
767
360
1B6
  3
767SE13-0...$
360
1B7
  3
767SE13-07-99$0$
360
1B8
  3
8
360
1B9
  3
8711
360
1BA
  3
9
360
1BB
  3
90
360
1BC
  3
9651
360
1BD
  3
9C
360
1BE
  3
9G
360
1BF
  3
_all
360
1C0
  3
_Building 3
360
1C1
  3
_External Works
360
1C2
  3
_first
360
1C3
  3
_First Floor
360
1C4
  3
_ground
360
1C5
  3
_Ground Floor
360
1C6
  3
_Hatching
360
1C7
  3
_New
360
1C8
  3
_Removed
360
1C9
  3
_roof
360
1CA
  3
_Text
360
1CB
  3
_Without text
360
1CC
  3
A
360
1CD
  3
A layers
360
1CE
  3
A-
360
1CF
  3
a-1
360
1D0
  3
A-12101
360
1D1
  3
a-2
360
1D2
  3
a-3
360
1D3
  3
a-filter
360
1D4
  3
A-HI
360
1D5
  3
A-INDEX
360
1D6
  3
A-RA-BLOCK
360
1D7
  3
A-SECTION
360
1D8
  3
A-SECTION-FRAME
360
1D9
  3
a-uz
360
1DA
  3
A-VE
360
1DB
  3
A0-FRAME
360
1DC
  3
A00-R
360
1DD
  3
A000D
360
1DE
  3
A032G
360
1DF
  3
a1
360
1E0
  3
A1S1
360
1E1
  3
a2
360
1E2
  3
a2s1
360
1E3
  3
a2s2
360
1E4
  3
a2s3
360
1E5
  3
a3
360
1E6
  3
a321
360
1E7
  3
a3s1
360
1E8
  3
a3s2
360
1E9
  3
a4-solid
360
1EA
  3
a4s1
360
1EB
  3
a5-
360
1EC
  3
a5s1
360
1ED
  3
a5s2
360
1EE
  3
a5s3
360
1EF
  3
a5s4
360
1F0
  3
a6s1
360
1F1
  3
a6s2
360
1F2
  3
a6s3
360
1F3
  3
a7
360
1F4
  3
A_HIL
360
1F5
  3
AA-D
360
1F6
  3
AA_D
360
1F7
  3
aaa
360
1F8
  3
ab
360
1F9
  3
abghängte Decken
360
1FA
  3
ABOVE
360
1FB
  3
ACC
360
1FC
  3
Accesi
360
1FD
  3
achsen
360
1FE
  3
ACTIVE
360
1FF
  3
adja
360
200
  3
af
360
201
  3
afen
360
202
  3
AGRID
360
203
  3
aktuell
360
204
  3
aktuelle
360
205
  3
Aktueller Layer
360
206
  3
ALEV07
360
207
  3
ALL
360
208
  3
ALL FLOORS
360
209
  3
ALL FROZEN
360
20A
  3
ALL OFF
360
20B
  3
all on
360
20C
  3
ALL THAWED
360
20D
  3
ALL_ON
360
20E
  3
Alle Wände
360
20F
  3
alle_bgs
360
210
  3
alle_K
360
211
  3
Allgemein
360
212
  3
apd
360
213
  3
aplm
360
214
  3
APPLICATION
360
215
  3
ar1
360
216
  3
ARBE
360
217
  3
Arch
360
218
  3
ARCH_1ST
360
219
  3
ARCH_2ND
360
21A
  3
ARCH_3RD
360
21B
  3
ARCH_BASEMENT
360
21C
  3
ARCH_GENERAL
360
21D
  3
ARCH_GROUND
360
21E
  3
ARCH_ROOF
360
21F
  3
ARCHDWG
360
220
  3
Architecktur
360
221
  3
Architektur
360
222
  3
AREA
360
223
  3
AREA1
360
224
  3
arr-hatch
360
225
  3
assembly
360
226
  3
ATRIUM50
360
227
  3
att
360
228
  3
Attivi
360
229
  3
ATTRIBUTES
360
22A
  3
au
360
22B
  3
AUDITORIA
360
22C
  3
aus
360
22D
  3
Auserdecke
360
22E
  3
Ausgeschaltet
360
22F
  3
Ausgeschaltete Layer
360
230
  3
Außenanlagen
360
231
  3
B
360
232
  3
B-03
360
233
  3
B2
360
234
  3
BACK BAR
360
235
  3
BACKBAR
360
236
  3
BALUSTRADE
360
237
  3
BANQ'S
360
238
  3
BAR
360
239
  3
bar-top
360
23A
  3
BASE
360
23B
  3
BASE PLATES
360
23C
  3
basement
360
23D
  3
baustrasse
360
23E
  3
bca
360
23F
  3
bca layers
360
240
  3
BCHINN
360
241
  3
bds
360
242
  3
Beam
360
243
  3
beleucht
360
244
  3
below
360
245
  3
BEM
360
246
  3
Bemassung
360
247
  3
BENCH
360
248
  3
beton
360
249
  3
BGF
360
24A
  3
bin
360
24B
  3
BKB
360
24C
  3
bl
360
24D
  3
BLANK
360
24E
  3
BLD
360
24F
  3
Bldg
360
250
  3
BLOCCHI
360
251
  3
BLUE
360
252
  3
board
360
253
  3
boarder
360
254
  3
bob
360
255
  3
Bodenbeläge
360
256
  3
BOLLARDS
360
257
  3
border
360
258
  3
BOUNARY
360
259
  3
bound
360
25A
  3
boundary
360
25B
  3
bridge
360
25C
  3
BT
360
25D
  3
buffet
360
25E
  3
BUILDERS WORK
360
25F
  3
BUILDERS-WORK
360
260
  3
Building
360
261
  3
bulkhead
360
262
  3
BV-LEASE
360
263
  3
bwp-pylon
360
264
  3
BWP_pylon
360
265
  3
C
360
266
  3
c-topo
360
267
  3
c100
360
268
  3
CADKON
360
269
  3
CAFM-Layer
360
26A
  3
CANDADO-CONGELADO
360
26B
  3
CANOPY
360
26C
  3
car
360
26D
  3
CARCYCLE
360
26E
  3
CATWALK
360
26F
  3
CAV
360
270
  3
CEIL
360
271
  3
CEILING
360
272
  3
CEILING LAYOUT
360
273
  3
CEILING PLAN
360
274
  3
CEILINGS XREF
360
275
  3
cen
360
276
  3
CENT
360
277
  3
CENTER
360
278
  3
cfp layers
360
279
  3
ch
360
27A
  3
CHAIN
360
27B
  3
checkouts
360
27C
  3
CINEMA
360
27D
  3
CLAD
360
27E
  3
cloud
360
27F
  3
cn
360
280
  3
CO
360
281
  3
CO1
360
282
  3
co2
360
283
  3
col
360
284
  3
cold beam
360
285
  3
COLOR
360
286
  3
COLOR 9
360
287
  3
COLOR5
360
288
  3
color95
360
289
  3
colour
360
28A
  3
colour 7
360
28B
  3
con
360
28C
  3
conc
360
28D
  3
CONC01
360
28E
  3
congelados no
360
28F
  3
Congelati
360
290
  3
CONSERVITORY
360
291
  3
CONSTRAINTS
360
292
  3
construction
360
293
  3
CONT
360
294
  3
conveyor
360
295
  3
coord
360
296
  3
COORDS
360
297
  3
cross
360
298
  3
CURRENT
360
299
  3
curtain
360
29A
  3
curved walkway
360
29B
  3
cut
360
29C
  3
cyan
360
29D
  3
cycl
360
29E
  3
CYCLE
360
29F
  3
D__
360
2A0
  3
Dach
360
2A1
  3
Dachbegrünung
360
2A2
  3
DATA
360
2A3
  3
Daten
360
2A4
  3
DAVE
360
2A5
  3
DD
360
2A6
  3
Decke
360
2A7
  3
Decken
360
2A8
  3
Deckenspiegel
360
2A9
  3
Decoration schedule
360
2AA
  3
DEF
360
2AB
  3
demo
360
2AC
  3
demo items
360
2AD
  3
DEMOLISHED
360
2AE
  3
DEMOLITION
360
2AF
  3
demolition work
360
2B0
  3
demont
360
2B1
  3
design
360
2B2
  3
Detail
360
2B3
  3
Detaillayer
360
2B4
  3
detref
360
2B5
  3
dgg
360
2B6
  3
DIM
360
2B7
  3
Dim only
360
2B8
  3
Dimensions
360
2B9
  3
DIMS
360
2BA
  3
DISEGNO
360
2BB
  3
DISPLAYED
360
2BC
  3
DOCK
360
2BD
  3
DOM
360
2BE
  3
DOMS
360
2BF
  3
DOOR
360
2C0
  3
DOOREF
360
2C1
  3
DOORREF
360
2C2
  3
DOORS
360
2C3
  3
DR-
360
2C4
  3
DRAIN
360
2C5
  3
DRAIN & LEV
360
2C6
  3
drainage
360
2C7
  3
drains
360
2C8
  3
DRAWING NO-XREF
360
2C9
  3
Drawing01
360
2CA
  3
DRUM
360
2CB
  3
DSD
360
2CC
  3
DT
360
2CD
  3
DUCT
360
2CE
  3
ducts
360
2CF
  3
Ductwork
360
2D0
  3
Durchbrüche
360
2D1
  3
E
360
2D2
  3
E-
360
2D3
  3
EASE
360
2D4
  3
EASEMENT
360
2D5
  3
EDI
360
2D6
  3
ein
360
2D7
  3
Eingesch
360
2D8
  3
el
360
2D9
  3
ELEC
360
2DA
  3
ELECTRICAL
360
2DB
  3
electrics
360
2DC
  3
elektro
360
2DD
  3
elev
360
2DE
  3
ELEVATION
360
2DF
  3
Elevation Layers
360
2E0
  3
ELEVATIONS
360
2E1
  3
embank
360
2E2
  3
encendidos si
360
2E3
  3
ENDSYM
360
2E4
  3
engineer
360
2E5
  3
entrance
360
2E6
  3
EQIP
360
2E7
  3
equip
360
2E8
  3
Equipment-Air
360
2E9
  3
Equipment-Barrel
360
2EA
  3
Equipment-Batter
360
2EB
  3
Equipment-Blanch
360
2EC
  3
Equipment-Boiler
360
2ED
  3
Equipment-Brine
360
2EE
  3
Equipment-Cutting
360
2EF
  3
Equipment-Defect
360
2F0
  3
Equipment-Dry
360
2F1
  3
Equipment-Freeze
360
2F2
  3
Equipment-Fryer
360
2F3
  3
Equipment-Oil Storage
360
2F4
  3
Equipment-Packaging
360
2F5
  3
Equipment-Pallet
360
2F6
  3
Equipment-Peel
360
2F7
  3
Equipment-Preheat
360
2F8
  3
Equipment-Raw
360
2F9
  3
Equipment-Refrigeration
360
2FA
  3
Equipment-Sapp
360
2FB
  3
Equipment-Starch
360
2FC
  3
Equipment-Trim
360
2FD
  3
Equipment-Water
360
2FE
  3
er
360
2FF
  3
escalator
360
300
  3
EUTILITY
360
301
  3
ex-storm
360
302
  3
exg imported
360
303
  3
EXISTING
360
304
  3
EXPANSION
360
305
  3
exstbldg
360
306
  3
EXT FIN
360
307
  3
Extension
360
308
  3
EXTERNALS
360
309
  3
F
360
30A
  3
F PURCHASE
360
30B
  3
F-LB-SECTION
360
30C
  3
F-SECTION
360
30D
  3
F-UB-SECTION
360
30E
  3
Fach Ing
360
30F
  3
Fachplaner
360
310
  3
fall
360
311
  3
Farbe
360
312
  3
Farbe55
360
313
  3
farben
360
314
  3
Fassade
360
315
  3
Fasssade
360
316
  3
fb-130
360
317
  3
FC_CLADDING
360
318
  3
FEATURE
360
319
  3
FENCE
360
31A
  3
fenster
360
31B
  3
FFL
360
31C
  3
FIEGE
360
31D
  3
FILL
360
31E
  3
Fill Layer
360
31F
  3
FIll Layers
360
320
  3
fills
360
321
  3
FINISH
360
322
  3
FINISHES
360
323
  3
FINISHES PLAN
360
324
  3
FINISHES PLANS
360
325
  3
FIRE
360
326
  3
FIRE PLAN
360
327
  3
FIRST FLOOR
360
328
  3
FITTING
360
329
  3
fl
360
32A
  3
flch
360
32B
  3
fliesen
360
32C
  3
FLOOR
360
32D
  3
FLOOR PLAN
360
32E
  3
Floor Plans
360
32F
  3
Flow
360
330
  3
Flächen nach DIN
360
331
  3
Flächenberechnung
360
332
  3
Fonctions
360
333
  3
Fontions
360
334
  3
FOOT
360
335
  3
FOOTPATH
360
336
  3
footway
360
337
  3
FORT
360
338
  3
FOUL
360
339
  3
FOUNDATION
360
33A
  3
FOUNDATION PLOT
360
33B
  3
FOUNDATIONS
360
33C
  3
founds
360
33D
  3
Fozen Layers off
360
33E
  3
fp01
360
33F
  3
FR
360
340
  3
frame
360
341
  3
franklin ellis
360
342
  3
freeze
360
343
  3
FREEZE ALL
360
344
  3
freeze-off
360
345
  3
frier
360
346
  3
FROS CUR VPORT
360
347
  3
froz
360
348
  3
FROZ CUR VPORT
360
349
  3
FROZ IN CURENT
360
34A
  3
frozen
360
34B
  3
frozen in current vp
360
34C
  3
FROZEN-ACTIVE
360
34D
  3
FROZEN_CURRENTVP
360
34E
  3
FROZZED
360
34F
  3
ft
360
350
  3
FURN
360
351
  3
Furniture
360
352
  3
future
360
353
  3
fußboden
360
354
  3
fwmh
360
355
  3
G
360
356
  3
G80
360
357
  3
GA
360
358
  3
ga plan
360
359
  3
GAMCO
360
35A
  3
GARAGE
360
35B
  3
GAS
360
35C
  3
GC
360
35D
  3
GE
360
35E
  3
GEA
360
35F
  3
gefroren
360
360
  3
Gefrorene Layer
360
361
  3
gel
360
362
  3
GEN ARR
360
363
  3
GENERAL
360
364
  3
geplant
360
365
  3
geschnitte
360
366
  3
geschnitten
360
367
  3
gesperrt
360
368
  3
getaut
360
369
  3
GF
360
36A
  3
GF OFF
360
36B
  3
GIA
360
36C
  3
gipskarton
360
36D
  3
GLASS
360
36E
  3
GLASS RACK
360
36F
  3
glaz
360
370
  3
go
360
371
  3
GREEN
360
372
  3
GREET
360
373
  3
grey
360
374
  3
GRID
360
375
  3
GRID-1
360
376
  3
GRID-2
360
377
  3
grids
360
378
  3
gris
360
379
  3
gro
360
37A
  3
GROUND FLOOR
360
37B
  3
ground floor GA
360
37C
  3
Grundstück
360
37D
  3
gsa
360
37E
  3
GUL
360
37F
  3
GUTTER
360
380
  3
H
360
381
  3
h-
360
382
  3
h-db
360
383
  3
H-DB-DIVERSE
360
384
  3
H-DB-ELEKTRO
360
385
  3
H-DB-HEIZUNG
360
386
  3
H-DB-LUEFTUNG
360
387
  3
H-DB-SANITAER
360
388
  3
h-durchbrueche
360
389
  3
H-DURCHBRÜCHE
360
38A
  3
HA
360
38B
  3
HA-GENE-AR
360
38C
  3
HA5
360
38D
  3
HAIRDRESSER
360
38E
  3
HALLS
360
38F
  3
HAOU
360
390
  3
HATCH
360
391
  3
hatch-layers
360
392
  3
HATCH-SKY
360
393
  3
HATCH1
360
394
  3
HATCHES
360
395
  3
HATCHONLY
360
396
  3
Haustechnik
360
397
  3
HEATING
360
398
  3
heiz
360
399
  3
Heizung
360
39A
  3
helaba
360
39B
  3
HID
360
39C
  3
hidden
360
39D
  3
Hide
360
39E
  3
Hilfalayer
360
39F
  3
Hilfeschraff
360
3A0
  3
Hilfslayer
360
3A1
  3
hk
360
3A2
  3
hlb
360
3A3
  3
hlb-18
360
3A4
  3
HLK
360
3A5
  3
HOOD
360
3A6
  3
hotel
360
3A7
  3
HOUSE
360
3A8
  3
HTSV
360
3A9
  3
hz
360
3AA
  3
HZ-SYM
360
3AB
  3
hzg
360
3AC
  3
Höhen
360
3AD
  3
I
360
3AE
  3
ICERINK
360
3AF
  3
ID_P_T0-0
360
3B0
  3
IMP
360
3B1
  3
IMPIANTO
360
3B2
  3
INDICATE THICK LINE OF BULKHEAD
360
3B3
  3
infeed chute
360
3B4
  3
Innenausbau
360
3B5
  3
INS
360
3B6
  3
Insul
360
3B7
  3
Insulation
360
3B8
  3
IOTA
360
3B9
  3
IP
360
3BA
  3
IT
360
3BB
  3
J
360
3BC
  3
J-SECTION
360
3BD
  3
JACKS
360
3BE
  3
JBHGVHG
360
3BF
  3
jcs
360
3C0
  3
jen _
360
3C1
  3
jen_
360
3C2
  3
Jet
360
3C3
  3
JIOL[
360
3C4
  3
JOINERE SETTING OUT
360
3C5
  3
joint
360
3C6
  3
JRP
360
3C7
  3
JSO
360
3C8
  3
K
360
3C9
  3
K_
360
3CA
  3
K_m
360
3CB
  3
K_m_S
360
3CC
  3
K_S
360
3CD
  3
kalf
360
3CE
  3
Kanal
360
3CF
  3
keith
360
3D0
  3
keiths
360
3D1
  3
kek
360
3D2
  3
kelder1e2everd
360
3D3
  3
KER
360
3D4
  3
KERB
360
3D5
  3
Kerne
360
3D6
  3
KITCHEN
360
3D7
  3
KITCHEN PLAN
360
3D8
  3
KITCHEN SETTING OUT
360
3D9
  3
koelie
360
3DA
  3
Kälte
360
3DB
  3
Küche
360
3DC
  3
L
360
3DD
  3
l-bem
360
3DE
  3
L-SECTION
360
3DF
  3
L__
360
3E0
  3
L__3D
360
3E1
  3
L_be_texte
360
3E2
  3
L_texte
360
3E3
  3
labor
360
3E4
  3
LAND
360
3E5
  3
land sale
360
3E6
  3
Landcsape
360
3E7
  3
landscape
360
3E8
  3
landscape2
360
3E9
  3
landscapelayout
360
3EA
  3
layer 8
360
3EB
  3
layer-off
360
3EC
  3
layers on
360
3ED
  3
Layers that are ON
360
3EE
  3
LAYOFF
360
3EF
  3
layon
360
3F0
  3
LAYOUT
360
3F1
  3
laythaw
360
3F2
  3
lca
360
3F3
  3
LEASE
360
3F4
  3
LEDGE
360
3F5
  3
leer
360
3F6
  3
LEGAL
360
3F7
  3
legende
360
3F8
  3
leit-neu
360
3F9
  3
LEVEL
360
3FA
  3
Level 0
360
3FB
  3
level 1 piping
360
3FC
  3
Level 12
360
3FD
  3
level 2 piping
360
3FE
  3
LEVELS
360
3FF
  3
LGD
360
400
  3
LIBRARY
360
401
  3
licencing
360
402
  3
LID
360
403
  3
lift
360
404
  3
LIGHT
360
405
  3
LIGHTING
360
406
  3
LINES
360
407
  3
Linienpunkte
360
408
  3
lo1
360
409
  3
LOBBY
360
40A
  3
LOBBY AND OFFICE
360
40B
  3
lock
360
40C
  3
Locked
360
40D
  3
LOCKED-LAYERS
360
40E
  3
LREF
360
40F
  3
LS DETAIL
360
410
  3
Lscapephase1
360
411
  3
LTA
360
412
  3
lu
360
413
  3
lu-schraff
360
414
  3
luft
360
415
  3
luft-ab
360
416
  3
luft-alt
360
417
  3
luft-alt-text
360
418
  3
luft-au
360
419
  3
luft-bem
360
41A
  3
luft-bsk
360
41B
  3
luft-er
360
41C
  3
luft-fo
360
41D
  3
luft-g
360
41E
  3
luft-iso
360
41F
  3
Luft-Kan
360
420
  3
luft-l
360
421
  3
luft-sch
360
422
  3
luft-sch1
360
423
  3
luft-schraff
360
424
  3
luft-um
360
425
  3
luft-z1
360
426
  3
luft-z3
360
427
  3
luft-z4
360
428
  3
luft-zu0
360
429
  3
luft-zu1
360
42A
  3
luft-zu2
360
42B
  3
luft-zu3
360
42C
  3
luft-zu4
360
42D
  3
luftsch
360
42E
  3
LV LAYERS
360
42F
  3
LV1PIPING+EQUIPMENT
360
430
  3
LV2 PIPING
360
431
  3
lvl
360
432
  3
lüft
360
433
  3
Lüftung
360
434
  3
M
360
435
  3
M-
360
436
  3
M-SDUCT-DETAIL
360
437
  3
M-SECTION
360
438
  3
M-TF-SECTION
360
439
  3
m100
360
43A
  3
m50
360
43B
  3
magenta
360
43C
  3
magenta-bleu
360
43D
  3
Magneta
360
43E
  3
mark
360
43F
  3
Massen
360
440
  3
Materialien Rohhoehen
360
441
  3
Materialien_Belegung
360
442
  3
Materialien_Boden
360
443
  3
Materialien_Decke
360
444
  3
Materialien_Grafik
360
445
  3
Materialien_Lichte_Hoehe
360
446
  3
Materialien_Rohhoehe
360
447
  3
MATT
360
448
  3
MDM1
360
449
  3
me
360
44A
  3
Mech.
360
44B
  3
medien
360
44C
  3
MEMBRANE
360
44D
  3
MERCEOLOGICO
360
44E
  3
Metal
360
44F
  3
MEZZ
360
450
  3
MFI
360
451
  3
MH
360
452
  3
Miscellaneous
360
453
  3
MIT
360
454
  3
mixte
360
455
  3
MN EQUIP PIPING
360
456
  3
MN layers
360
457
  3
model
360
458
  3
Muennich
360
459
  3
MV-Off
360
45A
  3
mvgregistreation
360
45B
  3
MXAA
360
45C
  3
mz
360
45D
  3
N
360
45E
  3
NAS1NSITE
360
45F
  3
NBF_
360
460
  3
neal
360
461
  3
NECADKON
360
462
  3
nelf
360
463
  3
NERO
360
464
  3
net
360
465
  3
neu
360
466
  3
new
360
467
  3
NEW-STORM
360
468
  3
NO CANDADO NO CONGELADO
360
469
  3
NON XREF DEPENDANTS
360
46A
  3
NonXref
360
46B
  3
NORTH
360
46C
  3
Not required
360
46D
  3
not3d
360
46E
  3
note
360
46F
  3
NotXref
360
470
  3
np-
360
471
  3
np-arc
360
472
  3
nur neue Layer
360
473
  3
O
360
474
  3
off
360
475
  3
off layers
360
476
  3
off+thaw
360
477
  3
off_frozen
360
478
  3
OFFACTIVE
360
479
  3
OFFICE
360
47A
  3
OFFS
360
47B
  3
Offset
360
47C
  3
Ohne Xrefs
360
47D
  3
oi
360
47E
  3
OLD
360
47F
  3
on
360
480
  3
on and thawed
360
481
  3
onlayers
360
482
  3
OOPS
360
483
  3
op
360
484
  3
option 1
360
485
  3
option 2
360
486
  3
Option2
360
487
  3
ORIG
360
488
  3
OS Map
360
489
  3
ost
360
48A
  3
OU
360
48B
  3
ou-area
360
48C
  3
OUT
360
48D
  3
outl
360
48E
  3
OUTLINE
360
48F
  3
OUTSIDE
360
490
  3
P
360
491
  3
P1
360
492
  3
P2
360
493
  3
p2-LAYERS
360
494
  3
p2-san
360
495
  3
P2-STORM
360
496
  3
p2a4s1
360
497
  3
p2a5
360
498
  3
pa
360
499
  3
PAN
360
49A
  3
parking
360
49B
  3
PARTITION
360
49C
  3
PARTY
360
49D
  3
PATH
360
49E
  3
PB
360
49F
  3
pb-nv
360
4A0
  3
PBA
360
4A1
  3
people
360
4A2
  3
PF
360
4A3
  3
Pflanzplan
360
4A4
  3
PH
360
4A5
  3
PH-3-PROP_
360
4A6
  3
ph2
360
4A7
  3
PHAN
360
4A8
  3
PHASE
360
4A9
  3
phase 1
360
4AA
  3
Phase 2
360
4AB
  3
phase 3
360
4AC
  3
phase 3 & 4
360
4AD
  3
phase 4
360
4AE
  3
PHIL
360
4AF
  3
PILE CAP
360
4B0
  3
PILE LAYOUT
360
4B1
  3
PILE01
360
4B2
  3
PIN-Communikation
360
4B3
  3
PIN-Elektro
360
4B4
  3
pinze
360
4B5
  3
PIPE
360
4B6
  3
Pipework
360
4B7
  3
PIPING
360
4B8
  3
PIZZA
360
4B9
  3
pk 2d-plan
360
4BA
  3
pl
360
4BB
  3
PLAN
360
4BC
  3
plan1g-col
360
4BD
  3
plan1g-con
360
4BE
  3
plan1g-do
360
4BF
  3
plan1g-gri
360
4C0
  3
plan1g-wal
360
4C1
  3
plan1g-walls
360
4C2
  3
plan1g-win
360
4C3
  3
plan1gr-16-02
360
4C4
  3
plan2g-col
360
4C5
  3
plan2g-con
360
4C6
  3
plan2g-do
360
4C7
  3
plan2g-wal
360
4C8
  3
plan6g
360
4C9
  3
plan6g-16-02
360
4CA
  3
Planes
360
4CB
  3
PLANG4
360
4CC
  3
plans
360
4CD
  3
plant
360
4CE
  3
PLASTER
360
4CF
  3
PLBG
360
4D0
  3
pllayer
360
4D1
  3
PLOT
360
4D2
  3
Plumbing
360
4D3
  3
POINT
360
4D4
  3
polly
360
4D5
  3
Polylinien
360
4D6
  3
porch
360
4D7
  3
pos_txt
360
4D8
  3
POWER
360
4D9
  3
PPM
360
4DA
  3
PR
360
4DB
  3
PRD-Maschinentechnik
360
4DC
  3
presentation
360
4DD
  3
print
360
4DE
  3
Process Control
360
4DF
  3
Profil
360
4E0
  3
projekt
360
4E1
  3
PROP
360
4E2
  3
prop builders work
360
4E3
  3
prop-ph1-
360
4E4
  3
prop-ph2-
360
4E5
  3
proposed
360
4E6
  3
PU
360
4E7
  3
PWG-Architektur
360
4E8
  3
Queens Building
360
4E9
  3
R
360
4EA
  3
R__
360
4EB
  3
RACK
360
4EC
  3
ram_rithuvud
360
4ED
  3
RAMP
360
4EE
  3
Raumblock
360
4EF
  3
Raumblöcke
360
4F0
  3
RaumSchraffur
360
4F1
  3
RCCOUMNS
360
4F2
  3
RCP
360
4F3
  3
rdsmay
360
4F4
  3
Reale
360
4F5
  3
RED
360
4F6
  3
reds
360
4F7
  3
REF
360
4F8
  3
ref ceiling
360
4F9
  3
ref ceiling 1
360
4FA
  3
REFLECTED CEILING PLAN
360
4FB
  3
RELECTED CEILING PLAN 012
360
4FC
  3
relocated
360
4FD
  3
render
360
4FE
  3
REST
360
4FF
  3
restaurant
360
500
  3
rev
360
501
  3
REVISIONS
360
502
  3
RF
360
503
  3
RIDE
360
504
  3
RIPON
360
505
  3
rl_linie
360
506
  3
rl_schraf
360
507
  3
rlt
360
508
  3
RO
360
509
  3
ROAD
360
50A
  3
ROADS
360
50B
  3
rob
360
50C
  3
Rohbau
360
50D
  3
Rolton
360
50E
  3
ronny
360
50F
  3
ronny1
360
510
  3
ROOF
360
511
  3
ROOFLIGHT
360
512
  3
room
360
513
  3
rooms
360
514
  3
rouge
360
515
  3
rr
360
516
  3
rrb
360
517
  3
rsfl
360
518
  3
RSW-Aussenanlagen-Y
360
519
  3
RSW-Fluchtplan
360
51A
  3
RSW-Kataster
360
51B
  3
rtkl
360
51C
  3
rwo
360
51D
  3
RWP
360
51E
  3
s
360
51F
  3
S-H
360
520
  3
S38-phase-2
360
521
  3
S38-phase-3
360
522
  3
s_
360
523
  3
SALES
360
524
  3
san
360
525
  3
SANDSTONE
360
526
  3
sani
360
527
  3
Sanitaer
360
528
  3
sanitary
360
529
  3
sanitaryware
360
52A
  3
Sanitär
360
52B
  3
sansl'extension
360
52C
  3
sap-spi
360
52D
  3
scale200
360
52E
  3
sch
360
52F
  3
schacht
360
530
  3
SCHEMATIC
360
531
  3
schindler
360
532
  3
Schlitz- und Durchbrüche
360
533
  3
Schnitt
360
534
  3
schr-a
360
535
  3
schr-f
360
536
  3
schr-z
360
537
  3
schraff
360
538
  3
Schraffur
360
539
  3
Schraffuren
360
53A
  3
screed plan
360
53B
  3
Screw
360
53C
  3
sd
360
53D
  3
SD2-P
360
53E
  3
SD2-P(SCONGELATI)
360
53F
  3
SD228SMT
360
540
  3
se
360
541
  3
se-
360
542
  3
SE100
360
543
  3
search
360
544
  3
sec
360
545
  3
secl
360
546
  3
SECTION
360
547
  3
SECTIONS
360
548
  3
select all-on
360
549
  3
serv
360
54A
  3
servery
360
54B
  3
SERVIC
360
54C
  3
service
360
54D
  3
SERVICE PLAN
360
54E
  3
SERVICES
360
54F
  3
SET
360
550
  3
setout
360
551
  3
SETTING OUT
360
552
  3
SEWER
360
553
  3
SF
360
554
  3
sgp-
360
555
  3
sgppl6
360
556
  3
sgpstee
360
557
  3
SGPSTEEL
360
558
  3
sgpstub
360
559
  3
SGPSTUBS
360
55A
  3
SHADE
360
55B
  3
shadow
360
55C
  3
SHOPFRONT
360
55D
  3
Show All Layers On
360
55E
  3
Show All Layers Thawed
360
55F
  3
Show All Layers Unlocked
360
560
  3
Show all non-Xref layers
360
561
  3
show all not Xref dependent layers
360
562
  3
Show all visible layers
360
563
  3
Show Connections layers
360
564
  3
Show Controls layers
360
565
  3
SHOW NON-XREF LAYER
360
566
  3
Show not Xref dependent layers
360
567
  3
Show Thawed Layers
360
568
  3
Show Workspace layers
360
569
  3
sibou
360
56A
  3
SIGN PLAN
360
56B
  3
SIGNAGE
360
56C
  3
SIGNS
360
56D
  3
SITE
360
56E
  3
SITE ONLY
360
56F
  3
SK
360
570
  3
sky
360
571
  3
SLAB
360
572
  3
slabs
360
573
  3
slots
360
574
  3
Sni
360
575
  3
SOCO
360
576
  3
SOCO LAYERS
360
577
  3
softbase
360
578
  3
SOLID
360
579
  3
solid fills
360
57A
  3
Solids
360
57B
  3
SOSTEGNI
360
57C
  3
space planning
360
57D
  3
SPECIFICATIONS
360
57E
  3
SPI & SAP
360
57F
  3
spi-sap
360
580
  3
SPIRAL
360
581
  3
SPORTS-BAR
360
582
  3
SPOTLIGHTS
360
583
  3
SPRINKLER
360
584
  3
SSWR
360
585
  3
ST
360
586
  3
STAIR
360
587
  3
stair layer
360
588
  3
STAIRS
360
589
  3
Stand_layout
360
58A
  3
STAT
360
58B
  3
STEEL
360
58C
  3
stn
360
58D
  3
STONE
360
58E
  3
STORM
360
58F
  3
Strangbezeichnungen
360
590
  3
STREET
360
591
  3
STRUCT
360
592
  3
STRUCT-CONC
360
593
  3
struct-steel
360
594
  3
structural
360
595
  3
structure
360
596
  3
STUB
360
597
  3
Stuetzen
360
598
  3
Stützen
360
599
  3
su
360
59A
  3
su-
360
59B
  3
sub
360
59C
  3
Surface Bed
360
59D
  3
surv-
360
59E
  3
survey
360
59F
  3
survey-2
360
5A0
  3
SVP
360
5A1
  3
SWEET
360
5A2
  3
SYM
360
5A3
  3
SYMB
360
5A4
  3
symbols
360
5A5
  3
T-
360
5A6
  3
T1
360
5A7
  3
T500
360
5A8
  3
T_SAN
360
5A9
  3
ta
360
5AA
  3
TABS-Layers
360
5AB
  3
TAG
360
5AC
  3
tags
360
5AD
  3
TANK
360
5AE
  3
TANKS
360
5AF
  3
te
360
5B0
  3
TEACH
360
5B1
  3
TECHNIK
360
5B2
  3
Technikfläche
360
5B3
  3
TEMP
360
5B4
  3
Temporary Filter
360
5B5
  3
TENANT
360
5B6
  3
test
360
5B7
  3
test1
360
5B8
  3
TEXT
360
5B9
  3
TEXT-BEST
360
5BA
  3
TEXT-SA
360
5BB
  3
TEXT2
360
5BC
  3
Textblock
360
5BD
  3
Texte
360
5BE
  3
TexteRaum
360
5BF
  3
TEXTGREEN
360
5C0
  3
tf
360
5C1
  3
TGA
360
5C2
  3
th
360
5C3
  3
thaw
360
5C4
  3
thawed
360
5C5
  3
TILES
360
5C6
  3
TIMBER
360
5C7
  3
TITLE
360
5C8
  3
TITLES
360
5C9
  3
TJP
360
5CA
  3
tmp
360
5CB
  3
TO VIEW @ SCALE 1 TO 5
360
5CC
  3
TOILET
360
5CD
  3
toiture
360
5CE
  3
Totalité
360
5CF
  3
tote
360
5D0
  3
TP-TEXT
360
5D1
  3
TRACKS
360
5D2
  3
tramway
360
5D3
  3
TREE
360
5D4
  3
trees
360
5D5
  3
Treppe
360
5D6
  3
treppen
360
5D7
  3
TRIM
360
5D8
  3
try me
360
5D9
  3
TTFM
360
5DA
  3
TTFM g
360
5DB
  3
TUBE ASSY
360
5DC
  3
TWP
360
5DD
  3
tx
360
5DE
  3
TXT
360
5DF
  3
TYPE
360
5E0
  3
Türen
360
5E1
  3
u
360
5E2
  3
U1
360
5E3
  3
U2
360
5E4
  3
U3
360
5E5
  3
um
360
5E6
  3
UNFROZEN
360
5E7
  3
Unileitungen
360
5E8
  3
UNITA
360
5E9
  3
UNITB
360
5EA
  3
UNITC
360
5EB
  3
UNKN
360
5EC
  3
UNLOCKED
360
5ED
  3
upper
360
5EE
  3
UPPER GRD FLOOR
360
5EF
  3
UT
360
5F0
  3
UT+VZT
360
5F1
  3
UT+VZT+CH
360
5F2
  3
UT-CH
360
5F3
  3
UT-VZT
360
5F4
  3
UTIL
360
5F5
  3
V-ELECTRIC
360
5F6
  3
VDK
360
5F7
  3
VECHILES
360
5F8
  3
veg
360
5F9
  3
VEHICLES
360
5FA
  3
veneer off
360
5FB
  3
VENT
360
5FC
  3
ver
360
5FD
  3
Verbindungsgang
360
5FE
  3
verd
360
5FF
  3
verd3e
360
600
  3
VERDECKT
360
601
  3
verm
360
602
  3
vermas
360
603
  3
VIEW
360
604
  3
VIEWPORT
360
605
  3
VISI
360
606
  3
VP
360
607
  3
VP LAYERS
360
608
  3
VP-FREEZE
360
609
  3
VPORT
360
60A
  3
VZT
360
60B
  3
VZT+UT
360
60C
  3
W
360
60D
  3
WA_Aussp
360
60E
  3
WA_oeff
360
60F
  3
WADE
360
610
  3
Waende
360
611
  3
waiter
360
612
  3
WALL
360
613
  3
WALLS
360
614
  3
walls-masonry
360
615
  3
wand
360
616
  3
WATER
360
617
  3
WC
360
618
  3
we
360
619
  3
White
360
61A
  3
WHITE LINING
360
61B
  3
window
360
61C
  3
WINDOWS
360
61D
  3
WINEBIN
360
61E
  3
winebins
360
61F
  3
WINREF
360
620
  3
wolken
360
621
  3
Wände
360
622
  3
X layers
360
623
  3
x-refed
360
624
  3
x-topo5
360
625
  3
XA210G
360
626
  3
XDEMO
360
627
  3
XREF
360
628
  3
xref-off
360
629
  3
xrefs
360
62A
  3
Y
360
62B
  3
yellow
360
62C
  3
z
360
62D
  3
Z ON
360
62E
  3
Z+P
360
62F
  3
Z1
360
630
  3
Z1-B
360
631
  3
Z1-H
360
632
  3
Z1-K
360
633
  3
Z1-L
360
634
  3
Z1-S
360
635
  3
z4
360
636
  3
z_wissen
360
637
  3
Zapnuté
360
638
  3
zone
360
639
  3
zu1
360
63A
  3
zu3
360
63B
  3
zu4
360
63C
  0
DICTIONARY
  5
666
102
{ACAD_REACTORS
330
130
102
}
330
130
100
AcDbDictionary
281
     1
  0
LAYOUT
  5
51
102
{ACAD_XDICTIONARY
360
4837
102
}
102
{ACAD_REACTORS
330
1A
102
}
330
1A
100
AcDbPlotSettings
  1

  2
None
  4

  6

 40
0.0
 41
0.0
 42
0.0
 43
0.0
 44
0.0
 45
0.0
 46
0.0
 47
0.0
 48
0.0
 49
0.0
140
0.0
141
0.0
142
1.0
143
1.0
 70
   688
 72
     0
 73
     0
 74
     5
  7
monochrome.ctb
 75
    16
147
1.0
148
0.0
149
0.0
100
AcDbLayout
  1
Layout1
 70
     1
 71
     1
 10
0.0
 20
0.0
 11
12.0
 21
9.0
 12
0.0
 22
0.0
 32
0.0
 14
0.0
 24
0.0
 34
0.0
 15
0.0
 25
0.0
 35
0.0
146
0.0
 13
0.0
 23
0.0
 33
0.0
 16
1.0
 26
0.0
 36
0.0
 17
0.0
 27
1.0
 37
0.0
 76
     0
330
50
  0
LAYOUT
  5
56
102
{ACAD_XDICTIONARY
360
4839
102
}
102
{ACAD_REACTORS
330
1A
102
}
330
1A
100
AcDbPlotSettings
  1

  2
None
  4

  6

 40
0.0
 41
0.0
 42
0.0
 43
0.0
 44
0.0
 45
0.0
 46
0.0
 47
0.0
 48
0.0
 49
0.0
140
0.0
141
0.0
142
1.0
143
1.0
 70
   688
 72
     0
 73
     0
 74
     5
  7
monochrome.ctb
 75
    16
147
1.0
148
0.0
149
0.0
100
AcDbLayout
  1
Layout2
 70
     1
 71
     2
 10
0.0
 20
0.0
 11
12.0
 21
9.0
 12
0.0
 22
0.0
 32
0.0
 14
0.0
 24
0.0
 34
0.0
 15
0.0
 25
0.0
 35
0.0
146
0.0
 13
0.0
 23
0.0
 33
0.0
 16
1.0
 26
0.0
 36
0.0
 17
0.0
 27
1.0
 37
0.0
 76
     0
330
55
  0
LAYOUT
  5
22
102
{ACAD_XDICTIONARY
360
4835
102
}
102
{ACAD_REACTORS
330
1A
102
}
330
1A
100
AcDbPlotSettings
  1

  2
\\HEFPWS01\PH08
  4
A4
  6

 40
5.873749732971191
 41
5.408092021942138
 42
5.577407836914062
 43
5.069427490234375
 44
209.9733276367187
 45
296.9683227539062
 46
0.0
 47
0.0
 48
0.0
 49
0.0
140
0.0
141
0.0
142
1.0
143
1.496054571134364
 70
 11952
 72
     1
 73
     1
 74
     2
  7
monochrome.ctb
 75
     0
147
0.6684248150398435
148
0.0
149
0.0
100
AcDbLayout
  1
Model
 70
     1
 71
     0
 10
0.0
 20
0.0
 11
12.0
 21
9.0
 12
0.0
 22
0.0
 32
0.0
 14
0.0
 24
0.0
 34
0.0
 15
0.0
 25
0.0
 35
0.0
146
0.0
 13
0.0
 23
0.0
 33
0.0
 16
1.0
 26
0.0
 36
0.0
 17
0.0
 27
1.0
 37
0.0
 76
     0
330
1F
  0
MLINESTYLE
  5
18
102
{ACAD_REACTORS
330
17
102
}
330
17
100
AcDbMlineStyle
  2
STANDARD
 70
     0
  3

 62
   256
 51
90.0
 52
90.0
 71
     2
 49
0.5
 62
   256
  6
BYLAYER
 49
-0.5
 62
   256
  6
BYLAYER
  0
ACDBPLACEHOLDER
  5
F
102
{ACAD_REACTORS
330
E
102
}
330
E
  0
TABLESTYLE
  5
472D
102
{ACAD_REACTORS
330
472C
102
}
330
472C
100
AcDbTableStyle
  3
Standard
 70
     0
 71
     0
 40
1.5
 41
1.5
280
     0
281
     0
  7
Standard
140
4.5
170
     2
 62
     0
 63
     7
283
     0
274
    -2
284
     1
 64
     0
275
    -2
285
     1
 65
     0
276
    -2
286
     1
 66
     0
277
    -2
287
     1
 67
     0
278
    -2
288
     1
 68
     0
279
    -2
289
     1
 69
     0
  7
Standard
140
6.0
170
     5
 62
     0
 63
     7
283
     0
274
    -2
284
     1
 64
     0
275
    -2
285
     1
 65
     0
276
    -2
286
     1
 66
     0
277
    -2
287
     1
 67
     0
278
    -2
288
     1
 68
     0
279
    -2
289
     1
 69
     0
  7
Standard
140
4.5
170
     5
 62
     0
 63
     7
283
     0
274
    -2
284
     1
 64
     0
275
    -2
285
     1
 65
     0
276
    -2
286
     1
 66
     0
277
    -2
287
     1
 67
     0
278
    -2
288
     1
 68
     0
279
    -2
289
     1
 69
     0
  0
DICTIONARYVAR
  5
4823
102
{ACAD_REACTORS
330
5E
102
}
330
5E
100
DictionaryVariables
280
     0
  1
STANDARD
  0
DICTIONARYVAR
  5
5F
102
{ACAD_REACTORS
330
5E
102
}
330
5E
100
DictionaryVariables
280
     0
  1
2
  0
DICTIONARYVAR
  5
63
102
{ACAD_REACTORS
330
5E
102
}
330
5E
100
DictionaryVariables
280
     0
  1
1
  0
DICTIONARYVAR
  5
81
102
{ACAD_REACTORS
330
5E
102
}
330
5E
100
DictionaryVariables
280
     0
  1
0
  0
DICTIONARYVAR
  5
4831
102
{ACAD_REACTORS
330
5E
102
}
330
5E
100
DictionaryVariables
280
     0
  1

  0
DICTIONARY
  5
99
102
{ACAD_REACTORS
330
93
102
}
330
93
100
AcDbDictionary
281
     1
  0
XRECORD
  5
478A
102
{ACAD_REACTORS
330
93
102
}
330
93
100
AcDbXrecord
280
     1
 90
-1023410169
  0
XRECORD
  5
28D1
102
{ACAD_REACTORS
330
28CF
102
}
330
28CF
100
AcDbXrecord
280
     1
330
12F
330
8AE
330
20E2
330
20EC
  0
XRECORD
  5
132
102
{ACAD_REACTORS
330
131
102
}
330
131
100
AcDbXrecord
280
     1
  1
$
  1
*$*
  1
*
  1
*
 70
     0
  1
*
  1
*
  0
XRECORD
  5
133
102
{ACAD_REACTORS
330
131
102
}
330
131
100
AcDbXrecord
280
     1
  1
$$$
  1
###
  1
*
  1
*
 70
     0
  1
*
  1
*
  0
XRECORD
  5
134
102
{ACAD_REACTORS
330
131
102
}
330
131
100
AcDbXrecord
280
     1
  1
(A)15
  1
0,2txt,4txt,ar*,defpoints,gr*,rev,st*,tb*,vp
  1
*
  1
*
 70
     0
  1
*
  1
*
  0
XRECORD
  5
135
102
{ACAD_REACTORS
330
131
102
}
330
131
100
AcDbXrecord
280
     1
  1
-
  1
-*
  1
*
  1
*
 70
     0
  1
*
  1
*
  0
XRECORD
  5
136
102
{ACAD_REACTORS
330
131
102
}
330
131
100
AcDbXrecord
280
     1
  1
-COL-
  1
*COL*
  1
*
  1
*
 70
     0
  1
*
  1
*
  0
XRECORD
  5
137
102
{ACAD_REACTORS
330
131
102
}
330
131
100
AcDbXrecord
280
     1
  1
-CON-
  1
*CON*
  1
*
  1
*
 70
     0
  1
*
  1
*
  0
XRECORD
  5
138
102
{ACAD_REACTORS
330
131
102
}
330
131
100
AcDbXrecord
280
     1
  1
-FL_
  1
*-FL_*
  1
*
  1
*
 70
     0
  1
*
  1
*
  0
XRECORD
  5
139
102
{ACAD_REACTORS
330
131
102
}
330
131
100
AcDbXrecord
280
     1
  1
-FURN-TEX-
  1
*FURN*TEX*
  1
*
  1
*
 70
     0
  1
*
  1
*
  0
XRECORD
  5
13A
102
{ACAD_REACTORS
330
131
102
}
330
131
100
AcDbXrecord
280
     1
  1
-np
  1
*-np*
  1
*
  1
*
 70
     0
  1
*
  1
*
  0
XRECORD
  5
13B
102
{ACAD_REACTORS
330
131
102
}
330
131
100
AcDbXrecord
280
     1
  1
-solid
  1
*
  1
*
  1
*
 70
     0
  1
*
  1
*
  0
XRECORD
  5
13C
102
{ACAD_REACTORS
330
131
102
}
330
131
100
AcDbXrecord
280
     1
  1
-ST_
  1
*-ST*
  1
*
  1
*
 70
     0
  1
*
  1
*
  0
XRECORD
  5
13D
102
{ACAD_REACTORS
330
131
102
}
330
131
100
AcDbXrecord
280
     1
  1
-WAL-
  1
*WAL*
  1
*
  1
*
 70
     0
  1
*
  1
*
  0
XRECORD
  5
13E
102
{ACAD_REACTORS
330
131
102
}
330
131
100
AcDbXrecord
280
     1
  1
0
  1
*0
  1
*
  1
*
 70
     0
  1
*
  1
*
  0
XRECORD
  5
13F
102
{ACAD_REACTORS
330
131
102
}
330
131
100
AcDbXrecord
280
     1
  1
00
  1
*00*
  1
*
  1
*
 70
     0
  1
*
  1
*
  0
XRECORD
  5
140
102
{ACAD_REACTORS
330
131
102
}
330
131
100
AcDbXrecord
280
     1
  1
000
  1
*000
  1
*
  1
*
 70
     0
  1
*
  1
*
  0
XRECORD
  5
141
102
{ACAD_REACTORS
330
131
102
}
330
131
100
AcDbXrecord
280
     1
  1
003T
  1
*003T
  1
*
  1
*
 70
     0
  1
*
  1
*
  0
XRECORD
  5
142
102
{ACAD_REACTORS
330
131
102
}
330
131
100
AcDbXrecord
280
     1
  1
009
  1
*009
  1
*
  1
*
 70
     0
  1
*
  1
*
  0
XRECORD
  5
143
102
{ACAD_REACTORS
330
131
102
}
330
131
100
AcDbXrecord
280
     1
  1
00x
  1
00*
  1
*
  1
*
 70
     0
  1
*
  1
*
  0
XRECORD
  5
144
102
{ACAD_REACTORS
330
131
102
}
330
131
100
AcDbXrecord
280
     1
  1
01
  1
01*
  1
*
  1
*
 70
     0
  1
*
  1
*
  0
XRECORD
  5
145
102
{ACAD_REACTORS
330
131
102
}
330
131
100
AcDbXrecord
280
     1
  1
013
  1
*013
  1
*
  1
*
 70
     0
  1
*
  1
*
  0
XRECORD
  5
146
102
{ACAD_REACTORS
330
131
102
}
330
131
100
AcDbXrecord
280
     1
  1
018
  1
*018
  1
*
  1
*
 70
     0
  1
*
  1
*
  0
XRECORD
  5
147
102
{ACAD_REACTORS
330
131
102
}
330
131
100
AcDbXrecord
280
     1
  1
02
  1
02*
  1
*
  1
*
 70
     0
  1
*
  1
*
  0
XRECORD
  5
148
102
{ACAD_REACTORS
330
131
102
}
330
131
100
AcDbXrecord
280
     1
  1
025
  1
*025
  1
*
  1
*
 70
     0
  1
*
  1
*
  0
XRECORD
  5
149
102
{ACAD_REACTORS
330
131
102
}
330
131
100
AcDbXrecord
280
     1
  1
02planung
  1
02*
  1
*
  1
*
 70
     0
  1
*
  1
*
  0
XRECORD
  5
14A
102
{ACAD_REACTORS
330
131
102
}
330
131
100
AcDbXrecord
280
     1
  1
032
  1
*032*
  1
*
  1
*
 70
     0
  1
*
  1
*
  0
XRECORD
  5
14B
102
{ACAD_REACTORS
330
131
102
}
330
131
100
AcDbXrecord
280
     1
  1
032G
  1
*032G*
  1
*
  1
*
 70
     0
  1
*
  1
*
  0
XRECORD
  5
14C
102
{ACAD_REACTORS
330
131
102
}
330
131
100
AcDbXrecord
280
     1
  1
035
  1
*035
  1
*
  1
*
 70
     0
  1
*
  1
*
  0
XRECORD
  5
14D
102
{ACAD_REACTORS
330
131
102
}
330
131
100
AcDbXrecord
280
     1
  1
04
  1
04*
  1
*
  1
*
 70
     0
  1
*
  1
*
  0
XRECORD
  5
14E
102
{ACAD_REACTORS
330
131
102
}
330
131
100
AcDbXrecord
280
     1
  1
04x
  1
04*
  1
*
  1
*
 70
     0
  1
*
  1
*
  0
XRECORD
  5
14F
102
{ACAD_REACTORS
330
131
102
}
330
131
100
AcDbXrecord
280
     1
  1
05
  1
*_05s
  1
*
  1
*
 70
     0
  1
*
  1
*
  0
XRECORD
  5
150
102
{ACAD_REACTORS
330
131
102
}
330
131
100
AcDbXrecord
280
     1
  1
050
  1
*050
  1
*
  1
*
 70
     0
  1
*
  1
*
  0
XRECORD
  5
151
102
{ACAD_REACTORS
330
131
102
}
330
131
100
AcDbXrecord
280
     1
  1
05S
  1
*05S
  1
*
  1
*
 70
     0
  1
*
  1
*
  0
XRECORD
  5
152
102
{ACAD_REACTORS
330
131
102
}
330
131
100
AcDbXrecord
280
     1
  1
06
  1
06*
  1
*
  1
*
 70
     0
  1
*
  1
*
  0
XRECORD
  5
153
102
{ACAD_REACTORS
330
131
102
}
330
131
100
AcDbXrecord
280
     1
  1
070
  1
*070
  1
*
  1
*
 70
     0
  1
*
  1
*
  0
XRECORD
  5
154
102
{ACAD_REACTORS
330
131
102
}
330
131
100
AcDbXrecord
280
     1
  1
0l
  1
0l*, 0
  1
*
  1
*
 70
     0
  1
*
  1
*
  0
XRECORD
  5
155
102
{ACAD_REACTORS
330
131
102
}
330
131
100
AcDbXrecord
280
     1
  1
0sani
  1
0S*
  1
*
  1
*
 70
     0
  1
*
  1
*
  0
XRECORD
  5
156
102
{ACAD_REACTORS
330
131
102
}
330
131
100
AcDbXrecord
280
     1
  1
0TEMP
  1
0S*TX
  1
*
  1
*
 70
     0
  1
*
  1
*
  0
XRECORD
  5
157
102
{ACAD_REACTORS
330
131
102
}
330
131
100
AcDbXrecord
280
     1
  1
1
  1
*
  1
*
  1
*
 70
     0
  1
*
  1
*
  0
XRECORD
  5
158
102
{ACAD_REACTORS
330
131
102
}
330
131
100
AcDbXrecord
280
     1
  1
1 GA
  1
??????_G??????
  1
*
  1
*
 70
     0
  1
*
  1
*
  0
XRECORD
  5
159
102
{ACAD_REACTORS
330
131
102
}
330
131
100
AcDbXrecord
280
     1
  1
1.og
  1
hh502c*
  1
*
  1
*
 70
     0
  1
*
  1
*
  0
XRECORD
  5
15A
102
{ACAD_REACTORS
330
131
102
}
330
131
100
AcDbXrecord
280
     1
  1
10
  1
*10
  1
*
  1
*
 70
     0
  1
*
  1
*
  0
XRECORD
  5
15B
102
{ACAD_REACTORS
330
131
102
}
330
131
100
AcDbXrecord
280
     1
  1
100
  1
*100*
  1
*
  1
*
 70
     0
  1
*
  1
*
  0
XRECORD
  5
15C
102
{ACAD_REACTORS
330
131
102
}
330
131
100
AcDbXrecord
280
     1
  1
100TEXT
  1
*100
  1
*
  1
*
 70
     0
  1
*
  1
*
  0
XRECORD
  5
15D
102
{ACAD_REACTORS
330
131
102
}
330
131
100
AcDbXrecord
280
     1
  1
1120
  1
*
  1
*
  1
*
 70
     0
  1
*
  1
*
  0
XRECORD
  5
15E
102
{ACAD_REACTORS
330
131
102
}
330
131
100
AcDbXrecord
280
     1
  1
117
  1
*117*
  1
*
  1
*
 70
     0
  1
*
  1
*
  0
XRECORD
  5
15F
102
{ACAD_REACTORS
330
131
102
}
330
131
100
AcDbXrecord
280
     1
  1
12
  1
*OS*
  1
*
  1
*
 70
     0
  1
*
  1
*
  0
XRECORD
  5
160
102
{ACAD_REACTORS
330
131
102
}
330
131
100
AcDbXrecord
280
     1
  1
121
  1
*
  1
*
  1
*
 70
    16
  1
*
  1
*
  0
XRECORD
  5
161
102
{ACAD_REACTORS
330
131
102
}
330
131
100
AcDbXrecord
280
     1
  1
124
  1
*124*
  1
*
  1
*
 70
     0
  1
*
  1
*
  0
XRECORD
  5
162
102
{ACAD_REACTORS
330
131
102
}
330
131
100
AcDbXrecord
280
     1
  1
132
  1
*132*
  1
*
  1
*
 70
     0
  1
*
  1
*
  0
XRECORD
  5
163
102
{ACAD_REACTORS
330
131
102
}
330
131
100
AcDbXrecord
280
     1
  1
1343
  1
1343-*
  1
*
  1
*
 70
     0
  1
*
  1
*
  0
XRECORD
  5
164
102
{ACAD_REACTORS
330
131
102
}
330
131
100
AcDbXrecord
280
     1
  1
14-6
  1
*
  1
*
  1
*
 70
    20
  1
*
  1
*
  0
XRECORD
  5
165
102
{ACAD_REACTORS
330
131
102
}
330
131
100
AcDbXrecord
280
     1
  1
15
  1
x-topo|*,x-tree|*,x-util|*
  1
15
  1
*
 70
     0
  1
*
  1
*
  0
XRECORD
  5
166
102
{ACAD_REACTORS
330
131
102
}
330
131
100
AcDbXrecord
280
     1
  1
150
  1
*150*
  1
*
  1
*
 70
     0
  1
*
  1
*
  0
XRECORD
  5
167
102
{ACAD_REACTORS
330
131
102
}
330
131
100
AcDbXrecord
280
     1
  1
170
  1
*
  1
170
  1
*
 70
     0
  1
*
  1
*
  0
XRECORD
  5
168
102
{ACAD_REACTORS
330
131
102
}
330
131
100
AcDbXrecord
280
     1
  1
1784frst$0$
  1
1784frst$0$*
  1
*
  1
*
 70
     0
  1
*
  1
*
  0
XRECORD
  5
169
102
{ACAD_REACTORS
330
131
102
}
330
131
100
AcDbXrecord
280
     1
  1
1GRID
  1
*
  1
*
  1
*
 70
    16
  1
*
  1
*
  0
XRECORD
  5
16A
102
{ACAD_REACTORS
330
131
102
}
330
131
100
AcDbXrecord
280
     1
  1
2
  1
*
  1
8
  1
*
 70
     0
  1
*
  1
*
  0
XRECORD
  5
16B
102
{ACAD_REACTORS
330
131
102
}
330
131
100
AcDbXrecord
280
     1
  1
2 SPACE PLAN
  1
??????_?S?????
  1
*
  1
*
 70
     0
  1
*
  1
*
  0
XRECORD
  5
16C
102
{ACAD_REACTORS
330
131
102
}
330
131
100
AcDbXrecord
280
     1
  1
20
  1
*20*
  1
*
  1
*
 70
     0
  1
*
  1
*
  0
XRECORD
  5
16D
102
{ACAD_REACTORS
330
131
102
}
330
131
100
AcDbXrecord
280
     1
  1
200
  1
*
  1
*
  1
*
 70
    16
  1
*
  1
*
  0
XRECORD
  5
16E
102
{ACAD_REACTORS
330
131
102
}
330
131
100
AcDbXrecord
280
     1
  1
200TEXT
  1
*200
  1
*
  1
*
 70
     0
  1
*
  1
*
  0
XRECORD
  5
16F
102
{ACAD_REACTORS
330
131
102
}
330
131
100
AcDbXrecord
280
     1
  1
201
  1
*201*
  1
*
  1
*
 70
     0
  1
*
  1
*
  0
XRECORD
  5
170
102
{ACAD_REACTORS
330
131
102
}
330
131
100
AcDbXrecord
280
     1
  1
21
  1
*21
  1
*
  1
*
 70
     0
  1
*
  1
*
  0
XRECORD
  5
171
102
{ACAD_REACTORS
330
131
102
}
330
131
100
AcDbXrecord
280
     1
  1
210
  1
*
  1
210
  1
*
 70
     0
  1
*
  1
*
  0
XRECORD
  5
172
102
{ACAD_REACTORS
330
131
102
}
330
131
100
AcDbXrecord
280
     1
  1
210H
  1
*210H*
  1
*
  1
*
 70
     0
  1
*
  1
*
  0
XRECORD
  5
173
102
{ACAD_REACTORS
330
131
102
}
330
131
100
AcDbXrecord
280
     1
  1
212
  1
*
  1
212
  1
*
 70
     0
  1
*
  1
*
  0
XRECORD
  5
174
102
{ACAD_REACTORS
330
131
102
}
330
131
100
AcDbXrecord
280
     1
  1
21A
  1
*21A
  1
*
  1
*
 70
     0
  1
*
  1
*
  0
XRECORD
  5
175
102
{ACAD_REACTORS
330
131
102
}
330
131
100
AcDbXrecord
280
     1
  1
22
  1
*22
  1
*
  1
*
 70
     0
  1
*
  1
*
  0
XRECORD
  5
176
102
{ACAD_REACTORS
330
131
102
}
330
131
100
AcDbXrecord
280
     1
  1
220g
  1
*220*
  1
*
  1
*
 70
     0
  1
*
  1
*
  0
XRECORD
  5
177
102
{ACAD_REACTORS
330
131
102
}
330
131
100
AcDbXrecord
280
     1
  1
22A
  1
*22A
  1
*
  1
*
 70
     0
  1
*
  1
*
  0
XRECORD
  5
178
102
{ACAD_REACTORS
330
131
102
}
330
131
100
AcDbXrecord
280
     1
  1
231
  1
*
  1
231
  1
*
 70
  3072
  1
*
  1
*
  0
XRECORD
  5
179
102
{ACAD_REACTORS
330
131
102
}
330
131
100
AcDbXrecord
280
     1
  1
24
  1
*24
  1
*
  1
*
 70
     0
  1
*
  1
*
  0
XRECORD
  5
17A
102
{ACAD_REACTORS
330
131
102
}
330
131
100
AcDbXrecord
280
     1
  1
24A
  1
*24A
  1
*
  1
*
 70
     0
  1
*
  1
*
  0
XRECORD
  5
17B
102
{ACAD_REACTORS
330
131
102
}
330
131
100
AcDbXrecord
280
     1
  1
25
  1
*25*
  1
*
  1
*
 70
     0
  1
*
  1
*
  0
XRECORD
  5
17C
102
{ACAD_REACTORS
330
131
102
}
330
131
100
AcDbXrecord
280
     1
  1
25's
  1
*25*
  1
*
  1
*
 70
     0
  1
*
  1
*
  0
XRECORD
  5
17D
102
{ACAD_REACTORS
330
131
102
}
330
131
100
AcDbXrecord
280
     1
  1
250
  1
*250*
  1
*
  1
*
 70
     0
  1
*
  1
*
  0
XRECORD
  5
17E
102
{ACAD_REACTORS
330
131
102
}
330
131
100
AcDbXrecord
280
     1
  1
26
  1
*26*
  1
*
  1
*
 70
     0
  1
*
  1
*
  0
XRECORD
  5
17F
102
{ACAD_REACTORS
330
131
102
}
330
131
100
AcDbXrecord
280
     1
  1
27
  1
*27
  1
*
  1
*
 70
     0
  1
*
  1
*
  0
XRECORD
  5
180
102
{ACAD_REACTORS
330
131
102
}
330
131
100
AcDbXrecord
280
     1
  1
27A
  1
*27A
  1
*
  1
*
 70
     0
  1
*
  1
*
  0
XRECORD
  5
181
102
{ACAD_REACTORS
330
131
102
}
330
131
100
AcDbXrecord
280
     1
  1
28
  1
*28
  1
*
  1
*
 70
     0
  1
*
  1
*
  0
XRECORD
  5
182
102
{ACAD_REACTORS
330
131
102
}
330
131
100
AcDbXrecord
280
     1
  1
288SHT
  1
288SH*
  1
*
  1
*
 70
     0
  1
*
  1
*
  0
XRECORD
  5
183
102
{ACAD_REACTORS
330
131
102
}
330
131
100
AcDbXrecord
280
     1
  1
28A
  1
*28A
  1
*
  1
*
 70
     0
  1
*
  1
*
  0
XRECORD
  5
184
102
{ACAD_REACTORS
330
131
102
}
330
131
100
AcDbXrecord
280
     1
  1
2B
  1
2B*
  1
*
  1
*
 70
     0
  1
*
  1
*
  0
XRECORD
  5
185
102
{ACAD_REACTORS
330
131
102
}
330
131
100
AcDbXrecord
280
     1
  1
2D
  1
*2*
  1
*
  1
*
 70
     0
  1
*
  1
*
  0
XRECORD
  5
186
102
{ACAD_REACTORS
330
131
102
}
330
131
100
AcDbXrecord
280
     1
  1
2DPLAN
  1
2D*
  1
*
  1
*
 70
     0
  1
*
  1
*
  0
XRECORD
  5
187
102
{ACAD_REACTORS
330
131
102
}
330
131
100
AcDbXrecord
280
     1
  1
2K
  1
2K*
  1
grün
  1
*
 70
     0
  1
*
  1
*
  0
XRECORD
  5
188
102
{ACAD_REACTORS
330
131
102
}
330
131
100
AcDbXrecord
280
     1
  1
2kk
  1
*
  1
grün
  1
*
 70
     0
  1
*
  1
*
  0
XRECORD
  5
189
102
{ACAD_REACTORS
330
131
102
}
330
131
100
AcDbXrecord
280
     1
  1
2L
  1
2l*
  1
*
  1
*
 70
     0
  1
*
  1
*
  0
XRECORD
  5
18A
102
{ACAD_REACTORS
330
131
102
}
330
131
100
AcDbXrecord
280
     1
  1
2l-schraff
  1
2ls*
  1
*
  1
*
 70
     0
  1
*
  1
*
  0
XRECORD
  5
18B
102
{ACAD_REACTORS
330
131
102
}
330
131
100
AcDbXrecord
280
     1
  1
2l_bem
  1
2l_*bem
  1
*
  1
*
 70
     0
  1
*
  1
*
  0
XRECORD
  5
18C
102
{ACAD_REACTORS
330
131
102
}
330
131
100
AcDbXrecord
280
     1
  1
2S
  1
2S*
  1
*
  1
*
 70
     0
  1
*
  1
*
  0
XRECORD
  5
18D
102
{ACAD_REACTORS
330
131
102
}
330
131
100
AcDbXrecord
280
     1
  1
3
  1
*3
  1
*
  1
*
 70
     0
  1
*
  1
*
  0
XRECORD
  5
18E
102
{ACAD_REACTORS
330
131
102
}
330
131
100
AcDbXrecord
280
     1
  1
3 CEILING
  1
??????_??C????
  1
*
  1
*
 70
     0
  1
*
  1
*
  0
XRECORD
  5
18F
102
{ACAD_REACTORS
330
131
102
}
330
131
100
AcDbXrecord
280
     1
  1
300
  1
*
  1
*
  1
*
 70
    16
  1
*
  1
*
  0
XRECORD
  5
190
102
{ACAD_REACTORS
330
131
102
}
330
131
100
AcDbXrecord
280
     1
  1
300-1
  1
*
  1
*
  1
*
 70
    16
  1
*
  1
*
  0
XRECORD
  5
191
102
{ACAD_REACTORS
330
131
102
}
330
131
100
AcDbXrecord
280
     1
  1
3000
  1
*3000*
  1
*GREEN*
  1
*
 70
     0
  1
*
  1
*
  0
XRECORD
  5
192
102
{ACAD_REACTORS
330
131
102
}
330
131
100
AcDbXrecord
280
     1
  1
31
  1
*31
  1
*
  1
*
 70
     0
  1
*
  1
*
  0
XRECORD
  5
193
102
{ACAD_REACTORS
330
131
102
}
330
131
100
AcDbXrecord
280
     1
  1
31A
  1
*31A
  1
*
  1
*
 70
     0
  1
*
  1
*
  0
XRECORD
  5
194
102
{ACAD_REACTORS
330
131
102
}
330
131
100
AcDbXrecord
280
     1
  1
32
  1
*32
  1
*
  1
*
 70
     0
  1
*
  1
*
  0
XRECORD
  5
195
102
{ACAD_REACTORS
330
131
102
}
330
131
100
AcDbXrecord
280
     1
  1
32A
  1
*32A
  1
*
  1
*
 70
     0
  1
*
  1
*
  0
XRECORD
  5
196
102
{ACAD_REACTORS
330
131
102
}
330
131
100
AcDbXrecord
280
     1
  1
33
  1
*33
  1
*
  1
*
 70
     0
  1
*
  1
*
  0
XRECORD
  5
197
102
{ACAD_REACTORS
330
131
102
}
330
131
100
AcDbXrecord
280
     1
  1
33A
  1
*33A
  1
*
  1
*
 70
     0
  1
*
  1
*
  0
XRECORD
  5
198
102
{ACAD_REACTORS
330
131
102
}
330
131
100
AcDbXrecord
280
     1
  1
35
  1
*35
  1
*
  1
*
 70
     0
  1
*
  1
*
  0
XRECORD
  5
199
102
{ACAD_REACTORS
330
131
102
}
330
131
100
AcDbXrecord
280
     1
  1
38
  1
*38*
  1
*
  1
*
 70
     0
  1
*
  1
*
  0
XRECORD
  5
19A
102
{ACAD_REACTORS
330
131
102
}
330
131
100
AcDbXrecord
280
     1
  1
3845-000
  1
22-external-walls----------------------------------------
  1
*
  1
*
 70
     1
  1
*
  1
*
  0
XRECORD
  5
19B
102
{ACAD_REACTORS
330
131
102
}
330
131
100
AcDbXrecord
280
     1
  1
3D
  1
3D*
  1
*
  1
*
 70
     0
  1
*
  1
*
  0
XRECORD
  5
19C
102
{ACAD_REACTORS
330
131
102
}
330
131
100
AcDbXrecord
280
     1
  1
3D LAYERS
  1
*3D*
  1
*
  1
*
 70
     0
  1
*
  1
*
  0
XRECORD
  5
19D
102
{ACAD_REACTORS
330
131
102
}
330
131
100
AcDbXrecord
280
     1
  1
3d view
  1
3d*
  1
*
  1
*
 70
     5
  1
*
  1
*
  0
XRECORD
  5
19E
102
{ACAD_REACTORS
330
131
102
}
330
131
100
AcDbXrecord
280
     1
  1
3d_buildc
  1
*
  1
*
  1
*
 70
     0
  1
*
  1
*
  0
XRECORD
  5
19F
102
{ACAD_REACTORS
330
131
102
}
330
131
100
AcDbXrecord
280
     1
  1
3d_buildd
  1
*
  1
*
  1
*
 70
     0
  1
*
  1
*
  0
XRECORD
  5
1A0
102
{ACAD_REACTORS
330
131
102
}
330
131
100
AcDbXrecord
280
     1
  1
3d_builde
  1
*
  1
*
  1
*
 70
     0
  1
*
  1
*
  0
XRECORD
  5
1A1
102
{ACAD_REACTORS
330
131
102
}
330
131
100
AcDbXrecord
280
     1
  1
3d_buildf
  1
*
  1
*
  1
*
 70
     0
  1
*
  1
*
  0
XRECORD
  5
1A2
102
{ACAD_REACTORS
330
131
102
}
330
131
100
AcDbXrecord
280
     1
  1
3d_buildg
  1
*
  1
*
  1
*
 70
     0
  1
*
  1
*
  0
XRECORD
  5
1A3
102
{ACAD_REACTORS
330
131
102
}
330
131
100
AcDbXrecord
280
     1
  1
3d_buildh
  1
*
  1
*
  1
*
 70
     0
  1
*
  1
*
  0
XRECORD
  5
1A4
102
{ACAD_REACTORS
330
131
102
}
330
131
100
AcDbXrecord
280
     1
  1
4
  1
*928*
  1
*
  1
*
 70
     0
  1
*
  1
*
  0
XRECORD
  5
1A5
102
{ACAD_REACTORS
330
131
102
}
330
131
100
AcDbXrecord
280
     1
  1
4 ELECTRIC
  1
??????_???E???
  1
*
  1
*
 70
     0
  1
*
  1
*
  0
XRECORD
  5
1A6
102
{ACAD_REACTORS
330
131
102
}
330
131
100
AcDbXrecord
280
     1
  1
40
  1
*40
  1
*
  1
*
 70
     0
  1
*
  1
*
  0
XRECORD
  5
1A7
102
{ACAD_REACTORS
330
131
102
}
330
131
100
AcDbXrecord
280
     1
  1
440
  1
440*
  1
*
  1
*
 70
     0
  1
*
  1
*
  0
XRECORD
  5
1A8
102
{ACAD_REACTORS
330
131
102
}
330
131
100
AcDbXrecord
280
     1
  1
443
  1
443*
  1
*
  1
*
 70
     0
  1
*
  1
*
  0
XRECORD
  5
1A9
102
{ACAD_REACTORS
330
131
102
}
330
131
100
AcDbXrecord
280
     1
  1
443ha
  1
443*ha*
  1
*
  1
*
 70
     0
  1
*
  1
*
  0
XRECORD
  5
1AA
102
{ACAD_REACTORS
330
131
102
}
330
131
100
AcDbXrecord
280
     1
  1
5
  1
*9651*
  1
*
  1
*
 70
     0
  1
*
  1
*
  0
XRECORD
  5
1AB
102
{ACAD_REACTORS
330
131
102
}
330
131
100
AcDbXrecord
280
     1
  1
5 DEMO
  1
??????_????D??
  1
*
  1
*
 70
     0
  1
*
  1
*
  0
XRECORD
  5
1AC
102
{ACAD_REACTORS
330
131
102
}
330
131
100
AcDbXrecord
280
     1
  1
50
  1
*50
  1
*
  1
*
 70
     0
  1
*
  1
*
  0
XRECORD
  5
1AD
102
{ACAD_REACTORS
330
131
102
}
330
131
100
AcDbXrecord
280
     1
  1
500
  1
*500*
  1
*
  1
*
 70
     0
  1
*
  1
*
  0
XRECORD
  5
1AE
102
{ACAD_REACTORS
330
131
102
}
330
131
100
AcDbXrecord
280
     1
  1
50text
  1
*50*
  1
*
  1
*
 70
     0
  1
*
  1
*
  0
XRECORD
  5
1AF
102
{ACAD_REACTORS
330
131
102
}
330
131
100
AcDbXrecord
280
     1
  1
6
  1
*water*
  1
*
  1
*
 70
     0
  1
*
  1
*
  0
XRECORD
  5
1B0
102
{ACAD_REACTORS
330
131
102
}
330
131
100
AcDbXrecord
280
     1
  1
6 LAYER 1
  1
??????_?????1?
  1
*
  1
*
 70
     0
  1
*
  1
*
  0
XRECORD
  5
1B1
102
{ACAD_REACTORS
330
131
102
}
330
131
100
AcDbXrecord
280
     1
  1
600
  1
*600*
  1
*
  1
*
 70
     0
  1
*
  1
*
  0
XRECORD
  5
1B2
102
{ACAD_REACTORS
330
131
102
}
330
131
100
AcDbXrecord
280
     1
  1
7
  1
*
  1
7
  1
*
 70
     0
  1
*
  1
*
  0
XRECORD
  5
1B3
102
{ACAD_REACTORS
330
131
102
}
330
131
100
AcDbXrecord
280
     1
  1
7 LAYER 2
  1
??????_??????2
  1
*
  1
*
 70
     0
  1
*
  1
*
  0
XRECORD
  5
1B4
102
{ACAD_REACTORS
330
131
102
}
330
131
100
AcDbXrecord
280
     1
  1
70
  1
*70
  1
*
  1
*
 70
     0
  1
*
  1
*
  0
XRECORD
  5
1B5
102
{ACAD_REACTORS
330
131
102
}
330
131
100
AcDbXrecord
280
     1
  1
75
  1
*
  1
75
  1
*
 70
     0
  1
*
  1
*
  0
XRECORD
  5
1B6
102
{ACAD_REACTORS
330
131
102
}
330
131
100
AcDbXrecord
280
     1
  1
767
  1
*
  1
*
  1
*
 70
     0
  1
*
  1
*
  0
XRECORD
  5
1B7
102
{ACAD_REACTORS
330
131
102
}
330
131
100
AcDbXrecord
280
     1
  1
767SE13-0...$
  1
*
  1
*
  1
*
 70
     0
  1
*
  1
*
  0
XRECORD
  5
1B8
102
{ACAD_REACTORS
330
131
102
}
330
131
100
AcDbXrecord
280
     1
  1
767SE13-07-99$0$
  1
*
  1
*
  1
*
 70
     0
  1
*
  1
*
  0
XRECORD
  5
1B9
102
{ACAD_REACTORS
330
131
102
}
330
131
100
AcDbXrecord
280
     1
  1
8
  1
*
  1
8
  1
*
 70
     0
  1
*
  1
*
  0
XRECORD
  5
1BA
102
{ACAD_REACTORS
330
131
102
}
330
131
100
AcDbXrecord
280
     1
  1
8711
  1
*8711*
  1
*
  1
*
 70
     0
  1
*
  1
*
  0
XRECORD
  5
1BB
102
{ACAD_REACTORS
330
131
102
}
330
131
100
AcDbXrecord
280
     1
  1
9
  1
*
  1
9
  1
*
 70
     0
  1
*
  1
*
  0
XRECORD
  5
1BC
102
{ACAD_REACTORS
330
131
102
}
330
131
100
AcDbXrecord
280
     1
  1
90
  1
*90
  1
*
  1
*
 70
     0
  1
*
  1
*
  0
XRECORD
  5
1BD
102
{ACAD_REACTORS
330
131
102
}
330
131
100
AcDbXrecord
280
     1
  1
9651
  1
*9651*
  1
*
  1
*
 70
     0
  1
*
  1
*
  0
XRECORD
  5
1BE
102
{ACAD_REACTORS
330
131
102
}
330
131
100
AcDbXrecord
280
     1
  1
9C
  1
*9C*
  1
*
  1
*
 70
     0
  1
*
  1
*
  0
XRECORD
  5
1BF
102
{ACAD_REACTORS
330
131
102
}
330
131
100
AcDbXrecord
280
     1
  1
9G
  1
*9G*
  1
*
  1
*
 70
     0
  1
*
  1
*
  0
XRECORD
  5
1C0
102
{ACAD_REACTORS
330
131
102
}
330
131
100
AcDbXrecord
280
     1
  1
_all
  1
*
  1
*
  1
*
 70
     0
  1
*
  1
*
  0
XRECORD
  5
1C1
102
{ACAD_REACTORS
330
131
102
}
330
131
100
AcDbXrecord
280
     1
  1
_Building 3
  1
*bld3*
  1
*
  1
*
 70
     0
  1
*
  1
*
  0
XRECORD
  5
1C2
102
{ACAD_REACTORS
330
131
102
}
330
131
100
AcDbXrecord
280
     1
  1
_External Works
  1
*o-*
  1
*
  1
*
 70
     0
  1
*
  1
*
  0
XRECORD
  5
1C3
102
{ACAD_REACTORS
330
131
102
}
330
131
100
AcDbXrecord
280
     1
  1
_first
  1
*01*
  1
*
  1
*
 70
     0
  1
*
  1
*
  0
XRECORD
  5
1C4
102
{ACAD_REACTORS
330
131
102
}
330
131
100
AcDbXrecord
280
     1
  1
_First Floor
  1
*01*
  1
*
  1
*
 70
     0
  1
*
  1
*
  0
XRECORD
  5
1C5
102
{ACAD_REACTORS
330
131
102
}
330
131
100
AcDbXrecord
280
     1
  1
_ground
  1
*00*
  1
*
  1
*
 70
     0
  1
*
  1
*
  0
XRECORD
  5
1C6
102
{ACAD_REACTORS
330
131
102
}
330
131
100
AcDbXrecord
280
     1
  1
_Ground Floor
  1
*-00*
  1
*
  1
*
 70
     0
  1
*
  1
*
  0
XRECORD
  5
1C7
102
{ACAD_REACTORS
330
131
102
}
330
131
100
AcDbXrecord
280
     1
  1
_Hatching
  1
*hat*
  1
*
  1
*
 70
     0
  1
*
  1
*
  0
XRECORD
  5
1C8
102
{ACAD_REACTORS
330
131
102
}
330
131
100
AcDbXrecord
280
     1
  1
_New
  1
*-N
  1
*
  1
*
 70
     0
  1
*
  1
*
  0
XRECORD
  5
1C9
102
{ACAD_REACTORS
330
131
102
}
330
131
100
AcDbXrecord
280
     1
  1
_Removed
  1
*Rem*
  1
*
  1
*
 70
     0
  1
*
  1
*
  0
XRECORD
  5
1CA
102
{ACAD_REACTORS
330
131
102
}
330
131
100
AcDbXrecord
280
     1
  1
_roof
  1
*roof*
  1
*
  1
*
 70
     0
  1
*
  1
*
  0
XRECORD
  5
1CB
102
{ACAD_REACTORS
330
131
102
}
330
131
100
AcDbXrecord
280
     1
  1
_Text
  1
*Text*
  1
*
  1
*
 70
     0
  1
*
  1
*
  0
XRECORD
  5
1CC
102
{ACAD_REACTORS
330
131
102
}
330
131
100
AcDbXrecord
280
     1
  1
_Without text
  1
*text*
  1
*
  1
*
 70
     0
  1
*
  1
*
  0
XRECORD
  5
1CD
102
{ACAD_REACTORS
330
131
102
}
330
131
100
AcDbXrecord
280
     1
  1
A
  1
*1A*
  1
*
  1
*
 70
     0
  1
*
  1
*
  0
XRECORD
  5
1CE
102
{ACAD_REACTORS
330
131
102
}
330
131
100
AcDbXrecord
280
     1
  1
A layers
  1
A*
  1
*
  1
*
 70
     0
  1
*
  1
*
  0
XRECORD
  5
1CF
102
{ACAD_REACTORS
330
131
102
}
330
131
100
AcDbXrecord
280
     1
  1
A-
  1
*
  1
*
  1
*
 70
     0
  1
*
  1
*
  0
XRECORD
  5
1D0
102
{ACAD_REACTORS
330
131
102
}
330
131
100
AcDbXrecord
280
     1
  1
a-1
  1
*
  1
*
  1
*
 70
    13
  1
*
  1
*
  0
XRECORD
  5
1D1
102
{ACAD_REACTORS
330
131
102
}
330
131
100
AcDbXrecord
280
     1
  1
A-12101
  1
*
  1
*
  1
*
 70
    13
  1
*
  1
*
  0
XRECORD
  5
1D2
102
{ACAD_REACTORS
330
131
102
}
330
131
100
AcDbXrecord
280
     1
  1
a-2
  1
*
  1
*
  1
*
 70
   317
  1
*
  1
*
  0
XRECORD
  5
1D3
102
{ACAD_REACTORS
330
131
102
}
330
131
100
AcDbXrecord
280
     1
  1
a-3
  1
*
  1
*
  1
*
 70
     7
  1
*
  1
*
  0
XRECORD
  5
1D4
102
{ACAD_REACTORS
330
131
102
}
330
131
100
AcDbXrecord
280
     1
  1
a-filter
  1
a*
  1
*
  1
*
 70
     0
  1
*
  1
*
  0
XRECORD
  5
1D5
102
{ACAD_REACTORS
330
131
102
}
330
131
100
AcDbXrecord
280
     1
  1
A-HI
  1
A-HI*
  1
*
  1
*
 70
     0
  1
*
  1
*
  0
XRECORD
  5
1D6
102
{ACAD_REACTORS
330
131
102
}
330
131
100
AcDbXrecord
280
     1
  1
A-INDEX
  1
A-IN*
  1
*
  1
*
 70
     0
  1
*
  1
*
  0
XRECORD
  5
1D7
102
{ACAD_REACTORS
330
131
102
}
330
131
100
AcDbXrecord
280
     1
  1
A-RA-BLOCK
  1
a-ra*
  1
*
  1
*
 70
     0
  1
*
  1
*
  0
XRECORD
  5
1D8
102
{ACAD_REACTORS
330
131
102
}
330
131
100
AcDbXrecord
280
     1
  1
A-SECTION
  1
A*
  1
*
  1
*
 70
     0
  1
*
  1
*
  0
XRECORD
  5
1D9
102
{ACAD_REACTORS
330
131
102
}
330
131
100
AcDbXrecord
280
     1
  1
A-SECTION-FRAME
  1
A-1825A2*
  1
*
  1
*
 70
     0
  1
*
  1
*
  0
XRECORD
  5
1DA
102
{ACAD_REACTORS
330
131
102
}
330
131
100
AcDbXrecord
280
     1
  1
a-uz
  1
a-uz*
  1
*
  1
*
 70
     0
  1
*
  1
*
  0
XRECORD
  5
1DB
102
{ACAD_REACTORS
330
131
102
}
330
131
100
AcDbXrecord
280
     1
  1
A-VE
  1
a-ve*
  1
*
  1
*
 70
     0
  1
*
  1
*
  0
XRECORD
  5
1DC
102
{ACAD_REACTORS
330
131
102
}
330
131
100
AcDbXrecord
280
     1
  1
A0-FRAME
  1
A0*
  1
*
  1
*
 70
     0
  1
*
  1
*
  0
XRECORD
  5
1DD
102
{ACAD_REACTORS
330
131
102
}
330
131
100
AcDbXrecord
280
     1
  1
A00-R
  1
A00-R*
  1
*
  1
*
 70
     0
  1
*
  1
*
  0
XRECORD
  5
1DE
102
{ACAD_REACTORS
330
131
102
}
330
131
100
AcDbXrecord
280
     1
  1
A000D
  1
A000D*
  1
*
  1
*
 70
     0
  1
*
  1
*
  0
XRECORD
  5
1DF
102
{ACAD_REACTORS
330
131
102
}
330
131
100
AcDbXrecord
280
     1
  1
A032G
  1
*a032G
  1
*
  1
*
 70
     0
  1
*
  1
*
  0
XRECORD
  5
1E0
102
{ACAD_REACTORS
330
131
102
}
330
131
100
AcDbXrecord
280
     1
  1
a1
  1
*
  1
*
  1
*
 70
     1
  1
*
  1
*
  0
XRECORD
  5
1E1
102
{ACAD_REACTORS
330
131
102
}
330
131
100
AcDbXrecord
280
     1
  1
A1S1
  1
*A1S1*
  1
*
  1
*
 70
     0
  1
*
  1
*
  0
XRECORD
  5
1E2
102
{ACAD_REACTORS
330
131
102
}
330
131
100
AcDbXrecord
280
     1
  1
a2
  1
*
  1
*
  1
*
 70
     1
  1
*
  1
*
  0
XRECORD
  5
1E3
102
{ACAD_REACTORS
330
131
102
}
330
131
100
AcDbXrecord
280
     1
  1
a2s1
  1
c-p2a2s1-*
  1
*
  1
*
 70
     0
  1
*
  1
*
  0
XRECORD
  5
1E4
102
{ACAD_REACTORS
330
131
102
}
330
131
100
AcDbXrecord
280
     1
  1
a2s2
  1
c-p2a2s2-*
  1
*
  1
*
 70
     0
  1
*
  1
*
  0
XRECORD
  5
1E5
102
{ACAD_REACTORS
330
131
102
}
330
131
100
AcDbXrecord
280
     1
  1
a2s3
  1
c-p2a2s3-*
  1
*
  1
*
 70
     0
  1
*
  1
*
  0
XRECORD
  5
1E6
102
{ACAD_REACTORS
330
131
102
}
330
131
100
AcDbXrecord
280
     1
  1
a3
  1
*
  1
*
  1
*
 70
     4
  1
*
  1
*
  0
XRECORD
  5
1E7
102
{ACAD_REACTORS
330
131
102
}
330
131
100
AcDbXrecord
280
     1
  1
a321
  1
*a321*
  1
*
  1
*
 70
     0
  1
*
  1
*
  0
XRECORD
  5
1E8
102
{ACAD_REACTORS
330
131
102
}
330
131
100
AcDbXrecord
280
     1
  1
a3s1
  1
c-p2a3s1-*
  1
*
  1
*
 70
     0
  1
*
  1
*
  0
XRECORD
  5
1E9
102
{ACAD_REACTORS
330
131
102
}
330
131
100
AcDbXrecord
280
     1
  1
a3s2
  1
c-p2a3s2-*
  1
*
  1
*
 70
     0
  1
*
  1
*
  0
XRECORD
  5
1EA
102
{ACAD_REACTORS
330
131
102
}
330
131
100
AcDbXrecord
280
     1
  1
a4-solid
  1
*
  1
*
  1
*
 70
   257
  1
*
  1
*
  0
XRECORD
  5
1EB
102
{ACAD_REACTORS
330
131
102
}
330
131
100
AcDbXrecord
280
     1
  1
a4s1
  1
c-p2a4s1*
  1
*
  1
*
 70
     0
  1
*
  1
*
  0
XRECORD
  5
1EC
102
{ACAD_REACTORS
330
131
102
}
330
131
100
AcDbXrecord
280
     1
  1
a5-
  1
*
  1
*
  1
*
 70
     5
  1
*
  1
*
  0
XRECORD
  5
1ED
102
{ACAD_REACTORS
330
131
102
}
330
131
100
AcDbXrecord
280
     1
  1
a5s1
  1
c-p2a5s1-*
  1
*
  1
*
 70
     0
  1
*
  1
*
  0
XRECORD
  5
1EE
102
{ACAD_REACTORS
330
131
102
}
330
131
100
AcDbXrecord
280
     1
  1
a5s2
  1
c-p2a5s2-*
  1
*
  1
*
 70
     0
  1
*
  1
*
  0
XRECORD
  5
1EF
102
{ACAD_REACTORS
330
131
102
}
330
131
100
AcDbXrecord
280
     1
  1
a5s3
  1
c-p2a5s3-*
  1
*
  1
*
 70
     0
  1
*
  1
*
  0
XRECORD
  5
1F0
102
{ACAD_REACTORS
330
131
102
}
330
131
100
AcDbXrecord
280
     1
  1
a5s4
  1
c-p2a5s4-*
  1
*
  1
*
 70
     0
  1
*
  1
*
  0
XRECORD
  5
1F1
102
{ACAD_REACTORS
330
131
102
}
330
131
100
AcDbXrecord
280
     1
  1
a6s1
  1
c-p3a6s1-*
  1
*
  1
*
 70
     0
  1
*
  1
*
  0
XRECORD
  5
1F2
102
{ACAD_REACTORS
330
131
102
}
330
131
100
AcDbXrecord
280
     1
  1
a6s2
  1
c-p3a6s2-*
  1
*
  1
*
 70
     0
  1
*
  1
*
  0
XRECORD
  5
1F3
102
{ACAD_REACTORS
330
131
102
}
330
131
100
AcDbXrecord
280
     1
  1
a6s3
  1
c-p3a6s3-*
  1
*
  1
*
 70
     0
  1
*
  1
*
  0
XRECORD
  5
1F4
102
{ACAD_REACTORS
330
131
102
}
330
131
100
AcDbXrecord
280
     1
  1
a7
  1
*A7*
  1
*
  1
*
 70
     0
  1
*
  1
*
  0
XRECORD
  5
1F5
102
{ACAD_REACTORS
330
131
102
}
330
131
100
AcDbXrecord
280
     1
  1
A_HIL
  1
*A_HIL
  1
*
  1
*
 70
     0
  1
*
  1
*
  0
XRECORD
  5
1F6
102
{ACAD_REACTORS
330
131
102
}
330
131
100
AcDbXrecord
280
     1
  1
AA-D
  1
*aa--z-*
  1
*
  1
*
 70
     0
  1
*
  1
*
  0
XRECORD
  5
1F7
102
{ACAD_REACTORS
330
131
102
}
330
131
100
AcDbXrecord
280
     1
  1
AA_D
  1
AAAKG02X|AA--Z*
  1
*
  1
*
 70
     0
  1
*
  1
*
  0
XRECORD
  5
1F8
102
{ACAD_REACTORS
330
131
102
}
330
131
100
AcDbXrecord
280
     1
  1
aaa
  1
*
  1
*
  1
*
 70
     0
  1
*
  1
*
  0
XRECORD
  5
1F9
102
{ACAD_REACTORS
330
131
102
}
330
131
100
AcDbXrecord
280
     1
  1
ab
  1
*ab*
  1
*
  1
*
 70
     0
  1
*
  1
*
  0
XRECORD
  5
1FA
102
{ACAD_REACTORS
330
131
102
}
330
131
100
AcDbXrecord
280
     1
  1
abghängte Decken
  1
A-AD*
  1
*
  1
*
 70
     0
  1
*
  1
*
  0
XRECORD
  5
1FB
102
{ACAD_REACTORS
330
131
102
}
330
131
100
AcDbXrecord
280
     1
  1
ABOVE
  1
*ABOVE*
  1
*
  1
*
 70
     0
  1
*
  1
*
  0
XRECORD
  5
1FC
102
{ACAD_REACTORS
330
131
102
}
330
131
100
AcDbXrecord
280
     1
  1
ACC
  1
*ACC*
  1
*
  1
*
 70
     0
  1
*
  1
*
  0
XRECORD
  5
1FD
102
{ACAD_REACTORS
330
131
102
}
330
131
100
AcDbXrecord
280
     1
  1
Accesi
  1
*
  1
*
  1
*
 70
     1
  1
*
  1
*
  0
XRECORD
  5
1FE
102
{ACAD_REACTORS
330
131
102
}
330
131
100
AcDbXrecord
280
     1
  1
achsen
  1
a-hi*
  1
*
  1
*
 70
     0
  1
*
  1
*
  0
XRECORD
  5
1FF
102
{ACAD_REACTORS
330
131
102
}
330
131
100
AcDbXrecord
280
     1
  1
ACTIVE
  1
*
  1
*
  1
*
 70
    13
  1
*
  1
*
  0
XRECORD
  5
200
102
{ACAD_REACTORS
330
131
102
}
330
131
100
AcDbXrecord
280
     1
  1
adja
  1
ADJA-*
  1
*
  1
*
 70
     0
  1
*
  1
*
  0
XRECORD
  5
201
102
{ACAD_REACTORS
330
131
102
}
330
131
100
AcDbXrecord
280
     1
  1
af
  1
a*
  1
*
  1
*
 70
     0
  1
*
  1
*
  0
XRECORD
  5
202
102
{ACAD_REACTORS
330
131
102
}
330
131
100
AcDbXrecord
280
     1
  1
afen
  1
*
  1
*
  1
*
 70
    16
  1
*
  1
*
  0
XRECORD
  5
203
102
{ACAD_REACTORS
330
131
102
}
330
131
100
AcDbXrecord
280
     1
  1
AGRID
  1
*A032*
  1
*
  1
*
 70
     0
  1
*
  1
*
  0
XRECORD
  5
204
102
{ACAD_REACTORS
330
131
102
}
330
131
100
AcDbXrecord
280
     1
  1
aktuell
  1
0-*
  1
*
  1
*
 70
     0
  1
*
  1
*
  0
XRECORD
  5
205
102
{ACAD_REACTORS
330
131
102
}
330
131
100
AcDbXrecord
280
     1
  1
aktuelle
  1
--BH*
  1
*
  1
*
 70
     0
  1
*
  1
*
  0
XRECORD
  5
206
102
{ACAD_REACTORS
330
131
102
}
330
131
100
AcDbXrecord
280
     1
  1
Aktueller Layer
  1
*
  1
*
  1
*
 70
     0
  1
*
  1
*
  0
XRECORD
  5
207
102
{ACAD_REACTORS
330
131
102
}
330
131
100
AcDbXrecord
280
     1
  1
ALEV07
  1
ALEV07*
  1
*
  1
*
 70
     0
  1
*
  1
*
  0
XRECORD
  5
208
102
{ACAD_REACTORS
330
131
102
}
330
131
100
AcDbXrecord
280
     1
  1
ALL
  1
*
  1
*
  1
*
 70
     0
  1
*
  1
*
  0
XRECORD
  5
209
102
{ACAD_REACTORS
330
131
102
}
330
131
100
AcDbXrecord
280
     1
  1
ALL FLOORS
  1
AF-*
  1
*
  1
*
 70
     0
  1
*
  1
*
  0
XRECORD
  5
20A
102
{ACAD_REACTORS
330
131
102
}
330
131
100
AcDbXrecord
280
     1
  1
ALL FROZEN
  1
*
  1
*
  1
*
 70
     4
  1
*
  1
*
  0
XRECORD
  5
20B
102
{ACAD_REACTORS
330
131
102
}
330
131
100
AcDbXrecord
280
     1
  1
ALL OFF
  1
*
  1
*
  1
*
 70
  3415
  1
*
  1
*
  0
XRECORD
  5
20C
102
{ACAD_REACTORS
330
131
102
}
330
131
100
AcDbXrecord
280
     1
  1
all on
  1
*
  1
*
  1
*
 70
     1
  1
*
  1
*
  0
XRECORD
  5
20D
102
{ACAD_REACTORS
330
131
102
}
330
131
100
AcDbXrecord
280
     1
  1
ALL THAWED
  1
*
  1
*
  1
*
 70
    48
  1
*
  1
*
  0
XRECORD
  5
20E
102
{ACAD_REACTORS
330
131
102
}
330
131
100
AcDbXrecord
280
     1
  1
ALL_ON
  1
*
  1
*
  1
*
 70
     1
  1
*
  1
*
  0
XRECORD
  5
20F
102
{ACAD_REACTORS
330
131
102
}
330
131
100
AcDbXrecord
280
     1
  1
Alle Wände
  1
A-WA*
  1
*
  1
*
 70
     0
  1
*
  1
*
  0
XRECORD
  5
210
102
{ACAD_REACTORS
330
131
102
}
330
131
100
AcDbXrecord
280
     1
  1
alle_bgs
  1
BGS_*
  1
*
  1
*
 70
     0
  1
*
  1
*
  0
XRECORD
  5
211
102
{ACAD_REACTORS
330
131
102
}
330
131
100
AcDbXrecord
280
     1
  1
alle_K
  1
K*
  1
*
  1
*
 70
     0
  1
*
  1
*
  0
XRECORD
  5
212
102
{ACAD_REACTORS
330
131
102
}
330
131
100
AcDbXrecord
280
     1
  1
Allgemein
  1
A*
  1
*
  1
*
 70
     0
  1
*
  1
*
  0
XRECORD
  5
213
102
{ACAD_REACTORS
330
131
102
}
330
131
100
AcDbXrecord
280
     1
  1
apd
  1
x-topo*
  1
5
  1
*
 70
     0
  1
*
  1
*
  0
XRECORD
  5
214
102
{ACAD_REACTORS
330
131
102
}
330
131
100
AcDbXrecord
280
     1
  1
aplm
  1
a*
  1
*
  1
*
 70
     0
  1
*
  1
*
  0
XRECORD
  5
215
102
{ACAD_REACTORS
330
131
102
}
330
131
100
AcDbXrecord
280
     1
  1
APPLICATION
  1
*
  1
*
  1
*
 70
     0
  1
*
  1
*
  0
XRECORD
  5
216
102
{ACAD_REACTORS
330
131
102
}
330
131
100
AcDbXrecord
280
     1
  1
ar1
  1
*ar1*
  1
*
  1
*
 70
     0
  1
*
  1
*
  0
XRECORD
  5
217
102
{ACAD_REACTORS
330
131
102
}
330
131
100
AcDbXrecord
280
     1
  1
ARBE
  1
F???-*
  1
*
  1
*
 70
     0
  1
*
  1
*
  0
XRECORD
  5
218
102
{ACAD_REACTORS
330
131
102
}
330
131
100
AcDbXrecord
280
     1
  1
Arch
  1
A-*
  1
*
  1
*
 70
     0
  1
*
  1
*
  0
XRECORD
  5
219
102
{ACAD_REACTORS
330
131
102
}
330
131
100
AcDbXrecord
280
     1
  1
ARCH_1ST
  1
1ST.*
  1
*
  1
*
 70
     0
  1
*
  1
*
  0
XRECORD
  5
21A
102
{ACAD_REACTORS
330
131
102
}
330
131
100
AcDbXrecord
280
     1
  1
ARCH_2ND
  1
2ND.*
  1
*
  1
*
 70
     0
  1
*
  1
*
  0
XRECORD
  5
21B
102
{ACAD_REACTORS
330
131
102
}
330
131
100
AcDbXrecord
280
     1
  1
ARCH_3RD
  1
3RD.*
  1
*
  1
*
 70
     0
  1
*
  1
*
  0
XRECORD
  5
21C
102
{ACAD_REACTORS
330
131
102
}
330
131
100
AcDbXrecord
280
     1
  1
ARCH_BASEMENT
  1
B.*
  1
*
  1
*
 70
     0
  1
*
  1
*
  0
XRECORD
  5
21D
102
{ACAD_REACTORS
330
131
102
}
330
131
100
AcDbXrecord
280
     1
  1
ARCH_GENERAL
  1
A.*
  1
*
  1
*
 70
     0
  1
*
  1
*
  0
XRECORD
  5
21E
102
{ACAD_REACTORS
330
131
102
}
330
131
100
AcDbXrecord
280
     1
  1
ARCH_GROUND
  1
GR.*
  1
*
  1
*
 70
     0
  1
*
  1
*
  0
XRECORD
  5
21F
102
{ACAD_REACTORS
330
131
102
}
330
131
100
AcDbXrecord
280
     1
  1
ARCH_ROOF
  1
R.*
  1
*
  1
*
 70
     0
  1
*
  1
*
  0
XRECORD
  5
220
102
{ACAD_REACTORS
330
131
102
}
330
131
100
AcDbXrecord
280
     1
  1
ARCHDWG
  1
9950*
  1
*
  1
*
 70
     0
  1
*
  1
*
  0
XRECORD
  5
221
102
{ACAD_REACTORS
330
131
102
}
330
131
100
AcDbXrecord
280
     1
  1
Architecktur
  1
AA*
  1
*
  1
*
 70
     0
  1
*
  1
*
  0
XRECORD
  5
222
102
{ACAD_REACTORS
330
131
102
}
330
131
100
AcDbXrecord
280
     1
  1
Architektur
  1
A*
  1
*
  1
*
 70
     0
  1
*
  1
*
  0
XRECORD
  5
223
102
{ACAD_REACTORS
330
131
102
}
330
131
100
AcDbXrecord
280
     1
  1
AREA
  1
*AREA*
  1
*
  1
*
 70
     0
  1
*
  1
*
  0
XRECORD
  5
224
102
{ACAD_REACTORS
330
131
102
}
330
131
100
AcDbXrecord
280
     1
  1
AREA1
  1
C-P2A1S1-*
  1
*
  1
*
 70
     0
  1
*
  1
*
  0
XRECORD
  5
225
102
{ACAD_REACTORS
330
131
102
}
330
131
100
AcDbXrecord
280
     1
  1
arr-hatch
  1
arr*hatch*
  1
*
  1
*
 70
     0
  1
*
  1
*
  0
XRECORD
  5
226
102
{ACAD_REACTORS
330
131
102
}
330
131
100
AcDbXrecord
280
     1
  1
assembly
  1
*assembly*
  1
*
  1
*
 70
     0
  1
*
  1
*
  0
XRECORD
  5
227
102
{ACAD_REACTORS
330
131
102
}
330
131
100
AcDbXrecord
280
     1
  1
ATRIUM50
  1
*.50
  1
*
  1
*
 70
     0
  1
*
  1
*
  0
XRECORD
  5
228
102
{ACAD_REACTORS
330
131
102
}
330
131
100
AcDbXrecord
280
     1
  1
att
  1
att*
  1
*
  1
*
 70
     0
  1
*
  1
*
  0
XRECORD
  5
229
102
{ACAD_REACTORS
330
131
102
}
330
131
100
AcDbXrecord
280
     1
  1
Attivi
  1
*
  1
*
  1
*
 70
    12
  1
*
  1
*
  0
XRECORD
  5
22A
102
{ACAD_REACTORS
330
131
102
}
330
131
100
AcDbXrecord
280
     1
  1
ATTRIBUTES
  1
PH-SAN-ATTR*
  1
*
  1
*
 70
     0
  1
*
  1
*
  0
XRECORD
  5
22B
102
{ACAD_REACTORS
330
131
102
}
330
131
100
AcDbXrecord
280
     1
  1
au
  1
*au*
  1
*
  1
*
 70
     0
  1
*
  1
*
  0
XRECORD
  5
22C
102
{ACAD_REACTORS
330
131
102
}
330
131
100
AcDbXrecord
280
     1
  1
AUDITORIA
  1
AUD*
  1
*
  1
*
 70
     0
  1
*
  1
*
  0
XRECORD
  5
22D
102
{ACAD_REACTORS
330
131
102
}
330
131
100
AcDbXrecord
280
     1
  1
aus
  1
*
  1
*
  1
*
 70
     3
  1
*
  1
*
  0
XRECORD
  5
22E
102
{ACAD_REACTORS
330
131
102
}
330
131
100
AcDbXrecord
280
     1
  1
Auserdecke
  1
*
  1
*
  1
*
 70
    12
  1
*
  1
*
  0
XRECORD
  5
22F
102
{ACAD_REACTORS
330
131
102
}
330
131
100
AcDbXrecord
280
     1
  1
Ausgeschaltet
  1
*
  1
*
  1
*
 70
     3
  1
*
  1
*
  0
XRECORD
  5
230
102
{ACAD_REACTORS
330
131
102
}
330
131
100
AcDbXrecord
280
     1
  1
Ausgeschaltete Layer
  1
*
  1
*
  1
*
 70
     3
  1
*
  1
*
  0
XRECORD
  5
231
102
{ACAD_REACTORS
330
131
102
}
330
131
100
AcDbXrecord
280
     1
  1
Außenanlagen
  1
a-aa*
  1
*
  1
*
 70
     0
  1
*
  1
*
  0
XRECORD
  5
232
102
{ACAD_REACTORS
330
131
102
}
330
131
100
AcDbXrecord
280
     1
  1
B
  1
B*
  1
*
  1
*
 70
     0
  1
*
  1
*
  0
XRECORD
  5
233
102
{ACAD_REACTORS
330
131
102
}
330
131
100
AcDbXrecord
280
     1
  1
B-03
  1
*B-03*
  1
*
  1
*
 70
     0
  1
*
  1
*
  0
XRECORD
  5
234
102
{ACAD_REACTORS
330
131
102
}
330
131
100
AcDbXrecord
280
     1
  1
B2
  1
*B2*
  1
*
  1
*
 70
     0
  1
*
  1
*
  0
XRECORD
  5
235
102
{ACAD_REACTORS
330
131
102
}
330
131
100
AcDbXrecord
280
     1
  1
BACK BAR
  1
BACK*
  1
*
  1
*
 70
     0
  1
*
  1
*
  0
XRECORD
  5
236
102
{ACAD_REACTORS
330
131
102
}
330
131
100
AcDbXrecord
280
     1
  1
BACKBAR
  1
BACKBAR*,2D*
  1
*
  1
*
 70
     0
  1
*
  1
*
  0
XRECORD
  5
237
102
{ACAD_REACTORS
330
131
102
}
330
131
100
AcDbXrecord
280
     1
  1
BALUSTRADE
  1
*BALUSTRADE*
  1
*
  1
*
 70
     0
  1
*
  1
*
  0
XRECORD
  5
238
102
{ACAD_REACTORS
330
131
102
}
330
131
100
AcDbXrecord
280
     1
  1
BANQ'S
  1
BANQ*
  1
*
  1
*
 70
     0
  1
*
  1
*
  0
XRECORD
  5
239
102
{ACAD_REACTORS
330
131
102
}
330
131
100
AcDbXrecord
280
     1
  1
BAR
  1
BAR*
  1
*
  1
*
 70
     0
  1
*
  1
*
  0
XRECORD
  5
23A
102
{ACAD_REACTORS
330
131
102
}
330
131
100
AcDbXrecord
280
     1
  1
bar-top
  1
*
  1
*
  1
*
 70
    16
  1
*
  1
*
  0
XRECORD
  5
23B
102
{ACAD_REACTORS
330
131
102
}
330
131
100
AcDbXrecord
280
     1
  1
BASE
  1
BS*
  1
*
  1
*
 70
     0
  1
*
  1
*
  0
XRECORD
  5
23C
102
{ACAD_REACTORS
330
131
102
}
330
131
100
AcDbXrecord
280
     1
  1
BASE PLATES
  1
AF*,BP*,0,VIEW*,DETA*
  1
*
  1
*
 70
     0
  1
*
  1
*
  0
XRECORD
  5
23D
102
{ACAD_REACTORS
330
131
102
}
330
131
100
AcDbXrecord
280
     1
  1
basement
  1
*a-01*
  1
*
  1
*
 70
     0
  1
*
  1
*
  0
XRECORD
  5
23E
102
{ACAD_REACTORS
330
131
102
}
330
131
100
AcDbXrecord
280
     1
  1
baustrasse
  1
*baustr*
  1
*
  1
*
 70
     0
  1
*
  1
*
  0
XRECORD
  5
23F
102
{ACAD_REACTORS
330
131
102
}
330
131
100
AcDbXrecord
280
     1
  1
bca
  1
bca*
  1
*
  1
*
 70
     0
  1
*
  1
*
  0
XRECORD
  5
240
102
{ACAD_REACTORS
330
131
102
}
330
131
100
AcDbXrecord
280
     1
  1
bca layers
  1
L_
  1
*
  1
*
 70
     0
  1
*
  1
*
  0
XRECORD
  5
241
102
{ACAD_REACTORS
330
131
102
}
330
131
100
AcDbXrecord
280
     1
  1
BCHINN
  1
BC-*
  1
*
  1
*
 70
     0
  1
*
  1
*
  0
XRECORD
  5
242
102
{ACAD_REACTORS
330
131
102
}
330
131
100
AcDbXrecord
280
     1
  1
bds
  1
bds-*
  1
*
  1
*
 70
     0
  1
*
  1
*
  0
XRECORD
  5
243
102
{ACAD_REACTORS
330
131
102
}
330
131
100
AcDbXrecord
280
     1
  1
Beam
  1
S-HATCH-LBWalls-HIDDEN,S-HATCH-LBWalls,S-BEAMS,A-WALLS
  1
*
  1
*
 70
     0
  1
*
  1
*
  0
XRECORD
  5
244
102
{ACAD_REACTORS
330
131
102
}
330
131
100
AcDbXrecord
280
     1
  1
beleucht
  1
*bel*
  1
*
  1
*
 70
     0
  1
*
  1
*
  0
XRECORD
  5
245
102
{ACAD_REACTORS
330
131
102
}
330
131
100
AcDbXrecord
280
     1
  1
below
  1
*below*
  1
*
  1
*
 70
     0
  1
*
  1
*
  0
XRECORD
  5
246
102
{ACAD_REACTORS
330
131
102
}
330
131
100
AcDbXrecord
280
     1
  1
BEM
  1
2l*bem*
  1
*
  1
*
 70
     0
  1
*
  1
*
  0
XRECORD
  5
247
102
{ACAD_REACTORS
330
131
102
}
330
131
100
AcDbXrecord
280
     1
  1
Bemassung
  1
*bema*
  1
*
  1
*
 70
     0
  1
*
  1
*
  0
XRECORD
  5
248
102
{ACAD_REACTORS
330
131
102
}
330
131
100
AcDbXrecord
280
     1
  1
BENCH
  1
BENCH*
  1
*
  1
*
 70
     0
  1
*
  1
*
  0
XRECORD
  5
249
102
{ACAD_REACTORS
330
131
102
}
330
131
100
AcDbXrecord
280
     1
  1
beton
  1
*wan_bet_sch
  1
*
  1
*
 70
     0
  1
*
  1
*
  0
XRECORD
  5
24A
102
{ACAD_REACTORS
330
131
102
}
330
131
100
AcDbXrecord
280
     1
  1
BGF
  1
*BGF*
  1
*
  1
*
 70
     0
  1
*
  1
*
  0
XRECORD
  5
24B
102
{ACAD_REACTORS
330
131
102
}
330
131
100
AcDbXrecord
280
     1
  1
bin
  1
*bin*
  1
*
  1
*
 70
     0
  1
*
  1
*
  0
XRECORD
  5
24C
102
{ACAD_REACTORS
330
131
102
}
330
131
100
AcDbXrecord
280
     1
  1
BKB
  1
*BKB*
  1
*
  1
*
 70
     0
  1
*
  1
*
  0
XRECORD
  5
24D
102
{ACAD_REACTORS
330
131
102
}
330
131
100
AcDbXrecord
280
     1
  1
bl
  1
*bl
  1
*
  1
*
 70
     0
  1
*
  1
*
  0
XRECORD
  5
24E
102
{ACAD_REACTORS
330
131
102
}
330
131
100
AcDbXrecord
280
     1
  1
BLANK
  1
*BLANK*
  1
*
  1
*
 70
     0
  1
*
  1
*
  0
XRECORD
  5
24F
102
{ACAD_REACTORS
330
131
102
}
330
131
100
AcDbXrecord
280
     1
  1
BLD
  1
BLD*
  1
*
  1
*
 70
     0
  1
*
  1
*
  0
XRECORD
  5
250
102
{ACAD_REACTORS
330
131
102
}
330
131
100
AcDbXrecord
280
     1
  1
Bldg
  1
*Bldg*
  1
*
  1
*
 70
     0
  1
*
  1
*
  0
XRECORD
  5
251
102
{ACAD_REACTORS
330
131
102
}
330
131
100
AcDbXrecord
280
     1
  1
BLOCCHI
  1
MQA*
  1
*
  1
*
 70
     0
  1
*
  1
*
  0
XRECORD
  5
252
102
{ACAD_REACTORS
330
131
102
}
330
131
100
AcDbXrecord
280
     1
  1
BLUE
  1
*
  1
BLUE
  1
*
 70
     0
  1
*
  1
*
  0
XRECORD
  5
253
102
{ACAD_REACTORS
330
131
102
}
330
131
100
AcDbXrecord
280
     1
  1
board
  1
*border*
  1
*
  1
*
 70
     0
  1
*
  1
*
  0
XRECORD
  5
254
102
{ACAD_REACTORS
330
131
102
}
330
131
100
AcDbXrecord
280
     1
  1
boarder
  1
*boarder*
  1
*
  1
*
 70
     0
  1
*
  1
*
  0
XRECORD
  5
255
102
{ACAD_REACTORS
330
131
102
}
330
131
100
AcDbXrecord
280
     1
  1
bob
  1
c-p2a?s?-*
  1
*
  1
*
 70
     0
  1
*
  1
*
  0
XRECORD
  5
256
102
{ACAD_REACTORS
330
131
102
}
330
131
100
AcDbXrecord
280
     1
  1
Bodenbeläge
  1
?4??-*
  1
*
  1
*
 70
     0
  1
*
  1
*
  0
XRECORD
  5
257
102
{ACAD_REACTORS
330
131
102
}
330
131
100
AcDbXrecord
280
     1
  1
BOLLARDS
  1
*BOLLARD*
  1
*
  1
*
 70
     0
  1
*
  1
*
  0
XRECORD
  5
258
102
{ACAD_REACTORS
330
131
102
}
330
131
100
AcDbXrecord
280
     1
  1
border
  1
*border*
  1
*
  1
*
 70
     0
  1
*
  1
*
  0
XRECORD
  5
259
102
{ACAD_REACTORS
330
131
102
}
330
131
100
AcDbXrecord
280
     1
  1
BOUNARY
  1
*BOUND*
  1
*
  1
*
 70
     0
  1
*
  1
*
  0
XRECORD
  5
25A
102
{ACAD_REACTORS
330
131
102
}
330
131
100
AcDbXrecord
280
     1
  1
bound
  1
*bound*
  1
*
  1
*
 70
     0
  1
*
  1
*
  0
XRECORD
  5
25B
102
{ACAD_REACTORS
330
131
102
}
330
131
100
AcDbXrecord
280
     1
  1
boundary
  1
*bound*
  1
*
  1
*
 70
     0
  1
*
  1
*
  0
XRECORD
  5
25C
102
{ACAD_REACTORS
330
131
102
}
330
131
100
AcDbXrecord
280
     1
  1
bridge
  1
*bridgeonly*
  1
*
  1
*
 70
     0
  1
*
  1
*
  0
XRECORD
  5
25D
102
{ACAD_REACTORS
330
131
102
}
330
131
100
AcDbXrecord
280
     1
  1
BT
  1
*BT*
  1
*
  1
*
 70
     0
  1
*
  1
*
  0
XRECORD
  5
25E
102
{ACAD_REACTORS
330
131
102
}
330
131
100
AcDbXrecord
280
     1
  1
buffet
  1
*buffet*
  1
*
  1
*
 70
     0
  1
*
  1
*
  0
XRECORD
  5
25F
102
{ACAD_REACTORS
330
131
102
}
330
131
100
AcDbXrecord
280
     1
  1
BUILDERS WORK
  1
*
  1
*
  1
*
 70
    16
  1
*
  1
*
  0
XRECORD
  5
260
102
{ACAD_REACTORS
330
131
102
}
330
131
100
AcDbXrecord
280
     1
  1
BUILDERS-WORK
  1
*
  1
*
  1
*
 70
    16
  1
*
  1
*
  0
XRECORD
  5
261
102
{ACAD_REACTORS
330
131
102
}
330
131
100
AcDbXrecord
280
     1
  1
Building
  1
Building*
  1
*
  1
*
 70
     0
  1
*
  1
*
  0
XRECORD
  5
262
102
{ACAD_REACTORS
330
131
102
}
330
131
100
AcDbXrecord
280
     1
  1
bulkhead
  1
bulk*
  1
*
  1
*
 70
     0
  1
*
  1
*
  0
XRECORD
  5
263
102
{ACAD_REACTORS
330
131
102
}
330
131
100
AcDbXrecord
280
     1
  1
BV-LEASE
  1
*
  1
*
  1
*
 70
     0
  1
*
  1
*
  0
XRECORD
  5
264
102
{ACAD_REACTORS
330
131
102
}
330
131
100
AcDbXrecord
280
     1
  1
bwp-pylon
  1
bwp_pylon*
  1
*
  1
*
 70
     0
  1
*
  1
*
  0
XRECORD
  5
265
102
{ACAD_REACTORS
330
131
102
}
330
131
100
AcDbXrecord
280
     1
  1
BWP_pylon
  1
BWP_pylon*
  1
*
  1
*
 70
     0
  1
*
  1
*
  0
XRECORD
  5
266
102
{ACAD_REACTORS
330
131
102
}
330
131
100
AcDbXrecord
280
     1
  1
C
  1
C_PROP*
  1
*
  1
*
 70
     0
  1
*
  1
*
  0
XRECORD
  5
267
102
{ACAD_REACTORS
330
131
102
}
330
131
100
AcDbXrecord
280
     1
  1
c-topo
  1
c-topo-*
  1
*
  1
*
 70
     0
  1
*
  1
*
  0
XRECORD
  5
268
102
{ACAD_REACTORS
330
131
102
}
330
131
100
AcDbXrecord
280
     1
  1
c100
  1
*c100*
  1
*
  1
*
 70
     0
  1
*
  1
*
  0
XRECORD
  5
269
102
{ACAD_REACTORS
330
131
102
}
330
131
100
AcDbXrecord
280
     1
  1
CADKON
  1
?[KAHBSM]?????[23M],?[KAHBSM]?????[23M][1456A-DGHILN-SU-Z]
  1
*
  1
*
 70
     0
  1
*
  1
*
  0
XRECORD
  5
26A
102
{ACAD_REACTORS
330
131
102
}
330
131
100
AcDbXrecord
280
     1
  1
CAFM-Layer
  1
A*
  1
*
  1
*
 70
     0
  1
*
  1
*
  0
XRECORD
  5
26B
102
{ACAD_REACTORS
330
131
102
}
330
131
100
AcDbXrecord
280
     1
  1
CANDADO-CONGELADO
  1
*
  1
*
  1
*
 70
   780
  1
*
  1
*
  0
XRECORD
  5
26C
102
{ACAD_REACTORS
330
131
102
}
330
131
100
AcDbXrecord
280
     1
  1
CANOPY
  1
*CAN*
  1
*
  1
*
 70
     0
  1
*
  1
*
  0
XRECORD
  5
26D
102
{ACAD_REACTORS
330
131
102
}
330
131
100
AcDbXrecord
280
     1
  1
car
  1
*car*
  1
*
  1
*
 70
     0
  1
*
  1
*
  0
XRECORD
  5
26E
102
{ACAD_REACTORS
330
131
102
}
330
131
100
AcDbXrecord
280
     1
  1
CARCYCLE
  1
*CARCYCLE*
  1
*
  1
*
 70
     0
  1
*
  1
*
  0
XRECORD
  5
26F
102
{ACAD_REACTORS
330
131
102
}
330
131
100
AcDbXrecord
280
     1
  1
CATWALK
  1
*CAT*
  1
*
  1
*
 70
     0
  1
*
  1
*
  0
XRECORD
  5
270
102
{ACAD_REACTORS
330
131
102
}
330
131
100
AcDbXrecord
280
     1
  1
CAV
  1
*CAV*
  1
*
  1
*
 70
     0
  1
*
  1
*
  0
XRECORD
  5
271
102
{ACAD_REACTORS
330
131
102
}
330
131
100
AcDbXrecord
280
     1
  1
CEIL
  1
*CEIL*
  1
*
  1
*
 70
     0
  1
*
  1
*
  0
XRECORD
  5
272
102
{ACAD_REACTORS
330
131
102
}
330
131
100
AcDbXrecord
280
     1
  1
CEILING
  1
*ARC*
  1
*
  1
*
 70
     0
  1
*
  1
*
  0
XRECORD
  5
273
102
{ACAD_REACTORS
330
131
102
}
330
131
100
AcDbXrecord
280
     1
  1
CEILING LAYOUT
  1
A-CLG-*
  1
*
  1
*
 70
     0
  1
*
  1
*
  0
XRECORD
  5
274
102
{ACAD_REACTORS
330
131
102
}
330
131
100
AcDbXrecord
280
     1
  1
CEILING PLAN
  1
*
  1
*
  1
*
 70
    16
  1
*
  1
*
  0
XRECORD
  5
275
102
{ACAD_REACTORS
330
131
102
}
330
131
100
AcDbXrecord
280
     1
  1
CEILINGS XREF
  1
*CE-SUSPENDED-CEILINGS
  1
*
  1
*
 70
     0
  1
*
  1
*
  0
XRECORD
  5
276
102
{ACAD_REACTORS
330
131
102
}
330
131
100
AcDbXrecord
280
     1
  1
cen
  1
*cen*
  1
*
  1
*
 70
     0
  1
*
  1
*
  0
XRECORD
  5
277
102
{ACAD_REACTORS
330
131
102
}
330
131
100
AcDbXrecord
280
     1
  1
CENT
  1
*CENT*
  1
*
  1
*
 70
     0
  1
*
  1
*
  0
XRECORD
  5
278
102
{ACAD_REACTORS
330
131
102
}
330
131
100
AcDbXrecord
280
     1
  1
CENTER
  1
*CENTER*
  1
*
  1
*
 70
     0
  1
*
  1
*
  0
XRECORD
  5
279
102
{ACAD_REACTORS
330
131
102
}
330
131
100
AcDbXrecord
280
     1
  1
cfp layers
  1
A*
  1
*
  1
*
 70
     0
  1
*
  1
*
  0
XRECORD
  5
27A
102
{ACAD_REACTORS
330
131
102
}
330
131
100
AcDbXrecord
280
     1
  1
ch
  1
ch*
  1
*
  1
*
 70
     0
  1
*
  1
*
  0
XRECORD
  5
27B
102
{ACAD_REACTORS
330
131
102
}
330
131
100
AcDbXrecord
280
     1
  1
CHAIN
  1
*CHAIN*
  1
*
  1
*
 70
     0
  1
*
  1
*
  0
XRECORD
  5
27C
102
{ACAD_REACTORS
330
131
102
}
330
131
100
AcDbXrecord
280
     1
  1
checkouts
  1
A700G100
  1
*
  1
*
 70
     0
  1
*
  1
*
  0
XRECORD
  5
27D
102
{ACAD_REACTORS
330
131
102
}
330
131
100
AcDbXrecord
280
     1
  1
CINEMA
  1
*7GSV*
  1
*
  1
*
 70
     0
  1
*
  1
*
  0
XRECORD
  5
27E
102
{ACAD_REACTORS
330
131
102
}
330
131
100
AcDbXrecord
280
     1
  1
CLAD
  1
*CLAD*
  1
*
  1
*
 70
     0
  1
*
  1
*
  0
XRECORD
  5
27F
102
{ACAD_REACTORS
330
131
102
}
330
131
100
AcDbXrecord
280
     1
  1
cloud
  1
*cloud*
  1
*
  1
*
 70
     0
  1
*
  1
*
  0
XRECORD
  5
280
102
{ACAD_REACTORS
330
131
102
}
330
131
100
AcDbXrecord
280
     1
  1
cn
  1
*cn
  1
*
  1
*
 70
     0
  1
*
  1
*
  0
XRECORD
  5
281
102
{ACAD_REACTORS
330
131
102
}
330
131
100
AcDbXrecord
280
     1
  1
CO
  1
*CO*
  1
*
  1
*
 70
     0
  1
*
  1
*
  0
XRECORD
  5
282
102
{ACAD_REACTORS
330
131
102
}
330
131
100
AcDbXrecord
280
     1
  1
CO1
  1
*C01*
  1
*
  1
*
 70
     0
  1
*
  1
*
  0
XRECORD
  5
283
102
{ACAD_REACTORS
330
131
102
}
330
131
100
AcDbXrecord
280
     1
  1
co2
  1
co2*
  1
*
  1
*
 70
     0
  1
*
  1
*
  0
XRECORD
  5
284
102
{ACAD_REACTORS
330
131
102
}
330
131
100
AcDbXrecord
280
     1
  1
col
  1
*col
  1
*
  1
*
 70
     0
  1
*
  1
*
  0
XRECORD
  5
285
102
{ACAD_REACTORS
330
131
102
}
330
131
100
AcDbXrecord
280
     1
  1
cold beam
  1
*cold*
  1
*
  1
*
 70
     0
  1
*
  1
*
  0
XRECORD
  5
286
102
{ACAD_REACTORS
330
131
102
}
330
131
100
AcDbXrecord
280
     1
  1
COLOR
  1
*
  1
WHITE
  1
*
 70
     0
  1
*
  1
*
  0
XRECORD
  5
287
102
{ACAD_REACTORS
330
131
102
}
330
131
100
AcDbXrecord
280
     1
  1
COLOR 9
  1
*
  1
9
  1
*
 70
     0
  1
*
  1
*
  0
XRECORD
  5
288
102
{ACAD_REACTORS
330
131
102
}
330
131
100
AcDbXrecord
280
     1
  1
COLOR5
  1
*
  1
5
  1
*
 70
     0
  1
*
  1
*
  0
XRECORD
  5
289
102
{ACAD_REACTORS
330
131
102
}
330
131
100
AcDbXrecord
280
     1
  1
color95
  1
*
  1
95
  1
*
 70
     0
  1
*
  1
*
  0
XRECORD
  5
28A
102
{ACAD_REACTORS
330
131
102
}
330
131
100
AcDbXrecord
280
     1
  1
colour
  1
*
  1
9
  1
*
 70
     0
  1
*
  1
*
  0
XRECORD
  5
28B
102
{ACAD_REACTORS
330
131
102
}
330
131
100
AcDbXrecord
280
     1
  1
colour 7
  1
*
  1
7
  1
*
 70
     0
  1
*
  1
*
  0
XRECORD
  5
28C
102
{ACAD_REACTORS
330
131
102
}
330
131
100
AcDbXrecord
280
     1
  1
con
  1
*con*
  1
*
  1
*
 70
     0
  1
*
  1
*
  0
XRECORD
  5
28D
102
{ACAD_REACTORS
330
131
102
}
330
131
100
AcDbXrecord
280
     1
  1
conc
  1
*conc*
  1
*
  1
*
 70
     0
  1
*
  1
*
  0
XRECORD
  5
28E
102
{ACAD_REACTORS
330
131
102
}
330
131
100
AcDbXrecord
280
     1
  1
CONC01
  1
*CONC01*
  1
*
  1
*
 70
     0
  1
*
  1
*
  0
XRECORD
  5
28F
102
{ACAD_REACTORS
330
131
102
}
330
131
100
AcDbXrecord
280
     1
  1
congelados no
  1
*
  1
*
  1
*
 70
     4
  1
*
  1
*
  0
XRECORD
  5
290
102
{ACAD_REACTORS
330
131
102
}
330
131
100
AcDbXrecord
280
     1
  1
Congelati
  1
*
  1
*
  1
*
 70
     4
  1
*
  1
*
  0
XRECORD
  5
291
102
{ACAD_REACTORS
330
131
102
}
330
131
100
AcDbXrecord
280
     1
  1
CONSERVITORY
  1
CON*,2D*
  1
*
  1
*
 70
     0
  1
*
  1
*
  0
XRECORD
  5
292
102
{ACAD_REACTORS
330
131
102
}
330
131
100
AcDbXrecord
280
     1
  1
CONSTRAINTS
  1
*CT-*
  1
*
  1
*
 70
     0
  1
*
  1
*
  0
XRECORD
  5
293
102
{ACAD_REACTORS
330
131
102
}
330
131
100
AcDbXrecord
280
     1
  1
construction
  1
*construction*
  1
*
  1
*
 70
     0
  1
*
  1
*
  0
XRECORD
  5
294
102
{ACAD_REACTORS
330
131
102
}
330
131
100
AcDbXrecord
280
     1
  1
CONT
  1
*CONT*
  1
*
  1
*
 70
     0
  1
*
  1
*
  0
XRECORD
  5
295
102
{ACAD_REACTORS
330
131
102
}
330
131
100
AcDbXrecord
280
     1
  1
conveyor
  1
con*
  1
*
  1
*
 70
     0
  1
*
  1
*
  0
XRECORD
  5
296
102
{ACAD_REACTORS
330
131
102
}
330
131
100
AcDbXrecord
280
     1
  1
coord
  1
*coord*
  1
*
  1
*
 70
     0
  1
*
  1
*
  0
XRECORD
  5
297
102
{ACAD_REACTORS
330
131
102
}
330
131
100
AcDbXrecord
280
     1
  1
COORDS
  1
*COORDS*
  1
*
  1
*
 70
     0
  1
*
  1
*
  0
XRECORD
  5
298
102
{ACAD_REACTORS
330
131
102
}
330
131
100
AcDbXrecord
280
     1
  1
cross
  1
*cross*
  1
*
  1
*
 70
     0
  1
*
  1
*
  0
XRECORD
  5
299
102
{ACAD_REACTORS
330
131
102
}
330
131
100
AcDbXrecord
280
     1
  1
CURRENT
  1
*
  1
*
  1
*
 70
    16
  1
*
  1
*
  0
XRECORD
  5
29A
102
{ACAD_REACTORS
330
131
102
}
330
131
100
AcDbXrecord
280
     1
  1
curtain
  1
*curt*
  1
*
  1
*
 70
     0
  1
*
  1
*
  0
XRECORD
  5
29B
102
{ACAD_REACTORS
330
131
102
}
330
131
100
AcDbXrecord
280
     1
  1
curved walkway
  1
curved*
  1
*
  1
*
 70
     0
  1
*
  1
*
  0
XRECORD
  5
29C
102
{ACAD_REACTORS
330
131
102
}
330
131
100
AcDbXrecord
280
     1
  1
cut
  1
*cut*
  1
*
  1
*
 70
     0
  1
*
  1
*
  0
XRECORD
  5
29D
102
{ACAD_REACTORS
330
131
102
}
330
131
100
AcDbXrecord
280
     1
  1
cyan
  1
*
  1
4
  1
*
 70
     0
  1
*
  1
*
  0
XRECORD
  5
29E
102
{ACAD_REACTORS
330
131
102
}
330
131
100
AcDbXrecord
280
     1
  1
cycl
  1
*cycl*
  1
*
  1
*
 70
     0
  1
*
  1
*
  0
XRECORD
  5
29F
102
{ACAD_REACTORS
330
131
102
}
330
131
100
AcDbXrecord
280
     1
  1
CYCLE
  1
*CYCL*
  1
*
  1
*
 70
     0
  1
*
  1
*
  0
XRECORD
  5
2A0
102
{ACAD_REACTORS
330
131
102
}
330
131
100
AcDbXrecord
280
     1
  1
D__
  1
D__*
  1
*
  1
*
 70
     0
  1
*
  1
*
  0
XRECORD
  5
2A1
102
{ACAD_REACTORS
330
131
102
}
330
131
100
AcDbXrecord
280
     1
  1
Dach
  1
A-DA*
  1
*
  1
*
 70
     0
  1
*
  1
*
  0
XRECORD
  5
2A2
102
{ACAD_REACTORS
330
131
102
}
330
131
100
AcDbXrecord
280
     1
  1
Dachbegrünung
  1
*
  1
101
  1
*
 70
     0
  1
*
  1
*
  0
XRECORD
  5
2A3
102
{ACAD_REACTORS
330
131
102
}
330
131
100
AcDbXrecord
280
     1
  1
DATA
  1
*DATA*
  1
*
  1
*
 70
     0
  1
*
  1
*
  0
XRECORD
  5
2A4
102
{ACAD_REACTORS
330
131
102
}
330
131
100
AcDbXrecord
280
     1
  1
Daten
  1
3*,1*,4*,*p,hl,*abf*,area*,sto*
  1
*
  1
*
 70
     0
  1
*
  1
*
  0
XRECORD
  5
2A5
102
{ACAD_REACTORS
330
131
102
}
330
131
100
AcDbXrecord
280
     1
  1
DAVE
  1
*
  1
*
  1
*
 70
     0
  1
*
  1
*
  0
XRECORD
  5
2A6
102
{ACAD_REACTORS
330
131
102
}
330
131
100
AcDbXrecord
280
     1
  1
DD
  1
*OUTLINE,*BOUNDARY
  1
*
  1
*
 70
     0
  1
*
  1
*
  0
XRECORD
  5
2A7
102
{ACAD_REACTORS
330
131
102
}
330
131
100
AcDbXrecord
280
     1
  1
Decke
  1
*_DE_*
  1
*
  1
*
 70
     0
  1
*
  1
*
  0
XRECORD
  5
2A8
102
{ACAD_REACTORS
330
131
102
}
330
131
100
AcDbXrecord
280
     1
  1
Decken
  1
A-DE*
  1
*
  1
*
 70
     0
  1
*
  1
*
  0
XRECORD
  5
2A9
102
{ACAD_REACTORS
330
131
102
}
330
131
100
AcDbXrecord
280
     1
  1
Deckenspiegel
  1
?35?-*
  1
*
  1
*
 70
     0
  1
*
  1
*
  0
XRECORD
  5
2AA
102
{ACAD_REACTORS
330
131
102
}
330
131
100
AcDbXrecord
280
     1
  1
Decoration schedule
  1
Dec*
  1
*
  1
*
 70
     0
  1
*
  1
*
  0
XRECORD
  5
2AB
102
{ACAD_REACTORS
330
131
102
}
330
131
100
AcDbXrecord
280
     1
  1
DEF
  1
*DEF*
  1
*
  1
*
 70
     0
  1
*
  1
*
  0
XRECORD
  5
2AC
102
{ACAD_REACTORS
330
131
102
}
330
131
100
AcDbXrecord
280
     1
  1
demo
  1
*demo
  1
*
  1
*
 70
     0
  1
*
  1
*
  0
XRECORD
  5
2AD
102
{ACAD_REACTORS
330
131
102
}
330
131
100
AcDbXrecord
280
     1
  1
demo items
  1
*demo*
  1
*
  1
*
 70
     0
  1
*
  1
*
  0
XRECORD
  5
2AE
102
{ACAD_REACTORS
330
131
102
}
330
131
100
AcDbXrecord
280
     1
  1
DEMOLISHED
  1
*DEM*
  1
*
  1
*
 70
     0
  1
*
  1
*
  0
XRECORD
  5
2AF
102
{ACAD_REACTORS
330
131
102
}
330
131
100
AcDbXrecord
280
     1
  1
DEMOLITION
  1
*
  1
*
  1
*
 70
    16
  1
*
  1
*
  0
XRECORD
  5
2B0
102
{ACAD_REACTORS
330
131
102
}
330
131
100
AcDbXrecord
280
     1
  1
demolition work
  1
*
  1
*
  1
*
 70
    16
  1
*
  1
*
  0
XRECORD
  5
2B1
102
{ACAD_REACTORS
330
131
102
}
330
131
100
AcDbXrecord
280
     1
  1
demont
  1
*demo*
  1
*
  1
*
 70
     0
  1
*
  1
*
  0
XRECORD
  5
2B2
102
{ACAD_REACTORS
330
131
102
}
330
131
100
AcDbXrecord
280
     1
  1
design
  1
des-*
  1
*
  1
*
 70
     0
  1
*
  1
*
  0
XRECORD
  5
2B3
102
{ACAD_REACTORS
330
131
102
}
330
131
100
AcDbXrecord
280
     1
  1
Detail
  1
D---*
  1
*
  1
*
 70
     0
  1
*
  1
*
  0
XRECORD
  5
2B4
102
{ACAD_REACTORS
330
131
102
}
330
131
100
AcDbXrecord
280
     1
  1
Detaillayer
  1
*_det*
  1
*
  1
*
 70
     0
  1
*
  1
*
  0
XRECORD
  5
2B5
102
{ACAD_REACTORS
330
131
102
}
330
131
100
AcDbXrecord
280
     1
  1
detref
  1
*detref*
  1
*
  1
*
 70
     0
  1
*
  1
*
  0
XRECORD
  5
2B6
102
{ACAD_REACTORS
330
131
102
}
330
131
100
AcDbXrecord
280
     1
  1
dgg
  1
stb
  1
*
  1
*
 70
     0
  1
*
  1
*
  0
XRECORD
  5
2B7
102
{ACAD_REACTORS
330
131
102
}
330
131
100
AcDbXrecord
280
     1
  1
DIM
  1
*A000D*
  1
*
  1
*
 70
     0
  1
*
  1
*
  0
XRECORD
  5
2B8
102
{ACAD_REACTORS
330
131
102
}
330
131
100
AcDbXrecord
280
     1
  1
Dim only
  1
*dim*
  1
*
  1
*
 70
     0
  1
*
  1
*
  0
XRECORD
  5
2B9
102
{ACAD_REACTORS
330
131
102
}
330
131
100
AcDbXrecord
280
     1
  1
Dimensions
  1
?????d*
  1
*
  1
*
 70
     1
  1
*
  1
*
  0
XRECORD
  5
2BA
102
{ACAD_REACTORS
330
131
102
}
330
131
100
AcDbXrecord
280
     1
  1
DIMS
  1
*A000D*
  1
*
  1
*
 70
     0
  1
*
  1
*
  0
XRECORD
  5
2BB
102
{ACAD_REACTORS
330
131
102
}
330
131
100
AcDbXrecord
280
     1
  1
DISEGNO
  1
BEN*
  1
*
  1
*
 70
     0
  1
*
  1
*
  0
XRECORD
  5
2BC
102
{ACAD_REACTORS
330
131
102
}
330
131
100
AcDbXrecord
280
     1
  1
DISPLAYED
  1
*
  1
*
  1
*
 70
    13
  1
*
  1
*
  0
XRECORD
  5
2BD
102
{ACAD_REACTORS
330
131
102
}
330
131
100
AcDbXrecord
280
     1
  1
DOCK
  1
*DOCK*
  1
*
  1
*
 70
     0
  1
*
  1
*
  0
XRECORD
  5
2BE
102
{ACAD_REACTORS
330
131
102
}
330
131
100
AcDbXrecord
280
     1
  1
DOM
  1
*DOM*
  1
*
  1
*
 70
     0
  1
*
  1
*
  0
XRECORD
  5
2BF
102
{ACAD_REACTORS
330
131
102
}
330
131
100
AcDbXrecord
280
     1
  1
DOMS
  1
DOMS*
  1
*
  1
*
 70
     0
  1
*
  1
*
  0
XRECORD
  5
2C0
102
{ACAD_REACTORS
330
131
102
}
330
131
100
AcDbXrecord
280
     1
  1
DOOR
  1
*DOOR*
  1
*
  1
*
 70
     0
  1
*
  1
*
  0
XRECORD
  5
2C1
102
{ACAD_REACTORS
330
131
102
}
330
131
100
AcDbXrecord
280
     1
  1
DOOREF
  1
*DOOREF*
  1
*
  1
*
 70
     0
  1
*
  1
*
  0
XRECORD
  5
2C2
102
{ACAD_REACTORS
330
131
102
}
330
131
100
AcDbXrecord
280
     1
  1
DOORREF
  1
*DOORREF*
  1
*
  1
*
 70
     0
  1
*
  1
*
  0
XRECORD
  5
2C3
102
{ACAD_REACTORS
330
131
102
}
330
131
100
AcDbXrecord
280
     1
  1
DOORS
  1
*DOOR*
  1
*
  1
*
 70
     0
  1
*
  1
*
  0
XRECORD
  5
2C4
102
{ACAD_REACTORS
330
131
102
}
330
131
100
AcDbXrecord
280
     1
  1
DR-
  1
*DR-*
  1
*
  1
*
 70
     0
  1
*
  1
*
  0
XRECORD
  5
2C5
102
{ACAD_REACTORS
330
131
102
}
330
131
100
AcDbXrecord
280
     1
  1
DRAIN
  1
*DRAIN*
  1
*
  1
*
 70
     0
  1
*
  1
*
  0
XRECORD
  5
2C6
102
{ACAD_REACTORS
330
131
102
}
330
131
100
AcDbXrecord
280
     1
  1
DRAIN & LEV
  1
DRAIN*
  1
*
  1
*
 70
     0
  1
*
  1
*
  0
XRECORD
  5
2C7
102
{ACAD_REACTORS
330
131
102
}
330
131
100
AcDbXrecord
280
     1
  1
drainage
  1
p*,e*
  1
*
  1
*
 70
     0
  1
*
  1
*
  0
XRECORD
  5
2C8
102
{ACAD_REACTORS
330
131
102
}
330
131
100
AcDbXrecord
280
     1
  1
drains
  1
*dra*
  1
*
  1
*
 70
     0
  1
*
  1
*
  0
XRECORD
  5
2C9
102
{ACAD_REACTORS
330
131
102
}
330
131
100
AcDbXrecord
280
     1
  1
DRAWING NO-XREF
  1
*
  1
*
  1
*
 70
     0
  1
*
  1
*
  0
XRECORD
  5
2CA
102
{ACAD_REACTORS
330
131
102
}
330
131
100
AcDbXrecord
280
     1
  1
Drawing01
  1
Drg01*
  1
*
  1
*
 70
     0
  1
*
  1
*
  0
XRECORD
  5
2CB
102
{ACAD_REACTORS
330
131
102
}
330
131
100
AcDbXrecord
280
     1
  1
DRUM
  1
DRUM*
  1
*
  1
*
 70
     0
  1
*
  1
*
  0
XRECORD
  5
2CC
102
{ACAD_REACTORS
330
131
102
}
330
131
100
AcDbXrecord
280
     1
  1
DSD
  1
*720G*
  1
*
  1
*
 70
     0
  1
*
  1
*
  0
XRECORD
  5
2CD
102
{ACAD_REACTORS
330
131
102
}
330
131
100
AcDbXrecord
280
     1
  1
DT
  1
DT*
  1
*
  1
*
 70
     0
  1
*
  1
*
  0
XRECORD
  5
2CE
102
{ACAD_REACTORS
330
131
102
}
330
131
100
AcDbXrecord
280
     1
  1
DUCT
  1
DUCT*
  1
*
  1
*
 70
     0
  1
*
  1
*
  0
XRECORD
  5
2CF
102
{ACAD_REACTORS
330
131
102
}
330
131
100
AcDbXrecord
280
     1
  1
ducts
  1
*duct*
  1
*
  1
*
 70
     0
  1
*
  1
*
  0
XRECORD
  5
2D0
102
{ACAD_REACTORS
330
131
102
}
330
131
100
AcDbXrecord
280
     1
  1
Ductwork
  1
*Duct*
  1
*
  1
*
 70
     0
  1
*
  1
*
  0
XRECORD
  5
2D1
102
{ACAD_REACTORS
330
131
102
}
330
131
100
AcDbXrecord
280
     1
  1
Durchbrüche
  1
K1*
  1
*
  1
*
 70
     0
  1
*
  1
*
  0
XRECORD
  5
2D2
102
{ACAD_REACTORS
330
131
102
}
330
131
100
AcDbXrecord
280
     1
  1
E
  1
*E*
  1
*
  1
*
 70
     0
  1
*
  1
*
  0
XRECORD
  5
2D3
102
{ACAD_REACTORS
330
131
102
}
330
131
100
AcDbXrecord
280
     1
  1
E-
  1
E-*
  1
*
  1
*
 70
     0
  1
*
  1
*
  0
XRECORD
  5
2D4
102
{ACAD_REACTORS
330
131
102
}
330
131
100
AcDbXrecord
280
     1
  1
EASE
  1
*EASE*
  1
*
  1
*
 70
     0
  1
*
  1
*
  0
XRECORD
  5
2D5
102
{ACAD_REACTORS
330
131
102
}
330
131
100
AcDbXrecord
280
     1
  1
EASEMENT
  1
*EASE*
  1
*
  1
*
 70
     0
  1
*
  1
*
  0
XRECORD
  5
2D6
102
{ACAD_REACTORS
330
131
102
}
330
131
100
AcDbXrecord
280
     1
  1
EDI
  1
Edi-*
  1
*
  1
*
 70
     0
  1
*
  1
*
  0
XRECORD
  5
2D7
102
{ACAD_REACTORS
330
131
102
}
330
131
100
AcDbXrecord
280
     1
  1
ein
  1
*
  1
*
  1
*
 70
     5
  1
*
  1
*
  0
XRECORD
  5
2D8
102
{ACAD_REACTORS
330
131
102
}
330
131
100
AcDbXrecord
280
     1
  1
Eingesch
  1
*
  1
*
  1
*
 70
     1
  1
*
  1
*
  0
XRECORD
  5
2D9
102
{ACAD_REACTORS
330
131
102
}
330
131
100
AcDbXrecord
280
     1
  1
el
  1
el*
  1
*
  1
*
 70
     0
  1
*
  1
*
  0
XRECORD
  5
2DA
102
{ACAD_REACTORS
330
131
102
}
330
131
100
AcDbXrecord
280
     1
  1
ELEC
  1
E*
  1
*
  1
*
 70
     0
  1
*
  1
*
  0
XRECORD
  5
2DB
102
{ACAD_REACTORS
330
131
102
}
330
131
100
AcDbXrecord
280
     1
  1
ELECTRICAL
  1
*ELEC*
  1
*
  1
*
 70
     0
  1
*
  1
*
  0
XRECORD
  5
2DC
102
{ACAD_REACTORS
330
131
102
}
330
131
100
AcDbXrecord
280
     1
  1
electrics
  1
ee*
  1
*
  1
*
 70
     0
  1
*
  1
*
  0
XRECORD
  5
2DD
102
{ACAD_REACTORS
330
131
102
}
330
131
100
AcDbXrecord
280
     1
  1
elektro
  1
2e*
  1
*
  1
*
 70
     0
  1
*
  1
*
  0
XRECORD
  5
2DE
102
{ACAD_REACTORS
330
131
102
}
330
131
100
AcDbXrecord
280
     1
  1
elev
  1
(--)20*.*
  1
*
  1
*
 70
     0
  1
*
  1
*
  0
XRECORD
  5
2DF
102
{ACAD_REACTORS
330
131
102
}
330
131
100
AcDbXrecord
280
     1
  1
ELEVATION
  1
ELE*
  1
*
  1
*
 70
     0
  1
*
  1
*
  0
XRECORD
  5
2E0
102
{ACAD_REACTORS
330
131
102
}
330
131
100
AcDbXrecord
280
     1
  1
Elevation Layers
  1
Elevation*
  1
*
  1
*
 70
     0
  1
*
  1
*
  0
XRECORD
  5
2E1
102
{ACAD_REACTORS
330
131
102
}
330
131
100
AcDbXrecord
280
     1
  1
ELEVATIONS
  1
ELEV*,0,VIE*,DETA*
  1
*
  1
*
 70
     0
  1
*
  1
*
  0
XRECORD
  5
2E2
102
{ACAD_REACTORS
330
131
102
}
330
131
100
AcDbXrecord
280
     1
  1
embank
  1
*embank*
  1
*
  1
*
 70
     0
  1
*
  1
*
  0
XRECORD
  5
2E3
102
{ACAD_REACTORS
330
131
102
}
330
131
100
AcDbXrecord
280
     1
  1
encendidos si
  1
*
  1
*
  1
*
 70
     5
  1
*
  1
*
  0
XRECORD
  5
2E4
102
{ACAD_REACTORS
330
131
102
}
330
131
100
AcDbXrecord
280
     1
  1
ENDSYM
  1
*endsym
  1
*
  1
*
 70
     0
  1
*
  1
*
  0
XRECORD
  5
2E5
102
{ACAD_REACTORS
330
131
102
}
330
131
100
AcDbXrecord
280
     1
  1
engineer
  1
pl*
  1
*
  1
*
 70
     0
  1
*
  1
*
  0
XRECORD
  5
2E6
102
{ACAD_REACTORS
330
131
102
}
330
131
100
AcDbXrecord
280
     1
  1
entrance
  1
ent*
  1
*
  1
*
 70
     0
  1
*
  1
*
  0
XRECORD
  5
2E7
102
{ACAD_REACTORS
330
131
102
}
330
131
100
AcDbXrecord
280
     1
  1
EQIP
  1
EQUIP*
  1
*
  1
*
 70
     0
  1
*
  1
*
  0
XRECORD
  5
2E8
102
{ACAD_REACTORS
330
131
102
}
330
131
100
AcDbXrecord
280
     1
  1
equip
  1
*equip*
  1
*
  1
*
 70
     0
  1
*
  1
*
  0
XRECORD
  5
2E9
102
{ACAD_REACTORS
330
131
102
}
330
131
100
AcDbXrecord
280
     1
  1
Equipment-Air
  1
Equip-Air*
  1
*
  1
*
 70
     0
  1
*
  1
*
  0
XRECORD
  5
2EA
102
{ACAD_REACTORS
330
131
102
}
330
131
100
AcDbXrecord
280
     1
  1
Equipment-Barrel
  1
Equip-Barrel*
  1
*
  1
*
 70
     0
  1
*
  1
*
  0
XRECORD
  5
2EB
102
{ACAD_REACTORS
330
131
102
}
330
131
100
AcDbXrecord
280
     1
  1
Equipment-Batter
  1
Equip-Batter*
  1
*
  1
*
 70
     0
  1
*
  1
*
  0
XRECORD
  5
2EC
102
{ACAD_REACTORS
330
131
102
}
330
131
100
AcDbXrecord
280
     1
  1
Equipment-Blanch
  1
Equip-Blanch*
  1
*
  1
*
 70
     0
  1
*
  1
*
  0
XRECORD
  5
2ED
102
{ACAD_REACTORS
330
131
102
}
330
131
100
AcDbXrecord
280
     1
  1
Equipment-Boiler
  1
Equip-Boiler*
  1
*
  1
*
 70
     0
  1
*
  1
*
  0
XRECORD
  5
2EE
102
{ACAD_REACTORS
330
131
102
}
330
131
100
AcDbXrecord
280
     1
  1
Equipment-Brine
  1
Equip-Brine*
  1
*
  1
*
 70
     0
  1
*
  1
*
  0
XRECORD
  5
2EF
102
{ACAD_REACTORS
330
131
102
}
330
131
100
AcDbXrecord
280
     1
  1
Equipment-Cutting
  1
Equip-Cutting*
  1
*
  1
*
 70
     0
  1
*
  1
*
  0
XRECORD
  5
2F0
102
{ACAD_REACTORS
330
131
102
}
330
131
100
AcDbXrecord
280
     1
  1
Equipment-Defect
  1
Equip-Defect*
  1
*
  1
*
 70
     0
  1
*
  1
*
  0
XRECORD
  5
2F1
102
{ACAD_REACTORS
330
131
102
}
330
131
100
AcDbXrecord
280
     1
  1
Equipment-Dry
  1
Equip-Dry*
  1
*
  1
*
 70
     0
  1
*
  1
*
  0
XRECORD
  5
2F2
102
{ACAD_REACTORS
330
131
102
}
330
131
100
AcDbXrecord
280
     1
  1
Equipment-Freeze
  1
Equip-Freeze*
  1
*
  1
*
 70
     0
  1
*
  1
*
  0
XRECORD
  5
2F3
102
{ACAD_REACTORS
330
131
102
}
330
131
100
AcDbXrecord
280
     1
  1
Equipment-Fryer
  1
Equip-Fryer*
  1
*
  1
*
 70
     0
  1
*
  1
*
  0
XRECORD
  5
2F4
102
{ACAD_REACTORS
330
131
102
}
330
131
100
AcDbXrecord
280
     1
  1
Equipment-Oil Storage
  1
Equip-Oilstg*
  1
*
  1
*
 70
     0
  1
*
  1
*
  0
XRECORD
  5
2F5
102
{ACAD_REACTORS
330
131
102
}
330
131
100
AcDbXrecord
280
     1
  1
Equipment-Packaging
  1
Equip-Pkg*
  1
*
  1
*
 70
     0
  1
*
  1
*
  0
XRECORD
  5
2F6
102
{ACAD_REACTORS
330
131
102
}
330
131
100
AcDbXrecord
280
     1
  1
Equipment-Pallet
  1
Equip-Pallet*
  1
*
  1
*
 70
     0
  1
*
  1
*
  0
XRECORD
  5
2F7
102
{ACAD_REACTORS
330
131
102
}
330
131
100
AcDbXrecord
280
     1
  1
Equipment-Peel
  1
Equip-Peel*
  1
*
  1
*
 70
     0
  1
*
  1
*
  0
XRECORD
  5
2F8
102
{ACAD_REACTORS
330
131
102
}
330
131
100
AcDbXrecord
280
     1
  1
Equipment-Preheat
  1
Equip-Preheat*
  1
*
  1
*
 70
     0
  1
*
  1
*
  0
XRECORD
  5
2F9
102
{ACAD_REACTORS
330
131
102
}
330
131
100
AcDbXrecord
280
     1
  1
Equipment-Raw
  1
Equip-Raw*
  1
*
  1
*
 70
     0
  1
*
  1
*
  0
XRECORD
  5
2FA
102
{ACAD_REACTORS
330
131
102
}
330
131
100
AcDbXrecord
280
     1
  1
Equipment-Refrigeration
  1
Equip-Refrig*
  1
*
  1
*
 70
     0
  1
*
  1
*
  0
XRECORD
  5
2FB
102
{ACAD_REACTORS
330
131
102
}
330
131
100
AcDbXrecord
280
     1
  1
Equipment-Sapp
  1
Equip-Sapp*
  1
*
  1
*
 70
     0
  1
*
  1
*
  0
XRECORD
  5
2FC
102
{ACAD_REACTORS
330
131
102
}
330
131
100
AcDbXrecord
280
     1
  1
Equipment-Starch
  1
Equip-Starch*
  1
*
  1
*
 70
     0
  1
*
  1
*
  0
XRECORD
  5
2FD
102
{ACAD_REACTORS
330
131
102
}
330
131
100
AcDbXrecord
280
     1
  1
Equipment-Trim
  1
Equip-Trim*
  1
*
  1
*
 70
     0
  1
*
  1
*
  0
XRECORD
  5
2FE
102
{ACAD_REACTORS
330
131
102
}
330
131
100
AcDbXrecord
280
     1
  1
Equipment-Water
  1
Equip-Water*
  1
*
  1
*
 70
     0
  1
*
  1
*
  0
XRECORD
  5
2FF
102
{ACAD_REACTORS
330
131
102
}
330
131
100
AcDbXrecord
280
     1
  1
er
  1
*er*
  1
*
  1
*
 70
     0
  1
*
  1
*
  0
XRECORD
  5
300
102
{ACAD_REACTORS
330
131
102
}
330
131
100
AcDbXrecord
280
     1
  1
escalator
  1
*esc*
  1
*
  1
*
 70
     0
  1
*
  1
*
  0
XRECORD
  5
301
102
{ACAD_REACTORS
330
131
102
}
330
131
100
AcDbXrecord
280
     1
  1
EUTILITY
  1
*
  1
*
  1
*
 70
     0
  1
*
  1
*
  0
XRECORD
  5
302
102
{ACAD_REACTORS
330
131
102
}
330
131
100
AcDbXrecord
280
     1
  1
ex-storm
  1
x-util|c-*-strm
  1
*
  1
*
 70
     0
  1
*
  1
*
  0
XRECORD
  5
303
102
{ACAD_REACTORS
330
131
102
}
330
131
100
AcDbXrecord
280
     1
  1
exg imported
  1
B*
  1
*
  1
*
 70
     0
  1
*
  1
*
  0
XRECORD
  5
304
102
{ACAD_REACTORS
330
131
102
}
330
131
100
AcDbXrecord
280
     1
  1
EXISTING
  1
EX_PLN_0
  1
*
  1
*
 70
     0
  1
*
  1
*
  0
XRECORD
  5
305
102
{ACAD_REACTORS
330
131
102
}
330
131
100
AcDbXrecord
280
     1
  1
EXPANSION
  1
*EXP*
  1
*
  1
*
 70
     0
  1
*
  1
*
  0
XRECORD
  5
306
102
{ACAD_REACTORS
330
131
102
}
330
131
100
AcDbXrecord
280
     1
  1
exstbldg
  1
*
  1
*WHITE
  1
*
 70
     0
  1
*
  1
*
  0
XRECORD
  5
307
102
{ACAD_REACTORS
330
131
102
}
330
131
100
AcDbXrecord
280
     1
  1
EXT FIN
  1
EF-*
  1
*
  1
*
 70
     0
  1
*
  1
*
  0
XRECORD
  5
308
102
{ACAD_REACTORS
330
131
102
}
330
131
100
AcDbXrecord
280
     1
  1
Extension
  1
*Exten*
  1
*
  1
*
 70
     0
  1
*
  1
*
  0
XRECORD
  5
309
102
{ACAD_REACTORS
330
131
102
}
330
131
100
AcDbXrecord
280
     1
  1
EXTERNALS
  1
*EXTERNAL*
  1
*
  1
*
 70
     0
  1
*
  1
*
  0
XRECORD
  5
30A
102
{ACAD_REACTORS
330
131
102
}
330
131
100
AcDbXrecord
280
     1
  1
F
  1
*F*
  1
*
  1
*
 70
     0
  1
*
  1
*
  0
XRECORD
  5
30B
102
{ACAD_REACTORS
330
131
102
}
330
131
100
AcDbXrecord
280
     1
  1
F PURCHASE
  1
F-*B-F*
  1
*
  1
*
 70
     0
  1
*
  1
*
  0
XRECORD
  5
30C
102
{ACAD_REACTORS
330
131
102
}
330
131
100
AcDbXrecord
280
     1
  1
F-LB-SECTION
  1
F-LB*
  1
*
  1
*
 70
     0
  1
*
  1
*
  0
XRECORD
  5
30D
102
{ACAD_REACTORS
330
131
102
}
330
131
100
AcDbXrecord
280
     1
  1
F-SECTION
  1
F*
  1
*
  1
*
 70
     0
  1
*
  1
*
  0
XRECORD
  5
30E
102
{ACAD_REACTORS
330
131
102
}
330
131
100
AcDbXrecord
280
     1
  1
F-UB-SECTION
  1
F-UB*
  1
*
  1
*
 70
     0
  1
*
  1
*
  0
XRECORD
  5
30F
102
{ACAD_REACTORS
330
131
102
}
330
131
100
AcDbXrecord
280
     1
  1
Fach Ing
  1
RR*
  1
*
  1
*
 70
     0
  1
*
  1
*
  0
XRECORD
  5
310
102
{ACAD_REACTORS
330
131
102
}
330
131
100
AcDbXrecord
280
     1
  1
Fachplaner
  1
K_XREF*
  1
*
  1
*
 70
     0
  1
*
  1
*
  0
XRECORD
  5
311
102
{ACAD_REACTORS
330
131
102
}
330
131
100
AcDbXrecord
280
     1
  1
fall
  1
*fall*
  1
*
  1
*
 70
     0
  1
*
  1
*
  0
XRECORD
  5
312
102
{ACAD_REACTORS
330
131
102
}
330
131
100
AcDbXrecord
280
     1
  1
Farbe
  1
A---FA*
  1
*
  1
*
 70
     0
  1
*
  1
*
  0
XRECORD
  5
313
102
{ACAD_REACTORS
330
131
102
}
330
131
100
AcDbXrecord
280
     1
  1
Farbe55
  1
*
  1
55
  1
*
 70
     0
  1
*
  1
*
  0
XRECORD
  5
314
102
{ACAD_REACTORS
330
131
102
}
330
131
100
AcDbXrecord
280
     1
  1
farben
  1
*fb-*
  1
*
  1
*
 70
     0
  1
*
  1
*
  0
XRECORD
  5
315
102
{ACAD_REACTORS
330
131
102
}
330
131
100
AcDbXrecord
280
     1
  1
Fassade
  1
F---*
  1
*
  1
*
 70
     0
  1
*
  1
*
  0
XRECORD
  5
316
102
{ACAD_REACTORS
330
131
102
}
330
131
100
AcDbXrecord
280
     1
  1
Fasssade
  1
F*
  1
*
  1
*
 70
     0
  1
*
  1
*
  0
XRECORD
  5
317
102
{ACAD_REACTORS
330
131
102
}
330
131
100
AcDbXrecord
280
     1
  1
fb-130
  1
*
  1
130
  1
*
 70
     0
  1
*
  1
*
  0
XRECORD
  5
318
102
{ACAD_REACTORS
330
131
102
}
330
131
100
AcDbXrecord
280
     1
  1
FC_CLADDING
  1
*FC*
  1
*
  1
*
 70
     0
  1
*
  1
*
  0
XRECORD
  5
319
102
{ACAD_REACTORS
330
131
102
}
330
131
100
AcDbXrecord
280
     1
  1
FEATURE
  1
FEATURE*
  1
*
  1
*
 70
     0
  1
*
  1
*
  0
XRECORD
  5
31A
102
{ACAD_REACTORS
330
131
102
}
330
131
100
AcDbXrecord
280
     1
  1
FENCE
  1
FENCE*
  1
*
  1
*
 70
     0
  1
*
  1
*
  0
XRECORD
  5
31B
102
{ACAD_REACTORS
330
131
102
}
330
131
100
AcDbXrecord
280
     1
  1
fenster
  1
A_Fenster
  1
*
  1
*
 70
     0
  1
.18
  1
*
  0
XRECORD
  5
31C
102
{ACAD_REACTORS
330
131
102
}
330
131
100
AcDbXrecord
280
     1
  1
FFL
  1
*FFL*
  1
*
  1
*
 70
     0
  1
*
  1
*
  0
XRECORD
  5
31D
102
{ACAD_REACTORS
330
131
102
}
330
131
100
AcDbXrecord
280
     1
  1
FIEGE
  1
*FIEGE*
  1
*
  1
*
 70
     0
  1
*
  1
*
  0
XRECORD
  5
31E
102
{ACAD_REACTORS
330
131
102
}
330
131
100
AcDbXrecord
280
     1
  1
FILL
  1
*FILL*
  1
*
  1
*
 70
     0
  1
*
  1
*
  0
XRECORD
  5
31F
102
{ACAD_REACTORS
330
131
102
}
330
131
100
AcDbXrecord
280
     1
  1
Fill Layer
  1
F*
  1
*
  1
*
 70
     0
  1
*
  1
*
  0
XRECORD
  5
320
102
{ACAD_REACTORS
330
131
102
}
330
131
100
AcDbXrecord
280
     1
  1
FIll Layers
  1
*f???-*
  1
*
  1
*
 70
     0
  1
*
  1
*
  0
XRECORD
  5
321
102
{ACAD_REACTORS
330
131
102
}
330
131
100
AcDbXrecord
280
     1
  1
fills
  1
*stone*
  1
*
  1
*
 70
     0
  1
*
  1
*
  0
XRECORD
  5
322
102
{ACAD_REACTORS
330
131
102
}
330
131
100
AcDbXrecord
280
     1
  1
FINISH
  1
*FINISH*
  1
*
  1
*
 70
     0
  1
*
  1
*
  0
XRECORD
  5
323
102
{ACAD_REACTORS
330
131
102
}
330
131
100
AcDbXrecord
280
     1
  1
FINISHES
  1
*
  1
*
  1
*
 70
    16
  1
*
  1
*
  0
XRECORD
  5
324
102
{ACAD_REACTORS
330
131
102
}
330
131
100
AcDbXrecord
280
     1
  1
FINISHES PLAN
  1
*
  1
*
  1
*
 70
    16
  1
*
  1
*
  0
XRECORD
  5
325
102
{ACAD_REACTORS
330
131
102
}
330
131
100
AcDbXrecord
280
     1
  1
FINISHES PLANS
  1
*
  1
*
  1
*
 70
    16
  1
*
  1
*
  0
XRECORD
  5
326
102
{ACAD_REACTORS
330
131
102
}
330
131
100
AcDbXrecord
280
     1
  1
FIRE
  1
*FIRE*
  1
*
  1
*
 70
     0
  1
*
  1
*
  0
XRECORD
  5
327
102
{ACAD_REACTORS
330
131
102
}
330
131
100
AcDbXrecord
280
     1
  1
FIRE PLAN
  1
*
  1
*
  1
*
 70
     4
  1
*
  1
*
  0
XRECORD
  5
328
102
{ACAD_REACTORS
330
131
102
}
330
131
100
AcDbXrecord
280
     1
  1
FIRST FLOOR
  1
AF*,FIR*,0,VIE*,DETA*
  1
*
  1
*
 70
     0
  1
*
  1
*
  0
XRECORD
  5
329
102
{ACAD_REACTORS
330
131
102
}
330
131
100
AcDbXrecord
280
     1
  1
FITTING
  1
*FIT*
  1
*
  1
*
 70
     0
  1
*
  1
*
  0
XRECORD
  5
32A
102
{ACAD_REACTORS
330
131
102
}
330
131
100
AcDbXrecord
280
     1
  1
fl
  1
*FL*
  1
*
  1
*
 70
     0
  1
*
  1
*
  0
XRECORD
  5
32B
102
{ACAD_REACTORS
330
131
102
}
330
131
100
AcDbXrecord
280
     1
  1
flch
  1
*flch*
  1
*
  1
*
 70
     0
  1
*
  1
*
  0
XRECORD
  5
32C
102
{ACAD_REACTORS
330
131
102
}
330
131
100
AcDbXrecord
280
     1
  1
fliesen
  1
*flie*
  1
*
  1
*
 70
     0
  1
*
  1
*
  0
XRECORD
  5
32D
102
{ACAD_REACTORS
330
131
102
}
330
131
100
AcDbXrecord
280
     1
  1
FLOOR
  1
FLOOR*
  1
*
  1
*
 70
     0
  1
*
  1
*
  0
XRECORD
  5
32E
102
{ACAD_REACTORS
330
131
102
}
330
131
100
AcDbXrecord
280
     1
  1
FLOOR PLAN
  1
A-FLR-*
  1
*
  1
*
 70
     0
  1
*
  1
*
  0
XRECORD
  5
32F
102
{ACAD_REACTORS
330
131
102
}
330
131
100
AcDbXrecord
280
     1
  1
Floor Plans
  1
*
  1
*
  1
*
 70
     0
  1
*
  1
*
  0
XRECORD
  5
330
102
{ACAD_REACTORS
330
131
102
}
330
131
100
AcDbXrecord
280
     1
  1
Flow
  1
CP_Air
  1
*
  1
*
 70
     0
  1
*
  1
*
  0
XRECORD
  5
331
102
{ACAD_REACTORS
330
131
102
}
330
131
100
AcDbXrecord
280
     1
  1
Flächen nach DIN
  1
*_FLA_*
  1
*
  1
*
 70
     0
  1
*
  1
*
  0
XRECORD
  5
332
102
{ACAD_REACTORS
330
131
102
}
330
131
100
AcDbXrecord
280
     1
  1
Flächenberechnung
  1
A---FBG*
  1
*
  1
*
 70
     0
  1
*
  1
*
  0
XRECORD
  5
333
102
{ACAD_REACTORS
330
131
102
}
330
131
100
AcDbXrecord
280
     1
  1
Fonctions
  1
H-F*
  1
*
  1
*
 70
     0
  1
*
  1
*
  0
XRECORD
  5
334
102
{ACAD_REACTORS
330
131
102
}
330
131
100
AcDbXrecord
280
     1
  1
Fontions
  1
H-F*
  1
*
  1
*
 70
     0
  1
*
  1
*
  0
XRECORD
  5
335
102
{ACAD_REACTORS
330
131
102
}
330
131
100
AcDbXrecord
280
     1
  1
FOOT
  1
*FOOT*
  1
*
  1
*
 70
     0
  1
*
  1
*
  0
XRECORD
  5
336
102
{ACAD_REACTORS
330
131
102
}
330
131
100
AcDbXrecord
280
     1
  1
FOOTPATH
  1
*FOOTPATH*
  1
*
  1
*
 70
     0
  1
*
  1
*
  0
XRECORD
  5
337
102
{ACAD_REACTORS
330
131
102
}
330
131
100
AcDbXrecord
280
     1
  1
footway
  1
*foot*
  1
*
  1
*
 70
     0
  1
*
  1
*
  0
XRECORD
  5
338
102
{ACAD_REACTORS
330
131
102
}
330
131
100
AcDbXrecord
280
     1
  1
FORT
  1
*PLAN10G*
  1
*
  1
*
 70
     0
  1
*
  1
*
  0
XRECORD
  5
339
102
{ACAD_REACTORS
330
131
102
}
330
131
100
AcDbXrecord
280
     1
  1
FOUL
  1
*FW*
  1
*
  1
*
 70
     0
  1
*
  1
*
  0
XRECORD
  5
33A
102
{ACAD_REACTORS
330
131
102
}
330
131
100
AcDbXrecord
280
     1
  1
FOUNDATION
  1
*FOUND*
  1
*
  1
*
 70
     0
  1
*
  1
*
  0
XRECORD
  5
33B
102
{ACAD_REACTORS
330
131
102
}
330
131
100
AcDbXrecord
280
     1
  1
FOUNDATION PLOT
  1
*
  1
*
  1
*
 70
     0
  1
*
  1
*
  0
XRECORD
  5
33C
102
{ACAD_REACTORS
330
131
102
}
330
131
100
AcDbXrecord
280
     1
  1
FOUNDATIONS
  1
AF*,FND*,0,VIEW*,DETA*
  1
*
  1
*
 70
     0
  1
*
  1
*
  0
XRECORD
  5
33D
102
{ACAD_REACTORS
330
131
102
}
330
131
100
AcDbXrecord
280
     1
  1
founds
  1
*foun*
  1
*
  1
*
 70
     0
  1
*
  1
*
  0
XRECORD
  5
33E
102
{ACAD_REACTORS
330
131
102
}
330
131
100
AcDbXrecord
280
     1
  1
Fozen Layers off
  1
*
  1
*
  1
*
 70
    12
  1
*
  1
*
  0
XRECORD
  5
33F
102
{ACAD_REACTORS
330
131
102
}
330
131
100
AcDbXrecord
280
     1
  1
fp01
  1
a-fp01|*
  1
*
  1
*
 70
     0
  1
*
  1
*
  0
XRECORD
  5
340
102
{ACAD_REACTORS
330
131
102
}
330
131
100
AcDbXrecord
280
     1
  1
FR
  1
*
  1
*
  1
*
 70
     4
  1
*
  1
*
  0
XRECORD
  5
341
102
{ACAD_REACTORS
330
131
102
}
330
131
100
AcDbXrecord
280
     1
  1
frame
  1
frame-*,grid,ng
  1
*
  1
*
 70
     0
  1
*
  1
*
  0
XRECORD
  5
342
102
{ACAD_REACTORS
330
131
102
}
330
131
100
AcDbXrecord
280
     1
  1
franklin ellis
  1
frank-*
  1
*
  1
*
 70
     0
  1
*
  1
*
  0
XRECORD
  5
343
102
{ACAD_REACTORS
330
131
102
}
330
131
100
AcDbXrecord
280
     1
  1
freeze
  1
*
  1
*
  1
*
 70
     4
  1
*
  1
*
  0
XRECORD
  5
344
102
{ACAD_REACTORS
330
131
102
}
330
131
100
AcDbXrecord
280
     1
  1
FREEZE ALL
  1
ALL
  1
*
  1
*
 70
     5
  1
*
  1
*
  0
XRECORD
  5
345
102
{ACAD_REACTORS
330
131
102
}
330
131
100
AcDbXrecord
280
     1
  1
freeze-off
  1
*
  1
*
  1
*
 70
     4
  1
*
  1
*
  0
XRECORD
  5
346
102
{ACAD_REACTORS
330
131
102
}
330
131
100
AcDbXrecord
280
     1
  1
frier
  1
*
  1
*
  1
*
 70
     4
  1
*
  1
*
  0
XRECORD
  5
347
102
{ACAD_REACTORS
330
131
102
}
330
131
100
AcDbXrecord
280
     1
  1
FROS CUR VPORT
  1
LUCIEN
  1
*
  1
*
 70
    16
  1
*
  1
*
  0
XRECORD
  5
348
102
{ACAD_REACTORS
330
131
102
}
330
131
100
AcDbXrecord
280
     1
  1
froz
  1
*
  1
*
  1
*
 70
     4
  1
*
  1
*
  0
XRECORD
  5
349
102
{ACAD_REACTORS
330
131
102
}
330
131
100
AcDbXrecord
280
     1
  1
FROZ CUR VPORT
  1
*
  1
*
  1
*
 70
    16
  1
*
  1
*
  0
XRECORD
  5
34A
102
{ACAD_REACTORS
330
131
102
}
330
131
100
AcDbXrecord
280
     1
  1
FROZ IN CURENT
  1
*
  1
*
  1
*
 70
    16
  1
*
  1
*
  0
XRECORD
  5
34B
102
{ACAD_REACTORS
330
131
102
}
330
131
100
AcDbXrecord
280
     1
  1
frozen
  1
*
  1
*
  1
*
 70
     4
  1
*
  1
*
  0
XRECORD
  5
34C
102
{ACAD_REACTORS
330
131
102
}
330
131
100
AcDbXrecord
280
     1
  1
frozen in current vp
  1
*
  1
*
  1
*
 70
    16
  1
*
  1
*
  0
XRECORD
  5
34D
102
{ACAD_REACTORS
330
131
102
}
330
131
100
AcDbXrecord
280
     1
  1
FROZEN-ACTIVE
  1
*
  1
*
  1
*
 70
    16
  1
*
  1
*
  0
XRECORD
  5
34E
102
{ACAD_REACTORS
330
131
102
}
330
131
100
AcDbXrecord
280
     1
  1
FROZEN_CURRENTVP
  1
*
  1
*
  1
*
 70
    16
  1
*
  1
*
  0
XRECORD
  5
34F
102
{ACAD_REACTORS
330
131
102
}
330
131
100
AcDbXrecord
280
     1
  1
FROZZED
  1
*
  1
*
  1
*
 70
     4
  1
*
  1
*
  0
XRECORD
  5
350
102
{ACAD_REACTORS
330
131
102
}
330
131
100
AcDbXrecord
280
     1
  1
ft
  1
*
  1
*
  1
*
 70
     3
  1
*
  1
*
  0
XRECORD
  5
351
102
{ACAD_REACTORS
330
131
102
}
330
131
100
AcDbXrecord
280
     1
  1
FURN
  1
*FURN*
  1
*
  1
*
 70
     0
  1
*
  1
*
  0
XRECORD
  5
352
102
{ACAD_REACTORS
330
131
102
}
330
131
100
AcDbXrecord
280
     1
  1
Furniture
  1
f*
  1
*
  1
*
 70
     0
  1
*
  1
*
  0
XRECORD
  5
353
102
{ACAD_REACTORS
330
131
102
}
330
131
100
AcDbXrecord
280
     1
  1
future
  1
*futr
  1
*
  1
*
 70
     0
  1
*
  1
*
  0
XRECORD
  5
354
102
{ACAD_REACTORS
330
131
102
}
330
131
100
AcDbXrecord
280
     1
  1
fußboden
  1
a-fb*
  1
*
  1
*
 70
     0
  1
*
  1
*
  0
XRECORD
  5
355
102
{ACAD_REACTORS
330
131
102
}
330
131
100
AcDbXrecord
280
     1
  1
fwmh
  1
*fwmh*-
  1
*
  1
*
 70
     0
  1
*
  1
*
  0
XRECORD
  5
356
102
{ACAD_REACTORS
330
131
102
}
330
131
100
AcDbXrecord
280
     1
  1
G
  1
*G*
  1
*
  1
*
 70
     0
  1
*
  1
*
  0
XRECORD
  5
357
102
{ACAD_REACTORS
330
131
102
}
330
131
100
AcDbXrecord
280
     1
  1
G80
  1
*G80*
  1
*
  1
*
 70
     0
  1
*
  1
*
  0
XRECORD
  5
358
102
{ACAD_REACTORS
330
131
102
}
330
131
100
AcDbXrecord
280
     1
  1
GA
  1
*
  1
*
  1
*
 70
    16
  1
*
  1
*
  0
XRECORD
  5
359
102
{ACAD_REACTORS
330
131
102
}
330
131
100
AcDbXrecord
280
     1
  1
ga plan
  1
*
  1
*
  1
*
 70
    16
  1
*
  1
*
  0
XRECORD
  5
35A
102
{ACAD_REACTORS
330
131
102
}
330
131
100
AcDbXrecord
280
     1
  1
GAMCO
  1
GAM*
  1
*
  1
*
 70
     0
  1
*
  1
*
  0
XRECORD
  5
35B
102
{ACAD_REACTORS
330
131
102
}
330
131
100
AcDbXrecord
280
     1
  1
GARAGE
  1
TG*
  1
*
  1
*
 70
     0
  1
*
  1
*
  0
XRECORD
  5
35C
102
{ACAD_REACTORS
330
131
102
}
330
131
100
AcDbXrecord
280
     1
  1
GAS
  1
C-P?A?S?-GAS*
  1
*
  1
*
 70
     0
  1
*
  1
*
  0
XRECORD
  5
35D
102
{ACAD_REACTORS
330
131
102
}
330
131
100
AcDbXrecord
280
     1
  1
GC
  1
GC*
  1
*
  1
*
 70
     4
  1
*
  1
*
  0
XRECORD
  5
35E
102
{ACAD_REACTORS
330
131
102
}
330
131
100
AcDbXrecord
280
     1
  1
GE
  1
GE.*
  1
*
  1
*
 70
     0
  1
*
  1
*
  0
XRECORD
  5
35F
102
{ACAD_REACTORS
330
131
102
}
330
131
100
AcDbXrecord
280
     1
  1
GEA
  1
*GEA*
  1
*
  1
*
 70
     0
  1
*
  1
*
  0
XRECORD
  5
360
102
{ACAD_REACTORS
330
131
102
}
330
131
100
AcDbXrecord
280
     1
  1
gefroren
  1
*
  1
*
  1
*
 70
     4
  1
*
  1
*
  0
XRECORD
  5
361
102
{ACAD_REACTORS
330
131
102
}
330
131
100
AcDbXrecord
280
     1
  1
Gefrorene Layer
  1
*
  1
*
  1
*
 70
     4
  1
*
  1
*
  0
XRECORD
  5
362
102
{ACAD_REACTORS
330
131
102
}
330
131
100
AcDbXrecord
280
     1
  1
gel
  1
*ILLUMI*
  1
*
  1
*
 70
     0
  1
*
  1
*
  0
XRECORD
  5
363
102
{ACAD_REACTORS
330
131
102
}
330
131
100
AcDbXrecord
280
     1
  1
GEN ARR
  1
GA-*
  1
*
  1
*
 70
     0
  1
*
  1
*
  0
XRECORD
  5
364
102
{ACAD_REACTORS
330
131
102
}
330
131
100
AcDbXrecord
280
     1
  1
GENERAL
  1
*GE*
  1
*
  1
*
 70
     0
  1
*
  1
*
  0
XRECORD
  5
365
102
{ACAD_REACTORS
330
131
102
}
330
131
100
AcDbXrecord
280
     1
  1
geplant
  1
*gepl*
  1
*
  1
*
 70
     0
  1
*
  1
*
  0
XRECORD
  5
366
102
{ACAD_REACTORS
330
131
102
}
330
131
100
AcDbXrecord
280
     1
  1
geschnitte
  1
*s*
  1
*
  1
*
 70
     0
  1
*
  1
*
  0
XRECORD
  5
367
102
{ACAD_REACTORS
330
131
102
}
330
131
100
AcDbXrecord
280
     1
  1
geschnitten
  1
*s
  1
*
  1
*
 70
     0
  1
*
  1
*
  0
XRECORD
  5
368
102
{ACAD_REACTORS
330
131
102
}
330
131
100
AcDbXrecord
280
     1
  1
gesperrt
  1
*
  1
*
  1
*
 70
   256
  1
*
  1
*
  0
XRECORD
  5
369
102
{ACAD_REACTORS
330
131
102
}
330
131
100
AcDbXrecord
280
     1
  1
getaut
  1
*
  1
*
  1
*
 70
    12
  1
*
  1
*
  0
XRECORD
  5
36A
102
{ACAD_REACTORS
330
131
102
}
330
131
100
AcDbXrecord
280
     1
  1
GF
  1
M-GF*
  1
*
  1
*
 70
     4
  1
*
  1
*
  0
XRECORD
  5
36B
102
{ACAD_REACTORS
330
131
102
}
330
131
100
AcDbXrecord
280
     1
  1
GF OFF
  1
M-GF*
  1
*
  1
*
 70
     0
  1
*
  1
*
  0
XRECORD
  5
36C
102
{ACAD_REACTORS
330
131
102
}
330
131
100
AcDbXrecord
280
     1
  1
GIA
  1
*GIA*
  1
*
  1
*
 70
     0
  1
*
  1
*
  0
XRECORD
  5
36D
102
{ACAD_REACTORS
330
131
102
}
330
131
100
AcDbXrecord
280
     1
  1
gipskarton
  1
*gk*
  1
*
  1
*
 70
     0
  1
*
  1
*
  0
XRECORD
  5
36E
102
{ACAD_REACTORS
330
131
102
}
330
131
100
AcDbXrecord
280
     1
  1
GLASS
  1
GLASS*
  1
*
  1
*
 70
     0
  1
*
  1
*
  0
XRECORD
  5
36F
102
{ACAD_REACTORS
330
131
102
}
330
131
100
AcDbXrecord
280
     1
  1
GLASS RACK
  1
GLASSRACK*
  1
*
  1
*
 70
     0
  1
*
  1
*
  0
XRECORD
  5
370
102
{ACAD_REACTORS
330
131
102
}
330
131
100
AcDbXrecord
280
     1
  1
glaz
  1
*glaz*
  1
*
  1
*
 70
     0
  1
*
  1
*
  0
XRECORD
  5
371
102
{ACAD_REACTORS
330
131
102
}
330
131
100
AcDbXrecord
280
     1
  1
go
  1
*
  1
*
  1
*
 70
     0
  1
*
  1
*
  0
XRECORD
  5
372
102
{ACAD_REACTORS
330
131
102
}
330
131
100
AcDbXrecord
280
     1
  1
GREEN
  1
*
  1
GREEN
  1
*
 70
     0
  1
*
  1
*
  0
XRECORD
  5
373
102
{ACAD_REACTORS
330
131
102
}
330
131
100
AcDbXrecord
280
     1
  1
GREET
  1
GREET*
  1
*
  1
*
 70
     0
  1
*
  1
*
  0
XRECORD
  5
374
102
{ACAD_REACTORS
330
131
102
}
330
131
100
AcDbXrecord
280
     1
  1
grey
  1
*grey*
  1
*
  1
*
 70
     0
  1
*
  1
*
  0
XRECORD
  5
375
102
{ACAD_REACTORS
330
131
102
}
330
131
100
AcDbXrecord
280
     1
  1
GRID
  1
*GRID*
  1
*
  1
*
 70
     0
  1
*
  1
*
  0
XRECORD
  5
376
102
{ACAD_REACTORS
330
131
102
}
330
131
100
AcDbXrecord
280
     1
  1
GRID-1
  1
*GRID*
  1
*
  1
*
 70
     0
  1
*
  1
*
  0
XRECORD
  5
377
102
{ACAD_REACTORS
330
131
102
}
330
131
100
AcDbXrecord
280
     1
  1
GRID-2
  1
*TXM*
  1
*
  1
*
 70
     0
  1
*
  1
*
  0
XRECORD
  5
378
102
{ACAD_REACTORS
330
131
102
}
330
131
100
AcDbXrecord
280
     1
  1
grids
  1
*grid*
  1
*
  1
*
 70
     0
  1
*
  1
*
  0
XRECORD
  5
379
102
{ACAD_REACTORS
330
131
102
}
330
131
100
AcDbXrecord
280
     1
  1
gris
  1
*
  1
*
  1
*
 70
     0
  1
*
  1
*
  0
XRECORD
  5
37A
102
{ACAD_REACTORS
330
131
102
}
330
131
100
AcDbXrecord
280
     1
  1
gro
  1
*gro*
  1
*
  1
*
 70
     0
  1
*
  1
*
  0
XRECORD
  5
37B
102
{ACAD_REACTORS
330
131
102
}
330
131
100
AcDbXrecord
280
     1
  1
GROUND FLOOR
  1
AF*,GF*,0,VIEW*,DETA*
  1
*
  1
*
 70
     0
  1
*
  1
*
  0
XRECORD
  5
37C
102
{ACAD_REACTORS
330
131
102
}
330
131
100
AcDbXrecord
280
     1
  1
ground floor GA
  1
*
  1
*
  1
*
 70
  3072
  1
*
  1
*
  0
XRECORD
  5
37D
102
{ACAD_REACTORS
330
131
102
}
330
131
100
AcDbXrecord
280
     1
  1
Grundstück
  1
G*
  1
*
  1
*
 70
     0
  1
*
  1
*
  0
XRECORD
  5
37E
102
{ACAD_REACTORS
330
131
102
}
330
131
100
AcDbXrecord
280
     1
  1
gsa
  1
gsa*
  1
*
  1
*
 70
     0
  1
*
  1
*
  0
XRECORD
  5
37F
102
{ACAD_REACTORS
330
131
102
}
330
131
100
AcDbXrecord
280
     1
  1
GUL
  1
*GUL*
  1
*
  1
*
 70
     0
  1
*
  1
*
  0
XRECORD
  5
380
102
{ACAD_REACTORS
330
131
102
}
330
131
100
AcDbXrecord
280
     1
  1
GUTTER
  1
*GUTTER*
  1
*
  1
*
 70
     0
  1
*
  1
*
  0
XRECORD
  5
381
102
{ACAD_REACTORS
330
131
102
}
330
131
100
AcDbXrecord
280
     1
  1
H
  1
*H*
  1
*
  1
*
 70
     0
  1
*
  1
*
  0
XRECORD
  5
382
102
{ACAD_REACTORS
330
131
102
}
330
131
100
AcDbXrecord
280
     1
  1
h-
  1
h-*
  1
*
  1
*
 70
     0
  1
*
  1
*
  0
XRECORD
  5
383
102
{ACAD_REACTORS
330
131
102
}
330
131
100
AcDbXrecord
280
     1
  1
h-db
  1
h-db*
  1
*
  1
*
 70
     0
  1
*
  1
*
  0
XRECORD
  5
384
102
{ACAD_REACTORS
330
131
102
}
330
131
100
AcDbXrecord
280
     1
  1
H-DB-DIVERSE
  1
H-DB-D*
  1
*
  1
*
 70
     0
  1
*
  1
*
  0
XRECORD
  5
385
102
{ACAD_REACTORS
330
131
102
}
330
131
100
AcDbXrecord
280
     1
  1
H-DB-ELEKTRO
  1
H-DB-E*
  1
*
  1
*
 70
     0
  1
*
  1
*
  0
XRECORD
  5
386
102
{ACAD_REACTORS
330
131
102
}
330
131
100
AcDbXrecord
280
     1
  1
H-DB-HEIZUNG
  1
H-DB-H*
  1
*
  1
*
 70
     0
  1
*
  1
*
  0
XRECORD
  5
387
102
{ACAD_REACTORS
330
131
102
}
330
131
100
AcDbXrecord
280
     1
  1
H-DB-LUEFTUNG
  1
H-DB-L*
  1
*
  1
*
 70
     0
  1
*
  1
*
  0
XRECORD
  5
388
102
{ACAD_REACTORS
330
131
102
}
330
131
100
AcDbXrecord
280
     1
  1
H-DB-SANITAER
  1
H-DB-S*
  1
*
  1
*
 70
     0
  1
*
  1
*
  0
XRECORD
  5
389
102
{ACAD_REACTORS
330
131
102
}
330
131
100
AcDbXrecord
280
     1
  1
h-durchbrueche
  1
h-*
  1
*
  1
*
 70
     0
  1
*
  1
*
  0
XRECORD
  5
38A
102
{ACAD_REACTORS
330
131
102
}
330
131
100
AcDbXrecord
280
     1
  1
H-DURCHBRÜCHE
  1
H-*
  1
*
  1
*
 70
     0
  1
*
  1
*
  0
XRECORD
  5
38B
102
{ACAD_REACTORS
330
131
102
}
330
131
100
AcDbXrecord
280
     1
  1
HA
  1
*HA*
  1
*
  1
*
 70
     0
  1
*
  1
*
  0
XRECORD
  5
38C
102
{ACAD_REACTORS
330
131
102
}
330
131
100
AcDbXrecord
280
     1
  1
HA-GENE-AR
  1
*HA-GENE-AR
  1
*
  1
*
 70
     0
  1
*
  1
*
  0
XRECORD
  5
38D
102
{ACAD_REACTORS
330
131
102
}
330
131
100
AcDbXrecord
280
     1
  1
HA5
  1
HA-*5-AR
  1
*
  1
*
 70
     0
  1
*
  1
*
  0
XRECORD
  5
38E
102
{ACAD_REACTORS
330
131
102
}
330
131
100
AcDbXrecord
280
     1
  1
HAIRDRESSER
  1
HD*
  1
*
  1
*
 70
     0
  1
*
  1
*
  0
XRECORD
  5
38F
102
{ACAD_REACTORS
330
131
102
}
330
131
100
AcDbXrecord
280
     1
  1
HALLS
  1
*HAL*
  1
*
  1
*
 70
     0
  1
*
  1
*
  0
XRECORD
  5
390
102
{ACAD_REACTORS
330
131
102
}
330
131
100
AcDbXrecord
280
     1
  1
HAOU
  1
HA*,OU-AREA*
  1
*
  1
*
 70
     0
  1
*
  1
*
  0
XRECORD
  5
391
102
{ACAD_REACTORS
330
131
102
}
330
131
100
AcDbXrecord
280
     1
  1
HATCH
  1
*Hatch*
  1
*
  1
*
 70
     0
  1
*
  1
*
  0
XRECORD
  5
392
102
{ACAD_REACTORS
330
131
102
}
330
131
100
AcDbXrecord
280
     1
  1
hatch-layers
  1
*hatch
  1
*
  1
*
 70
     0
  1
*
  1
*
  0
XRECORD
  5
393
102
{ACAD_REACTORS
330
131
102
}
330
131
100
AcDbXrecord
280
     1
  1
HATCH-SKY
  1
*OU-HA*
  1
*
  1
*
 70
     0
  1
*
  1
*
  0
XRECORD
  5
394
102
{ACAD_REACTORS
330
131
102
}
330
131
100
AcDbXrecord
280
     1
  1
HATCH1
  1
*HA*
  1
*
  1
*
 70
     0
  1
*
  1
*
  0
XRECORD
  5
395
102
{ACAD_REACTORS
330
131
102
}
330
131
100
AcDbXrecord
280
     1
  1
HATCHES
  1
*HATCH*
  1
*
  1
*
 70
     0
  1
*
  1
*
  0
XRECORD
  5
396
102
{ACAD_REACTORS
330
131
102
}
330
131
100
AcDbXrecord
280
     1
  1
HATCHONLY
  1
*HATCH*
  1
*
  1
*
 70
     0
  1
*
  1
*
  0
XRECORD
  5
397
102
{ACAD_REACTORS
330
131
102
}
330
131
100
AcDbXrecord
280
     1
  1
Haustechnik
  1
H*
  1
*
  1
*
 70
     0
  1
*
  1
*
  0
XRECORD
  5
398
102
{ACAD_REACTORS
330
131
102
}
330
131
100
AcDbXrecord
280
     1
  1
HEATING
  1
HTG*
  1
*
  1
*
 70
     0
  1
*
  1
*
  0
XRECORD
  5
399
102
{ACAD_REACTORS
330
131
102
}
330
131
100
AcDbXrecord
280
     1
  1
heiz
  1
h_*
  1
*
  1
*
 70
     0
  1
*
  1
*
  0
XRECORD
  5
39A
102
{ACAD_REACTORS
330
131
102
}
330
131
100
AcDbXrecord
280
     1
  1
Heizung
  1
H1-H*
  1
*
  1
*
 70
     0
  1
*
  1
*
  0
XRECORD
  5
39B
102
{ACAD_REACTORS
330
131
102
}
330
131
100
AcDbXrecord
280
     1
  1
helaba
  1
hlb-*
  1
*
  1
*
 70
     0
  1
*
  1
*
  0
XRECORD
  5
39C
102
{ACAD_REACTORS
330
131
102
}
330
131
100
AcDbXrecord
280
     1
  1
HID
  1
*HID*
  1
*
  1
*
 70
     0
  1
*
  1
*
  0
XRECORD
  5
39D
102
{ACAD_REACTORS
330
131
102
}
330
131
100
AcDbXrecord
280
     1
  1
hidden
  1
*hid*
  1
*
  1
*
 70
     0
  1
*
  1
*
  0
XRECORD
  5
39E
102
{ACAD_REACTORS
330
131
102
}
330
131
100
AcDbXrecord
280
     1
  1
Hide
  1
*hide*
  1
*
  1
*
 70
     0
  1
*
  1
*
  0
XRECORD
  5
39F
102
{ACAD_REACTORS
330
131
102
}
330
131
100
AcDbXrecord
280
     1
  1
Hilfalayer
  1
A---????H*
  1
*
  1
*
 70
     0
  1
*
  1
*
  0
XRECORD
  5
3A0
102
{ACAD_REACTORS
330
131
102
}
330
131
100
AcDbXrecord
280
     1
  1
Hilfeschraff
  1
*02GFS000
  1
*
  1
*
 70
     0
  1
*
  1
*
  0
XRECORD
  5
3A1
102
{ACAD_REACTORS
330
131
102
}
330
131
100
AcDbXrecord
280
     1
  1
Hilfslayer
  1
A---????H*
  1
*
  1
*
 70
     0
  1
*
  1
*
  0
XRECORD
  5
3A2
102
{ACAD_REACTORS
330
131
102
}
330
131
100
AcDbXrecord
280
     1
  1
hk
  1
2h*
  1
*
  1
*
 70
     0
  1
*
  1
*
  0
XRECORD
  5
3A3
102
{ACAD_REACTORS
330
131
102
}
330
131
100
AcDbXrecord
280
     1
  1
hlb
  1
hlb-*
  1
*
  1
*
 70
     0
  1
*
  1
*
  0
XRECORD
  5
3A4
102
{ACAD_REACTORS
330
131
102
}
330
131
100
AcDbXrecord
280
     1
  1
hlb-18
  1
hlb-18*
  1
*
  1
*
 70
     0
  1
*
  1
*
  0
XRECORD
  5
3A5
102
{ACAD_REACTORS
330
131
102
}
330
131
100
AcDbXrecord
280
     1
  1
HLK
  1
H1*
  1
*
  1
*
 70
     0
  1
*
  1
*
  0
XRECORD
  5
3A6
102
{ACAD_REACTORS
330
131
102
}
330
131
100
AcDbXrecord
280
     1
  1
HOOD
  1
HD*
  1
*
  1
*
 70
     0
  1
*
  1
*
  0
XRECORD
  5
3A7
102
{ACAD_REACTORS
330
131
102
}
330
131
100
AcDbXrecord
280
     1
  1
hotel
  1
*hotel*
  1
*
  1
*
 70
     0
  1
*
  1
*
  0
XRECORD
  5
3A8
102
{ACAD_REACTORS
330
131
102
}
330
131
100
AcDbXrecord
280
     1
  1
HOUSE
  1
*HOUSE*
  1
*
  1
*
 70
     0
  1
*
  1
*
  0
XRECORD
  5
3A9
102
{ACAD_REACTORS
330
131
102
}
330
131
100
AcDbXrecord
280
     1
  1
HTSV
  1
HTSV_P1*
  1
*
  1
*
 70
     0
  1
*
  1
*
  0
XRECORD
  5
3AA
102
{ACAD_REACTORS
330
131
102
}
330
131
100
AcDbXrecord
280
     1
  1
hz
  1
*2h*
  1
*
  1
*
 70
     0
  1
*
  1
*
  0
XRECORD
  5
3AB
102
{ACAD_REACTORS
330
131
102
}
330
131
100
AcDbXrecord
280
     1
  1
HZ-SYM
  1
2h*sym*
  1
*
  1
*
 70
     0
  1
*
  1
*
  0
XRECORD
  5
3AC
102
{ACAD_REACTORS
330
131
102
}
330
131
100
AcDbXrecord
280
     1
  1
hzg
  1
T_*
  1
*
  1
*
 70
     0
  1
*
  1
*
  0
XRECORD
  5
3AD
102
{ACAD_REACTORS
330
131
102
}
330
131
100
AcDbXrecord
280
     1
  1
Höhen
  1
4*
  1
*
  1
*
 70
     0
  1
*
  1
*
  0
XRECORD
  5
3AE
102
{ACAD_REACTORS
330
131
102
}
330
131
100
AcDbXrecord
280
     1
  1
I
  1
*I*
  1
*
  1
*
 70
     0
  1
*
  1
*
  0
XRECORD
  5
3AF
102
{ACAD_REACTORS
330
131
102
}
330
131
100
AcDbXrecord
280
     1
  1
ICERINK
  1
*ICERINK*
  1
*
  1
*
 70
     0
  1
*
  1
*
  0
XRECORD
  5
3B0
102
{ACAD_REACTORS
330
131
102
}
330
131
100
AcDbXrecord
280
     1
  1
ID_P_T0-0
  1
*ID_P_T0-0*
  1
*
  1
*
 70
     0
  1
*
  1
*
  0
XRECORD
  5
3B1
102
{ACAD_REACTORS
330
131
102
}
330
131
100
AcDbXrecord
280
     1
  1
IMP
  1
18,13,14,15,4,8
  1
*
  1
*
 70
     0
  1
*
  1
*
  0
XRECORD
  5
3B2
102
{ACAD_REACTORS
330
131
102
}
330
131
100
AcDbXrecord
280
     1
  1
IMPIANTO
  1
13,14,15,18,8,4
  1
*
  1
*
 70
     0
  1
*
  1
*
  0
XRECORD
  5
3B3
102
{ACAD_REACTORS
330
131
102
}
330
131
100
AcDbXrecord
280
     1
  1
INDICATE THICK LINE OF BULKHEAD
  1
*
  1
*
  1
*
 70
    16
  1
*
  1
*
  0
XRECORD
  5
3B4
102
{ACAD_REACTORS
330
131
102
}
330
131
100
AcDbXrecord
280
     1
  1
infeed chute
  1
*ic-*
  1
*
  1
*
 70
     0
  1
*
  1
*
  0
XRECORD
  5
3B5
102
{ACAD_REACTORS
330
131
102
}
330
131
100
AcDbXrecord
280
     1
  1
Innenausbau
  1
I*
  1
*
  1
*
 70
     0
  1
*
  1
*
  0
XRECORD
  5
3B6
102
{ACAD_REACTORS
330
131
102
}
330
131
100
AcDbXrecord
280
     1
  1
INS
  1
*INS*
  1
*
  1
*
 70
     0
  1
*
  1
*
  0
XRECORD
  5
3B7
102
{ACAD_REACTORS
330
131
102
}
330
131
100
AcDbXrecord
280
     1
  1
Insul
  1
*Insul*
  1
*
  1
*
 70
     0
  1
*
  1
*
  0
XRECORD
  5
3B8
102
{ACAD_REACTORS
330
131
102
}
330
131
100
AcDbXrecord
280
     1
  1
Insulation
  1
*insulation*
  1
*
  1
*
 70
     0
  1
*
  1
*
  0
XRECORD
  5
3B9
102
{ACAD_REACTORS
330
131
102
}
330
131
100
AcDbXrecord
280
     1
  1
IOTA
  1
IOTA*
  1
*
  1
*
 70
     0
  1
*
  1
*
  0
XRECORD
  5
3BA
102
{ACAD_REACTORS
330
131
102
}
330
131
100
AcDbXrecord
280
     1
  1
IP
  1
*
  1
*
  1
*
 70
     0
  1
*
  1
*
  0
XRECORD
  5
3BB
102
{ACAD_REACTORS
330
131
102
}
330
131
100
AcDbXrecord
280
     1
  1
IT
  1
*IT*
  1
*
  1
*
 70
     0
  1
*
  1
*
  0
XRECORD
  5
3BC
102
{ACAD_REACTORS
330
131
102
}
330
131
100
AcDbXrecord
280
     1
  1
J
  1
*J*
  1
*
  1
*
 70
     0
  1
*
  1
*
  0
XRECORD
  5
3BD
102
{ACAD_REACTORS
330
131
102
}
330
131
100
AcDbXrecord
280
     1
  1
J-SECTION
  1
J*
  1
*
  1
*
 70
     0
  1
*
  1
*
  0
XRECORD
  5
3BE
102
{ACAD_REACTORS
330
131
102
}
330
131
100
AcDbXrecord
280
     1
  1
JACKS
  1
JK*
  1
*
  1
*
 70
     0
  1
*
  1
*
  0
XRECORD
  5
3BF
102
{ACAD_REACTORS
330
131
102
}
330
131
100
AcDbXrecord
280
     1
  1
JBHGVHG
  1
BAR*
  1
*
  1
*
 70
     0
  1
*
  1
*
  0
XRECORD
  5
3C0
102
{ACAD_REACTORS
330
131
102
}
330
131
100
AcDbXrecord
280
     1
  1
jcs
  1
*sect*
  1
*
  1
*
 70
     0
  1
*
  1
*
  0
XRECORD
  5
3C1
102
{ACAD_REACTORS
330
131
102
}
330
131
100
AcDbXrecord
280
     1
  1
jen _
  1
_*
  1
*
  1
*
 70
     0
  1
*
  1
*
  0
XRECORD
  5
3C2
102
{ACAD_REACTORS
330
131
102
}
330
131
100
AcDbXrecord
280
     1
  1
jen_
  1
_*
  1
*
  1
*
 70
     0
  1
*
  1
*
  0
XRECORD
  5
3C3
102
{ACAD_REACTORS
330
131
102
}
330
131
100
AcDbXrecord
280
     1
  1
Jet
  1
_*
  1
*
  1
*
 70
     0
  1
*
  1
*
  0
XRECORD
  5
3C4
102
{ACAD_REACTORS
330
131
102
}
330
131
100
AcDbXrecord
280
     1
  1
JIOL[
  1
*
  1
*
  1
*
 70
    13
  1
*
  1
*
  0
XRECORD
  5
3C5
102
{ACAD_REACTORS
330
131
102
}
330
131
100
AcDbXrecord
280
     1
  1
JOINERE SETTING OUT
  1
*
  1
*
  1
*
 70
    16
  1
*
  1
*
  0
XRECORD
  5
3C6
102
{ACAD_REACTORS
330
131
102
}
330
131
100
AcDbXrecord
280
     1
  1
joint
  1
*jt*
  1
*
  1
*
 70
     0
  1
*
  1
*
  0
XRECORD
  5
3C7
102
{ACAD_REACTORS
330
131
102
}
330
131
100
AcDbXrecord
280
     1
  1
JRP
  1
JRP*
  1
*
  1
*
 70
     0
  1
*
  1
*
  0
XRECORD
  5
3C8
102
{ACAD_REACTORS
330
131
102
}
330
131
100
AcDbXrecord
280
     1
  1
JSO
  1
JSO LINE
  1
*
  1
*
 70
     0
  1
*
  1
*
  0
XRECORD
  5
3C9
102
{ACAD_REACTORS
330
131
102
}
330
131
100
AcDbXrecord
280
     1
  1
K
  1
*K*
  1
*
  1
*
 70
     0
  1
*
  1
*
  0
XRECORD
  5
3CA
102
{ACAD_REACTORS
330
131
102
}
330
131
100
AcDbXrecord
280
     1
  1
K_
  1
K_*
  1
*
  1
*
 70
     0
  1
*
  1
*
  0
XRECORD
  5
3CB
102
{ACAD_REACTORS
330
131
102
}
330
131
100
AcDbXrecord
280
     1
  1
K_m
  1
CS*,TZB*,POP*
  1
*
  1
*
 70
     0
  1
*
  1
*
  0
XRECORD
  5
3CC
102
{ACAD_REACTORS
330
131
102
}
330
131
100
AcDbXrecord
280
     1
  1
K_m_S
  1
TZB*,POP*
  1
*
  1
*
 70
     0
  1
*
  1
*
  0
XRECORD
  5
3CD
102
{ACAD_REACTORS
330
131
102
}
330
131
100
AcDbXrecord
280
     1
  1
K_S
  1
CA*,TZB*,POP*
  1
*
  1
*
 70
     0
  1
*
  1
*
  0
XRECORD
  5
3CE
102
{ACAD_REACTORS
330
131
102
}
330
131
100
AcDbXrecord
280
     1
  1
kalf
  1
positiekalf
  1
*
  1
*
 70
     1
  1
*
  1
*
  0
XRECORD
  5
3CF
102
{ACAD_REACTORS
330
131
102
}
330
131
100
AcDbXrecord
280
     1
  1
Kanal
  1
2L_RE*
  1
*
  1
*
 70
     1
  1
*
  1
*
  0
XRECORD
  5
3D0
102
{ACAD_REACTORS
330
131
102
}
330
131
100
AcDbXrecord
280
     1
  1
keith
  1
*
  1
*
  1
*
 70
    13
  1
*
  1
*
  0
XRECORD
  5
3D1
102
{ACAD_REACTORS
330
131
102
}
330
131
100
AcDbXrecord
280
     1
  1
keiths
  1
kn-*
  1
*
  1
*
 70
     0
  1
*
  1
*
  0
XRECORD
  5
3D2
102
{ACAD_REACTORS
330
131
102
}
330
131
100
AcDbXrecord
280
     1
  1
kek
  1
kek*
  1
*
  1
*
 70
     0
  1
*
  1
*
  0
XRECORD
  5
3D3
102
{ACAD_REACTORS
330
131
102
}
330
131
100
AcDbXrecord
280
     1
  1
kelder1e2everd
  1
*
  1
*
  1
*
 70
     4
  1
*
  1
*
  0
XRECORD
  5
3D4
102
{ACAD_REACTORS
330
131
102
}
330
131
100
AcDbXrecord
280
     1
  1
KER
  1
*KER*
  1
*
  1
*
 70
     0
  1
*
  1
*
  0
XRECORD
  5
3D5
102
{ACAD_REACTORS
330
131
102
}
330
131
100
AcDbXrecord
280
     1
  1
KERB
  1
*KERB*
  1
*
  1
*
 70
     0
  1
*
  1
*
  0
XRECORD
  5
3D6
102
{ACAD_REACTORS
330
131
102
}
330
131
100
AcDbXrecord
280
     1
  1
Kerne
  1
KEK*
  1
*
  1
*
 70
     0
  1
*
  1
*
  0
XRECORD
  5
3D7
102
{ACAD_REACTORS
330
131
102
}
330
131
100
AcDbXrecord
280
     1
  1
KITCHEN
  1
KITCHEN*
  1
*
  1
*
 70
     0
  1
*
  1
*
  0
XRECORD
  5
3D8
102
{ACAD_REACTORS
330
131
102
}
330
131
100
AcDbXrecord
280
     1
  1
KITCHEN PLAN
  1
*
  1
*
  1
*
 70
    16
  1
*
  1
*
  0
XRECORD
  5
3D9
102
{ACAD_REACTORS
330
131
102
}
330
131
100
AcDbXrecord
280
     1
  1
KITCHEN SETTING OUT
  1
*
  1
*
  1
*
 70
    16
  1
*
  1
*
  0
XRECORD
  5
3DA
102
{ACAD_REACTORS
330
131
102
}
330
131
100
AcDbXrecord
280
     1
  1
koelie
  1
*koel*
  1
*
  1
*
 70
     0
  1
*
  1
*
  0
XRECORD
  5
3DB
102
{ACAD_REACTORS
330
131
102
}
330
131
100
AcDbXrecord
280
     1
  1
Kälte
  1
H1-K*
  1
*
  1
*
 70
     0
  1
*
  1
*
  0
XRECORD
  5
3DC
102
{ACAD_REACTORS
330
131
102
}
330
131
100
AcDbXrecord
280
     1
  1
Küche
  1
T_kuc*
  1
*
  1
*
 70
     0
  1
*
  1
*
  0
XRECORD
  5
3DD
102
{ACAD_REACTORS
330
131
102
}
330
131
100
AcDbXrecord
280
     1
  1
L
  1
LUCIEN
  1
*
  1
*
 70
     0
  1
*
  1
*
  0
XRECORD
  5
3DE
102
{ACAD_REACTORS
330
131
102
}
330
131
100
AcDbXrecord
280
     1
  1
l-bem
  1
2l*bem
  1
*
  1
*
 70
     0
  1
*
  1
*
  0
XRECORD
  5
3DF
102
{ACAD_REACTORS
330
131
102
}
330
131
100
AcDbXrecord
280
     1
  1
L-SECTION
  1
L*
  1
*
  1
*
 70
     0
  1
*
  1
*
  0
XRECORD
  5
3E0
102
{ACAD_REACTORS
330
131
102
}
330
131
100
AcDbXrecord
280
     1
  1
L__
  1
L__*
  1
*
  1
*
 70
     0
  1
*
  1
*
  0
XRECORD
  5
3E1
102
{ACAD_REACTORS
330
131
102
}
330
131
100
AcDbXrecord
280
     1
  1
L__3D
  1
L__3D*
  1
*
  1
*
 70
     0
  1
*
  1
*
  0
XRECORD
  5
3E2
102
{ACAD_REACTORS
330
131
102
}
330
131
100
AcDbXrecord
280
     1
  1
L_be_texte
  1
L_be_texte*
  1
*
  1
*
 70
     0
  1
*
  1
*
  0
XRECORD
  5
3E3
102
{ACAD_REACTORS
330
131
102
}
330
131
100
AcDbXrecord
280
     1
  1
L_texte
  1
L_texte*
  1
*
  1
*
 70
     0
  1
*
  1
*
  0
XRECORD
  5
3E4
102
{ACAD_REACTORS
330
131
102
}
330
131
100
AcDbXrecord
280
     1
  1
labor
  1
labor*
  1
*
  1
*
 70
     0
  1
*
  1
*
  0
XRECORD
  5
3E5
102
{ACAD_REACTORS
330
131
102
}
330
131
100
AcDbXrecord
280
     1
  1
LAND
  1
*LAND*
  1
*
  1
*
 70
     0
  1
*
  1
*
  0
XRECORD
  5
3E6
102
{ACAD_REACTORS
330
131
102
}
330
131
100
AcDbXrecord
280
     1
  1
land sale
  1
land-sale-*
  1
*
  1
*
 70
     0
  1
*
  1
*
  0
XRECORD
  5
3E7
102
{ACAD_REACTORS
330
131
102
}
330
131
100
AcDbXrecord
280
     1
  1
Landcsape
  1
L-*
  1
*
  1
*
 70
     0
  1
*
  1
*
  0
XRECORD
  5
3E8
102
{ACAD_REACTORS
330
131
102
}
330
131
100
AcDbXrecord
280
     1
  1
landscape
  1
L-*
  1
*
  1
*
 70
     0
  1
*
  1
*
  0
XRECORD
  5
3E9
102
{ACAD_REACTORS
330
131
102
}
330
131
100
AcDbXrecord
280
     1
  1
landscape2
  1
L_*
  1
*
  1
*
 70
     0
  1
*
  1
*
  0
XRECORD
  5
3EA
102
{ACAD_REACTORS
330
131
102
}
330
131
100
AcDbXrecord
280
     1
  1
landscapelayout
  1
b_homerd_dlayt|L_*
  1
*
  1
*
 70
     0
  1
*
  1
*
  0
XRECORD
  5
3EB
102
{ACAD_REACTORS
330
131
102
}
330
131
100
AcDbXrecord
280
     1
  1
layer 8
  1
*
  1
8
  1
*
 70
     0
  1
*
  1
*
  0
XRECORD
  5
3EC
102
{ACAD_REACTORS
330
131
102
}
330
131
100
AcDbXrecord
280
     1
  1
layer-off
  1
*
  1
*
  1
*
 70
    64
  1
*
  1
*
  0
XRECORD
  5
3ED
102
{ACAD_REACTORS
330
131
102
}
330
131
100
AcDbXrecord
280
     1
  1
layers on
  1
*
  1
*
  1
*
 70
     3
  1
*
  1
*
  0
XRECORD
  5
3EE
102
{ACAD_REACTORS
330
131
102
}
330
131
100
AcDbXrecord
280
     1
  1
Layers that are ON
  1
*
  1
*
  1
*
 70
    13
  1
*
  1
*
  0
XRECORD
  5
3EF
102
{ACAD_REACTORS
330
131
102
}
330
131
100
AcDbXrecord
280
     1
  1
LAYOFF
  1
*
  1
*
  1
*
 70
     3
  1
*
  1
*
  0
XRECORD
  5
3F0
102
{ACAD_REACTORS
330
131
102
}
330
131
100
AcDbXrecord
280
     1
  1
layon
  1
*
  1
*
  1
*
 70
     1
  1
*
  1
*
  0
XRECORD
  5
3F1
102
{ACAD_REACTORS
330
131
102
}
330
131
100
AcDbXrecord
280
     1
  1
LAYOUT
  1
*LA_*
  1
*
  1
*
 70
     0
  1
*
  1
*
  0
XRECORD
  5
3F2
102
{ACAD_REACTORS
330
131
102
}
330
131
100
AcDbXrecord
280
     1
  1
laythaw
  1
*
  1
*
  1
*
 70
    12
  1
*
  1
*
  0
XRECORD
  5
3F3
102
{ACAD_REACTORS
330
131
102
}
330
131
100
AcDbXrecord
280
     1
  1
lca
  1
*lca-*
  1
*
  1
*
 70
     0
  1
*
  1
*
  0
XRECORD
  5
3F4
102
{ACAD_REACTORS
330
131
102
}
330
131
100
AcDbXrecord
280
     1
  1
LEASE
  1
*LEAS*
  1
*
  1
*
 70
     0
  1
*
  1
*
  0
XRECORD
  5
3F5
102
{ACAD_REACTORS
330
131
102
}
330
131
100
AcDbXrecord
280
     1
  1
LEDGE
  1
*LEDGE*
  1
*
  1
*
 70
     0
  1
*
  1
*
  0
XRECORD
  5
3F6
102
{ACAD_REACTORS
330
131
102
}
330
131
100
AcDbXrecord
280
     1
  1
leer
  1
*leer
  1
*
  1
*
 70
     0
  1
*
  1
*
  0
XRECORD
  5
3F7
102
{ACAD_REACTORS
330
131
102
}
330
131
100
AcDbXrecord
280
     1
  1
LEGAL
  1
*LD*
  1
*
  1
*
 70
     0
  1
*
  1
*
  0
XRECORD
  5
3F8
102
{ACAD_REACTORS
330
131
102
}
330
131
100
AcDbXrecord
280
     1
  1
legende
  1
*leg*
  1
*
  1
*
 70
     0
  1
*
  1
*
  0
XRECORD
  5
3F9
102
{ACAD_REACTORS
330
131
102
}
330
131
100
AcDbXrecord
280
     1
  1
leit-neu
  1
*leit*neu*
  1
*
  1
*
 70
     0
  1
*
  1
*
  0
XRECORD
  5
3FA
102
{ACAD_REACTORS
330
131
102
}
330
131
100
AcDbXrecord
280
     1
  1
LEVEL
  1
*LEVEL*
  1
*
  1
*
 70
     0
  1
*
  1
*
  0
XRECORD
  5
3FB
102
{ACAD_REACTORS
330
131
102
}
330
131
100
AcDbXrecord
280
     1
  1
Level 0
  1
*-12
  1
*
  1
*
 70
     0
  1
*
  1
*
  0
XRECORD
  5
3FC
102
{ACAD_REACTORS
330
131
102
}
330
131
100
AcDbXrecord
280
     1
  1
level 1 piping
  1
lv1*
  1
*
  1
*
 70
     0
  1
*
  1
*
  0
XRECORD
  5
3FD
102
{ACAD_REACTORS
330
131
102
}
330
131
100
AcDbXrecord
280
     1
  1
Level 12
  1
*-0
  1
*
  1
*
 70
     0
  1
*
  1
*
  0
XRECORD
  5
3FE
102
{ACAD_REACTORS
330
131
102
}
330
131
100
AcDbXrecord
280
     1
  1
level 2 piping
  1
lv2*
  1
*
  1
*
 70
     0
  1
*
  1
*
  0
XRECORD
  5
3FF
102
{ACAD_REACTORS
330
131
102
}
330
131
100
AcDbXrecord
280
     1
  1
LEVELS
  1
*LEVEL*
  1
*
  1
*
 70
     0
  1
*
  1
*
  0
XRECORD
  5
400
102
{ACAD_REACTORS
330
131
102
}
330
131
100
AcDbXrecord
280
     1
  1
LGD
  1
*LGD*
  1
*
  1
*
 70
     0
  1
*
  1
*
  0
XRECORD
  5
401
102
{ACAD_REACTORS
330
131
102
}
330
131
100
AcDbXrecord
280
     1
  1
LIBRARY
  1
LIBRARY*
  1
*
  1
*
 70
     0
  1
*
  1
*
  0
XRECORD
  5
402
102
{ACAD_REACTORS
330
131
102
}
330
131
100
AcDbXrecord
280
     1
  1
licencing
  1
*
  1
*
  1
*
 70
    16
  1
*
  1
*
  0
XRECORD
  5
403
102
{ACAD_REACTORS
330
131
102
}
330
131
100
AcDbXrecord
280
     1
  1
LID
  1
*LID*
  1
*
  1
*
 70
     0
  1
*
  1
*
  0
XRECORD
  5
404
102
{ACAD_REACTORS
330
131
102
}
330
131
100
AcDbXrecord
280
     1
  1
lift
  1
lift*
  1
*
  1
*
 70
     0
  1
*
  1
*
  0
XRECORD
  5
405
102
{ACAD_REACTORS
330
131
102
}
330
131
100
AcDbXrecord
280
     1
  1
LIGHT
  1
LIGHT*
  1
*
  1
*
 70
     0
  1
*
  1
*
  0
XRECORD
  5
406
102
{ACAD_REACTORS
330
131
102
}
330
131
100
AcDbXrecord
280
     1
  1
LIGHTING
  1
*
  1
*
  1
*
 70
    16
  1
*
  1
*
  0
XRECORD
  5
407
102
{ACAD_REACTORS
330
131
102
}
330
131
100
AcDbXrecord
280
     1
  1
LINES
  1
04*
  1
*
  1
*
 70
     4
  1
*
  1
*
  0
XRECORD
  5
408
102
{ACAD_REACTORS
330
131
102
}
330
131
100
AcDbXrecord
280
     1
  1
Linienpunkte
  1
*p
  1
*
  1
*
 70
     0
  1
*
  1
*
  0
XRECORD
  5
409
102
{ACAD_REACTORS
330
131
102
}
330
131
100
AcDbXrecord
280
     1
  1
lo1
  1
2S_AW_AW-ENDSYM
  1
*
  1
*
 70
     0
  1
*
  1
*
  0
XRECORD
  5
40A
102
{ACAD_REACTORS
330
131
102
}
330
131
100
AcDbXrecord
280
     1
  1
LOBBY
  1
LOBBY*
  1
*
  1
*
 70
     0
  1
*
  1
*
  0
XRECORD
  5
40B
102
{ACAD_REACTORS
330
131
102
}
330
131
100
AcDbXrecord
280
     1
  1
LOBBY AND OFFICE
  1
LOBBY*,OFFICE
  1
*
  1
*
 70
     0
  1
*
  1
*
  0
XRECORD
  5
40C
102
{ACAD_REACTORS
330
131
102
}
330
131
100
AcDbXrecord
280
     1
  1
lock
  1
*
  1
*
  1
*
 70
   256
  1
*
  1
*
  0
XRECORD
  5
40D
102
{ACAD_REACTORS
330
131
102
}
330
131
100
AcDbXrecord
280
     1
  1
Locked
  1
*
  1
*
  1
*
 70
   256
  1
*
  1
*
  0
XRECORD
  5
40E
102
{ACAD_REACTORS
330
131
102
}
330
131
100
AcDbXrecord
280
     1
  1
LOCKED-LAYERS
  1
*
  1
*
  1
*
 70
   256
  1
*
  1
*
  0
XRECORD
  5
40F
102
{ACAD_REACTORS
330
131
102
}
330
131
100
AcDbXrecord
280
     1
  1
LREF
  1
*LREF*
  1
*
  1
*
 70
     0
  1
*
  1
*
  0
XRECORD
  5
410
102
{ACAD_REACTORS
330
131
102
}
330
131
100
AcDbXrecord
280
     1
  1
LS DETAIL
  1
L-DET*
  1
*
  1
*
 70
     0
  1
*
  1
*
  0
XRECORD
  5
411
102
{ACAD_REACTORS
330
131
102
}
330
131
100
AcDbXrecord
280
     1
  1
Lscapephase1
  1
Lph-*
  1
*
  1
*
 70
     0
  1
*
  1
*
  0
XRECORD
  5
412
102
{ACAD_REACTORS
330
131
102
}
330
131
100
AcDbXrecord
280
     1
  1
LTA
  1
*
  1
*
  1
*
 70
   768
  1
*
  1
*
  0
XRECORD
  5
413
102
{ACAD_REACTORS
330
131
102
}
330
131
100
AcDbXrecord
280
     1
  1
lu
  1
a-at*
  1
*
  1
*
 70
     3
  1
*
  1
*
  0
XRECORD
  5
414
102
{ACAD_REACTORS
330
131
102
}
330
131
100
AcDbXrecord
280
     1
  1
lu-schraff
  1
*05s
  1
*
  1
*
 70
     0
  1
*
  1
*
  0
XRECORD
  5
415
102
{ACAD_REACTORS
330
131
102
}
330
131
100
AcDbXrecord
280
     1
  1
luft
  1
2l*
  1
*
  1
*
 70
     0
  1
*
  1
*
  0
XRECORD
  5
416
102
{ACAD_REACTORS
330
131
102
}
330
131
100
AcDbXrecord
280
     1
  1
luft-ab
  1
2l*ab*
  1
*
  1
*
 70
     0
  1
*
  1
*
  0
XRECORD
  5
417
102
{ACAD_REACTORS
330
131
102
}
330
131
100
AcDbXrecord
280
     1
  1
luft-alt
  1
l*
  1
*
  1
*
 70
     0
  1
*
  1
*
  0
XRECORD
  5
418
102
{ACAD_REACTORS
330
131
102
}
330
131
100
AcDbXrecord
280
     1
  1
luft-alt-text
  1
*text*
  1
*
  1
*
 70
     0
  1
*
  1
*
  0
XRECORD
  5
419
102
{ACAD_REACTORS
330
131
102
}
330
131
100
AcDbXrecord
280
     1
  1
luft-au
  1
2l*au*
  1
*
  1
*
 70
     0
  1
*
  1
*
  0
XRECORD
  5
41A
102
{ACAD_REACTORS
330
131
102
}
330
131
100
AcDbXrecord
280
     1
  1
luft-bem
  1
2l*bem*
  1
*
  1
*
 70
     0
  1
*
  1
*
  0
XRECORD
  5
41B
102
{ACAD_REACTORS
330
131
102
}
330
131
100
AcDbXrecord
280
     1
  1
luft-bsk
  1
2l*bsk*
  1
*
  1
*
 70
     0
  1
*
  1
*
  0
XRECORD
  5
41C
102
{ACAD_REACTORS
330
131
102
}
330
131
100
AcDbXrecord
280
     1
  1
luft-er
  1
2l*er*
  1
*
  1
*
 70
     0
  1
*
  1
*
  0
XRECORD
  5
41D
102
{ACAD_REACTORS
330
131
102
}
330
131
100
AcDbXrecord
280
     1
  1
luft-fo
  1
2l*fo*
  1
*
  1
*
 70
     0
  1
*
  1
*
  0
XRECORD
  5
41E
102
{ACAD_REACTORS
330
131
102
}
330
131
100
AcDbXrecord
280
     1
  1
luft-g
  1
2l*g*
  1
*
  1
*
 70
     0
  1
*
  1
*
  0
XRECORD
  5
41F
102
{ACAD_REACTORS
330
131
102
}
330
131
100
AcDbXrecord
280
     1
  1
luft-iso
  1
2l*iso
  1
*
  1
*
 70
     0
  1
*
  1
*
  0
XRECORD
  5
420
102
{ACAD_REACTORS
330
131
102
}
330
131
100
AcDbXrecord
280
     1
  1
Luft-Kan
  1
2L_Re-*
  1
*
  1
*
 70
    12
  1
*
  1
*
  0
XRECORD
  5
421
102
{ACAD_REACTORS
330
131
102
}
330
131
100
AcDbXrecord
280
     1
  1
luft-l
  1
2l*l
  1
*
  1
*
 70
     0
  1
*
  1
*
  0
XRECORD
  5
422
102
{ACAD_REACTORS
330
131
102
}
330
131
100
AcDbXrecord
280
     1
  1
luft-sch
  1
2ls*
  1
*
  1
*
 70
     0
  1
*
  1
*
  0
XRECORD
  5
423
102
{ACAD_REACTORS
330
131
102
}
330
131
100
AcDbXrecord
280
     1
  1
luft-sch1
  1
2ls*
  1
*
  1
*
 70
     0
  1
*
  1
*
  0
XRECORD
  5
424
102
{ACAD_REACTORS
330
131
102
}
330
131
100
AcDbXrecord
280
     1
  1
luft-schraff
  1
2L_*05S
  1
*
  1
*
 70
     0
  1
*
  1
*
  0
XRECORD
  5
425
102
{ACAD_REACTORS
330
131
102
}
330
131
100
AcDbXrecord
280
     1
  1
luft-um
  1
2l*um*
  1
*
  1
*
 70
     0
  1
*
  1
*
  0
XRECORD
  5
426
102
{ACAD_REACTORS
330
131
102
}
330
131
100
AcDbXrecord
280
     1
  1
luft-z1
  1
2l*z1*
  1
*
  1
*
 70
     0
  1
*
  1
*
  0
XRECORD
  5
427
102
{ACAD_REACTORS
330
131
102
}
330
131
100
AcDbXrecord
280
     1
  1
luft-z3
  1
2l*z3*
  1
*
  1
*
 70
     0
  1
*
  1
*
  0
XRECORD
  5
428
102
{ACAD_REACTORS
330
131
102
}
330
131
100
AcDbXrecord
280
     1
  1
luft-z4
  1
2l*z4*
  1
*
  1
*
 70
     0
  1
*
  1
*
  0
XRECORD
  5
429
102
{ACAD_REACTORS
330
131
102
}
330
131
100
AcDbXrecord
280
     1
  1
luft-zu0
  1
2l*zu0*
  1
*
  1
*
 70
     0
  1
*
  1
*
  0
XRECORD
  5
42A
102
{ACAD_REACTORS
330
131
102
}
330
131
100
AcDbXrecord
280
     1
  1
luft-zu1
  1
2l*zu1*
  1
*
  1
*
 70
     0
  1
*
  1
*
  0
XRECORD
  5
42B
102
{ACAD_REACTORS
330
131
102
}
330
131
100
AcDbXrecord
280
     1
  1
luft-zu2
  1
2l*zu2*
  1
*
  1
*
 70
     0
  1
*
  1
*
  0
XRECORD
  5
42C
102
{ACAD_REACTORS
330
131
102
}
330
131
100
AcDbXrecord
280
     1
  1
luft-zu3
  1
2l*zu3*
  1
*
  1
*
 70
     0
  1
*
  1
*
  0
XRECORD
  5
42D
102
{ACAD_REACTORS
330
131
102
}
330
131
100
AcDbXrecord
280
     1
  1
luft-zu4
  1
2l*zu4*
  1
*
  1
*
 70
     0
  1
*
  1
*
  0
XRECORD
  5
42E
102
{ACAD_REACTORS
330
131
102
}
330
131
100
AcDbXrecord
280
     1
  1
luftsch
  1
2l_*s
  1
*
  1
*
 70
     0
  1
*
  1
*
  0
XRECORD
  5
42F
102
{ACAD_REACTORS
330
131
102
}
330
131
100
AcDbXrecord
280
     1
  1
LV LAYERS
  1
LV*
  1
*
  1
*
 70
     0
  1
*
  1
*
  0
XRECORD
  5
430
102
{ACAD_REACTORS
330
131
102
}
330
131
100
AcDbXrecord
280
     1
  1
LV1PIPING+EQUIPMENT
  1
LV1*
  1
*
  1
*
 70
     0
  1
*
  1
*
  0
XRECORD
  5
431
102
{ACAD_REACTORS
330
131
102
}
330
131
100
AcDbXrecord
280
     1
  1
LV2 PIPING
  1
LV2*
  1
*
  1
*
 70
     0
  1
*
  1
*
  0
XRECORD
  5
432
102
{ACAD_REACTORS
330
131
102
}
330
131
100
AcDbXrecord
280
     1
  1
lvl
  1
*lvl*
  1
*
  1
*
 70
     0
  1
*
  1
*
  0
XRECORD
  5
433
102
{ACAD_REACTORS
330
131
102
}
330
131
100
AcDbXrecord
280
     1
  1
lüft
  1
l*
  1
*
  1
*
 70
     0
  1
*
  1
*
  0
XRECORD
  5
434
102
{ACAD_REACTORS
330
131
102
}
330
131
100
AcDbXrecord
280
     1
  1
Lüftung
  1
H1-L*
  1
*
  1
*
 70
     0
  1
*
  1
*
  0
XRECORD
  5
435
102
{ACAD_REACTORS
330
131
102
}
330
131
100
AcDbXrecord
280
     1
  1
M
  1
*M*
  1
*
  1
*
 70
     0
  1
*
  1
*
  0
XRECORD
  5
436
102
{ACAD_REACTORS
330
131
102
}
330
131
100
AcDbXrecord
280
     1
  1
M-
  1
M-*
  1
*
  1
*
 70
     0
  1
*
  1
*
  0
XRECORD
  5
437
102
{ACAD_REACTORS
330
131
102
}
330
131
100
AcDbXrecord
280
     1
  1
M-SDUCT-DETAIL
  1
M-SDUCT-DETAIL
  1
*
  1
*
 70
     1
  1
*
  1
*
  0
XRECORD
  5
438
102
{ACAD_REACTORS
330
131
102
}
330
131
100
AcDbXrecord
280
     1
  1
M-SECTION
  1
M*
  1
*
  1
*
 70
     0
  1
*
  1
*
  0
XRECORD
  5
439
102
{ACAD_REACTORS
330
131
102
}
330
131
100
AcDbXrecord
280
     1
  1
M-TF-SECTION
  1
M-TF*
  1
*
  1
*
 70
     0
  1
*
  1
*
  0
XRECORD
  5
43A
102
{ACAD_REACTORS
330
131
102
}
330
131
100
AcDbXrecord
280
     1
  1
m100
  1
m100*
  1
*
  1
*
 70
     0
  1
*
  1
*
  0
XRECORD
  5
43B
102
{ACAD_REACTORS
330
131
102
}
330
131
100
AcDbXrecord
280
     1
  1
m50
  1
m50*
  1
*
  1
*
 70
     0
  1
*
  1
*
  0
XRECORD
  5
43C
102
{ACAD_REACTORS
330
131
102
}
330
131
100
AcDbXrecord
280
     1
  1
magenta
  1
*
  1
6
  1
*
 70
     0
  1
*
  1
*
  0
XRECORD
  5
43D
102
{ACAD_REACTORS
330
131
102
}
330
131
100
AcDbXrecord
280
     1
  1
magenta-bleu
  1
*
  1
magenta,bleu
  1
*
 70
     0
  1
*
  1
*
  0
XRECORD
  5
43E
102
{ACAD_REACTORS
330
131
102
}
330
131
100
AcDbXrecord
280
     1
  1
Magneta
  1
*
  1
Magneta
  1
*
 70
     0
  1
*
  1
*
  0
XRECORD
  5
43F
102
{ACAD_REACTORS
330
131
102
}
330
131
100
AcDbXrecord
280
     1
  1
mark
  1
SE*
  1
*
  1
*
 70
     0
  1
*
  1
*
  0
XRECORD
  5
440
102
{ACAD_REACTORS
330
131
102
}
330
131
100
AcDbXrecord
280
     1
  1
Massen
  1
M*
  1
*
  1
*
 70
     0
  1
*
  1
*
  0
XRECORD
  5
441
102
{ACAD_REACTORS
330
131
102
}
330
131
100
AcDbXrecord
280
     1
  1
Materialien Rohhoehen
  1
RH_*
  1
*
  1
*
 70
     0
  1
*
  1
*
  0
XRECORD
  5
442
102
{ACAD_REACTORS
330
131
102
}
330
131
100
AcDbXrecord
280
     1
  1
Materialien_Belegung
  1
A_gra_bur,A_gra_dbg,A_gra_elt,A_gra_hnf,A_gra_lft,A_gra_nnf,A_gra_tec,A_gra_vf1
  1
*
  1
*
 70
     0
  1
*
  1
*
  0
XRECORD
  5
443
102
{ACAD_REACTORS
330
131
102
}
330
131
100
AcDbXrecord
280
     1
  1
Materialien_Boden
  1
A_gra_ans,A_gra_bad,A_gra_dbe,A_gra_dbl,A_gra_dbt,A_gra_fli,A_gra_hbt,A_gra_kst,A_gra_lft_b,A_gra_pak,A_gra_git
  1
*
  1
*
 70
     0
  1
*
  1
*
  0
XRECORD
  5
444
102
{ACAD_REACTORS
330
131
102
}
330
131
100
AcDbXrecord
280
     1
  1
Materialien_Decke
  1
A_gra_bea,A_gra_bep,A_gra_bta,A_gra_gkt,A_gra_lft_d,A_gra_mek,A_gra_mkk,A_gra_mkl,A_gra_son
  1
*
  1
*
 70
     0
  1
*
  1
*
  0
XRECORD
  5
445
102
{ACAD_REACTORS
330
131
102
}
330
131
100
AcDbXrecord
280
     1
  1
Materialien_Grafik
  1
A_gra*
  1
*
  1
*
 70
     0
  1
*
  1
*
  0
XRECORD
  5
446
102
{ACAD_REACTORS
330
131
102
}
330
131
100
AcDbXrecord
280
     1
  1
Materialien_Lichte_Hoehe
  1
A_gra_lih*
  1
*
  1
*
 70
     0
  1
*
  1
*
  0
XRECORD
  5
447
102
{ACAD_REACTORS
330
131
102
}
330
131
100
AcDbXrecord
280
     1
  1
Materialien_Rohhoehe
  1
A_gra_roh*
  1
*
  1
*
 70
     0
  1
*
  1
*
  0
XRECORD
  5
448
102
{ACAD_REACTORS
330
131
102
}
330
131
100
AcDbXrecord
280
     1
  1
MATT
  1
*MATT*
  1
*
  1
*
 70
     0
  1
*
  1
*
  0
XRECORD
  5
449
102
{ACAD_REACTORS
330
131
102
}
330
131
100
AcDbXrecord
280
     1
  1
MDM1
  1
X0*
  1
*
  1
*
 70
   775
  1
*
  1
*
  0
XRECORD
  5
44A
102
{ACAD_REACTORS
330
131
102
}
330
131
100
AcDbXrecord
280
     1
  1
me
  1
*me*
  1
*
  1
*
 70
     0
  1
*
  1
*
  0
XRECORD
  5
44B
102
{ACAD_REACTORS
330
131
102
}
330
131
100
AcDbXrecord
280
     1
  1
Mech.
  1
m-*
  1
*
  1
*
 70
     0
  1
*
  1
*
  0
XRECORD
  5
44C
102
{ACAD_REACTORS
330
131
102
}
330
131
100
AcDbXrecord
280
     1
  1
medien
  1
*med*
  1
*
  1
*
 70
     0
  1
*
  1
*
  0
XRECORD
  5
44D
102
{ACAD_REACTORS
330
131
102
}
330
131
100
AcDbXrecord
280
     1
  1
MEMBRANE
  1
*
  1
*
  1
*
 70
     0
  1
*
  1
*
  0
XRECORD
  5
44E
102
{ACAD_REACTORS
330
131
102
}
330
131
100
AcDbXrecord
280
     1
  1
MERCEOLOGICO
  1
MQ*
  1
*
  1
*
 70
     0
  1
*
  1
*
  0
XRECORD
  5
44F
102
{ACAD_REACTORS
330
131
102
}
330
131
100
AcDbXrecord
280
     1
  1
Metal
  1
*metal*
  1
*
  1
*
 70
     0
  1
*
  1
*
  0
XRECORD
  5
450
102
{ACAD_REACTORS
330
131
102
}
330
131
100
AcDbXrecord
280
     1
  1
MEZZ
  1
*MEZZ*
  1
*
  1
*
 70
     0
  1
*
  1
*
  0
XRECORD
  5
451
102
{ACAD_REACTORS
330
131
102
}
330
131
100
AcDbXrecord
280
     1
  1
MFI
  1
*MFI*
  1
*
  1
*
 70
     0
  1
*
  1
*
  0
XRECORD
  5
452
102
{ACAD_REACTORS
330
131
102
}
330
131
100
AcDbXrecord
280
     1
  1
MH
  1
*MH*
  1
*
  1
*
 70
     0
  1
*
  1
*
  0
XRECORD
  5
453
102
{ACAD_REACTORS
330
131
102
}
330
131
100
AcDbXrecord
280
     1
  1
Miscellaneous
  1
Misc*
  1
*
  1
*
 70
     0
  1
*
  1
*
  0
XRECORD
  5
454
102
{ACAD_REACTORS
330
131
102
}
330
131
100
AcDbXrecord
280
     1
  1
MIT
  1
*MIT
  1
*
  1
*
 70
     0
  1
*
  1
*
  0
XRECORD
  5
455
102
{ACAD_REACTORS
330
131
102
}
330
131
100
AcDbXrecord
280
     1
  1
mixte
  1
*
  1
*
  1
mixte
 70
     0
  1
*
  1
*
  0
XRECORD
  5
456
102
{ACAD_REACTORS
330
131
102
}
330
131
100
AcDbXrecord
280
     1
  1
MN EQUIP PIPING
  1
MN*
  1
*
  1
*
 70
     0
  1
*
  1
*
  0
XRECORD
  5
457
102
{ACAD_REACTORS
330
131
102
}
330
131
100
AcDbXrecord
280
     1
  1
MN layers
  1
MN*
  1
*
  1
*
 70
     0
  1
*
  1
*
  0
XRECORD
  5
458
102
{ACAD_REACTORS
330
131
102
}
330
131
100
AcDbXrecord
280
     1
  1
model
  1
AAMODEL*
  1
*
  1
*
 70
     0
  1
*
  1
*
  0
XRECORD
  5
459
102
{ACAD_REACTORS
330
131
102
}
330
131
100
AcDbXrecord
280
     1
  1
Muennich
  1
M*
  1
*
  1
*
 70
     0
  1
*
  1
*
  0
XRECORD
  5
45A
102
{ACAD_REACTORS
330
131
102
}
330
131
100
AcDbXrecord
280
     1
  1
MV-Off
  1
*
  1
*
  1
*
 70
    16
  1
*
  1
*
  0
XRECORD
  5
45B
102
{ACAD_REACTORS
330
131
102
}
330
131
100
AcDbXrecord
280
     1
  1
mvgregistreation
  1
*mvgreistration*
  1
*
  1
*
 70
     0
  1
*
  1
*
  0
XRECORD
  5
45C
102
{ACAD_REACTORS
330
131
102
}
330
131
100
AcDbXrecord
280
     1
  1
MXAA
  1
*
  1
*
  1
*
 70
     0
  1
*
  1
*
  0
XRECORD
  5
45D
102
{ACAD_REACTORS
330
131
102
}
330
131
100
AcDbXrecord
280
     1
  1
mz
  1
*mz
  1
*
  1
*
 70
     0
  1
*
  1
*
  0
XRECORD
  5
45E
102
{ACAD_REACTORS
330
131
102
}
330
131
100
AcDbXrecord
280
     1
  1
N
  1
*DEMO*
  1
*
  1
*
 70
     0
  1
*
  1
*
  0
XRECORD
  5
45F
102
{ACAD_REACTORS
330
131
102
}
330
131
100
AcDbXrecord
280
     1
  1
NAS1NSITE
  1
*
  1
*
  1
*
 70
     0
  1
*
  1
*
  0
XRECORD
  5
460
102
{ACAD_REACTORS
330
131
102
}
330
131
100
AcDbXrecord
280
     1
  1
NBF_
  1
NBF_
  1
*
  1
*
 70
     0
  1
*
  1
*
  0
XRECORD
  5
461
102
{ACAD_REACTORS
330
131
102
}
330
131
100
AcDbXrecord
280
     1
  1
neal
  1
neal*|*
  1
*
  1
*
 70
     0
  1
*
  1
*
  0
XRECORD
  5
462
102
{ACAD_REACTORS
330
131
102
}
330
131
100
AcDbXrecord
280
     1
  1
NECADKON
  1
~*?[KAHBSM]?????[23M]*
  1
*
  1
*
 70
     0
  1
*
  1
*
  0
XRECORD
  5
463
102
{ACAD_REACTORS
330
131
102
}
330
131
100
AcDbXrecord
280
     1
  1
nelf
  1
*nelf*
  1
*
  1
*
 70
     0
  1
*
  1
*
  0
XRECORD
  5
464
102
{ACAD_REACTORS
330
131
102
}
330
131
100
AcDbXrecord
280
     1
  1
NERO
  1
NERO*
  1
*
  1
*
 70
     0
  1
*
  1
*
  0
XRECORD
  5
465
102
{ACAD_REACTORS
330
131
102
}
330
131
100
AcDbXrecord
280
     1
  1
net
  1
*net*
  1
*
  1
*
 70
     0
  1
*
  1
*
  0
XRECORD
  5
466
102
{ACAD_REACTORS
330
131
102
}
330
131
100
AcDbXrecord
280
     1
  1
neu
  1
*neu*
  1
*
  1
*
 70
     0
  1
*
  1
*
  0
XRECORD
  5
467
102
{ACAD_REACTORS
330
131
102
}
330
131
100
AcDbXrecord
280
     1
  1
new
  1
*new
  1
*
  1
*
 70
     0
  1
*
  1
*
  0
XRECORD
  5
468
102
{ACAD_REACTORS
330
131
102
}
330
131
100
AcDbXrecord
280
     1
  1
NEW-STORM
  1
x-nutils|C-P2A?S?-STORM*
  1
*
  1
*
 70
     0
  1
*
  1
*
  0
XRECORD
  5
469
102
{ACAD_REACTORS
330
131
102
}
330
131
100
AcDbXrecord
280
     1
  1
NO CANDADO NO CONGELADO
  1
*
  1
*
  1
*
 70
   260
  1
*
  1
*
  0
XRECORD
  5
46A
102
{ACAD_REACTORS
330
131
102
}
330
131
100
AcDbXrecord
280
     1
  1
NON XREF DEPENDANTS
  1
*DEMO*
  1
*
  1
*
 70
     0
  1
*
  1
*
  0
XRECORD
  5
46B
102
{ACAD_REACTORS
330
131
102
}
330
131
100
AcDbXrecord
280
     1
  1
NonXref
  1
x-*
  1
*
  1
*
 70
     0
  1
*
  1
*
  0
XRECORD
  5
46C
102
{ACAD_REACTORS
330
131
102
}
330
131
100
AcDbXrecord
280
     1
  1
NORTH
  1
*NORTH*
  1
*
  1
*
 70
     0
  1
*
  1
*
  0
XRECORD
  5
46D
102
{ACAD_REACTORS
330
131
102
}
330
131
100
AcDbXrecord
280
     1
  1
Not required
  1
*
  1
*
  1
*
 70
     0
  1
*
  1
*
  0
XRECORD
  5
46E
102
{ACAD_REACTORS
330
131
102
}
330
131
100
AcDbXrecord
280
     1
  1
not3d
  1
~3d*
  1
*
  1
*
 70
     0
  1
*
  1
*
  0
XRECORD
  5
46F
102
{ACAD_REACTORS
330
131
102
}
330
131
100
AcDbXrecord
280
     1
  1
note
  1
*not*
  1
*
  1
*
 70
     0
  1
*
  1
*
  0
XRECORD
  5
470
102
{ACAD_REACTORS
330
131
102
}
330
131
100
AcDbXrecord
280
     1
  1
NotXref
  1
x-*
  1
*
  1
*
 70
     0
  1
*
  1
*
  0
XRECORD
  5
471
102
{ACAD_REACTORS
330
131
102
}
330
131
100
AcDbXrecord
280
     1
  1
np-
  1
*np*
  1
*
  1
*
 70
     0
  1
*
  1
*
  0
XRECORD
  5
472
102
{ACAD_REACTORS
330
131
102
}
330
131
100
AcDbXrecord
280
     1
  1
np-arc
  1
*np-arch
  1
*
  1
*
 70
     0
  1
*
  1
*
  0
XRECORD
  5
473
102
{ACAD_REACTORS
330
131
102
}
330
131
100
AcDbXrecord
280
     1
  1
nur neue Layer
  1
Ab*
  1
*
  1
*
 70
     0
  1
*
  1
*
  0
XRECORD
  5
474
102
{ACAD_REACTORS
330
131
102
}
330
131
100
AcDbXrecord
280
     1
  1
O
  1
*O*
  1
*
  1
*
 70
     0
  1
*
  1
*
  0
XRECORD
  5
475
102
{ACAD_REACTORS
330
131
102
}
330
131
100
AcDbXrecord
280
     1
  1
off
  1
*
  1
*
  1
*
 70
     3
  1
*
  1
*
  0
XRECORD
  5
476
102
{ACAD_REACTORS
330
131
102
}
330
131
100
AcDbXrecord
280
     1
  1
off layers
  1
*
  1
*
  1
*
 70
     3
  1
*
  1
*
  0
XRECORD
  5
477
102
{ACAD_REACTORS
330
131
102
}
330
131
100
AcDbXrecord
280
     1
  1
off+thaw
  1
*
  1
*
  1
*
 70
    15
  1
*
  1
*
  0
XRECORD
  5
478
102
{ACAD_REACTORS
330
131
102
}
330
131
100
AcDbXrecord
280
     1
  1
off_frozen
  1
*
  1
*
  1
*
 70
     7
  1
*
  1
*
  0
XRECORD
  5
479
102
{ACAD_REACTORS
330
131
102
}
330
131
100
AcDbXrecord
280
     1
  1
OFFACTIVE
  1
*
  1
*
  1
*
 70
    16
  1
*
  1
*
  0
XRECORD
  5
47A
102
{ACAD_REACTORS
330
131
102
}
330
131
100
AcDbXrecord
280
     1
  1
OFFICE
  1
*OFFICE*
  1
*
  1
*
 70
     0
  1
*
  1
*
  0
XRECORD
  5
47B
102
{ACAD_REACTORS
330
131
102
}
330
131
100
AcDbXrecord
280
     1
  1
OFFS
  1
*SO-*
  1
*
  1
*
 70
     0
  1
*
  1
*
  0
XRECORD
  5
47C
102
{ACAD_REACTORS
330
131
102
}
330
131
100
AcDbXrecord
280
     1
  1
Offset
  1
1*
  1
*
  1
*
 70
     0
  1
*
  1
*
  0
XRECORD
  5
47D
102
{ACAD_REACTORS
330
131
102
}
330
131
100
AcDbXrecord
280
     1
  1
Ohne Xrefs
  1
~*|*
  1
*
  1
*
 70
     0
  1
*
  1
*
  0
XRECORD
  5
47E
102
{ACAD_REACTORS
330
131
102
}
330
131
100
AcDbXrecord
280
     1
  1
oi
  1
*stai*
  1
*
  1
*
 70
     0
  1
*
  1
*
  0
XRECORD
  5
47F
102
{ACAD_REACTORS
330
131
102
}
330
131
100
AcDbXrecord
280
     1
  1
OLD
  1
*OLD*
  1
*
  1
*
 70
     0
  1
*
  1
*
  0
XRECORD
  5
480
102
{ACAD_REACTORS
330
131
102
}
330
131
100
AcDbXrecord
280
     1
  1
on
  1
*
  1
*
  1
*
 70
     1
  1
*
  1
*
  0
XRECORD
  5
481
102
{ACAD_REACTORS
330
131
102
}
330
131
100
AcDbXrecord
280
     1
  1
on and thawed
  1
*
  1
*
  1
*
 70
    13
  1
*
  1
*
  0
XRECORD
  5
482
102
{ACAD_REACTORS
330
131
102
}
330
131
100
AcDbXrecord
280
     1
  1
onlayers
  1
*
  1
*
  1
*
 70
    13
  1
*
  1
*
  0
XRECORD
  5
483
102
{ACAD_REACTORS
330
131
102
}
330
131
100
AcDbXrecord
280
     1
  1
OOPS
  1
443C*
  1
*
  1
*
 70
     0
  1
*
  1
*
  0
XRECORD
  5
484
102
{ACAD_REACTORS
330
131
102
}
330
131
100
AcDbXrecord
280
     1
  1
op
  1
*op
  1
*
  1
*
 70
     0
  1
*
  1
*
  0
XRECORD
  5
485
102
{ACAD_REACTORS
330
131
102
}
330
131
100
AcDbXrecord
280
     1
  1
option 1
  1
1*
  1
*
  1
*
 70
     0
  1
*
  1
*
  0
XRECORD
  5
486
102
{ACAD_REACTORS
330
131
102
}
330
131
100
AcDbXrecord
280
     1
  1
option 2
  1
2*
  1
*
  1
*
 70
     0
  1
*
  1
*
  0
XRECORD
  5
487
102
{ACAD_REACTORS
330
131
102
}
330
131
100
AcDbXrecord
280
     1
  1
Option2
  1
Optn2*
  1
*
  1
*
 70
     0
  1
*
  1
*
  0
XRECORD
  5
488
102
{ACAD_REACTORS
330
131
102
}
330
131
100
AcDbXrecord
280
     1
  1
ORIG
  1
*
  1
*
  1
*
 70
     0
  1
*
  1
*
  0
XRECORD
  5
489
102
{ACAD_REACTORS
330
131
102
}
330
131
100
AcDbXrecord
280
     1
  1
OS Map
  1
g*
  1
*
  1
*
 70
     0
  1
*
  1
*
  0
XRECORD
  5
48A
102
{ACAD_REACTORS
330
131
102
}
330
131
100
AcDbXrecord
280
     1
  1
ost
  1
*
  1
*
  1
*
 70
     0
  1
*
  1
*
  0
XRECORD
  5
48B
102
{ACAD_REACTORS
330
131
102
}
330
131
100
AcDbXrecord
280
     1
  1
OU
  1
OU-AREA*,*grid*
  1
*
  1
*
 70
     0
  1
*
  1
*
  0
XRECORD
  5
48C
102
{ACAD_REACTORS
330
131
102
}
330
131
100
AcDbXrecord
280
     1
  1
ou-area
  1
ou-area*
  1
*
  1
*
 70
     0
  1
*
  1
*
  0
XRECORD
  5
48D
102
{ACAD_REACTORS
330
131
102
}
330
131
100
AcDbXrecord
280
     1
  1
OUT
  1
*OUT*
  1
*
  1
*
 70
     0
  1
*
  1
*
  0
XRECORD
  5
48E
102
{ACAD_REACTORS
330
131
102
}
330
131
100
AcDbXrecord
280
     1
  1
outl
  1
*
  1
green
  1
*
 70
     0
  1
*
  1
*
  0
XRECORD
  5
48F
102
{ACAD_REACTORS
330
131
102
}
330
131
100
AcDbXrecord
280
     1
  1
OUTLINE
  1
*OU-*
  1
*
  1
*
 70
     0
  1
*
  1
*
  0
XRECORD
  5
490
102
{ACAD_REACTORS
330
131
102
}
330
131
100
AcDbXrecord
280
     1
  1
OUTSIDE
  1
*
  1
*
  1
*
 70
     0
  1
*
  1
*
  0
XRECORD
  5
491
102
{ACAD_REACTORS
330
131
102
}
330
131
100
AcDbXrecord
280
     1
  1
P
  1
*
  1
50
  1
*
 70
     4
  1
*
  1
*
  0
XRECORD
  5
492
102
{ACAD_REACTORS
330
131
102
}
330
131
100
AcDbXrecord
280
     1
  1
P1
  1
*P1*
  1
*
  1
*
 70
     0
  1
*
  1
*
  0
XRECORD
  5
493
102
{ACAD_REACTORS
330
131
102
}
330
131
100
AcDbXrecord
280
     1
  1
P2
  1
*P2*
  1
*
  1
*
 70
     0
  1
*
  1
*
  0
XRECORD
  5
494
102
{ACAD_REACTORS
330
131
102
}
330
131
100
AcDbXrecord
280
     1
  1
p2-LAYERS
  1
c-p2a?s?-*
  1
*
  1
*
 70
     0
  1
*
  1
*
  0
XRECORD
  5
495
102
{ACAD_REACTORS
330
131
102
}
330
131
100
AcDbXrecord
280
     1
  1
p2-san
  1
c-p2a?s?-sswr*
  1
*
  1
*
 70
     0
  1
*
  1
*
  0
XRECORD
  5
496
102
{ACAD_REACTORS
330
131
102
}
330
131
100
AcDbXrecord
280
     1
  1
P2-STORM
  1
C-P2A?S?-STRM*
  1
*
  1
*
 70
     0
  1
*
  1
*
  0
XRECORD
  5
497
102
{ACAD_REACTORS
330
131
102
}
330
131
100
AcDbXrecord
280
     1
  1
p2a4s1
  1
c-p2a4s1*
  1
*
  1
*
 70
     0
  1
*
  1
*
  0
XRECORD
  5
498
102
{ACAD_REACTORS
330
131
102
}
330
131
100
AcDbXrecord
280
     1
  1
p2a5
  1
c-p2a5s*
  1
*
  1
*
 70
     0
  1
*
  1
*
  0
XRECORD
  5
499
102
{ACAD_REACTORS
330
131
102
}
330
131
100
AcDbXrecord
280
     1
  1
pa
  1
*pa*
  1
*
  1
*
 70
     0
  1
*
  1
*
  0
XRECORD
  5
49A
102
{ACAD_REACTORS
330
131
102
}
330
131
100
AcDbXrecord
280
     1
  1
PAN
  1
PN*
  1
*
  1
*
 70
     0
  1
*
  1
*
  0
XRECORD
  5
49B
102
{ACAD_REACTORS
330
131
102
}
330
131
100
AcDbXrecord
280
     1
  1
parking
  1
*parking*
  1
*
  1
*
 70
     0
  1
*
  1
*
  0
XRECORD
  5
49C
102
{ACAD_REACTORS
330
131
102
}
330
131
100
AcDbXrecord
280
     1
  1
PARTITION
  1
*PARTITION*
  1
*
  1
*
 70
     0
  1
*
  1
*
  0
XRECORD
  5
49D
102
{ACAD_REACTORS
330
131
102
}
330
131
100
AcDbXrecord
280
     1
  1
PARTY
  1
*PARTY*
  1
*
  1
*
 70
     0
  1
*
  1
*
  0
XRECORD
  5
49E
102
{ACAD_REACTORS
330
131
102
}
330
131
100
AcDbXrecord
280
     1
  1
PATH
  1
*PATH*
  1
*
  1
*
 70
     0
  1
*
  1
*
  0
XRECORD
  5
49F
102
{ACAD_REACTORS
330
131
102
}
330
131
100
AcDbXrecord
280
     1
  1
PB
  1
PB*
  1
*
  1
*
 70
     0
  1
*
  1
*
  0
XRECORD
  5
4A0
102
{ACAD_REACTORS
330
131
102
}
330
131
100
AcDbXrecord
280
     1
  1
pb-nv
  1
pb*nv*
  1
*
  1
*
 70
     0
  1
*
  1
*
  0
XRECORD
  5
4A1
102
{ACAD_REACTORS
330
131
102
}
330
131
100
AcDbXrecord
280
     1
  1
PBA
  1
A*
  1
*
  1
*
 70
     0
  1
*
  1
*
  0
XRECORD
  5
4A2
102
{ACAD_REACTORS
330
131
102
}
330
131
100
AcDbXrecord
280
     1
  1
people
  1
*peo*
  1
*
  1
*
 70
     0
  1
*
  1
*
  0
XRECORD
  5
4A3
102
{ACAD_REACTORS
330
131
102
}
330
131
100
AcDbXrecord
280
     1
  1
PF
  1
PF*
  1
*
  1
*
 70
     0
  1
*
  1
*
  0
XRECORD
  5
4A4
102
{ACAD_REACTORS
330
131
102
}
330
131
100
AcDbXrecord
280
     1
  1
Pflanzplan
  1
*
  1
*
  1
*
 70
     0
  1
*
  1
*
  0
XRECORD
  5
4A5
102
{ACAD_REACTORS
330
131
102
}
330
131
100
AcDbXrecord
280
     1
  1
PH
  1
PH*
  1
*
  1
*
 70
     0
  1
*
  1
*
  0
XRECORD
  5
4A6
102
{ACAD_REACTORS
330
131
102
}
330
131
100
AcDbXrecord
280
     1
  1
PH-3-PROP_
  1
PH-3-PROP_*
  1
*
  1
*
 70
     0
  1
*
  1
*
  0
XRECORD
  5
4A7
102
{ACAD_REACTORS
330
131
102
}
330
131
100
AcDbXrecord
280
     1
  1
ph2
  1
ph2-*
  1
*
  1
*
 70
     0
  1
*
  1
*
  0
XRECORD
  5
4A8
102
{ACAD_REACTORS
330
131
102
}
330
131
100
AcDbXrecord
280
     1
  1
PHAN
  1
*PHAN*
  1
*
  1
*
 70
     0
  1
*
  1
*
  0
XRECORD
  5
4A9
102
{ACAD_REACTORS
330
131
102
}
330
131
100
AcDbXrecord
280
     1
  1
PHASE
  1
*PHASE*
  1
*
  1
*
 70
     0
  1
*
  1
*
  0
XRECORD
  5
4AA
102
{ACAD_REACTORS
330
131
102
}
330
131
100
AcDbXrecord
280
     1
  1
phase 1
  1
c-p1*
  1
*
  1
*
 70
     0
  1
*
  1
*
  0
XRECORD
  5
4AB
102
{ACAD_REACTORS
330
131
102
}
330
131
100
AcDbXrecord
280
     1
  1
Phase 2
  1
*
  1
*
  1
*
 70
    13
  1
*
  1
*
  0
XRECORD
  5
4AC
102
{ACAD_REACTORS
330
131
102
}
330
131
100
AcDbXrecord
280
     1
  1
phase 3
  1
phase-3-*
  1
*
  1
*
 70
     0
  1
*
  1
*
  0
XRECORD
  5
4AD
102
{ACAD_REACTORS
330
131
102
}
330
131
100
AcDbXrecord
280
     1
  1
phase 3 & 4
  1
phase-*
  1
*
  1
*
 70
     0
  1
*
  1
*
  0
XRECORD
  5
4AE
102
{ACAD_REACTORS
330
131
102
}
330
131
100
AcDbXrecord
280
     1
  1
phase 4
  1
phase-4-*
  1
*
  1
*
 70
     0
  1
*
  1
*
  0
XRECORD
  5
4AF
102
{ACAD_REACTORS
330
131
102
}
330
131
100
AcDbXrecord
280
     1
  1
PHIL
  1
*
  1
*
  1
*
 70
    16
  1
*
  1
*
  0
XRECORD
  5
4B0
102
{ACAD_REACTORS
330
131
102
}
330
131
100
AcDbXrecord
280
     1
  1
PILE CAP
  1
AF*,PCAP*,0,VIEW*,DETA*
  1
*
  1
*
 70
     0
  1
*
  1
*
  0
XRECORD
  5
4B1
102
{ACAD_REACTORS
330
131
102
}
330
131
100
AcDbXrecord
280
     1
  1
PILE LAYOUT
  1
AF-GR*,PILE*,0,VIEW*,DETA*
  1
*
  1
*
 70
     0
  1
*
  1
*
  0
XRECORD
  5
4B2
102
{ACAD_REACTORS
330
131
102
}
330
131
100
AcDbXrecord
280
     1
  1
PILE01
  1
*PILE0*
  1
*
  1
*
 70
     0
  1
*
  1
*
  0
XRECORD
  5
4B3
102
{ACAD_REACTORS
330
131
102
}
330
131
100
AcDbXrecord
280
     1
  1
PIN-Communikation
  1
C_*
  1
*
  1
*
 70
     0
  1
*
  1
*
  0
XRECORD
  5
4B4
102
{ACAD_REACTORS
330
131
102
}
330
131
100
AcDbXrecord
280
     1
  1
PIN-Elektro
  1
E_*
  1
*
  1
*
 70
     0
  1
*
  1
*
  0
XRECORD
  5
4B5
102
{ACAD_REACTORS
330
131
102
}
330
131
100
AcDbXrecord
280
     1
  1
pinze
  1
*pinz*
  1
*
  1
*
 70
     0
  1
*
  1
*
  0
XRECORD
  5
4B6
102
{ACAD_REACTORS
330
131
102
}
330
131
100
AcDbXrecord
280
     1
  1
PIPE
  1
P-*
  1
*
  1
*
 70
     0
  1
*
  1
*
  0
XRECORD
  5
4B7
102
{ACAD_REACTORS
330
131
102
}
330
131
100
AcDbXrecord
280
     1
  1
Pipework
  1
*Pipe*
  1
*
  1
*
 70
     0
  1
*
  1
*
  0
XRECORD
  5
4B8
102
{ACAD_REACTORS
330
131
102
}
330
131
100
AcDbXrecord
280
     1
  1
PIPING
  1
MNPR*
  1
*
  1
*
 70
     0
  1
*
  1
*
  0
XRECORD
  5
4B9
102
{ACAD_REACTORS
330
131
102
}
330
131
100
AcDbXrecord
280
     1
  1
PIZZA
  1
PIZZA*,2D*
  1
*
  1
*
 70
     0
  1
*
  1
*
  0
XRECORD
  5
4BA
102
{ACAD_REACTORS
330
131
102
}
330
131
100
AcDbXrecord
280
     1
  1
pk 2d-plan
  1
*
  1
*
  1
*
 70
     3
  1
*
  1
*
  0
XRECORD
  5
4BB
102
{ACAD_REACTORS
330
131
102
}
330
131
100
AcDbXrecord
280
     1
  1
pl
  1
site-01:pl*
  1
*
  1
*
 70
     0
  1
*
  1
*
  0
XRECORD
  5
4BC
102
{ACAD_REACTORS
330
131
102
}
330
131
100
AcDbXrecord
280
     1
  1
PLAN
  1
*PLAN*
  1
*
  1
*
 70
     0
  1
*
  1
*
  0
XRECORD
  5
4BD
102
{ACAD_REACTORS
330
131
102
}
330
131
100
AcDbXrecord
280
     1
  1
plan1g-col
  1
plan1g*col*
  1
*
  1
*
 70
     0
  1
*
  1
*
  0
XRECORD
  5
4BE
102
{ACAD_REACTORS
330
131
102
}
330
131
100
AcDbXrecord
280
     1
  1
plan1g-con
  1
plan1g*con*
  1
*
  1
*
 70
     0
  1
*
  1
*
  0
XRECORD
  5
4BF
102
{ACAD_REACTORS
330
131
102
}
330
131
100
AcDbXrecord
280
     1
  1
plan1g-do
  1
plan1g*do*
  1
*
  1
*
 70
     0
  1
*
  1
*
  0
XRECORD
  5
4C0
102
{ACAD_REACTORS
330
131
102
}
330
131
100
AcDbXrecord
280
     1
  1
plan1g-gri
  1
plan1g*gri*
  1
*
  1
*
 70
     0
  1
*
  1
*
  0
XRECORD
  5
4C1
102
{ACAD_REACTORS
330
131
102
}
330
131
100
AcDbXrecord
280
     1
  1
plan1g-wal
  1
plan1g*wal*
  1
*
  1
*
 70
     0
  1
*
  1
*
  0
XRECORD
  5
4C2
102
{ACAD_REACTORS
330
131
102
}
330
131
100
AcDbXrecord
280
     1
  1
plan1g-walls
  1
plan1g*wal*
  1
*
  1
*
 70
     0
  1
*
  1
*
  0
XRECORD
  5
4C3
102
{ACAD_REACTORS
330
131
102
}
330
131
100
AcDbXrecord
280
     1
  1
plan1g-win
  1
plan1g*win*
  1
*
  1
*
 70
     0
  1
*
  1
*
  0
XRECORD
  5
4C4
102
{ACAD_REACTORS
330
131
102
}
330
131
100
AcDbXrecord
280
     1
  1
plan1gr-16-02
  1
*plan1gr-16-02*
  1
*
  1
*
 70
     0
  1
*
  1
*
  0
XRECORD
  5
4C5
102
{ACAD_REACTORS
330
131
102
}
330
131
100
AcDbXrecord
280
     1
  1
plan2g-col
  1
plan2g*col*
  1
*
  1
*
 70
     0
  1
*
  1
*
  0
XRECORD
  5
4C6
102
{ACAD_REACTORS
330
131
102
}
330
131
100
AcDbXrecord
280
     1
  1
plan2g-con
  1
plan2g*con*
  1
*
  1
*
 70
     0
  1
*
  1
*
  0
XRECORD
  5
4C7
102
{ACAD_REACTORS
330
131
102
}
330
131
100
AcDbXrecord
280
     1
  1
plan2g-do
  1
plan2g*do*
  1
*
  1
*
 70
     0
  1
*
  1
*
  0
XRECORD
  5
4C8
102
{ACAD_REACTORS
330
131
102
}
330
131
100
AcDbXrecord
280
     1
  1
plan2g-wal
  1
plan2g*wal*
  1
*
  1
*
 70
     0
  1
*
  1
*
  0
XRECORD
  5
4C9
102
{ACAD_REACTORS
330
131
102
}
330
131
100
AcDbXrecord
280
     1
  1
plan6g
  1
plan6g*dim*
  1
*
  1
*
 70
     0
  1
*
  1
*
  0
XRECORD
  5
4CA
102
{ACAD_REACTORS
330
131
102
}
330
131
100
AcDbXrecord
280
     1
  1
plan6g-16-02
  1
plan6g*text.*
  1
*
  1
*
 70
     0
  1
*
  1
*
  0
XRECORD
  5
4CB
102
{ACAD_REACTORS
330
131
102
}
330
131
100
AcDbXrecord
280
     1
  1
Planes
  1
AP*
  1
*
  1
*
 70
     0
  1
*
  1
*
  0
XRECORD
  5
4CC
102
{ACAD_REACTORS
330
131
102
}
330
131
100
AcDbXrecord
280
     1
  1
PLANG4
  1
PLANG4*COL*
  1
*
  1
*
 70
     0
  1
*
  1
*
  0
XRECORD
  5
4CD
102
{ACAD_REACTORS
330
131
102
}
330
131
100
AcDbXrecord
280
     1
  1
plans
  1
plans*
  1
*
  1
*
 70
     0
  1
*
  1
*
  0
XRECORD
  5
4CE
102
{ACAD_REACTORS
330
131
102
}
330
131
100
AcDbXrecord
280
     1
  1
plant
  1
*-plant
  1
*
  1
*
 70
     0
  1
*
  1
*
  0
XRECORD
  5
4CF
102
{ACAD_REACTORS
330
131
102
}
330
131
100
AcDbXrecord
280
     1
  1
PLASTER
  1
*PLAS*
  1
*
  1
*
 70
     0
  1
*
  1
*
  0
XRECORD
  5
4D0
102
{ACAD_REACTORS
330
131
102
}
330
131
100
AcDbXrecord
280
     1
  1
PLBG
  1
P_*
  1
*
  1
*
 70
     0
  1
*
  1
*
  0
XRECORD
  5
4D1
102
{ACAD_REACTORS
330
131
102
}
330
131
100
AcDbXrecord
280
     1
  1
pllayer
  1
pl*
  1
*
  1
*
 70
     0
  1
*
  1
*
  0
XRECORD
  5
4D2
102
{ACAD_REACTORS
330
131
102
}
330
131
100
AcDbXrecord
280
     1
  1
PLOT
  1
*PLOT*
  1
*
  1
*
 70
     0
  1
*
  1
*
  0
XRECORD
  5
4D3
102
{ACAD_REACTORS
330
131
102
}
330
131
100
AcDbXrecord
280
     1
  1
Plumbing
  1
p-*
  1
*
  1
*
 70
     0
  1
*
  1
*
  0
XRECORD
  5
4D4
102
{ACAD_REACTORS
330
131
102
}
330
131
100
AcDbXrecord
280
     1
  1
POINT
  1
*POINT*
  1
*
  1
*
 70
     0
  1
*
  1
*
  0
XRECORD
  5
4D5
102
{ACAD_REACTORS
330
131
102
}
330
131
100
AcDbXrecord
280
     1
  1
polly
  1
*polly*
  1
*
  1
*
 70
     0
  1
*
  1
*
  0
XRECORD
  5
4D6
102
{ACAD_REACTORS
330
131
102
}
330
131
100
AcDbXrecord
280
     1
  1
Polylinien
  1
*POL*
  1
*
  1
*
 70
     0
  1
*
  1
*
  0
XRECORD
  5
4D7
102
{ACAD_REACTORS
330
131
102
}
330
131
100
AcDbXrecord
280
     1
  1
porch
  1
porch*
  1
*
  1
*
 70
     0
  1
*
  1
*
  0
XRECORD
  5
4D8
102
{ACAD_REACTORS
330
131
102
}
330
131
100
AcDbXrecord
280
     1
  1
pos_txt
  1
*pos_txt
  1
*
  1
*
 70
     0
  1
*
  1
*
  0
XRECORD
  5
4D9
102
{ACAD_REACTORS
330
131
102
}
330
131
100
AcDbXrecord
280
     1
  1
POWER
  1
E_POWR*
  1
*
  1
*
 70
     0
  1
*
  1
*
  0
XRECORD
  5
4DA
102
{ACAD_REACTORS
330
131
102
}
330
131
100
AcDbXrecord
280
     1
  1
PPM
  1
*PPM
  1
*
  1
*
 70
     0
  1
*
  1
*
  0
XRECORD
  5
4DB
102
{ACAD_REACTORS
330
131
102
}
330
131
100
AcDbXrecord
280
     1
  1
PR
  1
X-NIVEL1*
  1
10
  1
*
 70
    13
  1
*
  1
*
  0
XRECORD
  5
4DC
102
{ACAD_REACTORS
330
131
102
}
330
131
100
AcDbXrecord
280
     1
  1
PRD-Maschinentechnik
  1
M_*
  1
*
  1
*
 70
     0
  1
*
  1
*
  0
XRECORD
  5
4DD
102
{ACAD_REACTORS
330
131
102
}
330
131
100
AcDbXrecord
280
     1
  1
presentation
  1
*
  1
*
  1
*
 70
     0
  1
*
  1
*
  0
XRECORD
  5
4DE
102
{ACAD_REACTORS
330
131
102
}
330
131
100
AcDbXrecord
280
     1
  1
print
  1
*
  1
*
  1
*
 70
  1024
  1
*
  1
*
  0
XRECORD
  5
4DF
102
{ACAD_REACTORS
330
131
102
}
330
131
100
AcDbXrecord
280
     1
  1
Process Control
  1
PrcCtl*
  1
*
  1
*
 70
     0
  1
*
  1
*
  0
XRECORD
  5
4E0
102
{ACAD_REACTORS
330
131
102
}
330
131
100
AcDbXrecord
280
     1
  1
Profil
  1
K_*
  1
*
  1
*
 70
     0
  1
*
  1
*
  0
XRECORD
  5
4E1
102
{ACAD_REACTORS
330
131
102
}
330
131
100
AcDbXrecord
280
     1
  1
projekt
  1
proj*
  1
*
  1
*
 70
     0
  1
*
  1
*
  0
XRECORD
  5
4E2
102
{ACAD_REACTORS
330
131
102
}
330
131
100
AcDbXrecord
280
     1
  1
PROP
  1
PROP *
  1
*
  1
*
 70
     0
  1
*
  1
*
  0
XRECORD
  5
4E3
102
{ACAD_REACTORS
330
131
102
}
330
131
100
AcDbXrecord
280
     1
  1
prop builders work
  1
*
  1
*
  1
*
 70
    16
  1
*
  1
*
  0
XRECORD
  5
4E4
102
{ACAD_REACTORS
330
131
102
}
330
131
100
AcDbXrecord
280
     1
  1
prop-ph1-
  1
prop-ph1-*
  1
*
  1
*
 70
     0
  1
*
  1
*
  0
XRECORD
  5
4E5
102
{ACAD_REACTORS
330
131
102
}
330
131
100
AcDbXrecord
280
     1
  1
prop-ph2-
  1
prop-ph2-*
  1
*
  1
*
 70
     0
  1
*
  1
*
  0
XRECORD
  5
4E6
102
{ACAD_REACTORS
330
131
102
}
330
131
100
AcDbXrecord
280
     1
  1
proposed
  1
p*
  1
*
  1
*
 70
     0
  1
*
  1
*
  0
XRECORD
  5
4E7
102
{ACAD_REACTORS
330
131
102
}
330
131
100
AcDbXrecord
280
     1
  1
PU
  1
PU *
  1
*
  1
*
 70
     0
  1
*
  1
*
  0
XRECORD
  5
4E8
102
{ACAD_REACTORS
330
131
102
}
330
131
100
AcDbXrecord
280
     1
  1
PWG-Architektur
  1
A_*
  1
*
  1
*
 70
     0
  1
*
  1
*
  0
XRECORD
  5
4E9
102
{ACAD_REACTORS
330
131
102
}
330
131
100
AcDbXrecord
280
     1
  1
Queens Building
  1
*q*
  1
*
  1
*
 70
     0
  1
*
  1
*
  0
XRECORD
  5
4EA
102
{ACAD_REACTORS
330
131
102
}
330
131
100
AcDbXrecord
280
     1
  1
R
  1
*ZONE*
  1
*
  1
*
 70
     0
  1
*
  1
*
  0
XRECORD
  5
4EB
102
{ACAD_REACTORS
330
131
102
}
330
131
100
AcDbXrecord
280
     1
  1
R__
  1
R__*
  1
*
  1
*
 70
     0
  1
*
  1
*
  0
XRECORD
  5
4EC
102
{ACAD_REACTORS
330
131
102
}
330
131
100
AcDbXrecord
280
     1
  1
RACK
  1
*
  1
*
  1
*
 70
     0
  1
*
  1
*
  0
XRECORD
  5
4ED
102
{ACAD_REACTORS
330
131
102
}
330
131
100
AcDbXrecord
280
     1
  1
ram_rithuvud
  1
*
  1
*
  1
*
 70
    13
  1
*
  1
*
  0
XRECORD
  5
4EE
102
{ACAD_REACTORS
330
131
102
}
330
131
100
AcDbXrecord
280
     1
  1
RAMP
  1
*ramp*
  1
*
  1
*
 70
     0
  1
*
  1
*
  0
XRECORD
  5
4EF
102
{ACAD_REACTORS
330
131
102
}
330
131
100
AcDbXrecord
280
     1
  1
Raumblock
  1
a-ra*
  1
*
  1
*
 70
     0
  1
*
  1
*
  0
XRECORD
  5
4F0
102
{ACAD_REACTORS
330
131
102
}
330
131
100
AcDbXrecord
280
     1
  1
Raumblöcke
  1
a---rm*
  1
*
  1
*
 70
     0
  1
*
  1
*
  0
XRECORD
  5
4F1
102
{ACAD_REACTORS
330
131
102
}
330
131
100
AcDbXrecord
280
     1
  1
RaumSchraffur
  1
*gra_rnr*
  1
*
  1
*
 70
     0
  1
*
  1
*
  0
XRECORD
  5
4F2
102
{ACAD_REACTORS
330
131
102
}
330
131
100
AcDbXrecord
280
     1
  1
RCCOUMNS
  1
*COL*
  1
*
  1
*
 70
     0
  1
*
  1
*
  0
XRECORD
  5
4F3
102
{ACAD_REACTORS
330
131
102
}
330
131
100
AcDbXrecord
280
     1
  1
RCP
  1
A-CLG-*
  1
*
  1
*
 70
     0
  1
*
  1
*
  0
XRECORD
  5
4F4
102
{ACAD_REACTORS
330
131
102
}
330
131
100
AcDbXrecord
280
     1
  1
rdsmay
  1
rdsmay
  1
*
  1
*
 70
     0
  1
*
  1
*
  0
XRECORD
  5
4F5
102
{ACAD_REACTORS
330
131
102
}
330
131
100
AcDbXrecord
280
     1
  1
Reale
  1
--BH*
  1
*
  1
*
 70
     0
  1
*
  1
*
  0
XRECORD
  5
4F6
102
{ACAD_REACTORS
330
131
102
}
330
131
100
AcDbXrecord
280
     1
  1
RED
  1
*RED*
  1
*
  1
*
 70
     0
  1
*
  1
*
  0
XRECORD
  5
4F7
102
{ACAD_REACTORS
330
131
102
}
330
131
100
AcDbXrecord
280
     1
  1
reds
  1
*
  1
red
  1
*
 70
     0
  1
*
  1
*
  0
XRECORD
  5
4F8
102
{ACAD_REACTORS
330
131
102
}
330
131
100
AcDbXrecord
280
     1
  1
REF
  1
*REF*
  1
*
  1
*
 70
     0
  1
*
  1
*
  0
XRECORD
  5
4F9
102
{ACAD_REACTORS
330
131
102
}
330
131
100
AcDbXrecord
280
     1
  1
ref ceiling
  1
*
  1
*
  1
*
 70
    16
  1
*
  1
*
  0
XRECORD
  5
4FA
102
{ACAD_REACTORS
330
131
102
}
330
131
100
AcDbXrecord
280
     1
  1
ref ceiling 1
  1
*
  1
*
  1
*
 70
    16
  1
*
  1
*
  0
XRECORD
  5
4FB
102
{ACAD_REACTORS
330
131
102
}
330
131
100
AcDbXrecord
280
     1
  1
REFLECTED CEILING PLAN
  1
*
  1
*
  1
*
 70
    16
  1
*
  1
*
  0
XRECORD
  5
4FC
102
{ACAD_REACTORS
330
131
102
}
330
131
100
AcDbXrecord
280
     1
  1
RELECTED CEILING PLAN 012
  1
*
  1
*
  1
*
 70
    16
  1
*
  1
*
  0
XRECORD
  5
4FD
102
{ACAD_REACTORS
330
131
102
}
330
131
100
AcDbXrecord
280
     1
  1
relocated
  1
*rloc
  1
*
  1
*
 70
     0
  1
*
  1
*
  0
XRECORD
  5
4FE
102
{ACAD_REACTORS
330
131
102
}
330
131
100
AcDbXrecord
280
     1
  1
render
  1
*rn*
  1
*
  1
*
 70
     0
  1
*
  1
*
  0
XRECORD
  5
4FF
102
{ACAD_REACTORS
330
131
102
}
330
131
100
AcDbXrecord
280
     1
  1
REST
  1
REST*
  1
*
  1
*
 70
     0
  1
*
  1
*
  0
XRECORD
  5
500
102
{ACAD_REACTORS
330
131
102
}
330
131
100
AcDbXrecord
280
     1
  1
restaurant
  1
rest*
  1
*
  1
*
 70
     0
  1
*
  1
*
  0
XRECORD
  5
501
102
{ACAD_REACTORS
330
131
102
}
330
131
100
AcDbXrecord
280
     1
  1
rev
  1
*rev*
  1
*
  1
*
 70
     0
  1
*
  1
*
  0
XRECORD
  5
502
102
{ACAD_REACTORS
330
131
102
}
330
131
100
AcDbXrecord
280
     1
  1
REVISIONS
  1
*REV*
  1
*
  1
*
 70
     0
  1
*
  1
*
  0
XRECORD
  5
503
102
{ACAD_REACTORS
330
131
102
}
330
131
100
AcDbXrecord
280
     1
  1
RF
  1
*.RF
  1
*
  1
*
 70
     0
  1
*
  1
*
  0
XRECORD
  5
504
102
{ACAD_REACTORS
330
131
102
}
330
131
100
AcDbXrecord
280
     1
  1
RIDE
  1
*RIDE*
  1
*
  1
*
 70
     0
  1
*
  1
*
  0
XRECORD
  5
505
102
{ACAD_REACTORS
330
131
102
}
330
131
100
AcDbXrecord
280
     1
  1
RIPON
  1
*RIPON*
  1
*
  1
*
 70
     0
  1
*
  1
*
  0
XRECORD
  5
506
102
{ACAD_REACTORS
330
131
102
}
330
131
100
AcDbXrecord
280
     1
  1
rl_linie
  1
2l*
  1
*
  1
*
 70
     0
  1
*
  1
*
  0
XRECORD
  5
507
102
{ACAD_REACTORS
330
131
102
}
330
131
100
AcDbXrecord
280
     1
  1
rl_schraf
  1
2l*S
  1
*
  1
*
 70
     0
  1
*
  1
*
  0
XRECORD
  5
508
102
{ACAD_REACTORS
330
131
102
}
330
131
100
AcDbXrecord
280
     1
  1
rlt
  1
2l*
  1
*
  1
*
 70
     0
  1
*
  1
*
  0
XRECORD
  5
509
102
{ACAD_REACTORS
330
131
102
}
330
131
100
AcDbXrecord
280
     1
  1
RO
  1
*
  1
*
  1
*
 70
     0
  1
*
  1
*
  0
XRECORD
  5
50A
102
{ACAD_REACTORS
330
131
102
}
330
131
100
AcDbXrecord
280
     1
  1
ROAD
  1
*ROAD*
  1
*
  1
*
 70
     0
  1
*
  1
*
  0
XRECORD
  5
50B
102
{ACAD_REACTORS
330
131
102
}
330
131
100
AcDbXrecord
280
     1
  1
ROADS
  1
*ROADS*
  1
*
  1
*
 70
     0
  1
*
  1
*
  0
XRECORD
  5
50C
102
{ACAD_REACTORS
330
131
102
}
330
131
100
AcDbXrecord
280
     1
  1
rob
  1
*
  1
*
  1
*
 70
     4
  1
*
  1
*
  0
XRECORD
  5
50D
102
{ACAD_REACTORS
330
131
102
}
330
131
100
AcDbXrecord
280
     1
  1
Rohbau
  1
R*
  1
*
  1
*
 70
     0
  1
*
  1
*
  0
XRECORD
  5
50E
102
{ACAD_REACTORS
330
131
102
}
330
131
100
AcDbXrecord
280
     1
  1
Rolton
  1
RG*
  1
*
  1
*
 70
     0
  1
*
  1
*
  0
XRECORD
  5
50F
102
{ACAD_REACTORS
330
131
102
}
330
131
100
AcDbXrecord
280
     1
  1
ronny
  1
toe
  1
18
  1
*
 70
  3415
  1
*
  1
*
  0
XRECORD
  5
510
102
{ACAD_REACTORS
330
131
102
}
330
131
100
AcDbXrecord
280
     1
  1
ronny1
  1
toe
  1
*
  1
*
 70
    23
  1
*
  1
*
  0
XRECORD
  5
511
102
{ACAD_REACTORS
330
131
102
}
330
131
100
AcDbXrecord
280
     1
  1
ROOF
  1
AF*,ROO*,0,VIE*,DETA*
  1
*
  1
*
 70
     0
  1
*
  1
*
  0
XRECORD
  5
512
102
{ACAD_REACTORS
330
131
102
}
330
131
100
AcDbXrecord
280
     1
  1
ROOFLIGHT
  1
ROOFLIGHT*
  1
*
  1
*
 70
     0
  1
*
  1
*
  0
XRECORD
  5
513
102
{ACAD_REACTORS
330
131
102
}
330
131
100
AcDbXrecord
280
     1
  1
room
  1
*room*
  1
*
  1
*
 70
     0
  1
*
  1
*
  0
XRECORD
  5
514
102
{ACAD_REACTORS
330
131
102
}
330
131
100
AcDbXrecord
280
     1
  1
rooms
  1
*rooms
  1
*
  1
*
 70
     0
  1
*
  1
*
  0
XRECORD
  5
515
102
{ACAD_REACTORS
330
131
102
}
330
131
100
AcDbXrecord
280
     1
  1
rouge
  1
*
  1
1
  1
*
 70
     1
  1
*
  1
*
  0
XRECORD
  5
516
102
{ACAD_REACTORS
330
131
102
}
330
131
100
AcDbXrecord
280
     1
  1
rr
  1
rr*
  1
*
  1
*
 70
     0
  1
*
  1
*
  0
XRECORD
  5
517
102
{ACAD_REACTORS
330
131
102
}
330
131
100
AcDbXrecord
280
     1
  1
rrb
  1
*rr-b*
  1
*
  1
*
 70
     0
  1
*
  1
*
  0
XRECORD
  5
518
102
{ACAD_REACTORS
330
131
102
}
330
131
100
AcDbXrecord
280
     1
  1
rsfl
  1
a33*
  1
*
  1
*
 70
     0
  1
*
  1
*
  0
XRECORD
  5
519
102
{ACAD_REACTORS
330
131
102
}
330
131
100
AcDbXrecord
280
     1
  1
RSW-Aussenanlagen-Y
  1
Y_*
  1
*
  1
*
 70
     0
  1
*
  1
*
  0
XRECORD
  5
51A
102
{ACAD_REACTORS
330
131
102
}
330
131
100
AcDbXrecord
280
     1
  1
RSW-Fluchtplan
  1
F_*
  1
*
  1
*
 70
     0
  1
*
  1
*
  0
XRECORD
  5
51B
102
{ACAD_REACTORS
330
131
102
}
330
131
100
AcDbXrecord
280
     1
  1
RSW-Kataster
  1
K_*
  1
*
  1
*
 70
     0
  1
*
  1
*
  0
XRECORD
  5
51C
102
{ACAD_REACTORS
330
131
102
}
330
131
100
AcDbXrecord
280
     1
  1
rtkl
  1
*rtkl*
  1
*
  1
*
 70
     0
  1
*
  1
*
  0
XRECORD
  5
51D
102
{ACAD_REACTORS
330
131
102
}
330
131
100
AcDbXrecord
280
     1
  1
rwo
  1
*rwo*
  1
*
  1
*
 70
     0
  1
*
  1
*
  0
XRECORD
  5
51E
102
{ACAD_REACTORS
330
131
102
}
330
131
100
AcDbXrecord
280
     1
  1
RWP
  1
*RWP*
  1
*
  1
*
 70
     0
  1
*
  1
*
  0
XRECORD
  5
51F
102
{ACAD_REACTORS
330
131
102
}
330
131
100
AcDbXrecord
280
     1
  1
s
  1
s_*
  1
*
  1
*
 70
     0
  1
*
  1
*
  0
XRECORD
  5
520
102
{ACAD_REACTORS
330
131
102
}
330
131
100
AcDbXrecord
280
     1
  1
S-H
  1
S-*,H-*
  1
*
  1
*
 70
     0
  1
*
  1
*
  0
XRECORD
  5
521
102
{ACAD_REACTORS
330
131
102
}
330
131
100
AcDbXrecord
280
     1
  1
S38-phase-2
  1
S38-phase-2-*
  1
*
  1
*
 70
     0
  1
*
  1
*
  0
XRECORD
  5
522
102
{ACAD_REACTORS
330
131
102
}
330
131
100
AcDbXrecord
280
     1
  1
S38-phase-3
  1
S38-phase-3-*
  1
*
  1
*
 70
     0
  1
*
  1
*
  0
XRECORD
  5
523
102
{ACAD_REACTORS
330
131
102
}
330
131
100
AcDbXrecord
280
     1
  1
s_
  1
s_*
  1
*
  1
*
 70
     0
  1
*
  1
*
  0
XRECORD
  5
524
102
{ACAD_REACTORS
330
131
102
}
330
131
100
AcDbXrecord
280
     1
  1
SALES
  1
MO*
  1
*
  1
*
 70
     0
  1
*
  1
*
  0
XRECORD
  5
525
102
{ACAD_REACTORS
330
131
102
}
330
131
100
AcDbXrecord
280
     1
  1
san
  1
*san*
  1
*
  1
*
 70
     0
  1
*
  1
*
  0
XRECORD
  5
526
102
{ACAD_REACTORS
330
131
102
}
330
131
100
AcDbXrecord
280
     1
  1
SANDSTONE
  1
SAND*
  1
*
  1
*
 70
     0
  1
*
  1
*
  0
XRECORD
  5
527
102
{ACAD_REACTORS
330
131
102
}
330
131
100
AcDbXrecord
280
     1
  1
sani
  1
s_*
  1
*
  1
*
 70
     0
  1
*
  1
*
  0
XRECORD
  5
528
102
{ACAD_REACTORS
330
131
102
}
330
131
100
AcDbXrecord
280
     1
  1
Sanitaer
  1
S1-*
  1
*
  1
*
 70
     0
  1
*
  1
*
  0
XRECORD
  5
529
102
{ACAD_REACTORS
330
131
102
}
330
131
100
AcDbXrecord
280
     1
  1
sanitary
  1
*sanitary*
  1
*
  1
*
 70
     0
  1
*
  1
*
  0
XRECORD
  5
52A
102
{ACAD_REACTORS
330
131
102
}
330
131
100
AcDbXrecord
280
     1
  1
sanitaryware
  1
*san*
  1
*
  1
*
 70
     0
  1
*
  1
*
  0
XRECORD
  5
52B
102
{ACAD_REACTORS
330
131
102
}
330
131
100
AcDbXrecord
280
     1
  1
Sanitär
  1
s__*
  1
*
  1
*
 70
     0
  1
*
  1
*
  0
XRECORD
  5
52C
102
{ACAD_REACTORS
330
131
102
}
330
131
100
AcDbXrecord
280
     1
  1
sansl'extension
  1
*A*,*B*,C*,*D*,*I*,*P*,*S*,*T*
  1
*
  1
*
 70
     0
  1
*
  1
*
  0
XRECORD
  5
52D
102
{ACAD_REACTORS
330
131
102
}
330
131
100
AcDbXrecord
280
     1
  1
sap-spi
  1
*sap*,*spi*
  1
*
  1
*
 70
     0
  1
*
  1
*
  0
XRECORD
  5
52E
102
{ACAD_REACTORS
330
131
102
}
330
131
100
AcDbXrecord
280
     1
  1
scale200
  1
*wind*,*clad*,*stone*,*stee*
  1
*
  1
*
 70
     0
  1
*
  1
*
  0
XRECORD
  5
52F
102
{ACAD_REACTORS
330
131
102
}
330
131
100
AcDbXrecord
280
     1
  1
sch
  1
*sch
  1
*
  1
*
 70
     0
  1
*
  1
*
  0
XRECORD
  5
530
102
{ACAD_REACTORS
330
131
102
}
330
131
100
AcDbXrecord
280
     1
  1
schacht
  1
*schacht*
  1
*
  1
*
 70
     0
  1
*
  1
*
  0
XRECORD
  5
531
102
{ACAD_REACTORS
330
131
102
}
330
131
100
AcDbXrecord
280
     1
  1
SCHEMATIC
  1
*SCHEMATIC*
  1
*
  1
*
 70
     0
  1
*
  1
*
  0
XRECORD
  5
532
102
{ACAD_REACTORS
330
131
102
}
330
131
100
AcDbXrecord
280
     1
  1
schindler
  1
*
  1
*
  1
*
 70
     0
  1
*
  1
*
  0
XRECORD
  5
533
102
{ACAD_REACTORS
330
131
102
}
330
131
100
AcDbXrecord
280
     1
  1
Schlitz- und Durchbrüche
  1
A-SD*
  1
*
  1
*
 70
     0
  1
*
  1
*
  0
XRECORD
  5
534
102
{ACAD_REACTORS
330
131
102
}
330
131
100
AcDbXrecord
280
     1
  1
Schnitt
  1
SCH*
  1
*
  1
*
 70
     0
  1
*
  1
*
  0
XRECORD
  5
535
102
{ACAD_REACTORS
330
131
102
}
330
131
100
AcDbXrecord
280
     1
  1
schr-a
  1
*schraff__a*
  1
*
  1
*
 70
     1
  1
*
  1
*
  0
XRECORD
  5
536
102
{ACAD_REACTORS
330
131
102
}
330
131
100
AcDbXrecord
280
     1
  1
schr-f
  1
*schraff__f*
  1
*
  1
*
 70
     1
  1
*
  1
*
  0
XRECORD
  5
537
102
{ACAD_REACTORS
330
131
102
}
330
131
100
AcDbXrecord
280
     1
  1
schr-z
  1
*schraff__z*
  1
*
  1
*
 70
     1
  1
*
  1
*
  0
XRECORD
  5
538
102
{ACAD_REACTORS
330
131
102
}
330
131
100
AcDbXrecord
280
     1
  1
schraff
  1
*schraff*
  1
*
  1
*
 70
     0
  1
*
  1
*
  0
XRECORD
  5
539
102
{ACAD_REACTORS
330
131
102
}
330
131
100
AcDbXrecord
280
     1
  1
Schraffur
  1
*05S
  1
*
  1
*
 70
     0
  1
*
  1
*
  0
XRECORD
  5
53A
102
{ACAD_REACTORS
330
131
102
}
330
131
100
AcDbXrecord
280
     1
  1
Schraffuren
  1
*schraf*
  1
*
  1
*
 70
     0
  1
*
  1
*
  0
XRECORD
  5
53B
102
{ACAD_REACTORS
330
131
102
}
330
131
100
AcDbXrecord
280
     1
  1
screed plan
  1
*
  1
*
  1
*
 70
    16
  1
*
  1
*
  0
XRECORD
  5
53C
102
{ACAD_REACTORS
330
131
102
}
330
131
100
AcDbXrecord
280
     1
  1
Screw
  1
*screw*
  1
*
  1
*
 70
     0
  1
*
  1
*
  0
XRECORD
  5
53D
102
{ACAD_REACTORS
330
131
102
}
330
131
100
AcDbXrecord
280
     1
  1
sd
  1
*sd*
  1
*
  1
*
 70
     0
  1
*
  1
*
  0
XRECORD
  5
53E
102
{ACAD_REACTORS
330
131
102
}
330
131
100
AcDbXrecord
280
     1
  1
SD2-P
  1
SD*
  1
*
  1
*
 70
     0
  1
*
  1
*
  0
XRECORD
  5
53F
102
{ACAD_REACTORS
330
131
102
}
330
131
100
AcDbXrecord
280
     1
  1
SD2-P(SCONGELATI)
  1
SD*
  1
*
  1
*
 70
    12
  1
*
  1
*
  0
XRECORD
  5
540
102
{ACAD_REACTORS
330
131
102
}
330
131
100
AcDbXrecord
280
     1
  1
SD228SMT
  1
*SD228*
  1
*
  1
*
 70
     0
  1
*
  1
*
  0
XRECORD
  5
541
102
{ACAD_REACTORS
330
131
102
}
330
131
100
AcDbXrecord
280
     1
  1
se
  1
*se*
  1
*
  1
*
 70
     0
  1
*
  1
*
  0
XRECORD
  5
542
102
{ACAD_REACTORS
330
131
102
}
330
131
100
AcDbXrecord
280
     1
  1
se-
  1
se*
  1
*
  1
*
 70
     0
  1
*
  1
*
  0
XRECORD
  5
543
102
{ACAD_REACTORS
330
131
102
}
330
131
100
AcDbXrecord
280
     1
  1
SE100
  1
SE-100*
  1
*
  1
*
 70
     0
  1
*
  1
*
  0
XRECORD
  5
544
102
{ACAD_REACTORS
330
131
102
}
330
131
100
AcDbXrecord
280
     1
  1
search
  1
*comments*
  1
red
  1
*
 70
     0
  1
*
  1
*
  0
XRECORD
  5
545
102
{ACAD_REACTORS
330
131
102
}
330
131
100
AcDbXrecord
280
     1
  1
sec
  1
*sec*
  1
*
  1
*
 70
     0
  1
*
  1
*
  0
XRECORD
  5
546
102
{ACAD_REACTORS
330
131
102
}
330
131
100
AcDbXrecord
280
     1
  1
secl
  1
*secl*
  1
*
  1
*
 70
     0
  1
*
  1
*
  0
XRECORD
  5
547
102
{ACAD_REACTORS
330
131
102
}
330
131
100
AcDbXrecord
280
     1
  1
SECTION
  1
*SECTION*TEXT*
  1
*
  1
*
 70
     0
  1
*
  1
*
  0
XRECORD
  5
548
102
{ACAD_REACTORS
330
131
102
}
330
131
100
AcDbXrecord
280
     1
  1
SECTIONS
  1
SEC*,0,VIE*,DETA*
  1
*
  1
*
 70
     0
  1
*
  1
*
  0
XRECORD
  5
549
102
{ACAD_REACTORS
330
131
102
}
330
131
100
AcDbXrecord
280
     1
  1
select all-on
  1
*
  1
*
  1
*
 70
     1
  1
*
  1
*
  0
XRECORD
  5
54A
102
{ACAD_REACTORS
330
131
102
}
330
131
100
AcDbXrecord
280
     1
  1
serv
  1
serv-*
  1
*
  1
*
 70
     0
  1
*
  1
*
  0
XRECORD
  5
54B
102
{ACAD_REACTORS
330
131
102
}
330
131
100
AcDbXrecord
280
     1
  1
servery
  1
servery*
  1
*
  1
*
 70
     0
  1
*
  1
*
  0
XRECORD
  5
54C
102
{ACAD_REACTORS
330
131
102
}
330
131
100
AcDbXrecord
280
     1
  1
SERVIC
  1
*SERVIC*
  1
*
  1
*
 70
     0
  1
*
  1
*
  0
XRECORD
  5
54D
102
{ACAD_REACTORS
330
131
102
}
330
131
100
AcDbXrecord
280
     1
  1
service
  1
*service*
  1
*
  1
*
 70
     0
  1
*
  1
*
  0
XRECORD
  5
54E
102
{ACAD_REACTORS
330
131
102
}
330
131
100
AcDbXrecord
280
     1
  1
SERVICE PLAN
  1
SP-*
  1
*
  1
*
 70
     0
  1
*
  1
*
  0
XRECORD
  5
54F
102
{ACAD_REACTORS
330
131
102
}
330
131
100
AcDbXrecord
280
     1
  1
SERVICES
  1
*SERVICE*
  1
*
  1
*
 70
     0
  1
*
  1
*
  0
XRECORD
  5
550
102
{ACAD_REACTORS
330
131
102
}
330
131
100
AcDbXrecord
280
     1
  1
SET
  1
*SET*
  1
*
  1
*
 70
     0
  1
*
  1
*
  0
XRECORD
  5
551
102
{ACAD_REACTORS
330
131
102
}
330
131
100
AcDbXrecord
280
     1
  1
setout
  1
*setout
  1
*
  1
*
 70
     0
  1
*
  1
*
  0
XRECORD
  5
552
102
{ACAD_REACTORS
330
131
102
}
330
131
100
AcDbXrecord
280
     1
  1
SETTING OUT
  1
SO-*
  1
*
  1
*
 70
     0
  1
*
  1
*
  0
XRECORD
  5
553
102
{ACAD_REACTORS
330
131
102
}
330
131
100
AcDbXrecord
280
     1
  1
SEWER
  1
*SEWER*
  1
*
  1
*
 70
     0
  1
*
  1
*
  0
XRECORD
  5
554
102
{ACAD_REACTORS
330
131
102
}
330
131
100
AcDbXrecord
280
     1
  1
SF
  1
SF*
  1
*
  1
*
 70
     0
  1
*
  1
*
  0
XRECORD
  5
555
102
{ACAD_REACTORS
330
131
102
}
330
131
100
AcDbXrecord
280
     1
  1
sgp-
  1
sgp-*
  1
*
  1
*
 70
     0
  1
*
  1
*
  0
XRECORD
  5
556
102
{ACAD_REACTORS
330
131
102
}
330
131
100
AcDbXrecord
280
     1
  1
sgppl6
  1
sgppl6-*
  1
*
  1
*
 70
     0
  1
*
  1
*
  0
XRECORD
  5
557
102
{ACAD_REACTORS
330
131
102
}
330
131
100
AcDbXrecord
280
     1
  1
sgpstee
  1
*stee*
  1
*
  1
*
 70
     0
  1
*
  1
*
  0
XRECORD
  5
558
102
{ACAD_REACTORS
330
131
102
}
330
131
100
AcDbXrecord
280
     1
  1
SGPSTEEL
  1
*STEE*
  1
*
  1
*
 70
     0
  1
*
  1
*
  0
XRECORD
  5
559
102
{ACAD_REACTORS
330
131
102
}
330
131
100
AcDbXrecord
280
     1
  1
sgpstub
  1
*stub*
  1
*
  1
*
 70
     0
  1
*
  1
*
  0
XRECORD
  5
55A
102
{ACAD_REACTORS
330
131
102
}
330
131
100
AcDbXrecord
280
     1
  1
SGPSTUBS
  1
*STUB*
  1
*
  1
*
 70
     0
  1
*
  1
*
  0
XRECORD
  5
55B
102
{ACAD_REACTORS
330
131
102
}
330
131
100
AcDbXrecord
280
     1
  1
SHADE
  1
*SHADE*
  1
*
  1
*
 70
     0
  1
*
  1
*
  0
XRECORD
  5
55C
102
{ACAD_REACTORS
330
131
102
}
330
131
100
AcDbXrecord
280
     1
  1
shadow
  1
*shad*
  1
*
  1
*
 70
     0
  1
*
  1
*
  0
XRECORD
  5
55D
102
{ACAD_REACTORS
330
131
102
}
330
131
100
AcDbXrecord
280
     1
  1
SHOPFRONT
  1
*SHOPFRONT*
  1
*
  1
*
 70
     0
  1
*
  1
*
  0
XRECORD
  5
55E
102
{ACAD_REACTORS
330
131
102
}
330
131
100
AcDbXrecord
280
     1
  1
Show All Layers On
  1
*
  1
*
  1
*
 70
     1
  1
*
  1
*
  0
XRECORD
  5
55F
102
{ACAD_REACTORS
330
131
102
}
330
131
100
AcDbXrecord
280
     1
  1
Show All Layers Thawed
  1
*
  1
*
  1
*
 70
    12
  1
*
  1
*
  0
XRECORD
  5
560
102
{ACAD_REACTORS
330
131
102
}
330
131
100
AcDbXrecord
280
     1
  1
Show All Layers Unlocked
  1
*
  1
*
  1
*
 70
   768
  1
*
  1
*
  0
XRECORD
  5
561
102
{ACAD_REACTORS
330
131
102
}
330
131
100
AcDbXrecord
280
     1
  1
Show all non-Xref layers
  1
~*|*
  1
*
  1
*
 70
     0
  1
*
  1
*
  0
XRECORD
  5
562
102
{ACAD_REACTORS
330
131
102
}
330
131
100
AcDbXrecord
280
     1
  1
show all not Xref dependent layers
  1
*
  1
*
  1
*
 70
     0
  1
*
  1
*
  0
XRECORD
  5
563
102
{ACAD_REACTORS
330
131
102
}
330
131
100
AcDbXrecord
280
     1
  1
Show all visible layers
  1
*
  1
*
  1
*
 70
     1
  1
*
  1
*
  0
XRECORD
  5
564
102
{ACAD_REACTORS
330
131
102
}
330
131
100
AcDbXrecord
280
     1
  1
Show Connections layers
  1
*connections*
  1
*
  1
*
 70
     0
  1
*
  1
*
  0
XRECORD
  5
565
102
{ACAD_REACTORS
330
131
102
}
330
131
100
AcDbXrecord
280
     1
  1
Show Controls layers
  1
*controls*
  1
*
  1
*
 70
     0
  1
*
  1
*
  0
XRECORD
  5
566
102
{ACAD_REACTORS
330
131
102
}
330
131
100
AcDbXrecord
280
     1
  1
SHOW NON-XREF LAYER
  1
*
  1
*
  1
*
 70
     0
  1
*
  1
*
  0
XRECORD
  5
567
102
{ACAD_REACTORS
330
131
102
}
330
131
100
AcDbXrecord
280
     1
  1
Show not Xref dependent layers
  1
*
  1
*
  1
*
 70
     0
  1
*
  1
*
  0
XRECORD
  5
568
102
{ACAD_REACTORS
330
131
102
}
330
131
100
AcDbXrecord
280
     1
  1
Show Thawed Layers
  1
*
  1
*
  1
*
 70
     0
  1
*
  1
*
  0
XRECORD
  5
569
102
{ACAD_REACTORS
330
131
102
}
330
131
100
AcDbXrecord
280
     1
  1
Show Workspace layers
  1
*workspace*
  1
*
  1
*
 70
     0
  1
*
  1
*
  0
XRECORD
  5
56A
102
{ACAD_REACTORS
330
131
102
}
330
131
100
AcDbXrecord
280
     1
  1
sibou
  1
*sibou*
  1
*
  1
*
 70
     0
  1
*
  1
*
  0
XRECORD
  5
56B
102
{ACAD_REACTORS
330
131
102
}
330
131
100
AcDbXrecord
280
     1
  1
SIGN PLAN
  1
SIGNS-*
  1
*
  1
*
 70
     0
  1
*
  1
*
  0
XRECORD
  5
56C
102
{ACAD_REACTORS
330
131
102
}
330
131
100
AcDbXrecord
280
     1
  1
SIGNAGE
  1
E3*
  1
*
  1
*
 70
     0
  1
*
  1
*
  0
XRECORD
  5
56D
102
{ACAD_REACTORS
330
131
102
}
330
131
100
AcDbXrecord
280
     1
  1
SIGNS
  1
*SIGNS
  1
*
  1
*
 70
     0
  1
*
  1
*
  0
XRECORD
  5
56E
102
{ACAD_REACTORS
330
131
102
}
330
131
100
AcDbXrecord
280
     1
  1
SITE
  1
SITE*
  1
*
  1
*
 70
     0
  1
*
  1
*
  0
XRECORD
  5
56F
102
{ACAD_REACTORS
330
131
102
}
330
131
100
AcDbXrecord
280
     1
  1
SITE ONLY
  1
SITE*
  1
*
  1
*
 70
     0
  1
*
  1
*
  0
XRECORD
  5
570
102
{ACAD_REACTORS
330
131
102
}
330
131
100
AcDbXrecord
280
     1
  1
SK
  1
SK*,E*
  1
*
  1
*
 70
     0
  1
*
  1
*
  0
XRECORD
  5
571
102
{ACAD_REACTORS
330
131
102
}
330
131
100
AcDbXrecord
280
     1
  1
sky
  1
*sky*
  1
*
  1
*
 70
     0
  1
*
  1
*
  0
XRECORD
  5
572
102
{ACAD_REACTORS
330
131
102
}
330
131
100
AcDbXrecord
280
     1
  1
SLAB
  1
*SLAB*
  1
*
  1
*
 70
     0
  1
*
  1
*
  0
XRECORD
  5
573
102
{ACAD_REACTORS
330
131
102
}
330
131
100
AcDbXrecord
280
     1
  1
slabs
  1
*230*
  1
*
  1
*
 70
     0
  1
*
  1
*
  0
XRECORD
  5
574
102
{ACAD_REACTORS
330
131
102
}
330
131
100
AcDbXrecord
280
     1
  1
slots
  1
*slot*
  1
*
  1
*
 70
     0
  1
*
  1
*
  0
XRECORD
  5
575
102
{ACAD_REACTORS
330
131
102
}
330
131
100
AcDbXrecord
280
     1
  1
Sni
  1
s*
  1
*
  1
*
 70
     0
  1
*
  1
*
  0
XRECORD
  5
576
102
{ACAD_REACTORS
330
131
102
}
330
131
100
AcDbXrecord
280
     1
  1
SOCO
  1
-*
  1
*
  1
*
 70
     0
  1
*
  1
*
  0
XRECORD
  5
577
102
{ACAD_REACTORS
330
131
102
}
330
131
100
AcDbXrecord
280
     1
  1
SOCO LAYERS
  1
-*
  1
*
  1
*
 70
     0
  1
*
  1
*
  0
XRECORD
  5
578
102
{ACAD_REACTORS
330
131
102
}
330
131
100
AcDbXrecord
280
     1
  1
softbase
  1
*
  1
*
  1
*
 70
     0
  1
*
  1
*
  0
XRECORD
  5
579
102
{ACAD_REACTORS
330
131
102
}
330
131
100
AcDbXrecord
280
     1
  1
SOLID
  1
*_SOLID
  1
*
  1
*
 70
     0
  1
*
  1
*
  0
XRECORD
  5
57A
102
{ACAD_REACTORS
330
131
102
}
330
131
100
AcDbXrecord
280
     1
  1
solid fills
  1
*-h
  1
*
  1
*
 70
     0
  1
*
  1
*
  0
XRECORD
  5
57B
102
{ACAD_REACTORS
330
131
102
}
330
131
100
AcDbXrecord
280
     1
  1
Solids
  1
s*
  1
*
  1
*
 70
     0
  1
*
  1
*
  0
XRECORD
  5
57C
102
{ACAD_REACTORS
330
131
102
}
330
131
100
AcDbXrecord
280
     1
  1
SOSTEGNI
  1
SOSTEGNI*
  1
*
  1
*
 70
     0
  1
*
  1
*
  0
XRECORD
  5
57D
102
{ACAD_REACTORS
330
131
102
}
330
131
100
AcDbXrecord
280
     1
  1
space planning
  1
*sp*
  1
*
  1
*
 70
     0
  1
*
  1
*
  0
XRECORD
  5
57E
102
{ACAD_REACTORS
330
131
102
}
330
131
100
AcDbXrecord
280
     1
  1
SPECIFICATIONS
  1
*SPEC*
  1
*
  1
*
 70
     0
  1
*
  1
*
  0
XRECORD
  5
57F
102
{ACAD_REACTORS
330
131
102
}
330
131
100
AcDbXrecord
280
     1
  1
SPI & SAP
  1
*spi*,*sap*
  1
*
  1
*
 70
     0
  1
*
  1
*
  0
XRECORD
  5
580
102
{ACAD_REACTORS
330
131
102
}
330
131
100
AcDbXrecord
280
     1
  1
spi-sap
  1
*spi*,*sap*
  1
*
  1
*
 70
     0
  1
*
  1
*
  0
XRECORD
  5
581
102
{ACAD_REACTORS
330
131
102
}
330
131
100
AcDbXrecord
280
     1
  1
SPIRAL
  1
SPIRAL*
  1
*
  1
*
 70
     0
  1
*
  1
*
  0
XRECORD
  5
582
102
{ACAD_REACTORS
330
131
102
}
330
131
100
AcDbXrecord
280
     1
  1
SPORTS-BAR
  1
*SPORTS-BAR*
  1
*
  1
*
 70
     0
  1
*
  1
*
  0
XRECORD
  5
583
102
{ACAD_REACTORS
330
131
102
}
330
131
100
AcDbXrecord
280
     1
  1
SPOTLIGHTS
  1
SPOT*
  1
*
  1
*
 70
     0
  1
*
  1
*
  0
XRECORD
  5
584
102
{ACAD_REACTORS
330
131
102
}
330
131
100
AcDbXrecord
280
     1
  1
SPRINKLER
  1
*SPRIN*
  1
*
  1
*
 70
     0
  1
*
  1
*
  0
XRECORD
  5
585
102
{ACAD_REACTORS
330
131
102
}
330
131
100
AcDbXrecord
280
     1
  1
SSWR
  1
X-NUTILS|C-??????-SSWR,X-NUTILS|C-??????-SSWR-TEMP
  1
*
  1
*
 70
     0
  1
*
  1
*
  0
XRECORD
  5
586
102
{ACAD_REACTORS
330
131
102
}
330
131
100
AcDbXrecord
280
     1
  1
ST
  1
*ST*
  1
*
  1
*
 70
     0
  1
*
  1
*
  0
XRECORD
  5
587
102
{ACAD_REACTORS
330
131
102
}
330
131
100
AcDbXrecord
280
     1
  1
STAIR
  1
*STAIR*
  1
*
  1
*
 70
     0
  1
*
  1
*
  0
XRECORD
  5
588
102
{ACAD_REACTORS
330
131
102
}
330
131
100
AcDbXrecord
280
     1
  1
stair layer
  1
*stair*
  1
*
  1
*
 70
     0
  1
*
  1
*
  0
XRECORD
  5
589
102
{ACAD_REACTORS
330
131
102
}
330
131
100
AcDbXrecord
280
     1
  1
STAIRS
  1
*STAIR*
  1
*
  1
*
 70
     0
  1
*
  1
*
  0
XRECORD
  5
58A
102
{ACAD_REACTORS
330
131
102
}
330
131
100
AcDbXrecord
280
     1
  1
Stand_layout
  1
*
  1
*
  1
*
 70
     0
  1
*
  1
*
  0
XRECORD
  5
58B
102
{ACAD_REACTORS
330
131
102
}
330
131
100
AcDbXrecord
280
     1
  1
STAT
  1
*STAT*
  1
*
  1
*
 70
     0
  1
*
  1
*
  0
XRECORD
  5
58C
102
{ACAD_REACTORS
330
131
102
}
330
131
100
AcDbXrecord
280
     1
  1
STEEL
  1
STEEL*
  1
*
  1
*
 70
     0
  1
*
  1
*
  0
XRECORD
  5
58D
102
{ACAD_REACTORS
330
131
102
}
330
131
100
AcDbXrecord
280
     1
  1
stn
  1
*
  1
*
  1
*
 70
     0
  1
*
  1
*
  0
XRECORD
  5
58E
102
{ACAD_REACTORS
330
131
102
}
330
131
100
AcDbXrecord
280
     1
  1
STONE
  1
*STON*
  1
*
  1
*
 70
     0
  1
*
  1
*
  0
XRECORD
  5
58F
102
{ACAD_REACTORS
330
131
102
}
330
131
100
AcDbXrecord
280
     1
  1
STORM
  1
*SW*
  1
*
  1
*
 70
     0
  1
*
  1
*
  0
XRECORD
  5
590
102
{ACAD_REACTORS
330
131
102
}
330
131
100
AcDbXrecord
280
     1
  1
Strangbezeichnungen
  1
*sbz*
  1
*
  1
*
 70
     0
  1
*
  1
*
  0
XRECORD
  5
591
102
{ACAD_REACTORS
330
131
102
}
330
131
100
AcDbXrecord
280
     1
  1
STREET
  1
*STREET*
  1
*
  1
*
 70
     0
  1
*
  1
*
  0
XRECORD
  5
592
102
{ACAD_REACTORS
330
131
102
}
330
131
100
AcDbXrecord
280
     1
  1
STRUCT
  1
0,1,2,3,4,5,6,7,8,BACKGROUNND,BEAMS,BWK,BWK-SECT,CL,CONC,CONC-BGRND,CONC-HID,CONC-COL,EJ,CONC-RW,D,EX-BUILD,EX-GEN,GRID,H,T2,T3,T5,PARKING,REBAR,TROUGHS
  1
*
  1
*
 70
     0
  1
*
  1
*
  0
XRECORD
  5
593
102
{ACAD_REACTORS
330
131
102
}
330
131
100
AcDbXrecord
280
     1
  1
STRUCT-CONC
  1
*STRUCT*
  1
*
  1
*
 70
     0
  1
*
  1
*
  0
XRECORD
  5
594
102
{ACAD_REACTORS
330
131
102
}
330
131
100
AcDbXrecord
280
     1
  1
struct-steel
  1
*struct-steel*
  1
*
  1
*
 70
     0
  1
*
  1
*
  0
XRECORD
  5
595
102
{ACAD_REACTORS
330
131
102
}
330
131
100
AcDbXrecord
280
     1
  1
structural
  1
s*
  1
*
  1
*
 70
     0
  1
*
  1
*
  0
XRECORD
  5
596
102
{ACAD_REACTORS
330
131
102
}
330
131
100
AcDbXrecord
280
     1
  1
structure
  1
eng_*
  1
*
  1
*
 70
     0
  1
*
  1
*
  0
XRECORD
  5
597
102
{ACAD_REACTORS
330
131
102
}
330
131
100
AcDbXrecord
280
     1
  1
STUB
  1
*STUB*
  1
*
  1
*
 70
     0
  1
*
  1
*
  0
XRECORD
  5
598
102
{ACAD_REACTORS
330
131
102
}
330
131
100
AcDbXrecord
280
     1
  1
Stuetzen
  1
STU*
  1
*
  1
*
 70
     0
  1
*
  1
*
  0
XRECORD
  5
599
102
{ACAD_REACTORS
330
131
102
}
330
131
100
AcDbXrecord
280
     1
  1
Stützen
  1
a---stz*
  1
*
  1
*
 70
     0
  1
*
  1
*
  0
XRECORD
  5
59A
102
{ACAD_REACTORS
330
131
102
}
330
131
100
AcDbXrecord
280
     1
  1
su
  1
su*
  1
*
  1
*
 70
     0
  1
*
  1
*
  0
XRECORD
  5
59B
102
{ACAD_REACTORS
330
131
102
}
330
131
100
AcDbXrecord
280
     1
  1
su-
  1
su-*
  1
*
  1
*
 70
     0
  1
*
  1
*
  0
XRECORD
  5
59C
102
{ACAD_REACTORS
330
131
102
}
330
131
100
AcDbXrecord
280
     1
  1
sub
  1
*sub*
  1
*
  1
*
 70
     0
  1
*
  1
*
  0
XRECORD
  5
59D
102
{ACAD_REACTORS
330
131
102
}
330
131
100
AcDbXrecord
280
     1
  1
Surface Bed
  1
S-CONC-COL,S-SLAB,S-SAWCUTJOINT,S-ISOLATION JOINT,S-JOINTEX,S-CONSTRUCTION JOINT,S-DOWELS,S- DETAILS,S-LOAD BEARING WALLS,S-HATCH,S-EJ
  1
*
  1
*
 70
     0
  1
*
  1
*
  0
XRECORD
  5
59E
102
{ACAD_REACTORS
330
131
102
}
330
131
100
AcDbXrecord
280
     1
  1
surv-
  1
surv-*
  1
*
  1
*
 70
     0
  1
*
  1
*
  0
XRECORD
  5
59F
102
{ACAD_REACTORS
330
131
102
}
330
131
100
AcDbXrecord
280
     1
  1
survey
  1
All *
  1
*
  1
*
 70
     0
  1
*
  1
*
  0
XRECORD
  5
5A0
102
{ACAD_REACTORS
330
131
102
}
330
131
100
AcDbXrecord
280
     1
  1
survey-2
  1
survey-2*
  1
*
  1
*
 70
     0
  1
*
  1
*
  0
XRECORD
  5
5A1
102
{ACAD_REACTORS
330
131
102
}
330
131
100
AcDbXrecord
280
     1
  1
SVP
  1
*SVP*
  1
*
  1
*
 70
     0
  1
*
  1
*
  0
XRECORD
  5
5A2
102
{ACAD_REACTORS
330
131
102
}
330
131
100
AcDbXrecord
280
     1
  1
SWEET
  1
SWEET*
  1
*
  1
*
 70
     0
  1
*
  1
*
  0
XRECORD
  5
5A3
102
{ACAD_REACTORS
330
131
102
}
330
131
100
AcDbXrecord
280
     1
  1
SYM
  1
*SYM*
  1
*
  1
*
 70
     0
  1
*
  1
*
  0
XRECORD
  5
5A4
102
{ACAD_REACTORS
330
131
102
}
330
131
100
AcDbXrecord
280
     1
  1
SYMB
  1
*SYMB*
  1
*
  1
*
 70
     0
  1
*
  1
*
  0
XRECORD
  5
5A5
102
{ACAD_REACTORS
330
131
102
}
330
131
100
AcDbXrecord
280
     1
  1
symbols
  1
*sym*
  1
*
  1
*
 70
     0
  1
*
  1
*
  0
XRECORD
  5
5A6
102
{ACAD_REACTORS
330
131
102
}
330
131
100
AcDbXrecord
280
     1
  1
T-
  1
*
  1
*
  1
*
 70
     0
  1
*
  1
*
  0
XRECORD
  5
5A7
102
{ACAD_REACTORS
330
131
102
}
330
131
100
AcDbXrecord
280
     1
  1
T1
  1
00#
  1
*
  1
*
 70
     0
  1
*
  1
*
  0
XRECORD
  5
5A8
102
{ACAD_REACTORS
330
131
102
}
330
131
100
AcDbXrecord
280
     1
  1
T500
  1
*500*
  1
*
  1
*
 70
     0
  1
*
  1
*
  0
XRECORD
  5
5A9
102
{ACAD_REACTORS
330
131
102
}
330
131
100
AcDbXrecord
280
     1
  1
T_SAN
  1
*
  1
*
  1
*
 70
     0
  1
*
  1
*
  0
XRECORD
  5
5AA
102
{ACAD_REACTORS
330
131
102
}
330
131
100
AcDbXrecord
280
     1
  1
ta
  1
ta*
  1
*
  1
*
 70
     0
  1
*
  1
*
  0
XRECORD
  5
5AB
102
{ACAD_REACTORS
330
131
102
}
330
131
100
AcDbXrecord
280
     1
  1
TABS-Layers
  1
*
  1
*
  1
*
 70
     1
  1
*
  1
*
  0
XRECORD
  5
5AC
102
{ACAD_REACTORS
330
131
102
}
330
131
100
AcDbXrecord
280
     1
  1
TAG
  1
TAG*
  1
*
  1
*
 70
     0
  1
*
  1
*
  0
XRECORD
  5
5AD
102
{ACAD_REACTORS
330
131
102
}
330
131
100
AcDbXrecord
280
     1
  1
tags
  1
*tags
  1
*
  1
*
 70
     0
  1
*
  1
*
  0
XRECORD
  5
5AE
102
{ACAD_REACTORS
330
131
102
}
330
131
100
AcDbXrecord
280
     1
  1
TANK
  1
*TANK*
  1
*
  1
*
 70
     0
  1
*
  1
*
  0
XRECORD
  5
5AF
102
{ACAD_REACTORS
330
131
102
}
330
131
100
AcDbXrecord
280
     1
  1
TANKS
  1
*TANK*
  1
*
  1
*
 70
     0
  1
*
  1
*
  0
XRECORD
  5
5B0
102
{ACAD_REACTORS
330
131
102
}
330
131
100
AcDbXrecord
280
     1
  1
te
  1
te*
  1
*
  1
*
 70
     0
  1
*
  1
*
  0
XRECORD
  5
5B1
102
{ACAD_REACTORS
330
131
102
}
330
131
100
AcDbXrecord
280
     1
  1
TEACH
  1
TEACH*
  1
*
  1
*
 70
     0
  1
*
  1
*
  0
XRECORD
  5
5B2
102
{ACAD_REACTORS
330
131
102
}
330
131
100
AcDbXrecord
280
     1
  1
TECHNIK
  1
a-TE*
  1
*
  1
*
 70
     0
  1
*
  1
*
  0
XRECORD
  5
5B3
102
{ACAD_REACTORS
330
131
102
}
330
131
100
AcDbXrecord
280
     1
  1
Technikfläche
  1
t__*
  1
*
  1
*
 70
     0
  1
*
  1
*
  0
XRECORD
  5
5B4
102
{ACAD_REACTORS
330
131
102
}
330
131
100
AcDbXrecord
280
     1
  1
TEMP
  1
*TEMP*
  1
*
  1
*
 70
     0
  1
*
  1
*
  0
XRECORD
  5
5B5
102
{ACAD_REACTORS
330
131
102
}
330
131
100
AcDbXrecord
280
     1
  1
Temporary Filter
  1
ROOF*
  1
*
  1
*
 70
     0
  1
*
  1
*
  0
XRECORD
  5
5B6
102
{ACAD_REACTORS
330
131
102
}
330
131
100
AcDbXrecord
280
     1
  1
TENANT
  1
*TEN*
  1
*
  1
*
 70
     0
  1
*
  1
*
  0
XRECORD
  5
5B7
102
{ACAD_REACTORS
330
131
102
}
330
131
100
AcDbXrecord
280
     1
  1
test
  1
*_Beschriftung
  1
*
  1
*
 70
     0
  1
*
  1
*
  0
XRECORD
  5
5B8
102
{ACAD_REACTORS
330
131
102
}
330
131
100
AcDbXrecord
280
     1
  1
test1
  1
H*
  1
*
  1
*
 70
     0
  1
*
  1
*
  0
XRECORD
  5
5B9
102
{ACAD_REACTORS
330
131
102
}
330
131
100
AcDbXrecord
280
     1
  1
TEXT
  1
*A0000T*
  1
*
  1
*
 70
     0
  1
*
  1
*
  0
XRECORD
  5
5BA
102
{ACAD_REACTORS
330
131
102
}
330
131
100
AcDbXrecord
280
     1
  1
TEXT-BEST
  1
*txt*
  1
*
  1
*
 70
     0
  1
*
  1
*
  0
XRECORD
  5
5BB
102
{ACAD_REACTORS
330
131
102
}
330
131
100
AcDbXrecord
280
     1
  1
TEXT-SA
  1
*txt
  1
*
  1
*
 70
     0
  1
*
  1
*
  0
XRECORD
  5
5BC
102
{ACAD_REACTORS
330
131
102
}
330
131
100
AcDbXrecord
280
     1
  1
TEXT2
  1
*TEXT*
  1
*
  1
*
 70
     0
  1
*
  1
*
  0
XRECORD
  5
5BD
102
{ACAD_REACTORS
330
131
102
}
330
131
100
AcDbXrecord
280
     1
  1
Textblock
  1
*TS*
  1
*
  1
*
 70
     0
  1
*
  1
*
  0
XRECORD
  5
5BE
102
{ACAD_REACTORS
330
131
102
}
330
131
100
AcDbXrecord
280
     1
  1
Texte
  1
*-T*
  1
*
  1
*
 70
     0
  1
*
  1
*
  0
XRECORD
  5
5BF
102
{ACAD_REACTORS
330
131
102
}
330
131
100
AcDbXrecord
280
     1
  1
TexteRaum
  1
S20_B?_L45_D1
  1
*
  1
*
 70
     0
  1
*
  1
*
  0
XRECORD
  5
5C0
102
{ACAD_REACTORS
330
131
102
}
330
131
100
AcDbXrecord
280
     1
  1
TEXTGREEN
  1
*A000T*
  1
*GREEN*
  1
*
 70
     0
  1
*
  1
*
  0
XRECORD
  5
5C1
102
{ACAD_REACTORS
330
131
102
}
330
131
100
AcDbXrecord
280
     1
  1
tf
  1
*
  1
*
  1
*
 70
     7
  1
*
  1
*
  0
XRECORD
  5
5C2
102
{ACAD_REACTORS
330
131
102
}
330
131
100
AcDbXrecord
280
     1
  1
TGA
  1
T-*
  1
*
  1
*
 70
     0
  1
*
  1
*
  0
XRECORD
  5
5C3
102
{ACAD_REACTORS
330
131
102
}
330
131
100
AcDbXrecord
280
     1
  1
th
  1
th*
  1
*
  1
*
 70
     0
  1
*
  1
*
  0
XRECORD
  5
5C4
102
{ACAD_REACTORS
330
131
102
}
330
131
100
AcDbXrecord
280
     1
  1
thaw
  1
*
  1
*
  1
*
 70
    12
  1
*
  1
*
  0
XRECORD
  5
5C5
102
{ACAD_REACTORS
330
131
102
}
330
131
100
AcDbXrecord
280
     1
  1
thawed
  1
*
  1
*
  1
*
 70
    12
  1
*
  1
*
  0
XRECORD
  5
5C6
102
{ACAD_REACTORS
330
131
102
}
330
131
100
AcDbXrecord
280
     1
  1
TILES
  1
*TILES*
  1
*
  1
*
 70
     0
  1
*
  1
*
  0
XRECORD
  5
5C7
102
{ACAD_REACTORS
330
131
102
}
330
131
100
AcDbXrecord
280
     1
  1
TIMBER
  1
*TIMBER*
  1
*
  1
*
 70
     0
  1
*
  1
*
  0
XRECORD
  5
5C8
102
{ACAD_REACTORS
330
131
102
}
330
131
100
AcDbXrecord
280
     1
  1
TITLE
  1
*TITLE*
  1
*
  1
*
 70
     0
  1
*
  1
*
  0
XRECORD
  5
5C9
102
{ACAD_REACTORS
330
131
102
}
330
131
100
AcDbXrecord
280
     1
  1
TITLES
  1
TITLE*
  1
*
  1
*
 70
     0
  1
*
  1
*
  0
XRECORD
  5
5CA
102
{ACAD_REACTORS
330
131
102
}
330
131
100
AcDbXrecord
280
     1
  1
TJP
  1
*
  1
*
  1
*
 70
     0
  1
*
  1
*
  0
XRECORD
  5
5CB
102
{ACAD_REACTORS
330
131
102
}
330
131
100
AcDbXrecord
280
     1
  1
tmp
  1
*tmp*
  1
*
  1
*
 70
     0
  1
*
  1
*
  0
XRECORD
  5
5CC
102
{ACAD_REACTORS
330
131
102
}
330
131
100
AcDbXrecord
280
     1
  1
TO VIEW @ SCALE 1 TO 5
  1
*05*
  1
*
  1
*
 70
     0
  1
*
  1
*
  0
XRECORD
  5
5CD
102
{ACAD_REACTORS
330
131
102
}
330
131
100
AcDbXrecord
280
     1
  1
TOILET
  1
*TOILET*
  1
*
  1
*
 70
     0
  1
*
  1
*
  0
XRECORD
  5
5CE
102
{ACAD_REACTORS
330
131
102
}
330
131
100
AcDbXrecord
280
     1
  1
toiture
  1
*
  1
*
  1
*
 70
     0
  1
*
  1
*
  0
XRECORD
  5
5CF
102
{ACAD_REACTORS
330
131
102
}
330
131
100
AcDbXrecord
280
     1
  1
Totalité
  1
*
  1
*
  1
*
 70
     0
  1
*
  1
*
  0
XRECORD
  5
5D0
102
{ACAD_REACTORS
330
131
102
}
330
131
100
AcDbXrecord
280
     1
  1
tote
  1
tot*
  1
*
  1
*
 70
     0
  1
*
  1
*
  0
XRECORD
  5
5D1
102
{ACAD_REACTORS
330
131
102
}
330
131
100
AcDbXrecord
280
     1
  1
TP-TEXT
  1
A310T001
  1
*
  1
*
 70
    20
  1
*
  1
*
  0
XRECORD
  5
5D2
102
{ACAD_REACTORS
330
131
102
}
330
131
100
AcDbXrecord
280
     1
  1
TRACKS
  1
*TRACKS*
  1
*
  1
*
 70
     0
  1
*
  1
*
  0
XRECORD
  5
5D3
102
{ACAD_REACTORS
330
131
102
}
330
131
100
AcDbXrecord
280
     1
  1
tramway
  1
tramway
  1
*
  1
*
 70
     0
  1
*
  1
*
  0
XRECORD
  5
5D4
102
{ACAD_REACTORS
330
131
102
}
330
131
100
AcDbXrecord
280
     1
  1
TREE
  1
*TREE*
  1
*
  1
*
 70
     0
  1
*
  1
*
  0
XRECORD
  5
5D5
102
{ACAD_REACTORS
330
131
102
}
330
131
100
AcDbXrecord
280
     1
  1
trees
  1
*trees*
  1
*
  1
*
 70
     0
  1
*
  1
*
  0
XRECORD
  5
5D6
102
{ACAD_REACTORS
330
131
102
}
330
131
100
AcDbXrecord
280
     1
  1
Treppe
  1
A-TR*
  1
*
  1
*
 70
     0
  1
*
  1
*
  0
XRECORD
  5
5D7
102
{ACAD_REACTORS
330
131
102
}
330
131
100
AcDbXrecord
280
     1
  1
treppen
  1
*trep*
  1
*
  1
*
 70
     0
  1
*
  1
*
  0
XRECORD
  5
5D8
102
{ACAD_REACTORS
330
131
102
}
330
131
100
AcDbXrecord
280
     1
  1
TRIM
  1
TR*
  1
*
  1
*
 70
     0
  1
*
  1
*
  0
XRECORD
  5
5D9
102
{ACAD_REACTORS
330
131
102
}
330
131
100
AcDbXrecord
280
     1
  1
try me
  1
supports
  1
*
  1
*
 70
   781
  1
*
  1
*
  0
XRECORD
  5
5DA
102
{ACAD_REACTORS
330
131
102
}
330
131
100
AcDbXrecord
280
     1
  1
TTFM
  1
TTFM*
  1
*
  1
*
 70
     0
  1
*
  1
*
  0
XRECORD
  5
5DB
102
{ACAD_REACTORS
330
131
102
}
330
131
100
AcDbXrecord
280
     1
  1
TTFM g
  1
*
  1
*
  1
*
 70
     0
  1
*
  1
*
  0
XRECORD
  5
5DC
102
{ACAD_REACTORS
330
131
102
}
330
131
100
AcDbXrecord
280
     1
  1
TUBE ASSY
  1
T*
  1
*
  1
*
 70
     0
  1
*
  1
*
  0
XRECORD
  5
5DD
102
{ACAD_REACTORS
330
131
102
}
330
131
100
AcDbXrecord
280
     1
  1
TWP
  1
S_*
  1
*
  1
*
 70
     0
  1
*
  1
*
  0
XRECORD
  5
5DE
102
{ACAD_REACTORS
330
131
102
}
330
131
100
AcDbXrecord
280
     1
  1
tx
  1
*tx*
  1
*
  1
*
 70
     0
  1
*
  1
*
  0
XRECORD
  5
5DF
102
{ACAD_REACTORS
330
131
102
}
330
131
100
AcDbXrecord
280
     1
  1
TXT
  1
*txt
  1
*
  1
*
 70
     0
  1
*
  1
*
  0
XRECORD
  5
5E0
102
{ACAD_REACTORS
330
131
102
}
330
131
100
AcDbXrecord
280
     1
  1
TYPE
  1
*TYPE*
  1
*
  1
*
 70
     0
  1
*
  1
*
  0
XRECORD
  5
5E1
102
{ACAD_REACTORS
330
131
102
}
330
131
100
AcDbXrecord
280
     1
  1
Türen
  1
A-TU*
  1
*
  1
*
 70
     0
  1
*
  1
*
  0
XRECORD
  5
5E2
102
{ACAD_REACTORS
330
131
102
}
330
131
100
AcDbXrecord
280
     1
  1
u
  1
*u
  1
*
  1
*
 70
     0
  1
*
  1
*
  0
XRECORD
  5
5E3
102
{ACAD_REACTORS
330
131
102
}
330
131
100
AcDbXrecord
280
     1
  1
U1
  1
*U1*
  1
*
  1
*
 70
     0
  1
*
  1
*
  0
XRECORD
  5
5E4
102
{ACAD_REACTORS
330
131
102
}
330
131
100
AcDbXrecord
280
     1
  1
U2
  1
*U2*
  1
*
  1
*
 70
     0
  1
*
  1
*
  0
XRECORD
  5
5E5
102
{ACAD_REACTORS
330
131
102
}
330
131
100
AcDbXrecord
280
     1
  1
U3
  1
*U3*
  1
*
  1
*
 70
     0
  1
*
  1
*
  0
XRECORD
  5
5E6
102
{ACAD_REACTORS
330
131
102
}
330
131
100
AcDbXrecord
280
     1
  1
um
  1
*um*
  1
*
  1
*
 70
     0
  1
*
  1
*
  0
XRECORD
  5
5E7
102
{ACAD_REACTORS
330
131
102
}
330
131
100
AcDbXrecord
280
     1
  1
UNFROZEN
  1
*
  1
*
  1
*
 70
    12
  1
*
  1
*
  0
XRECORD
  5
5E8
102
{ACAD_REACTORS
330
131
102
}
330
131
100
AcDbXrecord
280
     1
  1
Unileitungen
  1
a-aa-uni*
  1
*
  1
*
 70
     0
  1
*
  1
*
  0
XRECORD
  5
5E9
102
{ACAD_REACTORS
330
131
102
}
330
131
100
AcDbXrecord
280
     1
  1
UNITA
  1
*a
  1
*
  1
*
 70
     0
  1
*
  1
*
  0
XRECORD
  5
5EA
102
{ACAD_REACTORS
330
131
102
}
330
131
100
AcDbXrecord
280
     1
  1
UNITB
  1
*B
  1
*
  1
*
 70
     0
  1
*
  1
*
  0
XRECORD
  5
5EB
102
{ACAD_REACTORS
330
131
102
}
330
131
100
AcDbXrecord
280
     1
  1
UNITC
  1
*C
  1
*
  1
*
 70
     0
  1
*
  1
*
  0
XRECORD
  5
5EC
102
{ACAD_REACTORS
330
131
102
}
330
131
100
AcDbXrecord
280
     1
  1
UNKN
  1
*UNKN*
  1
*
  1
*
 70
     0
  1
*
  1
*
  0
XRECORD
  5
5ED
102
{ACAD_REACTORS
330
131
102
}
330
131
100
AcDbXrecord
280
     1
  1
UNLOCKED
  1
*
  1
*
  1
*
 70
   768
  1
*
  1
*
  0
XRECORD
  5
5EE
102
{ACAD_REACTORS
330
131
102
}
330
131
100
AcDbXrecord
280
     1
  1
upper
  1
*
  1
*
  1
*
 70
    16
  1
*
  1
*
  0
XRECORD
  5
5EF
102
{ACAD_REACTORS
330
131
102
}
330
131
100
AcDbXrecord
280
     1
  1
UPPER GRD FLOOR
  1
AF*,UGF*,0,VIE*,DETA*
  1
*
  1
*
 70
     0
  1
*
  1
*
  0
XRECORD
  5
5F0
102
{ACAD_REACTORS
330
131
102
}
330
131
100
AcDbXrecord
280
     1
  1
UT
  1
UT*
  1
*
  1
*
 70
     0
  1
*
  1
*
  0
XRECORD
  5
5F1
102
{ACAD_REACTORS
330
131
102
}
330
131
100
AcDbXrecord
280
     1
  1
UT+VZT
  1
94*,96*
  1
*
  1
*
 70
     0
  1
*
  1
*
  0
XRECORD
  5
5F2
102
{ACAD_REACTORS
330
131
102
}
330
131
100
AcDbXrecord
280
     1
  1
UT+VZT+CH
  1
UT*,VZT*,CH*
  1
*
  1
*
 70
     0
  1
*
  1
*
  0
XRECORD
  5
5F3
102
{ACAD_REACTORS
330
131
102
}
330
131
100
AcDbXrecord
280
     1
  1
UT-CH
  1
UT-*,0*,CH-*
  1
*
  1
*
 70
     0
  1
*
  1
*
  0
XRECORD
  5
5F4
102
{ACAD_REACTORS
330
131
102
}
330
131
100
AcDbXrecord
280
     1
  1
UT-VZT
  1
94-*,96-*
  1
*
  1
*
 70
     0
  1
*
  1
*
  0
XRECORD
  5
5F5
102
{ACAD_REACTORS
330
131
102
}
330
131
100
AcDbXrecord
280
     1
  1
UTIL
  1
x-util|C-P2A?S?-SSWR
  1
*
  1
*
 70
     0
  1
*
  1
*
  0
XRECORD
  5
5F6
102
{ACAD_REACTORS
330
131
102
}
330
131
100
AcDbXrecord
280
     1
  1
V-ELECTRIC
  1
*V*
  1
*
  1
*
 70
     0
  1
*
  1
*
  0
XRECORD
  5
5F7
102
{ACAD_REACTORS
330
131
102
}
330
131
100
AcDbXrecord
280
     1
  1
VDK
  1
*VDK
  1
*
  1
*
 70
     0
  1
*
  1
*
  0
XRECORD
  5
5F8
102
{ACAD_REACTORS
330
131
102
}
330
131
100
AcDbXrecord
280
     1
  1
VECHILES
  1
*VEC*
  1
*
  1
*
 70
     0
  1
*
  1
*
  0
XRECORD
  5
5F9
102
{ACAD_REACTORS
330
131
102
}
330
131
100
AcDbXrecord
280
     1
  1
veg
  1
*veget*
  1
*
  1
*
 70
     0
  1
*
  1
*
  0
XRECORD
  5
5FA
102
{ACAD_REACTORS
330
131
102
}
330
131
100
AcDbXrecord
280
     1
  1
VEHICLES
  1
*VE*
  1
*
  1
*
 70
     0
  1
*
  1
*
  0
XRECORD
  5
5FB
102
{ACAD_REACTORS
330
131
102
}
330
131
100
AcDbXrecord
280
     1
  1
veneer off
  1
a-wall-vnr
  1
*
  1
*
 70
     3
  1
*
  1
*
  0
XRECORD
  5
5FC
102
{ACAD_REACTORS
330
131
102
}
330
131
100
AcDbXrecord
280
     1
  1
VENT
  1
VENT*
  1
*
  1
*
 70
     0
  1
*
  1
*
  0
XRECORD
  5
5FD
102
{ACAD_REACTORS
330
131
102
}
330
131
100
AcDbXrecord
280
     1
  1
ver
  1
*ver
  1
*
  1
*
 70
     0
  1
*
  1
*
  0
XRECORD
  5
5FE
102
{ACAD_REACTORS
330
131
102
}
330
131
100
AcDbXrecord
280
     1
  1
Verbindungsgang
  1
*VBG*
  1
*
  1
*
 70
     0
  1
*
  1
*
  0
XRECORD
  5
5FF
102
{ACAD_REACTORS
330
131
102
}
330
131
100
AcDbXrecord
280
     1
  1
verd
  1
*vdk,*l90*
  1
*
  1
*
 70
     0
  1
*
  1
*
  0
XRECORD
  5
600
102
{ACAD_REACTORS
330
131
102
}
330
131
100
AcDbXrecord
280
     1
  1
verd3e
  1
*verd
  1
*
  1
*
 70
     3
  1
*
  1
*
  0
XRECORD
  5
601
102
{ACAD_REACTORS
330
131
102
}
330
131
100
AcDbXrecord
280
     1
  1
VERDECKT
  1
*verd*
  1
*
  1
*
 70
     0
  1
*
  1
*
  0
XRECORD
  5
602
102
{ACAD_REACTORS
330
131
102
}
330
131
100
AcDbXrecord
280
     1
  1
verm
  1
*ver*
  1
*
  1
*
 70
     0
  1
*
  1
*
  0
XRECORD
  5
603
102
{ACAD_REACTORS
330
131
102
}
330
131
100
AcDbXrecord
280
     1
  1
vermas
  1
*ver
  1
*
  1
*
 70
     0
  1
*
  1
*
  0
XRECORD
  5
604
102
{ACAD_REACTORS
330
131
102
}
330
131
100
AcDbXrecord
280
     1
  1
VIEW
  1
*V*
  1
*
  1
*
 70
     0
  1
*
  1
*
  0
XRECORD
  5
605
102
{ACAD_REACTORS
330
131
102
}
330
131
100
AcDbXrecord
280
     1
  1
VIEWPORT
  1
*VIEWPORT*
  1
*
  1
*
 70
     0
  1
*
  1
*
  0
XRECORD
  5
606
102
{ACAD_REACTORS
330
131
102
}
330
131
100
AcDbXrecord
280
     1
  1
VISI
  1
*VISI*
  1
*
  1
*
 70
     0
  1
*
  1
*
  0
XRECORD
  5
607
102
{ACAD_REACTORS
330
131
102
}
330
131
100
AcDbXrecord
280
     1
  1
VP
  1
*VP*
  1
*
  1
*
 70
     0
  1
*
  1
*
  0
XRECORD
  5
608
102
{ACAD_REACTORS
330
131
102
}
330
131
100
AcDbXrecord
280
     1
  1
VP LAYERS
  1
VP*
  1
*
  1
*
 70
     0
  1
*
  1
*
  0
XRECORD
  5
609
102
{ACAD_REACTORS
330
131
102
}
330
131
100
AcDbXrecord
280
     1
  1
VP-FREEZE
  1
*
  1
*
  1
*
 70
    80
  1
*
  1
*
  0
XRECORD
  5
60A
102
{ACAD_REACTORS
330
131
102
}
330
131
100
AcDbXrecord
280
     1
  1
VPORT
  1
*VPORT*
  1
*
  1
*
 70
     0
  1
*
  1
*
  0
XRECORD
  5
60B
102
{ACAD_REACTORS
330
131
102
}
330
131
100
AcDbXrecord
280
     1
  1
VZT
  1
VZT*
  1
*
  1
*
 70
     0
  1
*
  1
*
  0
XRECORD
  5
60C
102
{ACAD_REACTORS
330
131
102
}
330
131
100
AcDbXrecord
280
     1
  1
VZT+UT
  1
VZT-*,UT-*
  1
*
  1
*
 70
     0
  1
*
  1
*
  0
XRECORD
  5
60D
102
{ACAD_REACTORS
330
131
102
}
330
131
100
AcDbXrecord
280
     1
  1
W
  1
*SYMB*
  1
*
  1
*
 70
     0
  1
*
  1
*
  0
XRECORD
  5
60E
102
{ACAD_REACTORS
330
131
102
}
330
131
100
AcDbXrecord
280
     1
  1
WA_Aussp
  1
Htsv_bt_oewa*
  1
*
  1
*
 70
     0
  1
*
  1
*
  0
XRECORD
  5
60F
102
{ACAD_REACTORS
330
131
102
}
330
131
100
AcDbXrecord
280
     1
  1
WA_oeff
  1
Htsv_bt_oeff*
  1
*
  1
*
 70
     0
  1
*
  1
*
  0
XRECORD
  5
610
102
{ACAD_REACTORS
330
131
102
}
330
131
100
AcDbXrecord
280
     1
  1
WADE
  1
*DEMO*
  1
*
  1
*
 70
     0
  1
*
  1
*
  0
XRECORD
  5
611
102
{ACAD_REACTORS
330
131
102
}
330
131
100
AcDbXrecord
280
     1
  1
Waende
  1
*A-WA*
  1
*
  1
*
 70
     0
  1
*
  1
*
  0
XRECORD
  5
612
102
{ACAD_REACTORS
330
131
102
}
330
131
100
AcDbXrecord
280
     1
  1
waiter
  1
waiter*
  1
*
  1
*
 70
     0
  1
*
  1
*
  0
XRECORD
  5
613
102
{ACAD_REACTORS
330
131
102
}
330
131
100
AcDbXrecord
280
     1
  1
WALL
  1
*WALL*
  1
*
  1
*
 70
     0
  1
*
  1
*
  0
XRECORD
  5
614
102
{ACAD_REACTORS
330
131
102
}
330
131
100
AcDbXrecord
280
     1
  1
WALLS
  1
*WALL*
  1
*
  1
*
 70
     0
  1
*
  1
*
  0
XRECORD
  5
615
102
{ACAD_REACTORS
330
131
102
}
330
131
100
AcDbXrecord
280
     1
  1
walls-masonry
  1
*walls*
  1
*
  1
*
 70
     0
  1
*
  1
*
  0
XRECORD
  5
616
102
{ACAD_REACTORS
330
131
102
}
330
131
100
AcDbXrecord
280
     1
  1
wand
  1
S20_B?_L555_D100
  1
*
  1
*
 70
     0
  1
*
  1
*
  0
XRECORD
  5
617
102
{ACAD_REACTORS
330
131
102
}
330
131
100
AcDbXrecord
280
     1
  1
WATER
  1
C-P?A?S?-WATR*
  1
*
  1
*
 70
     0
  1
*
  1
*
  0
XRECORD
  5
618
102
{ACAD_REACTORS
330
131
102
}
330
131
100
AcDbXrecord
280
     1
  1
WC
  1
*WC*
  1
*
  1
*
 70
     0
  1
*
  1
*
  0
XRECORD
  5
619
102
{ACAD_REACTORS
330
131
102
}
330
131
100
AcDbXrecord
280
     1
  1
we
  1
*sym*
  1
*
  1
*
 70
     0
  1
*
  1
*
  0
XRECORD
  5
61A
102
{ACAD_REACTORS
330
131
102
}
330
131
100
AcDbXrecord
280
     1
  1
White
  1
*
  1
white
  1
*
 70
     0
  1
*
  1
*
  0
XRECORD
  5
61B
102
{ACAD_REACTORS
330
131
102
}
330
131
100
AcDbXrecord
280
     1
  1
WHITE LINING
  1
WL-*
  1
*
  1
*
 70
     0
  1
*
  1
*
  0
XRECORD
  5
61C
102
{ACAD_REACTORS
330
131
102
}
330
131
100
AcDbXrecord
280
     1
  1
window
  1
window*
  1
*
  1
*
 70
     0
  1
*
  1
*
  0
XRECORD
  5
61D
102
{ACAD_REACTORS
330
131
102
}
330
131
100
AcDbXrecord
280
     1
  1
WINDOWS
  1
*WIN*
  1
*
  1
*
 70
     0
  1
*
  1
*
  0
XRECORD
  5
61E
102
{ACAD_REACTORS
330
131
102
}
330
131
100
AcDbXrecord
280
     1
  1
WINEBIN
  1
WINE*,2D*
  1
*
  1
*
 70
     0
  1
*
  1
*
  0
XRECORD
  5
61F
102
{ACAD_REACTORS
330
131
102
}
330
131
100
AcDbXrecord
280
     1
  1
winebins
  1
wine*
  1
*
  1
*
 70
     0
  1
*
  1
*
  0
XRECORD
  5
620
102
{ACAD_REACTORS
330
131
102
}
330
131
100
AcDbXrecord
280
     1
  1
WINREF
  1
*WINREF*
  1
*
  1
*
 70
     0
  1
*
  1
*
  0
XRECORD
  5
621
102
{ACAD_REACTORS
330
131
102
}
330
131
100
AcDbXrecord
280
     1
  1
wolken
  1
*wolk*
  1
*
  1
*
 70
     0
  1
*
  1
*
  0
XRECORD
  5
622
102
{ACAD_REACTORS
330
131
102
}
330
131
100
AcDbXrecord
280
     1
  1
Wände
  1
A-WA*
  1
*
  1
*
 70
     0
  1
*
  1
*
  0
XRECORD
  5
623
102
{ACAD_REACTORS
330
131
102
}
330
131
100
AcDbXrecord
280
     1
  1
X layers
  1
x*
  1
*
  1
*
 70
     0
  1
*
  1
*
  0
XRECORD
  5
624
102
{ACAD_REACTORS
330
131
102
}
330
131
100
AcDbXrecord
280
     1
  1
x-refed
  1
xr*
  1
*
  1
*
 70
     0
  1
*
  1
*
  0
XRECORD
  5
625
102
{ACAD_REACTORS
330
131
102
}
330
131
100
AcDbXrecord
280
     1
  1
x-topo5
  1
x-topo*
  1
5
  1
*
 70
     0
  1
*
  1
*
  0
XRECORD
  5
626
102
{ACAD_REACTORS
330
131
102
}
330
131
100
AcDbXrecord
280
     1
  1
XA210G
  1
*A210*
  1
*
  1
*
 70
     0
  1
*
  1
*
  0
XRECORD
  5
627
102
{ACAD_REACTORS
330
131
102
}
330
131
100
AcDbXrecord
280
     1
  1
XDEMO
  1
*X-*DEMO
  1
*
  1
*
 70
     0
  1
*
  1
*
  0
XRECORD
  5
628
102
{ACAD_REACTORS
330
131
102
}
330
131
100
AcDbXrecord
280
     1
  1
XREF
  1
Xref*
  1
*
  1
*
 70
     0
  1
*
  1
*
  0
XRECORD
  5
629
102
{ACAD_REACTORS
330
131
102
}
330
131
100
AcDbXrecord
280
     1
  1
xref-off
  1
1-L1-opt*
  1
*
  1
*
 70
     0
  1
*
  1
*
  0
XRECORD
  5
62A
102
{ACAD_REACTORS
330
131
102
}
330
131
100
AcDbXrecord
280
     1
  1
xrefs
  1
*xrefs*
  1
*
  1
*
 70
     0
  1
*
  1
*
  0
XRECORD
  5
62B
102
{ACAD_REACTORS
330
131
102
}
330
131
100
AcDbXrecord
280
     1
  1
Y
  1
*Y
  1
*
  1
*
 70
     0
  1
*
  1
*
  0
XRECORD
  5
62C
102
{ACAD_REACTORS
330
131
102
}
330
131
100
AcDbXrecord
280
     1
  1
yellow
  1
*
  1
yellow
  1
*
 70
     0
  1
*
  1
*
  0
XRECORD
  5
62D
102
{ACAD_REACTORS
330
131
102
}
330
131
100
AcDbXrecord
280
     1
  1
z
  1
*
  1
*
  1
*
 70
     3
  1
*
  1
*
  0
XRECORD
  5
62E
102
{ACAD_REACTORS
330
131
102
}
330
131
100
AcDbXrecord
280
     1
  1
Z ON
  1
Z*
  1
*
  1
*
 70
     0
  1
*
  1
*
  0
XRECORD
  5
62F
102
{ACAD_REACTORS
330
131
102
}
330
131
100
AcDbXrecord
280
     1
  1
Z+P
  1
Z*
  1
*
  1
*
 70
     0
  1
*
  1
*
  0
XRECORD
  5
630
102
{ACAD_REACTORS
330
131
102
}
330
131
100
AcDbXrecord
280
     1
  1
Z1
  1
Z1*
  1
*
  1
*
 70
     0
  1
*
  1
*
  0
XRECORD
  5
631
102
{ACAD_REACTORS
330
131
102
}
330
131
100
AcDbXrecord
280
     1
  1
Z1-B
  1
Z1-B*
  1
*
  1
*
 70
     0
  1
*
  1
*
  0
XRECORD
  5
632
102
{ACAD_REACTORS
330
131
102
}
330
131
100
AcDbXrecord
280
     1
  1
Z1-H
  1
Z1-H*
  1
*
  1
*
 70
     0
  1
*
  1
*
  0
XRECORD
  5
633
102
{ACAD_REACTORS
330
131
102
}
330
131
100
AcDbXrecord
280
     1
  1
Z1-K
  1
Z1-K*
  1
*
  1
*
 70
     0
  1
*
  1
*
  0
XRECORD
  5
634
102
{ACAD_REACTORS
330
131
102
}
330
131
100
AcDbXrecord
280
     1
  1
Z1-L
  1
Z1-L*
  1
*
  1
*
 70
     0
  1
*
  1
*
  0
XRECORD
  5
635
102
{ACAD_REACTORS
330
131
102
}
330
131
100
AcDbXrecord
280
     1
  1
Z1-S
  1
Z1-S*
  1
*
  1
*
 70
     0
  1
*
  1
*
  0
XRECORD
  5
636
102
{ACAD_REACTORS
330
131
102
}
330
131
100
AcDbXrecord
280
     1
  1
z4
  1
*z4*
  1
*
  1
*
 70
     0
  1
*
  1
*
  0
XRECORD
  5
637
102
{ACAD_REACTORS
330
131
102
}
330
131
100
AcDbXrecord
280
     1
  1
z_wissen
  1
z*
  1
*
  1
*
 70
     0
  1
*
  1
*
  0
XRECORD
  5
638
102
{ACAD_REACTORS
330
131
102
}
330
131
100
AcDbXrecord
280
     1
  1
Zapnuté
  1
*
  1
*
  1
*
 70
    12
  1
*
  1
*
  0
XRECORD
  5
639
102
{ACAD_REACTORS
330
131
102
}
330
131
100
AcDbXrecord
280
     1
  1
zone
  1
*zones*
  1
*
  1
*
 70
     0
  1
*
  1
*
  0
XRECORD
  5
63A
102
{ACAD_REACTORS
330
131
102
}
330
131
100
AcDbXrecord
280
     1
  1
zu1
  1
*zu1*
  1
*
  1
*
 70
     0
  1
*
  1
*
  0
XRECORD
  5
63B
102
{ACAD_REACTORS
330
131
102
}
330
131
100
AcDbXrecord
280
     1
  1
zu3
  1
*zu3*
  1
*
  1
*
 70
     0
  1
*
  1
*
  0
XRECORD
  5
63C
102
{ACAD_REACTORS
330
131
102
}
330
131
100
AcDbXrecord
280
     1
  1
zu4
  1
*zu4*
  1
*
  1
*
 70
     0
  1
*
  1
*
  0
DICTIONARY
  5
4837
330
51
100
AcDbDictionary
280
     1
281
     1
  3
ACAD_XREC_ROUNDTRIP
360
4838
  0
DICTIONARY
  5
4839
330
56
100
AcDbDictionary
280
     1
281
     1
  3
ACAD_XREC_ROUNDTRIP
360
483A
  0
DICTIONARY
  5
4835
330
22
100
AcDbDictionary
280
     1
281
     1
  3
ACAD_XREC_ROUNDTRIP
360
4836
  0
XRECORD
  5
4838
102
{ACAD_REACTORS
330
4837
102
}
330
4837
100
AcDbXrecord
280
     1
102
SHADEPLOT
 70
     0
102
SHADEPLOTRESLEVEL
 70
     2
102
SHADEPLOTCUSTOMDPI
 70
   300
  0
XRECORD
  5
483A
102
{ACAD_REACTORS
330
4839
102
}
330
4839
100
AcDbXrecord
280
     1
102
SHADEPLOT
 70
     0
102
SHADEPLOTRESLEVEL
 70
     2
102
SHADEPLOTCUSTOMDPI
 70
   300
  0
XRECORD
  5
4836
102
{ACAD_REACTORS
330
4835
102
}
330
4835
100
AcDbXrecord
280
     1
102
SHADEPLOT
 70
     0
102
SHADEPLOTRESLEVEL
 70
     2
102
SHADEPLOTCUSTOMDPI
 70
   300
  0
ENDSEC
  0
EOF
