  0
SECTION
  2
HEADER
  9
$ACADVER
  1
AC1015
  9
$ACADMAINTVER
 70
    20
  9
$DWGCODEPAGE
  3
ANSI_1252
  9
$INSBASE
 10
0.0
 20
0.0
 30
0.0
  9
$EXTMIN
 10
-0.0000008375255902
 20
-0.0000009713428426
 30
0.0
  9
$EXTMAX
 10
626.0249991624736
 20
423.3249990286571
 30
0.0
  9
$LIMMIN
 10
0.0
 20
0.0
  9
$LIMMAX
 10
420.0
 20
297.0
  9
$ORTHOMODE
 70
     0
  9
$REGENMODE
 70
     1
  9
$FILLMODE
 70
     1
  9
$QTEXTMODE
 70
     0
  9
$MIRRTEXT
 70
     1
  9
$LTSCALE
 40
1.0
  9
$ATTMODE
 70
     1
  9
$TEXTSIZE
 40
2.5
  9
$TRACEWID
 40
1.0
  9
$TEXTSTYLE
  7
STANDARD
  9
$CLAYER
  8
0
  9
$CELTYPE
  6
ByLayer
  9
$CECOLOR
 62
   256
  9
$CELTSCALE
 40
1.0
  9
$DISPSILH
 70
     0
  9
$DIMSCALE
 40
1.0
  9
$DIMASZ
 40
2.5
  9
$DIMEXO
 40
1.0
  9
$DIMDLI
 40
10.0
  9
$DIMRND
 40
0.0
  9
$DIMDLE
 40
0.0
  9
$DIMEXE
 40
1.0
  9
$DIMTP
 40
0.1
  9
$DIMTM
 40
0.1
  9
$DIMTXT
 40
3.5
  9
$DIMCEN
 40
0.0
  9
$DIMTSZ
 40
0.0
  9
$DIMTOL
 70
     0
  9
$DIMLIM
 70
     0
  9
$DIMTIH
 70
     0
  9
$DIMTOH
 70
     0
  9
$DIMSE1
 70
     0
  9
$DIMSE2
 70
     0
  9
$DIMTAD
 70
     1
  9
$DIMZIN
 70
     8
  9
$DIMBLK
  1

  9
$DIMASO
 70
     1
  9
$DIMSHO
 70
     1
  9
$DIMPOST
  1

  9
$DIMAPOST
  1
"
  9
$DIMALT
 70
     0
  9
$DIMALTD
 70
     2
  9
$DIMALTF
 40
0.0393701
  9
$DIMLFAC
 40
1.0
  9
$DIMTOFL
 70
     1
  9
$DIMTVP
 40
0.0
  9
$DIMTIX
 70
     0
  9
$DIMSOXD
 70
     0
  9
$DIMSAH
 70
     0
  9
$DIMBLK1
  1

  9
$DIMBLK2
  1

  9
$DIMSTYLE
  2
AM_DIN
  9
$DIMCLRD
 70
   256
  9
$DIMCLRE
 70
   256
  9
$DIMCLRT
 70
     2
  9
$DIMTFAC
 40
0.71
  9
$DIMGAP
 40
1.5
  9
$DIMJUST
 70
     0
  9
$DIMSD1
 70
     0
  9
$DIMSD2
 70
     0
  9
$DIMTOLJ
 70
     0
  9
$DIMTZIN
 70
     8
  9
$DIMALTZ
 70
     0
  9
$DIMALTTZ
 70
     0
  9
$DIMUPT
 70
     0
  9
$DIMDEC
 70
     2
  9
$DIMTDEC
 70
     3
  9
$DIMALTU
 70
     2
  9
$DIMALTTD
 70
     4
  9
$DIMTXSTY
  7
STANDARD
  9
$DIMAUNIT
 70
     0
  9
$DIMADEC
 70
     0
  9
$DIMALTRND
 40
0.0
  9
$DIMAZIN
 70
     2
  9
$DIMDSEP
 70
    46
  9
$DIMATFIT
 70
     3
  9
$DIMFRAC
 70
     0
  9
$DIMLDRBLK
  1

  9
$DIMLUNIT
 70
     2
  9
$DIMLWD
 70
    -1
  9
$DIMLWE
 70
    -1
  9
$DIMTMOVE
 70
     0
  9
$LUNITS
 70
     2
  9
$LUPREC
 70
     2
  9
$SKETCHINC
 40
1.0
  9
$FILLETRAD
 40
0.0
  9
$AUNITS
 70
     0
  9
$AUPREC
 70
     0
  9
$MENU
  1
.
  9
$ELEVATION
 40
0.0
  9
$PELEVATION
 40
0.0
  9
$THICKNESS
 40
0.0
  9
$LIMCHECK
 70
     0
  9
$CHAMFERA
 40
2.5
  9
$CHAMFERB
 40
2.5
  9
$CHAMFERC
 40
20.0
  9
$CHAMFERD
 40
0.0
  9
$SKPOLY
 70
     0
  9
$TDCREATE
 40
2452702.515835023
  9
$TDUCREATE
 40
2452702.474168357
  9
$TDUPDATE
 40
2455146.463708044
  9
$TDUUPDATE
 40
2455146.422041378
  9
$TDINDWG
 40
0.4718509954
  9
$TDUSRTIMER
 40
0.4718509954
  9
$USRTIMER
 70
     1
  9
$ANGBASE
 50
0.0
  9
$ANGDIR
 70
     0
  9
$PDMODE
 70
     0
  9
$PDSIZE
 40
0.0
  9
$PLINEWID
 40
0.0
  9
$SPLFRAME
 70
     0
  9
$SPLINETYPE
 70
     6
  9
$SPLINESEGS
 70
     8
  9
$HANDSEED
  5
72E
  9
$SURFTAB1
 70
     6
  9
$SURFTAB2
 70
     6
  9
$SURFTYPE
 70
     6
  9
$SURFU
 70
     6
  9
$SURFV
 70
     6
  9
$UCSBASE
  2

  9
$UCSNAME
  2

  9
$UCSORG
 10
0.0
 20
0.0
 30
0.0
  9
$UCSXDIR
 10
1.0
 20
0.0
 30
0.0
  9
$UCSYDIR
 10
0.0
 20
1.0
 30
0.0
  9
$UCSORTHOREF
  2

  9
$UCSORTHOVIEW
 70
     0
  9
$UCSORGTOP
 10
0.0
 20
0.0
 30
0.0
  9
$UCSORGBOTTOM
 10
0.0
 20
0.0
 30
0.0
  9
$UCSORGLEFT
 10
0.0
 20
0.0
 30
0.0
  9
$UCSORGRIGHT
 10
0.0
 20
0.0
 30
0.0
  9
$UCSORGFRONT
 10
0.0
 20
0.0
 30
0.0
  9
$UCSORGBACK
 10
0.0
 20
0.0
 30
0.0
  9
$PUCSBASE
  2

  9
$PUCSNAME
  2

  9
$PUCSORG
 10
0.0
 20
0.0
 30
0.0
  9
$PUCSXDIR
 10
1.0
 20
0.0
 30
0.0
  9
$PUCSYDIR
 10
0.0
 20
1.0
 30
0.0
  9
$PUCSORTHOREF
  2

  9
$PUCSORTHOVIEW
 70
     0
  9
$PUCSORGTOP
 10
0.0
 20
0.0
 30
0.0
  9
$PUCSORGBOTTOM
 10
0.0
 20
0.0
 30
0.0
  9
$PUCSORGLEFT
 10
0.0
 20
0.0
 30
0.0
  9
$PUCSORGRIGHT
 10
0.0
 20
0.0
 30
0.0
  9
$PUCSORGFRONT
 10
0.0
 20
0.0
 30
0.0
  9
$PUCSORGBACK
 10
0.0
 20
0.0
 30
0.0
  9
$USERI1
 70
     0
  9
$USERI2
 70
     0
  9
$USERI3
 70
     0
  9
$USERI4
 70
     0
  9
$USERI5
 70
     0
  9
$USERR1
 40
0.0
  9
$USERR2
 40
0.0
  9
$USERR3
 40
0.0
  9
$USERR4
 40
0.0
  9
$USERR5
 40
0.0
  9
$WORLDVIEW
 70
     1
  9
$SHADEDGE
 70
     3
  9
$SHADEDIF
 70
    70
  9
$TILEMODE
 70
     1
  9
$MAXACTVP
 70
    64
  9
$PINSBASE
 10
0.0
 20
0.0
 30
0.0
  9
$PLIMCHECK
 70
     0
  9
$PEXTMIN
 10
1.000000000000000E+20
 20
1.000000000000000E+20
 30
1.000000000000000E+20
  9
$PEXTMAX
 10
-1.000000000000000E+20
 20
-1.000000000000000E+20
 30
-1.000000000000000E+20
  9
$PLIMMIN
 10
0.0
 20
0.0
  9
$PLIMMAX
 10
420.0
 20
297.0
  9
$UNITMODE
 70
     0
  9
$VISRETAIN
 70
     1
  9
$PLINEGEN
 70
     0
  9
$PSLTSCALE
 70
     1
  9
$TREEDEPTH
 70
  3020
  9
$CMLSTYLE
  2
Standard
  9
$CMLJUST
 70
     0
  9
$CMLSCALE
 40
20.0
  9
$PROXYGRAPHICS
 70
     1
  9
$MEASUREMENT
 70
     1
  9
$CELWEIGHT
370
    -1
  9
$ENDCAPS
280
     0
  9
$JOINSTYLE
280
     0
  9
$LWDISPLAY
290
     0
  9
$INSUNITS
 70
     4
  9
$HYPERLINKBASE
  1

  9
$STYLESHEET
  1
monochrome.ctb
  9
$XEDIT
290
     1
  9
$CEPSNTYPE
380
     0
  9
$PSTYLEMODE
290
     1
  9
$FINGERPRINTGUID
  2
{D5091DE6-A8E7-4749-B1FA-F4240FAEB0F0}
  9
$VERSIONGUID
  2
{A92CC636-E80E-45C8-A74A-AC458A2AB092}
  9
$EXTNAMES
290
     1
  9
$PSVPSCALE
 40
0.0
  9
$OLESTARTUP
290
     0
  0
ENDSEC
  0
SECTION
  2
CLASSES
  0
CLASS
  1
ACDBDICTIONARYWDFLT
  2
AcDbDictionaryWithDefault
  3
ObjectDBX Classes
 90
        0
280
     0
281
     0
  0
CLASS
  1
ACDBPLACEHOLDER
  2
AcDbPlaceHolder
  3
ObjectDBX Classes
 90
        0
280
     0
281
     0
  0
CLASS
  1
LAYOUT
  2
AcDbLayout
  3
ObjectDBX Classes
 90
        0
280
     0
281
     0
  0
CLASS
  1
AMGSETTINGSOBJ
  2
AmgSettingsObj
  3
"AcadM|Product Description: AutoCAD Mechanical|Company: Autodesk, Inc."
 90
     1024
280
     0
281
     0
  0
CLASS
  1
ACME_DOCUMENT
  2
AcMeDbDoc
  3
AcMeServices
 90
     1024
280
     0
281
     0
  0
CLASS
  1
ACMESCOPE
  2
AcMeScope
  3
AcMeServices
 90
     1024
280
     0
281
     0
  0
CLASS
  1
ACMECOMMANDHISTORY
  2
AcMeCommandHistory
  3
AcMeServices
 90
     1024
280
     0
281
     0
  0
CLASS
  1
DICTIONARYVAR
  2
AcDbDictionaryVar
  3
ObjectDBX Classes
 90
        0
280
     0
281
     0
  0
CLASS
  1
ACIMSYSVARMAN
  2
AcImSysVarManager
  3
AcMeServices
 90
     1024
280
     0
281
     0
  0
CLASS
  1
ACIMREALSYSVAR
  2
AcImRealSysVar
  3
AcMeServices
 90
     1024
280
     0
281
     0
  0
CLASS
  1
ACIMINTSYSVAR
  2
AcImIntSysVar
  3
AcMeServices
 90
     1024
280
     0
281
     0
  0
CLASS
  1
ACMEDRAWINGMAN
  2
AcMeDrawingMan
  3
AcMeServices
 90
     1024
280
     0
281
     0
  0
CLASS
  1
ACMEVIEW
  2
AcMeView
  3
AcMeServices
 90
     1024
280
     0
281
     0
  0
CLASS
  1
ACDBENTITYCACHE
  2
AcMeEntityCache
  3
AcMeServices
 90
     1024
280
     0
281
     0
  0
CLASS
  1
GSMANAGER
  2
AcMeGSManager
  3
AcMeServices
 90
     1024
280
     0
281
     0
  0
CLASS
  1
AMDTINTERNALREACTOR
  2
AmdtInternalReactor
  3
AcMeServices
 90
     1024
280
     0
281
     0
  0
CLASS
  1
ACMESTATEMGR
  2
AcMeStateMgr
  3
AcMeServices
 90
     1024
280
     0
281
     0
  0
CLASS
  1
ACGREFMASTER
  2
AcGrefMaster
  3
AcAttribServices
 90
     1024
280
     0
281
     0
  0
CLASS
  1
ACME_DATABASE
  2
AcMeDbDatabase
  3
AcMeServices
 90
     1024
280
     0
281
     0
  0
CLASS
  1
ACRFINSADJUSTERMGR
  2
AcRfInsAdjusterMgr
  3
AcMeServices
 90
     1024
280
     0
281
     0
  0
CLASS
  1
ACGREFACADMASTER
  2
AcGrefacadMaster
  3
AcGrefServices
 90
     1024
280
     0
281
     0
  0
CLASS
  1
AMIMASTER
  2
AmiMaster
  3
AmiServices
 90
     1024
280
     0
281
     0
  0
CLASS
  1
ACMDATADICTIONARY
  2
AcmDataDictionary
  3
"AcmSymBB|Product Description: AutoCAD Mechanical|Company: Autodesk, Inc."
 90
     1024
280
     0
281
     0
  0
CLASS
  1
ACMDATAENTRYBLOCK
  2
AcmDataEntryBlock
  3
AcmSymBB|Product Description: AutoCAD Mechanical|Company: Autodesk, Inc.
 90
     1024
280
     0
281
     0
  0
CLASS
  1
ACIMSTRSYSVAR
  2
AcImStrSysVar
  3
AcMeServices
 90
     1024
280
     0
281
     0
  0
CLASS
  1
ACMSTANDARDDIN
  2
AcmStandardDIN
  3
"Amdt_StdImp|Product Description: AutoCAD Mechanical|Company: Autodesk, Inc."
 90
     1024
280
     0
281
     0
  0
CLASS
  1
AMGOBJPROPCFG
  2
AmgObjPropCfg
  3
"AmgLay|Product Description: AutoCAD Mechanical|Company: Autodesk, Inc."
 90
     1025
280
     0
281
     0
  0
CLASS
  1
AMDTEDGESTANDARDDIN
  2
AmdtEdgeStdDIN
  3
"Amdt_StdImp|Product Description: AutoCAD Mechanical|Company: Autodesk, Inc."
 90
     1024
280
     0
281
     0
  0
CLASS
  1
ACMSURFSTANDARDDIN
  2
AcmSurfTextStdDIN
  3
"Amdt_StdImp|Product Description: AutoCAD Mechanical|Company: Autodesk, Inc."
 90
     1024
280
     0
281
     0
  0
CLASS
  1
ACMFCFSTANDARDDIN
  2
AcmFCFStdDIN
  3
"Amdt_StdImp|Product Description: AutoCAD Mechanical|Company: Autodesk, Inc."
 90
     1024
280
     0
281
     0
  0
CLASS
  1
ACMWELDSTANDARDDIN
  2
AcmWeldingStdDIN
  3
"Amdt_StdImp|Product Description: AutoCAD Mechanical|Company: Autodesk, Inc."
 90
     1024
280
     0
281
     0
  0
CLASS
  1
ACMIDSTANDARDDIN
  2
AcmIdStdDIN
  3
"Amdt_StdImp|Product Description: AutoCAD Mechanical|Company: Autodesk, Inc."
 90
     1024
280
     0
281
     0
  0
CLASS
  1
ACMDATUMSTANDARDDIN
  2
AcmDatumStdDIN
  3
"Amdt_StdImp|Product Description: AutoCAD Mechanical|Company: Autodesk, Inc."
 90
     1024
280
     0
281
     0
  0
CLASS
  1
ACMBOMSTANDARDDIN
  2
AcmBOMStdDIN
  3
"Amdt_StdImp|Product Description: AutoCAD Mechanical|Company: Autodesk, Inc."
 90
     1024
280
     0
281
     0
  0
CLASS
  1
ACMDETAILSTANDARDDIN
  2
AmdtDetailSymStdDIN
  3
"Amdt_StdImp|Product Description: AutoCAD Mechanical|Company: Autodesk, Inc."
 90
     1024
280
     0
281
     0
  0
CLASS
  1
ACMSECTIONSTANDARDDIN
  2
AmdtSectionSymStdDIN
  3
"Amdt_StdImp|Product Description: AutoCAD Mechanical|Company: Autodesk, Inc."
 90
     1024
280
     0
281
     0
  0
CLASS
  1
ACMCENTERLINESTANDARDDIN
  2
AmdtCenterLineStdDIN
  3
"Amdt_StdImp|Product Description: AutoCAD Mechanical|Company: Autodesk, Inc."
 90
     1024
280
     0
281
     0
  0
CLASS
  1
ACAMGLAYSTD
  2
AcAmgLayStd
  3
"AmgLay|Product Description: AutoCAD Mechanical|Company: Autodesk, Inc."
 90
     1024
280
     0
281
     0
  0
CLASS
  1
ACAMGDIMSTD
  2
AcAmgDimStd
  3
"AmgDim|Product Description: AutoCAD Mechanical|Company: Autodesk, Inc."
 90
     1024
280
     0
281
     0
  0
CLASS
  1
ACAMGTITLESTD
  2
AcAmgTitleStd
  3
"AmgTitle|Product Description: AutoCAD Mechanical|Company: Autodesk, Inc."
 90
     4095
280
     0
281
     0
  0
CLASS
  1
LAYER_INDEX
  2
AcDbLayerIndex
  3
ObjectDBX Classes
 90
    32768
280
     0
281
     0
  0
CLASS
  1
IDBUFFER
  2
AcDbIdBuffer
  3
ObjectDBX Classes
 90
    32768
280
     0
281
     0
  0
CLASS
  1
TABLESTYLE
  2
AcDbTableStyle
  3
ObjectDBX Classes
 90
     4095
280
     0
281
     0
  0
CLASS
  1
AM_DRAWING_MGR
  2
AcDmDwgMgr
  3
AcMechDwgViewMgmt
 90
     1024
280
     0
281
     0
  0
CLASS
  1
AM_DWG_DOCUMENT
  2
AcDmDwgDocument
  3
AcMechDwgViewMgmt
 90
     1024
280
     0
281
     0
  0
CLASS
  1
AM_DWG_SHEET
  2
AcDmSheet
  3
AcMechDwgViewMgmt
 90
     1024
280
     0
281
     0
  0
CLASS
  1
AM_VIEWDIMPARMAP
  2
AcDmViewDimParMap
  3
AcMechDwgViewMgmt
 90
     1024
280
     0
281
     0
  0
CLASS
  1
AM_DWGMGR_NAME
  2
AcDmDwgMgrName
  3
AcMechDwgViewMgmt
 90
     1024
280
     0
281
     0
  0
CLASS
  1
AMDTMENUSTATEMGR
  2
AmdtMenuStateMgr
  3
McadcomServices
 90
     1024
280
     0
281
     0
  0
CLASS
  1
AMDTMCOMMENUSTATE
  2
AmdtMcomMenuState
  3
McadcomServices
 90
     1024
280
     0
281
     0
  0
CLASS
  1
MAPIAMMOUDLE
  2
MApiAmModule
  3
MApiAmServices
 90
     1024
280
     0
281
     0
  0
CLASS
  1
AMDTADMENUSTATE
  2
AmdtAdMenuState
  3
DesignerServices
 90
     1024
280
     0
281
     0
  0
CLASS
  1
ADAPPL
  2
AcAdAppl
  3
DesignerServices
 90
     1024
280
     0
281
     0
  0
CLASS
  1
DEPMGR
  2
AcAdDepMgr
  3
DesignerServices
 90
     1024
280
     0
281
     0
  0
CLASS
  1
PARAMMGR
  2
AcAdParamMgr
  3
DesignerServices
 90
     1024
280
     0
281
     0
  0
CLASS
  1
PARAMSCOPE
  2
AcAdParamScope
  3
DesignerServices
 90
     1024
280
     0
281
     0
  0
CLASS
  1
NAMEDAPPL
  2
AcAdNamedAppl
  3
DesignerServices
 90
     1024
280
     0
281
     0
  0
CLASS
  1
AMDTDMMENUSTATE
  2
AmdtDmMenuState
  3
AcMechDwgViewMgmt
 90
     1024
280
     0
281
     0
  0
CLASS
  1
AMDTAMMENUSTATE
  2
AmdtAmMenuState
  3
DesignerAssemblies
 90
     1024
280
     0
281
     0
  0
CLASS
  1
ACAMPROJECT
  2
AcAmProject
  3
DesignerAssemblies
 90
     1024
280
     0
281
     0
  0
CLASS
  1
ACAMGRCOMPDEF
  2
AcAmGrCompDef
  3
DesignerAssemblies
 90
     1024
280
     0
281
     0
  0
CLASS
  1
ACCMCONTEXT
  2
AcCmContext
  3
DesignerAssemblies
 90
     1024
280
     0
281
     0
  0
CLASS
  1
ACAMCOMPDEF
  2
AcAmCompDef
  3
DesignerAssemblies
 90
     1024
280
     0
281
     0
  0
CLASS
  1
ACAMCOMPDEFMGR
  2
AcAmCompDefMgr
  3
DesignerAssemblies
 90
     1024
280
     0
281
     0
  0
CLASS
  1
AMCONTEXTMGR
  2
AcAmContextMgr
  3
DesignerAssemblies
 90
     1024
280
     0
281
     0
  0
CLASS
  1
ACAMCONTEXTMODELER
  2
AcAmContextModeler
  3
DesignerAssemblies
 90
     1024
280
     0
281
     0
  0
CLASS
  1
ACMTHREADLINESTANDARDDIN
  2
AmdtThreadLineStdDIN
  3
"Amdt_StdImp|Product Description: AutoCAD Mechanical|Company: Autodesk, Inc."
 90
     1024
280
     0
281
     0
  0
CLASS
  1
ACMNOTESTANDARDDIN
  2
AmdtNoteStdDIN
  3
"Amdt_StdImp|Product Description: AutoCAD Mechanical|Company: Autodesk, Inc."
 90
     1024
280
     0
281
     0
  0
CLASS
  1
AMDTNOTETEMPLATEDB
  2
AmdtNoteTemplateDB
  3
AcmSymBB|Product Description: AutoCAD Mechanical|Company: Autodesk, Inc.
 90
     1024
280
     0
281
     0
  0
CLASS
  1
CATALOGSTATE
  2
AcAmCatalogState
  3
DesignerAssemblies
 90
     1024
280
     0
281
     0
  0
CLASS
  1
ACAMGRCOMPDEFSET
  2
AcAmGrCompDefSet
  3
DesignerAssemblies
 90
     1024
280
     0
281
     0
  0
CLASS
  1
AMDTBROWSERDBTAB
  2
AmdtBrowserDbTab
  3
McadcomServices
 90
     1024
280
     0
281
     0
  0
CLASS
  1
CBROWSERAPPOBJECT
  2
CBrowserAppObject
  3
McadcomServices
 90
     1024
280
     0
281
     0
  0
CLASS
  1
DM_PLACEHOLDER
  2
AcDmSelsetPlaceholder
  3
AcMechDwgViewMgmt
 90
     1024
280
     0
281
     0
  0
CLASS
  1
IMAGE
  2
AcDbRasterImage
  3
ISM
 90
     2175
280
     0
281
     1
  0
CLASS
  1
IMAGEDEF_REACTOR
  2
AcDbRasterImageDefReactor
  3
ISM
 90
        1
280
     0
281
     0
  0
CLASS
  1
IMAGEDEF
  2
AcDbRasterImageDef
  3
ISM
 90
        0
280
     0
281
     0
  0
CLASS
  1
ACAMGFILTERDAT
  2
AcAmgFilterDat
  3
"AcadM|Product Description: AutoCAD Mechanical|Company: Autodesk, Inc."
 90
     1024
280
     0
281
     0
  0
CLASS
  1
RASTERVARIABLES
  2
AcDbRasterVariables
  3
ISM
 90
        0
280
     0
281
     0
  0
CLASS
  1
MATERIAL
  2
AcDbMaterial
  3
ObjectDBX Classes
 90
     1153
280
     0
281
     0
  0
CLASS
  1
VISUALSTYLE
  2
AcDbVisualStyle
  3
ObjectDBX Classes
 90
     4095
280
     0
281
     0
  0
CLASS
  1
SCALE
  2
AcDbScale
  3
ObjectDBX Classes
 90
     1153
280
     0
281
     0
  0
CLASS
  1
MLEADERSTYLE
  2
AcDbMLeaderStyle
  3
ACDB_MLEADERSTYLE_CLASS
 90
     4095
280
     0
281
     0
  0
CLASS
  1
ACRFATTGENMGR
  2
AcRfAttGeneralMgr
  3
AcAttribServices
 90
     1024
280
     0
281
     0
  0
CLASS
  1
ACRFOBJATTMGR
  2
AcRfObjAttGroupMgr
  3
AcAttribServices
 90
     1024
280
     0
281
     0
  0
CLASS
  1
ACRFMCADAPIATTHOLDER
  2
AcRfMCADAPIAttHolder
  3
AcAttribServices
 90
     1024
280
     0
281
     0
  0
CLASS
  1
AMDTSYSATTR
  2
AmdtSystemAttribute
  3
AcAttribServices
 90
     1024
280
     0
281
     0
  0
CLASS
  1
ACMTAPERSTANDARDDIN
  2
AcmTaperStdDIN
  3
"Amdt_StdImp|Product Description: AutoCAD Mechanical|Company: Autodesk, Inc."
 90
     1024
280
     0
281
     0
  0
CLASS
  1
ACMANOOTATIONVIEWSTANDARDDIN
  2
AmdtAnViewStdDIN
  3
"Amdt_StdImp|Product Description: AutoCAD Mechanical|Company: Autodesk, Inc."
 90
     1024
280
     0
281
     0
  0
CLASS
  1
EXACXREFPANELOBJECT
  2
ExAcXREFPanelObject
  3
EXAC_ESW
 90
     1025
280
     0
281
     0
  0
CLASS
  1
NPOCOLLECTION
  2
AcDbImpNonPersistentObjectsCollection
  3
ObjectDBX Classes
 90
     1153
280
     0
281
     0
  0
CLASS
  1
ACMSTANDARDANSI
  2
AcmStandardANSI
  3
"Amdt_StdImp|Product Description: AutoCAD Mechanical|Company: Autodesk, Inc."
 90
     1024
280
     0
281
     0
  0
CLASS
  1
ACMSURFSTANDARDANSI
  2
AcmSurfTextStdANSI
  3
"Amdt_StdImp|Product Description: AutoCAD Mechanical|Company: Autodesk, Inc."
 90
     1024
280
     0
281
     0
  0
CLASS
  1
ACMFCFSTANDARDANSI
  2
AcmFCFStdANSI
  3
"Amdt_StdImp|Product Description: AutoCAD Mechanical|Company: Autodesk, Inc."
 90
     1024
280
     0
281
     0
  0
CLASS
  1
ACMWELDSTANDARDANSI
  2
AcmWeldingStdANSI
  3
"Amdt_StdImp|Product Description: AutoCAD Mechanical|Company: Autodesk, Inc."
 90
     1024
280
     0
281
     0
  0
CLASS
  1
ACMIDSTANDARDANSI
  2
AcmIdStdANSI
  3
"Amdt_StdImp|Product Description: AutoCAD Mechanical|Company: Autodesk, Inc."
 90
     1024
280
     0
281
     0
  0
CLASS
  1
ACMDATUMSTANDARDANSI
  2
AcmDatumStdANSI
  3
"Amdt_StdImp|Product Description: AutoCAD Mechanical|Company: Autodesk, Inc."
 90
     1024
280
     0
281
     0
  0
CLASS
  1
ACMBOMSTANDARDANSI
  2
AcmBOMStdANSI
  3
"Amdt_StdImp|Product Description: AutoCAD Mechanical|Company: Autodesk, Inc."
 90
     1024
280
     0
281
     0
  0
CLASS
  1
ACMDETAILSTANDARDANSI
  2
AmdtDetailSymStdANSI
  3
"Amdt_StdImp|Product Description: AutoCAD Mechanical|Company: Autodesk, Inc."
 90
     1024
280
     0
281
     0
  0
CLASS
  1
ACMSECTIONSTANDARDANSI
  2
AmdtSectionSymStdANSI
  3
"Amdt_StdImp|Product Description: AutoCAD Mechanical|Company: Autodesk, Inc."
 90
     1024
280
     0
281
     0
  0
CLASS
  1
ACMCENTERLINESTANDARDANSI
  2
AmdtCenterLineStdANSI
  3
"Amdt_StdImp|Product Description: AutoCAD Mechanical|Company: Autodesk, Inc."
 90
     1024
280
     0
281
     0
  0
CLASS
  1
ACMTHREADLINESTANDARDANSI
  2
AmdtThreadLineStdANSI
  3
"Amdt_StdImp|Product Description: AutoCAD Mechanical|Company: Autodesk, Inc."
 90
     1024
280
     0
281
     0
  0
CLASS
  1
ACMNOTESTANDARDANSI
  2
AmdtNoteStdANSI
  3
"Amdt_StdImp|Product Description: AutoCAD Mechanical|Company: Autodesk, Inc."
 90
     1024
280
     0
281
     0
  0
CLASS
  1
ACAMGHOLECHARTSTDANSI
  2
AcAmgHoleChartStdANSI
  3
AmgDim|Product Description: AutoCAD Mechanical|Company: Autodesk, Inc.
 90
     1024
280
     0
281
     0
  0
CLASS
  1
ACMTAPERSTANDARDANSI
  2
AcmTaperStdANSI
  3
"Amdt_StdImp|Product Description: AutoCAD Mechanical|Company: Autodesk, Inc."
 90
     1024
280
     0
281
     0
  0
CLASS
  1
ACMANOOTATIONVIEWSTANDARDANSI
  2
AmdtAnViewStdANSI
  3
"Amdt_StdImp|Product Description: AutoCAD Mechanical|Company: Autodesk, Inc."
 90
     1024
280
     0
281
     0
  0
CLASS
  1
CAMSSTRUCTBTNSTATE
  2
StructBtnState
  3
DesignerAssemblies
 90
     1024
280
     0
281
     0
  0
CLASS
  1
CELLSTYLEMAP
  2
AcDbCellStyleMap
  3
ObjectDBX Classes
 90
     1152
280
     0
281
     0
  0
ENDSEC
  0
SECTION
  2
TABLES
  0
TABLE
  2
VPORT
  5
8
330
0
100
AcDbSymbolTable
 70
     1
  0
VPORT
  5
559
330
8
100
AcDbSymbolTableRecord
100
AcDbViewportTableRecord
  2
*Active
 70
     0
 10
0.0
 20
0.0
 11
1.0
 21
1.0
 12
354.619726781437
 22
207.572326250407
 13
0.0
 23
0.0
 14
2.5
 24
2.5
 15
10.0
 25
10.0
 16
0.0
 26
0.0
 36
1.0
 17
0.0
 27
0.0
 37
0.0
 40
479.0015983549209
 41
1.833531510107015
 42
50.0
 43
0.0
 44
0.0
 50
0.0
 51
0.0
 71
     0
 72
   100
 73
     1
 74
     3
 75
     0
 76
     0
 77
     0
 78
     0
281
     0
 65
     1
110
0.0
120
0.0
130
0.0
111
1.0
121
0.0
131
0.0
112
0.0
122
1.0
132
0.0
 79
     0
146
0.0
  0
ENDTAB
  0
TABLE
  2
LTYPE
  5
5
330
0
100
AcDbSymbolTable
 70
    21
  0
LTYPE
  5
14
330
5
100
AcDbSymbolTableRecord
100
AcDbLinetypeTableRecord
  2
ByBlock
 70
     0
  3

 72
    65
 73
     0
 40
0.0
  0
LTYPE
  5
15
330
5
100
AcDbSymbolTableRecord
100
AcDbLinetypeTableRecord
  2
ByLayer
 70
     0
  3

 72
    65
 73
     0
 40
0.0
  0
LTYPE
  5
16
330
5
100
AcDbSymbolTableRecord
100
AcDbLinetypeTableRecord
  2
Continuous
 70
     0
  3
Solid line
 72
    65
 73
     0
 40
0.0
  0
LTYPE
  5
52
330
5
100
AcDbSymbolTableRecord
100
AcDbLinetypeTableRecord
  2
Amconstr
 70
     0
  3
_______________________
 72
    65
 73
     2
 40
9999.0
 49
9999.0
 74
     0
 49
0.0
 74
     0
  0
LTYPE
  5
57
330
5
100
AcDbSymbolTableRecord
100
AcDbLinetypeTableRecord
  2
Amzigzag
 70
     0
  3
/\/-/\/-/\/-/\/-/\/-/\/
 72
    65
 73
     2
 40
11.0001
 49
0.0001
 74
     4
 75
   135
340
56
 46
0.04
 50
0.0
 44
0.0
 45
0.0
 49
-11.0
 74
     0
  0
LTYPE
  5
58
330
5
100
AcDbSymbolTableRecord
100
AcDbLinetypeTableRecord
  2
AM_DIN_F_W050
 70
     0
  3
__ __ __ __ __ __ __ __ __ __ __ __ __ __ __
 72
    65
 73
     2
 40
6.25
 49
4.75
 74
     0
 49
-1.5
 74
     0
  0
LTYPE
  5
59
330
5
100
AcDbSymbolTableRecord
100
AcDbLinetypeTableRecord
  2
AM_DIN_G_W050
 70
     0
  3
____ . ____ . ____ . ____ . ____ . ____ . ____
 72
    65
 73
     4
 40
13.75
 49
9.75
 74
     0
 49
-1.5
 74
     0
 49
1.0
 74
     0
 49
-1.5
 74
     0
  0
LTYPE
  5
5A
330
5
100
AcDbSymbolTableRecord
100
AcDbLinetypeTableRecord
  2
AM_DIN_K_W050
 70
     0
  3
_____ . . _____ . . _____ . . ____ .. ____
 72
    65
 73
     6
 40
16.25
 49
9.75
 74
     0
 49
-1.5
 74
     0
 49
1.0
 74
     0
 49
-1.5
 74
     0
 49
1.0
 74
     0
 49
-1.5
 74
     0
  0
LTYPE
  5
5B
330
5
100
AcDbSymbolTableRecord
100
AcDbLinetypeTableRecord
  2
AM_DIN_G_W050x2
 70
     0
  3
__ . __ . __ . __ . __ . __
 72
    65
 73
     4
 40
6.875
 49
4.75
 74
     0
 49
-0.875
 74
     0
 49
0.375
 74
     0
 49
-0.875
 74
     0
  0
LTYPE
  5
5C
330
5
100
AcDbSymbolTableRecord
100
AcDbLinetypeTableRecord
  2
AM_DIN_F_W050x2
 70
     0
  3
 _ _ _ _ _ _ _ _ _ _ _ _
 72
    65
 73
     2
 40
3.125
 49
2.25
 74
     0
 49
-0.875
 74
     0
  0
LTYPE
  5
69
330
5
100
AcDbSymbolTableRecord
100
AcDbLinetypeTableRecord
  2
ACDINWELD
 70
     0
  3
_ _ _ _ _
 72
    65
 73
     2
 40
2.0
 49
2.0
 74
     0
 49
-1.0
 74
     0
  0
LTYPE
  5
6A
330
5
100
AcDbSymbolTableRecord
100
AcDbLinetypeTableRecord
  2
ACDINTGB
 70
     0
  3
__ . . __ . .
 72
    65
 73
     6
 40
9.0
 49
4.0
 74
     0
 49
-1.0
 74
     0
 49
1.0
 74
     0
 49
-1.0
 74
     0
 49
1.0
 74
     0
 49
-1.0
 74
     0
  0
LTYPE
  5
6B
330
5
100
AcDbSymbolTableRecord
100
AcDbLinetypeTableRecord
  2
ACDINTGL
 70
     0
  3
_ _ _ _ _
 72
    65
 73
     2
 40
3.0
 49
2.0
 74
     0
 49
-1.0
 74
     0
  0
LTYPE
  5
6D
330
5
100
AcDbSymbolTableRecord
100
AcDbLinetypeTableRecord
  2
CENTER
 70
     0
  3
__ . __
 72
    65
 73
     4
 40
7.0
 49
4.0
 74
     0
 49
-1.0
 74
     0
 49
1.0
 74
     0
 49
-1.0
 74
     0
  0
LTYPE
  5
CB
330
5
100
AcDbSymbolTableRecord
100
AcDbLinetypeTableRecord
  2
HIDDEN
 70
     0
  3
Verdeckt
 72
    65
 73
     2
 40
9.525
 49
6.349999999999999
 74
     0
 49
-3.174999999999999
 74
     0
  0
LTYPE
  5
CC
330
5
100
AcDbSymbolTableRecord
100
AcDbLinetypeTableRecord
  2
PHANTOM2
 70
     0
  3
Phantom (.5x) ___ _ _ ___ _ _ ___ _ _ ___ _ _
 72
    65
 73
     6
 40
31.75
 49
15.875
 74
     0
 49
-3.174999999999999
 74
     0
 49
3.174999999999999
 74
     0
 49
-3.174999999999999
 74
     0
 49
3.174999999999999
 74
     0
 49
-3.174999999999999
 74
     0
  0
LTYPE
  5
1EF
330
5
100
AcDbSymbolTableRecord
100
AcDbLinetypeTableRecord
  2
AUSGEZOGEN
 70
     0
  3
Ausgezogene Linie
 72
    65
 73
     0
 40
0.0
  0
LTYPE
  5
27D
330
5
100
AcDbSymbolTableRecord
100
AcDbLinetypeTableRecord
  2
GEN3
 70
     0
  3
_ _ _ _ _ _ _ _ _ _ _ _ _ _ _ _ _ _ _ _ _ _ _ _ _ _ _ _ _ _ _
 72
    65
 73
     3
 40
3.0
 49
0.0
 74
     0
 49
2.0
 74
     0
 49
-1.0
 74
     0
  0
LTYPE
  5
604
330
5
100
AcDbSymbolTableRecord
100
AcDbLinetypeTableRecord
  2
CENTER2
 70
     0
  3
Center (.5x) ___ _ ___ _ ___ _ ___ _ ___ _ ___
 72
    65
 73
     4
 40
1.125
 49
0.75
 74
     0
 49
-0.125
 74
     0
 49
0.125
 74
     0
 49
-0.125
 74
     0
  0
LTYPE
  5
605
330
5
100
AcDbSymbolTableRecord
100
AcDbLinetypeTableRecord
  2
HIDDEN2
 70
     0
  3
Hidden (.5x) _ _ _ _ _ _ _ _ _ _ _ _ _ _ _ _ _
 72
    65
 73
     2
 40
0.1875
 49
0.125
 74
     0
 49
-0.0625
 74
     0
  0
LTYPE
  5
606
330
5
100
AcDbSymbolTableRecord
100
AcDbLinetypeTableRecord
  2
Amzigzag2
 70
     0
  3
/\/-/\/-/\/-/\/-/\/-/\/
 72
    65
 73
     2
 40
0.4401
 49
0.0001
 74
     4
 75
   136
340
290
 46
0.0016
 50
0.0
 44
0.0
 45
0.0
 49
-0.4400000000000001
 74
     0
  0
LTYPE
  5
607
330
5
100
AcDbSymbolTableRecord
100
AcDbLinetypeTableRecord
  2
ACANSTGB
 70
     0
  3
__ . . __ . .
 72
    65
 73
     6
 40
0.35433070866
 49
0.15748031496
 74
     0
 49
-0.03937007874
 74
     0
 49
0.03937007874
 74
     0
 49
-0.03937007874
 74
     0
 49
0.03937007874
 74
     0
 49
-0.03937007874
 74
     0
  0
LTYPE
  5
608
330
5
100
AcDbSymbolTableRecord
100
AcDbLinetypeTableRecord
  2
ACANSTGL
 70
     0
  3
_ _ _ _ _
 72
    65
 73
     2
 40
0.11811023622
 49
0.07874015748
 74
     0
 49
-0.03937007874
 74
     0
  0
ENDTAB
  0
TABLE
  2
LAYER
  5
2
102
{ACAD_XDICTIONARY
360
1FF
102
}
330
0
100
AcDbSymbolTable
 70
    18
  0
LAYER
  5
10
102
{ACAD_XDICTIONARY
360
6A9
102
}
330
2
100
AcDbSymbolTableRecord
100
AcDbLayerTableRecord
  2
0
 70
     0
 62
     7
  6
Continuous
370
    -3
390
F
  0
LAYER
  5
1F0
102
{ACAD_XDICTIONARY
360
6AB
102
}
330
2
100
AcDbSymbolTableRecord
100
AcDbLayerTableRecord
  2
RAHM2
 70
     0
 62
     1
  6
Continuous
370
    -3
390
F
  0
LAYER
  5
1F1
102
{ACAD_XDICTIONARY
360
6AD
102
}
330
2
100
AcDbSymbolTableRecord
100
AcDbLayerTableRecord
  2
RAHM3
 70
     0
 62
     2
  6
Continuous
370
    -3
390
F
  0
LAYER
  5
1F2
102
{ACAD_XDICTIONARY
360
6AF
102
}
330
2
100
AcDbSymbolTableRecord
100
AcDbLayerTableRecord
  2
RAHM5
 70
     0
 62
     7
  6
Continuous
370
    -3
390
F
  0
LAYER
  5
1F3
102
{ACAD_XDICTIONARY
360
6B1
102
}
330
2
100
AcDbSymbolTableRecord
100
AcDbLayerTableRecord
  2
TEXT25
 70
     0
 62
     3
  6
Continuous
370
    -3
390
F
  0
LAYER
  5
1F4
102
{ACAD_XDICTIONARY
360
6B3
102
}
330
2
100
AcDbSymbolTableRecord
100
AcDbLayerTableRecord
  2
0N
 70
     0
 62
     7
  6
Continuous
370
    -3
390
F
  0
LAYER
  5
1F5
102
{ACAD_XDICTIONARY
360
6B5
102
}
330
2
100
AcDbSymbolTableRecord
100
AcDbLayerTableRecord
  2
KOPF
 70
     0
 62
     1
  6
AUSGEZOGEN
370
    -3
390
F
  0
LAYER
  5
1F6
102
{ACAD_XDICTIONARY
360
6B7
102
}
330
2
100
AcDbSymbolTableRecord
100
AcDbLayerTableRecord
  2
Sperrlayer
 70
     1
 62
     7
  6
Continuous
370
    50
390
F
  0
LAYER
  5
27E
102
{ACAD_XDICTIONARY
360
6B9
102
}
330
2
100
AcDbSymbolTableRecord
100
AcDbLayerTableRecord
  2
BEZUGSACHSEN
 70
     0
 62
     7
  6
Continuous
370
    -3
390
F
  0
LAYER
  5
281
102
{ACAD_XDICTIONARY
360
6BB
102
}
330
2
100
AcDbSymbolTableRecord
100
AcDbLayerTableRecord
  2
FLAECHEN
 70
     0
 62
     7
  6
Continuous
370
    -3
390
F
  0
LAYER
  5
284
102
{ACAD_XDICTIONARY
360
6BD
102
}
330
2
100
AcDbSymbolTableRecord
100
AcDbLayerTableRecord
  2
RUNDUNGEN
 70
     0
 62
     7
  6
Continuous
370
    -3
390
F
  0
LAYER
  5
287
102
{ACAD_XDICTIONARY
360
6BF
102
}
330
2
100
AcDbSymbolTableRecord
100
AcDbLayerTableRecord
  2
3A
 70
     0
 62
     6
  6
GEN3
370
    -3
390
F
  0
LAYER
  5
28A
330
2
100
AcDbSymbolTableRecord
100
AcDbLayerTableRecord
  2
DEFPOINTS
 70
     0
 62
     7
  6
Continuous
290
     0
370
    -3
390
F
  0
LAYER
  5
28D
102
{ACAD_XDICTIONARY
360
6C1
102
}
330
2
100
AcDbSymbolTableRecord
100
AcDbLayerTableRecord
  2
AM_5
 70
     0
 62
     3
  6
Continuous
370
    25
390
F
1001
AcAecLayerStandard
1000

1000

  0
LAYER
  5
45D
102
{ACAD_XDICTIONARY
360
6C3
102
}
330
2
100
AcDbSymbolTableRecord
100
AcDbLayerTableRecord
  2
POSI
 70
     0
 62
     3
  6
Continuous
370
    -3
390
F
  0
LAYER
  5
609
102
{ACAD_XDICTIONARY
360
60A
102
}
330
2
100
AcDbSymbolTableRecord
100
AcDbLayerTableRecord
  2
DUENN
 70
     0
 62
     2
  6
AUSGEZOGEN
370
    -3
390
F
  0
LAYER
  5
60B
102
{ACAD_XDICTIONARY
360
60C
102
}
330
2
100
AcDbSymbolTableRecord
100
AcDbLayerTableRecord
  2
NORMAL
 70
     0
 62
     7
  6
AUSGEZOGEN
370
    -3
390
F
  0
LAYER
  5
64B
102
{ACAD_XDICTIONARY
360
64C
102
}
330
2
100
AcDbSymbolTableRecord
100
AcDbLayerTableRecord
  2
5
 70
     0
 62
     3
  6
Continuous
370
    -3
390
F
  0
ENDTAB
  0
TABLE
  2
STYLE
  5
3
330
0
100
AcDbSymbolTable
 70
    10
  0
STYLE
  5
11
330
3
100
AcDbSymbolTableRecord
100
AcDbTextStyleTableRecord
  2
STANDARD
 70
     0
 40
0.0
 41
1.0
 50
0.0
 71
     0
 42
2.5
  3
ISOCP.SHX
  4

  0
STYLE
  5
56
330
3
100
AcDbSymbolTableRecord
100
AcDbTextStyleTableRecord
  2

 70
     1
 40
0.0
 41
1.0
 50
0.0
 71
     0
 42
2.5
  3
ltypeshp.shx
  4

  0
STYLE
  5
5D
330
3
100
AcDbSymbolTableRecord
100
AcDbTextStyleTableRecord
  2
ACDINTS
 70
     0
 40
1.0
 41
1.0
 50
0.0
 71
     0
 42
2.5
  3
isocp.shx
  4

  0
STYLE
  5
68
330
3
100
AcDbSymbolTableRecord
100
AcDbTextStyleTableRecord
  2
ACDINGDT
 70
     0
 40
0.0
 41
1.0
 50
0.0
 71
     0
 42
2.5
  3
amgdt.shx
  4

  0
STYLE
  5
1F7
330
3
100
AcDbSymbolTableRecord
100
AcDbTextStyleTableRecord
  2
TEXT20
 70
     0
 40
2.0
 41
0.8
 50
0.0
 71
     0
 42
2.0
  3
isocp3.shx
  4

  0
STYLE
  5
1F8
330
3
100
AcDbSymbolTableRecord
100
AcDbTextStyleTableRecord
  2
Anschrift
 70
     0
 40
0.0
 41
1.0
 50
0.0
 71
     0
 42
2.0
  3

  4

1001
ACAD
1000
News Gothic
1071
 33554434
  0
STYLE
  5
290
330
3
100
AcDbSymbolTableRecord
100
AcDbTextStyleTableRecord
  2

 70
     1
 40
0.0
 41
1.0
 50
0.0
 71
     0
 42
0.2
  3
genltshp.shx
  4

  0
STYLE
  5
60D
330
3
100
AcDbSymbolTableRecord
100
AcDbTextStyleTableRecord
  2
DIN
 70
     0
 40
0.0
 41
1.0
 50
0.0
 71
     0
 42
1.5
  3
apnorm.shx
  4

  0
STYLE
  5
60E
330
3
100
AcDbSymbolTableRecord
100
AcDbTextStyleTableRecord
  2
ACANSTS
 70
     0
 40
1.0
 41
1.0
 50
0.0
 71
     0
 42
1.5
  3
romans.shx
  4

  0
STYLE
  5
60F
330
3
100
AcDbSymbolTableRecord
100
AcDbTextStyleTableRecord
  2
ACANSGDT
 70
     0
 40
0.0
 41
1.0
 50
0.0
 71
     0
 42
1.5
  3
AMGDT
  4

  0
ENDTAB
  0
TABLE
  2
VIEW
  5
6
330
0
100
AcDbSymbolTable
 70
     0
  0
ENDTAB
  0
TABLE
  2
UCS
  5
7
330
0
100
AcDbSymbolTable
 70
     0
  0
ENDTAB
  0
TABLE
  2
APPID
  5
9
330
0
100
AcDbSymbolTable
 70
    31
  0
APPID
  5
12
330
9
100
AcDbSymbolTableRecord
100
AcDbRegAppTableRecord
  2
ACAD
 70
     0
  0
APPID
  5
30
330
9
100
AcDbSymbolTableRecord
100
AcDbRegAppTableRecord
  2
MCAD_NO_VIS
 70
     0
  0
APPID
  5
31
330
9
100
AcDbSymbolTableRecord
100
AcDbRegAppTableRecord
  2
ACAD_TEMP_GRAPHIC
 70
     0
  0
APPID
  5
44
330
9
100
AcDbSymbolTableRecord
100
AcDbRegAppTableRecord
  2
ACATTRIBSERVICES
 70
     0
  0
APPID
  5
CE
330
9
100
AcDbSymbolTableRecord
100
AcDbRegAppTableRecord
  2
AD_DRAW
 70
     0
  0
APPID
  5
EC
330
9
100
AcDbSymbolTableRecord
100
AcDbRegAppTableRecord
  2
DESIGNERASSEMBLIES
 70
     0
  0
APPID
  5
F6
330
9
100
AcDbSymbolTableRecord
100
AcDbRegAppTableRecord
  2
ACAD_DSTYLE_DIMARC_LENGTH_SYMBOL
 70
     0
  0
APPID
  5
F7
330
9
100
AcDbSymbolTableRecord
100
AcDbRegAppTableRecord
  2
ACAD_DSTYLE_DIMJOGGED_JOGANGLE_SYMBOL
 70
     0
  0
APPID
  5
107
330
9
100
AcDbSymbolTableRecord
100
AcDbRegAppTableRecord
  2
ACADM_DIM_EDIT
 70
     0
  0
APPID
  5
108
330
9
100
AcDbSymbolTableRecord
100
AcDbRegAppTableRecord
  2
AMDT_DM_ADJ
 70
     0
  0
APPID
  5
1F9
330
9
100
AcDbSymbolTableRecord
100
AcDbRegAppTableRecord
  2
GENIUS_GENBLLY_14
 70
     0
  0
APPID
  5
1FA
330
9
100
AcDbSymbolTableRecord
100
AcDbRegAppTableRecord
  2
GENIUS_VERSION2
 70
     0
  0
APPID
  5
1FB
330
9
100
AcDbSymbolTableRecord
100
AcDbRegAppTableRecord
  2
GENIUS_GENREC_14
 70
     0
  0
APPID
  5
1FC
330
9
100
AcDbSymbolTableRecord
100
AcDbRegAppTableRecord
  2
GENIUS_GENODEF_13
 70
     0
  0
APPID
  5
1FD
330
9
100
AcDbSymbolTableRecord
100
AcDbRegAppTableRecord
  2
GENIUS_GENOBJ-N-REC_13
 70
     0
  0
APPID
  5
1FE
330
9
100
AcDbSymbolTableRecord
100
AcDbRegAppTableRecord
  2
DCO15
 70
     0
  0
APPID
  5
293
330
9
100
AcDbSymbolTableRecord
100
AcDbRegAppTableRecord
  2
AcAecLayerStandard
 70
     0
  0
APPID
  5
466
330
9
100
AcDbSymbolTableRecord
100
AcDbRegAppTableRecord
  2
GENIUS_GENHINW_13
 70
     0
  0
APPID
  5
467
330
9
100
AcDbSymbolTableRecord
100
AcDbRegAppTableRecord
  2
GENIUS_FIRSTVISTXT_14
 70
     0
  0
APPID
  5
468
330
9
100
AcDbSymbolTableRecord
100
AcDbRegAppTableRecord
  2
GENIUS_SECONDVISTXT_14
 70
     0
  0
APPID
  5
469
330
9
100
AcDbSymbolTableRecord
100
AcDbRegAppTableRecord
  2
GENIUS_GENTRA_14
 70
     0
  0
APPID
  5
46A
330
9
100
AcDbSymbolTableRecord
100
AcDbRegAppTableRecord
  2
GENIUS_GENOREF_13
 70
     0
  0
APPID
  5
46B
330
9
100
AcDbSymbolTableRecord
100
AcDbRegAppTableRecord
  2
GENIUS_GENCFG_13
 70
     0
  0
APPID
  5
46C
330
9
100
AcDbSymbolTableRecord
100
AcDbRegAppTableRecord
  2
GENIUS_GENCFG0_13
 70
     0
  0
APPID
  5
46D
330
9
100
AcDbSymbolTableRecord
100
AcDbRegAppTableRecord
  2
GENIUS_GENCFG1_13
 70
     0
  0
APPID
  5
46E
330
9
100
AcDbSymbolTableRecord
100
AcDbRegAppTableRecord
  2
GENIUS_GENCFG2_13
 70
     0
  0
APPID
  5
46F
330
9
100
AcDbSymbolTableRecord
100
AcDbRegAppTableRecord
  2
GENIUS_GENCFG3_13
 70
     0
  0
APPID
  5
470
330
9
100
AcDbSymbolTableRecord
100
AcDbRegAppTableRecord
  2
GENIUS_GENCFG4_13
 70
     0
  0
APPID
  5
471
330
9
100
AcDbSymbolTableRecord
100
AcDbRegAppTableRecord
  2
GENIUS_GEVCFG0_13
 70
     0
  0
APPID
  5
4DC
330
9
100
AcDbSymbolTableRecord
100
AcDbRegAppTableRecord
  2
ACAD_PSEXT
 70
     0
  0
APPID
  5
590
330
9
100
AcDbSymbolTableRecord
100
AcDbRegAppTableRecord
  2
ACAD_MLEADERVER
 70
     0
  0
ENDTAB
  0
TABLE
  2
DIMSTYLE
  5
A
330
0
100
AcDbSymbolTable
 70
    16
100
AcDbDimStyleTable
 71
     1
340
70
  0
DIMSTYLE
105
70
330
A
100
AcDbSymbolTableRecord
100
AcDbDimStyleTableRecord
  2
AM_DIN
 70
     0
  4
"
 41
2.5
 42
1.0
 43
10.0
 44
1.0
 47
0.1
 48
0.1
 73
     0
 74
     0
 77
     1
 78
     8
 79
     2
140
3.5
141
0.0
143
0.0393701
146
0.71
147
1.5
172
     1
176
   256
177
   256
178
     2
271
     2
272
     3
274
     4
283
     0
284
     8
340
11
371
    -1
372
    -1
1001
ACAD_DSTYLE_DIMJOGGED_JOGANGLE_SYMBOL
1070
   384
1040
1.570796326794896
  0
DIMSTYLE
105
71
330
A
100
AcDbSymbolTableRecord
100
AcDbDimStyleTableRecord
  2
AM_DIN$3
 70
     0
  4
"
 41
2.5
 42
1.0
 43
10.0
 44
1.0
 47
0.1
 48
0.1
 73
     0
 77
     1
 78
     8
 79
     2
140
3.5
141
0.0
143
0.0393701
146
0.71
147
1.5
176
   256
177
   256
178
     2
271
     2
272
     3
274
     4
283
     0
284
     8
288
     1
289
     0
340
11
371
    -1
372
    -1
1001
ACAD_DSTYLE_DIMJOGGED_JOGANGLE_SYMBOL
1070
   384
1040
1.570796326794896
  0
DIMSTYLE
105
72
330
A
100
AcDbSymbolTableRecord
100
AcDbDimStyleTableRecord
  2
AM_DIN$4
 70
     0
  4
"
 41
2.5
 42
1.0
 43
10.0
 44
1.0
 47
0.1
 48
0.1
 73
     0
 77
     1
 78
     8
 79
     2
140
3.5
141
0.0
143
0.0393701
146
0.71
147
1.5
176
   256
177
   256
178
     2
271
     2
272
     3
274
     4
283
     0
284
     8
288
     1
289
     0
340
11
371
    -1
372
    -1
1001
ACAD_DSTYLE_DIMJOGGED_JOGANGLE_SYMBOL
1070
   384
1040
1.570796326794896
  0
DIMSTYLE
105
73
330
A
100
AcDbSymbolTableRecord
100
AcDbDimStyleTableRecord
  2
AM_DIN$6
 70
     0
  4
"
 41
2.5
 42
1.0
 43
10.0
 44
1.0
 47
0.1
 48
0.1
 73
     0
 74
     0
 78
     8
 79
     2
140
3.5
141
0.0
143
0.0393701
146
0.71
147
1.5
172
     1
176
   256
177
   256
178
     2
271
     2
272
     3
274
     4
283
     0
284
     8
340
11
371
    -1
372
    -1
1001
ACAD_DSTYLE_DIMJOGGED_JOGANGLE_SYMBOL
1070
   384
1040
1.570796326794896
  0
DIMSTYLE
105
74
330
A
100
AcDbSymbolTableRecord
100
AcDbDimStyleTableRecord
  2
AM_DIN$7
 70
     0
  4
"
 41
2.5
 42
1.0
 43
10.0
 44
1.0
 47
0.1
 48
0.1
 73
     0
 74
     0
 77
     1
 78
     8
 79
     2
140
5.0
141
0.0
143
0.0393701
146
0.71
147
1.5
172
     1
176
   256
177
   256
178
     2
271
     2
272
     3
274
     4
283
     0
284
     8
340
11
371
    -1
372
    -1
1001
ACAD_DSTYLE_DIMJOGGED_JOGANGLE_SYMBOL
1070
   384
1040
1.570796326794896
  0
DIMSTYLE
105
75
330
A
100
AcDbSymbolTableRecord
100
AcDbDimStyleTableRecord
  2
AM_DIN$SF
 70
     0
  4
"
 41
2.5
 42
1.0
 43
10.0
 44
1.0
 47
0.1
 48
0.1
 73
     0
 74
     0
 75
     1
 76
     1
 77
     1
 78
     8
 79
     2
140
3.5
141
0.0
143
0.0393701
146
0.71
147
1.5
172
     1
176
   256
177
   256
178
     2
271
     2
272
     3
274
     4
283
     0
284
     8
340
11
371
    -1
372
    -1
1001
ACAD_DSTYLE_DIMJOGGED_JOGANGLE_SYMBOL
1070
   384
1040
1.570796326794896
  0
DIMSTYLE
105
7A
330
A
100
AcDbSymbolTableRecord
100
AcDbDimStyleTableRecord
  2
AM_DIN$SH
 70
     0
  4
"
 41
2.5
 42
1.0
 43
10.0
 44
1.0
 47
0.1
 48
0.1
 73
     0
 74
     0
 75
     1
 76
     1
 77
     1
 78
     8
 79
     2
140
3.5
141
0.0
143
0.0393701
144
2.0
146
0.71
147
1.5
172
     1
173
     1
176
   256
177
   256
178
     2
271
     2
272
     3
274
     4
283
     0
284
     8
340
11
343
76
371
    -1
372
    -1
1001
ACAD_DSTYLE_DIMJOGGED_JOGANGLE_SYMBOL
1070
   384
1040
1.570796326794896
  0
DIMSTYLE
105
291
330
A
100
AcDbSymbolTableRecord
100
AcDbDimStyleTableRecord
  2
STANDARD
 70
     0
 41
3.5
 47
0.005
 48
0.005
 71
     1
 73
     0
 74
     0
 77
     1
 78
     8
140
3.5
178
     5
271
     3
272
     3
284
     8
340
11
  0
DIMSTYLE
105
292
102
{ACAD_REACTORS
330
3FB
330
3FD
330
3FE
102
}
330
A
100
AcDbSymbolTableRecord
100
AcDbDimStyleTableRecord
  2
AM_DIN$0
 70
     0
  4
"
 41
2.5
 42
1.0
 43
10.0
 44
1.0
 47
0.1
 48
0.1
 73
     0
 74
     0
 77
     1
 78
     8
 79
     2
140
3.5
141
0.0
143
0.0393701
146
0.71
147
1.5
172
     1
176
   256
177
   256
178
     2
271
     2
272
     3
274
     4
283
     0
284
     8
340
11
371
    -1
372
    -1
1001
ACAD_DSTYLE_DIMJOGGED_JOGANGLE_SYMBOL
1070
   384
1040
1.570796326794896
  0
DIMSTYLE
105
465
330
A
100
AcDbSymbolTableRecord
100
AcDbDimStyleTableRecord
  2
ISO-25
 70
     0
 41
2.5
 42
0.625
 43
3.75
 44
1.25
 73
     0
 74
     0
 77
     1
 78
     8
140
2.5
141
2.5
143
0.0394
147
0.625
171
     4
172
     1
273
     8
274
     4
277
     6
340
11
  0
DIMSTYLE
105
610
330
A
100
AcDbSymbolTableRecord
100
AcDbDimStyleTableRecord
  2
AM_ANSI
 70
     0
  4
mm
 41
0.1
 42
0.05
 43
0.5
 44
0.1
 47
0.1
 48
0.1
 78
     7
 79
     2
140
0.12
141
0.0
146
0.71
147
0.06
176
   256
177
   256
178
     2
274
     4
284
     7
340
11
371
    -1
372
    -1
1001
ACAD_DSTYLE_DIMJOGGED_JOGANGLE_SYMBOL
1070
   384
1040
0.7853981633974483
1001
ACAD_DSTYLE_DIMARC_LENGTH_SYMBOL
1070
   379
1070
     1
  0
DIMSTYLE
105
611
330
A
100
AcDbSymbolTableRecord
100
AcDbDimStyleTableRecord
  2
AM_ANSI$3
 70
     0
  4
mm
 41
0.1
 42
0.05
 43
0.5
 44
0.1
 47
0.1
 48
0.1
 78
     7
 79
     2
140
0.12
141
0.0
146
0.71
147
0.06
176
   256
177
   256
178
     2
274
     4
284
     7
288
     1
289
     0
340
11
371
    -1
372
    -1
1001
ACAD_DSTYLE_DIMJOGGED_JOGANGLE_SYMBOL
1070
   384
1040
0.7853981633974483
1001
ACAD_DSTYLE_DIMARC_LENGTH_SYMBOL
1070
   379
1070
     1
  0
DIMSTYLE
105
612
330
A
100
AcDbSymbolTableRecord
100
AcDbDimStyleTableRecord
  2
AM_ANSI$4
 70
     0
  4
mm
 41
0.1
 42
0.05
 43
0.5
 44
0.1
 47
0.1
 48
0.1
 78
     7
 79
     2
140
0.12
141
0.0
146
0.71
147
0.06
176
   256
177
   256
178
     2
274
     4
284
     7
288
     1
289
     0
340
11
371
    -1
372
    -1
1001
ACAD_DSTYLE_DIMJOGGED_JOGANGLE_SYMBOL
1070
   384
1040
0.7853981633974483
1001
ACAD_DSTYLE_DIMARC_LENGTH_SYMBOL
1070
   379
1070
     1
  0
DIMSTYLE
105
613
330
A
100
AcDbSymbolTableRecord
100
AcDbDimStyleTableRecord
  2
AM_ANSI$7
 70
     0
  4
mm
 41
0.1
 42
0.05
 43
0.5
 44
0.1
 47
0.1
 48
0.1
 78
     7
 79
     2
140
0.24
141
0.0
146
0.71
147
0.06
176
   256
177
   256
178
     2
274
     4
284
     7
340
11
371
    -1
372
    -1
1001
ACAD_DSTYLE_DIMJOGGED_JOGANGLE_SYMBOL
1070
   384
1040
0.7853981633974483
1001
ACAD_DSTYLE_DIMARC_LENGTH_SYMBOL
1070
   379
1070
     1
  0
DIMSTYLE
105
614
330
A
100
AcDbSymbolTableRecord
100
AcDbDimStyleTableRecord
  2
AM_ANSI$SF
 70
     0
  4
mm
 41
0.1
 42
0.05
 43
0.5
 44
0.1
 47
0.1
 48
0.1
 75
     1
 76
     1
 78
     7
 79
     2
140
0.12
141
0.0
146
0.71
147
0.06
176
   256
177
   256
178
     2
274
     4
284
     7
340
11
371
    -1
372
    -1
1001
ACAD_DSTYLE_DIMJOGGED_JOGANGLE_SYMBOL
1070
   384
1040
0.7853981633974483
1001
ACAD_DSTYLE_DIMARC_LENGTH_SYMBOL
1070
   379
1070
     1
  0
DIMSTYLE
105
615
330
A
100
AcDbSymbolTableRecord
100
AcDbDimStyleTableRecord
  2
AM_ANSI$SH
 70
     0
  4
mm
 41
0.1
 42
0.05
 43
0.5
 44
0.1
 47
0.1
 48
0.1
 75
     1
 76
     1
 78
     7
 79
     2
140
0.12
141
0.0
146
0.71
147
0.06
173
     1
176
   256
177
   256
178
     2
274
     4
284
     7
340
11
343
76
371
    -1
372
    -1
1001
ACAD_DSTYLE_DIMJOGGED_JOGANGLE_SYMBOL
1070
   384
1040
0.7853981633974483
1001
ACAD_DSTYLE_DIMARC_LENGTH_SYMBOL
1070
   379
1070
     1
  0
ENDTAB
  0
TABLE
  2
BLOCK_RECORD
  5
1
330
0
100
AcDbSymbolTable
 70
    14
  0
BLOCK_RECORD
  5
1F
102
{ACAD_XDICTIONARY
360
81
102
}
330
1
100
AcDbSymbolTableRecord
100
AcDbBlockTableRecord
  2
*Model_Space
340
22
  0
BLOCK_RECORD
  5
1B
330
1
100
AcDbSymbolTableRecord
100
AcDbBlockTableRecord
  2
*Paper_Space
340
1E
  0
BLOCK_RECORD
  5
23
330
1
100
AcDbSymbolTableRecord
100
AcDbBlockTableRecord
  2
*Paper_Space0
340
26
  0
BLOCK_RECORD
  5
76
330
1
100
AcDbSymbolTableRecord
100
AcDbBlockTableRecord
  2
GENAXEH
340
0
  0
BLOCK_RECORD
  5
12C
330
1
100
AcDbSymbolTableRecord
100
AcDbBlockTableRecord
  2
ACO_A2
340
0
  0
BLOCK_RECORD
  5
175
330
1
100
AcDbSymbolTableRecord
100
AcDbBlockTableRecord
  2
aendzeil
340
0
102
{BLKREFS
331
1CF
102
}
  0
BLOCK_RECORD
  5
17D
102
{ACAD_XDICTIONARY
360
17E
102
}
330
1
100
AcDbSymbolTableRecord
100
AcDbBlockTableRecord
  2
ACO-SF02-KL
340
0
  0
BLOCK_RECORD
  5
3FF
330
1
100
AcDbSymbolTableRecord
100
AcDbBlockTableRecord
  2
*D6
340
0
  0
BLOCK_RECORD
  5
40B
330
1
100
AcDbSymbolTableRecord
100
AcDbBlockTableRecord
  2
*D7
340
0
  0
BLOCK_RECORD
  5
417
330
1
100
AcDbSymbolTableRecord
100
AcDbBlockTableRecord
  2
*D8
340
0
  0
BLOCK_RECORD
  5
472
330
1
100
AcDbSymbolTableRecord
100
AcDbBlockTableRecord
  2
GENPOS15
340
0
  0
BLOCK_RECORD
  5
616
102
{ACAD_XDICTIONARY
360
62A
102
}
330
1
100
AcDbSymbolTableRecord
100
AcDbBlockTableRecord
  2
kopf
340
0
  0
BLOCK_RECORD
  5
64D
102
{ACAD_XDICTIONARY
360
660
102
}
330
1
100
AcDbSymbolTableRecord
100
AcDbBlockTableRecord
  2
zeile
340
0
  0
ENDTAB
  0
ENDSEC
  0
SECTION
  2
BLOCKS
  0
BLOCK
  5
20
330
1F
100
AcDbEntity
  8
0
100
AcDbBlockBegin
  2
*Model_Space
 70
     0
 10
0.0
 20
0.0
 30
0.0
  3
*Model_Space
  1

  0
ENDBLK
  5
21
330
1F
100
AcDbEntity
  8
0
100
AcDbBlockEnd
  0
BLOCK
  5
1C
330
1B
100
AcDbEntity
 67
     1
  8
0
100
AcDbBlockBegin
  2
*Paper_Space
 70
     0
 10
0.0
 20
0.0
 30
0.0
  3
*Paper_Space
  1

  0
ENDBLK
  5
1D
330
1B
100
AcDbEntity
 67
     1
  8
0
100
AcDbBlockEnd
  0
BLOCK
  5
24
330
23
100
AcDbEntity
 67
     1
  8
0
100
AcDbBlockBegin
  2
*Paper_Space0
 70
     0
 10
0.0
 20
0.0
 30
0.0
  3
*Paper_Space0
  1

  0
ENDBLK
  5
25
330
23
100
AcDbEntity
 67
     1
  8
0
100
AcDbBlockEnd
  0
BLOCK
  5
78
330
76
100
AcDbEntity
  8
0
100
AcDbBlockBegin
  2
GENAXEH
 70
     0
 10
0.0
 20
0.0
 30
0.0
  3
GENAXEH
  1

  0
LINE
  5
77
330
76
100
AcDbEntity
  8
0
100
AcDbLine
 10
-1.0
 20
0.0
 30
0.0
 11
1.0
 21
0.0
 31
0.0
  0
ENDBLK
  5
79
330
76
100
AcDbEntity
  8
0
100
AcDbBlockEnd
  0
BLOCK
  5
12D
330
12C
100
AcDbEntity
  8
0
100
AcDbBlockBegin
  2
ACO_A2
 70
     0
 10
0.0
 20
0.0
 30
0.0
  3
ACO_A2
  1

  0
LINE
  5
12E
330
12C
100
AcDbEntity
  8
RAHM2
100
AcDbLine
 10
10.00000000000002
 20
410.0
 30
0.0
 11
584.0
 21
410.0
 31
0.0
1001
GENIUS_GENBLLY_14
1000
BOR2
  0
LINE
  5
12F
330
12C
100
AcDbEntity
  8
0
100
AcDbLine
 10
5.0
 20
5.0
 30
0.0
 11
5.000000000000024
 21
415.0
 31
0.0
  0
TEXT
  5
130
330
12C
100
AcDbEntity
  8
0
100
AcDbText
 10
583.9999999999998
 20
5.0
 30
0.0
 40
3.5
  1
!GENTITLE-INSERT
100
AcDbText
  0
TEXT
  5
131
330
12C
100
AcDbEntity
  8
0
100
AcDbText
 10
10.0
 20
10.00000000000005
 30
0.0
 40
3.5
  1
!GENTITLE-LL
100
AcDbText
  0
TEXT
  5
132
330
12C
100
AcDbEntity
  8
0
100
AcDbText
 10
584.0
 20
410.0
 30
0.0
 40
3.5
  1
!GENTITLE-RU
100
AcDbText
  0
TEXT
  5
133
330
12C
100
AcDbEntity
  8
0
100
AcDbText
 10
594.0
 20
420.0
 30
0.0
 40
3.5
  1
!GENTITLE-MAX
100
AcDbText
  0
LINE
  5
134
330
12C
100
AcDbEntity
  8
RAHM2
100
AcDbLine
 10
401.9999999999998
 20
0.0
 30
0.0
 11
401.9999999999998
 21
5.000000000000023
 31
0.0
1001
GENIUS_GENBLLY_14
1000
BOR2
  0
LINE
  5
135
330
12C
100
AcDbEntity
  8
RAHM2
100
AcDbLine
 10
593.9999999999998
 20
0.0
 30
0.0
 11
401.9999999999998
 21
0.0
 31
0.0
1001
GENIUS_GENBLLY_14
1000
BOR2
  0
LINE
  5
136
330
12C
100
AcDbEntity
  8
RAHM2
100
AcDbLine
 10
331.1199999999999
 20
10.00000000000003
 30
0.0
 11
9.999999999999886
 21
10.00000000000007
 31
0.0
1001
GENIUS_GENBLLY_14
1000
BOR2
  0
LINE
  5
137
330
12C
100
AcDbEntity
  8
RAHM2
100
AcDbLine
 10
444.2499999999999
 20
415.0
 30
0.0
 11
444.2499999999999
 21
410.0
 31
0.0
1001
GENIUS_GENBLLY_14
1000
BOR2
  0
LINE
  5
138
330
12C
100
AcDbEntity
  8
RAHM2
100
AcDbLine
 10
516.6249999999998
 20
415.0
 30
0.0
 11
516.6249999999998
 21
410.0
 31
0.0
1001
GENIUS_GENBLLY_14
1000
BOR2
  0
TEXT
  5
139
330
12C
100
AcDbEntity
  8
RAHM2
100
AcDbText
 10
480.0
 20
410.5
 30
0.0
 40
4.0
  1
7
100
AcDbText
1001
GENIUS_GENBLLY_14
1000
BOR2
  0
TEXT
  5
13A
330
12C
100
AcDbEntity
  8
RAHM2
100
AcDbText
 10
552.5
 20
410.5
 30
0.0
 40
4.0
  1
8
100
AcDbText
1001
GENIUS_GENBLLY_14
1000
BOR2
  0
TEXT
  5
13B
330
12C
100
AcDbEntity
  8
RAHM2
100
AcDbText
 10
407.5
 20
410.5
 30
0.0
 40
4.0
  1
6
100
AcDbText
1001
GENIUS_GENBLLY_14
1000
BOR2
  0
LINE
  5
13C
330
12C
100
AcDbEntity
  8
RAHM2
100
AcDbLine
 10
371.8749999999999
 20
415.0
 30
0.0
 11
371.8749999999999
 21
410.0
 31
0.0
1001
GENIUS_GENBLLY_14
1000
BOR2
  0
TEXT
  5
13D
330
12C
100
AcDbEntity
  8
RAHM2
100
AcDbText
 10
335.0
 20
410.5
 30
0.0
 40
4.0
  1
5
100
AcDbText
1001
GENIUS_GENBLLY_14
1000
BOR2
  0
LINE
  5
13E
330
12C
100
AcDbEntity
  8
RAHM2
100
AcDbLine
 10
82.37499999999991
 20
415.0
 30
0.0
 11
82.37499999999991
 21
410.0
 31
0.0
1001
GENIUS_GENBLLY_14
1000
BOR2
  0
LINE
  5
13F
330
12C
100
AcDbEntity
  8
RAHM2
100
AcDbLine
 10
154.7499999999999
 20
415.0
 30
0.0
 11
154.7499999999999
 21
410.0
 31
0.0
1001
GENIUS_GENBLLY_14
1000
BOR2
  0
LINE
  5
140
330
12C
100
AcDbEntity
  8
RAHM2
100
AcDbLine
 10
227.1249999999999
 20
415.0
 30
0.0
 11
227.1249999999999
 21
410.0
 31
0.0
1001
GENIUS_GENBLLY_14
1000
BOR2
  0
LINE
  5
141
330
12C
100
AcDbEntity
  8
RAHM2
100
AcDbLine
 10
299.4999999999999
 20
415.0
 30
0.0
 11
299.4999999999999
 21
410.0
 31
0.0
1001
GENIUS_GENBLLY_14
1000
BOR2
  0
TEXT
  5
142
330
12C
100
AcDbEntity
  8
RAHM2
100
AcDbText
 10
45.50000000000002
 20
410.5
 30
0.0
 40
4.0
  1
1
100
AcDbText
1001
GENIUS_GENBLLY_14
1000
BOR2
  0
TEXT
  5
143
330
12C
100
AcDbEntity
  8
RAHM2
100
AcDbText
 10
117.5
 20
410.5
 30
0.0
 40
4.0
  1
2
100
AcDbText
1001
GENIUS_GENBLLY_14
1000
BOR2
  0
TEXT
  5
144
330
12C
100
AcDbEntity
  8
RAHM2
100
AcDbText
 10
190.5
 20
410.5
 30
0.0
 40
4.0
  1
3
100
AcDbText
1001
GENIUS_GENBLLY_14
1000
BOR2
  0
TEXT
  5
145
330
12C
100
AcDbEntity
  8
RAHM2
100
AcDbText
 10
263.0
 20
410.5
 30
0.0
 40
4.0
  1
4
100
AcDbText
1001
GENIUS_GENBLLY_14
1000
BOR2
  0
LINE
  5
146
330
12C
100
AcDbEntity
  8
RAHM2
100
AcDbLine
 10
588.9831138758759
 20
76.71791910685186
 30
0.0
 11
584.0
 21
76.71791910685186
 31
0.0
1001
GENIUS_GENBLLY_14
1000
BOR2
  0
LINE
  5
147
330
12C
100
AcDbEntity
  8
RAHM2
100
AcDbLine
 10
588.9831138758759
 20
143.3779191068518
 30
0.0
 11
584.0
 21
143.3779191068518
 31
0.0
1001
GENIUS_GENBLLY_14
1000
BOR2
  0
LINE
  5
148
330
12C
100
AcDbEntity
  8
RAHM2
100
AcDbLine
 10
588.9831138758759
 20
210.0379191068519
 30
0.0
 11
584.0
 21
210.0379191068519
 31
0.0
1001
GENIUS_GENBLLY_14
1000
BOR2
  0
LINE
  5
149
330
12C
100
AcDbEntity
  8
RAHM2
100
AcDbLine
 10
588.9831138758759
 20
276.6979191068519
 30
0.0
 11
584.0
 21
276.6979191068519
 31
0.0
1001
GENIUS_GENBLLY_14
1000
BOR2
  0
LINE
  5
14A
330
12C
100
AcDbEntity
  8
RAHM2
100
AcDbLine
 10
588.9831138758759
 20
343.3579191068519
 30
0.0
 11
584.0
 21
343.3579191068519
 31
0.0
1001
GENIUS_GENBLLY_14
1000
BOR2
  0
TEXT
  5
14B
330
12C
100
AcDbEntity
  8
RAHM2
100
AcDbText
 10
585.0
 20
43.0
 30
0.0
 40
4.0
  1
F
100
AcDbText
1001
GENIUS_GENBLLY_14
1000
BOR2
  0
TEXT
  5
14C
330
12C
100
AcDbEntity
  8
RAHM2
100
AcDbText
 10
585.0
 20
109.0
 30
0.0
 40
4.0
  1
E
100
AcDbText
1001
GENIUS_GENBLLY_14
1000
BOR2
  0
TEXT
  5
14D
330
12C
100
AcDbEntity
  8
RAHM2
100
AcDbText
 10
585.0
 20
176.0
 30
0.0
 40
4.0
  1
D
100
AcDbText
1001
GENIUS_GENBLLY_14
1000
BOR2
  0
TEXT
  5
14E
330
12C
100
AcDbEntity
  8
RAHM2
100
AcDbText
 10
585.0
 20
243.0
 30
0.0
 40
4.0
  1
C
100
AcDbText
1001
GENIUS_GENBLLY_14
1000
BOR2
  0
TEXT
  5
14F
330
12C
100
AcDbEntity
  8
RAHM2
100
AcDbText
 10
585.0
 20
310.0
 30
0.0
 40
4.0
  1
B
100
AcDbText
1001
GENIUS_GENBLLY_14
1000
BOR2
  0
TEXT
  5
150
330
12C
100
AcDbEntity
  8
RAHM2
100
AcDbText
 10
585.0
 20
376.0
 30
0.0
 40
4.0
  1
A
100
AcDbText
1001
GENIUS_GENBLLY_14
1000
BOR2
  0
TEXT
  5
151
330
12C
100
AcDbEntity
  8
RAHM2
100
AcDbText
 10
263.0
 20
5.5
 30
0.0
 40
4.0
  1
4
100
AcDbText
1001
GENIUS_GENBLLY_14
1000
BOR2
  0
TEXT
  5
152
330
12C
100
AcDbEntity
  8
RAHM2
100
AcDbText
 10
190.5
 20
5.5
 30
0.0
 40
4.0
  1
3
100
AcDbText
1001
GENIUS_GENBLLY_14
1000
BOR2
  0
TEXT
  5
153
330
12C
100
AcDbEntity
  8
RAHM2
100
AcDbText
 10
117.5
 20
5.5
 30
0.0
 40
4.0
  1
2
100
AcDbText
1001
GENIUS_GENBLLY_14
1000
BOR2
  0
TEXT
  5
154
330
12C
100
AcDbEntity
  8
RAHM2
100
AcDbText
 10
45.49999999999999
 20
5.5
 30
0.0
 40
4.0
  1
1
100
AcDbText
1001
GENIUS_GENBLLY_14
1000
BOR2
  0
TEXT
  5
155
330
12C
100
AcDbEntity
  8
RAHM2
100
AcDbText
 10
6.0
 20
376.0
 30
0.0
 40
4.0
  1
A
100
AcDbText
1001
GENIUS_GENBLLY_14
1000
BOR2
  0
TEXT
  5
156
330
12C
100
AcDbEntity
  8
RAHM2
100
AcDbText
 10
6.0
 20
310.0
 30
0.0
 40
4.0
  1
B
100
AcDbText
1001
GENIUS_GENBLLY_14
1000
BOR2
  0
TEXT
  5
157
330
12C
100
AcDbEntity
  8
RAHM2
100
AcDbText
 10
6.0
 20
243.0
 30
0.0
 40
4.0
  1
C
100
AcDbText
1001
GENIUS_GENBLLY_14
1000
BOR2
  0
TEXT
  5
158
330
12C
100
AcDbEntity
  8
RAHM2
100
AcDbText
 10
6.0
 20
176.0
 30
0.0
 40
4.0
  1
D
100
AcDbText
1001
GENIUS_GENBLLY_14
1000
BOR2
  0
TEXT
  5
159
330
12C
100
AcDbEntity
  8
RAHM2
100
AcDbText
 10
6.0
 20
109.0
 30
0.0
 40
4.0
  1
E
100
AcDbText
1001
GENIUS_GENBLLY_14
1000
BOR2
  0
TEXT
  5
15A
330
12C
100
AcDbEntity
  8
RAHM2
100
AcDbText
 10
6.0
 20
43.0
 30
0.0
 40
4.0
  1
F
100
AcDbText
1001
GENIUS_GENBLLY_14
1000
BOR2
  0
LINE
  5
15B
330
12C
100
AcDbEntity
  8
RAHM2
100
AcDbLine
 10
9.983113875875869
 20
343.3579191068519
 30
0.0
 11
5.0
 21
343.3579191068519
 31
0.0
1001
GENIUS_GENBLLY_14
1000
BOR2
  0
LINE
  5
15C
330
12C
100
AcDbEntity
  8
RAHM2
100
AcDbLine
 10
9.983113875875869
 20
276.6979191068519
 30
0.0
 11
5.0
 21
276.6979191068519
 31
0.0
1001
GENIUS_GENBLLY_14
1000
BOR2
  0
LINE
  5
15D
330
12C
100
AcDbEntity
  8
RAHM2
100
AcDbLine
 10
9.983113875875869
 20
210.0379191068519
 30
0.0
 11
5.0
 21
210.0379191068519
 31
0.0
1001
GENIUS_GENBLLY_14
1000
BOR2
  0
LINE
  5
15E
330
12C
100
AcDbEntity
  8
RAHM2
100
AcDbLine
 10
9.983113875875869
 20
143.3779191068518
 30
0.0
 11
5.0
 21
143.3779191068518
 31
0.0
1001
GENIUS_GENBLLY_14
1000
BOR2
  0
LINE
  5
15F
330
12C
100
AcDbEntity
  8
RAHM2
100
AcDbLine
 10
9.983113875875869
 20
76.71791910685186
 30
0.0
 11
5.0
 21
76.71791910685186
 31
0.0
1001
GENIUS_GENBLLY_14
1000
BOR2
  0
LINE
  5
160
330
12C
100
AcDbEntity
  8
RAHM2
100
AcDbLine
 10
299.4999999999999
 20
10.00000000000007
 30
0.0
 11
299.4999999999999
 21
5.00000000000007
 31
0.0
1001
GENIUS_GENBLLY_14
1000
BOR2
  0
LINE
  5
161
330
12C
100
AcDbEntity
  8
RAHM2
100
AcDbLine
 10
227.1249999999999
 20
10.00000000000007
 30
0.0
 11
227.1249999999999
 21
5.00000000000007
 31
0.0
1001
GENIUS_GENBLLY_14
1000
BOR2
  0
LINE
  5
162
330
12C
100
AcDbEntity
  8
RAHM2
100
AcDbLine
 10
154.7499999999999
 20
10.00000000000007
 30
0.0
 11
154.7499999999999
 21
5.00000000000007
 31
0.0
1001
GENIUS_GENBLLY_14
1000
BOR2
  0
LINE
  5
163
330
12C
100
AcDbEntity
  8
RAHM2
100
AcDbLine
 10
82.37499999999988
 20
10.00000000000007
 30
0.0
 11
82.37499999999988
 21
5.00000000000007
 31
0.0
1001
GENIUS_GENBLLY_14
1000
BOR2
  0
LINE
  5
164
330
12C
100
AcDbEntity
  8
RAHM2
100
AcDbLine
 10
584.0
 20
410.0
 30
0.0
 11
583.9999999999998
 21
5.0
 31
0.0
1001
GENIUS_GENBLLY_14
1000
BOR2
  0
LINE
  5
165
330
12C
100
AcDbEntity
  8
RAHM2
100
AcDbLine
 10
10.0
 20
10.0
 30
0.0
 11
10.00000000000002
 21
410.0
 31
0.0
1001
GENIUS_GENBLLY_14
1000
BOR2
  0
LINE
  5
166
330
12C
100
AcDbEntity
  8
0
100
AcDbLine
 10
588.9999999999998
 20
5.0
 30
0.0
 11
4.999999999999886
 21
5.000000000000071
 31
0.0
  0
LINE
  5
167
330
12C
100
AcDbEntity
  8
0
100
AcDbLine
 10
589.0
 20
415.0
 30
0.0
 11
588.9999999999998
 21
5.0
 31
0.0
  0
LINE
  5
168
330
12C
100
AcDbEntity
  8
0
100
AcDbLine
 10
5.000000000000024
 20
415.0
 30
0.0
 11
589.0
 21
415.0
 31
0.0
  0
LINE
  5
169
330
12C
100
AcDbEntity
  8
RAHM2
100
AcDbLine
 10
593.9999999999998
 20
0.0
 30
0.0
 11
-0.0000000000001137
 21
0.0000000000000727
 31
0.0
1001
GENIUS_GENBLLY_14
1000
BOR2
  0
LINE
  5
16A
330
12C
100
AcDbEntity
  8
RAHM2
100
AcDbLine
 10
0.0000000000000257
 20
420.0
 30
0.0
 11
594.0
 21
420.0
 31
0.0
1001
GENIUS_GENBLLY_14
1000
BOR2
  0
LINE
  5
16B
330
12C
100
AcDbEntity
  8
RAHM2
100
AcDbLine
 10
0.0
 20
0.0
 30
0.0
 11
0.0000000000000257
 21
420.0
 31
0.0
1001
GENIUS_GENBLLY_14
1000
BOR2
  0
LINE
  5
16C
330
12C
100
AcDbEntity
  8
RAHM2
100
AcDbLine
 10
210.0
 20
5.0
 30
0.0
 11
210.0
 21
0.0
 31
0.0
1001
GENIUS_GENBLLY_14
1000
BOR2
  0
LINE
  5
16D
330
12C
100
AcDbEntity
  8
RAHM2
100
AcDbLine
 10
0.0
 20
297.0
 30
0.0
 11
5.0
 21
297.0
 31
0.0
1001
GENIUS_GENBLLY_14
1000
BOR2
  0
LINE
  5
16E
330
12C
100
AcDbEntity
  8
RAHM2
100
AcDbLine
 10
105.0
 20
420.0
 30
0.0
 11
105.0
 21
415.0
 31
0.0
1001
GENIUS_GENBLLY_14
1000
BOR2
  0
LINE
  5
16F
330
12C
100
AcDbEntity
  8
RAHM2
100
AcDbLine
 10
594.0
 20
420.0
 30
0.0
 11
593.9999999999998
 21
0.0
 31
0.0
1001
GENIUS_VERSION2
1070
     2
1001
GENIUS_GENBLLY_14
1000
BOR2
  0
LWPOLYLINE
  5
170
330
12C
100
AcDbEntity
  8
RAHM2
100
AcDbPolyline
 90
        4
 70
     1
 43
0.0
 10
401.1199999999998
 20
5.000000000000031
 10
331.1199999999999
 20
5.000000000000031
 10
331.1199999999999
 20
13.50000000000003
 10
401.1199999999998
 20
13.50000000000002
1001
GENIUS_GENREC_14
1002
{
1000
PXDIR
1011
331.1199999999999
1021
5.000000000000031
1031
0.0
1002
}
1002
{
1000
PORI
1011
401.1199999999998
1021
5.000000000000031
1031
0.0
1002
}
1002
{
1000
PINS
1011
401.1199999999998
1021
5.000000000000031
1031
0.0
1002
}
1002
{
1000
HVAL
1000
8.5
1002
}
1002
{
1000
H
1070
     2
1002
}
1002
{
1000
WVAL
1000
-70
1002
}
1002
{
1000
W
1070
     2
1002
}
1002
{
1000
C
1070
     1
1002
}
1001
GENIUS_GENODEF_13
1002
{
1000
HIER
1070
     0
1002
}
1002
{
1000
MANEDIT
1070
     0
1002
}
1002
{
1000
NOSEL
1070
     0
1002
}
1002
{
1000
BEHIND
1070
     0
1002
}
1002
{
1000
REACTOR
1002
}
1001
GENIUS_GENOBJ-N-REC_13
1002
{
1000
OWNER
1000
GEN
1002
}
  0
MTEXT
  5
171
102
{ACAD_XDICTIONARY
360
728
102
}
330
12C
100
AcDbEntity
  8
RAHM2
100
AcDbMText
 10
332.8183525451005
 20
12.32474728438519
 30
0.0
 40
3.5
 41
4.301759591192151
 71
     1
 72
     5
  1
\fArial|b0|i0|c0|p32;\U+00A9
 73
     1
 44
1.0
1001
ACAD
1000
MTEXTBEGIN
1070
    73
1070
     1
1070
    44
1040
1.0
1070
    74
1070
     0
1000
MTEXTEND
  0
MTEXT
  5
172
330
12C
100
AcDbEntity
  8
RAHM2
100
AcDbMText
 10
374.9022594589519
 20
9.282856166729633
 30
0.0
 40
2.5
 41
51.25
 71
     5
 72
     5
  1
\fArial Black|b0|i0|c0|p34;ACO\Fgeniso.shx; \fDutch801 Rm BT|b0|i1|c0|p18;passavant \P\Fgeniso.shx;\H1.8;Schutzvermerk nach DIN 34
 73
     1
 44
1.0
1001
ACAD
1000
MTEXTBEGIN
1070
    73
1070
     1
1070
    44
1040
1.0
1070
    74
1070
     0
1000
MTEXTEND
  0
MTEXT
  5
173
330
12C
100
AcDbEntity
  8
RAHM2
100
AcDbMText
 10
339.5515418910246
 20
11.24554815700972
 30
0.0
 40
2.0
 41
5.5175
 71
     1
 72
     5
  1
2001
 73
     1
 44
1.0
1001
ACAD
1000
MTEXTBEGIN
1070
    73
1070
     1
1070
    44
1040
1.0
1070
    74
1070
     0
1000
MTEXTEND
  0
ENDBLK
  5
174
330
12C
100
AcDbEntity
  8
0
100
AcDbBlockEnd
  0
BLOCK
  5
176
330
175
100
AcDbEntity
  8
0
100
AcDbBlockBegin
  2
aendzeil
 70
     2
 10
0.0
 20
0.0
 30
0.0
  3
aendzeil
  1

  0
ATTDEF
  5
177
330
175
100
AcDbEntity
  8
RAHM2
100
AcDbText
 10
-53.17129684630285
 20
0.758766263726443
 30
0.0
 40
2.500000000000367
  1

 41
0.9
100
AcDbAttributeDefinition
  3
Zustand
  2
REVI
 70
     0
  0
ATTDEF
  5
178
330
175
100
AcDbEntity
  8
RAHM2
100
AcDbText
 10
-45.55129684630284
 20
0.758766263726443
 30
0.0
 40
2.500000000000367
  1

 41
0.9
100
AcDbAttributeDefinition
  3
Änderung
  2
CHNR
 70
     0
  0
ATTDEF
  5
179
330
175
100
AcDbEntity
  8
RAHM2
100
AcDbText
 10
-26.50129684630284
 20
0.758766263726443
 30
0.0
 40
2.500000000000367
  1

 41
0.9
100
AcDbAttributeDefinition
  3
Datum
  2
CRDA
 70
     0
  0
ATTDEF
  5
17A
330
175
100
AcDbEntity
  8
RAHM2
100
AcDbText
 10
-13.13985549000503
 20
0.8127940719140269
 30
0.0
 40
2.500000000000367
  1

 41
0.7635062867386634
 72
     5
 11
-7.318120053621868
 21
0.8127940719140269
 31
0.0
100
AcDbAttributeDefinition
  3
Name
  2
CRNA
 70
     0
  0
ATTDEF
  5
17B
330
175
100
AcDbEntity
  8
RAHM2
100
AcDbText
 10
-6.498796846302838
 20
0.758766263726443
 30
0.0
 40
2.500000000000367
  1

 41
0.9
100
AcDbAttributeDefinition
  3
Norm
  2
NORM
 70
     0
  0
ENDBLK
  5
17C
330
175
100
AcDbEntity
  8
0
100
AcDbBlockEnd
  0
BLOCK
  5
17F
330
17D
100
AcDbEntity
  8
0
100
AcDbBlockBegin
  2
ACO-SF02-KL
 70
     2
 10
0.0
 20
0.0
 30
0.0
  3
ACO-SF02-KL
  1

  0
ATTDEF
  5
180
330
17D
100
AcDbEntity
  8
RAHM3
100
AcDbText
 10
-64.85041433486502
 20
50.40908037512629
 30
0.0
 40
3.0
  1
-
 72
     1
 11
-63.80041433486502
 21
50.40908037512629
 31
0.0
100
AcDbAttributeDefinition
  3
(genmsg"gendwg"83)
  2
GEN-TITLE-SCA{5.42}
 70
     0
1001
GENIUS_GENBLLY_14
1000
BOR3
  0
ATTDEF
  5
181
330
17D
100
AcDbEntity
  8
RAHM2
100
AcDbText
 10
-77.18903296753727
 20
1.055184394999855
 30
0.0
 40
2.500000000000367
  1

 41
0.9
100
AcDbAttributeDefinition
  3
Ersatz
  2
F11
 70
     0
1001
GENIUS_GENBLLY_14
1000
BOR2
  0
MTEXT
  5
182
330
17D
100
AcDbEntity
  8
RAHM2
100
AcDbMText
 10
-85.14759485471326
 20
14.46334508310382
 30
0.0
 40
2.0
 41
11.91257244082952
 71
     4
 72
     5
  1
Zeichnungsnummer
 73
     1
 44
1.0
1001
ACAD
1000
MTEXTBEGIN
1070
    73
1070
     1
1070
    44
1040
1.0
1070
    74
1070
     0
1000
MTEXTEND
  0
LINE
  5
183
330
17D
100
AcDbEntity
  8
RAHM2
100
AcDbLine
 10
-86.35999999999999
 20
48.66000000000008
 30
0.0
 11
0.0
 21
48.66000000000005
 31
0.0
1001
GENIUS_GENBLLY_14
1000
BOR2
  0
LINE
  5
184
330
17D
100
AcDbEntity
  8
RAHM3
100
AcDbLine
 10
-182.88
 20
38.07000000000002
 30
0.0
 11
0.0
 21
38.07000000000003
 31
0.0
1001
GENIUS_GENBLLY_14
1000
BOR3
  0
LINE
  5
185
330
17D
100
AcDbEntity
  8
RAHM3
100
AcDbLine
 10
-129.54
 20
16.92000000000003
 30
0.0
 11
0.0
 21
16.92000000000003
 31
0.0
1001
GENIUS_GENBLLY_14
1000
BOR3
  0
POLYLINE
  5
186
330
17D
100
AcDbEntity
  8
0
100
AcDb2dPolyline
 66
     1
 10
0.0
 20
0.0
 30
0.0
 70
     1
  0
VERTEX
  5
187
330
186
100
AcDbEntity
  8
0
100
AcDbVertex
100
AcDb2dVertex
 10
-182.88
 20
0.0
 30
0.0
  0
VERTEX
  5
188
330
186
100
AcDbEntity
  8
0
100
AcDbVertex
100
AcDb2dVertex
 10
0.0
 20
0.0
 30
0.0
  0
VERTEX
  5
189
330
186
100
AcDbEntity
  8
0
100
AcDbVertex
100
AcDb2dVertex
 10
0.0
 20
54.99000000000001
 30
0.0
  0
VERTEX
  5
18A
330
186
100
AcDbEntity
  8
0
100
AcDbVertex
100
AcDb2dVertex
 10
-182.88
 20
54.99000000000004
 30
0.0
  0
SEQEND
  5
18B
330
186
100
AcDbEntity
  8
0
  0
LINE
  5
18C
330
17D
100
AcDbEntity
  8
RAHM2
100
AcDbLine
 10
-182.88
 20
4.230000000000018
 30
0.0
 11
0.0
 21
4.230000000000018
 31
0.0
1001
GENIUS_GENBLLY_14
1000
BOR2
  0
TEXT
  5
18D
330
17D
100
AcDbEntity
  8
0
100
AcDbText
 10
-182.8071414657317
 20
71.61199315718228
 30
0.0
 40
3.5
  1
Änderungen nur über CAD zulässig
100
AcDbText
  0
MTEXT
  5
18E
330
17D
100
AcDbEntity
  8
RAHM2
100
AcDbMText
 10
-174.537912928504
 20
2.115000000000023
 30
0.0
 40
2.0
 41
11.21910417767216
 71
     4
 72
     5
  1
Änderung
 73
     1
 44
1.0
1001
ACAD
1000
MTEXTBEGIN
1070
    73
1070
     1
1070
    44
1040
1.0
1070
    74
1070
     0
1000
MTEXTEND
  0
LINE
  5
18F
330
17D
100
AcDbEntity
  8
RAHM2
100
AcDbLine
 10
-182.88
 20
12.69000000000003
 30
0.0
 11
-129.54
 21
12.69000000000004
 31
0.0
1001
GENIUS_GENBLLY_14
1000
BOR2
  0
LINE
  5
190
330
17D
100
AcDbEntity
  8
RAHM2
100
AcDbLine
 10
-182.88
 20
16.92000000000001
 30
0.0
 11
-129.54
 21
16.92000000000003
 31
0.0
1001
GENIUS_GENBLLY_14
1000
BOR2
  0
LINE
  5
191
330
17D
100
AcDbEntity
  8
RAHM2
100
AcDbLine
 10
-182.88
 20
21.15000000000003
 30
0.0
 11
-129.54
 21
21.15000000000003
 31
0.0
1001
GENIUS_GENBLLY_14
1000
BOR2
  0
LINE
  5
192
330
17D
100
AcDbEntity
  8
RAHM2
100
AcDbLine
 10
-182.88
 20
8.460000000000022
 30
0.0
 11
-129.54
 21
8.460000000000036
 31
0.0
1001
GENIUS_GENBLLY_14
1000
BOR2
  0
LINE
  5
193
330
17D
100
AcDbEntity
  8
RAHM2
100
AcDbLine
 10
-182.88
 20
25.38000000000002
 30
0.0
 11
-86.35999999999999
 21
25.38000000000002
 31
0.0
1001
GENIUS_GENBLLY_14
1000
BOR2
  0
LINE
  5
194
330
17D
100
AcDbEntity
  8
RAHM2
100
AcDbLine
 10
-182.88
 20
29.61000000000002
 30
0.0
 11
-86.35999999999999
 21
29.61000000000002
 31
0.0
1001
GENIUS_GENBLLY_14
1000
BOR2
  0
LINE
  5
195
330
17D
100
AcDbEntity
  8
RAHM2
100
AcDbLine
 10
-182.88
 20
33.84000000000003
 30
0.0
 11
-86.35999999999999
 21
33.84000000000003
 31
0.0
1001
GENIUS_GENBLLY_14
1000
BOR2
  0
LINE
  5
196
330
17D
100
AcDbEntity
  8
RAHM2
100
AcDbLine
 10
-175.26
 20
38.07000000000002
 30
0.0
 11
-175.26
 21
0.0
 31
0.0
1001
GENIUS_GENBLLY_14
1000
BOR2
  0
MTEXT
  5
197
330
17D
100
AcDbEntity
  8
RAHM2
100
AcDbMText
 10
-182.157912928504
 20
2.115000000000023
 30
0.0
 40
2.0
 41
11.21910417767216
 71
     4
 72
     5
  1
Zust.
 73
     1
 44
1.0
1001
ACAD
1000
MTEXTBEGIN
1070
    73
1070
     1
1070
    44
1040
1.0
1070
    74
1070
     0
1000
MTEXTEND
  0
MTEXT
  5
198
330
17D
100
AcDbEntity
  8
RAHM2
100
AcDbMText
 10
-181.4767878194093
 20
54.17857627136107
 30
0.0
 40
2.399999999999999
 41
24.57
 71
     1
 72
     5
  1
Maße in (...)\Pgelten nicht\Pfür die\PFertigung
 73
     1
 44
1.0
1001
ACAD
1000
MTEXTBEGIN
1070
    73
1070
     1
1070
    44
1040
1.0
1070
    74
1070
     0
1000
MTEXTEND
  0
LINE
  5
199
330
17D
100
AcDbEntity
  8
RAHM2
100
AcDbLine
 10
-142.875
 20
38.07000000000003
 30
0.0
 11
-142.875
 21
0.0
 31
0.0
  0
LINE
  5
19A
330
17D
100
AcDbEntity
  8
RAHM3
100
AcDbLine
 10
-86.35999999999999
 20
54.99000000000006
 30
0.0
 11
-86.35999999999999
 21
0.0
 31
0.0
1001
GENIUS_GENBLLY_14
1000
BOR3
  0
LINE
  5
19B
330
17D
100
AcDbEntity
  8
RAHM2
100
AcDbLine
 10
-156.21
 20
38.07000000000004
 30
0.0
 11
-156.21
 21
0.0000000000000142
 31
0.0
1001
GENIUS_GENBLLY_14
1000
BOR2
  0
LINE
  5
19C
330
17D
100
AcDbEntity
  8
RAHM3
100
AcDbLine
 10
-129.54
 20
21.15000000000003
 30
0.0
 11
-129.54
 21
0.0
 31
0.0
1001
GENIUS_GENBLLY_14
1000
BOR3
  0
ATTDEF
  5
19D
330
17D
100
AcDbEntity
  8
RAHM2
100
AcDbText
 10
-120.3690329675373
 20
1.055184394999855
 30
0.0
 40
2.500000000000367
  1

 41
0.9
100
AcDbAttributeDefinition
  3
Ursprung
  2
URSPRUNG
 70
     0
1001
GENIUS_GENBLLY_14
1000
BOR2
  0
MTEXT
  5
19E
330
17D
100
AcDbEntity
  8
RAHM2
100
AcDbMText
 10
-142.152912928504
 20
2.115000000000023
 30
0.0
 40
2.0
 41
11.21910417767216
 71
     4
 72
     5
  1
Name
 73
     1
 44
1.0
1001
ACAD
1000
MTEXTBEGIN
1070
    73
1070
     1
1070
    44
1040
1.0
1070
    74
1070
     0
1000
MTEXTEND
  0
MTEXT
  5
19F
330
17D
100
AcDbEntity
  8
RAHM2
100
AcDbMText
 10
-155.487912928504
 20
2.115000000000023
 30
0.0
 40
2.0
 41
11.21910417767216
 71
     4
 72
     5
  1
Datum
 73
     1
 44
1.0
1001
ACAD
1000
MTEXTBEGIN
1070
    73
1070
     1
1070
    44
1040
1.0
1070
    74
1070
     0
1000
MTEXTEND
  0
MTEXT
  5
1A0
330
17D
100
AcDbEntity
  8
RAHM2
100
AcDbMText
 10
-128.817912928504
 20
2.115000000000023
 30
0.0
 40
2.0
 41
11.21910417767216
 71
     4
 72
     5
  1
Urspr.
 73
     1
 44
1.0
1001
ACAD
1000
MTEXTBEGIN
1070
    73
1070
     1
1070
    44
1040
1.0
1070
    74
1070
     0
1000
MTEXTEND
  0
MTEXT
  5
1A1
330
17D
100
AcDbEntity
  8
RAHM2
100
AcDbMText
 10
-85.63791292850398
 20
2.115000000000023
 30
0.0
 40
2.0
 41
11.21910417767216
 71
     4
 72
     5
  1
Ers. f.
 73
     1
 44
1.0
1001
ACAD
1000
MTEXTBEGIN
1070
    73
1070
     1
1070
    44
1040
1.0
1070
    74
1070
     0
1000
MTEXTEND
  0
MTEXT
  5
1A2
330
17D
100
AcDbEntity
  8
RAHM2
100
AcDbMText
 10
-128.1367878194093
 20
54.17857627136109
 30
0.0
 40
2.399999999999999
 41
22.38289646142594
 71
     1
 72
     5
  1
Zul. Abw.\Pnach PW\P0-200.680
 73
     1
 44
1.0
1001
ACAD
1000
MTEXTBEGIN
1070
    73
1070
     1
1070
    44
1040
1.0
1070
    74
1070
     0
1000
MTEXTEND
  0
LINE
  5
1A3
330
17D
100
AcDbEntity
  8
RAHM2
100
AcDbLine
 10
-129.54
 20
21.15000000000003
 30
0.0
 11
-86.35999999999999
 21
21.15000000000003
 31
0.0
1001
GENIUS_GENBLLY_14
1000
BOR2
  0
MTEXT
  5
1A4
330
17D
100
AcDbEntity
  8
RAHM2
100
AcDbMText
 10
-128.817912928504
 20
31.72500000000004
 30
0.0
 40
2.0
 41
11.21910417767216
 71
     4
 72
     5
  1
Gez.:
 73
     1
 44
1.0
1001
ACAD
1000
MTEXTBEGIN
1070
    73
1070
     1
1070
    44
1040
1.0
1070
    74
1070
     0
1000
MTEXTEND
  0
LINE
  5
1A5
330
17D
100
AcDbEntity
  8
RAHM3
100
AcDbLine
 10
-129.54
 20
54.99000000000006
 30
0.0
 11
-129.54
 21
21.15000000000003
 31
0.0
1001
GENIUS_GENBLLY_14
1000
BOR3
  0
LINE
  5
1A6
330
17D
100
AcDbEntity
  8
RAHM2
100
AcDbLine
 10
-119.38
 20
38.07000000000002
 30
0.0
 11
-119.3799999999999
 21
21.15000000000003
 31
0.0
1001
GENIUS_GENBLLY_14
1000
BOR2
  0
MTEXT
  5
1A7
330
17D
100
AcDbEntity
  8
RAHM2
100
AcDbMText
 10
-128.817912928504
 20
23.26500000000003
 30
0.0
 40
2.0
 41
11.21910417767216
 71
     4
 72
     5
  1
Norm:
 73
     1
 44
1.0
1001
ACAD
1000
MTEXTBEGIN
1070
    73
1070
     1
1070
    44
1040
1.0
1070
    74
1070
     0
1000
MTEXTEND
  0
MTEXT
  5
1A8
330
17D
100
AcDbEntity
  8
RAHM2
100
AcDbMText
 10
-128.817912928504
 20
27.49500000000002
 30
0.0
 40
2.0
 41
11.21910417767216
 71
     4
 72
     5
  1
Gepr.:
 73
     1
 44
1.0
1001
ACAD
1000
MTEXTBEGIN
1070
    73
1070
     1
1070
    44
1040
1.0
1070
    74
1070
     0
1000
MTEXTEND
  0
MTEXT
  5
1A9
330
17D
100
AcDbEntity
  8
RAHM2
100
AcDbMText
 10
-154.8067878194093
 20
54.17857627136106
 30
0.0
 40
2.399999999999999
 41
24.57
 71
     1
 72
     5
  1
Werkstück-\PKanten\Pnach PW\P0-200.750
 73
     1
 44
1.0
1001
ACAD
1000
MTEXTBEGIN
1070
    73
1070
     1
1070
    44
1040
1.0
1070
    74
1070
     0
1000
MTEXTEND
  0
LINE
  5
1AA
330
17D
100
AcDbEntity
  8
RAHM2
100
AcDbLine
 10
-156.21
 20
38.07000000000004
 30
0.0
 11
-156.21
 21
54.99000000000003
 31
0.0
  0
LINE
  5
1AB
330
17D
100
AcDbEntity
  8
RAHM2
100
AcDbLine
 10
-104.14
 20
54.99000000000006
 30
0.0
 11
-104.14
 21
16.92000000000003
 31
0.0
1001
GENIUS_GENBLLY_14
1000
BOR2
  0
ATTDEF
  5
1AC
330
17D
100
AcDbEntity
  8
RAHM2
100
AcDbText
 10
-95.24999999999998
 20
30.47499999999984
 30
0.0
 40
2.500000000000367
  1

 41
0.8
 72
     1
 11
-95.24999999999998
 21
31.72500000000002
 31
0.0
100
AcDbAttributeDefinition
  3
Bearbeitername
  2
F8
 70
     0
 74
     2
1001
GENIUS_GENBLLY_14
1000
BOR2
  0
ATTDEF
  5
1AD
330
17D
100
AcDbEntity
  8
RAHM2
100
AcDbText
 10
-111.76
 20
30.47499999999984
 30
0.0
 40
2.500000000000367
  1

 41
0.9
 72
     1
 11
-111.76
 21
31.72500000000002
 31
0.0
100
AcDbAttributeDefinition
  3
Bearbeiterdatum
  2
F9
 70
     0
 74
     2
1001
GENIUS_GENBLLY_14
1000
BOR2
  0
ATTDEF
  5
1AE
330
17D
100
AcDbEntity
  8
RAHM2
100
AcDbText
 10
-95.24999999999998
 20
22.01499999999983
 30
0.0
 40
2.500000000000367
  1

 41
0.8
 72
     1
 11
-95.24999999999998
 21
23.26500000000002
 31
0.0
100
AcDbAttributeDefinition
  3
Norm
  2
NORM
 70
     0
 74
     2
1001
GENIUS_GENBLLY_14
1000
BOR2
  0
ATTDEF
  5
1AF
330
17D
100
AcDbEntity
  8
RAHM2
100
AcDbText
 10
-95.24999999999998
 20
26.24499999999982
 30
0.0
 40
2.500000000000367
  1

 41
0.8
 72
     1
 11
-95.24999999999998
 21
27.49500000000001
 31
0.0
100
AcDbAttributeDefinition
  3
Prüfname
  2
F21
 70
     0
 74
     2
1001
GENIUS_GENBLLY_14
1000
BOR2
  0
ATTDEF
  5
1B0
330
17D
100
AcDbEntity
  8
RAHM2
100
AcDbText
 10
-111.7599999999999
 20
26.24499999999982
 30
0.0
 40
2.500000000000367
  1

 41
0.9
 72
     1
 11
-111.7599999999999
 21
27.49500000000001
 31
0.0
100
AcDbAttributeDefinition
  3
Prüfdatum
  2
F22
 70
     0
 74
     2
1001
GENIUS_GENBLLY_14
1000
BOR2
  0
ATTDEF
  5
1B1
330
17D
100
AcDbEntity
  8
RAHM5
100
AcDbText
 10
-83.93278926340224
 20
18.99958139598453
 30
0.0
 40
5.0
  1

 41
0.8
100
AcDbAttributeDefinition
  3
Benenn2
  2
F3
 70
     0
1001
GENIUS_GENBLLY_14
1000
BOR3
  0
ATTDEF
  5
1B2
330
17D
100
AcDbEntity
  8
RAHM5
100
AcDbText
 10
-83.95094248081989
 20
26.50208258201252
 30
0.0
 40
5.00000000000049
  1

 41
0.8
100
AcDbAttributeDefinition
  3
Benenn1
  2
F2
 70
     0
1001
GENIUS_GENBLLY_14
1000
BOR5
  0
MTEXT
  5
1B3
330
17D
100
AcDbEntity
  8
RAHM2
100
AcDbMText
 10
-98.97179931943435
 20
35.95500000000003
 30
0.0
 40
2.0
 41
7.624463545517301
 71
     4
 72
     5
  1
Name
 73
     1
 44
1.0
1001
ACAD
1000
MTEXTBEGIN
1070
    73
1070
     1
1070
    44
1040
1.0
1070
    74
1070
     0
1000
MTEXTEND
  0
MTEXT
  5
1B4
330
17D
100
AcDbEntity
  8
RAHM2
100
AcDbMText
 10
-102.7367878194093
 20
54.17857627136109
 30
0.0
 40
2.2
 41
15.94221488455651
 71
     1
 72
     5
  1
Oberflächen\P\H2.4;DIN ISO\P1302
 73
     1
 44
1.0
1001
ACAD
1000
MTEXTBEGIN
1070
    73
1070
     1
1070
    44
1040
1.0
1070
    74
1070
     0
1000
MTEXTEND
  0
MTEXT
  5
1B5
330
17D
100
AcDbEntity
  8
RAHM2
100
AcDbMText
 10
-116.0330976821806
 20
35.95500000000003
 30
0.0
 40
2.0
 41
7.499471710434931
 71
     4
 72
     5
  1
Datum
 73
     1
 44
1.0
1001
ACAD
1000
MTEXTBEGIN
1070
    73
1070
     1
1070
    44
1040
1.0
1070
    74
1070
     0
1000
MTEXTEND
  0
MTEXT
  5
1B6
330
17D
100
AcDbEntity
  8
RAHM2
100
AcDbMText
 10
-84.77897137392389
 20
43.36500000000005
 30
0.0
 40
2.0
 41
11.22
 71
     4
 72
     5
  1
Werkstoff\PRohteil-Nr.
 73
     1
 44
1.0
1001
ACAD
1000
MTEXTBEGIN
1070
    73
1070
     1
1070
    44
1040
1.0
1070
    74
1070
     0
1000
MTEXTEND
  0
MTEXT
  5
1B7
330
17D
100
AcDbEntity
  8
RAHM2
100
AcDbMText
 10
-85.14759485471325
 20
35.61334508310381
 30
0.0
 40
2.0
 41
11.91257244082952
 71
     4
 72
     5
  1
Benennung
 73
     1
 44
1.0
1001
ACAD
1000
MTEXTBEGIN
1070
    73
1070
     1
1070
    44
1040
1.0
1070
    74
1070
     0
1000
MTEXTEND
  0
MTEXT
  5
1B8
330
17D
100
AcDbEntity
  8
RAHM2
100
AcDbMText
 10
-84.91456038966111
 20
51.82500000000008
 30
0.0
 40
2.0
 41
11.21910417767216
 71
     4
 72
     5
  1
Maßstab
 73
     1
 44
1.0
1001
ACAD
1000
MTEXTBEGIN
1070
    73
1070
     1
1070
    44
1040
1.0
1070
    74
1070
     0
1000
MTEXTEND
  0
LINE
  5
1B9
330
17D
100
AcDbEntity
  8
RAHM3
100
AcDbLine
 10
-10.16
 20
16.92000000000003
 30
0.0
 11
-10.16
 21
0.0
 31
0.0
1001
GENIUS_GENBLLY_14
1000
BOR2
  0
ATTDEF
  5
1BA
330
17D
100
AcDbEntity
  8
RAHM5
100
AcDbText
 10
-16.65999999999999
 20
6.239436680117933
 30
0.0
 40
5.0
  1

 41
0.8
 72
     1
 11
-16.65999999999999
 21
6.239436680117933
 31
0.0
100
AcDbAttributeDefinition
  3
Änderungsindex
  2
F1B
 70
     0
1001
GENIUS_GENBLLY_14
1000
BOR3
  0
LINE
  5
1BB
330
17D
100
AcDbEntity
  8
RAHM3
100
AcDbLine
 10
-23.16
 20
16.92000000000003
 30
0.0
 11
-23.16
 21
4.230000000000018
 31
0.0
  0
ATTDEF
  5
1BC
330
17D
100
AcDbEntity
  8
RAHM2
100
AcDbText
 10
-34.9890329675373
 20
1.055184394999855
 30
0.0
 40
2.500000000000367
  1

 41
0.9
100
AcDbAttributeDefinition
  3
Ersetzt
  2
F12
 70
     0
1001
GENIUS_GENBLLY_14
1000
BOR2
  0
LINE
  5
1BD
330
17D
100
AcDbEntity
  8
RAHM2
100
AcDbLine
 10
-44.15999999999999
 20
4.230000000000018
 30
0.0
 11
-44.15999999999999
 21
0.0
 31
0.0
  0
MTEXT
  5
1BE
330
17D
100
AcDbEntity
  8
RAHM2
100
AcDbMText
 10
-43.437912928504
 20
2.115000000000023
 30
0.0
 40
2.0
 41
11.21910417767216
 71
     4
 72
     5
  1
Ers. d.
 73
     1
 44
1.0
1001
ACAD
1000
MTEXTBEGIN
1070
    73
1070
     1
1070
    44
1040
1.0
1070
    74
1070
     0
1000
MTEXTEND
  0
ATTDEF
  5
1BF
330
17D
100
AcDbEntity
  8
RAHM2
100
AcDbText
 10
-3.678679933904587
 20
5.0457767515923
 30
0.0
 40
2.500000000000367
  1
1
 41
0.9
 72
     1
 11
-3.116179933904504
 21
6.295776751592484
 31
0.0
100
AcDbAttributeDefinition
  3
von Blatt
  2
VONBLATT
 70
     0
 74
     2
1001
GENIUS_GENBLLY_14
1000
BOR2
  0
LINE
  5
1C0
330
17D
100
AcDbEntity
  8
RAHM2
100
AcDbLine
 10
-10.15999999999997
 20
8.460000000000036
 30
0.0
 11
0.0
 21
8.460000000000022
 31
0.0
1001
GENIUS_GENBLLY_14
1000
BOR2
  0
MTEXT
  5
1C1
330
17D
100
AcDbEntity
  8
RAHM2
100
AcDbMText
 10
-9.746833214585421
 20
6.154926572906106
 30
0.0
 40
2.0
 41
4.600541847406361
 71
     4
 72
     5
  1
v.Bl.
 73
     1
 44
1.0
1001
ACAD
1000
MTEXTBEGIN
1070
    73
1070
     1
1070
    44
1040
1.0
1070
    74
1070
     0
1000
MTEXTEND
  0
ATTDEF
  5
1C2
330
17D
100
AcDbEntity
  8
RAHM3
100
AcDbText
 10
-29.35453274468528
 20
50.40908037512628
 30
0.0
 40
3.0
  1
-
 41
0.8
 72
     1
 11
-28.51453274468528
 21
50.40908037512628
 31
0.0
100
AcDbAttributeDefinition
  3
Gewicht
  2
F60
 70
     0
1001
GENIUS_GENBLLY_14
1000
BOR3
  0
ATTDEF
  5
1C3
330
17D
100
AcDbEntity
  8
RAHM3
100
AcDbText
 10
-62.67498919895991
 20
41.94908037512625
 30
0.0
 40
3.0
  1
-
 41
0.8
100
AcDbAttributeDefinition
  3
Werkstoff/Rohrteil-Nr.
  2
ROHRTEILNR
 70
     0
1001
GENIUS_GENBLLY_14
1000
BOR3
  0
MTEXT
  5
1C4
330
17D
100
AcDbEntity
  8
RAHM2
100
AcDbMText
 10
-49.35456038966115
 20
51.82500000000006
 30
0.0
 40
2.0
 41
11.21910417767216
 71
     4
 72
     5
  1
Gewicht
 73
     1
 44
1.0
1001
ACAD
1000
MTEXTBEGIN
1070
    73
1070
     1
1070
    44
1040
1.0
1070
    74
1070
     0
1000
MTEXTEND
  0
LINE
  5
1C5
330
17D
100
AcDbEntity
  8
RAHM2
100
AcDbLine
 10
-50.80000000000001
 20
54.99000000000006
 30
0.0
 11
-50.80000000000001
 21
48.66000000000008
 31
0.0
1001
GENIUS_GENBLLY_14
1000
BOR2
  0
MTEXT
  5
1C6
330
17D
100
AcDbEntity
  8
RAHM2
100
AcDbMText
 10
-21.94759485471327
 20
14.46334508310382
 30
0.0
 40
2.0
 41
11.91
 71
     4
 72
     5
  1
Index
 73
     1
 44
1.0
1001
ACAD
1000
MTEXTBEGIN
1070
    73
1070
     1
1070
    44
1040
1.0
1070
    74
1070
     0
1000
MTEXTEND
  0
MTEXT
  5
1C7
330
17D
100
AcDbEntity
  8
RAHM2
100
AcDbMText
 10
-7.856144535752036
 20
14.61821708041282
 30
0.0
 40
2.0
 41
5.723485139280796
 71
     4
 72
     5
  1
Blatt
 73
     1
 44
1.0
1001
ACAD
1000
MTEXTBEGIN
1070
    73
1070
     1
1070
    44
1040
1.0
1070
    74
1070
     0
1000
MTEXTEND
  0
ATTDEF
  5
1C8
330
17D
100
AcDbEntity
  8
RAHM3
100
AcDbText
 10
-5.919999999999998
 20
9.238696270187517
 30
0.0
 40
3.0
  1
-
 41
0.8
 72
     1
 11
-5.079999999999998
 21
9.238696270187517
 31
0.0
100
AcDbAttributeDefinition
  3
Blatt
  2
SHNR
 70
     0
1001
GENIUS_GENBLLY_14
1000
BOR3
  0
LINE
  5
1C9
330
17D
100
AcDbEntity
  8
RAHM3
100
AcDbLine
 10
-10.15999999999999
 20
54.99000000000001
 30
0.0
 11
-10.15999999999999
 21
38.07000000000003
 31
0.0
1001
GENIUS_GENBLLY_14
1000
BOR2
  0
LINE
  5
1CA
330
17D
100
AcDbEntity
  8
RAHM2
100
AcDbLine
 10
-5.080000000000012
 20
43.36000000000002
 30
0.0
 11
-5.080000000000012
 21
38.07000000000003
 31
0.0
  0
LINE
  5
1CB
330
17D
100
AcDbEntity
  8
RAHM2
100
AcDbLine
 10
-10.16000000000002
 20
43.36000000000002
 30
0.0
 11
0.0
 21
43.36000000000002
 31
0.0
1001
GENIUS_GENBLLY_14
1000
BOR3
  0
MTEXT
  5
1CC
330
17D
100
AcDbEntity
  8
RAHM2
100
AcDbMText
 10
-5.079999999999995
 20
51.82500000000003
 30
0.0
 40
1.8
 41
11.29
 71
     5
 72
     5
  1
weitere\PSprachen
 73
     1
 44
1.0
1001
ACAD
1000
MTEXTBEGIN
1070
    73
1070
     1
1070
    44
1040
1.0
1070
    74
1070
     0
1000
MTEXTEND
  0
ATTDEF
  5
1CD
330
17D
100
AcDbEntity
  8
RAHM3
100
AcDbText
 10
-5.972785295520449
 20
44.6097237062491
 30
0.0
 40
3.0
  1
-
 41
0.8
 72
     1
 11
-5.132785295520449
 21
44.6097237062491
 31
0.0
100
AcDbAttributeDefinition
  3
Sprache
  2
LANG
 70
     0
1001
GENIUS_GENBLLY_14
1000
BOR3
  0
ATTDEF
  5
1CE
330
17D
100
AcDbEntity
  8
RAHM5
100
AcDbText
 10
-83.93278926340224
 20
6.072709825831793
 30
0.0
 40
5.0
  1
-
 41
0.8
100
AcDbAttributeDefinition
  3
Zeichnungsnummer
  2
F1
 70
     0
1001
GENIUS_GENBLLY_14
1000
BOR3
  0
INSERT
  5
1CF
330
17D
100
AcDbEntity
  8
0
100
AcDbBlockReference
 66
     1
  2
aendzeil
 10
-129.54
 20
4.230000000000018
 30
0.0
  0
ATTRIB
  5
1D0
330
1CF
100
AcDbEntity
  8
RAHM2
100
AcDbText
 10
-182.7112968463028
 20
4.988766263726461
 30
0.0
 40
2.500000000000367
  1

 41
0.9
100
AcDbAttribute
  2
REVI
 70
     0
  0
ATTRIB
  5
1D1
330
1CF
100
AcDbEntity
  8
RAHM2
100
AcDbText
 10
-175.0912968463028
 20
4.988766263726461
 30
0.0
 40
2.500000000000367
  1

 41
0.9
100
AcDbAttribute
  2
CHNR
 70
     0
  0
ATTRIB
  5
1D2
330
1CF
100
AcDbEntity
  8
RAHM2
100
AcDbText
 10
-156.0412968463028
 20
4.988766263726461
 30
0.0
 40
2.500000000000367
  1

 41
0.9
100
AcDbAttribute
  2
CRDA
 70
     0
  0
ATTRIB
  5
1D3
330
1CF
100
AcDbEntity
  8
RAHM2
100
AcDbText
 10
-142.679855490005
 20
5.042794071914045
 30
0.0
 40
2.500000000000367
  1

 41
0.7635062867386634
 72
     5
 11
-136.8581200536218
 21
5.042794071914045
 31
0.0
100
AcDbAttribute
  2
CRNA
 70
     0
  0
ATTRIB
  5
1D4
330
1CF
100
AcDbEntity
  8
RAHM2
100
AcDbText
 10
-136.0387968463028
 20
4.988766263726461
 30
0.0
 40
2.500000000000367
  1

 41
0.9
100
AcDbAttribute
  2
NORM
 70
     0
  0
SEQEND
  5
1D5
330
1CF
100
AcDbEntity
  8
0
  0
ATTDEF
  5
1D6
330
17D
100
AcDbEntity
  8
TEXT25
100
AcDbText
 10
-181.3350410344388
 20
4.838012658558938
 30
0.0
 40
2.0
  1

 41
0.8
  7
TEXT20
100
AcDbAttributeDefinition
  3
Index vv.:
  2
F72
 70
     0
  0
ATTDEF
  5
1D7
330
17D
100
AcDbEntity
  8
TEXT25
100
AcDbText
 10
-174.421598333048
 20
5.338012658558938
 30
0.0
 40
2.0
  1

 41
0.8
  7
TEXT20
100
AcDbAttributeDefinition
  3
Benennung vv.:
  2
F73
 70
     0
  0
ATTDEF
  5
1D8
330
17D
100
AcDbEntity
  8
TEXT25
100
AcDbText
 10
-155.4721971294954
 20
4.838012658558939
 30
0.0
 40
2.0
  1

 41
0.8
  7
TEXT20
100
AcDbAttributeDefinition
  3
Datum vv.:
  2
F74
 70
     0
  0
ATTDEF
  5
1D9
330
17D
100
AcDbEntity
  8
TEXT25
100
AcDbText
 10
-142.1827679993665
 20
5.138012658558963
 30
0.0
 40
2.0
  1

 41
0.8
  7
TEXT20
100
AcDbAttributeDefinition
  3
Name vv.:
  2
F75
 70
     0
  0
ATTDEF
  5
1DA
330
17D
100
AcDbEntity
  8
TEXT25
100
AcDbText
 10
-181.4181668238402
 20
9.711801983794956
 30
0.0
 40
2.0
  1

 41
0.8
  7
TEXT20
100
AcDbAttributeDefinition
  3
Index v.:
  2
F68
 70
     0
  0
ATTDEF
  5
1DB
330
17D
100
AcDbEntity
  8
TEXT25
100
AcDbText
 10
-181.3446667567203
 20
14.00731874193574
 30
0.0
 40
2.0
  1

 41
0.8
  7
TEXT20
100
AcDbAttributeDefinition
  3
Index l.:
  2
F64
 70
     0
  0
ATTDEF
  5
1DC
330
17D
100
AcDbEntity
  8
TEXT25
100
AcDbText
 10
-174.121598333048
 20
13.87697688055209
 30
0.0
 40
2.0
  1

 41
0.8
  7
TEXT20
100
AcDbAttributeDefinition
  3
Bennenung l.:
  2
F65
 70
     0
  0
ATTDEF
  5
1DD
330
17D
100
AcDbEntity
  8
TEXT25
100
AcDbText
 10
-174.421598333048
 20
9.638012658558949
 30
0.0
 40
2.0
  1

 41
0.8
  7
TEXT20
100
AcDbAttributeDefinition
  3
Benennung v.:
  2
F69
 70
     0
  0
ATTDEF
  5
1DE
330
17D
100
AcDbEntity
  8
TEXT25
100
AcDbText
 10
-155.4624305718804
 20
13.93817797706407
 30
0.0
 40
2.0
  1

 41
0.8
  7
TEXT20
100
AcDbAttributeDefinition
  3
Datum l.:
  2
F66
 70
     0
  0
ATTDEF
  5
1DF
330
17D
100
AcDbEntity
  8
TEXT25
100
AcDbText
 10
-155.5785931557433
 20
9.882816249346804
 30
0.0
 40
2.0
  1

 41
0.8
  7
TEXT20
100
AcDbAttributeDefinition
  3
Datum v.:
  2
F70
 70
     0
  0
ATTDEF
  5
1E0
330
17D
100
AcDbEntity
  8
TEXT25
100
AcDbText
 10
-142.1827679993665
 20
9.93801265855896
 30
0.0
 40
2.0
  1

 41
0.8
  7
TEXT20
100
AcDbAttributeDefinition
  3
Name v.:
  2
F71
 70
     0
  0
ATTDEF
  5
1E1
330
17D
100
AcDbEntity
  8
TEXT25
100
AcDbText
 10
-142.0928343804181
 20
13.6769768805521
 30
0.0
 40
2.0
  1

 41
0.8
  7
TEXT20
100
AcDbAttributeDefinition
  3
Name l.:
  2
F67
 70
     0
  0
TEXT
  5
1E2
330
17D
100
AcDbEntity
  8
0N
100
AcDbText
 10
-180.9233753026868
 20
63.6501209888693
 30
0.0
 40
3.5
  1
Zeichnungen größer darstellenden Maßstabes bzw. Einzelteilzeichnungen
 41
0.9
100
AcDbText
  0
LINE
  5
1E3
330
17D
100
AcDbEntity
  8
0
100
AcDbLine
 10
0.0
 20
69.98999999999999
 30
0.0
 11
-182.88
 21
69.98999999999999
 31
0.0
  0
TEXT
  5
1E4
330
17D
100
AcDbEntity
  8
0N
100
AcDbText
 10
-180.9233753026868
 20
57.63471067045306
 30
0.0
 40
3.5
  1
haben vorrangige Gültigkeit
 41
0.9
100
AcDbText
  0
LINE
  5
1E5
330
17D
100
AcDbEntity
  8
0
100
AcDbLine
 10
-182.88
 20
54.99000000000004
 30
0.0
 11
-182.88
 21
69.98999999999999
 31
0.0
  0
TEXT
  5
1E6
330
17D
100
AcDbEntity
  8
0N
100
AcDbText
 10
-109.6795815433127
 20
14.20496366599923
 30
0.0
 40
2.205
  1
ACO Haustechnik
  7
Anschrift
100
AcDbText
  0
TEXT
  5
1E7
330
17D
100
AcDbEntity
  8
KOPF
100
AcDbText
 10
-109.5358042281258
 20
11.61803468207068
 30
0.0
 40
1.26
  1
ACO Passavant GmbH
  7
Anschrift
100
AcDbText
  0
TEXT
  5
1E8
330
17D
100
AcDbEntity
  8
KOPF
100
AcDbText
 10
-109.5358042281258
 20
9.561222342739062
 30
0.0
 40
1.26
  1
Ulsterstrasse 3
  7
Anschrift
100
AcDbText
  0
TEXT
  5
1E9
330
17D
100
AcDbEntity
  8
KOPF
100
AcDbText
 10
-109.5358042281258
 20
7.504410003407442
 30
0.0
 40
1.26
  1
36269 Phillipsthal
  7
Anschrift
100
AcDbText
  0
TEXT
  5
1EA
330
17D
100
AcDbEntity
  8
KOPF
100
AcDbText
 10
-109.5358042281258
 20
5.447597664075821
 30
0.0
 40
1.26
  1
www.aco-haustechnik.de
  7
Anschrift
100
AcDbText
  0
IMAGE
  5
1EB
330
17D
100
AcDbEntity
  8
0
 92
      140
310
8C00000001000000840000000600000005000000E495F3B646ED5FC00034983F623415400000000000000000E495F3B646ED5FC07828F3851A53304000000000000000003910DBF6FB4C5CC07828F3851A53304000000000000000003910DBF6FB4C5CC00034983F623415400000000000000000E495F3B646ED5FC0003498
310
3F623415400000000000000000
100
AcDbRasterImage
 90
        0
 10
-127.7074410799756
 20
5.301156037964574
 30
0.0
 11
0.1933941653435695
 21
0.0
 31
0.0
 12
0.0
 22
0.1933941653435694
 32
0.0
 13
75.0
 23
57.0
340
227
 70
     7
280
     0
281
    50
282
    50
283
     0
360
1EC
 71
     1
 91
        2
 14
-0.5
 24
-0.5
 14
74.5
 24
56.5
  0
MTEXT
  5
1ED
330
17D
100
AcDbEntity
  8
Sperrlayer
 62
     1
100
AcDbMText
 10
-165.5971743099973
 20
12.04562497477995
 30
0.0
 40
10.0
 41
771.0
 71
     1
 72
     5
  1
VORABZUG - nicht FREIGEGEBEN !
  7
TEXT20
 11
0.9359123957970576
 21
0.3522328596162087
 31
0.0
 73
     1
 44
1.0
1001
ACAD
1000
MTEXTBEGIN
1070
    73
1070
     1
1070
    44
1040
1.0
1070
    74
1070
     0
1000
MTEXTEND
  0
ENDBLK
  5
1EE
330
17D
100
AcDbEntity
  8
0
100
AcDbBlockEnd
  0
BLOCK
  5
409
330
3FF
100
AcDbEntity
  8
0
100
AcDbBlockBegin
  2
*D6
 70
     1
 10
0.0
 20
0.0
 30
0.0
  3
*D6
  1

  0
LINE
  5
43E
330
3FF
100
AcDbEntity
  8
AM_5
100
AcDbLine
 10
259.9730163931766
 20
213.4170445829325
 30
0.0
 11
259.9730163931766
 21
189.5066267752475
 31
0.0
  0
LINE
  5
43F
330
3FF
100
AcDbEntity
  8
AM_5
100
AcDbLine
 10
134.9730163931766
 20
213.4170445829325
 30
0.0
 11
134.9730163931766
 21
189.5066267752475
 31
0.0
  0
LINE
  5
440
330
3FF
100
AcDbEntity
  8
AM_5
100
AcDbLine
 10
254.9730163931766
 20
191.5066267752474
 30
0.0
 11
139.9730163931766
 21
191.5066267752474
 31
0.0
  0
SOLID
  5
441
330
3FF
100
AcDbEntity
  8
AM_5
100
AcDbTrace
 10
254.9730163931766
 20
192.3399601085808
 30
0.0
 11
254.9730163931766
 21
190.6732934419141
 31
0.0
 12
259.9730163931766
 22
191.5066267752474
 32
0.0
 13
259.9730163931766
 23
191.5066267752474
 33
0.0
  0
SOLID
  5
442
330
3FF
100
AcDbEntity
  8
AM_5
100
AcDbTrace
 10
139.9730163931766
 20
192.3399601085808
 30
0.0
 11
139.9730163931766
 21
190.6732934419141
 31
0.0
 12
134.9730163931766
 22
191.5066267752474
 32
0.0
 13
134.9730163931766
 23
191.5066267752474
 33
0.0
  0
MTEXT
  5
443
330
3FF
100
AcDbEntity
  8
AM_5
 62
     2
100
AcDbMText
 10
197.4730163931766
 20
198.0073157516254
 30
0.0
 40
7.0
 41
0.0
 71
     5
 72
     1
  1
%%c125
 73
     1
 44
1.0
1001
ACAD
1000
MTEXTBEGIN
1070
    73
1070
     1
1070
    44
1040
1.0
1070
    74
1070
     0
1000
MTEXTEND
  0
POINT
  5
444
330
3FF
100
AcDbEntity
  8
DEFPOINTS
 62
     0
100
AcDbPoint
 10
259.9730163931766
 20
215.4170445829325
 30
0.0
  0
POINT
  5
445
330
3FF
100
AcDbEntity
  8
DEFPOINTS
 62
     0
100
AcDbPoint
 10
134.9730163931766
 20
215.4170445829325
 30
0.0
  0
POINT
  5
446
330
3FF
100
AcDbEntity
  8
DEFPOINTS
 62
     0
100
AcDbPoint
 10
134.9730163931766
 20
191.5066267752474
 30
0.0
  0
ENDBLK
  5
40A
330
3FF
100
AcDbEntity
  8
0
100
AcDbBlockEnd
  0
BLOCK
  5
415
330
40B
100
AcDbEntity
  8
0
100
AcDbBlockBegin
  2
*D7
 70
     1
 10
0.0
 20
0.0
 30
0.0
  3
*D7
  1

  0
LINE
  5
447
330
40B
100
AcDbEntity
  8
AM_5
100
AcDbLine
 10
129.3230163932766
 20
363.1670445829324
 30
0.0
 11
129.3230163932766
 21
386.4512915332717
 31
0.0
  0
LINE
  5
448
330
40B
100
AcDbEntity
  8
AM_5
100
AcDbLine
 10
265.6230163932767
 20
363.1670445829324
 30
0.0
 11
265.6230163932767
 21
386.4512915332717
 31
0.0
  0
LINE
  5
449
330
40B
100
AcDbEntity
  8
AM_5
100
AcDbLine
 10
134.3230163932766
 20
384.4512915332717
 30
0.0
 11
260.6230163932766
 21
384.4512915332717
 31
0.0
  0
SOLID
  5
44A
330
40B
100
AcDbEntity
  8
AM_5
100
AcDbTrace
 10
134.3230163932766
 20
385.284624866605
 30
0.0
 11
134.3230163932766
 21
383.6179581999384
 31
0.0
 12
129.3230163932766
 22
384.4512915332717
 32
0.0
 13
129.3230163932766
 23
384.4512915332717
 33
0.0
  0
SOLID
  5
44B
330
40B
100
AcDbEntity
  8
AM_5
100
AcDbTrace
 10
260.6230163932766
 20
385.284624866605
 30
0.0
 11
260.6230163932766
 21
383.6179581999384
 31
0.0
 12
265.6230163932767
 22
384.4512915332717
 32
0.0
 13
265.6230163932767
 23
384.4512915332717
 33
0.0
  0
MTEXT
  5
44C
330
40B
100
AcDbEntity
  8
AM_5
 62
     2
100
AcDbMText
 10
197.4730163932766
 20
390.9512915332717
 30
0.0
 40
7.0
 41
0.0
 71
     5
 72
     1
  1
%%c136
 73
     1
 44
1.0
1001
ACAD
1000
MTEXTBEGIN
1070
    73
1070
     1
1070
    44
1040
1.0
1070
    74
1070
     0
1000
MTEXTEND
  0
POINT
  5
44D
330
40B
100
AcDbEntity
  8
DEFPOINTS
 62
     0
100
AcDbPoint
 10
129.3230163932766
 20
361.1670445829324
 30
0.0
  0
POINT
  5
44E
330
40B
100
AcDbEntity
  8
DEFPOINTS
 62
     0
100
AcDbPoint
 10
265.6230163932767
 20
361.1670445829324
 30
0.0
  0
POINT
  5
44F
330
40B
100
AcDbEntity
  8
DEFPOINTS
 62
     0
100
AcDbPoint
 10
265.6230163932767
 20
384.4512915332717
 30
0.0
  0
ENDBLK
  5
416
330
40B
100
AcDbEntity
  8
0
100
AcDbBlockEnd
  0
BLOCK
  5
421
330
417
100
AcDbEntity
  8
0
100
AcDbBlockBegin
  2
*D8
 70
     1
 10
0.0
 20
0.0
 30
0.0
  3
*D8
  1

  0
LINE
  5
450
330
417
100
AcDbEntity
  8
AM_5
100
AcDbLine
 10
142.613379701574
 20
212.4170445829325
 30
0.0
 11
90.37499898293654
 21
212.4170445829325
 31
0.0
  0
LINE
  5
451
330
417
100
AcDbEntity
  8
AM_5
100
AcDbLine
 10
129.2693849572641
 20
363.0170445829325
 30
0.0
 11
90.37499898293658
 21
363.0170445829325
 31
0.0
  0
LINE
  5
452
330
417
100
AcDbEntity
  8
AM_5
100
AcDbLine
 10
92.37499898293654
 20
217.4170445829325
 30
0.0
 11
92.37499898293659
 21
358.0170445829325
 31
0.0
  0
SOLID
  5
453
330
417
100
AcDbEntity
  8
AM_5
100
AcDbTrace
 10
91.54166564960322
 20
217.4170445829325
 30
0.0
 11
93.20833231626988
 21
217.4170445829325
 31
0.0
 12
92.37499898293654
 22
212.4170445829325
 32
0.0
 13
92.37499898293654
 23
212.4170445829325
 33
0.0
  0
SOLID
  5
454
330
417
100
AcDbEntity
  8
AM_5
100
AcDbTrace
 10
91.54166564960325
 20
358.0170445829325
 30
0.0
 11
93.20833231626991
 21
358.0170445829325
 31
0.0
 12
92.37499898293659
 22
363.0170445829325
 32
0.0
 13
92.37499898293659
 23
363.0170445829325
 33
0.0
  0
MTEXT
  5
455
330
417
100
AcDbEntity
  8
AM_5
 62
     2
100
AcDbMText
 10
85.87499898293652
 20
288.2784904396625
 30
0.0
 40
7.0
 41
0.0
 71
     5
 72
     1
  1
150
 11
0.0000000000000001
 21
1.0
 31
0.0
 73
     1
 44
1.0
1001
ACAD
1000
MTEXTBEGIN
1070
    73
1070
     1
1070
    44
1040
1.0
1070
    74
1070
     0
1000
MTEXTEND
  0
POINT
  5
456
330
417
100
AcDbEntity
  8
DEFPOINTS
 62
     0
100
AcDbPoint
 10
144.613379701574
 20
212.4170445829325
 30
0.0
  0
POINT
  5
457
330
417
100
AcDbEntity
  8
DEFPOINTS
 62
     0
100
AcDbPoint
 10
131.2693849572641
 20
363.0170445829325
 30
0.0
  0
POINT
  5
458
330
417
100
AcDbEntity
  8
DEFPOINTS
 62
     0
100
AcDbPoint
 10
92.37499898293659
 20
363.0170445829325
 30
0.0
  0
ENDBLK
  5
422
330
417
100
AcDbEntity
  8
0
100
AcDbBlockEnd
  0
BLOCK
  5
491
330
472
100
AcDbEntity
  8
0
100
AcDbBlockBegin
  2
GENPOS15
 70
     2
 10
0.0
 20
0.0
 30
0.0
  3
GENPOS15
  1

  0
ATTDEF
  5
473
330
472
100
AcDbEntity
  8
0
 62
     7
100
AcDbText
 10
-0.25
 20
-0.5
 30
0.0
 40
1.0
  1
1
 72
     1
 11
0.0
 21
0.0
 31
0.0
100
AcDbAttributeDefinition
  3
Positionsnummer
  2
1GENPOS
 70
     0
 74
     2
1001
GENIUS_GENTRA_14
1002
{
1070
     3
1000
GENTRAPR,%s,(GENMSG gendwg 31)
1000
Positionsnummer
1000
D
1070
     0
1002
}
  0
ATTDEF
  5
474
330
472
100
AcDbEntity
  8
0
 62
     0
100
AcDbText
 10
0.0
 20
-1.5
 30
0.0
 40
1.0
  1
1
100
AcDbAttributeDefinition
  3
Menge
  2
2GENPOS
 70
     1
1001
GENIUS_GENTRA_14
1002
{
1070
     3
1000
GENTRAPR,%s,(GENMSG gendwg 32)
1000
Menge
1000
D
1070
     0
1002
}
  0
ATTDEF
  5
475
330
472
100
AcDbEntity
  8
0
 62
     0
100
AcDbText
 10
0.0
 20
-3.0
 30
0.0
 40
1.0
  1

100
AcDbAttributeDefinition
  3
St³cklisten-Name
  2
3GENPOS
 70
     1
1001
GENIUS_GENTRA_14
1002
{
1070
     3
1000
GENTRAPR,%s,(GENMSG gendwg 33)
1000
St³cklisten-Name
1000
D
1070
     0
1002
}
  0
ATTDEF
  5
476
330
472
100
AcDbEntity
  8
0
 62
     0
100
AcDbText
 10
0.0
 20
-4.5
 30
0.0
 40
1.0
  1

100
AcDbAttributeDefinition
  3
St³cklisten-Pfad
  2
4GENPOS
 70
     1
1001
GENIUS_GENTRA_14
1002
{
1070
     3
1000
GENTRAPR,%s,(GENMSG gendwg 34)
1000
St³cklisten-Pfad
1000
D
1070
     0
1002
}
  0
ATTDEF
  5
477
330
472
100
AcDbEntity
  8
0
 62
     0
100
AcDbText
 10
0.0
 20
-6.0
 30
0.0
 40
1.0
  1

100
AcDbAttributeDefinition
  3
Beschreibung 1
  2
5GENPOS
 70
     1
1001
GENIUS_GENTRA_14
1002
{
1070
     3
1000
GENTRAPR,%s,(GENMSG gendwg 35)
1000
Beschreibung 1
1000
D
1070
     0
1002
}
  0
ATTDEF
  5
478
330
472
100
AcDbEntity
  8
0
 62
     0
100
AcDbText
 10
0.0
 20
-7.5
 30
0.0
 40
1.0
  1

100
AcDbAttributeDefinition
  3
Beschreibung 2
  2
6GENPOS
 70
     1
1001
GENIUS_GENTRA_14
1002
{
1070
     3
1000
GENTRAPR,%s,(GENMSG gendwg 36)
1000
Beschreibung 2
1000
D
1070
     0
1002
}
  0
ATTDEF
  5
479
330
472
100
AcDbEntity
  8
0
 62
     0
100
AcDbText
 10
0.0
 20
-9.0
 30
0.0
 40
1.0
  1

100
AcDbAttributeDefinition
  3
Norm/Lieferant 1
  2
7GENPOS
 70
     1
1001
GENIUS_GENTRA_14
1002
{
1070
     3
1000
GENTRAPR,%s,(GENMSG gendwg 37)
1000
Norm/Lieferant 1
1000
D
1070
     0
1002
}
  0
ATTDEF
  5
47A
330
472
100
AcDbEntity
  8
0
 62
     0
100
AcDbText
 10
0.0
 20
-10.5
 30
0.0
 40
1.0
  1

100
AcDbAttributeDefinition
  3
Norm/Lieferant 2
  2
8GENPOS
 70
     1
1001
GENIUS_GENTRA_14
1002
{
1070
     3
1000
GENTRAPR,%s,(GENMSG gendwg 38)
1000
Norm/Lieferant 2
1000
D
1070
     0
1002
}
  0
ATTDEF
  5
47B
330
472
100
AcDbEntity
  8
0
 62
     0
100
AcDbText
 10
0.0
 20
-12.0
 30
0.0
 40
1.0
  1

100
AcDbAttributeDefinition
  3
Material 1
  2
9GENPOS
 70
     1
1001
GENIUS_GENTRA_14
1002
{
1070
     3
1000
GENTRAPR,%s,(GENMSG gendwg 39)
1000
Material 1
1000
D
1070
     0
1002
}
  0
ATTDEF
  5
47C
330
472
100
AcDbEntity
  8
0
 62
     0
100
AcDbText
 10
0.0
 20
-13.5
 30
0.0
 40
1.0
  1

100
AcDbAttributeDefinition
  3
Material 2
  2
10GENPOS
 70
     1
1001
GENIUS_GENTRA_14
1002
{
1070
     3
1000
GENTRAPR,%s,(GENMSG gendwg 40)
1000
Material 2
1000
D
1070
     0
1002
}
  0
ATTDEF
  5
47D
330
472
100
AcDbEntity
  8
0
 62
     0
100
AcDbText
 10
0.0
 20
-15.0
 30
0.0
 40
1.0
  1

100
AcDbAttributeDefinition
  3
Identnummer
  2
11GENPOS
 70
     1
1001
GENIUS_GENTRA_14
1002
{
1070
     3
1000
GENTRAPR,%s,(GENMSG gendwg 41)
1000
Identnummer
1000
D
1070
     0
1002
}
  0
ATTDEF
  5
47E
330
472
100
AcDbEntity
  8
0
 62
     0
100
AcDbText
 10
0.0
 20
-16.5
 30
0.0
 40
1.0
  1

100
AcDbAttributeDefinition
  3
Gewicht
  2
12GENPOS
 70
     1
1001
GENIUS_GENTRA_14
1002
{
1070
     3
1000
GENTRAPR,%s,(GENMSG gendwg 42)
1000
Gewicht
1000
D
1070
     0
1002
}
  0
ATTDEF
  5
47F
330
472
100
AcDbEntity
  8
0
 62
     0
100
AcDbText
 10
0.0
 20
-18.0
 30
0.0
 40
1.0
  1

100
AcDbAttributeDefinition
  3
Preis
  2
13GENPOS
 70
     1
1001
GENIUS_GENTRA_14
1002
{
1070
     3
1000
GENTRAPR,%s,(GENMSG gendwg 43)
1000
Preis
1000
D
1070
     0
1002
}
  0
ATTDEF
  5
480
330
472
100
AcDbEntity
  8
0
 62
     0
100
AcDbText
 10
0.0
 20
-19.5
 30
0.0
 40
1.0
  1

100
AcDbAttributeDefinition
  3
Abmessungen
  2
14GENPOS
 70
     1
1001
GENIUS_GENTRA_14
1002
{
1070
     3
1000
GENTRAPR,%s,(GENMSG gendwg 44)
1000
Abmessungen
1000
D
1070
     0
1002
}
  0
ATTDEF
  5
481
330
472
100
AcDbEntity
  8
0
 62
     0
100
AcDbText
 10
0.0
 20
-21.0
 30
0.0
 40
1.0
  1

100
AcDbAttributeDefinition
  3
User 1
  2
15GENPOS
 70
     1
1001
GENIUS_GENTRA_14
1002
{
1070
     3
1000
GENTRAPR,%s,(GENMSG gendwg 45)
1000
User 1
1000
D
1070
     0
1002
}
  0
ATTDEF
  5
482
330
472
100
AcDbEntity
  8
0
 62
     0
100
AcDbText
 10
0.0
 20
-22.5
 30
0.0
 40
1.0
  1

100
AcDbAttributeDefinition
  3
User 2
  2
16GENPOS
 70
     1
1001
GENIUS_GENTRA_14
1002
{
1070
     3
1000
GENTRAPR,%s,(GENMSG gendwg 46)
1000
User 2
1000
D
1070
     0
1002
}
  0
ATTDEF
  5
483
330
472
100
AcDbEntity
  8
0
 62
     0
100
AcDbText
 10
0.0
 20
-24.0
 30
0.0
 40
1.0
  1

100
AcDbAttributeDefinition
  3
User 3
  2
17GENPOS
 70
     1
1001
GENIUS_GENTRA_14
1002
{
1070
     3
1000
GENTRAPR,%s,(GENMSG gendwg 47)
1000
User 3
1000
D
1070
     0
1002
}
  0
ATTDEF
  5
484
330
472
100
AcDbEntity
  8
0
 62
     0
100
AcDbText
 10
0.0
 20
-25.5
 30
0.0
 40
1.0
  1

100
AcDbAttributeDefinition
  3
User 4
  2
18GENPOS
 70
     1
1001
GENIUS_GENTRA_14
1002
{
1070
     3
1000
GENTRAPR,%s,(GENMSG gendwg 48)
1000
User 4
1000
D
1070
     0
1002
}
  0
ATTDEF
  5
485
330
472
100
AcDbEntity
  8
0
 62
     0
100
AcDbText
 10
0.0
 20
-27.0
 30
0.0
 40
1.0
  1

100
AcDbAttributeDefinition
  3
User 5
  2
19GENPOS
 70
     1
1001
GENIUS_GENTRA_14
1002
{
1070
     3
1000
GENTRAPR,%s,(GENMSG gendwg 99)
1000
User 5
1000
D
1070
     0
1002
}
  0
ATTDEF
  5
486
330
472
100
AcDbEntity
  8
0
 62
     0
100
AcDbText
 10
0.0
 20
-28.5
 30
0.0
 40
1.0
  1

100
AcDbAttributeDefinition
  3
User 6
  2
20GENPOS
 70
     1
1001
GENIUS_GENTRA_14
1002
{
1070
     3
1000
GENTRAPR,%s,(GENMSG gendwg 100)
1000
User 6
1000
D
1070
     0
1002
}
  0
ATTDEF
  5
487
330
472
100
AcDbEntity
  8
0
 62
     0
100
AcDbText
 10
0.0
 20
-30.0
 30
0.0
 40
1.0
  1

100
AcDbAttributeDefinition
  3
User 7
  2
21GENPOS
 70
     1
1001
GENIUS_GENTRA_14
1002
{
1070
     3
1000
GENTRAPR,%s,(GENMSG gendwg 101)
1000
User 7
1000
D
1070
     0
1002
}
  0
ATTDEF
  5
488
330
472
100
AcDbEntity
  8
0
 62
     0
100
AcDbText
 10
0.0
 20
-31.5
 30
0.0
 40
1.0
  1

100
AcDbAttributeDefinition
  3
User 8
  2
22GENPOS
 70
     1
1001
GENIUS_GENTRA_14
1002
{
1070
     3
1000
GENTRAPR,%s,(GENMSG gendwg 102)
1000
User 8
1000
D
1070
     0
1002
}
  0
ATTDEF
  5
489
330
472
100
AcDbEntity
  8
0
 62
     0
100
AcDbText
 10
0.0
 20
-33.0
 30
0.0
 40
1.0
  1

100
AcDbAttributeDefinition
  3
Filter
  2
23GENPOS
 70
     1
1001
GENIUS_GENTRA_14
1002
{
1070
     3
1000
GENTRAPR,%s,(GENMSG gendwg 30)
1000
Filter
1000
D
1070
     0
1002
}
  0
ATTDEF
  5
48A
330
472
100
AcDbEntity
  8
0
 62
     0
100
AcDbText
 10
0.0
 20
-34.5
 30
0.0
 40
1.0
  1

100
AcDbAttributeDefinition
  3
Bemerkung
  2
24GENPOS
 70
     1
1001
GENIUS_GENTRA_14
1002
{
1070
     3
1000
GENTRAPR,%s,(GENMSG gendwg 104)
1000
Bemerkung
1000
D
1070
     0
1002
}
  0
ATTDEF
  5
48B
330
472
100
AcDbEntity
  8
0
 62
     0
100
AcDbText
 10
0.0
 20
-36.0
 30
0.0
 40
1.0
  1

100
AcDbAttributeDefinition
  3
Herstellerschl³ssel
  2
25GENPOS
 70
     1
1001
GENIUS_GENTRA_14
1002
{
1070
     3
1000
GENTRAPR,%s,(GENMSG gendwg 105)
1000
Herstellerschl³ssel
1000
D
1070
     0
1002
}
  0
ATTDEF
  5
48C
330
472
100
AcDbEntity
  8
0
 62
     0
100
AcDbText
 10
0.0
 20
-37.5
 30
0.0
 40
1.0
  1

100
AcDbAttributeDefinition
  3
Baugruppennummer
  2
26GENPOS
 70
     1
1001
GENIUS_GENTRA_14
1002
{
1070
     3
1000
GENTRAPR,%s,(GENMSG gendwg 106)
1000
Baugruppennummer
1000
D
1070
     0
1002
}
  0
ATTDEF
  5
48D
330
472
100
AcDbEntity
  8
0
 62
     0
100
AcDbText
 10
0.0
 20
-39.0
 30
0.0
 40
1.0
  1

100
AcDbAttributeDefinition
  3
Zeichnungsverwaltungs ID
  2
27GENPOS
 70
     1
1001
GENIUS_GENTRA_14
1002
{
1070
     3
1000
GENTRAPR,%s,(GENMSG gendwg 109)
1000
Zeichnungsverwaltungs ID
1000
D
1070
     0
1002
}
  0
ATTDEF
  5
48E
330
472
100
AcDbEntity
  8
0
 62
     0
100
AcDbText
 10
0.0
 20
-40.49999999999999
 30
0.0
 40
1.0
  1

100
AcDbAttributeDefinition
  3
Genius Normteile ID
  2
0GENPOS
 70
     1
1001
GENIUS_GENTRA_14
1002
{
1070
     3
1000
GENTRAPR,%s,(GENMSG gendwg 103)
1000
Genius Normteile ID
1000
D
1070
     0
1002
}
  0
ATTDEF
  5
48F
330
472
100
AcDbEntity
  8
0
 62
     0
100
AcDbText
 10
0.0
 20
-42.0
 30
0.0
 40
1.0
  1

100
AcDbAttributeDefinition
  3
1. sichtbare Attribut
  2
GENPOS14_VISIBLE1
 70
     0
1001
GENIUS_FIRSTVISTXT_14
1070
     1
1001
GENIUS_GENTRA_14
1002
{
1070
     3
1000
GENTRAPR,%s,(GENMSG gendwg 107)
1000
1. sichtbare Attribut
1000
D
1070
     0
1002
}
  0
ATTDEF
  5
490
330
472
100
AcDbEntity
  8
0
 62
     0
100
AcDbText
 10
0.0
 20
-43.5
 30
0.0
 40
1.0
  1

100
AcDbAttributeDefinition
  3
2. sichtbare Attribut
  2
GENPOS14_VISIBLE2
 70
     0
1001
GENIUS_SECONDVISTXT_14
1070
     1
1001
GENIUS_GENTRA_14
1002
{
1070
     3
1000
GENTRAPR,%s,(GENMSG gendwg 108)
1000
2. sichtbare Attribut
1000
D
1070
     0
1002
}
  0
ENDBLK
  5
492
330
472
100
AcDbEntity
  8
0
100
AcDbBlockEnd
  0
BLOCK
  5
62B
330
616
100
AcDbEntity
  8
0
100
AcDbBlockBegin
  2
kopf
 70
     0
 10
0.0
 20
0.0
 30
0.0
  3
kopf
  1

  0
TEXT
  5
617
330
616
100
AcDbEntity
  8
DUENN
100
AcDbText
 10
-115.8278362637433
 20
1.469236000906477
 30
0.0
 40
2.5
  1
Benennung 2
 41
0.85
  7
DIN
100
AcDbText
  0
TEXT
  5
618
330
616
100
AcDbEntity
  8
DUENN
100
AcDbText
 10
-160.9099042416628
 20
1.469236000906491
 30
0.0
 40
2.5
  1
Benennung 1
 41
0.85
  7
DIN
100
AcDbText
  0
TEXT
  5
619
330
616
100
AcDbEntity
  8
DUENN
100
AcDbText
 10
-41.37245379022743
 20
1.469236000906491
 30
0.0
 40
2.5
  1
Artikelnummer
 41
0.85
  7
DIN
100
AcDbText
  0
TEXT
  5
61A
330
616
100
AcDbEntity
  8
DUENN
100
AcDbText
 10
-61.57435199878233
 20
1.469236000906491
 30
0.0
 40
2.5
  1
Maß 2
 41
0.75
  7
DIN
100
AcDbText
  0
TEXT
  5
61B
330
616
100
AcDbEntity
  8
DUENN
100
AcDbText
 10
-71.40216769680859
 20
1.469236000906491
 30
0.0
 40
2.5
  1
Maß 1
 41
0.75
  7
DIN
100
AcDbText
  0
TEXT
  5
61C
330
616
100
AcDbEntity
  8
DUENN
100
AcDbText
 10
-171.6943052273619
 20
1.469236000906491
 30
0.0
 40
2.5
  1
Anz.
 41
0.85
  7
DIN
100
AcDbText
  0
TEXT
  5
61D
330
616
100
AcDbEntity
  8
DUENN
100
AcDbText
 10
-181.574351998791
 20
1.469236000906406
 30
0.0
 40
2.5
  1
Pos.
 41
0.85
  7
DIN
100
AcDbText
  0
LINE
  5
61E
330
616
100
AcDbEntity
  8
DUENN
100
AcDbLine
 10
-182.1999999999999
 20
0.0
 30
0.0
 11
-182.2
 21
5.0
 31
0.0
  0
LINE
  5
61F
330
616
100
AcDbEntity
  8
DUENN
100
AcDbLine
 10
-172.1999999999974
 20
0.0
 30
0.0
 11
-172.1999999999974
 21
5.0
 31
0.0
  0
LINE
  5
620
330
616
100
AcDbEntity
  8
DUENN
100
AcDbLine
 10
-117.1999999999912
 20
5.0
 30
0.0
 11
-117.1999999999912
 21
0.0
 31
0.0
  0
LINE
  5
621
330
616
100
AcDbEntity
  8
DUENN
100
AcDbLine
 10
-72.19999999999117
 20
0.0000000000000568
 30
0.0
 11
-72.19999999999117
 21
5.0
 31
0.0
  0
LINE
  5
622
330
616
100
AcDbEntity
  8
DUENN
100
AcDbLine
 10
-62.19999999999117
 20
0.0000000000000568
 30
0.0
 11
-62.19999999999117
 21
5.0
 31
0.0
  0
LINE
  5
623
330
616
100
AcDbEntity
  8
DUENN
100
AcDbLine
 10
-42.19999999999998
 20
0.0000000000000568
 30
0.0
 11
-42.19999999999998
 21
5.0
 31
0.0
  0
LINE
  5
624
330
616
100
AcDbEntity
  8
DUENN
100
AcDbLine
 10
-162.1999999999943
 20
0.0000000000000568
 30
0.0
 11
-162.1999999999943
 21
5.0
 31
0.0
  0
LINE
  5
625
330
616
100
AcDbEntity
  8
DUENN
100
AcDbLine
 10
0.0
 20
0.0
 30
0.0
 11
0.0000000000000568
 21
5.0
 31
0.0
  0
LINE
  5
626
330
616
100
AcDbEntity
  8
DUENN
100
AcDbLine
 10
-52.19999999999117
 20
0.0000000000000568
 30
0.0
 11
-52.19999999999117
 21
5.0
 31
0.0
  0
TEXT
  5
627
330
616
100
AcDbEntity
  8
DUENN
100
AcDbText
 10
-51.20316616658545
 20
1.469236000906491
 30
0.0
 40
2.5
  1
Norm
 41
0.75
  7
DIN
100
AcDbText
  0
LINE
  5
628
330
616
100
AcDbEntity
  8
DUENN
100
AcDbLine
 10
-182.1999999999999
 20
0.0000000000000142
 30
0.0
 11
0.0
 21
0.0
 31
0.0
  0
LINE
  5
629
330
616
100
AcDbEntity
  8
DUENN
100
AcDbLine
 10
-182.2
 20
5.000000000000014
 30
0.0
 11
-0.0000000000000568
 21
5.0
 31
0.0
  0
ENDBLK
  5
62C
330
616
100
AcDbEntity
  8
0
100
AcDbBlockEnd
  0
BLOCK
  5
661
330
64D
100
AcDbEntity
  8
0
100
AcDbBlockBegin
  2
zeile
 70
     2
 10
0.0
 20
0.0
 30
0.0
  3
zeile
  1

  0
LINE
  5
64E
330
64D
100
AcDbEntity
  8
0
100
AcDbLine
 10
-182.1999999999999
 20
0.0
 30
0.0
 11
-182.1999999999999
 21
4.973624483525355
 31
0.0
  0
LINE
  5
64F
330
64D
100
AcDbEntity
  8
5
100
AcDbLine
 10
-172.200000000003
 20
0.0
 30
0.0
 11
-172.200000000003
 21
4.973624483525355
 31
0.0
  0
LINE
  5
650
330
64D
100
AcDbEntity
  8
5
100
AcDbLine
 10
-72.19999999999356
 20
0.0000000000000284
 30
0.0
 11
-72.19999999999356
 21
4.973624483525327
 31
0.0
  0
LINE
  5
651
330
64D
100
AcDbEntity
  8
5
100
AcDbLine
 10
-62.19999999999356
 20
0.0000000000000284
 30
0.0
 11
-62.19999999999356
 21
4.973624483525327
 31
0.0
  0
LINE
  5
652
330
64D
100
AcDbEntity
  8
5
100
AcDbLine
 10
-42.19999999999993
 20
0.0000000000000568
 30
0.0
 11
-42.19999999999993
 21
4.973624483525355
 31
0.0
  0
LINE
  5
653
330
64D
100
AcDbEntity
  8
5
100
AcDbLine
 10
-162.1999999999998
 20
0.0000000000000426
 30
0.0
 11
-162.1999999999998
 21
4.973624483525341
 31
0.0
  0
LINE
  5
654
330
64D
100
AcDbEntity
  8
0
100
AcDbLine
 10
0.0
 20
0.0
 30
0.0
 11
0.0000000000000568
 21
4.973624483525355
 31
0.0
  0
ATTDEF
  5
655
330
64D
100
AcDbEntity
  8
5
100
AcDbText
 10
-116.1316176661771
 20
0.9291372016085119
 30
0.0
 40
2.5
  1

 41
0.85
  7
DIN
100
AcDbAttributeDefinition
  3
Benennung2
  2
ST4
 70
     0
  0
ATTDEF
  5
656
330
64D
100
AcDbEntity
  8
5
100
AcDbText
 10
-160.7629658347415
 20
0.969236000906406
 30
0.0
 40
2.5
  1
-
 41
0.85
  7
DIN
100
AcDbAttributeDefinition
  3
Benennung1
  2
ST3
 70
     0
  0
ATTDEF
  5
657
330
64D
100
AcDbEntity
  8
5
100
AcDbText
 10
-41.57435199879103
 20
0.969236000906406
 30
0.0
 40
2.5
  1
-
 41
0.85
  7
DIN
100
AcDbAttributeDefinition
  3
Art.-Nr.
  2
ST8
 70
     0
  0
ATTDEF
  5
658
330
64D
100
AcDbEntity
  8
5
100
AcDbText
 10
-61.55057943693731
 20
0.9692360009063776
 30
0.0
 40
2.5
  1
-
 41
0.85
  7
DIN
100
AcDbAttributeDefinition
  3
Maß2
  2
ST6
 70
     0
  0
ATTDEF
  5
659
330
64D
100
AcDbEntity
  8
5
100
AcDbText
 10
-71.57435199878512
 20
0.9692360009063776
 30
0.0
 40
2.5
  1
-
 41
0.85
  7
DIN
100
AcDbAttributeDefinition
  3
Maß1
  2
ST5
 70
     0
  0
ATTDEF
  5
65A
330
64D
100
AcDbEntity
  8
5
100
AcDbText
 10
-171.0097820841736
 20
0.969236000906406
 30
0.0
 40
2.5
  1
1
 41
0.85
  7
DIN
100
AcDbAttributeDefinition
  3
Menge pro Einheit:
  2
ST2
 70
     0
  0
ATTDEF
  5
65B
330
64D
100
AcDbEntity
  8
5
100
AcDbText
 10
-181.5743519987911
 20
0.969236000906406
 30
0.0
 40
2.5
  1
1
 41
0.85
  7
DIN
100
AcDbAttributeDefinition
  3
Positionnummer:
  2
ST1
 70
     0
  0
ATTDEF
  5
65C
330
64D
100
AcDbEntity
  8
5
100
AcDbText
 10
-51.57435199878467
 20
0.9692360009063776
 30
0.0
 40
2.5
  1
-
 41
0.85
  7
DIN
100
AcDbAttributeDefinition
  3
Norm
  2
ST7
 70
     0
  0
LINE
  5
65D
330
64D
100
AcDbEntity
  8
5
100
AcDbLine
 10
-52.19999999999356
 20
0.0000000000000284
 30
0.0
 11
-52.19999999999356
 21
4.973624483525327
 31
0.0
  0
LINE
  5
65E
330
64D
100
AcDbEntity
  8
5
100
AcDbLine
 10
0.0
 20
4.973624483525355
 30
0.0
 11
-182.1999999999999
 21
4.97362448352537
 31
0.0
  0
LINE
  5
65F
330
64D
100
AcDbEntity
  8
5
100
AcDbLine
 10
-117.1999999999967
 20
0.0000000000000426
 30
0.0
 11
-117.1999999999967
 21
4.973624483525341
 31
0.0
  0
ENDBLK
  5
662
330
64D
100
AcDbEntity
  8
0
100
AcDbBlockEnd
  0
ENDSEC
  0
SECTION
  2
ENTITIES
  0
LINE
  5
34E
330
1F
100
AcDbEntity
  8
0
  6
Continuous
 62
     7
100
AcDbLine
 10
253.7006482861766
 20
76.13729832431518
 30
0.0
 11
251.1334409253766
 21
76.83375102701517
 31
0.0
  0
LINE
  5
34F
330
1F
100
AcDbEntity
  8
0
  6
Continuous
 62
     7
100
AcDbLine
 10
143.8125918610765
 20
105.9486158918152
 30
0.0
 11
141.2453845002765
 21
106.6450685945152
 31
0.0
  0
LINE
  5
350
330
1F
100
AcDbEntity
  8
0
  6
Continuous
 62
     7
100
AcDbLine
 10
141.2453845002765
 20
76.13729832431518
 30
0.0
 11
143.8125918610765
 21
76.8337510270152
 31
0.0
  0
LINE
  5
351
330
1F
100
AcDbEntity
  8
0
  6
Continuous
 62
     7
100
AcDbLine
 10
251.1334409253766
 20
105.9486158918152
 30
0.0
 11
253.7006482861766
 21
106.6450685945152
 31
0.0
  0
LINE
  5
352
330
1F
100
AcDbEntity
  8
0
  6
Continuous
 62
     7
100
AcDbLine
 10
259.1127802359766
 20
212.4170445829325
 30
0.0
 11
135.8332525504766
 21
212.4170445829325
 31
0.0
  0
LINE
  5
353
330
1F
100
AcDbEntity
  8
0
  6
Continuous
 62
     7
100
AcDbLine
 10
134.9730163932766
 20
215.4170445829325
 30
0.0
 11
135.8332525504766
 21
212.4170445829325
 31
0.0
  0
LINE
  5
354
330
1F
100
AcDbEntity
  8
0
  6
Continuous
 62
     7
100
AcDbLine
 10
259.9730163932766
 20
215.4170445829325
 30
0.0
 11
259.1127802359766
 21
212.4170445829325
 31
0.0
  0
LINE
  5
355
330
1F
100
AcDbEntity
  8
0
  6
Continuous
 62
     7
100
AcDbLine
 10
265.6230163932766
 20
362.0170445829324
 30
0.0
 11
265.6230163932766
 21
360.3170445829324
 31
0.0
  0
LINE
  5
356
330
1F
100
AcDbEntity
  8
0
  6
Continuous
 62
     7
100
AcDbLine
 10
265.6230163932766
 20
359.5233191896324
 30
0.0
 11
265.6230163932766
 21
359.0170445829325
 31
0.0
  0
LINE
  5
357
330
1F
100
AcDbEntity
  8
0
  6
Continuous
 62
     7
100
AcDbLine
 10
265.0230163932767
 20
361.9170445829325
 30
0.0
 11
265.0230163932767
 21
360.3170445829324
 31
0.0
  0
LINE
  5
358
330
1F
100
AcDbEntity
  8
0
  6
Continuous
 62
     7
100
AcDbLine
 10
265.0230163932767
 20
359.1046090176325
 30
0.0
 11
265.0230163932767
 21
359.0170445829325
 31
0.0
  0
LINE
  5
359
330
1F
100
AcDbEntity
  8
0
  6
Continuous
 62
     7
100
AcDbLine
 10
264.9730163932766
 20
361.9170445829325
 30
0.0
 11
264.9730163932766
 21
360.3170445829324
 31
0.0
  0
LINE
  5
35A
330
1F
100
AcDbEntity
  8
0
  6
Continuous
 62
     7
100
AcDbLine
 10
264.9503273947766
 20
360.3170445829324
 30
0.0
 11
264.9503273947766
 21
360.0170445829324
 31
0.0
  0
LINE
  5
35B
330
1F
100
AcDbEntity
  8
0
  6
Continuous
 62
     7
100
AcDbLine
 10
264.9503273947766
 20
359.1518423710324
 30
0.0
 11
264.9503273947766
 21
354.8170445829324
 31
0.0
  0
LINE
  5
35C
330
1F
100
AcDbEntity
  8
0
  6
Continuous
 62
     7
100
AcDbLine
 10
263.8730163932766
 20
354.8170445829324
 30
0.0
 11
263.8730163932766
 21
360.3170445829324
 31
0.0
  0
LINE
  5
35D
330
1F
100
AcDbEntity
  8
0
  6
Continuous
 62
     7
100
AcDbLine
 10
261.9730163932766
 20
361.9170445829325
 30
0.0
 11
261.9730163932766
 21
357.8170445829325
 31
0.0
  0
LINE
  5
35E
330
1F
100
AcDbEntity
  8
0
  6
Continuous
 62
     7
100
AcDbLine
 10
255.7303104198766
 20
354.8170445829324
 30
0.0
 11
256.9730163932766
 21
212.4170445829325
 31
0.0
  0
LINE
  5
35F
330
1F
100
AcDbEntity
  8
0
  6
Continuous
 62
     7
100
AcDbLine
 10
261.9230163932766
 20
361.9170445829325
 30
0.0
 11
261.9230163932766
 21
359.0170445829325
 31
0.0
  0
LINE
  5
360
330
1F
100
AcDbEntity
  8
0
  6
Continuous
 62
     7
100
AcDbLine
 10
261.3230163932766
 20
362.0170445829324
 30
0.0
 11
261.3230163932766
 21
359.0170445829325
 31
0.0
  0
LINE
  5
361
330
1F
100
AcDbEntity
  8
0
  6
Continuous
 62
     7
100
AcDbLine
 10
259.9730163932766
 20
354.8170445829324
 30
0.0
 11
259.9730163932766
 21
342.4670445829325
 31
0.0
  0
LINE
  5
362
330
1F
100
AcDbEntity
  8
0
  6
Continuous
 62
     7
100
AcDbLine
 10
259.9730163932766
 20
342.3670445829325
 30
0.0
 11
259.9730163932766
 21
332.4670445829325
 31
0.0
  0
LINE
  5
363
330
1F
100
AcDbEntity
  8
0
  6
Continuous
 62
     7
100
AcDbLine
 10
259.9730163932766
 20
332.3670445829325
 30
0.0
 11
259.9730163932766
 21
322.4670445829325
 31
0.0
  0
LINE
  5
364
330
1F
100
AcDbEntity
  8
0
  6
Continuous
 62
     7
100
AcDbLine
 10
259.9730163932766
 20
322.3670445829325
 30
0.0
 11
259.9730163932766
 21
312.4670445829325
 31
0.0
  0
LINE
  5
365
330
1F
100
AcDbEntity
  8
0
  6
Continuous
 62
     7
100
AcDbLine
 10
259.9730163932766
 20
312.3670445829325
 30
0.0
 11
259.9730163932766
 21
302.4670445829325
 31
0.0
  0
LINE
  5
366
330
1F
100
AcDbEntity
  8
0
  6
Continuous
 62
     7
100
AcDbLine
 10
259.9730163932766
 20
302.3670445829325
 30
0.0
 11
259.9730163932766
 21
292.4670445829325
 31
0.0
  0
LINE
  5
367
330
1F
100
AcDbEntity
  8
0
  6
Continuous
 62
     7
100
AcDbLine
 10
259.9730163932766
 20
292.3670445829325
 30
0.0
 11
259.9730163932766
 21
282.4670445829325
 31
0.0
  0
LINE
  5
368
330
1F
100
AcDbEntity
  8
0
  6
Continuous
 62
     7
100
AcDbLine
 10
259.9730163932766
 20
282.3670445829325
 30
0.0
 11
259.9730163932766
 21
272.4670445829325
 31
0.0
  0
LINE
  5
369
330
1F
100
AcDbEntity
  8
0
  6
Continuous
 62
     7
100
AcDbLine
 10
259.9730163932766
 20
272.3670445829325
 30
0.0
 11
259.9730163932766
 21
262.4670445829325
 31
0.0
  0
LINE
  5
36A
330
1F
100
AcDbEntity
  8
0
  6
Continuous
 62
     7
100
AcDbLine
 10
259.9730163932766
 20
262.3670445829325
 30
0.0
 11
259.9730163932766
 21
252.4670445829325
 31
0.0
  0
LINE
  5
36B
330
1F
100
AcDbEntity
  8
0
  6
Continuous
 62
     7
100
AcDbLine
 10
259.9730163932766
 20
252.3670445829325
 30
0.0
 11
259.9730163932766
 21
242.4670445829325
 31
0.0
  0
LINE
  5
36C
330
1F
100
AcDbEntity
  8
0
  6
Continuous
 62
     7
100
AcDbLine
 10
259.9730163932766
 20
242.3670445829325
 30
0.0
 11
259.9730163932766
 21
232.4670445829325
 31
0.0
  0
LINE
  5
36D
330
1F
100
AcDbEntity
  8
0
  6
Continuous
 62
     7
100
AcDbLine
 10
259.9730163932766
 20
232.3670445829325
 30
0.0
 11
259.9730163932766
 21
222.4670445829325
 31
0.0
  0
LINE
  5
36E
330
1F
100
AcDbEntity
  8
0
  6
Continuous
 62
     7
100
AcDbLine
 10
259.9730163932766
 20
215.4170445829325
 30
0.0
 11
259.9730163932766
 21
222.3670445829325
 31
0.0
  0
LINE
  5
36F
330
1F
100
AcDbEntity
  8
0
  6
Continuous
 62
     7
100
AcDbLine
 10
255.7330163932766
 20
357.8170445829325
 30
0.0
 11
255.7330163932766
 21
354.8170445829324
 31
0.0
  0
LINE
  5
370
330
1F
100
AcDbEntity
  8
0
  6
Continuous
 62
     7
100
AcDbLine
 10
253.7006482861766
 20
357.8170445829325
 30
0.0
 11
253.7006482861766
 21
354.8170445829324
 31
0.0
  0
LINE
  5
371
330
1F
100
AcDbEntity
  8
0
  6
Continuous
 62
     7
100
AcDbLine
 10
251.1334409253766
 20
357.8170445829325
 30
0.0
 11
251.1334409253766
 21
354.8170445829324
 31
0.0
  0
LINE
  5
372
330
1F
100
AcDbEntity
  8
0
  6
Continuous
 62
     7
100
AcDbLine
 10
239.0090014998766
 20
354.8170445829324
 30
0.0
 11
239.0090014998766
 21
351.8170445829325
 31
0.0
  0
LINE
  5
373
330
1F
100
AcDbEntity
  8
BEZUGSACHSEN
  6
Continuous
 62
     6
100
AcDbLine
 10
144.4060094113766
 20
351.8170445829325
 30
0.0
 11
144.4060094113766
 21
354.8170445829324
 31
0.0
  0
LINE
  5
374
330
1F
100
AcDbEntity
  8
0
  6
Continuous
 62
     7
100
AcDbLine
 10
143.8125918610766
 20
357.8170445829325
 30
0.0
 11
143.8125918610766
 21
354.8170445829324
 31
0.0
  0
LINE
  5
375
330
1F
100
AcDbEntity
  8
0
  6
Continuous
 62
     7
100
AcDbLine
 10
141.2453845002766
 20
357.8170445829325
 30
0.0
 11
141.2453845002766
 21
354.8170445829324
 31
0.0
  0
LINE
  5
376
330
1F
100
AcDbEntity
  8
BEZUGSACHSEN
  6
Continuous
 62
     6
100
AcDbLine
 10
140.4060094113766
 20
351.8170445829325
 30
0.0
 11
140.4060094113766
 21
354.8170445829324
 31
0.0
  0
LINE
  5
377
330
1F
100
AcDbEntity
  8
BEZUGSACHSEN
  6
Continuous
 62
     9
100
AcDbLine
 10
140.4060094113766
 20
351.8170445829325
 30
0.0
 11
144.4060094113766
 21
351.8170445829325
 31
0.0
  0
LINE
  5
378
330
1F
100
AcDbEntity
  8
0
  6
Continuous
 62
     7
100
AcDbLine
 10
242.7402213655766
 20
351.8170445829325
 30
0.0
 11
239.0090862934766
 21
351.8170445829325
 31
0.0
  0
LINE
  5
379
330
1F
100
AcDbEntity
  8
0
  6
Continuous
 62
     7
100
AcDbLine
 10
131.0730163932766
 20
360.3170445829324
 30
0.0
 11
131.1210141660766
 21
354.8170445829324
 31
0.0
  0
LINE
  5
37A
330
1F
100
AcDbEntity
  8
0
  6
Continuous
 62
     7
100
AcDbLine
 10
139.2130163932766
 20
354.8170445829324
 30
0.0
 11
139.2130163932766
 21
357.8170445829325
 31
0.0
  0
LINE
  5
37B
330
1F
100
AcDbEntity
  8
0
  6
Continuous
 62
     7
100
AcDbLine
 10
134.9730163932766
 20
354.8170445829324
 30
0.0
 11
134.9730163932766
 21
342.4670445829325
 31
0.0
  0
LINE
  5
37C
330
1F
100
AcDbEntity
  8
0
  6
Continuous
 62
     7
100
AcDbLine
 10
134.9730163932766
 20
342.3670445829325
 30
0.0
 11
134.9730163932766
 21
332.4670445829325
 31
0.0
  0
LINE
  5
37D
330
1F
100
AcDbEntity
  8
0
  6
Continuous
 62
     7
100
AcDbLine
 10
134.9730163932766
 20
332.3670445829325
 30
0.0
 11
134.9730163932766
 21
322.4670445829325
 31
0.0
  0
LINE
  5
37E
330
1F
100
AcDbEntity
  8
0
  6
Continuous
 62
     7
100
AcDbLine
 10
134.9730163932766
 20
322.3670445829325
 30
0.0
 11
134.9730163932766
 21
312.4670445829325
 31
0.0
  0
LINE
  5
37F
330
1F
100
AcDbEntity
  8
0
  6
Continuous
 62
     7
100
AcDbLine
 10
134.9730163932766
 20
312.3670445829325
 30
0.0
 11
134.9730163932766
 21
302.4670445829325
 31
0.0
  0
LINE
  5
380
330
1F
100
AcDbEntity
  8
0
  6
Continuous
 62
     7
100
AcDbLine
 10
134.9730163932766
 20
302.3670445829325
 30
0.0
 11
134.9730163932766
 21
292.4670445829325
 31
0.0
  0
LINE
  5
381
330
1F
100
AcDbEntity
  8
0
  6
Continuous
 62
     7
100
AcDbLine
 10
134.9730163932766
 20
292.3670445829325
 30
0.0
 11
134.9730163932766
 21
282.4670445829325
 31
0.0
  0
LINE
  5
382
330
1F
100
AcDbEntity
  8
0
  6
Continuous
 62
     7
100
AcDbLine
 10
134.9730163932766
 20
282.3670445829325
 30
0.0
 11
134.9730163932766
 21
272.4670445829325
 31
0.0
  0
LINE
  5
383
330
1F
100
AcDbEntity
  8
0
  6
Continuous
 62
     7
100
AcDbLine
 10
134.9730163932766
 20
272.3670445829325
 30
0.0
 11
134.9730163932766
 21
262.4670445829325
 31
0.0
  0
LINE
  5
384
330
1F
100
AcDbEntity
  8
0
  6
Continuous
 62
     7
100
AcDbLine
 10
134.9730163932766
 20
262.3670445829325
 30
0.0
 11
134.9730163932766
 21
252.4670445829325
 31
0.0
  0
LINE
  5
385
330
1F
100
AcDbEntity
  8
0
  6
Continuous
 62
     7
100
AcDbLine
 10
134.9730163932766
 20
252.3670445829325
 30
0.0
 11
134.9730163932766
 21
242.4670445829325
 31
0.0
  0
LINE
  5
386
330
1F
100
AcDbEntity
  8
0
  6
Continuous
 62
     7
100
AcDbLine
 10
134.9730163932766
 20
242.3670445829325
 30
0.0
 11
134.9730163932766
 21
232.4670445829325
 31
0.0
  0
LINE
  5
387
330
1F
100
AcDbEntity
  8
0
  6
Continuous
 62
     7
100
AcDbLine
 10
134.9730163932766
 20
232.3670445829325
 30
0.0
 11
134.9730163932766
 21
222.4670445829325
 31
0.0
  0
LINE
  5
388
330
1F
100
AcDbEntity
  8
0
  6
Continuous
 62
     7
100
AcDbLine
 10
134.9730163932766
 20
222.3670445829325
 30
0.0
 11
134.9730163932766
 21
215.4170445829325
 31
0.0
  0
LINE
  5
389
330
1F
100
AcDbEntity
  8
0
  6
Continuous
 62
     7
100
AcDbLine
 10
133.6230163932766
 20
362.0170445829324
 30
0.0
 11
133.6230163932766
 21
359.0170445829325
 31
0.0
  0
LINE
  5
38A
330
1F
100
AcDbEntity
  8
0
  6
Continuous
 62
     7
100
AcDbLine
 10
133.0230163932766
 20
361.9170445829325
 30
0.0
 11
133.0230163932766
 21
359.0170445829325
 31
0.0
  0
LINE
  5
38B
330
1F
100
AcDbEntity
  8
0
  6
Continuous
 62
     7
100
AcDbLine
 10
132.9730163932766
 20
361.9170445829325
 30
0.0
 11
132.9730163932766
 21
357.8170445829325
 31
0.0
  0
LINE
  5
38C
330
1F
100
AcDbEntity
  8
0
  6
Continuous
 62
     7
100
AcDbLine
 10
139.2157223666766
 20
354.8170445829324
 30
0.0
 11
137.9730163932766
 21
212.4170445829325
 31
0.0
  0
LINE
  5
38D
330
1F
100
AcDbEntity
  8
BEZUGSACHSEN
  6
Continuous
 62
     7
100
AcDbLine
 10
140.4060094113766
 20
354.8170445829324
 30
0.0
 11
143.8125918610766
 21
354.8170445829324
 31
0.0
  0
LINE
  5
38E
330
1F
100
AcDbEntity
  8
0
  6
Continuous
 62
     7
100
AcDbLine
 10
264.9503273947766
 20
354.8170445829324
 30
0.0
 11
259.9730163932766
 21
354.8170445829324
 31
0.0
  0
LINE
  5
38F
330
1F
100
AcDbEntity
  8
BEZUGSACHSEN
  6
Continuous
 62
     7
100
AcDbLine
 10
251.1334409253766
 20
354.8170445829324
 30
0.0
 11
143.8125918610766
 21
354.8170445829324
 31
0.0
  0
LINE
  5
390
330
1F
100
AcDbEntity
  8
0
  6
Continuous
 62
     7
100
AcDbLine
 10
134.9730163932766
 20
354.8170445829324
 30
0.0
 11
129.9957053916766
 21
354.8170445829324
 31
0.0
  0
LINE
  5
391
330
1F
100
AcDbEntity
  8
0
  6
Continuous
 62
     7
100
AcDbLine
 10
255.7330163932766
 20
354.8170327765325
 30
0.0
 11
251.1334409253766
 21
354.8170445829324
 31
0.0
  0
LINE
  5
392
330
1F
100
AcDbEntity
  8
0
  6
Continuous
 62
     7
100
AcDbLine
 10
143.8125918610766
 20
354.8170445829324
 30
0.0
 11
139.2157222635766
 21
354.8170327765325
 31
0.0
  0
LINE
  5
393
330
1F
100
AcDbEntity
  8
0
  6
Continuous
 62
     7
100
AcDbLine
 10
261.9730163932766
 20
357.8170445829325
 30
0.0
 11
132.9730163932766
 21
357.8170445829325
 31
0.0
  0
LINE
  5
394
330
1F
100
AcDbEntity
  8
0
  6
Continuous
 62
     7
100
AcDbLine
 10
265.6230163932766
 20
359.0170445829325
 30
0.0
 11
264.9503273947766
 21
359.0170445829325
 31
0.0
  0
LINE
  5
395
330
1F
100
AcDbEntity
  8
0
  6
Continuous
 62
     7
100
AcDbLine
 10
261.9230163932766
 20
359.0170445829325
 30
0.0
 11
133.0230163932766
 21
359.0170445829325
 31
0.0
  0
LINE
  5
396
330
1F
100
AcDbEntity
  8
0
  6
Continuous
 62
     7
100
AcDbLine
 10
129.9230163932766
 20
359.0170445829325
 30
0.0
 11
129.3230163932766
 21
359.0170445829325
 31
0.0
  0
LINE
  5
397
330
1F
100
AcDbEntity
  8
0
  6
Continuous
 62
     7
100
AcDbLine
 10
129.9646362419766
 20
360.0170445829324
 30
0.0
 11
130.5904958263766
 21
360.0170445829324
 31
0.0
  0
LINE
  5
398
330
1F
100
AcDbEntity
  8
0
  6
Continuous
 62
     7
100
AcDbLine
 10
264.3555369600766
 20
360.0170445829324
 30
0.0
 11
264.9813965444766
 21
360.0170445829324
 31
0.0
  0
LINE
  5
399
330
1F
100
AcDbEntity
  8
0
  6
Continuous
 62
     7
100
AcDbLine
 10
129.3230163932766
 20
360.3170445829324
 30
0.0
 11
129.9230163932766
 21
360.3170445829324
 31
0.0
  0
LINE
  5
39A
330
1F
100
AcDbEntity
  8
0
  6
Continuous
 62
     7
100
AcDbLine
 10
263.8730163932766
 20
360.3170445829324
 30
0.0
 11
264.9730163932766
 21
360.3170445829324
 31
0.0
  0
LINE
  5
39B
330
1F
100
AcDbEntity
  8
0
  6
Continuous
 62
     7
100
AcDbLine
 10
265.6230163932766
 20
360.3170445829324
 30
0.0
 11
265.0230163932767
 21
360.3170445829324
 31
0.0
  0
LINE
  5
39C
330
1F
100
AcDbEntity
  8
0
  6
Continuous
 62
     7
100
AcDbLine
 10
131.0730163932766
 20
360.3170445829324
 30
0.0
 11
129.9730163932766
 21
360.3170445829324
 31
0.0
  0
LINE
  5
39D
330
1F
100
AcDbEntity
  8
0
  6
Continuous
 62
     9
100
AcDbLine
 10
129.9230163932766
 20
361.9170445829325
 30
0.0
 11
129.9730163932766
 21
361.9170445829325
 31
0.0
  0
LINE
  5
39E
330
1F
100
AcDbEntity
  8
0
  6
Continuous
 62
     9
100
AcDbLine
 10
132.9730163932766
 20
361.9170445829325
 30
0.0
 11
133.0230163932766
 21
361.9170445829325
 31
0.0
  0
LINE
  5
39F
330
1F
100
AcDbEntity
  8
0
  6
Continuous
 62
     9
100
AcDbLine
 10
261.9230163932766
 20
361.9170445829325
 30
0.0
 11
261.9730163932766
 21
361.9170445829325
 31
0.0
  0
LINE
  5
3A0
330
1F
100
AcDbEntity
  8
0
  6
Continuous
 62
     9
100
AcDbLine
 10
261.3230163932766
 20
362.0170445829324
 30
0.0
 11
133.6230163932766
 21
362.0170445829324
 31
0.0
  0
LINE
  5
3A1
330
1F
100
AcDbEntity
  8
0
  6
Continuous
 62
     7
100
AcDbLine
 10
264.5230163932766
 20
362.4170445829325
 30
0.0
 11
262.4230163932766
 21
362.4170445829325
 31
0.0
  0
LINE
  5
3A2
330
1F
100
AcDbEntity
  8
0
  6
Continuous
 62
     7
100
AcDbLine
 10
132.5230163932766
 20
362.4170445829325
 30
0.0
 11
130.4230163932766
 21
362.4170445829325
 31
0.0
  0
LINE
  5
3A3
330
1F
100
AcDbEntity
  8
0
  6
Continuous
 62
     7
100
AcDbLine
 10
264.6230163932766
 20
363.0170445829325
 30
0.0
 11
130.3230163932766
 21
363.0170445829325
 31
0.0
  0
LINE
  5
3A4
330
1F
100
AcDbEntity
  8
0
  6
Continuous
 62
     7
100
AcDbLine
 10
129.9957053916766
 20
354.8170445829324
 30
0.0
 11
129.9957053916766
 21
359.1518423725325
 31
0.0
  0
LINE
  5
3A5
330
1F
100
AcDbEntity
  8
0
  6
Continuous
 62
     7
100
AcDbLine
 10
129.9957053916766
 20
360.0170445829324
 30
0.0
 11
129.9957053916766
 21
360.3170445829324
 31
0.0
  0
LINE
  5
3A6
330
1F
100
AcDbEntity
  8
0
  6
Continuous
 62
     7
100
AcDbLine
 10
129.9730163932766
 20
361.9170445829325
 30
0.0
 11
129.9730163932766
 21
360.3170445829324
 31
0.0
  0
LINE
  5
3A7
330
1F
100
AcDbEntity
  8
0
  6
Continuous
 62
     7
100
AcDbLine
 10
129.9230163932766
 20
361.9170445829325
 30
0.0
 11
129.9230163932766
 21
360.3170445829324
 31
0.0
  0
LINE
  5
3A8
330
1F
100
AcDbEntity
  8
0
  6
Continuous
 62
     7
100
AcDbLine
 10
129.9230163932766
 20
359.1046090176325
 30
0.0
 11
129.9230163932766
 21
359.0170445829325
 31
0.0
  0
LINE
  5
3A9
330
1F
100
AcDbEntity
  8
0
  6
Continuous
 62
     7
100
AcDbLine
 10
129.3230163932766
 20
362.0170445829324
 30
0.0
 11
129.3230163932766
 21
360.3170445829324
 31
0.0
  0
LINE
  5
3AA
330
1F
100
AcDbEntity
  8
0
  6
Continuous
 62
     7
100
AcDbLine
 10
129.3230163932766
 20
359.5233191896324
 30
0.0
 11
129.3230163932766
 21
359.0170445829325
 31
0.0
  0
CIRCLE
  5
3AB
330
1F
100
AcDbEntity
  8
RUNDUNGEN
  6
Continuous
 62
     7
100
AcDbCircle
 10
197.4730163932766
 20
91.39118345941518
 30
0.0
 40
68.15000000000001
  0
CIRCLE
  5
3AC
330
1F
100
AcDbEntity
  8
RUNDUNGEN
  6
Continuous
 62
     9
100
AcDbCircle
 10
197.4730163932766
 20
91.39118345941518
 30
0.0
 40
67.14999996820001
  0
CIRCLE
  5
3AD
330
1F
100
AcDbEntity
  8
RUNDUNGEN
  6
Continuous
 62
     9
100
AcDbCircle
 10
197.4730163932766
 20
91.39118345941518
 30
0.0
 40
64.8499999641
  0
CIRCLE
  5
3AE
330
1F
100
AcDbEntity
  8
RUNDUNGEN
  6
Continuous
 62
     7
100
AcDbCircle
 10
197.4730163932766
 20
91.39118345941518
 30
0.0
 40
63.85
  0
ARC
  5
3AF
330
1F
100
AcDbEntity
  8
0
  6
Continuous
 62
     7
100
AcDbCircle
 10
197.4730163932766
 20
91.39118345941518
 30
0.0
 40
58.26
100
AcDbArc
 50
164.8216613286003
 51
195.1783386713996
  0
ARC
  5
3B0
330
1F
100
AcDbEntity
  8
0
  6
Continuous
 62
     7
100
AcDbCircle
 10
197.4730163932766
 20
91.39118345941518
 30
0.0
 40
58.26
100
AcDbArc
 50
344.8216613286003
 51
15.17833867139963
  0
ARC
  5
3B1
330
1F
100
AcDbEntity
  8
0
  6
Continuous
 62
     7
100
AcDbCircle
 10
197.4730163932766
 20
91.39118345941518
 30
0.0
 40
55.6
100
AcDbArc
 50
195.1783386713996
 51
344.8216613286003
  0
ARC
  5
3B2
330
1F
100
AcDbEntity
  8
0
  6
Continuous
 62
     7
100
AcDbCircle
 10
197.4730163932766
 20
91.39118345941518
 30
0.0
 40
55.6
100
AcDbArc
 50
15.17833867139963
 51
164.8216613286003
  0
ARC
  5
3B3
330
1F
100
AcDbEntity
  8
0
  6
Continuous
 62
     7
100
AcDbCircle
 10
259.9730163932766
 20
282.4170445829325
 30
0.0
 40
0.05
100
AcDbArc
 50
90.0
 51
270.0
  0
ARC
  5
3B4
330
1F
100
AcDbEntity
  8
0
  6
Continuous
 62
     7
100
AcDbCircle
 10
259.9730163932766
 20
272.4170445829325
 30
0.0
 40
0.05
100
AcDbArc
 50
90.0
 51
270.0
  0
ARC
  5
3B5
330
1F
100
AcDbEntity
  8
0
  6
Continuous
 62
     7
100
AcDbCircle
 10
259.9730163932766
 20
262.4170445829325
 30
0.0
 40
0.05
100
AcDbArc
 50
90.0
 51
270.0
  0
ARC
  5
3B6
330
1F
100
AcDbEntity
  8
0
  6
Continuous
 62
     7
100
AcDbCircle
 10
259.9730163932766
 20
252.4170445829325
 30
0.0
 40
0.05
100
AcDbArc
 50
90.0
 51
270.0
  0
ARC
  5
3B7
330
1F
100
AcDbEntity
  8
0
  6
Continuous
 62
     7
100
AcDbCircle
 10
259.9730163932766
 20
242.4170445829325
 30
0.0
 40
0.05
100
AcDbArc
 50
90.0
 51
270.0
  0
ARC
  5
3B8
330
1F
100
AcDbEntity
  8
0
  6
Continuous
 62
     7
100
AcDbCircle
 10
259.9730163932766
 20
232.4170445829325
 30
0.0
 40
0.05
100
AcDbArc
 50
90.0
 51
270.0
  0
ARC
  5
3B9
330
1F
100
AcDbEntity
  8
0
  6
Continuous
 62
     7
100
AcDbCircle
 10
259.9730163932766
 20
222.4170445829325
 30
0.0
 40
0.05
100
AcDbArc
 50
90.0
 51
270.0
  0
ARC
  5
3BA
330
1F
100
AcDbEntity
  8
0
  6
Continuous
 62
     7
100
AcDbCircle
 10
134.9730163932766
 20
282.4170445829325
 30
0.0
 40
0.05
100
AcDbArc
 50
270.0
 51
90.0
  0
ARC
  5
3BB
330
1F
100
AcDbEntity
  8
0
  6
Continuous
 62
     7
100
AcDbCircle
 10
134.9730163932766
 20
272.4170445829325
 30
0.0
 40
0.05
100
AcDbArc
 50
270.0
 51
90.0
  0
ARC
  5
3BC
330
1F
100
AcDbEntity
  8
0
  6
Continuous
 62
     7
100
AcDbCircle
 10
134.9730163932766
 20
262.4170445829325
 30
0.0
 40
0.05
100
AcDbArc
 50
270.0
 51
90.0
  0
ARC
  5
3BD
330
1F
100
AcDbEntity
  8
0
  6
Continuous
 62
     7
100
AcDbCircle
 10
134.9730163932766
 20
252.4170445829325
 30
0.0
 40
0.05
100
AcDbArc
 50
270.0
 51
90.0
  0
ARC
  5
3BE
330
1F
100
AcDbEntity
  8
0
  6
Continuous
 62
     7
100
AcDbCircle
 10
134.9730163932766
 20
242.4170445829325
 30
0.0
 40
0.05
100
AcDbArc
 50
270.0
 51
90.0
  0
ARC
  5
3BF
330
1F
100
AcDbEntity
  8
0
  6
Continuous
 62
     7
100
AcDbCircle
 10
134.9730163932766
 20
232.4170445829325
 30
0.0
 40
0.05
100
AcDbArc
 50
270.0
 51
90.0
  0
ARC
  5
3C0
330
1F
100
AcDbEntity
  8
0
  6
Continuous
 62
     7
100
AcDbCircle
 10
134.9730163932766
 20
222.4170445829325
 30
0.0
 40
0.05
100
AcDbArc
 50
270.0
 51
90.0
  0
ARC
  5
3C1
330
1F
100
AcDbEntity
  8
0
  6
Continuous
 62
     7
100
AcDbCircle
 10
259.9730163932766
 20
322.4170445829325
 30
0.0
 40
0.05
100
AcDbArc
 50
90.0
 51
270.0
  0
ARC
  5
3C2
330
1F
100
AcDbEntity
  8
0
  6
Continuous
 62
     7
100
AcDbCircle
 10
259.9730163932766
 20
312.4170445829325
 30
0.0
 40
0.05
100
AcDbArc
 50
90.0
 51
270.0
  0
ARC
  5
3C3
330
1F
100
AcDbEntity
  8
0
  6
Continuous
 62
     7
100
AcDbCircle
 10
259.9730163932766
 20
302.4170445829325
 30
0.0
 40
0.05
100
AcDbArc
 50
90.0
 51
270.0
  0
ARC
  5
3C4
330
1F
100
AcDbEntity
  8
0
  6
Continuous
 62
     7
100
AcDbCircle
 10
259.9730163932766
 20
292.4170445829325
 30
0.0
 40
0.05
100
AcDbArc
 50
90.0
 51
270.0
  0
ARC
  5
3C5
330
1F
100
AcDbEntity
  8
0
  6
Continuous
 62
     7
100
AcDbCircle
 10
305.3559175382766
 20
360.3235085349325
 30
0.0
 40
40.3348147637
100
AcDbArc
 50
180.1239985582999
 51
180.4353375651004
  0
ARC
  5
3C6
330
1F
100
AcDbEntity
  8
0
  6
Continuous
 62
     7
100
AcDbCircle
 10
303.4038573077766
 20
360.3171023805324
 30
0.0
 40
38.3827447076
100
AcDbArc
 50
180.0000862772997
 51
180.1207420875995
  0
ARC
  5
3C7
330
1F
100
AcDbEntity
  8
0
  6
Continuous
 62
     7
100
AcDbCircle
 10
278.8706707741766
 20
360.3200754783324
 30
0.0
 40
13.2579293967
100
AcDbArc
 50
180.0130983890002
 51
180.3329491183003
  0
ARC
  5
3C8
330
1F
100
AcDbEntity
  8
0
  6
Continuous
 62
     7
100
AcDbCircle
 10
259.9730163932766
 20
342.4170445829325
 30
0.0
 40
0.05
100
AcDbArc
 50
90.0
 51
270.0
  0
ARC
  5
3C9
330
1F
100
AcDbEntity
  8
0
  6
Continuous
 62
     7
100
AcDbCircle
 10
259.9730163932766
 20
332.4170445829325
 30
0.0
 40
0.05
100
AcDbArc
 50
90.0
 51
270.0
  0
ARC
  5
3CA
330
1F
100
AcDbEntity
  8
0
  6
Continuous
 62
     7
100
AcDbCircle
 10
265.7230163932766
 20
360.3170445829324
 30
0.0
 40
1.399999999999999
100
AcDbArc
 50
192.3736251161998
 51
239.9999999999999
  0
ARC
  5
3CB
330
1F
100
AcDbEntity
  8
0
  6
Continuous
 62
     7
100
AcDbCircle
 10
264.6230163932766
 20
362.0170445829324
 30
0.0
 40
1.0
100
AcDbArc
 50
0.0
 51
90.0
  0
ARC
  5
3CC
330
1F
100
AcDbEntity
  8
0
  6
Continuous
 62
     7
100
AcDbCircle
 10
262.3230163932766
 20
362.0170445829324
 30
0.0
 40
1.0
100
AcDbArc
 50
90.0
 51
180.0
  0
ARC
  5
3CD
330
1F
100
AcDbEntity
  8
0
  6
Continuous
 62
     7
100
AcDbCircle
 10
265.7230163932766
 20
360.3170445829324
 30
0.0
 40
0.8
100
AcDbArc
 50
202.024312837
 51
262.8192442184991
  0
ARC
  5
3CE
330
1F
100
AcDbEntity
  8
0
  6
Continuous
 62
     7
100
AcDbCircle
 10
264.5230163932766
 20
361.9170445829325
 30
0.0
 40
0.5
100
AcDbArc
 50
0.0
 51
90.0
  0
ARC
  5
3CF
330
1F
100
AcDbEntity
  8
0
  6
Continuous
 62
     7
100
AcDbCircle
 10
262.4230163932766
 20
361.9170445829325
 30
0.0
 40
0.5
100
AcDbArc
 50
90.0
 51
180.0
  0
ARC
  5
3D0
330
1F
100
AcDbEntity
  8
0
  6
Continuous
 62
     7
100
AcDbCircle
 10
262.4730163932766
 20
361.9170445829325
 30
0.0
 40
0.5
100
AcDbArc
 50
90.0
 51
180.0
  0
ARC
  5
3D1
330
1F
100
AcDbEntity
  8
0
  6
Continuous
 62
     7
100
AcDbCircle
 10
264.4730163932766
 20
361.9170445829325
 30
0.0
 40
0.5
100
AcDbArc
 50
0.0
 51
90.0
  0
CIRCLE
  5
3D2
330
1F
100
AcDbEntity
  8
FLAECHEN
  6
Continuous
 62
     6
100
AcDbCircle
 10
241.0090014998766
 20
351.8170445829325
 30
0.0
 40
2.0
  0
ARC
  5
3D3
330
1F
100
AcDbEntity
  8
0
  6
Continuous
 62
     7
100
AcDbCircle
 10
134.9730163932766
 20
322.4170445829325
 30
0.0
 40
0.05
100
AcDbArc
 50
270.0
 51
90.0
  0
ARC
  5
3D4
330
1F
100
AcDbEntity
  8
0
  6
Continuous
 62
     7
100
AcDbCircle
 10
134.9730163932766
 20
312.4170445829325
 30
0.0
 40
0.05
100
AcDbArc
 50
270.0
 51
90.0
  0
ARC
  5
3D5
330
1F
100
AcDbEntity
  8
0
  6
Continuous
 62
     7
100
AcDbCircle
 10
134.9730163932766
 20
302.4170445829325
 30
0.0
 40
0.05
100
AcDbArc
 50
270.0
 51
90.0
  0
ARC
  5
3D6
330
1F
100
AcDbEntity
  8
0
  6
Continuous
 62
     7
100
AcDbCircle
 10
134.9730163932766
 20
292.4170445829325
 30
0.0
 40
0.05
100
AcDbArc
 50
270.0
 51
90.0
  0
ARC
  5
3D7
330
1F
100
AcDbEntity
  8
BEZUGSACHSEN
  6
Continuous
 62
     6
100
AcDbCircle
 10
142.4060094113766
 20
351.8170445829325
 30
0.0
 40
2.0
100
AcDbArc
 50
180.0
 51
0.0
  0
ARC
  5
3D8
330
1F
100
AcDbEntity
  8
0
  6
Continuous
 62
     7
100
AcDbCircle
 10
129.2230163932766
 20
360.3170445829324
 30
0.0
 40
1.399999999999999
100
AcDbArc
 50
300.0
 51
347.6263748838001
  0
ARC
  5
3D9
330
1F
100
AcDbEntity
  8
0
  6
Continuous
 62
     7
100
AcDbCircle
 10
130.3230163932766
 20
362.0170445829324
 30
0.0
 40
1.0
100
AcDbArc
 50
90.0
 51
180.0
  0
ARC
  5
3DA
330
1F
100
AcDbEntity
  8
0
  6
Continuous
 62
     7
100
AcDbCircle
 10
132.6230163932766
 20
362.0170445829324
 30
0.0
 40
1.0
100
AcDbArc
 50
0.0
 51
90.0
  0
ARC
  5
3DB
330
1F
100
AcDbEntity
  8
0
  6
Continuous
 62
     7
100
AcDbCircle
 10
129.2230163932766
 20
360.3170445829324
 30
0.0
 40
0.8
100
AcDbArc
 50
277.1807557815009
 51
337.975687163
  0
ARC
  5
3DC
330
1F
100
AcDbEntity
  8
0
  6
Continuous
 62
     7
100
AcDbCircle
 10
130.4230163932766
 20
361.9170445829325
 30
0.0
 40
0.5
100
AcDbArc
 50
90.0
 51
180.0
  0
ARC
  5
3DD
330
1F
100
AcDbEntity
  8
0
  6
Continuous
 62
     7
100
AcDbCircle
 10
132.5230163932766
 20
361.9170445829325
 30
0.0
 40
0.5
100
AcDbArc
 50
0.0
 51
90.0
  0
ARC
  5
3DE
330
1F
100
AcDbEntity
  8
0
  6
Continuous
 62
     7
100
AcDbCircle
 10
132.4730163932766
 20
361.9170445829325
 30
0.0
 40
0.5
100
AcDbArc
 50
0.0
 51
90.0
  0
ARC
  5
3DF
330
1F
100
AcDbEntity
  8
0
  6
Continuous
 62
     7
100
AcDbCircle
 10
130.4730163932766
 20
361.9170445829325
 30
0.0
 40
0.5
100
AcDbArc
 50
90.0
 51
180.0
  0
ARC
  5
3E0
330
1F
100
AcDbEntity
  8
0
  6
Continuous
 62
     7
100
AcDbCircle
 10
134.9730163932766
 20
342.4170445829325
 30
0.0
 40
0.05
100
AcDbArc
 50
270.0
 51
90.0
  0
ARC
  5
3E1
330
1F
100
AcDbEntity
  8
0
  6
Continuous
 62
     7
100
AcDbCircle
 10
134.9730163932766
 20
332.4170445829325
 30
0.0
 40
0.05
100
AcDbArc
 50
270.0
 51
90.0
  0
ARC
  5
3E2
330
1F
100
AcDbEntity
  8
0
  6
Continuous
 62
     7
100
AcDbCircle
 10
90.99720695567658
 20
360.3177502433325
 30
0.0
 40
38.9277131336
100
AcDbArc
 50
359.6525463323005
 51
359.9989613732997
  0
SPLINE
  5
3E3
330
1F
100
AcDbEntity
  8
0
  6
Continuous
 62
     7
100
AcDbSpline
210
0.0
220
0.0
230
1.0
 70
     8
 71
     3
 72
    20
 73
    16
 74
    14
 42
0.0000000001
 43
0.0000000001
 44
0.0000000001
 12
0.0197463379552178
 22
0.9998050220604808
 32
0.0
 13
0.0000000000000001
 23
1.0
 33
0.0
 40
0.0
 40
0.0
 40
0.0
 40
0.0
 40
0.0123330236242143
 40
0.047589044602539
 40
0.1000228580158578
 40
0.1621890930110877
 40
0.2290313462827334
 40
0.2977078658524641
 40
0.3670627051035946
 40
0.4365635501406388
 40
0.5059864058417647
 40
0.5757517537960437
 40
0.6471873587179195
 40
0.7198016088730441
 40
0.7938006762876331
 40
0.7938006762876331
 40
0.7938006762876331
 40
0.7938006762876331
 10
129.3230163932766
 20
359.5233191896324
 30
0.0
 10
129.3230975706274
 20
359.5274293959513
 30
0.0
 10
129.3234093553664
 20
359.5432893465613
 30
0.0
 10
129.3240528863407
 20
359.5766240896529
 30
0.0
 10
129.3249844489352
 20
359.6265674307511
 30
0.0
 10
129.3260606069331
 20
359.6870386317639
 30
0.0
 10
129.3271692342063
 20
359.7529243190721
 30
0.0
 10
129.3282479748012
 20
359.82120701511
 30
0.0
 10
129.3292671570635
 20
359.8903769216979
 30
0.0
 10
129.3302138409347
 20
359.959796661433
 30
0.0
 10
129.3310824660307
 20
360.0293542706509
 30
0.0
 10
129.331871602653
 20
360.0995577916412
 30
0.0
 10
129.3325653113767
 20
360.1708261877093
 30
0.0
 10
129.3331211658986
 20
360.2435071003345
 30
0.0
 10
129.3332910625766
 20
360.2923782271276
 30
0.0
 10
129.3332910625766
 20
360.3170445829324
 30
0.0
 11
129.3230163932766
 21
359.5233191896324
 31
0.0
 11
129.3232587964766
 21
359.5356498308325
 31
0.0
 11
129.3239392847766
 21
359.5708992840325
 31
0.0
 11
129.3249171051766
 21
359.6233239791325
 31
0.0
 11
129.3260231944766
 21
359.6854803733324
 31
0.0
 11
129.3271476506766
 21
359.7523131678325
 31
0.0
 11
129.3282322922766
 21
359.8209811217325
 31
0.0
 11
129.3292537724766
 21
359.8903284382325
 31
0.0
 11
129.3302008790766
 21
359.9598228297324
 31
0.0
 11
129.3310666488766
 21
360.0292402867325
 31
0.0
 11
129.3318480327766
 21
360.0990012587325
 31
0.0
 11
129.3325368590766
 21
360.1704335425325
 31
0.0
 11
129.3330676306766
 21
360.2430458528325
 31
0.0
 11
129.3332910625766
 21
360.3170445829324
 31
0.0
  0
SPLINE
  5
3E4
330
1F
100
AcDbEntity
  8
0
  6
Continuous
 62
     7
100
AcDbSpline
210
0.0
220
0.0
230
1.0
 70
     8
 71
     3
 72
    19
 73
    15
 74
    13
 42
0.0000000001
 43
0.0000000001
 44
0.0000000001
 12
0.0055824265195245
 22
-0.9999844181356799
 32
0.0
 13
0.01974633803901
 23
-0.9998050220588257
 33
0.0
 40
0.0
 40
0.0
 40
0.0
 40
0.0
 40
0.0726405084002327
 40
0.1440562427152435
 40
0.2137345506523562
 40
0.2830728859425691
 40
0.3525796306368008
 40
0.4220922638128739
 40
0.4910497682459461
 40
0.5580799852885319
 40
0.6201544936496298
 40
0.6723349526007181
 40
0.7074679852079706
 40
0.7197890663493176
 40
0.7197890663493176
 40
0.7197890663493176
 40
0.7197890663493176
 10
265.6129652262766
 20
360.2430333105325
 30
0.0
 10
265.6131003963768
 20
360.2188201850239
 30
0.0
 10
265.6134676830615
 20
360.1708027478228
 30
0.0
 10
265.6141611746975
 20
360.099561255618
 30
0.0
 10
265.6149495562786
 20
360.029421535251
 30
0.0
 10
265.6158173588222
 20
359.959919141784
 30
0.0
 10
265.616764235767
 20
359.8904730107823
 30
0.0
 10
265.6177855295468
 20
359.8211548930786
 30
0.0
 10
265.6188677298175
 20
359.7526633112707
 30
0.0
 10
265.6199788576194
 20
359.6866519074934
 30
0.0
 10
265.6210544763772
 20
359.626233077654
 30
0.0
 10
265.6219833233719
 20
359.576445736268
 30
0.0
 10
265.6226243920853
 20
359.5432403982127
 30
0.0
 10
265.6229352945322
 20
359.5274254158999
 30
0.0
 10
265.6230163932766
 20
359.5233191896324
 30
0.0
 11
265.6129652262766
 21
360.2430333105325
 31
0.0
 11
265.6134962641766
 21
360.1703947432325
 31
0.0
 11
265.6141849524766
 21
360.0989823296325
 31
0.0
 11
265.6149653295766
 21
360.0293083918324
 31
0.0
 11
265.6158299139766
 21
359.9599754470325
 31
0.0
 11
265.6167769328766
 21
359.8904751541324
 31
0.0
 11
265.6178006630766
 21
359.8209700597325
 31
0.0
 11
265.6188899017766
 21
359.7520211585325
 31
0.0
 11
265.6200179105766
 21
359.6850004334325
 31
0.0
 11
265.6211227715766
 21
359.6229357585325
 31
0.0
 11
265.6220960707766
 21
359.5707643776325
 31
0.0
 11
265.6227742235766
 21
359.5356378906325
 31
0.0
 11
265.6230163932766
 21
359.5233191896324
 31
0.0
  0
LINE
  5
3E5
330
1F
100
AcDbEntity
  8
0
  6
Continuous
 62
     7
100
AcDbLine
 10
129.9237655662766
 20
360.0170445829324
 30
0.0
 11
129.9242047876766
 21
360.0816858406325
 31
0.0
  0
LINE
  5
3E6
330
1F
100
AcDbEntity
  8
0
  6
Continuous
 62
     7
100
AcDbLine
 10
242.7402213655766
 20
351.8170445829325
 30
0.0
 11
242.7260559305766
 21
354.8170445829324
 31
0.0
  0
DIMENSION
  5
3FB
330
1F
100
AcDbEntity
  8
AM_5
100
AcDbDimension
  2
*D6
 10
134.9730163931766
 20
191.5066267752474
 30
0.0
 11
197.4730163931766
 21
198.0073157516254
 31
0.0
 70
    32
  1
%%c<>
 71
     5
 42
125.0
  3
AM_DIN$0
100
AcDbAlignedDimension
 13
259.9730163931766
 23
215.4170445829325
 33
0.0
 14
134.9730163931766
 24
215.4170445829325
 34
0.0
100
AcDbRotatedDimension
1001
ACAD
1000
DSTYLE
1002
{
1070
    40
1040
2.0
1070
    47
1040
0.05
1070
    48
1040
0.05
1002
}
  0
LINE
  5
3FC
330
1F
100
AcDbEntity
  8
0
  6
CENTER
 48
2.0
370
     0
100
AcDbLine
 10
197.4730163932266
 20
212.4170445829325
 30
0.0
 11
197.4730163932266
 21
366.3167289601364
 31
0.0
  0
DIMENSION
  5
3FD
330
1F
100
AcDbEntity
  8
AM_5
100
AcDbDimension
  2
*D7
 10
265.6230163932767
 20
384.4512915332717
 30
0.0
 11
197.4730163932766
 21
390.9512915332717
 31
0.0
 70
    32
  1
%%c<>
 71
     5
 42
136.3
  3
AM_DIN$0
100
AcDbAlignedDimension
 13
129.3230163932766
 23
361.1670445829324
 33
0.0
 14
265.6230163932767
 24
361.1670445829324
 34
0.0
100
AcDbRotatedDimension
1001
ACAD
1000
DSTYLE
1002
{
1070
    40
1040
2.0
1070
    47
1040
0.05
1070
    48
1040
0.05
1070
   271
1070
     0
1002
}
  0
DIMENSION
  5
3FE
330
1F
100
AcDbEntity
  8
AM_5
100
AcDbDimension
  2
*D8
 10
92.37499898293659
 20
363.0170445829325
 30
0.0
 11
92.37499898293652
 21
288.2784904396625
 31
0.0
 70
   160
  1
150
 71
     5
 42
150.6
  3
AM_DIN$0
100
AcDbAlignedDimension
 13
144.613379701574
 23
212.4170445829325
 33
0.0
 14
131.2693849572641
 24
363.0170445829325
 34
0.0
 50
90.0
100
AcDbRotatedDimension
1001
ACAD
1000
DSTYLE
1002
{
1070
    40
1040
2.0
1070
    47
1040
0.05
1070
    48
1040
0.05
1002
}
  0
ENDSEC
  0
SECTION
  2
OBJECTS
  0
DICTIONARY
  5
C
330
0
100
AcDbDictionary
281
     1
  3
ACAD_2007HEADERVARS_RT
350
71F
  3
ACAD_COLOR
350
9B
  3
ACAD_GROUP
350
D
  3
ACAD_IMAGE_DICT
350
226
  3
ACAD_IMAGE_VARS
350
236
  3
ACAD_LAYOUT
350
1A
  3
ACAD_MATERIAL
350
9A
  3
ACAD_MLEADERSTYLE
350
58E
  3
ACAD_MLINESTYLE
350
17
  3
ACAD_PLOTSETTINGS
350
19
  3
ACAD_PLOTSTYLENAME
350
E
  3
ACAD_SCALELIST
350
57C
  3
ACAD_TABLESTYLE
350
9C
  3
ACAD_VISUALSTYLE
350
56B
  3
ACDB_RECOMPOSE_DATA
350
6F1
  3
AcDbVariableDictionary
350
34
  3
AcmDictionary
350
47
  3
AMG
350
2B
  3
AMGSNAPSETTINGS
350
22A
  3
ASE_INDEX_DICTIONARY
350
6C9
  3
DWGPROPS
350
71E
  0
DICTIONARY
  5
1FF
330
2
100
AcDbDictionary
280
     1
281
     1
  3
ACAD_LAYERSTATES
360
200
  0
DICTIONARY
  5
6A9
330
10
100
AcDbDictionary
280
     1
281
     1
  3
ADSK_XREC_LAYER_RECONCILED
360
6AA
  0
DICTIONARY
  5
6AB
330
1F0
100
AcDbDictionary
280
     1
281
     1
  3
ADSK_XREC_LAYER_RECONCILED
360
6AC
  0
DICTIONARY
  5
6AD
330
1F1
100
AcDbDictionary
280
     1
281
     1
  3
ADSK_XREC_LAYER_RECONCILED
360
6AE
  0
DICTIONARY
  5
6AF
330
1F2
100
AcDbDictionary
280
     1
281
     1
  3
ADSK_XREC_LAYER_RECONCILED
360
6B0
  0
DICTIONARY
  5
6B1
330
1F3
100
AcDbDictionary
280
     1
281
     1
  3
ADSK_XREC_LAYER_RECONCILED
360
6B2
  0
DICTIONARY
  5
6B3
330
1F4
100
AcDbDictionary
280
     1
281
     1
  3
ADSK_XREC_LAYER_RECONCILED
360
6B4
  0
DICTIONARY
  5
6B5
330
1F5
100
AcDbDictionary
280
     1
281
     1
  3
ADSK_XREC_LAYER_RECONCILED
360
6B6
  0
DICTIONARY
  5
6B7
330
1F6
100
AcDbDictionary
280
     1
281
     1
  3
ADSK_XREC_LAYER_RECONCILED
360
6B8
  0
DICTIONARY
  5
6B9
330
27E
100
AcDbDictionary
280
     1
281
     1
  3
ADSK_XREC_LAYER_RECONCILED
360
6BA
  0
DICTIONARY
  5
6BB
330
281
100
AcDbDictionary
280
     1
281
     1
  3
ADSK_XREC_LAYER_RECONCILED
360
6BC
  0
DICTIONARY
  5
6BD
330
284
100
AcDbDictionary
280
     1
281
     1
  3
ADSK_XREC_LAYER_RECONCILED
360
6BE
  0
DICTIONARY
  5
6BF
330
287
100
AcDbDictionary
280
     1
281
     1
  3
ADSK_XREC_LAYER_RECONCILED
360
6C0
  0
DICTIONARY
  5
6C1
330
28D
100
AcDbDictionary
280
     1
281
     1
  3
ADSK_XREC_LAYER_RECONCILED
360
6C2
  0
DICTIONARY
  5
6C3
330
45D
100
AcDbDictionary
280
     1
281
     1
  3
ADSK_XREC_LAYER_RECONCILED
360
6C4
  0
DICTIONARY
  5
60A
330
609
100
AcDbDictionary
280
     1
281
     1
  3
ADSK_XREC_LAYER_RECONCILED
360
6C5
  0
DICTIONARY
  5
60C
330
60B
100
AcDbDictionary
280
     1
281
     1
  3
ADSK_XREC_LAYER_RECONCILED
360
6C6
  0
DICTIONARY
  5
64C
330
64B
100
AcDbDictionary
280
     1
281
     1
  3
ADSK_XREC_LAYER_RECONCILED
360
6C7
  0
DICTIONARY
  5
81
330
1F
100
AcDbDictionary
280
     1
281
     1
  0
DICTIONARY
  5
17E
330
17D
100
AcDbDictionary
280
     1
281
     1
  0
DICTIONARY
  5
62A
330
616
100
AcDbDictionary
280
     1
281
     1
  0
DICTIONARY
  5
660
330
64D
100
AcDbDictionary
280
     1
281
     1
  0
DICTIONARY
  5
728
330
171
100
AcDbDictionary
280
     1
281
     1
  3
ACAD_MTEXT_RT
360
729
  0
IMAGEDEF_REACTOR
  5
1EC
330
1EB
100
AcDbRasterImageDefReactor
 90
        2
330
1EB
  0
DICTIONARY
  5
71F
102
{ACAD_REACTORS
330
C
102
}
330
C
100
AcDbDictionary
281
     1
  3
DIMJOGANG
350
720
  0
DICTIONARY
  5
9B
102
{ACAD_REACTORS
330
C
102
}
330
C
100
AcDbDictionary
281
     1
  0
DICTIONARY
  5
D
102
{ACAD_REACTORS
330
C
102
}
330
C
100
AcDbDictionary
281
     1
  0
DICTIONARY
  5
226
102
{ACAD_REACTORS
330
C
102
}
330
C
100
AcDbDictionary
281
     1
  3
ACO-Logo
350
227
  0
RASTERVARIABLES
  5
236
102
{ACAD_REACTORS
330
C
102
}
330
C
100
AcDbRasterVariables
 90
        0
 70
     1
 71
     1
 72
     1
  0
DICTIONARY
  5
1A
102
{ACAD_REACTORS
330
C
102
}
330
C
100
AcDbDictionary
281
     1
  3
Layout1
350
1E
  3
Layout2
350
26
  3
Model
350
22
  0
DICTIONARY
  5
9A
102
{ACAD_REACTORS
330
C
102
}
330
C
100
AcDbDictionary
281
     1
  3
ByBlock
350
563
  3
ByLayer
350
55B
  3
Global
350
294
  0
DICTIONARY
  5
58E
102
{ACAD_REACTORS
330
C
102
}
330
C
100
AcDbDictionary
281
     1
  3
Standard
350
58F
  0
DICTIONARY
  5
17
102
{ACAD_REACTORS
330
C
102
}
330
C
100
AcDbDictionary
281
     1
  3
Standard
350
18
  0
DICTIONARY
  5
19
102
{ACAD_REACTORS
330
C
102
}
330
C
100
AcDbDictionary
281
     1
  0
ACDBDICTIONARYWDFLT
  5
E
102
{ACAD_REACTORS
330
C
102
}
330
C
100
AcDbDictionary
281
     1
  3
Normal
350
F
100
AcDbDictionaryWithDefault
340
F
  0
DICTIONARY
  5
57C
102
{ACAD_REACTORS
330
C
102
}
330
C
100
AcDbDictionary
281
     1
  3
A0
350
57D
  3
A1
350
57E
  3
A2
350
57F
  3
A3
350
580
  3
A4
350
581
  3
A5
350
582
  3
A6
350
583
  3
A7
350
584
  3
A8
350
585
  3
A9
350
586
  3
B0
350
587
  3
B1
350
588
  3
B2
350
589
  3
B3
350
58A
  3
B4
350
58B
  3
B5
350
58C
  3
B6
350
58D
  0
DICTIONARY
  5
9C
102
{ACAD_REACTORS
330
C
102
}
330
C
100
AcDbDictionary
281
     1
  3
Standard
350
9D
  0
DICTIONARY
  5
56B
102
{ACAD_REACTORS
330
C
102
}
330
C
100
AcDbDictionary
281
     1
  3
2dWireframe
350
571
  3
3D Hidden
350
573
  3
3dWireframe
350
572
  3
Basic
350
570
  3
Brighten
350
577
  3
ColorChange
350
57B
  3
Conceptual
350
574
  3
Dim
350
576
  3
Facepattern
350
57A
  3
Flat
350
56C
  3
FlatWithEdges
350
56D
  3
Gouraud
350
56E
  3
GouraudWithEdges
350
56F
  3
Linepattern
350
579
  3
Realistic
350
575
  3
Thicken
350
578
  0
XRECORD
  5
6F1
102
{ACAD_REACTORS
330
C
102
}
330
C
100
AcDbXrecord
280
     1
 90
        1
330
9D
  0
DICTIONARY
  5
34
102
{ACAD_REACTORS
330
C
102
}
330
C
100
AcDbDictionary
281
     1
  3
CANNOSCALE
350
6F4
  3
CMLEADERSTYLE
350
6F2
  3
CTABLESTYLE
350
10F
  3
DIMASSOC
350
71C
  3
INDEXCTL
350
35
  3
LAYEREVAL
350
6F6
  3
LAYERNOTIFY
350
6F7
  3
LIGHTINGUNITS
350
6F5
  3
MSLTSCALE
350
6F3
  3
SORTENTS
350
71B
  0
DICTIONARY
  5
47
102
{ACAD_REACTORS
330
C
102
}
330
C
100
AcDbDictionary
281
     1
  3
AcmStdDictionary
350
4C
  3
AMDTSECTSYM_ARROWCOLOR
350
F5
  0
DICTIONARY
  5
2B
102
{ACAD_REACTORS
330
C
102
}
330
C
100
AcDbDictionary
281
     1
  0
DICTIONARY
  5
22A
102
{ACAD_REACTORS
330
C
102
}
330
C
100
AcDbDictionary
281
     1
  0
DICTIONARY
  5
6C9
102
{ACAD_REACTORS
330
C
102
}
330
C
100
AcDbDictionary
281
     1
  3
ASEBlockHierarchyIndexRecord
350
6CA
1001
DCO15
1040
1660896682.773
  0
XRECORD
  5
71E
102
{ACAD_REACTORS
330
C
102
}
330
C
100
AcDbXrecord
280
     1
  1
DWGPROPS COOKIE
  2

  3

  4

  6

  7

  8
jamoeller
  9

300
AmdtFileType=84
301
=
302
=
303
=
304
=
305
=
306
=
307
=
308
=
309
=
 40
0.471850625
 41
2452702.515835023
 42
2455146.463708044
  1

 90
        1
  0
DICTIONARY
  5
200
102
{ACAD_REACTORS
330
1FF
102
}
330
1FF
100
AcDbDictionary
281
     1
  0
XRECORD
  5
6AA
102
{ACAD_REACTORS
330
6A9
102
}
330
6A9
100
AcDbXrecord
280
     1
290
     1
  0
XRECORD
  5
6AC
102
{ACAD_REACTORS
330
6AB
102
}
330
6AB
100
AcDbXrecord
280
     1
290
     1
  0
XRECORD
  5
6AE
102
{ACAD_REACTORS
330
6AD
102
}
330
6AD
100
AcDbXrecord
280
     1
290
     1
  0
XRECORD
  5
6B0
102
{ACAD_REACTORS
330
6AF
102
}
330
6AF
100
AcDbXrecord
280
     1
290
     1
  0
XRECORD
  5
6B2
102
{ACAD_REACTORS
330
6B1
102
}
330
6B1
100
AcDbXrecord
280
     1
290
     1
  0
XRECORD
  5
6B4
102
{ACAD_REACTORS
330
6B3
102
}
330
6B3
100
AcDbXrecord
280
     1
290
     1
  0
XRECORD
  5
6B6
102
{ACAD_REACTORS
330
6B5
102
}
330
6B5
100
AcDbXrecord
280
     1
290
     1
  0
XRECORD
  5
6B8
102
{ACAD_REACTORS
330
6B7
102
}
330
6B7
100
AcDbXrecord
280
     1
290
     1
  0
XRECORD
  5
6BA
102
{ACAD_REACTORS
330
6B9
102
}
330
6B9
100
AcDbXrecord
280
     1
290
     1
  0
XRECORD
  5
6BC
102
{ACAD_REACTORS
330
6BB
102
}
330
6BB
100
AcDbXrecord
280
     1
290
     1
  0
XRECORD
  5
6BE
102
{ACAD_REACTORS
330
6BD
102
}
330
6BD
100
AcDbXrecord
280
     1
290
     1
  0
XRECORD
  5
6C0
102
{ACAD_REACTORS
330
6BF
102
}
330
6BF
100
AcDbXrecord
280
     1
290
     1
  0
XRECORD
  5
6C2
102
{ACAD_REACTORS
330
6C1
102
}
330
6C1
100
AcDbXrecord
280
     1
290
     1
  0
XRECORD
  5
6C4
102
{ACAD_REACTORS
330
6C3
102
}
330
6C3
100
AcDbXrecord
280
     1
290
     1
  0
XRECORD
  5
6C5
102
{ACAD_REACTORS
330
60A
102
}
330
60A
100
AcDbXrecord
280
     1
290
     1
  0
XRECORD
  5
6C6
102
{ACAD_REACTORS
330
60C
102
}
330
60C
100
AcDbXrecord
280
     1
290
     1
  0
XRECORD
  5
6C7
102
{ACAD_REACTORS
330
64C
102
}
330
64C
100
AcDbXrecord
280
     1
290
     1
  0
XRECORD
  5
729
102
{ACAD_REACTORS
330
728
102
}
330
728
100
AcDbXrecord
280
     1
 40
30543.0
  1
\fArial|b0|i0|c0|p32;©
  0
XRECORD
  5
720
102
{ACAD_REACTORS
330
71F
102
}
330
71F
100
AcDbXrecord
280
     1
 40
1.570796326794896
  0
IMAGEDEF
  5
227
102
{ACAD_REACTORS
330
226
330
1EC
102
}
330
226
100
AcDbRasterImageDef
 90
        0
  1
L:\calink52\templates\ACO-Logo.jpg
 10
75.0
 20
57.0
 11
0.3527777777777778
 21
0.3527777777777778
280
     1
281
     5
  0
LAYOUT
  5
1E
102
{ACAD_XDICTIONARY
360
721
102
}
102
{ACAD_REACTORS
330
1A
102
}
330
1A
100
AcDbPlotSettings
  1

  2
C:\Programme\Acadm 2000i\plotters\PH36.pc3
  4

  6

 40
0.0
 41
0.0
 42
0.0
 43
0.0
 44
0.0
 45
0.0
 46
0.0
 47
0.0
 48
0.0
 49
0.0
140
0.0
141
0.0
142
1.0
143
1.0
 70
   688
 72
     0
 73
     0
 74
     5
  7
monochrome.ctb
 75
    16
147
1.0
148
0.0
149
0.0
100
AcDbLayout
  1
Layout1
 70
     1
 71
     1
 10
0.0
 20
0.0
 11
420.0
 21
297.0
 12
0.0
 22
0.0
 32
0.0
 14
1.000000000000000E+20
 24
1.000000000000000E+20
 34
1.000000000000000E+20
 15
-1.000000000000000E+20
 25
-1.000000000000000E+20
 35
-1.000000000000000E+20
146
0.0
 13
0.0
 23
0.0
 33
0.0
 16
1.0
 26
0.0
 36
0.0
 17
0.0
 27
1.0
 37
0.0
 76
     0
330
1B
  0
LAYOUT
  5
26
102
{ACAD_XDICTIONARY
360
725
102
}
102
{ACAD_REACTORS
330
1A
102
}
330
1A
100
AcDbPlotSettings
  1

  2
C:\Programme\Acadm 2000i\plotters\PH36.pc3
  4

  6

 40
0.0
 41
0.0
 42
0.0
 43
0.0
 44
0.0
 45
0.0
 46
0.0
 47
0.0
 48
0.0
 49
0.0
140
0.0
141
0.0
142
1.0
143
1.0
 70
   688
 72
     0
 73
     0
 74
     5
  7
monochrome.ctb
 75
    16
147
1.0
148
0.0
149
0.0
100
AcDbLayout
  1
Layout2
 70
     1
 71
     2
 10
0.0
 20
0.0
 11
12.0
 21
9.0
 12
0.0
 22
0.0
 32
0.0
 14
0.0
 24
0.0
 34
0.0
 15
0.0
 25
0.0
 35
0.0
146
0.0
 13
0.0
 23
0.0
 33
0.0
 16
1.0
 26
0.0
 36
0.0
 17
0.0
 27
1.0
 37
0.0
 76
     0
330
23
  0
LAYOUT
  5
22
102
{ACAD_XDICTIONARY
360
723
102
}
102
{ACAD_REACTORS
330
1A
102
}
330
1A
100
AcDbPlotSettings
  1

  2
none_device
  4
ISO_A4_(210.00_x_297.00_MM)
  6

 40
7.5
 41
20.0
 42
7.5
 43
20.0
 44
210.0
 45
297.0
 46
0.0
 47
0.0
 48
0.0
 49
0.0
140
0.0
141
0.0
142
1.0
143
3.132521232859969
 70
 11952
 72
     1
 73
     1
 74
     0
  7
monochrome.ctb
 75
     0
147
0.3192316749556418
148
89.50926296921783
149
1.499709983038712
100
AcDbLayout
  1
Model
 70
     1
 71
     0
 10
0.0
 20
0.0
 11
12.0
 21
9.0
 12
0.0
 22
0.0
 32
0.0
 14
0.0
 24
0.0
 34
0.0
 15
0.0
 25
0.0
 35
0.0
146
0.0
 13
0.0
 23
0.0
 33
0.0
 16
1.0
 26
0.0
 36
0.0
 17
0.0
 27
1.0
 37
0.0
 76
     0
330
1F
331
559
1001
ACAD_PSEXT
1000
Kein
1000
Kein
1000
Nicht anwendbar
1000
Das Layout wird erst geplottet, wenn ein neuer Plotter-Konfigurationsname ausgewählt wird.
1070
     0
  0
MATERIAL
  5
563
102
{ACAD_XDICTIONARY
360
564
102
}
102
{ACAD_REACTORS
330
9A
102
}
330
9A
100
AcDbMaterial
  1
ByBlock
 72
     0
 43
0.0008202099737533
 43
0.0
 43
0.0
 43
0.0
 43
0.0
 43
0.0008202099737533
 43
0.0
 43
0.0
 43
0.0
 43
0.0
 43
1.0
 43
0.0
 43
0.0
 43
0.0
 43
0.0
 43
1.0
 77
     0
 47
0.0008202099737533
 47
0.0
 47
0.0
 47
0.0
 47
0.0
 47
0.0008202099737533
 47
0.0
 47
0.0
 47
0.0
 47
0.0
 47
1.0
 47
0.0
 47
0.0
 47
0.0
 47
0.0
 47
1.0
171
     0
 49
0.0008202099737533
 49
0.0
 49
0.0
 49
0.0
 49
0.0
 49
0.0008202099737533
 49
0.0
 49
0.0
 49
0.0
 49
0.0
 49
1.0
 49
0.0
 49
0.0
 49
0.0
 49
0.0
 49
1.0
175
     0
142
0.0008202099737533
142
0.0
142
0.0
142
0.0
142
0.0
142
0.0008202099737533
142
0.0
142
0.0
142
0.0
142
0.0
142
1.0
142
0.0
142
0.0
142
0.0
142
0.0
142
1.0
179
     0
144
0.0008202099737533
144
0.0
144
0.0
144
0.0
144
0.0
144
0.0008202099737533
144
0.0
144
0.0
144
0.0
144
0.0
144
1.0
144
0.0
144
0.0
144
0.0
144
0.0
144
1.0
147
0.0008202099737533
147
0.0
147
0.0
147
0.0
147
0.0
147
0.0008202099737533
147
0.0
147
0.0
147
0.0
147
0.0
147
1.0
147
0.0
147
0.0
147
0.0
147
0.0
147
1.0
  0
MATERIAL
  5
55B
102
{ACAD_XDICTIONARY
360
55C
102
}
102
{ACAD_REACTORS
330
9A
102
}
330
9A
100
AcDbMaterial
  1
ByLayer
 72
     0
 43
0.0008202099737533
 43
0.0
 43
0.0
 43
0.0
 43
0.0
 43
0.0008202099737533
 43
0.0
 43
0.0
 43
0.0
 43
0.0
 43
1.0
 43
0.0
 43
0.0
 43
0.0
 43
0.0
 43
1.0
 77
     0
 47
0.0008202099737533
 47
0.0
 47
0.0
 47
0.0
 47
0.0
 47
0.0008202099737533
 47
0.0
 47
0.0
 47
0.0
 47
0.0
 47
1.0
 47
0.0
 47
0.0
 47
0.0
 47
0.0
 47
1.0
171
     0
 49
0.0008202099737533
 49
0.0
 49
0.0
 49
0.0
 49
0.0
 49
0.0008202099737533
 49
0.0
 49
0.0
 49
0.0
 49
0.0
 49
1.0
 49
0.0
 49
0.0
 49
0.0
 49
0.0
 49
1.0
175
     0
142
0.0008202099737533
142
0.0
142
0.0
142
0.0
142
0.0
142
0.0008202099737533
142
0.0
142
0.0
142
0.0
142
0.0
142
1.0
142
0.0
142
0.0
142
0.0
142
0.0
142
1.0
179
     0
144
0.0008202099737533
144
0.0
144
0.0
144
0.0
144
0.0
144
0.0008202099737533
144
0.0
144
0.0
144
0.0
144
0.0
144
1.0
144
0.0
144
0.0
144
0.0
144
0.0
144
1.0
147
0.0008202099737533
147
0.0
147
0.0
147
0.0
147
0.0
147
0.0008202099737533
147
0.0
147
0.0
147
0.0
147
0.0
147
1.0
147
0.0
147
0.0
147
0.0
147
0.0
147
1.0
  0
MATERIAL
  5
294
102
{ACAD_XDICTIONARY
360
72A
102
}
102
{ACAD_REACTORS
330
9A
102
}
330
9A
100
AcDbMaterial
  1
Global
 73
     1
 78
     1
172
     1
176
     1
270
     1
274
     1
  0
MLEADERSTYLE
  5
58F
102
{ACAD_REACTORS
330
58E
102
}
330
58E
100
AcDbMLeaderStyle
170
     2
171
     1
172
     0
 90
        2
 40
0.0
 41
0.0
173
     1
 91
-1056964608
340
14
 92
       -2
290
     1
 42
2.0
291
     1
 43
0.36
  3
Standard
 44
4.0
300

342
11
174
     1
178
     6
175
     1
176
     0
 93
-1056964608
 45
4.0
292
     0
297
     0
 46
4.0
 94
-1056964608
 47
1.0
 49
1.0
140
1.0
293
     1
141
0.0
294
     1
177
     0
142
1.0
295
     0
296
     0
143
0.125
1001
ACAD_MLEADERVER
1070
     2
  0
MLINESTYLE
  5
18
102
{ACAD_REACTORS
330
17
102
}
330
17
100
AcDbMlineStyle
  2
STANDARD
 70
     0
  3

 62
   256
 51
90.0
 52
90.0
 71
     2
 49
0.5
 62
   256
  6
BYLAYER
 49
-0.5
 62
   256
  6
BYLAYER
  0
ACDBPLACEHOLDER
  5
F
102
{ACAD_REACTORS
330
E
102
}
330
E
  0
SCALE
  5
57D
102
{ACAD_REACTORS
330
57C
102
}
330
57C
100
AcDbScale
 70
     0
300
1:1
140
1.0
141
1.0
290
     1
  0
SCALE
  5
57E
102
{ACAD_REACTORS
330
57C
102
}
330
57C
100
AcDbScale
 70
     0
300
1:2
140
1.0
141
2.0
290
     0
  0
SCALE
  5
57F
102
{ACAD_REACTORS
330
57C
102
}
330
57C
100
AcDbScale
 70
     0
300
1:4
140
1.0
141
4.0
290
     0
  0
SCALE
  5
580
102
{ACAD_REACTORS
330
57C
102
}
330
57C
100
AcDbScale
 70
     0
300
1:5
140
1.0
141
5.0
290
     0
  0
SCALE
  5
581
102
{ACAD_REACTORS
330
57C
102
}
330
57C
100
AcDbScale
 70
     0
300
1:8
140
1.0
141
8.0
290
     0
  0
SCALE
  5
582
102
{ACAD_REACTORS
330
57C
102
}
330
57C
100
AcDbScale
 70
     0
300
1:10
140
1.0
141
10.0
290
     0
  0
SCALE
  5
583
102
{ACAD_REACTORS
330
57C
102
}
330
57C
100
AcDbScale
 70
     0
300
1:16
140
1.0
141
16.0
290
     0
  0
SCALE
  5
584
102
{ACAD_REACTORS
330
57C
102
}
330
57C
100
AcDbScale
 70
     0
300
1:20
140
1.0
141
20.0
290
     0
  0
SCALE
  5
585
102
{ACAD_REACTORS
330
57C
102
}
330
57C
100
AcDbScale
 70
     0
300
1:30
140
1.0
141
30.0
290
     0
  0
SCALE
  5
586
102
{ACAD_REACTORS
330
57C
102
}
330
57C
100
AcDbScale
 70
     0
300
1:40
140
1.0
141
40.0
290
     0
  0
SCALE
  5
587
102
{ACAD_REACTORS
330
57C
102
}
330
57C
100
AcDbScale
 70
     0
300
1:50
140
1.0
141
50.0
290
     0
  0
SCALE
  5
588
102
{ACAD_REACTORS
330
57C
102
}
330
57C
100
AcDbScale
 70
     0
300
1:100
140
1.0
141
100.0
290
     0
  0
SCALE
  5
589
102
{ACAD_REACTORS
330
57C
102
}
330
57C
100
AcDbScale
 70
     0
300
2:1
140
2.0
141
1.0
290
     0
  0
SCALE
  5
58A
102
{ACAD_REACTORS
330
57C
102
}
330
57C
100
AcDbScale
 70
     0
300
4:1
140
4.0
141
1.0
290
     0
  0
SCALE
  5
58B
102
{ACAD_REACTORS
330
57C
102
}
330
57C
100
AcDbScale
 70
     0
300
8:1
140
8.0
141
1.0
290
     0
  0
SCALE
  5
58C
102
{ACAD_REACTORS
330
57C
102
}
330
57C
100
AcDbScale
 70
     0
300
10:1
140
10.0
141
1.0
290
     0
  0
SCALE
  5
58D
102
{ACAD_REACTORS
330
57C
102
}
330
57C
100
AcDbScale
 70
     0
300
100:1
140
100.0
141
1.0
290
     0
  0
TABLESTYLE
  5
9D
102
{ACAD_XDICTIONARY
360
6EF
102
}
102
{ACAD_REACTORS
330
9C
102
}
330
9C
100
AcDbTableStyle
  3
Standard
 70
     0
 71
     0
 40
1.5
 41
1.5
280
     0
281
     0
  7
STANDARD
140
4.5
170
     2
 62
     0
 63
     7
283
     0
274
    -2
284
     1
 64
     0
275
    -2
285
     1
 65
     0
276
    -2
286
     1
 66
     0
277
    -2
287
     1
 67
     0
278
    -2
288
     1
 68
     0
279
    -2
289
     1
 69
     0
  7
STANDARD
140
6.0
170
     5
 62
     0
 63
     7
283
     0
274
    -2
284
     1
 64
     0
275
    -2
285
     1
 65
     0
276
    -2
286
     1
 66
     0
277
    -2
287
     1
 67
     0
278
    -2
288
     1
 68
     0
279
    -2
289
     1
 69
     0
  7
STANDARD
140
4.5
170
     5
 62
     0
 63
     7
283
     0
274
    -2
284
     1
 64
     0
275
    -2
285
     1
 65
     0
276
    -2
286
     1
 66
     0
277
    -2
287
     1
 67
     0
278
    -2
288
     1
 68
     0
279
    -2
289
     1
 69
     0
  0
VISUALSTYLE
  5
571
102
{ACAD_REACTORS
330
56B
102
}
330
56B
100
AcDbVisualStyle
  2
2dWireframe
 70
     4
 71
     0
 72
     2
 73
     0
 90
        0
 40
-0.6
 41
-30.0
 62
     5
 63
     7
 74
     1
 91
        4
 64
     7
 65
   257
 75
     1
175
     1
 42
1.0
 92
        0
 66
   257
 43
1.0
 76
     1
 77
     6
 78
     2
 67
     7
 79
     5
170
     0
171
     0
290
     0
174
     0
 93
        1
 44
0.0
173
     0
291
     0
 45
0.0
1001
ACAD
1000
AcDbSavedByObjectVersion
1070
     0
  0
VISUALSTYLE
  5
573
102
{ACAD_REACTORS
330
56B
102
}
330
56B
100
AcDbVisualStyle
  2
3D Hidden
 70
     6
 71
     1
 72
     2
 73
     2
 90
        0
 40
-0.6
 41
-30.0
 62
     5
 63
     7
 74
     2
 91
        2
 64
     7
 65
   257
 75
     2
175
     1
 42
40.0
 92
        0
 66
   257
 43
1.0
 76
     1
 77
     6
 78
     2
 67
     7
 79
     3
170
     0
171
     0
290
     0
174
     0
 93
        1
 44
0.0
173
     0
291
     0
 45
0.0
1001
ACAD
1000
AcDbSavedByObjectVersion
1070
     0
  0
VISUALSTYLE
  5
572
102
{ACAD_REACTORS
330
56B
102
}
330
56B
100
AcDbVisualStyle
  2
3dWireframe
 70
     5
 71
     0
 72
     2
 73
     0
 90
        0
 40
-0.6
 41
-30.0
 62
     5
 63
     7
 74
     1
 91
        4
 64
     7
 65
   257
 75
     1
175
     1
 42
1.0
 92
        0
 66
   257
 43
1.0
 76
     1
 77
     6
 78
     2
 67
     7
 79
     5
170
     0
171
     0
290
     0
174
     0
 93
        1
 44
0.0
173
     0
291
     0
 45
0.0
1001
ACAD
1000
AcDbSavedByObjectVersion
1070
     0
  0
VISUALSTYLE
  5
570
102
{ACAD_REACTORS
330
56B
102
}
330
56B
100
AcDbVisualStyle
  2
Basic
 70
     7
 71
     1
 72
     0
 73
     1
 90
        0
 40
-0.6
 41
-30.0
 62
     5
 63
     7
 74
     0
 91
        4
 64
     7
 65
   257
 75
     1
175
     1
 42
1.0
 92
        8
 66
     7
 43
1.0
 76
     1
 77
     6
 78
     2
 67
     7
 79
     5
170
     0
171
     0
290
     0
174
     0
 93
        1
 44
0.0
173
     0
291
     1
 45
0.0
1001
ACAD
1000
AcDbSavedByObjectVersion
1070
     0
  0
VISUALSTYLE
  5
577
102
{ACAD_REACTORS
330
56B
102
}
330
56B
100
AcDbVisualStyle
  2
Brighten
 70
    12
 71
     2
 72
     2
 73
     0
 90
        0
 40
-0.6
 41
-30.0
 62
     5
 63
     7
 74
     1
 91
        4
 64
     7
 65
   257
 75
     1
175
     1
 42
1.0
 92
        8
 66
     7
 43
1.0
 76
     1
 77
     6
 78
     2
 67
     7
 79
     5
170
     0
171
     0
290
     0
174
     0
 93
        1
 44
50.0
173
     0
291
     1
 45
0.0
1001
ACAD
1000
AcDbSavedByObjectVersion
1070
     0
  0
VISUALSTYLE
  5
57B
102
{ACAD_REACTORS
330
56B
102
}
330
56B
100
AcDbVisualStyle
  2
ColorChange
 70
    16
 71
     2
 72
     2
 73
     3
 90
        0
 40
-0.6
 41
-30.0
 62
     5
 63
     8
 74
     1
 91
        4
 64
     7
 65
   257
 75
     1
175
     1
 42
1.0
 92
        8
 66
     8
 43
1.0
 76
     1
 77
     6
 78
     2
 67
     7
 79
     5
170
     0
171
     0
290
     0
174
     0
 93
        1
 44
0.0
173
     0
291
     1
 45
0.0
1001
ACAD
1000
AcDbSavedByObjectVersion
1070
     0
  0
VISUALSTYLE
  5
574
102
{ACAD_REACTORS
330
56B
102
}
330
56B
100
AcDbVisualStyle
  2
Conceptual
 70
     9
 71
     3
 72
     2
 73
     0
 90
        0
 40
-0.6
 41
-30.0
 62
     5
 63
     7
 74
     2
 91
        2
 64
     7
 65
   257
 75
     1
175
     1
 42
40.0
 92
        8
 66
     7
 43
1.0
 76
     1
 77
     6
 78
     2
 67
     7
 79
     3
170
     0
171
     0
290
     0
174
     0
 93
        1
 44
0.0
173
     0
291
     0
 45
0.0
1001
ACAD
1000
AcDbSavedByObjectVersion
1070
     0
  0
VISUALSTYLE
  5
576
102
{ACAD_REACTORS
330
56B
102
}
330
56B
100
AcDbVisualStyle
  2
Dim
 70
    11
 71
     2
 72
     2
 73
     0
 90
        0
 40
-0.6
 41
-30.0
 62
     5
 63
     7
 74
     1
 91
        4
 64
     7
 65
   257
 75
     1
175
     1
 42
1.0
 92
        8
 66
     7
 43
1.0
 76
     1
 77
     6
 78
     2
 67
     7
 79
     5
170
     0
171
     0
290
     0
174
     0
 93
        1
 44
-50.0
173
     0
291
     1
 45
0.0
1001
ACAD
1000
AcDbSavedByObjectVersion
1070
     0
  0
VISUALSTYLE
  5
57A
102
{ACAD_REACTORS
330
56B
102
}
330
56B
100
AcDbVisualStyle
  2
Facepattern
 70
    15
 71
     2
 72
     2
 73
     0
 90
        0
 40
-0.6
 41
-30.0
 62
     5
 63
     7
 74
     1
 91
        4
 64
     7
 65
   257
 75
     1
175
     1
 42
1.0
 92
        8
 66
     7
 43
1.0
 76
     1
 77
     6
 78
     2
 67
     7
 79
     5
170
     0
171
     0
290
     0
174
     0
 93
        1
 44
0.0
173
     0
291
     1
 45
0.0
1001
ACAD
1000
AcDbSavedByObjectVersion
1070
     0
  0
VISUALSTYLE
  5
56C
102
{ACAD_REACTORS
330
56B
102
}
330
56B
100
AcDbVisualStyle
  2
Flat
 70
     0
 71
     2
 72
     1
 73
     1
 90
        2
 40
-0.6
 41
30.0
 62
     5
 63
     7
 74
     0
 91
        4
 64
     7
 65
   257
 75
     1
175
     1
 42
1.0
 92
        8
 66
     7
 43
1.0
 76
     1
 77
     6
 78
     2
 67
     7
 79
     5
170
     0
171
     0
290
     0
174
     0
 93
       13
 44
0.0
173
     0
291
     1
 45
0.0
1001
ACAD
1000
AcDbSavedByObjectVersion
1070
     0
  0
VISUALSTYLE
  5
56D
102
{ACAD_REACTORS
330
56B
102
}
330
56B
100
AcDbVisualStyle
  2
FlatWithEdges
 70
     1
 71
     2
 72
     1
 73
     1
 90
        2
 40
-0.6
 41
30.0
 62
     5
 63
     7
 74
     1
 91
        4
 64
     7
 65
   257
 75
     1
175
     1
 42
1.0
 92
        0
 66
   257
 43
1.0
 76
     1
 77
     6
 78
     2
 67
     7
 79
     5
170
     0
171
     0
290
     0
174
     0
 93
       13
 44
0.0
173
     0
291
     1
 45
0.0
1001
ACAD
1000
AcDbSavedByObjectVersion
1070
     0
  0
VISUALSTYLE
  5
56E
102
{ACAD_REACTORS
330
56B
102
}
330
56B
100
AcDbVisualStyle
  2
Gouraud
 70
     2
 71
     2
 72
     2
 73
     1
 90
        2
 40
-0.6
 41
30.0
 62
     5
 63
     7
 74
     0
 91
        4
 64
     7
 65
   257
 75
     1
175
     1
 42
1.0
 92
        0
 66
     7
 43
1.0
 76
     1
 77
     6
 78
     2
 67
     7
 79
     5
170
     0
171
     0
290
     0
174
     0
 93
       13
 44
0.0
173
     0
291
     1
 45
0.0
1001
ACAD
1000
AcDbSavedByObjectVersion
1070
     0
  0
VISUALSTYLE
  5
56F
102
{ACAD_REACTORS
330
56B
102
}
330
56B
100
AcDbVisualStyle
  2
GouraudWithEdges
 70
     3
 71
     2
 72
     2
 73
     1
 90
        2
 40
-0.6
 41
30.0
 62
     5
 63
     7
 74
     1
 91
        4
 64
     7
 65
   257
 75
     1
175
     1
 42
1.0
 92
        0
 66
   257
 43
1.0
 76
     1
 77
     6
 78
     2
 67
     7
 79
     5
170
     0
171
     0
290
     0
174
     0
 93
       13
 44
0.0
173
     0
291
     1
 45
0.0
1001
ACAD
1000
AcDbSavedByObjectVersion
1070
     0
  0
VISUALSTYLE
  5
579
102
{ACAD_REACTORS
330
56B
102
}
330
56B
100
AcDbVisualStyle
  2
Linepattern
 70
    14
 71
     2
 72
     2
 73
     0
 90
        0
 40
-0.6
 41
-30.0
 62
     5
 63
     7
 74
     1
 91
        4
 64
     7
 65
   257
 75
     7
175
     7
 42
1.0
 92
        8
 66
     7
 43
1.0
 76
     1
 77
     6
 78
     2
 67
     7
 79
     5
170
     0
171
     0
290
     0
174
     0
 93
        1
 44
0.0
173
     0
291
     1
 45
0.0
1001
ACAD
1000
AcDbSavedByObjectVersion
1070
     0
  0
VISUALSTYLE
  5
575
102
{ACAD_REACTORS
330
56B
102
}
330
56B
100
AcDbVisualStyle
  2
Realistic
 70
     8
 71
     2
 72
     2
 73
     0
 90
        0
 40
-0.6
 41
-30.0
 62
     5
 63
     7
 74
     1
 91
        0
 64
     7
 65
   257
 75
     1
175
     1
 42
1.0
 92
        8
 66
     8
 43
1.0
 76
     1
 77
     6
 78
     2
 67
     7
 79
     5
170
     0
171
     0
290
     0
174
     0
 93
       13
 44
0.0
173
     0
291
     0
 45
0.0
1001
ACAD
1000
AcDbSavedByObjectVersion
1070
     0
  0
VISUALSTYLE
  5
578
102
{ACAD_REACTORS
330
56B
102
}
330
56B
100
AcDbVisualStyle
  2
Thicken
 70
    13
 71
     2
 72
     2
 73
     0
 90
        0
 40
-0.6
 41
-30.0
 62
     5
 63
     7
 74
     1
 91
        4
 64
     7
 65
   257
 75
     1
175
     1
 42
1.0
 92
       12
 66
     7
 43
1.0
 76
     1
 77
     6
 78
     2
 67
     7
 79
     5
170
     0
171
     0
290
     0
174
     0
 93
        1
 44
0.0
173
     0
291
     1
 45
0.0
1001
ACAD
1000
AcDbSavedByObjectVersion
1070
     0
  0
DICTIONARYVAR
  5
6F4
102
{ACAD_REACTORS
330
34
102
}
330
34
100
DictionaryVariables
280
     0
  1
1:1
  0
DICTIONARYVAR
  5
6F2
102
{ACAD_REACTORS
330
34
102
}
330
34
100
DictionaryVariables
280
     0
  1
STANDARD
  0
DICTIONARYVAR
  5
10F
102
{ACAD_REACTORS
330
34
102
}
330
34
100
DictionaryVariables
280
     0
  1
STANDARD
  0
DICTIONARYVAR
  5
71C
102
{ACAD_REACTORS
330
34
102
}
330
34
100
DictionaryVariables
280
     0
  1
1
  0
DICTIONARYVAR
  5
35
102
{ACAD_REACTORS
330
34
102
}
330
34
100
DictionaryVariables
280
     0
  1
0
  0
DICTIONARYVAR
  5
6F6
102
{ACAD_REACTORS
330
34
102
}
330
34
100
DictionaryVariables
280
     0
  1
1
  0
DICTIONARYVAR
  5
6F7
102
{ACAD_REACTORS
330
34
102
}
330
34
100
DictionaryVariables
280
     0
  1
15
  0
DICTIONARYVAR
  5
6F5
102
{ACAD_REACTORS
330
34
102
}
330
34
100
DictionaryVariables
280
     0
  1
0
  0
DICTIONARYVAR
  5
6F3
102
{ACAD_REACTORS
330
34
102
}
330
34
100
DictionaryVariables
280
     0
  1
0
  0
DICTIONARYVAR
  5
71B
102
{ACAD_REACTORS
330
34
102
}
330
34
100
DictionaryVariables
280
     0
  1
127
  0
DICTIONARY
  5
4C
102
{ACAD_REACTORS
330
47
102
}
330
47
100
AcDbDictionary
281
     1
  0
XRECORD
  5
F5
102
{ACAD_REACTORS
330
47
102
}
330
47
100
AcDbXrecord
280
     1
 90
-1023410169
  0
XRECORD
  5
6CA
102
{ACAD_REACTORS
330
6C9
102
}
330
6C9
100
AcDbXrecord
280
     1
330
237
330
238
330
5BB
330
5DF
330
646
330
663
330
66D
330
677
330
681
330
68B
330
695
330
69F
330
1CF
  0
DICTIONARY
  5
721
330
1E
100
AcDbDictionary
280
     1
281
     1
  3
ACAD_XREC_ROUNDTRIP
360
722
  0
DICTIONARY
  5
725
330
26
100
AcDbDictionary
280
     1
281
     1
  3
ACAD_XREC_ROUNDTRIP
360
726
  0
DICTIONARY
  5
723
330
22
100
AcDbDictionary
280
     1
281
     1
  3
ACAD_XREC_ROUNDTRIP
360
724
  0
DICTIONARY
  5
564
330
563
100
AcDbDictionary
280
     1
281
     1
  3
ACAD_XREC_ROUNDTRIP
360
72D
  3
BUMPTILE
360
566
  3
DIFFUSETILE
360
565
  3
OPACITYTILE
360
569
  3
REFLECTIONTILE
360
568
  3
REFRACTIONTILE
360
56A
  3
SPECULARTILE
360
567
  0
DICTIONARY
  5
55C
330
55B
100
AcDbDictionary
280
     1
281
     1
  3
ACAD_XREC_ROUNDTRIP
360
72C
  3
BUMPTILE
360
55E
  3
DIFFUSETILE
360
55D
  3
OPACITYTILE
360
561
  3
REFLECTIONTILE
360
560
  3
REFRACTIONTILE
360
562
  3
SPECULARTILE
360
55F
  0
DICTIONARY
  5
72A
330
294
100
AcDbDictionary
280
     1
281
     1
  3
ACAD_XREC_ROUNDTRIP
360
72B
  0
DICTIONARY
  5
6EF
330
9D
100
AcDbDictionary
280
     1
281
     1
  3
ACAD_ROUNDTRIP_2008_TABLESTYLE_CELLSTYLEMAP
360
71D
  3
ACAD_XREC_ROUNDTRIP
360
727
  0
XRECORD
  5
722
102
{ACAD_REACTORS
330
721
102
}
330
721
100
AcDbXrecord
280
     1
102
SHADEPLOT
 70
     0
102
SHADEPLOTRESLEVEL
 70
     2
102
SHADEPLOTCUSTOMDPI
 70
   300
  0
XRECORD
  5
726
102
{ACAD_REACTORS
330
725
102
}
330
725
100
AcDbXrecord
280
     1
102
SHADEPLOT
 70
     0
102
SHADEPLOTRESLEVEL
 70
     2
102
SHADEPLOTCUSTOMDPI
 70
   300
  0
XRECORD
  5
724
102
{ACAD_REACTORS
330
723
102
}
330
723
100
AcDbXrecord
280
     1
102
SHADEPLOT
 70
     0
102
SHADEPLOTRESLEVEL
 70
     2
102
SHADEPLOTCUSTOMDPI
 70
   300
  0
XRECORD
  5
72D
102
{ACAD_REACTORS
330
564
102
}
330
564
100
AcDbXrecord
280
     1
102
MATERIAL
148
0.0
149
0.0
149
0.0
 93
        0
 94
      127
282
     0
 72
     0
 77
     0
171
     0
175
     0
179
     0
273
     0
  0
XRECORD
  5
566
102
{ACAD_REACTORS
330
564
102
}
330
564
100
AcDbXrecord
280
     1
270
     1
271
     1
  0
XRECORD
  5
565
102
{ACAD_REACTORS
330
564
102
}
330
564
100
AcDbXrecord
280
     1
270
     1
271
     1
  0
XRECORD
  5
569
102
{ACAD_REACTORS
330
564
102
}
330
564
100
AcDbXrecord
280
     1
270
     1
271
     1
  0
XRECORD
  5
568
102
{ACAD_REACTORS
330
564
102
}
330
564
100
AcDbXrecord
280
     1
270
     1
271
     1
  0
XRECORD
  5
56A
102
{ACAD_REACTORS
330
564
102
}
330
564
100
AcDbXrecord
280
     1
270
     1
271
     1
  0
XRECORD
  5
567
102
{ACAD_REACTORS
330
564
102
}
330
564
100
AcDbXrecord
280
     1
270
     1
271
     1
  0
XRECORD
  5
72C
102
{ACAD_REACTORS
330
55C
102
}
330
55C
100
AcDbXrecord
280
     1
102
MATERIAL
148
0.0
149
0.0
149
0.0
 93
        0
 94
      127
282
     0
 72
     0
 77
     0
171
     0
175
     0
179
     0
273
     0
  0
XRECORD
  5
55E
102
{ACAD_REACTORS
330
55C
102
}
330
55C
100
AcDbXrecord
280
     1
270
     1
271
     1
  0
XRECORD
  5
55D
102
{ACAD_REACTORS
330
55C
102
}
330
55C
100
AcDbXrecord
280
     1
270
     1
271
     1
  0
XRECORD
  5
561
102
{ACAD_REACTORS
330
55C
102
}
330
55C
100
AcDbXrecord
280
     1
270
     1
271
     1
  0
XRECORD
  5
560
102
{ACAD_REACTORS
330
55C
102
}
330
55C
100
AcDbXrecord
280
     1
270
     1
271
     1
  0
XRECORD
  5
562
102
{ACAD_REACTORS
330
55C
102
}
330
55C
100
AcDbXrecord
280
     1
270
     1
271
     1
  0
XRECORD
  5
55F
102
{ACAD_REACTORS
330
55C
102
}
330
55C
100
AcDbXrecord
280
     1
270
     1
271
     1
  0
XRECORD
  5
72B
102
{ACAD_REACTORS
330
72A
102
}
330
72A
100
AcDbXrecord
280
     1
102
MATERIAL
148
0.0
149
0.0
149
0.0
 93
        0
 94
       63
282
     0
 72
     1
 77
     1
171
     1
175
     1
179
     1
273
     0
  0
CELLSTYLEMAP
  5
71D
102
{ACAD_REACTORS
330
6EF
102
}
330
6EF
100
AcDbCellStyleMap
 90
        3
300
CELLSTYLE
  1
TABLEFORMAT_BEGIN
 90
        5
170
     1
 91
        0
 92
    32768
 62
   257
 93
        1
300
CONTENTFORMAT
  1
CONTENTFORMAT_BEGIN
 90
        0
 91
        0
 92
        4
 93
        0
300

 40
0.0
140
1.0
 94
        5
 62
     0
340
11
144
6.0
309
CONTENTFORMAT_END
171
     1
301
MARGIN
  1
CELLMARGIN_BEGIN
 40
1.5
 40
1.5
 40
1.5
 40
1.5
 40
0.18
 40
0.18
309
CELLMARGIN_END
 94
        6
 95
        1
302
GRIDFORMAT
  1
GRIDFORMAT_BEGIN
 90
        0
 91
        1
 62
     0
 92
       -2
340
0
 93
        0
 40
0.045
309
GRIDFORMAT_END
 95
        2
302
GRIDFORMAT
  1
GRIDFORMAT_BEGIN
 90
        0
 91
        1
 62
     0
 92
       -2
340
0
 93
        0
 40
0.045
309
GRIDFORMAT_END
 95
        4
302
GRIDFORMAT
  1
GRIDFORMAT_BEGIN
 90
        0
 91
        1
 62
     0
 92
       -2
340
0
 93
        0
 40
0.045
309
GRIDFORMAT_END
 95
        8
302
GRIDFORMAT
  1
GRIDFORMAT_BEGIN
 90
        0
 91
        1
 62
     0
 92
       -2
340
0
 93
        0
 40
0.045
309
GRIDFORMAT_END
 95
       16
302
GRIDFORMAT
  1
GRIDFORMAT_BEGIN
 90
        0
 91
        1
 62
     0
 92
       -2
340
0
 93
        0
 40
0.045
309
GRIDFORMAT_END
 95
       32
302
GRIDFORMAT
  1
GRIDFORMAT_BEGIN
 90
        0
 91
        1
 62
     0
 92
       -2
340
0
 93
        0
 40
0.045
309
GRIDFORMAT_END
309
TABLEFORMAT_END
  1
CELLSTYLE_BEGIN
 90
        1
 91
        1
300
_TITLE
309
CELLSTYLE_END
300
CELLSTYLE
  1
TABLEFORMAT_BEGIN
 90
        5
170
     1
 91
        0
 92
        0
 62
   257
 93
        1
300
CONTENTFORMAT
  1
CONTENTFORMAT_BEGIN
 90
        0
 91
        0
 92
        4
 93
        0
300

 40
0.0
140
1.0
 94
        5
 62
     0
340
11
144
4.5
309
CONTENTFORMAT_END
171
     1
301
MARGIN
  1
CELLMARGIN_BEGIN
 40
1.5
 40
1.5
 40
1.5
 40
1.5
 40
0.18
 40
0.18
309
CELLMARGIN_END
 94
        6
 95
        1
302
GRIDFORMAT
  1
GRIDFORMAT_BEGIN
 90
        0
 91
        1
 62
     0
 92
       -2
340
0
 93
        0
 40
0.045
309
GRIDFORMAT_END
 95
        2
302
GRIDFORMAT
  1
GRIDFORMAT_BEGIN
 90
        0
 91
        1
 62
     0
 92
       -2
340
0
 93
        0
 40
0.045
309
GRIDFORMAT_END
 95
        4
302
GRIDFORMAT
  1
GRIDFORMAT_BEGIN
 90
        0
 91
        1
 62
     0
 92
       -2
340
0
 93
        0
 40
0.045
309
GRIDFORMAT_END
 95
        8
302
GRIDFORMAT
  1
GRIDFORMAT_BEGIN
 90
        0
 91
        1
 62
     0
 92
       -2
340
0
 93
        0
 40
0.045
309
GRIDFORMAT_END
 95
       16
302
GRIDFORMAT
  1
GRIDFORMAT_BEGIN
 90
        0
 91
        1
 62
     0
 92
       -2
340
0
 93
        0
 40
0.045
309
GRIDFORMAT_END
 95
       32
302
GRIDFORMAT
  1
GRIDFORMAT_BEGIN
 90
        0
 91
        1
 62
     0
 92
       -2
340
0
 93
        0
 40
0.045
309
GRIDFORMAT_END
309
TABLEFORMAT_END
  1
CELLSTYLE_BEGIN
 90
        2
 91
        1
300
_HEADER
309
CELLSTYLE_END
300
CELLSTYLE
  1
TABLEFORMAT_BEGIN
 90
        5
170
     1
 91
        0
 92
        0
 62
   257
 93
        1
300
CONTENTFORMAT
  1
CONTENTFORMAT_BEGIN
 90
        0
 91
        0
 92
        4
 93
        0
300

 40
0.0
140
1.0
 94
        2
 62
     0
340
11
144
4.5
309
CONTENTFORMAT_END
171
     1
301
MARGIN
  1
CELLMARGIN_BEGIN
 40
1.5
 40
1.5
 40
1.5
 40
1.5
 40
0.18
 40
0.18
309
CELLMARGIN_END
 94
        6
 95
        1
302
GRIDFORMAT
  1
GRIDFORMAT_BEGIN
 90
        0
 91
        1
 62
     0
 92
       -2
340
0
 93
        0
 40
0.045
309
GRIDFORMAT_END
 95
        2
302
GRIDFORMAT
  1
GRIDFORMAT_BEGIN
 90
        0
 91
        1
 62
     0
 92
       -2
340
0
 93
        0
 40
0.045
309
GRIDFORMAT_END
 95
        4
302
GRIDFORMAT
  1
GRIDFORMAT_BEGIN
 90
        0
 91
        1
 62
     0
 92
       -2
340
0
 93
        0
 40
0.045
309
GRIDFORMAT_END
 95
        8
302
GRIDFORMAT
  1
GRIDFORMAT_BEGIN
 90
        0
 91
        1
 62
     0
 92
       -2
340
0
 93
        0
 40
0.045
309
GRIDFORMAT_END
 95
       16
302
GRIDFORMAT
  1
GRIDFORMAT_BEGIN
 90
        0
 91
        1
 62
     0
 92
       -2
340
0
 93
        0
 40
0.045
309
GRIDFORMAT_END
 95
       32
302
GRIDFORMAT
  1
GRIDFORMAT_BEGIN
 90
        0
 91
        1
 62
     0
 92
       -2
340
0
 93
        0
 40
0.045
309
GRIDFORMAT_END
309
TABLEFORMAT_END
  1
CELLSTYLE_BEGIN
 90
        3
 91
        2
300
_DATA
309
CELLSTYLE_END
  0
XRECORD
  5
727
102
{ACAD_REACTORS
330
6EF
102
}
330
6EF
100
AcDbXrecord
280
     1
102
ACAD_ROUNDTRIP_PRE2007_TABLESTYLE
 90
        4
 91
        0
  1

 92
        4
 93
        0
  2

 94
        4
 95
        0
  3

  0
ENDSEC
  0
EOF
