  0
SECTION
  2
HEADER
  9
$ACADVER
  1
AC1015
  9
$ACADMAINTVER
 70
    20
  9
$DWGCODEPAGE
  3
ANSI_1252
  9
$INSBASE
 10
0.0
 20
0.0
 30
0.0
  9
$EXTMIN
 10
0.6921396505695157
 20
271.6766519016157
 30
-0.0000000000000733
  9
$EXTMAX
 10
303.8232430301412
 20
366.571109435529
 30
0.0000000000016674
  9
$LIMMIN
 10
0.0
 20
0.0
  9
$LIMMAX
 10
420.0
 20
297.0
  9
$ORTHOMODE
 70
     1
  9
$REGENMODE
 70
     1
  9
$FILLMODE
 70
     1
  9
$QTEXTMODE
 70
     0
  9
$MIRRTEXT
 70
     1
  9
$LTSCALE
 40
1.0
  9
$ATTMODE
 70
     1
  9
$TEXTSIZE
 40
0.0
  9
$TRACEWID
 40
1.0
  9
$TEXTSTYLE
  7
STANDARD
  9
$CLAYER
  8
0
  9
$CELTYPE
  6
BYLAYER
  9
$CECOLOR
 62
   256
  9
$CELTSCALE
 40
1.0
  9
$DISPSILH
 70
     0
  9
$DIMSCALE
 40
1.0
  9
$DIMASZ
 40
2.5
  9
$DIMEXO
 40
0.625
  9
$DIMDLI
 40
3.75
  9
$DIMRND
 40
0.0
  9
$DIMDLE
 40
0.0
  9
$DIMEXE
 40
1.25
  9
$DIMTP
 40
0.0
  9
$DIMTM
 40
0.0
  9
$DIMTXT
 40
2.5
  9
$DIMCEN
 40
2.5
  9
$DIMTSZ
 40
0.0
  9
$DIMTOL
 70
     0
  9
$DIMLIM
 70
     0
  9
$DIMTIH
 70
     0
  9
$DIMTOH
 70
     0
  9
$DIMSE1
 70
     0
  9
$DIMSE2
 70
     0
  9
$DIMTAD
 70
     1
  9
$DIMZIN
 70
     8
  9
$DIMBLK
  1

  9
$DIMASO
 70
     1
  9
$DIMSHO
 70
     1
  9
$DIMPOST
  1

  9
$DIMAPOST
  1

  9
$DIMALT
 70
     0
  9
$DIMALTD
 70
     3
  9
$DIMALTF
 40
0.03937
  9
$DIMLFAC
 40
1.0
  9
$DIMTOFL
 70
     1
  9
$DIMTVP
 40
0.0
  9
$DIMTIX
 70
     0
  9
$DIMSOXD
 70
     0
  9
$DIMSAH
 70
     0
  9
$DIMBLK1
  1

  9
$DIMBLK2
  1

  9
$DIMSTYLE
  2
STANDARD
  9
$DIMCLRD
 70
     0
  9
$DIMCLRE
 70
     0
  9
$DIMCLRT
 70
     0
  9
$DIMTFAC
 40
1.0
  9
$DIMGAP
 40
0.625
  9
$DIMJUST
 70
     0
  9
$DIMSD1
 70
     0
  9
$DIMSD2
 70
     0
  9
$DIMTOLJ
 70
     0
  9
$DIMTZIN
 70
     8
  9
$DIMALTZ
 70
     0
  9
$DIMALTTZ
 70
     0
  9
$DIMUPT
 70
     0
  9
$DIMDEC
 70
     2
  9
$DIMTDEC
 70
     2
  9
$DIMALTU
 70
     2
  9
$DIMALTTD
 70
     3
  9
$DIMTXSTY
  7
STANDARD
  9
$DIMAUNIT
 70
     0
  9
$DIMADEC
 70
     0
  9
$DIMALTRND
 40
0.0
  9
$DIMAZIN
 70
     0
  9
$DIMDSEP
 70
    46
  9
$DIMATFIT
 70
     3
  9
$DIMFRAC
 70
     0
  9
$DIMLDRBLK
  1

  9
$DIMLUNIT
 70
     2
  9
$DIMLWD
 70
    -2
  9
$DIMLWE
 70
    -2
  9
$DIMTMOVE
 70
     0
  9
$LUNITS
 70
     2
  9
$LUPREC
 70
     2
  9
$SKETCHINC
 40
1.0
  9
$FILLETRAD
 40
2.5
  9
$AUNITS
 70
     0
  9
$AUPREC
 70
     0
  9
$MENU
  1
.
  9
$ELEVATION
 40
0.0
  9
$PELEVATION
 40
0.0
  9
$THICKNESS
 40
0.0
  9
$LIMCHECK
 70
     0
  9
$CHAMFERA
 40
2.5
  9
$CHAMFERB
 40
2.5
  9
$CHAMFERC
 40
0.0
  9
$CHAMFERD
 40
0.0
  9
$SKPOLY
 70
     0
  9
$TDCREATE
 40
2305814.083842720
  9
$TDUCREATE
 40
6.0000000000
  9
$TDUPDATE
 40
2454043.816590197
  9
$TDUUPDATE
 40
2454043.774923530
  9
$TDINDWG
 40
0.0129458218
  9
$TDUSRTIMER
 40
0.0129457060
  9
$USRTIMER
 70
     1
  9
$ANGBASE
 50
0.0
  9
$ANGDIR
 70
     0
  9
$PDMODE
 70
     0
  9
$PDSIZE
 40
0.0
  9
$PLINEWID
 40
0.0
  9
$SPLFRAME
 70
     0
  9
$SPLINETYPE
 70
     6
  9
$SPLINESEGS
 70
     8
  9
$HANDSEED
  5
2174
  9
$SURFTAB1
 70
     6
  9
$SURFTAB2
 70
     6
  9
$SURFTYPE
 70
     6
  9
$SURFU
 70
     6
  9
$SURFV
 70
     6
  9
$UCSBASE
  2

  9
$UCSNAME
  2

  9
$UCSORG
 10
0.0
 20
0.0
 30
0.0
  9
$UCSXDIR
 10
1.0
 20
0.0
 30
0.0
  9
$UCSYDIR
 10
0.0
 20
1.0
 30
0.0
  9
$UCSORTHOREF
  2

  9
$UCSORTHOVIEW
 70
     0
  9
$UCSORGTOP
 10
0.0
 20
0.0
 30
0.0
  9
$UCSORGBOTTOM
 10
0.0
 20
0.0
 30
0.0
  9
$UCSORGLEFT
 10
0.0
 20
0.0
 30
0.0
  9
$UCSORGRIGHT
 10
0.0
 20
0.0
 30
0.0
  9
$UCSORGFRONT
 10
0.0
 20
0.0
 30
0.0
  9
$UCSORGBACK
 10
0.0
 20
0.0
 30
0.0
  9
$PUCSBASE
  2

  9
$PUCSNAME
  2

  9
$PUCSORG
 10
0.0
 20
0.0
 30
0.0
  9
$PUCSXDIR
 10
1.0
 20
0.0
 30
0.0
  9
$PUCSYDIR
 10
0.0
 20
1.0
 30
0.0
  9
$PUCSORTHOREF
  2

  9
$PUCSORTHOVIEW
 70
     0
  9
$PUCSORGTOP
 10
0.0
 20
0.0
 30
0.0
  9
$PUCSORGBOTTOM
 10
0.0
 20
0.0
 30
0.0
  9
$PUCSORGLEFT
 10
0.0
 20
0.0
 30
0.0
  9
$PUCSORGRIGHT
 10
0.0
 20
0.0
 30
0.0
  9
$PUCSORGFRONT
 10
0.0
 20
0.0
 30
0.0
  9
$PUCSORGBACK
 10
0.0
 20
0.0
 30
0.0
  9
$USERI1
 70
     0
  9
$USERI2
 70
     0
  9
$USERI3
 70
     0
  9
$USERI4
 70
     0
  9
$USERI5
 70
     0
  9
$USERR1
 40
0.0
  9
$USERR2
 40
0.0
  9
$USERR3
 40
0.0
  9
$USERR4
 40
0.0
  9
$USERR5
 40
0.0
  9
$WORLDVIEW
 70
     1
  9
$SHADEDGE
 70
     3
  9
$SHADEDIF
 70
    70
  9
$TILEMODE
 70
     1
  9
$MAXACTVP
 70
    48
  9
$PINSBASE
 10
0.0
 20
0.0
 30
0.0
  9
$PLIMCHECK
 70
     0
  9
$PEXTMIN
 10
0.0
 20
0.0
 30
0.0
  9
$PEXTMAX
 10
471.248962
 20
393.345886
 30
2.0
  9
$PLIMMIN
 10
0.0
 20
0.0
  9
$PLIMMAX
 10
420.0
 20
297.0
  9
$UNITMODE
 70
     0
  9
$VISRETAIN
 70
     0
  9
$PLINEGEN
 70
     0
  9
$PSLTSCALE
 70
     1
  9
$TREEDEPTH
 70
  3020
  9
$CMLSTYLE
  2
STANDARD
  9
$CMLJUST
 70
     0
  9
$CMLSCALE
 40
20.0
  9
$PROXYGRAPHICS
 70
     1
  9
$MEASUREMENT
 70
     1
  9
$CELWEIGHT
370
    -1
  9
$ENDCAPS
280
     0
  9
$JOINSTYLE
280
     0
  9
$LWDISPLAY
290
     0
  9
$INSUNITS
 70
     0
  9
$HYPERLINKBASE
  1

  9
$STYLESHEET
  1

  9
$XEDIT
290
     1
  9
$CEPSNTYPE
380
     0
  9
$PSTYLEMODE
290
     1
  9
$FINGERPRINTGUID
  2
{ED8EB2AE-2D49-4515-B503-696BD1D7C058}
  9
$VERSIONGUID
  2
{37B27584-FEA6-4625-9053-D81C38DC5E11}
  9
$EXTNAMES
290
     1
  9
$PSVPSCALE
 40
0.0
  9
$OLESTARTUP
290
     0
  0
ENDSEC
  0
SECTION
  2
CLASSES
  0
CLASS
  1
IMAGE
  2
AcDbRasterImage
  3
ISM
 90
    32895
280
     0
281
     1
  0
CLASS
  1
DICTIONARYVAR
  2
AcDbDictionaryVar
  3
ObjectDBX Classes
 90
        0
280
     0
281
     0
  0
CLASS
  1
RASTERVARIABLES
  2
AcDbRasterVariables
  3
ISM
 90
    32768
280
     0
281
     0
  0
CLASS
  1
IMAGEDEF
  2
AcDbRasterImageDef
  3
ISM
 90
    32768
280
     0
281
     0
  0
CLASS
  1
IMAGEDEF_REACTOR
  2
AcDbRasterImageDefReactor
  3
ISM
 90
    32769
280
     0
281
     0
  0
CLASS
  1
IDBUFFER
  2
AcDbIdBuffer
  3
ObjectDBX Classes
 90
    32768
280
     0
281
     0
  0
CLASS
  1
SPATIAL_FILTER
  2
AcDbSpatialFilter
  3
ObjectDBX Classes
 90
    32768
280
     0
281
     0
  0
CLASS
  1
SORTENTSTABLE
  2
AcDbSortentsTable
  3
ObjectDBX Classes
 90
    32768
280
     0
281
     0
  0
CLASS
  1
LAYER_INDEX
  2
AcDbLayerIndex
  3
ObjectDBX Classes
 90
    32768
280
     0
281
     0
  0
CLASS
  1
SPATIAL_INDEX
  2
AcDbSpatialIndex
  3
ObjectDBX Classes
 90
    32768
280
     0
281
     0
  0
CLASS
  1
OBJECT_PTR
  2
CAseDLPNTableRecord
  3
ASE-LPNTableRecord
 90
    32769
280
     0
281
     0
  0
CLASS
  1
LAYOUT
  2
AcDbLayout
  3
ObjectDBX Classes
 90
        0
280
     0
281
     0
  0
CLASS
  1
PLOTSETTINGS
  2
AcDbPlotSettings
  3
ObjectDBX Classes
 90
    32768
280
     0
281
     0
  0
CLASS
  1
ACDBDICTIONARYWDFLT
  2
AcDbDictionaryWithDefault
  3
ObjectDBX Classes
 90
        0
280
     0
281
     0
  0
CLASS
  1
ACDBPLACEHOLDER
  2
AcDbPlaceHolder
  3
ObjectDBX Classes
 90
        0
280
     0
281
     0
  0
CLASS
  1
VBA_PROJECT
  2
AcDbVbaProject
  3
acad
 90
    32768
280
     0
281
     0
  0
CLASS
  1
WIPEOUT
  2
AcDbWipeout
  3
"WipeOut|Product Desc: Object Enabler for WipeOut entity^I^I^I^I^I^I|Company: Autodesk, Inc.^I^I^I^I^I^I|WEB Address: www.autodesk.com"
 90
    32895
280
     0
281
     1
  0
CLASS
  1
WIPEOUTVARIABLES
  2
AcDbWipeoutVariables
  3
"WipeOut|Product Desc:     WipeOut Dbx Application|Company:          Autodesk, Inc.|WEB Address:      www.autodesk.com"
 90
    32768
280
     0
281
     0
  0
CLASS
  1
RTEXT
  2
RText
  3
RText|AutoCAD Express Tool|expresstools@autodesk.com
 90
    32768
280
     0
281
     1
  0
CLASS
  1
ARCALIGNEDTEXT
  2
AcDbArcAlignedText
  3
ATEXT|AutoCAD Express Tool|expresstools@autodesk.com
 90
    32768
280
     0
281
     1
  0
CLASS
  1
TABLESTYLE
  2
AcDbTableStyle
  3
ObjectDBX Classes
 90
     2047
280
     0
281
     0
  0
CLASS
  1
AMGSETTINGSOBJ
  2
AmgSettingsObj
  3
"AcadM|Product Description: AutoCAD Mechanical 2000|Company: Autodesk"
 90
        0
280
     0
281
     0
  0
CLASS
  1
ACME_DOCUMENT
  2
AcMeDbDoc
  3
AcMeServices
 90
        0
280
     0
281
     0
  0
CLASS
  1
ACMESCOPE
  2
AcMeScope
  3
AcMeServices
 90
        0
280
     0
281
     0
  0
CLASS
  1
ACMECOMMANDHISTORY
  2
AcMeCommandHistory
  3
AcMeServices
 90
        0
280
     0
281
     0
  0
CLASS
  1
ACIMSYSVARMAN
  2
AcImSysVarManager
  3
AcMeServices
 90
        0
280
     0
281
     0
  0
CLASS
  1
ACIMINTSYSVAR
  2
AcImIntSysVar
  3
AcMeServices
 90
        0
280
     0
281
     0
  0
CLASS
  1
ACMEDRAWINGMAN
  2
AcMeDrawingMan
  3
AcMeServices
 90
        0
280
     0
281
     0
  0
CLASS
  1
ACMEVIEW
  2
AcMeView
  3
AcMeServices
 90
        0
280
     0
281
     0
  0
CLASS
  1
ACDBENTITYCACHE
  2
AcMeEntityCache
  3
AcMeServices
 90
        0
280
     0
281
     0
  0
CLASS
  1
GSMANAGER
  2
AcMeGSManager
  3
AcMeServices
 90
        0
280
     0
281
     0
  0
CLASS
  1
AMDTINTERNALREACTOR
  2
AmdtInternalReactor
  3
AcMeServices
 90
        0
280
     0
281
     0
  0
CLASS
  1
ACMESTATEMGR
  2
AcMeStateMgr
  3
AcMeServices
 90
        0
280
     0
281
     0
  0
CLASS
  1
ACGREFMASTER
  2
AcGrefMaster
  3
AcAttribServices
 90
        0
280
     0
281
     0
  0
CLASS
  1
AM_DRAWING_MGR
  2
AcDmDwgMgr
  3
AcMechDwgViewMgmt
 90
        0
280
     0
281
     0
  0
CLASS
  1
AM_DWG_DOCUMENT
  2
AcDmDwgDocument
  3
AcMechDwgViewMgmt
 90
        0
280
     0
281
     0
  0
CLASS
  1
AM_DWG_SHEET
  2
AcDmSheet
  3
AcMechDwgViewMgmt
 90
        0
280
     0
281
     0
  0
CLASS
  1
AM_VIEWDIMPARMAP
  2
AcDmViewDimParMap
  3
AcMechDwgViewMgmt
 90
        0
280
     0
281
     0
  0
CLASS
  1
ACIMREALSYSVAR
  2
AcImRealSysVar
  3
AcMeServices
 90
        0
280
     0
281
     0
  0
CLASS
  1
AM_DWGMGR_NAME
  2
AcDmDwgMgrName
  3
AcMechDwgViewMgmt
 90
        0
280
     0
281
     0
  0
CLASS
  1
ACME_DATABASE
  2
AcMeDbDatabase
  3
AcMeServices
 90
        0
280
     0
281
     0
  0
CLASS
  1
ACRFINSADJUSTERMGR
  2
AcRfInsAdjusterMgr
  3
AcMeServices
 90
        0
280
     0
281
     0
  0
CLASS
  1
ACGREFACADMASTER
  2
AcGrefacadMaster
  3
AcGrefServices
 90
        0
280
     0
281
     0
  0
CLASS
  1
AMDTMENUSTATEMGR
  2
AmdtMenuStateMgr
  3
McadcomServices
 90
        0
280
     0
281
     0
  0
CLASS
  1
AMDTMCOMMENUSTATE
  2
AmdtMcomMenuState
  3
McadcomServices
 90
        0
280
     0
281
     0
  0
CLASS
  1
AMIMASTER
  2
AmiMaster
  3
AmiServices
 90
        0
280
     0
281
     0
  0
CLASS
  1
MAPIAMMOUDLE
  2
MApiAmModule
  3
MApiAmServices
 90
        0
280
     0
281
     0
  0
CLASS
  1
AMDTADMENUSTATE
  2
AmdtAdMenuState
  3
DesignerServices
 90
        0
280
     0
281
     0
  0
CLASS
  1
ADAPPL
  2
AcAdAppl
  3
DesignerServices
 90
        0
280
     0
281
     0
  0
CLASS
  1
DEPMGR
  2
AcAdDepMgr
  3
DesignerServices
 90
        0
280
     0
281
     0
  0
CLASS
  1
PARAMMGR
  2
AcAdParamMgr
  3
DesignerServices
 90
        0
280
     0
281
     0
  0
CLASS
  1
PARAMSCOPE
  2
AcAdParamScope
  3
DesignerServices
 90
        0
280
     0
281
     0
  0
CLASS
  1
NAMEDAPPL
  2
AcAdNamedAppl
  3
DesignerServices
 90
        0
280
     0
281
     0
  0
CLASS
  1
AMDTDMMENUSTATE
  2
AmdtDmMenuState
  3
AcMechDwgViewMgmt
 90
        0
280
     0
281
     0
  0
CLASS
  1
AMDTAMMENUSTATE
  2
AmdtAmMenuState
  3
DesignerAssemblies
 90
        0
280
     0
281
     0
  0
CLASS
  1
ACIMSTRSYSVAR
  2
AcImStrSysVar
  3
AcMeServices
 90
        0
280
     0
281
     0
  0
CLASS
  1
ACAMPROJECT
  2
AcAmProject
  3
DesignerAssemblies
 90
        0
280
     0
281
     0
  0
CLASS
  1
ACAMGRCOMPDEF
  2
AcAmGrCompDef
  3
DesignerAssemblies
 90
        0
280
     0
281
     0
  0
CLASS
  1
ACCMCONTEXT
  2
AcCmContext
  3
DesignerAssemblies
 90
        0
280
     0
281
     0
  0
CLASS
  1
ACAMCOMPDEF
  2
AcAmCompDef
  3
DesignerAssemblies
 90
        0
280
     0
281
     0
  0
CLASS
  1
ACAMCOMPDEFMGR
  2
AcAmCompDefMgr
  3
DesignerAssemblies
 90
        0
280
     0
281
     0
  0
CLASS
  1
AMCONTEXTMGR
  2
AcAmContextMgr
  3
DesignerAssemblies
 90
        0
280
     0
281
     0
  0
CLASS
  1
ACAMCONTEXTMODELER
  2
AcAmContextModeler
  3
DesignerAssemblies
 90
        0
280
     0
281
     0
  0
CLASS
  1
ACMDATADICTIONARY
  2
AcmDataDictionary
  3
"AcmSymBB|Product Description: AutoCAD Mechanical 2004 DX|Company: Autodesk"
 90
        0
280
     0
281
     0
  0
CLASS
  1
CATALOGSTATE
  2
AcAmCatalogState
  3
DesignerAssemblies
 90
        0
280
     0
281
     0
  0
CLASS
  1
ACAMGRCOMPDEFSET
  2
AcAmGrCompDefSet
  3
DesignerAssemblies
 90
        0
280
     0
281
     0
  0
CLASS
  1
AMDTBROWSERDBTAB
  2
AmdtBrowserDbTab
  3
McadcomServices
 90
        0
280
     0
281
     0
  0
CLASS
  1
CBROWSERAPPOBJECT
  2
CBrowserAppObject
  3
McadcomServices
 90
        0
280
     0
281
     0
  0
CLASS
  1
DM_PLACEHOLDER
  2
AcDmSelsetPlaceholder
  3
AcMechDwgViewMgmt
 90
        0
280
     0
281
     0
  0
CLASS
  1
ACMSTANDARDDIN
  2
AcmStandardDIN
  3
"Amdt_StdImp|Product Description: AutoCAD Mechanical 2004 DX|Company: Autodesk"
 90
        0
280
     0
281
     0
  0
CLASS
  1
AMGOBJPROPCFG
  2
AmgObjPropCfg
  3
"AmgLay|Product Description: AutoCAD Mechanical 2000|Company: Autodesk"
 90
        1
280
     0
281
     0
  0
CLASS
  1
AMDTEDGESTANDARDDIN13715
  2
AmdtEdgeStdDIN13715
  3
"Amdt_StdImp|Product Description: AutoCAD Mechanical 2004 DX|Company: Autodesk"
 90
        0
280
     0
281
     0
  0
CLASS
  1
ACMSURFSTANDARDDIN
  2
AcmSurfTextStdDIN
  3
"Amdt_StdImp|Product Description: AutoCAD Mechanical 2004 DX|Company: Autodesk"
 90
        0
280
     0
281
     0
  0
CLASS
  1
ACMFCFSTANDARDDIN
  2
AcmFCFStdDIN
  3
"Amdt_StdImp|Product Description: AutoCAD Mechanical 2004 DX|Company: Autodesk"
 90
        0
280
     0
281
     0
  0
CLASS
  1
ACMWELDSTANDARDDIN
  2
AcmWeldingStdDIN
  3
"Amdt_StdImp|Product Description: AutoCAD Mechanical 2004 DX|Company: Autodesk"
 90
        0
280
     0
281
     0
  0
CLASS
  1
ACMIDSTANDARDDIN
  2
AcmIdStdDIN
  3
"Amdt_StdImp|Product Description: AutoCAD Mechanical 2004 DX|Company: Autodesk"
 90
        0
280
     0
281
     0
  0
CLASS
  1
ACMDATUMSTANDARDDIN
  2
AcmDatumStdDIN
  3
"Amdt_StdImp|Product Description: AutoCAD Mechanical 2004 DX|Company: Autodesk"
 90
        0
280
     0
281
     0
  0
CLASS
  1
ACMBOMSTANDARDDIN
  2
AcmBOMStdDIN
  3
"Amdt_StdImp|Product Description: AutoCAD Mechanical 2004 DX|Company: Autodesk"
 90
        0
280
     0
281
     0
  0
CLASS
  1
ACMDETAILSTANDARDDIN
  2
AmdtDetailSymStdDIN
  3
"Amdt_StdImp|Product Description: AutoCAD Mechanical 2004 DX|Company: Autodesk"
 90
        0
280
     0
281
     0
  0
CLASS
  1
ACMSECTIONSTANDARDDIN
  2
AmdtSectionSymStdDIN
  3
"Amdt_StdImp|Product Description: AutoCAD Mechanical 2004 DX|Company: Autodesk"
 90
        0
280
     0
281
     0
  0
CLASS
  1
ACMCENTERLINESTANDARDDIN
  2
AmdtCenterLineStdDIN
  3
"Amdt_StdImp|Product Description: AutoCAD Mechanical 2004 DX|Company: Autodesk"
 90
        0
280
     0
281
     0
  0
CLASS
  1
ACMTHREADLINESTANDARDDIN
  2
AmdtThreadLineStdDIN
  3
"Amdt_StdImp|Product Description: AutoCAD Mechanical 2004 DX|Company: Autodesk"
 90
        0
280
     0
281
     0
  0
CLASS
  1
ACMNOTESTANDARDDIN
  2
AmdtNoteStdDIN
  3
"Amdt_StdImp|Product Description: AutoCAD Mechanical 2004 DX|Company: Autodesk"
 90
        0
280
     0
281
     0
  0
CLASS
  1
AMDTNOTETEMPLATEDB
  2
AmdtNoteTemplateDB
  3
AMDT_STDIMP_MODULE_NAME
 90
        0
280
     0
281
     0
  0
CLASS
  1
ACAMGLAYSTD
  2
AcAmgLayStd
  3
"AcAmgLayStd|Product Description: AutoCAD Mechanical 2000|Company: Autodesk"
 90
        0
280
     0
281
     0
  0
CLASS
  1
ACAMGDIMSTD
  2
AcAmgDimStd
  3
"AcAmgDimStd|Product Description: AutoCAD Mechanical 2000|Company: Autodesk"
 90
        0
280
     0
281
     0
  0
CLASS
  1
ACAMGHOLECHARTSTDDIN
  2
AcAmgHoleChartStdDIN
  3
ACMSYMBB_MODULE_NAME
 90
        0
280
     0
281
     0
  0
CLASS
  1
ACAMGTITLESTD
  2
AcAmgTitleStd
  3
"TITLEAPP"
 90
        0
280
     0
281
     0
  0
CLASS
  1
ACAMGFILTERDAT
  2
AcAmgFilterDat
  3
"AcadM|Product Description: AutoCAD Mechanical 2000|Company: Autodesk"
 90
        0
280
     0
281
     0
  0
CLASS
  1
ACRFATTGENMGR
  2
AcRfAttGeneralMgr
  3
AcAttribServices
 90
    32768
280
     0
281
     0
  0
ENDSEC
  0
SECTION
  2
TABLES
  0
TABLE
  2
VPORT
  5
7
330
0
100
AcDbSymbolTable
 70
     5
  0
VPORT
  5
216C
330
7
100
AcDbSymbolTableRecord
100
AcDbViewportTableRecord
  2
*Active
 70
     0
 10
0.0
 20
0.0
 11
1.0
 21
1.0
 12
152.2576913403553
 22
319.1238806685724
 13
0.0
 23
0.0
 14
1.0
 24
1.0
 15
0.0
 25
0.0
 16
0.0
 26
0.0
 36
1.0
 17
0.0
 27
0.0
 37
0.0
 40
203.8107353353962
 41
1.494545454545454
 42
50.0
 43
0.0
 44
0.0
 50
0.0
 51
0.0
 71
     0
 72
   100
 73
     1
 74
     1
 75
     0
 76
     0
 77
     0
 78
     0
281
     0
 65
     0
110
0.0
120
0.0
130
0.0
111
1.0
121
0.0
131
0.0
112
0.0
122
1.0
132
0.0
 79
     0
146
0.0
  0
ENDTAB
  0
TABLE
  2
LTYPE
  5
4
330
0
100
AcDbSymbolTable
 70
    26
  0
LTYPE
  5
11
330
4
100
AcDbSymbolTableRecord
100
AcDbLinetypeTableRecord
  2
BYBLOCK
 70
     0
  3

 72
    65
 73
     0
 40
0.0
  0
LTYPE
  5
12
330
4
100
AcDbSymbolTableRecord
100
AcDbLinetypeTableRecord
  2
BYLAYER
 70
     0
  3

 72
    65
 73
     0
 40
0.0
  0
LTYPE
  5
13
330
4
100
AcDbSymbolTableRecord
100
AcDbLinetypeTableRecord
  2
CONTINUOUS
 70
     0
  3
Solid line
 72
    65
 73
     0
 40
0.0
  0
LTYPE
  5
1E
330
4
100
AcDbSymbolTableRecord
100
AcDbLinetypeTableRecord
  2
DASHDOT
 70
     0
  3
 __ . __ . __ . __ . __ . __ . __ . 
 72
    65
 73
     4
 40
18.5
 49
12.0
 74
     0
 49
-3.0
 74
     0
 49
0.5
 74
     0
 49
-3.0
 74
     0
  0
LTYPE
  5
1ECB
330
4
100
AcDbSymbolTableRecord
100
AcDbLinetypeTableRecord
  2
HIDDEN
 70
     0
  3
Verdeckt
 72
    65
 73
     2
 40
9.525
 49
6.349999999999999
 74
     0
 49
-3.174999999999999
 74
     0
  0
LTYPE
  5
1ECC
330
4
100
AcDbSymbolTableRecord
100
AcDbLinetypeTableRecord
  2
PHANTOM2
 70
     0
  3
Phantom (.5x) ___ _ _ ___ _ _ ___ _ _ ___ _ _
 72
    65
 73
     6
 40
31.75
 49
15.875
 74
     0
 49
-3.174999999999999
 74
     0
 49
3.174999999999999
 74
     0
 49
-3.174999999999999
 74
     0
 49
3.174999999999999
 74
     0
 49
-3.174999999999999
 74
     0
  0
LTYPE
  5
1ECD
330
4
100
AcDbSymbolTableRecord
100
AcDbLinetypeTableRecord
  2
CENTER
 70
     0
  3
Mitte ____ _ ____ _ ____ _ ____ _ ____ _ ____
 72
    65
 73
     4
 40
50.8
 49
31.75
 74
     0
 49
-6.349999999999999
 74
     0
 49
6.349999999999999
 74
     0
 49
-6.349999999999999
 74
     0
  0
LTYPE
  5
1F04
330
4
100
AcDbSymbolTableRecord
100
AcDbLinetypeTableRecord
  2
Amconstr
 70
     0
  3
_______________________
 72
    65
 73
     2
 40
9999.0
 49
9999.0
 74
     0
 49
0.0
 74
     0
  0
LTYPE
  5
1F09
330
4
100
AcDbSymbolTableRecord
100
AcDbLinetypeTableRecord
  2
Amzigzag
 70
     0
  3
/\/-/\/-/\/-/\/-/\/-/\/
 72
    65
 73
     2
 40
11.0001
 49
0.0001
 74
     4
 75
   135
340
1F08
 46
0.04
 50
0.0
 44
0.0
 45
0.0
 49
-11.0
 74
     0
  0
LTYPE
  5
1F0A
330
4
100
AcDbSymbolTableRecord
100
AcDbLinetypeTableRecord
  2
AM_DIN_F_W050
 70
     0
  3
__ __ __ __ __ __ __ __ __ __ __ __ __ __ __
 72
    65
 73
     2
 40
6.25
 49
4.75
 74
     0
 49
-1.5
 74
     0
  0
LTYPE
  5
1F0B
330
4
100
AcDbSymbolTableRecord
100
AcDbLinetypeTableRecord
  2
AM_DIN_G_W050
 70
     0
  3
____ . ____ . ____ . ____ . ____ . ____ . ____
 72
    65
 73
     4
 40
13.75
 49
9.75
 74
     0
 49
-1.5
 74
     0
 49
1.0
 74
     0
 49
-1.5
 74
     0
  0
LTYPE
  5
1F0C
330
4
100
AcDbSymbolTableRecord
100
AcDbLinetypeTableRecord
  2
AM_DIN_K_W050
 70
     0
  3
_____ . . _____ . . _____ . . ____ .. ____
 72
    65
 73
     6
 40
16.25
 49
9.75
 74
     0
 49
-1.5
 74
     0
 49
1.0
 74
     0
 49
-1.5
 74
     0
 49
1.0
 74
     0
 49
-1.5
 74
     0
  0
LTYPE
  5
1F0D
330
4
100
AcDbSymbolTableRecord
100
AcDbLinetypeTableRecord
  2
AM_DIN_G_W050x2
 70
     0
  3
__ . __ . __ . __ . __ . __
 72
    65
 73
     4
 40
6.875
 49
4.75
 74
     0
 49
-0.875
 74
     0
 49
0.375
 74
     0
 49
-0.875
 74
     0
  0
LTYPE
  5
1F0E
330
4
100
AcDbSymbolTableRecord
100
AcDbLinetypeTableRecord
  2
AM_DIN_F_W050x2
 70
     0
  3
 _ _ _ _ _ _ _ _ _ _ _ _
 72
    65
 73
     2
 40
3.125
 49
2.25
 74
     0
 49
-0.875
 74
     0
  0
LTYPE
  5
1F1D
330
4
100
AcDbSymbolTableRecord
100
AcDbLinetypeTableRecord
  2
ACDINWELD
 70
     0
  3
_ _ _ _ _
 72
    65
 73
     2
 40
2.0
 49
2.0
 74
     0
 49
-1.0
 74
     0
  0
LTYPE
  5
1F1E
330
4
100
AcDbSymbolTableRecord
100
AcDbLinetypeTableRecord
  2
ACDINTGB
 70
     0
  3
__ . . __ . .
 72
    65
 73
     6
 40
9.0
 49
4.0
 74
     0
 49
-1.0
 74
     0
 49
1.0
 74
     0
 49
-1.0
 74
     0
 49
1.0
 74
     0
 49
-1.0
 74
     0
  0
LTYPE
  5
1F1F
330
4
100
AcDbSymbolTableRecord
100
AcDbLinetypeTableRecord
  2
ACDINTGL
 70
     0
  3
_ _ _ _ _
 72
    65
 73
     2
 40
3.0
 49
2.0
 74
     0
 49
-1.0
 74
     0
  0
ENDTAB
  0
TABLE
  2
LAYER
  5
2
330
0
100
AcDbSymbolTable
 70
     4
  0
LAYER
  5
14
330
2
100
AcDbSymbolTableRecord
100
AcDbLayerTableRecord
  2
0
 70
     0
 62
     7
  6
CONTINUOUS
370
    -3
390
1E8E
  0
LAYER
  5
1F70
330
2
100
AcDbSymbolTableRecord
100
AcDbLayerTableRecord
  2
Defpoints
 70
     0
 62
     7
  6
CONTINUOUS
290
     0
370
    -3
390
1E8E
  0
ENDTAB
  0
TABLE
  2
STYLE
  5
3
330
0
100
AcDbSymbolTable
 70
     4
  0
STYLE
  5
17
330
3
100
AcDbSymbolTableRecord
100
AcDbTextStyleTableRecord
  2
STANDARD
 70
     0
 40
0.0
 41
1.0
 50
0.0
 71
     0
 42
0.0
  3
txt
  4

  0
STYLE
  5
1F08
330
3
100
AcDbSymbolTableRecord
100
AcDbTextStyleTableRecord
  2

 70
     1
 40
0.0
 41
1.0
 50
0.0
 71
     0
 42
2.5
  3
ltypeshp.shx
  4

  0
STYLE
  5
1F0F
330
3
100
AcDbSymbolTableRecord
100
AcDbTextStyleTableRecord
  2
ACDINTS
 70
     0
 40
1.0
 41
1.0
 50
0.0
 71
     0
 42
2.5
  3
isocp.shx
  4

  0
STYLE
  5
1F1C
330
3
100
AcDbSymbolTableRecord
100
AcDbTextStyleTableRecord
  2
ACDINGDT
 70
     0
 40
0.0
 41
1.0
 50
0.0
 71
     0
 42
2.5
  3
amgdt.shx
  4

  0
ENDTAB
  0
TABLE
  2
VIEW
  5
5
330
0
100
AcDbSymbolTable
 70
     0
  0
ENDTAB
  0
TABLE
  2
UCS
  5
6
330
0
100
AcDbSymbolTable
 70
     0
  0
ENDTAB
  0
TABLE
  2
APPID
  5
8
330
0
100
AcDbSymbolTable
 70
    19
  0
APPID
  5
16
330
8
100
AcDbSymbolTableRecord
100
AcDbRegAppTableRecord
  2
ACAD
 70
     0
  0
APPID
  5
1E9E
330
8
100
AcDbSymbolTableRecord
100
AcDbRegAppTableRecord
  2
MCAD_NO_VIS
 70
     0
  0
APPID
  5
1E9F
330
8
100
AcDbSymbolTableRecord
100
AcDbRegAppTableRecord
  2
ACAD_TEMP_GRAPHIC
 70
     0
  0
APPID
  5
1ECF
330
8
100
AcDbSymbolTableRecord
100
AcDbRegAppTableRecord
  2
AD_DRAW
 70
     0
  0
APPID
  5
1ED2
330
8
100
AcDbSymbolTableRecord
100
AcDbRegAppTableRecord
  2
ACATTRIBSERVICES
 70
     0
  0
APPID
  5
1EF0
330
8
100
AcDbSymbolTableRecord
100
AcDbRegAppTableRecord
  2
DESIGNERASSEMBLIES
 70
     0
  0
APPID
  5
1EF6
330
8
100
AcDbSymbolTableRecord
100
AcDbRegAppTableRecord
  2
ACADM_DIM_EDIT
 70
     0
  0
APPID
  5
1EF7
330
8
100
AcDbSymbolTableRecord
100
AcDbRegAppTableRecord
  2
AMDT_DM_ADJ
 70
     0
  0
APPID
  5
1F36
330
8
100
AcDbSymbolTableRecord
100
AcDbRegAppTableRecord
  2
GENIUS_GENSCREG_15
 70
     0
  0
APPID
  5
1F37
330
8
100
AcDbSymbolTableRecord
100
AcDbRegAppTableRecord
  2
GENIUS_GENOBJ-N-SDF_13
 70
     0
  0
APPID
  5
1F38
330
8
100
AcDbSymbolTableRecord
100
AcDbRegAppTableRecord
  2
GENIUS_GENODEF_13
 70
     0
  0
APPID
  5
1F50
330
8
100
AcDbSymbolTableRecord
100
AcDbRegAppTableRecord
  2
GENIUS_GENOBJ-N-CEN_13
 70
     0
  0
APPID
  5
1F51
330
8
100
AcDbSymbolTableRecord
100
AcDbRegAppTableRecord
  2
GENIUS_GENCEN_19
 70
     0
  0
APPID
  5
1F86
330
8
100
AcDbSymbolTableRecord
100
AcDbRegAppTableRecord
  2
GENIUS_GENDTOL_13
 70
     0
  0
APPID
  5
2009
330
8
100
AcDbSymbolTableRecord
100
AcDbRegAppTableRecord
  2
DCO15
 70
     0
  0
APPID
  5
20D5
330
8
100
AcDbSymbolTableRecord
100
AcDbRegAppTableRecord
  2
ACAD_PSEXT
 70
     0
  0
APPID
  5
2109
330
8
100
AcDbSymbolTableRecord
100
AcDbRegAppTableRecord
  2
GENIUS_GENDIMSH_14
 70
     0
  0
APPID
  5
212F
330
8
100
AcDbSymbolTableRecord
100
AcDbRegAppTableRecord
  2
ACAD_DSTYLE_DIMARC_LENGTH_SYMBOL
 70
     0
  0
APPID
  5
2130
330
8
100
AcDbSymbolTableRecord
100
AcDbRegAppTableRecord
  2
ACAD_DSTYLE_DIMJOGGED_JOGANGLE_SYMBOL
 70
     0
  0
ENDTAB
  0
TABLE
  2
DIMSTYLE
  5
9
330
0
100
AcDbSymbolTable
 70
     9
100
AcDbDimStyleTable
 71
     1
340
18
  0
DIMSTYLE
105
18
330
9
100
AcDbSymbolTableRecord
100
AcDbDimStyleTableRecord
  2
STANDARD
 70
     0
340
17
  0
DIMSTYLE
105
1F29
330
9
100
AcDbSymbolTableRecord
100
AcDbDimStyleTableRecord
  2
AM_DIN
 70
     0
  4
"
 41
2.5
 42
1.0
 43
10.0
 44
1.0
 47
0.1
 48
0.1
 73
     0
 74
     0
 77
     1
 78
     8
 79
     2
140
3.5
141
0.0
143
0.0393701
146
0.71
147
1.5
172
     1
176
   256
177
   256
178
     2
271
     2
272
     3
274
     4
283
     0
284
     8
340
17
371
    -1
372
    -1
1001
ACAD_DSTYLE_DIMARC_LENGTH_SYMBOL
1070
   379
1070
     0
1001
ACAD_DSTYLE_DIMJOGGED_JOGANGLE_SYMBOL
1070
   384
1040
1.570796326794896
  0
DIMSTYLE
105
1F2A
330
9
100
AcDbSymbolTableRecord
100
AcDbDimStyleTableRecord
  2
AM_DIN$3
 70
     0
  4
"
 41
2.5
 42
1.0
 43
10.0
 44
1.0
 47
0.1
 48
0.1
 73
     0
 77
     1
 78
     8
 79
     2
140
3.5
141
0.0
143
0.0393701
146
0.71
147
1.5
176
   256
177
   256
178
     2
271
     2
272
     3
274
     4
283
     0
284
     8
288
     1
289
     0
340
17
371
    -1
372
    -1
1001
ACAD_DSTYLE_DIMARC_LENGTH_SYMBOL
1070
   379
1070
     0
1001
ACAD_DSTYLE_DIMJOGGED_JOGANGLE_SYMBOL
1070
   384
1040
1.570796326794896
  0
DIMSTYLE
105
1F2B
330
9
100
AcDbSymbolTableRecord
100
AcDbDimStyleTableRecord
  2
AM_DIN$4
 70
     0
  4
"
 41
2.5
 42
1.0
 43
10.0
 44
1.0
 47
0.1
 48
0.1
 73
     0
 77
     1
 78
     8
 79
     2
140
3.5
141
0.0
143
0.0393701
146
0.71
147
1.5
176
   256
177
   256
178
     2
271
     2
272
     3
274
     4
283
     0
284
     8
288
     1
289
     0
340
17
371
    -1
372
    -1
1001
ACAD_DSTYLE_DIMARC_LENGTH_SYMBOL
1070
   379
1070
     0
1001
ACAD_DSTYLE_DIMJOGGED_JOGANGLE_SYMBOL
1070
   384
1040
1.570796326794896
  0
DIMSTYLE
105
1F2C
330
9
100
AcDbSymbolTableRecord
100
AcDbDimStyleTableRecord
  2
AM_DIN$6
 70
     0
  4
"
 41
2.5
 42
1.0
 43
10.0
 44
1.0
 47
0.1
 48
0.1
 73
     0
 74
     0
 78
     8
 79
     2
140
3.5
141
0.0
143
0.0393701
146
0.71
147
1.5
172
     1
176
   256
177
   256
178
     2
271
     2
272
     3
274
     4
283
     0
284
     8
340
17
371
    -1
372
    -1
1001
ACAD_DSTYLE_DIMARC_LENGTH_SYMBOL
1070
   379
1070
     0
1001
ACAD_DSTYLE_DIMJOGGED_JOGANGLE_SYMBOL
1070
   384
1040
1.570796326794896
  0
DIMSTYLE
105
1F2D
330
9
100
AcDbSymbolTableRecord
100
AcDbDimStyleTableRecord
  2
AM_DIN$7
 70
     0
  4
"
 41
2.5
 42
1.0
 43
10.0
 44
1.0
 47
0.1
 48
0.1
 73
     0
 74
     0
 77
     1
 78
     8
 79
     2
140
5.0
141
0.0
143
0.0393701
146
0.71
147
1.5
172
     1
176
   256
177
   256
178
     2
271
     2
272
     3
274
     4
283
     0
284
     8
340
17
371
    -1
372
    -1
1001
ACAD_DSTYLE_DIMARC_LENGTH_SYMBOL
1070
   379
1070
     0
1001
ACAD_DSTYLE_DIMJOGGED_JOGANGLE_SYMBOL
1070
   384
1040
1.570796326794896
  0
DIMSTYLE
105
1F2E
330
9
100
AcDbSymbolTableRecord
100
AcDbDimStyleTableRecord
  2
AM_DIN$SF
 70
     0
  4
"
 41
2.5
 42
1.0
 43
10.0
 44
1.0
 47
0.1
 48
0.1
 73
     0
 74
     0
 75
     1
 76
     1
 77
     1
 78
     8
 79
     2
140
3.5
141
0.0
143
0.0393701
146
0.71
147
1.5
172
     1
176
   256
177
   256
178
     2
271
     2
272
     3
274
     4
283
     0
284
     8
340
17
371
    -1
372
    -1
1001
ACAD_DSTYLE_DIMARC_LENGTH_SYMBOL
1070
   379
1070
     0
1001
ACAD_DSTYLE_DIMJOGGED_JOGANGLE_SYMBOL
1070
   384
1040
1.570796326794896
  0
DIMSTYLE
105
1F33
330
9
100
AcDbSymbolTableRecord
100
AcDbDimStyleTableRecord
  2
AM_DIN$SH
 70
     0
  4
"
 41
2.5
 42
1.0
 43
10.0
 44
1.0
 47
0.1
 48
0.1
 73
     0
 74
     0
 75
     1
 76
     1
 77
     1
 78
     8
 79
     2
140
3.5
141
0.0
143
0.0393701
144
2.0
146
0.71
147
1.5
172
     1
173
     1
176
   256
177
   256
178
     2
271
     2
272
     3
274
     4
283
     0
284
     8
340
17
343
1F2F
371
    -1
372
    -1
1001
ACAD_DSTYLE_DIMARC_LENGTH_SYMBOL
1070
   379
1070
     0
1001
ACAD_DSTYLE_DIMJOGGED_JOGANGLE_SYMBOL
1070
   384
1040
1.570796326794896
  0
DIMSTYLE
105
1F6B
102
{ACAD_REACTORS
330
1FE5
330
201D
102
}
330
9
100
AcDbSymbolTableRecord
100
AcDbDimStyleTableRecord
  2
STANDARD$0
 70
     0
340
17
  0
ENDTAB
  0
TABLE
  2
BLOCK_RECORD
  5
1
330
0
100
AcDbSymbolTable
 70
     6
  0
BLOCK_RECORD
  5
A
330
1
100
AcDbSymbolTableRecord
100
AcDbBlockTableRecord
  2
*MODEL_SPACE
340
1E95
  0
BLOCK_RECORD
  5
B
330
1
100
AcDbSymbolTableRecord
100
AcDbBlockTableRecord
  2
*PAPER_SPACE
340
1E96
  0
BLOCK_RECORD
  5
1F2F
330
1
100
AcDbSymbolTableRecord
100
AcDbBlockTableRecord
  2
GENAXEH
340
0
  0
BLOCK_RECORD
  5
1FE6
330
1
100
AcDbSymbolTableRecord
100
AcDbBlockTableRecord
  2
*D4
340
0
  0
BLOCK_RECORD
  5
201E
330
1
100
AcDbSymbolTableRecord
100
AcDbBlockTableRecord
  2
*D5
340
0
  0
ENDTAB
  0
ENDSEC
  0
SECTION
  2
BLOCKS
  0
BLOCK
  5
D
330
A
100
AcDbEntity
  8
0
100
AcDbBlockBegin
  2
*MODEL_SPACE
 70
     0
 10
0.0
 20
0.0
 30
0.0
  3
*MODEL_SPACE
  1

  0
ENDBLK
  5
E
330
A
100
AcDbEntity
  8
0
100
AcDbBlockEnd
  0
BLOCK
  5
F
330
B
100
AcDbEntity
 67
     1
  8
0
100
AcDbBlockBegin
  2
*PAPER_SPACE
 70
     0
 10
0.0
 20
0.0
 30
0.0
  3
*PAPER_SPACE
  1

  0
ENDBLK
  5
10
330
B
100
AcDbEntity
 67
     1
  8
0
100
AcDbBlockEnd
  0
BLOCK
  5
1F31
330
1F2F
100
AcDbEntity
  8
0
100
AcDbBlockBegin
  2
GENAXEH
 70
     0
 10
0.0
 20
0.0
 30
0.0
  3
GENAXEH
  1

  0
LINE
  5
1F30
330
1F2F
100
AcDbEntity
  8
0
100
AcDbLine
 10
-1.0
 20
0.0
 30
0.0
 11
1.0
 21
0.0
 31
0.0
  0
ENDBLK
  5
1F32
330
1F2F
100
AcDbEntity
  8
0
100
AcDbBlockEnd
  0
BLOCK
  5
1FF0
330
1FE6
100
AcDbEntity
  8
0
100
AcDbBlockBegin
  2
*D4
 70
     1
 10
0.0
 20
0.0
 30
0.0
  3
*D4
  1

  0
LINE
  5
2156
330
1FE6
100
AcDbEntity
  8
0
 62
     0
370
    -2
100
AcDbLine
 10
66.05049100000001
 20
357.187866
 30
0.0
 11
11.44927005318396
 21
357.187866
 31
0.0
  0
LINE
  5
2157
330
1FE6
100
AcDbEntity
  8
0
 62
     0
370
    -2
100
AcDbLine
 10
81.31299109077536
 20
274.7771000000002
 30
0.0
 11
11.44927005318394
 21
274.7771000000002
 31
0.0
  0
LINE
  5
2158
330
1FE6
100
AcDbEntity
  8
0
 62
     0
370
    -2
100
AcDbLine
 10
12.69927005318395
 20
347.1878660000001
 30
0.0
 11
12.69927005318394
 21
284.7771000000003
 31
0.0
  0
SOLID
  5
2159
330
1FE6
100
AcDbEntity
  8
0
 62
     0
100
AcDbTrace
 10
11.03260338651729
 20
347.1878660000001
 30
0.0
 11
14.36593671985062
 21
347.1878660000001
 31
0.0
 12
12.69927005318396
 22
357.187866
 32
0.0
 13
12.69927005318396
 23
357.187866
 33
0.0
  0
SOLID
  5
215A
330
1FE6
100
AcDbEntity
  8
0
 62
     0
100
AcDbTrace
 10
11.03260338651727
 20
284.7771000000003
 30
0.0
 11
14.36593671985061
 21
284.7771000000003
 31
0.0
 12
12.69927005318394
 22
274.7771000000002
 32
0.0
 13
12.69927005318394
 23
274.7771000000002
 33
0.0
  0
MTEXT
  5
215B
330
1FE6
100
AcDbEntity
  8
0
 62
     2
100
AcDbMText
 10
5.699270053183898
 20
315.9824830000001
 30
0.0
 40
10.0
 41
0.0
 71
     5
 72
     1
  1
82
 11
0.0000000000000001
 21
1.0
 31
0.0
 73
     1
 44
1.0
1001
ACAD
1000
MTEXTBEGIN
1070
    73
1070
     1
1070
    44
1040
1.0
1070
    74
1070
     0
1000
MTEXTEND
  0
POINT
  5
215C
330
1FE6
100
AcDbEntity
  8
Defpoints
 62
     0
100
AcDbPoint
 10
66.67549100000001
 20
357.187866
 30
0.0
  0
POINT
  5
215D
330
1FE6
100
AcDbEntity
  8
Defpoints
 62
     0
100
AcDbPoint
 10
81.93799109077536
 20
274.7771000000002
 30
0.0
  0
POINT
  5
215E
330
1FE6
100
AcDbEntity
  8
Defpoints
 62
     0
100
AcDbPoint
 10
12.69927005318394
 20
274.7771000000002
 30
0.0
  0
ENDBLK
  5
1FF1
330
1FE6
100
AcDbEntity
  8
0
100
AcDbBlockEnd
  0
BLOCK
  5
2028
330
201E
100
AcDbEntity
  8
0
100
AcDbBlockBegin
  2
*D5
 70
     1
 10
0.0
 20
0.0
 30
0.0
  3
*D5
  1

  0
LINE
  5
215F
330
201E
100
AcDbEntity
  8
0
 62
     0
370
    -2
100
AcDbLine
 10
242.8831346672245
 20
273.2355689256272
 30
0.0
 11
302.3280630522715
 21
271.6791208134084
 31
0.0
  0
LINE
  5
2160
330
201E
100
AcDbEntity
  8
0
 62
     0
370
    -2
100
AcDbLine
 10
244.1919858754462
 20
323.218443215108
 30
0.0
 11
303.6367660566203
 21
321.6619989833152
 31
0.0
  0
LINE
  5
2161
330
201E
100
AcDbEntity
  8
0
 62
     0
370
    -2
100
AcDbLine
 10
301.3402318596535
 20
281.7084123903291
 30
0.0
 11
302.1254537474542
 21
311.6981425459631
 31
0.0
  0
SOLID
  5
2162
330
201E
100
AcDbEntity
  8
0
 62
     0
100
AcDbTrace
 10
299.6741361917974
 20
281.752035816708
 30
0.0
 11
303.0063275275096
 21
281.66478896395
 31
0.0
 12
301.0784913013794
 22
271.7118383831927
 32
0.0
 13
301.0784913013794
 23
271.7118383831927
 33
0.0
  0
SOLID
  5
2163
330
201E
100
AcDbEntity
  8
0
 62
     0
100
AcDbTrace
 10
300.4593580795981
 20
311.741765972342
 30
0.0
 11
303.7915494153103
 21
311.654519119584
 31
0.0
 12
302.3871943057283
 22
321.6947165530994
 32
0.0
 13
302.3871943057283
 23
321.6947165530994
 33
0.0
  0
MTEXT
  5
2164
330
201E
100
AcDbEntity
  8
0
 62
     2
100
AcDbMText
 10
294.7352409985584
 20
296.8864958589378
 30
0.0
 40
10.0
 41
0.0
 71
     5
 72
     1
  1
DN50
 11
0.0261740558274043
 21
0.9996574007136366
 31
0.0
 73
     1
 44
1.0
1001
ACAD
1000
MTEXTBEGIN
1070
    73
1070
     1
1070
    44
1040
1.0
1070
    74
1070
     0
1000
MTEXTEND
  0
POINT
  5
2165
330
201E
100
AcDbEntity
  8
Defpoints
 62
     0
100
AcDbPoint
 10
242.2583487917785
 20
273.2519277105193
 30
0.0
  0
POINT
  5
2166
330
201E
100
AcDbEntity
  8
Defpoints
 62
     0
100
AcDbPoint
 10
243.5672000000002
 20
323.2348020000002
 30
0.0
  0
POINT
  5
2167
330
201E
100
AcDbEntity
  8
Defpoints
 62
     0
100
AcDbPoint
 10
302.3871943057283
 20
321.6947165530994
 30
0.0
  0
ENDBLK
  5
2029
330
201E
100
AcDbEntity
  8
0
100
AcDbBlockEnd
  0
ENDSEC
  0
SECTION
  2
ENTITIES
  0
LINE
  5
14F2
330
A
100
AcDbEntity
  8
0
  6
DASHDOT
 62
     4
100
AcDbLine
 10
131.179596
 20
366.5642499215315
 30
0.0
 11
131.179596
 21
285.839142
 31
0.0
  0
LINE
  5
14F3
330
A
100
AcDbEntity
  8
0
  6
DASHDOT
 62
     7
 48
0.180152
100
AcDbLine
 10
131.179596
 20
284.27121
 30
0.0
 11
131.179596
 21
277.065125
 31
0.0
  0
LINE
  5
14F4
330
A
100
AcDbEntity
  8
0
  6
DASHDOT
 62
     4
100
AcDbLine
 10
175.310272
 20
300.01358
 30
0.0
 11
253.923553
 21
297.955017
 31
0.0
  0
POINT
  5
16C7
330
A
100
AcDbEntity
  8
0
 62
     7
100
AcDbPoint
 10
246.179596
 20
298.157806
 30
0.0
  0
ARC
  5
16C8
330
A
100
AcDbEntity
  8
0
 62
     7
100
AcDbCircle
 10
131.179596
 20
282.046936
 30
0.0
 40
0.5400580000000001
100
AcDbArc
 50
90.00000300000001
 51
147.7156
  0
LINE
  5
16C9
330
A
100
AcDbEntity
  8
0
 62
     7
 48
0.022829
100
AcDbLine
 10
130.723022
 20
282.3353879999999
 30
0.0
 11
131.636169
 21
282.3353879999999
 31
0.0
  0
ARC
  5
16CA
330
A
100
AcDbEntity
  8
0
 62
     7
100
AcDbCircle
 10
131.179596
 20
282.046936
 30
0.0
 40
0.5400580000000001
100
AcDbArc
 50
32.284395
 51
90.00000300000001
  0
LINE
  5
16CB
330
A
100
AcDbEntity
  8
0
 62
     7
 48
0.032048
100
AcDbLine
 10
130.723022
 20
282.3353879999999
 30
0.0
 11
130.038315
 21
281.251648
 31
0.0
  0
LINE
  5
16CC
330
A
100
AcDbEntity
  8
0
 62
     7
 48
0.032048
100
AcDbLine
 10
131.636169
 20
282.3353879999999
 30
0.0
 11
132.320877
 21
281.251648
 31
0.0
  0
LINE
  5
16CD
330
A
100
AcDbEntity
  8
0
 62
     7
 48
0.170329
100
AcDbLine
 10
127.773026
 20
277.666138
 30
0.0
 11
134.586166
 21
277.666138
 31
0.0
  0
LINE
  5
16CE
330
A
100
AcDbEntity
  8
0
 62
     7
 48
0.106029
100
AcDbLine
 10
132.320862
 20
281.251648
 30
0.0
 11
134.586166
 21
277.666138
 31
0.0
  0
LINE
  5
16CF
330
A
100
AcDbEntity
  8
0
 62
     7
 48
0.106029
100
AcDbLine
 10
130.03833
 20
281.251648
 30
0.0
 11
127.773026
 21
277.666138
 31
0.0
  0
ARC
  5
16D0
330
A
100
AcDbEntity
  8
0
 62
     7
100
AcDbCircle
 10
123.968719
 20
280.069641
 30
0.0
 40
4.499951
100
AcDbArc
 50
270.274701
 51
327.715977
  0
LINE
  5
16D1
330
A
100
AcDbEntity
  8
0
 62
     7
 48
0.3594650000000001
100
AcDbLine
 10
123.990295
 20
275.569733
 30
0.0
 11
138.368896
 21
275.569733
 31
0.0
  0
ARC
  5
16D2
330
A
100
AcDbEntity
  8
0
 62
     7
100
AcDbCircle
 10
138.390472
 20
280.069641
 30
0.0
 40
4.499951
100
AcDbArc
 50
212.284032
 51
269.725301
  0
ARC
  5
16D3
330
A
100
AcDbEntity
  8
0
 62
     7
100
AcDbCircle
 10
123.968704
 20
280.069672
 30
0.0
 40
1.999977999999999
100
AcDbArc
 50
270.274701
 51
327.715977
  0
LINE
  5
16D4
330
A
100
AcDbEntity
  8
0
 62
     7
 48
0.101243
100
AcDbLine
 10
123.978294
 20
278.069702
 30
0.0
 11
128.028
 21
278.069702
 31
0.0
  0
LINE
  5
16D5
330
A
100
AcDbEntity
  8
0
 62
     7
 48
0.101243
100
AcDbLine
 10
134.331192
 20
278.069702
 30
0.0
 11
138.380905
 21
278.069702
 31
0.0
  0
ARC
  5
16D6
330
A
100
AcDbEntity
  8
0
 62
     7
100
AcDbCircle
 10
138.390488
 20
280.069672
 30
0.0
 40
1.999977999999999
100
AcDbArc
 50
212.284032
 51
269.725301
  0
LINE
  5
16D7
330
A
100
AcDbEntity
  8
0
 62
     7
 48
0.073929
100
AcDbLine
 10
125.659492
 20
279.0014339999999
 30
0.0
 11
128.616653
 21
279.0014339999999
 31
0.0
  0
LINE
  5
16D8
330
A
100
AcDbEntity
  8
0
 62
     7
 48
0.073929
100
AcDbLine
 10
133.742523
 20
279.0014339999999
 30
0.0
 11
136.699692
 21
279.0014339999999
 31
0.0
  0
LINE
  5
16D9
330
A
100
AcDbEntity
  8
0
 62
     7
 48
0.10603
100
AcDbLine
 10
134.434387
 20
282.586975
 30
0.0
 11
136.699692
 21
279.0014339999999
 31
0.0
  0
LINE
  5
16DA
330
A
100
AcDbEntity
  8
0
 62
     7
 48
0.10603
100
AcDbLine
 10
127.924812
 20
282.586975
 30
0.0
 11
125.659508
 21
279.0014339999999
 31
0.0
  0
LINE
  5
16DB
330
A
100
AcDbEntity
  8
0
 62
     7
 48
0.032049
100
AcDbLine
 10
128.609512
 20
283.670715
 30
0.0
 11
127.924805
 21
282.586945
 31
0.0
  0
LINE
  5
16DC
330
A
100
AcDbEntity
  8
0
 62
     7
 48
0.032049
100
AcDbLine
 10
133.74968
 20
283.670715
 30
0.0
 11
134.434387
 21
282.586945
 31
0.0
  0
LINE
  5
16DD
330
A
100
AcDbEntity
  8
0
 62
     7
 48
0.128504
100
AcDbLine
 10
128.609512
 20
283.670715
 30
0.0
 11
133.74968
 21
283.670715
 31
0.0
  0
ARC
  5
16DE
330
A
100
AcDbEntity
  8
0
 62
     7
100
AcDbCircle
 10
131.179596
 20
282.046936
 30
0.0
 40
3.040058
100
AcDbArc
 50
32.284395
 51
90.00000300000001
  0
ARC
  5
16DF
330
A
100
AcDbEntity
  8
0
 62
     7
100
AcDbCircle
 10
131.179596
 20
282.046936
 30
0.0
 40
3.040058
100
AcDbArc
 50
90.00000300000001
 51
147.7156
  0
LINE
  5
16E0
330
A
100
AcDbEntity
  8
0
 62
     7
 48
0.117797
100
AcDbLine
 10
201.553375
 20
331.613159
 30
0.0
 11
201.306778
 21
326.9077450000001
 31
0.0
  0
LINE
  5
16E1
330
A
100
AcDbEntity
  8
0
 62
     7
 48
0.062586
100
AcDbLine
 10
199.049927
 20
331.613159
 30
0.0
 11
201.553375
 21
331.613159
 31
0.0
  0
LINE
  5
16E2
330
A
100
AcDbEntity
  8
0
 62
     7
 48
0.062586
100
AcDbLine
 10
60.805809
 20
331.613159
 30
0.0
 11
63.30925799999999
 21
331.613159
 31
0.0
  0
LINE
  5
16E3
330
A
100
AcDbEntity
  8
0
 62
     7
 48
0.023196
100
AcDbLine
 10
60.805809
 20
331.613159
 30
0.0
 11
60.85436999999999
 21
330.686584
 31
0.0
  0
POLYLINE
  5
16E4
330
A
100
AcDbEntity
  8
0
 62
     7
100
AcDb2dPolyline
 66
     1
 10
0.0
 20
0.0
 30
0.0
  0
VERTEX
  5
16E5
330
16E4
100
AcDbEntity
  8
0
100
AcDbVertex
100
AcDb2dVertex
 10
201.306778
 20
326.9077450000001
 30
0.0
  0
VERTEX
  5
16E6
330
16E4
100
AcDbEntity
  8
0
100
AcDbVertex
100
AcDb2dVertex
 10
200.27626
 20
324.3797
 30
0.0
  0
VERTEX
  5
16E7
330
16E4
100
AcDbEntity
  8
0
100
AcDbVertex
100
AcDb2dVertex
 10
199.437347
 20
322.189606
 30
0.0
  0
SEQEND
  5
16E8
330
16E4
100
AcDbEntity
  8
0
  0
ARC
  5
16E9
330
A
100
AcDbEntity
  8
0
 62
     7
100
AcDbCircle
 10
202.052673
 20
331.587006
 30
0.0
 40
0.499991
100
AcDbArc
 50
89.998438
 51
177.001566
  0
LINE
  5
16EA
330
A
100
AcDbEntity
  8
0
 62
     7
 48
0.074835
100
AcDbLine
 10
199.059296
 20
332.087006
 30
0.0
 11
202.052704
 21
332.087006
 31
0.0
  0
LINE
  5
16EB
330
A
100
AcDbEntity
  8
0
 62
     7
 48
0.215414
100
AcDbLine
 10
61.30532800000001
 20
322.081818
 30
0.0
 11
60.85436999999999
 21
330.686584
 31
0.0
  0
LINE
  5
16EC
330
A
100
AcDbEntity
  8
0
 62
     7
 48
0.02604
100
AcDbLine
 10
73.90262599999999
 20
279.739929
 30
0.0
 11
74.94420600000001
 21
279.739929
 31
0.0
  0
ARC
  5
16ED
330
A
100
AcDbEntity
  8
0
 62
     7
100
AcDbCircle
 10
288.872345
 20
283.694092
 30
0.0
 40
94.31268299999999
100
AcDbArc
 50
154.512826
 51
155.967616
  0
ARC
  5
16EE
330
A
100
AcDbEntity
  8
0
 62
     7
100
AcDbCircle
 10
203.803284
 20
326.7768549999999
 30
0.0
 40
2.499984999999999
100
AcDbArc
 50
176.998629
 51
268.501375
  0
LINE
  5
16EF
330
A
100
AcDbEntity
  8
0
 62
     7
 48
0.074814
100
AcDbLine
 10
60.306496
 20
332.087006
 30
0.0
 11
63.29904899999999
 21
332.087006
 31
0.0
  0
ARC
  5
16F0
330
A
100
AcDbEntity
  8
0
 62
     7
100
AcDbCircle
 10
60.306511
 20
331.587006
 30
0.0
 40
0.499991
100
AcDbArc
 50
2.998438999999999
 51
90.00156
  0
LINE
  5
16F1
330
A
100
AcDbEntity
  8
0
 62
     7
 48
0.062586
100
AcDbLine
 10
60.805809
 20
331.613159
 30
0.0
 11
63.30925799999999
 21
331.613159
 31
0.0
  0
LINE
  5
16F2
330
A
100
AcDbEntity
  8
0
 62
     7
 48
0.028172
100
AcDbLine
 10
59.17959599999999
 20
332.087006
 30
0.0
 11
60.306496
 21
332.087006
 31
0.0
  0
LINE
  5
16F3
330
A
100
AcDbEntity
  8
0
 62
     7
 48
0.074814
100
AcDbLine
 10
60.306496
 20
332.087006
 30
0.0
 11
63.29904899999999
 21
332.087006
 31
0.0
  0
LINE
  5
16F4
330
A
100
AcDbEntity
  8
0
 62
     7
 48
0.028172
100
AcDbLine
 10
202.052704
 20
332.087006
 30
0.0
 11
203.179596
 21
332.087006
 31
0.0
  0
LINE
  5
16F5
330
A
100
AcDbEntity
  8
0
 62
     7
 48
0.058895
100
AcDbLine
 10
73.90262599999999
 20
279.739929
 30
0.0
 11
71.546814
 21
279.739929
 31
0.0
  0
POLYLINE
  5
16F6
330
A
100
AcDbEntity
  8
0
 62
     7
100
AcDb2dPolyline
 66
     1
 10
0.0
 20
0.0
 30
0.0
  0
VERTEX
  5
16F7
330
16F6
100
AcDbEntity
  8
0
100
AcDbVertex
100
AcDb2dVertex
 10
71.546814
 20
279.739929
 30
0.0
  0
VERTEX
  5
16F8
330
16F6
100
AcDbEntity
  8
0
100
AcDbVertex
100
AcDb2dVertex
 10
70.792389
 20
280.779419
 30
0.0
  0
VERTEX
  5
16F9
330
16F6
100
AcDbEntity
  8
0
100
AcDbVertex
100
AcDb2dVertex
 10
70.078041
 20
281.843903
 30
0.0
  0
VERTEX
  5
16FA
330
16F6
100
AcDbEntity
  8
0
100
AcDbVertex
100
AcDb2dVertex
 10
69.403221
 20
282.931366
 30
0.0
  0
VERTEX
  5
16FB
330
16F6
100
AcDbEntity
  8
0
100
AcDbVertex
100
AcDb2dVertex
 10
68.76707500000001
 20
284.039948
 30
0.0
  0
VERTEX
  5
16FC
330
16F6
100
AcDbEntity
  8
0
100
AcDbVertex
100
AcDb2dVertex
 10
68.16863999999999
 20
285.167786
 30
0.0
  0
VERTEX
  5
16FD
330
16F6
100
AcDbEntity
  8
0
100
AcDbVertex
100
AcDb2dVertex
 10
67.606842
 20
286.313019
 30
0.0
  0
VERTEX
  5
16FE
330
16F6
100
AcDbEntity
  8
0
100
AcDbVertex
100
AcDb2dVertex
 10
67.08053599999999
 20
287.473907
 30
0.0
  0
VERTEX
  5
16FF
330
16F6
100
AcDbEntity
  8
0
100
AcDbVertex
100
AcDb2dVertex
 10
66.58844000000001
 20
288.648743
 30
0.0
  0
VERTEX
  5
1700
330
16F6
100
AcDbEntity
  8
0
100
AcDbVertex
100
AcDb2dVertex
 10
66.12925
 20
289.835968
 30
0.0
  0
VERTEX
  5
1701
330
16F6
100
AcDbEntity
  8
0
100
AcDbVertex
100
AcDb2dVertex
 10
65.701553
 20
291.034119
 30
0.0
  0
VERTEX
  5
1702
330
16F6
100
AcDbEntity
  8
0
100
AcDbVertex
100
AcDb2dVertex
 10
65.30394
 20
292.241821
 30
0.0
  0
VERTEX
  5
1703
330
16F6
100
AcDbEntity
  8
0
100
AcDbVertex
100
AcDb2dVertex
 10
64.93492899999999
 20
293.457947
 30
0.0
  0
VERTEX
  5
1704
330
16F6
100
AcDbEntity
  8
0
100
AcDbVertex
100
AcDb2dVertex
 10
64.593056
 20
294.681519
 30
0.0
  0
VERTEX
  5
1705
330
16F6
100
AcDbEntity
  8
0
100
AcDbVertex
100
AcDb2dVertex
 10
64.27686300000001
 20
295.91156
 30
0.0
  0
VERTEX
  5
1706
330
16F6
100
AcDbEntity
  8
0
100
AcDbVertex
100
AcDb2dVertex
 10
63.98493199999999
 20
297.147278
 30
0.0
  0
VERTEX
  5
1707
330
16F6
100
AcDbEntity
  8
0
100
AcDbVertex
100
AcDb2dVertex
 10
63.715874
 20
298.387756
 30
0.0
  0
VERTEX
  5
1708
330
16F6
100
AcDbEntity
  8
0
100
AcDbVertex
100
AcDb2dVertex
 10
63.468338
 20
299.632294
 30
0.0
  0
VERTEX
  5
1709
330
16F6
100
AcDbEntity
  8
0
100
AcDbVertex
100
AcDb2dVertex
 10
63.24099
 20
300.880127
 30
0.0
  0
VERTEX
  5
170A
330
16F6
100
AcDbEntity
  8
0
100
AcDbVertex
100
AcDb2dVertex
 10
62.841728
 20
303.383148
 30
0.0
  0
VERTEX
  5
170B
330
16F6
100
AcDbEntity
  8
0
100
AcDbVertex
100
AcDb2dVertex
 10
62.50809499999999
 20
305.891937
 30
0.0
  0
VERTEX
  5
170C
330
16F6
100
AcDbEntity
  8
0
100
AcDbVertex
100
AcDb2dVertex
 10
62.230515
 20
308.402344
 30
0.0
  0
VERTEX
  5
170D
330
16F6
100
AcDbEntity
  8
0
100
AcDbVertex
100
AcDb2dVertex
 10
61.999802
 20
310.910767
 30
0.0
  0
VERTEX
  5
170E
330
16F6
100
AcDbEntity
  8
0
100
AcDbVertex
100
AcDb2dVertex
 10
61.807053
 20
313.413696
 30
0.0
  0
VERTEX
  5
170F
330
16F6
100
AcDbEntity
  8
0
100
AcDbVertex
100
AcDb2dVertex
 10
61.570061
 20
317.150513
 30
0.0
  0
VERTEX
  5
1710
330
16F6
100
AcDbEntity
  8
0
100
AcDbVertex
100
AcDb2dVertex
 10
61.30533599999999
 20
322.081818
 30
0.0
  0
SEQEND
  5
1711
330
16F6
100
AcDbEntity
  8
0
  0
ARC
  5
1712
330
A
100
AcDbEntity
  8
0
 62
     7
100
AcDbCircle
 10
181.882599
 20
280.258972
 30
0.0
 40
5.359572
100
AcDbArc
 50
290.978063
 51
321.509442
  0
POLYLINE
  5
1713
330
A
100
AcDbEntity
  8
0
 62
     7
100
AcDb2dPolyline
 66
     1
 10
0.0
 20
0.0
 30
0.0
  0
VERTEX
  5
1714
330
1713
100
AcDbEntity
  8
0
100
AcDbVertex
100
AcDb2dVertex
 10
183.80159
 20
275.254089
 30
0.0
  0
VERTEX
  5
1715
330
1713
100
AcDbEntity
  8
0
100
AcDbVertex
100
AcDb2dVertex
 10
183.101181
 20
275.0279240000001
 30
0.0
  0
VERTEX
  5
1716
330
1713
100
AcDbEntity
  8
0
100
AcDbVertex
100
AcDb2dVertex
 10
182.426163
 20
274.886047
 30
0.0
  0
VERTEX
  5
1717
330
1713
100
AcDbEntity
  8
0
100
AcDbVertex
100
AcDb2dVertex
 10
181.706604
 20
274.80072
 30
0.0
  0
SEQEND
  5
1718
330
1713
100
AcDbEntity
  8
0
  0
ARC
  5
1719
330
A
100
AcDbEntity
  8
0
 62
     7
100
AcDbCircle
 10
180.835327
 20
287.270355
 30
0.0
 40
12.500036
100
AcDbArc
 50
268.115521
 51
273.996812
  0
LINE
  5
171A
330
A
100
AcDbEntity
  8
0
 62
     7
100
AcDbLine
 10
180.424194
 20
274.7771
 30
0.0
 11
81.93499
 21
274.7771
 31
0.0
  0
ARC
  5
171B
330
A
100
AcDbEntity
  8
0
 62
     7
100
AcDbCircle
 10
81.52393299999999
 20
287.270325
 30
0.0
 40
12.5
100
AcDbArc
 50
248.008223
 51
271.884488
  0
LINE
  5
171C
330
A
100
AcDbEntity
  8
0
 62
     7
100
AcDbLine
 10
182.473541
 20
274.817444
 30
0.0
 11
242.258331
 21
273.251923
 31
0.0
  0
LINE
  5
171D
330
A
100
AcDbEntity
  8
0
 62
     7
 48
0.055002
100
AcDbLine
 10
242.258331
 20
273.251923
 30
0.0
 11
242.315948
 21
275.451233
 31
0.0
  0
LINE
  5
171E
330
A
100
AcDbEntity
  8
0
 62
     7
 48
0.055004
100
AcDbLine
 10
243.509613
 20
321.0354
 30
0.0
 11
243.5672
 21
323.234802
 31
0.0
  0
LINE
  5
171F
330
A
100
AcDbEntity
  8
0
 62
     7
100
AcDbLine
 10
203.737915
 20
324.277771
 30
0.0
 11
243.5672
 21
323.234802
 31
0.0
  0
ELLIPSE
  5
1720
330
A
100
AcDbEntity
  8
0
 62
     7
100
AcDbEllipse
 10
160.487274
 20
306.162628
 30
0.0
 11
31.79579162597656
 21
-27.19989013671875
 31
0.0
210
0.0
220
0.0
230
1.0
 40
0.491167
 41
5.951059818267822
 42
6.123660087585449
  0
POLYLINE
  5
1721
330
A
100
AcDbEntity
  8
0
 62
     7
100
AcDb2dPolyline
 66
     1
 10
0.0
 20
0.0
 30
0.0
  0
VERTEX
  5
1722
330
1721
100
AcDbEntity
  8
0
100
AcDbVertex
100
AcDb2dVertex
 10
186.189499
 20
275.357178
 30
0.0
  0
VERTEX
  5
1723
330
1721
100
AcDbEntity
  8
0
100
AcDbVertex
100
AcDb2dVertex
 10
185.246964
 20
275.145477
 30
0.0
  0
VERTEX
  5
1724
330
1721
100
AcDbEntity
  8
0
100
AcDbVertex
100
AcDb2dVertex
 10
184.085449
 20
274.958923
 30
0.0
  0
VERTEX
  5
1725
330
1721
100
AcDbEntity
  8
0
100
AcDbVertex
100
AcDb2dVertex
 10
183.025742
 20
274.8520200000001
 30
0.0
  0
VERTEX
  5
1726
330
1721
100
AcDbEntity
  8
0
100
AcDbVertex
100
AcDb2dVertex
 10
182.5007629999999
 20
274.818848
 30
0.0
  0
VERTEX
  5
1727
330
1721
100
AcDbEntity
  8
0
100
AcDbVertex
100
AcDb2dVertex
 10
182.473541
 20
274.817444
 30
0.0
  0
SEQEND
  5
1728
330
1721
100
AcDbEntity
  8
0
  0
LINE
  5
1729
330
A
100
AcDbEntity
  8
0
 62
     7
 48
0.0375
100
AcDbLine
 10
203.179596
 20
332.087006
 30
0.0
 11
203.179596
 21
333.587006
 31
0.0
  0
LINE
  5
172A
330
A
100
AcDbEntity
  8
0
 62
     7
 48
0.001046
100
AcDbLine
 10
203.137756
 20
333.587006
 30
0.0
 11
203.179596
 21
333.587006
 31
0.0
  0
LINE
  5
172B
330
A
100
AcDbEntity
  8
0
 62
     7
 48
0.001053
100
AcDbLine
 10
59.17959599999999
 20
333.587006
 30
0.0
 11
59.221718
 21
333.587006
 31
0.0
  0
LINE
  5
172C
330
A
100
AcDbEntity
  8
0
 62
     7
 48
0.0375
100
AcDbLine
 10
59.17959599999999
 20
332.087006
 30
0.0
 11
59.17959599999999
 21
333.587006
 31
0.0
  0
ARC
  5
172D
330
A
100
AcDbEntity
  8
0
 62
     7
100
AcDbCircle
 10
81.524063
 20
287.270477
 30
0.0
 40
12.500194
100
AcDbArc
 50
217.044482
 51
248.007936
  0
ARC
  5
172E
330
A
100
AcDbEntity
  8
0
 62
     7
100
AcDbCircle
 10
185.238419
 20
269.605682
 30
0.0
 40
5.828923
100
AcDbArc
 50
80.61035699999999
 51
104.274681
  0
ARC
  5
172F
330
A
100
AcDbEntity
  8
0
 62
     7
100
AcDbCircle
 10
182.26413
 20
266.82019
 30
0.0
 40
8.0
100
AcDbArc
 50
88.500025
 51
93.99681700000002
  0
ARC
  5
1730
330
A
100
AcDbEntity
  8
0
 62
     7
100
AcDbCircle
 10
131.179611
 20
-1221.913086
 30
0.0
 40
1497.5
100
AcDbArc
 50
90.27506800000001
 51
91.88448599999999
  0
ARC
  5
1731
330
A
100
AcDbEntity
  8
0
 62
     7
100
AcDbCircle
 10
131.179611
 20
-1221.913086
 30
0.0
 40
1497.5
100
AcDbArc
 50
88.115512
 51
89.72493
  0
LINE
  5
1732
330
A
100
AcDbEntity
  8
0
 62
     7
 48
0.3594650000000001
100
AcDbLine
 10
123.990295
 20
275.569733
 30
0.0
 11
138.368896
 21
275.569733
 31
0.0
  0
LINE
  5
1733
330
A
100
AcDbEntity
  8
0
 62
     7
 48
0.046627
100
AcDbLine
 10
243.516693
 20
273.554016
 30
0.0
 11
243.565521
 21
275.418457
 31
0.0
  0
ARC
  5
1734
330
A
100
AcDbEntity
  8
0
 62
     7
100
AcDbCircle
 10
242.323792
 20
275.751068
 30
0.0
 40
2.499997
100
AcDbArc
 50
268.499979
 51
298.5000200000001
  0
ARC
  5
1735
330
A
100
AcDbEntity
  8
0
 62
     7
100
AcDbCircle
 10
243.50174
 20
320.735657
 30
0.0
 40
2.499997
100
AcDbArc
 50
58.49998299999999
 51
88.500025
  0
LINE
  5
1736
330
A
100
AcDbEntity
  8
0
 62
     7
 48
0.046638
100
AcDbLine
 10
244.759171
 20
321.00235
 30
0.0
 11
244.807983
 21
322.867249
 31
0.0
  0
ARC
  5
1737
330
A
100
AcDbEntity
  8
0
 62
     7
100
AcDbCircle
 10
59.679581
 20
333.587006
 30
0.0
 40
0.499996
100
AcDbArc
 50
89.998643
 51
180.001357
  0
LINE
  5
1738
330
A
100
AcDbEntity
  8
0
 62
     7
 48
0.058254
100
AcDbLine
 10
244.807983
 20
322.867249
 30
0.0
 11
246.794754
 21
321.64975
 31
0.0
  0
LINE
  5
1739
330
A
100
AcDbEntity
  8
0
 62
     7
 48
0.058254
100
AcDbLine
 10
243.516663
 20
273.554016
 30
0.0
 11
245.564438
 21
274.665863
 31
0.0
  0
LINE
  5
173A
330
A
100
AcDbEntity
  8
0
 62
     7
 48
0.075214
100
AcDbLine
 10
199.671051
 20
334.087006
 30
0.0
 11
202.679596
 21
334.087006
 31
0.0
  0
ARC
  5
173B
330
A
100
AcDbEntity
  8
0
 62
     7
100
AcDbCircle
 10
202.679596
 20
333.587006
 30
0.0
 40
0.499996
100
AcDbArc
 50
359.998644
 51
450.001355
  0
LINE
  5
173C
330
A
100
AcDbEntity
  8
0
 62
     7
 48
0.001046
100
AcDbLine
 10
203.137756
 20
333.587006
 30
0.0
 11
203.179596
 21
333.587006
 31
0.0
  0
LINE
  5
173D
330
A
100
AcDbEntity
  8
0
 62
     7
 48
0.075643
100
AcDbLine
 10
202.679794
 20
334.087006
 30
0.0
 11
199.654083
 21
334.087006
 31
0.0
  0
LINE
  5
173E
330
A
100
AcDbEntity
  8
0
 62
     7
 48
0.011868
100
AcDbLine
 10
199.179382
 20
334.087006
 30
0.0
 11
199.654083
 21
334.087006
 31
0.0
  0
LINE
  5
173F
330
A
100
AcDbEntity
  8
0
 62
     7
 48
0.011868
100
AcDbLine
 10
62.705116
 20
334.087006
 30
0.0
 11
63.17984
 21
334.087006
 31
0.0
  0
LINE
  5
1740
330
A
100
AcDbEntity
  8
0
 62
     7
 48
0.075643
100
AcDbLine
 10
62.705116
 20
334.087006
 30
0.0
 11
59.67939799999999
 21
334.087006
 31
0.0
  0
LINE
  5
1741
330
A
100
AcDbEntity
  8
0
 62
     7
 48
0.017502
100
AcDbLine
 10
246.776428
 20
320.950012
 30
0.0
 11
246.794754
 21
321.649872
 31
0.0
  0
LINE
  5
1742
330
A
100
AcDbEntity
  8
0
 62
     7
100
AcDbLine
 10
245.582764
 20
275.365631
 30
0.0
 11
246.776428
 21
320.950012
 31
0.0
  0
LINE
  5
1743
330
A
100
AcDbEntity
  8
0
 62
     7
 48
0.017502
100
AcDbLine
 10
245.564438
 20
274.665771
 30
0.0
 11
245.582764
 21
275.365631
 31
0.0
  0
LINE
  5
1744
330
A
100
AcDbEntity
  8
0
 62
     7
 48
0.0369
100
AcDbLine
 10
197.678772
 20
333.613159
 30
0.0
 11
199.154755
 21
333.613159
 31
0.0
  0
ARC
  5
1745
330
A
100
AcDbEntity
  8
0
 62
     7
100
AcDbCircle
 10
199.654053
 20
333.587006
 30
0.0
 40
0.499991
100
AcDbArc
 50
89.998438
 51
177.001566
  0
POLYLINE
  5
1746
330
A
100
AcDbEntity
  8
0
 62
     7
100
AcDb2dPolyline
 66
     1
 10
0.0
 20
0.0
 30
0.0
  0
VERTEX
  5
1747
330
1746
100
AcDbEntity
  8
0
100
AcDbVertex
100
AcDb2dVertex
 10
187.238388
 20
281.2460019999999
 30
0.0
  0
VERTEX
  5
1748
330
1746
100
AcDbEntity
  8
0
100
AcDbVertex
100
AcDb2dVertex
 10
187.848129
 20
282.709259
 30
0.0
  0
VERTEX
  5
1749
330
1746
100
AcDbEntity
  8
0
100
AcDbVertex
100
AcDb2dVertex
 10
188.258514
 20
283.80191
 30
0.0
  0
VERTEX
  5
174A
330
1746
100
AcDbEntity
  8
0
100
AcDbVertex
100
AcDb2dVertex
 10
188.666168
 20
284.983704
 30
0.0
  0
VERTEX
  5
174B
330
1746
100
AcDbEntity
  8
0
100
AcDbVertex
100
AcDb2dVertex
 10
189.265671
 20
286.914063
 30
0.0
  0
VERTEX
  5
174C
330
1746
100
AcDbEntity
  8
0
100
AcDbVertex
100
AcDb2dVertex
 10
189.8461
 20
289.01825
 30
0.0
  0
VERTEX
  5
174D
330
1746
100
AcDbEntity
  8
0
100
AcDbVertex
100
AcDb2dVertex
 10
190.407074
 20
291.275482
 30
0.0
  0
VERTEX
  5
174E
330
1746
100
AcDbEntity
  8
0
100
AcDbVertex
100
AcDb2dVertex
 10
190.952637
 20
293.660675
 30
0.0
  0
VERTEX
  5
174F
330
1746
100
AcDbEntity
  8
0
100
AcDbVertex
100
AcDb2dVertex
 10
191.668671
 20
296.988098
 30
0.0
  0
VERTEX
  5
1750
330
1746
100
AcDbEntity
  8
0
100
AcDbVertex
100
AcDb2dVertex
 10
192.573456
 20
301.268555
 30
0.0
  0
VERTEX
  5
1751
330
1746
100
AcDbEntity
  8
0
100
AcDbVertex
100
AcDb2dVertex
 10
193.324203
 20
304.679382
 30
0.0
  0
VERTEX
  5
1752
330
1746
100
AcDbEntity
  8
0
100
AcDbVertex
100
AcDb2dVertex
 10
194.103912
 20
307.976135
 30
0.0
  0
VERTEX
  5
1753
330
1746
100
AcDbEntity
  8
0
100
AcDbVertex
100
AcDb2dVertex
 10
194.904099
 20
311.072662
 30
0.0
  0
VERTEX
  5
1754
330
1746
100
AcDbEntity
  8
0
100
AcDbVertex
100
AcDb2dVertex
 10
195.704636
 20
313.896057
 30
0.0
  0
VERTEX
  5
1755
330
1746
100
AcDbEntity
  8
0
100
AcDbVertex
100
AcDb2dVertex
 10
196.475723
 20
316.386139
 30
0.0
  0
VERTEX
  5
1756
330
1746
100
AcDbEntity
  8
0
100
AcDbVertex
100
AcDb2dVertex
 10
197.342194
 20
318.954376
 30
0.0
  0
VERTEX
  5
1757
330
1746
100
AcDbEntity
  8
0
100
AcDbVertex
100
AcDb2dVertex
 10
198.230621
 20
321.371887
 30
0.0
  0
VERTEX
  5
1758
330
1746
100
AcDbEntity
  8
0
100
AcDbVertex
100
AcDb2dVertex
 10
198.557281
 20
322.212646
 30
0.0
  0
SEQEND
  5
1759
330
1746
100
AcDbEntity
  8
0
  0
POLYLINE
  5
175A
330
A
100
AcDbEntity
  8
0
 62
     7
100
AcDb2dPolyline
 66
     1
 10
0.0
 20
0.0
 30
0.0
  0
VERTEX
  5
175B
330
175A
100
AcDbEntity
  8
0
100
AcDbVertex
100
AcDb2dVertex
 10
181.37442
 20
277.291443
 30
0.0
  0
VERTEX
  5
175C
330
175A
100
AcDbEntity
  8
0
100
AcDbVertex
100
AcDb2dVertex
 10
181.884171
 20
277.340881
 30
0.0
  0
VERTEX
  5
175D
330
175A
100
AcDbEntity
  8
0
100
AcDbVertex
100
AcDb2dVertex
 10
182.325958
 20
277.409302
 30
0.0
  0
VERTEX
  5
175E
330
175A
100
AcDbEntity
  8
0
100
AcDbVertex
100
AcDb2dVertex
 10
182.735321
 20
277.495789
 30
0.0
  0
VERTEX
  5
175F
330
175A
100
AcDbEntity
  8
0
100
AcDbVertex
100
AcDb2dVertex
 10
183.117935
 20
277.59845
 30
0.0
  0
VERTEX
  5
1760
330
175A
100
AcDbEntity
  8
0
100
AcDbVertex
100
AcDb2dVertex
 10
183.481018
 20
277.717163
 30
0.0
  0
VERTEX
  5
1761
330
175A
100
AcDbEntity
  8
0
100
AcDbVertex
100
AcDb2dVertex
 10
183.829758
 20
277.852631
 30
0.0
  0
VERTEX
  5
1762
330
175A
100
AcDbEntity
  8
0
100
AcDbVertex
100
AcDb2dVertex
 10
184.164917
 20
278.004639
 30
0.0
  0
VERTEX
  5
1763
330
175A
100
AcDbEntity
  8
0
100
AcDbVertex
100
AcDb2dVertex
 10
184.487137
 20
278.173096
 30
0.0
  0
VERTEX
  5
1764
330
175A
100
AcDbEntity
  8
0
100
AcDbVertex
100
AcDb2dVertex
 10
184.798538
 20
278.359161
 30
0.0
  0
VERTEX
  5
1765
330
175A
100
AcDbEntity
  8
0
100
AcDbVertex
100
AcDb2dVertex
 10
185.099014
 20
278.56311
 30
0.0
  0
VERTEX
  5
1766
330
175A
100
AcDbEntity
  8
0
100
AcDbVertex
100
AcDb2dVertex
 10
185.388107
 20
278.785004
 30
0.0
  0
VERTEX
  5
1767
330
175A
100
AcDbEntity
  8
0
100
AcDbVertex
100
AcDb2dVertex
 10
185.665527
 20
279.025177
 30
0.0
  0
VERTEX
  5
1768
330
175A
100
AcDbEntity
  8
0
100
AcDbVertex
100
AcDb2dVertex
 10
185.930984
 20
279.283997
 30
0.0
  0
VERTEX
  5
1769
330
175A
100
AcDbEntity
  8
0
100
AcDbVertex
100
AcDb2dVertex
 10
186.184082
 20
279.56192
 30
0.0
  0
VERTEX
  5
176A
330
175A
100
AcDbEntity
  8
0
100
AcDbVertex
100
AcDb2dVertex
 10
186.424225
 20
279.859314
 30
0.0
  0
VERTEX
  5
176B
330
175A
100
AcDbEntity
  8
0
100
AcDbVertex
100
AcDb2dVertex
 10
186.650635
 20
280.176361
 30
0.0
  0
VERTEX
  5
176C
330
175A
100
AcDbEntity
  8
0
100
AcDbVertex
100
AcDb2dVertex
 10
186.862427
 20
280.5131839999999
 30
0.0
  0
VERTEX
  5
176D
330
175A
100
AcDbEntity
  8
0
100
AcDbVertex
100
AcDb2dVertex
 10
187.15065
 20
281.05542
 30
0.0
  0
VERTEX
  5
176E
330
175A
100
AcDbEntity
  8
0
100
AcDbVertex
100
AcDb2dVertex
 10
187.238373
 20
281.2460019999999
 30
0.0
  0
SEQEND
  5
176F
330
175A
100
AcDbEntity
  8
0
  0
LINE
  5
1770
330
A
100
AcDbEntity
  8
0
 62
     7
 48
0.006108
100
AcDbLine
 10
181.368011
 20
277.04715
 30
0.0
 11
181.37442
 21
277.291382
 31
0.0
  0
LINE
  5
1771
330
A
100
AcDbEntity
  8
0
 62
     7
100
AcDbLine
 10
181.368011
 20
277.04715
 30
0.0
 11
245.582764
 21
275.365631
 31
0.0
  0
LINE
  5
1772
330
A
100
AcDbEntity
  8
0
 62
     7
100
AcDbLine
 10
198.557281
 20
322.212646
 30
0.0
 11
246.776428
 21
320.950012
 31
0.0
  0
LINE
  5
1773
330
A
100
AcDbEntity
  8
0
 62
     7
 48
0.011868
100
AcDbLine
 10
62.705116
 20
334.087006
 30
0.0
 11
63.17984
 21
334.087006
 31
0.0
  0
ARC
  5
1774
330
A
100
AcDbEntity
  8
0
 62
     7
100
AcDbCircle
 10
62.705124
 20
333.587006
 30
0.0
 40
0.499991
100
AcDbArc
 50
2.998438999999999
 51
90.00156
  0
LINE
  5
1775
330
A
100
AcDbEntity
  8
0
 62
     7
 48
0.036886
100
AcDbLine
 10
63.20443
 20
333.613159
 30
0.0
 11
64.67988599999999
 21
333.613159
 31
0.0
  0
LINE
  5
1776
330
A
100
AcDbEntity
  8
0
 62
     7
 48
0.285404
100
AcDbLine
 10
199.154755
 20
333.613159
 30
0.0
 11
198.557281
 21
322.212646
 31
0.0
  0
LINE
  5
1777
330
A
100
AcDbEntity
  8
0
 62
     7
 48
0.036886
100
AcDbLine
 10
63.20443
 20
333.613159
 30
0.0
 11
64.67988599999999
 21
333.613159
 31
0.0
  0
LINE
  5
1778
330
A
100
AcDbEntity
  8
0
 62
     7
 48
0.136243
100
AcDbLine
 10
63.20443
 20
333.613159
 30
0.0
 11
63.48964699999999
 21
328.170898
 31
0.0
  0
LINE
  5
1779
330
A
100
AcDbEntity
  8
0
 62
     7
100
AcDbLine
 10
74.807907
 20
281.2460019999999
 30
0.0
 11
98.450859
 21
281.2460019999999
 31
0.0
  0
LINE
  5
177A
330
A
100
AcDbEntity
  8
0
 62
     7
100
AcDbLine
 10
163.908401
 20
281.2460019999999
 30
0.0
 11
187.238388
 21
281.2460019999999
 31
0.0
  0
ARC
  5
177B
330
A
100
AcDbEntity
  8
0
 62
     7
100
AcDbCircle
 10
180.750153
 20
286.525299
 30
0.0
 40
9.254997999999998
100
AcDbArc
 50
269.966919
 51
273.8677009999999
  0
ARC
  5
177C
330
A
100
AcDbEntity
  8
0
 62
     7
100
AcDbCircle
 10
180.749847
 20
286.532043
 30
0.0
 40
9.26173
100
AcDbArc
 50
268.041652
 51
269.968777
  0
LINE
  5
177D
330
A
100
AcDbEntity
  8
0
 62
     7
100
AcDbLine
 10
81.852783
 20
277.275726
 30
0.0
 11
127.496262
 21
277.275726
 31
0.0
  0
LINE
  5
177E
330
A
100
AcDbEntity
  8
0
 62
     7
100
AcDbLine
 10
134.862946
 20
277.275726
 30
0.0
 11
179.544403
 21
277.275726
 31
0.0
  0
ARC
  5
177F
330
A
100
AcDbEntity
  8
0
 62
     7
100
AcDbCircle
 10
81.52393299999999
 20
287.270325
 30
0.0
 40
10.0
100
AcDbArc
 50
245.49735
 51
271.884488
  0
ARC
  5
1780
330
A
100
AcDbEntity
  8
0
 62
     7
100
AcDbCircle
 10
181.629776
 20
287.043701
 30
0.0
 40
9.999992
100
AcDbArc
 50
256.640441
 51
268.5000060000001
  0
LINE
  5
1781
330
A
100
AcDbEntity
  8
0
 62
     7
 48
0.027871
100
AcDbLine
 10
179.319168
 20
277.314331
 30
0.0
 11
180.43335
 21
277.275726
 31
0.0
  0
LINE
  5
1782
330
A
100
AcDbEntity
  8
0
 62
     7
 48
0.149161
100
AcDbLine
 10
63.801903
 20
322.212646
 30
0.0
 11
63.48964699999999
 21
328.170898
 31
0.0
  0
POLYLINE
  5
1783
330
A
100
AcDbEntity
  8
0
 62
     7
100
AcDb2dPolyline
 66
     1
 10
0.0
 20
0.0
 30
0.0
  0
VERTEX
  5
1784
330
1783
100
AcDbEntity
  8
0
100
AcDbVertex
100
AcDb2dVertex
 10
73.542236
 20
281.2460019999999
 30
0.0
  0
VERTEX
  5
1785
330
1783
100
AcDbEntity
  8
0
100
AcDbVertex
100
AcDb2dVertex
 10
72.833115
 20
282.223602
 30
0.0
  0
VERTEX
  5
1786
330
1783
100
AcDbEntity
  8
0
100
AcDbVertex
100
AcDb2dVertex
 10
72.16127
 20
283.226379
 30
0.0
  0
VERTEX
  5
1787
330
1783
100
AcDbEntity
  8
0
100
AcDbVertex
100
AcDb2dVertex
 10
71.526115
 20
284.252625
 30
0.0
  0
VERTEX
  5
1788
330
1783
100
AcDbEntity
  8
0
100
AcDbVertex
100
AcDb2dVertex
 10
70.92681899999999
 20
285.300659
 30
0.0
  0
VERTEX
  5
1789
330
1783
100
AcDbEntity
  8
0
100
AcDbVertex
100
AcDb2dVertex
 10
70.362488
 20
286.368896
 30
0.0
  0
VERTEX
  5
178A
330
1783
100
AcDbEntity
  8
0
100
AcDbVertex
100
AcDb2dVertex
 10
69.832115
 20
287.455719
 30
0.0
  0
VERTEX
  5
178B
330
1783
100
AcDbEntity
  8
0
100
AcDbVertex
100
AcDb2dVertex
 10
69.33464100000001
 20
288.559509
 30
0.0
  0
VERTEX
  5
178C
330
1783
100
AcDbEntity
  8
0
100
AcDbVertex
100
AcDb2dVertex
 10
68.86893499999999
 20
289.6787109999999
 30
0.0
  0
VERTEX
  5
178D
330
1783
100
AcDbEntity
  8
0
100
AcDbVertex
100
AcDb2dVertex
 10
68.43377700000001
 20
290.81189
 30
0.0
  0
VERTEX
  5
178E
330
1783
100
AcDbEntity
  8
0
100
AcDbVertex
100
AcDb2dVertex
 10
68.02793900000001
 20
291.957642
 30
0.0
  0
VERTEX
  5
178F
330
1783
100
AcDbEntity
  8
0
100
AcDbVertex
100
AcDb2dVertex
 10
67.650116
 20
293.114685
 30
0.0
  0
VERTEX
  5
1790
330
1783
100
AcDbEntity
  8
0
100
AcDbVertex
100
AcDb2dVertex
 10
67.29901099999999
 20
294.28186
 30
0.0
  0
VERTEX
  5
1791
330
1783
100
AcDbEntity
  8
0
100
AcDbVertex
100
AcDb2dVertex
 10
66.97328900000001
 20
295.458191
 30
0.0
  0
VERTEX
  5
1792
330
1783
100
AcDbEntity
  8
0
100
AcDbVertex
100
AcDb2dVertex
 10
66.671631
 20
296.642731
 30
0.0
  0
VERTEX
  5
1793
330
1783
100
AcDbEntity
  8
0
100
AcDbVertex
100
AcDb2dVertex
 10
66.392746
 20
297.834595
 30
0.0
  0
VERTEX
  5
1794
330
1783
100
AcDbEntity
  8
0
100
AcDbVertex
100
AcDb2dVertex
 10
66.135368
 20
299.032959
 30
0.0
  0
VERTEX
  5
1795
330
1783
100
AcDbEntity
  8
0
100
AcDbVertex
100
AcDb2dVertex
 10
65.898262
 20
300.236969
 30
0.0
  0
VERTEX
  5
1796
330
1783
100
AcDbEntity
  8
0
100
AcDbVertex
100
AcDb2dVertex
 10
65.479996
 20
302.659058
 30
0.0
  0
VERTEX
  5
1797
330
1783
100
AcDbEntity
  8
0
100
AcDbVertex
100
AcDb2dVertex
 10
65.12847099999999
 20
305.09549
 30
0.0
  0
VERTEX
  5
1798
330
1783
100
AcDbEntity
  8
0
100
AcDbVertex
100
AcDb2dVertex
 10
64.834602
 20
307.541382
 30
0.0
  0
VERTEX
  5
1799
330
1783
100
AcDbEntity
  8
0
100
AcDbVertex
100
AcDb2dVertex
 10
64.589584
 20
309.992798
 30
0.0
  0
VERTEX
  5
179A
330
1783
100
AcDbEntity
  8
0
100
AcDbVertex
100
AcDb2dVertex
 10
64.384872
 20
312.446167
 30
0.0
  0
VERTEX
  5
179B
330
1783
100
AcDbEntity
  8
0
100
AcDbVertex
100
AcDb2dVertex
 10
64.135109
 20
316.1226200000001
 30
0.0
  0
VERTEX
  5
179C
330
1783
100
AcDbEntity
  8
0
100
AcDbVertex
100
AcDb2dVertex
 10
63.865242
 20
321.000427
 30
0.0
  0
VERTEX
  5
179D
330
1783
100
AcDbEntity
  8
0
100
AcDbVertex
100
AcDb2dVertex
 10
63.80190999999999
 20
322.212646
 30
0.0
  0
SEQEND
  5
179E
330
1783
100
AcDbEntity
  8
0
  0
LINE
  5
179F
330
A
100
AcDbEntity
  8
0
 62
     7
 48
0.031642
100
AcDbLine
 10
74.80792199999999
 20
281.2460019999999
 30
0.0
 11
73.542236
 21
281.2460019999999
 31
0.0
  0
ARC
  5
17A0
330
A
100
AcDbEntity
  8
0
 62
     7
100
AcDbCircle
 10
131.179611
 20
-1221.913086
 30
0.0
 40
1500.0
100
AcDbArc
 50
90.27506800000001
 51
91.88448599999999
  0
ARC
  5
17A1
330
A
100
AcDbEntity
  8
0
 62
     7
100
AcDbCircle
 10
131.179611
 20
-1221.913086
 30
0.0
 40
1500.0
100
AcDbArc
 50
88.16088499999999
 51
89.72493
  0
LINE
  5
17A2
330
A
100
AcDbEntity
  8
0
 62
     7
 48
0.101243
100
AcDbLine
 10
134.331192
 20
278.069702
 30
0.0
 11
138.380905
 21
278.069702
 31
0.0
  0
LINE
  5
17A3
330
A
100
AcDbEntity
  8
0
 62
     7
 48
0.101243
100
AcDbLine
 10
123.978294
 20
278.069702
 30
0.0
 11
128.028
 21
278.069702
 31
0.0
  0
ARC
  5
17A4
330
A
100
AcDbEntity
  8
0
 62
     7
100
AcDbCircle
 10
81.52403300000001
 20
287.270447
 30
0.0
 40
10.000146
100
AcDbArc
 50
217.044387
 51
245.497131
  0
ARC
  5
17A5
330
A
100
AcDbEntity
  8
0
 62
     7
100
AcDbCircle
 10
123.968704
 20
280.069641
 30
0.0
 40
4.499967999999999
100
AcDbArc
 50
270.274892
 51
327.715861
  0
ARC
  5
17A6
330
A
100
AcDbEntity
  8
0
 62
     7
100
AcDbCircle
 10
138.390488
 20
280.069641
 30
0.0
 40
4.499967999999999
100
AcDbArc
 50
212.284141
 51
269.725103
  0
ARC
  5
17A7
330
A
100
AcDbEntity
  8
0
 62
     7
100
AcDbCircle
 10
123.9686889999999
 20
280.069672
 30
0.0
 40
1.999985999999999
100
AcDbArc
 50
270.275131
 51
327.715858
  0
ARC
  5
17A8
330
A
100
AcDbEntity
  8
0
 62
     7
100
AcDbCircle
 10
138.390503
 20
280.069672
 30
0.0
 40
1.999985999999999
100
AcDbArc
 50
212.284141
 51
269.724864
  0
ARC
  5
17A9
330
A
100
AcDbEntity
  8
0
 62
     7
100
AcDbCircle
 10
203.803497
 20
326.777039
 30
0.0
 40
2.500271
100
AcDbArc
 50
185.765166
 51
262.359639
  0
LINE
  5
17AA
330
A
100
AcDbEntity
  8
0
 62
     7
100
AcDbLine
 10
81.522217
 20
274.770325
 30
0.0
 11
180.835327
 21
274.770325
 31
0.0
  0
LINE
  5
17AB
330
A
100
AcDbEntity
  8
0
 62
     7
100
AcDbLine
 10
134.867233
 20
277.270325
 30
0.0
 11
179.53624
 21
277.270325
 31
0.0
  0
LINE
  5
17AC
330
A
100
AcDbEntity
  8
0
 62
     7
100
AcDbLine
 10
81.52214800000001
 20
277.270325
 30
0.0
 11
127.490982
 21
277.270325
 31
0.0
  0
LINE
  5
17AD
330
A
100
AcDbEntity
  8
0
 62
     7
100
AcDbLine
 10
134.696289
 20
325.487946
 30
0.0
 11
135.38472
 21
286.0473629999999
 31
0.0
  0
ARC
  5
17AE
330
A
100
AcDbEntity
  8
0
 62
     7
100
AcDbCircle
 10
133.696472
 20
325.47052
 30
0.0
 40
0.9999729999999999
100
AcDbArc
 50
0.9982939999999999
 51
82.40744799999999
  0
ARC
  5
17AF
330
A
100
AcDbEntity
  8
0
 62
     7
100
AcDbCircle
 10
134.093262
 20
328.444122
 30
0.0
 40
2.000039
100
AcDbArc
 50
180.999593
 51
262.395716
  0
LINE
  5
17B0
330
A
100
AcDbEntity
  8
0
 62
     7
 48
0.306137
100
AcDbLine
 10
131.879837
 20
340.652863
 30
0.0
 11
132.093552
 21
328.409241
 31
0.0
  0
ARC
  5
17B1
330
A
100
AcDbEntity
  8
0
 62
     7
100
AcDbCircle
 10
131.379929
 20
340.644165
 30
0.0
 40
0.4999950000000001
100
AcDbArc
 50
0.998675
 51
90.00132800000001
  0
LINE
  5
17B2
330
A
100
AcDbEntity
  8
0
 62
     7
 48
0.010016
100
AcDbLine
 10
131.379913
 20
341.144165
 30
0.0
 11
130.979279
 21
341.144165
 31
0.0
  0
ARC
  5
17B3
330
A
100
AcDbEntity
  8
0
 62
     7
100
AcDbCircle
 10
130.979263
 20
340.644165
 30
0.0
 40
0.4999950000000001
100
AcDbArc
 50
89.99867700000001
 51
179.001322
  0
LINE
  5
17B4
330
A
100
AcDbEntity
  8
0
 62
     7
 48
0.306137
100
AcDbLine
 10
130.479355
 20
340.652863
 30
0.0
 11
130.26564
 21
328.409241
 31
0.0
  0
ARC
  5
17B5
330
A
100
AcDbEntity
  8
0
 62
     7
100
AcDbCircle
 10
128.26593
 20
328.444122
 30
0.0
 40
2.000039
100
AcDbArc
 50
277.604279
 51
359.000405
  0
ARC
  5
17B6
330
A
100
AcDbEntity
  8
0
 62
     7
100
AcDbCircle
 10
128.66272
 20
325.47052
 30
0.0
 40
0.9999729999999999
100
AcDbArc
 50
97.59255000000001
 51
179.001705
  0
LINE
  5
17B7
330
A
100
AcDbEntity
  8
0
 62
     7
100
AcDbLine
 10
127.662903
 20
325.487946
 30
0.0
 11
126.974464
 21
286.0473629999999
 31
0.0
  0
ARC
  5
17B8
330
A
100
AcDbEntity
  8
0
 62
     7
100
AcDbCircle
 10
118.975868
 20
286.186798
 30
0.0
 40
7.999927999999999
100
AcDbArc
 50
269.998672
 51
359.001326
  0
LINE
  5
17B9
330
A
100
AcDbEntity
  8
0
 62
     7
 48
0.269902
100
AcDbLine
 10
118.975685
 20
278.187012
 30
0.0
 11
108.179596
 21
278.187012
 31
0.0
  0
ARC
  5
17BA
330
A
100
AcDbEntity
  8
0
 62
     7
100
AcDbCircle
 10
108.179596
 20
295.187012
 30
0.0
 40
17.0
100
AcDbArc
 50
181.5
 51
269.999997
  0
LINE
  5
17BB
330
A
100
AcDbEntity
  8
0
 62
     7
100
AcDbLine
 10
91.185425
 20
294.742004
 30
0.0
 11
90.44648700000001
 21
322.960815
 31
0.0
  0
ARC
  5
17BC
330
A
100
AcDbEntity
  8
0
 62
     7
100
AcDbCircle
 10
91.446167
 20
322.987
 30
0.0
 40
0.999993
100
AcDbArc
 50
1.498826
 51
89.99731800000001
  0
ARC
  5
17BD
330
A
100
AcDbEntity
  8
0
 62
     7
100
AcDbCircle
 10
91.44612099999999
 20
322.987
 30
0.0
 40
1.0
100
AcDbArc
 50
89.994975
 51
181.501089
  0
LINE
  5
17BE
330
A
100
AcDbEntity
  8
0
 62
     7
100
AcDbLine
 10
93.18473799999999
 20
294.794342
 30
0.0
 11
92.445801
 21
323.013184
 31
0.0
  0
ARC
  5
17BF
330
A
100
AcDbEntity
  8
0
 62
     7
100
AcDbCircle
 10
108.179596
 20
295.187012
 30
0.0
 40
15.0
100
AcDbArc
 50
181.5
 51
269.999997
  0
LINE
  5
17C0
330
A
100
AcDbEntity
  8
0
 62
     7
 48
0.269037
100
AcDbLine
 10
118.941078
 20
280.187012
 30
0.0
 11
108.179596
 21
280.187012
 31
0.0
  0
ARC
  5
17C1
330
A
100
AcDbEntity
  8
0
 62
     7
100
AcDbCircle
 10
118.941223
 20
286.186859
 30
0.0
 40
5.999945999999999
100
AcDbArc
 50
269.998672
 51
359.001326
  0
LINE
  5
17C2
330
A
100
AcDbEntity
  8
0
 62
     7
100
AcDbLine
 10
125.662445
 20
327.461609
 30
0.0
 11
124.94017
 21
286.082275
 31
0.0
  0
ARC
  5
17C3
330
A
100
AcDbEntity
  8
0
 62
     7
100
AcDbCircle
 10
126.66227
 20
327.444153
 30
0.0
 40
0.9999909999999999
100
AcDbArc
 50
89.99867700000001
 51
179.001322
  0
LINE
  5
17C4
330
A
100
AcDbEntity
  8
0
 62
     7
 48
0.040091
100
AcDbLine
 10
128.265945
 20
328.444153
 30
0.0
 11
126.662292
 21
328.444153
 31
0.0
  0
LINE
  5
17C5
330
A
100
AcDbEntity
  8
0
 62
     7
 48
0.355272
100
AcDbLine
 10
128.513962
 20
342.652863
 30
0.0
 11
128.265945
 21
328.444153
 31
0.0
  0
ARC
  5
17C6
330
A
100
AcDbEntity
  8
0
 62
     7
100
AcDbCircle
 10
129.01387
 20
342.644165
 30
0.0
 40
0.4999950000000001
100
AcDbArc
 50
89.99867700000001
 51
179.001322
  0
LINE
  5
17C7
330
A
100
AcDbEntity
  8
0
 62
     7
 48
0.108286
100
AcDbLine
 10
133.345306
 20
343.144165
 30
0.0
 11
129.013885
 21
343.144165
 31
0.0
  0
ARC
  5
17C8
330
A
100
AcDbEntity
  8
0
 62
     7
100
AcDbCircle
 10
133.345322
 20
342.644165
 30
0.0
 40
0.4999950000000001
100
AcDbArc
 50
0.998675
 51
90.00132800000001
  0
LINE
  5
17C9
330
A
100
AcDbEntity
  8
0
 62
     7
 48
0.355272
100
AcDbLine
 10
133.84523
 20
342.652863
 30
0.0
 11
134.093246
 21
328.444153
 31
0.0
  0
LINE
  5
17CA
330
A
100
AcDbEntity
  8
0
 62
     7
 48
0.040091
100
AcDbLine
 10
135.696899
 20
328.444153
 30
0.0
 11
134.093246
 21
328.444153
 31
0.0
  0
ARC
  5
17CB
330
A
100
AcDbEntity
  8
0
 62
     7
100
AcDbCircle
 10
135.696915
 20
327.444153
 30
0.0
 40
0.9999909999999999
100
AcDbArc
 50
0.998675
 51
90.00132800000001
  0
LINE
  5
17CC
330
A
100
AcDbEntity
  8
0
 62
     7
100
AcDbLine
 10
136.696747
 20
327.461609
 30
0.0
 11
137.419022
 21
286.082275
 31
0.0
  0
ARC
  5
17CD
330
A
100
AcDbEntity
  8
0
 62
     7
100
AcDbCircle
 10
143.417969
 20
286.186859
 30
0.0
 40
5.999945999999999
100
AcDbArc
 50
180.998678
 51
270.001323
  0
LINE
  5
17CE
330
A
100
AcDbEntity
  8
0
 62
     7
 48
0.269037
100
AcDbLine
 10
154.179596
 20
280.187012
 30
0.0
 11
143.418106
 21
280.187012
 31
0.0
  0
ARC
  5
17CF
330
A
100
AcDbEntity
  8
0
 62
     7
100
AcDbCircle
 10
154.179642
 20
295.187012
 30
0.0
 40
15.000011
100
AcDbArc
 50
269.999957
 51
358.4999509999999
  0
LINE
  5
17D0
330
A
100
AcDbEntity
  8
0
 62
     7
100
AcDbLine
 10
169.174454
 20
294.794342
 30
0.0
 11
169.913391
 21
323.013184
 31
0.0
  0
ARC
  5
17D1
330
A
100
AcDbEntity
  8
0
 62
     7
100
AcDbCircle
 10
170.913025
 20
322.987
 30
0.0
 40
0.999993
100
AcDbArc
 50
90.00253
 51
178.501175
  0
ARC
  5
17D2
330
A
100
AcDbEntity
  8
0
 62
     7
100
AcDbCircle
 10
170.913071
 20
322.987
 30
0.0
 40
1.0
100
AcDbArc
 50
358.4989109999999
 51
450.0048719999999
  0
LINE
  5
17D3
330
A
100
AcDbEntity
  8
0
 62
     7
100
AcDbLine
 10
171.173767
 20
294.742004
 30
0.0
 11
171.912704
 21
322.960815
 31
0.0
  0
ARC
  5
17D4
330
A
100
AcDbEntity
  8
0
 62
     7
100
AcDbCircle
 10
154.179642
 20
295.187012
 30
0.0
 40
17.000013
100
AcDbArc
 50
269.999957
 51
358.4999509999999
  0
LINE
  5
17D5
330
A
100
AcDbEntity
  8
0
 62
     7
 48
0.269902
100
AcDbLine
 10
154.179596
 20
278.187012
 30
0.0
 11
143.383499
 21
278.187012
 31
0.0
  0
ARC
  5
17D6
330
A
100
AcDbEntity
  8
0
 62
     7
100
AcDbCircle
 10
143.383316
 20
286.186798
 30
0.0
 40
7.999927999999999
100
AcDbArc
 50
180.998678
 51
270.001323
  0
LINE
  5
17D7
330
A
100
AcDbEntity
  8
0
 62
     7
 48
0.175835
100
AcDbLine
 10
127.662903
 20
325.487915
 30
0.0
 11
134.696289
 21
325.487915
 31
0.0
  0
LINE
  5
17D8
330
A
100
AcDbEntity
  8
0
 62
     7
 48
0.13245
100
AcDbLine
 10
128.530594
 20
326.4617
 30
0.0
 11
133.828598
 21
326.4617
 31
0.0
  0
LINE
  5
17D9
330
A
100
AcDbEntity
  8
0
 62
     7
 48
0.210256
100
AcDbLine
 10
126.974464
 20
286.0473629999999
 30
0.0
 11
135.38472
 21
286.0473629999999
 31
0.0
  0
LINE
  5
17DA
330
A
100
AcDbEntity
  8
0
 62
     7
 48
0.045698
100
AcDbLine
 10
130.26564
 20
328.409241
 30
0.0
 11
132.093552
 21
328.409241
 31
0.0
  0
LINE
  5
17DB
330
A
100
AcDbEntity
  8
0
 62
     7
 48
0.141608
100
AcDbLine
 10
118.975685
 20
278.187012
 30
0.0
 11
124.640007
 21
278.187012
 31
0.0
  0
LINE
  5
17DC
330
A
100
AcDbEntity
  8
0
 62
     7
 48
0.141608
100
AcDbLine
 10
137.719162
 20
278.187012
 30
0.0
 11
143.383499
 21
278.187012
 31
0.0
  0
LINE
  5
17DD
330
A
100
AcDbEntity
  8
0
 62
     7
 48
0.035012
100
AcDbLine
 10
130.479355
 20
340.652863
 30
0.0
 11
131.879837
 21
340.652863
 31
0.0
  0
LINE
  5
17DE
330
A
100
AcDbEntity
  8
0
 62
     7
 48
0.325185
100
AcDbLine
 10
92.445801
 20
323.013184
 30
0.0
 11
105.453201
 21
323.013184
 31
0.0
  0
LINE
  5
17DF
330
A
100
AcDbEntity
  8
0
 62
     7
 48
0.325185
100
AcDbLine
 10
156.905991
 20
323.013184
 30
0.0
 11
169.913391
 21
323.013184
 31
0.0
  0
LINE
  5
17E0
330
A
100
AcDbEntity
  8
0
 62
     7
 48
0.319026
100
AcDbLine
 10
93.18473799999999
 20
294.794342
 30
0.0
 11
105.94577
 21
294.794342
 31
0.0
  0
LINE
  5
17E1
330
A
100
AcDbEntity
  8
0
 62
     7
 48
0.319026
100
AcDbLine
 10
156.413422
 20
294.794342
 30
0.0
 11
169.174454
 21
294.794342
 31
0.0
  0
ARC
  5
17E2
330
A
100
AcDbEntity
  8
0
 62
     7
100
AcDbCircle
 10
128.66272
 20
325.47049
 30
0.0
 40
0.9999819999999999
100
AcDbArc
 50
97.592694
 51
179.001281
  0
ARC
  5
17E3
330
A
100
AcDbEntity
  8
0
 62
     7
100
AcDbCircle
 10
133.696457
 20
325.47049
 30
0.0
 40
0.9999819999999999
100
AcDbArc
 50
0.9987259999999999
 51
82.407277
  0
LINE
  5
17E4
330
A
100
AcDbEntity
  8
0
 62
     7
 48
0.34983
100
AcDbLine
 10
91.442978
 20
323.987
 30
0.0
 11
105.436188
 21
323.987
 31
0.0
  0
LINE
  5
17E5
330
A
100
AcDbEntity
  8
0
 62
     7
 48
0.34983
100
AcDbLine
 10
156.923004
 20
323.987
 30
0.0
 11
170.916214
 21
323.987
 31
0.0
  0
LINE
  5
17E6
330
A
100
AcDbEntity
  8
0
 62
     7
 48
0.000251
100
AcDbLine
 10
136.31543
 20
341.938904
 30
0.0
 11
136.319458
 21
341.94809
 31
0.0
  0
ARC
  5
17E7
330
A
100
AcDbEntity
  8
0
 62
     7
100
AcDbCircle
 10
137.134033
 20
341.574402
 30
0.0
 40
0.8968389999999999
100
AcDbArc
 50
104.611819
 51
155.356491
  0
POLYLINE
  5
17E8
330
A
100
AcDbEntity
  8
0
 62
     7
100
AcDb2dPolyline
 66
     1
 10
0.0
 20
0.0
 30
0.0
  0
VERTEX
  5
17E9
330
17E8
100
AcDbEntity
  8
0
100
AcDbVertex
100
AcDb2dVertex
 10
136.904556
 20
342.231903
 30
0.0
  0
VERTEX
  5
17EA
330
17E8
100
AcDbEntity
  8
0
100
AcDbVertex
100
AcDb2dVertex
 10
136.919739
 20
342.23114
 30
0.0
  0
VERTEX
  5
17EB
330
17E8
100
AcDbEntity
  8
0
100
AcDbVertex
100
AcDb2dVertex
 10
136.941101
 20
342.242859
 30
0.0
  0
VERTEX
  5
17EC
330
17E8
100
AcDbEntity
  8
0
100
AcDbVertex
100
AcDb2dVertex
 10
136.947342
 20
342.254517
 30
0.0
  0
VERTEX
  5
17ED
330
17E8
100
AcDbEntity
  8
0
100
AcDbVertex
100
AcDb2dVertex
 10
136.951416
 20
342.287415
 30
0.0
  0
VERTEX
  5
17EE
330
17E8
100
AcDbEntity
  8
0
100
AcDbVertex
100
AcDb2dVertex
 10
136.930099
 20
342.382782
 30
0.0
  0
VERTEX
  5
17EF
330
17E8
100
AcDbEntity
  8
0
100
AcDbVertex
100
AcDb2dVertex
 10
136.907593
 20
342.442993
 30
0.0
  0
SEQEND
  5
17F0
330
17E8
100
AcDbEntity
  8
0
  0
POLYLINE
  5
17F1
330
A
100
AcDbEntity
  8
0
 62
     7
100
AcDb2dPolyline
 66
     1
 10
0.0
 20
0.0
 30
0.0
  0
VERTEX
  5
17F2
330
17F1
100
AcDbEntity
  8
0
100
AcDbVertex
100
AcDb2dVertex
 10
136.316132
 20
342.008179
 30
0.0
  0
VERTEX
  5
17F3
330
17F1
100
AcDbEntity
  8
0
100
AcDbVertex
100
AcDb2dVertex
 10
136.351974
 20
342.226563
 30
0.0
  0
VERTEX
  5
17F4
330
17F1
100
AcDbEntity
  8
0
100
AcDbVertex
100
AcDb2dVertex
 10
136.449463
 20
342.42984
 30
0.0
  0
VERTEX
  5
17F5
330
17F1
100
AcDbEntity
  8
0
100
AcDbVertex
100
AcDb2dVertex
 10
136.602356
 20
342.605042
 30
0.0
  0
VERTEX
  5
17F6
330
17F1
100
AcDbEntity
  8
0
100
AcDbVertex
100
AcDb2dVertex
 10
136.758118
 20
342.717346
 30
0.0
  0
SEQEND
  5
17F7
330
17F1
100
AcDbEntity
  8
0
  0
ARC
  5
17F8
330
A
100
AcDbEntity
  8
0
 62
     7
100
AcDbCircle
 10
134.915527
 20
341.538177
 30
0.0
 40
2.188204
100
AcDbArc
 50
24.427927
 51
32.62555300000001
  0
POLYLINE
  5
17F9
330
A
100
AcDbEntity
  8
0
 62
     7
100
AcDb2dPolyline
 66
     1
 10
0.0
 20
0.0
 30
0.0
  0
VERTEX
  5
17FA
330
17F9
100
AcDbEntity
  8
0
100
AcDbVertex
100
AcDb2dVertex
 10
146.44754
 20
335.90625
 30
0.0
  0
VERTEX
  5
17FB
330
17F9
100
AcDbEntity
  8
0
100
AcDbVertex
100
AcDb2dVertex
 10
146.610016
 20
335.7177430000001
 30
0.0
  0
VERTEX
  5
17FC
330
17F9
100
AcDbEntity
  8
0
100
AcDbVertex
100
AcDb2dVertex
 10
146.750381
 20
335.617859
 30
0.0
  0
VERTEX
  5
17FD
330
17F9
100
AcDbEntity
  8
0
100
AcDbVertex
100
AcDb2dVertex
 10
146.90036
 20
335.562622
 30
0.0
  0
VERTEX
  5
17FE
330
17F9
100
AcDbEntity
  8
0
100
AcDbVertex
100
AcDb2dVertex
 10
147.051926
 20
335.555511
 30
0.0
  0
VERTEX
  5
17FF
330
17F9
100
AcDbEntity
  8
0
100
AcDbVertex
100
AcDb2dVertex
 10
147.197357
 20
335.594299
 30
0.0
  0
VERTEX
  5
1800
330
17F9
100
AcDbEntity
  8
0
100
AcDbVertex
100
AcDb2dVertex
 10
147.373428
 20
335.705078
 30
0.0
  0
VERTEX
  5
1801
330
17F9
100
AcDbEntity
  8
0
100
AcDbVertex
100
AcDb2dVertex
 10
147.525558
 20
335.865601
 30
0.0
  0
VERTEX
  5
1802
330
17F9
100
AcDbEntity
  8
0
100
AcDbVertex
100
AcDb2dVertex
 10
147.623917
 20
336.010986
 30
0.0
  0
SEQEND
  5
1803
330
17F9
100
AcDbEntity
  8
0
  0
POLYLINE
  5
1804
330
A
100
AcDbEntity
  8
0
 62
     7
100
AcDb2dPolyline
 66
     1
 10
0.0
 20
0.0
 30
0.0
  0
VERTEX
  5
1805
330
1804
100
AcDbEntity
  8
0
100
AcDbVertex
100
AcDb2dVertex
 10
148.330505
 20
336.836548
 30
0.0
  0
VERTEX
  5
1806
330
1804
100
AcDbEntity
  8
0
100
AcDbVertex
100
AcDb2dVertex
 10
148.314682
 20
336.85321
 30
0.0
  0
VERTEX
  5
1807
330
1804
100
AcDbEntity
  8
0
100
AcDbVertex
100
AcDb2dVertex
 10
148.298126
 20
336.858887
 30
0.0
  0
VERTEX
  5
1808
330
1804
100
AcDbEntity
  8
0
100
AcDbVertex
100
AcDb2dVertex
 10
148.281082
 20
336.85434
 30
0.0
  0
VERTEX
  5
1809
330
1804
100
AcDbEntity
  8
0
100
AcDbVertex
100
AcDb2dVertex
 10
148.246658
 20
336.82663
 30
0.0
  0
VERTEX
  5
180A
330
1804
100
AcDbEntity
  8
0
100
AcDbVertex
100
AcDb2dVertex
 10
148.161102
 20
336.720367
 30
0.0
  0
VERTEX
  5
180B
330
1804
100
AcDbEntity
  8
0
100
AcDbVertex
100
AcDb2dVertex
 10
147.774841
 20
336.227844
 30
0.0
  0
VERTEX
  5
180C
330
1804
100
AcDbEntity
  8
0
100
AcDbVertex
100
AcDb2dVertex
 10
147.623901
 20
336.010986
 30
0.0
  0
SEQEND
  5
180D
330
1804
100
AcDbEntity
  8
0
  0
ARC
  5
180E
330
A
100
AcDbEntity
  8
0
 62
     7
100
AcDbCircle
 10
133.347046
 20
326.24115
 30
0.0
 40
18.351482
100
AcDbArc
 50
29.864264
 51
35.266695
  0
POLYLINE
  5
180F
330
A
100
AcDbEntity
  8
0
 62
     7
100
AcDb2dPolyline
 66
     1
 10
0.0
 20
0.0
 30
0.0
  0
VERTEX
  5
1810
330
180F
100
AcDbEntity
  8
0
100
AcDbVertex
100
AcDb2dVertex
 10
149.293442
 20
336.075012
 30
0.0
  0
VERTEX
  5
1811
330
180F
100
AcDbEntity
  8
0
100
AcDbVertex
100
AcDb2dVertex
 10
149.351151
 20
335.900024
 30
0.0
  0
VERTEX
  5
1812
330
180F
100
AcDbEntity
  8
0
100
AcDbVertex
100
AcDb2dVertex
 10
149.347717
 20
335.685394
 30
0.0
  0
VERTEX
  5
1813
330
180F
100
AcDbEntity
  8
0
100
AcDbVertex
100
AcDb2dVertex
 10
149.285645
 20
335.442688
 30
0.0
  0
VERTEX
  5
1814
330
180F
100
AcDbEntity
  8
0
100
AcDbVertex
100
AcDb2dVertex
 10
149.261627
 20
335.379211
 30
0.0
  0
SEQEND
  5
1815
330
180F
100
AcDbEntity
  8
0
  0
ARC
  5
1816
330
A
100
AcDbEntity
  8
0
 62
     7
100
AcDbCircle
 10
134.454834
 20
328.393158
 30
0.0
 40
16.52682099999999
100
AcDbArc
 50
62.09366600000001
 51
81.762118
  0
ARC
  5
1817
330
A
100
AcDbEntity
  8
0
 62
     7
100
AcDbCircle
 10
136.413544
 20
344.765808
 30
0.0
 40
0.410497
100
AcDbArc
 50
324.036219
 51
357.690441
  0
POLYLINE
  5
1818
330
A
100
AcDbEntity
  8
0
 62
     7
100
AcDb2dPolyline
 66
     1
 10
0.0
 20
0.0
 30
0.0
  0
VERTEX
  5
1819
330
1818
100
AcDbEntity
  8
0
100
AcDbVertex
100
AcDb2dVertex
 10
137.276199
 20
343.363678
 30
0.0
  0
VERTEX
  5
181A
330
1818
100
AcDbEntity
  8
0
100
AcDbVertex
100
AcDb2dVertex
 10
137.302353
 20
343.622192
 30
0.0
  0
VERTEX
  5
181B
330
1818
100
AcDbEntity
  8
0
100
AcDbVertex
100
AcDb2dVertex
 10
137.270844
 20
343.818848
 30
0.0
  0
VERTEX
  5
181C
330
1818
100
AcDbEntity
  8
0
100
AcDbVertex
100
AcDb2dVertex
 10
137.162872
 20
344.074982
 30
0.0
  0
VERTEX
  5
181D
330
1818
100
AcDbEntity
  8
0
100
AcDbVertex
100
AcDb2dVertex
 10
136.985214
 20
344.313477
 30
0.0
  0
VERTEX
  5
181E
330
1818
100
AcDbEntity
  8
0
100
AcDbVertex
100
AcDb2dVertex
 10
136.746902
 20
344.523926
 30
0.0
  0
SEQEND
  5
181F
330
1818
100
AcDbEntity
  8
0
  0
ELLIPSE
  5
1820
330
A
100
AcDbEntity
  8
0
 62
     7
100
AcDbEllipse
 10
135.371078
 20
343.738831
 30
0.0
 11
1.922866821289062
 21
-0.287689208984375
 31
0.0
210
0.0
220
0.0
230
1.0
 40
0.6656649999999999
 41
5.612146854400634
 42
6.214258193969727
  0
LINE
  5
1821
330
A
100
AcDbEntity
  8
0
 62
     7
 48
0.31573
100
AcDbLine
 10
136.095718
 20
329.381042
 30
0.0
 11
136.316132
 21
342.0083009999999
 31
0.0
  0
LINE
  5
1822
330
A
100
AcDbEntity
  8
0
 62
     7
 48
0.002097
100
AcDbLine
 10
136.758118
 20
342.717346
 30
0.0
 11
136.707336
 21
342.784119
 31
0.0
  0
ARC
  5
1823
330
A
100
AcDbEntity
  8
0
 62
     7
100
AcDbCircle
 10
137.315125
 20
341.9912720000001
 30
0.0
 40
0.99897
100
AcDbArc
 50
127.473528
 51
179.029859
  0
POLYLINE
  5
1824
330
A
100
AcDbEntity
  8
0
 62
     7
100
AcDb2dPolyline
 66
     1
 10
0.0
 20
0.0
 30
0.0
  0
VERTEX
  5
1825
330
1824
100
AcDbEntity
  8
0
100
AcDbVertex
100
AcDb2dVertex
 10
142.801682
 20
337.540588
 30
0.0
  0
VERTEX
  5
1826
330
1824
100
AcDbEntity
  8
0
100
AcDbVertex
100
AcDb2dVertex
 10
143.300781
 20
337.525024
 30
0.0
  0
VERTEX
  5
1827
330
1824
100
AcDbEntity
  8
0
100
AcDbVertex
100
AcDb2dVertex
 10
143.791428
 20
337.477783
 30
0.0
  0
VERTEX
  5
1828
330
1824
100
AcDbEntity
  8
0
100
AcDbVertex
100
AcDb2dVertex
 10
144.271851
 20
337.398834
 30
0.0
  0
VERTEX
  5
1829
330
1824
100
AcDbEntity
  8
0
100
AcDbVertex
100
AcDb2dVertex
 10
144.740479
 20
337.288239
 30
0.0
  0
VERTEX
  5
182A
330
1824
100
AcDbEntity
  8
0
100
AcDbVertex
100
AcDb2dVertex
 10
145.195877
 20
337.146057
 30
0.0
  0
VERTEX
  5
182B
330
1824
100
AcDbEntity
  8
0
100
AcDbVertex
100
AcDb2dVertex
 10
145.636703
 20
336.972473
 30
0.0
  0
SEQEND
  5
182C
330
1824
100
AcDbEntity
  8
0
  0
ARC
  5
182D
330
A
100
AcDbEntity
  8
0
 62
     7
100
AcDbCircle
 10
-2961.884277
 20
34.11731
 30
0.0
 40
3124.128906
100
AcDbArc
 50
5.408239
 51
5.545312
  0
POLYLINE
  5
182E
330
A
100
AcDbEntity
  8
0
 62
     7
100
AcDb2dPolyline
 66
     1
 10
0.0
 20
0.0
 30
0.0
  0
VERTEX
  5
182F
330
182E
100
AcDbEntity
  8
0
100
AcDbVertex
100
AcDb2dVertex
 10
148.7717899999999
 20
332.353516
 30
0.0
  0
VERTEX
  5
1830
330
182E
100
AcDbEntity
  8
0
100
AcDbVertex
100
AcDb2dVertex
 10
148.557312
 20
330.661469
 30
0.0
  0
VERTEX
  5
1831
330
182E
100
AcDbEntity
  8
0
100
AcDbVertex
100
AcDb2dVertex
 10
148.4323879999999
 20
329.620026
 30
0.0
  0
VERTEX
  5
1832
330
182E
100
AcDbEntity
  8
0
100
AcDbVertex
100
AcDb2dVertex
 10
148.371826
 20
328.922485
 30
0.0
  0
VERTEX
  5
1833
330
182E
100
AcDbEntity
  8
0
100
AcDbVertex
100
AcDb2dVertex
 10
148.351196
 20
328.573486
 30
0.0
  0
SEQEND
  5
1834
330
182E
100
AcDbEntity
  8
0
  0
LINE
  5
1835
330
A
100
AcDbEntity
  8
0
 62
     7
 48
0.000534
100
AcDbLine
 10
148.771774
 20
332.353516
 30
0.0
 11
148.7735439999999
 21
332.374786
 31
0.0
  0
LINE
  5
1836
330
A
100
AcDbEntity
  8
0
 62
     7
 48
0.111919
100
AcDbLine
 10
148.768753
 20
332.381348
 30
0.0
 11
148.330505
 21
336.836609
 31
0.0
  0
ARC
  5
1837
330
A
100
AcDbEntity
  8
0
 62
     7
100
AcDbCircle
 10
167.714951
 20
330.842285
 30
0.0
 40
19.002916
100
AcDbArc
 50
166.188379
 51
175.364806
  0
LINE
  5
1838
330
A
100
AcDbEntity
  8
0
 62
     7
 48
0.155864
100
AcDbLine
 10
148.346497
 20
328.47757
 30
0.0
 11
154.581055
 21
328.47757
 31
0.0
  0
ARC
  5
1839
330
A
100
AcDbEntity
  8
0
 62
     7
100
AcDbCircle
 10
166.579208
 20
328.6870120000001
 30
0.0
 40
12.000006
100
AcDbArc
 50
89.999955
 51
181.00004
  0
LINE
  5
183A
330
A
100
AcDbEntity
  8
0
 62
     7
100
AcDbLine
 10
146.420853
 20
340.6870120000001
 30
0.0
 11
166.579224
 21
340.6870120000001
 31
0.0
  0
ARC
  5
183B
330
A
100
AcDbEntity
  8
0
 62
     7
100
AcDbCircle
 10
135.858749
 20
343.5931700000001
 30
0.0
 40
1.506019
100
AcDbArc
 50
50.17466500000001
 51
66.70994499999999
  0
ARC
  5
183C
330
A
100
AcDbEntity
  8
0
 62
     7
100
AcDbCircle
 10
137.083618
 20
345.594543
 30
0.0
 40
0.8845349999999999
100
AcDbArc
 50
230.327588
 51
252.855096
  0
ELLIPSE
  5
183D
330
A
100
AcDbEntity
  8
0
 62
     7
100
AcDbEllipse
 10
137.366287
 20
345.2328490000001
 30
0.0
 11
0.997528076171875
 21
0.0577545166015625
 31
0.0
210
0.0
220
0.0
230
1.0
 40
0.894983
 41
3.142947912216186
 42
3.991109609603881
  0
LINE
  5
183E
330
A
100
AcDbEntity
  8
0
 62
     7
 48
0.00144
100
AcDbLine
 10
136.70813
 20
344.48114
 30
0.0
 11
136.746811
 21
344.523804
 31
0.0
  0
LINE
  5
183F
330
A
100
AcDbEntity
  8
0
 62
     7
 48
0.003831
100
AcDbLine
 10
137.127716
 20
343.398529
 30
0.0
 11
137.276886
 21
343.363495
 31
0.0
  0
POLYLINE
  5
1840
330
A
100
AcDbEntity
  8
0
 62
     7
100
AcDb2dPolyline
 66
     1
 10
0.0
 20
0.0
 30
0.0
  0
VERTEX
  5
1841
330
1840
100
AcDbEntity
  8
0
100
AcDbVertex
100
AcDb2dVertex
 10
137.127716
 20
343.398529
 30
0.0
  0
VERTEX
  5
1842
330
1840
100
AcDbEntity
  8
0
100
AcDbVertex
100
AcDb2dVertex
 10
137.150665
 20
343.643188
 30
0.0
  0
VERTEX
  5
1843
330
1840
100
AcDbEntity
  8
0
100
AcDbVertex
100
AcDb2dVertex
 10
137.108047
 20
343.889221
 30
0.0
  0
VERTEX
  5
1844
330
1840
100
AcDbEntity
  8
0
100
AcDbVertex
100
AcDb2dVertex
 10
137.00499
 20
344.124359
 30
0.0
  0
VERTEX
  5
1845
330
1840
100
AcDbEntity
  8
0
100
AcDbVertex
100
AcDb2dVertex
 10
136.850906
 20
344.338623
 30
0.0
  0
VERTEX
  5
1846
330
1840
100
AcDbEntity
  8
0
100
AcDbVertex
100
AcDb2dVertex
 10
136.70813
 20
344.48114
 30
0.0
  0
SEQEND
  5
1847
330
1840
100
AcDbEntity
  8
0
  0
POLYLINE
  5
1848
330
A
100
AcDbEntity
  8
0
 62
     7
100
AcDb2dPolyline
 66
     1
 10
0.0
 20
0.0
 30
0.0
  0
VERTEX
  5
1849
330
1848
100
AcDbEntity
  8
0
100
AcDbVertex
100
AcDb2dVertex
 10
137.127716
 20
343.398529
 30
0.0
  0
VERTEX
  5
184A
330
1848
100
AcDbEntity
  8
0
100
AcDbVertex
100
AcDb2dVertex
 10
137.041046
 20
343.168579
 30
0.0
  0
VERTEX
  5
184B
330
1848
100
AcDbEntity
  8
0
100
AcDbVertex
100
AcDb2dVertex
 10
136.897095
 20
342.96106
 30
0.0
  0
VERTEX
  5
184C
330
1848
100
AcDbEntity
  8
0
100
AcDbVertex
100
AcDb2dVertex
 10
136.70694
 20
342.783813
 30
0.0
  0
SEQEND
  5
184D
330
1848
100
AcDbEntity
  8
0
  0
ARC
  5
184E
330
A
100
AcDbEntity
  8
0
 62
     7
100
AcDbCircle
 10
135.344696
 20
329.394012
 30
0.0
 40
0.749892
100
AcDbArc
 50
270.006452
 51
359.010008
  0
LINE
  5
184F
330
A
100
AcDbEntity
  8
0
 62
     7
 48
0.32432
100
AcDbLine
 10
126.263466
 20
329.381042
 30
0.0
 11
126.037064
 21
342.351868
 31
0.0
  0
ARC
  5
1850
330
A
100
AcDbEntity
  8
0
 62
     7
100
AcDbCircle
 10
136.321594
 20
327.48291
 30
0.0
 40
1.025339999999999
100
AcDbArc
 50
75.95070600000001
 51
87.16171700000002
  0
ELLIPSE
  5
1851
330
A
100
AcDbEntity
  8
0
 62
     7
100
AcDbEllipse
 10
141.353958
 20
330.886475
 30
0.0
 11
6.757675170898437
 21
3.902938842773437
 31
0.0
210
0.0
220
0.0
230
1.0
 40
0.797503
 41
0.9434317350387571
 42
1.387014627456665
  0
POLYLINE
  5
1852
330
A
100
AcDbEntity
  8
0
 62
     7
100
AcDb2dPolyline
 66
     1
 10
0.0
 20
0.0
 30
0.0
  0
VERTEX
  5
1853
330
1852
100
AcDbEntity
  8
0
100
AcDbVertex
100
AcDb2dVertex
 10
139.528717
 20
336.898254
 30
0.0
  0
VERTEX
  5
1854
330
1852
100
AcDbEntity
  8
0
100
AcDbVertex
100
AcDb2dVertex
 10
139.30336
 20
336.761383
 30
0.0
  0
VERTEX
  5
1855
330
1852
100
AcDbEntity
  8
0
100
AcDbVertex
100
AcDb2dVertex
 10
139.155899
 20
336.604431
 30
0.0
  0
VERTEX
  5
1856
330
1852
100
AcDbEntity
  8
0
100
AcDbVertex
100
AcDb2dVertex
 10
139.017227
 20
336.368164
 30
0.0
  0
VERTEX
  5
1857
330
1852
100
AcDbEntity
  8
0
100
AcDbVertex
100
AcDb2dVertex
 10
138.995621
 20
336.3173220000001
 30
0.0
  0
SEQEND
  5
1858
330
1852
100
AcDbEntity
  8
0
  0
POLYLINE
  5
1859
330
A
100
AcDbEntity
  8
0
 62
     7
100
AcDb2dPolyline
 66
     1
 10
0.0
 20
0.0
 30
0.0
  0
VERTEX
  5
185A
330
1859
100
AcDbEntity
  8
0
100
AcDbVertex
100
AcDb2dVertex
 10
138.995621
 20
336.3173220000001
 30
0.0
  0
VERTEX
  5
185B
330
1859
100
AcDbEntity
  8
0
100
AcDbVertex
100
AcDb2dVertex
 10
138.841461
 20
336.021912
 30
0.0
  0
VERTEX
  5
185C
330
1859
100
AcDbEntity
  8
0
100
AcDbVertex
100
AcDb2dVertex
 10
138.67421
 20
335.819
 30
0.0
  0
VERTEX
  5
185D
330
1859
100
AcDbEntity
  8
0
100
AcDbVertex
100
AcDb2dVertex
 10
138.468979
 20
335.663544
 30
0.0
  0
VERTEX
  5
185E
330
1859
100
AcDbEntity
  8
0
100
AcDbVertex
100
AcDb2dVertex
 10
138.234604
 20
335.572174
 30
0.0
  0
VERTEX
  5
185F
330
1859
100
AcDbEntity
  8
0
100
AcDbVertex
100
AcDb2dVertex
 10
137.985077
 20
335.55603
 30
0.0
  0
VERTEX
  5
1860
330
1859
100
AcDbEntity
  8
0
100
AcDbVertex
100
AcDb2dVertex
 10
137.737167
 20
335.615601
 30
0.0
  0
VERTEX
  5
1861
330
1859
100
AcDbEntity
  8
0
100
AcDbVertex
100
AcDb2dVertex
 10
137.507172
 20
335.73938
 30
0.0
  0
VERTEX
  5
1862
330
1859
100
AcDbEntity
  8
0
100
AcDbVertex
100
AcDb2dVertex
 10
137.305344
 20
335.911163
 30
0.0
  0
VERTEX
  5
1863
330
1859
100
AcDbEntity
  8
0
100
AcDbVertex
100
AcDb2dVertex
 10
137.215057
 20
336.011017
 30
0.0
  0
SEQEND
  5
1864
330
1859
100
AcDbEntity
  8
0
  0
ARC
  5
1865
330
A
100
AcDbEntity
  8
0
 62
     7
100
AcDbCircle
 10
-3062.036621000001
 20
691.5107419999999
 30
0.0
 40
3218.942627
100
AcDbArc
 50
353.526064
 51
353.659325
  0
LINE
  5
1866
330
A
100
AcDbEntity
  8
0
 62
     7
 48
0.447551
100
AcDbLine
 10
107.190269
 20
294.798523
 30
0.0
 11
125.092308
 21
294.798523
 31
0.0
  0
LINE
  5
1867
330
A
100
AcDbEntity
  8
0
 62
     7
 48
0.447551
100
AcDbLine
 10
137.266876
 20
294.798523
 30
0.0
 11
155.168915
 21
294.798523
 31
0.0
  0
LINE
  5
1868
330
A
100
AcDbEntity
  8
0
 62
     7
100
AcDbLine
 10
154.581055
 20
328.47757
 30
0.0
 11
155.168915
 21
294.798523
 31
0.0
  0
LINE
  5
1869
330
A
100
AcDbEntity
  8
0
 62
     7
 48
0.061946
100
AcDbLine
 10
134.092667
 20
328.47757
 30
0.0
 11
136.570511
 21
328.47757
 31
0.0
  0
LINE
  5
186A
330
A
100
AcDbEntity
  8
0
 62
     7
 48
0.48607
100
AcDbLine
 10
108.823708
 20
328.47757
 30
0.0
 11
128.266525
 21
328.47757
 31
0.0
  0
LINE
  5
186B
330
A
100
AcDbEntity
  8
0
 62
     7
 48
0.000208
100
AcDbLine
 10
107.778137
 20
328.47757
 30
0.0
 11
107.786446
 21
328.47757
 31
0.0
  0
LINE
  5
186C
330
A
100
AcDbEntity
  8
0
 62
     7
100
AcDbLine
 10
107.778137
 20
328.47757
 30
0.0
 11
107.190269
 21
294.798523
 31
0.0
  0
LINE
  5
186D
330
A
100
AcDbEntity
  8
0
 62
     7
 48
0.022143
100
AcDbLine
 10
145.535141
 20
340.6870120000001
 30
0.0
 11
146.420853
 21
340.6870120000001
 31
0.0
  0
LINE
  5
186E
330
A
100
AcDbEntity
  8
0
 62
     7
 48
0.19452
100
AcDbLine
 10
118.285339
 20
340.6870120000001
 30
0.0
 11
126.066124
 21
340.6870120000001
 31
0.0
  0
LINE
  5
186F
330
A
100
AcDbEntity
  8
0
 62
     7
 48
0.332841
100
AcDbLine
 10
95.77996800000001
 20
340.6870120000001
 30
0.0
 11
109.093628
 21
340.6870120000001
 31
0.0
  0
ARC
  5
1870
330
A
100
AcDbEntity
  8
0
 62
     7
100
AcDbCircle
 10
95.780075
 20
328.687256
 30
0.0
 40
11.999734
100
AcDbArc
 50
44.49937199999999
 51
90.000522
  0
ARC
  5
1871
330
A
100
AcDbEntity
  8
0
 62
     7
100
AcDbCircle
 10
96.50945300000001
 20
328.986694
 30
0.0
 40
12.324799
100
AcDbArc
 50
358.078558
 51
361.047961
  0
POLYLINE
  5
1872
330
A
100
AcDbEntity
  8
0
 62
     7
100
AcDb2dPolyline
 66
     1
 10
0.0
 20
0.0
 30
0.0
  0
VERTEX
  5
1873
330
1872
100
AcDbEntity
  8
0
100
AcDbVertex
100
AcDb2dVertex
 10
136.326202
 20
331.511292
 30
0.0
  0
VERTEX
  5
1874
330
1872
100
AcDbEntity
  8
0
100
AcDbVertex
100
AcDb2dVertex
 10
136.275345
 20
330.784454
 30
0.0
  0
VERTEX
  5
1875
330
1872
100
AcDbEntity
  8
0
100
AcDbVertex
100
AcDb2dVertex
 10
136.27449
 20
330.049286
 30
0.0
  0
VERTEX
  5
1876
330
1872
100
AcDbEntity
  8
0
100
AcDbVertex
100
AcDb2dVertex
 10
136.332214
 20
328.939331
 30
0.0
  0
VERTEX
  5
1877
330
1872
100
AcDbEntity
  8
0
100
AcDbVertex
100
AcDb2dVertex
 10
136.362366
 20
328.5689089999999
 30
0.0
  0
SEQEND
  5
1878
330
1872
100
AcDbEntity
  8
0
  0
LINE
  5
1879
330
A
100
AcDbEntity
  8
0
 62
     7
 48
0.260009
100
AcDbLine
 10
176.979599
 20
340.6870120000001
 30
0.0
 11
166.579224
 21
340.6870120000001
 31
0.0
  0
LINE
  5
187A
330
A
100
AcDbEntity
  8
0
 62
     7
 48
0.260009
100
AcDbLine
 10
95.77996800000001
 20
340.6870120000001
 30
0.0
 11
85.379593
 21
340.6870120000001
 31
0.0
  0
ARC
  5
187B
330
A
100
AcDbEntity
  8
0
 62
     7
100
AcDbCircle
 10
137.36618
 20
345.232819
 30
0.0
 40
0.9990020000000001
100
AcDbArc
 50
183.376103
 51
228.798896
  0
ARC
  5
187C
330
A
100
AcDbEntity
  8
0
 62
     7
100
AcDbCircle
 10
135.869766
 20
345.144226
 30
0.0
 40
0.499941
100
AcDbArc
 50
3.403449999999999
 51
89.99550799999999
  0
LINE
  5
187D
330
A
100
AcDbEntity
  8
0
 62
     7
 48
0.022816
100
AcDbLine
 10
134.433441
 20
328.644165
 30
0.0
 11
135.346069
 21
328.644165
 31
0.0
  0
LINE
  5
187E
330
A
100
AcDbEntity
  8
0
 62
     7
 48
0.008595
100
AcDbLine
 10
134.089661
 20
328.644165
 30
0.0
 11
134.433441
 21
328.644165
 31
0.0
  0
LINE
  5
187F
330
A
100
AcDbEntity
  8
0
 62
     7
 48
0.008595
100
AcDbLine
 10
127.925751
 20
328.644165
 30
0.0
 11
128.269531
 21
328.644165
 31
0.0
  0
LINE
  5
1880
330
A
100
AcDbEntity
  8
0
 62
     7
 48
0.022816
100
AcDbLine
 10
127.013123
 20
328.644165
 30
0.0
 11
127.925751
 21
328.644165
 31
0.0
  0
ARC
  5
1881
330
A
100
AcDbEntity
  8
0
 62
     7
100
AcDbCircle
 10
127.014496
 20
329.394012
 30
0.0
 40
0.749892
100
AcDbArc
 50
180.9899899999999
 51
269.99355
  0
ARC
  5
1882
330
A
100
AcDbEntity
  8
0
 62
     7
100
AcDbCircle
 10
125.440308
 20
342.226532
 30
0.0
 40
0.8967319999999999
100
AcDbArc
 50
73.35261199999999
 51
99.94768800000001
  0
LINE
  5
1883
330
A
100
AcDbEntity
  8
0
 62
     7
 48
0.010359
100
AcDbLine
 10
124.93364
 20
343.328918
 30
0.0
 11
125.285385
 21
343.109863
 31
0.0
  0
ARC
  5
1884
330
A
100
AcDbEntity
  8
0
 62
     7
100
AcDbCircle
 10
125.037239
 20
342.33432
 30
0.0
 40
0.999999
100
AcDbArc
 50
0.9986309999999999
 51
95.94663200000001
  0
POLYLINE
  5
1885
330
A
100
AcDbEntity
  8
0
 62
     7
100
AcDb2dPolyline
 66
     1
 10
0.0
 20
0.0
 30
0.0
  0
VERTEX
  5
1886
330
1885
100
AcDbEntity
  8
0
100
AcDbVertex
100
AcDb2dVertex
 10
125.354691
 20
342.695953
 30
0.0
  0
VERTEX
  5
1887
330
1885
100
AcDbEntity
  8
0
100
AcDbVertex
100
AcDb2dVertex
 10
125.450165
 20
342.50415
 30
0.0
  0
VERTEX
  5
1888
330
1885
100
AcDbEntity
  8
0
100
AcDbVertex
100
AcDb2dVertex
 10
125.5979
 20
342.35907
 30
0.0
  0
VERTEX
  5
1889
330
1885
100
AcDbEntity
  8
0
100
AcDbVertex
100
AcDb2dVertex
 10
125.725243
 20
342.292908
 30
0.0
  0
VERTEX
  5
188A
330
1885
100
AcDbEntity
  8
0
100
AcDbVertex
100
AcDb2dVertex
 10
125.954132
 20
342.239197
 30
0.0
  0
VERTEX
  5
188B
330
1885
100
AcDbEntity
  8
0
100
AcDbVertex
100
AcDb2dVertex
 10
126.038925
 20
342.232544
 30
0.0
  0
SEQEND
  5
188C
330
1885
100
AcDbEntity
  8
0
  0
POLYLINE
  5
188D
330
A
100
AcDbEntity
  8
0
 62
     7
100
AcDb2dPolyline
 66
     1
 10
0.0
 20
0.0
 30
0.0
  0
VERTEX
  5
188E
330
188D
100
AcDbEntity
  8
0
100
AcDbVertex
100
AcDb2dVertex
 10
125.97287
 20
342.689697
 30
0.0
  0
VERTEX
  5
188F
330
188D
100
AcDbEntity
  8
0
100
AcDbVertex
100
AcDb2dVertex
 10
125.732796
 20
342.724792
 30
0.0
  0
VERTEX
  5
1890
330
188D
100
AcDbEntity
  8
0
100
AcDbVertex
100
AcDb2dVertex
 10
125.409828
 20
342.705872
 30
0.0
  0
VERTEX
  5
1891
330
188D
100
AcDbEntity
  8
0
100
AcDbVertex
100
AcDb2dVertex
 10
125.354691
 20
342.69632
 30
0.0
  0
SEQEND
  5
1892
330
188D
100
AcDbEntity
  8
0
  0
POLYLINE
  5
1893
330
A
100
AcDbEntity
  8
0
 62
     7
100
AcDb2dPolyline
 66
     1
 10
0.0
 20
0.0
 30
0.0
  0
VERTEX
  5
1894
330
1893
100
AcDbEntity
  8
0
100
AcDbVertex
100
AcDb2dVertex
 10
138.995621
 20
336.317261
 30
0.0
  0
VERTEX
  5
1895
330
1893
100
AcDbEntity
  8
0
100
AcDbVertex
100
AcDb2dVertex
 10
138.692017
 20
336.908752
 30
0.0
  0
VERTEX
  5
1896
330
1893
100
AcDbEntity
  8
0
100
AcDbVertex
100
AcDb2dVertex
 10
138.377197
 20
337.467255
 30
0.0
  0
VERTEX
  5
1897
330
1893
100
AcDbEntity
  8
0
100
AcDbVertex
100
AcDb2dVertex
 10
138.051697
 20
337.993073
 30
0.0
  0
VERTEX
  5
1898
330
1893
100
AcDbEntity
  8
0
100
AcDbVertex
100
AcDb2dVertex
 10
137.71611
 20
338.486755
 30
0.0
  0
VERTEX
  5
1899
330
1893
100
AcDbEntity
  8
0
100
AcDbVertex
100
AcDb2dVertex
 10
137.370972
 20
338.949127
 30
0.0
  0
VERTEX
  5
189A
330
1893
100
AcDbEntity
  8
0
100
AcDbVertex
100
AcDb2dVertex
 10
137.016815
 20
339.381165
 30
0.0
  0
VERTEX
  5
189B
330
1893
100
AcDbEntity
  8
0
100
AcDbVertex
100
AcDb2dVertex
 10
136.654099
 20
339.783813
 30
0.0
  0
VERTEX
  5
189C
330
1893
100
AcDbEntity
  8
0
100
AcDbVertex
100
AcDb2dVertex
 10
136.283279
 20
340.158051
 30
0.0
  0
SEQEND
  5
189D
330
1893
100
AcDbEntity
  8
0
  0
ARC
  5
189E
330
A
100
AcDbEntity
  8
0
 62
     7
100
AcDbCircle
 10
138.39151
 20
337.045227
 30
0.0
 40
1.565639
100
AcDbArc
 50
207.222902
 51
221.318432
  0
POLYLINE
  5
189F
330
A
100
AcDbEntity
  8
0
 62
     7
100
AcDb2dPolyline
 66
     1
 10
0.0
 20
0.0
 30
0.0
  0
VERTEX
  5
18A0
330
189F
100
AcDbEntity
  8
0
100
AcDbVertex
100
AcDb2dVertex
 10
139.528763
 20
336.898163
 30
0.0
  0
VERTEX
  5
18A1
330
189F
100
AcDbEntity
  8
0
100
AcDbVertex
100
AcDb2dVertex
 10
139.24202
 20
337.440735
 30
0.0
  0
VERTEX
  5
18A2
330
189F
100
AcDbEntity
  8
0
100
AcDbVertex
100
AcDb2dVertex
 10
138.946289
 20
337.953979
 30
0.0
  0
VERTEX
  5
18A3
330
189F
100
AcDbEntity
  8
0
100
AcDbVertex
100
AcDb2dVertex
 10
138.642151
 20
338.438171
 30
0.0
  0
VERTEX
  5
18A4
330
189F
100
AcDbEntity
  8
0
100
AcDbVertex
100
AcDb2dVertex
 10
138.330292
 20
338.893738
 30
0.0
  0
VERTEX
  5
18A5
330
189F
100
AcDbEntity
  8
0
100
AcDbVertex
100
AcDb2dVertex
 10
138.010849
 20
339.321899
 30
0.0
  0
VERTEX
  5
18A6
330
189F
100
AcDbEntity
  8
0
100
AcDbVertex
100
AcDb2dVertex
 10
137.683838
 20
339.723999
 30
0.0
  0
VERTEX
  5
18A7
330
189F
100
AcDbEntity
  8
0
100
AcDbVertex
100
AcDb2dVertex
 10
137.349289
 20
340.101135
 30
0.0
  0
VERTEX
  5
18A8
330
189F
100
AcDbEntity
  8
0
100
AcDbVertex
100
AcDb2dVertex
 10
137.007156
 20
340.454376
 30
0.0
  0
VERTEX
  5
18A9
330
189F
100
AcDbEntity
  8
0
100
AcDbVertex
100
AcDb2dVertex
 10
136.300186
 20
341.092499
 30
0.0
  0
SEQEND
  5
18AA
330
189F
100
AcDbEntity
  8
0
  0
LINE
  5
18AB
330
A
100
AcDbEntity
  8
0
 62
     7
 48
0.001391
100
AcDbLine
 10
107.786751
 20
328.47757
 30
0.0
 11
107.778976
 21
328.532654
 31
0.0
  0
LINE
  5
18AC
330
A
100
AcDbEntity
  8
0
 62
     7
 48
0.001377
100
AcDbLine
 10
107.778976
 20
328.532654
 30
0.0
 11
107.778137
 21
328.47757
 31
0.0
  0
LINE
  5
18AD
330
A
100
AcDbEntity
  8
0
 62
     7
 48
0.225242
100
AcDbLine
 10
107.778976
 20
328.532654
 30
0.0
 11
107.936211
 21
337.540955
 31
0.0
  0
ARC
  5
18AE
330
A
100
AcDbEntity
  8
0
 62
     7
100
AcDbCircle
 10
91.39298999999999
 20
330.127563
 30
0.0
 40
18.128508
100
AcDbArc
 50
21.930313
 51
24.137149
  0
POLYLINE
  5
18AF
330
A
100
AcDbEntity
  8
0
 62
     7
100
AcDb2dPolyline
 66
     1
 10
0.0
 20
0.0
 30
0.0
  0
VERTEX
  5
18B0
330
18AF
100
AcDbEntity
  8
0
100
AcDbVertex
100
AcDb2dVertex
 10
108.209862
 20
336.898254
 30
0.0
  0
VERTEX
  5
18B1
330
18AF
100
AcDbEntity
  8
0
100
AcDbVertex
100
AcDb2dVertex
 10
108.284866
 20
336.4667970000001
 30
0.0
  0
VERTEX
  5
18B2
330
18AF
100
AcDbEntity
  8
0
100
AcDbVertex
100
AcDb2dVertex
 10
108.295898
 20
336.3173220000001
 30
0.0
  0
SEQEND
  5
18B3
330
18AF
100
AcDbEntity
  8
0
  0
POLYLINE
  5
18B4
330
A
100
AcDbEntity
  8
0
 62
     7
100
AcDb2dPolyline
 66
     1
 10
0.0
 20
0.0
 30
0.0
  0
VERTEX
  5
18B5
330
18B4
100
AcDbEntity
  8
0
100
AcDbVertex
100
AcDb2dVertex
 10
108.295921
 20
336.3172
 30
0.0
  0
VERTEX
  5
18B6
330
18B4
100
AcDbEntity
  8
0
100
AcDbVertex
100
AcDb2dVertex
 10
108.339256
 20
335.888184
 30
0.0
  0
VERTEX
  5
18B7
330
18B4
100
AcDbEntity
  8
0
100
AcDbVertex
100
AcDb2dVertex
 10
108.379829
 20
335.701172
 30
0.0
  0
VERTEX
  5
18B8
330
18B4
100
AcDbEntity
  8
0
100
AcDbVertex
100
AcDb2dVertex
 10
108.418228
 20
335.605713
 30
0.0
  0
VERTEX
  5
18B9
330
18B4
100
AcDbEntity
  8
0
100
AcDbVertex
100
AcDb2dVertex
 10
108.446625
 20
335.568146
 30
0.0
  0
VERTEX
  5
18BA
330
18B4
100
AcDbEntity
  8
0
100
AcDbVertex
100
AcDb2dVertex
 10
108.461449
 20
335.557709
 30
0.0
  0
VERTEX
  5
18BB
330
18B4
100
AcDbEntity
  8
0
100
AcDbVertex
100
AcDb2dVertex
 10
108.49205
 20
335.55368
 30
0.0
  0
VERTEX
  5
18BC
330
18B4
100
AcDbEntity
  8
0
100
AcDbVertex
100
AcDb2dVertex
 10
108.523499
 20
335.571289
 30
0.0
  0
SEQEND
  5
18BD
330
18B4
100
AcDbEntity
  8
0
  0
ARC
  5
18BE
330
A
100
AcDbEntity
  8
0
 62
     7
100
AcDbCircle
 10
1668.647095
 20
357.899841
 30
0.0
 40
1560.10083
100
AcDbArc
 50
180.814317
 51
181.077184
  0
ARC
  5
18BF
330
A
100
AcDbEntity
  8
0
 62
     7
100
AcDbCircle
 10
155.791214
 20
294.809387
 30
0.0
 40
0.622391
100
AcDbArc
 50
180.998869
 51
270.000879
  0
ARC
  5
18C0
330
A
100
AcDbEntity
  8
0
 62
     7
100
AcDbCircle
 10
155.791229
 20
294.809387
 30
0.0
 40
0.622391
100
AcDbArc
 50
269.998536
 51
359.001141
  0
ARC
  5
18C1
330
A
100
AcDbEntity
  8
0
 62
     7
100
AcDbCircle
 10
106.567986
 20
294.809387
 30
0.0
 40
0.622391
100
AcDbArc
 50
269.999219
 51
359.001129
  0
ARC
  5
18C2
330
A
100
AcDbEntity
  8
0
 62
     7
100
AcDbCircle
 10
106.567955
 20
294.809387
 30
0.0
 40
0.622391
100
AcDbArc
 50
180.998856
 51
270.001562
  0
POLYLINE
  5
18C3
330
A
100
AcDbEntity
  8
0
 62
     7
100
AcDb2dPolyline
 66
     1
 10
0.0
 20
0.0
 30
0.0
  0
VERTEX
  5
18C4
330
18C3
100
AcDbEntity
  8
0
100
AcDbVertex
100
AcDb2dVertex
 10
125.776535
 20
345.417664
 30
0.0
  0
VERTEX
  5
18C5
330
18C3
100
AcDbEntity
  8
0
100
AcDbVertex
100
AcDb2dVertex
 10
124.174873
 20
345.2579350000001
 30
0.0
  0
VERTEX
  5
18C6
330
18C3
100
AcDbEntity
  8
0
100
AcDbVertex
100
AcDb2dVertex
 10
122.577843
 20
345.05188
 30
0.0
  0
VERTEX
  5
18C7
330
18C3
100
AcDbEntity
  8
0
100
AcDbVertex
100
AcDb2dVertex
 10
120.987091
 20
344.796753
 30
0.0
  0
VERTEX
  5
18C8
330
18C3
100
AcDbEntity
  8
0
100
AcDbVertex
100
AcDb2dVertex
 10
119.404633
 20
344.489288
 30
0.0
  0
VERTEX
  5
18C9
330
18C3
100
AcDbEntity
  8
0
100
AcDbVertex
100
AcDb2dVertex
 10
117.832947
 20
344.125946
 30
0.0
  0
VERTEX
  5
18CA
330
18C3
100
AcDbEntity
  8
0
100
AcDbVertex
100
AcDb2dVertex
 10
116.27504
 20
343.702972
 30
0.0
  0
VERTEX
  5
18CB
330
18C3
100
AcDbEntity
  8
0
100
AcDbVertex
100
AcDb2dVertex
 10
114.734612
 20
343.216217
 30
0.0
  0
VERTEX
  5
18CC
330
18C3
100
AcDbEntity
  8
0
100
AcDbVertex
100
AcDb2dVertex
 10
113.216064
 20
342.661407
 30
0.0
  0
VERTEX
  5
18CD
330
18C3
100
AcDbEntity
  8
0
100
AcDbVertex
100
AcDb2dVertex
 10
112.466599
 20
342.357086
 30
0.0
  0
VERTEX
  5
18CE
330
18C3
100
AcDbEntity
  8
0
100
AcDbVertex
100
AcDb2dVertex
 10
111.72464
 20
342.034027
 30
0.0
  0
VERTEX
  5
18CF
330
18C3
100
AcDbEntity
  8
0
100
AcDbVertex
100
AcDb2dVertex
 10
110.99099
 20
341.69165
 30
0.0
  0
VERTEX
  5
18D0
330
18C3
100
AcDbEntity
  8
0
100
AcDbVertex
100
AcDb2dVertex
 10
110.26651
 20
341.329376
 30
0.0
  0
VERTEX
  5
18D1
330
18C3
100
AcDbEntity
  8
0
100
AcDbVertex
100
AcDb2dVertex
 10
109.552238
 20
340.946655
 30
0.0
  0
VERTEX
  5
18D2
330
18C3
100
AcDbEntity
  8
0
100
AcDbVertex
100
AcDb2dVertex
 10
108.849304
 20
340.542938
 30
0.0
  0
VERTEX
  5
18D3
330
18C3
100
AcDbEntity
  8
0
100
AcDbVertex
100
AcDb2dVertex
 10
108.158691
 20
340.117676
 30
0.0
  0
VERTEX
  5
18D4
330
18C3
100
AcDbEntity
  8
0
100
AcDbVertex
100
AcDb2dVertex
 10
107.48143
 20
339.670532
 30
0.0
  0
VERTEX
  5
18D5
330
18C3
100
AcDbEntity
  8
0
100
AcDbVertex
100
AcDb2dVertex
 10
106.818626
 20
339.201141
 30
0.0
  0
VERTEX
  5
18D6
330
18C3
100
AcDbEntity
  8
0
100
AcDbVertex
100
AcDb2dVertex
 10
106.171585
 20
338.70929
 30
0.0
  0
VERTEX
  5
18D7
330
18C3
100
AcDbEntity
  8
0
100
AcDbVertex
100
AcDb2dVertex
 10
105.541656
 20
338.194794
 30
0.0
  0
VERTEX
  5
18D8
330
18C3
100
AcDbEntity
  8
0
100
AcDbVertex
100
AcDb2dVertex
 10
104.930214
 20
337.657532
 30
0.0
  0
VERTEX
  5
18D9
330
18C3
100
AcDbEntity
  8
0
100
AcDbVertex
100
AcDb2dVertex
 10
104.339005
 20
337.097961
 30
0.0
  0
SEQEND
  5
18DA
330
18C3
100
AcDbEntity
  8
0
  0
POLYLINE
  5
18DB
330
A
100
AcDbEntity
  8
0
 62
     7
100
AcDb2dPolyline
 66
     1
 10
0.0
 20
0.0
 30
0.0
  0
VERTEX
  5
18DC
330
18DB
100
AcDbEntity
  8
0
100
AcDbVertex
100
AcDb2dVertex
 10
108.295944
 20
336.317261
 30
0.0
  0
VERTEX
  5
18DD
330
18DB
100
AcDbEntity
  8
0
100
AcDbVertex
100
AcDb2dVertex
 10
108.916481
 20
336.815948
 30
0.0
  0
VERTEX
  5
18DE
330
18DB
100
AcDbEntity
  8
0
100
AcDbVertex
100
AcDb2dVertex
 10
109.555664
 20
337.291382
 30
0.0
  0
VERTEX
  5
18DF
330
18DB
100
AcDbEntity
  8
0
100
AcDbVertex
100
AcDb2dVertex
 10
110.212059
 20
337.743713
 30
0.0
  0
VERTEX
  5
18E0
330
18DB
100
AcDbEntity
  8
0
100
AcDbVertex
100
AcDb2dVertex
 10
110.884277
 20
338.173187
 30
0.0
  0
VERTEX
  5
18E1
330
18DB
100
AcDbEntity
  8
0
100
AcDbVertex
100
AcDb2dVertex
 10
111.571014
 20
338.5802
 30
0.0
  0
VERTEX
  5
18E2
330
18DB
100
AcDbEntity
  8
0
100
AcDbVertex
100
AcDb2dVertex
 10
112.271027
 20
338.965271
 30
0.0
  0
VERTEX
  5
18E3
330
18DB
100
AcDbEntity
  8
0
100
AcDbVertex
100
AcDb2dVertex
 10
112.983154
 20
339.32901
 30
0.0
  0
VERTEX
  5
18E4
330
18DB
100
AcDbEntity
  8
0
100
AcDbVertex
100
AcDb2dVertex
 10
113.706337
 20
339.671967
 30
0.0
  0
VERTEX
  5
18E5
330
18DB
100
AcDbEntity
  8
0
100
AcDbVertex
100
AcDb2dVertex
 10
114.43956
 20
339.99469
 30
0.0
  0
VERTEX
  5
18E6
330
18DB
100
AcDbEntity
  8
0
100
AcDbVertex
100
AcDb2dVertex
 10
115.181915
 20
340.29776
 30
0.0
  0
VERTEX
  5
18E7
330
18DB
100
AcDbEntity
  8
0
100
AcDbVertex
100
AcDb2dVertex
 10
115.932541
 20
340.581787
 30
0.0
  0
VERTEX
  5
18E8
330
18DB
100
AcDbEntity
  8
0
100
AcDbVertex
100
AcDb2dVertex
 10
117.455536
 20
341.094788
 30
0.0
  0
VERTEX
  5
18E9
330
18DB
100
AcDbEntity
  8
0
100
AcDbVertex
100
AcDb2dVertex
 10
119.002991
 20
341.538147
 30
0.0
  0
VERTEX
  5
18EA
330
18DB
100
AcDbEntity
  8
0
100
AcDbVertex
100
AcDb2dVertex
 10
120.570236
 20
341.916107
 30
0.0
  0
VERTEX
  5
18EB
330
18DB
100
AcDbEntity
  8
0
100
AcDbVertex
100
AcDb2dVertex
 10
122.153374
 20
342.232697
 30
0.0
  0
VERTEX
  5
18EC
330
18DB
100
AcDbEntity
  8
0
100
AcDbVertex
100
AcDb2dVertex
 10
123.749115
 20
342.491669
 30
0.0
  0
VERTEX
  5
18ED
330
18DB
100
AcDbEntity
  8
0
100
AcDbVertex
100
AcDb2dVertex
 10
125.354713
 20
342.696289
 30
0.0
  0
SEQEND
  5
18EE
330
18DB
100
AcDbEntity
  8
0
  0
LINE
  5
18EF
330
A
100
AcDbEntity
  8
0
 62
     7
 48
0.005
100
AcDbLine
 10
85.379593
 20
340.6870120000001
 30
0.0
 11
85.379593
 21
340.487
 31
0.0
  0
LINE
  5
18F0
330
A
100
AcDbEntity
  8
0
 62
     7
 48
0.005
100
AcDbLine
 10
176.979599
 20
340.6870120000001
 30
0.0
 11
176.979599
 21
340.487
 31
0.0
  0
ARC
  5
18F1
330
A
100
AcDbEntity
  8
0
 62
     7
100
AcDbCircle
 10
126.489243
 20
345.144684
 30
0.0
 40
0.4994680000000001
100
AcDbArc
 50
89.98459399999999
 51
122.159695
  0
LINE
  5
18F2
330
A
100
AcDbEntity
  8
0
 62
     7
 48
0.234572
100
AcDbLine
 10
126.488152
 20
345.644165
 30
0.0
 11
135.871048
 21
345.644165
 31
0.0
  0
LINE
  5
18F3
330
A
100
AcDbEntity
  8
0
 62
     7
 48
0.363627
100
AcDbLine
 10
134.433441
 20
328.644165
 30
0.0
 11
134.179596
 21
343.1870120000001
 31
0.0
  0
LINE
  5
18F4
330
A
100
AcDbEntity
  8
0
 62
     7
 48
0.363627
100
AcDbLine
 10
127.925751
 20
328.644165
 30
0.0
 11
128.179596
 21
343.1870120000001
 31
0.0
  0
ARC
  5
18F5
330
A
100
AcDbEntity
  8
0
 62
     7
100
AcDbCircle
 10
121.146301
 20
342.2211910000001
 30
0.0
 40
4.234244
100
AcDbArc
 50
6.441624
 51
12.117293
  0
POLYLINE
  5
18F6
330
A
100
AcDbEntity
  8
0
 62
     7
100
AcDb2dPolyline
 66
     1
 10
0.0
 20
0.0
 30
0.0
  0
VERTEX
  5
18F7
330
18F6
100
AcDbEntity
  8
0
100
AcDbVertex
100
AcDb2dVertex
 10
124.933594
 20
343.328888
 30
0.0
  0
VERTEX
  5
18F8
330
18F6
100
AcDbEntity
  8
0
100
AcDbVertex
100
AcDb2dVertex
 10
123.307877
 20
343.134521
 30
0.0
  0
VERTEX
  5
18F9
330
18F6
100
AcDbEntity
  8
0
100
AcDbVertex
100
AcDb2dVertex
 10
121.687408
 20
342.888184
 30
0.0
  0
VERTEX
  5
18FA
330
18F6
100
AcDbEntity
  8
0
100
AcDbVertex
100
AcDb2dVertex
 10
120.074226
 20
342.586029
 30
0.0
  0
VERTEX
  5
18FB
330
18F6
100
AcDbEntity
  8
0
100
AcDbVertex
100
AcDb2dVertex
 10
118.470932
 20
342.223755
 30
0.0
  0
VERTEX
  5
18FC
330
18F6
100
AcDbEntity
  8
0
100
AcDbVertex
100
AcDb2dVertex
 10
116.880913
 20
341.796539
 30
0.0
  0
VERTEX
  5
18FD
330
18F6
100
AcDbEntity
  8
0
100
AcDbVertex
100
AcDb2dVertex
 10
115.308411
 20
341.299072
 30
0.0
  0
VERTEX
  5
18FE
330
18F6
100
AcDbEntity
  8
0
100
AcDbVertex
100
AcDb2dVertex
 10
114.530334
 20
341.022156
 30
0.0
  0
VERTEX
  5
18FF
330
18F6
100
AcDbEntity
  8
0
100
AcDbVertex
100
AcDb2dVertex
 10
113.758682
 20
340.725494
 30
0.0
  0
VERTEX
  5
1900
330
18F6
100
AcDbEntity
  8
0
100
AcDbVertex
100
AcDb2dVertex
 10
112.994293
 20
340.408264
 30
0.0
  0
VERTEX
  5
1901
330
18F6
100
AcDbEntity
  8
0
100
AcDbVertex
100
AcDb2dVertex
 10
112.238052
 20
340.06958
 30
0.0
  0
VERTEX
  5
1902
330
18F6
100
AcDbEntity
  8
0
100
AcDbVertex
100
AcDb2dVertex
 10
111.490631
 20
339.708496
 30
0.0
  0
VERTEX
  5
1903
330
18F6
100
AcDbEntity
  8
0
100
AcDbVertex
100
AcDb2dVertex
 10
110.753281
 20
339.324097
 30
0.0
  0
VERTEX
  5
1904
330
18F6
100
AcDbEntity
  8
0
100
AcDbVertex
100
AcDb2dVertex
 10
110.027695
 20
338.915863
 30
0.0
  0
VERTEX
  5
1905
330
18F6
100
AcDbEntity
  8
0
100
AcDbVertex
100
AcDb2dVertex
 10
109.315399
 20
338.483002
 30
0.0
  0
VERTEX
  5
1906
330
18F6
100
AcDbEntity
  8
0
100
AcDbVertex
100
AcDb2dVertex
 10
108.617607
 20
338.024719
 30
0.0
  0
VERTEX
  5
1907
330
18F6
100
AcDbEntity
  8
0
100
AcDbVertex
100
AcDb2dVertex
 10
107.936111
 20
337.540497
 30
0.0
  0
SEQEND
  5
1908
330
18F6
100
AcDbEntity
  8
0
  0
POLYLINE
  5
1909
330
A
100
AcDbEntity
  8
0
 62
     7
100
AcDb2dPolyline
 66
     1
 10
0.0
 20
0.0
 30
0.0
  0
VERTEX
  5
190A
330
1909
100
AcDbEntity
  8
0
100
AcDbVertex
100
AcDb2dVertex
 10
108.209839
 20
336.898193
 30
0.0
  0
VERTEX
  5
190B
330
1909
100
AcDbEntity
  8
0
100
AcDbVertex
100
AcDb2dVertex
 10
108.844971
 20
337.389221
 30
0.0
  0
VERTEX
  5
190C
330
1909
100
AcDbEntity
  8
0
100
AcDbVertex
100
AcDb2dVertex
 10
109.497368
 20
337.856506
 30
0.0
  0
VERTEX
  5
190D
330
1909
100
AcDbEntity
  8
0
100
AcDbVertex
100
AcDb2dVertex
 10
110.165497
 20
338.300323
 30
0.0
  0
VERTEX
  5
190E
330
1909
100
AcDbEntity
  8
0
100
AcDbVertex
100
AcDb2dVertex
 10
110.847855
 20
338.720886
 30
0.0
  0
VERTEX
  5
190F
330
1909
100
AcDbEntity
  8
0
100
AcDbVertex
100
AcDb2dVertex
 10
111.543152
 20
339.118774
 30
0.0
  0
VERTEX
  5
1910
330
1909
100
AcDbEntity
  8
0
100
AcDbVertex
100
AcDb2dVertex
 10
112.250229
 20
339.494629
 30
0.0
  0
VERTEX
  5
1911
330
1909
100
AcDbEntity
  8
0
100
AcDbVertex
100
AcDb2dVertex
 10
112.968002
 20
339.849152
 30
0.0
  0
VERTEX
  5
1912
330
1909
100
AcDbEntity
  8
0
100
AcDbVertex
100
AcDb2dVertex
 10
113.69545
 20
340.182922
 30
0.0
  0
VERTEX
  5
1913
330
1909
100
AcDbEntity
  8
0
100
AcDbVertex
100
AcDb2dVertex
 10
114.431656
 20
340.496613
 30
0.0
  0
VERTEX
  5
1914
330
1909
100
AcDbEntity
  8
0
100
AcDbVertex
100
AcDb2dVertex
 10
115.175766
 20
340.790863
 30
0.0
  0
VERTEX
  5
1915
330
1909
100
AcDbEntity
  8
0
100
AcDbVertex
100
AcDb2dVertex
 10
115.926971
 20
341.066284
 30
0.0
  0
VERTEX
  5
1916
330
1909
100
AcDbEntity
  8
0
100
AcDbVertex
100
AcDb2dVertex
 10
117.447868
 20
341.56308
 30
0.0
  0
VERTEX
  5
1917
330
1909
100
AcDbEntity
  8
0
100
AcDbVertex
100
AcDb2dVertex
 10
118.98925
 20
341.99173
 30
0.0
  0
VERTEX
  5
1918
330
1909
100
AcDbEntity
  8
0
100
AcDbVertex
100
AcDb2dVertex
 10
120.546883
 20
342.35672
 30
0.0
  0
VERTEX
  5
1919
330
1909
100
AcDbEntity
  8
0
100
AcDbVertex
100
AcDb2dVertex
 10
122.117279
 20
342.662262
 30
0.0
  0
VERTEX
  5
191A
330
1909
100
AcDbEntity
  8
0
100
AcDbVertex
100
AcDb2dVertex
 10
123.697556
 20
342.91214
 30
0.0
  0
VERTEX
  5
191B
330
1909
100
AcDbEntity
  8
0
100
AcDbVertex
100
AcDb2dVertex
 10
125.285385
 20
343.109802
 30
0.0
  0
SEQEND
  5
191C
330
1909
100
AcDbEntity
  8
0
  0
LINE
  5
191D
330
A
100
AcDbEntity
  8
0
 62
     7
100
AcDbLine
 10
156.413513
 20
294.798523
 30
0.0
 11
157.008087
 21
328.861511
 31
0.0
  0
LINE
  5
191E
330
A
100
AcDbEntity
  8
0
 62
     7
100
AcDbLine
 10
105.945671
 20
294.798523
 30
0.0
 11
105.351097
 21
328.861511
 31
0.0
  0
ARC
  5
191F
330
A
100
AcDbEntity
  8
0
 62
     7
100
AcDbCircle
 10
125.691124
 20
346.4140930000001
 30
0.0
 40
0.999999
100
AcDbArc
 50
274.900194
 51
302.158686
  0
ARC
  5
1920
330
A
100
AcDbEntity
  8
0
 62
     7
100
AcDbCircle
 10
175.179642
 20
340.486938
 30
0.0
 40
1.799986
100
AcDbArc
 50
269.998659
 51
360.001345
  0
ARC
  5
1921
330
A
100
AcDbEntity
  8
0
 62
     7
100
AcDbCircle
 10
87.17955000000001
 20
340.486938
 30
0.0
 40
1.799986
100
AcDbArc
 50
179.998653
 51
270.001339
  0
LINE
  5
1922
330
A
100
AcDbEntity
  8
0
 62
     7
 48
0.15
100
AcDbLine
 10
128.179596
 20
343.1870120000001
 30
0.0
 11
134.179596
 21
343.1870120000001
 31
0.0
  0
ARC
  5
1923
330
A
100
AcDbEntity
  8
0
 62
     7
100
AcDbCircle
 10
95.35285899999999
 20
328.687225
 30
0.0
 40
9.999908999999998
100
AcDbArc
 50
0.998675
 51
90.00132800000001
  0
ARC
  5
1924
330
A
100
AcDbEntity
  8
0
 62
     7
100
AcDbCircle
 10
167.006332
 20
328.687225
 30
0.0
 40
9.999908999999998
100
AcDbArc
 50
89.99867700000001
 51
179.001322
  0
LINE
  5
1925
330
A
100
AcDbEntity
  8
0
 62
     7
 48
0.204334
100
AcDbLine
 10
175.179916
 20
338.6870120000001
 30
0.0
 11
167.006561
 21
338.6870120000001
 31
0.0
  0
LINE
  5
1926
330
A
100
AcDbEntity
  8
0
 62
     7
 48
0.204334
100
AcDbLine
 10
95.35262299999999
 20
338.6870120000001
 30
0.0
 11
87.17927600000001
 21
338.6870120000001
 31
0.0
  0
POLYLINE
  5
1927
330
A
100
AcDbEntity
  8
0
 62
     7
100
AcDb2dPolyline
 66
     1
 10
0.0
 20
0.0
 30
0.0
  0
VERTEX
  5
1928
330
1927
100
AcDbEntity
  8
0
100
AcDbVertex
100
AcDb2dVertex
 10
136.319473
 20
341.94812
 30
0.0
  0
VERTEX
  5
1929
330
1927
100
AcDbEntity
  8
0
100
AcDbVertex
100
AcDb2dVertex
 10
136.437286
 20
342.097015
 30
0.0
  0
VERTEX
  5
192A
330
1927
100
AcDbEntity
  8
0
100
AcDbVertex
100
AcDb2dVertex
 10
136.616089
 20
342.202881
 30
0.0
  0
VERTEX
  5
192B
330
1927
100
AcDbEntity
  8
0
100
AcDbVertex
100
AcDb2dVertex
 10
136.801544
 20
342.239838
 30
0.0
  0
VERTEX
  5
192C
330
1927
100
AcDbEntity
  8
0
100
AcDbVertex
100
AcDb2dVertex
 10
136.904556
 20
342.231903
 30
0.0
  0
SEQEND
  5
192D
330
1927
100
AcDbEntity
  8
0
  0
POLYLINE
  5
192E
330
A
100
AcDbEntity
  8
0
 62
     7
100
AcDb2dPolyline
 66
     1
 10
0.0
 20
0.0
 30
0.0
  0
VERTEX
  5
192F
330
192E
100
AcDbEntity
  8
0
100
AcDbVertex
100
AcDb2dVertex
 10
146.44754
 20
335.90625
 30
0.0
  0
VERTEX
  5
1930
330
192E
100
AcDbEntity
  8
0
100
AcDbVertex
100
AcDb2dVertex
 10
145.820801
 20
336.759857
 30
0.0
  0
VERTEX
  5
1931
330
192E
100
AcDbEntity
  8
0
100
AcDbVertex
100
AcDb2dVertex
 10
145.165497
 20
337.540558
 30
0.0
  0
VERTEX
  5
1932
330
192E
100
AcDbEntity
  8
0
100
AcDbVertex
100
AcDb2dVertex
 10
144.411377
 20
338.324036
 30
0.0
  0
VERTEX
  5
1933
330
192E
100
AcDbEntity
  8
0
100
AcDbVertex
100
AcDb2dVertex
 10
143.634903
 20
339.025116
 30
0.0
  0
VERTEX
  5
1934
330
192E
100
AcDbEntity
  8
0
100
AcDbVertex
100
AcDb2dVertex
 10
142.812103
 20
339.670013
 30
0.0
  0
VERTEX
  5
1935
330
192E
100
AcDbEntity
  8
0
100
AcDbVertex
100
AcDb2dVertex
 10
142.187607
 20
340.101044
 30
0.0
  0
VERTEX
  5
1936
330
192E
100
AcDbEntity
  8
0
100
AcDbVertex
100
AcDb2dVertex
 10
141.488846
 20
340.53009
 30
0.0
  0
VERTEX
  5
1937
330
192E
100
AcDbEntity
  8
0
100
AcDbVertex
100
AcDb2dVertex
 10
140.786255
 20
340.909973
 30
0.0
  0
VERTEX
  5
1938
330
192E
100
AcDbEntity
  8
0
100
AcDbVertex
100
AcDb2dVertex
 10
140.081772
 20
341.243225
 30
0.0
  0
VERTEX
  5
1939
330
192E
100
AcDbEntity
  8
0
100
AcDbVertex
100
AcDb2dVertex
 10
139.399841
 20
341.523621
 30
0.0
  0
VERTEX
  5
193A
330
192E
100
AcDbEntity
  8
0
100
AcDbVertex
100
AcDb2dVertex
 10
138.41333
 20
341.860962
 30
0.0
  0
VERTEX
  5
193B
330
192E
100
AcDbEntity
  8
0
100
AcDbVertex
100
AcDb2dVertex
 10
137.432861
 20
342.121338
 30
0.0
  0
VERTEX
  5
193C
330
192E
100
AcDbEntity
  8
0
100
AcDbVertex
100
AcDb2dVertex
 10
136.904587
 20
342.232117
 30
0.0
  0
SEQEND
  5
193D
330
192E
100
AcDbEntity
  8
0
  0
POLYLINE
  5
193E
330
A
100
AcDbEntity
  8
0
 62
     7
100
AcDb2dPolyline
 66
     1
 10
0.0
 20
0.0
 30
0.0
  0
VERTEX
  5
193F
330
193E
100
AcDbEntity
  8
0
100
AcDbVertex
100
AcDb2dVertex
 10
149.293442
 20
336.075012
 30
0.0
  0
VERTEX
  5
1940
330
193E
100
AcDbEntity
  8
0
100
AcDbVertex
100
AcDb2dVertex
 10
148.813828
 20
336.860352
 30
0.0
  0
VERTEX
  5
1941
330
193E
100
AcDbEntity
  8
0
100
AcDbVertex
100
AcDb2dVertex
 10
148.309509
 20
337.604797
 30
0.0
  0
VERTEX
  5
1942
330
193E
100
AcDbEntity
  8
0
100
AcDbVertex
100
AcDb2dVertex
 10
147.591599
 20
338.547516
 30
0.0
  0
VERTEX
  5
1943
330
193E
100
AcDbEntity
  8
0
100
AcDbVertex
100
AcDb2dVertex
 10
146.83992
 20
339.414307
 30
0.0
  0
VERTEX
  5
1944
330
193E
100
AcDbEntity
  8
0
100
AcDbVertex
100
AcDb2dVertex
 10
146.061127
 20
340.205658
 30
0.0
  0
VERTEX
  5
1945
330
193E
100
AcDbEntity
  8
0
100
AcDbVertex
100
AcDb2dVertex
 10
145.2612
 20
340.923828
 30
0.0
  0
VERTEX
  5
1946
330
193E
100
AcDbEntity
  8
0
100
AcDbVertex
100
AcDb2dVertex
 10
144.505768
 20
341.526489
 30
0.0
  0
VERTEX
  5
1947
330
193E
100
AcDbEntity
  8
0
100
AcDbVertex
100
AcDb2dVertex
 10
143.739914
 20
342.071533
 30
0.0
  0
VERTEX
  5
1948
330
193E
100
AcDbEntity
  8
0
100
AcDbVertex
100
AcDb2dVertex
 10
142.966705
 20
342.561523
 30
0.0
  0
VERTEX
  5
1949
330
193E
100
AcDbEntity
  8
0
100
AcDbVertex
100
AcDb2dVertex
 10
142.188797
 20
342.999054
 30
0.0
  0
SEQEND
  5
194A
330
193E
100
AcDbEntity
  8
0
  0
POLYLINE
  5
194B
330
A
100
AcDbEntity
  8
0
 62
     7
100
AcDb2dPolyline
 66
     1
 10
0.0
 20
0.0
 30
0.0
  0
VERTEX
  5
194C
330
194B
100
AcDbEntity
  8
0
100
AcDbVertex
100
AcDb2dVertex
 10
142.189941
 20
342.998322
 30
0.0
  0
VERTEX
  5
194D
330
194B
100
AcDbEntity
  8
0
100
AcDbVertex
100
AcDb2dVertex
 10
141.0811
 20
343.545013
 30
0.0
  0
VERTEX
  5
194E
330
194B
100
AcDbEntity
  8
0
100
AcDbVertex
100
AcDb2dVertex
 10
139.876053
 20
344.054688
 30
0.0
  0
VERTEX
  5
194F
330
194B
100
AcDbEntity
  8
0
100
AcDbVertex
100
AcDb2dVertex
 10
138.678619
 20
344.481506
 30
0.0
  0
VERTEX
  5
1950
330
194B
100
AcDbEntity
  8
0
100
AcDbVertex
100
AcDb2dVertex
 10
137.540817
 20
344.819
 30
0.0
  0
VERTEX
  5
1951
330
194B
100
AcDbEntity
  8
0
100
AcDbVertex
100
AcDb2dVertex
 10
136.384048
 20
345.098511
 30
0.0
  0
SEQEND
  5
1952
330
194B
100
AcDbEntity
  8
0
  0
POLYLINE
  5
1953
330
A
100
AcDbEntity
  8
0
 62
     7
100
AcDb2dPolyline
 66
     1
 10
0.0
 20
0.0
 30
0.0
  0
VERTEX
  5
1954
330
1953
100
AcDbEntity
  8
0
100
AcDbVertex
100
AcDb2dVertex
 10
136.36882
 20
345.174011
 30
0.0
  0
VERTEX
  5
1955
330
1953
100
AcDbEntity
  8
0
100
AcDbVertex
100
AcDb2dVertex
 10
136.425247
 20
345.017151
 30
0.0
  0
VERTEX
  5
1956
330
1953
100
AcDbEntity
  8
0
100
AcDbVertex
100
AcDb2dVertex
 10
136.518814
 20
344.913818
 30
0.0
  0
SEQEND
  5
1957
330
1953
100
AcDbEntity
  8
0
  0
ARC
  5
1958
330
A
100
AcDbEntity
  8
0
 62
     7
100
AcDbCircle
 10
122.867203
 20
329.508057
 30
0.0
 40
15.692361
100
AcDbArc
 50
25.764848
 51
31.543299
  0
LINE
  5
1959
330
A
100
AcDbEntity
  8
0
 62
     7
 48
0.126312
100
AcDbLine
 10
136.326157
 20
331.512115
 30
0.0
 11
136.899734
 21
336.531921
 31
0.0
  0
LINE
  5
195A
330
A
100
AcDbEntity
  8
0
 62
     7
 48
0.46289
100
AcDbLine
 10
137.277557
 20
294.187012
 30
0.0
 11
155.793152
 21
294.187012
 31
0.0
  0
LINE
  5
195B
330
A
100
AcDbEntity
  8
0
 62
     7
 48
0.46289
100
AcDbLine
 10
106.56604
 20
294.187012
 30
0.0
 11
125.081635
 21
294.187012
 31
0.0
  0
POLYLINE
  5
195C
330
A
100
AcDbEntity
  8
0
 62
     7
100
AcDb2dPolyline
 66
     1
 10
0.0
 20
0.0
 30
0.0
  0
VERTEX
  5
195D
330
195C
100
AcDbEntity
  8
0
100
AcDbVertex
100
AcDb2dVertex
 10
108.523499
 20
335.571289
 30
0.0
  0
VERTEX
  5
195E
330
195C
100
AcDbEntity
  8
0
100
AcDbVertex
100
AcDb2dVertex
 10
109.106117
 20
336.0649410000001
 30
0.0
  0
VERTEX
  5
195F
330
195C
100
AcDbEntity
  8
0
100
AcDbVertex
100
AcDb2dVertex
 10
109.708305
 20
336.537537
 30
0.0
  0
VERTEX
  5
1960
330
195C
100
AcDbEntity
  8
0
100
AcDbVertex
100
AcDb2dVertex
 10
110.328758
 20
336.989075
 30
0.0
  0
VERTEX
  5
1961
330
195C
100
AcDbEntity
  8
0
100
AcDbVertex
100
AcDb2dVertex
 10
110.966301
 20
337.419617
 30
0.0
  0
VERTEX
  5
1962
330
195C
100
AcDbEntity
  8
0
100
AcDbVertex
100
AcDb2dVertex
 10
111.619804
 20
337.829285
 30
0.0
  0
VERTEX
  5
1963
330
195C
100
AcDbEntity
  8
0
100
AcDbVertex
100
AcDb2dVertex
 10
112.28801
 20
338.218384
 30
0.0
  0
VERTEX
  5
1964
330
195C
100
AcDbEntity
  8
0
100
AcDbVertex
100
AcDb2dVertex
 10
112.969742
 20
338.58728
 30
0.0
  0
VERTEX
  5
1965
330
195C
100
AcDbEntity
  8
0
100
AcDbVertex
100
AcDb2dVertex
 10
113.676796
 20
338.942474
 30
0.0
  0
VERTEX
  5
1966
330
195C
100
AcDbEntity
  8
0
100
AcDbVertex
100
AcDb2dVertex
 10
114.566208
 20
339.353912
 30
0.0
  0
VERTEX
  5
1967
330
195C
100
AcDbEntity
  8
0
100
AcDbVertex
100
AcDb2dVertex
 10
115.450424
 20
339.726837
 30
0.0
  0
VERTEX
  5
1968
330
195C
100
AcDbEntity
  8
0
100
AcDbVertex
100
AcDb2dVertex
 10
116.348335
 20
340.072144
 30
0.0
  0
VERTEX
  5
1969
330
195C
100
AcDbEntity
  8
0
100
AcDbVertex
100
AcDb2dVertex
 10
117.258446
 20
340.390717
 30
0.0
  0
VERTEX
  5
196A
330
195C
100
AcDbEntity
  8
0
100
AcDbVertex
100
AcDb2dVertex
 10
118.179405
 20
340.68335
 30
0.0
  0
VERTEX
  5
196B
330
195C
100
AcDbEntity
  8
0
100
AcDbVertex
100
AcDb2dVertex
 10
119.109993
 20
340.950958
 30
0.0
  0
VERTEX
  5
196C
330
195C
100
AcDbEntity
  8
0
100
AcDbVertex
100
AcDb2dVertex
 10
120.070267
 20
341.199188
 30
0.0
  0
VERTEX
  5
196D
330
195C
100
AcDbEntity
  8
0
100
AcDbVertex
100
AcDb2dVertex
 10
121.626198
 20
341.5474549999999
 30
0.0
  0
VERTEX
  5
196E
330
195C
100
AcDbEntity
  8
0
100
AcDbVertex
100
AcDb2dVertex
 10
123.086555
 20
341.817474
 30
0.0
  0
VERTEX
  5
196F
330
195C
100
AcDbEntity
  8
0
100
AcDbVertex
100
AcDb2dVertex
 10
124.558212
 20
342.0388490000001
 30
0.0
  0
VERTEX
  5
1970
330
195C
100
AcDbEntity
  8
0
100
AcDbVertex
100
AcDb2dVertex
 10
126.038834
 20
342.213928
 30
0.0
  0
SEQEND
  5
1971
330
195C
100
AcDbEntity
  8
0
  0
ARC
  5
1972
330
A
100
AcDbEntity
  8
0
 62
     7
100
AcDbCircle
 10
1638.887085
 20
358.516296
 30
0.0
 40
1530.335571
100
AcDbArc
 50
180.852676
 51
181.097197
  0
LINE
  5
19E6
330
A
100
AcDbEntity
  8
0
 62
     7
 48
0.002565
100
AcDbLine
 10
193.426697
 20
355.771973
 30
0.0
 11
193.529312
 21
355.771973
 31
0.0
  0
LINE
  5
19E7
330
A
100
AcDbEntity
  8
0
 62
     7
 48
0.00409
100
AcDbLine
 10
193.424179
 20
355.421875
 30
0.0
 11
193.587769
 21
355.422424
 31
0.0
  0
ARC
  5
19E8
330
A
100
AcDbEntity
  8
0
 62
     7
100
AcDbCircle
 10
194.603973
 20
355.7720339999999
 30
0.0
 40
1.074669
100
AcDbArc
 50
180.003847
 51
198.985981
  0
LINE
  5
19E9
330
A
100
AcDbEntity
  8
0
 62
     7
 48
0.004111
100
AcDbLine
 10
68.77065999999999
 20
355.420227
 30
0.0
 11
68.93512
 21
355.419983
 31
0.0
  0
LINE
  5
19EA
330
A
100
AcDbEntity
  8
0
 62
     7
 48
0.002558
100
AcDbLine
 10
68.82988
 20
355.771973
 30
0.0
 11
68.93220500000001
 21
355.771973
 31
0.0
  0
ARC
  5
19EB
330
A
100
AcDbEntity
  8
0
 62
     7
100
AcDbCircle
 10
67.755142
 20
355.772064
 30
0.0
 40
1.074746999999999
100
AcDbArc
 50
340.875931
 51
359.9953620000001
  0
LINE
  5
19EC
330
A
100
AcDbEntity
  8
0
 62
     7
 48
0.018486
100
AcDbLine
 10
68.224075
 20
352.159393
 30
0.0
 11
68.96350100000001
 21
352.159393
 31
0.0
  0
LINE
  5
19ED
330
A
100
AcDbEntity
  8
0
 62
     7
 48
0.004107
100
AcDbLine
 10
68.77098100000001
 20
355.421173
 30
0.0
 11
68.935265
 21
355.421326
 31
0.0
  0
ARC
  5
19EE
330
A
100
AcDbEntity
  8
0
 62
     7
100
AcDbCircle
 10
78.23075899999999
 20
352.158234
 30
0.0
 40
10.006765
100
AcDbArc
 50
160.969308
 51
179.993352
  0
LINE
  5
19EF
330
A
100
AcDbEntity
  8
0
 62
     7
 48
0.004101
100
AcDbLine
 10
193.424164
 20
355.4212950000001
 30
0.0
 11
193.588196
 21
355.421173
 31
0.0
  0
LINE
  5
19F0
330
A
100
AcDbEntity
  8
0
 62
     7
 48
0.018496
100
AcDbLine
 10
193.395279
 20
352.159393
 30
0.0
 11
194.135117
 21
352.159393
 31
0.0
  0
ARC
  5
19F1
330
A
100
AcDbEntity
  8
0
 62
     7
100
AcDbCircle
 10
184.128433
 20
352.158234
 30
0.0
 40
10.006765
100
AcDbArc
 50
0.006644
 51
19.030686
  0
LINE
  5
19F2
330
A
100
AcDbEntity
  8
0
 62
     7
 48
0.018496
100
AcDbLine
 10
193.395279
 20
352.159393
 30
0.0
 11
194.135117
 21
352.159393
 31
0.0
  0
LINE
  5
19F3
330
A
100
AcDbEntity
  8
0
 62
     7
 48
0.018507
100
AcDbLine
 10
193.3944699999999
 20
352.072144
 30
0.0
 11
194.134735
 21
352.072113
 31
0.0
  0
LINE
  5
19F4
330
A
100
AcDbEntity
  8
0
 62
     7
 48
0.002184
100
AcDbLine
 10
194.134735
 20
352.072052
 30
0.0
 11
194.135117
 21
352.159393
 31
0.0
  0
LINE
  5
19F5
330
A
100
AcDbEntity
  8
0
 62
     7
 48
0.018494
100
AcDbLine
 10
68.224457
 20
352.072113
 30
0.0
 11
68.96423299999999
 21
352.072083
 31
0.0
  0
LINE
  5
19F6
330
A
100
AcDbEntity
  8
0
 62
     7
 48
0.018493
100
AcDbLine
 10
68.224075
 20
352.159393
 30
0.0
 11
68.963806
 21
352.159393
 31
0.0
  0
LINE
  5
19F7
330
A
100
AcDbEntity
  8
0
 62
     7
 48
0.002184
100
AcDbLine
 10
68.224457
 20
352.072052
 30
0.0
 11
68.224075
 21
352.159393
 31
0.0
  0
LINE
  5
19F8
330
A
100
AcDbEntity
  8
0
 62
     7
 48
0.018495
100
AcDbLine
 10
68.302063
 20
343.178406
 30
0.0
 11
69.04187799999999
 21
343.178406
 31
0.0
  0
LINE
  5
19F9
330
A
100
AcDbEntity
  8
0
 62
     7
 48
0.018503
100
AcDbLine
 10
68.224457
 20
352.072144
 30
0.0
 11
131.179596
 21
352.072144
 31
0.0
  0
LINE
  5
19FA
330
A
100
AcDbEntity
  8
0
 62
     7
 48
0.222352
100
AcDbLine
 10
68.302063
 20
343.178406
 30
0.0
 11
68.224457
 21
352.072144
 31
0.0
  0
LINE
  5
19FB
330
A
100
AcDbEntity
  8
0
 62
     7
 48
0.018505
100
AcDbLine
 10
131.179596
 20
352.072144
 30
0.0
 11
194.134735
 21
352.072144
 31
0.0
  0
LINE
  5
19FC
330
A
100
AcDbEntity
  8
0
 62
     7
 48
0.018505
100
AcDbLine
 10
193.31691
 20
343.178406
 30
0.0
 11
194.057129
 21
343.178406
 31
0.0
  0
LINE
  5
19FD
330
A
100
AcDbEntity
  8
0
 62
     7
 48
0.222352
100
AcDbLine
 10
194.057129
 20
343.178406
 30
0.0
 11
194.134735
 21
352.072144
 31
0.0
  0
ARC
  5
19FF
330
A
100
AcDbEntity
  8
0
 62
     7
100
AcDbCircle
 10
193.057373
 20
343.186951
 30
0.0
 40
0.9997299999999999
100
AcDbArc
 50
276.826621
 51
359.510728
  0
ARC
  5
1A01
330
A
100
AcDbEntity
  8
0
 62
     7
100
AcDbCircle
 10
69.30180400000001
 20
343.186951
 30
0.0
 40
0.999709
100
AcDbArc
 50
180.488599
 51
262.776062
  0
LINE
  5
1A02
330
A
100
AcDbEntity
  8
0
 62
     7
 48
0.005001
100
AcDbLine
 10
121.635971
 20
341.548798
 30
0.0
 11
121.797562
 21
341.430847
 31
0.0
  0
LINE
  5
1A03
330
A
100
AcDbEntity
  8
0
 62
     7
 48
0.106389
100
AcDbLine
 10
121.797562
 20
341.430847
 30
0.0
 11
126.053139
 21
341.430847
 31
0.0
  0
LINE
  5
1A04
330
A
100
AcDbEntity
  8
0
 62
     7
100
AcDbLine
 10
144.631577
 20
341.430847
 30
0.0
 11
186.163971
 21
341.430847
 31
0.0
  0
LINE
  5
1A05
330
A
100
AcDbEntity
  8
0
 62
     7
 48
0.154477
100
AcDbLine
 10
186.163971
 20
341.430847
 30
0.0
 11
192.295685
 21
342.194611
 31
0.0
  0
LINE
  5
1A06
330
A
100
AcDbEntity
  8
0
 62
     7
 48
0.256629
100
AcDbLine
 10
75.400513
 20
341.430847
 30
0.0
 11
85.66567199999999
 21
341.430847
 31
0.0
  0
LINE
  5
1A07
330
A
100
AcDbEntity
  8
0
 62
     7
100
AcDbLine
 10
85.66567199999999
 20
341.430847
 30
0.0
 11
110.464447
 21
341.430847
 31
0.0
  0
LINE
  5
1A08
330
A
100
AcDbEntity
  8
0
 62
     7
 48
0.018611
100
AcDbLine
 10
121.053131
 20
341.430847
 30
0.0
 11
121.797562
 21
341.430847
 31
0.0
  0
LINE
  5
1A09
330
A
100
AcDbEntity
  8
0
 62
     7
 48
0.005001
100
AcDbLine
 10
121.635971
 20
341.548798
 30
0.0
 11
121.797562
 21
341.430847
 31
0.0
  0
LINE
  5
1A0A
330
A
100
AcDbEntity
  8
0
 62
     7
 48
0.156677
100
AcDbLine
 10
69.180161
 20
342.194611
 30
0.0
 11
75.400513
 21
341.430847
 31
0.0
  0
LINE
  5
1A0B
330
A
100
AcDbEntity
  8
0
 62
     7
 48
0.154477
100
AcDbLine
 10
186.163971
 20
341.430847
 30
0.0
 11
192.295685
 21
342.194611
 31
0.0
  0
LINE
  5
1A0C
330
A
100
AcDbEntity
  8
0
 62
     7
 48
0.019868
100
AcDbLine
 10
186.163971
 20
341.430847
 30
0.0
 11
186.958679
 21
341.430847
 31
0.0
  0
LINE
  5
1A0D
330
A
100
AcDbEntity
  8
0
 62
     7
 48
0.156677
100
AcDbLine
 10
186.958679
 20
341.430847
 30
0.0
 11
193.179031
 21
342.194611
 31
0.0
  0
LINE
  5
1A0E
330
A
100
AcDbEntity
  8
0
 62
     7
 48
0.020902
100
AcDbLine
 10
75.441292
 20
341.318787
 30
0.0
 11
76.277374
 21
341.318787
 31
0.0
  0
LINE
  5
1A0F
330
A
100
AcDbEntity
  8
0
 62
     7
 48
0.000364
100
AcDbLine
 10
121.798447
 20
341.416321
 30
0.0
 11
121.797562
 21
341.430847
 31
0.0
  0
LINE
  5
1A10
330
A
100
AcDbEntity
  8
0
 62
     7
 48
0.018747
100
AcDbLine
 10
121.047691
 20
341.430847
 30
0.0
 11
121.797562
 21
341.430847
 31
0.0
  0
LINE
  5
1A11
330
A
100
AcDbEntity
  8
0
 62
     7
 48
0.20619
100
AcDbLine
 10
102.216835
 20
341.430847
 30
0.0
 11
110.464447
 21
341.430847
 31
0.0
  0
LINE
  5
1A12
330
A
100
AcDbEntity
  8
0
 62
     7
100
AcDbLine
 10
75.400513
 20
341.430847
 30
0.0
 11
102.216835
 21
341.430847
 31
0.0
  0
LINE
  5
1A13
330
A
100
AcDbEntity
  8
0
 62
     7
 48
0.002981
100
AcDbLine
 10
75.441292
 20
341.318787
 30
0.0
 11
75.400513
 21
341.430847
 31
0.0
  0
LINE
  5
1A14
330
A
100
AcDbEntity
  8
0
 62
     7
 48
0.019854
100
AcDbLine
 10
186.123764
 20
341.318787
 30
0.0
 11
186.917908
 21
341.318787
 31
0.0
  0
ARC
  5
1A15
330
A
100
AcDbEntity
  8
0
 62
     7
100
AcDbCircle
 10
185.374237
 20
341.585602
 30
0.0
 40
0.795486
100
AcDbArc
 50
293.544363
 51
340.406342
  0
LINE
  5
1A16
330
A
100
AcDbEntity
  8
0
 62
     7
 48
0.019644
100
AcDbLine
 10
185.69194
 20
340.856445
 30
0.0
 11
186.477692
 21
340.85556
 31
0.0
  0
ARC
  5
1A17
330
A
100
AcDbEntity
  8
0
 62
     7
100
AcDbCircle
 10
186.166
 20
341.592529
 30
0.0
 40
0.8001799999999999
100
AcDbArc
 50
292.925247
 51
339.995967
  0
LINE
  5
1A18
330
A
100
AcDbEntity
  8
0
 62
     7
 48
0.085696
100
AcDbLine
 10
182.264084
 20
340.855896
 30
0.0
 11
185.69194
 21
340.856476
 31
0.0
  0
ARC
  5
1A19
330
A
100
AcDbEntity
  8
0
 62
     7
100
AcDbCircle
 10
185.374237
 20
341.585602
 30
0.0
 40
0.7954810000000001
100
AcDbArc
 50
293.544302
 51
340.406479
  0
LINE
  5
1A1A
330
A
100
AcDbEntity
  8
0
 62
     7
 48
0.00027
100
AcDbLine
 10
186.112976
 20
341.318787
 30
0.0
 11
186.123764
 21
341.318787
 31
0.0
  0
LINE
  5
1A1B
330
A
100
AcDbEntity
  8
0
 62
     7
 48
0.104973
100
AcDbLine
 10
75.87621300000001
 20
340.857819
 30
0.0
 11
80.07513399999998
 21
340.854614
 31
0.0
  0
LINE
  5
1A1C
330
A
100
AcDbEntity
  8
0
 62
     7
 48
0.020896
100
AcDbLine
 10
75.441292
 20
341.318787
 30
0.0
 11
76.27711500000001
 21
341.318787
 31
0.0
  0
ARC
  5
1A1D
330
A
100
AcDbEntity
  8
0
 62
     7
100
AcDbCircle
 10
76.193207
 20
341.592529
 30
0.0
 40
0.8001989999999999
100
AcDbArc
 50
200.004458
 51
246.662648
  0
LINE
  5
1A1E
330
A
100
AcDbEntity
  8
0
 62
     7
 48
0.103333
100
AcDbLine
 10
197.379333
 20
340.187012
 30
0.0
 11
193.246033
 21
340.187012
 31
0.0
  0
LINE
  5
1A1F
330
A
100
AcDbEntity
  8
0
 62
     7
 48
0.004186
100
AcDbLine
 10
193.078583
 20
340.187012
 30
0.0
 11
193.246033
 21
340.187012
 31
0.0
  0
LINE
  5
1A20
330
A
100
AcDbEntity
  8
0
 62
     7
 48
0.103332
100
AcDbLine
 10
69.11315899999999
 20
340.187012
 30
0.0
 11
64.979866
 21
340.187012
 31
0.0
  0
LINE
  5
1A21
330
A
100
AcDbEntity
  8
0
 62
     7
 48
0.023611
100
AcDbLine
 10
196.436172
 20
340.187012
 30
0.0
 11
197.380615
 21
340.186981
 31
0.0
  0
ARC
  5
1A22
330
A
100
AcDbEntity
  8
0
 62
     7
100
AcDbCircle
 10
196.433807
 20
339.889526
 30
0.0
 40
0.297763
100
AcDbArc
 50
359.51353
 51
449.5428719999999
  0
LINE
  5
1A23
330
A
100
AcDbEntity
  8
0
 62
     7
 48
0.023686
100
AcDbLine
 10
196.731903
 20
339.886993
 30
0.0
 11
197.679352
 21
339.886993
 31
0.0
  0
ARC
  5
1A24
330
A
100
AcDbEntity
  8
0
 62
     7
100
AcDbCircle
 10
197.37944
 20
339.887085
 30
0.0
 40
0.299878
100
AcDbArc
 50
359.98305
 51
449.7767849999999
  0
LINE
  5
1A25
330
A
100
AcDbEntity
  8
0
 62
     7
 48
0.086082
100
AcDbLine
 10
193.288605
 20
339.886993
 30
0.0
 11
196.731903
 21
339.886993
 31
0.0
  0
ARC
  5
1A26
330
A
100
AcDbEntity
  8
0
 62
     7
100
AcDbCircle
 10
196.433807
 20
339.889526
 30
0.0
 40
0.297763
100
AcDbArc
 50
359.51353
 51
449.5428719999999
  0
LINE
  5
1A27
330
A
100
AcDbEntity
  8
0
 62
     7
 48
0.078624
100
AcDbLine
 10
193.291199
 20
340.187012
 30
0.0
 11
196.436172
 21
340.187012
 31
0.0
  0
LINE
  5
1A28
330
A
100
AcDbEntity
  8
0
 62
     7
 48
0.109769
100
AcDbLine
 10
64.67984
 20
339.886993
 30
0.0
 11
69.07061800000001
 21
339.886993
 31
0.0
  0
LINE
  5
1A29
330
A
100
AcDbEntity
  8
0
 62
     7
 48
0.046177
100
AcDbLine
 10
67.22093199999999
 20
340.187012
 30
0.0
 11
69.06800799999999
 21
340.187012
 31
0.0
  0
LINE
  5
1A2A
330
A
100
AcDbEntity
  8
0
 62
     7
 48
0.056139
100
AcDbLine
 10
64.975372
 20
340.1869200000001
 30
0.0
 11
67.22093199999999
 21
340.187012
 31
0.0
  0
ARC
  5
1A2B
330
A
100
AcDbEntity
  8
0
 62
     7
100
AcDbCircle
 10
64.979736
 20
339.887085
 30
0.0
 40
0.299865
100
AcDbArc
 50
90.83372999999999
 51
180.018501
  0
LINE
  5
1A2C
330
A
100
AcDbEntity
  8
0
 62
     7
 48
0.088198
100
AcDbLine
 10
193.203979
 20
330.187012
 30
0.0
 11
196.731903
 21
330.187012
 31
0.0
  0
LINE
  5
1A2D
330
A
100
AcDbEntity
  8
0
 62
     7
 48
0.2425
100
AcDbLine
 10
196.731903
 20
330.187012
 30
0.0
 11
196.731903
 21
339.886993
 31
0.0
  0
LINE
  5
1A2E
330
A
100
AcDbEntity
  8
0
 62
     7
 48
0.086084
100
AcDbLine
 10
193.288559
 20
339.886993
 30
0.0
 11
196.731903
 21
339.886993
 31
0.0
  0
LINE
  5
1A2F
330
A
100
AcDbEntity
  8
0
 62
     7
 48
0.111884
100
AcDbLine
 10
64.67984
 20
330.187012
 30
0.0
 11
69.155212
 21
330.187012
 31
0.0
  0
LINE
  5
1A30
330
A
100
AcDbEntity
  8
0
 62
     7
 48
0.109768
100
AcDbLine
 10
64.67984
 20
339.886993
 30
0.0
 11
69.07058000000001
 21
339.886993
 31
0.0
  0
LINE
  5
1A31
330
A
100
AcDbEntity
  8
0
 62
     7
 48
0.2425
100
AcDbLine
 10
64.67984
 20
330.187012
 30
0.0
 11
64.67984
 21
339.886993
 31
0.0
  0
LINE
  5
1A32
330
A
100
AcDbEntity
  8
0
 62
     7
 48
0.023686
100
AcDbLine
 10
196.731903
 20
339.886993
 30
0.0
 11
197.679352
 21
339.886993
 31
0.0
  0
LINE
  5
1A33
330
A
100
AcDbEntity
  8
0
 62
     7
 48
0.2425
100
AcDbLine
 10
196.731903
 20
330.187012
 30
0.0
 11
196.731903
 21
339.886993
 31
0.0
  0
LINE
  5
1A34
330
A
100
AcDbEntity
  8
0
 62
     7
 48
0.023686
100
AcDbLine
 10
196.731903
 20
330.187012
 30
0.0
 11
197.679352
 21
330.187012
 31
0.0
  0
LINE
  5
1A35
330
A
100
AcDbEntity
  8
0
 62
     7
 48
0.2425
100
AcDbLine
 10
197.679352
 20
330.187012
 30
0.0
 11
197.679352
 21
339.886993
 31
0.0
  0
LINE
  5
1A36
330
A
100
AcDbEntity
  8
0
 62
     7
 48
0.014745
100
AcDbLine
 10
198.269135
 20
330.187012
 30
0.0
 11
197.679321
 21
330.187012
 31
0.0
  0
LINE
  5
1A37
330
A
100
AcDbEntity
  8
0
 62
     7
 48
0.014121
100
AcDbLine
 10
197.114471
 20
330.187012
 30
0.0
 11
197.679321
 21
330.187012
 31
0.0
  0
LINE
  5
1A38
330
A
100
AcDbEntity
  8
0
 62
     7
 48
0.042326
100
AcDbLine
 10
195.421448
 20
330.187012
 30
0.0
 11
197.114471
 21
330.187012
 31
0.0
  0
LINE
  5
1A39
330
A
100
AcDbEntity
  8
0
 62
     7
 48
0.055437
100
AcDbLine
 10
193.203979
 20
330.187012
 30
0.0
 11
195.421448
 21
330.187012
 31
0.0
  0
LINE
  5
1A3A
330
A
100
AcDbEntity
  8
0
 62
     7
 48
0.055035
100
AcDbLine
 10
66.953857
 20
330.187012
 30
0.0
 11
69.15526599999999
 21
330.187012
 31
0.0
  0
LINE
  5
1A3B
330
A
100
AcDbEntity
  8
0
 62
     7
 48
0.042525
100
AcDbLine
 10
65.252853
 20
330.187012
 30
0.0
 11
66.953857
 21
330.187012
 31
0.0
  0
LINE
  5
1A3C
330
A
100
AcDbEntity
  8
0
 62
     7
 48
0.014325
100
AcDbLine
 10
64.67987099999999
 20
330.187012
 30
0.0
 11
65.252853
 21
330.187012
 31
0.0
  0
LINE
  5
1A3D
330
A
100
AcDbEntity
  8
0
 62
     7
 48
0.014745
100
AcDbLine
 10
64.67986299999999
 20
330.187012
 30
0.0
 11
64.09005
 21
330.187012
 31
0.0
  0
LINE
  5
1A3E
330
A
100
AcDbEntity
  8
0
 62
     7
 48
0.027016
100
AcDbLine
 10
63.599747
 20
330.588867
 30
0.0
 11
64.680374
 21
330.588867
 31
0.0
  0
LINE
  5
1A3F
330
A
100
AcDbEntity
  8
0
 62
     7
 48
0.069849
100
AcDbLine
 10
66.361237
 20
330.187012
 30
0.0
 11
105.2396592388493
 21
330.187012
 31
0.0
  0
LINE
  5
1A40
330
A
100
AcDbEntity
  8
0
 62
     7
 48
0.002447
100
AcDbLine
 10
66.26334399999999
 20
330.187012
 30
0.0
 11
66.361237
 21
330.187012
 31
0.0
  0
LINE
  5
1A41
330
A
100
AcDbEntity
  8
0
 62
     7
 48
0.014859
100
AcDbLine
 10
64.085487
 20
330.187042
 30
0.0
 11
64.67985500000001
 21
330.187042
 31
0.0
  0
ARC
  5
1A42
330
A
100
AcDbEntity
  8
0
 62
     7
100
AcDbCircle
 10
64.089935
 20
330.68689
 30
0.0
 40
0.4998800000000001
100
AcDbArc
 50
191.309258
 51
269.489414
  0
LINE
  5
1A43
330
A
100
AcDbEntity
  8
0
 62
     7
 48
0.002934
100
AcDbLine
 10
197.67923
 20
330.588867
 30
0.0
 11
197.7966
 21
330.588867
 31
0.0
  0
ARC
  5
1A44
330
A
100
AcDbEntity
  8
0
 62
     7
100
AcDbCircle
 10
197.304169
 20
330.685242
 30
0.0
 40
0.501724
100
AcDbArc
 50
318.461761
 51
348.925752
  0
LINE
  5
1A45
330
A
100
AcDbEntity
  8
0
 62
     7
 48
0.10274
100
AcDbLine
 10
157.1195317611506
 20
330.187012
 30
0.0
 11
197.313324
 21
330.187012
 31
0.0
  0
LINE
  5
1A46
330
A
100
AcDbEntity
  8
0
 62
     7
 48
0.023928
100
AcDbLine
 10
197.313354
 20
330.187012
 30
0.0
 11
198.270477
 21
330.187012
 31
0.0
  0
ARC
  5
1A47
330
A
100
AcDbEntity
  8
0
 62
     7
100
AcDbCircle
 10
197.304169
 20
330.685242
 30
0.0
 40
0.501724
100
AcDbArc
 50
318.461761
 51
348.925752
  0
LINE
  5
1A48
330
A
100
AcDbEntity
  8
0
 62
     7
 48
0.024071
100
AcDbLine
 10
197.7966
 20
330.588867
 30
0.0
 11
198.759445
 21
330.588867
 31
0.0
  0
ARC
  5
1A49
330
A
100
AcDbEntity
  8
0
 62
     7
100
AcDbCircle
 10
198.269241
 20
330.68692
 30
0.0
 40
0.4998930000000001
100
AcDbArc
 50
270.141335
 51
348.689934
  0
LINE
  5
1A4A
330
A
100
AcDbEntity
  8
0
 62
     7
 48
0.024071
100
AcDbLine
 10
197.7966
 20
330.588867
 30
0.0
 11
198.759445
 21
330.588867
 31
0.0
  0
LINE
  5
1A4B
330
A
100
AcDbEntity
  8
0
 62
     7
 48
0.046037
100
AcDbLine
 10
197.7966
 20
330.588867
 30
0.0
 11
198.153046
 21
332.395508
 31
0.0
  0
LINE
  5
1A4C
330
A
100
AcDbEntity
  8
0
 62
     7
 48
0.000756
100
AcDbLine
 10
199.090805
 20
332.395508
 30
0.0
 11
199.121033
 21
332.395508
 31
0.0
  0
LINE
  5
1A4D
330
A
100
AcDbEntity
  8
0
 62
     7
 48
0.046062
100
AcDbLine
 10
198.759445
 20
330.588867
 30
0.0
 11
199.121033
 21
332.395508
 31
0.0
  0
LINE
  5
1A4E
330
A
100
AcDbEntity
  8
0
 62
     7
 48
0.046037
100
AcDbLine
 10
197.7966
 20
330.588867
 30
0.0
 11
198.153046
 21
332.395508
 31
0.0
  0
LINE
  5
1A4F
330
A
100
AcDbEntity
  8
0
 62
     7
 48
0.002935
100
AcDbLine
 10
197.679199
 20
330.588867
 30
0.0
 11
197.7966
 21
330.588867
 31
0.0
  0
LINE
  5
1A50
330
A
100
AcDbEntity
  8
0
 62
     7
 48
0.000754
100
AcDbLine
 10
63.238152
 20
332.395508
 30
0.0
 11
63.268318
 21
332.395508
 31
0.0
  0
LINE
  5
1A51
330
A
100
AcDbEntity
  8
0
 62
     7
 48
0.027003
100
AcDbLine
 10
63.599747
 20
330.588867
 30
0.0
 11
64.67987099999999
 21
330.588867
 31
0.0
  0
LINE
  5
1A52
330
A
100
AcDbEntity
  8
0
 62
     7
 48
0.046062
100
AcDbLine
 10
63.599747
 20
330.588867
 30
0.0
 11
63.238152
 21
332.395508
 31
0.0
  0
LINE
  5
1A53
330
A
100
AcDbEntity
  8
0
 62
     7
 48
0.001441
100
AcDbLine
 10
63.17980999999999
 20
332.984253
 30
0.0
 11
63.23745699999999
 21
332.984253
 31
0.0
  0
LINE
  5
1A54
330
A
100
AcDbEntity
  8
0
 62
     7
 48
0.000757
100
AcDbLine
 10
63.237976
 20
332.396393
 30
0.0
 11
63.268257
 21
332.396515
 31
0.0
  0
ARC
  5
1A55
330
A
100
AcDbEntity
  8
0
 62
     7
100
AcDbCircle
 10
66.179817
 20
332.985474
 30
0.0
 40
3.000122999999999
100
AcDbArc
 50
180.023218
 51
191.323424
  0
LINE
  5
1A56
330
A
100
AcDbEntity
  8
0
 62
     7
 48
0.000759
100
AcDbLine
 10
199.090729
 20
332.395752
 30
0.0
 11
199.121094
 21
332.395752
 31
0.0
  0
LINE
  5
1A57
330
A
100
AcDbEntity
  8
0
 62
     7
 48
0.001443
100
AcDbLine
 10
199.121674
 20
332.984253
 30
0.0
 11
199.179382
 21
332.984253
 31
0.0
  0
ARC
  5
1A58
330
A
100
AcDbEntity
  8
0
 62
     7
100
AcDbCircle
 10
196.178726
 20
332.985535
 30
0.0
 40
3.00077
100
AcDbArc
 50
348.665807
 51
359.975921
  0
LINE
  5
1A59
330
A
100
AcDbEntity
  8
0
 62
     7
 48
0.001443
100
AcDbLine
 10
199.121674
 20
332.984253
 30
0.0
 11
199.179382
 21
332.984253
 31
0.0
  0
LINE
  5
1A5A
330
A
100
AcDbEntity
  8
0
 62
     7
 48
0.024221
100
AcDbLine
 10
198.210556
 20
334.087006
 30
0.0
 11
199.179382
 21
334.087006
 31
0.0
  0
LINE
  5
1A5B
330
A
100
AcDbEntity
  8
0
 62
     7
 48
0.027569
100
AcDbLine
 10
199.179382
 20
334.087006
 30
0.0
 11
199.179382
 21
332.984253
 31
0.0
  0
LINE
  5
1A5C
330
A
100
AcDbEntity
  8
0
 62
     7
 48
0.01328
100
AcDbLine
 10
197.679352
 20
334.087006
 30
0.0
 11
198.210556
 21
334.087006
 31
0.0
  0
LINE
  5
1A5D
330
A
100
AcDbEntity
  8
0
 62
     7
 48
0.037501
100
AcDbLine
 10
63.17980999999999
 20
334.087006
 30
0.0
 11
64.67984
 21
334.087006
 31
0.0
  0
LINE
  5
1A5E
330
A
100
AcDbEntity
  8
0
 62
     7
 48
0.001445
100
AcDbLine
 10
63.17980999999999
 20
332.984253
 30
0.0
 11
63.23761700000001
 21
332.984253
 31
0.0
  0
LINE
  5
1A5F
330
A
100
AcDbEntity
  8
0
 62
     7
 48
0.027569
100
AcDbLine
 10
63.17980999999999
 20
334.087006
 30
0.0
 11
63.17980999999999
 21
332.984253
 31
0.0
  0
LINE
  5
1A60
330
A
100
AcDbEntity
  8
0
 62
     7
 48
0.0125
100
AcDbLine
 10
199.679352
 20
334.087006
 30
0.0
 11
199.179352
 21
334.087006
 31
0.0
  0
LINE
  5
1A61
330
A
100
AcDbEntity
  8
0
 62
     7
 48
0.01444
100
AcDbLine
 10
198.601761
 20
334.087006
 30
0.0
 11
199.179352
 21
334.087006
 31
0.0
  0
LINE
  5
1A62
330
A
100
AcDbEntity
  8
0
 62
     7
 48
0.023061
100
AcDbLine
 10
197.679321
 20
334.087006
 30
0.0
 11
198.601761
 21
334.087006
 31
0.0
  0
LINE
  5
1A63
330
A
100
AcDbEntity
  8
0
 62
     7
 48
0.022853
100
AcDbLine
 10
63.76574699999999
 20
334.087006
 30
0.0
 11
64.67985500000001
 21
334.087006
 31
0.0
  0
LINE
  5
1A64
330
A
100
AcDbEntity
  8
0
 62
     7
 48
0.014648
100
AcDbLine
 10
63.17984
 20
334.087006
 30
0.0
 11
63.76574699999999
 21
334.087006
 31
0.0
  0
LINE
  5
1A65
330
A
100
AcDbEntity
  8
0
 62
     7
 48
0.0125
100
AcDbLine
 10
63.179832
 20
334.087006
 30
0.0
 11
62.67984000000001
 21
334.087006
 31
0.0
  0
LINE
  5
1A66
330
A
100
AcDbEntity
  8
0
 62
     7
 48
0.113367
100
AcDbLine
 10
198.70343
 20
334.087006
 30
0.0
 11
198.70343
 21
338.621704
 31
0.0
  0
LINE
  5
1A67
330
A
100
AcDbEntity
  8
0
 62
     7
 48
0.024399
100
AcDbLine
 10
198.70343
 20
338.621704
 30
0.0
 11
199.679382
 21
338.621704
 31
0.0
  0
LINE
  5
1A68
330
A
100
AcDbEntity
  8
0
 62
     7
 48
0.113367
100
AcDbLine
 10
199.679382
 20
338.621704
 30
0.0
 11
199.679382
 21
334.087006
 31
0.0
  0
LINE
  5
1A69
330
A
100
AcDbEntity
  8
0
 62
     7
 48
0.025603
100
AcDbLine
 10
197.679321
 20
338.621704
 30
0.0
 11
198.70343
 21
338.621704
 31
0.0
  0
LINE
  5
1A6A
330
A
100
AcDbEntity
  8
0
 62
     7
 48
0.113367
100
AcDbLine
 10
198.70343
 20
334.087006
 30
0.0
 11
198.70343
 21
338.621704
 31
0.0
  0
LINE
  5
1A6B
330
A
100
AcDbEntity
  8
0
 62
     7
 48
0.050005
100
AcDbLine
 10
62.67980999999999
 20
338.621704
 30
0.0
 11
64.68
 21
338.621704
 31
0.0
  0
LINE
  5
1A6C
330
A
100
AcDbEntity
  8
0
 62
     7
 48
0.000633
100
AcDbLine
 10
62.67980999999999
 20
334.087006
 30
0.0
 11
62.70513199999999
 21
334.087006
 31
0.0
  0
LINE
  5
1A6D
330
A
100
AcDbEntity
  8
0
 62
     7
 48
0.113367
100
AcDbLine
 10
62.67980999999999
 20
338.621704
 30
0.0
 11
62.67980999999999
 21
334.087006
 31
0.0
  0
LINE
  5
1A6E
330
A
100
AcDbEntity
  8
0
 62
     7
 48
0.024399
100
AcDbLine
 10
198.70343
 20
338.621704
 30
0.0
 11
199.679382
 21
338.621704
 31
0.0
  0
ARC
  5
1A6F
330
A
100
AcDbEntity
  8
0
 62
     7
100
AcDbCircle
 10
158.919373
 20
308.016174
 30
0.0
 40
50.194492
100
AcDbArc
 50
31.291757
 51
35.70506700000001
  0
LINE
  5
1A70
330
A
100
AcDbEntity
  8
0
 62
     7
 48
0.004996
100
AcDbLine
 10
203.179581
 20
333.179626
 30
0.0
 11
203.379425
 21
333.179626
 31
0.0
  0
ARC
  5
1A71
330
A
100
AcDbEntity
  8
0
 62
     7
100
AcDbCircle
 10
160.180939
 20
307.788055
 30
0.0
 40
50.108303
100
AcDbArc
 50
30.446552
 51
37.976665
  0
ARC
  5
1A72
330
A
100
AcDbEntity
  8
0
 62
     7
100
AcDbCircle
 10
158.919373
 20
308.016174
 30
0.0
 40
50.194492
100
AcDbArc
 50
31.291757
 51
35.70506700000001
  0
LINE
  5
1A73
330
A
100
AcDbEntity
  8
0
 62
     7
 48
0.025611
100
AcDbLine
 10
197.679001
 20
338.621704
 30
0.0
 11
198.70343
 21
338.621704
 31
0.0
  0
LINE
  5
1A74
330
A
100
AcDbEntity
  8
0
 62
     7
 48
0.004996
100
AcDbLine
 10
58.979774
 20
333.179626
 30
0.0
 11
59.17960400000001
 21
333.179626
 31
0.0
  0
LINE
  5
1A75
330
A
100
AcDbEntity
  8
0
 62
     7
 48
0.050001
100
AcDbLine
 10
62.67980999999999
 20
338.621704
 30
0.0
 11
64.67985500000001
 21
338.621704
 31
0.0
  0
ARC
  5
1A76
330
A
100
AcDbEntity
  8
0
 62
     7
100
AcDbCircle
 10
102.178246
 20
307.788055
 30
0.0
 40
50.108303
100
AcDbArc
 50
142.023334
 51
149.553453
  0
LINE
  5
1A77
330
A
100
AcDbEntity
  8
0
 62
     7
 48
0.005012
100
AcDbLine
 10
58.979774
 20
332.387238
 30
0.0
 11
59.18026700000001
 21
332.387238
 31
0.0
  0
LINE
  5
1A78
330
A
100
AcDbEntity
  8
0
 62
     7
 48
0.005009
100
AcDbLine
 10
58.979774
 20
333.179626
 30
0.0
 11
59.180138
 21
333.179626
 31
0.0
  0
LINE
  5
1A79
330
A
100
AcDbEntity
  8
0
 62
     7
 48
0.01981
100
AcDbLine
 10
58.979774
 20
332.387238
 30
0.0
 11
58.979774
 21
333.179626
 31
0.0
  0
LINE
  5
1A7A
330
A
100
AcDbEntity
  8
0
 62
     7
 48
0.004996
100
AcDbLine
 10
203.179581
 20
333.179626
 30
0.0
 11
203.379425
 21
333.179626
 31
0.0
  0
LINE
  5
1A7B
330
A
100
AcDbEntity
  8
0
 62
     7
 48
0.004996
100
AcDbLine
 10
203.179581
 20
332.387238
 30
0.0
 11
203.379425
 21
332.387238
 31
0.0
  0
LINE
  5
1A7C
330
A
100
AcDbEntity
  8
0
 62
     7
 48
0.01981
100
AcDbLine
 10
203.379425
 20
332.387238
 30
0.0
 11
203.379425
 21
333.179626
 31
0.0
  0
LINE
  5
1A7D
330
A
100
AcDbEntity
  8
0
 62
     7
 48
0.005124
100
AcDbLine
 10
201.652679
 20
331.886993
 30
0.0
 11
201.857635
 21
331.886993
 31
0.0
  0
LINE
  5
1A7E
330
A
100
AcDbEntity
  8
0
 62
     7
 48
0.017561
100
AcDbLine
 10
201.857635
 20
331.886993
 30
0.0
 11
202.350739
 21
332.387238
 31
0.0
  0
LINE
  5
1A7F
330
A
100
AcDbEntity
  8
0
 62
     7
 48
0.030639
100
AcDbLine
 10
59.48001899999999
 20
331.886993
 30
0.0
 11
60.70558199999999
 21
331.886993
 31
0.0
  0
LINE
  5
1A80
330
A
100
AcDbEntity
  8
0
 62
     7
 48
0.005011
100
AcDbLine
 10
58.979774
 20
332.387238
 30
0.0
 11
59.180214
 21
332.387238
 31
0.0
  0
LINE
  5
1A81
330
A
100
AcDbEntity
  8
0
 62
     7
 48
0.017686
100
AcDbLine
 10
58.979774
 20
332.387238
 30
0.0
 11
59.48001899999999
 21
331.886993
 31
0.0
  0
LINE
  5
1A82
330
A
100
AcDbEntity
  8
0
 62
     7
 48
0.004996
100
AcDbLine
 10
203.179581
 20
332.387238
 30
0.0
 11
203.379425
 21
332.387238
 31
0.0
  0
LINE
  5
1A83
330
A
100
AcDbEntity
  8
0
 62
     7
 48
0.025539
100
AcDbLine
 10
201.857635
 20
331.886993
 30
0.0
 11
202.879181
 21
331.886993
 31
0.0
  0
LINE
  5
1A84
330
A
100
AcDbEntity
  8
0
 62
     7
 48
0.017686
100
AcDbLine
 10
202.879181
 20
331.886993
 30
0.0
 11
203.379425
 21
332.387238
 31
0.0
  0
LINE
  5
1A85
330
A
100
AcDbEntity
  8
0
 62
     7
 48
0.006558
100
AcDbLine
 10
201.595306
 20
331.786987
 30
0.0
 11
201.857635
 21
331.786987
 31
0.0
  0
LINE
  5
1A86
330
A
100
AcDbEntity
  8
0
 62
     7
 48
0.0025
100
AcDbLine
 10
201.857635
 20
331.786987
 30
0.0
 11
201.857635
 21
331.886993
 31
0.0
  0
LINE
  5
1A87
330
A
100
AcDbEntity
  8
0
 62
     7
 48
0.005107
100
AcDbLine
 10
201.653366
 20
331.886993
 30
0.0
 11
201.857635
 21
331.886993
 31
0.0
  0
LINE
  5
1A88
330
A
100
AcDbEntity
  8
0
 62
     7
 48
0.032119
100
AcDbLine
 10
59.48001899999999
 20
331.786987
 30
0.0
 11
60.764793
 21
331.786987
 31
0.0
  0
LINE
  5
1A89
330
A
100
AcDbEntity
  8
0
 62
     7
 48
0.030662
100
AcDbLine
 10
59.48001899999999
 20
331.886993
 30
0.0
 11
60.706512
 21
331.886993
 31
0.0
  0
LINE
  5
1A8A
330
A
100
AcDbEntity
  8
0
 62
     7
 48
0.0025
100
AcDbLine
 10
59.48001899999999
 20
331.786987
 30
0.0
 11
59.48001899999999
 21
331.886993
 31
0.0
  0
LINE
  5
1A8B
330
A
100
AcDbEntity
  8
0
 62
     7
 48
0.025539
100
AcDbLine
 10
201.857635
 20
331.886993
 30
0.0
 11
202.879181
 21
331.886993
 31
0.0
  0
LINE
  5
1A8C
330
A
100
AcDbEntity
  8
0
 62
     7
 48
0.0025
100
AcDbLine
 10
201.857635
 20
331.786987
 30
0.0
 11
201.857635
 21
331.886993
 31
0.0
  0
LINE
  5
1A8D
330
A
100
AcDbEntity
  8
0
 62
     7
 48
0.025539
100
AcDbLine
 10
201.857635
 20
331.786987
 30
0.0
 11
202.879181
 21
331.786987
 31
0.0
  0
LINE
  5
1A8E
330
A
100
AcDbEntity
  8
0
 62
     7
 48
0.0025
100
AcDbLine
 10
202.879181
 20
331.786987
 30
0.0
 11
202.879181
 21
331.886993
 31
0.0
  0
LINE
  5
1A8F
330
A
100
AcDbEntity
  8
0
 62
     7
 48
0.048703
100
AcDbLine
 10
58.88002
 20
331.187012
 30
0.0
 11
60.828156
 21
331.187012
 31
0.0
  0
LINE
  5
1A90
330
A
100
AcDbEntity
  8
0
 62
     7
 48
0.032119
100
AcDbLine
 10
59.48001899999999
 20
331.786987
 30
0.0
 11
60.764778
 21
331.786987
 31
0.0
  0
ARC
  5
1A91
330
A
100
AcDbEntity
  8
0
 62
     7
100
AcDbCircle
 10
58.880203
 20
331.786804
 30
0.0
 40
0.599757
100
AcDbArc
 50
269.982662
 51
360.017392
  0
LINE
  5
1A92
330
A
100
AcDbEntity
  8
0
 62
     7
 48
0.022952
100
AcDbLine
 10
201.531006
 20
331.187012
 30
0.0
 11
202.449081
 21
331.187012
 31
0.0
  0
ARC
  5
1A93
330
A
100
AcDbEntity
  8
0
 62
     7
100
AcDbCircle
 10
202.453827
 20
331.781921
 30
0.0
 40
0.595525
100
AcDbArc
 50
179.513532
 51
269.54287
  0
LINE
  5
1A94
330
A
100
AcDbEntity
  8
0
 62
     7
 48
0.006581
100
AcDbLine
 10
201.594391
 20
331.786987
 30
0.0
 11
201.857635
 21
331.786987
 31
0.0
  0
LINE
  5
1A95
330
A
100
AcDbEntity
  8
0
 62
     7
 48
0.025539
100
AcDbLine
 10
201.857635
 20
331.786987
 30
0.0
 11
202.879181
 21
331.786987
 31
0.0
  0
ARC
  5
1A96
330
A
100
AcDbEntity
  8
0
 62
     7
100
AcDbCircle
 10
202.453827
 20
331.781921
 30
0.0
 40
0.595525
100
AcDbArc
 50
179.513532
 51
269.54287
  0
LINE
  5
1A97
330
A
100
AcDbEntity
  8
0
 62
     7
 48
0.02567
100
AcDbLine
 10
202.449081
 20
331.187012
 30
0.0
 11
203.475876
 21
331.187042
 31
0.0
  0
ARC
  5
1A98
330
A
100
AcDbEntity
  8
0
 62
     7
100
AcDbCircle
 10
203.478973
 20
331.786804
 30
0.0
 40
0.599745
100
AcDbArc
 50
179.981932
 51
269.704062
  0
LINE
  5
1A99
330
A
100
AcDbEntity
  8
0
 62
     7
 48
0.017505
100
AcDbLine
 10
204.179352
 20
331.187012
 30
0.0
 11
203.479141
 21
331.187012
 31
0.0
  0
LINE
  5
1A9A
330
A
100
AcDbEntity
  8
0
 62
     7
 48
0.015353
100
AcDbLine
 10
202.865021
 20
331.187012
 30
0.0
 11
203.479141
 21
331.187012
 31
0.0
  0
LINE
  5
1A9B
330
A
100
AcDbEntity
  8
0
 62
     7
 48
0.03335
100
AcDbLine
 10
201.531006
 20
331.187012
 30
0.0
 11
202.865021
 21
331.187012
 31
0.0
  0
LINE
  5
1A9C
330
A
100
AcDbEntity
  8
0
 62
     7
 48
0.033129
100
AcDbLine
 10
59.50300600000001
 20
331.187012
 30
0.0
 11
60.828148
 21
331.187012
 31
0.0
  0
LINE
  5
1A9D
330
A
100
AcDbEntity
  8
0
 62
     7
 48
0.015574
100
AcDbLine
 10
58.880058
 20
331.187012
 30
0.0
 11
59.50300600000001
 21
331.187012
 31
0.0
  0
LINE
  5
1A9E
330
A
100
AcDbEntity
  8
0
 62
     7
 48
0.017505
100
AcDbLine
 10
58.880051
 20
331.187012
 30
0.0
 11
58.179832
 21
331.187012
 31
0.0
  0
LINE
  5
1A9F
330
A
100
AcDbEntity
  8
0
 62
     7
 48
0.049112
100
AcDbLine
 10
57.180397
 20
332.221283
 30
0.0
 11
59.14486700000001
 21
332.221405
 31
0.0
  0
LINE
  5
1AA0
330
A
100
AcDbEntity
  8
0
 62
     7
 48
0.049997
100
AcDbLine
 10
57.179802
 20
332.187012
 30
0.0
 11
59.17969499999999
 21
332.187012
 31
0.0
  0
LINE
  5
1AA1
330
A
100
AcDbEntity
  8
0
 62
     7
 48
0.00087
100
AcDbLine
 10
57.179802
 20
332.187012
 30
0.0
 11
57.180405
 21
332.221802
 31
0.0
  0
LINE
  5
1AA2
330
A
100
AcDbEntity
  8
0
 62
     7
 48
0.022746
100
AcDbLine
 10
203.21463
 20
332.221497
 30
0.0
 11
204.124481
 21
332.221466
 31
0.0
  0
LINE
  5
1AA3
330
A
100
AcDbEntity
  8
0
 62
     7
 48
0.000861
100
AcDbLine
 10
204.125076
 20
332.187012
 30
0.0
 11
204.124481
 21
332.221466
 31
0.0
  0
LINE
  5
1AA4
330
A
100
AcDbEntity
  8
0
 62
     7
 48
0.023655
100
AcDbLine
 10
203.178894
 20
332.187012
 30
0.0
 11
204.125076
 21
332.187012
 31
0.0
  0
LINE
  5
1AA5
330
A
100
AcDbEntity
  8
0
 62
     7
 48
0.026358
100
AcDbLine
 10
204.125076
 20
332.187012
 30
0.0
 11
205.179382
 21
332.187012
 31
0.0
  0
LINE
  5
1AA6
330
A
100
AcDbEntity
  8
0
 62
     7
 48
0.000861
100
AcDbLine
 10
204.125076
 20
332.187012
 30
0.0
 11
204.124481
 21
332.221466
 31
0.0
  0
LINE
  5
1AA7
330
A
100
AcDbEntity
  8
0
 62
     7
 48
0.026358
100
AcDbLine
 10
204.124481
 20
332.221466
 30
0.0
 11
205.178787
 21
332.221588
 31
0.0
  0
LINE
  5
1AA8
330
A
100
AcDbEntity
  8
0
 62
     7
 48
0.000868
100
AcDbLine
 10
205.178787
 20
332.221741
 30
0.0
 11
205.179382
 21
332.187012
 31
0.0
  0
LINE
  5
1AA9
330
A
100
AcDbEntity
  8
0
 62
     7
 48
0.106429
100
AcDbLine
 10
187.919952
 20
341.327667
 30
0.0
 11
192.177094
 21
341.327667
 31
0.0
  0
LINE
  5
1AAA
330
A
100
AcDbEntity
  8
0
 62
     7
 48
0.012048
100
AcDbLine
 10
186.339661
 20
341.346649
 30
0.0
 11
186.821594
 21
341.346649
 31
0.0
  0
LINE
  5
1AAB
330
A
100
AcDbEntity
  8
0
 62
     7
 48
0.176108
100
AcDbLine
 10
144.65036
 20
341.416321
 30
0.0
 11
151.694687
 21
341.416321
 31
0.0
  0
LINE
  5
1AAC
330
A
100
AcDbEntity
  8
0
 62
     7
100
AcDbLine
 10
151.694687
 20
341.416321
 30
0.0
 11
186.846954
 21
341.416321
 31
0.0
  0
LINE
  5
1AAD
330
A
100
AcDbEntity
  8
0
 62
     7
 48
0.001854
100
AcDbLine
 10
186.846954
 20
341.416321
 30
0.0
 11
186.821594
 21
341.346649
 31
0.0
  0
LINE
  5
1AAE
330
A
100
AcDbEntity
  8
0
 62
     7
 48
0.013585
100
AcDbLine
 10
75.537598
 20
341.346649
 30
0.0
 11
76.081009
 21
341.346649
 31
0.0
  0
LINE
  5
1AAF
330
A
100
AcDbEntity
  8
0
 62
     7
 48
0.001854
100
AcDbLine
 10
75.537598
 20
341.346649
 30
0.0
 11
75.512245
 21
341.416321
 31
0.0
  0
LINE
  5
1AB0
330
A
100
AcDbEntity
  8
0
 62
     7
 48
0.408076
100
AcDbLine
 10
75.512245
 20
341.416321
 30
0.0
 11
91.835266
 21
341.416321
 31
0.0
  0
LINE
  5
1AB1
330
A
100
AcDbEntity
  8
0
 62
     7
 48
0.464992
100
AcDbLine
 10
91.835266
 20
341.416321
 30
0.0
 11
110.434944
 21
341.416321
 31
0.0
  0
LINE
  5
1AB2
330
A
100
AcDbEntity
  8
0
 62
     7
 48
0.122391
100
AcDbLine
 10
121.157753
 20
341.416321
 30
0.0
 11
126.053391
 21
341.416321
 31
0.0
  0
LINE
  5
1AB3
330
A
100
AcDbEntity
  8
0
 62
     7
 48
0.023637
100
AcDbLine
 10
203.179581
 20
332.187012
 30
0.0
 11
204.125076
 21
332.187012
 31
0.0
  0
LINE
  5
1AB4
330
A
100
AcDbEntity
  8
0
 62
     7
 48
0.040204
100
AcDbLine
 10
201.531158
 20
331.187012
 30
0.0
 11
203.139328
 21
331.187012
 31
0.0
  0
LINE
  5
1AB5
330
A
100
AcDbEntity
  8
0
 62
     7
 48
0.049996
100
AcDbLine
 10
57.179802
 20
332.187012
 30
0.0
 11
59.17965699999999
 21
332.187012
 31
0.0
  0
LINE
  5
1AB6
330
A
100
AcDbEntity
  8
0
 62
     7
 48
0.004427
100
AcDbLine
 10
60.651093
 20
331.187012
 30
0.0
 11
60.828178
 21
331.187012
 31
0.0
  0
LINE
  5
1AB7
330
A
100
AcDbEntity
  8
0
 62
     7
 48
0.002172
100
AcDbLine
 10
60.56422399999999
 20
331.187012
 30
0.0
 11
60.651093
 21
331.187012
 31
0.0
  0
LINE
  5
1AB8
330
A
100
AcDbEntity
  8
0
 62
     7
 48
0.017646
100
AcDbLine
 10
58.17488100000001
 20
331.187042
 30
0.0
 11
58.88073000000001
 21
331.187042
 31
0.0
  0
ARC
  5
1AB9
330
A
100
AcDbEntity
  8
0
 62
     7
100
AcDbCircle
 10
58.179482
 20
332.186676
 30
0.0
 40
0.9995779999999999
100
AcDbArc
 50
179.982028
 51
269.736082
  0
LINE
  5
1ABA
330
A
100
AcDbEntity
  8
0
 62
     7
 48
0.026037
100
AcDbLine
 10
203.139328
 20
331.187012
 30
0.0
 11
204.180817
 21
331.187012
 31
0.0
  0
LINE
  5
1ABB
330
A
100
AcDbEntity
  8
0
 62
     7
 48
0.026358
100
AcDbLine
 10
204.125076
 20
332.187012
 30
0.0
 11
205.179382
 21
332.187012
 31
0.0
  0
ARC
  5
1ABC
330
A
100
AcDbEntity
  8
0
 62
     7
100
AcDbCircle
 10
204.179688
 20
332.186707
 30
0.0
 40
0.999595
100
AcDbArc
 50
270.063846
 51
360.017346
  0
LINE
  5
1ABD
330
A
100
AcDbEntity
  8
0
 62
     7
 48
0.033215
100
AcDbLine
 10
193.928986
 20
356.69223
 30
0.0
 11
195.257568
 21
356.69223
 31
0.0
  0
LINE
  5
1ABE
330
A
100
AcDbEntity
  8
0
 62
     7
 48
0.032917
100
AcDbLine
 10
194.057114
 20
343.179138
 30
0.0
 11
195.37381
 21
343.179138
 31
0.0
  0
LINE
  5
1ABF
330
A
100
AcDbEntity
  8
0
 62
     7
 48
0.056368
100
AcDbLine
 10
66.175484
 20
356.69223
 30
0.0
 11
68.430222
 21
356.69223
 31
0.0
  0
LINE
  5
1AC0
330
A
100
AcDbEntity
  8
0
 62
     7
 48
0.05612
100
AcDbLine
 10
66.05755600000001
 20
343.179138
 30
0.0
 11
68.30233800000001
 21
343.179138
 31
0.0
  0
LINE
  5
1AC1
330
A
100
AcDbEntity
  8
0
 62
     7
 48
0.33784
100
AcDbLine
 10
66.05755600000001
 20
343.179138
 30
0.0
 11
66.175484
 21
356.69223
 31
0.0
  0
LINE
  5
1AC2
330
A
100
AcDbEntity
  8
0
 62
     7
 48
0.023196
100
AcDbLine
 10
195.37381
 20
343.179138
 30
0.0
 11
196.301636
 21
343.179138
 31
0.0
  0
LINE
  5
1AC3
330
A
100
AcDbEntity
  8
0
 62
     7
 48
0.023154
100
AcDbLine
 10
195.257568
 20
356.69223
 30
0.0
 11
196.183716
 21
356.69223
 31
0.0
  0
LINE
  5
1AC4
330
A
100
AcDbEntity
  8
0
 62
     7
 48
0.33784
100
AcDbLine
 10
196.301636
 20
343.179138
 30
0.0
 11
196.183716
 21
356.69223
 31
0.0
  0
LINE
  5
1AC5
330
A
100
AcDbEntity
  8
0
 62
     7
 48
0.07627
100
AcDbLine
 10
193.308716
 20
342.187897
 30
0.0
 11
196.359528
 21
342.187866
 31
0.0
  0
LINE
  5
1AC6
330
A
100
AcDbEntity
  8
0
 62
     7
 48
0.028971
100
AcDbLine
 10
66.671127
 20
357.187805
 30
0.0
 11
67.829948
 21
357.187836
 31
0.0
  0
ARC
  5
1AC7
330
A
100
AcDbEntity
  8
0
 62
     7
100
AcDbCircle
 10
66.675301
 20
356.688019
 30
0.0
 40
0.499784
100
AcDbArc
 50
90.478689
 51
179.518176
  0
LINE
  5
1AC8
330
A
100
AcDbEntity
  8
0
 62
     7
 48
0.043293
100
AcDbLine
 10
67.31875600000001
 20
342.187866
 30
0.0
 11
69.050484
 21
342.187927
 31
0.0
  0
LINE
  5
1AC9
330
A
100
AcDbEntity
  8
0
 62
     7
 48
0.000566
100
AcDbLine
 10
67.296051
 20
342.187866
 30
0.0
 11
67.31869499999999
 21
342.187866
 31
0.0
  0
LINE
  5
1ACA
330
A
100
AcDbEntity
  8
0
 62
     7
 48
0.041718
100
AcDbLine
 10
65.627335
 20
342.187866
 30
0.0
 11
67.296051
 21
342.187866
 31
0.0
  0
LINE
  5
1ACB
330
A
100
AcDbEntity
  8
0
 62
     7
 48
0.014243
100
AcDbLine
 10
65.057602
 20
342.187866
 30
0.0
 11
65.627335
 21
342.187866
 31
0.0
  0
ARC
  5
1ACC
330
A
100
AcDbEntity
  8
0
 62
     7
100
AcDbCircle
 10
65.05789200000001
 20
343.187561
 30
0.0
 40
0.9996030000000001
100
AcDbArc
 50
269.983045
 51
359.517007
  0
LINE
  5
1ACD
330
A
100
AcDbEntity
  8
0
 62
     7
 48
0.028854
100
AcDbLine
 10
66.67549100000001
 20
357.187866
 30
0.0
 11
67.829643
 21
357.187866
 31
0.0
  0
LINE
  5
1ACE
330
A
100
AcDbEntity
  8
0
 62
     7
 48
0.013646
100
AcDbLine
 10
67.82961999999999
 20
357.187866
 30
0.0
 11
68.375473
 21
357.187866
 31
0.0
  0
LINE
  5
1ACF
330
A
100
AcDbEntity
  8
0
 62
     7
 48
0.013605
100
AcDbLine
 10
68.375473
 20
357.187866
 30
0.0
 11
68.91967
 21
357.187866
 31
0.0
  0
LINE
  5
1AD0
330
A
100
AcDbEntity
  8
0
 62
     7
 48
0.004694
100
AcDbLine
 10
193.439331
 20
357.187866
 30
0.0
 11
193.62709
 21
357.187866
 31
0.0
  0
LINE
  5
1AD1
330
A
100
AcDbEntity
  8
0
 62
     7
 48
0.009109
100
AcDbLine
 10
193.62709
 20
357.187866
 30
0.0
 11
193.99144
 21
357.187866
 31
0.0
  0
LINE
  5
1AD2
330
A
100
AcDbEntity
  8
0
 62
     7
 48
0.013453
100
AcDbLine
 10
193.991455
 20
357.187866
 30
0.0
 11
194.529572
 21
357.187866
 31
0.0
  0
LINE
  5
1AD3
330
A
100
AcDbEntity
  8
0
 62
     7
 48
0.028854
100
AcDbLine
 10
194.529541
 20
357.187866
 30
0.0
 11
195.683701
 21
357.187866
 31
0.0
  0
ARC
  5
1AD4
330
A
100
AcDbEntity
  8
0
 62
     7
100
AcDbCircle
 10
195.683868
 20
356.688019
 30
0.0
 40
0.499801
100
AcDbArc
 50
0.4829760000000001
 51
90.01696899999998
  0
LINE
  5
1AD5
330
A
100
AcDbEntity
  8
0
 62
     7
 48
0.014042
100
AcDbLine
 10
196.739929
 20
342.187866
 30
0.0
 11
197.301605
 21
342.187866
 31
0.0
  0
LINE
  5
1AD6
330
A
100
AcDbEntity
  8
0
 62
     7
 48
0.009508
100
AcDbLine
 10
196.359619
 20
342.187866
 30
0.0
 11
196.739929
 21
342.187866
 31
0.0
  0
ARC
  5
1AD7
330
A
100
AcDbEntity
  8
0
 62
     7
100
AcDbCircle
 10
197.3013
 20
343.187561
 30
0.0
 40
0.9996030000000001
100
AcDbArc
 50
180.482999
 51
270.016957
  0
LINE
  5
1AD8
330
A
100
AcDbEntity
  8
0
 62
     7
 48
0.035648
100
AcDbLine
 10
63.63170600000001
 20
342.187866
 30
0.0
 11
65.057617
 21
342.187866
 31
0.0
  0
LINE
  5
1AD9
330
A
100
AcDbEntity
  8
0
 62
     7
 48
0.043296
100
AcDbLine
 10
67.31869499999999
 20
342.187866
 30
0.0
 11
69.050529
 21
342.187866
 31
0.0
  0
LINE
  5
1ADA
330
A
100
AcDbEntity
  8
0
 62
     7
 48
0.043697
100
AcDbLine
 10
193.308655
 20
342.187866
 30
0.0
 11
195.056519
 21
342.187866
 31
0.0
  0
LINE
  5
1ADB
330
A
100
AcDbEntity
  8
0
 62
     7
 48
0.032578
100
AcDbLine
 10
195.056519
 20
342.187866
 30
0.0
 11
196.359619
 21
342.187866
 31
0.0
  0
LINE
  5
1ADC
330
A
100
AcDbEntity
  8
0
 62
     7
 48
0.035648
100
AcDbLine
 10
197.301575
 20
342.187866
 30
0.0
 11
198.727478
 21
342.187866
 31
0.0
  0
LINE
  5
1ADD
330
A
100
AcDbEntity
  8
0
 62
     7
 48
0.016949
100
AcDbLine
 10
68.243843
 20
356.967896
 30
0.0
 11
68.92182199999999
 21
356.967896
 31
0.0
  0
ARC
  5
1ADE
330
A
100
AcDbEntity
  8
0
 62
     7
100
AcDbCircle
 10
67.82952900000001
 20
356.687683
 30
0.0
 40
0.500188
100
AcDbArc
 50
34.07077000000001
 51
89.98963399999999
  0
LINE
  5
1ADF
330
A
100
AcDbEntity
  8
0
 62
     7
 48
0.004688
100
AcDbLine
 10
193.439484
 20
357.187866
 30
0.0
 11
193.626984
 21
357.187866
 31
0.0
  0
LINE
  5
1AE0
330
A
100
AcDbEntity
  8
0
 62
     7
 48
0.01696
100
AcDbLine
 10
193.436951
 20
356.967896
 30
0.0
 11
194.115356
 21
356.967896
 31
0.0
  0
ARC
  5
1AE1
330
A
100
AcDbEntity
  8
0
 62
     7
100
AcDbCircle
 10
194.529663
 20
356.687683
 30
0.0
 40
0.500188
100
AcDbArc
 50
90.010364
 51
145.929232
  0
LINE
  5
1AE2
330
A
100
AcDbEntity
  8
0
 62
     7
 48
0.02411
100
AcDbLine
 10
197.9042659999999
 20
342.177856
 30
0.0
 11
198.868652
 21
342.177856
 31
0.0
  0
ARC
  5
1AE3
330
A
100
AcDbEntity
  8
0
 62
     7
100
AcDbCircle
 10
198.727966
 20
341.193604
 30
0.0
 40
0.994269
100
AcDbArc
 50
81.865541
 51
90.02667399999999
  0
LINE
  5
1AE4
330
A
100
AcDbEntity
  8
0
 62
     7
 48
0.114898
100
AcDbLine
 10
193.30835
 20
342.177856
 30
0.0
 11
197.9042659999999
 21
342.177856
 31
0.0
  0
LINE
  5
1AE5
330
A
100
AcDbEntity
  8
0
 62
     7
 48
0.007051
100
AcDbLine
 10
68.64559200000001
 20
356.373627
 30
0.0
 11
68.927643
 21
356.373627
 31
0.0
  0
LINE
  5
1AE6
330
A
100
AcDbEntity
  8
0
 62
     7
 48
0.017933
100
AcDbLine
 10
68.64559200000001
 20
356.373627
 30
0.0
 11
68.243843
 21
356.967896
 31
0.0
  0
LINE
  5
1AE7
330
A
100
AcDbEntity
  8
0
 62
     7
 48
0.007032
100
AcDbLine
 10
193.432312
 20
356.373627
 30
0.0
 11
193.713593
 21
356.373627
 31
0.0
  0
LINE
  5
1AE8
330
A
100
AcDbEntity
  8
0
 62
     7
 48
0.017933
100
AcDbLine
 10
193.713593
 20
356.373627
 30
0.0
 11
194.115356
 21
356.967896
 31
0.0
  0
LINE
  5
1AE9
330
A
100
AcDbEntity
  8
0
 62
     7
 48
0.035857
100
AcDbLine
 10
62.05624399999999
 20
342.177856
 30
0.0
 11
63.490532
 21
342.177856
 31
0.0
  0
LINE
  5
1AEA
330
A
100
AcDbEntity
  8
0
 62
     7
 48
0.139005
100
AcDbLine
 10
63.490532
 20
342.177856
 30
0.0
 11
69.05072
 21
342.177856
 31
0.0
  0
LINE
  5
1AEB
330
A
100
AcDbEntity
  8
0
 62
     7
 48
0.035857
100
AcDbLine
 10
198.868652
 20
342.177856
 30
0.0
 11
200.302948
 21
342.177856
 31
0.0
  0
LINE
  5
1AEC
330
A
100
AcDbEntity
  8
0
 62
     7
 48
0.057282
100
AcDbLine
 10
63.62712099999999
 20
342.187866
 30
0.0
 11
65.91840400000001
 21
342.187866
 31
0.0
  0
LINE
  5
1AED
330
A
100
AcDbEntity
  8
0
 62
     7
 48
0.078302
100
AcDbLine
 10
65.91840400000001
 20
342.187866
 30
0.0
 11
69.05049100000001
 21
342.187866
 31
0.0
  0
ARC
  5
1AEE
330
A
100
AcDbEntity
  8
0
 62
     7
100
AcDbCircle
 10
63.631241
 20
341.193298
 30
0.0
 40
0.9945799999999998
100
AcDbArc
 50
90.23716
 51
98.13340500000002
  0
LINE
  5
1AEF
330
A
100
AcDbEntity
  8
0
 62
     7
 48
0.200031
100
AcDbLine
 10
201.301575
 20
341.230194
 30
0.0
 11
193.300323
 21
341.230194
 31
0.0
  0
ARC
  5
1AF0
330
A
100
AcDbEntity
  8
0
 62
     7
100
AcDbCircle
 10
200.302948
 20
341.177856
 30
0.0
 40
1.0
100
AcDbArc
 50
2.999991999999999
 51
90.00000300000001
  0
LINE
  5
1AF1
330
A
100
AcDbEntity
  8
0
 62
     7
 48
0.200031
100
AcDbLine
 10
69.058853
 20
341.230194
 30
0.0
 11
61.05761700000001
 21
341.230194
 31
0.0
  0
ARC
  5
1AF2
330
A
100
AcDbEntity
  8
0
 62
     7
100
AcDbCircle
 10
62.056252
 20
341.177856
 30
0.0
 40
1.0
100
AcDbArc
 50
90.00000300000001
 51
177.000008
  0
LINE
  5
1AF3
330
A
100
AcDbEntity
  8
0
 62
     7
 48
0.024996
100
AcDbLine
 10
200.359161
 20
340.134155
 30
0.0
 11
201.359009
 21
340.134216
 31
0.0
  0
LINE
  5
1AF4
330
A
100
AcDbEntity
  8
0
 62
     7
 48
0.070245
100
AcDbLine
 10
197.549362
 20
340.134216
 30
0.0
 11
200.359161
 21
340.134155
 31
0.0
  0
LINE
  5
1AF5
330
A
100
AcDbEntity
  8
0
 62
     7
 48
0.027442
100
AcDbLine
 10
201.301575
 20
341.230194
 30
0.0
 11
201.359009
 21
340.134033
 31
0.0
  0
LINE
  5
1AF6
330
A
100
AcDbEntity
  8
0
 62
     7
 48
0.095218
100
AcDbLine
 10
61.00018299999999
 20
340.134186
 30
0.0
 11
64.808891
 21
340.134125
 31
0.0
  0
LINE
  5
1AF7
330
A
100
AcDbEntity
  8
0
 62
     7
 48
0.027442
100
AcDbLine
 10
61.05761700000001
 20
341.230194
 30
0.0
 11
61.000168
 21
340.134003
 31
0.0
  0
LINE
  5
1AF8
330
A
100
AcDbEntity
  8
0
 62
     7
 48
0.025139
100
AcDbLine
 10
200.752625
 20
339.036316
 30
0.0
 11
201.758179
 21
339.036346
 31
0.0
  0
ARC
  5
1AF9
330
A
100
AcDbEntity
  8
0
 62
     7
100
AcDbCircle
 10
203.356293
 20
340.238892
 30
0.0
 40
2.000024
100
AcDbArc
 50
183.000306
 51
216.960143
  0
LINE
  5
1AFA
330
A
100
AcDbEntity
  8
0
 62
     7
 48
0.076837
100
AcDbLine
 10
197.679153
 20
339.036377
 30
0.0
 11
200.752625
 21
339.036316
 31
0.0
  0
ARC
  5
1AFB
330
A
100
AcDbEntity
  8
0
 62
     7
100
AcDbCircle
 10
59.002899
 20
340.238861
 30
0.0
 40
2.000015
100
AcDbArc
 50
323.040043
 51
356.999951
  0
LINE
  5
1AFC
330
A
100
AcDbEntity
  8
0
 62
     7
 48
0.101971
100
AcDbLine
 10
60.601013
 20
339.036346
 30
0.0
 11
64.67985500000001
 21
339.036255
 31
0.0
  0
LINE
  5
1AFD
330
A
100
AcDbEntity
  8
0
 62
     7
 48
0.025539
100
AcDbLine
 10
201.858124
 20
337.4849549999999
 30
0.0
 11
202.879669
 21
337.4849549999999
 31
0.0
  0
ARC
  5
1AFE
330
A
100
AcDbEntity
  8
0
 62
     7
100
AcDbCircle
 10
161.833771
 20
308.993774
 30
0.0
 40
49.965118
100
AcDbArc
 50
34.765656
 51
36.961138
  0
LINE
  5
1AFF
330
A
100
AcDbEntity
  8
0
 62
     7
 48
0.032928
100
AcDbLine
 10
200.541016
 20
337.4849549999999
 30
0.0
 11
201.858124
 21
337.4849549999999
 31
0.0
  0
LINE
  5
1B00
330
A
100
AcDbEntity
  8
0
 62
     7
 48
0.058447
100
AcDbLine
 10
59.479515
 20
337.4849549999999
 30
0.0
 11
61.817375
 21
337.4849549999999
 31
0.0
  0
ARC
  5
1B01
330
A
100
AcDbEntity
  8
0
 62
     7
100
AcDbCircle
 10
100.525414
 20
308.993774
 30
0.0
 40
49.965111
100
AcDbArc
 50
143.03901
 51
145.234342
  0
LINE
  5
1B02
330
A
100
AcDbEntity
  8
0
 62
     7
 48
0.026166
100
AcDbLine
 10
203.518433
 20
335.962524
 30
0.0
 11
204.565063
 21
335.961914
 31
0.0
  0
ARC
  5
1B03
330
A
100
AcDbEntity
  8
0
 62
     7
100
AcDbCircle
 10
206.9935
 20
340.343292
 30
0.0
 40
5.00957
100
AcDbArc
 50
214.79205
 51
241.004253
  0
LINE
  5
1B04
330
A
100
AcDbEntity
  8
0
 62
     7
 48
0.04752
100
AcDbLine
 10
201.617615
 20
335.963257
 30
0.0
 11
203.518433
 21
335.962524
 31
0.0
  0
LINE
  5
1B05
330
A
100
AcDbEntity
  8
0
 62
     7
 48
0.073709
100
AcDbLine
 10
57.794121
 20
335.961914
 30
0.0
 11
60.742477
 21
335.9646
 31
0.0
  0
ARC
  5
1B06
330
A
100
AcDbEntity
  8
0
 62
     7
100
AcDbCircle
 10
55.365685
 20
340.343292
 30
0.0
 40
5.00957
100
AcDbArc
 50
298.995749
 51
325.207952
  0
LINE
  5
1B07
330
A
100
AcDbEntity
  8
0
 62
     7
 48
0.007043
100
AcDbLine
 10
193.432266
 20
356.373901
 30
0.0
 11
193.713974
 21
356.3742069999999
 31
0.0
  0
LINE
  5
1B08
330
A
100
AcDbEntity
  8
0
 62
     7
 48
0.002565
100
AcDbLine
 10
193.426697
 20
355.771973
 30
0.0
 11
193.529312
 21
355.771973
 31
0.0
  0
ARC
  5
1B09
330
A
100
AcDbEntity
  8
0
 62
     7
100
AcDbCircle
 10
194.605392
 20
355.771393
 30
0.0
 40
1.076161
100
AcDbArc
 50
145.926595
 51
179.96845
  0
LINE
  5
1B0A
330
A
100
AcDbEntity
  8
0
 62
     7
 48
0.002554
100
AcDbLine
 10
68.82988
 20
355.771973
 30
0.0
 11
68.93203699999999
 21
355.771973
 31
0.0
  0
ARC
  5
1B0B
330
A
100
AcDbEntity
  8
0
 62
     7
100
AcDbCircle
 10
67.752785
 20
355.771057
 30
0.0
 40
1.077212
100
AcDbArc
 50
0.048679
 51
34.16866300000001
  0
LINE
  5
1B0C
330
A
100
AcDbEntity
  8
0
 62
     7
 48
0.023637
100
AcDbLine
 10
203.179581
 20
332.187012
 30
0.0
 11
204.125076
 21
332.187012
 31
0.0
  0
LINE
  5
1B0D
330
A
100
AcDbEntity
  8
0
 62
     7
 48
0.040204
100
AcDbLine
 10
201.531158
 20
331.187012
 30
0.0
 11
203.139328
 21
331.187012
 31
0.0
  0
LINE
  5
1B0E
330
A
100
AcDbEntity
  8
0
 62
     7
 48
0.049996
100
AcDbLine
 10
57.179802
 20
332.187012
 30
0.0
 11
59.17965699999999
 21
332.187012
 31
0.0
  0
LINE
  5
1B0F
330
A
100
AcDbEntity
  8
0
 62
     7
 48
0.004427
100
AcDbLine
 10
60.651093
 20
331.187012
 30
0.0
 11
60.828178
 21
331.187012
 31
0.0
  0
LINE
  5
1B10
330
A
100
AcDbEntity
  8
0
 62
     7
 48
0.002172
100
AcDbLine
 10
60.56422399999999
 20
331.187012
 30
0.0
 11
60.651093
 21
331.187012
 31
0.0
  0
LINE
  5
1B11
330
A
100
AcDbEntity
  8
0
 62
     7
 48
0.017646
100
AcDbLine
 10
58.17488100000001
 20
331.187042
 30
0.0
 11
58.88073000000001
 21
331.187042
 31
0.0
  0
ARC
  5
1B12
330
A
100
AcDbEntity
  8
0
 62
     7
100
AcDbCircle
 10
58.179482
 20
332.186676
 30
0.0
 40
0.9995779999999999
100
AcDbArc
 50
179.982028
 51
269.736082
  0
LINE
  5
1B13
330
A
100
AcDbEntity
  8
0
 62
     7
 48
0.026037
100
AcDbLine
 10
203.139328
 20
331.187012
 30
0.0
 11
204.180817
 21
331.187012
 31
0.0
  0
LINE
  5
1B14
330
A
100
AcDbEntity
  8
0
 62
     7
 48
0.026358
100
AcDbLine
 10
204.125076
 20
332.187012
 30
0.0
 11
205.179382
 21
332.187012
 31
0.0
  0
ARC
  5
1B15
330
A
100
AcDbEntity
  8
0
 62
     7
100
AcDbCircle
 10
204.179688
 20
332.186707
 30
0.0
 40
0.999595
100
AcDbArc
 50
270.063846
 51
360.017346
  0
LINE
  5
1B16
330
A
100
AcDbEntity
  8
0
 62
     7
 48
0.047507
100
AcDbLine
 10
201.618134
 20
335.963379
 30
0.0
 11
203.518433
 21
335.962585
 31
0.0
  0
LINE
  5
1B17
330
A
100
AcDbEntity
  8
0
 62
     7
 48
0.046218
100
AcDbLine
 10
202.177155
 20
335.122253
 30
0.0
 11
204.025879
 21
335.122253
 31
0.0
  0
LINE
  5
1B18
330
A
100
AcDbEntity
  8
0
 62
     7
 48
0.07375
100
AcDbLine
 10
57.791451
 20
335.96048
 30
0.0
 11
60.741463
 21
335.963104
 31
0.0
  0
LINE
  5
1B19
330
A
100
AcDbEntity
  8
0
 62
     7
 48
0.07254
100
AcDbLine
 10
57.280426
 20
335.122253
 30
0.0
 11
60.182022
 21
335.122253
 31
0.0
  0
ARC
  5
1B1A
330
A
100
AcDbEntity
  8
0
 62
     7
100
AcDbCircle
 10
58.28038000000001
 20
335.0875240000001
 30
0.0
 40
1.000581999999999
100
AcDbArc
 50
119.253259
 51
178.011778
  0
LINE
  5
1B1B
330
A
100
AcDbEntity
  8
0
 62
     7
 48
0.026322
100
AcDbLine
 10
204.025879
 20
335.122253
 30
0.0
 11
205.078766
 21
335.122253
 31
0.0
  0
LINE
  5
1B1C
330
A
100
AcDbEntity
  8
0
 62
     7
 48
0.026074
100
AcDbLine
 10
203.518433
 20
335.962555
 30
0.0
 11
204.561401
 21
335.963959
 31
0.0
  0
ARC
  5
1B1D
330
A
100
AcDbEntity
  8
0
 62
     7
100
AcDbCircle
 10
204.078888
 20
335.087585
 30
0.0
 40
1.000499
100
AcDbArc
 50
1.986265
 51
61.16407800000001
  0
LINE
  5
1B1E
330
A
100
AcDbEntity
  8
0
 62
     7
 48
0.022772
100
AcDbLine
 10
203.213608
 20
332.221466
 30
0.0
 11
204.124481
 21
332.221466
 31
0.0
  0
LINE
  5
1B1F
330
A
100
AcDbEntity
  8
0
 62
     7
 48
0.049106
100
AcDbLine
 10
57.180397
 20
332.221466
 30
0.0
 11
59.144623
 21
332.221466
 31
0.0
  0
LINE
  5
1B20
330
A
100
AcDbEntity
  8
0
 62
     7
 48
0.072563
100
AcDbLine
 10
57.180397
 20
332.221466
 30
0.0
 11
57.280426
 21
335.122253
 31
0.0
  0
LINE
  5
1B21
330
A
100
AcDbEntity
  8
0
 62
     7
 48
0.026358
100
AcDbLine
 10
204.124481
 20
332.221466
 30
0.0
 11
205.178802
 21
332.221466
 31
0.0
  0
LINE
  5
1B22
330
A
100
AcDbEntity
  8
0
 62
     7
 48
0.072563
100
AcDbLine
 10
205.178802
 20
332.221466
 30
0.0
 11
205.078766
 21
335.122253
 31
0.0
  0
LINE
  5
1B23
330
A
100
AcDbEntity
  8
0
 62
     7
 48
0.00467
100
AcDbLine
 10
193.439468
 20
357.187866
 30
0.0
 11
193.626282
 21
357.187866
 31
0.0
  0
LINE
  5
1B24
330
A
100
AcDbEntity
  8
0
 62
     7
 48
0.111435
100
AcDbLine
 10
193.308441
 20
342.187866
 30
0.0
 11
197.765854
 21
342.187866
 31
0.0
  0
ARC
  5
1B25
330
A
100
AcDbEntity
  8
0
 62
     7
100
AcDbCircle
 10
177.974594
 20
338.6870120000001
 30
0.0
 40
2.000008999999999
100
AcDbArc
 50
270.000189
 51
344.8839560000001
  0
LINE
  5
1B26
330
A
100
AcDbEntity
  8
0
 62
     7
 48
0.113146
100
AcDbLine
 10
175.379578
 20
338.1654660000001
 30
0.0
 11
179.905411
 21
338.1654660000001
 31
0.0
  0
LINE
  5
1B27
330
A
100
AcDbEntity
  8
0
 62
     7
 48
0.2807300000000001
100
AcDbLine
 10
90.123619
 20
336.6870120000001
 30
0.0
 11
101.352814
 21
336.6870120000001
 31
0.0
  0
LINE
  5
1B28
330
A
100
AcDbEntity
  8
0
 62
     7
 48
0.4242060000000001
100
AcDbLine
 10
161.006378
 20
336.6870120000001
 30
0.0
 11
177.974609
 21
336.6870120000001
 31
0.0
  0
ARC
  5
1B29
330
A
100
AcDbEntity
  8
0
 62
     7
100
AcDbCircle
 10
84.384598
 20
338.6870120000001
 30
0.0
 40
2.000008999999999
100
AcDbArc
 50
195.116051
 51
269.9998129999999
  0
LINE
  5
1B2A
330
A
100
AcDbEntity
  8
0
 62
     7
 48
0.143476
100
AcDbLine
 10
84.38458299999998
 20
336.6870120000001
 30
0.0
 11
90.123619
 21
336.6870120000001
 31
0.0
  0
LINE
  5
1B2B
330
A
100
AcDbEntity
  8
0
 62
     7
 48
0.113155
100
AcDbLine
 10
82.45378100000001
 20
338.1654660000001
 30
0.0
 11
86.979965
 21
338.1654660000001
 31
0.0
  0
LINE
  5
1B2C
330
A
100
AcDbEntity
  8
0
 62
     7
 48
0.059072
100
AcDbLine
 10
178.101624
 20
338.81842
 30
0.0
 11
180.464508
 21
338.81842
 31
0.0
  0
ARC
  5
1B2D
330
A
100
AcDbEntity
  8
0
 62
     7
100
AcDbCircle
 10
180.87085
 20
337.904663
 30
0.0
 40
1.000042
100
AcDbArc
 50
113.973468
 51
164.88343
  0
LINE
  5
1B2E
330
A
100
AcDbEntity
  8
0
 62
     7
 48
0.059093
100
AcDbLine
 10
81.894676
 20
338.81842
 30
0.0
 11
84.258377
 21
338.81842
 31
0.0
  0
ARC
  5
1B2F
330
A
100
AcDbEntity
  8
0
 62
     7
100
AcDbCircle
 10
81.48834200000001
 20
337.904663
 30
0.0
 40
1.000042
100
AcDbArc
 50
15.116566
 51
66.02653
  0
LINE
  5
1B30
330
A
100
AcDbEntity
  8
0
 62
     7
 48
0.136145
100
AcDbLine
 10
179.223892
 20
339.987579
 30
0.0
 11
184.669678
 21
339.987579
 31
0.0
  0
LINE
  5
1B31
330
A
100
AcDbEntity
  8
0
 62
     7
 48
0.030873
100
AcDbLine
 10
193.291077
 20
340.221985
 30
0.0
 11
194.526001
 21
340.221985
 31
0.0
  0
LINE
  5
1B32
330
A
100
AcDbEntity
  8
0
 62
     7
 48
0.246478
100
AcDbLine
 10
184.669678
 20
339.987579
 30
0.0
 11
194.526001
 21
340.221985
 31
0.0
  0
ARC
  5
1B33
330
A
100
AcDbEntity
  8
0
 62
     7
100
AcDbCircle
 10
184.76268
 20
336.076538
 30
0.0
 40
3.912166999999999
100
AcDbArc
 50
91.362236
 51
100.378133
  0
LINE
  5
1B34
330
A
100
AcDbEntity
  8
0
 62
     7
 48
0.122342
100
AcDbLine
 10
179.16423
 20
339.924683
 30
0.0
 11
184.057922
 21
339.924683
 31
0.0
  0
LINE
  5
1B35
330
A
100
AcDbEntity
  8
0
 62
     7
 48
0.030862
100
AcDbLine
 10
67.83319099999999
 20
340.221954
 30
0.0
 11
69.06768000000001
 21
340.221954
 31
0.0
  0
LINE
  5
1B36
330
A
100
AcDbEntity
  8
0
 62
     7
 48
0.13612
100
AcDbLine
 10
77.689514
 20
339.987579
 30
0.0
 11
83.134323
 21
339.987579
 31
0.0
  0
LINE
  5
1B37
330
A
100
AcDbEntity
  8
0
 62
     7
 48
0.246478
100
AcDbLine
 10
77.689514
 20
339.987579
 30
0.0
 11
67.83319099999999
 21
340.221954
 31
0.0
  0
ARC
  5
1B38
330
A
100
AcDbEntity
  8
0
 62
     7
100
AcDbCircle
 10
77.596512
 20
336.076538
 30
0.0
 40
3.912166999999999
100
AcDbArc
 50
79.621865
 51
88.63776899999999
  0
LINE
  5
1B39
330
A
100
AcDbEntity
  8
0
 62
     7
 48
0.122343
100
AcDbLine
 10
78.30126199999999
 20
339.924683
 30
0.0
 11
83.19499999999999
 21
339.924683
 31
0.0
  0
ARC
  5
1B3A
330
A
100
AcDbEntity
  8
0
 62
     7
100
AcDbCircle
 10
186.946335
 20
324.153107
 30
0.0
 40
16.033888
100
AcDbArc
 50
100.378147
 51
113.836147
  0
LINE
  5
1B3B
330
A
100
AcDbEntity
  8
0
 62
     7
 48
0.059103
100
AcDbLine
 10
178.102539
 20
338.819397
 30
0.0
 11
180.466675
 21
338.819397
 31
0.0
  0
ARC
  5
1B3C
330
A
100
AcDbEntity
  8
0
 62
     7
100
AcDbCircle
 10
75.41285699999999
 20
324.153107
 30
0.0
 40
16.033888
100
AcDbArc
 50
66.16385099999999
 51
79.62185799999999
  0
LINE
  5
1B3D
330
A
100
AcDbEntity
  8
0
 62
     7
 48
0.059124
100
AcDbLine
 10
81.89250200000001
 20
338.819397
 30
0.0
 11
84.257462
 21
338.819397
 31
0.0
  0
LINE
  5
1B3E
330
A
100
AcDbEntity
  8
0
 62
     7
 48
0.064871
100
AcDbLine
 10
64.67984
 20
338.687012
 30
0.0
 11
80.679695
 21
338.6870120000001
 31
0.0
  0
LINE
  5
1B3F
330
A
100
AcDbEntity
  8
0
 62
     7
 48
0.035769
100
AcDbLine
 10
80.679695
 20
338.6870120000001
 30
0.0
 11
82.11044300000001
 21
338.6870120000001
 31
0.0
  0
LINE
  5
1B40
330
A
100
AcDbEntity
  8
0
 62
     7
 48
0.035765
100
AcDbLine
 10
180.248901
 20
338.6870120000001
 30
0.0
 11
181.679489
 21
338.6870120000001
 31
0.0
  0
LINE
  5
1B41
330
A
100
AcDbEntity
  8
0
 62
     7
 48
0.064871
100
AcDbLine
 10
181.679489
 20
338.6870120000001
 30
0.0
 11
196.731903
 21
338.687012
 31
0.0
  0
LINE
  5
1B42
330
A
100
AcDbEntity
  8
0
 62
     7
 48
0.064871
100
AcDbLine
 10
175.379745
 20
338.6870120000001
 30
0.0
 11
177.974594
 21
338.6870120000001
 31
0.0
  0
LINE
  5
1B43
330
A
100
AcDbEntity
  8
0
 62
     7
 48
0.073807
100
AcDbLine
 10
92.40035999999999
 20
338.6870120000001
 30
0.0
 11
95.35263099999999
 21
338.6870120000001
 31
0.0
  0
LINE
  5
1B44
330
A
100
AcDbEntity
  8
0
 62
     7
 48
0.209326
100
AcDbLine
 10
167.006561
 20
338.6870120000001
 30
0.0
 11
175.379608
 21
338.6870120000001
 31
0.0
  0
LINE
  5
1B45
330
A
100
AcDbEntity
  8
0
 62
     7
 48
0.13552
100
AcDbLine
 10
86.979576
 20
338.6870120000001
 30
0.0
 11
92.40035999999999
 21
338.6870120000001
 31
0.0
  0
LINE
  5
1B46
330
A
100
AcDbEntity
  8
0
 62
     7
 48
0.064871
100
AcDbLine
 10
84.384598
 20
338.6870120000001
 30
0.0
 11
86.97944599999999
 21
338.6870120000001
 31
0.0
  0
LINE
  5
1B47
330
A
100
AcDbEntity
  8
0
 62
     7
 48
0.059252
100
AcDbLine
 10
83.05922700000001
 20
340.066772
 30
0.0
 11
85.42932099999999
 21
340.066772
 31
0.0
  0
LINE
  5
1B48
330
A
100
AcDbEntity
  8
0
 62
     7
 48
0.04783
100
AcDbLine
 10
84.38460500000001
 20
338.6870120000001
 30
0.0
 11
83.05922700000001
 21
340.066772
 31
0.0
  0
LINE
  5
1B49
330
A
100
AcDbEntity
  8
0
 62
     7
 48
0.059251
100
AcDbLine
 10
176.929916
 20
340.066772
 30
0.0
 11
179.299957
 21
340.066772
 31
0.0
  0
LINE
  5
1B4A
330
A
100
AcDbEntity
  8
0
 62
     7
 48
0.04783
100
AcDbLine
 10
177.974579
 20
338.6870120000001
 30
0.0
 11
179.299957
 21
340.066772
 31
0.0
  0
LINE
  5
1B4B
330
A
100
AcDbEntity
  8
0
 62
     7
 48
0.205512
100
AcDbLine
 10
92.40037499999999
 20
337.187012
 30
0.0
 11
100.620865
 21
337.187012
 31
0.0
  0
LINE
  5
1B4C
330
A
100
AcDbEntity
  8
0
 62
     7
 48
0.341007
100
AcDbLine
 10
161.739319
 20
337.187012
 30
0.0
 11
175.379593
 21
337.187012
 31
0.0
  0
LINE
  5
1B4D
330
A
100
AcDbEntity
  8
0
 62
     7
 48
0.0375
100
AcDbLine
 10
175.379608
 20
338.6870120000001
 30
0.0
 11
175.379608
 21
337.187012
 31
0.0
  0
LINE
  5
1B4E
330
A
100
AcDbEntity
  8
0
 62
     7
 48
0.135519
100
AcDbLine
 10
86.97959899999998
 20
337.187012
 30
0.0
 11
92.40037499999999
 21
337.187012
 31
0.0
  0
LINE
  5
1B4F
330
A
100
AcDbEntity
  8
0
 62
     7
 48
0.0375
100
AcDbLine
 10
86.979576
 20
338.6870120000001
 30
0.0
 11
86.979576
 21
337.187012
 31
0.0
  0
ARC
  5
1B50
330
A
100
AcDbEntity
  8
0
 62
     7
100
AcDbCircle
 10
81.708435
 20
338.769226
 30
0.0
 40
1.873040999999999
100
AcDbArc
 50
43.848196
 51
82.999892
  0
LINE
  5
1B51
330
A
100
AcDbEntity
  8
0
 62
     7
 48
0.086072
100
AcDbLine
 10
81.936707
 20
340.628296
 30
0.0
 11
85.379593
 21
340.628296
 31
0.0
  0
ARC
  5
1B52
330
A
100
AcDbEntity
  8
0
 62
     7
100
AcDbCircle
 10
180.650757
 20
338.769226
 30
0.0
 40
1.873040999999999
100
AcDbArc
 50
97.00011299999999
 51
136.151802
  0
LINE
  5
1B53
330
A
100
AcDbEntity
  8
0
 62
     7
 48
0.086075
100
AcDbLine
 10
176.979492
 20
340.628296
 30
0.0
 11
180.422485
 21
340.628296
 31
0.0
  0
LINE
  5
1B54
330
A
100
AcDbEntity
  8
0
 62
     7
 48
0.061845
100
AcDbLine
 10
84.505806
 20
337.187012
 30
0.0
 11
86.97959899999998
 21
337.187012
 31
0.0
  0
LINE
  5
1B55
330
A
100
AcDbEntity
  8
0
 62
     7
 48
0.061845
100
AcDbLine
 10
175.379593
 20
337.187012
 30
0.0
 11
177.853378
 21
337.187012
 31
0.0
  0
LINE
  5
1B56
330
A
100
AcDbEntity
  8
0
 62
     7
 48
0.321309
100
AcDbLine
 10
81.936707
 20
340.628296
 30
0.0
 11
69.180161
 21
342.194611
 31
0.0
  0
LINE
  5
1B57
330
A
100
AcDbEntity
  8
0
 62
     7
 48
0.321309
100
AcDbLine
 10
180.422485
 20
340.628296
 30
0.0
 11
193.179031
 21
342.194611
 31
0.0
  0
LINE
  5
1B58
330
A
100
AcDbEntity
  8
0
 62
     7
 48
0.143185
100
AcDbLine
 10
84.47955300000002
 20
336.6870120000001
 30
0.0
 11
90.20694
 21
336.6870120000001
 31
0.0
  0
LINE
  5
1B59
330
A
100
AcDbEntity
  8
0
 62
     7
 48
0.012517
100
AcDbLine
 10
84.505753
 20
337.187012
 30
0.0
 11
84.47955300000002
 21
336.6870120000001
 31
0.0
  0
LINE
  5
1B5A
330
A
100
AcDbEntity
  8
0
 62
     7
 48
0.278647
100
AcDbLine
 10
90.20694
 20
336.6870120000001
 30
0.0
 11
101.352814
 21
336.6870120000001
 31
0.0
  0
LINE
  5
1B5B
330
A
100
AcDbEntity
  8
0
 62
     7
 48
0.4218320000000001
100
AcDbLine
 10
161.006378
 20
336.6870120000001
 30
0.0
 11
177.879639
 21
336.6870120000001
 31
0.0
  0
LINE
  5
1B5C
330
A
100
AcDbEntity
  8
0
 62
     7
 48
0.012517
100
AcDbLine
 10
177.853439
 20
337.187012
 30
0.0
 11
177.879639
 21
336.6870120000001
 31
0.0
  0
LINE
  5
1E01
330
A
100
AcDbEntity
  8
0
 62
     7
 48
0.018045
100
AcDbLine
 10
156.110764
 20
294.2753600000001
 30
0.0
 11
156.415802
 21
294.929535
 31
0.0
  0
LINE
  5
1E02
330
A
100
AcDbEntity
  8
0
 62
     7
 48
0.081015
100
AcDbLine
 10
155.13208
 20
296.908997
 30
0.0
 11
156.5016169999999
 21
299.845978
 31
0.0
  0
LINE
  5
1E03
330
A
100
AcDbEntity
  8
0
 62
     7
 48
0.055169
100
AcDbLine
 10
174.613495
 20
338.6870120000001
 30
0.0
 11
175.546112
 21
340.6870120000001
 31
0.0
  0
LINE
  5
1E04
330
A
100
AcDbEntity
  8
0
 62
     7
 48
0.090802
100
AcDbLine
 10
155.05246
 20
301.470642
 30
0.0
 11
156.587433
 21
304.762421
 31
0.0
  0
LINE
  5
1E05
330
A
100
AcDbEntity
  8
0
 62
     7
 48
0.055169
100
AcDbLine
 10
172.406738
 20
338.6870120000001
 30
0.0
 11
173.339355
 21
340.6870120000001
 31
0.0
  0
LINE
  5
1E06
330
A
100
AcDbEntity
  8
0
 62
     7
 48
0.100588
100
AcDbLine
 10
154.972839
 20
306.032288
 30
0.0
 11
156.673248
 21
309.678833
 31
0.0
  0
LINE
  5
1E07
330
A
100
AcDbEntity
  8
0
 62
     7
 48
0.055169
100
AcDbLine
 10
170.199982
 20
338.6870120000001
 30
0.0
 11
171.132599
 21
340.6870120000001
 31
0.0
  0
LINE
  5
1E08
330
A
100
AcDbEntity
  8
0
 62
     7
 48
0.110375
100
AcDbLine
 10
154.893219
 20
310.593933
 30
0.0
 11
156.759079
 21
314.595276
 31
0.0
  0
LINE
  5
1E09
330
A
100
AcDbEntity
  8
0
 62
     7
 48
0.055169
100
AcDbLine
 10
167.993225
 20
338.6870120000001
 30
0.0
 11
168.9258419999999
 21
340.6870120000001
 31
0.0
  0
LINE
  5
1E0A
330
A
100
AcDbEntity
  8
0
 62
     7
 48
0.120162
100
AcDbLine
 10
154.813583
 20
315.155579
 30
0.0
 11
156.844894
 21
319.511719
 31
0.0
  0
LINE
  5
1E0B
330
A
100
AcDbEntity
  8
0
 62
     7
 48
0.057392
100
AcDbLine
 10
165.748901
 20
338.606415
 30
0.0
 11
166.719086
 21
340.6870120000001
 31
0.0
  0
LINE
  5
1E0C
330
A
100
AcDbEntity
  8
0
 62
     7
 48
0.129949
100
AcDbLine
 10
154.733963
 20
319.717224
 30
0.0
 11
156.93071
 21
324.428162
 31
0.0
  0
LINE
  5
1E0D
330
A
100
AcDbEntity
  8
0
 62
     7
 48
0.070193
100
AcDbLine
 10
163.234406
 20
337.946503
 30
0.0
 11
164.421005
 21
340.49115
 31
0.0
  0
LINE
  5
1E0E
330
A
100
AcDbEntity
  8
0
 62
     7
 48
0.140635
100
AcDbLine
 10
154.654343
 20
324.2788700000001
 30
0.0
 11
157.031738
 21
329.377228
 31
0.0
  0
LINE
  5
1E0F
330
A
100
AcDbEntity
  8
0
 62
     7
 48
0.105739
100
AcDbLine
 10
160.065338
 20
335.882782
 30
0.0
 11
161.852814
 21
339.716064
 31
0.0
  0
LINE
  5
1E10
330
A
100
AcDbEntity
  8
0
 62
     7
 48
0.245724
100
AcDbLine
 10
154.583038
 20
328.858398
 30
0.0
 11
158.736938
 21
337.766449
 31
0.0
  0
LINE
  5
1E11
330
A
100
AcDbEntity
  8
0
 62
     7
 48
0.089756
100
AcDbLine
 10
134.622345
 20
328.644165
 30
0.0
 11
136.139648
 21
331.898041
 31
0.0
  0
LINE
  5
1E12
330
A
100
AcDbEntity
  8
0
 62
     7
 48
0.110315
100
AcDbLine
 10
134.360626
 20
332.815308
 30
0.0
 11
136.225479
 21
336.814484
 31
0.0
  0
LINE
  5
1E13
330
A
100
AcDbEntity
  8
0
 62
     7
 48
0.120102
100
AcDbLine
 10
134.281006
 20
337.376953
 30
0.0
 11
136.311295
 21
341.730927
 31
0.0
  0
LINE
  5
1E14
330
A
100
AcDbEntity
  8
0
 62
     7
 48
0.016298
100
AcDbLine
 10
136.872177
 20
342.933746
 30
0.0
 11
137.1476899999999
 21
343.524597
 31
0.0
  0
LINE
  5
1E15
330
A
100
AcDbEntity
  8
0
 62
     7
 48
0.102112
100
AcDbLine
 10
134.201385
 20
341.938629
 30
0.0
 11
135.927567
 21
345.640411
 31
0.0
  0
LINE
  5
1E16
330
A
100
AcDbEntity
  8
0
 62
     7
 48
0.1035
100
AcDbLine
 10
126.258972
 20
329.638458
 30
0.0
 11
128.008591
 21
333.3905640000001
 31
0.0
  0
LINE
  5
1E17
330
A
100
AcDbEntity
  8
0
 62
     7
 48
0.067779
100
AcDbLine
 10
132.576752
 20
343.1870120000001
 30
0.0
 11
133.722549
 21
345.644165
 31
0.0
  0
LINE
  5
1E18
330
A
100
AcDbEntity
  8
0
 62
     7
 48
0.113285
100
AcDbLine
 10
126.179352
 20
334.200134
 30
0.0
 11
128.094421
 21
338.306976
 31
0.0
  0
LINE
  5
1E19
330
A
100
AcDbEntity
  8
0
 62
     7
 48
0.067779
100
AcDbLine
 10
130.369995
 20
343.1870120000001
 30
0.0
 11
131.515793
 21
345.644165
 31
0.0
  0
LINE
  5
1E1A
330
A
100
AcDbEntity
  8
0
 62
     7
 48
0.078023
100
AcDbLine
 10
105.933174
 20
295.514465
 30
0.0
 11
107.252136
 21
298.342987
 31
0.0
  0
LINE
  5
1E1B
330
A
100
AcDbEntity
  8
0
 62
     7
 48
0.189847
100
AcDbLine
 10
126.099731
 20
338.76178
 30
0.0
 11
129.309036
 21
345.644165
 31
0.0
  0
LINE
  5
1E1C
330
A
100
AcDbEntity
  8
0
 62
     7
 48
0.08781
100
AcDbLine
 10
105.853554
 20
300.076111
 30
0.0
 11
107.337952
 21
303.25943
 31
0.0
  0
LINE
  5
1E1D
330
A
100
AcDbEntity
  8
0
 62
     7
 48
0.074787
100
AcDbLine
 10
125.838028
 20
342.932953
 30
0.0
 11
127.10228
 21
345.644165
 31
0.0
  0
LINE
  5
1E1E
330
A
100
AcDbEntity
  8
0
 62
     7
 48
0.097596
100
AcDbLine
 10
105.773926
 20
304.637756
 30
0.0
 11
107.423767
 21
308.175842
 31
0.0
  0
LINE
  5
1E1F
330
A
100
AcDbEntity
  8
0
 62
     7
 48
0.05869
100
AcDbLine
 10
123.751625
 20
343.19104
 30
0.0
 11
124.743759
 21
345.318695
 31
0.0
  0
LINE
  5
1E20
330
A
100
AcDbEntity
  8
0
 62
     7
 48
0.107383
100
AcDbLine
 10
105.694305
 20
309.199402
 30
0.0
 11
107.50959
 21
313.092285
 31
0.0
  0
LINE
  5
1E21
330
A
100
AcDbEntity
  8
0
 62
     7
 48
0.060458
100
AcDbLine
 10
121.377937
 20
342.833069
 30
0.0
 11
122.399963
 21
345.024811
 31
0.0
  0
LINE
  5
1E22
330
A
100
AcDbEntity
  8
0
 62
     7
 48
0.11717
100
AcDbLine
 10
105.614677
 20
313.761047
 30
0.0
 11
107.595406
 21
318.0087279999999
 31
0.0
  0
LINE
  5
1E23
330
A
100
AcDbEntity
  8
0
 62
     7
 48
0.062783
100
AcDbLine
 10
118.938545
 20
342.334167
 30
0.0
 11
119.99987
 21
344.610199
 31
0.0
  0
LINE
  5
1E24
330
A
100
AcDbEntity
  8
0
 62
     7
 48
0.126957
100
AcDbLine
 10
105.535057
 20
318.322693
 30
0.0
 11
107.681221
 21
322.925171
 31
0.0
  0
LINE
  5
1E25
330
A
100
AcDbEntity
  8
0
 62
     7
 48
0.065982
100
AcDbLine
 10
116.4151
 20
341.655029
 30
0.0
 11
117.530502
 21
344.0470279999999
 31
0.0
  0
LINE
  5
1E26
330
A
100
AcDbEntity
  8
0
 62
     7
 48
0.136744
100
AcDbLine
 10
105.455429
 20
322.884338
 30
0.0
 11
107.767036
 21
327.841614
 31
0.0
  0
LINE
  5
1E27
330
A
100
AcDbEntity
  8
0
 62
     7
 48
0.070648
100
AcDbLine
 10
113.778442
 20
340.733093
 30
0.0
 11
114.972725
 21
343.29425
 31
0.0
  0
LINE
  5
1E28
330
A
100
AcDbEntity
  8
0
 62
     7
 48
0.14652
100
AcDbLine
 10
105.375809
 20
327.445984
 30
0.0
 11
107.852676
 21
332.75766
 31
0.0
  0
LINE
  5
1E29
330
A
100
AcDbEntity
  8
0
 62
     7
 48
0.078523
100
AcDbLine
 10
110.966492
 20
339.435242
 30
0.0
 11
112.293892
 21
342.281891
 31
0.0
  0
LINE
  5
1E2A
330
A
100
AcDbEntity
  8
0
 62
     7
 48
0.262815
100
AcDbLine
 10
104.989609
 20
331.350189
 30
0.0
 11
109.432419
 21
340.877838
 31
0.0
  0
LINE
  5
1E2B
330
A
100
AcDbEntity
  8
0
 62
     7
 48
0.136304
100
AcDbLine
 10
103.933807
 20
333.81842
 30
0.0
 11
106.237999
 21
338.759766
 31
0.0
  0
LINE
  5
1E2C
330
A
100
AcDbEntity
  8
0
 62
     7
 48
0.060367
100
AcDbLine
 10
102.563965
 20
335.61319
 30
0.0
 11
103.584457
 21
337.801636
 31
0.0
  0
LINE
  5
1E2D
330
A
100
AcDbEntity
  8
0
 62
     7
 48
0.056224
100
AcDbLine
 10
100.980637
 20
336.950134
 30
0.0
 11
101.931091
 21
338.988403
 31
0.0
  0
LINE
  5
1E2E
330
A
100
AcDbEntity
  8
0
 62
     7
 48
0.054006
100
AcDbLine
 10
99.220757
 20
337.908478
 30
0.0
 11
100.13372
 21
339.866333
 31
0.0
  0
LINE
  5
1E2F
330
A
100
AcDbEntity
  8
0
 62
     7
 48
0.053597
100
AcDbLine
 10
97.287888
 20
338.495819
 30
0.0
 11
98.193932
 21
340.438843
 31
0.0
  0
LINE
  5
1E30
330
A
100
AcDbEntity
  8
0
 62
     7
 48
0.054974
100
AcDbLine
 10
95.17028000000001
 20
338.6870120000001
 30
0.0
 11
96.099609
 21
340.679932
 31
0.0
  0
LINE
  5
1E31
330
A
100
AcDbEntity
  8
0
 62
     7
 48
0.055169
100
AcDbLine
 10
92.96352399999999
 20
338.6870120000001
 30
0.0
 11
93.89613299999998
 21
340.6870120000001
 31
0.0
  0
LINE
  5
1E32
330
A
100
AcDbEntity
  8
0
 62
     7
 48
0.055169
100
AcDbLine
 10
90.756767
 20
338.6870120000001
 30
0.0
 11
91.689384
 21
340.6870120000001
 31
0.0
  0
LINE
  5
1E33
330
A
100
AcDbEntity
  8
0
 62
     7
 48
0.055169
100
AcDbLine
 10
88.550011
 20
338.6870120000001
 30
0.0
 11
89.482628
 21
340.6870120000001
 31
0.0
  0
LINE
  5
1E34
330
A
100
AcDbEntity
  8
0
 62
     7
 48
0.050541
100
AcDbLine
 10
86.42149399999999
 20
338.854797
 30
0.0
 11
87.27587099999999
 21
340.6870120000001
 31
0.0
  0
LINE
  5
1E35
330
A
100
AcDbEntity
  8
0
 62
     7
 48
0.205639
100
AcDbLine
 10
165.329239
 20
282.357635
 30
0.0
 11
170.047211
 21
289.095612
 31
0.0
  0
LINE
  5
1E36
330
A
100
AcDbEntity
  8
0
 62
     7
 48
0.125424
100
AcDbLine
 10
160.956802
 20
279.600037
 30
0.0
 11
163.834412
 21
283.709686
 31
0.0
  0
LINE
  5
1E37
330
A
100
AcDbEntity
  8
0
 62
     7
 48
0.125595
100
AcDbLine
 10
168.263718
 20
290.0354
 30
0.0
 11
171.145264
 21
294.150665
 31
0.0
  0
LINE
  5
1E38
330
A
100
AcDbEntity
  8
0
 62
     7
 48
0.08076
100
AcDbLine
 10
157.800354
 20
278.579041
 30
0.0
 11
159.653229
 21
281.2252200000001
 31
0.0
  0
LINE
  5
1E39
330
A
100
AcDbEntity
  8
0
 62
     7
 48
0.090588
100
AcDbLine
 10
169.1752929999999
 20
294.824158
 30
0.0
 11
171.253647
 21
297.792358
 31
0.0
  0
LINE
  5
1E3A
330
A
100
AcDbEntity
  8
0
 62
     7
 48
0.06641
100
AcDbLine
 10
155.103973
 20
278.215118
 30
0.0
 11
156.627625
 21
280.3911129999999
 31
0.0
  0
LINE
  5
1E3B
330
A
100
AcDbEntity
  8
0
 62
     7
 48
0.090588
100
AcDbLine
 10
169.270142
 20
298.446503
 30
0.0
 11
171.348511
 21
301.414703
 31
0.0
  0
LINE
  5
1E3C
330
A
100
AcDbEntity
  8
0
 62
     7
 48
0.061039
100
AcDbLine
 10
152.642731
 20
278.187012
 30
0.0
 11
154.043152
 21
280.187012
 31
0.0
  0
LINE
  5
1E3D
330
A
100
AcDbEntity
  8
0
 62
     7
 48
0.090588
100
AcDbLine
 10
169.36499
 20
302.068848
 30
0.0
 11
171.443359
 21
305.037079
 31
0.0
  0
LINE
  5
1E3E
330
A
100
AcDbEntity
  8
0
 62
     7
 48
0.061039
100
AcDbLine
 10
150.201187
 20
278.187012
 30
0.0
 11
151.601593
 21
280.187012
 31
0.0
  0
LINE
  5
1E3F
330
A
100
AcDbEntity
  8
0
 62
     7
 48
0.090588
100
AcDbLine
 10
169.459839
 20
305.691193
 30
0.0
 11
171.538208
 21
308.659424
 31
0.0
  0
LINE
  5
1E40
330
A
100
AcDbEntity
  8
0
 62
     7
 48
0.061039
100
AcDbLine
 10
147.759644
 20
278.187012
 30
0.0
 11
149.160049
 21
280.187012
 31
0.0
  0
LINE
  5
1E41
330
A
100
AcDbEntity
  8
0
 62
     7
 48
0.090589
100
AcDbLine
 10
169.554688
 20
309.313538
 30
0.0
 11
171.633057
 21
312.2817990000001
 31
0.0
  0
LINE
  5
1E42
330
A
100
AcDbEntity
  8
0
 62
     7
 48
0.061039
100
AcDbLine
 10
145.318085
 20
278.187012
 30
0.0
 11
146.718506
 21
280.187012
 31
0.0
  0
LINE
  5
1E43
330
A
100
AcDbEntity
  8
0
 62
     7
 48
0.090589
100
AcDbLine
 10
169.649536
 20
312.935913
 30
0.0
 11
171.727921
 21
315.904144
 31
0.0
  0
LINE
  5
1E44
330
A
100
AcDbEntity
  8
0
 62
     7
 48
0.060515
100
AcDbLine
 10
142.888565
 20
278.204163
 30
0.0
 11
144.276947
 21
280.187012
 31
0.0
  0
LINE
  5
1E45
330
A
100
AcDbEntity
  8
0
 62
     7
 48
0.090589
100
AcDbLine
 10
169.744385
 20
316.558258
 30
0.0
 11
171.822784
 21
319.52652
 31
0.0
  0
LINE
  5
1E46
330
A
100
AcDbEntity
  8
0
 62
     7
 48
0.05288
100
AcDbLine
 10
140.748718
 20
278.63504
 30
0.0
 11
141.961929
 21
280.367706
 31
0.0
  0
LINE
  5
1E47
330
A
100
AcDbEntity
  8
0
 62
     7
 48
0.089945
100
AcDbLine
 10
169.839218
 20
320.180603
 30
0.0
 11
171.902832
 21
323.127747
 31
0.0
  0
LINE
  5
1E48
330
A
100
AcDbEntity
  8
0
 62
     7
 48
0.05048
100
AcDbLine
 10
138.938782
 20
279.537079
 30
0.0
 11
140.096939
 21
281.191101
 31
0.0
  0
LINE
  5
1E49
330
A
100
AcDbEntity
  8
0
 62
     7
 48
0.052572
100
AcDbLine
 10
137.419968
 20
280.854889
 30
0.0
 11
138.626129
 21
282.577454
 31
0.0
  0
LINE
  5
1E4A
330
A
100
AcDbEntity
  8
0
 62
     7
 48
0.061244
100
AcDbLine
 10
136.218964
 20
282.626556
 30
0.0
 11
137.624084
 21
284.633301
 31
0.0
  0
LINE
  5
1E4B
330
A
100
AcDbEntity
  8
0
 62
     7
 48
0.083781
100
AcDbLine
 10
135.467102
 20
285.039703
 30
0.0
 11
137.389313
 21
287.784882
 31
0.0
  0
LINE
  5
1E4C
330
A
100
AcDbEntity
  8
0
 62
     7
 48
0.086537
100
AcDbLine
 10
135.344513
 20
288.351501
 30
0.0
 11
137.329926
 21
291.186981
 31
0.0
  0
LINE
  5
1E4D
330
A
100
AcDbEntity
  8
0
 62
     7
 48
0.086536
100
AcDbLine
 10
135.285126
 20
291.753601
 30
0.0
 11
137.270538
 21
294.58905
 31
0.0
  0
LINE
  5
1E4E
330
A
100
AcDbEntity
  8
0
 62
     7
 48
0.086537
100
AcDbLine
 10
135.225739
 20
295.1556700000001
 30
0.0
 11
137.211151
 21
297.99115
 31
0.0
  0
LINE
  5
1E4F
330
A
100
AcDbEntity
  8
0
 62
     7
 48
0.25647
100
AcDbLine
 10
121.104782
 20
278.475769
 30
0.0
 11
126.988991
 21
286.879272
 31
0.0
  0
LINE
  5
1E50
330
A
100
AcDbEntity
  8
0
 62
     7
 48
0.086537
100
AcDbLine
 10
135.166351
 20
298.557739
 30
0.0
 11
137.151764
 21
301.393219
 31
0.0
  0
LINE
  5
1E51
330
A
100
AcDbEntity
  8
0
 62
     7
 48
0.063519
100
AcDbLine
 10
118.461044
 20
278.187012
 30
0.0
 11
119.918381
 21
280.26828
 31
0.0
  0
LINE
  5
1E52
330
A
100
AcDbEntity
  8
0
 62
     7
 48
0.090962
100
AcDbLine
 10
124.964478
 20
287.474854
 30
0.0
 11
127.051407
 21
290.455322
 31
0.0
  0
LINE
  5
1E53
330
A
100
AcDbEntity
  8
0
 62
     7
 48
0.086537
100
AcDbLine
 10
135.1069639999999
 20
301.959839
 30
0.0
 11
137.092392
 21
304.795319
 31
0.0
  0
LINE
  5
1E54
330
A
100
AcDbEntity
  8
0
 62
     7
 48
0.061039
100
AcDbLine
 10
116.019493
 20
278.187012
 30
0.0
 11
117.419907
 21
280.187012
 31
0.0
  0
LINE
  5
1E55
330
A
100
AcDbEntity
  8
0
 62
     7
 48
0.090961
100
AcDbLine
 10
125.026894
 20
291.050903
 30
0.0
 11
127.113831
 21
294.031342
 31
0.0
  0
LINE
  5
1E56
330
A
100
AcDbEntity
  8
0
 62
     7
 48
0.086536
100
AcDbLine
 10
135.047592
 20
305.361938
 30
0.0
 11
137.033005
 21
308.197388
 31
0.0
  0
LINE
  5
1E57
330
A
100
AcDbEntity
  8
0
 62
     7
 48
0.061039
100
AcDbLine
 10
113.577942
 20
278.187012
 30
0.0
 11
114.978363
 21
280.187012
 31
0.0
  0
LINE
  5
1E58
330
A
100
AcDbEntity
  8
0
 62
     7
 48
0.090962
100
AcDbLine
 10
125.089317
 20
294.626923
 30
0.0
 11
127.176247
 21
297.607391
 31
0.0
  0
LINE
  5
1E59
330
A
100
AcDbEntity
  8
0
 62
     7
 48
0.086537
100
AcDbLine
 10
134.988205
 20
308.764008
 30
0.0
 11
136.973618
 21
311.599487
 31
0.0
  0
LINE
  5
1E5A
330
A
100
AcDbEntity
  8
0
 62
     7
 48
0.061039
100
AcDbLine
 10
111.136398
 20
278.187012
 30
0.0
 11
112.536812
 21
280.187012
 31
0.0
  0
LINE
  5
1E5B
330
A
100
AcDbEntity
  8
0
 62
     7
 48
0.090961
100
AcDbLine
 10
125.151733
 20
298.202972
 30
0.0
 11
127.23867
 21
301.183411
 31
0.0
  0
LINE
  5
1E5C
330
A
100
AcDbEntity
  8
0
 62
     7
 48
0.086536
100
AcDbLine
 10
134.928818
 20
312.166107
 30
0.0
 11
136.91423
 21
315.001556
 31
0.0
  0
LINE
  5
1E5D
330
A
100
AcDbEntity
  8
0
 62
     7
 48
0.061039
100
AcDbLine
 10
108.694847
 20
278.187012
 30
0.0
 11
110.095261
 21
280.187012
 31
0.0
  0
LINE
  5
1E5E
330
A
100
AcDbEntity
  8
0
 62
     7
 48
0.090962
100
AcDbLine
 10
125.214157
 20
301.778992
 30
0.0
 11
127.301086
 21
304.75946
 31
0.0
  0
LINE
  5
1E5F
330
A
100
AcDbEntity
  8
0
 62
     7
 48
0.086537
100
AcDbLine
 10
134.869431
 20
315.568176
 30
0.0
 11
136.854858
 21
318.403656
 31
0.0
  0
LINE
  5
1E60
330
A
100
AcDbEntity
  8
0
 62
     7
 48
0.058171
100
AcDbLine
 10
106.327095
 20
278.292389
 30
0.0
 11
107.661713
 21
280.198425
 31
0.0
  0
LINE
  5
1E61
330
A
100
AcDbEntity
  8
0
 62
     7
 48
0.090962
100
AcDbLine
 10
125.276573
 20
305.355042
 30
0.0
 11
127.36351
 21
308.33551
 31
0.0
  0
LINE
  5
1E62
330
A
100
AcDbEntity
  8
0
 62
     7
 48
0.086536
100
AcDbLine
 10
134.810059
 20
318.9702759999999
 30
0.0
 11
136.795471
 21
321.805725
 31
0.0
  0
LINE
  5
1E63
330
A
100
AcDbEntity
  8
0
 62
     7
 48
0.054181
100
AcDbLine
 10
104.15332
 20
278.674805
 30
0.0
 11
105.396393
 21
280.450104
 31
0.0
  0
LINE
  5
1E64
330
A
100
AcDbEntity
  8
0
 62
     7
 48
0.090961
100
AcDbLine
 10
125.338997
 20
308.931091
 30
0.0
 11
127.425926
 21
311.91153
 31
0.0
  0
LINE
  5
1E65
330
A
100
AcDbEntity
  8
0
 62
     7
 48
0.086537
100
AcDbLine
 10
134.7506709999999
 20
322.372345
 30
0.0
 11
136.736084
 21
325.207825
 31
0.0
  0
LINE
  5
1E66
330
A
100
AcDbEntity
  8
0
 62
     7
 48
0.051822
100
AcDbLine
 10
102.147011
 20
279.296387
 30
0.0
 11
103.335945
 21
280.994385
 31
0.0
  0
LINE
  5
1E67
330
A
100
AcDbEntity
  8
0
 62
     7
 48
0.090961
100
AcDbLine
 10
125.401413
 20
312.507141
 30
0.0
 11
127.48835
 21
315.487579
 31
0.0
  0
LINE
  5
1E68
330
A
100
AcDbEntity
  8
0
 62
     7
 48
0.074696
100
AcDbLine
 10
134.661194
 20
325.731476
 30
0.0
 11
136.374939
 21
328.178955
 31
0.0
  0
LINE
  5
1E69
330
A
100
AcDbEntity
  8
0
 62
     7
 48
0.050537
100
AcDbLine
 10
100.289246
 20
280.130127
 30
0.0
 11
101.448708
 21
281.786011
 31
0.0
  0
LINE
  5
1E6A
330
A
100
AcDbEntity
  8
0
 62
     7
 48
0.090961
100
AcDbLine
 10
125.463837
 20
316.08316
 30
0.0
 11
127.550766
 21
319.063599
 31
0.0
  0
LINE
  5
1E6B
330
A
100
AcDbEntity
  8
0
 62
     7
 48
0.050358
100
AcDbLine
 10
132.96373
 20
326.794128
 30
0.0
 11
134.11908
 21
328.444153
 31
0.0
  0
LINE
  5
1E6C
330
A
100
AcDbEntity
  8
0
 62
     7
 48
0.049994
100
AcDbLine
 10
98.573166
 20
281.166199
 30
0.0
 11
99.72016899999999
 21
282.804291
 31
0.0
  0
LINE
  5
1E6D
330
A
100
AcDbEntity
  8
0
 62
     7
 48
0.090961
100
AcDbLine
 10
125.526253
 20
319.65921
 30
0.0
 11
127.61319
 21
322.639648
 31
0.0
  0
LINE
  5
1E6E
330
A
100
AcDbEntity
  8
0
 62
     7
 48
0.085065
100
AcDbLine
 10
132.08284
 20
329.02298
 30
0.0
 11
134.0345
 21
331.810242
 31
0.0
  0
LINE
  5
1E6F
330
A
100
AcDbEntity
  8
0
 62
     7
 48
0.050334
100
AcDbLine
 10
96.99050900000001
 20
282.392822
 30
0.0
 11
98.145325
 21
284.042084
 31
0.0
  0
LINE
  5
1E70
330
A
100
AcDbEntity
  8
0
 62
     7
 48
0.205026
100
AcDbLine
 10
125.588676
 20
323.235229
 30
0.0
 11
130.292587
 21
329.953125
 31
0.0
  0
LINE
  5
1E71
330
A
100
AcDbEntity
  8
0
 62
     7
 48
0.085065
100
AcDbLine
 10
132.023453
 20
332.425049
 30
0.0
 11
133.975113
 21
335.212311
 31
0.0
  0
LINE
  5
1E72
330
A
100
AcDbEntity
  8
0
 62
     7
 48
0.051577
100
AcDbLine
 10
95.54422
 20
283.814209
 30
0.0
 11
96.72755399999999
 21
285.504181
 31
0.0
  0
LINE
  5
1E73
330
A
100
AcDbEntity
  8
0
 62
     7
 48
0.049834
100
AcDbLine
 10
125.651093
 20
326.811279
 30
0.0
 11
126.794441
 21
328.444153
 31
0.0
  0
LINE
  5
1E74
330
A
100
AcDbEntity
  8
0
 62
     7
 48
0.089415
100
AcDbLine
 10
128.303558
 20
330.599396
 30
0.0
 11
130.355011
 21
333.529175
 31
0.0
  0
LINE
  5
1E75
330
A
100
AcDbEntity
  8
0
 62
     7
 48
0.085065
100
AcDbLine
 10
131.964081
 20
335.827148
 30
0.0
 11
133.915726
 21
338.61438
 31
0.0
  0
LINE
  5
1E76
330
A
100
AcDbEntity
  8
0
 62
     7
 48
0.053669
100
AcDbLine
 10
94.24799300000001
 20
285.44989
 30
0.0
 11
95.47931700000001
 21
287.208405
 31
0.0
  0
LINE
  5
1E77
330
A
100
AcDbEntity
  8
0
 62
     7
 48
0.089414
100
AcDbLine
 10
128.365982
 20
334.175446
 30
0.0
 11
130.417419
 21
337.105194
 31
0.0
  0
LINE
  5
1E78
330
A
100
AcDbEntity
  8
0
 62
     7
 48
0.085065
100
AcDbLine
 10
131.904694
 20
339.229248
 30
0.0
 11
133.856339
 21
342.016479
 31
0.0
  0
LINE
  5
1E79
330
A
100
AcDbEntity
  8
0
 62
     7
 48
0.057361
100
AcDbLine
 10
93.11448699999999
 20
287.317993
 30
0.0
 11
94.430534
 21
289.197479
 31
0.0
  0
LINE
  5
1E7A
330
A
100
AcDbEntity
  8
0
 62
     7
 48
0.089459
100
AcDbLine
 10
128.428406
 20
337.751465
 30
0.0
 11
130.480865
 21
340.682709
 31
0.0
  0
LINE
  5
1E7B
330
A
100
AcDbEntity
  8
0
 62
     7
 48
0.062408
100
AcDbLine
 10
130.772583
 20
341.099304
 30
0.0
 11
132.204391
 21
343.144165
 31
0.0
  0
LINE
  5
1E7C
330
A
100
AcDbEntity
  8
0
 62
     7
 48
0.063417
100
AcDbLine
 10
92.17491899999998
 20
289.463013
 30
0.0
 11
93.62989799999999
 21
291.540955
 31
0.0
  0
LINE
  5
1E7D
330
A
100
AcDbEntity
  8
0
 62
     7
 48
0.055443
100
AcDbLine
 10
128.490814
 20
341.327515
 30
0.0
 11
129.762848
 21
343.144165
 31
0.0
  0
LINE
  5
1E7E
330
A
100
AcDbEntity
  8
0
 62
     7
 48
0.074665
100
AcDbLine
 10
91.48985299999999
 20
291.971558
 30
0.0
 11
93.20290400000001
 21
294.41803
 31
0.0
  0
LINE
  5
1E7F
330
A
100
AcDbEntity
  8
0
 62
     7
 48
0.084059
100
AcDbLine
 10
91.178314
 20
295.013519
 30
0.0
 11
93.10687299999999
 21
297.767792
 31
0.0
  0
LINE
  5
1E80
330
A
100
AcDbEntity
  8
0
 62
     7
 48
0.084059
100
AcDbLine
 10
91.090294
 20
298.374695
 30
0.0
 11
93.01886000000001
 21
301.128967
 31
0.0
  0
LINE
  5
1E81
330
A
100
AcDbEntity
  8
0
 62
     7
 48
0.084059
100
AcDbLine
 10
91.00227399999999
 20
301.735901
 30
0.0
 11
92.93084
 21
304.490173
 31
0.0
  0
LINE
  5
1E82
330
A
100
AcDbEntity
  8
0
 62
     7
 48
0.084059
100
AcDbLine
 10
90.91426099999999
 20
305.097107
 30
0.0
 11
92.842827
 21
307.851379
 31
0.0
  0
LINE
  5
1E83
330
A
100
AcDbEntity
  8
0
 62
     7
 48
0.084059
100
AcDbLine
 10
90.82624799999999
 20
308.458282
 30
0.0
 11
92.75480700000001
 21
311.212555
 31
0.0
  0
LINE
  5
1E84
330
A
100
AcDbEntity
  8
0
 62
     7
 48
0.084059
100
AcDbLine
 10
90.73823500000001
 20
311.819489
 30
0.0
 11
92.66679399999999
 21
314.573761
 31
0.0
  0
LINE
  5
1E85
330
A
100
AcDbEntity
  8
0
 62
     7
 48
0.084059
100
AcDbLine
 10
90.650215
 20
315.180664
 30
0.0
 11
92.578781
 21
317.934937
 31
0.0
  0
LINE
  5
1E86
330
A
100
AcDbEntity
  8
0
 62
     7
 48
0.084059
100
AcDbLine
 10
90.56219499999999
 20
318.54187
 30
0.0
 11
92.49076099999999
 21
321.296143
 31
0.0
  0
LINE
  5
1E87
330
A
100
AcDbEntity
  8
0
 62
     7
 48
0.060746
100
AcDbLine
 10
90.474182
 20
321.903076
 30
0.0
 11
91.86788900000001
 21
323.893463
 31
0.0
  0
DIMENSION
  5
1FE5
330
A
100
AcDbEntity
  8
0
 62
     3
100
AcDbDimension
  2
*D4
 10
12.69927005318394
 20
274.7771000000002
 30
0.0
 11
5.699270053183898
 21
315.9824830000001
 31
0.0
 70
    32
  1
82
 71
     5
 42
82.41076599999979
  3
STANDARD$0
100
AcDbAlignedDimension
 13
66.67549100000001
 23
357.187866
 33
0.0
 14
81.93799109077536
 24
274.7771000000002
 34
0.0
 50
90.00000000000003
100
AcDbRotatedDimension
1001
ACAD
1000
DSTYLE
1002
{
1070
   178
1070
     2
1070
    41
1040
10.0
1070
    42
1040
0.625
1070
    43
1040
3.75
1070
    44
1040
1.25
1070
    73
1070
     0
1070
    74
1070
     0
1070
    77
1070
     1
1070
    78
1070
     8
1070
   140
1040
10.0
1070
   141
1040
2.5
1070
   143
1040
0.03937
1070
   147
1040
2.0
1070
   171
1070
     3
1070
   172
1070
     1
1070
   271
1070
     2
1070
   272
1070
     2
1070
   274
1070
     3
1070
   283
1070
     0
1070
   284
1070
     8
1002
}
  0
DIMENSION
  5
201D
330
A
100
AcDbEntity
  8
0
 62
     3
100
AcDbDimension
  2
*D5
 10
302.3871943057283
 20
321.6947165530994
 30
0.0
 11
294.7352409985584
 21
296.8864958589378
 31
0.0
 70
    32
  1
DN50
 71
     5
 42
50.00000813701262
  3
STANDARD$0
100
AcDbAlignedDimension
 13
242.2583487917784
 23
273.2519277105192
 33
0.0
 14
243.5672000000001
 24
323.2348020000001
 34
0.0
 50
88.50016578372686
100
AcDbRotatedDimension
1001
ACAD
1000
DSTYLE
1002
{
1070
   178
1070
     2
1070
    41
1040
10.0
1070
    42
1040
0.625
1070
    43
1040
3.75
1070
    44
1040
1.25
1070
    73
1070
     0
1070
    74
1070
     0
1070
    77
1070
     1
1070
    78
1070
     8
1070
   140
1040
10.0
1070
   141
1040
2.5
1070
   143
1040
0.03937
1070
   147
1040
2.0
1070
   171
1070
     3
1070
   172
1070
     1
1070
   271
1070
     2
1070
   272
1070
     2
1070
   274
1070
     3
1070
   283
1070
     0
1070
   284
1070
     8
1002
}
  0
LINE
  5
210B
330
A
100
AcDbEntity
  8
0
100
AcDbLine
 10
66.67549100000001
 20
357.187866
 30
0.0
 11
195.683701
 21
357.187866
 31
0.0
  0
VIEWPORT
  5
1E88
102
{ACAD_XDICTIONARY
360
216E
102
}
330
B
100
AcDbEntity
 67
     1
  8
0
 62
     0
100
AcDbViewport
 10
0.0
 20
0.0
 30
0.0
 40
1000.0
 41
1000.0
 68
     1
 69
     1
 12
0.0
 22
0.0
 13
0.0
 23
0.0
 14
1.0
 24
1.0
 15
1.0
 25
1.0
 16
0.0
 26
0.0
 36
1.0
 17
0.0
 27
0.0
 37
0.0
 42
50.0
 43
0.0
 44
0.0
 45
1000.0
 50
0.0
 51
0.0
 72
   100
 90
    32800
  1

281
     0
 71
     1
 74
     0
110
0.0
120
0.0
130
0.0
111
1.0
121
0.0
131
0.0
112
0.0
122
1.0
132
0.0
 79
     0
146
0.0
1001
GENIUS_GENSCREG_15
1000
PF
1040
1.0
1000
DF
1040
1.0
1000
MIN
1011
-500.0
1021
-500.0
1031
0.0
1000
MAX
1011
500.0
1021
500.0
1031
0.0
1000
FLAGS
1070
     4
1001
GENIUS_GENOBJ-N-SDF_13
1002
{
1000
OWNER
1000
GEN
1002
}
1001
GENIUS_GENODEF_13
1002
{
1000
HIER
1070
     0
1002
}
1002
{
1000
MANEDIT
1070
     0
1002
}
1002
{
1000
NOSEL
1070
     0
1002
}
1002
{
1000
BEHIND
1070
     0
1002
}
1002
{
1000
OTHER
1070
     0
1002
}
1002
{
1000
REACTOR
1002
}
  0
ENDSEC
  0
SECTION
  2
OBJECTS
  0
DICTIONARY
  5
19
330
0
100
AcDbDictionary
281
     1
  3
ACAD_COLOR
350
1E90
  3
ACAD_GROUP
350
1A
  3
ACAD_LAYOUT
350
1E93
  3
ACAD_MATERIAL
350
1E8F
  3
ACAD_MLINESTYLE
350
1B
  3
ACAD_PLOTSETTINGS
350
1E94
  3
ACAD_PLOTSTYLENAME
350
1E8D
  3
ACAD_TABLESTYLE
350
1E91
  3
ACDBHEADERROUNDTRIPXREC
350
216D
  3
AcDbVariableDictionary
350
200C
  3
AcmDictionary
350
1EF1
  3
AMG
350
1E99
  3
AMGSNAPSETTINGS
350
1F3A
  3
ASE_INDEX_DICTIONARY
350
2008
  0
DICTIONARY
  5
216E
330
1E88
100
AcDbDictionary
280
     1
281
     1
  3
ACAD_XREC_ROUNDTRIP
360
216F
  0
DICTIONARY
  5
1E90
102
{ACAD_REACTORS
330
19
102
}
330
19
100
AcDbDictionary
281
     1
  0
DICTIONARY
  5
1A
102
{ACAD_REACTORS
330
19
102
}
330
19
100
AcDbDictionary
281
     1
  0
DICTIONARY
  5
1E93
102
{ACAD_REACTORS
330
19
102
}
330
19
100
AcDbDictionary
281
     1
  3
Layout1
350
1E96
  3
Model
350
1E95
  0
DICTIONARY
  5
1E8F
102
{ACAD_REACTORS
330
19
102
}
330
19
100
AcDbDictionary
281
     1
  0
DICTIONARY
  5
1B
102
{ACAD_REACTORS
330
19
102
}
330
19
100
AcDbDictionary
281
     1
  3
STANDARD
350
1C
  0
DICTIONARY
  5
1E94
102
{ACAD_REACTORS
330
19
102
}
330
19
100
AcDbDictionary
281
     1
  0
ACDBDICTIONARYWDFLT
  5
1E8D
102
{ACAD_REACTORS
330
19
102
}
330
19
100
AcDbDictionary
281
     1
  3
Normal
350
1E8E
100
AcDbDictionaryWithDefault
340
1E8E
  0
DICTIONARY
  5
1E91
102
{ACAD_REACTORS
330
19
102
}
330
19
100
AcDbDictionary
281
     1
  3
Standard
350
1E92
  0
DICTIONARY
  5
216D
102
{ACAD_REACTORS
330
19
102
}
330
19
100
AcDbDictionary
281
     1
  0
DICTIONARY
  5
200C
102
{ACAD_REACTORS
330
19
102
}
330
19
100
AcDbDictionary
281
     1
  3
CTABLESTYLE
350
200D
  3
DIMASSOC
350
216A
  3
PROJECTNAME
350
216B
  0
DICTIONARY
  5
1EF1
102
{ACAD_REACTORS
330
19
102
}
330
19
100
AcDbDictionary
281
     1
  3
AcmStdDictionary
350
1EFE
  3
AMDTSECTSYM_ARROWCOLOR
350
1F21
  0
DICTIONARY
  5
1E99
102
{ACAD_REACTORS
330
19
102
}
330
19
100
AcDbDictionary
281
     1
  0
DICTIONARY
  5
1F3A
102
{ACAD_REACTORS
330
19
102
}
330
19
100
AcDbDictionary
281
     1
  0
DICTIONARY
  5
2008
102
{ACAD_REACTORS
330
19
102
}
330
19
100
AcDbDictionary
281
     1
  3
ASEBlockHierarchyIndexRecord
350
200A
1001
DCO15
1040
1543815705.783
  0
XRECORD
  5
216F
102
{ACAD_REACTORS
330
216E
102
}
330
216E
100
AcDbXrecord
280
     1
102
SHADEPLOT
 70
     0
  0
LAYOUT
  5
1E96
102
{ACAD_XDICTIONARY
360
2172
102
}
102
{ACAD_REACTORS
330
1E93
102
}
330
1E93
100
AcDbPlotSettings
  1

  2
\\RD-SR-200\PH-PR-011
  4

  6

 40
0.0
 41
0.0
 42
0.0
 43
0.0
 44
0.0
 45
0.0
 46
0.0
 47
0.0
 48
0.0
 49
0.0
140
0.0
141
0.0
142
1.0
143
1.0
 70
   688
 72
     0
 73
     0
 74
     5
  7

 75
    16
147
1.0
148
0.0
149
0.0
100
AcDbLayout
  1
Layout1
 70
     1
 71
     1
 10
0.0
 20
0.0
 11
420.0
 21
297.0
 12
0.0
 22
0.0
 32
0.0
 14
0.0
 24
0.0
 34
0.0
 15
471.248962
 25
393.345886
 35
2.0
146
0.0
 13
0.0
 23
0.0
 33
0.0
 16
1.0
 26
0.0
 36
0.0
 17
0.0
 27
1.0
 37
0.0
 76
     0
330
B
331
1E88
  0
LAYOUT
  5
1E95
102
{ACAD_XDICTIONARY
360
2170
102
}
102
{ACAD_REACTORS
330
1E93
102
}
330
1E93
100
AcDbPlotSettings
  1

  2
\\RD-SR-200\PH-PR-011
  4
A4
  6

 40
6.805083274841308
 41
5.027085304260253
 42
6.805084228515625
 43
5.027069091796875
 44
209.9733276367187
 45
296.9683227539062
 46
0.0
 47
0.0
 48
0.0
 49
0.0
140
0.0
141
0.0
142
1.0
143
1.714175429858764
 70
 11952
 72
     1
 73
     1
 74
     0
  7

 75
     0
147
0.5833708630874455
148
93.6801397730194
149
-212.8084321403169
100
AcDbLayout
  1
Model
 70
     1
 71
     0
 10
0.0
 20
0.0
 11
12.0
 21
9.0
 12
0.0
 22
0.0
 32
0.0
 14
0.0
 24
0.0
 34
0.0
 15
0.0
 25
0.0
 35
0.0
146
0.0
 13
0.0
 23
0.0
 33
0.0
 16
1.0
 26
0.0
 36
0.0
 17
0.0
 27
1.0
 37
0.0
 76
     0
330
A
1001
ACAD_PSEXT
1000
\\RD-SR-200\PH-PR-011
1000
HP LaserJet 4000 Series PCL
1000
\\RD-SR-200
1000

1070
     0
  0
MLINESTYLE
  5
1C
102
{ACAD_REACTORS
330
1B
102
}
330
1B
100
AcDbMlineStyle
  2
STANDARD
 70
     0
  3

 62
     0
 51
90.0
 52
90.0
 71
     2
 49
0.5
 62
   256
  6
BYLAYER
 49
-0.5
 62
   256
  6
BYLAYER
  0
ACDBPLACEHOLDER
  5
1E8E
102
{ACAD_REACTORS
330
1E8D
102
}
330
1E8D
  0
TABLESTYLE
  5
1E92
102
{ACAD_REACTORS
330
1E91
102
}
330
1E91
100
AcDbTableStyle
  3
Standard
 70
     0
 71
     0
 40
1.5
 41
1.5
280
     0
281
     0
  7
STANDARD
140
4.5
170
     2
 62
     0
 63
     7
283
     0
274
    -2
284
     1
 64
     0
275
    -2
285
     1
 65
     0
276
    -2
286
     1
 66
     0
277
    -2
287
     1
 67
     0
278
    -2
288
     1
 68
     0
279
    -2
289
     1
 69
     0
  7
STANDARD
140
6.0
170
     5
 62
     0
 63
     7
283
     0
274
    -2
284
     1
 64
     0
275
    -2
285
     1
 65
     0
276
    -2
286
     1
 66
     0
277
    -2
287
     1
 67
     0
278
    -2
288
     1
 68
     0
279
    -2
289
     1
 69
     0
  7
STANDARD
140
4.5
170
     5
 62
     0
 63
     7
283
     0
274
    -2
284
     1
 64
     0
275
    -2
285
     1
 65
     0
276
    -2
286
     1
 66
     0
277
    -2
287
     1
 67
     0
278
    -2
288
     1
 68
     0
279
    -2
289
     1
 69
     0
  0
DICTIONARYVAR
  5
200D
102
{ACAD_REACTORS
330
200C
102
}
330
200C
100
DictionaryVariables
280
     0
  1
STANDARD
  0
DICTIONARYVAR
  5
216A
102
{ACAD_REACTORS
330
200C
102
}
330
200C
100
DictionaryVariables
280
     0
  1
1
  0
DICTIONARYVAR
  5
216B
102
{ACAD_REACTORS
330
200C
102
}
330
200C
100
DictionaryVariables
280
     0
  1

  0
DICTIONARY
  5
1EFE
102
{ACAD_REACTORS
330
1EF1
102
}
330
1EF1
100
AcDbDictionary
281
     1
  0
XRECORD
  5
1F21
102
{ACAD_REACTORS
330
1EF1
102
}
330
1EF1
100
AcDbXrecord
280
     1
 90
-1023410169
  0
XRECORD
  5
200A
102
{ACAD_REACTORS
330
2008
102
}
330
2008
100
AcDbXrecord
280
     1
  0
DICTIONARY
  5
2172
330
1E96
100
AcDbDictionary
280
     1
281
     1
  3
ACAD_XREC_ROUNDTRIP
360
2173
  0
DICTIONARY
  5
2170
330
1E95
100
AcDbDictionary
280
     1
281
     1
  3
ACAD_XREC_ROUNDTRIP
360
2171
  0
XRECORD
  5
2173
102
{ACAD_REACTORS
330
2172
102
}
330
2172
100
AcDbXrecord
280
     1
102
SHADEPLOT
 70
     0
102
SHADEPLOTRESLEVEL
 70
     2
102
SHADEPLOTCUSTOMDPI
 70
   300
  0
XRECORD
  5
2171
102
{ACAD_REACTORS
330
2170
102
}
330
2170
100
AcDbXrecord
280
     1
102
SHADEPLOT
 70
     0
102
SHADEPLOTRESLEVEL
 70
     2
102
SHADEPLOTCUSTOMDPI
 70
   300
  0
ENDSEC
  0
EOF
