  0
SECTION
  2
HEADER
  9
$ACADVER
  1
AC1015
  9
$ACADMAINTVER
 70
    20
  9
$DWGCODEPAGE
  3
ANSI_1252
  9
$INSBASE
 10
0.0
 20
0.0
 30
0.0
  9
$EXTMIN
 10
-227.8345640101615
 20
65.22706680748036
 30
-0.0000000000112498
  9
$EXTMAX
 10
116.5048584116573
 20
161.143890914209
 30
0.0000000000002956
  9
$LIMMIN
 10
0.0
 20
0.0
  9
$LIMMAX
 10
420.0
 20
297.0
  9
$ORTHOMODE
 70
     1
  9
$REGENMODE
 70
     1
  9
$FILLMODE
 70
     1
  9
$QTEXTMODE
 70
     0
  9
$MIRRTEXT
 70
     0
  9
$LTSCALE
 40
1.0
  9
$ATTMODE
 70
     1
  9
$TEXTSIZE
 40
2.5
  9
$TRACEWID
 40
1.0
  9
$TEXTSTYLE
  7
Standard
  9
$CLAYER
  8
0
  9
$CELTYPE
  6
ByLayer
  9
$CECOLOR
 62
   256
  9
$CELTSCALE
 40
1.0
  9
$DISPSILH
 70
     0
  9
$DIMSCALE
 40
1.0
  9
$DIMASZ
 40
2.5
  9
$DIMEXO
 40
0.625
  9
$DIMDLI
 40
3.75
  9
$DIMRND
 40
0.0
  9
$DIMDLE
 40
0.0
  9
$DIMEXE
 40
1.25
  9
$DIMTP
 40
0.0
  9
$DIMTM
 40
0.0
  9
$DIMTXT
 40
2.5
  9
$DIMCEN
 40
2.5
  9
$DIMTSZ
 40
0.0
  9
$DIMTOL
 70
     0
  9
$DIMLIM
 70
     0
  9
$DIMTIH
 70
     0
  9
$DIMTOH
 70
     0
  9
$DIMSE1
 70
     0
  9
$DIMSE2
 70
     0
  9
$DIMTAD
 70
     1
  9
$DIMZIN
 70
     8
  9
$DIMBLK
  1

  9
$DIMASO
 70
     1
  9
$DIMSHO
 70
     1
  9
$DIMPOST
  1

  9
$DIMAPOST
  1

  9
$DIMALT
 70
     0
  9
$DIMALTD
 70
     3
  9
$DIMALTF
 40
0.03937007874016
  9
$DIMLFAC
 40
1.0
  9
$DIMTOFL
 70
     1
  9
$DIMTVP
 40
0.0
  9
$DIMTIX
 70
     0
  9
$DIMSOXD
 70
     0
  9
$DIMSAH
 70
     0
  9
$DIMBLK1
  1

  9
$DIMBLK2
  1

  9
$DIMSTYLE
  2
ISO-25
  9
$DIMCLRD
 70
     0
  9
$DIMCLRE
 70
     0
  9
$DIMCLRT
 70
     0
  9
$DIMTFAC
 40
1.0
  9
$DIMGAP
 40
0.625
  9
$DIMJUST
 70
     0
  9
$DIMSD1
 70
     0
  9
$DIMSD2
 70
     0
  9
$DIMTOLJ
 70
     0
  9
$DIMTZIN
 70
     8
  9
$DIMALTZ
 70
     0
  9
$DIMALTTZ
 70
     0
  9
$DIMUPT
 70
     0
  9
$DIMDEC
 70
     2
  9
$DIMTDEC
 70
     2
  9
$DIMALTU
 70
     2
  9
$DIMALTTD
 70
     3
  9
$DIMTXSTY
  7
Standard
  9
$DIMAUNIT
 70
     0
  9
$DIMADEC
 70
     0
  9
$DIMALTRND
 40
0.0
  9
$DIMAZIN
 70
     0
  9
$DIMDSEP
 70
    44
  9
$DIMATFIT
 70
     3
  9
$DIMFRAC
 70
     0
  9
$DIMLDRBLK
  1

  9
$DIMLUNIT
 70
     2
  9
$DIMLWD
 70
    -2
  9
$DIMLWE
 70
    -2
  9
$DIMTMOVE
 70
     0
  9
$LUNITS
 70
     2
  9
$LUPREC
 70
     2
  9
$SKETCHINC
 40
1.0
  9
$FILLETRAD
 40
10.0
  9
$AUNITS
 70
     0
  9
$AUPREC
 70
     0
  9
$MENU
  1
.
  9
$ELEVATION
 40
0.0
  9
$PELEVATION
 40
0.0
  9
$THICKNESS
 40
0.0
  9
$LIMCHECK
 70
     0
  9
$CHAMFERA
 40
10.0
  9
$CHAMFERB
 40
10.0
  9
$CHAMFERC
 40
20.0
  9
$CHAMFERD
 40
0.0
  9
$SKPOLY
 70
     0
  9
$TDCREATE
 40
2453588.452307049
  9
$TDUCREATE
 40
2453588.410640382
  9
$TDUPDATE
 40
2454043.817431343
  9
$TDUUPDATE
 40
2454043.775764676
  9
$TDINDWG
 40
0.0367783102
  9
$TDUSRTIMER
 40
0.0367770370
  9
$USRTIMER
 70
     1
  9
$ANGBASE
 50
0.0
  9
$ANGDIR
 70
     0
  9
$PDMODE
 70
     0
  9
$PDSIZE
 40
0.0
  9
$PLINEWID
 40
0.0
  9
$SPLFRAME
 70
     0
  9
$SPLINETYPE
 70
     6
  9
$SPLINESEGS
 70
     8
  9
$HANDSEED
  5
10DA
  9
$SURFTAB1
 70
     6
  9
$SURFTAB2
 70
     6
  9
$SURFTYPE
 70
     6
  9
$SURFU
 70
     6
  9
$SURFV
 70
     6
  9
$UCSBASE
  2

  9
$UCSNAME
  2

  9
$UCSORG
 10
0.0
 20
0.0
 30
0.0
  9
$UCSXDIR
 10
1.0
 20
0.0
 30
0.0
  9
$UCSYDIR
 10
0.0
 20
1.0
 30
0.0
  9
$UCSORTHOREF
  2

  9
$UCSORTHOVIEW
 70
     0
  9
$UCSORGTOP
 10
0.0
 20
0.0
 30
0.0
  9
$UCSORGBOTTOM
 10
0.0
 20
0.0
 30
0.0
  9
$UCSORGLEFT
 10
0.0
 20
0.0
 30
0.0
  9
$UCSORGRIGHT
 10
0.0
 20
0.0
 30
0.0
  9
$UCSORGFRONT
 10
0.0
 20
0.0
 30
0.0
  9
$UCSORGBACK
 10
0.0
 20
0.0
 30
0.0
  9
$PUCSBASE
  2

  9
$PUCSNAME
  2

  9
$PUCSORG
 10
0.0
 20
0.0
 30
0.0
  9
$PUCSXDIR
 10
1.0
 20
0.0
 30
0.0
  9
$PUCSYDIR
 10
0.0
 20
1.0
 30
0.0
  9
$PUCSORTHOREF
  2

  9
$PUCSORTHOVIEW
 70
     0
  9
$PUCSORGTOP
 10
0.0
 20
0.0
 30
0.0
  9
$PUCSORGBOTTOM
 10
0.0
 20
0.0
 30
0.0
  9
$PUCSORGLEFT
 10
0.0
 20
0.0
 30
0.0
  9
$PUCSORGRIGHT
 10
0.0
 20
0.0
 30
0.0
  9
$PUCSORGFRONT
 10
0.0
 20
0.0
 30
0.0
  9
$PUCSORGBACK
 10
0.0
 20
0.0
 30
0.0
  9
$USERI1
 70
     0
  9
$USERI2
 70
     0
  9
$USERI3
 70
     0
  9
$USERI4
 70
     0
  9
$USERI5
 70
     0
  9
$USERR1
 40
0.0
  9
$USERR2
 40
0.0
  9
$USERR3
 40
0.0
  9
$USERR4
 40
0.0
  9
$USERR5
 40
0.0
  9
$WORLDVIEW
 70
     1
  9
$SHADEDGE
 70
     3
  9
$SHADEDIF
 70
    70
  9
$TILEMODE
 70
     1
  9
$MAXACTVP
 70
    64
  9
$PINSBASE
 10
0.0
 20
0.0
 30
0.0
  9
$PLIMCHECK
 70
     0
  9
$PEXTMIN
 10
0.0
 20
0.0
 30
0.0
  9
$PEXTMAX
 10
0.0
 20
0.0
 30
0.0
  9
$PLIMMIN
 10
0.0
 20
0.0
  9
$PLIMMAX
 10
12.0
 20
9.0
  9
$UNITMODE
 70
     0
  9
$VISRETAIN
 70
     1
  9
$PLINEGEN
 70
     0
  9
$PSLTSCALE
 70
     1
  9
$TREEDEPTH
 70
  3020
  9
$CMLSTYLE
  2
Standard
  9
$CMLJUST
 70
     0
  9
$CMLSCALE
 40
20.0
  9
$PROXYGRAPHICS
 70
     1
  9
$MEASUREMENT
 70
     1
  9
$CELWEIGHT
370
    -1
  9
$ENDCAPS
280
     0
  9
$JOINSTYLE
280
     0
  9
$LWDISPLAY
290
     0
  9
$INSUNITS
 70
     4
  9
$HYPERLINKBASE
  1

  9
$STYLESHEET
  1

  9
$XEDIT
290
     1
  9
$CEPSNTYPE
380
     0
  9
$PSTYLEMODE
290
     1
  9
$FINGERPRINTGUID
  2
{FDEAD578-A652-11D2-9A35-0060089B3A3F}
  9
$VERSIONGUID
  2
{4ED4CA12-44F9-4494-87CE-E4BA27DE096E}
  9
$EXTNAMES
290
     1
  9
$PSVPSCALE
 40
0.0
  9
$OLESTARTUP
290
     0
  0
ENDSEC
  0
SECTION
  2
CLASSES
  0
CLASS
  1
ACDBDICTIONARYWDFLT
  2
AcDbDictionaryWithDefault
  3
ObjectDBX Classes
 90
        0
280
     0
281
     0
  0
CLASS
  1
DICTIONARYVAR
  2
AcDbDictionaryVar
  3
ObjectDBX Classes
 90
        0
280
     0
281
     0
  0
CLASS
  1
DIMASSOC
  2
AcDbDimAssoc
  3
"AcDbDimAssoc|Product Desc:     AcDim ARX App For Dimension|Company:          Autodesk, Inc.|WEB Address:      www.autodesk.com"
 90
        0
280
     0
281
     0
  0
CLASS
  1
ACDBPLACEHOLDER
  2
AcDbPlaceHolder
  3
ObjectDBX Classes
 90
        0
280
     0
281
     0
  0
CLASS
  1
LAYOUT
  2
AcDbLayout
  3
ObjectDBX Classes
 90
        0
280
     0
281
     0
  0
CLASS
  1
TABLESTYLE
  2
AcDbTableStyle
  3
ObjectDBX Classes
 90
     2047
280
     0
281
     0
  0
CLASS
  1
AMGSETTINGSOBJ
  2
AmgSettingsObj
  3
"AcadM|Product Description: AutoCAD Mechanical 2000|Company: Autodesk"
 90
        0
280
     0
281
     0
  0
CLASS
  1
ACME_DOCUMENT
  2
AcMeDbDoc
  3
AcMeServices
 90
        0
280
     0
281
     0
  0
CLASS
  1
ACMESCOPE
  2
AcMeScope
  3
AcMeServices
 90
        0
280
     0
281
     0
  0
CLASS
  1
ACMECOMMANDHISTORY
  2
AcMeCommandHistory
  3
AcMeServices
 90
        0
280
     0
281
     0
  0
CLASS
  1
ACIMSYSVARMAN
  2
AcImSysVarManager
  3
AcMeServices
 90
        0
280
     0
281
     0
  0
CLASS
  1
ACIMINTSYSVAR
  2
AcImIntSysVar
  3
AcMeServices
 90
        0
280
     0
281
     0
  0
CLASS
  1
ACMEDRAWINGMAN
  2
AcMeDrawingMan
  3
AcMeServices
 90
        0
280
     0
281
     0
  0
CLASS
  1
ACMEVIEW
  2
AcMeView
  3
AcMeServices
 90
        0
280
     0
281
     0
  0
CLASS
  1
ACDBENTITYCACHE
  2
AcMeEntityCache
  3
AcMeServices
 90
        0
280
     0
281
     0
  0
CLASS
  1
GSMANAGER
  2
AcMeGSManager
  3
AcMeServices
 90
        0
280
     0
281
     0
  0
CLASS
  1
AMDTINTERNALREACTOR
  2
AmdtInternalReactor
  3
AcMeServices
 90
        0
280
     0
281
     0
  0
CLASS
  1
ACMESTATEMGR
  2
AcMeStateMgr
  3
AcMeServices
 90
        0
280
     0
281
     0
  0
CLASS
  1
ACGREFMASTER
  2
AcGrefMaster
  3
AcAttribServices
 90
        0
280
     0
281
     0
  0
CLASS
  1
AM_DRAWING_MGR
  2
AcDmDwgMgr
  3
AcMechDwgViewMgmt
 90
        0
280
     0
281
     0
  0
CLASS
  1
AM_DWG_DOCUMENT
  2
AcDmDwgDocument
  3
AcMechDwgViewMgmt
 90
        0
280
     0
281
     0
  0
CLASS
  1
AM_DWG_SHEET
  2
AcDmSheet
  3
AcMechDwgViewMgmt
 90
        0
280
     0
281
     0
  0
CLASS
  1
AM_VIEWDIMPARMAP
  2
AcDmViewDimParMap
  3
AcMechDwgViewMgmt
 90
        0
280
     0
281
     0
  0
CLASS
  1
ACIMREALSYSVAR
  2
AcImRealSysVar
  3
AcMeServices
 90
        0
280
     0
281
     0
  0
CLASS
  1
AM_DWGMGR_NAME
  2
AcDmDwgMgrName
  3
AcMechDwgViewMgmt
 90
        0
280
     0
281
     0
  0
CLASS
  1
ACME_DATABASE
  2
AcMeDbDatabase
  3
AcMeServices
 90
        0
280
     0
281
     0
  0
CLASS
  1
ACRFINSADJUSTERMGR
  2
AcRfInsAdjusterMgr
  3
AcMeServices
 90
        0
280
     0
281
     0
  0
CLASS
  1
ACGREFACADMASTER
  2
AcGrefacadMaster
  3
AcGrefServices
 90
        0
280
     0
281
     0
  0
CLASS
  1
AMDTMENUSTATEMGR
  2
AmdtMenuStateMgr
  3
McadcomServices
 90
        0
280
     0
281
     0
  0
CLASS
  1
AMDTMCOMMENUSTATE
  2
AmdtMcomMenuState
  3
McadcomServices
 90
        0
280
     0
281
     0
  0
CLASS
  1
AMIMASTER
  2
AmiMaster
  3
AmiServices
 90
        0
280
     0
281
     0
  0
CLASS
  1
MAPIAMMOUDLE
  2
MApiAmModule
  3
MApiAmServices
 90
        0
280
     0
281
     0
  0
CLASS
  1
AMDTADMENUSTATE
  2
AmdtAdMenuState
  3
DesignerServices
 90
        0
280
     0
281
     0
  0
CLASS
  1
ADAPPL
  2
AcAdAppl
  3
DesignerServices
 90
        0
280
     0
281
     0
  0
CLASS
  1
DEPMGR
  2
AcAdDepMgr
  3
DesignerServices
 90
        0
280
     0
281
     0
  0
CLASS
  1
PARAMMGR
  2
AcAdParamMgr
  3
DesignerServices
 90
        0
280
     0
281
     0
  0
CLASS
  1
PARAMSCOPE
  2
AcAdParamScope
  3
DesignerServices
 90
        0
280
     0
281
     0
  0
CLASS
  1
NAMEDAPPL
  2
AcAdNamedAppl
  3
DesignerServices
 90
        0
280
     0
281
     0
  0
CLASS
  1
AMDTDMMENUSTATE
  2
AmdtDmMenuState
  3
AcMechDwgViewMgmt
 90
        0
280
     0
281
     0
  0
CLASS
  1
AMDTAMMENUSTATE
  2
AmdtAmMenuState
  3
DesignerAssemblies
 90
        0
280
     0
281
     0
  0
CLASS
  1
ACIMSTRSYSVAR
  2
AcImStrSysVar
  3
AcMeServices
 90
        0
280
     0
281
     0
  0
CLASS
  1
ACAMPROJECT
  2
AcAmProject
  3
DesignerAssemblies
 90
        0
280
     0
281
     0
  0
CLASS
  1
ACAMGRCOMPDEF
  2
AcAmGrCompDef
  3
DesignerAssemblies
 90
        0
280
     0
281
     0
  0
CLASS
  1
ACCMCONTEXT
  2
AcCmContext
  3
DesignerAssemblies
 90
        0
280
     0
281
     0
  0
CLASS
  1
ACAMCOMPDEF
  2
AcAmCompDef
  3
DesignerAssemblies
 90
        0
280
     0
281
     0
  0
CLASS
  1
ACAMCOMPDEFMGR
  2
AcAmCompDefMgr
  3
DesignerAssemblies
 90
        0
280
     0
281
     0
  0
CLASS
  1
AMCONTEXTMGR
  2
AcAmContextMgr
  3
DesignerAssemblies
 90
        0
280
     0
281
     0
  0
CLASS
  1
ACAMCONTEXTMODELER
  2
AcAmContextModeler
  3
DesignerAssemblies
 90
        0
280
     0
281
     0
  0
CLASS
  1
ACMDATADICTIONARY
  2
AcmDataDictionary
  3
"AcmSymBB|Product Description: AutoCAD Mechanical 2004 DX|Company: Autodesk"
 90
        0
280
     0
281
     0
  0
CLASS
  1
CATALOGSTATE
  2
AcAmCatalogState
  3
DesignerAssemblies
 90
        0
280
     0
281
     0
  0
CLASS
  1
ACAMGRCOMPDEFSET
  2
AcAmGrCompDefSet
  3
DesignerAssemblies
 90
        0
280
     0
281
     0
  0
CLASS
  1
AMDTBROWSERDBTAB
  2
AmdtBrowserDbTab
  3
McadcomServices
 90
        0
280
     0
281
     0
  0
CLASS
  1
CBROWSERAPPOBJECT
  2
CBrowserAppObject
  3
McadcomServices
 90
        0
280
     0
281
     0
  0
CLASS
  1
DM_PLACEHOLDER
  2
AcDmSelsetPlaceholder
  3
AcMechDwgViewMgmt
 90
        0
280
     0
281
     0
  0
CLASS
  1
ACMSTANDARDDIN
  2
AcmStandardDIN
  3
"Amdt_StdImp|Product Description: AutoCAD Mechanical 2004 DX|Company: Autodesk"
 90
        0
280
     0
281
     0
  0
CLASS
  1
AMGOBJPROPCFG
  2
AmgObjPropCfg
  3
"AmgLay|Product Description: AutoCAD Mechanical 2000|Company: Autodesk"
 90
        1
280
     0
281
     0
  0
CLASS
  1
AMDTEDGESTANDARDDIN13715
  2
AmdtEdgeStdDIN13715
  3
"Amdt_StdImp|Product Description: AutoCAD Mechanical 2004 DX|Company: Autodesk"
 90
        0
280
     0
281
     0
  0
CLASS
  1
ACMSURFSTANDARDDIN
  2
AcmSurfTextStdDIN
  3
"Amdt_StdImp|Product Description: AutoCAD Mechanical 2004 DX|Company: Autodesk"
 90
        0
280
     0
281
     0
  0
CLASS
  1
ACMFCFSTANDARDDIN
  2
AcmFCFStdDIN
  3
"Amdt_StdImp|Product Description: AutoCAD Mechanical 2004 DX|Company: Autodesk"
 90
        0
280
     0
281
     0
  0
CLASS
  1
ACMWELDSTANDARDDIN
  2
AcmWeldingStdDIN
  3
"Amdt_StdImp|Product Description: AutoCAD Mechanical 2004 DX|Company: Autodesk"
 90
        0
280
     0
281
     0
  0
CLASS
  1
ACMIDSTANDARDDIN
  2
AcmIdStdDIN
  3
"Amdt_StdImp|Product Description: AutoCAD Mechanical 2004 DX|Company: Autodesk"
 90
        0
280
     0
281
     0
  0
CLASS
  1
ACMDATUMSTANDARDDIN
  2
AcmDatumStdDIN
  3
"Amdt_StdImp|Product Description: AutoCAD Mechanical 2004 DX|Company: Autodesk"
 90
        0
280
     0
281
     0
  0
CLASS
  1
ACMBOMSTANDARDDIN
  2
AcmBOMStdDIN
  3
"Amdt_StdImp|Product Description: AutoCAD Mechanical 2004 DX|Company: Autodesk"
 90
        0
280
     0
281
     0
  0
CLASS
  1
ACMDETAILSTANDARDDIN
  2
AmdtDetailSymStdDIN
  3
"Amdt_StdImp|Product Description: AutoCAD Mechanical 2004 DX|Company: Autodesk"
 90
        0
280
     0
281
     0
  0
CLASS
  1
ACMSECTIONSTANDARDDIN
  2
AmdtSectionSymStdDIN
  3
"Amdt_StdImp|Product Description: AutoCAD Mechanical 2004 DX|Company: Autodesk"
 90
        0
280
     0
281
     0
  0
CLASS
  1
ACMCENTERLINESTANDARDDIN
  2
AmdtCenterLineStdDIN
  3
"Amdt_StdImp|Product Description: AutoCAD Mechanical 2004 DX|Company: Autodesk"
 90
        0
280
     0
281
     0
  0
CLASS
  1
ACMTHREADLINESTANDARDDIN
  2
AmdtThreadLineStdDIN
  3
"Amdt_StdImp|Product Description: AutoCAD Mechanical 2004 DX|Company: Autodesk"
 90
        0
280
     0
281
     0
  0
CLASS
  1
ACMNOTESTANDARDDIN
  2
AmdtNoteStdDIN
  3
"Amdt_StdImp|Product Description: AutoCAD Mechanical 2004 DX|Company: Autodesk"
 90
        0
280
     0
281
     0
  0
CLASS
  1
AMDTNOTETEMPLATEDB
  2
AmdtNoteTemplateDB
  3
AMDT_STDIMP_MODULE_NAME
 90
        0
280
     0
281
     0
  0
CLASS
  1
ACAMGLAYSTD
  2
AcAmgLayStd
  3
"AcAmgLayStd|Product Description: AutoCAD Mechanical 2000|Company: Autodesk"
 90
        0
280
     0
281
     0
  0
CLASS
  1
ACAMGDIMSTD
  2
AcAmgDimStd
  3
"AcAmgDimStd|Product Description: AutoCAD Mechanical 2000|Company: Autodesk"
 90
        0
280
     0
281
     0
  0
CLASS
  1
ACAMGHOLECHARTSTDDIN
  2
AcAmgHoleChartStdDIN
  3
ACMSYMBB_MODULE_NAME
 90
        0
280
     0
281
     0
  0
CLASS
  1
ACAMGTITLESTD
  2
AcAmgTitleStd
  3
"TITLEAPP"
 90
        0
280
     0
281
     0
  0
CLASS
  1
ACAMGFILTERDAT
  2
AcAmgFilterDat
  3
"AcadM|Product Description: AutoCAD Mechanical 2000|Company: Autodesk"
 90
        0
280
     0
281
     0
  0
CLASS
  1
ACRFATTGENMGR
  2
AcRfAttGeneralMgr
  3
AcAttribServices
 90
    32768
280
     0
281
     0
  0
ENDSEC
  0
SECTION
  2
TABLES
  0
TABLE
  2
VPORT
  5
8
330
0
100
AcDbSymbolTable
 70
     4
  0
VPORT
  5
10D1
330
8
100
AcDbSymbolTableRecord
100
AcDbViewportTableRecord
  2
*Active
 70
     0
 10
0.0
 20
0.0
 11
1.0
 21
1.0
 12
-55.66485279925212
 22
113.1854788608446
 13
0.0
 23
0.0
 14
10.0
 24
10.0
 15
10.0
 25
10.0
 16
0.0
 26
0.0
 36
1.0
 17
0.0
 27
0.0
 37
0.0
 40
231.5172217774009
 41
1.494545454545454
 42
50.0
 43
0.0
 44
0.0
 50
0.0
 51
0.0
 71
     0
 72
  1000
 73
     1
 74
     3
 75
     0
 76
     0
 77
     0
 78
     0
281
     0
 65
     0
110
0.0
120
0.0
130
0.0
111
1.0
121
0.0
131
0.0
112
0.0
122
1.0
132
0.0
 79
     0
146
0.0
  0
ENDTAB
  0
TABLE
  2
LTYPE
  5
5
330
0
100
AcDbSymbolTable
 70
    21
  0
LTYPE
  5
14
330
5
100
AcDbSymbolTableRecord
100
AcDbLinetypeTableRecord
  2
ByBlock
 70
     0
  3

 72
    65
 73
     0
 40
0.0
  0
LTYPE
  5
15
330
5
100
AcDbSymbolTableRecord
100
AcDbLinetypeTableRecord
  2
ByLayer
 70
     0
  3

 72
    65
 73
     0
 40
0.0
  0
LTYPE
  5
16
330
5
100
AcDbSymbolTableRecord
100
AcDbLinetypeTableRecord
  2
Continuous
 70
     0
  3
Solid line
 72
    65
 73
     0
 40
0.0
  0
LTYPE
  5
86
330
5
100
AcDbSymbolTableRecord
100
AcDbLinetypeTableRecord
  2
DASHDOT
 70
     0
  3
 __ . __ . __ . __ . __ . __ . __ . 
 72
    65
 73
     4
 40
18.5
 49
12.0
 74
     0
 49
-3.0
 74
     0
 49
0.5
 74
     0
 49
-3.0
 74
     0
  0
LTYPE
  5
E4B
330
5
100
AcDbSymbolTableRecord
100
AcDbLinetypeTableRecord
  2
HIDDEN
 70
     0
  3
Verdeckt
 72
    65
 73
     2
 40
9.525
 49
6.349999999999999
 74
     0
 49
-3.174999999999999
 74
     0
  0
LTYPE
  5
E4C
330
5
100
AcDbSymbolTableRecord
100
AcDbLinetypeTableRecord
  2
PHANTOM2
 70
     0
  3
Phantom (.5x) ___ _ _ ___ _ _ ___ _ _ ___ _ _
 72
    65
 73
     6
 40
31.75
 49
15.875
 74
     0
 49
-3.174999999999999
 74
     0
 49
3.174999999999999
 74
     0
 49
-3.174999999999999
 74
     0
 49
3.174999999999999
 74
     0
 49
-3.174999999999999
 74
     0
  0
LTYPE
  5
E4D
330
5
100
AcDbSymbolTableRecord
100
AcDbLinetypeTableRecord
  2
CENTER
 70
     0
  3
Mitte ____ _ ____ _ ____ _ ____ _ ____ _ ____
 72
    65
 73
     4
 40
50.8
 49
31.75
 74
     0
 49
-6.349999999999999
 74
     0
 49
6.349999999999999
 74
     0
 49
-6.349999999999999
 74
     0
  0
LTYPE
  5
E84
330
5
100
AcDbSymbolTableRecord
100
AcDbLinetypeTableRecord
  2
Amconstr
 70
     0
  3
_______________________
 72
    65
 73
     2
 40
9999.0
 49
9999.0
 74
     0
 49
0.0
 74
     0
  0
LTYPE
  5
E89
330
5
100
AcDbSymbolTableRecord
100
AcDbLinetypeTableRecord
  2
Amzigzag
 70
     0
  3
/\/-/\/-/\/-/\/-/\/-/\/
 72
    65
 73
     2
 40
11.0001
 49
0.0001
 74
     4
 75
   135
340
E88
 46
0.04
 50
0.0
 44
0.0
 45
0.0
 49
-11.0
 74
     0
  0
LTYPE
  5
E8A
330
5
100
AcDbSymbolTableRecord
100
AcDbLinetypeTableRecord
  2
AM_DIN_F_W050
 70
     0
  3
__ __ __ __ __ __ __ __ __ __ __ __ __ __ __
 72
    65
 73
     2
 40
6.25
 49
4.75
 74
     0
 49
-1.5
 74
     0
  0
LTYPE
  5
E8B
330
5
100
AcDbSymbolTableRecord
100
AcDbLinetypeTableRecord
  2
AM_DIN_G_W050
 70
     0
  3
____ . ____ . ____ . ____ . ____ . ____ . ____
 72
    65
 73
     4
 40
13.75
 49
9.75
 74
     0
 49
-1.5
 74
     0
 49
1.0
 74
     0
 49
-1.5
 74
     0
  0
LTYPE
  5
E8C
330
5
100
AcDbSymbolTableRecord
100
AcDbLinetypeTableRecord
  2
AM_DIN_K_W050
 70
     0
  3
_____ . . _____ . . _____ . . ____ .. ____
 72
    65
 73
     6
 40
16.25
 49
9.75
 74
     0
 49
-1.5
 74
     0
 49
1.0
 74
     0
 49
-1.5
 74
     0
 49
1.0
 74
     0
 49
-1.5
 74
     0
  0
LTYPE
  5
E8D
330
5
100
AcDbSymbolTableRecord
100
AcDbLinetypeTableRecord
  2
AM_DIN_G_W050x2
 70
     0
  3
__ . __ . __ . __ . __ . __
 72
    65
 73
     4
 40
6.875
 49
4.75
 74
     0
 49
-0.875
 74
     0
 49
0.375
 74
     0
 49
-0.875
 74
     0
  0
LTYPE
  5
E8E
330
5
100
AcDbSymbolTableRecord
100
AcDbLinetypeTableRecord
  2
AM_DIN_F_W050x2
 70
     0
  3
 _ _ _ _ _ _ _ _ _ _ _ _
 72
    65
 73
     2
 40
3.125
 49
2.25
 74
     0
 49
-0.875
 74
     0
  0
LTYPE
  5
E9D
330
5
100
AcDbSymbolTableRecord
100
AcDbLinetypeTableRecord
  2
ACDINWELD
 70
     0
  3
_ _ _ _ _
 72
    65
 73
     2
 40
2.0
 49
2.0
 74
     0
 49
-1.0
 74
     0
  0
LTYPE
  5
E9E
330
5
100
AcDbSymbolTableRecord
100
AcDbLinetypeTableRecord
  2
ACDINTGB
 70
     0
  3
__ . . __ . .
 72
    65
 73
     6
 40
9.0
 49
4.0
 74
     0
 49
-1.0
 74
     0
 49
1.0
 74
     0
 49
-1.0
 74
     0
 49
1.0
 74
     0
 49
-1.0
 74
     0
  0
LTYPE
  5
E9F
330
5
100
AcDbSymbolTableRecord
100
AcDbLinetypeTableRecord
  2
ACDINTGL
 70
     0
  3
_ _ _ _ _
 72
    65
 73
     2
 40
3.0
 49
2.0
 74
     0
 49
-1.0
 74
     0
  0
ENDTAB
  0
TABLE
  2
LAYER
  5
2
330
0
100
AcDbSymbolTable
 70
     3
  0
LAYER
  5
10
330
2
100
AcDbSymbolTableRecord
100
AcDbLayerTableRecord
  2
0
 70
     0
 62
     7
  6
Continuous
370
    -3
390
F
  0
LAYER
  5
8EF
330
2
100
AcDbSymbolTableRecord
100
AcDbLayerTableRecord
  2
Defpoints
 70
     0
 62
     7
  6
Continuous
290
     0
370
    -3
390
F
  0
ENDTAB
  0
TABLE
  2
STYLE
  5
3
330
0
100
AcDbSymbolTable
 70
     4
  0
STYLE
  5
11
330
3
100
AcDbSymbolTableRecord
100
AcDbTextStyleTableRecord
  2
Standard
 70
     0
 40
0.0
 41
1.0
 50
0.0
 71
     0
 42
2.5
  3
txt
  4

  0
STYLE
  5
E88
330
3
100
AcDbSymbolTableRecord
100
AcDbTextStyleTableRecord
  2

 70
     1
 40
0.0
 41
1.0
 50
0.0
 71
     0
 42
2.5
  3
ltypeshp.shx
  4

  0
STYLE
  5
E8F
330
3
100
AcDbSymbolTableRecord
100
AcDbTextStyleTableRecord
  2
ACDINTS
 70
     0
 40
1.0
 41
1.0
 50
0.0
 71
     0
 42
2.5
  3
isocp.shx
  4

  0
STYLE
  5
E9C
330
3
100
AcDbSymbolTableRecord
100
AcDbTextStyleTableRecord
  2
ACDINGDT
 70
     0
 40
0.0
 41
1.0
 50
0.0
 71
     0
 42
2.5
  3
amgdt.shx
  4

  0
ENDTAB
  0
TABLE
  2
VIEW
  5
6
330
0
100
AcDbSymbolTable
 70
     0
  0
ENDTAB
  0
TABLE
  2
UCS
  5
7
330
0
100
AcDbSymbolTable
 70
     0
  0
ENDTAB
  0
TABLE
  2
APPID
  5
9
330
0
100
AcDbSymbolTable
 70
    12
  0
APPID
  5
12
330
9
100
AcDbSymbolTableRecord
100
AcDbRegAppTableRecord
  2
ACAD
 70
     0
  0
APPID
  5
E1C
330
9
100
AcDbSymbolTableRecord
100
AcDbRegAppTableRecord
  2
MCAD_NO_VIS
 70
     0
  0
APPID
  5
E1D
330
9
100
AcDbSymbolTableRecord
100
AcDbRegAppTableRecord
  2
ACAD_TEMP_GRAPHIC
 70
     0
  0
APPID
  5
E4F
330
9
100
AcDbSymbolTableRecord
100
AcDbRegAppTableRecord
  2
AD_DRAW
 70
     0
  0
APPID
  5
E52
330
9
100
AcDbSymbolTableRecord
100
AcDbRegAppTableRecord
  2
ACATTRIBSERVICES
 70
     0
  0
APPID
  5
E70
330
9
100
AcDbSymbolTableRecord
100
AcDbRegAppTableRecord
  2
DESIGNERASSEMBLIES
 70
     0
  0
APPID
  5
E76
330
9
100
AcDbSymbolTableRecord
100
AcDbRegAppTableRecord
  2
ACADM_DIM_EDIT
 70
     0
  0
APPID
  5
E77
330
9
100
AcDbSymbolTableRecord
100
AcDbRegAppTableRecord
  2
AMDT_DM_ADJ
 70
     0
  0
APPID
  5
EEF
330
9
100
AcDbSymbolTableRecord
100
AcDbRegAppTableRecord
  2
GENIUS_GENDTOL_13
 70
     0
  0
APPID
  5
106C
330
9
100
AcDbSymbolTableRecord
100
AcDbRegAppTableRecord
  2
GENIUS_GENDIMSH_14
 70
     0
  0
APPID
  5
1091
330
9
100
AcDbSymbolTableRecord
100
AcDbRegAppTableRecord
  2
ACAD_DSTYLE_DIMARC_LENGTH_SYMBOL
 70
     0
  0
APPID
  5
1092
330
9
100
AcDbSymbolTableRecord
100
AcDbRegAppTableRecord
  2
ACAD_DSTYLE_DIMJOGGED_JOGANGLE_SYMBOL
 70
     0
  0
ENDTAB
  0
TABLE
  2
DIMSTYLE
  5
A
330
0
100
AcDbSymbolTable
 70
    11
100
AcDbDimStyleTable
 71
     1
340
27
  0
DIMSTYLE
105
27
330
A
100
AcDbSymbolTableRecord
100
AcDbDimStyleTableRecord
  2
ISO-25
 70
     0
 41
2.5
 42
0.625
 43
3.75
 44
1.25
 73
     0
 74
     0
 77
     1
 78
     8
140
2.5
141
2.5
143
0.03937007874016
147
0.625
171
     3
172
     1
271
     2
272
     2
274
     3
278
    44
283
     0
284
     8
340
11
  0
DIMSTYLE
105
87
330
A
100
AcDbSymbolTableRecord
100
AcDbDimStyleTableRecord
  2
STANDARD
 70
     0
340
11
  0
DIMSTYLE
105
EA9
330
A
100
AcDbSymbolTableRecord
100
AcDbDimStyleTableRecord
  2
AM_DIN
 70
     0
  4
"
 41
2.5
 42
1.0
 43
10.0
 44
1.0
 47
0.1
 48
0.1
 73
     0
 74
     0
 77
     1
 78
     8
 79
     2
140
3.5
141
0.0
143
0.0393701
146
0.71
147
1.5
172
     1
176
   256
177
   256
178
     2
271
     2
272
     3
274
     4
283
     0
284
     8
340
11
371
    -1
372
    -1
1001
ACAD_DSTYLE_DIMARC_LENGTH_SYMBOL
1070
   379
1070
     0
1001
ACAD_DSTYLE_DIMJOGGED_JOGANGLE_SYMBOL
1070
   384
1040
1.570796326794896
  0
DIMSTYLE
105
EAA
330
A
100
AcDbSymbolTableRecord
100
AcDbDimStyleTableRecord
  2
AM_DIN$3
 70
     0
  4
"
 41
2.5
 42
1.0
 43
10.0
 44
1.0
 47
0.1
 48
0.1
 73
     0
 77
     1
 78
     8
 79
     2
140
3.5
141
0.0
143
0.0393701
146
0.71
147
1.5
176
   256
177
   256
178
     2
271
     2
272
     3
274
     4
283
     0
284
     8
288
     1
289
     0
340
11
371
    -1
372
    -1
1001
ACAD_DSTYLE_DIMARC_LENGTH_SYMBOL
1070
   379
1070
     0
1001
ACAD_DSTYLE_DIMJOGGED_JOGANGLE_SYMBOL
1070
   384
1040
1.570796326794896
  0
DIMSTYLE
105
EAB
330
A
100
AcDbSymbolTableRecord
100
AcDbDimStyleTableRecord
  2
AM_DIN$4
 70
     0
  4
"
 41
2.5
 42
1.0
 43
10.0
 44
1.0
 47
0.1
 48
0.1
 73
     0
 77
     1
 78
     8
 79
     2
140
3.5
141
0.0
143
0.0393701
146
0.71
147
1.5
176
   256
177
   256
178
     2
271
     2
272
     3
274
     4
283
     0
284
     8
288
     1
289
     0
340
11
371
    -1
372
    -1
1001
ACAD_DSTYLE_DIMARC_LENGTH_SYMBOL
1070
   379
1070
     0
1001
ACAD_DSTYLE_DIMJOGGED_JOGANGLE_SYMBOL
1070
   384
1040
1.570796326794896
  0
DIMSTYLE
105
EAC
330
A
100
AcDbSymbolTableRecord
100
AcDbDimStyleTableRecord
  2
AM_DIN$6
 70
     0
  4
"
 41
2.5
 42
1.0
 43
10.0
 44
1.0
 47
0.1
 48
0.1
 73
     0
 74
     0
 78
     8
 79
     2
140
3.5
141
0.0
143
0.0393701
146
0.71
147
1.5
172
     1
176
   256
177
   256
178
     2
271
     2
272
     3
274
     4
283
     0
284
     8
340
11
371
    -1
372
    -1
1001
ACAD_DSTYLE_DIMARC_LENGTH_SYMBOL
1070
   379
1070
     0
1001
ACAD_DSTYLE_DIMJOGGED_JOGANGLE_SYMBOL
1070
   384
1040
1.570796326794896
  0
DIMSTYLE
105
EAD
330
A
100
AcDbSymbolTableRecord
100
AcDbDimStyleTableRecord
  2
AM_DIN$7
 70
     0
  4
"
 41
2.5
 42
1.0
 43
10.0
 44
1.0
 47
0.1
 48
0.1
 73
     0
 74
     0
 77
     1
 78
     8
 79
     2
140
5.0
141
0.0
143
0.0393701
146
0.71
147
1.5
172
     1
176
   256
177
   256
178
     2
271
     2
272
     3
274
     4
283
     0
284
     8
340
11
371
    -1
372
    -1
1001
ACAD_DSTYLE_DIMARC_LENGTH_SYMBOL
1070
   379
1070
     0
1001
ACAD_DSTYLE_DIMJOGGED_JOGANGLE_SYMBOL
1070
   384
1040
1.570796326794896
  0
DIMSTYLE
105
EAE
330
A
100
AcDbSymbolTableRecord
100
AcDbDimStyleTableRecord
  2
AM_DIN$SF
 70
     0
  4
"
 41
2.5
 42
1.0
 43
10.0
 44
1.0
 47
0.1
 48
0.1
 73
     0
 74
     0
 75
     1
 76
     1
 77
     1
 78
     8
 79
     2
140
3.5
141
0.0
143
0.0393701
146
0.71
147
1.5
172
     1
176
   256
177
   256
178
     2
271
     2
272
     3
274
     4
283
     0
284
     8
340
11
371
    -1
372
    -1
1001
ACAD_DSTYLE_DIMARC_LENGTH_SYMBOL
1070
   379
1070
     0
1001
ACAD_DSTYLE_DIMJOGGED_JOGANGLE_SYMBOL
1070
   384
1040
1.570796326794896
  0
DIMSTYLE
105
EB3
330
A
100
AcDbSymbolTableRecord
100
AcDbDimStyleTableRecord
  2
AM_DIN$SH
 70
     0
  4
"
 41
2.5
 42
1.0
 43
10.0
 44
1.0
 47
0.1
 48
0.1
 73
     0
 74
     0
 75
     1
 76
     1
 77
     1
 78
     8
 79
     2
140
3.5
141
0.0
143
0.0393701
144
2.0
146
0.71
147
1.5
172
     1
173
     1
176
   256
177
   256
178
     2
271
     2
272
     3
274
     4
283
     0
284
     8
340
11
343
EAF
371
    -1
372
    -1
1001
ACAD_DSTYLE_DIMARC_LENGTH_SYMBOL
1070
   379
1070
     0
1001
ACAD_DSTYLE_DIMJOGGED_JOGANGLE_SYMBOL
1070
   384
1040
1.570796326794896
  0
DIMSTYLE
105
ED3
102
{ACAD_REACTORS
330
F6B
330
FCE
102
}
330
A
100
AcDbSymbolTableRecord
100
AcDbDimStyleTableRecord
  2
ISO-25$0
 70
     0
 41
2.5
 42
0.625
 43
3.75
 44
1.25
 73
     0
 74
     0
 77
     1
 78
     8
140
2.5
141
2.5
143
0.03937007874016
147
0.625
171
     3
172
     1
271
     2
272
     2
274
     3
278
    44
283
     0
284
     8
340
11
  0
ENDTAB
  0
TABLE
  2
BLOCK_RECORD
  5
1
330
0
100
AcDbSymbolTable
 70
     8
  0
BLOCK_RECORD
  5
1F
330
1
100
AcDbSymbolTableRecord
100
AcDbBlockTableRecord
  2
*Model_Space
340
22
  0
BLOCK_RECORD
  5
50
330
1
100
AcDbSymbolTableRecord
100
AcDbBlockTableRecord
  2
*Paper_Space
340
51
  0
BLOCK_RECORD
  5
55
330
1
100
AcDbSymbolTableRecord
100
AcDbBlockTableRecord
  2
*Paper_Space0
340
56
  0
BLOCK_RECORD
  5
EAF
330
1
100
AcDbSymbolTableRecord
100
AcDbBlockTableRecord
  2
GENAXEH
340
0
  0
BLOCK_RECORD
  5
F6C
330
1
100
AcDbSymbolTableRecord
100
AcDbBlockTableRecord
  2
*D5
340
0
  0
BLOCK_RECORD
  5
FCF
330
1
100
AcDbSymbolTableRecord
100
AcDbBlockTableRecord
  2
*D6
340
0
  0
ENDTAB
  0
ENDSEC
  0
SECTION
  2
BLOCKS
  0
BLOCK
  5
20
330
1F
100
AcDbEntity
  8
0
100
AcDbBlockBegin
  2
*Model_Space
 70
     0
 10
0.0
 20
0.0
 30
0.0
  3
*Model_Space
  1

  0
ENDBLK
  5
21
330
1F
100
AcDbEntity
  8
0
100
AcDbBlockEnd
  0
BLOCK
  5
52
330
50
100
AcDbEntity
 67
     1
  8
0
100
AcDbBlockBegin
  2
*Paper_Space
 70
     0
 10
0.0
 20
0.0
 30
0.0
  3
*Paper_Space
  1

  0
ENDBLK
  5
53
330
50
100
AcDbEntity
 67
     1
  8
0
100
AcDbBlockEnd
  0
BLOCK
  5
57
330
55
100
AcDbEntity
 67
     1
  8
0
100
AcDbBlockBegin
  2
*Paper_Space0
 70
     0
 10
0.0
 20
0.0
 30
0.0
  3
*Paper_Space0
  1

  0
ENDBLK
  5
58
330
55
100
AcDbEntity
 67
     1
  8
0
100
AcDbBlockEnd
  0
BLOCK
  5
EB1
330
EAF
100
AcDbEntity
  8
0
100
AcDbBlockBegin
  2
GENAXEH
 70
     0
 10
0.0
 20
0.0
 30
0.0
  3
GENAXEH
  1

  0
LINE
  5
EB0
330
EAF
100
AcDbEntity
  8
0
100
AcDbLine
 10
-1.0
 20
0.0
 30
0.0
 11
1.0
 21
0.0
 31
0.0
  0
ENDBLK
  5
EB2
330
EAF
100
AcDbEntity
  8
0
100
AcDbBlockEnd
  0
BLOCK
  5
F76
330
F6C
100
AcDbEntity
  8
0
100
AcDbBlockBegin
  2
*D5
 70
     1
 10
0.0
 20
0.0
 30
0.0
  3
*D5
  1

  0
LINE
  5
10B8
330
F6C
100
AcDbEntity
  8
0
 62
     0
370
    -2
100
AcDbLine
 10
-120.913238045851
 20
151.9644636141926
 30
0.0
 11
-217.0620368503545
 21
151.9644636141926
 31
0.0
  0
LINE
  5
10B9
330
F6C
100
AcDbEntity
  8
0
 62
     0
370
    -2
100
AcDbLine
 10
-166.0111067789834
 20
70.73189811358975
 30
0.0
 11
-217.0620368503545
 21
70.73189811358975
 31
0.0
  0
LINE
  5
10BA
330
F6C
100
AcDbEntity
  8
0
 62
     0
370
    -2
100
AcDbLine
 10
-215.8120368503545
 20
141.9644636141926
 30
0.0
 11
-215.8120368503545
 21
80.73189811358975
 31
0.0
  0
SOLID
  5
10BB
330
F6C
100
AcDbEntity
  8
0
 62
     0
100
AcDbTrace
 10
-217.4787035170211
 20
141.9644636141926
 30
0.0
 11
-214.1453701836878
 21
141.9644636141926
 31
0.0
 12
-215.8120368503545
 22
151.9644636141926
 32
0.0
 13
-215.8120368503545
 23
151.9644636141926
 33
0.0
  0
SOLID
  5
10BC
330
F6C
100
AcDbEntity
  8
0
 62
     0
100
AcDbTrace
 10
-217.4787035170211
 20
80.73189811358975
 30
0.0
 11
-214.1453701836878
 21
80.73189811358975
 31
0.0
 12
-215.8120368503545
 22
70.73189811358975
 32
0.0
 13
-215.8120368503545
 23
70.73189811358975
 33
0.0
  0
MTEXT
  5
10BD
330
F6C
100
AcDbEntity
  8
0
 62
     2
100
AcDbMText
 10
-222.8120368503545
 20
111.3481808638911
 30
0.0
 40
10.0
 41
0.0
 71
     5
 72
     1
  1
82
 11
0.0000000000000001
 21
1.0
 31
0.0
 73
     1
 44
1.0
1001
ACAD
1000
MTEXTBEGIN
1070
    73
1070
     1
1070
    44
1040
1.0
1070
    74
1070
     0
1000
MTEXTEND
  0
POINT
  5
10BE
330
F6C
100
AcDbEntity
  8
Defpoints
 62
     0
100
AcDbPoint
 10
-120.288238045851
 20
151.9644636141926
 30
0.0
  0
POINT
  5
10BF
330
F6C
100
AcDbEntity
  8
Defpoints
 62
     0
100
AcDbPoint
 10
-165.3861067789834
 20
70.73189811358975
 30
0.0
  0
POINT
  5
10C0
330
F6C
100
AcDbEntity
  8
Defpoints
 62
     0
100
AcDbPoint
 10
-215.8120368503545
 20
70.73189811358975
 30
0.0
  0
ENDBLK
  5
F77
330
F6C
100
AcDbEntity
  8
0
100
AcDbBlockEnd
  0
BLOCK
  5
FD9
330
FCF
100
AcDbEntity
  8
0
100
AcDbBlockBegin
  2
*D6
 70
     1
 10
0.0
 20
0.0
 30
0.0
  3
*D6
  1

  0
LINE
  5
10C1
330
FCF
100
AcDbEntity
  8
0
 62
     0
370
    -2
100
AcDbLine
 10
57.23263704876934
 20
117.9794235072673
 30
0.0
 11
116.3253167584279
 21
116.4320259410582
 31
0.0
  0
LINE
  5
10C2
330
FCF
100
AcDbEntity
  8
0
 62
     0
370
    -2
100
AcDbLine
 10
55.92373804876936
 20
67.99654350726735
 30
0.0
 11
115.0164678574447
 21
66.44914462916823
 31
0.0
  0
LINE
  5
10C3
330
FCF
100
AcDbEntity
  8
0
 62
     0
370
    -2
100
AcDbLine
 10
114.8139754017635
 20
106.4681739096581
 30
0.0
 11
114.0286659030979
 21
76.47843908585802
 31
0.0
  0
SOLID
  5
10C4
330
FCF
100
AcDbEntity
  8
0
 62
     0
100
AcDbTrace
 10
113.1478798610894
 20
106.5118021931845
 30
0.0
 11
116.4800709424377
 21
106.4245456261316
 31
0.0
 12
115.0757451029223
 22
116.464747153703
 32
0.0
 13
115.0757451029223
 23
116.464747153703
 33
0.0
  0
SOLID
  5
10C5
330
FCF
100
AcDbEntity
  8
0
 62
     0
100
AcDbTrace
 10
112.3625703624237
 20
76.52206736938447
 30
0.0
 11
115.694761443772
 21
76.43481080233157
 31
0.0
 12
113.7668962019391
 22
66.48186584181307
 32
0.0
 13
113.7668962019391
 23
66.48186584181307
 33
0.0
  0
MTEXT
  5
10C6
330
FCF
100
AcDbEntity
  8
0
 62
     2
100
AcDbMText
 10
107.4237193815992
 20
91.6565452885692
 30
0.0
 40
10.0
 41
0.0
 71
     5
 72
     1
  1
DN50
 11
0.0261769701158732
 21
0.9996573244044945
 31
0.0
 73
     1
 44
1.0
1001
ACAD
1000
MTEXTBEGIN
1070
    73
1070
     1
1070
    44
1040
1.0
1070
    74
1070
     0
1000
MTEXTEND
  0
POINT
  5
10C7
330
FCF
100
AcDbEntity
  8
Defpoints
 62
     0
100
AcDbPoint
 10
56.60785122101653
 20
117.9957841135897
 30
0.0
  0
POINT
  5
10C8
330
FCF
100
AcDbEntity
  8
Defpoints
 62
     0
100
AcDbPoint
 10
55.29895222101655
 20
68.01290411358976
 30
0.0
  0
POINT
  5
10C9
330
FCF
100
AcDbEntity
  8
Defpoints
 62
     0
100
AcDbPoint
 10
113.7668962019391
 20
66.48186584181307
 30
0.0
  0
ENDBLK
  5
FDA
330
FCF
100
AcDbEntity
  8
0
100
AcDbBlockEnd
  0
ENDSEC
  0
SECTION
  2
ENTITIES
  0
LINE
  5
908
330
1F
100
AcDbEntity
  8
0
  6
DASHDOT
 62
     7
 48
0.180152
100
AcDbLine
 10
-55.77978377898347
 20
79.03219111358976
 30
0.0
 11
-55.77978377898347
 21
71.82612111358975
 31
0.0
  0
LINE
  5
909
330
1F
100
AcDbEntity
  8
0
  6
DASHDOT
 62
     7
 48
0.2189999999999999
100
AcDbLine
 10
-162.7497537789834
 20
97.93189511358974
 30
0.0
 11
-171.5097637789834
 21
97.93189511358974
 31
0.0
  0
LINE
  5
90A
330
1F
100
AcDbEntity
  8
0
  6
DASHDOT
 62
     4
100
AcDbLine
 10
-11.64916777898347
 20
94.77457711358978
 30
0.0
 11
66.9647232210165
 21
92.71599911358975
 31
0.0
  0
LINE
  5
90B
330
1F
100
AcDbEntity
  8
0
  6
DASHDOT
 62
     4
100
AcDbLine
 10
-105.2731307789834
 20
97.93189511358974
 30
0.0
 11
-156.9895007789834
 21
97.93189511358974
 31
0.0
  0
LINE
  5
90C
330
1F
100
AcDbEntity
  8
0
  6
DASHDOT
 62
     7
 48
0.252
100
AcDbLine
 10
-153.0397927789834
 20
97.93189511358974
 30
0.0
 11
-163.1198107789834
 21
97.93189511358974
 31
0.0
  0
LINE
  5
90F
330
1F
100
AcDbEntity
  8
0
  6
DASHDOT
 62
     4
100
AcDbLine
 10
-55.77978377898347
 20
71.30228711358975
 30
0.0
 11
-55.77978377898347
 21
161.1289239025964
 31
0.0
  0
ARC
  5
910
330
1F
100
AcDbEntity
  8
0
 62
     7
100
AcDbCircle
 10
-105.4354227789834
 20
82.03130611358975
 30
0.0
 40
12.5
100
AcDbArc
 50
248.0082279999987
 51
271.8844860000028
  0
LINE
  5
911
330
1F
100
AcDbEntity
  8
0
 62
     7
100
AcDbLine
 10
-105.0244127789835
 20
69.53806611358975
 30
0.0
 11
-6.535154778983467
 21
69.53808111358975
 31
0.0
  0
ARC
  5
912
330
1F
100
AcDbEntity
  8
0
 62
     7
100
AcDbCircle
 10
-6.124021778983517
 20
82.03135211358974
 30
0.0
 40
12.500036
100
AcDbArc
 50
270.0008080000007
 51
273.9968109999979
  0
ARC
  5
913
330
1F
100
AcDbEntity
  8
0
 62
     7
100
AcDbCircle
 10
-6.124021778983517
 20
82.03135211358974
 30
0.0
 40
12.500036
100
AcDbArc
 50
268.1155189999987
 51
270.0008080000007
  0
LINE
  5
914
330
1F
100
AcDbEntity
  8
0
 62
     7
 48
0.023196
100
AcDbLine
 10
-126.1049787789835
 20
125.4475971135897
 30
0.0
 11
-126.1535627789835
 21
126.3741561135897
 31
0.0
  0
LINE
  5
915
330
1F
100
AcDbEntity
  8
0
 62
     7
 48
0.117797
100
AcDbLine
 10
14.34741422101652
 20
121.6687271135898
 30
0.0
 11
14.59399622101651
 21
126.3741561135897
 31
0.0
  0
ARC
  5
916
330
1F
100
AcDbEntity
  8
0
 62
     7
100
AcDbCircle
 10
-4.695249778983536
 20
61.58117211358975
 30
0.0
 40
8.0
100
AcDbArc
 50
88.5000470000013
 51
93.99681900000256
  0
ARC
  5
917
330
1F
100
AcDbEntity
  8
0
 62
     7
100
AcDbCircle
 10
-111.6142557789834
 20
66.73189811358975
 30
0.0
 40
3.999998
100
AcDbArc
 50
68.00822300000027
 51
90.00000399999908
  0
ARC
  5
918
330
1F
100
AcDbEntity
  8
0
 62
     7
100
AcDbCircle
 10
-55.77978377898347
 20
-1427.15201288641
 30
0.0
 40
1497.5
100
AcDbArc
 50
88.1155139999972
 51
89.72493199999759
  0
ARC
  5
919
330
1F
100
AcDbEntity
  8
0
 62
     7
100
AcDbCircle
 10
-55.77978377898347
 20
-1427.15201288641
 30
0.0
 40
1497.5
100
AcDbArc
 50
90.27507000000223
 51
91.88448799999951
  0
LINE
  5
91A
330
1F
100
AcDbEntity
  8
0
 62
     7
 48
0.359467
100
AcDbLine
 10
-48.59045277898343
 20
70.33073011358975
 30
0.0
 11
-62.96911477898341
 21
70.33073011358975
 31
0.0
  0
LINE
  5
91B
330
1F
100
AcDbEntity
  8
0
 62
     7
100
AcDbLine
 10
-111.6142557789834
 20
70.73189811358975
 30
0.0
 11
-151.8797587789834
 21
70.73189811358975
 31
0.0
  0
LINE
  5
91C
330
1F
100
AcDbEntity
  8
0
 62
     7
100
AcDbLine
 10
-126.4046007789835
 20
125.1318921135897
 30
0.0
 11
-151.8797587789834
 21
125.1318921135897
 31
0.0
  0
ARC
  5
91D
330
1F
100
AcDbEntity
  8
0
 62
     7
100
AcDbCircle
 10
16.84393522101655
 20
121.5378371135897
 30
0.0
 40
2.499986
100
AcDbArc
 50
176.9986559999994
 51
268.5013429999993
  0
ARC
  5
91E
330
1F
100
AcDbEntity
  8
0
 62
     7
100
AcDbCircle
 10
15.0933242210165
 20
126.3480021135897
 30
0.0
 40
0.499992
100
AcDbArc
 50
89.99851500000021
 51
177.0014849999993
  0
ARC
  5
91F
330
1F
100
AcDbEntity
  8
0
 62
     7
100
AcDbCircle
 10
-126.6528917789834
 20
126.3479871135897
 30
0.0
 40
0.499992
100
AcDbArc
 50
2.998515999999907
 51
90.00148600000121
  0
ARC
  5
920
330
1F
100
AcDbEntity
  8
0
 62
     7
100
AcDbCircle
 10
-126.4046007789835
 20
125.4318801135897
 30
0.0
 40
0.299999
100
AcDbArc
 50
269.998633000003
 51
3.001358000000252
  0
LINE
  5
921
102
{ACAD_REACTORS
330
FDC
102
}
330
1F
100
AcDbEntity
  8
0
 62
     7
100
AcDbLine
 10
16.77850522101656
 20
119.0387531135897
 30
0.0
 11
56.60785122101653
 21
117.9957841135897
 31
0.0
  0
LINE
  5
922
102
{ACAD_REACTORS
330
FDC
102
}
330
1F
100
AcDbEntity
  8
0
 62
     7
100
AcDbLine
 10
-4.486448778983428
 20
69.57844111358975
 30
0.0
 11
55.29895222101655
 21
68.01290411358976
 31
0.0
  0
ARC
  5
923
330
1F
100
AcDbEntity
  8
0
 62
     7
100
AcDbCircle
 10
-48.56890677898338
 20
74.83062311358975
 30
0.0
 40
4.499952999999997
100
AcDbArc
 50
212.2840369999991
 51
269.7252920000017
  0
ARC
  5
924
330
1F
100
AcDbEntity
  8
0
 62
     7
100
AcDbCircle
 10
-62.99065977898345
 20
74.83062311358975
 30
0.0
 40
4.499952999999997
100
AcDbArc
 50
270.2747129999977
 51
327.7159680000005
  0
ARC
  5
925
330
1F
100
AcDbEntity
  8
0
 62
     7
100
AcDbCircle
 10
-151.8798197789834
 20
125.6318771135897
 30
0.0
 40
0.499996
100
AcDbArc
 50
179.9986779999994
 51
270.0013209999976
  0
ARC
  5
926
330
1F
100
AcDbEntity
  8
0
 62
     7
100
AcDbCircle
 10
-151.8798197789834
 20
70.23189811358975
 30
0.0
 40
0.499996
100
AcDbArc
 50
89.99867900000245
 51
180.0013230000003
  0
LINE
  5
927
330
1F
100
AcDbEntity
  8
0
 62
     7
 48
0.028172
100
AcDbLine
 10
15.0933242210165
 20
126.8479871135897
 30
0.0
 11
16.2202162210165
 21
126.8479871135897
 31
0.0
  0
LINE
  5
928
330
1F
100
AcDbEntity
  8
0
 62
     7
 48
0.028172
100
AcDbLine
 10
-127.7797837789834
 20
126.8479871135897
 30
0.0
 11
-126.6528917789834
 21
126.8479871135897
 31
0.0
  0
ARC
  5
929
330
1F
100
AcDbEntity
  8
0
 62
     7
100
AcDbCircle
 10
55.36438122101654
 20
70.51205011358977
 30
0.0
 40
2.499997
100
AcDbArc
 50
268.4999840000026
 51
298.5000250000011
  0
ARC
  5
92A
330
1F
100
AcDbEntity
  8
0
 62
     7
100
AcDbCircle
 10
56.5423602210166
 20
115.4966381135897
 30
0.0
 40
2.499997
100
AcDbArc
 50
58.49997800000038
 51
88.50002000000023
  0
LINE
  5
92B
330
1F
100
AcDbEntity
  8
0
 62
     7
 48
0.106029
100
AcDbLine
 10
-56.92107977898348
 20
76.01264511358974
 30
0.0
 11
-59.18633877898338
 21
72.42711911358975
 31
0.0
  0
LINE
  5
92C
330
1F
100
AcDbEntity
  8
0
 62
     7
 48
0.106029
100
AcDbLine
 10
-54.63848677898346
 20
76.01264511358974
 30
0.0
 11
-52.37322877898344
 21
72.42711911358975
 31
0.0
  0
LINE
  5
92D
330
1F
100
AcDbEntity
  8
0
 62
     7
 48
0.0875
100
AcDbLine
 10
-152.3797587789834
 20
125.6318921135897
 30
0.0
 11
-152.3797587789834
 21
129.1318921135897
 31
0.0
  0
LINE
  5
92E
330
1F
100
AcDbEntity
  8
0
 62
     7
 48
0.0875
100
AcDbLine
 10
-152.3797587789834
 20
66.73189811358975
 30
0.0
 11
-152.3797587789834
 21
70.23189811358975
 31
0.0
  0
LINE
  5
92F
330
1F
100
AcDbEntity
  8
0
 62
     7
 48
0.0375
100
AcDbLine
 10
-127.7797837789834
 20
126.8479871135897
 30
0.0
 11
-127.7797837789834
 21
128.3479871135897
 31
0.0
  0
LINE
  5
930
330
1F
100
AcDbEntity
  8
0
 62
     7
 48
0.0375
100
AcDbLine
 10
16.2202162210165
 20
126.8479871135897
 30
0.0
 11
16.2202162210165
 21
128.3479871135897
 31
0.0
  0
LINE
  5
931
330
1F
100
AcDbEntity
  8
0
 62
     7
 48
0.058254
100
AcDbLine
 10
56.55725222101651
 20
68.31499811358975
 30
0.0
 11
58.60504322101657
 21
69.42684511358975
 31
0.0
  0
LINE
  5
932
330
1F
100
AcDbEntity
  8
0
 62
     7
 48
0.058255
100
AcDbLine
 10
57.84857322101655
 20
117.6282451135897
 30
0.0
 11
59.83539022101652
 21
116.4107471135897
 31
0.0
  0
LINE
  5
933
330
1F
100
AcDbEntity
  8
0
 62
     7
 48
0.022827
100
AcDbLine
 10
-55.32324077898334
 20
77.09638511358973
 30
0.0
 11
-56.23632677898336
 21
77.09638511358973
 31
0.0
  0
LINE
  5
934
330
1F
100
AcDbEntity
  8
0
 62
     7
 48
0.032049
100
AcDbLine
 10
-55.32324077898334
 20
77.09638511358973
 30
0.0
 11
-54.63848677898346
 21
76.01263011358975
 31
0.0
  0
LINE
  5
935
330
1F
100
AcDbEntity
  8
0
 62
     7
 48
0.032049
100
AcDbLine
 10
-56.23632677898336
 20
77.09638511358973
 30
0.0
 11
-56.92107977898348
 21
76.01263011358975
 31
0.0
  0
ARC
  5
936
330
1F
100
AcDbEntity
  8
0
 62
     7
100
AcDbCircle
 10
-153.8797587789834
 20
66.73185311358975
 30
0.0
 40
1.499989
100
AcDbArc
 50
269.9986880000021
 51
0.0013199999994504
  0
ARC
  5
937
330
1F
100
AcDbEntity
  8
0
 62
     7
100
AcDbCircle
 10
-153.8797587789834
 20
129.1319231135897
 30
0.0
 40
1.499989
100
AcDbArc
 50
359.9986839999997
 51
90.00132300000037
  0
ARC
  5
938
330
1F
100
AcDbEntity
  8
0
 62
     7
100
AcDbCircle
 10
15.7202162210165
 20
128.3479871135897
 30
0.0
 40
0.499996
100
AcDbArc
 50
359.9986839999997
 51
90.00132300000037
  0
ARC
  5
939
330
1F
100
AcDbEntity
  8
0
 62
     7
100
AcDbCircle
 10
-127.2797837789835
 20
128.3479871135897
 30
0.0
 40
0.499996
100
AcDbArc
 50
89.99867900000245
 51
180.0013230000003
  0
LINE
  5
93A
330
1F
100
AcDbEntity
  8
0
 62
     7
 48
0.017503
100
AcDbLine
 10
58.60504322101657
 20
69.42675311358977
 30
0.0
 11
58.62341522101658
 21
70.12661311358974
 31
0.0
  0
LINE
  5
93B
330
1F
100
AcDbEntity
  8
0
 62
     7
100
AcDbLine
 10
59.81701822101651
 20
115.7109941135897
 30
0.0
 11
58.62341522101658
 21
70.12661311358974
 31
0.0
  0
LINE
  5
93C
330
1F
100
AcDbEntity
  8
0
 62
     7
 48
0.017503
100
AcDbLine
 10
59.81701822101651
 20
115.7109941135897
 30
0.0
 11
59.83539022101652
 21
116.4108531135897
 31
0.0
  0
ARC
  5
93D
330
1F
100
AcDbEntity
  8
0
 62
     7
100
AcDbCircle
 10
-55.77978377898347
 20
76.80793311358977
 30
0.0
 40
0.5400580000000002
100
AcDbArc
 50
32.28439999999879
 51
147.7156050000002
  0
LINE
  5
93E
330
1F
100
AcDbEntity
  8
0
 62
     7
 48
0.210001
100
AcDbLine
 10
-153.8797587789834
 20
65.23189811358975
 30
0.0
 11
-162.2797837789834
 21
65.23189811358975
 31
0.0
  0
LINE
  5
93F
330
1F
100
AcDbEntity
  8
0
 62
     7
 48
0.210001
100
AcDbLine
 10
-153.8797587789834
 20
130.6318921135897
 30
0.0
 11
-162.2797837789834
 21
130.6318921135897
 31
0.0
  0
LINE
  5
940
330
1F
100
AcDbEntity
  8
0
 62
     7
 48
0.075642
100
AcDbLine
 10
-124.2542707789834
 20
128.8479871135898
 30
0.0
 11
-127.2799667789834
 21
128.8479871135898
 31
0.0
  0
LINE
  5
941
330
1F
100
AcDbEntity
  8
0
 62
     7
 48
0.011868
100
AcDbLine
 10
-123.7795397789834
 20
128.8479871135898
 30
0.0
 11
-124.2542707789834
 21
128.8479871135898
 31
0.0
  0
LINE
  5
942
330
1F
100
AcDbEntity
  8
0
 62
     7
 48
0.01187
100
AcDbLine
 10
12.69470422101645
 20
128.8479871135898
 30
0.0
 11
12.21991122101659
 21
128.8479871135898
 31
0.0
  0
LINE
  5
943
330
1F
100
AcDbEntity
  8
0
 62
     7
 48
0.075642
100
AcDbLine
 10
15.72039922101649
 20
128.8479871135898
 30
0.0
 11
12.69470422101645
 21
128.8479871135898
 31
0.0
  0
LWPOLYLINE
  5
944
330
1F
100
AcDbEntity
  8
0
 62
     7
100
AcDbPolyline
 90
       18
 70
     0
 43
0.0
 10
11.59790222101654
 20
116.9736431135897
 10
10.60931522101649
 20
114.3511611135897
 10
10.14392222101654
 20
113.0293381135897
 10
9.480165221016504
 20
111.0348621135897
 10
8.558046221016551
 20
108.0197251135897
 10
7.920106221016594
 20
105.7426251135897
 10
7.323366221016527
 20
103.4543561135897
 10
6.762697221016567
 20
101.1569781135897
 10
5.724428221016552
 20
96.54281111358976
 10
4.988039221016521
 20
93.07287111358972
 10
4.251588221016531
 20
89.60296211358972
 10
3.562929221016502
 20
86.52601211358975
 10
3.194948221016517
 20
84.99303711358974
 10
2.384828221016533
 20
81.94597911358975
 10
1.76965522101662
 20
79.93606111358976
 10
1.316103221016561
 20
78.61014811358976
 10
0.9911512210166222
 20
77.73426311358973
 10
0.2789932210165773
 20
76.00699911358976
  0
LINE
  5
945
330
1F
100
AcDbEntity
  8
0
 62
     7
100
AcDbLine
 10
11.59790222101654
 20
116.9736431135897
 30
0.0
 11
59.81701822101651
 21
115.7109941135897
 31
0.0
  0
LINE
  5
946
330
1F
100
AcDbEntity
  8
0
 62
     7
100
AcDbLine
 10
-5.591367778983425
 20
71.80813111358975
 30
0.0
 11
58.62341522101658
 21
70.12661311358974
 31
0.0
  0
LINE
  5
947
330
1F
100
AcDbEntity
  8
0
 62
     7
 48
0.00611
100
AcDbLine
 10
-5.591367778983425
 20
71.80813111358975
 30
0.0
 11
-5.584959778983459
 21
72.05244011358974
 31
0.0
  0
LWPOLYLINE
  5
948
330
1F
100
AcDbEntity
  8
0
 62
     7
100
AcDbPolyline
 90
       12
 70
     0
 43
0.0
 10
-5.584959778983459
 20
72.05242411358975
 10
-4.490171778983466
 20
72.19793211358975
 10
-3.953062778983477
 20
72.32718911358976
 10
-3.169797778983451
 20
72.59688911358975
 10
-2.607114778983457
 20
72.86074411358976
 10
-2.072507778983519
 20
73.17750111358975
 10
-1.571775778983434
 20
73.54555811358976
 10
-1.110349778983475
 20
73.96177211358973
 10
-0.5632307789834102
 20
74.58365911358973
 10
-0.2445047789834405
 20
75.03492311358974
 10
-0.0531597789834848
 20
75.34966611358973
 10
0.2789932210165773
 20
76.00699911358976
  0
ARC
  5
949
330
1F
100
AcDbEntity
  8
0
 62
     7
100
AcDbCircle
 10
-162.2798447789834
 20
129.1319231135897
 30
0.0
 40
1.499989
100
AcDbArc
 50
89.99867900000245
 51
180.0013230000003
  0
ARC
  5
94A
330
1F
100
AcDbEntity
  8
0
 62
     7
100
AcDbCircle
 10
-162.2798447789834
 20
66.73185311358975
 30
0.0
 40
1.499989
100
AcDbArc
 50
179.9986779999994
 51
270.0013209999976
  0
LINE
  5
94B
330
1F
100
AcDbEntity
  8
0
 62
     7
 48
0.036899
100
AcDbLine
 10
-122.2789897789834
 20
128.3741561135897
 30
0.0
 11
-123.7549417789834
 21
128.3741561135897
 31
0.0
  0
ARC
  5
94C
330
1F
100
AcDbEntity
  8
0
 62
     7
100
AcDbCircle
 10
-124.2542707789834
 20
128.3479871135897
 30
0.0
 40
0.499992
100
AcDbArc
 50
2.998515999999907
 51
90.00148600000121
  0
ARC
  5
94D
330
1F
100
AcDbEntity
  8
0
 62
     7
100
AcDbCircle
 10
12.69470422101645
 20
128.3480021135897
 30
0.0
 40
0.499992
100
AcDbArc
 50
89.99851500000021
 51
177.0014849999993
  0
LINE
  5
94E
330
1F
100
AcDbEntity
  8
0
 62
     7
 48
0.036887
100
AcDbLine
 10
12.19537522101646
 20
128.3741561135897
 30
0.0
 11
10.71991122101659
 21
128.3741561135897
 31
0.0
  0
LINE
  5
94F
330
1F
100
AcDbEntity
  8
0
 62
     7
100
AcDbLine
 10
0.2789932210165773
 20
76.00699911358976
 30
0.0
 11
-23.49535977898341
 21
76.00699911358976
 31
0.0
  0
LINE
  5
950
330
1F
100
AcDbEntity
  8
0
 62
     7
100
AcDbLine
 10
-88.06518377898346
 20
76.00699911358976
 30
0.0
 11
-112.1514877789835
 21
76.00699911358976
 31
0.0
  0
LWPOLYLINE
  5
951
330
1F
100
AcDbEntity
  8
0
 62
     7
100
AcDbPolyline
 90
        7
 70
     0
 43
0.0
 10
-109.5828227789833
 20
72.93189511358973
 10
-110.3303207789834
 20
73.44616211358974
 10
-110.6714457789834
 20
73.74581411358973
 10
-111.1353137789834
 20
74.24413611358976
 10
-111.5376567789833
 20
74.79343711358973
 10
-111.7706277789834
 20
75.18316211358973
 10
-112.1514877789835
 20
76.00699911358976
  0
ARC
  5
952
330
1F
100
AcDbEntity
  8
0
 62
     7
100
AcDbCircle
 10
-105.4354227789834
 20
82.03130611358975
 30
0.0
 40
10.0
100
AcDbArc
 50
245.4973479999973
 51
271.8844860000028
  0
ARC
  5
953
330
1F
100
AcDbEntity
  8
0
 62
     7
100
AcDbCircle
 10
-6.209714778983395
 20
81.30306511358975
 30
0.0
 40
9.271748999999999
100
AcDbArc
 50
268.0428729999978
 51
269.9645609999982
  0
ARC
  5
954
330
1F
100
AcDbEntity
  8
0
 62
     7
100
AcDbCircle
 10
-6.209653778983549
 20
81.28547211358975
 30
0.0
 40
9.254161999999999
100
AcDbArc
 50
269.9638500000016
 51
273.8705410000012
  0
LINE
  5
955
330
1F
100
AcDbEntity
  8
0
 62
     7
 48
0.027862
100
AcDbLine
 10
-6.526365778983373
 20
72.03670811358975
 30
0.0
 11
-7.640195778983496
 21
72.07531311358973
 31
0.0
  0
ARC
  5
956
330
1F
100
AcDbEntity
  8
0
 62
     7
100
AcDbCircle
 10
-5.329587778983493
 20
81.80469811358975
 30
0.0
 40
9.999990999999999
100
AcDbArc
 50
256.6401519999979
 51
268.5000039999992
  0
LWPOLYLINE
  5
957
330
1F
100
AcDbEntity
  8
0
 62
     7
100
AcDbPolyline
 90
        5
 70
     0
 43
0.0
 10
-112.1514877789835
 20
76.00699911358976
 10
-112.7867417789834
 20
77.81759211358973
 10
-113.0693957789835
 20
78.73449211358973
 10
-113.3317247789834
 20
79.65742011358975
 10
-113.8036477789835
 20
81.51742111358975
  0
ARC
  5
958
330
1F
100
AcDbEntity
  8
0
 62
     7
100
AcDbCircle
 10
-180.0607287789834
 20
65.51229411358974
 30
0.0
 40
68.16359699999999
100
AcDbArc
 50
13.58028299999922
 51
16.31679799999901
  0
ARC
  5
959
330
1F
100
AcDbEntity
  8
0
 62
     7
100
AcDbCircle
 10
-74.95251277898347
 20
96.00693811358972
 30
0.0
 40
41.279411
100
AcDbArc
 50
188.7553680000007
 51
195.9510209999984
  0
LINE
  5
95A
330
1F
100
AcDbEntity
  8
0
 62
     7
 48
0.207662
100
AcDbLine
 10
-117.0240457789835
 20
97.93189511358974
 30
0.0
 11
-115.7518297789834
 21
89.72341411358973
 31
0.0
  0
LWPOLYLINE
  5
95B
330
1F
100
AcDbEntity
  8
0
 62
     7
100
AcDbPolyline
 90
        3
 70
     0
 43
0.0
 10
-117.0240457789835
 20
97.93189511358974
 10
-117.7381577789835
 20
102.0464741135897
 10
-118.5621317789834
 20
106.1403761135897
  0
ARC
  5
95C
330
1F
100
AcDbEntity
  8
0
 62
     7
100
AcDbCircle
 10
22.22723522101651
 20
136.6544751135897
 30
0.0
 40
144.058578
100
AcDbArc
 50
190.1769839999996
 51
192.2289050000001
  0
ARC
  5
95D
330
1F
100
AcDbEntity
  8
0
 62
     7
100
AcDbCircle
 10
-146.1217637789834
 20
106.4963791135898
 30
0.0
 40
26.969038
100
AcDbArc
 50
10.04561900000079
 51
16.9229630000009
  0
ARC
  5
95E
330
1F
100
AcDbEntity
  8
0
 62
     7
100
AcDbCircle
 10
-203.0244127789835
 20
88.74248811358976
 30
0.0
 40
86.57551600000003
100
AcDbArc
 50
17.20193600000176
 51
19.03144300000021
  0
LINE
  5
95F
330
1F
100
AcDbEntity
  8
0
 62
     7
 48
0.0875
100
AcDbLine
 10
-163.7797837789834
 20
125.6318921135897
 30
0.0
 11
-163.7797837789834
 21
129.1318921135897
 31
0.0
  0
LINE
  5
960
330
1F
100
AcDbEntity
  8
0
 62
     7
 48
0.0875
100
AcDbLine
 10
-163.7797837789834
 20
66.73189811358975
 30
0.0
 11
-163.7797837789834
 21
70.23189811358975
 31
0.0
  0
ARC
  5
961
330
1F
100
AcDbEntity
  8
0
 62
     7
100
AcDbCircle
 10
-212.0695787789834
 20
85.46615111358972
 30
0.0
 40
96.19540399999999
100
AcDbArc
 50
19.11945699999993
 51
22.92178199999892
  0
LINE
  5
962
330
1F
100
AcDbEntity
  8
0
 62
     7
 48
0.136244
100
AcDbLine
 10
-123.4697247789834
 20
122.9318801135897
 30
0.0
 11
-123.7549417789834
 21
128.3741561135897
 31
0.0
  0
LINE
  5
963
330
1F
100
AcDbEntity
  8
0
 62
     7
 48
0.285404
100
AcDbLine
 10
11.59790222101654
 20
116.9736431135897
 30
0.0
 11
12.19537522101646
 21
128.3741561135897
 31
0.0
  0
LINE
  5
964
330
1F
100
AcDbEntity
  8
0
 62
     7
 48
0.011456
100
AcDbLine
 10
-120.3215317789834
 20
114.3463701135897
 30
0.0
 11
-120.7797837789835
 21
114.3463701135897
 31
0.0
  0
LINE
  5
965
330
1F
100
AcDbEntity
  8
0
 62
     7
 48
0.174403
100
AcDbLine
 10
-120.7797837789835
 20
81.51740611358976
 30
0.0
 11
-113.8036477789835
 21
81.51740611358976
 31
0.0
  0
LINE
  5
966
330
1F
100
AcDbEntity
  8
0
 62
     7
100
AcDbLine
 10
-109.5828227789833
 20
72.93189511358973
 30
0.0
 11
-152.6798077789835
 21
72.93189511358973
 31
0.0
  0
LINE
  5
967
330
1F
100
AcDbEntity
  8
0
 62
     7
100
AcDbLine
 10
-152.6798077789835
 20
114.4097851135897
 30
0.0
 11
-152.6798077789835
 21
72.93189511358973
 31
0.0
  0
LINE
  5
968
330
1F
100
AcDbEntity
  8
0
 62
     7
 48
0.213052
100
AcDbLine
 10
-152.6798077789835
 20
122.9318801135897
 30
0.0
 11
-152.6798077789835
 21
114.4097851135897
 31
0.0
  0
LINE
  5
969
330
1F
100
AcDbEntity
  8
0
 62
     7
100
AcDbLine
 10
-123.4697247789834
 20
122.9318801135897
 30
0.0
 11
-152.6798077789835
 21
122.9318801135897
 31
0.0
  0
ARC
  5
96A
330
1F
100
AcDbEntity
  8
0
 62
     7
100
AcDbCircle
 10
-55.77978377898347
 20
-1427.15201288641
 30
0.0
 40
1500.0
100
AcDbArc
 50
88.1608870000012
 51
89.72493199999759
  0
ARC
  5
96B
330
1F
100
AcDbEntity
  8
0
 62
     7
100
AcDbCircle
 10
-55.77978377898347
 20
-1427.15201288641
 30
0.0
 40
1500.0
100
AcDbArc
 50
90.27507000000223
 51
91.88448799999951
  0
LINE
  5
96C
330
1F
100
AcDbEntity
  8
0
 62
     7
 48
0.153452
100
AcDbLine
 10
-120.7797837789835
 20
84.66297411358977
 30
0.0
 11
-114.6417217789835
 21
84.66297411358977
 31
0.0
  0
LINE
  5
96D
330
1F
100
AcDbEntity
  8
0
 62
     7
 48
0.07864
100
AcDbLine
 10
-120.7797837789835
 20
84.66297411358977
 30
0.0
 11
-120.7797837789835
 21
81.51739011358975
 31
0.0
  0
LINE
  5
96E
330
1F
100
AcDbEntity
  8
0
 62
     7
 48
0.126511
100
AcDbLine
 10
-120.7797837789835
 20
89.72341411358973
 30
0.0
 11
-120.7797837789835
 21
84.66297411358977
 31
0.0
  0
LINE
  5
96F
330
1F
100
AcDbEntity
  8
0
 62
     7
 48
0.1257
100
AcDbLine
 10
-120.7797837789835
 20
89.72341411358973
 30
0.0
 11
-115.7517687789834
 21
89.72341411358973
 31
0.0
  0
LINE
  5
970
330
1F
100
AcDbEntity
  8
0
 62
     7
 48
0.205212
100
AcDbLine
 10
-120.7797837789835
 20
97.93189511358974
 30
0.0
 11
-120.7797837789835
 21
89.72341411358973
 31
0.0
  0
LINE
  5
971
330
1F
100
AcDbEntity
  8
0
 62
     7
 48
0.205212
100
AcDbLine
 10
-120.7797837789835
 20
106.1403761135897
 30
0.0
 11
-120.7797837789835
 21
97.93189511358974
 31
0.0
  0
LINE
  5
972
330
1F
100
AcDbEntity
  8
0
 62
     7
 48
0.055441
100
AcDbLine
 10
-120.7797837789835
 20
106.1403761135897
 30
0.0
 11
-118.5621317789834
 21
106.1403761135897
 31
0.0
  0
LINE
  5
973
330
1F
100
AcDbEntity
  8
0
 62
     7
 48
0.126511
100
AcDbLine
 10
-120.7797837789835
 20
106.1403761135897
 30
0.0
 11
-120.7797837789835
 21
111.2008011135897
 31
0.0
  0
LINE
  5
974
330
1F
100
AcDbEntity
  8
0
 62
     7
 48
0.030362
100
AcDbLine
 10
-119.5653057789833
 20
111.2008011135897
 30
0.0
 11
-120.7797837789835
 21
111.2008011135897
 31
0.0
  0
LINE
  5
975
330
1F
100
AcDbEntity
  8
0
 62
     7
 48
0.07864
100
AcDbLine
 10
-120.7797837789835
 20
114.3463851135897
 30
0.0
 11
-120.7797837789835
 21
111.2008011135897
 31
0.0
  0
ARC
  5
976
330
1F
100
AcDbEntity
  8
0
 62
     7
100
AcDbCircle
 10
-164.2797837789834
 20
125.6318771135897
 30
0.0
 40
0.499996
100
AcDbArc
 50
269.9986610000032
 51
0.0013339999995567
  0
ARC
  5
977
330
1F
100
AcDbEntity
  8
0
 62
     7
100
AcDbCircle
 10
-164.2797837789834
 20
70.23189811358975
 30
0.0
 40
0.499996
100
AcDbArc
 50
359.9986699999996
 51
90.00133599999909
  0
LINE
  5
978
330
1F
100
AcDbEntity
  8
0
 62
     7
 48
0.225834
100
AcDbLine
 10
-154.1798077789835
 20
115.3985091135897
 30
0.0
 11
-154.1798077789835
 21
124.4318801135897
 31
0.0
  0
ARC
  5
979
330
1F
100
AcDbEntity
  8
0
 62
     7
100
AcDbCircle
 10
-152.6798077789835
 20
124.4318501135897
 30
0.0
 40
1.499989
100
AcDbArc
 50
179.9986779999994
 51
270.0013209999976
  0
ARC
  5
97A
330
1F
100
AcDbEntity
  8
0
 62
     7
100
AcDbCircle
 10
-152.6798077789835
 20
71.43192611358975
 30
0.0
 40
1.499989
100
AcDbArc
 50
89.99867900000245
 51
180.0013230000003
  0
LINE
  5
97B
330
1F
100
AcDbEntity
  8
0
 62
     7
100
AcDbLine
 10
-154.1798077789835
 20
71.43189511358976
 30
0.0
 11
-154.1798077789835
 21
115.3985091135897
 31
0.0
  0
ARC
  5
97C
330
1F
100
AcDbEntity
  8
0
 62
     7
100
AcDbCircle
 10
-48.56890677898338
 20
74.83065311358976
 30
0.0
 40
1.999979
100
AcDbArc
 50
212.2840369999991
 51
269.7252920000017
  0
ARC
  5
97D
330
1F
100
AcDbEntity
  8
0
 62
     7
100
AcDbCircle
 10
-62.99065977898345
 20
74.83065311358976
 30
0.0
 40
1.999979
100
AcDbArc
 50
270.2747129999977
 51
327.7159680000005
  0
LINE
  5
97E
330
1F
100
AcDbEntity
  8
0
 62
     7
 48
0.1625
100
AcDbLine
 10
-164.2797837789834
 20
70.73189811358975
 30
0.0
 11
-170.7797837789835
 21
70.73189811358975
 31
0.0
  0
LINE
  5
97F
330
1F
100
AcDbEntity
  8
0
 62
     7
 48
0.1625
100
AcDbLine
 10
-164.2797837789834
 20
125.1318921135897
 30
0.0
 11
-170.7797837789835
 21
125.1318921135897
 31
0.0
  0
LINE
  5
980
330
1F
100
AcDbEntity
  8
0
 62
     7
 48
0.0975
100
AcDbLine
 10
-154.1798077789835
 20
124.4318801135897
 30
0.0
 11
-154.1798077789835
 21
128.3318891135897
 31
0.0
  0
LINE
  5
981
330
1F
100
AcDbEntity
  8
0
 62
     7
 48
0.0975
100
AcDbLine
 10
-154.1798077789835
 20
67.53188611358972
 30
0.0
 11
-154.1798077789835
 21
71.43189511358976
 31
0.0
  0
LINE
  5
982
330
1F
100
AcDbEntity
  8
0
 62
     7
 48
0.10603
100
AcDbLine
 10
-59.03454377898339
 20
77.34795711358976
 30
0.0
 11
-61.29986377898347
 21
73.76243111358977
 31
0.0
  0
LINE
  5
983
330
1F
100
AcDbEntity
  8
0
 62
     7
 48
0.10603
100
AcDbLine
 10
-52.52502277898344
 20
77.34795711358976
 30
0.0
 11
-50.25970277898335
 21
73.76243111358977
 31
0.0
  0
LINE
  5
984
330
1F
100
AcDbEntity
  8
0
 62
     7
 48
0.055
100
AcDbLine
 10
-170.7797837789835
 20
122.9318801135897
 30
0.0
 11
-170.7797837789835
 21
125.1318921135897
 31
0.0
  0
LINE
  5
985
330
1F
100
AcDbEntity
  8
0
 62
     7
100
AcDbLine
 10
-170.7797837789835
 20
72.93189511358973
 30
0.0
 11
-170.7797837789835
 21
122.9318801135897
 31
0.0
  0
LINE
  5
986
330
1F
100
AcDbEntity
  8
0
 62
     7
 48
0.055
100
AcDbLine
 10
-170.7797837789835
 20
70.73189811358975
 30
0.0
 11
-170.7797837789835
 21
72.93189511358973
 31
0.0
  0
LINE
  5
987
330
1F
100
AcDbEntity
  8
0
 62
     7
100
AcDbLine
 10
-154.6798077789835
 20
67.03188611358974
 30
0.0
 11
-154.6798077789835
 21
115.0544541135897
 31
0.0
  0
ARC
  5
988
330
1F
100
AcDbEntity
  8
0
 62
     7
100
AcDbCircle
 10
-154.6797467789834
 20
67.53188611358972
 30
0.0
 40
0.499996
100
AcDbArc
 50
269.9986610000032
 51
0.0013339999995567
  0
ARC
  5
989
330
1F
100
AcDbEntity
  8
0
 62
     7
100
AcDbCircle
 10
-154.6797467789834
 20
128.3319041135897
 30
0.0
 40
0.499996
100
AcDbArc
 50
359.9986699999996
 51
90.00133599999909
  0
LINE
  5
98A
330
1F
100
AcDbEntity
  8
0
 62
     7
 48
0.344436
100
AcDbLine
 10
-154.6798077789835
 20
115.0544541135897
 30
0.0
 11
-154.6798077789835
 21
128.8318891135897
 31
0.0
  0
LINE
  5
98B
330
1F
100
AcDbEntity
  8
0
 62
     7
 48
0.032049
100
AcDbLine
 10
-53.20971477898336
 20
78.43169711358976
 30
0.0
 11
-52.52496177898348
 21
77.34794111358974
 31
0.0
  0
LINE
  5
98C
330
1F
100
AcDbEntity
  8
0
 62
     7
 48
0.032049
100
AcDbLine
 10
-58.34985177898346
 20
78.43169711358976
 30
0.0
 11
-59.03460577898346
 21
77.34794111358974
 31
0.0
  0
LINE
  5
98D
330
1F
100
AcDbEntity
  8
0
 62
     7
 48
0.213052
100
AcDbLine
 10
-163.4797957789835
 20
122.9318801135897
 30
0.0
 11
-163.4797957789835
 21
114.4097851135897
 31
0.0
  0
LINE
  5
98E
330
1F
100
AcDbEntity
  8
0
 62
     7
100
AcDbLine
 10
-163.4797957789835
 20
114.4097851135897
 30
0.0
 11
-163.4797957789835
 21
72.93189511358973
 31
0.0
  0
LINE
  5
98F
330
1F
100
AcDbEntity
  8
0
 62
     7
 48
0.1825
100
AcDbLine
 10
-163.4797957789835
 20
72.93189511358973
 30
0.0
 11
-170.7797837789835
 21
72.93189511358973
 31
0.0
  0
LINE
  5
990
330
1F
100
AcDbEntity
  8
0
 62
     7
 48
0.1825
100
AcDbLine
 10
-163.4797957789835
 20
122.9318801135897
 30
0.0
 11
-170.7797837789835
 21
122.9318801135897
 31
0.0
  0
LINE
  5
991
330
1F
100
AcDbEntity
  8
0
 62
     7
 48
0.17
100
AcDbLine
 10
-154.6798077789835
 20
67.03188611358974
 30
0.0
 11
-161.4797957789835
 21
67.03188611358974
 31
0.0
  0
LINE
  5
992
330
1F
100
AcDbEntity
  8
0
 62
     7
100
AcDbLine
 10
-161.4797957789835
 20
67.03188611358974
 30
0.0
 11
-161.4797957789835
 21
115.0544541135897
 31
0.0
  0
LINE
  5
993
330
1F
100
AcDbEntity
  8
0
 62
     7
 48
0.344436
100
AcDbLine
 10
-161.4797957789835
 20
115.0544541135897
 30
0.0
 11
-161.4797957789835
 21
128.8318891135897
 31
0.0
  0
LINE
  5
994
330
1F
100
AcDbEntity
  8
0
 62
     7
 48
0.17
100
AcDbLine
 10
-154.6798077789835
 20
128.8318891135897
 30
0.0
 11
-161.4797957789835
 21
128.8318891135897
 31
0.0
  0
ARC
  5
995
330
1F
100
AcDbEntity
  8
0
 62
     7
100
AcDbCircle
 10
-55.77978377898347
 20
76.80793311358977
 30
0.0
 40
3.040058
100
AcDbArc
 50
32.28439999999879
 51
147.7156050000002
  0
LINE
  5
996
330
1F
100
AcDbEntity
  8
0
 62
     7
100
AcDbLine
 10
-161.9797957789835
 20
71.43189511358976
 30
0.0
 11
-161.9797957789835
 21
115.3985091135897
 31
0.0
  0
ARC
  5
997
330
1F
100
AcDbEntity
  8
0
 62
     7
100
AcDbCircle
 10
-163.4797347789834
 20
71.43192611358975
 30
0.0
 40
1.499987999999999
100
AcDbArc
 50
359.9986699999996
 51
90.00133599999909
  0
ARC
  5
998
330
1F
100
AcDbEntity
  8
0
 62
     7
100
AcDbCircle
 10
-163.4797347789834
 20
124.4318501135897
 30
0.0
 40
1.499987999999999
100
AcDbArc
 50
269.9986610000032
 51
0.0013339999995567
  0
LINE
  5
999
330
1F
100
AcDbEntity
  8
0
 62
     7
 48
0.225834
100
AcDbLine
 10
-161.9797957789835
 20
115.3985091135897
 30
0.0
 11
-161.9797957789835
 21
124.4318801135897
 31
0.0
  0
ARC
  5
99A
330
1F
100
AcDbEntity
  8
0
 62
     7
100
AcDbCircle
 10
-161.4797957789835
 20
128.3319041135897
 30
0.0
 40
0.499996
100
AcDbArc
 50
89.9986719999991
 51
180.0013349999993
  0
ARC
  5
99B
330
1F
100
AcDbEntity
  8
0
 62
     7
100
AcDbCircle
 10
-161.4797957789835
 20
67.53188611358972
 30
0.0
 40
0.499996
100
AcDbArc
 50
179.9986660000004
 51
270.0013280000009
  0
LINE
  5
99C
330
1F
100
AcDbEntity
  8
0
 62
     7
 48
0.0975
100
AcDbLine
 10
-161.9797957789835
 20
124.4318801135897
 30
0.0
 11
-161.9797957789835
 21
128.3318891135897
 31
0.0
  0
LINE
  5
99D
330
1F
100
AcDbEntity
  8
0
 62
     7
 48
0.0975
100
AcDbLine
 10
-161.9797957789835
 20
67.53188611358972
 30
0.0
 11
-161.9797957789835
 21
71.43189511358976
 31
0.0
  0
LINE
  5
99E
330
1F
100
AcDbEntity
  8
0
 62
     7
100
AcDbLine
 10
-6.123899778983485
 20
69.53130611358975
 30
0.0
 11
-105.3819567789833
 21
69.53130611358975
 31
0.0
  0
ARC
  5
99F
330
1F
100
AcDbEntity
  8
0
 62
     7
100
AcDbCircle
 10
-105.4071027789834
 20
80.08901511358974
 30
0.0
 40
8.057821999999998
100
AcDbArc
 50
270.2204669999989
 51
272.1370050000003
  0
ARC
  5
9A0
330
1F
100
AcDbEntity
  8
0
 62
     7
100
AcDbCircle
 10
-43.57604777898342
 20
81.24781311358976
 30
0.0
 40
7.999946
100
AcDbArc
 50
180.9988209999994
 51
270.0012180000028
  0
LINE
  5
9A1
330
1F
100
AcDbEntity
  8
0
 62
     7
 48
0.269902
100
AcDbLine
 10
-32.77978377898347
 20
73.24798111358976
 30
0.0
 11
-43.57586477898343
 21
73.24798111358976
 31
0.0
  0
ARC
  5
9A2
330
1F
100
AcDbEntity
  8
0
 62
     7
100
AcDbCircle
 10
-32.7797227789834
 20
90.24801211358973
 30
0.0
 40
17.000015
100
AcDbArc
 50
269.9999680000007
 51
358.4999449999997
  0
LINE
  5
9A3
330
1F
100
AcDbEntity
  8
0
 62
     7
100
AcDbLine
 10
-15.78558177898338
 20
89.80297411358973
 30
0.0
 11
-15.04668977898345
 21
118.0218151135897
 31
0.0
  0
ARC
  5
9A4
330
1F
100
AcDbEntity
  8
0
 62
     7
100
AcDbCircle
 10
-16.04632377898343
 20
118.0479991135897
 30
0.0
 40
0.9999979999999998
100
AcDbArc
 50
90.00365799999675
 51
178.5009700000005
  0
ARC
  5
9A5
330
1F
100
AcDbEntity
  8
0
 62
     7
100
AcDbCircle
 10
-16.04632377898343
 20
118.0479991135897
 30
0.0
 40
0.9999970000000001
100
AcDbArc
 50
358.4989110000001
 51
90.0058579999979
  0
LINE
  5
9A6
330
1F
100
AcDbEntity
  8
0
 62
     7
100
AcDbLine
 10
-17.78491077898337
 20
89.85532711358976
 30
0.0
 11
-17.04601877898341
 21
118.0741681135897
 31
0.0
  0
ARC
  5
9A7
330
1F
100
AcDbEntity
  8
0
 62
     7
100
AcDbCircle
 10
-32.7797227789834
 20
90.24801211358973
 30
0.0
 40
15.000014
100
AcDbArc
 50
269.9999749999975
 51
358.4999319999996
  0
LINE
  5
9A8
330
1F
100
AcDbEntity
  8
0
 62
     7
 48
0.269037
100
AcDbLine
 10
-32.77978377898347
 20
75.24798111358975
 30
0.0
 11
-43.54125777898349
 21
75.24798111358975
 31
0.0
  0
ARC
  5
9A9
330
1F
100
AcDbEntity
  8
0
 62
     7
100
AcDbCircle
 10
-43.5413797789834
 20
81.24785911358975
 30
0.0
 40
5.999958999999997
100
AcDbArc
 50
180.9988209999994
 51
270.0012180000028
  0
LINE
  5
9AA
330
1F
100
AcDbEntity
  8
0
 62
     7
100
AcDbLine
 10
-50.26263277898346
 20
122.5225781135897
 30
0.0
 11
-49.5403427789834
 21
81.14327511358977
 31
0.0
  0
ARC
  5
9AB
330
1F
100
AcDbEntity
  8
0
 62
     7
100
AcDbCircle
 10
-51.26244977898346
 20
122.5051681135897
 30
0.0
 40
0.99998
100
AcDbArc
 50
0.9984050000006863
 51
90.00188900000026
  0
LINE
  5
9AC
330
1F
100
AcDbEntity
  8
0
 62
     7
 48
0.040091
100
AcDbLine
 10
-51.26251077898341
 20
123.5051371135897
 30
0.0
 11
-52.86614777898346
 21
123.5051371135897
 31
0.0
  0
LINE
  5
9AD
330
1F
100
AcDbEntity
  8
0
 62
     7
 48
0.355272
100
AcDbLine
 10
-53.11413377898344
 20
137.7138621135897
 30
0.0
 11
-52.86614777898346
 21
123.5051371135897
 31
0.0
  0
ARC
  5
9AE
330
1F
100
AcDbEntity
  8
0
 62
     7
100
AcDbCircle
 10
-53.61407277898337
 20
137.7051501135897
 30
0.0
 40
0.4999900000000002
100
AcDbArc
 50
0.9984050000006863
 51
90.00188900000026
  0
LINE
  5
9AF
330
1F
100
AcDbEntity
  8
0
 62
     7
 48
0.108286
100
AcDbLine
 10
-53.61407277898337
 20
138.2051341135897
 30
0.0
 11
-57.94549377898346
 21
138.2051341135897
 31
0.0
  0
ARC
  5
9B0
330
1F
100
AcDbEntity
  8
0
 62
     7
100
AcDbCircle
 10
-57.94549377898346
 20
137.7051501135897
 30
0.0
 40
0.4999900000000002
100
AcDbArc
 50
89.99811200000115
 51
179.0015989999999
  0
LINE
  5
9B1
330
1F
100
AcDbEntity
  8
0
 62
     7
 48
0.355272
100
AcDbLine
 10
-58.44543277898349
 20
137.7138621135897
 30
0.0
 11
-58.69341877898347
 21
123.5051371135897
 31
0.0
  0
LINE
  5
9B2
330
1F
100
AcDbEntity
  8
0
 62
     7
 48
0.040092
100
AcDbLine
 10
-58.69341877898347
 20
123.5051371135897
 30
0.0
 11
-60.29711777898348
 21
123.5051371135897
 31
0.0
  0
ARC
  5
9B3
330
1F
100
AcDbEntity
  8
0
 62
     7
100
AcDbCircle
 10
-60.29711777898348
 20
122.5051681135897
 30
0.0
 40
0.99998
100
AcDbArc
 50
89.99811200000115
 51
179.0015979999997
  0
LINE
  5
9B4
330
1F
100
AcDbEntity
  8
0
 62
     7
100
AcDbLine
 10
-61.29693477898348
 20
122.5225781135897
 30
0.0
 11
-62.0192247789834
 21
81.14327511358977
 31
0.0
  0
ARC
  5
9B5
330
1F
100
AcDbEntity
  8
0
 62
     7
100
AcDbCircle
 10
-68.01818677898353
 20
81.24785911358975
 30
0.0
 40
5.999958999999997
100
AcDbArc
 50
269.9987869999977
 51
359.0011850000006
  0
LINE
  5
9B6
330
1F
100
AcDbEntity
  8
0
 62
     7
 48
0.269037
100
AcDbLine
 10
-68.01830877898345
 20
75.24798111358975
 30
0.0
 11
-78.77978377898347
 21
75.24798111358975
 31
0.0
  0
ARC
  5
9B7
330
1F
100
AcDbEntity
  8
0
 62
     7
100
AcDbCircle
 10
-78.77978377898347
 20
90.24798111358975
 30
0.0
 40
15.000002
100
AcDbArc
 50
181.5000169999995
 51
269.9999820000008
  0
LINE
  5
9B8
330
1F
100
AcDbEntity
  8
0
 62
     7
100
AcDbLine
 10
-93.77465677898346
 20
89.85532711358976
 30
0.0
 11
-94.51354777898343
 21
118.0741531135897
 31
0.0
  0
ARC
  5
9B9
330
1F
100
AcDbEntity
  8
0
 62
     7
100
AcDbCircle
 10
-95.5132427789834
 20
118.0479991135897
 30
0.0
 40
0.9999979999999998
100
AcDbArc
 50
1.499029999999436
 51
89.99735399999854
  0
ARC
  5
9BA
330
1F
100
AcDbEntity
  8
0
 62
     7
100
AcDbCircle
 10
-95.5132427789834
 20
118.0479991135897
 30
0.0
 40
0.9999970000000001
100
AcDbArc
 50
89.99515500000169
 51
181.5010889999998
  0
LINE
  5
9BB
330
1F
100
AcDbEntity
  8
0
 62
     7
100
AcDbLine
 10
-95.77398477898345
 20
89.80297411358973
 30
0.0
 11
-96.5128767789834
 21
118.0218151135897
 31
0.0
  0
ARC
  5
9BC
330
1F
100
AcDbEntity
  8
0
 62
     7
100
AcDbCircle
 10
-78.77978377898347
 20
90.24798111358975
 30
0.0
 40
17.000002
100
AcDbArc
 50
181.5000109999998
 51
269.9999889999976
  0
LINE
  5
9BD
330
1F
100
AcDbEntity
  8
0
 62
     7
 48
0.269902
100
AcDbLine
 10
-67.9837017789834
 20
73.24798111358976
 30
0.0
 11
-78.77978377898347
 21
73.24798111358976
 31
0.0
  0
ARC
  5
9BE
330
1F
100
AcDbEntity
  8
0
 62
     7
100
AcDbCircle
 10
-67.9835187789834
 20
81.24781311358976
 30
0.0
 40
7.999946
100
AcDbArc
 50
269.9987869999977
 51
359.0011850000006
  0
LINE
  5
9BF
330
1F
100
AcDbEntity
  8
0
 62
     7
100
AcDbLine
 10
-59.29644577898347
 20
120.5489151135897
 30
0.0
 11
-59.98492277898339
 21
81.10836311358973
 31
0.0
  0
ARC
  5
9C0
330
1F
100
AcDbEntity
  8
0
 62
     7
100
AcDbCircle
 10
-58.29662877898346
 20
120.5314891135897
 30
0.0
 40
0.9999819999999999
100
AcDbArc
 50
97.59276400000281
 51
179.0012609999993
  0
ARC
  5
9C1
330
1F
100
AcDbEntity
  8
0
 62
     7
100
AcDbCircle
 10
-58.69341877898347
 20
123.5051221135897
 30
0.0
 40
2.000027999999999
100
AcDbArc
 50
277.604215999999
 51
359.0007069999994
  0
LINE
  5
9C2
330
1F
100
AcDbEntity
  8
0
 62
     7
 48
0.306137
100
AcDbLine
 10
-56.48003977898344
 20
135.7138621135897
 30
0.0
 11
-56.69372377898338
 21
123.4702411135897
 31
0.0
  0
ARC
  5
9C3
330
1F
100
AcDbEntity
  8
0
 62
     7
100
AcDbCircle
 10
-55.9801007789834
 20
135.7051501135897
 30
0.0
 40
0.4999900000000002
100
AcDbArc
 50
89.9983990000002
 51
179.0018900000007
  0
LINE
  5
9C4
330
1F
100
AcDbEntity
  8
0
 62
     7
 48
0.010016
100
AcDbLine
 10
-55.57946577898343
 20
136.2051341135897
 30
0.0
 11
-55.9801007789834
 21
136.2051341135897
 31
0.0
  0
ARC
  5
9C5
330
1F
100
AcDbEntity
  8
0
 62
     7
100
AcDbCircle
 10
-55.57946577898343
 20
135.7051501135897
 30
0.0
 40
0.4999900000000002
100
AcDbArc
 50
0.9981040000005394
 51
90.00159599999928
  0
LINE
  5
9C6
330
1F
100
AcDbEntity
  8
0
 62
     7
 48
0.306137
100
AcDbLine
 10
-55.07952677898339
 20
135.7138621135897
 30
0.0
 11
-54.86584277898344
 21
123.4702411135897
 31
0.0
  0
ARC
  5
9C7
330
1F
100
AcDbEntity
  8
0
 62
     7
100
AcDbCircle
 10
-52.86614777898346
 20
123.5051221135897
 30
0.0
 40
2.000027999999999
100
AcDbArc
 50
180.9992989999998
 51
262.3957889999978
  0
ARC
  5
9C8
330
1F
100
AcDbEntity
  8
0
 62
     7
100
AcDbCircle
 10
-53.26293777898349
 20
120.5314891135897
 30
0.0
 40
0.9999819999999999
100
AcDbArc
 50
0.998745999999185
 51
82.40723100000213
  0
LINE
  5
9C9
330
1F
100
AcDbEntity
  8
0
 62
     7
100
AcDbLine
 10
-52.26312077898348
 20
120.5489151135897
 30
0.0
 11
-51.57464477898344
 21
81.10836311358973
 31
0.0
  0
LINE
  5
9CA
330
1F
100
AcDbEntity
  8
0
 62
     7
 48
0.175833
100
AcDbLine
 10
-52.26312077898348
 20
120.5489151135897
 30
0.0
 11
-59.29644577898347
 21
120.5489151135897
 31
0.0
  0
LINE
  5
9CB
330
1F
100
AcDbEntity
  8
0
 62
     7
 48
0.132449
100
AcDbLine
 10
-53.13079677898343
 20
121.5227001135897
 30
0.0
 11
-58.4287707789835
 21
121.5227001135897
 31
0.0
  0
LINE
  5
9CC
330
1F
100
AcDbEntity
  8
0
 62
     7
 48
0.210257
100
AcDbLine
 10
-51.57464477898344
 20
81.10836311358973
 30
0.0
 11
-59.98492277898339
 21
81.10836311358973
 31
0.0
  0
LINE
  5
9CD
330
1F
100
AcDbEntity
  8
0
 62
     7
 48
0.045697
100
AcDbLine
 10
-54.86584277898344
 20
123.4702411135897
 30
0.0
 11
-56.69372377898338
 21
123.4702411135897
 31
0.0
  0
LINE
  5
9CE
330
1F
100
AcDbEntity
  8
0
 62
     7
 48
0.155396
100
AcDbLine
 10
-43.57586477898343
 20
73.24798111358976
 30
0.0
 11
-49.79168577898342
 21
73.24798111358976
 31
0.0
  0
LINE
  5
9CF
330
1F
100
AcDbEntity
  8
0
 62
     7
 48
0.155371
100
AcDbLine
 10
-61.76885777898343
 20
73.24798111358976
 30
0.0
 11
-67.9837017789834
 21
73.24798111358976
 31
0.0
  0
LINE
  5
9D0
330
1F
100
AcDbEntity
  8
0
 62
     7
 48
0.035013
100
AcDbLine
 10
-55.07952677898339
 20
135.7138621135897
 30
0.0
 11
-56.48003977898344
 21
135.7138621135897
 31
0.0
  0
LINE
  5
9D1
330
1F
100
AcDbEntity
  8
0
 62
     7
 48
0.325183
100
AcDbLine
 10
-17.04601877898341
 20
118.0741681135897
 30
0.0
 11
-30.05334277898345
 21
118.0741531135897
 31
0.0
  0
LINE
  5
9D2
330
1F
100
AcDbEntity
  8
0
 62
     7
 48
0.325183
100
AcDbLine
 10
-81.50622377898336
 20
118.0741531135897
 30
0.0
 11
-94.51354777898343
 21
118.0741531135897
 31
0.0
  0
LINE
  5
9D3
330
1F
100
AcDbEntity
  8
0
 62
     7
 48
0.319025
100
AcDbLine
 10
-17.78491077898337
 20
89.85532711358976
 30
0.0
 11
-30.54589677898349
 21
89.85532711358976
 31
0.0
  0
LINE
  5
9D4
330
1F
100
AcDbEntity
  8
0
 62
     7
 48
0.319025
100
AcDbLine
 10
-81.01366977898335
 20
89.85532711358976
 30
0.0
 11
-93.77465677898346
 21
89.85532711358976
 31
0.0
  0
LINE
  5
9D5
330
1F
100
AcDbEntity
  8
0
 62
     7
 48
0.349829
100
AcDbLine
 10
-16.04314977898349
 20
119.0479841135897
 30
0.0
 11
-30.03631377898347
 21
119.0479841135897
 31
0.0
  0
LINE
  5
9D6
330
1F
100
AcDbEntity
  8
0
 62
     7
 48
0.349748
100
AcDbLine
 10
-81.52325277898336
 20
119.0479841135897
 30
0.0
 11
-95.51318177898343
 21
119.0479841135897
 31
0.0
  0
LWPOLYLINE
  5
9D7
330
1F
100
AcDbEntity
  8
0
 62
     7
100
AcDbPolyline
 90
        5
 70
     0
 43
0.0
 10
-44.15771277898346
 20
132.6015731135897
 10
-43.1895737789834
 20
132.5415451135897
 10
-42.71050877898341
 20
132.4643811135897
 10
-42.23797477898339
 20
132.3544111135897
 10
-41.3228137789834
 20
132.0335191135897
  0
LINE
  5
9D8
330
1F
100
AcDbEntity
  8
0
 62
     7
 48
0.31573
100
AcDbLine
 10
-50.86364577898343
 20
124.4420421135897
 30
0.0
 11
-50.64324777898338
 21
137.0693011135897
 31
0.0
  0
ELLIPSE
  5
9D9
330
1F
100
AcDbEntity
  8
0
 62
     7
100
AcDbEllipse
 10
-45.60540577898345
 20
125.9479931135897
 30
0.0
 11
-6.757629394531248
 21
-3.90228271484375
 31
0.0
210
0.0
220
0.0
230
-0.9999999999999998
 40
0.797481
 41
1.75449466705322
 42
2.198094606399534
  0
LWPOLYLINE
  5
9DA
330
1F
100
AcDbEntity
  8
0
 62
     7
100
AcDbPolyline
 90
        7
 70
     0
 43
0.0
 10
-47.43066277898349
 20
131.9591781135897
 10
-48.00213477898346
 20
132.9966381135897
 10
-48.31670977898347
 20
133.4985301135897
 10
-48.82769577898347
 20
134.2252761135897
 10
-49.3875717789835
 20
134.9149731135897
 10
-49.78887777898336
 20
135.3505811135897
 10
-50.65923877898348
 20
136.1534991135897
  0
LINE
  5
9DB
330
1F
100
AcDbEntity
  8
0
 62
     7
 48
0.136632
100
AcDbLine
 10
-38.61327977898343
 20
123.5385541135897
 30
0.0
 11
-44.07855077898346
 21
123.5385541135897
 31
0.0
  0
LWPOLYLINE
  5
9DC
330
1F
100
AcDbEntity
  8
0
 62
     7
100
AcDbPolyline
 90
        7
 70
     0
 43
0.0
 10
-40.51183877898341
 20
130.9672351135897
 10
-40.28564277898346
 20
130.7270771135897
 10
-40.14068477898347
 20
130.6475481135897
 10
-39.89642177898344
 20
130.6178691135897
 10
-39.66619677898342
 20
130.7064161135897
 10
-39.53729077898339
 20
130.8102061135897
 10
-39.33544777898346
 20
131.0719861135897
  0
ARC
  5
9DD
330
1F
100
AcDbEntity
  8
0
 62
     7
100
AcDbCircle
 10
-3148.712278778982
 20
-170.8092238864101
 30
0.0
 40
3123.99707
100
AcDbArc
 50
5.408233999999251
 51
5.545316000000046
  0
LINE
  5
9DE
330
1F
100
AcDbEntity
  8
0
 62
     7
 48
0.0024
100
AcDbLine
 10
-38.6133407789834
 20
123.5385541135897
 30
0.0
 11
-38.60857977898348
 21
123.6344561135897
 31
0.0
  0
LINE
  5
9DF
330
1F
100
AcDbEntity
  8
0
 62
     7
 48
0.000251
100
AcDbLine
 10
-50.64398077898346
 20
136.9998121135898
 30
0.0
 11
-50.6399517789834
 21
137.0089981135897
 31
0.0
  0
ARC
  5
9E0
330
1F
100
AcDbEntity
  8
0
 62
     7
100
AcDbCircle
 10
-49.8253767789834
 20
136.6356151135897
 30
0.0
 40
0.8967679999999999
100
AcDbArc
 50
104.6158169999993
 51
155.3736660000005
  0
LWPOLYLINE
  5
9E1
330
1F
100
AcDbEntity
  8
0
 62
     7
100
AcDbPolyline
 90
        3
 70
     0
 43
0.0
 10
-50.05187777898339
 20
137.5041151135897
 10
-50.0128767789834
 20
137.3859821135897
 10
-50.05480777898348
 20
137.2928881135897
  0
ARC
  5
9E2
330
1F
100
AcDbEntity
  8
0
 62
     7
100
AcDbCircle
 10
-52.04528677898344
 20
136.5977581135898
 30
0.0
 40
2.190144
100
AcDbArc
 50
24.44985899999957
 51
32.63590900000104
  0
LWPOLYLINE
  5
9E3
330
1F
100
AcDbEntity
  8
0
 62
     7
100
AcDbPolyline
 90
        5
 70
     0
 43
0.0
 10
-50.64324777898338
 20
137.0693011135897
 10
-50.5836167789834
 20
137.3529621135897
 10
-50.5159897789834
 20
137.4818831135897
 10
-50.42718377898342
 20
137.5972851135897
 10
-50.20068177898344
 20
137.7790791135897
  0
LINE
  5
9E4
330
1F
100
AcDbEntity
  8
0
 62
     7
 48
0.32432
100
AcDbLine
 10
-60.69592077898352
 20
124.4420421135897
 30
0.0
 11
-60.92230077898347
 21
137.4128681135898
 31
0.0
  0
ARC
  5
9E5
330
1F
100
AcDbEntity
  8
0
 62
     7
100
AcDbCircle
 10
-51.61468377898342
 20
124.4550121135897
 30
0.0
 40
0.7498930000000003
100
AcDbArc
 50
270.0064840000007
 51
359.0099959999997
  0
LWPOLYLINE
  5
9E6
330
1F
100
AcDbEntity
  8
0
 62
     7
100
AcDbPolyline
 90
        7
 70
     0
 43
0.0
 10
-47.96374377898342
 20
131.3782611135897
 10
-48.45385577898338
 20
132.3069111135897
 10
-48.72118977898338
 20
132.7588611135897
 10
-49.15209777898343
 20
133.4181171135897
 10
-49.62060377898348
 20
134.0511431135897
 10
-49.95477177898345
 20
134.4561871135897
 10
-50.67608477898346
 20
135.2190051135897
  0
LWPOLYLINE
  5
9E7
330
1F
100
AcDbEntity
  8
0
 62
     7
100
AcDbPolyline
 90
        5
 70
     0
 43
0.0
 10
-47.43066277898349
 20
131.9592391135897
 10
-47.6600327789835
 20
131.8189191135897
 10
-47.75585777898349
 20
131.7238721135897
 10
-47.83819377898345
 20
131.6169081135897
 10
-47.96374377898342
 20
131.3782911135897
  0
LWPOLYLINE
  5
9E8
330
1F
100
AcDbEntity
  8
0
 62
     7
100
AcDbPolyline
 90
       11
 70
     0
 43
0.0
 10
-47.96380477898348
 20
131.3782001135898
 10
-48.12017677898342
 20
131.0801041135897
 10
-48.22253277898354
 20
130.9462541135897
 10
-48.40905577898336
 20
130.7762401135897
 10
-48.57372877898348
 20
130.6827041135897
 10
-48.75469777898336
 20
130.6270091135897
 10
-48.94360177898345
 20
130.6146351135897
 10
-49.1303697789834
 20
130.6456251135897
 10
-49.36266877898339
 20
130.7440751135897
 10
-49.50280577898336
 20
130.8376421135897
 10
-49.74438277898348
 20
131.0719861135897
  0
ARC
  5
9E9
330
1F
100
AcDbEntity
  8
0
 62
     7
100
AcDbCircle
 10
-3249.154172778983
 20
486.5894421135897
 30
0.0
 40
3219.101807
100
AcDbArc
 50
353.5260650000004
 51
353.6593220000002
  0
LWPOLYLINE
  5
9EA
330
1F
100
AcDbEntity
  8
0
 62
     7
100
AcDbPolyline
 90
        3
 70
     0
 43
0.0
 10
-44.08050377898343
 20
123.6611281135898
 10
-44.47576777898342
 20
123.6202961135897
 10
-44.86181477898337
 20
123.5385541135897
  0
LINE
  5
9EB
330
1F
100
AcDbEntity
  8
0
 62
     7
 48
0.447551
100
AcDbLine
 10
-31.79046477898345
 20
89.85952311358975
 30
0.0
 11
-49.69250277898339
 21
89.85952311358975
 31
0.0
  0
LINE
  5
9EC
330
1F
100
AcDbEntity
  8
0
 62
     7
 48
0.447551
100
AcDbLine
 10
-61.86706377898342
 20
89.85952311358975
 30
0.0
 11
-79.76910277898337
 21
89.85952311358975
 31
0.0
  0
LINE
  5
9ED
330
1F
100
AcDbEntity
  8
0
 62
     7
100
AcDbLine
 10
-79.18121177898348
 20
123.5385541135897
 30
0.0
 11
-79.76910277898337
 21
89.85952311358975
 31
0.0
  0
LINE
  5
9EE
330
1F
100
AcDbEntity
  8
0
 62
     7
 48
0.307027
100
AcDbLine
 10
-65.85522277898343
 20
123.5385541135897
 30
0.0
 11
-78.13628977898344
 21
123.5385541135897
 31
0.0
  0
LINE
  5
9EF
330
1F
100
AcDbEntity
  8
0
 62
     7
 48
0.17906
100
AcDbLine
 10
-58.69280877898342
 20
123.5385541135897
 30
0.0
 11
-65.85522277898343
 21
123.5385541135897
 31
0.0
  0
LINE
  5
9F0
330
1F
100
AcDbEntity
  8
0
 62
     7
 48
0.056914
100
AcDbLine
 10
-50.59020877898348
 20
123.5385541135897
 30
0.0
 11
-52.8667587789834
 21
123.5385541135897
 31
0.0
  0
LINE
  5
9F1
330
1F
100
AcDbEntity
  8
0
 62
     7
 48
0.019551
100
AcDbLine
 10
-44.07952677898339
 20
123.5385541135897
 30
0.0
 11
-44.86157077898343
 21
123.5385541135897
 31
0.0
  0
LINE
  5
9F2
330
1F
100
AcDbEntity
  8
0
 62
     7
 48
0.27094
100
AcDbLine
 10
-32.37835577898346
 20
123.5385541135897
 30
0.0
 11
-43.21594077898335
 21
123.5385541135897
 31
0.0
  0
LINE
  5
9F3
330
1F
100
AcDbEntity
  8
0
 62
     7
100
AcDbLine
 10
-32.37835577898346
 20
123.5385541135897
 30
0.0
 11
-31.79046477898345
 21
89.85952311358975
 31
0.0
  0
LWPOLYLINE
  5
9F4
330
1F
100
AcDbEntity
  8
0
 62
     7
100
AcDbPolyline
 90
        6
 70
     0
 43
0.0
 10
-38.62884377898337
 20
131.8975481135897
 10
-38.75481977898341
 20
131.8384051135897
 10
-38.80541777898343
 20
131.7717851135898
 10
-38.88110177898346
 20
131.6716871135897
 10
-38.99780077898351
 20
131.5239971135897
 10
-39.33550877898341
 20
131.0719861135897
  0
ARC
  5
9F5
330
1F
100
AcDbEntity
  8
0
 62
     7
100
AcDbCircle
 10
-53.6123027789834
 20
121.3023181135897
 30
0.0
 40
18.351339
100
AcDbArc
 50
29.86389100000133
 51
35.266352000002
  0
LWPOLYLINE
  5
9F6
330
1F
100
AcDbEntity
  8
0
 62
     7
100
AcDbPolyline
 90
        3
 70
     0
 43
0.0
 10
-37.69775177898345
 20
130.4401811135897
 10
-37.6066267789834
 20
130.7870281135897
 10
-37.66595277898336
 20
131.1359971135897
  0
ARC
  5
9F7
330
1F
100
AcDbEntity
  8
0
 62
     7
100
AcDbCircle
 10
-52.50463677898352
 20
123.4540971135897
 30
0.0
 40
16.526897
100
AcDbArc
 50
62.09353199999828
 51
81.76187399999847
  0
ARC
  5
9F8
330
1F
100
AcDbEntity
  8
0
 62
     7
100
AcDbCircle
 10
-50.54565277898342
 20
139.8270981135897
 30
0.0
 40
0.410425
100
AcDbArc
 50
323.9871359999999
 51
357.6460209999999
  0
LWPOLYLINE
  5
9F9
330
1F
100
AcDbEntity
  8
0
 62
     7
100
AcDbPolyline
 90
        6
 70
     0
 43
0.0
 10
-49.68316477898344
 20
138.4246781135897
 10
-49.65991077898337
 20
138.7235061135897
 10
-49.68633877898338
 20
138.8716231135897
 10
-49.76720977898338
 20
139.0821181135898
 10
-49.88805977898341
 20
139.2726091135897
 10
-50.21246177898348
 20
139.5849101135897
  0
ELLIPSE
  5
9FA
330
1F
100
AcDbEntity
  8
0
 62
     7
100
AcDbEllipse
 10
-51.5883157789834
 20
138.7998301135897
 30
0.0
 11
-1.9228515625
 21
0.2877044677734375
 31
0.0
210
0.0
220
0.0
230
-0.9999999999999998
 40
0.6656649999999999
 41
3.210516214370727
 42
3.812625408172607
  0
LWPOLYLINE
  5
9FB
330
1F
100
AcDbEntity
  8
0
 62
     7
100
AcDbPolyline
 90
        3
 70
     0
 43
0.0
 10
-38.18792577898347
 20
127.4146681135898
 10
-38.42822077898342
 20
125.5277201135897
 10
-38.60857977898348
 20
123.6344561135897
  0
LINE
  5
9FC
330
1F
100
AcDbEntity
  8
0
 62
     7
 48
0.000534
100
AcDbLine
 10
-38.18792577898347
 20
127.4146681135898
 30
0.0
 11
-38.18615577898339
 21
127.4359391135897
 31
0.0
  0
LINE
  5
9FD
330
1F
100
AcDbEntity
  8
0
 62
     7
 48
0.111919
100
AcDbLine
 10
-38.1906107789834
 20
127.4423481135897
 30
0.0
 11
-38.62890477898343
 21
131.8976091135897
 31
0.0
  0
ARC
  5
9FE
330
1F
100
AcDbEntity
  8
0
 62
     7
100
AcDbCircle
 10
-19.23980577898345
 20
125.9046891135897
 30
0.0
 40
19.007561
100
AcDbArc
 50
166.1947229999997
 51
175.3793920000002
  0
LINE
  5
9FF
330
1F
100
AcDbEntity
  8
0
 62
     7
 48
0.002097
100
AcDbLine
 10
-50.20129277898348
 20
137.7783461135897
 30
0.0
 11
-50.2520737789834
 21
137.8451031135897
 31
0.0
  0
ARC
  5
A00
330
1F
100
AcDbEntity
  8
0
 62
     7
100
AcDbCircle
 10
-49.64434677898345
 20
137.0523021135897
 30
0.0
 40
0.9988969999999998
100
AcDbArc
 50
127.471873999997
 51
179.0319499999992
  0
ARC
  5
A01
330
1F
100
AcDbEntity
  8
0
 62
     7
100
AcDbCircle
 10
-48.55450277898336
 20
132.1156261135897
 30
0.0
 40
1.581959
100
AcDbArc
 50
207.3033190000006
 51
221.2543900000015
  0
ARC
  5
A02
330
1F
100
AcDbEntity
  8
0
 62
     7
100
AcDbCircle
 10
-59.9448837789834
 20
124.4550121135897
 30
0.0
 40
0.7498930000000003
100
AcDbArc
 50
180.9900109999998
 51
269.993514000003
  0
ELLIPSE
  5
A03
330
1F
100
AcDbEntity
  8
0
 62
     7
100
AcDbEllipse
 10
-61.58898777898354
 20
137.1853591135897
 30
0.0
 11
-0.9828491210937498
 21
-0.2592315673828125
 31
0.0
210
0.0
220
0.0
230
-1.0
 40
0.5522600000000001
 41
1.699601769447324
 42
2.366104125976562
  0
LWPOLYLINE
  5
A04
330
1F
100
AcDbEntity
  8
0
 62
     7
100
AcDbPolyline
 90
        5
 70
     0
 43
0.0
 10
-60.9201647789834
 20
137.2935131135897
 10
-61.21056977898336
 20
137.3452101135897
 10
-61.34399277898348
 20
137.4086561135897
 10
-61.45806677898344
 20
137.5023761135897
 10
-61.60467377898346
 20
137.7569531135897
  0
ARC
  5
A05
330
1F
100
AcDbEntity
  8
0
 62
     7
100
AcDbCircle
 10
-61.92211777898346
 20
137.3953201135897
 30
0.0
 40
0.999999
100
AcDbArc
 50
0.9986369999994918
 51
95.946626999997
  0
LINE
  5
A06
330
1F
100
AcDbEntity
  8
0
 62
     7
 48
0.010359
100
AcDbLine
 10
-61.67400977898346
 20
138.1708631135897
 30
0.0
 11
-62.0257547789834
 21
138.3899181135898
 31
0.0
  0
ARC
  5
A07
330
1F
100
AcDbEntity
  8
0
 62
     7
100
AcDbCircle
 10
-61.51904177898342
 20
137.2875321135897
 30
0.0
 40
0.8966899999999997
100
AcDbArc
 50
73.35276399999748
 51
99.95097499999872
  0
LINE
  5
A08
330
1F
100
AcDbEntity
  8
0
 62
     7
 48
0.022816
100
AcDbLine
 10
-59.94628777898348
 20
123.7051341135897
 30
0.0
 11
-59.03362877898342
 21
123.7051341135897
 31
0.0
  0
LINE
  5
A09
330
1F
100
AcDbEntity
  8
0
 62
     7
 48
0.008595
100
AcDbLine
 10
-58.68981777898347
 20
123.7051341135897
 30
0.0
 11
-59.03362877898342
 21
123.7051341135897
 31
0.0
  0
LINE
  5
A0A
330
1F
100
AcDbEntity
  8
0
 62
     7
 48
0.008595
100
AcDbLine
 10
-52.5259387789834
 20
123.7051341135897
 30
0.0
 11
-52.86974977898347
 21
123.7051341135897
 31
0.0
  0
LINE
  5
A0B
330
1F
100
AcDbEntity
  8
0
 62
     7
 48
0.022816
100
AcDbLine
 10
-52.5259387789834
 20
123.7051341135897
 30
0.0
 11
-51.61327977898344
 21
123.7051341135897
 31
0.0
  0
LWPOLYLINE
  5
A0C
330
1F
100
AcDbEntity
  8
0
 62
     7
100
AcDbPolyline
 90
        3
 70
     0
 43
0.0
 10
-50.63305477898342
 20
126.5720011135897
 10
-50.68462977898349
 20
125.1029311135897
 10
-50.59863077898348
 20
123.6344561135897
  0
LINE
  5
A0D
330
1F
100
AcDbEntity
  8
0
 62
     7
 48
0.19456
100
AcDbLine
 10
-60.89330877898345
 20
135.7479811135897
 30
0.0
 11
-68.67571877898337
 21
135.7479811135897
 31
0.0
  0
LINE
  5
A0E
330
1F
100
AcDbEntity
  8
0
 62
     7
100
AcDbLine
 10
-20.38012577898343
 20
135.7479811135897
 30
0.0
 11
-41.42425377898343
 21
135.7479811135897
 31
0.0
  0
ARC
  5
A0F
330
1F
100
AcDbEntity
  8
0
 62
     7
100
AcDbCircle
 10
-20.38012577898343
 20
123.7479811135897
 30
0.0
 40
12.000016
100
AcDbArc
 50
89.9999970000023
 51
180.9999770000003
  0
ARC
  5
A10
330
1F
100
AcDbEntity
  8
0
 62
     7
100
AcDbCircle
 10
-90.5411967789834
 20
124.0479691135897
 30
0.0
 40
12.415502
100
AcDbArc
 50
358.0913119999997
 51
1.038826000000669
  0
ARC
  5
A11
330
1F
100
AcDbEntity
  8
0
 62
     7
100
AcDbCircle
 10
-91.17931977898336
 20
123.7482251135897
 30
0.0
 40
11.999765
100
AcDbArc
 50
44.49944200000278
 51
90.00044799999688
  0
LINE
  5
A12
330
1F
100
AcDbEntity
  8
0
 62
     7
 48
0.332887
100
AcDbLine
 10
-77.86395077898345
 20
135.7479811135897
 30
0.0
 11
-91.17944177898351
 21
135.7479811135897
 31
0.0
  0
LINE
  5
A13
330
1F
100
AcDbEntity
  8
0
 62
     7
 48
0.001375
100
AcDbLine
 10
-79.18054077898337
 20
123.5385541135897
 30
0.0
 11
-79.18041777898344
 21
123.5935621135897
 31
0.0
  0
LINE
  5
A14
330
1F
100
AcDbEntity
  8
0
 62
     7
 48
0.225242
100
AcDbLine
 10
-79.18041777898344
 20
123.5936231135897
 30
0.0
 11
-79.02319177898352
 21
132.6019241135897
 31
0.0
  0
ARC
  5
A15
330
1F
100
AcDbEntity
  8
0
 62
     7
100
AcDbCircle
 10
-95.56744177898343
 20
125.1887161135897
 30
0.0
 40
18.129429
100
AcDbArc
 50
21.9285909999988
 51
24.13531500000072
  0
LINE
  5
A16
330
1F
100
AcDbEntity
  8
0
 62
     7
 48
0.014682
100
AcDbLine
 10
-78.74950977898341
 20
131.9592391135897
 30
0.0
 11
-78.66351177898349
 21
131.3782911135897
 31
0.0
  0
LWPOLYLINE
  5
A17
330
1F
100
AcDbEntity
  8
0
 62
     7
100
AcDbPolyline
 90
        5
 70
     0
 43
0.0
 10
-78.66345077898341
 20
131.3782001135898
 10
-78.62042077898348
 20
130.9509841135897
 10
-78.59277177898349
 20
130.8105421135897
 10
-78.56512277898338
 20
130.7192341135897
 10
-78.43591177898344
 20
130.6322891135897
  0
ARC
  5
A18
330
1F
100
AcDbEntity
  8
0
 62
     7
100
AcDbCircle
 10
1481.687868221016
 20
152.9605671135897
 30
0.0
 40
1560.101074
100
AcDbArc
 50
180.8142939999995
 51
181.0771740000003
  0
LINE
  5
A19
330
1F
100
AcDbEntity
  8
0
 62
     7
 48
0.001377
100
AcDbLine
 10
-79.18041777898344
 20
123.5936381135897
 30
0.0
 11
-79.18121177898348
 21
123.5385541135897
 31
0.0
  0
ARC
  5
A1A
330
1F
100
AcDbEntity
  8
0
 62
     7
100
AcDbCircle
 10
-80.39141677898346
 20
89.87037211358972
 30
0.0
 40
0.622391
100
AcDbArc
 50
269.9960480000004
 51
359.0010759999998
  0
ARC
  5
A1B
330
1F
100
AcDbEntity
  8
0
 62
     7
100
AcDbCircle
 10
-80.39141677898346
 20
89.87035711358975
 30
0.0
 40
0.6223880000000001
100
AcDbArc
 50
180.998805
 51
269.9985409999976
  0
ARC
  5
A1C
330
1F
100
AcDbEntity
  8
0
 62
     7
100
AcDbCircle
 10
-31.16814977898349
 20
89.87037211358972
 30
0.0
 40
0.622391
100
AcDbArc
 50
180.9989450000001
 51
269.7958000000012
  0
ARC
  5
A1D
330
1F
100
AcDbEntity
  8
0
 62
     7
100
AcDbCircle
 10
-31.16814977898349
 20
89.87035711358975
 30
0.0
 40
0.6223880000000001
100
AcDbArc
 50
269.7933140000007
 51
359.001213
  0
ARC
  5
A1E
330
1F
100
AcDbEntity
  8
0
 62
     7
100
AcDbCircle
 10
-51.1011337789834
 20
138.6533771135897
 30
0.0
 40
1.506958
100
AcDbArc
 50
50.17833500000065
 51
66.7252739999979
  0
ELLIPSE
  5
A1F
330
1F
100
AcDbEntity
  8
0
 62
     7
100
AcDbEllipse
 10
-49.59307677898343
 20
140.2938491135897
 30
0.0
 11
-0.9974975585937496
 21
-0.0577239990234375
 31
0.0
210
0.0
220
0.0
230
-1.0
 40
0.894987
 41
5.433640956878662
 42
6.281808853149414
  0
ARC
  5
A20
330
1F
100
AcDbEntity
  8
0
 62
     7
100
AcDbCircle
 10
-49.87579177898346
 20
140.6554981135897
 30
0.0
 40
0.8845030000000001
100
AcDbArc
 50
230.3280059999984
 51
252.8563159999974
  0
LINE
  5
A21
330
1F
100
AcDbEntity
  8
0
 62
     7
 48
0.003831
100
AcDbLine
 10
-49.68249377898342
 20
138.4244801135897
 30
0.0
 11
-49.83166377898346
 21
138.4595141135897
 31
0.0
  0
LINE
  5
A22
330
1F
100
AcDbEntity
  8
0
 62
     7
 48
0.001439
100
AcDbLine
 10
-50.25127977898346
 20
139.5421401135897
 30
0.0
 11
-50.2125837789834
 21
139.5847731135897
 31
0.0
  0
LWPOLYLINE
  5
A23
330
1F
100
AcDbEntity
  8
0
 62
     7
100
AcDbPolyline
 90
        6
 70
     0
 43
0.0
 10
-49.83166377898346
 20
138.4595141135897
 10
-49.81005677898344
 20
138.7288621135897
 10
-49.82879477898342
 20
138.8630481135897
 10
-49.89013477898339
 20
139.0566361135897
 10
-49.98528877898348
 20
139.2361401135897
 10
-50.25127977898346
 20
139.5421401135897
  0
LWPOLYLINE
  5
A24
330
1F
100
AcDbEntity
  8
0
 62
     7
100
AcDbPolyline
 90
        3
 70
     0
 43
0.0
 10
-49.83166377898346
 20
138.4595141135897
 10
-49.9883407789834
 20
138.1159621135898
 10
-50.25243977898337
 20
137.8447981135897
  0
LWPOLYLINE
  5
A25
330
1F
100
AcDbEntity
  8
0
 62
     7
100
AcDbPolyline
 90
       14
 70
     0
 43
0.0
 10
-78.66345077898341
 20
131.3782611135897
 10
-77.21478077898344
 20
132.4860491135897
 10
-76.45727377898339
 20
132.9940141135897
 10
-75.28533777898345
 20
133.6996721135897
 10
-74.38189577898349
 20
134.1860911135898
 10
-73.46038677898349
 20
134.6372331135897
 10
-72.04888777898344
 20
135.2506061135897
 10
-70.60821377898339
 20
135.7919261135897
 10
-69.14385777898343
 20
136.2655591135897
 10
-67.66052077898343
 20
136.6757151135897
 10
-65.65960577898346
 20
137.1307331135897
 10
-64.31432977898345
 20
137.3796641135897
 10
-63.41357277898345
 20
137.5227921135897
 10
-61.60467377898346
 20
137.7572891135897
  0
ARC
  5
A26
330
1F
100
AcDbEntity
  8
0
 62
     7
100
AcDbCircle
 10
-65.82977177898346
 20
137.2813831135897
 30
0.0
 40
4.250808999999998
100
AcDbArc
 50
6.426971000000302
 51
12.08048199999933
  0
LWPOLYLINE
  5
A27
330
1F
100
AcDbEntity
  8
0
 62
     7
100
AcDbPolyline
 90
       12
 70
     0
 43
0.0
 10
-62.0257547789834
 20
138.3898571135897
 10
-64.6942117789835
 20
138.0433151135897
 10
-66.0204447789834
 20
137.8163711135897
 10
-67.99584777898343
 20
137.4030411135898
 10
-69.46319377898345
 20
137.0313981135897
 10
-70.91491577898334
 20
136.6028091135897
 10
-72.34722777898337
 20
136.1133071135897
 10
-73.75555277898337
 20
135.5586351135897
 10
-75.58642377898337
 20
134.7100781135897
 10
-76.77013977898337
 20
134.0704911135897
 10
-77.53954877898337
 20
133.6094471135897
 10
-79.02325277898336
 20
132.6014971135897
  0
LWPOLYLINE
  5
A28
330
1F
100
AcDbEntity
  8
0
 62
     7
100
AcDbPolyline
 90
       14
 70
     0
 43
0.0
 10
-78.74950977898341
 20
131.9591781135897
 10
-77.28588677898351
 20
133.0376541135897
 10
-76.52288677898349
 20
133.5321151135897
 10
-75.34472477898344
 20
134.2190201135897
 10
-74.43810877898345
 20
134.6925761135897
 10
-73.51434177898345
 20
135.1318011135897
 10
-72.10107277898345
 20
135.7290141135897
 10
-70.66021577898339
 20
136.2561291135897
 10
-69.1969587789834
 20
136.7173721135897
 10
-67.71557477898347
 20
137.1168471135897
 10
-65.71856477898342
 20
137.5601001135897
 10
-64.37646277898346
 20
137.8026531135897
 10
-63.47796477898345
 20
137.9421341135897
 10
-61.67400977898346
 20
138.1707721135897
  0
LINE
  5
A29
330
1F
100
AcDbEntity
  8
0
 62
     7
 48
0.363627
100
AcDbLine
 10
-59.03362877898342
 20
123.7051341135897
 30
0.0
 11
-58.77978377898347
 21
138.2479811135897
 31
0.0
  0
LINE
  5
A2A
330
1F
100
AcDbEntity
  8
0
 62
     7
 48
0.363627
100
AcDbLine
 10
-52.5259387789834
 20
123.7051341135897
 30
0.0
 11
-52.77978377898347
 21
138.2479811135897
 31
0.0
  0
LINE
  5
A2B
330
1F
100
AcDbEntity
  8
0
 62
     7
 48
0.260008
100
AcDbLine
 10
-91.17944177898351
 20
135.7479811135897
 30
0.0
 11
-101.5797717789834
 21
135.7479811135897
 31
0.0
  0
LINE
  5
A2C
330
1F
100
AcDbEntity
  8
0
 62
     7
 48
0.260008
100
AcDbLine
 10
-9.979795778983515
 20
135.7479811135897
 30
0.0
 11
-20.38012577898343
 21
135.7479811135897
 31
0.0
  0
LWPOLYLINE
  5
A2D
330
1F
100
AcDbEntity
  8
0
 62
     7
100
AcDbPolyline
 90
       15
 70
     0
 43
0.0
 10
-61.18285977898342
 20
140.4786631135897
 10
-63.48589877898342
 20
140.2343701135897
 10
-64.63311577898338
 20
140.0759541135897
 10
-66.34643377898346
 20
139.7900341135897
 10
-68.89398077898346
 20
139.2445331135897
 10
-70.78063777898347
 20
138.7355911135897
 10
-72.63958577898342
 20
138.1334181135898
 10
-74.46288877898344
 20
137.4306291135897
 10
-76.24047677898345
 20
136.6195021135897
 10
-77.39434677898344
 20
136.0147051135897
 10
-78.5183697789834
 20
135.3561051135897
 10
-79.96270577898343
 20
134.3915051135897
 10
-80.88598477898342
 20
133.6925611135897
 10
-81.48162677898339
 20
133.2013811135897
 10
-82.6203597789834
 20
132.1589611135897
  0
LINE
  5
A2E
330
1F
100
AcDbEntity
  8
0
 62
     7
100
AcDbLine
 10
-81.01373077898342
 20
89.85952311358975
 30
0.0
 11
-81.60827477898344
 21
123.9225111135897
 31
0.0
  0
LINE
  5
A2F
330
1F
100
AcDbEntity
  8
0
 62
     7
100
AcDbLine
 10
-30.54583577898342
 20
89.85952311358975
 30
0.0
 11
-29.95129277898349
 21
123.9225111135897
 31
0.0
  0
ARC
  5
A30
330
1F
100
AcDbEntity
  8
0
 62
     7
100
AcDbCircle
 10
-49.59246677898345
 20
140.2942761135897
 30
0.0
 40
0.9998739999999999
100
AcDbArc
 50
183.410627
 51
228.7850839999985
  0
ARC
  5
A31
330
1F
100
AcDbEntity
  8
0
 62
     7
100
AcDbCircle
 10
-51.08959777898343
 20
140.2052111135897
 30
0.0
 40
0.499942
100
AcDbArc
 50
3.403518999999486
 51
89.99541400000126
  0
ARC
  5
A32
330
1F
100
AcDbEntity
  8
0
 62
     7
100
AcDbCircle
 10
-60.47015177898339
 20
140.2056681135898
 30
0.0
 40
0.4994640000000001
100
AcDbArc
 50
89.98439699999812
 51
122.1598000000026
  0
LINE
  5
A33
330
1F
100
AcDbEntity
  8
0
 62
     7
 48
0.15
100
AcDbLine
 10
-58.77978377898347
 20
138.2479811135897
 30
0.0
 11
-52.77978377898347
 21
138.2479811135897
 31
0.0
  0
LINE
  5
A34
330
1F
100
AcDbEntity
  8
0
 62
     7
 48
0.005
100
AcDbLine
 10
-9.979795778983515
 20
135.7479811135897
 30
0.0
 11
-9.979795778983515
 21
135.5479841135897
 31
0.0
  0
LINE
  5
A35
330
1F
100
AcDbEntity
  8
0
 62
     7
 48
0.005
100
AcDbLine
 10
-101.5797717789834
 20
135.7479811135897
 30
0.0
 11
-101.5797717789834
 21
135.5479841135897
 31
0.0
  0
ARC
  5
A36
330
1F
100
AcDbEntity
  8
0
 62
     7
100
AcDbCircle
 10
-61.26824777898338
 20
141.4750781135897
 30
0.0
 40
1.000004
100
AcDbArc
 50
274.9002670000006
 51
302.1586160000016
  0
ARC
  5
A37
330
1F
100
AcDbEntity
  8
0
 62
     7
100
AcDbCircle
 10
-19.95300177898338
 20
123.7481951135897
 30
0.0
 40
9.999935
100
AcDbArc
 50
89.99879500000242
 51
179.0011600000001
  0
ARC
  5
A38
330
1F
100
AcDbEntity
  8
0
 62
     7
100
AcDbCircle
 10
-91.60656577898334
 20
123.7481951135897
 30
0.0
 40
9.999935
100
AcDbArc
 50
0.9988420000004298
 51
90.00119999999709
  0
LINE
  5
A39
330
1F
100
AcDbEntity
  8
0
 62
     7
 48
0.234573
100
AcDbLine
 10
-60.47125077898346
 20
140.7051341135897
 30
0.0
 11
-51.08831577898336
 21
140.7051341135897
 31
0.0
  0
ARC
  5
A3A
330
1F
100
AcDbEntity
  8
0
 62
     7
100
AcDbCircle
 10
-99.77984477898345
 20
135.5479381135897
 30
0.0
 40
1.799986
100
AcDbArc
 50
179.998667
 51
270.0013280000009
  0
ARC
  5
A3B
330
1F
100
AcDbEntity
  8
0
 62
     7
100
AcDbCircle
 10
-11.77972277898343
 20
135.5479381135897
 30
0.0
 40
1.799986
100
AcDbArc
 50
269.9986610000032
 51
0.0013339999995567
  0
LINE
  5
A3C
330
1F
100
AcDbEntity
  8
0
 62
     7
 48
0.204333
100
AcDbLine
 10
-91.60674877898344
 20
133.7479811135897
 30
0.0
 11
-99.78008877898339
 21
133.7479811135897
 31
0.0
  0
LINE
  5
A3D
330
1F
100
AcDbEntity
  8
0
 62
     7
 48
0.204333
100
AcDbLine
 10
-11.77947877898347
 20
133.7479811135897
 30
0.0
 11
-19.95281777898339
 21
133.7479811135897
 31
0.0
  0
LWPOLYLINE
  5
A3E
330
1F
100
AcDbEntity
  8
0
 62
     7
100
AcDbPolyline
 90
        5
 70
     0
 43
0.0
 10
-50.05480777898348
 20
137.2928881135897
 10
-50.28393377898345
 20
137.2825881135897
 10
-50.39227177898346
 20
137.2429001135897
 10
-50.49096477898336
 20
137.1830241135897
 10
-50.6399517789834
 20
137.0090901135897
  0
LINE
  5
A3F
330
1F
100
AcDbEntity
  8
0
 62
     7
 48
0.000046
100
AcDbLine
 10
-50.64471277898343
 20
136.9981341135897
 30
0.0
 11
-50.64398077898346
 21
136.9998431135897
 31
0.0
  0
LWPOLYLINE
  5
A40
330
1F
100
AcDbEntity
  8
0
 62
     7
100
AcDbPolyline
 90
       13
 70
     0
 43
0.0
 10
-40.51183877898341
 20
130.9672351135897
 10
-41.20147577898348
 20
131.9003251135897
 10
-41.57122677898342
 20
132.3474681135897
 10
-42.15618777898344
 20
132.9918471135897
 10
-43.09997377898338
 20
133.8933211135897
 10
-43.85705377898347
 20
134.5140491135897
 10
-44.65319677898349
 20
135.0837661135898
 10
-45.48528877898347
 20
135.5995741135897
 10
-46.34985177898346
 20
136.0588941135897
 10
-47.54662877898346
 20
136.5796771135897
 10
-48.36810177898342
 20
136.8668471135897
 10
-48.9246197789834
 20
137.0310771135897
 10
-50.05480777898348
 20
137.2931171135897
  0
LWPOLYLINE
  5
A41
330
1F
100
AcDbEntity
  8
0
 62
     7
100
AcDbPolyline
 90
       10
 70
     0
 43
0.0
 10
-37.66595277898336
 20
131.1359971135897
 10
-38.46050877898341
 20
132.3951371135897
 10
-38.89428577898338
 20
133.0003611135897
 10
-39.58874377898343
 20
133.8749651135897
 10
-40.72833077898343
 20
135.1022901135897
 10
-41.34020877898348
 20
135.6743421135897
 10
-41.97863577898345
 20
136.2166091135897
 10
-42.86895577898343
 20
136.8908031135897
 10
-43.48577677898339
 20
137.3078261135897
 10
-44.77056677898342
 20
138.0600231135897
  0
ARC
  5
A42
330
1F
100
AcDbEntity
  8
0
 62
     7
100
AcDbCircle
 10
-64.09216177898342
 20
124.5690411135897
 30
0.0
 40
15.692363
100
AcDbArc
 50
25.76483500000101
 51
31.54329800000058
  0
LINE
  5
A43
330
1F
100
AcDbEntity
  8
0
 62
     7
 48
0.126312
100
AcDbLine
 10
-50.63323777898339
 20
126.5731151135897
 30
0.0
 11
-50.05962977898349
 21
131.5929211135897
 31
0.0
  0
LINE
  5
A44
330
1F
100
AcDbEntity
  8
0
 62
     7
 48
0.462892
100
AcDbLine
 10
-61.87768377898345
 20
89.24798111358976
 30
0.0
 11
-80.39336977898342
 21
89.24798111358976
 31
0.0
  0
LINE
  5
A45
330
1F
100
AcDbEntity
  8
0
 62
     7
 48
0.4627880000000001
100
AcDbLine
 10
-31.1703477789834
 20
89.24798111358976
 30
0.0
 11
-49.68188277898349
 21
89.24798111358976
 31
0.0
  0
LWPOLYLINE
  5
A46
330
1F
100
AcDbEntity
  8
0
 62
     7
100
AcDbPolyline
 90
        7
 70
     0
 43
0.0
 10
-44.76946877898337
 20
138.0593061135897
 10
-46.00561377898343
 20
138.6638901135897
 10
-46.63738877898339
 20
138.9367781135897
 10
-47.60003477898345
 20
139.3091691135897
 10
-48.57873377898346
 20
139.6370801135897
 10
-49.23901177898352
 20
139.8309431135897
 10
-50.57531577898334
 20
140.1594801135897
  0
LWPOLYLINE
  5
A47
330
1F
100
AcDbEntity
  8
0
 62
     7
100
AcDbPolyline
 90
        3
 70
     0
 43
0.0
 10
-50.59057477898345
 20
140.2350111135897
 10
-50.54180777898347
 20
140.0902511135897
 10
-50.44054977898344
 20
139.9747881135897
  0
LWPOLYLINE
  5
A48
330
1F
100
AcDbEntity
  8
0
 62
     7
100
AcDbPolyline
 90
       15
 70
     0
 43
0.0
 10
-78.43591177898344
 20
130.6322891135897
 10
-77.47045777898353
 20
131.4306291135897
 10
-76.96984677898349
 20
131.8072921135897
 10
-76.1992167789835
 20
132.3449051135897
 10
-75.00286677898344
 20
133.0899001135897
 10
-74.0781237789834
 20
133.6019541135897
 10
-73.13287177898344
 20
134.0751911135897
 10
-71.6830427789834
 20
134.7170971135897
 10
-70.2009257789835
 20
135.2804521135897
 10
-68.6929917789834
 20
135.7705341135897
 10
-67.16436577898338
 20
136.1919361135897
 10
-65.10162177898343
 20
136.6547801135897
 10
-63.7144757789834
 20
136.9046581135897
 10
-62.78564277898346
 20
137.0466871135898
 10
-60.92028677898344
 20
137.2749591135897
  0
ARC
  5
A49
330
1F
100
AcDbEntity
  8
0
 62
     7
100
AcDbCircle
 10
1452.017335221016
 20
153.5787761135897
 30
0.0
 40
1530.425293
100
AcDbArc
 50
180.8526760000006
 51
181.0971950000005
  0
LINE
  5
AA9
330
1F
100
AcDbEntity
  8
0
 62
     7
 48
0.004094
100
AcDbLine
 10
6.628419221016571
 20
150.1990921135897
 30
0.0
 11
6.464662221016537
 21
150.1997021135897
 31
0.0
  0
LINE
  5
AAA
330
1F
100
AcDbEntity
  8
0
 62
     7
 48
0.002559
100
AcDbLine
 10
6.569948221016518
 20
150.5486401135897
 30
0.0
 11
6.467592221016531
 21
150.5486401135897
 31
0.0
  0
ARC
  5
AAB
330
1F
100
AcDbEntity
  8
0
 62
     7
100
AcDbCircle
 10
7.644777221016539
 20
150.5487621135896
 30
0.0
 40
1.074854999999999
100
AcDbArc
 50
180.0055440000003
 51
198.9841849999998
  0
LINE
  5
AAC
330
1F
100
AcDbEntity
  8
0
 62
     7
 48
0.002567
100
AcDbLine
 10
-118.0268537789834
 20
150.5486401135897
 30
0.0
 11
-118.1295147789834
 21
150.5486401135897
 31
0.0
  0
LINE
  5
AAD
330
1F
100
AcDbEntity
  8
0
 62
     7
 48
0.004109
100
AcDbLine
 10
-118.0243517789834
 20
150.1975661135898
 30
0.0
 11
-118.1887187789834
 21
150.1969101135897
 31
0.0
  0
ARC
  5
AAE
330
1F
100
AcDbEntity
  8
0
 62
     7
100
AcDbCircle
 10
-119.2044047789835
 20
150.5487621135896
 30
0.0
 40
1.074907999999997
100
AcDbArc
 50
340.8773189999992
 51
359.9938990000002
  0
LINE
  5
AAF
330
1F
100
AcDbEntity
  8
0
 62
     7
 48
0.004102
100
AcDbLine
 10
-118.0243517789834
 20
150.1979631135897
 30
0.0
 11
-118.1884137789835
 21
150.1978411135896
 31
0.0
  0
LINE
  5
AB0
330
1F
100
AcDbEntity
  8
0
 62
     7
 48
0.018495
100
AcDbLine
 10
-117.9954817789834
 20
146.9360611135897
 30
0.0
 11
-118.7352887789835
 21
146.9360611135897
 31
0.0
  0
ARC
  5
AB1
330
1F
100
AcDbEntity
  8
0
 62
     7
100
AcDbCircle
 10
-108.7277207789835
 20
146.9347491135897
 30
0.0
 40
10.007704
100
AcDbArc
 50
160.9701859999997
 51
179.9924480000004
  0
LINE
  5
AB2
330
1F
100
AcDbEntity
  8
0
 62
     7
 48
0.018486
100
AcDbLine
 10
7.175722221016513
 20
146.9360611135897
 30
0.0
 11
6.436281221016571
 21
146.9360611135897
 31
0.0
  0
LINE
  5
AB3
330
1F
100
AcDbEntity
  8
0
 62
     7
 48
0.004108
100
AcDbLine
 10
6.628847221016513
 20
150.1978411135896
 30
0.0
 11
6.464540221016505
 21
150.1979931135897
 31
0.0
  0
ARC
  5
AB4
330
1F
100
AcDbEntity
  8
0
 62
     7
100
AcDbCircle
 10
-2.831846778983475
 20
146.9347491135897
 30
0.0
 40
10.007704
100
AcDbArc
 50
0.0075490000002639
 51
19.02981699999919
  0
LINE
  5
AB5
330
1F
100
AcDbEntity
  8
0
 62
     7
 48
0.018494
100
AcDbLine
 10
7.175355221016531
 20
146.8487811135897
 30
0.0
 11
6.435609221016561
 21
146.8487501135897
 31
0.0
  0
LINE
  5
AB6
330
1F
100
AcDbEntity
  8
0
 62
     7
 48
0.018494
100
AcDbLine
 10
7.175722221016513
 20
146.9360611135897
 30
0.0
 11
6.435976221016545
 21
146.9360611135897
 31
0.0
  0
LINE
  5
AB7
330
1F
100
AcDbEntity
  8
0
 62
     7
 48
0.002184
100
AcDbLine
 10
7.175355221016531
 20
146.8487201135896
 30
0.0
 11
7.175722221016513
 21
146.9360611135897
 31
0.0
  0
LINE
  5
AB8
330
1F
100
AcDbEntity
  8
0
 62
     7
 48
0.018484
100
AcDbLine
 10
-117.9959087789835
 20
146.9360611135897
 30
0.0
 11
-118.7352887789835
 21
146.9360611135897
 31
0.0
  0
LINE
  5
AB9
330
1F
100
AcDbEntity
  8
0
 62
     7
 48
0.018507
100
AcDbLine
 10
-117.9946267789834
 20
146.8488111135896
 30
0.0
 11
-118.7349227789834
 21
146.8487811135897
 31
0.0
  0
LINE
  5
ABA
330
1F
100
AcDbEntity
  8
0
 62
     7
 48
0.002184
100
AcDbLine
 10
-118.7352887789835
 20
146.9360611135897
 30
0.0
 11
-118.7349227789834
 21
146.8487201135896
 31
0.0
  0
LINE
  5
ABB
330
1F
100
AcDbEntity
  8
0
 62
     7
 48
0.018506
100
AcDbLine
 10
-55.77978377898347
 20
146.8488111135896
 30
0.0
 11
-118.7349227789834
 21
146.8488111135896
 31
0.0
  0
LINE
  5
ABC
330
1F
100
AcDbEntity
  8
0
 62
     7
 48
0.018504
100
AcDbLine
 10
-117.9171127789835
 20
137.9550891135897
 30
0.0
 11
-118.6572857789834
 21
137.9550891135897
 31
0.0
  0
LINE
  5
ABD
330
1F
100
AcDbEntity
  8
0
 62
     7
 48
0.222352
100
AcDbLine
 10
-118.6572857789834
 20
137.9550891135897
 30
0.0
 11
-118.7349227789834
 21
146.8488111135896
 31
0.0
  0
LINE
  5
ABE
330
1F
100
AcDbEntity
  8
0
 62
     7
 48
0.018495
100
AcDbLine
 10
7.097719221016546
 20
137.9550891135897
 30
0.0
 11
-44.5913342722598
 21
137.9550891135897
 31
0.0
  0
LINE
  5
ABF
330
1F
100
AcDbEntity
  8
0
 62
     7
 48
0.018503
100
AcDbLine
 10
7.175355221016531
 20
146.8488111135896
 30
0.0
 11
-55.77978377898347
 21
146.8488111135895
 31
0.0
  0
LINE
  5
AC0
330
1F
100
AcDbEntity
  8
0
 62
     7
 48
0.222352
100
AcDbLine
 10
7.097719221016546
 20
137.9550891135897
 30
0.0
 11
7.175355221016531
 21
146.8488111135896
 31
0.0
  0
ARC
  5
AC2
330
1F
100
AcDbEntity
  8
0
 62
     7
100
AcDbCircle
 10
6.098024221016572
 20
137.9636181135897
 30
0.0
 40
0.9997109999999999
100
AcDbArc
 50
276.8251650000026
 51
359.511537
  0
LINE
  5
AC3
330
1F
100
AcDbEntity
  8
0
 62
     7
 48
0.018504
100
AcDbLine
 10
-73.10223929332007
 20
137.9550891135897
 30
0.0
 11
-118.6572857789834
 21
137.9550891135897
 31
0.0
  0
ARC
  5
AC4
330
1F
100
AcDbEntity
  8
0
 62
     7
100
AcDbCircle
 10
-117.6575907789834
 20
137.9636031135897
 30
0.0
 40
0.9996909999999999
100
AcDbArc
 50
180.4878439999992
 51
262.7761279999977
  0
LINE
  5
AC5
330
1F
100
AcDbEntity
  8
0
 62
     7
 48
0.154465
100
AcDbLine
 10
-110.7597637789834
 20
136.2075151135897
 30
0.0
 11
-116.8909897789834
 21
136.9712781135897
 31
0.0
  0
LINE
  5
AC6
330
1F
100
AcDbEntity
  8
0
 62
     7
 48
0.019978
100
AcDbLine
 10
-110.7597637789834
 20
136.2075151135897
 30
0.0
 11
-111.5588967789834
 21
136.2075151135897
 31
0.0
  0
LINE
  5
AC7
330
1F
100
AcDbEntity
  8
0
 62
     7
 48
0.156676
100
AcDbLine
 10
-111.5588967789834
 20
136.2075151135897
 30
0.0
 11
-117.7792337789835
 21
136.9712781135897
 31
0.0
  0
LINE
  5
AC8
330
1F
100
AcDbEntity
  8
0
 62
     7
 48
0.157263
100
AcDbLine
 10
-60.90136577898334
 20
136.2075151135897
 30
0.0
 11
-67.19189277898346
 21
136.2075151135897
 31
0.0
  0
LINE
  5
AC9
330
1F
100
AcDbEntity
  8
0
 62
     7
100
AcDbLine
 10
-77.0403427789834
 20
136.2075151135897
 30
0.0
 11
-110.7597637789834
 21
136.2075151135897
 31
0.0
  0
LINE
  5
ACA
330
1F
100
AcDbEntity
  8
0
 62
     7
 48
0.154465
100
AcDbLine
 10
-110.7597637789834
 20
136.2075151135897
 30
0.0
 11
-116.8909897789834
 21
136.9712781135897
 31
0.0
  0
LINE
  5
ACB
330
1F
100
AcDbEntity
  8
0
 62
     7
 48
0.256252
100
AcDbLine
 10
-0.0007307789834101
 20
136.2075151135897
 30
0.0
 11
-10.25079177898348
 21
136.2075151135897
 31
0.0
  0
LINE
  5
ACC
330
1F
100
AcDbEntity
  8
0
 62
     7
100
AcDbLine
 10
-10.25079177898348
 20
136.2075151135897
 30
0.0
 11
-41.96746677898345
 21
136.2075151135897
 31
0.0
  0
LINE
  5
ACD
330
1F
100
AcDbEntity
  8
0
 62
     7
 48
0.156678
100
AcDbLine
 10
6.219667221016521
 20
136.9712781135897
 30
0.0
 11
-0.0007307789834101
 21
136.2075151135897
 31
0.0
  0
LINE
  5
ACE
330
1F
100
AcDbEntity
  8
0
 62
     7
 48
0.019978
100
AcDbLine
 10
-110.7597637789834
 20
136.2075151135897
 30
0.0
 11
-111.5588967789834
 21
136.2075151135897
 31
0.0
  0
LINE
  5
ACF
330
1F
100
AcDbEntity
  8
0
 62
     7
 48
0.019963
100
AcDbLine
 10
-110.7195417789834
 20
136.0954541135897
 30
0.0
 11
-111.5180647789834
 21
136.0954541135897
 31
0.0
  0
LINE
  5
AD0
330
1F
100
AcDbEntity
  8
0
 62
     7
 48
0.002982
100
AcDbLine
 10
-111.5180647789834
 20
136.0954541135897
 30
0.0
 11
-111.5588967789834
 21
136.2075151135897
 31
0.0
  0
LINE
  5
AD1
330
1F
100
AcDbEntity
  8
0
 62
     7
 48
0.084718
100
AcDbLine
 10
-106.8990457789835
 20
135.6328541135897
 30
0.0
 11
-110.2877787789835
 21
135.6331281135897
 31
0.0
  0
ARC
  5
AD2
330
1F
100
AcDbEntity
  8
0
 62
     7
100
AcDbCircle
 10
-109.9700297789834
 20
136.3622391135898
 30
0.0
 40
0.795473
100
AcDbArc
 50
199.5913560000016
 51
246.4525019999969
  0
LINE
  5
AD3
330
1F
100
AcDbEntity
  8
0
 62
     7
 48
0.000182
100
AcDbLine
 10
-110.7122787789835
 20
136.0954541135897
 30
0.0
 11
-110.7195417789834
 21
136.0954541135897
 31
0.0
  0
LINE
  5
AD4
330
1F
100
AcDbEntity
  8
0
 62
     7
 48
0.001103
100
AcDbLine
 10
-0.4816877789835134
 20
135.6322281135897
 30
0.0
 11
-0.5258157789834002
 21
135.6318771135897
 31
0.0
  0
LINE
  5
AD5
330
1F
100
AcDbEntity
  8
0
 62
     7
 48
0.002664
100
AcDbLine
 10
-0.0415017789834735
 20
136.0954541135897
 30
0.0
 11
-0.1480697789833982
 21
136.0954541135897
 31
0.0
  0
ARC
  5
AD6
330
1F
100
AcDbEntity
  8
0
 62
     7
100
AcDbCircle
 10
-0.7933947789834691
 20
136.3691971135897
 30
0.0
 40
0.8001850000000001
100
AcDbArc
 50
292.9246919999988
 51
339.995843
  0
LINE
  5
AD7
330
1F
100
AcDbEntity
  8
0
 62
     7
 48
0.019963
100
AcDbLine
 10
-110.7195417789834
 20
136.0954541135897
 30
0.0
 11
-111.5180647789834
 21
136.0954541135897
 31
0.0
  0
ARC
  5
AD8
330
1F
100
AcDbEntity
  8
0
 62
     7
100
AcDbCircle
 10
-109.9700297789834
 20
136.3622241135897
 30
0.0
 40
0.7954620000000002
100
AcDbArc
 50
199.5910880000018
 51
246.4525970000007
  0
LINE
  5
AD9
330
1F
100
AcDbEntity
  8
0
 62
     7
 48
0.019885
100
AcDbLine
 10
-110.2877787789835
 20
135.6331431135897
 30
0.0
 11
-111.0831887789834
 21
135.6344861135897
 31
0.0
  0
ARC
  5
ADA
330
1F
100
AcDbEntity
  8
0
 62
     7
100
AcDbCircle
 10
-110.7661727789834
 20
136.3691971135897
 30
0.0
 40
0.8002029999999999
100
AcDbArc
 50
200.0045669999996
 51
246.6618740000019
  0
LINE
  5
ADB
330
1F
100
AcDbEntity
  8
0
 62
     7
 48
0.103333
100
AcDbLine
 10
-117.8461897789834
 20
134.9636641135897
 30
0.0
 11
-121.9794907789833
 21
134.9636641135897
 31
0.0
  0
LINE
  5
ADC
330
1F
100
AcDbEntity
  8
0
 62
     7
 48
0.003638
100
AcDbLine
 10
-117.7006817789834
 20
134.9636641135897
 30
0.0
 11
-117.8461897789834
 21
134.9636641135897
 31
0.0
  0
LINE
  5
ADD
330
1F
100
AcDbEntity
  8
0
 62
     7
 48
0.003638
100
AcDbLine
 10
6.286623221016526
 20
134.9636641135897
 30
0.0
 11
6.141115221016576
 21
134.9636641135897
 31
0.0
  0
LINE
  5
ADE
330
1F
100
AcDbEntity
  8
0
 62
     7
 48
0.103333
100
AcDbLine
 10
10.4199232210166
 20
134.9636641135897
 30
0.0
 11
6.286623221016526
 21
134.9636641135897
 31
0.0
  0
LINE
  5
ADF
330
1F
100
AcDbEntity
  8
0
 62
     7
 48
0.085951
100
AcDbLine
 10
-117.8887927789835
 20
134.6636611135897
 30
0.0
 11
-121.3268417789834
 21
134.6636611135897
 31
0.0
  0
ARC
  5
AE0
330
1F
100
AcDbEntity
  8
0
 62
     7
100
AcDbCircle
 10
-121.0287457789835
 20
134.6662091135897
 30
0.0
 40
0.297747
100
AcDbArc
 50
90.45971000000134
 51
180.4900089999998
  0
LINE
  5
AE1
330
1F
100
AcDbEntity
  8
0
 62
     7
 48
0.07849
100
AcDbLine
 10
-117.8914777789834
 20
134.9636641135897
 30
0.0
 11
-121.0310647789834
 21
134.9636641135897
 31
0.0
  0
LINE
  5
AE2
330
1F
100
AcDbEntity
  8
0
 62
     7
 48
0.109769
100
AcDbLine
 10
10.71997222101654
 20
134.6636611135897
 30
0.0
 11
6.329225221016512
 21
134.6636611135897
 31
0.0
  0
LINE
  5
AE3
330
1F
100
AcDbEntity
  8
0
 62
     7
 48
0.090762
100
AcDbLine
 10
9.962343221016595
 20
134.9636641135897
 30
0.0
 11
6.33185022101648
 21
134.9636641135897
 31
0.0
  0
LINE
  5
AE4
330
1F
100
AcDbEntity
  8
0
 62
     7
 48
0.011472
100
AcDbLine
 10
10.42120522101655
 20
134.9636491135897
 30
0.0
 11
9.962343221016595
 21
134.9636641135897
 31
0.0
  0
ARC
  5
AE5
330
1F
100
AcDbEntity
  8
0
 62
     7
100
AcDbCircle
 10
10.41998422101656
 20
134.6636761135897
 30
0.0
 40
0.299986
100
AcDbArc
 50
359.9984239999995
 51
89.76177399999986
  0
LINE
  5
AE6
330
1F
100
AcDbEntity
  8
0
 62
     7
 48
0.023822
100
AcDbLine
 10
-121.0311267789833
 20
134.9636641135897
 30
0.0
 11
-121.9840067789834
 21
134.9635881135897
 31
0.0
  0
ARC
  5
AE7
330
1F
100
AcDbEntity
  8
0
 62
     7
100
AcDbCircle
 10
-121.0287457789835
 20
134.6662091135897
 30
0.0
 40
0.297747
100
AcDbArc
 50
90.45971000000134
 51
180.4900089999998
  0
LINE
  5
AE8
330
1F
100
AcDbEntity
  8
0
 62
     7
 48
0.023817
100
AcDbLine
 10
-121.3268417789834
 20
134.6636611135897
 30
0.0
 11
-122.2795397789834
 21
134.6636611135897
 31
0.0
  0
ARC
  5
AE9
330
1F
100
AcDbEntity
  8
0
 62
     7
100
AcDbCircle
 10
-121.9795517789834
 20
134.6636761135897
 30
0.0
 40
0.299981
100
AcDbArc
 50
90.84989799999965
 51
180.0021379999997
  0
LINE
  5
AEA
330
1F
100
AcDbEntity
  8
0
 62
     7
 48
0.023817
100
AcDbLine
 10
-121.3268417789834
 20
134.6636611135897
 30
0.0
 11
-122.2795397789834
 21
134.6636611135897
 31
0.0
  0
LINE
  5
AEB
330
1F
100
AcDbEntity
  8
0
 62
     7
 48
0.2425
100
AcDbLine
 10
-121.3268417789834
 20
124.9636641135897
 30
0.0
 11
-121.3268417789834
 21
134.6636611135897
 31
0.0
  0
LINE
  5
AEC
330
1F
100
AcDbEntity
  8
0
 62
     7
 48
0.023817
100
AcDbLine
 10
-121.3268417789834
 20
124.9636641135897
 30
0.0
 11
-122.2795397789834
 21
124.9636641135897
 31
0.0
  0
LINE
  5
AED
330
1F
100
AcDbEntity
  8
0
 62
     7
 48
0.2425
100
AcDbLine
 10
-122.2795397789834
 20
124.9636641135897
 30
0.0
 11
-122.2795397789834
 21
134.6636611135897
 31
0.0
  0
LINE
  5
AEE
330
1F
100
AcDbEntity
  8
0
 62
     7
 48
0.088066
100
AcDbLine
 10
-117.8041977789834
 20
124.9636641135897
 30
0.0
 11
-121.3268417789834
 21
124.9636641135897
 31
0.0
  0
LINE
  5
AEF
330
1F
100
AcDbEntity
  8
0
 62
     7
 48
0.2425
100
AcDbLine
 10
-121.3268417789834
 20
124.9636641135897
 30
0.0
 11
-121.3268417789834
 21
134.6636611135897
 31
0.0
  0
LINE
  5
AF0
330
1F
100
AcDbEntity
  8
0
 62
     7
 48
0.085951
100
AcDbLine
 10
-117.8887927789835
 20
134.6636611135897
 30
0.0
 11
-121.3268417789834
 21
134.6636611135897
 31
0.0
  0
LINE
  5
AF1
330
1F
100
AcDbEntity
  8
0
 62
     7
 48
0.111884
100
AcDbLine
 10
10.71997222101654
 20
124.9636641135897
 30
0.0
 11
6.244630221016593
 21
124.9636641135897
 31
0.0
  0
LINE
  5
AF2
330
1F
100
AcDbEntity
  8
0
 62
     7
 48
0.109769
100
AcDbLine
 10
10.71997222101654
 20
134.6636611135897
 30
0.0
 11
6.329225221016512
 21
134.6636611135897
 31
0.0
  0
LINE
  5
AF3
330
1F
100
AcDbEntity
  8
0
 62
     7
 48
0.2425
100
AcDbLine
 10
10.71997222101654
 20
124.9636641135897
 30
0.0
 11
10.71997222101654
 21
134.6636611135897
 31
0.0
  0
LINE
  5
AF4
330
1F
100
AcDbEntity
  8
0
 62
     7
 48
0.014745
100
AcDbLine
 10
-122.2795397789834
 20
124.9636641135897
 30
0.0
 11
-122.8693217789834
 21
124.9636641135897
 31
0.0
  0
LINE
  5
AF5
330
1F
100
AcDbEntity
  8
0
 62
     7
 48
0.014224
100
AcDbLine
 10
-121.7105697789834
 20
124.9636641135897
 30
0.0
 11
-122.2795397789834
 21
124.9636641135897
 31
0.0
  0
LINE
  5
AF6
330
1F
100
AcDbEntity
  8
0
 62
     7
 48
0.042424
100
AcDbLine
 10
-120.0136087789835
 20
124.9636641135897
 30
0.0
 11
-121.7105697789834
 21
124.9636641135897
 31
0.0
  0
LINE
  5
AF7
330
1F
100
AcDbEntity
  8
0
 62
     7
 48
0.055235
100
AcDbLine
 10
-81.68077436901183
 20
124.9636641135897
 30
0.0
 11
-120.0136087789835
 21
124.9636641135897
 31
0.0
  0
LINE
  5
AF8
330
1F
100
AcDbEntity
  8
0
 62
     7
 48
0.055237
100
AcDbLine
 10
8.454042221016521
 20
124.9636641135897
 30
0.0
 11
-29.87879318895488
 21
124.9636641135897
 31
0.0
  0
LINE
  5
AF9
330
1F
100
AcDbEntity
  8
0
 62
     7
 48
0.042424
100
AcDbLine
 10
10.15100222101651
 20
124.9636641135897
 30
0.0
 11
8.454042221016521
 21
124.9636641135897
 31
0.0
  0
LINE
  5
AFA
330
1F
100
AcDbEntity
  8
0
 62
     7
 48
0.014224
100
AcDbLine
 10
10.71997222101654
 20
124.9636641135897
 30
0.0
 11
10.15100222101651
 21
124.9636641135897
 31
0.0
  0
LINE
  5
AFB
330
1F
100
AcDbEntity
  8
0
 62
     7
 48
0.014745
100
AcDbLine
 10
11.30975522101656
 20
124.9636641135897
 30
0.0
 11
10.71997222101654
 21
124.9636641135897
 31
0.0
  0
LINE
  5
AFC
330
1F
100
AcDbEntity
  8
0
 62
     7
 48
0.014859
100
AcDbLine
 10
-122.2795397789834
 20
124.9636641135897
 30
0.0
 11
-122.8738997789834
 21
124.9637101135897
 31
0.0
  0
ARC
  5
AFD
330
1F
100
AcDbEntity
  8
0
 62
     7
100
AcDbCircle
 10
-121.8989237789833
 20
125.4619091135897
 30
0.0
 40
0.501821
100
AcDbArc
 50
191.0704189999993
 51
220.7383799999993
  0
LINE
  5
AFE
330
1F
100
AcDbEntity
  8
0
 62
     7
 48
0.024203
100
AcDbLine
 10
-122.3914777789834
 20
125.3655351135897
 30
0.0
 11
-123.3596177789834
 21
125.3655351135897
 31
0.0
  0
ARC
  5
AFF
330
1F
100
AcDbEntity
  8
0
 62
     7
100
AcDbCircle
 10
-122.8694437789834
 20
125.4635571135897
 30
0.0
 40
0.499873
100
AcDbArc
 50
191.3086510000006
 51
269.4886739999986
  0
LINE
  5
B00
330
1F
100
AcDbEntity
  8
0
 62
     7
 48
0.027002
100
AcDbLine
 10
11.8000502210165
 20
125.3655351135897
 30
0.0
 11
10.71997222101654
 21
125.3655351135897
 31
0.0
  0
LINE
  5
B01
330
1F
100
AcDbEntity
  8
0
 62
     7
 48
0.00351
100
AcDbLine
 10
10.85998722101649
 20
124.9636641135897
 30
0.0
 11
10.71960622101656
 21
124.9636641135897
 31
0.0
  0
LINE
  5
B02
330
1F
100
AcDbEntity
  8
0
 62
     7
 48
0.011278
100
AcDbLine
 10
11.31109822101658
 20
124.9636791135897
 30
0.0
 11
10.85998722101649
 21
124.9636641135897
 31
0.0
  0
ARC
  5
B03
330
1F
100
AcDbEntity
  8
0
 62
     7
100
AcDbCircle
 10
11.30987722101659
 20
125.4635731135897
 30
0.0
 40
0.499884
100
AcDbArc
 50
270.1406980000014
 51
348.6905909999996
  0
LINE
  5
B04
330
1F
100
AcDbEntity
  8
0
 62
     7
 48
0.0028
100
AcDbLine
 10
-122.2794787789834
 20
125.3655351135897
 30
0.0
 11
-122.3914777789834
 21
125.3655351135897
 31
0.0
  0
ARC
  5
B05
330
1F
100
AcDbEntity
  8
0
 62
     7
100
AcDbCircle
 10
-121.8989237789833
 20
125.4619091135897
 30
0.0
 40
0.501821
100
AcDbArc
 50
191.0704189999993
 51
220.7383799999993
  0
LINE
  5
B06
330
1F
100
AcDbEntity
  8
0
 62
     7
 48
0.046036
100
AcDbLine
 10
-122.3914777789834
 20
125.3655351135897
 30
0.0
 11
-122.7478617789834
 21
127.1721751135897
 31
0.0
  0
LINE
  5
B07
330
1F
100
AcDbEntity
  8
0
 62
     7
 48
0.002802
100
AcDbLine
 10
-122.2794177789835
 20
125.3655351135897
 30
0.0
 11
-122.3914777789834
 21
125.3655351135897
 31
0.0
  0
LINE
  5
B08
330
1F
100
AcDbEntity
  8
0
 62
     7
 48
0.027002
100
AcDbLine
 10
11.8000502210165
 20
125.3655351135897
 30
0.0
 11
10.71997222101654
 21
125.3655351135897
 31
0.0
  0
LINE
  5
B09
330
1F
100
AcDbEntity
  8
0
 62
     7
 48
0.046062
100
AcDbLine
 10
11.8000502210165
 20
125.3655351135897
 30
0.0
 11
12.1616842210166
 21
127.1721751135897
 31
0.0
  0
LINE
  5
B0A
330
1F
100
AcDbEntity
  8
0
 62
     7
 48
0.024203
100
AcDbLine
 10
-122.3914777789834
 20
125.3655351135897
 30
0.0
 11
-123.3596177789834
 21
125.3655351135897
 31
0.0
  0
LINE
  5
B0B
330
1F
100
AcDbEntity
  8
0
 62
     7
 48
0.046036
100
AcDbLine
 10
-122.3914777789834
 20
125.3655351135897
 30
0.0
 11
-122.7478617789834
 21
127.1721751135897
 31
0.0
  0
LINE
  5
B0C
330
1F
100
AcDbEntity
  8
0
 62
     7
 48
0.046062
100
AcDbLine
 10
-123.3596177789834
 20
125.3655351135897
 30
0.0
 11
-123.7212507789834
 21
127.1721751135897
 31
0.0
  0
ARC
  5
B0D
330
1F
100
AcDbEntity
  8
0
 62
     7
100
AcDbCircle
 10
-120.7797837789835
 20
127.7623401135897
 30
0.0
 40
2.999953
100
AcDbArc
 50
180.02689
 51
191.3276839999999
  0
ARC
  5
B0E
330
1F
100
AcDbEntity
  8
0
 62
     7
100
AcDbCircle
 10
9.219545221016488
 20
127.7623851135897
 30
0.0
 40
3.000600999999998
100
AcDbArc
 50
348.6614950000009
 51
359.9722469999999
  0
LINE
  5
B0F
330
1F
100
AcDbEntity
  8
0
 62
     7
 48
0.013147
100
AcDbLine
 10
-122.2795397789834
 20
128.8636731135897
 30
0.0
 11
-122.8054177789834
 21
128.8636731135897
 31
0.0
  0
LINE
  5
B10
330
1F
100
AcDbEntity
  8
0
 62
     7
 48
0.0375
100
AcDbLine
 10
12.21997222101655
 20
128.8636731135897
 30
0.0
 11
10.71997222101654
 21
128.8636731135897
 31
0.0
  0
LINE
  5
B11
330
1F
100
AcDbEntity
  8
0
 62
     7
 48
0.027568
100
AcDbLine
 10
12.21997222101655
 20
128.8636731135897
 30
0.0
 11
12.21997222101655
 21
127.7609361135897
 31
0.0
  0
LINE
  5
B12
330
1F
100
AcDbEntity
  8
0
 62
     7
 48
0.024353
100
AcDbLine
 10
-122.8054177789834
 20
128.8636731135897
 30
0.0
 11
-123.7795397789834
 21
128.8636731135897
 31
0.0
  0
LINE
  5
B13
330
1F
100
AcDbEntity
  8
0
 62
     7
 48
0.027568
100
AcDbLine
 10
-123.7795397789834
 20
128.8636731135897
 30
0.0
 11
-123.7795397789834
 21
127.7609361135897
 31
0.0
  0
LINE
  5
B14
330
1F
100
AcDbEntity
  8
0
 62
     7
 48
0.0125
100
AcDbLine
 10
-123.7795397789834
 20
128.8636731135897
 30
0.0
 11
-124.2795397789834
 21
128.8636731135897
 31
0.0
  0
LINE
  5
B15
330
1F
100
AcDbEntity
  8
0
 62
     7
 48
0.014543
100
AcDbLine
 10
-123.1978137789834
 20
128.8636731135897
 30
0.0
 11
-123.7795397789834
 21
128.8636731135897
 31
0.0
  0
LINE
  5
B16
330
1F
100
AcDbEntity
  8
0
 62
     7
 48
0.022957
100
AcDbLine
 10
-122.2795397789834
 20
128.8636731135897
 30
0.0
 11
-123.1978137789834
 21
128.8636731135897
 31
0.0
  0
LINE
  5
B17
330
1F
100
AcDbEntity
  8
0
 62
     7
 48
0.022957
100
AcDbLine
 10
11.63824622101654
 20
128.8636731135897
 30
0.0
 11
10.71997222101654
 21
128.8636731135897
 31
0.0
  0
LINE
  5
B18
330
1F
100
AcDbEntity
  8
0
 62
     7
 48
0.014543
100
AcDbLine
 10
12.21997222101655
 20
128.8636731135897
 30
0.0
 11
11.63824622101654
 21
128.8636731135897
 31
0.0
  0
LINE
  5
B19
330
1F
100
AcDbEntity
  8
0
 62
     7
 48
0.0125
100
AcDbLine
 10
12.71997222101655
 20
128.8636731135897
 30
0.0
 11
12.21997222101655
 21
128.8636731135897
 31
0.0
  0
LINE
  5
B1A
330
1F
100
AcDbEntity
  8
0
 62
     7
 48
0.025467
100
AcDbLine
 10
-122.2795397789834
 20
133.3983721135897
 30
0.0
 11
-123.2982157789834
 21
133.3983721135897
 31
0.0
  0
LINE
  5
B1B
330
1F
100
AcDbEntity
  8
0
 62
     7
 48
0.113367
100
AcDbLine
 10
-123.2982157789834
 20
128.8636731135897
 30
0.0
 11
-123.2982157789834
 21
133.3983721135897
 31
0.0
  0
LINE
  5
B1C
330
1F
100
AcDbEntity
  8
0
 62
     7
 48
0.025476
100
AcDbLine
 10
-122.2791727789834
 20
128.8636731135897
 30
0.0
 11
-123.2982157789834
 21
128.8636731135897
 31
0.0
  0
LINE
  5
B1D
330
1F
100
AcDbEntity
  8
0
 62
     7
 48
0.050005
100
AcDbLine
 10
12.71997222101655
 20
133.3983721135897
 30
0.0
 11
10.71978922101655
 21
133.3983721135897
 31
0.0
  0
LINE
  5
B1E
330
1F
100
AcDbEntity
  8
0
 62
     7
 48
0.05
100
AcDbLine
 10
12.71997222101655
 20
128.8636731135897
 30
0.0
 11
10.71997222101654
 21
128.8636731135897
 31
0.0
  0
LINE
  5
B1F
330
1F
100
AcDbEntity
  8
0
 62
     7
 48
0.113367
100
AcDbLine
 10
12.71997222101655
 20
133.3983721135897
 30
0.0
 11
12.71997222101655
 21
128.8636731135897
 31
0.0
  0
LINE
  5
B20
330
1F
100
AcDbEntity
  8
0
 62
     7
 48
0.024533
100
AcDbLine
 10
-123.2982157789834
 20
128.8636731135897
 30
0.0
 11
-124.2795397789834
 21
128.8636731135897
 31
0.0
  0
LINE
  5
B21
330
1F
100
AcDbEntity
  8
0
 62
     7
 48
0.113367
100
AcDbLine
 10
-123.2982157789834
 20
128.8636731135897
 30
0.0
 11
-123.2982157789834
 21
133.3983721135897
 31
0.0
  0
LINE
  5
B22
330
1F
100
AcDbEntity
  8
0
 62
     7
 48
0.024533
100
AcDbLine
 10
-123.2982157789834
 20
133.3983721135897
 30
0.0
 11
-124.2795397789834
 21
133.3983721135897
 31
0.0
  0
LINE
  5
B23
330
1F
100
AcDbEntity
  8
0
 62
     7
 48
0.113367
100
AcDbLine
 10
-124.2795397789834
 20
133.3983721135897
 30
0.0
 11
-124.2795397789834
 21
128.8636731135897
 31
0.0
  0
ARC
  5
B24
330
1F
100
AcDbEntity
  8
0
 62
     7
100
AcDbCircle
 10
-83.51189977898348
 20
102.7936811135897
 30
0.0
 40
50.19577
100
AcDbArc
 50
144.3088459999975
 51
148.7307380000005
  0
LINE
  5
B25
330
1F
100
AcDbEntity
  8
0
 62
     7
 48
0.025476
100
AcDbLine
 10
-122.2791727789834
 20
133.3983721135897
 30
0.0
 11
-123.2982157789834
 21
133.3983721135897
 31
0.0
  0
LINE
  5
B26
330
1F
100
AcDbEntity
  8
0
 62
     7
 48
0.004996
100
AcDbLine
 10
16.42004522101652
 20
127.9563091135897
 30
0.0
 11
16.2202162210165
 21
127.9563091135897
 31
0.0
  0
LINE
  5
B27
330
1F
100
AcDbEntity
  8
0
 62
     7
 48
0.05
100
AcDbLine
 10
12.71997222101655
 20
133.3983721135897
 30
0.0
 11
10.71997222101654
 21
133.3983721135897
 31
0.0
  0
ARC
  5
B28
330
1F
100
AcDbEntity
  8
0
 62
     7
100
AcDbCircle
 10
-26.7792337789835
 20
102.5641891135897
 30
0.0
 40
50.109238
100
AcDbArc
 50
30.44662899999917
 51
37.97659800000179
  0
LINE
  5
B29
330
1F
100
AcDbEntity
  8
0
 62
     7
 48
0.024533
100
AcDbLine
 10
-123.2982157789834
 20
133.3983721135897
 30
0.0
 11
-124.2795397789834
 21
133.3983721135897
 31
0.0
  0
ARC
  5
B2A
330
1F
100
AcDbEntity
  8
0
 62
     7
100
AcDbCircle
 10
-83.51189977898348
 20
102.7936811135897
 30
0.0
 40
50.19577
100
AcDbArc
 50
144.3088459999975
 51
148.7307250000013
  0
LINE
  5
B2B
330
1F
100
AcDbEntity
  8
0
 62
     7
 48
0.004996
100
AcDbLine
 10
-127.7797837789834
 20
127.9563091135897
 30
0.0
 11
-127.9796127789835
 21
127.9563091135897
 31
0.0
  0
ARC
  5
B2C
330
1F
100
AcDbEntity
  8
0
 62
     7
100
AcDbCircle
 10
-84.78033277898346
 20
102.5641891135897
 30
0.0
 40
50.109238
100
AcDbArc
 50
142.0234069999991
 51
149.5533769999995
  0
LINE
  5
B2D
330
1F
100
AcDbEntity
  8
0
 62
     7
 48
0.004996
100
AcDbLine
 10
-127.7797837789834
 20
127.9563091135897
 30
0.0
 11
-127.9796127789835
 21
127.9563091135897
 31
0.0
  0
LINE
  5
B2E
330
1F
100
AcDbEntity
  8
0
 62
     7
 48
0.004996
100
AcDbLine
 10
-127.7797837789834
 20
127.1639051135897
 30
0.0
 11
-127.9796127789835
 21
127.1639051135897
 31
0.0
  0
LINE
  5
B2F
330
1F
100
AcDbEntity
  8
0
 62
     7
 48
0.01981
100
AcDbLine
 10
-127.9796127789835
 20
127.1639051135897
 30
0.0
 11
-127.9796127789835
 21
127.9563091135897
 31
0.0
  0
LINE
  5
B30
330
1F
100
AcDbEntity
  8
0
 62
     7
 48
0.005014
100
AcDbLine
 10
16.42004522101652
 20
127.1639051135897
 30
0.0
 11
16.21948422101653
 21
127.1639051135897
 31
0.0
  0
LINE
  5
B31
330
1F
100
AcDbEntity
  8
0
 62
     7
 48
0.005009
100
AcDbLine
 10
16.42004522101652
 20
127.9563091135897
 30
0.0
 11
16.21966722101652
 21
127.9563091135897
 31
0.0
  0
LINE
  5
B32
330
1F
100
AcDbEntity
  8
0
 62
     7
 48
0.01981
100
AcDbLine
 10
16.42004522101652
 20
127.1639051135897
 30
0.0
 11
16.42004522101652
 21
127.9563091135897
 31
0.0
  0
LINE
  5
B33
330
1F
100
AcDbEntity
  8
0
 62
     7
 48
0.005003
100
AcDbLine
 10
-127.7794787789834
 20
127.1639051135897
 30
0.0
 11
-127.9796127789835
 21
127.1639051135897
 31
0.0
  0
LINE
  5
B34
330
1F
100
AcDbEntity
  8
0
 62
     7
 48
0.006457
100
AcDbLine
 10
-126.4521467789835
 20
126.6636611135897
 30
0.0
 11
-126.6334817789833
 21
126.8476061135897
 31
0.0
  0
LINE
  5
B35
330
1F
100
AcDbEntity
  8
0
 62
     7
 48
0.025681
100
AcDbLine
 10
-126.4521467789835
 20
126.6636611135897
 30
0.0
 11
-127.4793687789834
 21
126.6636611135897
 31
0.0
  0
LINE
  5
B36
330
1F
100
AcDbEntity
  8
0
 62
     7
 48
0.017686
100
AcDbLine
 10
-127.4793687789834
 20
126.6636611135897
 30
0.0
 11
-127.9796127789835
 21
127.1639051135897
 31
0.0
  0
LINE
  5
B37
330
1F
100
AcDbEntity
  8
0
 62
     7
 48
0.004659
100
AcDbLine
 10
-126.2658067789834
 20
126.6636611135897
 30
0.0
 11
-126.4521467789835
 21
126.6636611135897
 31
0.0
  0
LINE
  5
B38
330
1F
100
AcDbEntity
  8
0
 62
     7
 48
0.006457
100
AcDbLine
 10
-126.4521467789835
 20
126.6636611135897
 30
0.0
 11
-126.6334817789833
 21
126.8476061135897
 31
0.0
  0
LINE
  5
B39
330
1F
100
AcDbEntity
  8
0
 62
     7
 48
0.030356
100
AcDbLine
 10
15.91980122101657
 20
126.6636611135897
 30
0.0
 11
14.70556822101653
 21
126.6636611135897
 31
0.0
  0
LINE
  5
B3A
330
1F
100
AcDbEntity
  8
0
 62
     7
 48
0.005013
100
AcDbLine
 10
16.42004522101652
 20
127.1639051135897
 30
0.0
 11
16.21954522101649
 21
127.1639051135897
 31
0.0
  0
LINE
  5
B3B
330
1F
100
AcDbEntity
  8
0
 62
     7
 48
0.017686
100
AcDbLine
 10
16.42004522101652
 20
127.1639051135897
 30
0.0
 11
15.91980122101657
 21
126.6636611135897
 31
0.0
  0
LINE
  5
B3C
330
1F
100
AcDbEntity
  8
0
 62
     7
 48
0.025681
100
AcDbLine
 10
-126.4521467789835
 20
126.6636611135897
 30
0.0
 11
-127.4793687789834
 21
126.6636611135897
 31
0.0
  0
LINE
  5
B3D
330
1F
100
AcDbEntity
  8
0
 62
     7
 48
0.0025
100
AcDbLine
 10
-126.4521467789835
 20
126.5636551135897
 30
0.0
 11
-126.4521467789835
 21
126.6636611135897
 31
0.0
  0
LINE
  5
B3E
330
1F
100
AcDbEntity
  8
0
 62
     7
 48
0.025681
100
AcDbLine
 10
-126.4521467789835
 20
126.5636551135897
 30
0.0
 11
-127.4793687789834
 21
126.5636551135897
 31
0.0
  0
LINE
  5
B3F
330
1F
100
AcDbEntity
  8
0
 62
     7
 48
0.0025
100
AcDbLine
 10
-127.4793687789834
 20
126.5636551135897
 30
0.0
 11
-127.4793687789834
 21
126.6636611135897
 31
0.0
  0
LINE
  5
B40
330
1F
100
AcDbEntity
  8
0
 62
     7
 48
0.006259
100
AcDbLine
 10
-126.2017807789834
 20
126.5636551135897
 30
0.0
 11
-126.4521467789835
 21
126.5636551135897
 31
0.0
  0
LINE
  5
B41
330
1F
100
AcDbEntity
  8
0
 62
     7
 48
0.0025
100
AcDbLine
 10
-126.4521467789835
 20
126.5636551135897
 30
0.0
 11
-126.4521467789835
 21
126.6636611135897
 31
0.0
  0
LINE
  5
B42
330
1F
100
AcDbEntity
  8
0
 62
     7
 48
0.004652
100
AcDbLine
 10
-126.2660507789834
 20
126.6636611135897
 30
0.0
 11
-126.4521467789835
 21
126.6636611135897
 31
0.0
  0
LINE
  5
B43
330
1F
100
AcDbEntity
  8
0
 62
     7
 48
0.03194
100
AcDbLine
 10
15.91980122101657
 20
126.5636551135897
 30
0.0
 11
14.64221322101653
 21
126.5636551135897
 31
0.0
  0
LINE
  5
B44
330
1F
100
AcDbEntity
  8
0
 62
     7
 48
0.030336
100
AcDbLine
 10
15.91980122101657
 20
126.6636611135897
 30
0.0
 11
14.70636122101658
 21
126.6636611135897
 31
0.0
  0
LINE
  5
B45
330
1F
100
AcDbEntity
  8
0
 62
     7
 48
0.0025
100
AcDbLine
 10
15.91980122101657
 20
126.5636551135897
 30
0.0
 11
15.91980122101657
 21
126.6636611135897
 31
0.0
  0
LINE
  5
B46
330
1F
100
AcDbEntity
  8
0
 62
     7
 48
0.025681
100
AcDbLine
 10
-126.4521467789835
 20
126.5636551135897
 30
0.0
 11
-127.4793687789834
 21
126.5636551135897
 31
0.0
  0
ARC
  5
B47
330
1F
100
AcDbEntity
  8
0
 62
     7
100
AcDbCircle
 10
-127.0483377789835
 20
126.5585591135897
 30
0.0
 40
0.5954950000000001
100
AcDbArc
 50
270.4597259999982
 51
0.4900059999998731
  0
LINE
  5
B48
330
1F
100
AcDbEntity
  8
0
 62
     7
 48
0.025894
100
AcDbLine
 10
-127.0435777789834
 20
125.9636641135897
 30
0.0
 11
-128.0793437789834
 21
125.9636641135897
 31
0.0
  0
ARC
  5
B49
330
1F
100
AcDbEntity
  8
0
 62
     7
100
AcDbCircle
 10
-128.0791607789834
 20
126.5634721135897
 30
0.0
 40
0.5997500000000003
100
AcDbArc
 50
269.982131999999
 51
0.0179309999995601
  0
LINE
  5
B4A
330
1F
100
AcDbEntity
  8
0
 62
     7
 48
0.048599
100
AcDbLine
 10
16.51648122101656
 20
125.9637101135897
 30
0.0
 11
14.57251122101652
 21
125.9637711135897
 31
0.0
  0
LINE
  5
B4B
330
1F
100
AcDbEntity
  8
0
 62
     7
 48
0.031938
100
AcDbLine
 10
15.91980122101657
 20
126.5636551135897
 30
0.0
 11
14.64227422101649
 21
126.5636551135897
 31
0.0
  0
ARC
  5
B4C
330
1F
100
AcDbEntity
  8
0
 62
     7
100
AcDbCircle
 10
16.51959422101654
 20
126.5634721135897
 30
0.0
 40
0.599738
100
AcDbArc
 50
179.9813860000005
 51
269.7031759999968
  0
LINE
  5
B4D
330
1F
100
AcDbEntity
  8
0
 62
     7
 48
0.022786
100
AcDbLine
 10
-126.1320787789835
 20
125.9636641135897
 30
0.0
 11
-127.0435167789834
 21
125.9636641135897
 31
0.0
  0
ARC
  5
B4E
330
1F
100
AcDbEntity
  8
0
 62
     7
100
AcDbCircle
 10
-127.0483377789835
 20
126.5585591135897
 30
0.0
 40
0.5954950000000001
100
AcDbArc
 50
270.4597259999982
 51
0.4900059999998731
  0
LINE
  5
B4F
330
1F
100
AcDbEntity
  8
0
 62
     7
 48
0.006259
100
AcDbLine
 10
-126.2017807789834
 20
126.5636551135897
 30
0.0
 11
-126.4521467789835
 21
126.5636551135897
 31
0.0
  0
LINE
  5
B50
330
1F
100
AcDbEntity
  8
0
 62
     7
 48
0.017505
100
AcDbLine
 10
-128.0793437789834
 20
125.9636641135897
 30
0.0
 11
-128.7795397789834
 21
125.9636641135897
 31
0.0
  0
LINE
  5
B51
330
1F
100
AcDbEntity
  8
0
 62
     7
 48
0.015463
100
AcDbLine
 10
-127.4608137789834
 20
125.9636641135897
 30
0.0
 11
-128.0793437789834
 21
125.9636641135897
 31
0.0
  0
LINE
  5
B52
330
1F
100
AcDbEntity
  8
0
 62
     7
 48
0.033217
100
AcDbLine
 10
-126.1321397789834
 20
125.9636641135897
 30
0.0
 11
-127.4608137789834
 21
125.9636641135897
 31
0.0
  0
LINE
  5
B53
330
1F
100
AcDbEntity
  8
0
 62
     7
 48
0.033223
100
AcDbLine
 10
15.90124722101657
 20
125.9636641135897
 30
0.0
 11
14.57232822101653
 21
125.9636641135897
 31
0.0
  0
LINE
  5
B54
330
1F
100
AcDbEntity
  8
0
 62
     7
 48
0.015463
100
AcDbLine
 10
16.51977722101654
 20
125.9636641135897
 30
0.0
 11
15.90124722101657
 21
125.9636641135897
 31
0.0
  0
LINE
  5
B55
330
1F
100
AcDbEntity
  8
0
 62
     7
 48
0.017505
100
AcDbLine
 10
17.21997222101655
 20
125.9636641135897
 30
0.0
 11
16.51977722101654
 21
125.9636641135897
 31
0.0
  0
LINE
  5
B56
330
1F
100
AcDbEntity
  8
0
 62
     7
 48
0.026505
100
AcDbLine
 10
-128.7194197789834
 20
126.9636641135897
 30
0.0
 11
-129.7796007789834
 21
126.9636641135897
 31
0.0
  0
LINE
  5
B57
330
1F
100
AcDbEntity
  8
0
 62
     7
 48
0.000862
100
AcDbLine
 10
-128.7194197789834
 20
126.9636641135897
 30
0.0
 11
-128.7188707789834
 21
126.9981341135897
 31
0.0
  0
LINE
  5
B58
330
1F
100
AcDbEntity
  8
0
 62
     7
 48
0.026503
100
AcDbLine
 10
-128.7188707789834
 20
126.9981341135897
 30
0.0
 11
-129.7789897789834
 21
126.9979511135897
 31
0.0
  0
LINE
  5
B59
330
1F
100
AcDbEntity
  8
0
 62
     7
 48
0.00087
100
AcDbLine
 10
-129.7796007789834
 20
126.9636641135897
 30
0.0
 11
-129.7789897789834
 21
126.9984691135897
 31
0.0
  0
LINE
  5
B5A
330
1F
100
AcDbEntity
  8
0
 62
     7
 48
0.049118
100
AcDbLine
 10
18.21942322101657
 20
126.9982561135897
 30
0.0
 11
16.25470122101652
 21
126.9984081135897
 31
0.0
  0
LINE
  5
B5B
330
1F
100
AcDbEntity
  8
0
 62
     7
 48
0.049995
100
AcDbLine
 10
18.2200332210165
 20
126.9636641135897
 30
0.0
 11
16.2202162210165
 21
126.9636641135897
 31
0.0
  0
LINE
  5
B5C
330
1F
100
AcDbEntity
  8
0
 62
     7
 48
0.000869
100
AcDbLine
 10
18.2200332210165
 20
126.9636641135897
 30
0.0
 11
18.21942322101657
 21
126.9984081135897
 31
0.0
  0
LINE
  5
B5D
330
1F
100
AcDbEntity
  8
0
 62
     7
 48
0.022626
100
AcDbLine
 10
-127.8138407789834
 20
126.9981031135897
 30
0.0
 11
-128.7188707789834
 21
126.9981341135897
 31
0.0
  0
LINE
  5
B5E
330
1F
100
AcDbEntity
  8
0
 62
     7
 48
0.000862
100
AcDbLine
 10
-128.7194197789834
 20
126.9636641135897
 30
0.0
 11
-128.7188707789834
 21
126.9981341135897
 31
0.0
  0
LINE
  5
B5F
330
1F
100
AcDbEntity
  8
0
 62
     7
 48
0.023491
100
AcDbLine
 10
-127.7797837789834
 20
126.9636641135897
 30
0.0
 11
-128.7194197789834
 21
126.9636641135897
 31
0.0
  0
LINE
  5
B60
330
1F
100
AcDbEntity
  8
0
 62
     7
 48
0.108253
100
AcDbLine
 10
0.8875752210165329
 20
136.1043351135897
 30
0.0
 11
5.217714221016564
 21
136.1043351135897
 31
0.0
  0
LINE
  5
B61
330
1F
100
AcDbEntity
  8
0
 62
     7
 48
0.117191
100
AcDbLine
 10
-0.6853617789834914
 20
135.5454051135897
 30
0.0
 11
-5.372983778983523
 21
135.5430561135897
 31
0.0
  0
ARC
  5
B62
330
1F
100
AcDbEntity
  8
0
 62
     7
100
AcDbCircle
 10
-1.077634778983421
 20
136.4654951135898
 30
0.0
 40
1.000238999999997
100
AcDbArc
 50
293.0922159999992
 51
339.9957469999989
  0
LINE
  5
B63
330
1F
100
AcDbEntity
  8
0
 62
     7
 48
0.01207
100
AcDbLine
 10
-0.1377547789835205
 20
136.1233171135897
 30
0.0
 11
-0.6205427789834346
 21
136.1233171135897
 31
0.0
  0
LINE
  5
B64
330
1F
100
AcDbEntity
  8
0
 62
     7
 48
0.02347
100
AcDbLine
 10
-127.7806377789834
 20
126.9636641135897
 30
0.0
 11
-128.7194197789834
 21
126.9636641135897
 31
0.0
  0
LINE
  5
B65
330
1F
100
AcDbEntity
  8
0
 62
     7
 48
0.049995
100
AcDbLine
 10
18.2200332210165
 20
126.9636641135897
 30
0.0
 11
16.2202162210165
 21
126.9636641135897
 31
0.0
  0
LINE
  5
B66
330
1F
100
AcDbEntity
  8
0
 62
     7
 48
0.005357
100
AcDbLine
 10
16.7305312210166
 20
125.9636641135897
 30
0.0
 11
16.51623722101649
 21
125.9636641135897
 31
0.0
  0
LINE
  5
B67
330
1F
100
AcDbEntity
  8
0
 62
     7
 48
0.012273
100
AcDbLine
 10
17.22143722101648
 20
125.9636791135897
 30
0.0
 11
16.7305312210166
 21
125.9636641135897
 31
0.0
  0
ARC
  5
B68
330
1F
100
AcDbEntity
  8
0
 62
     7
100
AcDbCircle
 10
17.22033822101653
 20
126.9633441135897
 30
0.0
 40
0.999582
100
AcDbArc
 50
270.0632739999992
 51
0.0179170000003953
  0
LINE
  5
B69
330
1F
100
AcDbEntity
  8
0
 62
     7
 48
0.017647
100
AcDbLine
 10
-128.0786727789834
 20
125.9636641135897
 30
0.0
 11
-128.7845437789834
 21
125.9637101135897
 31
0.0
  0
LINE
  5
B6A
330
1F
100
AcDbEntity
  8
0
 62
     7
 48
0.026505
100
AcDbLine
 10
-128.7194197789834
 20
126.9636641135897
 30
0.0
 11
-129.7796007789834
 21
126.9636641135897
 31
0.0
  0
ARC
  5
B6B
330
1F
100
AcDbEntity
  8
0
 62
     7
100
AcDbCircle
 10
-128.7799057789834
 20
126.9633441135897
 30
0.0
 40
0.9995659999999999
100
AcDbArc
 50
179.9814890000006
 51
269.7358999999973
  0
LINE
  5
B6C
330
1F
100
AcDbEntity
  8
0
 62
     7
 48
0.033086
100
AcDbLine
 10
-118.5292337789835
 20
151.4688981135897
 30
0.0
 11
-119.8526597789834
 21
151.4688981135897
 31
0.0
  0
LINE
  5
B6E
330
1F
100
AcDbEntity
  8
0
 62
     7
 48
0.056367
100
AcDbLine
 10
9.224306221016519
 20
151.4688981135897
 30
0.0
 11
6.969606221016562
 21
151.4688981135897
 31
0.0
  0
LINE
  5
B70
330
1F
100
AcDbEntity
  8
0
 62
     7
 48
0.33784
100
AcDbLine
 10
9.224306221016519
 20
151.4688981135897
 30
0.0
 11
9.342287221016503
 21
137.9558061135897
 31
0.0
  0
LINE
  5
B71
330
1F
100
AcDbEntity
  8
0
 62
     7
 48
0.001173
100
AcDbLine
 10
-118.0397927789834
 20
151.9645341135896
 30
0.0
 11
-118.0867297789834
 21
151.9645341135896
 31
0.0
  0
LINE
  5
B73
330
1F
100
AcDbEntity
  8
0
 62
     7
 48
0.02328
100
AcDbLine
 10
-119.8526597789834
 20
151.4688981135897
 30
0.0
 11
-120.7838727789834
 21
151.4688981135897
 31
0.0
  0
LINE
  5
B74
330
1F
100
AcDbEntity
  8
0
 62
     7
 48
0.33784
100
AcDbLine
 10
-120.9018537789835
 20
137.9558061135897
 30
0.0
 11
-120.7838727789834
 21
151.4688981135897
 31
0.0
  0
LINE
  5
B75
330
1F
100
AcDbEntity
  8
0
 62
     7
 48
0.076138
100
AcDbLine
 10
-117.9089337789834
 20
136.9645641135897
 30
0.0
 11
-120.9544657789834
 21
136.9645341135897
 31
0.0
  0
ARC
  5
B76
330
1F
100
AcDbEntity
  8
0
 62
     7
100
AcDbCircle
 10
8.724489221016511
 20
151.4646861135897
 30
0.0
 40
0.499795
100
AcDbArc
 50
0.4824520000005128
 51
90.01749600000174
  0
LINE
  5
B77
330
1F
100
AcDbEntity
  8
0
 62
     7
 48
0.085672
100
AcDbLine
 10
9.776186221016502
 20
136.9645341135897
 30
0.0
 11
6.349306221016519
 21
136.9645951135898
 31
0.0
  0
LINE
  5
B78
330
1F
100
AcDbEntity
  8
0
 62
     7
 48
0.003067
100
AcDbLine
 10
9.898866221016561
 20
136.9645341135897
 30
0.0
 11
9.776186221016502
 21
136.9645341135897
 31
0.0
  0
LINE
  5
B79
330
1F
100
AcDbEntity
  8
0
 62
     7
 48
0.011084
100
AcDbLine
 10
10.34222622101654
 20
136.9645341135897
 30
0.0
 11
9.898866221016561
 21
136.9645341135897
 31
0.0
  0
ARC
  5
B7A
330
1F
100
AcDbEntity
  8
0
 62
     7
100
AcDbCircle
 10
10.34192022101652
 20
137.9642291135897
 30
0.0
 40
0.9995899999999997
100
AcDbArc
 50
180.482469
 51
270.0174809999995
  0
LINE
  5
B7B
330
1F
100
AcDbEntity
  8
0
 62
     7
 48
0.028853
100
AcDbLine
 10
7.570192221016467
 20
151.9645341135896
 30
0.0
 11
8.724306221016519
 21
151.9645341135896
 31
0.0
  0
LINE
  5
B7C
330
1F
100
AcDbEntity
  8
0
 62
     7
 48
0.010619
100
AcDbLine
 10
7.570192221016467
 20
151.9645341135896
 30
0.0
 11
7.145448221016549
 21
151.9645341135896
 31
0.0
  0
LINE
  5
B7D
330
1F
100
AcDbEntity
  8
0
 62
     7
 48
0.002939
100
AcDbLine
 10
7.145448221016549
 20
151.9645341135896
 30
0.0
 11
7.027894221016508
 21
151.9645341135896
 31
0.0
  0
LINE
  5
B7E
330
1F
100
AcDbEntity
  8
0
 62
     7
 48
0.013701
100
AcDbLine
 10
7.028200221016532
 20
151.9645341135896
 30
0.0
 11
6.480165221016505
 21
151.9645341135896
 31
0.0
  0
LINE
  5
B7F
330
1F
100
AcDbEntity
  8
0
 62
     7
 48
0.004568
100
AcDbLine
 10
-118.0395487789833
 20
151.9645341135896
 30
0.0
 11
-118.2222887789834
 21
151.9645341135896
 31
0.0
  0
LINE
  5
B80
330
1F
100
AcDbEntity
  8
0
 62
     7
 48
0.009137
100
AcDbLine
 10
-118.2222887789834
 20
151.9645341135896
 30
0.0
 11
-118.5877667789835
 21
151.9645341135896
 31
0.0
  0
LINE
  5
B81
330
1F
100
AcDbEntity
  8
0
 62
     7
 48
0.01355
100
AcDbLine
 10
-118.5877667789835
 20
151.9645341135896
 30
0.0
 11
-119.1297587789834
 21
151.9645341135896
 31
0.0
  0
LINE
  5
B82
330
1F
100
AcDbEntity
  8
0
 62
     7
 48
0.028853
100
AcDbLine
 10
-120.2838727789834
 20
151.9645341135896
 30
0.0
 11
-119.1297587789834
 21
151.9645341135896
 31
0.0
  0
ARC
  5
B84
102
{ACAD_REACTORS
330
F79
102
}
330
1F
100
AcDbEntity
  8
0
 62
     7
100
AcDbCircle
 10
-120.2840557789834
 20
151.4647021135897
 30
0.0
 40
0.4997790000000001
100
AcDbArc
 50
90.47947000000297
 51
179.5186869999995
  0
LINE
  5
B85
330
1F
100
AcDbEntity
  8
0
 62
     7
 48
0.014143
100
AcDbLine
 10
-121.3360577789835
 20
136.9645341135897
 30
0.0
 11
-121.9017927789834
 21
136.9645341135897
 31
0.0
  0
LINE
  5
B86
330
1F
100
AcDbEntity
  8
0
 62
     7
 48
0.009535
100
AcDbLine
 10
-120.9546487789834
 20
136.9645341135897
 30
0.0
 11
-121.3360577789835
 21
136.9645341135897
 31
0.0
  0
ARC
  5
B87
330
1F
100
AcDbEntity
  8
0
 62
     7
100
AcDbCircle
 10
-121.9014877789835
 20
137.9642291135897
 30
0.0
 40
0.9995899999999997
100
AcDbArc
 50
269.9825169999976
 51
359.5175339999997
  0
LINE
  5
B88
330
1F
100
AcDbEntity
  8
0
 62
     7
 48
0.035649
100
AcDbLine
 10
10.34216522101658
 20
136.9645341135897
 30
0.0
 11
11.76812922101649
 21
136.9645341135897
 31
0.0
  0
LINE
  5
B89
330
1F
100
AcDbEntity
  8
0
 62
     7
 48
0.042184
100
AcDbLine
 10
9.776491221016527
 20
136.9645341135897
 30
0.0
 11
8.089113221016447
 21
136.9645341135897
 31
0.0
  0
LINE
  5
B8A
330
1F
100
AcDbEntity
  8
0
 62
     7
 48
0.043495
100
AcDbLine
 10
-117.9088727789834
 20
136.9645341135897
 30
0.0
 11
-119.6486797789834
 21
136.9645341135897
 31
0.0
  0
LINE
  5
B8B
330
1F
100
AcDbEntity
  8
0
 62
     7
 48
0.032649
100
AcDbLine
 10
-119.6486797789834
 20
136.9645341135897
 30
0.0
 11
-120.9546487789834
 21
136.9645341135897
 31
0.0
  0
LINE
  5
B8C
330
1F
100
AcDbEntity
  8
0
 62
     7
 48
0.035649
100
AcDbLine
 10
-123.3276957789835
 20
136.9645341135897
 30
0.0
 11
-121.9017317789834
 21
136.9645341135897
 31
0.0
  0
LINE
  5
B8D
330
1F
100
AcDbEntity
  8
0
 62
     7
 48
0.01694
100
AcDbLine
 10
7.155946221016534
 20
151.7445631135897
 30
0.0
 11
6.478334221016581
 21
151.7445631135897
 31
0.0
  0
LINE
  5
B8E
330
1F
100
AcDbEntity
  8
0
 62
     7
 48
0.013695
100
AcDbLine
 10
7.027894221016508
 20
151.9645341135896
 30
0.0
 11
6.480104221016546
 21
151.9645341135896
 31
0.0
  0
ARC
  5
B8F
330
1F
100
AcDbEntity
  8
0
 62
     7
100
AcDbCircle
 10
7.570314221016615
 20
151.4643511135897
 30
0.0
 40
0.500196
100
AcDbArc
 50
90.01078199999843
 51
145.9288100000008
  0
LINE
  5
B90
330
1F
100
AcDbEntity
  8
0
 62
     7
 48
0.004562
100
AcDbLine
 10
-118.0396707789835
 20
151.9645341135896
 30
0.0
 11
-118.2221667789834
 21
151.9645341135896
 31
0.0
  0
LINE
  5
B91
330
1F
100
AcDbEntity
  8
0
 62
     7
 48
0.01694
100
AcDbLine
 10
-118.0379007789834
 20
151.7445631135897
 30
0.0
 11
-118.7155137789834
 21
151.7445631135897
 31
0.0
  0
ARC
  5
B92
330
1F
100
AcDbEntity
  8
0
 62
     7
100
AcDbCircle
 10
-119.1298807789834
 20
151.4643511135897
 30
0.0
 40
0.500196
100
AcDbArc
 50
34.07119200000057
 51
89.98921900000302
  0
LINE
  5
B93
330
1F
100
AcDbEntity
  8
0
 62
     7
 48
0.139005
100
AcDbLine
 10
11.90930322101647
 20
136.9545241135897
 30
0.0
 11
6.349123221016526
 21
136.9545241135897
 31
0.0
  0
ARC
  5
B94
330
1F
100
AcDbEntity
  8
0
 62
     7
100
AcDbCircle
 10
11.76861722101651
 20
135.9702411135897
 30
0.0
 40
0.9942989999999999
100
AcDbArc
 50
81.86548099999804
 51
90.02636900000082
  0
LINE
  5
B95
330
1F
100
AcDbEntity
  8
0
 62
     7
 48
0.007027
100
AcDbLine
 10
6.754213221016497
 20
151.1502941135897
 30
0.0
 11
6.473146221016492
 21
151.1502941135897
 31
0.0
  0
LINE
  5
B96
330
1F
100
AcDbEntity
  8
0
 62
     7
 48
0.017933
100
AcDbLine
 10
6.754213221016497
 20
151.1502941135897
 30
0.0
 11
7.155946221016534
 21
151.7445631135897
 31
0.0
  0
LINE
  5
B97
330
1F
100
AcDbEntity
  8
0
 62
     7
 48
0.007031
100
AcDbLine
 10
-118.0325297789835
 20
151.1502941135897
 30
0.0
 11
-118.3137797789834
 21
151.1502941135897
 31
0.0
  0
LINE
  5
B98
330
1F
100
AcDbEntity
  8
0
 62
     7
 48
0.017933
100
AcDbLine
 10
-118.3137797789834
 20
151.1502941135897
 30
0.0
 11
-118.7155137789834
 21
151.7445631135897
 31
0.0
  0
LINE
  5
B99
330
1F
100
AcDbEntity
  8
0
 62
     7
 48
0.011479
100
AcDbLine
 10
-121.9008157789833
 20
136.9645341135897
 30
0.0
 11
-122.3599837789834
 21
136.9645341135897
 31
0.0
  0
LINE
  5
B9A
330
1F
100
AcDbEntity
  8
0
 62
     7
 48
0.114764
100
AcDbLine
 10
-117.9085677789834
 20
136.9545241135897
 30
0.0
 11
-122.4991437789834
 21
136.9545241135897
 31
0.0
  0
LINE
  5
B9B
330
1F
100
AcDbEntity
  8
0
 62
     7
 48
0.035857
100
AcDbLine
 10
11.90930322101647
 20
136.9545241135897
 30
0.0
 11
13.34356822101657
 21
136.9545241135897
 31
0.0
  0
LINE
  5
B9C
330
1F
100
AcDbEntity
  8
0
 62
     7
 48
0.024243
100
AcDbLine
 10
-122.4991437789834
 20
136.9545241135897
 30
0.0
 11
-123.4688707789834
 21
136.9545241135897
 31
0.0
  0
LINE
  5
B9D
330
1F
100
AcDbEntity
  8
0
 62
     7
 48
0.035857
100
AcDbLine
 10
-124.9031357789834
 20
136.9545241135897
 30
0.0
 11
-123.4688707789834
 21
136.9545241135897
 31
0.0
  0
LINE
  5
B9E
330
1F
100
AcDbEntity
  8
0
 62
     7
 48
0.024307
100
AcDbLine
 10
-122.3599837789834
 20
136.9645341135897
 30
0.0
 11
-123.3322737789834
 21
136.9645341135897
 31
0.0
  0
ARC
  5
B9F
330
1F
100
AcDbEntity
  8
0
 62
     7
100
AcDbCircle
 10
-123.3281237789834
 20
135.9699201135898
 30
0.0
 40
0.9946149999999999
100
AcDbArc
 50
90.23816600000321
 51
98.13348199999685
  0
LINE
  5
BA0
330
1F
100
AcDbEntity
  8
0
 62
     7
 48
0.200031
100
AcDbLine
 10
-125.9017317789834
 20
136.0068621135897
 30
0.0
 11
-117.9005107789834
 21
136.0068621135897
 31
0.0
  0
ARC
  5
BA1
330
1F
100
AcDbEntity
  8
0
 62
     7
100
AcDbCircle
 10
-124.9031357789834
 20
135.9545241135897
 30
0.0
 40
1.0
100
AcDbArc
 50
89.9999910000004
 51
177.0000020000007
  0
LINE
  5
BA2
330
1F
100
AcDbEntity
  8
0
 62
     7
 48
0.200029
100
AcDbLine
 10
6.341005221016557
 20
136.0068621135897
 30
0.0
 11
14.34216522101658
 21
136.0068621135897
 31
0.0
  0
ARC
  5
BA3
330
1F
100
AcDbEntity
  8
0
 62
     7
100
AcDbCircle
 10
13.34356822101657
 20
135.9545241135897
 30
0.0
 40
1.0
100
AcDbArc
 50
3.000004999999433
 51
90.00001100000242
  0
LINE
  5
BA4
330
1F
100
AcDbEntity
  8
0
 62
     7
 48
0.025136
100
AcDbLine
 10
-124.9537947789834
 20
134.9108381135897
 30
0.0
 11
-125.9592267789834
 21
134.9108531135897
 31
0.0
  0
LINE
  5
BA5
330
1F
100
AcDbEntity
  8
0
 62
     7
 48
0.070107
100
AcDbLine
 10
-122.1495347789834
 20
134.9108841135897
 30
0.0
 11
-124.9537947789834
 21
134.9108381135897
 31
0.0
  0
LINE
  5
BA6
330
1F
100
AcDbEntity
  8
0
 62
     7
 48
0.027442
100
AcDbLine
 10
-125.9017317789834
 20
136.0068621135897
 30
0.0
 11
-125.9592267789834
 21
134.9106701135898
 31
0.0
  0
LINE
  5
BA7
330
1F
100
AcDbEntity
  8
0
 62
     7
 48
0.095259
100
AcDbLine
 10
14.3996602210166
 20
134.9108691135897
 30
0.0
 11
10.58929622101655
 21
134.9107621135897
 31
0.0
  0
LINE
  5
BA8
330
1F
100
AcDbEntity
  8
0
 62
     7
 48
0.027442
100
AcDbLine
 10
14.34216522101658
 20
136.0068621135897
 30
0.0
 11
14.3996602210166
 21
134.9107011135897
 31
0.0
  0
ARC
  5
BA9
330
1F
100
AcDbEntity
  8
0
 62
     7
100
AcDbCircle
 10
-127.9564807789834
 20
135.0155291135897
 30
0.0
 40
2.000016
100
AcDbArc
 50
323.0400479999988
 51
356.9999539999995
  0
LINE
  5
BAA
330
1F
100
AcDbEntity
  8
0
 62
     7
 48
0.025279
100
AcDbLine
 10
-125.3472277789834
 20
133.8129841135897
 30
0.0
 11
-126.3583967789835
 21
133.8130141135897
 31
0.0
  0
LINE
  5
BAB
330
1F
100
AcDbEntity
  8
0
 62
     7
 48
0.076697
100
AcDbLine
 10
-122.2793557789834
 20
133.8130291135897
 30
0.0
 11
-125.3472277789834
 21
133.8129841135897
 31
0.0
  0
LINE
  5
BAC
330
1F
100
AcDbEntity
  8
0
 62
     7
 48
0.10197
100
AcDbLine
 10
14.79876922101655
 20
133.8130141135897
 30
0.0
 11
10.71997222101654
 21
133.8129231135897
 31
0.0
  0
ARC
  5
BAD
330
1F
100
AcDbEntity
  8
0
 62
     7
100
AcDbCircle
 10
16.39691322101649
 20
135.0155591135897
 30
0.0
 40
2.000024
100
AcDbArc
 50
183.0003059999995
 51
216.960138
  0
LINE
  5
BAE
330
1F
100
AcDbEntity
  8
0
 62
     7
 48
0.025681
100
AcDbLine
 10
-126.4526347789834
 20
132.2616221135897
 30
0.0
 11
-127.4798567789834
 21
132.2616221135897
 31
0.0
  0
ARC
  5
BAF
330
1F
100
AcDbEntity
  8
0
 62
     7
100
AcDbCircle
 10
-86.43383577898346
 20
103.7703501135897
 30
0.0
 40
49.965298
100
AcDbArc
 50
143.0389980000003
 51
145.2343299999976
  0
LINE
  5
BB0
330
1F
100
AcDbEntity
  8
0
 62
     7
 48
0.032788
100
AcDbLine
 10
-125.1411117789834
 20
132.2616221135897
 30
0.0
 11
-126.4526347789834
 21
132.2616221135897
 31
0.0
  0
LINE
  5
BB1
330
1F
100
AcDbEntity
  8
0
 62
     7
 48
0.058446
100
AcDbLine
 10
15.92029022101658
 20
132.2616221135897
 30
0.0
 11
13.58246022101653
 21
132.2616221135897
 31
0.0
  0
ARC
  5
BB2
330
1F
100
AcDbEntity
  8
0
 62
     7
100
AcDbCircle
 10
-25.12573077898338
 20
103.7703351135897
 30
0.0
 40
49.965305
100
AcDbArc
 50
34.76567199999847
 51
36.96114000000133
  0
LINE
  5
BB3
330
1F
100
AcDbEntity
  8
0
 62
     7
 48
0.026311
100
AcDbLine
 10
-128.1128527789834
 20
130.7391921135897
 30
0.0
 11
-129.1652817789834
 21
130.7385821135897
 31
0.0
  0
ARC
  5
BB4
330
1F
100
AcDbEntity
  8
0
 62
     7
100
AcDbCircle
 10
-131.5944197789834
 20
135.1207691135897
 30
0.0
 40
5.010639
100
AcDbArc
 50
298.9985199999992
 51
325.2051500000014
  0
LINE
  5
BB5
330
1F
100
AcDbEntity
  8
0
 62
     7
 48
0.047377
100
AcDbLine
 10
-126.2177717789835
 20
130.7399241135897
 30
0.0
 11
-128.1128527789834
 21
130.7391921135897
 31
0.0
  0
LINE
  5
BB6
330
1F
100
AcDbEntity
  8
0
 62
     7
 48
0.073711
100
AcDbLine
 10
17.6057142210166
 20
130.7385821135897
 30
0.0
 11
14.65728922101655
 21
130.7412671135897
 31
0.0
  0
ARC
  5
BB7
330
1F
100
AcDbEntity
  8
0
 62
     7
100
AcDbCircle
 10
20.03485322101656
 20
135.1207691135897
 30
0.0
 40
5.010639
100
AcDbArc
 50
214.7948550000014
 51
241.0014779999976
  0
LINE
  5
BB8
330
1F
100
AcDbEntity
  8
0
 62
     7
 48
0.002554
100
AcDbLine
 10
6.569948221016518
 20
150.5486401135897
 30
0.0
 11
6.467775221016522
 21
150.5486401135897
 31
0.0
  0
ARC
  5
BB9
330
1F
100
AcDbEntity
  8
0
 62
     7
100
AcDbCircle
 10
7.647340221016547
 20
150.5476481135896
 30
0.0
 40
1.077517
100
AcDbArc
 50
145.9473270000007
 51
179.9465930000007
  0
LINE
  5
BBA
330
1F
100
AcDbEntity
  8
0
 62
     7
 48
0.007066
100
AcDbLine
 10
-118.0324687789834
 20
151.1509501135897
 30
0.0
 11
-118.3151227789833
 21
151.1522781135897
 31
0.0
  0
LINE
  5
BBB
330
1F
100
AcDbEntity
  8
0
 62
     7
 48
0.002567
100
AcDbLine
 10
-118.0268537789834
 20
150.5486401135897
 30
0.0
 11
-118.1295147789834
 21
150.5486401135897
 31
0.0
  0
ARC
  5
BBC
330
1F
100
AcDbEntity
  8
0
 62
     7
100
AcDbCircle
 10
-119.2069077789835
 20
150.5476331135897
 30
0.0
 40
1.077541
100
AcDbArc
 50
0.0539810000000456
 51
34.16358999999844
  0
LINE
  5
BBD
330
1F
100
AcDbEntity
  8
0
 62
     7
 48
0.02347
100
AcDbLine
 10
-127.7806377789834
 20
126.9636641135897
 30
0.0
 11
-128.7194197789834
 21
126.9636641135897
 31
0.0
  0
LINE
  5
BBE
330
1F
100
AcDbEntity
  8
0
 62
     7
 48
0.049995
100
AcDbLine
 10
18.2200332210165
 20
126.9636641135897
 30
0.0
 11
16.2202162210165
 21
126.9636641135897
 31
0.0
  0
LINE
  5
BBF
330
1F
100
AcDbEntity
  8
0
 62
     7
 48
0.005357
100
AcDbLine
 10
16.7305312210166
 20
125.9636641135897
 30
0.0
 11
16.51623722101649
 21
125.9636641135897
 31
0.0
  0
LINE
  5
BC0
330
1F
100
AcDbEntity
  8
0
 62
     7
 48
0.012273
100
AcDbLine
 10
17.22143722101648
 20
125.9636791135897
 30
0.0
 11
16.7305312210166
 21
125.9636641135897
 31
0.0
  0
ARC
  5
BC1
330
1F
100
AcDbEntity
  8
0
 62
     7
100
AcDbCircle
 10
17.22033822101653
 20
126.9633441135897
 30
0.0
 40
0.999582
100
AcDbArc
 50
270.0632739999992
 51
0.0179170000003953
  0
LINE
  5
BC2
330
1F
100
AcDbEntity
  8
0
 62
     7
 48
0.017647
100
AcDbLine
 10
-128.0786727789834
 20
125.9636641135897
 30
0.0
 11
-128.7845437789834
 21
125.9637101135897
 31
0.0
  0
LINE
  5
BC3
330
1F
100
AcDbEntity
  8
0
 62
     7
 48
0.026505
100
AcDbLine
 10
-128.7194197789834
 20
126.9636641135897
 30
0.0
 11
-129.7796007789834
 21
126.9636641135897
 31
0.0
  0
ARC
  5
BC4
330
1F
100
AcDbEntity
  8
0
 62
     7
100
AcDbCircle
 10
-128.7799057789834
 20
126.9633441135897
 30
0.0
 40
0.9995659999999999
100
AcDbArc
 50
179.9814890000006
 51
269.7358999999973
  0
LINE
  5
BC5
330
1F
100
AcDbEntity
  8
0
 62
     7
 48
0.046072
100
AcDbLine
 10
-126.7773417789835
 20
129.8989211135897
 30
0.0
 11
-128.6202377789835
 21
129.8989211135897
 31
0.0
  0
LINE
  5
BC6
330
1F
100
AcDbEntity
  8
0
 62
     7
 48
0.023494
100
AcDbLine
 10
-127.7791117789834
 20
126.9981341135897
 30
0.0
 11
-128.7188707789834
 21
126.9981341135897
 31
0.0
  0
LINE
  5
BC7
330
1F
100
AcDbEntity
  8
0
 62
     7
 48
0.07254
100
AcDbLine
 10
18.11938622101652
 20
129.8989211135897
 30
0.0
 11
15.21777522101652
 21
129.8989211135897
 31
0.0
  0
LINE
  5
BC8
330
1F
100
AcDbEntity
  8
0
 62
     7
 48
0.049104
100
AcDbLine
 10
18.21942322101657
 20
126.9981341135897
 30
0.0
 11
16.25525022101649
 21
126.9981341135897
 31
0.0
  0
LINE
  5
BC9
330
1F
100
AcDbEntity
  8
0
 62
     7
 48
0.072563
100
AcDbLine
 10
18.21942322101657
 20
126.9981341135897
 30
0.0
 11
18.11938622101652
 21
129.8989211135897
 31
0.0
  0
LINE
  5
BCA
330
1F
100
AcDbEntity
  8
0
 62
     7
 48
0.047357
100
AcDbLine
 10
-126.2185647789834
 20
130.7387341135897
 30
0.0
 11
-128.1128527789834
 21
130.7392231135897
 31
0.0
  0
LINE
  5
BCB
330
1F
100
AcDbEntity
  8
0
 62
     7
 48
0.026503
100
AcDbLine
 10
-128.7188707789834
 20
126.9981341135897
 30
0.0
 11
-129.7789897789834
 21
126.9981341135897
 31
0.0
  0
LINE
  5
BCC
330
1F
100
AcDbEntity
  8
0
 62
     7
 48
0.026468
100
AcDbLine
 10
-128.6202377789835
 20
129.8989211135897
 30
0.0
 11
-129.6789537789835
 21
129.8989211135897
 31
0.0
  0
LINE
  5
BCD
330
1F
100
AcDbEntity
  8
0
 62
     7
 48
0.072563
100
AcDbLine
 10
-129.7789897789834
 20
126.9981341135897
 30
0.0
 11
-129.6789537789835
 21
129.8989211135897
 31
0.0
  0
ARC
  5
BCE
330
1F
100
AcDbEntity
  8
0
 62
     7
100
AcDbCircle
 10
15.84173722101653
 20
-688.5639388864102
 30
0.0
 40
819.3067629999998
100
AcDbArc
 50
89.87689699999975
 51
90.08288199999752
  0
ARC
  5
BCF
330
1F
100
AcDbEntity
  8
0
 62
     7
100
AcDbCircle
 10
17.11950822101656
 20
129.8642381135897
 30
0.0
 40
1.000518
100
AcDbArc
 50
1.986692000000823
 51
61.16417499999999
  0
LINE
  5
BD0
330
1F
100
AcDbEntity
  8
0
 62
     7
 48
0.026378
100
AcDbLine
 10
-128.1128527789834
 20
130.7392381135897
 30
0.0
 11
-129.1679667789835
 21
130.7371471135897
 31
0.0
  0
ARC
  5
BD1
330
1F
100
AcDbEntity
  8
0
 62
     7
100
AcDbCircle
 10
-128.6789537789835
 20
129.8642071135897
 30
0.0
 40
1.000596999999997
100
AcDbArc
 50
119.2543879999973
 51
178.0114189999995
  0
LINE
  5
BD2
330
1F
100
AcDbEntity
  8
0
 62
     7
 48
0.004546
100
AcDbLine
 10
-118.0396707789835
 20
151.9645341135896
 30
0.0
 11
-118.2214947789834
 21
151.9645341135896
 31
0.0
  0
LINE
  5
BD3
330
1F
100
AcDbEntity
  8
0
 62
     7
 48
0.011496
100
AcDbLine
 10
-121.9008767789834
 20
136.9645341135897
 30
0.0
 11
-122.3607157789834
 21
136.9645341135897
 31
0.0
  0
ARC
  5
BD4
330
1F
100
AcDbEntity
  8
0
 62
     7
100
AcDbCircle
 10
-8.984800778983498
 20
133.4636791135897
 30
0.0
 40
2.000008999999999
100
AcDbArc
 50
270.0001659999984
 51
344.8839359999998
  0
LINE
  5
BD5
330
1F
100
AcDbEntity
  8
0
 62
     7
 48
0.002377
100
AcDbLine
 10
-8.984800778983498
 20
131.4636641135898
 30
0.0
 11
-9.079893778983404
 21
131.4636641135898
 31
0.0
  0
LINE
  5
BD6
330
1F
100
AcDbEntity
  8
0
 62
     7
 48
0.113155
100
AcDbLine
 10
-7.053953778983526
 20
132.9421191135897
 30
0.0
 11
-11.58013777898347
 21
132.9421191135897
 31
0.0
  0
LINE
  5
BD7
330
1F
100
AcDbEntity
  8
0
 62
     7
 48
0.059091
100
AcDbLine
 10
-6.494871778983422
 20
133.5950881135897
 30
0.0
 11
-8.858518778983437
 21
133.5950881135897
 31
0.0
  0
ARC
  5
BD8
330
1F
100
AcDbEntity
  8
0
 62
     7
100
AcDbCircle
 10
-6.088560778983462
 20
132.6813311135897
 30
0.0
 40
1.000042
100
AcDbArc
 50
113.9734700000014
 51
164.8834359999998
  0
ARC
  5
BD9
330
1F
100
AcDbEntity
  8
0
 62
     7
100
AcDbCircle
 10
-102.5747667789834
 20
133.4636791135897
 30
0.0
 40
2.000008999999999
100
AcDbArc
 50
195.1160660000005
 51
269.9998390000021
  0
LINE
  5
BDA
330
1F
100
AcDbEntity
  8
0
 62
     7
 48
0.113147
100
AcDbLine
 10
-99.97973477898341
 20
132.9421191135897
 30
0.0
 11
-104.5056137789834
 21
132.9421191135897
 31
0.0
  0
LINE
  5
BDB
330
1F
100
AcDbEntity
  8
0
 62
     7
 48
0.002376
100
AcDbLine
 10
-102.4797347789834
 20
131.4636641135898
 30
0.0
 11
-102.5747667789834
 21
131.4636641135898
 31
0.0
  0
LINE
  5
BDC
330
1F
100
AcDbEntity
  8
0
 62
     7
 48
0.059073
100
AcDbLine
 10
-102.7017807789834
 20
133.5950881135897
 30
0.0
 11
-105.0646957789834
 21
133.5950881135897
 31
0.0
  0
ARC
  5
BDD
330
1F
100
AcDbEntity
  8
0
 62
     7
100
AcDbCircle
 10
-105.4710067789834
 20
132.6813311135897
 30
0.0
 40
1.000042
100
AcDbArc
 50
15.11656999999996
 51
66.02653200000225
  0
LINE
  5
BDE
330
1F
100
AcDbEntity
  8
0
 62
     7
 48
0.030862
100
AcDbLine
 10
7.566652221016539
 20
134.9986371135898
 30
0.0
 11
6.33215522101662
 21
134.9986371135898
 31
0.0
  0
LINE
  5
BDF
330
1F
100
AcDbEntity
  8
0
 62
     7
 48
0.136143
100
AcDbLine
 10
-2.289670778983548
 20
134.7642471135897
 30
0.0
 11
-7.735410778983433
 21
134.7642471135897
 31
0.0
  0
LINE
  5
BE0
330
1F
100
AcDbEntity
  8
0
 62
     7
 48
0.246478
100
AcDbLine
 10
7.566652221016539
 20
134.9986371135898
 30
0.0
 11
-2.289670778983548
 21
134.7642471135897
 31
0.0
  0
LINE
  5
BE1
330
1F
100
AcDbEntity
  8
0
 62
     7
 48
0.136143
100
AcDbLine
 10
-103.8241557789834
 20
134.7642471135897
 30
0.0
 11
-109.2698957789834
 21
134.7642471135897
 31
0.0
  0
LINE
  5
BE2
330
1F
100
AcDbEntity
  8
0
 62
     7
 48
0.030862
100
AcDbLine
 10
-117.8917217789835
 20
134.9986221135897
 30
0.0
 11
-119.1262187789834
 21
134.9986221135897
 31
0.0
  0
LINE
  5
BE3
330
1F
100
AcDbEntity
  8
0
 62
     7
 48
0.246478
100
AcDbLine
 10
-119.1262187789834
 20
134.9986221135897
 30
0.0
 11
-109.2698957789834
 21
134.7642471135897
 31
0.0
  0
ARC
  5
BE4
330
1F
100
AcDbEntity
  8
0
 62
     7
100
AcDbCircle
 10
-2.196714778983476
 20
130.8531901135897
 30
0.0
 40
3.912166999999998
100
AcDbArc
 50
91.36223099999858
 51
100.3781349999984
  0
LINE
  5
BE5
330
1F
100
AcDbEntity
  8
0
 62
     7
 48
0.122353
100
AcDbLine
 10
-2.901426778983448
 20
134.7013501135897
 30
0.0
 11
-7.795530778983417
 21
134.7013501135897
 31
0.0
  0
ARC
  5
BE6
330
1F
100
AcDbEntity
  8
0
 62
     7
100
AcDbCircle
 10
-109.3628527789834
 20
130.8531901135897
 30
0.0
 40
3.912166999999998
100
AcDbArc
 50
79.6218669999986
 51
88.63777100000277
  0
LINE
  5
BE7
330
1F
100
AcDbEntity
  8
0
 62
     7
 48
0.12236
100
AcDbLine
 10
-103.7637307789834
 20
134.7013501135897
 30
0.0
 11
-108.6581407789834
 21
134.7013501135897
 31
0.0
  0
ARC
  5
BE8
330
1F
100
AcDbEntity
  8
0
 62
     7
100
AcDbCircle
 10
-0.0130597789834326
 20
118.9297741135897
 30
0.0
 40
16.033888
100
AcDbArc
 50
100.3781420000012
 51
113.8361489999998
  0
LINE
  5
BE9
330
1F
100
AcDbEntity
  8
0
 62
     7
 48
0.059125
100
AcDbLine
 10
-6.492673778983402
 20
133.5960651135897
 30
0.0
 11
-8.857664778983432
 21
133.5960651135897
 31
0.0
  0
ARC
  5
BEA
330
1F
100
AcDbEntity
  8
0
 62
     7
100
AcDbCircle
 10
-111.5465067789834
 20
118.9297741135897
 30
0.0
 40
16.033888
100
AcDbArc
 50
66.16385299999696
 51
79.62186000000254
  0
LINE
  5
BEB
330
1F
100
AcDbEntity
  8
0
 62
     7
 48
0.059105
100
AcDbLine
 10
-102.7026957789834
 20
133.5960491135897
 30
0.0
 11
-105.0668927789834
 21
133.5960491135897
 31
0.0
  0
LINE
  5
BEC
330
1F
100
AcDbEntity
  8
0
 62
     7
 48
0.064871
100
AcDbLine
 10
-5.279905778983417
 20
133.4636641135897
 30
0.0
 11
10.71997222101654
 21
133.4636641135897
 31
0.0
  0
LINE
  5
BED
330
1F
100
AcDbEntity
  8
0
 62
     7
 48
0.035767
100
AcDbLine
 10
-5.279905778983417
 20
133.4636641135897
 30
0.0
 11
-6.710569778983397
 21
133.4636641135897
 31
0.0
  0
LINE
  5
BEE
330
1F
100
AcDbEntity
  8
0
 62
     7
 48
0.035764
100
AcDbLine
 10
-104.8491197789834
 20
133.4636641135897
 30
0.0
 11
-106.2796617789834
 21
133.4636641135897
 31
0.0
  0
LINE
  5
BEF
330
1F
100
AcDbEntity
  8
0
 62
     7
 48
0.064871
100
AcDbLine
 10
-121.3268417789834
 20
133.4636641135897
 30
0.0
 11
-106.2796617789834
 21
133.4636641135897
 31
0.0
  0
LINE
  5
BF0
330
1F
100
AcDbEntity
  8
0
 62
     7
 48
0.064871
100
AcDbLine
 10
-102.5747667789834
 20
133.4636641135897
 30
0.0
 11
-99.97991777898342
 21
133.4636641135897
 31
0.0
  0
LINE
  5
BF1
330
1F
100
AcDbEntity
  8
0
 62
     7
 48
0.132732
100
AcDbLine
 10
-16.99059877898338
 20
133.4636641135897
 30
0.0
 11
-22.29986377898348
 21
133.4636641135897
 31
0.0
  0
LINE
  5
BF2
330
1F
100
AcDbEntity
  8
0
 62
     7
 48
0.268073
100
AcDbLine
 10
-89.25689577898351
 20
133.4636641135897
 30
0.0
 11
-99.97979577898348
 21
133.4636641135897
 31
0.0
  0
LINE
  5
BF3
330
1F
100
AcDbEntity
  8
0
 62
     7
 48
0.135271
100
AcDbLine
 10
-11.57977177898348
 20
133.4636641135897
 30
0.0
 11
-16.99059877898338
 21
133.4636641135897
 31
0.0
  0
LINE
  5
BF4
330
1F
100
AcDbEntity
  8
0
 62
     7
 48
0.064871
100
AcDbLine
 10
-11.57964877898345
 20
133.4636641135897
 30
0.0
 11
-8.984800778983498
 21
133.4636641135897
 31
0.0
  0
LINE
  5
BF5
330
1F
100
AcDbEntity
  8
0
 62
     7
 48
0.061598
100
AcDbLine
 10
-7.659421778983499
 20
134.8434401135897
 30
0.0
 11
-10.12335077898351
 21
134.8434401135897
 31
0.0
  0
LINE
  5
BF6
330
1F
100
AcDbEntity
  8
0
 62
     7
 48
0.04783
100
AcDbLine
 10
-7.659421778983499
 20
134.8434401135897
 30
0.0
 11
-8.984800778983498
 21
133.4636641135897
 31
0.0
  0
LINE
  5
BF7
330
1F
100
AcDbEntity
  8
0
 62
     7
 48
0.061595
100
AcDbLine
 10
-101.4363387789834
 20
134.8434401135897
 30
0.0
 11
-103.9001447789833
 21
134.8434401135897
 31
0.0
  0
LINE
  5
BF8
330
1F
100
AcDbEntity
  8
0
 62
     7
 48
0.04783
100
AcDbLine
 10
-103.9001447789833
 20
134.8434401135897
 30
0.0
 11
-102.5747667789834
 21
133.4636641135897
 31
0.0
  0
LINE
  5
BF9
330
1F
100
AcDbEntity
  8
0
 62
     7
 48
0.21658
100
AcDbLine
 10
-16.99065977898345
 20
131.9636641135897
 30
0.0
 11
-25.6538677789834
 21
131.9636641135897
 31
0.0
  0
LINE
  5
BFA
330
1F
100
AcDbEntity
  8
0
 62
     7
 48
0.351888
100
AcDbLine
 10
-85.90429477898334
 20
131.9636641135897
 30
0.0
 11
-99.97979577898348
 21
131.9636641135897
 31
0.0
  0
LINE
  5
BFB
330
1F
100
AcDbEntity
  8
0
 62
     7
 48
0.0375
100
AcDbLine
 10
-99.97979577898348
 20
133.4636641135897
 30
0.0
 11
-99.97979577898348
 21
131.9636641135897
 31
0.0
  0
LINE
  5
BFC
330
1F
100
AcDbEntity
  8
0
 62
     7
 48
0.135272
100
AcDbLine
 10
-11.57977177898348
 20
131.9636641135897
 30
0.0
 11
-16.99065977898345
 21
131.9636641135897
 31
0.0
  0
LINE
  5
BFD
330
1F
100
AcDbEntity
  8
0
 62
     7
 48
0.0375
100
AcDbLine
 10
-11.57977177898348
 20
133.4636641135897
 30
0.0
 11
-11.57977177898348
 21
131.9636641135897
 31
0.0
  0
ARC
  5
BFE
330
1F
100
AcDbEntity
  8
0
 62
     7
100
AcDbCircle
 10
-6.308591778983526
 20
133.5458941135897
 30
0.0
 40
1.873040999999999
100
AcDbArc
 50
97.00011499999813
 51
136.1518010000005
  0
LINE
  5
BFF
330
1F
100
AcDbEntity
  8
0
 62
     7
 48
0.086212
100
AcDbLine
 10
-6.536863778983472
 20
135.4049641135897
 30
0.0
 11
-9.985349778983476
 21
135.4049641135897
 31
0.0
  0
ARC
  5
C00
330
1F
100
AcDbEntity
  8
0
 62
     7
100
AcDbCircle
 10
-105.2509747789834
 20
133.5458941135897
 30
0.0
 40
1.873040999999999
100
AcDbArc
 50
43.84819799999745
 51
82.99988700000277
  0
LINE
  5
C01
330
1F
100
AcDbEntity
  8
0
 62
     7
 48
0.086215
100
AcDbLine
 10
-101.5740947789833
 20
135.4049641135897
 30
0.0
 11
-105.0227037789835
 21
135.4049641135897
 31
0.0
  0
LINE
  5
C02
330
1F
100
AcDbEntity
  8
0
 62
     7
 48
0.061844
100
AcDbLine
 10
-11.57977177898348
 20
131.9636641135897
 30
0.0
 11
-9.106016778983502
 21
131.9636641135897
 31
0.0
  0
LINE
  5
C03
330
1F
100
AcDbEntity
  8
0
 62
     7
 48
0.061844
100
AcDbLine
 10
-102.4535507789835
 20
131.9636641135897
 30
0.0
 11
-99.97979577898348
 21
131.9636641135897
 31
0.0
  0
LINE
  5
C04
330
1F
100
AcDbEntity
  8
0
 62
     7
 48
0.321308
100
AcDbLine
 10
-6.536863778983472
 20
135.4049641135897
 30
0.0
 11
6.219667221016521
 21
136.9712781135897
 31
0.0
  0
LINE
  5
C05
330
1F
100
AcDbEntity
  8
0
 62
     7
 48
0.321308
100
AcDbLine
 10
-105.0227037789835
 20
135.4049641135897
 30
0.0
 11
-117.7792337789835
 21
136.9712781135897
 31
0.0
  0
LINE
  5
C06
330
1F
100
AcDbEntity
  8
0
 62
     7
 48
0.142923
100
AcDbLine
 10
-9.079709778983414
 20
131.4636641135898
 30
0.0
 11
-14.79662877898349
 21
131.4636641135898
 31
0.0
  0
LINE
  5
C07
330
1F
100
AcDbEntity
  8
0
 62
     7
 48
0.012517
100
AcDbLine
 10
-9.079709778983414
 20
131.4636641135898
 30
0.0
 11
-9.105955778983426
 21
131.9636641135897
 31
0.0
  0
LINE
  5
C08
330
1F
100
AcDbEntity
  8
0
 62
     7
 48
0.287941
100
AcDbLine
 10
-14.79662877898349
 20
131.4636641135898
 30
0.0
 11
-26.31426877898338
 21
131.4636641135898
 31
0.0
  0
LINE
  5
C09
330
1F
100
AcDbEntity
  8
0
 62
     7
 48
0.430861
100
AcDbLine
 10
-85.24542077898349
 20
131.4636641135898
 30
0.0
 11
-102.4798567789834
 21
131.4636641135898
 31
0.0
  0
LINE
  5
C0A
330
1F
100
AcDbEntity
  8
0
 62
     7
 48
0.012517
100
AcDbLine
 10
-102.4798567789834
 20
131.4636641135898
 30
0.0
 11
-102.4536117789834
 21
131.9636641135897
 31
0.0
  0
LINE
  5
C2B
330
1F
100
AcDbEntity
  8
0
 62
     7
 48
0.077326
100
AcDbLine
 10
-30.53906077898336
 20
90.25036111358977
 30
0.0
 11
-31.8461897789834
 21
93.05361511358976
 31
0.0
  0
LINE
  5
C2C
330
1F
100
AcDbEntity
  8
0
 62
     7
 48
0.087112
100
AcDbLine
 10
-30.45940977898346
 20
94.81202211358976
 30
0.0
 11
-31.93200477898341
 21
97.97005811358978
 31
0.0
  0
LINE
  5
C2D
330
1F
100
AcDbEntity
  8
0
 62
     7
 48
0.096899
100
AcDbLine
 10
-30.37975877898345
 20
99.37366811358977
 30
0.0
 11
-32.01782077898343
 21
102.8864851135897
 31
0.0
  0
LINE
  5
C2E
330
1F
100
AcDbEntity
  8
0
 62
     7
 48
0.106686
100
AcDbLine
 10
-30.3001687789834
 20
103.9353131135897
 30
0.0
 11
-32.10363577898346
 21
107.8029281135897
 31
0.0
  0
LINE
  5
C2F
330
1F
100
AcDbEntity
  8
0
 62
     7
 48
0.116472
100
AcDbLine
 10
-30.22051877898338
 20
108.4969741135897
 30
0.0
 11
-32.18945177898337
 21
112.7193561135897
 31
0.0
  0
LINE
  5
C30
330
1F
100
AcDbEntity
  8
0
 62
     7
 48
0.126259
100
AcDbLine
 10
-30.14092877898344
 20
113.0586201135897
 30
0.0
 11
-32.27526677898352
 21
117.6357981135897
 31
0.0
  0
LINE
  5
C31
330
1F
100
AcDbEntity
  8
0
 62
     7
 48
0.136046
100
AcDbLine
 10
-30.06127777898342
 20
117.6202651135897
 30
0.0
 11
-32.36108277898353
 21
122.5522411135897
 31
0.0
  0
LINE
  5
C32
330
1F
100
AcDbEntity
  8
0
 62
     7
 48
0.121648
100
AcDbLine
 10
-29.98168777898349
 20
122.1819111135897
 30
0.0
 11
-32.03808477898343
 21
126.5919451135898
 31
0.0
  0
LINE
  5
C33
330
1F
100
AcDbEntity
  8
0
 62
     7
 48
0.083421
100
AcDbLine
 10
-29.6466657789834
 20
126.1958271135897
 30
0.0
 11
-31.05682177898342
 21
129.2200421135897
 31
0.0
  0
LINE
  5
C34
330
1F
100
AcDbEntity
  8
0
 62
     7
 48
0.068341
100
AcDbLine
 10
-28.62249577898348
 20
128.7319591135897
 30
0.0
 11
-29.77776977898344
 21
131.2094981135897
 31
0.0
  0
LINE
  5
C35
330
1F
100
AcDbEntity
  8
0
 62
     7
 48
0.060752
100
AcDbLine
 10
-27.26904177898342
 20
130.5619151135897
 30
0.0
 11
-28.29601877898341
 21
132.7643081135898
 31
0.0
  0
LINE
  5
C36
330
1F
100
AcDbEntity
  8
0
 62
     7
 48
0.056443
100
AcDbLine
 10
-25.69988877898339
 20
131.9291641135897
 30
0.0
 11
-26.65405077898351
 21
133.9753681135898
 31
0.0
  0
LINE
  5
C37
330
1F
100
AcDbEntity
  8
0
 62
     7
 48
0.054179
100
AcDbLine
 10
-23.95165877898347
 20
132.9125011135897
 30
0.0
 11
-24.86755177898345
 21
134.8766131135897
 31
0.0
  0
LINE
  5
C38
330
1F
100
AcDbEntity
  8
0
 62
     7
 48
0.053584
100
AcDbLine
 10
-22.03259077898343
 20
133.5295061135898
 30
0.0
 11
-22.93841377898349
 21
135.4720721135897
 31
0.0
  0
LINE
  5
C39
330
1F
100
AcDbEntity
  8
0
 62
     7
 48
0.054888
100
AcDbLine
 10
-19.92773277898351
 20
133.7479811135897
 30
0.0
 11
-20.85558877898342
 21
135.7377881135897
 31
0.0
  0
LINE
  5
C3A
330
1F
100
AcDbEntity
  8
0
 62
     7
 48
0.055169
100
AcDbLine
 10
-17.72094577898343
 20
133.7479811135897
 30
0.0
 11
-18.65356277898348
 21
135.7479811135897
 31
0.0
  0
LINE
  5
C3B
330
1F
100
AcDbEntity
  8
0
 62
     7
 48
0.055169
100
AcDbLine
 10
-15.51421977898343
 20
133.7479811135897
 30
0.0
 11
-16.44683677898348
 21
135.7479811135897
 31
0.0
  0
LINE
  5
C3C
330
1F
100
AcDbEntity
  8
0
 62
     7
 48
0.055169
100
AcDbLine
 10
-13.30743277898349
 20
133.7479811135897
 30
0.0
 11
-14.24004977898355
 21
135.7479811135897
 31
0.0
  0
LINE
  5
C3D
330
1F
100
AcDbEntity
  8
0
 62
     7
 48
0.052056
100
AcDbLine
 10
-11.15331877898344
 20
133.8608351135897
 30
0.0
 11
-12.03332377898343
 21
135.7479811135897
 31
0.0
  0
LINE
  5
C3E
330
1F
100
AcDbEntity
  8
0
 62
     7
 48
0.080318
100
AcDbLine
 10
-79.7379747789834
 20
91.64489311358975
 30
0.0
 11
-81.09570177898337
 21
94.55660511358976
 31
0.0
  0
LINE
  5
C3F
330
1F
100
AcDbEntity
  8
0
 62
     7
 48
0.055169
100
AcDbLine
 10
-99.37090877898349
 20
133.7479811135897
 30
0.0
 11
-100.3035257789834
 21
135.7479811135897
 31
0.0
  0
LINE
  5
C40
330
1F
100
AcDbEntity
  8
0
 62
     7
 48
0.090104
100
AcDbLine
 10
-79.6583237789834
 20
96.20655311358977
 30
0.0
 11
-81.18151677898351
 21
99.47304811358977
 31
0.0
  0
LINE
  5
C41
330
1F
100
AcDbEntity
  8
0
 62
     7
 48
0.055169
100
AcDbLine
 10
-97.1641827789835
 20
133.7479811135897
 30
0.0
 11
-98.09679977898344
 21
135.7479811135897
 31
0.0
  0
LINE
  5
C42
330
1F
100
AcDbEntity
  8
0
 62
     7
 48
0.099891
100
AcDbLine
 10
-79.57867277898339
 20
100.7681991135897
 30
0.0
 11
-81.26733277898351
 21
104.3894761135897
 31
0.0
  0
LINE
  5
C43
330
1F
100
AcDbEntity
  8
0
 62
     7
 48
0.055169
100
AcDbLine
 10
-94.95739577898342
 20
133.7479811135897
 30
0.0
 11
-95.89001277898347
 21
135.7479811135897
 31
0.0
  0
LINE
  5
C44
330
1F
100
AcDbEntity
  8
0
 62
     7
 48
0.109678
100
AcDbLine
 10
-79.49908277898344
 20
105.3298451135897
 30
0.0
 11
-81.35314777898344
 21
109.3059191135897
 31
0.0
  0
LINE
  5
C45
330
1F
100
AcDbEntity
  8
0
 62
     7
 48
0.055169
100
AcDbLine
 10
-92.75066977898342
 20
133.7479811135897
 30
0.0
 11
-93.68328677898347
 21
135.7479811135897
 31
0.0
  0
LINE
  5
C46
330
1F
100
AcDbEntity
  8
0
 62
     7
 48
0.119464
100
AcDbLine
 10
-79.41943177898344
 20
109.8915051135898
 30
0.0
 11
-81.43896277898347
 21
114.2223461135897
 31
0.0
  0
LINE
  5
C47
330
1F
100
AcDbEntity
  8
0
 62
     7
 48
0.056873
100
AcDbLine
 10
-90.51513477898341
 20
133.6862141135897
 30
0.0
 11
-91.47656077898338
 21
135.7479811135897
 31
0.0
  0
LINE
  5
C48
330
1F
100
AcDbEntity
  8
0
 62
     7
 48
0.129251
100
AcDbLine
 10
-79.33984177898349
 20
114.4531511135898
 30
0.0
 11
-81.52477877898348
 21
119.1387891135897
 31
0.0
  0
LINE
  5
C49
330
1F
100
AcDbEntity
  8
0
 62
     7
 48
0.068854
100
AcDbLine
 10
-88.0275247789835
 20
133.0839951135897
 30
0.0
 11
-89.1914657789834
 21
135.5801041135897
 31
0.0
  0
LINE
  5
C4A
330
1F
100
AcDbEntity
  8
0
 62
     7
 48
0.139217
100
AcDbLine
 10
-79.26019077898337
 20
119.0147961135897
 30
0.0
 11
-81.61364577898345
 21
124.0617321135897
 31
0.0
  0
LINE
  5
C4B
330
1F
100
AcDbEntity
  8
0
 62
     7
 48
0.100863
100
AcDbLine
 10
-84.94286977898338
 20
131.2013201135898
 30
0.0
 11
-86.64794777898347
 21
134.8578141135897
 31
0.0
  0
LINE
  5
C4C
330
1F
100
AcDbEntity
  8
0
 62
     7
 48
0.261303
100
AcDbLine
 10
-79.18017377898337
 20
123.5755261135897
 30
0.0
 11
-83.59741077898338
 21
133.0483661135897
 31
0.0
  0
LINE
  5
C4D
330
1F
100
AcDbEntity
  8
0
 62
     7
 48
0.139948
100
AcDbLine
 10
-79.10107277898345
 20
128.1383621135897
 30
0.0
 11
-81.46685577898342
 21
133.2118181135897
 31
0.0
  0
LINE
  5
C4E
330
1F
100
AcDbEntity
  8
0
 62
     7
 48
0.050906
100
AcDbLine
 10
-78.98754677898347
 20
132.6273301135897
 30
0.0
 11
-79.84814277898344
 21
134.4727891135898
 31
0.0
  0
LINE
  5
C4F
330
1F
100
AcDbEntity
  8
0
 62
     7
 48
0.050304
100
AcDbLine
 10
-77.30523477898344
 20
133.7520091135897
 30
0.0
 11
-78.15563777898347
 21
135.5756481135897
 31
0.0
  0
LINE
  5
C50
330
1F
100
AcDbEntity
  8
0
 62
     7
 48
0.050041
100
AcDbLine
 10
-75.5520617789835
 20
134.7247271135897
 30
0.0
 11
-76.39800877898339
 21
136.5388141135898
 31
0.0
  0
LINE
  5
C51
330
1F
100
AcDbEntity
  8
0
 62
     7
 48
0.050024
100
AcDbLine
 10
-73.73693677898353
 20
135.5645251135897
 30
0.0
 11
-74.58257877898342
 21
137.3780171135897
 31
0.0
  0
LINE
  5
C52
330
1F
100
AcDbEntity
  8
0
 62
     7
 48
0.0502
100
AcDbLine
 10
-71.86620977898344
 20
136.2851971135897
 30
0.0
 11
-72.7148417789835
 21
138.1050671135897
 31
0.0
  0
LINE
  5
C53
330
1F
100
AcDbEntity
  8
0
 62
     7
 48
0.050583
100
AcDbLine
 10
-69.94402877898352
 20
136.8954421135897
 30
0.0
 11
-70.79913177898339
 21
138.7291671135897
 31
0.0
  0
LINE
  5
C54
330
1F
100
AcDbEntity
  8
0
 62
     7
 48
0.051072
100
AcDbLine
 10
-67.97552277898347
 20
137.4062911135897
 30
0.0
 11
-68.83886577898334
 21
139.2577771135897
 31
0.0
  0
LINE
  5
C55
330
1F
100
AcDbEntity
  8
0
 62
     7
 48
0.080092
100
AcDbLine
 10
-59.37975877898344
 20
123.7051341135897
 30
0.0
 11
-60.7337017789834
 21
126.6086681135897
 31
0.0
  0
LINE
  5
C56
330
1F
100
AcDbEntity
  8
0
 62
     7
 48
0.05161
100
AcDbLine
 10
-65.96417077898347
 20
137.8253741135897
 30
0.0
 11
-66.83660677898337
 21
139.6963761135897
 31
0.0
  0
LINE
  5
C57
330
1F
100
AcDbEntity
  8
0
 62
     7
 48
0.109617
100
AcDbLine
 10
-58.96648977898343
 20
127.5512341135897
 30
0.0
 11
-60.81951777898343
 21
131.5251111135897
 31
0.0
  0
LINE
  5
C58
330
1F
100
AcDbEntity
  8
0
 62
     7
 48
0.052206
100
AcDbLine
 10
-63.91265677898338
 20
138.1582901135897
 30
0.0
 11
-64.7951647789834
 21
140.0508831135898
 31
0.0
  0
LINE
  5
C59
330
1F
100
AcDbEntity
  8
0
 62
     7
 48
0.119403
100
AcDbLine
 10
-58.88689977898349
 20
132.1128801135897
 30
0.0
 11
-60.90533277898344
 21
136.4415541135898
 31
0.0
  0
LINE
  5
C5A
330
1F
100
AcDbEntity
  8
0
 62
     7
 48
0.053423
100
AcDbLine
 10
-61.81359677898348
 20
138.3892161135898
 30
0.0
 11
-62.71667277898342
 21
140.3259381135897
 31
0.0
  0
LINE
  5
C5B
330
1F
100
AcDbEntity
  8
0
 62
     7
 48
0.110055
100
AcDbLine
 10
-58.80724977898347
 20
136.6745251135897
 30
0.0
 11
-60.66772277898343
 21
140.6642711135897
 31
0.0
  0
LINE
  5
C5C
330
1F
100
AcDbEntity
  8
0
 62
     7
 48
0.102584
100
AcDbLine
 10
-50.86852877898349
 20
124.3822581135897
 30
0.0
 11
-52.60265977898342
 21
128.1011761135897
 31
0.0
  0
LINE
  5
C5D
330
1F
100
AcDbEntity
  8
0
 62
     7
 48
0.067779
100
AcDbLine
 10
-57.33422677898346
 20
138.2479811135897
 30
0.0
 11
-58.47997877898348
 21
140.7051341135897
 31
0.0
  0
LINE
  5
C5E
330
1F
100
AcDbEntity
  8
0
 62
     7
 48
0.112588
100
AcDbLine
 10
-50.7852157789834
 20
128.9360301135897
 30
0.0
 11
-52.68847477898344
 21
133.0176191135897
 31
0.0
  0
LINE
  5
C5F
330
1F
100
AcDbEntity
  8
0
 62
     7
 48
0.067779
100
AcDbLine
 10
-55.12743977898338
 20
138.2479811135897
 30
0.0
 11
-56.27325277898336
 21
140.7051341135897
 31
0.0
  0
LINE
  5
C60
330
1F
100
AcDbEntity
  8
0
 62
     7
 48
0.122375
100
AcDbLine
 10
-50.70556477898339
 20
133.4976761135897
 30
0.0
 11
-52.77429077898336
 21
137.9340471135897
 31
0.0
  0
LINE
  5
C61
330
1F
100
AcDbEntity
  8
0
 62
     7
 48
0.067779
100
AcDbLine
 10
-52.92071377898338
 20
138.2479811135897
 30
0.0
 11
-54.0664657789834
 21
140.7051341135897
 31
0.0
  0
LINE
  5
C62
330
1F
100
AcDbEntity
  8
0
 62
     7
 48
0.084063
100
AcDbLine
 10
-50.43865777898344
 20
137.6576801135897
 30
0.0
 11
-51.85973977898339
 21
140.7051341135897
 31
0.0
  0
LINE
  5
C63
330
1F
100
AcDbEntity
  8
0
 62
     7
 48
0.327374
100
AcDbLine
 10
-87.87231277898348
 20
75.88833111358976
 30
0.0
 11
-95.38329877898339
 21
86.61507711358977
 31
0.0
  0
LINE
  5
C64
330
1F
100
AcDbEntity
  8
0
 62
     7
 48
0.09856
100
AcDbLine
 10
-84.20666377898346
 20
74.14013211358976
 30
0.0
 11
-86.46795477898349
 21
77.36953311358977
 31
0.0
  0
LINE
  5
C65
330
1F
100
AcDbEntity
  8
0
 62
     7
 48
0.09964
100
AcDbLine
 10
-93.51122877898347
 20
87.42838611358973
 30
0.0
 11
-95.79723977898339
 21
90.69320211358975
 31
0.0
  0
LINE
  5
C66
330
1F
100
AcDbEntity
  8
0
 62
     7
 48
0.073517
100
AcDbLine
 10
-81.27166577898339
 20
73.43534411358977
 30
0.0
 11
-82.95837277898344
 21
75.84421811358976
 31
0.0
  0
LINE
  5
C67
330
1F
100
AcDbEntity
  8
0
 62
     7
 48
0.09059
100
AcDbLine
 10
-93.8137187789834
 20
91.34727011358975
 30
0.0
 11
-95.89214877898342
 21
94.31554711358975
 31
0.0
  0
LINE
  5
C68
330
1F
100
AcDbEntity
  8
0
 62
     7
 48
0.062996
100
AcDbLine
 10
-78.69891177898347
 20
73.24798111358976
 30
0.0
 11
-80.14422477898341
 21
75.31212911358974
 31
0.0
  0
LINE
  5
C69
330
1F
100
AcDbEntity
  8
0
 62
     7
 48
0.090591
100
AcDbLine
 10
-93.90856777898347
 20
94.96963011358976
 30
0.0
 11
-95.98699777898337
 21
97.93792311358977
 31
0.0
  0
LINE
  5
C6A
330
1F
100
AcDbEntity
  8
0
 62
     7
 48
0.061038
100
AcDbLine
 10
-76.2573837789834
 20
73.24798111358976
 30
0.0
 11
-77.65777377898342
 21
75.24798111358975
 31
0.0
  0
LINE
  5
C6B
330
1F
100
AcDbEntity
  8
0
 62
     7
 48
0.09059
100
AcDbLine
 10
-94.00341677898342
 20
98.59199111358977
 30
0.0
 11
-96.08184677898345
 21
101.5602671135897
 31
0.0
  0
LINE
  5
C6C
330
1F
100
AcDbEntity
  8
0
 62
     7
 48
0.061039
100
AcDbLine
 10
-73.81579377898339
 20
73.24798111358976
 30
0.0
 11
-75.21624577898347
 21
75.24798111358975
 31
0.0
  0
LINE
  5
C6D
330
1F
100
AcDbEntity
  8
0
 62
     7
 48
0.090591
100
AcDbLine
 10
-94.09826477898338
 20
102.2143511135897
 30
0.0
 11
-96.1766947789834
 21
105.1826431135897
 31
0.0
  0
LINE
  5
C6E
330
1F
100
AcDbEntity
  8
0
 62
     7
 48
0.061038
100
AcDbLine
 10
-71.37426577898344
 20
73.24798111358976
 30
0.0
 11
-72.77465677898345
 21
75.24798111358975
 31
0.0
  0
LINE
  5
C6F
330
1F
100
AcDbEntity
  8
0
 62
     7
 48
0.09059
100
AcDbLine
 10
-94.19311377898344
 20
105.8367111135897
 30
0.0
 11
-96.27154377898349
 21
108.8049881135897
 31
0.0
  0
LINE
  5
C70
330
1F
100
AcDbEntity
  8
0
 62
     7
 48
0.061038
100
AcDbLine
 10
-68.93273777898349
 20
73.24798111358976
 30
0.0
 11
-70.33312777898339
 21
75.24798111358975
 31
0.0
  0
LINE
  5
C71
330
1F
100
AcDbEntity
  8
0
 62
     7
 48
0.090591
100
AcDbLine
 10
-94.28796177898352
 20
109.4590711135897
 30
0.0
 11
-96.36639277898344
 21
112.4273631135897
 31
0.0
  0
LINE
  5
C72
330
1F
100
AcDbEntity
  8
0
 62
     7
 48
0.057295
100
AcDbLine
 10
-66.57891677898345
 20
73.37328611358977
 30
0.0
 11
-67.89343077898336
 21
75.25060611358975
 31
0.0
  0
LINE
  5
C73
330
1F
100
AcDbEntity
  8
0
 62
     7
 48
0.090591
100
AcDbLine
 10
-94.38281077898336
 20
113.0814311135897
 30
0.0
 11
-96.46124077898338
 21
116.0497241135897
 31
0.0
  0
LINE
  5
C74
330
1F
100
AcDbEntity
  8
0
 62
     7
 48
0.051313
100
AcDbLine
 10
-64.58227377898339
 20
74.00873911358974
 30
0.0
 11
-65.75958077898343
 21
75.69004311358975
 31
0.0
  0
LINE
  5
C75
330
1F
100
AcDbEntity
  8
0
 62
     7
 48
0.067296
100
AcDbLine
 10
-94.47772077898347
 20
116.7037921135897
 30
0.0
 11
-96.02166577898341
 21
118.9088391135897
 31
0.0
  0
LINE
  5
C76
330
1F
100
AcDbEntity
  8
0
 62
     7
 48
0.050761
100
AcDbLine
 10
-62.89111177898343
 20
75.08040911358975
 30
0.0
 11
-64.05572377898335
 21
76.74364811358976
 31
0.0
  0
LINE
  5
C77
330
1F
100
AcDbEntity
  8
0
 62
     7
 48
0.054909
100
AcDbLine
 10
-61.49426077898346
 20
76.57238311358975
 30
0.0
 11
-62.75402677898346
 21
78.37153211358975
 31
0.0
  0
LINE
  5
C78
330
1F
100
AcDbEntity
  8
0
 62
     7
 48
0.069117
100
AcDbLine
 10
-60.44811877898343
 20
78.56516611358975
 30
0.0
 11
-62.03387277898338
 21
80.82986011358974
 31
0.0
  0
LINE
  5
C79
330
1F
100
AcDbEntity
  8
0
 62
     7
 48
0.086537
100
AcDbLine
 10
-59.9801007789834
 20
81.38370811358976
 30
0.0
 11
-61.96551377898339
 21
84.21917311358976
 31
0.0
  0
LINE
  5
C7A
330
1F
100
AcDbEntity
  8
0
 62
     7
 48
0.086537
100
AcDbLine
 10
-59.92071377898338
 20
84.78579211358974
 30
0.0
 11
-61.90612677898339
 21
87.62125711358976
 31
0.0
  0
LINE
  5
C7B
330
1F
100
AcDbEntity
  8
0
 62
     7
 48
0.086537
100
AcDbLine
 10
-59.86132677898336
 20
88.18787711358977
 30
0.0
 11
-61.84673877898347
 21
91.02334111358972
 31
0.0
  0
LINE
  5
C7C
330
1F
100
AcDbEntity
  8
0
 62
     7
 48
0.156622
100
AcDbLine
 10
-47.8076767789834
 20
74.46036811358974
 30
0.0
 11
-51.40106077898344
 21
79.59228011358977
 31
0.0
  0
LINE
  5
C7D
330
1F
100
AcDbEntity
  8
0
 62
     7
 48
0.086537
100
AcDbLine
 10
-59.80193877898347
 20
91.58996111358971
 30
0.0
 11
-61.78735177898346
 21
94.42544111358976
 31
0.0
  0
LINE
  5
C7E
330
1F
100
AcDbEntity
  8
0
 62
     7
 48
0.08197
100
AcDbLine
 10
-44.55999577898348
 20
73.30904711358974
 30
0.0
 11
-46.44061077898339
 21
75.99489911358976
 31
0.0
  0
LINE
  5
C7F
330
1F
100
AcDbEntity
  8
0
 62
     7
 48
0.093562
100
AcDbLine
 10
-49.46777177898349
 20
80.31811111358974
 30
0.0
 11
-51.61437777898339
 21
83.38378411358974
 31
0.0
  0
LINE
  5
C80
330
1F
100
AcDbEntity
  8
0
 62
     7
 48
0.086537
100
AcDbLine
 10
-59.74255177898346
 20
94.99204511358973
 30
0.0
 11
-61.72796477898344
 21
97.82751011358977
 31
0.0
  0
LINE
  5
C81
330
1F
100
AcDbEntity
  8
0
 62
     7
 48
0.061038
100
AcDbLine
 10
-42.07568177898344
 20
73.24798111358976
 30
0.0
 11
-43.47607277898345
 21
75.24798111358975
 31
0.0
  0
LINE
  5
C82
330
1F
100
AcDbEntity
  8
0
 62
     7
 48
0.090962
100
AcDbLine
 10
-49.5898417789835
 20
83.97936511358976
 30
0.0
 11
-51.67681677898343
 21
86.95981911358975
 31
0.0
  0
LINE
  5
C83
330
1F
100
AcDbEntity
  8
0
 62
     7
 48
0.086537
100
AcDbLine
 10
-59.68316477898344
 20
98.39413011358978
 30
0.0
 11
-61.66857777898343
 21
101.2296101135897
 31
0.0
  0
LINE
  5
C84
330
1F
100
AcDbEntity
  8
0
 62
     7
 48
0.061039
100
AcDbLine
 10
-39.63409277898342
 20
73.24798111358976
 30
0.0
 11
-41.03454377898339
 21
75.24798111358975
 31
0.0
  0
LINE
  5
C85
330
1F
100
AcDbEntity
  8
0
 62
     7
 48
0.090961
100
AcDbLine
 10
-49.65228077898342
 20
87.55540011358977
 30
0.0
 11
-51.73919477898341
 21
90.53585311358977
 31
0.0
  0
LINE
  5
C86
330
1F
100
AcDbEntity
  8
0
 62
     7
 48
0.086537
100
AcDbLine
 10
-59.62377777898343
 20
101.7962141135897
 30
0.0
 11
-61.60925177898338
 21
104.6316791135897
 31
0.0
  0
LINE
  5
C87
330
1F
100
AcDbEntity
  8
0
 62
     7
 48
0.061038
100
AcDbLine
 10
-37.19256377898347
 20
73.24798111358976
 30
0.0
 11
-38.59295477898348
 21
75.24798111358975
 31
0.0
  0
LINE
  5
C88
330
1F
100
AcDbEntity
  8
0
 62
     7
 48
0.090961
100
AcDbLine
 10
-49.71471977898335
 20
91.13143411358972
 30
0.0
 11
-51.80163377898344
 21
94.11188811358973
 31
0.0
  0
LINE
  5
C89
330
1F
100
AcDbEntity
  8
0
 62
     7
 48
0.086538
100
AcDbLine
 10
-59.5643907789834
 20
105.1982981135897
 30
0.0
 11
-61.54986377898348
 21
108.0337781135897
 31
0.0
  0
LINE
  5
C8A
330
1F
100
AcDbEntity
  8
0
 62
     7
 48
0.061038
100
AcDbLine
 10
-34.75103577898341
 20
73.24798111358976
 30
0.0
 11
-36.15142677898342
 21
75.24798111358975
 31
0.0
  0
LINE
  5
C8B
330
1F
100
AcDbEntity
  8
0
 62
     7
 48
0.090962
100
AcDbLine
 10
-49.77709777898343
 20
94.70748411358973
 30
0.0
 11
-51.86407277898336
 21
97.68792311358977
 31
0.0
  0
LINE
  5
C8C
330
1F
100
AcDbEntity
  8
0
 62
     7
 48
0.086537
100
AcDbLine
 10
-59.50506377898347
 20
108.6003831135897
 30
0.0
 11
-61.49047677898344
 21
111.4358631135897
 31
0.0
  0
LINE
  5
C8D
330
1F
100
AcDbEntity
  8
0
 62
     7
 48
0.060744
100
AcDbLine
 10
-32.31622177898345
 20
73.25767011358974
 30
0.0
 11
-33.70989777898348
 21
75.24798111358975
 31
0.0
  0
LINE
  5
C8E
330
1F
100
AcDbEntity
  8
0
 62
     7
 48
0.090961
100
AcDbLine
 10
-49.83953677898347
 20
98.28351911358977
 30
0.0
 11
-51.92645077898345
 21
101.2639721135897
 31
0.0
  0
LINE
  5
C8F
330
1F
100
AcDbEntity
  8
0
 62
     7
 48
0.086537
100
AcDbLine
 10
-59.44567677898344
 20
112.0024671135897
 30
0.0
 11
-61.43108977898345
 21
114.8379471135897
 31
0.0
  0
LINE
  5
C90
330
1F
100
AcDbEntity
  8
0
 62
     7
 48
0.056407
100
AcDbLine
 10
-30.02606077898344
 20
73.47387211358975
 30
0.0
 11
-31.32024977898351
 21
75.32209311358973
 31
0.0
  0
LINE
  5
C91
330
1F
100
AcDbEntity
  8
0
 62
     7
 48
0.090961
100
AcDbLine
 10
-49.9019757789834
 20
101.8595531135897
 30
0.0
 11
-51.98888977898338
 21
104.8400071135897
 31
0.0
  0
LINE
  5
C92
330
1F
100
AcDbEntity
  8
0
 62
     7
 48
0.086537
100
AcDbLine
 10
-59.38628977898344
 20
115.4045671135897
 30
0.0
 11
-61.37170277898343
 21
118.2400311135897
 31
0.0
  0
LINE
  5
C93
330
1F
100
AcDbEntity
  8
0
 62
     7
 48
0.053106
100
AcDbLine
 10
-27.9230937789834
 20
73.95736211358974
 30
0.0
 11
-29.14147777898342
 21
75.69744411358974
 31
0.0
  0
LINE
  5
C94
330
1F
100
AcDbEntity
  8
0
 62
     7
 48
0.090962
100
AcDbLine
 10
-49.96435377898348
 20
105.4356031135897
 30
0.0
 11
-52.05132877898342
 21
108.4160411135897
 31
0.0
  0
LINE
  5
C95
330
1F
100
AcDbEntity
  8
0
 62
     7
 48
0.086537
100
AcDbLine
 10
-59.32690277898342
 20
118.8066361135897
 30
0.0
 11
-61.31231477898342
 21
121.6421161135897
 31
0.0
  0
LINE
  5
C96
330
1F
100
AcDbEntity
  8
0
 62
     7
 48
0.051159
100
AcDbLine
 10
-25.97991777898342
 20
74.66912411358975
 30
0.0
 11
-27.15368477898341
 21
76.34540811358977
 31
0.0
  0
LINE
  5
C97
330
1F
100
AcDbEntity
  8
0
 62
     7
 48
0.090961
100
AcDbLine
 10
-50.0267927789834
 20
109.0116381135897
 30
0.0
 11
-52.11370677898338
 21
111.9920911135897
 31
0.0
  0
LINE
  5
C98
330
1F
100
AcDbEntity
  8
0
 62
     7
 48
0.063199
100
AcDbLine
 10
-58.72527877898352
 20
121.4343521135897
 30
0.0
 11
-60.17523077898346
 21
123.5051371135897
 31
0.0
  0
LINE
  5
C99
330
1F
100
AcDbEntity
  8
0
 62
     7
 48
0.050187
100
AcDbLine
 10
-24.1808457789835
 20
75.58666511358976
 30
0.0
 11
-25.33227377898339
 21
77.23112011358975
 31
0.0
  0
LINE
  5
C9A
330
1F
100
AcDbEntity
  8
0
 62
     7
 48
0.090961
100
AcDbLine
 10
-50.08923177898345
 20
112.5876721135897
 30
0.0
 11
-52.1761457789834
 21
115.5681261135897
 31
0.0
  0
LINE
  5
C9B
330
1F
100
AcDbEntity
  8
0
 62
     7
 48
0.073023
100
AcDbLine
 10
-56.99474977898347
 20
122.4497631135897
 30
0.0
 11
-58.67010377898346
 21
124.8424331135898
 31
0.0
  0
LINE
  5
C9C
330
1F
100
AcDbEntity
  8
0
 62
     7
 48
0.050022
100
AcDbLine
 10
-22.51818677898353
 20
76.69901611358975
 30
0.0
 11
-23.66583077898344
 21
78.33803811358973
 31
0.0
  0
LINE
  5
C9D
330
1F
100
AcDbEntity
  8
0
 62
     7
 48
0.090962
100
AcDbLine
 10
-50.15160977898339
 20
116.1637071135897
 30
0.0
 11
-52.23858477898346
 21
119.1441601135897
 31
0.0
  0
LINE
  5
C9E
330
1F
100
AcDbEntity
  8
0
 62
     7
 48
0.010916
100
AcDbLine
 10
-54.37035977898339
 20
122.1886401135897
 30
0.0
 11
-54.62078677898347
 21
122.5463211135897
 31
0.0
  0
LINE
  5
C9F
330
1F
100
AcDbEntity
  8
0
 62
     7
 48
0.085065
100
AcDbLine
 10
-56.65905577898336
 20
125.4572711135897
 30
0.0
 11
-58.61071577898343
 21
128.2445171135897
 31
0.0
  0
LINE
  5
CA0
330
1F
100
AcDbEntity
  8
0
 62
     7
 48
0.050647
100
AcDbLine
 10
-20.99072077898342
 20
78.00449711358976
 30
0.0
 11
-22.15270877898348
 21
79.66402711358975
 31
0.0
  0
LINE
  5
CA1
330
1F
100
AcDbEntity
  8
0
 62
     7
 48
0.114917
100
AcDbLine
 10
-50.21404877898344
 20
119.7397411135897
 30
0.0
 11
-52.85058477898343
 21
123.5051371135897
 31
0.0
  0
LINE
  5
CA2
330
1F
100
AcDbEntity
  8
0
 62
     7
 48
0.089415
100
AcDbLine
 10
-52.86651477898345
 20
123.5278581135897
 30
0.0
 11
-54.91796677898349
 21
126.4576371135897
 31
0.0
  0
LINE
  5
CA3
330
1F
100
AcDbEntity
  8
0
 62
     7
 48
0.085065
100
AcDbLine
 10
-56.59966877898347
 20
128.8593551135897
 30
0.0
 11
-58.5513287789834
 21
131.6466021135897
 31
0.0
  0
LINE
  5
CA4
330
1F
100
AcDbEntity
  8
0
 62
     7
 48
0.052223
100
AcDbLine
 10
-19.60363577898346
 20
79.51040211358975
 30
0.0
 11
-20.80175577898348
 21
81.22155311358975
 31
0.0
  0
LINE
  5
CA5
330
1F
100
AcDbEntity
  8
0
 62
     7
 48
0.089415
100
AcDbLine
 10
-52.9289537789835
 20
127.1039081135898
 30
0.0
 11
-54.98040577898342
 21
130.0336711135897
 31
0.0
  0
LINE
  5
CA6
330
1F
100
AcDbEntity
  8
0
 62
     7
 48
0.085065
100
AcDbLine
 10
-56.54028177898346
 20
132.2614391135898
 30
0.0
 11
-58.4919417789835
 21
135.0487011135897
 31
0.0
  0
LINE
  5
CA7
330
1F
100
AcDbEntity
  8
0
 62
     7
 48
0.054987
100
AcDbLine
 10
-18.3691997789835
 20
81.23437011358976
 30
0.0
 11
-19.63079677898344
 21
83.03608211358975
 31
0.0
  0
LINE
  5
CA8
330
1F
100
AcDbEntity
  8
0
 62
     7
 48
0.089414
100
AcDbLine
 10
-52.99139277898342
 20
130.6799421135897
 30
0.0
 11
-55.04278377898351
 21
133.6097061135897
 31
0.0
  0
LINE
  5
CA9
330
1F
100
AcDbEntity
  8
0
 62
     7
 48
0.075289
100
AcDbLine
 10
-56.48089477898344
 20
135.6635241135897
 30
0.0
 11
-58.20825077898343
 21
138.1304581135897
 31
0.0
  0
LINE
  5
CAA
330
1F
100
AcDbEntity
  8
0
 62
     7
 48
0.059444
100
AcDbLine
 10
-17.30975177898341
 20
83.20818611358973
 30
0.0
 11
-18.67358277898353
 21
85.15592511358972
 31
0.0
  0
LINE
  5
CAB
330
1F
100
AcDbEntity
  8
0
 62
     7
 48
0.120526
100
AcDbLine
 10
-53.0537707789835
 20
134.2559771135897
 30
0.0
 11
-55.81902877898354
 21
138.2051341135897
 31
0.0
  0
LINE
  5
CAC
330
1F
100
AcDbEntity
  8
0
 62
     7
 48
0.067156
100
AcDbLine
 10
-16.46270577898343
 20
85.48540811358975
 30
0.0
 11
-18.00347777898338
 21
87.68584711358974
 31
0.0
  0
LINE
  5
CAD
330
1F
100
AcDbEntity
  8
0
 62
     7
 48
0.006881
100
AcDbLine
 10
-53.1414777789834
 20
137.8680981135897
 30
0.0
 11
-53.29931477898337
 21
138.0935621135897
 31
0.0
  0
LINE
  5
CAE
330
1F
100
AcDbEntity
  8
0
 62
     7
 48
0.080662
100
AcDbLine
 10
-15.90887277898338
 20
88.18137611358976
 30
0.0
 11
-17.75951977898336
 21
90.82436711358973
 31
0.0
  0
LINE
  5
CAF
330
1F
100
AcDbEntity
  8
0
 62
     7
 48
0.08406
100
AcDbLine
 10
-15.74291777898344
 20
91.43123911358976
 30
0.0
 11
-17.67150677898342
 21
94.18557311358977
 31
0.0
  0
LINE
  5
CB0
330
1F
100
AcDbEntity
  8
0
 62
     7
 48
0.084058
100
AcDbLine
 10
-15.65496677898346
 20
94.79249111358976
 30
0.0
 11
-17.58349477898338
 21
97.54676311358977
 31
0.0
  0
LINE
  5
CB1
330
1F
100
AcDbEntity
  8
0
 62
     7
 48
0.084058
100
AcDbLine
 10
-15.56695377898342
 20
98.15368211358977
 30
0.0
 11
-17.49548177898345
 21
100.9079541135897
 31
0.0
  0
LINE
  5
CB2
330
1F
100
AcDbEntity
  8
0
 62
     7
 48
0.084058
100
AcDbLine
 10
-15.47894077898337
 20
101.5148731135897
 30
0.0
 11
-17.4074687789834
 21
104.2691451135897
 31
0.0
  0
LINE
  5
CB3
330
1F
100
AcDbEntity
  8
0
 62
     7
 48
0.084058
100
AcDbLine
 10
-15.39092877898343
 20
104.8760631135897
 30
0.0
 11
-17.31945677898335
 21
107.6303361135897
 31
0.0
  0
LINE
  5
CB4
330
1F
100
AcDbEntity
  8
0
 62
     7
 48
0.084058
100
AcDbLine
 10
-15.30291577898342
 20
108.2372691135897
 30
0.0
 11
-17.23144377898342
 21
110.9915421135897
 31
0.0
  0
LINE
  5
CB5
330
1F
100
AcDbEntity
  8
0
 62
     7
 48
0.084058
100
AcDbLine
 10
-15.21490277898348
 20
111.5984601135897
 30
0.0
 11
-17.14343077898337
 21
114.3527331135897
 31
0.0
  0
LINE
  5
CB6
330
1F
100
AcDbEntity
  8
0
 62
     7
 48
0.084059
100
AcDbLine
 10
-15.12682977898348
 20
114.9596511135897
 30
0.0
 11
-17.05541777898344
 21
117.7139231135897
 31
0.0
  0
LINE
  5
CB7
330
1F
100
AcDbEntity
  8
0
 62
     7
 48
0.009463
100
AcDbLine
 10
-15.13348177898339
 20
118.4559891135897
 30
0.0
 11
-15.35058477898346
 21
118.7660631135897
 31
0.0
  0
LINE
  5
CB8
330
1F
100
AcDbEntity
  8
0
 62
     7
 48
0.007599
100
AcDbLine
 10
11.82379322101658
 20
116.9677381135897
 30
0.0
 11
11.60888822101654
 21
117.1826731135897
 31
0.0
  0
LINE
  5
CB9
330
1F
100
AcDbEntity
  8
0
 62
     7
 48
0.105308
100
AcDbLine
 10
14.7282732210165
 20
116.8916731135897
 30
0.0
 11
11.74969622101653
 21
119.8702351135897
 31
0.0
  0
LINE
  5
CBA
330
1F
100
AcDbEntity
  8
0
 62
     7
 48
0.203017
100
AcDbLine
 10
17.63275322101654
 20
116.8156231135897
 30
0.0
 11
11.89056522101648
 21
122.5578261135897
 31
0.0
  0
LINE
  5
CBB
330
1F
100
AcDbEntity
  8
0
 62
     7
 48
0.0799
100
AcDbLine
 10
20.53723322101646
 20
116.7395581135897
 30
0.0
 11
18.27734522101653
 21
118.9994921135897
 31
0.0
  0
LINE
  5
CBC
330
1F
100
AcDbEntity
  8
0
 62
     7
 48
0.084101
100
AcDbLine
 10
14.41015822101647
 20
122.8666331135897
 30
0.0
 11
12.03143522101655
 21
125.2453871135897
 31
0.0
  0
LINE
  5
CBD
330
1F
100
AcDbEntity
  8
0
 62
     7
 48
0.079901
100
AcDbLine
 10
23.4417132210165
 20
116.6635081135897
 30
0.0
 11
21.18176422101661
 21
118.9234421135897
 31
0.0
  0
LINE
  5
CBE
330
1F
100
AcDbEntity
  8
0
 62
     7
 48
0.084102
100
AcDbLine
 10
14.55102722101654
 20
125.5542101135897
 30
0.0
 11
12.17224322101654
 21
127.9329791135897
 31
0.0
  0
LINE
  5
CBF
330
1F
100
AcDbEntity
  8
0
 62
     7
 48
0.0799
100
AcDbLine
 10
26.34619322101654
 20
116.5874591135897
 30
0.0
 11
24.0863052210166
 21
118.8473771135897
 31
0.0
  0
LINE
  5
CC0
330
1F
100
AcDbEntity
  8
0
 62
     7
 48
0.070711
100
AcDbLine
 10
16.08569522101655
 20
126.8479871135897
 30
0.0
 11
14.08569522101655
 21
128.8479871135898
 31
0.0
  0
LINE
  5
CC1
330
1F
100
AcDbEntity
  8
0
 62
     7
 48
0.0799
100
AcDbLine
 10
29.25067322101657
 20
116.5113941135897
 30
0.0
 11
26.99078522101653
 21
118.7713271135897
 31
0.0
  0
LINE
  5
CC2
330
1F
100
AcDbEntity
  8
0
 62
     7
 48
0.0799
100
AcDbLine
 10
32.15515322101649
 20
116.4353291135898
 30
0.0
 11
29.89526522101656
 21
118.6952771135897
 31
0.0
  0
LINE
  5
CC3
330
1F
100
AcDbEntity
  8
0
 62
     7
 48
0.079901
100
AcDbLine
 10
35.0596942210166
 20
116.3592791135897
 30
0.0
 11
32.79974522101648
 21
118.6192121135897
 31
0.0
  0
LINE
  5
CC4
330
1F
100
AcDbEntity
  8
0
 62
     7
 48
0.079901
100
AcDbLine
 10
37.96417422101652
 20
116.2832291135897
 30
0.0
 11
35.70422522101651
 21
118.5431471135897
 31
0.0
  0
LINE
  5
CC5
330
1F
100
AcDbEntity
  8
0
 62
     7
 48
0.079901
100
AcDbLine
 10
40.86865422101655
 20
116.2071641135897
 30
0.0
 11
38.60870522101654
 21
118.4670971135897
 31
0.0
  0
LINE
  5
CC6
330
1F
100
AcDbEntity
  8
0
 62
     7
 48
0.079901
100
AcDbLine
 10
43.7731342210166
 20
116.1311141135897
 30
0.0
 11
41.51318522101656
 21
118.3910481135897
 31
0.0
  0
LINE
  5
CC7
330
1F
100
AcDbEntity
  8
0
 62
     7
 48
0.079901
100
AcDbLine
 10
46.67761422101651
 20
116.0550491135897
 30
0.0
 11
44.41766522101651
 21
118.3149821135897
 31
0.0
  0
LINE
  5
CC8
330
1F
100
AcDbEntity
  8
0
 62
     7
 48
0.079901
100
AcDbLine
 10
49.58209422101655
 20
115.9789991135897
 30
0.0
 11
47.32214522101654
 21
118.2389331135897
 31
0.0
  0
LINE
  5
CC9
330
1F
100
AcDbEntity
  8
0
 62
     7
 48
0.079901
100
AcDbLine
 10
52.48657422101646
 20
115.9029491135897
 30
0.0
 11
50.22662522101646
 21
118.1628681135897
 31
0.0
  0
LINE
  5
CCA
330
1F
100
AcDbEntity
  8
0
 62
     7
 48
0.079901
100
AcDbLine
 10
55.3910542210165
 20
115.8268841135897
 30
0.0
 11
53.13110522101659
 21
118.0868181135897
 31
0.0
  0
LINE
  5
CCB
330
1F
100
AcDbEntity
  8
0
 62
     7
 48
0.079901
100
AcDbLine
 10
58.29553422101653
 20
115.7508191135897
 30
0.0
 11
56.03558522101653
 21
118.0107681135897
 31
0.0
  0
LINE
  5
CCC
330
1F
100
AcDbEntity
  8
0
 62
     7
 48
0.045146
100
AcDbLine
 10
-169.5028667789834
 20
122.9318801135897
 30
0.0
 11
-170.7797837789835
 21
124.2088271135897
 31
0.0
  0
LINE
  5
CCD
330
1F
100
AcDbEntity
  8
0
 62
     7
 48
0.077781
100
AcDbLine
 10
-166.6744367789835
 20
122.9318801135897
 30
0.0
 11
-168.8743877789834
 21
125.1318921135897
 31
0.0
  0
LINE
  5
CCE
330
1F
100
AcDbEntity
  8
0
 62
     7
 48
0.077782
100
AcDbLine
 10
-163.8460067789834
 20
122.9318801135897
 30
0.0
 11
-166.0460187789834
 21
125.1318921135897
 31
0.0
  0
LINE
  5
CCF
330
1F
100
AcDbEntity
  8
0
 62
     7
 48
0.06103
100
AcDbLine
 10
-162.0535867789835
 20
123.9679521135897
 30
0.0
 11
-163.7797837789834
 21
125.6941181135898
 31
0.0
  0
LINE
  5
CD0
330
1F
100
AcDbEntity
  8
0
 62
     7
 48
0.06364
100
AcDbLine
 10
-161.9797957789835
 20
126.7225291135897
 30
0.0
 11
-163.7797837789834
 21
128.5225481135897
 31
0.0
  0
LINE
  5
CD1
330
1F
100
AcDbEntity
  8
0
 62
     7
 48
0.05859
100
AcDbLine
 10
-161.2607407789833
 20
128.8318891135897
 30
0.0
 11
-162.9179057789834
 21
130.4891001135897
 31
0.0
  0
LINE
  5
CD2
330
1F
100
AcDbEntity
  8
0
 62
     7
 48
0.058249
100
AcDbLine
 10
-152.5322857789834
 20
122.9318801135897
 30
0.0
 11
-154.1798077789835
 21
124.5794021135897
 31
0.0
  0
LINE
  5
CD3
330
1F
100
AcDbEntity
  8
0
 62
     7
 48
0.063641
100
AcDbLine
 10
-158.4322497789834
 20
128.8318891135897
 30
0.0
 11
-160.2322977789834
 21
130.6318921135897
 31
0.0
  0
LINE
  5
CD4
330
1F
100
AcDbEntity
  8
0
 62
     7
 48
0.077806
100
AcDbLine
 10
-149.7038557789833
 20
122.9318801135897
 30
0.0
 11
-151.9045397789834
 21
125.1325641135897
 31
0.0
  0
LINE
  5
CD5
330
1F
100
AcDbEntity
  8
0
 62
     7
 48
0.063664
100
AcDbLine
 10
-152.3790877789834
 20
125.6071421135897
 30
0.0
 11
-154.1798077789835
 21
127.4078171135897
 31
0.0
  0
LINE
  5
CD6
330
1F
100
AcDbEntity
  8
0
 62
     7
 48
0.063639
100
AcDbLine
 10
-155.6038797789834
 20
128.8318891135897
 30
0.0
 11
-157.4038677789834
 21
130.6318921135897
 31
0.0
  0
LINE
  5
CD7
330
1F
100
AcDbEntity
  8
0
 62
     7
 48
0.077782
100
AcDbLine
 10
-146.8754257789834
 20
122.9318801135897
 30
0.0
 11
-149.0754377789835
 21
125.1318921135897
 31
0.0
  0
LINE
  5
CD8
330
1F
100
AcDbEntity
  8
0
 62
     7
 48
0.077628
100
AcDbLine
 10
-152.3797587789834
 20
128.4362441135897
 30
0.0
 11
-154.5754377789835
 21
130.6318921135897
 31
0.0
  0
LINE
  5
CD9
330
1F
100
AcDbEntity
  8
0
 62
     7
 48
0.077782
100
AcDbLine
 10
-144.0469957789834
 20
122.9318801135897
 30
0.0
 11
-146.2470077789834
 21
125.1318921135897
 31
0.0
  0
LINE
  5
CDA
330
1F
100
AcDbEntity
  8
0
 62
     7
 48
0.077782
100
AcDbLine
 10
-141.2185647789834
 20
122.9318801135897
 30
0.0
 11
-143.4185777789834
 21
125.1318921135897
 31
0.0
  0
LINE
  5
CDB
330
1F
100
AcDbEntity
  8
0
 62
     7
 48
0.077782
100
AcDbLine
 10
-138.3901347789834
 20
122.9318801135897
 30
0.0
 11
-140.5901467789834
 21
125.1318921135897
 31
0.0
  0
LINE
  5
CDC
330
1F
100
AcDbEntity
  8
0
 62
     7
 48
0.077782
100
AcDbLine
 10
-135.5617047789835
 20
122.9318801135897
 30
0.0
 11
-137.7617167789835
 21
125.1318921135897
 31
0.0
  0
LINE
  5
CDD
330
1F
100
AcDbEntity
  8
0
 62
     7
 48
0.077782
100
AcDbLine
 10
-132.7332747789834
 20
122.9318801135897
 30
0.0
 11
-134.9332867789835
 21
125.1318921135897
 31
0.0
  0
LINE
  5
CDE
330
1F
100
AcDbEntity
  8
0
 62
     7
 48
0.077782
100
AcDbLine
 10
-129.9048447789834
 20
122.9318801135897
 30
0.0
 11
-132.1048567789834
 21
125.1318921135897
 31
0.0
  0
LINE
  5
CDF
330
1F
100
AcDbEntity
  8
0
 62
     7
 48
0.077782
100
AcDbLine
 10
-127.0764147789834
 20
122.9318801135897
 30
0.0
 11
-129.2764267789834
 21
125.1318921135897
 31
0.0
  0
LINE
  5
CE0
330
1F
100
AcDbEntity
  8
0
 62
     7
 48
0.077782
100
AcDbLine
 10
-124.2479837789835
 20
122.9318801135897
 30
0.0
 11
-126.4479967789834
 21
125.1318921135897
 31
0.0
  0
LINE
  5
CE1
330
1F
100
AcDbEntity
  8
0
 62
     7
 48
0.13257
100
AcDbLine
 10
-123.5831277789834
 20
125.0954241135897
 30
0.0
 11
-127.3327617789835
 21
128.8450581135897
 31
0.0
  0
LINE
  5
CE2
330
1F
100
AcDbEntity
  8
0
 62
     7
 48
0.027142
100
AcDbLine
 10
-123.7395617789835
 20
128.0802871135898
 30
0.0
 11
-124.5072617789835
 21
128.8479871135898
 31
0.0
  0
LINE
  5
CE3
330
1F
100
AcDbEntity
  8
0
 62
     7
 48
0.030723
100
AcDbLine
 10
-162.8126817789834
 20
65.33002811358975
 30
0.0
 11
-163.6816387789834
 21
66.19900011358975
 31
0.0
  0
LINE
  5
CE4
330
1F
100
AcDbEntity
  8
0
 62
     7
 48
0.077782
100
AcDbLine
 10
-168.2145367789835
 20
70.73189811358975
 30
0.0
 11
-170.4145487789834
 21
72.93189511358973
 31
0.0
  0
LINE
  5
CE5
330
1F
100
AcDbEntity
  8
0
 62
     7
 48
0.068035
100
AcDbLine
 10
-159.8861067789834
 20
65.23189811358975
 30
0.0
 11
-161.8104227789834
 21
67.15621511358975
 31
0.0
  0
LINE
  5
CE6
330
1F
100
AcDbEntity
  8
0
 62
     7
 48
0.068036
100
AcDbLine
 10
-161.8554667789835
 20
67.20121311358974
 30
0.0
 11
-163.7797837789834
 21
69.12557511358976
 31
0.0
  0
LINE
  5
CE7
102
{ACAD_REACTORS
330
F79
102
}
330
1F
100
AcDbEntity
  8
0
 62
     7
 48
0.077782
100
AcDbLine
 10
-165.3861067789834
 20
70.73189811358975
 30
0.0
 11
-167.5861187789834
 21
72.93189511358973
 31
0.0
  0
LINE
  5
CE8
330
1F
100
AcDbEntity
  8
0
 62
     7
 48
0.063639
100
AcDbLine
 10
-157.0576767789834
 20
65.23189811358975
 30
0.0
 11
-158.8576647789834
 21
67.03188611358974
 31
0.0
  0
LINE
  5
CE9
330
1F
100
AcDbEntity
  8
0
 62
     7
 48
0.098213
100
AcDbLine
 10
-161.9797957789835
 20
70.15400211358977
 30
0.0
 11
-164.7576887789834
 21
72.93189511358973
 31
0.0
  0
LINE
  5
CEA
330
1F
100
AcDbEntity
  8
0
 62
     7
 48
0.063639
100
AcDbLine
 10
-154.2292467789834
 20
65.23189811358975
 30
0.0
 11
-156.0292337789835
 21
67.03188611358974
 31
0.0
  0
LINE
  5
CEB
330
1F
100
AcDbEntity
  8
0
 62
     7
 48
0.061176
100
AcDbLine
 10
-152.4494607789834
 20
66.28052811358975
 30
0.0
 11
-154.1798077789835
 21
68.01084411358974
 31
0.0
  0
LINE
  5
CEC
330
1F
100
AcDbEntity
  8
0
 62
     7
 48
0.063641
100
AcDbLine
 10
-152.3797587789834
 20
69.03927111358974
 30
0.0
 11
-154.1798077789835
 21
70.83927411358977
 31
0.0
  0
LINE
  5
CED
330
1F
100
AcDbEntity
  8
0
 62
     7
 48
0.072925
100
AcDbLine
 10
-151.2439557789834
 20
70.73189811358975
 30
0.0
 11
-153.3065777789833
 21
72.79452011358976
 31
0.0
  0
LINE
  5
CEE
330
1F
100
AcDbEntity
  8
0
 62
     7
 48
0.077782
100
AcDbLine
 10
-148.4155257789834
 20
70.73189811358975
 30
0.0
 11
-150.6155377789834
 21
72.93189511358973
 31
0.0
  0
LINE
  5
CEF
330
1F
100
AcDbEntity
  8
0
 62
     7
 48
0.077782
100
AcDbLine
 10
-145.5870957789835
 20
70.73189811358975
 30
0.0
 11
-147.7871077789835
 21
72.93189511358973
 31
0.0
  0
LINE
  5
CF0
330
1F
100
AcDbEntity
  8
0
 62
     7
 48
0.077782
100
AcDbLine
 10
-142.7586657789833
 20
70.73189811358975
 30
0.0
 11
-144.9586777789833
 21
72.93189511358973
 31
0.0
  0
LINE
  5
CF1
330
1F
100
AcDbEntity
  8
0
 62
     7
 48
0.077782
100
AcDbLine
 10
-139.9302347789834
 20
70.73189811358975
 30
0.0
 11
-142.1302477789834
 21
72.93189511358973
 31
0.0
  0
LINE
  5
CF2
330
1F
100
AcDbEntity
  8
0
 62
     7
 48
0.077782
100
AcDbLine
 10
-137.1018047789834
 20
70.73189811358975
 30
0.0
 11
-139.3018167789834
 21
72.93189511358973
 31
0.0
  0
LINE
  5
CF3
330
1F
100
AcDbEntity
  8
0
 62
     7
 48
0.077781
100
AcDbLine
 10
-134.2734357789833
 20
70.73189811358975
 30
0.0
 11
-136.4733867789835
 21
72.93189511358973
 31
0.0
  0
LINE
  5
CF4
330
1F
100
AcDbEntity
  8
0
 62
     7
 48
0.077781
100
AcDbLine
 10
-131.4450057789834
 20
70.73189811358975
 30
0.0
 11
-133.6449567789834
 21
72.93189511358973
 31
0.0
  0
LINE
  5
CF5
330
1F
100
AcDbEntity
  8
0
 62
     7
 48
0.077781
100
AcDbLine
 10
-128.6165757789834
 20
70.73189811358975
 30
0.0
 11
-130.8165267789834
 21
72.93189511358973
 31
0.0
  0
LINE
  5
CF6
330
1F
100
AcDbEntity
  8
0
 62
     7
 48
0.077782
100
AcDbLine
 10
-125.7881457789835
 20
70.73189811358975
 30
0.0
 11
-127.9881577789835
 21
72.93189511358973
 31
0.0
  0
LINE
  5
CF7
330
1F
100
AcDbEntity
  8
0
 62
     7
 48
0.077781
100
AcDbLine
 10
-122.9597147789833
 20
70.73189811358975
 30
0.0
 11
-125.1596667789834
 21
72.93189511358973
 31
0.0
  0
LINE
  5
CF8
330
1F
100
AcDbEntity
  8
0
 62
     7
 48
0.077782
100
AcDbLine
 10
-120.1312847789834
 20
70.73189811358975
 30
0.0
 11
-122.3312967789834
 21
72.93189511358973
 31
0.0
  0
LINE
  5
CF9
330
1F
100
AcDbEntity
  8
0
 62
     7
 48
0.077782
100
AcDbLine
 10
-117.3028547789834
 20
70.73189811358975
 30
0.0
 11
-119.5028667789834
 21
72.93189511358973
 31
0.0
  0
LINE
  5
CFA
330
1F
100
AcDbEntity
  8
0
 62
     7
 48
0.077782
100
AcDbLine
 10
-114.4744247789835
 20
70.73189811358975
 30
0.0
 11
-116.6744367789835
 21
72.93189511358973
 31
0.0
  0
LINE
  5
CFB
330
1F
100
AcDbEntity
  8
0
 62
     7
 48
0.077782
100
AcDbLine
 10
-111.6459947789834
 20
70.73189811358975
 30
0.0
 11
-113.8460067789834
 21
72.93189511358973
 31
0.0
  0
LINE
  5
CFC
330
1F
100
AcDbEntity
  8
0
 62
     7
 48
0.111882
100
AcDbLine
 10
-107.8530867789835
 20
69.76739011358976
 30
0.0
 11
-111.0175767789833
 21
72.93189511358973
 31
0.0
  0
LINE
  5
CFD
330
1F
100
AcDbEntity
  8
0
 62
     7
 48
0.095625
100
AcDbLine
 10
-104.8023667789834
 20
69.54513111358977
 30
0.0
 11
-107.5070787789835
 21
72.24981211358974
 31
0.0
  0
LINE
  5
CFE
330
1F
100
AcDbEntity
  8
0
 62
     7
 48
0.085706
100
AcDbLine
 10
-102.0611557789834
 20
69.63236511358974
 30
0.0
 11
-104.4852887789835
 21
72.05648311358976
 31
0.0
  0
LINE
  5
CFF
330
1F
100
AcDbEntity
  8
0
 62
     7
 48
0.085879
100
AcDbLine
 10
-99.31481777898348
 20
69.71439711358974
 30
0.0
 11
-101.7438337789834
 21
72.14345811358976
 31
0.0
  0
LINE
  5
D00
330
1F
100
AcDbEntity
  8
0
 62
     7
 48
0.086028
100
AcDbLine
 10
-96.56365777898344
 20
69.79168211358976
 30
0.0
 11
-98.99688577898345
 21
72.22492511358976
 31
0.0
  0
LINE
  5
D01
330
1F
100
AcDbEntity
  8
0
 62
     7
 48
0.086168
100
AcDbLine
 10
-93.80773777898347
 20
69.86419211358975
 30
0.0
 11
-96.24493277898348
 21
72.30138711358975
 31
0.0
  0
LINE
  5
D02
330
1F
100
AcDbEntity
  8
0
 62
     7
 48
0.08631
100
AcDbLine
 10
-91.04699577898344
 20
69.93188011358975
 30
0.0
 11
-93.48821877898336
 21
72.37308811358976
 31
0.0
  0
LINE
  5
D03
330
1F
100
AcDbEntity
  8
0
 62
     7
 48
0.086452
100
AcDbLine
 10
-88.2814317789834
 20
69.99473111358975
 30
0.0
 11
-90.72668277898348
 21
72.43996711358973
 31
0.0
  0
LINE
  5
D04
330
1F
100
AcDbEntity
  8
0
 62
     7
 48
0.086596
100
AcDbLine
 10
-85.5109847789834
 20
70.05269911358976
 30
0.0
 11
-87.96026477898346
 21
72.50202511358975
 31
0.0
  0
LINE
  5
D05
330
1F
100
AcDbEntity
  8
0
 62
     7
 48
0.086768
100
AcDbLine
 10
-82.73486177898345
 20
70.10503711358973
 30
0.0
 11
-85.18902377898342
 21
72.55921511358973
 31
0.0
  0
LINE
  5
D06
330
1F
100
AcDbEntity
  8
0
 62
     7
 48
0.086949
100
AcDbLine
 10
-79.95361177898344
 20
70.15220211358975
 30
0.0
 11
-82.41290077898344
 21
72.61150611358977
 31
0.0
  0
LINE
  5
D07
330
1F
100
AcDbEntity
  8
0
 62
     7
 48
0.087098
100
AcDbLine
 10
-77.16741777898341
 20
70.19442311358975
 30
0.0
 11
-79.63091877898347
 21
72.65793911358975
 31
0.0
  0
LINE
  5
D08
330
1F
100
AcDbEntity
  8
0
 62
     7
 48
0.087247
100
AcDbLine
 10
-74.3762187789834
 20
70.23163911358975
 30
0.0
 11
-76.8439317789834
 21
72.69938211358976
 31
0.0
  0
LINE
  5
D09
330
1F
100
AcDbEntity
  8
0
 62
     7
 48
0.087398
100
AcDbLine
 10
-71.57995477898345
 20
70.26385011358977
 30
0.0
 11
-74.05193877898347
 21
72.73583511358973
 31
0.0
  0
LINE
  5
D0A
330
1F
100
AcDbEntity
  8
0
 62
     7
 48
0.087551
100
AcDbLine
 10
-68.7786847789834
 20
70.29099611358976
 30
0.0
 11
-71.25500277898339
 21
72.76729911358976
 31
0.0
  0
LINE
  5
D0B
330
1F
100
AcDbEntity
  8
0
 62
     7
 48
0.087703
100
AcDbLine
 10
-65.97234977898343
 20
70.31306011358975
 30
0.0
 11
-68.45293977898342
 21
72.79369611358976
 31
0.0
  0
LINE
  5
D0C
330
1F
100
AcDbEntity
  8
0
 62
     7
 48
0.087873
100
AcDbLine
 10
-63.16045977898347
 20
70.32960011358975
 30
0.0
 11
-65.64587277898346
 21
72.81502811358976
 31
0.0
  0
LINE
  5
D0D
330
1F
100
AcDbEntity
  8
0
 62
     7
 48
0.069743
100
AcDbLine
 10
-60.8667587789834
 20
70.86436011358975
 30
0.0
 11
-62.83941477898344
 21
72.83697011358976
 31
0.0
  0
LINE
  5
D0E
330
1F
100
AcDbEntity
  8
0
 62
     7
 48
0.063787
100
AcDbLine
 10
-59.35497877898348
 20
72.18101011358974
 30
0.0
 11
-61.1591777789834
 21
73.98516411358976
 31
0.0
  0
LINE
  5
D0F
330
1F
100
AcDbEntity
  8
0
 62
     7
 48
0.064071
100
AcDbLine
 10
-58.25182977898345
 20
73.90627611358977
 30
0.0
 11
-60.06402377898343
 21
75.71848611358973
 31
0.0
  0
LINE
  5
D10
330
1F
100
AcDbEntity
  8
0
 62
     7
 48
0.064071
100
AcDbLine
 10
-57.15673677898343
 20
75.63961311358973
 30
0.0
 11
-58.9689317789834
 21
77.45182311358977
 31
0.0
  0
LINE
  5
D11
330
1F
100
AcDbEntity
  8
0
 62
     7
 48
0.193941
100
AcDbLine
 10
-49.04522577898347
 20
70.35650211358976
 30
0.0
 11
-54.53069877898343
 21
75.84200611358976
 31
0.0
  0
LINE
  5
D12
330
1F
100
AcDbEntity
  8
0
 62
     7
 48
0.063302
100
AcDbLine
 10
-55.99273477898345
 20
77.30405711358975
 30
0.0
 11
-57.78320177898336
 21
79.09449311358975
 31
0.0
  0
LINE
  5
D13
330
1F
100
AcDbEntity
  8
0
 62
     7
 48
0.089044
100
AcDbLine
 10
-46.17681677898342
 20
70.31653911358976
 30
0.0
 11
-48.69537177898343
 21
72.83507811358976
 31
0.0
  0
LINE
  5
D14
330
1F
100
AcDbEntity
  8
0
 62
     7
 48
0.153931
100
AcDbLine
 10
-51.35265977898342
 20
75.49239611358976
 30
0.0
 11
-55.70648077898346
 21
79.84623211358976
 31
0.0
  0
LINE
  5
D15
330
1F
100
AcDbEntity
  8
0
 62
     7
 48
0.089062
100
AcDbLine
 10
-43.3272687789834
 20
70.29539011358974
 30
0.0
 11
-45.84631177898353
 21
72.81447911358975
 31
0.0
  0
LINE
  5
D16
330
1F
100
AcDbEntity
  8
0
 62
     7
 48
0.089228
100
AcDbLine
 10
-40.47228877898345
 20
70.26887011358974
 30
0.0
 11
-42.99603077898342
 21
72.79261311358974
 31
0.0
  0
LINE
  5
D17
330
1F
100
AcDbEntity
  8
0
 62
     7
 48
0.089398
100
AcDbLine
 10
-37.61193677898353
 20
70.23693411358974
 30
0.0
 11
-40.14050177898337
 21
72.76548311358976
 31
0.0
  0
LINE
  5
D18
330
1F
100
AcDbEntity
  8
0
 62
     7
 48
0.089573
100
AcDbLine
 10
-34.74615277898346
 20
70.19955011358978
 30
0.0
 11
-37.27966177898344
 21
72.73305811358977
 31
0.0
  0
LINE
  5
D19
330
1F
100
AcDbEntity
  8
0
 62
     7
 48
0.089754
100
AcDbLine
 10
-31.87481477898342
 20
70.15668811358975
 30
0.0
 11
-34.41345077898342
 21
72.69530811358976
 31
0.0
  0
LINE
  5
D1A
330
1F
100
AcDbEntity
  8
0
 62
     7
 48
0.089938
100
AcDbLine
 10
-28.99798377898349
 20
70.10830211358975
 30
0.0
 11
-31.54180777898347
 21
72.65212511358976
 31
0.0
  0
LINE
  5
D1B
330
1F
100
AcDbEntity
  8
0
 62
     7
 48
0.090099
100
AcDbLine
 10
-26.11523277898351
 20
70.05396611358975
 30
0.0
 11
-28.66363377898341
 21
72.60233611358976
 31
0.0
  0
LINE
  5
D1C
330
1F
100
AcDbEntity
  8
0
 62
     7
 48
0.090279
100
AcDbLine
 10
-23.22649977898351
 20
69.99364811358976
 30
0.0
 11
-25.77996677898346
 21
72.54711411358973
 31
0.0
  0
LINE
  5
D1D
330
1F
100
AcDbEntity
  8
0
 62
     7
 48
0.090464
100
AcDbLine
 10
-20.33215177898347
 20
69.92769911358975
 30
0.0
 11
-22.89086777898348
 21
72.48641511358973
 31
0.0
  0
LINE
  5
D1E
330
1F
100
AcDbEntity
  8
0
 62
     7
 48
0.090656
100
AcDbLine
 10
-17.43206577898337
 20
69.85609011358974
 30
0.0
 11
-19.99621377898342
 21
72.42019211358973
 31
0.0
  0
LINE
  5
D1F
330
1F
100
AcDbEntity
  8
0
 62
     7
 48
0.090851
100
AcDbLine
 10
-14.52636577898337
 20
69.77877311358975
 30
0.0
 11
-17.09600677898339
 21
72.34841411358974
 31
0.0
  0
LINE
  5
D20
330
1F
100
AcDbEntity
  8
0
 62
     7
 48
0.091051
100
AcDbLine
 10
-11.61486677898344
 20
69.69572011358974
 30
0.0
 11
-14.19018377898348
 21
72.27102211358976
 31
0.0
  0
LINE
  5
D21
330
1F
100
AcDbEntity
  8
0
 62
     7
 48
0.091237
100
AcDbLine
 10
-8.69762977898344
 20
69.60688311358976
 30
0.0
 11
-11.27819677898353
 21
72.18746511358975
 31
0.0
  0
LINE
  5
D22
330
1F
100
AcDbEntity
  8
0
 62
     7
 48
0.090574
100
AcDbLine
 10
-5.798093778983427
 20
69.53580811358975
 30
0.0
 11
-8.359922778983417
 21
72.09760611358976
 31
0.0
  0
LINE
  5
D23
330
1F
100
AcDbEntity
  8
0
 62
     7
 48
0.079901
100
AcDbLine
 10
-2.972654778983468
 20
69.53881411358975
 30
0.0
 11
-5.232603778983472
 21
71.79873211358975
 31
0.0
  0
LINE
  5
D24
330
1F
100
AcDbEntity
  8
0
 62
     7
 48
0.079901
100
AcDbLine
 10
-0.068174778983547
 20
69.46274911358975
 30
0.0
 11
-2.328123778983437
 21
71.72268211358977
 31
0.0
  0
LINE
  5
D25
330
1F
100
AcDbEntity
  8
0
 62
     7
 48
0.079901
100
AcDbLine
 10
2.836305221016601
 20
69.38669911358974
 30
0.0
 11
0.5763562210165958
 21
71.64663211358976
 31
0.0
  0
LINE
  5
D26
330
1F
100
AcDbEntity
  8
0
 62
     7
 48
0.079901
100
AcDbLine
 10
5.740785221016522
 20
69.31063411358974
 30
0.0
 11
3.480836221016517
 21
71.57056711358976
 31
0.0
  0
LINE
  5
D27
330
1F
100
AcDbEntity
  8
0
 62
     7
 48
0.079901
100
AcDbLine
 10
8.645265221016556
 20
69.2345841135897
 30
0.0
 11
6.385316221016552
 21
71.49451711358975
 31
0.0
  0
LINE
  5
D28
330
1F
100
AcDbEntity
  8
0
 62
     7
 48
0.079901
100
AcDbLine
 10
11.54974522101648
 20
69.15851911358974
 30
0.0
 11
9.289796221016471
 21
71.41845211358975
 31
0.0
  0
LINE
  5
D29
330
1F
100
AcDbEntity
  8
0
 62
     7
 48
0.079901
100
AcDbLine
 10
14.45422522101651
 20
69.08246911358975
 30
0.0
 11
12.19427622101662
 21
71.34240211358977
 31
0.0
  0
LINE
  5
D2A
330
1F
100
AcDbEntity
  8
0
 62
     7
 48
0.079901
100
AcDbLine
 10
17.35870522101655
 20
69.00640411358975
 30
0.0
 11
15.09875622101654
 21
71.26633711358974
 31
0.0
  0
LINE
  5
D2B
330
1F
100
AcDbEntity
  8
0
 62
     7
 48
0.079901
100
AcDbLine
 10
20.26318522101659
 20
68.93035411358977
 30
0.0
 11
18.00323622101658
 21
71.19028811358976
 31
0.0
  0
LINE
  5
D2C
330
1F
100
AcDbEntity
  8
0
 62
     7
 48
0.079901
100
AcDbLine
 10
23.16766522101652
 20
68.85430411358974
 30
0.0
 11
20.9077162210165
 21
71.11422311358976
 31
0.0
  0
LINE
  5
D2D
330
1F
100
AcDbEntity
  8
0
 62
     7
 48
0.0799
100
AcDbLine
 10
26.07214522101654
 20
68.77823911358972
 30
0.0
 11
23.8122572210165
 21
71.03817311358975
 31
0.0
  0
LINE
  5
D2E
330
1F
100
AcDbEntity
  8
0
 62
     7
 48
0.0799
100
AcDbLine
 10
28.97662522101646
 20
68.70218911358975
 30
0.0
 11
26.71673722101653
 21
70.96212311358977
 31
0.0
  0
LINE
  5
D2F
330
1F
100
AcDbEntity
  8
0
 62
     7
 48
0.0799
100
AcDbLine
 10
31.88110522101661
 20
68.62612411358975
 30
0.0
 11
29.62121722101645
 21
70.88605811358977
 31
0.0
  0
LINE
  5
D30
330
1F
100
AcDbEntity
  8
0
 62
     7
 48
0.079901
100
AcDbLine
 10
34.78564622101649
 20
68.55007511358977
 30
0.0
 11
32.5256972210166
 21
70.81000811358975
 31
0.0
  0
LINE
  5
D31
330
1F
100
AcDbEntity
  8
0
 62
     7
 48
0.0799
100
AcDbLine
 10
37.69006522101657
 20
68.47401011358974
 30
0.0
 11
35.43017722101652
 21
70.73394311358976
 31
0.0
  0
LINE
  5
D32
330
1F
100
AcDbEntity
  8
0
 62
     7
 48
0.079901
100
AcDbLine
 10
40.59460622101656
 20
68.39796011358972
 30
0.0
 11
38.33465722101657
 21
70.65789311358975
 31
0.0
  0
LINE
  5
D33
330
1F
100
AcDbEntity
  8
0
 62
     7
 48
0.079901
100
AcDbLine
 10
43.49908622101646
 20
68.32189511358976
 30
0.0
 11
41.23913722101645
 21
70.58182811358975
 31
0.0
  0
LINE
  5
D34
330
1F
100
AcDbEntity
  8
0
 62
     7
 48
0.079901
100
AcDbLine
 10
46.40356622101651
 20
68.24584511358975
 30
0.0
 11
44.14361722101651
 21
70.50577811358976
 31
0.0
  0
LINE
  5
D35
330
1F
100
AcDbEntity
  8
0
 62
     7
 48
0.079901
100
AcDbLine
 10
49.30804622101655
 20
68.16979511358974
 30
0.0
 11
47.04809722101654
 21
70.42971311358974
 31
0.0
  0
LINE
  5
D36
330
1F
100
AcDbEntity
  8
0
 62
     7
 48
0.079901
100
AcDbLine
 10
52.21252622101658
 20
68.09373011358977
 30
0.0
 11
49.95257722101658
 21
70.35366311358973
 31
0.0
  0
LINE
  5
D37
330
1F
100
AcDbEntity
  8
0
 62
     7
 48
0.079901
100
AcDbLine
 10
55.11700622101651
 20
68.01768011358975
 30
0.0
 11
52.8570572210165
 21
70.27761411358975
 31
0.0
  0
LINE
  5
D38
330
1F
100
AcDbEntity
  8
0
 62
     7
 48
0.053129
100
AcDbLine
 10
57.26428422101654
 20
68.69884811358975
 30
0.0
 11
55.76153722101654
 21
70.20154911358975
 31
0.0
  0
DIMENSION
  5
F6B
102
{ACAD_XDICTIONARY
360
F78
102
}
102
{ACAD_REACTORS
330
F79
102
}
330
1F
100
AcDbEntity
  8
0
 62
     3
100
AcDbDimension
  2
*D5
 10
-215.8120368503545
 20
70.73189811358975
 30
0.0
 11
-222.8120368503545
 21
111.3481808638911
 31
0.0
 70
    32
  1
82
 71
     5
 42
81.23256550060283
  3
ISO-25$0
100
AcDbAlignedDimension
 13
-120.288238045851
 23
151.9644636141926
 33
0.0
 14
-165.3861067789834
 24
70.73189811358975
 34
0.0
 50
90.00000000000003
100
AcDbRotatedDimension
1001
ACAD
1000
DSTYLE
1002
{
1070
   178
1070
     2
1070
    41
1040
10.0
1070
   140
1040
10.0
1070
   147
1040
2.0
1002
}
  0
DIMENSION
  5
FCE
102
{ACAD_XDICTIONARY
360
FDB
102
}
102
{ACAD_REACTORS
330
FDC
102
}
330
1F
100
AcDbEntity
  8
0
 62
     3
100
AcDbDimension
  2
*D6
 10
113.7668962019391
 20
66.48186584181307
 30
0.0
 11
107.4237193815992
 21
91.6565452885692
 31
0.0
 70
    32
  1
DN50
 71
     5
 42
50.00001509683858
  3
ISO-25$0
100
AcDbAlignedDimension
 13
56.60785122101654
 23
117.9957841135897
 33
0.0
 14
55.29895222101655
 24
68.01290411358976
 34
0.0
 50
88.49999875006531
100
AcDbRotatedDimension
1001
ACAD
1000
DSTYLE
1002
{
1070
   178
1070
     2
1070
    41
1040
10.0
1070
   140
1040
10.0
1070
   147
1040
2.0
1002
}
  0
LINE
  5
1071
330
1F
100
AcDbEntity
  8
0
100
AcDbLine
 10
-120.2838727789834
 20
151.9645341135896
 30
0.0
 11
7.086671221016528
 21
151.9645341135896
 31
0.0
  0
ENDSEC
  0
SECTION
  2
OBJECTS
  0
DICTIONARY
  5
C
330
0
100
AcDbDictionary
281
     1
  3
ACAD_COLOR
350
6B
  3
ACAD_GROUP
350
D
  3
ACAD_LAYOUT
350
1A
  3
ACAD_MATERIAL
350
6A
  3
ACAD_MLINESTYLE
350
17
  3
ACAD_PLOTSETTINGS
350
19
  3
ACAD_PLOTSTYLENAME
350
E
  3
ACAD_TABLESTYLE
350
E13
  3
ACDBHEADERROUNDTRIPXREC
350
10D3
  3
AcDbVariableDictionary
350
5E
  3
AcmDictionary
350
E71
  3
AMG
350
E17
  3
AMGSNAPSETTINGS
350
EBB
  3
DWGPROPS
350
10D2
  0
DICTIONARY
  5
F78
330
F6B
100
AcDbDictionary
280
     1
281
     1
  3
ACAD_DIMASSOC
360
F79
  0
DICTIONARY
  5
FDB
330
FCE
100
AcDbDictionary
280
     1
281
     1
  3
ACAD_DIMASSOC
360
FDC
  0
DICTIONARY
  5
6B
102
{ACAD_REACTORS
330
C
102
}
330
C
100
AcDbDictionary
281
     1
  0
DICTIONARY
  5
D
102
{ACAD_REACTORS
330
C
102
}
330
C
100
AcDbDictionary
281
     1
  0
DICTIONARY
  5
1A
102
{ACAD_REACTORS
330
C
102
}
330
C
100
AcDbDictionary
281
     1
  3
Layout1
350
51
  3
Layout2
350
56
  3
Model
350
22
  0
DICTIONARY
  5
6A
102
{ACAD_REACTORS
330
C
102
}
330
C
100
AcDbDictionary
281
     1
  0
DICTIONARY
  5
17
102
{ACAD_REACTORS
330
C
102
}
330
C
100
AcDbDictionary
281
     1
  3
Standard
350
18
  0
DICTIONARY
  5
19
102
{ACAD_REACTORS
330
C
102
}
330
C
100
AcDbDictionary
281
     1
  0
ACDBDICTIONARYWDFLT
  5
E
102
{ACAD_REACTORS
330
C
102
}
330
C
100
AcDbDictionary
281
     1
  3
Normal
350
F
100
AcDbDictionaryWithDefault
340
F
  0
DICTIONARY
  5
E13
102
{ACAD_REACTORS
330
C
102
}
330
C
100
AcDbDictionary
281
     1
  3
Standard
350
E14
  0
DICTIONARY
  5
10D3
102
{ACAD_REACTORS
330
C
102
}
330
C
100
AcDbDictionary
281
     1
  0
DICTIONARY
  5
5E
102
{ACAD_REACTORS
330
C
102
}
330
C
100
AcDbDictionary
281
     1
  3
CTABLESTYLE
350
103D
  3
DIMASSOC
350
5F
  3
HIDETEXT
350
63
  3
PROJECTNAME
350
DF6
  0
DICTIONARY
  5
E71
102
{ACAD_REACTORS
330
C
102
}
330
C
100
AcDbDictionary
281
     1
  3
AcmStdDictionary
350
E7E
  3
AMDTSECTSYM_ARROWCOLOR
350
EA1
  0
DICTIONARY
  5
E17
102
{ACAD_REACTORS
330
C
102
}
330
C
100
AcDbDictionary
281
     1
  0
DICTIONARY
  5
EBB
102
{ACAD_REACTORS
330
C
102
}
330
C
100
AcDbDictionary
281
     1
  0
XRECORD
  5
10D2
102
{ACAD_REACTORS
330
C
102
}
330
C
100
AcDbXrecord
280
     1
  1
DWGPROPS COOKIE
  2

  3

  4

  6

  7

  8

  9

300
=
301
=
302
=
303
=
304
=
305
=
306
=
307
=
308
=
309
=
 40
0.036777962962963
 41
2453588.452307049
 42
2454043.817431343
  1

 90
        0
  0
DIMASSOC
  5
F79
102
{ACAD_REACTORS
330
F78
102
}
330
F78
100
AcDbDimAssoc
330
F6B
 90
        3
 70
     0
 71
     0
  1
AcDbOsnapPointRef
 72
    13
331
B84
 73
     0
 91
        0
 40
0.0
 10
0.0
 20
0.0
 30
2.000000000000000E+50
 75
     0
  1
AcDbOsnapPointRef
 72
    13
331
CE7
 73
     0
 91
        0
 40
0.0
 10
0.0
 20
0.0
 30
2.000000000000000E+50
 75
     0
  0
DIMASSOC
  5
FDC
102
{ACAD_REACTORS
330
FDB
102
}
330
FDB
100
AcDbDimAssoc
330
FCE
 90
        3
 70
     0
 71
     1
  1
AcDbOsnapPointRef
 72
     1
331
921
 73
     0
 91
        0
 40
0.0
 10
0.0
 20
0.0
 30
2.000000000000000E+50
 75
     0
  1
AcDbOsnapPointRef
 72
     1
331
922
 73
     0
 91
        0
 40
0.0
 10
0.0
 20
0.0
 30
2.000000000000000E+50
 75
     0
  0
LAYOUT
  5
51
102
{ACAD_XDICTIONARY
360
10D6
102
}
102
{ACAD_REACTORS
330
1A
102
}
330
1A
100
AcDbPlotSettings
  1

  2
None
  4

  6

 40
0.0
 41
0.0
 42
0.0
 43
0.0
 44
0.0
 45
0.0
 46
0.0
 47
0.0
 48
0.0
 49
0.0
140
0.0
141
0.0
142
1.0
143
1.0
 70
   688
 72
     0
 73
     0
 74
     5
  7

 75
    16
147
1.0
148
0.0
149
0.0
100
AcDbLayout
  1
Layout1
 70
     1
 71
     1
 10
0.0
 20
0.0
 11
12.0
 21
9.0
 12
0.0
 22
0.0
 32
0.0
 14
0.0
 24
0.0
 34
0.0
 15
0.0
 25
0.0
 35
0.0
146
0.0
 13
0.0
 23
0.0
 33
0.0
 16
1.0
 26
0.0
 36
0.0
 17
0.0
 27
1.0
 37
0.0
 76
     0
330
50
  0
LAYOUT
  5
56
102
{ACAD_XDICTIONARY
360
10D8
102
}
102
{ACAD_REACTORS
330
1A
102
}
330
1A
100
AcDbPlotSettings
  1

  2
None
  4

  6

 40
0.0
 41
0.0
 42
0.0
 43
0.0
 44
0.0
 45
0.0
 46
0.0
 47
0.0
 48
0.0
 49
0.0
140
0.0
141
0.0
142
1.0
143
1.0
 70
   688
 72
     0
 73
     0
 74
     5
  7

 75
    16
147
1.0
148
0.0
149
0.0
100
AcDbLayout
  1
Layout2
 70
     1
 71
     2
 10
0.0
 20
0.0
 11
12.0
 21
9.0
 12
0.0
 22
0.0
 32
0.0
 14
0.0
 24
0.0
 34
0.0
 15
0.0
 25
0.0
 35
0.0
146
0.0
 13
0.0
 23
0.0
 33
0.0
 16
1.0
 26
0.0
 36
0.0
 17
0.0
 27
1.0
 37
0.0
 76
     0
330
55
  0
LAYOUT
  5
22
102
{ACAD_XDICTIONARY
360
10D4
102
}
102
{ACAD_REACTORS
330
1A
102
}
330
1A
100
AcDbPlotSettings
  1

  2
none_device
  4
ANSI_A_(8.50_x_11.00_Inches)
  6

 40
6.349999904632567
 41
19.04999923706055
 42
6.350006103515625
 43
19.04998779296875
 44
215.8999938964844
 45
279.3999938964844
 46
0.0
 47
0.0
 48
0.0
 49
0.0
140
0.0
141
0.0
142
1.0
143
78.436453180766
 70
 11952
 72
     0
 73
     1
 74
     0
  7

 75
     0
147
0.0127491741332998
148
0.0
149
0.0
100
AcDbLayout
  1
Model
 70
     1
 71
     0
 10
0.0
 20
0.0
 11
12.0
 21
9.0
 12
0.0
 22
0.0
 32
0.0
 14
0.0
 24
0.0
 34
0.0
 15
0.0
 25
0.0
 35
0.0
146
0.0
 13
0.0
 23
0.0
 33
0.0
 16
1.0
 26
0.0
 36
0.0
 17
0.0
 27
1.0
 37
0.0
 76
     0
330
1F
  0
MLINESTYLE
  5
18
102
{ACAD_REACTORS
330
17
102
}
330
17
100
AcDbMlineStyle
  2
STANDARD
 70
     0
  3

 62
   256
 51
90.0
 52
90.0
 71
     2
 49
0.5
 62
   256
  6
BYLAYER
 49
-0.5
 62
   256
  6
BYLAYER
  0
ACDBPLACEHOLDER
  5
F
102
{ACAD_REACTORS
330
E
102
}
330
E
  0
TABLESTYLE
  5
E14
102
{ACAD_REACTORS
330
E13
102
}
330
E13
100
AcDbTableStyle
  3
Standard
 70
     0
 71
     0
 40
1.5
 41
1.5
280
     0
281
     0
  7
Standard
140
4.5
170
     2
 62
     0
 63
     7
283
     0
274
    -2
284
     1
 64
     0
275
    -2
285
     1
 65
     0
276
    -2
286
     1
 66
     0
277
    -2
287
     1
 67
     0
278
    -2
288
     1
 68
     0
279
    -2
289
     1
 69
     0
  7
Standard
140
6.0
170
     5
 62
     0
 63
     7
283
     0
274
    -2
284
     1
 64
     0
275
    -2
285
     1
 65
     0
276
    -2
286
     1
 66
     0
277
    -2
287
     1
 67
     0
278
    -2
288
     1
 68
     0
279
    -2
289
     1
 69
     0
  7
Standard
140
4.5
170
     5
 62
     0
 63
     7
283
     0
274
    -2
284
     1
 64
     0
275
    -2
285
     1
 65
     0
276
    -2
286
     1
 66
     0
277
    -2
287
     1
 67
     0
278
    -2
288
     1
 68
     0
279
    -2
289
     1
 69
     0
  0
DICTIONARYVAR
  5
103D
102
{ACAD_REACTORS
330
5E
102
}
330
5E
100
DictionaryVariables
280
     0
  1
STANDARD
  0
DICTIONARYVAR
  5
5F
102
{ACAD_REACTORS
330
5E
102
}
330
5E
100
DictionaryVariables
280
     0
  1
2
  0
DICTIONARYVAR
  5
63
102
{ACAD_REACTORS
330
5E
102
}
330
5E
100
DictionaryVariables
280
     0
  1
1
  0
DICTIONARYVAR
  5
DF6
102
{ACAD_REACTORS
330
5E
102
}
330
5E
100
DictionaryVariables
280
     0
  1

  0
DICTIONARY
  5
E7E
102
{ACAD_REACTORS
330
E71
102
}
330
E71
100
AcDbDictionary
281
     1
  0
XRECORD
  5
EA1
102
{ACAD_REACTORS
330
E71
102
}
330
E71
100
AcDbXrecord
280
     1
 90
-1023410169
  0
DICTIONARY
  5
10D6
330
51
100
AcDbDictionary
280
     1
281
     1
  3
ACAD_XREC_ROUNDTRIP
360
10D7
  0
DICTIONARY
  5
10D8
330
56
100
AcDbDictionary
280
     1
281
     1
  3
ACAD_XREC_ROUNDTRIP
360
10D9
  0
DICTIONARY
  5
10D4
330
22
100
AcDbDictionary
280
     1
281
     1
  3
ACAD_XREC_ROUNDTRIP
360
10D5
  0
XRECORD
  5
10D7
102
{ACAD_REACTORS
330
10D6
102
}
330
10D6
100
AcDbXrecord
280
     1
102
SHADEPLOT
 70
     0
102
SHADEPLOTRESLEVEL
 70
     2
102
SHADEPLOTCUSTOMDPI
 70
   300
  0
XRECORD
  5
10D9
102
{ACAD_REACTORS
330
10D8
102
}
330
10D8
100
AcDbXrecord
280
     1
102
SHADEPLOT
 70
     0
102
SHADEPLOTRESLEVEL
 70
     2
102
SHADEPLOTCUSTOMDPI
 70
   300
  0
XRECORD
  5
10D5
102
{ACAD_REACTORS
330
10D4
102
}
330
10D4
100
AcDbXrecord
280
     1
102
SHADEPLOT
 70
     0
102
SHADEPLOTRESLEVEL
 70
     2
102
SHADEPLOTCUSTOMDPI
 70
   300
  0
ENDSEC
  0
EOF
