  0
SECTION
  2
HEADER
  9
$ACADVER
  1
AC1015
  9
$ACADMAINTVER
 70
    20
  9
$DWGCODEPAGE
  3
ANSI_1252
  9
$INSBASE
 10
0.0
 20
0.0
 30
0.0
  9
$EXTMIN
 10
-170.6713935623999
 20
98.09444947790002
 30
0.0
  9
$EXTMAX
 10
435.0929317268
 20
253.2549251557
 30
0.0
  9
$LIMMIN
 10
0.0
 20
0.0
  9
$LIMMAX
 10
420.0
 20
297.0
  9
$ORTHOMODE
 70
     0
  9
$REGENMODE
 70
     1
  9
$FILLMODE
 70
     1
  9
$QTEXTMODE
 70
     0
  9
$MIRRTEXT
 70
     0
  9
$LTSCALE
 40
23.1
  9
$ATTMODE
 70
     1
  9
$TEXTSIZE
 40
0.2
  9
$TRACEWID
 40
0.05
  9
$TEXTSTYLE
  7
STANDARD
  9
$CLAYER
  8
0
  9
$CELTYPE
  6
BYLAYER
  9
$CECOLOR
 62
   256
  9
$CELTSCALE
 40
1.0
  9
$DISPSILH
 70
     0
  9
$DIMSCALE
 40
1.0
  9
$DIMASZ
 40
3.5
  9
$DIMEXO
 40
1.5
  9
$DIMDLI
 40
15.96
  9
$DIMRND
 40
0.0
  9
$DIMDLE
 40
0.0
  9
$DIMEXE
 40
1.5
  9
$DIMTP
 40
0.005
  9
$DIMTM
 40
0.005
  9
$DIMTXT
 40
3.5
  9
$DIMCEN
 40
3.779999999999998
  9
$DIMTSZ
 40
0.0
  9
$DIMTOL
 70
     1
  9
$DIMLIM
 70
     0
  9
$DIMTIH
 70
     1
  9
$DIMTOH
 70
     1
  9
$DIMSE1
 70
     0
  9
$DIMSE2
 70
     0
  9
$DIMTAD
 70
     0
  9
$DIMZIN
 70
     0
  9
$DIMBLK
  1
_FILLED
  9
$DIMASO
 70
     1
  9
$DIMSHO
 70
     1
  9
$DIMPOST
  1

  9
$DIMAPOST
  1

  9
$DIMALT
 70
     0
  9
$DIMALTD
 70
     2
  9
$DIMALTF
 40
25.4
  9
$DIMLFAC
 40
1.0
  9
$DIMTOFL
 70
     0
  9
$DIMTVP
 40
0.0
  9
$DIMTIX
 70
     0
  9
$DIMSOXD
 70
     0
  9
$DIMSAH
 70
     0
  9
$DIMBLK1
  1

  9
$DIMBLK2
  1

  9
$DIMSTYLE
  2
STANDARD
  9
$DIMCLRD
 70
     0
  9
$DIMCLRE
 70
     0
  9
$DIMCLRT
 70
     0
  9
$DIMTFAC
 40
1.0
  9
$DIMGAP
 40
0.625
  9
$DIMJUST
 70
     0
  9
$DIMSD1
 70
     0
  9
$DIMSD2
 70
     0
  9
$DIMTOLJ
 70
     1
  9
$DIMTZIN
 70
     0
  9
$DIMALTZ
 70
     0
  9
$DIMALTTZ
 70
     0
  9
$DIMUPT
 70
     0
  9
$DIMDEC
 70
     4
  9
$DIMTDEC
 70
     4
  9
$DIMALTU
 70
     2
  9
$DIMALTTD
 70
     2
  9
$DIMTXSTY
  7
STANDARD
  9
$DIMAUNIT
 70
     0
  9
$DIMADEC
 70
     0
  9
$DIMALTRND
 40
0.0
  9
$DIMAZIN
 70
     0
  9
$DIMDSEP
 70
    46
  9
$DIMATFIT
 70
     3
  9
$DIMFRAC
 70
     0
  9
$DIMLDRBLK
  1

  9
$DIMLUNIT
 70
     2
  9
$DIMLWD
 70
    -2
  9
$DIMLWE
 70
    -2
  9
$DIMTMOVE
 70
     0
  9
$LUNITS
 70
     2
  9
$LUPREC
 70
     2
  9
$SKETCHINC
 40
0.1
  9
$FILLETRAD
 40
0.0
  9
$AUNITS
 70
     0
  9
$AUPREC
 70
     0
  9
$MENU
  1
.
  9
$ELEVATION
 40
0.0
  9
$PELEVATION
 40
0.0
  9
$THICKNESS
 40
0.0
  9
$LIMCHECK
 70
     0
  9
$CHAMFERA
 40
0.0
  9
$CHAMFERB
 40
0.0
  9
$CHAMFERC
 40
0.0
  9
$CHAMFERD
 40
0.0
  9
$SKPOLY
 70
     0
  9
$TDCREATE
 40
2456686.333579583
  9
$TDUCREATE
 40
2456686.291912917
  9
$TDUPDATE
 40
2456686.559060868
  9
$TDUUPDATE
 40
2456686.517394202
  9
$TDINDWG
 40
0.0243032755
  9
$TDUSRTIMER
 40
0.0243032755
  9
$USRTIMER
 70
     1
  9
$ANGBASE
 50
0.0
  9
$ANGDIR
 70
     0
  9
$PDMODE
 70
     3
  9
$PDSIZE
 40
0.3125
  9
$PLINEWID
 40
0.0
  9
$SPLFRAME
 70
     0
  9
$SPLINETYPE
 70
     6
  9
$SPLINESEGS
 70
     8
  9
$HANDSEED
  5
A68
  9
$SURFTAB1
 70
     6
  9
$SURFTAB2
 70
     6
  9
$SURFTYPE
 70
     6
  9
$SURFU
 70
     6
  9
$SURFV
 70
     6
  9
$UCSBASE
  2

  9
$UCSNAME
  2

  9
$UCSORG
 10
0.0
 20
0.0
 30
0.0
  9
$UCSXDIR
 10
1.0
 20
0.0
 30
0.0
  9
$UCSYDIR
 10
0.0
 20
1.0
 30
0.0
  9
$UCSORTHOREF
  2

  9
$UCSORTHOVIEW
 70
     0
  9
$UCSORGTOP
 10
0.0
 20
0.0
 30
0.0
  9
$UCSORGBOTTOM
 10
0.0
 20
0.0
 30
0.0
  9
$UCSORGLEFT
 10
0.0
 20
0.0
 30
0.0
  9
$UCSORGRIGHT
 10
0.0
 20
0.0
 30
0.0
  9
$UCSORGFRONT
 10
0.0
 20
0.0
 30
0.0
  9
$UCSORGBACK
 10
0.0
 20
0.0
 30
0.0
  9
$PUCSBASE
  2

  9
$PUCSNAME
  2

  9
$PUCSORG
 10
0.0
 20
0.0
 30
0.0
  9
$PUCSXDIR
 10
1.0
 20
0.0
 30
0.0
  9
$PUCSYDIR
 10
0.0
 20
1.0
 30
0.0
  9
$PUCSORTHOREF
  2

  9
$PUCSORTHOVIEW
 70
     0
  9
$PUCSORGTOP
 10
0.0
 20
0.0
 30
0.0
  9
$PUCSORGBOTTOM
 10
0.0
 20
0.0
 30
0.0
  9
$PUCSORGLEFT
 10
0.0
 20
0.0
 30
0.0
  9
$PUCSORGRIGHT
 10
0.0
 20
0.0
 30
0.0
  9
$PUCSORGFRONT
 10
0.0
 20
0.0
 30
0.0
  9
$PUCSORGBACK
 10
0.0
 20
0.0
 30
0.0
  9
$USERI1
 70
     0
  9
$USERI2
 70
     0
  9
$USERI3
 70
     0
  9
$USERI4
 70
     0
  9
$USERI5
 70
     0
  9
$USERR1
 40
0.0
  9
$USERR2
 40
0.0
  9
$USERR3
 40
0.0
  9
$USERR4
 40
0.0
  9
$USERR5
 40
0.0
  9
$WORLDVIEW
 70
     1
  9
$SHADEDGE
 70
     3
  9
$SHADEDIF
 70
    70
  9
$TILEMODE
 70
     1
  9
$MAXACTVP
 70
    64
  9
$PINSBASE
 10
0.0
 20
0.0
 30
0.0
  9
$PLIMCHECK
 70
     0
  9
$PEXTMIN
 10
1.000000000000000E+20
 20
1.000000000000000E+20
 30
1.000000000000000E+20
  9
$PEXTMAX
 10
-1.000000000000000E+20
 20
-1.000000000000000E+20
 30
-1.000000000000000E+20
  9
$PLIMMIN
 10
0.0
 20
0.0
  9
$PLIMMAX
 10
12.0
 20
9.0
  9
$UNITMODE
 70
     0
  9
$VISRETAIN
 70
     1
  9
$PLINEGEN
 70
     0
  9
$PSLTSCALE
 70
     1
  9
$TREEDEPTH
 70
  3020
  9
$CMLSTYLE
  2
Standard
  9
$CMLJUST
 70
     0
  9
$CMLSCALE
 40
1.0
  9
$PROXYGRAPHICS
 70
     1
  9
$MEASUREMENT
 70
     1
  9
$CELWEIGHT
370
    -1
  9
$ENDCAPS
280
     0
  9
$JOINSTYLE
280
     0
  9
$LWDISPLAY
290
     0
  9
$INSUNITS
 70
     4
  9
$HYPERLINKBASE
  1

  9
$STYLESHEET
  1

  9
$XEDIT
290
     1
  9
$CEPSNTYPE
380
     0
  9
$PSTYLEMODE
290
     1
  9
$FINGERPRINTGUID
  2
{6353A24C-2858-4C56-8869-1C5C9696D844}
  9
$VERSIONGUID
  2
{4897F323-266C-47B4-BEDC-E6053556C9AF}
  9
$EXTNAMES
290
     1
  9
$PSVPSCALE
 40
0.0
  9
$OLESTARTUP
290
     0
  0
ENDSEC
  0
SECTION
  2
CLASSES
  0
CLASS
  1
ACDBDICTIONARYWDFLT
  2
AcDbDictionaryWithDefault
  3
ObjectDBX Classes
 90
        0
280
     0
281
     0
  0
CLASS
  1
ACDBPLACEHOLDER
  2
AcDbPlaceHolder
  3
ObjectDBX Classes
 90
        0
280
     0
281
     0
  0
CLASS
  1
LAYOUT
  2
AcDbLayout
  3
ObjectDBX Classes
 90
        0
280
     0
281
     0
  0
CLASS
  1
MATERIAL
  2
AcDbMaterial
  3
ObjectDBX Classes
 90
     1153
280
     0
281
     0
  0
CLASS
  1
VISUALSTYLE
  2
AcDbVisualStyle
  3
ObjectDBX Classes
 90
     4095
280
     0
281
     0
  0
CLASS
  1
TABLESTYLE
  2
AcDbTableStyle
  3
ObjectDBX Classes
 90
     4095
280
     0
281
     0
  0
CLASS
  1
SCALE
  2
AcDbScale
  3
ObjectDBX Classes
 90
     1153
280
     0
281
     0
  0
CLASS
  1
MLEADERSTYLE
  2
AcDbMLeaderStyle
  3
ACDB_MLEADERSTYLE_CLASS
 90
     4095
280
     0
281
     0
  0
CLASS
  1
AMGSETTINGSOBJ
  2
AmgSettingsObj
  3
"AcadM|Product Description: AutoCAD Mechanical|Company: Autodesk, Inc."
 90
     1024
280
     0
281
     0
  0
CLASS
  1
ACME_DOCUMENT
  2
AcMeDbDoc
  3
AcMeServices
 90
     1024
280
     0
281
     0
  0
CLASS
  1
ACMESCOPE
  2
AcMeScope
  3
AcMeServices
 90
     1024
280
     0
281
     0
  0
CLASS
  1
ACMECOMMANDHISTORY
  2
AcMeCommandHistory
  3
AcMeServices
 90
     1024
280
     0
281
     0
  0
CLASS
  1
ACIMSYSVARMAN
  2
AcImSysVarManager
  3
AcMeServices
 90
     1024
280
     0
281
     0
  0
CLASS
  1
ACIMINTSYSVAR
  2
AcImIntSysVar
  3
AcMeServices
 90
     1024
280
     0
281
     0
  0
CLASS
  1
ACMEDRAWINGMAN
  2
AcMeDrawingMan
  3
AcMeServices
 90
     1024
280
     0
281
     0
  0
CLASS
  1
ACMEVIEW
  2
AcMeView
  3
AcMeServices
 90
     1024
280
     0
281
     0
  0
CLASS
  1
ACDBENTITYCACHE
  2
AcMeEntityCache
  3
AcMeServices
 90
     1024
280
     0
281
     0
  0
CLASS
  1
ACMESTATEMGR
  2
AcMeStateMgr
  3
AcMeServices
 90
     1024
280
     0
281
     0
  0
CLASS
  1
ACGREFMASTER
  2
AcGrefMaster
  3
AcAttribServices
 90
     1024
280
     0
281
     0
  0
CLASS
  1
AM_DRAWING_MGR
  2
AcDmDwgMgr
  3
AcMechDwgViewMgmt
 90
     1024
280
     0
281
     0
  0
CLASS
  1
AM_DWG_DOCUMENT
  2
AcDmDwgDocument
  3
AcMechDwgViewMgmt
 90
     1024
280
     0
281
     0
  0
CLASS
  1
AM_DWG_SHEET
  2
AcDmSheet
  3
AcMechDwgViewMgmt
 90
     1024
280
     0
281
     0
  0
CLASS
  1
AM_VIEWDIMPARMAP
  2
AcDmViewDimParMap
  3
AcMechDwgViewMgmt
 90
     1024
280
     0
281
     0
  0
CLASS
  1
AMDTINTERNALREACTOR
  2
AmdtInternalReactor
  3
AcMeServices
 90
     1024
280
     0
281
     0
  0
CLASS
  1
ACIMREALSYSVAR
  2
AcImRealSysVar
  3
AcMeServices
 90
     1024
280
     0
281
     0
  0
CLASS
  1
AM_DWGMGR_NAME
  2
AcDmDwgMgrName
  3
AcMechDwgViewMgmt
 90
     1024
280
     0
281
     0
  0
CLASS
  1
ACME_DATABASE
  2
AcMeDbDatabase
  3
AcMeServices
 90
     1024
280
     0
281
     0
  0
CLASS
  1
ACRFINSADJUSTERMGR
  2
AcRfInsAdjusterMgr
  3
AcMeServices
 90
     1024
280
     0
281
     0
  0
CLASS
  1
ACGREFACADMASTER
  2
AcGrefacadMaster
  3
AcGrefServices
 90
     1024
280
     0
281
     0
  0
CLASS
  1
AMDTMENUSTATEMGR
  2
AmdtMenuStateMgr
  3
McadcomServices
 90
     1024
280
     0
281
     0
  0
CLASS
  1
AMDTMCOMMENUSTATE
  2
AmdtMcomMenuState
  3
McadcomServices
 90
     1024
280
     0
281
     0
  0
CLASS
  1
AMIMASTER
  2
AmiMaster
  3
AmiServices
 90
     1024
280
     0
281
     0
  0
CLASS
  1
MAPIAMMOUDLE
  2
MApiAmModule
  3
MApiAmServices
 90
     1024
280
     0
281
     0
  0
CLASS
  1
ACIMSTRSYSVAR
  2
AcImStrSysVar
  3
AcMeServices
 90
     1024
280
     0
281
     0
  0
CLASS
  1
AMDTADMENUSTATE
  2
AmdtAdMenuState
  3
DesignerServices
 90
     1024
280
     0
281
     0
  0
CLASS
  1
ADAPPL
  2
AcAdAppl
  3
DesignerServices
 90
     1024
280
     0
281
     0
  0
CLASS
  1
DEPMGR
  2
AcAdDepMgr
  3
DesignerServices
 90
     1024
280
     0
281
     0
  0
CLASS
  1
PARAMMGR
  2
AcAdParamMgr
  3
DesignerServices
 90
     1024
280
     0
281
     0
  0
CLASS
  1
PARAMSCOPE
  2
AcAdParamScope
  3
DesignerServices
 90
     1024
280
     0
281
     0
  0
CLASS
  1
NAMEDAPPL
  2
AcAdNamedAppl
  3
DesignerServices
 90
     1024
280
     0
281
     0
  0
CLASS
  1
AMDTDMMENUSTATE
  2
AmdtDmMenuState
  3
AcMechDwgViewMgmt
 90
     1024
280
     0
281
     0
  0
CLASS
  1
AMDTAMMENUSTATE
  2
AmdtAmMenuState
  3
DesignerAssemblies
 90
     1024
280
     0
281
     0
  0
CLASS
  1
ACAMPROJECT
  2
AcAmProject
  3
DesignerAssemblies
 90
     1024
280
     0
281
     0
  0
CLASS
  1
ACAMGRCOMPDEF
  2
AcAmGrCompDef
  3
DesignerAssemblies
 90
     1024
280
     0
281
     0
  0
CLASS
  1
ACAMCOMPDEF
  2
AcAmCompDef
  3
DesignerAssemblies
 90
     1024
280
     0
281
     0
  0
CLASS
  1
ACAMCOMPDEFMGR
  2
AcAmCompDefMgr
  3
DesignerAssemblies
 90
     1024
280
     0
281
     0
  0
CLASS
  1
AMCONTEXTMGR
  2
AcAmContextMgr
  3
DesignerAssemblies
 90
     1024
280
     0
281
     0
  0
CLASS
  1
ACAMCONTEXTMODELER
  2
AcAmContextModeler
  3
DesignerAssemblies
 90
     1024
280
     0
281
     0
  0
CLASS
  1
ACMDATADICTIONARY
  2
AcmDataDictionary
  3
"AcmSymBB|Product Description: AutoCAD Mechanical|Company: Autodesk, Inc."
 90
     1024
280
     0
281
     0
  0
CLASS
  1
CATALOGSTATE
  2
AcAmCatalogState
  3
DesignerAssemblies
 90
     1024
280
     0
281
     0
  0
CLASS
  1
ACAMGRCOMPDEFSET
  2
AcAmGrCompDefSet
  3
DesignerAssemblies
 90
     1024
280
     0
281
     0
  0
CLASS
  1
AMDTBROWSERDBTAB
  2
AmdtBrowserDbTab
  3
McadcomServices
 90
     1024
280
     0
281
     0
  0
CLASS
  1
CBROWSERAPPOBJECT
  2
CBrowserAppObject
  3
McadcomServices
 90
     1024
280
     0
281
     0
  0
CLASS
  1
DM_PLACEHOLDER
  2
AcDmSelsetPlaceholder
  3
AcMechDwgViewMgmt
 90
     1024
280
     0
281
     0
  0
CLASS
  1
EXACXREFPANELOBJECT
  2
ExAcXREFPanelObject
  3
EXAC_ESW
 90
     1025
280
     0
281
     0
  0
CLASS
  1
NPOCOLLECTION
  2
AcDbImpNonPersistentObjectsCollection
  3
ObjectDBX Classes
 90
     1153
280
     0
281
     0
  0
CLASS
  1
ACMSTANDARDDIN
  2
AcmStandardDIN
  3
"Amdt_StdImp|Product Description: AutoCAD Mechanical|Company: Autodesk, Inc."
 90
     1024
280
     0
281
     0
  0
CLASS
  1
AMDTEDGESTANDARDDIN13715
  2
AmdtEdgeStdDIN13715
  3
"Amdt_StdImp|Product Description: AutoCAD Mechanical|Company: Autodesk, Inc."
 90
     1024
280
     0
281
     0
  0
CLASS
  1
ACMSURFSTANDARDDIN2002
  2
AcmSurfTextStdDIN2002
  3
"Amdt_StdImp|Product Description: AutoCAD Mechanical|Company: Autodesk, Inc."
 90
     1024
280
     0
281
     0
  0
CLASS
  1
ACMFCFSTANDARDDIN
  2
AcmFCFStdDIN
  3
"Amdt_StdImp|Product Description: AutoCAD Mechanical|Company: Autodesk, Inc."
 90
     1024
280
     0
281
     0
  0
CLASS
  1
ACMWELDSTANDARDDIN
  2
AcmWeldingStdDIN
  3
"Amdt_StdImp|Product Description: AutoCAD Mechanical|Company: Autodesk, Inc."
 90
     1024
280
     0
281
     0
  0
CLASS
  1
ACMIDSTANDARDDIN
  2
AcmIdStdDIN
  3
"Amdt_StdImp|Product Description: AutoCAD Mechanical|Company: Autodesk, Inc."
 90
     1024
280
     0
281
     0
  0
CLASS
  1
ACMDATUMSTANDARDDIN
  2
AcmDatumStdDIN
  3
"Amdt_StdImp|Product Description: AutoCAD Mechanical|Company: Autodesk, Inc."
 90
     1024
280
     0
281
     0
  0
CLASS
  1
ACMBOMSTANDARDDIN
  2
AcmBOMStdDIN
  3
"Amdt_StdImp|Product Description: AutoCAD Mechanical|Company: Autodesk, Inc."
 90
     1024
280
     0
281
     0
  0
CLASS
  1
ACMDETAILSTANDARDDIN
  2
AmdtDetailSymStdDIN
  3
"Amdt_StdImp|Product Description: AutoCAD Mechanical|Company: Autodesk, Inc."
 90
     1024
280
     0
281
     0
  0
CLASS
  1
ACMSECTIONSTANDARDDIN
  2
AmdtSectionSymStdDIN
  3
"Amdt_StdImp|Product Description: AutoCAD Mechanical|Company: Autodesk, Inc."
 90
     1024
280
     0
281
     0
  0
CLASS
  1
ACMCENTERLINESTANDARDDIN
  2
AmdtCenterLineStdDIN
  3
"Amdt_StdImp|Product Description: AutoCAD Mechanical|Company: Autodesk, Inc."
 90
     1024
280
     0
281
     0
  0
CLASS
  1
ACMTHREADLINESTANDARDDIN
  2
AmdtThreadLineStdDIN
  3
"Amdt_StdImp|Product Description: AutoCAD Mechanical|Company: Autodesk, Inc."
 90
     1024
280
     0
281
     0
  0
CLASS
  1
ACMNOTESTANDARDDIN
  2
AmdtNoteStdDIN
  3
"Amdt_StdImp|Product Description: AutoCAD Mechanical|Company: Autodesk, Inc."
 90
     1024
280
     0
281
     0
  0
CLASS
  1
ACMTAPERSTANDARDDIN
  2
AcmTaperStdDIN
  3
"Amdt_StdImp|Product Description: AutoCAD Mechanical|Company: Autodesk, Inc."
 90
     1024
280
     0
281
     0
  0
CLASS
  1
ACMANOOTATIONVIEWSTANDARDDIN
  2
AmdtAnViewStdDIN
  3
"Amdt_StdImp|Product Description: AutoCAD Mechanical|Company: Autodesk, Inc."
 90
     1024
280
     0
281
     0
  0
CLASS
  1
ACAMGLAYSTD
  2
AcAmgLayStd
  3
"AmgLay|Product Description: AutoCAD Mechanical|Company: Autodesk, Inc."
 90
     1024
280
     0
281
     0
  0
CLASS
  1
ACAMGDIMSTD
  2
AcAmgDimStd
  3
"AmgDim|Product Description: AutoCAD Mechanical|Company: Autodesk, Inc."
 90
     1024
280
     0
281
     0
  0
CLASS
  1
AMGOBJPROPCFG
  2
AmgObjPropCfg
  3
"AmgLay|Product Description: AutoCAD Mechanical|Company: Autodesk, Inc."
 90
     1025
280
     0
281
     0
  0
CLASS
  1
ACAMGHOLECHARTSTDDIN
  2
AcAmgHoleChartStdDIN
  3
AmgDim|Product Description: AutoCAD Mechanical|Company: Autodesk, Inc.
 90
     1024
280
     0
281
     0
  0
CLASS
  1
ACAMGTITLESTD
  2
AcAmgTitleStd
  3
"AmgTitle|Product Description: AutoCAD Mechanical|Company: Autodesk, Inc."
 90
     4095
280
     0
281
     0
  0
CLASS
  1
AMDTNOTETEMPLATEDB
  2
AmdtNoteTemplateDB
  3
AcmSymBB|Product Description: AutoCAD Mechanical|Company: Autodesk, Inc.
 90
     1024
280
     0
281
     0
  0
CLASS
  1
CAMSSTRUCTBTNSTATE
  2
StructBtnState
  3
DesignerAssemblies
 90
    33792
280
     0
281
     0
  0
CLASS
  1
DICTIONARYVAR
  2
AcDbDictionaryVar
  3
ObjectDBX Classes
 90
        0
280
     0
281
     0
  0
CLASS
  1
ACAMGFILTERDAT
  2
AcAmgFilterDat
  3
"AcadM|Product Description: AutoCAD Mechanical|Company: Autodesk, Inc."
 90
    33792
280
     0
281
     0
  0
CLASS
  1
CELLSTYLEMAP
  2
AcDbCellStyleMap
  3
ObjectDBX Classes
 90
     1152
280
     0
281
     0
  0
CLASS
  1
DIMASSOC
  2
AcDbDimAssoc
  3
"AcDbDimAssoc|Product Desc:     AcDim ARX App For Dimension|Company:          Autodesk, Inc.|WEB Address:      www.autodesk.com"
 90
    32768
280
     0
281
     0
  0
ENDSEC
  0
SECTION
  2
TABLES
  0
TABLE
  2
VPORT
  5
8
330
0
100
AcDbSymbolTable
 70
     1
  0
VPORT
  5
1F4
330
8
100
AcDbSymbolTableRecord
100
AcDbViewportTableRecord
  2
*ACTIVE
 70
     0
 10
0.0
 20
0.0
 11
1.0
 21
1.0
 12
200.5378365719205
 22
153.8965271985107
 13
0.0
 23
0.0
 14
1.0
 24
1.0
 15
0.0
 25
0.0
 16
0.0
 26
0.0
 36
1.0
 17
0.0
 27
0.0
 37
0.0
 40
613.5064950485549
 41
2.017384105960264
 42
50.0
 43
0.0
 44
0.0
 50
0.0
 51
0.0
 71
     0
 72
   100
 73
     1
 74
     1
 75
     0
 76
     0
 77
     0
 78
     0
281
     0
 65
     0
110
0.0
120
0.0
130
0.0
111
1.0
121
0.0
131
0.0
112
0.0
122
1.0
132
0.0
 79
     0
146
0.0
  0
ENDTAB
  0
TABLE
  2
LTYPE
  5
5
330
0
100
AcDbSymbolTable
 70
    23
  0
LTYPE
  5
14
330
5
100
AcDbSymbolTableRecord
100
AcDbLinetypeTableRecord
  2
BYBLOCK
 70
     0
  3

 72
    65
 73
     0
 40
0.0
  0
LTYPE
  5
15
330
5
100
AcDbSymbolTableRecord
100
AcDbLinetypeTableRecord
  2
BYLAYER
 70
     0
  3

 72
    65
 73
     0
 40
0.0
  0
LTYPE
  5
16
330
5
100
AcDbSymbolTableRecord
100
AcDbLinetypeTableRecord
  2
CONTINUOUS
 70
     0
  3
Solid line
 72
    65
 73
     0
 40
0.0
  0
LTYPE
  5
1F5
330
5
100
AcDbSymbolTableRecord
100
AcDbLinetypeTableRecord
  2
CENTER
 70
     0
  3
____ _ ____ _ ____ _ ____ _ ____ _ ____ _ ____
 72
    65
 73
     4
 40
0.6
 49
0.375
 74
     0
 49
-0.075
 74
     0
 49
0.075
 74
     0
 49
-0.075
 74
     0
  0
LTYPE
  5
1F6
330
5
100
AcDbSymbolTableRecord
100
AcDbLinetypeTableRecord
  2
HIDDEN
 70
     0
  3
- - - - - - - - - - - - - - - - - - - -
 72
    65
 73
     2
 40
0.2
 49
0.1
 74
     0
 49
-0.1
 74
     0
  0
LTYPE
  5
1F7
330
5
100
AcDbSymbolTableRecord
100
AcDbLinetypeTableRecord
  2
PHANTOM
 70
     0
  3
_____ _ _ _____ _ _ _____ _ _ _____
 72
    65
 73
     6
 40
0.8
 49
0.45
 74
     0
 49
-0.05
 74
     0
 49
0.1
 74
     0
 49
-0.05
 74
     0
 49
0.1
 74
     0
 49
-0.05
 74
     0
  0
LTYPE
  5
1F8
330
5
100
AcDbSymbolTableRecord
100
AcDbLinetypeTableRecord
  2
DOT
 70
     0
  3
. . . . . . . . . . . . . . . . . . . .
 72
    65
 73
     2
 40
0.2
 49
0.1
 74
     0
 49
-0.1
 74
     0
  0
LTYPE
  5
1F9
330
5
100
AcDbSymbolTableRecord
100
AcDbLinetypeTableRecord
  2
DASHED
 70
     0
  3
- - - - - - - - - - - - - - - - - - - -
 72
    65
 73
     2
 40
0.2
 49
0.1
 74
     0
 49
-0.1
 74
     0
  0
LTYPE
  5
40B
330
5
100
AcDbSymbolTableRecord
100
AcDbLinetypeTableRecord
  2
PHANTOM2
 70
     0
  3
Phantom (.5x) ___ _ _ ___ _ _ ___ _ _ ___ _ _
 72
    65
 73
     6
 40
31.75
 49
15.875
 74
     0
 49
-3.174999999999998
 74
     0
 49
3.174999999999998
 74
     0
 49
-3.174999999999998
 74
     0
 49
3.174999999999998
 74
     0
 49
-3.174999999999998
 74
     0
  0
LTYPE
  5
453
330
5
100
AcDbSymbolTableRecord
100
AcDbLinetypeTableRecord
  2
AM_ISO02W050
 70
     0
  3
__ __ __ __ __ __ __ __ __ __ __ __ __ __ __
 72
    65
 73
     2
 40
7.5
 49
6.0
 74
     0
 49
-1.5
 74
     0
  0
LTYPE
  5
454
330
5
100
AcDbSymbolTableRecord
100
AcDbLinetypeTableRecord
  2
AM_ISO08W050
 70
     0
  3
____ . ____ . ____ . ____ . ____ . ____ . ____
 72
    65
 73
     4
 40
18.0
 49
12.0
 74
     0
 49
-1.5
 74
     0
 49
3.0
 74
     0
 49
-1.5
 74
     0
  0
LTYPE
  5
455
330
5
100
AcDbSymbolTableRecord
100
AcDbLinetypeTableRecord
  2
AM_ISO09W050
 70
     0
  3
_____ . . _____ . . _____ . . ____ .. ____
 72
    65
 73
     6
 40
22.5
 49
12.0
 74
     0
 49
-1.5
 74
     0
 49
3.0
 74
     0
 49
-1.5
 74
     0
 49
3.0
 74
     0
 49
-1.5
 74
     0
  0
LTYPE
  5
456
330
5
100
AcDbSymbolTableRecord
100
AcDbLinetypeTableRecord
  2
Amconstr
 70
     0
  3
_______________________
 72
    65
 73
     2
 40
9999.0
 49
9999.0
 74
     0
 49
0.0
 74
     0
  0
LTYPE
  5
457
330
5
100
AcDbSymbolTableRecord
100
AcDbLinetypeTableRecord
  2
AM_ISO08W050x2
 70
     0
  3
__ . __ . __ . __ . __ . __
 72
    65
 73
     4
 40
9.0
 49
6.0
 74
     0
 49
-0.75
 74
     0
 49
1.5
 74
     0
 49
-0.75
 74
     0
  0
LTYPE
  5
458
330
5
100
AcDbSymbolTableRecord
100
AcDbLinetypeTableRecord
  2
AM_ISO02W050x2
 70
     0
  3
 _ _ _ _ _ _ _ _ _ _ _ _
 72
    65
 73
     2
 40
3.75
 49
3.0
 74
     0
 49
-0.75
 74
     0
  0
LTYPE
  5
45B
330
5
100
AcDbSymbolTableRecord
100
AcDbLinetypeTableRecord
  2
Amzigzag
 70
     0
  3
/\/-/\/-/\/-/\/-/\/-/\/
 72
    65
 73
     2
 40
11.0001
 49
0.0001
 74
     4
 75
   136
340
45A
 46
0.04
 50
0.0
 44
0.0
 45
0.0
 49
-11.0
 74
     0
  0
LTYPE
  5
45C
330
5
100
AcDbSymbolTableRecord
100
AcDbLinetypeTableRecord
  2
AM_DIN_F_W050
 70
     0
  3
__ __ __ __ __ __ __ __ __ __ __ __ __ __ __
 72
    65
 73
     2
 40
6.25
 49
4.75
 74
     0
 49
-1.5
 74
     0
  0
LTYPE
  5
45D
330
5
100
AcDbSymbolTableRecord
100
AcDbLinetypeTableRecord
  2
AM_DIN_G_W050
 70
     0
  3
____ . ____ . ____ . ____ . ____ . ____ . ____
 72
    65
 73
     4
 40
13.75
 49
9.75
 74
     0
 49
-1.5
 74
     0
 49
1.0
 74
     0
 49
-1.5
 74
     0
  0
LTYPE
  5
45E
330
5
100
AcDbSymbolTableRecord
100
AcDbLinetypeTableRecord
  2
AM_DIN_K_W050
 70
     0
  3
_____ . . _____ . . _____ . . ____ .. ____
 72
    65
 73
     6
 40
16.25
 49
9.75
 74
     0
 49
-1.5
 74
     0
 49
1.0
 74
     0
 49
-1.5
 74
     0
 49
1.0
 74
     0
 49
-1.5
 74
     0
  0
LTYPE
  5
45F
330
5
100
AcDbSymbolTableRecord
100
AcDbLinetypeTableRecord
  2
AM_DIN_G_W050x2
 70
     0
  3
__ . __ . __ . __ . __ . __
 72
    65
 73
     4
 40
6.875
 49
4.75
 74
     0
 49
-0.875
 74
     0
 49
0.375
 74
     0
 49
-0.875
 74
     0
  0
LTYPE
  5
460
330
5
100
AcDbSymbolTableRecord
100
AcDbLinetypeTableRecord
  2
AM_DIN_F_W050x2
 70
     0
  3
 _ _ _ _ _ _ _ _ _ _ _ _
 72
    65
 73
     2
 40
3.125
 49
2.25
 74
     0
 49
-0.875
 74
     0
  0
LTYPE
  5
46F
330
5
100
AcDbSymbolTableRecord
100
AcDbLinetypeTableRecord
  2
ACDINWELD
 70
     0
  3
_ _ _ _ _
 72
    65
 73
     2
 40
2.0
 49
2.0
 74
     0
 49
-1.0
 74
     0
  0
LTYPE
  5
470
330
5
100
AcDbSymbolTableRecord
100
AcDbLinetypeTableRecord
  2
ACDINTGB
 70
     0
  3
__ . . __ . .
 72
    65
 73
     6
 40
9.0
 49
4.0
 74
     0
 49
-1.0
 74
     0
 49
1.0
 74
     0
 49
-1.0
 74
     0
 49
1.0
 74
     0
 49
-1.0
 74
     0
  0
LTYPE
  5
471
330
5
100
AcDbSymbolTableRecord
100
AcDbLinetypeTableRecord
  2
ACDINTGL
 70
     0
  3
_ _ _ _ _
 72
    65
 73
     2
 40
3.0
 49
2.0
 74
     0
 49
-1.0
 74
     0
  0
ENDTAB
  0
TABLE
  2
LAYER
  5
2
102
{ACAD_XDICTIONARY
360
587
102
}
330
0
100
AcDbSymbolTable
 70
    16
  0
LAYER
  5
10
330
2
100
AcDbSymbolTableRecord
100
AcDbLayerTableRecord
  2
0
 70
     0
 62
     7
  6
CONTINUOUS
370
    -3
390
F
  0
LAYER
  5
1FA
330
2
100
AcDbSymbolTableRecord
100
AcDbLayerTableRecord
  2
DEFAULT_1
 70
     0
 62
     7
  6
CENTER
370
    -3
390
F
  0
LAYER
  5
1FB
330
2
100
AcDbSymbolTableRecord
100
AcDbLayerTableRecord
  2
DEFAULT_2
 70
     0
 62
     8
  6
HIDDEN
370
    -3
390
F
  0
LAYER
  5
1FC
330
2
100
AcDbSymbolTableRecord
100
AcDbLayerTableRecord
  2
DEFAULT_3
 70
     0
 62
     7
  6
PHANTOM
370
    -3
390
F
  0
LAYER
  5
1FD
330
2
100
AcDbSymbolTableRecord
100
AcDbLayerTableRecord
  2
BEZUGSACHSEN
 70
     0
 62
     7
  6
CONTINUOUS
370
    -3
390
F
  0
LAYER
  5
1FE
330
2
100
AcDbSymbolTableRecord
100
AcDbLayerTableRecord
  2
BEZUGSEBENEN
 70
     0
 62
     7
  6
CONTINUOUS
370
    -3
390
F
  0
LAYER
  5
1FF
330
2
100
AcDbSymbolTableRecord
100
AcDbLayerTableRecord
  2
BOHRUNGEN
 70
     0
 62
     7
  6
CONTINUOUS
370
    -3
390
F
  0
LAYER
  5
200
330
2
100
AcDbSymbolTableRecord
100
AcDbLayerTableRecord
  2
HILFEN
 70
     0
 62
     7
  6
CONTINUOUS
370
    -3
390
F
  0
LAYER
  5
201
330
2
100
AcDbSymbolTableRecord
100
AcDbLayerTableRecord
  2
PLATZIERUNG
 70
     0
 62
     7
  6
CONTINUOUS
370
    -3
390
F
  0
LAYER
  5
202
330
2
100
AcDbSymbolTableRecord
100
AcDbLayerTableRecord
  2
RUNDUNGEN
 70
     0
 62
     7
  6
CONTINUOUS
370
    -3
390
F
  0
LAYER
  5
203
330
2
100
AcDbSymbolTableRecord
100
AcDbLayerTableRecord
  2
TEIL_STARTBEZUEGE
 70
     0
 62
     7
  6
CONTINUOUS
370
    -3
390
F
  0
LAYER
  5
204
330
2
100
AcDbSymbolTableRecord
100
AcDbLayerTableRecord
  2
ZEICHNUNGSBEMASSUNGEN
 70
     0
 62
     7
  6
CONTINUOUS
370
    -3
390
F
  0
LAYER
  5
47D
330
2
100
AcDbSymbolTableRecord
100
AcDbLayerTableRecord
  2
Defpoints
 70
     0
 62
     7
  6
CONTINUOUS
290
     0
370
    -3
390
F
  0
LAYER
  5
583
102
{ACAD_XDICTIONARY
360
584
102
}
330
2
100
AcDbSymbolTableRecord
100
AcDbLayerTableRecord
  2
P-0000
 70
     0
 62
     7
  6
CONTINUOUS
370
    -3
390
F
  0
LAYER
  5
886
330
2
100
AcDbSymbolTableRecord
100
AcDbLayerTableRecord
  2
AM_5
 70
     0
 62
     3
  6
CONTINUOUS
370
    25
390
F
1001
AcAecLayerStandard
1000

1000

  0
LAYER
  5
A2B
330
2
100
AcDbSymbolTableRecord
100
AcDbLayerTableRecord
  2
AM_CL
 70
     0
 62
     1
  6
Amconstr
370
    25
390
F
1001
AcAecLayerStandard
1000

1000

  0
ENDTAB
  0
TABLE
  2
STYLE
  5
3
330
0
100
AcDbSymbolTable
 70
     6
  0
STYLE
  5
11
330
3
100
AcDbSymbolTableRecord
100
AcDbTextStyleTableRecord
  2
STANDARD
 70
     0
 40
0.0
 41
0.7
 50
0.0
 71
     0
 42
0.2
  3
txt
  4

  0
STYLE
  5
205
330
3
100
AcDbSymbolTableRecord
100
AcDbTextStyleTableRecord
  2
TEXTSTYLE_1
 70
     0
 40
0.0
 41
0.8
 50
0.0
 71
     0
 42
0.2
  3
gdt
  4

  0
STYLE
  5
206
330
3
100
AcDbSymbolTableRecord
100
AcDbTextStyleTableRecord
  2
TEXTSTYLE_2
 70
     0
 40
0.0
 41
0.6
 50
0.0
 71
     0
 42
0.2
  3
txt
  4

  0
STYLE
  5
45A
330
3
100
AcDbSymbolTableRecord
100
AcDbTextStyleTableRecord
  2

 70
     1
 40
0.0
 41
1.0
 50
0.0
 71
     0
 42
0.2
  3
genltshp.shx
  4

  0
STYLE
  5
46D
330
3
100
AcDbSymbolTableRecord
100
AcDbTextStyleTableRecord
  2
ACDINTS
 70
     0
 40
1.0
 41
1.0
 50
0.0
 71
     0
 42
0.2
  3
isocp.shx
  4

  0
STYLE
  5
46E
330
3
100
AcDbSymbolTableRecord
100
AcDbTextStyleTableRecord
  2
ACDINGDT
 70
     0
 40
0.0
 41
1.0
 50
0.0
 71
     0
 42
0.2
  3
amgdt.shx
  4

  0
ENDTAB
  0
TABLE
  2
VIEW
  5
6
330
0
100
AcDbSymbolTable
 70
     0
  0
ENDTAB
  0
TABLE
  2
UCS
  5
7
330
0
100
AcDbSymbolTable
 70
     0
  0
ENDTAB
  0
TABLE
  2
APPID
  5
9
330
0
100
AcDbSymbolTable
 70
    17
  0
APPID
  5
207
330
9
100
AcDbSymbolTableRecord
100
AcDbRegAppTableRecord
  2
ACAD
 70
     0
  0
APPID
  5
3E0
330
9
100
AcDbSymbolTableRecord
100
AcDbRegAppTableRecord
  2
MCAD_NO_VIS
 70
     0
  0
APPID
  5
3E1
330
9
100
AcDbSymbolTableRecord
100
AcDbRegAppTableRecord
  2
ACAD_TEMP_GRAPHIC
 70
     0
  0
APPID
  5
40D
330
9
100
AcDbSymbolTableRecord
100
AcDbRegAppTableRecord
  2
AD_DRAW
 70
     0
  0
APPID
  5
410
330
9
100
AcDbSymbolTableRecord
100
AcDbRegAppTableRecord
  2
ACATTRIBSERVICES
 70
     0
  0
APPID
  5
430
330
9
100
AcDbSymbolTableRecord
100
AcDbRegAppTableRecord
  2
DESIGNERASSEMBLIES
 70
     0
  0
APPID
  5
436
330
9
100
AcDbSymbolTableRecord
100
AcDbRegAppTableRecord
  2
ACADM_DIM_EDIT
 70
     0
  0
APPID
  5
437
330
9
100
AcDbSymbolTableRecord
100
AcDbRegAppTableRecord
  2
AMDT_DM_ADJ
 70
     0
  0
APPID
  5
450
330
9
100
AcDbSymbolTableRecord
100
AcDbRegAppTableRecord
  2
ACAD_DSTYLE_DIMJAG
 70
     0
  0
APPID
  5
451
330
9
100
AcDbSymbolTableRecord
100
AcDbRegAppTableRecord
  2
ACAD_DSTYLE_DIMBREAK
 70
     0
  0
APPID
  5
4E8
330
9
100
AcDbSymbolTableRecord
100
AcDbRegAppTableRecord
  2
ACAD_MLEADERVER
 70
     0
  0
APPID
  5
4E9
330
9
100
AcDbSymbolTableRecord
100
AcDbRegAppTableRecord
  2
ACAD_DSTYLE_DIMJOGGED_JOGANGLE_SYMBOL
 70
     0
  0
APPID
  5
4EA
330
9
100
AcDbSymbolTableRecord
100
AcDbRegAppTableRecord
  2
ACAD_DSTYLE_DIM_LINETYPE
 70
     0
  0
APPID
  5
4EB
330
9
100
AcDbSymbolTableRecord
100
AcDbRegAppTableRecord
  2
ACAD_DSTYLE_DIM_EXT1_LINETYPE
 70
     0
  0
APPID
  5
4EC
330
9
100
AcDbSymbolTableRecord
100
AcDbRegAppTableRecord
  2
ACAD_DSTYLE_DIM_EXT2_LINETYPE
 70
     0
  0
APPID
  5
586
330
9
100
AcDbSymbolTableRecord
100
AcDbRegAppTableRecord
  2
ACAD_DSTYLE_DIMINSPECT
 70
     0
  0
APPID
  5
887
330
9
100
AcDbSymbolTableRecord
100
AcDbRegAppTableRecord
  2
AcAecLayerStandard
 70
     0
  0
ENDTAB
  0
TABLE
  2
DIMSTYLE
  5
A
330
0
100
AcDbSymbolTable
 70
    13
100
AcDbDimStyleTable
 71
     3
340
20F
340
585
340
211
  0
DIMSTYLE
105
20F
330
A
100
AcDbSymbolTableRecord
100
AcDbDimStyleTableRecord
  2
STANDARD
 70
     0
 41
3.5
 42
1.5
 44
1.5
 47
0.005
 48
0.005
 71
     1
 73
     0
 74
     0
 77
     1
 78
     8
140
3.5
147
0.625
178
     5
271
     3
272
     3
284
     8
340
11
341
20A
342
20A
343
20A
344
20A
  0
DIMSTYLE
105
210
330
A
100
AcDbSymbolTableRecord
100
AcDbDimStyleTableRecord
  2
DIMSTYLE_1
 70
     0
 41
3.5
 42
1.5
 44
1.5
 48
1.0
 71
     1
 73
     0
 74
     0
 77
     1
 78
     8
140
3.5
146
0.6
147
0.875
178
     5
271
     3
272
     3
284
     8
340
11
341
20A
342
20A
343
20A
344
20A
  0
DIMSTYLE
105
211
330
A
100
AcDbSymbolTableRecord
100
AcDbDimStyleTableRecord
  2
DIMSTYLE_2
 70
     0
 41
3.5
 42
1.5
 44
1.5
 47
0.3
 48
0.3
 73
     0
 74
     0
 77
     1
 78
     8
140
3.5
147
0.875
178
     5
271
     3
272
     3
284
     8
340
11
341
20A
342
20A
343
20A
344
20A
  0
DIMSTYLE
105
212
330
A
100
AcDbSymbolTableRecord
100
AcDbDimStyleTableRecord
  2
DIMSTYLE_3
 70
     0
 41
3.5
 42
1.5
 44
1.5
 48
1.0
 71
     1
 73
     0
 74
     0
 77
     1
 78
     8
140
3.5
146
0.6
147
0.875
178
     5
271
     2
272
     2
284
     8
340
11
341
20A
342
20A
343
20A
344
20A
  0
DIMSTYLE
105
44F
102
{ACAD_REACTORS
330
A11
102
}
330
A
100
AcDbSymbolTableRecord
100
AcDbDimStyleTableRecord
  2
AM_DIN
 70
     0
  4
"
 41
3.5
 42
1.0
 43
10.0
 44
1.0
 47
0.1
 48
0.1
 73
     0
 74
     0
 77
     1
 78
     8
 79
     2
140
3.5
141
0.0
143
0.0393701
146
0.71
147
1.5
172
     1
176
   256
177
   256
178
     2
271
     2
272
     3
274
     4
283
     0
284
     8
340
11
371
    -1
372
    -1
1001
ACAD_DSTYLE_DIMJAG
1070
   388
1040
1.5
1001
ACAD_DSTYLE_DIMBREAK
1070
   391
1040
3.75
1001
ACAD_DSTYLE_DIMJOGGED_JOGANGLE_SYMBOL
1070
   384
1040
1.570796326794896
1001
ACAD_DSTYLE_DIM_LINETYPE
1070
   380
1005
14
1001
ACAD_DSTYLE_DIM_EXT1_LINETYPE
1070
   381
1005
14
1001
ACAD_DSTYLE_DIM_EXT2_LINETYPE
1070
   382
1005
14
  0
DIMSTYLE
105
461
330
A
100
AcDbSymbolTableRecord
100
AcDbDimStyleTableRecord
  2
AM_DIN$3
 70
     0
  4
"
 41
3.5
 42
1.0
 43
10.0
 44
1.0
 47
0.1
 48
0.1
 73
     0
 77
     1
 78
     8
 79
     2
140
3.5
141
0.0
143
0.0393701
146
0.71
147
1.5
176
   256
177
   256
178
     2
271
     2
272
     3
274
     4
283
     0
284
     8
288
     1
289
     0
340
11
371
    -1
372
    -1
1001
ACAD_DSTYLE_DIMBREAK
1070
   391
1040
3.75
1001
ACAD_DSTYLE_DIMJAG
1070
   388
1040
1.5
1001
ACAD_DSTYLE_DIMJOGGED_JOGANGLE_SYMBOL
1070
   384
1040
1.570796326794896
1001
ACAD_DSTYLE_DIM_LINETYPE
1070
   380
1005
14
1001
ACAD_DSTYLE_DIM_EXT1_LINETYPE
1070
   381
1005
14
1001
ACAD_DSTYLE_DIM_EXT2_LINETYPE
1070
   382
1005
14
  0
DIMSTYLE
105
462
330
A
100
AcDbSymbolTableRecord
100
AcDbDimStyleTableRecord
  2
AM_DIN$4
 70
     0
  4
"
 41
3.5
 42
1.0
 43
10.0
 44
1.0
 47
0.1
 48
0.1
 73
     0
 77
     1
 78
     8
 79
     2
140
3.5
141
0.0
143
0.0393701
146
0.71
147
1.5
176
   256
177
   256
178
     2
271
     2
272
     3
274
     4
283
     0
284
     8
288
     1
289
     0
340
11
371
    -1
372
    -1
1001
ACAD_DSTYLE_DIMBREAK
1070
   391
1040
3.75
1001
ACAD_DSTYLE_DIMJAG
1070
   388
1040
1.5
1001
ACAD_DSTYLE_DIMJOGGED_JOGANGLE_SYMBOL
1070
   384
1040
1.570796326794896
1001
ACAD_DSTYLE_DIM_LINETYPE
1070
   380
1005
14
1001
ACAD_DSTYLE_DIM_EXT1_LINETYPE
1070
   381
1005
14
1001
ACAD_DSTYLE_DIM_EXT2_LINETYPE
1070
   382
1005
14
  0
DIMSTYLE
105
463
330
A
100
AcDbSymbolTableRecord
100
AcDbDimStyleTableRecord
  2
AM_DIN$6
 70
     0
  4
"
 41
3.5
 42
1.0
 43
10.0
 44
1.0
 47
0.1
 48
0.1
 73
     0
 74
     0
 78
     8
 79
     2
140
3.5
141
0.0
143
0.0393701
146
0.71
147
1.5
172
     1
176
   256
177
   256
178
     2
271
     2
272
     3
274
     4
283
     0
284
     8
340
11
371
    -1
372
    -1
1001
ACAD_DSTYLE_DIMBREAK
1070
   391
1040
3.75
1001
ACAD_DSTYLE_DIMJAG
1070
   388
1040
1.5
1001
ACAD_DSTYLE_DIMJOGGED_JOGANGLE_SYMBOL
1070
   384
1040
1.570796326794896
1001
ACAD_DSTYLE_DIM_LINETYPE
1070
   380
1005
14
1001
ACAD_DSTYLE_DIM_EXT1_LINETYPE
1070
   381
1005
14
1001
ACAD_DSTYLE_DIM_EXT2_LINETYPE
1070
   382
1005
14
  0
DIMSTYLE
105
464
330
A
100
AcDbSymbolTableRecord
100
AcDbDimStyleTableRecord
  2
AM_DIN$7
 70
     0
  4
"
 41
3.5
 42
1.0
 43
10.0
 44
1.0
 47
0.1
 48
0.1
 73
     0
 74
     0
 77
     1
 78
     8
 79
     2
140
3.5
141
0.0
143
0.0393701
146
0.71
147
1.5
172
     1
176
   256
177
   256
178
     2
271
     2
272
     3
274
     4
283
     0
284
     8
340
11
371
    -1
372
    -1
1001
ACAD_DSTYLE_DIMBREAK
1070
   391
1040
3.75
1001
ACAD_DSTYLE_DIMJAG
1070
   388
1040
1.5
1001
ACAD_DSTYLE_DIMJOGGED_JOGANGLE_SYMBOL
1070
   384
1040
1.570796326794896
1001
ACAD_DSTYLE_DIM_LINETYPE
1070
   380
1005
14
1001
ACAD_DSTYLE_DIM_EXT1_LINETYPE
1070
   381
1005
14
1001
ACAD_DSTYLE_DIM_EXT2_LINETYPE
1070
   382
1005
14
  0
DIMSTYLE
105
465
330
A
100
AcDbSymbolTableRecord
100
AcDbDimStyleTableRecord
  2
AM_DIN$SF
 70
     0
  4
"
 41
3.5
 42
1.0
 43
10.0
 44
1.0
 47
0.1
 48
0.1
 73
     0
 74
     0
 75
     1
 76
     1
 77
     1
 78
     8
 79
     2
140
3.5
141
0.0
143
0.0393701
146
0.71
147
1.5
172
     1
176
   256
177
   256
178
     2
271
     2
272
     3
274
     4
283
     0
284
     8
340
11
371
    -1
372
    -1
1001
ACAD_DSTYLE_DIMBREAK
1070
   391
1040
3.75
1001
ACAD_DSTYLE_DIMJAG
1070
   388
1040
1.5
1001
ACAD_DSTYLE_DIMJOGGED_JOGANGLE_SYMBOL
1070
   384
1040
1.570796326794896
1001
ACAD_DSTYLE_DIM_LINETYPE
1070
   380
1005
14
1001
ACAD_DSTYLE_DIM_EXT1_LINETYPE
1070
   381
1005
14
1001
ACAD_DSTYLE_DIM_EXT2_LINETYPE
1070
   382
1005
14
  0
DIMSTYLE
105
46A
330
A
100
AcDbSymbolTableRecord
100
AcDbDimStyleTableRecord
  2
AM_DIN$SH
 70
     0
  4
"
 41
3.5
 42
1.0
 43
10.0
 44
1.0
 47
0.1
 48
0.1
 73
     0
 74
     0
 75
     1
 76
     1
 77
     1
 78
     8
 79
     2
140
3.5
141
0.0
143
0.0393701
144
2.0
146
0.71
147
1.5
172
     1
173
     1
176
   256
177
   256
178
     2
271
     2
272
     3
274
     4
283
     0
284
     8
340
11
343
466
371
    -1
372
    -1
1001
ACAD_DSTYLE_DIMBREAK
1070
   391
1040
3.75
1001
ACAD_DSTYLE_DIMJAG
1070
   388
1040
1.5
1001
ACAD_DSTYLE_DIMJOGGED_JOGANGLE_SYMBOL
1070
   384
1040
1.570796326794896
1001
ACAD_DSTYLE_DIM_LINETYPE
1070
   380
1005
14
1001
ACAD_DSTYLE_DIM_EXT1_LINETYPE
1070
   381
1005
14
1001
ACAD_DSTYLE_DIM_EXT2_LINETYPE
1070
   382
1005
14
  0
DIMSTYLE
105
585
102
{ACAD_REACTORS
330
23E
330
240
330
241
330
23F
102
}
330
A
100
AcDbSymbolTableRecord
100
AcDbDimStyleTableRecord
  2
883N99122_001_00149479900
 70
     0
 40
2.0
 41
3.149999999999999
 42
0.0
 43
3.75
 44
2.0
 73
     0
 74
     0
 77
     1
 78
     8
 79
     2
140
3.5
141
0.0
143
0.03937007874016
145
2.0
147
2.0
171
     3
172
     1
173
     1
176
     3
177
     3
178
     2
179
     2
271
     2
272
     2
274
     3
283
     0
284
     8
340
11
341
580
  0
ENDTAB
  0
TABLE
  2
BLOCK_RECORD
  5
1
330
0
100
AcDbSymbolTable
 70
    13
  0
BLOCK_RECORD
  5
208
330
1
100
AcDbSymbolTableRecord
100
AcDbBlockTableRecord
  2
*Model_Space
340
390
  0
BLOCK_RECORD
  5
209
330
1
100
AcDbSymbolTableRecord
100
AcDbBlockTableRecord
  2
*Paper_Space
340
391
  0
BLOCK_RECORD
  5
20A
330
1
100
AcDbSymbolTableRecord
100
AcDbBlockTableRecord
  2
_FILLED
340
0
  0
BLOCK_RECORD
  5
20B
330
1
100
AcDbSymbolTableRecord
100
AcDbBlockTableRecord
  2
*D1
340
0
  0
BLOCK_RECORD
  5
20C
330
1
100
AcDbSymbolTableRecord
100
AcDbBlockTableRecord
  2
*D2
340
0
  0
BLOCK_RECORD
  5
20D
330
1
100
AcDbSymbolTableRecord
100
AcDbBlockTableRecord
  2
*D3
340
0
  0
BLOCK_RECORD
  5
20E
330
1
100
AcDbSymbolTableRecord
100
AcDbBlockTableRecord
  2
*D4
340
0
  0
BLOCK_RECORD
  5
466
330
1
100
AcDbSymbolTableRecord
100
AcDbBlockTableRecord
  2
GENAXEH
340
0
  0
BLOCK_RECORD
  5
568
330
1
100
AcDbSymbolTableRecord
100
AcDbBlockTableRecord
  2
*D6
340
0
  0
BLOCK_RECORD
  5
574
330
1
100
AcDbSymbolTableRecord
100
AcDbBlockTableRecord
  2
*D7
340
0
  0
BLOCK_RECORD
  5
580
330
1
100
AcDbSymbolTableRecord
100
AcDbBlockTableRecord
  2
_None
340
0
  0
BLOCK_RECORD
  5
809
330
1
100
AcDbSymbolTableRecord
100
AcDbBlockTableRecord
  2
*D9
340
0
  0
BLOCK_RECORD
  5
815
330
1
100
AcDbSymbolTableRecord
100
AcDbBlockTableRecord
  2
*D10
340
0
  0
ENDTAB
  0
ENDSEC
  0
SECTION
  2
BLOCKS
  0
BLOCK
  5
20
330
208
100
AcDbEntity
  8
0
100
AcDbBlockBegin
  2
*Model_Space
 70
     0
 10
0.0
 20
0.0
 30
0.0
  3
*Model_Space
  1

  0
ENDBLK
  5
21
330
208
100
AcDbEntity
  8
0
100
AcDbBlockEnd
  0
BLOCK
  5
1C
330
209
100
AcDbEntity
 67
     1
  8
0
100
AcDbBlockBegin
  2
*Paper_Space
 70
     0
 10
0.0
 20
0.0
 30
0.0
  3
*Paper_Space
  1

  0
ENDBLK
  5
1D
330
209
100
AcDbEntity
 67
     1
  8
0
100
AcDbBlockEnd
  0
BLOCK
  5
213
330
20A
100
AcDbEntity
  8
0
100
AcDbBlockBegin
  2
_FILLED
 70
     0
 10
0.0
 20
0.0
 30
0.0
  3
_FILLED
  1

  0
SOLID
  5
214
330
20A
100
AcDbEntity
  8
0
  6
ByBlock
 62
     0
100
AcDbTrace
 10
0.0
 20
0.0
 30
0.0
 11
-1.0
 21
0.125
 31
0.0
 12
-1.0
 22
-0.125
 32
0.0
 13
-1.0
 23
-0.125
 33
0.0
  0
ENDBLK
  5
215
330
20A
100
AcDbEntity
  8
0
  6
ByBlock
 62
     0
100
AcDbBlockEnd
  0
BLOCK
  5
216
330
20B
100
AcDbEntity
  8
ZEICHNUNGSBEMASSUNGEN
  6
Continuous
 62
     2
100
AcDbBlockBegin
  2
*D1
 70
     1
 10
0.0
 20
0.0
 30
0.0
  3
*D1
  1

  0
LINE
  5
821
330
20B
100
AcDbEntity
  8
P-0000
  6
Continuous
 62
     3
370
    -2
100
AcDbLine
 10
-150.7820217571
 20
128.8332165957
 30
0.0
 11
-150.7820217571
 21
98.09444947790002
 31
0.0
  0
LINE
  5
822
330
20B
100
AcDbEntity
  8
P-0000
  6
Continuous
 62
     3
370
    -2
100
AcDbLine
 10
415.2179782429
 20
128.8332165957
 30
0.0
 11
415.2179782429
 21
98.09444947790002
 31
0.0
  0
LINE
  5
823
330
20B
100
AcDbEntity
  8
P-0000
  6
Continuous
 62
     3
370
    -2
100
AcDbLine
 10
-144.4820217570999
 20
102.0944494779
 30
0.0
 11
121.6846449095667
 21
102.0944494779
 31
0.0
  0
LINE
  5
824
330
20B
100
AcDbEntity
  8
P-0000
  6
Continuous
 62
     3
370
    -2
100
AcDbLine
 10
408.9179782429
 20
102.0944494779
 30
0.0
 11
142.7513115762333
 21
102.0944494779
 31
0.0
  0
MTEXT
  5
825
330
20B
100
AcDbEntity
  8
P-0000
  6
Continuous
 62
     2
100
AcDbMText
 10
132.2179782429
 20
105.5944494779
 30
0.0
 40
7.0
 41
0.0
 71
     2
 72
     1
  1
566
 73
     1
 44
1.0
1001
ACAD
1000
MTEXTBEGIN
1070
    73
1070
     1
1070
    44
1040
1.0
1070
    74
1070
     0
1000
MTEXTEND
  0
SOLID
  5
826
330
20B
100
AcDbEntity
  8
P-0000
  6
Continuous
 62
     3
100
AcDbTrace
 10
-144.4820217570999
 20
103.1444494779
 30
0.0
 11
-144.4820217570999
 21
101.0444494779
 31
0.0
 12
-150.7820217571
 22
102.0944494779
 32
0.0
 13
-150.7820217571
 23
102.0944494779
 33
0.0
  0
SOLID
  5
827
330
20B
100
AcDbEntity
  8
P-0000
  6
Continuous
 62
     3
100
AcDbTrace
 10
408.9179782429
 20
103.1444494779
 30
0.0
 11
408.9179782429
 21
101.0444494779
 31
0.0
 12
415.2179782429
 22
102.0944494779
 32
0.0
 13
415.2179782429
 23
102.0944494779
 33
0.0
  0
POINT
  5
828
330
20B
100
AcDbEntity
  8
Defpoints
  6
Continuous
 62
     0
100
AcDbPoint
 10
-150.7820217571
 20
128.8332165957
 30
0.0
  0
POINT
  5
829
330
20B
100
AcDbEntity
  8
Defpoints
  6
Continuous
 62
     0
100
AcDbPoint
 10
415.2179782429
 20
128.8332165957
 30
0.0
  0
POINT
  5
82A
330
20B
100
AcDbEntity
  8
Defpoints
  6
Continuous
 62
     0
100
AcDbPoint
 10
415.2179782429
 20
102.0944494779
 30
0.0
  0
ENDBLK
  5
220
330
20B
100
AcDbEntity
  8
0
  6
ByBlock
 62
     0
100
AcDbBlockEnd
  0
BLOCK
  5
221
330
20C
100
AcDbEntity
  8
ZEICHNUNGSBEMASSUNGEN
  6
Continuous
 62
     2
100
AcDbBlockBegin
  2
*D2
 70
     1
 10
0.0
 20
0.0
 30
0.0
  3
*D2
  1

  0
LINE
  5
83F
330
20C
100
AcDbEntity
  8
P-0000
  6
Continuous
 62
     3
370
    -2
100
AcDbLine
 10
417.7179782429
 20
121.5832165957
 30
0.0
 11
435.0929317267998
 21
121.5832165957
 31
0.0
  0
LINE
  5
840
330
20C
100
AcDbEntity
  8
P-0000
  6
Continuous
 62
     3
370
    -2
100
AcDbLine
 10
417.7179782429
 20
184.5832165957
 30
0.0
 11
435.0929317268
 21
184.5832165957
 31
0.0
  0
LINE
  5
841
330
20C
100
AcDbEntity
  8
P-0000
  6
Continuous
 62
     3
370
    -2
100
AcDbLine
 10
431.0929317267998
 20
127.8832165957
 30
0.0
 11
431.0929317268
 21
144.9998832623666
 31
0.0
  0
LINE
  5
842
330
20C
100
AcDbEntity
  8
P-0000
  6
Continuous
 62
     3
370
    -2
100
AcDbLine
 10
431.0929317268
 20
178.2832165957
 30
0.0
 11
431.0929317268
 21
161.1665499290333
 31
0.0
  0
MTEXT
  5
843
330
20C
100
AcDbEntity
  8
P-0000
  6
Continuous
 62
     2
100
AcDbMText
 10
427.5929317267999
 20
153.0832165957
 30
0.0
 40
7.0
 41
0.0
 71
     2
 72
     1
  1
63
 11
0.0000000000000001
 21
1.0
 31
0.0
 73
     1
 44
1.0
1001
ACAD
1000
MTEXTBEGIN
1070
    73
1070
     1
1070
    44
1040
1.0
1070
    74
1070
     0
1000
MTEXTEND
  0
SOLID
  5
844
330
20C
100
AcDbEntity
  8
P-0000
  6
Continuous
 62
     3
100
AcDbTrace
 10
430.0429317267998
 20
127.8832165957
 30
0.0
 11
432.1429317267998
 21
127.8832165957
 31
0.0
 12
431.0929317267998
 22
121.5832165957
 32
0.0
 13
431.0929317267998
 23
121.5832165957
 33
0.0
  0
SOLID
  5
845
330
20C
100
AcDbEntity
  8
P-0000
  6
Continuous
 62
     3
100
AcDbTrace
 10
430.0429317267998
 20
178.2832165957
 30
0.0
 11
432.1429317267998
 21
178.2832165957
 31
0.0
 12
431.0929317268
 22
184.5832165957
 32
0.0
 13
431.0929317268
 23
184.5832165957
 33
0.0
  0
POINT
  5
846
330
20C
100
AcDbEntity
  8
Defpoints
  6
Continuous
 62
     0
100
AcDbPoint
 10
417.7179782429
 20
121.5832165957
 30
0.0
  0
POINT
  5
847
330
20C
100
AcDbEntity
  8
Defpoints
  6
Continuous
 62
     0
100
AcDbPoint
 10
417.7179782429
 20
184.5832165957
 30
0.0
  0
POINT
  5
848
330
20C
100
AcDbEntity
  8
Defpoints
  6
Continuous
 62
     0
100
AcDbPoint
 10
431.0929317268
 20
184.5832165957
 30
0.0
  0
ENDBLK
  5
229
330
20C
100
AcDbEntity
  8
0
  6
ByBlock
 62
     0
100
AcDbBlockEnd
  0
BLOCK
  5
22A
330
20D
100
AcDbEntity
  8
ZEICHNUNGSBEMASSUNGEN
  6
Continuous
 62
     2
100
AcDbBlockBegin
  2
*D3
 70
     1
 10
0.0
 20
0.0
 30
0.0
  3
*D3
  1

  0
LINE
  5
82B
330
20D
100
AcDbEntity
  8
P-0000
  6
Continuous
 62
     3
370
    -2
100
AcDbLine
 10
-149.0320217570999
 20
179.0832165957
 30
0.0
 11
-170.6713935623999
 21
179.0832165957
 31
0.0
  0
LINE
  5
82C
330
20D
100
AcDbEntity
  8
P-0000
  6
Continuous
 62
     3
370
    -2
100
AcDbLine
 10
-149.0320217570999
 20
127.0832165957
 30
0.0
 11
-170.6713935623999
 21
127.0832165957
 31
0.0
  0
LINE
  5
82D
330
20D
100
AcDbEntity
  8
P-0000
  6
Continuous
 62
     3
370
    -2
100
AcDbLine
 10
-166.6713935623999
 20
172.7832165957
 30
0.0
 11
-166.6713935623999
 21
161.1665499290334
 31
0.0
  0
LINE
  5
82E
330
20D
100
AcDbEntity
  8
P-0000
  6
Continuous
 62
     3
370
    -2
100
AcDbLine
 10
-166.6713935623999
 20
133.3832165957
 30
0.0
 11
-166.6713935623999
 21
144.9998832623667
 31
0.0
  0
MTEXT
  5
82F
330
20D
100
AcDbEntity
  8
P-0000
  6
Continuous
 62
     2
100
AcDbMText
 10
-170.1713935624
 20
153.0832165957
 30
0.0
 40
7.0
 41
0.0
 71
     2
 72
     1
  1
52
 11
0.0000000000000001
 21
1.0
 31
0.0
 73
     1
 44
1.0
1001
ACAD
1000
MTEXTBEGIN
1070
    73
1070
     1
1070
    44
1040
1.0
1070
    74
1070
     0
1000
MTEXTEND
  0
SOLID
  5
830
330
20D
100
AcDbEntity
  8
P-0000
  6
Continuous
 62
     3
100
AcDbTrace
 10
-167.7213935623999
 20
172.7832165957
 30
0.0
 11
-165.6213935623999
 21
172.7832165957
 31
0.0
 12
-166.6713935623999
 22
179.0832165957
 32
0.0
 13
-166.6713935623999
 23
179.0832165957
 33
0.0
  0
SOLID
  5
831
330
20D
100
AcDbEntity
  8
P-0000
  6
Continuous
 62
     3
100
AcDbTrace
 10
-167.7213935623999
 20
133.3832165957
 30
0.0
 11
-165.6213935623999
 21
133.3832165957
 31
0.0
 12
-166.6713935623999
 22
127.0832165957
 32
0.0
 13
-166.6713935623999
 23
127.0832165957
 33
0.0
  0
POINT
  5
832
330
20D
100
AcDbEntity
  8
Defpoints
  6
Continuous
 62
     0
100
AcDbPoint
 10
-149.0320217570999
 20
179.0832165957
 30
0.0
  0
POINT
  5
833
330
20D
100
AcDbEntity
  8
Defpoints
  6
Continuous
 62
     0
100
AcDbPoint
 10
-149.0320217570999
 20
127.0832165957
 30
0.0
  0
POINT
  5
834
330
20D
100
AcDbEntity
  8
Defpoints
  6
Continuous
 62
     0
100
AcDbPoint
 10
-166.6713935623999
 20
127.0832165957
 30
0.0
  0
ENDBLK
  5
232
330
20D
100
AcDbEntity
  8
0
  6
ByBlock
 62
     0
100
AcDbBlockEnd
  0
BLOCK
  5
233
330
20E
100
AcDbEntity
  8
0
  6
Continuous
 62
     2
100
AcDbBlockBegin
  2
*D4
 70
     1
 10
0.0
 20
0.0
 30
0.0
  3
*D4
  1

  0
LINE
  5
835
330
20E
100
AcDbEntity
  8
P-0000
  6
Continuous
 62
     3
370
    -2
100
AcDbLine
 10
420.7179782428998
 20
233.8971384159
 30
0.0
 11
420.7179782428998
 21
218.171000791
 31
0.0
  0
LINE
  5
836
330
20E
100
AcDbEntity
  8
P-0000
  6
Continuous
 62
     3
370
    -2
100
AcDbLine
 10
-156.2820217570999
 20
234.683764387
 30
0.0
 11
-156.2820217570999
 21
218.171000791
 31
0.0
  0
LINE
  5
837
330
20E
100
AcDbEntity
  8
P-0000
  6
Continuous
 62
     3
370
    -2
100
AcDbLine
 10
414.4179782428997
 20
222.171000791
 30
0.0
 11
142.7513115762333
 21
222.171000791
 31
0.0
  0
LINE
  5
838
330
20E
100
AcDbEntity
  8
P-0000
  6
Continuous
 62
     3
370
    -2
100
AcDbLine
 10
-149.9820217570999
 20
222.171000791
 30
0.0
 11
121.6846449095667
 21
222.171000791
 31
0.0
  0
MTEXT
  5
839
330
20E
100
AcDbEntity
  8
P-0000
  6
Continuous
 62
     2
100
AcDbMText
 10
132.2179782429
 20
225.671000791
 30
0.0
 40
7.0
 41
0.0
 71
     2
 72
     1
  1
577
 73
     1
 44
1.0
1001
ACAD
1000
MTEXTBEGIN
1070
    73
1070
     1
1070
    44
1040
1.0
1070
    74
1070
     0
1000
MTEXTEND
  0
SOLID
  5
83A
330
20E
100
AcDbEntity
  8
P-0000
  6
Continuous
 62
     3
100
AcDbTrace
 10
414.4179782428997
 20
223.221000791
 30
0.0
 11
414.4179782428997
 21
221.121000791
 31
0.0
 12
420.7179782428998
 22
222.171000791
 32
0.0
 13
420.7179782428998
 23
222.171000791
 33
0.0
  0
SOLID
  5
83B
330
20E
100
AcDbEntity
  8
P-0000
  6
Continuous
 62
     3
100
AcDbTrace
 10
-149.9820217570999
 20
223.221000791
 30
0.0
 11
-149.9820217570999
 21
221.121000791
 31
0.0
 12
-156.2820217570999
 22
222.171000791
 32
0.0
 13
-156.2820217570999
 23
222.171000791
 33
0.0
  0
POINT
  5
83C
330
20E
100
AcDbEntity
  8
Defpoints
  6
Continuous
 62
     0
100
AcDbPoint
 10
420.7179782428998
 20
233.8971384159
 30
0.0
  0
POINT
  5
83D
330
20E
100
AcDbEntity
  8
Defpoints
  6
Continuous
 62
     0
100
AcDbPoint
 10
-156.2820217570999
 20
234.683764387
 30
0.0
  0
POINT
  5
83E
330
20E
100
AcDbEntity
  8
Defpoints
  6
Continuous
 62
     0
100
AcDbPoint
 10
-156.2820217570999
 20
222.171000791
 30
0.0
  0
ENDBLK
  5
23D
330
20E
100
AcDbEntity
  8
0
  6
ByBlock
 62
     0
100
AcDbBlockEnd
  0
BLOCK
  5
468
330
466
100
AcDbEntity
  8
0
100
AcDbBlockBegin
  2
GENAXEH
 70
     0
 10
0.0
 20
0.0
 30
0.0
  3
GENAXEH
  1

  0
LINE
  5
467
330
466
100
AcDbEntity
  8
0
100
AcDbLine
 10
-1.0
 20
0.0
 30
0.0
 11
1.0
 21
0.0
 31
0.0
  0
ENDBLK
  5
469
330
466
100
AcDbEntity
  8
0
100
AcDbBlockEnd
  0
BLOCK
  5
569
330
568
100
AcDbEntity
  8
0
100
AcDbBlockBegin
  2
*D6
 70
     1
 10
0.0
 20
0.0
 30
0.0
  3
*D6
  1

  0
LINE
  5
56A
330
568
100
AcDbEntity
  8
P-0000
  6
Continuous
 62
     3
370
    -2
100
AcDbLine
 10
-87.47150100110001
 20
235.8228037264
 30
0.0
 11
-103.4715010011
 21
235.8228037264
 31
0.0
  0
LINE
  5
56B
330
568
100
AcDbEntity
  8
P-0000
  6
Continuous
 62
     3
370
    -2
100
AcDbLine
 10
-87.47150100110001
 20
174.3228037264
 30
0.0
 11
-103.4715010011
 21
174.3228037264
 31
0.0
  0
LINE
  5
56C
330
568
100
AcDbEntity
  8
P-0000
  6
Continuous
 62
     3
370
    -2
100
AcDbLine
 10
-99.4715010011
 20
229.5228037264
 30
0.0
 11
-99.4715010011
 21
180.6228037264
 31
0.0
  0
SOLID
  5
56D
330
568
100
AcDbEntity
  8
P-0000
  6
Continuous
 62
     3
100
AcDbTrace
 10
-100.5215010011
 20
229.5228037264
 30
0.0
 11
-98.42150100110002
 21
229.5228037264
 31
0.0
 12
-99.4715010011
 22
235.8228037264
 32
0.0
 13
-99.4715010011
 23
235.8228037264
 33
0.0
  0
SOLID
  5
56E
330
568
100
AcDbEntity
  8
P-0000
  6
Continuous
 62
     3
100
AcDbTrace
 10
-100.5215010011
 20
180.6228037264
 30
0.0
 11
-98.42150100110002
 21
180.6228037264
 31
0.0
 12
-99.4715010011
 22
174.3228037264
 32
0.0
 13
-99.4715010011
 23
174.3228037264
 33
0.0
  0
MTEXT
  5
56F
330
568
100
AcDbEntity
  8
P-0000
  6
Continuous
 62
     2
100
AcDbMText
 10
-106.9715010011
 20
205.0728037264
 30
0.0
 40
7.0
 41
0.0
 71
     5
 72
     1
  1
62
 11
0.0000000000000001
 21
1.0
 31
0.0
 73
     1
 44
1.0
1001
ACAD
1000
MTEXTBEGIN
1070
    73
1070
     1
1070
    44
1040
1.0
1070
    74
1070
     0
1000
MTEXTEND
  0
POINT
  5
570
330
568
100
AcDbEntity
  8
Defpoints
  6
Continuous
 62
     0
100
AcDbPoint
 10
-87.47150100110001
 20
235.8228037264
 30
0.0
  0
POINT
  5
571
330
568
100
AcDbEntity
  8
Defpoints
  6
Continuous
 62
     0
100
AcDbPoint
 10
-87.47150100110001
 20
174.3228037264
 30
0.0
  0
POINT
  5
572
330
568
100
AcDbEntity
  8
Defpoints
  6
Continuous
 62
     0
100
AcDbPoint
 10
-99.4715010011
 20
174.3228037264
 30
0.0
  0
ENDBLK
  5
573
330
568
100
AcDbEntity
  8
0
100
AcDbBlockEnd
  0
BLOCK
  5
575
330
574
100
AcDbEntity
  8
0
100
AcDbBlockBegin
  2
*D7
 70
     1
 10
0.0
 20
0.0
 30
0.0
  3
*D7
  1

  0
LINE
  5
576
330
574
100
AcDbEntity
  8
P-0000
  6
Continuous
 62
     3
370
    -2
100
AcDbLine
 10
-87.47150100110001
 20
174.3228037264
 30
0.0
 11
-87.47150100110001
 21
145.1909121658225
 31
0.0
  0
LINE
  5
577
330
574
100
AcDbEntity
  8
P-0000
  6
Continuous
 62
     3
370
    -2
100
AcDbLine
 10
490.5284989989
 20
174.3232768661
 30
0.0
 11
490.5284989989
 21
145.1909121658225
 31
0.0
  0
LINE
  5
578
330
574
100
AcDbEntity
  8
P-0000
  6
Continuous
 62
     3
370
    -2
100
AcDbLine
 10
-81.1715010011
 20
149.1909121658225
 30
0.0
 11
484.2284989988998
 21
149.1909121658225
 31
0.0
  0
SOLID
  5
579
330
574
100
AcDbEntity
  8
P-0000
  6
Continuous
 62
     3
100
AcDbTrace
 10
-81.1715010011
 20
150.2409121658225
 30
0.0
 11
-81.1715010011
 21
148.1409121658225
 31
0.0
 12
-87.47150100110001
 22
149.1909121658225
 32
0.0
 13
-87.47150100110001
 23
149.1909121658225
 33
0.0
  0
SOLID
  5
57A
330
574
100
AcDbEntity
  8
P-0000
  6
Continuous
 62
     3
100
AcDbTrace
 10
484.2284989988998
 20
150.2409121658225
 30
0.0
 11
484.2284989988998
 21
148.1409121658225
 31
0.0
 12
490.5284989989
 22
149.1909121658225
 32
0.0
 13
490.5284989989
 23
149.1909121658225
 33
0.0
  0
MTEXT
  5
57B
330
574
100
AcDbEntity
  8
P-0000
  6
Continuous
 62
     2
100
AcDbMText
 10
201.5284989989
 20
156.6909121658225
 30
0.0
 40
7.0
 41
0.0
 71
     5
 72
     1
  1
578
 73
     1
 44
1.0
1001
ACAD
1000
MTEXTBEGIN
1070
    73
1070
     1
1070
    44
1040
1.0
1070
    74
1070
     0
1000
MTEXTEND
  0
POINT
  5
57C
330
574
100
AcDbEntity
  8
Defpoints
  6
Continuous
 62
     0
100
AcDbPoint
 10
-87.47150100110001
 20
174.3228037264
 30
0.0
  0
POINT
  5
57D
330
574
100
AcDbEntity
  8
Defpoints
  6
Continuous
 62
     0
100
AcDbPoint
 10
490.5284989989
 20
174.3232768661
 30
0.0
  0
POINT
  5
57E
330
574
100
AcDbEntity
  8
Defpoints
  6
Continuous
 62
     0
100
AcDbPoint
 10
490.5284989989
 20
149.1909121658225
 30
0.0
  0
ENDBLK
  5
57F
330
574
100
AcDbEntity
  8
0
100
AcDbBlockEnd
  0
BLOCK
  5
581
330
580
100
AcDbEntity
  8
0
100
AcDbBlockBegin
  2
_None
 70
     0
 10
0.0
 20
0.0
 30
0.0
  3
_None
  1

  0
ENDBLK
  5
582
330
580
100
AcDbEntity
  8
0
100
AcDbBlockEnd
  0
BLOCK
  5
80A
330
809
100
AcDbEntity
  8
0
100
AcDbBlockBegin
  2
*D9
 70
     1
 10
0.0
 20
0.0
 30
0.0
  3
*D9
  1

  0
LINE
  5
80C
330
809
100
AcDbEntity
  8
P-0000
  6
Continuous
 62
     3
370
    -2
100
AcDbLine
 10
-83.28693274631289
 20
8.985341721908836
 30
0.0
 11
-99.28693274631287
 21
8.985341721908842
 31
0.0
  0
LINE
  5
80D
330
809
100
AcDbEntity
  8
P-0000
  6
Continuous
 62
     3
370
    -2
100
AcDbLine
 10
-83.28693274631289
 20
-52.51465827809115
 30
0.0
 11
-99.28693274631292
 21
-52.51465827809115
 31
0.0
  0
LINE
  5
80E
330
809
100
AcDbEntity
  8
P-0000
  6
Continuous
 62
     3
370
    -2
100
AcDbLine
 10
-95.28693274631287
 20
2.685341721908844
 30
0.0
 11
-95.2869327463129
 21
-46.21465827809116
 31
0.0
  0
SOLID
  5
80F
330
809
100
AcDbEntity
  8
P-0000
  6
Continuous
 62
     3
100
AcDbTrace
 10
-96.33693274631287
 20
2.685341721908844
 30
0.0
 11
-94.23693274631286
 21
2.685341721908843
 31
0.0
 12
-95.28693274631287
 22
8.985341721908842
 32
0.0
 13
-95.28693274631287
 23
8.985341721908842
 33
0.0
  0
SOLID
  5
810
330
809
100
AcDbEntity
  8
P-0000
  6
Continuous
 62
     3
100
AcDbTrace
 10
-96.33693274631292
 20
-46.21465827809116
 30
0.0
 11
-94.2369327463129
 21
-46.21465827809116
 31
0.0
 12
-95.2869327463129
 22
-52.51465827809115
 32
0.0
 13
-95.2869327463129
 23
-52.51465827809115
 33
0.0
  0
MTEXT
  5
811
330
809
100
AcDbEntity
  8
P-0000
  6
Continuous
 62
     2
100
AcDbMText
 10
-102.7869327463129
 20
-21.76465827809118
 30
0.0
 40
7.0
 41
0.0
 71
     5
 72
     1
  1
62
 11
0.0000000000000001
 21
1.0
 31
0.0
 73
     1
 44
1.0
1001
ACAD
1000
MTEXTBEGIN
1070
    73
1070
     1
1070
    44
1040
1.0
1070
    74
1070
     0
1000
MTEXTEND
  0
POINT
  5
812
330
809
100
AcDbEntity
  8
Defpoints
  6
Continuous
 62
     0
100
AcDbPoint
 10
-83.28693274631289
 20
8.985341721908836
 30
0.0
  0
POINT
  5
813
330
809
100
AcDbEntity
  8
Defpoints
  6
Continuous
 62
     0
100
AcDbPoint
 10
-83.28693274631289
 20
-52.51465827809115
 30
0.0
  0
POINT
  5
814
330
809
100
AcDbEntity
  8
Defpoints
  6
Continuous
 62
     0
100
AcDbPoint
 10
-95.2869327463129
 20
-52.51465827809115
 30
0.0
  0
ENDBLK
  5
80B
330
809
100
AcDbEntity
  8
0
100
AcDbBlockEnd
  0
BLOCK
  5
816
330
815
100
AcDbEntity
  8
0
100
AcDbBlockBegin
  2
*D10
 70
     1
 10
0.0
 20
0.0
 30
0.0
  3
*D10
  1

  0
LINE
  5
818
330
815
100
AcDbEntity
  8
P-0000
  6
Continuous
 62
     3
370
    -2
100
AcDbLine
 10
-83.28693274631289
 20
-52.51465827809115
 30
0.0
 11
-83.28693274631289
 21
-81.64654983866865
 31
0.0
  0
LINE
  5
819
330
815
100
AcDbEntity
  8
P-0000
  6
Continuous
 62
     3
370
    -2
100
AcDbLine
 10
494.7130672536871
 20
-52.51418513839116
 30
0.0
 11
494.7130672536871
 21
-81.64654983866865
 31
0.0
  0
LINE
  5
81A
330
815
100
AcDbEntity
  8
P-0000
  6
Continuous
 62
     3
370
    -2
100
AcDbLine
 10
-76.9869327463129
 20
-77.64654983866865
 30
0.0
 11
488.4130672536869
 21
-77.64654983866865
 31
0.0
  0
SOLID
  5
81B
330
815
100
AcDbEntity
  8
P-0000
  6
Continuous
 62
     3
100
AcDbTrace
 10
-76.9869327463129
 20
-76.59654983866865
 30
0.0
 11
-76.9869327463129
 21
-78.69654983866865
 31
0.0
 12
-83.28693274631289
 22
-77.64654983866865
 32
0.0
 13
-83.28693274631289
 23
-77.64654983866865
 33
0.0
  0
SOLID
  5
81C
330
815
100
AcDbEntity
  8
P-0000
  6
Continuous
 62
     3
100
AcDbTrace
 10
488.4130672536869
 20
-76.59654983866865
 30
0.0
 11
488.4130672536869
 21
-78.69654983866865
 31
0.0
 12
494.7130672536871
 22
-77.64654983866865
 32
0.0
 13
494.7130672536871
 23
-77.64654983866865
 33
0.0
  0
MTEXT
  5
81D
330
815
100
AcDbEntity
  8
P-0000
  6
Continuous
 62
     2
100
AcDbMText
 10
205.7130672536871
 20
-70.14654983866865
 30
0.0
 40
7.0
 41
0.0
 71
     5
 72
     1
  1
578
 73
     1
 44
1.0
1001
ACAD
1000
MTEXTBEGIN
1070
    73
1070
     1
1070
    44
1040
1.0
1070
    74
1070
     0
1000
MTEXTEND
  0
POINT
  5
81E
330
815
100
AcDbEntity
  8
Defpoints
  6
Continuous
 62
     0
100
AcDbPoint
 10
-83.28693274631289
 20
-52.51465827809115
 30
0.0
  0
POINT
  5
81F
330
815
100
AcDbEntity
  8
Defpoints
  6
Continuous
 62
     0
100
AcDbPoint
 10
494.7130672536871
 20
-52.51418513839116
 30
0.0
  0
POINT
  5
820
330
815
100
AcDbEntity
  8
Defpoints
  6
Continuous
 62
     0
100
AcDbPoint
 10
494.7130672536871
 20
-77.64654983866865
 30
0.0
  0
ENDBLK
  5
817
330
815
100
AcDbEntity
  8
0
100
AcDbBlockEnd
  0
ENDSEC
  0
SECTION
  2
ENTITIES
  0
DIMENSION
  5
23E
330
208
100
AcDbEntity
  8
P-0000
  6
Continuous
100
AcDbDimension
  2
*D1
 10
415.2179782429
 20
102.0944494779
 30
0.0
 11
132.2179782429
 21
102.0944494779
 31
0.0
 70
   160
 71
     2
 42
566.0
  3
883N99122_001_00149479900
100
AcDbAlignedDimension
 13
-150.7820217571
 23
128.8332165957
 33
0.0
 14
415.2179782429
 24
128.8332165957
 34
0.0
100
AcDbRotatedDimension
1001
ACAD
1000
DSTYLE
1002
{
1070
   279
1070
     2
1070
   288
1070
     1
1002
}
  0
DIMENSION
  5
23F
330
208
100
AcDbEntity
  8
P-0000
  6
Continuous
100
AcDbDimension
  2
*D2
 10
431.0929317268
 20
184.5832165957
 30
0.0
 11
431.0929317268
 21
153.0832165957
 31
0.0
 70
   160
 71
     2
 42
63.0
  3
883N99122_001_00149479900
100
AcDbAlignedDimension
 13
417.7179782429
 23
121.5832165957
 33
0.0
 14
417.7179782429
 24
184.5832165957
 34
0.0
 50
90.0
100
AcDbRotatedDimension
1001
ACAD
1000
DSTYLE
1002
{
1070
   279
1070
     2
1070
   288
1070
     1
1002
}
  0
DIMENSION
  5
240
330
208
100
AcDbEntity
  8
P-0000
  6
Continuous
100
AcDbDimension
  2
*D3
 10
-166.6713935623999
 20
127.0832165957
 30
0.0
 11
-166.6713935624
 21
153.0832165957
 31
0.0
 70
   160
 71
     2
 42
52.00000000000001
  3
883N99122_001_00149479900
100
AcDbAlignedDimension
 13
-149.0320217570999
 23
179.0832165957
 33
0.0
 14
-149.0320217570999
 24
127.0832165957
 34
0.0
 50
270.0
100
AcDbRotatedDimension
1001
ACAD
1000
DSTYLE
1002
{
1070
   279
1070
     2
1070
   288
1070
     1
1002
}
  0
DIMENSION
  5
241
330
208
100
AcDbEntity
  8
P-0000
  6
Continuous
100
AcDbDimension
  2
*D4
 10
-156.2820217570999
 20
222.171000791
 30
0.0
 11
132.2179782429
 21
222.171000791
 31
0.0
 70
   160
 71
     2
 42
576.9999999999997
  3
883N99122_001_00149479900
100
AcDbAlignedDimension
 13
420.7179782428998
 23
233.8971384159
 33
0.0
 14
-156.2820217570999
 24
234.683764387
 34
0.0
 50
180.0
100
AcDbRotatedDimension
1001
ACAD
1000
DSTYLE
1002
{
1070
   279
1070
     2
1070
   288
1070
     1
1002
}
  0
LINE
  5
242
330
208
100
AcDbEntity
  8
RUNDUNGEN
  6
Continuous
 62
     7
100
AcDbLine
 10
-156.2820217570999
 20
124.5832165957
 30
0.0
 11
-156.2820217570999
 21
124.8405759086
 31
0.0
  0
LINE
  5
243
330
208
100
AcDbEntity
  8
RUNDUNGEN
  6
Continuous
 62
     7
100
AcDbLine
 10
-156.2820217570999
 20
181.3258572828
 30
0.0
 11
-156.2820217570999
 21
181.5832165957
 31
0.0
  0
LINE
  5
244
330
208
100
AcDbEntity
  8
0
  6
Continuous
 62
     9
100
AcDbLine
 10
-155.4033479993
 20
126.719864925
 30
0.0
 11
-155.4033479993
 21
127.3564687485
 31
0.0
  0
LINE
  5
245
330
208
100
AcDbEntity
  8
0
  6
Continuous
 62
     9
100
AcDbLine
 10
-155.4033452631
 20
178.8099833806
 30
0.0
 11
-155.4033452631
 21
179.4465888621
 31
0.0
  0
LINE
  5
246
330
208
100
AcDbEntity
  8
0
  6
Continuous
 62
     7
100
AcDbLine
 10
-154.2820217571
 20
179.0832165957
 30
0.0
 11
-154.2820217571
 21
178.0832165957
 31
0.0
  0
LINE
  5
247
330
208
100
AcDbEntity
  8
0
  6
Continuous
 62
     7
100
AcDbLine
 10
-154.2820217571
 20
127.0832165957
 30
0.0
 11
-154.2820217571
 21
128.0832165957
 31
0.0
  0
LINE
  5
248
330
208
100
AcDbEntity
  8
RUNDUNGEN
  6
Continuous
 62
     9
100
AcDbLine
 10
-151.2035946323
 20
128.0832165957
 30
0.0
 11
-151.2035946323
 21
127.0832165957
 31
0.0
  0
LINE
  5
249
330
208
100
AcDbEntity
  8
RUNDUNGEN
  6
Continuous
 62
     9
100
AcDbLine
 10
-151.2035946323
 20
178.0832165957
 30
0.0
 11
-151.2035946323
 21
179.0832165957
 31
0.0
  0
LINE
  5
24A
330
208
100
AcDbEntity
  8
0
  6
Continuous
 62
     7
100
AcDbLine
 10
-150.7820217571
 20
127.8332165957
 30
0.0
 11
-150.7820217571
 21
178.3332165957
 31
0.0
  0
LINE
  5
24B
330
208
100
AcDbEntity
  8
0
  6
Continuous
 62
     7
100
AcDbLine
 10
-150.0320217570999
 20
128.0832165957
 30
0.0
 11
-150.0320217570999
 21
127.0832165957
 31
0.0
  0
LINE
  5
24C
330
208
100
AcDbEntity
  8
0
  6
Continuous
 62
     7
100
AcDbLine
 10
-150.0320217570999
 20
178.0832165957
 30
0.0
 11
-150.0320217570999
 21
179.0832165957
 31
0.0
  0
LINE
  5
24D
330
208
100
AcDbEntity
  8
0
  6
Continuous
 62
     0
100
AcDbLine
 10
-149.7820217571
 20
127.8332165957
 30
0.0
 11
-149.7820217571
 21
128.8332165957
 31
0.0
  0
LINE
  5
24E
330
208
100
AcDbEntity
  8
0
  6
Continuous
 62
     0
100
AcDbLine
 10
-149.7820217571
 20
177.3332165957
 30
0.0
 11
-149.7820217571
 21
178.3332165957
 31
0.0
  0
LINE
  5
24F
330
208
100
AcDbEntity
  8
0
  6
Continuous
 62
     7
100
AcDbLine
 10
-149.0320217570999
 20
128.8332165957
 30
0.0
 11
-149.0320217570999
 21
127.0832165957
 31
0.0
  0
LINE
  5
250
330
208
100
AcDbEntity
  8
0
  6
Continuous
 62
     7
100
AcDbLine
 10
-149.0320217570999
 20
177.3332165957
 30
0.0
 11
-149.0320217570999
 21
179.0832165957
 31
0.0
  0
LINE
  5
251
330
208
100
AcDbEntity
  8
0
  6
Continuous
 62
     7
100
AcDbLine
 10
-148.7820217571
 20
177.0832165957
 30
0.0
 11
-148.7820217571
 21
129.0832165957
 31
0.0
  0
LINE
  5
252
330
208
100
AcDbEntity
  8
0
  6
Continuous
 62
     9
100
AcDbLine
 10
-148.0320217571
 20
129.8332165957
 30
0.0
 11
-148.0320217571
 21
176.3332165957
 31
0.0
  0
LINE
  5
253
330
208
100
AcDbEntity
  8
0
  6
Continuous
 62
     7
100
AcDbLine
 10
-132.4876264038
 20
124.5479404153
 30
0.0
 11
-132.0762503911
 21
126.0832165957
 31
0.0
  0
LINE
  5
254
330
208
100
AcDbEntity
  8
0
  6
Continuous
 62
     7
100
AcDbLine
 10
-132.0762503911
 20
180.0832165957
 30
0.0
 11
-132.4876264038
 21
181.6184927761
 31
0.0
  0
LINE
  5
255
330
208
100
AcDbEntity
  8
BEZUGSACHSEN
  6
CENTER
 62
     2
100
AcDbLine
 10
-37.7820217571
 20
153.0832165957
 30
0.0
 11
-37.7820217571
 21
145.0832165957
 31
0.0
  0
LINE
  5
256
330
208
100
AcDbEntity
  8
BEZUGSACHSEN
  6
CENTER
 62
     2
100
AcDbLine
 10
-37.7820217571
 20
153.0832165957
 30
0.0
 11
-37.7820217571
 21
161.0832165957
 31
0.0
  0
LINE
  5
257
330
208
100
AcDbEntity
  8
0
  6
Continuous
 62
     7
100
AcDbLine
 10
10.9235828897
 20
181.6184927761
 30
0.0
 11
10.512206877
 21
180.0832165957
 31
0.0
  0
LINE
  5
258
330
208
100
AcDbEntity
  8
0
  6
Continuous
 62
     7
100
AcDbLine
 10
10.512206877
 20
126.0832165957
 30
0.0
 11
10.9235828897
 21
124.5479404153
 31
0.0
  0
LINE
  5
259
330
208
100
AcDbEntity
  8
0
  6
Continuous
 62
     7
100
AcDbLine
 10
32.5123735962
 20
124.5479404153
 30
0.0
 11
32.9237496089
 21
126.0832165957
 31
0.0
  0
LINE
  5
25A
330
208
100
AcDbEntity
  8
0
  6
Continuous
 62
     7
100
AcDbLine
 10
32.5123735962
 20
181.6184927761
 30
0.0
 11
32.9237496089
 21
180.0832165957
 31
0.0
  0
LINE
  5
25B
330
208
100
AcDbEntity
  8
RUNDUNGEN
  6
Continuous
 62
     7
100
AcDbLine
 10
-153.2820217571
 20
121.5832165957
 30
0.0
 11
-136.351329709
 21
121.5832165957
 31
0.0
  0
LINE
  5
25C
330
208
100
AcDbEntity
  8
RUNDUNGEN
  6
Continuous
 62
     7
100
AcDbLine
 10
14.7872861949
 20
121.5832165957
 30
0.0
 11
28.648670291
 21
121.5832165957
 31
0.0
  0
LINE
  5
25D
330
208
100
AcDbEntity
  8
RUNDUNGEN
  6
Continuous
 62
     7
100
AcDbLine
 10
235.7872861949
 20
121.5832165957
 30
0.0
 11
249.648670291
 21
121.5832165957
 31
0.0
  0
LINE
  5
25E
330
208
100
AcDbEntity
  8
RUNDUNGEN
  6
Continuous
 62
     7
100
AcDbLine
 10
400.7872861949
 20
121.5832165957
 30
0.0
 11
417.7179782429
 21
121.5832165957
 31
0.0
  0
LINE
  5
25F
330
208
100
AcDbEntity
  8
0
  6
Continuous
 62
     9
100
AcDbLine
 10
-156.0125609204
 20
126.0832165957
 30
0.0
 11
-132.0762503911
 21
126.0832165957
 31
0.0
  0
LINE
  5
260
330
208
100
AcDbEntity
  8
0
  6
Continuous
 62
     9
100
AcDbLine
 10
10.512206877
 20
126.0832165957
 30
0.0
 11
32.9237496089
 21
126.0832165957
 31
0.0
  0
LINE
  5
261
330
208
100
AcDbEntity
  8
0
  6
Continuous
 62
     9
100
AcDbLine
 10
231.512206877
 20
126.0832165957
 30
0.0
 11
253.9237496089
 21
126.0832165957
 31
0.0
  0
LINE
  5
262
330
208
100
AcDbEntity
  8
0
  6
Continuous
 62
     9
100
AcDbLine
 10
396.512206877
 20
126.0832165957
 30
0.0
 11
420.4485174062999
 21
126.0832165957
 31
0.0
  0
LINE
  5
263
330
208
100
AcDbEntity
  8
RUNDUNGEN
  6
Continuous
 62
     7
100
AcDbLine
 10
415.6395511182
 20
127.0832165957
 30
0.0
 11
414.4679782428998
 21
127.0832165957
 31
0.0
  0
LINE
  5
264
330
208
100
AcDbEntity
  8
0
  6
Continuous
 62
     7
100
AcDbLine
 10
-154.2820217571
 20
127.0832165957
 30
0.0
 11
-151.2035946323
 21
127.0832165957
 31
0.0
  0
LINE
  5
265
330
208
100
AcDbEntity
  8
0
  6
Continuous
 62
     7
100
AcDbLine
 10
414.4679782428998
 20
127.0832165957
 30
0.0
 11
-150.0320217570999
 21
127.0832165957
 31
0.0
  0
LINE
  5
266
330
208
100
AcDbEntity
  8
RUNDUNGEN
  6
Continuous
 62
     7
100
AcDbLine
 10
-150.0320217570999
 20
127.0832165957
 30
0.0
 11
-151.2035946323
 21
127.0832165957
 31
0.0
  0
LINE
  5
267
330
208
100
AcDbEntity
  8
0
  6
Continuous
 62
     7
100
AcDbLine
 10
415.6395511182
 20
127.0832165957
 30
0.0
 11
418.7179782429
 21
127.0832165957
 31
0.0
  0
LINE
  5
268
330
208
100
AcDbEntity
  8
0
  6
Continuous
 62
     7
100
AcDbLine
 10
-149.7820217571
 20
127.8332165957
 30
0.0
 11
-150.7820217571
 21
127.8332165957
 31
0.0
  0
LINE
  5
269
330
208
100
AcDbEntity
  8
0
  6
Continuous
 62
     7
100
AcDbLine
 10
414.2179782429
 20
127.8332165957
 30
0.0
 11
415.2179782429
 21
127.8332165957
 31
0.0
  0
LINE
  5
26A
330
208
100
AcDbEntity
  8
0
  6
Continuous
 62
     0
100
AcDbLine
 10
414.4679782428998
 20
128.0832165957
 30
0.0
 11
413.4679782429
 21
128.0832165957
 31
0.0
  0
LINE
  5
26B
330
208
100
AcDbEntity
  8
0
  6
Continuous
 62
     0
100
AcDbLine
 10
-154.2820217571
 20
128.0832165957
 30
0.0
 11
-151.2035946323
 21
128.0832165957
 31
0.0
  0
LINE
  5
26C
330
208
100
AcDbEntity
  8
RUNDUNGEN
  6
Continuous
 62
     0
100
AcDbLine
 10
-151.2035946323
 20
128.0832165957
 30
0.0
 11
-150.7820217571
 21
128.0832165957
 31
0.0
  0
LINE
  5
26D
330
208
100
AcDbEntity
  8
0
  6
Continuous
 62
     0
100
AcDbLine
 10
-149.0320217570999
 20
128.0832165957
 30
0.0
 11
-150.0320217570999
 21
128.0832165957
 31
0.0
  0
LINE
  5
26E
330
208
100
AcDbEntity
  8
RUNDUNGEN
  6
Continuous
 62
     0
100
AcDbLine
 10
415.2179782429
 20
128.0832165957
 30
0.0
 11
415.6395511182
 21
128.0832165957
 31
0.0
  0
LINE
  5
26F
330
208
100
AcDbEntity
  8
0
  6
Continuous
 62
     0
100
AcDbLine
 10
415.6395511182
 20
128.0832165957
 30
0.0
 11
418.7179782429
 21
128.0832165957
 31
0.0
  0
LINE
  5
270
330
208
100
AcDbEntity
  8
0
  6
Continuous
 62
     7
100
AcDbLine
 10
-149.0320217570999
 20
128.8332165957
 30
0.0
 11
-150.7820217571
 21
128.8332165957
 31
0.0
  0
LINE
  5
271
330
208
100
AcDbEntity
  8
0
  6
Continuous
 62
     7
100
AcDbLine
 10
413.4679782429
 20
128.8332165957
 30
0.0
 11
415.2179782429
 21
128.8332165957
 31
0.0
  0
LINE
  5
272
330
208
100
AcDbEntity
  8
0
  6
Continuous
 62
     7
100
AcDbLine
 10
-148.7820217571
 20
129.0832165957
 30
0.0
 11
413.2179782429
 21
129.0832165957
 31
0.0
  0
LINE
  5
273
330
208
100
AcDbEntity
  8
0
  6
Continuous
 62
     9
100
AcDbLine
 10
412.4679782429
 20
129.8332165957
 30
0.0
 11
-148.0320217571
 21
129.8332165957
 31
0.0
  0
LINE
  5
274
330
208
100
AcDbEntity
  8
TEIL_STARTBEZUEGE
  6
CENTER
 62
     2
100
AcDbLine
 10
132.2179782429
 20
153.0832165957
 30
0.0
 11
132.2179782429
 21
145.7676487895
 31
0.0
  0
LINE
  5
275
330
208
100
AcDbEntity
  8
TEIL_STARTBEZUEGE
  6
CENTER
 62
     2
100
AcDbLine
 10
132.2179782429
 20
153.0832165957
 30
0.0
 11
132.2179782429
 21
160.2667386897
 31
0.0
  0
LINE
  5
276
330
208
100
AcDbEntity
  8
BEZUGSACHSEN
  6
CENTER
 62
     2
100
AcDbLine
 10
302.2179782429
 20
153.0832165957
 30
0.0
 11
294.2179782429
 21
153.0832165957
 31
0.0
  0
LINE
  5
277
330
208
100
AcDbEntity
  8
TEIL_STARTBEZUEGE
  6
CENTER
 62
     2
100
AcDbLine
 10
132.2179782429
 20
153.0832165957
 30
0.0
 11
124.1747869944
 21
153.0832165957
 31
0.0
  0
LINE
  5
278
330
208
100
AcDbEntity
  8
BEZUGSACHSEN
  6
CENTER
 62
     2
100
AcDbLine
 10
-37.7820217571
 20
153.0832165957
 30
0.0
 11
-29.7820217571
 21
153.0832165957
 31
0.0
  0
LINE
  5
279
330
208
100
AcDbEntity
  8
BEZUGSACHSEN
  6
CENTER
 62
     2
100
AcDbLine
 10
-37.7820217571
 20
153.0832165957
 30
0.0
 11
-45.78202175709999
 21
153.0832165957
 31
0.0
  0
LINE
  5
27A
330
208
100
AcDbEntity
  8
TEIL_STARTBEZUEGE
  6
CENTER
 62
     2
100
AcDbLine
 10
132.2179782429
 20
153.0832165957
 30
0.0
 11
138.7703860683
 21
153.0832165957
 31
0.0
  0
LINE
  5
27B
330
208
100
AcDbEntity
  8
BEZUGSACHSEN
  6
CENTER
 62
     2
100
AcDbLine
 10
302.2179782429
 20
153.0832165957
 30
0.0
 11
310.2179782429
 21
153.0832165957
 31
0.0
  0
LINE
  5
27C
330
208
100
AcDbEntity
  8
0
  6
Continuous
 62
     9
100
AcDbLine
 10
-148.0320217571
 20
176.3332165957
 30
0.0
 11
412.4679782429
 21
176.3332165957
 31
0.0
  0
LINE
  5
27D
330
208
100
AcDbEntity
  8
0
  6
Continuous
 62
     7
100
AcDbLine
 10
413.2179782429
 20
177.0832165957
 30
0.0
 11
-148.7820217571
 21
177.0832165957
 31
0.0
  0
LINE
  5
27E
330
208
100
AcDbEntity
  8
0
  6
Continuous
 62
     7
100
AcDbLine
 10
-149.0320217570999
 20
177.3332165957
 30
0.0
 11
-150.7820217571
 21
177.3332165957
 31
0.0
  0
LINE
  5
27F
330
208
100
AcDbEntity
  8
0
  6
Continuous
 62
     7
100
AcDbLine
 10
413.4679782429
 20
177.3332165957
 30
0.0
 11
415.2179782429
 21
177.3332165957
 31
0.0
  0
LINE
  5
280
330
208
100
AcDbEntity
  8
0
  6
Continuous
 62
     0
100
AcDbLine
 10
418.7179782429
 20
178.0832165957
 30
0.0
 11
415.6395511182
 21
178.0832165957
 31
0.0
  0
LINE
  5
281
330
208
100
AcDbEntity
  8
RUNDUNGEN
  6
Continuous
 62
     0
100
AcDbLine
 10
415.6395511182
 20
178.0832165957
 30
0.0
 11
415.2179782429
 21
178.0832165957
 31
0.0
  0
LINE
  5
282
330
208
100
AcDbEntity
  8
0
  6
Continuous
 62
     0
100
AcDbLine
 10
-150.0320217570999
 20
178.0832165957
 30
0.0
 11
-149.0320217570999
 21
178.0832165957
 31
0.0
  0
LINE
  5
283
330
208
100
AcDbEntity
  8
RUNDUNGEN
  6
Continuous
 62
     0
100
AcDbLine
 10
-150.7820217571
 20
178.0832165957
 30
0.0
 11
-151.2035946323
 21
178.0832165957
 31
0.0
  0
LINE
  5
284
330
208
100
AcDbEntity
  8
0
  6
Continuous
 62
     0
100
AcDbLine
 10
-151.2035946323
 20
178.0832165957
 30
0.0
 11
-154.2820217571
 21
178.0832165957
 31
0.0
  0
LINE
  5
285
330
208
100
AcDbEntity
  8
0
  6
Continuous
 62
     0
100
AcDbLine
 10
413.4679782429
 20
178.0832165957
 30
0.0
 11
414.4679782428998
 21
178.0832165957
 31
0.0
  0
LINE
  5
286
330
208
100
AcDbEntity
  8
0
  6
Continuous
 62
     7
100
AcDbLine
 10
-149.7820217571
 20
178.3332165957
 30
0.0
 11
-150.7820217571
 21
178.3332165957
 31
0.0
  0
LINE
  5
287
330
208
100
AcDbEntity
  8
0
  6
Continuous
 62
     7
100
AcDbLine
 10
414.2179782429
 20
178.3332165957
 30
0.0
 11
415.2179782429
 21
178.3332165957
 31
0.0
  0
LINE
  5
288
330
208
100
AcDbEntity
  8
0
  6
Continuous
 62
     7
100
AcDbLine
 10
418.7179782429
 20
179.0832165957
 30
0.0
 11
415.6395511182
 21
179.0832165957
 31
0.0
  0
LINE
  5
289
330
208
100
AcDbEntity
  8
RUNDUNGEN
  6
Continuous
 62
     7
100
AcDbLine
 10
-151.2035946323
 20
179.0832165957
 30
0.0
 11
-150.0320217570999
 21
179.0832165957
 31
0.0
  0
LINE
  5
28A
330
208
100
AcDbEntity
  8
0
  6
Continuous
 62
     7
100
AcDbLine
 10
-151.2035946323
 20
179.0832165957
 30
0.0
 11
-154.2820217571
 21
179.0832165957
 31
0.0
  0
LINE
  5
28B
330
208
100
AcDbEntity
  8
0
  6
Continuous
 62
     7
100
AcDbLine
 10
-150.0320217570999
 20
179.0832165957
 30
0.0
 11
414.4679782428998
 21
179.0832165957
 31
0.0
  0
LINE
  5
28C
330
208
100
AcDbEntity
  8
RUNDUNGEN
  6
Continuous
 62
     7
100
AcDbLine
 10
414.4679782428998
 20
179.0832165957
 30
0.0
 11
415.6395511182
 21
179.0832165957
 31
0.0
  0
LINE
  5
28D
330
208
100
AcDbEntity
  8
0
  6
Continuous
 62
     9
100
AcDbLine
 10
420.4485174062999
 20
180.0832165957
 30
0.0
 11
396.512206877
 21
180.0832165957
 31
0.0
  0
LINE
  5
28E
330
208
100
AcDbEntity
  8
0
  6
Continuous
 62
     9
100
AcDbLine
 10
253.9237496089
 20
180.0832165957
 30
0.0
 11
231.512206877
 21
180.0832165957
 31
0.0
  0
LINE
  5
28F
330
208
100
AcDbEntity
  8
0
  6
Continuous
 62
     9
100
AcDbLine
 10
32.9237496089
 20
180.0832165957
 30
0.0
 11
10.512206877
 21
180.0832165957
 31
0.0
  0
LINE
  5
290
330
208
100
AcDbEntity
  8
0
  6
Continuous
 62
     9
100
AcDbLine
 10
-132.0762503911
 20
180.0832165957
 30
0.0
 11
-156.0125609204
 21
180.0832165957
 31
0.0
  0
LINE
  5
291
330
208
100
AcDbEntity
  8
RUNDUNGEN
  6
Continuous
 62
     7
100
AcDbLine
 10
417.7179782429
 20
184.5832165957
 30
0.0
 11
400.7872861949
 21
184.5832165957
 31
0.0
  0
LINE
  5
292
330
208
100
AcDbEntity
  8
RUNDUNGEN
  6
Continuous
 62
     7
100
AcDbLine
 10
249.648670291
 20
184.5832165957
 30
0.0
 11
235.7872861949
 21
184.5832165957
 31
0.0
  0
LINE
  5
293
330
208
100
AcDbEntity
  8
RUNDUNGEN
  6
Continuous
 62
     7
100
AcDbLine
 10
28.648670291
 20
184.5832165957
 30
0.0
 11
14.7872861949
 21
184.5832165957
 31
0.0
  0
LINE
  5
294
330
208
100
AcDbEntity
  8
RUNDUNGEN
  6
Continuous
 62
     7
100
AcDbLine
 10
-136.351329709
 20
184.5832165957
 30
0.0
 11
-153.2820217571
 21
184.5832165957
 31
0.0
  0
LINE
  5
295
330
208
100
AcDbEntity
  8
0
  6
Continuous
 62
     7
100
AcDbLine
 10
231.9235828897
 20
181.6184927761
 30
0.0
 11
231.512206877
 21
180.0832165957
 31
0.0
  0
LINE
  5
296
330
208
100
AcDbEntity
  8
0
  6
Continuous
 62
     7
100
AcDbLine
 10
231.9235828897
 20
124.5479404153
 30
0.0
 11
231.512206877
 21
126.0832165957
 31
0.0
  0
LINE
  5
297
330
208
100
AcDbEntity
  8
0
  6
Continuous
 62
     7
100
AcDbLine
 10
253.9237496089
 20
126.0832165957
 30
0.0
 11
253.5123735962
 21
124.5479404153
 31
0.0
  0
LINE
  5
298
330
208
100
AcDbEntity
  8
0
  6
Continuous
 62
     7
100
AcDbLine
 10
253.9237496089
 20
180.0832165957
 30
0.0
 11
253.5123735962
 21
181.6184927761
 31
0.0
  0
LINE
  5
299
330
208
100
AcDbEntity
  8
BEZUGSACHSEN
  6
CENTER
 62
     2
100
AcDbLine
 10
302.2179782429
 20
153.0832165957
 30
0.0
 11
302.2179782429
 21
145.0832165957
 31
0.0
  0
LINE
  5
29A
330
208
100
AcDbEntity
  8
BEZUGSACHSEN
  6
CENTER
 62
     2
100
AcDbLine
 10
302.2179782429
 20
153.0832165957
 30
0.0
 11
302.2179782429
 21
161.0832165957
 31
0.0
  0
LINE
  5
29B
330
208
100
AcDbEntity
  8
0
  6
Continuous
 62
     7
100
AcDbLine
 10
396.512206877
 20
180.0832165957
 30
0.0
 11
396.9235828897
 21
181.6184927761
 31
0.0
  0
LINE
  5
29C
330
208
100
AcDbEntity
  8
0
  6
Continuous
 62
     7
100
AcDbLine
 10
396.512206877
 20
126.0832165957
 30
0.0
 11
396.9235828897
 21
124.5479404153
 31
0.0
  0
LINE
  5
29D
330
208
100
AcDbEntity
  8
0
  6
Continuous
 62
     9
100
AcDbLine
 10
412.4679782429
 20
129.8332165957
 30
0.0
 11
412.4679782429
 21
176.3332165957
 31
0.0
  0
LINE
  5
29E
330
208
100
AcDbEntity
  8
0
  6
Continuous
 62
     7
100
AcDbLine
 10
413.2179782429
 20
129.0832165957
 30
0.0
 11
413.2179782429
 21
177.0832165957
 31
0.0
  0
LINE
  5
29F
330
208
100
AcDbEntity
  8
0
  6
Continuous
 62
     7
100
AcDbLine
 10
413.4679782429
 20
128.8332165957
 30
0.0
 11
413.4679782429
 21
127.0832165957
 31
0.0
  0
LINE
  5
2A0
330
208
100
AcDbEntity
  8
0
  6
Continuous
 62
     7
100
AcDbLine
 10
413.4679782429
 20
177.3332165957
 30
0.0
 11
413.4679782429
 21
179.0832165957
 31
0.0
  0
LINE
  5
2A1
330
208
100
AcDbEntity
  8
0
  6
Continuous
 62
     0
100
AcDbLine
 10
414.2179782429
 20
178.3332165957
 30
0.0
 11
414.2179782429
 21
177.3332165957
 31
0.0
  0
LINE
  5
2A2
330
208
100
AcDbEntity
  8
0
  6
Continuous
 62
     0
100
AcDbLine
 10
414.2179782429
 20
128.8332165957
 30
0.0
 11
414.2179782429
 21
127.8332165957
 31
0.0
  0
LINE
  5
2A3
330
208
100
AcDbEntity
  8
0
  6
Continuous
 62
     7
100
AcDbLine
 10
414.4679782428998
 20
128.0832165957
 30
0.0
 11
414.4679782428998
 21
127.0832165957
 31
0.0
  0
LINE
  5
2A4
330
208
100
AcDbEntity
  8
0
  6
Continuous
 62
     7
100
AcDbLine
 10
414.4679782428998
 20
178.0832165957
 30
0.0
 11
414.4679782428998
 21
179.0832165957
 31
0.0
  0
LINE
  5
2A5
330
208
100
AcDbEntity
  8
0
  6
Continuous
 62
     7
100
AcDbLine
 10
415.2179782429
 20
127.8332165957
 30
0.0
 11
415.2179782429
 21
178.3332165957
 31
0.0
  0
LINE
  5
2A6
330
208
100
AcDbEntity
  8
RUNDUNGEN
  6
Continuous
 62
     9
100
AcDbLine
 10
415.6395511182
 20
128.0832165957
 30
0.0
 11
415.6395511182
 21
127.0832165957
 31
0.0
  0
LINE
  5
2A7
330
208
100
AcDbEntity
  8
RUNDUNGEN
  6
Continuous
 62
     9
100
AcDbLine
 10
415.6395511182
 20
178.0832165957
 30
0.0
 11
415.6395511182
 21
179.0832165957
 31
0.0
  0
LINE
  5
2A8
330
208
100
AcDbEntity
  8
0
  6
Continuous
 62
     7
100
AcDbLine
 10
418.7179782429
 20
179.0832165957
 30
0.0
 11
418.7179782429
 21
178.0832165957
 31
0.0
  0
LINE
  5
2A9
330
208
100
AcDbEntity
  8
0
  6
Continuous
 62
     7
100
AcDbLine
 10
418.7179782429
 20
127.0832165957
 30
0.0
 11
418.7179782429
 21
128.0832165957
 31
0.0
  0
LINE
  5
2AA
330
208
100
AcDbEntity
  8
0
  6
Continuous
 62
     9
100
AcDbLine
 10
419.8393044851997
 20
179.4465682665
 30
0.0
 11
419.8393044851997
 21
178.8099644429
 31
0.0
  0
LINE
  5
2AB
330
208
100
AcDbEntity
  8
0
  6
Continuous
 62
     9
100
AcDbLine
 10
419.8393017489998
 20
127.3564498108
 30
0.0
 11
419.8393017489998
 21
126.7198443294
 31
0.0
  0
LINE
  5
2AC
330
208
100
AcDbEntity
  8
RUNDUNGEN
  6
Continuous
 62
     7
100
AcDbLine
 10
420.7179782428998
 20
181.5832165957
 30
0.0
 11
420.7179782428998
 21
181.3258572828
 31
0.0
  0
LINE
  5
2AD
330
208
100
AcDbEntity
  8
RUNDUNGEN
  6
Continuous
 62
     7
100
AcDbLine
 10
420.7179782428998
 20
124.8405759086
 30
0.0
 11
420.7179782428998
 21
124.5832165957
 31
0.0
  0
LINE
  5
2AE
330
208
100
AcDbEntity
  8
RUNDUNGEN
  6
Continuous
 62
     7
100
AcDbLine
 10
-156.2820217570999
 20
238.2549251557
 30
0.0
 11
-156.2820217570999
 21
239.2549251557
 31
0.0
  0
LINE
  5
2AF
330
208
100
AcDbEntity
  8
RUNDUNGEN
  6
Continuous
 62
     9
100
AcDbLine
 10
-153.2820217571
 20
238.2549251557
 30
0.0
 11
-153.2820217571
 21
239.2549251557
 31
0.0
  0
LINE
  5
2B0
330
208
100
AcDbEntity
  8
0
  6
Continuous
 62
     7
100
AcDbLine
 10
-150.7820217571
 20
246.2549251557
 30
0.0
 11
-150.7820217571
 21
252.2549251557
 31
0.0
  0
LINE
  5
2B1
330
208
100
AcDbEntity
  8
RUNDUNGEN
  6
Continuous
 62
     7
100
AcDbLine
 10
-150.0320217570999
 20
252.2549251557
 30
0.0
 11
-150.0320217570999
 21
246.1617794052
 31
0.0
  0
LINE
  5
2B2
330
208
100
AcDbEntity
  8
0
  6
Continuous
 62
     7
100
AcDbLine
 10
-149.0320217570999
 20
253.2548443348
 30
0.0
 11
-149.0320217570999
 21
252.2549251557
 31
0.0
  0
LINE
  5
2B3
330
208
100
AcDbEntity
  8
RUNDUNGEN
  6
Continuous
 62
     9
100
AcDbLine
 10
-136.351329709
 20
238.2549251557
 30
0.0
 11
-136.351329709
 21
239.2549251557
 31
0.0
  0
LINE
  5
2B4
330
208
100
AcDbEntity
  8
RUNDUNGEN
  6
Continuous
 62
     9
100
AcDbLine
 10
-132.4876264038
 20
238.2549251557
 30
0.0
 11
-132.4876264038
 21
239.2549251557
 31
0.0
  0
LINE
  5
2B5
330
208
100
AcDbEntity
  8
0
  6
Continuous
 62
     7
100
AcDbLine
 10
-132.0762503911
 20
239.2549251557
 30
0.0
 11
-132.0762503911
 21
238.2549251557
 31
0.0
  0
LINE
  5
2B6
330
208
100
AcDbEntity
  8
0
  6
Continuous
 62
     9
100
AcDbLine
 10
-132.0681001219
 20
239.2552104993
 30
0.0
 11
-132.0681001219
 21
238.2554958428
 31
0.0
  0
LINE
  5
2B7
330
208
100
AcDbEntity
  8
0
  6
Continuous
 62
     9
100
AcDbLine
 10
-131.0173070691
 20
239.9593780934
 30
0.0
 11
-131.0173070691
 21
239.663831031
 31
0.0
  0
LINE
  5
2B8
330
208
100
AcDbEntity
  8
0
  6
Continuous
 62
     7
100
AcDbLine
 10
-154.2820217571
 20
240.2549251557
 30
0.0
 11
-151.2035946323
 21
243.3333522804
 31
0.0
  0
LINE
  5
2B9
330
208
100
AcDbEntity
  8
0
  6
Continuous
 62
     7
100
AcDbLine
 10
-130.5283595665
 20
240.2549251557
 30
0.0
 11
-125.8539576698
 21
243.9069681701
 31
0.0
  0
LINE
  5
2BA
330
208
100
AcDbEntity
  8
0
  6
Continuous
 62
     9
100
AcDbLine
 10
9.453263554999999
 20
239.9593780934
 30
0.0
 11
9.453263554999999
 21
239.663831031
 31
0.0
  0
LINE
  5
2BB
330
208
100
AcDbEntity
  8
0
  6
Continuous
 62
     9
100
AcDbLine
 10
10.5040566078
 20
239.2552104993
 30
0.0
 11
10.5040566078
 21
238.2554958428
 31
0.0
  0
LINE
  5
2BC
330
208
100
AcDbEntity
  8
0
  6
Continuous
 62
     7
100
AcDbLine
 10
10.512206877
 20
239.2549251557
 30
0.0
 11
10.512206877
 21
238.2549251557
 31
0.0
  0
LINE
  5
2BD
330
208
100
AcDbEntity
  8
RUNDUNGEN
  6
Continuous
 62
     9
100
AcDbLine
 10
10.9235828897
 20
239.2549251557
 30
0.0
 11
10.9235828897
 21
238.2549251557
 31
0.0
  0
LINE
  5
2BE
330
208
100
AcDbEntity
  8
RUNDUNGEN
  6
Continuous
 62
     9
100
AcDbLine
 10
14.7872861949
 20
239.2549251557
 30
0.0
 11
14.7872861949
 21
238.2549251557
 31
0.0
  0
LINE
  5
2BF
330
208
100
AcDbEntity
  8
RUNDUNGEN
  6
Continuous
 62
     9
100
AcDbLine
 10
28.648670291
 20
238.2549251557
 30
0.0
 11
28.648670291
 21
239.2549251557
 31
0.0
  0
LINE
  5
2C0
330
208
100
AcDbEntity
  8
RUNDUNGEN
  6
Continuous
 62
     9
100
AcDbLine
 10
32.5123735962
 20
238.2549251557
 30
0.0
 11
32.5123735962
 21
239.2549251557
 31
0.0
  0
LINE
  5
2C1
330
208
100
AcDbEntity
  8
0
  6
Continuous
 62
     7
100
AcDbLine
 10
32.9237496089
 20
239.2549251557
 30
0.0
 11
32.9237496089
 21
238.2549251557
 31
0.0
  0
LINE
  5
2C2
330
208
100
AcDbEntity
  8
0
  6
Continuous
 62
     9
100
AcDbLine
 10
32.9318998781
 20
239.2552104993
 30
0.0
 11
32.9318998781
 21
238.2554958428
 31
0.0
  0
LINE
  5
2C3
330
208
100
AcDbEntity
  8
0
  6
Continuous
 62
     9
100
AcDbLine
 10
33.9826929309
 20
239.9593780934
 30
0.0
 11
33.9826929309
 21
239.663831031
 31
0.0
  0
LINE
  5
2C4
330
208
100
AcDbEntity
  8
0
  6
Continuous
 62
     7
100
AcDbLine
 10
8.9643160524
 20
240.2549251557
 30
0.0
 11
4.2899141557
 21
243.9069681701
 31
0.0
  0
LINE
  5
2C5
330
208
100
AcDbEntity
  8
0
  6
Continuous
 62
     7
100
AcDbLine
 10
34.4716404335
 20
240.2549251557
 30
0.0
 11
39.1460423302
 21
243.9069681701
 31
0.0
  0
LINE
  5
2C6
330
208
100
AcDbEntity
  8
0
  6
Continuous
 62
     7
100
AcDbLine
 10
253.9251079871
 20
239.2549330823
 30
0.0
 11
253.9237496089
 21
239.2549251557
 31
0.0
  0
LINE
  5
2C7
330
208
100
AcDbEntity
  8
0
  6
Continuous
 62
     7
100
AcDbLine
 10
32.9237496089
 20
239.2549251557
 30
0.0
 11
32.9251079871
 21
239.2549330823
 31
0.0
  0
LINE
  5
2C8
330
208
100
AcDbEntity
  8
0
  6
Continuous
 62
     7
100
AcDbLine
 10
-132.0762503911
 20
239.2549251557
 30
0.0
 11
-132.0748920129
 21
239.2549330823
 31
0.0
  0
LINE
  5
2C9
330
208
100
AcDbEntity
  8
0
  6
Continuous
 62
     0
100
AcDbLine
 10
253.9237496089
 20
238.2549251557
 30
0.0
 11
253.5123735962
 21
238.2549251557
 31
0.0
  0
LINE
  5
2CA
330
208
100
AcDbEntity
  8
0
  6
Continuous
 62
     0
100
AcDbLine
 10
231.9235828897
 20
238.2549251557
 30
0.0
 11
231.512206877
 21
238.2549251557
 31
0.0
  0
LINE
  5
2CB
330
208
100
AcDbEntity
  8
0
  6
Continuous
 62
     0
100
AcDbLine
 10
-132.4876264038
 20
238.2549251557
 30
0.0
 11
-132.0762503911
 21
238.2549251557
 31
0.0
  0
LINE
  5
2CC
330
208
100
AcDbEntity
  8
0
  6
Continuous
 62
     0
100
AcDbLine
 10
10.512206877
 20
238.2549251557
 30
0.0
 11
10.9235828897
 21
238.2549251557
 31
0.0
  0
LINE
  5
2CD
330
208
100
AcDbEntity
  8
RUNDUNGEN
  6
Continuous
 62
     0
100
AcDbLine
 10
10.9235828897
 20
238.2549251557
 30
0.0
 11
32.5123735962
 21
238.2549251557
 31
0.0
  0
LINE
  5
2CE
330
208
100
AcDbEntity
  8
0
  6
Continuous
 62
     0
100
AcDbLine
 10
32.5123735962
 20
238.2549251557
 30
0.0
 11
32.9237496089
 21
238.2549251557
 31
0.0
  0
LINE
  5
2CF
330
208
100
AcDbEntity
  8
RUNDUNGEN
  6
Continuous
 62
     0
100
AcDbLine
 10
-132.4876264038
 20
238.2549251557
 30
0.0
 11
-156.2820217570999
 21
238.2549251557
 31
0.0
  0
LINE
  5
2D0
330
208
100
AcDbEntity
  8
RUNDUNGEN
  6
Continuous
 62
     0
100
AcDbLine
 10
231.9235828897
 20
238.2549251557
 30
0.0
 11
253.5123735962
 21
238.2549251557
 31
0.0
  0
LINE
  5
2D1
330
208
100
AcDbEntity
  8
0
  6
Continuous
 62
     0
100
AcDbLine
 10
396.512206877
 20
238.2549251557
 30
0.0
 11
396.9235828897
 21
238.2549251557
 31
0.0
  0
LINE
  5
2D2
330
208
100
AcDbEntity
  8
RUNDUNGEN
  6
Continuous
 62
     0
100
AcDbLine
 10
396.9235828897
 20
238.2549251557
 30
0.0
 11
420.7179782428998
 21
238.2549251557
 31
0.0
  0
LINE
  5
2D3
330
208
100
AcDbEntity
  8
0
  6
Continuous
 62
     7
100
AcDbLine
 10
253.9237496089
 20
239.2549251557
 30
0.0
 11
253.5123735962
 21
239.2549251557
 31
0.0
  0
LINE
  5
2D4
330
208
100
AcDbEntity
  8
0
  6
Continuous
 62
     7
100
AcDbLine
 10
231.9235828897
 20
239.2549251557
 30
0.0
 11
231.512206877
 21
239.2549251557
 31
0.0
  0
LINE
  5
2D5
330
208
100
AcDbEntity
  8
RUNDUNGEN
  6
Continuous
 62
     7
100
AcDbLine
 10
-156.2820217570999
 20
239.2549251557
 30
0.0
 11
-132.4876264038
 21
239.2549251557
 31
0.0
  0
LINE
  5
2D6
330
208
100
AcDbEntity
  8
0
  6
Continuous
 62
     7
100
AcDbLine
 10
-132.4876264038
 20
239.2549251557
 30
0.0
 11
-132.0762503911
 21
239.2549251557
 31
0.0
  0
LINE
  5
2D7
330
208
100
AcDbEntity
  8
0
  6
Continuous
 62
     7
100
AcDbLine
 10
10.512206877
 20
239.2549251557
 30
0.0
 11
10.9235828897
 21
239.2549251557
 31
0.0
  0
LINE
  5
2D8
330
208
100
AcDbEntity
  8
RUNDUNGEN
  6
Continuous
 62
     7
100
AcDbLine
 10
10.9235828897
 20
239.2549251557
 30
0.0
 11
32.5123735962
 21
239.2549251557
 31
0.0
  0
LINE
  5
2D9
330
208
100
AcDbEntity
  8
0
  6
Continuous
 62
     7
100
AcDbLine
 10
32.5123735962
 20
239.2549251557
 30
0.0
 11
32.9237496089
 21
239.2549251557
 31
0.0
  0
LINE
  5
2DA
330
208
100
AcDbEntity
  8
RUNDUNGEN
  6
Continuous
 62
     7
100
AcDbLine
 10
231.9235828897
 20
239.2549251557
 30
0.0
 11
253.5123735962
 21
239.2549251557
 31
0.0
  0
LINE
  5
2DB
330
208
100
AcDbEntity
  8
0
  6
Continuous
 62
     7
100
AcDbLine
 10
396.512206877
 20
239.2549251557
 30
0.0
 11
396.9235828897
 21
239.2549251557
 31
0.0
  0
LINE
  5
2DC
330
208
100
AcDbEntity
  8
RUNDUNGEN
  6
Continuous
 62
     7
100
AcDbLine
 10
396.9235828897
 20
239.2549251557
 30
0.0
 11
420.7179782428998
 21
239.2549251557
 31
0.0
  0
LINE
  5
2DD
330
208
100
AcDbEntity
  8
0
  6
Continuous
 62
     9
100
AcDbLine
 10
-154.2820217571
 20
240.2549251557
 30
0.0
 11
-130.5283595665
 21
240.2549251557
 31
0.0
  0
LINE
  5
2DE
330
208
100
AcDbEntity
  8
0
  6
Continuous
 62
     9
100
AcDbLine
 10
8.9643160524
 20
240.2549251557
 30
0.0
 11
34.4716404335
 21
240.2549251557
 31
0.0
  0
LINE
  5
2DF
330
208
100
AcDbEntity
  8
0
  6
Continuous
 62
     9
100
AcDbLine
 10
229.9643160524
 20
240.2549251557
 30
0.0
 11
255.4716404335
 21
240.2549251557
 31
0.0
  0
LINE
  5
2E0
330
208
100
AcDbEntity
  8
0
  6
Continuous
 62
     9
100
AcDbLine
 10
394.9643160524
 20
240.2549251557
 30
0.0
 11
418.7179782429
 21
240.2549251557
 31
0.0
  0
LINE
  5
2E1
330
208
100
AcDbEntity
  8
0
  6
Continuous
 62
     0
100
AcDbLine
 10
392.404432788
 20
242.2549251557
 30
0.0
 11
258.0315236979
 21
242.2549251557
 31
0.0
  0
LINE
  5
2E2
330
208
100
AcDbEntity
  8
0
  6
Continuous
 62
     0
100
AcDbLine
 10
-127.9684763021
 20
242.2549251557
 30
0.0
 11
6.404432787999999
 21
242.2549251557
 31
0.0
  0
LINE
  5
2E3
330
208
100
AcDbEntity
  8
0
  6
Continuous
 62
     0
100
AcDbLine
 10
227.404432788
 20
242.2549251557
 30
0.0
 11
37.0315236979
 21
242.2549251557
 31
0.0
  0
LINE
  5
2E4
330
208
100
AcDbEntity
  8
0
  6
Continuous
 62
     9
100
AcDbLine
 10
-125.8539576697854
 20
243.9069681701113
 30
0.0
 11
4.289914155737056
 21
243.9069681701
 31
0.0
  0
LINE
  5
2E5
330
208
100
AcDbEntity
  8
0
  6
Continuous
 62
     9
100
AcDbLine
 10
39.14604233019737
 20
243.9069681701269
 30
0.0
 11
225.289914155737
 21
243.9069681701
 31
0.0
  0
LINE
  5
2E6
330
208
100
AcDbEntity
  8
0
  6
Continuous
 62
     9
100
AcDbLine
 10
260.1460423301974
 20
243.9069681701269
 30
0.0
 11
390.289914155737
 21
243.9069681701
 31
0.0
  0
LINE
  5
2E7
330
208
100
AcDbEntity
  8
RUNDUNGEN
  6
Continuous
 62
     7
100
AcDbLine
 10
-123.3913117685
 20
244.7549251557
 30
0.0
 11
1.8272682544
 21
244.7549251557
 31
0.0
  0
LINE
  5
2E8
330
208
100
AcDbEntity
  8
RUNDUNGEN
  6
Continuous
 62
     7
100
AcDbLine
 10
41.6086882315
 20
244.7549251557
 30
0.0
 11
222.8272682544
 21
244.7549251557
 31
0.0
  0
LINE
  5
2E9
330
208
100
AcDbEntity
  8
RUNDUNGEN
  6
Continuous
 62
     7
100
AcDbLine
 10
262.6086882315
 20
244.7549251557
 30
0.0
 11
387.8272682544
 21
244.7549251557
 31
0.0
  0
LINE
  5
2EA
330
208
100
AcDbEntity
  8
0
  6
Continuous
 62
     7
100
AcDbLine
 10
-150.0320217570999
 20
246.2549251557
 30
0.0
 11
-150.7820217571
 21
246.2549251557
 31
0.0
  0
LINE
  5
2EB
330
208
100
AcDbEntity
  8
0
  6
Continuous
 62
     7
100
AcDbLine
 10
414.4679782428998
 20
246.2549251557
 30
0.0
 11
415.2179782429
 21
246.2549251557
 31
0.0
  0
LINE
  5
2EC
330
208
100
AcDbEntity
  8
0
  6
Continuous
 62
     7
100
AcDbLine
 10
10.512206877
 20
239.2549251557
 30
0.0
 11
10.5108484988
 21
239.2549330823
 31
0.0
  0
LINE
  5
2ED
330
208
100
AcDbEntity
  8
0
  6
Continuous
 62
     7
100
AcDbLine
 10
231.512206877
 20
239.2549251557
 30
0.0
 11
231.5108484988
 21
239.2549330823
 31
0.0
  0
LINE
  5
2EE
330
208
100
AcDbEntity
  8
0
  6
Continuous
 62
     7
100
AcDbLine
 10
396.5108484988
 20
239.2549330823
 30
0.0
 11
396.512206877
 21
239.2549251557
 31
0.0
  0
LINE
  5
2EF
330
208
100
AcDbEntity
  8
0
  6
Continuous
 62
     9
100
AcDbLine
 10
-149.0320217570999
 20
252.2549251557
 30
0.0
 11
413.4679782429
 21
252.2549251557
 31
0.0
  0
LINE
  5
2F0
330
208
100
AcDbEntity
  8
0
  6
Continuous
 62
     7
100
AcDbLine
 10
-149.0320217570999
 20
252.2549251557
 30
0.0
 11
-150.7820217571
 21
252.2549251557
 31
0.0
  0
LINE
  5
2F1
330
208
100
AcDbEntity
  8
0
  6
Continuous
 62
     7
100
AcDbLine
 10
413.4679782429
 20
252.2549251557
 30
0.0
 11
415.2179782429
 21
252.2549251557
 31
0.0
  0
LINE
  5
2F2
330
208
100
AcDbEntity
  8
0
  6
Continuous
 62
     7
100
AcDbLine
 10
-149.0320217570999
 20
253.2549251557
 30
0.0
 11
413.4679782429
 21
253.2549251557
 31
0.0
  0
LINE
  5
2F3
330
208
100
AcDbEntity
  8
0
  6
Continuous
 62
     7
100
AcDbLine
 10
229.9643160524
 20
240.2549251557
 30
0.0
 11
225.2899141557
 21
243.9069681701
 31
0.0
  0
LINE
  5
2F4
330
208
100
AcDbEntity
  8
0
  6
Continuous
 62
     9
100
AcDbLine
 10
230.453263555
 20
239.9593780934
 30
0.0
 11
230.453263555
 21
239.663831031
 31
0.0
  0
LINE
  5
2F5
330
208
100
AcDbEntity
  8
0
  6
Continuous
 62
     7
100
AcDbLine
 10
255.4716404335
 20
240.2549251557
 30
0.0
 11
260.1460423302
 21
243.9069681701
 31
0.0
  0
LINE
  5
2F6
330
208
100
AcDbEntity
  8
0
  6
Continuous
 62
     9
100
AcDbLine
 10
231.5040566078
 20
239.2552104993
 30
0.0
 11
231.5040566078
 21
238.2554958428
 31
0.0
  0
LINE
  5
2F7
330
208
100
AcDbEntity
  8
0
  6
Continuous
 62
     7
100
AcDbLine
 10
231.512206877
 20
238.2549251557
 30
0.0
 11
231.512206877
 21
239.2549251557
 31
0.0
  0
LINE
  5
2F8
330
208
100
AcDbEntity
  8
RUNDUNGEN
  6
Continuous
 62
     9
100
AcDbLine
 10
231.9235828897
 20
239.2549251557
 30
0.0
 11
231.9235828897
 21
238.2549251557
 31
0.0
  0
LINE
  5
2F9
330
208
100
AcDbEntity
  8
RUNDUNGEN
  6
Continuous
 62
     9
100
AcDbLine
 10
235.7872861949
 20
239.2549251557
 30
0.0
 11
235.7872861949
 21
238.2549251557
 31
0.0
  0
LINE
  5
2FA
330
208
100
AcDbEntity
  8
RUNDUNGEN
  6
Continuous
 62
     9
100
AcDbLine
 10
249.648670291
 20
238.2549251557
 30
0.0
 11
249.648670291
 21
239.2549251557
 31
0.0
  0
LINE
  5
2FB
330
208
100
AcDbEntity
  8
RUNDUNGEN
  6
Continuous
 62
     9
100
AcDbLine
 10
253.5123735962
 20
238.2549251557
 30
0.0
 11
253.5123735962
 21
239.2549251557
 31
0.0
  0
LINE
  5
2FC
330
208
100
AcDbEntity
  8
0
  6
Continuous
 62
     7
100
AcDbLine
 10
253.9237496089
 20
239.2549251557
 30
0.0
 11
253.9237496089
 21
238.2549251557
 31
0.0
  0
LINE
  5
2FD
330
208
100
AcDbEntity
  8
0
  6
Continuous
 62
     9
100
AcDbLine
 10
253.9318998781
 20
239.2552104993
 30
0.0
 11
253.9318998781
 21
238.2554958428
 31
0.0
  0
LINE
  5
2FE
330
208
100
AcDbEntity
  8
0
  6
Continuous
 62
     9
100
AcDbLine
 10
254.9826929309
 20
239.9593780934
 30
0.0
 11
254.9826929309
 21
239.663831031
 31
0.0
  0
LINE
  5
2FF
330
208
100
AcDbEntity
  8
0
  6
Continuous
 62
     7
100
AcDbLine
 10
390.2899141557
 20
243.9069681701
 30
0.0
 11
394.9643160524
 21
240.2549251557
 31
0.0
  0
LINE
  5
300
330
208
100
AcDbEntity
  8
0
  6
Continuous
 62
     7
100
AcDbLine
 10
415.6395511182
 20
243.3333522804
 30
0.0
 11
418.7179782429
 21
240.2549251557
 31
0.0
  0
LINE
  5
301
330
208
100
AcDbEntity
  8
0
  6
Continuous
 62
     9
100
AcDbLine
 10
395.453263555
 20
239.9593780934
 30
0.0
 11
395.453263555
 21
239.663831031
 31
0.0
  0
LINE
  5
302
330
208
100
AcDbEntity
  8
0
  6
Continuous
 62
     9
100
AcDbLine
 10
396.5040566078
 20
239.2552104993
 30
0.0
 11
396.5040566078
 21
238.2554958428
 31
0.0
  0
LINE
  5
303
330
208
100
AcDbEntity
  8
0
  6
Continuous
 62
     7
100
AcDbLine
 10
396.512206877
 20
238.2549251557
 30
0.0
 11
396.512206877
 21
239.2549251557
 31
0.0
  0
LINE
  5
304
330
208
100
AcDbEntity
  8
RUNDUNGEN
  6
Continuous
 62
     9
100
AcDbLine
 10
396.9235828897
 20
239.2549251557
 30
0.0
 11
396.9235828897
 21
238.2549251557
 31
0.0
  0
LINE
  5
305
330
208
100
AcDbEntity
  8
RUNDUNGEN
  6
Continuous
 62
     9
100
AcDbLine
 10
400.7872861949
 20
239.2549251557
 30
0.0
 11
400.7872861949
 21
238.2549251557
 31
0.0
  0
LINE
  5
306
330
208
100
AcDbEntity
  8
0
  6
Continuous
 62
     7
100
AcDbLine
 10
413.4679782429
 20
253.2548443348
 30
0.0
 11
413.4679782429
 21
252.2549251557
 31
0.0
  0
LINE
  5
307
330
208
100
AcDbEntity
  8
RUNDUNGEN
  6
Continuous
 62
     7
100
AcDbLine
 10
414.4679782428998
 20
246.1617794052
 30
0.0
 11
414.4679782428998
 21
252.2549251557
 31
0.0
  0
LINE
  5
308
330
208
100
AcDbEntity
  8
0
  6
Continuous
 62
     7
100
AcDbLine
 10
415.2179782429
 20
252.2549251557
 30
0.0
 11
415.2179782429
 21
246.2549251557
 31
0.0
  0
LINE
  5
309
330
208
100
AcDbEntity
  8
RUNDUNGEN
  6
Continuous
 62
     9
100
AcDbLine
 10
417.7179782429
 20
239.2549251557
 30
0.0
 11
417.7179782429
 21
238.2549251557
 31
0.0
  0
LINE
  5
30A
330
208
100
AcDbEntity
  8
RUNDUNGEN
  6
Continuous
 62
     7
100
AcDbLine
 10
420.7179782428998
 20
239.2549251557
 30
0.0
 11
420.7179782428998
 21
238.2549251557
 31
0.0
  0
CIRCLE
  5
30B
330
208
100
AcDbEntity
  8
BEZUGSACHSEN
  6
Continuous
 62
     7
100
AcDbCircle
 10
-37.7820217571
 20
153.0832165957
 30
0.0
 40
5.0
  0
CIRCLE
  5
30C
330
208
100
AcDbEntity
  8
BEZUGSACHSEN
  6
Continuous
 62
     7
100
AcDbCircle
 10
132.2179782429
 20
153.0832165957
 30
0.0
 40
5.0
  0
CIRCLE
  5
30D
330
208
100
AcDbEntity
  8
BEZUGSACHSEN
  6
Continuous
 62
     7
100
AcDbCircle
 10
302.2179782429
 20
153.0832165957
 30
0.0
 40
5.0
  0
ARC
  5
30E
330
208
100
AcDbEntity
  8
RUNDUNGEN
  6
Continuous
 62
     7
100
AcDbCircle
 10
400.7872861949
 20
180.5832165957
 30
0.0
 40
4.0
100
AcDbArc
 50
90.0
 51
165.0
  0
ARC
  5
30F
330
208
100
AcDbEntity
  8
RUNDUNGEN
  6
Continuous
 62
     7
100
AcDbCircle
 10
235.7872861949
 20
180.5832165957
 30
0.0
 40
4.0
100
AcDbArc
 50
90.0
 51
165.0
  0
ARC
  5
310
330
208
100
AcDbEntity
  8
RUNDUNGEN
  6
Continuous
 62
     7
100
AcDbCircle
 10
249.648670291
 20
180.5832165957
 30
0.0
 40
4.0
100
AcDbArc
 50
15.0
 51
90.0
  0
ARC
  5
311
330
208
100
AcDbEntity
  8
RUNDUNGEN
  6
Continuous
 62
     7
100
AcDbCircle
 10
14.7872861949
 20
180.5832165957
 30
0.0
 40
4.0
100
AcDbArc
 50
90.0
 51
165.0
  0
ARC
  5
312
330
208
100
AcDbEntity
  8
RUNDUNGEN
  6
Continuous
 62
     7
100
AcDbCircle
 10
28.648670291
 20
180.5832165957
 30
0.0
 40
4.0
100
AcDbArc
 50
15.0
 51
90.0
  0
ARC
  5
313
330
208
100
AcDbEntity
  8
RUNDUNGEN
  6
Continuous
 62
     7
100
AcDbCircle
 10
-136.351329709
 20
180.5832165957
 30
0.0
 40
4.0
100
AcDbArc
 50
15.0
 51
90.0
  0
ARC
  5
314
330
208
100
AcDbEntity
  8
RUNDUNGEN
  6
Continuous
 62
     7
100
AcDbCircle
 10
-136.351329709
 20
125.5832165957
 30
0.0
 40
4.0
100
AcDbArc
 50
270.0
 51
345.0
  0
ARC
  5
315
330
208
100
AcDbEntity
  8
RUNDUNGEN
  6
Continuous
 62
     7
100
AcDbCircle
 10
28.648670291
 20
125.5832165957
 30
0.0
 40
4.0
100
AcDbArc
 50
270.0
 51
345.0
  0
ARC
  5
316
330
208
100
AcDbEntity
  8
RUNDUNGEN
  6
Continuous
 62
     7
100
AcDbCircle
 10
14.7872861949
 20
125.5832165957
 30
0.0
 40
4.0
100
AcDbArc
 50
195.0
 51
270.0
  0
ARC
  5
317
330
208
100
AcDbEntity
  8
RUNDUNGEN
  6
Continuous
 62
     7
100
AcDbCircle
 10
249.648670291
 20
125.5832165957
 30
0.0
 40
4.0
100
AcDbArc
 50
270.0
 51
345.0
  0
ARC
  5
318
330
208
100
AcDbEntity
  8
RUNDUNGEN
  6
Continuous
 62
     7
100
AcDbCircle
 10
235.7872861949
 20
125.5832165957
 30
0.0
 40
4.0
100
AcDbArc
 50
195.0
 51
270.0
  0
ARC
  5
319
330
208
100
AcDbEntity
  8
RUNDUNGEN
  6
Continuous
 62
     7
100
AcDbCircle
 10
400.7872861949
 20
125.5832165957
 30
0.0
 40
4.0
100
AcDbArc
 50
195.0
 51
270.0
  0
ARC
  5
31A
330
208
100
AcDbEntity
  8
RUNDUNGEN
  6
Continuous
 62
     7
100
AcDbCircle
 10
417.7179782429
 20
181.5832165957
 30
0.0
 40
3.0
100
AcDbArc
 50
0.0
 51
90.0
  0
ARC
  5
31B
330
208
100
AcDbEntity
  8
0
  6
Continuous
 62
     7
100
AcDbCircle
 10
417.7179782429
 20
181.3258572828
 30
0.0
 40
3.0
100
AcDbArc
 50
335.5301994793
 51
360.0
  0
ARC
  5
31C
330
208
100
AcDbEntity
  8
0
  6
Continuous
 62
     7
100
AcDbCircle
 10
-153.2820217571
 20
181.3258572828
 30
0.0
 40
3.0
100
AcDbArc
 50
180.0
 51
204.4698005207
  0
ARC
  5
31D
330
208
100
AcDbEntity
  8
RUNDUNGEN
  6
Continuous
 62
     7
100
AcDbCircle
 10
-153.2820217571
 20
181.5832165957
 30
0.0
 40
3.0
100
AcDbArc
 50
90.0
 51
180.0
  0
ARC
  5
31E
330
208
100
AcDbEntity
  8
RUNDUNGEN
  6
Continuous
 62
     7
100
AcDbCircle
 10
-153.2820217571
 20
124.5832165957
 30
0.0
 40
3.0
100
AcDbArc
 50
180.0
 51
270.0
  0
ARC
  5
31F
330
208
100
AcDbEntity
  8
0
  6
Continuous
 62
     7
100
AcDbCircle
 10
-153.2820217571
 20
124.8405759086
 30
0.0
 40
3.0
100
AcDbArc
 50
155.5301994793
 51
180.0
  0
ARC
  5
320
330
208
100
AcDbEntity
  8
0
  6
Continuous
 62
     7
100
AcDbCircle
 10
417.7179782429
 20
124.8405759086
 30
0.0
 40
3.0
100
AcDbArc
 50
0.0
 51
24.4698005207
  0
ARC
  5
321
330
208
100
AcDbEntity
  8
RUNDUNGEN
  6
Continuous
 62
     7
100
AcDbCircle
 10
417.7179782429
 20
124.5832165957
 30
0.0
 40
3.0
100
AcDbArc
 50
270.0
 51
360.0
  0
ARC
  5
322
330
208
100
AcDbEntity
  8
RUNDUNGEN
  6
Continuous
 62
     7
100
AcDbCircle
 10
387.8272682544
 20
240.7549251557
 30
0.0
 40
4.0
100
AcDbArc
 50
52.0
 51
90.0
  0
ARC
  5
323
330
208
100
AcDbEntity
  8
RUNDUNGEN
  6
Continuous
 62
     7
100
AcDbCircle
 10
262.6086882315
 20
240.7549251557
 30
0.0
 40
4.0
100
AcDbArc
 50
90.0
 51
128.0
  0
ARC
  5
324
330
208
100
AcDbEntity
  8
RUNDUNGEN
  6
Continuous
 62
     7
100
AcDbCircle
 10
222.8272682544
 20
240.7549251557
 30
0.0
 40
4.0
100
AcDbArc
 50
52.0
 51
90.0
  0
ARC
  5
325
330
208
100
AcDbEntity
  8
RUNDUNGEN
  6
Continuous
 62
     7
100
AcDbCircle
 10
41.6086882315
 20
240.7549251557
 30
0.0
 40
4.0
100
AcDbArc
 50
90.0
 51
128.0
  0
ARC
  5
326
330
208
100
AcDbEntity
  8
RUNDUNGEN
  6
Continuous
 62
     7
100
AcDbCircle
 10
1.8272682544
 20
240.7549251557
 30
0.0
 40
4.0
100
AcDbArc
 50
52.0
 51
90.0
  0
ARC
  5
327
330
208
100
AcDbEntity
  8
RUNDUNGEN
  6
Continuous
 62
     7
100
AcDbCircle
 10
-123.3913117685
 20
240.7549251557
 30
0.0
 40
4.0
100
AcDbArc
 50
90.0
 51
128.0
  0
ARC
  5
328
330
208
100
AcDbEntity
  8
RUNDUNGEN
  6
Continuous
 62
     7
100
AcDbCircle
 10
418.4679782428998
 20
246.1617794052
 30
0.0
 40
4.0
100
AcDbArc
 50
180.0
 51
225.0
  0
ARC
  5
329
330
208
100
AcDbEntity
  8
RUNDUNGEN
  6
Continuous
 62
     7
100
AcDbCircle
 10
-154.0320217570999
 20
246.1617794052
 30
0.0
 40
4.0
100
AcDbArc
 50
315.0
 51
360.0
  0
ARC
  5
32A
330
208
100
AcDbEntity
  8
0
  6
Continuous
 62
     7
100
AcDbCircle
 10
414.2179782429
 20
252.2549251557
 30
0.0
 40
1.0
100
AcDbArc
 50
0.0
 51
138.637752688
  0
ARC
  5
32B
330
208
100
AcDbEntity
  8
0
  6
Continuous
 62
     7
100
AcDbCircle
 10
-149.7820217571
 20
252.2549251557
 30
0.0
 40
1.0
100
AcDbArc
 50
41.362247312
 51
180.0
  0
ARC
  5
32C
330
208
100
AcDbEntity
  8
0
  6
Continuous
 62
     7
100
AcDbCircle
 10
231.5122161406
 20
239.3716969258
 30
0.0
 40
0.1167718525
100
AcDbArc
 50
265.9931433754
 51
269.328931666
  0
ARC
  5
32D
330
208
100
AcDbEntity
  8
0
  6
Continuous
 62
     7
100
AcDbCircle
 10
32.92374034530001
 20
239.3716969258
 30
0.0
 40
0.1167718525
100
AcDbArc
 50
270.671068334
 51
274.0068566246
  0
ARC
  5
32E
330
208
100
AcDbEntity
  8
0
  6
Continuous
 62
     7
100
AcDbCircle
 10
10.5122161406
 20
239.3716969258
 30
0.0
 40
0.1167718525
100
AcDbArc
 50
265.9931433754
 51
269.328931666
  0
ARC
  5
32F
330
208
100
AcDbEntity
  8
0
  6
Continuous
 62
     7
100
AcDbCircle
 10
-132.0762596547
 20
239.3716969259
 30
0.0
 40
0.1167718526
100
AcDbArc
 50
270.6710683356
 51
274.0068566231
  0
ARC
  5
330
330
208
100
AcDbEntity
  8
0
  6
Continuous
 62
     7
100
AcDbCircle
 10
396.5122161406
 20
239.3716969258
 30
0.0
 40
0.1167718525
100
AcDbArc
 50
265.9931433754
 51
269.328931666
  0
ARC
  5
331
330
208
100
AcDbEntity
  8
0
  6
Continuous
 62
     7
100
AcDbCircle
 10
253.9237403453
 20
239.3716969259
 30
0.0
 40
0.1167718526
100
AcDbArc
 50
270.6710683352
 51
274.0068566242
  0
ARC
  5
332
330
208
100
AcDbEntity
  8
0
  6
Continuous
 62
     3
100
AcDbCircle
 10
231.5122319236
 20
238.3137672389
 30
0.0
 40
0.0588420885
100
AcDbArc
 50
262.0136873905
 51
269.975611652
  0
ARC
  5
333
330
208
100
AcDbEntity
  8
0
  6
Continuous
 62
     3
100
AcDbCircle
 10
32.9237245623
 20
238.3137672389
 30
0.0
 40
0.0588420885
100
AcDbArc
 50
270.024388348
 51
277.9863126094
  0
ARC
  5
334
330
208
100
AcDbEntity
  8
0
  6
Continuous
 62
     3
100
AcDbCircle
 10
10.5122319236
 20
238.3137672389
 30
0.0
 40
0.0588420885
100
AcDbArc
 50
262.0136873906
 51
269.975611652
  0
ARC
  5
335
330
208
100
AcDbEntity
  8
0
  6
Continuous
 62
     3
100
AcDbCircle
 10
-132.0762754377
 20
238.3137672389
 30
0.0
 40
0.0588420885
100
AcDbArc
 50
270.024388348
 51
277.9863126096
  0
ARC
  5
336
330
208
100
AcDbEntity
  8
0
  6
Continuous
 62
     3
100
AcDbCircle
 10
396.5122319236
 20
238.3137672389
 30
0.0
 40
0.0588420885
100
AcDbArc
 50
262.0136873905
 51
269.975611652
  0
ARC
  5
337
330
208
100
AcDbEntity
  8
0
  6
Continuous
 62
     3
100
AcDbCircle
 10
253.9237245623
 20
238.3137672389
 30
0.0
 40
0.0588420885
100
AcDbArc
 50
270.024388348
 51
277.9863126095
  0
SPLINE
  5
338
330
208
100
AcDbEntity
  8
0
  6
Continuous
 62
     7
100
AcDbSpline
210
0.0
220
0.0
230
1.0
 70
     8
 71
     3
 72
     9
 73
     5
 74
     0
 42
0.0000000001
 43
0.0000000001
 40
0.0
 40
0.0
 40
0.0
 40
0.0
 40
0.2488387873
 40
1.0
 40
1.0
 40
1.0
 40
1.0
 10
-130.5283595665
 20
179.0832165957
 30
0.0
 10
-130.5691160597
 20
179.0832165957
 30
0.0
 10
-130.7328881491
 20
179.0870063325
 30
0.0
 10
-130.896251429
 20
179.1059345291
 30
0.0
 10
-131.0173070691
 20
179.1278884144
 30
0.0
  0
SPLINE
  5
339
330
208
100
AcDbEntity
  8
0
  6
Continuous
 62
     7
100
AcDbSpline
210
0.0
220
0.0
230
1.0
 70
     8
 71
     3
 72
     9
 73
     5
 74
     0
 42
0.0000000001
 43
0.0000000001
 40
0.0
 40
0.0
 40
0.0
 40
0.0
 40
0.2488387873
 40
1.0
 40
1.0
 40
1.0
 40
1.0
 10
8.9643160524
 20
179.0832165957
 30
0.0
 10
9.005072545599997
 20
179.0832165957
 30
0.0
 10
9.168844634999999
 20
179.0870063325
 30
0.0
 10
9.332207914899999
 20
179.1059345291
 30
0.0
 10
9.453263554999999
 20
179.1278884144
 30
0.0
  0
SPLINE
  5
33A
330
208
100
AcDbEntity
  8
0
  6
Continuous
 62
     7
100
AcDbSpline
210
0.0
220
0.0
230
1.0
 70
     8
 71
     3
 72
     9
 73
     5
 74
     0
 42
0.0000000001
 43
0.0000000001
 40
0.0
 40
0.0
 40
0.0
 40
0.0
 40
0.2488387873
 40
1.0
 40
1.0
 40
1.0
 40
1.0
 10
34.4716404335
 20
179.0832165957
 30
0.0
 10
34.4308839403
 20
179.0832165957
 30
0.0
 10
34.2671118509
 20
179.0870063325
 30
0.0
 10
34.103748571
 20
179.1059345291
 30
0.0
 10
33.9826929309
 20
179.1278884144
 30
0.0
  0
SPLINE
  5
33B
330
208
100
AcDbEntity
  8
0
  6
Continuous
 62
     7
100
AcDbSpline
210
0.0
220
0.0
230
1.0
 70
     8
 71
     3
 72
     9
 73
     5
 74
     0
 42
0.0000000001
 43
0.0000000001
 40
0.0
 40
0.0
 40
0.0
 40
0.0
 40
0.2488387873
 40
1.0
 40
1.0
 40
1.0
 40
1.0
 10
229.9643160524
 20
179.0832165957
 30
0.0
 10
230.0050725456
 20
179.0832165957
 30
0.0
 10
230.168844635
 20
179.0870063325
 30
0.0
 10
230.3322079149
 20
179.1059345291
 30
0.0
 10
230.453263555
 20
179.1278884144
 30
0.0
  0
SPLINE
  5
33C
330
208
100
AcDbEntity
  8
0
  6
Continuous
 62
     7
100
AcDbSpline
210
0.0
220
0.0
230
1.0
 70
     8
 71
     3
 72
     9
 73
     5
 74
     0
 42
0.0000000001
 43
0.0000000001
 40
0.0
 40
0.0
 40
0.0
 40
0.0
 40
0.2488387873
 40
1.0
 40
1.0
 40
1.0
 40
1.0
 10
255.4716404335
 20
179.0832165957
 30
0.0
 10
255.4308839403
 20
179.0832165957
 30
0.0
 10
255.2671118509
 20
179.0870063325
 30
0.0
 10
255.103748571
 20
179.1059345291
 30
0.0
 10
254.9826929309
 20
179.1278884144
 30
0.0
  0
SPLINE
  5
33D
330
208
100
AcDbEntity
  8
0
  6
Continuous
 62
     7
100
AcDbSpline
210
0.0
220
0.0
230
1.0
 70
     8
 71
     3
 72
     9
 73
     5
 74
     0
 42
0.0000000001
 43
0.0000000001
 40
0.0
 40
0.0
 40
0.0
 40
0.0
 40
0.2488387873
 40
1.0
 40
1.0
 40
1.0
 40
1.0
 10
394.9643160524
 20
179.0832165957
 30
0.0
 10
395.0050725456
 20
179.0832165957
 30
0.0
 10
395.168844635
 20
179.0870063325
 30
0.0
 10
395.3322079149
 20
179.1059345291
 30
0.0
 10
395.453263555
 20
179.1278884144
 30
0.0
  0
SPLINE
  5
33E
330
208
100
AcDbEntity
  8
0
  6
Continuous
 62
     7
100
AcDbSpline
210
0.0
220
0.0
230
1.0
 70
     8
 71
     3
 72
     9
 73
     5
 74
     0
 42
0.0000000001
 43
0.0000000001
 40
0.0
 40
0.0
 40
0.0
 40
0.0
 40
0.5323552969
 40
1.0
 40
1.0
 40
1.0
 40
1.0
 10
412.4679782429
 20
176.3332165957
 30
0.0
 10
412.5863448116
 20
176.4336892127
 30
0.0
 10
412.8088195599
 20
176.6215187318
 30
0.0
 10
413.0102748526998
 20
176.8364658715
 30
0.0
 10
413.0859435026
 20
176.9499363326
 30
0.0
  0
SPLINE
  5
33F
330
208
100
AcDbEntity
  8
0
  6
Continuous
 62
     7
100
AcDbSpline
210
0.0
220
0.0
230
1.0
 70
     8
 71
     3
 72
     9
 73
     5
 74
     0
 42
0.0000000001
 43
0.0000000001
 40
0.0
 40
0.0
 40
0.0
 40
0.0
 40
0.5323553244000001
 40
1.0
 40
1.0
 40
1.0
 40
1.0
 10
412.4679782429
 20
129.8332165957
 30
0.0
 10
412.5863448412999
 20
129.7327439884
 30
0.0
 10
412.8088196334998
 20
129.5449144983
 30
0.0
 10
413.0102749656998
 20
129.3299673679
 30
0.0
 10
413.0859436137
 20
129.2164969063
 30
0.0
  0
SPLINE
  5
340
330
208
100
AcDbEntity
  8
0
  6
Continuous
 62
     7
100
AcDbSpline
210
0.0
220
0.0
230
1.0
 70
     8
 71
     3
 72
     9
 73
     5
 74
     0
 42
0.0000000001
 43
0.0000000001
 40
0.0
 40
0.0
 40
0.0
 40
0.0
 40
0.5323553196000002
 40
1.0
 40
1.0
 40
1.0
 40
1.0
 10
-148.0320217571
 20
129.8332165957
 30
0.0
 10
-148.1324943594
 20
129.7148500052
 30
0.0
 10
-148.320323842
 20
129.4923752258
 30
0.0
 10
-148.5352709594
 20
129.290919903
 30
0.0
 10
-148.6487414135
 20
129.2152512538
 30
0.0
  0
SPLINE
  5
341
330
208
100
AcDbEntity
  8
0
  6
Continuous
 62
     7
100
AcDbSpline
210
0.0
220
0.0
230
1.0
 70
     8
 71
     3
 72
     9
 73
     5
 74
     0
 42
0.0000000001
 43
0.0000000001
 40
0.0
 40
0.0
 40
0.0
 40
0.0
 40
0.5323553030000002
 40
1.0
 40
1.0
 40
1.0
 40
1.0
 10
412.4679782429
 20
129.8332165957
 30
0.0
 10
412.5684508641
 20
129.7148500179
 30
0.0
 10
412.7562803884999
 20
129.492375255
 30
0.0
 10
412.97122754
 20
129.2909199511
 30
0.0
 10
413.0846980080999
 20
129.2152513024
 30
0.0
  0
SPLINE
  5
342
330
208
100
AcDbEntity
  8
0
  6
Continuous
 62
     7
100
AcDbSpline
210
0.0
220
0.0
230
1.0
 70
     8
 71
     3
 72
     9
 73
     5
 74
     0
 42
0.0000000001
 43
0.0000000001
 40
0.0
 40
0.0
 40
0.0
 40
0.0
 40
0.5323553244000001
 40
1.0
 40
1.0
 40
1.0
 40
1.0
 10
-148.0320217571
 20
176.3332165957
 30
0.0
 10
-148.1503883554
 20
176.4336892031
 30
0.0
 10
-148.3728631476
 20
176.6215186931
 30
0.0
 10
-148.5743184798
 20
176.8364658235
 30
0.0
 10
-148.6499871278
 20
176.9499362851
 30
0.0
  0
SPLINE
  5
343
330
208
100
AcDbEntity
  8
0
  6
Continuous
 62
     7
100
AcDbSpline
210
0.0
220
0.0
230
1.0
 70
     8
 71
     3
 72
     9
 73
     5
 74
     0
 42
0.0000000001
 43
0.0000000001
 40
0.0
 40
0.0
 40
0.0
 40
0.0
 40
0.5323552969
 40
1.0
 40
1.0
 40
1.0
 40
1.0
 10
-148.0320217571
 20
129.8332165957
 30
0.0
 10
-148.1503883257
 20
129.7327439787
 30
0.0
 10
-148.3728630741
 20
129.5449144596999
 30
0.0
 10
-148.5743183669
 20
129.3299673199
 30
0.0
 10
-148.6499870167
 20
129.2164968588
 30
0.0
  0
SPLINE
  5
344
330
208
100
AcDbEntity
  8
0
  6
Continuous
 62
     7
100
AcDbSpline
210
0.0
220
0.0
230
1.0
 70
     8
 71
     3
 72
     9
 73
     5
 74
     0
 42
0.0000000001
 43
0.0000000001
 40
0.0
 40
0.0
 40
0.0
 40
0.0
 40
0.5323553196000002
 40
1.0
 40
1.0
 40
1.0
 40
1.0
 10
412.4679782429
 20
176.3332165957
 30
0.0
 10
412.5684508453
 20
176.4515831862
 30
0.0
 10
412.7562803278998
 20
176.6740579656
 30
0.0
 10
412.9712274452999
 20
176.8755132884
 30
0.0
 10
413.0846978993997
 20
176.9511819375999
 30
0.0
  0
SPLINE
  5
345
330
208
100
AcDbEntity
  8
0
  6
Continuous
 62
     7
100
AcDbSpline
210
0.0
220
0.0
230
1.0
 70
     8
 71
     3
 72
     9
 73
     5
 74
     0
 42
0.0000000001
 43
0.0000000001
 40
0.0
 40
0.0
 40
0.0
 40
0.0
 40
0.5323553030000002
 40
1.0
 40
1.0
 40
1.0
 40
1.0
 10
-148.0320217571
 20
176.3332165957
 30
0.0
 10
-148.1324943782
 20
176.4515831735
 30
0.0
 10
-148.3203239026
 20
176.6740579364
 30
0.0
 10
-148.5352710541
 20
176.8755132403
 30
0.0
 10
-148.6487415223
 20
176.951181889
 30
0.0
  0
SPLINE
  5
346
330
208
100
AcDbEntity
  8
0
  6
Continuous
 62
     7
100
AcDbSpline
210
0.0
220
0.0
230
1.0
 70
     8
 71
     3
 72
    11
 73
     7
 74
     0
 42
0.0000000001
 43
0.0000000001
 40
0.0
 40
0.0
 40
0.0
 40
0.0
 40
0.2742592274
 40
0.5260864827000003
 40
0.7621155876000003
 40
1.0
 40
1.0
 40
1.0
 40
1.0
 10
-132.0681001219
 20
126.1071039511
 30
0.0
 10
-132.0244349347
 20
126.2350564625
 30
0.0
 10
-131.9152834163
 20
126.4732913407
 30
0.0
 10
-131.6707115884
 20
126.7660484261
 30
0.0
 10
-131.3604313649
 20
126.9557662026
 30
0.0
 10
-131.1326917307
 20
127.0176193445
 30
0.0
 10
-131.0173070691
 20
127.038544777
 30
0.0
  0
SPLINE
  5
347
330
208
100
AcDbEntity
  8
0
  6
Continuous
 62
     7
100
AcDbSpline
210
0.0
220
0.0
230
1.0
 70
     8
 71
     3
 72
    11
 73
     7
 74
     0
 42
0.0000000001
 43
0.0000000001
 40
0.0
 40
0.0
 40
0.0
 40
0.0
 40
0.2378844124
 40
0.4739135173
 40
0.7257407726000002
 40
1.0
 40
1.0
 40
1.0
 40
1.0
 10
9.453263554999999
 20
127.038544777
 30
0.0
 10
9.568648216599999
 20
127.0176193445
 30
0.0
 10
9.7963878508
 20
126.9557662026
 30
0.0
 10
10.1066680743
 20
126.7660484261
 30
0.0
 10
10.3512399022
 20
126.4732913407
 30
0.0
 10
10.4603914206
 20
126.2350564625
 30
0.0
 10
10.5040566078
 20
126.1071039511
 30
0.0
  0
SPLINE
  5
348
330
208
100
AcDbEntity
  8
0
  6
Continuous
 62
     7
100
AcDbSpline
210
0.0
220
0.0
230
1.0
 70
     8
 71
     3
 72
    11
 73
     7
 74
     0
 42
0.0000000001
 43
0.0000000001
 40
0.0
 40
0.0
 40
0.0
 40
0.0
 40
0.2742592274
 40
0.5260864827000003
 40
0.7621155876000003
 40
1.0
 40
1.0
 40
1.0
 40
1.0
 10
32.9318998781
 20
126.1071039511
 30
0.0
 10
32.9755650653
 20
126.2350564625
 30
0.0
 10
33.0847165837
 20
126.4732913407
 30
0.0
 10
33.3292884116
 20
126.7660484261
 30
0.0
 10
33.63956863510001
 20
126.9557662026
 30
0.0
 10
33.8673082693
 20
127.0176193445
 30
0.0
 10
33.9826929309
 20
127.038544777
 30
0.0
  0
SPLINE
  5
349
330
208
100
AcDbEntity
  8
0
  6
Continuous
 62
     7
100
AcDbSpline
210
0.0
220
0.0
230
1.0
 70
     8
 71
     3
 72
    11
 73
     7
 74
     0
 42
0.0000000001
 43
0.0000000001
 40
0.0
 40
0.0
 40
0.0
 40
0.0
 40
0.2378844124
 40
0.4739135173
 40
0.7257407726000002
 40
1.0
 40
1.0
 40
1.0
 40
1.0
 10
230.453263555
 20
127.038544777
 30
0.0
 10
230.5686482166
 20
127.0176193445
 30
0.0
 10
230.7963878508
 20
126.9557662026
 30
0.0
 10
231.1066680743
 20
126.7660484261
 30
0.0
 10
231.3512399022
 20
126.4732913407
 30
0.0
 10
231.4603914206
 20
126.2350564625
 30
0.0
 10
231.5040566078
 20
126.1071039511
 30
0.0
  0
SPLINE
  5
34A
330
208
100
AcDbEntity
  8
0
  6
Continuous
 62
     7
100
AcDbSpline
210
0.0
220
0.0
230
1.0
 70
     8
 71
     3
 72
    11
 73
     7
 74
     0
 42
0.0000000001
 43
0.0000000001
 40
0.0
 40
0.0
 40
0.0
 40
0.0
 40
0.2742592274
 40
0.5260864827000003
 40
0.7621155876000003
 40
1.0
 40
1.0
 40
1.0
 40
1.0
 10
253.9318998781
 20
126.1071039511
 30
0.0
 10
253.9755650653
 20
126.2350564625
 30
0.0
 10
254.0847165837
 20
126.4732913407
 30
0.0
 10
254.3292884116
 20
126.7660484261
 30
0.0
 10
254.6395686351
 20
126.9557662026
 30
0.0
 10
254.8673082693
 20
127.0176193445
 30
0.0
 10
254.9826929309
 20
127.038544777
 30
0.0
  0
SPLINE
  5
34B
330
208
100
AcDbEntity
  8
0
  6
Continuous
 62
     7
100
AcDbSpline
210
0.0
220
0.0
230
1.0
 70
     8
 71
     3
 72
    11
 73
     7
 74
     0
 42
0.0000000001
 43
0.0000000001
 40
0.0
 40
0.0
 40
0.0
 40
0.0
 40
0.2378844124
 40
0.4739135173
 40
0.7257407726000002
 40
1.0
 40
1.0
 40
1.0
 40
1.0
 10
395.453263555
 20
127.038544777
 30
0.0
 10
395.5686482166001
 20
127.0176193445
 30
0.0
 10
395.7963878508
 20
126.9557662026
 30
0.0
 10
396.1066680743
 20
126.7660484261
 30
0.0
 10
396.3512399022
 20
126.4732913407
 30
0.0
 10
396.4603914206
 20
126.2350564625
 30
0.0
 10
396.5040566078
 20
126.1071039511
 30
0.0
  0
SPLINE
  5
34C
330
208
100
AcDbEntity
  8
0
  6
Continuous
 62
     7
100
AcDbSpline
210
0.0
220
0.0
230
1.0
 70
     8
 71
     3
 72
    11
 73
     7
 74
     0
 42
0.0000000001
 43
0.0000000001
 40
0.0
 40
0.0
 40
0.0
 40
0.0
 40
0.2742592274
 40
0.5260864827000003
 40
0.7621155876000003
 40
1.0
 40
1.0
 40
1.0
 40
1.0
 10
396.5040566078
 20
180.0593292404
 30
0.0
 10
396.4603914206
 20
179.9313767289
 30
0.0
 10
396.3512399022
 20
179.6931418507
 30
0.0
 10
396.1066680743
 20
179.4003847654
 30
0.0
 10
395.7963878508
 20
179.2106669888999
 30
0.0
 10
395.5686482166001
 20
179.148813847
 30
0.0
 10
395.453263555
 20
179.1278884144
 30
0.0
  0
SPLINE
  5
34D
330
208
100
AcDbEntity
  8
0
  6
Continuous
 62
     7
100
AcDbSpline
210
0.0
220
0.0
230
1.0
 70
     8
 71
     3
 72
    11
 73
     7
 74
     0
 42
0.0000000001
 43
0.0000000001
 40
0.0
 40
0.0
 40
0.0
 40
0.0
 40
0.2378844124
 40
0.4739135173
 40
0.7257407726000002
 40
1.0
 40
1.0
 40
1.0
 40
1.0
 10
254.9826929309
 20
179.1278884144
 30
0.0
 10
254.8673082693
 20
179.148813847
 30
0.0
 10
254.6395686351
 20
179.2106669888999
 30
0.0
 10
254.3292884116
 20
179.4003847654
 30
0.0
 10
254.0847165837
 20
179.6931418507
 30
0.0
 10
253.9755650653
 20
179.9313767289
 30
0.0
 10
253.9318998781
 20
180.0593292404
 30
0.0
  0
SPLINE
  5
34E
330
208
100
AcDbEntity
  8
0
  6
Continuous
 62
     7
100
AcDbSpline
210
0.0
220
0.0
230
1.0
 70
     8
 71
     3
 72
    11
 73
     7
 74
     0
 42
0.0000000001
 43
0.0000000001
 40
0.0
 40
0.0
 40
0.0
 40
0.0
 40
0.2742592274
 40
0.5260864827000003
 40
0.7621155876000003
 40
1.0
 40
1.0
 40
1.0
 40
1.0
 10
231.5040566078
 20
180.0593292404
 30
0.0
 10
231.4603914206
 20
179.9313767289
 30
0.0
 10
231.3512399022
 20
179.6931418507
 30
0.0
 10
231.1066680743
 20
179.4003847654
 30
0.0
 10
230.7963878508
 20
179.2106669888999
 30
0.0
 10
230.5686482166
 20
179.148813847
 30
0.0
 10
230.453263555
 20
179.1278884144
 30
0.0
  0
SPLINE
  5
34F
330
208
100
AcDbEntity
  8
0
  6
Continuous
 62
     7
100
AcDbSpline
210
0.0
220
0.0
230
1.0
 70
     8
 71
     3
 72
    11
 73
     7
 74
     0
 42
0.0000000001
 43
0.0000000001
 40
0.0
 40
0.0
 40
0.0
 40
0.0
 40
0.2742592274
 40
0.5260864827000003
 40
0.7621155876000003
 40
1.0
 40
1.0
 40
1.0
 40
1.0
 10
10.5040566078
 20
180.0593292404
 30
0.0
 10
10.4603914206
 20
179.9313767289
 30
0.0
 10
10.3512399022
 20
179.6931418507
 30
0.0
 10
10.1066680743
 20
179.4003847654
 30
0.0
 10
9.7963878508
 20
179.2106669888999
 30
0.0
 10
9.568648216599999
 20
179.148813847
 30
0.0
 10
9.453263554999999
 20
179.1278884144
 30
0.0
  0
SPLINE
  5
350
330
208
100
AcDbEntity
  8
0
  6
Continuous
 62
     7
100
AcDbSpline
210
0.0
220
0.0
230
1.0
 70
     8
 71
     3
 72
    11
 73
     7
 74
     0
 42
0.0000000001
 43
0.0000000001
 40
0.0
 40
0.0
 40
0.0
 40
0.0
 40
0.2378844124
 40
0.4739135173
 40
0.7257407726000002
 40
1.0
 40
1.0
 40
1.0
 40
1.0
 10
33.9826929309
 20
179.1278884144
 30
0.0
 10
33.8673082693
 20
179.148813847
 30
0.0
 10
33.63956863510001
 20
179.2106669888999
 30
0.0
 10
33.3292884116
 20
179.4003847654
 30
0.0
 10
33.0847165837
 20
179.6931418507
 30
0.0
 10
32.9755650653
 20
179.9313767289
 30
0.0
 10
32.9318998781
 20
180.0593292404
 30
0.0
  0
SPLINE
  5
351
330
208
100
AcDbEntity
  8
0
  6
Continuous
 62
     7
100
AcDbSpline
210
0.0
220
0.0
230
1.0
 70
     8
 71
     3
 72
    11
 73
     7
 74
     0
 42
0.0000000001
 43
0.0000000001
 40
0.0
 40
0.0
 40
0.0
 40
0.0
 40
0.2378844124
 40
0.4739135173
 40
0.7257407726000002
 40
1.0
 40
1.0
 40
1.0
 40
1.0
 10
-131.0173070691
 20
179.1278884144
 30
0.0
 10
-131.1326917307
 20
179.148813847
 30
0.0
 10
-131.3604313649
 20
179.2106669888999
 30
0.0
 10
-131.6707115884
 20
179.4003847654
 30
0.0
 10
-131.9152834163
 20
179.6931418507
 30
0.0
 10
-132.0244349347
 20
179.9313767289
 30
0.0
 10
-132.0681001219
 20
180.0593292404
 30
0.0
  0
SPLINE
  5
352
330
208
100
AcDbEntity
  8
0
  6
Continuous
 62
     7
100
AcDbSpline
210
0.0
220
0.0
230
1.0
 70
     8
 71
     3
 72
     9
 73
     5
 74
     0
 42
0.0000000001
 43
0.0000000001
 40
0.0
 40
0.0
 40
0.0
 40
0.0
 40
0.2488387873
 40
1.0
 40
1.0
 40
1.0
 40
1.0
 10
394.9643160524
 20
127.0832165957
 30
0.0
 10
395.0050725456
 20
127.0832165957
 30
0.0
 10
395.168844635
 20
127.079426859
 30
0.0
 10
395.3322079149
 20
127.0604986623
 30
0.0
 10
395.453263555
 20
127.038544777
 30
0.0
  0
LINE
  5
353
330
208
100
AcDbEntity
  8
0
  6
Continuous
 62
     7
100
AcDbLine
 10
396.5040566078
 20
126.1071039511
 30
0.0
 11
396.512206877
 21
126.0832165957
 31
0.0
  0
LINE
  5
354
330
208
100
AcDbEntity
  8
0
  6
Continuous
 62
     7
100
AcDbLine
 10
253.9318998781
 20
126.1071039511
 30
0.0
 11
253.9237496089
 21
126.0832165957
 31
0.0
  0
SPLINE
  5
355
330
208
100
AcDbEntity
  8
0
  6
Continuous
 62
     7
100
AcDbSpline
210
0.0
220
0.0
230
1.0
 70
     8
 71
     3
 72
     9
 73
     5
 74
     0
 42
0.0000000001
 43
0.0000000001
 40
0.0
 40
0.0
 40
0.0
 40
0.0
 40
0.2488387873
 40
1.0
 40
1.0
 40
1.0
 40
1.0
 10
255.4716404335
 20
127.0832165957
 30
0.0
 10
255.4308839403
 20
127.0832165957
 30
0.0
 10
255.2671118509
 20
127.079426859
 30
0.0
 10
255.103748571
 20
127.0604986623
 30
0.0
 10
254.9826929309
 20
127.038544777
 30
0.0
  0
SPLINE
  5
356
330
208
100
AcDbEntity
  8
0
  6
Continuous
 62
     7
100
AcDbSpline
210
0.0
220
0.0
230
1.0
 70
     8
 71
     3
 72
     9
 73
     5
 74
     0
 42
0.0000000001
 43
0.0000000001
 40
0.0
 40
0.0
 40
0.0
 40
0.0
 40
0.2488387873
 40
1.0
 40
1.0
 40
1.0
 40
1.0
 10
229.9643160524
 20
127.0832165957
 30
0.0
 10
230.0050725456
 20
127.0832165957
 30
0.0
 10
230.168844635
 20
127.079426859
 30
0.0
 10
230.3322079149
 20
127.0604986623
 30
0.0
 10
230.453263555
 20
127.038544777
 30
0.0
  0
LINE
  5
357
330
208
100
AcDbEntity
  8
0
  6
Continuous
 62
     7
100
AcDbLine
 10
231.512206877
 20
126.0832165957
 30
0.0
 11
231.5040566078
 21
126.1071039511
 31
0.0
  0
LINE
  5
358
330
208
100
AcDbEntity
  8
0
  6
Continuous
 62
     7
100
AcDbLine
 10
32.9237496089
 20
126.0832165957
 30
0.0
 11
32.9318998781
 21
126.1071039511
 31
0.0
  0
SPLINE
  5
359
330
208
100
AcDbEntity
  8
0
  6
Continuous
 62
     7
100
AcDbSpline
210
0.0
220
0.0
230
1.0
 70
     8
 71
     3
 72
     9
 73
     5
 74
     0
 42
0.0000000001
 43
0.0000000001
 40
0.0
 40
0.0
 40
0.0
 40
0.0
 40
0.2488387873
 40
1.0
 40
1.0
 40
1.0
 40
1.0
 10
34.4716404335
 20
127.0832165957
 30
0.0
 10
34.4308839403
 20
127.0832165957
 30
0.0
 10
34.2671118509
 20
127.079426859
 30
0.0
 10
34.103748571
 20
127.0604986623
 30
0.0
 10
33.9826929309
 20
127.038544777
 30
0.0
  0
SPLINE
  5
35A
330
208
100
AcDbEntity
  8
0
  6
Continuous
 62
     7
100
AcDbSpline
210
0.0
220
0.0
230
1.0
 70
     8
 71
     3
 72
     9
 73
     5
 74
     0
 42
0.0000000001
 43
0.0000000001
 40
0.0
 40
0.0
 40
0.0
 40
0.0
 40
0.2488387873
 40
1.0
 40
1.0
 40
1.0
 40
1.0
 10
8.9643160524
 20
127.0832165957
 30
0.0
 10
9.005072545599997
 20
127.0832165957
 30
0.0
 10
9.168844634999999
 20
127.079426859
 30
0.0
 10
9.332207914899999
 20
127.0604986623
 30
0.0
 10
9.453263554999999
 20
127.038544777
 30
0.0
  0
LINE
  5
35B
330
208
100
AcDbEntity
  8
0
  6
Continuous
 62
     7
100
AcDbLine
 10
10.512206877
 20
126.0832165957
 30
0.0
 11
10.5040566078
 21
126.1071039511
 31
0.0
  0
LINE
  5
35C
330
208
100
AcDbEntity
  8
0
  6
Continuous
 62
     7
100
AcDbLine
 10
-132.0762503911
 20
126.0832165957
 30
0.0
 11
-132.0681001219
 21
126.1071039511
 31
0.0
  0
SPLINE
  5
35D
330
208
100
AcDbEntity
  8
0
  6
Continuous
 62
     7
100
AcDbSpline
210
0.0
220
0.0
230
1.0
 70
     8
 71
     3
 72
     9
 73
     5
 74
     0
 42
0.0000000001
 43
0.0000000001
 40
0.0
 40
0.0
 40
0.0
 40
0.0
 40
0.2488387873
 40
1.0
 40
1.0
 40
1.0
 40
1.0
 10
-130.5283595665
 20
127.0832165957
 30
0.0
 10
-130.5691160597
 20
127.0832165957
 30
0.0
 10
-130.7328881491
 20
127.079426859
 30
0.0
 10
-130.896251429
 20
127.0604986623
 30
0.0
 10
-131.0173070691
 20
127.038544777
 30
0.0
  0
LINE
  5
35E
330
208
100
AcDbEntity
  8
0
  6
Continuous
 62
     7
100
AcDbLine
 10
-132.0762503911
 20
180.0832165957
 30
0.0
 11
-132.0681001219
 21
180.0593292404
 31
0.0
  0
LINE
  5
35F
330
208
100
AcDbEntity
  8
0
  6
Continuous
 62
     7
100
AcDbLine
 10
10.512206877
 20
180.0832165957
 30
0.0
 11
10.5040566078
 21
180.0593292404
 31
0.0
  0
LINE
  5
360
330
208
100
AcDbEntity
  8
0
  6
Continuous
 62
     7
100
AcDbLine
 10
32.9237496089
 20
180.0832165957
 30
0.0
 11
32.9318998781
 21
180.0593292404
 31
0.0
  0
LINE
  5
361
330
208
100
AcDbEntity
  8
0
  6
Continuous
 62
     7
100
AcDbLine
 10
231.512206877
 20
180.0832165957
 30
0.0
 11
231.5040566078
 21
180.0593292404
 31
0.0
  0
LINE
  5
362
330
208
100
AcDbEntity
  8
0
  6
Continuous
 62
     7
100
AcDbLine
 10
253.9318998781
 20
180.0593292404
 30
0.0
 11
253.9237496089
 21
180.0832165957
 31
0.0
  0
LINE
  5
363
330
208
100
AcDbEntity
  8
0
  6
Continuous
 62
     7
100
AcDbLine
 10
396.5040566078
 20
180.0593292404
 30
0.0
 11
396.512206877
 21
180.0832165957
 31
0.0
  0
SPLINE
  5
364
330
208
100
AcDbEntity
  8
0
  6
Continuous
 62
     7
100
AcDbSpline
210
0.0
220
0.0
230
1.0
 70
     8
 71
     3
 72
     9
 73
     5
 74
     0
 42
0.0000000001
 43
0.0000000001
 40
0.0
 40
0.0
 40
0.0
 40
0.0
 40
0.51256656
 40
1.0
 40
1.0
 40
1.0
 40
1.0
 10
-156.0125609204
 20
180.0832165957
 30
0.0
 10
-155.9364710790999
 20
179.951900065
 30
0.0
 10
-155.760142393
 20
179.7100968962
 30
0.0
 10
-155.5267909346
 20
179.5213622735
 30
0.0
 10
-155.4033421006
 20
179.4465919672
 30
0.0
  0
SPLINE
  5
365
330
208
100
AcDbEntity
  8
0
  6
Continuous
 62
     7
100
AcDbSpline
210
0.0
220
0.0
230
1.0
 70
     8
 71
     3
 72
    10
 73
     6
 74
     0
 42
0.0000000001
 43
0.0000000001
 40
0.0
 40
0.0
 40
0.0
 40
0.0
 40
0.5213068484000001
 40
0.7639622578000002
 40
1.0
 40
1.0
 40
1.0
 40
1.0
 10
419.8392985865
 20
179.4465919672
 30
0.0
 10
419.6621279113998
 20
179.3392782643
 30
0.0
 10
419.3883099554
 20
179.2002340744
 30
0.0
 10
419.002358153
 20
179.1000072085
 30
0.0
 10
418.8117658404
 20
179.0832165957
 30
0.0
 10
418.7179782429
 20
179.0832165957
 30
0.0
  0
SPLINE
  5
366
330
208
100
AcDbEntity
  8
0
  6
Continuous
 62
     7
100
AcDbSpline
210
0.0
220
0.0
230
1.0
 70
     8
 71
     3
 72
     9
 73
     5
 74
     0
 42
0.0000000001
 43
0.0000000001
 40
0.0
 40
0.0
 40
0.0
 40
0.0
 40
0.4874454541
 40
1.0
 40
1.0
 40
1.0
 40
1.0
 10
419.8392985865
 20
179.4465919672
 30
0.0
 10
419.9627541875
 20
179.5213663721
 30
0.0
 10
420.1962527107999
 20
179.7099529227
 30
0.0
 10
420.3724270530998
 20
179.9518991815
 30
0.0
 10
420.4485174062999
 20
180.0832165957
 30
0.0
  0
SPLINE
  5
367
330
208
100
AcDbEntity
  8
0
  6
Continuous
 62
     7
100
AcDbSpline
210
0.0
220
0.0
230
1.0
 70
     8
 71
     3
 72
    10
 73
     6
 74
     0
 42
0.0000000001
 43
0.0000000001
 40
0.0
 40
0.0
 40
0.0
 40
0.0
 40
0.5213068484000001
 40
0.7639622578000002
 40
1.0
 40
1.0
 40
1.0
 40
1.0
 10
-155.4033421006
 20
126.7198412242
 30
0.0
 10
-155.2261714255
 20
126.8271549272
 30
0.0
 10
-154.9523534695
 20
126.9661991171
 30
0.0
 10
-154.5664016671
 20
127.0664259829
 30
0.0
 10
-154.3758093545
 20
127.0832165957
 30
0.0
 10
-154.2820217571
 20
127.0832165957
 30
0.0
  0
SPLINE
  5
368
330
208
100
AcDbEntity
  8
0
  6
Continuous
 62
     7
100
AcDbSpline
210
0.0
220
0.0
230
1.0
 70
     8
 71
     3
 72
     9
 73
     5
 74
     0
 42
0.0000000001
 43
0.0000000001
 40
0.0
 40
0.0
 40
0.0
 40
0.0
 40
0.4874454541
 40
1.0
 40
1.0
 40
1.0
 40
1.0
 10
-155.4033421006
 20
126.7198412242
 30
0.0
 10
-155.5267977016
 20
126.6450668194
 30
0.0
 10
-155.7602962249
 20
126.4564802688
 30
0.0
 10
-155.9364705672
 20
126.2145340099
 30
0.0
 10
-156.0125609204
 20
126.0832165957
 30
0.0
  0
SPLINE
  5
369
330
208
100
AcDbEntity
  8
0
  6
Continuous
 62
     7
100
AcDbSpline
210
0.0
220
0.0
230
1.0
 70
     8
 71
     3
 72
     9
 73
     5
 74
     0
 42
0.0000000001
 43
0.0000000001
 40
0.0
 40
0.0
 40
0.0
 40
0.0
 40
0.51256656
 40
1.0
 40
1.0
 40
1.0
 40
1.0
 10
420.4485174062999
 20
126.0832165957
 30
0.0
 10
420.3724275649998
 20
126.2145331264
 30
0.0
 10
420.1960988788997
 20
126.4563362952
 30
0.0
 10
419.9627474205
 20
126.645070918
 30
0.0
 10
419.8392985865
 20
126.7198412242
 30
0.0
  0
SPLINE
  5
36A
330
208
100
AcDbEntity
  8
0
  6
Continuous
 62
     7
100
AcDbSpline
210
0.0
220
0.0
230
1.0
 70
     8
 71
     3
 72
    10
 73
     6
 74
     0
 42
0.0000000001
 43
0.0000000001
 40
0.0
 40
0.0
 40
0.0
 40
0.0
 40
0.2360377379
 40
0.4786931438000001
 40
1.0
 40
1.0
 40
1.0
 40
1.0
 10
418.7179782429
 20
127.0832165957
 30
0.0
 10
418.8117658387
 20
127.0832165957
 30
0.0
 10
419.002358083
 20
127.0664258763
 30
0.0
 10
419.388310302
 20
126.9661996986
 30
0.0
 10
419.6621262464
 20
126.8271521842
 30
0.0
 10
419.8392985865
 20
126.7198412242
 30
0.0
  0
SPLINE
  5
36B
330
208
100
AcDbEntity
  8
0
  6
Continuous
 62
     7
100
AcDbSpline
210
0.0
220
0.0
230
1.0
 70
     8
 71
     3
 72
    10
 73
     6
 74
     0
 42
0.0000000001
 43
0.0000000001
 40
0.0
 40
0.0
 40
0.0
 40
0.0
 40
0.2360377379
 40
0.4786931438000001
 40
1.0
 40
1.0
 40
1.0
 40
1.0
 10
-154.2820217571
 20
179.0832165957
 30
0.0
 10
-154.3758093528
 20
179.0832165957
 30
0.0
 10
-154.5664015971
 20
179.1000073151
 30
0.0
 10
-154.9523538161
 20
179.2002334928
 30
0.0
 10
-155.2261697605
 20
179.3392810072
 30
0.0
 10
-155.4033421006
 20
179.4465919672
 30
0.0
  0
SPLINE
  5
36C
330
208
100
AcDbEntity
  8
0
  6
Continuous
 62
     0
100
AcDbSpline
210
0.0
220
0.0
230
1.0
 70
     8
 71
     3
 72
    11
 73
     7
 74
     0
 42
0.0000000001
 43
0.0000000001
 40
0.0
 40
0.0
 40
0.0
 40
0.0
 40
0.2066505356
 40
0.4351081108
 40
0.6984523957
 40
1.0
 40
1.0
 40
1.0
 40
1.0
 10
-154.2820217571
 20
178.0832165957
 30
0.0
 10
-154.3768412641
 20
178.0832165957
 30
0.0
 10
-154.5775931044
 20
178.120172515
 30
0.0
 10
-154.8629913819
 20
178.2732851743999
 30
0.0
 10
-155.1419271653
 20
178.5097952461
 30
0.0
 10
-155.3152576081
 20
178.7032659625
 30
0.0
 10
-155.4033421006
 20
178.8099673388
 30
0.0
  0
SPLINE
  5
36D
330
208
100
AcDbEntity
  8
0
  6
Continuous
 62
     0
100
AcDbSpline
210
0.0
220
0.0
230
1.0
 70
     8
 71
     3
 72
    11
 73
     7
 74
     0
 42
0.0000000001
 43
0.0000000001
 40
0.0
 40
0.0
 40
0.0
 40
0.0
 40
0.2066505356
 40
0.4351081108
 40
0.6984523957
 40
1.0
 40
1.0
 40
1.0
 40
1.0
 10
418.7179782429
 20
128.0832165957
 30
0.0
 10
418.81279775
 20
128.0832165957
 30
0.0
 10
419.0135495903
 20
128.0462606764
 30
0.0
 10
419.2989478678
 20
127.8931480171
 30
0.0
 10
419.5778836511999
 20
127.6566379453
 30
0.0
 10
419.751214094
 20
127.4631672289
 30
0.0
 10
419.8392985865
 20
127.3564658526
 30
0.0
  0
SPLINE
  5
36E
330
208
100
AcDbEntity
  8
0
  6
Continuous
 62
     0
100
AcDbSpline
210
0.0
220
0.0
230
1.0
 70
     8
 71
     3
 72
     9
 73
     5
 74
     0
 42
0.0000000001
 43
0.0000000001
 40
0.0
 40
0.0
 40
0.0
 40
0.0
 40
0.4766479256000001
 40
1.0
 40
1.0
 40
1.0
 40
1.0
 10
419.8392985865
 20
127.3564658526
 30
0.0
 10
419.9827682393999
 20
127.1826728806
 30
0.0
 10
420.2225769745998
 20
126.768066787
 30
0.0
 10
420.3796600978
 20
126.3208857171
 30
0.0
 10
420.4485174062999
 20
126.0832165957
 30
0.0
  0
SPLINE
  5
36F
330
208
100
AcDbEntity
  8
0
  6
Continuous
 62
     0
100
AcDbSpline
210
0.0
220
0.0
230
1.0
 70
     8
 71
     3
 72
     9
 73
     5
 74
     0
 42
0.0000000001
 43
0.0000000001
 40
0.0
 40
0.0
 40
0.0
 40
0.0
 40
0.5233455386000001
 40
1.0
 40
1.0
 40
1.0
 40
1.0
 10
-156.0125609204
 20
126.0832165957
 30
0.0
 10
-155.9437031386
 20
126.3208873506
 30
0.0
 10
-155.7868710183
 20
126.7681861592
 30
0.0
 10
-155.5468164986
 20
127.1826671326
 30
0.0
 10
-155.4033421006
 20
127.3564658526
 30
0.0
  0
SPLINE
  5
370
330
208
100
AcDbEntity
  8
0
  6
Continuous
 62
     0
100
AcDbSpline
210
0.0
220
0.0
230
1.0
 70
     8
 71
     3
 72
    11
 73
     7
 74
     0
 42
0.0000000001
 43
0.0000000001
 40
0.0
 40
0.0
 40
0.0
 40
0.0
 40
0.3015476291
 40
0.5648918682000002
 40
0.7933494639000001
 40
1.0
 40
1.0
 40
1.0
 40
1.0
 10
-155.4033421006
 20
127.3564658526
 30
0.0
 10
-155.3152585174
 20
127.4631679927
 30
0.0
 10
-155.1419266244
 20
127.656637466
 30
0.0
 10
-154.8629915158
 20
127.8931481699
 30
0.0
 10
-154.5775930771
 20
128.0462606331
 30
0.0
 10
-154.3768412636
 20
128.0832165957
 30
0.0
 10
-154.2820217571
 20
128.0832165957
 30
0.0
  0
SPLINE
  5
371
330
208
100
AcDbEntity
  8
0
  6
Continuous
 62
     0
100
AcDbSpline
210
0.0
220
0.0
230
1.0
 70
     8
 71
     3
 72
     9
 73
     5
 74
     0
 42
0.0000000001
 43
0.0000000001
 40
0.0
 40
0.0
 40
0.0
 40
0.0
 40
0.4766479256000001
 40
1.0
 40
1.0
 40
1.0
 40
1.0
 10
-155.4033421006
 20
178.8099673388
 30
0.0
 10
-155.5468117535
 20
178.9837603108
 30
0.0
 10
-155.7866204887
 20
179.3983664044
 30
0.0
 10
-155.9437036119
 20
179.8455474744
 30
0.0
 10
-156.0125609204
 20
180.0832165957
 30
0.0
  0
SPLINE
  5
372
330
208
100
AcDbEntity
  8
0
  6
Continuous
 62
     0
100
AcDbSpline
210
0.0
220
0.0
230
1.0
 70
     8
 71
     3
 72
     9
 73
     5
 74
     0
 42
0.0000000001
 43
0.0000000001
 40
0.0
 40
0.0
 40
0.0
 40
0.0
 40
0.5233455386000001
 40
1.0
 40
1.0
 40
1.0
 40
1.0
 10
420.4485174062999
 20
180.0832165957
 30
0.0
 10
420.3796596244997
 20
179.8455458408
 30
0.0
 10
420.2228275041999
 20
179.3982470322
 30
0.0
 10
419.9827729844998
 20
178.9837660589
 30
0.0
 10
419.8392985865
 20
178.8099673388
 30
0.0
  0
SPLINE
  5
373
330
208
100
AcDbEntity
  8
0
  6
Continuous
 62
     0
100
AcDbSpline
210
0.0
220
0.0
230
1.0
 70
     8
 71
     3
 72
    11
 73
     7
 74
     0
 42
0.0000000001
 43
0.0000000001
 40
0.0
 40
0.0
 40
0.0
 40
0.0
 40
0.3015476291
 40
0.5648918682000002
 40
0.7933494639000001
 40
1.0
 40
1.0
 40
1.0
 40
1.0
 10
419.8392985865
 20
178.8099673388
 30
0.0
 10
419.7512150033
 20
178.7032651987
 30
0.0
 10
419.5778831102999
 20
178.5097957255
 30
0.0
 10
419.2989480016999
 20
178.2732850215
 30
0.0
 10
419.013549563
 20
178.1201725584
 30
0.0
 10
418.8127977494999
 20
178.0832165957
 30
0.0
 10
418.7179782429
 20
178.0832165957
 30
0.0
  0
SPLINE
  5
374
330
208
100
AcDbEntity
  8
0
  6
Continuous
 62
     7
100
AcDbSpline
210
0.0
220
0.0
230
1.0
 70
     8
 71
     3
 72
    10
 73
     6
 74
     0
 42
0.0000000001
 43
0.0000000001
 40
0.0
 40
0.0
 40
0.0
 40
0.0
 40
0.1952072951
 40
0.4300741355
 40
1.0
 40
1.0
 40
1.0
 40
1.0
 10
420.4485174062999
 20
239.2549251557
 30
0.0
 10
420.4058985270998
 20
239.2549251557
 30
0.0
 10
420.3122812686
 20
239.2720580812
 30
0.0
 10
420.1073032603
 20
239.3476986922
 30
0.0
 10
419.9505917991
 20
239.4281042908
 30
0.0
 10
419.8392985865
 20
239.4837513216
 30
0.0
  0
SPLINE
  5
375
330
208
100
AcDbEntity
  8
0
  6
Continuous
 62
     7
100
AcDbSpline
210
0.0
220
0.0
230
1.0
 70
     8
 71
     3
 72
     9
 73
     5
 74
     0
 42
0.0000000001
 43
0.0000000001
 40
0.0
 40
0.0
 40
0.0
 40
0.0
 40
0.5168902849000001
 40
1.0
 40
1.0
 40
1.0
 40
1.0
 10
418.7179782429
 20
240.2549251557
 30
0.0
 10
418.9026059767
 20
240.1099188727
 30
0.0
 10
419.2594315148999
 20
239.8292796506
 30
0.0
 10
419.6430428430999
 20
239.5818812957
 30
0.0
 10
419.8392985865
 20
239.4837513216
 30
0.0
  0
SPLINE
  5
376
330
208
100
AcDbEntity
  8
0
  6
Continuous
 62
     7
100
AcDbSpline
210
0.0
220
0.0
230
1.0
 70
     8
 71
     3
 72
     9
 73
     5
 74
     0
 42
0.0000000001
 43
0.0000000001
 40
0.0
 40
0.0
 40
0.0
 40
0.0
 40
0.4831097071000002
 40
1.0
 40
1.0
 40
1.0
 40
1.0
 10
-155.4033421006
 20
239.4837513216
 30
0.0
 10
-155.2070877326
 20
239.5818840384
 30
0.0
 10
-154.8234742981
 20
239.8292781807
 30
0.0
 10
-154.4666494936
 20
240.1099188705
 30
0.0
 10
-154.2820217571
 20
240.2549251557
 30
0.0
  0
SPLINE
  5
377
330
208
100
AcDbEntity
  8
0
  6
Continuous
 62
     7
100
AcDbSpline
210
0.0
220
0.0
230
1.0
 70
     8
 71
     3
 72
    10
 73
     6
 74
     0
 42
0.0000000001
 43
0.0000000001
 40
0.0
 40
0.0
 40
0.0
 40
0.0
 40
0.5700320187
 40
0.8048143887
 40
1.0
 40
1.0
 40
1.0
 40
1.0
 10
-155.4033421006
 20
239.4837513216
 30
0.0
 10
-155.5146548127
 20
239.428094541
 30
0.0
 10
-155.6714101179
 20
239.3477833137
 30
0.0
 10
-155.8763508293
 20
239.2720503368
 30
0.0
 10
-155.9699472461
 20
239.2549251557
 30
0.0
 10
-156.0125609204
 20
239.2549251557
 30
0.0
  0
SPLINE
  5
378
330
208
100
AcDbEntity
  8
0
  6
Continuous
 62
     7
100
AcDbSpline
210
0.0
220
0.0
230
1.0
 70
     8
 71
     3
 72
     9
 73
     5
 74
     0
 42
0.0000000001
 43
0.0000000001
 40
0.0
 40
0.0
 40
0.0
 40
0.0
 40
0.2509524747
 40
1.0
 40
1.0
 40
1.0
 40
1.0
 10
-130.5283595665
 20
240.2549251557
 30
0.0
 10
-130.5690945106
 20
240.2299293672
 30
0.0
 10
-130.7314166012
 20
240.1303309618
 30
0.0
 10
-130.8942415868
 20
240.0315201573
 30
0.0
 10
-131.0173070691
 20
239.9593780934
 30
0.0
  0
SPLINE
  5
379
330
208
100
AcDbEntity
  8
0
  6
Continuous
 62
     7
100
AcDbSpline
210
0.0
220
0.0
230
1.0
 70
     8
 71
     3
 72
    13
 73
     9
 74
     0
 42
0.0000000001
 43
0.0000000001
 40
0.0
 40
0.0
 40
0.0
 40
0.0
 40
0.063554982
 40
0.1513115845
 40
0.2614749126
 40
0.3897140227
 40
0.6824700978
 40
1.0
 40
1.0
 40
1.0
 40
1.0
 10
-132.0681001219
 20
239.2552104993
 30
0.0
 10
-132.0412654829
 20
239.2570893888
 30
0.0
 10
-131.9796615055
 20
239.2802250154
 30
0.0
 10
-131.885681242
 20
239.3381084261
 30
0.0
 10
-131.7741198486
 20
239.4198385499
 30
0.0
 10
-131.5969960021
 20
239.5581519768
 30
0.0
 10
-131.349296813
 20
239.7489934392
 30
0.0
 10
-131.1332518376
 20
239.8914102542
 30
0.0
 10
-131.0173070691
 20
239.9593780934
 30
0.0
  0
SPLINE
  5
37A
330
208
100
AcDbEntity
  8
0
  6
Continuous
 62
     7
100
AcDbSpline
210
0.0
220
0.0
230
1.0
 70
     8
 71
     3
 72
    13
 73
     9
 74
     0
 42
0.0000000001
 43
0.0000000001
 40
0.0
 40
0.0
 40
0.0
 40
0.0
 40
0.3175299022
 40
0.6102859773000003
 40
0.7385250873999999
 40
0.8486884155
 40
0.936445018
 40
1.0
 40
1.0
 40
1.0
 40
1.0
 10
230.453263555
 20
239.9593780934
 30
0.0
 10
230.5692083234
 20
239.8914102542
 30
0.0
 10
230.7852532989
 20
239.7489934392
 30
0.0
 10
231.032952488
 20
239.5581519768
 30
0.0
 10
231.2100763345
 20
239.4198385499
 30
0.0
 10
231.3216377279
 20
239.3381084261
 30
0.0
 10
231.4156179914
 20
239.2802250154
 30
0.0
 10
231.4772219688
 20
239.2570893888
 30
0.0
 10
231.5040566078
 20
239.2552104993
 30
0.0
  0
SPLINE
  5
37B
330
208
100
AcDbEntity
  8
0
  6
Continuous
 62
     7
100
AcDbSpline
210
0.0
220
0.0
230
1.0
 70
     8
 71
     3
 72
    13
 73
     9
 74
     0
 42
0.0000000001
 43
0.0000000001
 40
0.0
 40
0.0
 40
0.0
 40
0.0
 40
0.3175299022
 40
0.6102859773000003
 40
0.7385250873999999
 40
0.8486884155
 40
0.936445018
 40
1.0
 40
1.0
 40
1.0
 40
1.0
 10
9.453263554999999
 20
239.9593780934
 30
0.0
 10
9.569208323399999
 20
239.8914102542
 30
0.0
 10
9.7852532989
 20
239.7489934392
 30
0.0
 10
10.032952488
 20
239.5581519768
 30
0.0
 10
10.2100763345
 20
239.4198385499
 30
0.0
 10
10.3216377279
 20
239.3381084261
 30
0.0
 10
10.4156179914
 20
239.2802250154
 30
0.0
 10
10.4772219688
 20
239.2570893888
 30
0.0
 10
10.5040566078
 20
239.2552104993
 30
0.0
  0
SPLINE
  5
37C
330
208
100
AcDbEntity
  8
0
  6
Continuous
 62
     7
100
AcDbSpline
210
0.0
220
0.0
230
1.0
 70
     8
 71
     3
 72
    13
 73
     9
 74
     0
 42
0.0000000001
 43
0.0000000001
 40
0.0
 40
0.0
 40
0.0
 40
0.0
 40
0.063554982
 40
0.1513115845
 40
0.2614749126
 40
0.3897140227
 40
0.6824700978
 40
1.0
 40
1.0
 40
1.0
 40
1.0
 10
253.9318998781
 20
239.2552104993
 30
0.0
 10
253.9587345171
 20
239.2570893888
 30
0.0
 10
254.0203384945
 20
239.2802250154
 30
0.0
 10
254.114318758
 20
239.3381084261
 30
0.0
 10
254.2258801514
 20
239.4198385499
 30
0.0
 10
254.4030039979
 20
239.5581519768
 30
0.0
 10
254.650703187
 20
239.7489934392
 30
0.0
 10
254.8667481624
 20
239.8914102542
 30
0.0
 10
254.9826929309
 20
239.9593780934
 30
0.0
  0
SPLINE
  5
37D
330
208
100
AcDbEntity
  8
0
  6
Continuous
 62
     7
100
AcDbSpline
210
0.0
220
0.0
230
1.0
 70
     8
 71
     3
 72
    13
 73
     9
 74
     0
 42
0.0000000001
 43
0.0000000001
 40
0.0
 40
0.0
 40
0.0
 40
0.0
 40
0.3175299022
 40
0.6102859773000003
 40
0.7385250873999999
 40
0.8486884155
 40
0.936445018
 40
1.0
 40
1.0
 40
1.0
 40
1.0
 10
395.453263555
 20
239.9593780934
 30
0.0
 10
395.5692083234
 20
239.8914102542
 30
0.0
 10
395.7852532989
 20
239.7489934392
 30
0.0
 10
396.032952488
 20
239.5581519768
 30
0.0
 10
396.2100763345
 20
239.4198385499
 30
0.0
 10
396.3216377279
 20
239.3381084261
 30
0.0
 10
396.4156179914
 20
239.2802250154
 30
0.0
 10
396.4772219688
 20
239.2570893888
 30
0.0
 10
396.5040566078
 20
239.2552104993
 30
0.0
  0
SPLINE
  5
37E
330
208
100
AcDbEntity
  8
0
  6
Continuous
 62
     7
100
AcDbSpline
210
0.0
220
0.0
230
1.0
 70
     8
 71
     3
 72
     9
 73
     5
 74
     0
 42
0.0000000001
 43
0.0000000001
 40
0.0
 40
0.0
 40
0.0
 40
0.0
 40
0.2509524747
 40
1.0
 40
1.0
 40
1.0
 40
1.0
 10
394.9643160524
 20
240.2549251557
 30
0.0
 10
395.0050509965
 20
240.2299293672
 30
0.0
 10
395.1673730871
 20
240.1303309618
 30
0.0
 10
395.3301980726999
 20
240.0315201573
 30
0.0
 10
395.453263555
 20
239.9593780934
 30
0.0
  0
SPLINE
  5
37F
330
208
100
AcDbEntity
  8
0
  6
Continuous
 62
     7
100
AcDbSpline
210
0.0
220
0.0
230
1.0
 70
     8
 71
     3
 72
     9
 73
     5
 74
     0
 42
0.0000000001
 43
0.0000000001
 40
0.0
 40
0.0
 40
0.0
 40
0.0
 40
0.2509524747
 40
1.0
 40
1.0
 40
1.0
 40
1.0
 10
255.4716404335
 20
240.2549251557
 30
0.0
 10
255.4309054894
 20
240.2299293672
 30
0.0
 10
255.2685833988
 20
240.1303309618
 30
0.0
 10
255.1057584132
 20
240.0315201573
 30
0.0
 10
254.9826929309
 20
239.9593780934
 30
0.0
  0
SPLINE
  5
380
330
208
100
AcDbEntity
  8
0
  6
Continuous
 62
     7
100
AcDbSpline
210
0.0
220
0.0
230
1.0
 70
     8
 71
     3
 72
     9
 73
     5
 74
     0
 42
0.0000000001
 43
0.0000000001
 40
0.0
 40
0.0
 40
0.0
 40
0.0
 40
0.2509524747
 40
1.0
 40
1.0
 40
1.0
 40
1.0
 10
229.9643160524
 20
240.2549251557
 30
0.0
 10
230.0050509965
 20
240.2299293672
 30
0.0
 10
230.1673730871
 20
240.1303309618
 30
0.0
 10
230.3301980727
 20
240.0315201573
 30
0.0
 10
230.453263555
 20
239.9593780934
 30
0.0
  0
SPLINE
  5
381
330
208
100
AcDbEntity
  8
0
  6
Continuous
 62
     7
100
AcDbSpline
210
0.0
220
0.0
230
1.0
 70
     8
 71
     3
 72
     9
 73
     5
 74
     0
 42
0.0000000001
 43
0.0000000001
 40
0.0
 40
0.0
 40
0.0
 40
0.0
 40
0.2509524747
 40
1.0
 40
1.0
 40
1.0
 40
1.0
 10
34.4716404335
 20
240.2549251557
 30
0.0
 10
34.4309054894
 20
240.2299293672
 30
0.0
 10
34.26858339880001
 20
240.1303309618
 30
0.0
 10
34.1057584132
 20
240.0315201573
 30
0.0
 10
33.9826929309
 20
239.9593780934
 30
0.0
  0
SPLINE
  5
382
330
208
100
AcDbEntity
  8
0
  6
Continuous
 62
     7
100
AcDbSpline
210
0.0
220
0.0
230
1.0
 70
     8
 71
     3
 72
     9
 73
     5
 74
     0
 42
0.0000000001
 43
0.0000000001
 40
0.0
 40
0.0
 40
0.0
 40
0.0
 40
0.2509524747
 40
1.0
 40
1.0
 40
1.0
 40
1.0
 10
8.9643160524
 20
240.2549251557
 30
0.0
 10
9.005050996499997
 20
240.2299293672
 30
0.0
 10
9.167373087099999
 20
240.1303309618
 30
0.0
 10
9.3301980727
 20
240.0315201573
 30
0.0
 10
9.453263554999999
 20
239.9593780934
 30
0.0
  0
SPLINE
  5
383
330
208
100
AcDbEntity
  8
0
  6
Continuous
 62
     7
100
AcDbSpline
210
0.0
220
0.0
230
1.0
 70
     8
 71
     3
 72
    13
 73
     9
 74
     0
 42
0.0000000001
 43
0.0000000001
 40
0.0
 40
0.0
 40
0.0
 40
0.0
 40
0.063554982
 40
0.1513115845
 40
0.2614749126
 40
0.3897140227
 40
0.6824700978
 40
1.0
 40
1.0
 40
1.0
 40
1.0
 10
32.9318998781
 20
239.2552104993
 30
0.0
 10
32.9587345171
 20
239.2570893888
 30
0.0
 10
33.0203384945
 20
239.2802250154
 30
0.0
 10
33.114318758
 20
239.3381084261
 30
0.0
 10
33.2258801514
 20
239.4198385499
 30
0.0
 10
33.4030039979
 20
239.5581519768
 30
0.0
 10
33.650703187
 20
239.7489934392
 30
0.0
 10
33.8667481624
 20
239.8914102542
 30
0.0
 10
33.9826929309
 20
239.9593780934
 30
0.0
  0
SPLINE
  5
384
330
208
100
AcDbEntity
  8
0
  6
Continuous
 62
     0
100
AcDbSpline
210
0.0
220
0.0
230
1.0
 70
     8
 71
     3
 72
    14
 73
    10
 74
     0
 42
0.0000000001
 43
0.0000000001
 40
0.0
 40
0.0
 40
0.0
 40
0.0
 40
0.3611200797
 40
0.5237677657000001
 40
0.6685457457
 40
0.7912199603
 40
0.8882801451999997
 40
0.9574861668
 40
1.0
 40
1.0
 40
1.0
 40
1.0
 10
-131.0173070691
 20
239.663831031
 30
0.0
 10
-131.1552633983
 20
239.5020886132
 30
0.0
 10
-131.3390378327
 20
239.2535169613
 30
0.0
 10
-131.5559079104
 20
238.9252254364
 30
0.0
 10
-131.6924627779
 20
238.7118692499
 30
0.0
 10
-131.8089833828
 20
238.5320502855
 30
0.0
 10
-131.9078427238
 20
238.3924840577
 30
0.0
 10
-131.9865511442
 20
238.3002142166
 30
0.0
 10
-132.0433147688
 20
238.258966651
 30
0.0
 10
-132.0681001219
 20
238.2554958428
 30
0.0
  0
SPLINE
  5
385
330
208
100
AcDbEntity
  8
0
  6
Continuous
 62
     0
100
AcDbSpline
210
0.0
220
0.0
230
1.0
 70
     8
 71
     3
 72
    14
 73
    10
 74
     0
 42
0.0000000001
 43
0.0000000001
 40
0.0
 40
0.0
 40
0.0
 40
0.0
 40
0.0425138332
 40
0.1117198548
 40
0.2087800397
 40
0.3314542543
 40
0.4762322343000001
 40
0.6388799203
 40
1.0
 40
1.0
 40
1.0
 40
1.0
 10
10.5040566078
 20
238.2554958428
 30
0.0
 10
10.4792712547
 20
238.258966651
 30
0.0
 10
10.4225076301
 20
238.3002142166
 30
0.0
 10
10.3437992097
 20
238.3924840577
 30
0.0
 10
10.2449398687
 20
238.5320502855
 30
0.0
 10
10.1284192638
 20
238.7118692499
 30
0.0
 10
9.9918643963
 20
238.9252254364
 30
0.0
 10
9.774994318600001
 20
239.2535169613
 30
0.0
 10
9.591219884199999
 20
239.5020886132
 30
0.0
 10
9.453263554999999
 20
239.663831031
 30
0.0
  0
SPLINE
  5
386
330
208
100
AcDbEntity
  8
0
  6
Continuous
 62
     0
100
AcDbSpline
210
0.0
220
0.0
230
1.0
 70
     8
 71
     3
 72
    14
 73
    10
 74
     0
 42
0.0000000001
 43
0.0000000001
 40
0.0
 40
0.0
 40
0.0
 40
0.0
 40
0.3611200797
 40
0.5237677657000001
 40
0.6685457457
 40
0.7912199603
 40
0.8882801451999997
 40
0.9574861668
 40
1.0
 40
1.0
 40
1.0
 40
1.0
 10
33.9826929309
 20
239.663831031
 30
0.0
 10
33.8447366016
 20
239.5020886132
 30
0.0
 10
33.6609621673
 20
239.2535169613
 30
0.0
 10
33.4440920896
 20
238.9252254364
 30
0.0
 10
33.3075372221
 20
238.7118692499
 30
0.0
 10
33.1910166172
 20
238.5320502855
 30
0.0
 10
33.0921572762
 20
238.3924840577
 30
0.0
 10
33.0134488558
 20
238.3002142166
 30
0.0
 10
32.9566852312
 20
238.258966651
 30
0.0
 10
32.9318998781
 20
238.2554958428
 30
0.0
  0
SPLINE
  5
387
330
208
100
AcDbEntity
  8
0
  6
Continuous
 62
     0
100
AcDbSpline
210
0.0
220
0.0
230
1.0
 70
     8
 71
     3
 72
    14
 73
    10
 74
     0
 42
0.0000000001
 43
0.0000000001
 40
0.0
 40
0.0
 40
0.0
 40
0.0
 40
0.0425138332
 40
0.1117198548
 40
0.2087800397
 40
0.3314542543
 40
0.4762322343000001
 40
0.6388799203
 40
1.0
 40
1.0
 40
1.0
 40
1.0
 10
231.5040566078
 20
238.2554958428
 30
0.0
 10
231.4792712547
 20
238.258966651
 30
0.0
 10
231.4225076301
 20
238.3002142166
 30
0.0
 10
231.3437992097
 20
238.3924840577
 30
0.0
 10
231.2449398687
 20
238.5320502855
 30
0.0
 10
231.1284192638
 20
238.7118692499
 30
0.0
 10
230.9918643963
 20
238.9252254364
 30
0.0
 10
230.7749943186
 20
239.2535169613
 30
0.0
 10
230.5912198842
 20
239.5020886132
 30
0.0
 10
230.453263555
 20
239.663831031
 30
0.0
  0
SPLINE
  5
388
330
208
100
AcDbEntity
  8
0
  6
Continuous
 62
     0
100
AcDbSpline
210
0.0
220
0.0
230
1.0
 70
     8
 71
     3
 72
    14
 73
    10
 74
     0
 42
0.0000000001
 43
0.0000000001
 40
0.0
 40
0.0
 40
0.0
 40
0.0
 40
0.3611200797
 40
0.5237677657000001
 40
0.6685457457
 40
0.7912199603
 40
0.8882801451999997
 40
0.9574861668
 40
1.0
 40
1.0
 40
1.0
 40
1.0
 10
254.9826929309
 20
239.663831031
 30
0.0
 10
254.8447366016
 20
239.5020886132
 30
0.0
 10
254.6609621673
 20
239.2535169613
 30
0.0
 10
254.4440920896
 20
238.9252254364
 30
0.0
 10
254.3075372221
 20
238.7118692499
 30
0.0
 10
254.1910166172
 20
238.5320502855
 30
0.0
 10
254.0921572762
 20
238.3924840577
 30
0.0
 10
254.0134488558
 20
238.3002142166
 30
0.0
 10
253.9566852312
 20
238.258966651
 30
0.0
 10
253.9318998781
 20
238.2554958428
 30
0.0
  0
SPLINE
  5
389
330
208
100
AcDbEntity
  8
0
  6
Continuous
 62
     0
100
AcDbSpline
210
0.0
220
0.0
230
1.0
 70
     8
 71
     3
 72
    14
 73
    10
 74
     0
 42
0.0000000001
 43
0.0000000001
 40
0.0
 40
0.0
 40
0.0
 40
0.0
 40
0.0425138332
 40
0.1117198548
 40
0.2087800397
 40
0.3314542543
 40
0.4762322343000001
 40
0.6388799203
 40
1.0
 40
1.0
 40
1.0
 40
1.0
 10
396.5040566078
 20
238.2554958428
 30
0.0
 10
396.4792712547
 20
238.258966651
 30
0.0
 10
396.4225076301
 20
238.3002142166
 30
0.0
 10
396.3437992097
 20
238.3924840577
 30
0.0
 10
396.2449398687001
 20
238.5320502855
 30
0.0
 10
396.1284192638
 20
238.7118692499
 30
0.0
 10
395.9918643962999
 20
238.9252254364
 30
0.0
 10
395.7749943186
 20
239.2535169613
 30
0.0
 10
395.5912198842
 20
239.5020886132
 30
0.0
 10
395.453263555
 20
239.663831031
 30
0.0
  0
SPLINE
  5
38A
330
208
100
AcDbEntity
  8
0
  6
Continuous
 62
     0
100
AcDbSpline
210
0.0
220
0.0
230
1.0
 70
     8
 71
     3
 72
     9
 73
     5
 74
     0
 42
0.0000000001
 43
0.0000000001
 40
0.0
 40
0.0
 40
0.0
 40
0.0
 40
0.2521100781999999
 40
1.0
 40
1.0
 40
1.0
 40
1.0
 10
394.9643160524
 20
240.2549251557
 30
0.0
 10
395.0050382068
 20
240.2049492748
 30
0.0
 10
395.1665698184
 20
240.006728716
 30
0.0
 10
395.3291591287
 20
239.809333235
 30
0.0
 10
395.453263555
 20
239.663831031
 30
0.0
  0
SPLINE
  5
38B
330
208
100
AcDbEntity
  8
0
  6
Continuous
 62
     0
100
AcDbSpline
210
0.0
220
0.0
230
1.0
 70
     8
 71
     3
 72
     9
 73
     5
 74
     0
 42
0.0000000001
 43
0.0000000001
 40
0.0
 40
0.0
 40
0.0
 40
0.0
 40
0.2521100781999999
 40
1.0
 40
1.0
 40
1.0
 40
1.0
 10
229.9643160524
 20
240.2549251557
 30
0.0
 10
230.0050382068
 20
240.2049492748
 30
0.0
 10
230.1665698184
 20
240.006728716
 30
0.0
 10
230.3291591287
 20
239.809333235
 30
0.0
 10
230.453263555
 20
239.663831031
 30
0.0
  0
SPLINE
  5
38C
330
208
100
AcDbEntity
  8
0
  6
Continuous
 62
     0
100
AcDbSpline
210
0.0
220
0.0
230
1.0
 70
     8
 71
     3
 72
     9
 73
     5
 74
     0
 42
0.0000000001
 43
0.0000000001
 40
0.0
 40
0.0
 40
0.0
 40
0.0
 40
0.2521100781999999
 40
1.0
 40
1.0
 40
1.0
 40
1.0
 10
255.4716404335
 20
240.2549251557
 30
0.0
 10
255.4309182791
 20
240.2049492748
 30
0.0
 10
255.2693866675
 20
240.006728716
 30
0.0
 10
255.1067973572
 20
239.809333235
 30
0.0
 10
254.9826929309
 20
239.663831031
 30
0.0
  0
SPLINE
  5
38D
330
208
100
AcDbEntity
  8
0
  6
Continuous
 62
     0
100
AcDbSpline
210
0.0
220
0.0
230
1.0
 70
     8
 71
     3
 72
     9
 73
     5
 74
     0
 42
0.0000000001
 43
0.0000000001
 40
0.0
 40
0.0
 40
0.0
 40
0.0
 40
0.2521100781999999
 40
1.0
 40
1.0
 40
1.0
 40
1.0
 10
8.9643160524
 20
240.2549251557
 30
0.0
 10
9.0050382068
 20
240.2049492748
 30
0.0
 10
9.166569818400001
 20
240.006728716
 30
0.0
 10
9.3291591287
 20
239.809333235
 30
0.0
 10
9.453263554999999
 20
239.663831031
 30
0.0
  0
SPLINE
  5
38E
330
208
100
AcDbEntity
  8
0
  6
Continuous
 62
     0
100
AcDbSpline
210
0.0
220
0.0
230
1.0
 70
     8
 71
     3
 72
     9
 73
     5
 74
     0
 42
0.0000000001
 43
0.0000000001
 40
0.0
 40
0.0
 40
0.0
 40
0.0
 40
0.2521100781999999
 40
1.0
 40
1.0
 40
1.0
 40
1.0
 10
34.4716404335
 20
240.2549251557
 30
0.0
 10
34.4309182791
 20
240.2049492748
 30
0.0
 10
34.2693866675
 20
240.006728716
 30
0.0
 10
34.1067973572
 20
239.809333235
 30
0.0
 10
33.9826929309
 20
239.663831031
 30
0.0
  0
SPLINE
  5
38F
330
208
100
AcDbEntity
  8
0
  6
Continuous
 62
     0
100
AcDbSpline
210
0.0
220
0.0
230
1.0
 70
     8
 71
     3
 72
     9
 73
     5
 74
     0
 42
0.0000000001
 43
0.0000000001
 40
0.0
 40
0.0
 40
0.0
 40
0.0
 40
0.2521100781999999
 40
1.0
 40
1.0
 40
1.0
 40
1.0
 10
-130.5283595665
 20
240.2549251557
 30
0.0
 10
-130.5690817209
 20
240.2049492748
 30
0.0
 10
-130.7306133325
 20
240.006728716
 30
0.0
 10
-130.8932026428
 20
239.809333235
 30
0.0
 10
-131.0173070691
 20
239.663831031
 30
0.0
  0
ENDSEC
  0
SECTION
  2
OBJECTS
  0
DICTIONARY
  5
C
330
0
100
AcDbDictionary
281
     1
  3
ACAD_2007HEADERVARS_RT
350
A38
  3
ACAD_COLOR
350
3C2
  3
ACAD_GROUP
350
D
  3
ACAD_LAYOUT
350
1A
  3
ACAD_MATERIAL
350
395
  3
ACAD_MLEADERSTYLE
350
3D7
  3
ACAD_MLINESTYLE
350
17
  3
ACAD_PLOTSETTINGS
350
19
  3
ACAD_PLOTSTYLENAME
350
E
  3
ACAD_SCALELIST
350
3C5
  3
ACAD_TABLESTYLE
350
3C3
  3
ACAD_VISUALSTYLE
350
3AE
  3
ACDB_RECOMPOSE_DATA
350
A36
  3
AcDbVariableDictionary
350
4A9
  3
AcmDictionary
350
431
  3
AMG
350
3DB
  3
AMGSNAPSETTINGS
350
487
  3
DWGPROPS
350
A37
  0
DICTIONARY
  5
587
330
2
100
AcDbDictionary
280
     1
281
     1
  3
ACAD_LAYERSTATES
360
588
  0
DICTIONARY
  5
584
330
583
100
AcDbDictionary
280
     1
281
     1
  0
DICTIONARY
  5
A38
102
{ACAD_REACTORS
330
C
102
}
330
C
100
AcDbDictionary
281
     1
  3
DIMJOGANG
350
A39
  3
DIMLTEX1
350
A3B
  3
DIMLTEX2
350
A3C
  3
DIMLTYPE
350
A3A
  0
DICTIONARY
  5
3C2
102
{ACAD_REACTORS
330
C
102
}
330
C
100
AcDbDictionary
281
     1
  0
DICTIONARY
  5
D
102
{ACAD_REACTORS
330
C
102
}
330
C
100
AcDbDictionary
281
     1
  0
DICTIONARY
  5
1A
102
{ACAD_REACTORS
330
C
102
}
330
C
100
AcDbDictionary
281
     1
  3
Layout1
350
391
  3
Model
350
390
  0
DICTIONARY
  5
395
102
{ACAD_REACTORS
330
C
102
}
330
C
100
AcDbDictionary
281
     1
  3
ByBlock
350
39E
  3
ByLayer
350
396
  3
Global
350
3A6
  0
DICTIONARY
  5
3D7
102
{ACAD_REACTORS
330
C
102
}
330
C
100
AcDbDictionary
281
     1
  3
Standard
350
3D8
  0
DICTIONARY
  5
17
102
{ACAD_REACTORS
330
C
102
}
330
C
100
AcDbDictionary
281
     1
  3
Standard
350
18
  0
DICTIONARY
  5
19
102
{ACAD_REACTORS
330
C
102
}
330
C
100
AcDbDictionary
281
     1
  0
ACDBDICTIONARYWDFLT
  5
E
102
{ACAD_REACTORS
330
C
102
}
330
C
100
AcDbDictionary
281
     1
  3
Normal
350
F
100
AcDbDictionaryWithDefault
340
F
  0
DICTIONARY
  5
3C5
102
{ACAD_REACTORS
330
C
102
}
330
C
100
AcDbDictionary
281
     1
  3
A0
350
3C6
  3
A1
350
3C7
  3
A2
350
3C8
  3
A3
350
3C9
  3
A4
350
3CA
  3
A5
350
3CB
  3
A6
350
3CC
  3
A7
350
3CD
  3
A8
350
3CE
  3
A9
350
3CF
  3
B0
350
3D0
  3
B1
350
3D1
  3
B2
350
3D2
  3
B3
350
3D3
  3
B4
350
3D4
  3
B5
350
3D5
  3
B6
350
3D6
  0
DICTIONARY
  5
3C3
102
{ACAD_REACTORS
330
C
102
}
330
C
100
AcDbDictionary
281
     1
  3
Standard
350
3C4
  0
DICTIONARY
  5
3AE
102
{ACAD_REACTORS
330
C
102
}
330
C
100
AcDbDictionary
281
     1
  3
2dWireframe
350
3B4
  3
3D Hidden
350
3B6
  3
3dWireframe
350
3B5
  3
Basic
350
3B3
  3
Brighten
350
3BA
  3
ColorChange
350
3BE
  3
Conceptual
350
3B7
  3
Dim
350
3B9
  3
EdgeColorOff
350
3C1
  3
Facepattern
350
3BD
  3
Flat
350
3AF
  3
FlatWithEdges
350
3B0
  3
Gouraud
350
3B1
  3
GouraudWithEdges
350
3B2
  3
JitterOff
350
3BF
  3
Linepattern
350
3BC
  3
OverhangOff
350
3C0
  3
Realistic
350
3B8
  3
Thicken
350
3BB
  0
XRECORD
  5
A36
102
{ACAD_REACTORS
330
C
102
}
330
C
100
AcDbXrecord
280
     1
 90
        1
330
3C4
  0
DICTIONARY
  5
4A9
102
{ACAD_REACTORS
330
C
102
}
330
C
100
AcDbDictionary
281
     1
  3
CANNOSCALE
350
4AD
  3
CMLEADERSTYLE
350
4AB
  3
CTABLESTYLE
350
4AA
  3
DIMASSOC
350
4B4
  3
HIDETEXT
350
4B3
  3
INDEXCTL
350
4B2
  3
LAYEREVAL
350
4AF
  3
LAYERNOTIFY
350
4B0
  3
LIGHTINGUNITS
350
4AE
  3
MSLTSCALE
350
4AC
  3
SORTENTS
350
4B1
  3
XCLIPFRAME
350
A34
  0
DICTIONARY
  5
431
102
{ACAD_REACTORS
330
C
102
}
330
C
100
AcDbDictionary
281
     1
  3
AcmStdDictionary
350
43D
  0
DICTIONARY
  5
3DB
102
{ACAD_REACTORS
330
C
102
}
330
C
100
AcDbDictionary
281
     1
  0
DICTIONARY
  5
487
102
{ACAD_REACTORS
330
C
102
}
330
C
100
AcDbDictionary
281
     1
  0
XRECORD
  5
A37
102
{ACAD_REACTORS
330
C
102
}
330
C
100
AcDbXrecord
280
     1
  1
DWGPROPS COOKIE
  2

  3

  4

  6

  7

  8
MAlaie
  9

300
=
301
=
302
=
303
=
304
=
305
=
306
=
307
=
308
=
309
=
 40
0.024303275462963
 41
2456686.333579583
 42
2456686.559060868
  1

 90
        0
  0
DICTIONARY
  5
588
102
{ACAD_REACTORS
330
587
102
}
330
587
100
AcDbDictionary
281
     1
  0
XRECORD
  5
A39
102
{ACAD_REACTORS
330
A38
102
}
330
A38
100
AcDbXrecord
280
     1
 40
1.570796326794896
  0
XRECORD
  5
A3B
102
{ACAD_REACTORS
330
A38
102
}
330
A38
100
AcDbXrecord
280
     1
340
14
  0
XRECORD
  5
A3C
102
{ACAD_REACTORS
330
A38
102
}
330
A38
100
AcDbXrecord
280
     1
340
14
  0
XRECORD
  5
A3A
102
{ACAD_REACTORS
330
A38
102
}
330
A38
100
AcDbXrecord
280
     1
340
14
  0
LAYOUT
  5
391
102
{ACAD_XDICTIONARY
360
A3F
102
}
102
{ACAD_REACTORS
330
1A
102
}
330
1A
100
AcDbPlotSettings
  1

  2
none_device
  4
ISO_A3_(420.00_x_297.00_MM)
  6

 40
0.0
 41
0.0
 42
0.0
 43
0.0
 44
420.0
 45
297.0
 46
0.0
 47
0.0
 48
0.0
 49
0.0
140
0.0
141
0.0
142
1.0
143
1.0
 70
     0
 72
     1
 73
     0
 74
     0
  7

 75
     0
147
1.0
148
0.0
149
0.0
100
AcDbLayout
  1
Layout1
 70
     1
 71
     1
 10
0.0
 20
0.0
 11
12.0
 21
9.0
 12
0.0
 22
0.0
 32
0.0
 14
1.000000000000000E+20
 24
1.000000000000000E+20
 34
1.000000000000000E+20
 15
-1.000000000000000E+20
 25
-1.000000000000000E+20
 35
-1.000000000000000E+20
146
0.0
 13
0.0
 23
0.0
 33
0.0
 16
1.0
 26
0.0
 36
0.0
 17
0.0
 27
1.0
 37
0.0
 76
     0
330
209
  0
LAYOUT
  5
390
102
{ACAD_XDICTIONARY
360
A3D
102
}
102
{ACAD_REACTORS
330
1A
102
}
330
1A
100
AcDbPlotSettings
  1

  2
none_device
  4
ISO_A3_(420.00_x_297.00_MM)
  6

 40
0.0
 41
0.0
 42
0.0
 43
0.0
 44
420.0
 45
297.0
 46
0.0
 47
0.0
 48
0.0
 49
0.0
140
0.0
141
0.0
142
1.0
143
1.0
 70
  1024
 72
     1
 73
     0
 74
     0
  7

 75
     0
147
1.0
148
0.0
149
0.0
100
AcDbLayout
  1
Model
 70
     0
 71
     0
 10
0.0
 20
0.0
 11
420.0
 21
297.0
 12
0.0
 22
0.0
 32
0.0
 14
0.0
 24
0.0
 34
0.0
 15
0.0
 25
0.0
 35
0.0
146
0.0
 13
0.0
 23
0.0
 33
0.0
 16
1.0
 26
0.0
 36
0.0
 17
0.0
 27
1.0
 37
0.0
 76
     0
330
208
331
1F4
  0
MATERIAL
  5
39E
102
{ACAD_XDICTIONARY
360
39F
102
}
102
{ACAD_REACTORS
330
395
102
}
330
395
100
AcDbMaterial
  1
ByBlock
 72
     0
 43
0.0008202099737533
 43
0.0
 43
0.0
 43
0.0
 43
0.0
 43
0.0008202099737533
 43
0.0
 43
0.0
 43
0.0
 43
0.0
 43
1.0
 43
0.0
 43
0.0
 43
0.0
 43
0.0
 43
1.0
 77
     0
 47
0.0008202099737533
 47
0.0
 47
0.0
 47
0.0
 47
0.0
 47
0.0008202099737533
 47
0.0
 47
0.0
 47
0.0
 47
0.0
 47
1.0
 47
0.0
 47
0.0
 47
0.0
 47
0.0
 47
1.0
171
     0
 49
0.0008202099737533
 49
0.0
 49
0.0
 49
0.0
 49
0.0
 49
0.0008202099737533
 49
0.0
 49
0.0
 49
0.0
 49
0.0
 49
1.0
 49
0.0
 49
0.0
 49
0.0
 49
0.0
 49
1.0
175
     0
142
0.0008202099737533
142
0.0
142
0.0
142
0.0
142
0.0
142
0.0008202099737533
142
0.0
142
0.0
142
0.0
142
0.0
142
1.0
142
0.0
142
0.0
142
0.0
142
0.0
142
1.0
179
     0
144
0.0008202099737533
144
0.0
144
0.0
144
0.0
144
0.0
144
0.0008202099737533
144
0.0
144
0.0
144
0.0
144
0.0
144
1.0
144
0.0
144
0.0
144
0.0
144
0.0
144
1.0
147
0.0008202099737533
147
0.0
147
0.0
147
0.0
147
0.0
147
0.0008202099737533
147
0.0
147
0.0
147
0.0
147
0.0
147
1.0
147
0.0
147
0.0
147
0.0
147
0.0
147
1.0
  0
MATERIAL
  5
396
102
{ACAD_XDICTIONARY
360
397
102
}
102
{ACAD_REACTORS
330
395
102
}
330
395
100
AcDbMaterial
  1
ByLayer
 72
     0
 43
0.0008202099737533
 43
0.0
 43
0.0
 43
0.0
 43
0.0
 43
0.0008202099737533
 43
0.0
 43
0.0
 43
0.0
 43
0.0
 43
1.0
 43
0.0
 43
0.0
 43
0.0
 43
0.0
 43
1.0
 77
     0
 47
0.0008202099737533
 47
0.0
 47
0.0
 47
0.0
 47
0.0
 47
0.0008202099737533
 47
0.0
 47
0.0
 47
0.0
 47
0.0
 47
1.0
 47
0.0
 47
0.0
 47
0.0
 47
0.0
 47
1.0
171
     0
 49
0.0008202099737533
 49
0.0
 49
0.0
 49
0.0
 49
0.0
 49
0.0008202099737533
 49
0.0
 49
0.0
 49
0.0
 49
0.0
 49
1.0
 49
0.0
 49
0.0
 49
0.0
 49
0.0
 49
1.0
175
     0
142
0.0008202099737533
142
0.0
142
0.0
142
0.0
142
0.0
142
0.0008202099737533
142
0.0
142
0.0
142
0.0
142
0.0
142
1.0
142
0.0
142
0.0
142
0.0
142
0.0
142
1.0
179
     0
144
0.0008202099737533
144
0.0
144
0.0
144
0.0
144
0.0
144
0.0008202099737533
144
0.0
144
0.0
144
0.0
144
0.0
144
1.0
144
0.0
144
0.0
144
0.0
144
0.0
144
1.0
147
0.0008202099737533
147
0.0
147
0.0
147
0.0
147
0.0
147
0.0008202099737533
147
0.0
147
0.0
147
0.0
147
0.0
147
1.0
147
0.0
147
0.0
147
0.0
147
0.0
147
1.0
  0
MATERIAL
  5
3A6
102
{ACAD_XDICTIONARY
360
3A7
102
}
102
{ACAD_REACTORS
330
395
102
}
330
395
100
AcDbMaterial
  1
Global
 72
     0
 43
0.0008202099737533
 43
0.0
 43
0.0
 43
0.0
 43
0.0
 43
0.0008202099737533
 43
0.0
 43
0.0
 43
0.0
 43
0.0
 43
1.0
 43
0.0
 43
0.0
 43
0.0
 43
0.0
 43
1.0
 77
     0
 47
0.0008202099737533
 47
0.0
 47
0.0
 47
0.0
 47
0.0
 47
0.0008202099737533
 47
0.0
 47
0.0
 47
0.0
 47
0.0
 47
1.0
 47
0.0
 47
0.0
 47
0.0
 47
0.0
 47
1.0
171
     0
 49
0.0008202099737533
 49
0.0
 49
0.0
 49
0.0
 49
0.0
 49
0.0008202099737533
 49
0.0
 49
0.0
 49
0.0
 49
0.0
 49
1.0
 49
0.0
 49
0.0
 49
0.0
 49
0.0
 49
1.0
175
     0
142
0.0008202099737533
142
0.0
142
0.0
142
0.0
142
0.0
142
0.0008202099737533
142
0.0
142
0.0
142
0.0
142
0.0
142
1.0
142
0.0
142
0.0
142
0.0
142
0.0
142
1.0
179
     0
144
0.0008202099737533
144
0.0
144
0.0
144
0.0
144
0.0
144
0.0008202099737533
144
0.0
144
0.0
144
0.0
144
0.0
144
1.0
144
0.0
144
0.0
144
0.0
144
0.0
144
1.0
147
0.0008202099737533
147
0.0
147
0.0
147
0.0
147
0.0
147
0.0008202099737533
147
0.0
147
0.0
147
0.0
147
0.0
147
1.0
147
0.0
147
0.0
147
0.0
147
0.0
147
1.0
  0
MLEADERSTYLE
  5
3D8
102
{ACAD_REACTORS
330
3D7
102
}
330
3D7
100
AcDbMLeaderStyle
170
     2
171
     1
172
     0
 90
        2
 40
0.0
 41
0.0
173
     1
 91
-1056964608
340
14
 92
       -2
290
     1
 42
2.0
291
     1
 43
0.36
  3
Standard
 44
4.0
300

342
11
174
     1
178
     6
175
     1
176
     0
 93
-1056964608
 45
4.0
292
     0
297
     0
 46
4.0
 94
-1056964608
 47
1.0
 49
1.0
140
1.0
293
     1
141
0.0
294
     1
177
     0
142
1.0
295
     0
296
     0
143
0.125
1001
ACAD_MLEADERVER
1070
     2
  0
MLINESTYLE
  5
18
102
{ACAD_REACTORS
330
17
102
}
330
17
100
AcDbMlineStyle
  2
STANDARD
 70
     0
  3

 62
   256
 51
90.0
 52
90.0
 71
     2
 49
0.5
 62
   256
  6
BYLAYER
 49
-0.5
 62
   256
  6
BYLAYER
  0
ACDBPLACEHOLDER
  5
F
102
{ACAD_REACTORS
330
E
102
}
330
E
  0
SCALE
  5
3C6
102
{ACAD_REACTORS
330
3C5
102
}
330
3C5
100
AcDbScale
 70
     0
300
1:1
140
1.0
141
1.0
290
     1
  0
SCALE
  5
3C7
102
{ACAD_REACTORS
330
3C5
102
}
330
3C5
100
AcDbScale
 70
     0
300
1:2
140
1.0
141
2.0
290
     0
  0
SCALE
  5
3C8
102
{ACAD_REACTORS
330
3C5
102
}
330
3C5
100
AcDbScale
 70
     0
300
1:4
140
1.0
141
4.0
290
     0
  0
SCALE
  5
3C9
102
{ACAD_REACTORS
330
3C5
102
}
330
3C5
100
AcDbScale
 70
     0
300
1:5
140
1.0
141
5.0
290
     0
  0
SCALE
  5
3CA
102
{ACAD_REACTORS
330
3C5
102
}
330
3C5
100
AcDbScale
 70
     0
300
1:8
140
1.0
141
8.0
290
     0
  0
SCALE
  5
3CB
102
{ACAD_REACTORS
330
3C5
102
}
330
3C5
100
AcDbScale
 70
     0
300
1:10
140
1.0
141
10.0
290
     0
  0
SCALE
  5
3CC
102
{ACAD_REACTORS
330
3C5
102
}
330
3C5
100
AcDbScale
 70
     0
300
1:16
140
1.0
141
16.0
290
     0
  0
SCALE
  5
3CD
102
{ACAD_REACTORS
330
3C5
102
}
330
3C5
100
AcDbScale
 70
     0
300
1:20
140
1.0
141
20.0
290
     0
  0
SCALE
  5
3CE
102
{ACAD_REACTORS
330
3C5
102
}
330
3C5
100
AcDbScale
 70
     0
300
1:30
140
1.0
141
30.0
290
     0
  0
SCALE
  5
3CF
102
{ACAD_REACTORS
330
3C5
102
}
330
3C5
100
AcDbScale
 70
     0
300
1:40
140
1.0
141
40.0
290
     0
  0
SCALE
  5
3D0
102
{ACAD_REACTORS
330
3C5
102
}
330
3C5
100
AcDbScale
 70
     0
300
1:50
140
1.0
141
50.0
290
     0
  0
SCALE
  5
3D1
102
{ACAD_REACTORS
330
3C5
102
}
330
3C5
100
AcDbScale
 70
     0
300
1:100
140
1.0
141
100.0
290
     0
  0
SCALE
  5
3D2
102
{ACAD_REACTORS
330
3C5
102
}
330
3C5
100
AcDbScale
 70
     0
300
2:1
140
2.0
141
1.0
290
     0
  0
SCALE
  5
3D3
102
{ACAD_REACTORS
330
3C5
102
}
330
3C5
100
AcDbScale
 70
     0
300
4:1
140
4.0
141
1.0
290
     0
  0
SCALE
  5
3D4
102
{ACAD_REACTORS
330
3C5
102
}
330
3C5
100
AcDbScale
 70
     0
300
8:1
140
8.0
141
1.0
290
     0
  0
SCALE
  5
3D5
102
{ACAD_REACTORS
330
3C5
102
}
330
3C5
100
AcDbScale
 70
     0
300
10:1
140
10.0
141
1.0
290
     0
  0
SCALE
  5
3D6
102
{ACAD_REACTORS
330
3C5
102
}
330
3C5
100
AcDbScale
 70
     0
300
100:1
140
100.0
141
1.0
290
     0
  0
TABLESTYLE
  5
3C4
102
{ACAD_XDICTIONARY
360
4B6
102
}
102
{ACAD_REACTORS
330
3C3
102
}
330
3C3
100
AcDbTableStyle
  3
Standard
 70
     0
 71
     0
 40
1.5
 41
1.5
280
     0
281
     0
  7
STANDARD
140
4.5
170
     2
 62
     0
 63
     7
283
     0
274
    -2
284
     1
 64
     0
275
    -2
285
     1
 65
     0
276
    -2
286
     1
 66
     0
277
    -2
287
     1
 67
     0
278
    -2
288
     1
 68
     0
279
    -2
289
     1
 69
     0
  7
STANDARD
140
6.0
170
     5
 62
     0
 63
     7
283
     0
274
    -2
284
     1
 64
     0
275
    -2
285
     1
 65
     0
276
    -2
286
     1
 66
     0
277
    -2
287
     1
 67
     0
278
    -2
288
     1
 68
     0
279
    -2
289
     1
 69
     0
  7
STANDARD
140
4.5
170
     5
 62
     0
 63
     7
283
     0
274
    -2
284
     1
 64
     0
275
    -2
285
     1
 65
     0
276
    -2
286
     1
 66
     0
277
    -2
287
     1
 67
     0
278
    -2
288
     1
 68
     0
279
    -2
289
     1
 69
     0
  0
VISUALSTYLE
  5
3B4
102
{ACAD_XDICTIONARY
360
A4B
102
}
102
{ACAD_REACTORS
330
3AE
102
}
330
3AE
100
AcDbVisualStyle
  2

 70
     4
 71
     0
 72
     2
 73
     0
 90
        0
 40
-0.6
 41
-30.0
 62
     5
 63
     7
 74
     1
 91
        4
 64
     7
 65
   257
 75
     1
175
     1
 42
1.0
 92
        0
 66
   257
 43
1.0
 76
     1
 77
     6
 78
     2
 67
     7
 79
     5
170
     0
171
     0
290
     0
174
     0
 93
        1
 44
0.0
173
     0
291
     0
 45
0.0
1001
ACAD
1000
AcDbSavedByObjectVersion
1070
     0
  0
VISUALSTYLE
  5
3B6
102
{ACAD_XDICTIONARY
360
A4F
102
}
102
{ACAD_REACTORS
330
3AE
102
}
330
3AE
100
AcDbVisualStyle
  2

 70
     6
 71
     1
 72
     2
 73
     2
 90
        0
 40
-0.6
 41
-30.0
 62
     5
 63
     7
 74
     2
 91
        2
 64
     7
 65
   257
 75
     2
175
     1
 42
179.0
 92
        0
 66
   257
 43
1.0
 76
     1
 77
     6
 78
     2
 67
     7
 79
     3
170
     0
171
     0
290
     0
174
     0
 93
        1
 44
0.0
173
     0
291
     0
 45
0.0
1001
ACAD
1000
AcDbSavedByObjectVersion
1070
     0
  0
VISUALSTYLE
  5
3B5
102
{ACAD_XDICTIONARY
360
A4D
102
}
102
{ACAD_REACTORS
330
3AE
102
}
330
3AE
100
AcDbVisualStyle
  2

 70
     5
 71
     0
 72
     2
 73
     0
 90
        0
 40
-0.6
 41
-30.0
 62
     5
 63
     7
 74
     1
 91
        4
 64
     7
 65
   257
 75
     1
175
     1
 42
1.0
 92
        0
 66
   257
 43
1.0
 76
     1
 77
     6
 78
     2
 67
     7
 79
     5
170
     0
171
     0
290
     0
174
     0
 93
        1
 44
0.0
173
     0
291
     0
 45
0.0
1001
ACAD
1000
AcDbSavedByObjectVersion
1070
     0
  0
VISUALSTYLE
  5
3B3
102
{ACAD_XDICTIONARY
360
A49
102
}
102
{ACAD_REACTORS
330
3AE
102
}
330
3AE
100
AcDbVisualStyle
  2

 70
     7
 71
     1
 72
     0
 73
     1
 90
        0
 40
-0.6
 41
-30.0
 62
     5
 63
     7
 74
     0
 91
        4
 64
     7
 65
   257
 75
     1
175
     1
 42
1.0
 92
        8
 66
     7
 43
1.0
 76
     1
 77
     6
 78
     2
 67
     7
 79
     5
170
     0
171
     0
290
     0
174
     0
 93
        1
 44
0.0
173
     0
291
     1
 45
0.0
1001
ACAD
1000
AcDbSavedByObjectVersion
1070
     0
  0
VISUALSTYLE
  5
3BA
102
{ACAD_XDICTIONARY
360
A57
102
}
102
{ACAD_REACTORS
330
3AE
102
}
330
3AE
100
AcDbVisualStyle
  2

 70
    12
 71
     2
 72
     2
 73
     0
 90
        0
 40
-0.6
 41
-30.0
 62
     5
 63
     7
 74
     1
 91
        4
 64
     7
 65
   257
 75
     1
175
     1
 42
1.0
 92
        8
 66
     7
 43
1.0
 76
     1
 77
     6
 78
     2
 67
     7
 79
     5
170
     0
171
     0
290
     0
174
     0
 93
        1
 44
50.0
173
     0
291
     1
 45
0.0
1001
ACAD
1000
AcDbSavedByObjectVersion
1070
     0
  0
VISUALSTYLE
  5
3BE
102
{ACAD_XDICTIONARY
360
A5F
102
}
102
{ACAD_REACTORS
330
3AE
102
}
330
3AE
100
AcDbVisualStyle
  2

 70
    16
 71
     2
 72
     2
 73
     3
 90
        0
 40
-0.6
 41
-30.0
 62
     5
 63
     8
 74
     1
 91
        4
 64
     7
 65
   257
 75
     1
175
     1
 42
1.0
 92
        8
 66
     8
 43
1.0
 76
     1
 77
     6
 78
     2
 67
     7
 79
     5
170
     0
171
     0
290
     0
174
     0
 93
        1
 44
0.0
173
     0
291
     1
 45
0.0
1001
ACAD
1000
AcDbSavedByObjectVersion
1070
     0
  0
VISUALSTYLE
  5
3B7
102
{ACAD_XDICTIONARY
360
A51
102
}
102
{ACAD_REACTORS
330
3AE
102
}
330
3AE
100
AcDbVisualStyle
  2

 70
     9
 71
     3
 72
     2
 73
     0
 90
        0
 40
-0.6
 41
-30.0
 62
     5
 63
     7
 74
     2
 91
        2
 64
     7
 65
   257
 75
     1
175
     1
 42
179.0
 92
        8
 66
     7
 43
1.0
 76
     1
 77
     6
 78
     2
 67
     7
 79
     3
170
     0
171
     0
290
     0
174
     0
 93
        1
 44
0.0
173
     0
291
     0
 45
0.0
1001
ACAD
1000
AcDbSavedByObjectVersion
1070
     0
  0
VISUALSTYLE
  5
3B9
102
{ACAD_XDICTIONARY
360
A55
102
}
102
{ACAD_REACTORS
330
3AE
102
}
330
3AE
100
AcDbVisualStyle
  2

 70
    11
 71
     2
 72
     2
 73
     0
 90
        0
 40
-0.6
 41
-30.0
 62
     5
 63
     7
 74
     1
 91
        4
 64
     7
 65
   257
 75
     1
175
     1
 42
1.0
 92
        8
 66
     7
 43
1.0
 76
     1
 77
     6
 78
     2
 67
     7
 79
     5
170
     0
171
     0
290
     0
174
     0
 93
        1
 44
-50.0
173
     0
291
     1
 45
0.0
1001
ACAD
1000
AcDbSavedByObjectVersion
1070
     0
  0
VISUALSTYLE
  5
3C1
102
{ACAD_XDICTIONARY
360
A65
102
}
102
{ACAD_REACTORS
330
3AE
102
}
330
3AE
100
AcDbVisualStyle
  2

 70
    22
 71
     2
 72
     2
 73
     0
 90
        0
 40
-0.6
 41
-30.0
 62
     5
 63
     7
 74
     1
 91
        4
 64
     7
 65
   257
 75
     1
175
     1
 42
1.0
 92
        8
 66
     7
 43
1.0
 76
     1
 77
     6
 78
     2
 67
     7
 79
     5
170
     0
171
     0
290
     0
174
     0
 93
        1
 44
0.0
173
     0
291
     1
 45
0.0
1001
ACAD
1000
AcDbSavedByObjectVersion
1070
     0
  0
VISUALSTYLE
  5
3BD
102
{ACAD_XDICTIONARY
360
A5D
102
}
102
{ACAD_REACTORS
330
3AE
102
}
330
3AE
100
AcDbVisualStyle
  2

 70
    15
 71
     2
 72
     2
 73
     0
 90
        0
 40
-0.6
 41
-30.0
 62
     5
 63
     7
 74
     1
 91
        4
 64
     7
 65
   257
 75
     1
175
     1
 42
1.0
 92
        8
 66
     7
 43
1.0
 76
     1
 77
     6
 78
     2
 67
     7
 79
     5
170
     0
171
     0
290
     0
174
     0
 93
        1
 44
0.0
173
     0
291
     1
 45
0.0
1001
ACAD
1000
AcDbSavedByObjectVersion
1070
     0
  0
VISUALSTYLE
  5
3AF
102
{ACAD_XDICTIONARY
360
A41
102
}
102
{ACAD_REACTORS
330
3AE
102
}
330
3AE
100
AcDbVisualStyle
  2

 70
     0
 71
     2
 72
     1
 73
     1
 90
        2
 40
-0.6
 41
30.0
 62
     5
 63
     7
 74
     0
 91
        4
 64
     7
 65
   257
 75
     1
175
     1
 42
1.0
 92
        8
 66
     7
 43
1.0
 76
     1
 77
     6
 78
     2
 67
     7
 79
     5
170
     0
171
     0
290
     0
174
     0
 93
       13
 44
0.0
173
     0
291
     1
 45
0.0
1001
ACAD
1000
AcDbSavedByObjectVersion
1070
     0
  0
VISUALSTYLE
  5
3B0
102
{ACAD_XDICTIONARY
360
A43
102
}
102
{ACAD_REACTORS
330
3AE
102
}
330
3AE
100
AcDbVisualStyle
  2

 70
     1
 71
     2
 72
     1
 73
     1
 90
        2
 40
-0.6
 41
30.0
 62
     5
 63
     7
 74
     1
 91
        4
 64
     7
 65
   257
 75
     1
175
     1
 42
1.0
 92
        0
 66
   257
 43
1.0
 76
     1
 77
     6
 78
     2
 67
     7
 79
     5
170
     0
171
     0
290
     0
174
     0
 93
       13
 44
0.0
173
     0
291
     1
 45
0.0
1001
ACAD
1000
AcDbSavedByObjectVersion
1070
     0
  0
VISUALSTYLE
  5
3B1
102
{ACAD_XDICTIONARY
360
A45
102
}
102
{ACAD_REACTORS
330
3AE
102
}
330
3AE
100
AcDbVisualStyle
  2

 70
     2
 71
     2
 72
     2
 73
     1
 90
        2
 40
-0.6
 41
30.0
 62
     5
 63
     7
 74
     0
 91
        4
 64
     7
 65
   257
 75
     1
175
     1
 42
1.0
 92
        0
 66
     7
 43
1.0
 76
     1
 77
     6
 78
     2
 67
     7
 79
     5
170
     0
171
     0
290
     0
174
     0
 93
       13
 44
0.0
173
     0
291
     1
 45
0.0
1001
ACAD
1000
AcDbSavedByObjectVersion
1070
     0
  0
VISUALSTYLE
  5
3B2
102
{ACAD_XDICTIONARY
360
A47
102
}
102
{ACAD_REACTORS
330
3AE
102
}
330
3AE
100
AcDbVisualStyle
  2

 70
     3
 71
     2
 72
     2
 73
     1
 90
        2
 40
-0.6
 41
30.0
 62
     5
 63
     7
 74
     1
 91
        4
 64
     7
 65
   257
 75
     1
175
     1
 42
1.0
 92
        0
 66
   257
 43
1.0
 76
     1
 77
     6
 78
     2
 67
     7
 79
     5
170
     0
171
     0
290
     0
174
     0
 93
       13
 44
0.0
173
     0
291
     1
 45
0.0
1001
ACAD
1000
AcDbSavedByObjectVersion
1070
     0
  0
VISUALSTYLE
  5
3BF
102
{ACAD_XDICTIONARY
360
A61
102
}
102
{ACAD_REACTORS
330
3AE
102
}
330
3AE
100
AcDbVisualStyle
  2

 70
    20
 71
     2
 72
     2
 73
     0
 90
        0
 40
-0.6
 41
-30.0
 62
     5
 63
     7
 74
     1
 91
        4
 64
     7
 65
   257
 75
     1
175
     1
 42
1.0
 92
       10
 66
     7
 43
1.0
 76
     1
 77
     6
 78
     2
 67
     7
 79
     5
170
     0
171
     0
290
     0
174
     0
 93
        1
 44
0.0
173
     0
291
     1
 45
0.0
1001
ACAD
1000
AcDbSavedByObjectVersion
1070
     0
  0
VISUALSTYLE
  5
3BC
102
{ACAD_XDICTIONARY
360
A5B
102
}
102
{ACAD_REACTORS
330
3AE
102
}
330
3AE
100
AcDbVisualStyle
  2

 70
    14
 71
     2
 72
     2
 73
     0
 90
        0
 40
-0.6
 41
-30.0
 62
     5
 63
     7
 74
     1
 91
        4
 64
     7
 65
   257
 75
     7
175
     7
 42
1.0
 92
        8
 66
     7
 43
1.0
 76
     1
 77
     6
 78
     2
 67
     7
 79
     5
170
     0
171
     0
290
     0
174
     0
 93
        1
 44
0.0
173
     0
291
     1
 45
0.0
1001
ACAD
1000
AcDbSavedByObjectVersion
1070
     0
  0
VISUALSTYLE
  5
3C0
102
{ACAD_XDICTIONARY
360
A63
102
}
102
{ACAD_REACTORS
330
3AE
102
}
330
3AE
100
AcDbVisualStyle
  2

 70
    21
 71
     2
 72
     2
 73
     0
 90
        0
 40
-0.6
 41
-30.0
 62
     5
 63
     7
 74
     1
 91
        4
 64
     7
 65
   257
 75
     1
175
     1
 42
1.0
 92
        9
 66
     7
 43
1.0
 76
     1
 77
     6
 78
     2
 67
     7
 79
     5
170
     0
171
     0
290
     0
174
     0
 93
        1
 44
0.0
173
     0
291
     1
 45
0.0
1001
ACAD
1000
AcDbSavedByObjectVersion
1070
     0
  0
VISUALSTYLE
  5
3B8
102
{ACAD_XDICTIONARY
360
A53
102
}
102
{ACAD_REACTORS
330
3AE
102
}
330
3AE
100
AcDbVisualStyle
  2

 70
     8
 71
     2
 72
     2
 73
     0
 90
        0
 40
-0.6
 41
-30.0
 62
     5
 63
     7
 74
     1
 91
        0
 64
     7
 65
   257
 75
     1
175
     1
 42
1.0
 92
        8
 66
     8
 43
1.0
 76
     1
 77
     6
 78
     2
 67
     7
 79
     5
170
     0
171
     0
290
     0
174
     0
 93
       13
 44
0.0
173
     0
291
     0
 45
0.0
1001
ACAD
1000
AcDbSavedByObjectVersion
1070
     0
  0
VISUALSTYLE
  5
3BB
102
{ACAD_XDICTIONARY
360
A59
102
}
102
{ACAD_REACTORS
330
3AE
102
}
330
3AE
100
AcDbVisualStyle
  2

 70
    13
 71
     2
 72
     2
 73
     0
 90
        0
 40
-0.6
 41
-30.0
 62
     5
 63
     7
 74
     1
 91
        4
 64
     7
 65
   257
 75
     1
175
     1
 42
1.0
 92
       12
 66
     7
 43
1.0
 76
     1
 77
     6
 78
     2
 67
     7
 79
     5
170
     0
171
     0
290
     0
174
     0
 93
        1
 44
0.0
173
     0
291
     1
 45
0.0
1001
ACAD
1000
AcDbSavedByObjectVersion
1070
     0
  0
DICTIONARYVAR
  5
4AD
102
{ACAD_REACTORS
330
4A9
102
}
330
4A9
100
DictionaryVariables
280
     0
  1
1:1
  0
DICTIONARYVAR
  5
4AB
102
{ACAD_REACTORS
330
4A9
102
}
330
4A9
100
DictionaryVariables
280
     0
  1
STANDARD
  0
DICTIONARYVAR
  5
4AA
102
{ACAD_REACTORS
330
4A9
102
}
330
4A9
100
DictionaryVariables
280
     0
  1
STANDARD
  0
DICTIONARYVAR
  5
4B4
102
{ACAD_REACTORS
330
4A9
102
}
330
4A9
100
DictionaryVariables
280
     0
  1
2
  0
DICTIONARYVAR
  5
4B3
102
{ACAD_REACTORS
330
4A9
102
}
330
4A9
100
DictionaryVariables
280
     0
  1
1
  0
DICTIONARYVAR
  5
4B2
102
{ACAD_REACTORS
330
4A9
102
}
330
4A9
100
DictionaryVariables
280
     0
  1
0
  0
DICTIONARYVAR
  5
4AF
102
{ACAD_REACTORS
330
4A9
102
}
330
4A9
100
DictionaryVariables
280
     0
  1
0
  0
DICTIONARYVAR
  5
4B0
102
{ACAD_REACTORS
330
4A9
102
}
330
4A9
100
DictionaryVariables
280
     0
  1
0
  0
DICTIONARYVAR
  5
4AE
102
{ACAD_REACTORS
330
4A9
102
}
330
4A9
100
DictionaryVariables
280
     0
  1
2
  0
DICTIONARYVAR
  5
4AC
102
{ACAD_REACTORS
330
4A9
102
}
330
4A9
100
DictionaryVariables
280
     0
  1
1
  0
DICTIONARYVAR
  5
4B1
102
{ACAD_REACTORS
330
4A9
102
}
330
4A9
100
DictionaryVariables
280
     0
  1
127
  0
DICTIONARYVAR
  5
A34
102
{ACAD_REACTORS
330
4A9
102
}
330
4A9
100
DictionaryVariables
280
     0
  1
2
  0
DICTIONARY
  5
43D
102
{ACAD_REACTORS
330
431
102
}
330
431
100
AcDbDictionary
281
     1
  0
DICTIONARY
  5
A3F
330
391
100
AcDbDictionary
280
     1
281
     1
  3
ACAD_XREC_ROUNDTRIP
360
A40
  0
DICTIONARY
  5
A3D
330
390
100
AcDbDictionary
280
     1
281
     1
  3
ACAD_XREC_ROUNDTRIP
360
A3E
  0
DICTIONARY
  5
39F
330
39E
100
AcDbDictionary
280
     1
281
     1
  3
ACAD_XREC_ROUNDTRIP
360
4BF
  3
BUMPTILE
360
3A1
  3
DIFFUSETILE
360
3A0
  3
OPACITYTILE
360
3A4
  3
REFLECTIONTILE
360
3A3
  3
REFRACTIONTILE
360
3A5
  3
SPECULARTILE
360
3A2
  0
DICTIONARY
  5
397
330
396
100
AcDbDictionary
280
     1
281
     1
  3
ACAD_XREC_ROUNDTRIP
360
4BE
  3
BUMPTILE
360
399
  3
DIFFUSETILE
360
398
  3
OPACITYTILE
360
39C
  3
REFLECTIONTILE
360
39B
  3
REFRACTIONTILE
360
39D
  3
SPECULARTILE
360
39A
  0
DICTIONARY
  5
3A7
330
3A6
100
AcDbDictionary
280
     1
281
     1
  3
ACAD_XREC_ROUNDTRIP
360
4C0
  3
BUMPTILE
360
3A9
  3
DIFFUSETILE
360
3A8
  3
OPACITYTILE
360
3AC
  3
REFLECTIONTILE
360
3AB
  3
REFRACTIONTILE
360
3AD
  3
SPECULARTILE
360
3AA
  0
DICTIONARY
  5
4B6
330
3C4
100
AcDbDictionary
280
     1
281
     1
  3
ACAD_ROUNDTRIP_2008_TABLESTYLE_CELLSTYLEMAP
360
A35
  3
ACAD_XREC_ROUNDTRIP
360
A67
  0
DICTIONARY
  5
A4B
330
3B4
100
AcDbDictionary
280
     1
281
     1
  3
ACAD_XREC_ROUNDTRIP
360
A4C
  0
DICTIONARY
  5
A4F
330
3B6
100
AcDbDictionary
280
     1
281
     1
  3
ACAD_XREC_ROUNDTRIP
360
A50
  0
DICTIONARY
  5
A4D
330
3B5
100
AcDbDictionary
280
     1
281
     1
  3
ACAD_XREC_ROUNDTRIP
360
A4E
  0
DICTIONARY
  5
A49
330
3B3
100
AcDbDictionary
280
     1
281
     1
  3
ACAD_XREC_ROUNDTRIP
360
A4A
  0
DICTIONARY
  5
A57
330
3BA
100
AcDbDictionary
280
     1
281
     1
  3
ACAD_XREC_ROUNDTRIP
360
A58
  0
DICTIONARY
  5
A5F
330
3BE
100
AcDbDictionary
280
     1
281
     1
  3
ACAD_XREC_ROUNDTRIP
360
A60
  0
DICTIONARY
  5
A51
330
3B7
100
AcDbDictionary
280
     1
281
     1
  3
ACAD_XREC_ROUNDTRIP
360
A52
  0
DICTIONARY
  5
A55
330
3B9
100
AcDbDictionary
280
     1
281
     1
  3
ACAD_XREC_ROUNDTRIP
360
A56
  0
DICTIONARY
  5
A65
330
3C1
100
AcDbDictionary
280
     1
281
     1
  3
ACAD_XREC_ROUNDTRIP
360
A66
  0
DICTIONARY
  5
A5D
330
3BD
100
AcDbDictionary
280
     1
281
     1
  3
ACAD_XREC_ROUNDTRIP
360
A5E
  0
DICTIONARY
  5
A41
330
3AF
100
AcDbDictionary
280
     1
281
     1
  3
ACAD_XREC_ROUNDTRIP
360
A42
  0
DICTIONARY
  5
A43
330
3B0
100
AcDbDictionary
280
     1
281
     1
  3
ACAD_XREC_ROUNDTRIP
360
A44
  0
DICTIONARY
  5
A45
330
3B1
100
AcDbDictionary
280
     1
281
     1
  3
ACAD_XREC_ROUNDTRIP
360
A46
  0
DICTIONARY
  5
A47
330
3B2
100
AcDbDictionary
280
     1
281
     1
  3
ACAD_XREC_ROUNDTRIP
360
A48
  0
DICTIONARY
  5
A61
330
3BF
100
AcDbDictionary
280
     1
281
     1
  3
ACAD_XREC_ROUNDTRIP
360
A62
  0
DICTIONARY
  5
A5B
330
3BC
100
AcDbDictionary
280
     1
281
     1
  3
ACAD_XREC_ROUNDTRIP
360
A5C
  0
DICTIONARY
  5
A63
330
3C0
100
AcDbDictionary
280
     1
281
     1
  3
ACAD_XREC_ROUNDTRIP
360
A64
  0
DICTIONARY
  5
A53
330
3B8
100
AcDbDictionary
280
     1
281
     1
  3
ACAD_XREC_ROUNDTRIP
360
A54
  0
DICTIONARY
  5
A59
330
3BB
100
AcDbDictionary
280
     1
281
     1
  3
ACAD_XREC_ROUNDTRIP
360
A5A
  0
XRECORD
  5
A40
102
{ACAD_REACTORS
330
A3F
102
}
330
A3F
100
AcDbXrecord
280
     1
102
SHADEPLOT
 70
     0
102
SHADEPLOTRESLEVEL
 70
     2
102
SHADEPLOTCUSTOMDPI
 70
   300
  0
XRECORD
  5
A3E
102
{ACAD_REACTORS
330
A3D
102
}
330
A3D
100
AcDbXrecord
280
     1
102
SHADEPLOT
 70
     0
102
SHADEPLOTRESLEVEL
 70
     2
102
SHADEPLOTCUSTOMDPI
 70
   300
  0
XRECORD
  5
4BF
102
{ACAD_REACTORS
330
39F
102
}
330
39F
100
AcDbXrecord
280
     1
102
MATERIAL
148
0.0
149
0.0
149
0.0
 93
        0
 94
      127
282
     0
 72
     0
 77
     0
171
     0
175
     0
179
     0
273
     0
  0
XRECORD
  5
3A1
102
{ACAD_REACTORS
330
39F
102
}
330
39F
100
AcDbXrecord
280
     1
270
     1
271
     1
  0
XRECORD
  5
3A0
102
{ACAD_REACTORS
330
39F
102
}
330
39F
100
AcDbXrecord
280
     1
270
     1
271
     1
  0
XRECORD
  5
3A4
102
{ACAD_REACTORS
330
39F
102
}
330
39F
100
AcDbXrecord
280
     1
270
     1
271
     1
  0
XRECORD
  5
3A3
102
{ACAD_REACTORS
330
39F
102
}
330
39F
100
AcDbXrecord
280
     1
270
     1
271
     1
  0
XRECORD
  5
3A5
102
{ACAD_REACTORS
330
39F
102
}
330
39F
100
AcDbXrecord
280
     1
270
     1
271
     1
  0
XRECORD
  5
3A2
102
{ACAD_REACTORS
330
39F
102
}
330
39F
100
AcDbXrecord
280
     1
270
     1
271
     1
  0
XRECORD
  5
4BE
102
{ACAD_REACTORS
330
397
102
}
330
397
100
AcDbXrecord
280
     1
102
MATERIAL
148
0.0
149
0.0
149
0.0
 93
        0
 94
      127
282
     0
 72
     0
 77
     0
171
     0
175
     0
179
     0
273
     0
  0
XRECORD
  5
399
102
{ACAD_REACTORS
330
397
102
}
330
397
100
AcDbXrecord
280
     1
270
     1
271
     1
  0
XRECORD
  5
398
102
{ACAD_REACTORS
330
397
102
}
330
397
100
AcDbXrecord
280
     1
270
     1
271
     1
  0
XRECORD
  5
39C
102
{ACAD_REACTORS
330
397
102
}
330
397
100
AcDbXrecord
280
     1
270
     1
271
     1
  0
XRECORD
  5
39B
102
{ACAD_REACTORS
330
397
102
}
330
397
100
AcDbXrecord
280
     1
270
     1
271
     1
  0
XRECORD
  5
39D
102
{ACAD_REACTORS
330
397
102
}
330
397
100
AcDbXrecord
280
     1
270
     1
271
     1
  0
XRECORD
  5
39A
102
{ACAD_REACTORS
330
397
102
}
330
397
100
AcDbXrecord
280
     1
270
     1
271
     1
  0
XRECORD
  5
4C0
102
{ACAD_REACTORS
330
3A7
102
}
330
3A7
100
AcDbXrecord
280
     1
102
MATERIAL
148
0.0
149
0.0
149
0.0
 93
        0
 94
      127
282
     0
 72
     0
 77
     0
171
     0
175
     0
179
     0
273
     0
  0
XRECORD
  5
3A9
102
{ACAD_REACTORS
330
3A7
102
}
330
3A7
100
AcDbXrecord
280
     1
270
     1
271
     1
  0
XRECORD
  5
3A8
102
{ACAD_REACTORS
330
3A7
102
}
330
3A7
100
AcDbXrecord
280
     1
270
     1
271
     1
  0
XRECORD
  5
3AC
102
{ACAD_REACTORS
330
3A7
102
}
330
3A7
100
AcDbXrecord
280
     1
270
     1
271
     1
  0
XRECORD
  5
3AB
102
{ACAD_REACTORS
330
3A7
102
}
330
3A7
100
AcDbXrecord
280
     1
270
     1
271
     1
  0
XRECORD
  5
3AD
102
{ACAD_REACTORS
330
3A7
102
}
330
3A7
100
AcDbXrecord
280
     1
270
     1
271
     1
  0
XRECORD
  5
3AA
102
{ACAD_REACTORS
330
3A7
102
}
330
3A7
100
AcDbXrecord
280
     1
270
     1
271
     1
  0
CELLSTYLEMAP
  5
A35
102
{ACAD_REACTORS
330
4B6
102
}
330
4B6
100
AcDbCellStyleMap
 90
        3
300
CELLSTYLE
  1
TABLEFORMAT_BEGIN
 90
        5
170
     1
 91
        0
 92
    32768
 62
   257
 93
        1
300
CONTENTFORMAT
  1
CONTENTFORMAT_BEGIN
 90
        0
 91
        0
 92
      512
 93
        0
300

 40
0.0
140
1.0
 94
        5
 62
     0
340
11
144
6.0
309
CONTENTFORMAT_END
171
     1
301
MARGIN
  1
CELLMARGIN_BEGIN
 40
1.5
 40
1.5
 40
1.5
 40
1.5
 40
0.18
 40
0.18
309
CELLMARGIN_END
 94
        6
 95
        1
302
GRIDFORMAT
  1
GRIDFORMAT_BEGIN
 90
        0
 91
        1
 62
     0
 92
       -2
340
0
 93
        0
 40
1.125
309
GRIDFORMAT_END
 95
        2
302
GRIDFORMAT
  1
GRIDFORMAT_BEGIN
 90
        0
 91
        1
 62
     0
 92
       -2
340
0
 93
        0
 40
1.125
309
GRIDFORMAT_END
 95
        4
302
GRIDFORMAT
  1
GRIDFORMAT_BEGIN
 90
        0
 91
        1
 62
     0
 92
       -2
340
0
 93
        0
 40
1.125
309
GRIDFORMAT_END
 95
        8
302
GRIDFORMAT
  1
GRIDFORMAT_BEGIN
 90
        0
 91
        1
 62
     0
 92
       -2
340
0
 93
        0
 40
1.125
309
GRIDFORMAT_END
 95
       16
302
GRIDFORMAT
  1
GRIDFORMAT_BEGIN
 90
        0
 91
        1
 62
     0
 92
       -2
340
0
 93
        0
 40
1.125
309
GRIDFORMAT_END
 95
       32
302
GRIDFORMAT
  1
GRIDFORMAT_BEGIN
 90
        0
 91
        1
 62
     0
 92
       -2
340
0
 93
        0
 40
1.125
309
GRIDFORMAT_END
309
TABLEFORMAT_END
  1
CELLSTYLE_BEGIN
 90
        1
 91
        1
300
_TITLE
309
CELLSTYLE_END
300
CELLSTYLE
  1
TABLEFORMAT_BEGIN
 90
        5
170
     1
 91
        0
 92
        0
 62
   257
 93
        1
300
CONTENTFORMAT
  1
CONTENTFORMAT_BEGIN
 90
        0
 91
        0
 92
      512
 93
        0
300

 40
0.0
140
1.0
 94
        5
 62
     0
340
11
144
4.5
309
CONTENTFORMAT_END
171
     1
301
MARGIN
  1
CELLMARGIN_BEGIN
 40
1.5
 40
1.5
 40
1.5
 40
1.5
 40
0.18
 40
0.18
309
CELLMARGIN_END
 94
        6
 95
        1
302
GRIDFORMAT
  1
GRIDFORMAT_BEGIN
 90
        0
 91
        1
 62
     0
 92
       -2
340
0
 93
        0
 40
1.125
309
GRIDFORMAT_END
 95
        2
302
GRIDFORMAT
  1
GRIDFORMAT_BEGIN
 90
        0
 91
        1
 62
     0
 92
       -2
340
0
 93
        0
 40
1.125
309
GRIDFORMAT_END
 95
        4
302
GRIDFORMAT
  1
GRIDFORMAT_BEGIN
 90
        0
 91
        1
 62
     0
 92
       -2
340
0
 93
        0
 40
1.125
309
GRIDFORMAT_END
 95
        8
302
GRIDFORMAT
  1
GRIDFORMAT_BEGIN
 90
        0
 91
        1
 62
     0
 92
       -2
340
0
 93
        0
 40
1.125
309
GRIDFORMAT_END
 95
       16
302
GRIDFORMAT
  1
GRIDFORMAT_BEGIN
 90
        0
 91
        1
 62
     0
 92
       -2
340
0
 93
        0
 40
1.125
309
GRIDFORMAT_END
 95
       32
302
GRIDFORMAT
  1
GRIDFORMAT_BEGIN
 90
        0
 91
        1
 62
     0
 92
       -2
340
0
 93
        0
 40
1.125
309
GRIDFORMAT_END
309
TABLEFORMAT_END
  1
CELLSTYLE_BEGIN
 90
        2
 91
        1
300
_HEADER
309
CELLSTYLE_END
300
CELLSTYLE
  1
TABLEFORMAT_BEGIN
 90
        5
170
     1
 91
        0
 92
        0
 62
   257
 93
        1
300
CONTENTFORMAT
  1
CONTENTFORMAT_BEGIN
 90
        0
 91
        0
 92
      512
 93
        0
300

 40
0.0
140
1.0
 94
        2
 62
     0
340
11
144
4.5
309
CONTENTFORMAT_END
171
     1
301
MARGIN
  1
CELLMARGIN_BEGIN
 40
1.5
 40
1.5
 40
1.5
 40
1.5
 40
0.18
 40
0.18
309
CELLMARGIN_END
 94
        6
 95
        1
302
GRIDFORMAT
  1
GRIDFORMAT_BEGIN
 90
        0
 91
        1
 62
     0
 92
       -2
340
0
 93
        0
 40
1.125
309
GRIDFORMAT_END
 95
        2
302
GRIDFORMAT
  1
GRIDFORMAT_BEGIN
 90
        0
 91
        1
 62
     0
 92
       -2
340
0
 93
        0
 40
1.125
309
GRIDFORMAT_END
 95
        4
302
GRIDFORMAT
  1
GRIDFORMAT_BEGIN
 90
        0
 91
        1
 62
     0
 92
       -2
340
0
 93
        0
 40
1.125
309
GRIDFORMAT_END
 95
        8
302
GRIDFORMAT
  1
GRIDFORMAT_BEGIN
 90
        0
 91
        1
 62
     0
 92
       -2
340
0
 93
        0
 40
1.125
309
GRIDFORMAT_END
 95
       16
302
GRIDFORMAT
  1
GRIDFORMAT_BEGIN
 90
        0
 91
        1
 62
     0
 92
       -2
340
0
 93
        0
 40
1.125
309
GRIDFORMAT_END
 95
       32
302
GRIDFORMAT
  1
GRIDFORMAT_BEGIN
 90
        0
 91
        1
 62
     0
 92
       -2
340
0
 93
        0
 40
1.125
309
GRIDFORMAT_END
309
TABLEFORMAT_END
  1
CELLSTYLE_BEGIN
 90
        3
 91
        2
300
_DATA
309
CELLSTYLE_END
  0
XRECORD
  5
A67
102
{ACAD_REACTORS
330
4B6
102
}
330
4B6
100
AcDbXrecord
280
     1
102
ACAD_ROUNDTRIP_PRE2007_TABLESTYLE
 90
      512
 91
        0
  1

 92
      512
 93
        0
  2

 94
      512
 95
        0
  3

  0
XRECORD
  5
A4C
102
{ACAD_REACTORS
330
A4B
102
}
330
A4B
100
AcDbXrecord
280
     1
102
RTVSPropertyOp0
 70
     1
102
RTVSPropertyOp1
 70
     1
102
RTVSPropertyOp2
 70
     1
102
RTVSPropertyOp3
 70
     1
102
RTVSPropertyOp4
 70
     1
102
RTVSPropertyOp5
 70
     1
102
RTVSPropertyOp6
 70
     1
102
RTVSPropertyOp7
 70
     1
102
RTVSPropertyOp8
 70
     1
102
RTVSPropertyOp9
 70
     1
102
RTVSPropertyOp10
 70
     1
102
RTVSPropertyOp11
 70
     1
102
RTVSPropertyOp12
 70
     1
102
RTVSPropertyOp13
 70
     1
102
RTVSPropertyOp14
 70
     1
102
RTVSPropertyOp15
 70
     1
102
RTVSPropertyOp16
 70
     1
102
RTVSPropertyOp17
 70
     1
102
RTVSPropertyOp18
 70
     1
102
RTVSPropertyOp19
 70
     1
102
RTVSPropertyOp20
 70
     1
102
RTVSPropertyOp21
 70
     1
102
RTVSPropertyOp22
 70
     1
102
RTVSPropertyOp23
 70
     1
102
RTVSPropertyOp24
 70
     1
102
RTVSPropertyOp25
 70
     1
102
RTVSPropertyOp26
 70
     1
102
RTVSPropertyOp27
 70
     1
  0
XRECORD
  5
A50
102
{ACAD_REACTORS
330
A4F
102
}
330
A4F
100
AcDbXrecord
280
     1
102
RTVSPropertyOp0
 70
     1
102
RTVSPropertyOp1
 70
     1
102
RTVSPropertyOp2
 70
     1
102
RTVSPropertyOp3
 70
     1
102
RTVSPropertyOp4
 70
     1
102
RTVSPropertyOp5
 70
     1
102
RTVSPropertyOp6
 70
     1
102
RTVSPropertyOp7
 70
     1
102
RTVSPropertyOp8
 70
     1
102
RTVSPropertyOp9
 70
     1
102
RTVSPropertyOp10
 70
     1
102
RTVSPropertyOp11
 70
     1
102
RTVSPropertyOp12
 70
     1
102
RTVSPropertyOp13
 70
     1
102
RTVSPropertyOp14
 70
     1
102
RTVSPropertyOp15
 70
     1
102
RTVSPropertyOp16
 70
     1
102
RTVSPropertyOp17
 70
     1
102
RTVSPropertyOp18
 70
     1
102
RTVSPropertyOp19
 70
     1
102
RTVSPropertyOp20
 70
     1
102
RTVSPropertyOp21
 70
     1
102
RTVSPropertyOp22
 70
     1
102
RTVSPropertyOp23
 70
     1
102
RTVSPropertyOp24
 70
     1
102
RTVSPropertyOp25
 70
     1
102
RTVSPropertyOp26
 70
     1
102
RTVSPropertyOp27
 70
     1
  0
XRECORD
  5
A4E
102
{ACAD_REACTORS
330
A4D
102
}
330
A4D
100
AcDbXrecord
280
     1
102
RTVSPropertyOp0
 70
     1
102
RTVSPropertyOp1
 70
     1
102
RTVSPropertyOp2
 70
     1
102
RTVSPropertyOp3
 70
     1
102
RTVSPropertyOp4
 70
     1
102
RTVSPropertyOp5
 70
     1
102
RTVSPropertyOp6
 70
     1
102
RTVSPropertyOp7
 70
     1
102
RTVSPropertyOp8
 70
     1
102
RTVSPropertyOp9
 70
     1
102
RTVSPropertyOp10
 70
     1
102
RTVSPropertyOp11
 70
     1
102
RTVSPropertyOp12
 70
     1
102
RTVSPropertyOp13
 70
     1
102
RTVSPropertyOp14
 70
     1
102
RTVSPropertyOp15
 70
     1
102
RTVSPropertyOp16
 70
     1
102
RTVSPropertyOp17
 70
     1
102
RTVSPropertyOp18
 70
     1
102
RTVSPropertyOp19
 70
     1
102
RTVSPropertyOp20
 70
     1
102
RTVSPropertyOp21
 70
     1
102
RTVSPropertyOp22
 70
     1
102
RTVSPropertyOp23
 70
     1
102
RTVSPropertyOp24
 70
     1
102
RTVSPropertyOp25
 70
     1
102
RTVSPropertyOp26
 70
     1
102
RTVSPropertyOp27
 70
     1
  0
XRECORD
  5
A4A
102
{ACAD_REACTORS
330
A49
102
}
330
A49
100
AcDbXrecord
280
     1
102
RTVSPropertyOp0
 70
     1
102
RTVSPropertyOp1
 70
     1
102
RTVSPropertyOp2
 70
     1
102
RTVSPropertyOp3
 70
     1
102
RTVSPropertyOp4
 70
     1
102
RTVSPropertyOp5
 70
     1
102
RTVSPropertyOp6
 70
     1
102
RTVSPropertyOp7
 70
     1
102
RTVSPropertyOp8
 70
     1
102
RTVSPropertyOp9
 70
     1
102
RTVSPropertyOp10
 70
     1
102
RTVSPropertyOp11
 70
     1
102
RTVSPropertyOp12
 70
     1
102
RTVSPropertyOp13
 70
     1
102
RTVSPropertyOp14
 70
     1
102
RTVSPropertyOp15
 70
     1
102
RTVSPropertyOp16
 70
     1
102
RTVSPropertyOp17
 70
     1
102
RTVSPropertyOp18
 70
     1
102
RTVSPropertyOp19
 70
     1
102
RTVSPropertyOp20
 70
     1
102
RTVSPropertyOp21
 70
     1
102
RTVSPropertyOp22
 70
     1
102
RTVSPropertyOp23
 70
     1
102
RTVSPropertyOp24
 70
     1
102
RTVSPropertyOp25
 70
     1
102
RTVSPropertyOp26
 70
     1
102
RTVSPropertyOp27
 70
     1
  0
XRECORD
  5
A58
102
{ACAD_REACTORS
330
A57
102
}
330
A57
100
AcDbXrecord
280
     1
102
RTVSPropertyOp0
 70
     1
102
RTVSPropertyOp1
 70
     1
102
RTVSPropertyOp2
 70
     1
102
RTVSPropertyOp3
 70
     1
102
RTVSPropertyOp4
 70
     1
102
RTVSPropertyOp5
 70
     1
102
RTVSPropertyOp6
 70
     1
102
RTVSPropertyOp7
 70
     1
102
RTVSPropertyOp8
 70
     1
102
RTVSPropertyOp9
 70
     1
102
RTVSPropertyOp10
 70
     1
102
RTVSPropertyOp11
 70
     1
102
RTVSPropertyOp12
 70
     1
102
RTVSPropertyOp13
 70
     1
102
RTVSPropertyOp14
 70
     1
102
RTVSPropertyOp15
 70
     1
102
RTVSPropertyOp16
 70
     1
102
RTVSPropertyOp17
 70
     1
102
RTVSPropertyOp18
 70
     1
102
RTVSPropertyOp19
 70
     1
102
RTVSPropertyOp20
 70
     1
102
RTVSPropertyOp21
 70
     1
102
RTVSPropertyOp22
 70
     1
102
RTVSPropertyOp23
 70
     1
102
RTVSPropertyOp24
 70
     1
102
RTVSPropertyOp25
 70
     1
102
RTVSPropertyOp26
 70
     1
102
RTVSPropertyOp27
 70
     1
  0
XRECORD
  5
A60
102
{ACAD_REACTORS
330
A5F
102
}
330
A5F
100
AcDbXrecord
280
     1
102
RTVSPropertyOp0
 70
     1
102
RTVSPropertyOp1
 70
     1
102
RTVSPropertyOp2
 70
     1
102
RTVSPropertyOp3
 70
     1
102
RTVSPropertyOp4
 70
     1
102
RTVSPropertyOp5
 70
     1
102
RTVSPropertyOp6
 70
     1
102
RTVSPropertyOp7
 70
     1
102
RTVSPropertyOp8
 70
     1
102
RTVSPropertyOp9
 70
     1
102
RTVSPropertyOp10
 70
     1
102
RTVSPropertyOp11
 70
     1
102
RTVSPropertyOp12
 70
     1
102
RTVSPropertyOp13
 70
     1
102
RTVSPropertyOp14
 70
     1
102
RTVSPropertyOp15
 70
     1
102
RTVSPropertyOp16
 70
     1
102
RTVSPropertyOp17
 70
     1
102
RTVSPropertyOp18
 70
     1
102
RTVSPropertyOp19
 70
     1
102
RTVSPropertyOp20
 70
     1
102
RTVSPropertyOp21
 70
     1
102
RTVSPropertyOp22
 70
     1
102
RTVSPropertyOp23
 70
     1
102
RTVSPropertyOp24
 70
     1
102
RTVSPropertyOp25
 70
     1
102
RTVSPropertyOp26
 70
     1
102
RTVSPropertyOp27
 70
     1
  0
XRECORD
  5
A52
102
{ACAD_REACTORS
330
A51
102
}
330
A51
100
AcDbXrecord
280
     1
102
RTVSPropertyOp0
 70
     1
102
RTVSPropertyOp1
 70
     1
102
RTVSPropertyOp2
 70
     1
102
RTVSPropertyOp3
 70
     1
102
RTVSPropertyOp4
 70
     1
102
RTVSPropertyOp5
 70
     1
102
RTVSPropertyOp6
 70
     1
102
RTVSPropertyOp7
 70
     1
102
RTVSPropertyOp8
 70
     1
102
RTVSPropertyOp9
 70
     1
102
RTVSPropertyOp10
 70
     1
102
RTVSPropertyOp11
 70
     1
102
RTVSPropertyOp12
 70
     1
102
RTVSPropertyOp13
 70
     1
102
RTVSPropertyOp14
 70
     1
102
RTVSPropertyOp15
 70
     1
102
RTVSPropertyOp16
 70
     1
102
RTVSPropertyOp17
 70
     1
102
RTVSPropertyOp18
 70
     1
102
RTVSPropertyOp19
 70
     1
102
RTVSPropertyOp20
 70
     1
102
RTVSPropertyOp21
 70
     1
102
RTVSPropertyOp22
 70
     1
102
RTVSPropertyOp23
 70
     1
102
RTVSPropertyOp24
 70
     1
102
RTVSPropertyOp25
 70
     1
102
RTVSPropertyOp26
 70
     1
102
RTVSPropertyOp27
 70
     1
  0
XRECORD
  5
A56
102
{ACAD_REACTORS
330
A55
102
}
330
A55
100
AcDbXrecord
280
     1
102
RTVSPropertyOp0
 70
     1
102
RTVSPropertyOp1
 70
     1
102
RTVSPropertyOp2
 70
     1
102
RTVSPropertyOp3
 70
     1
102
RTVSPropertyOp4
 70
     1
102
RTVSPropertyOp5
 70
     1
102
RTVSPropertyOp6
 70
     1
102
RTVSPropertyOp7
 70
     1
102
RTVSPropertyOp8
 70
     1
102
RTVSPropertyOp9
 70
     1
102
RTVSPropertyOp10
 70
     1
102
RTVSPropertyOp11
 70
     1
102
RTVSPropertyOp12
 70
     1
102
RTVSPropertyOp13
 70
     1
102
RTVSPropertyOp14
 70
     1
102
RTVSPropertyOp15
 70
     1
102
RTVSPropertyOp16
 70
     1
102
RTVSPropertyOp17
 70
     1
102
RTVSPropertyOp18
 70
     1
102
RTVSPropertyOp19
 70
     1
102
RTVSPropertyOp20
 70
     1
102
RTVSPropertyOp21
 70
     1
102
RTVSPropertyOp22
 70
     1
102
RTVSPropertyOp23
 70
     1
102
RTVSPropertyOp24
 70
     1
102
RTVSPropertyOp25
 70
     1
102
RTVSPropertyOp26
 70
     1
102
RTVSPropertyOp27
 70
     1
  0
XRECORD
  5
A66
102
{ACAD_REACTORS
330
A65
102
}
330
A65
100
AcDbXrecord
280
     1
102
RTVSPropertyOp0
 70
     0
102
RTVSPropertyOp1
 70
     0
102
RTVSPropertyOp2
 70
     0
102
RTVSPropertyOp3
 70
     0
102
RTVSPropertyOp4
 70
     0
102
RTVSPropertyOp5
 70
     0
102
RTVSPropertyOp6
 70
     0
102
RTVSPropertyOp7
 70
     0
102
RTVSPropertyOp8
 70
     0
102
RTVSPropertyOp9
 70
     0
102
RTVSPropertyOp10
 70
     0
102
RTVSPropertyOp11
 70
     0
102
RTVSPropertyOp12
 70
     0
102
RTVSPropertyOp13
 70
     0
102
RTVSPropertyOp14
 70
     2
102
RTVSPropertyOp15
 70
     0
102
RTVSPropertyOp16
 70
     0
102
RTVSPropertyOp17
 70
     0
102
RTVSPropertyOp18
 70
     0
102
RTVSPropertyOp19
 70
     0
102
RTVSPropertyOp20
 70
     0
102
RTVSPropertyOp21
 70
     0
102
RTVSPropertyOp22
 70
     0
102
RTVSPropertyOp23
 70
     0
102
RTVSPropertyOp24
 70
     0
102
RTVSPropertyOp25
 70
     0
102
RTVSPropertyOp26
 70
     0
102
RTVSPropertyOp27
 70
     0
  0
XRECORD
  5
A5E
102
{ACAD_REACTORS
330
A5D
102
}
330
A5D
100
AcDbXrecord
280
     1
102
RTVSPropertyOp0
 70
     1
102
RTVSPropertyOp1
 70
     1
102
RTVSPropertyOp2
 70
     1
102
RTVSPropertyOp3
 70
     1
102
RTVSPropertyOp4
 70
     1
102
RTVSPropertyOp5
 70
     1
102
RTVSPropertyOp6
 70
     1
102
RTVSPropertyOp7
 70
     1
102
RTVSPropertyOp8
 70
     1
102
RTVSPropertyOp9
 70
     1
102
RTVSPropertyOp10
 70
     1
102
RTVSPropertyOp11
 70
     1
102
RTVSPropertyOp12
 70
     1
102
RTVSPropertyOp13
 70
     1
102
RTVSPropertyOp14
 70
     1
102
RTVSPropertyOp15
 70
     1
102
RTVSPropertyOp16
 70
     1
102
RTVSPropertyOp17
 70
     1
102
RTVSPropertyOp18
 70
     1
102
RTVSPropertyOp19
 70
     1
102
RTVSPropertyOp20
 70
     1
102
RTVSPropertyOp21
 70
     1
102
RTVSPropertyOp22
 70
     1
102
RTVSPropertyOp23
 70
     1
102
RTVSPropertyOp24
 70
     1
102
RTVSPropertyOp25
 70
     1
102
RTVSPropertyOp26
 70
     1
102
RTVSPropertyOp27
 70
     1
  0
XRECORD
  5
A42
102
{ACAD_REACTORS
330
A41
102
}
330
A41
100
AcDbXrecord
280
     1
102
RTVSPropertyOp0
 70
     1
102
RTVSPropertyOp1
 70
     1
102
RTVSPropertyOp2
 70
     1
102
RTVSPropertyOp3
 70
     1
102
RTVSPropertyOp4
 70
     1
102
RTVSPropertyOp5
 70
     1
102
RTVSPropertyOp6
 70
     1
102
RTVSPropertyOp7
 70
     1
102
RTVSPropertyOp8
 70
     1
102
RTVSPropertyOp9
 70
     1
102
RTVSPropertyOp10
 70
     1
102
RTVSPropertyOp11
 70
     1
102
RTVSPropertyOp12
 70
     1
102
RTVSPropertyOp13
 70
     1
102
RTVSPropertyOp14
 70
     1
102
RTVSPropertyOp15
 70
     1
102
RTVSPropertyOp16
 70
     1
102
RTVSPropertyOp17
 70
     1
102
RTVSPropertyOp18
 70
     1
102
RTVSPropertyOp19
 70
     1
102
RTVSPropertyOp20
 70
     1
102
RTVSPropertyOp21
 70
     1
102
RTVSPropertyOp22
 70
     1
102
RTVSPropertyOp23
 70
     1
102
RTVSPropertyOp24
 70
     1
102
RTVSPropertyOp25
 70
     1
102
RTVSPropertyOp26
 70
     1
102
RTVSPropertyOp27
 70
     1
  0
XRECORD
  5
A44
102
{ACAD_REACTORS
330
A43
102
}
330
A43
100
AcDbXrecord
280
     1
102
RTVSPropertyOp0
 70
     1
102
RTVSPropertyOp1
 70
     1
102
RTVSPropertyOp2
 70
     1
102
RTVSPropertyOp3
 70
     1
102
RTVSPropertyOp4
 70
     1
102
RTVSPropertyOp5
 70
     1
102
RTVSPropertyOp6
 70
     1
102
RTVSPropertyOp7
 70
     1
102
RTVSPropertyOp8
 70
     1
102
RTVSPropertyOp9
 70
     1
102
RTVSPropertyOp10
 70
     1
102
RTVSPropertyOp11
 70
     1
102
RTVSPropertyOp12
 70
     1
102
RTVSPropertyOp13
 70
     1
102
RTVSPropertyOp14
 70
     1
102
RTVSPropertyOp15
 70
     1
102
RTVSPropertyOp16
 70
     1
102
RTVSPropertyOp17
 70
     1
102
RTVSPropertyOp18
 70
     1
102
RTVSPropertyOp19
 70
     1
102
RTVSPropertyOp20
 70
     1
102
RTVSPropertyOp21
 70
     1
102
RTVSPropertyOp22
 70
     1
102
RTVSPropertyOp23
 70
     1
102
RTVSPropertyOp24
 70
     1
102
RTVSPropertyOp25
 70
     1
102
RTVSPropertyOp26
 70
     1
102
RTVSPropertyOp27
 70
     1
  0
XRECORD
  5
A46
102
{ACAD_REACTORS
330
A45
102
}
330
A45
100
AcDbXrecord
280
     1
102
RTVSPropertyOp0
 70
     1
102
RTVSPropertyOp1
 70
     1
102
RTVSPropertyOp2
 70
     1
102
RTVSPropertyOp3
 70
     1
102
RTVSPropertyOp4
 70
     1
102
RTVSPropertyOp5
 70
     1
102
RTVSPropertyOp6
 70
     1
102
RTVSPropertyOp7
 70
     1
102
RTVSPropertyOp8
 70
     1
102
RTVSPropertyOp9
 70
     1
102
RTVSPropertyOp10
 70
     1
102
RTVSPropertyOp11
 70
     1
102
RTVSPropertyOp12
 70
     1
102
RTVSPropertyOp13
 70
     1
102
RTVSPropertyOp14
 70
     1
102
RTVSPropertyOp15
 70
     1
102
RTVSPropertyOp16
 70
     1
102
RTVSPropertyOp17
 70
     1
102
RTVSPropertyOp18
 70
     1
102
RTVSPropertyOp19
 70
     1
102
RTVSPropertyOp20
 70
     1
102
RTVSPropertyOp21
 70
     1
102
RTVSPropertyOp22
 70
     1
102
RTVSPropertyOp23
 70
     1
102
RTVSPropertyOp24
 70
     1
102
RTVSPropertyOp25
 70
     1
102
RTVSPropertyOp26
 70
     1
102
RTVSPropertyOp27
 70
     1
  0
XRECORD
  5
A48
102
{ACAD_REACTORS
330
A47
102
}
330
A47
100
AcDbXrecord
280
     1
102
RTVSPropertyOp0
 70
     1
102
RTVSPropertyOp1
 70
     1
102
RTVSPropertyOp2
 70
     1
102
RTVSPropertyOp3
 70
     1
102
RTVSPropertyOp4
 70
     1
102
RTVSPropertyOp5
 70
     1
102
RTVSPropertyOp6
 70
     1
102
RTVSPropertyOp7
 70
     1
102
RTVSPropertyOp8
 70
     1
102
RTVSPropertyOp9
 70
     1
102
RTVSPropertyOp10
 70
     1
102
RTVSPropertyOp11
 70
     1
102
RTVSPropertyOp12
 70
     1
102
RTVSPropertyOp13
 70
     1
102
RTVSPropertyOp14
 70
     1
102
RTVSPropertyOp15
 70
     1
102
RTVSPropertyOp16
 70
     1
102
RTVSPropertyOp17
 70
     1
102
RTVSPropertyOp18
 70
     1
102
RTVSPropertyOp19
 70
     1
102
RTVSPropertyOp20
 70
     1
102
RTVSPropertyOp21
 70
     1
102
RTVSPropertyOp22
 70
     1
102
RTVSPropertyOp23
 70
     1
102
RTVSPropertyOp24
 70
     1
102
RTVSPropertyOp25
 70
     1
102
RTVSPropertyOp26
 70
     1
102
RTVSPropertyOp27
 70
     1
  0
XRECORD
  5
A62
102
{ACAD_REACTORS
330
A61
102
}
330
A61
100
AcDbXrecord
280
     1
102
RTVSPropertyOp0
 70
     0
102
RTVSPropertyOp1
 70
     0
102
RTVSPropertyOp2
 70
     0
102
RTVSPropertyOp3
 70
     0
102
RTVSPropertyOp4
 70
     0
102
RTVSPropertyOp5
 70
     0
102
RTVSPropertyOp6
 70
     0
102
RTVSPropertyOp7
 70
     0
102
RTVSPropertyOp8
 70
     0
102
RTVSPropertyOp9
 70
     0
102
RTVSPropertyOp10
 70
     0
102
RTVSPropertyOp11
 70
     0
102
RTVSPropertyOp12
 70
     0
102
RTVSPropertyOp13
 70
     0
102
RTVSPropertyOp14
 70
     2
102
RTVSPropertyOp15
 70
     0
102
RTVSPropertyOp16
 70
     0
102
RTVSPropertyOp17
 70
     0
102
RTVSPropertyOp18
 70
     0
102
RTVSPropertyOp19
 70
     0
102
RTVSPropertyOp20
 70
     0
102
RTVSPropertyOp21
 70
     0
102
RTVSPropertyOp22
 70
     0
102
RTVSPropertyOp23
 70
     0
102
RTVSPropertyOp24
 70
     0
102
RTVSPropertyOp25
 70
     0
102
RTVSPropertyOp26
 70
     0
102
RTVSPropertyOp27
 70
     0
  0
XRECORD
  5
A5C
102
{ACAD_REACTORS
330
A5B
102
}
330
A5B
100
AcDbXrecord
280
     1
102
RTVSPropertyOp0
 70
     1
102
RTVSPropertyOp1
 70
     1
102
RTVSPropertyOp2
 70
     1
102
RTVSPropertyOp3
 70
     1
102
RTVSPropertyOp4
 70
     1
102
RTVSPropertyOp5
 70
     1
102
RTVSPropertyOp6
 70
     1
102
RTVSPropertyOp7
 70
     1
102
RTVSPropertyOp8
 70
     1
102
RTVSPropertyOp9
 70
     1
102
RTVSPropertyOp10
 70
     1
102
RTVSPropertyOp11
 70
     1
102
RTVSPropertyOp12
 70
     1
102
RTVSPropertyOp13
 70
     1
102
RTVSPropertyOp14
 70
     1
102
RTVSPropertyOp15
 70
     1
102
RTVSPropertyOp16
 70
     1
102
RTVSPropertyOp17
 70
     1
102
RTVSPropertyOp18
 70
     1
102
RTVSPropertyOp19
 70
     1
102
RTVSPropertyOp20
 70
     1
102
RTVSPropertyOp21
 70
     1
102
RTVSPropertyOp22
 70
     1
102
RTVSPropertyOp23
 70
     1
102
RTVSPropertyOp24
 70
     1
102
RTVSPropertyOp25
 70
     1
102
RTVSPropertyOp26
 70
     1
102
RTVSPropertyOp27
 70
     1
  0
XRECORD
  5
A64
102
{ACAD_REACTORS
330
A63
102
}
330
A63
100
AcDbXrecord
280
     1
102
RTVSPropertyOp0
 70
     0
102
RTVSPropertyOp1
 70
     0
102
RTVSPropertyOp2
 70
     0
102
RTVSPropertyOp3
 70
     0
102
RTVSPropertyOp4
 70
     0
102
RTVSPropertyOp5
 70
     0
102
RTVSPropertyOp6
 70
     0
102
RTVSPropertyOp7
 70
     0
102
RTVSPropertyOp8
 70
     0
102
RTVSPropertyOp9
 70
     0
102
RTVSPropertyOp10
 70
     0
102
RTVSPropertyOp11
 70
     0
102
RTVSPropertyOp12
 70
     0
102
RTVSPropertyOp13
 70
     0
102
RTVSPropertyOp14
 70
     2
102
RTVSPropertyOp15
 70
     0
102
RTVSPropertyOp16
 70
     0
102
RTVSPropertyOp17
 70
     0
102
RTVSPropertyOp18
 70
     0
102
RTVSPropertyOp19
 70
     0
102
RTVSPropertyOp20
 70
     0
102
RTVSPropertyOp21
 70
     0
102
RTVSPropertyOp22
 70
     0
102
RTVSPropertyOp23
 70
     0
102
RTVSPropertyOp24
 70
     0
102
RTVSPropertyOp25
 70
     0
102
RTVSPropertyOp26
 70
     0
102
RTVSPropertyOp27
 70
     0
  0
XRECORD
  5
A54
102
{ACAD_REACTORS
330
A53
102
}
330
A53
100
AcDbXrecord
280
     1
102
RTVSPropertyOp0
 70
     1
102
RTVSPropertyOp1
 70
     1
102
RTVSPropertyOp2
 70
     1
102
RTVSPropertyOp3
 70
     1
102
RTVSPropertyOp4
 70
     1
102
RTVSPropertyOp5
 70
     1
102
RTVSPropertyOp6
 70
     1
102
RTVSPropertyOp7
 70
     1
102
RTVSPropertyOp8
 70
     1
102
RTVSPropertyOp9
 70
     1
102
RTVSPropertyOp10
 70
     1
102
RTVSPropertyOp11
 70
     1
102
RTVSPropertyOp12
 70
     1
102
RTVSPropertyOp13
 70
     1
102
RTVSPropertyOp14
 70
     1
102
RTVSPropertyOp15
 70
     1
102
RTVSPropertyOp16
 70
     1
102
RTVSPropertyOp17
 70
     1
102
RTVSPropertyOp18
 70
     1
102
RTVSPropertyOp19
 70
     1
102
RTVSPropertyOp20
 70
     1
102
RTVSPropertyOp21
 70
     1
102
RTVSPropertyOp22
 70
     1
102
RTVSPropertyOp23
 70
     1
102
RTVSPropertyOp24
 70
     1
102
RTVSPropertyOp25
 70
     1
102
RTVSPropertyOp26
 70
     1
102
RTVSPropertyOp27
 70
     1
  0
XRECORD
  5
A5A
102
{ACAD_REACTORS
330
A59
102
}
330
A59
100
AcDbXrecord
280
     1
102
RTVSPropertyOp0
 70
     1
102
RTVSPropertyOp1
 70
     1
102
RTVSPropertyOp2
 70
     1
102
RTVSPropertyOp3
 70
     1
102
RTVSPropertyOp4
 70
     1
102
RTVSPropertyOp5
 70
     1
102
RTVSPropertyOp6
 70
     1
102
RTVSPropertyOp7
 70
     1
102
RTVSPropertyOp8
 70
     1
102
RTVSPropertyOp9
 70
     1
102
RTVSPropertyOp10
 70
     1
102
RTVSPropertyOp11
 70
     1
102
RTVSPropertyOp12
 70
     1
102
RTVSPropertyOp13
 70
     1
102
RTVSPropertyOp14
 70
     1
102
RTVSPropertyOp15
 70
     1
102
RTVSPropertyOp16
 70
     1
102
RTVSPropertyOp17
 70
     1
102
RTVSPropertyOp18
 70
     1
102
RTVSPropertyOp19
 70
     1
102
RTVSPropertyOp20
 70
     1
102
RTVSPropertyOp21
 70
     1
102
RTVSPropertyOp22
 70
     1
102
RTVSPropertyOp23
 70
     1
102
RTVSPropertyOp24
 70
     1
102
RTVSPropertyOp25
 70
     1
102
RTVSPropertyOp26
 70
     1
102
RTVSPropertyOp27
 70
     1
  0
ENDSEC
  0
EOF
