  0
SECTION
  2
HEADER
  9
$ACADVER
  1
AC1015
  9
$ACADMAINTVER
 70
    20
  9
$DWGCODEPAGE
  3
ANSI_1252
  9
$INSBASE
 10
0.0
 20
0.0
 30
0.0
  9
$EXTMIN
 10
-114.7399128087884
 20
127.252417994914
 30
0.0
  9
$EXTMAX
 10
510.3531380981998
 20
288.1527961932
 30
0.0
  9
$LIMMIN
 10
0.0
 20
0.0
  9
$LIMMAX
 10
420.0
 20
297.0
  9
$ORTHOMODE
 70
     0
  9
$REGENMODE
 70
     1
  9
$FILLMODE
 70
     1
  9
$QTEXTMODE
 70
     0
  9
$MIRRTEXT
 70
     0
  9
$LTSCALE
 40
23.1
  9
$ATTMODE
 70
     1
  9
$TEXTSIZE
 40
0.2
  9
$TRACEWID
 40
0.05
  9
$TEXTSTYLE
  7
STANDARD
  9
$CLAYER
  8
0
  9
$CELTYPE
  6
BYLAYER
  9
$CECOLOR
 62
   256
  9
$CELTSCALE
 40
1.0
  9
$DISPSILH
 70
     0
  9
$DIMSCALE
 40
1.0
  9
$DIMASZ
 40
3.5
  9
$DIMEXO
 40
1.5
  9
$DIMDLI
 40
15.96
  9
$DIMRND
 40
0.0
  9
$DIMDLE
 40
0.0
  9
$DIMEXE
 40
1.5
  9
$DIMTP
 40
0.005
  9
$DIMTM
 40
0.005
  9
$DIMTXT
 40
3.5
  9
$DIMCEN
 40
3.779999999999998
  9
$DIMTSZ
 40
0.0
  9
$DIMTOL
 70
     1
  9
$DIMLIM
 70
     0
  9
$DIMTIH
 70
     1
  9
$DIMTOH
 70
     1
  9
$DIMSE1
 70
     0
  9
$DIMSE2
 70
     0
  9
$DIMTAD
 70
     0
  9
$DIMZIN
 70
     0
  9
$DIMBLK
  1
_FILLED
  9
$DIMASO
 70
     1
  9
$DIMSHO
 70
     1
  9
$DIMPOST
  1

  9
$DIMAPOST
  1

  9
$DIMALT
 70
     0
  9
$DIMALTD
 70
     2
  9
$DIMALTF
 40
25.4
  9
$DIMLFAC
 40
1.0
  9
$DIMTOFL
 70
     0
  9
$DIMTVP
 40
0.0
  9
$DIMTIX
 70
     0
  9
$DIMSOXD
 70
     0
  9
$DIMSAH
 70
     0
  9
$DIMBLK1
  1

  9
$DIMBLK2
  1

  9
$DIMSTYLE
  2
STANDARD
  9
$DIMCLRD
 70
     0
  9
$DIMCLRE
 70
     0
  9
$DIMCLRT
 70
     0
  9
$DIMTFAC
 40
1.0
  9
$DIMGAP
 40
0.625
  9
$DIMJUST
 70
     0
  9
$DIMSD1
 70
     0
  9
$DIMSD2
 70
     0
  9
$DIMTOLJ
 70
     1
  9
$DIMTZIN
 70
     0
  9
$DIMALTZ
 70
     0
  9
$DIMALTTZ
 70
     0
  9
$DIMUPT
 70
     0
  9
$DIMDEC
 70
     0
  9
$DIMTDEC
 70
     4
  9
$DIMALTU
 70
     2
  9
$DIMALTTD
 70
     2
  9
$DIMTXSTY
  7
STANDARD
  9
$DIMAUNIT
 70
     0
  9
$DIMADEC
 70
     0
  9
$DIMALTRND
 40
0.0
  9
$DIMAZIN
 70
     0
  9
$DIMDSEP
 70
    46
  9
$DIMATFIT
 70
     3
  9
$DIMFRAC
 70
     0
  9
$DIMLDRBLK
  1

  9
$DIMLUNIT
 70
     2
  9
$DIMLWD
 70
    -2
  9
$DIMLWE
 70
    -2
  9
$DIMTMOVE
 70
     0
  9
$LUNITS
 70
     2
  9
$LUPREC
 70
     2
  9
$SKETCHINC
 40
0.1
  9
$FILLETRAD
 40
0.0
  9
$AUNITS
 70
     0
  9
$AUPREC
 70
     0
  9
$MENU
  1
.
  9
$ELEVATION
 40
0.0
  9
$PELEVATION
 40
0.0
  9
$THICKNESS
 40
0.0
  9
$LIMCHECK
 70
     0
  9
$CHAMFERA
 40
0.0
  9
$CHAMFERB
 40
0.0
  9
$CHAMFERC
 40
0.0
  9
$CHAMFERD
 40
0.0
  9
$SKPOLY
 70
     0
  9
$TDCREATE
 40
2456562.304567199
  9
$TDUCREATE
 40
2456562.262900532
  9
$TDUPDATE
 40
2456671.446746678
  9
$TDUUPDATE
 40
2456671.405080012
  9
$TDINDWG
 40
0.0056517940
  9
$TDUSRTIMER
 40
0.0056517940
  9
$USRTIMER
 70
     1
  9
$ANGBASE
 50
0.0
  9
$ANGDIR
 70
     0
  9
$PDMODE
 70
     3
  9
$PDSIZE
 40
0.3125
  9
$PLINEWID
 40
0.0
  9
$SPLFRAME
 70
     0
  9
$SPLINETYPE
 70
     6
  9
$SPLINESEGS
 70
     8
  9
$HANDSEED
  5
C57
  9
$SURFTAB1
 70
     6
  9
$SURFTAB2
 70
     6
  9
$SURFTYPE
 70
     6
  9
$SURFU
 70
     6
  9
$SURFV
 70
     6
  9
$UCSBASE
  2

  9
$UCSNAME
  2

  9
$UCSORG
 10
0.0
 20
0.0
 30
0.0
  9
$UCSXDIR
 10
1.0
 20
0.0
 30
0.0
  9
$UCSYDIR
 10
0.0
 20
1.0
 30
0.0
  9
$UCSORTHOREF
  2

  9
$UCSORTHOVIEW
 70
     0
  9
$UCSORGTOP
 10
0.0
 20
0.0
 30
0.0
  9
$UCSORGBOTTOM
 10
0.0
 20
0.0
 30
0.0
  9
$UCSORGLEFT
 10
0.0
 20
0.0
 30
0.0
  9
$UCSORGRIGHT
 10
0.0
 20
0.0
 30
0.0
  9
$UCSORGFRONT
 10
0.0
 20
0.0
 30
0.0
  9
$UCSORGBACK
 10
0.0
 20
0.0
 30
0.0
  9
$PUCSBASE
  2

  9
$PUCSNAME
  2

  9
$PUCSORG
 10
0.0
 20
0.0
 30
0.0
  9
$PUCSXDIR
 10
1.0
 20
0.0
 30
0.0
  9
$PUCSYDIR
 10
0.0
 20
1.0
 30
0.0
  9
$PUCSORTHOREF
  2

  9
$PUCSORTHOVIEW
 70
     0
  9
$PUCSORGTOP
 10
0.0
 20
0.0
 30
0.0
  9
$PUCSORGBOTTOM
 10
0.0
 20
0.0
 30
0.0
  9
$PUCSORGLEFT
 10
0.0
 20
0.0
 30
0.0
  9
$PUCSORGRIGHT
 10
0.0
 20
0.0
 30
0.0
  9
$PUCSORGFRONT
 10
0.0
 20
0.0
 30
0.0
  9
$PUCSORGBACK
 10
0.0
 20
0.0
 30
0.0
  9
$USERI1
 70
     0
  9
$USERI2
 70
     0
  9
$USERI3
 70
     0
  9
$USERI4
 70
     0
  9
$USERI5
 70
     0
  9
$USERR1
 40
0.0
  9
$USERR2
 40
0.0
  9
$USERR3
 40
0.0
  9
$USERR4
 40
0.0
  9
$USERR5
 40
0.0
  9
$WORLDVIEW
 70
     1
  9
$SHADEDGE
 70
     3
  9
$SHADEDIF
 70
    70
  9
$TILEMODE
 70
     1
  9
$MAXACTVP
 70
    64
  9
$PINSBASE
 10
0.0
 20
0.0
 30
0.0
  9
$PLIMCHECK
 70
     0
  9
$PEXTMIN
 10
1.000000000000000E+20
 20
1.000000000000000E+20
 30
1.000000000000000E+20
  9
$PEXTMAX
 10
-1.000000000000000E+20
 20
-1.000000000000000E+20
 30
-1.000000000000000E+20
  9
$PLIMMIN
 10
0.0
 20
0.0
  9
$PLIMMAX
 10
12.0
 20
9.0
  9
$UNITMODE
 70
     0
  9
$VISRETAIN
 70
     1
  9
$PLINEGEN
 70
     0
  9
$PSLTSCALE
 70
     1
  9
$TREEDEPTH
 70
  3020
  9
$CMLSTYLE
  2
Standard
  9
$CMLJUST
 70
     0
  9
$CMLSCALE
 40
1.0
  9
$PROXYGRAPHICS
 70
     1
  9
$MEASUREMENT
 70
     1
  9
$CELWEIGHT
370
    -1
  9
$ENDCAPS
280
     0
  9
$JOINSTYLE
280
     0
  9
$LWDISPLAY
290
     0
  9
$INSUNITS
 70
     4
  9
$HYPERLINKBASE
  1

  9
$STYLESHEET
  1

  9
$XEDIT
290
     1
  9
$CEPSNTYPE
380
     0
  9
$PSTYLEMODE
290
     1
  9
$FINGERPRINTGUID
  2
{FEC88C74-1BCB-4F6B-A7D5-818707BD2EB5}
  9
$VERSIONGUID
  2
{98A20229-4B98-497C-BFD9-5521E13EF3D5}
  9
$EXTNAMES
290
     1
  9
$PSVPSCALE
 40
0.0
  9
$OLESTARTUP
290
     0
  0
ENDSEC
  0
SECTION
  2
CLASSES
  0
CLASS
  1
ACDBDICTIONARYWDFLT
  2
AcDbDictionaryWithDefault
  3
ObjectDBX Classes
 90
        0
280
     0
281
     0
  0
CLASS
  1
ACDBPLACEHOLDER
  2
AcDbPlaceHolder
  3
ObjectDBX Classes
 90
        0
280
     0
281
     0
  0
CLASS
  1
LAYOUT
  2
AcDbLayout
  3
ObjectDBX Classes
 90
        0
280
     0
281
     0
  0
CLASS
  1
MATERIAL
  2
AcDbMaterial
  3
ObjectDBX Classes
 90
     1153
280
     0
281
     0
  0
CLASS
  1
VISUALSTYLE
  2
AcDbVisualStyle
  3
ObjectDBX Classes
 90
     4095
280
     0
281
     0
  0
CLASS
  1
TABLESTYLE
  2
AcDbTableStyle
  3
ObjectDBX Classes
 90
     4095
280
     0
281
     0
  0
CLASS
  1
SCALE
  2
AcDbScale
  3
ObjectDBX Classes
 90
     1153
280
     0
281
     0
  0
CLASS
  1
MLEADERSTYLE
  2
AcDbMLeaderStyle
  3
ACDB_MLEADERSTYLE_CLASS
 90
     4095
280
     0
281
     0
  0
CLASS
  1
AMGSETTINGSOBJ
  2
AmgSettingsObj
  3
"AcadM|Product Description: AutoCAD Mechanical|Company: Autodesk, Inc."
 90
     1024
280
     0
281
     0
  0
CLASS
  1
ACME_DOCUMENT
  2
AcMeDbDoc
  3
AcMeServices
 90
     1024
280
     0
281
     0
  0
CLASS
  1
ACMESCOPE
  2
AcMeScope
  3
AcMeServices
 90
     1024
280
     0
281
     0
  0
CLASS
  1
ACMECOMMANDHISTORY
  2
AcMeCommandHistory
  3
AcMeServices
 90
     1024
280
     0
281
     0
  0
CLASS
  1
ACIMSYSVARMAN
  2
AcImSysVarManager
  3
AcMeServices
 90
     1024
280
     0
281
     0
  0
CLASS
  1
ACIMINTSYSVAR
  2
AcImIntSysVar
  3
AcMeServices
 90
     1024
280
     0
281
     0
  0
CLASS
  1
ACMEDRAWINGMAN
  2
AcMeDrawingMan
  3
AcMeServices
 90
     1024
280
     0
281
     0
  0
CLASS
  1
ACMEVIEW
  2
AcMeView
  3
AcMeServices
 90
     1024
280
     0
281
     0
  0
CLASS
  1
ACDBENTITYCACHE
  2
AcMeEntityCache
  3
AcMeServices
 90
     1024
280
     0
281
     0
  0
CLASS
  1
ACMESTATEMGR
  2
AcMeStateMgr
  3
AcMeServices
 90
     1024
280
     0
281
     0
  0
CLASS
  1
ACGREFMASTER
  2
AcGrefMaster
  3
AcAttribServices
 90
     1024
280
     0
281
     0
  0
CLASS
  1
AM_DRAWING_MGR
  2
AcDmDwgMgr
  3
AcMechDwgViewMgmt
 90
     1024
280
     0
281
     0
  0
CLASS
  1
AM_DWG_DOCUMENT
  2
AcDmDwgDocument
  3
AcMechDwgViewMgmt
 90
     1024
280
     0
281
     0
  0
CLASS
  1
AM_DWG_SHEET
  2
AcDmSheet
  3
AcMechDwgViewMgmt
 90
     1024
280
     0
281
     0
  0
CLASS
  1
AM_VIEWDIMPARMAP
  2
AcDmViewDimParMap
  3
AcMechDwgViewMgmt
 90
     1024
280
     0
281
     0
  0
CLASS
  1
AMDTINTERNALREACTOR
  2
AmdtInternalReactor
  3
AcMeServices
 90
     1024
280
     0
281
     0
  0
CLASS
  1
ACIMREALSYSVAR
  2
AcImRealSysVar
  3
AcMeServices
 90
     1024
280
     0
281
     0
  0
CLASS
  1
AM_DWGMGR_NAME
  2
AcDmDwgMgrName
  3
AcMechDwgViewMgmt
 90
     1024
280
     0
281
     0
  0
CLASS
  1
ACME_DATABASE
  2
AcMeDbDatabase
  3
AcMeServices
 90
     1024
280
     0
281
     0
  0
CLASS
  1
ACRFINSADJUSTERMGR
  2
AcRfInsAdjusterMgr
  3
AcMeServices
 90
     1024
280
     0
281
     0
  0
CLASS
  1
ACGREFACADMASTER
  2
AcGrefacadMaster
  3
AcGrefServices
 90
     1024
280
     0
281
     0
  0
CLASS
  1
AMDTMENUSTATEMGR
  2
AmdtMenuStateMgr
  3
McadcomServices
 90
     1024
280
     0
281
     0
  0
CLASS
  1
AMDTMCOMMENUSTATE
  2
AmdtMcomMenuState
  3
McadcomServices
 90
     1024
280
     0
281
     0
  0
CLASS
  1
AMIMASTER
  2
AmiMaster
  3
AmiServices
 90
     1024
280
     0
281
     0
  0
CLASS
  1
MAPIAMMOUDLE
  2
MApiAmModule
  3
MApiAmServices
 90
     1024
280
     0
281
     0
  0
CLASS
  1
ACIMSTRSYSVAR
  2
AcImStrSysVar
  3
AcMeServices
 90
     1024
280
     0
281
     0
  0
CLASS
  1
AMDTADMENUSTATE
  2
AmdtAdMenuState
  3
DesignerServices
 90
     1024
280
     0
281
     0
  0
CLASS
  1
ADAPPL
  2
AcAdAppl
  3
DesignerServices
 90
     1024
280
     0
281
     0
  0
CLASS
  1
DEPMGR
  2
AcAdDepMgr
  3
DesignerServices
 90
     1024
280
     0
281
     0
  0
CLASS
  1
PARAMMGR
  2
AcAdParamMgr
  3
DesignerServices
 90
     1024
280
     0
281
     0
  0
CLASS
  1
PARAMSCOPE
  2
AcAdParamScope
  3
DesignerServices
 90
     1024
280
     0
281
     0
  0
CLASS
  1
NAMEDAPPL
  2
AcAdNamedAppl
  3
DesignerServices
 90
     1024
280
     0
281
     0
  0
CLASS
  1
AMDTDMMENUSTATE
  2
AmdtDmMenuState
  3
AcMechDwgViewMgmt
 90
     1024
280
     0
281
     0
  0
CLASS
  1
AMDTAMMENUSTATE
  2
AmdtAmMenuState
  3
DesignerAssemblies
 90
     1024
280
     0
281
     0
  0
CLASS
  1
ACAMPROJECT
  2
AcAmProject
  3
DesignerAssemblies
 90
     1024
280
     0
281
     0
  0
CLASS
  1
ACAMGRCOMPDEF
  2
AcAmGrCompDef
  3
DesignerAssemblies
 90
     1024
280
     0
281
     0
  0
CLASS
  1
ACAMCOMPDEF
  2
AcAmCompDef
  3
DesignerAssemblies
 90
     1024
280
     0
281
     0
  0
CLASS
  1
ACAMCOMPDEFMGR
  2
AcAmCompDefMgr
  3
DesignerAssemblies
 90
     1024
280
     0
281
     0
  0
CLASS
  1
AMCONTEXTMGR
  2
AcAmContextMgr
  3
DesignerAssemblies
 90
     1024
280
     0
281
     0
  0
CLASS
  1
ACAMCONTEXTMODELER
  2
AcAmContextModeler
  3
DesignerAssemblies
 90
     1024
280
     0
281
     0
  0
CLASS
  1
ACMDATADICTIONARY
  2
AcmDataDictionary
  3
"AcmSymBB|Product Description: AutoCAD Mechanical|Company: Autodesk, Inc."
 90
     1024
280
     0
281
     0
  0
CLASS
  1
CATALOGSTATE
  2
AcAmCatalogState
  3
DesignerAssemblies
 90
     1024
280
     0
281
     0
  0
CLASS
  1
ACAMGRCOMPDEFSET
  2
AcAmGrCompDefSet
  3
DesignerAssemblies
 90
     1024
280
     0
281
     0
  0
CLASS
  1
AMDTBROWSERDBTAB
  2
AmdtBrowserDbTab
  3
McadcomServices
 90
     1024
280
     0
281
     0
  0
CLASS
  1
CBROWSERAPPOBJECT
  2
CBrowserAppObject
  3
McadcomServices
 90
     1024
280
     0
281
     0
  0
CLASS
  1
DM_PLACEHOLDER
  2
AcDmSelsetPlaceholder
  3
AcMechDwgViewMgmt
 90
     1024
280
     0
281
     0
  0
CLASS
  1
ACMSTANDARDDIN
  2
AcmStandardDIN
  3
"Amdt_StdImp|Product Description: AutoCAD Mechanical|Company: Autodesk, Inc."
 90
     1024
280
     0
281
     0
  0
CLASS
  1
AMDTEDGESTANDARDDIN13715
  2
AmdtEdgeStdDIN13715
  3
"Amdt_StdImp|Product Description: AutoCAD Mechanical|Company: Autodesk, Inc."
 90
     1024
280
     0
281
     0
  0
CLASS
  1
ACMSURFSTANDARDDIN2002
  2
AcmSurfTextStdDIN2002
  3
"Amdt_StdImp|Product Description: AutoCAD Mechanical|Company: Autodesk, Inc."
 90
     1024
280
     0
281
     0
  0
CLASS
  1
ACMFCFSTANDARDDIN
  2
AcmFCFStdDIN
  3
"Amdt_StdImp|Product Description: AutoCAD Mechanical|Company: Autodesk, Inc."
 90
     1024
280
     0
281
     0
  0
CLASS
  1
ACMWELDSTANDARDDIN
  2
AcmWeldingStdDIN
  3
"Amdt_StdImp|Product Description: AutoCAD Mechanical|Company: Autodesk, Inc."
 90
     1024
280
     0
281
     0
  0
CLASS
  1
ACMIDSTANDARDDIN
  2
AcmIdStdDIN
  3
"Amdt_StdImp|Product Description: AutoCAD Mechanical|Company: Autodesk, Inc."
 90
     1024
280
     0
281
     0
  0
CLASS
  1
ACMDATUMSTANDARDDIN
  2
AcmDatumStdDIN
  3
"Amdt_StdImp|Product Description: AutoCAD Mechanical|Company: Autodesk, Inc."
 90
     1024
280
     0
281
     0
  0
CLASS
  1
ACMBOMSTANDARDDIN
  2
AcmBOMStdDIN
  3
"Amdt_StdImp|Product Description: AutoCAD Mechanical|Company: Autodesk, Inc."
 90
     1024
280
     0
281
     0
  0
CLASS
  1
ACMDETAILSTANDARDDIN
  2
AmdtDetailSymStdDIN
  3
"Amdt_StdImp|Product Description: AutoCAD Mechanical|Company: Autodesk, Inc."
 90
     1024
280
     0
281
     0
  0
CLASS
  1
ACMSECTIONSTANDARDDIN
  2
AmdtSectionSymStdDIN
  3
"Amdt_StdImp|Product Description: AutoCAD Mechanical|Company: Autodesk, Inc."
 90
     1024
280
     0
281
     0
  0
CLASS
  1
ACMCENTERLINESTANDARDDIN
  2
AmdtCenterLineStdDIN
  3
"Amdt_StdImp|Product Description: AutoCAD Mechanical|Company: Autodesk, Inc."
 90
     1024
280
     0
281
     0
  0
CLASS
  1
ACMTHREADLINESTANDARDDIN
  2
AmdtThreadLineStdDIN
  3
"Amdt_StdImp|Product Description: AutoCAD Mechanical|Company: Autodesk, Inc."
 90
     1024
280
     0
281
     0
  0
CLASS
  1
ACMNOTESTANDARDDIN
  2
AmdtNoteStdDIN
  3
"Amdt_StdImp|Product Description: AutoCAD Mechanical|Company: Autodesk, Inc."
 90
     1024
280
     0
281
     0
  0
CLASS
  1
ACMTAPERSTANDARDDIN
  2
AcmTaperStdDIN
  3
"Amdt_StdImp|Product Description: AutoCAD Mechanical|Company: Autodesk, Inc."
 90
     1024
280
     0
281
     0
  0
CLASS
  1
ACMANOOTATIONVIEWSTANDARDDIN
  2
AmdtAnViewStdDIN
  3
"Amdt_StdImp|Product Description: AutoCAD Mechanical|Company: Autodesk, Inc."
 90
     1024
280
     0
281
     0
  0
CLASS
  1
ACAMGLAYSTD
  2
AcAmgLayStd
  3
"AmgLay|Product Description: AutoCAD Mechanical|Company: Autodesk, Inc."
 90
     1024
280
     0
281
     0
  0
CLASS
  1
ACAMGDIMSTD
  2
AcAmgDimStd
  3
"AmgDim|Product Description: AutoCAD Mechanical|Company: Autodesk, Inc."
 90
     1024
280
     0
281
     0
  0
CLASS
  1
AMGOBJPROPCFG
  2
AmgObjPropCfg
  3
"AmgLay|Product Description: AutoCAD Mechanical|Company: Autodesk, Inc."
 90
     1025
280
     0
281
     0
  0
CLASS
  1
ACAMGHOLECHARTSTDDIN
  2
AcAmgHoleChartStdDIN
  3
AmgDim|Product Description: AutoCAD Mechanical|Company: Autodesk, Inc.
 90
     1024
280
     0
281
     0
  0
CLASS
  1
ACAMGTITLESTD
  2
AcAmgTitleStd
  3
"AmgTitle|Product Description: AutoCAD Mechanical|Company: Autodesk, Inc."
 90
     4095
280
     0
281
     0
  0
CLASS
  1
AMDTNOTETEMPLATEDB
  2
AmdtNoteTemplateDB
  3
AcmSymBB|Product Description: AutoCAD Mechanical|Company: Autodesk, Inc.
 90
     1024
280
     0
281
     0
  0
CLASS
  1
ACAMGFILTERDAT
  2
AcAmgFilterDat
  3
"AcadM|Product Description: AutoCAD Mechanical|Company: Autodesk, Inc."
 90
    33792
280
     0
281
     0
  0
CLASS
  1
DICTIONARYVAR
  2
AcDbDictionaryVar
  3
ObjectDBX Classes
 90
        0
280
     0
281
     0
  0
CLASS
  1
CELLSTYLEMAP
  2
AcDbCellStyleMap
  3
ObjectDBX Classes
 90
     1152
280
     0
281
     0
  0
CLASS
  1
EXACXREFPANELOBJECT
  2
ExAcXREFPanelObject
  3
EXAC_ESW
 90
     1025
280
     0
281
     0
  0
CLASS
  1
NPOCOLLECTION
  2
AcDbImpNonPersistentObjectsCollection
  3
ObjectDBX Classes
 90
     1153
280
     0
281
     0
  0
CLASS
  1
DIMASSOC
  2
AcDbDimAssoc
  3
"AcDbDimAssoc|Product Desc:     AcDim ARX App For Dimension|Company:          Autodesk, Inc.|WEB Address:      www.autodesk.com"
 90
        0
280
     0
281
     0
  0
CLASS
  1
AEC_REFEDIT_STATUS_TRACKER
  2
AecDbRefEditStatusTracker
  3
AecArchBase60|Product Desc: Autodesk Architectural Desktop 2007 |Company: Autodesk,Inc. |WEB Address: www.autodesk.com
 90
    32897
280
     0
281
     0
  0
ENDSEC
  0
SECTION
  2
TABLES
  0
TABLE
  2
VPORT
  5
8
330
0
100
AcDbSymbolTable
 70
     1
  0
VPORT
  5
1F4
330
8
100
AcDbSymbolTableRecord
100
AcDbViewportTableRecord
  2
*ACTIVE
 70
     0
 10
0.0
 20
0.0
 11
1.0
 21
1.0
 12
202.4045640983745
 22
184.3377487898647
 13
0.0
 23
0.0
 14
1.0
 24
1.0
 15
0.0
 25
0.0
 16
0.0
 26
0.0
 36
1.0
 17
0.0
 27
0.0
 37
0.0
 40
538.9621985691332
 41
2.140734265734265
 42
50.0
 43
0.0
 44
0.0
 50
0.0
 51
0.0
 71
     0
 72
   100
 73
     1
 74
     1
 75
     0
 76
     0
 77
     0
 78
     0
281
     0
 65
     0
110
0.0
120
0.0
130
0.0
111
1.0
121
0.0
131
0.0
112
0.0
122
1.0
132
0.0
 79
     0
146
0.0
  0
ENDTAB
  0
TABLE
  2
LTYPE
  5
5
330
0
100
AcDbSymbolTable
 70
    22
  0
LTYPE
  5
14
330
5
100
AcDbSymbolTableRecord
100
AcDbLinetypeTableRecord
  2
BYBLOCK
 70
     0
  3

 72
    65
 73
     0
 40
0.0
  0
LTYPE
  5
15
330
5
100
AcDbSymbolTableRecord
100
AcDbLinetypeTableRecord
  2
BYLAYER
 70
     0
  3

 72
    65
 73
     0
 40
0.0
  0
LTYPE
  5
16
330
5
100
AcDbSymbolTableRecord
100
AcDbLinetypeTableRecord
  2
CONTINUOUS
 70
     0
  3
Solid line
 72
    65
 73
     0
 40
0.0
  0
LTYPE
  5
1F5
330
5
100
AcDbSymbolTableRecord
100
AcDbLinetypeTableRecord
  2
CENTER
 70
     0
  3
____ _ ____ _ ____ _ ____ _ ____ _ ____ _ ____
 72
    65
 73
     4
 40
0.6
 49
0.375
 74
     0
 49
-0.075
 74
     0
 49
0.075
 74
     0
 49
-0.075
 74
     0
  0
LTYPE
  5
1F6
330
5
100
AcDbSymbolTableRecord
100
AcDbLinetypeTableRecord
  2
HIDDEN
 70
     0
  3
- - - - - - - - - - - - - - - - - - - -
 72
    65
 73
     2
 40
0.2
 49
0.1
 74
     0
 49
-0.1
 74
     0
  0
LTYPE
  5
1F7
330
5
100
AcDbSymbolTableRecord
100
AcDbLinetypeTableRecord
  2
PHANTOM
 70
     0
  3
_____ _ _ _____ _ _ _____ _ _ _____
 72
    65
 73
     6
 40
0.8
 49
0.45
 74
     0
 49
-0.05
 74
     0
 49
0.1
 74
     0
 49
-0.05
 74
     0
 49
0.1
 74
     0
 49
-0.05
 74
     0
  0
LTYPE
  5
1F8
330
5
100
AcDbSymbolTableRecord
100
AcDbLinetypeTableRecord
  2
DOT
 70
     0
  3
. . . . . . . . . . . . . . . . . . . .
 72
    65
 73
     2
 40
0.2
 49
0.1
 74
     0
 49
-0.1
 74
     0
  0
LTYPE
  5
1F9
330
5
100
AcDbSymbolTableRecord
100
AcDbLinetypeTableRecord
  2
DASHED
 70
     0
  3
- - - - - - - - - - - - - - - - - - - -
 72
    65
 73
     2
 40
0.2
 49
0.1
 74
     0
 49
-0.1
 74
     0
  0
LTYPE
  5
5B8
330
5
100
AcDbSymbolTableRecord
100
AcDbLinetypeTableRecord
  2
PHANTOM2
 70
     0
  3
Phantom (.5x) ___ _ _ ___ _ _ ___ _ _ ___ _ _
 72
    65
 73
     6
 40
31.75
 49
15.875
 74
     0
 49
-3.174999999999998
 74
     0
 49
3.174999999999998
 74
     0
 49
-3.174999999999998
 74
     0
 49
3.174999999999998
 74
     0
 49
-3.174999999999998
 74
     0
  0
LTYPE
  5
5FE
330
5
100
AcDbSymbolTableRecord
100
AcDbLinetypeTableRecord
  2
AM_ISO02W050
 70
     0
  3
__ __ __ __ __ __ __ __ __ __ __ __ __ __ __
 72
    65
 73
     2
 40
7.5
 49
6.0
 74
     0
 49
-1.5
 74
     0
  0
LTYPE
  5
5FF
330
5
100
AcDbSymbolTableRecord
100
AcDbLinetypeTableRecord
  2
AM_ISO08W050
 70
     0
  3
____ . ____ . ____ . ____ . ____ . ____ . ____
 72
    65
 73
     4
 40
18.0
 49
12.0
 74
     0
 49
-1.5
 74
     0
 49
3.0
 74
     0
 49
-1.5
 74
     0
  0
LTYPE
  5
600
330
5
100
AcDbSymbolTableRecord
100
AcDbLinetypeTableRecord
  2
AM_ISO09W050
 70
     0
  3
_____ . . _____ . . _____ . . ____ .. ____
 72
    65
 73
     6
 40
22.5
 49
12.0
 74
     0
 49
-1.5
 74
     0
 49
3.0
 74
     0
 49
-1.5
 74
     0
 49
3.0
 74
     0
 49
-1.5
 74
     0
  0
LTYPE
  5
601
330
5
100
AcDbSymbolTableRecord
100
AcDbLinetypeTableRecord
  2
Amconstr
 70
     0
  3
_______________________
 72
    65
 73
     2
 40
9999.0
 49
9999.0
 74
     0
 49
0.0
 74
     0
  0
LTYPE
  5
602
330
5
100
AcDbSymbolTableRecord
100
AcDbLinetypeTableRecord
  2
AM_ISO08W050x2
 70
     0
  3
__ . __ . __ . __ . __ . __
 72
    65
 73
     4
 40
9.0
 49
6.0
 74
     0
 49
-0.75
 74
     0
 49
1.5
 74
     0
 49
-0.75
 74
     0
  0
LTYPE
  5
603
330
5
100
AcDbSymbolTableRecord
100
AcDbLinetypeTableRecord
  2
AM_ISO02W050x2
 70
     0
  3
 _ _ _ _ _ _ _ _ _ _ _ _
 72
    65
 73
     2
 40
3.75
 49
3.0
 74
     0
 49
-0.75
 74
     0
  0
LTYPE
  5
606
330
5
100
AcDbSymbolTableRecord
100
AcDbLinetypeTableRecord
  2
Amzigzag
 70
     0
  3
/\/-/\/-/\/-/\/-/\/-/\/
 72
    65
 73
     2
 40
11.0001
 49
0.0001
 74
     4
 75
   136
340
605
 46
0.04
 50
0.0
 44
0.0
 45
0.0
 49
-11.0
 74
     0
  0
LTYPE
  5
607
330
5
100
AcDbSymbolTableRecord
100
AcDbLinetypeTableRecord
  2
AM_DIN_F_W050
 70
     0
  3
__ __ __ __ __ __ __ __ __ __ __ __ __ __ __
 72
    65
 73
     2
 40
6.25
 49
4.75
 74
     0
 49
-1.5
 74
     0
  0
LTYPE
  5
608
330
5
100
AcDbSymbolTableRecord
100
AcDbLinetypeTableRecord
  2
AM_DIN_G_W050
 70
     0
  3
____ . ____ . ____ . ____ . ____ . ____ . ____
 72
    65
 73
     4
 40
13.75
 49
9.75
 74
     0
 49
-1.5
 74
     0
 49
1.0
 74
     0
 49
-1.5
 74
     0
  0
LTYPE
  5
609
330
5
100
AcDbSymbolTableRecord
100
AcDbLinetypeTableRecord
  2
AM_DIN_K_W050
 70
     0
  3
_____ . . _____ . . _____ . . ____ .. ____
 72
    65
 73
     6
 40
16.25
 49
9.75
 74
     0
 49
-1.5
 74
     0
 49
1.0
 74
     0
 49
-1.5
 74
     0
 49
1.0
 74
     0
 49
-1.5
 74
     0
  0
LTYPE
  5
60A
330
5
100
AcDbSymbolTableRecord
100
AcDbLinetypeTableRecord
  2
AM_DIN_G_W050x2
 70
     0
  3
__ . __ . __ . __ . __ . __
 72
    65
 73
     4
 40
6.875
 49
4.75
 74
     0
 49
-0.875
 74
     0
 49
0.375
 74
     0
 49
-0.875
 74
     0
  0
LTYPE
  5
60B
330
5
100
AcDbSymbolTableRecord
100
AcDbLinetypeTableRecord
  2
AM_DIN_F_W050x2
 70
     0
  3
 _ _ _ _ _ _ _ _ _ _ _ _
 72
    65
 73
     2
 40
3.125
 49
2.25
 74
     0
 49
-0.875
 74
     0
  0
LTYPE
  5
61A
330
5
100
AcDbSymbolTableRecord
100
AcDbLinetypeTableRecord
  2
ACDINWELD
 70
     0
  3
_ _ _ _ _
 72
    65
 73
     2
 40
2.0
 49
2.0
 74
     0
 49
-1.0
 74
     0
  0
LTYPE
  5
61B
330
5
100
AcDbSymbolTableRecord
100
AcDbLinetypeTableRecord
  2
ACDINTGB
 70
     0
  3
__ . . __ . .
 72
    65
 73
     6
 40
9.0
 49
4.0
 74
     0
 49
-1.0
 74
     0
 49
1.0
 74
     0
 49
-1.0
 74
     0
 49
1.0
 74
     0
 49
-1.0
 74
     0
  0
LTYPE
  5
61C
330
5
100
AcDbSymbolTableRecord
100
AcDbLinetypeTableRecord
  2
ACDINTGL
 70
     0
  3
_ _ _ _ _
 72
    65
 73
     2
 40
3.0
 49
2.0
 74
     0
 49
-1.0
 74
     0
  0
ENDTAB
  0
TABLE
  2
LAYER
  5
2
102
{ACAD_XDICTIONARY
360
87B
102
}
330
0
100
AcDbSymbolTable
 70
    15
  0
LAYER
  5
10
330
2
100
AcDbSymbolTableRecord
100
AcDbLayerTableRecord
  2
0
 70
     0
 62
     7
  6
CONTINUOUS
370
    -3
390
F
  0
LAYER
  5
1FA
330
2
100
AcDbSymbolTableRecord
100
AcDbLayerTableRecord
  2
DEFAULT_1
 70
     0
 62
     7
  6
CENTER
370
    -3
390
F
  0
LAYER
  5
1FB
330
2
100
AcDbSymbolTableRecord
100
AcDbLayerTableRecord
  2
DEFAULT_2
 70
     0
 62
     8
  6
HIDDEN
370
    -3
390
F
  0
LAYER
  5
1FC
330
2
100
AcDbSymbolTableRecord
100
AcDbLayerTableRecord
  2
DEFAULT_3
 70
     0
 62
     7
  6
PHANTOM
370
    -3
390
F
  0
LAYER
  5
1FD
330
2
100
AcDbSymbolTableRecord
100
AcDbLayerTableRecord
  2
BEZUGSACHSEN
 70
     0
 62
     7
  6
CONTINUOUS
370
    -3
390
F
  0
LAYER
  5
1FE
330
2
100
AcDbSymbolTableRecord
100
AcDbLayerTableRecord
  2
BEZUGSEBENEN
 70
     0
 62
     7
  6
CONTINUOUS
370
    -3
390
F
  0
LAYER
  5
1FF
330
2
100
AcDbSymbolTableRecord
100
AcDbLayerTableRecord
  2
BOHRUNGEN
 70
     0
 62
     7
  6
CONTINUOUS
370
    -3
390
F
  0
LAYER
  5
200
330
2
100
AcDbSymbolTableRecord
100
AcDbLayerTableRecord
  2
FASEN
 70
     0
 62
     7
  6
CONTINUOUS
370
    -3
390
F
  0
LAYER
  5
201
330
2
100
AcDbSymbolTableRecord
100
AcDbLayerTableRecord
  2
GEWINDE
 70
     0
 62
     7
  6
CONTINUOUS
370
    -3
390
F
  0
LAYER
  5
202
330
2
100
AcDbSymbolTableRecord
100
AcDbLayerTableRecord
  2
KURVEN
 70
     0
 62
     7
  6
CONTINUOUS
370
    -3
390
F
  0
LAYER
  5
203
330
2
100
AcDbSymbolTableRecord
100
AcDbLayerTableRecord
  2
METAL-STEEL
 70
     0
 62
     7
  6
CONTINUOUS
370
    -3
390
F
  0
LAYER
  5
204
330
2
100
AcDbSymbolTableRecord
100
AcDbLayerTableRecord
  2
ZEICHNUNGSBEMASSUNGEN
 70
     0
 62
     7
  6
CONTINUOUS
370
    -3
390
F
  0
LAYER
  5
62A
330
2
100
AcDbSymbolTableRecord
100
AcDbLayerTableRecord
  2
Defpoints
 70
     0
 62
     7
  6
CONTINUOUS
290
     0
370
    -3
390
F
  0
LAYER
  5
775
330
2
100
AcDbSymbolTableRecord
100
AcDbLayerTableRecord
  2
AM_5
 70
     0
 62
     3
  6
CONTINUOUS
370
    25
390
F
1001
AcAecLayerStandard
1000

1000

  0
LAYER
  5
878
102
{ACAD_XDICTIONARY
360
879
102
}
330
2
100
AcDbSymbolTableRecord
100
AcDbLayerTableRecord
  2
P-0000
 70
     0
 62
     7
  6
CONTINUOUS
370
    -3
390
F
  0
ENDTAB
  0
TABLE
  2
STYLE
  5
3
330
0
100
AcDbSymbolTable
 70
     6
  0
STYLE
  5
11
330
3
100
AcDbSymbolTableRecord
100
AcDbTextStyleTableRecord
  2
STANDARD
 70
     0
 40
0.0
 41
0.7
 50
0.0
 71
     0
 42
0.2
  3
txt
  4

  0
STYLE
  5
205
330
3
100
AcDbSymbolTableRecord
100
AcDbTextStyleTableRecord
  2
TEXTSTYLE_1
 70
     0
 40
0.0
 41
0.8
 50
0.0
 71
     0
 42
0.2
  3
gdt
  4

  0
STYLE
  5
206
330
3
100
AcDbSymbolTableRecord
100
AcDbTextStyleTableRecord
  2
TEXTSTYLE_2
 70
     0
 40
0.0
 41
0.6
 50
0.0
 71
     0
 42
0.2
  3
txt
  4

  0
STYLE
  5
605
330
3
100
AcDbSymbolTableRecord
100
AcDbTextStyleTableRecord
  2

 70
     1
 40
0.0
 41
1.0
 50
0.0
 71
     0
 42
0.2
  3
genltshp.shx
  4

  0
STYLE
  5
618
330
3
100
AcDbSymbolTableRecord
100
AcDbTextStyleTableRecord
  2
ACDINTS
 70
     0
 40
1.0
 41
1.0
 50
0.0
 71
     0
 42
0.2
  3
isocp.shx
  4

  0
STYLE
  5
619
330
3
100
AcDbSymbolTableRecord
100
AcDbTextStyleTableRecord
  2
ACDINGDT
 70
     0
 40
0.0
 41
1.0
 50
0.0
 71
     0
 42
0.2
  3
amgdt.shx
  4

  0
ENDTAB
  0
TABLE
  2
VIEW
  5
6
330
0
100
AcDbSymbolTable
 70
     0
  0
ENDTAB
  0
TABLE
  2
UCS
  5
7
330
0
100
AcDbSymbolTable
 70
     0
  0
ENDTAB
  0
TABLE
  2
APPID
  5
9
330
0
100
AcDbSymbolTable
 70
    22
  0
APPID
  5
207
330
9
100
AcDbSymbolTableRecord
100
AcDbRegAppTableRecord
  2
ACAD
 70
     0
  0
APPID
  5
58D
330
9
100
AcDbSymbolTableRecord
100
AcDbRegAppTableRecord
  2
MCAD_NO_VIS
 70
     0
  0
APPID
  5
58E
330
9
100
AcDbSymbolTableRecord
100
AcDbRegAppTableRecord
  2
ACAD_TEMP_GRAPHIC
 70
     0
  0
APPID
  5
5BA
330
9
100
AcDbSymbolTableRecord
100
AcDbRegAppTableRecord
  2
AD_DRAW
 70
     0
  0
APPID
  5
5BD
330
9
100
AcDbSymbolTableRecord
100
AcDbRegAppTableRecord
  2
ACATTRIBSERVICES
 70
     0
  0
APPID
  5
5DD
330
9
100
AcDbSymbolTableRecord
100
AcDbRegAppTableRecord
  2
DESIGNERASSEMBLIES
 70
     0
  0
APPID
  5
5E3
330
9
100
AcDbSymbolTableRecord
100
AcDbRegAppTableRecord
  2
ACADM_DIM_EDIT
 70
     0
  0
APPID
  5
5E4
330
9
100
AcDbSymbolTableRecord
100
AcDbRegAppTableRecord
  2
AMDT_DM_ADJ
 70
     0
  0
APPID
  5
5FB
330
9
100
AcDbSymbolTableRecord
100
AcDbRegAppTableRecord
  2
ACAD_DSTYLE_DIMJAG
 70
     0
  0
APPID
  5
5FC
330
9
100
AcDbSymbolTableRecord
100
AcDbRegAppTableRecord
  2
ACAD_DSTYLE_DIMBREAK
 70
     0
  0
APPID
  5
658
330
9
100
AcDbSymbolTableRecord
100
AcDbRegAppTableRecord
  2
AcAecLayerStandard
 70
     0
  0
APPID
  5
659
330
9
100
AcDbSymbolTableRecord
100
AcDbRegAppTableRecord
  2
GENIUS_GENODEF_13
 70
     0
  0
APPID
  5
65A
330
9
100
AcDbSymbolTableRecord
100
AcDbRegAppTableRecord
  2
GENIUS_GENOBJ-N-HTC_13
 70
     0
  0
APPID
  5
65B
330
9
100
AcDbSymbolTableRecord
100
AcDbRegAppTableRecord
  2
GENIUS_GENHATCH_13
 70
     0
  0
APPID
  5
65C
330
9
100
AcDbSymbolTableRecord
100
AcDbRegAppTableRecord
  2
ACAD_EXEMPT_FROM_CAD_STANDARDS
 70
     0
  0
APPID
  5
65D
330
9
100
AcDbSymbolTableRecord
100
AcDbRegAppTableRecord
  2
ACAD_MLEADERVER
 70
     0
  0
APPID
  5
65E
330
9
100
AcDbSymbolTableRecord
100
AcDbRegAppTableRecord
  2
ACAD_DSTYLE_DIMJOGGED_JOGANGLE_SYMBOL
 70
     0
  0
APPID
  5
65F
330
9
100
AcDbSymbolTableRecord
100
AcDbRegAppTableRecord
  2
ACAD_DSTYLE_DIM_LINETYPE
 70
     0
  0
APPID
  5
660
330
9
100
AcDbSymbolTableRecord
100
AcDbRegAppTableRecord
  2
ACAD_DSTYLE_DIM_EXT1_LINETYPE
 70
     0
  0
APPID
  5
661
330
9
100
AcDbSymbolTableRecord
100
AcDbRegAppTableRecord
  2
ACAD_DSTYLE_DIM_EXT2_LINETYPE
 70
     0
  0
APPID
  5
662
330
9
100
AcDbSymbolTableRecord
100
AcDbRegAppTableRecord
  2
ACAD_DSTYLE_DIMINSPECT
 70
     0
  0
APPID
  5
663
330
9
100
AcDbSymbolTableRecord
100
AcDbRegAppTableRecord
  2
GENIUS_GENDTOL_13
 70
     0
  0
ENDTAB
  0
TABLE
  2
DIMSTYLE
  5
A
330
0
100
AcDbSymbolTable
 70
    12
100
AcDbDimStyleTable
 71
     3
340
87A
340
20F
340
211
  0
DIMSTYLE
105
20F
330
A
100
AcDbSymbolTableRecord
100
AcDbDimStyleTableRecord
  2
STANDARD
 70
     0
 41
3.5
 42
1.5
 44
1.5
 47
0.005
 48
0.005
 71
     1
 73
     0
 74
     0
 77
     1
 78
     8
140
3.5
147
0.625
178
     5
271
     3
272
     3
284
     8
340
11
341
20A
342
20A
343
20A
344
20A
  0
DIMSTYLE
105
210
330
A
100
AcDbSymbolTableRecord
100
AcDbDimStyleTableRecord
  2
DIMSTYLE_1
 70
     0
 41
3.5
 42
1.5
 44
1.5
 47
0.3
 48
0.3
 73
     0
 74
     0
 77
     1
 78
     8
140
3.5
147
0.875
178
     5
271
     3
272
     3
284
     8
340
11
341
20A
342
20A
343
20A
344
20A
  0
DIMSTYLE
105
211
330
A
100
AcDbSymbolTableRecord
100
AcDbDimStyleTableRecord
  2
DIMSTYLE_2
 70
     0
 41
3.5
 42
1.5
 44
1.5
 48
1.0
 71
     1
 73
     0
 74
     0
 77
     1
 78
     8
140
3.5
146
0.6
147
0.875
178
     5
271
     3
272
     3
284
     8
340
11
341
20A
342
20A
343
20A
344
20A
  0
DIMSTYLE
105
5FA
102
{ACAD_REACTORS
330
BDF
102
}
330
A
100
AcDbSymbolTableRecord
100
AcDbDimStyleTableRecord
  2
AM_DIN
 70
     0
  4
"
 41
3.5
 42
1.0
 43
10.0
 44
1.0
 47
0.1
 48
0.1
 73
     0
 74
     0
 77
     1
 78
     8
 79
     2
140
3.5
141
0.0
143
0.0393701
146
0.71
147
1.5
172
     1
176
   256
177
   256
178
     2
271
     2
272
     3
274
     4
283
     0
284
     8
340
11
371
    -1
372
    -1
1001
ACAD_DSTYLE_DIMJAG
1070
   388
1040
1.5
1001
ACAD_DSTYLE_DIMBREAK
1070
   391
1040
3.75
1001
ACAD_DSTYLE_DIMJOGGED_JOGANGLE_SYMBOL
1070
   384
1040
1.570796326794896
1001
ACAD_DSTYLE_DIM_LINETYPE
1070
   380
1005
14
1001
ACAD_DSTYLE_DIM_EXT1_LINETYPE
1070
   381
1005
14
1001
ACAD_DSTYLE_DIM_EXT2_LINETYPE
1070
   382
1005
14
  0
DIMSTYLE
105
60C
330
A
100
AcDbSymbolTableRecord
100
AcDbDimStyleTableRecord
  2
AM_DIN$3
 70
     0
  4
"
 41
3.5
 42
1.0
 43
10.0
 44
1.0
 47
0.1
 48
0.1
 73
     0
 77
     1
 78
     8
 79
     2
140
3.5
141
0.0
143
0.0393701
146
0.71
147
1.5
176
   256
177
   256
178
     2
271
     2
272
     3
274
     4
283
     0
284
     8
288
     1
289
     0
340
11
371
    -1
372
    -1
1001
ACAD_DSTYLE_DIMBREAK
1070
   391
1040
3.75
1001
ACAD_DSTYLE_DIMJAG
1070
   388
1040
1.5
1001
ACAD_DSTYLE_DIMJOGGED_JOGANGLE_SYMBOL
1070
   384
1040
1.570796326794896
1001
ACAD_DSTYLE_DIM_LINETYPE
1070
   380
1005
14
1001
ACAD_DSTYLE_DIM_EXT1_LINETYPE
1070
   381
1005
14
1001
ACAD_DSTYLE_DIM_EXT2_LINETYPE
1070
   382
1005
14
  0
DIMSTYLE
105
60D
330
A
100
AcDbSymbolTableRecord
100
AcDbDimStyleTableRecord
  2
AM_DIN$4
 70
     0
  4
"
 41
3.5
 42
1.0
 43
10.0
 44
1.0
 47
0.1
 48
0.1
 73
     0
 77
     1
 78
     8
 79
     2
140
3.5
141
0.0
143
0.0393701
146
0.71
147
1.5
176
   256
177
   256
178
     2
271
     2
272
     3
274
     4
283
     0
284
     8
288
     1
289
     0
340
11
371
    -1
372
    -1
1001
ACAD_DSTYLE_DIMBREAK
1070
   391
1040
3.75
1001
ACAD_DSTYLE_DIMJAG
1070
   388
1040
1.5
1001
ACAD_DSTYLE_DIMJOGGED_JOGANGLE_SYMBOL
1070
   384
1040
1.570796326794896
1001
ACAD_DSTYLE_DIM_LINETYPE
1070
   380
1005
14
1001
ACAD_DSTYLE_DIM_EXT1_LINETYPE
1070
   381
1005
14
1001
ACAD_DSTYLE_DIM_EXT2_LINETYPE
1070
   382
1005
14
  0
DIMSTYLE
105
60E
330
A
100
AcDbSymbolTableRecord
100
AcDbDimStyleTableRecord
  2
AM_DIN$6
 70
     0
  4
"
 41
3.5
 42
1.0
 43
10.0
 44
1.0
 47
0.1
 48
0.1
 73
     0
 74
     0
 78
     8
 79
     2
140
3.5
141
0.0
143
0.0393701
146
0.71
147
1.5
172
     1
176
   256
177
   256
178
     2
271
     2
272
     3
274
     4
283
     0
284
     8
340
11
371
    -1
372
    -1
1001
ACAD_DSTYLE_DIMBREAK
1070
   391
1040
3.75
1001
ACAD_DSTYLE_DIMJAG
1070
   388
1040
1.5
1001
ACAD_DSTYLE_DIMJOGGED_JOGANGLE_SYMBOL
1070
   384
1040
1.570796326794896
1001
ACAD_DSTYLE_DIM_LINETYPE
1070
   380
1005
14
1001
ACAD_DSTYLE_DIM_EXT1_LINETYPE
1070
   381
1005
14
1001
ACAD_DSTYLE_DIM_EXT2_LINETYPE
1070
   382
1005
14
  0
DIMSTYLE
105
60F
330
A
100
AcDbSymbolTableRecord
100
AcDbDimStyleTableRecord
  2
AM_DIN$7
 70
     0
  4
"
 41
3.5
 42
1.0
 43
10.0
 44
1.0
 47
0.1
 48
0.1
 73
     0
 74
     0
 77
     1
 78
     8
 79
     2
140
3.5
141
0.0
143
0.0393701
146
0.71
147
1.5
172
     1
176
   256
177
   256
178
     2
271
     2
272
     3
274
     4
283
     0
284
     8
340
11
371
    -1
372
    -1
1001
ACAD_DSTYLE_DIMBREAK
1070
   391
1040
3.75
1001
ACAD_DSTYLE_DIMJAG
1070
   388
1040
1.5
1001
ACAD_DSTYLE_DIMJOGGED_JOGANGLE_SYMBOL
1070
   384
1040
1.570796326794896
1001
ACAD_DSTYLE_DIM_LINETYPE
1070
   380
1005
14
1001
ACAD_DSTYLE_DIM_EXT1_LINETYPE
1070
   381
1005
14
1001
ACAD_DSTYLE_DIM_EXT2_LINETYPE
1070
   382
1005
14
  0
DIMSTYLE
105
610
330
A
100
AcDbSymbolTableRecord
100
AcDbDimStyleTableRecord
  2
AM_DIN$SF
 70
     0
  4
"
 41
3.5
 42
1.0
 43
10.0
 44
1.0
 47
0.1
 48
0.1
 73
     0
 74
     0
 75
     1
 76
     1
 77
     1
 78
     8
 79
     2
140
3.5
141
0.0
143
0.0393701
146
0.71
147
1.5
172
     1
176
   256
177
   256
178
     2
271
     2
272
     3
274
     4
283
     0
284
     8
340
11
371
    -1
372
    -1
1001
ACAD_DSTYLE_DIMBREAK
1070
   391
1040
3.75
1001
ACAD_DSTYLE_DIMJAG
1070
   388
1040
1.5
1001
ACAD_DSTYLE_DIMJOGGED_JOGANGLE_SYMBOL
1070
   384
1040
1.570796326794896
1001
ACAD_DSTYLE_DIM_LINETYPE
1070
   380
1005
14
1001
ACAD_DSTYLE_DIM_EXT1_LINETYPE
1070
   381
1005
14
1001
ACAD_DSTYLE_DIM_EXT2_LINETYPE
1070
   382
1005
14
  0
DIMSTYLE
105
615
330
A
100
AcDbSymbolTableRecord
100
AcDbDimStyleTableRecord
  2
AM_DIN$SH
 70
     0
  4
"
 41
3.5
 42
1.0
 43
10.0
 44
1.0
 47
0.1
 48
0.1
 73
     0
 74
     0
 75
     1
 76
     1
 77
     1
 78
     8
 79
     2
140
3.5
141
0.0
143
0.0393701
144
2.0
146
0.71
147
1.5
172
     1
173
     1
176
   256
177
   256
178
     2
271
     2
272
     3
274
     4
283
     0
284
     8
340
11
343
611
371
    -1
372
    -1
1001
ACAD_DSTYLE_DIMBREAK
1070
   391
1040
3.75
1001
ACAD_DSTYLE_DIMJAG
1070
   388
1040
1.5
1001
ACAD_DSTYLE_DIMJOGGED_JOGANGLE_SYMBOL
1070
   384
1040
1.570796326794896
1001
ACAD_DSTYLE_DIM_LINETYPE
1070
   380
1005
14
1001
ACAD_DSTYLE_DIM_EXT1_LINETYPE
1070
   381
1005
14
1001
ACAD_DSTYLE_DIM_EXT2_LINETYPE
1070
   382
1005
14
  0
DIMSTYLE
105
776
330
A
100
AcDbSymbolTableRecord
100
AcDbDimStyleTableRecord
  2
STANDARD$0
 70
     0
 41
3.5
 42
1.5
 44
1.5
 47
0.005
 48
0.005
 71
     1
 73
     0
 74
     0
 77
     1
 78
     8
140
3.5
147
0.625
178
     5
271
     3
272
     3
284
     8
340
11
341
20A
342
20A
343
20A
344
20A
1001
ACAD_DSTYLE_DIMBREAK
1070
   391
1040
3.75
1001
ACAD_DSTYLE_DIMJAG
1070
   388
1040
1.5
  0
DIMSTYLE
105
87A
102
{ACAD_REACTORS
330
7E8
330
7B0
330
778
102
}
330
A
100
AcDbSymbolTableRecord
100
AcDbDimStyleTableRecord
  2
883N99122_001_00149479900
 70
     0
 40
2.0
 41
3.149999999999999
 42
0.0
 43
3.75
 44
2.0
 73
     0
 74
     0
 77
     1
 78
     8
 79
     2
140
3.5
141
0.0
143
0.03937007874016
145
2.0
147
2.0
171
     3
172
     1
173
     1
176
     3
177
     3
178
     2
179
     2
271
     2
272
     2
274
     3
283
     0
284
     8
340
11
341
875
  0
ENDTAB
  0
TABLE
  2
BLOCK_RECORD
  5
1
330
0
100
AcDbSymbolTable
 70
    15
  0
BLOCK_RECORD
  5
208
330
1
100
AcDbSymbolTableRecord
100
AcDbBlockTableRecord
  2
*Model_Space
340
53D
  0
BLOCK_RECORD
  5
209
330
1
100
AcDbSymbolTableRecord
100
AcDbBlockTableRecord
  2
*Paper_Space
340
53E
  0
BLOCK_RECORD
  5
20A
330
1
100
AcDbSymbolTableRecord
100
AcDbBlockTableRecord
  2
_FILLED
340
0
102
{BLKREFS
331
674
331
675
331
68A
331
68B
331
6A0
331
6A1
331
6B6
331
6B7
102
}
  0
BLOCK_RECORD
  5
20B
330
1
100
AcDbSymbolTableRecord
100
AcDbBlockTableRecord
  2
*D1
340
0
  0
BLOCK_RECORD
  5
20C
330
1
100
AcDbSymbolTableRecord
100
AcDbBlockTableRecord
  2
*D2
340
0
  0
BLOCK_RECORD
  5
20D
330
1
100
AcDbSymbolTableRecord
100
AcDbBlockTableRecord
  2
*D3
340
0
  0
BLOCK_RECORD
  5
20E
330
1
100
AcDbSymbolTableRecord
100
AcDbBlockTableRecord
  2
*D4
340
0
  0
BLOCK_RECORD
  5
611
330
1
100
AcDbSymbolTableRecord
100
AcDbBlockTableRecord
  2
GENAXEH
340
0
  0
BLOCK_RECORD
  5
779
330
1
100
AcDbSymbolTableRecord
100
AcDbBlockTableRecord
  2
*D6
340
0
  0
BLOCK_RECORD
  5
7B1
330
1
100
AcDbSymbolTableRecord
100
AcDbBlockTableRecord
  2
*D7
340
0
  0
BLOCK_RECORD
  5
7E9
330
1
100
AcDbSymbolTableRecord
100
AcDbBlockTableRecord
  2
*D8
340
0
  0
BLOCK_RECORD
  5
85D
330
1
100
AcDbSymbolTableRecord
100
AcDbBlockTableRecord
  2
*D9
340
0
  0
BLOCK_RECORD
  5
869
330
1
100
AcDbSymbolTableRecord
100
AcDbBlockTableRecord
  2
*D10
340
0
  0
BLOCK_RECORD
  5
875
330
1
100
AcDbSymbolTableRecord
100
AcDbBlockTableRecord
  2
_None
340
0
  0
BLOCK_RECORD
  5
AFF
330
1
100
AcDbSymbolTableRecord
100
AcDbBlockTableRecord
  2
*D12
340
0
  0
BLOCK_RECORD
  5
B0B
330
1
100
AcDbSymbolTableRecord
100
AcDbBlockTableRecord
  2
*D13
340
0
  0
ENDTAB
  0
ENDSEC
  0
SECTION
  2
BLOCKS
  0
BLOCK
  5
20
330
208
100
AcDbEntity
  8
0
100
AcDbBlockBegin
  2
*Model_Space
 70
     0
 10
0.0
 20
0.0
 30
0.0
  3
*Model_Space
  1

  0
ENDBLK
  5
21
330
208
100
AcDbEntity
  8
0
100
AcDbBlockEnd
  0
BLOCK
  5
1C
330
209
100
AcDbEntity
 67
     1
  8
0
100
AcDbBlockBegin
  2
*Paper_Space
 70
     0
 10
0.0
 20
0.0
 30
0.0
  3
*Paper_Space
  1

  0
ENDBLK
  5
1D
330
209
100
AcDbEntity
 67
     1
  8
0
100
AcDbBlockEnd
  0
BLOCK
  5
212
330
20A
100
AcDbEntity
  8
0
100
AcDbBlockBegin
  2
_FILLED
 70
     0
 10
0.0
 20
0.0
 30
0.0
  3
_FILLED
  1

  0
SOLID
  5
213
330
20A
100
AcDbEntity
  8
0
  6
ByBlock
 62
     0
100
AcDbTrace
 10
0.0
 20
0.0
 30
0.0
 11
-1.0
 21
0.125
 31
0.0
 12
-1.0
 22
-0.125
 32
0.0
 13
-1.0
 23
-0.125
 33
0.0
  0
ENDBLK
  5
214
330
20A
100
AcDbEntity
  8
0
  6
ByBlock
 62
     0
100
AcDbBlockEnd
  0
BLOCK
  5
215
330
20B
100
AcDbEntity
  8
ZEICHNUNGSBEMASSUNGEN
  6
Continuous
 62
     2
100
AcDbBlockBegin
  2
*D1
 70
     1
 10
0.0
 20
0.0
 30
0.0
  3
*D1
  1

  0
LINE
  5
69D
330
20B
100
AcDbEntity
  8
0
  6
Continuous
 62
     0
370
    -2
100
AcDbLine
 10
507.3531380982
 20
274.818449884
 30
0.0
 11
507.3531380982
 21
287.0383075887
 31
0.0
  0
LINE
  5
69E
330
20B
100
AcDbEntity
  8
0
  6
Continuous
 62
     0
370
    -2
100
AcDbLine
 10
443.3531380982
 20
267.850177759
 30
0.0
 11
443.3531380982
 21
287.0383075887
 31
0.0
  0
LINE
  5
69F
330
20B
100
AcDbEntity
  8
0
  6
Continuous
 62
     0
370
    -2
100
AcDbLine
 10
502.3531380981999
 20
285.5383075887
 30
0.0
 11
448.3531380981998
 21
285.5383075887
 31
0.0
  0
INSERT
  5
6A0
330
20B
100
AcDbEntity
  8
0
  6
Continuous
 62
     0
370
    -2
100
AcDbBlockReference
  2
_FILLED
 10
507.3531380982
 20
285.5383075887
 30
0.0
 41
5.0
 42
5.0
 43
5.0
  0
INSERT
  5
6A1
330
20B
100
AcDbEntity
  8
0
  6
Continuous
 62
     0
370
    -2
100
AcDbBlockReference
  2
_FILLED
 10
443.3531380982
 20
285.5383075887
 30
0.0
 41
5.0
 42
5.0
 43
5.0
 50
180.0
  0
MTEXT
  5
6A2
330
20B
100
AcDbEntity
  8
0
  6
Continuous
100
AcDbMText
 10
475.3531380982
 20
294.0383075887
 30
0.0
 40
7.0
 41
0.0
 71
     2
 72
     1
  1
\A1;64
 73
     1
 44
1.0
1001
ACAD
1000
MTEXTBEGIN
1070
    73
1070
     1
1070
    44
1040
1.0
1070
    74
1070
     0
1000
MTEXTEND
  0
POINT
  5
6A3
330
20B
100
AcDbEntity
  8
Defpoints
  6
Continuous
 62
     0
100
AcDbPoint
 10
507.3531380982
 20
273.318449884
 30
0.0
  0
POINT
  5
6A4
330
20B
100
AcDbEntity
  8
Defpoints
  6
Continuous
 62
     0
100
AcDbPoint
 10
443.3531380982
 20
266.350177759
 30
0.0
  0
POINT
  5
6A5
330
20B
100
AcDbEntity
  8
Defpoints
  6
Continuous
 62
     0
100
AcDbPoint
 10
443.3531380982
 20
285.5383075887
 30
0.0
  0
ENDBLK
  5
21D
330
20B
100
AcDbEntity
  8
0
  6
ByBlock
 62
     0
100
AcDbBlockEnd
  0
BLOCK
  5
21E
330
20C
100
AcDbEntity
  8
ZEICHNUNGSBEMASSUNGEN
  6
Continuous
 62
     2
100
AcDbBlockBegin
  2
*D2
 70
     1
 10
0.0
 20
0.0
 30
0.0
  3
*D2
  1

  0
LINE
  5
6B3
330
20C
100
AcDbEntity
  8
0
  6
Continuous
 62
     0
370
    -2
100
AcDbLine
 10
508.8531380982
 20
219.5001270402
 30
0.0
 11
525.1649860272
 21
219.5001270402
 31
0.0
  0
LINE
  5
6B4
330
20C
100
AcDbEntity
  8
0
  6
Continuous
 62
     0
370
    -2
100
AcDbLine
 10
508.8531380982
 20
158.0001270402
 30
0.0
 11
525.1649860272
 21
158.0001270402
 31
0.0
  0
LINE
  5
6B5
330
20C
100
AcDbEntity
  8
0
  6
Continuous
 62
     0
370
    -2
100
AcDbLine
 10
523.6649860272
 20
214.5001270402
 30
0.0
 11
523.6649860272
 21
163.0001270402
 31
0.0
  0
INSERT
  5
6B6
330
20C
100
AcDbEntity
  8
0
  6
Continuous
 62
     0
370
    -2
100
AcDbBlockReference
  2
_FILLED
 10
523.6649860272
 20
219.5001270402
 30
0.0
 41
5.0
 42
5.0
 43
5.0
 50
90.0
  0
INSERT
  5
6B7
330
20C
100
AcDbEntity
  8
0
  6
Continuous
 62
     0
370
    -2
100
AcDbBlockReference
  2
_FILLED
 10
523.6649860272
 20
158.0001270402
 30
0.0
 41
5.0
 42
5.0
 43
5.0
 50
270.0
  0
MTEXT
  5
6B8
330
20C
100
AcDbEntity
  8
0
  6
Continuous
100
AcDbMText
 10
515.1649860272
 20
188.7501270402
 30
0.0
 40
7.0
 41
0.0
 71
     2
 72
     1
  1
\A1;61.5
 11
0.0000000000000001
 21
1.0
 31
0.0
 73
     1
 44
1.0
1001
ACAD
1000
MTEXTBEGIN
1070
    73
1070
     1
1070
    44
1040
1.0
1070
    74
1070
     0
1000
MTEXTEND
  0
POINT
  5
6B9
330
20C
100
AcDbEntity
  8
Defpoints
  6
Continuous
 62
     0
100
AcDbPoint
 10
507.3531380982
 20
219.5001270402
 30
0.0
  0
POINT
  5
6BA
330
20C
100
AcDbEntity
  8
Defpoints
  6
Continuous
 62
     0
100
AcDbPoint
 10
507.3531380982
 20
158.0001270402
 30
0.0
  0
POINT
  5
6BB
330
20C
100
AcDbEntity
  8
Defpoints
  6
Continuous
 62
     0
100
AcDbPoint
 10
523.6649860272
 20
158.0001270402
 30
0.0
  0
ENDBLK
  5
226
330
20C
100
AcDbEntity
  8
0
  6
ByBlock
 62
     0
100
AcDbBlockEnd
  0
BLOCK
  5
227
330
20D
100
AcDbEntity
  8
0
  6
Continuous
 62
     2
100
AcDbBlockBegin
  2
*D3
 70
     1
 10
0.0
 20
0.0
 30
0.0
  3
*D3
  1

  0
LINE
  5
687
330
20D
100
AcDbEntity
  8
0
  6
Continuous
 62
     0
370
    -2
100
AcDbLine
 10
-70.64686190180001
 20
217.0425911793
 30
0.0
 11
-70.64686190180001
 21
228.9018219554
 31
0.0
  0
LINE
  5
688
330
20D
100
AcDbEntity
  8
0
  6
Continuous
 62
     0
370
    -2
100
AcDbLine
 10
507.3531380982
 20
217.0425911793
 30
0.0
 11
507.3531380982
 21
228.9018219554
 31
0.0
  0
LINE
  5
689
330
20D
100
AcDbEntity
  8
0
  6
Continuous
 62
     0
370
    -2
100
AcDbLine
 10
-65.64686190180001
 20
227.4018219554
 30
0.0
 11
502.3531380981999
 21
227.4018219554
 31
0.0
  0
INSERT
  5
68A
330
20D
100
AcDbEntity
  8
0
  6
Continuous
 62
     0
370
    -2
100
AcDbBlockReference
  2
_FILLED
 10
-70.64686190180001
 20
227.4018219554
 30
0.0
 41
5.0
 42
5.0
 43
5.0
 50
180.0
  0
INSERT
  5
68B
330
20D
100
AcDbEntity
  8
0
  6
Continuous
 62
     0
370
    -2
100
AcDbBlockReference
  2
_FILLED
 10
507.3531380982
 20
227.4018219554
 30
0.0
 41
5.0
 42
5.0
 43
5.0
  0
MTEXT
  5
68C
330
20D
100
AcDbEntity
  8
0
  6
Continuous
100
AcDbMText
 10
218.3531380982
 20
235.9018219554
 30
0.0
 40
7.0
 41
0.0
 71
     2
 72
     1
  1
\A1;578
 73
     1
 44
1.0
1001
ACAD
1000
MTEXTBEGIN
1070
    73
1070
     1
1070
    44
1040
1.0
1070
    74
1070
     0
1000
MTEXTEND
  0
POINT
  5
68D
330
20D
100
AcDbEntity
  8
Defpoints
  6
Continuous
 62
     0
100
AcDbPoint
 10
-70.64686190180001
 20
215.5425911793
 30
0.0
  0
POINT
  5
68E
330
20D
100
AcDbEntity
  8
Defpoints
  6
Continuous
 62
     0
100
AcDbPoint
 10
507.3531380982
 20
215.5425911793
 30
0.0
  0
POINT
  5
68F
330
20D
100
AcDbEntity
  8
Defpoints
  6
Continuous
 62
     0
100
AcDbPoint
 10
507.3531380982
 20
227.4018219554
 30
0.0
  0
ENDBLK
  5
231
330
20D
100
AcDbEntity
  8
0
  6
ByBlock
 62
     0
100
AcDbBlockEnd
  0
BLOCK
  5
232
330
20E
100
AcDbEntity
  8
0
  6
Continuous
 62
     2
100
AcDbBlockBegin
  2
*D4
 70
     1
 10
0.0
 20
0.0
 30
0.0
  3
*D4
  1

  0
LINE
  5
671
330
20E
100
AcDbEntity
  8
0
  6
Continuous
 62
     0
370
    -2
100
AcDbLine
 10
-6.646861901799999
 20
275.5538327968
 30
0.0
 11
-6.646861901799995
 21
287.0383075887
 31
0.0
  0
LINE
  5
672
330
20E
100
AcDbEntity
  8
0
  6
Continuous
 62
     0
370
    -2
100
AcDbLine
 10
-70.64686190180001
 20
275.5538327968
 30
0.0
 11
-70.64686190180001
 21
287.0383075887
 31
0.0
  0
LINE
  5
673
330
20E
100
AcDbEntity
  8
0
  6
Continuous
 62
     0
370
    -2
100
AcDbLine
 10
-11.6468619018
 20
285.5383075887
 30
0.0
 11
-65.64686190180001
 21
285.5383075887
 31
0.0
  0
INSERT
  5
674
330
20E
100
AcDbEntity
  8
0
  6
Continuous
 62
     0
370
    -2
100
AcDbBlockReference
  2
_FILLED
 10
-6.646861901799995
 20
285.5383075887
 30
0.0
 41
5.0
 42
5.0
 43
5.0
  0
INSERT
  5
675
330
20E
100
AcDbEntity
  8
0
  6
Continuous
 62
     0
370
    -2
100
AcDbBlockReference
  2
_FILLED
 10
-70.64686190180001
 20
285.5383075887
 30
0.0
 41
5.0
 42
5.0
 43
5.0
 50
180.0
  0
MTEXT
  5
676
330
20E
100
AcDbEntity
  8
0
  6
Continuous
100
AcDbMText
 10
-38.6468619018
 20
294.0383075887
 30
0.0
 40
7.0
 41
0.0
 71
     2
 72
     1
  1
\A1;64
 73
     1
 44
1.0
1001
ACAD
1000
MTEXTBEGIN
1070
    73
1070
     1
1070
    44
1040
1.0
1070
    74
1070
     0
1000
MTEXTEND
  0
POINT
  5
677
330
20E
100
AcDbEntity
  8
Defpoints
  6
Continuous
 62
     0
100
AcDbPoint
 10
-6.646861901799999
 20
274.0538327968
 30
0.0
  0
POINT
  5
678
330
20E
100
AcDbEntity
  8
Defpoints
  6
Continuous
 62
     0
100
AcDbPoint
 10
-70.64686190180001
 20
274.0538327968
 30
0.0
  0
POINT
  5
679
330
20E
100
AcDbEntity
  8
Defpoints
  6
Continuous
 62
     0
100
AcDbPoint
 10
-70.64686190180001
 20
285.5383075887
 30
0.0
  0
ENDBLK
  5
23A
330
20E
100
AcDbEntity
  8
0
  6
ByBlock
 62
     0
100
AcDbBlockEnd
  0
BLOCK
  5
613
330
611
100
AcDbEntity
  8
0
100
AcDbBlockBegin
  2
GENAXEH
 70
     0
 10
0.0
 20
0.0
 30
0.0
  3
GENAXEH
  1

  0
LINE
  5
612
330
611
100
AcDbEntity
  8
0
100
AcDbLine
 10
-1.0
 20
0.0
 30
0.0
 11
1.0
 21
0.0
 31
0.0
  0
ENDBLK
  5
614
330
611
100
AcDbEntity
  8
0
100
AcDbBlockEnd
  0
BLOCK
  5
77A
330
779
100
AcDbEntity
  8
0
100
AcDbBlockBegin
  2
*D6
 70
     1
 10
0.0
 20
0.0
 30
0.0
  3
*D6
  1

  0
LINE
  5
C18
330
779
100
AcDbEntity
  8
P-0000
  6
Continuous
 62
     3
370
    -2
100
AcDbLine
 10
-68.64686190180001
 20
260.3538327968
 30
0.0
 11
-109.4118142548895
 21
260.3538327968
 31
0.0
  0
LINE
  5
C19
330
779
100
AcDbEntity
  8
P-0000
  6
Continuous
 62
     3
370
    -2
100
AcDbLine
 10
-70.64686190180001
 20
275.5527961932
 30
0.0
 11
-109.4118142548895
 21
275.5527961932
 31
0.0
  0
LINE
  5
C1A
330
779
100
AcDbEntity
  8
P-0000
  6
Continuous
 62
     3
370
    -2
100
AcDbLine
 10
-105.4118142548895
 20
254.0538327968
 30
0.0
 11
-105.4118142548895
 21
247.7538327968001
 31
0.0
  0
LINE
  5
C1B
330
779
100
AcDbEntity
  8
P-0000
  6
Continuous
 62
     3
370
    -2
100
AcDbLine
 10
-105.4118142548895
 20
281.8527961932
 30
0.0
 11
-105.4118142548895
 21
288.1527961932
 31
0.0
  0
MTEXT
  5
C1C
330
779
100
AcDbEntity
  8
P-0000
  6
Continuous
 62
     2
100
AcDbMText
 10
-111.2399128087884
 20
267.7953149070231
 30
0.0
 40
7.0
 41
0.0
 71
     5
 72
     1
  1
15
 11
0.0000000000000001
 21
1.0
 31
0.0
 73
     1
 44
1.0
1001
ACAD
1000
MTEXTBEGIN
1070
    73
1070
     1
1070
    44
1040
1.0
1070
    74
1070
     0
1000
MTEXTEND
  0
LINE
  5
C1D
330
779
100
AcDbEntity
  8
P-0000
  6
Continuous
 62
     3
370
    -2
100
AcDbLine
 10
-105.4118142548895
 20
260.3538327968
 30
0.0
 11
-105.4118142548895
 21
275.5527961932
 31
0.0
  0
SOLID
  5
C1E
330
779
100
AcDbEntity
  8
P-0000
  6
Continuous
 62
     3
100
AcDbTrace
 10
-106.4618142548895
 20
254.0538327968
 30
0.0
 11
-104.3618142548895
 21
254.0538327968
 31
0.0
 12
-105.4118142548895
 22
260.3538327968
 32
0.0
 13
-105.4118142548895
 23
260.3538327968
 33
0.0
  0
SOLID
  5
C1F
330
779
100
AcDbEntity
  8
P-0000
  6
Continuous
 62
     3
100
AcDbTrace
 10
-106.4618142548895
 20
281.8527961932
 30
0.0
 11
-104.3618142548895
 21
281.8527961932
 31
0.0
 12
-105.4118142548895
 22
275.5527961932
 32
0.0
 13
-105.4118142548895
 23
275.5527961932
 33
0.0
  0
POINT
  5
C20
330
779
100
AcDbEntity
  8
Defpoints
  6
Continuous
 62
     0
100
AcDbPoint
 10
-68.64686190180001
 20
260.3538327968
 30
0.0
  0
POINT
  5
C21
330
779
100
AcDbEntity
  8
Defpoints
  6
Continuous
 62
     0
100
AcDbPoint
 10
-70.64686190180001
 20
275.5527961932
 30
0.0
  0
POINT
  5
C22
330
779
100
AcDbEntity
  8
Defpoints
  6
Continuous
 62
     0
100
AcDbPoint
 10
-105.4118142548895
 20
275.5527961932
 30
0.0
  0
ENDBLK
  5
77B
330
779
100
AcDbEntity
  8
0
100
AcDbBlockEnd
  0
BLOCK
  5
7B2
330
7B1
100
AcDbEntity
  8
0
100
AcDbBlockBegin
  2
*D7
 70
     1
 10
0.0
 20
0.0
 30
0.0
  3
*D7
  1

  0
LINE
  5
C03
330
7B1
100
AcDbEntity
  8
P-0000
  6
Continuous
 62
     3
370
    -2
100
AcDbLine
 10
-70.64686190180001
 20
219.5002399407
 30
0.0
 11
-110.6703801901155
 21
219.5002399407
 31
0.0
  0
LINE
  5
C04
330
7B1
100
AcDbEntity
  8
P-0000
  6
Continuous
 62
     3
370
    -2
100
AcDbLine
 10
-70.64686190180001
 20
157.9988112265
 30
0.0
 11
-110.6703801901155
 21
157.9988112265
 31
0.0
  0
LINE
  5
C05
330
7B1
100
AcDbEntity
  8
P-0000
  6
Continuous
 62
     3
370
    -2
100
AcDbLine
 10
-106.6703801901155
 20
213.2002399407
 30
0.0
 11
-106.6703801901155
 21
195.462001454487
 31
0.0
  0
LINE
  5
C06
330
7B1
100
AcDbEntity
  8
P-0000
  6
Continuous
 62
     3
370
    -2
100
AcDbLine
 10
-106.6703801901155
 20
164.2988112265
 30
0.0
 11
-106.6703801901155
 21
179.2953347878203
 31
0.0
  0
MTEXT
  5
C07
330
7B1
100
AcDbEntity
  8
P-0000
  6
Continuous
 62
     2
100
AcDbMText
 10
-106.6703801901155
 20
187.3786681211537
 30
0.0
 40
7.0
 41
0.0
 71
     5
 72
     1
  1
62
 11
0.0000000000000001
 21
1.0
 31
0.0
 73
     1
 44
1.0
1001
ACAD
1000
MTEXTBEGIN
1070
    73
1070
     1
1070
    44
1040
1.0
1070
    74
1070
     0
1000
MTEXTEND
  0
SOLID
  5
C08
330
7B1
100
AcDbEntity
  8
P-0000
  6
Continuous
 62
     3
100
AcDbTrace
 10
-107.7203801901155
 20
213.2002399407
 30
0.0
 11
-105.6203801901155
 21
213.2002399407
 31
0.0
 12
-106.6703801901155
 22
219.5002399407
 32
0.0
 13
-106.6703801901155
 23
219.5002399407
 33
0.0
  0
SOLID
  5
C09
330
7B1
100
AcDbEntity
  8
P-0000
  6
Continuous
 62
     3
100
AcDbTrace
 10
-107.7203801901155
 20
164.2988112265
 30
0.0
 11
-105.6203801901155
 21
164.2988112265
 31
0.0
 12
-106.6703801901155
 22
157.9988112265
 32
0.0
 13
-106.6703801901155
 23
157.9988112265
 33
0.0
  0
POINT
  5
C0A
330
7B1
100
AcDbEntity
  8
Defpoints
  6
Continuous
 62
     0
100
AcDbPoint
 10
-70.64686190180001
 20
219.5002399407
 30
0.0
  0
POINT
  5
C0B
330
7B1
100
AcDbEntity
  8
Defpoints
  6
Continuous
 62
     0
100
AcDbPoint
 10
-70.64686190180001
 20
157.9988112265
 30
0.0
  0
POINT
  5
C0C
330
7B1
100
AcDbEntity
  8
Defpoints
  6
Continuous
 62
     0
100
AcDbPoint
 10
-106.6703801901155
 20
157.9988112265
 30
0.0
  0
ENDBLK
  5
7B3
330
7B1
100
AcDbEntity
  8
0
100
AcDbBlockEnd
  0
BLOCK
  5
7EA
330
7E9
100
AcDbEntity
  8
0
100
AcDbBlockBegin
  2
*D8
 70
     1
 10
0.0
 20
0.0
 30
0.0
  3
*D8
  1

  0
LINE
  5
B17
330
7E9
100
AcDbEntity
  8
P-0000
  6
Continuous
 62
     3
370
    -2
100
AcDbLine
 10
-70.64686190180001
 20
157.9988112265
 30
0.0
 11
-70.64686190180001
 21
127.252417994914
 31
0.0
  0
LINE
  5
B18
330
7E9
100
AcDbEntity
  8
P-0000
  6
Continuous
 62
     3
370
    -2
100
AcDbLine
 10
507.3531380982
 20
157.9988112265
 30
0.0
 11
507.3531380982
 21
127.252417994914
 31
0.0
  0
LINE
  5
B19
330
7E9
100
AcDbEntity
  8
P-0000
  6
Continuous
 62
     3
370
    -2
100
AcDbLine
 10
-64.34686190179999
 20
131.252417994914
 30
0.0
 11
501.0531380982
 21
131.252417994914
 31
0.0
  0
SOLID
  5
B1A
330
7E9
100
AcDbEntity
  8
P-0000
  6
Continuous
 62
     3
100
AcDbTrace
 10
-64.34686190179999
 20
132.302417994914
 30
0.0
 11
-64.34686190179999
 21
130.202417994914
 31
0.0
 12
-70.64686190180001
 22
131.252417994914
 32
0.0
 13
-70.64686190180001
 23
131.252417994914
 33
0.0
  0
SOLID
  5
B1B
330
7E9
100
AcDbEntity
  8
P-0000
  6
Continuous
 62
     3
100
AcDbTrace
 10
501.0531380982
 20
132.302417994914
 30
0.0
 11
501.0531380982
 21
130.202417994914
 31
0.0
 12
507.3531380982
 22
131.252417994914
 32
0.0
 13
507.3531380982
 23
131.252417994914
 33
0.0
  0
MTEXT
  5
B1C
330
7E9
100
AcDbEntity
  8
P-0000
  6
Continuous
 62
     2
100
AcDbMText
 10
218.3531380982
 20
138.752417994914
 30
0.0
 40
7.0
 41
0.0
 71
     5
 72
     1
  1
578
 73
     1
 44
1.0
1001
ACAD
1000
MTEXTBEGIN
1070
    73
1070
     1
1070
    44
1040
1.0
1070
    74
1070
     0
1000
MTEXTEND
  0
POINT
  5
B1D
330
7E9
100
AcDbEntity
  8
Defpoints
  6
Continuous
 62
     0
100
AcDbPoint
 10
-70.64686190180001
 20
157.9988112265
 30
0.0
  0
POINT
  5
B1E
330
7E9
100
AcDbEntity
  8
Defpoints
  6
Continuous
 62
     0
100
AcDbPoint
 10
507.3531380982
 20
157.9988112265
 30
0.0
  0
POINT
  5
B1F
330
7E9
100
AcDbEntity
  8
Defpoints
  6
Continuous
 62
     0
100
AcDbPoint
 10
507.3531380982
 20
131.252417994914
 30
0.0
  0
ENDBLK
  5
7EB
330
7E9
100
AcDbEntity
  8
0
100
AcDbBlockEnd
  0
BLOCK
  5
85E
330
85D
100
AcDbEntity
  8
0
100
AcDbBlockBegin
  2
*D9
 70
     1
 10
0.0
 20
0.0
 30
0.0
  3
*D9
  1

  0
LINE
  5
85F
330
85D
100
AcDbEntity
  8
P-0000
  6
Continuous
 62
     3
370
    -2
100
AcDbLine
 10
-87.47150100110001
 20
235.8228037264
 30
0.0
 11
-103.4715010011
 21
235.8228037264
 31
0.0
  0
LINE
  5
860
330
85D
100
AcDbEntity
  8
P-0000
  6
Continuous
 62
     3
370
    -2
100
AcDbLine
 10
-87.47150100110001
 20
174.3232768661
 30
0.0
 11
-103.4715010011
 21
174.3232768661
 31
0.0
  0
LINE
  5
861
330
85D
100
AcDbEntity
  8
P-0000
  6
Continuous
 62
     3
370
    -2
100
AcDbLine
 10
-99.4715010011
 20
229.5228037264
 30
0.0
 11
-99.4715010011
 21
180.6232768661
 31
0.0
  0
SOLID
  5
862
330
85D
100
AcDbEntity
  8
P-0000
  6
Continuous
 62
     3
100
AcDbTrace
 10
-100.5215010011
 20
229.5228037264
 30
0.0
 11
-98.42150100110002
 21
229.5228037264
 31
0.0
 12
-99.4715010011
 22
235.8228037264
 32
0.0
 13
-99.4715010011
 23
235.8228037264
 33
0.0
  0
SOLID
  5
863
330
85D
100
AcDbEntity
  8
P-0000
  6
Continuous
 62
     3
100
AcDbTrace
 10
-100.5215010011
 20
180.6232768661
 30
0.0
 11
-98.42150100110004
 21
180.6232768661
 31
0.0
 12
-99.4715010011
 22
174.3232768661
 32
0.0
 13
-99.4715010011
 23
174.3232768661
 33
0.0
  0
MTEXT
  5
864
330
85D
100
AcDbEntity
  8
P-0000
  6
Continuous
 62
     2
100
AcDbMText
 10
-106.9715010011
 20
205.07304029625
 30
0.0
 40
7.0
 41
0.0
 71
     5
 72
     1
  1
61.5
 11
0.0000000000000001
 21
1.0
 31
0.0
 73
     1
 44
1.0
1001
ACAD
1000
MTEXTBEGIN
1070
    73
1070
     1
1070
    44
1040
1.0
1070
    74
1070
     0
1000
MTEXTEND
  0
POINT
  5
865
330
85D
100
AcDbEntity
  8
Defpoints
  6
Continuous
 62
     0
100
AcDbPoint
 10
-87.47150100110001
 20
235.8228037264
 30
0.0
  0
POINT
  5
866
330
85D
100
AcDbEntity
  8
Defpoints
  6
Continuous
 62
     0
100
AcDbPoint
 10
-87.47150100110001
 20
174.3232768661
 30
0.0
  0
POINT
  5
867
330
85D
100
AcDbEntity
  8
Defpoints
  6
Continuous
 62
     0
100
AcDbPoint
 10
-99.4715010011
 20
174.3232768661
 30
0.0
  0
ENDBLK
  5
868
330
85D
100
AcDbEntity
  8
0
100
AcDbBlockEnd
  0
BLOCK
  5
86A
330
869
100
AcDbEntity
  8
0
100
AcDbBlockBegin
  2
*D10
 70
     1
 10
0.0
 20
0.0
 30
0.0
  3
*D10
  1

  0
LINE
  5
86B
330
869
100
AcDbEntity
  8
P-0000
  6
Continuous
 62
     3
370
    -2
100
AcDbLine
 10
-87.47150100110001
 20
174.3228037264
 30
0.0
 11
-87.47150100110001
 21
145.1909121658225
 31
0.0
  0
LINE
  5
86C
330
869
100
AcDbEntity
  8
P-0000
  6
Continuous
 62
     3
370
    -2
100
AcDbLine
 10
490.5284989989
 20
174.3232768661
 30
0.0
 11
490.5284989989
 21
145.1909121658225
 31
0.0
  0
LINE
  5
86D
330
869
100
AcDbEntity
  8
P-0000
  6
Continuous
 62
     3
370
    -2
100
AcDbLine
 10
-81.1715010011
 20
149.1909121658225
 30
0.0
 11
484.2284989988998
 21
149.1909121658225
 31
0.0
  0
SOLID
  5
86E
330
869
100
AcDbEntity
  8
P-0000
  6
Continuous
 62
     3
100
AcDbTrace
 10
-81.1715010011
 20
150.2409121658225
 30
0.0
 11
-81.1715010011
 21
148.1409121658225
 31
0.0
 12
-87.47150100110001
 22
149.1909121658225
 32
0.0
 13
-87.47150100110001
 23
149.1909121658225
 33
0.0
  0
SOLID
  5
86F
330
869
100
AcDbEntity
  8
P-0000
  6
Continuous
 62
     3
100
AcDbTrace
 10
484.2284989988998
 20
150.2409121658225
 30
0.0
 11
484.2284989988998
 21
148.1409121658225
 31
0.0
 12
490.5284989989
 22
149.1909121658225
 32
0.0
 13
490.5284989989
 23
149.1909121658225
 33
0.0
  0
MTEXT
  5
870
330
869
100
AcDbEntity
  8
P-0000
  6
Continuous
 62
     2
100
AcDbMText
 10
201.5284989989
 20
156.6909121658225
 30
0.0
 40
7.0
 41
0.0
 71
     5
 72
     1
  1
578
 73
     1
 44
1.0
1001
ACAD
1000
MTEXTBEGIN
1070
    73
1070
     1
1070
    44
1040
1.0
1070
    74
1070
     0
1000
MTEXTEND
  0
POINT
  5
871
330
869
100
AcDbEntity
  8
Defpoints
  6
Continuous
 62
     0
100
AcDbPoint
 10
-87.47150100110001
 20
174.3228037264
 30
0.0
  0
POINT
  5
872
330
869
100
AcDbEntity
  8
Defpoints
  6
Continuous
 62
     0
100
AcDbPoint
 10
490.5284989989
 20
174.3232768661
 30
0.0
  0
POINT
  5
873
330
869
100
AcDbEntity
  8
Defpoints
  6
Continuous
 62
     0
100
AcDbPoint
 10
490.5284989989
 20
149.1909121658225
 30
0.0
  0
ENDBLK
  5
874
330
869
100
AcDbEntity
  8
0
100
AcDbBlockEnd
  0
BLOCK
  5
876
330
875
100
AcDbEntity
  8
0
100
AcDbBlockBegin
  2
_None
 70
     0
 10
0.0
 20
0.0
 30
0.0
  3
_None
  1

  0
ENDBLK
  5
877
330
875
100
AcDbEntity
  8
0
100
AcDbBlockEnd
  0
BLOCK
  5
B00
330
AFF
100
AcDbEntity
  8
0
100
AcDbBlockBegin
  2
*D12
 70
     1
 10
0.0
 20
0.0
 30
0.0
  3
*D12
  1

  0
LINE
  5
B02
330
AFF
100
AcDbEntity
  8
P-0000
  6
Continuous
 62
     3
370
    -2
100
AcDbLine
 10
-44.75452739630507
 20
81.49017267314667
 30
0.0
 11
-60.75452739630506
 21
81.49017267314667
 31
0.0
  0
LINE
  5
B03
330
AFF
100
AcDbEntity
  8
P-0000
  6
Continuous
 62
     3
370
    -2
100
AcDbLine
 10
-44.75452739630507
 20
19.99064581284665
 30
0.0
 11
-60.75452739630507
 21
19.99064581284665
 31
0.0
  0
LINE
  5
B04
330
AFF
100
AcDbEntity
  8
P-0000
  6
Continuous
 62
     3
370
    -2
100
AcDbLine
 10
-56.75452739630507
 20
75.19017267314666
 30
0.0
 11
-56.75452739630507
 21
26.29064581284664
 31
0.0
  0
SOLID
  5
B05
330
AFF
100
AcDbEntity
  8
P-0000
  6
Continuous
 62
     3
100
AcDbTrace
 10
-57.80452739630508
 20
75.19017267314666
 30
0.0
 11
-55.70452739630507
 21
75.19017267314666
 31
0.0
 12
-56.75452739630507
 22
81.49017267314667
 32
0.0
 13
-56.75452739630507
 23
81.49017267314667
 33
0.0
  0
SOLID
  5
B06
330
AFF
100
AcDbEntity
  8
P-0000
  6
Continuous
 62
     3
100
AcDbTrace
 10
-57.80452739630508
 20
26.29064581284664
 30
0.0
 11
-55.70452739630507
 21
26.29064581284664
 31
0.0
 12
-56.75452739630507
 22
19.99064581284665
 32
0.0
 13
-56.75452739630507
 23
19.99064581284665
 33
0.0
  0
MTEXT
  5
B07
330
AFF
100
AcDbEntity
  8
P-0000
  6
Continuous
 62
     2
100
AcDbMText
 10
-64.25452739630509
 20
50.74040924299665
 30
0.0
 40
7.0
 41
0.0
 71
     5
 72
     1
  1
61.5
 11
0.0000000000000001
 21
1.0
 31
0.0
 73
     1
 44
1.0
1001
ACAD
1000
MTEXTBEGIN
1070
    73
1070
     1
1070
    44
1040
1.0
1070
    74
1070
     0
1000
MTEXTEND
  0
POINT
  5
B08
330
AFF
100
AcDbEntity
  8
Defpoints
  6
Continuous
 62
     0
100
AcDbPoint
 10
-44.75452739630507
 20
81.49017267314667
 30
0.0
  0
POINT
  5
B09
330
AFF
100
AcDbEntity
  8
Defpoints
  6
Continuous
 62
     0
100
AcDbPoint
 10
-44.75452739630507
 20
19.99064581284665
 30
0.0
  0
POINT
  5
B0A
330
AFF
100
AcDbEntity
  8
Defpoints
  6
Continuous
 62
     0
100
AcDbPoint
 10
-56.75452739630507
 20
19.99064581284665
 30
0.0
  0
ENDBLK
  5
B01
330
AFF
100
AcDbEntity
  8
0
100
AcDbBlockEnd
  0
BLOCK
  5
B0C
330
B0B
100
AcDbEntity
  8
0
100
AcDbBlockBegin
  2
*D13
 70
     1
 10
0.0
 20
0.0
 30
0.0
  3
*D13
  1

  0
LINE
  5
B0E
330
B0B
100
AcDbEntity
  8
P-0000
  6
Continuous
 62
     3
370
    -2
100
AcDbLine
 10
-44.75452739630507
 20
19.99017267314664
 30
0.0
 11
-44.75452739630507
 21
-9.141718887430839
 31
0.0
  0
LINE
  5
B0F
330
B0B
100
AcDbEntity
  8
P-0000
  6
Continuous
 62
     3
370
    -2
100
AcDbLine
 10
533.2454726036948
 20
19.99064581284665
 30
0.0
 11
533.2454726036948
 21
-9.141718887430839
 31
0.0
  0
LINE
  5
B10
330
B0B
100
AcDbEntity
  8
P-0000
  6
Continuous
 62
     3
370
    -2
100
AcDbLine
 10
-38.45452739630508
 20
-5.141718887430839
 30
0.0
 11
526.9454726036948
 21
-5.141718887430839
 31
0.0
  0
SOLID
  5
B11
330
B0B
100
AcDbEntity
  8
P-0000
  6
Continuous
 62
     3
100
AcDbTrace
 10
-38.45452739630508
 20
-4.091718887430841
 30
0.0
 11
-38.45452739630508
 21
-6.191718887430839
 31
0.0
 12
-44.75452739630507
 22
-5.141718887430839
 32
0.0
 13
-44.75452739630507
 23
-5.141718887430839
 33
0.0
  0
SOLID
  5
B12
330
B0B
100
AcDbEntity
  8
P-0000
  6
Continuous
 62
     3
100
AcDbTrace
 10
526.9454726036948
 20
-4.091718887430841
 30
0.0
 11
526.9454726036948
 21
-6.191718887430839
 31
0.0
 12
533.2454726036948
 22
-5.141718887430839
 32
0.0
 13
533.2454726036948
 23
-5.141718887430839
 33
0.0
  0
MTEXT
  5
B13
330
B0B
100
AcDbEntity
  8
P-0000
  6
Continuous
 62
     2
100
AcDbMText
 10
244.2454726036949
 20
2.358281112569159
 30
0.0
 40
7.0
 41
0.0
 71
     5
 72
     1
  1
578
 73
     1
 44
1.0
1001
ACAD
1000
MTEXTBEGIN
1070
    73
1070
     1
1070
    44
1040
1.0
1070
    74
1070
     0
1000
MTEXTEND
  0
POINT
  5
B14
330
B0B
100
AcDbEntity
  8
Defpoints
  6
Continuous
 62
     0
100
AcDbPoint
 10
-44.75452739630507
 20
19.99017267314664
 30
0.0
  0
POINT
  5
B15
330
B0B
100
AcDbEntity
  8
Defpoints
  6
Continuous
 62
     0
100
AcDbPoint
 10
533.2454726036948
 20
19.99064581284665
 30
0.0
  0
POINT
  5
B16
330
B0B
100
AcDbEntity
  8
Defpoints
  6
Continuous
 62
     0
100
AcDbPoint
 10
533.2454726036948
 20
-5.141718887430839
 30
0.0
  0
ENDBLK
  5
B0D
330
B0B
100
AcDbEntity
  8
0
100
AcDbBlockEnd
  0
ENDSEC
  0
SECTION
  2
ENTITIES
  0
LINE
  5
23F
102
{ACAD_REACTORS
330
7BF
102
}
330
208
100
AcDbEntity
  8
0
  6
Continuous
 62
     7
100
AcDbLine
 10
-70.64686190180001
 20
158.0000141396
 30
0.0
 11
-70.64686190180001
 21
219.5002399407
 31
0.0
  0
LINE
  5
240
330
208
100
AcDbEntity
  8
0
  6
Continuous
 62
     7
100
AcDbLine
 10
-65.89686190180001
 20
167.2501270402
 30
0.0
 11
-65.89686190180001
 21
173.2501270402
 31
0.0
  0
LINE
  5
241
330
208
100
AcDbEntity
  8
0
  6
Continuous
 62
     7
100
AcDbLine
 10
-65.89686190180001
 20
179.7501270402
 30
0.0
 11
-65.89686190180001
 21
185.7501270402
 31
0.0
  0
LINE
  5
242
330
208
100
AcDbEntity
  8
0
  6
Continuous
 62
     7
100
AcDbLine
 10
-65.89686190180001
 20
192.2501270402
 30
0.0
 11
-65.89686190180001
 21
198.2501270402
 31
0.0
  0
LINE
  5
243
330
208
100
AcDbEntity
  8
0
  6
Continuous
 62
     7
100
AcDbLine
 10
-65.89686190180001
 20
204.7501270402
 30
0.0
 11
-65.89686190180001
 21
210.7501270402
 31
0.0
  0
LINE
  5
244
330
208
100
AcDbEntity
  8
0
  6
Continuous
 62
     7
100
AcDbLine
 10
-59.8968619018
 20
210.7501270402
 30
0.0
 11
-59.8968619018
 21
204.7501270402
 31
0.0
  0
LINE
  5
245
330
208
100
AcDbEntity
  8
0
  6
Continuous
 62
     7
100
AcDbLine
 10
-59.8968619018
 20
198.2501270402
 30
0.0
 11
-59.8968619018
 21
192.2501270402
 31
0.0
  0
LINE
  5
246
330
208
100
AcDbEntity
  8
0
  6
Continuous
 62
     7
100
AcDbLine
 10
-59.8968619018
 20
185.7501270402
 30
0.0
 11
-59.8968619018
 21
179.7501270402
 31
0.0
  0
LINE
  5
247
330
208
100
AcDbEntity
  8
0
  6
Continuous
 62
     7
100
AcDbLine
 10
-59.8968619018
 20
173.2501270402
 30
0.0
 11
-59.8968619018
 21
167.2501270402
 31
0.0
  0
LINE
  5
248
330
208
100
AcDbEntity
  8
0
  6
Continuous
 62
     7
100
AcDbLine
 10
-53.3968619018
 20
167.2501270402
 30
0.0
 11
-53.3968619018
 21
173.2501270402
 31
0.0
  0
LINE
  5
249
330
208
100
AcDbEntity
  8
0
  6
Continuous
 62
     7
100
AcDbLine
 10
-53.3968619018
 20
179.7501270402
 30
0.0
 11
-53.3968619018
 21
185.7501270402
 31
0.0
  0
LINE
  5
24A
330
208
100
AcDbEntity
  8
0
  6
Continuous
 62
     7
100
AcDbLine
 10
-53.3968619018
 20
192.2501270402
 30
0.0
 11
-53.3968619018
 21
198.2501270402
 31
0.0
  0
LINE
  5
24B
330
208
100
AcDbEntity
  8
0
  6
Continuous
 62
     7
100
AcDbLine
 10
-53.3968619018
 20
204.7501270402
 30
0.0
 11
-53.3968619018
 21
210.7501270402
 31
0.0
  0
LINE
  5
24C
330
208
100
AcDbEntity
  8
0
  6
Continuous
 62
     7
100
AcDbLine
 10
-47.3968619018
 20
210.7501270402
 30
0.0
 11
-47.3968619018
 21
204.7501270402
 31
0.0
  0
LINE
  5
24D
330
208
100
AcDbEntity
  8
0
  6
Continuous
 62
     7
100
AcDbLine
 10
-47.3968619018
 20
198.2501270402
 30
0.0
 11
-47.3968619018
 21
192.2501270402
 31
0.0
  0
LINE
  5
24E
330
208
100
AcDbEntity
  8
0
  6
Continuous
 62
     7
100
AcDbLine
 10
-47.3968619018
 20
185.7501270402
 30
0.0
 11
-47.3968619018
 21
179.7501270402
 31
0.0
  0
LINE
  5
24F
330
208
100
AcDbEntity
  8
0
  6
Continuous
 62
     7
100
AcDbLine
 10
-47.3968619018
 20
173.2501270402
 30
0.0
 11
-47.3968619018
 21
167.2501270402
 31
0.0
  0
LINE
  5
250
330
208
100
AcDbEntity
  8
0
  6
Continuous
 62
     7
100
AcDbLine
 10
-40.8968619018
 20
167.2501270402
 30
0.0
 11
-40.8968619018
 21
173.2501270402
 31
0.0
  0
LINE
  5
251
330
208
100
AcDbEntity
  8
0
  6
Continuous
 62
     7
100
AcDbLine
 10
-40.8968619018
 20
179.7501270402
 30
0.0
 11
-40.8968619018
 21
185.7501270402
 31
0.0
  0
LINE
  5
252
330
208
100
AcDbEntity
  8
0
  6
Continuous
 62
     7
100
AcDbLine
 10
-40.8968619018
 20
192.2501270402
 30
0.0
 11
-40.8968619018
 21
198.2501270402
 31
0.0
  0
LINE
  5
253
330
208
100
AcDbEntity
  8
0
  6
Continuous
 62
     7
100
AcDbLine
 10
-40.8968619018
 20
204.7501270402
 30
0.0
 11
-40.8968619018
 21
210.7501270402
 31
0.0
  0
LINE
  5
254
330
208
100
AcDbEntity
  8
0
  6
Continuous
 62
     7
100
AcDbLine
 10
-34.8968619018
 20
210.7501270402
 30
0.0
 11
-34.8968619018
 21
204.7501270402
 31
0.0
  0
LINE
  5
255
330
208
100
AcDbEntity
  8
0
  6
Continuous
 62
     7
100
AcDbLine
 10
-34.8968619018
 20
198.2501270402
 30
0.0
 11
-34.8968619018
 21
192.2501270402
 31
0.0
  0
LINE
  5
256
330
208
100
AcDbEntity
  8
0
  6
Continuous
 62
     7
100
AcDbLine
 10
-34.8968619018
 20
185.7501270402
 30
0.0
 11
-34.8968619018
 21
179.7501270402
 31
0.0
  0
LINE
  5
257
330
208
100
AcDbEntity
  8
0
  6
Continuous
 62
     7
100
AcDbLine
 10
-34.8968619018
 20
173.2501270402
 30
0.0
 11
-34.8968619018
 21
167.2501270402
 31
0.0
  0
LINE
  5
258
330
208
100
AcDbEntity
  8
0
  6
Continuous
 62
     7
100
AcDbLine
 10
-28.3968619018
 20
167.2501270402
 30
0.0
 11
-28.3968619018
 21
173.2501270402
 31
0.0
  0
LINE
  5
259
330
208
100
AcDbEntity
  8
0
  6
Continuous
 62
     7
100
AcDbLine
 10
-28.3968619018
 20
179.7501270402
 30
0.0
 11
-28.3968619018
 21
185.7501270402
 31
0.0
  0
LINE
  5
25A
330
208
100
AcDbEntity
  8
0
  6
Continuous
 62
     7
100
AcDbLine
 10
-28.3968619018
 20
192.2501270402
 30
0.0
 11
-28.3968619018
 21
198.2501270402
 31
0.0
  0
LINE
  5
25B
330
208
100
AcDbEntity
  8
0
  6
Continuous
 62
     7
100
AcDbLine
 10
-28.3968619018
 20
204.7501270402
 30
0.0
 11
-28.3968619018
 21
210.7501270402
 31
0.0
  0
LINE
  5
25C
330
208
100
AcDbEntity
  8
0
  6
Continuous
 62
     7
100
AcDbLine
 10
-22.3968619018
 20
210.7501270402
 30
0.0
 11
-22.3968619018
 21
204.7501270402
 31
0.0
  0
LINE
  5
25D
330
208
100
AcDbEntity
  8
0
  6
Continuous
 62
     7
100
AcDbLine
 10
-22.3968619018
 20
198.2501270402
 30
0.0
 11
-22.3968619018
 21
192.2501270402
 31
0.0
  0
LINE
  5
25E
330
208
100
AcDbEntity
  8
0
  6
Continuous
 62
     7
100
AcDbLine
 10
-22.3968619018
 20
185.7501270402
 30
0.0
 11
-22.3968619018
 21
179.7501270402
 31
0.0
  0
LINE
  5
25F
330
208
100
AcDbEntity
  8
0
  6
Continuous
 62
     7
100
AcDbLine
 10
-22.3968619018
 20
173.2501270402
 30
0.0
 11
-22.3968619018
 21
167.2501270402
 31
0.0
  0
LINE
  5
260
330
208
100
AcDbEntity
  8
0
  6
Continuous
 62
     7
100
AcDbLine
 10
-15.8968619018
 20
167.2501270402
 30
0.0
 11
-15.8968619018
 21
173.2501270402
 31
0.0
  0
LINE
  5
261
330
208
100
AcDbEntity
  8
0
  6
Continuous
 62
     7
100
AcDbLine
 10
-15.8968619018
 20
179.7501270402
 30
0.0
 11
-15.8968619018
 21
185.7501270402
 31
0.0
  0
LINE
  5
262
330
208
100
AcDbEntity
  8
0
  6
Continuous
 62
     7
100
AcDbLine
 10
-15.8968619018
 20
192.2501270402
 30
0.0
 11
-15.8968619018
 21
198.2501270402
 31
0.0
  0
LINE
  5
263
330
208
100
AcDbEntity
  8
0
  6
Continuous
 62
     7
100
AcDbLine
 10
-15.8968619018
 20
204.7501270402
 30
0.0
 11
-15.8968619018
 21
210.7501270402
 31
0.0
  0
LINE
  5
264
330
208
100
AcDbEntity
  8
0
  6
Continuous
 62
     7
100
AcDbLine
 10
-9.896861901799999
 20
210.7501270402
 30
0.0
 11
-9.896861901799999
 21
204.7501270402
 31
0.0
  0
LINE
  5
265
330
208
100
AcDbEntity
  8
0
  6
Continuous
 62
     7
100
AcDbLine
 10
-9.896861901799999
 20
198.2501270402
 30
0.0
 11
-9.896861901799999
 21
192.2501270402
 31
0.0
  0
LINE
  5
266
330
208
100
AcDbEntity
  8
0
  6
Continuous
 62
     7
100
AcDbLine
 10
-9.896861901799999
 20
185.7501270402
 30
0.0
 11
-9.896861901799999
 21
179.7501270402
 31
0.0
  0
LINE
  5
267
330
208
100
AcDbEntity
  8
0
  6
Continuous
 62
     7
100
AcDbLine
 10
-9.896861901799999
 20
173.2501270402
 30
0.0
 11
-9.896861901799999
 21
167.2501270402
 31
0.0
  0
LINE
  5
268
330
208
100
AcDbEntity
  8
0
  6
Continuous
 62
     7
100
AcDbLine
 10
-3.396861901799998
 20
167.2501270402
 30
0.0
 11
-3.396861901799998
 21
173.2501270402
 31
0.0
  0
LINE
  5
269
330
208
100
AcDbEntity
  8
0
  6
Continuous
 62
     7
100
AcDbLine
 10
-3.396861901799998
 20
179.7501270402
 30
0.0
 11
-3.396861901799998
 21
185.7501270402
 31
0.0
  0
LINE
  5
26A
330
208
100
AcDbEntity
  8
0
  6
Continuous
 62
     7
100
AcDbLine
 10
-3.396861901799998
 20
192.2501270402
 30
0.0
 11
-3.396861901799998
 21
198.2501270402
 31
0.0
  0
LINE
  5
26B
330
208
100
AcDbEntity
  8
0
  6
Continuous
 62
     7
100
AcDbLine
 10
-3.396861901799998
 20
204.7501270402
 30
0.0
 11
-3.396861901799998
 21
210.7501270402
 31
0.0
  0
LINE
  5
26C
330
208
100
AcDbEntity
  8
0
  6
Continuous
 62
     7
100
AcDbLine
 10
2.6031380982
 20
210.7501270402
 30
0.0
 11
2.6031380982
 21
204.7501270402
 31
0.0
  0
LINE
  5
26D
330
208
100
AcDbEntity
  8
0
  6
Continuous
 62
     7
100
AcDbLine
 10
2.6031380982
 20
198.2501270402
 30
0.0
 11
2.6031380982
 21
192.2501270402
 31
0.0
  0
LINE
  5
26E
330
208
100
AcDbEntity
  8
0
  6
Continuous
 62
     7
100
AcDbLine
 10
2.6031380982
 20
185.7501270402
 30
0.0
 11
2.6031380982
 21
179.7501270402
 31
0.0
  0
LINE
  5
26F
330
208
100
AcDbEntity
  8
0
  6
Continuous
 62
     7
100
AcDbLine
 10
2.6031380982
 20
173.2501270402
 30
0.0
 11
2.6031380982
 21
167.2501270402
 31
0.0
  0
LINE
  5
270
330
208
100
AcDbEntity
  8
0
  6
Continuous
 62
     7
100
AcDbLine
 10
9.1031380982
 20
167.2501270402
 30
0.0
 11
9.1031380982
 21
173.2501270402
 31
0.0
  0
LINE
  5
271
330
208
100
AcDbEntity
  8
0
  6
Continuous
 62
     7
100
AcDbLine
 10
9.1031380982
 20
179.7501270402
 30
0.0
 11
9.1031380982
 21
185.7501270402
 31
0.0
  0
LINE
  5
272
330
208
100
AcDbEntity
  8
0
  6
Continuous
 62
     7
100
AcDbLine
 10
9.1031380982
 20
192.2501270402
 30
0.0
 11
9.1031380982
 21
198.2501270402
 31
0.0
  0
LINE
  5
273
330
208
100
AcDbEntity
  8
0
  6
Continuous
 62
     7
100
AcDbLine
 10
9.1031380982
 20
204.7501270402
 30
0.0
 11
9.1031380982
 21
210.7501270402
 31
0.0
  0
LINE
  5
274
330
208
100
AcDbEntity
  8
0
  6
Continuous
 62
     7
100
AcDbLine
 10
15.1031380982
 20
210.7501270402
 30
0.0
 11
15.1031380982
 21
204.7501270402
 31
0.0
  0
LINE
  5
275
330
208
100
AcDbEntity
  8
0
  6
Continuous
 62
     7
100
AcDbLine
 10
15.1031380982
 20
198.2501270402
 30
0.0
 11
15.1031380982
 21
192.2501270402
 31
0.0
  0
LINE
  5
276
330
208
100
AcDbEntity
  8
0
  6
Continuous
 62
     7
100
AcDbLine
 10
15.1031380982
 20
185.7501270402
 30
0.0
 11
15.1031380982
 21
179.7501270402
 31
0.0
  0
LINE
  5
277
330
208
100
AcDbEntity
  8
0
  6
Continuous
 62
     7
100
AcDbLine
 10
15.1031380982
 20
173.2501270402
 30
0.0
 11
15.1031380982
 21
167.2501270402
 31
0.0
  0
LINE
  5
278
330
208
100
AcDbEntity
  8
0
  6
Continuous
 62
     7
100
AcDbLine
 10
21.6031380982
 20
167.2501270402
 30
0.0
 11
21.6031380982
 21
173.2501270402
 31
0.0
  0
LINE
  5
279
330
208
100
AcDbEntity
  8
0
  6
Continuous
 62
     7
100
AcDbLine
 10
21.6031380982
 20
179.7501270402
 30
0.0
 11
21.6031380982
 21
185.7501270402
 31
0.0
  0
LINE
  5
27A
330
208
100
AcDbEntity
  8
0
  6
Continuous
 62
     7
100
AcDbLine
 10
21.6031380982
 20
192.2501270402
 30
0.0
 11
21.6031380982
 21
198.2501270402
 31
0.0
  0
LINE
  5
27B
330
208
100
AcDbEntity
  8
0
  6
Continuous
 62
     7
100
AcDbLine
 10
21.6031380982
 20
204.7501270402
 30
0.0
 11
21.6031380982
 21
210.7501270402
 31
0.0
  0
LINE
  5
27C
330
208
100
AcDbEntity
  8
0
  6
Continuous
 62
     7
100
AcDbLine
 10
27.6031380982
 20
210.7501270402
 30
0.0
 11
27.6031380982
 21
204.7501270402
 31
0.0
  0
LINE
  5
27D
330
208
100
AcDbEntity
  8
0
  6
Continuous
 62
     7
100
AcDbLine
 10
27.6031380982
 20
198.2501270402
 30
0.0
 11
27.6031380982
 21
192.2501270402
 31
0.0
  0
LINE
  5
27E
330
208
100
AcDbEntity
  8
0
  6
Continuous
 62
     7
100
AcDbLine
 10
27.6031380982
 20
185.7501270402
 30
0.0
 11
27.6031380982
 21
179.7501270402
 31
0.0
  0
LINE
  5
27F
330
208
100
AcDbEntity
  8
0
  6
Continuous
 62
     7
100
AcDbLine
 10
27.6031380982
 20
173.2501270402
 30
0.0
 11
27.6031380982
 21
167.2501270402
 31
0.0
  0
LINE
  5
280
330
208
100
AcDbEntity
  8
0
  6
Continuous
 62
     7
100
AcDbLine
 10
34.1031380982
 20
167.2501270402
 30
0.0
 11
34.1031380982
 21
173.2501270402
 31
0.0
  0
LINE
  5
281
330
208
100
AcDbEntity
  8
0
  6
Continuous
 62
     7
100
AcDbLine
 10
34.1031380982
 20
179.7501270402
 30
0.0
 11
34.1031380982
 21
185.7501270402
 31
0.0
  0
LINE
  5
282
330
208
100
AcDbEntity
  8
0
  6
Continuous
 62
     7
100
AcDbLine
 10
34.1031380982
 20
192.2501270402
 30
0.0
 11
34.1031380982
 21
198.2501270402
 31
0.0
  0
LINE
  5
283
330
208
100
AcDbEntity
  8
0
  6
Continuous
 62
     7
100
AcDbLine
 10
34.1031380982
 20
204.7501270402
 30
0.0
 11
34.1031380982
 21
210.7501270402
 31
0.0
  0
LINE
  5
284
330
208
100
AcDbEntity
  8
0
  6
Continuous
 62
     7
100
AcDbLine
 10
40.1031380982
 20
210.7501270402
 30
0.0
 11
40.1031380982
 21
204.7501270402
 31
0.0
  0
LINE
  5
285
330
208
100
AcDbEntity
  8
0
  6
Continuous
 62
     7
100
AcDbLine
 10
40.1031380982
 20
198.2501270402
 30
0.0
 11
40.1031380982
 21
192.2501270402
 31
0.0
  0
LINE
  5
286
330
208
100
AcDbEntity
  8
0
  6
Continuous
 62
     7
100
AcDbLine
 10
40.1031380982
 20
185.7501270402
 30
0.0
 11
40.1031380982
 21
179.7501270402
 31
0.0
  0
LINE
  5
287
330
208
100
AcDbEntity
  8
0
  6
Continuous
 62
     7
100
AcDbLine
 10
40.1031380982
 20
173.2501270402
 30
0.0
 11
40.1031380982
 21
167.2501270402
 31
0.0
  0
LINE
  5
288
330
208
100
AcDbEntity
  8
0
  6
Continuous
 62
     7
100
AcDbLine
 10
46.60313809819999
 20
167.2501270402
 30
0.0
 11
46.60313809819999
 21
173.2501270402
 31
0.0
  0
LINE
  5
289
330
208
100
AcDbEntity
  8
0
  6
Continuous
 62
     7
100
AcDbLine
 10
46.60313809819999
 20
179.7501270402
 30
0.0
 11
46.60313809819999
 21
185.7501270402
 31
0.0
  0
LINE
  5
28A
330
208
100
AcDbEntity
  8
0
  6
Continuous
 62
     7
100
AcDbLine
 10
46.60313809819999
 20
192.2501270402
 30
0.0
 11
46.60313809819999
 21
198.2501270402
 31
0.0
  0
LINE
  5
28B
330
208
100
AcDbEntity
  8
0
  6
Continuous
 62
     7
100
AcDbLine
 10
46.60313809819999
 20
204.7501270402
 30
0.0
 11
46.60313809819999
 21
210.7501270402
 31
0.0
  0
LINE
  5
28C
330
208
100
AcDbEntity
  8
0
  6
Continuous
 62
     7
100
AcDbLine
 10
52.6031380982
 20
210.7501270402
 30
0.0
 11
52.6031380982
 21
204.7501270402
 31
0.0
  0
LINE
  5
28D
330
208
100
AcDbEntity
  8
0
  6
Continuous
 62
     7
100
AcDbLine
 10
52.6031380982
 20
198.2501270402
 30
0.0
 11
52.6031380982
 21
192.2501270402
 31
0.0
  0
LINE
  5
28E
330
208
100
AcDbEntity
  8
0
  6
Continuous
 62
     7
100
AcDbLine
 10
52.6031380982
 20
185.7501270402
 30
0.0
 11
52.6031380982
 21
179.7501270402
 31
0.0
  0
LINE
  5
28F
330
208
100
AcDbEntity
  8
0
  6
Continuous
 62
     7
100
AcDbLine
 10
52.6031380982
 20
173.2501270402
 30
0.0
 11
52.6031380982
 21
167.2501270402
 31
0.0
  0
LINE
  5
290
330
208
100
AcDbEntity
  8
0
  6
Continuous
 62
     7
100
AcDbLine
 10
59.10313809819999
 20
167.2501270402
 30
0.0
 11
59.10313809819999
 21
173.2501270402
 31
0.0
  0
LINE
  5
291
330
208
100
AcDbEntity
  8
0
  6
Continuous
 62
     7
100
AcDbLine
 10
59.10313809819999
 20
179.7501270402
 30
0.0
 11
59.10313809819999
 21
185.7501270402
 31
0.0
  0
LINE
  5
292
330
208
100
AcDbEntity
  8
0
  6
Continuous
 62
     7
100
AcDbLine
 10
59.10313809819999
 20
192.2501270402
 30
0.0
 11
59.10313809819999
 21
198.2501270402
 31
0.0
  0
LINE
  5
293
330
208
100
AcDbEntity
  8
0
  6
Continuous
 62
     7
100
AcDbLine
 10
59.10313809819999
 20
204.7501270402
 30
0.0
 11
59.10313809819999
 21
210.7501270402
 31
0.0
  0
LINE
  5
294
330
208
100
AcDbEntity
  8
0
  6
Continuous
 62
     7
100
AcDbLine
 10
65.10313809819999
 20
210.7501270402
 30
0.0
 11
65.10313809819999
 21
204.7501270402
 31
0.0
  0
LINE
  5
295
330
208
100
AcDbEntity
  8
0
  6
Continuous
 62
     7
100
AcDbLine
 10
65.10313809819999
 20
198.2501270402
 30
0.0
 11
65.10313809819999
 21
192.2501270402
 31
0.0
  0
LINE
  5
296
330
208
100
AcDbEntity
  8
0
  6
Continuous
 62
     7
100
AcDbLine
 10
65.10313809819999
 20
185.7501270402
 30
0.0
 11
65.10313809819999
 21
179.7501270402
 31
0.0
  0
LINE
  5
297
330
208
100
AcDbEntity
  8
0
  6
Continuous
 62
     7
100
AcDbLine
 10
65.10313809819999
 20
173.2501270402
 30
0.0
 11
65.10313809819999
 21
167.2501270402
 31
0.0
  0
LINE
  5
298
330
208
100
AcDbEntity
  8
0
  6
Continuous
 62
     7
100
AcDbLine
 10
71.60313809819999
 20
167.2501270402
 30
0.0
 11
71.60313809819999
 21
173.2501270402
 31
0.0
  0
LINE
  5
299
330
208
100
AcDbEntity
  8
0
  6
Continuous
 62
     7
100
AcDbLine
 10
71.60313809819999
 20
179.7501270402
 30
0.0
 11
71.60313809819999
 21
185.7501270402
 31
0.0
  0
LINE
  5
29A
330
208
100
AcDbEntity
  8
0
  6
Continuous
 62
     7
100
AcDbLine
 10
71.60313809819999
 20
192.2501270402
 30
0.0
 11
71.60313809819999
 21
198.2501270402
 31
0.0
  0
LINE
  5
29B
330
208
100
AcDbEntity
  8
0
  6
Continuous
 62
     7
100
AcDbLine
 10
71.60313809819999
 20
204.7501270402
 30
0.0
 11
71.60313809819999
 21
210.7501270402
 31
0.0
  0
LINE
  5
29C
330
208
100
AcDbEntity
  8
0
  6
Continuous
 62
     7
100
AcDbLine
 10
77.60313809819999
 20
210.7501270402
 30
0.0
 11
77.60313809819999
 21
204.7501270402
 31
0.0
  0
LINE
  5
29D
330
208
100
AcDbEntity
  8
0
  6
Continuous
 62
     7
100
AcDbLine
 10
77.60313809819999
 20
198.2501270402
 30
0.0
 11
77.60313809819999
 21
192.2501270402
 31
0.0
  0
LINE
  5
29E
330
208
100
AcDbEntity
  8
0
  6
Continuous
 62
     7
100
AcDbLine
 10
77.60313809819999
 20
185.7501270402
 30
0.0
 11
77.60313809819999
 21
179.7501270402
 31
0.0
  0
LINE
  5
29F
330
208
100
AcDbEntity
  8
0
  6
Continuous
 62
     7
100
AcDbLine
 10
77.60313809819999
 20
173.2501270402
 30
0.0
 11
77.60313809819999
 21
167.2501270402
 31
0.0
  0
LINE
  5
2A0
330
208
100
AcDbEntity
  8
0
  6
Continuous
 62
     7
100
AcDbLine
 10
84.10313809819999
 20
167.2501270402
 30
0.0
 11
84.10313809819999
 21
173.2501270402
 31
0.0
  0
LINE
  5
2A1
330
208
100
AcDbEntity
  8
0
  6
Continuous
 62
     7
100
AcDbLine
 10
84.10313809819999
 20
179.7501270402
 30
0.0
 11
84.10313809819999
 21
185.7501270402
 31
0.0
  0
LINE
  5
2A2
330
208
100
AcDbEntity
  8
0
  6
Continuous
 62
     7
100
AcDbLine
 10
84.10313809819999
 20
192.2501270402
 30
0.0
 11
84.10313809819999
 21
198.2501270402
 31
0.0
  0
LINE
  5
2A3
330
208
100
AcDbEntity
  8
0
  6
Continuous
 62
     7
100
AcDbLine
 10
84.10313809819999
 20
204.7501270402
 30
0.0
 11
84.10313809819999
 21
210.7501270402
 31
0.0
  0
LINE
  5
2A4
330
208
100
AcDbEntity
  8
0
  6
Continuous
 62
     7
100
AcDbLine
 10
90.10313809819999
 20
210.7501270402
 30
0.0
 11
90.10313809819999
 21
204.7501270402
 31
0.0
  0
LINE
  5
2A5
330
208
100
AcDbEntity
  8
0
  6
Continuous
 62
     7
100
AcDbLine
 10
90.10313809819999
 20
198.2501270402
 30
0.0
 11
90.10313809819999
 21
192.2501270402
 31
0.0
  0
LINE
  5
2A6
330
208
100
AcDbEntity
  8
0
  6
Continuous
 62
     7
100
AcDbLine
 10
90.10313809819999
 20
185.7501270402
 30
0.0
 11
90.10313809819999
 21
179.7501270402
 31
0.0
  0
LINE
  5
2A7
330
208
100
AcDbEntity
  8
0
  6
Continuous
 62
     7
100
AcDbLine
 10
90.10313809819999
 20
173.2501270402
 30
0.0
 11
90.10313809819999
 21
167.2501270402
 31
0.0
  0
LINE
  5
2A8
330
208
100
AcDbEntity
  8
0
  6
Continuous
 62
     7
100
AcDbLine
 10
96.60313809819999
 20
167.2501270402
 30
0.0
 11
96.60313809819999
 21
173.2501270402
 31
0.0
  0
LINE
  5
2A9
330
208
100
AcDbEntity
  8
0
  6
Continuous
 62
     7
100
AcDbLine
 10
96.60313809819999
 20
179.7501270402
 30
0.0
 11
96.60313809819999
 21
185.7501270402
 31
0.0
  0
LINE
  5
2AA
330
208
100
AcDbEntity
  8
0
  6
Continuous
 62
     7
100
AcDbLine
 10
96.60313809819999
 20
192.2501270402
 30
0.0
 11
96.60313809819999
 21
198.2501270402
 31
0.0
  0
LINE
  5
2AB
330
208
100
AcDbEntity
  8
0
  6
Continuous
 62
     7
100
AcDbLine
 10
96.60313809819999
 20
204.7501270402
 30
0.0
 11
96.60313809819999
 21
210.7501270402
 31
0.0
  0
LINE
  5
2AC
330
208
100
AcDbEntity
  8
0
  6
Continuous
 62
     7
100
AcDbLine
 10
102.6031380982
 20
210.7501270402
 30
0.0
 11
102.6031380982
 21
204.7501270402
 31
0.0
  0
LINE
  5
2AD
330
208
100
AcDbEntity
  8
0
  6
Continuous
 62
     7
100
AcDbLine
 10
102.6031380982
 20
198.2501270402
 30
0.0
 11
102.6031380982
 21
192.2501270402
 31
0.0
  0
LINE
  5
2AE
330
208
100
AcDbEntity
  8
0
  6
Continuous
 62
     7
100
AcDbLine
 10
102.6031380982
 20
185.7501270402
 30
0.0
 11
102.6031380982
 21
179.7501270402
 31
0.0
  0
LINE
  5
2AF
330
208
100
AcDbEntity
  8
0
  6
Continuous
 62
     7
100
AcDbLine
 10
102.6031380982
 20
173.2501270402
 30
0.0
 11
102.6031380982
 21
167.2501270402
 31
0.0
  0
LINE
  5
2B0
330
208
100
AcDbEntity
  8
0
  6
Continuous
 62
     7
100
AcDbLine
 10
109.1031380982
 20
167.2501270402
 30
0.0
 11
109.1031380982
 21
173.2501270402
 31
0.0
  0
LINE
  5
2B1
330
208
100
AcDbEntity
  8
0
  6
Continuous
 62
     7
100
AcDbLine
 10
109.1031380982
 20
179.7501270402
 30
0.0
 11
109.1031380982
 21
185.7501270402
 31
0.0
  0
LINE
  5
2B2
330
208
100
AcDbEntity
  8
0
  6
Continuous
 62
     7
100
AcDbLine
 10
109.1031380982
 20
192.2501270402
 30
0.0
 11
109.1031380982
 21
198.2501270402
 31
0.0
  0
LINE
  5
2B3
330
208
100
AcDbEntity
  8
0
  6
Continuous
 62
     7
100
AcDbLine
 10
109.1031380982
 20
204.7501270402
 30
0.0
 11
109.1031380982
 21
210.7501270402
 31
0.0
  0
LINE
  5
2B4
330
208
100
AcDbEntity
  8
0
  6
Continuous
 62
     7
100
AcDbLine
 10
115.1031380982
 20
210.7501270402
 30
0.0
 11
115.1031380982
 21
204.7501270402
 31
0.0
  0
LINE
  5
2B5
330
208
100
AcDbEntity
  8
0
  6
Continuous
 62
     7
100
AcDbLine
 10
115.1031380982
 20
198.2501270402
 30
0.0
 11
115.1031380982
 21
192.2501270402
 31
0.0
  0
LINE
  5
2B6
330
208
100
AcDbEntity
  8
0
  6
Continuous
 62
     7
100
AcDbLine
 10
115.1031380982
 20
185.7501270402
 30
0.0
 11
115.1031380982
 21
179.7501270402
 31
0.0
  0
LINE
  5
2B7
330
208
100
AcDbEntity
  8
0
  6
Continuous
 62
     7
100
AcDbLine
 10
115.1031380982
 20
173.2501270402
 30
0.0
 11
115.1031380982
 21
167.2501270402
 31
0.0
  0
LINE
  5
2B8
330
208
100
AcDbEntity
  8
0
  6
Continuous
 62
     7
100
AcDbLine
 10
121.6031380982
 20
167.2501270402
 30
0.0
 11
121.6031380982
 21
173.2501270402
 31
0.0
  0
LINE
  5
2B9
330
208
100
AcDbEntity
  8
0
  6
Continuous
 62
     7
100
AcDbLine
 10
121.6031380982
 20
179.7501270402
 30
0.0
 11
121.6031380982
 21
185.7501270402
 31
0.0
  0
LINE
  5
2BA
330
208
100
AcDbEntity
  8
0
  6
Continuous
 62
     7
100
AcDbLine
 10
121.6031380982
 20
192.2501270402
 30
0.0
 11
121.6031380982
 21
198.2501270402
 31
0.0
  0
LINE
  5
2BB
330
208
100
AcDbEntity
  8
0
  6
Continuous
 62
     7
100
AcDbLine
 10
121.6031380982
 20
204.7501270402
 30
0.0
 11
121.6031380982
 21
210.7501270402
 31
0.0
  0
LINE
  5
2BC
330
208
100
AcDbEntity
  8
0
  6
Continuous
 62
     7
100
AcDbLine
 10
127.6031380982
 20
210.7501270402
 30
0.0
 11
127.6031380982
 21
204.7501270402
 31
0.0
  0
LINE
  5
2BD
330
208
100
AcDbEntity
  8
0
  6
Continuous
 62
     7
100
AcDbLine
 10
127.6031380982
 20
198.2501270402
 30
0.0
 11
127.6031380982
 21
192.2501270402
 31
0.0
  0
LINE
  5
2BE
330
208
100
AcDbEntity
  8
0
  6
Continuous
 62
     7
100
AcDbLine
 10
127.6031380982
 20
185.7501270402
 30
0.0
 11
127.6031380982
 21
179.7501270402
 31
0.0
  0
LINE
  5
2BF
330
208
100
AcDbEntity
  8
0
  6
Continuous
 62
     7
100
AcDbLine
 10
127.6031380982
 20
173.2501270402
 30
0.0
 11
127.6031380982
 21
167.2501270402
 31
0.0
  0
LINE
  5
2C0
330
208
100
AcDbEntity
  8
0
  6
Continuous
 62
     7
100
AcDbLine
 10
134.1031380982
 20
167.2501270402
 30
0.0
 11
134.1031380982
 21
173.2501270402
 31
0.0
  0
LINE
  5
2C1
330
208
100
AcDbEntity
  8
0
  6
Continuous
 62
     7
100
AcDbLine
 10
134.1031380982
 20
179.7501270402
 30
0.0
 11
134.1031380982
 21
185.7501270402
 31
0.0
  0
LINE
  5
2C2
330
208
100
AcDbEntity
  8
0
  6
Continuous
 62
     7
100
AcDbLine
 10
134.1031380982
 20
192.2501270402
 30
0.0
 11
134.1031380982
 21
198.2501270402
 31
0.0
  0
LINE
  5
2C3
330
208
100
AcDbEntity
  8
0
  6
Continuous
 62
     7
100
AcDbLine
 10
134.1031380982
 20
204.7501270402
 30
0.0
 11
134.1031380982
 21
210.7501270402
 31
0.0
  0
LINE
  5
2C4
330
208
100
AcDbEntity
  8
0
  6
Continuous
 62
     7
100
AcDbLine
 10
140.1031380982
 20
210.7501270402
 30
0.0
 11
140.1031380982
 21
204.7501270402
 31
0.0
  0
LINE
  5
2C5
330
208
100
AcDbEntity
  8
0
  6
Continuous
 62
     7
100
AcDbLine
 10
140.1031380982
 20
198.2501270402
 30
0.0
 11
140.1031380982
 21
192.2501270402
 31
0.0
  0
LINE
  5
2C6
330
208
100
AcDbEntity
  8
0
  6
Continuous
 62
     7
100
AcDbLine
 10
140.1031380982
 20
185.7501270402
 30
0.0
 11
140.1031380982
 21
179.7501270402
 31
0.0
  0
LINE
  5
2C7
330
208
100
AcDbEntity
  8
0
  6
Continuous
 62
     7
100
AcDbLine
 10
140.1031380982
 20
173.2501270402
 30
0.0
 11
140.1031380982
 21
167.2501270402
 31
0.0
  0
LINE
  5
2C8
330
208
100
AcDbEntity
  8
0
  6
Continuous
 62
     7
100
AcDbLine
 10
146.6031380982
 20
167.2501270402
 30
0.0
 11
146.6031380982
 21
173.2501270402
 31
0.0
  0
LINE
  5
2C9
330
208
100
AcDbEntity
  8
0
  6
Continuous
 62
     7
100
AcDbLine
 10
146.6031380982
 20
179.7501270402
 30
0.0
 11
146.6031380982
 21
185.7501270402
 31
0.0
  0
LINE
  5
2CA
330
208
100
AcDbEntity
  8
0
  6
Continuous
 62
     7
100
AcDbLine
 10
146.6031380982
 20
192.2501270402
 30
0.0
 11
146.6031380982
 21
198.2501270402
 31
0.0
  0
LINE
  5
2CB
330
208
100
AcDbEntity
  8
0
  6
Continuous
 62
     7
100
AcDbLine
 10
146.6031380982
 20
204.7501270402
 30
0.0
 11
146.6031380982
 21
210.7501270402
 31
0.0
  0
LINE
  5
2CC
330
208
100
AcDbEntity
  8
0
  6
Continuous
 62
     7
100
AcDbLine
 10
152.6031380982
 20
210.7501270402
 30
0.0
 11
152.6031380982
 21
204.7501270402
 31
0.0
  0
LINE
  5
2CD
330
208
100
AcDbEntity
  8
0
  6
Continuous
 62
     7
100
AcDbLine
 10
152.6031380982
 20
198.2501270402
 30
0.0
 11
152.6031380982
 21
192.2501270402
 31
0.0
  0
LINE
  5
2CE
330
208
100
AcDbEntity
  8
0
  6
Continuous
 62
     7
100
AcDbLine
 10
152.6031380982
 20
185.7501270402
 30
0.0
 11
152.6031380982
 21
179.7501270402
 31
0.0
  0
LINE
  5
2CF
330
208
100
AcDbEntity
  8
0
  6
Continuous
 62
     7
100
AcDbLine
 10
152.6031380982
 20
173.2501270402
 30
0.0
 11
152.6031380982
 21
167.2501270402
 31
0.0
  0
LINE
  5
2D0
330
208
100
AcDbEntity
  8
0
  6
Continuous
 62
     7
100
AcDbLine
 10
159.1031380982
 20
167.2501270402
 30
0.0
 11
159.1031380982
 21
173.2501270402
 31
0.0
  0
LINE
  5
2D1
330
208
100
AcDbEntity
  8
0
  6
Continuous
 62
     7
100
AcDbLine
 10
159.1031380982
 20
179.7501270402
 30
0.0
 11
159.1031380982
 21
185.7501270402
 31
0.0
  0
LINE
  5
2D2
330
208
100
AcDbEntity
  8
0
  6
Continuous
 62
     7
100
AcDbLine
 10
159.1031380982
 20
192.2501270402
 30
0.0
 11
159.1031380982
 21
198.2501270402
 31
0.0
  0
LINE
  5
2D3
330
208
100
AcDbEntity
  8
0
  6
Continuous
 62
     7
100
AcDbLine
 10
159.1031380982
 20
204.7501270402
 30
0.0
 11
159.1031380982
 21
210.7501270402
 31
0.0
  0
LINE
  5
2D4
330
208
100
AcDbEntity
  8
0
  6
Continuous
 62
     7
100
AcDbLine
 10
165.1031380982
 20
210.7501270402
 30
0.0
 11
165.1031380982
 21
204.7501270402
 31
0.0
  0
LINE
  5
2D5
330
208
100
AcDbEntity
  8
0
  6
Continuous
 62
     7
100
AcDbLine
 10
165.1031380982
 20
198.2501270402
 30
0.0
 11
165.1031380982
 21
192.2501270402
 31
0.0
  0
LINE
  5
2D6
330
208
100
AcDbEntity
  8
0
  6
Continuous
 62
     7
100
AcDbLine
 10
165.1031380982
 20
185.7501270402
 30
0.0
 11
165.1031380982
 21
179.7501270402
 31
0.0
  0
LINE
  5
2D7
330
208
100
AcDbEntity
  8
0
  6
Continuous
 62
     7
100
AcDbLine
 10
165.1031380982
 20
173.2501270402
 30
0.0
 11
165.1031380982
 21
167.2501270402
 31
0.0
  0
LINE
  5
2D8
330
208
100
AcDbEntity
  8
0
  6
Continuous
 62
     7
100
AcDbLine
 10
171.6031380982
 20
167.2501270402
 30
0.0
 11
171.6031380982
 21
173.2501270402
 31
0.0
  0
LINE
  5
2D9
330
208
100
AcDbEntity
  8
0
  6
Continuous
 62
     7
100
AcDbLine
 10
171.6031380982
 20
179.7501270402
 30
0.0
 11
171.6031380982
 21
185.7501270402
 31
0.0
  0
LINE
  5
2DA
330
208
100
AcDbEntity
  8
0
  6
Continuous
 62
     7
100
AcDbLine
 10
171.6031380982
 20
192.2501270402
 30
0.0
 11
171.6031380982
 21
198.2501270402
 31
0.0
  0
LINE
  5
2DB
330
208
100
AcDbEntity
  8
0
  6
Continuous
 62
     7
100
AcDbLine
 10
171.6031380982
 20
204.7501270402
 30
0.0
 11
171.6031380982
 21
210.7501270402
 31
0.0
  0
LINE
  5
2DC
330
208
100
AcDbEntity
  8
0
  6
Continuous
 62
     7
100
AcDbLine
 10
177.6031380982
 20
210.7501270402
 30
0.0
 11
177.6031380982
 21
204.7501270402
 31
0.0
  0
LINE
  5
2DD
330
208
100
AcDbEntity
  8
0
  6
Continuous
 62
     7
100
AcDbLine
 10
177.6031380982
 20
198.2501270402
 30
0.0
 11
177.6031380982
 21
192.2501270402
 31
0.0
  0
LINE
  5
2DE
330
208
100
AcDbEntity
  8
0
  6
Continuous
 62
     7
100
AcDbLine
 10
177.6031380982
 20
185.7501270402
 30
0.0
 11
177.6031380982
 21
179.7501270402
 31
0.0
  0
LINE
  5
2DF
330
208
100
AcDbEntity
  8
0
  6
Continuous
 62
     7
100
AcDbLine
 10
177.6031380982
 20
173.2501270402
 30
0.0
 11
177.6031380982
 21
167.2501270402
 31
0.0
  0
LINE
  5
2E0
330
208
100
AcDbEntity
  8
0
  6
Continuous
 62
     7
100
AcDbLine
 10
184.1031380982
 20
167.2501270402
 30
0.0
 11
184.1031380982
 21
173.2501270402
 31
0.0
  0
LINE
  5
2E1
330
208
100
AcDbEntity
  8
0
  6
Continuous
 62
     7
100
AcDbLine
 10
184.1031380982
 20
179.7501270402
 30
0.0
 11
184.1031380982
 21
185.7501270402
 31
0.0
  0
LINE
  5
2E2
330
208
100
AcDbEntity
  8
0
  6
Continuous
 62
     7
100
AcDbLine
 10
184.1031380982
 20
192.2501270402
 30
0.0
 11
184.1031380982
 21
198.2501270402
 31
0.0
  0
LINE
  5
2E3
330
208
100
AcDbEntity
  8
0
  6
Continuous
 62
     7
100
AcDbLine
 10
184.1031380982
 20
204.7501270402
 30
0.0
 11
184.1031380982
 21
210.7501270402
 31
0.0
  0
LINE
  5
2E4
330
208
100
AcDbEntity
  8
0
  6
Continuous
 62
     7
100
AcDbLine
 10
190.1031380982
 20
210.7501270402
 30
0.0
 11
190.1031380982
 21
204.7501270402
 31
0.0
  0
LINE
  5
2E5
330
208
100
AcDbEntity
  8
0
  6
Continuous
 62
     7
100
AcDbLine
 10
190.1031380982
 20
198.2501270402
 30
0.0
 11
190.1031380982
 21
192.2501270402
 31
0.0
  0
LINE
  5
2E6
330
208
100
AcDbEntity
  8
0
  6
Continuous
 62
     7
100
AcDbLine
 10
190.1031380982
 20
185.7501270402
 30
0.0
 11
190.1031380982
 21
179.7501270402
 31
0.0
  0
LINE
  5
2E7
330
208
100
AcDbEntity
  8
0
  6
Continuous
 62
     7
100
AcDbLine
 10
190.1031380982
 20
173.2501270402
 30
0.0
 11
190.1031380982
 21
167.2501270402
 31
0.0
  0
LINE
  5
2E8
330
208
100
AcDbEntity
  8
0
  6
Continuous
 62
     7
100
AcDbLine
 10
196.6031380982
 20
167.2501270402
 30
0.0
 11
196.6031380982
 21
173.2501270402
 31
0.0
  0
LINE
  5
2E9
330
208
100
AcDbEntity
  8
0
  6
Continuous
 62
     7
100
AcDbLine
 10
196.6031380982
 20
179.7501270402
 30
0.0
 11
196.6031380982
 21
185.7501270402
 31
0.0
  0
LINE
  5
2EA
330
208
100
AcDbEntity
  8
0
  6
Continuous
 62
     7
100
AcDbLine
 10
196.6031380982
 20
192.2501270402
 30
0.0
 11
196.6031380982
 21
198.2501270402
 31
0.0
  0
LINE
  5
2EB
330
208
100
AcDbEntity
  8
0
  6
Continuous
 62
     7
100
AcDbLine
 10
196.6031380982
 20
204.7501270402
 30
0.0
 11
196.6031380982
 21
210.7501270402
 31
0.0
  0
LINE
  5
2EC
102
{ACAD_REACTORS
330
7BF
330
7F7
102
}
330
208
100
AcDbEntity
  8
0
  6
Continuous
 62
     7
100
AcDbLine
 10
-70.64686190180001
 20
157.9988112265
 30
0.0
 11
507.3531380982
 21
157.9988112265
 31
0.0
  0
LINE
  5
2ED
330
208
100
AcDbEntity
  8
BEZUGSACHSEN
  6
Continuous
 62
     9
100
AcDbLine
 10
-70.64686190180001
 20
161.957662901
 30
0.0
 11
507.3531380982
 21
161.957662901
 31
0.0
  0
LINE
  5
2EE
330
208
100
AcDbEntity
  8
BEZUGSACHSEN
  6
Continuous
 62
     9
100
AcDbLine
 10
-70.64686190180001
 20
162.9570249424
 30
0.0
 11
507.3531380982
 21
162.9570249424
 31
0.0
  0
LINE
  5
2EF
330
208
100
AcDbEntity
  8
0
  6
Continuous
 62
     7
100
AcDbLine
 10
477.6031380982
 20
167.2501270402
 30
0.0
 11
471.6031380982
 21
167.2501270402
 31
0.0
  0
LINE
  5
2F0
330
208
100
AcDbEntity
  8
0
  6
Continuous
 62
     7
100
AcDbLine
 10
465.1031380982
 20
167.2501270402
 30
0.0
 11
459.1031380982
 21
167.2501270402
 31
0.0
  0
LINE
  5
2F1
330
208
100
AcDbEntity
  8
0
  6
Continuous
 62
     7
100
AcDbLine
 10
452.6031380982
 20
167.2501270402
 30
0.0
 11
446.6031380982
 21
167.2501270402
 31
0.0
  0
LINE
  5
2F2
330
208
100
AcDbEntity
  8
0
  6
Continuous
 62
     7
100
AcDbLine
 10
440.1031380982
 20
167.2501270402
 30
0.0
 11
434.1031380982
 21
167.2501270402
 31
0.0
  0
LINE
  5
2F3
330
208
100
AcDbEntity
  8
0
  6
Continuous
 62
     7
100
AcDbLine
 10
427.6031380982
 20
167.2501270402
 30
0.0
 11
421.6031380982
 21
167.2501270402
 31
0.0
  0
LINE
  5
2F4
330
208
100
AcDbEntity
  8
0
  6
Continuous
 62
     7
100
AcDbLine
 10
415.1031380982
 20
167.2501270402
 30
0.0
 11
409.1031380982
 21
167.2501270402
 31
0.0
  0
LINE
  5
2F5
330
208
100
AcDbEntity
  8
0
  6
Continuous
 62
     7
100
AcDbLine
 10
402.6031380982
 20
167.2501270402
 30
0.0
 11
396.6031380982
 21
167.2501270402
 31
0.0
  0
LINE
  5
2F6
330
208
100
AcDbEntity
  8
0
  6
Continuous
 62
     7
100
AcDbLine
 10
390.1031380982
 20
167.2501270402
 30
0.0
 11
384.1031380982
 21
167.2501270402
 31
0.0
  0
LINE
  5
2F7
330
208
100
AcDbEntity
  8
0
  6
Continuous
 62
     7
100
AcDbLine
 10
377.6031380982
 20
167.2501270402
 30
0.0
 11
371.6031380982
 21
167.2501270402
 31
0.0
  0
LINE
  5
2F8
330
208
100
AcDbEntity
  8
0
  6
Continuous
 62
     7
100
AcDbLine
 10
365.1031380982
 20
167.2501270402
 30
0.0
 11
359.1031380982
 21
167.2501270402
 31
0.0
  0
LINE
  5
2F9
330
208
100
AcDbEntity
  8
0
  6
Continuous
 62
     7
100
AcDbLine
 10
352.6031380982
 20
167.2501270402
 30
0.0
 11
346.6031380982
 21
167.2501270402
 31
0.0
  0
LINE
  5
2FA
330
208
100
AcDbEntity
  8
0
  6
Continuous
 62
     7
100
AcDbLine
 10
340.1031380982
 20
167.2501270402
 30
0.0
 11
334.1031380982
 21
167.2501270402
 31
0.0
  0
LINE
  5
2FB
330
208
100
AcDbEntity
  8
0
  6
Continuous
 62
     7
100
AcDbLine
 10
327.6031380982
 20
167.2501270402
 30
0.0
 11
321.6031380982
 21
167.2501270402
 31
0.0
  0
LINE
  5
2FC
330
208
100
AcDbEntity
  8
0
  6
Continuous
 62
     7
100
AcDbLine
 10
315.1031380982
 20
167.2501270402
 30
0.0
 11
309.1031380982
 21
167.2501270402
 31
0.0
  0
LINE
  5
2FD
330
208
100
AcDbEntity
  8
0
  6
Continuous
 62
     7
100
AcDbLine
 10
302.6031380982
 20
167.2501270402
 30
0.0
 11
296.6031380982
 21
167.2501270402
 31
0.0
  0
LINE
  5
2FE
330
208
100
AcDbEntity
  8
0
  6
Continuous
 62
     7
100
AcDbLine
 10
290.1031380982
 20
167.2501270402
 30
0.0
 11
284.1031380982
 21
167.2501270402
 31
0.0
  0
LINE
  5
2FF
330
208
100
AcDbEntity
  8
0
  6
Continuous
 62
     7
100
AcDbLine
 10
277.6031380982
 20
167.2501270402
 30
0.0
 11
271.6031380982
 21
167.2501270402
 31
0.0
  0
LINE
  5
300
330
208
100
AcDbEntity
  8
0
  6
Continuous
 62
     7
100
AcDbLine
 10
265.1031380982
 20
167.2501270402
 30
0.0
 11
259.1031380982
 21
167.2501270402
 31
0.0
  0
LINE
  5
301
330
208
100
AcDbEntity
  8
0
  6
Continuous
 62
     7
100
AcDbLine
 10
252.6031380982
 20
167.2501270402
 30
0.0
 11
246.6031380982
 21
167.2501270402
 31
0.0
  0
LINE
  5
302
330
208
100
AcDbEntity
  8
0
  6
Continuous
 62
     7
100
AcDbLine
 10
240.1031380982
 20
167.2501270402
 30
0.0
 11
234.1031380982
 21
167.2501270402
 31
0.0
  0
LINE
  5
303
330
208
100
AcDbEntity
  8
0
  6
Continuous
 62
     7
100
AcDbLine
 10
227.6031380982
 20
167.2501270402
 30
0.0
 11
221.6031380982
 21
167.2501270402
 31
0.0
  0
LINE
  5
304
330
208
100
AcDbEntity
  8
0
  6
Continuous
 62
     7
100
AcDbLine
 10
215.1031380982
 20
167.2501270402
 30
0.0
 11
209.1031380982
 21
167.2501270402
 31
0.0
  0
LINE
  5
305
330
208
100
AcDbEntity
  8
0
  6
Continuous
 62
     7
100
AcDbLine
 10
202.6031380982
 20
167.2501270402
 30
0.0
 11
196.6031380982
 21
167.2501270402
 31
0.0
  0
LINE
  5
306
330
208
100
AcDbEntity
  8
0
  6
Continuous
 62
     7
100
AcDbLine
 10
190.1031380982
 20
167.2501270402
 30
0.0
 11
184.1031380982
 21
167.2501270402
 31
0.0
  0
LINE
  5
307
330
208
100
AcDbEntity
  8
0
  6
Continuous
 62
     7
100
AcDbLine
 10
177.6031380982
 20
167.2501270402
 30
0.0
 11
171.6031380982
 21
167.2501270402
 31
0.0
  0
LINE
  5
308
330
208
100
AcDbEntity
  8
0
  6
Continuous
 62
     7
100
AcDbLine
 10
165.1031380982
 20
167.2501270402
 30
0.0
 11
159.1031380982
 21
167.2501270402
 31
0.0
  0
LINE
  5
309
330
208
100
AcDbEntity
  8
0
  6
Continuous
 62
     7
100
AcDbLine
 10
152.6031380982
 20
167.2501270402
 30
0.0
 11
146.6031380982
 21
167.2501270402
 31
0.0
  0
LINE
  5
30A
330
208
100
AcDbEntity
  8
0
  6
Continuous
 62
     7
100
AcDbLine
 10
140.1031380982
 20
167.2501270402
 30
0.0
 11
134.1031380982
 21
167.2501270402
 31
0.0
  0
LINE
  5
30B
330
208
100
AcDbEntity
  8
0
  6
Continuous
 62
     7
100
AcDbLine
 10
127.6031380982
 20
167.2501270402
 30
0.0
 11
121.6031380982
 21
167.2501270402
 31
0.0
  0
LINE
  5
30C
330
208
100
AcDbEntity
  8
0
  6
Continuous
 62
     7
100
AcDbLine
 10
115.1031380982
 20
167.2501270402
 30
0.0
 11
109.1031380982
 21
167.2501270402
 31
0.0
  0
LINE
  5
30D
330
208
100
AcDbEntity
  8
0
  6
Continuous
 62
     7
100
AcDbLine
 10
102.6031380982
 20
167.2501270402
 30
0.0
 11
96.60313809819999
 21
167.2501270402
 31
0.0
  0
LINE
  5
30E
330
208
100
AcDbEntity
  8
0
  6
Continuous
 62
     7
100
AcDbLine
 10
90.10313809819999
 20
167.2501270402
 30
0.0
 11
84.10313809819999
 21
167.2501270402
 31
0.0
  0
LINE
  5
30F
330
208
100
AcDbEntity
  8
0
  6
Continuous
 62
     7
100
AcDbLine
 10
77.60313809819999
 20
167.2501270402
 30
0.0
 11
71.60313809819999
 21
167.2501270402
 31
0.0
  0
LINE
  5
310
330
208
100
AcDbEntity
  8
0
  6
Continuous
 62
     7
100
AcDbLine
 10
65.10313809819999
 20
167.2501270402
 30
0.0
 11
59.10313809819999
 21
167.2501270402
 31
0.0
  0
LINE
  5
311
330
208
100
AcDbEntity
  8
0
  6
Continuous
 62
     7
100
AcDbLine
 10
52.6031380982
 20
167.2501270402
 30
0.0
 11
46.60313809819999
 21
167.2501270402
 31
0.0
  0
LINE
  5
312
330
208
100
AcDbEntity
  8
0
  6
Continuous
 62
     7
100
AcDbLine
 10
40.1031380982
 20
167.2501270402
 30
0.0
 11
34.1031380982
 21
167.2501270402
 31
0.0
  0
LINE
  5
313
330
208
100
AcDbEntity
  8
0
  6
Continuous
 62
     7
100
AcDbLine
 10
27.6031380982
 20
167.2501270402
 30
0.0
 11
21.6031380982
 21
167.2501270402
 31
0.0
  0
LINE
  5
314
330
208
100
AcDbEntity
  8
0
  6
Continuous
 62
     7
100
AcDbLine
 10
15.1031380982
 20
167.2501270402
 30
0.0
 11
9.1031380982
 21
167.2501270402
 31
0.0
  0
LINE
  5
315
330
208
100
AcDbEntity
  8
0
  6
Continuous
 62
     7
100
AcDbLine
 10
2.6031380982
 20
167.2501270402
 30
0.0
 11
-3.396861901799998
 21
167.2501270402
 31
0.0
  0
LINE
  5
316
330
208
100
AcDbEntity
  8
0
  6
Continuous
 62
     7
100
AcDbLine
 10
-9.896861901799999
 20
167.2501270402
 30
0.0
 11
-15.8968619018
 21
167.2501270402
 31
0.0
  0
LINE
  5
317
330
208
100
AcDbEntity
  8
0
  6
Continuous
 62
     7
100
AcDbLine
 10
-22.3968619018
 20
167.2501270402
 30
0.0
 11
-28.3968619018
 21
167.2501270402
 31
0.0
  0
LINE
  5
318
330
208
100
AcDbEntity
  8
0
  6
Continuous
 62
     7
100
AcDbLine
 10
-34.8968619018
 20
167.2501270402
 30
0.0
 11
-40.8968619018
 21
167.2501270402
 31
0.0
  0
LINE
  5
319
330
208
100
AcDbEntity
  8
0
  6
Continuous
 62
     7
100
AcDbLine
 10
-47.3968619018
 20
167.2501270402
 30
0.0
 11
-53.3968619018
 21
167.2501270402
 31
0.0
  0
LINE
  5
31A
330
208
100
AcDbEntity
  8
0
  6
Continuous
 62
     7
100
AcDbLine
 10
-59.8968619018
 20
167.2501270402
 30
0.0
 11
-65.89686190180001
 21
167.2501270402
 31
0.0
  0
LINE
  5
31B
330
208
100
AcDbEntity
  8
0
  6
Continuous
 62
     7
100
AcDbLine
 10
481.3532118191
 20
167.2501270402
 30
0.0
 11
482.2772223605999
 21
167.2501270402
 31
0.0
  0
LINE
  5
31C
330
208
100
AcDbEntity
  8
0
  6
Continuous
 62
     7
100
AcDbLine
 10
486.4310538487997
 20
167.2501270402
 30
0.0
 11
487.3540643773
 21
167.2501270402
 31
0.0
  0
LINE
  5
31D
330
208
100
AcDbEntity
  8
0
  6
Continuous
 62
     7
100
AcDbLine
 10
482.3354291729
 20
168.0831270402
 30
0.0
 11
486.3728561248
 21
168.0831270402
 31
0.0
  0
LINE
  5
31E
330
208
100
AcDbEntity
  8
0
  6
Continuous
 62
     7
100
AcDbLine
 10
486.1786008829
 20
169.0061270402
 30
0.0
 11
482.5297159834
 21
169.0061270402
 31
0.0
  0
LINE
  5
31F
330
208
100
AcDbEntity
  8
0
  6
Continuous
 62
     7
100
AcDbLine
 10
202.6031380982
 20
210.7501270402
 30
0.0
 11
202.6031380982
 21
204.7501270402
 31
0.0
  0
LINE
  5
320
330
208
100
AcDbEntity
  8
0
  6
Continuous
 62
     7
100
AcDbLine
 10
202.6031380982
 20
198.2501270402
 30
0.0
 11
202.6031380982
 21
192.2501270402
 31
0.0
  0
LINE
  5
321
330
208
100
AcDbEntity
  8
0
  6
Continuous
 62
     7
100
AcDbLine
 10
202.6031380982
 20
185.7501270402
 30
0.0
 11
202.6031380982
 21
179.7501270402
 31
0.0
  0
LINE
  5
322
330
208
100
AcDbEntity
  8
0
  6
Continuous
 62
     7
100
AcDbLine
 10
202.6031380982
 20
173.2501270402
 30
0.0
 11
202.6031380982
 21
167.2501270402
 31
0.0
  0
LINE
  5
323
330
208
100
AcDbEntity
  8
0
  6
Continuous
 62
     7
100
AcDbLine
 10
209.1031380982
 20
167.2501270402
 30
0.0
 11
209.1031380982
 21
173.2501270402
 31
0.0
  0
LINE
  5
324
330
208
100
AcDbEntity
  8
0
  6
Continuous
 62
     7
100
AcDbLine
 10
209.1031380982
 20
179.7501270402
 30
0.0
 11
209.1031380982
 21
185.7501270402
 31
0.0
  0
LINE
  5
325
330
208
100
AcDbEntity
  8
0
  6
Continuous
 62
     7
100
AcDbLine
 10
209.1031380982
 20
192.2501270402
 30
0.0
 11
209.1031380982
 21
198.2501270402
 31
0.0
  0
LINE
  5
326
330
208
100
AcDbEntity
  8
0
  6
Continuous
 62
     7
100
AcDbLine
 10
209.1031380982
 20
204.7501270402
 30
0.0
 11
209.1031380982
 21
210.7501270402
 31
0.0
  0
LINE
  5
327
330
208
100
AcDbEntity
  8
0
  6
Continuous
 62
     7
100
AcDbLine
 10
215.1031380982
 20
210.7501270402
 30
0.0
 11
215.1031380982
 21
204.7501270402
 31
0.0
  0
LINE
  5
328
330
208
100
AcDbEntity
  8
0
  6
Continuous
 62
     7
100
AcDbLine
 10
215.1031380982
 20
198.2501270402
 30
0.0
 11
215.1031380982
 21
192.2501270402
 31
0.0
  0
LINE
  5
329
330
208
100
AcDbEntity
  8
0
  6
Continuous
 62
     7
100
AcDbLine
 10
215.1031380982
 20
185.7501270402
 30
0.0
 11
215.1031380982
 21
179.7501270402
 31
0.0
  0
LINE
  5
32A
330
208
100
AcDbEntity
  8
0
  6
Continuous
 62
     7
100
AcDbLine
 10
215.1031380982
 20
173.2501270402
 30
0.0
 11
215.1031380982
 21
167.2501270402
 31
0.0
  0
LINE
  5
32B
330
208
100
AcDbEntity
  8
0
  6
Continuous
 62
     7
100
AcDbLine
 10
-65.89686190180001
 20
173.2501270402
 30
0.0
 11
-59.8968619018
 21
173.2501270402
 31
0.0
  0
LINE
  5
32C
330
208
100
AcDbEntity
  8
0
  6
Continuous
 62
     7
100
AcDbLine
 10
-53.3968619018
 20
173.2501270402
 30
0.0
 11
-47.3968619018
 21
173.2501270402
 31
0.0
  0
LINE
  5
32D
330
208
100
AcDbEntity
  8
0
  6
Continuous
 62
     7
100
AcDbLine
 10
-40.8968619018
 20
173.2501270402
 30
0.0
 11
-34.8968619018
 21
173.2501270402
 31
0.0
  0
LINE
  5
32E
330
208
100
AcDbEntity
  8
0
  6
Continuous
 62
     7
100
AcDbLine
 10
-28.3968619018
 20
173.2501270402
 30
0.0
 11
-22.3968619018
 21
173.2501270402
 31
0.0
  0
LINE
  5
32F
330
208
100
AcDbEntity
  8
0
  6
Continuous
 62
     7
100
AcDbLine
 10
-15.8968619018
 20
173.2501270402
 30
0.0
 11
-9.896861901799999
 21
173.2501270402
 31
0.0
  0
LINE
  5
330
330
208
100
AcDbEntity
  8
0
  6
Continuous
 62
     7
100
AcDbLine
 10
-3.396861901799998
 20
173.2501270402
 30
0.0
 11
2.6031380982
 21
173.2501270402
 31
0.0
  0
LINE
  5
331
330
208
100
AcDbEntity
  8
0
  6
Continuous
 62
     7
100
AcDbLine
 10
9.1031380982
 20
173.2501270402
 30
0.0
 11
15.1031380982
 21
173.2501270402
 31
0.0
  0
LINE
  5
332
330
208
100
AcDbEntity
  8
0
  6
Continuous
 62
     7
100
AcDbLine
 10
21.6031380982
 20
173.2501270402
 30
0.0
 11
27.6031380982
 21
173.2501270402
 31
0.0
  0
LINE
  5
333
330
208
100
AcDbEntity
  8
0
  6
Continuous
 62
     7
100
AcDbLine
 10
34.1031380982
 20
173.2501270402
 30
0.0
 11
40.1031380982
 21
173.2501270402
 31
0.0
  0
LINE
  5
334
330
208
100
AcDbEntity
  8
0
  6
Continuous
 62
     7
100
AcDbLine
 10
46.60313809819999
 20
173.2501270402
 30
0.0
 11
52.6031380982
 21
173.2501270402
 31
0.0
  0
LINE
  5
335
330
208
100
AcDbEntity
  8
0
  6
Continuous
 62
     7
100
AcDbLine
 10
59.10313809819999
 20
173.2501270402
 30
0.0
 11
65.10313809819999
 21
173.2501270402
 31
0.0
  0
LINE
  5
336
330
208
100
AcDbEntity
  8
0
  6
Continuous
 62
     7
100
AcDbLine
 10
71.60313809819999
 20
173.2501270402
 30
0.0
 11
77.60313809819999
 21
173.2501270402
 31
0.0
  0
LINE
  5
337
330
208
100
AcDbEntity
  8
0
  6
Continuous
 62
     7
100
AcDbLine
 10
84.10313809819999
 20
173.2501270402
 30
0.0
 11
90.10313809819999
 21
173.2501270402
 31
0.0
  0
LINE
  5
338
330
208
100
AcDbEntity
  8
0
  6
Continuous
 62
     7
100
AcDbLine
 10
96.60313809819999
 20
173.2501270402
 30
0.0
 11
102.6031380982
 21
173.2501270402
 31
0.0
  0
LINE
  5
339
330
208
100
AcDbEntity
  8
0
  6
Continuous
 62
     7
100
AcDbLine
 10
109.1031380982
 20
173.2501270402
 30
0.0
 11
115.1031380982
 21
173.2501270402
 31
0.0
  0
LINE
  5
33A
330
208
100
AcDbEntity
  8
0
  6
Continuous
 62
     7
100
AcDbLine
 10
121.6031380982
 20
173.2501270402
 30
0.0
 11
127.6031380982
 21
173.2501270402
 31
0.0
  0
LINE
  5
33B
330
208
100
AcDbEntity
  8
0
  6
Continuous
 62
     7
100
AcDbLine
 10
134.1031380982
 20
173.2501270402
 30
0.0
 11
140.1031380982
 21
173.2501270402
 31
0.0
  0
LINE
  5
33C
330
208
100
AcDbEntity
  8
0
  6
Continuous
 62
     7
100
AcDbLine
 10
146.6031380982
 20
173.2501270402
 30
0.0
 11
152.6031380982
 21
173.2501270402
 31
0.0
  0
LINE
  5
33D
330
208
100
AcDbEntity
  8
0
  6
Continuous
 62
     7
100
AcDbLine
 10
159.1031380982
 20
173.2501270402
 30
0.0
 11
165.1031380982
 21
173.2501270402
 31
0.0
  0
LINE
  5
33E
330
208
100
AcDbEntity
  8
0
  6
Continuous
 62
     7
100
AcDbLine
 10
171.6031380982
 20
173.2501270402
 30
0.0
 11
177.6031380982
 21
173.2501270402
 31
0.0
  0
LINE
  5
33F
330
208
100
AcDbEntity
  8
0
  6
Continuous
 62
     7
100
AcDbLine
 10
184.1031380982
 20
173.2501270402
 30
0.0
 11
190.1031380982
 21
173.2501270402
 31
0.0
  0
LINE
  5
340
330
208
100
AcDbEntity
  8
0
  6
Continuous
 62
     7
100
AcDbLine
 10
196.6031380982
 20
173.2501270402
 30
0.0
 11
202.6031380982
 21
173.2501270402
 31
0.0
  0
LINE
  5
341
330
208
100
AcDbEntity
  8
0
  6
Continuous
 62
     7
100
AcDbLine
 10
209.1031380982
 20
173.2501270402
 30
0.0
 11
215.1031380982
 21
173.2501270402
 31
0.0
  0
LINE
  5
342
330
208
100
AcDbEntity
  8
0
  6
Continuous
 62
     7
100
AcDbLine
 10
221.6031380982
 20
173.2501270402
 30
0.0
 11
227.6031380982
 21
173.2501270402
 31
0.0
  0
LINE
  5
343
330
208
100
AcDbEntity
  8
0
  6
Continuous
 62
     7
100
AcDbLine
 10
234.1031380982
 20
173.2501270402
 30
0.0
 11
240.1031380982
 21
173.2501270402
 31
0.0
  0
LINE
  5
344
330
208
100
AcDbEntity
  8
0
  6
Continuous
 62
     7
100
AcDbLine
 10
246.6031380982
 20
173.2501270402
 30
0.0
 11
252.6031380982
 21
173.2501270402
 31
0.0
  0
LINE
  5
345
330
208
100
AcDbEntity
  8
0
  6
Continuous
 62
     7
100
AcDbLine
 10
259.1031380982
 20
173.2501270402
 30
0.0
 11
265.1031380982
 21
173.2501270402
 31
0.0
  0
LINE
  5
346
330
208
100
AcDbEntity
  8
0
  6
Continuous
 62
     7
100
AcDbLine
 10
271.6031380982
 20
173.2501270402
 30
0.0
 11
277.6031380982
 21
173.2501270402
 31
0.0
  0
LINE
  5
347
330
208
100
AcDbEntity
  8
0
  6
Continuous
 62
     7
100
AcDbLine
 10
284.1031380982
 20
173.2501270402
 30
0.0
 11
290.1031380982
 21
173.2501270402
 31
0.0
  0
LINE
  5
348
330
208
100
AcDbEntity
  8
0
  6
Continuous
 62
     7
100
AcDbLine
 10
296.6031380982
 20
173.2501270402
 30
0.0
 11
302.6031380982
 21
173.2501270402
 31
0.0
  0
LINE
  5
349
330
208
100
AcDbEntity
  8
0
  6
Continuous
 62
     7
100
AcDbLine
 10
309.1031380982
 20
173.2501270402
 30
0.0
 11
315.1031380982
 21
173.2501270402
 31
0.0
  0
LINE
  5
34A
330
208
100
AcDbEntity
  8
0
  6
Continuous
 62
     7
100
AcDbLine
 10
321.6031380982
 20
173.2501270402
 30
0.0
 11
327.6031380982
 21
173.2501270402
 31
0.0
  0
LINE
  5
34B
330
208
100
AcDbEntity
  8
0
  6
Continuous
 62
     7
100
AcDbLine
 10
334.1031380982
 20
173.2501270402
 30
0.0
 11
340.1031380982
 21
173.2501270402
 31
0.0
  0
LINE
  5
34C
330
208
100
AcDbEntity
  8
0
  6
Continuous
 62
     7
100
AcDbLine
 10
346.6031380982
 20
173.2501270402
 30
0.0
 11
352.6031380982
 21
173.2501270402
 31
0.0
  0
LINE
  5
34D
330
208
100
AcDbEntity
  8
0
  6
Continuous
 62
     7
100
AcDbLine
 10
359.1031380982
 20
173.2501270402
 30
0.0
 11
365.1031380982
 21
173.2501270402
 31
0.0
  0
LINE
  5
34E
330
208
100
AcDbEntity
  8
0
  6
Continuous
 62
     7
100
AcDbLine
 10
371.6031380982
 20
173.2501270402
 30
0.0
 11
377.6031380982
 21
173.2501270402
 31
0.0
  0
LINE
  5
34F
330
208
100
AcDbEntity
  8
0
  6
Continuous
 62
     7
100
AcDbLine
 10
384.1031380982
 20
173.2501270402
 30
0.0
 11
390.1031380982
 21
173.2501270402
 31
0.0
  0
LINE
  5
350
330
208
100
AcDbEntity
  8
0
  6
Continuous
 62
     7
100
AcDbLine
 10
396.6031380982
 20
173.2501270402
 30
0.0
 11
402.6031380982
 21
173.2501270402
 31
0.0
  0
LINE
  5
351
330
208
100
AcDbEntity
  8
0
  6
Continuous
 62
     7
100
AcDbLine
 10
409.1031380982
 20
173.2501270402
 30
0.0
 11
415.1031380982
 21
173.2501270402
 31
0.0
  0
LINE
  5
352
330
208
100
AcDbEntity
  8
0
  6
Continuous
 62
     7
100
AcDbLine
 10
421.6031380982
 20
173.2501270402
 30
0.0
 11
427.6031380982
 21
173.2501270402
 31
0.0
  0
LINE
  5
353
330
208
100
AcDbEntity
  8
0
  6
Continuous
 62
     7
100
AcDbLine
 10
434.1031380982
 20
173.2501270402
 30
0.0
 11
440.1031380982
 21
173.2501270402
 31
0.0
  0
LINE
  5
354
330
208
100
AcDbEntity
  8
0
  6
Continuous
 62
     7
100
AcDbLine
 10
446.6031380982
 20
173.2501270402
 30
0.0
 11
452.6031380982
 21
173.2501270402
 31
0.0
  0
LINE
  5
355
330
208
100
AcDbEntity
  8
0
  6
Continuous
 62
     7
100
AcDbLine
 10
459.1031380982
 20
173.2501270402
 30
0.0
 11
465.1031380982
 21
173.2501270402
 31
0.0
  0
LINE
  5
356
330
208
100
AcDbEntity
  8
0
  6
Continuous
 62
     7
100
AcDbLine
 10
471.6031380982
 20
173.2501270402
 30
0.0
 11
477.6031380982
 21
173.2501270402
 31
0.0
  0
LINE
  5
357
330
208
100
AcDbEntity
  8
0
  6
Continuous
 62
     7
100
AcDbLine
 10
502.6031380982
 20
179.7501270402
 30
0.0
 11
496.6031380982
 21
179.7501270402
 31
0.0
  0
LINE
  5
358
330
208
100
AcDbEntity
  8
0
  6
Continuous
 62
     7
100
AcDbLine
 10
490.1031380982
 20
179.7501270402
 30
0.0
 11
484.1031380982
 21
179.7501270402
 31
0.0
  0
LINE
  5
359
330
208
100
AcDbEntity
  8
0
  6
Continuous
 62
     7
100
AcDbLine
 10
477.6031380982
 20
179.7501270402
 30
0.0
 11
471.6031380982
 21
179.7501270402
 31
0.0
  0
LINE
  5
35A
330
208
100
AcDbEntity
  8
0
  6
Continuous
 62
     7
100
AcDbLine
 10
465.1031380982
 20
179.7501270402
 30
0.0
 11
459.1031380982
 21
179.7501270402
 31
0.0
  0
LINE
  5
35B
330
208
100
AcDbEntity
  8
0
  6
Continuous
 62
     7
100
AcDbLine
 10
452.6031380982
 20
179.7501270402
 30
0.0
 11
446.6031380982
 21
179.7501270402
 31
0.0
  0
LINE
  5
35C
330
208
100
AcDbEntity
  8
0
  6
Continuous
 62
     7
100
AcDbLine
 10
440.1031380982
 20
179.7501270402
 30
0.0
 11
434.1031380982
 21
179.7501270402
 31
0.0
  0
LINE
  5
35D
330
208
100
AcDbEntity
  8
0
  6
Continuous
 62
     7
100
AcDbLine
 10
427.6031380982
 20
179.7501270402
 30
0.0
 11
421.6031380982
 21
179.7501270402
 31
0.0
  0
LINE
  5
35E
330
208
100
AcDbEntity
  8
0
  6
Continuous
 62
     7
100
AcDbLine
 10
415.1031380982
 20
179.7501270402
 30
0.0
 11
409.1031380982
 21
179.7501270402
 31
0.0
  0
LINE
  5
35F
330
208
100
AcDbEntity
  8
0
  6
Continuous
 62
     7
100
AcDbLine
 10
402.6031380982
 20
179.7501270402
 30
0.0
 11
396.6031380982
 21
179.7501270402
 31
0.0
  0
LINE
  5
360
330
208
100
AcDbEntity
  8
0
  6
Continuous
 62
     7
100
AcDbLine
 10
390.1031380982
 20
179.7501270402
 30
0.0
 11
384.1031380982
 21
179.7501270402
 31
0.0
  0
LINE
  5
361
330
208
100
AcDbEntity
  8
0
  6
Continuous
 62
     7
100
AcDbLine
 10
377.6031380982
 20
179.7501270402
 30
0.0
 11
371.6031380982
 21
179.7501270402
 31
0.0
  0
LINE
  5
362
330
208
100
AcDbEntity
  8
0
  6
Continuous
 62
     7
100
AcDbLine
 10
365.1031380982
 20
179.7501270402
 30
0.0
 11
359.1031380982
 21
179.7501270402
 31
0.0
  0
LINE
  5
363
330
208
100
AcDbEntity
  8
0
  6
Continuous
 62
     7
100
AcDbLine
 10
352.6031380982
 20
179.7501270402
 30
0.0
 11
346.6031380982
 21
179.7501270402
 31
0.0
  0
LINE
  5
364
330
208
100
AcDbEntity
  8
0
  6
Continuous
 62
     7
100
AcDbLine
 10
340.1031380982
 20
179.7501270402
 30
0.0
 11
334.1031380982
 21
179.7501270402
 31
0.0
  0
LINE
  5
365
330
208
100
AcDbEntity
  8
0
  6
Continuous
 62
     7
100
AcDbLine
 10
327.6031380982
 20
179.7501270402
 30
0.0
 11
321.6031380982
 21
179.7501270402
 31
0.0
  0
LINE
  5
366
330
208
100
AcDbEntity
  8
0
  6
Continuous
 62
     7
100
AcDbLine
 10
315.1031380982
 20
179.7501270402
 30
0.0
 11
309.1031380982
 21
179.7501270402
 31
0.0
  0
LINE
  5
367
330
208
100
AcDbEntity
  8
0
  6
Continuous
 62
     7
100
AcDbLine
 10
302.6031380982
 20
179.7501270402
 30
0.0
 11
296.6031380982
 21
179.7501270402
 31
0.0
  0
LINE
  5
368
330
208
100
AcDbEntity
  8
0
  6
Continuous
 62
     7
100
AcDbLine
 10
290.1031380982
 20
179.7501270402
 30
0.0
 11
284.1031380982
 21
179.7501270402
 31
0.0
  0
LINE
  5
369
330
208
100
AcDbEntity
  8
0
  6
Continuous
 62
     7
100
AcDbLine
 10
277.6031380982
 20
179.7501270402
 30
0.0
 11
271.6031380982
 21
179.7501270402
 31
0.0
  0
LINE
  5
36A
330
208
100
AcDbEntity
  8
0
  6
Continuous
 62
     7
100
AcDbLine
 10
265.1031380982
 20
179.7501270402
 30
0.0
 11
259.1031380982
 21
179.7501270402
 31
0.0
  0
LINE
  5
36B
330
208
100
AcDbEntity
  8
0
  6
Continuous
 62
     7
100
AcDbLine
 10
252.6031380982
 20
179.7501270402
 30
0.0
 11
246.6031380982
 21
179.7501270402
 31
0.0
  0
LINE
  5
36C
330
208
100
AcDbEntity
  8
0
  6
Continuous
 62
     7
100
AcDbLine
 10
240.1031380982
 20
179.7501270402
 30
0.0
 11
234.1031380982
 21
179.7501270402
 31
0.0
  0
LINE
  5
36D
330
208
100
AcDbEntity
  8
0
  6
Continuous
 62
     7
100
AcDbLine
 10
227.6031380982
 20
179.7501270402
 30
0.0
 11
221.6031380982
 21
179.7501270402
 31
0.0
  0
LINE
  5
36E
330
208
100
AcDbEntity
  8
0
  6
Continuous
 62
     7
100
AcDbLine
 10
215.1031380982
 20
179.7501270402
 30
0.0
 11
209.1031380982
 21
179.7501270402
 31
0.0
  0
LINE
  5
36F
330
208
100
AcDbEntity
  8
0
  6
Continuous
 62
     7
100
AcDbLine
 10
202.6031380982
 20
179.7501270402
 30
0.0
 11
196.6031380982
 21
179.7501270402
 31
0.0
  0
LINE
  5
370
330
208
100
AcDbEntity
  8
0
  6
Continuous
 62
     7
100
AcDbLine
 10
190.1031380982
 20
179.7501270402
 30
0.0
 11
184.1031380982
 21
179.7501270402
 31
0.0
  0
LINE
  5
371
330
208
100
AcDbEntity
  8
0
  6
Continuous
 62
     7
100
AcDbLine
 10
177.6031380982
 20
179.7501270402
 30
0.0
 11
171.6031380982
 21
179.7501270402
 31
0.0
  0
LINE
  5
372
330
208
100
AcDbEntity
  8
0
  6
Continuous
 62
     7
100
AcDbLine
 10
165.1031380982
 20
179.7501270402
 30
0.0
 11
159.1031380982
 21
179.7501270402
 31
0.0
  0
LINE
  5
373
330
208
100
AcDbEntity
  8
0
  6
Continuous
 62
     7
100
AcDbLine
 10
152.6031380982
 20
179.7501270402
 30
0.0
 11
146.6031380982
 21
179.7501270402
 31
0.0
  0
LINE
  5
374
330
208
100
AcDbEntity
  8
0
  6
Continuous
 62
     7
100
AcDbLine
 10
140.1031380982
 20
179.7501270402
 30
0.0
 11
134.1031380982
 21
179.7501270402
 31
0.0
  0
LINE
  5
375
330
208
100
AcDbEntity
  8
0
  6
Continuous
 62
     7
100
AcDbLine
 10
127.6031380982
 20
179.7501270402
 30
0.0
 11
121.6031380982
 21
179.7501270402
 31
0.0
  0
LINE
  5
376
330
208
100
AcDbEntity
  8
0
  6
Continuous
 62
     7
100
AcDbLine
 10
115.1031380982
 20
179.7501270402
 30
0.0
 11
109.1031380982
 21
179.7501270402
 31
0.0
  0
LINE
  5
377
330
208
100
AcDbEntity
  8
0
  6
Continuous
 62
     7
100
AcDbLine
 10
102.6031380982
 20
179.7501270402
 30
0.0
 11
96.60313809819999
 21
179.7501270402
 31
0.0
  0
LINE
  5
378
330
208
100
AcDbEntity
  8
0
  6
Continuous
 62
     7
100
AcDbLine
 10
90.10313809819999
 20
179.7501270402
 30
0.0
 11
84.10313809819999
 21
179.7501270402
 31
0.0
  0
LINE
  5
379
330
208
100
AcDbEntity
  8
0
  6
Continuous
 62
     7
100
AcDbLine
 10
77.60313809819999
 20
179.7501270402
 30
0.0
 11
71.60313809819999
 21
179.7501270402
 31
0.0
  0
LINE
  5
37A
330
208
100
AcDbEntity
  8
0
  6
Continuous
 62
     7
100
AcDbLine
 10
65.10313809819999
 20
179.7501270402
 30
0.0
 11
59.10313809819999
 21
179.7501270402
 31
0.0
  0
LINE
  5
37B
330
208
100
AcDbEntity
  8
0
  6
Continuous
 62
     7
100
AcDbLine
 10
52.6031380982
 20
179.7501270402
 30
0.0
 11
46.60313809819999
 21
179.7501270402
 31
0.0
  0
LINE
  5
37C
330
208
100
AcDbEntity
  8
0
  6
Continuous
 62
     7
100
AcDbLine
 10
40.1031380982
 20
179.7501270402
 30
0.0
 11
34.1031380982
 21
179.7501270402
 31
0.0
  0
LINE
  5
37D
330
208
100
AcDbEntity
  8
0
  6
Continuous
 62
     7
100
AcDbLine
 10
27.6031380982
 20
179.7501270402
 30
0.0
 11
21.6031380982
 21
179.7501270402
 31
0.0
  0
LINE
  5
37E
330
208
100
AcDbEntity
  8
0
  6
Continuous
 62
     7
100
AcDbLine
 10
15.1031380982
 20
179.7501270402
 30
0.0
 11
9.1031380982
 21
179.7501270402
 31
0.0
  0
LINE
  5
37F
330
208
100
AcDbEntity
  8
0
  6
Continuous
 62
     7
100
AcDbLine
 10
2.6031380982
 20
179.7501270402
 30
0.0
 11
-3.396861901799998
 21
179.7501270402
 31
0.0
  0
LINE
  5
380
330
208
100
AcDbEntity
  8
0
  6
Continuous
 62
     7
100
AcDbLine
 10
-9.896861901799999
 20
179.7501270402
 30
0.0
 11
-15.8968619018
 21
179.7501270402
 31
0.0
  0
LINE
  5
381
330
208
100
AcDbEntity
  8
0
  6
Continuous
 62
     7
100
AcDbLine
 10
-22.3968619018
 20
179.7501270402
 30
0.0
 11
-28.3968619018
 21
179.7501270402
 31
0.0
  0
LINE
  5
382
330
208
100
AcDbEntity
  8
0
  6
Continuous
 62
     7
100
AcDbLine
 10
-34.8968619018
 20
179.7501270402
 30
0.0
 11
-40.8968619018
 21
179.7501270402
 31
0.0
  0
LINE
  5
383
330
208
100
AcDbEntity
  8
0
  6
Continuous
 62
     7
100
AcDbLine
 10
-47.3968619018
 20
179.7501270402
 30
0.0
 11
-53.3968619018
 21
179.7501270402
 31
0.0
  0
LINE
  5
384
330
208
100
AcDbEntity
  8
0
  6
Continuous
 62
     7
100
AcDbLine
 10
-59.8968619018
 20
179.7501270402
 30
0.0
 11
-65.89686190180001
 21
179.7501270402
 31
0.0
  0
LINE
  5
385
330
208
100
AcDbEntity
  8
0
  6
Continuous
 62
     7
100
AcDbLine
 10
-65.89686190180001
 20
185.7501270402
 30
0.0
 11
-59.8968619018
 21
185.7501270402
 31
0.0
  0
LINE
  5
386
330
208
100
AcDbEntity
  8
0
  6
Continuous
 62
     7
100
AcDbLine
 10
-53.3968619018
 20
185.7501270402
 30
0.0
 11
-47.3968619018
 21
185.7501270402
 31
0.0
  0
LINE
  5
387
330
208
100
AcDbEntity
  8
0
  6
Continuous
 62
     7
100
AcDbLine
 10
-40.8968619018
 20
185.7501270402
 30
0.0
 11
-34.8968619018
 21
185.7501270402
 31
0.0
  0
LINE
  5
388
330
208
100
AcDbEntity
  8
0
  6
Continuous
 62
     7
100
AcDbLine
 10
-28.3968619018
 20
185.7501270402
 30
0.0
 11
-22.3968619018
 21
185.7501270402
 31
0.0
  0
LINE
  5
389
330
208
100
AcDbEntity
  8
0
  6
Continuous
 62
     7
100
AcDbLine
 10
-15.8968619018
 20
185.7501270402
 30
0.0
 11
-9.896861901799999
 21
185.7501270402
 31
0.0
  0
LINE
  5
38A
330
208
100
AcDbEntity
  8
0
  6
Continuous
 62
     7
100
AcDbLine
 10
-3.396861901799998
 20
185.7501270402
 30
0.0
 11
2.6031380982
 21
185.7501270402
 31
0.0
  0
LINE
  5
38B
330
208
100
AcDbEntity
  8
0
  6
Continuous
 62
     7
100
AcDbLine
 10
9.1031380982
 20
185.7501270402
 30
0.0
 11
15.1031380982
 21
185.7501270402
 31
0.0
  0
LINE
  5
38C
330
208
100
AcDbEntity
  8
0
  6
Continuous
 62
     7
100
AcDbLine
 10
21.6031380982
 20
185.7501270402
 30
0.0
 11
27.6031380982
 21
185.7501270402
 31
0.0
  0
LINE
  5
38D
330
208
100
AcDbEntity
  8
0
  6
Continuous
 62
     7
100
AcDbLine
 10
34.1031380982
 20
185.7501270402
 30
0.0
 11
40.1031380982
 21
185.7501270402
 31
0.0
  0
LINE
  5
38E
330
208
100
AcDbEntity
  8
0
  6
Continuous
 62
     7
100
AcDbLine
 10
46.60313809819999
 20
185.7501270402
 30
0.0
 11
52.6031380982
 21
185.7501270402
 31
0.0
  0
LINE
  5
38F
330
208
100
AcDbEntity
  8
0
  6
Continuous
 62
     7
100
AcDbLine
 10
59.10313809819999
 20
185.7501270402
 30
0.0
 11
65.10313809819999
 21
185.7501270402
 31
0.0
  0
LINE
  5
390
330
208
100
AcDbEntity
  8
0
  6
Continuous
 62
     7
100
AcDbLine
 10
71.60313809819999
 20
185.7501270402
 30
0.0
 11
77.60313809819999
 21
185.7501270402
 31
0.0
  0
LINE
  5
391
330
208
100
AcDbEntity
  8
0
  6
Continuous
 62
     7
100
AcDbLine
 10
84.10313809819999
 20
185.7501270402
 30
0.0
 11
90.10313809819999
 21
185.7501270402
 31
0.0
  0
LINE
  5
392
330
208
100
AcDbEntity
  8
0
  6
Continuous
 62
     7
100
AcDbLine
 10
96.60313809819999
 20
185.7501270402
 30
0.0
 11
102.6031380982
 21
185.7501270402
 31
0.0
  0
LINE
  5
393
330
208
100
AcDbEntity
  8
0
  6
Continuous
 62
     7
100
AcDbLine
 10
109.1031380982
 20
185.7501270402
 30
0.0
 11
115.1031380982
 21
185.7501270402
 31
0.0
  0
LINE
  5
394
330
208
100
AcDbEntity
  8
0
  6
Continuous
 62
     7
100
AcDbLine
 10
121.6031380982
 20
185.7501270402
 30
0.0
 11
127.6031380982
 21
185.7501270402
 31
0.0
  0
LINE
  5
395
330
208
100
AcDbEntity
  8
0
  6
Continuous
 62
     7
100
AcDbLine
 10
134.1031380982
 20
185.7501270402
 30
0.0
 11
140.1031380982
 21
185.7501270402
 31
0.0
  0
LINE
  5
396
330
208
100
AcDbEntity
  8
0
  6
Continuous
 62
     7
100
AcDbLine
 10
146.6031380982
 20
185.7501270402
 30
0.0
 11
152.6031380982
 21
185.7501270402
 31
0.0
  0
LINE
  5
397
330
208
100
AcDbEntity
  8
0
  6
Continuous
 62
     7
100
AcDbLine
 10
159.1031380982
 20
185.7501270402
 30
0.0
 11
165.1031380982
 21
185.7501270402
 31
0.0
  0
LINE
  5
398
330
208
100
AcDbEntity
  8
0
  6
Continuous
 62
     7
100
AcDbLine
 10
171.6031380982
 20
185.7501270402
 30
0.0
 11
177.6031380982
 21
185.7501270402
 31
0.0
  0
LINE
  5
399
330
208
100
AcDbEntity
  8
0
  6
Continuous
 62
     7
100
AcDbLine
 10
184.1031380982
 20
185.7501270402
 30
0.0
 11
190.1031380982
 21
185.7501270402
 31
0.0
  0
LINE
  5
39A
330
208
100
AcDbEntity
  8
0
  6
Continuous
 62
     7
100
AcDbLine
 10
196.6031380982
 20
185.7501270402
 30
0.0
 11
202.6031380982
 21
185.7501270402
 31
0.0
  0
LINE
  5
39B
330
208
100
AcDbEntity
  8
0
  6
Continuous
 62
     7
100
AcDbLine
 10
209.1031380982
 20
185.7501270402
 30
0.0
 11
215.1031380982
 21
185.7501270402
 31
0.0
  0
LINE
  5
39C
330
208
100
AcDbEntity
  8
0
  6
Continuous
 62
     7
100
AcDbLine
 10
221.6031380982
 20
185.7501270402
 30
0.0
 11
227.6031380982
 21
185.7501270402
 31
0.0
  0
LINE
  5
39D
330
208
100
AcDbEntity
  8
0
  6
Continuous
 62
     7
100
AcDbLine
 10
234.1031380982
 20
185.7501270402
 30
0.0
 11
240.1031380982
 21
185.7501270402
 31
0.0
  0
LINE
  5
39E
330
208
100
AcDbEntity
  8
0
  6
Continuous
 62
     7
100
AcDbLine
 10
246.6031380982
 20
185.7501270402
 30
0.0
 11
252.6031380982
 21
185.7501270402
 31
0.0
  0
LINE
  5
39F
330
208
100
AcDbEntity
  8
0
  6
Continuous
 62
     7
100
AcDbLine
 10
259.1031380982
 20
185.7501270402
 30
0.0
 11
265.1031380982
 21
185.7501270402
 31
0.0
  0
LINE
  5
3A0
330
208
100
AcDbEntity
  8
0
  6
Continuous
 62
     7
100
AcDbLine
 10
271.6031380982
 20
185.7501270402
 30
0.0
 11
277.6031380982
 21
185.7501270402
 31
0.0
  0
LINE
  5
3A1
330
208
100
AcDbEntity
  8
0
  6
Continuous
 62
     7
100
AcDbLine
 10
284.1031380982
 20
185.7501270402
 30
0.0
 11
290.1031380982
 21
185.7501270402
 31
0.0
  0
LINE
  5
3A2
330
208
100
AcDbEntity
  8
0
  6
Continuous
 62
     7
100
AcDbLine
 10
296.6031380982
 20
185.7501270402
 30
0.0
 11
302.6031380982
 21
185.7501270402
 31
0.0
  0
LINE
  5
3A3
330
208
100
AcDbEntity
  8
0
  6
Continuous
 62
     7
100
AcDbLine
 10
309.1031380982
 20
185.7501270402
 30
0.0
 11
315.1031380982
 21
185.7501270402
 31
0.0
  0
LINE
  5
3A4
330
208
100
AcDbEntity
  8
0
  6
Continuous
 62
     7
100
AcDbLine
 10
321.6031380982
 20
185.7501270402
 30
0.0
 11
327.6031380982
 21
185.7501270402
 31
0.0
  0
LINE
  5
3A5
330
208
100
AcDbEntity
  8
0
  6
Continuous
 62
     7
100
AcDbLine
 10
334.1031380982
 20
185.7501270402
 30
0.0
 11
340.1031380982
 21
185.7501270402
 31
0.0
  0
LINE
  5
3A6
330
208
100
AcDbEntity
  8
0
  6
Continuous
 62
     7
100
AcDbLine
 10
346.6031380982
 20
185.7501270402
 30
0.0
 11
352.6031380982
 21
185.7501270402
 31
0.0
  0
LINE
  5
3A7
330
208
100
AcDbEntity
  8
0
  6
Continuous
 62
     7
100
AcDbLine
 10
359.1031380982
 20
185.7501270402
 30
0.0
 11
365.1031380982
 21
185.7501270402
 31
0.0
  0
LINE
  5
3A8
330
208
100
AcDbEntity
  8
0
  6
Continuous
 62
     7
100
AcDbLine
 10
371.6031380982
 20
185.7501270402
 30
0.0
 11
377.6031380982
 21
185.7501270402
 31
0.0
  0
LINE
  5
3A9
330
208
100
AcDbEntity
  8
0
  6
Continuous
 62
     7
100
AcDbLine
 10
384.1031380982
 20
185.7501270402
 30
0.0
 11
390.1031380982
 21
185.7501270402
 31
0.0
  0
LINE
  5
3AA
330
208
100
AcDbEntity
  8
0
  6
Continuous
 62
     7
100
AcDbLine
 10
396.6031380982
 20
185.7501270402
 30
0.0
 11
402.6031380982
 21
185.7501270402
 31
0.0
  0
LINE
  5
3AB
330
208
100
AcDbEntity
  8
0
  6
Continuous
 62
     7
100
AcDbLine
 10
409.1031380982
 20
185.7501270402
 30
0.0
 11
415.1031380982
 21
185.7501270402
 31
0.0
  0
LINE
  5
3AC
330
208
100
AcDbEntity
  8
0
  6
Continuous
 62
     7
100
AcDbLine
 10
421.6031380982
 20
185.7501270402
 30
0.0
 11
427.6031380982
 21
185.7501270402
 31
0.0
  0
LINE
  5
3AD
330
208
100
AcDbEntity
  8
0
  6
Continuous
 62
     7
100
AcDbLine
 10
434.1031380982
 20
185.7501270402
 30
0.0
 11
440.1031380982
 21
185.7501270402
 31
0.0
  0
LINE
  5
3AE
330
208
100
AcDbEntity
  8
0
  6
Continuous
 62
     7
100
AcDbLine
 10
446.6031380982
 20
185.7501270402
 30
0.0
 11
452.6031380982
 21
185.7501270402
 31
0.0
  0
LINE
  5
3AF
330
208
100
AcDbEntity
  8
0
  6
Continuous
 62
     7
100
AcDbLine
 10
459.1031380982
 20
185.7501270402
 30
0.0
 11
465.1031380982
 21
185.7501270402
 31
0.0
  0
LINE
  5
3B0
330
208
100
AcDbEntity
  8
0
  6
Continuous
 62
     7
100
AcDbLine
 10
471.6031380982
 20
185.7501270402
 30
0.0
 11
477.6031380982
 21
185.7501270402
 31
0.0
  0
LINE
  5
3B1
330
208
100
AcDbEntity
  8
0
  6
Continuous
 62
     7
100
AcDbLine
 10
484.1031380982
 20
185.7501270402
 30
0.0
 11
490.1031380982
 21
185.7501270402
 31
0.0
  0
LINE
  5
3B2
330
208
100
AcDbEntity
  8
0
  6
Continuous
 62
     7
100
AcDbLine
 10
496.6031380982
 20
185.7501270402
 30
0.0
 11
502.6031380982
 21
185.7501270402
 31
0.0
  0
LINE
  5
3B3
330
208
100
AcDbEntity
  8
0
  6
CENTER
100
AcDbLine
 10
-73.64686190180001
 20
188.7501270402
 30
0.0
 11
510.3531380981998
 21
188.7501270402
 31
0.0
  0
LINE
  5
3B4
330
208
100
AcDbEntity
  8
0
  6
Continuous
 62
     7
100
AcDbLine
 10
221.6031380982
 20
167.2501270402
 30
0.0
 11
221.6031380982
 21
173.2501270402
 31
0.0
  0
LINE
  5
3B5
330
208
100
AcDbEntity
  8
0
  6
Continuous
 62
     7
100
AcDbLine
 10
221.6031380982
 20
179.7501270402
 30
0.0
 11
221.6031380982
 21
185.7501270402
 31
0.0
  0
LINE
  5
3B6
330
208
100
AcDbEntity
  8
0
  6
Continuous
 62
     7
100
AcDbLine
 10
221.6031380982
 20
192.2501270402
 30
0.0
 11
221.6031380982
 21
198.2501270402
 31
0.0
  0
LINE
  5
3B7
330
208
100
AcDbEntity
  8
0
  6
Continuous
 62
     7
100
AcDbLine
 10
221.6031380982
 20
204.7501270402
 30
0.0
 11
221.6031380982
 21
210.7501270402
 31
0.0
  0
LINE
  5
3B8
330
208
100
AcDbEntity
  8
0
  6
Continuous
 62
     7
100
AcDbLine
 10
227.6031380982
 20
210.7501270402
 30
0.0
 11
227.6031380982
 21
204.7501270402
 31
0.0
  0
LINE
  5
3B9
330
208
100
AcDbEntity
  8
0
  6
Continuous
 62
     7
100
AcDbLine
 10
227.6031380982
 20
198.2501270402
 30
0.0
 11
227.6031380982
 21
192.2501270402
 31
0.0
  0
LINE
  5
3BA
330
208
100
AcDbEntity
  8
0
  6
Continuous
 62
     7
100
AcDbLine
 10
227.6031380982
 20
185.7501270402
 30
0.0
 11
227.6031380982
 21
179.7501270402
 31
0.0
  0
LINE
  5
3BB
330
208
100
AcDbEntity
  8
0
  6
Continuous
 62
     7
100
AcDbLine
 10
227.6031380982
 20
173.2501270402
 30
0.0
 11
227.6031380982
 21
167.2501270402
 31
0.0
  0
LINE
  5
3BC
330
208
100
AcDbEntity
  8
0
  6
Continuous
 62
     7
100
AcDbLine
 10
234.1031380982
 20
167.2501270402
 30
0.0
 11
234.1031380982
 21
173.2501270402
 31
0.0
  0
LINE
  5
3BD
330
208
100
AcDbEntity
  8
0
  6
Continuous
 62
     7
100
AcDbLine
 10
234.1031380982
 20
179.7501270402
 30
0.0
 11
234.1031380982
 21
185.7501270402
 31
0.0
  0
LINE
  5
3BE
330
208
100
AcDbEntity
  8
0
  6
Continuous
 62
     7
100
AcDbLine
 10
234.1031380982
 20
192.2501270402
 30
0.0
 11
234.1031380982
 21
198.2501270402
 31
0.0
  0
LINE
  5
3BF
330
208
100
AcDbEntity
  8
0
  6
Continuous
 62
     7
100
AcDbLine
 10
234.1031380982
 20
204.7501270402
 30
0.0
 11
234.1031380982
 21
210.7501270402
 31
0.0
  0
LINE
  5
3C0
330
208
100
AcDbEntity
  8
0
  6
Continuous
 62
     7
100
AcDbLine
 10
240.1031380982
 20
210.7501270402
 30
0.0
 11
240.1031380982
 21
204.7501270402
 31
0.0
  0
LINE
  5
3C1
330
208
100
AcDbEntity
  8
0
  6
Continuous
 62
     7
100
AcDbLine
 10
240.1031380982
 20
198.2501270402
 30
0.0
 11
240.1031380982
 21
192.2501270402
 31
0.0
  0
LINE
  5
3C2
330
208
100
AcDbEntity
  8
0
  6
Continuous
 62
     7
100
AcDbLine
 10
240.1031380982
 20
185.7501270402
 30
0.0
 11
240.1031380982
 21
179.7501270402
 31
0.0
  0
LINE
  5
3C3
330
208
100
AcDbEntity
  8
0
  6
Continuous
 62
     7
100
AcDbLine
 10
240.1031380982
 20
173.2501270402
 30
0.0
 11
240.1031380982
 21
167.2501270402
 31
0.0
  0
LINE
  5
3C4
330
208
100
AcDbEntity
  8
0
  6
Continuous
 62
     7
100
AcDbLine
 10
502.6031380982
 20
192.2501270402
 30
0.0
 11
496.6031380982
 21
192.2501270402
 31
0.0
  0
LINE
  5
3C5
330
208
100
AcDbEntity
  8
0
  6
Continuous
 62
     7
100
AcDbLine
 10
490.1031380982
 20
192.2501270402
 30
0.0
 11
484.1031380982
 21
192.2501270402
 31
0.0
  0
LINE
  5
3C6
330
208
100
AcDbEntity
  8
0
  6
Continuous
 62
     7
100
AcDbLine
 10
477.6031380982
 20
192.2501270402
 30
0.0
 11
471.6031380982
 21
192.2501270402
 31
0.0
  0
LINE
  5
3C7
330
208
100
AcDbEntity
  8
0
  6
Continuous
 62
     7
100
AcDbLine
 10
465.1031380982
 20
192.2501270402
 30
0.0
 11
459.1031380982
 21
192.2501270402
 31
0.0
  0
LINE
  5
3C8
330
208
100
AcDbEntity
  8
0
  6
Continuous
 62
     7
100
AcDbLine
 10
452.6031380982
 20
192.2501270402
 30
0.0
 11
446.6031380982
 21
192.2501270402
 31
0.0
  0
LINE
  5
3C9
330
208
100
AcDbEntity
  8
0
  6
Continuous
 62
     7
100
AcDbLine
 10
440.1031380982
 20
192.2501270402
 30
0.0
 11
434.1031380982
 21
192.2501270402
 31
0.0
  0
LINE
  5
3CA
330
208
100
AcDbEntity
  8
0
  6
Continuous
 62
     7
100
AcDbLine
 10
427.6031380982
 20
192.2501270402
 30
0.0
 11
421.6031380982
 21
192.2501270402
 31
0.0
  0
LINE
  5
3CB
330
208
100
AcDbEntity
  8
0
  6
Continuous
 62
     7
100
AcDbLine
 10
415.1031380982
 20
192.2501270402
 30
0.0
 11
409.1031380982
 21
192.2501270402
 31
0.0
  0
LINE
  5
3CC
330
208
100
AcDbEntity
  8
0
  6
Continuous
 62
     7
100
AcDbLine
 10
402.6031380982
 20
192.2501270402
 30
0.0
 11
396.6031380982
 21
192.2501270402
 31
0.0
  0
LINE
  5
3CD
330
208
100
AcDbEntity
  8
0
  6
Continuous
 62
     7
100
AcDbLine
 10
390.1031380982
 20
192.2501270402
 30
0.0
 11
384.1031380982
 21
192.2501270402
 31
0.0
  0
LINE
  5
3CE
330
208
100
AcDbEntity
  8
0
  6
Continuous
 62
     7
100
AcDbLine
 10
377.6031380982
 20
192.2501270402
 30
0.0
 11
371.6031380982
 21
192.2501270402
 31
0.0
  0
LINE
  5
3CF
330
208
100
AcDbEntity
  8
0
  6
Continuous
 62
     7
100
AcDbLine
 10
365.1031380982
 20
192.2501270402
 30
0.0
 11
359.1031380982
 21
192.2501270402
 31
0.0
  0
LINE
  5
3D0
330
208
100
AcDbEntity
  8
0
  6
Continuous
 62
     7
100
AcDbLine
 10
352.6031380982
 20
192.2501270402
 30
0.0
 11
346.6031380982
 21
192.2501270402
 31
0.0
  0
LINE
  5
3D1
330
208
100
AcDbEntity
  8
0
  6
Continuous
 62
     7
100
AcDbLine
 10
340.1031380982
 20
192.2501270402
 30
0.0
 11
334.1031380982
 21
192.2501270402
 31
0.0
  0
LINE
  5
3D2
330
208
100
AcDbEntity
  8
0
  6
Continuous
 62
     7
100
AcDbLine
 10
327.6031380982
 20
192.2501270402
 30
0.0
 11
321.6031380982
 21
192.2501270402
 31
0.0
  0
LINE
  5
3D3
330
208
100
AcDbEntity
  8
0
  6
Continuous
 62
     7
100
AcDbLine
 10
315.1031380982
 20
192.2501270402
 30
0.0
 11
309.1031380982
 21
192.2501270402
 31
0.0
  0
LINE
  5
3D4
330
208
100
AcDbEntity
  8
0
  6
Continuous
 62
     7
100
AcDbLine
 10
302.6031380982
 20
192.2501270402
 30
0.0
 11
296.6031380982
 21
192.2501270402
 31
0.0
  0
LINE
  5
3D5
330
208
100
AcDbEntity
  8
0
  6
Continuous
 62
     7
100
AcDbLine
 10
290.1031380982
 20
192.2501270402
 30
0.0
 11
284.1031380982
 21
192.2501270402
 31
0.0
  0
LINE
  5
3D6
330
208
100
AcDbEntity
  8
0
  6
Continuous
 62
     7
100
AcDbLine
 10
277.6031380982
 20
192.2501270402
 30
0.0
 11
271.6031380982
 21
192.2501270402
 31
0.0
  0
LINE
  5
3D7
330
208
100
AcDbEntity
  8
0
  6
Continuous
 62
     7
100
AcDbLine
 10
265.1031380982
 20
192.2501270402
 30
0.0
 11
259.1031380982
 21
192.2501270402
 31
0.0
  0
LINE
  5
3D8
330
208
100
AcDbEntity
  8
0
  6
Continuous
 62
     7
100
AcDbLine
 10
252.6031380982
 20
192.2501270402
 30
0.0
 11
246.6031380982
 21
192.2501270402
 31
0.0
  0
LINE
  5
3D9
330
208
100
AcDbEntity
  8
0
  6
Continuous
 62
     7
100
AcDbLine
 10
240.1031380982
 20
192.2501270402
 30
0.0
 11
234.1031380982
 21
192.2501270402
 31
0.0
  0
LINE
  5
3DA
330
208
100
AcDbEntity
  8
0
  6
Continuous
 62
     7
100
AcDbLine
 10
227.6031380982
 20
192.2501270402
 30
0.0
 11
221.6031380982
 21
192.2501270402
 31
0.0
  0
LINE
  5
3DB
330
208
100
AcDbEntity
  8
0
  6
Continuous
 62
     7
100
AcDbLine
 10
215.1031380982
 20
192.2501270402
 30
0.0
 11
209.1031380982
 21
192.2501270402
 31
0.0
  0
LINE
  5
3DC
330
208
100
AcDbEntity
  8
0
  6
Continuous
 62
     7
100
AcDbLine
 10
202.6031380982
 20
192.2501270402
 30
0.0
 11
196.6031380982
 21
192.2501270402
 31
0.0
  0
LINE
  5
3DD
330
208
100
AcDbEntity
  8
0
  6
Continuous
 62
     7
100
AcDbLine
 10
190.1031380982
 20
192.2501270402
 30
0.0
 11
184.1031380982
 21
192.2501270402
 31
0.0
  0
LINE
  5
3DE
330
208
100
AcDbEntity
  8
0
  6
Continuous
 62
     7
100
AcDbLine
 10
177.6031380982
 20
192.2501270402
 30
0.0
 11
171.6031380982
 21
192.2501270402
 31
0.0
  0
LINE
  5
3DF
330
208
100
AcDbEntity
  8
0
  6
Continuous
 62
     7
100
AcDbLine
 10
165.1031380982
 20
192.2501270402
 30
0.0
 11
159.1031380982
 21
192.2501270402
 31
0.0
  0
LINE
  5
3E0
330
208
100
AcDbEntity
  8
0
  6
Continuous
 62
     7
100
AcDbLine
 10
152.6031380982
 20
192.2501270402
 30
0.0
 11
146.6031380982
 21
192.2501270402
 31
0.0
  0
LINE
  5
3E1
330
208
100
AcDbEntity
  8
0
  6
Continuous
 62
     7
100
AcDbLine
 10
140.1031380982
 20
192.2501270402
 30
0.0
 11
134.1031380982
 21
192.2501270402
 31
0.0
  0
LINE
  5
3E2
330
208
100
AcDbEntity
  8
0
  6
Continuous
 62
     7
100
AcDbLine
 10
127.6031380982
 20
192.2501270402
 30
0.0
 11
121.6031380982
 21
192.2501270402
 31
0.0
  0
LINE
  5
3E3
330
208
100
AcDbEntity
  8
0
  6
Continuous
 62
     7
100
AcDbLine
 10
115.1031380982
 20
192.2501270402
 30
0.0
 11
109.1031380982
 21
192.2501270402
 31
0.0
  0
LINE
  5
3E4
330
208
100
AcDbEntity
  8
0
  6
Continuous
 62
     7
100
AcDbLine
 10
102.6031380982
 20
192.2501270402
 30
0.0
 11
96.60313809819999
 21
192.2501270402
 31
0.0
  0
LINE
  5
3E5
330
208
100
AcDbEntity
  8
0
  6
Continuous
 62
     7
100
AcDbLine
 10
90.10313809819999
 20
192.2501270402
 30
0.0
 11
84.10313809819999
 21
192.2501270402
 31
0.0
  0
LINE
  5
3E6
330
208
100
AcDbEntity
  8
0
  6
Continuous
 62
     7
100
AcDbLine
 10
77.60313809819999
 20
192.2501270402
 30
0.0
 11
71.60313809819999
 21
192.2501270402
 31
0.0
  0
LINE
  5
3E7
330
208
100
AcDbEntity
  8
0
  6
Continuous
 62
     7
100
AcDbLine
 10
65.10313809819999
 20
192.2501270402
 30
0.0
 11
59.10313809819999
 21
192.2501270402
 31
0.0
  0
LINE
  5
3E8
330
208
100
AcDbEntity
  8
0
  6
Continuous
 62
     7
100
AcDbLine
 10
52.6031380982
 20
192.2501270402
 30
0.0
 11
46.60313809819999
 21
192.2501270402
 31
0.0
  0
LINE
  5
3E9
330
208
100
AcDbEntity
  8
0
  6
Continuous
 62
     7
100
AcDbLine
 10
40.1031380982
 20
192.2501270402
 30
0.0
 11
34.1031380982
 21
192.2501270402
 31
0.0
  0
LINE
  5
3EA
330
208
100
AcDbEntity
  8
0
  6
Continuous
 62
     7
100
AcDbLine
 10
27.6031380982
 20
192.2501270402
 30
0.0
 11
21.6031380982
 21
192.2501270402
 31
0.0
  0
LINE
  5
3EB
330
208
100
AcDbEntity
  8
0
  6
Continuous
 62
     7
100
AcDbLine
 10
15.1031380982
 20
192.2501270402
 30
0.0
 11
9.1031380982
 21
192.2501270402
 31
0.0
  0
LINE
  5
3EC
330
208
100
AcDbEntity
  8
0
  6
Continuous
 62
     7
100
AcDbLine
 10
2.6031380982
 20
192.2501270402
 30
0.0
 11
-3.396861901799998
 21
192.2501270402
 31
0.0
  0
LINE
  5
3ED
330
208
100
AcDbEntity
  8
0
  6
Continuous
 62
     7
100
AcDbLine
 10
-9.896861901799999
 20
192.2501270402
 30
0.0
 11
-15.8968619018
 21
192.2501270402
 31
0.0
  0
LINE
  5
3EE
330
208
100
AcDbEntity
  8
0
  6
Continuous
 62
     7
100
AcDbLine
 10
-22.3968619018
 20
192.2501270402
 30
0.0
 11
-28.3968619018
 21
192.2501270402
 31
0.0
  0
LINE
  5
3EF
330
208
100
AcDbEntity
  8
0
  6
Continuous
 62
     7
100
AcDbLine
 10
-34.8968619018
 20
192.2501270402
 30
0.0
 11
-40.8968619018
 21
192.2501270402
 31
0.0
  0
LINE
  5
3F0
330
208
100
AcDbEntity
  8
0
  6
Continuous
 62
     7
100
AcDbLine
 10
-47.3968619018
 20
192.2501270402
 30
0.0
 11
-53.3968619018
 21
192.2501270402
 31
0.0
  0
LINE
  5
3F1
330
208
100
AcDbEntity
  8
0
  6
Continuous
 62
     7
100
AcDbLine
 10
-59.8968619018
 20
192.2501270402
 30
0.0
 11
-65.89686190180001
 21
192.2501270402
 31
0.0
  0
LINE
  5
3F2
330
208
100
AcDbEntity
  8
0
  6
Continuous
 62
     7
100
AcDbLine
 10
-65.89686190180001
 20
198.2501270402
 30
0.0
 11
-59.8968619018
 21
198.2501270402
 31
0.0
  0
LINE
  5
3F3
330
208
100
AcDbEntity
  8
0
  6
Continuous
 62
     7
100
AcDbLine
 10
-53.3968619018
 20
198.2501270402
 30
0.0
 11
-47.3968619018
 21
198.2501270402
 31
0.0
  0
LINE
  5
3F4
330
208
100
AcDbEntity
  8
0
  6
Continuous
 62
     7
100
AcDbLine
 10
-40.8968619018
 20
198.2501270402
 30
0.0
 11
-34.8968619018
 21
198.2501270402
 31
0.0
  0
LINE
  5
3F5
330
208
100
AcDbEntity
  8
0
  6
Continuous
 62
     7
100
AcDbLine
 10
-28.3968619018
 20
198.2501270402
 30
0.0
 11
-22.3968619018
 21
198.2501270402
 31
0.0
  0
LINE
  5
3F6
330
208
100
AcDbEntity
  8
0
  6
Continuous
 62
     7
100
AcDbLine
 10
-15.8968619018
 20
198.2501270402
 30
0.0
 11
-9.896861901799999
 21
198.2501270402
 31
0.0
  0
LINE
  5
3F7
330
208
100
AcDbEntity
  8
0
  6
Continuous
 62
     7
100
AcDbLine
 10
-3.396861901799998
 20
198.2501270402
 30
0.0
 11
2.6031380982
 21
198.2501270402
 31
0.0
  0
LINE
  5
3F8
330
208
100
AcDbEntity
  8
0
  6
Continuous
 62
     7
100
AcDbLine
 10
9.1031380982
 20
198.2501270402
 30
0.0
 11
15.1031380982
 21
198.2501270402
 31
0.0
  0
LINE
  5
3F9
330
208
100
AcDbEntity
  8
0
  6
Continuous
 62
     7
100
AcDbLine
 10
21.6031380982
 20
198.2501270402
 30
0.0
 11
27.6031380982
 21
198.2501270402
 31
0.0
  0
LINE
  5
3FA
330
208
100
AcDbEntity
  8
0
  6
Continuous
 62
     7
100
AcDbLine
 10
34.1031380982
 20
198.2501270402
 30
0.0
 11
40.1031380982
 21
198.2501270402
 31
0.0
  0
LINE
  5
3FB
330
208
100
AcDbEntity
  8
0
  6
Continuous
 62
     7
100
AcDbLine
 10
46.60313809819999
 20
198.2501270402
 30
0.0
 11
52.6031380982
 21
198.2501270402
 31
0.0
  0
LINE
  5
3FC
330
208
100
AcDbEntity
  8
0
  6
Continuous
 62
     7
100
AcDbLine
 10
59.10313809819999
 20
198.2501270402
 30
0.0
 11
65.10313809819999
 21
198.2501270402
 31
0.0
  0
LINE
  5
3FD
330
208
100
AcDbEntity
  8
0
  6
Continuous
 62
     7
100
AcDbLine
 10
71.60313809819999
 20
198.2501270402
 30
0.0
 11
77.60313809819999
 21
198.2501270402
 31
0.0
  0
LINE
  5
3FE
330
208
100
AcDbEntity
  8
0
  6
Continuous
 62
     7
100
AcDbLine
 10
84.10313809819999
 20
198.2501270402
 30
0.0
 11
90.10313809819999
 21
198.2501270402
 31
0.0
  0
LINE
  5
3FF
330
208
100
AcDbEntity
  8
0
  6
Continuous
 62
     7
100
AcDbLine
 10
96.60313809819999
 20
198.2501270402
 30
0.0
 11
102.6031380982
 21
198.2501270402
 31
0.0
  0
LINE
  5
400
330
208
100
AcDbEntity
  8
0
  6
Continuous
 62
     7
100
AcDbLine
 10
109.1031380982
 20
198.2501270402
 30
0.0
 11
115.1031380982
 21
198.2501270402
 31
0.0
  0
LINE
  5
401
330
208
100
AcDbEntity
  8
0
  6
Continuous
 62
     7
100
AcDbLine
 10
121.6031380982
 20
198.2501270402
 30
0.0
 11
127.6031380982
 21
198.2501270402
 31
0.0
  0
LINE
  5
402
330
208
100
AcDbEntity
  8
0
  6
Continuous
 62
     7
100
AcDbLine
 10
134.1031380982
 20
198.2501270402
 30
0.0
 11
140.1031380982
 21
198.2501270402
 31
0.0
  0
LINE
  5
403
330
208
100
AcDbEntity
  8
0
  6
Continuous
 62
     7
100
AcDbLine
 10
146.6031380982
 20
198.2501270402
 30
0.0
 11
152.6031380982
 21
198.2501270402
 31
0.0
  0
LINE
  5
404
330
208
100
AcDbEntity
  8
0
  6
Continuous
 62
     7
100
AcDbLine
 10
159.1031380982
 20
198.2501270402
 30
0.0
 11
165.1031380982
 21
198.2501270402
 31
0.0
  0
LINE
  5
405
330
208
100
AcDbEntity
  8
0
  6
Continuous
 62
     7
100
AcDbLine
 10
171.6031380982
 20
198.2501270402
 30
0.0
 11
177.6031380982
 21
198.2501270402
 31
0.0
  0
LINE
  5
406
330
208
100
AcDbEntity
  8
0
  6
Continuous
 62
     7
100
AcDbLine
 10
184.1031380982
 20
198.2501270402
 30
0.0
 11
190.1031380982
 21
198.2501270402
 31
0.0
  0
LINE
  5
407
330
208
100
AcDbEntity
  8
0
  6
Continuous
 62
     7
100
AcDbLine
 10
196.6031380982
 20
198.2501270402
 30
0.0
 11
202.6031380982
 21
198.2501270402
 31
0.0
  0
LINE
  5
408
330
208
100
AcDbEntity
  8
0
  6
Continuous
 62
     7
100
AcDbLine
 10
209.1031380982
 20
198.2501270402
 30
0.0
 11
215.1031380982
 21
198.2501270402
 31
0.0
  0
LINE
  5
409
330
208
100
AcDbEntity
  8
0
  6
Continuous
 62
     7
100
AcDbLine
 10
221.6031380982
 20
198.2501270402
 30
0.0
 11
227.6031380982
 21
198.2501270402
 31
0.0
  0
LINE
  5
40A
330
208
100
AcDbEntity
  8
0
  6
Continuous
 62
     7
100
AcDbLine
 10
234.1031380982
 20
198.2501270402
 30
0.0
 11
240.1031380982
 21
198.2501270402
 31
0.0
  0
LINE
  5
40B
330
208
100
AcDbEntity
  8
0
  6
Continuous
 62
     7
100
AcDbLine
 10
246.6031380982
 20
198.2501270402
 30
0.0
 11
252.6031380982
 21
198.2501270402
 31
0.0
  0
LINE
  5
40C
330
208
100
AcDbEntity
  8
0
  6
Continuous
 62
     7
100
AcDbLine
 10
259.1031380982
 20
198.2501270402
 30
0.0
 11
265.1031380982
 21
198.2501270402
 31
0.0
  0
LINE
  5
40D
330
208
100
AcDbEntity
  8
0
  6
Continuous
 62
     7
100
AcDbLine
 10
271.6031380982
 20
198.2501270402
 30
0.0
 11
277.6031380982
 21
198.2501270402
 31
0.0
  0
LINE
  5
40E
330
208
100
AcDbEntity
  8
0
  6
Continuous
 62
     7
100
AcDbLine
 10
284.1031380982
 20
198.2501270402
 30
0.0
 11
290.1031380982
 21
198.2501270402
 31
0.0
  0
LINE
  5
40F
330
208
100
AcDbEntity
  8
0
  6
Continuous
 62
     7
100
AcDbLine
 10
296.6031380982
 20
198.2501270402
 30
0.0
 11
302.6031380982
 21
198.2501270402
 31
0.0
  0
LINE
  5
410
330
208
100
AcDbEntity
  8
0
  6
Continuous
 62
     7
100
AcDbLine
 10
309.1031380982
 20
198.2501270402
 30
0.0
 11
315.1031380982
 21
198.2501270402
 31
0.0
  0
LINE
  5
411
330
208
100
AcDbEntity
  8
0
  6
Continuous
 62
     7
100
AcDbLine
 10
321.6031380982
 20
198.2501270402
 30
0.0
 11
327.6031380982
 21
198.2501270402
 31
0.0
  0
LINE
  5
412
330
208
100
AcDbEntity
  8
0
  6
Continuous
 62
     7
100
AcDbLine
 10
334.1031380982
 20
198.2501270402
 30
0.0
 11
340.1031380982
 21
198.2501270402
 31
0.0
  0
LINE
  5
413
330
208
100
AcDbEntity
  8
0
  6
Continuous
 62
     7
100
AcDbLine
 10
346.6031380982
 20
198.2501270402
 30
0.0
 11
352.6031380982
 21
198.2501270402
 31
0.0
  0
LINE
  5
414
330
208
100
AcDbEntity
  8
0
  6
Continuous
 62
     7
100
AcDbLine
 10
359.1031380982
 20
198.2501270402
 30
0.0
 11
365.1031380982
 21
198.2501270402
 31
0.0
  0
LINE
  5
415
330
208
100
AcDbEntity
  8
0
  6
Continuous
 62
     7
100
AcDbLine
 10
371.6031380982
 20
198.2501270402
 30
0.0
 11
377.6031380982
 21
198.2501270402
 31
0.0
  0
LINE
  5
416
330
208
100
AcDbEntity
  8
0
  6
Continuous
 62
     7
100
AcDbLine
 10
384.1031380982
 20
198.2501270402
 30
0.0
 11
390.1031380982
 21
198.2501270402
 31
0.0
  0
LINE
  5
417
330
208
100
AcDbEntity
  8
0
  6
Continuous
 62
     7
100
AcDbLine
 10
396.6031380982
 20
198.2501270402
 30
0.0
 11
402.6031380982
 21
198.2501270402
 31
0.0
  0
LINE
  5
418
330
208
100
AcDbEntity
  8
0
  6
Continuous
 62
     7
100
AcDbLine
 10
409.1031380982
 20
198.2501270402
 30
0.0
 11
415.1031380982
 21
198.2501270402
 31
0.0
  0
LINE
  5
419
330
208
100
AcDbEntity
  8
0
  6
Continuous
 62
     7
100
AcDbLine
 10
421.6031380982
 20
198.2501270402
 30
0.0
 11
427.6031380982
 21
198.2501270402
 31
0.0
  0
LINE
  5
41A
330
208
100
AcDbEntity
  8
0
  6
Continuous
 62
     7
100
AcDbLine
 10
434.1031380982
 20
198.2501270402
 30
0.0
 11
440.1031380982
 21
198.2501270402
 31
0.0
  0
LINE
  5
41B
330
208
100
AcDbEntity
  8
0
  6
Continuous
 62
     7
100
AcDbLine
 10
446.6031380982
 20
198.2501270402
 30
0.0
 11
452.6031380982
 21
198.2501270402
 31
0.0
  0
LINE
  5
41C
330
208
100
AcDbEntity
  8
0
  6
Continuous
 62
     7
100
AcDbLine
 10
459.1031380982
 20
198.2501270402
 30
0.0
 11
465.1031380982
 21
198.2501270402
 31
0.0
  0
LINE
  5
41D
330
208
100
AcDbEntity
  8
0
  6
Continuous
 62
     7
100
AcDbLine
 10
471.6031380982
 20
198.2501270402
 30
0.0
 11
477.6031380982
 21
198.2501270402
 31
0.0
  0
LINE
  5
41E
330
208
100
AcDbEntity
  8
0
  6
Continuous
 62
     7
100
AcDbLine
 10
484.1031380982
 20
198.2501270402
 30
0.0
 11
490.1031380982
 21
198.2501270402
 31
0.0
  0
LINE
  5
41F
330
208
100
AcDbEntity
  8
0
  6
Continuous
 62
     7
100
AcDbLine
 10
496.6031380982
 20
198.2501270402
 30
0.0
 11
502.6031380982
 21
198.2501270402
 31
0.0
  0
LINE
  5
420
330
208
100
AcDbEntity
  8
0
  6
Continuous
 62
     7
100
AcDbLine
 10
502.6031380982
 20
204.7501270402
 30
0.0
 11
496.6031380982
 21
204.7501270402
 31
0.0
  0
LINE
  5
421
330
208
100
AcDbEntity
  8
0
  6
Continuous
 62
     7
100
AcDbLine
 10
490.1031380982
 20
204.7501270402
 30
0.0
 11
484.1031380982
 21
204.7501270402
 31
0.0
  0
LINE
  5
422
330
208
100
AcDbEntity
  8
0
  6
Continuous
 62
     7
100
AcDbLine
 10
477.6031380982
 20
204.7501270402
 30
0.0
 11
471.6031380982
 21
204.7501270402
 31
0.0
  0
LINE
  5
423
330
208
100
AcDbEntity
  8
0
  6
Continuous
 62
     7
100
AcDbLine
 10
465.1031380982
 20
204.7501270402
 30
0.0
 11
459.1031380982
 21
204.7501270402
 31
0.0
  0
LINE
  5
424
330
208
100
AcDbEntity
  8
0
  6
Continuous
 62
     7
100
AcDbLine
 10
452.6031380982
 20
204.7501270402
 30
0.0
 11
446.6031380982
 21
204.7501270402
 31
0.0
  0
LINE
  5
425
330
208
100
AcDbEntity
  8
0
  6
Continuous
 62
     7
100
AcDbLine
 10
440.1031380982
 20
204.7501270402
 30
0.0
 11
434.1031380982
 21
204.7501270402
 31
0.0
  0
LINE
  5
426
330
208
100
AcDbEntity
  8
0
  6
Continuous
 62
     7
100
AcDbLine
 10
427.6031380982
 20
204.7501270402
 30
0.0
 11
421.6031380982
 21
204.7501270402
 31
0.0
  0
LINE
  5
427
330
208
100
AcDbEntity
  8
0
  6
Continuous
 62
     7
100
AcDbLine
 10
415.1031380982
 20
204.7501270402
 30
0.0
 11
409.1031380982
 21
204.7501270402
 31
0.0
  0
LINE
  5
428
330
208
100
AcDbEntity
  8
0
  6
Continuous
 62
     7
100
AcDbLine
 10
402.6031380982
 20
204.7501270402
 30
0.0
 11
396.6031380982
 21
204.7501270402
 31
0.0
  0
LINE
  5
429
330
208
100
AcDbEntity
  8
0
  6
Continuous
 62
     7
100
AcDbLine
 10
390.1031380982
 20
204.7501270402
 30
0.0
 11
384.1031380982
 21
204.7501270402
 31
0.0
  0
LINE
  5
42A
330
208
100
AcDbEntity
  8
0
  6
Continuous
 62
     7
100
AcDbLine
 10
377.6031380982
 20
204.7501270402
 30
0.0
 11
371.6031380982
 21
204.7501270402
 31
0.0
  0
LINE
  5
42B
330
208
100
AcDbEntity
  8
0
  6
Continuous
 62
     7
100
AcDbLine
 10
365.1031380982
 20
204.7501270402
 30
0.0
 11
359.1031380982
 21
204.7501270402
 31
0.0
  0
LINE
  5
42C
330
208
100
AcDbEntity
  8
0
  6
Continuous
 62
     7
100
AcDbLine
 10
352.6031380982
 20
204.7501270402
 30
0.0
 11
346.6031380982
 21
204.7501270402
 31
0.0
  0
LINE
  5
42D
330
208
100
AcDbEntity
  8
0
  6
Continuous
 62
     7
100
AcDbLine
 10
340.1031380982
 20
204.7501270402
 30
0.0
 11
334.1031380982
 21
204.7501270402
 31
0.0
  0
LINE
  5
42E
330
208
100
AcDbEntity
  8
0
  6
Continuous
 62
     7
100
AcDbLine
 10
327.6031380982
 20
204.7501270402
 30
0.0
 11
321.6031380982
 21
204.7501270402
 31
0.0
  0
LINE
  5
42F
330
208
100
AcDbEntity
  8
0
  6
Continuous
 62
     7
100
AcDbLine
 10
315.1031380982
 20
204.7501270402
 30
0.0
 11
309.1031380982
 21
204.7501270402
 31
0.0
  0
LINE
  5
430
330
208
100
AcDbEntity
  8
0
  6
Continuous
 62
     7
100
AcDbLine
 10
302.6031380982
 20
204.7501270402
 30
0.0
 11
296.6031380982
 21
204.7501270402
 31
0.0
  0
LINE
  5
431
330
208
100
AcDbEntity
  8
0
  6
Continuous
 62
     7
100
AcDbLine
 10
290.1031380982
 20
204.7501270402
 30
0.0
 11
284.1031380982
 21
204.7501270402
 31
0.0
  0
LINE
  5
432
330
208
100
AcDbEntity
  8
0
  6
Continuous
 62
     7
100
AcDbLine
 10
277.6031380982
 20
204.7501270402
 30
0.0
 11
271.6031380982
 21
204.7501270402
 31
0.0
  0
LINE
  5
433
330
208
100
AcDbEntity
  8
0
  6
Continuous
 62
     7
100
AcDbLine
 10
265.1031380982
 20
204.7501270402
 30
0.0
 11
259.1031380982
 21
204.7501270402
 31
0.0
  0
LINE
  5
434
330
208
100
AcDbEntity
  8
0
  6
Continuous
 62
     7
100
AcDbLine
 10
252.6031380982
 20
204.7501270402
 30
0.0
 11
246.6031380982
 21
204.7501270402
 31
0.0
  0
LINE
  5
435
330
208
100
AcDbEntity
  8
0
  6
Continuous
 62
     7
100
AcDbLine
 10
240.1031380982
 20
204.7501270402
 30
0.0
 11
234.1031380982
 21
204.7501270402
 31
0.0
  0
LINE
  5
436
330
208
100
AcDbEntity
  8
0
  6
Continuous
 62
     7
100
AcDbLine
 10
227.6031380982
 20
204.7501270402
 30
0.0
 11
221.6031380982
 21
204.7501270402
 31
0.0
  0
LINE
  5
437
330
208
100
AcDbEntity
  8
0
  6
Continuous
 62
     7
100
AcDbLine
 10
215.1031380982
 20
204.7501270402
 30
0.0
 11
209.1031380982
 21
204.7501270402
 31
0.0
  0
LINE
  5
438
330
208
100
AcDbEntity
  8
0
  6
Continuous
 62
     7
100
AcDbLine
 10
202.6031380982
 20
204.7501270402
 30
0.0
 11
196.6031380982
 21
204.7501270402
 31
0.0
  0
LINE
  5
439
330
208
100
AcDbEntity
  8
0
  6
Continuous
 62
     7
100
AcDbLine
 10
190.1031380982
 20
204.7501270402
 30
0.0
 11
184.1031380982
 21
204.7501270402
 31
0.0
  0
LINE
  5
43A
330
208
100
AcDbEntity
  8
0
  6
Continuous
 62
     7
100
AcDbLine
 10
177.6031380982
 20
204.7501270402
 30
0.0
 11
171.6031380982
 21
204.7501270402
 31
0.0
  0
LINE
  5
43B
330
208
100
AcDbEntity
  8
0
  6
Continuous
 62
     7
100
AcDbLine
 10
165.1031380982
 20
204.7501270402
 30
0.0
 11
159.1031380982
 21
204.7501270402
 31
0.0
  0
LINE
  5
43C
330
208
100
AcDbEntity
  8
0
  6
Continuous
 62
     7
100
AcDbLine
 10
152.6031380982
 20
204.7501270402
 30
0.0
 11
146.6031380982
 21
204.7501270402
 31
0.0
  0
LINE
  5
43D
330
208
100
AcDbEntity
  8
0
  6
Continuous
 62
     7
100
AcDbLine
 10
140.1031380982
 20
204.7501270402
 30
0.0
 11
134.1031380982
 21
204.7501270402
 31
0.0
  0
LINE
  5
43E
330
208
100
AcDbEntity
  8
0
  6
Continuous
 62
     7
100
AcDbLine
 10
127.6031380982
 20
204.7501270402
 30
0.0
 11
121.6031380982
 21
204.7501270402
 31
0.0
  0
LINE
  5
43F
330
208
100
AcDbEntity
  8
0
  6
Continuous
 62
     7
100
AcDbLine
 10
115.1031380982
 20
204.7501270402
 30
0.0
 11
109.1031380982
 21
204.7501270402
 31
0.0
  0
LINE
  5
440
330
208
100
AcDbEntity
  8
0
  6
Continuous
 62
     7
100
AcDbLine
 10
102.6031380982
 20
204.7501270402
 30
0.0
 11
96.60313809819999
 21
204.7501270402
 31
0.0
  0
LINE
  5
441
330
208
100
AcDbEntity
  8
0
  6
Continuous
 62
     7
100
AcDbLine
 10
90.10313809819999
 20
204.7501270402
 30
0.0
 11
84.10313809819999
 21
204.7501270402
 31
0.0
  0
LINE
  5
442
330
208
100
AcDbEntity
  8
0
  6
Continuous
 62
     7
100
AcDbLine
 10
77.60313809819999
 20
204.7501270402
 30
0.0
 11
71.60313809819999
 21
204.7501270402
 31
0.0
  0
LINE
  5
443
330
208
100
AcDbEntity
  8
0
  6
Continuous
 62
     7
100
AcDbLine
 10
65.10313809819999
 20
204.7501270402
 30
0.0
 11
59.10313809819999
 21
204.7501270402
 31
0.0
  0
LINE
  5
444
330
208
100
AcDbEntity
  8
0
  6
Continuous
 62
     7
100
AcDbLine
 10
52.6031380982
 20
204.7501270402
 30
0.0
 11
46.60313809819999
 21
204.7501270402
 31
0.0
  0
LINE
  5
445
330
208
100
AcDbEntity
  8
0
  6
Continuous
 62
     7
100
AcDbLine
 10
40.1031380982
 20
204.7501270402
 30
0.0
 11
34.1031380982
 21
204.7501270402
 31
0.0
  0
LINE
  5
446
330
208
100
AcDbEntity
  8
0
  6
Continuous
 62
     7
100
AcDbLine
 10
27.6031380982
 20
204.7501270402
 30
0.0
 11
21.6031380982
 21
204.7501270402
 31
0.0
  0
LINE
  5
447
330
208
100
AcDbEntity
  8
0
  6
Continuous
 62
     7
100
AcDbLine
 10
15.1031380982
 20
204.7501270402
 30
0.0
 11
9.1031380982
 21
204.7501270402
 31
0.0
  0
LINE
  5
448
330
208
100
AcDbEntity
  8
0
  6
Continuous
 62
     7
100
AcDbLine
 10
2.6031380982
 20
204.7501270402
 30
0.0
 11
-3.396861901799998
 21
204.7501270402
 31
0.0
  0
LINE
  5
449
330
208
100
AcDbEntity
  8
0
  6
Continuous
 62
     7
100
AcDbLine
 10
-9.896861901799999
 20
204.7501270402
 30
0.0
 11
-15.8968619018
 21
204.7501270402
 31
0.0
  0
LINE
  5
44A
330
208
100
AcDbEntity
  8
0
  6
Continuous
 62
     7
100
AcDbLine
 10
-22.3968619018
 20
204.7501270402
 30
0.0
 11
-28.3968619018
 21
204.7501270402
 31
0.0
  0
LINE
  5
44B
330
208
100
AcDbEntity
  8
0
  6
Continuous
 62
     7
100
AcDbLine
 10
-34.8968619018
 20
204.7501270402
 30
0.0
 11
-40.8968619018
 21
204.7501270402
 31
0.0
  0
LINE
  5
44C
330
208
100
AcDbEntity
  8
0
  6
Continuous
 62
     7
100
AcDbLine
 10
-47.3968619018
 20
204.7501270402
 30
0.0
 11
-53.3968619018
 21
204.7501270402
 31
0.0
  0
LINE
  5
44D
330
208
100
AcDbEntity
  8
0
  6
Continuous
 62
     7
100
AcDbLine
 10
-59.8968619018
 20
204.7501270402
 30
0.0
 11
-65.89686190180001
 21
204.7501270402
 31
0.0
  0
LINE
  5
44E
330
208
100
AcDbEntity
  8
0
  6
Continuous
 62
     7
100
AcDbLine
 10
246.6031380982
 20
167.2501270402
 30
0.0
 11
246.6031380982
 21
173.2501270402
 31
0.0
  0
LINE
  5
44F
330
208
100
AcDbEntity
  8
0
  6
Continuous
 62
     7
100
AcDbLine
 10
246.6031380982
 20
179.7501270402
 30
0.0
 11
246.6031380982
 21
185.7501270402
 31
0.0
  0
LINE
  5
450
330
208
100
AcDbEntity
  8
0
  6
Continuous
 62
     7
100
AcDbLine
 10
246.6031380982
 20
192.2501270402
 30
0.0
 11
246.6031380982
 21
198.2501270402
 31
0.0
  0
LINE
  5
451
330
208
100
AcDbEntity
  8
0
  6
Continuous
 62
     7
100
AcDbLine
 10
246.6031380982
 20
204.7501270402
 30
0.0
 11
246.6031380982
 21
210.7501270402
 31
0.0
  0
LINE
  5
452
330
208
100
AcDbEntity
  8
0
  6
Continuous
 62
     7
100
AcDbLine
 10
252.6031380982
 20
210.7501270402
 30
0.0
 11
252.6031380982
 21
204.7501270402
 31
0.0
  0
LINE
  5
453
330
208
100
AcDbEntity
  8
0
  6
Continuous
 62
     7
100
AcDbLine
 10
252.6031380982
 20
198.2501270402
 30
0.0
 11
252.6031380982
 21
192.2501270402
 31
0.0
  0
LINE
  5
454
330
208
100
AcDbEntity
  8
0
  6
Continuous
 62
     7
100
AcDbLine
 10
252.6031380982
 20
185.7501270402
 30
0.0
 11
252.6031380982
 21
179.7501270402
 31
0.0
  0
LINE
  5
455
330
208
100
AcDbEntity
  8
0
  6
Continuous
 62
     7
100
AcDbLine
 10
252.6031380982
 20
173.2501270402
 30
0.0
 11
252.6031380982
 21
167.2501270402
 31
0.0
  0
LINE
  5
456
330
208
100
AcDbEntity
  8
0
  6
Continuous
 62
     7
100
AcDbLine
 10
259.1031380982
 20
167.2501270402
 30
0.0
 11
259.1031380982
 21
173.2501270402
 31
0.0
  0
LINE
  5
457
330
208
100
AcDbEntity
  8
0
  6
Continuous
 62
     7
100
AcDbLine
 10
259.1031380982
 20
179.7501270402
 30
0.0
 11
259.1031380982
 21
185.7501270402
 31
0.0
  0
LINE
  5
458
330
208
100
AcDbEntity
  8
0
  6
Continuous
 62
     7
100
AcDbLine
 10
259.1031380982
 20
192.2501270402
 30
0.0
 11
259.1031380982
 21
198.2501270402
 31
0.0
  0
LINE
  5
459
330
208
100
AcDbEntity
  8
0
  6
Continuous
 62
     7
100
AcDbLine
 10
259.1031380982
 20
204.7501270402
 30
0.0
 11
259.1031380982
 21
210.7501270402
 31
0.0
  0
LINE
  5
45A
330
208
100
AcDbEntity
  8
0
  6
Continuous
 62
     7
100
AcDbLine
 10
-65.89686190180001
 20
210.7501270402
 30
0.0
 11
-59.8968619018
 21
210.7501270402
 31
0.0
  0
LINE
  5
45B
330
208
100
AcDbEntity
  8
0
  6
Continuous
 62
     7
100
AcDbLine
 10
-53.3968619018
 20
210.7501270402
 30
0.0
 11
-47.3968619018
 21
210.7501270402
 31
0.0
  0
LINE
  5
45C
330
208
100
AcDbEntity
  8
0
  6
Continuous
 62
     7
100
AcDbLine
 10
-40.8968619018
 20
210.7501270402
 30
0.0
 11
-34.8968619018
 21
210.7501270402
 31
0.0
  0
LINE
  5
45D
330
208
100
AcDbEntity
  8
0
  6
Continuous
 62
     7
100
AcDbLine
 10
-28.3968619018
 20
210.7501270402
 30
0.0
 11
-22.3968619018
 21
210.7501270402
 31
0.0
  0
LINE
  5
45E
330
208
100
AcDbEntity
  8
0
  6
Continuous
 62
     7
100
AcDbLine
 10
-15.8968619018
 20
210.7501270402
 30
0.0
 11
-9.896861901799999
 21
210.7501270402
 31
0.0
  0
LINE
  5
45F
330
208
100
AcDbEntity
  8
0
  6
Continuous
 62
     7
100
AcDbLine
 10
-3.396861901799998
 20
210.7501270402
 30
0.0
 11
2.6031380982
 21
210.7501270402
 31
0.0
  0
LINE
  5
460
330
208
100
AcDbEntity
  8
0
  6
Continuous
 62
     7
100
AcDbLine
 10
9.1031380982
 20
210.7501270402
 30
0.0
 11
15.1031380982
 21
210.7501270402
 31
0.0
  0
LINE
  5
461
330
208
100
AcDbEntity
  8
0
  6
Continuous
 62
     7
100
AcDbLine
 10
21.6031380982
 20
210.7501270402
 30
0.0
 11
27.6031380982
 21
210.7501270402
 31
0.0
  0
LINE
  5
462
330
208
100
AcDbEntity
  8
0
  6
Continuous
 62
     7
100
AcDbLine
 10
34.1031380982
 20
210.7501270402
 30
0.0
 11
40.1031380982
 21
210.7501270402
 31
0.0
  0
LINE
  5
463
330
208
100
AcDbEntity
  8
0
  6
Continuous
 62
     7
100
AcDbLine
 10
46.60313809819999
 20
210.7501270402
 30
0.0
 11
52.6031380982
 21
210.7501270402
 31
0.0
  0
LINE
  5
464
330
208
100
AcDbEntity
  8
0
  6
Continuous
 62
     7
100
AcDbLine
 10
59.10313809819999
 20
210.7501270402
 30
0.0
 11
65.10313809819999
 21
210.7501270402
 31
0.0
  0
LINE
  5
465
330
208
100
AcDbEntity
  8
0
  6
Continuous
 62
     7
100
AcDbLine
 10
71.60313809819999
 20
210.7501270402
 30
0.0
 11
77.60313809819999
 21
210.7501270402
 31
0.0
  0
LINE
  5
466
330
208
100
AcDbEntity
  8
0
  6
Continuous
 62
     7
100
AcDbLine
 10
84.10313809819999
 20
210.7501270402
 30
0.0
 11
90.10313809819999
 21
210.7501270402
 31
0.0
  0
LINE
  5
467
330
208
100
AcDbEntity
  8
0
  6
Continuous
 62
     7
100
AcDbLine
 10
96.60313809819999
 20
210.7501270402
 30
0.0
 11
102.6031380982
 21
210.7501270402
 31
0.0
  0
LINE
  5
468
330
208
100
AcDbEntity
  8
0
  6
Continuous
 62
     7
100
AcDbLine
 10
109.1031380982
 20
210.7501270402
 30
0.0
 11
115.1031380982
 21
210.7501270402
 31
0.0
  0
LINE
  5
469
330
208
100
AcDbEntity
  8
0
  6
Continuous
 62
     7
100
AcDbLine
 10
121.6031380982
 20
210.7501270402
 30
0.0
 11
127.6031380982
 21
210.7501270402
 31
0.0
  0
LINE
  5
46A
330
208
100
AcDbEntity
  8
0
  6
Continuous
 62
     7
100
AcDbLine
 10
134.1031380982
 20
210.7501270402
 30
0.0
 11
140.1031380982
 21
210.7501270402
 31
0.0
  0
LINE
  5
46B
330
208
100
AcDbEntity
  8
0
  6
Continuous
 62
     7
100
AcDbLine
 10
146.6031380982
 20
210.7501270402
 30
0.0
 11
152.6031380982
 21
210.7501270402
 31
0.0
  0
LINE
  5
46C
330
208
100
AcDbEntity
  8
0
  6
Continuous
 62
     7
100
AcDbLine
 10
159.1031380982
 20
210.7501270402
 30
0.0
 11
165.1031380982
 21
210.7501270402
 31
0.0
  0
LINE
  5
46D
330
208
100
AcDbEntity
  8
0
  6
Continuous
 62
     7
100
AcDbLine
 10
171.6031380982
 20
210.7501270402
 30
0.0
 11
177.6031380982
 21
210.7501270402
 31
0.0
  0
LINE
  5
46E
330
208
100
AcDbEntity
  8
0
  6
Continuous
 62
     7
100
AcDbLine
 10
184.1031380982
 20
210.7501270402
 30
0.0
 11
190.1031380982
 21
210.7501270402
 31
0.0
  0
LINE
  5
46F
330
208
100
AcDbEntity
  8
0
  6
Continuous
 62
     7
100
AcDbLine
 10
196.6031380982
 20
210.7501270402
 30
0.0
 11
202.6031380982
 21
210.7501270402
 31
0.0
  0
LINE
  5
470
330
208
100
AcDbEntity
  8
0
  6
Continuous
 62
     7
100
AcDbLine
 10
209.1031380982
 20
210.7501270402
 30
0.0
 11
215.1031380982
 21
210.7501270402
 31
0.0
  0
LINE
  5
471
330
208
100
AcDbEntity
  8
0
  6
Continuous
 62
     7
100
AcDbLine
 10
221.6031380982
 20
210.7501270402
 30
0.0
 11
227.6031380982
 21
210.7501270402
 31
0.0
  0
LINE
  5
472
330
208
100
AcDbEntity
  8
0
  6
Continuous
 62
     7
100
AcDbLine
 10
234.1031380982
 20
210.7501270402
 30
0.0
 11
240.1031380982
 21
210.7501270402
 31
0.0
  0
LINE
  5
473
330
208
100
AcDbEntity
  8
0
  6
Continuous
 62
     7
100
AcDbLine
 10
246.6031380982
 20
210.7501270402
 30
0.0
 11
252.6031380982
 21
210.7501270402
 31
0.0
  0
LINE
  5
474
330
208
100
AcDbEntity
  8
0
  6
Continuous
 62
     7
100
AcDbLine
 10
259.1031380982
 20
210.7501270402
 30
0.0
 11
265.1031380982
 21
210.7501270402
 31
0.0
  0
LINE
  5
475
330
208
100
AcDbEntity
  8
0
  6
Continuous
 62
     7
100
AcDbLine
 10
271.6031380982
 20
210.7501270402
 30
0.0
 11
277.6031380982
 21
210.7501270402
 31
0.0
  0
LINE
  5
476
330
208
100
AcDbEntity
  8
0
  6
Continuous
 62
     7
100
AcDbLine
 10
284.1031380982
 20
210.7501270402
 30
0.0
 11
290.1031380982
 21
210.7501270402
 31
0.0
  0
LINE
  5
477
330
208
100
AcDbEntity
  8
0
  6
Continuous
 62
     7
100
AcDbLine
 10
296.6031380982
 20
210.7501270402
 30
0.0
 11
302.6031380982
 21
210.7501270402
 31
0.0
  0
LINE
  5
478
330
208
100
AcDbEntity
  8
0
  6
Continuous
 62
     7
100
AcDbLine
 10
309.1031380982
 20
210.7501270402
 30
0.0
 11
315.1031380982
 21
210.7501270402
 31
0.0
  0
LINE
  5
479
330
208
100
AcDbEntity
  8
0
  6
Continuous
 62
     7
100
AcDbLine
 10
321.6031380982
 20
210.7501270402
 30
0.0
 11
327.6031380982
 21
210.7501270402
 31
0.0
  0
LINE
  5
47A
330
208
100
AcDbEntity
  8
0
  6
Continuous
 62
     7
100
AcDbLine
 10
334.1031380982
 20
210.7501270402
 30
0.0
 11
340.1031380982
 21
210.7501270402
 31
0.0
  0
LINE
  5
47B
330
208
100
AcDbEntity
  8
0
  6
Continuous
 62
     7
100
AcDbLine
 10
346.6031380982
 20
210.7501270402
 30
0.0
 11
352.6031380982
 21
210.7501270402
 31
0.0
  0
LINE
  5
47C
330
208
100
AcDbEntity
  8
0
  6
Continuous
 62
     7
100
AcDbLine
 10
359.1031380982
 20
210.7501270402
 30
0.0
 11
365.1031380982
 21
210.7501270402
 31
0.0
  0
LINE
  5
47D
330
208
100
AcDbEntity
  8
0
  6
Continuous
 62
     7
100
AcDbLine
 10
371.6031380982
 20
210.7501270402
 30
0.0
 11
377.6031380982
 21
210.7501270402
 31
0.0
  0
LINE
  5
47E
330
208
100
AcDbEntity
  8
0
  6
Continuous
 62
     7
100
AcDbLine
 10
384.1031380982
 20
210.7501270402
 30
0.0
 11
390.1031380982
 21
210.7501270402
 31
0.0
  0
LINE
  5
47F
330
208
100
AcDbEntity
  8
0
  6
Continuous
 62
     7
100
AcDbLine
 10
396.6031380982
 20
210.7501270402
 30
0.0
 11
402.6031380982
 21
210.7501270402
 31
0.0
  0
LINE
  5
480
330
208
100
AcDbEntity
  8
0
  6
Continuous
 62
     7
100
AcDbLine
 10
409.1031380982
 20
210.7501270402
 30
0.0
 11
415.1031380982
 21
210.7501270402
 31
0.0
  0
LINE
  5
481
330
208
100
AcDbEntity
  8
0
  6
Continuous
 62
     7
100
AcDbLine
 10
421.6031380982
 20
210.7501270402
 30
0.0
 11
427.6031380982
 21
210.7501270402
 31
0.0
  0
LINE
  5
482
330
208
100
AcDbEntity
  8
0
  6
Continuous
 62
     7
100
AcDbLine
 10
434.1031380982
 20
210.7501270402
 30
0.0
 11
440.1031380982
 21
210.7501270402
 31
0.0
  0
LINE
  5
483
330
208
100
AcDbEntity
  8
0
  6
Continuous
 62
     7
100
AcDbLine
 10
446.6031380982
 20
210.7501270402
 30
0.0
 11
452.6031380982
 21
210.7501270402
 31
0.0
  0
LINE
  5
484
330
208
100
AcDbEntity
  8
0
  6
Continuous
 62
     7
100
AcDbLine
 10
459.1031380982
 20
210.7501270402
 30
0.0
 11
465.1031380982
 21
210.7501270402
 31
0.0
  0
LINE
  5
485
330
208
100
AcDbEntity
  8
0
  6
Continuous
 62
     7
100
AcDbLine
 10
471.6031380982
 20
210.7501270402
 30
0.0
 11
477.6031380982
 21
210.7501270402
 31
0.0
  0
LINE
  5
486
330
208
100
AcDbEntity
  8
0
  6
Continuous
 62
     7
100
AcDbLine
 10
484.1031380982
 20
210.7501270402
 30
0.0
 11
490.1031380982
 21
210.7501270402
 31
0.0
  0
LINE
  5
487
330
208
100
AcDbEntity
  8
0
  6
Continuous
 62
     7
100
AcDbLine
 10
496.6031380982
 20
210.7501270402
 30
0.0
 11
502.6031380982
 21
210.7501270402
 31
0.0
  0
LINE
  5
488
330
208
100
AcDbEntity
  8
BEZUGSACHSEN
  6
Continuous
 62
     9
100
AcDbLine
 10
-70.64686190180001
 20
214.5432291379
 30
0.0
 11
507.3531380982
 21
214.5432291379
 31
0.0
  0
LINE
  5
489
330
208
100
AcDbEntity
  8
BEZUGSACHSEN
  6
Continuous
 62
     9
100
AcDbLine
 10
-70.64686190180001
 20
215.5425911793
 30
0.0
 11
507.3531380982
 21
215.5425911793
 31
0.0
  0
LINE
  5
48A
330
208
100
AcDbEntity
  8
0
  6
Continuous
 62
     7
100
AcDbLine
 10
-70.64686190180001
 20
219.5014428538
 30
0.0
 11
507.3531380982
 21
219.5014428538
 31
0.0
  0
LINE
  5
48B
330
208
100
AcDbEntity
  8
0
  6
Continuous
 62
     7
100
AcDbLine
 10
265.1031380982
 20
210.7501270402
 30
0.0
 11
265.1031380982
 21
204.7501270402
 31
0.0
  0
LINE
  5
48C
330
208
100
AcDbEntity
  8
0
  6
Continuous
 62
     7
100
AcDbLine
 10
265.1031380982
 20
198.2501270402
 30
0.0
 11
265.1031380982
 21
192.2501270402
 31
0.0
  0
LINE
  5
48D
330
208
100
AcDbEntity
  8
0
  6
Continuous
 62
     7
100
AcDbLine
 10
265.1031380982
 20
185.7501270402
 30
0.0
 11
265.1031380982
 21
179.7501270402
 31
0.0
  0
LINE
  5
48E
330
208
100
AcDbEntity
  8
0
  6
Continuous
 62
     7
100
AcDbLine
 10
265.1031380982
 20
173.2501270402
 30
0.0
 11
265.1031380982
 21
167.2501270402
 31
0.0
  0
LINE
  5
48F
330
208
100
AcDbEntity
  8
0
  6
Continuous
 62
     7
100
AcDbLine
 10
271.6031380982
 20
167.2501270402
 30
0.0
 11
271.6031380982
 21
173.2501270402
 31
0.0
  0
LINE
  5
490
330
208
100
AcDbEntity
  8
0
  6
Continuous
 62
     7
100
AcDbLine
 10
271.6031380982
 20
179.7501270402
 30
0.0
 11
271.6031380982
 21
185.7501270402
 31
0.0
  0
LINE
  5
491
330
208
100
AcDbEntity
  8
0
  6
Continuous
 62
     7
100
AcDbLine
 10
271.6031380982
 20
192.2501270402
 30
0.0
 11
271.6031380982
 21
198.2501270402
 31
0.0
  0
LINE
  5
492
330
208
100
AcDbEntity
  8
0
  6
Continuous
 62
     7
100
AcDbLine
 10
271.6031380982
 20
204.7501270402
 30
0.0
 11
271.6031380982
 21
210.7501270402
 31
0.0
  0
LINE
  5
493
330
208
100
AcDbEntity
  8
0
  6
Continuous
 62
     7
100
AcDbLine
 10
277.6031380982
 20
210.7501270402
 30
0.0
 11
277.6031380982
 21
204.7501270402
 31
0.0
  0
LINE
  5
494
330
208
100
AcDbEntity
  8
0
  6
Continuous
 62
     7
100
AcDbLine
 10
277.6031380982
 20
198.2501270402
 30
0.0
 11
277.6031380982
 21
192.2501270402
 31
0.0
  0
LINE
  5
495
330
208
100
AcDbEntity
  8
0
  6
Continuous
 62
     7
100
AcDbLine
 10
277.6031380982
 20
185.7501270402
 30
0.0
 11
277.6031380982
 21
179.7501270402
 31
0.0
  0
LINE
  5
496
330
208
100
AcDbEntity
  8
0
  6
Continuous
 62
     7
100
AcDbLine
 10
277.6031380982
 20
173.2501270402
 30
0.0
 11
277.6031380982
 21
167.2501270402
 31
0.0
  0
LINE
  5
497
330
208
100
AcDbEntity
  8
0
  6
Continuous
 62
     7
100
AcDbLine
 10
284.1031380982
 20
167.2501270402
 30
0.0
 11
284.1031380982
 21
173.2501270402
 31
0.0
  0
LINE
  5
498
330
208
100
AcDbEntity
  8
0
  6
Continuous
 62
     7
100
AcDbLine
 10
284.1031380982
 20
179.7501270402
 30
0.0
 11
284.1031380982
 21
185.7501270402
 31
0.0
  0
LINE
  5
499
330
208
100
AcDbEntity
  8
0
  6
Continuous
 62
     7
100
AcDbLine
 10
284.1031380982
 20
192.2501270402
 30
0.0
 11
284.1031380982
 21
198.2501270402
 31
0.0
  0
LINE
  5
49A
330
208
100
AcDbEntity
  8
0
  6
Continuous
 62
     7
100
AcDbLine
 10
284.1031380982
 20
204.7501270402
 30
0.0
 11
284.1031380982
 21
210.7501270402
 31
0.0
  0
LINE
  5
49B
330
208
100
AcDbEntity
  8
0
  6
Continuous
 62
     7
100
AcDbLine
 10
290.1031380982
 20
210.7501270402
 30
0.0
 11
290.1031380982
 21
204.7501270402
 31
0.0
  0
LINE
  5
49C
330
208
100
AcDbEntity
  8
0
  6
Continuous
 62
     7
100
AcDbLine
 10
290.1031380982
 20
198.2501270402
 30
0.0
 11
290.1031380982
 21
192.2501270402
 31
0.0
  0
LINE
  5
49D
330
208
100
AcDbEntity
  8
0
  6
Continuous
 62
     7
100
AcDbLine
 10
290.1031380982
 20
185.7501270402
 30
0.0
 11
290.1031380982
 21
179.7501270402
 31
0.0
  0
LINE
  5
49E
330
208
100
AcDbEntity
  8
0
  6
Continuous
 62
     7
100
AcDbLine
 10
290.1031380982
 20
173.2501270402
 30
0.0
 11
290.1031380982
 21
167.2501270402
 31
0.0
  0
LINE
  5
49F
330
208
100
AcDbEntity
  8
0
  6
Continuous
 62
     7
100
AcDbLine
 10
296.6031380982
 20
167.2501270402
 30
0.0
 11
296.6031380982
 21
173.2501270402
 31
0.0
  0
LINE
  5
4A0
330
208
100
AcDbEntity
  8
0
  6
Continuous
 62
     7
100
AcDbLine
 10
296.6031380982
 20
179.7501270402
 30
0.0
 11
296.6031380982
 21
185.7501270402
 31
0.0
  0
LINE
  5
4A1
330
208
100
AcDbEntity
  8
0
  6
Continuous
 62
     7
100
AcDbLine
 10
296.6031380982
 20
192.2501270402
 30
0.0
 11
296.6031380982
 21
198.2501270402
 31
0.0
  0
LINE
  5
4A2
330
208
100
AcDbEntity
  8
0
  6
Continuous
 62
     7
100
AcDbLine
 10
296.6031380982
 20
204.7501270402
 30
0.0
 11
296.6031380982
 21
210.7501270402
 31
0.0
  0
LINE
  5
4A3
330
208
100
AcDbEntity
  8
0
  6
Continuous
 62
     7
100
AcDbLine
 10
302.6031380982
 20
210.7501270402
 30
0.0
 11
302.6031380982
 21
204.7501270402
 31
0.0
  0
LINE
  5
4A4
330
208
100
AcDbEntity
  8
0
  6
Continuous
 62
     7
100
AcDbLine
 10
302.6031380982
 20
198.2501270402
 30
0.0
 11
302.6031380982
 21
192.2501270402
 31
0.0
  0
LINE
  5
4A5
330
208
100
AcDbEntity
  8
0
  6
Continuous
 62
     7
100
AcDbLine
 10
302.6031380982
 20
185.7501270402
 30
0.0
 11
302.6031380982
 21
179.7501270402
 31
0.0
  0
LINE
  5
4A6
330
208
100
AcDbEntity
  8
0
  6
Continuous
 62
     7
100
AcDbLine
 10
302.6031380982
 20
173.2501270402
 30
0.0
 11
302.6031380982
 21
167.2501270402
 31
0.0
  0
LINE
  5
4A7
330
208
100
AcDbEntity
  8
0
  6
Continuous
 62
     7
100
AcDbLine
 10
309.1031380982
 20
167.2501270402
 30
0.0
 11
309.1031380982
 21
173.2501270402
 31
0.0
  0
LINE
  5
4A8
330
208
100
AcDbEntity
  8
0
  6
Continuous
 62
     7
100
AcDbLine
 10
309.1031380982
 20
179.7501270402
 30
0.0
 11
309.1031380982
 21
185.7501270402
 31
0.0
  0
LINE
  5
4A9
330
208
100
AcDbEntity
  8
0
  6
Continuous
 62
     7
100
AcDbLine
 10
309.1031380982
 20
192.2501270402
 30
0.0
 11
309.1031380982
 21
198.2501270402
 31
0.0
  0
LINE
  5
4AA
330
208
100
AcDbEntity
  8
0
  6
Continuous
 62
     7
100
AcDbLine
 10
309.1031380982
 20
204.7501270402
 30
0.0
 11
309.1031380982
 21
210.7501270402
 31
0.0
  0
LINE
  5
4AB
330
208
100
AcDbEntity
  8
0
  6
Continuous
 62
     7
100
AcDbLine
 10
315.1031380982
 20
210.7501270402
 30
0.0
 11
315.1031380982
 21
204.7501270402
 31
0.0
  0
LINE
  5
4AC
330
208
100
AcDbEntity
  8
0
  6
Continuous
 62
     7
100
AcDbLine
 10
315.1031380982
 20
198.2501270402
 30
0.0
 11
315.1031380982
 21
192.2501270402
 31
0.0
  0
LINE
  5
4AD
330
208
100
AcDbEntity
  8
0
  6
Continuous
 62
     7
100
AcDbLine
 10
315.1031380982
 20
185.7501270402
 30
0.0
 11
315.1031380982
 21
179.7501270402
 31
0.0
  0
LINE
  5
4AE
330
208
100
AcDbEntity
  8
0
  6
Continuous
 62
     7
100
AcDbLine
 10
315.1031380982
 20
173.2501270402
 30
0.0
 11
315.1031380982
 21
167.2501270402
 31
0.0
  0
LINE
  5
4AF
330
208
100
AcDbEntity
  8
0
  6
Continuous
 62
     7
100
AcDbLine
 10
321.6031380982
 20
167.2501270402
 30
0.0
 11
321.6031380982
 21
173.2501270402
 31
0.0
  0
LINE
  5
4B0
330
208
100
AcDbEntity
  8
0
  6
Continuous
 62
     7
100
AcDbLine
 10
321.6031380982
 20
179.7501270402
 30
0.0
 11
321.6031380982
 21
185.7501270402
 31
0.0
  0
LINE
  5
4B1
330
208
100
AcDbEntity
  8
0
  6
Continuous
 62
     7
100
AcDbLine
 10
321.6031380982
 20
192.2501270402
 30
0.0
 11
321.6031380982
 21
198.2501270402
 31
0.0
  0
LINE
  5
4B2
330
208
100
AcDbEntity
  8
0
  6
Continuous
 62
     7
100
AcDbLine
 10
321.6031380982
 20
204.7501270402
 30
0.0
 11
321.6031380982
 21
210.7501270402
 31
0.0
  0
LINE
  5
4B3
330
208
100
AcDbEntity
  8
0
  6
Continuous
 62
     7
100
AcDbLine
 10
327.6031380982
 20
210.7501270402
 30
0.0
 11
327.6031380982
 21
204.7501270402
 31
0.0
  0
LINE
  5
4B4
330
208
100
AcDbEntity
  8
0
  6
Continuous
 62
     7
100
AcDbLine
 10
327.6031380982
 20
198.2501270402
 30
0.0
 11
327.6031380982
 21
192.2501270402
 31
0.0
  0
LINE
  5
4B5
330
208
100
AcDbEntity
  8
0
  6
Continuous
 62
     7
100
AcDbLine
 10
327.6031380982
 20
185.7501270402
 30
0.0
 11
327.6031380982
 21
179.7501270402
 31
0.0
  0
LINE
  5
4B6
330
208
100
AcDbEntity
  8
0
  6
Continuous
 62
     7
100
AcDbLine
 10
327.6031380982
 20
173.2501270402
 30
0.0
 11
327.6031380982
 21
167.2501270402
 31
0.0
  0
LINE
  5
4B7
330
208
100
AcDbEntity
  8
0
  6
Continuous
 62
     7
100
AcDbLine
 10
334.1031380982
 20
167.2501270402
 30
0.0
 11
334.1031380982
 21
173.2501270402
 31
0.0
  0
LINE
  5
4B8
330
208
100
AcDbEntity
  8
0
  6
Continuous
 62
     7
100
AcDbLine
 10
334.1031380982
 20
179.7501270402
 30
0.0
 11
334.1031380982
 21
185.7501270402
 31
0.0
  0
LINE
  5
4B9
330
208
100
AcDbEntity
  8
0
  6
Continuous
 62
     7
100
AcDbLine
 10
334.1031380982
 20
192.2501270402
 30
0.0
 11
334.1031380982
 21
198.2501270402
 31
0.0
  0
LINE
  5
4BA
330
208
100
AcDbEntity
  8
0
  6
Continuous
 62
     7
100
AcDbLine
 10
334.1031380982
 20
204.7501270402
 30
0.0
 11
334.1031380982
 21
210.7501270402
 31
0.0
  0
LINE
  5
4BB
330
208
100
AcDbEntity
  8
0
  6
Continuous
 62
     7
100
AcDbLine
 10
340.1031380982
 20
210.7501270402
 30
0.0
 11
340.1031380982
 21
204.7501270402
 31
0.0
  0
LINE
  5
4BC
330
208
100
AcDbEntity
  8
0
  6
Continuous
 62
     7
100
AcDbLine
 10
340.1031380982
 20
198.2501270402
 30
0.0
 11
340.1031380982
 21
192.2501270402
 31
0.0
  0
LINE
  5
4BD
330
208
100
AcDbEntity
  8
0
  6
Continuous
 62
     7
100
AcDbLine
 10
340.1031380982
 20
185.7501270402
 30
0.0
 11
340.1031380982
 21
179.7501270402
 31
0.0
  0
LINE
  5
4BE
330
208
100
AcDbEntity
  8
0
  6
Continuous
 62
     7
100
AcDbLine
 10
340.1031380982
 20
173.2501270402
 30
0.0
 11
340.1031380982
 21
167.2501270402
 31
0.0
  0
LINE
  5
4BF
330
208
100
AcDbEntity
  8
0
  6
Continuous
 62
     7
100
AcDbLine
 10
346.6031380982
 20
167.2501270402
 30
0.0
 11
346.6031380982
 21
173.2501270402
 31
0.0
  0
LINE
  5
4C0
330
208
100
AcDbEntity
  8
0
  6
Continuous
 62
     7
100
AcDbLine
 10
346.6031380982
 20
179.7501270402
 30
0.0
 11
346.6031380982
 21
185.7501270402
 31
0.0
  0
LINE
  5
4C1
330
208
100
AcDbEntity
  8
0
  6
Continuous
 62
     7
100
AcDbLine
 10
346.6031380982
 20
192.2501270402
 30
0.0
 11
346.6031380982
 21
198.2501270402
 31
0.0
  0
LINE
  5
4C2
330
208
100
AcDbEntity
  8
0
  6
Continuous
 62
     7
100
AcDbLine
 10
346.6031380982
 20
204.7501270402
 30
0.0
 11
346.6031380982
 21
210.7501270402
 31
0.0
  0
LINE
  5
4C3
330
208
100
AcDbEntity
  8
0
  6
Continuous
 62
     7
100
AcDbLine
 10
352.6031380982
 20
210.7501270402
 30
0.0
 11
352.6031380982
 21
204.7501270402
 31
0.0
  0
LINE
  5
4C4
330
208
100
AcDbEntity
  8
0
  6
Continuous
 62
     7
100
AcDbLine
 10
352.6031380982
 20
198.2501270402
 30
0.0
 11
352.6031380982
 21
192.2501270402
 31
0.0
  0
LINE
  5
4C5
330
208
100
AcDbEntity
  8
0
  6
Continuous
 62
     7
100
AcDbLine
 10
352.6031380982
 20
185.7501270402
 30
0.0
 11
352.6031380982
 21
179.7501270402
 31
0.0
  0
LINE
  5
4C6
330
208
100
AcDbEntity
  8
0
  6
Continuous
 62
     7
100
AcDbLine
 10
352.6031380982
 20
173.2501270402
 30
0.0
 11
352.6031380982
 21
167.2501270402
 31
0.0
  0
LINE
  5
4C7
330
208
100
AcDbEntity
  8
0
  6
Continuous
 62
     7
100
AcDbLine
 10
495.4530640992
 20
168.7908668984
 30
0.0
 11
494.6537226458
 21
169.2523669017
 31
0.0
  0
LINE
  5
4C8
330
208
100
AcDbEntity
  8
0
  6
Continuous
 62
     7
100
AcDbLine
 10
359.1031380982
 20
167.2501270402
 30
0.0
 11
359.1031380982
 21
173.2501270402
 31
0.0
  0
LINE
  5
4C9
330
208
100
AcDbEntity
  8
0
  6
Continuous
 62
     7
100
AcDbLine
 10
359.1031380982
 20
179.7501270402
 30
0.0
 11
359.1031380982
 21
185.7501270402
 31
0.0
  0
LINE
  5
4CA
330
208
100
AcDbEntity
  8
0
  6
Continuous
 62
     7
100
AcDbLine
 10
359.1031380982
 20
192.2501270402
 30
0.0
 11
359.1031380982
 21
198.2501270402
 31
0.0
  0
LINE
  5
4CB
330
208
100
AcDbEntity
  8
0
  6
Continuous
 62
     7
100
AcDbLine
 10
359.1031380982
 20
204.7501270402
 30
0.0
 11
359.1031380982
 21
210.7501270402
 31
0.0
  0
LINE
  5
4CC
330
208
100
AcDbEntity
  8
0
  6
Continuous
 62
     7
100
AcDbLine
 10
365.1031380982
 20
210.7501270402
 30
0.0
 11
365.1031380982
 21
204.7501270402
 31
0.0
  0
LINE
  5
4CD
330
208
100
AcDbEntity
  8
0
  6
Continuous
 62
     7
100
AcDbLine
 10
365.1031380982
 20
198.2501270402
 30
0.0
 11
365.1031380982
 21
192.2501270402
 31
0.0
  0
LINE
  5
4CE
330
208
100
AcDbEntity
  8
0
  6
Continuous
 62
     7
100
AcDbLine
 10
365.1031380982
 20
185.7501270402
 30
0.0
 11
365.1031380982
 21
179.7501270402
 31
0.0
  0
LINE
  5
4CF
330
208
100
AcDbEntity
  8
0
  6
Continuous
 62
     7
100
AcDbLine
 10
365.1031380982
 20
173.2501270402
 30
0.0
 11
365.1031380982
 21
167.2501270402
 31
0.0
  0
LINE
  5
4D0
330
208
100
AcDbEntity
  8
0
  6
Continuous
 62
     7
100
AcDbLine
 10
371.6031380982
 20
167.2501270402
 30
0.0
 11
371.6031380982
 21
173.2501270402
 31
0.0
  0
LINE
  5
4D1
330
208
100
AcDbEntity
  8
0
  6
Continuous
 62
     7
100
AcDbLine
 10
371.6031380982
 20
179.7501270402
 30
0.0
 11
371.6031380982
 21
185.7501270402
 31
0.0
  0
LINE
  5
4D2
330
208
100
AcDbEntity
  8
0
  6
Continuous
 62
     7
100
AcDbLine
 10
371.6031380982
 20
192.2501270402
 30
0.0
 11
371.6031380982
 21
198.2501270402
 31
0.0
  0
LINE
  5
4D3
330
208
100
AcDbEntity
  8
0
  6
Continuous
 62
     7
100
AcDbLine
 10
371.6031380982
 20
204.7501270402
 30
0.0
 11
371.6031380982
 21
210.7501270402
 31
0.0
  0
LINE
  5
4D4
330
208
100
AcDbEntity
  8
0
  6
Continuous
 62
     7
100
AcDbLine
 10
494.6343761355
 20
171.3626871208
 30
0.0
 11
495.4338120801
 21
171.8242416786
 31
0.0
  0
LINE
  5
4D5
330
208
100
AcDbEntity
  8
0
  6
Continuous
 62
     7
100
AcDbLine
 10
377.6031380982
 20
210.7501270402
 30
0.0
 11
377.6031380982
 21
204.7501270402
 31
0.0
  0
LINE
  5
4D6
330
208
100
AcDbEntity
  8
0
  6
Continuous
 62
     7
100
AcDbLine
 10
377.6031380982
 20
198.2501270402
 30
0.0
 11
377.6031380982
 21
192.2501270402
 31
0.0
  0
LINE
  5
4D7
330
208
100
AcDbEntity
  8
0
  6
Continuous
 62
     7
100
AcDbLine
 10
377.6031380982
 20
185.7501270402
 30
0.0
 11
377.6031380982
 21
179.7501270402
 31
0.0
  0
LINE
  5
4D8
330
208
100
AcDbEntity
  8
0
  6
Continuous
 62
     7
100
AcDbLine
 10
377.6031380982
 20
173.2501270402
 30
0.0
 11
377.6031380982
 21
167.2501270402
 31
0.0
  0
LINE
  5
4D9
330
208
100
AcDbEntity
  8
0
  6
Continuous
 62
     7
100
AcDbLine
 10
384.1031380982
 20
167.2501270402
 30
0.0
 11
384.1031380982
 21
173.2501270402
 31
0.0
  0
LINE
  5
4DA
330
208
100
AcDbEntity
  8
0
  6
Continuous
 62
     7
100
AcDbLine
 10
384.1031380982
 20
179.7501270402
 30
0.0
 11
384.1031380982
 21
185.7501270402
 31
0.0
  0
LINE
  5
4DB
330
208
100
AcDbEntity
  8
0
  6
Continuous
 62
     7
100
AcDbLine
 10
384.1031380982
 20
192.2501270402
 30
0.0
 11
384.1031380982
 21
198.2501270402
 31
0.0
  0
LINE
  5
4DC
330
208
100
AcDbEntity
  8
0
  6
Continuous
 62
     7
100
AcDbLine
 10
384.1031380982
 20
204.7501270402
 30
0.0
 11
384.1031380982
 21
210.7501270402
 31
0.0
  0
LINE
  5
4DD
330
208
100
AcDbEntity
  8
0
  6
Continuous
 62
     7
100
AcDbLine
 10
390.1031380982
 20
210.7501270402
 30
0.0
 11
390.1031380982
 21
204.7501270402
 31
0.0
  0
LINE
  5
4DE
330
208
100
AcDbEntity
  8
0
  6
Continuous
 62
     7
100
AcDbLine
 10
390.1031380982
 20
198.2501270402
 30
0.0
 11
390.1031380982
 21
192.2501270402
 31
0.0
  0
LINE
  5
4DF
330
208
100
AcDbEntity
  8
0
  6
Continuous
 62
     7
100
AcDbLine
 10
390.1031380982
 20
185.7501270402
 30
0.0
 11
390.1031380982
 21
179.7501270402
 31
0.0
  0
LINE
  5
4E0
330
208
100
AcDbEntity
  8
0
  6
Continuous
 62
     7
100
AcDbLine
 10
390.1031380982
 20
173.2501270402
 30
0.0
 11
390.1031380982
 21
167.2501270402
 31
0.0
  0
LINE
  5
4E1
330
208
100
AcDbEntity
  8
0
  6
Continuous
 62
     7
100
AcDbLine
 10
396.6031380982
 20
167.2501270402
 30
0.0
 11
396.6031380982
 21
173.2501270402
 31
0.0
  0
LINE
  5
4E2
330
208
100
AcDbEntity
  8
0
  6
Continuous
 62
     7
100
AcDbLine
 10
396.6031380982
 20
179.7501270402
 30
0.0
 11
396.6031380982
 21
185.7501270402
 31
0.0
  0
LINE
  5
4E3
330
208
100
AcDbEntity
  8
0
  6
Continuous
 62
     7
100
AcDbLine
 10
396.6031380982
 20
192.2501270402
 30
0.0
 11
396.6031380982
 21
198.2501270402
 31
0.0
  0
LINE
  5
4E4
330
208
100
AcDbEntity
  8
0
  6
Continuous
 62
     7
100
AcDbLine
 10
396.6031380982
 20
204.7501270402
 30
0.0
 11
396.6031380982
 21
210.7501270402
 31
0.0
  0
LINE
  5
4E5
330
208
100
AcDbEntity
  8
0
  6
Continuous
 62
     7
100
AcDbLine
 10
402.6031380982
 20
210.7501270402
 30
0.0
 11
402.6031380982
 21
204.7501270402
 31
0.0
  0
LINE
  5
4E6
330
208
100
AcDbEntity
  8
0
  6
Continuous
 62
     7
100
AcDbLine
 10
402.6031380982
 20
198.2501270402
 30
0.0
 11
402.6031380982
 21
192.2501270402
 31
0.0
  0
LINE
  5
4E7
330
208
100
AcDbEntity
  8
0
  6
Continuous
 62
     7
100
AcDbLine
 10
402.6031380982
 20
185.7501270402
 30
0.0
 11
402.6031380982
 21
179.7501270402
 31
0.0
  0
LINE
  5
4E8
330
208
100
AcDbEntity
  8
0
  6
Continuous
 62
     7
100
AcDbLine
 10
402.6031380982
 20
173.2501270402
 30
0.0
 11
402.6031380982
 21
167.2501270402
 31
0.0
  0
LINE
  5
4E9
330
208
100
AcDbEntity
  8
0
  6
Continuous
 62
     7
100
AcDbLine
 10
409.1031380982
 20
167.2501270402
 30
0.0
 11
409.1031380982
 21
173.2501270402
 31
0.0
  0
LINE
  5
4EA
330
208
100
AcDbEntity
  8
0
  6
Continuous
 62
     7
100
AcDbLine
 10
409.1031380982
 20
179.7501270402
 30
0.0
 11
409.1031380982
 21
185.7501270402
 31
0.0
  0
LINE
  5
4EB
330
208
100
AcDbEntity
  8
0
  6
Continuous
 62
     7
100
AcDbLine
 10
409.1031380982
 20
192.2501270402
 30
0.0
 11
409.1031380982
 21
198.2501270402
 31
0.0
  0
LINE
  5
4EC
330
208
100
AcDbEntity
  8
0
  6
Continuous
 62
     7
100
AcDbLine
 10
409.1031380982
 20
204.7501270402
 30
0.0
 11
409.1031380982
 21
210.7501270402
 31
0.0
  0
LINE
  5
4ED
330
208
100
AcDbEntity
  8
0
  6
Continuous
 62
     7
100
AcDbLine
 10
415.1031380982
 20
210.7501270402
 30
0.0
 11
415.1031380982
 21
204.7501270402
 31
0.0
  0
LINE
  5
4EE
330
208
100
AcDbEntity
  8
0
  6
Continuous
 62
     7
100
AcDbLine
 10
415.1031380982
 20
198.2501270402
 30
0.0
 11
415.1031380982
 21
192.2501270402
 31
0.0
  0
LINE
  5
4EF
330
208
100
AcDbEntity
  8
0
  6
Continuous
 62
     7
100
AcDbLine
 10
415.1031380982
 20
185.7501270402
 30
0.0
 11
415.1031380982
 21
179.7501270402
 31
0.0
  0
LINE
  5
4F0
330
208
100
AcDbEntity
  8
0
  6
Continuous
 62
     7
100
AcDbLine
 10
415.1031380982
 20
173.2501270402
 30
0.0
 11
415.1031380982
 21
167.2501270402
 31
0.0
  0
LINE
  5
4F1
330
208
100
AcDbEntity
  8
0
  6
Continuous
 62
     7
100
AcDbLine
 10
421.6031380982
 20
167.2501270402
 30
0.0
 11
421.6031380982
 21
173.2501270402
 31
0.0
  0
LINE
  5
4F2
330
208
100
AcDbEntity
  8
0
  6
Continuous
 62
     7
100
AcDbLine
 10
421.6031380982
 20
179.7501270402
 30
0.0
 11
421.6031380982
 21
185.7501270402
 31
0.0
  0
LINE
  5
4F3
330
208
100
AcDbEntity
  8
0
  6
Continuous
 62
     7
100
AcDbLine
 10
421.6031380982
 20
192.2501270402
 30
0.0
 11
421.6031380982
 21
198.2501270402
 31
0.0
  0
LINE
  5
4F4
330
208
100
AcDbEntity
  8
0
  6
Continuous
 62
     7
100
AcDbLine
 10
421.6031380982
 20
204.7501270402
 30
0.0
 11
421.6031380982
 21
210.7501270402
 31
0.0
  0
LINE
  5
4F5
330
208
100
AcDbEntity
  8
0
  6
Continuous
 62
     7
100
AcDbLine
 10
427.6031380982
 20
210.7501270402
 30
0.0
 11
427.6031380982
 21
204.7501270402
 31
0.0
  0
LINE
  5
4F6
330
208
100
AcDbEntity
  8
0
  6
Continuous
 62
     7
100
AcDbLine
 10
427.6031380982
 20
198.2501270402
 30
0.0
 11
427.6031380982
 21
192.2501270402
 31
0.0
  0
LINE
  5
4F7
330
208
100
AcDbEntity
  8
0
  6
Continuous
 62
     7
100
AcDbLine
 10
427.6031380982
 20
185.7501270402
 30
0.0
 11
427.6031380982
 21
179.7501270402
 31
0.0
  0
LINE
  5
4F8
330
208
100
AcDbEntity
  8
0
  6
Continuous
 62
     7
100
AcDbLine
 10
427.6031380982
 20
173.2501270402
 30
0.0
 11
427.6031380982
 21
167.2501270402
 31
0.0
  0
LINE
  5
4F9
330
208
100
AcDbEntity
  8
0
  6
Continuous
 62
     7
100
AcDbLine
 10
434.1031380982
 20
167.2501270402
 30
0.0
 11
434.1031380982
 21
173.2501270402
 31
0.0
  0
LINE
  5
4FA
330
208
100
AcDbEntity
  8
0
  6
Continuous
 62
     7
100
AcDbLine
 10
434.1031380982
 20
179.7501270402
 30
0.0
 11
434.1031380982
 21
185.7501270402
 31
0.0
  0
LINE
  5
4FB
330
208
100
AcDbEntity
  8
0
  6
Continuous
 62
     7
100
AcDbLine
 10
434.1031380982
 20
192.2501270402
 30
0.0
 11
434.1031380982
 21
198.2501270402
 31
0.0
  0
LINE
  5
4FC
330
208
100
AcDbEntity
  8
0
  6
Continuous
 62
     7
100
AcDbLine
 10
434.1031380982
 20
204.7501270402
 30
0.0
 11
434.1031380982
 21
210.7501270402
 31
0.0
  0
LINE
  5
4FD
330
208
100
AcDbEntity
  8
0
  6
Continuous
 62
     7
100
AcDbLine
 10
440.1031380982
 20
210.7501270402
 30
0.0
 11
440.1031380982
 21
204.7501270402
 31
0.0
  0
LINE
  5
4FE
330
208
100
AcDbEntity
  8
0
  6
Continuous
 62
     7
100
AcDbLine
 10
440.1031380982
 20
198.2501270402
 30
0.0
 11
440.1031380982
 21
192.2501270402
 31
0.0
  0
LINE
  5
4FF
330
208
100
AcDbEntity
  8
0
  6
Continuous
 62
     7
100
AcDbLine
 10
440.1031380982
 20
185.7501270402
 30
0.0
 11
440.1031380982
 21
179.7501270402
 31
0.0
  0
LINE
  5
500
330
208
100
AcDbEntity
  8
0
  6
Continuous
 62
     7
100
AcDbLine
 10
440.1031380982
 20
173.2501270402
 30
0.0
 11
440.1031380982
 21
167.2501270402
 31
0.0
  0
LINE
  5
501
330
208
100
AcDbEntity
  8
0
  6
Continuous
 62
     7
100
AcDbLine
 10
446.6031380982
 20
167.2501270402
 30
0.0
 11
446.6031380982
 21
173.2501270402
 31
0.0
  0
LINE
  5
502
330
208
100
AcDbEntity
  8
0
  6
Continuous
 62
     7
100
AcDbLine
 10
446.6031380982
 20
179.7501270402
 30
0.0
 11
446.6031380982
 21
185.7501270402
 31
0.0
  0
LINE
  5
503
330
208
100
AcDbEntity
  8
0
  6
Continuous
 62
     7
100
AcDbLine
 10
446.6031380982
 20
192.2501270402
 30
0.0
 11
446.6031380982
 21
198.2501270402
 31
0.0
  0
LINE
  5
504
330
208
100
AcDbEntity
  8
0
  6
Continuous
 62
     7
100
AcDbLine
 10
446.6031380982
 20
204.7501270402
 30
0.0
 11
446.6031380982
 21
210.7501270402
 31
0.0
  0
LINE
  5
505
330
208
100
AcDbEntity
  8
0
  6
Continuous
 62
     7
100
AcDbLine
 10
452.6031380982
 20
210.7501270402
 30
0.0
 11
452.6031380982
 21
204.7501270402
 31
0.0
  0
LINE
  5
506
330
208
100
AcDbEntity
  8
0
  6
Continuous
 62
     7
100
AcDbLine
 10
452.6031380982
 20
198.2501270402
 30
0.0
 11
452.6031380982
 21
192.2501270402
 31
0.0
  0
LINE
  5
507
330
208
100
AcDbEntity
  8
0
  6
Continuous
 62
     7
100
AcDbLine
 10
452.6031380982
 20
185.7501270402
 30
0.0
 11
452.6031380982
 21
179.7501270402
 31
0.0
  0
LINE
  5
508
330
208
100
AcDbEntity
  8
0
  6
Continuous
 62
     7
100
AcDbLine
 10
452.6031380982
 20
173.2501270402
 30
0.0
 11
452.6031380982
 21
167.2501270402
 31
0.0
  0
LINE
  5
509
330
208
100
AcDbEntity
  8
0
  6
Continuous
 62
     7
100
AcDbLine
 10
459.1031380982
 20
167.2501270402
 30
0.0
 11
459.1031380982
 21
173.2501270402
 31
0.0
  0
LINE
  5
50A
330
208
100
AcDbEntity
  8
0
  6
Continuous
 62
     7
100
AcDbLine
 10
459.1031380982
 20
179.7501270402
 30
0.0
 11
459.1031380982
 21
185.7501270402
 31
0.0
  0
LINE
  5
50B
330
208
100
AcDbEntity
  8
0
  6
Continuous
 62
     7
100
AcDbLine
 10
459.1031380982
 20
192.2501270402
 30
0.0
 11
459.1031380982
 21
198.2501270402
 31
0.0
  0
LINE
  5
50C
330
208
100
AcDbEntity
  8
0
  6
Continuous
 62
     7
100
AcDbLine
 10
459.1031380982
 20
204.7501270402
 30
0.0
 11
459.1031380982
 21
210.7501270402
 31
0.0
  0
LINE
  5
50D
330
208
100
AcDbEntity
  8
0
  6
Continuous
 62
     7
100
AcDbLine
 10
465.1031380982
 20
210.7501270402
 30
0.0
 11
465.1031380982
 21
204.7501270402
 31
0.0
  0
LINE
  5
50E
330
208
100
AcDbEntity
  8
0
  6
Continuous
 62
     7
100
AcDbLine
 10
465.1031380982
 20
198.2501270402
 30
0.0
 11
465.1031380982
 21
192.2501270402
 31
0.0
  0
LINE
  5
50F
330
208
100
AcDbEntity
  8
0
  6
Continuous
 62
     7
100
AcDbLine
 10
465.1031380982
 20
185.7501270402
 30
0.0
 11
465.1031380982
 21
179.7501270402
 31
0.0
  0
LINE
  5
510
330
208
100
AcDbEntity
  8
0
  6
Continuous
 62
     7
100
AcDbLine
 10
465.1031380982
 20
173.2501270402
 30
0.0
 11
465.1031380982
 21
167.2501270402
 31
0.0
  0
LINE
  5
511
330
208
100
AcDbEntity
  8
0
  6
Continuous
 62
     7
100
AcDbLine
 10
471.6031380982
 20
167.2501270402
 30
0.0
 11
471.6031380982
 21
173.2501270402
 31
0.0
  0
LINE
  5
512
330
208
100
AcDbEntity
  8
0
  6
Continuous
 62
     7
100
AcDbLine
 10
471.6031380982
 20
179.7501270402
 30
0.0
 11
471.6031380982
 21
185.7501270402
 31
0.0
  0
LINE
  5
513
330
208
100
AcDbEntity
  8
0
  6
Continuous
 62
     7
100
AcDbLine
 10
471.6031380982
 20
192.2501270402
 30
0.0
 11
471.6031380982
 21
198.2501270402
 31
0.0
  0
LINE
  5
514
330
208
100
AcDbEntity
  8
0
  6
Continuous
 62
     7
100
AcDbLine
 10
471.6031380982
 20
204.7501270402
 30
0.0
 11
471.6031380982
 21
210.7501270402
 31
0.0
  0
LINE
  5
515
330
208
100
AcDbEntity
  8
0
  6
Continuous
 62
     7
100
AcDbLine
 10
477.6031380982
 20
210.7501270402
 30
0.0
 11
477.6031380982
 21
204.7501270402
 31
0.0
  0
LINE
  5
516
330
208
100
AcDbEntity
  8
0
  6
Continuous
 62
     7
100
AcDbLine
 10
477.6031380982
 20
198.2501270402
 30
0.0
 11
477.6031380982
 21
192.2501270402
 31
0.0
  0
LINE
  5
517
330
208
100
AcDbEntity
  8
0
  6
Continuous
 62
     7
100
AcDbLine
 10
477.6031380982
 20
185.7501270402
 30
0.0
 11
477.6031380982
 21
179.7501270402
 31
0.0
  0
LINE
  5
518
330
208
100
AcDbEntity
  8
0
  6
Continuous
 62
     7
100
AcDbLine
 10
477.6031380982
 20
173.2501270402
 30
0.0
 11
477.6031380982
 21
167.2501270402
 31
0.0
  0
LINE
  5
519
330
208
100
AcDbEntity
  8
0
  6
Continuous
 62
     7
100
AcDbLine
 10
484.1031380982
 20
179.7501270402
 30
0.0
 11
484.1031380982
 21
185.7501270402
 31
0.0
  0
LINE
  5
51A
330
208
100
AcDbEntity
  8
0
  6
Continuous
 62
     7
100
AcDbLine
 10
484.1031380982
 20
192.2501270402
 30
0.0
 11
484.1031380982
 21
198.2501270402
 31
0.0
  0
LINE
  5
51B
330
208
100
AcDbEntity
  8
0
  6
Continuous
 62
     7
100
AcDbLine
 10
484.1031380982
 20
204.7501270402
 30
0.0
 11
484.1031380982
 21
210.7501270402
 31
0.0
  0
LINE
  5
51C
330
208
100
AcDbEntity
  8
0
  6
Continuous
 62
     7
100
AcDbLine
 10
490.1031380982
 20
210.7501270402
 30
0.0
 11
490.1031380982
 21
204.7501270402
 31
0.0
  0
LINE
  5
51D
330
208
100
AcDbEntity
  8
0
  6
Continuous
 62
     7
100
AcDbLine
 10
490.1031380982
 20
198.2501270402
 30
0.0
 11
490.1031380982
 21
192.2501270402
 31
0.0
  0
LINE
  5
51E
330
208
100
AcDbEntity
  8
0
  6
Continuous
 62
     7
100
AcDbLine
 10
490.1031380982
 20
185.7501270402
 30
0.0
 11
490.1031380982
 21
179.7501270402
 31
0.0
  0
LINE
  5
51F
330
208
100
AcDbEntity
  8
0
  6
Continuous
 62
     7
100
AcDbLine
 10
496.6031380982
 20
179.7501270402
 30
0.0
 11
496.6031380982
 21
185.7501270402
 31
0.0
  0
LINE
  5
520
330
208
100
AcDbEntity
  8
0
  6
Continuous
 62
     7
100
AcDbLine
 10
496.6031380982
 20
192.2501270402
 30
0.0
 11
496.6031380982
 21
198.2501270402
 31
0.0
  0
LINE
  5
521
330
208
100
AcDbEntity
  8
0
  6
Continuous
 62
     7
100
AcDbLine
 10
496.6031380982
 20
204.7501270402
 30
0.0
 11
496.6031380982
 21
210.7501270402
 31
0.0
  0
LINE
  5
522
330
208
100
AcDbEntity
  8
0
  6
Continuous
 62
     7
100
AcDbLine
 10
502.6031380982
 20
210.7501270402
 30
0.0
 11
502.6031380982
 21
204.7501270402
 31
0.0
  0
LINE
  5
523
330
208
100
AcDbEntity
  8
0
  6
Continuous
 62
     7
100
AcDbLine
 10
502.6031380982
 20
198.2501270402
 30
0.0
 11
502.6031380982
 21
192.2501270402
 31
0.0
  0
LINE
  5
524
330
208
100
AcDbEntity
  8
0
  6
Continuous
 62
     7
100
AcDbLine
 10
502.6031380982
 20
185.7501270402
 30
0.0
 11
502.6031380982
 21
179.7501270402
 31
0.0
  0
LINE
  5
525
330
208
100
AcDbEntity
  8
0
  6
Continuous
 62
     7
100
AcDbLine
 10
507.3531380982
 20
158.0000141396
 30
0.0
 11
507.3531380982
 21
219.5002399407
 31
0.0
  0
LINE
  5
526
330
208
100
AcDbEntity
  8
0
  6
Continuous
 62
     7
100
AcDbLine
 10
-70.64686190180001
 20
273.318449884
 30
0.0
 11
-70.64686190180001
 21
262.3526144509
 31
0.0
  0
LINE
  5
527
102
{ACAD_REACTORS
330
787
102
}
330
208
100
AcDbEntity
  8
0
  6
Continuous
 62
     7
100
AcDbLine
 10
-70.64686190180001
 20
273.318449884
 30
0.0
 11
-70.64686190180001
 21
275.5527961932
 31
0.0
  0
LINE
  5
529
330
208
100
AcDbEntity
  8
0
  6
Continuous
 62
     7
100
AcDbLine
 10
-70.64686190180001
 20
262.3526144509
 30
0.0
 11
-68.64686190180001
 21
260.3538327968
 31
0.0
  0
LINE
  5
52A
102
{ACAD_REACTORS
330
787
102
}
330
208
100
AcDbEntity
  8
0
  6
Continuous
 62
     7
100
AcDbLine
 10
-68.64686190180001
 20
260.3538327968
 30
0.0
 11
505.3531380982
 21
260.3538327968
 31
0.0
  0
LINE
  5
52B
330
208
100
AcDbEntity
  8
BEZUGSACHSEN
  6
Continuous
 62
     9
100
AcDbLine
 10
-70.64686190180001
 20
273.318449884
 30
0.0
 11
507.3531380982
 21
273.318449884
 31
0.0
  0
LINE
  5
52C
330
208
100
AcDbEntity
  8
0
  6
Continuous
 62
     7
100
AcDbLine
 10
-70.64686190180001
 20
275.5538327968
 30
0.0
 11
507.3531380982
 21
275.5538327968
 31
0.0
  0
LINE
  5
52D
330
208
100
AcDbEntity
  8
0
  6
Continuous
 62
     7
100
AcDbLine
 10
505.3531380982
 20
260.3538327968
 30
0.0
 11
507.3531380982
 21
262.3526144509
 31
0.0
  0
LINE
  5
52F
330
208
100
AcDbEntity
  8
0
  6
Continuous
 62
     7
100
AcDbLine
 10
507.3531380982
 20
275.5527961932
 30
0.0
 11
507.3531380982
 21
273.318449884
 31
0.0
  0
LINE
  5
530
330
208
100
AcDbEntity
  8
0
  6
Continuous
 62
     7
100
AcDbLine
 10
507.3531380982
 20
273.318449884
 30
0.0
 11
507.3531380982
 21
262.3526144509
 31
0.0
  0
ARC
  5
531
330
208
100
AcDbEntity
  8
0
  6
Continuous
 62
     7
100
AcDbCircle
 10
488.7391380981997
 20
167.2171270402
 30
0.0
 40
7.386
100
AcDbArc
 50
126.4241761856
 51
179.7440066322
  0
ARC
  5
532
330
208
100
AcDbEntity
  8
0
  6
Continuous
 62
     7
100
AcDbCircle
 10
479.9681380982
 20
167.2171270402
 30
0.0
 40
7.386
100
AcDbArc
 50
0.2559933678
 51
53.5758238144
  0
ARC
  5
533
330
208
100
AcDbEntity
  8
0
  6
Continuous
 62
     7
100
AcDbCircle
 10
479.9681380982
 20
167.2171270402
 30
0.0
 40
6.462999999999999
100
AcDbArc
 50
0.2925528299
 51
7.700422993099999
  0
ARC
  5
534
330
208
100
AcDbEntity
  8
0
  6
Continuous
 62
     7
100
AcDbCircle
 10
479.9681380982
 20
167.2171270402
 30
0.0
 40
6.462999999999999
100
AcDbArc
 50
16.0696949621
 51
47.26029003409998
  0
ARC
  5
535
330
208
100
AcDbEntity
  8
0
  6
Continuous
 62
     7
100
AcDbCircle
 10
488.7391380981997
 20
167.2171270402
 30
0.0
 40
6.462
100
AcDbArc
 50
172.2983781311
 51
179.7074018969
  0
ARC
  5
536
330
208
100
AcDbEntity
  8
0
  6
Continuous
 62
     7
100
AcDbCircle
 10
488.7391380981997
 20
167.2171270402
 30
0.0
 40
6.462
100
AcDbArc
 50
132.7301138375
 51
163.9277508971
  0
CIRCLE
  5
537
330
208
100
AcDbEntity
  8
0
  6
Continuous
 62
     7
100
AcDbCircle
 10
501.3571380981998
 20
170.2911270402
 30
0.0
 40
3.0
  0
ARC
  5
538
330
208
100
AcDbEntity
  8
0
  6
Continuous
 62
     7
100
AcDbCircle
 10
492.8551380981998
 20
170.2911270402
 30
0.0
 40
3.0
100
AcDbArc
 50
30.7330093499
 51
329.994262887
  0
CIRCLE
  5
539
330
208
100
AcDbEntity
  8
0
  6
Continuous
 62
     7
100
AcDbCircle
 10
501.3571380981998
 20
170.2911270402
 30
0.0
 40
2.076999999999999
  0
ARC
  5
53A
330
208
100
AcDbEntity
  8
0
  6
Continuous
 62
     7
100
AcDbCircle
 10
492.8551380981998
 20
170.2911270402
 30
0.0
 40
2.076999999999999
100
AcDbArc
 50
31.05878344739999
 51
329.9917133659
  0
CIRCLE
  5
53B
330
208
100
AcDbEntity
  8
0
  6
Continuous
 62
     7
100
AcDbCircle
 10
-6.645966352799997
 20
266.3510737786
 30
0.0
 40
2.749162769999998
  0
CIRCLE
  5
53C
330
208
100
AcDbEntity
  8
0
  6
Continuous
 62
     7
100
AcDbCircle
 10
443.3522425491998
 20
266.3510737786
 30
0.0
 40
2.749162769999998
  0
DIMENSION
  5
778
102
{ACAD_XDICTIONARY
360
786
102
}
102
{ACAD_REACTORS
330
787
102
}
330
208
100
AcDbEntity
  8
P-0000
  6
Continuous
100
AcDbDimension
  2
*D6
 10
-105.4118142548895
 20
275.5527961932
 30
0.0
 11
-111.2399128087884
 21
267.7953149070231
 31
0.0
 70
   160
 71
     5
 42
15.19896339639996
  3
883N99122_001_00149479900
100
AcDbAlignedDimension
 13
-68.64686190180001
 23
260.3538327968
 33
0.0
 14
-70.64686190180001
 24
275.5527961932
 34
0.0
 50
90.00000000000005
100
AcDbRotatedDimension
1001
ACAD_DSTYLE_DIMINSPECT
1070
   396
1000
100%
1070
   395
1000

1070
   394
1070
    33
1070
   393
1070
     0
1001
ACAD
1000
DSTYLE
1002
{
1070
   271
1070
     0
1070
   279
1070
     2
1070
   288
1070
     1
1002
}
  0
DIMENSION
  5
7B0
102
{ACAD_XDICTIONARY
360
7BE
102
}
102
{ACAD_REACTORS
330
7BF
102
}
330
208
100
AcDbEntity
  8
P-0000
  6
Continuous
100
AcDbDimension
  2
*D7
 10
-106.6703801901155
 20
157.9988112265
 30
0.0
 11
-106.6703801901155
 21
187.3786681211537
 31
0.0
 70
   160
 71
     5
 42
61.50142871419999
  3
883N99122_001_00149479900
100
AcDbAlignedDimension
 13
-70.64686190180001
 23
219.5002399407
 33
0.0
 14
-70.64686190180001
 24
157.9988112265
 34
0.0
 50
90.0
100
AcDbRotatedDimension
1001
ACAD_DSTYLE_DIMINSPECT
1070
   396
1000
100%
1070
   395
1000

1070
   394
1070
    33
1070
   393
1070
     0
1001
ACAD
1000
DSTYLE
1002
{
1070
   271
1070
     0
1070
   279
1070
     2
1070
   288
1070
     1
1002
}
  0
DIMENSION
  5
7E8
102
{ACAD_XDICTIONARY
360
7F6
102
}
102
{ACAD_REACTORS
330
7F7
102
}
330
208
100
AcDbEntity
  8
P-0000
  6
Continuous
100
AcDbDimension
  2
*D8
 10
507.3531380982
 20
131.252417994914
 30
0.0
 11
218.3531380982
 21
138.752417994914
 31
0.0
 70
    32
 71
     5
 42
578.0
  3
883N99122_001_00149479900
100
AcDbAlignedDimension
 13
-70.64686190180001
 23
157.9988112265
 33
0.0
 14
507.3531380982
 24
157.9988112265
 34
0.0
 50
0.0000000000001132
100
AcDbRotatedDimension
1001
ACAD_DSTYLE_DIMINSPECT
1070
   396
1000
100%
1070
   395
1000

1070
   394
1070
    33
1070
   393
1070
     0
1001
ACAD
1000
DSTYLE
1002
{
1070
   279
1070
     2
1070
   288
1070
     1
1002
}
  0
ENDSEC
  0
SECTION
  2
OBJECTS
  0
DICTIONARY
  5
C
330
0
100
AcDbDictionary
281
     1
  3
ACAD_2007HEADERVARS_RT
350
C27
  3
ACAD_COLOR
350
56F
  3
ACAD_GROUP
350
D
  3
ACAD_LAYOUT
350
1A
  3
ACAD_MATERIAL
350
542
  3
ACAD_MLEADERSTYLE
350
584
  3
ACAD_MLINESTYLE
350
17
  3
ACAD_PLOTSETTINGS
350
19
  3
ACAD_PLOTSTYLENAME
350
E
  3
ACAD_SCALELIST
350
572
  3
ACAD_TABLESTYLE
350
570
  3
ACAD_VISUALSTYLE
350
55B
  3
ACDB_RECOMPOSE_DATA
350
C25
  3
AcDbVariableDictionary
350
6BC
  3
AcmDictionary
350
5DE
  3
AEC_PROPERTY_SET_DEFS
350
9BE
  3
AMG
350
588
  3
AMGSNAPSETTINGS
350
623
  3
DWGPROPS
350
C26
  0
DICTIONARY
  5
87B
330
2
100
AcDbDictionary
280
     1
281
     1
  3
ACAD_LAYERSTATES
360
87C
  0
DICTIONARY
  5
879
330
878
100
AcDbDictionary
280
     1
281
     1
  0
DICTIONARY
  5
786
330
778
100
AcDbDictionary
280
     1
281
     1
  3
ACAD_DIMASSOC
360
787
  0
DICTIONARY
  5
7BE
330
7B0
100
AcDbDictionary
280
     1
281
     1
  3
ACAD_DIMASSOC
360
7BF
  0
DICTIONARY
  5
7F6
330
7E8
100
AcDbDictionary
280
     1
281
     1
  3
ACAD_DIMASSOC
360
7F7
  0
DICTIONARY
  5
C27
102
{ACAD_REACTORS
330
C
102
}
330
C
100
AcDbDictionary
281
     1
  3
DIMJOGANG
350
C28
  3
DIMLTEX1
350
C2A
  3
DIMLTEX2
350
C2B
  3
DIMLTYPE
350
C29
  0
DICTIONARY
  5
56F
102
{ACAD_REACTORS
330
C
102
}
330
C
100
AcDbDictionary
281
     1
  0
DICTIONARY
  5
D
102
{ACAD_REACTORS
330
C
102
}
330
C
100
AcDbDictionary
281
     1
  0
DICTIONARY
  5
1A
102
{ACAD_REACTORS
330
C
102
}
330
C
100
AcDbDictionary
281
     1
  3
Layout1
350
53E
  3
Model
350
53D
  0
DICTIONARY
  5
542
102
{ACAD_REACTORS
330
C
102
}
330
C
100
AcDbDictionary
281
     1
  3
ByBlock
350
54B
  3
ByLayer
350
543
  3
Global
350
553
  0
DICTIONARY
  5
584
102
{ACAD_REACTORS
330
C
102
}
330
C
100
AcDbDictionary
281
     1
  3
Standard
350
585
  0
DICTIONARY
  5
17
102
{ACAD_REACTORS
330
C
102
}
330
C
100
AcDbDictionary
281
     1
  3
Standard
350
18
  0
DICTIONARY
  5
19
102
{ACAD_REACTORS
330
C
102
}
330
C
100
AcDbDictionary
281
     1
  0
ACDBDICTIONARYWDFLT
  5
E
102
{ACAD_REACTORS
330
C
102
}
330
C
100
AcDbDictionary
281
     1
  3
Normal
350
F
100
AcDbDictionaryWithDefault
340
F
  0
DICTIONARY
  5
572
102
{ACAD_REACTORS
330
C
102
}
330
C
100
AcDbDictionary
281
     1
  3
A0
350
573
  3
A1
350
574
  3
A2
350
575
  3
A3
350
576
  3
A4
350
577
  3
A5
350
578
  3
A6
350
579
  3
A7
350
57A
  3
A8
350
57B
  3
A9
350
57C
  3
B0
350
57D
  3
B1
350
57E
  3
B2
350
57F
  3
B3
350
580
  3
B4
350
581
  3
B5
350
582
  3
B6
350
583
  0
DICTIONARY
  5
570
102
{ACAD_REACTORS
330
C
102
}
330
C
100
AcDbDictionary
281
     1
  3
Standard
350
571
  0
DICTIONARY
  5
55B
102
{ACAD_REACTORS
330
C
102
}
330
C
100
AcDbDictionary
281
     1
  3
2dWireframe
350
561
  3
3D Hidden
350
563
  3
3dWireframe
350
562
  3
Basic
350
560
  3
Brighten
350
567
  3
ColorChange
350
56B
  3
Conceptual
350
564
  3
Dim
350
566
  3
EdgeColorOff
350
56E
  3
Facepattern
350
56A
  3
Flat
350
55C
  3
FlatWithEdges
350
55D
  3
Gouraud
350
55E
  3
GouraudWithEdges
350
55F
  3
JitterOff
350
56C
  3
Linepattern
350
569
  3
OverhangOff
350
56D
  3
Realistic
350
565
  3
Thicken
350
568
  0
XRECORD
  5
C25
102
{ACAD_REACTORS
330
C
102
}
330
C
100
AcDbXrecord
280
     1
 90
        1
330
571
  0
DICTIONARY
  5
6BC
102
{ACAD_REACTORS
330
C
102
}
330
C
100
AcDbDictionary
281
     1
  3
CANNOSCALE
350
6C0
  3
CMLEADERSTYLE
350
6BE
  3
CTABLESTYLE
350
6BD
  3
DIMASSOC
350
6C7
  3
HIDETEXT
350
6C6
  3
INDEXCTL
350
6C5
  3
LAYEREVAL
350
6C2
  3
LAYERNOTIFY
350
6C3
  3
LIGHTINGUNITS
350
6C1
  3
MSLTSCALE
350
6BF
  3
SORTENTS
350
6C4
  3
XCLIPFRAME
350
C23
  0
DICTIONARY
  5
5DE
102
{ACAD_REACTORS
330
C
102
}
330
C
100
AcDbDictionary
281
     1
  3
AcmStdDictionary
350
5E8
  0
DICTIONARY
  5
9BE
102
{ACAD_REACTORS
330
C
102
}
330
C
100
AcDbDictionary
281
     1
  0
DICTIONARY
  5
588
102
{ACAD_REACTORS
330
C
102
}
330
C
100
AcDbDictionary
281
     1
  0
DICTIONARY
  5
623
102
{ACAD_REACTORS
330
C
102
}
330
C
100
AcDbDictionary
281
     1
  0
XRECORD
  5
C26
102
{ACAD_REACTORS
330
C
102
}
330
C
100
AcDbXrecord
280
     1
  1
DWGPROPS COOKIE
  2

  3

  4

  6

  7

  8
MAlaie
  9

300
=
301
=
302
=
303
=
304
=
305
=
306
=
307
=
308
=
309
=
 40
0.0056516782407407
 41
2456562.304567199
 42
2456671.446746678
  1

 90
        0
  0
DICTIONARY
  5
87C
102
{ACAD_REACTORS
330
87B
102
}
330
87B
100
AcDbDictionary
281
     1
  0
DIMASSOC
  5
787
102
{ACAD_REACTORS
330
786
102
}
330
786
100
AcDbDimAssoc
330
778
 90
        3
 70
     0
 71
     0
  1
AcDbOsnapPointRef
 72
    13
331
52A
 73
     0
 91
        0
 40
0.0
 10
0.0
 20
0.0
 30
2.000000000000000E+50
 75
     0
  1
AcDbOsnapPointRef
 72
     1
331
527
 73
     0
 91
        0
 40
0.0
 10
0.0
 20
0.0
 30
2.000000000000000E+50
 75
     0
  0
DIMASSOC
  5
7BF
102
{ACAD_REACTORS
330
7BE
102
}
330
7BE
100
AcDbDimAssoc
330
7B0
 90
        3
 70
     0
 71
     0
  1
AcDbOsnapPointRef
 72
     1
331
23F
 73
     0
 91
        0
 40
0.0
 10
0.0
 20
0.0
 30
2.000000000000000E+50
 75
     0
  1
AcDbOsnapPointRef
 72
    13
331
2EC
 73
     0
 91
        0
 40
0.0
 10
0.0
 20
0.0
 30
2.000000000000000E+50
 75
     0
  0
DIMASSOC
  5
7F7
102
{ACAD_REACTORS
330
7F6
102
}
330
7F6
100
AcDbDimAssoc
330
7E8
 90
        2
 70
     0
 71
     0
  1
AcDbOsnapPointRef
 72
     1
331
2EC
 73
     0
 91
        0
 40
0.0
 10
0.0
 20
0.0
 30
2.000000000000000E+50
 75
     0
  0
XRECORD
  5
C28
102
{ACAD_REACTORS
330
C27
102
}
330
C27
100
AcDbXrecord
280
     1
 40
1.570796326794896
  0
XRECORD
  5
C2A
102
{ACAD_REACTORS
330
C27
102
}
330
C27
100
AcDbXrecord
280
     1
340
14
  0
XRECORD
  5
C2B
102
{ACAD_REACTORS
330
C27
102
}
330
C27
100
AcDbXrecord
280
     1
340
14
  0
XRECORD
  5
C29
102
{ACAD_REACTORS
330
C27
102
}
330
C27
100
AcDbXrecord
280
     1
340
14
  0
LAYOUT
  5
53E
102
{ACAD_XDICTIONARY
360
C2E
102
}
102
{ACAD_REACTORS
330
1A
102
}
330
1A
100
AcDbPlotSettings
  1

  2
none_device
  4
ISO_A3_(420.00_x_297.00_MM)
  6

 40
0.0
 41
0.0
 42
0.0
 43
0.0
 44
420.0
 45
297.0
 46
0.0
 47
0.0
 48
0.0
 49
0.0
140
0.0
141
0.0
142
1.0
143
1.0
 70
     0
 72
     1
 73
     0
 74
     0
  7

 75
     0
147
1.0
148
0.0
149
0.0
100
AcDbLayout
  1
Layout1
 70
     1
 71
     1
 10
0.0
 20
0.0
 11
12.0
 21
9.0
 12
0.0
 22
0.0
 32
0.0
 14
1.000000000000000E+20
 24
1.000000000000000E+20
 34
1.000000000000000E+20
 15
-1.000000000000000E+20
 25
-1.000000000000000E+20
 35
-1.000000000000000E+20
146
0.0
 13
0.0
 23
0.0
 33
0.0
 16
1.0
 26
0.0
 36
0.0
 17
0.0
 27
1.0
 37
0.0
 76
     0
330
209
  0
LAYOUT
  5
53D
102
{ACAD_XDICTIONARY
360
C2C
102
}
102
{ACAD_REACTORS
330
1A
102
}
330
1A
100
AcDbPlotSettings
  1

  2
none_device
  4
ISO_A3_(420.00_x_297.00_MM)
  6

 40
0.0
 41
0.0
 42
0.0
 43
0.0
 44
420.0
 45
297.0
 46
0.0
 47
0.0
 48
0.0
 49
0.0
140
0.0
141
0.0
142
1.0
143
1.0
 70
  1024
 72
     1
 73
     0
 74
     0
  7

 75
     0
147
1.0
148
0.0
149
0.0
100
AcDbLayout
  1
Model
 70
     0
 71
     0
 10
0.0
 20
0.0
 11
420.0
 21
297.0
 12
0.0
 22
0.0
 32
0.0
 14
0.0
 24
0.0
 34
0.0
 15
0.0
 25
0.0
 35
0.0
146
0.0
 13
0.0
 23
0.0
 33
0.0
 16
1.0
 26
0.0
 36
0.0
 17
0.0
 27
1.0
 37
0.0
 76
     0
330
208
331
1F4
  0
MATERIAL
  5
54B
102
{ACAD_XDICTIONARY
360
54C
102
}
102
{ACAD_REACTORS
330
542
102
}
330
542
100
AcDbMaterial
  1
ByBlock
 72
     0
 43
0.0008202099737533
 43
0.0
 43
0.0
 43
0.0
 43
0.0
 43
0.0008202099737533
 43
0.0
 43
0.0
 43
0.0
 43
0.0
 43
1.0
 43
0.0
 43
0.0
 43
0.0
 43
0.0
 43
1.0
 77
     0
 47
0.0008202099737533
 47
0.0
 47
0.0
 47
0.0
 47
0.0
 47
0.0008202099737533
 47
0.0
 47
0.0
 47
0.0
 47
0.0
 47
1.0
 47
0.0
 47
0.0
 47
0.0
 47
0.0
 47
1.0
171
     0
 49
0.0008202099737533
 49
0.0
 49
0.0
 49
0.0
 49
0.0
 49
0.0008202099737533
 49
0.0
 49
0.0
 49
0.0
 49
0.0
 49
1.0
 49
0.0
 49
0.0
 49
0.0
 49
0.0
 49
1.0
175
     0
142
0.0008202099737533
142
0.0
142
0.0
142
0.0
142
0.0
142
0.0008202099737533
142
0.0
142
0.0
142
0.0
142
0.0
142
1.0
142
0.0
142
0.0
142
0.0
142
0.0
142
1.0
179
     0
144
0.0008202099737533
144
0.0
144
0.0
144
0.0
144
0.0
144
0.0008202099737533
144
0.0
144
0.0
144
0.0
144
0.0
144
1.0
144
0.0
144
0.0
144
0.0
144
0.0
144
1.0
147
0.0008202099737533
147
0.0
147
0.0
147
0.0
147
0.0
147
0.0008202099737533
147
0.0
147
0.0
147
0.0
147
0.0
147
1.0
147
0.0
147
0.0
147
0.0
147
0.0
147
1.0
  0
MATERIAL
  5
543
102
{ACAD_XDICTIONARY
360
544
102
}
102
{ACAD_REACTORS
330
542
102
}
330
542
100
AcDbMaterial
  1
ByLayer
 72
     0
 43
0.0008202099737533
 43
0.0
 43
0.0
 43
0.0
 43
0.0
 43
0.0008202099737533
 43
0.0
 43
0.0
 43
0.0
 43
0.0
 43
1.0
 43
0.0
 43
0.0
 43
0.0
 43
0.0
 43
1.0
 77
     0
 47
0.0008202099737533
 47
0.0
 47
0.0
 47
0.0
 47
0.0
 47
0.0008202099737533
 47
0.0
 47
0.0
 47
0.0
 47
0.0
 47
1.0
 47
0.0
 47
0.0
 47
0.0
 47
0.0
 47
1.0
171
     0
 49
0.0008202099737533
 49
0.0
 49
0.0
 49
0.0
 49
0.0
 49
0.0008202099737533
 49
0.0
 49
0.0
 49
0.0
 49
0.0
 49
1.0
 49
0.0
 49
0.0
 49
0.0
 49
0.0
 49
1.0
175
     0
142
0.0008202099737533
142
0.0
142
0.0
142
0.0
142
0.0
142
0.0008202099737533
142
0.0
142
0.0
142
0.0
142
0.0
142
1.0
142
0.0
142
0.0
142
0.0
142
0.0
142
1.0
179
     0
144
0.0008202099737533
144
0.0
144
0.0
144
0.0
144
0.0
144
0.0008202099737533
144
0.0
144
0.0
144
0.0
144
0.0
144
1.0
144
0.0
144
0.0
144
0.0
144
0.0
144
1.0
147
0.0008202099737533
147
0.0
147
0.0
147
0.0
147
0.0
147
0.0008202099737533
147
0.0
147
0.0
147
0.0
147
0.0
147
1.0
147
0.0
147
0.0
147
0.0
147
0.0
147
1.0
  0
MATERIAL
  5
553
102
{ACAD_XDICTIONARY
360
554
102
}
102
{ACAD_REACTORS
330
542
102
}
330
542
100
AcDbMaterial
  1
Global
 72
     0
 43
0.0008202099737533
 43
0.0
 43
0.0
 43
0.0
 43
0.0
 43
0.0008202099737533
 43
0.0
 43
0.0
 43
0.0
 43
0.0
 43
1.0
 43
0.0
 43
0.0
 43
0.0
 43
0.0
 43
1.0
 77
     0
 47
0.0008202099737533
 47
0.0
 47
0.0
 47
0.0
 47
0.0
 47
0.0008202099737533
 47
0.0
 47
0.0
 47
0.0
 47
0.0
 47
1.0
 47
0.0
 47
0.0
 47
0.0
 47
0.0
 47
1.0
171
     0
 49
0.0008202099737533
 49
0.0
 49
0.0
 49
0.0
 49
0.0
 49
0.0008202099737533
 49
0.0
 49
0.0
 49
0.0
 49
0.0
 49
1.0
 49
0.0
 49
0.0
 49
0.0
 49
0.0
 49
1.0
175
     0
142
0.0008202099737533
142
0.0
142
0.0
142
0.0
142
0.0
142
0.0008202099737533
142
0.0
142
0.0
142
0.0
142
0.0
142
1.0
142
0.0
142
0.0
142
0.0
142
0.0
142
1.0
179
     0
144
0.0008202099737533
144
0.0
144
0.0
144
0.0
144
0.0
144
0.0008202099737533
144
0.0
144
0.0
144
0.0
144
0.0
144
1.0
144
0.0
144
0.0
144
0.0
144
0.0
144
1.0
147
0.0008202099737533
147
0.0
147
0.0
147
0.0
147
0.0
147
0.0008202099737533
147
0.0
147
0.0
147
0.0
147
0.0
147
1.0
147
0.0
147
0.0
147
0.0
147
0.0
147
1.0
  0
MLEADERSTYLE
  5
585
102
{ACAD_REACTORS
330
584
102
}
330
584
100
AcDbMLeaderStyle
170
     2
171
     1
172
     0
 90
        2
 40
0.0
 41
0.0
173
     1
 91
-1056964608
340
14
 92
       -2
290
     1
 42
2.0
291
     1
 43
0.36
  3
Standard
 44
4.0
300

342
11
174
     1
178
     6
175
     1
176
     0
 93
-1056964608
 45
4.0
292
     0
297
     0
 46
4.0
 94
-1056964608
 47
1.0
 49
1.0
140
1.0
293
     1
141
0.0
294
     1
177
     0
142
1.0
295
     0
296
     0
143
0.125
1001
ACAD_MLEADERVER
1070
     2
  0
MLINESTYLE
  5
18
102
{ACAD_REACTORS
330
17
102
}
330
17
100
AcDbMlineStyle
  2
STANDARD
 70
     0
  3

 62
   256
 51
90.0
 52
90.0
 71
     2
 49
0.5
 62
   256
  6
BYLAYER
 49
-0.5
 62
   256
  6
BYLAYER
  0
ACDBPLACEHOLDER
  5
F
102
{ACAD_REACTORS
330
E
102
}
330
E
  0
SCALE
  5
573
102
{ACAD_REACTORS
330
572
102
}
330
572
100
AcDbScale
 70
     0
300
1:1
140
1.0
141
1.0
290
     1
  0
SCALE
  5
574
102
{ACAD_REACTORS
330
572
102
}
330
572
100
AcDbScale
 70
     0
300
1:2
140
1.0
141
2.0
290
     0
  0
SCALE
  5
575
102
{ACAD_REACTORS
330
572
102
}
330
572
100
AcDbScale
 70
     0
300
1:4
140
1.0
141
4.0
290
     0
  0
SCALE
  5
576
102
{ACAD_REACTORS
330
572
102
}
330
572
100
AcDbScale
 70
     0
300
1:5
140
1.0
141
5.0
290
     0
  0
SCALE
  5
577
102
{ACAD_REACTORS
330
572
102
}
330
572
100
AcDbScale
 70
     0
300
1:8
140
1.0
141
8.0
290
     0
  0
SCALE
  5
578
102
{ACAD_REACTORS
330
572
102
}
330
572
100
AcDbScale
 70
     0
300
1:10
140
1.0
141
10.0
290
     0
  0
SCALE
  5
579
102
{ACAD_REACTORS
330
572
102
}
330
572
100
AcDbScale
 70
     0
300
1:16
140
1.0
141
16.0
290
     0
  0
SCALE
  5
57A
102
{ACAD_REACTORS
330
572
102
}
330
572
100
AcDbScale
 70
     0
300
1:20
140
1.0
141
20.0
290
     0
  0
SCALE
  5
57B
102
{ACAD_REACTORS
330
572
102
}
330
572
100
AcDbScale
 70
     0
300
1:30
140
1.0
141
30.0
290
     0
  0
SCALE
  5
57C
102
{ACAD_REACTORS
330
572
102
}
330
572
100
AcDbScale
 70
     0
300
1:40
140
1.0
141
40.0
290
     0
  0
SCALE
  5
57D
102
{ACAD_REACTORS
330
572
102
}
330
572
100
AcDbScale
 70
     0
300
1:50
140
1.0
141
50.0
290
     0
  0
SCALE
  5
57E
102
{ACAD_REACTORS
330
572
102
}
330
572
100
AcDbScale
 70
     0
300
1:100
140
1.0
141
100.0
290
     0
  0
SCALE
  5
57F
102
{ACAD_REACTORS
330
572
102
}
330
572
100
AcDbScale
 70
     0
300
2:1
140
2.0
141
1.0
290
     0
  0
SCALE
  5
580
102
{ACAD_REACTORS
330
572
102
}
330
572
100
AcDbScale
 70
     0
300
4:1
140
4.0
141
1.0
290
     0
  0
SCALE
  5
581
102
{ACAD_REACTORS
330
572
102
}
330
572
100
AcDbScale
 70
     0
300
8:1
140
8.0
141
1.0
290
     0
  0
SCALE
  5
582
102
{ACAD_REACTORS
330
572
102
}
330
572
100
AcDbScale
 70
     0
300
10:1
140
10.0
141
1.0
290
     0
  0
SCALE
  5
583
102
{ACAD_REACTORS
330
572
102
}
330
572
100
AcDbScale
 70
     0
300
100:1
140
100.0
141
1.0
290
     0
  0
TABLESTYLE
  5
571
102
{ACAD_XDICTIONARY
360
6C9
102
}
102
{ACAD_REACTORS
330
570
102
}
330
570
100
AcDbTableStyle
  3
Standard
 70
     0
 71
     0
 40
1.5
 41
1.5
280
     0
281
     0
  7
STANDARD
140
4.5
170
     2
 62
     0
 63
     7
283
     0
274
    -2
284
     1
 64
     0
275
    -2
285
     1
 65
     0
276
    -2
286
     1
 66
     0
277
    -2
287
     1
 67
     0
278
    -2
288
     1
 68
     0
279
    -2
289
     1
 69
     0
  7
STANDARD
140
6.0
170
     5
 62
     0
 63
     7
283
     0
274
    -2
284
     1
 64
     0
275
    -2
285
     1
 65
     0
276
    -2
286
     1
 66
     0
277
    -2
287
     1
 67
     0
278
    -2
288
     1
 68
     0
279
    -2
289
     1
 69
     0
  7
STANDARD
140
4.5
170
     5
 62
     0
 63
     7
283
     0
274
    -2
284
     1
 64
     0
275
    -2
285
     1
 65
     0
276
    -2
286
     1
 66
     0
277
    -2
287
     1
 67
     0
278
    -2
288
     1
 68
     0
279
    -2
289
     1
 69
     0
  0
VISUALSTYLE
  5
561
102
{ACAD_XDICTIONARY
360
C3A
102
}
102
{ACAD_REACTORS
330
55B
102
}
330
55B
100
AcDbVisualStyle
  2

 70
     4
 71
     0
 72
     2
 73
     0
 90
        0
 40
-0.6
 41
-30.0
 62
     5
 63
     7
 74
     1
 91
        4
 64
     7
 65
   257
 75
     1
175
     1
 42
1.0
 92
        0
 66
   257
 43
1.0
 76
     1
 77
     6
 78
     2
 67
     7
 79
     5
170
     0
171
     0
290
     0
174
     0
 93
        1
 44
0.0
173
     0
291
     0
 45
0.0
1001
ACAD
1000
AcDbSavedByObjectVersion
1070
     0
  0
VISUALSTYLE
  5
563
102
{ACAD_XDICTIONARY
360
C3E
102
}
102
{ACAD_REACTORS
330
55B
102
}
330
55B
100
AcDbVisualStyle
  2

 70
     6
 71
     1
 72
     2
 73
     2
 90
        0
 40
-0.6
 41
-30.0
 62
     5
 63
     7
 74
     2
 91
        2
 64
     7
 65
   257
 75
     2
175
     1
 42
179.0
 92
        0
 66
   257
 43
1.0
 76
     1
 77
     6
 78
     2
 67
     7
 79
     3
170
     0
171
     0
290
     0
174
     0
 93
        1
 44
0.0
173
     0
291
     0
 45
0.0
1001
ACAD
1000
AcDbSavedByObjectVersion
1070
     0
  0
VISUALSTYLE
  5
562
102
{ACAD_XDICTIONARY
360
C3C
102
}
102
{ACAD_REACTORS
330
55B
102
}
330
55B
100
AcDbVisualStyle
  2

 70
     5
 71
     0
 72
     2
 73
     0
 90
        0
 40
-0.6
 41
-30.0
 62
     5
 63
     7
 74
     1
 91
        4
 64
     7
 65
   257
 75
     1
175
     1
 42
1.0
 92
        0
 66
   257
 43
1.0
 76
     1
 77
     6
 78
     2
 67
     7
 79
     5
170
     0
171
     0
290
     0
174
     0
 93
        1
 44
0.0
173
     0
291
     0
 45
0.0
1001
ACAD
1000
AcDbSavedByObjectVersion
1070
     0
  0
VISUALSTYLE
  5
560
102
{ACAD_XDICTIONARY
360
C38
102
}
102
{ACAD_REACTORS
330
55B
102
}
330
55B
100
AcDbVisualStyle
  2

 70
     7
 71
     1
 72
     0
 73
     1
 90
        0
 40
-0.6
 41
-30.0
 62
     5
 63
     7
 74
     0
 91
        4
 64
     7
 65
   257
 75
     1
175
     1
 42
1.0
 92
        8
 66
     7
 43
1.0
 76
     1
 77
     6
 78
     2
 67
     7
 79
     5
170
     0
171
     0
290
     0
174
     0
 93
        1
 44
0.0
173
     0
291
     1
 45
0.0
1001
ACAD
1000
AcDbSavedByObjectVersion
1070
     0
  0
VISUALSTYLE
  5
567
102
{ACAD_XDICTIONARY
360
C46
102
}
102
{ACAD_REACTORS
330
55B
102
}
330
55B
100
AcDbVisualStyle
  2

 70
    12
 71
     2
 72
     2
 73
     0
 90
        0
 40
-0.6
 41
-30.0
 62
     5
 63
     7
 74
     1
 91
        4
 64
     7
 65
   257
 75
     1
175
     1
 42
1.0
 92
        8
 66
     7
 43
1.0
 76
     1
 77
     6
 78
     2
 67
     7
 79
     5
170
     0
171
     0
290
     0
174
     0
 93
        1
 44
50.0
173
     0
291
     1
 45
0.0
1001
ACAD
1000
AcDbSavedByObjectVersion
1070
     0
  0
VISUALSTYLE
  5
56B
102
{ACAD_XDICTIONARY
360
C4E
102
}
102
{ACAD_REACTORS
330
55B
102
}
330
55B
100
AcDbVisualStyle
  2

 70
    16
 71
     2
 72
     2
 73
     3
 90
        0
 40
-0.6
 41
-30.0
 62
     5
 63
     8
 74
     1
 91
        4
 64
     7
 65
   257
 75
     1
175
     1
 42
1.0
 92
        8
 66
     8
 43
1.0
 76
     1
 77
     6
 78
     2
 67
     7
 79
     5
170
     0
171
     0
290
     0
174
     0
 93
        1
 44
0.0
173
     0
291
     1
 45
0.0
1001
ACAD
1000
AcDbSavedByObjectVersion
1070
     0
  0
VISUALSTYLE
  5
564
102
{ACAD_XDICTIONARY
360
C40
102
}
102
{ACAD_REACTORS
330
55B
102
}
330
55B
100
AcDbVisualStyle
  2

 70
     9
 71
     3
 72
     2
 73
     0
 90
        0
 40
-0.6
 41
-30.0
 62
     5
 63
     7
 74
     2
 91
        2
 64
     7
 65
   257
 75
     1
175
     1
 42
179.0
 92
        8
 66
     7
 43
1.0
 76
     1
 77
     6
 78
     2
 67
     7
 79
     3
170
     0
171
     0
290
     0
174
     0
 93
        1
 44
0.0
173
     0
291
     0
 45
0.0
1001
ACAD
1000
AcDbSavedByObjectVersion
1070
     0
  0
VISUALSTYLE
  5
566
102
{ACAD_XDICTIONARY
360
C44
102
}
102
{ACAD_REACTORS
330
55B
102
}
330
55B
100
AcDbVisualStyle
  2

 70
    11
 71
     2
 72
     2
 73
     0
 90
        0
 40
-0.6
 41
-30.0
 62
     5
 63
     7
 74
     1
 91
        4
 64
     7
 65
   257
 75
     1
175
     1
 42
1.0
 92
        8
 66
     7
 43
1.0
 76
     1
 77
     6
 78
     2
 67
     7
 79
     5
170
     0
171
     0
290
     0
174
     0
 93
        1
 44
-50.0
173
     0
291
     1
 45
0.0
1001
ACAD
1000
AcDbSavedByObjectVersion
1070
     0
  0
VISUALSTYLE
  5
56E
102
{ACAD_XDICTIONARY
360
C54
102
}
102
{ACAD_REACTORS
330
55B
102
}
330
55B
100
AcDbVisualStyle
  2

 70
    22
 71
     2
 72
     2
 73
     0
 90
        0
 40
-0.6
 41
-30.0
 62
     5
 63
     7
 74
     1
 91
        4
 64
     7
 65
   257
 75
     1
175
     1
 42
1.0
 92
        8
 66
     7
 43
1.0
 76
     1
 77
     6
 78
     2
 67
     7
 79
     5
170
     0
171
     0
290
     0
174
     0
 93
        1
 44
0.0
173
     0
291
     1
 45
0.0
1001
ACAD
1000
AcDbSavedByObjectVersion
1070
     0
  0
VISUALSTYLE
  5
56A
102
{ACAD_XDICTIONARY
360
C4C
102
}
102
{ACAD_REACTORS
330
55B
102
}
330
55B
100
AcDbVisualStyle
  2

 70
    15
 71
     2
 72
     2
 73
     0
 90
        0
 40
-0.6
 41
-30.0
 62
     5
 63
     7
 74
     1
 91
        4
 64
     7
 65
   257
 75
     1
175
     1
 42
1.0
 92
        8
 66
     7
 43
1.0
 76
     1
 77
     6
 78
     2
 67
     7
 79
     5
170
     0
171
     0
290
     0
174
     0
 93
        1
 44
0.0
173
     0
291
     1
 45
0.0
1001
ACAD
1000
AcDbSavedByObjectVersion
1070
     0
  0
VISUALSTYLE
  5
55C
102
{ACAD_XDICTIONARY
360
C30
102
}
102
{ACAD_REACTORS
330
55B
102
}
330
55B
100
AcDbVisualStyle
  2

 70
     0
 71
     2
 72
     1
 73
     1
 90
        2
 40
-0.6
 41
30.0
 62
     5
 63
     7
 74
     0
 91
        4
 64
     7
 65
   257
 75
     1
175
     1
 42
1.0
 92
        8
 66
     7
 43
1.0
 76
     1
 77
     6
 78
     2
 67
     7
 79
     5
170
     0
171
     0
290
     0
174
     0
 93
       13
 44
0.0
173
     0
291
     1
 45
0.0
1001
ACAD
1000
AcDbSavedByObjectVersion
1070
     0
  0
VISUALSTYLE
  5
55D
102
{ACAD_XDICTIONARY
360
C32
102
}
102
{ACAD_REACTORS
330
55B
102
}
330
55B
100
AcDbVisualStyle
  2

 70
     1
 71
     2
 72
     1
 73
     1
 90
        2
 40
-0.6
 41
30.0
 62
     5
 63
     7
 74
     1
 91
        4
 64
     7
 65
   257
 75
     1
175
     1
 42
1.0
 92
        0
 66
   257
 43
1.0
 76
     1
 77
     6
 78
     2
 67
     7
 79
     5
170
     0
171
     0
290
     0
174
     0
 93
       13
 44
0.0
173
     0
291
     1
 45
0.0
1001
ACAD
1000
AcDbSavedByObjectVersion
1070
     0
  0
VISUALSTYLE
  5
55E
102
{ACAD_XDICTIONARY
360
C34
102
}
102
{ACAD_REACTORS
330
55B
102
}
330
55B
100
AcDbVisualStyle
  2

 70
     2
 71
     2
 72
     2
 73
     1
 90
        2
 40
-0.6
 41
30.0
 62
     5
 63
     7
 74
     0
 91
        4
 64
     7
 65
   257
 75
     1
175
     1
 42
1.0
 92
        0
 66
     7
 43
1.0
 76
     1
 77
     6
 78
     2
 67
     7
 79
     5
170
     0
171
     0
290
     0
174
     0
 93
       13
 44
0.0
173
     0
291
     1
 45
0.0
1001
ACAD
1000
AcDbSavedByObjectVersion
1070
     0
  0
VISUALSTYLE
  5
55F
102
{ACAD_XDICTIONARY
360
C36
102
}
102
{ACAD_REACTORS
330
55B
102
}
330
55B
100
AcDbVisualStyle
  2

 70
     3
 71
     2
 72
     2
 73
     1
 90
        2
 40
-0.6
 41
30.0
 62
     5
 63
     7
 74
     1
 91
        4
 64
     7
 65
   257
 75
     1
175
     1
 42
1.0
 92
        0
 66
   257
 43
1.0
 76
     1
 77
     6
 78
     2
 67
     7
 79
     5
170
     0
171
     0
290
     0
174
     0
 93
       13
 44
0.0
173
     0
291
     1
 45
0.0
1001
ACAD
1000
AcDbSavedByObjectVersion
1070
     0
  0
VISUALSTYLE
  5
56C
102
{ACAD_XDICTIONARY
360
C50
102
}
102
{ACAD_REACTORS
330
55B
102
}
330
55B
100
AcDbVisualStyle
  2

 70
    20
 71
     2
 72
     2
 73
     0
 90
        0
 40
-0.6
 41
-30.0
 62
     5
 63
     7
 74
     1
 91
        4
 64
     7
 65
   257
 75
     1
175
     1
 42
1.0
 92
       10
 66
     7
 43
1.0
 76
     1
 77
     6
 78
     2
 67
     7
 79
     5
170
     0
171
     0
290
     0
174
     0
 93
        1
 44
0.0
173
     0
291
     1
 45
0.0
1001
ACAD
1000
AcDbSavedByObjectVersion
1070
     0
  0
VISUALSTYLE
  5
569
102
{ACAD_XDICTIONARY
360
C4A
102
}
102
{ACAD_REACTORS
330
55B
102
}
330
55B
100
AcDbVisualStyle
  2

 70
    14
 71
     2
 72
     2
 73
     0
 90
        0
 40
-0.6
 41
-30.0
 62
     5
 63
     7
 74
     1
 91
        4
 64
     7
 65
   257
 75
     7
175
     7
 42
1.0
 92
        8
 66
     7
 43
1.0
 76
     1
 77
     6
 78
     2
 67
     7
 79
     5
170
     0
171
     0
290
     0
174
     0
 93
        1
 44
0.0
173
     0
291
     1
 45
0.0
1001
ACAD
1000
AcDbSavedByObjectVersion
1070
     0
  0
VISUALSTYLE
  5
56D
102
{ACAD_XDICTIONARY
360
C52
102
}
102
{ACAD_REACTORS
330
55B
102
}
330
55B
100
AcDbVisualStyle
  2

 70
    21
 71
     2
 72
     2
 73
     0
 90
        0
 40
-0.6
 41
-30.0
 62
     5
 63
     7
 74
     1
 91
        4
 64
     7
 65
   257
 75
     1
175
     1
 42
1.0
 92
        9
 66
     7
 43
1.0
 76
     1
 77
     6
 78
     2
 67
     7
 79
     5
170
     0
171
     0
290
     0
174
     0
 93
        1
 44
0.0
173
     0
291
     1
 45
0.0
1001
ACAD
1000
AcDbSavedByObjectVersion
1070
     0
  0
VISUALSTYLE
  5
565
102
{ACAD_XDICTIONARY
360
C42
102
}
102
{ACAD_REACTORS
330
55B
102
}
330
55B
100
AcDbVisualStyle
  2

 70
     8
 71
     2
 72
     2
 73
     0
 90
        0
 40
-0.6
 41
-30.0
 62
     5
 63
     7
 74
     1
 91
        0
 64
     7
 65
   257
 75
     1
175
     1
 42
1.0
 92
        8
 66
     8
 43
1.0
 76
     1
 77
     6
 78
     2
 67
     7
 79
     5
170
     0
171
     0
290
     0
174
     0
 93
       13
 44
0.0
173
     0
291
     0
 45
0.0
1001
ACAD
1000
AcDbSavedByObjectVersion
1070
     0
  0
VISUALSTYLE
  5
568
102
{ACAD_XDICTIONARY
360
C48
102
}
102
{ACAD_REACTORS
330
55B
102
}
330
55B
100
AcDbVisualStyle
  2

 70
    13
 71
     2
 72
     2
 73
     0
 90
        0
 40
-0.6
 41
-30.0
 62
     5
 63
     7
 74
     1
 91
        4
 64
     7
 65
   257
 75
     1
175
     1
 42
1.0
 92
       12
 66
     7
 43
1.0
 76
     1
 77
     6
 78
     2
 67
     7
 79
     5
170
     0
171
     0
290
     0
174
     0
 93
        1
 44
0.0
173
     0
291
     1
 45
0.0
1001
ACAD
1000
AcDbSavedByObjectVersion
1070
     0
  0
DICTIONARYVAR
  5
6C0
102
{ACAD_REACTORS
330
6BC
102
}
330
6BC
100
DictionaryVariables
280
     0
  1
1:1
  0
DICTIONARYVAR
  5
6BE
102
{ACAD_REACTORS
330
6BC
102
}
330
6BC
100
DictionaryVariables
280
     0
  1
STANDARD
  0
DICTIONARYVAR
  5
6BD
102
{ACAD_REACTORS
330
6BC
102
}
330
6BC
100
DictionaryVariables
280
     0
  1
STANDARD
  0
DICTIONARYVAR
  5
6C7
102
{ACAD_REACTORS
330
6BC
102
}
330
6BC
100
DictionaryVariables
280
     0
  1
2
  0
DICTIONARYVAR
  5
6C6
102
{ACAD_REACTORS
330
6BC
102
}
330
6BC
100
DictionaryVariables
280
     0
  1
1
  0
DICTIONARYVAR
  5
6C5
102
{ACAD_REACTORS
330
6BC
102
}
330
6BC
100
DictionaryVariables
280
     0
  1
0
  0
DICTIONARYVAR
  5
6C2
102
{ACAD_REACTORS
330
6BC
102
}
330
6BC
100
DictionaryVariables
280
     0
  1
0
  0
DICTIONARYVAR
  5
6C3
102
{ACAD_REACTORS
330
6BC
102
}
330
6BC
100
DictionaryVariables
280
     0
  1
0
  0
DICTIONARYVAR
  5
6C1
102
{ACAD_REACTORS
330
6BC
102
}
330
6BC
100
DictionaryVariables
280
     0
  1
2
  0
DICTIONARYVAR
  5
6BF
102
{ACAD_REACTORS
330
6BC
102
}
330
6BC
100
DictionaryVariables
280
     0
  1
1
  0
DICTIONARYVAR
  5
6C4
102
{ACAD_REACTORS
330
6BC
102
}
330
6BC
100
DictionaryVariables
280
     0
  1
127
  0
DICTIONARYVAR
  5
C23
102
{ACAD_REACTORS
330
6BC
102
}
330
6BC
100
DictionaryVariables
280
     0
  1
2
  0
DICTIONARY
  5
5E8
102
{ACAD_REACTORS
330
5DE
102
}
330
5DE
100
AcDbDictionary
281
     1
  0
DICTIONARY
  5
C2E
330
53E
100
AcDbDictionary
280
     1
281
     1
  3
ACAD_XREC_ROUNDTRIP
360
C2F
  0
DICTIONARY
  5
C2C
330
53D
100
AcDbDictionary
280
     1
281
     1
  3
ACAD_XREC_ROUNDTRIP
360
C2D
  0
DICTIONARY
  5
54C
330
54B
100
AcDbDictionary
280
     1
281
     1
  3
ACAD_XREC_ROUNDTRIP
360
6D2
  3
BUMPTILE
360
54E
  3
DIFFUSETILE
360
54D
  3
OPACITYTILE
360
551
  3
REFLECTIONTILE
360
550
  3
REFRACTIONTILE
360
552
  3
SPECULARTILE
360
54F
  0
DICTIONARY
  5
544
330
543
100
AcDbDictionary
280
     1
281
     1
  3
ACAD_XREC_ROUNDTRIP
360
6D1
  3
BUMPTILE
360
546
  3
DIFFUSETILE
360
545
  3
OPACITYTILE
360
549
  3
REFLECTIONTILE
360
548
  3
REFRACTIONTILE
360
54A
  3
SPECULARTILE
360
547
  0
DICTIONARY
  5
554
330
553
100
AcDbDictionary
280
     1
281
     1
  3
ACAD_XREC_ROUNDTRIP
360
6D3
  3
BUMPTILE
360
556
  3
DIFFUSETILE
360
555
  3
OPACITYTILE
360
559
  3
REFLECTIONTILE
360
558
  3
REFRACTIONTILE
360
55A
  3
SPECULARTILE
360
557
  0
DICTIONARY
  5
6C9
330
571
100
AcDbDictionary
280
     1
281
     1
  3
ACAD_ROUNDTRIP_2008_TABLESTYLE_CELLSTYLEMAP
360
C24
  3
ACAD_XREC_ROUNDTRIP
360
C56
  0
DICTIONARY
  5
C3A
330
561
100
AcDbDictionary
280
     1
281
     1
  3
ACAD_XREC_ROUNDTRIP
360
C3B
  0
DICTIONARY
  5
C3E
330
563
100
AcDbDictionary
280
     1
281
     1
  3
ACAD_XREC_ROUNDTRIP
360
C3F
  0
DICTIONARY
  5
C3C
330
562
100
AcDbDictionary
280
     1
281
     1
  3
ACAD_XREC_ROUNDTRIP
360
C3D
  0
DICTIONARY
  5
C38
330
560
100
AcDbDictionary
280
     1
281
     1
  3
ACAD_XREC_ROUNDTRIP
360
C39
  0
DICTIONARY
  5
C46
330
567
100
AcDbDictionary
280
     1
281
     1
  3
ACAD_XREC_ROUNDTRIP
360
C47
  0
DICTIONARY
  5
C4E
330
56B
100
AcDbDictionary
280
     1
281
     1
  3
ACAD_XREC_ROUNDTRIP
360
C4F
  0
DICTIONARY
  5
C40
330
564
100
AcDbDictionary
280
     1
281
     1
  3
ACAD_XREC_ROUNDTRIP
360
C41
  0
DICTIONARY
  5
C44
330
566
100
AcDbDictionary
280
     1
281
     1
  3
ACAD_XREC_ROUNDTRIP
360
C45
  0
DICTIONARY
  5
C54
330
56E
100
AcDbDictionary
280
     1
281
     1
  3
ACAD_XREC_ROUNDTRIP
360
C55
  0
DICTIONARY
  5
C4C
330
56A
100
AcDbDictionary
280
     1
281
     1
  3
ACAD_XREC_ROUNDTRIP
360
C4D
  0
DICTIONARY
  5
C30
330
55C
100
AcDbDictionary
280
     1
281
     1
  3
ACAD_XREC_ROUNDTRIP
360
C31
  0
DICTIONARY
  5
C32
330
55D
100
AcDbDictionary
280
     1
281
     1
  3
ACAD_XREC_ROUNDTRIP
360
C33
  0
DICTIONARY
  5
C34
330
55E
100
AcDbDictionary
280
     1
281
     1
  3
ACAD_XREC_ROUNDTRIP
360
C35
  0
DICTIONARY
  5
C36
330
55F
100
AcDbDictionary
280
     1
281
     1
  3
ACAD_XREC_ROUNDTRIP
360
C37
  0
DICTIONARY
  5
C50
330
56C
100
AcDbDictionary
280
     1
281
     1
  3
ACAD_XREC_ROUNDTRIP
360
C51
  0
DICTIONARY
  5
C4A
330
569
100
AcDbDictionary
280
     1
281
     1
  3
ACAD_XREC_ROUNDTRIP
360
C4B
  0
DICTIONARY
  5
C52
330
56D
100
AcDbDictionary
280
     1
281
     1
  3
ACAD_XREC_ROUNDTRIP
360
C53
  0
DICTIONARY
  5
C42
330
565
100
AcDbDictionary
280
     1
281
     1
  3
ACAD_XREC_ROUNDTRIP
360
C43
  0
DICTIONARY
  5
C48
330
568
100
AcDbDictionary
280
     1
281
     1
  3
ACAD_XREC_ROUNDTRIP
360
C49
  0
XRECORD
  5
C2F
102
{ACAD_REACTORS
330
C2E
102
}
330
C2E
100
AcDbXrecord
280
     1
102
SHADEPLOT
 70
     0
102
SHADEPLOTRESLEVEL
 70
     2
102
SHADEPLOTCUSTOMDPI
 70
   300
  0
XRECORD
  5
C2D
102
{ACAD_REACTORS
330
C2C
102
}
330
C2C
100
AcDbXrecord
280
     1
102
SHADEPLOT
 70
     0
102
SHADEPLOTRESLEVEL
 70
     2
102
SHADEPLOTCUSTOMDPI
 70
   300
  0
XRECORD
  5
6D2
102
{ACAD_REACTORS
330
54C
102
}
330
54C
100
AcDbXrecord
280
     1
102
MATERIAL
148
0.0
149
0.0
149
0.0
 93
        0
 94
      127
282
     0
 72
     0
 77
     0
171
     0
175
     0
179
     0
273
     0
  0
XRECORD
  5
54E
102
{ACAD_REACTORS
330
54C
102
}
330
54C
100
AcDbXrecord
280
     1
270
     1
271
     1
  0
XRECORD
  5
54D
102
{ACAD_REACTORS
330
54C
102
}
330
54C
100
AcDbXrecord
280
     1
270
     1
271
     1
  0
XRECORD
  5
551
102
{ACAD_REACTORS
330
54C
102
}
330
54C
100
AcDbXrecord
280
     1
270
     1
271
     1
  0
XRECORD
  5
550
102
{ACAD_REACTORS
330
54C
102
}
330
54C
100
AcDbXrecord
280
     1
270
     1
271
     1
  0
XRECORD
  5
552
102
{ACAD_REACTORS
330
54C
102
}
330
54C
100
AcDbXrecord
280
     1
270
     1
271
     1
  0
XRECORD
  5
54F
102
{ACAD_REACTORS
330
54C
102
}
330
54C
100
AcDbXrecord
280
     1
270
     1
271
     1
  0
XRECORD
  5
6D1
102
{ACAD_REACTORS
330
544
102
}
330
544
100
AcDbXrecord
280
     1
102
MATERIAL
148
0.0
149
0.0
149
0.0
 93
        0
 94
      127
282
     0
 72
     0
 77
     0
171
     0
175
     0
179
     0
273
     0
  0
XRECORD
  5
546
102
{ACAD_REACTORS
330
544
102
}
330
544
100
AcDbXrecord
280
     1
270
     1
271
     1
  0
XRECORD
  5
545
102
{ACAD_REACTORS
330
544
102
}
330
544
100
AcDbXrecord
280
     1
270
     1
271
     1
  0
XRECORD
  5
549
102
{ACAD_REACTORS
330
544
102
}
330
544
100
AcDbXrecord
280
     1
270
     1
271
     1
  0
XRECORD
  5
548
102
{ACAD_REACTORS
330
544
102
}
330
544
100
AcDbXrecord
280
     1
270
     1
271
     1
  0
XRECORD
  5
54A
102
{ACAD_REACTORS
330
544
102
}
330
544
100
AcDbXrecord
280
     1
270
     1
271
     1
  0
XRECORD
  5
547
102
{ACAD_REACTORS
330
544
102
}
330
544
100
AcDbXrecord
280
     1
270
     1
271
     1
  0
XRECORD
  5
6D3
102
{ACAD_REACTORS
330
554
102
}
330
554
100
AcDbXrecord
280
     1
102
MATERIAL
148
0.0
149
0.0
149
0.0
 93
        0
 94
      127
282
     0
 72
     0
 77
     0
171
     0
175
     0
179
     0
273
     0
  0
XRECORD
  5
556
102
{ACAD_REACTORS
330
554
102
}
330
554
100
AcDbXrecord
280
     1
270
     1
271
     1
  0
XRECORD
  5
555
102
{ACAD_REACTORS
330
554
102
}
330
554
100
AcDbXrecord
280
     1
270
     1
271
     1
  0
XRECORD
  5
559
102
{ACAD_REACTORS
330
554
102
}
330
554
100
AcDbXrecord
280
     1
270
     1
271
     1
  0
XRECORD
  5
558
102
{ACAD_REACTORS
330
554
102
}
330
554
100
AcDbXrecord
280
     1
270
     1
271
     1
  0
XRECORD
  5
55A
102
{ACAD_REACTORS
330
554
102
}
330
554
100
AcDbXrecord
280
     1
270
     1
271
     1
  0
XRECORD
  5
557
102
{ACAD_REACTORS
330
554
102
}
330
554
100
AcDbXrecord
280
     1
270
     1
271
     1
  0
CELLSTYLEMAP
  5
C24
102
{ACAD_REACTORS
330
6C9
102
}
330
6C9
100
AcDbCellStyleMap
 90
        3
300
CELLSTYLE
  1
TABLEFORMAT_BEGIN
 90
        5
170
     1
 91
        0
 92
    32768
 62
   257
 93
        1
300
CONTENTFORMAT
  1
CONTENTFORMAT_BEGIN
 90
        0
 91
        0
 92
      512
 93
        0
300

 40
0.0
140
1.0
 94
        5
 62
     0
340
11
144
6.0
309
CONTENTFORMAT_END
171
     1
301
MARGIN
  1
CELLMARGIN_BEGIN
 40
1.5
 40
1.5
 40
1.5
 40
1.5
 40
0.18
 40
0.18
309
CELLMARGIN_END
 94
        6
 95
        1
302
GRIDFORMAT
  1
GRIDFORMAT_BEGIN
 90
        0
 91
        1
 62
     0
 92
       -2
340
0
 93
        0
 40
1.125
309
GRIDFORMAT_END
 95
        2
302
GRIDFORMAT
  1
GRIDFORMAT_BEGIN
 90
        0
 91
        1
 62
     0
 92
       -2
340
0
 93
        0
 40
1.125
309
GRIDFORMAT_END
 95
        4
302
GRIDFORMAT
  1
GRIDFORMAT_BEGIN
 90
        0
 91
        1
 62
     0
 92
       -2
340
0
 93
        0
 40
1.125
309
GRIDFORMAT_END
 95
        8
302
GRIDFORMAT
  1
GRIDFORMAT_BEGIN
 90
        0
 91
        1
 62
     0
 92
       -2
340
0
 93
        0
 40
1.125
309
GRIDFORMAT_END
 95
       16
302
GRIDFORMAT
  1
GRIDFORMAT_BEGIN
 90
        0
 91
        1
 62
     0
 92
       -2
340
0
 93
        0
 40
1.125
309
GRIDFORMAT_END
 95
       32
302
GRIDFORMAT
  1
GRIDFORMAT_BEGIN
 90
        0
 91
        1
 62
     0
 92
       -2
340
0
 93
        0
 40
1.125
309
GRIDFORMAT_END
309
TABLEFORMAT_END
  1
CELLSTYLE_BEGIN
 90
        1
 91
        1
300
_TITLE
309
CELLSTYLE_END
300
CELLSTYLE
  1
TABLEFORMAT_BEGIN
 90
        5
170
     1
 91
        0
 92
        0
 62
   257
 93
        1
300
CONTENTFORMAT
  1
CONTENTFORMAT_BEGIN
 90
        0
 91
        0
 92
      512
 93
        0
300

 40
0.0
140
1.0
 94
        5
 62
     0
340
11
144
4.5
309
CONTENTFORMAT_END
171
     1
301
MARGIN
  1
CELLMARGIN_BEGIN
 40
1.5
 40
1.5
 40
1.5
 40
1.5
 40
0.18
 40
0.18
309
CELLMARGIN_END
 94
        6
 95
        1
302
GRIDFORMAT
  1
GRIDFORMAT_BEGIN
 90
        0
 91
        1
 62
     0
 92
       -2
340
0
 93
        0
 40
1.125
309
GRIDFORMAT_END
 95
        2
302
GRIDFORMAT
  1
GRIDFORMAT_BEGIN
 90
        0
 91
        1
 62
     0
 92
       -2
340
0
 93
        0
 40
1.125
309
GRIDFORMAT_END
 95
        4
302
GRIDFORMAT
  1
GRIDFORMAT_BEGIN
 90
        0
 91
        1
 62
     0
 92
       -2
340
0
 93
        0
 40
1.125
309
GRIDFORMAT_END
 95
        8
302
GRIDFORMAT
  1
GRIDFORMAT_BEGIN
 90
        0
 91
        1
 62
     0
 92
       -2
340
0
 93
        0
 40
1.125
309
GRIDFORMAT_END
 95
       16
302
GRIDFORMAT
  1
GRIDFORMAT_BEGIN
 90
        0
 91
        1
 62
     0
 92
       -2
340
0
 93
        0
 40
1.125
309
GRIDFORMAT_END
 95
       32
302
GRIDFORMAT
  1
GRIDFORMAT_BEGIN
 90
        0
 91
        1
 62
     0
 92
       -2
340
0
 93
        0
 40
1.125
309
GRIDFORMAT_END
309
TABLEFORMAT_END
  1
CELLSTYLE_BEGIN
 90
        2
 91
        1
300
_HEADER
309
CELLSTYLE_END
300
CELLSTYLE
  1
TABLEFORMAT_BEGIN
 90
        5
170
     1
 91
        0
 92
        0
 62
   257
 93
        1
300
CONTENTFORMAT
  1
CONTENTFORMAT_BEGIN
 90
        0
 91
        0
 92
      512
 93
        0
300

 40
0.0
140
1.0
 94
        2
 62
     0
340
11
144
4.5
309
CONTENTFORMAT_END
171
     1
301
MARGIN
  1
CELLMARGIN_BEGIN
 40
1.5
 40
1.5
 40
1.5
 40
1.5
 40
0.18
 40
0.18
309
CELLMARGIN_END
 94
        6
 95
        1
302
GRIDFORMAT
  1
GRIDFORMAT_BEGIN
 90
        0
 91
        1
 62
     0
 92
       -2
340
0
 93
        0
 40
1.125
309
GRIDFORMAT_END
 95
        2
302
GRIDFORMAT
  1
GRIDFORMAT_BEGIN
 90
        0
 91
        1
 62
     0
 92
       -2
340
0
 93
        0
 40
1.125
309
GRIDFORMAT_END
 95
        4
302
GRIDFORMAT
  1
GRIDFORMAT_BEGIN
 90
        0
 91
        1
 62
     0
 92
       -2
340
0
 93
        0
 40
1.125
309
GRIDFORMAT_END
 95
        8
302
GRIDFORMAT
  1
GRIDFORMAT_BEGIN
 90
        0
 91
        1
 62
     0
 92
       -2
340
0
 93
        0
 40
1.125
309
GRIDFORMAT_END
 95
       16
302
GRIDFORMAT
  1
GRIDFORMAT_BEGIN
 90
        0
 91
        1
 62
     0
 92
       -2
340
0
 93
        0
 40
1.125
309
GRIDFORMAT_END
 95
       32
302
GRIDFORMAT
  1
GRIDFORMAT_BEGIN
 90
        0
 91
        1
 62
     0
 92
       -2
340
0
 93
        0
 40
1.125
309
GRIDFORMAT_END
309
TABLEFORMAT_END
  1
CELLSTYLE_BEGIN
 90
        3
 91
        2
300
_DATA
309
CELLSTYLE_END
  0
XRECORD
  5
C56
102
{ACAD_REACTORS
330
6C9
102
}
330
6C9
100
AcDbXrecord
280
     1
102
ACAD_ROUNDTRIP_PRE2007_TABLESTYLE
 90
      512
 91
        0
  1

 92
      512
 93
        0
  2

 94
      512
 95
        0
  3

  0
XRECORD
  5
C3B
102
{ACAD_REACTORS
330
C3A
102
}
330
C3A
100
AcDbXrecord
280
     1
102
RTVSPropertyOp0
 70
     1
102
RTVSPropertyOp1
 70
     1
102
RTVSPropertyOp2
 70
     1
102
RTVSPropertyOp3
 70
     1
102
RTVSPropertyOp4
 70
     1
102
RTVSPropertyOp5
 70
     1
102
RTVSPropertyOp6
 70
     1
102
RTVSPropertyOp7
 70
     1
102
RTVSPropertyOp8
 70
     1
102
RTVSPropertyOp9
 70
     1
102
RTVSPropertyOp10
 70
     1
102
RTVSPropertyOp11
 70
     1
102
RTVSPropertyOp12
 70
     1
102
RTVSPropertyOp13
 70
     1
102
RTVSPropertyOp14
 70
     1
102
RTVSPropertyOp15
 70
     1
102
RTVSPropertyOp16
 70
     1
102
RTVSPropertyOp17
 70
     1
102
RTVSPropertyOp18
 70
     1
102
RTVSPropertyOp19
 70
     1
102
RTVSPropertyOp20
 70
     1
102
RTVSPropertyOp21
 70
     1
102
RTVSPropertyOp22
 70
     1
102
RTVSPropertyOp23
 70
     1
102
RTVSPropertyOp24
 70
     1
102
RTVSPropertyOp25
 70
     1
102
RTVSPropertyOp26
 70
     1
102
RTVSPropertyOp27
 70
     1
  0
XRECORD
  5
C3F
102
{ACAD_REACTORS
330
C3E
102
}
330
C3E
100
AcDbXrecord
280
     1
102
RTVSPropertyOp0
 70
     1
102
RTVSPropertyOp1
 70
     1
102
RTVSPropertyOp2
 70
     1
102
RTVSPropertyOp3
 70
     1
102
RTVSPropertyOp4
 70
     1
102
RTVSPropertyOp5
 70
     1
102
RTVSPropertyOp6
 70
     1
102
RTVSPropertyOp7
 70
     1
102
RTVSPropertyOp8
 70
     1
102
RTVSPropertyOp9
 70
     1
102
RTVSPropertyOp10
 70
     1
102
RTVSPropertyOp11
 70
     1
102
RTVSPropertyOp12
 70
     1
102
RTVSPropertyOp13
 70
     1
102
RTVSPropertyOp14
 70
     1
102
RTVSPropertyOp15
 70
     1
102
RTVSPropertyOp16
 70
     1
102
RTVSPropertyOp17
 70
     1
102
RTVSPropertyOp18
 70
     1
102
RTVSPropertyOp19
 70
     1
102
RTVSPropertyOp20
 70
     1
102
RTVSPropertyOp21
 70
     1
102
RTVSPropertyOp22
 70
     1
102
RTVSPropertyOp23
 70
     1
102
RTVSPropertyOp24
 70
     1
102
RTVSPropertyOp25
 70
     1
102
RTVSPropertyOp26
 70
     1
102
RTVSPropertyOp27
 70
     1
  0
XRECORD
  5
C3D
102
{ACAD_REACTORS
330
C3C
102
}
330
C3C
100
AcDbXrecord
280
     1
102
RTVSPropertyOp0
 70
     1
102
RTVSPropertyOp1
 70
     1
102
RTVSPropertyOp2
 70
     1
102
RTVSPropertyOp3
 70
     1
102
RTVSPropertyOp4
 70
     1
102
RTVSPropertyOp5
 70
     1
102
RTVSPropertyOp6
 70
     1
102
RTVSPropertyOp7
 70
     1
102
RTVSPropertyOp8
 70
     1
102
RTVSPropertyOp9
 70
     1
102
RTVSPropertyOp10
 70
     1
102
RTVSPropertyOp11
 70
     1
102
RTVSPropertyOp12
 70
     1
102
RTVSPropertyOp13
 70
     1
102
RTVSPropertyOp14
 70
     1
102
RTVSPropertyOp15
 70
     1
102
RTVSPropertyOp16
 70
     1
102
RTVSPropertyOp17
 70
     1
102
RTVSPropertyOp18
 70
     1
102
RTVSPropertyOp19
 70
     1
102
RTVSPropertyOp20
 70
     1
102
RTVSPropertyOp21
 70
     1
102
RTVSPropertyOp22
 70
     1
102
RTVSPropertyOp23
 70
     1
102
RTVSPropertyOp24
 70
     1
102
RTVSPropertyOp25
 70
     1
102
RTVSPropertyOp26
 70
     1
102
RTVSPropertyOp27
 70
     1
  0
XRECORD
  5
C39
102
{ACAD_REACTORS
330
C38
102
}
330
C38
100
AcDbXrecord
280
     1
102
RTVSPropertyOp0
 70
     1
102
RTVSPropertyOp1
 70
     1
102
RTVSPropertyOp2
 70
     1
102
RTVSPropertyOp3
 70
     1
102
RTVSPropertyOp4
 70
     1
102
RTVSPropertyOp5
 70
     1
102
RTVSPropertyOp6
 70
     1
102
RTVSPropertyOp7
 70
     1
102
RTVSPropertyOp8
 70
     1
102
RTVSPropertyOp9
 70
     1
102
RTVSPropertyOp10
 70
     1
102
RTVSPropertyOp11
 70
     1
102
RTVSPropertyOp12
 70
     1
102
RTVSPropertyOp13
 70
     1
102
RTVSPropertyOp14
 70
     1
102
RTVSPropertyOp15
 70
     1
102
RTVSPropertyOp16
 70
     1
102
RTVSPropertyOp17
 70
     1
102
RTVSPropertyOp18
 70
     1
102
RTVSPropertyOp19
 70
     1
102
RTVSPropertyOp20
 70
     1
102
RTVSPropertyOp21
 70
     1
102
RTVSPropertyOp22
 70
     1
102
RTVSPropertyOp23
 70
     1
102
RTVSPropertyOp24
 70
     1
102
RTVSPropertyOp25
 70
     1
102
RTVSPropertyOp26
 70
     1
102
RTVSPropertyOp27
 70
     1
  0
XRECORD
  5
C47
102
{ACAD_REACTORS
330
C46
102
}
330
C46
100
AcDbXrecord
280
     1
102
RTVSPropertyOp0
 70
     1
102
RTVSPropertyOp1
 70
     1
102
RTVSPropertyOp2
 70
     1
102
RTVSPropertyOp3
 70
     1
102
RTVSPropertyOp4
 70
     1
102
RTVSPropertyOp5
 70
     1
102
RTVSPropertyOp6
 70
     1
102
RTVSPropertyOp7
 70
     1
102
RTVSPropertyOp8
 70
     1
102
RTVSPropertyOp9
 70
     1
102
RTVSPropertyOp10
 70
     1
102
RTVSPropertyOp11
 70
     1
102
RTVSPropertyOp12
 70
     1
102
RTVSPropertyOp13
 70
     1
102
RTVSPropertyOp14
 70
     1
102
RTVSPropertyOp15
 70
     1
102
RTVSPropertyOp16
 70
     1
102
RTVSPropertyOp17
 70
     1
102
RTVSPropertyOp18
 70
     1
102
RTVSPropertyOp19
 70
     1
102
RTVSPropertyOp20
 70
     1
102
RTVSPropertyOp21
 70
     1
102
RTVSPropertyOp22
 70
     1
102
RTVSPropertyOp23
 70
     1
102
RTVSPropertyOp24
 70
     1
102
RTVSPropertyOp25
 70
     1
102
RTVSPropertyOp26
 70
     1
102
RTVSPropertyOp27
 70
     1
  0
XRECORD
  5
C4F
102
{ACAD_REACTORS
330
C4E
102
}
330
C4E
100
AcDbXrecord
280
     1
102
RTVSPropertyOp0
 70
     1
102
RTVSPropertyOp1
 70
     1
102
RTVSPropertyOp2
 70
     1
102
RTVSPropertyOp3
 70
     1
102
RTVSPropertyOp4
 70
     1
102
RTVSPropertyOp5
 70
     1
102
RTVSPropertyOp6
 70
     1
102
RTVSPropertyOp7
 70
     1
102
RTVSPropertyOp8
 70
     1
102
RTVSPropertyOp9
 70
     1
102
RTVSPropertyOp10
 70
     1
102
RTVSPropertyOp11
 70
     1
102
RTVSPropertyOp12
 70
     1
102
RTVSPropertyOp13
 70
     1
102
RTVSPropertyOp14
 70
     1
102
RTVSPropertyOp15
 70
     1
102
RTVSPropertyOp16
 70
     1
102
RTVSPropertyOp17
 70
     1
102
RTVSPropertyOp18
 70
     1
102
RTVSPropertyOp19
 70
     1
102
RTVSPropertyOp20
 70
     1
102
RTVSPropertyOp21
 70
     1
102
RTVSPropertyOp22
 70
     1
102
RTVSPropertyOp23
 70
     1
102
RTVSPropertyOp24
 70
     1
102
RTVSPropertyOp25
 70
     1
102
RTVSPropertyOp26
 70
     1
102
RTVSPropertyOp27
 70
     1
  0
XRECORD
  5
C41
102
{ACAD_REACTORS
330
C40
102
}
330
C40
100
AcDbXrecord
280
     1
102
RTVSPropertyOp0
 70
     1
102
RTVSPropertyOp1
 70
     1
102
RTVSPropertyOp2
 70
     1
102
RTVSPropertyOp3
 70
     1
102
RTVSPropertyOp4
 70
     1
102
RTVSPropertyOp5
 70
     1
102
RTVSPropertyOp6
 70
     1
102
RTVSPropertyOp7
 70
     1
102
RTVSPropertyOp8
 70
     1
102
RTVSPropertyOp9
 70
     1
102
RTVSPropertyOp10
 70
     1
102
RTVSPropertyOp11
 70
     1
102
RTVSPropertyOp12
 70
     1
102
RTVSPropertyOp13
 70
     1
102
RTVSPropertyOp14
 70
     1
102
RTVSPropertyOp15
 70
     1
102
RTVSPropertyOp16
 70
     1
102
RTVSPropertyOp17
 70
     1
102
RTVSPropertyOp18
 70
     1
102
RTVSPropertyOp19
 70
     1
102
RTVSPropertyOp20
 70
     1
102
RTVSPropertyOp21
 70
     1
102
RTVSPropertyOp22
 70
     1
102
RTVSPropertyOp23
 70
     1
102
RTVSPropertyOp24
 70
     1
102
RTVSPropertyOp25
 70
     1
102
RTVSPropertyOp26
 70
     1
102
RTVSPropertyOp27
 70
     1
  0
XRECORD
  5
C45
102
{ACAD_REACTORS
330
C44
102
}
330
C44
100
AcDbXrecord
280
     1
102
RTVSPropertyOp0
 70
     1
102
RTVSPropertyOp1
 70
     1
102
RTVSPropertyOp2
 70
     1
102
RTVSPropertyOp3
 70
     1
102
RTVSPropertyOp4
 70
     1
102
RTVSPropertyOp5
 70
     1
102
RTVSPropertyOp6
 70
     1
102
RTVSPropertyOp7
 70
     1
102
RTVSPropertyOp8
 70
     1
102
RTVSPropertyOp9
 70
     1
102
RTVSPropertyOp10
 70
     1
102
RTVSPropertyOp11
 70
     1
102
RTVSPropertyOp12
 70
     1
102
RTVSPropertyOp13
 70
     1
102
RTVSPropertyOp14
 70
     1
102
RTVSPropertyOp15
 70
     1
102
RTVSPropertyOp16
 70
     1
102
RTVSPropertyOp17
 70
     1
102
RTVSPropertyOp18
 70
     1
102
RTVSPropertyOp19
 70
     1
102
RTVSPropertyOp20
 70
     1
102
RTVSPropertyOp21
 70
     1
102
RTVSPropertyOp22
 70
     1
102
RTVSPropertyOp23
 70
     1
102
RTVSPropertyOp24
 70
     1
102
RTVSPropertyOp25
 70
     1
102
RTVSPropertyOp26
 70
     1
102
RTVSPropertyOp27
 70
     1
  0
XRECORD
  5
C55
102
{ACAD_REACTORS
330
C54
102
}
330
C54
100
AcDbXrecord
280
     1
102
RTVSPropertyOp0
 70
     0
102
RTVSPropertyOp1
 70
     0
102
RTVSPropertyOp2
 70
     0
102
RTVSPropertyOp3
 70
     0
102
RTVSPropertyOp4
 70
     0
102
RTVSPropertyOp5
 70
     0
102
RTVSPropertyOp6
 70
     0
102
RTVSPropertyOp7
 70
     0
102
RTVSPropertyOp8
 70
     0
102
RTVSPropertyOp9
 70
     0
102
RTVSPropertyOp10
 70
     0
102
RTVSPropertyOp11
 70
     0
102
RTVSPropertyOp12
 70
     0
102
RTVSPropertyOp13
 70
     0
102
RTVSPropertyOp14
 70
     2
102
RTVSPropertyOp15
 70
     0
102
RTVSPropertyOp16
 70
     0
102
RTVSPropertyOp17
 70
     0
102
RTVSPropertyOp18
 70
     0
102
RTVSPropertyOp19
 70
     0
102
RTVSPropertyOp20
 70
     0
102
RTVSPropertyOp21
 70
     0
102
RTVSPropertyOp22
 70
     0
102
RTVSPropertyOp23
 70
     0
102
RTVSPropertyOp24
 70
     0
102
RTVSPropertyOp25
 70
     0
102
RTVSPropertyOp26
 70
     0
102
RTVSPropertyOp27
 70
     0
  0
XRECORD
  5
C4D
102
{ACAD_REACTORS
330
C4C
102
}
330
C4C
100
AcDbXrecord
280
     1
102
RTVSPropertyOp0
 70
     1
102
RTVSPropertyOp1
 70
     1
102
RTVSPropertyOp2
 70
     1
102
RTVSPropertyOp3
 70
     1
102
RTVSPropertyOp4
 70
     1
102
RTVSPropertyOp5
 70
     1
102
RTVSPropertyOp6
 70
     1
102
RTVSPropertyOp7
 70
     1
102
RTVSPropertyOp8
 70
     1
102
RTVSPropertyOp9
 70
     1
102
RTVSPropertyOp10
 70
     1
102
RTVSPropertyOp11
 70
     1
102
RTVSPropertyOp12
 70
     1
102
RTVSPropertyOp13
 70
     1
102
RTVSPropertyOp14
 70
     1
102
RTVSPropertyOp15
 70
     1
102
RTVSPropertyOp16
 70
     1
102
RTVSPropertyOp17
 70
     1
102
RTVSPropertyOp18
 70
     1
102
RTVSPropertyOp19
 70
     1
102
RTVSPropertyOp20
 70
     1
102
RTVSPropertyOp21
 70
     1
102
RTVSPropertyOp22
 70
     1
102
RTVSPropertyOp23
 70
     1
102
RTVSPropertyOp24
 70
     1
102
RTVSPropertyOp25
 70
     1
102
RTVSPropertyOp26
 70
     1
102
RTVSPropertyOp27
 70
     1
  0
XRECORD
  5
C31
102
{ACAD_REACTORS
330
C30
102
}
330
C30
100
AcDbXrecord
280
     1
102
RTVSPropertyOp0
 70
     1
102
RTVSPropertyOp1
 70
     1
102
RTVSPropertyOp2
 70
     1
102
RTVSPropertyOp3
 70
     1
102
RTVSPropertyOp4
 70
     1
102
RTVSPropertyOp5
 70
     1
102
RTVSPropertyOp6
 70
     1
102
RTVSPropertyOp7
 70
     1
102
RTVSPropertyOp8
 70
     1
102
RTVSPropertyOp9
 70
     1
102
RTVSPropertyOp10
 70
     1
102
RTVSPropertyOp11
 70
     1
102
RTVSPropertyOp12
 70
     1
102
RTVSPropertyOp13
 70
     1
102
RTVSPropertyOp14
 70
     1
102
RTVSPropertyOp15
 70
     1
102
RTVSPropertyOp16
 70
     1
102
RTVSPropertyOp17
 70
     1
102
RTVSPropertyOp18
 70
     1
102
RTVSPropertyOp19
 70
     1
102
RTVSPropertyOp20
 70
     1
102
RTVSPropertyOp21
 70
     1
102
RTVSPropertyOp22
 70
     1
102
RTVSPropertyOp23
 70
     1
102
RTVSPropertyOp24
 70
     1
102
RTVSPropertyOp25
 70
     1
102
RTVSPropertyOp26
 70
     1
102
RTVSPropertyOp27
 70
     1
  0
XRECORD
  5
C33
102
{ACAD_REACTORS
330
C32
102
}
330
C32
100
AcDbXrecord
280
     1
102
RTVSPropertyOp0
 70
     1
102
RTVSPropertyOp1
 70
     1
102
RTVSPropertyOp2
 70
     1
102
RTVSPropertyOp3
 70
     1
102
RTVSPropertyOp4
 70
     1
102
RTVSPropertyOp5
 70
     1
102
RTVSPropertyOp6
 70
     1
102
RTVSPropertyOp7
 70
     1
102
RTVSPropertyOp8
 70
     1
102
RTVSPropertyOp9
 70
     1
102
RTVSPropertyOp10
 70
     1
102
RTVSPropertyOp11
 70
     1
102
RTVSPropertyOp12
 70
     1
102
RTVSPropertyOp13
 70
     1
102
RTVSPropertyOp14
 70
     1
102
RTVSPropertyOp15
 70
     1
102
RTVSPropertyOp16
 70
     1
102
RTVSPropertyOp17
 70
     1
102
RTVSPropertyOp18
 70
     1
102
RTVSPropertyOp19
 70
     1
102
RTVSPropertyOp20
 70
     1
102
RTVSPropertyOp21
 70
     1
102
RTVSPropertyOp22
 70
     1
102
RTVSPropertyOp23
 70
     1
102
RTVSPropertyOp24
 70
     1
102
RTVSPropertyOp25
 70
     1
102
RTVSPropertyOp26
 70
     1
102
RTVSPropertyOp27
 70
     1
  0
XRECORD
  5
C35
102
{ACAD_REACTORS
330
C34
102
}
330
C34
100
AcDbXrecord
280
     1
102
RTVSPropertyOp0
 70
     1
102
RTVSPropertyOp1
 70
     1
102
RTVSPropertyOp2
 70
     1
102
RTVSPropertyOp3
 70
     1
102
RTVSPropertyOp4
 70
     1
102
RTVSPropertyOp5
 70
     1
102
RTVSPropertyOp6
 70
     1
102
RTVSPropertyOp7
 70
     1
102
RTVSPropertyOp8
 70
     1
102
RTVSPropertyOp9
 70
     1
102
RTVSPropertyOp10
 70
     1
102
RTVSPropertyOp11
 70
     1
102
RTVSPropertyOp12
 70
     1
102
RTVSPropertyOp13
 70
     1
102
RTVSPropertyOp14
 70
     1
102
RTVSPropertyOp15
 70
     1
102
RTVSPropertyOp16
 70
     1
102
RTVSPropertyOp17
 70
     1
102
RTVSPropertyOp18
 70
     1
102
RTVSPropertyOp19
 70
     1
102
RTVSPropertyOp20
 70
     1
102
RTVSPropertyOp21
 70
     1
102
RTVSPropertyOp22
 70
     1
102
RTVSPropertyOp23
 70
     1
102
RTVSPropertyOp24
 70
     1
102
RTVSPropertyOp25
 70
     1
102
RTVSPropertyOp26
 70
     1
102
RTVSPropertyOp27
 70
     1
  0
XRECORD
  5
C37
102
{ACAD_REACTORS
330
C36
102
}
330
C36
100
AcDbXrecord
280
     1
102
RTVSPropertyOp0
 70
     1
102
RTVSPropertyOp1
 70
     1
102
RTVSPropertyOp2
 70
     1
102
RTVSPropertyOp3
 70
     1
102
RTVSPropertyOp4
 70
     1
102
RTVSPropertyOp5
 70
     1
102
RTVSPropertyOp6
 70
     1
102
RTVSPropertyOp7
 70
     1
102
RTVSPropertyOp8
 70
     1
102
RTVSPropertyOp9
 70
     1
102
RTVSPropertyOp10
 70
     1
102
RTVSPropertyOp11
 70
     1
102
RTVSPropertyOp12
 70
     1
102
RTVSPropertyOp13
 70
     1
102
RTVSPropertyOp14
 70
     1
102
RTVSPropertyOp15
 70
     1
102
RTVSPropertyOp16
 70
     1
102
RTVSPropertyOp17
 70
     1
102
RTVSPropertyOp18
 70
     1
102
RTVSPropertyOp19
 70
     1
102
RTVSPropertyOp20
 70
     1
102
RTVSPropertyOp21
 70
     1
102
RTVSPropertyOp22
 70
     1
102
RTVSPropertyOp23
 70
     1
102
RTVSPropertyOp24
 70
     1
102
RTVSPropertyOp25
 70
     1
102
RTVSPropertyOp26
 70
     1
102
RTVSPropertyOp27
 70
     1
  0
XRECORD
  5
C51
102
{ACAD_REACTORS
330
C50
102
}
330
C50
100
AcDbXrecord
280
     1
102
RTVSPropertyOp0
 70
     0
102
RTVSPropertyOp1
 70
     0
102
RTVSPropertyOp2
 70
     0
102
RTVSPropertyOp3
 70
     0
102
RTVSPropertyOp4
 70
     0
102
RTVSPropertyOp5
 70
     0
102
RTVSPropertyOp6
 70
     0
102
RTVSPropertyOp7
 70
     0
102
RTVSPropertyOp8
 70
     0
102
RTVSPropertyOp9
 70
     0
102
RTVSPropertyOp10
 70
     0
102
RTVSPropertyOp11
 70
     0
102
RTVSPropertyOp12
 70
     0
102
RTVSPropertyOp13
 70
     0
102
RTVSPropertyOp14
 70
     2
102
RTVSPropertyOp15
 70
     0
102
RTVSPropertyOp16
 70
     0
102
RTVSPropertyOp17
 70
     0
102
RTVSPropertyOp18
 70
     0
102
RTVSPropertyOp19
 70
     0
102
RTVSPropertyOp20
 70
     0
102
RTVSPropertyOp21
 70
     0
102
RTVSPropertyOp22
 70
     0
102
RTVSPropertyOp23
 70
     0
102
RTVSPropertyOp24
 70
     0
102
RTVSPropertyOp25
 70
     0
102
RTVSPropertyOp26
 70
     0
102
RTVSPropertyOp27
 70
     0
  0
XRECORD
  5
C4B
102
{ACAD_REACTORS
330
C4A
102
}
330
C4A
100
AcDbXrecord
280
     1
102
RTVSPropertyOp0
 70
     1
102
RTVSPropertyOp1
 70
     1
102
RTVSPropertyOp2
 70
     1
102
RTVSPropertyOp3
 70
     1
102
RTVSPropertyOp4
 70
     1
102
RTVSPropertyOp5
 70
     1
102
RTVSPropertyOp6
 70
     1
102
RTVSPropertyOp7
 70
     1
102
RTVSPropertyOp8
 70
     1
102
RTVSPropertyOp9
 70
     1
102
RTVSPropertyOp10
 70
     1
102
RTVSPropertyOp11
 70
     1
102
RTVSPropertyOp12
 70
     1
102
RTVSPropertyOp13
 70
     1
102
RTVSPropertyOp14
 70
     1
102
RTVSPropertyOp15
 70
     1
102
RTVSPropertyOp16
 70
     1
102
RTVSPropertyOp17
 70
     1
102
RTVSPropertyOp18
 70
     1
102
RTVSPropertyOp19
 70
     1
102
RTVSPropertyOp20
 70
     1
102
RTVSPropertyOp21
 70
     1
102
RTVSPropertyOp22
 70
     1
102
RTVSPropertyOp23
 70
     1
102
RTVSPropertyOp24
 70
     1
102
RTVSPropertyOp25
 70
     1
102
RTVSPropertyOp26
 70
     1
102
RTVSPropertyOp27
 70
     1
  0
XRECORD
  5
C53
102
{ACAD_REACTORS
330
C52
102
}
330
C52
100
AcDbXrecord
280
     1
102
RTVSPropertyOp0
 70
     0
102
RTVSPropertyOp1
 70
     0
102
RTVSPropertyOp2
 70
     0
102
RTVSPropertyOp3
 70
     0
102
RTVSPropertyOp4
 70
     0
102
RTVSPropertyOp5
 70
     0
102
RTVSPropertyOp6
 70
     0
102
RTVSPropertyOp7
 70
     0
102
RTVSPropertyOp8
 70
     0
102
RTVSPropertyOp9
 70
     0
102
RTVSPropertyOp10
 70
     0
102
RTVSPropertyOp11
 70
     0
102
RTVSPropertyOp12
 70
     0
102
RTVSPropertyOp13
 70
     0
102
RTVSPropertyOp14
 70
     2
102
RTVSPropertyOp15
 70
     0
102
RTVSPropertyOp16
 70
     0
102
RTVSPropertyOp17
 70
     0
102
RTVSPropertyOp18
 70
     0
102
RTVSPropertyOp19
 70
     0
102
RTVSPropertyOp20
 70
     0
102
RTVSPropertyOp21
 70
     0
102
RTVSPropertyOp22
 70
     0
102
RTVSPropertyOp23
 70
     0
102
RTVSPropertyOp24
 70
     0
102
RTVSPropertyOp25
 70
     0
102
RTVSPropertyOp26
 70
     0
102
RTVSPropertyOp27
 70
     0
  0
XRECORD
  5
C43
102
{ACAD_REACTORS
330
C42
102
}
330
C42
100
AcDbXrecord
280
     1
102
RTVSPropertyOp0
 70
     1
102
RTVSPropertyOp1
 70
     1
102
RTVSPropertyOp2
 70
     1
102
RTVSPropertyOp3
 70
     1
102
RTVSPropertyOp4
 70
     1
102
RTVSPropertyOp5
 70
     1
102
RTVSPropertyOp6
 70
     1
102
RTVSPropertyOp7
 70
     1
102
RTVSPropertyOp8
 70
     1
102
RTVSPropertyOp9
 70
     1
102
RTVSPropertyOp10
 70
     1
102
RTVSPropertyOp11
 70
     1
102
RTVSPropertyOp12
 70
     1
102
RTVSPropertyOp13
 70
     1
102
RTVSPropertyOp14
 70
     1
102
RTVSPropertyOp15
 70
     1
102
RTVSPropertyOp16
 70
     1
102
RTVSPropertyOp17
 70
     1
102
RTVSPropertyOp18
 70
     1
102
RTVSPropertyOp19
 70
     1
102
RTVSPropertyOp20
 70
     1
102
RTVSPropertyOp21
 70
     1
102
RTVSPropertyOp22
 70
     1
102
RTVSPropertyOp23
 70
     1
102
RTVSPropertyOp24
 70
     1
102
RTVSPropertyOp25
 70
     1
102
RTVSPropertyOp26
 70
     1
102
RTVSPropertyOp27
 70
     1
  0
XRECORD
  5
C49
102
{ACAD_REACTORS
330
C48
102
}
330
C48
100
AcDbXrecord
280
     1
102
RTVSPropertyOp0
 70
     1
102
RTVSPropertyOp1
 70
     1
102
RTVSPropertyOp2
 70
     1
102
RTVSPropertyOp3
 70
     1
102
RTVSPropertyOp4
 70
     1
102
RTVSPropertyOp5
 70
     1
102
RTVSPropertyOp6
 70
     1
102
RTVSPropertyOp7
 70
     1
102
RTVSPropertyOp8
 70
     1
102
RTVSPropertyOp9
 70
     1
102
RTVSPropertyOp10
 70
     1
102
RTVSPropertyOp11
 70
     1
102
RTVSPropertyOp12
 70
     1
102
RTVSPropertyOp13
 70
     1
102
RTVSPropertyOp14
 70
     1
102
RTVSPropertyOp15
 70
     1
102
RTVSPropertyOp16
 70
     1
102
RTVSPropertyOp17
 70
     1
102
RTVSPropertyOp18
 70
     1
102
RTVSPropertyOp19
 70
     1
102
RTVSPropertyOp20
 70
     1
102
RTVSPropertyOp21
 70
     1
102
RTVSPropertyOp22
 70
     1
102
RTVSPropertyOp23
 70
     1
102
RTVSPropertyOp24
 70
     1
102
RTVSPropertyOp25
 70
     1
102
RTVSPropertyOp26
 70
     1
102
RTVSPropertyOp27
 70
     1
  0
ENDSEC
  0
EOF
