  0
SECTION
  2
HEADER
  9
$ACADVER
  1
AC1015
  9
$ACADMAINTVER
 70
    20
  9
$DWGCODEPAGE
  3
ANSI_1252
  9
$INSBASE
 10
0.0
 20
0.0
 30
0.0
  9
$EXTMIN
 10
-259.6507787403043
 20
123.7300600725821
 30
0.0
  9
$EXTMAX
 10
658.9885451545
 20
299.5923413398001
 30
0.0
  9
$LIMMIN
 10
0.0
 20
0.0
  9
$LIMMAX
 10
420.0
 20
297.0
  9
$ORTHOMODE
 70
     0
  9
$REGENMODE
 70
     1
  9
$FILLMODE
 70
     1
  9
$QTEXTMODE
 70
     0
  9
$MIRRTEXT
 70
     0
  9
$LTSCALE
 40
23.1
  9
$ATTMODE
 70
     1
  9
$TEXTSIZE
 40
0.2
  9
$TRACEWID
 40
0.05
  9
$TEXTSTYLE
  7
STANDARD
  9
$CLAYER
  8
0
  9
$CELTYPE
  6
BYLAYER
  9
$CECOLOR
 62
   256
  9
$CELTSCALE
 40
1.0
  9
$DISPSILH
 70
     0
  9
$DIMSCALE
 40
1.0
  9
$DIMASZ
 40
3.5
  9
$DIMEXO
 40
1.5
  9
$DIMDLI
 40
15.96
  9
$DIMRND
 40
0.0
  9
$DIMDLE
 40
0.0
  9
$DIMEXE
 40
1.5
  9
$DIMTP
 40
0.005
  9
$DIMTM
 40
0.005
  9
$DIMTXT
 40
3.5
  9
$DIMCEN
 40
3.779999999999998
  9
$DIMTSZ
 40
0.0
  9
$DIMTOL
 70
     1
  9
$DIMLIM
 70
     0
  9
$DIMTIH
 70
     1
  9
$DIMTOH
 70
     1
  9
$DIMSE1
 70
     0
  9
$DIMSE2
 70
     0
  9
$DIMTAD
 70
     0
  9
$DIMZIN
 70
     0
  9
$DIMBLK
  1
_FILLED
  9
$DIMASO
 70
     1
  9
$DIMSHO
 70
     1
  9
$DIMPOST
  1

  9
$DIMAPOST
  1

  9
$DIMALT
 70
     0
  9
$DIMALTD
 70
     2
  9
$DIMALTF
 40
25.4
  9
$DIMLFAC
 40
1.0
  9
$DIMTOFL
 70
     0
  9
$DIMTVP
 40
0.0
  9
$DIMTIX
 70
     0
  9
$DIMSOXD
 70
     0
  9
$DIMSAH
 70
     0
  9
$DIMBLK1
  1

  9
$DIMBLK2
  1

  9
$DIMSTYLE
  2
STANDARD
  9
$DIMCLRD
 70
     0
  9
$DIMCLRE
 70
     0
  9
$DIMCLRT
 70
     0
  9
$DIMTFAC
 40
1.0
  9
$DIMGAP
 40
0.625
  9
$DIMJUST
 70
     0
  9
$DIMSD1
 70
     0
  9
$DIMSD2
 70
     0
  9
$DIMTOLJ
 70
     1
  9
$DIMTZIN
 70
     0
  9
$DIMALTZ
 70
     0
  9
$DIMALTTZ
 70
     0
  9
$DIMUPT
 70
     0
  9
$DIMDEC
 70
     0
  9
$DIMTDEC
 70
     4
  9
$DIMALTU
 70
     2
  9
$DIMALTTD
 70
     2
  9
$DIMTXSTY
  7
STANDARD
  9
$DIMAUNIT
 70
     0
  9
$DIMADEC
 70
     0
  9
$DIMALTRND
 40
0.0
  9
$DIMAZIN
 70
     0
  9
$DIMDSEP
 70
    46
  9
$DIMATFIT
 70
     3
  9
$DIMFRAC
 70
     0
  9
$DIMLDRBLK
  1

  9
$DIMLUNIT
 70
     2
  9
$DIMLWD
 70
    -2
  9
$DIMLWE
 70
    -2
  9
$DIMTMOVE
 70
     0
  9
$LUNITS
 70
     2
  9
$LUPREC
 70
     2
  9
$SKETCHINC
 40
0.1
  9
$FILLETRAD
 40
0.0
  9
$AUNITS
 70
     0
  9
$AUPREC
 70
     0
  9
$MENU
  1
.
  9
$ELEVATION
 40
0.0
  9
$PELEVATION
 40
0.0
  9
$THICKNESS
 40
0.0
  9
$LIMCHECK
 70
     0
  9
$CHAMFERA
 40
0.0
  9
$CHAMFERB
 40
0.0
  9
$CHAMFERC
 40
0.0
  9
$CHAMFERD
 40
0.0
  9
$SKPOLY
 70
     0
  9
$TDCREATE
 40
2456561.616503576
  9
$TDUCREATE
 40
2456561.574836910
  9
$TDUPDATE
 40
2456671.664836412
  9
$TDUUPDATE
 40
2456671.623169746
  9
$TDINDWG
 40
0.0076893287
  9
$TDUSRTIMER
 40
0.0076893287
  9
$USRTIMER
 70
     1
  9
$ANGBASE
 50
0.0
  9
$ANGDIR
 70
     0
  9
$PDMODE
 70
     3
  9
$PDSIZE
 40
0.3125
  9
$PLINEWID
 40
0.0
  9
$SPLFRAME
 70
     0
  9
$SPLINETYPE
 70
     6
  9
$SPLINESEGS
 70
     8
  9
$HANDSEED
  5
D56
  9
$SURFTAB1
 70
     6
  9
$SURFTAB2
 70
     6
  9
$SURFTYPE
 70
     6
  9
$SURFU
 70
     6
  9
$SURFV
 70
     6
  9
$UCSBASE
  2

  9
$UCSNAME
  2

  9
$UCSORG
 10
0.0
 20
0.0
 30
0.0
  9
$UCSXDIR
 10
1.0
 20
0.0
 30
0.0
  9
$UCSYDIR
 10
0.0
 20
1.0
 30
0.0
  9
$UCSORTHOREF
  2

  9
$UCSORTHOVIEW
 70
     0
  9
$UCSORGTOP
 10
0.0
 20
0.0
 30
0.0
  9
$UCSORGBOTTOM
 10
0.0
 20
0.0
 30
0.0
  9
$UCSORGLEFT
 10
0.0
 20
0.0
 30
0.0
  9
$UCSORGRIGHT
 10
0.0
 20
0.0
 30
0.0
  9
$UCSORGFRONT
 10
0.0
 20
0.0
 30
0.0
  9
$UCSORGBACK
 10
0.0
 20
0.0
 30
0.0
  9
$PUCSBASE
  2

  9
$PUCSNAME
  2

  9
$PUCSORG
 10
0.0
 20
0.0
 30
0.0
  9
$PUCSXDIR
 10
1.0
 20
0.0
 30
0.0
  9
$PUCSYDIR
 10
0.0
 20
1.0
 30
0.0
  9
$PUCSORTHOREF
  2

  9
$PUCSORTHOVIEW
 70
     0
  9
$PUCSORGTOP
 10
0.0
 20
0.0
 30
0.0
  9
$PUCSORGBOTTOM
 10
0.0
 20
0.0
 30
0.0
  9
$PUCSORGLEFT
 10
0.0
 20
0.0
 30
0.0
  9
$PUCSORGRIGHT
 10
0.0
 20
0.0
 30
0.0
  9
$PUCSORGFRONT
 10
0.0
 20
0.0
 30
0.0
  9
$PUCSORGBACK
 10
0.0
 20
0.0
 30
0.0
  9
$USERI1
 70
     0
  9
$USERI2
 70
     0
  9
$USERI3
 70
     0
  9
$USERI4
 70
     0
  9
$USERI5
 70
     0
  9
$USERR1
 40
0.0
  9
$USERR2
 40
0.0
  9
$USERR3
 40
0.0
  9
$USERR4
 40
0.0
  9
$USERR5
 40
0.0
  9
$WORLDVIEW
 70
     1
  9
$SHADEDGE
 70
     3
  9
$SHADEDIF
 70
    70
  9
$TILEMODE
 70
     1
  9
$MAXACTVP
 70
    64
  9
$PINSBASE
 10
0.0
 20
0.0
 30
0.0
  9
$PLIMCHECK
 70
     0
  9
$PEXTMIN
 10
1.000000000000000E+20
 20
1.000000000000000E+20
 30
1.000000000000000E+20
  9
$PEXTMAX
 10
-1.000000000000000E+20
 20
-1.000000000000000E+20
 30
-1.000000000000000E+20
  9
$PLIMMIN
 10
0.0
 20
0.0
  9
$PLIMMAX
 10
12.0
 20
9.0
  9
$UNITMODE
 70
     0
  9
$VISRETAIN
 70
     1
  9
$PLINEGEN
 70
     0
  9
$PSLTSCALE
 70
     1
  9
$TREEDEPTH
 70
  3020
  9
$CMLSTYLE
  2
Standard
  9
$CMLJUST
 70
     0
  9
$CMLSCALE
 40
1.0
  9
$PROXYGRAPHICS
 70
     1
  9
$MEASUREMENT
 70
     1
  9
$CELWEIGHT
370
    -1
  9
$ENDCAPS
280
     0
  9
$JOINSTYLE
280
     0
  9
$LWDISPLAY
290
     0
  9
$INSUNITS
 70
     4
  9
$HYPERLINKBASE
  1

  9
$STYLESHEET
  1

  9
$XEDIT
290
     1
  9
$CEPSNTYPE
380
     0
  9
$PSTYLEMODE
290
     1
  9
$FINGERPRINTGUID
  2
{DB0E3110-9C6A-4D7B-9BE7-630ECE3EE5D1}
  9
$VERSIONGUID
  2
{69CE2EE8-A090-422C-8DAC-303FD59CBFBF}
  9
$EXTNAMES
290
     1
  9
$PSVPSCALE
 40
0.0
  9
$OLESTARTUP
290
     0
  0
ENDSEC
  0
SECTION
  2
CLASSES
  0
CLASS
  1
ACDBDICTIONARYWDFLT
  2
AcDbDictionaryWithDefault
  3
ObjectDBX Classes
 90
        0
280
     0
281
     0
  0
CLASS
  1
ACDBPLACEHOLDER
  2
AcDbPlaceHolder
  3
ObjectDBX Classes
 90
        0
280
     0
281
     0
  0
CLASS
  1
LAYOUT
  2
AcDbLayout
  3
ObjectDBX Classes
 90
        0
280
     0
281
     0
  0
CLASS
  1
MATERIAL
  2
AcDbMaterial
  3
ObjectDBX Classes
 90
     1153
280
     0
281
     0
  0
CLASS
  1
VISUALSTYLE
  2
AcDbVisualStyle
  3
ObjectDBX Classes
 90
     4095
280
     0
281
     0
  0
CLASS
  1
TABLESTYLE
  2
AcDbTableStyle
  3
ObjectDBX Classes
 90
     4095
280
     0
281
     0
  0
CLASS
  1
SCALE
  2
AcDbScale
  3
ObjectDBX Classes
 90
     1153
280
     0
281
     0
  0
CLASS
  1
MLEADERSTYLE
  2
AcDbMLeaderStyle
  3
ACDB_MLEADERSTYLE_CLASS
 90
     4095
280
     0
281
     0
  0
CLASS
  1
AMGSETTINGSOBJ
  2
AmgSettingsObj
  3
"AcadM|Product Description: AutoCAD Mechanical|Company: Autodesk, Inc."
 90
     1024
280
     0
281
     0
  0
CLASS
  1
ACME_DOCUMENT
  2
AcMeDbDoc
  3
AcMeServices
 90
     1024
280
     0
281
     0
  0
CLASS
  1
ACMESCOPE
  2
AcMeScope
  3
AcMeServices
 90
     1024
280
     0
281
     0
  0
CLASS
  1
ACMECOMMANDHISTORY
  2
AcMeCommandHistory
  3
AcMeServices
 90
     1024
280
     0
281
     0
  0
CLASS
  1
ACIMSYSVARMAN
  2
AcImSysVarManager
  3
AcMeServices
 90
     1024
280
     0
281
     0
  0
CLASS
  1
ACIMINTSYSVAR
  2
AcImIntSysVar
  3
AcMeServices
 90
     1024
280
     0
281
     0
  0
CLASS
  1
ACMEDRAWINGMAN
  2
AcMeDrawingMan
  3
AcMeServices
 90
     1024
280
     0
281
     0
  0
CLASS
  1
ACMEVIEW
  2
AcMeView
  3
AcMeServices
 90
     1024
280
     0
281
     0
  0
CLASS
  1
ACDBENTITYCACHE
  2
AcMeEntityCache
  3
AcMeServices
 90
     1024
280
     0
281
     0
  0
CLASS
  1
ACMESTATEMGR
  2
AcMeStateMgr
  3
AcMeServices
 90
     1024
280
     0
281
     0
  0
CLASS
  1
ACGREFMASTER
  2
AcGrefMaster
  3
AcAttribServices
 90
     1024
280
     0
281
     0
  0
CLASS
  1
AM_DRAWING_MGR
  2
AcDmDwgMgr
  3
AcMechDwgViewMgmt
 90
     1024
280
     0
281
     0
  0
CLASS
  1
AM_DWG_DOCUMENT
  2
AcDmDwgDocument
  3
AcMechDwgViewMgmt
 90
     1024
280
     0
281
     0
  0
CLASS
  1
AM_DWG_SHEET
  2
AcDmSheet
  3
AcMechDwgViewMgmt
 90
     1024
280
     0
281
     0
  0
CLASS
  1
AM_VIEWDIMPARMAP
  2
AcDmViewDimParMap
  3
AcMechDwgViewMgmt
 90
     1024
280
     0
281
     0
  0
CLASS
  1
AMDTINTERNALREACTOR
  2
AmdtInternalReactor
  3
AcMeServices
 90
     1024
280
     0
281
     0
  0
CLASS
  1
ACIMREALSYSVAR
  2
AcImRealSysVar
  3
AcMeServices
 90
     1024
280
     0
281
     0
  0
CLASS
  1
AM_DWGMGR_NAME
  2
AcDmDwgMgrName
  3
AcMechDwgViewMgmt
 90
     1024
280
     0
281
     0
  0
CLASS
  1
ACME_DATABASE
  2
AcMeDbDatabase
  3
AcMeServices
 90
     1024
280
     0
281
     0
  0
CLASS
  1
ACRFINSADJUSTERMGR
  2
AcRfInsAdjusterMgr
  3
AcMeServices
 90
     1024
280
     0
281
     0
  0
CLASS
  1
ACGREFACADMASTER
  2
AcGrefacadMaster
  3
AcGrefServices
 90
     1024
280
     0
281
     0
  0
CLASS
  1
AMDTMENUSTATEMGR
  2
AmdtMenuStateMgr
  3
McadcomServices
 90
     1024
280
     0
281
     0
  0
CLASS
  1
AMDTMCOMMENUSTATE
  2
AmdtMcomMenuState
  3
McadcomServices
 90
     1024
280
     0
281
     0
  0
CLASS
  1
AMIMASTER
  2
AmiMaster
  3
AmiServices
 90
     1024
280
     0
281
     0
  0
CLASS
  1
MAPIAMMOUDLE
  2
MApiAmModule
  3
MApiAmServices
 90
     1024
280
     0
281
     0
  0
CLASS
  1
ACIMSTRSYSVAR
  2
AcImStrSysVar
  3
AcMeServices
 90
     1024
280
     0
281
     0
  0
CLASS
  1
AMDTADMENUSTATE
  2
AmdtAdMenuState
  3
DesignerServices
 90
     1024
280
     0
281
     0
  0
CLASS
  1
ADAPPL
  2
AcAdAppl
  3
DesignerServices
 90
     1024
280
     0
281
     0
  0
CLASS
  1
DEPMGR
  2
AcAdDepMgr
  3
DesignerServices
 90
     1024
280
     0
281
     0
  0
CLASS
  1
PARAMMGR
  2
AcAdParamMgr
  3
DesignerServices
 90
     1024
280
     0
281
     0
  0
CLASS
  1
PARAMSCOPE
  2
AcAdParamScope
  3
DesignerServices
 90
     1024
280
     0
281
     0
  0
CLASS
  1
NAMEDAPPL
  2
AcAdNamedAppl
  3
DesignerServices
 90
     1024
280
     0
281
     0
  0
CLASS
  1
AMDTDMMENUSTATE
  2
AmdtDmMenuState
  3
AcMechDwgViewMgmt
 90
     1024
280
     0
281
     0
  0
CLASS
  1
AMDTAMMENUSTATE
  2
AmdtAmMenuState
  3
DesignerAssemblies
 90
     1024
280
     0
281
     0
  0
CLASS
  1
ACAMPROJECT
  2
AcAmProject
  3
DesignerAssemblies
 90
     1024
280
     0
281
     0
  0
CLASS
  1
ACAMGRCOMPDEF
  2
AcAmGrCompDef
  3
DesignerAssemblies
 90
     1024
280
     0
281
     0
  0
CLASS
  1
ACAMCOMPDEF
  2
AcAmCompDef
  3
DesignerAssemblies
 90
     1024
280
     0
281
     0
  0
CLASS
  1
ACAMCOMPDEFMGR
  2
AcAmCompDefMgr
  3
DesignerAssemblies
 90
     1024
280
     0
281
     0
  0
CLASS
  1
AMCONTEXTMGR
  2
AcAmContextMgr
  3
DesignerAssemblies
 90
     1024
280
     0
281
     0
  0
CLASS
  1
ACAMCONTEXTMODELER
  2
AcAmContextModeler
  3
DesignerAssemblies
 90
     1024
280
     0
281
     0
  0
CLASS
  1
ACMDATADICTIONARY
  2
AcmDataDictionary
  3
"AcmSymBB|Product Description: AutoCAD Mechanical|Company: Autodesk, Inc."
 90
     1024
280
     0
281
     0
  0
CLASS
  1
CATALOGSTATE
  2
AcAmCatalogState
  3
DesignerAssemblies
 90
     1024
280
     0
281
     0
  0
CLASS
  1
ACAMGRCOMPDEFSET
  2
AcAmGrCompDefSet
  3
DesignerAssemblies
 90
     1024
280
     0
281
     0
  0
CLASS
  1
AMDTBROWSERDBTAB
  2
AmdtBrowserDbTab
  3
McadcomServices
 90
     1024
280
     0
281
     0
  0
CLASS
  1
CBROWSERAPPOBJECT
  2
CBrowserAppObject
  3
McadcomServices
 90
     1024
280
     0
281
     0
  0
CLASS
  1
DM_PLACEHOLDER
  2
AcDmSelsetPlaceholder
  3
AcMechDwgViewMgmt
 90
     1024
280
     0
281
     0
  0
CLASS
  1
EXACXREFPANELOBJECT
  2
ExAcXREFPanelObject
  3
EXAC_ESW
 90
     1025
280
     0
281
     0
  0
CLASS
  1
NPOCOLLECTION
  2
AcDbImpNonPersistentObjectsCollection
  3
ObjectDBX Classes
 90
     1153
280
     0
281
     0
  0
CLASS
  1
ACMSTANDARDDIN
  2
AcmStandardDIN
  3
"Amdt_StdImp|Product Description: AutoCAD Mechanical|Company: Autodesk, Inc."
 90
     1024
280
     0
281
     0
  0
CLASS
  1
AMDTEDGESTANDARDDIN13715
  2
AmdtEdgeStdDIN13715
  3
"Amdt_StdImp|Product Description: AutoCAD Mechanical|Company: Autodesk, Inc."
 90
     1024
280
     0
281
     0
  0
CLASS
  1
ACMSURFSTANDARDDIN2002
  2
AcmSurfTextStdDIN2002
  3
"Amdt_StdImp|Product Description: AutoCAD Mechanical|Company: Autodesk, Inc."
 90
     1024
280
     0
281
     0
  0
CLASS
  1
ACMFCFSTANDARDDIN
  2
AcmFCFStdDIN
  3
"Amdt_StdImp|Product Description: AutoCAD Mechanical|Company: Autodesk, Inc."
 90
     1024
280
     0
281
     0
  0
CLASS
  1
ACMWELDSTANDARDDIN
  2
AcmWeldingStdDIN
  3
"Amdt_StdImp|Product Description: AutoCAD Mechanical|Company: Autodesk, Inc."
 90
     1024
280
     0
281
     0
  0
CLASS
  1
ACMIDSTANDARDDIN
  2
AcmIdStdDIN
  3
"Amdt_StdImp|Product Description: AutoCAD Mechanical|Company: Autodesk, Inc."
 90
     1024
280
     0
281
     0
  0
CLASS
  1
ACMDATUMSTANDARDDIN
  2
AcmDatumStdDIN
  3
"Amdt_StdImp|Product Description: AutoCAD Mechanical|Company: Autodesk, Inc."
 90
     1024
280
     0
281
     0
  0
CLASS
  1
ACMBOMSTANDARDDIN
  2
AcmBOMStdDIN
  3
"Amdt_StdImp|Product Description: AutoCAD Mechanical|Company: Autodesk, Inc."
 90
     1024
280
     0
281
     0
  0
CLASS
  1
ACMDETAILSTANDARDDIN
  2
AmdtDetailSymStdDIN
  3
"Amdt_StdImp|Product Description: AutoCAD Mechanical|Company: Autodesk, Inc."
 90
     1024
280
     0
281
     0
  0
CLASS
  1
ACMSECTIONSTANDARDDIN
  2
AmdtSectionSymStdDIN
  3
"Amdt_StdImp|Product Description: AutoCAD Mechanical|Company: Autodesk, Inc."
 90
     1024
280
     0
281
     0
  0
CLASS
  1
ACMCENTERLINESTANDARDDIN
  2
AmdtCenterLineStdDIN
  3
"Amdt_StdImp|Product Description: AutoCAD Mechanical|Company: Autodesk, Inc."
 90
     1024
280
     0
281
     0
  0
CLASS
  1
ACMTHREADLINESTANDARDDIN
  2
AmdtThreadLineStdDIN
  3
"Amdt_StdImp|Product Description: AutoCAD Mechanical|Company: Autodesk, Inc."
 90
     1024
280
     0
281
     0
  0
CLASS
  1
ACMNOTESTANDARDDIN
  2
AmdtNoteStdDIN
  3
"Amdt_StdImp|Product Description: AutoCAD Mechanical|Company: Autodesk, Inc."
 90
     1024
280
     0
281
     0
  0
CLASS
  1
ACMTAPERSTANDARDDIN
  2
AcmTaperStdDIN
  3
"Amdt_StdImp|Product Description: AutoCAD Mechanical|Company: Autodesk, Inc."
 90
     1024
280
     0
281
     0
  0
CLASS
  1
ACMANOOTATIONVIEWSTANDARDDIN
  2
AmdtAnViewStdDIN
  3
"Amdt_StdImp|Product Description: AutoCAD Mechanical|Company: Autodesk, Inc."
 90
     1024
280
     0
281
     0
  0
CLASS
  1
ACAMGLAYSTD
  2
AcAmgLayStd
  3
"AmgLay|Product Description: AutoCAD Mechanical|Company: Autodesk, Inc."
 90
     1024
280
     0
281
     0
  0
CLASS
  1
ACAMGDIMSTD
  2
AcAmgDimStd
  3
"AmgDim|Product Description: AutoCAD Mechanical|Company: Autodesk, Inc."
 90
     1024
280
     0
281
     0
  0
CLASS
  1
AMGOBJPROPCFG
  2
AmgObjPropCfg
  3
"AmgLay|Product Description: AutoCAD Mechanical|Company: Autodesk, Inc."
 90
     1025
280
     0
281
     0
  0
CLASS
  1
ACAMGHOLECHARTSTDDIN
  2
AcAmgHoleChartStdDIN
  3
AmgDim|Product Description: AutoCAD Mechanical|Company: Autodesk, Inc.
 90
     1024
280
     0
281
     0
  0
CLASS
  1
ACAMGTITLESTD
  2
AcAmgTitleStd
  3
"AmgTitle|Product Description: AutoCAD Mechanical|Company: Autodesk, Inc."
 90
     4095
280
     0
281
     0
  0
CLASS
  1
AMDTNOTETEMPLATEDB
  2
AmdtNoteTemplateDB
  3
AcmSymBB|Product Description: AutoCAD Mechanical|Company: Autodesk, Inc.
 90
     1024
280
     0
281
     0
  0
CLASS
  1
ACAMGFILTERDAT
  2
AcAmgFilterDat
  3
"AcadM|Product Description: AutoCAD Mechanical|Company: Autodesk, Inc."
 90
    33792
280
     0
281
     0
  0
CLASS
  1
DICTIONARYVAR
  2
AcDbDictionaryVar
  3
ObjectDBX Classes
 90
        0
280
     0
281
     0
  0
CLASS
  1
CELLSTYLEMAP
  2
AcDbCellStyleMap
  3
ObjectDBX Classes
 90
     1152
280
     0
281
     0
  0
CLASS
  1
DIMASSOC
  2
AcDbDimAssoc
  3
"AcDbDimAssoc|Product Desc:     AcDim ARX App For Dimension|Company:          Autodesk, Inc.|WEB Address:      www.autodesk.com"
 90
        0
280
     0
281
     0
  0
CLASS
  1
AEC_REFEDIT_STATUS_TRACKER
  2
AecDbRefEditStatusTracker
  3
AecArchBase60|Product Desc: Autodesk Architectural Desktop 2007 |Company: Autodesk,Inc. |WEB Address: www.autodesk.com
 90
    32897
280
     0
281
     0
  0
ENDSEC
  0
SECTION
  2
TABLES
  0
TABLE
  2
VPORT
  5
8
330
0
100
AcDbSymbolTable
 70
     1
  0
VPORT
  5
1F4
330
8
100
AcDbSymbolTableRecord
100
AcDbViewportTableRecord
  2
*ACTIVE
 70
     0
 10
0.0
 20
0.0
 11
1.0
 21
1.0
 12
198.5330044190691
 22
168.041280915074
 13
0.0
 23
0.0
 14
1.0
 24
1.0
 15
0.0
 25
0.0
 16
0.0
 26
0.0
 36
1.0
 17
0.0
 27
0.0
 37
0.0
 40
586.959045487966
 41
1.812625250501002
 42
50.0
 43
0.0
 44
0.0
 50
0.0
 51
0.0
 71
     0
 72
   100
 73
     1
 74
     1
 75
     0
 76
     0
 77
     0
 78
     0
281
     0
 65
     0
110
0.0
120
0.0
130
0.0
111
1.0
121
0.0
131
0.0
112
0.0
122
1.0
132
0.0
 79
     0
146
0.0
  0
ENDTAB
  0
TABLE
  2
LTYPE
  5
5
330
0
100
AcDbSymbolTable
 70
    22
  0
LTYPE
  5
14
330
5
100
AcDbSymbolTableRecord
100
AcDbLinetypeTableRecord
  2
BYBLOCK
 70
     0
  3

 72
    65
 73
     0
 40
0.0
  0
LTYPE
  5
15
330
5
100
AcDbSymbolTableRecord
100
AcDbLinetypeTableRecord
  2
BYLAYER
 70
     0
  3

 72
    65
 73
     0
 40
0.0
  0
LTYPE
  5
16
330
5
100
AcDbSymbolTableRecord
100
AcDbLinetypeTableRecord
  2
CONTINUOUS
 70
     0
  3
Solid line
 72
    65
 73
     0
 40
0.0
  0
LTYPE
  5
1F5
330
5
100
AcDbSymbolTableRecord
100
AcDbLinetypeTableRecord
  2
CENTER
 70
     0
  3
____ _ ____ _ ____ _ ____ _ ____ _ ____ _ ____
 72
    65
 73
     4
 40
0.6
 49
0.375
 74
     0
 49
-0.075
 74
     0
 49
0.075
 74
     0
 49
-0.075
 74
     0
  0
LTYPE
  5
1F6
330
5
100
AcDbSymbolTableRecord
100
AcDbLinetypeTableRecord
  2
HIDDEN
 70
     0
  3
- - - - - - - - - - - - - - - - - - - -
 72
    65
 73
     2
 40
0.2
 49
0.1
 74
     0
 49
-0.1
 74
     0
  0
LTYPE
  5
1F7
330
5
100
AcDbSymbolTableRecord
100
AcDbLinetypeTableRecord
  2
PHANTOM
 70
     0
  3
_____ _ _ _____ _ _ _____ _ _ _____
 72
    65
 73
     6
 40
0.8
 49
0.45
 74
     0
 49
-0.05
 74
     0
 49
0.1
 74
     0
 49
-0.05
 74
     0
 49
0.1
 74
     0
 49
-0.05
 74
     0
  0
LTYPE
  5
1F8
330
5
100
AcDbSymbolTableRecord
100
AcDbLinetypeTableRecord
  2
DOT
 70
     0
  3
. . . . . . . . . . . . . . . . . . . .
 72
    65
 73
     2
 40
0.2
 49
0.1
 74
     0
 49
-0.1
 74
     0
  0
LTYPE
  5
1F9
330
5
100
AcDbSymbolTableRecord
100
AcDbLinetypeTableRecord
  2
DASHED
 70
     0
  3
- - - - - - - - - - - - - - - - - - - -
 72
    65
 73
     2
 40
0.2
 49
0.1
 74
     0
 49
-0.1
 74
     0
  0
LTYPE
  5
49C
330
5
100
AcDbSymbolTableRecord
100
AcDbLinetypeTableRecord
  2
PHANTOM2
 70
     0
  3
Phantom (.5x) ___ _ _ ___ _ _ ___ _ _ ___ _ _
 72
    65
 73
     6
 40
31.75
 49
15.875
 74
     0
 49
-3.174999999999998
 74
     0
 49
3.174999999999998
 74
     0
 49
-3.174999999999998
 74
     0
 49
3.174999999999998
 74
     0
 49
-3.174999999999998
 74
     0
  0
LTYPE
  5
4E4
330
5
100
AcDbSymbolTableRecord
100
AcDbLinetypeTableRecord
  2
AM_ISO02W050
 70
     0
  3
__ __ __ __ __ __ __ __ __ __ __ __ __ __ __
 72
    65
 73
     2
 40
7.5
 49
6.0
 74
     0
 49
-1.5
 74
     0
  0
LTYPE
  5
4E5
330
5
100
AcDbSymbolTableRecord
100
AcDbLinetypeTableRecord
  2
AM_ISO08W050
 70
     0
  3
____ . ____ . ____ . ____ . ____ . ____ . ____
 72
    65
 73
     4
 40
18.0
 49
12.0
 74
     0
 49
-1.5
 74
     0
 49
3.0
 74
     0
 49
-1.5
 74
     0
  0
LTYPE
  5
4E6
330
5
100
AcDbSymbolTableRecord
100
AcDbLinetypeTableRecord
  2
AM_ISO09W050
 70
     0
  3
_____ . . _____ . . _____ . . ____ .. ____
 72
    65
 73
     6
 40
22.5
 49
12.0
 74
     0
 49
-1.5
 74
     0
 49
3.0
 74
     0
 49
-1.5
 74
     0
 49
3.0
 74
     0
 49
-1.5
 74
     0
  0
LTYPE
  5
4E7
330
5
100
AcDbSymbolTableRecord
100
AcDbLinetypeTableRecord
  2
Amconstr
 70
     0
  3
_______________________
 72
    65
 73
     2
 40
9999.0
 49
9999.0
 74
     0
 49
0.0
 74
     0
  0
LTYPE
  5
4E8
330
5
100
AcDbSymbolTableRecord
100
AcDbLinetypeTableRecord
  2
AM_ISO08W050x2
 70
     0
  3
__ . __ . __ . __ . __ . __
 72
    65
 73
     4
 40
9.0
 49
6.0
 74
     0
 49
-0.75
 74
     0
 49
1.5
 74
     0
 49
-0.75
 74
     0
  0
LTYPE
  5
4E9
330
5
100
AcDbSymbolTableRecord
100
AcDbLinetypeTableRecord
  2
AM_ISO02W050x2
 70
     0
  3
 _ _ _ _ _ _ _ _ _ _ _ _
 72
    65
 73
     2
 40
3.75
 49
3.0
 74
     0
 49
-0.75
 74
     0
  0
LTYPE
  5
4EC
330
5
100
AcDbSymbolTableRecord
100
AcDbLinetypeTableRecord
  2
Amzigzag
 70
     0
  3
/\/-/\/-/\/-/\/-/\/-/\/
 72
    65
 73
     2
 40
11.0001
 49
0.0001
 74
     4
 75
   136
340
4EB
 46
0.04
 50
0.0
 44
0.0
 45
0.0
 49
-11.0
 74
     0
  0
LTYPE
  5
4ED
330
5
100
AcDbSymbolTableRecord
100
AcDbLinetypeTableRecord
  2
AM_DIN_F_W050
 70
     0
  3
__ __ __ __ __ __ __ __ __ __ __ __ __ __ __
 72
    65
 73
     2
 40
6.25
 49
4.75
 74
     0
 49
-1.5
 74
     0
  0
LTYPE
  5
4EE
330
5
100
AcDbSymbolTableRecord
100
AcDbLinetypeTableRecord
  2
AM_DIN_G_W050
 70
     0
  3
____ . ____ . ____ . ____ . ____ . ____ . ____
 72
    65
 73
     4
 40
13.75
 49
9.75
 74
     0
 49
-1.5
 74
     0
 49
1.0
 74
     0
 49
-1.5
 74
     0
  0
LTYPE
  5
4EF
330
5
100
AcDbSymbolTableRecord
100
AcDbLinetypeTableRecord
  2
AM_DIN_K_W050
 70
     0
  3
_____ . . _____ . . _____ . . ____ .. ____
 72
    65
 73
     6
 40
16.25
 49
9.75
 74
     0
 49
-1.5
 74
     0
 49
1.0
 74
     0
 49
-1.5
 74
     0
 49
1.0
 74
     0
 49
-1.5
 74
     0
  0
LTYPE
  5
4F0
330
5
100
AcDbSymbolTableRecord
100
AcDbLinetypeTableRecord
  2
AM_DIN_G_W050x2
 70
     0
  3
__ . __ . __ . __ . __ . __
 72
    65
 73
     4
 40
6.875
 49
4.75
 74
     0
 49
-0.875
 74
     0
 49
0.375
 74
     0
 49
-0.875
 74
     0
  0
LTYPE
  5
4F1
330
5
100
AcDbSymbolTableRecord
100
AcDbLinetypeTableRecord
  2
AM_DIN_F_W050x2
 70
     0
  3
 _ _ _ _ _ _ _ _ _ _ _ _
 72
    65
 73
     2
 40
3.125
 49
2.25
 74
     0
 49
-0.875
 74
     0
  0
LTYPE
  5
500
330
5
100
AcDbSymbolTableRecord
100
AcDbLinetypeTableRecord
  2
ACDINWELD
 70
     0
  3
_ _ _ _ _
 72
    65
 73
     2
 40
2.0
 49
2.0
 74
     0
 49
-1.0
 74
     0
  0
LTYPE
  5
501
330
5
100
AcDbSymbolTableRecord
100
AcDbLinetypeTableRecord
  2
ACDINTGB
 70
     0
  3
__ . . __ . .
 72
    65
 73
     6
 40
9.0
 49
4.0
 74
     0
 49
-1.0
 74
     0
 49
1.0
 74
     0
 49
-1.0
 74
     0
 49
1.0
 74
     0
 49
-1.0
 74
     0
  0
LTYPE
  5
502
330
5
100
AcDbSymbolTableRecord
100
AcDbLinetypeTableRecord
  2
ACDINTGL
 70
     0
  3
_ _ _ _ _
 72
    65
 73
     2
 40
3.0
 49
2.0
 74
     0
 49
-1.0
 74
     0
  0
ENDTAB
  0
TABLE
  2
LAYER
  5
2
102
{ACAD_XDICTIONARY
360
77C
102
}
330
0
100
AcDbSymbolTable
 70
    18
  0
LAYER
  5
10
330
2
100
AcDbSymbolTableRecord
100
AcDbLayerTableRecord
  2
0
 70
     0
 62
     7
  6
CONTINUOUS
370
    -3
390
F
  0
LAYER
  5
1FA
330
2
100
AcDbSymbolTableRecord
100
AcDbLayerTableRecord
  2
DEFAULT_1
 70
     0
 62
     7
  6
CENTER
370
    -3
390
F
  0
LAYER
  5
1FB
330
2
100
AcDbSymbolTableRecord
100
AcDbLayerTableRecord
  2
DEFAULT_2
 70
     0
 62
     8
  6
HIDDEN
370
    -3
390
F
  0
LAYER
  5
1FC
330
2
100
AcDbSymbolTableRecord
100
AcDbLayerTableRecord
  2
DEFAULT_3
 70
     0
 62
     7
  6
PHANTOM
370
    -3
390
F
  0
LAYER
  5
1FD
330
2
100
AcDbSymbolTableRecord
100
AcDbLayerTableRecord
  2
BEZUGSACHSEN
 70
     0
 62
     7
  6
CONTINUOUS
370
    -3
390
F
  0
LAYER
  5
1FE
330
2
100
AcDbSymbolTableRecord
100
AcDbLayerTableRecord
  2
BEZUGSEBENEN
 70
     0
 62
     7
  6
CONTINUOUS
370
    -3
390
F
  0
LAYER
  5
1FF
330
2
100
AcDbSymbolTableRecord
100
AcDbLayerTableRecord
  2
BOHRUNGEN
 70
     0
 62
     7
  6
CONTINUOUS
370
    -3
390
F
  0
LAYER
  5
200
330
2
100
AcDbSymbolTableRecord
100
AcDbLayerTableRecord
  2
FASEN
 70
     0
 62
     7
  6
CONTINUOUS
370
    -3
390
F
  0
LAYER
  5
201
330
2
100
AcDbSymbolTableRecord
100
AcDbLayerTableRecord
  2
HILFEN
 70
     0
 62
     7
  6
CONTINUOUS
370
    -3
390
F
  0
LAYER
  5
202
330
2
100
AcDbSymbolTableRecord
100
AcDbLayerTableRecord
  2
KURVEN
 70
     0
 62
     7
  6
CONTINUOUS
370
    -3
390
F
  0
LAYER
  5
203
330
2
100
AcDbSymbolTableRecord
100
AcDbLayerTableRecord
  2
LAY0001
 70
     0
 62
     7
  6
CONTINUOUS
370
    -3
390
F
  0
LAYER
  5
204
330
2
100
AcDbSymbolTableRecord
100
AcDbLayerTableRecord
  2
PLATZIERUNG
 70
     0
 62
     7
  6
CONTINUOUS
370
    -3
390
F
  0
LAYER
  5
205
330
2
100
AcDbSymbolTableRecord
100
AcDbLayerTableRecord
  2
TEIL_STARTBEZUEGE
 70
     0
 62
     7
  6
CONTINUOUS
370
    -3
390
F
  0
LAYER
  5
206
330
2
100
AcDbSymbolTableRecord
100
AcDbLayerTableRecord
  2
XSEC_DATUMS
 70
     0
 62
     7
  6
CONTINUOUS
370
    -3
390
F
  0
LAYER
  5
207
330
2
100
AcDbSymbolTableRecord
100
AcDbLayerTableRecord
  2
ZEICHNUNGSBEMASSUNGEN
 70
     0
 62
     7
  6
CONTINUOUS
370
    -3
390
F
  0
LAYER
  5
510
330
2
100
AcDbSymbolTableRecord
100
AcDbLayerTableRecord
  2
Defpoints
 70
     0
 62
     7
  6
CONTINUOUS
290
     0
370
    -3
390
F
  0
LAYER
  5
676
330
2
100
AcDbSymbolTableRecord
100
AcDbLayerTableRecord
  2
AM_5
 70
     0
 62
     3
  6
CONTINUOUS
370
    25
390
F
1001
AcAecLayerStandard
1000

1000

  0
LAYER
  5
779
102
{ACAD_XDICTIONARY
360
77A
102
}
330
2
100
AcDbSymbolTableRecord
100
AcDbLayerTableRecord
  2
P-0000
 70
     0
 62
     7
  6
CONTINUOUS
370
    -3
390
F
  0
ENDTAB
  0
TABLE
  2
STYLE
  5
3
330
0
100
AcDbSymbolTable
 70
     6
  0
STYLE
  5
11
330
3
100
AcDbSymbolTableRecord
100
AcDbTextStyleTableRecord
  2
STANDARD
 70
     0
 40
0.0
 41
0.7
 50
0.0
 71
     0
 42
0.2
  3
txt
  4

  0
STYLE
  5
208
330
3
100
AcDbSymbolTableRecord
100
AcDbTextStyleTableRecord
  2
TEXTSTYLE_1
 70
     0
 40
0.0
 41
0.8
 50
0.0
 71
     0
 42
0.2
  3
gdt
  4

  0
STYLE
  5
209
330
3
100
AcDbSymbolTableRecord
100
AcDbTextStyleTableRecord
  2
TEXTSTYLE_2
 70
     0
 40
0.0
 41
0.6
 50
0.0
 71
     0
 42
0.2
  3
txt
  4

  0
STYLE
  5
4EB
330
3
100
AcDbSymbolTableRecord
100
AcDbTextStyleTableRecord
  2

 70
     1
 40
0.0
 41
1.0
 50
0.0
 71
     0
 42
0.2
  3
genltshp.shx
  4

  0
STYLE
  5
4FE
330
3
100
AcDbSymbolTableRecord
100
AcDbTextStyleTableRecord
  2
ACDINTS
 70
     0
 40
1.0
 41
1.0
 50
0.0
 71
     0
 42
0.2
  3
isocp.shx
  4

  0
STYLE
  5
4FF
330
3
100
AcDbSymbolTableRecord
100
AcDbTextStyleTableRecord
  2
ACDINGDT
 70
     0
 40
0.0
 41
1.0
 50
0.0
 71
     0
 42
0.2
  3
amgdt.shx
  4

  0
ENDTAB
  0
TABLE
  2
VIEW
  5
6
330
0
100
AcDbSymbolTable
 70
     0
  0
ENDTAB
  0
TABLE
  2
UCS
  5
7
330
0
100
AcDbSymbolTable
 70
     0
  0
ENDTAB
  0
TABLE
  2
APPID
  5
9
330
0
100
AcDbSymbolTable
 70
    22
  0
APPID
  5
20A
330
9
100
AcDbSymbolTableRecord
100
AcDbRegAppTableRecord
  2
ACAD
 70
     0
  0
APPID
  5
471
330
9
100
AcDbSymbolTableRecord
100
AcDbRegAppTableRecord
  2
MCAD_NO_VIS
 70
     0
  0
APPID
  5
472
330
9
100
AcDbSymbolTableRecord
100
AcDbRegAppTableRecord
  2
ACAD_TEMP_GRAPHIC
 70
     0
  0
APPID
  5
49E
330
9
100
AcDbSymbolTableRecord
100
AcDbRegAppTableRecord
  2
AD_DRAW
 70
     0
  0
APPID
  5
4A1
330
9
100
AcDbSymbolTableRecord
100
AcDbRegAppTableRecord
  2
ACATTRIBSERVICES
 70
     0
  0
APPID
  5
4C1
330
9
100
AcDbSymbolTableRecord
100
AcDbRegAppTableRecord
  2
DESIGNERASSEMBLIES
 70
     0
  0
APPID
  5
4C7
330
9
100
AcDbSymbolTableRecord
100
AcDbRegAppTableRecord
  2
ACADM_DIM_EDIT
 70
     0
  0
APPID
  5
4C8
330
9
100
AcDbSymbolTableRecord
100
AcDbRegAppTableRecord
  2
AMDT_DM_ADJ
 70
     0
  0
APPID
  5
4E1
330
9
100
AcDbSymbolTableRecord
100
AcDbRegAppTableRecord
  2
ACAD_DSTYLE_DIMJAG
 70
     0
  0
APPID
  5
4E2
330
9
100
AcDbSymbolTableRecord
100
AcDbRegAppTableRecord
  2
ACAD_DSTYLE_DIMBREAK
 70
     0
  0
APPID
  5
547
330
9
100
AcDbSymbolTableRecord
100
AcDbRegAppTableRecord
  2
AcAecLayerStandard
 70
     0
  0
APPID
  5
548
330
9
100
AcDbSymbolTableRecord
100
AcDbRegAppTableRecord
  2
GENIUS_GENODEF_13
 70
     0
  0
APPID
  5
549
330
9
100
AcDbSymbolTableRecord
100
AcDbRegAppTableRecord
  2
GENIUS_GENOBJ-N-HTC_13
 70
     0
  0
APPID
  5
54A
330
9
100
AcDbSymbolTableRecord
100
AcDbRegAppTableRecord
  2
GENIUS_GENHATCH_13
 70
     0
  0
APPID
  5
54B
330
9
100
AcDbSymbolTableRecord
100
AcDbRegAppTableRecord
  2
ACAD_EXEMPT_FROM_CAD_STANDARDS
 70
     0
  0
APPID
  5
54C
330
9
100
AcDbSymbolTableRecord
100
AcDbRegAppTableRecord
  2
ACAD_MLEADERVER
 70
     0
  0
APPID
  5
54D
330
9
100
AcDbSymbolTableRecord
100
AcDbRegAppTableRecord
  2
ACAD_DSTYLE_DIMJOGGED_JOGANGLE_SYMBOL
 70
     0
  0
APPID
  5
54E
330
9
100
AcDbSymbolTableRecord
100
AcDbRegAppTableRecord
  2
ACAD_DSTYLE_DIM_LINETYPE
 70
     0
  0
APPID
  5
54F
330
9
100
AcDbSymbolTableRecord
100
AcDbRegAppTableRecord
  2
ACAD_DSTYLE_DIM_EXT1_LINETYPE
 70
     0
  0
APPID
  5
550
330
9
100
AcDbSymbolTableRecord
100
AcDbRegAppTableRecord
  2
ACAD_DSTYLE_DIM_EXT2_LINETYPE
 70
     0
  0
APPID
  5
551
330
9
100
AcDbSymbolTableRecord
100
AcDbRegAppTableRecord
  2
ACAD_DSTYLE_DIMINSPECT
 70
     0
  0
APPID
  5
552
330
9
100
AcDbSymbolTableRecord
100
AcDbRegAppTableRecord
  2
GENIUS_GENDTOL_13
 70
     0
  0
ENDTAB
  0
TABLE
  2
DIMSTYLE
  5
A
330
0
100
AcDbSymbolTable
 70
    13
100
AcDbDimStyleTable
 71
     3
340
212
340
77B
340
214
  0
DIMSTYLE
105
212
330
A
100
AcDbSymbolTableRecord
100
AcDbDimStyleTableRecord
  2
STANDARD
 70
     0
 41
3.5
 42
1.5
 44
1.5
 47
0.005
 48
0.005
 71
     1
 73
     0
 74
     0
 77
     1
 78
     8
140
3.5
147
0.625
178
     5
271
     3
272
     3
284
     8
340
11
341
20D
342
20D
343
20D
344
20D
  0
DIMSTYLE
105
213
330
A
100
AcDbSymbolTableRecord
100
AcDbDimStyleTableRecord
  2
DIMSTYLE_1
 70
     0
 41
3.5
 42
1.5
 44
1.5
 47
0.3
 48
0.3
 73
     0
 74
     0
 77
     1
 78
     8
140
3.5
147
0.875
178
     5
271
     1
272
     1
284
     8
340
11
341
20D
342
20D
343
20D
344
20D
  0
DIMSTYLE
105
214
330
A
100
AcDbSymbolTableRecord
100
AcDbDimStyleTableRecord
  2
DIMSTYLE_2
 70
     0
 41
3.5
 42
1.5
 44
1.5
 48
1.0
 71
     1
 73
     0
 74
     0
 77
     1
 78
     8
140
3.5
146
0.6
147
0.875
178
     5
271
     3
272
     3
284
     8
340
11
341
20D
342
20D
343
20D
344
20D
  0
DIMSTYLE
105
215
330
A
100
AcDbSymbolTableRecord
100
AcDbDimStyleTableRecord
  2
DIMSTYLE_3
 70
     0
 41
3.5
 42
1.5
 44
1.5
 47
0.3
 48
0.3
 73
     0
 74
     0
 77
     1
 78
     8
140
3.5
147
0.875
178
     5
271
     3
272
     3
284
     8
340
11
341
20D
342
20D
343
20D
344
20D
  0
DIMSTYLE
105
4E0
102
{ACAD_REACTORS
330
D08
102
}
330
A
100
AcDbSymbolTableRecord
100
AcDbDimStyleTableRecord
  2
AM_DIN
 70
     0
  4
"
 41
3.5
 42
1.0
 43
10.0
 44
1.0
 47
0.1
 48
0.1
 73
     0
 74
     0
 77
     1
 78
     8
 79
     2
140
3.5
141
0.0
143
0.0393701
146
0.71
147
1.5
172
     1
176
   256
177
   256
178
     2
271
     2
272
     3
274
     4
283
     0
284
     8
340
11
371
    -1
372
    -1
1001
ACAD_DSTYLE_DIMJAG
1070
   388
1040
1.5
1001
ACAD_DSTYLE_DIMBREAK
1070
   391
1040
3.75
1001
ACAD_DSTYLE_DIMJOGGED_JOGANGLE_SYMBOL
1070
   384
1040
1.570796326794896
1001
ACAD_DSTYLE_DIM_LINETYPE
1070
   380
1005
14
1001
ACAD_DSTYLE_DIM_EXT1_LINETYPE
1070
   381
1005
14
1001
ACAD_DSTYLE_DIM_EXT2_LINETYPE
1070
   382
1005
14
  0
DIMSTYLE
105
4F2
330
A
100
AcDbSymbolTableRecord
100
AcDbDimStyleTableRecord
  2
AM_DIN$3
 70
     0
  4
"
 41
3.5
 42
1.0
 43
10.0
 44
1.0
 47
0.1
 48
0.1
 73
     0
 77
     1
 78
     8
 79
     2
140
3.5
141
0.0
143
0.0393701
146
0.71
147
1.5
176
   256
177
   256
178
     2
271
     2
272
     3
274
     4
283
     0
284
     8
288
     1
289
     0
340
11
371
    -1
372
    -1
1001
ACAD_DSTYLE_DIMBREAK
1070
   391
1040
3.75
1001
ACAD_DSTYLE_DIMJAG
1070
   388
1040
1.5
1001
ACAD_DSTYLE_DIMJOGGED_JOGANGLE_SYMBOL
1070
   384
1040
1.570796326794896
1001
ACAD_DSTYLE_DIM_LINETYPE
1070
   380
1005
14
1001
ACAD_DSTYLE_DIM_EXT1_LINETYPE
1070
   381
1005
14
1001
ACAD_DSTYLE_DIM_EXT2_LINETYPE
1070
   382
1005
14
  0
DIMSTYLE
105
4F3
330
A
100
AcDbSymbolTableRecord
100
AcDbDimStyleTableRecord
  2
AM_DIN$4
 70
     0
  4
"
 41
3.5
 42
1.0
 43
10.0
 44
1.0
 47
0.1
 48
0.1
 73
     0
 77
     1
 78
     8
 79
     2
140
3.5
141
0.0
143
0.0393701
146
0.71
147
1.5
176
   256
177
   256
178
     2
271
     2
272
     3
274
     4
283
     0
284
     8
288
     1
289
     0
340
11
371
    -1
372
    -1
1001
ACAD_DSTYLE_DIMBREAK
1070
   391
1040
3.75
1001
ACAD_DSTYLE_DIMJAG
1070
   388
1040
1.5
1001
ACAD_DSTYLE_DIMJOGGED_JOGANGLE_SYMBOL
1070
   384
1040
1.570796326794896
1001
ACAD_DSTYLE_DIM_LINETYPE
1070
   380
1005
14
1001
ACAD_DSTYLE_DIM_EXT1_LINETYPE
1070
   381
1005
14
1001
ACAD_DSTYLE_DIM_EXT2_LINETYPE
1070
   382
1005
14
  0
DIMSTYLE
105
4F4
330
A
100
AcDbSymbolTableRecord
100
AcDbDimStyleTableRecord
  2
AM_DIN$6
 70
     0
  4
"
 41
3.5
 42
1.0
 43
10.0
 44
1.0
 47
0.1
 48
0.1
 73
     0
 74
     0
 78
     8
 79
     2
140
3.5
141
0.0
143
0.0393701
146
0.71
147
1.5
172
     1
176
   256
177
   256
178
     2
271
     2
272
     3
274
     4
283
     0
284
     8
340
11
371
    -1
372
    -1
1001
ACAD_DSTYLE_DIMBREAK
1070
   391
1040
3.75
1001
ACAD_DSTYLE_DIMJAG
1070
   388
1040
1.5
1001
ACAD_DSTYLE_DIMJOGGED_JOGANGLE_SYMBOL
1070
   384
1040
1.570796326794896
1001
ACAD_DSTYLE_DIM_LINETYPE
1070
   380
1005
14
1001
ACAD_DSTYLE_DIM_EXT1_LINETYPE
1070
   381
1005
14
1001
ACAD_DSTYLE_DIM_EXT2_LINETYPE
1070
   382
1005
14
  0
DIMSTYLE
105
4F5
330
A
100
AcDbSymbolTableRecord
100
AcDbDimStyleTableRecord
  2
AM_DIN$7
 70
     0
  4
"
 41
3.5
 42
1.0
 43
10.0
 44
1.0
 47
0.1
 48
0.1
 73
     0
 74
     0
 77
     1
 78
     8
 79
     2
140
3.5
141
0.0
143
0.0393701
146
0.71
147
1.5
172
     1
176
   256
177
   256
178
     2
271
     2
272
     3
274
     4
283
     0
284
     8
340
11
371
    -1
372
    -1
1001
ACAD_DSTYLE_DIMBREAK
1070
   391
1040
3.75
1001
ACAD_DSTYLE_DIMJAG
1070
   388
1040
1.5
1001
ACAD_DSTYLE_DIMJOGGED_JOGANGLE_SYMBOL
1070
   384
1040
1.570796326794896
1001
ACAD_DSTYLE_DIM_LINETYPE
1070
   380
1005
14
1001
ACAD_DSTYLE_DIM_EXT1_LINETYPE
1070
   381
1005
14
1001
ACAD_DSTYLE_DIM_EXT2_LINETYPE
1070
   382
1005
14
  0
DIMSTYLE
105
4F6
330
A
100
AcDbSymbolTableRecord
100
AcDbDimStyleTableRecord
  2
AM_DIN$SF
 70
     0
  4
"
 41
3.5
 42
1.0
 43
10.0
 44
1.0
 47
0.1
 48
0.1
 73
     0
 74
     0
 75
     1
 76
     1
 77
     1
 78
     8
 79
     2
140
3.5
141
0.0
143
0.0393701
146
0.71
147
1.5
172
     1
176
   256
177
   256
178
     2
271
     2
272
     3
274
     4
283
     0
284
     8
340
11
371
    -1
372
    -1
1001
ACAD_DSTYLE_DIMBREAK
1070
   391
1040
3.75
1001
ACAD_DSTYLE_DIMJAG
1070
   388
1040
1.5
1001
ACAD_DSTYLE_DIMJOGGED_JOGANGLE_SYMBOL
1070
   384
1040
1.570796326794896
1001
ACAD_DSTYLE_DIM_LINETYPE
1070
   380
1005
14
1001
ACAD_DSTYLE_DIM_EXT1_LINETYPE
1070
   381
1005
14
1001
ACAD_DSTYLE_DIM_EXT2_LINETYPE
1070
   382
1005
14
  0
DIMSTYLE
105
4FB
330
A
100
AcDbSymbolTableRecord
100
AcDbDimStyleTableRecord
  2
AM_DIN$SH
 70
     0
  4
"
 41
3.5
 42
1.0
 43
10.0
 44
1.0
 47
0.1
 48
0.1
 73
     0
 74
     0
 75
     1
 76
     1
 77
     1
 78
     8
 79
     2
140
3.5
141
0.0
143
0.0393701
144
2.0
146
0.71
147
1.5
172
     1
173
     1
176
   256
177
   256
178
     2
271
     2
272
     3
274
     4
283
     0
284
     8
340
11
343
4F7
371
    -1
372
    -1
1001
ACAD_DSTYLE_DIMBREAK
1070
   391
1040
3.75
1001
ACAD_DSTYLE_DIMJAG
1070
   388
1040
1.5
1001
ACAD_DSTYLE_DIMJOGGED_JOGANGLE_SYMBOL
1070
   384
1040
1.570796326794896
1001
ACAD_DSTYLE_DIM_LINETYPE
1070
   380
1005
14
1001
ACAD_DSTYLE_DIM_EXT1_LINETYPE
1070
   381
1005
14
1001
ACAD_DSTYLE_DIM_EXT2_LINETYPE
1070
   382
1005
14
  0
DIMSTYLE
105
677
330
A
100
AcDbSymbolTableRecord
100
AcDbDimStyleTableRecord
  2
STANDARD$0
 70
     0
 41
3.5
 42
1.5
 44
1.5
 47
0.005
 48
0.005
 71
     1
 73
     0
 74
     0
 77
     1
 78
     8
140
3.5
147
0.625
178
     5
271
     3
272
     3
284
     8
340
11
341
20D
342
20D
343
20D
344
20D
1001
ACAD_DSTYLE_DIMBREAK
1070
   391
1040
3.75
1001
ACAD_DSTYLE_DIMJAG
1070
   388
1040
1.5
  0
DIMSTYLE
105
77B
102
{ACAD_REACTORS
330
6DF
330
6B1
330
679
102
}
330
A
100
AcDbSymbolTableRecord
100
AcDbDimStyleTableRecord
  2
883N99122_001_00149479900
 70
     0
 40
2.0
 41
3.149999999999999
 42
0.0
 43
3.75
 44
2.0
 73
     0
 74
     0
 77
     1
 78
     8
 79
     2
140
3.5
141
0.0
143
0.03937007874016
145
2.0
147
2.0
171
     3
172
     1
173
     1
176
     3
177
     3
178
     2
179
     2
271
     2
272
     2
274
     3
283
     0
284
     8
340
11
341
776
  0
ENDTAB
  0
TABLE
  2
BLOCK_RECORD
  5
1
330
0
100
AcDbSymbolTable
 70
    15
  0
BLOCK_RECORD
  5
20B
330
1
100
AcDbSymbolTableRecord
100
AcDbBlockTableRecord
  2
*Model_Space
340
421
  0
BLOCK_RECORD
  5
20C
330
1
100
AcDbSymbolTableRecord
100
AcDbBlockTableRecord
  2
*Paper_Space
340
422
  0
BLOCK_RECORD
  5
20D
330
1
100
AcDbSymbolTableRecord
100
AcDbBlockTableRecord
  2
_FILLED
340
0
102
{BLKREFS
331
563
331
564
331
579
331
57A
331
5A5
331
5A6
331
5B7
331
5B8
102
}
  0
BLOCK_RECORD
  5
20E
330
1
100
AcDbSymbolTableRecord
100
AcDbBlockTableRecord
  2
*D1
340
0
  0
BLOCK_RECORD
  5
20F
330
1
100
AcDbSymbolTableRecord
100
AcDbBlockTableRecord
  2
*D2
340
0
  0
BLOCK_RECORD
  5
210
330
1
100
AcDbSymbolTableRecord
100
AcDbBlockTableRecord
  2
*D3
340
0
  0
BLOCK_RECORD
  5
211
330
1
100
AcDbSymbolTableRecord
100
AcDbBlockTableRecord
  2
*D4
340
0
  0
BLOCK_RECORD
  5
4F7
330
1
100
AcDbSymbolTableRecord
100
AcDbBlockTableRecord
  2
GENAXEH
340
0
  0
BLOCK_RECORD
  5
67A
330
1
100
AcDbSymbolTableRecord
100
AcDbBlockTableRecord
  2
*D6
340
0
  0
BLOCK_RECORD
  5
6B2
330
1
100
AcDbSymbolTableRecord
100
AcDbBlockTableRecord
  2
*D7
340
0
  0
BLOCK_RECORD
  5
6E0
330
1
100
AcDbSymbolTableRecord
100
AcDbBlockTableRecord
  2
*D8
340
0
  0
BLOCK_RECORD
  5
75E
330
1
100
AcDbSymbolTableRecord
100
AcDbBlockTableRecord
  2
*D9
340
0
  0
BLOCK_RECORD
  5
76A
330
1
100
AcDbSymbolTableRecord
100
AcDbBlockTableRecord
  2
*D10
340
0
  0
BLOCK_RECORD
  5
776
330
1
100
AcDbSymbolTableRecord
100
AcDbBlockTableRecord
  2
_None
340
0
  0
BLOCK_RECORD
  5
A50
330
1
100
AcDbSymbolTableRecord
100
AcDbBlockTableRecord
  2
*D12
340
0
  0
BLOCK_RECORD
  5
A5C
330
1
100
AcDbSymbolTableRecord
100
AcDbBlockTableRecord
  2
*D13
340
0
  0
ENDTAB
  0
ENDSEC
  0
SECTION
  2
BLOCKS
  0
BLOCK
  5
20
330
20B
100
AcDbEntity
  8
0
100
AcDbBlockBegin
  2
*Model_Space
 70
     0
 10
0.0
 20
0.0
 30
0.0
  3
*Model_Space
  1

  0
ENDBLK
  5
21
330
20B
100
AcDbEntity
  8
0
100
AcDbBlockEnd
  0
BLOCK
  5
1C
330
20C
100
AcDbEntity
 67
     1
  8
0
100
AcDbBlockBegin
  2
*Paper_Space
 70
     0
 10
0.0
 20
0.0
 30
0.0
  3
*Paper_Space
  1

  0
ENDBLK
  5
1D
330
20C
100
AcDbEntity
 67
     1
  8
0
100
AcDbBlockEnd
  0
BLOCK
  5
216
330
20D
100
AcDbEntity
  8
0
100
AcDbBlockBegin
  2
_FILLED
 70
     0
 10
0.0
 20
0.0
 30
0.0
  3
_FILLED
  1

  0
SOLID
  5
217
330
20D
100
AcDbEntity
  8
0
  6
ByBlock
 62
     0
100
AcDbTrace
 10
0.0
 20
0.0
 30
0.0
 11
-1.0
 21
0.125
 31
0.0
 12
-1.0
 22
-0.125
 32
0.0
 13
-1.0
 23
-0.125
 33
0.0
  0
ENDBLK
  5
218
330
20D
100
AcDbEntity
  8
0
  6
ByBlock
 62
     0
100
AcDbBlockEnd
  0
BLOCK
  5
219
330
20E
100
AcDbEntity
  8
ZEICHNUNGSBEMASSUNGEN
  6
Continuous
 62
     2
100
AcDbBlockBegin
  2
*D1
 70
     1
 10
0.0
 20
0.0
 30
0.0
  3
*D1
  1

  0
LINE
  5
5B4
330
20E
100
AcDbEntity
  8
0
  6
Continuous
 62
     0
370
    -2
100
AcDbLine
 10
657.4885451545
 20
174.4353522833
 30
0.0
 11
676.0935599089997
 21
174.4353522833
 31
0.0
  0
LINE
  5
5B5
330
20E
100
AcDbEntity
  8
0
  6
Continuous
 62
     0
370
    -2
100
AcDbLine
 10
657.4885451545
 20
235.9327328395
 30
0.0
 11
676.0935599089997
 21
235.9327328395
 31
0.0
  0
LINE
  5
5B6
330
20E
100
AcDbEntity
  8
0
  6
Continuous
 62
     0
370
    -2
100
AcDbLine
 10
674.593559909
 20
179.4353522833
 30
0.0
 11
674.593559909
 21
230.9327328395
 31
0.0
  0
INSERT
  5
5B7
330
20E
100
AcDbEntity
  8
0
  6
Continuous
 62
     0
370
    -2
100
AcDbBlockReference
  2
_FILLED
 10
674.593559909
 20
174.4353522833
 30
0.0
 41
5.0
 42
5.0
 43
5.0
 50
270.0
  0
INSERT
  5
5B8
330
20E
100
AcDbEntity
  8
0
  6
Continuous
 62
     0
370
    -2
100
AcDbBlockReference
  2
_FILLED
 10
674.593559909
 20
235.9327328395
 30
0.0
 41
5.0
 42
5.0
 43
5.0
 50
90.0
  0
MTEXT
  5
5B9
330
20E
100
AcDbEntity
  8
0
  6
Continuous
100
AcDbMText
 10
666.093559909
 20
205.1840425614
 30
0.0
 40
7.0
 41
0.0
 71
     2
 72
     1
  1
\A1;61.5
 11
0.0000000000000001
 21
1.0
 31
0.0
 73
     1
 44
1.0
1001
ACAD
1000
MTEXTBEGIN
1070
    73
1070
     1
1070
    44
1040
1.0
1070
    74
1070
     0
1000
MTEXTEND
  0
POINT
  5
5BA
330
20E
100
AcDbEntity
  8
Defpoints
  6
Continuous
 62
     0
100
AcDbPoint
 10
655.9885451545
 20
174.4353522833
 30
0.0
  0
POINT
  5
5BB
330
20E
100
AcDbEntity
  8
Defpoints
  6
Continuous
 62
     0
100
AcDbPoint
 10
655.9885451545
 20
235.9327328395
 30
0.0
  0
POINT
  5
5BC
330
20E
100
AcDbEntity
  8
Defpoints
  6
Continuous
 62
     0
100
AcDbPoint
 10
674.593559909
 20
235.9327328395
 30
0.0
  0
ENDBLK
  5
223
330
20E
100
AcDbEntity
  8
0
  6
ByBlock
 62
     0
100
AcDbBlockEnd
  0
BLOCK
  5
224
330
20F
100
AcDbEntity
  8
0
  6
Continuous
 62
     2
100
AcDbBlockBegin
  2
*D2
 70
     1
 10
0.0
 20
0.0
 30
0.0
  3
*D2
  1

  0
LINE
  5
5A2
330
20F
100
AcDbEntity
  8
0
  6
Continuous
 62
     0
370
    -2
100
AcDbLine
 10
655.9885451545
 20
172.9353522833
 30
0.0
 11
655.9885451545
 21
150.2700556612
 31
0.0
  0
LINE
  5
5A3
330
20F
100
AcDbEntity
  8
0
  6
Continuous
 62
     0
370
    -2
100
AcDbLine
 10
-222.0114548455
 20
172.9353522833
 30
0.0
 11
-222.0114548455
 21
150.2700556612
 31
0.0
  0
LINE
  5
5A4
330
20F
100
AcDbEntity
  8
0
  6
Continuous
 62
     0
370
    -2
100
AcDbLine
 10
650.9885451545
 20
151.7700556612
 30
0.0
 11
-217.0114548455
 21
151.7700556612
 31
0.0
  0
INSERT
  5
5A5
330
20F
100
AcDbEntity
  8
0
  6
Continuous
 62
     0
370
    -2
100
AcDbBlockReference
  2
_FILLED
 10
655.9885451545
 20
151.7700556612
 30
0.0
 41
5.0
 42
5.0
 43
5.0
  0
INSERT
  5
5A6
330
20F
100
AcDbEntity
  8
0
  6
Continuous
 62
     0
370
    -2
100
AcDbBlockReference
  2
_FILLED
 10
-222.0114548455
 20
151.7700556612
 30
0.0
 41
5.0
 42
5.0
 43
5.0
 50
180.0
  0
MTEXT
  5
5A7
330
20F
100
AcDbEntity
  8
0
  6
Continuous
100
AcDbMText
 10
215.6135451545
 20
160.2700556612
 30
0.0
 40
7.0
 41
0.0
 71
     2
 72
     1
  1
\A1;878 
 73
     1
 44
1.0
1001
ACAD
1000
MTEXTBEGIN
1070
    73
1070
     1
1070
    44
1040
1.0
1070
    74
1070
     0
1000
MTEXTEND
  0
POINT
  5
5A8
330
20F
100
AcDbEntity
  8
Defpoints
  6
Continuous
 62
     0
100
AcDbPoint
 10
655.9885451545
 20
174.4353522833
 30
0.0
  0
POINT
  5
5A9
330
20F
100
AcDbEntity
  8
Defpoints
  6
Continuous
 62
     0
100
AcDbPoint
 10
-222.0114548455
 20
174.4353522833
 30
0.0
  0
POINT
  5
5AA
330
20F
100
AcDbEntity
  8
Defpoints
  6
Continuous
 62
     0
100
AcDbPoint
 10
-222.0114548455
 20
151.7700556612
 30
0.0
  0
ENDBLK
  5
22F
330
20F
100
AcDbEntity
  8
0
  6
ByBlock
 62
     0
100
AcDbBlockEnd
  0
BLOCK
  5
230
330
210
100
AcDbEntity
  8
0
  6
Continuous
 62
     2
100
AcDbBlockBegin
  2
*D3
 70
     1
 10
0.0
 20
0.0
 30
0.0
  3
*D3
  1

  0
LINE
  5
576
330
210
100
AcDbEntity
  8
0
  6
Continuous
 62
     0
370
    -2
100
AcDbLine
 10
592.9885451545
 20
269.6269623428
 30
0.0
 11
592.9885451545
 21
301.3873218063
 31
0.0
  0
LINE
  5
577
330
210
100
AcDbEntity
  8
0
  6
Continuous
 62
     0
370
    -2
100
AcDbLine
 10
655.9885451545
 20
286.2673223156
 30
0.0
 11
655.9885451545
 21
301.3873218063
 31
0.0
  0
LINE
  5
578
330
210
100
AcDbEntity
  8
0
  6
Continuous
 62
     0
370
    -2
100
AcDbLine
 10
597.9885451544999
 20
299.8873218063
 30
0.0
 11
650.9885451545
 21
299.8873218063
 31
0.0
  0
INSERT
  5
579
330
210
100
AcDbEntity
  8
0
  6
Continuous
 62
     0
370
    -2
100
AcDbBlockReference
  2
_FILLED
 10
592.9885451545
 20
299.8873218063
 30
0.0
 41
5.0
 42
5.0
 43
5.0
 50
180.0
  0
INSERT
  5
57A
330
210
100
AcDbEntity
  8
0
  6
Continuous
 62
     0
370
    -2
100
AcDbBlockReference
  2
_FILLED
 10
655.9885451545
 20
299.8873218063
 30
0.0
 41
5.0
 42
5.0
 43
5.0
  0
MTEXT
  5
57B
330
210
100
AcDbEntity
  8
0
  6
Continuous
100
AcDbMText
 10
631.2915898241999
 20
308.3873218063
 30
0.0
 40
7.0
 41
0.0
 71
     2
 72
     1
  1
\A1;63
 73
     1
 44
1.0
1001
ACAD
1000
MTEXTBEGIN
1070
    73
1070
     1
1070
    44
1040
1.0
1070
    74
1070
     0
1000
MTEXTEND
  0
POINT
  5
57C
330
210
100
AcDbEntity
  8
Defpoints
  6
Continuous
 62
     0
100
AcDbPoint
 10
592.9885451545
 20
268.1269623428
 30
0.0
  0
POINT
  5
57D
330
210
100
AcDbEntity
  8
Defpoints
  6
Continuous
 62
     0
100
AcDbPoint
 10
655.9885451545
 20
284.7673223156
 30
0.0
  0
POINT
  5
57E
330
210
100
AcDbEntity
  8
Defpoints
  6
Continuous
 62
     0
100
AcDbPoint
 10
655.9885451545
 20
299.8873218063
 30
0.0
  0
ENDBLK
  5
238
330
210
100
AcDbEntity
  8
0
  6
ByBlock
 62
     0
100
AcDbBlockEnd
  0
BLOCK
  5
239
330
211
100
AcDbEntity
  8
0
  6
Continuous
 62
     2
100
AcDbBlockBegin
  2
*D4
 70
     1
 10
0.0
 20
0.0
 30
0.0
  3
*D4
  1

  0
LINE
  5
560
330
211
100
AcDbEntity
  8
0
  6
Continuous
 62
     0
370
    -2
100
AcDbLine
 10
-159.0114548455
 20
286.2673223156
 30
0.0
 11
-159.0114548455
 21
301.73743431
 31
0.0
  0
LINE
  5
561
330
211
100
AcDbEntity
  8
0
  6
Continuous
 62
     0
370
    -2
100
AcDbLine
 10
-222.0114548455
 20
286.2673223156
 30
0.0
 11
-222.0114548455
 21
301.73743431
 31
0.0
  0
LINE
  5
562
330
211
100
AcDbEntity
  8
0
  6
Continuous
 62
     0
370
    -2
100
AcDbLine
 10
-164.0114548455
 20
300.23743431
 30
0.0
 11
-217.0114548455
 21
300.23743431
 31
0.0
  0
INSERT
  5
563
330
211
100
AcDbEntity
  8
0
  6
Continuous
 62
     0
370
    -2
100
AcDbBlockReference
  2
_FILLED
 10
-159.0114548455
 20
300.23743431
 30
0.0
 41
5.0
 42
5.0
 43
5.0
  0
INSERT
  5
564
330
211
100
AcDbEntity
  8
0
  6
Continuous
 62
     0
370
    -2
100
AcDbBlockReference
  2
_FILLED
 10
-222.0114548455
 20
300.23743431
 30
0.0
 41
5.0
 42
5.0
 43
5.0
 50
180.0
  0
MTEXT
  5
565
330
211
100
AcDbEntity
  8
0
  6
Continuous
100
AcDbMText
 10
-190.5114548455
 20
308.73743431
 30
0.0
 40
7.0
 41
0.0
 71
     2
 72
     1
  1
\A1;63
 73
     1
 44
1.0
1001
ACAD
1000
MTEXTBEGIN
1070
    73
1070
     1
1070
    44
1040
1.0
1070
    74
1070
     0
1000
MTEXTEND
  0
POINT
  5
566
330
211
100
AcDbEntity
  8
Defpoints
  6
Continuous
 62
     0
100
AcDbPoint
 10
-159.0114548455
 20
284.7673223156
 30
0.0
  0
POINT
  5
567
330
211
100
AcDbEntity
  8
Defpoints
  6
Continuous
 62
     0
100
AcDbPoint
 10
-222.0114548455
 20
284.7673223156
 30
0.0
  0
POINT
  5
568
330
211
100
AcDbEntity
  8
Defpoints
  6
Continuous
 62
     0
100
AcDbPoint
 10
-222.0114548455
 20
300.23743431
 30
0.0
  0
ENDBLK
  5
241
330
211
100
AcDbEntity
  8
0
  6
ByBlock
 62
     0
100
AcDbBlockEnd
  0
BLOCK
  5
4F9
330
4F7
100
AcDbEntity
  8
0
100
AcDbBlockBegin
  2
GENAXEH
 70
     0
 10
0.0
 20
0.0
 30
0.0
  3
GENAXEH
  1

  0
LINE
  5
4F8
330
4F7
100
AcDbEntity
  8
0
100
AcDbLine
 10
-1.0
 20
0.0
 30
0.0
 11
1.0
 21
0.0
 31
0.0
  0
ENDBLK
  5
4FA
330
4F7
100
AcDbEntity
  8
0
100
AcDbBlockEnd
  0
BLOCK
  5
67B
330
67A
100
AcDbEntity
  8
0
100
AcDbBlockBegin
  2
*D6
 70
     1
 10
0.0
 20
0.0
 30
0.0
  3
*D6
  1

  0
LINE
  5
B54
330
67A
100
AcDbEntity
  8
P-0000
  6
Continuous
 62
     3
370
    -2
100
AcDbLine
 10
-220.0114548455
 20
271.7923562335
 30
0.0
 11
-251.9214554176363
 21
271.7923562335
 31
0.0
  0
LINE
  5
B55
330
67A
100
AcDbEntity
  8
P-0000
  6
Continuous
 62
     3
370
    -2
100
AcDbLine
 10
-222.0114548455
 20
286.9923413398
 30
0.0
 11
-251.9214554176363
 21
286.9923413398
 31
0.0
  0
LINE
  5
B56
330
67A
100
AcDbEntity
  8
P-0000
  6
Continuous
 62
     3
370
    -2
100
AcDbLine
 10
-247.9214554176363
 20
265.4923562335
 30
0.0
 11
-247.9214554176363
 21
259.1923562334999
 31
0.0
  0
LINE
  5
B57
330
67A
100
AcDbEntity
  8
P-0000
  6
Continuous
 62
     3
370
    -2
100
AcDbLine
 10
-247.9214554176363
 20
293.2923413398
 30
0.0
 11
-247.9214554176363
 21
299.5923413398001
 31
0.0
  0
MTEXT
  5
B58
330
67A
100
AcDbEntity
  8
P-0000
  6
Continuous
 62
     2
100
AcDbMText
 10
-256.1507787403043
 20
280.0826087165297
 30
0.0
 40
7.0
 41
0.0
 71
     5
 72
     1
  1
15
 11
0.0000000000000001
 21
1.0
 31
0.0
 73
     1
 44
1.0
1001
ACAD
1000
MTEXTBEGIN
1070
    73
1070
     1
1070
    44
1040
1.0
1070
    74
1070
     0
1000
MTEXTEND
  0
LINE
  5
B59
330
67A
100
AcDbEntity
  8
P-0000
  6
Continuous
 62
     3
370
    -2
100
AcDbLine
 10
-247.9214554176363
 20
271.7923562335
 30
0.0
 11
-247.9214554176363
 21
286.9923413398
 31
0.0
  0
SOLID
  5
B5A
330
67A
100
AcDbEntity
  8
P-0000
  6
Continuous
 62
     3
100
AcDbTrace
 10
-248.9714554176363
 20
265.4923562335
 30
0.0
 11
-246.8714554176363
 21
265.4923562335
 31
0.0
 12
-247.9214554176363
 22
271.7923562335
 32
0.0
 13
-247.9214554176363
 23
271.7923562335
 33
0.0
  0
SOLID
  5
B5B
330
67A
100
AcDbEntity
  8
P-0000
  6
Continuous
 62
     3
100
AcDbTrace
 10
-248.9714554176363
 20
293.2923413398
 30
0.0
 11
-246.8714554176363
 21
293.2923413398
 31
0.0
 12
-247.9214554176363
 22
286.9923413398
 32
0.0
 13
-247.9214554176363
 23
286.9923413398
 33
0.0
  0
POINT
  5
B5C
330
67A
100
AcDbEntity
  8
Defpoints
  6
Continuous
 62
     0
100
AcDbPoint
 10
-220.0114548455
 20
271.7923562335
 30
0.0
  0
POINT
  5
B5D
330
67A
100
AcDbEntity
  8
Defpoints
  6
Continuous
 62
     0
100
AcDbPoint
 10
-222.0114548455
 20
286.9923413398
 30
0.0
  0
POINT
  5
B5E
330
67A
100
AcDbEntity
  8
Defpoints
  6
Continuous
 62
     0
100
AcDbPoint
 10
-247.9214554176363
 20
286.9923413398
 30
0.0
  0
ENDBLK
  5
67C
330
67A
100
AcDbEntity
  8
0
100
AcDbBlockEnd
  0
BLOCK
  5
6B3
330
6B2
100
AcDbEntity
  8
0
100
AcDbBlockBegin
  2
*D7
 70
     1
 10
0.0
 20
0.0
 30
0.0
  3
*D7
  1

  0
LINE
  5
C65
330
6B2
100
AcDbEntity
  8
P-0000
  6
Continuous
 62
     3
370
    -2
100
AcDbLine
 10
-222.0114548455
 20
235.9340425614
 30
0.0
 11
-249.9338733499079
 21
235.9340425614
 31
0.0
  0
LINE
  5
C66
330
6B2
100
AcDbEntity
  8
P-0000
  6
Continuous
 62
     3
370
    -2
100
AcDbLine
 10
-222.0114548455
 20
174.4340425614
 30
0.0
 11
-249.933873349908
 21
174.4340425614
 31
0.0
  0
LINE
  5
C67
330
6B2
100
AcDbEntity
  8
P-0000
  6
Continuous
 62
     3
370
    -2
100
AcDbLine
 10
-245.933873349908
 20
229.6340425614
 30
0.0
 11
-245.933873349908
 21
180.7340425614
 31
0.0
  0
SOLID
  5
C68
330
6B2
100
AcDbEntity
  8
P-0000
  6
Continuous
 62
     3
100
AcDbTrace
 10
-246.983873349908
 20
229.6340425614
 30
0.0
 11
-244.8838733499079
 21
229.6340425614
 31
0.0
 12
-245.933873349908
 22
235.9340425614
 32
0.0
 13
-245.933873349908
 23
235.9340425614
 33
0.0
  0
SOLID
  5
C69
330
6B2
100
AcDbEntity
  8
P-0000
  6
Continuous
 62
     3
100
AcDbTrace
 10
-246.983873349908
 20
180.7340425614
 30
0.0
 11
-244.883873349908
 21
180.7340425614
 31
0.0
 12
-245.933873349908
 22
174.4340425614
 32
0.0
 13
-245.933873349908
 23
174.4340425614
 33
0.0
  0
MTEXT
  5
C6A
330
6B2
100
AcDbEntity
  8
P-0000
  6
Continuous
 62
     2
100
AcDbMText
 10
-253.433873349908
 20
205.1840425613999
 30
0.0
 40
7.0
 41
0.0
 71
     5
 72
     1
  1
62
 11
0.0000000000000001
 21
1.0
 31
0.0
 73
     1
 44
1.0
1001
ACAD
1000
MTEXTBEGIN
1070
    73
1070
     1
1070
    44
1040
1.0
1070
    74
1070
     0
1000
MTEXTEND
  0
POINT
  5
C6B
330
6B2
100
AcDbEntity
  8
Defpoints
  6
Continuous
 62
     0
100
AcDbPoint
 10
-222.0114548455
 20
235.9340425614
 30
0.0
  0
POINT
  5
C6C
330
6B2
100
AcDbEntity
  8
Defpoints
  6
Continuous
 62
     0
100
AcDbPoint
 10
-222.0114548455
 20
174.4340425614
 30
0.0
  0
POINT
  5
C6D
330
6B2
100
AcDbEntity
  8
Defpoints
  6
Continuous
 62
     0
100
AcDbPoint
 10
-245.933873349908
 20
174.4340425614
 30
0.0
  0
ENDBLK
  5
6B4
330
6B2
100
AcDbEntity
  8
0
100
AcDbBlockEnd
  0
BLOCK
  5
6E1
330
6E0
100
AcDbEntity
  8
0
100
AcDbBlockBegin
  2
*D8
 70
     1
 10
0.0
 20
0.0
 30
0.0
  3
*D8
  1

  0
LINE
  5
A68
330
6E0
100
AcDbEntity
  8
P-0000
  6
Continuous
 62
     3
370
    -2
100
AcDbLine
 10
-222.0114548455
 20
174.4340425614
 30
0.0
 11
-222.0114548455
 21
123.7300600725821
 31
0.0
  0
LINE
  5
A69
330
6E0
100
AcDbEntity
  8
P-0000
  6
Continuous
 62
     3
370
    -2
100
AcDbLine
 10
655.9885451545
 20
174.4340425614
 30
0.0
 11
655.9885451545
 21
123.7300600725821
 31
0.0
  0
LINE
  5
A6A
330
6E0
100
AcDbEntity
  8
P-0000
  6
Continuous
 62
     3
370
    -2
100
AcDbLine
 10
-215.7114548455
 20
127.7300600725821
 30
0.0
 11
649.6885451544999
 21
127.7300600725821
 31
0.0
  0
SOLID
  5
A6B
330
6E0
100
AcDbEntity
  8
P-0000
  6
Continuous
 62
     3
100
AcDbTrace
 10
-215.7114548455
 20
128.7800600725821
 30
0.0
 11
-215.7114548455
 21
126.6800600725821
 31
0.0
 12
-222.0114548455
 22
127.7300600725821
 32
0.0
 13
-222.0114548455
 23
127.7300600725821
 33
0.0
  0
SOLID
  5
A6C
330
6E0
100
AcDbEntity
  8
P-0000
  6
Continuous
 62
     3
100
AcDbTrace
 10
649.6885451544999
 20
128.7800600725821
 30
0.0
 11
649.6885451544999
 21
126.6800600725821
 31
0.0
 12
655.9885451545
 22
127.7300600725821
 32
0.0
 13
655.9885451545
 23
127.7300600725821
 33
0.0
  0
MTEXT
  5
A6D
330
6E0
100
AcDbEntity
  8
P-0000
  6
Continuous
 62
     2
100
AcDbMText
 10
216.9885451545
 20
135.2300600725821
 30
0.0
 40
7.0
 41
0.0
 71
     5
 72
     1
  1
878
 73
     1
 44
1.0
1001
ACAD
1000
MTEXTBEGIN
1070
    73
1070
     1
1070
    44
1040
1.0
1070
    74
1070
     0
1000
MTEXTEND
  0
POINT
  5
A6E
330
6E0
100
AcDbEntity
  8
Defpoints
  6
Continuous
 62
     0
100
AcDbPoint
 10
-222.0114548455
 20
174.4340425614
 30
0.0
  0
POINT
  5
A6F
330
6E0
100
AcDbEntity
  8
Defpoints
  6
Continuous
 62
     0
100
AcDbPoint
 10
655.9885451545
 20
174.4340425614
 30
0.0
  0
POINT
  5
A70
330
6E0
100
AcDbEntity
  8
Defpoints
  6
Continuous
 62
     0
100
AcDbPoint
 10
655.9885451545
 20
127.7300600725821
 30
0.0
  0
ENDBLK
  5
6E2
330
6E0
100
AcDbEntity
  8
0
100
AcDbBlockEnd
  0
BLOCK
  5
75F
330
75E
100
AcDbEntity
  8
0
100
AcDbBlockBegin
  2
*D9
 70
     1
 10
0.0
 20
0.0
 30
0.0
  3
*D9
  1

  0
LINE
  5
760
330
75E
100
AcDbEntity
  8
P-0000
  6
Continuous
 62
     3
370
    -2
100
AcDbLine
 10
-135.7515219216
 20
234.8140669884
 30
0.0
 11
-158.4487198091733
 21
234.8140669884
 31
0.0
  0
LINE
  5
761
330
75E
100
AcDbEntity
  8
P-0000
  6
Continuous
 62
     3
370
    -2
100
AcDbLine
 10
-135.7515219216
 20
173.3145401281
 30
0.0
 11
-158.4487198091733
 21
173.3145401281
 31
0.0
  0
LINE
  5
762
330
75E
100
AcDbEntity
  8
P-0000
  6
Continuous
 62
     3
370
    -2
100
AcDbLine
 10
-154.4487198091733
 20
228.5140669884
 30
0.0
 11
-154.4487198091733
 21
179.6145401281
 31
0.0
  0
SOLID
  5
763
330
75E
100
AcDbEntity
  8
P-0000
  6
Continuous
 62
     3
100
AcDbTrace
 10
-155.4987198091733
 20
228.5140669884
 30
0.0
 11
-153.3987198091733
 21
228.5140669884
 31
0.0
 12
-154.4487198091733
 22
234.8140669884
 32
0.0
 13
-154.4487198091733
 23
234.8140669884
 33
0.0
  0
SOLID
  5
764
330
75E
100
AcDbEntity
  8
P-0000
  6
Continuous
 62
     3
100
AcDbTrace
 10
-155.4987198091733
 20
179.6145401281
 30
0.0
 11
-153.3987198091733
 21
179.6145401281
 31
0.0
 12
-154.4487198091733
 22
173.3145401281
 32
0.0
 13
-154.4487198091733
 23
173.3145401281
 33
0.0
  0
MTEXT
  5
765
330
75E
100
AcDbEntity
  8
P-0000
  6
Continuous
 62
     2
100
AcDbMText
 10
-161.9487198091734
 20
204.06430355825
 30
0.0
 40
7.0
 41
0.0
 71
     5
 72
     1
  1
61.5
 11
0.0000000000000001
 21
1.0
 31
0.0
 73
     1
 44
1.0
1001
ACAD
1000
MTEXTBEGIN
1070
    73
1070
     1
1070
    44
1040
1.0
1070
    74
1070
     0
1000
MTEXTEND
  0
POINT
  5
766
330
75E
100
AcDbEntity
  8
Defpoints
  6
Continuous
 62
     0
100
AcDbPoint
 10
-135.7515219216
 20
234.8140669884
 30
0.0
  0
POINT
  5
767
330
75E
100
AcDbEntity
  8
Defpoints
  6
Continuous
 62
     0
100
AcDbPoint
 10
-135.7515219216
 20
173.3145401281
 30
0.0
  0
POINT
  5
768
330
75E
100
AcDbEntity
  8
Defpoints
  6
Continuous
 62
     0
100
AcDbPoint
 10
-154.4487198091733
 20
173.3145401281
 30
0.0
  0
ENDBLK
  5
769
330
75E
100
AcDbEntity
  8
0
100
AcDbBlockEnd
  0
BLOCK
  5
76B
330
76A
100
AcDbEntity
  8
0
100
AcDbBlockBegin
  2
*D10
 70
     1
 10
0.0
 20
0.0
 30
0.0
  3
*D10
  1

  0
LINE
  5
76C
330
76A
100
AcDbEntity
  8
P-0000
  6
Continuous
 62
     3
370
    -2
100
AcDbLine
 10
-135.7515219216
 20
173.3145401281
 30
0.0
 11
-135.7515219216
 21
123.6002370578001
 31
0.0
  0
LINE
  5
76D
330
76A
100
AcDbEntity
  8
P-0000
  6
Continuous
 62
     3
370
    -2
100
AcDbLine
 10
542.2484780783999
 20
173.3145401281
 30
0.0
 11
542.2484780783999
 21
123.6002370578001
 31
0.0
  0
LINE
  5
76E
330
76A
100
AcDbEntity
  8
P-0000
  6
Continuous
 62
     3
370
    -2
100
AcDbLine
 10
-129.4515219216
 20
127.6002370578001
 30
0.0
 11
535.9484780783998
 21
127.6002370578001
 31
0.0
  0
SOLID
  5
76F
330
76A
100
AcDbEntity
  8
P-0000
  6
Continuous
 62
     3
100
AcDbTrace
 10
-129.4515219216
 20
128.6502370578001
 30
0.0
 11
-129.4515219216
 21
126.5502370578001
 31
0.0
 12
-135.7515219216
 22
127.6002370578001
 32
0.0
 13
-135.7515219216
 23
127.6002370578001
 33
0.0
  0
SOLID
  5
770
330
76A
100
AcDbEntity
  8
P-0000
  6
Continuous
 62
     3
100
AcDbTrace
 10
535.9484780783998
 20
128.6502370578001
 30
0.0
 11
535.9484780783998
 21
126.5502370578001
 31
0.0
 12
542.2484780783999
 22
127.6002370578001
 32
0.0
 13
542.2484780783999
 23
127.6002370578001
 33
0.0
  0
MTEXT
  5
771
330
76A
100
AcDbEntity
  8
P-0000
  6
Continuous
 62
     2
100
AcDbMText
 10
203.2484780784
 20
135.1002370578001
 30
0.0
 40
7.0
 41
0.0
 71
     5
 72
     1
  1
678
 73
     1
 44
1.0
1001
ACAD
1000
MTEXTBEGIN
1070
    73
1070
     1
1070
    44
1040
1.0
1070
    74
1070
     0
1000
MTEXTEND
  0
POINT
  5
772
330
76A
100
AcDbEntity
  8
Defpoints
  6
Continuous
 62
     0
100
AcDbPoint
 10
-135.7515219216
 20
173.3145401281
 30
0.0
  0
POINT
  5
773
330
76A
100
AcDbEntity
  8
Defpoints
  6
Continuous
 62
     0
100
AcDbPoint
 10
542.2484780783999
 20
173.3145401281
 30
0.0
  0
POINT
  5
774
330
76A
100
AcDbEntity
  8
Defpoints
  6
Continuous
 62
     0
100
AcDbPoint
 10
542.2484780783999
 20
127.6002370578001
 30
0.0
  0
ENDBLK
  5
775
330
76A
100
AcDbEntity
  8
0
100
AcDbBlockEnd
  0
BLOCK
  5
777
330
776
100
AcDbEntity
  8
0
100
AcDbBlockBegin
  2
_None
 70
     0
 10
0.0
 20
0.0
 30
0.0
  3
_None
  1

  0
ENDBLK
  5
778
330
776
100
AcDbEntity
  8
0
100
AcDbBlockEnd
  0
BLOCK
  5
A51
330
A50
100
AcDbEntity
  8
0
100
AcDbBlockBegin
  2
*D12
 70
     1
 10
0.0
 20
0.0
 30
0.0
  3
*D12
  1

  0
LINE
  5
A53
330
A50
100
AcDbEntity
  8
P-0000
  6
Continuous
 62
     3
370
    -2
100
AcDbLine
 10
-199.8217868854497
 20
-132.7586391998942
 30
0.0
 11
-222.518984773023
 21
-132.7586391998942
 31
0.0
  0
LINE
  5
A54
330
A50
100
AcDbEntity
  8
P-0000
  6
Continuous
 62
     3
370
    -2
100
AcDbLine
 10
-199.8217868854497
 20
-194.2581660601942
 30
0.0
 11
-222.518984773023
 21
-194.2581660601942
 31
0.0
  0
LINE
  5
A55
330
A50
100
AcDbEntity
  8
P-0000
  6
Continuous
 62
     3
370
    -2
100
AcDbLine
 10
-218.518984773023
 20
-139.0586391998942
 30
0.0
 11
-218.518984773023
 21
-187.9581660601941
 31
0.0
  0
SOLID
  5
A56
330
A50
100
AcDbEntity
  8
P-0000
  6
Continuous
 62
     3
100
AcDbTrace
 10
-219.568984773023
 20
-139.0586391998942
 30
0.0
 11
-217.468984773023
 21
-139.0586391998942
 31
0.0
 12
-218.518984773023
 22
-132.7586391998942
 32
0.0
 13
-218.518984773023
 23
-132.7586391998942
 33
0.0
  0
SOLID
  5
A57
330
A50
100
AcDbEntity
  8
P-0000
  6
Continuous
 62
     3
100
AcDbTrace
 10
-219.568984773023
 20
-187.9581660601941
 30
0.0
 11
-217.468984773023
 21
-187.9581660601941
 31
0.0
 12
-218.518984773023
 22
-194.2581660601942
 32
0.0
 13
-218.518984773023
 23
-194.2581660601942
 33
0.0
  0
MTEXT
  5
A58
330
A50
100
AcDbEntity
  8
P-0000
  6
Continuous
 62
     2
100
AcDbMText
 10
-226.018984773023
 20
-163.5084026300442
 30
0.0
 40
7.0
 41
0.0
 71
     5
 72
     1
  1
61.5
 11
0.0000000000000001
 21
1.0
 31
0.0
 73
     1
 44
1.0
1001
ACAD
1000
MTEXTBEGIN
1070
    73
1070
     1
1070
    44
1040
1.0
1070
    74
1070
     0
1000
MTEXTEND
  0
POINT
  5
A59
330
A50
100
AcDbEntity
  8
Defpoints
  6
Continuous
 62
     0
100
AcDbPoint
 10
-199.8217868854497
 20
-132.7586391998942
 30
0.0
  0
POINT
  5
A5A
330
A50
100
AcDbEntity
  8
Defpoints
  6
Continuous
 62
     0
100
AcDbPoint
 10
-199.8217868854497
 20
-194.2581660601942
 30
0.0
  0
POINT
  5
A5B
330
A50
100
AcDbEntity
  8
Defpoints
  6
Continuous
 62
     0
100
AcDbPoint
 10
-218.518984773023
 20
-194.2581660601942
 30
0.0
  0
ENDBLK
  5
A52
330
A50
100
AcDbEntity
  8
0
100
AcDbBlockEnd
  0
BLOCK
  5
A5D
330
A5C
100
AcDbEntity
  8
0
100
AcDbBlockBegin
  2
*D13
 70
     1
 10
0.0
 20
0.0
 30
0.0
  3
*D13
  1

  0
LINE
  5
A5F
330
A5C
100
AcDbEntity
  8
P-0000
  6
Continuous
 62
     3
370
    -2
100
AcDbLine
 10
-199.8217868854497
 20
-194.2581660601942
 30
0.0
 11
-199.8217868854497
 21
-243.9724691304941
 31
0.0
  0
LINE
  5
A60
330
A5C
100
AcDbEntity
  8
P-0000
  6
Continuous
 62
     3
370
    -2
100
AcDbLine
 10
478.1782131145501
 20
-194.2581660601942
 30
0.0
 11
478.1782131145501
 21
-243.9724691304941
 31
0.0
  0
LINE
  5
A61
330
A5C
100
AcDbEntity
  8
P-0000
  6
Continuous
 62
     3
370
    -2
100
AcDbLine
 10
-193.5217868854497
 20
-239.9724691304941
 30
0.0
 11
471.87821311455
 21
-239.9724691304941
 31
0.0
  0
SOLID
  5
A62
330
A5C
100
AcDbEntity
  8
P-0000
  6
Continuous
 62
     3
100
AcDbTrace
 10
-193.5217868854497
 20
-238.9224691304941
 30
0.0
 11
-193.5217868854497
 21
-241.0224691304941
 31
0.0
 12
-199.8217868854497
 22
-239.9724691304941
 32
0.0
 13
-199.8217868854497
 23
-239.9724691304941
 33
0.0
  0
SOLID
  5
A63
330
A5C
100
AcDbEntity
  8
P-0000
  6
Continuous
 62
     3
100
AcDbTrace
 10
471.87821311455
 20
-238.9224691304941
 30
0.0
 11
471.87821311455
 21
-241.0224691304941
 31
0.0
 12
478.1782131145501
 22
-239.9724691304941
 32
0.0
 13
478.1782131145501
 23
-239.9724691304941
 33
0.0
  0
MTEXT
  5
A64
330
A5C
100
AcDbEntity
  8
P-0000
  6
Continuous
 62
     2
100
AcDbMText
 10
139.1782131145502
 20
-232.4724691304941
 30
0.0
 40
7.0
 41
0.0
 71
     5
 72
     1
  1
678
 73
     1
 44
1.0
1001
ACAD
1000
MTEXTBEGIN
1070
    73
1070
     1
1070
    44
1040
1.0
1070
    74
1070
     0
1000
MTEXTEND
  0
POINT
  5
A65
330
A5C
100
AcDbEntity
  8
Defpoints
  6
Continuous
 62
     0
100
AcDbPoint
 10
-199.8217868854497
 20
-194.2581660601942
 30
0.0
  0
POINT
  5
A66
330
A5C
100
AcDbEntity
  8
Defpoints
  6
Continuous
 62
     0
100
AcDbPoint
 10
478.1782131145501
 20
-194.2581660601942
 30
0.0
  0
POINT
  5
A67
330
A5C
100
AcDbEntity
  8
Defpoints
  6
Continuous
 62
     0
100
AcDbPoint
 10
478.1782131145501
 20
-239.9724691304941
 30
0.0
  0
ENDBLK
  5
A5E
330
A5C
100
AcDbEntity
  8
0
100
AcDbBlockEnd
  0
ENDSEC
  0
SECTION
  2
ENTITIES
  0
LINE
  5
247
330
20B
100
AcDbEntity
  8
0
  6
Continuous
 62
     7
100
AcDbLine
 10
-222.0114548455
 20
174.4340425614
 30
0.0
 11
-222.0114548455
 21
235.9335694217
 31
0.0
  0
LINE
  5
248
330
20B
100
AcDbEntity
  8
0
  6
Continuous
 62
     7
100
AcDbLine
 10
-217.5114548455
 20
227.6840425614
 30
0.0
 11
-217.5114548455
 21
206.6840425614
 31
0.0
  0
LINE
  5
249
330
20B
100
AcDbEntity
  8
0
  6
Continuous
 62
     7
100
AcDbLine
 10
-217.5114548455
 20
197.6840425614
 30
0.0
 11
-217.5114548455
 21
182.6840425614
 31
0.0
  0
LINE
  5
24A
330
20B
100
AcDbEntity
  8
0
  6
Continuous
 62
     7
100
AcDbLine
 10
-212.5114548455
 20
182.6840425614
 30
0.0
 11
-212.5114548455
 21
197.6840425614
 31
0.0
  0
LINE
  5
24B
330
20B
100
AcDbEntity
  8
0
  6
Continuous
 62
     7
100
AcDbLine
 10
-212.5114548455
 20
206.6840425614
 30
0.0
 11
-212.5114548455
 21
227.6840425614
 31
0.0
  0
LINE
  5
24C
330
20B
100
AcDbEntity
  8
0
  6
Continuous
 62
     7
100
AcDbLine
 10
-201.5114548455
 20
227.6840425614
 30
0.0
 11
-201.5114548455
 21
202.6840425614
 31
0.0
  0
LINE
  5
24D
330
20B
100
AcDbEntity
  8
0
  6
Continuous
 62
     7
100
AcDbLine
 10
-201.5114548455
 20
193.6840425614
 30
0.0
 11
-201.5114548455
 21
182.6840425614
 31
0.0
  0
LINE
  5
24E
330
20B
100
AcDbEntity
  8
0
  6
Continuous
 62
     7
100
AcDbLine
 10
-196.5114548455
 20
182.6840425614
 30
0.0
 11
-196.5114548455
 21
193.6840425614
 31
0.0
  0
LINE
  5
24F
330
20B
100
AcDbEntity
  8
0
  6
Continuous
 62
     7
100
AcDbLine
 10
-196.5114548455
 20
202.6840425614
 30
0.0
 11
-196.5114548455
 21
227.6840425614
 31
0.0
  0
LINE
  5
250
330
20B
100
AcDbEntity
  8
0
  6
Continuous
 62
     7
100
AcDbLine
 10
-185.5114548455
 20
227.6840425614
 30
0.0
 11
-185.5114548455
 21
198.6840425614
 31
0.0
  0
LINE
  5
251
330
20B
100
AcDbEntity
  8
0
  6
Continuous
 62
     7
100
AcDbLine
 10
-185.5114548455
 20
189.6840425614
 30
0.0
 11
-185.5114548455
 21
182.6840425614
 31
0.0
  0
LINE
  5
252
330
20B
100
AcDbEntity
  8
0
  6
Continuous
 62
     7
100
AcDbLine
 10
-180.5114548455
 20
182.6840425614
 30
0.0
 11
-180.5114548455
 21
189.6840425614
 31
0.0
  0
LINE
  5
253
330
20B
100
AcDbEntity
  8
0
  6
Continuous
 62
     7
100
AcDbLine
 10
-180.5114548455
 20
198.6840425614
 30
0.0
 11
-180.5114548455
 21
227.6840425614
 31
0.0
  0
LINE
  5
254
330
20B
100
AcDbEntity
  8
0
  6
Continuous
 62
     7
100
AcDbLine
 10
-169.5114548455
 20
227.6840425614
 30
0.0
 11
-169.5114548455
 21
196.6840425614
 31
0.0
  0
LINE
  5
255
330
20B
100
AcDbEntity
  8
0
  6
Continuous
 62
     7
100
AcDbLine
 10
-169.5114548455
 20
187.6840425614
 30
0.0
 11
-169.5114548455
 21
182.6840425614
 31
0.0
  0
LINE
  5
256
330
20B
100
AcDbEntity
  8
0
  6
Continuous
 62
     7
100
AcDbLine
 10
-164.5114548455
 20
182.6840425614
 30
0.0
 11
-164.5114548455
 21
187.6840425614
 31
0.0
  0
LINE
  5
257
330
20B
100
AcDbEntity
  8
0
  6
Continuous
 62
     7
100
AcDbLine
 10
-164.5114548455
 20
196.6840425614
 30
0.0
 11
-164.5114548455
 21
227.6840425614
 31
0.0
  0
LINE
  5
258
330
20B
100
AcDbEntity
  8
0
  6
Continuous
 62
     7
100
AcDbLine
 10
-153.5114548455
 20
227.6840425614
 30
0.0
 11
-153.5114548455
 21
195.6840425614
 31
0.0
  0
LINE
  5
259
330
20B
100
AcDbEntity
  8
0
  6
Continuous
 62
     7
100
AcDbLine
 10
-153.5114548455
 20
186.6840425614
 30
0.0
 11
-153.5114548455
 21
182.6840425614
 31
0.0
  0
LINE
  5
25A
330
20B
100
AcDbEntity
  8
0
  6
Continuous
 62
     7
100
AcDbLine
 10
-148.5114548455
 20
182.6840425614
 30
0.0
 11
-148.5114548455
 21
186.6840425614
 31
0.0
  0
LINE
  5
25B
330
20B
100
AcDbEntity
  8
0
  6
Continuous
 62
     7
100
AcDbLine
 10
-148.5114548455
 20
195.6840425614
 30
0.0
 11
-148.5114548455
 21
227.6840425614
 31
0.0
  0
LINE
  5
25C
330
20B
100
AcDbEntity
  8
0
  6
Continuous
 62
     7
100
AcDbLine
 10
-137.5114548455
 20
227.6840425614
 30
0.0
 11
-137.5114548455
 21
194.6840425614
 31
0.0
  0
LINE
  5
25D
330
20B
100
AcDbEntity
  8
0
  6
Continuous
 62
     7
100
AcDbLine
 10
-137.5114548455
 20
185.6840425614
 30
0.0
 11
-137.5114548455
 21
182.6840425614
 31
0.0
  0
LINE
  5
25E
330
20B
100
AcDbEntity
  8
0
  6
Continuous
 62
     7
100
AcDbLine
 10
-132.5114548455
 20
182.6840425614
 30
0.0
 11
-132.5114548455
 21
185.6840425614
 31
0.0
  0
LINE
  5
25F
330
20B
100
AcDbEntity
  8
0
  6
Continuous
 62
     7
100
AcDbLine
 10
-132.5114548455
 20
194.6840425614
 30
0.0
 11
-132.5114548455
 21
227.6840425614
 31
0.0
  0
LINE
  5
260
330
20B
100
AcDbEntity
  8
0
  6
Continuous
 62
     7
100
AcDbLine
 10
-121.5114548455
 20
227.6840425614
 30
0.0
 11
-121.5114548455
 21
195.6840425614
 31
0.0
  0
LINE
  5
261
330
20B
100
AcDbEntity
  8
0
  6
Continuous
 62
     7
100
AcDbLine
 10
-121.5114548455
 20
186.6840425614
 30
0.0
 11
-121.5114548455
 21
182.6840425614
 31
0.0
  0
LINE
  5
262
330
20B
100
AcDbEntity
  8
0
  6
Continuous
 62
     7
100
AcDbLine
 10
-116.5114548455
 20
182.6840425614
 30
0.0
 11
-116.5114548455
 21
186.6840425614
 31
0.0
  0
LINE
  5
263
330
20B
100
AcDbEntity
  8
0
  6
Continuous
 62
     7
100
AcDbLine
 10
-116.5114548455
 20
195.6840425614
 30
0.0
 11
-116.5114548455
 21
227.6840425614
 31
0.0
  0
LINE
  5
264
330
20B
100
AcDbEntity
  8
0
  6
Continuous
 62
     7
100
AcDbLine
 10
-105.5114548455
 20
227.6840425614
 30
0.0
 11
-105.5114548455
 21
196.6840425614
 31
0.0
  0
LINE
  5
265
330
20B
100
AcDbEntity
  8
0
  6
Continuous
 62
     7
100
AcDbLine
 10
-105.5114548455
 20
187.6840425614
 30
0.0
 11
-105.5114548455
 21
182.6840425614
 31
0.0
  0
LINE
  5
266
330
20B
100
AcDbEntity
  8
0
  6
Continuous
 62
     7
100
AcDbLine
 10
-100.5114548455
 20
182.6840425614
 30
0.0
 11
-100.5114548455
 21
187.6840425614
 31
0.0
  0
LINE
  5
267
330
20B
100
AcDbEntity
  8
0
  6
Continuous
 62
     7
100
AcDbLine
 10
-100.5114548455
 20
196.6840425614
 30
0.0
 11
-100.5114548455
 21
227.6840425614
 31
0.0
  0
LINE
  5
268
330
20B
100
AcDbEntity
  8
0
  6
Continuous
 62
     7
100
AcDbLine
 10
-89.5114548455
 20
227.6840425614
 30
0.0
 11
-89.5114548455
 21
198.6840425614
 31
0.0
  0
LINE
  5
269
330
20B
100
AcDbEntity
  8
0
  6
Continuous
 62
     7
100
AcDbLine
 10
-89.5114548455
 20
189.6840425614
 30
0.0
 11
-89.5114548455
 21
182.6840425614
 31
0.0
  0
LINE
  5
26A
330
20B
100
AcDbEntity
  8
0
  6
Continuous
 62
     7
100
AcDbLine
 10
-84.5114548455
 20
182.6840425614
 30
0.0
 11
-84.5114548455
 21
189.6840425614
 31
0.0
  0
LINE
  5
26B
330
20B
100
AcDbEntity
  8
0
  6
Continuous
 62
     7
100
AcDbLine
 10
-84.5114548455
 20
198.6840425614
 30
0.0
 11
-84.5114548455
 21
227.6840425614
 31
0.0
  0
LINE
  5
26C
330
20B
100
AcDbEntity
  8
0
  6
Continuous
 62
     7
100
AcDbLine
 10
-73.51145484549999
 20
227.6840425614
 30
0.0
 11
-73.51145484549999
 21
202.6840425614
 31
0.0
  0
LINE
  5
26D
330
20B
100
AcDbEntity
  8
0
  6
Continuous
 62
     7
100
AcDbLine
 10
-73.51145484549999
 20
193.6840425614
 30
0.0
 11
-73.51145484549999
 21
182.6840425614
 31
0.0
  0
LINE
  5
26E
330
20B
100
AcDbEntity
  8
0
  6
Continuous
 62
     7
100
AcDbLine
 10
-68.51145484549999
 20
182.6840425614
 30
0.0
 11
-68.51145484549999
 21
193.6840425614
 31
0.0
  0
LINE
  5
26F
330
20B
100
AcDbEntity
  8
0
  6
Continuous
 62
     7
100
AcDbLine
 10
-68.51145484549999
 20
202.6840425614
 30
0.0
 11
-68.51145484549999
 21
227.6840425614
 31
0.0
  0
LINE
  5
270
330
20B
100
AcDbEntity
  8
0
  6
Continuous
 62
     7
100
AcDbLine
 10
-57.51145484550001
 20
227.6840425614
 30
0.0
 11
-57.51145484550001
 21
206.6840425614
 31
0.0
  0
LINE
  5
271
330
20B
100
AcDbEntity
  8
0
  6
Continuous
 62
     7
100
AcDbLine
 10
-57.51145484550001
 20
197.6840425614
 30
0.0
 11
-57.51145484550001
 21
182.6840425614
 31
0.0
  0
LINE
  5
272
330
20B
100
AcDbEntity
  8
0
  6
Continuous
 62
     7
100
AcDbLine
 10
-52.51145484550001
 20
182.6840425614
 30
0.0
 11
-52.51145484550001
 21
197.6840425614
 31
0.0
  0
LINE
  5
273
330
20B
100
AcDbEntity
  8
0
  6
Continuous
 62
     7
100
AcDbLine
 10
-52.51145484550001
 20
206.6840425614
 30
0.0
 11
-52.51145484550001
 21
227.6840425614
 31
0.0
  0
LINE
  5
274
330
20B
100
AcDbEntity
  8
0
  6
Continuous
 62
     7
100
AcDbLine
 10
-41.5114548455
 20
227.6840425614
 30
0.0
 11
-41.5114548455
 21
212.6840425614
 31
0.0
  0
LINE
  5
275
330
20B
100
AcDbEntity
  8
0
  6
Continuous
 62
     7
100
AcDbLine
 10
-41.5114548455
 20
203.6840425614
 30
0.0
 11
-41.5114548455
 21
182.6840425614
 31
0.0
  0
LINE
  5
276
330
20B
100
AcDbEntity
  8
0
  6
Continuous
 62
     7
100
AcDbLine
 10
-36.51145484550001
 20
182.6840425614
 30
0.0
 11
-36.51145484550001
 21
203.6840425614
 31
0.0
  0
LINE
  5
277
330
20B
100
AcDbEntity
  8
0
  6
Continuous
 62
     7
100
AcDbLine
 10
-36.51145484550001
 20
212.6840425614
 30
0.0
 11
-36.51145484550001
 21
227.6840425614
 31
0.0
  0
LINE
  5
278
330
20B
100
AcDbEntity
  8
0
  6
Continuous
 62
     7
100
AcDbLine
 10
-25.5114548455
 20
227.6840425614
 30
0.0
 11
-25.5114548455
 21
216.6840425614
 31
0.0
  0
LINE
  5
279
330
20B
100
AcDbEntity
  8
0
  6
Continuous
 62
     7
100
AcDbLine
 10
-25.5114548455
 20
207.6840425614
 30
0.0
 11
-25.5114548455
 21
182.6840425614
 31
0.0
  0
LINE
  5
27A
330
20B
100
AcDbEntity
  8
0
  6
Continuous
 62
     7
100
AcDbLine
 10
-20.5114548455
 20
182.6840425614
 30
0.0
 11
-20.5114548455
 21
207.6840425614
 31
0.0
  0
LINE
  5
27B
330
20B
100
AcDbEntity
  8
0
  6
Continuous
 62
     7
100
AcDbLine
 10
-20.5114548455
 20
216.6840425614
 30
0.0
 11
-20.5114548455
 21
227.6840425614
 31
0.0
  0
LINE
  5
27C
330
20B
100
AcDbEntity
  8
0
  6
Continuous
 62
     7
100
AcDbLine
 10
-9.511454845499999
 20
227.6840425614
 30
0.0
 11
-9.511454845499999
 21
220.6840425614
 31
0.0
  0
LINE
  5
27D
330
20B
100
AcDbEntity
  8
0
  6
Continuous
 62
     7
100
AcDbLine
 10
-9.511454845499999
 20
211.6840425614
 30
0.0
 11
-9.511454845499999
 21
182.6840425614
 31
0.0
  0
LINE
  5
27E
330
20B
100
AcDbEntity
  8
0
  6
Continuous
 62
     7
100
AcDbLine
 10
-4.5114548455
 20
182.6840425614
 30
0.0
 11
-4.5114548455
 21
211.6840425614
 31
0.0
  0
LINE
  5
27F
330
20B
100
AcDbEntity
  8
0
  6
Continuous
 62
     7
100
AcDbLine
 10
-4.5114548455
 20
220.6840425614
 30
0.0
 11
-4.5114548455
 21
227.6840425614
 31
0.0
  0
LINE
  5
280
330
20B
100
AcDbEntity
  8
0
  6
Continuous
 62
     7
100
AcDbLine
 10
6.4885451545
 20
227.6840425614
 30
0.0
 11
6.4885451545
 21
222.6840425614
 31
0.0
  0
LINE
  5
281
330
20B
100
AcDbEntity
  8
0
  6
Continuous
 62
     7
100
AcDbLine
 10
6.4885451545
 20
213.6840425614
 30
0.0
 11
6.4885451545
 21
182.6840425614
 31
0.0
  0
LINE
  5
282
330
20B
100
AcDbEntity
  8
0
  6
Continuous
 62
     7
100
AcDbLine
 10
11.4885451545
 20
182.6840425614
 30
0.0
 11
11.4885451545
 21
213.6840425614
 31
0.0
  0
LINE
  5
283
330
20B
100
AcDbEntity
  8
0
  6
Continuous
 62
     7
100
AcDbLine
 10
11.4885451545
 20
222.6840425614
 30
0.0
 11
11.4885451545
 21
227.6840425614
 31
0.0
  0
LINE
  5
284
330
20B
100
AcDbEntity
  8
0
  6
Continuous
 62
     7
100
AcDbLine
 10
22.4885451545
 20
227.6840425614
 30
0.0
 11
22.4885451545
 21
223.6840425614
 31
0.0
  0
LINE
  5
285
330
20B
100
AcDbEntity
  8
0
  6
Continuous
 62
     7
100
AcDbLine
 10
22.4885451545
 20
214.6840425614
 30
0.0
 11
22.4885451545
 21
182.6840425614
 31
0.0
  0
LINE
  5
286
330
20B
100
AcDbEntity
  8
0
  6
Continuous
 62
     7
100
AcDbLine
 10
27.4885451545
 20
182.6840425614
 30
0.0
 11
27.4885451545
 21
214.6840425614
 31
0.0
  0
LINE
  5
287
330
20B
100
AcDbEntity
  8
0
  6
Continuous
 62
     7
100
AcDbLine
 10
27.4885451545
 20
223.6840425614
 30
0.0
 11
27.4885451545
 21
227.6840425614
 31
0.0
  0
LINE
  5
288
330
20B
100
AcDbEntity
  8
0
  6
Continuous
 62
     7
100
AcDbLine
 10
38.4885451545
 20
227.6840425614
 30
0.0
 11
38.4885451545
 21
224.6840425614
 31
0.0
  0
LINE
  5
289
330
20B
100
AcDbEntity
  8
0
  6
Continuous
 62
     7
100
AcDbLine
 10
38.4885451545
 20
215.6840425614
 30
0.0
 11
38.4885451545
 21
182.6840425614
 31
0.0
  0
LINE
  5
28A
330
20B
100
AcDbEntity
  8
0
  6
Continuous
 62
     7
100
AcDbLine
 10
43.48854515449999
 20
182.6840425614
 30
0.0
 11
43.48854515449999
 21
215.6840425614
 31
0.0
  0
LINE
  5
28B
330
20B
100
AcDbEntity
  8
0
  6
Continuous
 62
     7
100
AcDbLine
 10
43.48854515449999
 20
224.6840425614
 30
0.0
 11
43.48854515449999
 21
227.6840425614
 31
0.0
  0
LINE
  5
28C
330
20B
100
AcDbEntity
  8
0
  6
Continuous
 62
     7
100
AcDbLine
 10
54.48854515449998
 20
227.6840425614
 30
0.0
 11
54.48854515449998
 21
223.6840425614
 31
0.0
  0
LINE
  5
28D
330
20B
100
AcDbEntity
  8
0
  6
Continuous
 62
     7
100
AcDbLine
 10
54.48854515449998
 20
214.6840425614
 30
0.0
 11
54.48854515449998
 21
182.6840425614
 31
0.0
  0
LINE
  5
28E
330
20B
100
AcDbEntity
  8
0
  6
Continuous
 62
     7
100
AcDbLine
 10
59.48854515449998
 20
182.6840425614
 30
0.0
 11
59.48854515449998
 21
214.6840425614
 31
0.0
  0
LINE
  5
28F
330
20B
100
AcDbEntity
  8
0
  6
Continuous
 62
     7
100
AcDbLine
 10
59.48854515449998
 20
223.6840425614
 30
0.0
 11
59.48854515449998
 21
227.6840425614
 31
0.0
  0
LINE
  5
290
330
20B
100
AcDbEntity
  8
0
  6
Continuous
 62
     7
100
AcDbLine
 10
70.4885451545
 20
227.6840425614
 30
0.0
 11
70.4885451545
 21
222.6840425614
 31
0.0
  0
LINE
  5
291
330
20B
100
AcDbEntity
  8
0
  6
Continuous
 62
     7
100
AcDbLine
 10
70.4885451545
 20
213.6840425614
 30
0.0
 11
70.4885451545
 21
182.6840425614
 31
0.0
  0
LINE
  5
292
330
20B
100
AcDbEntity
  8
0
  6
Continuous
 62
     7
100
AcDbLine
 10
75.4885451545
 20
182.6840425614
 30
0.0
 11
75.4885451545
 21
213.6840425614
 31
0.0
  0
LINE
  5
293
330
20B
100
AcDbEntity
  8
0
  6
Continuous
 62
     7
100
AcDbLine
 10
75.4885451545
 20
222.6840425614
 30
0.0
 11
75.4885451545
 21
227.6840425614
 31
0.0
  0
LINE
  5
294
330
20B
100
AcDbEntity
  8
0
  6
Continuous
 62
     7
100
AcDbLine
 10
86.4885451545
 20
227.6840425614
 30
0.0
 11
86.4885451545
 21
220.6840425614
 31
0.0
  0
LINE
  5
295
330
20B
100
AcDbEntity
  8
0
  6
Continuous
 62
     7
100
AcDbLine
 10
86.4885451545
 20
211.6840425614
 30
0.0
 11
86.4885451545
 21
182.6840425614
 31
0.0
  0
LINE
  5
296
330
20B
100
AcDbEntity
  8
0
  6
Continuous
 62
     7
100
AcDbLine
 10
91.4885451545
 20
182.6840425614
 30
0.0
 11
91.4885451545
 21
211.6840425614
 31
0.0
  0
LINE
  5
297
330
20B
100
AcDbEntity
  8
0
  6
Continuous
 62
     7
100
AcDbLine
 10
91.4885451545
 20
220.6840425614
 30
0.0
 11
91.4885451545
 21
227.6840425614
 31
0.0
  0
LINE
  5
298
330
20B
100
AcDbEntity
  8
0
  6
Continuous
 62
     7
100
AcDbLine
 10
102.4885451545
 20
227.6840425614
 30
0.0
 11
102.4885451545
 21
216.6840425614
 31
0.0
  0
LINE
  5
299
330
20B
100
AcDbEntity
  8
0
  6
Continuous
 62
     7
100
AcDbLine
 10
102.4885451545
 20
207.6840425614
 30
0.0
 11
102.4885451545
 21
182.6840425614
 31
0.0
  0
LINE
  5
29A
330
20B
100
AcDbEntity
  8
0
  6
Continuous
 62
     7
100
AcDbLine
 10
107.4885451545
 20
182.6840425614
 30
0.0
 11
107.4885451545
 21
207.6840425614
 31
0.0
  0
LINE
  5
29B
330
20B
100
AcDbEntity
  8
0
  6
Continuous
 62
     7
100
AcDbLine
 10
107.4885451545
 20
216.6840425614
 30
0.0
 11
107.4885451545
 21
227.6840425614
 31
0.0
  0
LINE
  5
29C
330
20B
100
AcDbEntity
  8
0
  6
Continuous
 62
     7
100
AcDbLine
 10
118.4885451545
 20
227.6840425614
 30
0.0
 11
118.4885451545
 21
212.6840425614
 31
0.0
  0
LINE
  5
29D
330
20B
100
AcDbEntity
  8
0
  6
Continuous
 62
     7
100
AcDbLine
 10
118.4885451545
 20
203.6840425614
 30
0.0
 11
118.4885451545
 21
182.6840425614
 31
0.0
  0
LINE
  5
29E
330
20B
100
AcDbEntity
  8
0
  6
Continuous
 62
     7
100
AcDbLine
 10
123.4885451545
 20
182.6840425614
 30
0.0
 11
123.4885451545
 21
203.6840425614
 31
0.0
  0
LINE
  5
29F
330
20B
100
AcDbEntity
  8
0
  6
Continuous
 62
     7
100
AcDbLine
 10
123.4885451545
 20
212.6840425614
 30
0.0
 11
123.4885451545
 21
227.6840425614
 31
0.0
  0
LINE
  5
2A0
330
20B
100
AcDbEntity
  8
0
  6
Continuous
 62
     7
100
AcDbLine
 10
134.4885451545
 20
227.6840425614
 30
0.0
 11
134.4885451545
 21
206.6840425614
 31
0.0
  0
LINE
  5
2A1
330
20B
100
AcDbEntity
  8
0
  6
Continuous
 62
     7
100
AcDbLine
 10
134.4885451545
 20
197.6840425614
 30
0.0
 11
134.4885451545
 21
182.6840425614
 31
0.0
  0
LINE
  5
2A2
330
20B
100
AcDbEntity
  8
0
  6
Continuous
 62
     7
100
AcDbLine
 10
139.4885451545
 20
182.6840425614
 30
0.0
 11
139.4885451545
 21
197.6840425614
 31
0.0
  0
LINE
  5
2A3
330
20B
100
AcDbEntity
  8
0
  6
Continuous
 62
     7
100
AcDbLine
 10
139.4885451545
 20
206.6840425614
 30
0.0
 11
139.4885451545
 21
227.6840425614
 31
0.0
  0
LINE
  5
2A4
330
20B
100
AcDbEntity
  8
0
  6
Continuous
 62
     7
100
AcDbLine
 10
150.4885451545
 20
227.6840425614
 30
0.0
 11
150.4885451545
 21
202.6840425614
 31
0.0
  0
LINE
  5
2A5
330
20B
100
AcDbEntity
  8
0
  6
Continuous
 62
     7
100
AcDbLine
 10
150.4885451545
 20
193.6840425614
 30
0.0
 11
150.4885451545
 21
182.6840425614
 31
0.0
  0
LINE
  5
2A6
330
20B
100
AcDbEntity
  8
0
  6
Continuous
 62
     7
100
AcDbLine
 10
155.4885451545
 20
182.6840425614
 30
0.0
 11
155.4885451545
 21
193.6840425614
 31
0.0
  0
LINE
  5
2A7
330
20B
100
AcDbEntity
  8
0
  6
Continuous
 62
     7
100
AcDbLine
 10
155.4885451545
 20
202.6840425614
 30
0.0
 11
155.4885451545
 21
227.6840425614
 31
0.0
  0
LINE
  5
2A8
330
20B
100
AcDbEntity
  8
0
  6
Continuous
 62
     7
100
AcDbLine
 10
166.4885451545
 20
227.6840425614
 30
0.0
 11
166.4885451545
 21
198.6840425614
 31
0.0
  0
LINE
  5
2A9
330
20B
100
AcDbEntity
  8
0
  6
Continuous
 62
     7
100
AcDbLine
 10
166.4885451545
 20
189.6840425614
 30
0.0
 11
166.4885451545
 21
182.6840425614
 31
0.0
  0
LINE
  5
2AA
330
20B
100
AcDbEntity
  8
0
  6
Continuous
 62
     7
100
AcDbLine
 10
171.4885451545
 20
182.6840425614
 30
0.0
 11
171.4885451545
 21
189.6840425614
 31
0.0
  0
LINE
  5
2AB
330
20B
100
AcDbEntity
  8
0
  6
Continuous
 62
     7
100
AcDbLine
 10
171.4885451545
 20
198.6840425614
 30
0.0
 11
171.4885451545
 21
227.6840425614
 31
0.0
  0
LINE
  5
2AC
330
20B
100
AcDbEntity
  8
0
  6
Continuous
 62
     7
100
AcDbLine
 10
182.4885451545
 20
227.6840425614
 30
0.0
 11
182.4885451545
 21
196.6840425614
 31
0.0
  0
LINE
  5
2AD
330
20B
100
AcDbEntity
  8
0
  6
Continuous
 62
     7
100
AcDbLine
 10
182.4885451545
 20
187.6840425614
 30
0.0
 11
182.4885451545
 21
182.6840425614
 31
0.0
  0
LINE
  5
2AE
330
20B
100
AcDbEntity
  8
0
  6
Continuous
 62
     7
100
AcDbLine
 10
187.4885451545
 20
182.6840425614
 30
0.0
 11
187.4885451545
 21
187.6840425614
 31
0.0
  0
LINE
  5
2AF
330
20B
100
AcDbEntity
  8
0
  6
Continuous
 62
     7
100
AcDbLine
 10
187.4885451545
 20
196.6840425614
 30
0.0
 11
187.4885451545
 21
227.6840425614
 31
0.0
  0
LINE
  5
2B0
102
{ACAD_REACTORS
330
6C0
330
6EE
102
}
330
20B
100
AcDbEntity
  8
0
  6
Continuous
 62
     7
100
AcDbLine
 10
655.9885451545
 20
174.4340425614
 30
0.0
 11
-222.0114548455
 21
174.4340425614
 31
0.0
  0
LINE
  5
2B1
330
20B
100
AcDbEntity
  8
BEZUGSACHSEN
  6
Continuous
 62
     9
100
AcDbLine
 10
655.9885451545
 20
178.3764674028
 30
0.0
 11
-222.0114548455
 21
178.3764674028
 31
0.0
  0
LINE
  5
2B2
330
20B
100
AcDbEntity
  8
BEZUGSACHSEN
  6
Continuous
 62
     9
100
AcDbLine
 10
655.9885451545
 20
179.3768905701
 30
0.0
 11
-222.0114548455
 21
179.3768905701
 31
0.0
  0
LINE
  5
2B3
330
20B
100
AcDbEntity
  8
0
  6
Continuous
 62
     7
100
AcDbLine
 10
198.4885451545
 20
227.6840425614
 30
0.0
 11
198.4885451545
 21
195.6840425614
 31
0.0
  0
LINE
  5
2B4
330
20B
100
AcDbEntity
  8
0
  6
Continuous
 62
     7
100
AcDbLine
 10
198.4885451545
 20
186.6840425614
 30
0.0
 11
198.4885451545
 21
182.6840425614
 31
0.0
  0
LINE
  5
2B5
330
20B
100
AcDbEntity
  8
0
  6
Continuous
 62
     7
100
AcDbLine
 10
203.4885451545
 20
182.6840425614
 30
0.0
 11
203.4885451545
 21
186.6840425614
 31
0.0
  0
LINE
  5
2B6
330
20B
100
AcDbEntity
  8
0
  6
Continuous
 62
     7
100
AcDbLine
 10
203.4885451545
 20
195.6840425614
 30
0.0
 11
203.4885451545
 21
227.6840425614
 31
0.0
  0
LINE
  5
2B7
330
20B
100
AcDbEntity
  8
0
  6
Continuous
 62
     7
100
AcDbLine
 10
214.4885451545
 20
227.6840425614
 30
0.0
 11
214.4885451545
 21
194.6840425614
 31
0.0
  0
LINE
  5
2B8
330
20B
100
AcDbEntity
  8
0
  6
Continuous
 62
     7
100
AcDbLine
 10
214.4885451545
 20
185.6840425614
 30
0.0
 11
214.4885451545
 21
182.6840425614
 31
0.0
  0
LINE
  5
2B9
330
20B
100
AcDbEntity
  8
0
  6
Continuous
 62
     7
100
AcDbLine
 10
219.4885451545
 20
182.6840425614
 30
0.0
 11
219.4885451545
 21
185.6840425614
 31
0.0
  0
LINE
  5
2BA
330
20B
100
AcDbEntity
  8
0
  6
Continuous
 62
     7
100
AcDbLine
 10
219.4885451545
 20
194.6840425614
 30
0.0
 11
219.4885451545
 21
227.6840425614
 31
0.0
  0
LINE
  5
2BB
330
20B
100
AcDbEntity
  8
0
  6
Continuous
 62
     7
100
AcDbLine
 10
626.9886188754
 20
181.1840425614
 30
0.0
 11
627.9126294169
 21
181.1840425614
 31
0.0
  0
LINE
  5
2BC
330
20B
100
AcDbEntity
  8
0
  6
Continuous
 62
     7
100
AcDbLine
 10
632.0664609051997
 20
181.1840425614
 30
0.0
 11
632.9894714335997
 21
181.1840425614
 31
0.0
  0
LINE
  5
2BD
330
20B
100
AcDbEntity
  8
0
  6
Continuous
 62
     7
100
AcDbLine
 10
627.9708362292
 20
182.0170425614
 30
0.0
 11
632.0082631811
 21
182.0170425614
 31
0.0
  0
LINE
  5
2BE
330
20B
100
AcDbEntity
  8
0
  6
Continuous
 62
     7
100
AcDbLine
 10
631.8140079392
 20
182.9400425614
 30
0.0
 11
628.1651230397
 21
182.9400425614
 31
0.0
  0
LINE
  5
2C0
330
20B
100
AcDbEntity
  8
0
  6
Continuous
 62
     7
100
AcDbLine
 10
230.4885451545
 20
227.6840425614
 30
0.0
 11
230.4885451545
 21
195.6840425614
 31
0.0
  0
LINE
  5
2C1
330
20B
100
AcDbEntity
  8
0
  6
Continuous
 62
     7
100
AcDbLine
 10
230.4885451545
 20
186.6840425614
 30
0.0
 11
230.4885451545
 21
182.6840425614
 31
0.0
  0
LINE
  5
2C2
330
20B
100
AcDbEntity
  8
0
  6
Continuous
 62
     7
100
AcDbLine
 10
235.4885451545
 20
182.6840425614
 30
0.0
 11
235.4885451545
 21
186.6840425614
 31
0.0
  0
LINE
  5
2C3
330
20B
100
AcDbEntity
  8
0
  6
Continuous
 62
     7
100
AcDbLine
 10
235.4885451545
 20
195.6840425614
 30
0.0
 11
235.4885451545
 21
227.6840425614
 31
0.0
  0
LINE
  5
2C4
330
20B
100
AcDbEntity
  8
0
  6
Continuous
 62
     7
100
AcDbLine
 10
246.4885451545
 20
227.6840425614
 30
0.0
 11
246.4885451545
 21
196.6840425614
 31
0.0
  0
LINE
  5
2C5
330
20B
100
AcDbEntity
  8
0
  6
Continuous
 62
     7
100
AcDbLine
 10
246.4885451545
 20
187.6840425614
 30
0.0
 11
246.4885451545
 21
182.6840425614
 31
0.0
  0
LINE
  5
2C6
330
20B
100
AcDbEntity
  8
BEZUGSACHSEN
  6
Continuous
 62
     9
100
AcDbLine
 10
655.9885451545
 20
230.9911945526
 30
0.0
 11
-222.0114548455
 21
230.9911945526
 31
0.0
  0
LINE
  5
2C7
330
20B
100
AcDbEntity
  8
BEZUGSACHSEN
  6
Continuous
 62
     9
100
AcDbLine
 10
655.9885451545
 20
231.9916177199
 30
0.0
 11
-222.0114548455
 21
231.9916177199
 31
0.0
  0
LINE
  5
2C8
102
{ACAD_REACTORS
330
6C0
102
}
330
20B
100
AcDbEntity
  8
0
  6
Continuous
 62
     7
100
AcDbLine
 10
655.9885451545
 20
235.9340425614
 30
0.0
 11
-222.0114548455
 21
235.9340425614
 31
0.0
  0
LINE
  5
2C9
330
20B
100
AcDbEntity
  8
0
  6
Continuous
 62
     7
100
AcDbLine
 10
251.4885451545
 20
182.6840425614
 30
0.0
 11
251.4885451545
 21
187.6840425614
 31
0.0
  0
LINE
  5
2CA
330
20B
100
AcDbEntity
  8
0
  6
Continuous
 62
     7
100
AcDbLine
 10
251.4885451545
 20
196.6840425614
 30
0.0
 11
251.4885451545
 21
227.6840425614
 31
0.0
  0
LINE
  5
2CB
330
20B
100
AcDbEntity
  8
0
  6
Continuous
 62
     7
100
AcDbLine
 10
262.4885451545
 20
227.6840425614
 30
0.0
 11
262.4885451545
 21
198.6840425614
 31
0.0
  0
LINE
  5
2CC
330
20B
100
AcDbEntity
  8
0
  6
Continuous
 62
     7
100
AcDbLine
 10
262.4885451545
 20
189.6840425614
 30
0.0
 11
262.4885451545
 21
182.6840425614
 31
0.0
  0
LINE
  5
2CD
330
20B
100
AcDbEntity
  8
0
  6
Continuous
 62
     7
100
AcDbLine
 10
267.4885451545
 20
182.6840425614
 30
0.0
 11
267.4885451545
 21
189.6840425614
 31
0.0
  0
LINE
  5
2CE
330
20B
100
AcDbEntity
  8
0
  6
Continuous
 62
     7
100
AcDbLine
 10
267.4885451545
 20
198.6840425614
 30
0.0
 11
267.4885451545
 21
227.6840425614
 31
0.0
  0
LINE
  5
2CF
330
20B
100
AcDbEntity
  8
0
  6
Continuous
 62
     7
100
AcDbLine
 10
278.4885451545
 20
227.6840425614
 30
0.0
 11
278.4885451545
 21
202.6840425614
 31
0.0
  0
LINE
  5
2D0
330
20B
100
AcDbEntity
  8
0
  6
Continuous
 62
     7
100
AcDbLine
 10
278.4885451545
 20
193.6840425614
 30
0.0
 11
278.4885451545
 21
182.6840425614
 31
0.0
  0
LINE
  5
2D1
330
20B
100
AcDbEntity
  8
0
  6
Continuous
 62
     7
100
AcDbLine
 10
283.4885451545
 20
182.6840425614
 30
0.0
 11
283.4885451545
 21
193.6840425614
 31
0.0
  0
LINE
  5
2D2
330
20B
100
AcDbEntity
  8
0
  6
Continuous
 62
     7
100
AcDbLine
 10
283.4885451545
 20
202.6840425614
 30
0.0
 11
283.4885451545
 21
227.6840425614
 31
0.0
  0
LINE
  5
2D3
330
20B
100
AcDbEntity
  8
0
  6
Continuous
 62
     7
100
AcDbLine
 10
294.4885451545
 20
227.6840425614
 30
0.0
 11
294.4885451545
 21
206.6840425614
 31
0.0
  0
LINE
  5
2D4
330
20B
100
AcDbEntity
  8
0
  6
Continuous
 62
     7
100
AcDbLine
 10
294.4885451545
 20
197.6840425614
 30
0.0
 11
294.4885451545
 21
182.6840425614
 31
0.0
  0
LINE
  5
2D5
330
20B
100
AcDbEntity
  8
0
  6
Continuous
 62
     7
100
AcDbLine
 10
299.4885451545
 20
182.6840425614
 30
0.0
 11
299.4885451545
 21
197.6840425614
 31
0.0
  0
LINE
  5
2D6
330
20B
100
AcDbEntity
  8
0
  6
Continuous
 62
     7
100
AcDbLine
 10
299.4885451545
 20
206.6840425614
 30
0.0
 11
299.4885451545
 21
227.6840425614
 31
0.0
  0
LINE
  5
2D7
330
20B
100
AcDbEntity
  8
0
  6
Continuous
 62
     7
100
AcDbLine
 10
310.4885451545
 20
227.6840425614
 30
0.0
 11
310.4885451545
 21
212.6840425614
 31
0.0
  0
LINE
  5
2D8
330
20B
100
AcDbEntity
  8
0
  6
Continuous
 62
     7
100
AcDbLine
 10
310.4885451545
 20
203.6840425614
 30
0.0
 11
310.4885451545
 21
182.6840425614
 31
0.0
  0
LINE
  5
2D9
330
20B
100
AcDbEntity
  8
0
  6
Continuous
 62
     7
100
AcDbLine
 10
315.4885451545
 20
182.6840425614
 30
0.0
 11
315.4885451545
 21
203.6840425614
 31
0.0
  0
LINE
  5
2DA
330
20B
100
AcDbEntity
  8
0
  6
Continuous
 62
     7
100
AcDbLine
 10
315.4885451545
 20
212.6840425614
 30
0.0
 11
315.4885451545
 21
227.6840425614
 31
0.0
  0
LINE
  5
2DB
330
20B
100
AcDbEntity
  8
0
  6
Continuous
 62
     7
100
AcDbLine
 10
326.4885451545
 20
227.6840425614
 30
0.0
 11
326.4885451545
 21
216.6840425614
 31
0.0
  0
LINE
  5
2DC
330
20B
100
AcDbEntity
  8
0
  6
Continuous
 62
     7
100
AcDbLine
 10
326.4885451545
 20
207.6840425614
 30
0.0
 11
326.4885451545
 21
182.6840425614
 31
0.0
  0
LINE
  5
2DD
330
20B
100
AcDbEntity
  8
0
  6
Continuous
 62
     7
100
AcDbLine
 10
331.4885451545
 20
182.6840425614
 30
0.0
 11
331.4885451545
 21
207.6840425614
 31
0.0
  0
LINE
  5
2DE
330
20B
100
AcDbEntity
  8
0
  6
Continuous
 62
     7
100
AcDbLine
 10
331.4885451545
 20
216.6840425614
 30
0.0
 11
331.4885451545
 21
227.6840425614
 31
0.0
  0
LINE
  5
2DF
330
20B
100
AcDbEntity
  8
0
  6
Continuous
 62
     7
100
AcDbLine
 10
342.4885451545
 20
227.6840425614
 30
0.0
 11
342.4885451545
 21
220.6840425614
 31
0.0
  0
LINE
  5
2E0
330
20B
100
AcDbEntity
  8
0
  6
Continuous
 62
     7
100
AcDbLine
 10
342.4885451545
 20
211.6840425614
 30
0.0
 11
342.4885451545
 21
182.6840425614
 31
0.0
  0
LINE
  5
2E1
330
20B
100
AcDbEntity
  8
0
  6
Continuous
 62
     7
100
AcDbLine
 10
347.4885451545
 20
182.6840425614
 30
0.0
 11
347.4885451545
 21
211.6840425614
 31
0.0
  0
LINE
  5
2E2
330
20B
100
AcDbEntity
  8
0
  6
Continuous
 62
     7
100
AcDbLine
 10
347.4885451545
 20
220.6840425614
 30
0.0
 11
347.4885451545
 21
227.6840425614
 31
0.0
  0
LINE
  5
2E3
330
20B
100
AcDbEntity
  8
0
  6
Continuous
 62
     7
100
AcDbLine
 10
358.4885451544999
 20
227.6840425614
 30
0.0
 11
358.4885451544999
 21
222.6840425614
 31
0.0
  0
LINE
  5
2E4
330
20B
100
AcDbEntity
  8
0
  6
Continuous
 62
     7
100
AcDbLine
 10
358.4885451544999
 20
213.6840425614
 30
0.0
 11
358.4885451544999
 21
182.6840425614
 31
0.0
  0
LINE
  5
2E5
330
20B
100
AcDbEntity
  8
0
  6
Continuous
 62
     7
100
AcDbLine
 10
363.4885451544999
 20
182.6840425614
 30
0.0
 11
363.4885451544999
 21
213.6840425614
 31
0.0
  0
LINE
  5
2E6
330
20B
100
AcDbEntity
  8
0
  6
Continuous
 62
     7
100
AcDbLine
 10
363.4885451544999
 20
222.6840425614
 30
0.0
 11
363.4885451544999
 21
227.6840425614
 31
0.0
  0
LINE
  5
2E7
330
20B
100
AcDbEntity
  8
0
  6
Continuous
 62
     7
100
AcDbLine
 10
374.4885451545
 20
227.6840425614
 30
0.0
 11
374.4885451545
 21
223.6840425614
 31
0.0
  0
LINE
  5
2E8
330
20B
100
AcDbEntity
  8
0
  6
Continuous
 62
     7
100
AcDbLine
 10
374.4885451545
 20
214.6840425614
 30
0.0
 11
374.4885451545
 21
182.6840425614
 31
0.0
  0
LINE
  5
2E9
330
20B
100
AcDbEntity
  8
0
  6
Continuous
 62
     7
100
AcDbLine
 10
379.4885451544999
 20
182.6840425614
 30
0.0
 11
379.4885451544999
 21
214.6840425614
 31
0.0
  0
LINE
  5
2EA
330
20B
100
AcDbEntity
  8
0
  6
Continuous
 62
     7
100
AcDbLine
 10
379.4885451544999
 20
223.6840425614
 30
0.0
 11
379.4885451544999
 21
227.6840425614
 31
0.0
  0
LINE
  5
2EB
330
20B
100
AcDbEntity
  8
0
  6
Continuous
 62
     7
100
AcDbLine
 10
390.4885451544999
 20
227.6840425614
 30
0.0
 11
390.4885451544999
 21
224.6840425614
 31
0.0
  0
LINE
  5
2EC
330
20B
100
AcDbEntity
  8
0
  6
Continuous
 62
     7
100
AcDbLine
 10
390.4885451544999
 20
215.6840425614
 30
0.0
 11
390.4885451544999
 21
182.6840425614
 31
0.0
  0
LINE
  5
2ED
330
20B
100
AcDbEntity
  8
0
  6
Continuous
 62
     7
100
AcDbLine
 10
395.4885451544999
 20
182.6840425614
 30
0.0
 11
395.4885451544999
 21
215.6840425614
 31
0.0
  0
LINE
  5
2EE
330
20B
100
AcDbEntity
  8
0
  6
Continuous
 62
     7
100
AcDbLine
 10
395.4885451544999
 20
224.6840425614
 30
0.0
 11
395.4885451544999
 21
227.6840425614
 31
0.0
  0
LINE
  5
2EF
330
20B
100
AcDbEntity
  8
0
  6
Continuous
 62
     7
100
AcDbLine
 10
406.4885451544999
 20
227.6840425614
 30
0.0
 11
406.4885451544999
 21
223.6840425614
 31
0.0
  0
LINE
  5
2F0
330
20B
100
AcDbEntity
  8
0
  6
Continuous
 62
     7
100
AcDbLine
 10
406.4885451544999
 20
214.6840425614
 30
0.0
 11
406.4885451544999
 21
182.6840425614
 31
0.0
  0
LINE
  5
2F1
330
20B
100
AcDbEntity
  8
0
  6
Continuous
 62
     7
100
AcDbLine
 10
411.4885451544997
 20
182.6840425614
 30
0.0
 11
411.4885451544997
 21
214.6840425614
 31
0.0
  0
LINE
  5
2F2
330
20B
100
AcDbEntity
  8
0
  6
Continuous
 62
     7
100
AcDbLine
 10
411.4885451544997
 20
223.6840425614
 30
0.0
 11
411.4885451544997
 21
227.6840425614
 31
0.0
  0
LINE
  5
2F3
330
20B
100
AcDbEntity
  8
0
  6
Continuous
 62
     7
100
AcDbLine
 10
422.4885451544999
 20
227.6840425614
 30
0.0
 11
422.4885451544999
 21
222.6840425614
 31
0.0
  0
LINE
  5
2F4
330
20B
100
AcDbEntity
  8
0
  6
Continuous
 62
     7
100
AcDbLine
 10
422.4885451544999
 20
213.6840425614
 30
0.0
 11
422.4885451544999
 21
182.6840425614
 31
0.0
  0
LINE
  5
2F5
330
20B
100
AcDbEntity
  8
0
  6
Continuous
 62
     7
100
AcDbLine
 10
641.0889041683
 20
182.7245324196
 30
0.0
 11
640.2891297021
 21
183.1862824229
 31
0.0
  0
LINE
  5
2F6
330
20B
100
AcDbEntity
  8
0
  6
Continuous
 62
     7
100
AcDbLine
 10
427.4885451544998
 20
182.6840425614
 30
0.0
 11
427.4885451544998
 21
213.6840425614
 31
0.0
  0
LINE
  5
2F7
330
20B
100
AcDbEntity
  8
0
  6
Continuous
 62
     7
100
AcDbLine
 10
427.4885451544998
 20
222.6840425614
 30
0.0
 11
427.4885451544998
 21
227.6840425614
 31
0.0
  0
LINE
  5
2F8
330
20B
100
AcDbEntity
  8
0
  6
Continuous
 62
     7
100
AcDbLine
 10
438.4885451544999
 20
227.6840425614
 30
0.0
 11
438.4885451544999
 21
220.6840425614
 31
0.0
  0
LINE
  5
2F9
330
20B
100
AcDbEntity
  8
0
  6
Continuous
 62
     7
100
AcDbLine
 10
438.4885451544999
 20
211.6840425614
 30
0.0
 11
438.4885451544999
 21
182.6840425614
 31
0.0
  0
LINE
  5
2FA
330
20B
100
AcDbEntity
  8
0
  6
Continuous
 62
     7
100
AcDbLine
 10
443.4885451544999
 20
182.6840425614
 30
0.0
 11
443.4885451544999
 21
211.6840425614
 31
0.0
  0
LINE
  5
2FB
330
20B
100
AcDbEntity
  8
0
  6
Continuous
 62
     7
100
AcDbLine
 10
443.4885451544999
 20
220.6840425614
 30
0.0
 11
443.4885451544999
 21
227.6840425614
 31
0.0
  0
LINE
  5
2FC
330
20B
100
AcDbEntity
  8
0
  6
Continuous
 62
     7
100
AcDbLine
 10
454.4885451544998
 20
227.6840425614
 30
0.0
 11
454.4885451544998
 21
216.6840425614
 31
0.0
  0
LINE
  5
2FD
330
20B
100
AcDbEntity
  8
0
  6
Continuous
 62
     7
100
AcDbLine
 10
454.4885451544998
 20
207.6840425614
 30
0.0
 11
454.4885451544998
 21
182.6840425614
 31
0.0
  0
LINE
  5
2FE
330
20B
100
AcDbEntity
  8
0
  6
Continuous
 62
     7
100
AcDbLine
 10
640.2697831919
 20
185.296602642
 30
0.0
 11
641.0696521846
 21
185.7584072203
 31
0.0
  0
LINE
  5
2FF
330
20B
100
AcDbEntity
  8
0
  6
Continuous
 62
     7
100
AcDbLine
 10
459.4885451544999
 20
182.6840425614
 30
0.0
 11
459.4885451544999
 21
207.6840425614
 31
0.0
  0
LINE
  5
300
330
20B
100
AcDbEntity
  8
0
  6
Continuous
 62
     7
100
AcDbLine
 10
459.4885451544999
 20
216.6840425614
 30
0.0
 11
459.4885451544999
 21
227.6840425614
 31
0.0
  0
LINE
  5
301
330
20B
100
AcDbEntity
  8
0
  6
Continuous
 62
     7
100
AcDbLine
 10
470.4885451544998
 20
227.6840425614
 30
0.0
 11
470.4885451544998
 21
212.6840425614
 31
0.0
  0
LINE
  5
302
330
20B
100
AcDbEntity
  8
0
  6
Continuous
 62
     7
100
AcDbLine
 10
470.4885451544998
 20
203.6840425614
 30
0.0
 11
470.4885451544998
 21
182.6840425614
 31
0.0
  0
LINE
  5
303
330
20B
100
AcDbEntity
  8
0
  6
Continuous
 62
     7
100
AcDbLine
 10
475.4885451544999
 20
182.6840425614
 30
0.0
 11
475.4885451544999
 21
203.6840425614
 31
0.0
  0
LINE
  5
304
330
20B
100
AcDbEntity
  8
0
  6
Continuous
 62
     7
100
AcDbLine
 10
475.4885451544999
 20
212.6840425614
 30
0.0
 11
475.4885451544999
 21
227.6840425614
 31
0.0
  0
LINE
  5
305
330
20B
100
AcDbEntity
  8
0
  6
Continuous
 62
     7
100
AcDbLine
 10
486.4885451544998
 20
227.6840425614
 30
0.0
 11
486.4885451544998
 21
206.6840425614
 31
0.0
  0
LINE
  5
306
330
20B
100
AcDbEntity
  8
0
  6
Continuous
 62
     7
100
AcDbLine
 10
486.4885451544998
 20
197.6840425614
 30
0.0
 11
486.4885451544998
 21
182.6840425614
 31
0.0
  0
LINE
  5
307
330
20B
100
AcDbEntity
  8
0
  6
Continuous
 62
     7
100
AcDbLine
 10
491.4885451544998
 20
182.6840425614
 30
0.0
 11
491.4885451544998
 21
197.6840425614
 31
0.0
  0
LINE
  5
308
330
20B
100
AcDbEntity
  8
0
  6
Continuous
 62
     7
100
AcDbLine
 10
491.4885451544998
 20
206.6840425614
 30
0.0
 11
491.4885451544998
 21
227.6840425614
 31
0.0
  0
LINE
  5
309
330
20B
100
AcDbEntity
  8
0
  6
Continuous
 62
     7
100
AcDbLine
 10
502.4885451544998
 20
227.6840425614
 30
0.0
 11
502.4885451544998
 21
202.6840425614
 31
0.0
  0
LINE
  5
30A
330
20B
100
AcDbEntity
  8
0
  6
Continuous
 62
     7
100
AcDbLine
 10
502.4885451544998
 20
193.6840425614
 30
0.0
 11
502.4885451544998
 21
182.6840425614
 31
0.0
  0
LINE
  5
30B
330
20B
100
AcDbEntity
  8
0
  6
Continuous
 62
     7
100
AcDbLine
 10
507.4885451544998
 20
182.6840425614
 30
0.0
 11
507.4885451544998
 21
193.6840425614
 31
0.0
  0
LINE
  5
30C
330
20B
100
AcDbEntity
  8
0
  6
Continuous
 62
     7
100
AcDbLine
 10
507.4885451544998
 20
202.6840425614
 30
0.0
 11
507.4885451544998
 21
227.6840425614
 31
0.0
  0
LINE
  5
30D
330
20B
100
AcDbEntity
  8
0
  6
Continuous
 62
     7
100
AcDbLine
 10
518.4885451545
 20
227.6840425614
 30
0.0
 11
518.4885451545
 21
198.6840425614
 31
0.0
  0
LINE
  5
30E
330
20B
100
AcDbEntity
  8
0
  6
Continuous
 62
     7
100
AcDbLine
 10
518.4885451545
 20
189.6840425614
 30
0.0
 11
518.4885451545
 21
182.6840425614
 31
0.0
  0
LINE
  5
30F
330
20B
100
AcDbEntity
  8
0
  6
Continuous
 62
     7
100
AcDbLine
 10
523.4885451544998
 20
182.6840425614
 30
0.0
 11
523.4885451544998
 21
189.6840425614
 31
0.0
  0
LINE
  5
310
330
20B
100
AcDbEntity
  8
0
  6
Continuous
 62
     7
100
AcDbLine
 10
523.4885451544998
 20
198.6840425614
 30
0.0
 11
523.4885451544998
 21
227.6840425614
 31
0.0
  0
LINE
  5
311
330
20B
100
AcDbEntity
  8
0
  6
Continuous
 62
     7
100
AcDbLine
 10
534.4885451545
 20
227.6840425614
 30
0.0
 11
534.4885451545
 21
196.6840425614
 31
0.0
  0
LINE
  5
312
330
20B
100
AcDbEntity
  8
0
  6
Continuous
 62
     7
100
AcDbLine
 10
534.4885451545
 20
187.6840425614
 30
0.0
 11
534.4885451545
 21
182.6840425614
 31
0.0
  0
LINE
  5
313
330
20B
100
AcDbEntity
  8
0
  6
Continuous
 62
     7
100
AcDbLine
 10
539.4885451544999
 20
182.6840425614
 30
0.0
 11
539.4885451544999
 21
187.6840425614
 31
0.0
  0
LINE
  5
314
330
20B
100
AcDbEntity
  8
0
  6
Continuous
 62
     7
100
AcDbLine
 10
539.4885451544999
 20
196.6840425614
 30
0.0
 11
539.4885451544999
 21
227.6840425614
 31
0.0
  0
LINE
  5
315
330
20B
100
AcDbEntity
  8
0
  6
Continuous
 62
     7
100
AcDbLine
 10
550.4885451545
 20
227.6840425614
 30
0.0
 11
550.4885451545
 21
195.6840425614
 31
0.0
  0
LINE
  5
316
330
20B
100
AcDbEntity
  8
0
  6
Continuous
 62
     7
100
AcDbLine
 10
550.4885451545
 20
186.6840425614
 30
0.0
 11
550.4885451545
 21
182.6840425614
 31
0.0
  0
LINE
  5
317
330
20B
100
AcDbEntity
  8
0
  6
Continuous
 62
     7
100
AcDbLine
 10
555.4885451545
 20
182.6840425614
 30
0.0
 11
555.4885451545
 21
186.6840425614
 31
0.0
  0
LINE
  5
318
330
20B
100
AcDbEntity
  8
0
  6
Continuous
 62
     7
100
AcDbLine
 10
555.4885451545
 20
195.6840425614
 30
0.0
 11
555.4885451545
 21
227.6840425614
 31
0.0
  0
LINE
  5
319
330
20B
100
AcDbEntity
  8
0
  6
Continuous
 62
     7
100
AcDbLine
 10
566.4885451545
 20
227.6840425614
 30
0.0
 11
566.4885451545
 21
194.6840425614
 31
0.0
  0
LINE
  5
31A
330
20B
100
AcDbEntity
  8
0
  6
Continuous
 62
     7
100
AcDbLine
 10
566.4885451545
 20
185.6840425614
 30
0.0
 11
566.4885451545
 21
182.6840425614
 31
0.0
  0
LINE
  5
31B
330
20B
100
AcDbEntity
  8
0
  6
Continuous
 62
     7
100
AcDbLine
 10
571.4885451545
 20
182.6840425614
 30
0.0
 11
571.4885451545
 21
185.6840425614
 31
0.0
  0
LINE
  5
31C
330
20B
100
AcDbEntity
  8
0
  6
Continuous
 62
     7
100
AcDbLine
 10
571.4885451545
 20
194.6840425614
 30
0.0
 11
571.4885451545
 21
227.6840425614
 31
0.0
  0
LINE
  5
31D
330
20B
100
AcDbEntity
  8
0
  6
Continuous
 62
     7
100
AcDbLine
 10
582.4885451544997
 20
227.6840425614
 30
0.0
 11
582.4885451544997
 21
195.6840425614
 31
0.0
  0
LINE
  5
31E
330
20B
100
AcDbEntity
  8
0
  6
Continuous
 62
     7
100
AcDbLine
 10
582.4885451544997
 20
186.6840425614
 30
0.0
 11
582.4885451544997
 21
182.6840425614
 31
0.0
  0
LINE
  5
31F
330
20B
100
AcDbEntity
  8
0
  6
Continuous
 62
     7
100
AcDbLine
 10
587.4885451545
 20
182.6840425614
 30
0.0
 11
587.4885451545
 21
186.6840425614
 31
0.0
  0
LINE
  5
320
330
20B
100
AcDbEntity
  8
0
  6
Continuous
 62
     7
100
AcDbLine
 10
587.4885451545
 20
195.6840425614
 30
0.0
 11
587.4885451545
 21
227.6840425614
 31
0.0
  0
LINE
  5
321
330
20B
100
AcDbEntity
  8
0
  6
Continuous
 62
     7
100
AcDbLine
 10
598.4885451544998
 20
227.6840425614
 30
0.0
 11
598.4885451544998
 21
196.6840425614
 31
0.0
  0
LINE
  5
322
330
20B
100
AcDbEntity
  8
0
  6
Continuous
 62
     7
100
AcDbLine
 10
598.4885451544998
 20
187.6840425614
 30
0.0
 11
598.4885451544998
 21
182.6840425614
 31
0.0
  0
LINE
  5
323
330
20B
100
AcDbEntity
  8
0
  6
Continuous
 62
     7
100
AcDbLine
 10
603.4885451545
 20
182.6840425614
 30
0.0
 11
603.4885451545
 21
187.6840425614
 31
0.0
  0
LINE
  5
324
330
20B
100
AcDbEntity
  8
0
  6
Continuous
 62
     7
100
AcDbLine
 10
603.4885451545
 20
196.6840425614
 30
0.0
 11
603.4885451545
 21
227.6840425614
 31
0.0
  0
LINE
  5
325
330
20B
100
AcDbEntity
  8
0
  6
Continuous
 62
     7
100
AcDbLine
 10
614.4885451544999
 20
227.6840425614
 30
0.0
 11
614.4885451544999
 21
198.6840425614
 31
0.0
  0
LINE
  5
326
330
20B
100
AcDbEntity
  8
0
  6
Continuous
 62
     7
100
AcDbLine
 10
614.4885451544999
 20
189.6840425614
 30
0.0
 11
614.4885451544999
 21
182.6840425614
 31
0.0
  0
LINE
  5
327
330
20B
100
AcDbEntity
  8
0
  6
Continuous
 62
     7
100
AcDbLine
 10
619.4885451544998
 20
182.6840425614
 30
0.0
 11
619.4885451544998
 21
189.6840425614
 31
0.0
  0
LINE
  5
328
330
20B
100
AcDbEntity
  8
0
  6
Continuous
 62
     7
100
AcDbLine
 10
619.4885451544998
 20
198.6840425614
 30
0.0
 11
619.4885451544998
 21
227.6840425614
 31
0.0
  0
LINE
  5
329
330
20B
100
AcDbEntity
  8
0
  6
Continuous
 62
     7
100
AcDbLine
 10
630.4885451545
 20
227.6840425614
 30
0.0
 11
630.4885451545
 21
202.6840425614
 31
0.0
  0
LINE
  5
32A
330
20B
100
AcDbEntity
  8
0
  6
Continuous
 62
     7
100
AcDbLine
 10
635.4885451544999
 20
202.6840425614
 30
0.0
 11
635.4885451544999
 21
227.6840425614
 31
0.0
  0
LINE
  5
32B
330
20B
100
AcDbEntity
  8
0
  6
Continuous
 62
     7
100
AcDbLine
 10
646.4885451545
 20
227.6840425614
 30
0.0
 11
646.4885451545
 21
206.6840425614
 31
0.0
  0
LINE
  5
32C
330
20B
100
AcDbEntity
  8
0
  6
Continuous
 62
     7
100
AcDbLine
 10
651.4885451545
 20
206.6840425614
 30
0.0
 11
651.4885451545
 21
227.6840425614
 31
0.0
  0
LINE
  5
32D
330
20B
100
AcDbEntity
  8
0
  6
Continuous
 62
     7
100
AcDbLine
 10
655.9885451545
 20
174.434515701
 30
0.0
 11
655.9885451545
 21
235.9335694217
 31
0.0
  0
LINE
  5
32E
330
20B
100
AcDbEntity
  8
0
  6
Continuous
 62
     7
100
AcDbLine
 10
-222.0114548455
 20
273.7911378876
 30
0.0
 11
-222.0114548455
 21
284.7673223156
 31
0.0
  0
LINE
  5
32F
102
{ACAD_REACTORS
330
688
102
}
330
20B
100
AcDbEntity
  8
0
  6
Continuous
 62
     7
100
AcDbLine
 10
-222.0114548455
 20
284.7673223156
 30
0.0
 11
-222.0114548455
 21
286.9923413398
 31
0.0
  0
LINE
  5
331
330
20B
100
AcDbEntity
  8
0
  6
Continuous
 62
     7
100
AcDbLine
 10
-159.0114548455
 20
275.0403764213
 30
0.0
 11
-159.0114548455
 21
275.0927256664
 31
0.0
  0
LINE
  5
332
330
20B
100
AcDbEntity
  8
0
  6
Continuous
 62
     7
100
AcDbLine
 10
-222.0114548455
 20
273.7911378876
 30
0.0
 11
-220.0114548455
 21
271.7923562335
 31
0.0
  0
LINE
  5
333
102
{ACAD_REACTORS
330
688
102
}
330
20B
100
AcDbEntity
  8
0
  6
Continuous
 62
     7
100
AcDbLine
 10
653.9885451545
 20
271.7923562335
 30
0.0
 11
-220.0114548455
 21
271.7923562335
 31
0.0
  0
LINE
  5
334
330
20B
100
AcDbEntity
  8
BEZUGSACHSEN
  6
Continuous
 62
     9
100
AcDbLine
 10
655.9885451545
 20
284.7673223156
 30
0.0
 11
-222.0114548455
 21
284.7673223156
 31
0.0
  0
LINE
  5
335
330
20B
100
AcDbEntity
  8
0
  6
Continuous
 62
     7
100
AcDbLine
 10
655.9885451545
 20
286.9923562335
 30
0.0
 11
-222.0114548455
 21
286.9923562335
 31
0.0
  0
LINE
  5
336
330
20B
100
AcDbEntity
  8
0
  6
Continuous
 62
     7
100
AcDbLine
 10
653.9885451545
 20
271.7923562335
 30
0.0
 11
655.9885451545
 21
273.7911378876
 31
0.0
  0
LINE
  5
338
330
20B
100
AcDbEntity
  8
0
  6
Continuous
 62
     7
100
AcDbLine
 10
592.9885451545
 20
275.0403764213
 30
0.0
 11
592.9885451545
 21
275.0927256664
 31
0.0
  0
LINE
  5
339
330
20B
100
AcDbEntity
  8
0
  6
Continuous
 62
     7
100
AcDbLine
 10
655.9885451545
 20
273.7911378876
 30
0.0
 11
655.9885451545
 21
284.7673223156
 31
0.0
  0
LINE
  5
33A
330
20B
100
AcDbEntity
  8
0
  6
Continuous
 62
     7
100
AcDbLine
 10
655.9885451545
 20
284.7673223156
 30
0.0
 11
655.9885451545
 21
286.9923413398
 31
0.0
  0
ARC
  5
33B
330
20B
100
AcDbEntity
  8
0
  6
Continuous
 62
     7
100
AcDbCircle
 10
-23.0114548455
 20
182.6840425614
 30
0.0
 40
2.5
100
AcDbArc
 50
180.0
 51
360.0
  0
ARC
  5
33C
330
20B
100
AcDbEntity
  8
0
  6
Continuous
 62
     7
100
AcDbCircle
 10
-39.01145484550001
 20
182.6840425614
 30
0.0
 40
2.5
100
AcDbArc
 50
180.0
 51
360.0
  0
ARC
  5
33D
330
20B
100
AcDbEntity
  8
0
  6
Continuous
 62
     7
100
AcDbCircle
 10
-55.01145484550001
 20
182.6840425614
 30
0.0
 40
2.5
100
AcDbArc
 50
180.0
 51
360.0
  0
ARC
  5
33E
330
20B
100
AcDbEntity
  8
0
  6
Continuous
 62
     7
100
AcDbCircle
 10
-71.01145484549999
 20
182.6840425614
 30
0.0
 40
2.5
100
AcDbArc
 50
180.0
 51
360.0
  0
ARC
  5
33F
330
20B
100
AcDbEntity
  8
0
  6
Continuous
 62
     7
100
AcDbCircle
 10
-87.0114548455
 20
189.6840425614
 30
0.0
 40
2.5
100
AcDbArc
 50
0.0
 51
180.0
  0
ARC
  5
340
330
20B
100
AcDbEntity
  8
0
  6
Continuous
 62
     7
100
AcDbCircle
 10
-87.0114548455
 20
182.6840425614
 30
0.0
 40
2.5
100
AcDbArc
 50
180.0
 51
360.0
  0
ARC
  5
341
330
20B
100
AcDbEntity
  8
0
  6
Continuous
 62
     7
100
AcDbCircle
 10
-103.0114548455
 20
187.6840425614
 30
0.0
 40
2.5
100
AcDbArc
 50
0.0
 51
180.0
  0
ARC
  5
342
330
20B
100
AcDbEntity
  8
0
  6
Continuous
 62
     7
100
AcDbCircle
 10
-103.0114548455
 20
182.6840425614
 30
0.0
 40
2.5
100
AcDbArc
 50
180.0
 51
360.0
  0
ARC
  5
343
330
20B
100
AcDbEntity
  8
0
  6
Continuous
 62
     7
100
AcDbCircle
 10
-119.0114548455
 20
186.6840425614
 30
0.0
 40
2.5
100
AcDbArc
 50
0.0
 51
180.0
  0
ARC
  5
344
330
20B
100
AcDbEntity
  8
0
  6
Continuous
 62
     7
100
AcDbCircle
 10
-119.0114548455
 20
182.6840425614
 30
0.0
 40
2.5
100
AcDbArc
 50
180.0
 51
360.0
  0
ARC
  5
345
330
20B
100
AcDbEntity
  8
0
  6
Continuous
 62
     7
100
AcDbCircle
 10
-135.0114548455
 20
185.6840425614
 30
0.0
 40
2.5
100
AcDbArc
 50
0.0
 51
180.0
  0
ARC
  5
346
330
20B
100
AcDbEntity
  8
0
  6
Continuous
 62
     7
100
AcDbCircle
 10
-135.0114548455
 20
182.6840425614
 30
0.0
 40
2.5
100
AcDbArc
 50
180.0
 51
360.0
  0
ARC
  5
347
330
20B
100
AcDbEntity
  8
0
  6
Continuous
 62
     7
100
AcDbCircle
 10
-151.0114548455
 20
186.6840425614
 30
0.0
 40
2.5
100
AcDbArc
 50
0.0
 51
180.0
  0
ARC
  5
348
330
20B
100
AcDbEntity
  8
0
  6
Continuous
 62
     7
100
AcDbCircle
 10
-151.0114548455
 20
182.6840425614
 30
0.0
 40
2.5
100
AcDbArc
 50
180.0
 51
360.0
  0
ARC
  5
349
330
20B
100
AcDbEntity
  8
0
  6
Continuous
 62
     7
100
AcDbCircle
 10
-167.0114548455
 20
187.6840425614
 30
0.0
 40
2.5
100
AcDbArc
 50
0.0
 51
180.0
  0
ARC
  5
34A
330
20B
100
AcDbEntity
  8
0
  6
Continuous
 62
     7
100
AcDbCircle
 10
-167.0114548455
 20
182.6840425614
 30
0.0
 40
2.5
100
AcDbArc
 50
180.0
 51
360.0
  0
ARC
  5
34B
330
20B
100
AcDbEntity
  8
0
  6
Continuous
 62
     7
100
AcDbCircle
 10
-183.0114548455
 20
189.6840425614
 30
0.0
 40
2.5
100
AcDbArc
 50
0.0
 51
180.0
  0
ARC
  5
34C
330
20B
100
AcDbEntity
  8
0
  6
Continuous
 62
     7
100
AcDbCircle
 10
-183.0114548455
 20
182.6840425614
 30
0.0
 40
2.5
100
AcDbArc
 50
180.0
 51
360.0
  0
ARC
  5
34D
330
20B
100
AcDbEntity
  8
0
  6
Continuous
 62
     7
100
AcDbCircle
 10
-199.0114548455
 20
182.6840425614
 30
0.0
 40
2.5
100
AcDbArc
 50
180.0
 51
360.0
  0
ARC
  5
34E
330
20B
100
AcDbEntity
  8
0
  6
Continuous
 62
     7
100
AcDbCircle
 10
-215.0114548455
 20
182.6840425614
 30
0.0
 40
2.5
100
AcDbArc
 50
180.0
 51
360.0
  0
ARC
  5
34F
330
20B
100
AcDbEntity
  8
0
  6
Continuous
 62
     7
100
AcDbCircle
 10
-39.01145484550001
 20
203.6840425614
 30
0.0
 40
2.5
100
AcDbArc
 50
0.0
 51
180.0
  0
ARC
  5
350
330
20B
100
AcDbEntity
  8
0
  6
Continuous
 62
     7
100
AcDbCircle
 10
-55.01145484550001
 20
197.6840425614
 30
0.0
 40
2.5
100
AcDbArc
 50
0.0
 51
180.0
  0
ARC
  5
351
330
20B
100
AcDbEntity
  8
0
  6
Continuous
 62
     7
100
AcDbCircle
 10
-71.01145484549999
 20
193.6840425614
 30
0.0
 40
2.5
100
AcDbArc
 50
0.0
 51
180.0
  0
ARC
  5
352
330
20B
100
AcDbEntity
  8
0
  6
Continuous
 62
     7
100
AcDbCircle
 10
-199.0114548455
 20
193.6840425614
 30
0.0
 40
2.5
100
AcDbArc
 50
0.0
 51
180.0
  0
ARC
  5
353
330
20B
100
AcDbEntity
  8
0
  6
Continuous
 62
     7
100
AcDbCircle
 10
-215.0114548455
 20
197.6840425614
 30
0.0
 40
2.5
100
AcDbArc
 50
0.0
 51
180.0
  0
ARC
  5
354
330
20B
100
AcDbEntity
  8
0
  6
Continuous
 62
     7
100
AcDbCircle
 10
-199.0114548455
 20
202.6840425614
 30
0.0
 40
2.5
100
AcDbArc
 50
180.0
 51
360.0
  0
ARC
  5
355
330
20B
100
AcDbEntity
  8
0
  6
Continuous
 62
     7
100
AcDbCircle
 10
-183.0114548455
 20
198.6840425614
 30
0.0
 40
2.5
100
AcDbArc
 50
180.0
 51
360.0
  0
ARC
  5
356
330
20B
100
AcDbEntity
  8
0
  6
Continuous
 62
     7
100
AcDbCircle
 10
-167.0114548455
 20
196.6840425614
 30
0.0
 40
2.5
100
AcDbArc
 50
180.0
 51
360.0
  0
ARC
  5
357
330
20B
100
AcDbEntity
  8
0
  6
Continuous
 62
     7
100
AcDbCircle
 10
-151.0114548455
 20
195.6840425614
 30
0.0
 40
2.5
100
AcDbArc
 50
180.0
 51
360.0
  0
ARC
  5
358
330
20B
100
AcDbEntity
  8
0
  6
Continuous
 62
     7
100
AcDbCircle
 10
-135.0114548455
 20
194.6840425614
 30
0.0
 40
2.5
100
AcDbArc
 50
180.0
 51
360.0
  0
ARC
  5
359
330
20B
100
AcDbEntity
  8
0
  6
Continuous
 62
     7
100
AcDbCircle
 10
-119.0114548455
 20
195.6840425614
 30
0.0
 40
2.5
100
AcDbArc
 50
180.0
 51
360.0
  0
ARC
  5
35A
330
20B
100
AcDbEntity
  8
0
  6
Continuous
 62
     7
100
AcDbCircle
 10
-103.0114548455
 20
196.6840425614
 30
0.0
 40
2.5
100
AcDbArc
 50
180.0
 51
360.0
  0
ARC
  5
35B
330
20B
100
AcDbEntity
  8
0
  6
Continuous
 62
     7
100
AcDbCircle
 10
-87.0114548455
 20
198.6840425614
 30
0.0
 40
2.5
100
AcDbArc
 50
180.0
 51
360.0
  0
ARC
  5
35C
330
20B
100
AcDbEntity
  8
0
  6
Continuous
 62
     7
100
AcDbCircle
 10
-71.01145484549999
 20
202.6840425614
 30
0.0
 40
2.5
100
AcDbArc
 50
180.0
 51
360.0
  0
ARC
  5
35D
330
20B
100
AcDbEntity
  8
0
  6
Continuous
 62
     7
100
AcDbCircle
 10
24.9885451545
 20
182.6840425614
 30
0.0
 40
2.5
100
AcDbArc
 50
180.0
 51
360.0
  0
ARC
  5
35E
330
20B
100
AcDbEntity
  8
0
  6
Continuous
 62
     7
100
AcDbCircle
 10
8.9885451545
 20
182.6840425614
 30
0.0
 40
2.5
100
AcDbArc
 50
180.0
 51
360.0
  0
ARC
  5
35F
330
20B
100
AcDbEntity
  8
0
  6
Continuous
 62
     7
100
AcDbCircle
 10
-7.011454845499999
 20
182.6840425614
 30
0.0
 40
2.5
100
AcDbArc
 50
180.0
 51
360.0
  0
ARC
  5
360
330
20B
100
AcDbEntity
  8
0
  6
Continuous
 62
     7
100
AcDbCircle
 10
200.9885451545
 20
186.6840425614
 30
0.0
 40
2.5
100
AcDbArc
 50
0.0
 51
180.0
  0
ARC
  5
361
330
20B
100
AcDbEntity
  8
0
  6
Continuous
 62
     7
100
AcDbCircle
 10
200.9885451545
 20
182.6840425614
 30
0.0
 40
2.5
100
AcDbArc
 50
180.0
 51
360.0
  0
ARC
  5
362
330
20B
100
AcDbEntity
  8
0
  6
Continuous
 62
     7
100
AcDbCircle
 10
184.9885451545
 20
187.6840425614
 30
0.0
 40
2.5
100
AcDbArc
 50
0.0
 51
180.0
  0
ARC
  5
363
330
20B
100
AcDbEntity
  8
0
  6
Continuous
 62
     7
100
AcDbCircle
 10
184.9885451545
 20
182.6840425614
 30
0.0
 40
2.5
100
AcDbArc
 50
180.0
 51
360.0
  0
ARC
  5
364
330
20B
100
AcDbEntity
  8
0
  6
Continuous
 62
     7
100
AcDbCircle
 10
168.9885451545
 20
189.6840425614
 30
0.0
 40
2.5
100
AcDbArc
 50
0.0
 51
180.0
  0
ARC
  5
365
330
20B
100
AcDbEntity
  8
0
  6
Continuous
 62
     7
100
AcDbCircle
 10
168.9885451545
 20
182.6840425614
 30
0.0
 40
2.5
100
AcDbArc
 50
180.0
 51
360.0
  0
ARC
  5
366
330
20B
100
AcDbEntity
  8
0
  6
Continuous
 62
     7
100
AcDbCircle
 10
152.9885451545
 20
182.6840425614
 30
0.0
 40
2.5
100
AcDbArc
 50
180.0
 51
360.0
  0
ARC
  5
367
330
20B
100
AcDbEntity
  8
0
  6
Continuous
 62
     7
100
AcDbCircle
 10
136.9885451545
 20
182.6840425614
 30
0.0
 40
2.5
100
AcDbArc
 50
180.0
 51
360.0
  0
ARC
  5
368
330
20B
100
AcDbEntity
  8
0
  6
Continuous
 62
     7
100
AcDbCircle
 10
120.9885451545
 20
182.6840425614
 30
0.0
 40
2.5
100
AcDbArc
 50
180.0
 51
360.0
  0
ARC
  5
369
330
20B
100
AcDbEntity
  8
0
  6
Continuous
 62
     7
100
AcDbCircle
 10
104.9885451545
 20
182.6840425614
 30
0.0
 40
2.5
100
AcDbArc
 50
180.0
 51
360.0
  0
ARC
  5
36A
330
20B
100
AcDbEntity
  8
0
  6
Continuous
 62
     7
100
AcDbCircle
 10
88.9885451545
 20
182.6840425614
 30
0.0
 40
2.5
100
AcDbArc
 50
180.0
 51
360.0
  0
ARC
  5
36B
330
20B
100
AcDbEntity
  8
0
  6
Continuous
 62
     7
100
AcDbCircle
 10
72.9885451545
 20
182.6840425614
 30
0.0
 40
2.5
100
AcDbArc
 50
180.0
 51
360.0
  0
ARC
  5
36C
330
20B
100
AcDbEntity
  8
0
  6
Continuous
 62
     7
100
AcDbCircle
 10
56.98854515449998
 20
182.6840425614
 30
0.0
 40
2.5
100
AcDbArc
 50
180.0
 51
360.0
  0
ARC
  5
36D
330
20B
100
AcDbEntity
  8
0
  6
Continuous
 62
     7
100
AcDbCircle
 10
40.98854515449999
 20
182.6840425614
 30
0.0
 40
2.5
100
AcDbArc
 50
180.0
 51
360.0
  0
ARC
  5
36E
330
20B
100
AcDbEntity
  8
0
  6
Continuous
 62
     7
100
AcDbCircle
 10
152.9885451545
 20
193.6840425614
 30
0.0
 40
2.5
100
AcDbArc
 50
0.0
 51
180.0
  0
ARC
  5
36F
330
20B
100
AcDbEntity
  8
0
  6
Continuous
 62
     7
100
AcDbCircle
 10
136.9885451545
 20
197.6840425614
 30
0.0
 40
2.5
100
AcDbArc
 50
0.0
 51
180.0
  0
ARC
  5
370
330
20B
100
AcDbEntity
  8
0
  6
Continuous
 62
     7
100
AcDbCircle
 10
120.9885451545
 20
203.6840425614
 30
0.0
 40
2.5
100
AcDbArc
 50
0.0
 51
180.0
  0
ARC
  5
371
330
20B
100
AcDbEntity
  8
0
  6
Continuous
 62
     7
100
AcDbCircle
 10
152.9885451545
 20
202.6840425614
 30
0.0
 40
2.5
100
AcDbArc
 50
180.0
 51
360.0
  0
ARC
  5
372
330
20B
100
AcDbEntity
  8
0
  6
Continuous
 62
     7
100
AcDbCircle
 10
168.9885451545
 20
198.6840425614
 30
0.0
 40
2.5
100
AcDbArc
 50
180.0
 51
360.0
  0
ARC
  5
373
330
20B
100
AcDbEntity
  8
0
  6
Continuous
 62
     7
100
AcDbCircle
 10
184.9885451545
 20
196.6840425614
 30
0.0
 40
2.5
100
AcDbArc
 50
180.0
 51
360.0
  0
ARC
  5
374
330
20B
100
AcDbEntity
  8
0
  6
Continuous
 62
     7
100
AcDbCircle
 10
200.9885451545
 20
195.6840425614
 30
0.0
 40
2.5
100
AcDbArc
 50
180.0
 51
360.0
  0
ARC
  5
375
330
20B
100
AcDbEntity
  8
0
  6
Continuous
 62
     7
100
AcDbCircle
 10
-23.0114548455
 20
207.6840425614
 30
0.0
 40
2.5
100
AcDbArc
 50
0.0
 51
180.0
  0
ARC
  5
376
330
20B
100
AcDbEntity
  8
0
  6
Continuous
 62
     7
100
AcDbCircle
 10
-215.0114548455
 20
206.6840425614
 30
0.0
 40
2.5
100
AcDbArc
 50
180.0
 51
360.0
  0
ARC
  5
377
330
20B
100
AcDbEntity
  8
0
  6
Continuous
 62
     7
100
AcDbCircle
 10
-55.01145484550001
 20
206.6840425614
 30
0.0
 40
2.5
100
AcDbArc
 50
180.0
 51
360.0
  0
ARC
  5
378
330
20B
100
AcDbEntity
  8
0
  6
Continuous
 62
     7
100
AcDbCircle
 10
-39.01145484550001
 20
212.6840425614
 30
0.0
 40
2.5
100
AcDbArc
 50
180.0
 51
360.0
  0
ARC
  5
379
330
20B
100
AcDbEntity
  8
0
  6
Continuous
 62
     7
100
AcDbCircle
 10
-23.0114548455
 20
216.6840425614
 30
0.0
 40
2.5
100
AcDbArc
 50
180.0
 51
360.0
  0
ARC
  5
37A
330
20B
100
AcDbEntity
  8
0
  6
Continuous
 62
     7
100
AcDbCircle
 10
-215.0114548455
 20
227.6840425614
 30
0.0
 40
2.5
100
AcDbArc
 50
0.0
 51
180.0
  0
ARC
  5
37B
330
20B
100
AcDbEntity
  8
0
  6
Continuous
 62
     7
100
AcDbCircle
 10
-199.0114548455
 20
227.6840425614
 30
0.0
 40
2.5
100
AcDbArc
 50
0.0
 51
180.0
  0
ARC
  5
37C
330
20B
100
AcDbEntity
  8
0
  6
Continuous
 62
     7
100
AcDbCircle
 10
-183.0114548455
 20
227.6840425614
 30
0.0
 40
2.5
100
AcDbArc
 50
0.0
 51
180.0
  0
ARC
  5
37D
330
20B
100
AcDbEntity
  8
0
  6
Continuous
 62
     7
100
AcDbCircle
 10
-167.0114548455
 20
227.6840425614
 30
0.0
 40
2.5
100
AcDbArc
 50
0.0
 51
180.0
  0
ARC
  5
37E
330
20B
100
AcDbEntity
  8
0
  6
Continuous
 62
     7
100
AcDbCircle
 10
-151.0114548455
 20
227.6840425614
 30
0.0
 40
2.5
100
AcDbArc
 50
0.0
 51
180.0
  0
ARC
  5
37F
330
20B
100
AcDbEntity
  8
0
  6
Continuous
 62
     7
100
AcDbCircle
 10
-135.0114548455
 20
227.6840425614
 30
0.0
 40
2.5
100
AcDbArc
 50
0.0
 51
180.0
  0
ARC
  5
380
330
20B
100
AcDbEntity
  8
0
  6
Continuous
 62
     7
100
AcDbCircle
 10
-119.0114548455
 20
227.6840425614
 30
0.0
 40
2.5
100
AcDbArc
 50
0.0
 51
180.0
  0
ARC
  5
381
330
20B
100
AcDbEntity
  8
0
  6
Continuous
 62
     7
100
AcDbCircle
 10
-103.0114548455
 20
227.6840425614
 30
0.0
 40
2.5
100
AcDbArc
 50
0.0
 51
180.0
  0
ARC
  5
382
330
20B
100
AcDbEntity
  8
0
  6
Continuous
 62
     7
100
AcDbCircle
 10
-87.0114548455
 20
227.6840425614
 30
0.0
 40
2.5
100
AcDbArc
 50
0.0
 51
180.0
  0
ARC
  5
383
330
20B
100
AcDbEntity
  8
0
  6
Continuous
 62
     7
100
AcDbCircle
 10
-71.01145484549999
 20
227.6840425614
 30
0.0
 40
2.5
100
AcDbArc
 50
0.0
 51
180.0
  0
ARC
  5
384
330
20B
100
AcDbEntity
  8
0
  6
Continuous
 62
     7
100
AcDbCircle
 10
-55.01145484550001
 20
227.6840425614
 30
0.0
 40
2.5
100
AcDbArc
 50
0.0
 51
180.0
  0
ARC
  5
385
330
20B
100
AcDbEntity
  8
0
  6
Continuous
 62
     7
100
AcDbCircle
 10
-39.01145484550001
 20
227.6840425614
 30
0.0
 40
2.5
100
AcDbArc
 50
0.0
 51
180.0
  0
ARC
  5
386
330
20B
100
AcDbEntity
  8
0
  6
Continuous
 62
     7
100
AcDbCircle
 10
-23.0114548455
 20
227.6840425614
 30
0.0
 40
2.5
100
AcDbArc
 50
0.0
 51
180.0
  0
ARC
  5
387
330
20B
100
AcDbEntity
  8
0
  6
Continuous
 62
     7
100
AcDbCircle
 10
24.9885451545
 20
214.6840425614
 30
0.0
 40
2.5
100
AcDbArc
 50
0.0
 51
180.0
  0
ARC
  5
388
330
20B
100
AcDbEntity
  8
0
  6
Continuous
 62
     7
100
AcDbCircle
 10
8.9885451545
 20
213.6840425614
 30
0.0
 40
2.5
100
AcDbArc
 50
0.0
 51
180.0
  0
ARC
  5
389
330
20B
100
AcDbEntity
  8
0
  6
Continuous
 62
     7
100
AcDbCircle
 10
-7.011454845499999
 20
211.6840425614
 30
0.0
 40
2.5
100
AcDbArc
 50
0.0
 51
180.0
  0
ARC
  5
38A
330
20B
100
AcDbEntity
  8
0
  6
Continuous
 62
     7
100
AcDbCircle
 10
104.9885451545
 20
207.6840425614
 30
0.0
 40
2.5
100
AcDbArc
 50
0.0
 51
180.0
  0
ARC
  5
38B
330
20B
100
AcDbEntity
  8
0
  6
Continuous
 62
     7
100
AcDbCircle
 10
88.9885451545
 20
211.6840425614
 30
0.0
 40
2.5
100
AcDbArc
 50
0.0
 51
180.0
  0
ARC
  5
38C
330
20B
100
AcDbEntity
  8
0
  6
Continuous
 62
     7
100
AcDbCircle
 10
72.9885451545
 20
213.6840425614
 30
0.0
 40
2.5
100
AcDbArc
 50
0.0
 51
180.0
  0
ARC
  5
38D
330
20B
100
AcDbEntity
  8
0
  6
Continuous
 62
     7
100
AcDbCircle
 10
56.98854515449998
 20
214.6840425614
 30
0.0
 40
2.5
100
AcDbArc
 50
0.0
 51
180.0
  0
ARC
  5
38E
330
20B
100
AcDbEntity
  8
0
  6
Continuous
 62
     7
100
AcDbCircle
 10
40.98854515449999
 20
215.6840425614
 30
0.0
 40
2.5
100
AcDbArc
 50
0.0
 51
180.0
  0
ARC
  5
38F
330
20B
100
AcDbEntity
  8
0
  6
Continuous
 62
     7
100
AcDbCircle
 10
104.9885451545
 20
216.6840425614
 30
0.0
 40
2.5
100
AcDbArc
 50
180.0
 51
360.0
  0
ARC
  5
390
330
20B
100
AcDbEntity
  8
0
  6
Continuous
 62
     7
100
AcDbCircle
 10
120.9885451545
 20
212.6840425614
 30
0.0
 40
2.5
100
AcDbArc
 50
180.0
 51
360.0
  0
ARC
  5
391
330
20B
100
AcDbEntity
  8
0
  6
Continuous
 62
     7
100
AcDbCircle
 10
136.9885451545
 20
206.6840425614
 30
0.0
 40
2.5
100
AcDbArc
 50
180.0
 51
360.0
  0
ARC
  5
392
330
20B
100
AcDbEntity
  8
0
  6
Continuous
 62
     7
100
AcDbCircle
 10
40.98854515449999
 20
224.6840425614
 30
0.0
 40
2.5
100
AcDbArc
 50
180.0
 51
360.0
  0
ARC
  5
393
330
20B
100
AcDbEntity
  8
0
  6
Continuous
 62
     7
100
AcDbCircle
 10
40.98854515449999
 20
227.6840425614
 30
0.0
 40
2.5
100
AcDbArc
 50
0.0
 51
180.0
  0
ARC
  5
394
330
20B
100
AcDbEntity
  8
0
  6
Continuous
 62
     7
100
AcDbCircle
 10
56.98854515449998
 20
223.6840425614
 30
0.0
 40
2.5
100
AcDbArc
 50
180.0
 51
360.0
  0
ARC
  5
395
330
20B
100
AcDbEntity
  8
0
  6
Continuous
 62
     7
100
AcDbCircle
 10
56.98854515449998
 20
227.6840425614
 30
0.0
 40
2.5
100
AcDbArc
 50
0.0
 51
180.0
  0
ARC
  5
396
330
20B
100
AcDbEntity
  8
0
  6
Continuous
 62
     7
100
AcDbCircle
 10
72.9885451545
 20
222.6840425614
 30
0.0
 40
2.5
100
AcDbArc
 50
180.0
 51
360.0
  0
ARC
  5
397
330
20B
100
AcDbEntity
  8
0
  6
Continuous
 62
     7
100
AcDbCircle
 10
72.9885451545
 20
227.6840425614
 30
0.0
 40
2.5
100
AcDbArc
 50
0.0
 51
180.0
  0
ARC
  5
398
330
20B
100
AcDbEntity
  8
0
  6
Continuous
 62
     7
100
AcDbCircle
 10
88.9885451545
 20
220.6840425614
 30
0.0
 40
2.5
100
AcDbArc
 50
180.0
 51
360.0
  0
ARC
  5
399
330
20B
100
AcDbEntity
  8
0
  6
Continuous
 62
     7
100
AcDbCircle
 10
88.9885451545
 20
227.6840425614
 30
0.0
 40
2.5
100
AcDbArc
 50
0.0
 51
180.0
  0
ARC
  5
39A
330
20B
100
AcDbEntity
  8
0
  6
Continuous
 62
     7
100
AcDbCircle
 10
104.9885451545
 20
227.6840425614
 30
0.0
 40
2.5
100
AcDbArc
 50
0.0
 51
180.0
  0
ARC
  5
39B
330
20B
100
AcDbEntity
  8
0
  6
Continuous
 62
     7
100
AcDbCircle
 10
120.9885451545
 20
227.6840425614
 30
0.0
 40
2.5
100
AcDbArc
 50
0.0
 51
180.0
  0
ARC
  5
39C
330
20B
100
AcDbEntity
  8
0
  6
Continuous
 62
     7
100
AcDbCircle
 10
136.9885451545
 20
227.6840425614
 30
0.0
 40
2.5
100
AcDbArc
 50
0.0
 51
180.0
  0
ARC
  5
39D
330
20B
100
AcDbEntity
  8
0
  6
Continuous
 62
     7
100
AcDbCircle
 10
152.9885451545
 20
227.6840425614
 30
0.0
 40
2.5
100
AcDbArc
 50
0.0
 51
180.0
  0
ARC
  5
39E
330
20B
100
AcDbEntity
  8
0
  6
Continuous
 62
     7
100
AcDbCircle
 10
168.9885451545
 20
227.6840425614
 30
0.0
 40
2.5
100
AcDbArc
 50
0.0
 51
180.0
  0
ARC
  5
39F
330
20B
100
AcDbEntity
  8
0
  6
Continuous
 62
     7
100
AcDbCircle
 10
184.9885451545
 20
227.6840425614
 30
0.0
 40
2.5
100
AcDbArc
 50
0.0
 51
180.0
  0
ARC
  5
3A0
330
20B
100
AcDbEntity
  8
0
  6
Continuous
 62
     7
100
AcDbCircle
 10
200.9885451545
 20
227.6840425614
 30
0.0
 40
2.5
100
AcDbArc
 50
0.0
 51
180.0
  0
ARC
  5
3A1
330
20B
100
AcDbEntity
  8
0
  6
Continuous
 62
     7
100
AcDbCircle
 10
-7.011454845499999
 20
220.6840425614
 30
0.0
 40
2.5
100
AcDbArc
 50
180.0
 51
360.0
  0
ARC
  5
3A2
330
20B
100
AcDbEntity
  8
0
  6
Continuous
 62
     7
100
AcDbCircle
 10
-7.011454845499999
 20
227.6840425614
 30
0.0
 40
2.5
100
AcDbArc
 50
0.0
 51
180.0
  0
ARC
  5
3A3
330
20B
100
AcDbEntity
  8
0
  6
Continuous
 62
     7
100
AcDbCircle
 10
8.9885451545
 20
222.6840425614
 30
0.0
 40
2.5
100
AcDbArc
 50
180.0
 51
360.0
  0
ARC
  5
3A4
330
20B
100
AcDbEntity
  8
0
  6
Continuous
 62
     7
100
AcDbCircle
 10
8.9885451545
 20
227.6840425614
 30
0.0
 40
2.5
100
AcDbArc
 50
0.0
 51
180.0
  0
ARC
  5
3A5
330
20B
100
AcDbEntity
  8
0
  6
Continuous
 62
     7
100
AcDbCircle
 10
24.9885451545
 20
223.6840425614
 30
0.0
 40
2.5
100
AcDbArc
 50
180.0
 51
360.0
  0
ARC
  5
3A6
330
20B
100
AcDbEntity
  8
0
  6
Continuous
 62
     7
100
AcDbCircle
 10
24.9885451545
 20
227.6840425614
 30
0.0
 40
2.5
100
AcDbArc
 50
0.0
 51
180.0
  0
ARC
  5
3A7
330
20B
100
AcDbEntity
  8
0
  6
Continuous
 62
     7
100
AcDbCircle
 10
376.9885451544999
 20
182.6840425614
 30
0.0
 40
2.5
100
AcDbArc
 50
180.0
 51
360.0
  0
ARC
  5
3A8
330
20B
100
AcDbEntity
  8
0
  6
Continuous
 62
     7
100
AcDbCircle
 10
360.9885451544999
 20
182.6840425614
 30
0.0
 40
2.5
100
AcDbArc
 50
180.0
 51
360.0
  0
ARC
  5
3A9
330
20B
100
AcDbEntity
  8
0
  6
Continuous
 62
     7
100
AcDbCircle
 10
344.9885451545
 20
182.6840425614
 30
0.0
 40
2.5
100
AcDbArc
 50
180.0
 51
360.0
  0
ARC
  5
3AA
330
20B
100
AcDbEntity
  8
0
  6
Continuous
 62
     7
100
AcDbCircle
 10
328.9885451545
 20
182.6840425614
 30
0.0
 40
2.5
100
AcDbArc
 50
180.0
 51
360.0
  0
ARC
  5
3AB
330
20B
100
AcDbEntity
  8
0
  6
Continuous
 62
     7
100
AcDbCircle
 10
312.9885451545
 20
182.6840425614
 30
0.0
 40
2.5
100
AcDbArc
 50
180.0
 51
360.0
  0
ARC
  5
3AC
330
20B
100
AcDbEntity
  8
0
  6
Continuous
 62
     7
100
AcDbCircle
 10
296.9885451545
 20
182.6840425614
 30
0.0
 40
2.5
100
AcDbArc
 50
180.0
 51
360.0
  0
ARC
  5
3AD
330
20B
100
AcDbEntity
  8
0
  6
Continuous
 62
     7
100
AcDbCircle
 10
280.9885451545
 20
182.6840425614
 30
0.0
 40
2.5
100
AcDbArc
 50
180.0
 51
360.0
  0
ARC
  5
3AE
330
20B
100
AcDbEntity
  8
0
  6
Continuous
 62
     7
100
AcDbCircle
 10
264.9885451545
 20
189.6840425614
 30
0.0
 40
2.5
100
AcDbArc
 50
0.0
 51
180.0
  0
ARC
  5
3AF
330
20B
100
AcDbEntity
  8
0
  6
Continuous
 62
     7
100
AcDbCircle
 10
264.9885451545
 20
182.6840425614
 30
0.0
 40
2.5
100
AcDbArc
 50
180.0
 51
360.0
  0
ARC
  5
3B0
330
20B
100
AcDbEntity
  8
0
  6
Continuous
 62
     7
100
AcDbCircle
 10
248.9885451545
 20
187.6840425614
 30
0.0
 40
2.5
100
AcDbArc
 50
0.0
 51
180.0
  0
ARC
  5
3B1
330
20B
100
AcDbEntity
  8
0
  6
Continuous
 62
     7
100
AcDbCircle
 10
248.9885451545
 20
182.6840425614
 30
0.0
 40
2.5
100
AcDbArc
 50
180.0
 51
360.0
  0
ARC
  5
3B2
330
20B
100
AcDbEntity
  8
0
  6
Continuous
 62
     7
100
AcDbCircle
 10
232.9885451545
 20
186.6840425614
 30
0.0
 40
2.5
100
AcDbArc
 50
0.0
 51
180.0
  0
ARC
  5
3B3
330
20B
100
AcDbEntity
  8
0
  6
Continuous
 62
     7
100
AcDbCircle
 10
232.9885451545
 20
182.6840425614
 30
0.0
 40
2.5
100
AcDbArc
 50
180.0
 51
360.0
  0
ARC
  5
3B4
330
20B
100
AcDbEntity
  8
0
  6
Continuous
 62
     7
100
AcDbCircle
 10
216.9885451545
 20
185.6840425614
 30
0.0
 40
2.5
100
AcDbArc
 50
0.0
 51
180.0
  0
ARC
  5
3B5
330
20B
100
AcDbEntity
  8
0
  6
Continuous
 62
     7
100
AcDbCircle
 10
216.9885451545
 20
182.6840425614
 30
0.0
 40
2.5
100
AcDbArc
 50
180.0
 51
360.0
  0
ARC
  5
3B6
330
20B
100
AcDbEntity
  8
0
  6
Continuous
 62
     7
100
AcDbCircle
 10
424.9885451544998
 20
182.6840425614
 30
0.0
 40
2.5
100
AcDbArc
 50
180.0
 51
360.0
  0
ARC
  5
3B7
330
20B
100
AcDbEntity
  8
0
  6
Continuous
 62
     7
100
AcDbCircle
 10
408.9885451544999
 20
182.6840425614
 30
0.0
 40
2.5
100
AcDbArc
 50
180.0
 51
360.0
  0
ARC
  5
3B8
330
20B
100
AcDbEntity
  8
0
  6
Continuous
 62
     7
100
AcDbCircle
 10
392.9885451545
 20
182.6840425614
 30
0.0
 40
2.5
100
AcDbArc
 50
180.0
 51
360.0
  0
ARC
  5
3B9
330
20B
100
AcDbEntity
  8
0
  6
Continuous
 62
     7
100
AcDbCircle
 10
312.9885451545
 20
203.6840425614
 30
0.0
 40
2.5
100
AcDbArc
 50
0.0
 51
180.0
  0
ARC
  5
3BA
330
20B
100
AcDbEntity
  8
0
  6
Continuous
 62
     7
100
AcDbCircle
 10
296.9885451545
 20
197.6840425614
 30
0.0
 40
2.5
100
AcDbArc
 50
0.0
 51
180.0
  0
ARC
  5
3BB
330
20B
100
AcDbEntity
  8
0
  6
Continuous
 62
     7
100
AcDbCircle
 10
280.9885451545
 20
193.6840425614
 30
0.0
 40
2.5
100
AcDbArc
 50
0.0
 51
180.0
  0
ARC
  5
3BC
330
20B
100
AcDbEntity
  8
0
  6
Continuous
 62
     7
100
AcDbCircle
 10
216.9885451545
 20
194.6840425614
 30
0.0
 40
2.5
100
AcDbArc
 50
180.0
 51
360.0
  0
ARC
  5
3BD
330
20B
100
AcDbEntity
  8
0
  6
Continuous
 62
     7
100
AcDbCircle
 10
232.9885451545
 20
195.6840425614
 30
0.0
 40
2.5
100
AcDbArc
 50
180.0
 51
360.0
  0
ARC
  5
3BE
330
20B
100
AcDbEntity
  8
0
  6
Continuous
 62
     7
100
AcDbCircle
 10
248.9885451545
 20
196.6840425614
 30
0.0
 40
2.5
100
AcDbArc
 50
180.0
 51
360.0
  0
ARC
  5
3BF
330
20B
100
AcDbEntity
  8
0
  6
Continuous
 62
     7
100
AcDbCircle
 10
264.9885451545
 20
198.6840425614
 30
0.0
 40
2.5
100
AcDbArc
 50
180.0
 51
360.0
  0
ARC
  5
3C0
330
20B
100
AcDbEntity
  8
0
  6
Continuous
 62
     7
100
AcDbCircle
 10
280.9885451545
 20
202.6840425614
 30
0.0
 40
2.5
100
AcDbArc
 50
180.0
 51
360.0
  0
ARC
  5
3C1
330
20B
100
AcDbEntity
  8
0
  6
Continuous
 62
     7
100
AcDbCircle
 10
634.3745451544997
 20
181.1510425614
 30
0.0
 40
7.386
100
AcDbArc
 50
126.4241761856
 51
179.7440066322
  0
ARC
  5
3C2
330
20B
100
AcDbEntity
  8
0
  6
Continuous
 62
     7
100
AcDbCircle
 10
625.6035451545
 20
181.1510425614
 30
0.0
 40
7.386
100
AcDbArc
 50
0.2559933678
 51
53.5758238144
  0
ARC
  5
3C3
330
20B
100
AcDbEntity
  8
0
  6
Continuous
 62
     7
100
AcDbCircle
 10
625.6035451545
 20
181.1510425614
 30
0.0
 40
6.462999999999999
100
AcDbArc
 50
0.2925528299
 51
7.700422993099999
  0
ARC
  5
3C4
330
20B
100
AcDbEntity
  8
0
  6
Continuous
 62
     7
100
AcDbCircle
 10
625.6035451545
 20
181.1510425614
 30
0.0
 40
6.462999999999999
100
AcDbArc
 50
16.0696949621
 51
47.26029003409998
  0
ARC
  5
3C5
330
20B
100
AcDbEntity
  8
0
  6
Continuous
 62
     7
100
AcDbCircle
 10
634.3745451544997
 20
181.1510425614
 30
0.0
 40
6.462
100
AcDbArc
 50
172.2983781311
 51
179.7074018969
  0
ARC
  5
3C6
330
20B
100
AcDbEntity
  8
0
  6
Continuous
 62
     7
100
AcDbCircle
 10
634.3745451544997
 20
181.1510425614
 30
0.0
 40
6.462
100
AcDbArc
 50
132.7301138375
 51
163.9277508971
  0
CIRCLE
  5
3C7
330
20B
100
AcDbEntity
  8
0
  6
Continuous
 62
     7
100
AcDbCircle
 10
646.9925451545
 20
184.2250425614
 30
0.0
 40
3.0005
  0
ARC
  5
3C8
330
20B
100
AcDbEntity
  8
0
  6
Continuous
 62
     7
100
AcDbCircle
 10
638.4905451544997
 20
184.2250425614
 30
0.0
 40
3.0005
100
AcDbArc
 50
30.7328871953
 51
329.9942638431
  0
ARC
  5
3C9
330
20B
100
AcDbEntity
  8
0
  6
Continuous
 62
     7
100
AcDbCircle
 10
616.9885451545
 20
189.6840425614
 30
0.0
 40
2.5
100
AcDbArc
 50
0.0
 51
180.0
  0
ARC
  5
3CA
330
20B
100
AcDbEntity
  8
0
  6
Continuous
 62
     7
100
AcDbCircle
 10
616.9885451545
 20
182.6840425614
 30
0.0
 40
2.5
100
AcDbArc
 50
180.0
 51
360.0
  0
ARC
  5
3CB
330
20B
100
AcDbEntity
  8
0
  6
Continuous
 62
     7
100
AcDbCircle
 10
600.9885451545
 20
187.6840425614
 30
0.0
 40
2.5
100
AcDbArc
 50
0.0
 51
180.0
  0
ARC
  5
3CC
330
20B
100
AcDbEntity
  8
0
  6
Continuous
 62
     7
100
AcDbCircle
 10
600.9885451545
 20
182.6840425614
 30
0.0
 40
2.5
100
AcDbArc
 50
180.0
 51
360.0
  0
ARC
  5
3CD
330
20B
100
AcDbEntity
  8
0
  6
Continuous
 62
     7
100
AcDbCircle
 10
584.9885451545
 20
186.6840425614
 30
0.0
 40
2.5
100
AcDbArc
 50
0.0
 51
180.0
  0
ARC
  5
3CE
330
20B
100
AcDbEntity
  8
0
  6
Continuous
 62
     7
100
AcDbCircle
 10
584.9885451545
 20
182.6840425614
 30
0.0
 40
2.5
100
AcDbArc
 50
180.0
 51
360.0
  0
ARC
  5
3CF
330
20B
100
AcDbEntity
  8
0
  6
Continuous
 62
     7
100
AcDbCircle
 10
568.9885451544999
 20
185.6840425614
 30
0.0
 40
2.5
100
AcDbArc
 50
0.0
 51
180.0
  0
ARC
  5
3D0
330
20B
100
AcDbEntity
  8
0
  6
Continuous
 62
     7
100
AcDbCircle
 10
568.9885451544999
 20
182.6840425614
 30
0.0
 40
2.5
100
AcDbArc
 50
180.0
 51
360.0
  0
ARC
  5
3D1
330
20B
100
AcDbEntity
  8
0
  6
Continuous
 62
     7
100
AcDbCircle
 10
552.9885451544997
 20
186.6840425614
 30
0.0
 40
2.5
100
AcDbArc
 50
0.0
 51
180.0
  0
ARC
  5
3D2
330
20B
100
AcDbEntity
  8
0
  6
Continuous
 62
     7
100
AcDbCircle
 10
552.9885451544997
 20
182.6840425614
 30
0.0
 40
2.5
100
AcDbArc
 50
180.0
 51
360.0
  0
ARC
  5
3D3
330
20B
100
AcDbEntity
  8
0
  6
Continuous
 62
     7
100
AcDbCircle
 10
536.9885451545
 20
187.6840425614
 30
0.0
 40
2.5
100
AcDbArc
 50
0.0
 51
180.0
  0
ARC
  5
3D4
330
20B
100
AcDbEntity
  8
0
  6
Continuous
 62
     7
100
AcDbCircle
 10
536.9885451545
 20
182.6840425614
 30
0.0
 40
2.5
100
AcDbArc
 50
180.0
 51
360.0
  0
ARC
  5
3D5
330
20B
100
AcDbEntity
  8
0
  6
Continuous
 62
     7
100
AcDbCircle
 10
520.9885451545
 20
189.6840425614
 30
0.0
 40
2.5
100
AcDbArc
 50
0.0
 51
180.0
  0
ARC
  5
3D6
330
20B
100
AcDbEntity
  8
0
  6
Continuous
 62
     7
100
AcDbCircle
 10
520.9885451545
 20
182.6840425614
 30
0.0
 40
2.5
100
AcDbArc
 50
180.0
 51
360.0
  0
ARC
  5
3D7
330
20B
100
AcDbEntity
  8
0
  6
Continuous
 62
     7
100
AcDbCircle
 10
504.9885451544999
 20
182.6840425614
 30
0.0
 40
2.5
100
AcDbArc
 50
180.0
 51
360.0
  0
ARC
  5
3D8
330
20B
100
AcDbEntity
  8
0
  6
Continuous
 62
     7
100
AcDbCircle
 10
488.9885451544999
 20
182.6840425614
 30
0.0
 40
2.5
100
AcDbArc
 50
180.0
 51
360.0
  0
ARC
  5
3D9
330
20B
100
AcDbEntity
  8
0
  6
Continuous
 62
     7
100
AcDbCircle
 10
472.9885451544999
 20
182.6840425614
 30
0.0
 40
2.5
100
AcDbArc
 50
180.0
 51
360.0
  0
ARC
  5
3DA
330
20B
100
AcDbEntity
  8
0
  6
Continuous
 62
     7
100
AcDbCircle
 10
456.9885451544998
 20
182.6840425614
 30
0.0
 40
2.5
100
AcDbArc
 50
180.0
 51
360.0
  0
ARC
  5
3DB
330
20B
100
AcDbEntity
  8
0
  6
Continuous
 62
     7
100
AcDbCircle
 10
440.9885451544998
 20
182.6840425614
 30
0.0
 40
2.5
100
AcDbArc
 50
180.0
 51
360.0
  0
CIRCLE
  5
3DC
330
20B
100
AcDbEntity
  8
0
  6
Continuous
 62
     7
100
AcDbCircle
 10
646.9925451545
 20
184.2250425614
 30
0.0
 40
2.076999999999999
  0
ARC
  5
3DD
330
20B
100
AcDbEntity
  8
0
  6
Continuous
 62
     7
100
AcDbCircle
 10
638.4905451544997
 20
184.2250425614
 30
0.0
 40
2.076999999999999
100
AcDbArc
 50
31.05878344739999
 51
329.9917133659
  0
ARC
  5
3DE
330
20B
100
AcDbEntity
  8
0
  6
Continuous
 62
     7
100
AcDbCircle
 10
504.9885451544999
 20
193.6840425614
 30
0.0
 40
2.5
100
AcDbArc
 50
0.0
 51
180.0
  0
ARC
  5
3DF
330
20B
100
AcDbEntity
  8
0
  6
Continuous
 62
     7
100
AcDbCircle
 10
488.9885451544999
 20
197.6840425614
 30
0.0
 40
2.5
100
AcDbArc
 50
0.0
 51
180.0
  0
ARC
  5
3E0
330
20B
100
AcDbEntity
  8
0
  6
Continuous
 62
     7
100
AcDbCircle
 10
472.9885451544999
 20
203.6840425614
 30
0.0
 40
2.5
100
AcDbArc
 50
0.0
 51
180.0
  0
ARC
  5
3E1
330
20B
100
AcDbEntity
  8
0
  6
Continuous
 62
     7
100
AcDbCircle
 10
504.9885451544999
 20
202.6840425614
 30
0.0
 40
2.5
100
AcDbArc
 50
180.0
 51
360.0
  0
ARC
  5
3E2
330
20B
100
AcDbEntity
  8
0
  6
Continuous
 62
     7
100
AcDbCircle
 10
520.9885451545
 20
198.6840425614
 30
0.0
 40
2.5
100
AcDbArc
 50
180.0
 51
360.0
  0
ARC
  5
3E3
330
20B
100
AcDbEntity
  8
0
  6
Continuous
 62
     7
100
AcDbCircle
 10
536.9885451545
 20
196.6840425614
 30
0.0
 40
2.5
100
AcDbArc
 50
180.0
 51
360.0
  0
ARC
  5
3E4
330
20B
100
AcDbEntity
  8
0
  6
Continuous
 62
     7
100
AcDbCircle
 10
552.9885451544997
 20
195.6840425614
 30
0.0
 40
2.5
100
AcDbArc
 50
180.0
 51
360.0
  0
ARC
  5
3E5
330
20B
100
AcDbEntity
  8
0
  6
Continuous
 62
     7
100
AcDbCircle
 10
568.9885451544999
 20
194.6840425614
 30
0.0
 40
2.5
100
AcDbArc
 50
180.0
 51
360.0
  0
ARC
  5
3E6
330
20B
100
AcDbEntity
  8
0
  6
Continuous
 62
     7
100
AcDbCircle
 10
584.9885451545
 20
195.6840425614
 30
0.0
 40
2.5
100
AcDbArc
 50
180.0
 51
360.0
  0
ARC
  5
3E7
330
20B
100
AcDbEntity
  8
0
  6
Continuous
 62
     7
100
AcDbCircle
 10
600.9885451545
 20
196.6840425614
 30
0.0
 40
2.5
100
AcDbArc
 50
180.0
 51
360.0
  0
ARC
  5
3E8
330
20B
100
AcDbEntity
  8
0
  6
Continuous
 62
     7
100
AcDbCircle
 10
616.9885451545
 20
198.6840425614
 30
0.0
 40
2.5
100
AcDbArc
 50
180.0
 51
360.0
  0
ARC
  5
3E9
330
20B
100
AcDbEntity
  8
0
  6
Continuous
 62
     7
100
AcDbCircle
 10
632.9885451545
 20
202.6840425614
 30
0.0
 40
2.5
100
AcDbArc
 50
180.0
 51
360.0
  0
ARC
  5
3EA
330
20B
100
AcDbEntity
  8
0
  6
Continuous
 62
     7
100
AcDbCircle
 10
376.9885451544999
 20
214.6840425614
 30
0.0
 40
2.5
100
AcDbArc
 50
0.0
 51
180.0
  0
ARC
  5
3EB
330
20B
100
AcDbEntity
  8
0
  6
Continuous
 62
     7
100
AcDbCircle
 10
360.9885451544999
 20
213.6840425614
 30
0.0
 40
2.5
100
AcDbArc
 50
0.0
 51
180.0
  0
ARC
  5
3EC
330
20B
100
AcDbEntity
  8
0
  6
Continuous
 62
     7
100
AcDbCircle
 10
344.9885451545
 20
211.6840425614
 30
0.0
 40
2.5
100
AcDbArc
 50
0.0
 51
180.0
  0
ARC
  5
3ED
330
20B
100
AcDbEntity
  8
0
  6
Continuous
 62
     7
100
AcDbCircle
 10
328.9885451545
 20
207.6840425614
 30
0.0
 40
2.5
100
AcDbArc
 50
0.0
 51
180.0
  0
ARC
  5
3EE
330
20B
100
AcDbEntity
  8
0
  6
Continuous
 62
     7
100
AcDbCircle
 10
424.9885451544998
 20
213.6840425614
 30
0.0
 40
2.5
100
AcDbArc
 50
0.0
 51
180.0
  0
ARC
  5
3EF
330
20B
100
AcDbEntity
  8
0
  6
Continuous
 62
     7
100
AcDbCircle
 10
408.9885451544999
 20
214.6840425614
 30
0.0
 40
2.5
100
AcDbArc
 50
0.0
 51
180.0
  0
ARC
  5
3F0
330
20B
100
AcDbEntity
  8
0
  6
Continuous
 62
     7
100
AcDbCircle
 10
392.9885451545
 20
215.6840425614
 30
0.0
 40
2.5
100
AcDbArc
 50
0.0
 51
180.0
  0
ARC
  5
3F1
330
20B
100
AcDbEntity
  8
0
  6
Continuous
 62
     7
100
AcDbCircle
 10
296.9885451545
 20
206.6840425614
 30
0.0
 40
2.5
100
AcDbArc
 50
180.0
 51
360.0
  0
ARC
  5
3F2
330
20B
100
AcDbEntity
  8
0
  6
Continuous
 62
     7
100
AcDbCircle
 10
312.9885451545
 20
212.6840425614
 30
0.0
 40
2.5
100
AcDbArc
 50
180.0
 51
360.0
  0
ARC
  5
3F3
330
20B
100
AcDbEntity
  8
0
  6
Continuous
 62
     7
100
AcDbCircle
 10
328.9885451545
 20
216.6840425614
 30
0.0
 40
2.5
100
AcDbArc
 50
180.0
 51
360.0
  0
ARC
  5
3F4
330
20B
100
AcDbEntity
  8
0
  6
Continuous
 62
     7
100
AcDbCircle
 10
392.9885451545
 20
224.6840425614
 30
0.0
 40
2.5
100
AcDbArc
 50
180.0
 51
360.0
  0
ARC
  5
3F5
330
20B
100
AcDbEntity
  8
0
  6
Continuous
 62
     7
100
AcDbCircle
 10
392.9885451545
 20
227.6840425614
 30
0.0
 40
2.5
100
AcDbArc
 50
0.0
 51
180.0
  0
ARC
  5
3F6
330
20B
100
AcDbEntity
  8
0
  6
Continuous
 62
     7
100
AcDbCircle
 10
408.9885451544999
 20
223.6840425614
 30
0.0
 40
2.5
100
AcDbArc
 50
180.0
 51
360.0
  0
ARC
  5
3F7
330
20B
100
AcDbEntity
  8
0
  6
Continuous
 62
     7
100
AcDbCircle
 10
408.9885451544999
 20
227.6840425614
 30
0.0
 40
2.5
100
AcDbArc
 50
0.0
 51
180.0
  0
ARC
  5
3F8
330
20B
100
AcDbEntity
  8
0
  6
Continuous
 62
     7
100
AcDbCircle
 10
424.9885451544998
 20
222.6840425614
 30
0.0
 40
2.5
100
AcDbArc
 50
180.0
 51
360.0
  0
ARC
  5
3F9
330
20B
100
AcDbEntity
  8
0
  6
Continuous
 62
     7
100
AcDbCircle
 10
424.9885451544998
 20
227.6840425614
 30
0.0
 40
2.5
100
AcDbArc
 50
0.0
 51
180.0
  0
ARC
  5
3FA
330
20B
100
AcDbEntity
  8
0
  6
Continuous
 62
     7
100
AcDbCircle
 10
216.9885451545
 20
227.6840425614
 30
0.0
 40
2.5
100
AcDbArc
 50
0.0
 51
180.0
  0
ARC
  5
3FB
330
20B
100
AcDbEntity
  8
0
  6
Continuous
 62
     7
100
AcDbCircle
 10
232.9885451545
 20
227.6840425614
 30
0.0
 40
2.5
100
AcDbArc
 50
0.0
 51
180.0
  0
ARC
  5
3FC
330
20B
100
AcDbEntity
  8
0
  6
Continuous
 62
     7
100
AcDbCircle
 10
248.9885451545
 20
227.6840425614
 30
0.0
 40
2.5
100
AcDbArc
 50
0.0
 51
180.0
  0
ARC
  5
3FD
330
20B
100
AcDbEntity
  8
0
  6
Continuous
 62
     7
100
AcDbCircle
 10
264.9885451545
 20
227.6840425614
 30
0.0
 40
2.5
100
AcDbArc
 50
0.0
 51
180.0
  0
ARC
  5
3FE
330
20B
100
AcDbEntity
  8
0
  6
Continuous
 62
     7
100
AcDbCircle
 10
280.9885451545
 20
227.6840425614
 30
0.0
 40
2.5
100
AcDbArc
 50
0.0
 51
180.0
  0
ARC
  5
3FF
330
20B
100
AcDbEntity
  8
0
  6
Continuous
 62
     7
100
AcDbCircle
 10
296.9885451545
 20
227.6840425614
 30
0.0
 40
2.5
100
AcDbArc
 50
0.0
 51
180.0
  0
ARC
  5
400
330
20B
100
AcDbEntity
  8
0
  6
Continuous
 62
     7
100
AcDbCircle
 10
312.9885451545
 20
227.6840425614
 30
0.0
 40
2.5
100
AcDbArc
 50
0.0
 51
180.0
  0
ARC
  5
401
330
20B
100
AcDbEntity
  8
0
  6
Continuous
 62
     7
100
AcDbCircle
 10
328.9885451545
 20
227.6840425614
 30
0.0
 40
2.5
100
AcDbArc
 50
0.0
 51
180.0
  0
ARC
  5
402
330
20B
100
AcDbEntity
  8
0
  6
Continuous
 62
     7
100
AcDbCircle
 10
344.9885451545
 20
220.6840425614
 30
0.0
 40
2.5
100
AcDbArc
 50
180.0
 51
360.0
  0
ARC
  5
403
330
20B
100
AcDbEntity
  8
0
  6
Continuous
 62
     7
100
AcDbCircle
 10
344.9885451545
 20
227.6840425614
 30
0.0
 40
2.5
100
AcDbArc
 50
0.0
 51
180.0
  0
ARC
  5
404
330
20B
100
AcDbEntity
  8
0
  6
Continuous
 62
     7
100
AcDbCircle
 10
360.9885451544999
 20
222.6840425614
 30
0.0
 40
2.5
100
AcDbArc
 50
180.0
 51
360.0
  0
ARC
  5
405
330
20B
100
AcDbEntity
  8
0
  6
Continuous
 62
     7
100
AcDbCircle
 10
360.9885451544999
 20
227.6840425614
 30
0.0
 40
2.5
100
AcDbArc
 50
0.0
 51
180.0
  0
ARC
  5
406
330
20B
100
AcDbEntity
  8
0
  6
Continuous
 62
     7
100
AcDbCircle
 10
376.9885451544999
 20
223.6840425614
 30
0.0
 40
2.5
100
AcDbArc
 50
180.0
 51
360.0
  0
ARC
  5
407
330
20B
100
AcDbEntity
  8
0
  6
Continuous
 62
     7
100
AcDbCircle
 10
376.9885451544999
 20
227.6840425614
 30
0.0
 40
2.5
100
AcDbArc
 50
0.0
 51
180.0
  0
ARC
  5
408
330
20B
100
AcDbEntity
  8
0
  6
Continuous
 62
     7
100
AcDbCircle
 10
456.9885451544998
 20
207.6840425614
 30
0.0
 40
2.5
100
AcDbArc
 50
0.0
 51
180.0
  0
ARC
  5
409
330
20B
100
AcDbEntity
  8
0
  6
Continuous
 62
     7
100
AcDbCircle
 10
440.9885451544998
 20
211.6840425614
 30
0.0
 40
2.5
100
AcDbArc
 50
0.0
 51
180.0
  0
ARC
  5
40A
330
20B
100
AcDbEntity
  8
0
  6
Continuous
 62
     7
100
AcDbCircle
 10
456.9885451544998
 20
216.6840425614
 30
0.0
 40
2.5
100
AcDbArc
 50
180.0
 51
360.0
  0
ARC
  5
40B
330
20B
100
AcDbEntity
  8
0
  6
Continuous
 62
     7
100
AcDbCircle
 10
472.9885451544999
 20
212.6840425614
 30
0.0
 40
2.5
100
AcDbArc
 50
180.0
 51
360.0
  0
ARC
  5
40C
330
20B
100
AcDbEntity
  8
0
  6
Continuous
 62
     7
100
AcDbCircle
 10
488.9885451544999
 20
206.6840425614
 30
0.0
 40
2.5
100
AcDbArc
 50
180.0
 51
360.0
  0
ARC
  5
40D
330
20B
100
AcDbEntity
  8
0
  6
Continuous
 62
     7
100
AcDbCircle
 10
648.9885451544997
 20
206.6840425614
 30
0.0
 40
2.5
100
AcDbArc
 50
180.0
 51
360.0
  0
ARC
  5
40E
330
20B
100
AcDbEntity
  8
0
  6
Continuous
 62
     7
100
AcDbCircle
 10
440.9885451544998
 20
220.6840425614
 30
0.0
 40
2.5
100
AcDbArc
 50
180.0
 51
360.0
  0
ARC
  5
40F
330
20B
100
AcDbEntity
  8
0
  6
Continuous
 62
     7
100
AcDbCircle
 10
440.9885451544998
 20
227.6840425614
 30
0.0
 40
2.5
100
AcDbArc
 50
0.0
 51
180.0
  0
ARC
  5
410
330
20B
100
AcDbEntity
  8
0
  6
Continuous
 62
     7
100
AcDbCircle
 10
456.9885451544998
 20
227.6840425614
 30
0.0
 40
2.5
100
AcDbArc
 50
0.0
 51
180.0
  0
ARC
  5
411
330
20B
100
AcDbEntity
  8
0
  6
Continuous
 62
     7
100
AcDbCircle
 10
472.9885451544999
 20
227.6840425614
 30
0.0
 40
2.5
100
AcDbArc
 50
0.0
 51
180.0
  0
ARC
  5
412
330
20B
100
AcDbEntity
  8
0
  6
Continuous
 62
     7
100
AcDbCircle
 10
488.9885451544999
 20
227.6840425614
 30
0.0
 40
2.5
100
AcDbArc
 50
0.0
 51
180.0
  0
ARC
  5
413
330
20B
100
AcDbEntity
  8
0
  6
Continuous
 62
     7
100
AcDbCircle
 10
504.9885451544999
 20
227.6840425614
 30
0.0
 40
2.5
100
AcDbArc
 50
0.0
 51
180.0
  0
ARC
  5
414
330
20B
100
AcDbEntity
  8
0
  6
Continuous
 62
     7
100
AcDbCircle
 10
520.9885451545
 20
227.6840425614
 30
0.0
 40
2.5
100
AcDbArc
 50
0.0
 51
180.0
  0
ARC
  5
415
330
20B
100
AcDbEntity
  8
0
  6
Continuous
 62
     7
100
AcDbCircle
 10
536.9885451545
 20
227.6840425614
 30
0.0
 40
2.5
100
AcDbArc
 50
0.0
 51
180.0
  0
ARC
  5
416
330
20B
100
AcDbEntity
  8
0
  6
Continuous
 62
     7
100
AcDbCircle
 10
552.9885451544997
 20
227.6840425614
 30
0.0
 40
2.5
100
AcDbArc
 50
0.0
 51
180.0
  0
ARC
  5
417
330
20B
100
AcDbEntity
  8
0
  6
Continuous
 62
     7
100
AcDbCircle
 10
568.9885451544999
 20
227.6840425614
 30
0.0
 40
2.5
100
AcDbArc
 50
0.0
 51
180.0
  0
ARC
  5
418
330
20B
100
AcDbEntity
  8
0
  6
Continuous
 62
     7
100
AcDbCircle
 10
584.9885451545
 20
227.6840425614
 30
0.0
 40
2.5
100
AcDbArc
 50
0.0
 51
180.0
  0
ARC
  5
419
330
20B
100
AcDbEntity
  8
0
  6
Continuous
 62
     7
100
AcDbCircle
 10
600.9885451545
 20
227.6840425614
 30
0.0
 40
2.5
100
AcDbArc
 50
0.0
 51
180.0
  0
ARC
  5
41A
330
20B
100
AcDbEntity
  8
0
  6
Continuous
 62
     7
100
AcDbCircle
 10
616.9885451545
 20
227.6840425614
 30
0.0
 40
2.5
100
AcDbArc
 50
0.0
 51
180.0
  0
ARC
  5
41B
330
20B
100
AcDbEntity
  8
0
  6
Continuous
 62
     7
100
AcDbCircle
 10
632.9885451545
 20
227.6840425614
 30
0.0
 40
2.5
100
AcDbArc
 50
0.0
 51
180.0
  0
ARC
  5
41C
330
20B
100
AcDbEntity
  8
0
  6
Continuous
 62
     7
100
AcDbCircle
 10
648.9885451544997
 20
227.6840425614
 30
0.0
 40
2.5
100
AcDbArc
 50
0.0
 51
180.0
  0
ARC
  5
41D
330
20B
100
AcDbEntity
  8
0
  6
Continuous
 62
     7
100
AcDbCircle
 10
-159.0123271087
 20
277.8419818075
 30
0.0
 40
2.7491991468
100
AcDbArc
 50
181.1095800488
 51
358.8904199512001
  0
ARC
  5
41E
330
20B
100
AcDbEntity
  8
0
  6
Continuous
 62
     7
100
AcDbCircle
 10
592.9876728913
 20
277.8419818075
 30
0.0
 40
2.7491991468
100
AcDbArc
 50
181.1095800488
 51
358.8904199512001
  0
CIRCLE
  5
41F
330
20B
100
AcDbEntity
  8
0
  6
Continuous
 62
     7
100
AcDbCircle
 10
-159.0123493968
 20
277.78959702
 30
0.0
 40
2.7491613674
  0
CIRCLE
  5
420
330
20B
100
AcDbEntity
  8
0
  6
Continuous
 62
     7
100
AcDbCircle
 10
592.9894397057997
 20
277.78959702
 30
0.0
 40
2.7491613674
  0
DIMENSION
  5
679
102
{ACAD_XDICTIONARY
360
687
102
}
102
{ACAD_REACTORS
330
688
102
}
330
20B
100
AcDbEntity
  8
P-0000
  6
Continuous
100
AcDbDimension
  2
*D6
 10
-247.9214554176363
 20
286.9923413398
 30
0.0
 11
-256.1507787403043
 21
280.0826087165297
 31
0.0
 70
   160
 71
     5
 42
15.19998510630006
  3
883N99122_001_00149479900
100
AcDbAlignedDimension
 13
-220.0114548455
 23
271.7923562335
 33
0.0
 14
-222.0114548455
 24
286.9923413398
 34
0.0
 50
90.00000000000005
100
AcDbRotatedDimension
1001
ACAD_DSTYLE_DIMINSPECT
1070
   396
1000
100%
1070
   395
1000

1070
   394
1070
    33
1070
   393
1070
     0
1001
ACAD
1000
DSTYLE
1002
{
1070
   271
1070
     0
1070
   279
1070
     2
1070
   288
1070
     1
1002
}
  0
DIMENSION
  5
6B1
102
{ACAD_XDICTIONARY
360
6BF
102
}
102
{ACAD_REACTORS
330
6C0
102
}
330
20B
100
AcDbEntity
  8
P-0000
  6
Continuous
100
AcDbDimension
  2
*D7
 10
-245.933873349908
 20
174.4340425614
 30
0.0
 11
-253.433873349908
 21
205.1840425613999
 31
0.0
 70
    32
 71
     5
 42
61.5
  3
883N99122_001_00149479900
100
AcDbAlignedDimension
 13
-222.0114548455
 23
235.9340425614
 33
0.0
 14
-222.0114548455
 24
174.4340425614
 34
0.0
 50
90.00000000000005
100
AcDbRotatedDimension
1001
ACAD_DSTYLE_DIMINSPECT
1070
   396
1000
100%
1070
   395
1000

1070
   394
1070
    33
1070
   393
1070
     0
1001
ACAD
1000
DSTYLE
1002
{
1070
   271
1070
     0
1070
   279
1070
     2
1070
   288
1070
     1
1002
}
  0
DIMENSION
  5
6DF
102
{ACAD_XDICTIONARY
360
6ED
102
}
102
{ACAD_REACTORS
330
6EE
102
}
330
20B
100
AcDbEntity
  8
P-0000
  6
Continuous
100
AcDbDimension
  2
*D8
 10
655.9885451545
 20
127.7300600725821
 30
0.0
 11
216.9885451545
 21
135.2300600725821
 31
0.0
 70
    32
 71
     5
 42
878.0
  3
883N99122_001_00149479900
100
AcDbAlignedDimension
 13
-222.0114548455
 23
174.4340425614
 33
0.0
 14
655.9885451545
 24
174.4340425614
 34
0.0
 50
0.0000000000001132
100
AcDbRotatedDimension
1001
ACAD_DSTYLE_DIMINSPECT
1070
   396
1000
100%
1070
   395
1000

1070
   394
1070
    33
1070
   393
1070
     0
1001
ACAD
1000
DSTYLE
1002
{
1070
   279
1070
     2
1070
   288
1070
     1
1002
}
  0
ENDSEC
  0
SECTION
  2
OBJECTS
  0
DICTIONARY
  5
C
330
0
100
AcDbDictionary
281
     1
  3
ACAD_2007HEADERVARS_RT
350
D26
  3
ACAD_COLOR
350
453
  3
ACAD_GROUP
350
D
  3
ACAD_LAYOUT
350
1A
  3
ACAD_MATERIAL
350
426
  3
ACAD_MLEADERSTYLE
350
468
  3
ACAD_MLINESTYLE
350
17
  3
ACAD_PLOTSETTINGS
350
19
  3
ACAD_PLOTSTYLENAME
350
E
  3
ACAD_SCALELIST
350
456
  3
ACAD_TABLESTYLE
350
454
  3
ACAD_VISUALSTYLE
350
43F
  3
ACDB_RECOMPOSE_DATA
350
D24
  3
AcDbVariableDictionary
350
5BD
  3
AcmDictionary
350
4C2
  3
AEC_PROPERTY_SET_DEFS
350
8E7
  3
AMG
350
46C
  3
AMGSNAPSETTINGS
350
509
  3
DWGPROPS
350
D25
  0
DICTIONARY
  5
77C
330
2
100
AcDbDictionary
280
     1
281
     1
  3
ACAD_LAYERSTATES
360
77D
  0
DICTIONARY
  5
77A
330
779
100
AcDbDictionary
280
     1
281
     1
  0
DICTIONARY
  5
687
330
679
100
AcDbDictionary
280
     1
281
     1
  3
ACAD_DIMASSOC
360
688
  0
DICTIONARY
  5
6BF
330
6B1
100
AcDbDictionary
280
     1
281
     1
  3
ACAD_DIMASSOC
360
6C0
  0
DICTIONARY
  5
6ED
330
6DF
100
AcDbDictionary
280
     1
281
     1
  3
ACAD_DIMASSOC
360
6EE
  0
DICTIONARY
  5
D26
102
{ACAD_REACTORS
330
C
102
}
330
C
100
AcDbDictionary
281
     1
  3
DIMJOGANG
350
D27
  3
DIMLTEX1
350
D29
  3
DIMLTEX2
350
D2A
  3
DIMLTYPE
350
D28
  0
DICTIONARY
  5
453
102
{ACAD_REACTORS
330
C
102
}
330
C
100
AcDbDictionary
281
     1
  0
DICTIONARY
  5
D
102
{ACAD_REACTORS
330
C
102
}
330
C
100
AcDbDictionary
281
     1
  0
DICTIONARY
  5
1A
102
{ACAD_REACTORS
330
C
102
}
330
C
100
AcDbDictionary
281
     1
  3
Layout1
350
422
  3
Model
350
421
  0
DICTIONARY
  5
426
102
{ACAD_REACTORS
330
C
102
}
330
C
100
AcDbDictionary
281
     1
  3
ByBlock
350
42F
  3
ByLayer
350
427
  3
Global
350
437
  0
DICTIONARY
  5
468
102
{ACAD_REACTORS
330
C
102
}
330
C
100
AcDbDictionary
281
     1
  3
Standard
350
469
  0
DICTIONARY
  5
17
102
{ACAD_REACTORS
330
C
102
}
330
C
100
AcDbDictionary
281
     1
  3
Standard
350
18
  0
DICTIONARY
  5
19
102
{ACAD_REACTORS
330
C
102
}
330
C
100
AcDbDictionary
281
     1
  0
ACDBDICTIONARYWDFLT
  5
E
102
{ACAD_REACTORS
330
C
102
}
330
C
100
AcDbDictionary
281
     1
  3
Normal
350
F
100
AcDbDictionaryWithDefault
340
F
  0
DICTIONARY
  5
456
102
{ACAD_REACTORS
330
C
102
}
330
C
100
AcDbDictionary
281
     1
  3
A0
350
457
  3
A1
350
458
  3
A2
350
459
  3
A3
350
45A
  3
A4
350
45B
  3
A5
350
45C
  3
A6
350
45D
  3
A7
350
45E
  3
A8
350
45F
  3
A9
350
460
  3
B0
350
461
  3
B1
350
462
  3
B2
350
463
  3
B3
350
464
  3
B4
350
465
  3
B5
350
466
  3
B6
350
467
  0
DICTIONARY
  5
454
102
{ACAD_REACTORS
330
C
102
}
330
C
100
AcDbDictionary
281
     1
  3
Standard
350
455
  0
DICTIONARY
  5
43F
102
{ACAD_REACTORS
330
C
102
}
330
C
100
AcDbDictionary
281
     1
  3
2dWireframe
350
445
  3
3D Hidden
350
447
  3
3dWireframe
350
446
  3
Basic
350
444
  3
Brighten
350
44B
  3
ColorChange
350
44F
  3
Conceptual
350
448
  3
Dim
350
44A
  3
EdgeColorOff
350
452
  3
Facepattern
350
44E
  3
Flat
350
440
  3
FlatWithEdges
350
441
  3
Gouraud
350
442
  3
GouraudWithEdges
350
443
  3
JitterOff
350
450
  3
Linepattern
350
44D
  3
OverhangOff
350
451
  3
Realistic
350
449
  3
Thicken
350
44C
  0
XRECORD
  5
D24
102
{ACAD_REACTORS
330
C
102
}
330
C
100
AcDbXrecord
280
     1
 90
        1
330
455
  0
DICTIONARY
  5
5BD
102
{ACAD_REACTORS
330
C
102
}
330
C
100
AcDbDictionary
281
     1
  3
CANNOSCALE
350
5C1
  3
CMLEADERSTYLE
350
5BF
  3
CTABLESTYLE
350
5BE
  3
DIMASSOC
350
5C8
  3
HIDETEXT
350
5C7
  3
INDEXCTL
350
5C6
  3
LAYEREVAL
350
5C3
  3
LAYERNOTIFY
350
5C4
  3
LIGHTINGUNITS
350
5C2
  3
MSLTSCALE
350
5C0
  3
SORTENTS
350
5C5
  3
XCLIPFRAME
350
D22
  0
DICTIONARY
  5
4C2
102
{ACAD_REACTORS
330
C
102
}
330
C
100
AcDbDictionary
281
     1
  3
AcmStdDictionary
350
4CE
  0
DICTIONARY
  5
8E7
102
{ACAD_REACTORS
330
C
102
}
330
C
100
AcDbDictionary
281
     1
  0
DICTIONARY
  5
46C
102
{ACAD_REACTORS
330
C
102
}
330
C
100
AcDbDictionary
281
     1
  0
DICTIONARY
  5
509
102
{ACAD_REACTORS
330
C
102
}
330
C
100
AcDbDictionary
281
     1
  0
XRECORD
  5
D25
102
{ACAD_REACTORS
330
C
102
}
330
C
100
AcDbXrecord
280
     1
  1
DWGPROPS COOKIE
  2

  3

  4

  6

  7

  8
atittmar
  9

300
=
301
=
302
=
303
=
304
=
305
=
306
=
307
=
308
=
309
=
 40
0.0076887847222222
 41
2456561.616503576
 42
2456671.664836412
  1

 90
        0
  0
DICTIONARY
  5
77D
102
{ACAD_REACTORS
330
77C
102
}
330
77C
100
AcDbDictionary
281
     1
  0
DIMASSOC
  5
688
102
{ACAD_REACTORS
330
687
102
}
330
687
100
AcDbDimAssoc
330
679
 90
        3
 70
     0
 71
     0
  1
AcDbOsnapPointRef
 72
     1
331
333
 73
     0
 91
        0
 40
0.0
 10
0.0
 20
0.0
 30
2.000000000000000E+50
 75
     0
  1
AcDbOsnapPointRef
 72
     1
331
32F
 73
     0
 91
        0
 40
0.0
 10
0.0
 20
0.0
 30
2.000000000000000E+50
 75
     0
  0
DIMASSOC
  5
6C0
102
{ACAD_REACTORS
330
6BF
102
}
330
6BF
100
AcDbDimAssoc
330
6B1
 90
        3
 70
     0
 71
     0
  1
AcDbOsnapPointRef
 72
     1
331
2C8
 73
     0
 91
        0
 40
0.0
 10
0.0
 20
0.0
 30
2.000000000000000E+50
 75
     0
  1
AcDbOsnapPointRef
 72
     1
331
2B0
 73
     0
 91
        0
 40
0.0
 10
0.0
 20
0.0
 30
2.000000000000000E+50
 75
     0
  0
DIMASSOC
  5
6EE
102
{ACAD_REACTORS
330
6ED
102
}
330
6ED
100
AcDbDimAssoc
330
6DF
 90
        2
 70
     0
 71
     0
  1
AcDbOsnapPointRef
 72
    13
331
2B0
 73
     0
 91
        0
 40
0.0
 10
0.0
 20
0.0
 30
2.000000000000000E+50
 75
     0
  0
XRECORD
  5
D27
102
{ACAD_REACTORS
330
D26
102
}
330
D26
100
AcDbXrecord
280
     1
 40
1.570796326794896
  0
XRECORD
  5
D29
102
{ACAD_REACTORS
330
D26
102
}
330
D26
100
AcDbXrecord
280
     1
340
14
  0
XRECORD
  5
D2A
102
{ACAD_REACTORS
330
D26
102
}
330
D26
100
AcDbXrecord
280
     1
340
14
  0
XRECORD
  5
D28
102
{ACAD_REACTORS
330
D26
102
}
330
D26
100
AcDbXrecord
280
     1
340
14
  0
LAYOUT
  5
422
102
{ACAD_XDICTIONARY
360
D2D
102
}
102
{ACAD_REACTORS
330
1A
102
}
330
1A
100
AcDbPlotSettings
  1

  2
none_device
  4
ISO_A3_(420.00_x_297.00_MM)
  6

 40
0.0
 41
0.0
 42
0.0
 43
0.0
 44
420.0
 45
297.0
 46
0.0
 47
0.0
 48
0.0
 49
0.0
140
0.0
141
0.0
142
1.0
143
1.0
 70
     0
 72
     1
 73
     0
 74
     0
  7

 75
     0
147
1.0
148
0.0
149
0.0
100
AcDbLayout
  1
Layout1
 70
     1
 71
     1
 10
0.0
 20
0.0
 11
12.0
 21
9.0
 12
0.0
 22
0.0
 32
0.0
 14
1.000000000000000E+20
 24
1.000000000000000E+20
 34
1.000000000000000E+20
 15
-1.000000000000000E+20
 25
-1.000000000000000E+20
 35
-1.000000000000000E+20
146
0.0
 13
0.0
 23
0.0
 33
0.0
 16
1.0
 26
0.0
 36
0.0
 17
0.0
 27
1.0
 37
0.0
 76
     0
330
20C
  0
LAYOUT
  5
421
102
{ACAD_XDICTIONARY
360
D2B
102
}
102
{ACAD_REACTORS
330
1A
102
}
330
1A
100
AcDbPlotSettings
  1

  2
none_device
  4
ISO_A3_(420.00_x_297.00_MM)
  6

 40
0.0
 41
0.0
 42
0.0
 43
0.0
 44
420.0
 45
297.0
 46
0.0
 47
0.0
 48
0.0
 49
0.0
140
0.0
141
0.0
142
1.0
143
1.0
 70
  1024
 72
     1
 73
     0
 74
     0
  7

 75
     0
147
1.0
148
0.0
149
0.0
100
AcDbLayout
  1
Model
 70
     0
 71
     0
 10
0.0
 20
0.0
 11
420.0
 21
297.0
 12
0.0
 22
0.0
 32
0.0
 14
0.0
 24
0.0
 34
0.0
 15
0.0
 25
0.0
 35
0.0
146
0.0
 13
0.0
 23
0.0
 33
0.0
 16
1.0
 26
0.0
 36
0.0
 17
0.0
 27
1.0
 37
0.0
 76
     0
330
20B
331
1F4
  0
MATERIAL
  5
42F
102
{ACAD_XDICTIONARY
360
430
102
}
102
{ACAD_REACTORS
330
426
102
}
330
426
100
AcDbMaterial
  1
ByBlock
 72
     0
 43
0.0008202099737533
 43
0.0
 43
0.0
 43
0.0
 43
0.0
 43
0.0008202099737533
 43
0.0
 43
0.0
 43
0.0
 43
0.0
 43
1.0
 43
0.0
 43
0.0
 43
0.0
 43
0.0
 43
1.0
 77
     0
 47
0.0008202099737533
 47
0.0
 47
0.0
 47
0.0
 47
0.0
 47
0.0008202099737533
 47
0.0
 47
0.0
 47
0.0
 47
0.0
 47
1.0
 47
0.0
 47
0.0
 47
0.0
 47
0.0
 47
1.0
171
     0
 49
0.0008202099737533
 49
0.0
 49
0.0
 49
0.0
 49
0.0
 49
0.0008202099737533
 49
0.0
 49
0.0
 49
0.0
 49
0.0
 49
1.0
 49
0.0
 49
0.0
 49
0.0
 49
0.0
 49
1.0
175
     0
142
0.0008202099737533
142
0.0
142
0.0
142
0.0
142
0.0
142
0.0008202099737533
142
0.0
142
0.0
142
0.0
142
0.0
142
1.0
142
0.0
142
0.0
142
0.0
142
0.0
142
1.0
179
     0
144
0.0008202099737533
144
0.0
144
0.0
144
0.0
144
0.0
144
0.0008202099737533
144
0.0
144
0.0
144
0.0
144
0.0
144
1.0
144
0.0
144
0.0
144
0.0
144
0.0
144
1.0
147
0.0008202099737533
147
0.0
147
0.0
147
0.0
147
0.0
147
0.0008202099737533
147
0.0
147
0.0
147
0.0
147
0.0
147
1.0
147
0.0
147
0.0
147
0.0
147
0.0
147
1.0
  0
MATERIAL
  5
427
102
{ACAD_XDICTIONARY
360
428
102
}
102
{ACAD_REACTORS
330
426
102
}
330
426
100
AcDbMaterial
  1
ByLayer
 72
     0
 43
0.0008202099737533
 43
0.0
 43
0.0
 43
0.0
 43
0.0
 43
0.0008202099737533
 43
0.0
 43
0.0
 43
0.0
 43
0.0
 43
1.0
 43
0.0
 43
0.0
 43
0.0
 43
0.0
 43
1.0
 77
     0
 47
0.0008202099737533
 47
0.0
 47
0.0
 47
0.0
 47
0.0
 47
0.0008202099737533
 47
0.0
 47
0.0
 47
0.0
 47
0.0
 47
1.0
 47
0.0
 47
0.0
 47
0.0
 47
0.0
 47
1.0
171
     0
 49
0.0008202099737533
 49
0.0
 49
0.0
 49
0.0
 49
0.0
 49
0.0008202099737533
 49
0.0
 49
0.0
 49
0.0
 49
0.0
 49
1.0
 49
0.0
 49
0.0
 49
0.0
 49
0.0
 49
1.0
175
     0
142
0.0008202099737533
142
0.0
142
0.0
142
0.0
142
0.0
142
0.0008202099737533
142
0.0
142
0.0
142
0.0
142
0.0
142
1.0
142
0.0
142
0.0
142
0.0
142
0.0
142
1.0
179
     0
144
0.0008202099737533
144
0.0
144
0.0
144
0.0
144
0.0
144
0.0008202099737533
144
0.0
144
0.0
144
0.0
144
0.0
144
1.0
144
0.0
144
0.0
144
0.0
144
0.0
144
1.0
147
0.0008202099737533
147
0.0
147
0.0
147
0.0
147
0.0
147
0.0008202099737533
147
0.0
147
0.0
147
0.0
147
0.0
147
1.0
147
0.0
147
0.0
147
0.0
147
0.0
147
1.0
  0
MATERIAL
  5
437
102
{ACAD_XDICTIONARY
360
438
102
}
102
{ACAD_REACTORS
330
426
102
}
330
426
100
AcDbMaterial
  1
Global
 72
     0
 43
0.0008202099737533
 43
0.0
 43
0.0
 43
0.0
 43
0.0
 43
0.0008202099737533
 43
0.0
 43
0.0
 43
0.0
 43
0.0
 43
1.0
 43
0.0
 43
0.0
 43
0.0
 43
0.0
 43
1.0
 77
     0
 47
0.0008202099737533
 47
0.0
 47
0.0
 47
0.0
 47
0.0
 47
0.0008202099737533
 47
0.0
 47
0.0
 47
0.0
 47
0.0
 47
1.0
 47
0.0
 47
0.0
 47
0.0
 47
0.0
 47
1.0
171
     0
 49
0.0008202099737533
 49
0.0
 49
0.0
 49
0.0
 49
0.0
 49
0.0008202099737533
 49
0.0
 49
0.0
 49
0.0
 49
0.0
 49
1.0
 49
0.0
 49
0.0
 49
0.0
 49
0.0
 49
1.0
175
     0
142
0.0008202099737533
142
0.0
142
0.0
142
0.0
142
0.0
142
0.0008202099737533
142
0.0
142
0.0
142
0.0
142
0.0
142
1.0
142
0.0
142
0.0
142
0.0
142
0.0
142
1.0
179
     0
144
0.0008202099737533
144
0.0
144
0.0
144
0.0
144
0.0
144
0.0008202099737533
144
0.0
144
0.0
144
0.0
144
0.0
144
1.0
144
0.0
144
0.0
144
0.0
144
0.0
144
1.0
147
0.0008202099737533
147
0.0
147
0.0
147
0.0
147
0.0
147
0.0008202099737533
147
0.0
147
0.0
147
0.0
147
0.0
147
1.0
147
0.0
147
0.0
147
0.0
147
0.0
147
1.0
  0
MLEADERSTYLE
  5
469
102
{ACAD_REACTORS
330
468
102
}
330
468
100
AcDbMLeaderStyle
170
     2
171
     1
172
     0
 90
        2
 40
0.0
 41
0.0
173
     1
 91
-1056964608
340
14
 92
       -2
290
     1
 42
2.0
291
     1
 43
0.36
  3
Standard
 44
4.0
300

342
11
174
     1
178
     6
175
     1
176
     0
 93
-1056964608
 45
4.0
292
     0
297
     0
 46
4.0
 94
-1056964608
 47
1.0
 49
1.0
140
1.0
293
     1
141
0.0
294
     1
177
     0
142
1.0
295
     0
296
     0
143
0.125
1001
ACAD_MLEADERVER
1070
     2
  0
MLINESTYLE
  5
18
102
{ACAD_REACTORS
330
17
102
}
330
17
100
AcDbMlineStyle
  2
STANDARD
 70
     0
  3

 62
   256
 51
90.0
 52
90.0
 71
     2
 49
0.5
 62
   256
  6
BYLAYER
 49
-0.5
 62
   256
  6
BYLAYER
  0
ACDBPLACEHOLDER
  5
F
102
{ACAD_REACTORS
330
E
102
}
330
E
  0
SCALE
  5
457
102
{ACAD_REACTORS
330
456
102
}
330
456
100
AcDbScale
 70
     0
300
1:1
140
1.0
141
1.0
290
     1
  0
SCALE
  5
458
102
{ACAD_REACTORS
330
456
102
}
330
456
100
AcDbScale
 70
     0
300
1:2
140
1.0
141
2.0
290
     0
  0
SCALE
  5
459
102
{ACAD_REACTORS
330
456
102
}
330
456
100
AcDbScale
 70
     0
300
1:4
140
1.0
141
4.0
290
     0
  0
SCALE
  5
45A
102
{ACAD_REACTORS
330
456
102
}
330
456
100
AcDbScale
 70
     0
300
1:5
140
1.0
141
5.0
290
     0
  0
SCALE
  5
45B
102
{ACAD_REACTORS
330
456
102
}
330
456
100
AcDbScale
 70
     0
300
1:8
140
1.0
141
8.0
290
     0
  0
SCALE
  5
45C
102
{ACAD_REACTORS
330
456
102
}
330
456
100
AcDbScale
 70
     0
300
1:10
140
1.0
141
10.0
290
     0
  0
SCALE
  5
45D
102
{ACAD_REACTORS
330
456
102
}
330
456
100
AcDbScale
 70
     0
300
1:16
140
1.0
141
16.0
290
     0
  0
SCALE
  5
45E
102
{ACAD_REACTORS
330
456
102
}
330
456
100
AcDbScale
 70
     0
300
1:20
140
1.0
141
20.0
290
     0
  0
SCALE
  5
45F
102
{ACAD_REACTORS
330
456
102
}
330
456
100
AcDbScale
 70
     0
300
1:30
140
1.0
141
30.0
290
     0
  0
SCALE
  5
460
102
{ACAD_REACTORS
330
456
102
}
330
456
100
AcDbScale
 70
     0
300
1:40
140
1.0
141
40.0
290
     0
  0
SCALE
  5
461
102
{ACAD_REACTORS
330
456
102
}
330
456
100
AcDbScale
 70
     0
300
1:50
140
1.0
141
50.0
290
     0
  0
SCALE
  5
462
102
{ACAD_REACTORS
330
456
102
}
330
456
100
AcDbScale
 70
     0
300
1:100
140
1.0
141
100.0
290
     0
  0
SCALE
  5
463
102
{ACAD_REACTORS
330
456
102
}
330
456
100
AcDbScale
 70
     0
300
2:1
140
2.0
141
1.0
290
     0
  0
SCALE
  5
464
102
{ACAD_REACTORS
330
456
102
}
330
456
100
AcDbScale
 70
     0
300
4:1
140
4.0
141
1.0
290
     0
  0
SCALE
  5
465
102
{ACAD_REACTORS
330
456
102
}
330
456
100
AcDbScale
 70
     0
300
8:1
140
8.0
141
1.0
290
     0
  0
SCALE
  5
466
102
{ACAD_REACTORS
330
456
102
}
330
456
100
AcDbScale
 70
     0
300
10:1
140
10.0
141
1.0
290
     0
  0
SCALE
  5
467
102
{ACAD_REACTORS
330
456
102
}
330
456
100
AcDbScale
 70
     0
300
100:1
140
100.0
141
1.0
290
     0
  0
TABLESTYLE
  5
455
102
{ACAD_XDICTIONARY
360
5CA
102
}
102
{ACAD_REACTORS
330
454
102
}
330
454
100
AcDbTableStyle
  3
Standard
 70
     0
 71
     0
 40
1.5
 41
1.5
280
     0
281
     0
  7
STANDARD
140
4.5
170
     2
 62
     0
 63
     7
283
     0
274
    -2
284
     1
 64
     0
275
    -2
285
     1
 65
     0
276
    -2
286
     1
 66
     0
277
    -2
287
     1
 67
     0
278
    -2
288
     1
 68
     0
279
    -2
289
     1
 69
     0
  7
STANDARD
140
6.0
170
     5
 62
     0
 63
     7
283
     0
274
    -2
284
     1
 64
     0
275
    -2
285
     1
 65
     0
276
    -2
286
     1
 66
     0
277
    -2
287
     1
 67
     0
278
    -2
288
     1
 68
     0
279
    -2
289
     1
 69
     0
  7
STANDARD
140
4.5
170
     5
 62
     0
 63
     7
283
     0
274
    -2
284
     1
 64
     0
275
    -2
285
     1
 65
     0
276
    -2
286
     1
 66
     0
277
    -2
287
     1
 67
     0
278
    -2
288
     1
 68
     0
279
    -2
289
     1
 69
     0
  0
VISUALSTYLE
  5
445
102
{ACAD_XDICTIONARY
360
D39
102
}
102
{ACAD_REACTORS
330
43F
102
}
330
43F
100
AcDbVisualStyle
  2

 70
     4
 71
     0
 72
     2
 73
     0
 90
        0
 40
-0.6
 41
-30.0
 62
     5
 63
     7
 74
     1
 91
        4
 64
     7
 65
   257
 75
     1
175
     1
 42
1.0
 92
        0
 66
   257
 43
1.0
 76
     1
 77
     6
 78
     2
 67
     7
 79
     5
170
     0
171
     0
290
     0
174
     0
 93
        1
 44
0.0
173
     0
291
     0
 45
0.0
1001
ACAD
1000
AcDbSavedByObjectVersion
1070
     0
  0
VISUALSTYLE
  5
447
102
{ACAD_XDICTIONARY
360
D3D
102
}
102
{ACAD_REACTORS
330
43F
102
}
330
43F
100
AcDbVisualStyle
  2

 70
     6
 71
     1
 72
     2
 73
     2
 90
        0
 40
-0.6
 41
-30.0
 62
     5
 63
     7
 74
     2
 91
        2
 64
     7
 65
   257
 75
     2
175
     1
 42
179.0
 92
        0
 66
   257
 43
1.0
 76
     1
 77
     6
 78
     2
 67
     7
 79
     3
170
     0
171
     0
290
     0
174
     0
 93
        1
 44
0.0
173
     0
291
     0
 45
0.0
1001
ACAD
1000
AcDbSavedByObjectVersion
1070
     0
  0
VISUALSTYLE
  5
446
102
{ACAD_XDICTIONARY
360
D3B
102
}
102
{ACAD_REACTORS
330
43F
102
}
330
43F
100
AcDbVisualStyle
  2

 70
     5
 71
     0
 72
     2
 73
     0
 90
        0
 40
-0.6
 41
-30.0
 62
     5
 63
     7
 74
     1
 91
        4
 64
     7
 65
   257
 75
     1
175
     1
 42
1.0
 92
        0
 66
   257
 43
1.0
 76
     1
 77
     6
 78
     2
 67
     7
 79
     5
170
     0
171
     0
290
     0
174
     0
 93
        1
 44
0.0
173
     0
291
     0
 45
0.0
1001
ACAD
1000
AcDbSavedByObjectVersion
1070
     0
  0
VISUALSTYLE
  5
444
102
{ACAD_XDICTIONARY
360
D37
102
}
102
{ACAD_REACTORS
330
43F
102
}
330
43F
100
AcDbVisualStyle
  2

 70
     7
 71
     1
 72
     0
 73
     1
 90
        0
 40
-0.6
 41
-30.0
 62
     5
 63
     7
 74
     0
 91
        4
 64
     7
 65
   257
 75
     1
175
     1
 42
1.0
 92
        8
 66
     7
 43
1.0
 76
     1
 77
     6
 78
     2
 67
     7
 79
     5
170
     0
171
     0
290
     0
174
     0
 93
        1
 44
0.0
173
     0
291
     1
 45
0.0
1001
ACAD
1000
AcDbSavedByObjectVersion
1070
     0
  0
VISUALSTYLE
  5
44B
102
{ACAD_XDICTIONARY
360
D45
102
}
102
{ACAD_REACTORS
330
43F
102
}
330
43F
100
AcDbVisualStyle
  2

 70
    12
 71
     2
 72
     2
 73
     0
 90
        0
 40
-0.6
 41
-30.0
 62
     5
 63
     7
 74
     1
 91
        4
 64
     7
 65
   257
 75
     1
175
     1
 42
1.0
 92
        8
 66
     7
 43
1.0
 76
     1
 77
     6
 78
     2
 67
     7
 79
     5
170
     0
171
     0
290
     0
174
     0
 93
        1
 44
50.0
173
     0
291
     1
 45
0.0
1001
ACAD
1000
AcDbSavedByObjectVersion
1070
     0
  0
VISUALSTYLE
  5
44F
102
{ACAD_XDICTIONARY
360
D4D
102
}
102
{ACAD_REACTORS
330
43F
102
}
330
43F
100
AcDbVisualStyle
  2

 70
    16
 71
     2
 72
     2
 73
     3
 90
        0
 40
-0.6
 41
-30.0
 62
     5
 63
     8
 74
     1
 91
        4
 64
     7
 65
   257
 75
     1
175
     1
 42
1.0
 92
        8
 66
     8
 43
1.0
 76
     1
 77
     6
 78
     2
 67
     7
 79
     5
170
     0
171
     0
290
     0
174
     0
 93
        1
 44
0.0
173
     0
291
     1
 45
0.0
1001
ACAD
1000
AcDbSavedByObjectVersion
1070
     0
  0
VISUALSTYLE
  5
448
102
{ACAD_XDICTIONARY
360
D3F
102
}
102
{ACAD_REACTORS
330
43F
102
}
330
43F
100
AcDbVisualStyle
  2

 70
     9
 71
     3
 72
     2
 73
     0
 90
        0
 40
-0.6
 41
-30.0
 62
     5
 63
     7
 74
     2
 91
        2
 64
     7
 65
   257
 75
     1
175
     1
 42
179.0
 92
        8
 66
     7
 43
1.0
 76
     1
 77
     6
 78
     2
 67
     7
 79
     3
170
     0
171
     0
290
     0
174
     0
 93
        1
 44
0.0
173
     0
291
     0
 45
0.0
1001
ACAD
1000
AcDbSavedByObjectVersion
1070
     0
  0
VISUALSTYLE
  5
44A
102
{ACAD_XDICTIONARY
360
D43
102
}
102
{ACAD_REACTORS
330
43F
102
}
330
43F
100
AcDbVisualStyle
  2

 70
    11
 71
     2
 72
     2
 73
     0
 90
        0
 40
-0.6
 41
-30.0
 62
     5
 63
     7
 74
     1
 91
        4
 64
     7
 65
   257
 75
     1
175
     1
 42
1.0
 92
        8
 66
     7
 43
1.0
 76
     1
 77
     6
 78
     2
 67
     7
 79
     5
170
     0
171
     0
290
     0
174
     0
 93
        1
 44
-50.0
173
     0
291
     1
 45
0.0
1001
ACAD
1000
AcDbSavedByObjectVersion
1070
     0
  0
VISUALSTYLE
  5
452
102
{ACAD_XDICTIONARY
360
D53
102
}
102
{ACAD_REACTORS
330
43F
102
}
330
43F
100
AcDbVisualStyle
  2

 70
    22
 71
     2
 72
     2
 73
     0
 90
        0
 40
-0.6
 41
-30.0
 62
     5
 63
     7
 74
     1
 91
        4
 64
     7
 65
   257
 75
     1
175
     1
 42
1.0
 92
        8
 66
     7
 43
1.0
 76
     1
 77
     6
 78
     2
 67
     7
 79
     5
170
     0
171
     0
290
     0
174
     0
 93
        1
 44
0.0
173
     0
291
     1
 45
0.0
1001
ACAD
1000
AcDbSavedByObjectVersion
1070
     0
  0
VISUALSTYLE
  5
44E
102
{ACAD_XDICTIONARY
360
D4B
102
}
102
{ACAD_REACTORS
330
43F
102
}
330
43F
100
AcDbVisualStyle
  2

 70
    15
 71
     2
 72
     2
 73
     0
 90
        0
 40
-0.6
 41
-30.0
 62
     5
 63
     7
 74
     1
 91
        4
 64
     7
 65
   257
 75
     1
175
     1
 42
1.0
 92
        8
 66
     7
 43
1.0
 76
     1
 77
     6
 78
     2
 67
     7
 79
     5
170
     0
171
     0
290
     0
174
     0
 93
        1
 44
0.0
173
     0
291
     1
 45
0.0
1001
ACAD
1000
AcDbSavedByObjectVersion
1070
     0
  0
VISUALSTYLE
  5
440
102
{ACAD_XDICTIONARY
360
D2F
102
}
102
{ACAD_REACTORS
330
43F
102
}
330
43F
100
AcDbVisualStyle
  2

 70
     0
 71
     2
 72
     1
 73
     1
 90
        2
 40
-0.6
 41
30.0
 62
     5
 63
     7
 74
     0
 91
        4
 64
     7
 65
   257
 75
     1
175
     1
 42
1.0
 92
        8
 66
     7
 43
1.0
 76
     1
 77
     6
 78
     2
 67
     7
 79
     5
170
     0
171
     0
290
     0
174
     0
 93
       13
 44
0.0
173
     0
291
     1
 45
0.0
1001
ACAD
1000
AcDbSavedByObjectVersion
1070
     0
  0
VISUALSTYLE
  5
441
102
{ACAD_XDICTIONARY
360
D31
102
}
102
{ACAD_REACTORS
330
43F
102
}
330
43F
100
AcDbVisualStyle
  2

 70
     1
 71
     2
 72
     1
 73
     1
 90
        2
 40
-0.6
 41
30.0
 62
     5
 63
     7
 74
     1
 91
        4
 64
     7
 65
   257
 75
     1
175
     1
 42
1.0
 92
        0
 66
   257
 43
1.0
 76
     1
 77
     6
 78
     2
 67
     7
 79
     5
170
     0
171
     0
290
     0
174
     0
 93
       13
 44
0.0
173
     0
291
     1
 45
0.0
1001
ACAD
1000
AcDbSavedByObjectVersion
1070
     0
  0
VISUALSTYLE
  5
442
102
{ACAD_XDICTIONARY
360
D33
102
}
102
{ACAD_REACTORS
330
43F
102
}
330
43F
100
AcDbVisualStyle
  2

 70
     2
 71
     2
 72
     2
 73
     1
 90
        2
 40
-0.6
 41
30.0
 62
     5
 63
     7
 74
     0
 91
        4
 64
     7
 65
   257
 75
     1
175
     1
 42
1.0
 92
        0
 66
     7
 43
1.0
 76
     1
 77
     6
 78
     2
 67
     7
 79
     5
170
     0
171
     0
290
     0
174
     0
 93
       13
 44
0.0
173
     0
291
     1
 45
0.0
1001
ACAD
1000
AcDbSavedByObjectVersion
1070
     0
  0
VISUALSTYLE
  5
443
102
{ACAD_XDICTIONARY
360
D35
102
}
102
{ACAD_REACTORS
330
43F
102
}
330
43F
100
AcDbVisualStyle
  2

 70
     3
 71
     2
 72
     2
 73
     1
 90
        2
 40
-0.6
 41
30.0
 62
     5
 63
     7
 74
     1
 91
        4
 64
     7
 65
   257
 75
     1
175
     1
 42
1.0
 92
        0
 66
   257
 43
1.0
 76
     1
 77
     6
 78
     2
 67
     7
 79
     5
170
     0
171
     0
290
     0
174
     0
 93
       13
 44
0.0
173
     0
291
     1
 45
0.0
1001
ACAD
1000
AcDbSavedByObjectVersion
1070
     0
  0
VISUALSTYLE
  5
450
102
{ACAD_XDICTIONARY
360
D4F
102
}
102
{ACAD_REACTORS
330
43F
102
}
330
43F
100
AcDbVisualStyle
  2

 70
    20
 71
     2
 72
     2
 73
     0
 90
        0
 40
-0.6
 41
-30.0
 62
     5
 63
     7
 74
     1
 91
        4
 64
     7
 65
   257
 75
     1
175
     1
 42
1.0
 92
       10
 66
     7
 43
1.0
 76
     1
 77
     6
 78
     2
 67
     7
 79
     5
170
     0
171
     0
290
     0
174
     0
 93
        1
 44
0.0
173
     0
291
     1
 45
0.0
1001
ACAD
1000
AcDbSavedByObjectVersion
1070
     0
  0
VISUALSTYLE
  5
44D
102
{ACAD_XDICTIONARY
360
D49
102
}
102
{ACAD_REACTORS
330
43F
102
}
330
43F
100
AcDbVisualStyle
  2

 70
    14
 71
     2
 72
     2
 73
     0
 90
        0
 40
-0.6
 41
-30.0
 62
     5
 63
     7
 74
     1
 91
        4
 64
     7
 65
   257
 75
     7
175
     7
 42
1.0
 92
        8
 66
     7
 43
1.0
 76
     1
 77
     6
 78
     2
 67
     7
 79
     5
170
     0
171
     0
290
     0
174
     0
 93
        1
 44
0.0
173
     0
291
     1
 45
0.0
1001
ACAD
1000
AcDbSavedByObjectVersion
1070
     0
  0
VISUALSTYLE
  5
451
102
{ACAD_XDICTIONARY
360
D51
102
}
102
{ACAD_REACTORS
330
43F
102
}
330
43F
100
AcDbVisualStyle
  2

 70
    21
 71
     2
 72
     2
 73
     0
 90
        0
 40
-0.6
 41
-30.0
 62
     5
 63
     7
 74
     1
 91
        4
 64
     7
 65
   257
 75
     1
175
     1
 42
1.0
 92
        9
 66
     7
 43
1.0
 76
     1
 77
     6
 78
     2
 67
     7
 79
     5
170
     0
171
     0
290
     0
174
     0
 93
        1
 44
0.0
173
     0
291
     1
 45
0.0
1001
ACAD
1000
AcDbSavedByObjectVersion
1070
     0
  0
VISUALSTYLE
  5
449
102
{ACAD_XDICTIONARY
360
D41
102
}
102
{ACAD_REACTORS
330
43F
102
}
330
43F
100
AcDbVisualStyle
  2

 70
     8
 71
     2
 72
     2
 73
     0
 90
        0
 40
-0.6
 41
-30.0
 62
     5
 63
     7
 74
     1
 91
        0
 64
     7
 65
   257
 75
     1
175
     1
 42
1.0
 92
        8
 66
     8
 43
1.0
 76
     1
 77
     6
 78
     2
 67
     7
 79
     5
170
     0
171
     0
290
     0
174
     0
 93
       13
 44
0.0
173
     0
291
     0
 45
0.0
1001
ACAD
1000
AcDbSavedByObjectVersion
1070
     0
  0
VISUALSTYLE
  5
44C
102
{ACAD_XDICTIONARY
360
D47
102
}
102
{ACAD_REACTORS
330
43F
102
}
330
43F
100
AcDbVisualStyle
  2

 70
    13
 71
     2
 72
     2
 73
     0
 90
        0
 40
-0.6
 41
-30.0
 62
     5
 63
     7
 74
     1
 91
        4
 64
     7
 65
   257
 75
     1
175
     1
 42
1.0
 92
       12
 66
     7
 43
1.0
 76
     1
 77
     6
 78
     2
 67
     7
 79
     5
170
     0
171
     0
290
     0
174
     0
 93
        1
 44
0.0
173
     0
291
     1
 45
0.0
1001
ACAD
1000
AcDbSavedByObjectVersion
1070
     0
  0
DICTIONARYVAR
  5
5C1
102
{ACAD_REACTORS
330
5BD
102
}
330
5BD
100
DictionaryVariables
280
     0
  1
1:1
  0
DICTIONARYVAR
  5
5BF
102
{ACAD_REACTORS
330
5BD
102
}
330
5BD
100
DictionaryVariables
280
     0
  1
STANDARD
  0
DICTIONARYVAR
  5
5BE
102
{ACAD_REACTORS
330
5BD
102
}
330
5BD
100
DictionaryVariables
280
     0
  1
STANDARD
  0
DICTIONARYVAR
  5
5C8
102
{ACAD_REACTORS
330
5BD
102
}
330
5BD
100
DictionaryVariables
280
     0
  1
2
  0
DICTIONARYVAR
  5
5C7
102
{ACAD_REACTORS
330
5BD
102
}
330
5BD
100
DictionaryVariables
280
     0
  1
1
  0
DICTIONARYVAR
  5
5C6
102
{ACAD_REACTORS
330
5BD
102
}
330
5BD
100
DictionaryVariables
280
     0
  1
0
  0
DICTIONARYVAR
  5
5C3
102
{ACAD_REACTORS
330
5BD
102
}
330
5BD
100
DictionaryVariables
280
     0
  1
0
  0
DICTIONARYVAR
  5
5C4
102
{ACAD_REACTORS
330
5BD
102
}
330
5BD
100
DictionaryVariables
280
     0
  1
0
  0
DICTIONARYVAR
  5
5C2
102
{ACAD_REACTORS
330
5BD
102
}
330
5BD
100
DictionaryVariables
280
     0
  1
2
  0
DICTIONARYVAR
  5
5C0
102
{ACAD_REACTORS
330
5BD
102
}
330
5BD
100
DictionaryVariables
280
     0
  1
1
  0
DICTIONARYVAR
  5
5C5
102
{ACAD_REACTORS
330
5BD
102
}
330
5BD
100
DictionaryVariables
280
     0
  1
127
  0
DICTIONARYVAR
  5
D22
102
{ACAD_REACTORS
330
5BD
102
}
330
5BD
100
DictionaryVariables
280
     0
  1
2
  0
DICTIONARY
  5
4CE
102
{ACAD_REACTORS
330
4C2
102
}
330
4C2
100
AcDbDictionary
281
     1
  0
DICTIONARY
  5
D2D
330
422
100
AcDbDictionary
280
     1
281
     1
  3
ACAD_XREC_ROUNDTRIP
360
D2E
  0
DICTIONARY
  5
D2B
330
421
100
AcDbDictionary
280
     1
281
     1
  3
ACAD_XREC_ROUNDTRIP
360
D2C
  0
DICTIONARY
  5
430
330
42F
100
AcDbDictionary
280
     1
281
     1
  3
ACAD_XREC_ROUNDTRIP
360
5D3
  3
BUMPTILE
360
432
  3
DIFFUSETILE
360
431
  3
OPACITYTILE
360
435
  3
REFLECTIONTILE
360
434
  3
REFRACTIONTILE
360
436
  3
SPECULARTILE
360
433
  0
DICTIONARY
  5
428
330
427
100
AcDbDictionary
280
     1
281
     1
  3
ACAD_XREC_ROUNDTRIP
360
5D2
  3
BUMPTILE
360
42A
  3
DIFFUSETILE
360
429
  3
OPACITYTILE
360
42D
  3
REFLECTIONTILE
360
42C
  3
REFRACTIONTILE
360
42E
  3
SPECULARTILE
360
42B
  0
DICTIONARY
  5
438
330
437
100
AcDbDictionary
280
     1
281
     1
  3
ACAD_XREC_ROUNDTRIP
360
5D4
  3
BUMPTILE
360
43A
  3
DIFFUSETILE
360
439
  3
OPACITYTILE
360
43D
  3
REFLECTIONTILE
360
43C
  3
REFRACTIONTILE
360
43E
  3
SPECULARTILE
360
43B
  0
DICTIONARY
  5
5CA
330
455
100
AcDbDictionary
280
     1
281
     1
  3
ACAD_ROUNDTRIP_2008_TABLESTYLE_CELLSTYLEMAP
360
D23
  3
ACAD_XREC_ROUNDTRIP
360
D55
  0
DICTIONARY
  5
D39
330
445
100
AcDbDictionary
280
     1
281
     1
  3
ACAD_XREC_ROUNDTRIP
360
D3A
  0
DICTIONARY
  5
D3D
330
447
100
AcDbDictionary
280
     1
281
     1
  3
ACAD_XREC_ROUNDTRIP
360
D3E
  0
DICTIONARY
  5
D3B
330
446
100
AcDbDictionary
280
     1
281
     1
  3
ACAD_XREC_ROUNDTRIP
360
D3C
  0
DICTIONARY
  5
D37
330
444
100
AcDbDictionary
280
     1
281
     1
  3
ACAD_XREC_ROUNDTRIP
360
D38
  0
DICTIONARY
  5
D45
330
44B
100
AcDbDictionary
280
     1
281
     1
  3
ACAD_XREC_ROUNDTRIP
360
D46
  0
DICTIONARY
  5
D4D
330
44F
100
AcDbDictionary
280
     1
281
     1
  3
ACAD_XREC_ROUNDTRIP
360
D4E
  0
DICTIONARY
  5
D3F
330
448
100
AcDbDictionary
280
     1
281
     1
  3
ACAD_XREC_ROUNDTRIP
360
D40
  0
DICTIONARY
  5
D43
330
44A
100
AcDbDictionary
280
     1
281
     1
  3
ACAD_XREC_ROUNDTRIP
360
D44
  0
DICTIONARY
  5
D53
330
452
100
AcDbDictionary
280
     1
281
     1
  3
ACAD_XREC_ROUNDTRIP
360
D54
  0
DICTIONARY
  5
D4B
330
44E
100
AcDbDictionary
280
     1
281
     1
  3
ACAD_XREC_ROUNDTRIP
360
D4C
  0
DICTIONARY
  5
D2F
330
440
100
AcDbDictionary
280
     1
281
     1
  3
ACAD_XREC_ROUNDTRIP
360
D30
  0
DICTIONARY
  5
D31
330
441
100
AcDbDictionary
280
     1
281
     1
  3
ACAD_XREC_ROUNDTRIP
360
D32
  0
DICTIONARY
  5
D33
330
442
100
AcDbDictionary
280
     1
281
     1
  3
ACAD_XREC_ROUNDTRIP
360
D34
  0
DICTIONARY
  5
D35
330
443
100
AcDbDictionary
280
     1
281
     1
  3
ACAD_XREC_ROUNDTRIP
360
D36
  0
DICTIONARY
  5
D4F
330
450
100
AcDbDictionary
280
     1
281
     1
  3
ACAD_XREC_ROUNDTRIP
360
D50
  0
DICTIONARY
  5
D49
330
44D
100
AcDbDictionary
280
     1
281
     1
  3
ACAD_XREC_ROUNDTRIP
360
D4A
  0
DICTIONARY
  5
D51
330
451
100
AcDbDictionary
280
     1
281
     1
  3
ACAD_XREC_ROUNDTRIP
360
D52
  0
DICTIONARY
  5
D41
330
449
100
AcDbDictionary
280
     1
281
     1
  3
ACAD_XREC_ROUNDTRIP
360
D42
  0
DICTIONARY
  5
D47
330
44C
100
AcDbDictionary
280
     1
281
     1
  3
ACAD_XREC_ROUNDTRIP
360
D48
  0
XRECORD
  5
D2E
102
{ACAD_REACTORS
330
D2D
102
}
330
D2D
100
AcDbXrecord
280
     1
102
SHADEPLOT
 70
     0
102
SHADEPLOTRESLEVEL
 70
     2
102
SHADEPLOTCUSTOMDPI
 70
   300
  0
XRECORD
  5
D2C
102
{ACAD_REACTORS
330
D2B
102
}
330
D2B
100
AcDbXrecord
280
     1
102
SHADEPLOT
 70
     0
102
SHADEPLOTRESLEVEL
 70
     2
102
SHADEPLOTCUSTOMDPI
 70
   300
  0
XRECORD
  5
5D3
102
{ACAD_REACTORS
330
430
102
}
330
430
100
AcDbXrecord
280
     1
102
MATERIAL
148
0.0
149
0.0
149
0.0
 93
        0
 94
      127
282
     0
 72
     0
 77
     0
171
     0
175
     0
179
     0
273
     0
  0
XRECORD
  5
432
102
{ACAD_REACTORS
330
430
102
}
330
430
100
AcDbXrecord
280
     1
270
     1
271
     1
  0
XRECORD
  5
431
102
{ACAD_REACTORS
330
430
102
}
330
430
100
AcDbXrecord
280
     1
270
     1
271
     1
  0
XRECORD
  5
435
102
{ACAD_REACTORS
330
430
102
}
330
430
100
AcDbXrecord
280
     1
270
     1
271
     1
  0
XRECORD
  5
434
102
{ACAD_REACTORS
330
430
102
}
330
430
100
AcDbXrecord
280
     1
270
     1
271
     1
  0
XRECORD
  5
436
102
{ACAD_REACTORS
330
430
102
}
330
430
100
AcDbXrecord
280
     1
270
     1
271
     1
  0
XRECORD
  5
433
102
{ACAD_REACTORS
330
430
102
}
330
430
100
AcDbXrecord
280
     1
270
     1
271
     1
  0
XRECORD
  5
5D2
102
{ACAD_REACTORS
330
428
102
}
330
428
100
AcDbXrecord
280
     1
102
MATERIAL
148
0.0
149
0.0
149
0.0
 93
        0
 94
      127
282
     0
 72
     0
 77
     0
171
     0
175
     0
179
     0
273
     0
  0
XRECORD
  5
42A
102
{ACAD_REACTORS
330
428
102
}
330
428
100
AcDbXrecord
280
     1
270
     1
271
     1
  0
XRECORD
  5
429
102
{ACAD_REACTORS
330
428
102
}
330
428
100
AcDbXrecord
280
     1
270
     1
271
     1
  0
XRECORD
  5
42D
102
{ACAD_REACTORS
330
428
102
}
330
428
100
AcDbXrecord
280
     1
270
     1
271
     1
  0
XRECORD
  5
42C
102
{ACAD_REACTORS
330
428
102
}
330
428
100
AcDbXrecord
280
     1
270
     1
271
     1
  0
XRECORD
  5
42E
102
{ACAD_REACTORS
330
428
102
}
330
428
100
AcDbXrecord
280
     1
270
     1
271
     1
  0
XRECORD
  5
42B
102
{ACAD_REACTORS
330
428
102
}
330
428
100
AcDbXrecord
280
     1
270
     1
271
     1
  0
XRECORD
  5
5D4
102
{ACAD_REACTORS
330
438
102
}
330
438
100
AcDbXrecord
280
     1
102
MATERIAL
148
0.0
149
0.0
149
0.0
 93
        0
 94
      127
282
     0
 72
     0
 77
     0
171
     0
175
     0
179
     0
273
     0
  0
XRECORD
  5
43A
102
{ACAD_REACTORS
330
438
102
}
330
438
100
AcDbXrecord
280
     1
270
     1
271
     1
  0
XRECORD
  5
439
102
{ACAD_REACTORS
330
438
102
}
330
438
100
AcDbXrecord
280
     1
270
     1
271
     1
  0
XRECORD
  5
43D
102
{ACAD_REACTORS
330
438
102
}
330
438
100
AcDbXrecord
280
     1
270
     1
271
     1
  0
XRECORD
  5
43C
102
{ACAD_REACTORS
330
438
102
}
330
438
100
AcDbXrecord
280
     1
270
     1
271
     1
  0
XRECORD
  5
43E
102
{ACAD_REACTORS
330
438
102
}
330
438
100
AcDbXrecord
280
     1
270
     1
271
     1
  0
XRECORD
  5
43B
102
{ACAD_REACTORS
330
438
102
}
330
438
100
AcDbXrecord
280
     1
270
     1
271
     1
  0
CELLSTYLEMAP
  5
D23
102
{ACAD_REACTORS
330
5CA
102
}
330
5CA
100
AcDbCellStyleMap
 90
        3
300
CELLSTYLE
  1
TABLEFORMAT_BEGIN
 90
        5
170
     1
 91
        0
 92
    32768
 62
   257
 93
        1
300
CONTENTFORMAT
  1
CONTENTFORMAT_BEGIN
 90
        0
 91
        0
 92
      512
 93
        0
300

 40
0.0
140
1.0
 94
        5
 62
     0
340
11
144
6.0
309
CONTENTFORMAT_END
171
     1
301
MARGIN
  1
CELLMARGIN_BEGIN
 40
1.5
 40
1.5
 40
1.5
 40
1.5
 40
0.18
 40
0.18
309
CELLMARGIN_END
 94
        6
 95
        1
302
GRIDFORMAT
  1
GRIDFORMAT_BEGIN
 90
        0
 91
        1
 62
     0
 92
       -2
340
0
 93
        0
 40
1.125
309
GRIDFORMAT_END
 95
        2
302
GRIDFORMAT
  1
GRIDFORMAT_BEGIN
 90
        0
 91
        1
 62
     0
 92
       -2
340
0
 93
        0
 40
1.125
309
GRIDFORMAT_END
 95
        4
302
GRIDFORMAT
  1
GRIDFORMAT_BEGIN
 90
        0
 91
        1
 62
     0
 92
       -2
340
0
 93
        0
 40
1.125
309
GRIDFORMAT_END
 95
        8
302
GRIDFORMAT
  1
GRIDFORMAT_BEGIN
 90
        0
 91
        1
 62
     0
 92
       -2
340
0
 93
        0
 40
1.125
309
GRIDFORMAT_END
 95
       16
302
GRIDFORMAT
  1
GRIDFORMAT_BEGIN
 90
        0
 91
        1
 62
     0
 92
       -2
340
0
 93
        0
 40
1.125
309
GRIDFORMAT_END
 95
       32
302
GRIDFORMAT
  1
GRIDFORMAT_BEGIN
 90
        0
 91
        1
 62
     0
 92
       -2
340
0
 93
        0
 40
1.125
309
GRIDFORMAT_END
309
TABLEFORMAT_END
  1
CELLSTYLE_BEGIN
 90
        1
 91
        1
300
_TITLE
309
CELLSTYLE_END
300
CELLSTYLE
  1
TABLEFORMAT_BEGIN
 90
        5
170
     1
 91
        0
 92
        0
 62
   257
 93
        1
300
CONTENTFORMAT
  1
CONTENTFORMAT_BEGIN
 90
        0
 91
        0
 92
      512
 93
        0
300

 40
0.0
140
1.0
 94
        5
 62
     0
340
11
144
4.5
309
CONTENTFORMAT_END
171
     1
301
MARGIN
  1
CELLMARGIN_BEGIN
 40
1.5
 40
1.5
 40
1.5
 40
1.5
 40
0.18
 40
0.18
309
CELLMARGIN_END
 94
        6
 95
        1
302
GRIDFORMAT
  1
GRIDFORMAT_BEGIN
 90
        0
 91
        1
 62
     0
 92
       -2
340
0
 93
        0
 40
1.125
309
GRIDFORMAT_END
 95
        2
302
GRIDFORMAT
  1
GRIDFORMAT_BEGIN
 90
        0
 91
        1
 62
     0
 92
       -2
340
0
 93
        0
 40
1.125
309
GRIDFORMAT_END
 95
        4
302
GRIDFORMAT
  1
GRIDFORMAT_BEGIN
 90
        0
 91
        1
 62
     0
 92
       -2
340
0
 93
        0
 40
1.125
309
GRIDFORMAT_END
 95
        8
302
GRIDFORMAT
  1
GRIDFORMAT_BEGIN
 90
        0
 91
        1
 62
     0
 92
       -2
340
0
 93
        0
 40
1.125
309
GRIDFORMAT_END
 95
       16
302
GRIDFORMAT
  1
GRIDFORMAT_BEGIN
 90
        0
 91
        1
 62
     0
 92
       -2
340
0
 93
        0
 40
1.125
309
GRIDFORMAT_END
 95
       32
302
GRIDFORMAT
  1
GRIDFORMAT_BEGIN
 90
        0
 91
        1
 62
     0
 92
       -2
340
0
 93
        0
 40
1.125
309
GRIDFORMAT_END
309
TABLEFORMAT_END
  1
CELLSTYLE_BEGIN
 90
        2
 91
        1
300
_HEADER
309
CELLSTYLE_END
300
CELLSTYLE
  1
TABLEFORMAT_BEGIN
 90
        5
170
     1
 91
        0
 92
        0
 62
   257
 93
        1
300
CONTENTFORMAT
  1
CONTENTFORMAT_BEGIN
 90
        0
 91
        0
 92
      512
 93
        0
300

 40
0.0
140
1.0
 94
        2
 62
     0
340
11
144
4.5
309
CONTENTFORMAT_END
171
     1
301
MARGIN
  1
CELLMARGIN_BEGIN
 40
1.5
 40
1.5
 40
1.5
 40
1.5
 40
0.18
 40
0.18
309
CELLMARGIN_END
 94
        6
 95
        1
302
GRIDFORMAT
  1
GRIDFORMAT_BEGIN
 90
        0
 91
        1
 62
     0
 92
       -2
340
0
 93
        0
 40
1.125
309
GRIDFORMAT_END
 95
        2
302
GRIDFORMAT
  1
GRIDFORMAT_BEGIN
 90
        0
 91
        1
 62
     0
 92
       -2
340
0
 93
        0
 40
1.125
309
GRIDFORMAT_END
 95
        4
302
GRIDFORMAT
  1
GRIDFORMAT_BEGIN
 90
        0
 91
        1
 62
     0
 92
       -2
340
0
 93
        0
 40
1.125
309
GRIDFORMAT_END
 95
        8
302
GRIDFORMAT
  1
GRIDFORMAT_BEGIN
 90
        0
 91
        1
 62
     0
 92
       -2
340
0
 93
        0
 40
1.125
309
GRIDFORMAT_END
 95
       16
302
GRIDFORMAT
  1
GRIDFORMAT_BEGIN
 90
        0
 91
        1
 62
     0
 92
       -2
340
0
 93
        0
 40
1.125
309
GRIDFORMAT_END
 95
       32
302
GRIDFORMAT
  1
GRIDFORMAT_BEGIN
 90
        0
 91
        1
 62
     0
 92
       -2
340
0
 93
        0
 40
1.125
309
GRIDFORMAT_END
309
TABLEFORMAT_END
  1
CELLSTYLE_BEGIN
 90
        3
 91
        2
300
_DATA
309
CELLSTYLE_END
  0
XRECORD
  5
D55
102
{ACAD_REACTORS
330
5CA
102
}
330
5CA
100
AcDbXrecord
280
     1
102
ACAD_ROUNDTRIP_PRE2007_TABLESTYLE
 90
      512
 91
        0
  1

 92
      512
 93
        0
  2

 94
      512
 95
        0
  3

  0
XRECORD
  5
D3A
102
{ACAD_REACTORS
330
D39
102
}
330
D39
100
AcDbXrecord
280
     1
102
RTVSPropertyOp0
 70
     1
102
RTVSPropertyOp1
 70
     1
102
RTVSPropertyOp2
 70
     1
102
RTVSPropertyOp3
 70
     1
102
RTVSPropertyOp4
 70
     1
102
RTVSPropertyOp5
 70
     1
102
RTVSPropertyOp6
 70
     1
102
RTVSPropertyOp7
 70
     1
102
RTVSPropertyOp8
 70
     1
102
RTVSPropertyOp9
 70
     1
102
RTVSPropertyOp10
 70
     1
102
RTVSPropertyOp11
 70
     1
102
RTVSPropertyOp12
 70
     1
102
RTVSPropertyOp13
 70
     1
102
RTVSPropertyOp14
 70
     1
102
RTVSPropertyOp15
 70
     1
102
RTVSPropertyOp16
 70
     1
102
RTVSPropertyOp17
 70
     1
102
RTVSPropertyOp18
 70
     1
102
RTVSPropertyOp19
 70
     1
102
RTVSPropertyOp20
 70
     1
102
RTVSPropertyOp21
 70
     1
102
RTVSPropertyOp22
 70
     1
102
RTVSPropertyOp23
 70
     1
102
RTVSPropertyOp24
 70
     1
102
RTVSPropertyOp25
 70
     1
102
RTVSPropertyOp26
 70
     1
102
RTVSPropertyOp27
 70
     1
  0
XRECORD
  5
D3E
102
{ACAD_REACTORS
330
D3D
102
}
330
D3D
100
AcDbXrecord
280
     1
102
RTVSPropertyOp0
 70
     1
102
RTVSPropertyOp1
 70
     1
102
RTVSPropertyOp2
 70
     1
102
RTVSPropertyOp3
 70
     1
102
RTVSPropertyOp4
 70
     1
102
RTVSPropertyOp5
 70
     1
102
RTVSPropertyOp6
 70
     1
102
RTVSPropertyOp7
 70
     1
102
RTVSPropertyOp8
 70
     1
102
RTVSPropertyOp9
 70
     1
102
RTVSPropertyOp10
 70
     1
102
RTVSPropertyOp11
 70
     1
102
RTVSPropertyOp12
 70
     1
102
RTVSPropertyOp13
 70
     1
102
RTVSPropertyOp14
 70
     1
102
RTVSPropertyOp15
 70
     1
102
RTVSPropertyOp16
 70
     1
102
RTVSPropertyOp17
 70
     1
102
RTVSPropertyOp18
 70
     1
102
RTVSPropertyOp19
 70
     1
102
RTVSPropertyOp20
 70
     1
102
RTVSPropertyOp21
 70
     1
102
RTVSPropertyOp22
 70
     1
102
RTVSPropertyOp23
 70
     1
102
RTVSPropertyOp24
 70
     1
102
RTVSPropertyOp25
 70
     1
102
RTVSPropertyOp26
 70
     1
102
RTVSPropertyOp27
 70
     1
  0
XRECORD
  5
D3C
102
{ACAD_REACTORS
330
D3B
102
}
330
D3B
100
AcDbXrecord
280
     1
102
RTVSPropertyOp0
 70
     1
102
RTVSPropertyOp1
 70
     1
102
RTVSPropertyOp2
 70
     1
102
RTVSPropertyOp3
 70
     1
102
RTVSPropertyOp4
 70
     1
102
RTVSPropertyOp5
 70
     1
102
RTVSPropertyOp6
 70
     1
102
RTVSPropertyOp7
 70
     1
102
RTVSPropertyOp8
 70
     1
102
RTVSPropertyOp9
 70
     1
102
RTVSPropertyOp10
 70
     1
102
RTVSPropertyOp11
 70
     1
102
RTVSPropertyOp12
 70
     1
102
RTVSPropertyOp13
 70
     1
102
RTVSPropertyOp14
 70
     1
102
RTVSPropertyOp15
 70
     1
102
RTVSPropertyOp16
 70
     1
102
RTVSPropertyOp17
 70
     1
102
RTVSPropertyOp18
 70
     1
102
RTVSPropertyOp19
 70
     1
102
RTVSPropertyOp20
 70
     1
102
RTVSPropertyOp21
 70
     1
102
RTVSPropertyOp22
 70
     1
102
RTVSPropertyOp23
 70
     1
102
RTVSPropertyOp24
 70
     1
102
RTVSPropertyOp25
 70
     1
102
RTVSPropertyOp26
 70
     1
102
RTVSPropertyOp27
 70
     1
  0
XRECORD
  5
D38
102
{ACAD_REACTORS
330
D37
102
}
330
D37
100
AcDbXrecord
280
     1
102
RTVSPropertyOp0
 70
     1
102
RTVSPropertyOp1
 70
     1
102
RTVSPropertyOp2
 70
     1
102
RTVSPropertyOp3
 70
     1
102
RTVSPropertyOp4
 70
     1
102
RTVSPropertyOp5
 70
     1
102
RTVSPropertyOp6
 70
     1
102
RTVSPropertyOp7
 70
     1
102
RTVSPropertyOp8
 70
     1
102
RTVSPropertyOp9
 70
     1
102
RTVSPropertyOp10
 70
     1
102
RTVSPropertyOp11
 70
     1
102
RTVSPropertyOp12
 70
     1
102
RTVSPropertyOp13
 70
     1
102
RTVSPropertyOp14
 70
     1
102
RTVSPropertyOp15
 70
     1
102
RTVSPropertyOp16
 70
     1
102
RTVSPropertyOp17
 70
     1
102
RTVSPropertyOp18
 70
     1
102
RTVSPropertyOp19
 70
     1
102
RTVSPropertyOp20
 70
     1
102
RTVSPropertyOp21
 70
     1
102
RTVSPropertyOp22
 70
     1
102
RTVSPropertyOp23
 70
     1
102
RTVSPropertyOp24
 70
     1
102
RTVSPropertyOp25
 70
     1
102
RTVSPropertyOp26
 70
     1
102
RTVSPropertyOp27
 70
     1
  0
XRECORD
  5
D46
102
{ACAD_REACTORS
330
D45
102
}
330
D45
100
AcDbXrecord
280
     1
102
RTVSPropertyOp0
 70
     1
102
RTVSPropertyOp1
 70
     1
102
RTVSPropertyOp2
 70
     1
102
RTVSPropertyOp3
 70
     1
102
RTVSPropertyOp4
 70
     1
102
RTVSPropertyOp5
 70
     1
102
RTVSPropertyOp6
 70
     1
102
RTVSPropertyOp7
 70
     1
102
RTVSPropertyOp8
 70
     1
102
RTVSPropertyOp9
 70
     1
102
RTVSPropertyOp10
 70
     1
102
RTVSPropertyOp11
 70
     1
102
RTVSPropertyOp12
 70
     1
102
RTVSPropertyOp13
 70
     1
102
RTVSPropertyOp14
 70
     1
102
RTVSPropertyOp15
 70
     1
102
RTVSPropertyOp16
 70
     1
102
RTVSPropertyOp17
 70
     1
102
RTVSPropertyOp18
 70
     1
102
RTVSPropertyOp19
 70
     1
102
RTVSPropertyOp20
 70
     1
102
RTVSPropertyOp21
 70
     1
102
RTVSPropertyOp22
 70
     1
102
RTVSPropertyOp23
 70
     1
102
RTVSPropertyOp24
 70
     1
102
RTVSPropertyOp25
 70
     1
102
RTVSPropertyOp26
 70
     1
102
RTVSPropertyOp27
 70
     1
  0
XRECORD
  5
D4E
102
{ACAD_REACTORS
330
D4D
102
}
330
D4D
100
AcDbXrecord
280
     1
102
RTVSPropertyOp0
 70
     1
102
RTVSPropertyOp1
 70
     1
102
RTVSPropertyOp2
 70
     1
102
RTVSPropertyOp3
 70
     1
102
RTVSPropertyOp4
 70
     1
102
RTVSPropertyOp5
 70
     1
102
RTVSPropertyOp6
 70
     1
102
RTVSPropertyOp7
 70
     1
102
RTVSPropertyOp8
 70
     1
102
RTVSPropertyOp9
 70
     1
102
RTVSPropertyOp10
 70
     1
102
RTVSPropertyOp11
 70
     1
102
RTVSPropertyOp12
 70
     1
102
RTVSPropertyOp13
 70
     1
102
RTVSPropertyOp14
 70
     1
102
RTVSPropertyOp15
 70
     1
102
RTVSPropertyOp16
 70
     1
102
RTVSPropertyOp17
 70
     1
102
RTVSPropertyOp18
 70
     1
102
RTVSPropertyOp19
 70
     1
102
RTVSPropertyOp20
 70
     1
102
RTVSPropertyOp21
 70
     1
102
RTVSPropertyOp22
 70
     1
102
RTVSPropertyOp23
 70
     1
102
RTVSPropertyOp24
 70
     1
102
RTVSPropertyOp25
 70
     1
102
RTVSPropertyOp26
 70
     1
102
RTVSPropertyOp27
 70
     1
  0
XRECORD
  5
D40
102
{ACAD_REACTORS
330
D3F
102
}
330
D3F
100
AcDbXrecord
280
     1
102
RTVSPropertyOp0
 70
     1
102
RTVSPropertyOp1
 70
     1
102
RTVSPropertyOp2
 70
     1
102
RTVSPropertyOp3
 70
     1
102
RTVSPropertyOp4
 70
     1
102
RTVSPropertyOp5
 70
     1
102
RTVSPropertyOp6
 70
     1
102
RTVSPropertyOp7
 70
     1
102
RTVSPropertyOp8
 70
     1
102
RTVSPropertyOp9
 70
     1
102
RTVSPropertyOp10
 70
     1
102
RTVSPropertyOp11
 70
     1
102
RTVSPropertyOp12
 70
     1
102
RTVSPropertyOp13
 70
     1
102
RTVSPropertyOp14
 70
     1
102
RTVSPropertyOp15
 70
     1
102
RTVSPropertyOp16
 70
     1
102
RTVSPropertyOp17
 70
     1
102
RTVSPropertyOp18
 70
     1
102
RTVSPropertyOp19
 70
     1
102
RTVSPropertyOp20
 70
     1
102
RTVSPropertyOp21
 70
     1
102
RTVSPropertyOp22
 70
     1
102
RTVSPropertyOp23
 70
     1
102
RTVSPropertyOp24
 70
     1
102
RTVSPropertyOp25
 70
     1
102
RTVSPropertyOp26
 70
     1
102
RTVSPropertyOp27
 70
     1
  0
XRECORD
  5
D44
102
{ACAD_REACTORS
330
D43
102
}
330
D43
100
AcDbXrecord
280
     1
102
RTVSPropertyOp0
 70
     1
102
RTVSPropertyOp1
 70
     1
102
RTVSPropertyOp2
 70
     1
102
RTVSPropertyOp3
 70
     1
102
RTVSPropertyOp4
 70
     1
102
RTVSPropertyOp5
 70
     1
102
RTVSPropertyOp6
 70
     1
102
RTVSPropertyOp7
 70
     1
102
RTVSPropertyOp8
 70
     1
102
RTVSPropertyOp9
 70
     1
102
RTVSPropertyOp10
 70
     1
102
RTVSPropertyOp11
 70
     1
102
RTVSPropertyOp12
 70
     1
102
RTVSPropertyOp13
 70
     1
102
RTVSPropertyOp14
 70
     1
102
RTVSPropertyOp15
 70
     1
102
RTVSPropertyOp16
 70
     1
102
RTVSPropertyOp17
 70
     1
102
RTVSPropertyOp18
 70
     1
102
RTVSPropertyOp19
 70
     1
102
RTVSPropertyOp20
 70
     1
102
RTVSPropertyOp21
 70
     1
102
RTVSPropertyOp22
 70
     1
102
RTVSPropertyOp23
 70
     1
102
RTVSPropertyOp24
 70
     1
102
RTVSPropertyOp25
 70
     1
102
RTVSPropertyOp26
 70
     1
102
RTVSPropertyOp27
 70
     1
  0
XRECORD
  5
D54
102
{ACAD_REACTORS
330
D53
102
}
330
D53
100
AcDbXrecord
280
     1
102
RTVSPropertyOp0
 70
     0
102
RTVSPropertyOp1
 70
     0
102
RTVSPropertyOp2
 70
     0
102
RTVSPropertyOp3
 70
     0
102
RTVSPropertyOp4
 70
     0
102
RTVSPropertyOp5
 70
     0
102
RTVSPropertyOp6
 70
     0
102
RTVSPropertyOp7
 70
     0
102
RTVSPropertyOp8
 70
     0
102
RTVSPropertyOp9
 70
     0
102
RTVSPropertyOp10
 70
     0
102
RTVSPropertyOp11
 70
     0
102
RTVSPropertyOp12
 70
     0
102
RTVSPropertyOp13
 70
     0
102
RTVSPropertyOp14
 70
     2
102
RTVSPropertyOp15
 70
     0
102
RTVSPropertyOp16
 70
     0
102
RTVSPropertyOp17
 70
     0
102
RTVSPropertyOp18
 70
     0
102
RTVSPropertyOp19
 70
     0
102
RTVSPropertyOp20
 70
     0
102
RTVSPropertyOp21
 70
     0
102
RTVSPropertyOp22
 70
     0
102
RTVSPropertyOp23
 70
     0
102
RTVSPropertyOp24
 70
     0
102
RTVSPropertyOp25
 70
     0
102
RTVSPropertyOp26
 70
     0
102
RTVSPropertyOp27
 70
     0
  0
XRECORD
  5
D4C
102
{ACAD_REACTORS
330
D4B
102
}
330
D4B
100
AcDbXrecord
280
     1
102
RTVSPropertyOp0
 70
     1
102
RTVSPropertyOp1
 70
     1
102
RTVSPropertyOp2
 70
     1
102
RTVSPropertyOp3
 70
     1
102
RTVSPropertyOp4
 70
     1
102
RTVSPropertyOp5
 70
     1
102
RTVSPropertyOp6
 70
     1
102
RTVSPropertyOp7
 70
     1
102
RTVSPropertyOp8
 70
     1
102
RTVSPropertyOp9
 70
     1
102
RTVSPropertyOp10
 70
     1
102
RTVSPropertyOp11
 70
     1
102
RTVSPropertyOp12
 70
     1
102
RTVSPropertyOp13
 70
     1
102
RTVSPropertyOp14
 70
     1
102
RTVSPropertyOp15
 70
     1
102
RTVSPropertyOp16
 70
     1
102
RTVSPropertyOp17
 70
     1
102
RTVSPropertyOp18
 70
     1
102
RTVSPropertyOp19
 70
     1
102
RTVSPropertyOp20
 70
     1
102
RTVSPropertyOp21
 70
     1
102
RTVSPropertyOp22
 70
     1
102
RTVSPropertyOp23
 70
     1
102
RTVSPropertyOp24
 70
     1
102
RTVSPropertyOp25
 70
     1
102
RTVSPropertyOp26
 70
     1
102
RTVSPropertyOp27
 70
     1
  0
XRECORD
  5
D30
102
{ACAD_REACTORS
330
D2F
102
}
330
D2F
100
AcDbXrecord
280
     1
102
RTVSPropertyOp0
 70
     1
102
RTVSPropertyOp1
 70
     1
102
RTVSPropertyOp2
 70
     1
102
RTVSPropertyOp3
 70
     1
102
RTVSPropertyOp4
 70
     1
102
RTVSPropertyOp5
 70
     1
102
RTVSPropertyOp6
 70
     1
102
RTVSPropertyOp7
 70
     1
102
RTVSPropertyOp8
 70
     1
102
RTVSPropertyOp9
 70
     1
102
RTVSPropertyOp10
 70
     1
102
RTVSPropertyOp11
 70
     1
102
RTVSPropertyOp12
 70
     1
102
RTVSPropertyOp13
 70
     1
102
RTVSPropertyOp14
 70
     1
102
RTVSPropertyOp15
 70
     1
102
RTVSPropertyOp16
 70
     1
102
RTVSPropertyOp17
 70
     1
102
RTVSPropertyOp18
 70
     1
102
RTVSPropertyOp19
 70
     1
102
RTVSPropertyOp20
 70
     1
102
RTVSPropertyOp21
 70
     1
102
RTVSPropertyOp22
 70
     1
102
RTVSPropertyOp23
 70
     1
102
RTVSPropertyOp24
 70
     1
102
RTVSPropertyOp25
 70
     1
102
RTVSPropertyOp26
 70
     1
102
RTVSPropertyOp27
 70
     1
  0
XRECORD
  5
D32
102
{ACAD_REACTORS
330
D31
102
}
330
D31
100
AcDbXrecord
280
     1
102
RTVSPropertyOp0
 70
     1
102
RTVSPropertyOp1
 70
     1
102
RTVSPropertyOp2
 70
     1
102
RTVSPropertyOp3
 70
     1
102
RTVSPropertyOp4
 70
     1
102
RTVSPropertyOp5
 70
     1
102
RTVSPropertyOp6
 70
     1
102
RTVSPropertyOp7
 70
     1
102
RTVSPropertyOp8
 70
     1
102
RTVSPropertyOp9
 70
     1
102
RTVSPropertyOp10
 70
     1
102
RTVSPropertyOp11
 70
     1
102
RTVSPropertyOp12
 70
     1
102
RTVSPropertyOp13
 70
     1
102
RTVSPropertyOp14
 70
     1
102
RTVSPropertyOp15
 70
     1
102
RTVSPropertyOp16
 70
     1
102
RTVSPropertyOp17
 70
     1
102
RTVSPropertyOp18
 70
     1
102
RTVSPropertyOp19
 70
     1
102
RTVSPropertyOp20
 70
     1
102
RTVSPropertyOp21
 70
     1
102
RTVSPropertyOp22
 70
     1
102
RTVSPropertyOp23
 70
     1
102
RTVSPropertyOp24
 70
     1
102
RTVSPropertyOp25
 70
     1
102
RTVSPropertyOp26
 70
     1
102
RTVSPropertyOp27
 70
     1
  0
XRECORD
  5
D34
102
{ACAD_REACTORS
330
D33
102
}
330
D33
100
AcDbXrecord
280
     1
102
RTVSPropertyOp0
 70
     1
102
RTVSPropertyOp1
 70
     1
102
RTVSPropertyOp2
 70
     1
102
RTVSPropertyOp3
 70
     1
102
RTVSPropertyOp4
 70
     1
102
RTVSPropertyOp5
 70
     1
102
RTVSPropertyOp6
 70
     1
102
RTVSPropertyOp7
 70
     1
102
RTVSPropertyOp8
 70
     1
102
RTVSPropertyOp9
 70
     1
102
RTVSPropertyOp10
 70
     1
102
RTVSPropertyOp11
 70
     1
102
RTVSPropertyOp12
 70
     1
102
RTVSPropertyOp13
 70
     1
102
RTVSPropertyOp14
 70
     1
102
RTVSPropertyOp15
 70
     1
102
RTVSPropertyOp16
 70
     1
102
RTVSPropertyOp17
 70
     1
102
RTVSPropertyOp18
 70
     1
102
RTVSPropertyOp19
 70
     1
102
RTVSPropertyOp20
 70
     1
102
RTVSPropertyOp21
 70
     1
102
RTVSPropertyOp22
 70
     1
102
RTVSPropertyOp23
 70
     1
102
RTVSPropertyOp24
 70
     1
102
RTVSPropertyOp25
 70
     1
102
RTVSPropertyOp26
 70
     1
102
RTVSPropertyOp27
 70
     1
  0
XRECORD
  5
D36
102
{ACAD_REACTORS
330
D35
102
}
330
D35
100
AcDbXrecord
280
     1
102
RTVSPropertyOp0
 70
     1
102
RTVSPropertyOp1
 70
     1
102
RTVSPropertyOp2
 70
     1
102
RTVSPropertyOp3
 70
     1
102
RTVSPropertyOp4
 70
     1
102
RTVSPropertyOp5
 70
     1
102
RTVSPropertyOp6
 70
     1
102
RTVSPropertyOp7
 70
     1
102
RTVSPropertyOp8
 70
     1
102
RTVSPropertyOp9
 70
     1
102
RTVSPropertyOp10
 70
     1
102
RTVSPropertyOp11
 70
     1
102
RTVSPropertyOp12
 70
     1
102
RTVSPropertyOp13
 70
     1
102
RTVSPropertyOp14
 70
     1
102
RTVSPropertyOp15
 70
     1
102
RTVSPropertyOp16
 70
     1
102
RTVSPropertyOp17
 70
     1
102
RTVSPropertyOp18
 70
     1
102
RTVSPropertyOp19
 70
     1
102
RTVSPropertyOp20
 70
     1
102
RTVSPropertyOp21
 70
     1
102
RTVSPropertyOp22
 70
     1
102
RTVSPropertyOp23
 70
     1
102
RTVSPropertyOp24
 70
     1
102
RTVSPropertyOp25
 70
     1
102
RTVSPropertyOp26
 70
     1
102
RTVSPropertyOp27
 70
     1
  0
XRECORD
  5
D50
102
{ACAD_REACTORS
330
D4F
102
}
330
D4F
100
AcDbXrecord
280
     1
102
RTVSPropertyOp0
 70
     0
102
RTVSPropertyOp1
 70
     0
102
RTVSPropertyOp2
 70
     0
102
RTVSPropertyOp3
 70
     0
102
RTVSPropertyOp4
 70
     0
102
RTVSPropertyOp5
 70
     0
102
RTVSPropertyOp6
 70
     0
102
RTVSPropertyOp7
 70
     0
102
RTVSPropertyOp8
 70
     0
102
RTVSPropertyOp9
 70
     0
102
RTVSPropertyOp10
 70
     0
102
RTVSPropertyOp11
 70
     0
102
RTVSPropertyOp12
 70
     0
102
RTVSPropertyOp13
 70
     0
102
RTVSPropertyOp14
 70
     2
102
RTVSPropertyOp15
 70
     0
102
RTVSPropertyOp16
 70
     0
102
RTVSPropertyOp17
 70
     0
102
RTVSPropertyOp18
 70
     0
102
RTVSPropertyOp19
 70
     0
102
RTVSPropertyOp20
 70
     0
102
RTVSPropertyOp21
 70
     0
102
RTVSPropertyOp22
 70
     0
102
RTVSPropertyOp23
 70
     0
102
RTVSPropertyOp24
 70
     0
102
RTVSPropertyOp25
 70
     0
102
RTVSPropertyOp26
 70
     0
102
RTVSPropertyOp27
 70
     0
  0
XRECORD
  5
D4A
102
{ACAD_REACTORS
330
D49
102
}
330
D49
100
AcDbXrecord
280
     1
102
RTVSPropertyOp0
 70
     1
102
RTVSPropertyOp1
 70
     1
102
RTVSPropertyOp2
 70
     1
102
RTVSPropertyOp3
 70
     1
102
RTVSPropertyOp4
 70
     1
102
RTVSPropertyOp5
 70
     1
102
RTVSPropertyOp6
 70
     1
102
RTVSPropertyOp7
 70
     1
102
RTVSPropertyOp8
 70
     1
102
RTVSPropertyOp9
 70
     1
102
RTVSPropertyOp10
 70
     1
102
RTVSPropertyOp11
 70
     1
102
RTVSPropertyOp12
 70
     1
102
RTVSPropertyOp13
 70
     1
102
RTVSPropertyOp14
 70
     1
102
RTVSPropertyOp15
 70
     1
102
RTVSPropertyOp16
 70
     1
102
RTVSPropertyOp17
 70
     1
102
RTVSPropertyOp18
 70
     1
102
RTVSPropertyOp19
 70
     1
102
RTVSPropertyOp20
 70
     1
102
RTVSPropertyOp21
 70
     1
102
RTVSPropertyOp22
 70
     1
102
RTVSPropertyOp23
 70
     1
102
RTVSPropertyOp24
 70
     1
102
RTVSPropertyOp25
 70
     1
102
RTVSPropertyOp26
 70
     1
102
RTVSPropertyOp27
 70
     1
  0
XRECORD
  5
D52
102
{ACAD_REACTORS
330
D51
102
}
330
D51
100
AcDbXrecord
280
     1
102
RTVSPropertyOp0
 70
     0
102
RTVSPropertyOp1
 70
     0
102
RTVSPropertyOp2
 70
     0
102
RTVSPropertyOp3
 70
     0
102
RTVSPropertyOp4
 70
     0
102
RTVSPropertyOp5
 70
     0
102
RTVSPropertyOp6
 70
     0
102
RTVSPropertyOp7
 70
     0
102
RTVSPropertyOp8
 70
     0
102
RTVSPropertyOp9
 70
     0
102
RTVSPropertyOp10
 70
     0
102
RTVSPropertyOp11
 70
     0
102
RTVSPropertyOp12
 70
     0
102
RTVSPropertyOp13
 70
     0
102
RTVSPropertyOp14
 70
     2
102
RTVSPropertyOp15
 70
     0
102
RTVSPropertyOp16
 70
     0
102
RTVSPropertyOp17
 70
     0
102
RTVSPropertyOp18
 70
     0
102
RTVSPropertyOp19
 70
     0
102
RTVSPropertyOp20
 70
     0
102
RTVSPropertyOp21
 70
     0
102
RTVSPropertyOp22
 70
     0
102
RTVSPropertyOp23
 70
     0
102
RTVSPropertyOp24
 70
     0
102
RTVSPropertyOp25
 70
     0
102
RTVSPropertyOp26
 70
     0
102
RTVSPropertyOp27
 70
     0
  0
XRECORD
  5
D42
102
{ACAD_REACTORS
330
D41
102
}
330
D41
100
AcDbXrecord
280
     1
102
RTVSPropertyOp0
 70
     1
102
RTVSPropertyOp1
 70
     1
102
RTVSPropertyOp2
 70
     1
102
RTVSPropertyOp3
 70
     1
102
RTVSPropertyOp4
 70
     1
102
RTVSPropertyOp5
 70
     1
102
RTVSPropertyOp6
 70
     1
102
RTVSPropertyOp7
 70
     1
102
RTVSPropertyOp8
 70
     1
102
RTVSPropertyOp9
 70
     1
102
RTVSPropertyOp10
 70
     1
102
RTVSPropertyOp11
 70
     1
102
RTVSPropertyOp12
 70
     1
102
RTVSPropertyOp13
 70
     1
102
RTVSPropertyOp14
 70
     1
102
RTVSPropertyOp15
 70
     1
102
RTVSPropertyOp16
 70
     1
102
RTVSPropertyOp17
 70
     1
102
RTVSPropertyOp18
 70
     1
102
RTVSPropertyOp19
 70
     1
102
RTVSPropertyOp20
 70
     1
102
RTVSPropertyOp21
 70
     1
102
RTVSPropertyOp22
 70
     1
102
RTVSPropertyOp23
 70
     1
102
RTVSPropertyOp24
 70
     1
102
RTVSPropertyOp25
 70
     1
102
RTVSPropertyOp26
 70
     1
102
RTVSPropertyOp27
 70
     1
  0
XRECORD
  5
D48
102
{ACAD_REACTORS
330
D47
102
}
330
D47
100
AcDbXrecord
280
     1
102
RTVSPropertyOp0
 70
     1
102
RTVSPropertyOp1
 70
     1
102
RTVSPropertyOp2
 70
     1
102
RTVSPropertyOp3
 70
     1
102
RTVSPropertyOp4
 70
     1
102
RTVSPropertyOp5
 70
     1
102
RTVSPropertyOp6
 70
     1
102
RTVSPropertyOp7
 70
     1
102
RTVSPropertyOp8
 70
     1
102
RTVSPropertyOp9
 70
     1
102
RTVSPropertyOp10
 70
     1
102
RTVSPropertyOp11
 70
     1
102
RTVSPropertyOp12
 70
     1
102
RTVSPropertyOp13
 70
     1
102
RTVSPropertyOp14
 70
     1
102
RTVSPropertyOp15
 70
     1
102
RTVSPropertyOp16
 70
     1
102
RTVSPropertyOp17
 70
     1
102
RTVSPropertyOp18
 70
     1
102
RTVSPropertyOp19
 70
     1
102
RTVSPropertyOp20
 70
     1
102
RTVSPropertyOp21
 70
     1
102
RTVSPropertyOp22
 70
     1
102
RTVSPropertyOp23
 70
     1
102
RTVSPropertyOp24
 70
     1
102
RTVSPropertyOp25
 70
     1
102
RTVSPropertyOp26
 70
     1
102
RTVSPropertyOp27
 70
     1
  0
ENDSEC
  0
EOF
