  0
SECTION
  2
HEADER
  9
$ACADVER
  1
AC1024
  9
$ACADMAINTVER
 70
   157
  9
$DWGCODEPAGE
  3
ANSI_1252
  9
$LASTSAVEDBY
  1
sbittorf
  9
$CUSTOMPROPERTYTAG
  1
AmdtFileType
  9
$CUSTOMPROPERTY
  1
84
  9
$INSBASE
 10
0.0
 20
0.0
 30
0.0
  9
$EXTMIN
 10
56.23580388670078
 20
96.1955822046416
 30
0.0
  9
$EXTMAX
 10
1359.542038256184
 20
515.1013690467863
 30
0.0
  9
$LIMMIN
 10
0.0
 20
0.0
  9
$LIMMAX
 10
420.0
 20
297.0
  9
$ORTHOMODE
 70
     0
  9
$REGENMODE
 70
     1
  9
$FILLMODE
 70
     1
  9
$QTEXTMODE
 70
     0
  9
$MIRRTEXT
 70
     1
  9
$LTSCALE
 40
1.0
  9
$ATTMODE
 70
     1
  9
$TEXTSIZE
 40
2.5
  9
$TRACEWID
 40
1.0
  9
$TEXTSTYLE
  7
STANDARD
  9
$CLAYER
  8
0
  9
$CELTYPE
  6
ByLayer
  9
$CECOLOR
 62
   256
  9
$CELTSCALE
 40
1.0
  9
$DISPSILH
 70
     0
  9
$DIMSCALE
 40
1.0
  9
$DIMASZ
 40
2.5
  9
$DIMEXO
 40
1.0
  9
$DIMDLI
 40
10.0
  9
$DIMRND
 40
0.0
  9
$DIMDLE
 40
0.0
  9
$DIMEXE
 40
1.0
  9
$DIMTP
 40
0.1
  9
$DIMTM
 40
0.1
  9
$DIMTXT
 40
3.5
  9
$DIMCEN
 40
0.0
  9
$DIMTSZ
 40
0.0
  9
$DIMTOL
 70
     0
  9
$DIMLIM
 70
     0
  9
$DIMTIH
 70
     0
  9
$DIMTOH
 70
     0
  9
$DIMSE1
 70
     0
  9
$DIMSE2
 70
     0
  9
$DIMTAD
 70
     1
  9
$DIMZIN
 70
     8
  9
$DIMBLK
  1

  9
$DIMASO
 70
     1
  9
$DIMSHO
 70
     1
  9
$DIMPOST
  1

  9
$DIMAPOST
  1
"
  9
$DIMALT
 70
     0
  9
$DIMALTD
 70
     2
  9
$DIMALTF
 40
0.0393701
  9
$DIMLFAC
 40
1.0
  9
$DIMTOFL
 70
     1
  9
$DIMTVP
 40
0.0
  9
$DIMTIX
 70
     0
  9
$DIMSOXD
 70
     0
  9
$DIMSAH
 70
     0
  9
$DIMBLK1
  1

  9
$DIMBLK2
  1

  9
$DIMSTYLE
  2
AM_DIN
  9
$DIMCLRD
 70
   256
  9
$DIMCLRE
 70
   256
  9
$DIMCLRT
 70
     2
  9
$DIMTFAC
 40
0.71
  9
$DIMGAP
 40
1.5
  9
$DIMJUST
 70
     0
  9
$DIMSD1
 70
     0
  9
$DIMSD2
 70
     0
  9
$DIMTOLJ
 70
     0
  9
$DIMTZIN
 70
     8
  9
$DIMALTZ
 70
     0
  9
$DIMALTTZ
 70
     0
  9
$DIMUPT
 70
     0
  9
$DIMDEC
 70
     2
  9
$DIMTDEC
 70
     3
  9
$DIMALTU
 70
     2
  9
$DIMALTTD
 70
     4
  9
$DIMTXSTY
  7
STANDARD
  9
$DIMAUNIT
 70
     0
  9
$DIMADEC
 70
     0
  9
$DIMALTRND
 40
0.0
  9
$DIMAZIN
 70
     2
  9
$DIMDSEP
 70
    46
  9
$DIMATFIT
 70
     3
  9
$DIMFRAC
 70
     0
  9
$DIMLDRBLK
  1

  9
$DIMLUNIT
 70
     2
  9
$DIMLWD
 70
    -1
  9
$DIMLWE
 70
    -1
  9
$DIMTMOVE
 70
     0
  9
$DIMFXL
 40
1.0
  9
$DIMFXLON
 70
     0
  9
$DIMJOGANG
 40
1.570796326794896
  9
$DIMTFILL
 70
     0
  9
$DIMTFILLCLR
 70
     0
  9
$DIMARCSYM
 70
     0
  9
$DIMLTYPE
  6

  9
$DIMLTEX1
  6

  9
$DIMLTEX2
  6

  9
$DIMTXTDIRECTION
 70
     0
  9
$LUNITS
 70
     2
  9
$LUPREC
 70
     2
  9
$SKETCHINC
 40
1.0
  9
$FILLETRAD
 40
0.0
  9
$AUNITS
 70
     0
  9
$AUPREC
 70
     0
  9
$MENU
  1
.
  9
$ELEVATION
 40
0.0
  9
$PELEVATION
 40
0.0
  9
$THICKNESS
 40
0.0
  9
$LIMCHECK
 70
     0
  9
$CHAMFERA
 40
2.5
  9
$CHAMFERB
 40
2.5
  9
$CHAMFERC
 40
20.0
  9
$CHAMFERD
 40
0.0
  9
$SKPOLY
 70
     0
  9
$TDCREATE
 40
2457921.315947257
  9
$TDUCREATE
 40
2457921.232613923
  9
$TDUPDATE
 40
2457921.319195753
  9
$TDUUPDATE
 40
2457921.235862419
  9
$TDINDWG
 40
0.0032489468
  9
$TDUSRTIMER
 40
0.0032489236
  9
$USRTIMER
 70
     1
  9
$ANGBASE
 50
0.0
  9
$ANGDIR
 70
     0
  9
$PDMODE
 70
     0
  9
$PDSIZE
 40
0.0
  9
$PLINEWID
 40
0.0
  9
$SPLFRAME
 70
     0
  9
$SPLINETYPE
 70
     6
  9
$SPLINESEGS
 70
     8
  9
$HANDSEED
  5
B41
  9
$SURFTAB1
 70
     6
  9
$SURFTAB2
 70
     6
  9
$SURFTYPE
 70
     6
  9
$SURFU
 70
     6
  9
$SURFV
 70
     6
  9
$UCSBASE
  2

  9
$UCSNAME
  2

  9
$UCSORG
 10
0.0
 20
0.0
 30
0.0
  9
$UCSXDIR
 10
1.0
 20
0.0
 30
0.0
  9
$UCSYDIR
 10
0.0
 20
1.0
 30
0.0
  9
$UCSORTHOREF
  2

  9
$UCSORTHOVIEW
 70
     0
  9
$UCSORGTOP
 10
0.0
 20
0.0
 30
0.0
  9
$UCSORGBOTTOM
 10
0.0
 20
0.0
 30
0.0
  9
$UCSORGLEFT
 10
0.0
 20
0.0
 30
0.0
  9
$UCSORGRIGHT
 10
0.0
 20
0.0
 30
0.0
  9
$UCSORGFRONT
 10
0.0
 20
0.0
 30
0.0
  9
$UCSORGBACK
 10
0.0
 20
0.0
 30
0.0
  9
$PUCSBASE
  2

  9
$PUCSNAME
  2

  9
$PUCSORG
 10
0.0
 20
0.0
 30
0.0
  9
$PUCSXDIR
 10
1.0
 20
0.0
 30
0.0
  9
$PUCSYDIR
 10
0.0
 20
1.0
 30
0.0
  9
$PUCSORTHOREF
  2

  9
$PUCSORTHOVIEW
 70
     0
  9
$PUCSORGTOP
 10
0.0
 20
0.0
 30
0.0
  9
$PUCSORGBOTTOM
 10
0.0
 20
0.0
 30
0.0
  9
$PUCSORGLEFT
 10
0.0
 20
0.0
 30
0.0
  9
$PUCSORGRIGHT
 10
0.0
 20
0.0
 30
0.0
  9
$PUCSORGFRONT
 10
0.0
 20
0.0
 30
0.0
  9
$PUCSORGBACK
 10
0.0
 20
0.0
 30
0.0
  9
$USERI1
 70
     0
  9
$USERI2
 70
     0
  9
$USERI3
 70
     0
  9
$USERI4
 70
     0
  9
$USERI5
 70
     0
  9
$USERR1
 40
0.0
  9
$USERR2
 40
0.0
  9
$USERR3
 40
0.0
  9
$USERR4
 40
0.0
  9
$USERR5
 40
0.0
  9
$WORLDVIEW
 70
     1
  9
$SHADEDGE
 70
     3
  9
$SHADEDIF
 70
    70
  9
$TILEMODE
 70
     1
  9
$MAXACTVP
 70
    64
  9
$PINSBASE
 10
0.0
 20
0.0
 30
0.0
  9
$PLIMCHECK
 70
     0
  9
$PEXTMIN
 10
1.000000000000000E+20
 20
1.000000000000000E+20
 30
1.000000000000000E+20
  9
$PEXTMAX
 10
-1.000000000000000E+20
 20
-1.000000000000000E+20
 30
-1.000000000000000E+20
  9
$PLIMMIN
 10
0.0
 20
0.0
  9
$PLIMMAX
 10
420.0
 20
297.0
  9
$UNITMODE
 70
     0
  9
$VISRETAIN
 70
     1
  9
$PLINEGEN
 70
     0
  9
$PSLTSCALE
 70
     1
  9
$TREEDEPTH
 70
  3020
  9
$CMLSTYLE
  2
Standard
  9
$CMLJUST
 70
     0
  9
$CMLSCALE
 40
20.0
  9
$PROXYGRAPHICS
 70
     1
  9
$MEASUREMENT
 70
     1
  9
$CELWEIGHT
370
    -1
  9
$ENDCAPS
280
     0
  9
$JOINSTYLE
280
     0
  9
$LWDISPLAY
290
     0
  9
$INSUNITS
 70
     4
  9
$HYPERLINKBASE
  1

  9
$STYLESHEET
  1

  9
$XEDIT
290
     1
  9
$CEPSNTYPE
380
     0
  9
$PSTYLEMODE
290
     1
  9
$FINGERPRINTGUID
  2
{EBE3F1D0-09A8-4262-968A-95F3FB637EB0}
  9
$VERSIONGUID
  2
{0C622854-4799-473D-B4B4-D45A25F8904E}
  9
$EXTNAMES
290
     1
  9
$PSVPSCALE
 40
0.0
  9
$OLESTARTUP
290
     0
  9
$SORTENTS
280
   127
  9
$INDEXCTL
280
     0
  9
$HIDETEXT
280
     0
  9
$XCLIPFRAME
280
     0
  9
$HALOGAP
280
     0
  9
$OBSCOLOR
 70
   257
  9
$OBSLTYPE
280
     0
  9
$INTERSECTIONDISPLAY
280
     0
  9
$INTERSECTIONCOLOR
 70
   257
  9
$DIMASSOC
280
     2
  9
$PROJECTNAME
  1

  9
$CAMERADISPLAY
290
     0
  9
$LENSLENGTH
 40
50.0
  9
$CAMERAHEIGHT
 40
0.0
  9
$STEPSPERSEC
 40
2.0
  9
$STEPSIZE
 40
6.0
  9
$3DDWFPREC
 40
2.0
  9
$PSOLWIDTH
 40
0.25
  9
$PSOLHEIGHT
 40
4.0
  9
$LOFTANG1
 40
1.570796326794896
  9
$LOFTANG2
 40
1.570796326794896
  9
$LOFTMAG1
 40
0.0
  9
$LOFTMAG2
 40
0.0
  9
$LOFTPARAM
 70
     7
  9
$LOFTNORMALS
280
     1
  9
$LATITUDE
 40
37.795
  9
$LONGITUDE
 40
-122.394
  9
$NORTHDIRECTION
 40
0.0
  9
$TIMEZONE
 70
 -8000
  9
$LIGHTGLYPHDISPLAY
280
     1
  9
$TILEMODELIGHTSYNCH
280
     1
  9
$CMATERIAL
347
3B4
  9
$SOLIDHIST
280
     1
  9
$SHOWHIST
280
     1
  9
$DWFFRAME
280
     2
  9
$DGNFRAME
280
     0
  9
$REALWORLDSCALE
290
     1
  9
$INTERFERECOLOR
 62
     1
  9
$INTERFEREOBJVS
345
3D6
  9
$INTERFEREVPVS
346
5E6
  9
$CSHADOW
280
     0
  9
$SHADOWPLANELOCATION
 40
0.0
  0
ENDSEC
  0
SECTION
  2
CLASSES
  0
CLASS
  1
ACDBDICTIONARYWDFLT
  2
AcDbDictionaryWithDefault
  3
ObjectDBX Classes
 90
        0
 91
        1
280
     0
281
     0
  0
CLASS
  1
ACME_DOCUMENT
  2
AcMeDbDoc
  3
AcMeServices
 90
     1024
 91
        2
280
     0
281
     0
  0
CLASS
  1
AMGSETTINGSOBJ
  2
AmgSettingsObj
  3
"AcadM|Product Description: AutoCAD Mechanical|Company: Autodesk, Inc."
 90
     1024
 91
        4
280
     0
281
     0
  0
CLASS
  1
ACMESCOPE
  2
AcMeScope
  3
AcMeServices
 90
     1024
 91
        1
280
     0
281
     0
  0
CLASS
  1
ACMECOMMANDHISTORY
  2
AcMeCommandHistory
  3
AcMeServices
 90
     1024
 91
        1
280
     0
281
     0
  0
CLASS
  1
ACIMSYSVARMAN
  2
AcImSysVarManager
  3
AcMeServices
 90
     1024
 91
        5
280
     0
281
     0
  0
CLASS
  1
ACIMREALSYSVAR
  2
AcImRealSysVar
  3
AcMeServices
 90
     1024
 91
        3
280
     0
281
     0
  0
CLASS
  1
ACIMINTSYSVAR
  2
AcImIntSysVar
  3
AcMeServices
 90
     1024
 91
       27
280
     0
281
     0
  0
CLASS
  1
ACMEDRAWINGMAN
  2
AcMeDrawingMan
  3
AcMeServices
 90
     1024
 91
        0
280
     0
281
     0
  0
CLASS
  1
ACMEVIEW
  2
AcMeView
  3
AcMeServices
 90
     1024
 91
        0
280
     0
281
     0
  0
CLASS
  1
ACDBENTITYCACHE
  2
AcMeEntityCache
  3
AcMeServices
 90
     1024
 91
        1
280
     0
281
     0
  0
CLASS
  1
GSMANAGER
  2
AcMeGSManager
  3
AcMeServices
 90
     1024
 91
        0
280
     0
281
     0
  0
CLASS
  1
AMDTINTERNALREACTOR
  2
AmdtInternalReactor
  3
AcMeServices
 90
     1024
 91
        1
280
     0
281
     0
  0
CLASS
  1
ACMESTATEMGR
  2
AcMeStateMgr
  3
AcMeServices
 90
     1024
 91
        1
280
     0
281
     0
  0
CLASS
  1
ACGREFMASTER
  2
AcGrefMaster
  3
AcAttribServices
 90
     1024
 91
        1
280
     0
281
     0
  0
CLASS
  1
ACME_DATABASE
  2
AcMeDbDatabase
  3
AcMeServices
 90
     1024
 91
        2
280
     0
281
     0
  0
CLASS
  1
ACRFINSADJUSTERMGR
  2
AcRfInsAdjusterMgr
  3
AcMeServices
 90
     1024
 91
        1
280
     0
281
     0
  0
CLASS
  1
ACGREFACADMASTER
  2
AcGrefacadMaster
  3
AcGrefServices
 90
     1024
 91
        1
280
     0
281
     0
  0
CLASS
  1
AMIMASTER
  2
AmiMaster
  3
AmiServices
 90
     1024
 91
        1
280
     0
281
     0
  0
CLASS
  1
ACMDATADICTIONARY
  2
AcmDataDictionary
  3
"AcmSymBB|Product Description: AutoCAD Mechanical|Company: Autodesk, Inc."
 90
     1024
 91
        1
280
     0
281
     0
  0
CLASS
  1
ACMDATAENTRYBLOCK
  2
AcmDataEntryBlock
  3
AcmSymBB|Product Description: AutoCAD Mechanical|Company: Autodesk, Inc.
 90
     1024
 91
        1
280
     0
281
     0
  0
CLASS
  1
ACIMSTRSYSVAR
  2
AcImStrSysVar
  3
AcMeServices
 90
     1024
 91
        5
280
     0
281
     0
  0
CLASS
  1
ACMSTANDARDISO
  2
AcmStandardISO
  3
"Amdt_StdImp|Product Description: AutoCAD Mechanical|Company: Autodesk, Inc."
 90
     1024
 91
        1
280
     0
281
     0
  0
CLASS
  1
AMGOBJPROPCFG
  2
AmgObjPropCfg
  3
"AmgLay|Product Description: AutoCAD Mechanical|Company: Autodesk, Inc."
 90
     1024
 91
        1
280
     0
281
     0
  0
CLASS
  1
AMDTEDGESTANDARDISO
  2
AmdtEdgeStdISO
  3
"Amdt_StdImp|Product Description: AutoCAD Mechanical|Company: Autodesk, Inc."
 90
     1024
 91
        1
280
     0
281
     0
  0
CLASS
  1
ACMSURFSTANDARDISO
  2
AcmSurfTextStdISO
  3
"Amdt_StdImp|Product Description: AutoCAD Mechanical|Company: Autodesk, Inc."
 90
     1024
 91
        1
280
     0
281
     0
  0
CLASS
  1
ACMFCFSTANDARDISO
  2
AcmFCFStdISO
  3
"Amdt_StdImp|Product Description: AutoCAD Mechanical|Company: Autodesk, Inc."
 90
     1024
 91
        1
280
     0
281
     0
  0
CLASS
  1
ACMWELDSTANDARDISO
  2
AcmWeldingStdISO
  3
"Amdt_StdImp|Product Description: AutoCAD Mechanical|Company: Autodesk, Inc."
 90
     1024
 91
        1
280
     0
281
     0
  0
CLASS
  1
ACMIDSTANDARDISO
  2
AcmIdStdISO
  3
"Amdt_StdImp|Product Description: AutoCAD Mechanical|Company: Autodesk, Inc."
 90
     1024
 91
        1
280
     0
281
     0
  0
CLASS
  1
ACMDATUMSTANDARDISO
  2
AcmDatumStdISO
  3
"Amdt_StdImp|Product Description: AutoCAD Mechanical|Company: Autodesk, Inc."
 90
     1024
 91
        1
280
     0
281
     0
  0
CLASS
  1
ACMBOMSTANDARDISO
  2
AcmBOMStdISO
  3
"Amdt_StdImp|Product Description: AutoCAD Mechanical|Company: Autodesk, Inc."
 90
     1024
 91
        1
280
     0
281
     0
  0
CLASS
  1
ACMDETAILSTANDARDISO
  2
AmdtDetailSymStdISO
  3
"Amdt_StdImp|Product Description: AutoCAD Mechanical|Company: Autodesk, Inc."
 90
     1024
 91
        1
280
     0
281
     0
  0
CLASS
  1
ACMSECTIONSTANDARDISO
  2
AmdtSectionSymStdISO
  3
"Amdt_StdImp|Product Description: AutoCAD Mechanical|Company: Autodesk, Inc."
 90
     1024
 91
        1
280
     0
281
     0
  0
CLASS
  1
ACMCENTERLINESTANDARDISO
  2
AmdtCenterLineStdISO
  3
"Amdt_StdImp|Product Description: AutoCAD Mechanical|Company: Autodesk, Inc."
 90
     1024
 91
        1
280
     0
281
     0
  0
CLASS
  1
ACMNOTESTANDARDISO
  2
AmdtNoteStdISO
  3
"Amdt_StdImp|Product Description: AutoCAD Mechanical|Company: Autodesk, Inc."
 90
     1024
 91
        1
280
     0
281
     0
  0
CLASS
  1
ACAMGLAYSTD
  2
AcAmgLayStd
  3
"AmgLay|Product Description: AutoCAD Mechanical|Company: Autodesk, Inc."
 90
     1024
 91
        2
280
     0
281
     0
  0
CLASS
  1
ACAMGDIMSTD
  2
AcAmgDimStd
  3
"AmgDim|Product Description: AutoCAD Mechanical|Company: Autodesk, Inc."
 90
     1024
 91
        2
280
     0
281
     0
  0
CLASS
  1
ACAMGHOLECHARTSTDISO
  2
AcAmgHoleChartStdISO
  3
AmgDim|Product Description: AutoCAD Mechanical|Company: Autodesk, Inc.
 90
     1024
 91
        1
280
     0
281
     0
  0
CLASS
  1
ACAMGTITLESTD
  2
AcAmgTitleStd
  3
"AmgTitle|Product Description: AutoCAD Mechanical|Company: Autodesk, Inc."
 90
     1024
 91
        2
280
     0
281
     0
  0
CLASS
  1
LAYER_INDEX
  2
AcDbLayerIndex
  3
ObjectDBX Classes
 90
        0
 91
        0
280
     0
281
     0
  0
CLASS
  1
IDBUFFER
  2
AcDbIdBuffer
  3
ObjectDBX Classes
 90
        0
 91
        0
280
     0
281
     0
  0
CLASS
  1
DICTIONARYVAR
  2
AcDbDictionaryVar
  3
ObjectDBX Classes
 90
        0
 91
       11
280
     0
281
     0
  0
CLASS
  1
AM_DRAWING_MGR
  2
AcDmDwgMgr
  3
AcMechDwgViewMgmt
 90
     1024
 91
        1
280
     0
281
     0
  0
CLASS
  1
AM_DWG_DOCUMENT
  2
AcDmDwgDocument
  3
AcMechDwgViewMgmt
 90
     1024
 91
        1
280
     0
281
     0
  0
CLASS
  1
AM_DWG_SHEET
  2
AcDmSheet
  3
AcMechDwgViewMgmt
 90
     1024
 91
        2
280
     0
281
     0
  0
CLASS
  1
AM_VIEWDIMPARMAP
  2
AcDmViewDimParMap
  3
AcMechDwgViewMgmt
 90
     1024
 91
        2
280
     0
281
     0
  0
CLASS
  1
AM_DWGMGR_NAME
  2
AcDmDwgMgrName
  3
AcMechDwgViewMgmt
 90
     1024
 91
        1
280
     0
281
     0
  0
CLASS
  1
AMDTMENUSTATEMGR
  2
AmdtMenuStateMgr
  3
McadcomServices
 90
     1024
 91
        1
280
     0
281
     0
  0
CLASS
  1
AMDTMCOMMENUSTATE
  2
AmdtMcomMenuState
  3
McadcomServices
 90
     1024
 91
        1
280
     0
281
     0
  0
CLASS
  1
MAPIAMMOUDLE
  2
MApiAmModule
  3
MApiAmServices
 90
     1024
 91
        1
280
     0
281
     0
  0
CLASS
  1
AMDTADMENUSTATE
  2
AmdtAdMenuState
  3
DesignerServices
 90
     1024
 91
        0
280
     0
281
     0
  0
CLASS
  1
ADAPPL
  2
AcAdAppl
  3
DesignerAssemblies
 90
     1024
 91
        0
280
     0
281
     0
  0
CLASS
  1
DEPMGR
  2
AcAdDepMgr
  3
DesignerAssemblies
 90
     1024
 91
        0
280
     0
281
     0
  0
CLASS
  1
PARAMMGR
  2
AcAdParamMgr
  3
DesignerAssemblies
 90
     1024
 91
        0
280
     0
281
     0
  0
CLASS
  1
PARAMSCOPE
  2
AcAdParamScope
  3
DesignerAssemblies
 90
     1024
 91
        0
280
     0
281
     0
  0
CLASS
  1
NAMEDAPPL
  2
AcAdNamedAppl
  3
DesignerAssemblies
 90
     1024
 91
        0
280
     0
281
     0
  0
CLASS
  1
AMDTDMMENUSTATE
  2
AmdtDmMenuState
  3
AcMechDwgViewMgmt
 90
     1024
 91
        0
280
     0
281
     0
  0
CLASS
  1
AMDTAMMENUSTATE
  2
AmdtAmMenuState
  3
DesignerAssemblies
 90
     1024
 91
        1
280
     0
281
     0
  0
CLASS
  1
ACAMPROJECT
  2
AcAmProject
  3
DesignerAssemblies
 90
     1024
 91
        1
280
     0
281
     0
  0
CLASS
  1
ACAMGRCOMPDEF
  2
AcAmGrCompDef
  3
DesignerAssemblies
 90
     1024
 91
        1
280
     0
281
     0
  0
CLASS
  1
ACCMCONTEXT
  2
AcCmContext
  3
DesignerAssemblies
 90
     1024
 91
        1
280
     0
281
     0
  0
CLASS
  1
ACAMCOMPDEF
  2
AcAmCompDef
  3
DesignerAssemblies
 90
     1024
 91
        1
280
     0
281
     0
  0
CLASS
  1
ACAMCOMPDEFMGR
  2
AcAmCompDefMgr
  3
DesignerAssemblies
 90
     1024
 91
        1
280
     0
281
     0
  0
CLASS
  1
AMCONTEXTMGR
  2
AcAmContextMgr
  3
DesignerAssemblies
 90
     1024
 91
        1
280
     0
281
     0
  0
CLASS
  1
ACAMCONTEXTMODELER
  2
AcAmContextModeler
  3
DesignerAssemblies
 90
     1024
 91
        1
280
     0
281
     0
  0
CLASS
  1
ACMTHREADLINESTANDARDISO
  2
AmdtThreadLineStdISO
  3
"Amdt_StdImp|Product Description: AutoCAD Mechanical|Company: Autodesk, Inc."
 90
     1024
 91
        1
280
     0
281
     0
  0
CLASS
  1
CATALOGSTATE
  2
AcAmCatalogState
  3
DesignerAssemblies
 90
     1024
 91
        0
280
     0
281
     0
  0
CLASS
  1
ACAMGRCOMPDEFSET
  2
AcAmGrCompDefSet
  3
DesignerAssemblies
 90
     1024
 91
        1
280
     0
281
     0
  0
CLASS
  1
AMDTBROWSERDBTAB
  2
AmdtBrowserDbTab
  3
McadcomServices
 90
     1024
 91
        1
280
     0
281
     0
  0
CLASS
  1
CBROWSERAPPOBJECT
  2
CBrowserAppObject
  3
McadcomServices
 90
     1024
 91
        2
280
     0
281
     0
  0
CLASS
  1
DM_PLACEHOLDER
  2
AcDmSelsetPlaceholder
  3
McadcomServices
 90
     1024
 91
        1
280
     0
281
     0
  0
CLASS
  1
TABLESTYLE
  2
AcDbTableStyle
  3
ObjectDBX Classes
 90
     4095
 91
        1
280
     0
281
     0
  0
CLASS
  1
VAACXREFPANELOBJECT
  2
VaAcXREFPanelObject
  3
VAAC_ADDIN
 90
        0
 91
        0
280
     0
281
     0
  0
CLASS
  1
VAACIMAGEINVENTORY
  2
VaAcImageInventory
  3
VAAC_ADDIN
 90
        0
 91
        0
280
     0
281
     0
  0
CLASS
  1
AMDTNOTETEMPLATEDB
  2
AmdtNoteTemplateDB
  3
AcmSymBB|Product Description: AutoCAD Mechanical|Company: Autodesk, Inc.
 90
     1024
 91
       12
280
     0
281
     0
  0
CLASS
  1
ACAMGFILTERDAT
  2
AcAmgFilterDat
  3
"AcadM|Product Description: AutoCAD Mechanical|Company: Autodesk, Inc."
 90
     1024
 91
        6
280
     0
281
     0
  0
CLASS
  1
ACMBOM
  2
AcmBom
  3
"AcmSymBB|Product Description: AutoCAD Mechanical|Company: Autodesk, Inc."
 90
     1024
 91
        0
280
     0
281
     0
  0
CLASS
  1
AMDTFORMULAUPDATEDISPATCHER
  2
AmdtFormulaUpdateDispatcher
  3
AcMeServices
 90
     1024
 91
        0
280
     0
281
     0
  0
CLASS
  1
ACMSTANDARDDIN
  2
AcmStandardDIN
  3
"Amdt_StdImp|Product Description: AutoCAD Mechanical|Company: Autodesk, Inc."
 90
     1024
 91
        1
280
     0
281
     0
  0
CLASS
  1
AMDTEDGESTANDARDDIN13715
  2
AmdtEdgeStdDIN13715
  3
"Amdt_StdImp|Product Description: AutoCAD Mechanical|Company: Autodesk, Inc."
 90
     1024
 91
        1
280
     0
281
     0
  0
CLASS
  1
ACMSURFSTANDARDDIN
  2
AcmSurfTextStdDIN
  3
"Amdt_StdImp|Product Description: AutoCAD Mechanical|Company: Autodesk, Inc."
 90
     1024
 91
        1
280
     0
281
     0
  0
CLASS
  1
ACMFCFSTANDARDDIN
  2
AcmFCFStdDIN
  3
"Amdt_StdImp|Product Description: AutoCAD Mechanical|Company: Autodesk, Inc."
 90
     1024
 91
        1
280
     0
281
     0
  0
CLASS
  1
ACMWELDSTANDARDDIN
  2
AcmWeldingStdDIN
  3
"Amdt_StdImp|Product Description: AutoCAD Mechanical|Company: Autodesk, Inc."
 90
     1024
 91
        1
280
     0
281
     0
  0
CLASS
  1
ACMIDSTANDARDDIN
  2
AcmIdStdDIN
  3
"Amdt_StdImp|Product Description: AutoCAD Mechanical|Company: Autodesk, Inc."
 90
     1024
 91
        1
280
     0
281
     0
  0
CLASS
  1
ACMDATUMSTANDARDDIN
  2
AcmDatumStdDIN
  3
"Amdt_StdImp|Product Description: AutoCAD Mechanical|Company: Autodesk, Inc."
 90
     1024
 91
        1
280
     0
281
     0
  0
CLASS
  1
ACMBOMSTANDARDDIN
  2
AcmBOMStdDIN
  3
"Amdt_StdImp|Product Description: AutoCAD Mechanical|Company: Autodesk, Inc."
 90
     1024
 91
        1
280
     0
281
     0
  0
CLASS
  1
ACMDETAILSTANDARDDIN
  2
AmdtDetailSymStdDIN
  3
"Amdt_StdImp|Product Description: AutoCAD Mechanical|Company: Autodesk, Inc."
 90
     1024
 91
        1
280
     0
281
     0
  0
CLASS
  1
ACMSECTIONSTANDARDDIN
  2
AmdtSectionSymStdDIN
  3
"Amdt_StdImp|Product Description: AutoCAD Mechanical|Company: Autodesk, Inc."
 90
     1024
 91
        1
280
     0
281
     0
  0
CLASS
  1
ACMCENTERLINESTANDARDDIN
  2
AmdtCenterLineStdDIN
  3
"Amdt_StdImp|Product Description: AutoCAD Mechanical|Company: Autodesk, Inc."
 90
     1024
 91
        1
280
     0
281
     0
  0
CLASS
  1
ACMTHREADLINESTANDARDDIN
  2
AmdtThreadLineStdDIN
  3
"Amdt_StdImp|Product Description: AutoCAD Mechanical|Company: Autodesk, Inc."
 90
     1024
 91
        1
280
     0
281
     0
  0
CLASS
  1
ACMNOTESTANDARDDIN
  2
AmdtNoteStdDIN
  3
"Amdt_StdImp|Product Description: AutoCAD Mechanical|Company: Autodesk, Inc."
 90
     1024
 91
        1
280
     0
281
     0
  0
CLASS
  1
ACAMGHOLECHARTSTDDIN
  2
AcAmgHoleChartStdDIN
  3
AmgDim|Product Description: AutoCAD Mechanical|Company: Autodesk, Inc.
 90
     1024
 91
        1
280
     0
281
     0
  0
CLASS
  1
MATERIAL
  2
AcDbMaterial
  3
ObjectDBX Classes
 90
     1153
 91
        3
280
     0
281
     0
  0
CLASS
  1
VISUALSTYLE
  2
AcDbVisualStyle
  3
ObjectDBX Classes
 90
     4095
 91
       26
280
     0
281
     0
  0
CLASS
  1
SCALE
  2
AcDbScale
  3
ObjectDBX Classes
 90
     1153
 91
       17
280
     0
281
     0
  0
CLASS
  1
MLEADERSTYLE
  2
AcDbMLeaderStyle
  3
ACDB_MLEADERSTYLE_CLASS
 90
     4095
 91
        1
280
     0
281
     0
  0
CLASS
  1
ACRFATTGENMGR
  2
AcRfAttGeneralMgr
  3
AcAttribServices
 90
     1024
 91
        1
280
     0
281
     0
  0
CLASS
  1
ACRFOBJATTMGR
  2
AcRfObjAttGroupMgr
  3
AcAttribServices
 90
     1024
 91
        1
280
     0
281
     0
  0
CLASS
  1
ACRFMCADAPIATTHOLDER
  2
AcRfMCADAPIAttHolder
  3
AcAttribServices
 90
     1024
 91
        1
280
     0
281
     0
  0
CLASS
  1
AMDTSYSATTR
  2
AmdtSystemAttribute
  3
AcAttribServices
 90
     1024
 91
        1
280
     0
281
     0
  0
CLASS
  1
ACMTAPERSTANDARDISO
  2
AcmTaperStdISO
  3
"Amdt_StdImp|Product Description: AutoCAD Mechanical|Company: Autodesk, Inc."
 90
     1024
 91
        1
280
     0
281
     0
  0
CLASS
  1
ACMANOOTATIONVIEWSTANDARDISO
  2
AmdtAnViewStdISO
  3
"Amdt_StdImp|Product Description: AutoCAD Mechanical|Company: Autodesk, Inc."
 90
     1024
 91
        1
280
     0
281
     0
  0
CLASS
  1
ACMTAPERSTANDARDDIN
  2
AcmTaperStdDIN
  3
"Amdt_StdImp|Product Description: AutoCAD Mechanical|Company: Autodesk, Inc."
 90
     1024
 91
        1
280
     0
281
     0
  0
CLASS
  1
ACMANOOTATIONVIEWSTANDARDDIN
  2
AmdtAnViewStdDIN
  3
"Amdt_StdImp|Product Description: AutoCAD Mechanical|Company: Autodesk, Inc."
 90
     1024
 91
        1
280
     0
281
     0
  0
CLASS
  1
EXACXREFPANELOBJECT
  2
ExAcXREFPanelObject
  3
EXAC_ESW
 90
     1025
 91
        0
280
     0
281
     0
  0
CLASS
  1
NPOCOLLECTION
  2
AcDbImpNonPersistentObjectsCollection
  3
ObjectDBX Classes
 90
     1153
 91
        0
280
     0
281
     0
  0
CLASS
  1
CAMSSTRUCTBTNSTATE
  2
StructBtnState
  3
DesignerAssemblies
 90
     1024
 91
        1
280
     0
281
     0
  0
CLASS
  1
CELLSTYLEMAP
  2
AcDbCellStyleMap
  3
ObjectDBX Classes
 90
     1152
 91
        1
280
     0
281
     0
  0
CLASS
  1
AEC_REFEDIT_STATUS_TRACKER
  2
AecDbRefEditStatusTracker
  3
AecArchBase60|Product Desc: Autodesk Architectural Desktop 2007 |Company: Autodesk,Inc. |WEB Address: www.autodesk.com
 90
      129
 91
        0
280
     0
281
     0
  0
CLASS
  1
IMAGE
  2
AcDbRasterImage
  3
ISM
 90
     2175
 91
        0
280
     0
281
     1
  0
CLASS
  1
IMAGEDEF_REACTOR
  2
AcDbRasterImageDefReactor
  3
ISM
 90
        1
 91
        0
280
     0
281
     0
  0
CLASS
  1
IMAGEDEF
  2
AcDbRasterImageDef
  3
ISM
 90
        0
 91
        0
280
     0
281
     0
  0
CLASS
  1
RASTERVARIABLES
  2
AcDbRasterVariables
  3
ISM
 90
        0
 91
        0
280
     0
281
     0
  0
CLASS
  1
ACDBSECTIONVIEWSTYLE
  2
AcDbSectionViewStyle
  3
ObjectDBX Classes
 90
     1025
 91
        4
280
     0
281
     0
  0
CLASS
  1
ACDBDETAILVIEWSTYLE
  2
AcDbDetailViewStyle
  3
ObjectDBX Classes
 90
     1025
 91
        3
280
     0
281
     0
  0
CLASS
  1
ACMSECTIONSTANDARDCUSTOM
  2
AmdtSectionSymStdCustom
  3
"Amdt_StdImp|Product Description: AutoCAD Mechanical|Company: Autodesk, Inc."
 90
     1024
 91
        4
280
     0
281
     0
  0
CLASS
  1
ACMDETAILTANDARDCUSTOM
  2
AmdtDetailSymStdCustom
  3
"Amdt_StdImp|Product Description: AutoCAD Mechanical|Company: Autodesk, Inc."
 90
     1024
 91
        2
280
     0
281
     0
  0
CLASS
  1
FIELD
  2
AcDbField
  3
ObjectDBX Classes
 90
     1152
 91
       12
280
     0
281
     0
  0
CLASS
  1
FIELDLIST
  2
AcDbFieldList
  3
ObjectDBX Classes
 90
     1152
 91
        1
280
     0
281
     0
  0
CLASS
  1
DIMASSOC
  2
AcDbDimAssoc
  3
"AcDbDimAssoc|Product Desc:     AcDim ARX App For Dimension|Company:          Autodesk, Inc.|WEB Address:      www.autodesk.com"
 90
        0
 91
        4
280
     0
281
     0
  0
CLASS
  1
SORTENTSTABLE
  2
AcDbSortentsTable
  3
ObjectDBX Classes
 90
        0
 91
        1
280
     0
281
     0
  0
ENDSEC
  0
SECTION
  2
TABLES
  0
TABLE
  2
VPORT
  5
8
330
0
100
AcDbSymbolTable
 70
     1
  0
VPORT
  5
3B2
330
8
100
AcDbSymbolTableRecord
100
AcDbViewportTableRecord
  2
*Active
 70
     0
 10
0.0
 20
0.0
 11
1.0
 21
1.0
 12
686.1686928731733
 22
406.9215404818557
 13
0.0
 23
0.0
 14
2.5
 24
2.5
 15
10.0
 25
10.0
 16
0.0
 26
0.0
 36
1.0
 17
0.0
 27
0.0
 37
0.0
 40
746.0853832474224
 41
2.362857142857142
 42
50.0
 43
0.0
 44
0.0
 50
0.0
 51
0.0
 71
     0
 72
   100
 73
     1
 74
     3
 75
     0
 76
     0
 77
     0
 78
     0
281
     0
 65
     1
110
0.0
120
0.0
130
0.0
111
1.0
121
0.0
131
0.0
112
0.0
122
1.0
132
0.0
 79
     0
146
0.0
348
3D2
 60
     3
 61
     5
292
     1
282
     1
141
0.0
142
0.0
 63
   250
421
  3355443
1001
ACAD_NAV_VCDISPLAY
1070
     3
  0
ENDTAB
  0
TABLE
  2
LTYPE
  5
5
330
0
100
AcDbSymbolTable
 70
    22
  0
LTYPE
  5
14
330
5
100
AcDbSymbolTableRecord
100
AcDbLinetypeTableRecord
  2
ByBlock
 70
     0
  3

 72
    65
 73
     0
 40
0.0
  0
LTYPE
  5
15
330
5
100
AcDbSymbolTableRecord
100
AcDbLinetypeTableRecord
  2
ByLayer
 70
     0
  3

 72
    65
 73
     0
 40
0.0
  0
LTYPE
  5
16
330
5
100
AcDbSymbolTableRecord
100
AcDbLinetypeTableRecord
  2
Continuous
 70
     0
  3
Solid line
 72
    65
 73
     0
 40
0.0
  0
LTYPE
  5
64
330
5
100
AcDbSymbolTableRecord
100
AcDbLinetypeTableRecord
  2
AM_ISO02W050
 70
     0
  3
__ __ __ __ __ __ __ __ __ __ __ __ __ __ __
 72
    65
 73
     2
 40
7.5
 49
6.0
 74
     0
 49
-1.5
 74
     0
  0
LTYPE
  5
65
330
5
100
AcDbSymbolTableRecord
100
AcDbLinetypeTableRecord
  2
AM_ISO08W050
 70
     0
  3
____ . ____ . ____ . ____ . ____ . ____ . ____
 72
    65
 73
     4
 40
18.0
 49
12.0
 74
     0
 49
-1.5
 74
     0
 49
3.0
 74
     0
 49
-1.5
 74
     0
  0
LTYPE
  5
66
330
5
100
AcDbSymbolTableRecord
100
AcDbLinetypeTableRecord
  2
AM_ISO09W050
 70
     0
  3
_____ . . _____ . . _____ . . ____ .. ____
 72
    65
 73
     6
 40
22.5
 49
12.0
 74
     0
 49
-1.5
 74
     0
 49
3.0
 74
     0
 49
-1.5
 74
     0
 49
3.0
 74
     0
 49
-1.5
 74
     0
  0
LTYPE
  5
67
330
5
100
AcDbSymbolTableRecord
100
AcDbLinetypeTableRecord
  2
Amconstr
 70
     0
  3
_______________________
 72
    65
 73
     2
 40
9999.0
 49
9999.0
 74
     0
 49
0.0
 74
     0
  0
LTYPE
  5
68
330
5
100
AcDbSymbolTableRecord
100
AcDbLinetypeTableRecord
  2
AM_ISO08W050x2
 70
     0
  3
__ . __ . __ . __ . __ . __
 72
    65
 73
     4
 40
9.0
 49
6.0
 74
     0
 49
-0.75
 74
     0
 49
1.5
 74
     0
 49
-0.75
 74
     0
  0
LTYPE
  5
69
330
5
100
AcDbSymbolTableRecord
100
AcDbLinetypeTableRecord
  2
AM_ISO02W050x2
 70
     0
  3
 _ _ _ _ _ _ _ _ _ _ _ _
 72
    65
 73
     2
 40
3.75
 49
3.0
 74
     0
 49
-0.75
 74
     0
  0
LTYPE
  5
6C
330
5
100
AcDbSymbolTableRecord
100
AcDbLinetypeTableRecord
  2
Amzigzag
 70
     0
  3
/\/-/\/-/\/-/\/-/\/-/\/
 72
    65
 73
     2
 40
11.0001
 49
0.0001
 74
     4
 75
   136
340
22C
 46
0.04
 50
0.0
 44
0.0
 45
0.0
 49
-11.0
 74
     0
  0
LTYPE
  5
7A
330
5
100
AcDbSymbolTableRecord
100
AcDbLinetypeTableRecord
  2
ACISOWELD
 70
     0
  3
_ _ _ _ _
 72
    65
 73
     2
 40
2.0
 49
2.0
 74
     0
 49
-1.0
 74
     0
  0
LTYPE
  5
7B
330
5
100
AcDbSymbolTableRecord
100
AcDbLinetypeTableRecord
  2
ACISOTGB
 70
     0
  3
__ . . __ . .
 72
    65
 73
     6
 40
9.0
 49
4.0
 74
     0
 49
-1.0
 74
     0
 49
1.0
 74
     0
 49
-1.0
 74
     0
 49
1.0
 74
     0
 49
-1.0
 74
     0
  0
LTYPE
  5
7C
330
5
100
AcDbSymbolTableRecord
100
AcDbLinetypeTableRecord
  2
ACISOTGL
 70
     0
  3
_ _ _ _ _
 72
    65
 73
     2
 40
3.0
 49
2.0
 74
     0
 49
-1.0
 74
     0
  0
LTYPE
  5
7E
330
5
100
AcDbSymbolTableRecord
100
AcDbLinetypeTableRecord
  2
CENTER
 70
     0
  3
__ . __
 72
    65
 73
     4
 40
7.0
 49
4.0
 74
     0
 49
-1.0
 74
     0
 49
1.0
 74
     0
 49
-1.0
 74
     0
  0
LTYPE
  5
D8
330
5
100
AcDbSymbolTableRecord
100
AcDbLinetypeTableRecord
  2
HIDDEN
 70
     0
  3
Hidden __ __ __ __ __ __ __ __ __ __ __ __ __ _
 72
    65
 73
     2
 40
9.524999999999998
 49
6.349999999999999
 74
     0
 49
-3.174999999999999
 74
     0
  0
LTYPE
  5
D9
330
5
100
AcDbSymbolTableRecord
100
AcDbLinetypeTableRecord
  2
PHANTOM2
 70
     0
  3
Phantom (.5x) ___ _ _ ___ _ _ ___ _ _ ___ _ _
 72
    65
 73
     6
 40
31.75
 49
15.875
 74
     0
 49
-3.174999999999999
 74
     0
 49
3.174999999999999
 74
     0
 49
-3.174999999999999
 74
     0
 49
3.174999999999999
 74
     0
 49
-3.174999999999999
 74
     0
  0
LTYPE
  5
2E5
330
5
100
AcDbSymbolTableRecord
100
AcDbLinetypeTableRecord
  2
ACDINWELD
 70
     0
  3
_ _ _ _ _
 72
    65
 73
     2
 40
2.0
 49
2.0
 74
     0
 49
-1.0
 74
     0
  0
LTYPE
  5
2E6
330
5
100
AcDbSymbolTableRecord
100
AcDbLinetypeTableRecord
  2
ACDINTGB
 70
     0
  3
__ . . __ . .
 72
    65
 73
     6
 40
9.0
 49
4.0
 74
     0
 49
-1.0
 74
     0
 49
1.0
 74
     0
 49
-1.0
 74
     0
 49
1.0
 74
     0
 49
-1.0
 74
     0
  0
LTYPE
  5
2E7
330
5
100
AcDbSymbolTableRecord
100
AcDbLinetypeTableRecord
  2
ACDINTGL
 70
     0
  3
_ _ _ _ _
 72
    65
 73
     2
 40
3.0
 49
2.0
 74
     0
 49
-1.0
 74
     0
  0
LTYPE
  5
321
330
5
100
AcDbSymbolTableRecord
100
AcDbLinetypeTableRecord
  2
AM_DIN_F_W050
 70
     0
  3
__ __ __ __ __ __ __ __ __ __ __ __ __ __ __
 72
    65
 73
     2
 40
6.25
 49
4.75
 74
     0
 49
-1.5
 74
     0
  0
LTYPE
  5
322
330
5
100
AcDbSymbolTableRecord
100
AcDbLinetypeTableRecord
  2
AM_DIN_G_W050
 70
     0
  3
____ . ____ . ____ . ____ . ____ . ____ . ____
 72
    65
 73
     4
 40
13.75
 49
9.75
 74
     0
 49
-1.5
 74
     0
 49
1.0
 74
     0
 49
-1.5
 74
     0
  0
LTYPE
  5
323
330
5
100
AcDbSymbolTableRecord
100
AcDbLinetypeTableRecord
  2
AM_DIN_K_W050
 70
     0
  3
_____ . . _____ . . _____ . . ____ .. ____
 72
    65
 73
     6
 40
16.25
 49
9.75
 74
     0
 49
-1.5
 74
     0
 49
1.0
 74
     0
 49
-1.5
 74
     0
 49
1.0
 74
     0
 49
-1.5
 74
     0
  0
LTYPE
  5
324
330
5
100
AcDbSymbolTableRecord
100
AcDbLinetypeTableRecord
  2
AM_DIN_G_W050x2
 70
     0
  3
__ . __ . __ . __ . __ . __
 72
    65
 73
     4
 40
6.875
 49
4.75
 74
     0
 49
-0.875
 74
     0
 49
0.375
 74
     0
 49
-0.875
 74
     0
  0
LTYPE
  5
325
330
5
100
AcDbSymbolTableRecord
100
AcDbLinetypeTableRecord
  2
AM_DIN_F_W050x2
 70
     0
  3
 _ _ _ _ _ _ _ _ _ _ _ _
 72
    65
 73
     2
 40
3.125
 49
2.25
 74
     0
 49
-0.875
 74
     0
  0
ENDTAB
  0
TABLE
  2
LAYER
  5
2
102
{ACAD_XDICTIONARY
360
5DD
102
}
330
0
100
AcDbSymbolTable
 70
     8
  0
LAYER
  5
10
102
{ACAD_XDICTIONARY
360
AF8
102
}
330
2
100
AcDbSymbolTableRecord
100
AcDbLayerTableRecord
  2
0
 70
     0
 62
     7
  6
Continuous
370
    -3
390
F
347
3C4
  0
LAYER
  5
6B1
102
{ACAD_XDICTIONARY
360
6B2
102
}
330
2
100
AcDbSymbolTableRecord
100
AcDbLayerTableRecord
  2
BEZUGSACHSEN
 70
     0
 62
     7
  6
Continuous
370
    -3
390
F
347
3C4
  0
LAYER
  5
6B3
102
{ACAD_XDICTIONARY
360
6B4
102
}
330
2
100
AcDbSymbolTableRecord
100
AcDbLayerTableRecord
  2
BG_STARTBEZUEGE
 70
     0
 62
     7
  6
Continuous
370
    -3
390
F
347
3C4
  0
LAYER
  5
6B5
102
{ACAD_XDICTIONARY
360
6B6
102
}
330
2
100
AcDbSymbolTableRecord
100
AcDbLayerTableRecord
  2
FASEN
 70
     0
 62
     7
  6
Continuous
370
    -3
390
F
347
3C4
  0
LAYER
  5
6B7
102
{ACAD_XDICTIONARY
360
6B8
102
}
330
2
100
AcDbSymbolTableRecord
100
AcDbLayerTableRecord
  2
RUNDUNGEN
 70
     0
 62
     7
  6
Continuous
370
    -3
390
F
347
3C4
  0
LAYER
  5
6B9
102
{ACAD_XDICTIONARY
360
6BA
102
}
330
2
100
AcDbSymbolTableRecord
100
AcDbLayerTableRecord
  2
TEIL_STARTBEZUEGE
 70
     0
 62
     7
  6
Continuous
370
    -3
390
F
347
3C4
  0
LAYER
  5
6BB
330
2
100
AcDbSymbolTableRecord
100
AcDbLayerTableRecord
  2
Defpoints
 70
     0
 62
     7
  6
Continuous
290
     0
370
    -3
390
F
347
3C4
  0
LAYER
  5
6BC
102
{ACAD_XDICTIONARY
360
6BD
102
}
330
2
100
AcDbSymbolTableRecord
100
AcDbLayerTableRecord
  2
P-0000
 70
     0
 62
     7
  6
Continuous
370
    -3
390
F
347
3C4
  0
ENDTAB
  0
TABLE
  2
STYLE
  5
3
330
0
100
AcDbSymbolTable
 70
    10
  0
STYLE
  5
11
330
3
100
AcDbSymbolTableRecord
100
AcDbTextStyleTableRecord
  2
STANDARD
 70
     0
 40
0.0
 41
1.0
 50
0.0
 71
     0
 42
2.5
  3
ISOCP.SHX
  4

  0
STYLE
  5
6B
330
3
100
AcDbSymbolTableRecord
100
AcDbTextStyleTableRecord
  2

 70
     1
 40
0.0
 41
1.0
 50
0.0
 71
     0
 42
2.5
  3
ltypeshp.shx
  4

  0
STYLE
  5
6D
330
3
100
AcDbSymbolTableRecord
100
AcDbTextStyleTableRecord
  2
ACISOTS
 70
     0
 40
1.0
 41
1.0
 50
0.0
 71
     0
 42
2.5
  3
isocp.shx
  4
bigfont.shx
  0
STYLE
  5
79
330
3
100
AcDbSymbolTableRecord
100
AcDbTextStyleTableRecord
  2
ACISOGDT
 70
     0
 40
0.0
 41
1.0
 50
0.0
 71
     0
 42
2.5
  3
AMGDT
  4
bigfont.shx
  0
STYLE
  5
1ED
330
3
100
AcDbSymbolTableRecord
100
AcDbTextStyleTableRecord
  2
USER1
 70
     0
 40
0.0
 41
1.0
 50
0.0
 71
     0
 42
2.5
  3
TXT.SHX
  4
bigfont.shx
  0
STYLE
  5
1EE
330
3
100
AcDbSymbolTableRecord
100
AcDbTextStyleTableRecord
  2
USER2
 70
     0
 40
0.0
 41
1.0
 50
0.0
 71
     0
 42
2.5
  3
SIMPLEX.SHX
  4
bigfont.shx
  0
STYLE
  5
1EF
330
3
100
AcDbSymbolTableRecord
100
AcDbTextStyleTableRecord
  2
USER3
 70
     0
 40
0.0
 41
1.0
 50
0.0
 71
     0
 42
2.5
  3
ITALIC.SHX
  4
bigfont.shx
  0
STYLE
  5
22C
330
3
100
AcDbSymbolTableRecord
100
AcDbTextStyleTableRecord
  2

 70
     1
 40
0.0
 41
1.0
 50
0.0
 71
     0
 42
2.5
  3
genltshp.shx
  4

  0
STYLE
  5
2D7
330
3
100
AcDbSymbolTableRecord
100
AcDbTextStyleTableRecord
  2
ACDINTS
 70
     0
 40
1.0
 41
1.0
 50
0.0
 71
     0
 42
2.5
  3
isocp.shx
  4

  0
STYLE
  5
2E4
330
3
100
AcDbSymbolTableRecord
100
AcDbTextStyleTableRecord
  2
ACDINGDT
 70
     0
 40
0.0
 41
1.0
 50
0.0
 71
     0
 42
2.5
  3
AMGDT
  4

  0
ENDTAB
  0
TABLE
  2
VIEW
  5
6
330
0
100
AcDbSymbolTable
 70
     0
  0
ENDTAB
  0
TABLE
  2
UCS
  5
7
330
0
100
AcDbSymbolTable
 70
     0
  0
ENDTAB
  0
TABLE
  2
APPID
  5
9
330
0
100
AcDbSymbolTable
 70
    15
  0
APPID
  5
12
330
9
100
AcDbSymbolTableRecord
100
AcDbRegAppTableRecord
  2
ACAD
 70
     0
  0
APPID
  5
46
330
9
100
AcDbSymbolTableRecord
100
AcDbRegAppTableRecord
  2
MCAD_NO_VIS
 70
     0
  0
APPID
  5
47
330
9
100
AcDbSymbolTableRecord
100
AcDbRegAppTableRecord
  2
ACAD_TEMP_GRAPHIC
 70
     0
  0
APPID
  5
58
330
9
100
AcDbSymbolTableRecord
100
AcDbRegAppTableRecord
  2
ACATTRIBSERVICES
 70
     0
  0
APPID
  5
EE
330
9
100
AcDbSymbolTableRecord
100
AcDbRegAppTableRecord
  2
AD_DRAW
 70
     0
  0
APPID
  5
10C
330
9
100
AcDbSymbolTableRecord
100
AcDbRegAppTableRecord
  2
DESIGNERASSEMBLIES
 70
     0
  0
APPID
  5
111
330
9
100
AcDbSymbolTableRecord
100
AcDbRegAppTableRecord
  2
ACADM_DIM_EDIT
 70
     0
  0
APPID
  5
112
330
9
100
AcDbSymbolTableRecord
100
AcDbRegAppTableRecord
  2
AMDT_DM_ADJ
 70
     0
  0
APPID
  5
1A3
330
9
100
AcDbSymbolTableRecord
100
AcDbRegAppTableRecord
  2
ACAD_DSTYLE_DIMARC_LENGTH_SYMBOL
 70
     0
  0
APPID
  5
1A4
330
9
100
AcDbSymbolTableRecord
100
AcDbRegAppTableRecord
  2
ACAD_DSTYLE_DIMJOGGED_JOGANGLE_SYMBOL
 70
     0
  0
APPID
  5
3F1
330
9
100
AcDbSymbolTableRecord
100
AcDbRegAppTableRecord
  2
ACAD_MLEADERVER
 70
     0
  0
APPID
  5
629
330
9
100
AcDbSymbolTableRecord
100
AcDbRegAppTableRecord
  2
ACAD_NAV_VCDISPLAY
 70
     0
  0
APPID
  5
6C0
330
9
100
AcDbSymbolTableRecord
100
AcDbRegAppTableRecord
  2
ACAD_DSTYLE_DIMJAG
 70
     0
  0
APPID
  5
6C1
330
9
100
AcDbSymbolTableRecord
100
AcDbRegAppTableRecord
  2
ACAD_DSTYLE_DIMBREAK
 70
     0
  0
APPID
  5
6C2
330
9
100
AcDbSymbolTableRecord
100
AcDbRegAppTableRecord
  2
ACAD_DSTYLE_DIMINSPECT
 70
     0
  0
ENDTAB
  0
TABLE
  2
DIMSTYLE
  5
A
330
0
100
AcDbSymbolTable
 70
    17
100
AcDbDimStyleTable
 71
     2
340
2F0
340
81
  0
DIMSTYLE
105
27
330
A
100
AcDbSymbolTableRecord
100
AcDbDimStyleTableRecord
  2
ISO-25
 70
     0
 41
2.5
 42
0.625
 43
3.75
 44
1.25
 73
     0
 74
     0
 77
     1
 78
     8
140
2.5
141
2.5
143
0.03937007874016
147
0.625
171
     3
172
     1
271
     2
272
     2
274
     3
278
    44
283
     0
284
     8
340
11
  0
DIMSTYLE
105
81
330
A
100
AcDbSymbolTableRecord
100
AcDbDimStyleTableRecord
  2
AM_ISO
 70
     0
  4
"
 41
2.5
 42
1.0
 43
10.0
 44
1.0
 47
0.1
 48
0.1
 73
     0
 74
     0
 77
     1
 78
     8
 79
     2
 90
     1
140
3.5
141
0.0
143
0.0393701
146
0.71
147
1.5
172
     1
176
   256
177
   256
178
     2
271
     2
272
     3
274
     4
283
     0
284
     8
340
11
371
    -1
372
    -1
1001
ACAD_DSTYLE_DIMJOGGED_JOGANGLE_SYMBOL
1070
   384
1040
0.7853981633974483
  0
DIMSTYLE
105
82
330
A
100
AcDbSymbolTableRecord
100
AcDbDimStyleTableRecord
  2
AM_ISO$3
 70
     0
  4
"
 41
2.5
 42
1.0
 43
10.0
 44
1.0
 47
0.1
 48
0.1
 73
     0
 77
     1
 78
     8
 79
     2
 90
     1
140
3.5
141
0.0
143
0.0393701
146
0.71
147
1.5
176
   256
177
   256
178
     2
271
     2
272
     3
274
     4
283
     0
284
     8
288
     1
289
     0
340
11
371
    -1
372
    -1
1001
ACAD_DSTYLE_DIMJOGGED_JOGANGLE_SYMBOL
1070
   384
1040
0.7853981633974483
  0
DIMSTYLE
105
83
330
A
100
AcDbSymbolTableRecord
100
AcDbDimStyleTableRecord
  2
AM_ISO$4
 70
     0
  4
"
 41
2.5
 42
1.0
 43
10.0
 44
1.0
 47
0.1
 48
0.1
 73
     0
 77
     1
 78
     8
 79
     2
 90
     1
140
3.5
141
0.0
143
0.0393701
146
0.71
147
1.5
176
   256
177
   256
178
     2
271
     2
272
     3
274
     4
283
     0
284
     8
288
     1
289
     0
340
11
371
    -1
372
    -1
1001
ACAD_DSTYLE_DIMJOGGED_JOGANGLE_SYMBOL
1070
   384
1040
0.7853981633974483
  0
DIMSTYLE
105
84
330
A
100
AcDbSymbolTableRecord
100
AcDbDimStyleTableRecord
  2
AM_ISO$6
 70
     0
  4
"
 41
2.5
 42
1.0
 43
10.0
 44
1.0
 47
0.1
 48
0.1
 73
     0
 74
     0
 78
     8
 79
     2
 90
     1
140
3.5
141
0.0
143
0.0393701
146
0.71
147
1.5
172
     1
176
   256
177
   256
178
     2
271
     2
272
     3
274
     4
283
     0
284
     8
340
11
371
    -1
372
    -1
1001
ACAD_DSTYLE_DIMJOGGED_JOGANGLE_SYMBOL
1070
   384
1040
0.7853981633974483
  0
DIMSTYLE
105
85
330
A
100
AcDbSymbolTableRecord
100
AcDbDimStyleTableRecord
  2
AM_ISO$7
 70
     0
  4
"
 41
2.5
 42
1.0
 43
10.0
 44
1.0
 47
0.1
 48
0.1
 73
     0
 74
     0
 77
     1
 78
     8
 79
     2
 90
     1
140
5.0
141
0.0
143
0.0393701
146
0.71
147
1.5
172
     1
176
   256
177
   256
178
     2
271
     2
272
     3
274
     4
283
     0
284
     8
340
11
371
    -1
372
    -1
1001
ACAD_DSTYLE_DIMJOGGED_JOGANGLE_SYMBOL
1070
   384
1040
0.7853981633974483
  0
DIMSTYLE
105
86
330
A
100
AcDbSymbolTableRecord
100
AcDbDimStyleTableRecord
  2
AM_ISO$SF
 70
     0
  4
"
 41
2.5
 42
1.0
 43
10.0
 44
1.0
 47
0.1
 48
0.1
 73
     0
 74
     0
 75
     1
 76
     1
 77
     1
 78
     8
 79
     2
 90
     1
140
3.5
141
0.0
143
0.0393701
146
0.71
147
1.5
172
     1
176
   256
177
   256
178
     2
271
     2
272
     3
274
     4
283
     0
284
     8
340
11
371
    -1
372
    -1
1001
ACAD_DSTYLE_DIMJOGGED_JOGANGLE_SYMBOL
1070
   384
1040
0.7853981633974483
  0
DIMSTYLE
105
8B
330
A
100
AcDbSymbolTableRecord
100
AcDbDimStyleTableRecord
  2
AM_ISO$SH
 70
     0
  4
"
 41
2.5
 42
1.0
 43
10.0
 44
1.0
 47
0.1
 48
0.1
 73
     0
 74
     0
 75
     1
 76
     1
 77
     1
 78
     8
 79
     2
 90
     1
140
3.5
141
0.0
143
0.0393701
144
2.0
146
0.71
147
1.5
172
     1
173
     1
176
   256
177
   256
178
     2
271
     2
272
     3
274
     4
283
     0
284
     8
340
11
343
87
371
    -1
372
    -1
1001
ACAD_DSTYLE_DIMJOGGED_JOGANGLE_SYMBOL
1070
   384
1040
0.7853981633974483
  0
DIMSTYLE
105
2F0
330
A
100
AcDbSymbolTableRecord
100
AcDbDimStyleTableRecord
  2
AM_DIN
 70
     0
  4
"
 41
2.5
 42
1.0
 43
10.0
 44
1.0
 47
0.1
 48
0.1
 50
90.0
 73
     0
 74
     0
 77
     1
 78
     8
 79
     2
140
3.5
141
0.0
143
0.0393701
146
0.71
147
1.5
172
     1
176
   256
177
   256
178
     2
271
     2
272
     3
274
     4
283
     0
284
     8
340
11
371
    -1
372
    -1
1001
ACAD_DSTYLE_DIMJOGGED_JOGANGLE_SYMBOL
1070
   384
1040
1.570796326794896
  0
DIMSTYLE
105
301
330
A
100
AcDbSymbolTableRecord
100
AcDbDimStyleTableRecord
  2
AM_DIN$3
 70
     0
  4
"
 41
2.5
 42
1.0
 43
10.0
 44
1.0
 47
0.1
 48
0.1
 50
90.0
 73
     0
 77
     1
 78
     8
 79
     2
140
3.5
141
0.0
143
0.0393701
146
0.71
147
1.5
176
   256
177
   256
178
     2
271
     2
272
     3
274
     4
283
     0
284
     8
288
     1
289
     0
340
11
371
    -1
372
    -1
1001
ACAD_DSTYLE_DIMJOGGED_JOGANGLE_SYMBOL
1070
   384
1040
1.570796326794896
  0
DIMSTYLE
105
306
330
A
100
AcDbSymbolTableRecord
100
AcDbDimStyleTableRecord
  2
AM_DIN$4
 70
     0
  4
"
 41
2.5
 42
1.0
 43
10.0
 44
1.0
 47
0.1
 48
0.1
 50
90.0
 73
     0
 77
     1
 78
     8
 79
     2
140
3.5
141
0.0
143
0.0393701
146
0.71
147
1.5
176
   256
177
   256
178
     2
271
     2
272
     3
274
     4
283
     0
284
     8
288
     1
289
     0
340
11
371
    -1
372
    -1
1001
ACAD_DSTYLE_DIMJOGGED_JOGANGLE_SYMBOL
1070
   384
1040
1.570796326794896
  0
DIMSTYLE
105
30B
330
A
100
AcDbSymbolTableRecord
100
AcDbDimStyleTableRecord
  2
AM_DIN$6
 70
     0
  4
"
 41
2.5
 42
1.0
 43
10.0
 44
1.0
 47
0.1
 48
0.1
 50
90.0
 73
     0
 74
     0
 78
     8
 79
     2
140
3.5
141
0.0
143
0.0393701
146
0.71
147
1.5
172
     1
176
   256
177
   256
178
     2
271
     2
272
     3
274
     4
283
     0
284
     8
340
11
371
    -1
372
    -1
1001
ACAD_DSTYLE_DIMJOGGED_JOGANGLE_SYMBOL
1070
   384
1040
1.570796326794896
  0
DIMSTYLE
105
310
330
A
100
AcDbSymbolTableRecord
100
AcDbDimStyleTableRecord
  2
AM_DIN$7
 70
     0
  4
"
 41
2.5
 42
1.0
 43
10.0
 44
1.0
 47
0.1
 48
0.1
 50
90.0
 73
     0
 74
     0
 77
     1
 78
     8
 79
     2
140
5.0
141
0.0
143
0.0393701
146
0.71
147
1.5
172
     1
176
   256
177
   256
178
     2
271
     2
272
     3
274
     4
283
     0
284
     8
340
11
371
    -1
372
    -1
1001
ACAD_DSTYLE_DIMJOGGED_JOGANGLE_SYMBOL
1070
   384
1040
1.570796326794896
  0
DIMSTYLE
105
315
330
A
100
AcDbSymbolTableRecord
100
AcDbDimStyleTableRecord
  2
AM_DIN$SF
 70
     0
  4
"
 41
2.5
 42
1.0
 43
10.0
 44
1.0
 47
0.1
 48
0.1
 50
90.0
 73
     0
 74
     0
 75
     1
 76
     1
 77
     1
 78
     8
 79
     2
140
3.5
141
0.0
143
0.0393701
146
0.71
147
1.5
172
     1
176
   256
177
   256
178
     2
271
     2
272
     3
274
     4
283
     0
284
     8
340
11
371
    -1
372
    -1
1001
ACAD_DSTYLE_DIMJOGGED_JOGANGLE_SYMBOL
1070
   384
1040
1.570796326794896
  0
DIMSTYLE
105
31A
330
A
100
AcDbSymbolTableRecord
100
AcDbDimStyleTableRecord
  2
AM_DIN$SH
 70
     0
  4
"
 41
2.5
 42
1.0
 43
10.0
 44
1.0
 47
0.1
 48
0.1
 50
90.0
 73
     0
 74
     0
 75
     1
 76
     1
 77
     1
 78
     8
 79
     2
140
3.5
141
0.0
143
0.0393701
144
2.0
146
0.71
147
1.5
172
     1
173
     1
176
   256
177
   256
178
     2
271
     2
272
     3
274
     4
283
     0
284
     8
340
11
343
87
371
    -1
372
    -1
1001
ACAD_DSTYLE_DIMJOGGED_JOGANGLE_SYMBOL
1070
   384
1040
1.570796326794896
  0
DIMSTYLE
105
6BE
330
A
100
AcDbSymbolTableRecord
100
AcDbDimStyleTableRecord
  2
STANDARD
 70
     0
 41
3.5
 42
1.5
 44
1.5
 47
0.005
 48
0.005
 71
     1
 73
     0
 74
     0
 77
     1
 78
     8
140
3.5
147
0.625
178
     5
271
     3
272
     3
284
     8
340
11
341
656
342
656
343
656
344
656
  0
DIMSTYLE
105
6BF
102
{ACAD_REACTORS
330
892
330
893
330
894
330
895
330
896
330
899
330
89A
330
A6C
330
A6D
330
A6E
330
A6F
330
A70
330
A73
330
A74
102
}
330
A
100
AcDbSymbolTableRecord
100
AcDbDimStyleTableRecord
  2
883N99122_001_00149479900
 70
     0
 40
2.0
 41
3.149999999999999
 42
0.0
 43
3.75
 44
2.0
 73
     0
 74
     0
 77
     1
 78
     8
 79
     2
140
3.5
141
0.0
143
0.03937007874016
145
2.0
147
2.0
171
     3
172
     1
173
     1
176
     3
177
     3
178
     2
179
     2
271
     2
272
     2
274
     3
283
     0
284
     8
340
11
341
65A
  0
ENDTAB
  0
TABLE
  2
BLOCK_RECORD
  5
1
330
0
100
AcDbSymbolTable
 70
    22
  0
BLOCK_RECORD
  5
1F
102
{ACAD_XDICTIONARY
360
8F
102
}
330
1
100
AcDbSymbolTableRecord
100
AcDbBlockTableRecord
  2
*Model_Space
340
22
 70
     0
280
     1
281
     0
  0
BLOCK_RECORD
  5
1B
330
1
100
AcDbSymbolTableRecord
100
AcDbBlockTableRecord
  2
*Paper_Space
340
1E
 70
     0
280
     1
281
     0
  0
BLOCK_RECORD
  5
23
330
1
100
AcDbSymbolTableRecord
100
AcDbBlockTableRecord
  2
*Paper_Space0
340
26
 70
     0
280
     1
281
     0
  0
BLOCK_RECORD
  5
87
330
1
100
AcDbSymbolTableRecord
100
AcDbBlockTableRecord
  2
GENAXEH
340
0
 70
     0
280
     1
281
     0
  0
BLOCK_RECORD
  5
609
330
1
100
AcDbSymbolTableRecord
100
AcDbBlockTableRecord
  2
_ACMFILLED15
340
0
 70
     0
280
     1
281
     0
  0
BLOCK_RECORD
  5
61B
330
1
100
AcDbSymbolTableRecord
100
AcDbBlockTableRecord
  2
_ACMFILLED30
340
0
 70
     0
280
     1
281
     0
  0
BLOCK_RECORD
  5
656
330
1
100
AcDbSymbolTableRecord
100
AcDbBlockTableRecord
  2
_FILLED
340
0
 70
     0
280
     1
281
     0
  0
BLOCK_RECORD
  5
65A
330
1
100
AcDbSymbolTableRecord
100
AcDbBlockTableRecord
  2
_None
340
0
 70
     0
280
     1
281
     0
  0
BLOCK_RECORD
  5
65D
330
1
100
AcDbSymbolTableRecord
100
AcDbBlockTableRecord
  2
*D7
340
0
 70
     0
280
     1
281
     0
  0
BLOCK_RECORD
  5
669
330
1
100
AcDbSymbolTableRecord
100
AcDbBlockTableRecord
  2
*D8
340
0
 70
     0
280
     1
281
     0
  0
BLOCK_RECORD
  5
675
330
1
100
AcDbSymbolTableRecord
100
AcDbBlockTableRecord
  2
*D9
340
0
 70
     0
280
     1
281
     0
  0
BLOCK_RECORD
  5
681
330
1
100
AcDbSymbolTableRecord
100
AcDbBlockTableRecord
  2
*D10
340
0
 70
     0
280
     1
281
     0
  0
BLOCK_RECORD
  5
68D
330
1
100
AcDbSymbolTableRecord
100
AcDbBlockTableRecord
  2
*D11
340
0
 70
     0
280
     1
281
     0
  0
BLOCK_RECORD
  5
699
330
1
100
AcDbSymbolTableRecord
100
AcDbBlockTableRecord
  2
*D12
340
0
 70
     0
280
     1
281
     0
  0
BLOCK_RECORD
  5
6A5
330
1
100
AcDbSymbolTableRecord
100
AcDbBlockTableRecord
  2
*D13
340
0
 70
     0
280
     1
281
     0
  0
BLOCK_RECORD
  5
A77
330
1
100
AcDbSymbolTableRecord
100
AcDbBlockTableRecord
  2
*D15
340
0
 70
     0
280
     1
281
     0
  0
BLOCK_RECORD
  5
A83
330
1
100
AcDbSymbolTableRecord
100
AcDbBlockTableRecord
  2
*D16
340
0
 70
     0
280
     1
281
     0
  0
BLOCK_RECORD
  5
A8F
330
1
100
AcDbSymbolTableRecord
100
AcDbBlockTableRecord
  2
*D17
340
0
 70
     0
280
     1
281
     0
  0
BLOCK_RECORD
  5
A9B
330
1
100
AcDbSymbolTableRecord
100
AcDbBlockTableRecord
  2
*D18
340
0
 70
     0
280
     1
281
     0
  0
BLOCK_RECORD
  5
AA7
330
1
100
AcDbSymbolTableRecord
100
AcDbBlockTableRecord
  2
*D19
340
0
 70
     0
280
     1
281
     0
  0
BLOCK_RECORD
  5
AD7
330
1
100
AcDbSymbolTableRecord
100
AcDbBlockTableRecord
  2
*D20
340
0
 70
     0
280
     1
281
     0
  0
BLOCK_RECORD
  5
AEC
330
1
100
AcDbSymbolTableRecord
100
AcDbBlockTableRecord
  2
*D21
340
0
 70
     0
280
     1
281
     0
  0
ENDTAB
  0
ENDSEC
  0
SECTION
  2
BLOCKS
  0
BLOCK
  5
20
330
1F
100
AcDbEntity
  8
0
100
AcDbBlockBegin
  2
*Model_Space
 70
     0
 10
0.0
 20
0.0
 30
0.0
  3
*Model_Space
  1

  0
ENDBLK
  5
21
330
1F
100
AcDbEntity
  8
0
100
AcDbBlockEnd
  0
BLOCK
  5
1C
330
1B
100
AcDbEntity
 67
     1
  8
0
100
AcDbBlockBegin
  2
*Paper_Space
 70
     0
 10
0.0
 20
0.0
 30
0.0
  3
*Paper_Space
  1

  0
ENDBLK
  5
1D
330
1B
100
AcDbEntity
 67
     1
  8
0
100
AcDbBlockEnd
  0
BLOCK
  5
24
330
23
100
AcDbEntity
 67
     1
  8
0
100
AcDbBlockBegin
  2
*Paper_Space0
 70
     0
 10
0.0
 20
0.0
 30
0.0
  3
*Paper_Space0
  1

  0
ENDBLK
  5
25
330
23
100
AcDbEntity
 67
     1
  8
0
100
AcDbBlockEnd
  0
BLOCK
  5
89
330
87
100
AcDbEntity
  8
0
100
AcDbBlockBegin
  2
GENAXEH
 70
     0
 10
0.0
 20
0.0
 30
0.0
  3
GENAXEH
  1

  0
LINE
  5
88
330
87
100
AcDbEntity
  8
0
100
AcDbLine
 10
-1.0
 20
0.0
 30
0.0
 11
1.0
 21
0.0
 31
0.0
  0
ENDBLK
  5
8A
330
87
100
AcDbEntity
  8
0
100
AcDbBlockEnd
  0
BLOCK
  5
60A
330
609
100
AcDbEntity
  8
0
100
AcDbBlockBegin
  2
_ACMFILLED15
 70
     0
 10
0.0
 20
0.0
 30
0.0
  3
_ACMFILLED15
  1

  0
TRACE
  5
60C
330
609
100
AcDbEntity
  8
0
 62
     0
100
AcDbTrace
 10
-1.0
 20
-0.131652497
 30
0.0
 11
-1.0
 21
0.131652497
 31
0.0
 12
0.0
 22
0.0
 32
0.0
 13
0.0
 23
0.0
 33
0.0
  0
ENDBLK
  5
60B
330
609
100
AcDbEntity
  8
0
100
AcDbBlockEnd
  0
BLOCK
  5
61C
330
61B
100
AcDbEntity
  8
0
100
AcDbBlockBegin
  2
_ACMFILLED30
 70
     0
 10
0.0
 20
0.0
 30
0.0
  3
_ACMFILLED30
  1

  0
TRACE
  5
61E
330
61B
100
AcDbEntity
  8
0
 62
     0
100
AcDbTrace
 10
-1.0
 20
-0.26794919
 30
0.0
 11
-1.0
 21
0.26794919
 31
0.0
 12
0.0
 22
0.0
 32
0.0
 13
0.0
 23
0.0
 33
0.0
  0
ENDBLK
  5
61D
330
61B
100
AcDbEntity
  8
0
100
AcDbBlockEnd
  0
BLOCK
  5
657
330
656
100
AcDbEntity
  8
0
100
AcDbBlockBegin
  2
_FILLED
 70
     0
 10
0.0
 20
0.0
 30
0.0
  3
_FILLED
  1

  0
SOLID
  5
658
330
656
100
AcDbEntity
  8
0
  6
ByBlock
 62
     0
100
AcDbTrace
 10
0.0
 20
0.0
 30
0.0
 11
-1.0
 21
0.125
 31
0.0
 12
-1.0
 22
-0.125
 32
0.0
 13
-1.0
 23
-0.125
 33
0.0
  0
ENDBLK
  5
659
330
656
100
AcDbEntity
  8
0
  6
ByBlock
 62
     0
100
AcDbBlockEnd
  0
BLOCK
  5
65B
330
65A
100
AcDbEntity
  8
0
100
AcDbBlockBegin
  2
_None
 70
     0
 10
0.0
 20
0.0
 30
0.0
  3
_None
  1

  0
ENDBLK
  5
65C
330
65A
100
AcDbEntity
  8
0
100
AcDbBlockEnd
  0
BLOCK
  5
65E
330
65D
100
AcDbEntity
  8
0
100
AcDbBlockBegin
  2
*D7
 70
     1
 10
0.0
 20
0.0
 30
0.0
  3
*D7
  1

  0
LINE
  5
65F
330
65D
100
AcDbEntity
  8
P-0000
  6
Continuous
 62
     3
440
 16777216
370
    -2
100
AcDbLine
 10
-264.2997540459892
 20
-1097.031669091768
 30
0.0
 11
-323.452604902335
 21
-1097.031669091768
 31
0.0
  0
LINE
  5
660
330
65D
100
AcDbEntity
  8
P-0000
  6
Continuous
 62
     3
440
 16777216
370
    -2
100
AcDbLine
 10
298.2701460532608
 20
-1194.231669091768
 30
0.0
 11
-323.452604902335
 21
-1194.231669091768
 31
0.0
  0
LINE
  5
661
330
65D
100
AcDbEntity
  8
P-0000
  6
Continuous
 62
     3
440
 16777216
370
    -2
100
AcDbLine
 10
-319.452604902335
 20
-1103.331669091768
 30
0.0
 11
-319.452604902335
 21
-1187.931669091768
 31
0.0
  0
SOLID
  5
662
330
65D
100
AcDbEntity
  8
P-0000
  6
Continuous
 62
     3
440
 16777216
100
AcDbTrace
 10
-320.5026049023349
 20
-1103.331669091768
 30
0.0
 11
-318.4026049023349
 21
-1103.331669091768
 31
0.0
 12
-319.452604902335
 22
-1097.031669091768
 32
0.0
 13
-319.452604902335
 23
-1097.031669091768
 33
0.0
  0
SOLID
  5
663
330
65D
100
AcDbEntity
  8
P-0000
  6
Continuous
 62
     3
440
 16777216
100
AcDbTrace
 10
-320.502604902335
 20
-1187.931669091768
 30
0.0
 11
-318.402604902335
 21
-1187.931669091768
 31
0.0
 12
-319.452604902335
 22
-1194.231669091768
 32
0.0
 13
-319.452604902335
 23
-1194.231669091768
 33
0.0
  0
MTEXT
  5
664
330
65D
100
AcDbEntity
  8
P-0000
  6
Continuous
 62
     2
440
 16777216
100
AcDbMText
 10
-330.4526049023348
 20
-1146.553496419113
 30
0.0
 40
7.0
 41
0.0
 46
0.0
 71
     2
 72
     1
  1
97
 11
0.0000000000000001
 21
1.0
 31
0.0
 73
     1
 44
1.0
  0
POINT
  5
665
330
65D
100
AcDbEntity
  8
Defpoints
  6
Continuous
 62
     0
440
 16777216
100
AcDbPoint
 10
-264.2997540459892
 20
-1097.031669091768
 30
0.0
  0
POINT
  5
666
330
65D
100
AcDbEntity
  8
Defpoints
  6
Continuous
 62
     0
440
 16777216
100
AcDbPoint
 10
298.2701460532608
 20
-1194.231669091768
 30
0.0
  0
POINT
  5
667
330
65D
100
AcDbEntity
  8
Defpoints
  6
Continuous
 62
     0
440
 16777216
100
AcDbPoint
 10
-319.452604902335
 20
-1194.231669091768
 30
0.0
  0
ENDBLK
  5
668
330
65D
100
AcDbEntity
  8
0
100
AcDbBlockEnd
  0
BLOCK
  5
66A
330
669
100
AcDbEntity
  8
0
100
AcDbBlockBegin
  2
*D8
 70
     1
 10
0.0
 20
0.0
 30
0.0
  3
*D8
  1

  0
LINE
  5
66B
330
669
100
AcDbEntity
  8
P-0000
  6
Continuous
 62
     3
440
 16777216
370
    -2
100
AcDbLine
 10
-241.2997540459892
 20
-1303.367786346868
 30
0.0
 11
-297.926452366969
 21
-1303.367786346868
 31
0.0
  0
LINE
  5
66C
330
669
100
AcDbEntity
  8
P-0000
  6
Continuous
 62
     3
440
 16777216
370
    -2
100
AcDbLine
 10
-241.2997540459892
 20
-1367.455509934268
 30
0.0
 11
-297.926452366969
 21
-1367.455509934268
 31
0.0
  0
LINE
  5
66D
330
669
100
AcDbEntity
  8
P-0000
  6
Continuous
 62
     3
440
 16777216
370
    -2
100
AcDbLine
 10
-293.926452366969
 20
-1309.667786346868
 30
0.0
 11
-293.926452366969
 21
-1361.155509934268
 31
0.0
  0
SOLID
  5
66E
330
669
100
AcDbEntity
  8
P-0000
  6
Continuous
 62
     3
440
 16777216
100
AcDbTrace
 10
-294.976452366969
 20
-1309.667786346868
 30
0.0
 11
-292.876452366969
 21
-1309.667786346868
 31
0.0
 12
-293.926452366969
 22
-1303.367786346868
 32
0.0
 13
-293.926452366969
 23
-1303.367786346868
 33
0.0
  0
SOLID
  5
66F
330
669
100
AcDbEntity
  8
P-0000
  6
Continuous
 62
     3
440
 16777216
100
AcDbTrace
 10
-294.976452366969
 20
-1361.155509934268
 30
0.0
 11
-292.876452366969
 21
-1361.155509934268
 31
0.0
 12
-293.926452366969
 22
-1367.455509934268
 32
0.0
 13
-293.926452366969
 23
-1367.455509934268
 33
0.0
  0
MTEXT
  5
670
330
669
100
AcDbEntity
  8
P-0000
  6
Continuous
 62
     2
440
 16777216
100
AcDbMText
 10
-304.9264523669688
 20
-1334.022662365909
 30
0.0
 40
7.0
 41
0.0
 46
0.0
 71
     2
 72
     1
  1
64
 11
0.0000000000000001
 21
1.0
 31
0.0
 73
     1
 44
1.0
  0
POINT
  5
671
330
669
100
AcDbEntity
  8
Defpoints
  6
Continuous
 62
     0
440
 16777216
100
AcDbPoint
 10
-241.2997540459892
 20
-1303.367786346868
 30
0.0
  0
POINT
  5
672
330
669
100
AcDbEntity
  8
Defpoints
  6
Continuous
 62
     0
440
 16777216
100
AcDbPoint
 10
-241.2997540459892
 20
-1367.455509934268
 30
0.0
  0
POINT
  5
673
330
669
100
AcDbEntity
  8
Defpoints
  6
Continuous
 62
     0
440
 16777216
100
AcDbPoint
 10
-293.926452366969
 20
-1367.455509934268
 30
0.0
  0
ENDBLK
  5
674
330
669
100
AcDbEntity
  8
0
100
AcDbBlockEnd
  0
BLOCK
  5
676
330
675
100
AcDbEntity
  8
0
100
AcDbBlockBegin
  2
*D9
 70
     1
 10
0.0
 20
0.0
 30
0.0
  3
*D9
  1

  0
LINE
  5
677
330
675
100
AcDbEntity
  8
P-0000
  6
Continuous
 62
     3
440
 16777216
370
    -2
100
AcDbLine
 10
-273.7997540459892
 20
-1289.367786346868
 30
0.0
 11
-322.5330787598707
 21
-1289.367786346868
 31
0.0
  0
LINE
  5
678
330
675
100
AcDbEntity
  8
P-0000
  6
Continuous
 62
     3
440
 16777216
370
    -2
100
AcDbLine
 10
-252.5497540459892
 20
-1401.367786346868
 30
0.0
 11
-322.5330787598707
 21
-1401.367786346868
 31
0.0
  0
LINE
  5
679
330
675
100
AcDbEntity
  8
P-0000
  6
Continuous
 62
     3
440
 16777216
370
    -2
100
AcDbLine
 10
-318.5330787598707
 20
-1295.667786346868
 30
0.0
 11
-318.5330787598707
 21
-1395.067786346868
 31
0.0
  0
SOLID
  5
67A
330
675
100
AcDbEntity
  8
P-0000
  6
Continuous
 62
     3
440
 16777216
100
AcDbTrace
 10
-319.5830787598707
 20
-1295.667786346868
 30
0.0
 11
-317.4830787598707
 21
-1295.667786346868
 31
0.0
 12
-318.5330787598707
 22
-1289.367786346868
 32
0.0
 13
-318.5330787598707
 23
-1289.367786346868
 33
0.0
  0
SOLID
  5
67B
330
675
100
AcDbEntity
  8
P-0000
  6
Continuous
 62
     3
440
 16777216
100
AcDbTrace
 10
-319.5830787598707
 20
-1395.067786346868
 30
0.0
 11
-317.4830787598707
 21
-1395.067786346868
 31
0.0
 12
-318.5330787598707
 22
-1401.367786346868
 32
0.0
 13
-318.5330787598707
 23
-1401.367786346868
 33
0.0
  0
MTEXT
  5
67C
330
675
100
AcDbEntity
  8
P-0000
  6
Continuous
 62
     2
440
 16777216
100
AcDbMText
 10
-329.5330787598705
 20
-1340.680799496141
 30
0.0
 40
7.0
 41
0.0
 46
0.0
 71
     2
 72
     1
  1
112
 11
0.0000000000000001
 21
1.0
 31
0.0
 73
     1
 44
1.0
  0
POINT
  5
67D
330
675
100
AcDbEntity
  8
Defpoints
  6
Continuous
 62
     0
440
 16777216
100
AcDbPoint
 10
-273.7997540459892
 20
-1289.367786346868
 30
0.0
  0
POINT
  5
67E
330
675
100
AcDbEntity
  8
Defpoints
  6
Continuous
 62
     0
440
 16777216
100
AcDbPoint
 10
-252.5497540459892
 20
-1401.367786346868
 30
0.0
  0
POINT
  5
67F
330
675
100
AcDbEntity
  8
Defpoints
  6
Continuous
 62
     0
440
 16777216
100
AcDbPoint
 10
-318.5330787598707
 20
-1401.367786346868
 30
0.0
  0
ENDBLK
  5
680
330
675
100
AcDbEntity
  8
0
100
AcDbBlockEnd
  0
BLOCK
  5
682
330
681
100
AcDbEntity
  8
0
100
AcDbBlockBegin
  2
*D10
 70
     1
 10
0.0
 20
0.0
 30
0.0
  3
*D10
  1

  0
LINE
  5
683
330
681
100
AcDbEntity
  8
P-0000
  6
Continuous
 62
     3
440
 16777216
370
    -2
100
AcDbLine
 10
-264.2997540459892
 20
-1097.031669091768
 30
0.0
 11
-298.836357123934
 21
-1097.031669091768
 31
0.0
  0
LINE
  5
684
330
681
100
AcDbEntity
  8
P-0000
  6
Continuous
 62
     3
440
 16777216
370
    -2
100
AcDbLine
 10
-242.7997540459892
 20
-1127.031669091768
 30
0.0
 11
-298.836357123934
 21
-1127.031669091768
 31
0.0
  0
LINE
  5
685
330
681
100
AcDbEntity
  8
P-0000
  6
Continuous
 62
     3
440
 16777216
370
    -2
100
AcDbLine
 10
-294.836357123934
 20
-1103.331669091768
 30
0.0
 11
-294.836357123934
 21
-1120.731669091768
 31
0.0
  0
SOLID
  5
686
330
681
100
AcDbEntity
  8
P-0000
  6
Continuous
 62
     3
440
 16777216
100
AcDbTrace
 10
-295.886357123934
 20
-1103.331669091768
 30
0.0
 11
-293.786357123934
 21
-1103.331669091768
 31
0.0
 12
-294.836357123934
 22
-1097.031669091768
 32
0.0
 13
-294.836357123934
 23
-1097.031669091768
 33
0.0
  0
SOLID
  5
687
330
681
100
AcDbEntity
  8
P-0000
  6
Continuous
 62
     3
440
 16777216
100
AcDbTrace
 10
-295.886357123934
 20
-1120.731669091768
 30
0.0
 11
-293.786357123934
 21
-1120.731669091768
 31
0.0
 12
-294.836357123934
 22
-1127.031669091768
 32
0.0
 13
-294.836357123934
 23
-1127.031669091768
 33
0.0
  0
MTEXT
  5
688
330
681
100
AcDbEntity
  8
P-0000
  6
Continuous
 62
     2
440
 16777216
100
AcDbMText
 10
-305.8363571239338
 20
-1113.786098571372
 30
0.0
 40
7.0
 41
0.0
 46
0.0
 71
     2
 72
     1
  1
30
 11
0.0000000000000001
 21
1.0
 31
0.0
 73
     1
 44
1.0
  0
POINT
  5
689
330
681
100
AcDbEntity
  8
Defpoints
  6
Continuous
 62
     0
440
 16777216
100
AcDbPoint
 10
-264.2997540459892
 20
-1097.031669091768
 30
0.0
  0
POINT
  5
68A
330
681
100
AcDbEntity
  8
Defpoints
  6
Continuous
 62
     0
440
 16777216
100
AcDbPoint
 10
-242.7997540459892
 20
-1127.031669091768
 30
0.0
  0
POINT
  5
68B
330
681
100
AcDbEntity
  8
Defpoints
  6
Continuous
 62
     0
440
 16777216
100
AcDbPoint
 10
-294.836357123934
 20
-1127.031669091768
 30
0.0
  0
ENDBLK
  5
68C
330
681
100
AcDbEntity
  8
0
100
AcDbBlockEnd
  0
BLOCK
  5
68E
330
68D
100
AcDbEntity
  8
0
100
AcDbBlockBegin
  2
*D11
 70
     1
 10
0.0
 20
0.0
 30
0.0
  3
*D11
  1

  0
LINE
  5
68F
330
68D
100
AcDbEntity
  8
P-0000
  6
Continuous
 62
     3
440
 16777216
370
    -2
100
AcDbLine
 10
-241.7997540459892
 20
-1134.281669091768
 30
0.0
 11
-241.7997540459892
 21
-1067.888765560236
 31
0.0
  0
LINE
  5
690
330
68D
100
AcDbEntity
  8
P-0000
  6
Continuous
 62
     3
440
 16777216
370
    -2
100
AcDbLine
 10
938.2002459540109
 20
-1133.031669091768
 30
0.0
 11
938.2002459540109
 21
-1067.888765560236
 31
0.0
  0
LINE
  5
691
330
68D
100
AcDbEntity
  8
P-0000
  6
Continuous
 62
     3
440
 16777216
370
    -2
100
AcDbLine
 10
-235.4997540459891
 20
-1071.888765560236
 30
0.0
 11
931.9002459540108
 21
-1071.888765560236
 31
0.0
  0
SOLID
  5
692
330
68D
100
AcDbEntity
  8
P-0000
  6
Continuous
 62
     3
440
 16777216
100
AcDbTrace
 10
-235.4997540459891
 20
-1070.838765560236
 30
0.0
 11
-235.4997540459891
 21
-1072.938765560236
 31
0.0
 12
-241.7997540459892
 22
-1071.888765560236
 32
0.0
 13
-241.7997540459892
 23
-1071.888765560236
 33
0.0
  0
SOLID
  5
693
330
68D
100
AcDbEntity
  8
P-0000
  6
Continuous
 62
     3
440
 16777216
100
AcDbTrace
 10
931.9002459540108
 20
-1070.838765560236
 30
0.0
 11
931.9002459540108
 21
-1072.938765560236
 31
0.0
 12
938.2002459540109
 22
-1071.888765560236
 32
0.0
 13
938.2002459540109
 23
-1071.888765560236
 33
0.0
  0
MTEXT
  5
694
330
68D
100
AcDbEntity
  8
P-0000
  6
Continuous
 62
     2
440
 16777216
100
AcDbMText
 10
348.2002459540108
 20
-1064.388765560236
 30
0.0
 40
7.0
 41
0.0
 46
0.0
 71
     5
 72
     1
  1
1180
 73
     1
 44
1.0
  0
POINT
  5
695
330
68D
100
AcDbEntity
  8
Defpoints
  6
Continuous
 62
     0
440
 16777216
100
AcDbPoint
 10
-241.7997540459892
 20
-1134.281669091768
 30
0.0
  0
POINT
  5
696
330
68D
100
AcDbEntity
  8
Defpoints
  6
Continuous
 62
     0
440
 16777216
100
AcDbPoint
 10
938.2002459540109
 20
-1133.031669091768
 30
0.0
  0
POINT
  5
697
330
68D
100
AcDbEntity
  8
Defpoints
  6
Continuous
 62
     0
440
 16777216
100
AcDbPoint
 10
938.2002459540109
 20
-1071.888765560236
 30
0.0
  0
ENDBLK
  5
698
330
68D
100
AcDbEntity
  8
0
100
AcDbBlockEnd
  0
BLOCK
  5
69A
330
699
100
AcDbEntity
  8
0
100
AcDbBlockBegin
  2
*D12
 70
     1
 10
0.0
 20
0.0
 30
0.0
  3
*D12
  1

  0
LINE
  5
69B
330
699
100
AcDbEntity
  8
P-0000
  6
Continuous
 62
     3
440
 16777216
370
    -2
100
AcDbLine
 10
940.2002459540108
 20
-1133.531669091768
 30
0.0
 11
940.2002459540108
 21
-1054.050415629401
 31
0.0
  0
LINE
  5
69C
330
699
100
AcDbEntity
  8
P-0000
  6
Continuous
 62
     3
440
 16777216
370
    -2
100
AcDbLine
 10
-243.7997540459892
 20
-1128.031669091768
 30
0.0
 11
-243.7997540459892
 21
-1054.050415629401
 31
0.0
  0
LINE
  5
69D
330
699
100
AcDbEntity
  8
P-0000
  6
Continuous
 62
     3
440
 16777216
370
    -2
100
AcDbLine
 10
933.9002459540109
 20
-1058.050415629401
 30
0.0
 11
-237.4997540459891
 21
-1058.050415629401
 31
0.0
  0
SOLID
  5
69E
330
699
100
AcDbEntity
  8
P-0000
  6
Continuous
 62
     3
440
 16777216
100
AcDbTrace
 10
933.9002459540109
 20
-1057.000415629401
 30
0.0
 11
933.9002459540109
 21
-1059.100415629401
 31
0.0
 12
940.2002459540108
 22
-1058.050415629401
 32
0.0
 13
940.2002459540108
 23
-1058.050415629401
 33
0.0
  0
SOLID
  5
69F
330
699
100
AcDbEntity
  8
P-0000
  6
Continuous
 62
     3
440
 16777216
100
AcDbTrace
 10
-237.4997540459891
 20
-1057.000415629401
 30
0.0
 11
-237.4997540459891
 21
-1059.100415629401
 31
0.0
 12
-243.7997540459892
 22
-1058.050415629401
 32
0.0
 13
-243.7997540459892
 23
-1058.050415629401
 33
0.0
  0
MTEXT
  5
6A0
330
699
100
AcDbEntity
  8
P-0000
  6
Continuous
 62
     2
440
 16777216
100
AcDbMText
 10
348.2002459540108
 20
-1050.550415629401
 30
0.0
 40
7.0
 41
0.0
 46
0.0
 71
     5
 72
     1
  1
1184
 73
     1
 44
1.0
  0
POINT
  5
6A1
330
699
100
AcDbEntity
  8
Defpoints
  6
Continuous
 62
     0
440
 16777216
100
AcDbPoint
 10
940.2002459540108
 20
-1133.531669091768
 30
0.0
  0
POINT
  5
6A2
330
699
100
AcDbEntity
  8
Defpoints
  6
Continuous
 62
     0
440
 16777216
100
AcDbPoint
 10
-243.7997540459892
 20
-1128.031669091768
 30
0.0
  0
POINT
  5
6A3
330
699
100
AcDbEntity
  8
Defpoints
  6
Continuous
 62
     0
440
 16777216
100
AcDbPoint
 10
-243.7997540459892
 20
-1058.050415629401
 30
0.0
  0
ENDBLK
  5
6A4
330
699
100
AcDbEntity
  8
0
100
AcDbBlockEnd
  0
BLOCK
  5
6A6
330
6A5
100
AcDbEntity
  8
0
100
AcDbBlockBegin
  2
*D13
 70
     1
 10
0.0
 20
0.0
 30
0.0
  3
*D13
  1

  0
LINE
  5
6A7
330
6A5
100
AcDbEntity
  8
P-0000
  6
Continuous
 62
     3
440
 16777216
370
    -2
100
AcDbLine
 10
970.7002459540108
 20
-1123.031669091768
 30
0.0
 11
970.7002459540108
 21
-1040.212063595549
 31
0.0
  0
LINE
  5
6A8
330
6A5
100
AcDbEntity
  8
P-0000
  6
Continuous
 62
     3
440
 16777216
370
    -2
100
AcDbLine
 10
-274.2997540459892
 20
-1123.031669091768
 30
0.0
 11
-274.2997540459892
 21
-1040.212063595549
 31
0.0
  0
LINE
  5
6A9
330
6A5
100
AcDbEntity
  8
P-0000
  6
Continuous
 62
     3
440
 16777216
370
    -2
100
AcDbLine
 10
964.4002459540109
 20
-1044.212063595549
 30
0.0
 11
-267.9997540459892
 21
-1044.212063595549
 31
0.0
  0
SOLID
  5
6AA
330
6A5
100
AcDbEntity
  8
P-0000
  6
Continuous
 62
     3
440
 16777216
100
AcDbTrace
 10
964.4002459540109
 20
-1043.162063595549
 30
0.0
 11
964.4002459540109
 21
-1045.262063595549
 31
0.0
 12
970.7002459540108
 22
-1044.212063595549
 32
0.0
 13
970.7002459540108
 23
-1044.212063595549
 33
0.0
  0
SOLID
  5
6AB
330
6A5
100
AcDbEntity
  8
P-0000
  6
Continuous
 62
     3
440
 16777216
100
AcDbTrace
 10
-267.9997540459892
 20
-1043.162063595549
 30
0.0
 11
-267.9997540459892
 21
-1045.262063595549
 31
0.0
 12
-274.2997540459892
 22
-1044.212063595549
 32
0.0
 13
-274.2997540459892
 23
-1044.212063595549
 33
0.0
  0
MTEXT
  5
6AC
330
6A5
100
AcDbEntity
  8
P-0000
  6
Continuous
 62
     2
440
 16777216
100
AcDbMText
 10
348.2002459540108
 20
-1036.712063595549
 30
0.0
 40
7.0
 41
0.0
 46
0.0
 71
     5
 72
     1
  1
1245
 73
     1
 44
1.0
  0
POINT
  5
6AD
330
6A5
100
AcDbEntity
  8
Defpoints
  6
Continuous
 62
     0
440
 16777216
100
AcDbPoint
 10
970.7002459540108
 20
-1123.031669091768
 30
0.0
  0
POINT
  5
6AE
330
6A5
100
AcDbEntity
  8
Defpoints
  6
Continuous
 62
     0
440
 16777216
100
AcDbPoint
 10
-274.2997540459892
 20
-1123.031669091768
 30
0.0
  0
POINT
  5
6AF
330
6A5
100
AcDbEntity
  8
Defpoints
  6
Continuous
 62
     0
440
 16777216
100
AcDbPoint
 10
-274.2997540459892
 20
-1044.212063595549
 30
0.0
  0
ENDBLK
  5
6B0
330
6A5
100
AcDbEntity
  8
0
100
AcDbBlockEnd
  0
BLOCK
  5
A78
330
A77
100
AcDbEntity
  8
0
100
AcDbBlockBegin
  2
*D15
 70
     1
 10
0.0
 20
0.0
 30
0.0
  3
*D15
  1

  0
LINE
  5
AB3
330
A77
100
AcDbEntity
  8
P-0000
  6
Continuous
 62
     3
440
 16777216
370
    -2
100
AcDbLine
 10
122.0420382561842
 20
451.6316994597413
 30
0.0
 11
62.88918739983872
 21
451.6316994597413
 31
0.0
  0
LINE
  5
AB4
330
A77
100
AcDbEntity
  8
P-0000
  6
Continuous
 62
     3
440
 16777216
370
    -2
100
AcDbLine
 10
684.6119383554341
 20
354.4316994597416
 30
0.0
 11
62.88918739983873
 21
354.4316994597418
 31
0.0
  0
LINE
  5
AB5
330
A77
100
AcDbEntity
  8
P-0000
  6
Continuous
 62
     3
440
 16777216
370
    -2
100
AcDbLine
 10
66.88918739983872
 20
445.3316994597414
 30
0.0
 11
66.8891873998387
 21
360.7316994597419
 31
0.0
  0
SOLID
  5
AB6
330
A77
100
AcDbEntity
  8
P-0000
  6
Continuous
 62
     3
440
 16777216
100
AcDbTrace
 10
65.83918739983872
 20
445.3316994597414
 30
0.0
 11
67.93918739983872
 21
445.3316994597414
 31
0.0
 12
66.88918739983872
 22
451.6316994597413
 32
0.0
 13
66.88918739983872
 23
451.6316994597413
 33
0.0
  0
SOLID
  5
AB7
330
A77
100
AcDbEntity
  8
P-0000
  6
Continuous
 62
     3
440
 16777216
100
AcDbTrace
 10
65.83918739983871
 20
360.7316994597419
 30
0.0
 11
67.9391873998387
 21
360.7316994597419
 31
0.0
 12
66.8891873998387
 22
354.4316994597418
 32
0.0
 13
66.8891873998387
 23
354.4316994597418
 33
0.0
  0
MTEXT
  5
AB8
330
A77
100
AcDbEntity
  8
P-0000
  6
Continuous
 62
     2
440
 16777216
100
AcDbMText
 10
55.88918739983864
 20
402.1098721323967
 30
0.0
 40
7.0
 41
0.0
 46
0.0
 71
     2
 72
     1
  1
97
 11
0.0000000000000001
 21
1.0
 31
0.0
 73
     1
 44
1.0
  0
POINT
  5
AB9
330
A77
100
AcDbEntity
  8
Defpoints
  6
Continuous
 62
     0
440
 16777216
100
AcDbPoint
 10
122.0420382561842
 20
451.6316994597413
 30
0.0
  0
POINT
  5
ABA
330
A77
100
AcDbEntity
  8
Defpoints
  6
Continuous
 62
     0
440
 16777216
100
AcDbPoint
 10
684.6119383554341
 20
354.4316994597416
 30
0.0
  0
POINT
  5
ABB
330
A77
100
AcDbEntity
  8
Defpoints
  6
Continuous
 62
     0
440
 16777216
100
AcDbPoint
 10
66.8891873998387
 20
354.4316994597418
 30
0.0
  0
ENDBLK
  5
A79
330
A77
100
AcDbEntity
  8
0
100
AcDbBlockEnd
  0
BLOCK
  5
A84
330
A83
100
AcDbEntity
  8
0
100
AcDbBlockBegin
  2
*D16
 70
     1
 10
0.0
 20
0.0
 30
0.0
  3
*D16
  1

  0
LINE
  5
ABC
330
A83
100
AcDbEntity
  8
P-0000
  6
Continuous
 62
     3
440
 16777216
370
    -2
100
AcDbLine
 10
145.0420382561842
 20
245.2955822046415
 30
0.0
 11
88.41533993520469
 21
245.2955822046415
 31
0.0
  0
LINE
  5
ABD
330
A83
100
AcDbEntity
  8
P-0000
  6
Continuous
 62
     3
440
 16777216
370
    -2
100
AcDbLine
 10
145.0420382561842
 20
181.2078586172415
 30
0.0
 11
88.41533993520469
 21
181.2078586172415
 31
0.0
  0
LINE
  5
ABE
330
A83
100
AcDbEntity
  8
P-0000
  6
Continuous
 62
     3
440
 16777216
370
    -2
100
AcDbLine
 10
92.41533993520469
 20
238.9955822046415
 30
0.0
 11
92.41533993520468
 21
187.5078586172415
 31
0.0
  0
SOLID
  5
ABF
330
A83
100
AcDbEntity
  8
P-0000
  6
Continuous
 62
     3
440
 16777216
100
AcDbTrace
 10
91.36533993520471
 20
238.9955822046415
 30
0.0
 11
93.4653399352047
 21
238.9955822046415
 31
0.0
 12
92.41533993520469
 22
245.2955822046415
 32
0.0
 13
92.41533993520469
 23
245.2955822046415
 33
0.0
  0
SOLID
  5
AC0
330
A83
100
AcDbEntity
  8
P-0000
  6
Continuous
 62
     3
440
 16777216
100
AcDbTrace
 10
91.36533993520469
 20
187.5078586172415
 30
0.0
 11
93.46533993520468
 21
187.5078586172415
 31
0.0
 12
92.41533993520468
 22
181.2078586172415
 32
0.0
 13
92.41533993520468
 23
181.2078586172415
 33
0.0
  0
MTEXT
  5
AC1
330
A83
100
AcDbEntity
  8
P-0000
  6
Continuous
 62
     2
440
 16777216
100
AcDbMText
 10
81.41533993520466
 20
214.6407061856012
 30
0.0
 40
7.0
 41
0.0
 46
0.0
 71
     2
 72
     1
  1
64
 11
0.0000000000000001
 21
1.0
 31
0.0
 73
     1
 44
1.0
  0
POINT
  5
AC2
330
A83
100
AcDbEntity
  8
Defpoints
  6
Continuous
 62
     0
440
 16777216
100
AcDbPoint
 10
145.0420382561842
 20
245.2955822046415
 30
0.0
  0
POINT
  5
AC3
330
A83
100
AcDbEntity
  8
Defpoints
  6
Continuous
 62
     0
440
 16777216
100
AcDbPoint
 10
145.0420382561842
 20
181.2078586172415
 30
0.0
  0
POINT
  5
AC4
330
A83
100
AcDbEntity
  8
Defpoints
  6
Continuous
 62
     0
440
 16777216
100
AcDbPoint
 10
92.41533993520468
 20
181.2078586172415
 30
0.0
  0
ENDBLK
  5
A85
330
A83
100
AcDbEntity
  8
0
100
AcDbBlockEnd
  0
BLOCK
  5
A90
330
A8F
100
AcDbEntity
  8
0
100
AcDbBlockBegin
  2
*D17
 70
     1
 10
0.0
 20
0.0
 30
0.0
  3
*D17
  1

  0
LINE
  5
AC5
330
A8F
100
AcDbEntity
  8
P-0000
  6
Continuous
 62
     3
440
 16777216
370
    -2
100
AcDbLine
 10
112.5420382561842
 20
259.2955822046415
 30
0.0
 11
63.80871354230298
 21
259.2955822046415
 31
0.0
  0
LINE
  5
AC6
330
A8F
100
AcDbEntity
  8
P-0000
  6
Continuous
 62
     3
440
 16777216
370
    -2
100
AcDbLine
 10
133.7920382561842
 20
147.2955822046415
 30
0.0
 11
63.80871354230296
 21
147.2955822046415
 31
0.0
  0
LINE
  5
AC7
330
A8F
100
AcDbEntity
  8
P-0000
  6
Continuous
 62
     3
440
 16777216
370
    -2
100
AcDbLine
 10
67.80871354230298
 20
252.9955822046415
 30
0.0
 11
67.80871354230296
 21
153.5955822046415
 31
0.0
  0
SOLID
  5
AC8
330
A8F
100
AcDbEntity
  8
P-0000
  6
Continuous
 62
     3
440
 16777216
100
AcDbTrace
 10
66.75871354230299
 20
252.9955822046415
 30
0.0
 11
68.85871354230298
 21
252.9955822046415
 31
0.0
 12
67.80871354230298
 22
259.2955822046415
 32
0.0
 13
67.80871354230298
 23
259.2955822046415
 33
0.0
  0
SOLID
  5
AC9
330
A8F
100
AcDbEntity
  8
P-0000
  6
Continuous
 62
     3
440
 16777216
100
AcDbTrace
 10
66.75871354230295
 20
153.5955822046415
 30
0.0
 11
68.85871354230295
 21
153.5955822046415
 31
0.0
 12
67.80871354230296
 22
147.2955822046415
 32
0.0
 13
67.80871354230296
 23
147.2955822046415
 33
0.0
  0
MTEXT
  5
ACA
330
A8F
100
AcDbEntity
  8
P-0000
  6
Continuous
 62
     2
440
 16777216
100
AcDbMText
 10
56.80733558954703
 20
207.9825690553689
 30
0.0
 40
7.0
 41
0.0
 46
0.0
 71
     2
 72
     1
  1
112
 11
0.0000000000000001
 21
1.0
 31
0.0
 73
     1
 44
1.0
  0
POINT
  5
ACB
330
A8F
100
AcDbEntity
  8
Defpoints
  6
Continuous
 62
     0
440
 16777216
100
AcDbPoint
 10
112.5420382561842
 20
259.2955822046415
 30
0.0
  0
POINT
  5
ACC
330
A8F
100
AcDbEntity
  8
Defpoints
  6
Continuous
 62
     0
440
 16777216
100
AcDbPoint
 10
133.7920382561842
 20
147.2955822046415
 30
0.0
  0
POINT
  5
ACD
330
A8F
100
AcDbEntity
  8
Defpoints
  6
Continuous
 62
     0
440
 16777216
100
AcDbPoint
 10
67.80871354230296
 20
147.2955822046415
 30
0.0
  0
ENDBLK
  5
A91
330
A8F
100
AcDbEntity
  8
0
100
AcDbBlockEnd
  0
BLOCK
  5
A9C
330
A9B
100
AcDbEntity
  8
0
100
AcDbBlockBegin
  2
*D18
 70
     1
 10
0.0
 20
0.0
 30
0.0
  3
*D18
  1

  0
LINE
  5
ACE
330
A9B
100
AcDbEntity
  8
P-0000
  6
Continuous
 62
     3
440
 16777216
370
    -2
100
AcDbLine
 10
122.0420382561842
 20
451.6316994597413
 30
0.0
 11
87.50543517823968
 21
451.6316994597413
 31
0.0
  0
LINE
  5
ACF
330
A9B
100
AcDbEntity
  8
P-0000
  6
Continuous
 62
     3
440
 16777216
370
    -2
100
AcDbLine
 10
143.5420382561842
 20
421.6316994597414
 30
0.0
 11
87.50543517823968
 21
421.6316994597415
 31
0.0
  0
LINE
  5
AD0
330
A9B
100
AcDbEntity
  8
P-0000
  6
Continuous
 62
     3
440
 16777216
370
    -2
100
AcDbLine
 10
91.50543517823969
 20
445.3316994597414
 30
0.0
 11
91.50543517823969
 21
427.9316994597414
 31
0.0
  0
SOLID
  5
AD1
330
A9B
100
AcDbEntity
  8
P-0000
  6
Continuous
 62
     3
440
 16777216
100
AcDbTrace
 10
90.4554351782397
 20
445.3316994597414
 30
0.0
 11
92.55543517823969
 21
445.3316994597414
 31
0.0
 12
91.50543517823969
 22
451.6316994597413
 32
0.0
 13
91.50543517823969
 23
451.6316994597413
 33
0.0
  0
SOLID
  5
AD2
330
A9B
100
AcDbEntity
  8
P-0000
  6
Continuous
 62
     3
440
 16777216
100
AcDbTrace
 10
90.4554351782397
 20
427.9316994597414
 30
0.0
 11
92.55543517823969
 21
427.9316994597414
 31
0.0
 12
91.50543517823969
 22
421.6316994597415
 32
0.0
 13
91.50543517823969
 23
421.6316994597415
 33
0.0
  0
MTEXT
  5
AD3
330
A9B
100
AcDbEntity
  8
P-0000
  6
Continuous
 62
     2
440
 16777216
100
AcDbMText
 10
80.50543517823962
 20
434.8772699801379
 30
0.0
 40
7.0
 41
0.0
 46
0.0
 71
     2
 72
     1
  1
30
 11
0.0000000000000001
 21
1.0
 31
0.0
 73
     1
 44
1.0
  0
POINT
  5
AD4
330
A9B
100
AcDbEntity
  8
Defpoints
  6
Continuous
 62
     0
440
 16777216
100
AcDbPoint
 10
122.0420382561842
 20
451.6316994597413
 30
0.0
  0
POINT
  5
AD5
330
A9B
100
AcDbEntity
  8
Defpoints
  6
Continuous
 62
     0
440
 16777216
100
AcDbPoint
 10
143.5420382561842
 20
421.6316994597414
 30
0.0
  0
POINT
  5
AD6
330
A9B
100
AcDbEntity
  8
Defpoints
  6
Continuous
 62
     0
440
 16777216
100
AcDbPoint
 10
91.50543517823969
 20
421.6316994597415
 30
0.0
  0
ENDBLK
  5
A9D
330
A9B
100
AcDbEntity
  8
0
100
AcDbBlockEnd
  0
BLOCK
  5
AA8
330
AA7
100
AcDbEntity
  8
0
100
AcDbBlockBegin
  2
*D19
 70
     1
 10
0.0
 20
0.0
 30
0.0
  3
*D19
  1

  0
LINE
  5
AE3
330
AA7
100
AcDbEntity
  8
P-0000
  6
Continuous
 62
     3
440
 16777216
370
    -2
100
AcDbLine
 10
1326.542038256184
 20
415.1316994597413
 30
0.0
 11
1326.542038256184
 21
494.6129529221089
 31
0.0
  0
LINE
  5
AE4
330
AA7
100
AcDbEntity
  8
P-0000
  6
Continuous
 62
     3
440
 16777216
370
    -2
100
AcDbLine
 10
142.5420382561842
 20
420.6316994597414
 30
0.0
 11
142.5420382561842
 21
494.6129529221089
 31
0.0
  0
LINE
  5
AE5
330
AA7
100
AcDbEntity
  8
P-0000
  6
Continuous
 62
     3
440
 16777216
370
    -2
100
AcDbLine
 10
1320.242038256184
 20
490.6129529221089
 30
0.0
 11
148.8420382561842
 21
490.6129529221089
 31
0.0
  0
SOLID
  5
AE6
330
AA7
100
AcDbEntity
  8
P-0000
  6
Continuous
 62
     3
440
 16777216
100
AcDbTrace
 10
1320.242038256184
 20
491.6629529221089
 30
0.0
 11
1320.242038256184
 21
489.5629529221088
 31
0.0
 12
1326.542038256184
 22
490.6129529221089
 32
0.0
 13
1326.542038256184
 23
490.6129529221089
 33
0.0
  0
SOLID
  5
AE7
330
AA7
100
AcDbEntity
  8
P-0000
  6
Continuous
 62
     3
440
 16777216
100
AcDbTrace
 10
148.8420382561842
 20
491.6629529221089
 30
0.0
 11
148.8420382561842
 21
489.5629529221088
 31
0.0
 12
142.5420382561842
 22
490.6129529221089
 32
0.0
 13
142.5420382561842
 23
490.6129529221089
 33
0.0
  0
MTEXT
  5
AE8
330
AA7
100
AcDbEntity
  8
P-0000
  6
Continuous
 62
     2
440
 16777216
100
AcDbMText
 10
734.5420382561842
 20
498.1129529221089
 30
0.0
 40
7.0
 41
0.0
 46
0.0
 71
     5
 72
     1
  1
1184
 73
     1
 44
1.0
  0
POINT
  5
AE9
330
AA7
100
AcDbEntity
  8
Defpoints
  6
Continuous
 62
     0
440
 16777216
100
AcDbPoint
 10
1326.542038256184
 20
415.1316994597413
 30
0.0
  0
POINT
  5
AEA
330
AA7
100
AcDbEntity
  8
Defpoints
  6
Continuous
 62
     0
440
 16777216
100
AcDbPoint
 10
142.5420382561842
 20
420.6316994597414
 30
0.0
  0
POINT
  5
AEB
330
AA7
100
AcDbEntity
  8
Defpoints
  6
Continuous
 62
     0
440
 16777216
100
AcDbPoint
 10
142.5420382561842
 20
490.6129529221089
 30
0.0
  0
ENDBLK
  5
AA9
330
AA7
100
AcDbEntity
  8
0
100
AcDbBlockEnd
  0
BLOCK
  5
AD8
330
AD7
100
AcDbEntity
  8
0
100
AcDbBlockBegin
  2
*D20
 70
     1
 10
0.0
 20
0.0
 30
0.0
  3
*D20
  1

  0
LINE
  5
ADA
330
AD7
100
AcDbEntity
  8
P-0000
  6
Continuous
 62
     3
440
 16777216
370
    -2
100
AcDbLine
 10
144.5420382561842
 20
414.3816994597414
 30
0.0
 11
144.5420382561842
 21
480.7746029912734
 31
0.0
  0
LINE
  5
ADB
330
AD7
100
AcDbEntity
  8
P-0000
  6
Continuous
 62
     3
440
 16777216
370
    -2
100
AcDbLine
 10
1324.542038256184
 20
415.6316994597414
 30
0.0
 11
1324.542038256184
 21
480.7746029912734
 31
0.0
  0
LINE
  5
ADC
330
AD7
100
AcDbEntity
  8
P-0000
  6
Continuous
 62
     3
440
 16777216
370
    -2
100
AcDbLine
 10
150.8420382561842
 20
476.7746029912735
 30
0.0
 11
1318.242038256184
 21
476.7746029912735
 31
0.0
  0
SOLID
  5
ADD
330
AD7
100
AcDbEntity
  8
P-0000
  6
Continuous
 62
     3
440
 16777216
100
AcDbTrace
 10
150.8420382561842
 20
477.8246029912734
 30
0.0
 11
150.8420382561842
 21
475.7246029912734
 31
0.0
 12
144.5420382561842
 22
476.7746029912735
 32
0.0
 13
144.5420382561842
 23
476.7746029912735
 33
0.0
  0
SOLID
  5
ADE
330
AD7
100
AcDbEntity
  8
P-0000
  6
Continuous
 62
     3
440
 16777216
100
AcDbTrace
 10
1318.242038256184
 20
477.8246029912734
 30
0.0
 11
1318.242038256184
 21
475.7246029912734
 31
0.0
 12
1324.542038256184
 22
476.7746029912735
 32
0.0
 13
1324.542038256184
 23
476.7746029912735
 33
0.0
  0
MTEXT
  5
ADF
330
AD7
100
AcDbEntity
  8
P-0000
  6
Continuous
 62
     2
440
 16777216
100
AcDbMText
 10
734.5420382561842
 20
484.2746029912734
 30
0.0
 40
7.0
 41
0.0
 46
0.0
 71
     5
 72
     1
  1
1180
 73
     1
 44
1.0
  0
POINT
  5
AE0
330
AD7
100
AcDbEntity
  8
Defpoints
  6
Continuous
 62
     0
440
 16777216
100
AcDbPoint
 10
144.5420382561842
 20
414.3816994597414
 30
0.0
  0
POINT
  5
AE1
330
AD7
100
AcDbEntity
  8
Defpoints
  6
Continuous
 62
     0
440
 16777216
100
AcDbPoint
 10
1324.542038256184
 20
415.6316994597414
 30
0.0
  0
POINT
  5
AE2
330
AD7
100
AcDbEntity
  8
Defpoints
  6
Continuous
 62
     0
440
 16777216
100
AcDbPoint
 10
1324.542038256184
 20
476.7746029912735
 30
0.0
  0
ENDBLK
  5
AD9
330
AD7
100
AcDbEntity
  8
0
100
AcDbBlockEnd
  0
BLOCK
  5
AED
330
AEC
100
AcDbEntity
  8
0
100
AcDbBlockBegin
  2
*D21
 70
     1
 10
0.0
 20
0.0
 30
0.0
  3
*D21
  1

  0
LINE
  5
AEF
330
AEC
100
AcDbEntity
  8
P-0000
  6
Continuous
 62
     3
440
 16777216
370
    -2
100
AcDbLine
 10
1357.042038256184
 20
425.6316994597414
 30
0.0
 11
1357.042038256184
 21
508.4513049559604
 31
0.0
  0
LINE
  5
AF0
330
AEC
100
AcDbEntity
  8
P-0000
  6
Continuous
 62
     3
440
 16777216
370
    -2
100
AcDbLine
 10
112.0420382561842
 20
425.6316994597414
 30
0.0
 11
112.0420382561842
 21
508.4513049559604
 31
0.0
  0
LINE
  5
AF1
330
AEC
100
AcDbEntity
  8
P-0000
  6
Continuous
 62
     3
440
 16777216
370
    -2
100
AcDbLine
 10
1350.742038256184
 20
504.4513049559604
 30
0.0
 11
118.3420382561842
 21
504.4513049559604
 31
0.0
  0
SOLID
  5
AF2
330
AEC
100
AcDbEntity
  8
P-0000
  6
Continuous
 62
     3
440
 16777216
100
AcDbTrace
 10
1350.742038256184
 20
505.5013049559605
 30
0.0
 11
1350.742038256184
 21
503.4013049559605
 31
0.0
 12
1357.042038256184
 22
504.4513049559604
 32
0.0
 13
1357.042038256184
 23
504.4513049559604
 33
0.0
  0
SOLID
  5
AF3
330
AEC
100
AcDbEntity
  8
P-0000
  6
Continuous
 62
     3
440
 16777216
100
AcDbTrace
 10
118.3420382561842
 20
505.5013049559605
 30
0.0
 11
118.3420382561842
 21
503.4013049559605
 31
0.0
 12
112.0420382561842
 22
504.4513049559604
 32
0.0
 13
112.0420382561842
 23
504.4513049559604
 33
0.0
  0
MTEXT
  5
AF4
330
AEC
100
AcDbEntity
  8
P-0000
  6
Continuous
 62
     2
440
 16777216
100
AcDbMText
 10
734.5420382561842
 20
511.9519939323384
 30
0.0
 40
7.0
 41
0.0
 46
0.0
 71
     5
 72
     1
  1
1245
 73
     1
 44
1.0
  0
POINT
  5
AF5
330
AEC
100
AcDbEntity
  8
Defpoints
  6
Continuous
 62
     0
440
 16777216
100
AcDbPoint
 10
1357.042038256184
 20
425.6316994597414
 30
0.0
  0
POINT
  5
AF6
330
AEC
100
AcDbEntity
  8
Defpoints
  6
Continuous
 62
     0
440
 16777216
100
AcDbPoint
 10
112.0420382561842
 20
425.6316994597414
 30
0.0
  0
POINT
  5
AF7
330
AEC
100
AcDbEntity
  8
Defpoints
  6
Continuous
 62
     0
440
 16777216
100
AcDbPoint
 10
112.0420382561842
 20
504.4513049559604
 30
0.0
  0
ENDBLK
  5
AEE
330
AEC
100
AcDbEntity
  8
0
100
AcDbBlockEnd
  0
ENDSEC
  0
SECTION
  2
ENTITIES
  0
LINE
  5
8A4
330
1F
100
AcDbEntity
  8
0
  6
Continuous
 62
     7
100
AcDbLine
 10
112.0420382561842
 20
408.6316994597414
 30
0.0
 11
112.0420382561842
 21
406.6316994597413
 31
0.0
  0
LINE
  5
8A5
330
1F
100
AcDbEntity
  8
RUNDUNGEN
  6
Continuous
 62
     7
100
AcDbLine
 10
112.0420382561842
 20
408.6316994597414
 30
0.0
 11
112.0420382561842
 21
409.6316994597414
 31
0.0
  0
LINE
  5
8A6
102
{ACAD_REACTORS
330
A76
102
}
330
1F
100
AcDbEntity
  8
0
  6
Continuous
 62
     7
100
AcDbLine
 10
112.0420382561842
 20
409.6316994597414
 30
0.0
 11
112.0420382561842
 21
441.6316994597414
 31
0.0
  0
LINE
  5
8A7
330
1F
100
AcDbEntity
  8
RUNDUNGEN
  6
Continuous
 62
     9
100
AcDbLine
 10
122.0420382561842
 20
408.6316994597414
 30
0.0
 11
122.0420382561842
 21
409.6316994597414
 31
0.0
  0
LINE
  5
8A8
330
1F
100
AcDbEntity
  8
RUNDUNGEN
  6
Continuous
 62
     7
100
AcDbLine
 10
142.5420382561842
 20
400.6316994597414
 30
0.0
 11
142.5420382561842
 21
408.6316994597414
 31
0.0
  0
LINE
  5
8A9
330
1F
100
AcDbEntity
  8
RUNDUNGEN
  6
Continuous
 62
     7
100
AcDbLine
 10
142.5420382561842
 20
409.6316994597414
 30
0.0
 11
142.5420382561842
 21
420.6316994597414
 31
0.0
  0
LINE
  5
8AA
330
1F
100
AcDbEntity
  8
0
  6
Continuous
 62
     7
100
AcDbLine
 10
144.2420382561843
 20
421.3402714922413
 30
0.0
 11
144.2420382561843
 21
422.4816994597413
 31
0.0
  0
LINE
  5
8AB
330
1F
100
AcDbEntity
  8
0
  6
Continuous
 62
     7
100
AcDbLine
 10
144.5420382561842
 20
422.5136212075415
 30
0.0
 11
144.5420382561842
 21
420.7057246083413
 31
0.0
  0
LINE
  5
8AC
102
{ACAD_REACTORS
330
A72
102
}
330
1F
100
AcDbEntity
  8
0
  6
Continuous
 62
     7
100
AcDbLine
 10
144.5420382561842
 20
420.1316994597414
 30
0.0
 11
144.5420382561842
 21
408.6316994597414
 31
0.0
  0
LINE
  5
8AD
330
1F
100
AcDbEntity
  8
RUNDUNGEN
  6
Continuous
 62
     7
100
AcDbLine
 10
144.5420382561842
 20
400.6316994597414
 30
0.0
 11
144.5420382561842
 21
408.6316994597414
 31
0.0
  0
LINE
  5
8AE
330
1F
100
AcDbEntity
  8
0
  6
Continuous
 62
     3
100
AcDbLine
 10
144.5420382561842
 20
407.3765262649414
 30
0.0
 11
144.5420382561842
 21
408.6316994597414
 31
0.0
  0
LINE
  5
8AF
330
1F
100
AcDbEntity
  8
RUNDUNGEN
  6
Continuous
 62
     7
100
AcDbLine
 10
144.5420382561842
 20
410.6316994597413
 30
0.0
 11
144.5420382561842
 21
420.6316994597414
 31
0.0
  0
LINE
  5
8B0
330
1F
100
AcDbEntity
  8
FASEN
  6
Continuous
 62
     3
100
AcDbLine
 10
155.5420382561842
 20
403.0743578634415
 30
0.0
 11
155.5420382561842
 21
402.2523124437413
 31
0.0
  0
LINE
  5
8B1
330
1F
100
AcDbEntity
  8
FASEN
  6
Continuous
 62
     7
100
AcDbLine
 10
155.5420382561842
 20
401.2539207732415
 30
0.0
 11
155.5420382561842
 21
402.2523124437413
 31
0.0
  0
LINE
  5
8B2
330
1F
100
AcDbEntity
  8
FASEN
  6
Continuous
 62
     7
100
AcDbLine
 10
158.042038256184
 20
401.1121888043414
 30
0.0
 11
158.042038256184
 21
402.1105804748414
 31
0.0
  0
LINE
  5
8B3
330
1F
100
AcDbEntity
  8
BEZUGSACHSEN
  6
Continuous
 62
     3
100
AcDbLine
 10
162.3099874485842
 20
402.8050671225414
 30
0.0
 11
162.3099874485842
 21
402.5216031847414
 31
0.0
  0
LINE
  5
8B4
330
1F
100
AcDbEntity
  8
BEZUGSACHSEN
  6
Continuous
 62
     9
100
AcDbLine
 10
164.0420382561842
 20
403.6129968557416
 30
0.0
 11
164.0420382561842
 21
403.5199948552415
 31
0.0
  0
LINE
  5
8B5
330
1F
100
AcDbEntity
  8
BEZUGSACHSEN
  6
Continuous
 62
     9
100
AcDbLine
 10
167.042038256184
 20
403.5199948552415
 30
0.0
 11
167.042038256184
 21
403.6129968557416
 31
0.0
  0
LINE
  5
8B6
330
1F
100
AcDbEntity
  8
BEZUGSACHSEN
  6
Continuous
 62
     3
100
AcDbLine
 10
168.7740890636842
 20
402.5216031847414
 30
0.0
 11
168.7740890636842
 21
402.8050671225414
 31
0.0
  0
LINE
  5
8B7
330
1F
100
AcDbEntity
  8
BEZUGSACHSEN
  6
Continuous
 62
     3
100
AcDbLine
 10
162.3099874485842
 20
402.8050671225414
 30
0.0
 11
162.3119436369843
 21
402.8110739020414
 31
0.0
  0
LINE
  5
8B8
330
1F
100
AcDbEntity
  8
BEZUGSACHSEN
  6
Continuous
 62
     3
100
AcDbLine
 10
182.3099874485842
 20
402.8050671225414
 30
0.0
 11
182.3099874485842
 21
402.5216031847414
 31
0.0
  0
LINE
  5
8B9
330
1F
100
AcDbEntity
  8
BEZUGSACHSEN
  6
Continuous
 62
     9
100
AcDbLine
 10
184.042038256184
 20
403.6129968560414
 30
0.0
 11
184.042038256184
 21
403.5199948552415
 31
0.0
  0
LINE
  5
8BA
330
1F
100
AcDbEntity
  8
BEZUGSACHSEN
  6
Continuous
 62
     9
100
AcDbLine
 10
187.0420382561842
 20
403.5199948552415
 30
0.0
 11
187.0420382561842
 21
403.6129968561415
 31
0.0
  0
LINE
  5
8BB
330
1F
100
AcDbEntity
  8
BEZUGSACHSEN
  6
Continuous
 62
     3
100
AcDbLine
 10
188.7740890636841
 20
402.5216031847414
 30
0.0
 11
188.7740890636841
 21
402.8050671225414
 31
0.0
  0
LINE
  5
8BC
330
1F
100
AcDbEntity
  8
BEZUGSACHSEN
  6
Continuous
 62
     3
100
AcDbLine
 10
182.3099874485842
 20
402.8050671225414
 30
0.0
 11
182.3119436369843
 21
402.8110739020414
 31
0.0
  0
LINE
  5
8BD
330
1F
100
AcDbEntity
  8
BEZUGSACHSEN
  6
Continuous
 62
     3
100
AcDbLine
 10
168.7721328752843
 20
402.8110739020414
 30
0.0
 11
168.7740890636842
 21
402.8050671225414
 31
0.0
  0
LINE
  5
8BE
330
1F
100
AcDbEntity
  8
0
  6
Continuous
 62
     3
100
AcDbLine
 10
200.5420382561843
 20
402.5570361769414
 30
0.0
 11
200.5420382561843
 21
402.7696341302414
 31
0.0
  0
LINE
  5
8BF
330
1F
100
AcDbEntity
  8
0
  6
Continuous
 62
     3
100
AcDbLine
 10
201.7920382561842
 20
402.7696341302414
 30
0.0
 11
201.7920382561842
 21
402.5570361769414
 31
0.0
  0
LINE
  5
8C0
330
1F
100
AcDbEntity
  8
BEZUGSACHSEN
  6
Continuous
 62
     3
100
AcDbLine
 10
188.7721328752843
 20
402.8110739020414
 30
0.0
 11
188.7740890636841
 21
402.8050671225414
 31
0.0
  0
LINE
  5
8C1
330
1F
100
AcDbEntity
  8
0
  6
Continuous
 62
     9
100
AcDbLine
 10
260.1540650552843
 20
403.2160898323414
 30
0.0
 11
260.1540650552843
 21
401.1121888043414
 31
0.0
  0
LINE
  5
8C2
330
1F
100
AcDbEntity
  8
0
  6
Continuous
 62
     9
100
AcDbLine
 10
260.4008209435842
 20
403.2469624285413
 30
0.0
 11
260.4008209435842
 21
402.1414530710415
 31
0.0
  0
LINE
  5
8C3
330
1F
100
AcDbEntity
  8
0
  6
Continuous
 62
     9
100
AcDbLine
 10
261.812162843084
 20
403.6057539091414
 30
0.0
 11
261.812162843084
 21
402.5002445516415
 31
0.0
  0
LINE
  5
8C4
330
1F
100
AcDbEntity
  8
0
  6
Continuous
 62
     9
100
AcDbLine
 10
262.7991863964844
 20
403.6057539091414
 30
0.0
 11
262.7991863964844
 21
402.5002445516415
 31
0.0
  0
LINE
  5
8C5
330
1F
100
AcDbEntity
  8
0
  6
Continuous
 62
     9
100
AcDbLine
 10
265.9861914586841
 20
402.7955531593415
 30
0.0
 11
265.9861914586841
 21
401.6900438019415
 31
0.0
  0
LINE
  5
8C6
330
1F
100
AcDbEntity
  8
0
  6
Continuous
 62
     9
100
AcDbLine
 10
266.479703235384
 20
402.7955531593415
 30
0.0
 11
266.479703235384
 21
401.6900438019415
 31
0.0
  0
LINE
  5
8C7
330
1F
100
AcDbEntity
  8
0
  6
Continuous
 62
     9
100
AcDbLine
 10
269.6667082976842
 20
403.6057539091414
 30
0.0
 11
269.6667082976842
 21
402.5002445516415
 31
0.0
  0
LINE
  5
8C8
330
1F
100
AcDbEntity
  8
0
  6
Continuous
 62
     9
100
AcDbLine
 10
270.6537318509843
 20
403.6057539091414
 30
0.0
 11
270.6537318509843
 21
402.5002445516415
 31
0.0
  0
LINE
  5
8C9
330
1F
100
AcDbEntity
  8
0
  6
Continuous
 62
     9
100
AcDbLine
 10
273.8407369132842
 20
402.7955531593415
 30
0.0
 11
273.8407369132842
 21
401.6900438019415
 31
0.0
  0
LINE
  5
8CA
330
1F
100
AcDbEntity
  8
0
  6
Continuous
 62
     9
100
AcDbLine
 10
274.3342486899842
 20
402.7955531593415
 30
0.0
 11
274.3342486899842
 21
401.6900438019415
 31
0.0
  0
LINE
  5
8CB
330
1F
100
AcDbEntity
  8
0
  6
Continuous
 62
     9
100
AcDbLine
 10
277.5212537521843
 20
403.6057539091414
 30
0.0
 11
277.5212537521843
 21
402.5002445516415
 31
0.0
  0
LINE
  5
8CC
330
1F
100
AcDbEntity
  8
0
  6
Continuous
 62
     9
100
AcDbLine
 10
278.5082773055842
 20
403.6057539091414
 30
0.0
 11
278.5082773055842
 21
402.5002445516415
 31
0.0
  0
LINE
  5
8CD
330
1F
100
AcDbEntity
  8
FASEN
  6
Continuous
 62
     3
100
AcDbLine
 10
282.0654162002843
 20
402.5597257300415
 30
0.0
 11
282.0654162002843
 21
401.7376803104414
 31
0.0
  0
LINE
  5
8CE
330
1F
100
AcDbEntity
  8
0
  6
Continuous
 62
     9
100
AcDbLine
 10
262.7991863964844
 20
402.5002445516415
 30
0.0
 11
262.5524305080842
 21
401.5327254772414
 31
0.0
  0
LINE
  5
8CF
330
1F
100
AcDbEntity
  8
0
  6
Continuous
 62
     9
100
AcDbLine
 10
265.9861914586841
 20
401.6900438019415
 30
0.0
 11
265.7394355703841
 21
400.7225247275414
 31
0.0
  0
LINE
  5
8D0
330
1F
100
AcDbEntity
  8
0
  6
Continuous
 62
     9
100
AcDbLine
 10
270.6537318509843
 20
402.5002445516415
 30
0.0
 11
270.4069759626841
 21
401.5327254772414
 31
0.0
  0
LINE
  5
8D1
330
1F
100
AcDbEntity
  8
0
  6
Continuous
 62
     9
100
AcDbLine
 10
273.8407369132842
 20
401.6900438019415
 30
0.0
 11
273.5939810248842
 21
400.7225247275414
 31
0.0
  0
LINE
  5
8D2
330
1F
100
AcDbEntity
  8
0
  6
Continuous
 62
     9
100
AcDbLine
 10
278.5082773055842
 20
402.5002445516415
 30
0.0
 11
278.2615214171842
 21
401.5327254772414
 31
0.0
  0
LINE
  5
8D3
330
1F
100
AcDbEntity
  8
FASEN
  6
Continuous
 62
     7
100
AcDbLine
 10
279.3959661355843
 20
401.2443268260414
 30
0.0
 11
279.6427220238843
 21
402.2118459004413
 31
0.0
  0
LINE
  5
8D4
330
1F
100
AcDbEntity
  8
0
  6
Continuous
 62
     9
100
AcDbLine
 10
260.4008209435842
 20
402.1414530710415
 30
0.0
 11
260.6475768319842
 21
401.1739339966416
 31
0.0
  0
LINE
  5
8D5
330
1F
100
AcDbEntity
  8
0
  6
Continuous
 62
     9
100
AcDbLine
 10
261.812162843084
 20
402.5002445516415
 30
0.0
 11
262.058918731484
 21
401.5327254772414
 31
0.0
  0
LINE
  5
8D6
330
1F
100
AcDbEntity
  8
0
  6
Continuous
 62
     9
100
AcDbLine
 10
266.479703235384
 20
401.6900438019415
 30
0.0
 11
266.7264591236844
 21
400.7225247275414
 31
0.0
  0
LINE
  5
8D7
330
1F
100
AcDbEntity
  8
0
  6
Continuous
 62
     9
100
AcDbLine
 10
269.6667082976842
 20
402.5002445516415
 30
0.0
 11
269.9134641859842
 21
401.5327254772414
 31
0.0
  0
LINE
  5
8D8
330
1F
100
AcDbEntity
  8
0
  6
Continuous
 62
     9
100
AcDbLine
 10
274.3342486899842
 20
401.6900438019415
 30
0.0
 11
274.5810045782842
 21
400.7225247275414
 31
0.0
  0
LINE
  5
8D9
330
1F
100
AcDbEntity
  8
0
  6
Continuous
 62
     9
100
AcDbLine
 10
277.5212537521843
 20
402.5002445516415
 30
0.0
 11
277.7680096405843
 21
401.5327254772414
 31
0.0
  0
LINE
  5
8DA
330
1F
100
AcDbEntity
  8
FASEN
  6
Continuous
 62
     7
100
AcDbLine
 10
281.8186603119843
 20
400.7701612360415
 30
0.0
 11
282.0654162002843
 21
401.7376803104414
 31
0.0
  0
LINE
  5
8DB
330
1F
100
AcDbEntity
  8
0
  6
Continuous
 62
     7
100
AcDbLine
 10
632.4420382561843
 20
366.4316994597416
 30
0.0
 11
632.4420382561843
 21
399.6146077757414
 31
0.0
  0
LINE
  5
8DC
330
1F
100
AcDbEntity
  8
0
  6
Continuous
 62
     3
100
AcDbLine
 10
633.5420382561842
 20
399.6146077757414
 30
0.0
 11
633.5420382561842
 21
401.6097750147414
 31
0.0
  0
LINE
  5
8DD
330
1F
100
AcDbEntity
  8
RUNDUNGEN
  6
Continuous
 62
     9
100
AcDbLine
 10
661.5420382561842
 20
354.4316994597416
 30
0.0
 11
661.5420382562843
 21
366.4316994597416
 31
0.0
  0
LINE
  5
8DE
330
1F
100
AcDbEntity
  8
0
  6
Continuous
 62
     9
100
AcDbLine
 10
661.5420382561842
 20
366.4316994597416
 30
0.0
 11
661.5420382561842
 21
399.6146077757414
 31
0.0
  0
LINE
  5
8DF
330
1F
100
AcDbEntity
  8
RUNDUNGEN
  6
Continuous
 62
     9
100
AcDbLine
 10
661.5420911750841
 20
399.6146077743415
 30
0.0
 11
661.5420382561842
 21
405.3100818096413
 31
0.0
  0
LINE
  5
8E0
330
1F
100
AcDbEntity
  8
TEIL_STARTBEZUEGE
  6
CENTER
 62
     7
100
AcDbLine
 10
676.5420382561842
 20
379.4316994597416
 30
0.0
 11
676.5420382561842
 21
376.4315994597414
 31
0.0
  0
LINE
  5
8E1
330
1F
100
AcDbEntity
  8
TEIL_STARTBEZUEGE
  6
CENTER
 62
     7
100
AcDbLine
 10
676.5420382561842
 20
379.4316994597416
 30
0.0
 11
676.5420382561842
 21
382.4317994597413
 31
0.0
  0
LINE
  5
8E2
330
1F
100
AcDbEntity
  8
0
  6
Continuous
 62
     7
100
AcDbLine
 10
1203.344640941884
 20
400.7225247275414
 30
0.0
 11
1206.531646004184
 21
401.5327254772414
 31
0.0
  0
LINE
  5
8E3
330
1F
100
AcDbEntity
  8
0
  6
Continuous
 62
     7
100
AcDbLine
 10
1203.344640941884
 20
401.8280340849414
 30
0.0
 11
1206.531646004184
 21
402.6382348347415
 31
0.0
  0
LINE
  5
8E4
330
1F
100
AcDbEntity
  8
0
  6
Continuous
 62
     7
100
AcDbLine
 10
1195.490095487384
 20
400.7225247275414
 30
0.0
 11
1198.677100549584
 21
401.5327254772414
 31
0.0
  0
LINE
  5
8E5
330
1F
100
AcDbEntity
  8
0
  6
Continuous
 62
     3
100
AcDbLine
 10
1203.097885053584
 20
402.7955531593415
 30
0.0
 11
1206.284890115884
 21
403.6057539091414
 31
0.0
  0
LINE
  5
8E6
330
1F
100
AcDbEntity
  8
RUNDUNGEN
  6
Continuous
 62
     7
100
AcDbLine
 10
824.6420378900841
 20
354.4316994597416
 30
0.0
 11
744.3022384193843
 21
354.4316994597416
 31
0.0
  0
LINE
  5
8E7
330
1F
100
AcDbEntity
  8
RUNDUNGEN
  6
Continuous
 62
     7
100
AcDbLine
 10
724.7818380886842
 20
354.4316994597416
 30
0.0
 11
644.4420386221841
 21
354.4316994597416
 31
0.0
  0
LINE
  5
8E8
330
1F
100
AcDbEntity
  8
0
  6
Continuous
 62
     7
100
AcDbLine
 10
265.7394355703841
 20
400.7225247275414
 30
0.0
 11
262.5524305080842
 21
401.5327254772414
 31
0.0
  0
LINE
  5
8E9
330
1F
100
AcDbEntity
  8
0
  6
Continuous
 62
     3
100
AcDbLine
 10
265.9861914586841
 20
401.6900438019415
 30
0.0
 11
262.7991863964844
 21
402.5002445516415
 31
0.0
  0
LINE
  5
8EA
330
1F
100
AcDbEntity
  8
0
  6
Continuous
 62
     7
100
AcDbLine
 10
273.5939810248842
 20
400.7225247275414
 30
0.0
 11
270.4069759626841
 21
401.5327254772414
 31
0.0
  0
LINE
  5
8EB
330
1F
100
AcDbEntity
  8
0
  6
Continuous
 62
     3
100
AcDbLine
 10
265.9861914586841
 20
402.7955531593415
 30
0.0
 11
262.7991863964844
 21
403.6057539091414
 31
0.0
  0
LINE
  5
8EC
330
1F
100
AcDbEntity
  8
FASEN
  6
Continuous
 62
     3
100
AcDbLine
 10
282.0654162002843
 20
402.5597257300415
 30
0.0
 11
279.6427220238843
 21
403.3173552579414
 31
0.0
  0
LINE
  5
8ED
330
1F
100
AcDbEntity
  8
0
  6
Continuous
 62
     7
100
AcDbLine
 10
1195.490095487384
 20
401.8280340849414
 30
0.0
 11
1198.677100549584
 21
402.6382348347415
 31
0.0
  0
LINE
  5
8EE
330
1F
100
AcDbEntity
  8
FASEN
  6
Continuous
 62
     7
100
AcDbLine
 10
1189.688110376684
 20
401.2443268260414
 30
0.0
 11
1190.822555095084
 21
401.5327254772414
 31
0.0
  0
LINE
  5
8EF
330
1F
100
AcDbEntity
  8
0
  6
Continuous
 62
     3
100
AcDbLine
 10
1195.243339598984
 20
402.7955531593415
 30
0.0
 11
1198.430344661284
 21
403.6057539091414
 31
0.0
  0
LINE
  5
8F0
330
1F
100
AcDbEntity
  8
FASEN
  6
Continuous
 62
     7
100
AcDbLine
 10
1189.688110376684
 20
402.3498361835413
 30
0.0
 11
1190.822555095084
 21
402.6382348347415
 31
0.0
  0
LINE
  5
8F1
330
1F
100
AcDbEntity
  8
FASEN
  6
Continuous
 62
     3
100
AcDbLine
 10
1189.441354488384
 20
403.3173552579414
 30
0.0
 11
1190.575799206784
 21
403.6057539091414
 31
0.0
  0
LINE
  5
8F2
330
1F
100
AcDbEntity
  8
FASEN
  6
Continuous
 62
     7
100
AcDbLine
 10
1187.265416200284
 20
400.7701612360415
 30
0.0
 11
1189.688110376684
 21
401.2443268260414
 31
0.0
  0
LINE
  5
8F3
330
1F
100
AcDbEntity
  8
0
  6
Continuous
 62
     9
100
AcDbLine
 10
719.6745328982842
 20
366.4316994597416
 30
0.0
 11
749.4095436098842
 21
366.4316994597416
 31
0.0
  0
LINE
  5
8F4
330
1F
100
AcDbEntity
  8
RUNDUNGEN
  6
Continuous
 62
     9
100
AcDbLine
 10
836.6420382561841
 20
366.4316994597416
 30
0.0
 11
756.975427963284
 21
366.4316930023415
 31
0.0
  0
LINE
  5
8F5
330
1F
100
AcDbEntity
  8
RUNDUNGEN
  6
Continuous
 62
     9
100
AcDbLine
 10
712.108648500684
 20
366.4316931017415
 30
0.0
 11
632.4420382561843
 21
366.4316994597416
 31
0.0
  0
LINE
  5
8F6
330
1F
100
AcDbEntity
  8
TEIL_STARTBEZUEGE
  6
CENTER
 62
     7
100
AcDbLine
 10
734.5420382561842
 20
377.4316994597416
 30
0.0
 11
744.435612503084
 21
377.4316994597416
 31
0.0
  0
LINE
  5
8F7
330
1F
100
AcDbEntity
  8
TEIL_STARTBEZUEGE
  6
CENTER
 62
     7
100
AcDbLine
 10
734.5420382561842
 20
377.4316994597416
 30
0.0
 11
724.6484640092839
 21
377.4316994597416
 31
0.0
  0
LINE
  5
8F8
330
1F
100
AcDbEntity
  8
TEIL_STARTBEZUEGE
  6
CENTER
 62
     7
100
AcDbLine
 10
676.5420382561842
 20
379.4316994597416
 30
0.0
 11
679.5421382561844
 21
379.4316994597416
 31
0.0
  0
LINE
  5
8F9
330
1F
100
AcDbEntity
  8
TEIL_STARTBEZUEGE
  6
CENTER
 62
     7
100
AcDbLine
 10
676.5420382561842
 20
379.4316994597416
 30
0.0
 11
673.541938256184
 21
379.4316994597416
 31
0.0
  0
LINE
  5
8FA
330
1F
100
AcDbEntity
  8
FASEN
  6
Continuous
 62
     7
100
AcDbLine
 10
281.8186603119843
 20
400.7701612360415
 30
0.0
 11
279.3959661355843
 21
401.2443268260414
 31
0.0
  0
LINE
  5
8FB
330
1F
100
AcDbEntity
  8
FASEN
  6
Continuous
 62
     3
100
AcDbLine
 10
279.6427220238843
 20
402.2118459004413
 30
0.0
 11
282.0654162002843
 21
401.7376803104414
 31
0.0
  0
LINE
  5
8FC
330
1F
100
AcDbEntity
  8
0
  6
Continuous
 62
     3
100
AcDbLine
 10
273.8407369132842
 20
401.6900438019415
 30
0.0
 11
270.6537318509843
 21
402.5002445516415
 31
0.0
  0
LINE
  5
8FD
330
1F
100
AcDbEntity
  8
FASEN
  6
Continuous
 62
     7
100
AcDbLine
 10
279.3959661355843
 20
401.2443268260414
 30
0.0
 11
278.2615214171842
 21
401.5327254772414
 31
0.0
  0
LINE
  5
8FE
330
1F
100
AcDbEntity
  8
0
  6
Continuous
 62
     3
100
AcDbLine
 10
273.8407369132842
 20
402.7955531593415
 30
0.0
 11
270.6537318509843
 21
403.6057539091414
 31
0.0
  0
LINE
  5
8FF
330
1F
100
AcDbEntity
  8
FASEN
  6
Continuous
 62
     3
100
AcDbLine
 10
279.6427220238843
 20
402.2118459004413
 30
0.0
 11
278.5082773055842
 21
402.5002445516415
 31
0.0
  0
LINE
  5
900
330
1F
100
AcDbEntity
  8
FASEN
  6
Continuous
 62
     3
100
AcDbLine
 10
279.6427220238843
 20
403.3173552579414
 30
0.0
 11
278.5082773055842
 21
403.6057539091414
 31
0.0
  0
LINE
  5
901
330
1F
100
AcDbEntity
  8
TEIL_STARTBEZUEGE
  6
CENTER
 62
     7
100
AcDbLine
 10
734.5420382561842
 20
377.4316994597416
 30
0.0
 11
734.5420382561842
 21
367.5381252128413
 31
0.0
  0
LINE
  5
902
330
1F
100
AcDbEntity
  8
TEIL_STARTBEZUEGE
  6
CENTER
 62
     7
100
AcDbLine
 10
734.5420382561842
 20
377.4316994597416
 30
0.0
 11
734.5420382561842
 21
387.3252737066414
 31
0.0
  0
LINE
  5
903
330
1F
100
AcDbEntity
  8
FASEN
  6
Continuous
 62
     7
100
AcDbLine
 10
1311.042038256184
 20
401.1121888043414
 30
0.0
 11
1313.542038256184
 21
401.2539207732415
 31
0.0
  0
LINE
  5
904
330
1F
100
AcDbEntity
  8
0
  6
Continuous
 62
     7
100
AcDbLine
 10
632.4420382561843
 20
399.6146077757414
 30
0.0
 11
723.041633770284
 21
399.6146077757414
 31
0.0
  0
LINE
  5
905
330
1F
100
AcDbEntity
  8
0
  6
Continuous
 62
     7
100
AcDbLine
 10
746.0424427408843
 20
399.6146077757414
 30
0.0
 11
836.6420382561841
 21
399.6146077757414
 31
0.0
  0
LINE
  5
906
330
1F
100
AcDbEntity
  8
0
  6
Continuous
 62
     7
100
AcDbLine
 10
1326.542038256184
 20
400.6316994597414
 30
0.0
 11
1324.542038256184
 21
400.6316994597414
 31
0.0
  0
LINE
  5
907
330
1F
100
AcDbEntity
  8
0
  6
Continuous
 62
     7
100
AcDbLine
 10
144.5420382561842
 20
400.6316994597414
 30
0.0
 11
142.5420382561842
 21
400.6316994597414
 31
0.0
  0
LINE
  5
908
330
1F
100
AcDbEntity
  8
FASEN
  6
Continuous
 62
     7
100
AcDbLine
 10
1208.930011456984
 20
401.1121888043414
 30
0.0
 11
1311.042038256184
 21
401.1121888043414
 31
0.0
  0
LINE
  5
909
330
1F
100
AcDbEntity
  8
FASEN
  6
Continuous
 62
     7
100
AcDbLine
 10
260.1540650552843
 20
401.1121888043414
 30
0.0
 11
158.042038256184
 21
401.1121888043414
 31
0.0
  0
LINE
  5
90A
330
1F
100
AcDbEntity
  8
FASEN
  6
Continuous
 62
     3
100
AcDbLine
 10
260.1540650552843
 20
402.1105804748414
 30
0.0
 11
158.042038256184
 21
402.1105804748414
 31
0.0
  0
LINE
  5
90B
330
1F
100
AcDbEntity
  8
FASEN
  6
Continuous
 62
     7
100
AcDbLine
 10
1208.930011456984
 20
402.2176981618413
 30
0.0
 11
1311.042038256184
 21
402.2176981618413
 31
0.0
  0
LINE
  5
90C
330
1F
100
AcDbEntity
  8
RUNDUNGEN
  6
Continuous
 62
     9
100
AcDbLine
 10
142.5420382561842
 20
402.3984455282415
 30
0.0
 11
144.5420382561842
 21
402.3984455282415
 31
0.0
  0
LINE
  5
90D
330
1F
100
AcDbEntity
  8
RUNDUNGEN
  6
Continuous
 62
     9
100
AcDbLine
 10
1324.542038256184
 20
402.3984455282415
 30
0.0
 11
1326.542038256184
 21
402.3984455282415
 31
0.0
  0
LINE
  5
90E
330
1F
100
AcDbEntity
  8
FASEN
  6
Continuous
 62
     3
100
AcDbLine
 10
1208.930011456984
 20
403.2160898323414
 30
0.0
 11
1311.042038256184
 21
403.2160898323414
 31
0.0
  0
LINE
  5
90F
330
1F
100
AcDbEntity
  8
FASEN
  6
Continuous
 62
     3
100
AcDbLine
 10
260.1540650552843
 20
403.2160898323414
 30
0.0
 11
188.4609033009842
 21
403.2160898323414
 31
0.0
  0
LINE
  5
910
330
1F
100
AcDbEntity
  8
FASEN
  6
Continuous
 62
     3
100
AcDbLine
 10
182.6233697706839
 20
403.2160898323414
 30
0.0
 11
168.460903300984
 21
403.2160898323414
 31
0.0
  0
LINE
  5
911
330
1F
100
AcDbEntity
  8
FASEN
  6
Continuous
 62
     3
100
AcDbLine
 10
162.6233697706841
 20
403.2160898323414
 30
0.0
 11
158.042038256184
 21
403.2160898323414
 31
0.0
  0
LINE
  5
912
330
1F
100
AcDbEntity
  8
RUNDUNGEN
  6
Continuous
 62
     9
100
AcDbLine
 10
807.5419019692843
 20
403.3132984685414
 30
0.0
 11
661.542189040384
 21
403.3132984685414
 31
0.0
  0
LINE
  5
913
330
1F
100
AcDbEntity
  8
RUNDUNGEN
  6
Continuous
 62
     3
100
AcDbLine
 10
1324.542038256184
 20
403.6129968553414
 30
0.0
 11
1305.908275151384
 21
403.6129968550414
 31
0.0
  0
LINE
  5
914
330
1F
100
AcDbEntity
  8
RUNDUNGEN
  6
Continuous
 62
     3
100
AcDbLine
 10
1301.175733685584
 20
403.6129968549414
 30
0.0
 11
1285.908275152084
 21
403.6129968546415
 31
0.0
  0
LINE
  5
915
330
1F
100
AcDbEntity
  8
RUNDUNGEN
  6
Continuous
 62
     3
100
AcDbLine
 10
1281.175733684884
 20
403.6129968545415
 30
0.0
 11
1207.271913669184
 21
403.6129968532414
 31
0.0
  0
LINE
  5
916
330
1F
100
AcDbEntity
  8
RUNDUNGEN
  6
Continuous
 62
     3
100
AcDbLine
 10
1206.284890115884
 20
403.6129968532414
 30
0.0
 11
1199.417368214684
 21
403.6129968531413
 31
0.0
  0
LINE
  5
917
330
1F
100
AcDbEntity
  8
RUNDUNGEN
  6
Continuous
 62
     3
100
AcDbLine
 10
1198.430344661284
 20
403.6129968530415
 30
0.0
 11
1191.562822760084
 21
403.6129968529414
 31
0.0
  0
LINE
  5
918
330
1F
100
AcDbEntity
  8
RUNDUNGEN
  6
Continuous
 62
     3
100
AcDbLine
 10
1190.575799206784
 20
403.6129968529414
 30
0.0
 11
1184.750284339312
 21
403.6129968528305
 31
0.0
  0
LINE
  5
919
330
1F
100
AcDbEntity
  8
RUNDUNGEN
  6
Continuous
 62
     3
100
AcDbLine
 10
1184.750284339312
 20
403.612996858551
 30
0.0
 11
837.5418239866844
 21
403.6129968519414
 31
0.0
  0
LINE
  5
91A
330
1F
100
AcDbEntity
  8
RUNDUNGEN
  6
Continuous
 62
     3
100
AcDbLine
 10
631.5422525312842
 20
403.6129968587415
 30
0.0
 11
318.997317857481
 21
403.6129968530449
 31
0.0
  0
LINE
  5
91B
330
1F
100
AcDbEntity
  8
RUNDUNGEN
  6
Continuous
 62
     3
100
AcDbLine
 10
318.997317857481
 20
403.6129968585218
 30
0.0
 11
144.5420382561842
 21
403.6129968553414
 31
0.0
  0
LINE
  5
91C
330
1F
100
AcDbEntity
  8
RUNDUNGEN
  6
Continuous
 62
     9
100
AcDbLine
 10
142.5420382561842
 20
404.3952288694413
 30
0.0
 11
144.5420382561842
 21
404.3952288694413
 31
0.0
  0
LINE
  5
91D
330
1F
100
AcDbEntity
  8
RUNDUNGEN
  6
Continuous
 62
     9
100
AcDbLine
 10
1324.542038256184
 20
404.3952288694413
 30
0.0
 11
1326.542038256184
 21
404.3952288694413
 31
0.0
  0
LINE
  5
91E
330
1F
100
AcDbEntity
  8
FASEN
  6
Continuous
 62
     7
100
AcDbLine
 10
158.042038256184
 20
401.1121888043414
 30
0.0
 11
155.5420382561842
 21
401.2539207732415
 31
0.0
  0
LINE
  5
91F
330
1F
100
AcDbEntity
  8
FASEN
  6
Continuous
 62
     3
100
AcDbLine
 10
155.5420382561842
 20
402.2523124437413
 30
0.0
 11
158.042038256184
 21
402.1105804748414
 31
0.0
  0
LINE
  5
920
330
1F
100
AcDbEntity
  8
FASEN
  6
Continuous
 62
     3
100
AcDbLine
 10
158.042038256184
 20
403.2160898323414
 30
0.0
 11
155.5420382561842
 21
403.0743578634415
 31
0.0
  0
LINE
  5
921
330
1F
100
AcDbEntity
  8
RUNDUNGEN
  6
Continuous
 62
     9
100
AcDbLine
 10
807.5420382561842
 20
405.3100818096413
 30
0.0
 11
661.5420382561842
 21
405.3100818096413
 31
0.0
  0
LINE
  5
922
330
1F
100
AcDbEntity
  8
0
  6
Continuous
 62
     9
100
AcDbLine
 10
1324.542038256184
 20
405.3797429238414
 30
0.0
 11
1184.750284339312
 21
405.3797429238414
 31
0.0
  0
LINE
  5
923
330
1F
100
AcDbEntity
  8
0
  6
Continuous
 62
     9
100
AcDbLine
 10
1184.750284339312
 20
405.3797429238411
 30
0.0
 11
318.997317857481
 21
405.3797429238415
 31
0.0
  0
LINE
  5
924
330
1F
100
AcDbEntity
  8
0
  6
Continuous
 62
     9
100
AcDbLine
 10
318.997317857481
 20
405.3797429238415
 30
0.0
 11
144.5420382561842
 21
405.3797429238414
 31
0.0
  0
LINE
  5
925
330
1F
100
AcDbEntity
  8
0
  6
Continuous
 62
     7
100
AcDbLine
 10
112.0420382561842
 20
406.6316994597413
 30
0.0
 11
142.5420382561842
 21
406.6316994597413
 31
0.0
  0
LINE
  5
926
330
1F
100
AcDbEntity
  8
0
  6
Continuous
 62
     7
100
AcDbLine
 10
1326.542038256184
 20
406.6316994597413
 30
0.0
 11
1357.042038256184
 21
406.6316994597413
 31
0.0
  0
LINE
  5
927
330
1F
100
AcDbEntity
  8
0
  6
Continuous
 62
     9
100
AcDbLine
 10
1324.542038256184
 20
407.3765262649414
 30
0.0
 11
1184.750284339312
 21
407.3765262649414
 31
0.0
  0
LINE
  5
928
330
1F
100
AcDbEntity
  8
0
  6
Continuous
 62
     9
100
AcDbLine
 10
1184.750284339312
 20
407.3765262649413
 30
0.0
 11
318.997317857481
 21
407.3765262649417
 31
0.0
  0
LINE
  5
929
330
1F
100
AcDbEntity
  8
0
  6
Continuous
 62
     9
100
AcDbLine
 10
318.997317857481
 20
407.3765262649414
 30
0.0
 11
144.5420382561842
 21
407.3765262649414
 31
0.0
  0
LINE
  5
92A
330
1F
100
AcDbEntity
  8
RUNDUNGEN
  6
Continuous
 62
     7
100
AcDbLine
 10
1357.042038256184
 20
408.6316994597414
 30
0.0
 11
1324.542038256184
 21
408.6316994597414
 31
0.0
  0
LINE
  5
92B
330
1F
100
AcDbEntity
  8
0
  6
Continuous
 62
     3
100
AcDbLine
 10
1324.542038256184
 20
408.6316994597414
 30
0.0
 11
1184.750284339312
 21
408.6316994597414
 31
0.0
  0
LINE
  5
92C
330
1F
100
AcDbEntity
  8
0
  6
Continuous
 62
     3
100
AcDbLine
 10
1184.750284339312
 20
408.6316994597414
 30
0.0
 11
318.997317857481
 21
408.6316994597414
 31
0.0
  0
LINE
  5
92D
330
1F
100
AcDbEntity
  8
0
  6
Continuous
 62
     3
100
AcDbLine
 10
318.997317857481
 20
408.6316994597414
 30
0.0
 11
144.5420382561842
 21
408.6316994597414
 31
0.0
  0
LINE
  5
92E
330
1F
100
AcDbEntity
  8
RUNDUNGEN
  6
Continuous
 62
     7
100
AcDbLine
 10
144.5420382561842
 20
408.6316994597414
 30
0.0
 11
112.0420382561842
 21
408.6316994597414
 31
0.0
  0
LINE
  5
92F
330
1F
100
AcDbEntity
  8
RUNDUNGEN
  6
Continuous
 62
     7
100
AcDbLine
 10
1324.542038256184
 20
409.6316994597414
 30
0.0
 11
1357.042038256184
 21
409.6316994597414
 31
0.0
  0
LINE
  5
930
330
1F
100
AcDbEntity
  8
0
  6
Continuous
 62
     7
100
AcDbLine
 10
1324.542038256184
 20
409.6316994597414
 30
0.0
 11
1184.750284339312
 21
409.6316994597414
 31
0.0
  0
LINE
  5
931
330
1F
100
AcDbEntity
  8
0
  6
Continuous
 62
     7
100
AcDbLine
 10
1184.750284339312
 20
409.6316994597414
 30
0.0
 11
318.997317857481
 21
409.6316994597416
 31
0.0
  0
LINE
  5
932
330
1F
100
AcDbEntity
  8
0
  6
Continuous
 62
     7
100
AcDbLine
 10
318.997317857481
 20
409.6316994597414
 30
0.0
 11
144.5420382561842
 21
409.6316994597414
 31
0.0
  0
LINE
  5
933
330
1F
100
AcDbEntity
  8
RUNDUNGEN
  6
Continuous
 62
     7
100
AcDbLine
 10
144.5420382561842
 20
409.6316994597414
 30
0.0
 11
112.0420382561842
 21
409.6316994597414
 31
0.0
  0
LINE
  5
934
330
1F
100
AcDbEntity
  8
0
  6
Continuous
 62
     9
100
AcDbLine
 10
1324.542038256184
 20
410.6316994597413
 30
0.0
 11
1184.750284339312
 21
410.6316994597413
 31
0.0
  0
LINE
  5
935
330
1F
100
AcDbEntity
  8
0
  6
Continuous
 62
     9
100
AcDbLine
 10
1184.750284339312
 20
410.6316994597413
 30
0.0
 11
318.997317857481
 21
410.6316994597416
 31
0.0
  0
LINE
  5
936
330
1F
100
AcDbEntity
  8
0
  6
Continuous
 62
     9
100
AcDbLine
 10
318.997317857481
 20
410.6316994597413
 30
0.0
 11
144.5420382561842
 21
410.6316994597413
 31
0.0
  0
LINE
  5
937
330
1F
100
AcDbEntity
  8
0
  6
Continuous
 62
     9
100
AcDbLine
 10
1324.542038256184
 20
420.1316994597414
 30
0.0
 11
1184.750284339312
 21
420.1316994597414
 31
0.0
  0
LINE
  5
938
330
1F
100
AcDbEntity
  8
0
  6
Continuous
 62
     9
100
AcDbLine
 10
1184.750284339312
 20
420.1316994597414
 30
0.0
 11
318.997317857481
 21
420.1316994597414
 31
0.0
  0
LINE
  5
939
330
1F
100
AcDbEntity
  8
0
  6
Continuous
 62
     9
100
AcDbLine
 10
318.997317857481
 20
420.1316994597414
 30
0.0
 11
144.5420382561842
 21
420.1316994597414
 31
0.0
  0
LINE
  5
93A
330
1F
100
AcDbEntity
  8
0
  6
Continuous
 62
     7
100
AcDbLine
 10
1324.542038256184
 20
421.6316994597414
 30
0.0
 11
1184.750284339312
 21
421.6316994597414
 31
0.0
  0
LINE
  5
93B
330
1F
100
AcDbEntity
  8
0
  6
Continuous
 62
     7
100
AcDbLine
 10
1184.750284339312
 20
421.6316994597414
 30
0.0
 11
318.997317857481
 21
421.6316994597414
 31
0.0
  0
LINE
  5
93C
330
1F
100
AcDbEntity
  8
0
  6
Continuous
 62
     7
100
AcDbLine
 10
318.997317857481
 20
421.6316994597414
 30
0.0
 11
144.5420382561842
 21
421.6316994597414
 31
0.0
  0
LINE
  5
93D
330
1F
100
AcDbEntity
  8
0
  6
Continuous
 62
     9
100
AcDbLine
 10
144.3920382561841
 20
422.6316994597413
 30
0.0
 11
318.997317857481
 21
422.6316994597413
 31
0.0
  0
LINE
  5
93E
330
1F
100
AcDbEntity
  8
0
  6
Continuous
 62
     9
100
AcDbLine
 10
318.997317857481
 20
422.6316994597413
 30
0.0
 11
1184.750284339312
 21
422.6316994597416
 31
0.0
  0
LINE
  5
93F
330
1F
100
AcDbEntity
  8
0
  6
Continuous
 62
     9
100
AcDbLine
 10
1184.750284339312
 20
422.6316994597413
 30
0.0
 11
1324.692038256184
 21
422.6316994597413
 31
0.0
  0
LINE
  5
940
330
1F
100
AcDbEntity
  8
FASEN
  6
Continuous
 62
     7
100
AcDbLine
 10
1313.542038256184
 20
402.0759661928414
 30
0.0
 11
1311.042038256184
 21
402.2176981618413
 31
0.0
  0
LINE
  5
941
330
1F
100
AcDbEntity
  8
FASEN
  6
Continuous
 62
     3
100
AcDbLine
 10
1311.042038256184
 20
403.2160898323414
 30
0.0
 11
1313.542038256184
 21
403.0743578634415
 31
0.0
  0
LINE
  5
942
330
1F
100
AcDbEntity
  8
FASEN
  6
Continuous
 62
     3
100
AcDbLine
 10
1187.018660311984
 20
402.5597257300415
 30
0.0
 11
1189.441354488384
 21
403.3173552579414
 31
0.0
  0
LINE
  5
943
330
1F
100
AcDbEntity
  8
FASEN
  6
Continuous
 62
     7
100
AcDbLine
 10
1189.688110376684
 20
402.3498361835413
 30
0.0
 11
1187.265416200284
 21
401.5922066556413
 31
0.0
  0
LINE
  5
944
330
1F
100
AcDbEntity
  8
0
  6
Continuous
 62
     7
100
AcDbLine
 10
277.7680096405843
 20
401.5327254772414
 30
0.0
 11
274.5810045782842
 21
400.7225247275414
 31
0.0
  0
LINE
  5
945
330
1F
100
AcDbEntity
  8
0
  6
Continuous
 62
     3
100
AcDbLine
 10
277.5212537521843
 20
402.5002445516415
 30
0.0
 11
274.3342486899842
 21
401.6900438019415
 31
0.0
  0
LINE
  5
946
330
1F
100
AcDbEntity
  8
0
  6
Continuous
 62
     7
100
AcDbLine
 10
269.9134641859842
 20
401.5327254772414
 30
0.0
 11
266.7264591236844
 21
400.7225247275414
 31
0.0
  0
LINE
  5
947
330
1F
100
AcDbEntity
  8
0
  6
Continuous
 62
     3
100
AcDbLine
 10
277.5212537521843
 20
403.6057539091414
 30
0.0
 11
274.3342486899842
 21
402.7955531593415
 31
0.0
  0
LINE
  5
948
330
1F
100
AcDbEntity
  8
0
  6
Continuous
 62
     3
100
AcDbLine
 10
269.6667082976842
 20
402.5002445516415
 30
0.0
 11
266.479703235384
 21
401.6900438019415
 31
0.0
  0
LINE
  5
949
330
1F
100
AcDbEntity
  8
0
  6
Continuous
 62
     7
100
AcDbLine
 10
262.058918731484
 20
401.5327254772414
 30
0.0
 11
260.6475768319842
 21
401.1739339966416
 31
0.0
  0
LINE
  5
94A
330
1F
100
AcDbEntity
  8
0
  6
Continuous
 62
     3
100
AcDbLine
 10
269.6667082976842
 20
403.6057539091414
 30
0.0
 11
266.479703235384
 21
402.7955531593415
 31
0.0
  0
LINE
  5
94B
330
1F
100
AcDbEntity
  8
0
  6
Continuous
 62
     3
100
AcDbLine
 10
261.812162843084
 20
402.5002445516415
 30
0.0
 11
260.4008209435842
 21
402.1414530710415
 31
0.0
  0
LINE
  5
94C
330
1F
100
AcDbEntity
  8
0
  6
Continuous
 62
     3
100
AcDbLine
 10
261.812162843084
 20
403.6057539091414
 30
0.0
 11
260.4008209435842
 21
403.2469624285413
 31
0.0
  0
LINE
  5
94D
330
1F
100
AcDbEntity
  8
0
  6
Continuous
 62
     7
100
AcDbLine
 10
1191.316066871784
 20
401.5327254772414
 30
0.0
 11
1194.503071933984
 21
400.7225247275414
 31
0.0
  0
LINE
  5
94E
330
1F
100
AcDbEntity
  8
0
  6
Continuous
 62
     7
100
AcDbLine
 10
1191.316066871784
 20
402.6382348347415
 30
0.0
 11
1194.503071933984
 21
401.8280340849414
 31
0.0
  0
LINE
  5
94F
330
1F
100
AcDbEntity
  8
0
  6
Continuous
 62
     7
100
AcDbLine
 10
1199.170612326284
 20
401.5327254772414
 30
0.0
 11
1202.357617388584
 21
400.7225247275414
 31
0.0
  0
LINE
  5
950
330
1F
100
AcDbEntity
  8
0
  6
Continuous
 62
     3
100
AcDbLine
 10
1191.562822760084
 20
403.6057539091414
 30
0.0
 11
1194.749827822384
 21
402.7955531593415
 31
0.0
  0
LINE
  5
951
330
1F
100
AcDbEntity
  8
0
  6
Continuous
 62
     7
100
AcDbLine
 10
1199.170612326284
 20
402.6382348347415
 30
0.0
 11
1202.357617388584
 21
401.8280340849414
 31
0.0
  0
LINE
  5
952
330
1F
100
AcDbEntity
  8
0
  6
Continuous
 62
     7
100
AcDbLine
 10
1207.025157780884
 20
401.5327254772414
 30
0.0
 11
1208.436499680384
 21
401.1739339966416
 31
0.0
  0
LINE
  5
953
330
1F
100
AcDbEntity
  8
0
  6
Continuous
 62
     3
100
AcDbLine
 10
1199.417368214684
 20
403.6057539091414
 30
0.0
 11
1202.604373276884
 21
402.7955531593415
 31
0.0
  0
LINE
  5
954
330
1F
100
AcDbEntity
  8
0
  6
Continuous
 62
     7
100
AcDbLine
 10
1207.025157780884
 20
402.6382348347415
 30
0.0
 11
1208.436499680384
 21
402.2794433541414
 31
0.0
  0
LINE
  5
955
330
1F
100
AcDbEntity
  8
0
  6
Continuous
 62
     3
100
AcDbLine
 10
1207.271913669184
 20
403.6057539091414
 30
0.0
 11
1208.683255568684
 21
403.2469624285413
 31
0.0
  0
LINE
  5
956
330
1F
100
AcDbEntity
  8
0
  6
Continuous
 62
     7
100
AcDbLine
 10
122.0420382561842
 20
451.6316994597413
 30
0.0
 11
318.997317857481
 21
451.6316994597413
 31
0.0
  0
LINE
  5
957
330
1F
100
AcDbEntity
  8
0
  6
Continuous
 62
     7
100
AcDbLine
 10
318.997317857481
 20
451.6316994597413
 30
0.0
 11
1184.750284339312
 21
451.6316994597416
 31
0.0
  0
LINE
  5
958
330
1F
100
AcDbEntity
  8
0
  6
Continuous
 62
     7
100
AcDbLine
 10
1184.750284339312
 20
451.6316994597413
 30
0.0
 11
1347.042038256184
 21
451.6316994597413
 31
0.0
  0
LINE
  5
959
330
1F
100
AcDbEntity
  8
RUNDUNGEN
  6
Continuous
 62
     9
100
AcDbLine
 10
807.5420382561842
 20
405.3100818096413
 30
0.0
 11
807.5419904251843
 21
399.6146077745416
 31
0.0
  0
LINE
  5
95A
330
1F
100
AcDbEntity
  8
RUNDUNGEN
  6
Continuous
 62
     9
100
AcDbLine
 10
807.5420382561842
 20
354.4316994597416
 30
0.0
 11
807.5420382561842
 21
366.4316994597416
 31
0.0
  0
LINE
  5
95B
330
1F
100
AcDbEntity
  8
0
  6
Continuous
 62
     9
100
AcDbLine
 10
807.5420382561842
 20
366.4316994597416
 30
0.0
 11
807.5420382561842
 21
399.6146077757414
 31
0.0
  0
LINE
  5
95C
330
1F
100
AcDbEntity
  8
0
  6
Continuous
 62
     3
100
AcDbLine
 10
835.5420382561842
 20
399.6146077757414
 30
0.0
 11
835.5420382561842
 21
401.6097750147414
 31
0.0
  0
LINE
  5
95D
330
1F
100
AcDbEntity
  8
0
  6
Continuous
 62
     7
100
AcDbLine
 10
836.6420382561841
 20
366.4316994597416
 30
0.0
 11
836.6420382561841
 21
399.6146077757414
 31
0.0
  0
LINE
  5
95E
330
1F
100
AcDbEntity
  8
BEZUGSACHSEN
  6
Continuous
 62
     3
100
AcDbLine
 10
1283.542038256184
 20
404.1942023818414
 30
0.0
 11
1282.958702277884
 21
403.8853557844413
 31
0.0
  0
LINE
  5
95F
330
1F
100
AcDbEntity
  8
BEZUGSACHSEN
  6
Continuous
 62
     3
100
AcDbLine
 10
1302.958702277884
 20
403.8853557844413
 30
0.0
 11
1303.542038256184
 21
404.1942023818414
 31
0.0
  0
LINE
  5
960
330
1F
100
AcDbEntity
  8
BEZUGSACHSEN
  6
Continuous
 62
     3
100
AcDbLine
 10
1283.542038256184
 20
404.1942023818414
 30
0.0
 11
1284.125494745784
 21
403.8852919798414
 31
0.0
  0
LINE
  5
961
330
1F
100
AcDbEntity
  8
BEZUGSACHSEN
  6
Continuous
 62
     3
100
AcDbLine
 10
1304.125494745784
 20
403.8852919798414
 30
0.0
 11
1303.542038256184
 21
404.1942023818414
 31
0.0
  0
LINE
  5
962
330
1F
100
AcDbEntity
  8
FASEN
  6
Continuous
 62
     3
100
AcDbLine
 10
1187.018660311984
 20
402.5597257300415
 30
0.0
 11
1187.018660311984
 21
401.7376803104414
 31
0.0
  0
LINE
  5
963
330
1F
100
AcDbEntity
  8
FASEN
  6
Continuous
 62
     7
100
AcDbLine
 10
1187.265416200284
 20
401.5922066556413
 30
0.0
 11
1187.265416200284
 21
400.7701612360415
 31
0.0
  0
LINE
  5
964
330
1F
100
AcDbEntity
  8
0
  6
Continuous
 62
     9
100
AcDbLine
 10
1191.562822760084
 20
403.6057539091414
 30
0.0
 11
1191.316066871784
 21
402.6382348347415
 31
0.0
  0
LINE
  5
965
330
1F
100
AcDbEntity
  8
0
  6
Continuous
 62
     9
100
AcDbLine
 10
1194.749827822384
 20
402.7955531593415
 30
0.0
 11
1194.503071933984
 21
401.8280340849414
 31
0.0
  0
LINE
  5
966
330
1F
100
AcDbEntity
  8
FASEN
  6
Continuous
 62
     7
100
AcDbLine
 10
1187.265416200284
 20
400.7701612360415
 30
0.0
 11
1187.018660311984
 21
401.7376803104414
 31
0.0
  0
LINE
  5
967
330
1F
100
AcDbEntity
  8
FASEN
  6
Continuous
 62
     7
100
AcDbLine
 10
1187.265416200284
 20
401.5922066556413
 30
0.0
 11
1187.018660311984
 21
402.5597257300415
 31
0.0
  0
LINE
  5
968
330
1F
100
AcDbEntity
  8
FASEN
  6
Continuous
 62
     7
100
AcDbLine
 10
1189.688110376684
 20
402.3498361835413
 30
0.0
 11
1189.441354488384
 21
403.3173552579414
 31
0.0
  0
LINE
  5
969
330
1F
100
AcDbEntity
  8
0
  6
Continuous
 62
     9
100
AcDbLine
 10
1190.575799206784
 20
403.6057539091414
 30
0.0
 11
1190.822555095084
 21
402.6382348347415
 31
0.0
  0
LINE
  5
96A
330
1F
100
AcDbEntity
  8
0
  6
Continuous
 62
     9
100
AcDbLine
 10
1190.822555095084
 20
402.6382348347415
 30
0.0
 11
1190.822555095084
 21
401.5327254772414
 31
0.0
  0
LINE
  5
96B
330
1F
100
AcDbEntity
  8
0
  6
Continuous
 62
     9
100
AcDbLine
 10
1191.316066871784
 20
402.6382348347415
 30
0.0
 11
1191.316066871784
 21
401.5327254772414
 31
0.0
  0
LINE
  5
96C
330
1F
100
AcDbEntity
  8
0
  6
Continuous
 62
     9
100
AcDbLine
 10
1194.503071933984
 20
401.8280340849414
 30
0.0
 11
1194.503071933984
 21
400.7225247275414
 31
0.0
  0
LINE
  5
96D
330
1F
100
AcDbEntity
  8
0
  6
Continuous
 62
     9
100
AcDbLine
 10
1195.490095487384
 20
401.8280340849414
 30
0.0
 11
1195.490095487384
 21
400.7225247275414
 31
0.0
  0
LINE
  5
96E
330
1F
100
AcDbEntity
  8
0
  6
Continuous
 62
     9
100
AcDbLine
 10
1198.677100549584
 20
402.6382348347415
 30
0.0
 11
1198.677100549584
 21
401.5327254772414
 31
0.0
  0
LINE
  5
96F
330
1F
100
AcDbEntity
  8
0
  6
Continuous
 62
     9
100
AcDbLine
 10
1199.170612326284
 20
402.6382348347415
 30
0.0
 11
1199.170612326284
 21
401.5327254772414
 31
0.0
  0
LINE
  5
970
330
1F
100
AcDbEntity
  8
0
  6
Continuous
 62
     9
100
AcDbLine
 10
1202.357617388584
 20
401.8280340849414
 30
0.0
 11
1202.357617388584
 21
400.7225247275414
 31
0.0
  0
LINE
  5
971
330
1F
100
AcDbEntity
  8
0
  6
Continuous
 62
     9
100
AcDbLine
 10
1203.344640941884
 20
401.8280340849414
 30
0.0
 11
1203.344640941884
 21
400.7225247275414
 31
0.0
  0
LINE
  5
972
330
1F
100
AcDbEntity
  8
0
  6
Continuous
 62
     9
100
AcDbLine
 10
1206.531646004184
 20
402.6382348347415
 30
0.0
 11
1206.531646004184
 21
401.5327254772414
 31
0.0
  0
LINE
  5
973
330
1F
100
AcDbEntity
  8
0
  6
Continuous
 62
     9
100
AcDbLine
 10
1207.025157780884
 20
402.6382348347415
 30
0.0
 11
1207.025157780884
 21
401.5327254772414
 31
0.0
  0
LINE
  5
974
330
1F
100
AcDbEntity
  8
0
  6
Continuous
 62
     9
100
AcDbLine
 10
1208.436499680384
 20
402.2794433541414
 30
0.0
 11
1208.436499680384
 21
401.1739339966416
 31
0.0
  0
LINE
  5
975
330
1F
100
AcDbEntity
  8
0
  6
Continuous
 62
     9
100
AcDbLine
 10
1208.930011456984
 20
403.2160898323414
 30
0.0
 11
1208.930011456984
 21
401.1121888043414
 31
0.0
  0
LINE
  5
976
330
1F
100
AcDbEntity
  8
0
  6
Continuous
 62
     9
100
AcDbLine
 10
1199.417368214684
 20
403.6057539091414
 30
0.0
 11
1199.170612326284
 21
402.6382348347415
 31
0.0
  0
LINE
  5
977
330
1F
100
AcDbEntity
  8
0
  6
Continuous
 62
     9
100
AcDbLine
 10
1202.604373276884
 20
402.7955531593415
 30
0.0
 11
1202.357617388584
 21
401.8280340849414
 31
0.0
  0
LINE
  5
978
330
1F
100
AcDbEntity
  8
0
  6
Continuous
 62
     9
100
AcDbLine
 10
1207.271913669184
 20
403.6057539091414
 30
0.0
 11
1207.025157780884
 21
402.6382348347415
 31
0.0
  0
LINE
  5
979
330
1F
100
AcDbEntity
  8
0
  6
Continuous
 62
     9
100
AcDbLine
 10
1208.683255568684
 20
403.2469624285413
 30
0.0
 11
1208.436499680384
 21
402.2794433541414
 31
0.0
  0
LINE
  5
97A
330
1F
100
AcDbEntity
  8
0
  6
Continuous
 62
     9
100
AcDbLine
 10
1195.243339598984
 20
402.7955531593415
 30
0.0
 11
1195.490095487384
 21
401.8280340849414
 31
0.0
  0
LINE
  5
97B
330
1F
100
AcDbEntity
  8
0
  6
Continuous
 62
     9
100
AcDbLine
 10
1198.430344661284
 20
403.6057539091414
 30
0.0
 11
1198.677100549584
 21
402.6382348347415
 31
0.0
  0
LINE
  5
97C
330
1F
100
AcDbEntity
  8
0
  6
Continuous
 62
     9
100
AcDbLine
 10
1203.097885053584
 20
402.7955531593415
 30
0.0
 11
1203.344640941884
 21
401.8280340849414
 31
0.0
  0
LINE
  5
97D
330
1F
100
AcDbEntity
  8
0
  6
Continuous
 62
     9
100
AcDbLine
 10
1206.284890115884
 20
403.6057539091414
 30
0.0
 11
1206.531646004184
 21
402.6382348347415
 31
0.0
  0
LINE
  5
97E
330
1F
100
AcDbEntity
  8
0
  6
Continuous
 62
     7
100
AcDbLine
 10
1267.292038256184
 20
401.7712424597414
 30
0.0
 11
1267.292038256184
 21
401.5586445063413
 31
0.0
  0
LINE
  5
97F
330
1F
100
AcDbEntity
  8
0
  6
Continuous
 62
     7
100
AcDbLine
 10
1268.542038256184
 20
401.5586445063413
 30
0.0
 11
1268.542038256184
 21
401.7712424597414
 31
0.0
  0
LINE
  5
980
330
1F
100
AcDbEntity
  8
BEZUGSACHSEN
  6
Continuous
 62
     7
100
AcDbLine
 10
1281.042038256184
 20
401.5232115141416
 30
0.0
 11
1281.042038256184
 21
401.8066754519414
 31
0.0
  0
LINE
  5
981
330
1F
100
AcDbEntity
  8
BEZUGSACHSEN
  6
Continuous
 62
     7
100
AcDbLine
 10
1286.042038256184
 20
401.8066754519414
 30
0.0
 11
1286.042038256184
 21
401.5232115141416
 31
0.0
  0
LINE
  5
982
330
1F
100
AcDbEntity
  8
BEZUGSACHSEN
  6
Continuous
 62
     7
100
AcDbLine
 10
1301.042038256184
 20
401.5232115141416
 30
0.0
 11
1301.042038256184
 21
401.8066754519414
 31
0.0
  0
LINE
  5
983
330
1F
100
AcDbEntity
  8
BEZUGSACHSEN
  6
Continuous
 62
     7
100
AcDbLine
 10
1306.042038256184
 20
401.8066754519414
 30
0.0
 11
1306.042038256184
 21
401.5232115141416
 31
0.0
  0
LINE
  5
984
330
1F
100
AcDbEntity
  8
FASEN
  6
Continuous
 62
     7
100
AcDbLine
 10
1311.042038256184
 20
402.2176981618413
 30
0.0
 11
1311.042038256184
 21
403.2160898323414
 31
0.0
  0
LINE
  5
985
330
1F
100
AcDbEntity
  8
FASEN
  6
Continuous
 62
     7
100
AcDbLine
 10
1313.542038256184
 20
401.2539207732415
 30
0.0
 11
1313.542038256184
 21
403.0743578634415
 31
0.0
  0
LINE
  5
986
330
1F
100
AcDbEntity
  8
0
  6
Continuous
 62
     7
100
AcDbLine
 10
1324.542038256184
 20
422.5136212075415
 30
0.0
 11
1324.542038256184
 21
420.7057246083413
 31
0.0
  0
LINE
  5
987
330
1F
100
AcDbEntity
  8
RUNDUNGEN
  6
Continuous
 62
     7
100
AcDbLine
 10
1324.542038256184
 20
400.6316994597414
 30
0.0
 11
1324.542038256184
 21
408.6316994597414
 31
0.0
  0
LINE
  5
988
330
1F
100
AcDbEntity
  8
0
  6
Continuous
 62
     3
100
AcDbLine
 10
1324.542038256184
 20
407.3765262649414
 30
0.0
 11
1324.542038256184
 21
408.6316994597414
 31
0.0
  0
LINE
  5
989
330
1F
100
AcDbEntity
  8
0
  6
Continuous
 62
     7
100
AcDbLine
 10
1324.542038256184
 20
408.6316994597414
 30
0.0
 11
1324.542038256184
 21
420.1316994597414
 31
0.0
  0
LINE
  5
98A
102
{ACAD_REACTORS
330
A72
102
}
330
1F
100
AcDbEntity
  8
RUNDUNGEN
  6
Continuous
 62
     7
100
AcDbLine
 10
1324.542038256184
 20
410.6316994597413
 30
0.0
 11
1324.542038256184
 21
420.6316994597414
 31
0.0
  0
LINE
  5
98B
330
1F
100
AcDbEntity
  8
0
  6
Continuous
 62
     7
100
AcDbLine
 10
1324.842038256184
 20
421.3402714922413
 30
0.0
 11
1324.842038256184
 21
422.4816994597413
 31
0.0
  0
LINE
  5
98C
330
1F
100
AcDbEntity
  8
RUNDUNGEN
  6
Continuous
 62
     7
100
AcDbLine
 10
1326.542038256184
 20
400.6316994597414
 30
0.0
 11
1326.542038256184
 21
408.6316994597414
 31
0.0
  0
LINE
  5
98D
330
1F
100
AcDbEntity
  8
RUNDUNGEN
  6
Continuous
 62
     7
100
AcDbLine
 10
1326.542038256184
 20
409.6316994597414
 30
0.0
 11
1326.542038256184
 21
420.6316994597414
 31
0.0
  0
LINE
  5
98E
330
1F
100
AcDbEntity
  8
RUNDUNGEN
  6
Continuous
 62
     9
100
AcDbLine
 10
1347.042038256184
 20
409.6316994597414
 30
0.0
 11
1347.042038256184
 21
408.6316994597414
 31
0.0
  0
LINE
  5
98F
330
1F
100
AcDbEntity
  8
RUNDUNGEN
  6
Continuous
 62
     7
100
AcDbLine
 10
1357.042038256184
 20
409.6316994597414
 30
0.0
 11
1357.042038256184
 21
408.6316994597414
 31
0.0
  0
LINE
  5
990
330
1F
100
AcDbEntity
  8
0
  6
Continuous
 62
     7
100
AcDbLine
 10
1357.042038256184
 20
406.6316994597413
 30
0.0
 11
1357.042038256184
 21
408.6316994597414
 31
0.0
  0
LINE
  5
991
102
{ACAD_REACTORS
330
A76
102
}
330
1F
100
AcDbEntity
  8
0
  6
Continuous
 62
     7
100
AcDbLine
 10
1357.042038256184
 20
409.6316994597414
 30
0.0
 11
1357.042038256184
 21
441.6316994597414
 31
0.0
  0
LINE
  5
992
330
1F
100
AcDbEntity
  8
RUNDUNGEN
  6
Continuous
 62
     7
100
AcDbLine
 10
112.5420382561842
 20
258.2955822046415
 30
0.0
 11
112.5420382561842
 21
157.2955822046415
 31
0.0
  0
LINE
  5
993
330
1F
100
AcDbEntity
  8
0
  6
Continuous
 62
     7
100
AcDbLine
 10
112.5420382561842
 20
258.2955822046415
 30
0.0
 11
112.5420382561842
 21
259.2955822046415
 31
0.0
  0
LINE
  5
994
330
1F
100
AcDbEntity
  8
0
  6
Continuous
 62
     9
100
AcDbLine
 10
122.5420382561842
 20
258.2955822046415
 30
0.0
 11
122.5420382561842
 21
259.2955822046415
 31
0.0
  0
LINE
  5
995
330
1F
100
AcDbEntity
  8
RUNDUNGEN
  6
Continuous
 62
     7
100
AcDbLine
 10
143.0420382561842
 20
258.2955822046415
 30
0.0
 11
143.0420382561842
 21
178.2955822046415
 31
0.0
  0
LINE
  5
996
330
1F
100
AcDbEntity
  8
0
  6
Continuous
 62
     7
100
AcDbLine
 10
145.0420382561842
 20
181.2078586172415
 30
0.0
 11
145.0420382561842
 21
178.3833057920415
 31
0.0
  0
LINE
  5
997
330
1F
100
AcDbEntity
  8
0
  6
Continuous
 62
     7
100
AcDbLine
 10
145.0420382561842
 20
178.2955822046415
 30
0.0
 11
145.0420382561842
 21
147.2955822046415
 31
0.0
  0
LINE
  5
998
330
1F
100
AcDbEntity
  8
RUNDUNGEN
  6
Continuous
 62
     7
100
AcDbLine
 10
145.0420382561842
 20
178.2955822046415
 30
0.0
 11
145.0420382561842
 21
178.3833057920415
 31
0.0
  0
LINE
  5
999
330
1F
100
AcDbEntity
  8
RUNDUNGEN
  6
Continuous
 62
     7
100
AcDbLine
 10
145.0420382561842
 20
181.2078586172415
 30
0.0
 11
145.0420382561842
 21
245.2955822046415
 31
0.0
  0
LINE
  5
99A
330
1F
100
AcDbEntity
  8
0
  6
Continuous
 62
     7
100
AcDbLine
 10
145.0420382561842
 20
245.5635313970415
 30
0.0
 11
145.0420382561842
 21
258.2885864978414
 31
0.0
  0
LINE
  5
99B
330
1F
100
AcDbEntity
  8
RUNDUNGEN
  6
Continuous
 62
     9
100
AcDbLine
 10
661.5420382561842
 20
243.1255038419415
 30
0.0
 11
661.5420382561842
 21
240.2955822046415
 31
0.0
  0
LINE
  5
99C
330
1F
100
AcDbEntity
  8
0
  6
Continuous
 62
     9
100
AcDbLine
 10
661.5420382561842
 20
196.1955822046416
 30
0.0
 11
661.5420382561842
 21
186.2955822046415
 31
0.0
  0
LINE
  5
99D
330
1F
100
AcDbEntity
  8
RUNDUNGEN
  6
Continuous
 62
     9
100
AcDbLine
 10
661.5420382561842
 20
183.4656605673415
 30
0.0
 11
661.5420382561842
 21
186.2955822046415
 31
0.0
  0
LINE
  5
99E
330
1F
100
AcDbEntity
  8
0
  6
Continuous
 62
     9
100
AcDbLine
 10
661.5420382561842
 20
230.3955822046414
 30
0.0
 11
661.5420382561842
 21
240.2955822046415
 31
0.0
  0
LINE
  5
99F
330
1F
100
AcDbEntity
  8
0
  6
Continuous
 62
     7
100
AcDbLine
 10
758.5113629912841
 20
99.19558220464161
 30
0.0
 11
710.5727135210841
 21
99.19558220464161
 31
0.0
  0
LINE
  5
9A0
330
1F
100
AcDbEntity
  8
RUNDUNGEN
  6
Continuous
 62
     9
100
AcDbLine
 10
709.6036144351842
 20
103.8958355106415
 30
0.0
 11
759.4804620771842
 21
103.8958355106415
 31
0.0
  0
LINE
  5
9A1
330
1F
100
AcDbEntity
  8
RUNDUNGEN
  6
Continuous
 62
     9
100
AcDbLine
 10
709.5418126069844
 20
104.5016337469415
 30
0.0
 11
759.542263905284
 21
104.5016337469415
 31
0.0
  0
LINE
  5
9A2
330
1F
100
AcDbEntity
  8
0
  6
Continuous
 62
     9
100
AcDbLine
 10
709.9918558935842
 20
216.7453745133414
 30
0.0
 11
709.5297384819842
 21
216.3539396184415
 31
0.0
  0
LINE
  5
9A3
330
1F
100
AcDbEntity
  8
0
  6
Continuous
 62
     9
100
AcDbLine
 10
709.769718380684
 20
217.1625742445415
 30
0.0
 11
709.195038506984
 21
216.6937571088415
 31
0.0
  0
LINE
  5
9A4
330
1F
100
AcDbEntity
  8
RUNDUNGEN
  6
Continuous
 62
     7
100
AcDbLine
 10
709.5418126069844
 20
104.5016337469415
 30
0.0
 11
709.6036144351842
 21
103.8958355106415
 31
0.0
  0
LINE
  5
9A5
330
1F
100
AcDbEntity
  8
0
  6
Continuous
 62
     7
100
AcDbLine
 10
709.5418126069844
 20
147.7955822046415
 30
0.0
 11
709.5418126069844
 21
104.5016337469415
 31
0.0
  0
LINE
  5
9A6
330
1F
100
AcDbEntity
  8
RUNDUNGEN
  6
Continuous
 62
     7
100
AcDbLine
 10
1324.042038256184
 20
147.2955822046415
 30
0.0
 11
1346.542038256184
 21
147.2955822046415
 31
0.0
  0
LINE
  5
9A7
330
1F
100
AcDbEntity
  8
RUNDUNGEN
  6
Continuous
 62
     7
100
AcDbLine
 10
145.0420382561842
 20
147.2955822046415
 30
0.0
 11
122.5420382561842
 21
147.2955822046415
 31
0.0
  0
LINE
  5
9A8
330
1F
100
AcDbEntity
  8
0
  6
Continuous
 62
     7
100
AcDbLine
 10
1324.042038256184
 20
147.7955822046415
 30
0.0
 11
1184.250284339312
 21
147.7955822046415
 31
0.0
  0
LINE
  5
9A9
330
1F
100
AcDbEntity
  8
0
  6
Continuous
 62
     7
100
AcDbLine
 10
1184.750284339312
 20
147.7955822046413
 30
0.0
 11
318.997317857481
 21
147.7955822046417
 31
0.0
  0
LINE
  5
9AA
330
1F
100
AcDbEntity
  8
0
  6
Continuous
 62
     7
100
AcDbLine
 10
319.497317857481
 20
147.7955822046415
 30
0.0
 11
145.0420382561842
 21
147.7955822046415
 31
0.0
  0
LINE
  5
9AB
330
1F
100
AcDbEntity
  8
0
  6
Continuous
 62
     7
100
AcDbLine
 10
709.6036144351842
 20
103.8958355106415
 30
0.0
 11
710.5727135210841
 21
99.19558220464161
 31
0.0
  0
LINE
  5
9AC
330
1F
100
AcDbEntity
  8
RUNDUNGEN
  6
Continuous
 62
     7
100
AcDbLine
 10
710.5727135210841
 20
99.19558220464161
 30
0.0
 11
709.6036144351842
 21
103.8958355106415
 31
0.0
  0
LINE
  5
9AD
330
1F
100
AcDbEntity
  8
TEIL_STARTBEZUEGE
  6
CENTER
 62
     7
100
AcDbLine
 10
734.5420382561842
 20
96.1955822046416
 30
0.0
 11
734.5420382561842
 21
214.0565064825414
 31
0.0
  0
LINE
  5
9AE
330
1F
100
AcDbEntity
  8
0
  6
Continuous
 62
     9
100
AcDbLine
 10
753.9918558935842
 20
216.7453745133414
 30
0.0
 11
753.5297384819841
 21
216.3539396184415
 31
0.0
  0
LINE
  5
9AF
330
1F
100
AcDbEntity
  8
0
  6
Continuous
 62
     9
100
AcDbLine
 10
753.769718380684
 20
217.1625742445415
 30
0.0
 11
753.195038506984
 21
216.6937571088415
 31
0.0
  0
LINE
  5
9B0
330
1F
100
AcDbEntity
  8
0
  6
Continuous
 62
     9
100
AcDbLine
 10
1324.042038256184
 20
177.2955822046415
 30
0.0
 11
1184.250284339312
 21
177.2955822046415
 31
0.0
  0
LINE
  5
9B1
330
1F
100
AcDbEntity
  8
0
  6
Continuous
 62
     9
100
AcDbLine
 10
1184.750284339312
 20
177.2955822046412
 30
0.0
 11
318.997317857481
 21
177.2955822046415
 31
0.0
  0
LINE
  5
9B2
330
1F
100
AcDbEntity
  8
0
  6
Continuous
 62
     9
100
AcDbLine
 10
319.497317857481
 20
177.2955822046415
 30
0.0
 11
145.0420382561842
 21
177.2955822046415
 31
0.0
  0
LINE
  5
9B3
330
1F
100
AcDbEntity
  8
RUNDUNGEN
  6
Continuous
 62
     7
100
AcDbLine
 10
1326.042038256184
 20
178.2955822046415
 30
0.0
 11
1324.042038256184
 21
178.2955822046415
 31
0.0
  0
LINE
  5
9B4
330
1F
100
AcDbEntity
  8
0
  6
Continuous
 62
     7
100
AcDbLine
 10
1324.042038256184
 20
178.2955822046415
 30
0.0
 11
1184.250284339312
 21
178.2955822046415
 31
0.0
  0
LINE
  5
9B5
330
1F
100
AcDbEntity
  8
0
  6
Continuous
 62
     7
100
AcDbLine
 10
1184.750284339312
 20
178.2955822046415
 30
0.0
 11
318.997317857481
 21
178.2955822046417
 31
0.0
  0
LINE
  5
9B6
330
1F
100
AcDbEntity
  8
0
  6
Continuous
 62
     7
100
AcDbLine
 10
319.497317857481
 20
178.2955822046415
 30
0.0
 11
145.0420382561842
 21
178.2955822046415
 31
0.0
  0
LINE
  5
9B7
330
1F
100
AcDbEntity
  8
RUNDUNGEN
  6
Continuous
 62
     7
100
AcDbLine
 10
145.0420382561842
 20
178.2955822046415
 30
0.0
 11
143.0420382561842
 21
178.2955822046415
 31
0.0
  0
LINE
  5
9B8
330
1F
100
AcDbEntity
  8
0
  6
Continuous
 62
     7
100
AcDbLine
 10
1324.042038256184
 20
181.2955822046415
 30
0.0
 11
1184.250284339312
 21
181.2955822046415
 31
0.0
  0
LINE
  5
9B9
330
1F
100
AcDbEntity
  8
0
  6
Continuous
 62
     7
100
AcDbLine
 10
1184.750284339312
 20
181.2955822046415
 30
0.0
 11
318.997317857481
 21
181.2955822046415
 31
0.0
  0
LINE
  5
9BA
330
1F
100
AcDbEntity
  8
0
  6
Continuous
 62
     7
100
AcDbLine
 10
319.497317857481
 20
181.2955822046415
 30
0.0
 11
145.0420382561842
 21
181.2955822046415
 31
0.0
  0
LINE
  5
9BB
330
1F
100
AcDbEntity
  8
0
  6
Continuous
 62
     7
100
AcDbLine
 10
759.542263905284
 20
147.7955822046415
 30
0.0
 11
759.542263905284
 21
104.5016337469415
 31
0.0
  0
LINE
  5
9BC
330
1F
100
AcDbEntity
  8
RUNDUNGEN
  6
Continuous
 62
     7
100
AcDbLine
 10
759.542263905284
 20
104.5016337469415
 30
0.0
 11
759.542263905284
 21
147.7955822046415
 31
0.0
  0
LINE
  5
9BD
330
1F
100
AcDbEntity
  8
0
  6
Continuous
 62
     9
100
AcDbLine
 10
1324.042038256184
 20
182.2388894170415
 30
0.0
 11
1184.250284339312
 21
182.2388894170415
 31
0.0
  0
LINE
  5
9BE
330
1F
100
AcDbEntity
  8
0
  6
Continuous
 62
     9
100
AcDbLine
 10
1184.750284339312
 20
182.2388894170417
 30
0.0
 11
318.997317857481
 21
182.238889417041
 31
0.0
  0
LINE
  5
9BF
330
1F
100
AcDbEntity
  8
0
  6
Continuous
 62
     9
100
AcDbLine
 10
319.497317857481
 20
182.2388894170415
 30
0.0
 11
145.0420382561842
 21
182.2388894170415
 31
0.0
  0
LINE
  5
9C0
330
1F
100
AcDbEntity
  8
RUNDUNGEN
  6
Continuous
 62
     9
100
AcDbLine
 10
807.5420382561842
 20
183.4656605673415
 30
0.0
 11
661.5420382561842
 21
183.4656605673415
 31
0.0
  0
LINE
  5
9C1
330
1F
100
AcDbEntity
  8
RUNDUNGEN
  6
Continuous
 62
     7
100
AcDbLine
 10
807.5419056656842
 20
186.2955822046415
 30
0.0
 11
661.5421846031843
 21
186.2955822046415
 31
0.0
  0
LINE
  5
9C2
330
1F
100
AcDbEntity
  8
0
  6
Continuous
 62
     9
100
AcDbLine
 10
807.5420382561842
 20
196.1955822046416
 30
0.0
 11
661.5420382561842
 21
196.1955822046416
 31
0.0
  0
LINE
  5
9C3
330
1F
100
AcDbEntity
  8
RUNDUNGEN
  6
Continuous
 62
     7
100
AcDbLine
 10
759.542263905284
 20
104.5016337469415
 30
0.0
 11
759.4804620771842
 21
103.8958355106415
 31
0.0
  0
LINE
  5
9C4
330
1F
100
AcDbEntity
  8
RUNDUNGEN
  6
Continuous
 62
     7
100
AcDbLine
 10
758.5113629912841
 20
99.19558220464161
 30
0.0
 11
759.4804620771842
 21
103.8958355106415
 31
0.0
  0
LINE
  5
9C5
330
1F
100
AcDbEntity
  8
0
  6
Continuous
 62
     7
100
AcDbLine
 10
759.4804620771842
 20
103.8958355106415
 30
0.0
 11
758.5113629912841
 21
99.19558220464161
 31
0.0
  0
LINE
  5
9C6
330
1F
100
AcDbEntity
  8
RUNDUNGEN
  6
Continuous
 62
     7
100
AcDbLine
 10
1324.042038256184
 20
213.2955822046415
 30
0.0
 11
1184.250284339312
 21
213.2955821086239
 31
0.0
  0
LINE
  5
9C7
330
1F
100
AcDbEntity
  8
RUNDUNGEN
  6
Continuous
 62
     7
100
AcDbLine
 10
1184.750284339312
 20
213.2955823150262
 30
0.0
 11
837.5415561477838
 21
213.2955820765415
 31
0.0
  0
LINE
  5
9C8
330
1F
100
AcDbEntity
  8
BG_STARTBEZUEGE
  6
CENTER
 62
     7
100
AcDbLine
 10
1359.542038256184
 20
213.2955822046415
 30
0.0
 11
1184.250284339312
 21
213.2955822046415
 31
0.0
  0
LINE
  5
9C9
330
1F
100
AcDbEntity
  8
BG_STARTBEZUEGE
  6
CENTER
 62
     7
100
AcDbLine
 10
834.5420382319844
 20
213.2955822046415
 30
0.0
 11
109.542038256184
 21
213.2955822046415
 31
0.0
  0
LINE
  5
9CA
330
1F
100
AcDbEntity
  8
RUNDUNGEN
  6
Continuous
 62
     7
100
AcDbLine
 10
631.5425203772843
 20
213.2955823343414
 30
0.0
 11
619.747317857481
 21
213.2955823261386
 31
0.0
  0
LINE
  5
9CB
330
1F
100
AcDbEntity
  8
RUNDUNGEN
  6
Continuous
 62
     7
100
AcDbLine
 10
631.54252036529
 20
213.2955822046413
 30
0.0
 11
145.0420382561842
 21
213.2955822046415
 31
0.0
  0
LINE
  5
9CC
330
1F
100
AcDbEntity
  8
0
  6
Continuous
 62
     9
100
AcDbLine
 10
661.5420382561842
 20
230.3955822046414
 30
0.0
 11
807.5420382561842
 21
230.3955822046414
 31
0.0
  0
LINE
  5
9CD
330
1F
100
AcDbEntity
  8
RUNDUNGEN
  6
Continuous
 62
     7
100
AcDbLine
 10
661.5421708465841
 20
240.2955822046415
 30
0.0
 11
807.5418919091843
 21
240.2955822046415
 31
0.0
  0
LINE
  5
9CE
330
1F
100
AcDbEntity
  8
RUNDUNGEN
  6
Continuous
 62
     9
100
AcDbLine
 10
661.5420382561842
 20
243.1255038419415
 30
0.0
 11
807.5420382561842
 21
243.1255038419415
 31
0.0
  0
LINE
  5
9CF
330
1F
100
AcDbEntity
  8
0
  6
Continuous
 62
     9
100
AcDbLine
 10
1324.042038256184
 20
244.3522749922415
 30
0.0
 11
1184.250284339312
 21
244.3522749922415
 31
0.0
  0
LINE
  5
9D0
330
1F
100
AcDbEntity
  8
0
  6
Continuous
 62
     9
100
AcDbLine
 10
1184.750284339312
 20
244.3522749922415
 30
0.0
 11
318.997317857481
 21
244.3522749922415
 31
0.0
  0
LINE
  5
9D1
330
1F
100
AcDbEntity
  8
0
  6
Continuous
 62
     9
100
AcDbLine
 10
319.497317857481
 20
244.3522749922415
 30
0.0
 11
145.0420382561842
 21
244.3522749922415
 31
0.0
  0
LINE
  5
9D2
330
1F
100
AcDbEntity
  8
0
  6
Continuous
 62
     7
100
AcDbLine
 10
1324.042038256184
 20
245.2955822046415
 30
0.0
 11
1184.250284339312
 21
245.2955822046415
 31
0.0
  0
LINE
  5
9D3
330
1F
100
AcDbEntity
  8
0
  6
Continuous
 62
     7
100
AcDbLine
 10
1184.750284339312
 20
245.2955822046415
 30
0.0
 11
318.997317857481
 21
245.2955822046415
 31
0.0
  0
LINE
  5
9D4
330
1F
100
AcDbEntity
  8
0
  6
Continuous
 62
     7
100
AcDbLine
 10
319.497317857481
 20
245.2955822046415
 30
0.0
 11
145.0420382561842
 21
245.2955822046415
 31
0.0
  0
LINE
  5
9D5
330
1F
100
AcDbEntity
  8
0
  6
Continuous
 62
     9
100
AcDbLine
 10
1324.042038256184
 20
247.2955822046415
 30
0.0
 11
1184.250284339312
 21
247.2955822046415
 31
0.0
  0
LINE
  5
9D6
330
1F
100
AcDbEntity
  8
0
  6
Continuous
 62
     9
100
AcDbLine
 10
1184.750284339312
 20
247.2955822046415
 30
0.0
 11
318.997317857481
 21
247.2955822046417
 31
0.0
  0
LINE
  5
9D7
330
1F
100
AcDbEntity
  8
0
  6
Continuous
 62
     9
100
AcDbLine
 10
319.497317857481
 20
247.2955822046415
 30
0.0
 11
145.0420382561842
 21
247.2955822046415
 31
0.0
  0
LINE
  5
9D8
330
1F
100
AcDbEntity
  8
RUNDUNGEN
  6
Continuous
 62
     9
100
AcDbLine
 10
807.5420382561842
 20
243.1255038419415
 30
0.0
 11
807.5420382561842
 21
240.2955822046415
 31
0.0
  0
LINE
  5
9D9
330
1F
100
AcDbEntity
  8
0
  6
Continuous
 62
     9
100
AcDbLine
 10
807.5420382561842
 20
196.1955822046416
 30
0.0
 11
807.5420382561842
 21
186.2955822046415
 31
0.0
  0
LINE
  5
9DA
330
1F
100
AcDbEntity
  8
RUNDUNGEN
  6
Continuous
 62
     9
100
AcDbLine
 10
807.5420382561842
 20
183.4656605673415
 30
0.0
 11
807.5420382561842
 21
186.2955822046415
 31
0.0
  0
LINE
  5
9DB
330
1F
100
AcDbEntity
  8
0
  6
Continuous
 62
     9
100
AcDbLine
 10
807.5420382561842
 20
230.3955822046414
 30
0.0
 11
807.5420382561842
 21
240.2955822046415
 31
0.0
  0
LINE
  5
9DC
330
1F
100
AcDbEntity
  8
0
  6
Continuous
 62
     9
100
AcDbLine
 10
145.0420382561842
 20
257.2955822046415
 30
0.0
 11
319.497317857481
 21
257.2955822046415
 31
0.0
  0
LINE
  5
9DD
330
1F
100
AcDbEntity
  8
0
  6
Continuous
 62
     9
100
AcDbLine
 10
318.997317857481
 20
257.2955822046415
 30
0.0
 11
1184.750284339312
 21
257.2955822046413
 31
0.0
  0
LINE
  5
9DE
330
1F
100
AcDbEntity
  8
0
  6
Continuous
 62
     9
100
AcDbLine
 10
1184.250284339312
 20
257.2955822046415
 30
0.0
 11
1324.042038256184
 21
257.2955822046415
 31
0.0
  0
LINE
  5
9DF
330
1F
100
AcDbEntity
  8
0
  6
Continuous
 62
     7
100
AcDbLine
 10
1356.542038256184
 20
258.2955822046415
 30
0.0
 11
1184.250284339312
 21
258.2955822046415
 31
0.0
  0
LINE
  5
9E0
330
1F
100
AcDbEntity
  8
0
  6
Continuous
 62
     7
100
AcDbLine
 10
1184.750284339312
 20
258.2955822046415
 30
0.0
 11
318.997317857481
 21
258.2955822046417
 31
0.0
  0
LINE
  5
9E1
330
1F
100
AcDbEntity
  8
0
  6
Continuous
 62
     7
100
AcDbLine
 10
319.497317857481
 20
258.2955822046415
 30
0.0
 11
112.5420382561842
 21
258.2955822046415
 31
0.0
  0
LINE
  5
9E2
330
1F
100
AcDbEntity
  8
0
  6
Continuous
 62
     3
100
AcDbLine
 10
1356.542038256184
 20
259.2955822046415
 30
0.0
 11
1184.250284339312
 21
259.2955822046415
 31
0.0
  0
LINE
  5
9E3
330
1F
100
AcDbEntity
  8
0
  6
Continuous
 62
     3
100
AcDbLine
 10
1184.750284339312
 20
259.2955822046415
 30
0.0
 11
318.997317857481
 21
259.2955822046415
 31
0.0
  0
LINE
  5
9E4
330
1F
100
AcDbEntity
  8
0
  6
Continuous
 62
     3
100
AcDbLine
 10
319.497317857481
 20
259.2955822046415
 30
0.0
 11
112.5420382561842
 21
259.2955822046415
 31
0.0
  0
LINE
  5
9E5
330
1F
100
AcDbEntity
  8
0
  6
Continuous
 62
     7
100
AcDbLine
 10
1324.042038256184
 20
258.2885864978414
 30
0.0
 11
1324.042038256184
 21
245.5635313970415
 31
0.0
  0
LINE
  5
9E6
330
1F
100
AcDbEntity
  8
RUNDUNGEN
  6
Continuous
 62
     7
100
AcDbLine
 10
1324.042038256184
 20
245.5635313970415
 30
0.0
 11
1324.042038256184
 21
181.2078586172415
 31
0.0
  0
LINE
  5
9E7
330
1F
100
AcDbEntity
  8
0
  6
Continuous
 62
     7
100
AcDbLine
 10
1324.042038256184
 20
181.2078586172415
 30
0.0
 11
1324.042038256184
 21
178.3833057920415
 31
0.0
  0
LINE
  5
9E8
330
1F
100
AcDbEntity
  8
RUNDUNGEN
  6
Continuous
 62
     7
100
AcDbLine
 10
1324.042038256184
 20
178.3833057920415
 30
0.0
 11
1324.042038256184
 21
178.2955822046415
 31
0.0
  0
LINE
  5
9E9
330
1F
100
AcDbEntity
  8
0
  6
Continuous
 62
     7
100
AcDbLine
 10
1324.042038256184
 20
178.2955822046415
 30
0.0
 11
1324.042038256184
 21
147.2955822046415
 31
0.0
  0
LINE
  5
9EA
330
1F
100
AcDbEntity
  8
RUNDUNGEN
  6
Continuous
 62
     7
100
AcDbLine
 10
1326.042038256184
 20
178.2955822046415
 30
0.0
 11
1326.042038256184
 21
258.2955822046415
 31
0.0
  0
LINE
  5
9EB
330
1F
100
AcDbEntity
  8
0
  6
Continuous
 62
     9
100
AcDbLine
 10
1346.542038256184
 20
258.2955822046415
 30
0.0
 11
1346.542038256184
 21
259.2955822046415
 31
0.0
  0
LINE
  5
9EC
330
1F
100
AcDbEntity
  8
0
  6
Continuous
 62
     7
100
AcDbLine
 10
1356.542038256184
 20
259.2955822046415
 30
0.0
 11
1356.542038256184
 21
258.2955822046415
 31
0.0
  0
LINE
  5
9ED
330
1F
100
AcDbEntity
  8
RUNDUNGEN
  6
Continuous
 62
     7
100
AcDbLine
 10
1356.542038256184
 20
157.2955822046415
 30
0.0
 11
1356.542038256184
 21
258.2955822046415
 31
0.0
  0
ARC
  5
9EE
330
1F
100
AcDbEntity
  8
RUNDUNGEN
  6
Continuous
 62
     7
100
AcDbCircle
 10
644.4420382561843
 20
366.4316994597416
 30
0.0
 40
12.0
100
AcDbArc
 50
180.0
 51
270.0000017476982
  0
CIRCLE
  5
9EF
330
1F
100
AcDbEntity
  8
FASEN
  6
Continuous
 62
     7
100
AcDbCircle
 10
676.5420382561842
 20
379.4316994597416
 30
0.0
 40
4.0
  0
ARC
  5
9F0
330
1F
100
AcDbEntity
  8
FASEN
  6
Continuous
 62
     7
100
AcDbCircle
 10
676.5420382561842
 20
379.4316994597416
 30
0.0
 40
3.375
100
AcDbArc
 50
90.0
 51
89.78036400280162
  0
ARC
  5
9F1
330
1F
100
AcDbEntity
  8
0
  6
Continuous
 62
     2
100
AcDbCircle
 10
676.5420382561842
 20
379.4316994597416
 30
0.0
 40
3.234999999999998
100
AcDbArc
 50
255.0000000000056
 51
194.9999999999944
  0
ARC
  5
9F2
330
1F
100
AcDbEntity
  8
0
  6
Continuous
 62
     7
100
AcDbCircle
 10
260.1531116511842
 20
403.1229313866415
 30
0.0
 40
2.010742808399998
100
AcDbArc
 50
270.0271670921988
 51
284.2357187133995
  0
ARC
  5
9F3
330
1F
100
AcDbEntity
  8
0
  6
Continuous
 62
     7
100
AcDbCircle
 10
266.232947347084
 20
402.6637776396414
 30
0.0
 40
2.0030019327
100
AcDbArc
 50
255.7362389759972
 51
284.2637610240028
  0
ARC
  5
9F4
330
1F
100
AcDbEntity
  8
0
  6
Continuous
 62
     7
100
AcDbCircle
 10
274.0874928015842
 20
402.6637776396414
 30
0.0
 40
2.0030019327
100
AcDbArc
 50
255.7362389759972
 51
284.2637610240028
  0
ARC
  5
9F5
330
1F
100
AcDbEntity
  8
0
  6
Continuous
 62
     3
100
AcDbCircle
 10
262.3056746197844
 20
400.5589916395415
 30
0.0
 40
2.0030019327
100
AcDbArc
 50
75.73623897599716
 51
104.2637610240028
  0
ARC
  5
9F6
330
1F
100
AcDbEntity
  8
0
  6
Continuous
 62
     3
100
AcDbCircle
 10
270.1602200742841
 20
400.5589916395415
 30
0.0
 40
2.0030019327
100
AcDbArc
 50
75.73623897599716
 51
104.2637610240028
  0
ARC
  5
9F7
330
1F
100
AcDbEntity
  8
0
  6
Continuous
 62
     3
100
AcDbCircle
 10
278.0147655288843
 20
400.5589916395415
 30
0.0
 40
2.0030019327
100
AcDbArc
 50
75.73623897599716
 51
104.2637610240028
  0
ARC
  5
9F8
330
1F
100
AcDbEntity
  8
RUNDUNGEN
  6
Continuous
 62
     7
100
AcDbCircle
 10
631.5404809335841
 20
401.6116801744415
 30
0.0
 40
2.001435087499999
100
AcDbArc
 50
359.9454636770987
 51
89.94928094960057
  0
ARC
  5
9F9
330
1F
100
AcDbEntity
  8
BEZUGSACHSEN
  6
Continuous
 62
     9
100
AcDbCircle
 10
184.0413977924841
 20
401.5193760751414
 30
0.0
 40
2.000591840999998
100
AcDbArc
 50
89.98165774360542
 51
149.9355899165025
  0
ARC
  5
9FA
330
1F
100
AcDbEntity
  8
BEZUGSACHSEN
  6
Continuous
 62
     9
100
AcDbCircle
 10
187.042678729284
 20
401.5193760696416
 30
0.0
 40
2.000591840999998
100
AcDbArc
 50
30.06441035461065
 51
90.01834252760216
  0
ARC
  5
9FB
330
1F
100
AcDbEntity
  8
BEZUGSACHSEN
  6
Continuous
 62
     9
100
AcDbCircle
 10
164.0413977924841
 20
401.5193760751414
 30
0.0
 40
2.000591840999998
100
AcDbArc
 50
89.98165774360542
 51
149.9355899165025
  0
ARC
  5
9FC
330
1F
100
AcDbEntity
  8
BEZUGSACHSEN
  6
Continuous
 62
     9
100
AcDbCircle
 10
167.0426787292842
 20
401.5193760696416
 30
0.0
 40
2.000591840999998
100
AcDbArc
 50
30.06441035461065
 51
90.01834252760216
  0
ARC
  5
9FD
330
1F
100
AcDbEntity
  8
BEZUGSACHSEN
  6
Continuous
 62
     9
100
AcDbCircle
 10
187.0440567381843
 20
401.8043281839413
 30
0.0
 40
1.998622092999998
100
AcDbArc
 50
30.04727812159812
 51
65.04985780768929
  0
ARC
  5
9FE
330
1F
100
AcDbEntity
  8
BEZUGSACHSEN
  6
Continuous
 62
     9
100
AcDbCircle
 10
167.0440567381842
 20
401.8043281839413
 30
0.0
 40
1.998622092999998
100
AcDbArc
 50
30.04727812159812
 51
65.04985778390062
  0
ARC
  5
9FF
330
1F
100
AcDbEntity
  8
BEZUGSACHSEN
  6
Continuous
 62
     9
100
AcDbCircle
 10
164.0400197711842
 20
401.8043281874415
 30
0.0
 40
1.9986220887
100
AcDbArc
 50
114.9501438395897
 51
149.9527219241092
  0
ARC
  5
A00
330
1F
100
AcDbEntity
  8
BEZUGSACHSEN
  6
Continuous
 62
     9
100
AcDbCircle
 10
184.0400197711842
 20
401.8043281874415
 30
0.0
 40
1.9986220887
100
AcDbArc
 50
114.9501438158997
 51
149.9527219241092
  0
ARC
  5
A01
330
1F
100
AcDbEntity
  8
0
  6
Continuous
 62
     3
100
AcDbCircle
 10
262.3037768825843
 20
401.6719080347415
 30
0.0
 40
1.995355664999999
100
AcDbArc
 50
103.2521426962961
 51
104.2633520598059
  0
ARC
  5
A02
330
1F
100
AcDbEntity
  8
0
  6
Continuous
 62
     3
100
AcDbCircle
 10
262.3075723569844
 20
401.6719080347415
 30
0.0
 40
1.995355664999999
100
AcDbArc
 50
75.73664794019409
 51
76.74785730609908
  0
ARC
  5
A03
330
1F
100
AcDbEntity
  8
0
  6
Continuous
 62
     3
100
AcDbCircle
 10
270.1583223372843
 20
401.6719080342413
 30
0.0
 40
1.9953556655
100
AcDbArc
 50
103.2521426763946
 51
104.263352059692
  0
ARC
  5
A04
330
1F
100
AcDbEntity
  8
0
  6
Continuous
 62
     3
100
AcDbCircle
 10
270.1621178115843
 20
401.6719080350415
 30
0.0
 40
1.995355664699999
100
AcDbArc
 50
75.73664794010247
 51
76.74785732619966
  0
ARC
  5
A05
330
1F
100
AcDbEntity
  8
0
  6
Continuous
 62
     3
100
AcDbCircle
 10
278.0128677917842
 20
401.6719080344414
 30
0.0
 40
1.995355665299999
100
AcDbArc
 50
103.2521426563071
 51
104.2633520598059
  0
ARC
  5
A06
330
1F
100
AcDbEntity
  8
0
  6
Continuous
 62
     3
100
AcDbCircle
 10
278.0166632659841
 20
401.6719080345414
 30
0.0
 40
1.9953556652
100
AcDbArc
 50
75.73664794030509
 51
76.74785734610374
  0
ARC
  5
A07
330
1F
100
AcDbEntity
  8
0
  6
Continuous
 62
     3
100
AcDbCircle
 10
260.1535883531842
 20
404.2214611235412
 30
0.0
 40
1.005371404199999
100
AcDbArc
 50
270.027167092303
 51
284.2357187133995
  0
ARC
  5
A08
330
1F
100
AcDbEntity
  8
0
  6
Continuous
 62
     3
100
AcDbCircle
 10
260.1535883531842
 20
403.1159517660414
 30
0.0
 40
1.005371404199999
100
AcDbArc
 50
270.0271670921988
 51
284.2357187133995
  0
ARC
  5
A09
330
1F
100
AcDbEntity
  8
RUNDUNGEN
  6
Continuous
 62
     7
100
AcDbCircle
 10
143.5420382561842
 20
420.6316994597414
 30
0.0
 40
1.0
100
AcDbArc
 50
0.0
 51
180.0
  0
ARC
  5
A0A
330
1F
100
AcDbEntity
  8
0
  6
Continuous
 62
     7
100
AcDbCircle
 10
144.3920382561841
 20
422.4816994597413
 30
0.0
 40
0.15
100
AcDbArc
 50
90.0
 51
180.0
  0
ARC
  5
A0B
330
1F
100
AcDbEntity
  8
0
  6
Continuous
 62
     7
100
AcDbCircle
 10
122.0420382561842
 20
441.6316994597414
 30
0.0
 40
10.0
100
AcDbArc
 50
90.0
 51
180.0
  0
CIRCLE
  5
A0C
330
1F
100
AcDbEntity
  8
RUNDUNGEN
  6
Continuous
 62
     7
100
AcDbCircle
 10
734.5420382561842
 20
377.4316994597416
 30
0.0
 40
25.0002256492
  0
CIRCLE
  5
A0D
330
1F
100
AcDbEntity
  8
RUNDUNGEN
  6
Continuous
 62
     9
100
AcDbCircle
 10
734.5420382561842
 20
377.4316994597416
 30
0.0
 40
24.938423821
  0
CIRCLE
  5
A0E
330
1F
100
AcDbEntity
  8
0
  6
Continuous
 62
     7
100
AcDbCircle
 10
734.5420382561842
 20
377.4316994597416
 30
0.0
 40
23.9693247351
  0
CIRCLE
  5
A0F
330
1F
100
AcDbEntity
  8
0
  6
Continuous
 62
     7
100
AcDbCircle
 10
734.5420382561842
 20
377.4316994597416
 30
0.0
 40
22.5002256492
  0
CIRCLE
  5
A10
330
1F
100
AcDbEntity
  8
RUNDUNGEN
  6
Continuous
 62
     9
100
AcDbCircle
 10
734.5420382561842
 20
377.4316994597416
 30
0.0
 40
18.7307877184
  0
CIRCLE
  5
A11
330
1F
100
AcDbEntity
  8
RUNDUNGEN
  6
Continuous
 62
     7
100
AcDbCircle
 10
734.5420382561842
 20
377.4316994597416
 30
0.0
 40
18.5
  0
ARC
  5
A12
330
1F
100
AcDbEntity
  8
RUNDUNGEN
  6
Continuous
 62
     7
100
AcDbCircle
 10
824.6420382561842
 20
366.4316994597416
 30
0.0
 40
12.0
100
AcDbArc
 50
269.9999982523018
 51
0.0
  0
ARC
  5
A13
330
1F
100
AcDbEntity
  8
0
  6
Continuous
 62
     7
100
AcDbCircle
 10
1208.930964861184
 20
403.1229313866415
 30
0.0
 40
2.010742808399998
100
AcDbArc
 50
255.7642812866005
 51
269.9728329078012
  0
ARC
  5
A14
330
1F
100
AcDbEntity
  8
0
  6
Continuous
 62
     7
100
AcDbCircle
 10
1208.930964861184
 20
404.2284407441416
 30
0.0
 40
2.010742808399998
100
AcDbArc
 50
255.7642812866005
 51
269.9728329078012
  0
ARC
  5
A15
330
1F
100
AcDbEntity
  8
0
  6
Continuous
 62
     7
100
AcDbCircle
 10
1202.851129165284
 20
402.6637776396414
 30
0.0
 40
2.0030019327
100
AcDbArc
 50
255.7362389759972
 51
284.2637610240028
  0
ARC
  5
A16
330
1F
100
AcDbEntity
  8
0
  6
Continuous
 62
     7
100
AcDbCircle
 10
1194.996583710684
 20
402.6637776396414
 30
0.0
 40
2.0030019327
100
AcDbArc
 50
255.7362389759972
 51
284.2637610240028
  0
ARC
  5
A17
330
1F
100
AcDbEntity
  8
0
  6
Continuous
 62
     7
100
AcDbCircle
 10
1202.851129165284
 20
403.7692869970414
 30
0.0
 40
2.0030019327
100
AcDbArc
 50
255.7362389759972
 51
284.2637610240028
  0
ARC
  5
A18
330
1F
100
AcDbEntity
  8
0
  6
Continuous
 62
     7
100
AcDbCircle
 10
1194.996583710684
 20
403.7692869970414
 30
0.0
 40
2.0030019327
100
AcDbArc
 50
255.7362389759972
 51
284.2637610240028
  0
ARC
  5
A19
330
1F
100
AcDbEntity
  8
0
  6
Continuous
 62
     3
100
AcDbCircle
 10
1206.778401892484
 20
401.6645009970416
 30
0.0
 40
2.0030019327
100
AcDbArc
 50
75.73623897599716
 51
104.2637610240028
  0
ARC
  5
A1A
330
1F
100
AcDbEntity
  8
0
  6
Continuous
 62
     3
100
AcDbCircle
 10
1198.923856437984
 20
401.6645009970416
 30
0.0
 40
2.0030019327
100
AcDbArc
 50
75.73623897599716
 51
104.2637610240028
  0
ARC
  5
A1B
330
1F
100
AcDbEntity
  8
0
  6
Continuous
 62
     3
100
AcDbCircle
 10
1191.069310983384
 20
401.6645009970416
 30
0.0
 40
2.0030019327
100
AcDbArc
 50
75.73623897599716
 51
104.2637610240028
  0
ARC
  5
A1C
330
1F
100
AcDbEntity
  8
RUNDUNGEN
  6
Continuous
 62
     7
100
AcDbCircle
 10
837.543595582384
 20
401.6116801707414
 30
0.0
 40
2.001435087499999
100
AcDbArc
 50
90.0507191557924
 51
180.0545362174041
  0
ARC
  5
A1D
330
1F
100
AcDbEntity
  8
0
  6
Continuous
 62
     3
100
AcDbCircle
 10
1208.930488159084
 20
404.2214611235412
 30
0.0
 40
1.005371404199999
100
AcDbArc
 50
255.7642812866005
 51
269.9728329078012
  0
ARC
  5
A1E
330
1F
100
AcDbEntity
  8
BEZUGSACHSEN
  6
Continuous
 62
     9
100
AcDbCircle
 10
1302.046215474084
 20
401.5220465798416
 30
0.0
 40
1.0041778936
100
AcDbArc
 50
161.9292553365901
 51
179.9335318641916
  0
ARC
  5
A1F
330
1F
100
AcDbEntity
  8
BEZUGSACHSEN
  6
Continuous
 62
     9
100
AcDbCircle
 10
1282.046215474084
 20
401.5220465798416
 30
0.0
 40
1.0041778936
100
AcDbArc
 50
161.9292553365901
 51
179.9335318641916
  0
ARC
  5
A20
330
1F
100
AcDbEntity
  8
BEZUGSACHSEN
  6
Continuous
 62
     9
100
AcDbCircle
 10
1305.037861067484
 20
401.5220465849415
 30
0.0
 40
1.004177864399999
100
AcDbArc
 50
0.0664678458017861
 51
18.07074658229629
  0
ARC
  5
A21
330
1F
100
AcDbEntity
  8
BEZUGSACHSEN
  6
Continuous
 62
     9
100
AcDbCircle
 10
1285.037861067484
 20
401.5220465849415
 30
0.0
 40
1.004177864399999
100
AcDbArc
 50
0.0664678458017861
 51
18.07074658229629
  0
ARC
  5
A22
330
1F
100
AcDbEntity
  8
RUNDUNGEN
  6
Continuous
 62
     7
100
AcDbCircle
 10
1325.542038256184
 20
420.6316994597414
 30
0.0
 40
1.0
100
AcDbArc
 50
0.0
 51
180.0
  0
ARC
  5
A23
330
1F
100
AcDbEntity
  8
0
  6
Continuous
 62
     7
100
AcDbCircle
 10
1324.692038256184
 20
422.4816994597413
 30
0.0
 40
0.15
100
AcDbArc
 50
0.0
 51
90.0
  0
ARC
  5
A24
330
1F
100
AcDbEntity
  8
0
  6
Continuous
 62
     7
100
AcDbCircle
 10
1347.042038256184
 20
441.6316994597414
 30
0.0
 40
10.0
100
AcDbArc
 50
0.0
 51
90.0
  0
ARC
  5
A25
330
1F
100
AcDbEntity
  8
RUNDUNGEN
  6
Continuous
 62
     9
100
AcDbCircle
 10
661.5420386388841
 20
213.4656609578414
 30
0.0
 40
30.00000039050001
100
AcDbArc
 50
180.3248279826025
 51
269.999999268998
  0
ARC
  5
A26
330
1F
100
AcDbEntity
  8
RUNDUNGEN
  6
Continuous
 62
     9
100
AcDbCircle
 10
807.5420378733843
 20
213.1255034514416
 30
0.0
 40
30.00000039050001
100
AcDbArc
 50
0.3248279826025074
 51
89.999999268998
  0
ARC
  5
A27
330
1F
100
AcDbEntity
  8
RUNDUNGEN
  6
Continuous
 62
     9
100
AcDbCircle
 10
807.542038217984
 20
213.4656605999414
 30
0.0
 40
30.0000000326
100
AcDbArc
 50
270.000000072798
 51
359.6751722045933
  0
ARC
  5
A28
330
1F
100
AcDbEntity
  8
RUNDUNGEN
  6
Continuous
 62
     9
100
AcDbCircle
 10
661.5420382942841
 20
213.1255038093414
 30
0.0
 40
30.0000000326
100
AcDbArc
 50
90.00000007279798
 51
179.6751722045934
  0
ARC
  5
A29
330
1F
100
AcDbEntity
  8
RUNDUNGEN
  6
Continuous
 62
     7
100
AcDbCircle
 10
661.5420382561842
 20
213.2955822046415
 30
0.0
 40
27.0
100
AcDbArc
 50
89.99971863439776
 51
270.0003105580013
  0
ARC
  5
A2A
330
1F
100
AcDbEntity
  8
RUNDUNGEN
  6
Continuous
 62
     7
100
AcDbCircle
 10
807.5420382561842
 20
213.2955822046415
 30
0.0
 40
27.0
100
AcDbArc
 50
269.9997186343978
 51
90.00031055800125
  0
ARC
  5
A2B
330
1F
100
AcDbEntity
  8
0
  6
Continuous
 62
     9
100
AcDbCircle
 10
661.5420382561842
 20
213.2955822046415
 30
0.0
 40
17.1
100
AcDbArc
 50
90.0
 51
270.0
  0
ARC
  5
A2C
330
1F
100
AcDbEntity
  8
0
  6
Continuous
 62
     9
100
AcDbCircle
 10
807.5420382561842
 20
213.2955822046415
 30
0.0
 40
17.1
100
AcDbArc
 50
270.0
 51
90.0
  0
ARC
  5
A2D
330
1F
100
AcDbEntity
  8
RUNDUNGEN
  6
Continuous
 62
     7
100
AcDbCircle
 10
122.5420382561842
 20
157.2955822046415
 30
0.0
 40
10.0
100
AcDbArc
 50
180.0
 51
270.0
  0
ARC
  5
A2E
330
1F
100
AcDbEntity
  8
RUNDUNGEN
  6
Continuous
 62
     7
100
AcDbCircle
 10
1346.542038256184
 20
157.2955822046415
 30
0.0
 40
10.0
100
AcDbArc
 50
270.0
 51
0.0
  0
ARC
  5
A2F
330
1F
100
AcDbEntity
  8
0
  6
Continuous
 62
     9
100
AcDbCircle
 10
712.5420382561842
 20
213.2955822046415
 30
0.0
 40
4.769696007099999
100
AcDbArc
 50
134.5653093812028
 51
125.6374560332
  0
ARC
  5
A30
330
1F
100
AcDbEntity
  8
0
  6
Continuous
 62
     9
100
AcDbCircle
 10
756.5420382561842
 20
213.2955822046415
 30
0.0
 40
4.769696007099999
100
AcDbArc
 50
134.5653093812028
 51
125.6374560332
  0
ARC
  5
A31
330
1F
100
AcDbEntity
  8
0
  6
Continuous
 62
     9
100
AcDbCircle
 10
712.5420382561842
 20
213.2955822046415
 30
0.0
 40
4.292726406399999
100
AcDbArc
 50
134.5653093812028
 51
126.4728417343046
  0
ARC
  5
A32
330
1F
100
AcDbEntity
  8
0
  6
Continuous
 62
     9
100
AcDbCircle
 10
756.5420382561842
 20
213.2955822046415
 30
0.0
 40
4.292726406399999
100
AcDbArc
 50
134.5653093812028
 51
126.4728417343046
  0
ARC
  5
A33
330
1F
100
AcDbEntity
  8
RUNDUNGEN
  6
Continuous
 62
     7
100
AcDbCircle
 10
712.5418126069844
 20
104.5016337469415
 30
0.0
 40
3.0
100
AcDbArc
 50
180.0
 51
191.6500035256025
  0
ARC
  5
A34
330
1F
100
AcDbEntity
  8
RUNDUNGEN
  6
Continuous
 62
     7
100
AcDbCircle
 10
756.542263905284
 20
104.5016337469415
 30
0.0
 40
3.0
100
AcDbArc
 50
348.3499964743974
 51
0.0
  0
SPLINE
  5
A35
330
1F
100
AcDbEntity
  8
0
  6
Continuous
 62
     7
100
AcDbSpline
210
0.0
220
0.0
230
1.0
 70
     8
 71
     3
 72
     8
 73
     4
 74
     0
 42
0.000000001
 43
0.0000000001
 40
0.0
 40
0.0
 40
0.0
 40
0.0
 40
1.0
 40
1.0
 40
1.0
 40
1.0
 10
262.058918731484
 20
401.5327254772414
 30
0.0
 10
262.2183514136841
 20
401.5732564699415
 30
0.0
 10
262.3929978258843
 20
401.5732564699415
 30
0.0
 10
262.5524305080842
 20
401.5327254772414
 30
0.0
  0
SPLINE
  5
A36
330
1F
100
AcDbEntity
  8
0
  6
Continuous
 62
     7
100
AcDbSpline
210
0.0
220
0.0
230
1.0
 70
     8
 71
     3
 72
     8
 73
     4
 74
     0
 42
0.000000001
 43
0.0000000001
 40
0.0
 40
0.0
 40
0.0
 40
0.0
 40
1.0
 40
1.0
 40
1.0
 40
1.0
 10
269.9134641859842
 20
401.5327254772414
 30
0.0
 10
270.0728968681842
 20
401.5732564699415
 30
0.0
 10
270.247543280484
 20
401.5732564699415
 30
0.0
 10
270.4069759626841
 20
401.5327254772414
 30
0.0
  0
SPLINE
  5
A37
330
1F
100
AcDbEntity
  8
0
  6
Continuous
 62
     7
100
AcDbSpline
210
0.0
220
0.0
230
1.0
 70
     8
 71
     3
 72
     8
 73
     4
 74
     0
 42
0.000000001
 43
0.0000000001
 40
0.0
 40
0.0
 40
0.0
 40
0.0
 40
1.0
 40
1.0
 40
1.0
 40
1.0
 10
277.7680096405843
 20
401.5327254772414
 30
0.0
 10
277.9274423227844
 20
401.5732564699415
 30
0.0
 10
278.1020887349844
 20
401.5732564699415
 30
0.0
 10
278.2615214171842
 20
401.5327254772414
 30
0.0
  0
SPLINE
  5
A38
330
1F
100
AcDbEntity
  8
0
  6
Continuous
 62
     7
100
AcDbSpline
210
0.0
220
0.0
230
1.0
 70
     8
 71
     3
 72
    23
 73
    19
 74
     0
 42
0.000000001
 43
0.0000000001
 40
0.0
 40
0.0
 40
0.0
 40
0.0
 40
0.0036582121
 40
0.0113290881
 40
0.0400990389
 40
0.0863145472
 40
0.1482898633
 40
0.2237168888
 40
0.3097176538
 40
0.5
 40
0.6902823462000001
 40
0.7762831112000002
 40
0.8517101367
 40
0.9136854528
 40
0.9599009610999999
 40
0.9886709119
 40
0.9963417879000001
 40
1.0
 40
1.0
 40
1.0
 40
1.0
 10
1267.292038256184
 20
401.7712424597414
 30
0.0
 10
1267.292038256184
 20
401.7727752554415
 30
0.0
 10
1267.296798844284
 20
401.7760964434414
 30
0.0
 10
1267.311986756684
 20
401.7805619990412
 30
0.0
 10
1267.347186269284
 20
401.7863687116414
 30
0.0
 10
1267.403776351784
 20
401.7917763755413
 30
0.0
 10
1267.480776589784
 20
401.7969348750414
 30
0.0
 10
1267.574212239384
 20
401.8011256538414
 30
0.0
 10
1267.721552117884
 20
401.8054877340414
 30
0.0
 10
1267.917038256184
 20
401.8074909049414
 30
0.0
 10
1268.112524394384
 20
401.8054877340414
 30
0.0
 10
1268.259864272884
 20
401.8011256538414
 30
0.0
 10
1268.353299922584
 20
401.7969348750414
 30
0.0
 10
1268.430300160584
 20
401.7917763755413
 30
0.0
 10
1268.486890242984
 20
401.7863687116414
 30
0.0
 10
1268.522089755584
 20
401.7805619990412
 30
0.0
 10
1268.537277667984
 20
401.7760964434414
 30
0.0
 10
1268.542038256184
 20
401.7727752554415
 30
0.0
 10
1268.542038256184
 20
401.7712424597414
 30
0.0
  0
SPLINE
  5
A39
330
1F
100
AcDbEntity
  8
BEZUGSACHSEN
  6
Continuous
 62
     7
100
AcDbSpline
210
0.0
220
0.0
230
1.0
 70
     8
 71
     3
 72
    29
 73
    25
 74
     0
 42
0.000000001
 43
0.0000000001
 40
0.0
 40
0.0
 40
0.0
 40
0.0
 40
0.0036561834
 40
0.0113186728
 40
0.0234757075
 40
0.0401175972
 40
0.0611270874
 40
0.0863243887
 40
0.148302964
 40
0.2237253554
 40
0.3097206052
 40
0.4030023954
 40
0.5
 40
0.5969976046
 40
0.6902793948000002
 40
0.7762746446
 40
0.8516970359999998
 40
0.9136756113
 40
0.9388729126000001
 40
0.9598824028000001
 40
0.9765242924999999
 40
0.9886813271999999
 40
0.9963438165999999
 40
1.0
 40
1.0
 40
1.0
 40
1.0
 10
1235.242038256184
 20
401.6649434830415
 30
0.0
 10
1235.242038256184
 20
401.6722972466413
 30
0.0
 10
1235.219273837584
 20
401.6883191235415
 30
0.0
 10
1235.176863518784
 20
401.7007291264414
 30
0.0
 10
1235.103694399384
 20
401.7171464701414
 30
0.0
 10
1235.005207233384
 20
401.7317192470414
 30
0.0
 10
1234.879418934084
 20
401.7466032771414
 30
0.0
 10
1234.662840686584
 20
401.7666220802413
 30
0.0
 10
1234.336397313884
 20
401.7881523752414
 30
0.0
 10
1233.887543272984
 20
401.8084181429414
 30
0.0
 10
1233.375457078284
 20
401.8235629731414
 30
0.0
 10
1232.819848767784
 20
401.8329253955414
 30
0.0
 10
1232.242038256184
 20
401.8360905407414
 30
0.0
 10
1231.664227744484
 20
401.8329253955414
 30
0.0
 10
1231.108619433984
 20
401.8235629731414
 30
0.0
 10
1230.596533239284
 20
401.8084181429414
 30
0.0
 10
1230.147679198384
 20
401.7881523752414
 30
0.0
 10
1229.821235825684
 20
401.7666220802413
 30
0.0
 10
1229.604657578184
 20
401.7466032771414
 30
0.0
 10
1229.478869278984
 20
401.7317192470414
 30
0.0
 10
1229.380382112884
 20
401.7171464701414
 30
0.0
 10
1229.307212993484
 20
401.7007291264414
 30
0.0
 10
1229.264802674684
 20
401.6883191235415
 30
0.0
 10
1229.242038256184
 20
401.6722972466413
 30
0.0
 10
1229.242038256184
 20
401.6649434830415
 30
0.0
  0
SPLINE
  5
A3A
330
1F
100
AcDbEntity
  8
0
  6
Continuous
 62
     7
100
AcDbSpline
210
0.0
220
0.0
230
1.0
 70
     8
 71
     3
 72
     8
 73
     4
 74
     0
 42
0.000000001
 43
0.0000000001
 40
0.0
 40
0.0
 40
0.0
 40
0.0
 40
1.0
 40
1.0
 40
1.0
 40
1.0
 10
1207.025157780884
 20
401.5327254772414
 30
0.0
 10
1206.865725098584
 20
401.5732564699415
 30
0.0
 10
1206.691078686384
 20
401.5732564699415
 30
0.0
 10
1206.531646004184
 20
401.5327254772414
 30
0.0
  0
SPLINE
  5
A3B
330
1F
100
AcDbEntity
  8
0
  6
Continuous
 62
     7
100
AcDbSpline
210
0.0
220
0.0
230
1.0
 70
     8
 71
     3
 72
     8
 73
     4
 74
     0
 42
0.000000001
 43
0.0000000001
 40
0.0
 40
0.0
 40
0.0
 40
0.0
 40
1.0
 40
1.0
 40
1.0
 40
1.0
 10
1199.170612326284
 20
401.5327254772414
 30
0.0
 10
1199.011179644084
 20
401.5732564699415
 30
0.0
 10
1198.836533231884
 20
401.5732564699415
 30
0.0
 10
1198.677100549584
 20
401.5327254772414
 30
0.0
  0
SPLINE
  5
A3C
330
1F
100
AcDbEntity
  8
0
  6
Continuous
 62
     7
100
AcDbSpline
210
0.0
220
0.0
230
1.0
 70
     8
 71
     3
 72
     8
 73
     4
 74
     0
 42
0.000000001
 43
0.0000000001
 40
0.0
 40
0.0
 40
0.0
 40
0.0
 40
1.0
 40
1.0
 40
1.0
 40
1.0
 10
1191.316066871784
 20
401.5327254772414
 30
0.0
 10
1191.156634189584
 20
401.5732564699415
 30
0.0
 10
1190.981987777284
 20
401.5732564699415
 30
0.0
 10
1190.822555095084
 20
401.5327254772414
 30
0.0
  0
SPLINE
  5
A3D
330
1F
100
AcDbEntity
  8
BEZUGSACHSEN
  6
Continuous
 62
     7
100
AcDbSpline
210
0.0
220
0.0
230
1.0
 70
     8
 71
     3
 72
    29
 73
    25
 74
     0
 42
0.000000001
 43
0.0000000001
 40
0.0
 40
0.0
 40
0.0
 40
0.0
 40
0.0036562871
 40
0.0113188553
 40
0.0234749074
 40
0.040119465
 40
0.0611260063
 40
0.0863246365
 40
0.1483016966
 40
0.2237245545
 40
0.3097192975
 40
0.4030041862
 40
0.5
 40
0.5969958138
 40
0.6902807025
 40
0.7762754455
 40
0.8516983034
 40
0.9136753634999998
 40
0.9388739937
 40
0.9598805350000001
 40
0.9765250926
 40
0.9886811446999999
 40
0.9963437129
 40
1.0
 40
1.0
 40
1.0
 40
1.0
 10
1306.042038256184
 20
401.8066754519414
 30
0.0
 10
1306.042038256184
 20
401.8128037550414
 30
0.0
 10
1306.023059839084
 20
401.8261488204416
 30
0.0
 10
1305.987725209784
 20
401.8364949647414
 30
0.0
 10
1305.926746513684
 20
401.8501809154413
 30
0.0
 10
1305.844676448184
 20
401.8623203895415
 30
0.0
 10
1305.739851467384
 20
401.8747284672413
 30
0.0
 10
1305.559374502984
 20
401.8914036085414
 30
0.0
 10
1305.287338650684
 20
401.9093512743415
 30
0.0
 10
1304.913296532584
 20
401.9262383299414
 30
0.0
 10
1304.486553421884
 20
401.9388589916416
 30
0.0
 10
1304.023545645984
 20
401.9466591120415
 30
0.0
 10
1303.542038256184
 20
401.9492969448415
 30
0.0
 10
1303.060530866284
 20
401.9466591120415
 30
0.0
 10
1302.597523090384
 20
401.9388589916416
 30
0.0
 10
1302.170779979684
 20
401.9262383299414
 30
0.0
 10
1301.796737861584
 20
401.9093512743415
 30
0.0
 10
1301.524702009284
 20
401.8914036085414
 30
0.0
 10
1301.344225044884
 20
401.8747284672413
 30
0.0
 10
1301.239400064184
 20
401.8623203895415
 30
0.0
 10
1301.157329998684
 20
401.8501809154413
 30
0.0
 10
1301.096351302484
 20
401.8364949647414
 30
0.0
 10
1301.061016673184
 20
401.8261488204416
 30
0.0
 10
1301.042038256184
 20
401.8128037550414
 30
0.0
 10
1301.042038256184
 20
401.8066754519414
 30
0.0
  0
SPLINE
  5
A3E
330
1F
100
AcDbEntity
  8
BEZUGSACHSEN
  6
Continuous
 62
     7
100
AcDbSpline
210
0.0
220
0.0
230
1.0
 70
     8
 71
     3
 72
    29
 73
    25
 74
     0
 42
0.000000001
 43
0.0000000001
 40
0.0
 40
0.0
 40
0.0
 40
0.0
 40
0.0036562871
 40
0.0113188553
 40
0.0234749074
 40
0.040119465
 40
0.0611260063
 40
0.0863246365
 40
0.1483016966
 40
0.2237245545
 40
0.3097192975
 40
0.4030041862
 40
0.5
 40
0.5969958138
 40
0.6902807025
 40
0.7762754455
 40
0.8516983034
 40
0.9136753634999998
 40
0.9388739937
 40
0.9598805350000001
 40
0.9765250926
 40
0.9886811446999999
 40
0.9963437129
 40
1.0
 40
1.0
 40
1.0
 40
1.0
 10
1286.042038256184
 20
401.8066754519414
 30
0.0
 10
1286.042038256184
 20
401.8128037550414
 30
0.0
 10
1286.023059839084
 20
401.8261488204416
 30
0.0
 10
1285.987725209784
 20
401.8364949647414
 30
0.0
 10
1285.926746513684
 20
401.8501809154413
 30
0.0
 10
1285.844676448184
 20
401.8623203895415
 30
0.0
 10
1285.739851467384
 20
401.8747284672413
 30
0.0
 10
1285.559374502984
 20
401.8914036085414
 30
0.0
 10
1285.287338650684
 20
401.9093512743415
 30
0.0
 10
1284.913296532584
 20
401.9262383299414
 30
0.0
 10
1284.486553421884
 20
401.9388589916416
 30
0.0
 10
1284.023545645984
 20
401.9466591120415
 30
0.0
 10
1283.542038256184
 20
401.9492969448415
 30
0.0
 10
1283.060530866284
 20
401.9466591120415
 30
0.0
 10
1282.597523090384
 20
401.9388589916416
 30
0.0
 10
1282.170779979684
 20
401.9262383299414
 30
0.0
 10
1281.796737861584
 20
401.9093512743415
 30
0.0
 10
1281.524702009284
 20
401.8914036085414
 30
0.0
 10
1281.344225044884
 20
401.8747284672413
 30
0.0
 10
1281.239400064184
 20
401.8623203895415
 30
0.0
 10
1281.157329998684
 20
401.8501809154413
 30
0.0
 10
1281.096351302484
 20
401.8364949647414
 30
0.0
 10
1281.061016673184
 20
401.8261488204416
 30
0.0
 10
1281.042038256184
 20
401.8128037550414
 30
0.0
 10
1281.042038256184
 20
401.8066754519414
 30
0.0
  0
SPLINE
  5
A3F
330
1F
100
AcDbEntity
  8
BEZUGSACHSEN
  6
Continuous
 62
     7
100
AcDbSpline
210
0.0
220
0.0
230
1.0
 70
     8
 71
     3
 72
    29
 73
    25
 74
     0
 42
0.000000001
 43
0.0000000001
 40
0.0
 40
0.0
 40
0.0
 40
0.0
 40
0.0036561834
 40
0.0113186728
 40
0.0234757075
 40
0.0401175972
 40
0.0611270874
 40
0.0863243887
 40
0.148302964
 40
0.2237253554
 40
0.3097206052
 40
0.4030023954
 40
0.5
 40
0.5969976046
 40
0.6902793948000002
 40
0.7762746446
 40
0.8516970359999998
 40
0.9136756113
 40
0.9388729126000001
 40
0.9598824028000001
 40
0.9765242924999999
 40
0.9886813271999999
 40
0.9963438165999999
 40
1.0
 40
1.0
 40
1.0
 40
1.0
 10
1229.242038256184
 20
401.6649434830415
 30
0.0
 10
1229.242038256184
 20
401.6575897195414
 30
0.0
 10
1229.264802674684
 20
401.6415678425414
 30
0.0
 10
1229.307212993484
 20
401.6291578396415
 30
0.0
 10
1229.380382112884
 20
401.6127404959416
 30
0.0
 10
1229.478869278984
 20
401.5981677190413
 30
0.0
 10
1229.604657578184
 20
401.5832836889415
 30
0.0
 10
1229.821235825684
 20
401.5632648858413
 30
0.0
 10
1230.147679198384
 20
401.5417345908413
 30
0.0
 10
1230.596533239284
 20
401.5214688231415
 30
0.0
 10
1231.108619433984
 20
401.5063239930413
 30
0.0
 10
1231.664227744484
 20
401.4969615705413
 30
0.0
 10
1232.242038256184
 20
401.4937964253412
 30
0.0
 10
1232.819848767784
 20
401.4969615705413
 30
0.0
 10
1233.375457078284
 20
401.5063239930413
 30
0.0
 10
1233.887543272984
 20
401.5214688231415
 30
0.0
 10
1234.336397313884
 20
401.5417345908413
 30
0.0
 10
1234.662840686584
 20
401.5632648858413
 30
0.0
 10
1234.879418934084
 20
401.5832836889415
 30
0.0
 10
1235.005207233384
 20
401.5981677190413
 30
0.0
 10
1235.103694399384
 20
401.6127404959416
 30
0.0
 10
1235.176863518784
 20
401.6291578396415
 30
0.0
 10
1235.219273837584
 20
401.6415678425414
 30
0.0
 10
1235.242038256184
 20
401.6575897195414
 30
0.0
 10
1235.242038256184
 20
401.6649434830415
 30
0.0
  0
SPLINE
  5
A40
330
1F
100
AcDbEntity
  8
0
  6
Continuous
 62
     7
100
AcDbSpline
210
0.0
220
0.0
230
1.0
 70
     8
 71
     3
 72
     8
 73
     4
 74
     0
 42
0.000000001
 43
0.0000000001
 40
0.0
 40
0.0
 40
0.0
 40
0.0
 40
1.0
 40
1.0
 40
1.0
 40
1.0
 10
1207.025157780884
 20
402.6382348347415
 30
0.0
 10
1206.865725098584
 20
402.6787658273415
 30
0.0
 10
1206.691078686384
 20
402.6787658273415
 30
0.0
 10
1206.531646004184
 20
402.6382348347415
 30
0.0
  0
SPLINE
  5
A41
330
1F
100
AcDbEntity
  8
BEZUGSACHSEN
  6
Continuous
 62
     7
100
AcDbSpline
210
0.0
220
0.0
230
1.0
 70
     8
 71
     3
 72
    29
 73
    25
 74
     0
 42
0.000000001
 43
0.0000000001
 40
0.0
 40
0.0
 40
0.0
 40
0.0
 40
0.0036562871
 40
0.0113188553
 40
0.0234749074
 40
0.040119465
 40
0.0611260063
 40
0.0863246365
 40
0.1483016966
 40
0.2237245545
 40
0.3097192975
 40
0.4030041862
 40
0.5
 40
0.5969958138
 40
0.6902807025
 40
0.7762754455
 40
0.8516983034
 40
0.9136753634999998
 40
0.9388739937
 40
0.9598805350000001
 40
0.9765250926
 40
0.9886811446999999
 40
0.9963437129
 40
1.0
 40
1.0
 40
1.0
 40
1.0
 10
1301.042038256184
 20
401.5232115141416
 30
0.0
 10
1301.042038256184
 20
401.5170832110413
 30
0.0
 10
1301.061016673184
 20
401.5037381456413
 30
0.0
 10
1301.096351302484
 20
401.4933920013413
 30
0.0
 10
1301.157329998684
 20
401.4797060506414
 30
0.0
 10
1301.239400064184
 20
401.4675665765414
 30
0.0
 10
1301.344225044884
 20
401.4551584988415
 30
0.0
 10
1301.524702009284
 20
401.4384833575413
 30
0.0
 10
1301.796737861584
 20
401.4205356917414
 30
0.0
 10
1302.170779979684
 20
401.4036486361415
 30
0.0
 10
1302.597523090384
 20
401.3910279744413
 30
0.0
 10
1303.060530866284
 20
401.3832278540414
 30
0.0
 10
1303.542038256184
 20
401.3805900212414
 30
0.0
 10
1304.023545645984
 20
401.3832278540414
 30
0.0
 10
1304.486553421884
 20
401.3910279744413
 30
0.0
 10
1304.913296532584
 20
401.4036486361415
 30
0.0
 10
1305.287338650684
 20
401.4205356917414
 30
0.0
 10
1305.559374502984
 20
401.4384833575413
 30
0.0
 10
1305.739851467384
 20
401.4551584988415
 30
0.0
 10
1305.844676448184
 20
401.4675665765414
 30
0.0
 10
1305.926746513684
 20
401.4797060506414
 30
0.0
 10
1305.987725209784
 20
401.4933920013413
 30
0.0
 10
1306.023059839084
 20
401.5037381456413
 30
0.0
 10
1306.042038256184
 20
401.5170832110413
 30
0.0
 10
1306.042038256184
 20
401.5232115141416
 30
0.0
  0
SPLINE
  5
A42
330
1F
100
AcDbEntity
  8
0
  6
Continuous
 62
     7
100
AcDbSpline
210
0.0
220
0.0
230
1.0
 70
     8
 71
     3
 72
    23
 73
    19
 74
     0
 42
0.000000001
 43
0.0000000001
 40
0.0
 40
0.0
 40
0.0
 40
0.0
 40
0.0036582121
 40
0.0113290881
 40
0.0400990389
 40
0.0863145472
 40
0.1482898633
 40
0.2237168888
 40
0.3097176538
 40
0.5
 40
0.6902823462000001
 40
0.7762831112000002
 40
0.8517101367
 40
0.9136854528
 40
0.9599009610999999
 40
0.9886709119
 40
0.9963417879000001
 40
1.0
 40
1.0
 40
1.0
 40
1.0
 10
1268.542038256184
 20
401.5586445063413
 30
0.0
 10
1268.542038256184
 20
401.5571117106414
 30
0.0
 10
1268.537277667984
 20
401.5537905226414
 30
0.0
 10
1268.522089755584
 20
401.5493249670414
 30
0.0
 10
1268.486890242984
 20
401.5435182544415
 30
0.0
 10
1268.430300160584
 20
401.5381105905414
 30
0.0
 10
1268.353299922584
 20
401.5329520910413
 30
0.0
 10
1268.259864272884
 20
401.5287613122414
 30
0.0
 10
1268.112524394384
 20
401.5243992320415
 30
0.0
 10
1267.917038256184
 20
401.5223960611415
 30
0.0
 10
1267.721552117884
 20
401.5243992320415
 30
0.0
 10
1267.574212239384
 20
401.5287613122414
 30
0.0
 10
1267.480776589784
 20
401.5329520910413
 30
0.0
 10
1267.403776351784
 20
401.5381105905414
 30
0.0
 10
1267.347186269284
 20
401.5435182544415
 30
0.0
 10
1267.311986756684
 20
401.5493249670414
 30
0.0
 10
1267.296798844284
 20
401.5537905226414
 30
0.0
 10
1267.292038256184
 20
401.5571117106414
 30
0.0
 10
1267.292038256184
 20
401.5586445063413
 30
0.0
  0
SPLINE
  5
A43
330
1F
100
AcDbEntity
  8
0
  6
Continuous
 62
     7
100
AcDbSpline
210
0.0
220
0.0
230
1.0
 70
     8
 71
     3
 72
     8
 73
     4
 74
     0
 42
0.000000001
 43
0.0000000001
 40
0.0
 40
0.0
 40
0.0
 40
0.0
 40
1.0
 40
1.0
 40
1.0
 40
1.0
 10
1199.170612326284
 20
402.6382348347415
 30
0.0
 10
1199.011179644084
 20
402.6787658273415
 30
0.0
 10
1198.836533231884
 20
402.6787658273415
 30
0.0
 10
1198.677100549584
 20
402.6382348347415
 30
0.0
  0
SPLINE
  5
A44
330
1F
100
AcDbEntity
  8
BEZUGSACHSEN
  6
Continuous
 62
     7
100
AcDbSpline
210
0.0
220
0.0
230
1.0
 70
     8
 71
     3
 72
    29
 73
    25
 74
     0
 42
0.000000001
 43
0.0000000001
 40
0.0
 40
0.0
 40
0.0
 40
0.0
 40
0.0036562871
 40
0.0113188553
 40
0.0234749074
 40
0.040119465
 40
0.0611260063
 40
0.0863246365
 40
0.1483016966
 40
0.2237245545
 40
0.3097192975
 40
0.4030041862
 40
0.5
 40
0.5969958138
 40
0.6902807025
 40
0.7762754455
 40
0.8516983034
 40
0.9136753634999998
 40
0.9388739937
 40
0.9598805350000001
 40
0.9765250926
 40
0.9886811446999999
 40
0.9963437129
 40
1.0
 40
1.0
 40
1.0
 40
1.0
 10
1281.042038256184
 20
401.5232115141416
 30
0.0
 10
1281.042038256184
 20
401.5170832110413
 30
0.0
 10
1281.061016673184
 20
401.5037381456413
 30
0.0
 10
1281.096351302484
 20
401.4933920013413
 30
0.0
 10
1281.157329998684
 20
401.4797060506414
 30
0.0
 10
1281.239400064184
 20
401.4675665765414
 30
0.0
 10
1281.344225044884
 20
401.4551584988415
 30
0.0
 10
1281.524702009284
 20
401.4384833575413
 30
0.0
 10
1281.796737861584
 20
401.4205356917414
 30
0.0
 10
1282.170779979684
 20
401.4036486361415
 30
0.0
 10
1282.597523090384
 20
401.3910279744413
 30
0.0
 10
1283.060530866284
 20
401.3832278540414
 30
0.0
 10
1283.542038256184
 20
401.3805900212414
 30
0.0
 10
1284.023545645984
 20
401.3832278540414
 30
0.0
 10
1284.486553421884
 20
401.3910279744413
 30
0.0
 10
1284.913296532584
 20
401.4036486361415
 30
0.0
 10
1285.287338650684
 20
401.4205356917414
 30
0.0
 10
1285.559374502984
 20
401.4384833575413
 30
0.0
 10
1285.739851467384
 20
401.4551584988415
 30
0.0
 10
1285.844676448184
 20
401.4675665765414
 30
0.0
 10
1285.926746513684
 20
401.4797060506414
 30
0.0
 10
1285.987725209784
 20
401.4933920013413
 30
0.0
 10
1286.023059839084
 20
401.5037381456413
 30
0.0
 10
1286.042038256184
 20
401.5170832110413
 30
0.0
 10
1286.042038256184
 20
401.5232115141416
 30
0.0
  0
SPLINE
  5
A45
330
1F
100
AcDbEntity
  8
0
  6
Continuous
 62
     7
100
AcDbSpline
210
0.0
220
0.0
230
1.0
 70
     8
 71
     3
 72
     8
 73
     4
 74
     0
 42
0.000000001
 43
0.0000000001
 40
0.0
 40
0.0
 40
0.0
 40
0.0
 40
1.0
 40
1.0
 40
1.0
 40
1.0
 10
1191.316066871784
 20
402.6382348347415
 30
0.0
 10
1191.156634189584
 20
402.6787658273415
 30
0.0
 10
1190.981987777284
 20
402.6787658273415
 30
0.0
 10
1190.822555095084
 20
402.6382348347415
 30
0.0
  0
SPLINE
  5
A46
330
1F
100
AcDbEntity
  8
0
  6
Continuous
 62
     7
100
AcDbSpline
210
0.0
220
0.0
230
1.0
 70
     8
 71
     3
 72
    10
 73
     6
 74
     0
 42
0.000000001
 43
0.0000000001
 40
0.0
 40
0.0
 40
0.0
 40
0.0
 40
0.498943255
 40
0.7503616529000002
 40
1.0
 40
1.0
 40
1.0
 40
1.0
 10
144.3920382561841
 20
422.6316994597413
 30
0.0
 10
144.426719241784
 20
422.6316994597413
 30
0.0
 10
144.4812646056841
 20
422.6169551795415
 30
0.0
 10
144.5311348147843
 20
422.5662224996415
 30
0.0
 10
144.5420382561842
 20
422.5309732888413
 30
0.0
 10
144.5420382561842
 20
422.5136212075415
 30
0.0
  0
SPLINE
  5
A47
330
1F
100
AcDbEntity
  8
0
  6
Continuous
 62
     7
100
AcDbSpline
210
0.0
220
0.0
230
1.0
 70
     8
 71
     3
 72
    10
 73
     6
 74
     0
 42
0.000000001
 43
0.0000000001
 40
0.0
 40
0.0
 40
0.0
 40
0.0
 40
0.498943255
 40
0.7503616529000002
 40
1.0
 40
1.0
 40
1.0
 40
1.0
 10
1324.692038256184
 20
422.6316994597413
 30
0.0
 10
1324.657357270484
 20
422.6316994597413
 30
0.0
 10
1324.602811906584
 20
422.6169551795415
 30
0.0
 10
1324.552941697484
 20
422.5662224996415
 30
0.0
 10
1324.542038256184
 20
422.5309732888413
 30
0.0
 10
1324.542038256184
 20
422.5136212075415
 30
0.0
  0
SPLINE
  5
A48
330
1F
100
AcDbEntity
  8
0
  6
Continuous
 62
     3
100
AcDbSpline
210
0.0
220
0.0
230
1.0
 70
     8
 71
     3
 72
     8
 73
     4
 74
     0
 42
0.000000001
 43
0.0000000001
 40
0.0
 40
0.0
 40
0.0
 40
0.0
 40
1.0
 40
1.0
 40
1.0
 40
1.0
 10
265.9861914586841
 20
402.7955531593415
 30
0.0
 10
266.1456241409842
 20
402.7550221667415
 30
0.0
 10
266.3202705531842
 20
402.7550221667415
 30
0.0
 10
266.479703235384
 20
402.7955531593415
 30
0.0
  0
SPLINE
  5
A49
330
1F
100
AcDbEntity
  8
0
  6
Continuous
 62
     3
100
AcDbSpline
210
0.0
220
0.0
230
1.0
 70
     8
 71
     3
 72
     8
 73
     4
 74
     0
 42
0.000000001
 43
0.0000000001
 40
0.0
 40
0.0
 40
0.0
 40
0.0
 40
1.0
 40
1.0
 40
1.0
 40
1.0
 10
273.8407369132842
 20
402.7955531593415
 30
0.0
 10
274.0001695954841
 20
402.7550221667415
 30
0.0
 10
274.174816007684
 20
402.7550221667415
 30
0.0
 10
274.3342486899842
 20
402.7955531593415
 30
0.0
  0
SPLINE
  5
A4A
330
1F
100
AcDbEntity
  8
BEZUGSACHSEN
  6
Continuous
 62
     3
100
AcDbSpline
210
0.0
220
0.0
230
1.0
 70
     8
 71
     3
 72
    29
 73
    25
 74
     0
 42
0.000000001
 43
0.0000000001
 40
0.0
 40
0.0
 40
0.0
 40
0.0
 40
0.0036561834
 40
0.0113186728
 40
0.0234757075
 40
0.0401175972
 40
0.0611270874
 40
0.0863243887
 40
0.148302964
 40
0.2237253554
 40
0.3097206052
 40
0.4030023954
 40
0.5
 40
0.5969976046
 40
0.6902793948000002
 40
0.7762746446
 40
0.8516970359999998
 40
0.9136756113
 40
0.9388729126000001
 40
0.9598824028000001
 40
0.9765242924999999
 40
0.9886813271999999
 40
0.9963438165999999
 40
1.0
 40
1.0
 40
1.0
 40
1.0
 10
239.8420382561844
 20
402.6633351536416
 30
0.0
 10
239.8420382561844
 20
402.6559813900414
 30
0.0
 10
239.8192738375842
 20
402.6399595131415
 30
0.0
 10
239.776863518784
 20
402.6275495102413
 30
0.0
 10
239.7036943993839
 20
402.6111321664414
 30
0.0
 10
239.6052072333841
 20
402.5965593895413
 30
0.0
 10
239.4794189340842
 20
402.5816753594413
 30
0.0
 10
239.2628406865842
 20
402.5616565563414
 30
0.0
 10
238.9363973138843
 20
402.5401262613413
 30
0.0
 10
238.4875432729841
 20
402.5198604937413
 30
0.0
 10
237.9754570782843
 20
402.5047156635414
 30
0.0
 10
237.4198487677841
 20
402.4953532411414
 30
0.0
 10
236.8420382561844
 20
402.4921880958413
 30
0.0
 10
236.2642277444843
 20
402.4953532411414
 30
0.0
 10
235.708619433984
 20
402.5047156635414
 30
0.0
 10
235.1965332392842
 20
402.5198604937413
 30
0.0
 10
234.7476791983845
 20
402.5401262613413
 30
0.0
 10
234.4212358256841
 20
402.5616565563414
 30
0.0
 10
234.2046575781842
 20
402.5816753594413
 30
0.0
 10
234.0788692789843
 20
402.5965593895413
 30
0.0
 10
233.9803821128842
 20
402.6111321664414
 30
0.0
 10
233.9072129934841
 20
402.6275495102413
 30
0.0
 10
233.8648026746842
 20
402.6399595131415
 30
0.0
 10
233.8420382561842
 20
402.6559813900414
 30
0.0
 10
233.8420382561842
 20
402.6633351536416
 30
0.0
  0
SPLINE
  5
A4B
330
1F
100
AcDbEntity
  8
BEZUGSACHSEN
  6
Continuous
 62
     3
100
AcDbSpline
210
0.0
220
0.0
230
1.0
 70
     8
 71
     3
 72
     9
 73
     5
 74
     0
 42
0.000000001
 43
0.0000000001
 40
0.0
 40
0.0
 40
0.0
 40
0.0
 40
0.5020157287
 40
1.0
 40
1.0
 40
1.0
 40
1.0
 10
162.3117248388842
 20
402.8110743243415
 30
0.0
 10
162.4116841634841
 20
402.9838375768413
 30
0.0
 10
162.6638847071842
 20
403.2999265858413
 30
0.0
 10
162.9977664553844
 20
403.5274941562415
 30
0.0
 10
163.1757403400843
 20
403.6142525336413
 30
0.0
  0
SPLINE
  5
A4C
330
1F
100
AcDbEntity
  8
BEZUGSACHSEN
  6
Continuous
 62
     3
100
AcDbSpline
210
0.0
220
0.0
230
1.0
 70
     8
 71
     3
 72
     9
 73
     5
 74
     0
 42
0.000000001
 43
0.0000000001
 40
0.0
 40
0.0
 40
0.0
 40
0.0
 40
0.4979350155
 40
1.0
 40
1.0
 40
1.0
 40
1.0
 10
167.9085720132843
 20
403.6141603213414
 30
0.0
 10
168.0864675951841
 20
403.5273790484415
 30
0.0
 10
168.420266518684
 20
403.2998563514415
 30
0.0
 10
168.6724031239841
 20
402.9838189537413
 30
0.0
 10
168.7723516733845
 20
402.8110743243415
 30
0.0
  0
SPLINE
  5
A4D
330
1F
100
AcDbEntity
  8
BEZUGSACHSEN
  6
Continuous
 62
     3
100
AcDbSpline
210
0.0
220
0.0
230
1.0
 70
     8
 71
     3
 72
     9
 73
     5
 74
     0
 42
0.000000001
 43
0.0000000001
 40
0.0
 40
0.0
 40
0.0
 40
0.0
 40
0.5020157287
 40
1.0
 40
1.0
 40
1.0
 40
1.0
 10
182.3117248388841
 20
402.8110743243415
 30
0.0
 10
182.4116841635841
 20
402.9838375769413
 30
0.0
 10
182.6638847074841
 20
403.2999265862413
 30
0.0
 10
182.9977664559842
 20
403.5274941566415
 30
0.0
 10
183.1757403407841
 20
403.6142525339414
 30
0.0
  0
SPLINE
  5
A4E
330
1F
100
AcDbEntity
  8
BEZUGSACHSEN
  6
Continuous
 62
     3
100
AcDbSpline
210
0.0
220
0.0
230
1.0
 70
     8
 71
     3
 72
     9
 73
     5
 74
     0
 42
0.000000001
 43
0.0000000001
 40
0.0
 40
0.0
 40
0.0
 40
0.0
 40
0.4979350155
 40
1.0
 40
1.0
 40
1.0
 40
1.0
 10
187.9085720125843
 20
403.6141603216415
 30
0.0
 10
188.0864675946843
 20
403.5273790488413
 30
0.0
 10
188.4202665184841
 20
403.2998563517415
 30
0.0
 10
188.6724031238841
 20
402.9838189538414
 30
0.0
 10
188.772351673384
 20
402.8110743243415
 30
0.0
  0
SPLINE
  5
A4F
330
1F
100
AcDbEntity
  8
0
  6
Continuous
 62
     3
100
AcDbSpline
210
0.0
220
0.0
230
1.0
 70
     8
 71
     3
 72
    23
 73
    19
 74
     0
 42
0.000000001
 43
0.0000000001
 40
0.0
 40
0.0
 40
0.0
 40
0.0
 40
0.0036582121
 40
0.0113290881
 40
0.0400990389
 40
0.0863145472
 40
0.1482898633
 40
0.2237168888
 40
0.3097176538
 40
0.5
 40
0.6902823462000001
 40
0.7762831112000002
 40
0.8517101367
 40
0.9136854528
 40
0.9599009610999999
 40
0.9886709119
 40
0.9963417879000001
 40
1.0
 40
1.0
 40
1.0
 40
1.0
 10
200.5420382561843
 20
402.5570361769414
 30
0.0
 10
200.5420382561843
 20
402.5555033812415
 30
0.0
 10
200.5467988442843
 20
402.5521821931415
 30
0.0
 10
200.5619867566843
 20
402.5477166376413
 30
0.0
 10
200.5971862692843
 20
402.5419099250414
 30
0.0
 10
200.653776351784
 20
402.5365022611413
 30
0.0
 10
200.7307765897845
 20
402.5313437615413
 30
0.0
 10
200.824212239384
 20
402.5271529827413
 30
0.0
 10
200.9715521178841
 20
402.5227909025415
 30
0.0
 10
201.1670382561842
 20
402.5207877316415
 30
0.0
 10
201.3625243943841
 20
402.5227909025415
 30
0.0
 10
201.509864272884
 20
402.5271529827413
 30
0.0
 10
201.603299922584
 20
402.5313437615413
 30
0.0
 10
201.6803001605845
 20
402.5365022611413
 30
0.0
 10
201.7368902429844
 20
402.5419099250414
 30
0.0
 10
201.7720897555841
 20
402.5477166376413
 30
0.0
 10
201.7872776679842
 20
402.5521821931415
 30
0.0
 10
201.7920382561842
 20
402.5555033812415
 30
0.0
 10
201.7920382561842
 20
402.5570361769414
 30
0.0
  0
SPLINE
  5
A50
330
1F
100
AcDbEntity
  8
BEZUGSACHSEN
  6
Continuous
 62
     3
100
AcDbSpline
210
0.0
220
0.0
230
1.0
 70
     8
 71
     3
 72
    29
 73
    25
 74
     0
 42
0.000000001
 43
0.0000000001
 40
0.0
 40
0.0
 40
0.0
 40
0.0
 40
0.0036561834
 40
0.0113186728
 40
0.0234757075
 40
0.0401175972
 40
0.0611270874
 40
0.0863243887
 40
0.148302964
 40
0.2237253554
 40
0.3097206052
 40
0.4030023954
 40
0.5
 40
0.5969976046
 40
0.6902793948000002
 40
0.7762746446
 40
0.8516970359999998
 40
0.9136756113
 40
0.9388729126000001
 40
0.9598824028000001
 40
0.9765242924999999
 40
0.9886813271999999
 40
0.9963438165999999
 40
1.0
 40
1.0
 40
1.0
 40
1.0
 10
233.8420382561842
 20
402.6633351536416
 30
0.0
 10
233.8420382561842
 20
402.6706889171414
 30
0.0
 10
233.8648026746842
 20
402.6867107940415
 30
0.0
 10
233.9072129934841
 20
402.6991207969413
 30
0.0
 10
233.9803821128842
 20
402.7155381407415
 30
0.0
 10
234.0788692789843
 20
402.7301109176415
 30
0.0
 10
234.2046575781842
 20
402.7449949477413
 30
0.0
 10
234.4212358256841
 20
402.7650137508414
 30
0.0
 10
234.7476791983845
 20
402.7865440458413
 30
0.0
 10
235.1965332392842
 20
402.8068098135413
 30
0.0
 10
235.708619433984
 20
402.8219546436414
 30
0.0
 10
236.2642277444843
 20
402.8313170661415
 30
0.0
 10
236.8420382561844
 20
402.8344822113413
 30
0.0
 10
237.4198487677841
 20
402.8313170661415
 30
0.0
 10
237.9754570782843
 20
402.8219546436414
 30
0.0
 10
238.4875432729841
 20
402.8068098135413
 30
0.0
 10
238.9363973138843
 20
402.7865440458413
 30
0.0
 10
239.2628406865842
 20
402.7650137508414
 30
0.0
 10
239.4794189340842
 20
402.7449949477413
 30
0.0
 10
239.6052072333841
 20
402.7301109176415
 30
0.0
 10
239.7036943993839
 20
402.7155381407415
 30
0.0
 10
239.776863518784
 20
402.6991207969413
 30
0.0
 10
239.8192738375842
 20
402.6867107940415
 30
0.0
 10
239.8420382561844
 20
402.6706889171414
 30
0.0
 10
239.8420382561844
 20
402.6633351536416
 30
0.0
  0
SPLINE
  5
A51
330
1F
100
AcDbEntity
  8
0
  6
Continuous
 62
     3
100
AcDbSpline
210
0.0
220
0.0
230
1.0
 70
     8
 71
     3
 72
     8
 73
     4
 74
     0
 42
0.000000001
 43
0.0000000001
 40
0.0
 40
0.0
 40
0.0
 40
0.0
 40
1.0
 40
1.0
 40
1.0
 40
1.0
 10
265.9861914586841
 20
401.6900438019415
 30
0.0
 10
266.1456241409842
 20
401.6495128092414
 30
0.0
 10
266.3202705531842
 20
401.6495128092414
 30
0.0
 10
266.479703235384
 20
401.6900438019415
 30
0.0
  0
SPLINE
  5
A52
330
1F
100
AcDbEntity
  8
0
  6
Continuous
 62
     3
100
AcDbSpline
210
0.0
220
0.0
230
1.0
 70
     8
 71
     3
 72
     8
 73
     4
 74
     0
 42
0.000000001
 43
0.0000000001
 40
0.0
 40
0.0
 40
0.0
 40
0.0
 40
1.0
 40
1.0
 40
1.0
 40
1.0
 10
273.8407369132842
 20
401.6900438019415
 30
0.0
 10
274.0001695954841
 20
401.6495128092414
 30
0.0
 10
274.174816007684
 20
401.6495128092414
 30
0.0
 10
274.3342486899842
 20
401.6900438019415
 30
0.0
  0
SPLINE
  5
A53
330
1F
100
AcDbEntity
  8
BEZUGSACHSEN
  6
Continuous
 62
     3
100
AcDbSpline
210
0.0
220
0.0
230
1.0
 70
     8
 71
     3
 72
    29
 73
    25
 74
     0
 42
0.000000001
 43
0.0000000001
 40
0.0
 40
0.0
 40
0.0
 40
0.0
 40
0.003656186
 40
0.0113186246
 40
0.0234754393
 40
0.0401170575
 40
0.0611265811
 40
0.0863239488
 40
0.148301888
 40
0.223724245
 40
0.3097200002
 40
0.4030015526
 40
0.5
 40
0.5969984474000001
 40
0.6902799998
 40
0.776275755
 40
0.851698112
 40
0.9136760512
 40
0.9388734188999999
 40
0.9598829424999999
 40
0.9765245606999998
 40
0.9886813754000002
 40
0.996343814
 40
1.0
 40
1.0
 40
1.0
 40
1.0
 10
168.7740890636842
 20
402.5216031847414
 30
0.0
 10
168.7740890636842
 20
402.5136805999413
 30
0.0
 10
168.7495638665841
 20
402.4964195347415
 30
0.0
 10
168.7038736852842
 20
402.4830496622414
 30
0.0
 10
168.6250461137842
 20
402.4653625458413
 30
0.0
 10
168.518941933984
 20
402.4496625683414
 30
0.0
 10
168.3834242245841
 20
402.4336274501415
 30
0.0
 10
168.1500947714844
 20
402.4120600966414
 30
0.0
 10
167.7984022399841
 20
402.3888641834414
 30
0.0
 10
167.3148295648839
 20
402.3670311256414
 30
0.0
 10
166.7631328730845
 20
402.3507144483414
 30
0.0
 10
166.164545701984
 20
402.3406279147414
 30
0.0
 10
165.5420382561842
 20
402.3372178044414
 30
0.0
 10
164.9195308102844
 20
402.3406279147414
 30
0.0
 10
164.3209436391842
 20
402.3507144483414
 30
0.0
 10
163.7692469473841
 20
402.3670311256414
 30
0.0
 10
163.2856742722842
 20
402.3888641834414
 30
0.0
 10
162.9339817407845
 20
402.4120600966414
 30
0.0
 10
162.7006522876841
 20
402.4336274501415
 30
0.0
 10
162.5651345783844
 20
402.4496625683414
 30
0.0
 10
162.4590303984841
 20
402.4653625458413
 30
0.0
 10
162.3802028270838
 20
402.4830496622414
 30
0.0
 10
162.3345126456843
 20
402.4964195347415
 30
0.0
 10
162.3099874485842
 20
402.5136805999413
 30
0.0
 10
162.3099874485842
 20
402.5216031847414
 30
0.0
  0
SPLINE
  5
A54
330
1F
100
AcDbEntity
  8
BEZUGSACHSEN
  6
Continuous
 62
     3
100
AcDbSpline
210
0.0
220
0.0
230
1.0
 70
     8
 71
     3
 72
    29
 73
    25
 74
     0
 42
0.000000001
 43
0.0000000001
 40
0.0
 40
0.0
 40
0.0
 40
0.0
 40
0.003656186
 40
0.0113186246
 40
0.0234754393
 40
0.0401170575
 40
0.0611265811
 40
0.0863239488
 40
0.148301888
 40
0.223724245
 40
0.3097200002
 40
0.4030015526
 40
0.5
 40
0.5969984474000001
 40
0.6902799998
 40
0.776275755
 40
0.851698112
 40
0.9136760512
 40
0.9388734188999999
 40
0.9598829424999999
 40
0.9765245606999998
 40
0.9886813754000002
 40
0.996343814
 40
1.0
 40
1.0
 40
1.0
 40
1.0
 10
188.7740890636841
 20
402.5216031847414
 30
0.0
 10
188.7740890636841
 20
402.5136805999413
 30
0.0
 10
188.7495638665841
 20
402.4964195347415
 30
0.0
 10
188.7038736852844
 20
402.4830496622414
 30
0.0
 10
188.6250461137843
 20
402.4653625458413
 30
0.0
 10
188.518941933984
 20
402.4496625683414
 30
0.0
 10
188.3834242245841
 20
402.4336274501415
 30
0.0
 10
188.1500947714844
 20
402.4120600966414
 30
0.0
 10
187.7984022399841
 20
402.3888641834414
 30
0.0
 10
187.3148295648841
 20
402.3670311256414
 30
0.0
 10
186.763132873084
 20
402.3507144483414
 30
0.0
 10
186.1645457019845
 20
402.3406279147414
 30
0.0
 10
185.5420382561842
 20
402.3372178044414
 30
0.0
 10
184.9195308102842
 20
402.3406279147414
 30
0.0
 10
184.3209436391844
 20
402.3507144483414
 30
0.0
 10
183.7692469473841
 20
402.3670311256414
 30
0.0
 10
183.2856742722843
 20
402.3888641834414
 30
0.0
 10
182.9339817407842
 20
402.4120600966414
 30
0.0
 10
182.7006522876841
 20
402.4336274501415
 30
0.0
 10
182.5651345783842
 20
402.4496625683414
 30
0.0
 10
182.4590303984841
 20
402.4653625458413
 30
0.0
 10
182.380202827084
 20
402.4830496622414
 30
0.0
 10
182.3345126456843
 20
402.4964195347415
 30
0.0
 10
182.3099874485842
 20
402.5136805999413
 30
0.0
 10
182.3099874485842
 20
402.5216031847414
 30
0.0
  0
SPLINE
  5
A55
330
1F
100
AcDbEntity
  8
0
  6
Continuous
 62
     3
100
AcDbSpline
210
0.0
220
0.0
230
1.0
 70
     8
 71
     3
 72
    23
 73
    19
 74
     0
 42
0.000000001
 43
0.0000000001
 40
0.0
 40
0.0
 40
0.0
 40
0.0
 40
0.0036582121
 40
0.0113290881
 40
0.0400990389
 40
0.0863145472
 40
0.1482898633
 40
0.2237168888
 40
0.3097176538
 40
0.5
 40
0.6902823462000001
 40
0.7762831112000002
 40
0.8517101367
 40
0.9136854528
 40
0.9599009610999999
 40
0.9886709119
 40
0.9963417879000001
 40
1.0
 40
1.0
 40
1.0
 40
1.0
 10
201.7920382561842
 20
402.7696341302414
 30
0.0
 10
201.7920382561842
 20
402.7711669259415
 30
0.0
 10
201.7872776679842
 20
402.7744881140415
 30
0.0
 10
201.7720897555841
 20
402.7789536695413
 30
0.0
 10
201.7368902429844
 20
402.7847603821414
 30
0.0
 10
201.6803001605845
 20
402.7901680461414
 30
0.0
 10
201.603299922584
 20
402.7953265456415
 30
0.0
 10
201.509864272884
 20
402.7995173244415
 30
0.0
 10
201.3625243943841
 20
402.8038794046414
 30
0.0
 10
201.1670382561842
 20
402.8058825755415
 30
0.0
 10
200.9715521178841
 20
402.8038794046414
 30
0.0
 10
200.824212239384
 20
402.7995173244415
 30
0.0
 10
200.7307765897845
 20
402.7953265456415
 30
0.0
 10
200.653776351784
 20
402.7901680461414
 30
0.0
 10
200.5971862692843
 20
402.7847603821414
 30
0.0
 10
200.5619867566843
 20
402.7789536695413
 30
0.0
 10
200.5467988442843
 20
402.7744881140415
 30
0.0
 10
200.5420382561843
 20
402.7711669259415
 30
0.0
 10
200.5420382561843
 20
402.7696341302414
 30
0.0
  0
SPLINE
  5
A56
330
1F
100
AcDbEntity
  8
BEZUGSACHSEN
  6
Continuous
 62
     9
100
AcDbSpline
210
0.0
220
0.0
230
1.0
 70
     8
 71
     3
 72
    27
 73
    23
 74
     0
 42
0.000000001
 43
0.0000000001
 40
0.0
 40
0.0
 40
0.0
 40
0.0
 40
0.0036561991
 40
0.0113184899
 40
0.023474122
 40
0.0401179409
 40
0.0863202219
 40
0.148297262
 40
0.223719385
 40
0.3097168377
 40
0.4030008657
 40
0.4999992756000001
 40
0.5969977612
 40
0.6902819859
 40
0.77627969
 40
0.8517020650999999
 40
0.9136793104999998
 40
0.9598817647
 40
0.9765257018999999
 40
0.988681388
 40
0.9963437622
 40
1.0
 40
1.0
 40
1.0
 40
1.0
 10
184.042038256184
 20
403.5199948552415
 30
0.0
 10
184.042038256184
 20
403.5163179880414
 30
0.0
 10
184.0534243561844
 20
403.5083109087413
 30
0.0
 10
184.0746252764843
 20
403.5021033750413
 30
0.0
 10
184.1112050828842
 20
403.4938928335414
 30
0.0
 10
184.1854051385842
 20
403.4829181137415
 30
0.0
 10
184.3106913919844
 20
403.4705320765415
 30
0.0
 10
184.494798042384
 20
403.4583960446414
 30
0.0
 10
184.7192947868841
 20
403.4482552658414
 30
0.0
 10
184.9753166759842
 20
403.4406856380415
 30
0.0
 10
185.2531307885842
 20
403.4360042696414
 30
0.0
 10
185.5420361254841
 20
403.4344223301413
 30
0.0
 10
185.8309416603843
 20
403.4360042305415
 30
0.0
 10
186.1087563005844
 20
403.4406855626413
 30
0.0
 10
186.364778894384
 20
403.4482551543415
 30
0.0
 10
186.5892763553843
 20
403.4583959218414
 30
0.0
 10
186.7733836346842
 20
403.4705319524414
 30
0.0
 10
186.898670403184
 20
403.4829180142414
 30
0.0
 10
186.9728707915842
 20
403.4938926876414
 30
0.0
 10
187.0094508924842
 20
403.5021033084415
 30
0.0
 10
187.0306518783843
 20
403.5083109130414
 30
0.0
 10
187.0420382561842
 20
403.5163179490414
 30
0.0
 10
187.0420382561842
 20
403.5199948552415
 30
0.0
  0
SPLINE
  5
A57
330
1F
100
AcDbEntity
  8
BEZUGSACHSEN
  6
Continuous
 62
     3
100
AcDbSpline
210
0.0
220
0.0
230
1.0
 70
     8
 71
     3
 72
     9
 73
     5
 74
     0
 42
0.000000001
 43
0.0000000001
 40
0.0
 40
0.0
 40
0.0
 40
0.0
 40
0.5
 40
1.0
 40
1.0
 40
1.0
 40
1.0
 10
186.0487533009841
 20
403.6128521525415
 30
0.0
 10
185.8799218059844
 20
403.6072288300415
 30
0.0
 10
185.5420382563843
 20
403.6028392432415
 30
0.0
 10
185.2041547068841
 20
403.6072288299415
 30
0.0
 10
185.0353232118841
 20
403.6128521525415
 30
0.0
  0
SPLINE
  5
A58
330
1F
100
AcDbEntity
  8
BEZUGSACHSEN
  6
Continuous
 62
     9
100
AcDbSpline
210
0.0
220
0.0
230
1.0
 70
     8
 71
     3
 72
    27
 73
    23
 74
     0
 42
0.000000001
 43
0.0000000001
 40
0.0
 40
0.0
 40
0.0
 40
0.0
 40
0.0036561991
 40
0.0113184899
 40
0.023474122
 40
0.0401179409
 40
0.0863202219
 40
0.148297262
 40
0.223719385
 40
0.3097168377
 40
0.4030008657
 40
0.4999992756000001
 40
0.5969977612
 40
0.6902819859
 40
0.77627969
 40
0.8517020650999999
 40
0.9136793104999998
 40
0.9598817647
 40
0.9765257018999999
 40
0.988681388
 40
0.9963437622
 40
1.0
 40
1.0
 40
1.0
 40
1.0
 10
164.0420382561842
 20
403.5199948552415
 30
0.0
 10
164.0420382561842
 20
403.5163179880414
 30
0.0
 10
164.0534243561842
 20
403.5083109087413
 30
0.0
 10
164.0746252764843
 20
403.5021033750413
 30
0.0
 10
164.1112050828842
 20
403.4938928335414
 30
0.0
 10
164.1854051385842
 20
403.4829181137415
 30
0.0
 10
164.3106913919841
 20
403.4705320765415
 30
0.0
 10
164.494798042384
 20
403.4583960446414
 30
0.0
 10
164.7192947868841
 20
403.4482552658414
 30
0.0
 10
164.975316675984
 20
403.4406856380415
 30
0.0
 10
165.2531307885842
 20
403.4360042696414
 30
0.0
 10
165.5420361254841
 20
403.4344223301413
 30
0.0
 10
165.8309416603843
 20
403.4360042305415
 30
0.0
 10
166.1087563005842
 20
403.4406855626413
 30
0.0
 10
166.364778894384
 20
403.4482551543415
 30
0.0
 10
166.5892763553843
 20
403.4583959218414
 30
0.0
 10
166.7733836346842
 20
403.4705319524414
 30
0.0
 10
166.898670403184
 20
403.4829180142414
 30
0.0
 10
166.9728707915842
 20
403.4938926876414
 30
0.0
 10
167.0094508924844
 20
403.5021033084415
 30
0.0
 10
167.0306518783841
 20
403.5083109130414
 30
0.0
 10
167.042038256184
 20
403.5163179490414
 30
0.0
 10
167.042038256184
 20
403.5199948552415
 30
0.0
  0
SPLINE
  5
A59
330
1F
100
AcDbEntity
  8
BEZUGSACHSEN
  6
Continuous
 62
     3
100
AcDbSpline
210
0.0
220
0.0
230
1.0
 70
     8
 71
     3
 72
     9
 73
     5
 74
     0
 42
0.000000001
 43
0.0000000001
 40
0.0
 40
0.0
 40
0.0
 40
0.0
 40
0.5
 40
1.0
 40
1.0
 40
1.0
 40
1.0
 10
165.0353232224843
 20
403.6128521521414
 30
0.0
 10
165.2041547140841
 20
403.6072288299415
 30
0.0
 10
165.5420382563843
 20
403.6028392432415
 30
0.0
 10
165.8799217987841
 20
403.6072288299415
 30
0.0
 10
166.0487532902843
 20
403.6128521521414
 30
0.0
  0
SPLINE
  5
A5A
330
1F
100
AcDbEntity
  8
0
  6
Continuous
 62
     3
100
AcDbSpline
210
0.0
220
0.0
230
1.0
 70
     8
 71
     3
 72
     8
 73
     4
 74
     0
 42
0.000000001
 43
0.0000000001
 40
0.0
 40
0.0
 40
0.0
 40
0.0
 40
1.0
 40
1.0
 40
1.0
 40
1.0
 10
1203.097885053584
 20
402.7955531593415
 30
0.0
 10
1202.938452371384
 20
402.7550221667415
 30
0.0
 10
1202.763805959084
 20
402.7550221667415
 30
0.0
 10
1202.604373276884
 20
402.7955531593415
 30
0.0
  0
SPLINE
  5
A5B
330
1F
100
AcDbEntity
  8
0
  6
Continuous
 62
     3
100
AcDbSpline
210
0.0
220
0.0
230
1.0
 70
     8
 71
     3
 72
     8
 73
     4
 74
     0
 42
0.000000001
 43
0.0000000001
 40
0.0
 40
0.0
 40
0.0
 40
0.0
 40
1.0
 40
1.0
 40
1.0
 40
1.0
 10
1195.243339598984
 20
402.7955531593415
 30
0.0
 10
1195.083906916784
 20
402.7550221667415
 30
0.0
 10
1194.909260504584
 20
402.7550221667415
 30
0.0
 10
1194.749827822384
 20
402.7955531593415
 30
0.0
  0
SPLINE
  5
A5C
330
1F
100
AcDbEntity
  8
BEZUGSACHSEN
  6
Continuous
 62
     3
100
AcDbSpline
210
0.0
220
0.0
230
1.0
 70
     8
 71
     3
 72
    21
 73
    17
 74
     0
 42
0.000000001
 43
0.0000000001
 40
0.0
 40
0.0
 40
0.0
 40
0.0
 40
0.070664155
 40
0.1402658048
 40
0.2033927929
 40
0.2539983079
 40
0.304663601
 40
0.3632550177
 40
0.5001306548
 40
0.6369324181
 40
0.6954707994
 40
0.7461172826000002
 40
0.796695787
 40
0.8597937514999999
 40
0.9293527953999999
 40
1.0
 40
1.0
 40
1.0
 40
1.0
 10
1306.462048641884
 20
403.2174568181415
 30
0.0
 10
1306.359917933884
 20
403.3207699587414
 30
0.0
 10
1306.134143937284
 20
403.5043970689414
 30
0.0
 10
1305.758438807484
 20
403.6947139236415
 30
0.0
 10
1305.393362461484
 20
403.7962266941415
 30
0.0
 10
1305.057885286484
 20
403.8405737192415
 30
0.0
 10
1304.730047130684
 20
403.8644352811416
 30
0.0
 10
1304.224469053384
 20
403.8863903720414
 30
0.0
 10
1303.541319149984
 20
403.8954550942414
 30
0.0
 10
1302.858278249884
 20
403.8863557862414
 30
0.0
 10
1302.353001506184
 20
403.8643815659415
 30
0.0
 10
1302.025367267784
 20
403.8404883096413
 30
0.0
 10
1301.690065215284
 20
403.7960089571416
 30
0.0
 10
1301.325192320984
 20
403.6945344913415
 30
0.0
 10
1300.949694001684
 20
403.5042133571414
 30
0.0
 10
1300.724025478184
 20
403.3206566701414
 30
0.0
 10
1300.621928474284
 20
403.2173592119415
 30
0.0
  0
SPLINE
  5
A5D
330
1F
100
AcDbEntity
  8
BEZUGSACHSEN
  6
Continuous
 62
     3
100
AcDbSpline
210
0.0
220
0.0
230
1.0
 70
     8
 71
     3
 72
    21
 73
    17
 74
     0
 42
0.000000001
 43
0.0000000001
 40
0.0
 40
0.0
 40
0.0
 40
0.0
 40
0.070664155
 40
0.1402658048
 40
0.2033927929
 40
0.2539983079
 40
0.304663601
 40
0.3632550177
 40
0.5001306548
 40
0.6369324181
 40
0.6954707994
 40
0.7461172826000002
 40
0.796695787
 40
0.8597937514999999
 40
0.9293527953999999
 40
1.0
 40
1.0
 40
1.0
 40
1.0
 10
1286.462048641884
 20
403.2174568181415
 30
0.0
 10
1286.359917933884
 20
403.3207699587414
 30
0.0
 10
1286.134143937284
 20
403.5043970689414
 30
0.0
 10
1285.758438807484
 20
403.6947139236415
 30
0.0
 10
1285.393362461484
 20
403.7962266941415
 30
0.0
 10
1285.057885286484
 20
403.8405737192415
 30
0.0
 10
1284.730047130684
 20
403.8644352811416
 30
0.0
 10
1284.224469053384
 20
403.8863903720414
 30
0.0
 10
1283.541319149984
 20
403.8954550942414
 30
0.0
 10
1282.858278249884
 20
403.8863557862414
 30
0.0
 10
1282.353001506184
 20
403.8643815659415
 30
0.0
 10
1282.025367267784
 20
403.8404883096413
 30
0.0
 10
1281.690065215284
 20
403.7960089571416
 30
0.0
 10
1281.325192320984
 20
403.6945344913415
 30
0.0
 10
1280.949694001684
 20
403.5042133571414
 30
0.0
 10
1280.724025478184
 20
403.3206566701414
 30
0.0
 10
1280.621928474284
 20
403.2173592119415
 30
0.0
  0
SPLINE
  5
A5E
330
1F
100
AcDbEntity
  8
0
  6
Continuous
 62
     3
100
AcDbSpline
210
0.0
220
0.0
230
1.0
 70
     8
 71
     3
 72
    11
 73
     7
 74
     0
 42
0.000000001
 43
0.0000000001
 40
0.0
 40
0.0
 40
0.0
 40
0.0
 40
0.248388576
 40
0.4987983677
 40
0.7495623548000001
 40
1.0
 40
1.0
 40
1.0
 40
1.0
 10
144.3920382561841
 20
422.6316994597413
 30
0.0
 10
144.4144267406841
 20
422.6316994597413
 30
0.0
 10
144.4594713028841
 20
422.6134761651414
 30
0.0
 10
144.5033441674841
 20
422.5603354491413
 30
0.0
 10
144.5296385815841
 20
422.4971997367415
 30
0.0
 10
144.5381712664841
 20
422.4525283544414
 30
0.0
 10
144.5403579826841
 20
422.4300613429413
 30
0.0
  0
SPLINE
  5
A5F
330
1F
100
AcDbEntity
  8
0
  6
Continuous
 62
     3
100
AcDbSpline
210
0.0
220
0.0
230
1.0
 70
     8
 71
     3
 72
    11
 73
     7
 74
     0
 42
0.000000001
 43
0.0000000001
 40
0.0
 40
0.0
 40
0.0
 40
0.0
 40
0.248388576
 40
0.4987983677
 40
0.7495623548000001
 40
1.0
 40
1.0
 40
1.0
 40
1.0
 10
1324.692038256184
 20
422.6316994597413
 30
0.0
 10
1324.669649771584
 20
422.6316994597413
 30
0.0
 10
1324.624605209484
 20
422.6134761651414
 30
0.0
 10
1324.580732344784
 20
422.5603354491413
 30
0.0
 10
1324.554437930784
 20
422.4971997367415
 30
0.0
 10
1324.545905245884
 20
422.4525283544414
 30
0.0
 10
1324.543718529684
 20
422.4300613429413
 30
0.0
  0
SPLINE
  5
A60
330
1F
100
AcDbEntity
  8
RUNDUNGEN
  6
Continuous
 62
     9
100
AcDbSpline
210
0.0
220
0.0
230
1.0
 70
     8
 71
     3
 72
    25
 73
    21
 74
     0
 42
0.000000001
 43
0.0000000001
 40
0.0
 40
0.0
 40
0.0
 40
0.0
 40
0.0030838934
 40
0.0051795302
 40
0.0077505134
 40
0.0144545416
 40
0.0233521318
 40
0.0344877309
 40
0.0478676779
 40
0.0634786211
 40
0.0812956115
 40
0.1234003618
 40
0.1738237466
 40
0.2321091546
 40
0.2977164326
 40
0.3700303308
 40
0.4483677901
 40
0.6200852321000001
 40
0.8063357015999999
 40
1.0
 40
1.0
 40
1.0
 40
1.0
 10
837.5418239810842
 20
403.6129968587415
 30
0.0
 10
837.5397625331842
 20
403.6439448170415
 30
0.0
 10
837.5095408513843
 20
403.6925792257416
 30
0.0
 10
837.4499413146841
 20
403.7418977502416
 30
0.0
 10
837.3521831554844
 20
403.8024236076414
 30
0.0
 10
837.1830591347842
 20
403.8732432806414
 30
0.0
 10
836.9261530857842
 20
403.9532855702414
 30
0.0
 10
836.599475331884
 20
404.0328525317413
 30
0.0
 10
836.2036600243841
 20
404.1119656183414
 30
0.0
 10
835.7393626006842
 20
404.1901432141414
 30
0.0
 10
834.9874681883843
 20
404.2989431776414
 30
0.0
 10
833.8848969582841
 20
404.4271217395414
 30
0.0
 10
832.374478036384
 20
404.5671687863414
 30
0.0
 10
830.6261495560843
 20
404.6987545307415
 30
0.0
 10
828.6564983943843
 20
404.8204957663415
 30
0.0
 10
826.4842314746843
 20
404.9310426384413
 30
0.0
 10
823.2447557199842
 20
405.0660876296415
 30
0.0
 10
818.8583183455842
 20
405.1956536215413
 30
0.0
 10
813.3109008991841
 20
405.2891622921415
 30
0.0
 10
809.4898346108843
 20
405.3100797214415
 30
0.0
 10
807.5420382561842
 20
405.3100818096413
 30
0.0
  0
SPLINE
  5
A61
330
1F
100
AcDbEntity
  8
RUNDUNGEN
  6
Continuous
 62
     9
100
AcDbSpline
210
0.0
220
0.0
230
1.0
 70
     8
 71
     3
 72
    24
 73
    20
 74
     0
 42
0.000000001
 43
0.0000000001
 40
0.0
 40
0.0
 40
0.0
 40
0.0
 40
0.1939599812
 40
0.3804578957
 40
0.5523317126000002
 40
0.7030142774
 40
0.7685855662000001
 40
0.8267988754999999
 40
0.8771150458999999
 40
0.9190805676
 40
0.9368179730999999
 40
0.9523443628
 40
0.9656369575999999
 40
0.9766859133
 40
0.9855037987000001
 40
0.9921476978999999
 40
0.9947048742999999
 40
0.9968059356999999
 40
1.0
 40
1.0
 40
1.0
 40
1.0
 10
661.542189040384
 20
403.3132988649413
 30
0.0
 10
659.7196934655841
 20
403.3132976505414
 30
0.0
 10
656.1447810623842
 20
403.2922551572414
 30
0.0
 10
650.9556415897841
 20
403.1983971887414
 30
0.0
 10
646.1747085878841
 20
403.0463439869413
 30
0.0
 10
642.531743169984
 20
402.8701797968414
 30
0.0
 10
639.958391611784
 20
402.6991911781415
 30
0.0
 10
638.3277618511843
 20
402.5670614778414
 30
0.0
 10
636.9205945479841
 20
402.4264938264414
 30
0.0
 10
635.8946546981842
 20
402.2978344745415
 30
0.0
 10
635.1962163058843
 20
402.1886201742413
 30
0.0
 10
634.7657826921841
 20
402.1101865371415
 30
0.0
 10
634.3996032694843
 20
402.0308305480414
 30
0.0
 10
634.0982159819841
 20
401.9510067182413
 30
0.0
 10
633.8622391333842
 20
401.8707315376413
 30
0.0
 10
633.7078079388841
 20
401.7995499793414
 30
0.0
 10
633.6199848531841
 20
401.7388654115413
 30
0.0
 10
633.5663920340842
 20
401.6886522779413
 30
0.0
 10
633.542038008884
 20
401.6397872269415
 30
0.0
 10
633.5420382561842
 20
401.6097750147414
 30
0.0
  0
SPLINE
  5
A62
330
1F
100
AcDbEntity
  8
RUNDUNGEN
  6
Continuous
 62
     9
100
AcDbSpline
210
0.0
220
0.0
230
1.0
 70
     8
 71
     3
 72
    24
 73
    20
 74
     0
 42
0.000000001
 43
0.0000000001
 40
0.0
 40
0.0
 40
0.0
 40
0.0
 40
0.0031940693
 40
0.0052951249
 40
0.0078522956
 40
0.0144961944
 40
0.0233140825
 40
0.0343630367
 40
0.0476556298
 40
0.0631820184
 40
0.0809194225
 40
0.1228849408
 40
0.1732011076
 40
0.2314144132
 40
0.2969856991
 40
0.4476682606000001
 40
0.6195420827
 40
0.8060400140999998
 40
1.0
 40
1.0
 40
1.0
 40
1.0
 10
835.5420382561842
 20
401.6097750147414
 30
0.0
 10
835.542038008884
 20
401.6397872581414
 30
0.0
 10
835.5176841969841
 20
401.6886520676414
 30
0.0
 10
835.4640915962841
 20
401.7388653930415
 30
0.0
 10
835.3762687344842
 20
401.7995499660414
 30
0.0
 10
835.2218376071842
 20
401.8707314399414
 30
0.0
 10
834.985860887884
 20
401.9510065815413
 30
0.0
 10
834.6844737673841
 20
402.0308304073414
 30
0.0
 10
834.3182945810839
 20
402.1101863749413
 30
0.0
 10
833.887861234084
 20
402.1886199880413
 30
0.0
 10
833.1894232648842
 20
402.2978342619414
 30
0.0
 10
832.1634840320839
 20
402.4264935850415
 30
0.0
 10
830.7563175648843
 20
402.5670612099416
 30
0.0
 10
829.125688751184
 20
402.6991908921413
 30
0.0
 10
826.5523386271841
 20
402.8701795002413
 30
0.0
 10
822.9093751144841
 20
403.0463437031414
 30
0.0
 10
818.128444421384
 20
403.1983969722414
 30
0.0
 10
812.9393073930842
 20
403.2922550055413
 30
0.0
 10
809.3643966424842
 20
403.3132977289414
 30
0.0
 10
807.5419019692843
 20
403.3132988267413
 30
0.0
  0
SPLINE
  5
A63
330
1F
100
AcDbEntity
  8
RUNDUNGEN
  6
Continuous
 62
     9
100
AcDbSpline
210
0.0
220
0.0
230
1.0
 70
     8
 71
     3
 72
    25
 73
    21
 74
     0
 42
0.000000001
 43
0.0000000001
 40
0.0
 40
0.0
 40
0.0
 40
0.0
 40
0.1936643122
 40
0.3799147768
 40
0.5516322137
 40
0.6299696716
 40
0.7022835678
 40
0.7678908441
 40
0.8261762511
 40
0.8765996351
 40
0.918704385
 40
0.9365213751
 40
0.9521323179999999
 40
0.9655122659999999
 40
0.9766478659
 40
0.9855454519
 40
0.9922494805999999
 40
0.9948204712999999
 40
0.9969161156999998
 40
1.0
 40
1.0
 40
1.0
 40
1.0
 10
661.5420382561842
 20
405.3100818096413
 30
0.0
 10
659.5942417448841
 20
405.3100794266415
 30
0.0
 10
655.7731753324842
 20
405.2891623549414
 30
0.0
 10
650.2257577971843
 20
405.1956535664414
 30
0.0
 10
645.839320497284
 20
405.0660876025415
 30
0.0
 10
642.5998447991842
 20
404.9310426102415
 30
0.0
 10
640.4275779102841
 20
404.8204957402415
 30
0.0
 10
638.4579267783842
 20
404.6987545065414
 30
0.0
 10
636.7095983173842
 20
404.5671687645414
 30
0.0
 10
635.1991794039843
 20
404.4271217193413
 30
0.0
 10
634.0966081779843
 20
404.2989431606415
 30
0.0
 10
633.3447137679843
 20
404.1901431999413
 30
0.0
 10
632.8804163375841
 20
404.1119655994414
 30
0.0
 10
632.484601008984
 20
404.0328525153413
 30
0.0
 10
632.1579232755841
 20
403.9532855890415
 30
0.0
 10
631.9010172418841
 20
403.8732432622414
 30
0.0
 10
631.7318932625844
 20
403.8024234959413
 30
0.0
 10
631.6341348425844
 20
403.7418976978415
 30
0.0
 10
631.5745350908842
 20
403.6925795399415
 30
0.0
 10
631.5443130980843
 20
403.6439447772413
 30
0.0
 10
631.5422525255842
 20
403.6129968519414
 30
0.0
  0
SPLINE
  5
A64
330
1F
100
AcDbEntity
  8
0
  6
Continuous
 62
     9
100
AcDbSpline
210
0.0
220
0.0
230
1.0
 70
     8
 71
     3
 72
    15
 73
    11
 74
     0
 42
0.000000001
 43
0.0000000001
 40
0.0
 40
0.0
 40
0.0
 40
0.0
 40
0.1165875701
 40
0.2405244673
 40
0.369084355
 40
0.4999984988000001
 40
0.6309127022
 40
0.7594683662000002
 40
0.8834072828
 40
1.0
 40
1.0
 40
1.0
 40
1.0
 10
721.7626118666844
 20
186.2944972276414
 30
0.0
 10
722.7379058094843
 20
186.6008335685414
 30
0.0
 10
724.7392772303842
 20
187.2659479145413
 30
0.0
 10
727.8325287050843
 20
188.2200002902414
 30
0.0
 10
731.116062300784
 20
188.9692895042415
 30
0.0
 10
734.5417686535843
 20
189.2665240304413
 30
0.0
 10
737.9674492377839
 20
188.9693962638414
 30
0.0
 10
741.2509770993843
 20
188.2201607236416
 30
0.0
 10
744.3442613755841
 20
187.2661262017413
 30
0.0
 10
746.3456941086842
 20
186.6009976892414
 30
0.0
 10
747.3210268391842
 20
186.2946342334414
 30
0.0
  0
SPLINE
  5
A65
330
1F
100
AcDbEntity
  8
0
  6
Continuous
 62
     9
100
AcDbSpline
210
0.0
220
0.0
230
1.0
 70
     8
 71
     3
 72
    13
 73
     9
 74
     0
 42
0.000000001
 43
0.0000000001
 40
0.0
 40
0.0
 40
0.0
 40
0.0
 40
0.245598235
 40
0.3721970652
 40
0.5000019422
 40
0.6278059287
 40
0.7544031820999999
 40
1.0
 40
1.0
 40
1.0
 40
1.0
 10
727.3262941977841
 20
186.2965168276414
 30
0.0
 10
728.460756547784
 20
186.7347609031414
 30
0.0
 10
730.2115053891843
 20
187.3341957502414
 30
0.0
 10
732.647445339284
 20
187.8035538094414
 30
0.0
 10
734.5413369487841
 20
187.9317415159414
 30
0.0
 10
736.435235035984
 20
187.8037727946414
 30
0.0
 10
738.8712084274841
 20
187.3346453107415
 30
0.0
 10
740.6219263170842
 20
186.7351679416415
 30
0.0
 10
741.7564318649843
 20
186.2970551851415
 30
0.0
  0
LINE
  5
A66
330
1F
100
AcDbEntity
  8
RUNDUNGEN
  6
Continuous
 62
     7
100
AcDbLine
 10
634.542038280384
 20
213.2955822046415
 30
0.0
 11
633.6646475717842
 21
213.2955806496416
 31
0.0
  0
LINE
  5
A67
330
1F
100
AcDbEntity
  8
RUNDUNGEN
  6
Continuous
 62
     7
100
AcDbLine
 10
633.6646475717842
 20
213.2955806496416
 30
0.0
 11
633.4917605940841
 21
213.2955808423414
 31
0.0
  0
LINE
  5
A68
330
1F
100
AcDbEntity
  8
RUNDUNGEN
  6
Continuous
 62
     7
100
AcDbLine
 10
633.4917605940841
 20
213.2955808423414
 30
0.0
 11
631.5425203708842
 21
213.2955822031415
 31
0.0
  0
LINE
  5
A69
330
1F
100
AcDbEntity
  8
RUNDUNGEN
  6
Continuous
 62
     7
100
AcDbLine
 10
834.5420382319844
 20
213.2955822046415
 30
0.0
 11
835.4194289405841
 21
213.2955837596414
 31
0.0
  0
LINE
  5
A6A
330
1F
100
AcDbEntity
  8
RUNDUNGEN
  6
Continuous
 62
     7
100
AcDbLine
 10
835.4194289405841
 20
213.2955837596414
 30
0.0
 11
835.5923159181838
 21
213.2955835669413
 31
0.0
  0
LINE
  5
A6B
330
1F
100
AcDbEntity
  8
RUNDUNGEN
  6
Continuous
 62
     7
100
AcDbLine
 10
835.5923159181838
 20
213.2955835669413
 30
0.0
 11
837.5415561414843
 21
213.2955822061415
 31
0.0
  0
DIMENSION
  5
A6C
330
1F
100
AcDbEntity
  8
P-0000
  6
Continuous
100
AcDbDimension
280
     0
  2
*D15
 10
66.8891873998387
 20
354.4316994597418
 30
0.0
 11
66.88918739983865
 21
402.1098721323967
 31
0.0
 70
   160
 71
     2
 42
97.19999999999965
 73
     0
 74
     0
 75
     0
  3
883N99122_001_00149479900
100
AcDbAlignedDimension
 13
122.0420382561842
 23
451.6316994597413
 33
0.0
 14
684.6119383554341
 24
354.4316994597416
 34
0.0
 50
270.0
100
AcDbRotatedDimension
1001
ACAD_DSTYLE_DIMINSPECT
1070
   396
1000
100%
1070
   395
1000

1070
   394
1070
    33
1070
   393
1070
     0
1001
ACAD
1000
DSTYLE
1002
{
1070
   271
1070
     0
1070
   288
1070
     1
1002
}
  0
DIMENSION
  5
A6D
330
1F
100
AcDbEntity
  8
P-0000
  6
Continuous
100
AcDbDimension
280
     0
  2
*D16
 10
92.41533993520468
 20
181.2078586172415
 30
0.0
 11
92.41533993520466
 21
214.6407061856012
 31
0.0
 70
   160
  1
<>
 71
     2
 42
64.08772358739998
 73
     0
 74
     0
 75
     0
  3
883N99122_001_00149479900
100
AcDbAlignedDimension
 13
145.0420382561842
 23
245.2955822046415
 33
0.0
 14
145.0420382561842
 24
181.2078586172415
 34
0.0
 50
270.0
100
AcDbRotatedDimension
1001
ACAD_DSTYLE_DIMINSPECT
1070
   396
1000
100%
1070
   395
1000

1070
   394
1070
    33
1070
   393
1070
     0
1001
ACAD
1000
DSTYLE
1002
{
1070
   271
1070
     0
1070
   288
1070
     1
1002
}
  0
DIMENSION
  5
A6E
330
1F
100
AcDbEntity
  8
P-0000
  6
Continuous
100
AcDbDimension
280
     0
  2
*D17
 10
67.80871354230296
 20
147.2955822046415
 30
0.0
 11
67.80871354230294
 21
207.9825690553689
 31
0.0
 70
   160
  1
<>
 71
     2
 42
111.9999999999999
 73
     0
 74
     0
 75
     0
  3
883N99122_001_00149479900
100
AcDbAlignedDimension
 13
112.5420382561842
 23
259.2955822046415
 33
0.0
 14
133.7920382561842
 24
147.2955822046415
 34
0.0
 50
270.0
100
AcDbRotatedDimension
1001
ACAD_DSTYLE_DIMINSPECT
1070
   396
1000
100%
1070
   395
1000

1070
   394
1070
    33
1070
   393
1070
     0
1001
ACAD
1000
DSTYLE
1002
{
1070
   271
1070
     0
1070
   288
1070
     1
1002
}
  0
DIMENSION
  5
A6F
330
1F
100
AcDbEntity
  8
P-0000
  6
Continuous
100
AcDbDimension
280
     0
  2
*D18
 10
91.50543517823969
 20
421.6316994597415
 30
0.0
 11
91.50543517823962
 21
434.8772699801379
 31
0.0
 70
   160
 71
     2
 42
29.99999999999995
 73
     0
 74
     0
 75
     0
  3
883N99122_001_00149479900
100
AcDbAlignedDimension
 13
122.0420382561842
 23
451.6316994597413
 33
0.0
 14
143.5420382561842
 24
421.6316994597414
 34
0.0
 50
270.0
100
AcDbRotatedDimension
1001
ACAD_DSTYLE_DIMINSPECT
1070
   396
1000
100%
1070
   395
1000

1070
   394
1070
    33
1070
   393
1070
     0
1001
ACAD
1000
DSTYLE
1002
{
1070
   271
1070
     0
1070
   288
1070
     1
1002
}
  0
DIMENSION
  5
A70
102
{ACAD_XDICTIONARY
360
A71
102
}
102
{ACAD_REACTORS
330
A72
102
}
330
1F
100
AcDbEntity
  8
P-0000
  6
Continuous
100
AcDbDimension
280
     0
  2
*D20
 10
1324.542038256184
 20
476.7746029912735
 30
0.0
 11
734.5420382561842
 21
484.2746029912734
 31
0.0
 70
    32
  1
<>
 71
     5
 42
1180.0
 73
     0
 74
     0
 75
     0
  3
883N99122_001_00149479900
100
AcDbAlignedDimension
 13
144.5420382561842
 23
414.3816994597414
 33
0.0
 14
1324.542038256184
 24
415.6316994597414
 34
0.0
100
AcDbRotatedDimension
1001
ACAD
1000
DSTYLE
1002
{
1070
   271
1070
     0
1070
   288
1070
     1
1002
}
1001
ACAD_DSTYLE_DIMINSPECT
1070
   396
1000
100%
1070
   395
1000

1070
   394
1070
    33
1070
   393
1070
     0
  0
DIMENSION
  5
A73
330
1F
100
AcDbEntity
  8
P-0000
  6
Continuous
100
AcDbDimension
280
     0
  2
*D19
 10
142.5420382561842
 20
490.6129529221089
 30
0.0
 11
734.5420382561842
 21
498.1129529221089
 31
0.0
 70
    32
 71
     5
 42
1184.0
 73
     0
 74
     0
 75
     0
  3
883N99122_001_00149479900
100
AcDbAlignedDimension
 13
1326.542038256184
 23
415.1316994597413
 33
0.0
 14
142.5420382561842
 24
420.6316994597414
 34
0.0
100
AcDbRotatedDimension
1001
ACAD
1000
DSTYLE
1002
{
1070
   271
1070
     0
1070
   288
1070
     1
1002
}
1001
ACAD_DSTYLE_DIMINSPECT
1070
   396
1000
100%
1070
   395
1000

1070
   394
1070
    33
1070
   393
1070
     0
  0
DIMENSION
  5
A74
102
{ACAD_XDICTIONARY
360
A75
102
}
102
{ACAD_REACTORS
330
A76
102
}
330
1F
100
AcDbEntity
  8
P-0000
  6
Continuous
100
AcDbDimension
280
     0
  2
*D21
 10
112.0420382561842
 20
504.4513049559604
 30
0.0
 11
734.5420382561842
 21
511.9519939323384
 31
0.0
 70
    32
 71
     5
 42
1245.0
 73
     0
 74
     0
 75
     0
  3
883N99122_001_00149479900
100
AcDbAlignedDimension
 13
1357.042038256184
 23
425.6316994597414
 33
0.0
 14
112.0420382561842
 24
425.6316994597414
 34
0.0
100
AcDbRotatedDimension
1001
ACAD
1000
DSTYLE
1002
{
1070
   271
1070
     0
1070
   288
1070
     1
1002
}
1001
ACAD_DSTYLE_DIMINSPECT
1070
   396
1000
100%
1070
   395
1000

1070
   394
1070
    33
1070
   393
1070
     0
  0
ENDSEC
  0
SECTION
  2
OBJECTS
  0
DICTIONARY
  5
C
330
0
100
AcDbDictionary
281
     1
  3
ACAD_CIP_PREVIOUS_PRODUCT_INFO
350
5FA
  3
ACAD_COLOR
350
BE
  3
ACAD_DETAILVIEWSTYLE
350
5EF
  3
ACAD_FIELDLIST
350
612
  3
ACAD_GROUP
350
D
  3
ACAD_LAYOUT
350
1A
  3
ACAD_MATERIAL
350
BD
  3
ACAD_MLEADERSTYLE
350
3EF
  3
ACAD_MLINESTYLE
350
17
  3
ACAD_PLOTSETTINGS
350
19
  3
ACAD_PLOTSTYLENAME
350
E
  3
ACAD_SCALELIST
350
3DD
  3
ACAD_SECTIONVIEWSTYLE
350
5ED
  3
ACAD_TABLESTYLE
350
11A
  3
ACAD_VISUALSTYLE
350
3CC
  3
ACDB_RECOMPOSE_DATA
350
B01
  3
AcDbVariableDictionary
350
94
  3
AcDsDecomposeData
350
B07
  3
AcmDictionary
350
5B
  3
AMG
350
41
  3
AMGSNAPSETTINGS
350
26B
  0
DICTIONARY
  5
5DD
330
2
100
AcDbDictionary
280
     1
281
     1
  3
ACAD_LAYERSTATES
360
5DE
  0
DICTIONARY
  5
AF8
330
10
100
AcDbDictionary
280
     1
281
     1
  3
ADSK_XREC_LAYER_RECONCILED
360
AF9
  0
DICTIONARY
  5
6B2
330
6B1
100
AcDbDictionary
280
     1
281
     1
  3
ADSK_XREC_LAYER_RECONCILED
360
AFA
  0
DICTIONARY
  5
6B4
330
6B3
100
AcDbDictionary
280
     1
281
     1
  3
ADSK_XREC_LAYER_RECONCILED
360
AFB
  0
DICTIONARY
  5
6B6
330
6B5
100
AcDbDictionary
280
     1
281
     1
  3
ADSK_XREC_LAYER_RECONCILED
360
AFC
  0
DICTIONARY
  5
6B8
330
6B7
100
AcDbDictionary
280
     1
281
     1
  3
ADSK_XREC_LAYER_RECONCILED
360
AFD
  0
DICTIONARY
  5
6BA
330
6B9
100
AcDbDictionary
280
     1
281
     1
  3
ADSK_XREC_LAYER_RECONCILED
360
AFE
  0
DICTIONARY
  5
6BD
330
6BC
100
AcDbDictionary
280
     1
281
     1
  3
ADSK_XREC_LAYER_RECONCILED
360
AFF
  0
DICTIONARY
  5
8F
330
1F
100
AcDbDictionary
280
     1
281
     1
  0
DICTIONARY
  5
A71
330
A70
100
AcDbDictionary
280
     1
281
     1
  3
ACAD_DIMASSOC
360
A72
  0
DICTIONARY
  5
A75
330
A74
100
AcDbDictionary
280
     1
281
     1
  3
ACAD_DIMASSOC
360
A76
  0
XRECORD
  5
5FA
102
{ACAD_REACTORS
330
C
102
}
330
C
100
AcDbXrecord
280
     1
300
AMECH_PP
300
2014
300
86138AMECH_PP_2014_0F
  0
DICTIONARY
  5
BE
102
{ACAD_REACTORS
330
C
102
}
330
C
100
AcDbDictionary
281
     1
  0
DICTIONARY
  5
5EF
102
{ACAD_REACTORS
330
C
102
}
330
C
100
AcDbDictionary
281
     1
  3
Metric50
350
5F0
  0
FIELDLIST
  5
612
102
{ACAD_REACTORS
330
C
102
}
330
C
100
AcDbIdSet
 90
       12
330
610
330
611
330
613
330
617
330
618
330
619
330
621
330
622
330
623
330
6C6
330
6C7
330
6C8
100
AcDbFieldList
  0
DICTIONARY
  5
D
102
{ACAD_REACTORS
330
C
102
}
330
C
100
AcDbDictionary
281
     1
  0
DICTIONARY
  5
1A
102
{ACAD_REACTORS
330
C
102
}
330
C
100
AcDbDictionary
281
     1
  3
Layout1
350
1E
  3
Layout2
350
26
  3
Model
350
22
  0
DICTIONARY
  5
BD
102
{ACAD_REACTORS
330
C
102
}
330
C
100
AcDbDictionary
281
     1
  3
ByBlock
350
3BC
  3
ByLayer
350
3B4
  3
Global
350
3C4
  0
DICTIONARY
  5
3EF
102
{ACAD_REACTORS
330
C
102
}
330
C
100
AcDbDictionary
281
     1
  3
Standard
350
3F0
  0
DICTIONARY
  5
17
102
{ACAD_REACTORS
330
C
102
}
330
C
100
AcDbDictionary
281
     1
  3
Standard
350
18
  0
DICTIONARY
  5
19
102
{ACAD_REACTORS
330
C
102
}
330
C
100
AcDbDictionary
281
     1
  0
ACDBDICTIONARYWDFLT
  5
E
102
{ACAD_REACTORS
330
C
102
}
330
C
100
AcDbDictionary
281
     1
  3
Normal
350
F
100
AcDbDictionaryWithDefault
340
F
  0
DICTIONARY
  5
3DD
102
{ACAD_REACTORS
330
C
102
}
330
C
100
AcDbDictionary
281
     1
  3
A0
350
3DE
  3
A1
350
3DF
  3
A2
350
3E0
  3
A3
350
3E1
  3
A4
350
3E2
  3
A5
350
3E3
  3
A6
350
3E4
  3
A7
350
3E5
  3
A8
350
3E6
  3
A9
350
3E7
  3
B0
350
3E8
  3
B1
350
3E9
  3
B2
350
3EA
  3
B3
350
3EB
  3
B4
350
3EC
  3
B5
350
3ED
  3
B6
350
3EE
  0
DICTIONARY
  5
5ED
102
{ACAD_REACTORS
330
C
102
}
330
C
100
AcDbDictionary
281
     1
  3
ISO 128-40_2001(E)
350
6C3
  3
Metric50
350
5EE
  0
DICTIONARY
  5
11A
102
{ACAD_REACTORS
330
C
102
}
330
C
100
AcDbDictionary
281
     1
  3
Standard
350
11B
  0
DICTIONARY
  5
3CC
102
{ACAD_REACTORS
330
C
102
}
330
C
100
AcDbDictionary
281
     1
  3
2dWireframe
350
3D2
  3
3D Hidden
350
3D4
  3
3dWireframe
350
3D3
  3
Basic
350
3D1
  3
Brighten
350
3D8
  3
ColorChange
350
3DC
  3
Conceptual
350
3D5
  3
Dim
350
3D7
  3
EdgeColorOff
350
5A4
  3
Facepattern
350
3DB
  3
Flat
350
3CD
  3
FlatWithEdges
350
3CE
  3
Gouraud
350
3CF
  3
GouraudWithEdges
350
3D0
  3
Hidden
350
5E7
  3
JitterOff
350
5A2
  3
Linepattern
350
3DA
  3
OverhangOff
350
5A3
  3
Realistic
350
3D6
  3
Shaded
350
5EC
  3
Shaded with edges
350
5EB
  3
Shades of Gray
350
5E8
  3
Sketchy
350
5E9
  3
Thicken
350
3D9
  3
Wireframe
350
5E6
  3
X-Ray
350
5EA
  0
XRECORD
  5
B01
102
{ACAD_REACTORS
330
C
102
}
330
C
100
AcDbXrecord
280
     1
 90
        1
330
11B
  0
DICTIONARY
  5
94
102
{ACAD_REACTORS
330
C
102
}
330
C
100
AcDbDictionary
281
     1
  3
CANNOSCALE
350
420
  3
CMLEADERSTYLE
350
41E
  3
CTABLESTYLE
350
138
  3
CVIEWDETAILSTYLE
350
63B
  3
CVIEWSECTIONSTYLE
350
63C
  3
DIMASSOC
350
96
  3
INDEXCTL
350
95
  3
LAYEREVAL
350
422
  3
LAYERNOTIFY
350
423
  3
LIGHTINGUNITS
350
421
  3
MSLTSCALE
350
41F
  0
DICTIONARY
  5
B07
102
{ACAD_REACTORS
330
C
102
}
330
C
100
AcDbDictionary
281
     1
  3
AcDsRecords
350
B09
  3
AcDsSchemas
350
B08
1001
ACAD
1070
     2
  0
DICTIONARY
  5
5B
102
{ACAD_REACTORS
330
C
102
}
330
C
100
AcDbDictionary
281
     1
  3
AcmBOM
350
272
  3
AcmStdDictionary
350
61
  3
AMDTSECTSYM_ARROWCOLOR
350
123
  0
DICTIONARY
  5
41
102
{ACAD_REACTORS
330
C
102
}
330
C
100
AcDbDictionary
281
     1
  0
DICTIONARY
  5
26B
102
{ACAD_REACTORS
330
C
102
}
330
C
100
AcDbDictionary
281
     1
  0
DICTIONARY
  5
5DE
102
{ACAD_REACTORS
330
5DD
102
}
330
5DD
100
AcDbDictionary
281
     1
  0
XRECORD
  5
AF9
102
{ACAD_REACTORS
330
AF8
102
}
330
AF8
100
AcDbXrecord
280
     1
290
     1
  0
XRECORD
  5
AFA
102
{ACAD_REACTORS
330
6B2
102
}
330
6B2
100
AcDbXrecord
280
     1
290
     1
  0
XRECORD
  5
AFB
102
{ACAD_REACTORS
330
6B4
102
}
330
6B4
100
AcDbXrecord
280
     1
290
     1
  0
XRECORD
  5
AFC
102
{ACAD_REACTORS
330
6B6
102
}
330
6B6
100
AcDbXrecord
280
     1
290
     1
  0
XRECORD
  5
AFD
102
{ACAD_REACTORS
330
6B8
102
}
330
6B8
100
AcDbXrecord
280
     1
290
     1
  0
XRECORD
  5
AFE
102
{ACAD_REACTORS
330
6BA
102
}
330
6BA
100
AcDbXrecord
280
     1
290
     1
  0
XRECORD
  5
AFF
102
{ACAD_REACTORS
330
6BD
102
}
330
6BD
100
AcDbXrecord
280
     1
290
     1
  0
DIMASSOC
  5
A72
102
{ACAD_REACTORS
330
A71
102
}
330
A71
100
AcDbDimAssoc
330
A70
 90
        3
 70
     0
 71
     0
  1
AcDbOsnapPointRef
 72
     2
331
8AC
 73
     0
 91
        0
 40
0.0
 10
0.0
 20
0.0
 30
0.0
 75
     0
  1
AcDbOsnapPointRef
 72
     2
331
98A
 73
     0
 91
        0
 40
0.0
 10
0.0
 20
0.0
 30
0.0
 75
     0
  0
DIMASSOC
  5
A76
102
{ACAD_REACTORS
330
A75
102
}
330
A75
100
AcDbDimAssoc
330
A74
 90
        3
 70
     0
 71
     0
  1
AcDbOsnapPointRef
 72
     2
331
991
 73
     0
 91
        0
 40
0.0
 10
0.0
 20
0.0
 30
0.0
 75
     0
  1
AcDbOsnapPointRef
 72
     2
331
8A6
 73
     0
 91
        0
 40
0.0
 10
0.0
 20
0.0
 30
0.0
 75
     0
  0
ACDBDETAILVIEWSTYLE
  5
5F0
102
{ACAD_XDICTIONARY
360
633
102
}
102
{ACAD_REACTORS
330
5EF
330
605
330
607
102
}
330
5EF
100
AcDbModelDocViewStyle
 70
     0
  3
Metric50
290
     0
100
AcDbDetailViewStyle
 70
     0
 71
     0
 90
        3
 71
     1
340
11
 62
   256
 40
5.0
340
0
 62
   256
 40
5.0
300

 40
0.0
280
     1
 71
     2
340
16
 90
       25
 62
   256
 71
     3
340
11
 62
   256
 40
5.0
 90
        0
 40
15.0
 90
        1
300
%<\AcVar ViewDetailId>% (%<\AcVar ViewScale \f "%sn">%)
 71
     4
340
16
 90
       25
 62
   256
340
16
 90
       25
 62
   256
280
     0
  0
LAYOUT
  5
1E
102
{ACAD_REACTORS
330
1A
102
}
330
1A
100
AcDbPlotSettings
  1

  2

  4

  6

 40
0.0
 41
0.0
 42
0.0
 43
0.0
 44
0.0
 45
0.0
 46
0.0
 47
0.0
 48
0.0
 49
0.0
140
0.0
141
0.0
142
1.0
143
1.0
 70
   688
 72
     0
 73
     0
 74
     5
  7

 75
    16
147
1.0
 76
     0
 77
     2
 78
   300
148
0.0
149
0.0
100
AcDbLayout
  1
Layout1
 70
     1
 71
     1
 10
0.0
 20
0.0
 11
420.0
 21
297.0
 12
0.0
 22
0.0
 32
0.0
 14
1.000000000000000E+20
 24
1.000000000000000E+20
 34
1.000000000000000E+20
 15
-1.000000000000000E+20
 25
-1.000000000000000E+20
 35
-1.000000000000000E+20
146
0.0
 13
0.0
 23
0.0
 33
0.0
 16
1.0
 26
0.0
 36
0.0
 17
0.0
 27
1.0
 37
0.0
 76
     0
330
1B
  0
LAYOUT
  5
26
102
{ACAD_REACTORS
330
1A
102
}
330
1A
100
AcDbPlotSettings
  1

  2

  4

  6

 40
0.0
 41
0.0
 42
0.0
 43
0.0
 44
0.0
 45
0.0
 46
0.0
 47
0.0
 48
0.0
 49
0.0
140
0.0
141
0.0
142
1.0
143
1.0
 70
   688
 72
     0
 73
     0
 74
     5
  7

 75
    16
147
1.0
 76
     0
 77
     2
 78
   300
148
0.0
149
0.0
100
AcDbLayout
  1
Layout2
 70
     1
 71
     2
 10
0.0
 20
0.0
 11
12.0
 21
9.0
 12
0.0
 22
0.0
 32
0.0
 14
0.0
 24
0.0
 34
0.0
 15
0.0
 25
0.0
 35
0.0
146
0.0
 13
0.0
 23
0.0
 33
0.0
 16
1.0
 26
0.0
 36
0.0
 17
0.0
 27
1.0
 37
0.0
 76
     0
330
23
  0
LAYOUT
  5
22
102
{ACAD_XDICTIONARY
360
5E3
102
}
102
{ACAD_REACTORS
330
1A
102
}
330
1A
100
AcDbPlotSettings
  1

  2

  4

  6

 40
0.0
 41
0.0
 42
0.0
 43
0.0
 44
0.0
 45
0.0
 46
0.0
 47
0.0
 48
0.0
 49
0.0
140
0.0
141
0.0
142
1.0
143
1.0
 70
  1712
 72
     0
 73
     0
 74
     0
  7

 75
     0
147
1.0
 76
     0
 77
     2
 78
   300
148
0.0
149
0.0
100
AcDbLayout
  1
Model
 70
     1
 71
     0
 10
0.0
 20
0.0
 11
12.0
 21
9.0
 12
0.0
 22
0.0
 32
0.0
 14
0.0
 24
0.0
 34
0.0
 15
0.0
 25
0.0
 35
0.0
146
0.0
 13
0.0
 23
0.0
 33
0.0
 16
1.0
 26
0.0
 36
0.0
 17
0.0
 27
1.0
 37
0.0
 76
     0
330
1F
331
3B2
  0
MATERIAL
  5
3BC
102
{ACAD_XDICTIONARY
360
3BD
102
}
102
{ACAD_REACTORS
330
BD
102
}
330
BD
100
AcDbMaterial
  1
ByBlock
 72
     0
 43
0.0008202099737533
 43
0.0
 43
0.0
 43
0.0
 43
0.0
 43
0.0008202099737533
 43
0.0
 43
0.0
 43
0.0
 43
0.0
 43
1.0
 43
0.0
 43
0.0
 43
0.0
 43
0.0
 43
1.0
 77
     0
 47
0.0008202099737533
 47
0.0
 47
0.0
 47
0.0
 47
0.0
 47
0.0008202099737533
 47
0.0
 47
0.0
 47
0.0
 47
0.0
 47
1.0
 47
0.0
 47
0.0
 47
0.0
 47
0.0
 47
1.0
171
     0
 49
0.0008202099737533
 49
0.0
 49
0.0
 49
0.0
 49
0.0
 49
0.0008202099737533
 49
0.0
 49
0.0
 49
0.0
 49
0.0
 49
1.0
 49
0.0
 49
0.0
 49
0.0
 49
0.0
 49
1.0
175
     0
142
0.0008202099737533
142
0.0
142
0.0
142
0.0
142
0.0
142
0.0008202099737533
142
0.0
142
0.0
142
0.0
142
0.0
142
1.0
142
0.0
142
0.0
142
0.0
142
0.0
142
1.0
179
     0
144
0.0008202099737533
144
0.0
144
0.0
144
0.0
144
0.0
144
0.0008202099737533
144
0.0
144
0.0
144
0.0
144
0.0
144
1.0
144
0.0
144
0.0
144
0.0
144
0.0
144
1.0
147
0.0008202099737533
147
0.0
147
0.0
147
0.0
147
0.0
147
0.0008202099737533
147
0.0
147
0.0
147
0.0
147
0.0
147
1.0
147
0.0
147
0.0
147
0.0
147
0.0
147
1.0
  0
MATERIAL
  5
3B4
102
{ACAD_XDICTIONARY
360
3B5
102
}
102
{ACAD_REACTORS
330
BD
102
}
330
BD
100
AcDbMaterial
  1
ByLayer
 72
     0
 43
0.0008202099737533
 43
0.0
 43
0.0
 43
0.0
 43
0.0
 43
0.0008202099737533
 43
0.0
 43
0.0
 43
0.0
 43
0.0
 43
1.0
 43
0.0
 43
0.0
 43
0.0
 43
0.0
 43
1.0
 77
     0
 47
0.0008202099737533
 47
0.0
 47
0.0
 47
0.0
 47
0.0
 47
0.0008202099737533
 47
0.0
 47
0.0
 47
0.0
 47
0.0
 47
1.0
 47
0.0
 47
0.0
 47
0.0
 47
0.0
 47
1.0
171
     0
 49
0.0008202099737533
 49
0.0
 49
0.0
 49
0.0
 49
0.0
 49
0.0008202099737533
 49
0.0
 49
0.0
 49
0.0
 49
0.0
 49
1.0
 49
0.0
 49
0.0
 49
0.0
 49
0.0
 49
1.0
175
     0
142
0.0008202099737533
142
0.0
142
0.0
142
0.0
142
0.0
142
0.0008202099737533
142
0.0
142
0.0
142
0.0
142
0.0
142
1.0
142
0.0
142
0.0
142
0.0
142
0.0
142
1.0
179
     0
144
0.0008202099737533
144
0.0
144
0.0
144
0.0
144
0.0
144
0.0008202099737533
144
0.0
144
0.0
144
0.0
144
0.0
144
1.0
144
0.0
144
0.0
144
0.0
144
0.0
144
1.0
147
0.0008202099737533
147
0.0
147
0.0
147
0.0
147
0.0
147
0.0008202099737533
147
0.0
147
0.0
147
0.0
147
0.0
147
1.0
147
0.0
147
0.0
147
0.0
147
0.0
147
1.0
  0
MATERIAL
  5
3C4
102
{ACAD_XDICTIONARY
360
3C5
102
}
102
{ACAD_REACTORS
330
BD
102
}
330
BD
100
AcDbMaterial
  1
Global
 72
     0
 43
0.0008202099737533
 43
0.0
 43
0.0
 43
0.0
 43
0.0
 43
0.0008202099737533
 43
0.0
 43
0.0
 43
0.0
 43
0.0
 43
1.0
 43
0.0
 43
0.0
 43
0.0
 43
0.0
 43
1.0
 77
     0
 47
0.0008202099737533
 47
0.0
 47
0.0
 47
0.0
 47
0.0
 47
0.0008202099737533
 47
0.0
 47
0.0
 47
0.0
 47
0.0
 47
1.0
 47
0.0
 47
0.0
 47
0.0
 47
0.0
 47
1.0
171
     0
 49
0.0008202099737533
 49
0.0
 49
0.0
 49
0.0
 49
0.0
 49
0.0008202099737533
 49
0.0
 49
0.0
 49
0.0
 49
0.0
 49
1.0
 49
0.0
 49
0.0
 49
0.0
 49
0.0
 49
1.0
175
     0
142
0.0008202099737533
142
0.0
142
0.0
142
0.0
142
0.0
142
0.0008202099737533
142
0.0
142
0.0
142
0.0
142
0.0
142
1.0
142
0.0
142
0.0
142
0.0
142
0.0
142
1.0
179
     0
144
0.0008202099737533
144
0.0
144
0.0
144
0.0
144
0.0
144
0.0008202099737533
144
0.0
144
0.0
144
0.0
144
0.0
144
1.0
144
0.0
144
0.0
144
0.0
144
0.0
144
1.0
147
0.0008202099737533
147
0.0
147
0.0
147
0.0
147
0.0
147
0.0008202099737533
147
0.0
147
0.0
147
0.0
147
0.0
147
1.0
147
0.0
147
0.0
147
0.0
147
0.0
147
1.0
  0
MLEADERSTYLE
  5
3F0
102
{ACAD_REACTORS
330
3EF
102
}
330
3EF
100
AcDbMLeaderStyle
179
     2
170
     2
171
     1
172
     0
 90
        2
 40
0.0
 41
0.0
173
     1
 91
-1056964608
340
14
 92
       -2
290
     1
 42
2.0
291
     1
 43
0.36
  3
Standard
 44
4.0
300

342
11
174
     1
178
     6
175
     1
176
     0
 93
-1056964608
 45
4.0
292
     0
297
     0
 46
4.0
 94
-1056964608
 47
1.0
 49
1.0
140
1.0
293
     1
141
0.0
294
     1
177
     0
142
1.0
295
     0
296
     0
143
0.125
271
     0
272
     9
273
     9
  0
MLINESTYLE
  5
18
102
{ACAD_REACTORS
330
17
102
}
330
17
100
AcDbMlineStyle
  2
STANDARD
 70
     0
  3

 62
   256
 51
90.0
 52
90.0
 71
     2
 49
0.5
 62
   256
  6
BYLAYER
 49
-0.5
 62
   256
  6
BYLAYER
  0
ACDBPLACEHOLDER
  5
F
102
{ACAD_REACTORS
330
E
102
}
330
E
  0
SCALE
  5
3DE
102
{ACAD_REACTORS
330
3DD
102
}
330
3DD
100
AcDbScale
 70
     0
300
1:1
140
1.0
141
1.0
290
     1
  0
SCALE
  5
3DF
102
{ACAD_REACTORS
330
3DD
102
}
330
3DD
100
AcDbScale
 70
     0
300
1:2
140
1.0
141
2.0
290
     0
  0
SCALE
  5
3E0
102
{ACAD_REACTORS
330
3DD
102
}
330
3DD
100
AcDbScale
 70
     0
300
1:4
140
1.0
141
4.0
290
     0
  0
SCALE
  5
3E1
102
{ACAD_REACTORS
330
3DD
102
}
330
3DD
100
AcDbScale
 70
     0
300
1:5
140
1.0
141
5.0
290
     0
  0
SCALE
  5
3E2
102
{ACAD_REACTORS
330
3DD
102
}
330
3DD
100
AcDbScale
 70
     0
300
1:8
140
1.0
141
8.0
290
     0
  0
SCALE
  5
3E3
102
{ACAD_REACTORS
330
3DD
102
}
330
3DD
100
AcDbScale
 70
     0
300
1:10
140
1.0
141
10.0
290
     0
  0
SCALE
  5
3E4
102
{ACAD_REACTORS
330
3DD
102
}
330
3DD
100
AcDbScale
 70
     0
300
1:16
140
1.0
141
16.0
290
     0
  0
SCALE
  5
3E5
102
{ACAD_REACTORS
330
3DD
102
}
330
3DD
100
AcDbScale
 70
     0
300
1:20
140
1.0
141
20.0
290
     0
  0
SCALE
  5
3E6
102
{ACAD_REACTORS
330
3DD
102
}
330
3DD
100
AcDbScale
 70
     0
300
1:30
140
1.0
141
30.0
290
     0
  0
SCALE
  5
3E7
102
{ACAD_REACTORS
330
3DD
102
}
330
3DD
100
AcDbScale
 70
     0
300
1:40
140
1.0
141
40.0
290
     0
  0
SCALE
  5
3E8
102
{ACAD_REACTORS
330
3DD
102
}
330
3DD
100
AcDbScale
 70
     0
300
1:50
140
1.0
141
50.0
290
     0
  0
SCALE
  5
3E9
102
{ACAD_REACTORS
330
3DD
102
}
330
3DD
100
AcDbScale
 70
     0
300
1:100
140
1.0
141
100.0
290
     0
  0
SCALE
  5
3EA
102
{ACAD_REACTORS
330
3DD
102
}
330
3DD
100
AcDbScale
 70
     0
300
2:1
140
2.0
141
1.0
290
     0
  0
SCALE
  5
3EB
102
{ACAD_REACTORS
330
3DD
102
}
330
3DD
100
AcDbScale
 70
     0
300
4:1
140
4.0
141
1.0
290
     0
  0
SCALE
  5
3EC
102
{ACAD_REACTORS
330
3DD
102
}
330
3DD
100
AcDbScale
 70
     0
300
8:1
140
8.0
141
1.0
290
     0
  0
SCALE
  5
3ED
102
{ACAD_REACTORS
330
3DD
102
}
330
3DD
100
AcDbScale
 70
     0
300
10:1
140
10.0
141
1.0
290
     0
  0
SCALE
  5
3EE
102
{ACAD_REACTORS
330
3DD
102
}
330
3DD
100
AcDbScale
 70
     0
300
100:1
140
100.0
141
1.0
290
     0
  0
ACDBSECTIONVIEWSTYLE
  5
6C3
102
{ACAD_XDICTIONARY
360
6C4
102
}
102
{ACAD_REACTORS
330
5ED
330
8A1
330
8A2
102
}
330
5ED
100
AcDbModelDocViewStyle
 70
     0
  3

290
     0
100
AcDbSectionViewStyle
 70
     0
 71
     0
 90
      102
 71
     1
340
11
 62
     7
 40
5.0
340
0
340
0
 62
     7
 40
5.0
300
I,O,Q,S,X,Z
 40
10.0
 90
        0
 40
2.5
 90
        0
 71
     2
340
16
 90
       50
 62
     1
340
16
 90
       50
 62
     7
 40
10.0
 40
5.0
 40
10.0
 71
     3
340
11
 62
     7
 40
5.0
 90
        0
 40
5.25
 90
        1
300
%<\AcVar ViewSectionStartId>%-%<\AcVar ViewSectionEndId>%
 71
     4
 62
   256
 62
   257
300
ANSI31
 40
1.0
 90
        0
290
     0
290
     0
 90
        6
 40
0.0
 40
1.570796326794896
 40
0.2617993877991494
 40
1.308996938995747
 40
-0.2617993877991494
 40
1.832595714594046
  0
ACDBSECTIONVIEWSTYLE
  5
5EE
102
{ACAD_XDICTIONARY
360
631
102
}
102
{ACAD_REACTORS
330
5ED
330
604
330
606
102
}
330
5ED
100
AcDbModelDocViewStyle
 70
     0
  3
Metric50
290
     0
100
AcDbSectionViewStyle
 70
     0
 71
     0
 90
      102
 71
     1
340
11
 62
   256
 40
5.0
340
0
340
0
 62
   256
 40
5.0
300
I, O, Q, S, X, Z
 40
10.0
 90
        0
 40
2.5
 90
        0
 71
     2
340
16
 90
       25
 62
   256
340
16
 90
       50
 62
   256
 40
5.0
 40
2.5
 40
5.0
 71
     3
340
11
 62
   256
 40
5.0
 90
        0
 40
15.0
 90
        1
300
%<\AcVar ViewSectionStartId>%-%<\AcVar ViewSectionEndId>% (%<\AcVar ViewScale \f "%sn">%)
 71
     4
 62
   256
 62
   257
300
ANSI31
 40
1.0
 90
        0
290
     0
290
     0
 90
        6
 40
0.0
 40
1.570796326794896
 40
0.2617993877991494
 40
1.308996938995747
 40
-0.2617993877991494
 40
1.832595714594046
  0
TABLESTYLE
  5
11B
102
{ACAD_XDICTIONARY
360
41B
102
}
102
{ACAD_REACTORS
330
11A
102
}
330
11A
100
AcDbTableStyle
280
     0
  3
Standard
 70
     0
 71
     0
 40
1.5
 41
1.5
280
     0
281
     0
  7
STANDARD
140
4.5
170
     2
 62
     0
 63
     7
283
     0
 90
        4
 91
        0
  1

274
    -2
284
     1
 64
     0
275
    -2
285
     1
 65
     0
276
    -2
286
     1
 66
     0
277
    -2
287
     1
 67
     0
278
    -2
288
     1
 68
     0
279
    -2
289
     1
 69
     0
  7
STANDARD
140
6.0
170
     5
 62
     0
 63
     7
283
     0
 90
        4
 91
        0
  1

274
    -2
284
     1
 64
     0
275
    -2
285
     1
 65
     0
276
    -2
286
     1
 66
     0
277
    -2
287
     1
 67
     0
278
    -2
288
     1
 68
     0
279
    -2
289
     1
 69
     0
  7
STANDARD
140
4.5
170
     5
 62
     0
 63
     7
283
     0
 90
        4
 91
        0
  1

274
    -2
284
     1
 64
     0
275
    -2
285
     1
 65
     0
276
    -2
286
     1
 66
     0
277
    -2
287
     1
 67
     0
278
    -2
288
     1
 68
     0
279
    -2
289
     1
 69
     0
  0
VISUALSTYLE
  5
3D2
102
{ACAD_XDICTIONARY
360
B14
102
}
102
{ACAD_REACTORS
330
3CC
102
}
330
3CC
100
AcDbVisualStyle
  2
2dWireframe
 70
     4
177
     2
291
     0
 71
     0
176
     1
 72
     2
176
     1
 73
     0
176
     1
 90
        0
176
     1
 40
0.6
176
     1
 41
30.0
176
     1
 63
     7
421
 16777215
176
     1
 74
     1
176
     1
 91
        4
176
     1
 64
     7
176
     1
 65
   257
176
     1
 75
     1
176
     1
175
     1
176
     1
 42
1.0
176
     1
 92
        0
176
     1
 66
   257
176
     1
 43
1.0
176
     1
 76
     1
176
     1
 77
     6
176
     1
 78
     2
176
     1
 67
     7
176
     1
 79
     5
176
     1
170
     0
176
     1
171
     0
176
     1
290
     0
176
     1
 93
        1
176
     1
 44
0.0
176
     1
173
     0
176
     1
1001
ACAD
1000
AcDbSavedByObjectVersion
1070
     0
  0
VISUALSTYLE
  5
3D4
102
{ACAD_XDICTIONARY
360
B18
102
}
102
{ACAD_REACTORS
330
3CC
102
}
330
3CC
100
AcDbVisualStyle
  2
3D Hidden
 70
     6
177
     2
291
     0
 71
     1
176
     1
 72
     2
176
     1
 73
     2
176
     1
 90
        0
176
     1
 40
0.6
176
     1
 41
30.0
176
     1
 63
     7
421
 16777215
176
     1
 74
     2
176
     1
 91
        2
176
     1
 64
     7
176
     1
 65
   257
176
     1
 75
     2
176
     1
175
     1
176
     1
 42
40.0
176
     1
 92
        0
176
     1
 66
   257
176
     1
 43
1.0
176
     1
 76
     1
176
     1
 77
     6
176
     1
 78
     2
176
     1
 67
     7
176
     1
 79
     3
176
     1
170
     0
176
     1
171
     0
176
     1
290
     0
176
     1
 93
        1
176
     1
 44
0.0
176
     1
173
     0
176
     1
1001
ACAD
1000
AcDbSavedByObjectVersion
1070
     0
  0
VISUALSTYLE
  5
3D3
102
{ACAD_XDICTIONARY
360
B16
102
}
102
{ACAD_REACTORS
330
3CC
102
}
330
3CC
100
AcDbVisualStyle
  2
3dWireframe
 70
     5
177
     2
291
     0
 71
     0
176
     1
 72
     2
176
     1
 73
     0
176
     1
 90
        0
176
     1
 40
0.6
176
     1
 41
30.0
176
     1
 63
     7
421
 16777215
176
     1
 74
     1
176
     1
 91
        4
176
     1
 64
     7
176
     1
 65
   257
176
     1
 75
     1
176
     1
175
     1
176
     1
 42
1.0
176
     1
 92
        0
176
     1
 66
   257
176
     1
 43
1.0
176
     1
 76
     1
176
     1
 77
     6
176
     1
 78
     2
176
     1
 67
     7
176
     1
 79
     5
176
     1
170
     0
176
     1
171
     0
176
     1
290
     0
176
     1
 93
        1
176
     1
 44
0.0
176
     1
173
     0
176
     1
1001
ACAD
1000
AcDbSavedByObjectVersion
1070
     0
  0
VISUALSTYLE
  5
3D1
102
{ACAD_XDICTIONARY
360
B12
102
}
102
{ACAD_REACTORS
330
3CC
102
}
330
3CC
100
AcDbVisualStyle
  2
Basic
 70
     7
177
     2
291
     1
 71
     1
176
     1
 72
     0
176
     1
 73
     1
176
     1
 90
        0
176
     1
 40
0.6
176
     1
 41
30.0
176
     1
 63
     7
421
 16777215
176
     1
 74
     0
176
     1
 91
        4
176
     1
 64
     7
176
     1
 65
   257
176
     1
 75
     1
176
     1
175
     1
176
     1
 42
1.0
176
     1
 92
        8
176
     1
 66
     7
176
     1
 43
1.0
176
     1
 76
     1
176
     1
 77
     6
176
     1
 78
     2
176
     1
 67
     7
176
     1
 79
     5
176
     1
170
     0
176
     1
171
     0
176
     1
290
     0
176
     1
 93
        1
176
     1
 44
0.0
176
     1
173
     0
176
     1
1001
ACAD
1000
AcDbSavedByObjectVersion
1070
     0
  0
VISUALSTYLE
  5
3D8
102
{ACAD_XDICTIONARY
360
B20
102
}
102
{ACAD_REACTORS
330
3CC
102
}
330
3CC
100
AcDbVisualStyle
  2
Brighten
 70
    12
177
     2
291
     1
 71
     2
176
     1
 72
     2
176
     1
 73
     0
176
     1
 90
        0
176
     1
 40
0.6
176
     1
 41
30.0
176
     1
 63
     7
421
 16777215
176
     1
 74
     1
176
     1
 91
        4
176
     1
 64
     7
176
     1
 65
   257
176
     1
 75
     1
176
     1
175
     1
176
     1
 42
1.0
176
     1
 92
        8
176
     1
 66
     7
176
     1
 43
1.0
176
     1
 76
     1
176
     1
 77
     6
176
     1
 78
     2
176
     1
 67
     7
176
     1
 79
     5
176
     1
170
     0
176
     1
171
     0
176
     1
290
     0
176
     1
 93
        1
176
     1
 44
50.0
176
     1
173
     0
176
     1
1001
ACAD
1000
AcDbSavedByObjectVersion
1070
     0
  0
VISUALSTYLE
  5
3DC
102
{ACAD_XDICTIONARY
360
B28
102
}
102
{ACAD_REACTORS
330
3CC
102
}
330
3CC
100
AcDbVisualStyle
  2
ColorChange
 70
    16
177
     2
291
     1
 71
     2
176
     1
 72
     2
176
     1
 73
     3
176
     1
 90
        0
176
     1
 40
0.6
176
     1
 41
30.0
176
     1
 63
     8
421
  8421504
176
     1
 74
     1
176
     1
 91
        4
176
     1
 64
     7
176
     1
 65
   257
176
     1
 75
     1
176
     1
175
     1
176
     1
 42
1.0
176
     1
 92
        8
176
     1
 66
     8
424
  8421504
176
     1
 43
1.0
176
     1
 76
     1
176
     1
 77
     6
176
     1
 78
     2
176
     1
 67
     7
176
     1
 79
     5
176
     1
170
     0
176
     1
171
     0
176
     1
290
     0
176
     1
 93
        1
176
     1
 44
0.0
176
     1
173
     0
176
     1
1001
ACAD
1000
AcDbSavedByObjectVersion
1070
     0
  0
VISUALSTYLE
  5
3D5
102
{ACAD_XDICTIONARY
360
B1A
102
}
102
{ACAD_REACTORS
330
3CC
102
}
330
3CC
100
AcDbVisualStyle
  2
Conceptual
 70
     9
177
     2
291
     0
 71
     3
176
     1
 72
     2
176
     1
 73
     0
176
     1
 90
        0
176
     1
 40
0.6
176
     1
 41
30.0
176
     1
 63
     7
421
 16777215
176
     1
 74
     2
176
     1
 91
        2
176
     1
 64
     7
176
     1
 65
   257
176
     1
 75
     1
176
     1
175
     1
176
     1
 42
40.0
176
     1
 92
        8
176
     1
 66
     7
176
     1
 43
1.0
176
     1
 76
     1
176
     1
 77
     6
176
     1
 78
     2
176
     1
 67
     7
176
     1
 79
     3
176
     1
170
     0
176
     1
171
     0
176
     1
290
     0
176
     1
 93
        1
176
     1
 44
0.0
176
     1
173
     0
176
     1
1001
ACAD
1000
AcDbSavedByObjectVersion
1070
     0
  0
VISUALSTYLE
  5
3D7
102
{ACAD_XDICTIONARY
360
B1E
102
}
102
{ACAD_REACTORS
330
3CC
102
}
330
3CC
100
AcDbVisualStyle
  2
Dim
 70
    11
177
     2
291
     1
 71
     2
176
     1
 72
     2
176
     1
 73
     0
176
     1
 90
        0
176
     1
 40
0.6
176
     1
 41
30.0
176
     1
 63
     7
421
 16777215
176
     1
 74
     1
176
     1
 91
        4
176
     1
 64
     7
176
     1
 65
   257
176
     1
 75
     1
176
     1
175
     1
176
     1
 42
1.0
176
     1
 92
        8
176
     1
 66
     7
176
     1
 43
1.0
176
     1
 76
     1
176
     1
 77
     6
176
     1
 78
     2
176
     1
 67
     7
176
     1
 79
     5
176
     1
170
     0
176
     1
171
     0
176
     1
290
     0
176
     1
 93
        1
176
     1
 44
-50.0
176
     1
173
     0
176
     1
1001
ACAD
1000
AcDbSavedByObjectVersion
1070
     0
  0
VISUALSTYLE
  5
5A4
102
{ACAD_XDICTIONARY
360
B2E
102
}
102
{ACAD_REACTORS
330
3CC
102
}
330
3CC
100
AcDbVisualStyle
  2
EdgeColorOff
 70
    22
177
     2
291
     1
 71
     2
176
     0
 72
     2
176
     0
 73
     0
176
     0
 90
        0
176
     0
 40
0.6
176
     0
 41
30.0
176
     0
 63
     7
421
 16777215
176
     0
 74
     1
176
     0
 91
        4
176
     0
 64
     7
176
     0
 65
   257
176
     0
 75
     1
176
     0
175
     1
176
     0
 42
1.0
176
     0
 92
        8
176
     2
 66
     7
176
     0
 43
1.0
176
     0
 76
     1
176
     0
 77
     6
176
     0
 78
     2
176
     0
 67
     7
176
     0
 79
     5
176
     0
170
     0
176
     0
171
     0
176
     0
290
     0
176
     0
 93
        1
176
     0
 44
0.0
176
     0
173
     0
176
     0
1001
ACAD
1000
AcDbSavedByObjectVersion
1070
     0
  0
VISUALSTYLE
  5
3DB
102
{ACAD_XDICTIONARY
360
B26
102
}
102
{ACAD_REACTORS
330
3CC
102
}
330
3CC
100
AcDbVisualStyle
  2
Facepattern
 70
    15
177
     2
291
     1
 71
     2
176
     1
 72
     2
176
     1
 73
     0
176
     1
 90
        0
176
     1
 40
0.6
176
     1
 41
30.0
176
     1
 63
     7
421
 16777215
176
     1
 74
     1
176
     1
 91
        4
176
     1
 64
     7
176
     1
 65
   257
176
     1
 75
     1
176
     1
175
     1
176
     1
 42
1.0
176
     1
 92
        8
176
     1
 66
     7
176
     1
 43
1.0
176
     1
 76
     1
176
     1
 77
     6
176
     1
 78
     2
176
     1
 67
     7
176
     1
 79
     5
176
     1
170
     0
176
     1
171
     0
176
     1
290
     0
176
     1
 93
        1
176
     1
 44
0.0
176
     1
173
     0
176
     1
1001
ACAD
1000
AcDbSavedByObjectVersion
1070
     0
  0
VISUALSTYLE
  5
3CD
102
{ACAD_XDICTIONARY
360
B0A
102
}
102
{ACAD_REACTORS
330
3CC
102
}
330
3CC
100
AcDbVisualStyle
  2
Flat
 70
     0
177
     2
291
     1
 71
     2
176
     1
 72
     1
176
     1
 73
     1
176
     1
 90
        2
176
     1
 40
0.6
176
     1
 41
30.0
176
     1
 63
     7
421
 16777215
176
     1
 74
     0
176
     1
 91
        4
176
     1
 64
     7
176
     1
 65
   257
176
     1
 75
     1
176
     1
175
     1
176
     1
 42
1.0
176
     1
 92
        8
176
     1
 66
     7
176
     1
 43
1.0
176
     1
 76
     1
176
     1
 77
     6
176
     1
 78
     2
176
     1
 67
     7
176
     1
 79
     5
176
     1
170
     0
176
     1
171
     0
176
     1
290
     0
176
     1
 93
       13
176
     1
 44
0.0
176
     1
173
     0
176
     1
1001
ACAD
1000
AcDbSavedByObjectVersion
1070
     0
  0
VISUALSTYLE
  5
3CE
102
{ACAD_XDICTIONARY
360
B0C
102
}
102
{ACAD_REACTORS
330
3CC
102
}
330
3CC
100
AcDbVisualStyle
  2
FlatWithEdges
 70
     1
177
     2
291
     1
 71
     2
176
     1
 72
     1
176
     1
 73
     1
176
     1
 90
        2
176
     1
 40
0.6
176
     1
 41
30.0
176
     1
 63
     7
421
 16777215
176
     1
 74
     1
176
     1
 91
        4
176
     1
 64
     7
176
     1
 65
   257
176
     1
 75
     1
176
     1
175
     1
176
     1
 42
1.0
176
     1
 92
        0
176
     1
 66
   257
176
     1
 43
1.0
176
     1
 76
     1
176
     1
 77
     6
176
     1
 78
     2
176
     1
 67
     7
176
     1
 79
     5
176
     1
170
     0
176
     1
171
     0
176
     1
290
     0
176
     1
 93
       13
176
     1
 44
0.0
176
     1
173
     0
176
     1
1001
ACAD
1000
AcDbSavedByObjectVersion
1070
     0
  0
VISUALSTYLE
  5
3CF
102
{ACAD_XDICTIONARY
360
B0E
102
}
102
{ACAD_REACTORS
330
3CC
102
}
330
3CC
100
AcDbVisualStyle
  2
Gouraud
 70
     2
177
     2
291
     1
 71
     2
176
     1
 72
     2
176
     1
 73
     1
176
     1
 90
        2
176
     1
 40
0.6
176
     1
 41
30.0
176
     1
 63
     7
421
 16777215
176
     1
 74
     0
176
     1
 91
        4
176
     1
 64
     7
176
     1
 65
   257
176
     1
 75
     1
176
     1
175
     1
176
     1
 42
1.0
176
     1
 92
        0
176
     1
 66
     7
176
     1
 43
1.0
176
     1
 76
     1
176
     1
 77
     6
176
     1
 78
     2
176
     1
 67
     7
176
     1
 79
     5
176
     1
170
     0
176
     1
171
     0
176
     1
290
     0
176
     1
 93
       13
176
     1
 44
0.0
176
     1
173
     0
176
     1
1001
ACAD
1000
AcDbSavedByObjectVersion
1070
     0
  0
VISUALSTYLE
  5
3D0
102
{ACAD_XDICTIONARY
360
B10
102
}
102
{ACAD_REACTORS
330
3CC
102
}
330
3CC
100
AcDbVisualStyle
  2
GouraudWithEdges
 70
     3
177
     2
291
     1
 71
     2
176
     1
 72
     2
176
     1
 73
     1
176
     1
 90
        2
176
     1
 40
0.6
176
     1
 41
30.0
176
     1
 63
     7
421
 16777215
176
     1
 74
     1
176
     1
 91
        4
176
     1
 64
     7
176
     1
 65
   257
176
     1
 75
     1
176
     1
175
     1
176
     1
 42
1.0
176
     1
 92
        0
176
     1
 66
   257
176
     1
 43
1.0
176
     1
 76
     1
176
     1
 77
     6
176
     1
 78
     2
176
     1
 67
     7
176
     1
 79
     5
176
     1
170
     0
176
     1
171
     0
176
     1
290
     0
176
     1
 93
       13
176
     1
 44
0.0
176
     1
173
     0
176
     1
1001
ACAD
1000
AcDbSavedByObjectVersion
1070
     0
  0
VISUALSTYLE
  5
5E7
102
{ACAD_XDICTIONARY
360
B32
102
}
102
{ACAD_REACTORS
330
3CC
102
}
330
3CC
100
AcDbVisualStyle
  2
Hidden
 70
     6
177
     2
291
     0
 71
     1
176
     1
 72
     2
176
     1
 73
     2
176
     1
 90
        0
176
     1
 40
0.6
176
     1
 41
30.0
176
     1
 63
     7
421
 16777215
176
     1
 74
     2
176
     1
 91
        2
176
     1
 64
     7
176
     1
 65
   257
176
     1
 75
     2
176
     1
175
     1
176
     1
 42
40.0
176
     1
 92
        0
176
     1
 66
   257
176
     1
 43
1.0
176
     1
 76
     1
176
     1
 77
     6
176
     1
 78
     2
176
     1
 67
     7
176
     1
 79
     3
176
     1
170
     0
176
     1
171
     0
176
     1
290
     0
176
     1
 93
        1
176
     1
 44
0.0
176
     1
173
     0
176
     1
1001
ACAD
1000
AcDbSavedByObjectVersion
1070
     0
  0
VISUALSTYLE
  5
5A2
102
{ACAD_XDICTIONARY
360
B2A
102
}
102
{ACAD_REACTORS
330
3CC
102
}
330
3CC
100
AcDbVisualStyle
  2
JitterOff
 70
    20
177
     2
291
     1
 71
     2
176
     0
 72
     2
176
     0
 73
     0
176
     0
 90
        0
176
     0
 40
0.6
176
     0
 41
30.0
176
     0
 63
     7
421
 16777215
176
     0
 74
     1
176
     0
 91
        4
176
     0
 64
     7
176
     0
 65
   257
176
     0
 75
     1
176
     0
175
     1
176
     0
 42
1.0
176
     0
 92
       10
176
     2
 66
     7
176
     0
 43
1.0
176
     0
 76
     1
176
     0
 77
     6
176
     0
 78
     2
176
     0
 67
     7
176
     0
 79
     5
176
     0
170
     0
176
     0
171
     0
176
     0
290
     0
176
     0
 93
        1
176
     0
 44
0.0
176
     0
173
     0
176
     0
1001
ACAD
1000
AcDbSavedByObjectVersion
1070
     0
  0
VISUALSTYLE
  5
3DA
102
{ACAD_XDICTIONARY
360
B24
102
}
102
{ACAD_REACTORS
330
3CC
102
}
330
3CC
100
AcDbVisualStyle
  2
Linepattern
 70
    14
177
     2
291
     1
 71
     2
176
     1
 72
     2
176
     1
 73
     0
176
     1
 90
        0
176
     1
 40
0.6
176
     1
 41
30.0
176
     1
 63
     7
421
 16777215
176
     1
 74
     1
176
     1
 91
        4
176
     1
 64
     7
176
     1
 65
   257
176
     1
 75
     7
176
     1
175
     7
176
     1
 42
1.0
176
     1
 92
        8
176
     1
 66
     7
176
     1
 43
1.0
176
     1
 76
     1
176
     1
 77
     6
176
     1
 78
     2
176
     1
 67
     7
176
     1
 79
     5
176
     1
170
     0
176
     1
171
     0
176
     1
290
     0
176
     1
 93
        1
176
     1
 44
0.0
176
     1
173
     0
176
     1
1001
ACAD
1000
AcDbSavedByObjectVersion
1070
     0
  0
VISUALSTYLE
  5
5A3
102
{ACAD_XDICTIONARY
360
B2C
102
}
102
{ACAD_REACTORS
330
3CC
102
}
330
3CC
100
AcDbVisualStyle
  2
OverhangOff
 70
    21
177
     2
291
     1
 71
     2
176
     0
 72
     2
176
     0
 73
     0
176
     0
 90
        0
176
     0
 40
0.6
176
     0
 41
30.0
176
     0
 63
     7
421
 16777215
176
     0
 74
     1
176
     0
 91
        4
176
     0
 64
     7
176
     0
 65
   257
176
     0
 75
     1
176
     0
175
     1
176
     0
 42
1.0
176
     0
 92
        9
176
     2
 66
     7
176
     0
 43
1.0
176
     0
 76
     1
176
     0
 77
     6
176
     0
 78
     2
176
     0
 67
     7
176
     0
 79
     5
176
     0
170
     0
176
     0
171
     0
176
     0
290
     0
176
     0
 93
        1
176
     0
 44
0.0
176
     0
173
     0
176
     0
1001
ACAD
1000
AcDbSavedByObjectVersion
1070
     0
  0
VISUALSTYLE
  5
3D6
102
{ACAD_XDICTIONARY
360
B1C
102
}
102
{ACAD_REACTORS
330
3CC
102
}
330
3CC
100
AcDbVisualStyle
  2
Realistic
 70
     8
177
     2
291
     0
 71
     2
176
     1
 72
     2
176
     1
 73
     0
176
     1
 90
        0
176
     1
 40
0.6
176
     1
 41
30.0
176
     1
 63
     7
421
 16777215
176
     1
 74
     1
176
     1
 91
        0
176
     1
 64
     7
176
     1
 65
   257
176
     1
 75
     1
176
     1
175
     1
176
     1
 42
1.0
176
     1
 92
        8
176
     1
 66
     8
424
  7895160
176
     1
 43
1.0
176
     1
 76
     1
176
     1
 77
     6
176
     1
 78
     2
176
     1
 67
     7
176
     1
 79
     5
176
     1
170
     0
176
     1
171
     0
176
     1
290
     0
176
     1
 93
       13
176
     1
 44
0.0
176
     1
173
     0
176
     1
1001
ACAD
1000
AcDbSavedByObjectVersion
1070
     0
  0
VISUALSTYLE
  5
5EC
102
{ACAD_XDICTIONARY
360
B3C
102
}
102
{ACAD_REACTORS
330
3CC
102
}
330
3CC
100
AcDbVisualStyle
  2
Shaded
 70
    27
177
     2
291
     0
 71
     2
176
     1
 72
     2
176
     1
 73
     1
176
     1
 90
        2
176
     1
 40
0.6
176
     1
 41
30.0
176
     1
 63
     7
421
 16777215
176
     1
 74
     0
176
     1
 91
        4
176
     1
 64
     7
176
     1
 65
   257
176
     1
 75
     1
176
     1
175
     1
176
     1
 42
1.0
176
     1
 92
        8
176
     1
 66
   257
176
     1
 43
1.0
176
     1
 76
     1
176
     1
 77
     6
176
     1
 78
     2
176
     1
 67
     8
425
  7895160
176
     1
 79
     3
176
     1
170
     0
176
     1
171
     0
176
     1
290
     0
176
     1
 93
        5
176
     1
 44
0.0
176
     1
173
     0
176
     1
1001
ACAD
1000
AcDbSavedByObjectVersion
1070
     0
  0
VISUALSTYLE
  5
5EB
102
{ACAD_XDICTIONARY
360
B3A
102
}
102
{ACAD_REACTORS
330
3CC
102
}
330
3CC
100
AcDbVisualStyle
  2
Shaded with edges
 70
    26
177
     2
291
     0
 71
     2
176
     1
 72
     2
176
     1
 73
     1
176
     1
 90
        2
176
     1
 40
0.6
176
     1
 41
30.0
176
     1
 63
     7
421
 16777215
176
     1
 74
     1
176
     1
 91
       10
176
     1
 64
     7
176
     1
 65
   257
176
     1
 75
     2
176
     1
175
     1
176
     1
 42
1.0
176
     1
 92
        8
176
     1
 66
   257
176
     1
 43
1.0
176
     1
 76
     1
176
     1
 77
     6
176
     1
 78
     2
176
     1
 67
     7
176
     1
 79
     3
176
     1
170
     0
176
     1
171
     0
176
     1
290
     0
176
     1
 93
        5
176
     1
 44
0.0
176
     1
173
     0
176
     1
1001
ACAD
1000
AcDbSavedByObjectVersion
1070
     0
  0
VISUALSTYLE
  5
5E8
102
{ACAD_XDICTIONARY
360
B34
102
}
102
{ACAD_REACTORS
330
3CC
102
}
330
3CC
100
AcDbVisualStyle
  2
Shades of Gray
 70
    23
177
     2
291
     0
 71
     2
176
     1
 72
     2
176
     1
 73
     3
176
     1
 90
        0
176
     1
 40
0.6
176
     1
 41
30.0
176
     1
 63
     7
421
 16777215
176
     1
 74
     2
176
     1
 91
        2
176
     1
 64
     7
176
     1
 65
     7
176
     1
 75
     1
176
     1
175
     1
176
     1
 42
40.0
176
     1
 92
        8
176
     1
 66
     7
176
     1
 43
1.0
176
     1
 76
     1
176
     1
 77
     6
176
     1
 78
     2
176
     1
 67
     7
176
     1
 79
     3
176
     1
170
     0
176
     1
171
     0
176
     1
290
     0
176
     1
 93
        1
176
     1
 44
0.0
176
     1
173
     0
176
     1
1001
ACAD
1000
AcDbSavedByObjectVersion
1070
     0
  0
VISUALSTYLE
  5
5E9
102
{ACAD_XDICTIONARY
360
B36
102
}
102
{ACAD_REACTORS
330
3CC
102
}
330
3CC
100
AcDbVisualStyle
  2
Sketchy
 70
    24
177
     2
291
     0
 71
     1
176
     1
 72
     2
176
     1
 73
     2
176
     1
 90
        0
176
     1
 40
0.6
176
     1
 41
30.0
176
     1
 63
     7
421
 16777215
176
     1
 74
     2
176
     1
 91
        2
176
     1
 64
     7
176
     1
 65
     7
176
     1
 75
     1
176
     1
175
     1
176
     1
 42
40.0
176
     1
 92
       11
176
     1
 66
     7
176
     1
 43
1.0
176
     1
 76
     1
176
     1
 77
     6
176
     1
 78
     2
176
     1
 67
     7
176
     1
 79
     6
176
     1
170
     0
176
     1
171
     0
176
     1
290
     0
176
     1
 93
        1
176
     1
 44
0.0
176
     1
173
     0
176
     1
1001
ACAD
1000
AcDbSavedByObjectVersion
1070
     0
  0
VISUALSTYLE
  5
3D9
102
{ACAD_XDICTIONARY
360
B22
102
}
102
{ACAD_REACTORS
330
3CC
102
}
330
3CC
100
AcDbVisualStyle
  2
Thicken
 70
    13
177
     2
291
     1
 71
     2
176
     1
 72
     2
176
     1
 73
     0
176
     1
 90
        0
176
     1
 40
0.6
176
     1
 41
30.0
176
     1
 63
     7
421
 16777215
176
     1
 74
     1
176
     1
 91
        4
176
     1
 64
     7
176
     1
 65
   257
176
     1
 75
     1
176
     1
175
     1
176
     1
 42
1.0
176
     1
 92
       12
176
     1
 66
     7
176
     1
 43
1.0
176
     1
 76
     1
176
     1
 77
     6
176
     1
 78
     2
176
     1
 67
     7
176
     1
 79
     5
176
     1
170
     0
176
     1
171
     0
176
     1
290
     0
176
     1
 93
        1
176
     1
 44
0.0
176
     1
173
     0
176
     1
1001
ACAD
1000
AcDbSavedByObjectVersion
1070
     0
  0
VISUALSTYLE
  5
5E6
102
{ACAD_XDICTIONARY
360
B30
102
}
102
{ACAD_REACTORS
330
3CC
102
}
330
3CC
100
AcDbVisualStyle
  2
Wireframe
 70
     5
177
     2
291
     0
 71
     0
176
     1
 72
     2
176
     1
 73
     0
176
     1
 90
        0
176
     1
 40
0.6
176
     1
 41
30.0
176
     1
 63
     7
421
 16777215
176
     1
 74
     1
176
     1
 91
        4
176
     1
 64
     7
176
     1
 65
   257
176
     1
 75
     1
176
     1
175
     1
176
     1
 42
1.0
176
     1
 92
        0
176
     1
 66
   257
176
     1
 43
1.0
176
     1
 76
     1
176
     1
 77
     6
176
     1
 78
     2
176
     1
 67
     7
176
     1
 79
     3
176
     1
170
     0
176
     1
171
     0
176
     1
290
     0
176
     1
 93
        1
176
     1
 44
0.0
176
     1
173
     0
176
     1
1001
ACAD
1000
AcDbSavedByObjectVersion
1070
     0
  0
VISUALSTYLE
  5
5EA
102
{ACAD_XDICTIONARY
360
B38
102
}
102
{ACAD_REACTORS
330
3CC
102
}
330
3CC
100
AcDbVisualStyle
  2
X-Ray
 70
    25
177
     2
291
     0
 71
     2
176
     1
 72
     2
176
     1
 73
     1
176
     1
 90
        1
176
     1
 40
0.5
176
     1
 41
30.0
176
     1
 63
     7
421
 16777215
176
     1
 74
     1
176
     1
 91
        0
176
     1
 64
     7
176
     1
 65
   257
176
     1
 75
     1
176
     1
175
     1
176
     1
 42
1.0
176
     1
 92
        8
176
     1
 66
     7
176
     1
 43
1.0
176
     1
 76
     1
176
     1
 77
     6
176
     1
 78
     2
176
     1
 67
     7
176
     1
 79
     3
176
     1
170
     0
176
     1
171
     0
176
     1
290
     0
176
     1
 93
       13
176
     1
 44
0.0
176
     1
173
     0
176
     1
1001
ACAD
1000
AcDbSavedByObjectVersion
1070
     0
  0
DICTIONARYVAR
  5
420
102
{ACAD_REACTORS
330
94
102
}
330
94
100
DictionaryVariables
280
     0
  1
1:1
  0
DICTIONARYVAR
  5
41E
102
{ACAD_REACTORS
330
94
102
}
330
94
100
DictionaryVariables
280
     0
  1
STANDARD
  0
DICTIONARYVAR
  5
138
102
{ACAD_REACTORS
330
94
102
}
330
94
100
DictionaryVariables
280
     0
  1
STANDARD
  0
DICTIONARYVAR
  5
63B
102
{ACAD_REACTORS
330
94
102
}
330
94
100
DictionaryVariables
280
     0
  1
Metric50
  0
DICTIONARYVAR
  5
63C
102
{ACAD_REACTORS
330
94
102
}
330
94
100
DictionaryVariables
280
     0
  1
Metric50
  0
DICTIONARYVAR
  5
96
102
{ACAD_REACTORS
330
94
102
}
330
94
100
DictionaryVariables
280
     0
  1
2
  0
DICTIONARYVAR
  5
95
102
{ACAD_REACTORS
330
94
102
}
330
94
100
DictionaryVariables
280
     0
  1
1
  0
DICTIONARYVAR
  5
422
102
{ACAD_REACTORS
330
94
102
}
330
94
100
DictionaryVariables
280
     0
  1
1
  0
DICTIONARYVAR
  5
423
102
{ACAD_REACTORS
330
94
102
}
330
94
100
DictionaryVariables
280
     0
  1
15
  0
DICTIONARYVAR
  5
421
102
{ACAD_REACTORS
330
94
102
}
330
94
100
DictionaryVariables
280
     0
  1
0
  0
DICTIONARYVAR
  5
41F
102
{ACAD_REACTORS
330
94
102
}
330
94
100
DictionaryVariables
280
     0
  1
0
  0
DICTIONARY
  5
B09
102
{ACAD_REACTORS
330
B07
102
}
330
B07
100
AcDbDictionary
281
     1
  0
DICTIONARY
  5
B08
102
{ACAD_REACTORS
330
B07
102
}
330
B07
100
AcDbDictionary
281
     1
  3
8796082905632
350
B02
  3
8796082905648
350
B03
  3
8796082905664
350
B04
  3
8796082905680
350
B05
  3
8796082905696
350
B06
  0
DICTIONARY
  5
272
102
{ACAD_REACTORS
330
5B
102
}
330
5B
100
AcDbDictionary
281
     1
  0
DICTIONARY
  5
61
102
{ACAD_REACTORS
330
5B
102
}
330
5B
100
AcDbDictionary
281
     1
  0
XRECORD
  5
123
102
{ACAD_REACTORS
330
5B
102
}
330
5B
100
AcDbXrecord
280
     1
 90
-1023410169
  0
DICTIONARY
  5
633
330
5F0
100
AcDbDictionary
280
     1
281
     1
  3
ACAD_XREC_ROUNDTRIP
360
B3F
  0
DICTIONARY
  5
5E3
330
22
100
AcDbDictionary
280
     1
281
     1
  0
DICTIONARY
  5
3BD
330
3BC
100
AcDbDictionary
280
     1
281
     1
  3
BUMPTILE
360
3BF
  3
DIFFUSETILE
360
3BE
  3
OPACITYTILE
360
3C2
  3
REFLECTIONTILE
360
3C1
  3
REFRACTIONTILE
360
3C3
  3
SPECULARTILE
360
3C0
  0
DICTIONARY
  5
3B5
330
3B4
100
AcDbDictionary
280
     1
281
     1
  3
BUMPTILE
360
3B7
  3
DIFFUSETILE
360
3B6
  3
OPACITYTILE
360
3BA
  3
REFLECTIONTILE
360
3B9
  3
REFRACTIONTILE
360
3BB
  3
SPECULARTILE
360
3B8
  0
DICTIONARY
  5
3C5
330
3C4
100
AcDbDictionary
280
     1
281
     1
  3
BUMPTILE
360
3C7
  3
DIFFUSETILE
360
3C6
  3
OPACITYTILE
360
3CA
  3
REFLECTIONTILE
360
3C9
  3
REFRACTIONTILE
360
3CB
  3
SPECULARTILE
360
3C8
  0
DICTIONARY
  5
6C4
330
6C3
100
AcDbDictionary
280
     1
281
     1
  3
ACAD_FIELD
360
6C5
  3
ACAD_XREC_ROUNDTRIP
360
B40
  0
DICTIONARY
  5
631
330
5EE
100
AcDbDictionary
280
     1
281
     1
  3
ACAD_XREC_ROUNDTRIP
360
B3E
  0
DICTIONARY
  5
41B
330
11B
100
AcDbDictionary
280
     1
281
     1
  3
ACAD_ROUNDTRIP_2008_TABLESTYLE_CELLSTYLEMAP
360
B00
  0
DICTIONARY
  5
B14
330
3D2
100
AcDbDictionary
280
     1
281
     1
  3
ACAD_XREC_ROUNDTRIP
360
B15
  0
DICTIONARY
  5
B18
330
3D4
100
AcDbDictionary
280
     1
281
     1
  3
ACAD_XREC_ROUNDTRIP
360
B19
  0
DICTIONARY
  5
B16
330
3D3
100
AcDbDictionary
280
     1
281
     1
  3
ACAD_XREC_ROUNDTRIP
360
B17
  0
DICTIONARY
  5
B12
330
3D1
100
AcDbDictionary
280
     1
281
     1
  3
ACAD_XREC_ROUNDTRIP
360
B13
  0
DICTIONARY
  5
B20
330
3D8
100
AcDbDictionary
280
     1
281
     1
  3
ACAD_XREC_ROUNDTRIP
360
B21
  0
DICTIONARY
  5
B28
330
3DC
100
AcDbDictionary
280
     1
281
     1
  3
ACAD_XREC_ROUNDTRIP
360
B29
  0
DICTIONARY
  5
B1A
330
3D5
100
AcDbDictionary
280
     1
281
     1
  3
ACAD_XREC_ROUNDTRIP
360
B1B
  0
DICTIONARY
  5
B1E
330
3D7
100
AcDbDictionary
280
     1
281
     1
  3
ACAD_XREC_ROUNDTRIP
360
B1F
  0
DICTIONARY
  5
B2E
330
5A4
100
AcDbDictionary
280
     1
281
     1
  3
ACAD_XREC_ROUNDTRIP
360
B2F
  0
DICTIONARY
  5
B26
330
3DB
100
AcDbDictionary
280
     1
281
     1
  3
ACAD_XREC_ROUNDTRIP
360
B27
  0
DICTIONARY
  5
B0A
330
3CD
100
AcDbDictionary
280
     1
281
     1
  3
ACAD_XREC_ROUNDTRIP
360
B0B
  0
DICTIONARY
  5
B0C
330
3CE
100
AcDbDictionary
280
     1
281
     1
  3
ACAD_XREC_ROUNDTRIP
360
B0D
  0
DICTIONARY
  5
B0E
330
3CF
100
AcDbDictionary
280
     1
281
     1
  3
ACAD_XREC_ROUNDTRIP
360
B0F
  0
DICTIONARY
  5
B10
330
3D0
100
AcDbDictionary
280
     1
281
     1
  3
ACAD_XREC_ROUNDTRIP
360
B11
  0
DICTIONARY
  5
B32
330
5E7
100
AcDbDictionary
280
     1
281
     1
  3
ACAD_XREC_ROUNDTRIP
360
B33
  0
DICTIONARY
  5
B2A
330
5A2
100
AcDbDictionary
280
     1
281
     1
  3
ACAD_XREC_ROUNDTRIP
360
B2B
  0
DICTIONARY
  5
B24
330
3DA
100
AcDbDictionary
280
     1
281
     1
  3
ACAD_XREC_ROUNDTRIP
360
B25
  0
DICTIONARY
  5
B2C
330
5A3
100
AcDbDictionary
280
     1
281
     1
  3
ACAD_XREC_ROUNDTRIP
360
B2D
  0
DICTIONARY
  5
B1C
330
3D6
100
AcDbDictionary
280
     1
281
     1
  3
ACAD_XREC_ROUNDTRIP
360
B1D
  0
DICTIONARY
  5
B3C
330
5EC
100
AcDbDictionary
280
     1
281
     1
  3
ACAD_XREC_ROUNDTRIP
360
B3D
  0
DICTIONARY
  5
B3A
330
5EB
100
AcDbDictionary
280
     1
281
     1
  3
ACAD_XREC_ROUNDTRIP
360
B3B
  0
DICTIONARY
  5
B34
330
5E8
100
AcDbDictionary
280
     1
281
     1
  3
ACAD_XREC_ROUNDTRIP
360
B35
  0
DICTIONARY
  5
B36
330
5E9
100
AcDbDictionary
280
     1
281
     1
  3
ACAD_XREC_ROUNDTRIP
360
B37
  0
DICTIONARY
  5
B22
330
3D9
100
AcDbDictionary
280
     1
281
     1
  3
ACAD_XREC_ROUNDTRIP
360
B23
  0
DICTIONARY
  5
B30
330
5E6
100
AcDbDictionary
280
     1
281
     1
  3
ACAD_XREC_ROUNDTRIP
360
B31
  0
DICTIONARY
  5
B38
330
5EA
100
AcDbDictionary
280
     1
281
     1
  3
ACAD_XREC_ROUNDTRIP
360
B39
  0
XRECORD
  5
B02
102
{ACAD_REACTORS
330
B08
102
}
330
B08
100
AcDbXrecord
280
     1
  1
AcDb_Thumbnail_Schema
102
{ATTRRECORD
341
B03
  2
AcDbDs::TreatedAsObjectData
280
     1
291
     1
102
ATTRRECORD}
102
{ATTRRECORD
341
B04
  2
AcDbDs::Legacy
280
     1
291
     1
102
ATTRRECORD}
  2
AcDbDs::ID
280
    10
 91
        8
102
{ATTRRECORD
341
B05
  2
AcDs:Indexable
280
     1
291
     1
102
ATTRRECORD}
102
{ATTRRECORD
341
B06
  2
AcDbDs::HandleAttribute
280
     7
282
     1
102
ATTRRECORD}
  2
Thumbnail_Data
280
    15
 91
        0
  0
XRECORD
  5
B03
102
{ACAD_REACTORS
330
B08
102
}
330
B08
100
AcDbXrecord
280
     1
  1
AcDbDs::TreatedAsObjectDataSchema
  2
AcDbDs::TreatedAsObjectData
280
     1
 91
        0
  0
XRECORD
  5
B04
102
{ACAD_REACTORS
330
B08
102
}
330
B08
100
AcDbXrecord
280
     1
  1
AcDbDs::LegacySchema
  2
AcDbDs::Legacy
280
     1
 91
        0
  0
XRECORD
  5
B05
102
{ACAD_REACTORS
330
B08
102
}
330
B08
100
AcDbXrecord
280
     1
  1
AcDbDs::IndexedPropertySchema
  2
AcDs:Indexable
280
     1
 91
        0
  0
XRECORD
  5
B06
102
{ACAD_REACTORS
330
B08
102
}
330
B08
100
AcDbXrecord
280
     1
  1
AcDbDs::HandleAttributeSchema
  2
AcDbDs::HandleAttribute
280
     7
 91
        1
284
     1
  0
XRECORD
  5
B3F
102
{ACAD_REACTORS
330
633
102
}
330
633
100
AcDbXrecord
280
     1
102
DISPLAYNAME
  1
Metric50
102
FLAGS
 90
        0
  0
XRECORD
  5
3BF
102
{ACAD_REACTORS
330
3BD
102
}
330
3BD
100
AcDbXrecord
280
     1
270
     1
271
     1
  0
XRECORD
  5
3BE
102
{ACAD_REACTORS
330
3BD
102
}
330
3BD
100
AcDbXrecord
280
     1
270
     1
271
     1
  0
XRECORD
  5
3C2
102
{ACAD_REACTORS
330
3BD
102
}
330
3BD
100
AcDbXrecord
280
     1
270
     1
271
     1
  0
XRECORD
  5
3C1
102
{ACAD_REACTORS
330
3BD
102
}
330
3BD
100
AcDbXrecord
280
     1
270
     1
271
     1
  0
XRECORD
  5
3C3
102
{ACAD_REACTORS
330
3BD
102
}
330
3BD
100
AcDbXrecord
280
     1
270
     1
271
     1
  0
XRECORD
  5
3C0
102
{ACAD_REACTORS
330
3BD
102
}
330
3BD
100
AcDbXrecord
280
     1
270
     1
271
     1
  0
XRECORD
  5
3B7
102
{ACAD_REACTORS
330
3B5
102
}
330
3B5
100
AcDbXrecord
280
     1
270
     1
271
     1
  0
XRECORD
  5
3B6
102
{ACAD_REACTORS
330
3B5
102
}
330
3B5
100
AcDbXrecord
280
     1
270
     1
271
     1
  0
XRECORD
  5
3BA
102
{ACAD_REACTORS
330
3B5
102
}
330
3B5
100
AcDbXrecord
280
     1
270
     1
271
     1
  0
XRECORD
  5
3B9
102
{ACAD_REACTORS
330
3B5
102
}
330
3B5
100
AcDbXrecord
280
     1
270
     1
271
     1
  0
XRECORD
  5
3BB
102
{ACAD_REACTORS
330
3B5
102
}
330
3B5
100
AcDbXrecord
280
     1
270
     1
271
     1
  0
XRECORD
  5
3B8
102
{ACAD_REACTORS
330
3B5
102
}
330
3B5
100
AcDbXrecord
280
     1
270
     1
271
     1
  0
XRECORD
  5
3C7
102
{ACAD_REACTORS
330
3C5
102
}
330
3C5
100
AcDbXrecord
280
     1
270
     1
271
     1
  0
XRECORD
  5
3C6
102
{ACAD_REACTORS
330
3C5
102
}
330
3C5
100
AcDbXrecord
280
     1
270
     1
271
     1
  0
XRECORD
  5
3CA
102
{ACAD_REACTORS
330
3C5
102
}
330
3C5
100
AcDbXrecord
280
     1
270
     1
271
     1
  0
XRECORD
  5
3C9
102
{ACAD_REACTORS
330
3C5
102
}
330
3C5
100
AcDbXrecord
280
     1
270
     1
271
     1
  0
XRECORD
  5
3CB
102
{ACAD_REACTORS
330
3C5
102
}
330
3C5
100
AcDbXrecord
280
     1
270
     1
271
     1
  0
XRECORD
  5
3C8
102
{ACAD_REACTORS
330
3C5
102
}
330
3C5
100
AcDbXrecord
280
     1
270
     1
271
     1
  0
DICTIONARY
  5
6C5
102
{ACAD_REACTORS
330
6C4
102
}
330
6C4
100
AcDbDictionary
280
     1
281
     1
  3
TEXT
360
6C6
  0
XRECORD
  5
B40
102
{ACAD_REACTORS
330
6C4
102
}
330
6C4
100
AcDbXrecord
280
     1
102
DISPLAYNAME
  1
ISO 128-40:2001(E)
102
FLAGS
 90
        0
  0
XRECORD
  5
B3E
102
{ACAD_REACTORS
330
631
102
}
330
631
100
AcDbXrecord
280
     1
102
DISPLAYNAME
  1
Metric50
102
FLAGS
 90
        0
  0
CELLSTYLEMAP
  5
B00
102
{ACAD_REACTORS
330
41B
102
}
330
41B
100
AcDbCellStyleMap
 90
        3
300
CELLSTYLE
  1
TABLEFORMAT_BEGIN
 90
        5
170
     1
 91
        0
 92
    32768
 62
   257
 93
        1
300
CONTENTFORMAT
  1
CONTENTFORMAT_BEGIN
 90
        0
 91
        0
 92
        4
 93
        0
300

 40
0.0
140
1.0
 94
        5
 62
     0
340
11
144
6.0
309
CONTENTFORMAT_END
171
     1
301
MARGIN
  1
CELLMARGIN_BEGIN
 40
1.5
 40
1.5
 40
1.5
 40
1.5
 40
0.18
 40
0.18
309
CELLMARGIN_END
 94
        6
 95
        1
302
GRIDFORMAT
  1
GRIDFORMAT_BEGIN
 90
        0
 91
        1
 62
     0
 92
       -2
340
0
 93
        0
 40
0.045
309
GRIDFORMAT_END
 95
        2
302
GRIDFORMAT
  1
GRIDFORMAT_BEGIN
 90
        0
 91
        1
 62
     0
 92
       -2
340
0
 93
        0
 40
0.045
309
GRIDFORMAT_END
 95
        4
302
GRIDFORMAT
  1
GRIDFORMAT_BEGIN
 90
        0
 91
        1
 62
     0
 92
       -2
340
0
 93
        0
 40
0.045
309
GRIDFORMAT_END
 95
        8
302
GRIDFORMAT
  1
GRIDFORMAT_BEGIN
 90
        0
 91
        1
 62
     0
 92
       -2
340
0
 93
        0
 40
0.045
309
GRIDFORMAT_END
 95
       16
302
GRIDFORMAT
  1
GRIDFORMAT_BEGIN
 90
        0
 91
        1
 62
     0
 92
       -2
340
0
 93
        0
 40
0.045
309
GRIDFORMAT_END
 95
       32
302
GRIDFORMAT
  1
GRIDFORMAT_BEGIN
 90
        0
 91
        1
 62
     0
 92
       -2
340
0
 93
        0
 40
0.045
309
GRIDFORMAT_END
309
TABLEFORMAT_END
  1
CELLSTYLE_BEGIN
 90
        1
 91
        1
300
_TITLE
309
CELLSTYLE_END
300
CELLSTYLE
  1
TABLEFORMAT_BEGIN
 90
        5
170
     1
 91
        0
 92
        0
 62
   257
 93
        1
300
CONTENTFORMAT
  1
CONTENTFORMAT_BEGIN
 90
        0
 91
        0
 92
        4
 93
        0
300

 40
0.0
140
1.0
 94
        5
 62
     0
340
11
144
4.5
309
CONTENTFORMAT_END
171
     1
301
MARGIN
  1
CELLMARGIN_BEGIN
 40
1.5
 40
1.5
 40
1.5
 40
1.5
 40
0.18
 40
0.18
309
CELLMARGIN_END
 94
        6
 95
        1
302
GRIDFORMAT
  1
GRIDFORMAT_BEGIN
 90
        0
 91
        1
 62
     0
 92
       -2
340
0
 93
        0
 40
0.045
309
GRIDFORMAT_END
 95
        2
302
GRIDFORMAT
  1
GRIDFORMAT_BEGIN
 90
        0
 91
        1
 62
     0
 92
       -2
340
0
 93
        0
 40
0.045
309
GRIDFORMAT_END
 95
        4
302
GRIDFORMAT
  1
GRIDFORMAT_BEGIN
 90
        0
 91
        1
 62
     0
 92
       -2
340
0
 93
        0
 40
0.045
309
GRIDFORMAT_END
 95
        8
302
GRIDFORMAT
  1
GRIDFORMAT_BEGIN
 90
        0
 91
        1
 62
     0
 92
       -2
340
0
 93
        0
 40
0.045
309
GRIDFORMAT_END
 95
       16
302
GRIDFORMAT
  1
GRIDFORMAT_BEGIN
 90
        0
 91
        1
 62
     0
 92
       -2
340
0
 93
        0
 40
0.045
309
GRIDFORMAT_END
 95
       32
302
GRIDFORMAT
  1
GRIDFORMAT_BEGIN
 90
        0
 91
        1
 62
     0
 92
       -2
340
0
 93
        0
 40
0.045
309
GRIDFORMAT_END
309
TABLEFORMAT_END
  1
CELLSTYLE_BEGIN
 90
        2
 91
        1
300
_HEADER
309
CELLSTYLE_END
300
CELLSTYLE
  1
TABLEFORMAT_BEGIN
 90
        5
170
     1
 91
        0
 92
        0
 62
   257
 93
        1
300
CONTENTFORMAT
  1
CONTENTFORMAT_BEGIN
 90
        0
 91
        0
 92
        4
 93
        0
300

 40
0.0
140
1.0
 94
        2
 62
     0
340
11
144
4.5
309
CONTENTFORMAT_END
171
     1
301
MARGIN
  1
CELLMARGIN_BEGIN
 40
1.5
 40
1.5
 40
1.5
 40
1.5
 40
0.18
 40
0.18
309
CELLMARGIN_END
 94
        6
 95
        1
302
GRIDFORMAT
  1
GRIDFORMAT_BEGIN
 90
        0
 91
        1
 62
     0
 92
       -2
340
0
 93
        0
 40
0.045
309
GRIDFORMAT_END
 95
        2
302
GRIDFORMAT
  1
GRIDFORMAT_BEGIN
 90
        0
 91
        1
 62
     0
 92
       -2
340
0
 93
        0
 40
0.045
309
GRIDFORMAT_END
 95
        4
302
GRIDFORMAT
  1
GRIDFORMAT_BEGIN
 90
        0
 91
        1
 62
     0
 92
       -2
340
0
 93
        0
 40
0.045
309
GRIDFORMAT_END
 95
        8
302
GRIDFORMAT
  1
GRIDFORMAT_BEGIN
 90
        0
 91
        1
 62
     0
 92
       -2
340
0
 93
        0
 40
0.045
309
GRIDFORMAT_END
 95
       16
302
GRIDFORMAT
  1
GRIDFORMAT_BEGIN
 90
        0
 91
        1
 62
     0
 92
       -2
340
0
 93
        0
 40
0.045
309
GRIDFORMAT_END
 95
       32
302
GRIDFORMAT
  1
GRIDFORMAT_BEGIN
 90
        0
 91
        1
 62
     0
 92
       -2
340
0
 93
        0
 40
0.045
309
GRIDFORMAT_END
309
TABLEFORMAT_END
  1
CELLSTYLE_BEGIN
 90
        3
 91
        2
300
_DATA
309
CELLSTYLE_END
  0
XRECORD
  5
B15
102
{ACAD_REACTORS
330
B14
102
}
330
B14
100
AcDbXrecord
280
     1
102
RTVSPost2010Prop28
280
     1
102
RTVSPost2010PropOp28
 70
     1
102
RTVSPost2010Prop29
280
     1
102
RTVSPost2010PropOp29
 70
     1
102
RTVSPost2010Prop30
280
     0
102
RTVSPost2010PropOp30
 70
     1
102
RTVSPost2010Prop31
280
     0
102
RTVSPost2010PropOp31
 70
     1
102
RTVSPost2010Prop32
280
     0
102
RTVSPost2010PropOp32
 70
     1
102
RTVSPost2010Prop33
280
     0
102
RTVSPost2010PropOp33
 70
     1
102
RTVSPost2010Prop34
280
     0
102
RTVSPost2010PropOp34
 70
     1
102
RTVSPost2010Prop35
280
     0
102
RTVSPost2010PropOp35
 70
     1
102
RTVSPost2010Prop36
280
     0
102
RTVSPost2010PropOp36
 70
     1
102
RTVSPost2010Prop37
 90
       50
102
RTVSPost2010PropOp37
 70
     1
102
RTVSPost2010Prop38
140
0.0
102
RTVSPost2010PropOp38
 70
     1
102
RTVSPost2010Prop39
140
1.0
102
RTVSPost2010PropOp39
 70
     1
102
RTVSPost2010Prop40
 90
        0
102
RTVSPost2010PropOp40
 70
     1
102
RTVSPost2010Prop41ColorIndex
 90
       18
102
RTVSPost2010Prop41ColorRGB
 90
        0
102
RTVSPost2010PropOp41
 70
     1
102
RTVSPost2010Prop42
 90
       50
102
RTVSPost2010PropOp42
 70
     1
102
RTVSPost2010Prop43
 90
        3
102
RTVSPost2010PropOp43
 70
     1
102
RTVSPost2010Prop44ColorIndex
 90
        5
102
RTVSPost2010Prop44ColorRGB
 90
      255
102
RTVSPost2010PropOp44
 70
     1
102
RTVSPost2010Prop45
280
     0
102
RTVSPost2010PropOp45
 70
     1
102
RTVSPost2010Prop46
 90
       50
102
RTVSPost2010PropOp46
 70
     1
102
RTVSPost2010Prop47
 90
       50
102
RTVSPost2010PropOp47
 70
     1
102
RTVSPost2010Prop48
 90
       50
102
RTVSPost2010PropOp48
 70
     1
102
RTVSPost2010Prop49
280
     0
102
RTVSPost2010PropOp49
 70
     1
102
RTVSPost2010Prop50
 90
       50
102
RTVSPost2010PropOp50
 70
     1
102
RTVSPost2010Prop51ColorIndex
 90
      256
102
RTVSPost2010Prop51ColorRGB
 90
-16777216
102
RTVSPost2010PropOp51
 70
     0
102
RTVSPost2010Prop52
140
1.0
102
RTVSPost2010PropOp52
 70
     0
102
RTVSPost2010Prop53
 90
        2
102
RTVSPost2010PropOp53
 70
     1
102
RTVSPost2010Prop54
  1
strokes_ogs.tif
102
RTVSPost2010PropOp54
 70
     1
102
RTVSPost2010Prop55
280
     0
102
RTVSPost2010PropOp55
 70
     1
102
RTVSPost2010Prop56
140
1.0
102
RTVSPost2010PropOp56
 70
     1
102
RTVSPost2010Prop57
140
1.0
102
RTVSPost2010PropOp57
 70
     1
  0
XRECORD
  5
B19
102
{ACAD_REACTORS
330
B18
102
}
330
B18
100
AcDbXrecord
280
     1
102
RTVSPost2010Prop28
280
     0
102
RTVSPost2010PropOp28
 70
     1
102
RTVSPost2010Prop29
280
     1
102
RTVSPost2010PropOp29
 70
     1
102
RTVSPost2010Prop30
280
     1
102
RTVSPost2010PropOp30
 70
     1
102
RTVSPost2010Prop31
280
     0
102
RTVSPost2010PropOp31
 70
     1
102
RTVSPost2010Prop32
280
     0
102
RTVSPost2010PropOp32
 70
     1
102
RTVSPost2010Prop33
280
     0
102
RTVSPost2010PropOp33
 70
     1
102
RTVSPost2010Prop34
280
     0
102
RTVSPost2010PropOp34
 70
     1
102
RTVSPost2010Prop35
280
     0
102
RTVSPost2010PropOp35
 70
     1
102
RTVSPost2010Prop36
280
     0
102
RTVSPost2010PropOp36
 70
     1
102
RTVSPost2010Prop37
 90
       50
102
RTVSPost2010PropOp37
 70
     1
102
RTVSPost2010Prop38
140
0.0
102
RTVSPost2010PropOp38
 70
     1
102
RTVSPost2010Prop39
140
1.0
102
RTVSPost2010PropOp39
 70
     1
102
RTVSPost2010Prop40
 90
        0
102
RTVSPost2010PropOp40
 70
     1
102
RTVSPost2010Prop41ColorIndex
 90
       18
102
RTVSPost2010Prop41ColorRGB
 90
        0
102
RTVSPost2010PropOp41
 70
     1
102
RTVSPost2010Prop42
 90
       50
102
RTVSPost2010PropOp42
 70
     1
102
RTVSPost2010Prop43
 90
        3
102
RTVSPost2010PropOp43
 70
     1
102
RTVSPost2010Prop44ColorIndex
 90
        5
102
RTVSPost2010Prop44ColorRGB
 90
      255
102
RTVSPost2010PropOp44
 70
     1
102
RTVSPost2010Prop45
280
     0
102
RTVSPost2010PropOp45
 70
     1
102
RTVSPost2010Prop46
 90
       50
102
RTVSPost2010PropOp46
 70
     1
102
RTVSPost2010Prop47
 90
       50
102
RTVSPost2010PropOp47
 70
     1
102
RTVSPost2010Prop48
 90
       50
102
RTVSPost2010PropOp48
 70
     1
102
RTVSPost2010Prop49
280
     0
102
RTVSPost2010PropOp49
 70
     1
102
RTVSPost2010Prop50
 90
       50
102
RTVSPost2010PropOp50
 70
     1
102
RTVSPost2010Prop51ColorIndex
 90
      256
102
RTVSPost2010Prop51ColorRGB
 90
-16777216
102
RTVSPost2010PropOp51
 70
     0
102
RTVSPost2010Prop52
140
1.0
102
RTVSPost2010PropOp52
 70
     0
102
RTVSPost2010Prop53
 90
        2
102
RTVSPost2010PropOp53
 70
     1
102
RTVSPost2010Prop54
  1
strokes_ogs.tif
102
RTVSPost2010PropOp54
 70
     1
102
RTVSPost2010Prop55
280
     0
102
RTVSPost2010PropOp55
 70
     1
102
RTVSPost2010Prop56
140
1.0
102
RTVSPost2010PropOp56
 70
     1
102
RTVSPost2010Prop57
140
1.0
102
RTVSPost2010PropOp57
 70
     1
  0
XRECORD
  5
B17
102
{ACAD_REACTORS
330
B16
102
}
330
B16
100
AcDbXrecord
280
     1
102
RTVSPost2010Prop28
280
     0
102
RTVSPost2010PropOp28
 70
     1
102
RTVSPost2010Prop29
280
     1
102
RTVSPost2010PropOp29
 70
     1
102
RTVSPost2010Prop30
280
     1
102
RTVSPost2010PropOp30
 70
     1
102
RTVSPost2010Prop31
280
     0
102
RTVSPost2010PropOp31
 70
     1
102
RTVSPost2010Prop32
280
     0
102
RTVSPost2010PropOp32
 70
     1
102
RTVSPost2010Prop33
280
     0
102
RTVSPost2010PropOp33
 70
     1
102
RTVSPost2010Prop34
280
     0
102
RTVSPost2010PropOp34
 70
     1
102
RTVSPost2010Prop35
280
     0
102
RTVSPost2010PropOp35
 70
     1
102
RTVSPost2010Prop36
280
     0
102
RTVSPost2010PropOp36
 70
     1
102
RTVSPost2010Prop37
 90
       50
102
RTVSPost2010PropOp37
 70
     1
102
RTVSPost2010Prop38
140
0.0
102
RTVSPost2010PropOp38
 70
     1
102
RTVSPost2010Prop39
140
1.0
102
RTVSPost2010PropOp39
 70
     1
102
RTVSPost2010Prop40
 90
        0
102
RTVSPost2010PropOp40
 70
     1
102
RTVSPost2010Prop41ColorIndex
 90
       18
102
RTVSPost2010Prop41ColorRGB
 90
        0
102
RTVSPost2010PropOp41
 70
     1
102
RTVSPost2010Prop42
 90
       50
102
RTVSPost2010PropOp42
 70
     1
102
RTVSPost2010Prop43
 90
        3
102
RTVSPost2010PropOp43
 70
     1
102
RTVSPost2010Prop44ColorIndex
 90
        5
102
RTVSPost2010Prop44ColorRGB
 90
      255
102
RTVSPost2010PropOp44
 70
     1
102
RTVSPost2010Prop45
280
     0
102
RTVSPost2010PropOp45
 70
     1
102
RTVSPost2010Prop46
 90
       50
102
RTVSPost2010PropOp46
 70
     1
102
RTVSPost2010Prop47
 90
       50
102
RTVSPost2010PropOp47
 70
     1
102
RTVSPost2010Prop48
 90
       50
102
RTVSPost2010PropOp48
 70
     1
102
RTVSPost2010Prop49
280
     0
102
RTVSPost2010PropOp49
 70
     1
102
RTVSPost2010Prop50
 90
       50
102
RTVSPost2010PropOp50
 70
     1
102
RTVSPost2010Prop51ColorIndex
 90
      256
102
RTVSPost2010Prop51ColorRGB
 90
-16777216
102
RTVSPost2010PropOp51
 70
     0
102
RTVSPost2010Prop52
140
1.0
102
RTVSPost2010PropOp52
 70
     0
102
RTVSPost2010Prop53
 90
        2
102
RTVSPost2010PropOp53
 70
     1
102
RTVSPost2010Prop54
  1
strokes_ogs.tif
102
RTVSPost2010PropOp54
 70
     1
102
RTVSPost2010Prop55
280
     0
102
RTVSPost2010PropOp55
 70
     1
102
RTVSPost2010Prop56
140
1.0
102
RTVSPost2010PropOp56
 70
     1
102
RTVSPost2010Prop57
140
1.0
102
RTVSPost2010PropOp57
 70
     1
  0
XRECORD
  5
B13
102
{ACAD_REACTORS
330
B12
102
}
330
B12
100
AcDbXrecord
280
     1
102
RTVSPost2010Prop28
280
     0
102
RTVSPost2010PropOp28
 70
     1
102
RTVSPost2010Prop29
280
     1
102
RTVSPost2010PropOp29
 70
     1
102
RTVSPost2010Prop30
280
     1
102
RTVSPost2010PropOp30
 70
     1
102
RTVSPost2010Prop31
280
     0
102
RTVSPost2010PropOp31
 70
     1
102
RTVSPost2010Prop32
280
     0
102
RTVSPost2010PropOp32
 70
     1
102
RTVSPost2010Prop33
280
     0
102
RTVSPost2010PropOp33
 70
     1
102
RTVSPost2010Prop34
280
     0
102
RTVSPost2010PropOp34
 70
     1
102
RTVSPost2010Prop35
280
     0
102
RTVSPost2010PropOp35
 70
     1
102
RTVSPost2010Prop36
280
     0
102
RTVSPost2010PropOp36
 70
     1
102
RTVSPost2010Prop37
 90
       50
102
RTVSPost2010PropOp37
 70
     1
102
RTVSPost2010Prop38
140
0.0
102
RTVSPost2010PropOp38
 70
     1
102
RTVSPost2010Prop39
140
1.0
102
RTVSPost2010PropOp39
 70
     1
102
RTVSPost2010Prop40
 90
        0
102
RTVSPost2010PropOp40
 70
     1
102
RTVSPost2010Prop41ColorIndex
 90
       18
102
RTVSPost2010Prop41ColorRGB
 90
        0
102
RTVSPost2010PropOp41
 70
     1
102
RTVSPost2010Prop42
 90
       50
102
RTVSPost2010PropOp42
 70
     1
102
RTVSPost2010Prop43
 90
        3
102
RTVSPost2010PropOp43
 70
     1
102
RTVSPost2010Prop44ColorIndex
 90
        5
102
RTVSPost2010Prop44ColorRGB
 90
      255
102
RTVSPost2010PropOp44
 70
     1
102
RTVSPost2010Prop45
280
     0
102
RTVSPost2010PropOp45
 70
     1
102
RTVSPost2010Prop46
 90
       50
102
RTVSPost2010PropOp46
 70
     1
102
RTVSPost2010Prop47
 90
       50
102
RTVSPost2010PropOp47
 70
     1
102
RTVSPost2010Prop48
 90
       50
102
RTVSPost2010PropOp48
 70
     1
102
RTVSPost2010Prop49
280
     0
102
RTVSPost2010PropOp49
 70
     1
102
RTVSPost2010Prop50
 90
       50
102
RTVSPost2010PropOp50
 70
     1
102
RTVSPost2010Prop51ColorIndex
 90
      256
102
RTVSPost2010Prop51ColorRGB
 90
-16777216
102
RTVSPost2010PropOp51
 70
     0
102
RTVSPost2010Prop52
140
1.0
102
RTVSPost2010PropOp52
 70
     0
102
RTVSPost2010Prop53
 90
        2
102
RTVSPost2010PropOp53
 70
     1
102
RTVSPost2010Prop54
  1
strokes_ogs.tif
102
RTVSPost2010PropOp54
 70
     1
102
RTVSPost2010Prop55
280
     0
102
RTVSPost2010PropOp55
 70
     1
102
RTVSPost2010Prop56
140
1.0
102
RTVSPost2010PropOp56
 70
     1
102
RTVSPost2010Prop57
140
1.0
102
RTVSPost2010PropOp57
 70
     1
  0
XRECORD
  5
B21
102
{ACAD_REACTORS
330
B20
102
}
330
B20
100
AcDbXrecord
280
     1
102
RTVSPost2010Prop28
280
     0
102
RTVSPost2010PropOp28
 70
     1
102
RTVSPost2010Prop29
280
     1
102
RTVSPost2010PropOp29
 70
     1
102
RTVSPost2010Prop30
280
     1
102
RTVSPost2010PropOp30
 70
     1
102
RTVSPost2010Prop31
280
     0
102
RTVSPost2010PropOp31
 70
     1
102
RTVSPost2010Prop32
280
     0
102
RTVSPost2010PropOp32
 70
     1
102
RTVSPost2010Prop33
280
     0
102
RTVSPost2010PropOp33
 70
     1
102
RTVSPost2010Prop34
280
     0
102
RTVSPost2010PropOp34
 70
     1
102
RTVSPost2010Prop35
280
     0
102
RTVSPost2010PropOp35
 70
     1
102
RTVSPost2010Prop36
280
     0
102
RTVSPost2010PropOp36
 70
     1
102
RTVSPost2010Prop37
 90
       50
102
RTVSPost2010PropOp37
 70
     1
102
RTVSPost2010Prop38
140
0.0
102
RTVSPost2010PropOp38
 70
     1
102
RTVSPost2010Prop39
140
1.0
102
RTVSPost2010PropOp39
 70
     1
102
RTVSPost2010Prop40
 90
        0
102
RTVSPost2010PropOp40
 70
     1
102
RTVSPost2010Prop41ColorIndex
 90
       18
102
RTVSPost2010Prop41ColorRGB
 90
        0
102
RTVSPost2010PropOp41
 70
     1
102
RTVSPost2010Prop42
 90
       50
102
RTVSPost2010PropOp42
 70
     1
102
RTVSPost2010Prop43
 90
        3
102
RTVSPost2010PropOp43
 70
     1
102
RTVSPost2010Prop44ColorIndex
 90
        5
102
RTVSPost2010Prop44ColorRGB
 90
      255
102
RTVSPost2010PropOp44
 70
     1
102
RTVSPost2010Prop45
280
     0
102
RTVSPost2010PropOp45
 70
     1
102
RTVSPost2010Prop46
 90
       50
102
RTVSPost2010PropOp46
 70
     1
102
RTVSPost2010Prop47
 90
       50
102
RTVSPost2010PropOp47
 70
     1
102
RTVSPost2010Prop48
 90
       50
102
RTVSPost2010PropOp48
 70
     1
102
RTVSPost2010Prop49
280
     0
102
RTVSPost2010PropOp49
 70
     1
102
RTVSPost2010Prop50
 90
       50
102
RTVSPost2010PropOp50
 70
     1
102
RTVSPost2010Prop51ColorIndex
 90
      256
102
RTVSPost2010Prop51ColorRGB
 90
-16777216
102
RTVSPost2010PropOp51
 70
     0
102
RTVSPost2010Prop52
140
1.0
102
RTVSPost2010PropOp52
 70
     0
102
RTVSPost2010Prop53
 90
        2
102
RTVSPost2010PropOp53
 70
     1
102
RTVSPost2010Prop54
  1
strokes_ogs.tif
102
RTVSPost2010PropOp54
 70
     1
102
RTVSPost2010Prop55
280
     0
102
RTVSPost2010PropOp55
 70
     1
102
RTVSPost2010Prop56
140
1.0
102
RTVSPost2010PropOp56
 70
     1
102
RTVSPost2010Prop57
140
1.0
102
RTVSPost2010PropOp57
 70
     1
  0
XRECORD
  5
B29
102
{ACAD_REACTORS
330
B28
102
}
330
B28
100
AcDbXrecord
280
     1
102
RTVSPost2010Prop28
280
     0
102
RTVSPost2010PropOp28
 70
     1
102
RTVSPost2010Prop29
280
     1
102
RTVSPost2010PropOp29
 70
     1
102
RTVSPost2010Prop30
280
     1
102
RTVSPost2010PropOp30
 70
     1
102
RTVSPost2010Prop31
280
     0
102
RTVSPost2010PropOp31
 70
     1
102
RTVSPost2010Prop32
280
     0
102
RTVSPost2010PropOp32
 70
     1
102
RTVSPost2010Prop33
280
     0
102
RTVSPost2010PropOp33
 70
     1
102
RTVSPost2010Prop34
280
     0
102
RTVSPost2010PropOp34
 70
     1
102
RTVSPost2010Prop35
280
     0
102
RTVSPost2010PropOp35
 70
     1
102
RTVSPost2010Prop36
280
     0
102
RTVSPost2010PropOp36
 70
     1
102
RTVSPost2010Prop37
 90
       50
102
RTVSPost2010PropOp37
 70
     1
102
RTVSPost2010Prop38
140
0.0
102
RTVSPost2010PropOp38
 70
     1
102
RTVSPost2010Prop39
140
1.0
102
RTVSPost2010PropOp39
 70
     1
102
RTVSPost2010Prop40
 90
        0
102
RTVSPost2010PropOp40
 70
     1
102
RTVSPost2010Prop41ColorIndex
 90
       18
102
RTVSPost2010Prop41ColorRGB
 90
        0
102
RTVSPost2010PropOp41
 70
     1
102
RTVSPost2010Prop42
 90
       50
102
RTVSPost2010PropOp42
 70
     1
102
RTVSPost2010Prop43
 90
        3
102
RTVSPost2010PropOp43
 70
     1
102
RTVSPost2010Prop44ColorIndex
 90
        5
102
RTVSPost2010Prop44ColorRGB
 90
      255
102
RTVSPost2010PropOp44
 70
     1
102
RTVSPost2010Prop45
280
     0
102
RTVSPost2010PropOp45
 70
     1
102
RTVSPost2010Prop46
 90
       50
102
RTVSPost2010PropOp46
 70
     1
102
RTVSPost2010Prop47
 90
       50
102
RTVSPost2010PropOp47
 70
     1
102
RTVSPost2010Prop48
 90
       50
102
RTVSPost2010PropOp48
 70
     1
102
RTVSPost2010Prop49
280
     0
102
RTVSPost2010PropOp49
 70
     1
102
RTVSPost2010Prop50
 90
       50
102
RTVSPost2010PropOp50
 70
     1
102
RTVSPost2010Prop51ColorIndex
 90
      256
102
RTVSPost2010Prop51ColorRGB
 90
-16777216
102
RTVSPost2010PropOp51
 70
     0
102
RTVSPost2010Prop52
140
1.0
102
RTVSPost2010PropOp52
 70
     0
102
RTVSPost2010Prop53
 90
        2
102
RTVSPost2010PropOp53
 70
     1
102
RTVSPost2010Prop54
  1
strokes_ogs.tif
102
RTVSPost2010PropOp54
 70
     1
102
RTVSPost2010Prop55
280
     0
102
RTVSPost2010PropOp55
 70
     1
102
RTVSPost2010Prop56
140
1.0
102
RTVSPost2010PropOp56
 70
     1
102
RTVSPost2010Prop57
140
1.0
102
RTVSPost2010PropOp57
 70
     1
  0
XRECORD
  5
B1B
102
{ACAD_REACTORS
330
B1A
102
}
330
B1A
100
AcDbXrecord
280
     1
102
RTVSPost2010Prop28
280
     0
102
RTVSPost2010PropOp28
 70
     1
102
RTVSPost2010Prop29
280
     1
102
RTVSPost2010PropOp29
 70
     1
102
RTVSPost2010Prop30
280
     1
102
RTVSPost2010PropOp30
 70
     1
102
RTVSPost2010Prop31
280
     0
102
RTVSPost2010PropOp31
 70
     1
102
RTVSPost2010Prop32
280
     0
102
RTVSPost2010PropOp32
 70
     1
102
RTVSPost2010Prop33
280
     0
102
RTVSPost2010PropOp33
 70
     1
102
RTVSPost2010Prop34
280
     0
102
RTVSPost2010PropOp34
 70
     1
102
RTVSPost2010Prop35
280
     0
102
RTVSPost2010PropOp35
 70
     1
102
RTVSPost2010Prop36
280
     0
102
RTVSPost2010PropOp36
 70
     1
102
RTVSPost2010Prop37
 90
       50
102
RTVSPost2010PropOp37
 70
     1
102
RTVSPost2010Prop38
140
0.0
102
RTVSPost2010PropOp38
 70
     1
102
RTVSPost2010Prop39
140
1.0
102
RTVSPost2010PropOp39
 70
     1
102
RTVSPost2010Prop40
 90
        0
102
RTVSPost2010PropOp40
 70
     1
102
RTVSPost2010Prop41ColorIndex
 90
       18
102
RTVSPost2010Prop41ColorRGB
 90
        0
102
RTVSPost2010PropOp41
 70
     1
102
RTVSPost2010Prop42
 90
       50
102
RTVSPost2010PropOp42
 70
     1
102
RTVSPost2010Prop43
 90
        3
102
RTVSPost2010PropOp43
 70
     1
102
RTVSPost2010Prop44ColorIndex
 90
        5
102
RTVSPost2010Prop44ColorRGB
 90
      255
102
RTVSPost2010PropOp44
 70
     1
102
RTVSPost2010Prop45
280
     0
102
RTVSPost2010PropOp45
 70
     1
102
RTVSPost2010Prop46
 90
       50
102
RTVSPost2010PropOp46
 70
     1
102
RTVSPost2010Prop47
 90
       50
102
RTVSPost2010PropOp47
 70
     1
102
RTVSPost2010Prop48
 90
       50
102
RTVSPost2010PropOp48
 70
     1
102
RTVSPost2010Prop49
280
     0
102
RTVSPost2010PropOp49
 70
     1
102
RTVSPost2010Prop50
 90
       50
102
RTVSPost2010PropOp50
 70
     1
102
RTVSPost2010Prop51ColorIndex
 90
      256
102
RTVSPost2010Prop51ColorRGB
 90
-16777216
102
RTVSPost2010PropOp51
 70
     0
102
RTVSPost2010Prop52
140
1.0
102
RTVSPost2010PropOp52
 70
     0
102
RTVSPost2010Prop53
 90
        2
102
RTVSPost2010PropOp53
 70
     1
102
RTVSPost2010Prop54
  1
strokes_ogs.tif
102
RTVSPost2010PropOp54
 70
     1
102
RTVSPost2010Prop55
280
     0
102
RTVSPost2010PropOp55
 70
     1
102
RTVSPost2010Prop56
140
1.0
102
RTVSPost2010PropOp56
 70
     1
102
RTVSPost2010Prop57
140
1.0
102
RTVSPost2010PropOp57
 70
     1
  0
XRECORD
  5
B1F
102
{ACAD_REACTORS
330
B1E
102
}
330
B1E
100
AcDbXrecord
280
     1
102
RTVSPost2010Prop28
280
     0
102
RTVSPost2010PropOp28
 70
     1
102
RTVSPost2010Prop29
280
     1
102
RTVSPost2010PropOp29
 70
     1
102
RTVSPost2010Prop30
280
     1
102
RTVSPost2010PropOp30
 70
     1
102
RTVSPost2010Prop31
280
     0
102
RTVSPost2010PropOp31
 70
     1
102
RTVSPost2010Prop32
280
     0
102
RTVSPost2010PropOp32
 70
     1
102
RTVSPost2010Prop33
280
     0
102
RTVSPost2010PropOp33
 70
     1
102
RTVSPost2010Prop34
280
     0
102
RTVSPost2010PropOp34
 70
     1
102
RTVSPost2010Prop35
280
     0
102
RTVSPost2010PropOp35
 70
     1
102
RTVSPost2010Prop36
280
     0
102
RTVSPost2010PropOp36
 70
     1
102
RTVSPost2010Prop37
 90
       50
102
RTVSPost2010PropOp37
 70
     1
102
RTVSPost2010Prop38
140
0.0
102
RTVSPost2010PropOp38
 70
     1
102
RTVSPost2010Prop39
140
1.0
102
RTVSPost2010PropOp39
 70
     1
102
RTVSPost2010Prop40
 90
        0
102
RTVSPost2010PropOp40
 70
     1
102
RTVSPost2010Prop41ColorIndex
 90
       18
102
RTVSPost2010Prop41ColorRGB
 90
        0
102
RTVSPost2010PropOp41
 70
     1
102
RTVSPost2010Prop42
 90
       50
102
RTVSPost2010PropOp42
 70
     1
102
RTVSPost2010Prop43
 90
        3
102
RTVSPost2010PropOp43
 70
     1
102
RTVSPost2010Prop44ColorIndex
 90
        5
102
RTVSPost2010Prop44ColorRGB
 90
      255
102
RTVSPost2010PropOp44
 70
     1
102
RTVSPost2010Prop45
280
     0
102
RTVSPost2010PropOp45
 70
     1
102
RTVSPost2010Prop46
 90
       50
102
RTVSPost2010PropOp46
 70
     1
102
RTVSPost2010Prop47
 90
       50
102
RTVSPost2010PropOp47
 70
     1
102
RTVSPost2010Prop48
 90
       50
102
RTVSPost2010PropOp48
 70
     1
102
RTVSPost2010Prop49
280
     0
102
RTVSPost2010PropOp49
 70
     1
102
RTVSPost2010Prop50
 90
       50
102
RTVSPost2010PropOp50
 70
     1
102
RTVSPost2010Prop51ColorIndex
 90
      256
102
RTVSPost2010Prop51ColorRGB
 90
-16777216
102
RTVSPost2010PropOp51
 70
     0
102
RTVSPost2010Prop52
140
1.0
102
RTVSPost2010PropOp52
 70
     0
102
RTVSPost2010Prop53
 90
        2
102
RTVSPost2010PropOp53
 70
     1
102
RTVSPost2010Prop54
  1
strokes_ogs.tif
102
RTVSPost2010PropOp54
 70
     1
102
RTVSPost2010Prop55
280
     0
102
RTVSPost2010PropOp55
 70
     1
102
RTVSPost2010Prop56
140
1.0
102
RTVSPost2010PropOp56
 70
     1
102
RTVSPost2010Prop57
140
1.0
102
RTVSPost2010PropOp57
 70
     1
  0
XRECORD
  5
B2F
102
{ACAD_REACTORS
330
B2E
102
}
330
B2E
100
AcDbXrecord
280
     1
102
RTVSPost2010Prop28
280
     0
102
RTVSPost2010PropOp28
 70
     1
102
RTVSPost2010Prop29
280
     1
102
RTVSPost2010PropOp29
 70
     1
102
RTVSPost2010Prop30
280
     1
102
RTVSPost2010PropOp30
 70
     1
102
RTVSPost2010Prop31
280
     0
102
RTVSPost2010PropOp31
 70
     1
102
RTVSPost2010Prop32
280
     0
102
RTVSPost2010PropOp32
 70
     1
102
RTVSPost2010Prop33
280
     0
102
RTVSPost2010PropOp33
 70
     1
102
RTVSPost2010Prop34
280
     0
102
RTVSPost2010PropOp34
 70
     1
102
RTVSPost2010Prop35
280
     0
102
RTVSPost2010PropOp35
 70
     1
102
RTVSPost2010Prop36
280
     0
102
RTVSPost2010PropOp36
 70
     1
102
RTVSPost2010Prop37
 90
       50
102
RTVSPost2010PropOp37
 70
     1
102
RTVSPost2010Prop38
140
0.0
102
RTVSPost2010PropOp38
 70
     1
102
RTVSPost2010Prop39
140
1.0
102
RTVSPost2010PropOp39
 70
     1
102
RTVSPost2010Prop40
 90
        0
102
RTVSPost2010PropOp40
 70
     1
102
RTVSPost2010Prop41ColorIndex
 90
       18
102
RTVSPost2010Prop41ColorRGB
 90
        0
102
RTVSPost2010PropOp41
 70
     1
102
RTVSPost2010Prop42
 90
       50
102
RTVSPost2010PropOp42
 70
     1
102
RTVSPost2010Prop43
 90
        3
102
RTVSPost2010PropOp43
 70
     1
102
RTVSPost2010Prop44ColorIndex
 90
        5
102
RTVSPost2010Prop44ColorRGB
 90
      255
102
RTVSPost2010PropOp44
 70
     1
102
RTVSPost2010Prop45
280
     0
102
RTVSPost2010PropOp45
 70
     1
102
RTVSPost2010Prop46
 90
       50
102
RTVSPost2010PropOp46
 70
     1
102
RTVSPost2010Prop47
 90
       50
102
RTVSPost2010PropOp47
 70
     1
102
RTVSPost2010Prop48
 90
       50
102
RTVSPost2010PropOp48
 70
     1
102
RTVSPost2010Prop49
280
     0
102
RTVSPost2010PropOp49
 70
     1
102
RTVSPost2010Prop50
 90
       50
102
RTVSPost2010PropOp50
 70
     1
102
RTVSPost2010Prop51ColorIndex
 90
      256
102
RTVSPost2010Prop51ColorRGB
 90
-16777216
102
RTVSPost2010PropOp51
 70
     0
102
RTVSPost2010Prop52
140
1.0
102
RTVSPost2010PropOp52
 70
     0
102
RTVSPost2010Prop53
 90
        2
102
RTVSPost2010PropOp53
 70
     1
102
RTVSPost2010Prop54
  1
strokes_ogs.tif
102
RTVSPost2010PropOp54
 70
     1
102
RTVSPost2010Prop55
280
     0
102
RTVSPost2010PropOp55
 70
     1
102
RTVSPost2010Prop56
140
1.0
102
RTVSPost2010PropOp56
 70
     1
102
RTVSPost2010Prop57
140
1.0
102
RTVSPost2010PropOp57
 70
     1
  0
XRECORD
  5
B27
102
{ACAD_REACTORS
330
B26
102
}
330
B26
100
AcDbXrecord
280
     1
102
RTVSPost2010Prop28
280
     0
102
RTVSPost2010PropOp28
 70
     1
102
RTVSPost2010Prop29
280
     1
102
RTVSPost2010PropOp29
 70
     1
102
RTVSPost2010Prop30
280
     1
102
RTVSPost2010PropOp30
 70
     1
102
RTVSPost2010Prop31
280
     0
102
RTVSPost2010PropOp31
 70
     1
102
RTVSPost2010Prop32
280
     0
102
RTVSPost2010PropOp32
 70
     1
102
RTVSPost2010Prop33
280
     0
102
RTVSPost2010PropOp33
 70
     1
102
RTVSPost2010Prop34
280
     0
102
RTVSPost2010PropOp34
 70
     1
102
RTVSPost2010Prop35
280
     0
102
RTVSPost2010PropOp35
 70
     1
102
RTVSPost2010Prop36
280
     0
102
RTVSPost2010PropOp36
 70
     1
102
RTVSPost2010Prop37
 90
       50
102
RTVSPost2010PropOp37
 70
     1
102
RTVSPost2010Prop38
140
0.0
102
RTVSPost2010PropOp38
 70
     1
102
RTVSPost2010Prop39
140
1.0
102
RTVSPost2010PropOp39
 70
     1
102
RTVSPost2010Prop40
 90
        0
102
RTVSPost2010PropOp40
 70
     1
102
RTVSPost2010Prop41ColorIndex
 90
       18
102
RTVSPost2010Prop41ColorRGB
 90
        0
102
RTVSPost2010PropOp41
 70
     1
102
RTVSPost2010Prop42
 90
       50
102
RTVSPost2010PropOp42
 70
     1
102
RTVSPost2010Prop43
 90
        3
102
RTVSPost2010PropOp43
 70
     1
102
RTVSPost2010Prop44ColorIndex
 90
        5
102
RTVSPost2010Prop44ColorRGB
 90
      255
102
RTVSPost2010PropOp44
 70
     1
102
RTVSPost2010Prop45
280
     0
102
RTVSPost2010PropOp45
 70
     1
102
RTVSPost2010Prop46
 90
       50
102
RTVSPost2010PropOp46
 70
     1
102
RTVSPost2010Prop47
 90
       50
102
RTVSPost2010PropOp47
 70
     1
102
RTVSPost2010Prop48
 90
       50
102
RTVSPost2010PropOp48
 70
     1
102
RTVSPost2010Prop49
280
     0
102
RTVSPost2010PropOp49
 70
     1
102
RTVSPost2010Prop50
 90
       50
102
RTVSPost2010PropOp50
 70
     1
102
RTVSPost2010Prop51ColorIndex
 90
      256
102
RTVSPost2010Prop51ColorRGB
 90
-16777216
102
RTVSPost2010PropOp51
 70
     0
102
RTVSPost2010Prop52
140
1.0
102
RTVSPost2010PropOp52
 70
     0
102
RTVSPost2010Prop53
 90
        2
102
RTVSPost2010PropOp53
 70
     1
102
RTVSPost2010Prop54
  1
strokes_ogs.tif
102
RTVSPost2010PropOp54
 70
     1
102
RTVSPost2010Prop55
280
     0
102
RTVSPost2010PropOp55
 70
     1
102
RTVSPost2010Prop56
140
1.0
102
RTVSPost2010PropOp56
 70
     1
102
RTVSPost2010Prop57
140
1.0
102
RTVSPost2010PropOp57
 70
     1
  0
XRECORD
  5
B0B
102
{ACAD_REACTORS
330
B0A
102
}
330
B0A
100
AcDbXrecord
280
     1
102
RTVSPost2010Prop28
280
     0
102
RTVSPost2010PropOp28
 70
     1
102
RTVSPost2010Prop29
280
     1
102
RTVSPost2010PropOp29
 70
     1
102
RTVSPost2010Prop30
280
     1
102
RTVSPost2010PropOp30
 70
     1
102
RTVSPost2010Prop31
280
     0
102
RTVSPost2010PropOp31
 70
     1
102
RTVSPost2010Prop32
280
     0
102
RTVSPost2010PropOp32
 70
     1
102
RTVSPost2010Prop33
280
     0
102
RTVSPost2010PropOp33
 70
     1
102
RTVSPost2010Prop34
280
     0
102
RTVSPost2010PropOp34
 70
     1
102
RTVSPost2010Prop35
280
     0
102
RTVSPost2010PropOp35
 70
     1
102
RTVSPost2010Prop36
280
     0
102
RTVSPost2010PropOp36
 70
     1
102
RTVSPost2010Prop37
 90
       50
102
RTVSPost2010PropOp37
 70
     1
102
RTVSPost2010Prop38
140
0.0
102
RTVSPost2010PropOp38
 70
     1
102
RTVSPost2010Prop39
140
1.0
102
RTVSPost2010PropOp39
 70
     1
102
RTVSPost2010Prop40
 90
        0
102
RTVSPost2010PropOp40
 70
     1
102
RTVSPost2010Prop41ColorIndex
 90
       18
102
RTVSPost2010Prop41ColorRGB
 90
        0
102
RTVSPost2010PropOp41
 70
     1
102
RTVSPost2010Prop42
 90
       50
102
RTVSPost2010PropOp42
 70
     1
102
RTVSPost2010Prop43
 90
        3
102
RTVSPost2010PropOp43
 70
     1
102
RTVSPost2010Prop44ColorIndex
 90
        5
102
RTVSPost2010Prop44ColorRGB
 90
      255
102
RTVSPost2010PropOp44
 70
     1
102
RTVSPost2010Prop45
280
     0
102
RTVSPost2010PropOp45
 70
     1
102
RTVSPost2010Prop46
 90
       50
102
RTVSPost2010PropOp46
 70
     1
102
RTVSPost2010Prop47
 90
       50
102
RTVSPost2010PropOp47
 70
     1
102
RTVSPost2010Prop48
 90
       50
102
RTVSPost2010PropOp48
 70
     1
102
RTVSPost2010Prop49
280
     0
102
RTVSPost2010PropOp49
 70
     1
102
RTVSPost2010Prop50
 90
       50
102
RTVSPost2010PropOp50
 70
     1
102
RTVSPost2010Prop51ColorIndex
 90
      256
102
RTVSPost2010Prop51ColorRGB
 90
-16777216
102
RTVSPost2010PropOp51
 70
     0
102
RTVSPost2010Prop52
140
1.0
102
RTVSPost2010PropOp52
 70
     0
102
RTVSPost2010Prop53
 90
        2
102
RTVSPost2010PropOp53
 70
     1
102
RTVSPost2010Prop54
  1
strokes_ogs.tif
102
RTVSPost2010PropOp54
 70
     1
102
RTVSPost2010Prop55
280
     0
102
RTVSPost2010PropOp55
 70
     1
102
RTVSPost2010Prop56
140
1.0
102
RTVSPost2010PropOp56
 70
     1
102
RTVSPost2010Prop57
140
1.0
102
RTVSPost2010PropOp57
 70
     1
  0
XRECORD
  5
B0D
102
{ACAD_REACTORS
330
B0C
102
}
330
B0C
100
AcDbXrecord
280
     1
102
RTVSPost2010Prop28
280
     0
102
RTVSPost2010PropOp28
 70
     1
102
RTVSPost2010Prop29
280
     1
102
RTVSPost2010PropOp29
 70
     1
102
RTVSPost2010Prop30
280
     1
102
RTVSPost2010PropOp30
 70
     1
102
RTVSPost2010Prop31
280
     0
102
RTVSPost2010PropOp31
 70
     1
102
RTVSPost2010Prop32
280
     0
102
RTVSPost2010PropOp32
 70
     1
102
RTVSPost2010Prop33
280
     0
102
RTVSPost2010PropOp33
 70
     1
102
RTVSPost2010Prop34
280
     0
102
RTVSPost2010PropOp34
 70
     1
102
RTVSPost2010Prop35
280
     0
102
RTVSPost2010PropOp35
 70
     1
102
RTVSPost2010Prop36
280
     0
102
RTVSPost2010PropOp36
 70
     1
102
RTVSPost2010Prop37
 90
       50
102
RTVSPost2010PropOp37
 70
     1
102
RTVSPost2010Prop38
140
0.0
102
RTVSPost2010PropOp38
 70
     1
102
RTVSPost2010Prop39
140
1.0
102
RTVSPost2010PropOp39
 70
     1
102
RTVSPost2010Prop40
 90
        0
102
RTVSPost2010PropOp40
 70
     1
102
RTVSPost2010Prop41ColorIndex
 90
       18
102
RTVSPost2010Prop41ColorRGB
 90
        0
102
RTVSPost2010PropOp41
 70
     1
102
RTVSPost2010Prop42
 90
       50
102
RTVSPost2010PropOp42
 70
     1
102
RTVSPost2010Prop43
 90
        3
102
RTVSPost2010PropOp43
 70
     1
102
RTVSPost2010Prop44ColorIndex
 90
        5
102
RTVSPost2010Prop44ColorRGB
 90
      255
102
RTVSPost2010PropOp44
 70
     1
102
RTVSPost2010Prop45
280
     0
102
RTVSPost2010PropOp45
 70
     1
102
RTVSPost2010Prop46
 90
       50
102
RTVSPost2010PropOp46
 70
     1
102
RTVSPost2010Prop47
 90
       50
102
RTVSPost2010PropOp47
 70
     1
102
RTVSPost2010Prop48
 90
       50
102
RTVSPost2010PropOp48
 70
     1
102
RTVSPost2010Prop49
280
     0
102
RTVSPost2010PropOp49
 70
     1
102
RTVSPost2010Prop50
 90
       50
102
RTVSPost2010PropOp50
 70
     1
102
RTVSPost2010Prop51ColorIndex
 90
      256
102
RTVSPost2010Prop51ColorRGB
 90
-16777216
102
RTVSPost2010PropOp51
 70
     0
102
RTVSPost2010Prop52
140
1.0
102
RTVSPost2010PropOp52
 70
     0
102
RTVSPost2010Prop53
 90
        2
102
RTVSPost2010PropOp53
 70
     1
102
RTVSPost2010Prop54
  1
strokes_ogs.tif
102
RTVSPost2010PropOp54
 70
     1
102
RTVSPost2010Prop55
280
     0
102
RTVSPost2010PropOp55
 70
     1
102
RTVSPost2010Prop56
140
1.0
102
RTVSPost2010PropOp56
 70
     1
102
RTVSPost2010Prop57
140
1.0
102
RTVSPost2010PropOp57
 70
     1
  0
XRECORD
  5
B0F
102
{ACAD_REACTORS
330
B0E
102
}
330
B0E
100
AcDbXrecord
280
     1
102
RTVSPost2010Prop28
280
     0
102
RTVSPost2010PropOp28
 70
     1
102
RTVSPost2010Prop29
280
     1
102
RTVSPost2010PropOp29
 70
     1
102
RTVSPost2010Prop30
280
     1
102
RTVSPost2010PropOp30
 70
     1
102
RTVSPost2010Prop31
280
     0
102
RTVSPost2010PropOp31
 70
     1
102
RTVSPost2010Prop32
280
     0
102
RTVSPost2010PropOp32
 70
     1
102
RTVSPost2010Prop33
280
     0
102
RTVSPost2010PropOp33
 70
     1
102
RTVSPost2010Prop34
280
     0
102
RTVSPost2010PropOp34
 70
     1
102
RTVSPost2010Prop35
280
     0
102
RTVSPost2010PropOp35
 70
     1
102
RTVSPost2010Prop36
280
     0
102
RTVSPost2010PropOp36
 70
     1
102
RTVSPost2010Prop37
 90
       50
102
RTVSPost2010PropOp37
 70
     1
102
RTVSPost2010Prop38
140
0.0
102
RTVSPost2010PropOp38
 70
     1
102
RTVSPost2010Prop39
140
1.0
102
RTVSPost2010PropOp39
 70
     1
102
RTVSPost2010Prop40
 90
        0
102
RTVSPost2010PropOp40
 70
     1
102
RTVSPost2010Prop41ColorIndex
 90
       18
102
RTVSPost2010Prop41ColorRGB
 90
        0
102
RTVSPost2010PropOp41
 70
     1
102
RTVSPost2010Prop42
 90
       50
102
RTVSPost2010PropOp42
 70
     1
102
RTVSPost2010Prop43
 90
        3
102
RTVSPost2010PropOp43
 70
     1
102
RTVSPost2010Prop44ColorIndex
 90
        5
102
RTVSPost2010Prop44ColorRGB
 90
      255
102
RTVSPost2010PropOp44
 70
     1
102
RTVSPost2010Prop45
280
     0
102
RTVSPost2010PropOp45
 70
     1
102
RTVSPost2010Prop46
 90
       50
102
RTVSPost2010PropOp46
 70
     1
102
RTVSPost2010Prop47
 90
       50
102
RTVSPost2010PropOp47
 70
     1
102
RTVSPost2010Prop48
 90
       50
102
RTVSPost2010PropOp48
 70
     1
102
RTVSPost2010Prop49
280
     0
102
RTVSPost2010PropOp49
 70
     1
102
RTVSPost2010Prop50
 90
       50
102
RTVSPost2010PropOp50
 70
     1
102
RTVSPost2010Prop51ColorIndex
 90
      256
102
RTVSPost2010Prop51ColorRGB
 90
-16777216
102
RTVSPost2010PropOp51
 70
     0
102
RTVSPost2010Prop52
140
1.0
102
RTVSPost2010PropOp52
 70
     0
102
RTVSPost2010Prop53
 90
        2
102
RTVSPost2010PropOp53
 70
     1
102
RTVSPost2010Prop54
  1
strokes_ogs.tif
102
RTVSPost2010PropOp54
 70
     1
102
RTVSPost2010Prop55
280
     0
102
RTVSPost2010PropOp55
 70
     1
102
RTVSPost2010Prop56
140
1.0
102
RTVSPost2010PropOp56
 70
     1
102
RTVSPost2010Prop57
140
1.0
102
RTVSPost2010PropOp57
 70
     1
  0
XRECORD
  5
B11
102
{ACAD_REACTORS
330
B10
102
}
330
B10
100
AcDbXrecord
280
     1
102
RTVSPost2010Prop28
280
     0
102
RTVSPost2010PropOp28
 70
     1
102
RTVSPost2010Prop29
280
     1
102
RTVSPost2010PropOp29
 70
     1
102
RTVSPost2010Prop30
280
     1
102
RTVSPost2010PropOp30
 70
     1
102
RTVSPost2010Prop31
280
     0
102
RTVSPost2010PropOp31
 70
     1
102
RTVSPost2010Prop32
280
     0
102
RTVSPost2010PropOp32
 70
     1
102
RTVSPost2010Prop33
280
     0
102
RTVSPost2010PropOp33
 70
     1
102
RTVSPost2010Prop34
280
     0
102
RTVSPost2010PropOp34
 70
     1
102
RTVSPost2010Prop35
280
     0
102
RTVSPost2010PropOp35
 70
     1
102
RTVSPost2010Prop36
280
     0
102
RTVSPost2010PropOp36
 70
     1
102
RTVSPost2010Prop37
 90
       50
102
RTVSPost2010PropOp37
 70
     1
102
RTVSPost2010Prop38
140
0.0
102
RTVSPost2010PropOp38
 70
     1
102
RTVSPost2010Prop39
140
1.0
102
RTVSPost2010PropOp39
 70
     1
102
RTVSPost2010Prop40
 90
        0
102
RTVSPost2010PropOp40
 70
     1
102
RTVSPost2010Prop41ColorIndex
 90
       18
102
RTVSPost2010Prop41ColorRGB
 90
        0
102
RTVSPost2010PropOp41
 70
     1
102
RTVSPost2010Prop42
 90
       50
102
RTVSPost2010PropOp42
 70
     1
102
RTVSPost2010Prop43
 90
        3
102
RTVSPost2010PropOp43
 70
     1
102
RTVSPost2010Prop44ColorIndex
 90
        5
102
RTVSPost2010Prop44ColorRGB
 90
      255
102
RTVSPost2010PropOp44
 70
     1
102
RTVSPost2010Prop45
280
     0
102
RTVSPost2010PropOp45
 70
     1
102
RTVSPost2010Prop46
 90
       50
102
RTVSPost2010PropOp46
 70
     1
102
RTVSPost2010Prop47
 90
       50
102
RTVSPost2010PropOp47
 70
     1
102
RTVSPost2010Prop48
 90
       50
102
RTVSPost2010PropOp48
 70
     1
102
RTVSPost2010Prop49
280
     0
102
RTVSPost2010PropOp49
 70
     1
102
RTVSPost2010Prop50
 90
       50
102
RTVSPost2010PropOp50
 70
     1
102
RTVSPost2010Prop51ColorIndex
 90
      256
102
RTVSPost2010Prop51ColorRGB
 90
-16777216
102
RTVSPost2010PropOp51
 70
     0
102
RTVSPost2010Prop52
140
1.0
102
RTVSPost2010PropOp52
 70
     0
102
RTVSPost2010Prop53
 90
        2
102
RTVSPost2010PropOp53
 70
     1
102
RTVSPost2010Prop54
  1
strokes_ogs.tif
102
RTVSPost2010PropOp54
 70
     1
102
RTVSPost2010Prop55
280
     0
102
RTVSPost2010PropOp55
 70
     1
102
RTVSPost2010Prop56
140
1.0
102
RTVSPost2010PropOp56
 70
     1
102
RTVSPost2010Prop57
140
1.0
102
RTVSPost2010PropOp57
 70
     1
  0
XRECORD
  5
B33
102
{ACAD_REACTORS
330
B32
102
}
330
B32
100
AcDbXrecord
280
     1
102
RTVSPost2010Prop28
280
     0
102
RTVSPost2010PropOp28
 70
     1
102
RTVSPost2010Prop29
280
     1
102
RTVSPost2010PropOp29
 70
     1
102
RTVSPost2010Prop30
280
     1
102
RTVSPost2010PropOp30
 70
     1
102
RTVSPost2010Prop31
280
     0
102
RTVSPost2010PropOp31
 70
     1
102
RTVSPost2010Prop32
280
     0
102
RTVSPost2010PropOp32
 70
     1
102
RTVSPost2010Prop33
280
     0
102
RTVSPost2010PropOp33
 70
     1
102
RTVSPost2010Prop34
280
     0
102
RTVSPost2010PropOp34
 70
     1
102
RTVSPost2010Prop35
280
     0
102
RTVSPost2010PropOp35
 70
     1
102
RTVSPost2010Prop36
280
     0
102
RTVSPost2010PropOp36
 70
     1
102
RTVSPost2010Prop37
 90
       50
102
RTVSPost2010PropOp37
 70
     1
102
RTVSPost2010Prop38
140
0.0
102
RTVSPost2010PropOp38
 70
     1
102
RTVSPost2010Prop39
140
1.0
102
RTVSPost2010PropOp39
 70
     1
102
RTVSPost2010Prop40
 90
        0
102
RTVSPost2010PropOp40
 70
     1
102
RTVSPost2010Prop41ColorIndex
 90
       18
102
RTVSPost2010Prop41ColorRGB
 90
        0
102
RTVSPost2010PropOp41
 70
     1
102
RTVSPost2010Prop42
 90
       50
102
RTVSPost2010PropOp42
 70
     1
102
RTVSPost2010Prop43
 90
        3
102
RTVSPost2010PropOp43
 70
     1
102
RTVSPost2010Prop44ColorIndex
 90
        5
102
RTVSPost2010Prop44ColorRGB
 90
      255
102
RTVSPost2010PropOp44
 70
     1
102
RTVSPost2010Prop45
280
     0
102
RTVSPost2010PropOp45
 70
     1
102
RTVSPost2010Prop46
 90
       50
102
RTVSPost2010PropOp46
 70
     1
102
RTVSPost2010Prop47
 90
       50
102
RTVSPost2010PropOp47
 70
     1
102
RTVSPost2010Prop48
 90
       50
102
RTVSPost2010PropOp48
 70
     1
102
RTVSPost2010Prop49
280
     0
102
RTVSPost2010PropOp49
 70
     1
102
RTVSPost2010Prop50
 90
       50
102
RTVSPost2010PropOp50
 70
     1
102
RTVSPost2010Prop51ColorIndex
 90
      256
102
RTVSPost2010Prop51ColorRGB
 90
-16777216
102
RTVSPost2010PropOp51
 70
     0
102
RTVSPost2010Prop52
140
1.0
102
RTVSPost2010PropOp52
 70
     0
102
RTVSPost2010Prop53
 90
        2
102
RTVSPost2010PropOp53
 70
     1
102
RTVSPost2010Prop54
  1
strokes_ogs.tif
102
RTVSPost2010PropOp54
 70
     1
102
RTVSPost2010Prop55
280
     0
102
RTVSPost2010PropOp55
 70
     1
102
RTVSPost2010Prop56
140
1.0
102
RTVSPost2010PropOp56
 70
     1
102
RTVSPost2010Prop57
140
1.0
102
RTVSPost2010PropOp57
 70
     1
  0
XRECORD
  5
B2B
102
{ACAD_REACTORS
330
B2A
102
}
330
B2A
100
AcDbXrecord
280
     1
102
RTVSPost2010Prop28
280
     0
102
RTVSPost2010PropOp28
 70
     1
102
RTVSPost2010Prop29
280
     1
102
RTVSPost2010PropOp29
 70
     1
102
RTVSPost2010Prop30
280
     1
102
RTVSPost2010PropOp30
 70
     1
102
RTVSPost2010Prop31
280
     0
102
RTVSPost2010PropOp31
 70
     1
102
RTVSPost2010Prop32
280
     0
102
RTVSPost2010PropOp32
 70
     1
102
RTVSPost2010Prop33
280
     0
102
RTVSPost2010PropOp33
 70
     1
102
RTVSPost2010Prop34
280
     0
102
RTVSPost2010PropOp34
 70
     1
102
RTVSPost2010Prop35
280
     0
102
RTVSPost2010PropOp35
 70
     1
102
RTVSPost2010Prop36
280
     0
102
RTVSPost2010PropOp36
 70
     1
102
RTVSPost2010Prop37
 90
       50
102
RTVSPost2010PropOp37
 70
     1
102
RTVSPost2010Prop38
140
0.0
102
RTVSPost2010PropOp38
 70
     1
102
RTVSPost2010Prop39
140
1.0
102
RTVSPost2010PropOp39
 70
     1
102
RTVSPost2010Prop40
 90
        0
102
RTVSPost2010PropOp40
 70
     1
102
RTVSPost2010Prop41ColorIndex
 90
       18
102
RTVSPost2010Prop41ColorRGB
 90
        0
102
RTVSPost2010PropOp41
 70
     1
102
RTVSPost2010Prop42
 90
       50
102
RTVSPost2010PropOp42
 70
     1
102
RTVSPost2010Prop43
 90
        3
102
RTVSPost2010PropOp43
 70
     1
102
RTVSPost2010Prop44ColorIndex
 90
        5
102
RTVSPost2010Prop44ColorRGB
 90
      255
102
RTVSPost2010PropOp44
 70
     1
102
RTVSPost2010Prop45
280
     0
102
RTVSPost2010PropOp45
 70
     1
102
RTVSPost2010Prop46
 90
       50
102
RTVSPost2010PropOp46
 70
     1
102
RTVSPost2010Prop47
 90
       50
102
RTVSPost2010PropOp47
 70
     1
102
RTVSPost2010Prop48
 90
       50
102
RTVSPost2010PropOp48
 70
     1
102
RTVSPost2010Prop49
280
     0
102
RTVSPost2010PropOp49
 70
     1
102
RTVSPost2010Prop50
 90
       50
102
RTVSPost2010PropOp50
 70
     1
102
RTVSPost2010Prop51ColorIndex
 90
      256
102
RTVSPost2010Prop51ColorRGB
 90
-16777216
102
RTVSPost2010PropOp51
 70
     0
102
RTVSPost2010Prop52
140
1.0
102
RTVSPost2010PropOp52
 70
     0
102
RTVSPost2010Prop53
 90
        2
102
RTVSPost2010PropOp53
 70
     1
102
RTVSPost2010Prop54
  1
strokes_ogs.tif
102
RTVSPost2010PropOp54
 70
     1
102
RTVSPost2010Prop55
280
     0
102
RTVSPost2010PropOp55
 70
     1
102
RTVSPost2010Prop56
140
1.0
102
RTVSPost2010PropOp56
 70
     1
102
RTVSPost2010Prop57
140
1.0
102
RTVSPost2010PropOp57
 70
     1
  0
XRECORD
  5
B25
102
{ACAD_REACTORS
330
B24
102
}
330
B24
100
AcDbXrecord
280
     1
102
RTVSPost2010Prop28
280
     0
102
RTVSPost2010PropOp28
 70
     1
102
RTVSPost2010Prop29
280
     1
102
RTVSPost2010PropOp29
 70
     1
102
RTVSPost2010Prop30
280
     1
102
RTVSPost2010PropOp30
 70
     1
102
RTVSPost2010Prop31
280
     0
102
RTVSPost2010PropOp31
 70
     1
102
RTVSPost2010Prop32
280
     0
102
RTVSPost2010PropOp32
 70
     1
102
RTVSPost2010Prop33
280
     0
102
RTVSPost2010PropOp33
 70
     1
102
RTVSPost2010Prop34
280
     0
102
RTVSPost2010PropOp34
 70
     1
102
RTVSPost2010Prop35
280
     0
102
RTVSPost2010PropOp35
 70
     1
102
RTVSPost2010Prop36
280
     0
102
RTVSPost2010PropOp36
 70
     1
102
RTVSPost2010Prop37
 90
       50
102
RTVSPost2010PropOp37
 70
     1
102
RTVSPost2010Prop38
140
0.0
102
RTVSPost2010PropOp38
 70
     1
102
RTVSPost2010Prop39
140
1.0
102
RTVSPost2010PropOp39
 70
     1
102
RTVSPost2010Prop40
 90
        0
102
RTVSPost2010PropOp40
 70
     1
102
RTVSPost2010Prop41ColorIndex
 90
       18
102
RTVSPost2010Prop41ColorRGB
 90
        0
102
RTVSPost2010PropOp41
 70
     1
102
RTVSPost2010Prop42
 90
       50
102
RTVSPost2010PropOp42
 70
     1
102
RTVSPost2010Prop43
 90
        3
102
RTVSPost2010PropOp43
 70
     1
102
RTVSPost2010Prop44ColorIndex
 90
        5
102
RTVSPost2010Prop44ColorRGB
 90
      255
102
RTVSPost2010PropOp44
 70
     1
102
RTVSPost2010Prop45
280
     0
102
RTVSPost2010PropOp45
 70
     1
102
RTVSPost2010Prop46
 90
       50
102
RTVSPost2010PropOp46
 70
     1
102
RTVSPost2010Prop47
 90
       50
102
RTVSPost2010PropOp47
 70
     1
102
RTVSPost2010Prop48
 90
       50
102
RTVSPost2010PropOp48
 70
     1
102
RTVSPost2010Prop49
280
     0
102
RTVSPost2010PropOp49
 70
     1
102
RTVSPost2010Prop50
 90
       50
102
RTVSPost2010PropOp50
 70
     1
102
RTVSPost2010Prop51ColorIndex
 90
      256
102
RTVSPost2010Prop51ColorRGB
 90
-16777216
102
RTVSPost2010PropOp51
 70
     0
102
RTVSPost2010Prop52
140
1.0
102
RTVSPost2010PropOp52
 70
     0
102
RTVSPost2010Prop53
 90
        2
102
RTVSPost2010PropOp53
 70
     1
102
RTVSPost2010Prop54
  1
strokes_ogs.tif
102
RTVSPost2010PropOp54
 70
     1
102
RTVSPost2010Prop55
280
     0
102
RTVSPost2010PropOp55
 70
     1
102
RTVSPost2010Prop56
140
1.0
102
RTVSPost2010PropOp56
 70
     1
102
RTVSPost2010Prop57
140
1.0
102
RTVSPost2010PropOp57
 70
     1
  0
XRECORD
  5
B2D
102
{ACAD_REACTORS
330
B2C
102
}
330
B2C
100
AcDbXrecord
280
     1
102
RTVSPost2010Prop28
280
     0
102
RTVSPost2010PropOp28
 70
     1
102
RTVSPost2010Prop29
280
     1
102
RTVSPost2010PropOp29
 70
     1
102
RTVSPost2010Prop30
280
     1
102
RTVSPost2010PropOp30
 70
     1
102
RTVSPost2010Prop31
280
     0
102
RTVSPost2010PropOp31
 70
     1
102
RTVSPost2010Prop32
280
     0
102
RTVSPost2010PropOp32
 70
     1
102
RTVSPost2010Prop33
280
     0
102
RTVSPost2010PropOp33
 70
     1
102
RTVSPost2010Prop34
280
     0
102
RTVSPost2010PropOp34
 70
     1
102
RTVSPost2010Prop35
280
     0
102
RTVSPost2010PropOp35
 70
     1
102
RTVSPost2010Prop36
280
     0
102
RTVSPost2010PropOp36
 70
     1
102
RTVSPost2010Prop37
 90
       50
102
RTVSPost2010PropOp37
 70
     1
102
RTVSPost2010Prop38
140
0.0
102
RTVSPost2010PropOp38
 70
     1
102
RTVSPost2010Prop39
140
1.0
102
RTVSPost2010PropOp39
 70
     1
102
RTVSPost2010Prop40
 90
        0
102
RTVSPost2010PropOp40
 70
     1
102
RTVSPost2010Prop41ColorIndex
 90
       18
102
RTVSPost2010Prop41ColorRGB
 90
        0
102
RTVSPost2010PropOp41
 70
     1
102
RTVSPost2010Prop42
 90
       50
102
RTVSPost2010PropOp42
 70
     1
102
RTVSPost2010Prop43
 90
        3
102
RTVSPost2010PropOp43
 70
     1
102
RTVSPost2010Prop44ColorIndex
 90
        5
102
RTVSPost2010Prop44ColorRGB
 90
      255
102
RTVSPost2010PropOp44
 70
     1
102
RTVSPost2010Prop45
280
     0
102
RTVSPost2010PropOp45
 70
     1
102
RTVSPost2010Prop46
 90
       50
102
RTVSPost2010PropOp46
 70
     1
102
RTVSPost2010Prop47
 90
       50
102
RTVSPost2010PropOp47
 70
     1
102
RTVSPost2010Prop48
 90
       50
102
RTVSPost2010PropOp48
 70
     1
102
RTVSPost2010Prop49
280
     0
102
RTVSPost2010PropOp49
 70
     1
102
RTVSPost2010Prop50
 90
       50
102
RTVSPost2010PropOp50
 70
     1
102
RTVSPost2010Prop51ColorIndex
 90
      256
102
RTVSPost2010Prop51ColorRGB
 90
-16777216
102
RTVSPost2010PropOp51
 70
     0
102
RTVSPost2010Prop52
140
1.0
102
RTVSPost2010PropOp52
 70
     0
102
RTVSPost2010Prop53
 90
        2
102
RTVSPost2010PropOp53
 70
     1
102
RTVSPost2010Prop54
  1
strokes_ogs.tif
102
RTVSPost2010PropOp54
 70
     1
102
RTVSPost2010Prop55
280
     0
102
RTVSPost2010PropOp55
 70
     1
102
RTVSPost2010Prop56
140
1.0
102
RTVSPost2010PropOp56
 70
     1
102
RTVSPost2010Prop57
140
1.0
102
RTVSPost2010PropOp57
 70
     1
  0
XRECORD
  5
B1D
102
{ACAD_REACTORS
330
B1C
102
}
330
B1C
100
AcDbXrecord
280
     1
102
RTVSPost2010Prop28
280
     0
102
RTVSPost2010PropOp28
 70
     1
102
RTVSPost2010Prop29
280
     1
102
RTVSPost2010PropOp29
 70
     1
102
RTVSPost2010Prop30
280
     1
102
RTVSPost2010PropOp30
 70
     1
102
RTVSPost2010Prop31
280
     0
102
RTVSPost2010PropOp31
 70
     1
102
RTVSPost2010Prop32
280
     0
102
RTVSPost2010PropOp32
 70
     1
102
RTVSPost2010Prop33
280
     0
102
RTVSPost2010PropOp33
 70
     1
102
RTVSPost2010Prop34
280
     0
102
RTVSPost2010PropOp34
 70
     1
102
RTVSPost2010Prop35
280
     0
102
RTVSPost2010PropOp35
 70
     1
102
RTVSPost2010Prop36
280
     0
102
RTVSPost2010PropOp36
 70
     1
102
RTVSPost2010Prop37
 90
       50
102
RTVSPost2010PropOp37
 70
     1
102
RTVSPost2010Prop38
140
0.0
102
RTVSPost2010PropOp38
 70
     1
102
RTVSPost2010Prop39
140
1.0
102
RTVSPost2010PropOp39
 70
     1
102
RTVSPost2010Prop40
 90
        0
102
RTVSPost2010PropOp40
 70
     1
102
RTVSPost2010Prop41ColorIndex
 90
       18
102
RTVSPost2010Prop41ColorRGB
 90
        0
102
RTVSPost2010PropOp41
 70
     1
102
RTVSPost2010Prop42
 90
       50
102
RTVSPost2010PropOp42
 70
     1
102
RTVSPost2010Prop43
 90
        3
102
RTVSPost2010PropOp43
 70
     1
102
RTVSPost2010Prop44ColorIndex
 90
        5
102
RTVSPost2010Prop44ColorRGB
 90
      255
102
RTVSPost2010PropOp44
 70
     1
102
RTVSPost2010Prop45
280
     0
102
RTVSPost2010PropOp45
 70
     1
102
RTVSPost2010Prop46
 90
       50
102
RTVSPost2010PropOp46
 70
     1
102
RTVSPost2010Prop47
 90
       50
102
RTVSPost2010PropOp47
 70
     1
102
RTVSPost2010Prop48
 90
       50
102
RTVSPost2010PropOp48
 70
     1
102
RTVSPost2010Prop49
280
     0
102
RTVSPost2010PropOp49
 70
     1
102
RTVSPost2010Prop50
 90
       50
102
RTVSPost2010PropOp50
 70
     1
102
RTVSPost2010Prop51ColorIndex
 90
      256
102
RTVSPost2010Prop51ColorRGB
 90
-16777216
102
RTVSPost2010PropOp51
 70
     0
102
RTVSPost2010Prop52
140
1.0
102
RTVSPost2010PropOp52
 70
     0
102
RTVSPost2010Prop53
 90
        2
102
RTVSPost2010PropOp53
 70
     1
102
RTVSPost2010Prop54
  1
strokes_ogs.tif
102
RTVSPost2010PropOp54
 70
     1
102
RTVSPost2010Prop55
280
     0
102
RTVSPost2010PropOp55
 70
     1
102
RTVSPost2010Prop56
140
1.0
102
RTVSPost2010PropOp56
 70
     1
102
RTVSPost2010Prop57
140
1.0
102
RTVSPost2010PropOp57
 70
     1
  0
XRECORD
  5
B3D
102
{ACAD_REACTORS
330
B3C
102
}
330
B3C
100
AcDbXrecord
280
     1
102
RTVSPost2010Prop28
280
     0
102
RTVSPost2010PropOp28
 70
     1
102
RTVSPost2010Prop29
280
     1
102
RTVSPost2010PropOp29
 70
     1
102
RTVSPost2010Prop30
280
     1
102
RTVSPost2010PropOp30
 70
     1
102
RTVSPost2010Prop31
280
     0
102
RTVSPost2010PropOp31
 70
     1
102
RTVSPost2010Prop32
280
     0
102
RTVSPost2010PropOp32
 70
     1
102
RTVSPost2010Prop33
280
     0
102
RTVSPost2010PropOp33
 70
     1
102
RTVSPost2010Prop34
280
     0
102
RTVSPost2010PropOp34
 70
     1
102
RTVSPost2010Prop35
280
     0
102
RTVSPost2010PropOp35
 70
     1
102
RTVSPost2010Prop36
280
     0
102
RTVSPost2010PropOp36
 70
     1
102
RTVSPost2010Prop37
 90
       50
102
RTVSPost2010PropOp37
 70
     1
102
RTVSPost2010Prop38
140
0.0
102
RTVSPost2010PropOp38
 70
     1
102
RTVSPost2010Prop39
140
1.0
102
RTVSPost2010PropOp39
 70
     1
102
RTVSPost2010Prop40
 90
        0
102
RTVSPost2010PropOp40
 70
     1
102
RTVSPost2010Prop41ColorIndex
 90
       18
102
RTVSPost2010Prop41ColorRGB
 90
        0
102
RTVSPost2010PropOp41
 70
     1
102
RTVSPost2010Prop42
 90
       50
102
RTVSPost2010PropOp42
 70
     1
102
RTVSPost2010Prop43
 90
        3
102
RTVSPost2010PropOp43
 70
     1
102
RTVSPost2010Prop44ColorIndex
 90
        5
102
RTVSPost2010Prop44ColorRGB
 90
      255
102
RTVSPost2010PropOp44
 70
     1
102
RTVSPost2010Prop45
280
     0
102
RTVSPost2010PropOp45
 70
     1
102
RTVSPost2010Prop46
 90
       50
102
RTVSPost2010PropOp46
 70
     1
102
RTVSPost2010Prop47
 90
       50
102
RTVSPost2010PropOp47
 70
     1
102
RTVSPost2010Prop48
 90
       50
102
RTVSPost2010PropOp48
 70
     1
102
RTVSPost2010Prop49
280
     0
102
RTVSPost2010PropOp49
 70
     1
102
RTVSPost2010Prop50
 90
       50
102
RTVSPost2010PropOp50
 70
     1
102
RTVSPost2010Prop51ColorIndex
 90
      256
102
RTVSPost2010Prop51ColorRGB
 90
-16777216
102
RTVSPost2010PropOp51
 70
     0
102
RTVSPost2010Prop52
140
1.0
102
RTVSPost2010PropOp52
 70
     0
102
RTVSPost2010Prop53
 90
        2
102
RTVSPost2010PropOp53
 70
     1
102
RTVSPost2010Prop54
  1
strokes_ogs.tif
102
RTVSPost2010PropOp54
 70
     1
102
RTVSPost2010Prop55
280
     0
102
RTVSPost2010PropOp55
 70
     1
102
RTVSPost2010Prop56
140
1.0
102
RTVSPost2010PropOp56
 70
     1
102
RTVSPost2010Prop57
140
1.0
102
RTVSPost2010PropOp57
 70
     1
  0
XRECORD
  5
B3B
102
{ACAD_REACTORS
330
B3A
102
}
330
B3A
100
AcDbXrecord
280
     1
102
RTVSPost2010Prop28
280
     0
102
RTVSPost2010PropOp28
 70
     1
102
RTVSPost2010Prop29
280
     1
102
RTVSPost2010PropOp29
 70
     1
102
RTVSPost2010Prop30
280
     1
102
RTVSPost2010PropOp30
 70
     1
102
RTVSPost2010Prop31
280
     0
102
RTVSPost2010PropOp31
 70
     1
102
RTVSPost2010Prop32
280
     0
102
RTVSPost2010PropOp32
 70
     1
102
RTVSPost2010Prop33
280
     0
102
RTVSPost2010PropOp33
 70
     1
102
RTVSPost2010Prop34
280
     0
102
RTVSPost2010PropOp34
 70
     1
102
RTVSPost2010Prop35
280
     0
102
RTVSPost2010PropOp35
 70
     1
102
RTVSPost2010Prop36
280
     0
102
RTVSPost2010PropOp36
 70
     1
102
RTVSPost2010Prop37
 90
       50
102
RTVSPost2010PropOp37
 70
     1
102
RTVSPost2010Prop38
140
0.0
102
RTVSPost2010PropOp38
 70
     1
102
RTVSPost2010Prop39
140
1.0
102
RTVSPost2010PropOp39
 70
     1
102
RTVSPost2010Prop40
 90
        0
102
RTVSPost2010PropOp40
 70
     1
102
RTVSPost2010Prop41ColorIndex
 90
       18
102
RTVSPost2010Prop41ColorRGB
 90
        0
102
RTVSPost2010PropOp41
 70
     1
102
RTVSPost2010Prop42
 90
       50
102
RTVSPost2010PropOp42
 70
     1
102
RTVSPost2010Prop43
 90
        3
102
RTVSPost2010PropOp43
 70
     1
102
RTVSPost2010Prop44ColorIndex
 90
        5
102
RTVSPost2010Prop44ColorRGB
 90
      255
102
RTVSPost2010PropOp44
 70
     1
102
RTVSPost2010Prop45
280
     0
102
RTVSPost2010PropOp45
 70
     1
102
RTVSPost2010Prop46
 90
       50
102
RTVSPost2010PropOp46
 70
     1
102
RTVSPost2010Prop47
 90
       50
102
RTVSPost2010PropOp47
 70
     1
102
RTVSPost2010Prop48
 90
       50
102
RTVSPost2010PropOp48
 70
     1
102
RTVSPost2010Prop49
280
     0
102
RTVSPost2010PropOp49
 70
     1
102
RTVSPost2010Prop50
 90
       50
102
RTVSPost2010PropOp50
 70
     1
102
RTVSPost2010Prop51ColorIndex
 90
      256
102
RTVSPost2010Prop51ColorRGB
 90
-16777216
102
RTVSPost2010PropOp51
 70
     0
102
RTVSPost2010Prop52
140
1.0
102
RTVSPost2010PropOp52
 70
     0
102
RTVSPost2010Prop53
 90
        2
102
RTVSPost2010PropOp53
 70
     1
102
RTVSPost2010Prop54
  1
strokes_ogs.tif
102
RTVSPost2010PropOp54
 70
     1
102
RTVSPost2010Prop55
280
     0
102
RTVSPost2010PropOp55
 70
     1
102
RTVSPost2010Prop56
140
1.0
102
RTVSPost2010PropOp56
 70
     1
102
RTVSPost2010Prop57
140
1.0
102
RTVSPost2010PropOp57
 70
     1
  0
XRECORD
  5
B35
102
{ACAD_REACTORS
330
B34
102
}
330
B34
100
AcDbXrecord
280
     1
102
RTVSPost2010Prop28
280
     0
102
RTVSPost2010PropOp28
 70
     1
102
RTVSPost2010Prop29
280
     1
102
RTVSPost2010PropOp29
 70
     1
102
RTVSPost2010Prop30
280
     1
102
RTVSPost2010PropOp30
 70
     1
102
RTVSPost2010Prop31
280
     0
102
RTVSPost2010PropOp31
 70
     1
102
RTVSPost2010Prop32
280
     0
102
RTVSPost2010PropOp32
 70
     1
102
RTVSPost2010Prop33
280
     0
102
RTVSPost2010PropOp33
 70
     1
102
RTVSPost2010Prop34
280
     0
102
RTVSPost2010PropOp34
 70
     1
102
RTVSPost2010Prop35
280
     0
102
RTVSPost2010PropOp35
 70
     1
102
RTVSPost2010Prop36
280
     0
102
RTVSPost2010PropOp36
 70
     1
102
RTVSPost2010Prop37
 90
       50
102
RTVSPost2010PropOp37
 70
     1
102
RTVSPost2010Prop38
140
0.0
102
RTVSPost2010PropOp38
 70
     1
102
RTVSPost2010Prop39
140
1.0
102
RTVSPost2010PropOp39
 70
     1
102
RTVSPost2010Prop40
 90
        0
102
RTVSPost2010PropOp40
 70
     1
102
RTVSPost2010Prop41ColorIndex
 90
       18
102
RTVSPost2010Prop41ColorRGB
 90
        0
102
RTVSPost2010PropOp41
 70
     1
102
RTVSPost2010Prop42
 90
       50
102
RTVSPost2010PropOp42
 70
     1
102
RTVSPost2010Prop43
 90
        3
102
RTVSPost2010PropOp43
 70
     1
102
RTVSPost2010Prop44ColorIndex
 90
        5
102
RTVSPost2010Prop44ColorRGB
 90
      255
102
RTVSPost2010PropOp44
 70
     1
102
RTVSPost2010Prop45
280
     0
102
RTVSPost2010PropOp45
 70
     1
102
RTVSPost2010Prop46
 90
       50
102
RTVSPost2010PropOp46
 70
     1
102
RTVSPost2010Prop47
 90
       50
102
RTVSPost2010PropOp47
 70
     1
102
RTVSPost2010Prop48
 90
       50
102
RTVSPost2010PropOp48
 70
     1
102
RTVSPost2010Prop49
280
     0
102
RTVSPost2010PropOp49
 70
     1
102
RTVSPost2010Prop50
 90
       50
102
RTVSPost2010PropOp50
 70
     1
102
RTVSPost2010Prop51ColorIndex
 90
      256
102
RTVSPost2010Prop51ColorRGB
 90
-16777216
102
RTVSPost2010PropOp51
 70
     0
102
RTVSPost2010Prop52
140
1.0
102
RTVSPost2010PropOp52
 70
     0
102
RTVSPost2010Prop53
 90
        2
102
RTVSPost2010PropOp53
 70
     1
102
RTVSPost2010Prop54
  1
strokes_ogs.tif
102
RTVSPost2010PropOp54
 70
     1
102
RTVSPost2010Prop55
280
     0
102
RTVSPost2010PropOp55
 70
     1
102
RTVSPost2010Prop56
140
1.0
102
RTVSPost2010PropOp56
 70
     1
102
RTVSPost2010Prop57
140
1.0
102
RTVSPost2010PropOp57
 70
     1
  0
XRECORD
  5
B37
102
{ACAD_REACTORS
330
B36
102
}
330
B36
100
AcDbXrecord
280
     1
102
RTVSPost2010Prop28
280
     0
102
RTVSPost2010PropOp28
 70
     1
102
RTVSPost2010Prop29
280
     1
102
RTVSPost2010PropOp29
 70
     1
102
RTVSPost2010Prop30
280
     1
102
RTVSPost2010PropOp30
 70
     1
102
RTVSPost2010Prop31
280
     0
102
RTVSPost2010PropOp31
 70
     1
102
RTVSPost2010Prop32
280
     0
102
RTVSPost2010PropOp32
 70
     1
102
RTVSPost2010Prop33
280
     0
102
RTVSPost2010PropOp33
 70
     1
102
RTVSPost2010Prop34
280
     0
102
RTVSPost2010PropOp34
 70
     1
102
RTVSPost2010Prop35
280
     0
102
RTVSPost2010PropOp35
 70
     1
102
RTVSPost2010Prop36
280
     0
102
RTVSPost2010PropOp36
 70
     1
102
RTVSPost2010Prop37
 90
       50
102
RTVSPost2010PropOp37
 70
     1
102
RTVSPost2010Prop38
140
0.0
102
RTVSPost2010PropOp38
 70
     1
102
RTVSPost2010Prop39
140
1.0
102
RTVSPost2010PropOp39
 70
     1
102
RTVSPost2010Prop40
 90
        0
102
RTVSPost2010PropOp40
 70
     1
102
RTVSPost2010Prop41ColorIndex
 90
       18
102
RTVSPost2010Prop41ColorRGB
 90
        0
102
RTVSPost2010PropOp41
 70
     1
102
RTVSPost2010Prop42
 90
       50
102
RTVSPost2010PropOp42
 70
     1
102
RTVSPost2010Prop43
 90
        3
102
RTVSPost2010PropOp43
 70
     1
102
RTVSPost2010Prop44ColorIndex
 90
        5
102
RTVSPost2010Prop44ColorRGB
 90
      255
102
RTVSPost2010PropOp44
 70
     1
102
RTVSPost2010Prop45
280
     0
102
RTVSPost2010PropOp45
 70
     1
102
RTVSPost2010Prop46
 90
       50
102
RTVSPost2010PropOp46
 70
     1
102
RTVSPost2010Prop47
 90
       50
102
RTVSPost2010PropOp47
 70
     1
102
RTVSPost2010Prop48
 90
       50
102
RTVSPost2010PropOp48
 70
     1
102
RTVSPost2010Prop49
280
     0
102
RTVSPost2010PropOp49
 70
     1
102
RTVSPost2010Prop50
 90
       50
102
RTVSPost2010PropOp50
 70
     1
102
RTVSPost2010Prop51ColorIndex
 90
      256
102
RTVSPost2010Prop51ColorRGB
 90
-16777216
102
RTVSPost2010PropOp51
 70
     0
102
RTVSPost2010Prop52
140
1.0
102
RTVSPost2010PropOp52
 70
     0
102
RTVSPost2010Prop53
 90
        2
102
RTVSPost2010PropOp53
 70
     1
102
RTVSPost2010Prop54
  1
strokes_ogs.tif
102
RTVSPost2010PropOp54
 70
     1
102
RTVSPost2010Prop55
280
     0
102
RTVSPost2010PropOp55
 70
     1
102
RTVSPost2010Prop56
140
1.0
102
RTVSPost2010PropOp56
 70
     1
102
RTVSPost2010Prop57
140
1.0
102
RTVSPost2010PropOp57
 70
     1
  0
XRECORD
  5
B23
102
{ACAD_REACTORS
330
B22
102
}
330
B22
100
AcDbXrecord
280
     1
102
RTVSPost2010Prop28
280
     0
102
RTVSPost2010PropOp28
 70
     1
102
RTVSPost2010Prop29
280
     1
102
RTVSPost2010PropOp29
 70
     1
102
RTVSPost2010Prop30
280
     1
102
RTVSPost2010PropOp30
 70
     1
102
RTVSPost2010Prop31
280
     0
102
RTVSPost2010PropOp31
 70
     1
102
RTVSPost2010Prop32
280
     0
102
RTVSPost2010PropOp32
 70
     1
102
RTVSPost2010Prop33
280
     0
102
RTVSPost2010PropOp33
 70
     1
102
RTVSPost2010Prop34
280
     0
102
RTVSPost2010PropOp34
 70
     1
102
RTVSPost2010Prop35
280
     0
102
RTVSPost2010PropOp35
 70
     1
102
RTVSPost2010Prop36
280
     0
102
RTVSPost2010PropOp36
 70
     1
102
RTVSPost2010Prop37
 90
       50
102
RTVSPost2010PropOp37
 70
     1
102
RTVSPost2010Prop38
140
0.0
102
RTVSPost2010PropOp38
 70
     1
102
RTVSPost2010Prop39
140
1.0
102
RTVSPost2010PropOp39
 70
     1
102
RTVSPost2010Prop40
 90
        0
102
RTVSPost2010PropOp40
 70
     1
102
RTVSPost2010Prop41ColorIndex
 90
       18
102
RTVSPost2010Prop41ColorRGB
 90
        0
102
RTVSPost2010PropOp41
 70
     1
102
RTVSPost2010Prop42
 90
       50
102
RTVSPost2010PropOp42
 70
     1
102
RTVSPost2010Prop43
 90
        3
102
RTVSPost2010PropOp43
 70
     1
102
RTVSPost2010Prop44ColorIndex
 90
        5
102
RTVSPost2010Prop44ColorRGB
 90
      255
102
RTVSPost2010PropOp44
 70
     1
102
RTVSPost2010Prop45
280
     0
102
RTVSPost2010PropOp45
 70
     1
102
RTVSPost2010Prop46
 90
       50
102
RTVSPost2010PropOp46
 70
     1
102
RTVSPost2010Prop47
 90
       50
102
RTVSPost2010PropOp47
 70
     1
102
RTVSPost2010Prop48
 90
       50
102
RTVSPost2010PropOp48
 70
     1
102
RTVSPost2010Prop49
280
     0
102
RTVSPost2010PropOp49
 70
     1
102
RTVSPost2010Prop50
 90
       50
102
RTVSPost2010PropOp50
 70
     1
102
RTVSPost2010Prop51ColorIndex
 90
      256
102
RTVSPost2010Prop51ColorRGB
 90
-16777216
102
RTVSPost2010PropOp51
 70
     0
102
RTVSPost2010Prop52
140
1.0
102
RTVSPost2010PropOp52
 70
     0
102
RTVSPost2010Prop53
 90
        2
102
RTVSPost2010PropOp53
 70
     1
102
RTVSPost2010Prop54
  1
strokes_ogs.tif
102
RTVSPost2010PropOp54
 70
     1
102
RTVSPost2010Prop55
280
     0
102
RTVSPost2010PropOp55
 70
     1
102
RTVSPost2010Prop56
140
1.0
102
RTVSPost2010PropOp56
 70
     1
102
RTVSPost2010Prop57
140
1.0
102
RTVSPost2010PropOp57
 70
     1
  0
XRECORD
  5
B31
102
{ACAD_REACTORS
330
B30
102
}
330
B30
100
AcDbXrecord
280
     1
102
RTVSPost2010Prop28
280
     0
102
RTVSPost2010PropOp28
 70
     1
102
RTVSPost2010Prop29
280
     1
102
RTVSPost2010PropOp29
 70
     1
102
RTVSPost2010Prop30
280
     1
102
RTVSPost2010PropOp30
 70
     1
102
RTVSPost2010Prop31
280
     0
102
RTVSPost2010PropOp31
 70
     1
102
RTVSPost2010Prop32
280
     0
102
RTVSPost2010PropOp32
 70
     1
102
RTVSPost2010Prop33
280
     0
102
RTVSPost2010PropOp33
 70
     1
102
RTVSPost2010Prop34
280
     0
102
RTVSPost2010PropOp34
 70
     1
102
RTVSPost2010Prop35
280
     0
102
RTVSPost2010PropOp35
 70
     1
102
RTVSPost2010Prop36
280
     0
102
RTVSPost2010PropOp36
 70
     1
102
RTVSPost2010Prop37
 90
       50
102
RTVSPost2010PropOp37
 70
     1
102
RTVSPost2010Prop38
140
0.0
102
RTVSPost2010PropOp38
 70
     1
102
RTVSPost2010Prop39
140
1.0
102
RTVSPost2010PropOp39
 70
     1
102
RTVSPost2010Prop40
 90
        0
102
RTVSPost2010PropOp40
 70
     1
102
RTVSPost2010Prop41ColorIndex
 90
       18
102
RTVSPost2010Prop41ColorRGB
 90
        0
102
RTVSPost2010PropOp41
 70
     1
102
RTVSPost2010Prop42
 90
       50
102
RTVSPost2010PropOp42
 70
     1
102
RTVSPost2010Prop43
 90
        3
102
RTVSPost2010PropOp43
 70
     1
102
RTVSPost2010Prop44ColorIndex
 90
        5
102
RTVSPost2010Prop44ColorRGB
 90
      255
102
RTVSPost2010PropOp44
 70
     1
102
RTVSPost2010Prop45
280
     0
102
RTVSPost2010PropOp45
 70
     1
102
RTVSPost2010Prop46
 90
       50
102
RTVSPost2010PropOp46
 70
     1
102
RTVSPost2010Prop47
 90
       50
102
RTVSPost2010PropOp47
 70
     1
102
RTVSPost2010Prop48
 90
       50
102
RTVSPost2010PropOp48
 70
     1
102
RTVSPost2010Prop49
280
     0
102
RTVSPost2010PropOp49
 70
     1
102
RTVSPost2010Prop50
 90
       50
102
RTVSPost2010PropOp50
 70
     1
102
RTVSPost2010Prop51ColorIndex
 90
      256
102
RTVSPost2010Prop51ColorRGB
 90
-16777216
102
RTVSPost2010PropOp51
 70
     0
102
RTVSPost2010Prop52
140
1.0
102
RTVSPost2010PropOp52
 70
     0
102
RTVSPost2010Prop53
 90
        2
102
RTVSPost2010PropOp53
 70
     1
102
RTVSPost2010Prop54
  1
strokes_ogs.tif
102
RTVSPost2010PropOp54
 70
     1
102
RTVSPost2010Prop55
280
     0
102
RTVSPost2010PropOp55
 70
     1
102
RTVSPost2010Prop56
140
1.0
102
RTVSPost2010PropOp56
 70
     1
102
RTVSPost2010Prop57
140
1.0
102
RTVSPost2010PropOp57
 70
     1
  0
XRECORD
  5
B39
102
{ACAD_REACTORS
330
B38
102
}
330
B38
100
AcDbXrecord
280
     1
102
RTVSPost2010Prop28
280
     0
102
RTVSPost2010PropOp28
 70
     1
102
RTVSPost2010Prop29
280
     1
102
RTVSPost2010PropOp29
 70
     1
102
RTVSPost2010Prop30
280
     1
102
RTVSPost2010PropOp30
 70
     1
102
RTVSPost2010Prop31
280
     0
102
RTVSPost2010PropOp31
 70
     1
102
RTVSPost2010Prop32
280
     0
102
RTVSPost2010PropOp32
 70
     1
102
RTVSPost2010Prop33
280
     0
102
RTVSPost2010PropOp33
 70
     1
102
RTVSPost2010Prop34
280
     0
102
RTVSPost2010PropOp34
 70
     1
102
RTVSPost2010Prop35
280
     0
102
RTVSPost2010PropOp35
 70
     1
102
RTVSPost2010Prop36
280
     0
102
RTVSPost2010PropOp36
 70
     1
102
RTVSPost2010Prop37
 90
       50
102
RTVSPost2010PropOp37
 70
     1
102
RTVSPost2010Prop38
140
0.0
102
RTVSPost2010PropOp38
 70
     1
102
RTVSPost2010Prop39
140
1.0
102
RTVSPost2010PropOp39
 70
     1
102
RTVSPost2010Prop40
 90
        0
102
RTVSPost2010PropOp40
 70
     1
102
RTVSPost2010Prop41ColorIndex
 90
       18
102
RTVSPost2010Prop41ColorRGB
 90
        0
102
RTVSPost2010PropOp41
 70
     1
102
RTVSPost2010Prop42
 90
       50
102
RTVSPost2010PropOp42
 70
     1
102
RTVSPost2010Prop43
 90
        3
102
RTVSPost2010PropOp43
 70
     1
102
RTVSPost2010Prop44ColorIndex
 90
        5
102
RTVSPost2010Prop44ColorRGB
 90
      255
102
RTVSPost2010PropOp44
 70
     1
102
RTVSPost2010Prop45
280
     0
102
RTVSPost2010PropOp45
 70
     1
102
RTVSPost2010Prop46
 90
       50
102
RTVSPost2010PropOp46
 70
     1
102
RTVSPost2010Prop47
 90
       50
102
RTVSPost2010PropOp47
 70
     1
102
RTVSPost2010Prop48
 90
       50
102
RTVSPost2010PropOp48
 70
     1
102
RTVSPost2010Prop49
280
     0
102
RTVSPost2010PropOp49
 70
     1
102
RTVSPost2010Prop50
 90
       50
102
RTVSPost2010PropOp50
 70
     1
102
RTVSPost2010Prop51ColorIndex
 90
      256
102
RTVSPost2010Prop51ColorRGB
 90
-16777216
102
RTVSPost2010PropOp51
 70
     0
102
RTVSPost2010Prop52
140
1.0
102
RTVSPost2010PropOp52
 70
     0
102
RTVSPost2010Prop53
 90
        2
102
RTVSPost2010PropOp53
 70
     1
102
RTVSPost2010Prop54
  1
strokes_ogs.tif
102
RTVSPost2010PropOp54
 70
     1
102
RTVSPost2010Prop55
280
     0
102
RTVSPost2010PropOp55
 70
     1
102
RTVSPost2010Prop56
140
1.0
102
RTVSPost2010PropOp56
 70
     1
102
RTVSPost2010Prop57
140
1.0
102
RTVSPost2010PropOp57
 70
     1
  0
FIELD
  5
6C6
102
{ACAD_REACTORS
330
6C5
102
}
330
6C5
100
AcDbField
  1
_text
  2
%<\_FldIdx 0>%-%<\_FldIdx 1>%
 90
        2
360
6C7
360
6C8
 97
        0
 91
       63
 92
        0
 94
        9
 95
        2
 96
        0
300

 93
        0
  7
ACFD_FIELD_VALUE
 93
        3
 90
        0
 94
        0
300

302

304
ACVALUE_END
301

 98
        0
  0
FIELD
  5
6C7
330
6C6
100
AcDbField
  1
AcVar
  2
\AcVar ViewSectionStartId
 90
        0
 97
        0
 91
       63
 92
        0
 94
       43
 95
        2
 96
        0
300

 93
        1
  6
Variable
 93
        2
 90
        4
  1
ViewSectionStartId
 94
        0
300

302

304
ACVALUE_END
  7
ACFD_FIELD_VALUE
 93
        1
 90
        0
 94
        0
300

302

304
ACVALUE_END
301
----
 98
        4
  0
FIELD
  5
6C8
330
6C6
100
AcDbField
  1
AcVar
  2
\AcVar ViewSectionEndId
 90
        0
 97
        0
 91
       63
 92
        0
 94
       43
 95
        2
 96
        0
300

 93
        1
  6
Variable
 93
        2
 90
        4
  1
ViewSectionEndId
 94
        0
300

302

304
ACVALUE_END
  7
ACFD_FIELD_VALUE
 93
        1
 90
        0
 94
        0
300

302

304
ACVALUE_END
301
----
 98
        4
  0
ENDSEC
  0
EOF
