  0
SECTION
  2
HEADER
  9
$ACADVER
  1
AC1024
  9
$ACADMAINTVER
 70
   157
  9
$DWGCODEPAGE
  3
ANSI_1252
  9
$LASTSAVEDBY
  1
sbittorf
  9
$CUSTOMPROPERTYTAG
  1
AmdtFileType
  9
$CUSTOMPROPERTY
  1
84
  9
$INSBASE
 10
0.0
 20
0.0
 30
0.0
  9
$EXTMIN
 10
49.02613867149223
 20
30.10706766957251
 30
0.0
  9
$EXTMAX
 10
952.3323730409757
 20
449.0127904208916
 30
0.0
  9
$LIMMIN
 10
0.0
 20
0.0
  9
$LIMMAX
 10
420.0
 20
297.0
  9
$ORTHOMODE
 70
     0
  9
$REGENMODE
 70
     1
  9
$FILLMODE
 70
     1
  9
$QTEXTMODE
 70
     0
  9
$MIRRTEXT
 70
     1
  9
$LTSCALE
 40
1.0
  9
$ATTMODE
 70
     1
  9
$TEXTSIZE
 40
2.5
  9
$TRACEWID
 40
1.0
  9
$TEXTSTYLE
  7
STANDARD
  9
$CLAYER
  8
0
  9
$CELTYPE
  6
ByLayer
  9
$CECOLOR
 62
   256
  9
$CELTSCALE
 40
1.0
  9
$DISPSILH
 70
     0
  9
$DIMSCALE
 40
1.0
  9
$DIMASZ
 40
2.5
  9
$DIMEXO
 40
1.0
  9
$DIMDLI
 40
10.0
  9
$DIMRND
 40
0.0
  9
$DIMDLE
 40
0.0
  9
$DIMEXE
 40
1.0
  9
$DIMTP
 40
0.1
  9
$DIMTM
 40
0.1
  9
$DIMTXT
 40
3.5
  9
$DIMCEN
 40
0.0
  9
$DIMTSZ
 40
0.0
  9
$DIMTOL
 70
     0
  9
$DIMLIM
 70
     0
  9
$DIMTIH
 70
     0
  9
$DIMTOH
 70
     0
  9
$DIMSE1
 70
     0
  9
$DIMSE2
 70
     0
  9
$DIMTAD
 70
     1
  9
$DIMZIN
 70
     8
  9
$DIMBLK
  1

  9
$DIMASO
 70
     1
  9
$DIMSHO
 70
     1
  9
$DIMPOST
  1

  9
$DIMAPOST
  1
"
  9
$DIMALT
 70
     0
  9
$DIMALTD
 70
     2
  9
$DIMALTF
 40
0.0393701
  9
$DIMLFAC
 40
1.0
  9
$DIMTOFL
 70
     1
  9
$DIMTVP
 40
0.0
  9
$DIMTIX
 70
     0
  9
$DIMSOXD
 70
     0
  9
$DIMSAH
 70
     0
  9
$DIMBLK1
  1

  9
$DIMBLK2
  1

  9
$DIMSTYLE
  2
AM_DIN
  9
$DIMCLRD
 70
   256
  9
$DIMCLRE
 70
   256
  9
$DIMCLRT
 70
     2
  9
$DIMTFAC
 40
0.71
  9
$DIMGAP
 40
1.5
  9
$DIMJUST
 70
     0
  9
$DIMSD1
 70
     0
  9
$DIMSD2
 70
     0
  9
$DIMTOLJ
 70
     0
  9
$DIMTZIN
 70
     8
  9
$DIMALTZ
 70
     0
  9
$DIMALTTZ
 70
     0
  9
$DIMUPT
 70
     0
  9
$DIMDEC
 70
     2
  9
$DIMTDEC
 70
     3
  9
$DIMALTU
 70
     2
  9
$DIMALTTD
 70
     4
  9
$DIMTXSTY
  7
STANDARD
  9
$DIMAUNIT
 70
     0
  9
$DIMADEC
 70
     0
  9
$DIMALTRND
 40
0.0
  9
$DIMAZIN
 70
     2
  9
$DIMDSEP
 70
    46
  9
$DIMATFIT
 70
     3
  9
$DIMFRAC
 70
     0
  9
$DIMLDRBLK
  1

  9
$DIMLUNIT
 70
     2
  9
$DIMLWD
 70
    -1
  9
$DIMLWE
 70
    -1
  9
$DIMTMOVE
 70
     0
  9
$DIMFXL
 40
1.0
  9
$DIMFXLON
 70
     0
  9
$DIMJOGANG
 40
1.570796326794896
  9
$DIMTFILL
 70
     0
  9
$DIMTFILLCLR
 70
     0
  9
$DIMARCSYM
 70
     0
  9
$DIMLTYPE
  6

  9
$DIMLTEX1
  6

  9
$DIMLTEX2
  6

  9
$DIMTXTDIRECTION
 70
     0
  9
$LUNITS
 70
     2
  9
$LUPREC
 70
     2
  9
$SKETCHINC
 40
1.0
  9
$FILLETRAD
 40
0.0
  9
$AUNITS
 70
     0
  9
$AUPREC
 70
     0
  9
$MENU
  1
.
  9
$ELEVATION
 40
0.0
  9
$PELEVATION
 40
0.0
  9
$THICKNESS
 40
0.0
  9
$LIMCHECK
 70
     0
  9
$CHAMFERA
 40
2.5
  9
$CHAMFERB
 40
2.5
  9
$CHAMFERC
 40
20.0
  9
$CHAMFERD
 40
0.0
  9
$SKPOLY
 70
     0
  9
$TDCREATE
 40
2457921.315818275
  9
$TDUCREATE
 40
2457921.232484943
  9
$TDUPDATE
 40
2457921.318338102
  9
$TDUUPDATE
 40
2457921.235004769
  9
$TDINDWG
 40
0.0025203588
  9
$TDUSRTIMER
 40
0.0025202431
  9
$USRTIMER
 70
     1
  9
$ANGBASE
 50
0.0
  9
$ANGDIR
 70
     0
  9
$PDMODE
 70
     0
  9
$PDSIZE
 40
0.0
  9
$PLINEWID
 40
0.0
  9
$SPLFRAME
 70
     0
  9
$SPLINETYPE
 70
     6
  9
$SPLINESEGS
 70
     8
  9
$HANDSEED
  5
B41
  9
$SURFTAB1
 70
     6
  9
$SURFTAB2
 70
     6
  9
$SURFTYPE
 70
     6
  9
$SURFU
 70
     6
  9
$SURFV
 70
     6
  9
$UCSBASE
  2

  9
$UCSNAME
  2

  9
$UCSORG
 10
0.0
 20
0.0
 30
0.0
  9
$UCSXDIR
 10
1.0
 20
0.0
 30
0.0
  9
$UCSYDIR
 10
0.0
 20
1.0
 30
0.0
  9
$UCSORTHOREF
  2

  9
$UCSORTHOVIEW
 70
     0
  9
$UCSORGTOP
 10
0.0
 20
0.0
 30
0.0
  9
$UCSORGBOTTOM
 10
0.0
 20
0.0
 30
0.0
  9
$UCSORGLEFT
 10
0.0
 20
0.0
 30
0.0
  9
$UCSORGRIGHT
 10
0.0
 20
0.0
 30
0.0
  9
$UCSORGFRONT
 10
0.0
 20
0.0
 30
0.0
  9
$UCSORGBACK
 10
0.0
 20
0.0
 30
0.0
  9
$PUCSBASE
  2

  9
$PUCSNAME
  2

  9
$PUCSORG
 10
0.0
 20
0.0
 30
0.0
  9
$PUCSXDIR
 10
1.0
 20
0.0
 30
0.0
  9
$PUCSYDIR
 10
0.0
 20
1.0
 30
0.0
  9
$PUCSORTHOREF
  2

  9
$PUCSORTHOVIEW
 70
     0
  9
$PUCSORGTOP
 10
0.0
 20
0.0
 30
0.0
  9
$PUCSORGBOTTOM
 10
0.0
 20
0.0
 30
0.0
  9
$PUCSORGLEFT
 10
0.0
 20
0.0
 30
0.0
  9
$PUCSORGRIGHT
 10
0.0
 20
0.0
 30
0.0
  9
$PUCSORGFRONT
 10
0.0
 20
0.0
 30
0.0
  9
$PUCSORGBACK
 10
0.0
 20
0.0
 30
0.0
  9
$USERI1
 70
     0
  9
$USERI2
 70
     0
  9
$USERI3
 70
     0
  9
$USERI4
 70
     0
  9
$USERI5
 70
     0
  9
$USERR1
 40
0.0
  9
$USERR2
 40
0.0
  9
$USERR3
 40
0.0
  9
$USERR4
 40
0.0
  9
$USERR5
 40
0.0
  9
$WORLDVIEW
 70
     1
  9
$SHADEDGE
 70
     3
  9
$SHADEDIF
 70
    70
  9
$TILEMODE
 70
     1
  9
$MAXACTVP
 70
    64
  9
$PINSBASE
 10
0.0
 20
0.0
 30
0.0
  9
$PLIMCHECK
 70
     0
  9
$PEXTMIN
 10
1.000000000000000E+20
 20
1.000000000000000E+20
 30
1.000000000000000E+20
  9
$PEXTMAX
 10
-1.000000000000000E+20
 20
-1.000000000000000E+20
 30
-1.000000000000000E+20
  9
$PLIMMIN
 10
0.0
 20
0.0
  9
$PLIMMAX
 10
420.0
 20
297.0
  9
$UNITMODE
 70
     0
  9
$VISRETAIN
 70
     1
  9
$PLINEGEN
 70
     0
  9
$PSLTSCALE
 70
     1
  9
$TREEDEPTH
 70
  3020
  9
$CMLSTYLE
  2
Standard
  9
$CMLJUST
 70
     0
  9
$CMLSCALE
 40
20.0
  9
$PROXYGRAPHICS
 70
     1
  9
$MEASUREMENT
 70
     1
  9
$CELWEIGHT
370
    -1
  9
$ENDCAPS
280
     0
  9
$JOINSTYLE
280
     0
  9
$LWDISPLAY
290
     0
  9
$INSUNITS
 70
     4
  9
$HYPERLINKBASE
  1

  9
$STYLESHEET
  1

  9
$XEDIT
290
     1
  9
$CEPSNTYPE
380
     0
  9
$PSTYLEMODE
290
     1
  9
$FINGERPRINTGUID
  2
{600D967C-5A17-4D75-87CC-4580AA3ED944}
  9
$VERSIONGUID
  2
{F8663418-D156-4323-A907-BD063E1D6B3B}
  9
$EXTNAMES
290
     1
  9
$PSVPSCALE
 40
0.0
  9
$OLESTARTUP
290
     0
  9
$SORTENTS
280
   127
  9
$INDEXCTL
280
     0
  9
$HIDETEXT
280
     0
  9
$XCLIPFRAME
280
     0
  9
$HALOGAP
280
     0
  9
$OBSCOLOR
 70
   257
  9
$OBSLTYPE
280
     0
  9
$INTERSECTIONDISPLAY
280
     0
  9
$INTERSECTIONCOLOR
 70
   257
  9
$DIMASSOC
280
     2
  9
$PROJECTNAME
  1

  9
$CAMERADISPLAY
290
     0
  9
$LENSLENGTH
 40
50.0
  9
$CAMERAHEIGHT
 40
0.0
  9
$STEPSPERSEC
 40
2.0
  9
$STEPSIZE
 40
6.0
  9
$3DDWFPREC
 40
2.0
  9
$PSOLWIDTH
 40
0.25
  9
$PSOLHEIGHT
 40
4.0
  9
$LOFTANG1
 40
1.570796326794896
  9
$LOFTANG2
 40
1.570796326794896
  9
$LOFTMAG1
 40
0.0
  9
$LOFTMAG2
 40
0.0
  9
$LOFTPARAM
 70
     7
  9
$LOFTNORMALS
280
     1
  9
$LATITUDE
 40
37.795
  9
$LONGITUDE
 40
-122.394
  9
$NORTHDIRECTION
 40
0.0
  9
$TIMEZONE
 70
 -8000
  9
$LIGHTGLYPHDISPLAY
280
     1
  9
$TILEMODELIGHTSYNCH
280
     1
  9
$CMATERIAL
347
3B4
  9
$SOLIDHIST
280
     1
  9
$SHOWHIST
280
     1
  9
$DWFFRAME
280
     2
  9
$DGNFRAME
280
     0
  9
$REALWORLDSCALE
290
     1
  9
$INTERFERECOLOR
 62
     1
  9
$INTERFEREOBJVS
345
3D6
  9
$INTERFEREVPVS
346
5E6
  9
$CSHADOW
280
     0
  9
$SHADOWPLANELOCATION
 40
0.0
  0
ENDSEC
  0
SECTION
  2
CLASSES
  0
CLASS
  1
ACDBDICTIONARYWDFLT
  2
AcDbDictionaryWithDefault
  3
ObjectDBX Classes
 90
        0
 91
        1
280
     0
281
     0
  0
CLASS
  1
ACME_DOCUMENT
  2
AcMeDbDoc
  3
AcMeServices
 90
     1024
 91
        2
280
     0
281
     0
  0
CLASS
  1
AMGSETTINGSOBJ
  2
AmgSettingsObj
  3
"AcadM|Product Description: AutoCAD Mechanical|Company: Autodesk, Inc."
 90
     1024
 91
        4
280
     0
281
     0
  0
CLASS
  1
ACMESCOPE
  2
AcMeScope
  3
AcMeServices
 90
     1024
 91
        1
280
     0
281
     0
  0
CLASS
  1
ACMECOMMANDHISTORY
  2
AcMeCommandHistory
  3
AcMeServices
 90
     1024
 91
        1
280
     0
281
     0
  0
CLASS
  1
ACIMSYSVARMAN
  2
AcImSysVarManager
  3
AcMeServices
 90
     1024
 91
        5
280
     0
281
     0
  0
CLASS
  1
ACIMREALSYSVAR
  2
AcImRealSysVar
  3
AcMeServices
 90
     1024
 91
        3
280
     0
281
     0
  0
CLASS
  1
ACIMINTSYSVAR
  2
AcImIntSysVar
  3
AcMeServices
 90
     1024
 91
       27
280
     0
281
     0
  0
CLASS
  1
ACMEDRAWINGMAN
  2
AcMeDrawingMan
  3
AcMeServices
 90
     1024
 91
        0
280
     0
281
     0
  0
CLASS
  1
ACMEVIEW
  2
AcMeView
  3
AcMeServices
 90
     1024
 91
        0
280
     0
281
     0
  0
CLASS
  1
ACDBENTITYCACHE
  2
AcMeEntityCache
  3
AcMeServices
 90
     1024
 91
        1
280
     0
281
     0
  0
CLASS
  1
GSMANAGER
  2
AcMeGSManager
  3
AcMeServices
 90
     1024
 91
        0
280
     0
281
     0
  0
CLASS
  1
AMDTINTERNALREACTOR
  2
AmdtInternalReactor
  3
AcMeServices
 90
     1024
 91
        1
280
     0
281
     0
  0
CLASS
  1
ACMESTATEMGR
  2
AcMeStateMgr
  3
AcMeServices
 90
     1024
 91
        1
280
     0
281
     0
  0
CLASS
  1
ACGREFMASTER
  2
AcGrefMaster
  3
AcAttribServices
 90
     1024
 91
        1
280
     0
281
     0
  0
CLASS
  1
ACME_DATABASE
  2
AcMeDbDatabase
  3
AcMeServices
 90
     1024
 91
        2
280
     0
281
     0
  0
CLASS
  1
ACRFINSADJUSTERMGR
  2
AcRfInsAdjusterMgr
  3
AcMeServices
 90
     1024
 91
        1
280
     0
281
     0
  0
CLASS
  1
ACGREFACADMASTER
  2
AcGrefacadMaster
  3
AcGrefServices
 90
     1024
 91
        1
280
     0
281
     0
  0
CLASS
  1
AMIMASTER
  2
AmiMaster
  3
AmiServices
 90
     1024
 91
        1
280
     0
281
     0
  0
CLASS
  1
ACMDATADICTIONARY
  2
AcmDataDictionary
  3
"AcmSymBB|Product Description: AutoCAD Mechanical|Company: Autodesk, Inc."
 90
     1024
 91
        1
280
     0
281
     0
  0
CLASS
  1
ACMDATAENTRYBLOCK
  2
AcmDataEntryBlock
  3
AcmSymBB|Product Description: AutoCAD Mechanical|Company: Autodesk, Inc.
 90
     1024
 91
        1
280
     0
281
     0
  0
CLASS
  1
ACIMSTRSYSVAR
  2
AcImStrSysVar
  3
AcMeServices
 90
     1024
 91
        5
280
     0
281
     0
  0
CLASS
  1
ACMSTANDARDISO
  2
AcmStandardISO
  3
"Amdt_StdImp|Product Description: AutoCAD Mechanical|Company: Autodesk, Inc."
 90
     1024
 91
        1
280
     0
281
     0
  0
CLASS
  1
AMGOBJPROPCFG
  2
AmgObjPropCfg
  3
"AmgLay|Product Description: AutoCAD Mechanical|Company: Autodesk, Inc."
 90
     1024
 91
        1
280
     0
281
     0
  0
CLASS
  1
AMDTEDGESTANDARDISO
  2
AmdtEdgeStdISO
  3
"Amdt_StdImp|Product Description: AutoCAD Mechanical|Company: Autodesk, Inc."
 90
     1024
 91
        1
280
     0
281
     0
  0
CLASS
  1
ACMSURFSTANDARDISO
  2
AcmSurfTextStdISO
  3
"Amdt_StdImp|Product Description: AutoCAD Mechanical|Company: Autodesk, Inc."
 90
     1024
 91
        1
280
     0
281
     0
  0
CLASS
  1
ACMFCFSTANDARDISO
  2
AcmFCFStdISO
  3
"Amdt_StdImp|Product Description: AutoCAD Mechanical|Company: Autodesk, Inc."
 90
     1024
 91
        1
280
     0
281
     0
  0
CLASS
  1
ACMWELDSTANDARDISO
  2
AcmWeldingStdISO
  3
"Amdt_StdImp|Product Description: AutoCAD Mechanical|Company: Autodesk, Inc."
 90
     1024
 91
        1
280
     0
281
     0
  0
CLASS
  1
ACMIDSTANDARDISO
  2
AcmIdStdISO
  3
"Amdt_StdImp|Product Description: AutoCAD Mechanical|Company: Autodesk, Inc."
 90
     1024
 91
        1
280
     0
281
     0
  0
CLASS
  1
ACMDATUMSTANDARDISO
  2
AcmDatumStdISO
  3
"Amdt_StdImp|Product Description: AutoCAD Mechanical|Company: Autodesk, Inc."
 90
     1024
 91
        1
280
     0
281
     0
  0
CLASS
  1
ACMBOMSTANDARDISO
  2
AcmBOMStdISO
  3
"Amdt_StdImp|Product Description: AutoCAD Mechanical|Company: Autodesk, Inc."
 90
     1024
 91
        1
280
     0
281
     0
  0
CLASS
  1
ACMDETAILSTANDARDISO
  2
AmdtDetailSymStdISO
  3
"Amdt_StdImp|Product Description: AutoCAD Mechanical|Company: Autodesk, Inc."
 90
     1024
 91
        1
280
     0
281
     0
  0
CLASS
  1
ACMSECTIONSTANDARDISO
  2
AmdtSectionSymStdISO
  3
"Amdt_StdImp|Product Description: AutoCAD Mechanical|Company: Autodesk, Inc."
 90
     1024
 91
        1
280
     0
281
     0
  0
CLASS
  1
ACMCENTERLINESTANDARDISO
  2
AmdtCenterLineStdISO
  3
"Amdt_StdImp|Product Description: AutoCAD Mechanical|Company: Autodesk, Inc."
 90
     1024
 91
        1
280
     0
281
     0
  0
CLASS
  1
ACMNOTESTANDARDISO
  2
AmdtNoteStdISO
  3
"Amdt_StdImp|Product Description: AutoCAD Mechanical|Company: Autodesk, Inc."
 90
     1024
 91
        1
280
     0
281
     0
  0
CLASS
  1
ACAMGLAYSTD
  2
AcAmgLayStd
  3
"AmgLay|Product Description: AutoCAD Mechanical|Company: Autodesk, Inc."
 90
     1024
 91
        2
280
     0
281
     0
  0
CLASS
  1
ACAMGDIMSTD
  2
AcAmgDimStd
  3
"AmgDim|Product Description: AutoCAD Mechanical|Company: Autodesk, Inc."
 90
     1024
 91
        2
280
     0
281
     0
  0
CLASS
  1
ACAMGHOLECHARTSTDISO
  2
AcAmgHoleChartStdISO
  3
AmgDim|Product Description: AutoCAD Mechanical|Company: Autodesk, Inc.
 90
     1024
 91
        1
280
     0
281
     0
  0
CLASS
  1
ACAMGTITLESTD
  2
AcAmgTitleStd
  3
"AmgTitle|Product Description: AutoCAD Mechanical|Company: Autodesk, Inc."
 90
     1024
 91
        2
280
     0
281
     0
  0
CLASS
  1
LAYER_INDEX
  2
AcDbLayerIndex
  3
ObjectDBX Classes
 90
        0
 91
        0
280
     0
281
     0
  0
CLASS
  1
IDBUFFER
  2
AcDbIdBuffer
  3
ObjectDBX Classes
 90
        0
 91
        0
280
     0
281
     0
  0
CLASS
  1
DICTIONARYVAR
  2
AcDbDictionaryVar
  3
ObjectDBX Classes
 90
        0
 91
       11
280
     0
281
     0
  0
CLASS
  1
AM_DRAWING_MGR
  2
AcDmDwgMgr
  3
AcMechDwgViewMgmt
 90
     1024
 91
        1
280
     0
281
     0
  0
CLASS
  1
AM_DWG_DOCUMENT
  2
AcDmDwgDocument
  3
AcMechDwgViewMgmt
 90
     1024
 91
        1
280
     0
281
     0
  0
CLASS
  1
AM_DWG_SHEET
  2
AcDmSheet
  3
AcMechDwgViewMgmt
 90
     1024
 91
        2
280
     0
281
     0
  0
CLASS
  1
AM_VIEWDIMPARMAP
  2
AcDmViewDimParMap
  3
AcMechDwgViewMgmt
 90
     1024
 91
        2
280
     0
281
     0
  0
CLASS
  1
AM_DWGMGR_NAME
  2
AcDmDwgMgrName
  3
AcMechDwgViewMgmt
 90
     1024
 91
        1
280
     0
281
     0
  0
CLASS
  1
AMDTMENUSTATEMGR
  2
AmdtMenuStateMgr
  3
McadcomServices
 90
     1024
 91
        1
280
     0
281
     0
  0
CLASS
  1
AMDTMCOMMENUSTATE
  2
AmdtMcomMenuState
  3
McadcomServices
 90
     1024
 91
        1
280
     0
281
     0
  0
CLASS
  1
MAPIAMMOUDLE
  2
MApiAmModule
  3
MApiAmServices
 90
     1024
 91
        1
280
     0
281
     0
  0
CLASS
  1
AMDTADMENUSTATE
  2
AmdtAdMenuState
  3
DesignerServices
 90
     1024
 91
        0
280
     0
281
     0
  0
CLASS
  1
ADAPPL
  2
AcAdAppl
  3
DesignerAssemblies
 90
     1024
 91
        0
280
     0
281
     0
  0
CLASS
  1
DEPMGR
  2
AcAdDepMgr
  3
DesignerAssemblies
 90
     1024
 91
        0
280
     0
281
     0
  0
CLASS
  1
PARAMMGR
  2
AcAdParamMgr
  3
DesignerAssemblies
 90
     1024
 91
        0
280
     0
281
     0
  0
CLASS
  1
PARAMSCOPE
  2
AcAdParamScope
  3
DesignerAssemblies
 90
     1024
 91
        0
280
     0
281
     0
  0
CLASS
  1
NAMEDAPPL
  2
AcAdNamedAppl
  3
DesignerAssemblies
 90
     1024
 91
        0
280
     0
281
     0
  0
CLASS
  1
AMDTDMMENUSTATE
  2
AmdtDmMenuState
  3
AcMechDwgViewMgmt
 90
     1024
 91
        0
280
     0
281
     0
  0
CLASS
  1
AMDTAMMENUSTATE
  2
AmdtAmMenuState
  3
DesignerAssemblies
 90
     1024
 91
        1
280
     0
281
     0
  0
CLASS
  1
ACAMPROJECT
  2
AcAmProject
  3
DesignerAssemblies
 90
     1024
 91
        1
280
     0
281
     0
  0
CLASS
  1
ACAMGRCOMPDEF
  2
AcAmGrCompDef
  3
DesignerAssemblies
 90
     1024
 91
        1
280
     0
281
     0
  0
CLASS
  1
ACCMCONTEXT
  2
AcCmContext
  3
DesignerAssemblies
 90
     1024
 91
        1
280
     0
281
     0
  0
CLASS
  1
ACAMCOMPDEF
  2
AcAmCompDef
  3
DesignerAssemblies
 90
     1024
 91
        1
280
     0
281
     0
  0
CLASS
  1
ACAMCOMPDEFMGR
  2
AcAmCompDefMgr
  3
DesignerAssemblies
 90
     1024
 91
        1
280
     0
281
     0
  0
CLASS
  1
AMCONTEXTMGR
  2
AcAmContextMgr
  3
DesignerAssemblies
 90
     1024
 91
        1
280
     0
281
     0
  0
CLASS
  1
ACAMCONTEXTMODELER
  2
AcAmContextModeler
  3
DesignerAssemblies
 90
     1024
 91
        1
280
     0
281
     0
  0
CLASS
  1
ACMTHREADLINESTANDARDISO
  2
AmdtThreadLineStdISO
  3
"Amdt_StdImp|Product Description: AutoCAD Mechanical|Company: Autodesk, Inc."
 90
     1024
 91
        1
280
     0
281
     0
  0
CLASS
  1
CATALOGSTATE
  2
AcAmCatalogState
  3
DesignerAssemblies
 90
     1024
 91
        0
280
     0
281
     0
  0
CLASS
  1
ACAMGRCOMPDEFSET
  2
AcAmGrCompDefSet
  3
DesignerAssemblies
 90
     1024
 91
        1
280
     0
281
     0
  0
CLASS
  1
AMDTBROWSERDBTAB
  2
AmdtBrowserDbTab
  3
McadcomServices
 90
     1024
 91
        1
280
     0
281
     0
  0
CLASS
  1
CBROWSERAPPOBJECT
  2
CBrowserAppObject
  3
McadcomServices
 90
     1024
 91
        2
280
     0
281
     0
  0
CLASS
  1
DM_PLACEHOLDER
  2
AcDmSelsetPlaceholder
  3
McadcomServices
 90
     1024
 91
        1
280
     0
281
     0
  0
CLASS
  1
TABLESTYLE
  2
AcDbTableStyle
  3
ObjectDBX Classes
 90
     4095
 91
        1
280
     0
281
     0
  0
CLASS
  1
VAACXREFPANELOBJECT
  2
VaAcXREFPanelObject
  3
VAAC_ADDIN
 90
        0
 91
        0
280
     0
281
     0
  0
CLASS
  1
VAACIMAGEINVENTORY
  2
VaAcImageInventory
  3
VAAC_ADDIN
 90
        0
 91
        0
280
     0
281
     0
  0
CLASS
  1
AMDTNOTETEMPLATEDB
  2
AmdtNoteTemplateDB
  3
AcmSymBB|Product Description: AutoCAD Mechanical|Company: Autodesk, Inc.
 90
     1024
 91
       12
280
     0
281
     0
  0
CLASS
  1
ACAMGFILTERDAT
  2
AcAmgFilterDat
  3
"AcadM|Product Description: AutoCAD Mechanical|Company: Autodesk, Inc."
 90
     1024
 91
        6
280
     0
281
     0
  0
CLASS
  1
ACMBOM
  2
AcmBom
  3
"AcmSymBB|Product Description: AutoCAD Mechanical|Company: Autodesk, Inc."
 90
     1024
 91
        0
280
     0
281
     0
  0
CLASS
  1
AMDTFORMULAUPDATEDISPATCHER
  2
AmdtFormulaUpdateDispatcher
  3
AcMeServices
 90
     1024
 91
        0
280
     0
281
     0
  0
CLASS
  1
ACMSTANDARDDIN
  2
AcmStandardDIN
  3
"Amdt_StdImp|Product Description: AutoCAD Mechanical|Company: Autodesk, Inc."
 90
     1024
 91
        1
280
     0
281
     0
  0
CLASS
  1
AMDTEDGESTANDARDDIN13715
  2
AmdtEdgeStdDIN13715
  3
"Amdt_StdImp|Product Description: AutoCAD Mechanical|Company: Autodesk, Inc."
 90
     1024
 91
        1
280
     0
281
     0
  0
CLASS
  1
ACMSURFSTANDARDDIN
  2
AcmSurfTextStdDIN
  3
"Amdt_StdImp|Product Description: AutoCAD Mechanical|Company: Autodesk, Inc."
 90
     1024
 91
        1
280
     0
281
     0
  0
CLASS
  1
ACMFCFSTANDARDDIN
  2
AcmFCFStdDIN
  3
"Amdt_StdImp|Product Description: AutoCAD Mechanical|Company: Autodesk, Inc."
 90
     1024
 91
        1
280
     0
281
     0
  0
CLASS
  1
ACMWELDSTANDARDDIN
  2
AcmWeldingStdDIN
  3
"Amdt_StdImp|Product Description: AutoCAD Mechanical|Company: Autodesk, Inc."
 90
     1024
 91
        1
280
     0
281
     0
  0
CLASS
  1
ACMIDSTANDARDDIN
  2
AcmIdStdDIN
  3
"Amdt_StdImp|Product Description: AutoCAD Mechanical|Company: Autodesk, Inc."
 90
     1024
 91
        1
280
     0
281
     0
  0
CLASS
  1
ACMDATUMSTANDARDDIN
  2
AcmDatumStdDIN
  3
"Amdt_StdImp|Product Description: AutoCAD Mechanical|Company: Autodesk, Inc."
 90
     1024
 91
        1
280
     0
281
     0
  0
CLASS
  1
ACMBOMSTANDARDDIN
  2
AcmBOMStdDIN
  3
"Amdt_StdImp|Product Description: AutoCAD Mechanical|Company: Autodesk, Inc."
 90
     1024
 91
        1
280
     0
281
     0
  0
CLASS
  1
ACMDETAILSTANDARDDIN
  2
AmdtDetailSymStdDIN
  3
"Amdt_StdImp|Product Description: AutoCAD Mechanical|Company: Autodesk, Inc."
 90
     1024
 91
        1
280
     0
281
     0
  0
CLASS
  1
ACMSECTIONSTANDARDDIN
  2
AmdtSectionSymStdDIN
  3
"Amdt_StdImp|Product Description: AutoCAD Mechanical|Company: Autodesk, Inc."
 90
     1024
 91
        1
280
     0
281
     0
  0
CLASS
  1
ACMCENTERLINESTANDARDDIN
  2
AmdtCenterLineStdDIN
  3
"Amdt_StdImp|Product Description: AutoCAD Mechanical|Company: Autodesk, Inc."
 90
     1024
 91
        1
280
     0
281
     0
  0
CLASS
  1
ACMTHREADLINESTANDARDDIN
  2
AmdtThreadLineStdDIN
  3
"Amdt_StdImp|Product Description: AutoCAD Mechanical|Company: Autodesk, Inc."
 90
     1024
 91
        1
280
     0
281
     0
  0
CLASS
  1
ACMNOTESTANDARDDIN
  2
AmdtNoteStdDIN
  3
"Amdt_StdImp|Product Description: AutoCAD Mechanical|Company: Autodesk, Inc."
 90
     1024
 91
        1
280
     0
281
     0
  0
CLASS
  1
ACAMGHOLECHARTSTDDIN
  2
AcAmgHoleChartStdDIN
  3
AmgDim|Product Description: AutoCAD Mechanical|Company: Autodesk, Inc.
 90
     1024
 91
        1
280
     0
281
     0
  0
CLASS
  1
MATERIAL
  2
AcDbMaterial
  3
ObjectDBX Classes
 90
     1153
 91
        3
280
     0
281
     0
  0
CLASS
  1
VISUALSTYLE
  2
AcDbVisualStyle
  3
ObjectDBX Classes
 90
     4095
 91
       26
280
     0
281
     0
  0
CLASS
  1
SCALE
  2
AcDbScale
  3
ObjectDBX Classes
 90
     1153
 91
       17
280
     0
281
     0
  0
CLASS
  1
MLEADERSTYLE
  2
AcDbMLeaderStyle
  3
ACDB_MLEADERSTYLE_CLASS
 90
     4095
 91
        1
280
     0
281
     0
  0
CLASS
  1
ACRFATTGENMGR
  2
AcRfAttGeneralMgr
  3
AcAttribServices
 90
     1024
 91
        1
280
     0
281
     0
  0
CLASS
  1
ACRFOBJATTMGR
  2
AcRfObjAttGroupMgr
  3
AcAttribServices
 90
     1024
 91
        1
280
     0
281
     0
  0
CLASS
  1
ACRFMCADAPIATTHOLDER
  2
AcRfMCADAPIAttHolder
  3
AcAttribServices
 90
     1024
 91
        1
280
     0
281
     0
  0
CLASS
  1
AMDTSYSATTR
  2
AmdtSystemAttribute
  3
AcAttribServices
 90
     1024
 91
        1
280
     0
281
     0
  0
CLASS
  1
ACMTAPERSTANDARDISO
  2
AcmTaperStdISO
  3
"Amdt_StdImp|Product Description: AutoCAD Mechanical|Company: Autodesk, Inc."
 90
     1024
 91
        1
280
     0
281
     0
  0
CLASS
  1
ACMANOOTATIONVIEWSTANDARDISO
  2
AmdtAnViewStdISO
  3
"Amdt_StdImp|Product Description: AutoCAD Mechanical|Company: Autodesk, Inc."
 90
     1024
 91
        1
280
     0
281
     0
  0
CLASS
  1
ACMTAPERSTANDARDDIN
  2
AcmTaperStdDIN
  3
"Amdt_StdImp|Product Description: AutoCAD Mechanical|Company: Autodesk, Inc."
 90
     1024
 91
        1
280
     0
281
     0
  0
CLASS
  1
ACMANOOTATIONVIEWSTANDARDDIN
  2
AmdtAnViewStdDIN
  3
"Amdt_StdImp|Product Description: AutoCAD Mechanical|Company: Autodesk, Inc."
 90
     1024
 91
        1
280
     0
281
     0
  0
CLASS
  1
EXACXREFPANELOBJECT
  2
ExAcXREFPanelObject
  3
EXAC_ESW
 90
     1025
 91
        0
280
     0
281
     0
  0
CLASS
  1
NPOCOLLECTION
  2
AcDbImpNonPersistentObjectsCollection
  3
ObjectDBX Classes
 90
     1153
 91
        0
280
     0
281
     0
  0
CLASS
  1
CAMSSTRUCTBTNSTATE
  2
StructBtnState
  3
DesignerAssemblies
 90
     1024
 91
        1
280
     0
281
     0
  0
CLASS
  1
CELLSTYLEMAP
  2
AcDbCellStyleMap
  3
ObjectDBX Classes
 90
     1152
 91
        1
280
     0
281
     0
  0
CLASS
  1
AEC_REFEDIT_STATUS_TRACKER
  2
AecDbRefEditStatusTracker
  3
AecArchBase60|Product Desc: Autodesk Architectural Desktop 2007 |Company: Autodesk,Inc. |WEB Address: www.autodesk.com
 90
      129
 91
        0
280
     0
281
     0
  0
CLASS
  1
IMAGE
  2
AcDbRasterImage
  3
ISM
 90
     2175
 91
        0
280
     0
281
     1
  0
CLASS
  1
IMAGEDEF_REACTOR
  2
AcDbRasterImageDefReactor
  3
ISM
 90
        1
 91
        0
280
     0
281
     0
  0
CLASS
  1
IMAGEDEF
  2
AcDbRasterImageDef
  3
ISM
 90
        0
 91
        0
280
     0
281
     0
  0
CLASS
  1
RASTERVARIABLES
  2
AcDbRasterVariables
  3
ISM
 90
        0
 91
        0
280
     0
281
     0
  0
CLASS
  1
ACDBSECTIONVIEWSTYLE
  2
AcDbSectionViewStyle
  3
ObjectDBX Classes
 90
     1025
 91
        4
280
     0
281
     0
  0
CLASS
  1
ACDBDETAILVIEWSTYLE
  2
AcDbDetailViewStyle
  3
ObjectDBX Classes
 90
     1025
 91
        3
280
     0
281
     0
  0
CLASS
  1
ACMSECTIONSTANDARDCUSTOM
  2
AmdtSectionSymStdCustom
  3
"Amdt_StdImp|Product Description: AutoCAD Mechanical|Company: Autodesk, Inc."
 90
     1024
 91
        4
280
     0
281
     0
  0
CLASS
  1
ACMDETAILTANDARDCUSTOM
  2
AmdtDetailSymStdCustom
  3
"Amdt_StdImp|Product Description: AutoCAD Mechanical|Company: Autodesk, Inc."
 90
     1024
 91
        2
280
     0
281
     0
  0
CLASS
  1
FIELD
  2
AcDbField
  3
ObjectDBX Classes
 90
     1152
 91
       12
280
     0
281
     0
  0
CLASS
  1
FIELDLIST
  2
AcDbFieldList
  3
ObjectDBX Classes
 90
     1152
 91
        1
280
     0
281
     0
  0
CLASS
  1
DIMASSOC
  2
AcDbDimAssoc
  3
"AcDbDimAssoc|Product Desc:     AcDim ARX App For Dimension|Company:          Autodesk, Inc.|WEB Address:      www.autodesk.com"
 90
        0
 91
        4
280
     0
281
     0
  0
CLASS
  1
SORTENTSTABLE
  2
AcDbSortentsTable
  3
ObjectDBX Classes
 90
        0
 91
        1
280
     0
281
     0
  0
ENDSEC
  0
SECTION
  2
TABLES
  0
TABLE
  2
VPORT
  5
8
330
0
100
AcDbSymbolTable
 70
     1
  0
VPORT
  5
3B2
330
8
100
AcDbSymbolTableRecord
100
AcDbViewportTableRecord
  2
*Active
 70
     0
 10
0.0
 20
0.0
 11
1.0
 21
1.0
 12
549.3911479779237
 22
231.5226564422396
 13
0.0
 23
0.0
 14
2.5
 24
2.5
 15
10.0
 25
10.0
 16
0.0
 26
0.0
 36
1.0
 17
0.0
 27
0.0
 37
0.0
 40
568.5679049719287
 41
2.362857142857142
 42
50.0
 43
0.0
 44
0.0
 50
0.0
 51
0.0
 71
     0
 72
   100
 73
     1
 74
     3
 75
     0
 76
     0
 77
     0
 78
     0
281
     0
 65
     1
110
0.0
120
0.0
130
0.0
111
1.0
121
0.0
131
0.0
112
0.0
122
1.0
132
0.0
 79
     0
146
0.0
348
3D2
 60
     3
 61
     5
292
     1
282
     1
141
0.0
142
0.0
 63
   250
421
  3355443
1001
ACAD_NAV_VCDISPLAY
1070
     3
  0
ENDTAB
  0
TABLE
  2
LTYPE
  5
5
330
0
100
AcDbSymbolTable
 70
    22
  0
LTYPE
  5
14
330
5
100
AcDbSymbolTableRecord
100
AcDbLinetypeTableRecord
  2
ByBlock
 70
     0
  3

 72
    65
 73
     0
 40
0.0
  0
LTYPE
  5
15
330
5
100
AcDbSymbolTableRecord
100
AcDbLinetypeTableRecord
  2
ByLayer
 70
     0
  3

 72
    65
 73
     0
 40
0.0
  0
LTYPE
  5
16
330
5
100
AcDbSymbolTableRecord
100
AcDbLinetypeTableRecord
  2
Continuous
 70
     0
  3
Solid line
 72
    65
 73
     0
 40
0.0
  0
LTYPE
  5
64
330
5
100
AcDbSymbolTableRecord
100
AcDbLinetypeTableRecord
  2
AM_ISO02W050
 70
     0
  3
__ __ __ __ __ __ __ __ __ __ __ __ __ __ __
 72
    65
 73
     2
 40
7.5
 49
6.0
 74
     0
 49
-1.5
 74
     0
  0
LTYPE
  5
65
330
5
100
AcDbSymbolTableRecord
100
AcDbLinetypeTableRecord
  2
AM_ISO08W050
 70
     0
  3
____ . ____ . ____ . ____ . ____ . ____ . ____
 72
    65
 73
     4
 40
18.0
 49
12.0
 74
     0
 49
-1.5
 74
     0
 49
3.0
 74
     0
 49
-1.5
 74
     0
  0
LTYPE
  5
66
330
5
100
AcDbSymbolTableRecord
100
AcDbLinetypeTableRecord
  2
AM_ISO09W050
 70
     0
  3
_____ . . _____ . . _____ . . ____ .. ____
 72
    65
 73
     6
 40
22.5
 49
12.0
 74
     0
 49
-1.5
 74
     0
 49
3.0
 74
     0
 49
-1.5
 74
     0
 49
3.0
 74
     0
 49
-1.5
 74
     0
  0
LTYPE
  5
67
330
5
100
AcDbSymbolTableRecord
100
AcDbLinetypeTableRecord
  2
Amconstr
 70
     0
  3
_______________________
 72
    65
 73
     2
 40
9999.0
 49
9999.0
 74
     0
 49
0.0
 74
     0
  0
LTYPE
  5
68
330
5
100
AcDbSymbolTableRecord
100
AcDbLinetypeTableRecord
  2
AM_ISO08W050x2
 70
     0
  3
__ . __ . __ . __ . __ . __
 72
    65
 73
     4
 40
9.0
 49
6.0
 74
     0
 49
-0.75
 74
     0
 49
1.5
 74
     0
 49
-0.75
 74
     0
  0
LTYPE
  5
69
330
5
100
AcDbSymbolTableRecord
100
AcDbLinetypeTableRecord
  2
AM_ISO02W050x2
 70
     0
  3
 _ _ _ _ _ _ _ _ _ _ _ _
 72
    65
 73
     2
 40
3.75
 49
3.0
 74
     0
 49
-0.75
 74
     0
  0
LTYPE
  5
6C
330
5
100
AcDbSymbolTableRecord
100
AcDbLinetypeTableRecord
  2
Amzigzag
 70
     0
  3
/\/-/\/-/\/-/\/-/\/-/\/
 72
    65
 73
     2
 40
11.0001
 49
0.0001
 74
     4
 75
   136
340
22C
 46
0.04
 50
0.0
 44
0.0
 45
0.0
 49
-11.0
 74
     0
  0
LTYPE
  5
7A
330
5
100
AcDbSymbolTableRecord
100
AcDbLinetypeTableRecord
  2
ACISOWELD
 70
     0
  3
_ _ _ _ _
 72
    65
 73
     2
 40
2.0
 49
2.0
 74
     0
 49
-1.0
 74
     0
  0
LTYPE
  5
7B
330
5
100
AcDbSymbolTableRecord
100
AcDbLinetypeTableRecord
  2
ACISOTGB
 70
     0
  3
__ . . __ . .
 72
    65
 73
     6
 40
9.0
 49
4.0
 74
     0
 49
-1.0
 74
     0
 49
1.0
 74
     0
 49
-1.0
 74
     0
 49
1.0
 74
     0
 49
-1.0
 74
     0
  0
LTYPE
  5
7C
330
5
100
AcDbSymbolTableRecord
100
AcDbLinetypeTableRecord
  2
ACISOTGL
 70
     0
  3
_ _ _ _ _
 72
    65
 73
     2
 40
3.0
 49
2.0
 74
     0
 49
-1.0
 74
     0
  0
LTYPE
  5
7E
330
5
100
AcDbSymbolTableRecord
100
AcDbLinetypeTableRecord
  2
CENTER
 70
     0
  3
__ . __
 72
    65
 73
     4
 40
7.0
 49
4.0
 74
     0
 49
-1.0
 74
     0
 49
1.0
 74
     0
 49
-1.0
 74
     0
  0
LTYPE
  5
D8
330
5
100
AcDbSymbolTableRecord
100
AcDbLinetypeTableRecord
  2
HIDDEN
 70
     0
  3
Hidden __ __ __ __ __ __ __ __ __ __ __ __ __ _
 72
    65
 73
     2
 40
9.524999999999998
 49
6.349999999999999
 74
     0
 49
-3.174999999999999
 74
     0
  0
LTYPE
  5
D9
330
5
100
AcDbSymbolTableRecord
100
AcDbLinetypeTableRecord
  2
PHANTOM2
 70
     0
  3
Phantom (.5x) ___ _ _ ___ _ _ ___ _ _ ___ _ _
 72
    65
 73
     6
 40
31.75
 49
15.875
 74
     0
 49
-3.174999999999999
 74
     0
 49
3.174999999999999
 74
     0
 49
-3.174999999999999
 74
     0
 49
3.174999999999999
 74
     0
 49
-3.174999999999999
 74
     0
  0
LTYPE
  5
2E5
330
5
100
AcDbSymbolTableRecord
100
AcDbLinetypeTableRecord
  2
ACDINWELD
 70
     0
  3
_ _ _ _ _
 72
    65
 73
     2
 40
2.0
 49
2.0
 74
     0
 49
-1.0
 74
     0
  0
LTYPE
  5
2E6
330
5
100
AcDbSymbolTableRecord
100
AcDbLinetypeTableRecord
  2
ACDINTGB
 70
     0
  3
__ . . __ . .
 72
    65
 73
     6
 40
9.0
 49
4.0
 74
     0
 49
-1.0
 74
     0
 49
1.0
 74
     0
 49
-1.0
 74
     0
 49
1.0
 74
     0
 49
-1.0
 74
     0
  0
LTYPE
  5
2E7
330
5
100
AcDbSymbolTableRecord
100
AcDbLinetypeTableRecord
  2
ACDINTGL
 70
     0
  3
_ _ _ _ _
 72
    65
 73
     2
 40
3.0
 49
2.0
 74
     0
 49
-1.0
 74
     0
  0
LTYPE
  5
321
330
5
100
AcDbSymbolTableRecord
100
AcDbLinetypeTableRecord
  2
AM_DIN_F_W050
 70
     0
  3
__ __ __ __ __ __ __ __ __ __ __ __ __ __ __
 72
    65
 73
     2
 40
6.25
 49
4.75
 74
     0
 49
-1.5
 74
     0
  0
LTYPE
  5
322
330
5
100
AcDbSymbolTableRecord
100
AcDbLinetypeTableRecord
  2
AM_DIN_G_W050
 70
     0
  3
____ . ____ . ____ . ____ . ____ . ____ . ____
 72
    65
 73
     4
 40
13.75
 49
9.75
 74
     0
 49
-1.5
 74
     0
 49
1.0
 74
     0
 49
-1.5
 74
     0
  0
LTYPE
  5
323
330
5
100
AcDbSymbolTableRecord
100
AcDbLinetypeTableRecord
  2
AM_DIN_K_W050
 70
     0
  3
_____ . . _____ . . _____ . . ____ .. ____
 72
    65
 73
     6
 40
16.25
 49
9.75
 74
     0
 49
-1.5
 74
     0
 49
1.0
 74
     0
 49
-1.5
 74
     0
 49
1.0
 74
     0
 49
-1.5
 74
     0
  0
LTYPE
  5
324
330
5
100
AcDbSymbolTableRecord
100
AcDbLinetypeTableRecord
  2
AM_DIN_G_W050x2
 70
     0
  3
__ . __ . __ . __ . __ . __
 72
    65
 73
     4
 40
6.875
 49
4.75
 74
     0
 49
-0.875
 74
     0
 49
0.375
 74
     0
 49
-0.875
 74
     0
  0
LTYPE
  5
325
330
5
100
AcDbSymbolTableRecord
100
AcDbLinetypeTableRecord
  2
AM_DIN_F_W050x2
 70
     0
  3
 _ _ _ _ _ _ _ _ _ _ _ _
 72
    65
 73
     2
 40
3.125
 49
2.25
 74
     0
 49
-0.875
 74
     0
  0
ENDTAB
  0
TABLE
  2
LAYER
  5
2
102
{ACAD_XDICTIONARY
360
5DD
102
}
330
0
100
AcDbSymbolTable
 70
     8
  0
LAYER
  5
10
102
{ACAD_XDICTIONARY
360
AF8
102
}
330
2
100
AcDbSymbolTableRecord
100
AcDbLayerTableRecord
  2
0
 70
     0
 62
     7
  6
Continuous
370
    -3
390
F
347
3C4
  0
LAYER
  5
6B1
102
{ACAD_XDICTIONARY
360
6B2
102
}
330
2
100
AcDbSymbolTableRecord
100
AcDbLayerTableRecord
  2
BEZUGSACHSEN
 70
     0
 62
     7
  6
Continuous
370
    -3
390
F
347
3C4
  0
LAYER
  5
6B3
102
{ACAD_XDICTIONARY
360
6B4
102
}
330
2
100
AcDbSymbolTableRecord
100
AcDbLayerTableRecord
  2
BG_STARTBEZUEGE
 70
     0
 62
     7
  6
Continuous
370
    -3
390
F
347
3C4
  0
LAYER
  5
6B5
102
{ACAD_XDICTIONARY
360
6B6
102
}
330
2
100
AcDbSymbolTableRecord
100
AcDbLayerTableRecord
  2
FASEN
 70
     0
 62
     7
  6
Continuous
370
    -3
390
F
347
3C4
  0
LAYER
  5
6B7
102
{ACAD_XDICTIONARY
360
6B8
102
}
330
2
100
AcDbSymbolTableRecord
100
AcDbLayerTableRecord
  2
RUNDUNGEN
 70
     0
 62
     7
  6
Continuous
370
    -3
390
F
347
3C4
  0
LAYER
  5
6B9
102
{ACAD_XDICTIONARY
360
6BA
102
}
330
2
100
AcDbSymbolTableRecord
100
AcDbLayerTableRecord
  2
TEIL_STARTBEZUEGE
 70
     0
 62
     7
  6
Continuous
370
    -3
390
F
347
3C4
  0
LAYER
  5
6BB
330
2
100
AcDbSymbolTableRecord
100
AcDbLayerTableRecord
  2
Defpoints
 70
     0
 62
     7
  6
Continuous
290
     0
370
    -3
390
F
347
3C4
  0
LAYER
  5
6BC
102
{ACAD_XDICTIONARY
360
6BD
102
}
330
2
100
AcDbSymbolTableRecord
100
AcDbLayerTableRecord
  2
P-0000
 70
     0
 62
     7
  6
Continuous
370
    -3
390
F
347
3C4
  0
ENDTAB
  0
TABLE
  2
STYLE
  5
3
330
0
100
AcDbSymbolTable
 70
    10
  0
STYLE
  5
11
330
3
100
AcDbSymbolTableRecord
100
AcDbTextStyleTableRecord
  2
STANDARD
 70
     0
 40
0.0
 41
1.0
 50
0.0
 71
     0
 42
2.5
  3
ISOCP.SHX
  4

  0
STYLE
  5
6B
330
3
100
AcDbSymbolTableRecord
100
AcDbTextStyleTableRecord
  2

 70
     1
 40
0.0
 41
1.0
 50
0.0
 71
     0
 42
2.5
  3
ltypeshp.shx
  4

  0
STYLE
  5
6D
330
3
100
AcDbSymbolTableRecord
100
AcDbTextStyleTableRecord
  2
ACISOTS
 70
     0
 40
1.0
 41
1.0
 50
0.0
 71
     0
 42
2.5
  3
isocp.shx
  4
bigfont.shx
  0
STYLE
  5
79
330
3
100
AcDbSymbolTableRecord
100
AcDbTextStyleTableRecord
  2
ACISOGDT
 70
     0
 40
0.0
 41
1.0
 50
0.0
 71
     0
 42
2.5
  3
AMGDT
  4
bigfont.shx
  0
STYLE
  5
1ED
330
3
100
AcDbSymbolTableRecord
100
AcDbTextStyleTableRecord
  2
USER1
 70
     0
 40
0.0
 41
1.0
 50
0.0
 71
     0
 42
2.5
  3
TXT.SHX
  4
bigfont.shx
  0
STYLE
  5
1EE
330
3
100
AcDbSymbolTableRecord
100
AcDbTextStyleTableRecord
  2
USER2
 70
     0
 40
0.0
 41
1.0
 50
0.0
 71
     0
 42
2.5
  3
SIMPLEX.SHX
  4
bigfont.shx
  0
STYLE
  5
1EF
330
3
100
AcDbSymbolTableRecord
100
AcDbTextStyleTableRecord
  2
USER3
 70
     0
 40
0.0
 41
1.0
 50
0.0
 71
     0
 42
2.5
  3
ITALIC.SHX
  4
bigfont.shx
  0
STYLE
  5
22C
330
3
100
AcDbSymbolTableRecord
100
AcDbTextStyleTableRecord
  2

 70
     1
 40
0.0
 41
1.0
 50
0.0
 71
     0
 42
2.5
  3
genltshp.shx
  4

  0
STYLE
  5
2D7
330
3
100
AcDbSymbolTableRecord
100
AcDbTextStyleTableRecord
  2
ACDINTS
 70
     0
 40
1.0
 41
1.0
 50
0.0
 71
     0
 42
2.5
  3
isocp.shx
  4

  0
STYLE
  5
2E4
330
3
100
AcDbSymbolTableRecord
100
AcDbTextStyleTableRecord
  2
ACDINGDT
 70
     0
 40
0.0
 41
1.0
 50
0.0
 71
     0
 42
2.5
  3
AMGDT
  4

  0
ENDTAB
  0
TABLE
  2
VIEW
  5
6
330
0
100
AcDbSymbolTable
 70
     0
  0
ENDTAB
  0
TABLE
  2
UCS
  5
7
330
0
100
AcDbSymbolTable
 70
     0
  0
ENDTAB
  0
TABLE
  2
APPID
  5
9
330
0
100
AcDbSymbolTable
 70
    15
  0
APPID
  5
12
330
9
100
AcDbSymbolTableRecord
100
AcDbRegAppTableRecord
  2
ACAD
 70
     0
  0
APPID
  5
46
330
9
100
AcDbSymbolTableRecord
100
AcDbRegAppTableRecord
  2
MCAD_NO_VIS
 70
     0
  0
APPID
  5
47
330
9
100
AcDbSymbolTableRecord
100
AcDbRegAppTableRecord
  2
ACAD_TEMP_GRAPHIC
 70
     0
  0
APPID
  5
58
330
9
100
AcDbSymbolTableRecord
100
AcDbRegAppTableRecord
  2
ACATTRIBSERVICES
 70
     0
  0
APPID
  5
EE
330
9
100
AcDbSymbolTableRecord
100
AcDbRegAppTableRecord
  2
AD_DRAW
 70
     0
  0
APPID
  5
10C
330
9
100
AcDbSymbolTableRecord
100
AcDbRegAppTableRecord
  2
DESIGNERASSEMBLIES
 70
     0
  0
APPID
  5
111
330
9
100
AcDbSymbolTableRecord
100
AcDbRegAppTableRecord
  2
ACADM_DIM_EDIT
 70
     0
  0
APPID
  5
112
330
9
100
AcDbSymbolTableRecord
100
AcDbRegAppTableRecord
  2
AMDT_DM_ADJ
 70
     0
  0
APPID
  5
1A3
330
9
100
AcDbSymbolTableRecord
100
AcDbRegAppTableRecord
  2
ACAD_DSTYLE_DIMARC_LENGTH_SYMBOL
 70
     0
  0
APPID
  5
1A4
330
9
100
AcDbSymbolTableRecord
100
AcDbRegAppTableRecord
  2
ACAD_DSTYLE_DIMJOGGED_JOGANGLE_SYMBOL
 70
     0
  0
APPID
  5
3F1
330
9
100
AcDbSymbolTableRecord
100
AcDbRegAppTableRecord
  2
ACAD_MLEADERVER
 70
     0
  0
APPID
  5
629
330
9
100
AcDbSymbolTableRecord
100
AcDbRegAppTableRecord
  2
ACAD_NAV_VCDISPLAY
 70
     0
  0
APPID
  5
6C0
330
9
100
AcDbSymbolTableRecord
100
AcDbRegAppTableRecord
  2
ACAD_DSTYLE_DIMJAG
 70
     0
  0
APPID
  5
6C1
330
9
100
AcDbSymbolTableRecord
100
AcDbRegAppTableRecord
  2
ACAD_DSTYLE_DIMBREAK
 70
     0
  0
APPID
  5
6C2
330
9
100
AcDbSymbolTableRecord
100
AcDbRegAppTableRecord
  2
ACAD_DSTYLE_DIMINSPECT
 70
     0
  0
ENDTAB
  0
TABLE
  2
DIMSTYLE
  5
A
330
0
100
AcDbSymbolTable
 70
    17
100
AcDbDimStyleTable
 71
     2
340
2F0
340
81
  0
DIMSTYLE
105
27
330
A
100
AcDbSymbolTableRecord
100
AcDbDimStyleTableRecord
  2
ISO-25
 70
     0
 41
2.5
 42
0.625
 43
3.75
 44
1.25
 73
     0
 74
     0
 77
     1
 78
     8
140
2.5
141
2.5
143
0.03937007874016
147
0.625
171
     3
172
     1
271
     2
272
     2
274
     3
278
    44
283
     0
284
     8
340
11
  0
DIMSTYLE
105
81
330
A
100
AcDbSymbolTableRecord
100
AcDbDimStyleTableRecord
  2
AM_ISO
 70
     0
  4
"
 41
2.5
 42
1.0
 43
10.0
 44
1.0
 47
0.1
 48
0.1
 73
     0
 74
     0
 77
     1
 78
     8
 79
     2
 90
     1
140
3.5
141
0.0
143
0.0393701
146
0.71
147
1.5
172
     1
176
   256
177
   256
178
     2
271
     2
272
     3
274
     4
283
     0
284
     8
340
11
371
    -1
372
    -1
1001
ACAD_DSTYLE_DIMJOGGED_JOGANGLE_SYMBOL
1070
   384
1040
0.7853981633974483
  0
DIMSTYLE
105
82
330
A
100
AcDbSymbolTableRecord
100
AcDbDimStyleTableRecord
  2
AM_ISO$3
 70
     0
  4
"
 41
2.5
 42
1.0
 43
10.0
 44
1.0
 47
0.1
 48
0.1
 73
     0
 77
     1
 78
     8
 79
     2
 90
     1
140
3.5
141
0.0
143
0.0393701
146
0.71
147
1.5
176
   256
177
   256
178
     2
271
     2
272
     3
274
     4
283
     0
284
     8
288
     1
289
     0
340
11
371
    -1
372
    -1
1001
ACAD_DSTYLE_DIMJOGGED_JOGANGLE_SYMBOL
1070
   384
1040
0.7853981633974483
  0
DIMSTYLE
105
83
330
A
100
AcDbSymbolTableRecord
100
AcDbDimStyleTableRecord
  2
AM_ISO$4
 70
     0
  4
"
 41
2.5
 42
1.0
 43
10.0
 44
1.0
 47
0.1
 48
0.1
 73
     0
 77
     1
 78
     8
 79
     2
 90
     1
140
3.5
141
0.0
143
0.0393701
146
0.71
147
1.5
176
   256
177
   256
178
     2
271
     2
272
     3
274
     4
283
     0
284
     8
288
     1
289
     0
340
11
371
    -1
372
    -1
1001
ACAD_DSTYLE_DIMJOGGED_JOGANGLE_SYMBOL
1070
   384
1040
0.7853981633974483
  0
DIMSTYLE
105
84
330
A
100
AcDbSymbolTableRecord
100
AcDbDimStyleTableRecord
  2
AM_ISO$6
 70
     0
  4
"
 41
2.5
 42
1.0
 43
10.0
 44
1.0
 47
0.1
 48
0.1
 73
     0
 74
     0
 78
     8
 79
     2
 90
     1
140
3.5
141
0.0
143
0.0393701
146
0.71
147
1.5
172
     1
176
   256
177
   256
178
     2
271
     2
272
     3
274
     4
283
     0
284
     8
340
11
371
    -1
372
    -1
1001
ACAD_DSTYLE_DIMJOGGED_JOGANGLE_SYMBOL
1070
   384
1040
0.7853981633974483
  0
DIMSTYLE
105
85
330
A
100
AcDbSymbolTableRecord
100
AcDbDimStyleTableRecord
  2
AM_ISO$7
 70
     0
  4
"
 41
2.5
 42
1.0
 43
10.0
 44
1.0
 47
0.1
 48
0.1
 73
     0
 74
     0
 77
     1
 78
     8
 79
     2
 90
     1
140
5.0
141
0.0
143
0.0393701
146
0.71
147
1.5
172
     1
176
   256
177
   256
178
     2
271
     2
272
     3
274
     4
283
     0
284
     8
340
11
371
    -1
372
    -1
1001
ACAD_DSTYLE_DIMJOGGED_JOGANGLE_SYMBOL
1070
   384
1040
0.7853981633974483
  0
DIMSTYLE
105
86
330
A
100
AcDbSymbolTableRecord
100
AcDbDimStyleTableRecord
  2
AM_ISO$SF
 70
     0
  4
"
 41
2.5
 42
1.0
 43
10.0
 44
1.0
 47
0.1
 48
0.1
 73
     0
 74
     0
 75
     1
 76
     1
 77
     1
 78
     8
 79
     2
 90
     1
140
3.5
141
0.0
143
0.0393701
146
0.71
147
1.5
172
     1
176
   256
177
   256
178
     2
271
     2
272
     3
274
     4
283
     0
284
     8
340
11
371
    -1
372
    -1
1001
ACAD_DSTYLE_DIMJOGGED_JOGANGLE_SYMBOL
1070
   384
1040
0.7853981633974483
  0
DIMSTYLE
105
8B
330
A
100
AcDbSymbolTableRecord
100
AcDbDimStyleTableRecord
  2
AM_ISO$SH
 70
     0
  4
"
 41
2.5
 42
1.0
 43
10.0
 44
1.0
 47
0.1
 48
0.1
 73
     0
 74
     0
 75
     1
 76
     1
 77
     1
 78
     8
 79
     2
 90
     1
140
3.5
141
0.0
143
0.0393701
144
2.0
146
0.71
147
1.5
172
     1
173
     1
176
   256
177
   256
178
     2
271
     2
272
     3
274
     4
283
     0
284
     8
340
11
343
87
371
    -1
372
    -1
1001
ACAD_DSTYLE_DIMJOGGED_JOGANGLE_SYMBOL
1070
   384
1040
0.7853981633974483
  0
DIMSTYLE
105
2F0
330
A
100
AcDbSymbolTableRecord
100
AcDbDimStyleTableRecord
  2
AM_DIN
 70
     0
  4
"
 41
2.5
 42
1.0
 43
10.0
 44
1.0
 47
0.1
 48
0.1
 50
90.0
 73
     0
 74
     0
 77
     1
 78
     8
 79
     2
140
3.5
141
0.0
143
0.0393701
146
0.71
147
1.5
172
     1
176
   256
177
   256
178
     2
271
     2
272
     3
274
     4
283
     0
284
     8
340
11
371
    -1
372
    -1
1001
ACAD_DSTYLE_DIMJOGGED_JOGANGLE_SYMBOL
1070
   384
1040
1.570796326794896
  0
DIMSTYLE
105
301
330
A
100
AcDbSymbolTableRecord
100
AcDbDimStyleTableRecord
  2
AM_DIN$3
 70
     0
  4
"
 41
2.5
 42
1.0
 43
10.0
 44
1.0
 47
0.1
 48
0.1
 50
90.0
 73
     0
 77
     1
 78
     8
 79
     2
140
3.5
141
0.0
143
0.0393701
146
0.71
147
1.5
176
   256
177
   256
178
     2
271
     2
272
     3
274
     4
283
     0
284
     8
288
     1
289
     0
340
11
371
    -1
372
    -1
1001
ACAD_DSTYLE_DIMJOGGED_JOGANGLE_SYMBOL
1070
   384
1040
1.570796326794896
  0
DIMSTYLE
105
306
330
A
100
AcDbSymbolTableRecord
100
AcDbDimStyleTableRecord
  2
AM_DIN$4
 70
     0
  4
"
 41
2.5
 42
1.0
 43
10.0
 44
1.0
 47
0.1
 48
0.1
 50
90.0
 73
     0
 77
     1
 78
     8
 79
     2
140
3.5
141
0.0
143
0.0393701
146
0.71
147
1.5
176
   256
177
   256
178
     2
271
     2
272
     3
274
     4
283
     0
284
     8
288
     1
289
     0
340
11
371
    -1
372
    -1
1001
ACAD_DSTYLE_DIMJOGGED_JOGANGLE_SYMBOL
1070
   384
1040
1.570796326794896
  0
DIMSTYLE
105
30B
330
A
100
AcDbSymbolTableRecord
100
AcDbDimStyleTableRecord
  2
AM_DIN$6
 70
     0
  4
"
 41
2.5
 42
1.0
 43
10.0
 44
1.0
 47
0.1
 48
0.1
 50
90.0
 73
     0
 74
     0
 78
     8
 79
     2
140
3.5
141
0.0
143
0.0393701
146
0.71
147
1.5
172
     1
176
   256
177
   256
178
     2
271
     2
272
     3
274
     4
283
     0
284
     8
340
11
371
    -1
372
    -1
1001
ACAD_DSTYLE_DIMJOGGED_JOGANGLE_SYMBOL
1070
   384
1040
1.570796326794896
  0
DIMSTYLE
105
310
330
A
100
AcDbSymbolTableRecord
100
AcDbDimStyleTableRecord
  2
AM_DIN$7
 70
     0
  4
"
 41
2.5
 42
1.0
 43
10.0
 44
1.0
 47
0.1
 48
0.1
 50
90.0
 73
     0
 74
     0
 77
     1
 78
     8
 79
     2
140
5.0
141
0.0
143
0.0393701
146
0.71
147
1.5
172
     1
176
   256
177
   256
178
     2
271
     2
272
     3
274
     4
283
     0
284
     8
340
11
371
    -1
372
    -1
1001
ACAD_DSTYLE_DIMJOGGED_JOGANGLE_SYMBOL
1070
   384
1040
1.570796326794896
  0
DIMSTYLE
105
315
330
A
100
AcDbSymbolTableRecord
100
AcDbDimStyleTableRecord
  2
AM_DIN$SF
 70
     0
  4
"
 41
2.5
 42
1.0
 43
10.0
 44
1.0
 47
0.1
 48
0.1
 50
90.0
 73
     0
 74
     0
 75
     1
 76
     1
 77
     1
 78
     8
 79
     2
140
3.5
141
0.0
143
0.0393701
146
0.71
147
1.5
172
     1
176
   256
177
   256
178
     2
271
     2
272
     3
274
     4
283
     0
284
     8
340
11
371
    -1
372
    -1
1001
ACAD_DSTYLE_DIMJOGGED_JOGANGLE_SYMBOL
1070
   384
1040
1.570796326794896
  0
DIMSTYLE
105
31A
330
A
100
AcDbSymbolTableRecord
100
AcDbDimStyleTableRecord
  2
AM_DIN$SH
 70
     0
  4
"
 41
2.5
 42
1.0
 43
10.0
 44
1.0
 47
0.1
 48
0.1
 50
90.0
 73
     0
 74
     0
 75
     1
 76
     1
 77
     1
 78
     8
 79
     2
140
3.5
141
0.0
143
0.0393701
144
2.0
146
0.71
147
1.5
172
     1
173
     1
176
   256
177
   256
178
     2
271
     2
272
     3
274
     4
283
     0
284
     8
340
11
343
87
371
    -1
372
    -1
1001
ACAD_DSTYLE_DIMJOGGED_JOGANGLE_SYMBOL
1070
   384
1040
1.570796326794896
  0
DIMSTYLE
105
6BE
330
A
100
AcDbSymbolTableRecord
100
AcDbDimStyleTableRecord
  2
STANDARD
 70
     0
 41
3.5
 42
1.5
 44
1.5
 47
0.005
 48
0.005
 71
     1
 73
     0
 74
     0
 77
     1
 78
     8
140
3.5
147
0.625
178
     5
271
     3
272
     3
284
     8
340
11
341
656
342
656
343
656
344
656
  0
DIMSTYLE
105
6BF
102
{ACAD_REACTORS
330
892
330
893
330
894
330
895
330
896
330
899
330
89A
330
A6C
330
A6D
330
A6E
330
A6F
330
A70
330
A73
330
A74
102
}
330
A
100
AcDbSymbolTableRecord
100
AcDbDimStyleTableRecord
  2
883N99122_001_00149479900
 70
     0
 40
2.0
 41
3.149999999999999
 42
0.0
 43
3.75
 44
2.0
 73
     0
 74
     0
 77
     1
 78
     8
 79
     2
140
3.5
141
0.0
143
0.03937007874016
145
2.0
147
2.0
171
     3
172
     1
173
     1
176
     3
177
     3
178
     2
179
     2
271
     2
272
     2
274
     3
283
     0
284
     8
340
11
341
65A
  0
ENDTAB
  0
TABLE
  2
BLOCK_RECORD
  5
1
330
0
100
AcDbSymbolTable
 70
    22
  0
BLOCK_RECORD
  5
1F
102
{ACAD_XDICTIONARY
360
8F
102
}
330
1
100
AcDbSymbolTableRecord
100
AcDbBlockTableRecord
  2
*Model_Space
340
22
 70
     0
280
     1
281
     0
  0
BLOCK_RECORD
  5
1B
330
1
100
AcDbSymbolTableRecord
100
AcDbBlockTableRecord
  2
*Paper_Space
340
1E
 70
     0
280
     1
281
     0
  0
BLOCK_RECORD
  5
23
330
1
100
AcDbSymbolTableRecord
100
AcDbBlockTableRecord
  2
*Paper_Space0
340
26
 70
     0
280
     1
281
     0
  0
BLOCK_RECORD
  5
87
330
1
100
AcDbSymbolTableRecord
100
AcDbBlockTableRecord
  2
GENAXEH
340
0
 70
     0
280
     1
281
     0
  0
BLOCK_RECORD
  5
609
330
1
100
AcDbSymbolTableRecord
100
AcDbBlockTableRecord
  2
_ACMFILLED15
340
0
 70
     0
280
     1
281
     0
  0
BLOCK_RECORD
  5
61B
330
1
100
AcDbSymbolTableRecord
100
AcDbBlockTableRecord
  2
_ACMFILLED30
340
0
 70
     0
280
     1
281
     0
  0
BLOCK_RECORD
  5
656
330
1
100
AcDbSymbolTableRecord
100
AcDbBlockTableRecord
  2
_FILLED
340
0
 70
     0
280
     1
281
     0
  0
BLOCK_RECORD
  5
65A
330
1
100
AcDbSymbolTableRecord
100
AcDbBlockTableRecord
  2
_None
340
0
 70
     0
280
     1
281
     0
  0
BLOCK_RECORD
  5
65D
330
1
100
AcDbSymbolTableRecord
100
AcDbBlockTableRecord
  2
*D7
340
0
 70
     0
280
     1
281
     0
  0
BLOCK_RECORD
  5
669
330
1
100
AcDbSymbolTableRecord
100
AcDbBlockTableRecord
  2
*D8
340
0
 70
     0
280
     1
281
     0
  0
BLOCK_RECORD
  5
675
330
1
100
AcDbSymbolTableRecord
100
AcDbBlockTableRecord
  2
*D9
340
0
 70
     0
280
     1
281
     0
  0
BLOCK_RECORD
  5
681
330
1
100
AcDbSymbolTableRecord
100
AcDbBlockTableRecord
  2
*D10
340
0
 70
     0
280
     1
281
     0
  0
BLOCK_RECORD
  5
68D
330
1
100
AcDbSymbolTableRecord
100
AcDbBlockTableRecord
  2
*D11
340
0
 70
     0
280
     1
281
     0
  0
BLOCK_RECORD
  5
699
330
1
100
AcDbSymbolTableRecord
100
AcDbBlockTableRecord
  2
*D12
340
0
 70
     0
280
     1
281
     0
  0
BLOCK_RECORD
  5
6A5
330
1
100
AcDbSymbolTableRecord
100
AcDbBlockTableRecord
  2
*D13
340
0
 70
     0
280
     1
281
     0
  0
BLOCK_RECORD
  5
A77
330
1
100
AcDbSymbolTableRecord
100
AcDbBlockTableRecord
  2
*D15
340
0
 70
     0
280
     1
281
     0
  0
BLOCK_RECORD
  5
A83
330
1
100
AcDbSymbolTableRecord
100
AcDbBlockTableRecord
  2
*D16
340
0
 70
     0
280
     1
281
     0
  0
BLOCK_RECORD
  5
A8F
330
1
100
AcDbSymbolTableRecord
100
AcDbBlockTableRecord
  2
*D17
340
0
 70
     0
280
     1
281
     0
  0
BLOCK_RECORD
  5
A9B
330
1
100
AcDbSymbolTableRecord
100
AcDbBlockTableRecord
  2
*D18
340
0
 70
     0
280
     1
281
     0
  0
BLOCK_RECORD
  5
AA7
330
1
100
AcDbSymbolTableRecord
100
AcDbBlockTableRecord
  2
*D19
340
0
 70
     0
280
     1
281
     0
  0
BLOCK_RECORD
  5
AD7
330
1
100
AcDbSymbolTableRecord
100
AcDbBlockTableRecord
  2
*D20
340
0
 70
     0
280
     1
281
     0
  0
BLOCK_RECORD
  5
AEC
330
1
100
AcDbSymbolTableRecord
100
AcDbBlockTableRecord
  2
*D21
340
0
 70
     0
280
     1
281
     0
  0
ENDTAB
  0
ENDSEC
  0
SECTION
  2
BLOCKS
  0
BLOCK
  5
20
330
1F
100
AcDbEntity
  8
0
100
AcDbBlockBegin
  2
*Model_Space
 70
     0
 10
0.0
 20
0.0
 30
0.0
  3
*Model_Space
  1

  0
ENDBLK
  5
21
330
1F
100
AcDbEntity
  8
0
100
AcDbBlockEnd
  0
BLOCK
  5
1C
330
1B
100
AcDbEntity
 67
     1
  8
0
100
AcDbBlockBegin
  2
*Paper_Space
 70
     0
 10
0.0
 20
0.0
 30
0.0
  3
*Paper_Space
  1

  0
ENDBLK
  5
1D
330
1B
100
AcDbEntity
 67
     1
  8
0
100
AcDbBlockEnd
  0
BLOCK
  5
24
330
23
100
AcDbEntity
 67
     1
  8
0
100
AcDbBlockBegin
  2
*Paper_Space0
 70
     0
 10
0.0
 20
0.0
 30
0.0
  3
*Paper_Space0
  1

  0
ENDBLK
  5
25
330
23
100
AcDbEntity
 67
     1
  8
0
100
AcDbBlockEnd
  0
BLOCK
  5
89
330
87
100
AcDbEntity
  8
0
100
AcDbBlockBegin
  2
GENAXEH
 70
     0
 10
0.0
 20
0.0
 30
0.0
  3
GENAXEH
  1

  0
LINE
  5
88
330
87
100
AcDbEntity
  8
0
100
AcDbLine
 10
-1.0
 20
0.0
 30
0.0
 11
1.0
 21
0.0
 31
0.0
  0
ENDBLK
  5
8A
330
87
100
AcDbEntity
  8
0
100
AcDbBlockEnd
  0
BLOCK
  5
60A
330
609
100
AcDbEntity
  8
0
100
AcDbBlockBegin
  2
_ACMFILLED15
 70
     0
 10
0.0
 20
0.0
 30
0.0
  3
_ACMFILLED15
  1

  0
TRACE
  5
60C
330
609
100
AcDbEntity
  8
0
 62
     0
100
AcDbTrace
 10
-1.0
 20
-0.131652497
 30
0.0
 11
-1.0
 21
0.131652497
 31
0.0
 12
0.0
 22
0.0
 32
0.0
 13
0.0
 23
0.0
 33
0.0
  0
ENDBLK
  5
60B
330
609
100
AcDbEntity
  8
0
100
AcDbBlockEnd
  0
BLOCK
  5
61C
330
61B
100
AcDbEntity
  8
0
100
AcDbBlockBegin
  2
_ACMFILLED30
 70
     0
 10
0.0
 20
0.0
 30
0.0
  3
_ACMFILLED30
  1

  0
TRACE
  5
61E
330
61B
100
AcDbEntity
  8
0
 62
     0
100
AcDbTrace
 10
-1.0
 20
-0.26794919
 30
0.0
 11
-1.0
 21
0.26794919
 31
0.0
 12
0.0
 22
0.0
 32
0.0
 13
0.0
 23
0.0
 33
0.0
  0
ENDBLK
  5
61D
330
61B
100
AcDbEntity
  8
0
100
AcDbBlockEnd
  0
BLOCK
  5
657
330
656
100
AcDbEntity
  8
0
100
AcDbBlockBegin
  2
_FILLED
 70
     0
 10
0.0
 20
0.0
 30
0.0
  3
_FILLED
  1

  0
SOLID
  5
658
330
656
100
AcDbEntity
  8
0
  6
ByBlock
 62
     0
100
AcDbTrace
 10
0.0
 20
0.0
 30
0.0
 11
-1.0
 21
0.125
 31
0.0
 12
-1.0
 22
-0.125
 32
0.0
 13
-1.0
 23
-0.125
 33
0.0
  0
ENDBLK
  5
659
330
656
100
AcDbEntity
  8
0
  6
ByBlock
 62
     0
100
AcDbBlockEnd
  0
BLOCK
  5
65B
330
65A
100
AcDbEntity
  8
0
100
AcDbBlockBegin
  2
_None
 70
     0
 10
0.0
 20
0.0
 30
0.0
  3
_None
  1

  0
ENDBLK
  5
65C
330
65A
100
AcDbEntity
  8
0
100
AcDbBlockEnd
  0
BLOCK
  5
65E
330
65D
100
AcDbEntity
  8
0
100
AcDbBlockBegin
  2
*D7
 70
     1
 10
0.0
 20
0.0
 30
0.0
  3
*D7
  1

  0
LINE
  5
65F
330
65D
100
AcDbEntity
  8
P-0000
  6
Continuous
 62
     3
440
 16777216
370
    -2
100
AcDbLine
 10
990.1114251921754
 20
317.0169151740684
 30
0.0
 11
930.9585743358299
 21
317.0169151740684
 31
0.0
  0
LINE
  5
660
330
65D
100
AcDbEntity
  8
P-0000
  6
Continuous
 62
     3
440
 16777216
370
    -2
100
AcDbLine
 10
1312.511425558175
 20
219.8169151740684
 30
0.0
 11
930.9585743358297
 21
219.8169151740685
 31
0.0
  0
LINE
  5
661
330
65D
100
AcDbEntity
  8
P-0000
  6
Continuous
 62
     3
440
 16777216
370
    -2
100
AcDbLine
 10
934.9585743358298
 20
310.7169151740684
 30
0.0
 11
934.9585743358298
 21
226.1169151740686
 31
0.0
  0
SOLID
  5
662
330
65D
100
AcDbEntity
  8
P-0000
  6
Continuous
 62
     3
440
 16777216
100
AcDbTrace
 10
933.90857433583
 20
310.7169151740684
 30
0.0
 11
936.0085743358299
 21
310.7169151740684
 31
0.0
 12
934.9585743358298
 22
317.0169151740684
 32
0.0
 13
934.9585743358298
 23
317.0169151740684
 33
0.0
  0
SOLID
  5
663
330
65D
100
AcDbEntity
  8
P-0000
  6
Continuous
 62
     3
440
 16777216
100
AcDbTrace
 10
933.9085743358298
 20
226.1169151740686
 30
0.0
 11
936.0085743358297
 21
226.1169151740686
 31
0.0
 12
934.9585743358298
 22
219.8169151740685
 32
0.0
 13
934.9585743358298
 23
219.8169151740685
 33
0.0
  0
MTEXT
  5
664
330
65D
100
AcDbEntity
  8
P-0000
  6
Continuous
 62
     2
440
 16777216
100
AcDbMText
 10
923.9585743358297
 20
267.4950878467236
 30
0.0
 40
7.0
 41
0.0
 46
0.0
 71
     2
 72
     1
  1
97
 11
0.0000000000000001
 21
1.0
 31
0.0
 73
     1
 44
1.0
  0
POINT
  5
665
330
65D
100
AcDbEntity
  8
Defpoints
  6
Continuous
 62
     0
440
 16777216
100
AcDbPoint
 10
990.1114251921754
 20
317.0169151740684
 30
0.0
  0
POINT
  5
666
330
65D
100
AcDbEntity
  8
Defpoints
  6
Continuous
 62
     0
440
 16777216
100
AcDbPoint
 10
1312.511425558175
 20
219.8169151740684
 30
0.0
  0
POINT
  5
667
330
65D
100
AcDbEntity
  8
Defpoints
  6
Continuous
 62
     0
440
 16777216
100
AcDbPoint
 10
934.9585743358298
 20
219.8169151740685
 30
0.0
  0
ENDBLK
  5
668
330
65D
100
AcDbEntity
  8
0
100
AcDbBlockEnd
  0
BLOCK
  5
66A
330
669
100
AcDbEntity
  8
0
100
AcDbBlockBegin
  2
*D8
 70
     1
 10
0.0
 20
0.0
 30
0.0
  3
*D8
  1

  0
LINE
  5
66B
330
669
100
AcDbEntity
  8
P-0000
  6
Continuous
 62
     3
440
 16777216
370
    -2
100
AcDbLine
 10
1013.111425192175
 20
110.6807979189684
 30
0.0
 11
956.4847268711957
 21
110.6807979189684
 31
0.0
  0
LINE
  5
66C
330
669
100
AcDbEntity
  8
P-0000
  6
Continuous
 62
     3
440
 16777216
370
    -2
100
AcDbLine
 10
1013.111425192175
 20
46.59307433156839
 30
0.0
 11
956.4847268711957
 21
46.5930743315684
 31
0.0
  0
LINE
  5
66D
330
669
100
AcDbEntity
  8
P-0000
  6
Continuous
 62
     3
440
 16777216
370
    -2
100
AcDbLine
 10
960.4847268711958
 20
104.3807979189684
 30
0.0
 11
960.4847268711958
 21
52.8930743315684
 31
0.0
  0
SOLID
  5
66E
330
669
100
AcDbEntity
  8
P-0000
  6
Continuous
 62
     3
440
 16777216
100
AcDbTrace
 10
959.4347268711958
 20
104.3807979189684
 30
0.0
 11
961.5347268711957
 21
104.3807979189684
 31
0.0
 12
960.4847268711958
 22
110.6807979189684
 32
0.0
 13
960.4847268711958
 23
110.6807979189684
 33
0.0
  0
SOLID
  5
66F
330
669
100
AcDbEntity
  8
P-0000
  6
Continuous
 62
     3
440
 16777216
100
AcDbTrace
 10
959.4347268711958
 20
52.8930743315684
 30
0.0
 11
961.5347268711957
 21
52.8930743315684
 31
0.0
 12
960.4847268711958
 22
46.5930743315684
 32
0.0
 13
960.4847268711958
 23
46.5930743315684
 33
0.0
  0
MTEXT
  5
670
330
669
100
AcDbEntity
  8
P-0000
  6
Continuous
 62
     2
440
 16777216
100
AcDbMText
 10
949.4847268711957
 20
80.0259218999281
 30
0.0
 40
7.0
 41
0.0
 46
0.0
 71
     2
 72
     1
  1
64
 11
0.0000000000000001
 21
1.0
 31
0.0
 73
     1
 44
1.0
  0
POINT
  5
671
330
669
100
AcDbEntity
  8
Defpoints
  6
Continuous
 62
     0
440
 16777216
100
AcDbPoint
 10
1013.111425192175
 20
110.6807979189684
 30
0.0
  0
POINT
  5
672
330
669
100
AcDbEntity
  8
Defpoints
  6
Continuous
 62
     0
440
 16777216
100
AcDbPoint
 10
1013.111425192175
 20
46.59307433156839
 30
0.0
  0
POINT
  5
673
330
669
100
AcDbEntity
  8
Defpoints
  6
Continuous
 62
     0
440
 16777216
100
AcDbPoint
 10
960.4847268711958
 20
46.5930743315684
 30
0.0
  0
ENDBLK
  5
674
330
669
100
AcDbEntity
  8
0
100
AcDbBlockEnd
  0
BLOCK
  5
676
330
675
100
AcDbEntity
  8
0
100
AcDbBlockBegin
  2
*D9
 70
     1
 10
0.0
 20
0.0
 30
0.0
  3
*D9
  1

  0
LINE
  5
677
330
675
100
AcDbEntity
  8
P-0000
  6
Continuous
 62
     3
440
 16777216
370
    -2
100
AcDbLine
 10
980.6114251921753
 20
124.6807979189684
 30
0.0
 11
931.8781004782941
 21
124.6807979189684
 31
0.0
  0
LINE
  5
678
330
675
100
AcDbEntity
  8
P-0000
  6
Continuous
 62
     3
440
 16777216
370
    -2
100
AcDbLine
 10
1001.861425192175
 20
12.68079791896838
 30
0.0
 11
931.8781004782941
 21
12.6807979189684
 31
0.0
  0
LINE
  5
679
330
675
100
AcDbEntity
  8
P-0000
  6
Continuous
 62
     3
440
 16777216
370
    -2
100
AcDbLine
 10
935.878100478294
 20
118.3807979189684
 30
0.0
 11
935.878100478294
 21
18.9807979189684
 31
0.0
  0
SOLID
  5
67A
330
675
100
AcDbEntity
  8
P-0000
  6
Continuous
 62
     3
440
 16777216
100
AcDbTrace
 10
934.8281004782942
 20
118.3807979189684
 30
0.0
 11
936.9281004782941
 21
118.3807979189684
 31
0.0
 12
935.878100478294
 22
124.6807979189684
 32
0.0
 13
935.878100478294
 23
124.6807979189684
 33
0.0
  0
SOLID
  5
67B
330
675
100
AcDbEntity
  8
P-0000
  6
Continuous
 62
     3
440
 16777216
100
AcDbTrace
 10
934.8281004782942
 20
18.9807979189684
 30
0.0
 11
936.9281004782941
 21
18.98079791896839
 31
0.0
 12
935.878100478294
 22
12.6807979189684
 32
0.0
 13
935.878100478294
 23
12.6807979189684
 33
0.0
  0
MTEXT
  5
67C
330
675
100
AcDbEntity
  8
P-0000
  6
Continuous
 62
     2
440
 16777216
100
AcDbMText
 10
924.8781004782941
 20
73.36778476969584
 30
0.0
 40
7.0
 41
0.0
 46
0.0
 71
     2
 72
     1
  1
112
 11
0.0000000000000001
 21
1.0
 31
0.0
 73
     1
 44
1.0
  0
POINT
  5
67D
330
675
100
AcDbEntity
  8
Defpoints
  6
Continuous
 62
     0
440
 16777216
100
AcDbPoint
 10
980.6114251921753
 20
124.6807979189684
 30
0.0
  0
POINT
  5
67E
330
675
100
AcDbEntity
  8
Defpoints
  6
Continuous
 62
     0
440
 16777216
100
AcDbPoint
 10
1001.861425192175
 20
12.68079791896838
 30
0.0
  0
POINT
  5
67F
330
675
100
AcDbEntity
  8
Defpoints
  6
Continuous
 62
     0
440
 16777216
100
AcDbPoint
 10
935.878100478294
 20
12.6807979189684
 30
0.0
  0
ENDBLK
  5
680
330
675
100
AcDbEntity
  8
0
100
AcDbBlockEnd
  0
BLOCK
  5
682
330
681
100
AcDbEntity
  8
0
100
AcDbBlockBegin
  2
*D10
 70
     1
 10
0.0
 20
0.0
 30
0.0
  3
*D10
  1

  0
LINE
  5
683
330
681
100
AcDbEntity
  8
P-0000
  6
Continuous
 62
     3
440
 16777216
370
    -2
100
AcDbLine
 10
990.1114251921754
 20
317.0169151740684
 30
0.0
 11
955.5748221142309
 21
317.0169151740684
 31
0.0
  0
LINE
  5
684
330
681
100
AcDbEntity
  8
P-0000
  6
Continuous
 62
     3
440
 16777216
370
    -2
100
AcDbLine
 10
1011.611425192175
 20
287.0169151740684
 30
0.0
 11
955.5748221142309
 21
287.0169151740684
 31
0.0
  0
LINE
  5
685
330
681
100
AcDbEntity
  8
P-0000
  6
Continuous
 62
     3
440
 16777216
370
    -2
100
AcDbLine
 10
959.5748221142308
 20
310.7169151740684
 30
0.0
 11
959.5748221142308
 21
293.3169151740684
 31
0.0
  0
SOLID
  5
686
330
681
100
AcDbEntity
  8
P-0000
  6
Continuous
 62
     3
440
 16777216
100
AcDbTrace
 10
958.5248221142309
 20
310.7169151740684
 30
0.0
 11
960.6248221142308
 21
310.7169151740684
 31
0.0
 12
959.5748221142308
 22
317.0169151740684
 32
0.0
 13
959.5748221142308
 23
317.0169151740684
 33
0.0
  0
SOLID
  5
687
330
681
100
AcDbEntity
  8
P-0000
  6
Continuous
 62
     3
440
 16777216
100
AcDbTrace
 10
958.5248221142309
 20
293.3169151740684
 30
0.0
 11
960.6248221142308
 21
293.3169151740684
 31
0.0
 12
959.5748221142308
 22
287.0169151740684
 32
0.0
 13
959.5748221142308
 23
287.0169151740684
 33
0.0
  0
MTEXT
  5
688
330
681
100
AcDbEntity
  8
P-0000
  6
Continuous
 62
     2
440
 16777216
100
AcDbMText
 10
948.5748221142307
 20
300.262485694465
 30
0.0
 40
7.0
 41
0.0
 46
0.0
 71
     2
 72
     1
  1
30
 11
0.0000000000000001
 21
1.0
 31
0.0
 73
     1
 44
1.0
  0
POINT
  5
689
330
681
100
AcDbEntity
  8
Defpoints
  6
Continuous
 62
     0
440
 16777216
100
AcDbPoint
 10
990.1114251921754
 20
317.0169151740684
 30
0.0
  0
POINT
  5
68A
330
681
100
AcDbEntity
  8
Defpoints
  6
Continuous
 62
     0
440
 16777216
100
AcDbPoint
 10
1011.611425192175
 20
287.0169151740684
 30
0.0
  0
POINT
  5
68B
330
681
100
AcDbEntity
  8
Defpoints
  6
Continuous
 62
     0
440
 16777216
100
AcDbPoint
 10
959.5748221142308
 20
287.0169151740684
 30
0.0
  0
ENDBLK
  5
68C
330
681
100
AcDbEntity
  8
0
100
AcDbBlockEnd
  0
BLOCK
  5
68E
330
68D
100
AcDbEntity
  8
0
100
AcDbBlockBegin
  2
*D11
 70
     1
 10
0.0
 20
0.0
 30
0.0
  3
*D11
  1

  0
LINE
  5
68F
330
68D
100
AcDbEntity
  8
P-0000
  6
Continuous
 62
     3
440
 16777216
370
    -2
100
AcDbLine
 10
1012.611425192175
 20
279.7669151740684
 30
0.0
 11
1012.611425192175
 21
346.1598187055999
 31
0.0
  0
LINE
  5
690
330
68D
100
AcDbEntity
  8
P-0000
  6
Continuous
 62
     3
440
 16777216
370
    -2
100
AcDbLine
 10
1792.611425192175
 20
281.0169151740684
 30
0.0
 11
1792.611425192175
 21
346.1598187055999
 31
0.0
  0
LINE
  5
691
330
68D
100
AcDbEntity
  8
P-0000
  6
Continuous
 62
     3
440
 16777216
370
    -2
100
AcDbLine
 10
1018.911425192175
 20
342.1598187055999
 30
0.0
 11
1786.311425192175
 21
342.1598187055999
 31
0.0
  0
SOLID
  5
692
330
68D
100
AcDbEntity
  8
P-0000
  6
Continuous
 62
     3
440
 16777216
100
AcDbTrace
 10
1018.911425192175
 20
343.2098187055999
 30
0.0
 11
1018.911425192175
 21
341.1098187055999
 31
0.0
 12
1012.611425192175
 22
342.1598187055999
 32
0.0
 13
1012.611425192175
 23
342.1598187055999
 33
0.0
  0
SOLID
  5
693
330
68D
100
AcDbEntity
  8
P-0000
  6
Continuous
 62
     3
440
 16777216
100
AcDbTrace
 10
1786.311425192175
 20
343.2098187055999
 30
0.0
 11
1786.311425192175
 21
341.1098187055999
 31
0.0
 12
1792.611425192175
 22
342.1598187055999
 32
0.0
 13
1792.611425192175
 23
342.1598187055999
 33
0.0
  0
MTEXT
  5
694
330
68D
100
AcDbEntity
  8
P-0000
  6
Continuous
 62
     2
440
 16777216
100
AcDbMText
 10
1402.611425192175
 20
349.6598187056
 30
0.0
 40
7.0
 41
0.0
 46
0.0
 71
     5
 72
     1
  1
780
 73
     1
 44
1.0
  0
POINT
  5
695
330
68D
100
AcDbEntity
  8
Defpoints
  6
Continuous
 62
     0
440
 16777216
100
AcDbPoint
 10
1012.611425192175
 20
279.7669151740684
 30
0.0
  0
POINT
  5
696
330
68D
100
AcDbEntity
  8
Defpoints
  6
Continuous
 62
     0
440
 16777216
100
AcDbPoint
 10
1792.611425192175
 20
281.0169151740684
 30
0.0
  0
POINT
  5
697
330
68D
100
AcDbEntity
  8
Defpoints
  6
Continuous
 62
     0
440
 16777216
100
AcDbPoint
 10
1792.611425192175
 20
342.1598187055999
 30
0.0
  0
ENDBLK
  5
698
330
68D
100
AcDbEntity
  8
0
100
AcDbBlockEnd
  0
BLOCK
  5
69A
330
699
100
AcDbEntity
  8
0
100
AcDbBlockBegin
  2
*D12
 70
     1
 10
0.0
 20
0.0
 30
0.0
  3
*D12
  1

  0
LINE
  5
69B
330
699
100
AcDbEntity
  8
P-0000
  6
Continuous
 62
     3
440
 16777216
370
    -2
100
AcDbLine
 10
1794.611425192175
 20
280.5169151740684
 30
0.0
 11
1794.611425192175
 21
359.9981686364358
 31
0.0
  0
LINE
  5
69C
330
699
100
AcDbEntity
  8
P-0000
  6
Continuous
 62
     3
440
 16777216
370
    -2
100
AcDbLine
 10
1010.611425192175
 20
280.5169151740684
 30
0.0
 11
1010.611425192175
 21
359.9981686364358
 31
0.0
  0
LINE
  5
69D
330
699
100
AcDbEntity
  8
P-0000
  6
Continuous
 62
     3
440
 16777216
370
    -2
100
AcDbLine
 10
1788.311425192175
 20
355.9981686364358
 30
0.0
 11
1016.911425192175
 21
355.9981686364358
 31
0.0
  0
SOLID
  5
69E
330
699
100
AcDbEntity
  8
P-0000
  6
Continuous
 62
     3
440
 16777216
100
AcDbTrace
 10
1788.311425192175
 20
357.0481686364358
 30
0.0
 11
1788.311425192175
 21
354.9481686364358
 31
0.0
 12
1794.611425192175
 22
355.9981686364358
 32
0.0
 13
1794.611425192175
 23
355.9981686364358
 33
0.0
  0
SOLID
  5
69F
330
699
100
AcDbEntity
  8
P-0000
  6
Continuous
 62
     3
440
 16777216
100
AcDbTrace
 10
1016.911425192175
 20
357.0481686364358
 30
0.0
 11
1016.911425192175
 21
354.9481686364358
 31
0.0
 12
1010.611425192175
 22
355.9981686364358
 32
0.0
 13
1010.611425192175
 23
355.9981686364358
 33
0.0
  0
MTEXT
  5
6A0
330
699
100
AcDbEntity
  8
P-0000
  6
Continuous
 62
     2
440
 16777216
100
AcDbMText
 10
1402.611425192175
 20
363.4981686364358
 30
0.0
 40
7.0
 41
0.0
 46
0.0
 71
     5
 72
     1
  1
784
 73
     1
 44
1.0
  0
POINT
  5
6A1
330
699
100
AcDbEntity
  8
Defpoints
  6
Continuous
 62
     0
440
 16777216
100
AcDbPoint
 10
1794.611425192175
 20
280.5169151740684
 30
0.0
  0
POINT
  5
6A2
330
699
100
AcDbEntity
  8
Defpoints
  6
Continuous
 62
     0
440
 16777216
100
AcDbPoint
 10
1010.611425192175
 20
280.5169151740684
 30
0.0
  0
POINT
  5
6A3
330
699
100
AcDbEntity
  8
Defpoints
  6
Continuous
 62
     0
440
 16777216
100
AcDbPoint
 10
1010.611425192175
 20
355.9981686364358
 30
0.0
  0
ENDBLK
  5
6A4
330
699
100
AcDbEntity
  8
0
100
AcDbBlockEnd
  0
BLOCK
  5
6A6
330
6A5
100
AcDbEntity
  8
0
100
AcDbBlockBegin
  2
*D13
 70
     1
 10
0.0
 20
0.0
 30
0.0
  3
*D13
  1

  0
LINE
  5
6A7
330
6A5
100
AcDbEntity
  8
P-0000
  6
Continuous
 62
     3
440
 16777216
370
    -2
100
AcDbLine
 10
1825.111425192175
 20
291.0169151740684
 30
0.0
 11
1825.111425192175
 21
373.8365206702876
 31
0.0
  0
LINE
  5
6A8
330
6A5
100
AcDbEntity
  8
P-0000
  6
Continuous
 62
     3
440
 16777216
370
    -2
100
AcDbLine
 10
980.1114251921754
 20
291.0169151740684
 30
0.0
 11
980.1114251921754
 21
373.8365206702876
 31
0.0
  0
LINE
  5
6A9
330
6A5
100
AcDbEntity
  8
P-0000
  6
Continuous
 62
     3
440
 16777216
370
    -2
100
AcDbLine
 10
1818.811425192175
 20
369.8365206702876
 30
0.0
 11
986.4114251921753
 21
369.8365206702876
 31
0.0
  0
SOLID
  5
6AA
330
6A5
100
AcDbEntity
  8
P-0000
  6
Continuous
 62
     3
440
 16777216
100
AcDbTrace
 10
1818.811425192175
 20
370.8865206702876
 30
0.0
 11
1818.811425192175
 21
368.7865206702875
 31
0.0
 12
1825.111425192175
 22
369.8365206702876
 32
0.0
 13
1825.111425192175
 23
369.8365206702876
 33
0.0
  0
SOLID
  5
6AB
330
6A5
100
AcDbEntity
  8
P-0000
  6
Continuous
 62
     3
440
 16777216
100
AcDbTrace
 10
986.4114251921753
 20
370.8865206702876
 30
0.0
 11
986.4114251921753
 21
368.7865206702875
 31
0.0
 12
980.1114251921754
 22
369.8365206702876
 32
0.0
 13
980.1114251921754
 23
369.8365206702876
 33
0.0
  0
MTEXT
  5
6AC
330
6A5
100
AcDbEntity
  8
P-0000
  6
Continuous
 62
     2
440
 16777216
100
AcDbMText
 10
1402.611425192175
 20
377.3365206702875
 30
0.0
 40
7.0
 41
0.0
 46
0.0
 71
     5
 72
     1
  1
845
 73
     1
 44
1.0
  0
POINT
  5
6AD
330
6A5
100
AcDbEntity
  8
Defpoints
  6
Continuous
 62
     0
440
 16777216
100
AcDbPoint
 10
1825.111425192175
 20
291.0169151740684
 30
0.0
  0
POINT
  5
6AE
330
6A5
100
AcDbEntity
  8
Defpoints
  6
Continuous
 62
     0
440
 16777216
100
AcDbPoint
 10
980.1114251921754
 20
291.0169151740684
 30
0.0
  0
POINT
  5
6AF
330
6A5
100
AcDbEntity
  8
Defpoints
  6
Continuous
 62
     0
440
 16777216
100
AcDbPoint
 10
980.1114251921754
 20
369.8365206702876
 30
0.0
  0
ENDBLK
  5
6B0
330
6A5
100
AcDbEntity
  8
0
100
AcDbBlockEnd
  0
BLOCK
  5
A78
330
A77
100
AcDbEntity
  8
0
100
AcDbBlockBegin
  2
*D15
 70
     1
 10
0.0
 20
0.0
 30
0.0
  3
*D15
  1

  0
LINE
  5
AB3
330
A77
100
AcDbEntity
  8
P-0000
  6
Continuous
 62
     3
440
 16777216
370
    -2
100
AcDbLine
 10
114.8323730409756
 20
385.5431849246725
 30
0.0
 11
55.67952218463013
 21
385.5431849246725
 31
0.0
  0
LINE
  5
AB4
330
A77
100
AcDbEntity
  8
P-0000
  6
Continuous
 62
     3
440
 16777216
370
    -2
100
AcDbLine
 10
437.2323734069754
 20
288.3431849246725
 30
0.0
 11
55.67952218463013
 21
288.3431849246727
 31
0.0
  0
LINE
  5
AB5
330
A77
100
AcDbEntity
  8
P-0000
  6
Continuous
 62
     3
440
 16777216
370
    -2
100
AcDbLine
 10
59.67952218463012
 20
379.2431849246725
 30
0.0
 11
59.6795221846301
 21
294.6431849246727
 31
0.0
  0
SOLID
  5
AB6
330
A77
100
AcDbEntity
  8
P-0000
  6
Continuous
 62
     3
440
 16777216
100
AcDbTrace
 10
58.62952218463012
 20
379.2431849246725
 30
0.0
 11
60.72952218463012
 21
379.2431849246725
 31
0.0
 12
59.67952218463012
 22
385.5431849246725
 32
0.0
 13
59.67952218463012
 23
385.5431849246725
 33
0.0
  0
SOLID
  5
AB7
330
A77
100
AcDbEntity
  8
P-0000
  6
Continuous
 62
     3
440
 16777216
100
AcDbTrace
 10
58.62952218463011
 20
294.6431849246727
 30
0.0
 11
60.7295221846301
 21
294.6431849246727
 31
0.0
 12
59.6795221846301
 22
288.3431849246727
 32
0.0
 13
59.6795221846301
 23
288.3431849246727
 33
0.0
  0
MTEXT
  5
AB8
330
A77
100
AcDbEntity
  8
P-0000
  6
Continuous
 62
     2
440
 16777216
100
AcDbMText
 10
48.67952218463006
 20
336.0213575973277
 30
0.0
 40
7.0
 41
0.0
 46
0.0
 71
     2
 72
     1
  1
97
 11
0.0000000000000001
 21
1.0
 31
0.0
 73
     1
 44
1.0
  0
POINT
  5
AB9
330
A77
100
AcDbEntity
  8
Defpoints
  6
Continuous
 62
     0
440
 16777216
100
AcDbPoint
 10
114.8323730409756
 20
385.5431849246725
 30
0.0
  0
POINT
  5
ABA
330
A77
100
AcDbEntity
  8
Defpoints
  6
Continuous
 62
     0
440
 16777216
100
AcDbPoint
 10
437.2323734069754
 20
288.3431849246725
 30
0.0
  0
POINT
  5
ABB
330
A77
100
AcDbEntity
  8
Defpoints
  6
Continuous
 62
     0
440
 16777216
100
AcDbPoint
 10
59.6795221846301
 20
288.3431849246727
 30
0.0
  0
ENDBLK
  5
A79
330
A77
100
AcDbEntity
  8
0
100
AcDbBlockEnd
  0
BLOCK
  5
A84
330
A83
100
AcDbEntity
  8
0
100
AcDbBlockBegin
  2
*D16
 70
     1
 10
0.0
 20
0.0
 30
0.0
  3
*D16
  1

  0
LINE
  5
ABC
330
A83
100
AcDbEntity
  8
P-0000
  6
Continuous
 62
     3
440
 16777216
370
    -2
100
AcDbLine
 10
137.8323730409756
 20
179.2070676695725
 30
0.0
 11
81.2056747199961
 21
179.2070676695725
 31
0.0
  0
LINE
  5
ABD
330
A83
100
AcDbEntity
  8
P-0000
  6
Continuous
 62
     3
440
 16777216
370
    -2
100
AcDbLine
 10
137.8323730409756
 20
115.1193440821725
 30
0.0
 11
81.20567471999608
 21
115.1193440821725
 31
0.0
  0
LINE
  5
ABE
330
A83
100
AcDbEntity
  8
P-0000
  6
Continuous
 62
     3
440
 16777216
370
    -2
100
AcDbLine
 10
85.2056747199961
 20
172.9070676695725
 30
0.0
 11
85.20567471999608
 21
121.4193440821725
 31
0.0
  0
SOLID
  5
ABF
330
A83
100
AcDbEntity
  8
P-0000
  6
Continuous
 62
     3
440
 16777216
100
AcDbTrace
 10
84.1556747199961
 20
172.9070676695725
 30
0.0
 11
86.25567471999609
 21
172.9070676695725
 31
0.0
 12
85.2056747199961
 22
179.2070676695725
 32
0.0
 13
85.2056747199961
 23
179.2070676695725
 33
0.0
  0
SOLID
  5
AC0
330
A83
100
AcDbEntity
  8
P-0000
  6
Continuous
 62
     3
440
 16777216
100
AcDbTrace
 10
84.15567471999608
 20
121.4193440821725
 30
0.0
 11
86.25567471999607
 21
121.4193440821725
 31
0.0
 12
85.20567471999608
 22
115.1193440821725
 32
0.0
 13
85.20567471999608
 23
115.1193440821725
 33
0.0
  0
MTEXT
  5
AC1
330
A83
100
AcDbEntity
  8
P-0000
  6
Continuous
 62
     2
440
 16777216
100
AcDbMText
 10
74.20567471999607
 20
148.5521916505322
 30
0.0
 40
7.0
 41
0.0
 46
0.0
 71
     2
 72
     1
  1
64
 11
0.0000000000000001
 21
1.0
 31
0.0
 73
     1
 44
1.0
  0
POINT
  5
AC2
330
A83
100
AcDbEntity
  8
Defpoints
  6
Continuous
 62
     0
440
 16777216
100
AcDbPoint
 10
137.8323730409756
 20
179.2070676695725
 30
0.0
  0
POINT
  5
AC3
330
A83
100
AcDbEntity
  8
Defpoints
  6
Continuous
 62
     0
440
 16777216
100
AcDbPoint
 10
137.8323730409756
 20
115.1193440821725
 30
0.0
  0
POINT
  5
AC4
330
A83
100
AcDbEntity
  8
Defpoints
  6
Continuous
 62
     0
440
 16777216
100
AcDbPoint
 10
85.20567471999608
 20
115.1193440821725
 30
0.0
  0
ENDBLK
  5
A85
330
A83
100
AcDbEntity
  8
0
100
AcDbBlockEnd
  0
BLOCK
  5
A90
330
A8F
100
AcDbEntity
  8
0
100
AcDbBlockBegin
  2
*D17
 70
     1
 10
0.0
 20
0.0
 30
0.0
  3
*D17
  1

  0
LINE
  5
AC5
330
A8F
100
AcDbEntity
  8
P-0000
  6
Continuous
 62
     3
440
 16777216
370
    -2
100
AcDbLine
 10
105.3323730409756
 20
193.2070676695725
 30
0.0
 11
56.59904832709439
 21
193.2070676695725
 31
0.0
  0
LINE
  5
AC6
330
A8F
100
AcDbEntity
  8
P-0000
  6
Continuous
 62
     3
440
 16777216
370
    -2
100
AcDbLine
 10
126.5823730409756
 20
81.20706766957249
 30
0.0
 11
56.59904832709436
 21
81.20706766957251
 31
0.0
  0
LINE
  5
AC7
330
A8F
100
AcDbEntity
  8
P-0000
  6
Continuous
 62
     3
440
 16777216
370
    -2
100
AcDbLine
 10
60.59904832709438
 20
186.9070676695725
 30
0.0
 11
60.59904832709436
 21
87.5070676695725
 31
0.0
  0
SOLID
  5
AC8
330
A8F
100
AcDbEntity
  8
P-0000
  6
Continuous
 62
     3
440
 16777216
100
AcDbTrace
 10
59.54904832709439
 20
186.9070676695725
 30
0.0
 11
61.64904832709439
 21
186.9070676695725
 31
0.0
 12
60.59904832709438
 22
193.2070676695725
 32
0.0
 13
60.59904832709438
 23
193.2070676695725
 33
0.0
  0
SOLID
  5
AC9
330
A8F
100
AcDbEntity
  8
P-0000
  6
Continuous
 62
     3
440
 16777216
100
AcDbTrace
 10
59.54904832709437
 20
87.5070676695725
 30
0.0
 11
61.64904832709436
 21
87.5070676695725
 31
0.0
 12
60.59904832709436
 22
81.20706766957251
 32
0.0
 13
60.59904832709436
 23
81.20706766957251
 33
0.0
  0
MTEXT
  5
ACA
330
A8F
100
AcDbEntity
  8
P-0000
  6
Continuous
 62
     2
440
 16777216
100
AcDbMText
 10
49.59767037433845
 20
141.8940545202999
 30
0.0
 40
7.0
 41
0.0
 46
0.0
 71
     2
 72
     1
  1
112
 11
0.0000000000000001
 21
1.0
 31
0.0
 73
     1
 44
1.0
  0
POINT
  5
ACB
330
A8F
100
AcDbEntity
  8
Defpoints
  6
Continuous
 62
     0
440
 16777216
100
AcDbPoint
 10
105.3323730409756
 20
193.2070676695725
 30
0.0
  0
POINT
  5
ACC
330
A8F
100
AcDbEntity
  8
Defpoints
  6
Continuous
 62
     0
440
 16777216
100
AcDbPoint
 10
126.5823730409756
 20
81.20706766957249
 30
0.0
  0
POINT
  5
ACD
330
A8F
100
AcDbEntity
  8
Defpoints
  6
Continuous
 62
     0
440
 16777216
100
AcDbPoint
 10
60.59904832709436
 20
81.20706766957251
 30
0.0
  0
ENDBLK
  5
A91
330
A8F
100
AcDbEntity
  8
0
100
AcDbBlockEnd
  0
BLOCK
  5
A9C
330
A9B
100
AcDbEntity
  8
0
100
AcDbBlockBegin
  2
*D18
 70
     1
 10
0.0
 20
0.0
 30
0.0
  3
*D18
  1

  0
LINE
  5
ACE
330
A9B
100
AcDbEntity
  8
P-0000
  6
Continuous
 62
     3
440
 16777216
370
    -2
100
AcDbLine
 10
114.8323730409756
 20
385.5431849246725
 30
0.0
 11
80.29576996303109
 21
385.5431849246725
 31
0.0
  0
LINE
  5
ACF
330
A9B
100
AcDbEntity
  8
P-0000
  6
Continuous
 62
     3
440
 16777216
370
    -2
100
AcDbLine
 10
136.3323730409756
 20
355.5431849246725
 30
0.0
 11
80.29576996303109
 21
355.5431849246726
 31
0.0
  0
LINE
  5
AD0
330
A9B
100
AcDbEntity
  8
P-0000
  6
Continuous
 62
     3
440
 16777216
370
    -2
100
AcDbLine
 10
84.2957699630311
 20
379.2431849246725
 30
0.0
 11
84.2957699630311
 21
361.8431849246726
 31
0.0
  0
SOLID
  5
AD1
330
A9B
100
AcDbEntity
  8
P-0000
  6
Continuous
 62
     3
440
 16777216
100
AcDbTrace
 10
83.24576996303109
 20
379.2431849246725
 30
0.0
 11
85.34576996303108
 21
379.2431849246725
 31
0.0
 12
84.2957699630311
 22
385.5431849246725
 32
0.0
 13
84.2957699630311
 23
385.5431849246725
 33
0.0
  0
SOLID
  5
AD2
330
A9B
100
AcDbEntity
  8
P-0000
  6
Continuous
 62
     3
440
 16777216
100
AcDbTrace
 10
83.24576996303109
 20
361.8431849246726
 30
0.0
 11
85.34576996303108
 21
361.8431849246726
 31
0.0
 12
84.2957699630311
 22
355.5431849246726
 32
0.0
 13
84.2957699630311
 23
355.5431849246726
 33
0.0
  0
MTEXT
  5
AD3
330
A9B
100
AcDbEntity
  8
P-0000
  6
Continuous
 62
     2
440
 16777216
100
AcDbMText
 10
73.29576996303103
 20
368.7887554450691
 30
0.0
 40
7.0
 41
0.0
 46
0.0
 71
     2
 72
     1
  1
30
 11
0.0000000000000001
 21
1.0
 31
0.0
 73
     1
 44
1.0
  0
POINT
  5
AD4
330
A9B
100
AcDbEntity
  8
Defpoints
  6
Continuous
 62
     0
440
 16777216
100
AcDbPoint
 10
114.8323730409756
 20
385.5431849246725
 30
0.0
  0
POINT
  5
AD5
330
A9B
100
AcDbEntity
  8
Defpoints
  6
Continuous
 62
     0
440
 16777216
100
AcDbPoint
 10
136.3323730409756
 20
355.5431849246725
 30
0.0
  0
POINT
  5
AD6
330
A9B
100
AcDbEntity
  8
Defpoints
  6
Continuous
 62
     0
440
 16777216
100
AcDbPoint
 10
84.2957699630311
 20
355.5431849246726
 30
0.0
  0
ENDBLK
  5
A9D
330
A9B
100
AcDbEntity
  8
0
100
AcDbBlockEnd
  0
BLOCK
  5
AA8
330
AA7
100
AcDbEntity
  8
0
100
AcDbBlockBegin
  2
*D19
 70
     1
 10
0.0
 20
0.0
 30
0.0
  3
*D19
  1

  0
LINE
  5
AE3
330
AA7
100
AcDbEntity
  8
P-0000
  6
Continuous
 62
     3
440
 16777216
370
    -2
100
AcDbLine
 10
919.3323730409757
 20
349.0431849246725
 30
0.0
 11
919.3323730409757
 21
428.5244383870399
 31
0.0
  0
LINE
  5
AE4
330
AA7
100
AcDbEntity
  8
P-0000
  6
Continuous
 62
     3
440
 16777216
370
    -2
100
AcDbLine
 10
135.3323730409756
 20
349.0431849246725
 30
0.0
 11
135.3323730409756
 21
428.5244383870399
 31
0.0
  0
LINE
  5
AE5
330
AA7
100
AcDbEntity
  8
P-0000
  6
Continuous
 62
     3
440
 16777216
370
    -2
100
AcDbLine
 10
913.0323730409756
 20
424.5244383870399
 30
0.0
 11
141.6323730409756
 21
424.5244383870399
 31
0.0
  0
SOLID
  5
AE6
330
AA7
100
AcDbEntity
  8
P-0000
  6
Continuous
 62
     3
440
 16777216
100
AcDbTrace
 10
913.0323730409756
 20
425.5744383870399
 30
0.0
 11
913.0323730409756
 21
423.4744383870399
 31
0.0
 12
919.3323730409757
 22
424.5244383870399
 32
0.0
 13
919.3323730409757
 23
424.5244383870399
 33
0.0
  0
SOLID
  5
AE7
330
AA7
100
AcDbEntity
  8
P-0000
  6
Continuous
 62
     3
440
 16777216
100
AcDbTrace
 10
141.6323730409756
 20
425.5744383870399
 30
0.0
 11
141.6323730409756
 21
423.4744383870399
 31
0.0
 12
135.3323730409756
 22
424.5244383870399
 32
0.0
 13
135.3323730409756
 23
424.5244383870399
 33
0.0
  0
MTEXT
  5
AE8
330
AA7
100
AcDbEntity
  8
P-0000
  6
Continuous
 62
     2
440
 16777216
100
AcDbMText
 10
527.3323730409756
 20
432.0244383870399
 30
0.0
 40
7.0
 41
0.0
 46
0.0
 71
     5
 72
     1
  1
784
 73
     1
 44
1.0
  0
POINT
  5
AE9
330
AA7
100
AcDbEntity
  8
Defpoints
  6
Continuous
 62
     0
440
 16777216
100
AcDbPoint
 10
919.3323730409757
 20
349.0431849246725
 30
0.0
  0
POINT
  5
AEA
330
AA7
100
AcDbEntity
  8
Defpoints
  6
Continuous
 62
     0
440
 16777216
100
AcDbPoint
 10
135.3323730409756
 20
349.0431849246725
 30
0.0
  0
POINT
  5
AEB
330
AA7
100
AcDbEntity
  8
Defpoints
  6
Continuous
 62
     0
440
 16777216
100
AcDbPoint
 10
135.3323730409756
 20
424.5244383870399
 30
0.0
  0
ENDBLK
  5
AA9
330
AA7
100
AcDbEntity
  8
0
100
AcDbBlockEnd
  0
BLOCK
  5
AD8
330
AD7
100
AcDbEntity
  8
0
100
AcDbBlockBegin
  2
*D20
 70
     1
 10
0.0
 20
0.0
 30
0.0
  3
*D20
  1

  0
LINE
  5
ADA
330
AD7
100
AcDbEntity
  8
P-0000
  6
Continuous
 62
     3
440
 16777216
370
    -2
100
AcDbLine
 10
137.3323730409756
 20
348.2931849246725
 30
0.0
 11
137.3323730409756
 21
414.686088456204
 31
0.0
  0
LINE
  5
ADB
330
AD7
100
AcDbEntity
  8
P-0000
  6
Continuous
 62
     3
440
 16777216
370
    -2
100
AcDbLine
 10
917.3323730409757
 20
349.5431849246725
 30
0.0
 11
917.3323730409757
 21
414.686088456204
 31
0.0
  0
LINE
  5
ADC
330
AD7
100
AcDbEntity
  8
P-0000
  6
Continuous
 62
     3
440
 16777216
370
    -2
100
AcDbLine
 10
143.6323730409756
 20
410.686088456204
 30
0.0
 11
911.0323730409756
 21
410.686088456204
 31
0.0
  0
SOLID
  5
ADD
330
AD7
100
AcDbEntity
  8
P-0000
  6
Continuous
 62
     3
440
 16777216
100
AcDbTrace
 10
143.6323730409756
 20
411.7360884562041
 30
0.0
 11
143.6323730409756
 21
409.636088456204
 31
0.0
 12
137.3323730409756
 22
410.686088456204
 32
0.0
 13
137.3323730409756
 23
410.686088456204
 33
0.0
  0
SOLID
  5
ADE
330
AD7
100
AcDbEntity
  8
P-0000
  6
Continuous
 62
     3
440
 16777216
100
AcDbTrace
 10
911.0323730409756
 20
411.7360884562041
 30
0.0
 11
911.0323730409756
 21
409.636088456204
 31
0.0
 12
917.3323730409757
 22
410.686088456204
 32
0.0
 13
917.3323730409757
 23
410.686088456204
 33
0.0
  0
MTEXT
  5
ADF
330
AD7
100
AcDbEntity
  8
P-0000
  6
Continuous
 62
     2
440
 16777216
100
AcDbMText
 10
527.3323730409756
 20
418.186088456204
 30
0.0
 40
7.0
 41
0.0
 46
0.0
 71
     5
 72
     1
  1
780
 73
     1
 44
1.0
  0
POINT
  5
AE0
330
AD7
100
AcDbEntity
  8
Defpoints
  6
Continuous
 62
     0
440
 16777216
100
AcDbPoint
 10
137.3323730409756
 20
348.2931849246725
 30
0.0
  0
POINT
  5
AE1
330
AD7
100
AcDbEntity
  8
Defpoints
  6
Continuous
 62
     0
440
 16777216
100
AcDbPoint
 10
917.3323730409757
 20
349.5431849246725
 30
0.0
  0
POINT
  5
AE2
330
AD7
100
AcDbEntity
  8
Defpoints
  6
Continuous
 62
     0
440
 16777216
100
AcDbPoint
 10
917.3323730409757
 20
410.686088456204
 30
0.0
  0
ENDBLK
  5
AD9
330
AD7
100
AcDbEntity
  8
0
100
AcDbBlockEnd
  0
BLOCK
  5
AED
330
AEC
100
AcDbEntity
  8
0
100
AcDbBlockBegin
  2
*D21
 70
     1
 10
0.0
 20
0.0
 30
0.0
  3
*D21
  1

  0
LINE
  5
AEF
330
AEC
100
AcDbEntity
  8
P-0000
  6
Continuous
 62
     3
440
 16777216
370
    -2
100
AcDbLine
 10
949.8323730409756
 20
359.5431849246725
 30
0.0
 11
949.8323730409756
 21
442.3627904208916
 31
0.0
  0
LINE
  5
AF0
330
AEC
100
AcDbEntity
  8
P-0000
  6
Continuous
 62
     3
440
 16777216
370
    -2
100
AcDbLine
 10
104.8323730409756
 20
359.5431849246725
 30
0.0
 11
104.8323730409756
 21
442.3627904208916
 31
0.0
  0
LINE
  5
AF1
330
AEC
100
AcDbEntity
  8
P-0000
  6
Continuous
 62
     3
440
 16777216
370
    -2
100
AcDbLine
 10
943.5323730409757
 20
438.3627904208916
 30
0.0
 11
111.1323730409756
 21
438.3627904208916
 31
0.0
  0
SOLID
  5
AF2
330
AEC
100
AcDbEntity
  8
P-0000
  6
Continuous
 62
     3
440
 16777216
100
AcDbTrace
 10
943.5323730409757
 20
439.4127904208916
 30
0.0
 11
943.5323730409757
 21
437.3127904208916
 31
0.0
 12
949.8323730409756
 22
438.3627904208916
 32
0.0
 13
949.8323730409756
 23
438.3627904208916
 33
0.0
  0
SOLID
  5
AF3
330
AEC
100
AcDbEntity
  8
P-0000
  6
Continuous
 62
     3
440
 16777216
100
AcDbTrace
 10
111.1323730409756
 20
439.4127904208916
 30
0.0
 11
111.1323730409756
 21
437.3127904208916
 31
0.0
 12
104.8323730409756
 22
438.3627904208916
 32
0.0
 13
104.8323730409756
 23
438.3627904208916
 33
0.0
  0
MTEXT
  5
AF4
330
AEC
100
AcDbEntity
  8
P-0000
  6
Continuous
 62
     2
440
 16777216
100
AcDbMText
 10
527.3323730409756
 20
445.8627904208916
 30
0.0
 40
7.0
 41
0.0
 46
0.0
 71
     5
 72
     1
  1
845
 73
     1
 44
1.0
  0
POINT
  5
AF5
330
AEC
100
AcDbEntity
  8
Defpoints
  6
Continuous
 62
     0
440
 16777216
100
AcDbPoint
 10
949.8323730409756
 20
359.5431849246725
 30
0.0
  0
POINT
  5
AF6
330
AEC
100
AcDbEntity
  8
Defpoints
  6
Continuous
 62
     0
440
 16777216
100
AcDbPoint
 10
104.8323730409756
 20
359.5431849246725
 30
0.0
  0
POINT
  5
AF7
330
AEC
100
AcDbEntity
  8
Defpoints
  6
Continuous
 62
     0
440
 16777216
100
AcDbPoint
 10
104.8323730409756
 20
438.3627904208916
 30
0.0
  0
ENDBLK
  5
AEE
330
AEC
100
AcDbEntity
  8
0
100
AcDbBlockEnd
  0
ENDSEC
  0
SECTION
  2
ENTITIES
  0
LINE
  5
8A4
330
1F
100
AcDbEntity
  8
0
  6
Continuous
 62
     7
100
AcDbLine
 10
104.8323730409756
 20
342.5431849246725
 30
0.0
 11
104.8323730409756
 21
340.5431849246725
 31
0.0
  0
LINE
  5
8A5
330
1F
100
AcDbEntity
  8
RUNDUNGEN
  6
Continuous
 62
     7
100
AcDbLine
 10
104.8323730409756
 20
342.5431849246725
 30
0.0
 11
104.8323730409756
 21
343.5431849246725
 31
0.0
  0
LINE
  5
8A6
102
{ACAD_REACTORS
330
A76
102
}
330
1F
100
AcDbEntity
  8
0
  6
Continuous
 62
     7
100
AcDbLine
 10
104.8323730409756
 20
343.5431849246725
 30
0.0
 11
104.8323730409756
 21
375.5431849246725
 31
0.0
  0
LINE
  5
8A7
330
1F
100
AcDbEntity
  8
RUNDUNGEN
  6
Continuous
 62
     9
100
AcDbLine
 10
114.8323730409756
 20
342.5431849246725
 30
0.0
 11
114.8323730409756
 21
343.5431849246725
 31
0.0
  0
LINE
  5
8A8
330
1F
100
AcDbEntity
  8
RUNDUNGEN
  6
Continuous
 62
     7
100
AcDbLine
 10
135.3323730409756
 20
334.5431849246724
 30
0.0
 11
135.3323730409756
 21
342.5431849246725
 31
0.0
  0
LINE
  5
8A9
330
1F
100
AcDbEntity
  8
RUNDUNGEN
  6
Continuous
 62
     7
100
AcDbLine
 10
135.3323730409756
 20
343.5431849246725
 30
0.0
 11
135.3323730409756
 21
354.5431849246725
 31
0.0
  0
LINE
  5
8AA
330
1F
100
AcDbEntity
  8
0
  6
Continuous
 62
     7
100
AcDbLine
 10
137.0323730409757
 20
355.2517569571725
 30
0.0
 11
137.0323730409757
 21
356.3931849246725
 31
0.0
  0
LINE
  5
8AB
330
1F
100
AcDbEntity
  8
0
  6
Continuous
 62
     7
100
AcDbLine
 10
137.3323730409756
 20
356.4251066724725
 30
0.0
 11
137.3323730409756
 21
354.6172100732724
 31
0.0
  0
LINE
  5
8AC
102
{ACAD_REACTORS
330
A72
102
}
330
1F
100
AcDbEntity
  8
0
  6
Continuous
 62
     7
100
AcDbLine
 10
137.3323730409756
 20
354.0431849246725
 30
0.0
 11
137.3323730409756
 21
342.5431849246725
 31
0.0
  0
LINE
  5
8AD
330
1F
100
AcDbEntity
  8
RUNDUNGEN
  6
Continuous
 62
     7
100
AcDbLine
 10
137.3323730409756
 20
334.5431849246724
 30
0.0
 11
137.3323730409756
 21
342.5431849246725
 31
0.0
  0
LINE
  5
8AE
330
1F
100
AcDbEntity
  8
0
  6
Continuous
 62
     3
100
AcDbLine
 10
137.3323730409756
 20
341.2880117298725
 30
0.0
 11
137.3323730409756
 21
342.5431849246725
 31
0.0
  0
LINE
  5
8AF
330
1F
100
AcDbEntity
  8
RUNDUNGEN
  6
Continuous
 62
     7
100
AcDbLine
 10
137.3323730409756
 20
344.5431849246725
 30
0.0
 11
137.3323730409756
 21
354.5431849246725
 31
0.0
  0
LINE
  5
8B0
330
1F
100
AcDbEntity
  8
FASEN
  6
Continuous
 62
     3
100
AcDbLine
 10
148.3323730409756
 20
336.9858433283726
 30
0.0
 11
148.3323730409756
 21
336.1637979086725
 31
0.0
  0
LINE
  5
8B1
330
1F
100
AcDbEntity
  8
FASEN
  6
Continuous
 62
     7
100
AcDbLine
 10
148.3323730409756
 20
335.1654062381725
 30
0.0
 11
148.3323730409756
 21
336.1637979086725
 31
0.0
  0
LINE
  5
8B2
330
1F
100
AcDbEntity
  8
FASEN
  6
Continuous
 62
     7
100
AcDbLine
 10
150.8323730409754
 20
335.0236742692725
 30
0.0
 11
150.8323730409754
 21
336.0220659397725
 31
0.0
  0
LINE
  5
8B3
330
1F
100
AcDbEntity
  8
BEZUGSACHSEN
  6
Continuous
 62
     3
100
AcDbLine
 10
155.1003222333756
 20
336.7165525874725
 30
0.0
 11
155.1003222333756
 21
336.4330886496725
 31
0.0
  0
LINE
  5
8B4
330
1F
100
AcDbEntity
  8
BEZUGSACHSEN
  6
Continuous
 62
     9
100
AcDbLine
 10
156.8323730409756
 20
337.5244823206725
 30
0.0
 11
156.8323730409756
 21
337.4314803201725
 31
0.0
  0
LINE
  5
8B5
330
1F
100
AcDbEntity
  8
BEZUGSACHSEN
  6
Continuous
 62
     9
100
AcDbLine
 10
159.8323730409754
 20
337.4314803201725
 30
0.0
 11
159.8323730409754
 21
337.5244823206725
 31
0.0
  0
LINE
  5
8B6
330
1F
100
AcDbEntity
  8
BEZUGSACHSEN
  6
Continuous
 62
     3
100
AcDbLine
 10
161.5644238484756
 20
336.4330886496725
 30
0.0
 11
161.5644238484756
 21
336.7165525874725
 31
0.0
  0
LINE
  5
8B7
330
1F
100
AcDbEntity
  8
BEZUGSACHSEN
  6
Continuous
 62
     3
100
AcDbLine
 10
155.1003222333756
 20
336.7165525874725
 30
0.0
 11
155.1022784217757
 21
336.7225593669725
 31
0.0
  0
LINE
  5
8B8
330
1F
100
AcDbEntity
  8
BEZUGSACHSEN
  6
Continuous
 62
     3
100
AcDbLine
 10
175.1003222333756
 20
336.7165525874725
 30
0.0
 11
175.1003222333756
 21
336.4330886496725
 31
0.0
  0
LINE
  5
8B9
330
1F
100
AcDbEntity
  8
BEZUGSACHSEN
  6
Continuous
 62
     9
100
AcDbLine
 10
176.8323730409754
 20
337.5244823209726
 30
0.0
 11
176.8323730409754
 21
337.4314803201725
 31
0.0
  0
LINE
  5
8BA
330
1F
100
AcDbEntity
  8
BEZUGSACHSEN
  6
Continuous
 62
     9
100
AcDbLine
 10
179.8323730409756
 20
337.4314803201725
 30
0.0
 11
179.8323730409756
 21
337.5244823210725
 31
0.0
  0
LINE
  5
8BB
330
1F
100
AcDbEntity
  8
BEZUGSACHSEN
  6
Continuous
 62
     3
100
AcDbLine
 10
181.5644238484756
 20
336.4330886496725
 30
0.0
 11
181.5644238484756
 21
336.7165525874725
 31
0.0
  0
LINE
  5
8BC
330
1F
100
AcDbEntity
  8
BEZUGSACHSEN
  6
Continuous
 62
     3
100
AcDbLine
 10
175.1003222333756
 20
336.7165525874725
 30
0.0
 11
175.1022784217757
 21
336.7225593669725
 31
0.0
  0
LINE
  5
8BD
330
1F
100
AcDbEntity
  8
BEZUGSACHSEN
  6
Continuous
 62
     3
100
AcDbLine
 10
161.5624676600757
 20
336.7225593669725
 30
0.0
 11
161.5644238484756
 21
336.7165525874725
 31
0.0
  0
LINE
  5
8BE
330
1F
100
AcDbEntity
  8
0
  6
Continuous
 62
     3
100
AcDbLine
 10
193.3323730409756
 20
336.4685216418725
 30
0.0
 11
193.3323730409756
 21
336.6811195951725
 31
0.0
  0
LINE
  5
8BF
330
1F
100
AcDbEntity
  8
0
  6
Continuous
 62
     3
100
AcDbLine
 10
194.5823730409756
 20
336.6811195951725
 30
0.0
 11
194.5823730409756
 21
336.4685216418725
 31
0.0
  0
LINE
  5
8C0
330
1F
100
AcDbEntity
  8
BEZUGSACHSEN
  6
Continuous
 62
     3
100
AcDbLine
 10
181.5624676600757
 20
336.7225593669725
 30
0.0
 11
181.5644238484756
 21
336.7165525874725
 31
0.0
  0
LINE
  5
8C1
330
1F
100
AcDbEntity
  8
0
  6
Continuous
 62
     9
100
AcDbLine
 10
252.9443998400757
 20
337.1275752972725
 30
0.0
 11
252.9443998400757
 21
335.0236742692725
 31
0.0
  0
LINE
  5
8C2
330
1F
100
AcDbEntity
  8
0
  6
Continuous
 62
     9
100
AcDbLine
 10
253.1911557283756
 20
337.1584478934725
 30
0.0
 11
253.1911557283756
 21
336.0529385359725
 31
0.0
  0
LINE
  5
8C3
330
1F
100
AcDbEntity
  8
0
  6
Continuous
 62
     9
100
AcDbLine
 10
254.6024976278754
 20
337.5172393740725
 30
0.0
 11
254.6024976278754
 21
336.4117300165725
 31
0.0
  0
LINE
  5
8C4
330
1F
100
AcDbEntity
  8
0
  6
Continuous
 62
     9
100
AcDbLine
 10
255.5895211812758
 20
337.5172393740725
 30
0.0
 11
255.5895211812758
 21
336.4117300165725
 31
0.0
  0
LINE
  5
8C5
330
1F
100
AcDbEntity
  8
0
  6
Continuous
 62
     9
100
AcDbLine
 10
258.7765262434755
 20
336.7070386242725
 30
0.0
 11
258.7765262434755
 21
335.6015292668725
 31
0.0
  0
LINE
  5
8C6
330
1F
100
AcDbEntity
  8
0
  6
Continuous
 62
     9
100
AcDbLine
 10
259.2700380201754
 20
336.7070386242725
 30
0.0
 11
259.2700380201754
 21
335.6015292668725
 31
0.0
  0
LINE
  5
8C7
330
1F
100
AcDbEntity
  8
0
  6
Continuous
 62
     9
100
AcDbLine
 10
262.4570430824756
 20
337.5172393740725
 30
0.0
 11
262.4570430824756
 21
336.4117300165725
 31
0.0
  0
LINE
  5
8C8
330
1F
100
AcDbEntity
  8
0
  6
Continuous
 62
     9
100
AcDbLine
 10
263.4440666357757
 20
337.5172393740725
 30
0.0
 11
263.4440666357757
 21
336.4117300165725
 31
0.0
  0
LINE
  5
8C9
330
1F
100
AcDbEntity
  8
0
  6
Continuous
 62
     9
100
AcDbLine
 10
266.6310716980756
 20
336.7070386242725
 30
0.0
 11
266.6310716980756
 21
335.6015292668725
 31
0.0
  0
LINE
  5
8CA
330
1F
100
AcDbEntity
  8
0
  6
Continuous
 62
     9
100
AcDbLine
 10
267.1245834747756
 20
336.7070386242725
 30
0.0
 11
267.1245834747756
 21
335.6015292668725
 31
0.0
  0
LINE
  5
8CB
330
1F
100
AcDbEntity
  8
0
  6
Continuous
 62
     9
100
AcDbLine
 10
270.3115885369757
 20
337.5172393740725
 30
0.0
 11
270.3115885369757
 21
336.4117300165725
 31
0.0
  0
LINE
  5
8CC
330
1F
100
AcDbEntity
  8
0
  6
Continuous
 62
     9
100
AcDbLine
 10
271.2986120903756
 20
337.5172393740725
 30
0.0
 11
271.2986120903756
 21
336.4117300165725
 31
0.0
  0
LINE
  5
8CD
330
1F
100
AcDbEntity
  8
FASEN
  6
Continuous
 62
     3
100
AcDbLine
 10
274.8557509850757
 20
336.4712111949725
 30
0.0
 11
274.8557509850757
 21
335.6491657753725
 31
0.0
  0
LINE
  5
8CE
330
1F
100
AcDbEntity
  8
0
  6
Continuous
 62
     9
100
AcDbLine
 10
255.5895211812758
 20
336.4117300165725
 30
0.0
 11
255.3427652928756
 21
335.4442109421725
 31
0.0
  0
LINE
  5
8CF
330
1F
100
AcDbEntity
  8
0
  6
Continuous
 62
     9
100
AcDbLine
 10
258.7765262434755
 20
335.6015292668725
 30
0.0
 11
258.5297703551755
 21
334.6340101924725
 31
0.0
  0
LINE
  5
8D0
330
1F
100
AcDbEntity
  8
0
  6
Continuous
 62
     9
100
AcDbLine
 10
263.4440666357757
 20
336.4117300165725
 30
0.0
 11
263.1973107474755
 21
335.4442109421725
 31
0.0
  0
LINE
  5
8D1
330
1F
100
AcDbEntity
  8
0
  6
Continuous
 62
     9
100
AcDbLine
 10
266.6310716980756
 20
335.6015292668725
 30
0.0
 11
266.3843158096756
 21
334.6340101924725
 31
0.0
  0
LINE
  5
8D2
330
1F
100
AcDbEntity
  8
0
  6
Continuous
 62
     9
100
AcDbLine
 10
271.2986120903756
 20
336.4117300165725
 30
0.0
 11
271.0518562019756
 21
335.4442109421725
 31
0.0
  0
LINE
  5
8D3
330
1F
100
AcDbEntity
  8
FASEN
  6
Continuous
 62
     7
100
AcDbLine
 10
272.1863009203758
 20
335.1558122909725
 30
0.0
 11
272.4330568086757
 21
336.1233313653726
 31
0.0
  0
LINE
  5
8D4
330
1F
100
AcDbEntity
  8
0
  6
Continuous
 62
     9
100
AcDbLine
 10
253.1911557283756
 20
336.0529385359725
 30
0.0
 11
253.4379116167756
 21
335.0854194615725
 31
0.0
  0
LINE
  5
8D5
330
1F
100
AcDbEntity
  8
0
  6
Continuous
 62
     9
100
AcDbLine
 10
254.6024976278754
 20
336.4117300165725
 30
0.0
 11
254.8492535162754
 21
335.4442109421725
 31
0.0
  0
LINE
  5
8D6
330
1F
100
AcDbEntity
  8
0
  6
Continuous
 62
     9
100
AcDbLine
 10
259.2700380201754
 20
335.6015292668725
 30
0.0
 11
259.5167939084758
 21
334.6340101924725
 31
0.0
  0
LINE
  5
8D7
330
1F
100
AcDbEntity
  8
0
  6
Continuous
 62
     9
100
AcDbLine
 10
262.4570430824756
 20
336.4117300165725
 30
0.0
 11
262.7037989707755
 21
335.4442109421725
 31
0.0
  0
LINE
  5
8D8
330
1F
100
AcDbEntity
  8
0
  6
Continuous
 62
     9
100
AcDbLine
 10
267.1245834747756
 20
335.6015292668725
 30
0.0
 11
267.3713393630755
 21
334.6340101924725
 31
0.0
  0
LINE
  5
8D9
330
1F
100
AcDbEntity
  8
0
  6
Continuous
 62
     9
100
AcDbLine
 10
270.3115885369757
 20
336.4117300165725
 30
0.0
 11
270.5583444253757
 21
335.4442109421725
 31
0.0
  0
LINE
  5
8DA
330
1F
100
AcDbEntity
  8
FASEN
  6
Continuous
 62
     7
100
AcDbLine
 10
274.6089950967757
 20
334.6816467009725
 30
0.0
 11
274.8557509850757
 21
335.6491657753725
 31
0.0
  0
LINE
  5
8DB
330
1F
100
AcDbEntity
  8
0
  6
Continuous
 62
     7
100
AcDbLine
 10
425.2323730409757
 20
300.3431849246725
 30
0.0
 11
425.2323730409757
 21
333.5260932406725
 31
0.0
  0
LINE
  5
8DC
330
1F
100
AcDbEntity
  8
0
  6
Continuous
 62
     3
100
AcDbLine
 10
426.3323730409756
 20
333.5260932406725
 30
0.0
 11
426.3323730409756
 21
335.5212604796725
 31
0.0
  0
LINE
  5
8DD
330
1F
100
AcDbEntity
  8
RUNDUNGEN
  6
Continuous
 62
     9
100
AcDbLine
 10
454.3323730409756
 20
288.3431849246725
 30
0.0
 11
454.3323730410756
 21
300.3431849246725
 31
0.0
  0
LINE
  5
8DE
330
1F
100
AcDbEntity
  8
0
  6
Continuous
 62
     9
100
AcDbLine
 10
454.3323730409756
 20
300.3431849246725
 30
0.0
 11
454.3323730409756
 21
333.5260932406725
 31
0.0
  0
LINE
  5
8DF
330
1F
100
AcDbEntity
  8
RUNDUNGEN
  6
Continuous
 62
     9
100
AcDbLine
 10
454.3324259598755
 20
333.5260932392726
 30
0.0
 11
454.3323730409756
 21
339.2215672745725
 31
0.0
  0
LINE
  5
8E0
330
1F
100
AcDbEntity
  8
TEIL_STARTBEZUEGE
  6
CENTER
 62
     7
100
AcDbLine
 10
469.3323730409757
 20
313.3431849246725
 30
0.0
 11
469.3323730409757
 21
310.3430849246725
 31
0.0
  0
LINE
  5
8E1
330
1F
100
AcDbEntity
  8
TEIL_STARTBEZUEGE
  6
CENTER
 62
     7
100
AcDbLine
 10
469.3323730409757
 20
313.3431849246725
 30
0.0
 11
469.3323730409757
 21
316.3432849246725
 31
0.0
  0
LINE
  5
8E2
330
1F
100
AcDbEntity
  8
0
  6
Continuous
 62
     7
100
AcDbLine
 10
796.1349757266755
 20
334.6340101924725
 30
0.0
 11
799.3219807889756
 21
335.4442109421725
 31
0.0
  0
LINE
  5
8E3
330
1F
100
AcDbEntity
  8
0
  6
Continuous
 62
     7
100
AcDbLine
 10
796.1349757266755
 20
335.7395195498725
 30
0.0
 11
799.3219807889756
 21
336.5497202996725
 31
0.0
  0
LINE
  5
8E4
330
1F
100
AcDbEntity
  8
0
  6
Continuous
 62
     7
100
AcDbLine
 10
788.2804302721756
 20
334.6340101924725
 30
0.0
 11
791.4674353343755
 21
335.4442109421725
 31
0.0
  0
LINE
  5
8E5
330
1F
100
AcDbEntity
  8
0
  6
Continuous
 62
     3
100
AcDbLine
 10
795.8882198383755
 20
336.7070386242725
 30
0.0
 11
799.0752249006755
 21
337.5172393740725
 31
0.0
  0
LINE
  5
8E6
330
1F
100
AcDbEntity
  8
RUNDUNGEN
  6
Continuous
 62
     7
100
AcDbLine
 10
617.4323726748755
 20
288.3431849246725
 30
0.0
 11
537.0925732041757
 21
288.3431849246725
 31
0.0
  0
LINE
  5
8E7
330
1F
100
AcDbEntity
  8
RUNDUNGEN
  6
Continuous
 62
     7
100
AcDbLine
 10
517.5721728734756
 20
288.3431849246725
 30
0.0
 11
437.2323734069754
 21
288.3431849246725
 31
0.0
  0
LINE
  5
8E8
330
1F
100
AcDbEntity
  8
0
  6
Continuous
 62
     7
100
AcDbLine
 10
258.5297703551755
 20
334.6340101924725
 30
0.0
 11
255.3427652928756
 21
335.4442109421725
 31
0.0
  0
LINE
  5
8E9
330
1F
100
AcDbEntity
  8
0
  6
Continuous
 62
     3
100
AcDbLine
 10
258.7765262434755
 20
335.6015292668725
 30
0.0
 11
255.5895211812758
 21
336.4117300165725
 31
0.0
  0
LINE
  5
8EA
330
1F
100
AcDbEntity
  8
0
  6
Continuous
 62
     7
100
AcDbLine
 10
266.3843158096756
 20
334.6340101924725
 30
0.0
 11
263.1973107474755
 21
335.4442109421725
 31
0.0
  0
LINE
  5
8EB
330
1F
100
AcDbEntity
  8
0
  6
Continuous
 62
     3
100
AcDbLine
 10
258.7765262434755
 20
336.7070386242725
 30
0.0
 11
255.5895211812758
 21
337.5172393740725
 31
0.0
  0
LINE
  5
8EC
330
1F
100
AcDbEntity
  8
FASEN
  6
Continuous
 62
     3
100
AcDbLine
 10
274.8557509850757
 20
336.4712111949725
 30
0.0
 11
272.4330568086757
 21
337.2288407228725
 31
0.0
  0
LINE
  5
8ED
330
1F
100
AcDbEntity
  8
0
  6
Continuous
 62
     7
100
AcDbLine
 10
788.2804302721756
 20
335.7395195498725
 30
0.0
 11
791.4674353343755
 21
336.5497202996725
 31
0.0
  0
LINE
  5
8EE
330
1F
100
AcDbEntity
  8
FASEN
  6
Continuous
 62
     7
100
AcDbLine
 10
782.4784451614755
 20
335.1558122909725
 30
0.0
 11
783.6128898798756
 21
335.4442109421725
 31
0.0
  0
LINE
  5
8EF
330
1F
100
AcDbEntity
  8
0
  6
Continuous
 62
     3
100
AcDbLine
 10
788.0336743837756
 20
336.7070386242725
 30
0.0
 11
791.2206794460757
 21
337.5172393740725
 31
0.0
  0
LINE
  5
8F0
330
1F
100
AcDbEntity
  8
FASEN
  6
Continuous
 62
     7
100
AcDbLine
 10
782.4784451614755
 20
336.2613216484725
 30
0.0
 11
783.6128898798756
 21
336.5497202996725
 31
0.0
  0
LINE
  5
8F1
330
1F
100
AcDbEntity
  8
FASEN
  6
Continuous
 62
     3
100
AcDbLine
 10
782.2316892731755
 20
337.2288407228725
 30
0.0
 11
783.3661339915757
 21
337.5172393740725
 31
0.0
  0
LINE
  5
8F2
330
1F
100
AcDbEntity
  8
FASEN
  6
Continuous
 62
     7
100
AcDbLine
 10
780.0557509850755
 20
334.6816467009725
 30
0.0
 11
782.4784451614755
 21
335.1558122909725
 31
0.0
  0
LINE
  5
8F3
330
1F
100
AcDbEntity
  8
0
  6
Continuous
 62
     9
100
AcDbLine
 10
512.4648676830757
 20
300.3431849246725
 30
0.0
 11
542.1998783946755
 21
300.3431849246725
 31
0.0
  0
LINE
  5
8F4
330
1F
100
AcDbEntity
  8
RUNDUNGEN
  6
Continuous
 62
     9
100
AcDbLine
 10
629.4323730409756
 20
300.3431849246725
 30
0.0
 11
549.7657627480755
 21
300.3431784672725
 31
0.0
  0
LINE
  5
8F5
330
1F
100
AcDbEntity
  8
RUNDUNGEN
  6
Continuous
 62
     9
100
AcDbLine
 10
504.8989832854754
 20
300.3431785666724
 30
0.0
 11
425.2323730409757
 21
300.3431849246725
 31
0.0
  0
LINE
  5
8F6
330
1F
100
AcDbEntity
  8
TEIL_STARTBEZUEGE
  6
CENTER
 62
     7
100
AcDbLine
 10
527.3323730409756
 20
311.3431849246725
 30
0.0
 11
537.2259472878754
 21
311.3431849246725
 31
0.0
  0
LINE
  5
8F7
330
1F
100
AcDbEntity
  8
TEIL_STARTBEZUEGE
  6
CENTER
 62
     7
100
AcDbLine
 10
527.3323730409756
 20
311.3431849246725
 30
0.0
 11
517.4387987940754
 21
311.3431849246725
 31
0.0
  0
LINE
  5
8F8
330
1F
100
AcDbEntity
  8
TEIL_STARTBEZUEGE
  6
CENTER
 62
     7
100
AcDbLine
 10
469.3323730409757
 20
313.3431849246725
 30
0.0
 11
472.3324730409758
 21
313.3431849246725
 31
0.0
  0
LINE
  5
8F9
330
1F
100
AcDbEntity
  8
TEIL_STARTBEZUEGE
  6
CENTER
 62
     7
100
AcDbLine
 10
469.3323730409757
 20
313.3431849246725
 30
0.0
 11
466.3322730409754
 21
313.3431849246725
 31
0.0
  0
LINE
  5
8FA
330
1F
100
AcDbEntity
  8
FASEN
  6
Continuous
 62
     7
100
AcDbLine
 10
274.6089950967757
 20
334.6816467009725
 30
0.0
 11
272.1863009203758
 21
335.1558122909725
 31
0.0
  0
LINE
  5
8FB
330
1F
100
AcDbEntity
  8
FASEN
  6
Continuous
 62
     3
100
AcDbLine
 10
272.4330568086757
 20
336.1233313653726
 30
0.0
 11
274.8557509850757
 21
335.6491657753725
 31
0.0
  0
LINE
  5
8FC
330
1F
100
AcDbEntity
  8
0
  6
Continuous
 62
     3
100
AcDbLine
 10
266.6310716980756
 20
335.6015292668725
 30
0.0
 11
263.4440666357757
 21
336.4117300165725
 31
0.0
  0
LINE
  5
8FD
330
1F
100
AcDbEntity
  8
FASEN
  6
Continuous
 62
     7
100
AcDbLine
 10
272.1863009203758
 20
335.1558122909725
 30
0.0
 11
271.0518562019756
 21
335.4442109421725
 31
0.0
  0
LINE
  5
8FE
330
1F
100
AcDbEntity
  8
0
  6
Continuous
 62
     3
100
AcDbLine
 10
266.6310716980756
 20
336.7070386242725
 30
0.0
 11
263.4440666357757
 21
337.5172393740725
 31
0.0
  0
LINE
  5
8FF
330
1F
100
AcDbEntity
  8
FASEN
  6
Continuous
 62
     3
100
AcDbLine
 10
272.4330568086757
 20
336.1233313653726
 30
0.0
 11
271.2986120903756
 21
336.4117300165725
 31
0.0
  0
LINE
  5
900
330
1F
100
AcDbEntity
  8
FASEN
  6
Continuous
 62
     3
100
AcDbLine
 10
272.4330568086757
 20
337.2288407228725
 30
0.0
 11
271.2986120903756
 21
337.5172393740725
 31
0.0
  0
LINE
  5
901
330
1F
100
AcDbEntity
  8
TEIL_STARTBEZUEGE
  6
CENTER
 62
     7
100
AcDbLine
 10
527.3323730409756
 20
311.3431849246725
 30
0.0
 11
527.3323730409756
 21
301.4496106777725
 31
0.0
  0
LINE
  5
902
330
1F
100
AcDbEntity
  8
TEIL_STARTBEZUEGE
  6
CENTER
 62
     7
100
AcDbLine
 10
527.3323730409756
 20
311.3431849246725
 30
0.0
 11
527.3323730409756
 21
321.2367591715726
 31
0.0
  0
LINE
  5
903
330
1F
100
AcDbEntity
  8
FASEN
  6
Continuous
 62
     7
100
AcDbLine
 10
903.8323730409755
 20
335.0236742692725
 30
0.0
 11
906.3323730409756
 21
335.1654062381725
 31
0.0
  0
LINE
  5
904
330
1F
100
AcDbEntity
  8
0
  6
Continuous
 62
     7
100
AcDbLine
 10
425.2323730409757
 20
333.5260932406725
 30
0.0
 11
515.8319685550755
 21
333.5260932406725
 31
0.0
  0
LINE
  5
905
330
1F
100
AcDbEntity
  8
0
  6
Continuous
 62
     7
100
AcDbLine
 10
538.8327775256757
 20
333.5260932406725
 30
0.0
 11
629.4323730409756
 21
333.5260932406725
 31
0.0
  0
LINE
  5
906
330
1F
100
AcDbEntity
  8
0
  6
Continuous
 62
     7
100
AcDbLine
 10
919.3323730409757
 20
334.5431849246724
 30
0.0
 11
917.3323730409757
 21
334.5431849246724
 31
0.0
  0
LINE
  5
907
330
1F
100
AcDbEntity
  8
0
  6
Continuous
 62
     7
100
AcDbLine
 10
137.3323730409756
 20
334.5431849246724
 30
0.0
 11
135.3323730409756
 21
334.5431849246724
 31
0.0
  0
LINE
  5
908
330
1F
100
AcDbEntity
  8
FASEN
  6
Continuous
 62
     7
100
AcDbLine
 10
801.7203462417755
 20
335.0236742692725
 30
0.0
 11
903.8323730409755
 21
335.0236742692725
 31
0.0
  0
LINE
  5
909
330
1F
100
AcDbEntity
  8
FASEN
  6
Continuous
 62
     7
100
AcDbLine
 10
252.9443998400757
 20
335.0236742692725
 30
0.0
 11
150.8323730409754
 21
335.0236742692725
 31
0.0
  0
LINE
  5
90A
330
1F
100
AcDbEntity
  8
FASEN
  6
Continuous
 62
     3
100
AcDbLine
 10
252.9443998400757
 20
336.0220659397725
 30
0.0
 11
150.8323730409754
 21
336.0220659397725
 31
0.0
  0
LINE
  5
90B
330
1F
100
AcDbEntity
  8
FASEN
  6
Continuous
 62
     7
100
AcDbLine
 10
801.7203462417755
 20
336.1291836267725
 30
0.0
 11
903.8323730409755
 21
336.1291836267725
 31
0.0
  0
LINE
  5
90C
330
1F
100
AcDbEntity
  8
RUNDUNGEN
  6
Continuous
 62
     9
100
AcDbLine
 10
135.3323730409756
 20
336.3099309931726
 30
0.0
 11
137.3323730409756
 21
336.3099309931726
 31
0.0
  0
LINE
  5
90D
330
1F
100
AcDbEntity
  8
RUNDUNGEN
  6
Continuous
 62
     9
100
AcDbLine
 10
917.3323730409757
 20
336.3099309931726
 30
0.0
 11
919.3323730409757
 21
336.3099309931726
 31
0.0
  0
LINE
  5
90E
330
1F
100
AcDbEntity
  8
FASEN
  6
Continuous
 62
     3
100
AcDbLine
 10
801.7203462417755
 20
337.1275752972725
 30
0.0
 11
903.8323730409755
 21
337.1275752972725
 31
0.0
  0
LINE
  5
90F
330
1F
100
AcDbEntity
  8
FASEN
  6
Continuous
 62
     3
100
AcDbLine
 10
252.9443998400757
 20
337.1275752972725
 30
0.0
 11
181.2512380857756
 21
337.1275752972725
 31
0.0
  0
LINE
  5
910
330
1F
100
AcDbEntity
  8
FASEN
  6
Continuous
 62
     3
100
AcDbLine
 10
175.4137045554753
 20
337.1275752972725
 30
0.0
 11
161.2512380857754
 21
337.1275752972725
 31
0.0
  0
LINE
  5
911
330
1F
100
AcDbEntity
  8
FASEN
  6
Continuous
 62
     3
100
AcDbLine
 10
155.4137045554755
 20
337.1275752972725
 30
0.0
 11
150.8323730409754
 21
337.1275752972725
 31
0.0
  0
LINE
  5
912
330
1F
100
AcDbEntity
  8
RUNDUNGEN
  6
Continuous
 62
     9
100
AcDbLine
 10
600.3322367540756
 20
337.2247839334725
 30
0.0
 11
454.3325238251754
 21
337.2247839334725
 31
0.0
  0
LINE
  5
913
330
1F
100
AcDbEntity
  8
RUNDUNGEN
  6
Continuous
 62
     3
100
AcDbLine
 10
917.3323730409757
 20
337.5244823202725
 30
0.0
 11
898.6986099361756
 21
337.5244823199726
 31
0.0
  0
LINE
  5
914
330
1F
100
AcDbEntity
  8
RUNDUNGEN
  6
Continuous
 62
     3
100
AcDbLine
 10
893.9660684703756
 20
337.5244823198725
 30
0.0
 11
878.6986099368755
 21
337.5244823195725
 31
0.0
  0
LINE
  5
915
330
1F
100
AcDbEntity
  8
RUNDUNGEN
  6
Continuous
 62
     3
100
AcDbLine
 10
873.9660684696755
 20
337.5244823194726
 30
0.0
 11
800.0622484539755
 21
337.5244823181725
 31
0.0
  0
LINE
  5
916
330
1F
100
AcDbEntity
  8
RUNDUNGEN
  6
Continuous
 62
     3
100
AcDbLine
 10
799.0752249006755
 20
337.5244823181725
 30
0.0
 11
792.2077029994754
 21
337.5244823180725
 31
0.0
  0
LINE
  5
917
330
1F
100
AcDbEntity
  8
RUNDUNGEN
  6
Continuous
 62
     3
100
AcDbLine
 10
791.2206794460757
 20
337.5244823179725
 30
0.0
 11
784.3531575448755
 21
337.5244823178725
 31
0.0
  0
LINE
  5
918
330
1F
100
AcDbEntity
  8
RUNDUNGEN
  6
Continuous
 62
     3
100
AcDbLine
 10
783.3661339915757
 20
337.5244823178725
 30
0.0
 11
777.5406191241036
 21
337.5244823177616
 31
0.0
  0
LINE
  5
919
330
1F
100
AcDbEntity
  8
RUNDUNGEN
  6
Continuous
 62
     3
100
AcDbLine
 10
777.5406191241036
 20
337.5244823196748
 30
0.0
 11
630.3321587714756
 21
337.5244823168725
 31
0.0
  0
LINE
  5
91A
330
1F
100
AcDbEntity
  8
RUNDUNGEN
  6
Continuous
 62
     3
100
AcDbLine
 10
424.3325873160756
 20
337.5244823236725
 30
0.0
 11
311.7876526422722
 21
337.5244823216212
 31
0.0
  0
LINE
  5
91B
330
1F
100
AcDbEntity
  8
RUNDUNGEN
  6
Continuous
 62
     3
100
AcDbLine
 10
311.7876526422724
 20
337.524482323453
 30
0.0
 11
137.3323730409756
 21
337.5244823202725
 31
0.0
  0
LINE
  5
91C
330
1F
100
AcDbEntity
  8
RUNDUNGEN
  6
Continuous
 62
     9
100
AcDbLine
 10
135.3323730409756
 20
338.3067143343725
 30
0.0
 11
137.3323730409756
 21
338.3067143343725
 31
0.0
  0
LINE
  5
91D
330
1F
100
AcDbEntity
  8
RUNDUNGEN
  6
Continuous
 62
     9
100
AcDbLine
 10
917.3323730409757
 20
338.3067143343725
 30
0.0
 11
919.3323730409757
 21
338.3067143343725
 31
0.0
  0
LINE
  5
91E
330
1F
100
AcDbEntity
  8
FASEN
  6
Continuous
 62
     7
100
AcDbLine
 10
150.8323730409754
 20
335.0236742692725
 30
0.0
 11
148.3323730409756
 21
335.1654062381725
 31
0.0
  0
LINE
  5
91F
330
1F
100
AcDbEntity
  8
FASEN
  6
Continuous
 62
     3
100
AcDbLine
 10
148.3323730409756
 20
336.1637979086725
 30
0.0
 11
150.8323730409754
 21
336.0220659397725
 31
0.0
  0
LINE
  5
920
330
1F
100
AcDbEntity
  8
FASEN
  6
Continuous
 62
     3
100
AcDbLine
 10
150.8323730409754
 20
337.1275752972725
 30
0.0
 11
148.3323730409756
 21
336.9858433283726
 31
0.0
  0
LINE
  5
921
330
1F
100
AcDbEntity
  8
RUNDUNGEN
  6
Continuous
 62
     9
100
AcDbLine
 10
600.3323730409756
 20
339.2215672745725
 30
0.0
 11
454.3323730409756
 21
339.2215672745725
 31
0.0
  0
LINE
  5
922
330
1F
100
AcDbEntity
  8
0
  6
Continuous
 62
     9
100
AcDbLine
 10
917.3323730409757
 20
339.2912283887725
 30
0.0
 11
777.5406191241036
 21
339.2912283887724
 31
0.0
  0
LINE
  5
923
330
1F
100
AcDbEntity
  8
0
  6
Continuous
 62
     9
100
AcDbLine
 10
777.5406191241036
 20
339.2912283887724
 30
0.0
 11
311.7876526422722
 21
339.2912283887725
 31
0.0
  0
LINE
  5
924
330
1F
100
AcDbEntity
  8
0
  6
Continuous
 62
     9
100
AcDbLine
 10
311.7876526422724
 20
339.2912283887725
 30
0.0
 11
137.3323730409756
 21
339.2912283887725
 31
0.0
  0
LINE
  5
925
330
1F
100
AcDbEntity
  8
0
  6
Continuous
 62
     7
100
AcDbLine
 10
104.8323730409756
 20
340.5431849246725
 30
0.0
 11
135.3323730409756
 21
340.5431849246725
 31
0.0
  0
LINE
  5
926
330
1F
100
AcDbEntity
  8
0
  6
Continuous
 62
     7
100
AcDbLine
 10
919.3323730409757
 20
340.5431849246725
 30
0.0
 11
949.8323730409756
 21
340.5431849246725
 31
0.0
  0
LINE
  5
927
330
1F
100
AcDbEntity
  8
0
  6
Continuous
 62
     9
100
AcDbLine
 10
917.3323730409757
 20
341.2880117298725
 30
0.0
 11
777.5406191241036
 21
341.2880117298725
 31
0.0
  0
LINE
  5
928
330
1F
100
AcDbEntity
  8
0
  6
Continuous
 62
     9
100
AcDbLine
 10
777.5406191241036
 20
341.2880117298724
 30
0.0
 11
311.7876526422722
 21
341.2880117298726
 31
0.0
  0
LINE
  5
929
330
1F
100
AcDbEntity
  8
0
  6
Continuous
 62
     9
100
AcDbLine
 10
311.7876526422724
 20
341.2880117298726
 30
0.0
 11
137.3323730409756
 21
341.2880117298725
 31
0.0
  0
LINE
  5
92A
330
1F
100
AcDbEntity
  8
RUNDUNGEN
  6
Continuous
 62
     7
100
AcDbLine
 10
949.8323730409756
 20
342.5431849246725
 30
0.0
 11
917.3323730409757
 21
342.5431849246725
 31
0.0
  0
LINE
  5
92B
330
1F
100
AcDbEntity
  8
0
  6
Continuous
 62
     3
100
AcDbLine
 10
917.3323730409757
 20
342.5431849246725
 30
0.0
 11
777.5406191241036
 21
342.5431849246725
 31
0.0
  0
LINE
  5
92C
330
1F
100
AcDbEntity
  8
0
  6
Continuous
 62
     3
100
AcDbLine
 10
777.5406191241036
 20
342.5431849246725
 30
0.0
 11
311.7876526422722
 21
342.5431849246725
 31
0.0
  0
LINE
  5
92D
330
1F
100
AcDbEntity
  8
0
  6
Continuous
 62
     3
100
AcDbLine
 10
311.7876526422724
 20
342.5431849246725
 30
0.0
 11
137.3323730409756
 21
342.5431849246725
 31
0.0
  0
LINE
  5
92E
330
1F
100
AcDbEntity
  8
RUNDUNGEN
  6
Continuous
 62
     7
100
AcDbLine
 10
137.3323730409756
 20
342.5431849246725
 30
0.0
 11
104.8323730409756
 21
342.5431849246725
 31
0.0
  0
LINE
  5
92F
330
1F
100
AcDbEntity
  8
RUNDUNGEN
  6
Continuous
 62
     7
100
AcDbLine
 10
917.3323730409757
 20
343.5431849246725
 30
0.0
 11
949.8323730409756
 21
343.5431849246725
 31
0.0
  0
LINE
  5
930
330
1F
100
AcDbEntity
  8
0
  6
Continuous
 62
     7
100
AcDbLine
 10
917.3323730409757
 20
343.5431849246725
 30
0.0
 11
777.5406191241036
 21
343.5431849246725
 31
0.0
  0
LINE
  5
931
330
1F
100
AcDbEntity
  8
0
  6
Continuous
 62
     7
100
AcDbLine
 10
777.5406191241036
 20
343.5431849246725
 30
0.0
 11
311.7876526422722
 21
343.5431849246725
 31
0.0
  0
LINE
  5
932
330
1F
100
AcDbEntity
  8
0
  6
Continuous
 62
     7
100
AcDbLine
 10
311.7876526422724
 20
343.5431849246725
 30
0.0
 11
137.3323730409756
 21
343.5431849246725
 31
0.0
  0
LINE
  5
933
330
1F
100
AcDbEntity
  8
RUNDUNGEN
  6
Continuous
 62
     7
100
AcDbLine
 10
137.3323730409756
 20
343.5431849246725
 30
0.0
 11
104.8323730409756
 21
343.5431849246725
 31
0.0
  0
LINE
  5
934
330
1F
100
AcDbEntity
  8
0
  6
Continuous
 62
     9
100
AcDbLine
 10
917.3323730409757
 20
344.5431849246725
 30
0.0
 11
777.5406191241036
 21
344.5431849246725
 31
0.0
  0
LINE
  5
935
330
1F
100
AcDbEntity
  8
0
  6
Continuous
 62
     9
100
AcDbLine
 10
777.5406191241036
 20
344.5431849246724
 30
0.0
 11
311.7876526422722
 21
344.5431849246726
 31
0.0
  0
LINE
  5
936
330
1F
100
AcDbEntity
  8
0
  6
Continuous
 62
     9
100
AcDbLine
 10
311.7876526422724
 20
344.5431849246725
 30
0.0
 11
137.3323730409756
 21
344.5431849246725
 31
0.0
  0
LINE
  5
937
330
1F
100
AcDbEntity
  8
0
  6
Continuous
 62
     9
100
AcDbLine
 10
917.3323730409757
 20
354.0431849246725
 30
0.0
 11
777.5406191241036
 21
354.0431849246725
 31
0.0
  0
LINE
  5
938
330
1F
100
AcDbEntity
  8
0
  6
Continuous
 62
     9
100
AcDbLine
 10
777.5406191241036
 20
354.0431849246725
 30
0.0
 11
311.7876526422722
 21
354.0431849246725
 31
0.0
  0
LINE
  5
939
330
1F
100
AcDbEntity
  8
0
  6
Continuous
 62
     9
100
AcDbLine
 10
311.7876526422724
 20
354.0431849246725
 30
0.0
 11
137.3323730409756
 21
354.0431849246725
 31
0.0
  0
LINE
  5
93A
330
1F
100
AcDbEntity
  8
0
  6
Continuous
 62
     7
100
AcDbLine
 10
917.3323730409757
 20
355.5431849246725
 30
0.0
 11
777.5406191241036
 21
355.5431849246725
 31
0.0
  0
LINE
  5
93B
330
1F
100
AcDbEntity
  8
0
  6
Continuous
 62
     7
100
AcDbLine
 10
777.5406191241036
 20
355.5431849246724
 30
0.0
 11
311.7876526422722
 21
355.5431849246725
 31
0.0
  0
LINE
  5
93C
330
1F
100
AcDbEntity
  8
0
  6
Continuous
 62
     7
100
AcDbLine
 10
311.7876526422724
 20
355.5431849246725
 30
0.0
 11
137.3323730409756
 21
355.5431849246725
 31
0.0
  0
LINE
  5
93D
330
1F
100
AcDbEntity
  8
0
  6
Continuous
 62
     9
100
AcDbLine
 10
137.1823730409755
 20
356.5431849246725
 30
0.0
 11
311.7876526422724
 21
356.5431849246725
 31
0.0
  0
LINE
  5
93E
330
1F
100
AcDbEntity
  8
0
  6
Continuous
 62
     9
100
AcDbLine
 10
311.7876526422722
 20
356.5431849246724
 30
0.0
 11
777.5406191241036
 21
356.5431849246726
 31
0.0
  0
LINE
  5
93F
330
1F
100
AcDbEntity
  8
0
  6
Continuous
 62
     9
100
AcDbLine
 10
777.5406191241036
 20
356.5431849246725
 30
0.0
 11
917.4823730409755
 21
356.5431849246725
 31
0.0
  0
LINE
  5
940
330
1F
100
AcDbEntity
  8
FASEN
  6
Continuous
 62
     7
100
AcDbLine
 10
906.3323730409756
 20
335.9874516577725
 30
0.0
 11
903.8323730409755
 21
336.1291836267725
 31
0.0
  0
LINE
  5
941
330
1F
100
AcDbEntity
  8
FASEN
  6
Continuous
 62
     3
100
AcDbLine
 10
903.8323730409755
 20
337.1275752972725
 30
0.0
 11
906.3323730409756
 21
336.9858433283726
 31
0.0
  0
LINE
  5
942
330
1F
100
AcDbEntity
  8
FASEN
  6
Continuous
 62
     3
100
AcDbLine
 10
779.8089950967756
 20
336.4712111949725
 30
0.0
 11
782.2316892731755
 21
337.2288407228725
 31
0.0
  0
LINE
  5
943
330
1F
100
AcDbEntity
  8
FASEN
  6
Continuous
 62
     7
100
AcDbLine
 10
782.4784451614755
 20
336.2613216484725
 30
0.0
 11
780.0557509850755
 21
335.5036921205725
 31
0.0
  0
LINE
  5
944
330
1F
100
AcDbEntity
  8
0
  6
Continuous
 62
     7
100
AcDbLine
 10
270.5583444253757
 20
335.4442109421725
 30
0.0
 11
267.3713393630755
 21
334.6340101924725
 31
0.0
  0
LINE
  5
945
330
1F
100
AcDbEntity
  8
0
  6
Continuous
 62
     3
100
AcDbLine
 10
270.3115885369757
 20
336.4117300165725
 30
0.0
 11
267.1245834747756
 21
335.6015292668725
 31
0.0
  0
LINE
  5
946
330
1F
100
AcDbEntity
  8
0
  6
Continuous
 62
     7
100
AcDbLine
 10
262.7037989707755
 20
335.4442109421725
 30
0.0
 11
259.5167939084758
 21
334.6340101924725
 31
0.0
  0
LINE
  5
947
330
1F
100
AcDbEntity
  8
0
  6
Continuous
 62
     3
100
AcDbLine
 10
270.3115885369757
 20
337.5172393740725
 30
0.0
 11
267.1245834747756
 21
336.7070386242725
 31
0.0
  0
LINE
  5
948
330
1F
100
AcDbEntity
  8
0
  6
Continuous
 62
     3
100
AcDbLine
 10
262.4570430824756
 20
336.4117300165725
 30
0.0
 11
259.2700380201754
 21
335.6015292668725
 31
0.0
  0
LINE
  5
949
330
1F
100
AcDbEntity
  8
0
  6
Continuous
 62
     7
100
AcDbLine
 10
254.8492535162754
 20
335.4442109421725
 30
0.0
 11
253.4379116167756
 21
335.0854194615725
 31
0.0
  0
LINE
  5
94A
330
1F
100
AcDbEntity
  8
0
  6
Continuous
 62
     3
100
AcDbLine
 10
262.4570430824756
 20
337.5172393740725
 30
0.0
 11
259.2700380201754
 21
336.7070386242725
 31
0.0
  0
LINE
  5
94B
330
1F
100
AcDbEntity
  8
0
  6
Continuous
 62
     3
100
AcDbLine
 10
254.6024976278754
 20
336.4117300165725
 30
0.0
 11
253.1911557283756
 21
336.0529385359725
 31
0.0
  0
LINE
  5
94C
330
1F
100
AcDbEntity
  8
0
  6
Continuous
 62
     3
100
AcDbLine
 10
254.6024976278754
 20
337.5172393740725
 30
0.0
 11
253.1911557283756
 21
337.1584478934725
 31
0.0
  0
LINE
  5
94D
330
1F
100
AcDbEntity
  8
0
  6
Continuous
 62
     7
100
AcDbLine
 10
784.1064016565756
 20
335.4442109421725
 30
0.0
 11
787.2934067187754
 21
334.6340101924725
 31
0.0
  0
LINE
  5
94E
330
1F
100
AcDbEntity
  8
0
  6
Continuous
 62
     7
100
AcDbLine
 10
784.1064016565756
 20
336.5497202996725
 30
0.0
 11
787.2934067187754
 21
335.7395195498725
 31
0.0
  0
LINE
  5
94F
330
1F
100
AcDbEntity
  8
0
  6
Continuous
 62
     7
100
AcDbLine
 10
791.9609471110756
 20
335.4442109421725
 30
0.0
 11
795.1479521733756
 21
334.6340101924725
 31
0.0
  0
LINE
  5
950
330
1F
100
AcDbEntity
  8
0
  6
Continuous
 62
     3
100
AcDbLine
 10
784.3531575448755
 20
337.5172393740725
 30
0.0
 11
787.5401626071757
 21
336.7070386242725
 31
0.0
  0
LINE
  5
951
330
1F
100
AcDbEntity
  8
0
  6
Continuous
 62
     7
100
AcDbLine
 10
791.9609471110756
 20
336.5497202996725
 30
0.0
 11
795.1479521733756
 21
335.7395195498725
 31
0.0
  0
LINE
  5
952
330
1F
100
AcDbEntity
  8
0
  6
Continuous
 62
     7
100
AcDbLine
 10
799.8154925656757
 20
335.4442109421725
 30
0.0
 11
801.2268344651756
 21
335.0854194615725
 31
0.0
  0
LINE
  5
953
330
1F
100
AcDbEntity
  8
0
  6
Continuous
 62
     3
100
AcDbLine
 10
792.2077029994754
 20
337.5172393740725
 30
0.0
 11
795.3947080616756
 21
336.7070386242725
 31
0.0
  0
LINE
  5
954
330
1F
100
AcDbEntity
  8
0
  6
Continuous
 62
     7
100
AcDbLine
 10
799.8154925656757
 20
336.5497202996725
 30
0.0
 11
801.2268344651756
 21
336.1909288190725
 31
0.0
  0
LINE
  5
955
330
1F
100
AcDbEntity
  8
0
  6
Continuous
 62
     3
100
AcDbLine
 10
800.0622484539755
 20
337.5172393740725
 30
0.0
 11
801.4735903534756
 21
337.1584478934725
 31
0.0
  0
LINE
  5
956
330
1F
100
AcDbEntity
  8
0
  6
Continuous
 62
     7
100
AcDbLine
 10
114.8323730409756
 20
385.5431849246725
 30
0.0
 11
311.7876526422724
 21
385.5431849246725
 31
0.0
  0
LINE
  5
957
330
1F
100
AcDbEntity
  8
0
  6
Continuous
 62
     7
100
AcDbLine
 10
311.7876526422722
 20
385.5431849246725
 30
0.0
 11
777.5406191241036
 21
385.5431849246725
 31
0.0
  0
LINE
  5
958
330
1F
100
AcDbEntity
  8
0
  6
Continuous
 62
     7
100
AcDbLine
 10
777.5406191241036
 20
385.5431849246725
 30
0.0
 11
939.8323730409757
 21
385.5431849246725
 31
0.0
  0
LINE
  5
959
330
1F
100
AcDbEntity
  8
RUNDUNGEN
  6
Continuous
 62
     9
100
AcDbLine
 10
600.3323730409756
 20
339.2215672745725
 30
0.0
 11
600.3323252099757
 21
333.5260932394725
 31
0.0
  0
LINE
  5
95A
330
1F
100
AcDbEntity
  8
RUNDUNGEN
  6
Continuous
 62
     9
100
AcDbLine
 10
600.3323730409756
 20
288.3431849246725
 30
0.0
 11
600.3323730409756
 21
300.3431849246725
 31
0.0
  0
LINE
  5
95B
330
1F
100
AcDbEntity
  8
0
  6
Continuous
 62
     9
100
AcDbLine
 10
600.3323730409756
 20
300.3431849246725
 30
0.0
 11
600.3323730409756
 21
333.5260932406725
 31
0.0
  0
LINE
  5
95C
330
1F
100
AcDbEntity
  8
0
  6
Continuous
 62
     3
100
AcDbLine
 10
628.3323730409756
 20
333.5260932406725
 30
0.0
 11
628.3323730409756
 21
335.5212604796725
 31
0.0
  0
LINE
  5
95D
330
1F
100
AcDbEntity
  8
0
  6
Continuous
 62
     7
100
AcDbLine
 10
629.4323730409756
 20
300.3431849246725
 30
0.0
 11
629.4323730409756
 21
333.5260932406725
 31
0.0
  0
LINE
  5
95E
330
1F
100
AcDbEntity
  8
BEZUGSACHSEN
  6
Continuous
 62
     3
100
AcDbLine
 10
876.3323730409757
 20
338.1056878467725
 30
0.0
 11
875.7490370626756
 21
337.7968412493725
 31
0.0
  0
LINE
  5
95F
330
1F
100
AcDbEntity
  8
BEZUGSACHSEN
  6
Continuous
 62
     3
100
AcDbLine
 10
895.7490370626755
 20
337.7968412493725
 30
0.0
 11
896.3323730409756
 21
338.1056878467725
 31
0.0
  0
LINE
  5
960
330
1F
100
AcDbEntity
  8
BEZUGSACHSEN
  6
Continuous
 62
     3
100
AcDbLine
 10
876.3323730409757
 20
338.1056878467725
 30
0.0
 11
876.9158295305755
 21
337.7967774447725
 31
0.0
  0
LINE
  5
961
330
1F
100
AcDbEntity
  8
BEZUGSACHSEN
  6
Continuous
 62
     3
100
AcDbLine
 10
896.9158295305756
 20
337.7967774447725
 30
0.0
 11
896.3323730409756
 21
338.1056878467725
 31
0.0
  0
LINE
  5
962
330
1F
100
AcDbEntity
  8
FASEN
  6
Continuous
 62
     3
100
AcDbLine
 10
779.8089950967756
 20
336.4712111949725
 30
0.0
 11
779.8089950967756
 21
335.6491657753725
 31
0.0
  0
LINE
  5
963
330
1F
100
AcDbEntity
  8
FASEN
  6
Continuous
 62
     7
100
AcDbLine
 10
780.0557509850755
 20
335.5036921205725
 30
0.0
 11
780.0557509850755
 21
334.6816467009725
 31
0.0
  0
LINE
  5
964
330
1F
100
AcDbEntity
  8
0
  6
Continuous
 62
     9
100
AcDbLine
 10
784.3531575448755
 20
337.5172393740725
 30
0.0
 11
784.1064016565756
 21
336.5497202996725
 31
0.0
  0
LINE
  5
965
330
1F
100
AcDbEntity
  8
0
  6
Continuous
 62
     9
100
AcDbLine
 10
787.5401626071757
 20
336.7070386242725
 30
0.0
 11
787.2934067187754
 21
335.7395195498725
 31
0.0
  0
LINE
  5
966
330
1F
100
AcDbEntity
  8
FASEN
  6
Continuous
 62
     7
100
AcDbLine
 10
780.0557509850755
 20
334.6816467009725
 30
0.0
 11
779.8089950967756
 21
335.6491657753725
 31
0.0
  0
LINE
  5
967
330
1F
100
AcDbEntity
  8
FASEN
  6
Continuous
 62
     7
100
AcDbLine
 10
780.0557509850755
 20
335.5036921205725
 30
0.0
 11
779.8089950967756
 21
336.4712111949725
 31
0.0
  0
LINE
  5
968
330
1F
100
AcDbEntity
  8
FASEN
  6
Continuous
 62
     7
100
AcDbLine
 10
782.4784451614755
 20
336.2613216484725
 30
0.0
 11
782.2316892731755
 21
337.2288407228725
 31
0.0
  0
LINE
  5
969
330
1F
100
AcDbEntity
  8
0
  6
Continuous
 62
     9
100
AcDbLine
 10
783.3661339915757
 20
337.5172393740725
 30
0.0
 11
783.6128898798756
 21
336.5497202996725
 31
0.0
  0
LINE
  5
96A
330
1F
100
AcDbEntity
  8
0
  6
Continuous
 62
     9
100
AcDbLine
 10
783.6128898798756
 20
336.5497202996725
 30
0.0
 11
783.6128898798756
 21
335.4442109421725
 31
0.0
  0
LINE
  5
96B
330
1F
100
AcDbEntity
  8
0
  6
Continuous
 62
     9
100
AcDbLine
 10
784.1064016565756
 20
336.5497202996725
 30
0.0
 11
784.1064016565756
 21
335.4442109421725
 31
0.0
  0
LINE
  5
96C
330
1F
100
AcDbEntity
  8
0
  6
Continuous
 62
     9
100
AcDbLine
 10
787.2934067187754
 20
335.7395195498725
 30
0.0
 11
787.2934067187754
 21
334.6340101924725
 31
0.0
  0
LINE
  5
96D
330
1F
100
AcDbEntity
  8
0
  6
Continuous
 62
     9
100
AcDbLine
 10
788.2804302721756
 20
335.7395195498725
 30
0.0
 11
788.2804302721756
 21
334.6340101924725
 31
0.0
  0
LINE
  5
96E
330
1F
100
AcDbEntity
  8
0
  6
Continuous
 62
     9
100
AcDbLine
 10
791.4674353343755
 20
336.5497202996725
 30
0.0
 11
791.4674353343755
 21
335.4442109421725
 31
0.0
  0
LINE
  5
96F
330
1F
100
AcDbEntity
  8
0
  6
Continuous
 62
     9
100
AcDbLine
 10
791.9609471110756
 20
336.5497202996725
 30
0.0
 11
791.9609471110756
 21
335.4442109421725
 31
0.0
  0
LINE
  5
970
330
1F
100
AcDbEntity
  8
0
  6
Continuous
 62
     9
100
AcDbLine
 10
795.1479521733756
 20
335.7395195498725
 30
0.0
 11
795.1479521733756
 21
334.6340101924725
 31
0.0
  0
LINE
  5
971
330
1F
100
AcDbEntity
  8
0
  6
Continuous
 62
     9
100
AcDbLine
 10
796.1349757266755
 20
335.7395195498725
 30
0.0
 11
796.1349757266755
 21
334.6340101924725
 31
0.0
  0
LINE
  5
972
330
1F
100
AcDbEntity
  8
0
  6
Continuous
 62
     9
100
AcDbLine
 10
799.3219807889756
 20
336.5497202996725
 30
0.0
 11
799.3219807889756
 21
335.4442109421725
 31
0.0
  0
LINE
  5
973
330
1F
100
AcDbEntity
  8
0
  6
Continuous
 62
     9
100
AcDbLine
 10
799.8154925656757
 20
336.5497202996725
 30
0.0
 11
799.8154925656757
 21
335.4442109421725
 31
0.0
  0
LINE
  5
974
330
1F
100
AcDbEntity
  8
0
  6
Continuous
 62
     9
100
AcDbLine
 10
801.2268344651756
 20
336.1909288190725
 30
0.0
 11
801.2268344651756
 21
335.0854194615725
 31
0.0
  0
LINE
  5
975
330
1F
100
AcDbEntity
  8
0
  6
Continuous
 62
     9
100
AcDbLine
 10
801.7203462417755
 20
337.1275752972725
 30
0.0
 11
801.7203462417755
 21
335.0236742692725
 31
0.0
  0
LINE
  5
976
330
1F
100
AcDbEntity
  8
0
  6
Continuous
 62
     9
100
AcDbLine
 10
792.2077029994754
 20
337.5172393740725
 30
0.0
 11
791.9609471110756
 21
336.5497202996725
 31
0.0
  0
LINE
  5
977
330
1F
100
AcDbEntity
  8
0
  6
Continuous
 62
     9
100
AcDbLine
 10
795.3947080616756
 20
336.7070386242725
 30
0.0
 11
795.1479521733756
 21
335.7395195498725
 31
0.0
  0
LINE
  5
978
330
1F
100
AcDbEntity
  8
0
  6
Continuous
 62
     9
100
AcDbLine
 10
800.0622484539755
 20
337.5172393740725
 30
0.0
 11
799.8154925656757
 21
336.5497202996725
 31
0.0
  0
LINE
  5
979
330
1F
100
AcDbEntity
  8
0
  6
Continuous
 62
     9
100
AcDbLine
 10
801.4735903534756
 20
337.1584478934725
 30
0.0
 11
801.2268344651756
 21
336.1909288190725
 31
0.0
  0
LINE
  5
97A
330
1F
100
AcDbEntity
  8
0
  6
Continuous
 62
     9
100
AcDbLine
 10
788.0336743837756
 20
336.7070386242725
 30
0.0
 11
788.2804302721756
 21
335.7395195498725
 31
0.0
  0
LINE
  5
97B
330
1F
100
AcDbEntity
  8
0
  6
Continuous
 62
     9
100
AcDbLine
 10
791.2206794460757
 20
337.5172393740725
 30
0.0
 11
791.4674353343755
 21
336.5497202996725
 31
0.0
  0
LINE
  5
97C
330
1F
100
AcDbEntity
  8
0
  6
Continuous
 62
     9
100
AcDbLine
 10
795.8882198383755
 20
336.7070386242725
 30
0.0
 11
796.1349757266755
 21
335.7395195498725
 31
0.0
  0
LINE
  5
97D
330
1F
100
AcDbEntity
  8
0
  6
Continuous
 62
     9
100
AcDbLine
 10
799.0752249006755
 20
337.5172393740725
 30
0.0
 11
799.3219807889756
 21
336.5497202996725
 31
0.0
  0
LINE
  5
97E
330
1F
100
AcDbEntity
  8
0
  6
Continuous
 62
     7
100
AcDbLine
 10
860.0823730409755
 20
335.6827279246725
 30
0.0
 11
860.0823730409755
 21
335.4701299712725
 31
0.0
  0
LINE
  5
97F
330
1F
100
AcDbEntity
  8
0
  6
Continuous
 62
     7
100
AcDbLine
 10
861.3323730409756
 20
335.4701299712725
 30
0.0
 11
861.3323730409756
 21
335.6827279246725
 31
0.0
  0
LINE
  5
980
330
1F
100
AcDbEntity
  8
BEZUGSACHSEN
  6
Continuous
 62
     7
100
AcDbLine
 10
873.8323730409756
 20
335.4346969790725
 30
0.0
 11
873.8323730409756
 21
335.7181609168725
 31
0.0
  0
LINE
  5
981
330
1F
100
AcDbEntity
  8
BEZUGSACHSEN
  6
Continuous
 62
     7
100
AcDbLine
 10
878.8323730409755
 20
335.7181609168725
 30
0.0
 11
878.8323730409755
 21
335.4346969790725
 31
0.0
  0
LINE
  5
982
330
1F
100
AcDbEntity
  8
BEZUGSACHSEN
  6
Continuous
 62
     7
100
AcDbLine
 10
893.8323730409756
 20
335.4346969790725
 30
0.0
 11
893.8323730409756
 21
335.7181609168725
 31
0.0
  0
LINE
  5
983
330
1F
100
AcDbEntity
  8
BEZUGSACHSEN
  6
Continuous
 62
     7
100
AcDbLine
 10
898.8323730409756
 20
335.7181609168725
 30
0.0
 11
898.8323730409756
 21
335.4346969790725
 31
0.0
  0
LINE
  5
984
330
1F
100
AcDbEntity
  8
FASEN
  6
Continuous
 62
     7
100
AcDbLine
 10
903.8323730409755
 20
336.1291836267725
 30
0.0
 11
903.8323730409755
 21
337.1275752972725
 31
0.0
  0
LINE
  5
985
330
1F
100
AcDbEntity
  8
FASEN
  6
Continuous
 62
     7
100
AcDbLine
 10
906.3323730409756
 20
335.1654062381725
 30
0.0
 11
906.3323730409756
 21
336.9858433283726
 31
0.0
  0
LINE
  5
986
330
1F
100
AcDbEntity
  8
0
  6
Continuous
 62
     7
100
AcDbLine
 10
917.3323730409757
 20
356.4251066724725
 30
0.0
 11
917.3323730409757
 21
354.6172100732724
 31
0.0
  0
LINE
  5
987
330
1F
100
AcDbEntity
  8
RUNDUNGEN
  6
Continuous
 62
     7
100
AcDbLine
 10
917.3323730409757
 20
334.5431849246724
 30
0.0
 11
917.3323730409757
 21
342.5431849246725
 31
0.0
  0
LINE
  5
988
330
1F
100
AcDbEntity
  8
0
  6
Continuous
 62
     3
100
AcDbLine
 10
917.3323730409757
 20
341.2880117298725
 30
0.0
 11
917.3323730409757
 21
342.5431849246725
 31
0.0
  0
LINE
  5
989
330
1F
100
AcDbEntity
  8
0
  6
Continuous
 62
     7
100
AcDbLine
 10
917.3323730409757
 20
342.5431849246725
 30
0.0
 11
917.3323730409757
 21
354.0431849246725
 31
0.0
  0
LINE
  5
98A
102
{ACAD_REACTORS
330
A72
102
}
330
1F
100
AcDbEntity
  8
RUNDUNGEN
  6
Continuous
 62
     7
100
AcDbLine
 10
917.3323730409757
 20
344.5431849246725
 30
0.0
 11
917.3323730409757
 21
354.5431849246725
 31
0.0
  0
LINE
  5
98B
330
1F
100
AcDbEntity
  8
0
  6
Continuous
 62
     7
100
AcDbLine
 10
917.6323730409755
 20
355.2517569571725
 30
0.0
 11
917.6323730409755
 21
356.3931849246725
 31
0.0
  0
LINE
  5
98C
330
1F
100
AcDbEntity
  8
RUNDUNGEN
  6
Continuous
 62
     7
100
AcDbLine
 10
919.3323730409757
 20
334.5431849246724
 30
0.0
 11
919.3323730409757
 21
342.5431849246725
 31
0.0
  0
LINE
  5
98D
330
1F
100
AcDbEntity
  8
RUNDUNGEN
  6
Continuous
 62
     7
100
AcDbLine
 10
919.3323730409757
 20
343.5431849246725
 30
0.0
 11
919.3323730409757
 21
354.5431849246725
 31
0.0
  0
LINE
  5
98E
330
1F
100
AcDbEntity
  8
RUNDUNGEN
  6
Continuous
 62
     9
100
AcDbLine
 10
939.8323730409757
 20
343.5431849246725
 30
0.0
 11
939.8323730409757
 21
342.5431849246725
 31
0.0
  0
LINE
  5
98F
330
1F
100
AcDbEntity
  8
RUNDUNGEN
  6
Continuous
 62
     7
100
AcDbLine
 10
949.8323730409756
 20
343.5431849246725
 30
0.0
 11
949.8323730409756
 21
342.5431849246725
 31
0.0
  0
LINE
  5
990
330
1F
100
AcDbEntity
  8
0
  6
Continuous
 62
     7
100
AcDbLine
 10
949.8323730409756
 20
340.5431849246725
 30
0.0
 11
949.8323730409756
 21
342.5431849246725
 31
0.0
  0
LINE
  5
991
102
{ACAD_REACTORS
330
A76
102
}
330
1F
100
AcDbEntity
  8
0
  6
Continuous
 62
     7
100
AcDbLine
 10
949.8323730409756
 20
343.5431849246725
 30
0.0
 11
949.8323730409756
 21
375.5431849246725
 31
0.0
  0
LINE
  5
992
330
1F
100
AcDbEntity
  8
RUNDUNGEN
  6
Continuous
 62
     7
100
AcDbLine
 10
105.3323730409756
 20
192.2070676695725
 30
0.0
 11
105.3323730409756
 21
91.20706766957249
 31
0.0
  0
LINE
  5
993
330
1F
100
AcDbEntity
  8
0
  6
Continuous
 62
     7
100
AcDbLine
 10
105.3323730409756
 20
192.2070676695725
 30
0.0
 11
105.3323730409756
 21
193.2070676695725
 31
0.0
  0
LINE
  5
994
330
1F
100
AcDbEntity
  8
0
  6
Continuous
 62
     9
100
AcDbLine
 10
115.3323730409756
 20
192.2070676695725
 30
0.0
 11
115.3323730409756
 21
193.2070676695725
 31
0.0
  0
LINE
  5
995
330
1F
100
AcDbEntity
  8
RUNDUNGEN
  6
Continuous
 62
     7
100
AcDbLine
 10
135.8323730409756
 20
192.2070676695725
 30
0.0
 11
135.8323730409756
 21
112.2070676695725
 31
0.0
  0
LINE
  5
996
330
1F
100
AcDbEntity
  8
0
  6
Continuous
 62
     7
100
AcDbLine
 10
137.8323730409756
 20
115.1193440821725
 30
0.0
 11
137.8323730409756
 21
112.2947912569725
 31
0.0
  0
LINE
  5
997
330
1F
100
AcDbEntity
  8
0
  6
Continuous
 62
     7
100
AcDbLine
 10
137.8323730409756
 20
112.2070676695725
 30
0.0
 11
137.8323730409756
 21
81.20706766957251
 31
0.0
  0
LINE
  5
998
330
1F
100
AcDbEntity
  8
RUNDUNGEN
  6
Continuous
 62
     7
100
AcDbLine
 10
137.8323730409756
 20
112.2070676695725
 30
0.0
 11
137.8323730409756
 21
112.2947912569725
 31
0.0
  0
LINE
  5
999
330
1F
100
AcDbEntity
  8
RUNDUNGEN
  6
Continuous
 62
     7
100
AcDbLine
 10
137.8323730409756
 20
115.1193440821725
 30
0.0
 11
137.8323730409756
 21
179.2070676695725
 31
0.0
  0
LINE
  5
99A
330
1F
100
AcDbEntity
  8
0
  6
Continuous
 62
     7
100
AcDbLine
 10
137.8323730409756
 20
179.4750168619725
 30
0.0
 11
137.8323730409756
 21
192.2000719627725
 31
0.0
  0
LINE
  5
99B
330
1F
100
AcDbEntity
  8
RUNDUNGEN
  6
Continuous
 62
     9
100
AcDbLine
 10
454.3323730409756
 20
177.0369893068725
 30
0.0
 11
454.3323730409756
 21
174.2070676695725
 31
0.0
  0
LINE
  5
99C
330
1F
100
AcDbEntity
  8
0
  6
Continuous
 62
     9
100
AcDbLine
 10
454.3323730409756
 20
130.1070676695725
 30
0.0
 11
454.3323730409756
 21
120.2070676695725
 31
0.0
  0
LINE
  5
99D
330
1F
100
AcDbEntity
  8
RUNDUNGEN
  6
Continuous
 62
     9
100
AcDbLine
 10
454.3323730409756
 20
117.3771460322725
 30
0.0
 11
454.3323730409756
 21
120.2070676695725
 31
0.0
  0
LINE
  5
99E
330
1F
100
AcDbEntity
  8
0
  6
Continuous
 62
     9
100
AcDbLine
 10
454.3323730409756
 20
164.3070676695725
 30
0.0
 11
454.3323730409756
 21
174.2070676695725
 31
0.0
  0
LINE
  5
99F
330
1F
100
AcDbEntity
  8
0
  6
Continuous
 62
     7
100
AcDbLine
 10
551.3016977760755
 20
33.10706766957251
 30
0.0
 11
503.3630483058755
 21
33.10706766957251
 31
0.0
  0
LINE
  5
9A0
330
1F
100
AcDbEntity
  8
RUNDUNGEN
  6
Continuous
 62
     9
100
AcDbLine
 10
502.3939492199756
 20
37.80732097557251
 30
0.0
 11
552.2707968619756
 21
37.80732097557251
 31
0.0
  0
LINE
  5
9A1
330
1F
100
AcDbEntity
  8
RUNDUNGEN
  6
Continuous
 62
     9
100
AcDbLine
 10
502.3321473917758
 20
38.4131192118725
 30
0.0
 11
552.3325986900754
 21
38.4131192118725
 31
0.0
  0
LINE
  5
9A2
330
1F
100
AcDbEntity
  8
0
  6
Continuous
 62
     9
100
AcDbLine
 10
502.7821906783755
 20
150.6568599782725
 30
0.0
 11
502.3200732667755
 21
150.2654250833725
 31
0.0
  0
LINE
  5
9A3
330
1F
100
AcDbEntity
  8
0
  6
Continuous
 62
     9
100
AcDbLine
 10
502.5600531654754
 20
151.0740597094725
 30
0.0
 11
501.9853732917754
 21
150.6052425737725
 31
0.0
  0
LINE
  5
9A4
330
1F
100
AcDbEntity
  8
RUNDUNGEN
  6
Continuous
 62
     7
100
AcDbLine
 10
502.3321473917758
 20
38.4131192118725
 30
0.0
 11
502.3939492199756
 21
37.80732097557251
 31
0.0
  0
LINE
  5
9A5
330
1F
100
AcDbEntity
  8
0
  6
Continuous
 62
     7
100
AcDbLine
 10
502.3321473917758
 20
81.7070676695725
 30
0.0
 11
502.3321473917758
 21
38.4131192118725
 31
0.0
  0
LINE
  5
9A6
330
1F
100
AcDbEntity
  8
RUNDUNGEN
  6
Continuous
 62
     7
100
AcDbLine
 10
916.8323730409756
 20
81.20706766957251
 30
0.0
 11
939.3323730409756
 21
81.20706766957251
 31
0.0
  0
LINE
  5
9A7
330
1F
100
AcDbEntity
  8
RUNDUNGEN
  6
Continuous
 62
     7
100
AcDbLine
 10
137.8323730409756
 20
81.20706766957251
 30
0.0
 11
115.3323730409756
 21
81.20706766957251
 31
0.0
  0
LINE
  5
9A8
330
1F
100
AcDbEntity
  8
0
  6
Continuous
 62
     7
100
AcDbLine
 10
916.8323730409756
 20
81.7070676695725
 30
0.0
 11
777.0406191241036
 21
81.7070676695725
 31
0.0
  0
LINE
  5
9A9
330
1F
100
AcDbEntity
  8
0
  6
Continuous
 62
     7
100
AcDbLine
 10
777.5406191241036
 20
81.7070676695725
 30
0.0
 11
311.7876526422722
 21
81.7070676695725
 31
0.0
  0
LINE
  5
9AA
330
1F
100
AcDbEntity
  8
0
  6
Continuous
 62
     7
100
AcDbLine
 10
312.2876526422724
 20
81.7070676695725
 30
0.0
 11
137.8323730409756
 21
81.7070676695725
 31
0.0
  0
LINE
  5
9AB
330
1F
100
AcDbEntity
  8
0
  6
Continuous
 62
     7
100
AcDbLine
 10
502.3939492199756
 20
37.80732097557251
 30
0.0
 11
503.3630483058755
 21
33.10706766957251
 31
0.0
  0
LINE
  5
9AC
330
1F
100
AcDbEntity
  8
RUNDUNGEN
  6
Continuous
 62
     7
100
AcDbLine
 10
503.3630483058755
 20
33.10706766957251
 30
0.0
 11
502.3939492199756
 21
37.80732097557251
 31
0.0
  0
LINE
  5
9AD
330
1F
100
AcDbEntity
  8
TEIL_STARTBEZUEGE
  6
CENTER
 62
     7
100
AcDbLine
 10
527.3323730409756
 20
30.10706766957251
 30
0.0
 11
527.3323730409756
 21
147.9679919474725
 31
0.0
  0
LINE
  5
9AE
330
1F
100
AcDbEntity
  8
0
  6
Continuous
 62
     9
100
AcDbLine
 10
546.7821906783756
 20
150.6568599782725
 30
0.0
 11
546.3200732667756
 21
150.2654250833725
 31
0.0
  0
LINE
  5
9AF
330
1F
100
AcDbEntity
  8
0
  6
Continuous
 62
     9
100
AcDbLine
 10
546.5600531654754
 20
151.0740597094725
 30
0.0
 11
545.9853732917754
 21
150.6052425737725
 31
0.0
  0
LINE
  5
9B0
330
1F
100
AcDbEntity
  8
0
  6
Continuous
 62
     9
100
AcDbLine
 10
916.8323730409756
 20
111.2070676695725
 30
0.0
 11
777.0406191241036
 21
111.2070676695725
 31
0.0
  0
LINE
  5
9B1
330
1F
100
AcDbEntity
  8
0
  6
Continuous
 62
     9
100
AcDbLine
 10
777.5406191241036
 20
111.2070676695725
 30
0.0
 11
311.7876526422722
 21
111.2070676695725
 31
0.0
  0
LINE
  5
9B2
330
1F
100
AcDbEntity
  8
0
  6
Continuous
 62
     9
100
AcDbLine
 10
312.2876526422724
 20
111.2070676695725
 30
0.0
 11
137.8323730409756
 21
111.2070676695725
 31
0.0
  0
LINE
  5
9B3
330
1F
100
AcDbEntity
  8
RUNDUNGEN
  6
Continuous
 62
     7
100
AcDbLine
 10
918.8323730409756
 20
112.2070676695725
 30
0.0
 11
916.8323730409756
 21
112.2070676695725
 31
0.0
  0
LINE
  5
9B4
330
1F
100
AcDbEntity
  8
0
  6
Continuous
 62
     7
100
AcDbLine
 10
916.8323730409756
 20
112.2070676695725
 30
0.0
 11
777.0406191241036
 21
112.2070676695725
 31
0.0
  0
LINE
  5
9B5
330
1F
100
AcDbEntity
  8
0
  6
Continuous
 62
     7
100
AcDbLine
 10
777.5406191241036
 20
112.2070676695725
 30
0.0
 11
311.7876526422722
 21
112.2070676695725
 31
0.0
  0
LINE
  5
9B6
330
1F
100
AcDbEntity
  8
0
  6
Continuous
 62
     7
100
AcDbLine
 10
312.2876526422724
 20
112.2070676695725
 30
0.0
 11
137.8323730409756
 21
112.2070676695725
 31
0.0
  0
LINE
  5
9B7
330
1F
100
AcDbEntity
  8
RUNDUNGEN
  6
Continuous
 62
     7
100
AcDbLine
 10
137.8323730409756
 20
112.2070676695725
 30
0.0
 11
135.8323730409756
 21
112.2070676695725
 31
0.0
  0
LINE
  5
9B8
330
1F
100
AcDbEntity
  8
0
  6
Continuous
 62
     7
100
AcDbLine
 10
916.8323730409756
 20
115.2070676695725
 30
0.0
 11
777.0406191241036
 21
115.2070676695725
 31
0.0
  0
LINE
  5
9B9
330
1F
100
AcDbEntity
  8
0
  6
Continuous
 62
     7
100
AcDbLine
 10
777.5406191241036
 20
115.2070676695725
 30
0.0
 11
311.7876526422722
 21
115.2070676695725
 31
0.0
  0
LINE
  5
9BA
330
1F
100
AcDbEntity
  8
0
  6
Continuous
 62
     7
100
AcDbLine
 10
312.2876526422724
 20
115.2070676695725
 30
0.0
 11
137.8323730409756
 21
115.2070676695725
 31
0.0
  0
LINE
  5
9BB
330
1F
100
AcDbEntity
  8
0
  6
Continuous
 62
     7
100
AcDbLine
 10
552.3325986900754
 20
81.7070676695725
 30
0.0
 11
552.3325986900754
 21
38.4131192118725
 31
0.0
  0
LINE
  5
9BC
330
1F
100
AcDbEntity
  8
RUNDUNGEN
  6
Continuous
 62
     7
100
AcDbLine
 10
552.3325986900754
 20
38.4131192118725
 30
0.0
 11
552.3325986900754
 21
81.7070676695725
 31
0.0
  0
LINE
  5
9BD
330
1F
100
AcDbEntity
  8
0
  6
Continuous
 62
     9
100
AcDbLine
 10
916.8323730409756
 20
116.1503748819725
 30
0.0
 11
777.0406191241036
 21
116.1503748819725
 31
0.0
  0
LINE
  5
9BE
330
1F
100
AcDbEntity
  8
0
  6
Continuous
 62
     9
100
AcDbLine
 10
777.5406191241036
 20
116.1503748819725
 30
0.0
 11
311.7876526422722
 21
116.1503748819725
 31
0.0
  0
LINE
  5
9BF
330
1F
100
AcDbEntity
  8
0
  6
Continuous
 62
     9
100
AcDbLine
 10
312.2876526422724
 20
116.1503748819725
 30
0.0
 11
137.8323730409756
 21
116.1503748819725
 31
0.0
  0
LINE
  5
9C0
330
1F
100
AcDbEntity
  8
RUNDUNGEN
  6
Continuous
 62
     9
100
AcDbLine
 10
600.3323730409756
 20
117.3771460322725
 30
0.0
 11
454.3323730409756
 21
117.3771460322725
 31
0.0
  0
LINE
  5
9C1
330
1F
100
AcDbEntity
  8
RUNDUNGEN
  6
Continuous
 62
     7
100
AcDbLine
 10
600.3322404504756
 20
120.2070676695725
 30
0.0
 11
454.3325193879756
 21
120.2070676695725
 31
0.0
  0
LINE
  5
9C2
330
1F
100
AcDbEntity
  8
0
  6
Continuous
 62
     9
100
AcDbLine
 10
600.3323730409756
 20
130.1070676695725
 30
0.0
 11
454.3323730409756
 21
130.1070676695725
 31
0.0
  0
LINE
  5
9C3
330
1F
100
AcDbEntity
  8
RUNDUNGEN
  6
Continuous
 62
     7
100
AcDbLine
 10
552.3325986900754
 20
38.4131192118725
 30
0.0
 11
552.2707968619756
 21
37.80732097557251
 31
0.0
  0
LINE
  5
9C4
330
1F
100
AcDbEntity
  8
RUNDUNGEN
  6
Continuous
 62
     7
100
AcDbLine
 10
551.3016977760755
 20
33.10706766957251
 30
0.0
 11
552.2707968619756
 21
37.80732097557251
 31
0.0
  0
LINE
  5
9C5
330
1F
100
AcDbEntity
  8
0
  6
Continuous
 62
     7
100
AcDbLine
 10
552.2707968619756
 20
37.80732097557251
 30
0.0
 11
551.3016977760755
 21
33.10706766957251
 31
0.0
  0
LINE
  5
9C6
330
1F
100
AcDbEntity
  8
RUNDUNGEN
  6
Continuous
 62
     7
100
AcDbLine
 10
916.8323730409756
 20
147.2070676695725
 30
0.0
 11
777.0406191241036
 21
147.2070675735549
 31
0.0
  0
LINE
  5
9C7
330
1F
100
AcDbEntity
  8
RUNDUNGEN
  6
Continuous
 62
     7
100
AcDbLine
 10
777.5406191241033
 20
147.2070676425845
 30
0.0
 11
630.3318909325756
 21
147.2070675414725
 31
0.0
  0
LINE
  5
9C8
330
1F
100
AcDbEntity
  8
BG_STARTBEZUEGE
  6
CENTER
 62
     7
100
AcDbLine
 10
952.3323730409757
 20
147.2070676695725
 30
0.0
 11
777.0406191241036
 21
147.2070676695725
 31
0.0
  0
LINE
  5
9C9
330
1F
100
AcDbEntity
  8
BG_STARTBEZUEGE
  6
CENTER
 62
     7
100
AcDbLine
 10
628.2962072141756
 20
147.2070676695725
 30
0.0
 11
102.3323730409754
 21
147.2070676695725
 31
0.0
  0
LINE
  5
9CA
330
1F
100
AcDbEntity
  8
RUNDUNGEN
  6
Continuous
 62
     7
100
AcDbLine
 10
424.3328551620757
 20
147.2070677992725
 30
0.0
 11
412.5376526422724
 21
147.2070677910696
 31
0.0
  0
LINE
  5
9CB
330
1F
100
AcDbEntity
  8
RUNDUNGEN
  6
Continuous
 62
     7
100
AcDbLine
 10
312.2876526422724
 20
147.2070677908958
 30
0.0
 11
137.8323730409756
 21
147.2070676695725
 31
0.0
  0
LINE
  5
9CC
330
1F
100
AcDbEntity
  8
0
  6
Continuous
 62
     9
100
AcDbLine
 10
454.3323730409756
 20
164.3070676695725
 30
0.0
 11
600.3323730409756
 21
164.3070676695725
 31
0.0
  0
LINE
  5
9CD
330
1F
100
AcDbEntity
  8
RUNDUNGEN
  6
Continuous
 62
     7
100
AcDbLine
 10
454.3325056313756
 20
174.2070676695725
 30
0.0
 11
600.3322266939758
 21
174.2070676695725
 31
0.0
  0
LINE
  5
9CE
330
1F
100
AcDbEntity
  8
RUNDUNGEN
  6
Continuous
 62
     9
100
AcDbLine
 10
454.3323730409756
 20
177.0369893068725
 30
0.0
 11
600.3323730409756
 21
177.0369893068725
 31
0.0
  0
LINE
  5
9CF
330
1F
100
AcDbEntity
  8
0
  6
Continuous
 62
     9
100
AcDbLine
 10
916.8323730409756
 20
178.2637604571725
 30
0.0
 11
777.0406191241036
 21
178.2637604571725
 31
0.0
  0
LINE
  5
9D0
330
1F
100
AcDbEntity
  8
0
  6
Continuous
 62
     9
100
AcDbLine
 10
777.5406191241036
 20
178.2637604571725
 30
0.0
 11
311.7876526422722
 21
178.2637604571725
 31
0.0
  0
LINE
  5
9D1
330
1F
100
AcDbEntity
  8
0
  6
Continuous
 62
     9
100
AcDbLine
 10
312.2876526422724
 20
178.2637604571725
 30
0.0
 11
137.8323730409756
 21
178.2637604571725
 31
0.0
  0
LINE
  5
9D2
330
1F
100
AcDbEntity
  8
0
  6
Continuous
 62
     7
100
AcDbLine
 10
916.8323730409756
 20
179.2070676695725
 30
0.0
 11
777.0406191241036
 21
179.2070676695725
 31
0.0
  0
LINE
  5
9D3
330
1F
100
AcDbEntity
  8
0
  6
Continuous
 62
     7
100
AcDbLine
 10
777.5406191241036
 20
179.2070676695724
 30
0.0
 11
311.7876526422722
 21
179.2070676695725
 31
0.0
  0
LINE
  5
9D4
330
1F
100
AcDbEntity
  8
0
  6
Continuous
 62
     7
100
AcDbLine
 10
312.2876526422724
 20
179.2070676695725
 30
0.0
 11
137.8323730409756
 21
179.2070676695725
 31
0.0
  0
LINE
  5
9D5
330
1F
100
AcDbEntity
  8
0
  6
Continuous
 62
     9
100
AcDbLine
 10
916.8323730409756
 20
181.2070676695725
 30
0.0
 11
777.0406191241036
 21
181.2070676695725
 31
0.0
  0
LINE
  5
9D6
330
1F
100
AcDbEntity
  8
0
  6
Continuous
 62
     9
100
AcDbLine
 10
777.5406191241036
 20
181.2070676695725
 30
0.0
 11
311.7876526422722
 21
181.2070676695725
 31
0.0
  0
LINE
  5
9D7
330
1F
100
AcDbEntity
  8
0
  6
Continuous
 62
     9
100
AcDbLine
 10
312.2876526422724
 20
181.2070676695725
 30
0.0
 11
137.8323730409756
 21
181.2070676695725
 31
0.0
  0
LINE
  5
9D8
330
1F
100
AcDbEntity
  8
RUNDUNGEN
  6
Continuous
 62
     9
100
AcDbLine
 10
600.3323730409756
 20
177.0369893068725
 30
0.0
 11
600.3323730409756
 21
174.2070676695725
 31
0.0
  0
LINE
  5
9D9
330
1F
100
AcDbEntity
  8
0
  6
Continuous
 62
     9
100
AcDbLine
 10
600.3323730409756
 20
130.1070676695725
 30
0.0
 11
600.3323730409756
 21
120.2070676695725
 31
0.0
  0
LINE
  5
9DA
330
1F
100
AcDbEntity
  8
RUNDUNGEN
  6
Continuous
 62
     9
100
AcDbLine
 10
600.3323730409756
 20
117.3771460322725
 30
0.0
 11
600.3323730409756
 21
120.2070676695725
 31
0.0
  0
LINE
  5
9DB
330
1F
100
AcDbEntity
  8
0
  6
Continuous
 62
     9
100
AcDbLine
 10
600.3323730409756
 20
164.3070676695725
 30
0.0
 11
600.3323730409756
 21
174.2070676695725
 31
0.0
  0
LINE
  5
9DC
330
1F
100
AcDbEntity
  8
0
  6
Continuous
 62
     9
100
AcDbLine
 10
137.8323730409756
 20
191.2070676695725
 30
0.0
 11
312.2876526422724
 21
191.2070676695725
 31
0.0
  0
LINE
  5
9DD
330
1F
100
AcDbEntity
  8
0
  6
Continuous
 62
     9
100
AcDbLine
 10
311.7876526422722
 20
191.2070676695725
 30
0.0
 11
777.5406191241036
 21
191.2070676695725
 31
0.0
  0
LINE
  5
9DE
330
1F
100
AcDbEntity
  8
0
  6
Continuous
 62
     9
100
AcDbLine
 10
777.0406191241036
 20
191.2070676695725
 30
0.0
 11
916.8323730409756
 21
191.2070676695725
 31
0.0
  0
LINE
  5
9DF
330
1F
100
AcDbEntity
  8
0
  6
Continuous
 62
     7
100
AcDbLine
 10
949.3323730409755
 20
192.2070676695725
 30
0.0
 11
777.0406191241036
 21
192.2070676695725
 31
0.0
  0
LINE
  5
9E0
330
1F
100
AcDbEntity
  8
0
  6
Continuous
 62
     7
100
AcDbLine
 10
777.5406191241036
 20
192.2070676695725
 30
0.0
 11
311.7876526422722
 21
192.2070676695725
 31
0.0
  0
LINE
  5
9E1
330
1F
100
AcDbEntity
  8
0
  6
Continuous
 62
     7
100
AcDbLine
 10
312.2876526422724
 20
192.2070676695725
 30
0.0
 11
105.3323730409756
 21
192.2070676695725
 31
0.0
  0
LINE
  5
9E2
330
1F
100
AcDbEntity
  8
0
  6
Continuous
 62
     3
100
AcDbLine
 10
949.3323730409755
 20
193.2070676695725
 30
0.0
 11
777.0406191241036
 21
193.2070676695725
 31
0.0
  0
LINE
  5
9E3
330
1F
100
AcDbEntity
  8
0
  6
Continuous
 62
     3
100
AcDbLine
 10
777.5406191241036
 20
193.2070676695725
 30
0.0
 11
311.7876526422722
 21
193.2070676695725
 31
0.0
  0
LINE
  5
9E4
330
1F
100
AcDbEntity
  8
0
  6
Continuous
 62
     3
100
AcDbLine
 10
312.2876526422724
 20
193.2070676695725
 30
0.0
 11
105.3323730409756
 21
193.2070676695725
 31
0.0
  0
LINE
  5
9E5
330
1F
100
AcDbEntity
  8
0
  6
Continuous
 62
     7
100
AcDbLine
 10
916.8323730409756
 20
192.2000719627725
 30
0.0
 11
916.8323730409756
 21
179.4750168619725
 31
0.0
  0
LINE
  5
9E6
330
1F
100
AcDbEntity
  8
RUNDUNGEN
  6
Continuous
 62
     7
100
AcDbLine
 10
916.8323730409756
 20
179.4750168619725
 30
0.0
 11
916.8323730409756
 21
115.1193440821725
 31
0.0
  0
LINE
  5
9E7
330
1F
100
AcDbEntity
  8
0
  6
Continuous
 62
     7
100
AcDbLine
 10
916.8323730409756
 20
115.1193440821725
 30
0.0
 11
916.8323730409756
 21
112.2947912569725
 31
0.0
  0
LINE
  5
9E8
330
1F
100
AcDbEntity
  8
RUNDUNGEN
  6
Continuous
 62
     7
100
AcDbLine
 10
916.8323730409756
 20
112.2947912569725
 30
0.0
 11
916.8323730409756
 21
112.2070676695725
 31
0.0
  0
LINE
  5
9E9
330
1F
100
AcDbEntity
  8
0
  6
Continuous
 62
     7
100
AcDbLine
 10
916.8323730409756
 20
112.2070676695725
 30
0.0
 11
916.8323730409756
 21
81.20706766957251
 31
0.0
  0
LINE
  5
9EA
330
1F
100
AcDbEntity
  8
RUNDUNGEN
  6
Continuous
 62
     7
100
AcDbLine
 10
918.8323730409756
 20
112.2070676695725
 30
0.0
 11
918.8323730409756
 21
192.2070676695725
 31
0.0
  0
LINE
  5
9EB
330
1F
100
AcDbEntity
  8
0
  6
Continuous
 62
     9
100
AcDbLine
 10
939.3323730409756
 20
192.2070676695725
 30
0.0
 11
939.3323730409756
 21
193.2070676695725
 31
0.0
  0
LINE
  5
9EC
330
1F
100
AcDbEntity
  8
0
  6
Continuous
 62
     7
100
AcDbLine
 10
949.3323730409755
 20
193.2070676695725
 30
0.0
 11
949.3323730409755
 21
192.2070676695725
 31
0.0
  0
LINE
  5
9ED
330
1F
100
AcDbEntity
  8
RUNDUNGEN
  6
Continuous
 62
     7
100
AcDbLine
 10
949.3323730409755
 20
91.20706766957249
 30
0.0
 11
949.3323730409755
 21
192.2070676695725
 31
0.0
  0
ARC
  5
9EE
330
1F
100
AcDbEntity
  8
RUNDUNGEN
  6
Continuous
 62
     7
100
AcDbCircle
 10
437.2323730409757
 20
300.3431849246725
 30
0.0
 40
12.0
100
AcDbArc
 50
180.0
 51
270.0000017476982
  0
CIRCLE
  5
9EF
330
1F
100
AcDbEntity
  8
FASEN
  6
Continuous
 62
     7
100
AcDbCircle
 10
469.3323730409757
 20
313.3431849246725
 30
0.0
 40
4.0
  0
ARC
  5
9F0
330
1F
100
AcDbEntity
  8
FASEN
  6
Continuous
 62
     7
100
AcDbCircle
 10
469.3323730409757
 20
313.3431849246725
 30
0.0
 40
3.375
100
AcDbArc
 50
90.0
 51
89.78036400280162
  0
ARC
  5
9F1
330
1F
100
AcDbEntity
  8
0
  6
Continuous
 62
     2
100
AcDbCircle
 10
469.3323730409757
 20
313.3431849246725
 30
0.0
 40
3.234999999999998
100
AcDbArc
 50
254.9999999999988
 51
194.9999999999987
  0
ARC
  5
9F2
330
1F
100
AcDbEntity
  8
0
  6
Continuous
 62
     7
100
AcDbCircle
 10
252.9434464359756
 20
337.0344168515725
 30
0.0
 40
2.010742808399998
100
AcDbArc
 50
270.0271670921988
 51
284.2357187134043
  0
ARC
  5
9F3
330
1F
100
AcDbEntity
  8
0
  6
Continuous
 62
     7
100
AcDbCircle
 10
259.0232821318755
 20
336.5752631045725
 30
0.0
 40
2.0030019327
100
AcDbArc
 50
255.7362389759984
 51
284.2637610240016
  0
ARC
  5
9F4
330
1F
100
AcDbEntity
  8
0
  6
Continuous
 62
     7
100
AcDbCircle
 10
266.8778275863756
 20
336.5752631045725
 30
0.0
 40
2.0030019327
100
AcDbArc
 50
255.7362389759984
 51
284.2637610240016
  0
ARC
  5
9F5
330
1F
100
AcDbEntity
  8
0
  6
Continuous
 62
     3
100
AcDbCircle
 10
255.0960094045759
 20
334.4704771044725
 30
0.0
 40
2.0030019327
100
AcDbArc
 50
75.73623897599834
 51
104.2637610240016
  0
ARC
  5
9F6
330
1F
100
AcDbEntity
  8
0
  6
Continuous
 62
     3
100
AcDbCircle
 10
262.9505548590755
 20
334.4704771044725
 30
0.0
 40
2.0030019327
100
AcDbArc
 50
75.73623897599834
 51
104.2637610240016
  0
ARC
  5
9F7
330
1F
100
AcDbEntity
  8
0
  6
Continuous
 62
     3
100
AcDbCircle
 10
270.8051003136757
 20
334.4704771044725
 30
0.0
 40
2.0030019327
100
AcDbArc
 50
75.73623897599834
 51
104.2637610240016
  0
ARC
  5
9F8
330
1F
100
AcDbEntity
  8
RUNDUNGEN
  6
Continuous
 62
     7
100
AcDbCircle
 10
424.3308157183755
 20
335.5231656393725
 30
0.0
 40
2.001435087499999
100
AcDbArc
 50
359.9454636771
 51
89.94928094960057
  0
ARC
  5
9F9
330
1F
100
AcDbEntity
  8
BEZUGSACHSEN
  6
Continuous
 62
     9
100
AcDbCircle
 10
176.8317325772755
 20
335.4308615400725
 30
0.0
 40
2.000591840999998
100
AcDbArc
 50
89.98165774359891
 51
149.9355899165034
  0
ARC
  5
9FA
330
1F
100
AcDbEntity
  8
BEZUGSACHSEN
  6
Continuous
 62
     9
100
AcDbCircle
 10
179.8330135140754
 20
335.4308615345725
 30
0.0
 40
2.000591840999998
100
AcDbArc
 50
30.06441035460226
 51
90.01834252760216
  0
ARC
  5
9FB
330
1F
100
AcDbEntity
  8
BEZUGSACHSEN
  6
Continuous
 62
     9
100
AcDbCircle
 10
156.8317325772755
 20
335.4308615400725
 30
0.0
 40
2.000591840999998
100
AcDbArc
 50
89.98165774359891
 51
149.9355899165034
  0
ARC
  5
9FC
330
1F
100
AcDbEntity
  8
BEZUGSACHSEN
  6
Continuous
 62
     9
100
AcDbCircle
 10
159.8330135140757
 20
335.4308615345725
 30
0.0
 40
2.000591840999998
100
AcDbArc
 50
30.06441035460226
 51
90.01834252760216
  0
ARC
  5
9FD
330
1F
100
AcDbEntity
  8
BEZUGSACHSEN
  6
Continuous
 62
     9
100
AcDbCircle
 10
179.8343915229757
 20
335.7158136488725
 30
0.0
 40
1.998622092999998
100
AcDbArc
 50
30.04727812160284
 51
65.04985780769485
  0
ARC
  5
9FE
330
1F
100
AcDbEntity
  8
BEZUGSACHSEN
  6
Continuous
 62
     9
100
AcDbCircle
 10
159.8343915229757
 20
335.7158136488725
 30
0.0
 40
1.998622092999998
100
AcDbArc
 50
30.04727812160284
 51
65.04985778390062
  0
ARC
  5
9FF
330
1F
100
AcDbEntity
  8
BEZUGSACHSEN
  6
Continuous
 62
     9
100
AcDbCircle
 10
156.8303545559756
 20
335.7158136523725
 30
0.0
 40
1.9986220887
100
AcDbArc
 50
114.9501438396021
 51
149.9527219240977
  0
ARC
  5
A00
330
1F
100
AcDbEntity
  8
BEZUGSACHSEN
  6
Continuous
 62
     9
100
AcDbCircle
 10
176.8303545559756
 20
335.7158136523725
 30
0.0
 40
1.9986220887
100
AcDbArc
 50
114.9501438159013
 51
149.9527219240977
  0
ARC
  5
A01
330
1F
100
AcDbEntity
  8
0
  6
Continuous
 62
     3
100
AcDbCircle
 10
255.0941116673757
 20
335.5833934996725
 30
0.0
 40
1.995355664999999
100
AcDbArc
 50
103.2521426962974
 51
104.2633520597974
  0
ARC
  5
A02
330
1F
100
AcDbEntity
  8
0
  6
Continuous
 62
     3
100
AcDbCircle
 10
255.0979071417757
 20
335.5833934996725
 30
0.0
 40
1.995355664999999
100
AcDbArc
 50
75.73664794019578
 51
76.74785730609824
  0
ARC
  5
A03
330
1F
100
AcDbEntity
  8
0
  6
Continuous
 62
     3
100
AcDbCircle
 10
262.9486571220757
 20
335.5833934991725
 30
0.0
 40
1.9953556655
100
AcDbArc
 50
103.2521426764022
 51
104.2633520596966
  0
ARC
  5
A04
330
1F
100
AcDbEntity
  8
0
  6
Continuous
 62
     3
100
AcDbCircle
 10
262.9524525963757
 20
335.5833934999726
 30
0.0
 40
1.995355664699999
100
AcDbArc
 50
75.73664794010174
 51
76.74785732620096
  0
ARC
  5
A05
330
1F
100
AcDbEntity
  8
0
  6
Continuous
 62
     3
100
AcDbCircle
 10
270.8032025765756
 20
335.5833934993725
 30
0.0
 40
1.995355665299999
100
AcDbArc
 50
103.2521426562995
 51
104.2633520597974
  0
ARC
  5
A06
330
1F
100
AcDbEntity
  8
0
  6
Continuous
 62
     3
100
AcDbCircle
 10
270.8069980507755
 20
335.5833934994726
 30
0.0
 40
1.9953556652
100
AcDbArc
 50
75.73664794030335
 51
76.7478573461029
  0
ARC
  5
A07
330
1F
100
AcDbEntity
  8
0
  6
Continuous
 62
     3
100
AcDbCircle
 10
252.9439231379756
 20
338.1329465884725
 30
0.0
 40
1.005371404199999
100
AcDbArc
 50
270.027167092303
 51
284.2357187134043
  0
ARC
  5
A08
330
1F
100
AcDbEntity
  8
0
  6
Continuous
 62
     3
100
AcDbCircle
 10
252.9439231379756
 20
337.0274372309725
 30
0.0
 40
1.005371404199999
100
AcDbArc
 50
270.0271670921988
 51
284.2357187134043
  0
ARC
  5
A09
330
1F
100
AcDbEntity
  8
RUNDUNGEN
  6
Continuous
 62
     7
100
AcDbCircle
 10
136.3323730409756
 20
354.5431849246725
 30
0.0
 40
1.0
100
AcDbArc
 50
0.0
 51
180.0
  0
ARC
  5
A0A
330
1F
100
AcDbEntity
  8
0
  6
Continuous
 62
     7
100
AcDbCircle
 10
137.1823730409755
 20
356.3931849246725
 30
0.0
 40
0.15
100
AcDbArc
 50
90.0
 51
180.0
  0
ARC
  5
A0B
330
1F
100
AcDbEntity
  8
0
  6
Continuous
 62
     7
100
AcDbCircle
 10
114.8323730409756
 20
375.5431849246725
 30
0.0
 40
10.0
100
AcDbArc
 50
90.0
 51
180.0
  0
CIRCLE
  5
A0C
330
1F
100
AcDbEntity
  8
RUNDUNGEN
  6
Continuous
 62
     7
100
AcDbCircle
 10
527.3323730409756
 20
311.3431849246725
 30
0.0
 40
25.0002256492
  0
CIRCLE
  5
A0D
330
1F
100
AcDbEntity
  8
RUNDUNGEN
  6
Continuous
 62
     9
100
AcDbCircle
 10
527.3323730409756
 20
311.3431849246725
 30
0.0
 40
24.938423821
  0
CIRCLE
  5
A0E
330
1F
100
AcDbEntity
  8
0
  6
Continuous
 62
     7
100
AcDbCircle
 10
527.3323730409756
 20
311.3431849246725
 30
0.0
 40
23.9693247351
  0
CIRCLE
  5
A0F
330
1F
100
AcDbEntity
  8
0
  6
Continuous
 62
     7
100
AcDbCircle
 10
527.3323730409756
 20
311.3431849246725
 30
0.0
 40
22.5002256492
  0
CIRCLE
  5
A10
330
1F
100
AcDbEntity
  8
RUNDUNGEN
  6
Continuous
 62
     9
100
AcDbCircle
 10
527.3323730409756
 20
311.3431849246725
 30
0.0
 40
18.7307877184
  0
CIRCLE
  5
A11
330
1F
100
AcDbEntity
  8
RUNDUNGEN
  6
Continuous
 62
     7
100
AcDbCircle
 10
527.3323730409756
 20
311.3431849246725
 30
0.0
 40
18.5
  0
ARC
  5
A12
330
1F
100
AcDbEntity
  8
RUNDUNGEN
  6
Continuous
 62
     7
100
AcDbCircle
 10
617.4323730409756
 20
300.3431849246725
 30
0.0
 40
12.0
100
AcDbArc
 50
269.9999982523018
 51
0.0
  0
ARC
  5
A13
330
1F
100
AcDbEntity
  8
0
  6
Continuous
 62
     7
100
AcDbCircle
 10
801.7212996459758
 20
337.0344168515725
 30
0.0
 40
2.010742808399998
100
AcDbArc
 50
255.7642812866025
 51
269.9728329078012
  0
ARC
  5
A14
330
1F
100
AcDbEntity
  8
0
  6
Continuous
 62
     7
100
AcDbCircle
 10
801.7212996459758
 20
338.1399262090726
 30
0.0
 40
2.010742808399998
100
AcDbArc
 50
255.7642812866025
 51
269.9728329078012
  0
ARC
  5
A15
330
1F
100
AcDbEntity
  8
0
  6
Continuous
 62
     7
100
AcDbCircle
 10
795.6414639500756
 20
336.5752631045725
 30
0.0
 40
2.0030019327
100
AcDbArc
 50
255.7362389759984
 51
284.2637610240016
  0
ARC
  5
A16
330
1F
100
AcDbEntity
  8
0
  6
Continuous
 62
     7
100
AcDbCircle
 10
787.7869184954756
 20
336.5752631045725
 30
0.0
 40
2.0030019327
100
AcDbArc
 50
255.7362389759984
 51
284.2637610240016
  0
ARC
  5
A17
330
1F
100
AcDbEntity
  8
0
  6
Continuous
 62
     7
100
AcDbCircle
 10
795.6414639500756
 20
337.6807724619725
 30
0.0
 40
2.0030019327
100
AcDbArc
 50
255.7362389759984
 51
284.2637610240016
  0
ARC
  5
A18
330
1F
100
AcDbEntity
  8
0
  6
Continuous
 62
     7
100
AcDbCircle
 10
787.7869184954756
 20
337.6807724619725
 30
0.0
 40
2.0030019327
100
AcDbArc
 50
255.7362389759984
 51
284.2637610240016
  0
ARC
  5
A19
330
1F
100
AcDbEntity
  8
0
  6
Continuous
 62
     3
100
AcDbCircle
 10
799.5687366772756
 20
335.5759864619725
 30
0.0
 40
2.0030019327
100
AcDbArc
 50
75.73623897599834
 51
104.2637610240016
  0
ARC
  5
A1A
330
1F
100
AcDbEntity
  8
0
  6
Continuous
 62
     3
100
AcDbCircle
 10
791.7141912227755
 20
335.5759864619725
 30
0.0
 40
2.0030019327
100
AcDbArc
 50
75.73623897599834
 51
104.2637610240016
  0
ARC
  5
A1B
330
1F
100
AcDbEntity
  8
0
  6
Continuous
 62
     3
100
AcDbCircle
 10
783.8596457681756
 20
335.5759864619725
 30
0.0
 40
2.0030019327
100
AcDbArc
 50
75.73623897599834
 51
104.2637610240016
  0
ARC
  5
A1C
330
1F
100
AcDbEntity
  8
RUNDUNGEN
  6
Continuous
 62
     7
100
AcDbCircle
 10
630.3339303671755
 20
335.5231656356725
 30
0.0
 40
2.001435087499999
100
AcDbArc
 50
90.05071915579888
 51
180.0545362174
  0
ARC
  5
A1D
330
1F
100
AcDbEntity
  8
0
  6
Continuous
 62
     3
100
AcDbCircle
 10
801.7208229438756
 20
338.1329465884725
 30
0.0
 40
1.005371404199999
100
AcDbArc
 50
255.7642812866025
 51
269.9728329078012
  0
ARC
  5
A1E
330
1F
100
AcDbEntity
  8
BEZUGSACHSEN
  6
Continuous
 62
     9
100
AcDbCircle
 10
894.8365502588755
 20
335.4335320447725
 30
0.0
 40
1.0041778936
100
AcDbArc
 50
161.9292553365986
 51
179.9335318641998
  0
ARC
  5
A1F
330
1F
100
AcDbEntity
  8
BEZUGSACHSEN
  6
Continuous
 62
     9
100
AcDbCircle
 10
874.8365502588756
 20
335.4335320447725
 30
0.0
 40
1.0041778936
100
AcDbArc
 50
161.9292553365986
 51
179.9335318641998
  0
ARC
  5
A20
330
1F
100
AcDbEntity
  8
BEZUGSACHSEN
  6
Continuous
 62
     9
100
AcDbCircle
 10
897.8281958522757
 20
335.4335320498725
 30
0.0
 40
1.004177864399999
100
AcDbArc
 50
0.0664678458001577
 51
18.07074658230073
  0
ARC
  5
A21
330
1F
100
AcDbEntity
  8
BEZUGSACHSEN
  6
Continuous
 62
     9
100
AcDbCircle
 10
877.8281958522757
 20
335.4335320498725
 30
0.0
 40
1.004177864399999
100
AcDbArc
 50
0.0664678458001577
 51
18.07074658230073
  0
ARC
  5
A22
330
1F
100
AcDbEntity
  8
RUNDUNGEN
  6
Continuous
 62
     7
100
AcDbCircle
 10
918.3323730409757
 20
354.5431849246725
 30
0.0
 40
1.0
100
AcDbArc
 50
0.0
 51
180.0
  0
ARC
  5
A23
330
1F
100
AcDbEntity
  8
0
  6
Continuous
 62
     7
100
AcDbCircle
 10
917.4823730409755
 20
356.3931849246725
 30
0.0
 40
0.15
100
AcDbArc
 50
0.0
 51
90.0
  0
ARC
  5
A24
330
1F
100
AcDbEntity
  8
0
  6
Continuous
 62
     7
100
AcDbCircle
 10
939.8323730409757
 20
375.5431849246725
 30
0.0
 40
10.0
100
AcDbArc
 50
0.0
 51
90.0
  0
ARC
  5
A25
330
1F
100
AcDbEntity
  8
RUNDUNGEN
  6
Continuous
 62
     9
100
AcDbCircle
 10
454.3323734236755
 20
147.3771464227725
 30
0.0
 40
30.00000039050001
100
AcDbArc
 50
180.3248279826
 51
269.999999268998
  0
ARC
  5
A26
330
1F
100
AcDbEntity
  8
RUNDUNGEN
  6
Continuous
 62
     9
100
AcDbCircle
 10
600.3323726581757
 20
147.0369889163725
 30
0.0
 40
30.00000039050001
100
AcDbArc
 50
0.3248279826000648
 51
89.999999268998
  0
ARC
  5
A27
330
1F
100
AcDbEntity
  8
RUNDUNGEN
  6
Continuous
 62
     9
100
AcDbCircle
 10
600.3323730027755
 20
147.3771460648725
 30
0.0
 40
30.0000000326
100
AcDbArc
 50
270.000000072798
 51
359.6751722045999
  0
ARC
  5
A28
330
1F
100
AcDbEntity
  8
RUNDUNGEN
  6
Continuous
 62
     9
100
AcDbCircle
 10
454.3323730790755
 20
147.0369892742725
 30
0.0
 40
30.0000000326
100
AcDbArc
 50
90.00000007279798
 51
179.6751722045999
  0
ARC
  5
A29
330
1F
100
AcDbEntity
  8
RUNDUNGEN
  6
Continuous
 62
     7
100
AcDbCircle
 10
454.3323730409756
 20
147.2070676695725
 30
0.0
 40
27.0
100
AcDbArc
 50
89.99971863439776
 51
270.0003105580013
  0
ARC
  5
A2A
330
1F
100
AcDbEntity
  8
RUNDUNGEN
  6
Continuous
 62
     7
100
AcDbCircle
 10
600.3323730409756
 20
147.2070676695725
 30
0.0
 40
27.0
100
AcDbArc
 50
269.9997186343978
 51
90.00031055800125
  0
ARC
  5
A2B
330
1F
100
AcDbEntity
  8
0
  6
Continuous
 62
     9
100
AcDbCircle
 10
454.3323730409756
 20
147.2070676695725
 30
0.0
 40
17.1
100
AcDbArc
 50
90.0
 51
270.0
  0
ARC
  5
A2C
330
1F
100
AcDbEntity
  8
0
  6
Continuous
 62
     9
100
AcDbCircle
 10
600.3323730409756
 20
147.2070676695725
 30
0.0
 40
17.1
100
AcDbArc
 50
270.0
 51
90.0
  0
ARC
  5
A2D
330
1F
100
AcDbEntity
  8
RUNDUNGEN
  6
Continuous
 62
     7
100
AcDbCircle
 10
115.3323730409756
 20
91.20706766957249
 30
0.0
 40
10.0
100
AcDbArc
 50
180.0
 51
270.0
  0
ARC
  5
A2E
330
1F
100
AcDbEntity
  8
RUNDUNGEN
  6
Continuous
 62
     7
100
AcDbCircle
 10
939.3323730409756
 20
91.20706766957249
 30
0.0
 40
10.0
100
AcDbArc
 50
270.0
 51
0.0
  0
ARC
  5
A2F
330
1F
100
AcDbEntity
  8
0
  6
Continuous
 62
     9
100
AcDbCircle
 10
505.3323730409756
 20
147.2070676695725
 30
0.0
 40
4.769696007099999
100
AcDbArc
 50
134.5653093812037
 51
125.6374560331995
  0
ARC
  5
A30
330
1F
100
AcDbEntity
  8
0
  6
Continuous
 62
     9
100
AcDbCircle
 10
549.3323730409756
 20
147.2070676695725
 30
0.0
 40
4.769696007099999
100
AcDbArc
 50
134.5653093812037
 51
125.6374560331995
  0
ARC
  5
A31
330
1F
100
AcDbEntity
  8
0
  6
Continuous
 62
     9
100
AcDbCircle
 10
505.3323730409756
 20
147.2070676695725
 30
0.0
 40
4.292726406399999
100
AcDbArc
 50
134.5653093812037
 51
126.4728417342963
  0
ARC
  5
A32
330
1F
100
AcDbEntity
  8
0
  6
Continuous
 62
     9
100
AcDbCircle
 10
549.3323730409756
 20
147.2070676695725
 30
0.0
 40
4.292726406399999
100
AcDbArc
 50
134.5653093812037
 51
126.4728417342963
  0
ARC
  5
A33
330
1F
100
AcDbEntity
  8
RUNDUNGEN
  6
Continuous
 62
     7
100
AcDbCircle
 10
505.3321473917758
 20
38.4131192118725
 30
0.0
 40
3.0
100
AcDbArc
 50
180.0
 51
191.6500035256003
  0
ARC
  5
A34
330
1F
100
AcDbEntity
  8
RUNDUNGEN
  6
Continuous
 62
     7
100
AcDbCircle
 10
549.3325986900754
 20
38.4131192118725
 30
0.0
 40
3.0
100
AcDbArc
 50
348.3499964743998
 51
0.0
  0
SPLINE
  5
A35
330
1F
100
AcDbEntity
  8
0
  6
Continuous
 62
     7
100
AcDbSpline
210
0.0
220
0.0
230
1.0
 70
     8
 71
     3
 72
     8
 73
     4
 74
     0
 42
0.000000001
 43
0.0000000001
 40
0.0
 40
0.0
 40
0.0
 40
0.0
 40
1.0
 40
1.0
 40
1.0
 40
1.0
 10
254.8492535162754
 20
335.4442109421725
 30
0.0
 10
255.0086861984755
 20
335.4847419348725
 30
0.0
 10
255.1833326106757
 20
335.4847419348725
 30
0.0
 10
255.3427652928756
 20
335.4442109421725
 30
0.0
  0
SPLINE
  5
A36
330
1F
100
AcDbEntity
  8
0
  6
Continuous
 62
     7
100
AcDbSpline
210
0.0
220
0.0
230
1.0
 70
     8
 71
     3
 72
     8
 73
     4
 74
     0
 42
0.000000001
 43
0.0000000001
 40
0.0
 40
0.0
 40
0.0
 40
0.0
 40
1.0
 40
1.0
 40
1.0
 40
1.0
 10
262.7037989707755
 20
335.4442109421725
 30
0.0
 10
262.8632316529756
 20
335.4847419348725
 30
0.0
 10
263.0378780652754
 20
335.4847419348725
 30
0.0
 10
263.1973107474755
 20
335.4442109421725
 30
0.0
  0
SPLINE
  5
A37
330
1F
100
AcDbEntity
  8
0
  6
Continuous
 62
     7
100
AcDbSpline
210
0.0
220
0.0
230
1.0
 70
     8
 71
     3
 72
     8
 73
     4
 74
     0
 42
0.000000001
 43
0.0000000001
 40
0.0
 40
0.0
 40
0.0
 40
0.0
 40
1.0
 40
1.0
 40
1.0
 40
1.0
 10
270.5583444253757
 20
335.4442109421725
 30
0.0
 10
270.7177771075758
 20
335.4847419348725
 30
0.0
 10
270.8924235197758
 20
335.4847419348725
 30
0.0
 10
271.0518562019756
 20
335.4442109421725
 30
0.0
  0
SPLINE
  5
A38
330
1F
100
AcDbEntity
  8
0
  6
Continuous
 62
     7
100
AcDbSpline
210
0.0
220
0.0
230
1.0
 70
     8
 71
     3
 72
    23
 73
    19
 74
     0
 42
0.000000001
 43
0.0000000001
 40
0.0
 40
0.0
 40
0.0
 40
0.0
 40
0.0036582121
 40
0.0113290881
 40
0.0400990389
 40
0.0863145472
 40
0.1482898633
 40
0.2237168888
 40
0.3097176538
 40
0.5
 40
0.6902823462000001
 40
0.7762831112000002
 40
0.8517101367
 40
0.9136854528
 40
0.9599009610999999
 40
0.9886709119
 40
0.9963417879000001
 40
1.0
 40
1.0
 40
1.0
 40
1.0
 10
860.0823730409755
 20
335.6827279246725
 30
0.0
 10
860.0823730409755
 20
335.6842607203725
 30
0.0
 10
860.0871336290756
 20
335.6875819083725
 30
0.0
 10
860.1023215414757
 20
335.6920474639725
 30
0.0
 10
860.1375210540755
 20
335.6978541765725
 30
0.0
 10
860.1941111365754
 20
335.7032618404724
 30
0.0
 10
860.2711113745757
 20
335.7084203399725
 30
0.0
 10
860.3645470241756
 20
335.7126111187725
 30
0.0
 10
860.5118869026755
 20
335.7169731989725
 30
0.0
 10
860.7073730409757
 20
335.7189763698725
 30
0.0
 10
860.9028591791755
 20
335.7169731989725
 30
0.0
 10
861.0501990576755
 20
335.7126111187725
 30
0.0
 10
861.1436347073754
 20
335.7084203399725
 30
0.0
 10
861.2206349453757
 20
335.7032618404724
 30
0.0
 10
861.2772250277755
 20
335.6978541765725
 30
0.0
 10
861.3124245403755
 20
335.6920474639725
 30
0.0
 10
861.3276124527756
 20
335.6875819083725
 30
0.0
 10
861.3323730409756
 20
335.6842607203725
 30
0.0
 10
861.3323730409756
 20
335.6827279246725
 30
0.0
  0
SPLINE
  5
A39
330
1F
100
AcDbEntity
  8
BEZUGSACHSEN
  6
Continuous
 62
     7
100
AcDbSpline
210
0.0
220
0.0
230
1.0
 70
     8
 71
     3
 72
    29
 73
    25
 74
     0
 42
0.000000001
 43
0.0000000001
 40
0.0
 40
0.0
 40
0.0
 40
0.0
 40
0.0036561834
 40
0.0113186728
 40
0.0234757075
 40
0.0401175972
 40
0.0611270874
 40
0.0863243887
 40
0.148302964
 40
0.2237253554
 40
0.3097206052
 40
0.4030023954
 40
0.5
 40
0.5969976046
 40
0.6902793948000002
 40
0.7762746446
 40
0.8516970359999998
 40
0.9136756113
 40
0.9388729126000001
 40
0.9598824028000001
 40
0.9765242924999999
 40
0.9886813271999999
 40
0.9963438165999999
 40
1.0
 40
1.0
 40
1.0
 40
1.0
 10
828.0323730409755
 20
335.5764289479726
 30
0.0
 10
828.0323730409755
 20
335.5837827115725
 30
0.0
 10
828.0096086223757
 20
335.5998045884725
 30
0.0
 10
827.9671983035758
 20
335.6122145913726
 30
0.0
 10
827.8940291841754
 20
335.6286319350725
 30
0.0
 10
827.7955420181756
 20
335.6432047119725
 30
0.0
 10
827.6697537188756
 20
335.6580887420725
 30
0.0
 10
827.4531754713756
 20
335.6781075451725
 30
0.0
 10
827.1267320986755
 20
335.6996378401725
 30
0.0
 10
826.6778780577755
 20
335.7199036078725
 30
0.0
 10
826.1657918630756
 20
335.7350484380725
 30
0.0
 10
825.6101835525756
 20
335.7444108604725
 30
0.0
 10
825.0323730409755
 20
335.7475760056725
 30
0.0
 10
824.4545625292758
 20
335.7444108604725
 30
0.0
 10
823.8989542187756
 20
335.7350484380725
 30
0.0
 10
823.3868680240755
 20
335.7199036078725
 30
0.0
 10
822.9380139831755
 20
335.6996378401725
 30
0.0
 10
822.6115706104756
 20
335.6781075451725
 30
0.0
 10
822.3949923629755
 20
335.6580887420725
 30
0.0
 10
822.2692040637754
 20
335.6432047119725
 30
0.0
 10
822.1707168976754
 20
335.6286319350725
 30
0.0
 10
822.0975477782756
 20
335.6122145913726
 30
0.0
 10
822.0551374594757
 20
335.5998045884725
 30
0.0
 10
822.0323730409754
 20
335.5837827115725
 30
0.0
 10
822.0323730409754
 20
335.5764289479726
 30
0.0
  0
SPLINE
  5
A3A
330
1F
100
AcDbEntity
  8
0
  6
Continuous
 62
     7
100
AcDbSpline
210
0.0
220
0.0
230
1.0
 70
     8
 71
     3
 72
     8
 73
     4
 74
     0
 42
0.000000001
 43
0.0000000001
 40
0.0
 40
0.0
 40
0.0
 40
0.0
 40
1.0
 40
1.0
 40
1.0
 40
1.0
 10
799.8154925656757
 20
335.4442109421725
 30
0.0
 10
799.6560598833755
 20
335.4847419348725
 30
0.0
 10
799.4814134711755
 20
335.4847419348725
 30
0.0
 10
799.3219807889756
 20
335.4442109421725
 30
0.0
  0
SPLINE
  5
A3B
330
1F
100
AcDbEntity
  8
0
  6
Continuous
 62
     7
100
AcDbSpline
210
0.0
220
0.0
230
1.0
 70
     8
 71
     3
 72
     8
 73
     4
 74
     0
 42
0.000000001
 43
0.0000000001
 40
0.0
 40
0.0
 40
0.0
 40
0.0
 40
1.0
 40
1.0
 40
1.0
 40
1.0
 10
791.9609471110756
 20
335.4442109421725
 30
0.0
 10
791.8015144288756
 20
335.4847419348725
 30
0.0
 10
791.6268680166756
 20
335.4847419348725
 30
0.0
 10
791.4674353343755
 20
335.4442109421725
 30
0.0
  0
SPLINE
  5
A3C
330
1F
100
AcDbEntity
  8
0
  6
Continuous
 62
     7
100
AcDbSpline
210
0.0
220
0.0
230
1.0
 70
     8
 71
     3
 72
     8
 73
     4
 74
     0
 42
0.000000001
 43
0.0000000001
 40
0.0
 40
0.0
 40
0.0
 40
0.0
 40
1.0
 40
1.0
 40
1.0
 40
1.0
 10
784.1064016565756
 20
335.4442109421725
 30
0.0
 10
783.9469689743755
 20
335.4847419348725
 30
0.0
 10
783.7723225620757
 20
335.4847419348725
 30
0.0
 10
783.6128898798756
 20
335.4442109421725
 30
0.0
  0
SPLINE
  5
A3D
330
1F
100
AcDbEntity
  8
BEZUGSACHSEN
  6
Continuous
 62
     7
100
AcDbSpline
210
0.0
220
0.0
230
1.0
 70
     8
 71
     3
 72
    29
 73
    25
 74
     0
 42
0.000000001
 43
0.0000000001
 40
0.0
 40
0.0
 40
0.0
 40
0.0
 40
0.0036562871
 40
0.0113188553
 40
0.0234749074
 40
0.040119465
 40
0.0611260063
 40
0.0863246365
 40
0.1483016966
 40
0.2237245545
 40
0.3097192975
 40
0.4030041862
 40
0.5
 40
0.5969958138
 40
0.6902807025
 40
0.7762754455
 40
0.8516983034
 40
0.9136753634999998
 40
0.9388739937
 40
0.9598805350000001
 40
0.9765250926
 40
0.9886811446999999
 40
0.9963437129
 40
1.0
 40
1.0
 40
1.0
 40
1.0
 10
898.8323730409756
 20
335.7181609168725
 30
0.0
 10
898.8323730409756
 20
335.7242892199725
 30
0.0
 10
898.8133946238756
 20
335.7376342853726
 30
0.0
 10
898.7780599945756
 20
335.7479804296724
 30
0.0
 10
898.7170812984755
 20
335.7616663803725
 30
0.0
 10
898.6350112329756
 20
335.7738058544725
 30
0.0
 10
898.5301862521755
 20
335.7862139321725
 30
0.0
 10
898.3497092877755
 20
335.8028890734725
 30
0.0
 10
898.0776734354757
 20
335.8208367392725
 30
0.0
 10
897.7036313173755
 20
335.8377237948725
 30
0.0
 10
897.2768882066755
 20
335.8503444565725
 30
0.0
 10
896.8138804307754
 20
335.8581445769726
 30
0.0
 10
896.3323730409756
 20
335.8607824097725
 30
0.0
 10
895.8508656510755
 20
335.8581445769726
 30
0.0
 10
895.3878578751755
 20
335.8503444565725
 30
0.0
 10
894.9611147644755
 20
335.8377237948725
 30
0.0
 10
894.5870726463756
 20
335.8208367392725
 30
0.0
 10
894.3150367940758
 20
335.8028890734725
 30
0.0
 10
894.1345598296758
 20
335.7862139321725
 30
0.0
 10
894.0297348489755
 20
335.7738058544725
 30
0.0
 10
893.9476647834755
 20
335.7616663803725
 30
0.0
 10
893.8866860872757
 20
335.7479804296724
 30
0.0
 10
893.8513514579756
 20
335.7376342853726
 30
0.0
 10
893.8323730409756
 20
335.7242892199725
 30
0.0
 10
893.8323730409756
 20
335.7181609168725
 30
0.0
  0
SPLINE
  5
A3E
330
1F
100
AcDbEntity
  8
BEZUGSACHSEN
  6
Continuous
 62
     7
100
AcDbSpline
210
0.0
220
0.0
230
1.0
 70
     8
 71
     3
 72
    29
 73
    25
 74
     0
 42
0.000000001
 43
0.0000000001
 40
0.0
 40
0.0
 40
0.0
 40
0.0
 40
0.0036562871
 40
0.0113188553
 40
0.0234749074
 40
0.040119465
 40
0.0611260063
 40
0.0863246365
 40
0.1483016966
 40
0.2237245545
 40
0.3097192975
 40
0.4030041862
 40
0.5
 40
0.5969958138
 40
0.6902807025
 40
0.7762754455
 40
0.8516983034
 40
0.9136753634999998
 40
0.9388739937
 40
0.9598805350000001
 40
0.9765250926
 40
0.9886811446999999
 40
0.9963437129
 40
1.0
 40
1.0
 40
1.0
 40
1.0
 10
878.8323730409755
 20
335.7181609168725
 30
0.0
 10
878.8323730409755
 20
335.7242892199725
 30
0.0
 10
878.8133946238756
 20
335.7376342853726
 30
0.0
 10
878.7780599945756
 20
335.7479804296724
 30
0.0
 10
878.7170812984754
 20
335.7616663803725
 30
0.0
 10
878.6350112329754
 20
335.7738058544725
 30
0.0
 10
878.5301862521755
 20
335.7862139321725
 30
0.0
 10
878.3497092877755
 20
335.8028890734725
 30
0.0
 10
878.0776734354756
 20
335.8208367392725
 30
0.0
 10
877.7036313173756
 20
335.8377237948725
 30
0.0
 10
877.2768882066754
 20
335.8503444565725
 30
0.0
 10
876.8138804307755
 20
335.8581445769726
 30
0.0
 10
876.3323730409757
 20
335.8607824097725
 30
0.0
 10
875.8508656510754
 20
335.8581445769726
 30
0.0
 10
875.3878578751756
 20
335.8503444565725
 30
0.0
 10
874.9611147644754
 20
335.8377237948725
 30
0.0
 10
874.5870726463756
 20
335.8208367392725
 30
0.0
 10
874.3150367940756
 20
335.8028890734725
 30
0.0
 10
874.1345598296756
 20
335.7862139321725
 30
0.0
 10
874.0297348489756
 20
335.7738058544725
 30
0.0
 10
873.9476647834756
 20
335.7616663803725
 30
0.0
 10
873.8866860872755
 20
335.7479804296724
 30
0.0
 10
873.8513514579755
 20
335.7376342853726
 30
0.0
 10
873.8323730409756
 20
335.7242892199725
 30
0.0
 10
873.8323730409756
 20
335.7181609168725
 30
0.0
  0
SPLINE
  5
A3F
330
1F
100
AcDbEntity
  8
BEZUGSACHSEN
  6
Continuous
 62
     7
100
AcDbSpline
210
0.0
220
0.0
230
1.0
 70
     8
 71
     3
 72
    29
 73
    25
 74
     0
 42
0.000000001
 43
0.0000000001
 40
0.0
 40
0.0
 40
0.0
 40
0.0
 40
0.0036561834
 40
0.0113186728
 40
0.0234757075
 40
0.0401175972
 40
0.0611270874
 40
0.0863243887
 40
0.148302964
 40
0.2237253554
 40
0.3097206052
 40
0.4030023954
 40
0.5
 40
0.5969976046
 40
0.6902793948000002
 40
0.7762746446
 40
0.8516970359999998
 40
0.9136756113
 40
0.9388729126000001
 40
0.9598824028000001
 40
0.9765242924999999
 40
0.9886813271999999
 40
0.9963438165999999
 40
1.0
 40
1.0
 40
1.0
 40
1.0
 10
822.0323730409754
 20
335.5764289479726
 30
0.0
 10
822.0323730409754
 20
335.5690751844725
 30
0.0
 10
822.0551374594757
 20
335.5530533074725
 30
0.0
 10
822.0975477782756
 20
335.5406433045725
 30
0.0
 10
822.1707168976754
 20
335.5242259608725
 30
0.0
 10
822.2692040637754
 20
335.5096531839725
 30
0.0
 10
822.3949923629755
 20
335.4947691538725
 30
0.0
 10
822.6115706104756
 20
335.4747503507725
 30
0.0
 10
822.9380139831755
 20
335.4532200557725
 30
0.0
 10
823.3868680240755
 20
335.4329542880725
 30
0.0
 10
823.8989542187756
 20
335.4178094579725
 30
0.0
 10
824.4545625292758
 20
335.4084470354725
 30
0.0
 10
825.0323730409755
 20
335.4052818902725
 30
0.0
 10
825.6101835525756
 20
335.4084470354725
 30
0.0
 10
826.1657918630756
 20
335.4178094579725
 30
0.0
 10
826.6778780577755
 20
335.4329542880725
 30
0.0
 10
827.1267320986755
 20
335.4532200557725
 30
0.0
 10
827.4531754713756
 20
335.4747503507725
 30
0.0
 10
827.6697537188756
 20
335.4947691538725
 30
0.0
 10
827.7955420181756
 20
335.5096531839725
 30
0.0
 10
827.8940291841754
 20
335.5242259608725
 30
0.0
 10
827.9671983035758
 20
335.5406433045725
 30
0.0
 10
828.0096086223757
 20
335.5530533074725
 30
0.0
 10
828.0323730409755
 20
335.5690751844725
 30
0.0
 10
828.0323730409755
 20
335.5764289479726
 30
0.0
  0
SPLINE
  5
A40
330
1F
100
AcDbEntity
  8
0
  6
Continuous
 62
     7
100
AcDbSpline
210
0.0
220
0.0
230
1.0
 70
     8
 71
     3
 72
     8
 73
     4
 74
     0
 42
0.000000001
 43
0.0000000001
 40
0.0
 40
0.0
 40
0.0
 40
0.0
 40
1.0
 40
1.0
 40
1.0
 40
1.0
 10
799.8154925656757
 20
336.5497202996725
 30
0.0
 10
799.6560598833755
 20
336.5902512922725
 30
0.0
 10
799.4814134711755
 20
336.5902512922725
 30
0.0
 10
799.3219807889756
 20
336.5497202996725
 30
0.0
  0
SPLINE
  5
A41
330
1F
100
AcDbEntity
  8
BEZUGSACHSEN
  6
Continuous
 62
     7
100
AcDbSpline
210
0.0
220
0.0
230
1.0
 70
     8
 71
     3
 72
    29
 73
    25
 74
     0
 42
0.000000001
 43
0.0000000001
 40
0.0
 40
0.0
 40
0.0
 40
0.0
 40
0.0036562871
 40
0.0113188553
 40
0.0234749074
 40
0.040119465
 40
0.0611260063
 40
0.0863246365
 40
0.1483016966
 40
0.2237245545
 40
0.3097192975
 40
0.4030041862
 40
0.5
 40
0.5969958138
 40
0.6902807025
 40
0.7762754455
 40
0.8516983034
 40
0.9136753634999998
 40
0.9388739937
 40
0.9598805350000001
 40
0.9765250926
 40
0.9886811446999999
 40
0.9963437129
 40
1.0
 40
1.0
 40
1.0
 40
1.0
 10
893.8323730409756
 20
335.4346969790725
 30
0.0
 10
893.8323730409756
 20
335.4285686759725
 30
0.0
 10
893.8513514579756
 20
335.4152236105725
 30
0.0
 10
893.8866860872757
 20
335.4048774662725
 30
0.0
 10
893.9476647834755
 20
335.3911915155725
 30
0.0
 10
894.0297348489755
 20
335.3790520414725
 30
0.0
 10
894.1345598296758
 20
335.3666439637725
 30
0.0
 10
894.3150367940758
 20
335.3499688224725
 30
0.0
 10
894.5870726463756
 20
335.3320211566725
 30
0.0
 10
894.9611147644755
 20
335.3151341010725
 30
0.0
 10
895.3878578751755
 20
335.3025134393725
 30
0.0
 10
895.8508656510755
 20
335.2947133189725
 30
0.0
 10
896.3323730409756
 20
335.2920754861725
 30
0.0
 10
896.8138804307754
 20
335.2947133189725
 30
0.0
 10
897.2768882066755
 20
335.3025134393725
 30
0.0
 10
897.7036313173755
 20
335.3151341010725
 30
0.0
 10
898.0776734354757
 20
335.3320211566725
 30
0.0
 10
898.3497092877755
 20
335.3499688224725
 30
0.0
 10
898.5301862521755
 20
335.3666439637725
 30
0.0
 10
898.6350112329756
 20
335.3790520414725
 30
0.0
 10
898.7170812984755
 20
335.3911915155725
 30
0.0
 10
898.7780599945756
 20
335.4048774662725
 30
0.0
 10
898.8133946238756
 20
335.4152236105725
 30
0.0
 10
898.8323730409756
 20
335.4285686759725
 30
0.0
 10
898.8323730409756
 20
335.4346969790725
 30
0.0
  0
SPLINE
  5
A42
330
1F
100
AcDbEntity
  8
0
  6
Continuous
 62
     7
100
AcDbSpline
210
0.0
220
0.0
230
1.0
 70
     8
 71
     3
 72
    23
 73
    19
 74
     0
 42
0.000000001
 43
0.0000000001
 40
0.0
 40
0.0
 40
0.0
 40
0.0
 40
0.0036582121
 40
0.0113290881
 40
0.0400990389
 40
0.0863145472
 40
0.1482898633
 40
0.2237168888
 40
0.3097176538
 40
0.5
 40
0.6902823462000001
 40
0.7762831112000002
 40
0.8517101367
 40
0.9136854528
 40
0.9599009610999999
 40
0.9886709119
 40
0.9963417879000001
 40
1.0
 40
1.0
 40
1.0
 40
1.0
 10
861.3323730409756
 20
335.4701299712725
 30
0.0
 10
861.3323730409756
 20
335.4685971755725
 30
0.0
 10
861.3276124527756
 20
335.4652759875725
 30
0.0
 10
861.3124245403755
 20
335.4608104319725
 30
0.0
 10
861.2772250277755
 20
335.4550037193725
 30
0.0
 10
861.2206349453757
 20
335.4495960554725
 30
0.0
 10
861.1436347073754
 20
335.4444375559725
 30
0.0
 10
861.0501990576755
 20
335.4402467771725
 30
0.0
 10
860.9028591791755
 20
335.4358846969725
 30
0.0
 10
860.7073730409757
 20
335.4338815260725
 30
0.0
 10
860.5118869026755
 20
335.4358846969725
 30
0.0
 10
860.3645470241756
 20
335.4402467771725
 30
0.0
 10
860.2711113745757
 20
335.4444375559725
 30
0.0
 10
860.1941111365754
 20
335.4495960554725
 30
0.0
 10
860.1375210540755
 20
335.4550037193725
 30
0.0
 10
860.1023215414757
 20
335.4608104319725
 30
0.0
 10
860.0871336290756
 20
335.4652759875725
 30
0.0
 10
860.0823730409755
 20
335.4685971755725
 30
0.0
 10
860.0823730409755
 20
335.4701299712725
 30
0.0
  0
SPLINE
  5
A43
330
1F
100
AcDbEntity
  8
0
  6
Continuous
 62
     7
100
AcDbSpline
210
0.0
220
0.0
230
1.0
 70
     8
 71
     3
 72
     8
 73
     4
 74
     0
 42
0.000000001
 43
0.0000000001
 40
0.0
 40
0.0
 40
0.0
 40
0.0
 40
1.0
 40
1.0
 40
1.0
 40
1.0
 10
791.9609471110756
 20
336.5497202996725
 30
0.0
 10
791.8015144288756
 20
336.5902512922725
 30
0.0
 10
791.6268680166756
 20
336.5902512922725
 30
0.0
 10
791.4674353343755
 20
336.5497202996725
 30
0.0
  0
SPLINE
  5
A44
330
1F
100
AcDbEntity
  8
BEZUGSACHSEN
  6
Continuous
 62
     7
100
AcDbSpline
210
0.0
220
0.0
230
1.0
 70
     8
 71
     3
 72
    29
 73
    25
 74
     0
 42
0.000000001
 43
0.0000000001
 40
0.0
 40
0.0
 40
0.0
 40
0.0
 40
0.0036562871
 40
0.0113188553
 40
0.0234749074
 40
0.040119465
 40
0.0611260063
 40
0.0863246365
 40
0.1483016966
 40
0.2237245545
 40
0.3097192975
 40
0.4030041862
 40
0.5
 40
0.5969958138
 40
0.6902807025
 40
0.7762754455
 40
0.8516983034
 40
0.9136753634999998
 40
0.9388739937
 40
0.9598805350000001
 40
0.9765250926
 40
0.9886811446999999
 40
0.9963437129
 40
1.0
 40
1.0
 40
1.0
 40
1.0
 10
873.8323730409756
 20
335.4346969790725
 30
0.0
 10
873.8323730409756
 20
335.4285686759725
 30
0.0
 10
873.8513514579755
 20
335.4152236105725
 30
0.0
 10
873.8866860872755
 20
335.4048774662725
 30
0.0
 10
873.9476647834756
 20
335.3911915155725
 30
0.0
 10
874.0297348489756
 20
335.3790520414725
 30
0.0
 10
874.1345598296756
 20
335.3666439637725
 30
0.0
 10
874.3150367940756
 20
335.3499688224725
 30
0.0
 10
874.5870726463756
 20
335.3320211566725
 30
0.0
 10
874.9611147644754
 20
335.3151341010725
 30
0.0
 10
875.3878578751756
 20
335.3025134393725
 30
0.0
 10
875.8508656510754
 20
335.2947133189725
 30
0.0
 10
876.3323730409757
 20
335.2920754861725
 30
0.0
 10
876.8138804307755
 20
335.2947133189725
 30
0.0
 10
877.2768882066754
 20
335.3025134393725
 30
0.0
 10
877.7036313173756
 20
335.3151341010725
 30
0.0
 10
878.0776734354756
 20
335.3320211566725
 30
0.0
 10
878.3497092877755
 20
335.3499688224725
 30
0.0
 10
878.5301862521755
 20
335.3666439637725
 30
0.0
 10
878.6350112329754
 20
335.3790520414725
 30
0.0
 10
878.7170812984754
 20
335.3911915155725
 30
0.0
 10
878.7780599945756
 20
335.4048774662725
 30
0.0
 10
878.8133946238756
 20
335.4152236105725
 30
0.0
 10
878.8323730409755
 20
335.4285686759725
 30
0.0
 10
878.8323730409755
 20
335.4346969790725
 30
0.0
  0
SPLINE
  5
A45
330
1F
100
AcDbEntity
  8
0
  6
Continuous
 62
     7
100
AcDbSpline
210
0.0
220
0.0
230
1.0
 70
     8
 71
     3
 72
     8
 73
     4
 74
     0
 42
0.000000001
 43
0.0000000001
 40
0.0
 40
0.0
 40
0.0
 40
0.0
 40
1.0
 40
1.0
 40
1.0
 40
1.0
 10
784.1064016565756
 20
336.5497202996725
 30
0.0
 10
783.9469689743755
 20
336.5902512922725
 30
0.0
 10
783.7723225620757
 20
336.5902512922725
 30
0.0
 10
783.6128898798756
 20
336.5497202996725
 30
0.0
  0
SPLINE
  5
A46
330
1F
100
AcDbEntity
  8
0
  6
Continuous
 62
     7
100
AcDbSpline
210
0.0
220
0.0
230
1.0
 70
     8
 71
     3
 72
    10
 73
     6
 74
     0
 42
0.000000001
 43
0.0000000001
 40
0.0
 40
0.0
 40
0.0
 40
0.0
 40
0.498943255
 40
0.7503616529000002
 40
1.0
 40
1.0
 40
1.0
 40
1.0
 10
137.1823730409755
 20
356.5431849246725
 30
0.0
 10
137.2170540265754
 20
356.5431849246725
 30
0.0
 10
137.2715993904755
 20
356.5284406444725
 30
0.0
 10
137.3214695995757
 20
356.4777079645725
 30
0.0
 10
137.3323730409756
 20
356.4424587537725
 30
0.0
 10
137.3323730409756
 20
356.4251066724725
 30
0.0
  0
SPLINE
  5
A47
330
1F
100
AcDbEntity
  8
0
  6
Continuous
 62
     7
100
AcDbSpline
210
0.0
220
0.0
230
1.0
 70
     8
 71
     3
 72
    10
 73
     6
 74
     0
 42
0.000000001
 43
0.0000000001
 40
0.0
 40
0.0
 40
0.0
 40
0.0
 40
0.498943255
 40
0.7503616529000002
 40
1.0
 40
1.0
 40
1.0
 40
1.0
 10
917.4823730409755
 20
356.5431849246725
 30
0.0
 10
917.4476920552756
 20
356.5431849246725
 30
0.0
 10
917.3931466913755
 20
356.5284406444725
 30
0.0
 10
917.3432764822756
 20
356.4777079645725
 30
0.0
 10
917.3323730409757
 20
356.4424587537725
 30
0.0
 10
917.3323730409757
 20
356.4251066724725
 30
0.0
  0
SPLINE
  5
A48
330
1F
100
AcDbEntity
  8
0
  6
Continuous
 62
     3
100
AcDbSpline
210
0.0
220
0.0
230
1.0
 70
     8
 71
     3
 72
     8
 73
     4
 74
     0
 42
0.000000001
 43
0.0000000001
 40
0.0
 40
0.0
 40
0.0
 40
0.0
 40
1.0
 40
1.0
 40
1.0
 40
1.0
 10
258.7765262434755
 20
336.7070386242725
 30
0.0
 10
258.9359589257756
 20
336.6665076316725
 30
0.0
 10
259.1106053379756
 20
336.6665076316725
 30
0.0
 10
259.2700380201754
 20
336.7070386242725
 30
0.0
  0
SPLINE
  5
A49
330
1F
100
AcDbEntity
  8
0
  6
Continuous
 62
     3
100
AcDbSpline
210
0.0
220
0.0
230
1.0
 70
     8
 71
     3
 72
     8
 73
     4
 74
     0
 42
0.000000001
 43
0.0000000001
 40
0.0
 40
0.0
 40
0.0
 40
0.0
 40
1.0
 40
1.0
 40
1.0
 40
1.0
 10
266.6310716980756
 20
336.7070386242725
 30
0.0
 10
266.7905043802755
 20
336.6665076316725
 30
0.0
 10
266.9651507924755
 20
336.6665076316725
 30
0.0
 10
267.1245834747756
 20
336.7070386242725
 30
0.0
  0
SPLINE
  5
A4A
330
1F
100
AcDbEntity
  8
BEZUGSACHSEN
  6
Continuous
 62
     3
100
AcDbSpline
210
0.0
220
0.0
230
1.0
 70
     8
 71
     3
 72
    29
 73
    25
 74
     0
 42
0.000000001
 43
0.0000000001
 40
0.0
 40
0.0
 40
0.0
 40
0.0
 40
0.0036561834
 40
0.0113186728
 40
0.0234757075
 40
0.0401175972
 40
0.0611270874
 40
0.0863243887
 40
0.148302964
 40
0.2237253554
 40
0.3097206052
 40
0.4030023954
 40
0.5
 40
0.5969976046
 40
0.6902793948000002
 40
0.7762746446
 40
0.8516970359999998
 40
0.9136756113
 40
0.9388729126000001
 40
0.9598824028000001
 40
0.9765242924999999
 40
0.9886813271999999
 40
0.9963438165999999
 40
1.0
 40
1.0
 40
1.0
 40
1.0
 10
232.6323730409758
 20
336.5748206185725
 30
0.0
 10
232.6323730409758
 20
336.5674668549725
 30
0.0
 10
232.6096086223756
 20
336.5514449780725
 30
0.0
 10
232.5671983035754
 20
336.5390349751725
 30
0.0
 10
232.4940291841754
 20
336.5226176313725
 30
0.0
 10
232.3955420181755
 20
336.5080448544725
 30
0.0
 10
232.2697537188755
 20
336.4931608243725
 30
0.0
 10
232.0531754713757
 20
336.4731420212724
 30
0.0
 10
231.7267320986757
 20
336.4516117262725
 30
0.0
 10
231.2778780577755
 20
336.4313459586725
 30
0.0
 10
230.7657918630757
 20
336.4162011284725
 30
0.0
 10
230.2101835525755
 20
336.4068387060726
 30
0.0
 10
229.6323730409759
 20
336.4036735607725
 30
0.0
 10
229.0545625292757
 20
336.4068387060726
 30
0.0
 10
228.4989542187755
 20
336.4162011284725
 30
0.0
 10
227.9868680240757
 20
336.4313459586725
 30
0.0
 10
227.5380139831759
 20
336.4516117262725
 30
0.0
 10
227.2115706104755
 20
336.4731420212724
 30
0.0
 10
226.9949923629756
 20
336.4931608243725
 30
0.0
 10
226.8692040637757
 20
336.5080448544725
 30
0.0
 10
226.7707168976756
 20
336.5226176313725
 30
0.0
 10
226.6975477782755
 20
336.5390349751725
 30
0.0
 10
226.6551374594755
 20
336.5514449780725
 30
0.0
 10
226.6323730409756
 20
336.5674668549725
 30
0.0
 10
226.6323730409756
 20
336.5748206185725
 30
0.0
  0
SPLINE
  5
A4B
330
1F
100
AcDbEntity
  8
BEZUGSACHSEN
  6
Continuous
 62
     3
100
AcDbSpline
210
0.0
220
0.0
230
1.0
 70
     8
 71
     3
 72
     9
 73
     5
 74
     0
 42
0.000000001
 43
0.0000000001
 40
0.0
 40
0.0
 40
0.0
 40
0.0
 40
0.5020157287
 40
1.0
 40
1.0
 40
1.0
 40
1.0
 10
155.1020596236756
 20
336.7225597892725
 30
0.0
 10
155.2020189482755
 20
336.8953230417725
 30
0.0
 10
155.4542194919756
 20
337.2114120507725
 30
0.0
 10
155.7881012401758
 20
337.4389796211725
 30
0.0
 10
155.9660751248757
 20
337.5257379985725
 30
0.0
  0
SPLINE
  5
A4C
330
1F
100
AcDbEntity
  8
BEZUGSACHSEN
  6
Continuous
 62
     3
100
AcDbSpline
210
0.0
220
0.0
230
1.0
 70
     8
 71
     3
 72
     9
 73
     5
 74
     0
 42
0.000000001
 43
0.0000000001
 40
0.0
 40
0.0
 40
0.0
 40
0.0
 40
0.4979350155
 40
1.0
 40
1.0
 40
1.0
 40
1.0
 10
160.6989067980757
 20
337.5256457862725
 30
0.0
 10
160.8768023799755
 20
337.4388645133726
 30
0.0
 10
161.2106013034754
 20
337.2113418163725
 30
0.0
 10
161.4627379087756
 20
336.8953044186725
 30
0.0
 10
161.5626864581759
 20
336.7225597892725
 30
0.0
  0
SPLINE
  5
A4D
330
1F
100
AcDbEntity
  8
BEZUGSACHSEN
  6
Continuous
 62
     3
100
AcDbSpline
210
0.0
220
0.0
230
1.0
 70
     8
 71
     3
 72
     9
 73
     5
 74
     0
 42
0.000000001
 43
0.0000000001
 40
0.0
 40
0.0
 40
0.0
 40
0.0
 40
0.5020157287
 40
1.0
 40
1.0
 40
1.0
 40
1.0
 10
175.1020596236756
 20
336.7225597892725
 30
0.0
 10
175.2020189483755
 20
336.8953230418725
 30
0.0
 10
175.4542194922755
 20
337.2114120511725
 30
0.0
 10
175.7881012407756
 20
337.4389796215725
 30
0.0
 10
175.9660751255756
 20
337.5257379988725
 30
0.0
  0
SPLINE
  5
A4E
330
1F
100
AcDbEntity
  8
BEZUGSACHSEN
  6
Continuous
 62
     3
100
AcDbSpline
210
0.0
220
0.0
230
1.0
 70
     8
 71
     3
 72
     9
 73
     5
 74
     0
 42
0.000000001
 43
0.0000000001
 40
0.0
 40
0.0
 40
0.0
 40
0.0
 40
0.4979350155
 40
1.0
 40
1.0
 40
1.0
 40
1.0
 10
180.6989067973757
 20
337.5256457865725
 30
0.0
 10
180.8768023794757
 20
337.4388645137725
 30
0.0
 10
181.2106013032755
 20
337.2113418166725
 30
0.0
 10
181.4627379086755
 20
336.8953044187725
 30
0.0
 10
181.5626864581754
 20
336.7225597892725
 30
0.0
  0
SPLINE
  5
A4F
330
1F
100
AcDbEntity
  8
0
  6
Continuous
 62
     3
100
AcDbSpline
210
0.0
220
0.0
230
1.0
 70
     8
 71
     3
 72
    23
 73
    19
 74
     0
 42
0.000000001
 43
0.0000000001
 40
0.0
 40
0.0
 40
0.0
 40
0.0
 40
0.0036582121
 40
0.0113290881
 40
0.0400990389
 40
0.0863145472
 40
0.1482898633
 40
0.2237168888
 40
0.3097176538
 40
0.5
 40
0.6902823462000001
 40
0.7762831112000002
 40
0.8517101367
 40
0.9136854528
 40
0.9599009610999999
 40
0.9886709119
 40
0.9963417879000001
 40
1.0
 40
1.0
 40
1.0
 40
1.0
 10
193.3323730409756
 20
336.4685216418725
 30
0.0
 10
193.3323730409756
 20
336.4669888461725
 30
0.0
 10
193.3371336290756
 20
336.4636676580725
 30
0.0
 10
193.3523215414757
 20
336.4592021025725
 30
0.0
 10
193.3875210540757
 20
336.4533953899725
 30
0.0
 10
193.4441111365754
 20
336.4479877260725
 30
0.0
 10
193.5211113745758
 20
336.4428292264725
 30
0.0
 10
193.6145470241754
 20
336.4386384476725
 30
0.0
 10
193.7618869026755
 20
336.4342763674725
 30
0.0
 10
193.9573730409756
 20
336.4322731965725
 30
0.0
 10
194.1528591791755
 20
336.4342763674725
 30
0.0
 10
194.3001990576754
 20
336.4386384476725
 30
0.0
 10
194.3936347073754
 20
336.4428292264725
 30
0.0
 10
194.4706349453759
 20
336.4479877260725
 30
0.0
 10
194.5272250277758
 20
336.4533953899725
 30
0.0
 10
194.5624245403755
 20
336.4592021025725
 30
0.0
 10
194.5776124527756
 20
336.4636676580725
 30
0.0
 10
194.5823730409756
 20
336.4669888461725
 30
0.0
 10
194.5823730409756
 20
336.4685216418725
 30
0.0
  0
SPLINE
  5
A50
330
1F
100
AcDbEntity
  8
BEZUGSACHSEN
  6
Continuous
 62
     3
100
AcDbSpline
210
0.0
220
0.0
230
1.0
 70
     8
 71
     3
 72
    29
 73
    25
 74
     0
 42
0.000000001
 43
0.0000000001
 40
0.0
 40
0.0
 40
0.0
 40
0.0
 40
0.0036561834
 40
0.0113186728
 40
0.0234757075
 40
0.0401175972
 40
0.0611270874
 40
0.0863243887
 40
0.148302964
 40
0.2237253554
 40
0.3097206052
 40
0.4030023954
 40
0.5
 40
0.5969976046
 40
0.6902793948000002
 40
0.7762746446
 40
0.8516970359999998
 40
0.9136756113
 40
0.9388729126000001
 40
0.9598824028000001
 40
0.9765242924999999
 40
0.9886813271999999
 40
0.9963438165999999
 40
1.0
 40
1.0
 40
1.0
 40
1.0
 10
226.6323730409756
 20
336.5748206185725
 30
0.0
 10
226.6323730409756
 20
336.5821743820725
 30
0.0
 10
226.6551374594755
 20
336.5981962589725
 30
0.0
 10
226.6975477782755
 20
336.6106062618725
 30
0.0
 10
226.7707168976756
 20
336.6270236056725
 30
0.0
 10
226.8692040637757
 20
336.6415963825725
 30
0.0
 10
226.9949923629756
 20
336.6564804126725
 30
0.0
 10
227.2115706104755
 20
336.6764992157725
 30
0.0
 10
227.5380139831759
 20
336.6980295107725
 30
0.0
 10
227.9868680240757
 20
336.7182952784725
 30
0.0
 10
228.4989542187755
 20
336.7334401085725
 30
0.0
 10
229.0545625292757
 20
336.7428025310725
 30
0.0
 10
229.6323730409759
 20
336.7459676762725
 30
0.0
 10
230.2101835525755
 20
336.7428025310725
 30
0.0
 10
230.7657918630757
 20
336.7334401085725
 30
0.0
 10
231.2778780577755
 20
336.7182952784725
 30
0.0
 10
231.7267320986757
 20
336.6980295107725
 30
0.0
 10
232.0531754713757
 20
336.6764992157725
 30
0.0
 10
232.2697537188755
 20
336.6564804126725
 30
0.0
 10
232.3955420181755
 20
336.6415963825725
 30
0.0
 10
232.4940291841754
 20
336.6270236056725
 30
0.0
 10
232.5671983035754
 20
336.6106062618725
 30
0.0
 10
232.6096086223756
 20
336.5981962589725
 30
0.0
 10
232.6323730409758
 20
336.5821743820725
 30
0.0
 10
232.6323730409758
 20
336.5748206185725
 30
0.0
  0
SPLINE
  5
A51
330
1F
100
AcDbEntity
  8
0
  6
Continuous
 62
     3
100
AcDbSpline
210
0.0
220
0.0
230
1.0
 70
     8
 71
     3
 72
     8
 73
     4
 74
     0
 42
0.000000001
 43
0.0000000001
 40
0.0
 40
0.0
 40
0.0
 40
0.0
 40
1.0
 40
1.0
 40
1.0
 40
1.0
 10
258.7765262434755
 20
335.6015292668725
 30
0.0
 10
258.9359589257756
 20
335.5609982741725
 30
0.0
 10
259.1106053379756
 20
335.5609982741725
 30
0.0
 10
259.2700380201754
 20
335.6015292668725
 30
0.0
  0
SPLINE
  5
A52
330
1F
100
AcDbEntity
  8
0
  6
Continuous
 62
     3
100
AcDbSpline
210
0.0
220
0.0
230
1.0
 70
     8
 71
     3
 72
     8
 73
     4
 74
     0
 42
0.000000001
 43
0.0000000001
 40
0.0
 40
0.0
 40
0.0
 40
0.0
 40
1.0
 40
1.0
 40
1.0
 40
1.0
 10
266.6310716980756
 20
335.6015292668725
 30
0.0
 10
266.7905043802755
 20
335.5609982741725
 30
0.0
 10
266.9651507924755
 20
335.5609982741725
 30
0.0
 10
267.1245834747756
 20
335.6015292668725
 30
0.0
  0
SPLINE
  5
A53
330
1F
100
AcDbEntity
  8
BEZUGSACHSEN
  6
Continuous
 62
     3
100
AcDbSpline
210
0.0
220
0.0
230
1.0
 70
     8
 71
     3
 72
    29
 73
    25
 74
     0
 42
0.000000001
 43
0.0000000001
 40
0.0
 40
0.0
 40
0.0
 40
0.0
 40
0.003656186
 40
0.0113186246
 40
0.0234754393
 40
0.0401170575
 40
0.0611265811
 40
0.0863239488
 40
0.148301888
 40
0.223724245
 40
0.3097200002
 40
0.4030015526
 40
0.5
 40
0.5969984474000001
 40
0.6902799998
 40
0.776275755
 40
0.851698112
 40
0.9136760512
 40
0.9388734188999999
 40
0.9598829424999999
 40
0.9765245606999998
 40
0.9886813754000002
 40
0.996343814
 40
1.0
 40
1.0
 40
1.0
 40
1.0
 10
161.5644238484756
 20
336.4330886496725
 30
0.0
 10
161.5644238484756
 20
336.4251660648725
 30
0.0
 10
161.5398986513755
 20
336.4079049996725
 30
0.0
 10
161.4942084700756
 20
336.3945351271725
 30
0.0
 10
161.4153808985756
 20
336.3768480107725
 30
0.0
 10
161.3092767187754
 20
336.3611480332725
 30
0.0
 10
161.1737590093755
 20
336.3451129150725
 30
0.0
 10
160.9404295562758
 20
336.3235455615725
 30
0.0
 10
160.5887370247756
 20
336.3003496483725
 30
0.0
 10
160.1051643496753
 20
336.2785165905725
 30
0.0
 10
159.5534676578759
 20
336.2621999132725
 30
0.0
 10
158.9548804867754
 20
336.2521133796725
 30
0.0
 10
158.3323730409756
 20
336.2487032693725
 30
0.0
 10
157.7098655950758
 20
336.2521133796725
 30
0.0
 10
157.1112784239756
 20
336.2621999132725
 30
0.0
 10
156.5595817321755
 20
336.2785165905725
 30
0.0
 10
156.0760090570757
 20
336.3003496483725
 30
0.0
 10
155.7243165255759
 20
336.3235455615725
 30
0.0
 10
155.4909870724755
 20
336.3451129150725
 30
0.0
 10
155.3554693631759
 20
336.3611480332725
 30
0.0
 10
155.2493651832756
 20
336.3768480107725
 30
0.0
 10
155.1705376118752
 20
336.3945351271725
 30
0.0
 10
155.1248474304757
 20
336.4079049996725
 30
0.0
 10
155.1003222333756
 20
336.4251660648725
 30
0.0
 10
155.1003222333756
 20
336.4330886496725
 30
0.0
  0
SPLINE
  5
A54
330
1F
100
AcDbEntity
  8
BEZUGSACHSEN
  6
Continuous
 62
     3
100
AcDbSpline
210
0.0
220
0.0
230
1.0
 70
     8
 71
     3
 72
    29
 73
    25
 74
     0
 42
0.000000001
 43
0.0000000001
 40
0.0
 40
0.0
 40
0.0
 40
0.0
 40
0.003656186
 40
0.0113186246
 40
0.0234754393
 40
0.0401170575
 40
0.0611265811
 40
0.0863239488
 40
0.148301888
 40
0.223724245
 40
0.3097200002
 40
0.4030015526
 40
0.5
 40
0.5969984474000001
 40
0.6902799998
 40
0.776275755
 40
0.851698112
 40
0.9136760512
 40
0.9388734188999999
 40
0.9598829424999999
 40
0.9765245606999998
 40
0.9886813754000002
 40
0.996343814
 40
1.0
 40
1.0
 40
1.0
 40
1.0
 10
181.5644238484756
 20
336.4330886496725
 30
0.0
 10
181.5644238484756
 20
336.4251660648725
 30
0.0
 10
181.5398986513755
 20
336.4079049996725
 30
0.0
 10
181.4942084700758
 20
336.3945351271725
 30
0.0
 10
181.4153808985756
 20
336.3768480107725
 30
0.0
 10
181.3092767187754
 20
336.3611480332725
 30
0.0
 10
181.1737590093755
 20
336.3451129150725
 30
0.0
 10
180.9404295562758
 20
336.3235455615725
 30
0.0
 10
180.5887370247756
 20
336.3003496483725
 30
0.0
 10
180.1051643496755
 20
336.2785165905725
 30
0.0
 10
179.5534676578754
 20
336.2621999132725
 30
0.0
 10
178.9548804867759
 20
336.2521133796725
 30
0.0
 10
178.3323730409756
 20
336.2487032693725
 30
0.0
 10
177.7098655950756
 20
336.2521133796725
 30
0.0
 10
177.1112784239758
 20
336.2621999132725
 30
0.0
 10
176.5595817321755
 20
336.2785165905725
 30
0.0
 10
176.0760090570756
 20
336.3003496483725
 30
0.0
 10
175.7243165255756
 20
336.3235455615725
 30
0.0
 10
175.4909870724755
 20
336.3451129150725
 30
0.0
 10
175.3554693631756
 20
336.3611480332725
 30
0.0
 10
175.2493651832756
 20
336.3768480107725
 30
0.0
 10
175.1705376118755
 20
336.3945351271725
 30
0.0
 10
175.1248474304757
 20
336.4079049996725
 30
0.0
 10
175.1003222333756
 20
336.4251660648725
 30
0.0
 10
175.1003222333756
 20
336.4330886496725
 30
0.0
  0
SPLINE
  5
A55
330
1F
100
AcDbEntity
  8
0
  6
Continuous
 62
     3
100
AcDbSpline
210
0.0
220
0.0
230
1.0
 70
     8
 71
     3
 72
    23
 73
    19
 74
     0
 42
0.000000001
 43
0.0000000001
 40
0.0
 40
0.0
 40
0.0
 40
0.0
 40
0.0036582121
 40
0.0113290881
 40
0.0400990389
 40
0.0863145472
 40
0.1482898633
 40
0.2237168888
 40
0.3097176538
 40
0.5
 40
0.6902823462000001
 40
0.7762831112000002
 40
0.8517101367
 40
0.9136854528
 40
0.9599009610999999
 40
0.9886709119
 40
0.9963417879000001
 40
1.0
 40
1.0
 40
1.0
 40
1.0
 10
194.5823730409756
 20
336.6811195951725
 30
0.0
 10
194.5823730409756
 20
336.6826523908725
 30
0.0
 10
194.5776124527756
 20
336.6859735789725
 30
0.0
 10
194.5624245403755
 20
336.6904391344725
 30
0.0
 10
194.5272250277758
 20
336.6962458470725
 30
0.0
 10
194.4706349453759
 20
336.7016535110725
 30
0.0
 10
194.3936347073754
 20
336.7068120105725
 30
0.0
 10
194.3001990576754
 20
336.7110027893725
 30
0.0
 10
194.1528591791755
 20
336.7153648695725
 30
0.0
 10
193.9573730409756
 20
336.7173680404725
 30
0.0
 10
193.7618869026755
 20
336.7153648695725
 30
0.0
 10
193.6145470241754
 20
336.7110027893725
 30
0.0
 10
193.5211113745758
 20
336.7068120105725
 30
0.0
 10
193.4441111365754
 20
336.7016535110725
 30
0.0
 10
193.3875210540757
 20
336.6962458470725
 30
0.0
 10
193.3523215414757
 20
336.6904391344725
 30
0.0
 10
193.3371336290756
 20
336.6859735789725
 30
0.0
 10
193.3323730409756
 20
336.6826523908725
 30
0.0
 10
193.3323730409756
 20
336.6811195951725
 30
0.0
  0
SPLINE
  5
A56
330
1F
100
AcDbEntity
  8
BEZUGSACHSEN
  6
Continuous
 62
     9
100
AcDbSpline
210
0.0
220
0.0
230
1.0
 70
     8
 71
     3
 72
    27
 73
    23
 74
     0
 42
0.000000001
 43
0.0000000001
 40
0.0
 40
0.0
 40
0.0
 40
0.0
 40
0.0036561991
 40
0.0113184899
 40
0.023474122
 40
0.0401179409
 40
0.0863202219
 40
0.148297262
 40
0.223719385
 40
0.3097168377
 40
0.4030008657
 40
0.4999992756000001
 40
0.5969977612
 40
0.6902819859
 40
0.77627969
 40
0.8517020650999999
 40
0.9136793104999998
 40
0.9598817647
 40
0.9765257018999999
 40
0.988681388
 40
0.9963437622
 40
1.0
 40
1.0
 40
1.0
 40
1.0
 10
176.8323730409754
 20
337.4314803201725
 30
0.0
 10
176.8323730409754
 20
337.4278034529725
 30
0.0
 10
176.8437591409758
 20
337.4197963736725
 30
0.0
 10
176.8649600612757
 20
337.4135888399725
 30
0.0
 10
176.9015398676756
 20
337.4053782984725
 30
0.0
 10
176.9757399233756
 20
337.3944035786725
 30
0.0
 10
177.1010261767758
 20
337.3820175414725
 30
0.0
 10
177.2851328271754
 20
337.3698815095725
 30
0.0
 10
177.5096295716755
 20
337.3597407307725
 30
0.0
 10
177.7656514607756
 20
337.3521711029725
 30
0.0
 10
178.0434655733756
 20
337.3474897345725
 30
0.0
 10
178.3323709102756
 20
337.3459077950725
 30
0.0
 10
178.6212764451757
 20
337.3474896954725
 30
0.0
 10
178.8990910853758
 20
337.3521710275725
 30
0.0
 10
179.1551136791754
 20
337.3597406192725
 30
0.0
 10
179.3796111401757
 20
337.3698813867725
 30
0.0
 10
179.5637184194756
 20
337.3820174173725
 30
0.0
 10
179.6890051879754
 20
337.3944034791725
 30
0.0
 10
179.7632055763756
 20
337.4053781525725
 30
0.0
 10
179.7997856772756
 20
337.4135887733725
 30
0.0
 10
179.8209866631757
 20
337.4197963779725
 30
0.0
 10
179.8323730409756
 20
337.4278034139725
 30
0.0
 10
179.8323730409756
 20
337.4314803201725
 30
0.0
  0
SPLINE
  5
A57
330
1F
100
AcDbEntity
  8
BEZUGSACHSEN
  6
Continuous
 62
     3
100
AcDbSpline
210
0.0
220
0.0
230
1.0
 70
     8
 71
     3
 72
     9
 73
     5
 74
     0
 42
0.000000001
 43
0.0000000001
 40
0.0
 40
0.0
 40
0.0
 40
0.0
 40
0.5
 40
1.0
 40
1.0
 40
1.0
 40
1.0
 10
178.8390880857755
 20
337.5243376174725
 30
0.0
 10
178.6702565907758
 20
337.5187142949725
 30
0.0
 10
178.3323730411757
 20
337.5143247081725
 30
0.0
 10
177.9944894916755
 20
337.5187142948725
 30
0.0
 10
177.8256579966755
 20
337.5243376174725
 30
0.0
  0
SPLINE
  5
A58
330
1F
100
AcDbEntity
  8
BEZUGSACHSEN
  6
Continuous
 62
     9
100
AcDbSpline
210
0.0
220
0.0
230
1.0
 70
     8
 71
     3
 72
    27
 73
    23
 74
     0
 42
0.000000001
 43
0.0000000001
 40
0.0
 40
0.0
 40
0.0
 40
0.0
 40
0.0036561991
 40
0.0113184899
 40
0.023474122
 40
0.0401179409
 40
0.0863202219
 40
0.148297262
 40
0.223719385
 40
0.3097168377
 40
0.4030008657
 40
0.4999992756000001
 40
0.5969977612
 40
0.6902819859
 40
0.77627969
 40
0.8517020650999999
 40
0.9136793104999998
 40
0.9598817647
 40
0.9765257018999999
 40
0.988681388
 40
0.9963437622
 40
1.0
 40
1.0
 40
1.0
 40
1.0
 10
156.8323730409756
 20
337.4314803201725
 30
0.0
 10
156.8323730409756
 20
337.4278034529725
 30
0.0
 10
156.8437591409756
 20
337.4197963736725
 30
0.0
 10
156.8649600612757
 20
337.4135888399725
 30
0.0
 10
156.9015398676756
 20
337.4053782984725
 30
0.0
 10
156.9757399233756
 20
337.3944035786725
 30
0.0
 10
157.1010261767755
 20
337.3820175414725
 30
0.0
 10
157.2851328271754
 20
337.3698815095725
 30
0.0
 10
157.5096295716755
 20
337.3597407307725
 30
0.0
 10
157.7656514607754
 20
337.3521711029725
 30
0.0
 10
158.0434655733756
 20
337.3474897345725
 30
0.0
 10
158.3323709102756
 20
337.3459077950725
 30
0.0
 10
158.6212764451756
 20
337.3474896954725
 30
0.0
 10
158.8990910853756
 20
337.3521710275725
 30
0.0
 10
159.1551136791754
 20
337.3597406192725
 30
0.0
 10
159.3796111401757
 20
337.3698813867725
 30
0.0
 10
159.5637184194757
 20
337.3820174173725
 30
0.0
 10
159.6890051879754
 20
337.3944034791725
 30
0.0
 10
159.7632055763756
 20
337.4053781525725
 30
0.0
 10
159.7997856772758
 20
337.4135887733725
 30
0.0
 10
159.8209866631755
 20
337.4197963779725
 30
0.0
 10
159.8323730409754
 20
337.4278034139725
 30
0.0
 10
159.8323730409754
 20
337.4314803201725
 30
0.0
  0
SPLINE
  5
A59
330
1F
100
AcDbEntity
  8
BEZUGSACHSEN
  6
Continuous
 62
     3
100
AcDbSpline
210
0.0
220
0.0
230
1.0
 70
     8
 71
     3
 72
     9
 73
     5
 74
     0
 42
0.000000001
 43
0.0000000001
 40
0.0
 40
0.0
 40
0.0
 40
0.0
 40
0.5
 40
1.0
 40
1.0
 40
1.0
 40
1.0
 10
157.8256580072757
 20
337.5243376170725
 30
0.0
 10
157.9944894988755
 20
337.5187142948725
 30
0.0
 10
158.3323730411757
 20
337.5143247081725
 30
0.0
 10
158.6702565835755
 20
337.5187142948725
 30
0.0
 10
158.8390880750758
 20
337.5243376170725
 30
0.0
  0
SPLINE
  5
A5A
330
1F
100
AcDbEntity
  8
0
  6
Continuous
 62
     3
100
AcDbSpline
210
0.0
220
0.0
230
1.0
 70
     8
 71
     3
 72
     8
 73
     4
 74
     0
 42
0.000000001
 43
0.0000000001
 40
0.0
 40
0.0
 40
0.0
 40
0.0
 40
1.0
 40
1.0
 40
1.0
 40
1.0
 10
795.8882198383755
 20
336.7070386242725
 30
0.0
 10
795.7287871561755
 20
336.6665076316725
 30
0.0
 10
795.5541407438754
 20
336.6665076316725
 30
0.0
 10
795.3947080616756
 20
336.7070386242725
 30
0.0
  0
SPLINE
  5
A5B
330
1F
100
AcDbEntity
  8
0
  6
Continuous
 62
     3
100
AcDbSpline
210
0.0
220
0.0
230
1.0
 70
     8
 71
     3
 72
     8
 73
     4
 74
     0
 42
0.000000001
 43
0.0000000001
 40
0.0
 40
0.0
 40
0.0
 40
0.0
 40
1.0
 40
1.0
 40
1.0
 40
1.0
 10
788.0336743837756
 20
336.7070386242725
 30
0.0
 10
787.8742417015756
 20
336.6665076316725
 30
0.0
 10
787.6995952893755
 20
336.6665076316725
 30
0.0
 10
787.5401626071757
 20
336.7070386242725
 30
0.0
  0
SPLINE
  5
A5C
330
1F
100
AcDbEntity
  8
BEZUGSACHSEN
  6
Continuous
 62
     3
100
AcDbSpline
210
0.0
220
0.0
230
1.0
 70
     8
 71
     3
 72
    21
 73
    17
 74
     0
 42
0.000000001
 43
0.0000000001
 40
0.0
 40
0.0
 40
0.0
 40
0.0
 40
0.070664155
 40
0.1402658048
 40
0.2033927929
 40
0.2539983079
 40
0.304663601
 40
0.3632550177
 40
0.5001306548
 40
0.6369324181
 40
0.6954707994
 40
0.7461172826000002
 40
0.796695787
 40
0.8597937514999999
 40
0.9293527953999999
 40
1.0
 40
1.0
 40
1.0
 40
1.0
 10
899.2523834266755
 20
337.1289422830725
 30
0.0
 10
899.1502527186755
 20
337.2322554236725
 30
0.0
 10
898.9244787220755
 20
337.4158825338725
 30
0.0
 10
898.5487735922756
 20
337.6061993885725
 30
0.0
 10
898.1836972462756
 20
337.7077121590725
 30
0.0
 10
897.8482200712756
 20
337.7520591841725
 30
0.0
 10
897.5203819154755
 20
337.7759207460725
 30
0.0
 10
897.0148038381756
 20
337.7978758369725
 30
0.0
 10
896.3316539347756
 20
337.8069405591725
 30
0.0
 10
895.6486130346757
 20
337.7978412511725
 30
0.0
 10
895.1433362909757
 20
337.7758670308725
 30
0.0
 10
894.8157020525755
 20
337.7519737745725
 30
0.0
 10
894.4804000000756
 20
337.7074944220725
 30
0.0
 10
894.1155271057755
 20
337.6060199562725
 30
0.0
 10
893.7400287864758
 20
337.4156988220725
 30
0.0
 10
893.5143602629755
 20
337.2321421350725
 30
0.0
 10
893.4122632590757
 20
337.1288446768725
 30
0.0
  0
SPLINE
  5
A5D
330
1F
100
AcDbEntity
  8
BEZUGSACHSEN
  6
Continuous
 62
     3
100
AcDbSpline
210
0.0
220
0.0
230
1.0
 70
     8
 71
     3
 72
    21
 73
    17
 74
     0
 42
0.000000001
 43
0.0000000001
 40
0.0
 40
0.0
 40
0.0
 40
0.0
 40
0.070664155
 40
0.1402658048
 40
0.2033927929
 40
0.2539983079
 40
0.304663601
 40
0.3632550177
 40
0.5001306548
 40
0.6369324181
 40
0.6954707994
 40
0.7461172826000002
 40
0.796695787
 40
0.8597937514999999
 40
0.9293527953999999
 40
1.0
 40
1.0
 40
1.0
 40
1.0
 10
879.2523834266756
 20
337.1289422830725
 30
0.0
 10
879.1502527186755
 20
337.2322554236725
 30
0.0
 10
878.9244787220754
 20
337.4158825338725
 30
0.0
 10
878.5487735922757
 20
337.6061993885725
 30
0.0
 10
878.1836972462755
 20
337.7077121590725
 30
0.0
 10
877.8482200712756
 20
337.7520591841725
 30
0.0
 10
877.5203819154755
 20
337.7759207460725
 30
0.0
 10
877.0148038381755
 20
337.7978758369725
 30
0.0
 10
876.3316539347757
 20
337.8069405591725
 30
0.0
 10
875.6486130346756
 20
337.7978412511725
 30
0.0
 10
875.1433362909756
 20
337.7758670308725
 30
0.0
 10
874.8157020525754
 20
337.7519737745725
 30
0.0
 10
874.4804000000756
 20
337.7074944220725
 30
0.0
 10
874.1155271057754
 20
337.6060199562725
 30
0.0
 10
873.7400287864756
 20
337.4156988220725
 30
0.0
 10
873.5143602629754
 20
337.2321421350725
 30
0.0
 10
873.4122632590754
 20
337.1288446768725
 30
0.0
  0
SPLINE
  5
A5E
330
1F
100
AcDbEntity
  8
0
  6
Continuous
 62
     3
100
AcDbSpline
210
0.0
220
0.0
230
1.0
 70
     8
 71
     3
 72
    11
 73
     7
 74
     0
 42
0.000000001
 43
0.0000000001
 40
0.0
 40
0.0
 40
0.0
 40
0.0
 40
0.248388576
 40
0.4987983677
 40
0.7495623548000001
 40
1.0
 40
1.0
 40
1.0
 40
1.0
 10
137.1823730409755
 20
356.5431849246725
 30
0.0
 10
137.2047615254755
 20
356.5431849246725
 30
0.0
 10
137.2498060876755
 20
356.5249616300725
 30
0.0
 10
137.2936789522755
 20
356.4718209140725
 30
0.0
 10
137.3199733663755
 20
356.4086852016725
 30
0.0
 10
137.3285060512755
 20
356.3640138193725
 30
0.0
 10
137.3306927674755
 20
356.3415468078726
 30
0.0
  0
SPLINE
  5
A5F
330
1F
100
AcDbEntity
  8
0
  6
Continuous
 62
     3
100
AcDbSpline
210
0.0
220
0.0
230
1.0
 70
     8
 71
     3
 72
    11
 73
     7
 74
     0
 42
0.000000001
 43
0.0000000001
 40
0.0
 40
0.0
 40
0.0
 40
0.0
 40
0.248388576
 40
0.4987983677
 40
0.7495623548000001
 40
1.0
 40
1.0
 40
1.0
 40
1.0
 10
917.4823730409755
 20
356.5431849246725
 30
0.0
 10
917.4599845563758
 20
356.5431849246725
 30
0.0
 10
917.4149399942756
 20
356.5249616300725
 30
0.0
 10
917.3710671295754
 20
356.4718209140725
 30
0.0
 10
917.3447727155755
 20
356.4086852016725
 30
0.0
 10
917.3362400306755
 20
356.3640138193725
 30
0.0
 10
917.3340533144756
 20
356.3415468078726
 30
0.0
  0
SPLINE
  5
A60
330
1F
100
AcDbEntity
  8
RUNDUNGEN
  6
Continuous
 62
     9
100
AcDbSpline
210
0.0
220
0.0
230
1.0
 70
     8
 71
     3
 72
    25
 73
    21
 74
     0
 42
0.000000001
 43
0.0000000001
 40
0.0
 40
0.0
 40
0.0
 40
0.0
 40
0.0030838934
 40
0.0051795302
 40
0.0077505134
 40
0.0144545416
 40
0.0233521318
 40
0.0344877309
 40
0.0478676779
 40
0.0634786211
 40
0.0812956115
 40
0.1234003618
 40
0.1738237466
 40
0.2321091546
 40
0.2977164326
 40
0.3700303308
 40
0.4483677901
 40
0.6200852321000001
 40
0.8063357015999999
 40
1.0
 40
1.0
 40
1.0
 40
1.0
 10
630.3321587658756
 20
337.5244823236725
 30
0.0
 10
630.3300973179755
 20
337.5554302819725
 30
0.0
 10
630.2998756361755
 20
337.6040646906726
 30
0.0
 10
630.2402760994757
 20
337.6533832151725
 30
0.0
 10
630.1425179402758
 20
337.7139090725725
 30
0.0
 10
629.9733939195755
 20
337.7847287455725
 30
0.0
 10
629.7164878705755
 20
337.8647710351725
 30
0.0
 10
629.3898101166755
 20
337.9443379966725
 30
0.0
 10
628.9939948091755
 20
338.0234510832725
 30
0.0
 10
628.5296973854756
 20
338.1016286790725
 30
0.0
 10
627.7778029731758
 20
338.2104286425725
 30
0.0
 10
626.6752317430755
 20
338.3386072044725
 30
0.0
 10
625.1648128211755
 20
338.4786542512725
 30
0.0
 10
623.4164843408757
 20
338.6102399956725
 30
0.0
 10
621.4468331791756
 20
338.7319812312725
 30
0.0
 10
619.2745662594757
 20
338.8425281033725
 30
0.0
 10
616.0350905047756
 20
338.9775730945725
 30
0.0
 10
611.6486531303755
 20
339.1071390864725
 30
0.0
 10
606.1012356839755
 20
339.2006477570725
 30
0.0
 10
602.2801693956758
 20
339.2215651863725
 30
0.0
 10
600.3323730409756
 20
339.2215672745725
 30
0.0
  0
SPLINE
  5
A61
330
1F
100
AcDbEntity
  8
RUNDUNGEN
  6
Continuous
 62
     9
100
AcDbSpline
210
0.0
220
0.0
230
1.0
 70
     8
 71
     3
 72
    24
 73
    20
 74
     0
 42
0.000000001
 43
0.0000000001
 40
0.0
 40
0.0
 40
0.0
 40
0.0
 40
0.1939599812
 40
0.3804578957
 40
0.5523317126000002
 40
0.7030142774
 40
0.7685855662000001
 40
0.8267988754999999
 40
0.8771150458999999
 40
0.9190805676
 40
0.9368179730999999
 40
0.9523443628
 40
0.9656369575999999
 40
0.9766859133
 40
0.9855037987000001
 40
0.9921476978999999
 40
0.9947048742999999
 40
0.9968059356999999
 40
1.0
 40
1.0
 40
1.0
 40
1.0
 10
454.3325238251754
 20
337.2247843298725
 30
0.0
 10
452.5100282503756
 20
337.2247831154725
 30
0.0
 10
448.9351158471756
 20
337.2037406221725
 30
0.0
 10
443.7459763745756
 20
337.1098826536725
 30
0.0
 10
438.9650433726756
 20
336.9578294518725
 30
0.0
 10
435.3220779547755
 20
336.7816652617726
 30
0.0
 10
432.7487263965754
 20
336.6106766430724
 30
0.0
 10
431.1180966359756
 20
336.4785469427725
 30
0.0
 10
429.7109293327755
 20
336.3379792913725
 30
0.0
 10
428.6849894829756
 20
336.2093199394725
 30
0.0
 10
427.9865510906756
 20
336.1001056391725
 30
0.0
 10
427.5561174769754
 20
336.0216720020725
 30
0.0
 10
427.1899380542756
 20
335.9423160129725
 30
0.0
 10
426.8885507667755
 20
335.8624921831725
 30
0.0
 10
426.6525739181757
 20
335.7822170025725
 30
0.0
 10
426.4981427236754
 20
335.7110354442725
 30
0.0
 10
426.4103196379755
 20
335.6503508764725
 30
0.0
 10
426.3567268188755
 20
335.6001377428726
 30
0.0
 10
426.3323727936754
 20
335.5512726918725
 30
0.0
 10
426.3323730409756
 20
335.5212604796725
 30
0.0
  0
SPLINE
  5
A62
330
1F
100
AcDbEntity
  8
RUNDUNGEN
  6
Continuous
 62
     9
100
AcDbSpline
210
0.0
220
0.0
230
1.0
 70
     8
 71
     3
 72
    24
 73
    20
 74
     0
 42
0.000000001
 43
0.0000000001
 40
0.0
 40
0.0
 40
0.0
 40
0.0
 40
0.0031940693
 40
0.0052951249
 40
0.0078522956
 40
0.0144961944
 40
0.0233140825
 40
0.0343630367
 40
0.0476556298
 40
0.0631820184
 40
0.0809194225
 40
0.1228849408
 40
0.1732011076
 40
0.2314144132
 40
0.2969856991
 40
0.4476682606000001
 40
0.6195420827
 40
0.8060400140999998
 40
1.0
 40
1.0
 40
1.0
 40
1.0
 10
628.3323730409756
 20
335.5212604796725
 30
0.0
 10
628.3323727936756
 20
335.5512727230725
 30
0.0
 10
628.3080189817756
 20
335.6001375325725
 30
0.0
 10
628.2544263810757
 20
335.6503508579725
 30
0.0
 10
628.1666035192756
 20
335.7110354309725
 30
0.0
 10
628.0121723919755
 20
335.7822169048725
 30
0.0
 10
627.7761956726756
 20
335.8624920464725
 30
0.0
 10
627.4748085521755
 20
335.9423158722725
 30
0.0
 10
627.1086293658754
 20
336.0216718398725
 30
0.0
 10
626.6781960188757
 20
336.1001054529725
 30
0.0
 10
625.9797580496756
 20
336.2093197268726
 30
0.0
 10
624.9538188168756
 20
336.3379790499725
 30
0.0
 10
623.5466523496756
 20
336.4785466748725
 30
0.0
 10
621.9160235359754
 20
336.6106763570725
 30
0.0
 10
619.3426734119754
 20
336.7816649651725
 30
0.0
 10
615.6997098992755
 20
336.9578291680725
 30
0.0
 10
610.9187792061755
 20
337.1098824371725
 30
0.0
 10
605.7296421778755
 20
337.2037404704725
 30
0.0
 10
602.1547314272757
 20
337.2247831938725
 30
0.0
 10
600.3322367540756
 20
337.2247842916725
 30
0.0
  0
SPLINE
  5
A63
330
1F
100
AcDbEntity
  8
RUNDUNGEN
  6
Continuous
 62
     9
100
AcDbSpline
210
0.0
220
0.0
230
1.0
 70
     8
 71
     3
 72
    25
 73
    21
 74
     0
 42
0.000000001
 43
0.0000000001
 40
0.0
 40
0.0
 40
0.0
 40
0.0
 40
0.1936643122
 40
0.3799147768
 40
0.5516322137
 40
0.6299696716
 40
0.7022835678
 40
0.7678908441
 40
0.8261762511
 40
0.8765996351
 40
0.918704385
 40
0.9365213751
 40
0.9521323179999999
 40
0.9655122659999999
 40
0.9766478659
 40
0.9855454519
 40
0.9922494805999999
 40
0.9948204712999999
 40
0.9969161156999998
 40
1.0
 40
1.0
 40
1.0
 40
1.0
 10
454.3323730409756
 20
339.2215672745725
 30
0.0
 10
452.3845765296755
 20
339.2215648915725
 30
0.0
 10
448.5635101172756
 20
339.2006478198725
 30
0.0
 10
443.0160925819757
 20
339.1071390313725
 30
0.0
 10
438.6296552820754
 20
338.9775730674725
 30
0.0
 10
435.3901795839756
 20
338.8425280751725
 30
0.0
 10
433.2179126950754
 20
338.7319812051725
 30
0.0
 10
431.2482615631757
 20
338.6102399714725
 30
0.0
 10
429.4999331021756
 20
338.4786542294725
 30
0.0
 10
427.9895141887757
 20
338.3386071842725
 30
0.0
 10
426.8869429627756
 20
338.2104286255725
 30
0.0
 10
426.1350485527757
 20
338.1016286648724
 30
0.0
 10
425.6707511223756
 20
338.0234510643725
 30
0.0
 10
425.2749357937755
 20
337.9443379802725
 30
0.0
 10
424.9482580603755
 20
337.8647710539725
 30
0.0
 10
424.6913520266755
 20
337.7847287271725
 30
0.0
 10
424.5222280473758
 20
337.7139089608725
 30
0.0
 10
424.4244696273758
 20
337.6533831627725
 30
0.0
 10
424.3648698756755
 20
337.6040650048725
 30
0.0
 10
424.3346478828757
 20
337.5554302421725
 30
0.0
 10
424.3325873103755
 20
337.5244823168725
 30
0.0
  0
SPLINE
  5
A64
330
1F
100
AcDbEntity
  8
0
  6
Continuous
 62
     9
100
AcDbSpline
210
0.0
220
0.0
230
1.0
 70
     8
 71
     3
 72
    15
 73
    11
 74
     0
 42
0.000000001
 43
0.0000000001
 40
0.0
 40
0.0
 40
0.0
 40
0.0
 40
0.1165875701
 40
0.2405244673
 40
0.369084355
 40
0.4999984988000001
 40
0.6309127022
 40
0.7594683662000002
 40
0.8834072828
 40
1.0
 40
1.0
 40
1.0
 40
1.0
 10
514.5529466514758
 20
120.2059826925725
 30
0.0
 10
515.5282405942757
 20
120.5123190334725
 30
0.0
 10
517.5296120151756
 20
121.1774333794725
 30
0.0
 10
520.6228634898756
 20
122.1314857551725
 30
0.0
 10
523.9063970855754
 20
122.8807749691725
 30
0.0
 10
527.3321034383757
 20
123.1780094953725
 30
0.0
 10
530.7577840225754
 20
122.8808817287725
 30
0.0
 10
534.0413118841756
 20
122.1316461885725
 30
0.0
 10
537.1345961603756
 20
121.1776116666725
 30
0.0
 10
539.1360288934756
 20
120.5124831541725
 30
0.0
 10
540.1113616239756
 20
120.2061196983725
 30
0.0
  0
SPLINE
  5
A65
330
1F
100
AcDbEntity
  8
0
  6
Continuous
 62
     9
100
AcDbSpline
210
0.0
220
0.0
230
1.0
 70
     8
 71
     3
 72
    13
 73
     9
 74
     0
 42
0.000000001
 43
0.0000000001
 40
0.0
 40
0.0
 40
0.0
 40
0.0
 40
0.245598235
 40
0.3721970652
 40
0.5000019422
 40
0.6278059287
 40
0.7544031820999999
 40
1.0
 40
1.0
 40
1.0
 40
1.0
 10
520.1166289825756
 20
120.2080022925725
 30
0.0
 10
521.2510913325754
 20
120.6462463680725
 30
0.0
 10
523.0018401739758
 20
121.2456812151725
 30
0.0
 10
525.4377801240755
 20
121.7150392743725
 30
0.0
 10
527.3316717335756
 20
121.8432269808725
 30
0.0
 10
529.2255698207754
 20
121.7152582595725
 30
0.0
 10
531.6615432122755
 20
121.2461307756725
 30
0.0
 10
533.4122611018756
 20
120.6466534065725
 30
0.0
 10
534.5467666497756
 20
120.2085406500725
 30
0.0
  0
LINE
  5
A66
330
1F
100
AcDbEntity
  8
RUNDUNGEN
  6
Continuous
 62
     7
100
AcDbLine
 10
427.3323730651754
 20
147.2070676695725
 30
0.0
 11
426.4549823565755
 21
147.2070661145725
 31
0.0
  0
LINE
  5
A67
330
1F
100
AcDbEntity
  8
RUNDUNGEN
  6
Continuous
 62
     7
100
AcDbLine
 10
426.4549823565755
 20
147.2070661145725
 30
0.0
 11
426.2820953788755
 21
147.2070663072725
 31
0.0
  0
LINE
  5
A68
330
1F
100
AcDbEntity
  8
RUNDUNGEN
  6
Continuous
 62
     7
100
AcDbLine
 10
426.2820953788755
 20
147.2070663072725
 30
0.0
 11
424.3328551556755
 21
147.2070676680725
 31
0.0
  0
LINE
  5
A69
330
1F
100
AcDbEntity
  8
RUNDUNGEN
  6
Continuous
 62
     7
100
AcDbLine
 10
627.3323730167756
 20
147.2070676695725
 30
0.0
 11
628.2097637253757
 21
147.2070692245725
 31
0.0
  0
LINE
  5
A6A
330
1F
100
AcDbEntity
  8
RUNDUNGEN
  6
Continuous
 62
     7
100
AcDbLine
 10
628.2097637253757
 20
147.2070692245725
 30
0.0
 11
628.3826507029755
 21
147.2070690318725
 31
0.0
  0
LINE
  5
A6B
330
1F
100
AcDbEntity
  8
RUNDUNGEN
  6
Continuous
 62
     7
100
AcDbLine
 10
628.3826507029755
 20
147.2070690318725
 30
0.0
 11
630.3318909262754
 21
147.2070676710725
 31
0.0
  0
DIMENSION
  5
A6C
330
1F
100
AcDbEntity
  8
P-0000
  6
Continuous
100
AcDbDimension
280
     0
  2
*D15
 10
59.6795221846301
 20
288.3431849246727
 30
0.0
 11
59.67952218463006
 21
336.0213575973277
 31
0.0
 70
   160
 71
     2
 42
97.19999999999988
 73
     0
 74
     0
 75
     0
  3
883N99122_001_00149479900
100
AcDbAlignedDimension
 13
114.8323730409756
 23
385.5431849246725
 33
0.0
 14
437.2323734069754
 24
288.3431849246725
 34
0.0
 50
270.0
100
AcDbRotatedDimension
1001
ACAD_DSTYLE_DIMINSPECT
1070
   396
1000
100%
1070
   395
1000

1070
   394
1070
    33
1070
   393
1070
     0
1001
ACAD
1000
DSTYLE
1002
{
1070
   271
1070
     0
1070
   288
1070
     1
1002
}
  0
DIMENSION
  5
A6D
330
1F
100
AcDbEntity
  8
P-0000
  6
Continuous
100
AcDbDimension
280
     0
  2
*D16
 10
85.20567471999608
 20
115.1193440821725
 30
0.0
 11
85.20567471999607
 21
148.5521916505322
 31
0.0
 70
   160
  1
<>
 71
     2
 42
64.08772358739999
 73
     0
 74
     0
 75
     0
  3
883N99122_001_00149479900
100
AcDbAlignedDimension
 13
137.8323730409756
 23
179.2070676695725
 33
0.0
 14
137.8323730409756
 24
115.1193440821725
 34
0.0
 50
270.0
100
AcDbRotatedDimension
1001
ACAD_DSTYLE_DIMINSPECT
1070
   396
1000
100%
1070
   395
1000

1070
   394
1070
    33
1070
   393
1070
     0
1001
ACAD
1000
DSTYLE
1002
{
1070
   271
1070
     0
1070
   288
1070
     1
1002
}
  0
DIMENSION
  5
A6E
330
1F
100
AcDbEntity
  8
P-0000
  6
Continuous
100
AcDbDimension
280
     0
  2
*D17
 10
60.59904832709436
 20
81.20706766957251
 30
0.0
 11
60.59904832709435
 21
141.8940545202999
 31
0.0
 70
   160
  1
<>
 71
     2
 42
112.0
 73
     0
 74
     0
 75
     0
  3
883N99122_001_00149479900
100
AcDbAlignedDimension
 13
105.3323730409756
 23
193.2070676695725
 33
0.0
 14
126.5823730409756
 24
81.20706766957249
 34
0.0
 50
270.0
100
AcDbRotatedDimension
1001
ACAD_DSTYLE_DIMINSPECT
1070
   396
1000
100%
1070
   395
1000

1070
   394
1070
    33
1070
   393
1070
     0
1001
ACAD
1000
DSTYLE
1002
{
1070
   271
1070
     0
1070
   288
1070
     1
1002
}
  0
DIMENSION
  5
A6F
330
1F
100
AcDbEntity
  8
P-0000
  6
Continuous
100
AcDbDimension
280
     0
  2
*D18
 10
84.2957699630311
 20
355.5431849246726
 30
0.0
 11
84.29576996303103
 21
368.7887554450691
 31
0.0
 70
   160
 71
     2
 42
29.99999999999995
 73
     0
 74
     0
 75
     0
  3
883N99122_001_00149479900
100
AcDbAlignedDimension
 13
114.8323730409756
 23
385.5431849246725
 33
0.0
 14
136.3323730409756
 24
355.5431849246725
 34
0.0
 50
270.0
100
AcDbRotatedDimension
1001
ACAD_DSTYLE_DIMINSPECT
1070
   396
1000
100%
1070
   395
1000

1070
   394
1070
    33
1070
   393
1070
     0
1001
ACAD
1000
DSTYLE
1002
{
1070
   271
1070
     0
1070
   288
1070
     1
1002
}
  0
DIMENSION
  5
A70
102
{ACAD_XDICTIONARY
360
A71
102
}
102
{ACAD_REACTORS
330
A72
102
}
330
1F
100
AcDbEntity
  8
P-0000
  6
Continuous
100
AcDbDimension
280
     0
  2
*D20
 10
917.3323730409757
 20
410.686088456204
 30
0.0
 11
527.3323730409756
 21
418.186088456204
 31
0.0
 70
    32
  1
<>
 71
     5
 42
780.0
 73
     0
 74
     0
 75
     0
  3
883N99122_001_00149479900
100
AcDbAlignedDimension
 13
137.3323730409756
 23
348.2931849246725
 33
0.0
 14
917.3323730409757
 24
349.5431849246725
 34
0.0
100
AcDbRotatedDimension
1001
ACAD
1000
DSTYLE
1002
{
1070
   271
1070
     0
1070
   288
1070
     1
1002
}
1001
ACAD_DSTYLE_DIMINSPECT
1070
   396
1000
100%
1070
   395
1000

1070
   394
1070
    33
1070
   393
1070
     0
  0
DIMENSION
  5
A73
330
1F
100
AcDbEntity
  8
P-0000
  6
Continuous
100
AcDbDimension
280
     0
  2
*D19
 10
135.3323730409756
 20
424.5244383870399
 30
0.0
 11
527.3323730409756
 21
432.0244383870399
 31
0.0
 70
    32
 71
     5
 42
784.0
 73
     0
 74
     0
 75
     0
  3
883N99122_001_00149479900
100
AcDbAlignedDimension
 13
919.3323730409757
 23
349.0431849246725
 33
0.0
 14
135.3323730409756
 24
349.0431849246725
 34
0.0
100
AcDbRotatedDimension
1001
ACAD
1000
DSTYLE
1002
{
1070
   271
1070
     0
1070
   288
1070
     1
1002
}
1001
ACAD_DSTYLE_DIMINSPECT
1070
   396
1000
100%
1070
   395
1000

1070
   394
1070
    33
1070
   393
1070
     0
  0
DIMENSION
  5
A74
102
{ACAD_XDICTIONARY
360
A75
102
}
102
{ACAD_REACTORS
330
A76
102
}
330
1F
100
AcDbEntity
  8
P-0000
  6
Continuous
100
AcDbDimension
280
     0
  2
*D21
 10
104.8323730409756
 20
438.3627904208916
 30
0.0
 11
527.3323730409756
 21
445.8627904208916
 31
0.0
 70
    32
 71
     5
 42
845.0
 73
     0
 74
     0
 75
     0
  3
883N99122_001_00149479900
100
AcDbAlignedDimension
 13
949.8323730409756
 23
359.5431849246725
 33
0.0
 14
104.8323730409756
 24
359.5431849246725
 34
0.0
100
AcDbRotatedDimension
1001
ACAD
1000
DSTYLE
1002
{
1070
   271
1070
     0
1070
   288
1070
     1
1002
}
1001
ACAD_DSTYLE_DIMINSPECT
1070
   396
1000
100%
1070
   395
1000

1070
   394
1070
    33
1070
   393
1070
     0
  0
ENDSEC
  0
SECTION
  2
OBJECTS
  0
DICTIONARY
  5
C
330
0
100
AcDbDictionary
281
     1
  3
ACAD_CIP_PREVIOUS_PRODUCT_INFO
350
5FA
  3
ACAD_COLOR
350
BE
  3
ACAD_DETAILVIEWSTYLE
350
5EF
  3
ACAD_FIELDLIST
350
612
  3
ACAD_GROUP
350
D
  3
ACAD_LAYOUT
350
1A
  3
ACAD_MATERIAL
350
BD
  3
ACAD_MLEADERSTYLE
350
3EF
  3
ACAD_MLINESTYLE
350
17
  3
ACAD_PLOTSETTINGS
350
19
  3
ACAD_PLOTSTYLENAME
350
E
  3
ACAD_SCALELIST
350
3DD
  3
ACAD_SECTIONVIEWSTYLE
350
5ED
  3
ACAD_TABLESTYLE
350
11A
  3
ACAD_VISUALSTYLE
350
3CC
  3
ACDB_RECOMPOSE_DATA
350
B01
  3
AcDbVariableDictionary
350
94
  3
AcDsDecomposeData
350
B07
  3
AcmDictionary
350
5B
  3
AMG
350
41
  3
AMGSNAPSETTINGS
350
26B
  0
DICTIONARY
  5
5DD
330
2
100
AcDbDictionary
280
     1
281
     1
  3
ACAD_LAYERSTATES
360
5DE
  0
DICTIONARY
  5
AF8
330
10
100
AcDbDictionary
280
     1
281
     1
  3
ADSK_XREC_LAYER_RECONCILED
360
AF9
  0
DICTIONARY
  5
6B2
330
6B1
100
AcDbDictionary
280
     1
281
     1
  3
ADSK_XREC_LAYER_RECONCILED
360
AFA
  0
DICTIONARY
  5
6B4
330
6B3
100
AcDbDictionary
280
     1
281
     1
  3
ADSK_XREC_LAYER_RECONCILED
360
AFB
  0
DICTIONARY
  5
6B6
330
6B5
100
AcDbDictionary
280
     1
281
     1
  3
ADSK_XREC_LAYER_RECONCILED
360
AFC
  0
DICTIONARY
  5
6B8
330
6B7
100
AcDbDictionary
280
     1
281
     1
  3
ADSK_XREC_LAYER_RECONCILED
360
AFD
  0
DICTIONARY
  5
6BA
330
6B9
100
AcDbDictionary
280
     1
281
     1
  3
ADSK_XREC_LAYER_RECONCILED
360
AFE
  0
DICTIONARY
  5
6BD
330
6BC
100
AcDbDictionary
280
     1
281
     1
  3
ADSK_XREC_LAYER_RECONCILED
360
AFF
  0
DICTIONARY
  5
8F
330
1F
100
AcDbDictionary
280
     1
281
     1
  0
DICTIONARY
  5
A71
330
A70
100
AcDbDictionary
280
     1
281
     1
  3
ACAD_DIMASSOC
360
A72
  0
DICTIONARY
  5
A75
330
A74
100
AcDbDictionary
280
     1
281
     1
  3
ACAD_DIMASSOC
360
A76
  0
XRECORD
  5
5FA
102
{ACAD_REACTORS
330
C
102
}
330
C
100
AcDbXrecord
280
     1
300
AMECH_PP
300
2014
300
86138AMECH_PP_2014_0F
  0
DICTIONARY
  5
BE
102
{ACAD_REACTORS
330
C
102
}
330
C
100
AcDbDictionary
281
     1
  0
DICTIONARY
  5
5EF
102
{ACAD_REACTORS
330
C
102
}
330
C
100
AcDbDictionary
281
     1
  3
Metric50
350
5F0
  0
FIELDLIST
  5
612
102
{ACAD_REACTORS
330
C
102
}
330
C
100
AcDbIdSet
 90
       12
330
6C6
330
6C7
330
6C8
330
610
330
611
330
613
330
617
330
618
330
619
330
621
330
622
330
623
100
AcDbFieldList
  0
DICTIONARY
  5
D
102
{ACAD_REACTORS
330
C
102
}
330
C
100
AcDbDictionary
281
     1
  0
DICTIONARY
  5
1A
102
{ACAD_REACTORS
330
C
102
}
330
C
100
AcDbDictionary
281
     1
  3
Layout1
350
1E
  3
Layout2
350
26
  3
Model
350
22
  0
DICTIONARY
  5
BD
102
{ACAD_REACTORS
330
C
102
}
330
C
100
AcDbDictionary
281
     1
  3
ByBlock
350
3BC
  3
ByLayer
350
3B4
  3
Global
350
3C4
  0
DICTIONARY
  5
3EF
102
{ACAD_REACTORS
330
C
102
}
330
C
100
AcDbDictionary
281
     1
  3
Standard
350
3F0
  0
DICTIONARY
  5
17
102
{ACAD_REACTORS
330
C
102
}
330
C
100
AcDbDictionary
281
     1
  3
Standard
350
18
  0
DICTIONARY
  5
19
102
{ACAD_REACTORS
330
C
102
}
330
C
100
AcDbDictionary
281
     1
  0
ACDBDICTIONARYWDFLT
  5
E
102
{ACAD_REACTORS
330
C
102
}
330
C
100
AcDbDictionary
281
     1
  3
Normal
350
F
100
AcDbDictionaryWithDefault
340
F
  0
DICTIONARY
  5
3DD
102
{ACAD_REACTORS
330
C
102
}
330
C
100
AcDbDictionary
281
     1
  3
A0
350
3DE
  3
A1
350
3DF
  3
A2
350
3E0
  3
A3
350
3E1
  3
A4
350
3E2
  3
A5
350
3E3
  3
A6
350
3E4
  3
A7
350
3E5
  3
A8
350
3E6
  3
A9
350
3E7
  3
B0
350
3E8
  3
B1
350
3E9
  3
B2
350
3EA
  3
B3
350
3EB
  3
B4
350
3EC
  3
B5
350
3ED
  3
B6
350
3EE
  0
DICTIONARY
  5
5ED
102
{ACAD_REACTORS
330
C
102
}
330
C
100
AcDbDictionary
281
     1
  3
ISO 128-40_2001(E)
350
6C3
  3
Metric50
350
5EE
  0
DICTIONARY
  5
11A
102
{ACAD_REACTORS
330
C
102
}
330
C
100
AcDbDictionary
281
     1
  3
Standard
350
11B
  0
DICTIONARY
  5
3CC
102
{ACAD_REACTORS
330
C
102
}
330
C
100
AcDbDictionary
281
     1
  3
2dWireframe
350
3D2
  3
3D Hidden
350
3D4
  3
3dWireframe
350
3D3
  3
Basic
350
3D1
  3
Brighten
350
3D8
  3
ColorChange
350
3DC
  3
Conceptual
350
3D5
  3
Dim
350
3D7
  3
EdgeColorOff
350
5A4
  3
Facepattern
350
3DB
  3
Flat
350
3CD
  3
FlatWithEdges
350
3CE
  3
Gouraud
350
3CF
  3
GouraudWithEdges
350
3D0
  3
Hidden
350
5E7
  3
JitterOff
350
5A2
  3
Linepattern
350
3DA
  3
OverhangOff
350
5A3
  3
Realistic
350
3D6
  3
Shaded
350
5EC
  3
Shaded with edges
350
5EB
  3
Shades of Gray
350
5E8
  3
Sketchy
350
5E9
  3
Thicken
350
3D9
  3
Wireframe
350
5E6
  3
X-Ray
350
5EA
  0
XRECORD
  5
B01
102
{ACAD_REACTORS
330
C
102
}
330
C
100
AcDbXrecord
280
     1
 90
        1
330
11B
  0
DICTIONARY
  5
94
102
{ACAD_REACTORS
330
C
102
}
330
C
100
AcDbDictionary
281
     1
  3
CANNOSCALE
350
420
  3
CMLEADERSTYLE
350
41E
  3
CTABLESTYLE
350
138
  3
CVIEWDETAILSTYLE
350
63B
  3
CVIEWSECTIONSTYLE
350
63C
  3
DIMASSOC
350
96
  3
INDEXCTL
350
95
  3
LAYEREVAL
350
422
  3
LAYERNOTIFY
350
423
  3
LIGHTINGUNITS
350
421
  3
MSLTSCALE
350
41F
  0
DICTIONARY
  5
B07
102
{ACAD_REACTORS
330
C
102
}
330
C
100
AcDbDictionary
281
     1
  3
AcDsRecords
350
B09
  3
AcDsSchemas
350
B08
1001
ACAD
1070
     2
  0
DICTIONARY
  5
5B
102
{ACAD_REACTORS
330
C
102
}
330
C
100
AcDbDictionary
281
     1
  3
AcmBOM
350
272
  3
AcmStdDictionary
350
61
  3
AMDTSECTSYM_ARROWCOLOR
350
123
  0
DICTIONARY
  5
41
102
{ACAD_REACTORS
330
C
102
}
330
C
100
AcDbDictionary
281
     1
  0
DICTIONARY
  5
26B
102
{ACAD_REACTORS
330
C
102
}
330
C
100
AcDbDictionary
281
     1
  0
DICTIONARY
  5
5DE
102
{ACAD_REACTORS
330
5DD
102
}
330
5DD
100
AcDbDictionary
281
     1
  0
XRECORD
  5
AF9
102
{ACAD_REACTORS
330
AF8
102
}
330
AF8
100
AcDbXrecord
280
     1
290
     1
  0
XRECORD
  5
AFA
102
{ACAD_REACTORS
330
6B2
102
}
330
6B2
100
AcDbXrecord
280
     1
290
     1
  0
XRECORD
  5
AFB
102
{ACAD_REACTORS
330
6B4
102
}
330
6B4
100
AcDbXrecord
280
     1
290
     1
  0
XRECORD
  5
AFC
102
{ACAD_REACTORS
330
6B6
102
}
330
6B6
100
AcDbXrecord
280
     1
290
     1
  0
XRECORD
  5
AFD
102
{ACAD_REACTORS
330
6B8
102
}
330
6B8
100
AcDbXrecord
280
     1
290
     1
  0
XRECORD
  5
AFE
102
{ACAD_REACTORS
330
6BA
102
}
330
6BA
100
AcDbXrecord
280
     1
290
     1
  0
XRECORD
  5
AFF
102
{ACAD_REACTORS
330
6BD
102
}
330
6BD
100
AcDbXrecord
280
     1
290
     1
  0
DIMASSOC
  5
A72
102
{ACAD_REACTORS
330
A71
102
}
330
A71
100
AcDbDimAssoc
330
A70
 90
        3
 70
     0
 71
     0
  1
AcDbOsnapPointRef
 72
     2
331
8AC
 73
     0
 91
        0
 40
0.0
 10
0.0
 20
0.0
 30
0.0
 75
     0
  1
AcDbOsnapPointRef
 72
     2
331
98A
 73
     0
 91
        0
 40
0.0
 10
0.0
 20
0.0
 30
0.0
 75
     0
  0
DIMASSOC
  5
A76
102
{ACAD_REACTORS
330
A75
102
}
330
A75
100
AcDbDimAssoc
330
A74
 90
        3
 70
     0
 71
     0
  1
AcDbOsnapPointRef
 72
     2
331
991
 73
     0
 91
        0
 40
0.0
 10
0.0
 20
0.0
 30
0.0
 75
     0
  1
AcDbOsnapPointRef
 72
     2
331
8A6
 73
     0
 91
        0
 40
0.0
 10
0.0
 20
0.0
 30
0.0
 75
     0
  0
ACDBDETAILVIEWSTYLE
  5
5F0
102
{ACAD_XDICTIONARY
360
633
102
}
102
{ACAD_REACTORS
330
5EF
330
605
330
607
102
}
330
5EF
100
AcDbModelDocViewStyle
 70
     0
  3
Metric50
290
     0
100
AcDbDetailViewStyle
 70
     0
 71
     0
 90
        3
 71
     1
340
11
 62
   256
 40
5.0
340
0
 62
   256
 40
5.0
300

 40
0.0
280
     1
 71
     2
340
16
 90
       25
 62
   256
 71
     3
340
11
 62
   256
 40
5.0
 90
        0
 40
15.0
 90
        1
300
%<\AcVar ViewDetailId>% (%<\AcVar ViewScale \f "%sn">%)
 71
     4
340
16
 90
       25
 62
   256
340
16
 90
       25
 62
   256
280
     0
  0
LAYOUT
  5
1E
102
{ACAD_REACTORS
330
1A
102
}
330
1A
100
AcDbPlotSettings
  1

  2

  4

  6

 40
0.0
 41
0.0
 42
0.0
 43
0.0
 44
0.0
 45
0.0
 46
0.0
 47
0.0
 48
0.0
 49
0.0
140
0.0
141
0.0
142
1.0
143
1.0
 70
   688
 72
     0
 73
     0
 74
     5
  7

 75
    16
147
1.0
 76
     0
 77
     2
 78
   300
148
0.0
149
0.0
100
AcDbLayout
  1
Layout1
 70
     1
 71
     1
 10
0.0
 20
0.0
 11
420.0
 21
297.0
 12
0.0
 22
0.0
 32
0.0
 14
1.000000000000000E+20
 24
1.000000000000000E+20
 34
1.000000000000000E+20
 15
-1.000000000000000E+20
 25
-1.000000000000000E+20
 35
-1.000000000000000E+20
146
0.0
 13
0.0
 23
0.0
 33
0.0
 16
1.0
 26
0.0
 36
0.0
 17
0.0
 27
1.0
 37
0.0
 76
     0
330
1B
  0
LAYOUT
  5
26
102
{ACAD_REACTORS
330
1A
102
}
330
1A
100
AcDbPlotSettings
  1

  2

  4

  6

 40
0.0
 41
0.0
 42
0.0
 43
0.0
 44
0.0
 45
0.0
 46
0.0
 47
0.0
 48
0.0
 49
0.0
140
0.0
141
0.0
142
1.0
143
1.0
 70
   688
 72
     0
 73
     0
 74
     5
  7

 75
    16
147
1.0
 76
     0
 77
     2
 78
   300
148
0.0
149
0.0
100
AcDbLayout
  1
Layout2
 70
     1
 71
     2
 10
0.0
 20
0.0
 11
12.0
 21
9.0
 12
0.0
 22
0.0
 32
0.0
 14
0.0
 24
0.0
 34
0.0
 15
0.0
 25
0.0
 35
0.0
146
0.0
 13
0.0
 23
0.0
 33
0.0
 16
1.0
 26
0.0
 36
0.0
 17
0.0
 27
1.0
 37
0.0
 76
     0
330
23
  0
LAYOUT
  5
22
102
{ACAD_XDICTIONARY
360
5E3
102
}
102
{ACAD_REACTORS
330
1A
102
}
330
1A
100
AcDbPlotSettings
  1

  2

  4

  6

 40
0.0
 41
0.0
 42
0.0
 43
0.0
 44
0.0
 45
0.0
 46
0.0
 47
0.0
 48
0.0
 49
0.0
140
0.0
141
0.0
142
1.0
143
1.0
 70
  1712
 72
     0
 73
     0
 74
     0
  7

 75
     0
147
1.0
 76
     0
 77
     2
 78
   300
148
0.0
149
0.0
100
AcDbLayout
  1
Model
 70
     1
 71
     0
 10
0.0
 20
0.0
 11
12.0
 21
9.0
 12
0.0
 22
0.0
 32
0.0
 14
0.0
 24
0.0
 34
0.0
 15
0.0
 25
0.0
 35
0.0
146
0.0
 13
0.0
 23
0.0
 33
0.0
 16
1.0
 26
0.0
 36
0.0
 17
0.0
 27
1.0
 37
0.0
 76
     0
330
1F
331
3B2
  0
MATERIAL
  5
3BC
102
{ACAD_XDICTIONARY
360
3BD
102
}
102
{ACAD_REACTORS
330
BD
102
}
330
BD
100
AcDbMaterial
  1
ByBlock
 72
     0
 43
0.0008202099737533
 43
0.0
 43
0.0
 43
0.0
 43
0.0
 43
0.0008202099737533
 43
0.0
 43
0.0
 43
0.0
 43
0.0
 43
1.0
 43
0.0
 43
0.0
 43
0.0
 43
0.0
 43
1.0
 77
     0
 47
0.0008202099737533
 47
0.0
 47
0.0
 47
0.0
 47
0.0
 47
0.0008202099737533
 47
0.0
 47
0.0
 47
0.0
 47
0.0
 47
1.0
 47
0.0
 47
0.0
 47
0.0
 47
0.0
 47
1.0
171
     0
 49
0.0008202099737533
 49
0.0
 49
0.0
 49
0.0
 49
0.0
 49
0.0008202099737533
 49
0.0
 49
0.0
 49
0.0
 49
0.0
 49
1.0
 49
0.0
 49
0.0
 49
0.0
 49
0.0
 49
1.0
175
     0
142
0.0008202099737533
142
0.0
142
0.0
142
0.0
142
0.0
142
0.0008202099737533
142
0.0
142
0.0
142
0.0
142
0.0
142
1.0
142
0.0
142
0.0
142
0.0
142
0.0
142
1.0
179
     0
144
0.0008202099737533
144
0.0
144
0.0
144
0.0
144
0.0
144
0.0008202099737533
144
0.0
144
0.0
144
0.0
144
0.0
144
1.0
144
0.0
144
0.0
144
0.0
144
0.0
144
1.0
147
0.0008202099737533
147
0.0
147
0.0
147
0.0
147
0.0
147
0.0008202099737533
147
0.0
147
0.0
147
0.0
147
0.0
147
1.0
147
0.0
147
0.0
147
0.0
147
0.0
147
1.0
  0
MATERIAL
  5
3B4
102
{ACAD_XDICTIONARY
360
3B5
102
}
102
{ACAD_REACTORS
330
BD
102
}
330
BD
100
AcDbMaterial
  1
ByLayer
 72
     0
 43
0.0008202099737533
 43
0.0
 43
0.0
 43
0.0
 43
0.0
 43
0.0008202099737533
 43
0.0
 43
0.0
 43
0.0
 43
0.0
 43
1.0
 43
0.0
 43
0.0
 43
0.0
 43
0.0
 43
1.0
 77
     0
 47
0.0008202099737533
 47
0.0
 47
0.0
 47
0.0
 47
0.0
 47
0.0008202099737533
 47
0.0
 47
0.0
 47
0.0
 47
0.0
 47
1.0
 47
0.0
 47
0.0
 47
0.0
 47
0.0
 47
1.0
171
     0
 49
0.0008202099737533
 49
0.0
 49
0.0
 49
0.0
 49
0.0
 49
0.0008202099737533
 49
0.0
 49
0.0
 49
0.0
 49
0.0
 49
1.0
 49
0.0
 49
0.0
 49
0.0
 49
0.0
 49
1.0
175
     0
142
0.0008202099737533
142
0.0
142
0.0
142
0.0
142
0.0
142
0.0008202099737533
142
0.0
142
0.0
142
0.0
142
0.0
142
1.0
142
0.0
142
0.0
142
0.0
142
0.0
142
1.0
179
     0
144
0.0008202099737533
144
0.0
144
0.0
144
0.0
144
0.0
144
0.0008202099737533
144
0.0
144
0.0
144
0.0
144
0.0
144
1.0
144
0.0
144
0.0
144
0.0
144
0.0
144
1.0
147
0.0008202099737533
147
0.0
147
0.0
147
0.0
147
0.0
147
0.0008202099737533
147
0.0
147
0.0
147
0.0
147
0.0
147
1.0
147
0.0
147
0.0
147
0.0
147
0.0
147
1.0
  0
MATERIAL
  5
3C4
102
{ACAD_XDICTIONARY
360
3C5
102
}
102
{ACAD_REACTORS
330
BD
102
}
330
BD
100
AcDbMaterial
  1
Global
 72
     0
 43
0.0008202099737533
 43
0.0
 43
0.0
 43
0.0
 43
0.0
 43
0.0008202099737533
 43
0.0
 43
0.0
 43
0.0
 43
0.0
 43
1.0
 43
0.0
 43
0.0
 43
0.0
 43
0.0
 43
1.0
 77
     0
 47
0.0008202099737533
 47
0.0
 47
0.0
 47
0.0
 47
0.0
 47
0.0008202099737533
 47
0.0
 47
0.0
 47
0.0
 47
0.0
 47
1.0
 47
0.0
 47
0.0
 47
0.0
 47
0.0
 47
1.0
171
     0
 49
0.0008202099737533
 49
0.0
 49
0.0
 49
0.0
 49
0.0
 49
0.0008202099737533
 49
0.0
 49
0.0
 49
0.0
 49
0.0
 49
1.0
 49
0.0
 49
0.0
 49
0.0
 49
0.0
 49
1.0
175
     0
142
0.0008202099737533
142
0.0
142
0.0
142
0.0
142
0.0
142
0.0008202099737533
142
0.0
142
0.0
142
0.0
142
0.0
142
1.0
142
0.0
142
0.0
142
0.0
142
0.0
142
1.0
179
     0
144
0.0008202099737533
144
0.0
144
0.0
144
0.0
144
0.0
144
0.0008202099737533
144
0.0
144
0.0
144
0.0
144
0.0
144
1.0
144
0.0
144
0.0
144
0.0
144
0.0
144
1.0
147
0.0008202099737533
147
0.0
147
0.0
147
0.0
147
0.0
147
0.0008202099737533
147
0.0
147
0.0
147
0.0
147
0.0
147
1.0
147
0.0
147
0.0
147
0.0
147
0.0
147
1.0
  0
MLEADERSTYLE
  5
3F0
102
{ACAD_REACTORS
330
3EF
102
}
330
3EF
100
AcDbMLeaderStyle
179
     2
170
     2
171
     1
172
     0
 90
        2
 40
0.0
 41
0.0
173
     1
 91
-1056964608
340
14
 92
       -2
290
     1
 42
2.0
291
     1
 43
0.36
  3
Standard
 44
4.0
300

342
11
174
     1
178
     6
175
     1
176
     0
 93
-1056964608
 45
4.0
292
     0
297
     0
 46
4.0
 94
-1056964608
 47
1.0
 49
1.0
140
1.0
293
     1
141
0.0
294
     1
177
     0
142
1.0
295
     0
296
     0
143
0.125
271
     0
272
     9
273
     9
  0
MLINESTYLE
  5
18
102
{ACAD_REACTORS
330
17
102
}
330
17
100
AcDbMlineStyle
  2
STANDARD
 70
     0
  3

 62
   256
 51
90.0
 52
90.0
 71
     2
 49
0.5
 62
   256
  6
BYLAYER
 49
-0.5
 62
   256
  6
BYLAYER
  0
ACDBPLACEHOLDER
  5
F
102
{ACAD_REACTORS
330
E
102
}
330
E
  0
SCALE
  5
3DE
102
{ACAD_REACTORS
330
3DD
102
}
330
3DD
100
AcDbScale
 70
     0
300
1:1
140
1.0
141
1.0
290
     1
  0
SCALE
  5
3DF
102
{ACAD_REACTORS
330
3DD
102
}
330
3DD
100
AcDbScale
 70
     0
300
1:2
140
1.0
141
2.0
290
     0
  0
SCALE
  5
3E0
102
{ACAD_REACTORS
330
3DD
102
}
330
3DD
100
AcDbScale
 70
     0
300
1:4
140
1.0
141
4.0
290
     0
  0
SCALE
  5
3E1
102
{ACAD_REACTORS
330
3DD
102
}
330
3DD
100
AcDbScale
 70
     0
300
1:5
140
1.0
141
5.0
290
     0
  0
SCALE
  5
3E2
102
{ACAD_REACTORS
330
3DD
102
}
330
3DD
100
AcDbScale
 70
     0
300
1:8
140
1.0
141
8.0
290
     0
  0
SCALE
  5
3E3
102
{ACAD_REACTORS
330
3DD
102
}
330
3DD
100
AcDbScale
 70
     0
300
1:10
140
1.0
141
10.0
290
     0
  0
SCALE
  5
3E4
102
{ACAD_REACTORS
330
3DD
102
}
330
3DD
100
AcDbScale
 70
     0
300
1:16
140
1.0
141
16.0
290
     0
  0
SCALE
  5
3E5
102
{ACAD_REACTORS
330
3DD
102
}
330
3DD
100
AcDbScale
 70
     0
300
1:20
140
1.0
141
20.0
290
     0
  0
SCALE
  5
3E6
102
{ACAD_REACTORS
330
3DD
102
}
330
3DD
100
AcDbScale
 70
     0
300
1:30
140
1.0
141
30.0
290
     0
  0
SCALE
  5
3E7
102
{ACAD_REACTORS
330
3DD
102
}
330
3DD
100
AcDbScale
 70
     0
300
1:40
140
1.0
141
40.0
290
     0
  0
SCALE
  5
3E8
102
{ACAD_REACTORS
330
3DD
102
}
330
3DD
100
AcDbScale
 70
     0
300
1:50
140
1.0
141
50.0
290
     0
  0
SCALE
  5
3E9
102
{ACAD_REACTORS
330
3DD
102
}
330
3DD
100
AcDbScale
 70
     0
300
1:100
140
1.0
141
100.0
290
     0
  0
SCALE
  5
3EA
102
{ACAD_REACTORS
330
3DD
102
}
330
3DD
100
AcDbScale
 70
     0
300
2:1
140
2.0
141
1.0
290
     0
  0
SCALE
  5
3EB
102
{ACAD_REACTORS
330
3DD
102
}
330
3DD
100
AcDbScale
 70
     0
300
4:1
140
4.0
141
1.0
290
     0
  0
SCALE
  5
3EC
102
{ACAD_REACTORS
330
3DD
102
}
330
3DD
100
AcDbScale
 70
     0
300
8:1
140
8.0
141
1.0
290
     0
  0
SCALE
  5
3ED
102
{ACAD_REACTORS
330
3DD
102
}
330
3DD
100
AcDbScale
 70
     0
300
10:1
140
10.0
141
1.0
290
     0
  0
SCALE
  5
3EE
102
{ACAD_REACTORS
330
3DD
102
}
330
3DD
100
AcDbScale
 70
     0
300
100:1
140
100.0
141
1.0
290
     0
  0
ACDBSECTIONVIEWSTYLE
  5
6C3
102
{ACAD_XDICTIONARY
360
6C4
102
}
102
{ACAD_REACTORS
330
5ED
330
8A1
330
8A2
102
}
330
5ED
100
AcDbModelDocViewStyle
 70
     0
  3

290
     0
100
AcDbSectionViewStyle
 70
     0
 71
     0
 90
      102
 71
     1
340
11
 62
     7
 40
5.0
340
0
340
0
 62
     7
 40
5.0
300
I,O,Q,S,X,Z
 40
10.0
 90
        0
 40
2.5
 90
        0
 71
     2
340
16
 90
       50
 62
     1
340
16
 90
       50
 62
     7
 40
10.0
 40
5.0
 40
10.0
 71
     3
340
11
 62
     7
 40
5.0
 90
        0
 40
5.25
 90
        1
300
%<\AcVar ViewSectionStartId>%-%<\AcVar ViewSectionEndId>%
 71
     4
 62
   256
 62
   257
300
ANSI31
 40
1.0
 90
        0
290
     0
290
     0
 90
        6
 40
0.0
 40
1.570796326794896
 40
0.2617993877991494
 40
1.308996938995747
 40
-0.2617993877991494
 40
1.832595714594046
  0
ACDBSECTIONVIEWSTYLE
  5
5EE
102
{ACAD_XDICTIONARY
360
631
102
}
102
{ACAD_REACTORS
330
5ED
330
604
330
606
102
}
330
5ED
100
AcDbModelDocViewStyle
 70
     0
  3
Metric50
290
     0
100
AcDbSectionViewStyle
 70
     0
 71
     0
 90
      102
 71
     1
340
11
 62
   256
 40
5.0
340
0
340
0
 62
   256
 40
5.0
300
I, O, Q, S, X, Z
 40
10.0
 90
        0
 40
2.5
 90
        0
 71
     2
340
16
 90
       25
 62
   256
340
16
 90
       50
 62
   256
 40
5.0
 40
2.5
 40
5.0
 71
     3
340
11
 62
   256
 40
5.0
 90
        0
 40
15.0
 90
        1
300
%<\AcVar ViewSectionStartId>%-%<\AcVar ViewSectionEndId>% (%<\AcVar ViewScale \f "%sn">%)
 71
     4
 62
   256
 62
   257
300
ANSI31
 40
1.0
 90
        0
290
     0
290
     0
 90
        6
 40
0.0
 40
1.570796326794896
 40
0.2617993877991494
 40
1.308996938995747
 40
-0.2617993877991494
 40
1.832595714594046
  0
TABLESTYLE
  5
11B
102
{ACAD_XDICTIONARY
360
41B
102
}
102
{ACAD_REACTORS
330
11A
102
}
330
11A
100
AcDbTableStyle
280
     0
  3
Standard
 70
     0
 71
     0
 40
1.5
 41
1.5
280
     0
281
     0
  7
STANDARD
140
4.5
170
     2
 62
     0
 63
     7
283
     0
 90
        4
 91
        0
  1

274
    -2
284
     1
 64
     0
275
    -2
285
     1
 65
     0
276
    -2
286
     1
 66
     0
277
    -2
287
     1
 67
     0
278
    -2
288
     1
 68
     0
279
    -2
289
     1
 69
     0
  7
STANDARD
140
6.0
170
     5
 62
     0
 63
     7
283
     0
 90
        4
 91
        0
  1

274
    -2
284
     1
 64
     0
275
    -2
285
     1
 65
     0
276
    -2
286
     1
 66
     0
277
    -2
287
     1
 67
     0
278
    -2
288
     1
 68
     0
279
    -2
289
     1
 69
     0
  7
STANDARD
140
4.5
170
     5
 62
     0
 63
     7
283
     0
 90
        4
 91
        0
  1

274
    -2
284
     1
 64
     0
275
    -2
285
     1
 65
     0
276
    -2
286
     1
 66
     0
277
    -2
287
     1
 67
     0
278
    -2
288
     1
 68
     0
279
    -2
289
     1
 69
     0
  0
VISUALSTYLE
  5
3D2
102
{ACAD_XDICTIONARY
360
B14
102
}
102
{ACAD_REACTORS
330
3CC
102
}
330
3CC
100
AcDbVisualStyle
  2
2dWireframe
 70
     4
177
     2
291
     0
 71
     0
176
     1
 72
     2
176
     1
 73
     0
176
     1
 90
        0
176
     1
 40
0.6
176
     1
 41
30.0
176
     1
 63
     7
421
 16777215
176
     1
 74
     1
176
     1
 91
        4
176
     1
 64
     7
176
     1
 65
   257
176
     1
 75
     1
176
     1
175
     1
176
     1
 42
1.0
176
     1
 92
        0
176
     1
 66
   257
176
     1
 43
1.0
176
     1
 76
     1
176
     1
 77
     6
176
     1
 78
     2
176
     1
 67
     7
176
     1
 79
     5
176
     1
170
     0
176
     1
171
     0
176
     1
290
     0
176
     1
 93
        1
176
     1
 44
0.0
176
     1
173
     0
176
     1
1001
ACAD
1000
AcDbSavedByObjectVersion
1070
     0
  0
VISUALSTYLE
  5
3D4
102
{ACAD_XDICTIONARY
360
B18
102
}
102
{ACAD_REACTORS
330
3CC
102
}
330
3CC
100
AcDbVisualStyle
  2
3D Hidden
 70
     6
177
     2
291
     0
 71
     1
176
     1
 72
     2
176
     1
 73
     2
176
     1
 90
        0
176
     1
 40
0.6
176
     1
 41
30.0
176
     1
 63
     7
421
 16777215
176
     1
 74
     2
176
     1
 91
        2
176
     1
 64
     7
176
     1
 65
   257
176
     1
 75
     2
176
     1
175
     1
176
     1
 42
40.0
176
     1
 92
        0
176
     1
 66
   257
176
     1
 43
1.0
176
     1
 76
     1
176
     1
 77
     6
176
     1
 78
     2
176
     1
 67
     7
176
     1
 79
     3
176
     1
170
     0
176
     1
171
     0
176
     1
290
     0
176
     1
 93
        1
176
     1
 44
0.0
176
     1
173
     0
176
     1
1001
ACAD
1000
AcDbSavedByObjectVersion
1070
     0
  0
VISUALSTYLE
  5
3D3
102
{ACAD_XDICTIONARY
360
B16
102
}
102
{ACAD_REACTORS
330
3CC
102
}
330
3CC
100
AcDbVisualStyle
  2
3dWireframe
 70
     5
177
     2
291
     0
 71
     0
176
     1
 72
     2
176
     1
 73
     0
176
     1
 90
        0
176
     1
 40
0.6
176
     1
 41
30.0
176
     1
 63
     7
421
 16777215
176
     1
 74
     1
176
     1
 91
        4
176
     1
 64
     7
176
     1
 65
   257
176
     1
 75
     1
176
     1
175
     1
176
     1
 42
1.0
176
     1
 92
        0
176
     1
 66
   257
176
     1
 43
1.0
176
     1
 76
     1
176
     1
 77
     6
176
     1
 78
     2
176
     1
 67
     7
176
     1
 79
     5
176
     1
170
     0
176
     1
171
     0
176
     1
290
     0
176
     1
 93
        1
176
     1
 44
0.0
176
     1
173
     0
176
     1
1001
ACAD
1000
AcDbSavedByObjectVersion
1070
     0
  0
VISUALSTYLE
  5
3D1
102
{ACAD_XDICTIONARY
360
B12
102
}
102
{ACAD_REACTORS
330
3CC
102
}
330
3CC
100
AcDbVisualStyle
  2
Basic
 70
     7
177
     2
291
     1
 71
     1
176
     1
 72
     0
176
     1
 73
     1
176
     1
 90
        0
176
     1
 40
0.6
176
     1
 41
30.0
176
     1
 63
     7
421
 16777215
176
     1
 74
     0
176
     1
 91
        4
176
     1
 64
     7
176
     1
 65
   257
176
     1
 75
     1
176
     1
175
     1
176
     1
 42
1.0
176
     1
 92
        8
176
     1
 66
     7
176
     1
 43
1.0
176
     1
 76
     1
176
     1
 77
     6
176
     1
 78
     2
176
     1
 67
     7
176
     1
 79
     5
176
     1
170
     0
176
     1
171
     0
176
     1
290
     0
176
     1
 93
        1
176
     1
 44
0.0
176
     1
173
     0
176
     1
1001
ACAD
1000
AcDbSavedByObjectVersion
1070
     0
  0
VISUALSTYLE
  5
3D8
102
{ACAD_XDICTIONARY
360
B20
102
}
102
{ACAD_REACTORS
330
3CC
102
}
330
3CC
100
AcDbVisualStyle
  2
Brighten
 70
    12
177
     2
291
     1
 71
     2
176
     1
 72
     2
176
     1
 73
     0
176
     1
 90
        0
176
     1
 40
0.6
176
     1
 41
30.0
176
     1
 63
     7
421
 16777215
176
     1
 74
     1
176
     1
 91
        4
176
     1
 64
     7
176
     1
 65
   257
176
     1
 75
     1
176
     1
175
     1
176
     1
 42
1.0
176
     1
 92
        8
176
     1
 66
     7
176
     1
 43
1.0
176
     1
 76
     1
176
     1
 77
     6
176
     1
 78
     2
176
     1
 67
     7
176
     1
 79
     5
176
     1
170
     0
176
     1
171
     0
176
     1
290
     0
176
     1
 93
        1
176
     1
 44
50.0
176
     1
173
     0
176
     1
1001
ACAD
1000
AcDbSavedByObjectVersion
1070
     0
  0
VISUALSTYLE
  5
3DC
102
{ACAD_XDICTIONARY
360
B28
102
}
102
{ACAD_REACTORS
330
3CC
102
}
330
3CC
100
AcDbVisualStyle
  2
ColorChange
 70
    16
177
     2
291
     1
 71
     2
176
     1
 72
     2
176
     1
 73
     3
176
     1
 90
        0
176
     1
 40
0.6
176
     1
 41
30.0
176
     1
 63
     8
421
  8421504
176
     1
 74
     1
176
     1
 91
        4
176
     1
 64
     7
176
     1
 65
   257
176
     1
 75
     1
176
     1
175
     1
176
     1
 42
1.0
176
     1
 92
        8
176
     1
 66
     8
424
  8421504
176
     1
 43
1.0
176
     1
 76
     1
176
     1
 77
     6
176
     1
 78
     2
176
     1
 67
     7
176
     1
 79
     5
176
     1
170
     0
176
     1
171
     0
176
     1
290
     0
176
     1
 93
        1
176
     1
 44
0.0
176
     1
173
     0
176
     1
1001
ACAD
1000
AcDbSavedByObjectVersion
1070
     0
  0
VISUALSTYLE
  5
3D5
102
{ACAD_XDICTIONARY
360
B1A
102
}
102
{ACAD_REACTORS
330
3CC
102
}
330
3CC
100
AcDbVisualStyle
  2
Conceptual
 70
     9
177
     2
291
     0
 71
     3
176
     1
 72
     2
176
     1
 73
     0
176
     1
 90
        0
176
     1
 40
0.6
176
     1
 41
30.0
176
     1
 63
     7
421
 16777215
176
     1
 74
     2
176
     1
 91
        2
176
     1
 64
     7
176
     1
 65
   257
176
     1
 75
     1
176
     1
175
     1
176
     1
 42
40.0
176
     1
 92
        8
176
     1
 66
     7
176
     1
 43
1.0
176
     1
 76
     1
176
     1
 77
     6
176
     1
 78
     2
176
     1
 67
     7
176
     1
 79
     3
176
     1
170
     0
176
     1
171
     0
176
     1
290
     0
176
     1
 93
        1
176
     1
 44
0.0
176
     1
173
     0
176
     1
1001
ACAD
1000
AcDbSavedByObjectVersion
1070
     0
  0
VISUALSTYLE
  5
3D7
102
{ACAD_XDICTIONARY
360
B1E
102
}
102
{ACAD_REACTORS
330
3CC
102
}
330
3CC
100
AcDbVisualStyle
  2
Dim
 70
    11
177
     2
291
     1
 71
     2
176
     1
 72
     2
176
     1
 73
     0
176
     1
 90
        0
176
     1
 40
0.6
176
     1
 41
30.0
176
     1
 63
     7
421
 16777215
176
     1
 74
     1
176
     1
 91
        4
176
     1
 64
     7
176
     1
 65
   257
176
     1
 75
     1
176
     1
175
     1
176
     1
 42
1.0
176
     1
 92
        8
176
     1
 66
     7
176
     1
 43
1.0
176
     1
 76
     1
176
     1
 77
     6
176
     1
 78
     2
176
     1
 67
     7
176
     1
 79
     5
176
     1
170
     0
176
     1
171
     0
176
     1
290
     0
176
     1
 93
        1
176
     1
 44
-50.0
176
     1
173
     0
176
     1
1001
ACAD
1000
AcDbSavedByObjectVersion
1070
     0
  0
VISUALSTYLE
  5
5A4
102
{ACAD_XDICTIONARY
360
B2E
102
}
102
{ACAD_REACTORS
330
3CC
102
}
330
3CC
100
AcDbVisualStyle
  2
EdgeColorOff
 70
    22
177
     2
291
     1
 71
     2
176
     0
 72
     2
176
     0
 73
     0
176
     0
 90
        0
176
     0
 40
0.6
176
     0
 41
30.0
176
     0
 63
     7
421
 16777215
176
     0
 74
     1
176
     0
 91
        4
176
     0
 64
     7
176
     0
 65
   257
176
     0
 75
     1
176
     0
175
     1
176
     0
 42
1.0
176
     0
 92
        8
176
     2
 66
     7
176
     0
 43
1.0
176
     0
 76
     1
176
     0
 77
     6
176
     0
 78
     2
176
     0
 67
     7
176
     0
 79
     5
176
     0
170
     0
176
     0
171
     0
176
     0
290
     0
176
     0
 93
        1
176
     0
 44
0.0
176
     0
173
     0
176
     0
1001
ACAD
1000
AcDbSavedByObjectVersion
1070
     0
  0
VISUALSTYLE
  5
3DB
102
{ACAD_XDICTIONARY
360
B26
102
}
102
{ACAD_REACTORS
330
3CC
102
}
330
3CC
100
AcDbVisualStyle
  2
Facepattern
 70
    15
177
     2
291
     1
 71
     2
176
     1
 72
     2
176
     1
 73
     0
176
     1
 90
        0
176
     1
 40
0.6
176
     1
 41
30.0
176
     1
 63
     7
421
 16777215
176
     1
 74
     1
176
     1
 91
        4
176
     1
 64
     7
176
     1
 65
   257
176
     1
 75
     1
176
     1
175
     1
176
     1
 42
1.0
176
     1
 92
        8
176
     1
 66
     7
176
     1
 43
1.0
176
     1
 76
     1
176
     1
 77
     6
176
     1
 78
     2
176
     1
 67
     7
176
     1
 79
     5
176
     1
170
     0
176
     1
171
     0
176
     1
290
     0
176
     1
 93
        1
176
     1
 44
0.0
176
     1
173
     0
176
     1
1001
ACAD
1000
AcDbSavedByObjectVersion
1070
     0
  0
VISUALSTYLE
  5
3CD
102
{ACAD_XDICTIONARY
360
B0A
102
}
102
{ACAD_REACTORS
330
3CC
102
}
330
3CC
100
AcDbVisualStyle
  2
Flat
 70
     0
177
     2
291
     1
 71
     2
176
     1
 72
     1
176
     1
 73
     1
176
     1
 90
        2
176
     1
 40
0.6
176
     1
 41
30.0
176
     1
 63
     7
421
 16777215
176
     1
 74
     0
176
     1
 91
        4
176
     1
 64
     7
176
     1
 65
   257
176
     1
 75
     1
176
     1
175
     1
176
     1
 42
1.0
176
     1
 92
        8
176
     1
 66
     7
176
     1
 43
1.0
176
     1
 76
     1
176
     1
 77
     6
176
     1
 78
     2
176
     1
 67
     7
176
     1
 79
     5
176
     1
170
     0
176
     1
171
     0
176
     1
290
     0
176
     1
 93
       13
176
     1
 44
0.0
176
     1
173
     0
176
     1
1001
ACAD
1000
AcDbSavedByObjectVersion
1070
     0
  0
VISUALSTYLE
  5
3CE
102
{ACAD_XDICTIONARY
360
B0C
102
}
102
{ACAD_REACTORS
330
3CC
102
}
330
3CC
100
AcDbVisualStyle
  2
FlatWithEdges
 70
     1
177
     2
291
     1
 71
     2
176
     1
 72
     1
176
     1
 73
     1
176
     1
 90
        2
176
     1
 40
0.6
176
     1
 41
30.0
176
     1
 63
     7
421
 16777215
176
     1
 74
     1
176
     1
 91
        4
176
     1
 64
     7
176
     1
 65
   257
176
     1
 75
     1
176
     1
175
     1
176
     1
 42
1.0
176
     1
 92
        0
176
     1
 66
   257
176
     1
 43
1.0
176
     1
 76
     1
176
     1
 77
     6
176
     1
 78
     2
176
     1
 67
     7
176
     1
 79
     5
176
     1
170
     0
176
     1
171
     0
176
     1
290
     0
176
     1
 93
       13
176
     1
 44
0.0
176
     1
173
     0
176
     1
1001
ACAD
1000
AcDbSavedByObjectVersion
1070
     0
  0
VISUALSTYLE
  5
3CF
102
{ACAD_XDICTIONARY
360
B0E
102
}
102
{ACAD_REACTORS
330
3CC
102
}
330
3CC
100
AcDbVisualStyle
  2
Gouraud
 70
     2
177
     2
291
     1
 71
     2
176
     1
 72
     2
176
     1
 73
     1
176
     1
 90
        2
176
     1
 40
0.6
176
     1
 41
30.0
176
     1
 63
     7
421
 16777215
176
     1
 74
     0
176
     1
 91
        4
176
     1
 64
     7
176
     1
 65
   257
176
     1
 75
     1
176
     1
175
     1
176
     1
 42
1.0
176
     1
 92
        0
176
     1
 66
     7
176
     1
 43
1.0
176
     1
 76
     1
176
     1
 77
     6
176
     1
 78
     2
176
     1
 67
     7
176
     1
 79
     5
176
     1
170
     0
176
     1
171
     0
176
     1
290
     0
176
     1
 93
       13
176
     1
 44
0.0
176
     1
173
     0
176
     1
1001
ACAD
1000
AcDbSavedByObjectVersion
1070
     0
  0
VISUALSTYLE
  5
3D0
102
{ACAD_XDICTIONARY
360
B10
102
}
102
{ACAD_REACTORS
330
3CC
102
}
330
3CC
100
AcDbVisualStyle
  2
GouraudWithEdges
 70
     3
177
     2
291
     1
 71
     2
176
     1
 72
     2
176
     1
 73
     1
176
     1
 90
        2
176
     1
 40
0.6
176
     1
 41
30.0
176
     1
 63
     7
421
 16777215
176
     1
 74
     1
176
     1
 91
        4
176
     1
 64
     7
176
     1
 65
   257
176
     1
 75
     1
176
     1
175
     1
176
     1
 42
1.0
176
     1
 92
        0
176
     1
 66
   257
176
     1
 43
1.0
176
     1
 76
     1
176
     1
 77
     6
176
     1
 78
     2
176
     1
 67
     7
176
     1
 79
     5
176
     1
170
     0
176
     1
171
     0
176
     1
290
     0
176
     1
 93
       13
176
     1
 44
0.0
176
     1
173
     0
176
     1
1001
ACAD
1000
AcDbSavedByObjectVersion
1070
     0
  0
VISUALSTYLE
  5
5E7
102
{ACAD_XDICTIONARY
360
B32
102
}
102
{ACAD_REACTORS
330
3CC
102
}
330
3CC
100
AcDbVisualStyle
  2
Hidden
 70
     6
177
     2
291
     0
 71
     1
176
     1
 72
     2
176
     1
 73
     2
176
     1
 90
        0
176
     1
 40
0.6
176
     1
 41
30.0
176
     1
 63
     7
421
 16777215
176
     1
 74
     2
176
     1
 91
        2
176
     1
 64
     7
176
     1
 65
   257
176
     1
 75
     2
176
     1
175
     1
176
     1
 42
40.0
176
     1
 92
        0
176
     1
 66
   257
176
     1
 43
1.0
176
     1
 76
     1
176
     1
 77
     6
176
     1
 78
     2
176
     1
 67
     7
176
     1
 79
     3
176
     1
170
     0
176
     1
171
     0
176
     1
290
     0
176
     1
 93
        1
176
     1
 44
0.0
176
     1
173
     0
176
     1
1001
ACAD
1000
AcDbSavedByObjectVersion
1070
     0
  0
VISUALSTYLE
  5
5A2
102
{ACAD_XDICTIONARY
360
B2A
102
}
102
{ACAD_REACTORS
330
3CC
102
}
330
3CC
100
AcDbVisualStyle
  2
JitterOff
 70
    20
177
     2
291
     1
 71
     2
176
     0
 72
     2
176
     0
 73
     0
176
     0
 90
        0
176
     0
 40
0.6
176
     0
 41
30.0
176
     0
 63
     7
421
 16777215
176
     0
 74
     1
176
     0
 91
        4
176
     0
 64
     7
176
     0
 65
   257
176
     0
 75
     1
176
     0
175
     1
176
     0
 42
1.0
176
     0
 92
       10
176
     2
 66
     7
176
     0
 43
1.0
176
     0
 76
     1
176
     0
 77
     6
176
     0
 78
     2
176
     0
 67
     7
176
     0
 79
     5
176
     0
170
     0
176
     0
171
     0
176
     0
290
     0
176
     0
 93
        1
176
     0
 44
0.0
176
     0
173
     0
176
     0
1001
ACAD
1000
AcDbSavedByObjectVersion
1070
     0
  0
VISUALSTYLE
  5
3DA
102
{ACAD_XDICTIONARY
360
B24
102
}
102
{ACAD_REACTORS
330
3CC
102
}
330
3CC
100
AcDbVisualStyle
  2
Linepattern
 70
    14
177
     2
291
     1
 71
     2
176
     1
 72
     2
176
     1
 73
     0
176
     1
 90
        0
176
     1
 40
0.6
176
     1
 41
30.0
176
     1
 63
     7
421
 16777215
176
     1
 74
     1
176
     1
 91
        4
176
     1
 64
     7
176
     1
 65
   257
176
     1
 75
     7
176
     1
175
     7
176
     1
 42
1.0
176
     1
 92
        8
176
     1
 66
     7
176
     1
 43
1.0
176
     1
 76
     1
176
     1
 77
     6
176
     1
 78
     2
176
     1
 67
     7
176
     1
 79
     5
176
     1
170
     0
176
     1
171
     0
176
     1
290
     0
176
     1
 93
        1
176
     1
 44
0.0
176
     1
173
     0
176
     1
1001
ACAD
1000
AcDbSavedByObjectVersion
1070
     0
  0
VISUALSTYLE
  5
5A3
102
{ACAD_XDICTIONARY
360
B2C
102
}
102
{ACAD_REACTORS
330
3CC
102
}
330
3CC
100
AcDbVisualStyle
  2
OverhangOff
 70
    21
177
     2
291
     1
 71
     2
176
     0
 72
     2
176
     0
 73
     0
176
     0
 90
        0
176
     0
 40
0.6
176
     0
 41
30.0
176
     0
 63
     7
421
 16777215
176
     0
 74
     1
176
     0
 91
        4
176
     0
 64
     7
176
     0
 65
   257
176
     0
 75
     1
176
     0
175
     1
176
     0
 42
1.0
176
     0
 92
        9
176
     2
 66
     7
176
     0
 43
1.0
176
     0
 76
     1
176
     0
 77
     6
176
     0
 78
     2
176
     0
 67
     7
176
     0
 79
     5
176
     0
170
     0
176
     0
171
     0
176
     0
290
     0
176
     0
 93
        1
176
     0
 44
0.0
176
     0
173
     0
176
     0
1001
ACAD
1000
AcDbSavedByObjectVersion
1070
     0
  0
VISUALSTYLE
  5
3D6
102
{ACAD_XDICTIONARY
360
B1C
102
}
102
{ACAD_REACTORS
330
3CC
102
}
330
3CC
100
AcDbVisualStyle
  2
Realistic
 70
     8
177
     2
291
     0
 71
     2
176
     1
 72
     2
176
     1
 73
     0
176
     1
 90
        0
176
     1
 40
0.6
176
     1
 41
30.0
176
     1
 63
     7
421
 16777215
176
     1
 74
     1
176
     1
 91
        0
176
     1
 64
     7
176
     1
 65
   257
176
     1
 75
     1
176
     1
175
     1
176
     1
 42
1.0
176
     1
 92
        8
176
     1
 66
     8
424
  7895160
176
     1
 43
1.0
176
     1
 76
     1
176
     1
 77
     6
176
     1
 78
     2
176
     1
 67
     7
176
     1
 79
     5
176
     1
170
     0
176
     1
171
     0
176
     1
290
     0
176
     1
 93
       13
176
     1
 44
0.0
176
     1
173
     0
176
     1
1001
ACAD
1000
AcDbSavedByObjectVersion
1070
     0
  0
VISUALSTYLE
  5
5EC
102
{ACAD_XDICTIONARY
360
B3C
102
}
102
{ACAD_REACTORS
330
3CC
102
}
330
3CC
100
AcDbVisualStyle
  2
Shaded
 70
    27
177
     2
291
     0
 71
     2
176
     1
 72
     2
176
     1
 73
     1
176
     1
 90
        2
176
     1
 40
0.6
176
     1
 41
30.0
176
     1
 63
     7
421
 16777215
176
     1
 74
     0
176
     1
 91
        4
176
     1
 64
     7
176
     1
 65
   257
176
     1
 75
     1
176
     1
175
     1
176
     1
 42
1.0
176
     1
 92
        8
176
     1
 66
   257
176
     1
 43
1.0
176
     1
 76
     1
176
     1
 77
     6
176
     1
 78
     2
176
     1
 67
     8
425
  7895160
176
     1
 79
     3
176
     1
170
     0
176
     1
171
     0
176
     1
290
     0
176
     1
 93
        5
176
     1
 44
0.0
176
     1
173
     0
176
     1
1001
ACAD
1000
AcDbSavedByObjectVersion
1070
     0
  0
VISUALSTYLE
  5
5EB
102
{ACAD_XDICTIONARY
360
B3A
102
}
102
{ACAD_REACTORS
330
3CC
102
}
330
3CC
100
AcDbVisualStyle
  2
Shaded with edges
 70
    26
177
     2
291
     0
 71
     2
176
     1
 72
     2
176
     1
 73
     1
176
     1
 90
        2
176
     1
 40
0.6
176
     1
 41
30.0
176
     1
 63
     7
421
 16777215
176
     1
 74
     1
176
     1
 91
       10
176
     1
 64
     7
176
     1
 65
   257
176
     1
 75
     2
176
     1
175
     1
176
     1
 42
1.0
176
     1
 92
        8
176
     1
 66
   257
176
     1
 43
1.0
176
     1
 76
     1
176
     1
 77
     6
176
     1
 78
     2
176
     1
 67
     7
176
     1
 79
     3
176
     1
170
     0
176
     1
171
     0
176
     1
290
     0
176
     1
 93
        5
176
     1
 44
0.0
176
     1
173
     0
176
     1
1001
ACAD
1000
AcDbSavedByObjectVersion
1070
     0
  0
VISUALSTYLE
  5
5E8
102
{ACAD_XDICTIONARY
360
B34
102
}
102
{ACAD_REACTORS
330
3CC
102
}
330
3CC
100
AcDbVisualStyle
  2
Shades of Gray
 70
    23
177
     2
291
     0
 71
     2
176
     1
 72
     2
176
     1
 73
     3
176
     1
 90
        0
176
     1
 40
0.6
176
     1
 41
30.0
176
     1
 63
     7
421
 16777215
176
     1
 74
     2
176
     1
 91
        2
176
     1
 64
     7
176
     1
 65
     7
176
     1
 75
     1
176
     1
175
     1
176
     1
 42
40.0
176
     1
 92
        8
176
     1
 66
     7
176
     1
 43
1.0
176
     1
 76
     1
176
     1
 77
     6
176
     1
 78
     2
176
     1
 67
     7
176
     1
 79
     3
176
     1
170
     0
176
     1
171
     0
176
     1
290
     0
176
     1
 93
        1
176
     1
 44
0.0
176
     1
173
     0
176
     1
1001
ACAD
1000
AcDbSavedByObjectVersion
1070
     0
  0
VISUALSTYLE
  5
5E9
102
{ACAD_XDICTIONARY
360
B36
102
}
102
{ACAD_REACTORS
330
3CC
102
}
330
3CC
100
AcDbVisualStyle
  2
Sketchy
 70
    24
177
     2
291
     0
 71
     1
176
     1
 72
     2
176
     1
 73
     2
176
     1
 90
        0
176
     1
 40
0.6
176
     1
 41
30.0
176
     1
 63
     7
421
 16777215
176
     1
 74
     2
176
     1
 91
        2
176
     1
 64
     7
176
     1
 65
     7
176
     1
 75
     1
176
     1
175
     1
176
     1
 42
40.0
176
     1
 92
       11
176
     1
 66
     7
176
     1
 43
1.0
176
     1
 76
     1
176
     1
 77
     6
176
     1
 78
     2
176
     1
 67
     7
176
     1
 79
     6
176
     1
170
     0
176
     1
171
     0
176
     1
290
     0
176
     1
 93
        1
176
     1
 44
0.0
176
     1
173
     0
176
     1
1001
ACAD
1000
AcDbSavedByObjectVersion
1070
     0
  0
VISUALSTYLE
  5
3D9
102
{ACAD_XDICTIONARY
360
B22
102
}
102
{ACAD_REACTORS
330
3CC
102
}
330
3CC
100
AcDbVisualStyle
  2
Thicken
 70
    13
177
     2
291
     1
 71
     2
176
     1
 72
     2
176
     1
 73
     0
176
     1
 90
        0
176
     1
 40
0.6
176
     1
 41
30.0
176
     1
 63
     7
421
 16777215
176
     1
 74
     1
176
     1
 91
        4
176
     1
 64
     7
176
     1
 65
   257
176
     1
 75
     1
176
     1
175
     1
176
     1
 42
1.0
176
     1
 92
       12
176
     1
 66
     7
176
     1
 43
1.0
176
     1
 76
     1
176
     1
 77
     6
176
     1
 78
     2
176
     1
 67
     7
176
     1
 79
     5
176
     1
170
     0
176
     1
171
     0
176
     1
290
     0
176
     1
 93
        1
176
     1
 44
0.0
176
     1
173
     0
176
     1
1001
ACAD
1000
AcDbSavedByObjectVersion
1070
     0
  0
VISUALSTYLE
  5
5E6
102
{ACAD_XDICTIONARY
360
B30
102
}
102
{ACAD_REACTORS
330
3CC
102
}
330
3CC
100
AcDbVisualStyle
  2
Wireframe
 70
     5
177
     2
291
     0
 71
     0
176
     1
 72
     2
176
     1
 73
     0
176
     1
 90
        0
176
     1
 40
0.6
176
     1
 41
30.0
176
     1
 63
     7
421
 16777215
176
     1
 74
     1
176
     1
 91
        4
176
     1
 64
     7
176
     1
 65
   257
176
     1
 75
     1
176
     1
175
     1
176
     1
 42
1.0
176
     1
 92
        0
176
     1
 66
   257
176
     1
 43
1.0
176
     1
 76
     1
176
     1
 77
     6
176
     1
 78
     2
176
     1
 67
     7
176
     1
 79
     3
176
     1
170
     0
176
     1
171
     0
176
     1
290
     0
176
     1
 93
        1
176
     1
 44
0.0
176
     1
173
     0
176
     1
1001
ACAD
1000
AcDbSavedByObjectVersion
1070
     0
  0
VISUALSTYLE
  5
5EA
102
{ACAD_XDICTIONARY
360
B38
102
}
102
{ACAD_REACTORS
330
3CC
102
}
330
3CC
100
AcDbVisualStyle
  2
X-Ray
 70
    25
177
     2
291
     0
 71
     2
176
     1
 72
     2
176
     1
 73
     1
176
     1
 90
        1
176
     1
 40
0.5
176
     1
 41
30.0
176
     1
 63
     7
421
 16777215
176
     1
 74
     1
176
     1
 91
        0
176
     1
 64
     7
176
     1
 65
   257
176
     1
 75
     1
176
     1
175
     1
176
     1
 42
1.0
176
     1
 92
        8
176
     1
 66
     7
176
     1
 43
1.0
176
     1
 76
     1
176
     1
 77
     6
176
     1
 78
     2
176
     1
 67
     7
176
     1
 79
     3
176
     1
170
     0
176
     1
171
     0
176
     1
290
     0
176
     1
 93
       13
176
     1
 44
0.0
176
     1
173
     0
176
     1
1001
ACAD
1000
AcDbSavedByObjectVersion
1070
     0
  0
DICTIONARYVAR
  5
420
102
{ACAD_REACTORS
330
94
102
}
330
94
100
DictionaryVariables
280
     0
  1
1:1
  0
DICTIONARYVAR
  5
41E
102
{ACAD_REACTORS
330
94
102
}
330
94
100
DictionaryVariables
280
     0
  1
STANDARD
  0
DICTIONARYVAR
  5
138
102
{ACAD_REACTORS
330
94
102
}
330
94
100
DictionaryVariables
280
     0
  1
STANDARD
  0
DICTIONARYVAR
  5
63B
102
{ACAD_REACTORS
330
94
102
}
330
94
100
DictionaryVariables
280
     0
  1
Metric50
  0
DICTIONARYVAR
  5
63C
102
{ACAD_REACTORS
330
94
102
}
330
94
100
DictionaryVariables
280
     0
  1
Metric50
  0
DICTIONARYVAR
  5
96
102
{ACAD_REACTORS
330
94
102
}
330
94
100
DictionaryVariables
280
     0
  1
2
  0
DICTIONARYVAR
  5
95
102
{ACAD_REACTORS
330
94
102
}
330
94
100
DictionaryVariables
280
     0
  1
1
  0
DICTIONARYVAR
  5
422
102
{ACAD_REACTORS
330
94
102
}
330
94
100
DictionaryVariables
280
     0
  1
1
  0
DICTIONARYVAR
  5
423
102
{ACAD_REACTORS
330
94
102
}
330
94
100
DictionaryVariables
280
     0
  1
15
  0
DICTIONARYVAR
  5
421
102
{ACAD_REACTORS
330
94
102
}
330
94
100
DictionaryVariables
280
     0
  1
0
  0
DICTIONARYVAR
  5
41F
102
{ACAD_REACTORS
330
94
102
}
330
94
100
DictionaryVariables
280
     0
  1
0
  0
DICTIONARY
  5
B09
102
{ACAD_REACTORS
330
B07
102
}
330
B07
100
AcDbDictionary
281
     1
  0
DICTIONARY
  5
B08
102
{ACAD_REACTORS
330
B07
102
}
330
B07
100
AcDbDictionary
281
     1
  3
8796088742432
350
B02
  3
8796088742448
350
B03
  3
8796088742464
350
B04
  3
8796088742480
350
B05
  3
8796088742496
350
B06
  0
DICTIONARY
  5
272
102
{ACAD_REACTORS
330
5B
102
}
330
5B
100
AcDbDictionary
281
     1
  0
DICTIONARY
  5
61
102
{ACAD_REACTORS
330
5B
102
}
330
5B
100
AcDbDictionary
281
     1
  0
XRECORD
  5
123
102
{ACAD_REACTORS
330
5B
102
}
330
5B
100
AcDbXrecord
280
     1
 90
-1023410169
  0
DICTIONARY
  5
633
330
5F0
100
AcDbDictionary
280
     1
281
     1
  3
ACAD_XREC_ROUNDTRIP
360
B3F
  0
DICTIONARY
  5
5E3
330
22
100
AcDbDictionary
280
     1
281
     1
  0
DICTIONARY
  5
3BD
330
3BC
100
AcDbDictionary
280
     1
281
     1
  3
BUMPTILE
360
3BF
  3
DIFFUSETILE
360
3BE
  3
OPACITYTILE
360
3C2
  3
REFLECTIONTILE
360
3C1
  3
REFRACTIONTILE
360
3C3
  3
SPECULARTILE
360
3C0
  0
DICTIONARY
  5
3B5
330
3B4
100
AcDbDictionary
280
     1
281
     1
  3
BUMPTILE
360
3B7
  3
DIFFUSETILE
360
3B6
  3
OPACITYTILE
360
3BA
  3
REFLECTIONTILE
360
3B9
  3
REFRACTIONTILE
360
3BB
  3
SPECULARTILE
360
3B8
  0
DICTIONARY
  5
3C5
330
3C4
100
AcDbDictionary
280
     1
281
     1
  3
BUMPTILE
360
3C7
  3
DIFFUSETILE
360
3C6
  3
OPACITYTILE
360
3CA
  3
REFLECTIONTILE
360
3C9
  3
REFRACTIONTILE
360
3CB
  3
SPECULARTILE
360
3C8
  0
DICTIONARY
  5
6C4
330
6C3
100
AcDbDictionary
280
     1
281
     1
  3
ACAD_FIELD
360
6C5
  3
ACAD_XREC_ROUNDTRIP
360
B40
  0
DICTIONARY
  5
631
330
5EE
100
AcDbDictionary
280
     1
281
     1
  3
ACAD_XREC_ROUNDTRIP
360
B3E
  0
DICTIONARY
  5
41B
330
11B
100
AcDbDictionary
280
     1
281
     1
  3
ACAD_ROUNDTRIP_2008_TABLESTYLE_CELLSTYLEMAP
360
B00
  0
DICTIONARY
  5
B14
330
3D2
100
AcDbDictionary
280
     1
281
     1
  3
ACAD_XREC_ROUNDTRIP
360
B15
  0
DICTIONARY
  5
B18
330
3D4
100
AcDbDictionary
280
     1
281
     1
  3
ACAD_XREC_ROUNDTRIP
360
B19
  0
DICTIONARY
  5
B16
330
3D3
100
AcDbDictionary
280
     1
281
     1
  3
ACAD_XREC_ROUNDTRIP
360
B17
  0
DICTIONARY
  5
B12
330
3D1
100
AcDbDictionary
280
     1
281
     1
  3
ACAD_XREC_ROUNDTRIP
360
B13
  0
DICTIONARY
  5
B20
330
3D8
100
AcDbDictionary
280
     1
281
     1
  3
ACAD_XREC_ROUNDTRIP
360
B21
  0
DICTIONARY
  5
B28
330
3DC
100
AcDbDictionary
280
     1
281
     1
  3
ACAD_XREC_ROUNDTRIP
360
B29
  0
DICTIONARY
  5
B1A
330
3D5
100
AcDbDictionary
280
     1
281
     1
  3
ACAD_XREC_ROUNDTRIP
360
B1B
  0
DICTIONARY
  5
B1E
330
3D7
100
AcDbDictionary
280
     1
281
     1
  3
ACAD_XREC_ROUNDTRIP
360
B1F
  0
DICTIONARY
  5
B2E
330
5A4
100
AcDbDictionary
280
     1
281
     1
  3
ACAD_XREC_ROUNDTRIP
360
B2F
  0
DICTIONARY
  5
B26
330
3DB
100
AcDbDictionary
280
     1
281
     1
  3
ACAD_XREC_ROUNDTRIP
360
B27
  0
DICTIONARY
  5
B0A
330
3CD
100
AcDbDictionary
280
     1
281
     1
  3
ACAD_XREC_ROUNDTRIP
360
B0B
  0
DICTIONARY
  5
B0C
330
3CE
100
AcDbDictionary
280
     1
281
     1
  3
ACAD_XREC_ROUNDTRIP
360
B0D
  0
DICTIONARY
  5
B0E
330
3CF
100
AcDbDictionary
280
     1
281
     1
  3
ACAD_XREC_ROUNDTRIP
360
B0F
  0
DICTIONARY
  5
B10
330
3D0
100
AcDbDictionary
280
     1
281
     1
  3
ACAD_XREC_ROUNDTRIP
360
B11
  0
DICTIONARY
  5
B32
330
5E7
100
AcDbDictionary
280
     1
281
     1
  3
ACAD_XREC_ROUNDTRIP
360
B33
  0
DICTIONARY
  5
B2A
330
5A2
100
AcDbDictionary
280
     1
281
     1
  3
ACAD_XREC_ROUNDTRIP
360
B2B
  0
DICTIONARY
  5
B24
330
3DA
100
AcDbDictionary
280
     1
281
     1
  3
ACAD_XREC_ROUNDTRIP
360
B25
  0
DICTIONARY
  5
B2C
330
5A3
100
AcDbDictionary
280
     1
281
     1
  3
ACAD_XREC_ROUNDTRIP
360
B2D
  0
DICTIONARY
  5
B1C
330
3D6
100
AcDbDictionary
280
     1
281
     1
  3
ACAD_XREC_ROUNDTRIP
360
B1D
  0
DICTIONARY
  5
B3C
330
5EC
100
AcDbDictionary
280
     1
281
     1
  3
ACAD_XREC_ROUNDTRIP
360
B3D
  0
DICTIONARY
  5
B3A
330
5EB
100
AcDbDictionary
280
     1
281
     1
  3
ACAD_XREC_ROUNDTRIP
360
B3B
  0
DICTIONARY
  5
B34
330
5E8
100
AcDbDictionary
280
     1
281
     1
  3
ACAD_XREC_ROUNDTRIP
360
B35
  0
DICTIONARY
  5
B36
330
5E9
100
AcDbDictionary
280
     1
281
     1
  3
ACAD_XREC_ROUNDTRIP
360
B37
  0
DICTIONARY
  5
B22
330
3D9
100
AcDbDictionary
280
     1
281
     1
  3
ACAD_XREC_ROUNDTRIP
360
B23
  0
DICTIONARY
  5
B30
330
5E6
100
AcDbDictionary
280
     1
281
     1
  3
ACAD_XREC_ROUNDTRIP
360
B31
  0
DICTIONARY
  5
B38
330
5EA
100
AcDbDictionary
280
     1
281
     1
  3
ACAD_XREC_ROUNDTRIP
360
B39
  0
XRECORD
  5
B02
102
{ACAD_REACTORS
330
B08
102
}
330
B08
100
AcDbXrecord
280
     1
  1
AcDb_Thumbnail_Schema
102
{ATTRRECORD
341
B03
  2
AcDbDs::TreatedAsObjectData
280
     1
291
     1
102
ATTRRECORD}
102
{ATTRRECORD
341
B04
  2
AcDbDs::Legacy
280
     1
291
     1
102
ATTRRECORD}
  2
AcDbDs::ID
280
    10
 91
        8
102
{ATTRRECORD
341
B05
  2
AcDs:Indexable
280
     1
291
     1
102
ATTRRECORD}
102
{ATTRRECORD
341
B06
  2
AcDbDs::HandleAttribute
280
     7
282
     1
102
ATTRRECORD}
  2
Thumbnail_Data
280
    15
 91
        0
  0
XRECORD
  5
B03
102
{ACAD_REACTORS
330
B08
102
}
330
B08
100
AcDbXrecord
280
     1
  1
AcDbDs::TreatedAsObjectDataSchema
  2
AcDbDs::TreatedAsObjectData
280
     1
 91
        0
  0
XRECORD
  5
B04
102
{ACAD_REACTORS
330
B08
102
}
330
B08
100
AcDbXrecord
280
     1
  1
AcDbDs::LegacySchema
  2
AcDbDs::Legacy
280
     1
 91
        0
  0
XRECORD
  5
B05
102
{ACAD_REACTORS
330
B08
102
}
330
B08
100
AcDbXrecord
280
     1
  1
AcDbDs::IndexedPropertySchema
  2
AcDs:Indexable
280
     1
 91
        0
  0
XRECORD
  5
B06
102
{ACAD_REACTORS
330
B08
102
}
330
B08
100
AcDbXrecord
280
     1
  1
AcDbDs::HandleAttributeSchema
  2
AcDbDs::HandleAttribute
280
     7
 91
        1
284
     1
  0
XRECORD
  5
B3F
102
{ACAD_REACTORS
330
633
102
}
330
633
100
AcDbXrecord
280
     1
102
DISPLAYNAME
  1
Metric50
102
FLAGS
 90
        0
  0
XRECORD
  5
3BF
102
{ACAD_REACTORS
330
3BD
102
}
330
3BD
100
AcDbXrecord
280
     1
270
     1
271
     1
  0
XRECORD
  5
3BE
102
{ACAD_REACTORS
330
3BD
102
}
330
3BD
100
AcDbXrecord
280
     1
270
     1
271
     1
  0
XRECORD
  5
3C2
102
{ACAD_REACTORS
330
3BD
102
}
330
3BD
100
AcDbXrecord
280
     1
270
     1
271
     1
  0
XRECORD
  5
3C1
102
{ACAD_REACTORS
330
3BD
102
}
330
3BD
100
AcDbXrecord
280
     1
270
     1
271
     1
  0
XRECORD
  5
3C3
102
{ACAD_REACTORS
330
3BD
102
}
330
3BD
100
AcDbXrecord
280
     1
270
     1
271
     1
  0
XRECORD
  5
3C0
102
{ACAD_REACTORS
330
3BD
102
}
330
3BD
100
AcDbXrecord
280
     1
270
     1
271
     1
  0
XRECORD
  5
3B7
102
{ACAD_REACTORS
330
3B5
102
}
330
3B5
100
AcDbXrecord
280
     1
270
     1
271
     1
  0
XRECORD
  5
3B6
102
{ACAD_REACTORS
330
3B5
102
}
330
3B5
100
AcDbXrecord
280
     1
270
     1
271
     1
  0
XRECORD
  5
3BA
102
{ACAD_REACTORS
330
3B5
102
}
330
3B5
100
AcDbXrecord
280
     1
270
     1
271
     1
  0
XRECORD
  5
3B9
102
{ACAD_REACTORS
330
3B5
102
}
330
3B5
100
AcDbXrecord
280
     1
270
     1
271
     1
  0
XRECORD
  5
3BB
102
{ACAD_REACTORS
330
3B5
102
}
330
3B5
100
AcDbXrecord
280
     1
270
     1
271
     1
  0
XRECORD
  5
3B8
102
{ACAD_REACTORS
330
3B5
102
}
330
3B5
100
AcDbXrecord
280
     1
270
     1
271
     1
  0
XRECORD
  5
3C7
102
{ACAD_REACTORS
330
3C5
102
}
330
3C5
100
AcDbXrecord
280
     1
270
     1
271
     1
  0
XRECORD
  5
3C6
102
{ACAD_REACTORS
330
3C5
102
}
330
3C5
100
AcDbXrecord
280
     1
270
     1
271
     1
  0
XRECORD
  5
3CA
102
{ACAD_REACTORS
330
3C5
102
}
330
3C5
100
AcDbXrecord
280
     1
270
     1
271
     1
  0
XRECORD
  5
3C9
102
{ACAD_REACTORS
330
3C5
102
}
330
3C5
100
AcDbXrecord
280
     1
270
     1
271
     1
  0
XRECORD
  5
3CB
102
{ACAD_REACTORS
330
3C5
102
}
330
3C5
100
AcDbXrecord
280
     1
270
     1
271
     1
  0
XRECORD
  5
3C8
102
{ACAD_REACTORS
330
3C5
102
}
330
3C5
100
AcDbXrecord
280
     1
270
     1
271
     1
  0
DICTIONARY
  5
6C5
102
{ACAD_REACTORS
330
6C4
102
}
330
6C4
100
AcDbDictionary
280
     1
281
     1
  3
TEXT
360
6C6
  0
XRECORD
  5
B40
102
{ACAD_REACTORS
330
6C4
102
}
330
6C4
100
AcDbXrecord
280
     1
102
DISPLAYNAME
  1
ISO 128-40:2001(E)
102
FLAGS
 90
        0
  0
XRECORD
  5
B3E
102
{ACAD_REACTORS
330
631
102
}
330
631
100
AcDbXrecord
280
     1
102
DISPLAYNAME
  1
Metric50
102
FLAGS
 90
        0
  0
CELLSTYLEMAP
  5
B00
102
{ACAD_REACTORS
330
41B
102
}
330
41B
100
AcDbCellStyleMap
 90
        3
300
CELLSTYLE
  1
TABLEFORMAT_BEGIN
 90
        5
170
     1
 91
        0
 92
    32768
 62
   257
 93
        1
300
CONTENTFORMAT
  1
CONTENTFORMAT_BEGIN
 90
        0
 91
        0
 92
        4
 93
        0
300

 40
0.0
140
1.0
 94
        5
 62
     0
340
11
144
6.0
309
CONTENTFORMAT_END
171
     1
301
MARGIN
  1
CELLMARGIN_BEGIN
 40
1.5
 40
1.5
 40
1.5
 40
1.5
 40
0.18
 40
0.18
309
CELLMARGIN_END
 94
        6
 95
        1
302
GRIDFORMAT
  1
GRIDFORMAT_BEGIN
 90
        0
 91
        1
 62
     0
 92
       -2
340
0
 93
        0
 40
0.045
309
GRIDFORMAT_END
 95
        2
302
GRIDFORMAT
  1
GRIDFORMAT_BEGIN
 90
        0
 91
        1
 62
     0
 92
       -2
340
0
 93
        0
 40
0.045
309
GRIDFORMAT_END
 95
        4
302
GRIDFORMAT
  1
GRIDFORMAT_BEGIN
 90
        0
 91
        1
 62
     0
 92
       -2
340
0
 93
        0
 40
0.045
309
GRIDFORMAT_END
 95
        8
302
GRIDFORMAT
  1
GRIDFORMAT_BEGIN
 90
        0
 91
        1
 62
     0
 92
       -2
340
0
 93
        0
 40
0.045
309
GRIDFORMAT_END
 95
       16
302
GRIDFORMAT
  1
GRIDFORMAT_BEGIN
 90
        0
 91
        1
 62
     0
 92
       -2
340
0
 93
        0
 40
0.045
309
GRIDFORMAT_END
 95
       32
302
GRIDFORMAT
  1
GRIDFORMAT_BEGIN
 90
        0
 91
        1
 62
     0
 92
       -2
340
0
 93
        0
 40
0.045
309
GRIDFORMAT_END
309
TABLEFORMAT_END
  1
CELLSTYLE_BEGIN
 90
        1
 91
        1
300
_TITLE
309
CELLSTYLE_END
300
CELLSTYLE
  1
TABLEFORMAT_BEGIN
 90
        5
170
     1
 91
        0
 92
        0
 62
   257
 93
        1
300
CONTENTFORMAT
  1
CONTENTFORMAT_BEGIN
 90
        0
 91
        0
 92
        4
 93
        0
300

 40
0.0
140
1.0
 94
        5
 62
     0
340
11
144
4.5
309
CONTENTFORMAT_END
171
     1
301
MARGIN
  1
CELLMARGIN_BEGIN
 40
1.5
 40
1.5
 40
1.5
 40
1.5
 40
0.18
 40
0.18
309
CELLMARGIN_END
 94
        6
 95
        1
302
GRIDFORMAT
  1
GRIDFORMAT_BEGIN
 90
        0
 91
        1
 62
     0
 92
       -2
340
0
 93
        0
 40
0.045
309
GRIDFORMAT_END
 95
        2
302
GRIDFORMAT
  1
GRIDFORMAT_BEGIN
 90
        0
 91
        1
 62
     0
 92
       -2
340
0
 93
        0
 40
0.045
309
GRIDFORMAT_END
 95
        4
302
GRIDFORMAT
  1
GRIDFORMAT_BEGIN
 90
        0
 91
        1
 62
     0
 92
       -2
340
0
 93
        0
 40
0.045
309
GRIDFORMAT_END
 95
        8
302
GRIDFORMAT
  1
GRIDFORMAT_BEGIN
 90
        0
 91
        1
 62
     0
 92
       -2
340
0
 93
        0
 40
0.045
309
GRIDFORMAT_END
 95
       16
302
GRIDFORMAT
  1
GRIDFORMAT_BEGIN
 90
        0
 91
        1
 62
     0
 92
       -2
340
0
 93
        0
 40
0.045
309
GRIDFORMAT_END
 95
       32
302
GRIDFORMAT
  1
GRIDFORMAT_BEGIN
 90
        0
 91
        1
 62
     0
 92
       -2
340
0
 93
        0
 40
0.045
309
GRIDFORMAT_END
309
TABLEFORMAT_END
  1
CELLSTYLE_BEGIN
 90
        2
 91
        1
300
_HEADER
309
CELLSTYLE_END
300
CELLSTYLE
  1
TABLEFORMAT_BEGIN
 90
        5
170
     1
 91
        0
 92
        0
 62
   257
 93
        1
300
CONTENTFORMAT
  1
CONTENTFORMAT_BEGIN
 90
        0
 91
        0
 92
        4
 93
        0
300

 40
0.0
140
1.0
 94
        2
 62
     0
340
11
144
4.5
309
CONTENTFORMAT_END
171
     1
301
MARGIN
  1
CELLMARGIN_BEGIN
 40
1.5
 40
1.5
 40
1.5
 40
1.5
 40
0.18
 40
0.18
309
CELLMARGIN_END
 94
        6
 95
        1
302
GRIDFORMAT
  1
GRIDFORMAT_BEGIN
 90
        0
 91
        1
 62
     0
 92
       -2
340
0
 93
        0
 40
0.045
309
GRIDFORMAT_END
 95
        2
302
GRIDFORMAT
  1
GRIDFORMAT_BEGIN
 90
        0
 91
        1
 62
     0
 92
       -2
340
0
 93
        0
 40
0.045
309
GRIDFORMAT_END
 95
        4
302
GRIDFORMAT
  1
GRIDFORMAT_BEGIN
 90
        0
 91
        1
 62
     0
 92
       -2
340
0
 93
        0
 40
0.045
309
GRIDFORMAT_END
 95
        8
302
GRIDFORMAT
  1
GRIDFORMAT_BEGIN
 90
        0
 91
        1
 62
     0
 92
       -2
340
0
 93
        0
 40
0.045
309
GRIDFORMAT_END
 95
       16
302
GRIDFORMAT
  1
GRIDFORMAT_BEGIN
 90
        0
 91
        1
 62
     0
 92
       -2
340
0
 93
        0
 40
0.045
309
GRIDFORMAT_END
 95
       32
302
GRIDFORMAT
  1
GRIDFORMAT_BEGIN
 90
        0
 91
        1
 62
     0
 92
       -2
340
0
 93
        0
 40
0.045
309
GRIDFORMAT_END
309
TABLEFORMAT_END
  1
CELLSTYLE_BEGIN
 90
        3
 91
        2
300
_DATA
309
CELLSTYLE_END
  0
XRECORD
  5
B15
102
{ACAD_REACTORS
330
B14
102
}
330
B14
100
AcDbXrecord
280
     1
102
RTVSPost2010Prop28
280
     1
102
RTVSPost2010PropOp28
 70
     1
102
RTVSPost2010Prop29
280
     1
102
RTVSPost2010PropOp29
 70
     1
102
RTVSPost2010Prop30
280
     0
102
RTVSPost2010PropOp30
 70
     1
102
RTVSPost2010Prop31
280
     0
102
RTVSPost2010PropOp31
 70
     1
102
RTVSPost2010Prop32
280
     0
102
RTVSPost2010PropOp32
 70
     1
102
RTVSPost2010Prop33
280
     0
102
RTVSPost2010PropOp33
 70
     1
102
RTVSPost2010Prop34
280
     0
102
RTVSPost2010PropOp34
 70
     1
102
RTVSPost2010Prop35
280
     0
102
RTVSPost2010PropOp35
 70
     1
102
RTVSPost2010Prop36
280
     0
102
RTVSPost2010PropOp36
 70
     1
102
RTVSPost2010Prop37
 90
       50
102
RTVSPost2010PropOp37
 70
     1
102
RTVSPost2010Prop38
140
0.0
102
RTVSPost2010PropOp38
 70
     1
102
RTVSPost2010Prop39
140
1.0
102
RTVSPost2010PropOp39
 70
     1
102
RTVSPost2010Prop40
 90
        0
102
RTVSPost2010PropOp40
 70
     1
102
RTVSPost2010Prop41ColorIndex
 90
       18
102
RTVSPost2010Prop41ColorRGB
 90
        0
102
RTVSPost2010PropOp41
 70
     1
102
RTVSPost2010Prop42
 90
       50
102
RTVSPost2010PropOp42
 70
     1
102
RTVSPost2010Prop43
 90
        3
102
RTVSPost2010PropOp43
 70
     1
102
RTVSPost2010Prop44ColorIndex
 90
        5
102
RTVSPost2010Prop44ColorRGB
 90
      255
102
RTVSPost2010PropOp44
 70
     1
102
RTVSPost2010Prop45
280
     0
102
RTVSPost2010PropOp45
 70
     1
102
RTVSPost2010Prop46
 90
       50
102
RTVSPost2010PropOp46
 70
     1
102
RTVSPost2010Prop47
 90
       50
102
RTVSPost2010PropOp47
 70
     1
102
RTVSPost2010Prop48
 90
       50
102
RTVSPost2010PropOp48
 70
     1
102
RTVSPost2010Prop49
280
     0
102
RTVSPost2010PropOp49
 70
     1
102
RTVSPost2010Prop50
 90
       50
102
RTVSPost2010PropOp50
 70
     1
102
RTVSPost2010Prop51ColorIndex
 90
      256
102
RTVSPost2010Prop51ColorRGB
 90
-16777216
102
RTVSPost2010PropOp51
 70
     0
102
RTVSPost2010Prop52
140
1.0
102
RTVSPost2010PropOp52
 70
     0
102
RTVSPost2010Prop53
 90
        2
102
RTVSPost2010PropOp53
 70
     1
102
RTVSPost2010Prop54
  1
strokes_ogs.tif
102
RTVSPost2010PropOp54
 70
     1
102
RTVSPost2010Prop55
280
     0
102
RTVSPost2010PropOp55
 70
     1
102
RTVSPost2010Prop56
140
1.0
102
RTVSPost2010PropOp56
 70
     1
102
RTVSPost2010Prop57
140
1.0
102
RTVSPost2010PropOp57
 70
     1
  0
XRECORD
  5
B19
102
{ACAD_REACTORS
330
B18
102
}
330
B18
100
AcDbXrecord
280
     1
102
RTVSPost2010Prop28
280
     0
102
RTVSPost2010PropOp28
 70
     1
102
RTVSPost2010Prop29
280
     1
102
RTVSPost2010PropOp29
 70
     1
102
RTVSPost2010Prop30
280
     1
102
RTVSPost2010PropOp30
 70
     1
102
RTVSPost2010Prop31
280
     0
102
RTVSPost2010PropOp31
 70
     1
102
RTVSPost2010Prop32
280
     0
102
RTVSPost2010PropOp32
 70
     1
102
RTVSPost2010Prop33
280
     0
102
RTVSPost2010PropOp33
 70
     1
102
RTVSPost2010Prop34
280
     0
102
RTVSPost2010PropOp34
 70
     1
102
RTVSPost2010Prop35
280
     0
102
RTVSPost2010PropOp35
 70
     1
102
RTVSPost2010Prop36
280
     0
102
RTVSPost2010PropOp36
 70
     1
102
RTVSPost2010Prop37
 90
       50
102
RTVSPost2010PropOp37
 70
     1
102
RTVSPost2010Prop38
140
0.0
102
RTVSPost2010PropOp38
 70
     1
102
RTVSPost2010Prop39
140
1.0
102
RTVSPost2010PropOp39
 70
     1
102
RTVSPost2010Prop40
 90
        0
102
RTVSPost2010PropOp40
 70
     1
102
RTVSPost2010Prop41ColorIndex
 90
       18
102
RTVSPost2010Prop41ColorRGB
 90
        0
102
RTVSPost2010PropOp41
 70
     1
102
RTVSPost2010Prop42
 90
       50
102
RTVSPost2010PropOp42
 70
     1
102
RTVSPost2010Prop43
 90
        3
102
RTVSPost2010PropOp43
 70
     1
102
RTVSPost2010Prop44ColorIndex
 90
        5
102
RTVSPost2010Prop44ColorRGB
 90
      255
102
RTVSPost2010PropOp44
 70
     1
102
RTVSPost2010Prop45
280
     0
102
RTVSPost2010PropOp45
 70
     1
102
RTVSPost2010Prop46
 90
       50
102
RTVSPost2010PropOp46
 70
     1
102
RTVSPost2010Prop47
 90
       50
102
RTVSPost2010PropOp47
 70
     1
102
RTVSPost2010Prop48
 90
       50
102
RTVSPost2010PropOp48
 70
     1
102
RTVSPost2010Prop49
280
     0
102
RTVSPost2010PropOp49
 70
     1
102
RTVSPost2010Prop50
 90
       50
102
RTVSPost2010PropOp50
 70
     1
102
RTVSPost2010Prop51ColorIndex
 90
      256
102
RTVSPost2010Prop51ColorRGB
 90
-16777216
102
RTVSPost2010PropOp51
 70
     0
102
RTVSPost2010Prop52
140
1.0
102
RTVSPost2010PropOp52
 70
     0
102
RTVSPost2010Prop53
 90
        2
102
RTVSPost2010PropOp53
 70
     1
102
RTVSPost2010Prop54
  1
strokes_ogs.tif
102
RTVSPost2010PropOp54
 70
     1
102
RTVSPost2010Prop55
280
     0
102
RTVSPost2010PropOp55
 70
     1
102
RTVSPost2010Prop56
140
1.0
102
RTVSPost2010PropOp56
 70
     1
102
RTVSPost2010Prop57
140
1.0
102
RTVSPost2010PropOp57
 70
     1
  0
XRECORD
  5
B17
102
{ACAD_REACTORS
330
B16
102
}
330
B16
100
AcDbXrecord
280
     1
102
RTVSPost2010Prop28
280
     0
102
RTVSPost2010PropOp28
 70
     1
102
RTVSPost2010Prop29
280
     1
102
RTVSPost2010PropOp29
 70
     1
102
RTVSPost2010Prop30
280
     1
102
RTVSPost2010PropOp30
 70
     1
102
RTVSPost2010Prop31
280
     0
102
RTVSPost2010PropOp31
 70
     1
102
RTVSPost2010Prop32
280
     0
102
RTVSPost2010PropOp32
 70
     1
102
RTVSPost2010Prop33
280
     0
102
RTVSPost2010PropOp33
 70
     1
102
RTVSPost2010Prop34
280
     0
102
RTVSPost2010PropOp34
 70
     1
102
RTVSPost2010Prop35
280
     0
102
RTVSPost2010PropOp35
 70
     1
102
RTVSPost2010Prop36
280
     0
102
RTVSPost2010PropOp36
 70
     1
102
RTVSPost2010Prop37
 90
       50
102
RTVSPost2010PropOp37
 70
     1
102
RTVSPost2010Prop38
140
0.0
102
RTVSPost2010PropOp38
 70
     1
102
RTVSPost2010Prop39
140
1.0
102
RTVSPost2010PropOp39
 70
     1
102
RTVSPost2010Prop40
 90
        0
102
RTVSPost2010PropOp40
 70
     1
102
RTVSPost2010Prop41ColorIndex
 90
       18
102
RTVSPost2010Prop41ColorRGB
 90
        0
102
RTVSPost2010PropOp41
 70
     1
102
RTVSPost2010Prop42
 90
       50
102
RTVSPost2010PropOp42
 70
     1
102
RTVSPost2010Prop43
 90
        3
102
RTVSPost2010PropOp43
 70
     1
102
RTVSPost2010Prop44ColorIndex
 90
        5
102
RTVSPost2010Prop44ColorRGB
 90
      255
102
RTVSPost2010PropOp44
 70
     1
102
RTVSPost2010Prop45
280
     0
102
RTVSPost2010PropOp45
 70
     1
102
RTVSPost2010Prop46
 90
       50
102
RTVSPost2010PropOp46
 70
     1
102
RTVSPost2010Prop47
 90
       50
102
RTVSPost2010PropOp47
 70
     1
102
RTVSPost2010Prop48
 90
       50
102
RTVSPost2010PropOp48
 70
     1
102
RTVSPost2010Prop49
280
     0
102
RTVSPost2010PropOp49
 70
     1
102
RTVSPost2010Prop50
 90
       50
102
RTVSPost2010PropOp50
 70
     1
102
RTVSPost2010Prop51ColorIndex
 90
      256
102
RTVSPost2010Prop51ColorRGB
 90
-16777216
102
RTVSPost2010PropOp51
 70
     0
102
RTVSPost2010Prop52
140
1.0
102
RTVSPost2010PropOp52
 70
     0
102
RTVSPost2010Prop53
 90
        2
102
RTVSPost2010PropOp53
 70
     1
102
RTVSPost2010Prop54
  1
strokes_ogs.tif
102
RTVSPost2010PropOp54
 70
     1
102
RTVSPost2010Prop55
280
     0
102
RTVSPost2010PropOp55
 70
     1
102
RTVSPost2010Prop56
140
1.0
102
RTVSPost2010PropOp56
 70
     1
102
RTVSPost2010Prop57
140
1.0
102
RTVSPost2010PropOp57
 70
     1
  0
XRECORD
  5
B13
102
{ACAD_REACTORS
330
B12
102
}
330
B12
100
AcDbXrecord
280
     1
102
RTVSPost2010Prop28
280
     0
102
RTVSPost2010PropOp28
 70
     1
102
RTVSPost2010Prop29
280
     1
102
RTVSPost2010PropOp29
 70
     1
102
RTVSPost2010Prop30
280
     1
102
RTVSPost2010PropOp30
 70
     1
102
RTVSPost2010Prop31
280
     0
102
RTVSPost2010PropOp31
 70
     1
102
RTVSPost2010Prop32
280
     0
102
RTVSPost2010PropOp32
 70
     1
102
RTVSPost2010Prop33
280
     0
102
RTVSPost2010PropOp33
 70
     1
102
RTVSPost2010Prop34
280
     0
102
RTVSPost2010PropOp34
 70
     1
102
RTVSPost2010Prop35
280
     0
102
RTVSPost2010PropOp35
 70
     1
102
RTVSPost2010Prop36
280
     0
102
RTVSPost2010PropOp36
 70
     1
102
RTVSPost2010Prop37
 90
       50
102
RTVSPost2010PropOp37
 70
     1
102
RTVSPost2010Prop38
140
0.0
102
RTVSPost2010PropOp38
 70
     1
102
RTVSPost2010Prop39
140
1.0
102
RTVSPost2010PropOp39
 70
     1
102
RTVSPost2010Prop40
 90
        0
102
RTVSPost2010PropOp40
 70
     1
102
RTVSPost2010Prop41ColorIndex
 90
       18
102
RTVSPost2010Prop41ColorRGB
 90
        0
102
RTVSPost2010PropOp41
 70
     1
102
RTVSPost2010Prop42
 90
       50
102
RTVSPost2010PropOp42
 70
     1
102
RTVSPost2010Prop43
 90
        3
102
RTVSPost2010PropOp43
 70
     1
102
RTVSPost2010Prop44ColorIndex
 90
        5
102
RTVSPost2010Prop44ColorRGB
 90
      255
102
RTVSPost2010PropOp44
 70
     1
102
RTVSPost2010Prop45
280
     0
102
RTVSPost2010PropOp45
 70
     1
102
RTVSPost2010Prop46
 90
       50
102
RTVSPost2010PropOp46
 70
     1
102
RTVSPost2010Prop47
 90
       50
102
RTVSPost2010PropOp47
 70
     1
102
RTVSPost2010Prop48
 90
       50
102
RTVSPost2010PropOp48
 70
     1
102
RTVSPost2010Prop49
280
     0
102
RTVSPost2010PropOp49
 70
     1
102
RTVSPost2010Prop50
 90
       50
102
RTVSPost2010PropOp50
 70
     1
102
RTVSPost2010Prop51ColorIndex
 90
      256
102
RTVSPost2010Prop51ColorRGB
 90
-16777216
102
RTVSPost2010PropOp51
 70
     0
102
RTVSPost2010Prop52
140
1.0
102
RTVSPost2010PropOp52
 70
     0
102
RTVSPost2010Prop53
 90
        2
102
RTVSPost2010PropOp53
 70
     1
102
RTVSPost2010Prop54
  1
strokes_ogs.tif
102
RTVSPost2010PropOp54
 70
     1
102
RTVSPost2010Prop55
280
     0
102
RTVSPost2010PropOp55
 70
     1
102
RTVSPost2010Prop56
140
1.0
102
RTVSPost2010PropOp56
 70
     1
102
RTVSPost2010Prop57
140
1.0
102
RTVSPost2010PropOp57
 70
     1
  0
XRECORD
  5
B21
102
{ACAD_REACTORS
330
B20
102
}
330
B20
100
AcDbXrecord
280
     1
102
RTVSPost2010Prop28
280
     0
102
RTVSPost2010PropOp28
 70
     1
102
RTVSPost2010Prop29
280
     1
102
RTVSPost2010PropOp29
 70
     1
102
RTVSPost2010Prop30
280
     1
102
RTVSPost2010PropOp30
 70
     1
102
RTVSPost2010Prop31
280
     0
102
RTVSPost2010PropOp31
 70
     1
102
RTVSPost2010Prop32
280
     0
102
RTVSPost2010PropOp32
 70
     1
102
RTVSPost2010Prop33
280
     0
102
RTVSPost2010PropOp33
 70
     1
102
RTVSPost2010Prop34
280
     0
102
RTVSPost2010PropOp34
 70
     1
102
RTVSPost2010Prop35
280
     0
102
RTVSPost2010PropOp35
 70
     1
102
RTVSPost2010Prop36
280
     0
102
RTVSPost2010PropOp36
 70
     1
102
RTVSPost2010Prop37
 90
       50
102
RTVSPost2010PropOp37
 70
     1
102
RTVSPost2010Prop38
140
0.0
102
RTVSPost2010PropOp38
 70
     1
102
RTVSPost2010Prop39
140
1.0
102
RTVSPost2010PropOp39
 70
     1
102
RTVSPost2010Prop40
 90
        0
102
RTVSPost2010PropOp40
 70
     1
102
RTVSPost2010Prop41ColorIndex
 90
       18
102
RTVSPost2010Prop41ColorRGB
 90
        0
102
RTVSPost2010PropOp41
 70
     1
102
RTVSPost2010Prop42
 90
       50
102
RTVSPost2010PropOp42
 70
     1
102
RTVSPost2010Prop43
 90
        3
102
RTVSPost2010PropOp43
 70
     1
102
RTVSPost2010Prop44ColorIndex
 90
        5
102
RTVSPost2010Prop44ColorRGB
 90
      255
102
RTVSPost2010PropOp44
 70
     1
102
RTVSPost2010Prop45
280
     0
102
RTVSPost2010PropOp45
 70
     1
102
RTVSPost2010Prop46
 90
       50
102
RTVSPost2010PropOp46
 70
     1
102
RTVSPost2010Prop47
 90
       50
102
RTVSPost2010PropOp47
 70
     1
102
RTVSPost2010Prop48
 90
       50
102
RTVSPost2010PropOp48
 70
     1
102
RTVSPost2010Prop49
280
     0
102
RTVSPost2010PropOp49
 70
     1
102
RTVSPost2010Prop50
 90
       50
102
RTVSPost2010PropOp50
 70
     1
102
RTVSPost2010Prop51ColorIndex
 90
      256
102
RTVSPost2010Prop51ColorRGB
 90
-16777216
102
RTVSPost2010PropOp51
 70
     0
102
RTVSPost2010Prop52
140
1.0
102
RTVSPost2010PropOp52
 70
     0
102
RTVSPost2010Prop53
 90
        2
102
RTVSPost2010PropOp53
 70
     1
102
RTVSPost2010Prop54
  1
strokes_ogs.tif
102
RTVSPost2010PropOp54
 70
     1
102
RTVSPost2010Prop55
280
     0
102
RTVSPost2010PropOp55
 70
     1
102
RTVSPost2010Prop56
140
1.0
102
RTVSPost2010PropOp56
 70
     1
102
RTVSPost2010Prop57
140
1.0
102
RTVSPost2010PropOp57
 70
     1
  0
XRECORD
  5
B29
102
{ACAD_REACTORS
330
B28
102
}
330
B28
100
AcDbXrecord
280
     1
102
RTVSPost2010Prop28
280
     0
102
RTVSPost2010PropOp28
 70
     1
102
RTVSPost2010Prop29
280
     1
102
RTVSPost2010PropOp29
 70
     1
102
RTVSPost2010Prop30
280
     1
102
RTVSPost2010PropOp30
 70
     1
102
RTVSPost2010Prop31
280
     0
102
RTVSPost2010PropOp31
 70
     1
102
RTVSPost2010Prop32
280
     0
102
RTVSPost2010PropOp32
 70
     1
102
RTVSPost2010Prop33
280
     0
102
RTVSPost2010PropOp33
 70
     1
102
RTVSPost2010Prop34
280
     0
102
RTVSPost2010PropOp34
 70
     1
102
RTVSPost2010Prop35
280
     0
102
RTVSPost2010PropOp35
 70
     1
102
RTVSPost2010Prop36
280
     0
102
RTVSPost2010PropOp36
 70
     1
102
RTVSPost2010Prop37
 90
       50
102
RTVSPost2010PropOp37
 70
     1
102
RTVSPost2010Prop38
140
0.0
102
RTVSPost2010PropOp38
 70
     1
102
RTVSPost2010Prop39
140
1.0
102
RTVSPost2010PropOp39
 70
     1
102
RTVSPost2010Prop40
 90
        0
102
RTVSPost2010PropOp40
 70
     1
102
RTVSPost2010Prop41ColorIndex
 90
       18
102
RTVSPost2010Prop41ColorRGB
 90
        0
102
RTVSPost2010PropOp41
 70
     1
102
RTVSPost2010Prop42
 90
       50
102
RTVSPost2010PropOp42
 70
     1
102
RTVSPost2010Prop43
 90
        3
102
RTVSPost2010PropOp43
 70
     1
102
RTVSPost2010Prop44ColorIndex
 90
        5
102
RTVSPost2010Prop44ColorRGB
 90
      255
102
RTVSPost2010PropOp44
 70
     1
102
RTVSPost2010Prop45
280
     0
102
RTVSPost2010PropOp45
 70
     1
102
RTVSPost2010Prop46
 90
       50
102
RTVSPost2010PropOp46
 70
     1
102
RTVSPost2010Prop47
 90
       50
102
RTVSPost2010PropOp47
 70
     1
102
RTVSPost2010Prop48
 90
       50
102
RTVSPost2010PropOp48
 70
     1
102
RTVSPost2010Prop49
280
     0
102
RTVSPost2010PropOp49
 70
     1
102
RTVSPost2010Prop50
 90
       50
102
RTVSPost2010PropOp50
 70
     1
102
RTVSPost2010Prop51ColorIndex
 90
      256
102
RTVSPost2010Prop51ColorRGB
 90
-16777216
102
RTVSPost2010PropOp51
 70
     0
102
RTVSPost2010Prop52
140
1.0
102
RTVSPost2010PropOp52
 70
     0
102
RTVSPost2010Prop53
 90
        2
102
RTVSPost2010PropOp53
 70
     1
102
RTVSPost2010Prop54
  1
strokes_ogs.tif
102
RTVSPost2010PropOp54
 70
     1
102
RTVSPost2010Prop55
280
     0
102
RTVSPost2010PropOp55
 70
     1
102
RTVSPost2010Prop56
140
1.0
102
RTVSPost2010PropOp56
 70
     1
102
RTVSPost2010Prop57
140
1.0
102
RTVSPost2010PropOp57
 70
     1
  0
XRECORD
  5
B1B
102
{ACAD_REACTORS
330
B1A
102
}
330
B1A
100
AcDbXrecord
280
     1
102
RTVSPost2010Prop28
280
     0
102
RTVSPost2010PropOp28
 70
     1
102
RTVSPost2010Prop29
280
     1
102
RTVSPost2010PropOp29
 70
     1
102
RTVSPost2010Prop30
280
     1
102
RTVSPost2010PropOp30
 70
     1
102
RTVSPost2010Prop31
280
     0
102
RTVSPost2010PropOp31
 70
     1
102
RTVSPost2010Prop32
280
     0
102
RTVSPost2010PropOp32
 70
     1
102
RTVSPost2010Prop33
280
     0
102
RTVSPost2010PropOp33
 70
     1
102
RTVSPost2010Prop34
280
     0
102
RTVSPost2010PropOp34
 70
     1
102
RTVSPost2010Prop35
280
     0
102
RTVSPost2010PropOp35
 70
     1
102
RTVSPost2010Prop36
280
     0
102
RTVSPost2010PropOp36
 70
     1
102
RTVSPost2010Prop37
 90
       50
102
RTVSPost2010PropOp37
 70
     1
102
RTVSPost2010Prop38
140
0.0
102
RTVSPost2010PropOp38
 70
     1
102
RTVSPost2010Prop39
140
1.0
102
RTVSPost2010PropOp39
 70
     1
102
RTVSPost2010Prop40
 90
        0
102
RTVSPost2010PropOp40
 70
     1
102
RTVSPost2010Prop41ColorIndex
 90
       18
102
RTVSPost2010Prop41ColorRGB
 90
        0
102
RTVSPost2010PropOp41
 70
     1
102
RTVSPost2010Prop42
 90
       50
102
RTVSPost2010PropOp42
 70
     1
102
RTVSPost2010Prop43
 90
        3
102
RTVSPost2010PropOp43
 70
     1
102
RTVSPost2010Prop44ColorIndex
 90
        5
102
RTVSPost2010Prop44ColorRGB
 90
      255
102
RTVSPost2010PropOp44
 70
     1
102
RTVSPost2010Prop45
280
     0
102
RTVSPost2010PropOp45
 70
     1
102
RTVSPost2010Prop46
 90
       50
102
RTVSPost2010PropOp46
 70
     1
102
RTVSPost2010Prop47
 90
       50
102
RTVSPost2010PropOp47
 70
     1
102
RTVSPost2010Prop48
 90
       50
102
RTVSPost2010PropOp48
 70
     1
102
RTVSPost2010Prop49
280
     0
102
RTVSPost2010PropOp49
 70
     1
102
RTVSPost2010Prop50
 90
       50
102
RTVSPost2010PropOp50
 70
     1
102
RTVSPost2010Prop51ColorIndex
 90
      256
102
RTVSPost2010Prop51ColorRGB
 90
-16777216
102
RTVSPost2010PropOp51
 70
     0
102
RTVSPost2010Prop52
140
1.0
102
RTVSPost2010PropOp52
 70
     0
102
RTVSPost2010Prop53
 90
        2
102
RTVSPost2010PropOp53
 70
     1
102
RTVSPost2010Prop54
  1
strokes_ogs.tif
102
RTVSPost2010PropOp54
 70
     1
102
RTVSPost2010Prop55
280
     0
102
RTVSPost2010PropOp55
 70
     1
102
RTVSPost2010Prop56
140
1.0
102
RTVSPost2010PropOp56
 70
     1
102
RTVSPost2010Prop57
140
1.0
102
RTVSPost2010PropOp57
 70
     1
  0
XRECORD
  5
B1F
102
{ACAD_REACTORS
330
B1E
102
}
330
B1E
100
AcDbXrecord
280
     1
102
RTVSPost2010Prop28
280
     0
102
RTVSPost2010PropOp28
 70
     1
102
RTVSPost2010Prop29
280
     1
102
RTVSPost2010PropOp29
 70
     1
102
RTVSPost2010Prop30
280
     1
102
RTVSPost2010PropOp30
 70
     1
102
RTVSPost2010Prop31
280
     0
102
RTVSPost2010PropOp31
 70
     1
102
RTVSPost2010Prop32
280
     0
102
RTVSPost2010PropOp32
 70
     1
102
RTVSPost2010Prop33
280
     0
102
RTVSPost2010PropOp33
 70
     1
102
RTVSPost2010Prop34
280
     0
102
RTVSPost2010PropOp34
 70
     1
102
RTVSPost2010Prop35
280
     0
102
RTVSPost2010PropOp35
 70
     1
102
RTVSPost2010Prop36
280
     0
102
RTVSPost2010PropOp36
 70
     1
102
RTVSPost2010Prop37
 90
       50
102
RTVSPost2010PropOp37
 70
     1
102
RTVSPost2010Prop38
140
0.0
102
RTVSPost2010PropOp38
 70
     1
102
RTVSPost2010Prop39
140
1.0
102
RTVSPost2010PropOp39
 70
     1
102
RTVSPost2010Prop40
 90
        0
102
RTVSPost2010PropOp40
 70
     1
102
RTVSPost2010Prop41ColorIndex
 90
       18
102
RTVSPost2010Prop41ColorRGB
 90
        0
102
RTVSPost2010PropOp41
 70
     1
102
RTVSPost2010Prop42
 90
       50
102
RTVSPost2010PropOp42
 70
     1
102
RTVSPost2010Prop43
 90
        3
102
RTVSPost2010PropOp43
 70
     1
102
RTVSPost2010Prop44ColorIndex
 90
        5
102
RTVSPost2010Prop44ColorRGB
 90
      255
102
RTVSPost2010PropOp44
 70
     1
102
RTVSPost2010Prop45
280
     0
102
RTVSPost2010PropOp45
 70
     1
102
RTVSPost2010Prop46
 90
       50
102
RTVSPost2010PropOp46
 70
     1
102
RTVSPost2010Prop47
 90
       50
102
RTVSPost2010PropOp47
 70
     1
102
RTVSPost2010Prop48
 90
       50
102
RTVSPost2010PropOp48
 70
     1
102
RTVSPost2010Prop49
280
     0
102
RTVSPost2010PropOp49
 70
     1
102
RTVSPost2010Prop50
 90
       50
102
RTVSPost2010PropOp50
 70
     1
102
RTVSPost2010Prop51ColorIndex
 90
      256
102
RTVSPost2010Prop51ColorRGB
 90
-16777216
102
RTVSPost2010PropOp51
 70
     0
102
RTVSPost2010Prop52
140
1.0
102
RTVSPost2010PropOp52
 70
     0
102
RTVSPost2010Prop53
 90
        2
102
RTVSPost2010PropOp53
 70
     1
102
RTVSPost2010Prop54
  1
strokes_ogs.tif
102
RTVSPost2010PropOp54
 70
     1
102
RTVSPost2010Prop55
280
     0
102
RTVSPost2010PropOp55
 70
     1
102
RTVSPost2010Prop56
140
1.0
102
RTVSPost2010PropOp56
 70
     1
102
RTVSPost2010Prop57
140
1.0
102
RTVSPost2010PropOp57
 70
     1
  0
XRECORD
  5
B2F
102
{ACAD_REACTORS
330
B2E
102
}
330
B2E
100
AcDbXrecord
280
     1
102
RTVSPost2010Prop28
280
     0
102
RTVSPost2010PropOp28
 70
     1
102
RTVSPost2010Prop29
280
     1
102
RTVSPost2010PropOp29
 70
     1
102
RTVSPost2010Prop30
280
     1
102
RTVSPost2010PropOp30
 70
     1
102
RTVSPost2010Prop31
280
     0
102
RTVSPost2010PropOp31
 70
     1
102
RTVSPost2010Prop32
280
     0
102
RTVSPost2010PropOp32
 70
     1
102
RTVSPost2010Prop33
280
     0
102
RTVSPost2010PropOp33
 70
     1
102
RTVSPost2010Prop34
280
     0
102
RTVSPost2010PropOp34
 70
     1
102
RTVSPost2010Prop35
280
     0
102
RTVSPost2010PropOp35
 70
     1
102
RTVSPost2010Prop36
280
     0
102
RTVSPost2010PropOp36
 70
     1
102
RTVSPost2010Prop37
 90
       50
102
RTVSPost2010PropOp37
 70
     1
102
RTVSPost2010Prop38
140
0.0
102
RTVSPost2010PropOp38
 70
     1
102
RTVSPost2010Prop39
140
1.0
102
RTVSPost2010PropOp39
 70
     1
102
RTVSPost2010Prop40
 90
        0
102
RTVSPost2010PropOp40
 70
     1
102
RTVSPost2010Prop41ColorIndex
 90
       18
102
RTVSPost2010Prop41ColorRGB
 90
        0
102
RTVSPost2010PropOp41
 70
     1
102
RTVSPost2010Prop42
 90
       50
102
RTVSPost2010PropOp42
 70
     1
102
RTVSPost2010Prop43
 90
        3
102
RTVSPost2010PropOp43
 70
     1
102
RTVSPost2010Prop44ColorIndex
 90
        5
102
RTVSPost2010Prop44ColorRGB
 90
      255
102
RTVSPost2010PropOp44
 70
     1
102
RTVSPost2010Prop45
280
     0
102
RTVSPost2010PropOp45
 70
     1
102
RTVSPost2010Prop46
 90
       50
102
RTVSPost2010PropOp46
 70
     1
102
RTVSPost2010Prop47
 90
       50
102
RTVSPost2010PropOp47
 70
     1
102
RTVSPost2010Prop48
 90
       50
102
RTVSPost2010PropOp48
 70
     1
102
RTVSPost2010Prop49
280
     0
102
RTVSPost2010PropOp49
 70
     1
102
RTVSPost2010Prop50
 90
       50
102
RTVSPost2010PropOp50
 70
     1
102
RTVSPost2010Prop51ColorIndex
 90
      256
102
RTVSPost2010Prop51ColorRGB
 90
-16777216
102
RTVSPost2010PropOp51
 70
     0
102
RTVSPost2010Prop52
140
1.0
102
RTVSPost2010PropOp52
 70
     0
102
RTVSPost2010Prop53
 90
        2
102
RTVSPost2010PropOp53
 70
     1
102
RTVSPost2010Prop54
  1
strokes_ogs.tif
102
RTVSPost2010PropOp54
 70
     1
102
RTVSPost2010Prop55
280
     0
102
RTVSPost2010PropOp55
 70
     1
102
RTVSPost2010Prop56
140
1.0
102
RTVSPost2010PropOp56
 70
     1
102
RTVSPost2010Prop57
140
1.0
102
RTVSPost2010PropOp57
 70
     1
  0
XRECORD
  5
B27
102
{ACAD_REACTORS
330
B26
102
}
330
B26
100
AcDbXrecord
280
     1
102
RTVSPost2010Prop28
280
     0
102
RTVSPost2010PropOp28
 70
     1
102
RTVSPost2010Prop29
280
     1
102
RTVSPost2010PropOp29
 70
     1
102
RTVSPost2010Prop30
280
     1
102
RTVSPost2010PropOp30
 70
     1
102
RTVSPost2010Prop31
280
     0
102
RTVSPost2010PropOp31
 70
     1
102
RTVSPost2010Prop32
280
     0
102
RTVSPost2010PropOp32
 70
     1
102
RTVSPost2010Prop33
280
     0
102
RTVSPost2010PropOp33
 70
     1
102
RTVSPost2010Prop34
280
     0
102
RTVSPost2010PropOp34
 70
     1
102
RTVSPost2010Prop35
280
     0
102
RTVSPost2010PropOp35
 70
     1
102
RTVSPost2010Prop36
280
     0
102
RTVSPost2010PropOp36
 70
     1
102
RTVSPost2010Prop37
 90
       50
102
RTVSPost2010PropOp37
 70
     1
102
RTVSPost2010Prop38
140
0.0
102
RTVSPost2010PropOp38
 70
     1
102
RTVSPost2010Prop39
140
1.0
102
RTVSPost2010PropOp39
 70
     1
102
RTVSPost2010Prop40
 90
        0
102
RTVSPost2010PropOp40
 70
     1
102
RTVSPost2010Prop41ColorIndex
 90
       18
102
RTVSPost2010Prop41ColorRGB
 90
        0
102
RTVSPost2010PropOp41
 70
     1
102
RTVSPost2010Prop42
 90
       50
102
RTVSPost2010PropOp42
 70
     1
102
RTVSPost2010Prop43
 90
        3
102
RTVSPost2010PropOp43
 70
     1
102
RTVSPost2010Prop44ColorIndex
 90
        5
102
RTVSPost2010Prop44ColorRGB
 90
      255
102
RTVSPost2010PropOp44
 70
     1
102
RTVSPost2010Prop45
280
     0
102
RTVSPost2010PropOp45
 70
     1
102
RTVSPost2010Prop46
 90
       50
102
RTVSPost2010PropOp46
 70
     1
102
RTVSPost2010Prop47
 90
       50
102
RTVSPost2010PropOp47
 70
     1
102
RTVSPost2010Prop48
 90
       50
102
RTVSPost2010PropOp48
 70
     1
102
RTVSPost2010Prop49
280
     0
102
RTVSPost2010PropOp49
 70
     1
102
RTVSPost2010Prop50
 90
       50
102
RTVSPost2010PropOp50
 70
     1
102
RTVSPost2010Prop51ColorIndex
 90
      256
102
RTVSPost2010Prop51ColorRGB
 90
-16777216
102
RTVSPost2010PropOp51
 70
     0
102
RTVSPost2010Prop52
140
1.0
102
RTVSPost2010PropOp52
 70
     0
102
RTVSPost2010Prop53
 90
        2
102
RTVSPost2010PropOp53
 70
     1
102
RTVSPost2010Prop54
  1
strokes_ogs.tif
102
RTVSPost2010PropOp54
 70
     1
102
RTVSPost2010Prop55
280
     0
102
RTVSPost2010PropOp55
 70
     1
102
RTVSPost2010Prop56
140
1.0
102
RTVSPost2010PropOp56
 70
     1
102
RTVSPost2010Prop57
140
1.0
102
RTVSPost2010PropOp57
 70
     1
  0
XRECORD
  5
B0B
102
{ACAD_REACTORS
330
B0A
102
}
330
B0A
100
AcDbXrecord
280
     1
102
RTVSPost2010Prop28
280
     0
102
RTVSPost2010PropOp28
 70
     1
102
RTVSPost2010Prop29
280
     1
102
RTVSPost2010PropOp29
 70
     1
102
RTVSPost2010Prop30
280
     1
102
RTVSPost2010PropOp30
 70
     1
102
RTVSPost2010Prop31
280
     0
102
RTVSPost2010PropOp31
 70
     1
102
RTVSPost2010Prop32
280
     0
102
RTVSPost2010PropOp32
 70
     1
102
RTVSPost2010Prop33
280
     0
102
RTVSPost2010PropOp33
 70
     1
102
RTVSPost2010Prop34
280
     0
102
RTVSPost2010PropOp34
 70
     1
102
RTVSPost2010Prop35
280
     0
102
RTVSPost2010PropOp35
 70
     1
102
RTVSPost2010Prop36
280
     0
102
RTVSPost2010PropOp36
 70
     1
102
RTVSPost2010Prop37
 90
       50
102
RTVSPost2010PropOp37
 70
     1
102
RTVSPost2010Prop38
140
0.0
102
RTVSPost2010PropOp38
 70
     1
102
RTVSPost2010Prop39
140
1.0
102
RTVSPost2010PropOp39
 70
     1
102
RTVSPost2010Prop40
 90
        0
102
RTVSPost2010PropOp40
 70
     1
102
RTVSPost2010Prop41ColorIndex
 90
       18
102
RTVSPost2010Prop41ColorRGB
 90
        0
102
RTVSPost2010PropOp41
 70
     1
102
RTVSPost2010Prop42
 90
       50
102
RTVSPost2010PropOp42
 70
     1
102
RTVSPost2010Prop43
 90
        3
102
RTVSPost2010PropOp43
 70
     1
102
RTVSPost2010Prop44ColorIndex
 90
        5
102
RTVSPost2010Prop44ColorRGB
 90
      255
102
RTVSPost2010PropOp44
 70
     1
102
RTVSPost2010Prop45
280
     0
102
RTVSPost2010PropOp45
 70
     1
102
RTVSPost2010Prop46
 90
       50
102
RTVSPost2010PropOp46
 70
     1
102
RTVSPost2010Prop47
 90
       50
102
RTVSPost2010PropOp47
 70
     1
102
RTVSPost2010Prop48
 90
       50
102
RTVSPost2010PropOp48
 70
     1
102
RTVSPost2010Prop49
280
     0
102
RTVSPost2010PropOp49
 70
     1
102
RTVSPost2010Prop50
 90
       50
102
RTVSPost2010PropOp50
 70
     1
102
RTVSPost2010Prop51ColorIndex
 90
      256
102
RTVSPost2010Prop51ColorRGB
 90
-16777216
102
RTVSPost2010PropOp51
 70
     0
102
RTVSPost2010Prop52
140
1.0
102
RTVSPost2010PropOp52
 70
     0
102
RTVSPost2010Prop53
 90
        2
102
RTVSPost2010PropOp53
 70
     1
102
RTVSPost2010Prop54
  1
strokes_ogs.tif
102
RTVSPost2010PropOp54
 70
     1
102
RTVSPost2010Prop55
280
     0
102
RTVSPost2010PropOp55
 70
     1
102
RTVSPost2010Prop56
140
1.0
102
RTVSPost2010PropOp56
 70
     1
102
RTVSPost2010Prop57
140
1.0
102
RTVSPost2010PropOp57
 70
     1
  0
XRECORD
  5
B0D
102
{ACAD_REACTORS
330
B0C
102
}
330
B0C
100
AcDbXrecord
280
     1
102
RTVSPost2010Prop28
280
     0
102
RTVSPost2010PropOp28
 70
     1
102
RTVSPost2010Prop29
280
     1
102
RTVSPost2010PropOp29
 70
     1
102
RTVSPost2010Prop30
280
     1
102
RTVSPost2010PropOp30
 70
     1
102
RTVSPost2010Prop31
280
     0
102
RTVSPost2010PropOp31
 70
     1
102
RTVSPost2010Prop32
280
     0
102
RTVSPost2010PropOp32
 70
     1
102
RTVSPost2010Prop33
280
     0
102
RTVSPost2010PropOp33
 70
     1
102
RTVSPost2010Prop34
280
     0
102
RTVSPost2010PropOp34
 70
     1
102
RTVSPost2010Prop35
280
     0
102
RTVSPost2010PropOp35
 70
     1
102
RTVSPost2010Prop36
280
     0
102
RTVSPost2010PropOp36
 70
     1
102
RTVSPost2010Prop37
 90
       50
102
RTVSPost2010PropOp37
 70
     1
102
RTVSPost2010Prop38
140
0.0
102
RTVSPost2010PropOp38
 70
     1
102
RTVSPost2010Prop39
140
1.0
102
RTVSPost2010PropOp39
 70
     1
102
RTVSPost2010Prop40
 90
        0
102
RTVSPost2010PropOp40
 70
     1
102
RTVSPost2010Prop41ColorIndex
 90
       18
102
RTVSPost2010Prop41ColorRGB
 90
        0
102
RTVSPost2010PropOp41
 70
     1
102
RTVSPost2010Prop42
 90
       50
102
RTVSPost2010PropOp42
 70
     1
102
RTVSPost2010Prop43
 90
        3
102
RTVSPost2010PropOp43
 70
     1
102
RTVSPost2010Prop44ColorIndex
 90
        5
102
RTVSPost2010Prop44ColorRGB
 90
      255
102
RTVSPost2010PropOp44
 70
     1
102
RTVSPost2010Prop45
280
     0
102
RTVSPost2010PropOp45
 70
     1
102
RTVSPost2010Prop46
 90
       50
102
RTVSPost2010PropOp46
 70
     1
102
RTVSPost2010Prop47
 90
       50
102
RTVSPost2010PropOp47
 70
     1
102
RTVSPost2010Prop48
 90
       50
102
RTVSPost2010PropOp48
 70
     1
102
RTVSPost2010Prop49
280
     0
102
RTVSPost2010PropOp49
 70
     1
102
RTVSPost2010Prop50
 90
       50
102
RTVSPost2010PropOp50
 70
     1
102
RTVSPost2010Prop51ColorIndex
 90
      256
102
RTVSPost2010Prop51ColorRGB
 90
-16777216
102
RTVSPost2010PropOp51
 70
     0
102
RTVSPost2010Prop52
140
1.0
102
RTVSPost2010PropOp52
 70
     0
102
RTVSPost2010Prop53
 90
        2
102
RTVSPost2010PropOp53
 70
     1
102
RTVSPost2010Prop54
  1
strokes_ogs.tif
102
RTVSPost2010PropOp54
 70
     1
102
RTVSPost2010Prop55
280
     0
102
RTVSPost2010PropOp55
 70
     1
102
RTVSPost2010Prop56
140
1.0
102
RTVSPost2010PropOp56
 70
     1
102
RTVSPost2010Prop57
140
1.0
102
RTVSPost2010PropOp57
 70
     1
  0
XRECORD
  5
B0F
102
{ACAD_REACTORS
330
B0E
102
}
330
B0E
100
AcDbXrecord
280
     1
102
RTVSPost2010Prop28
280
     0
102
RTVSPost2010PropOp28
 70
     1
102
RTVSPost2010Prop29
280
     1
102
RTVSPost2010PropOp29
 70
     1
102
RTVSPost2010Prop30
280
     1
102
RTVSPost2010PropOp30
 70
     1
102
RTVSPost2010Prop31
280
     0
102
RTVSPost2010PropOp31
 70
     1
102
RTVSPost2010Prop32
280
     0
102
RTVSPost2010PropOp32
 70
     1
102
RTVSPost2010Prop33
280
     0
102
RTVSPost2010PropOp33
 70
     1
102
RTVSPost2010Prop34
280
     0
102
RTVSPost2010PropOp34
 70
     1
102
RTVSPost2010Prop35
280
     0
102
RTVSPost2010PropOp35
 70
     1
102
RTVSPost2010Prop36
280
     0
102
RTVSPost2010PropOp36
 70
     1
102
RTVSPost2010Prop37
 90
       50
102
RTVSPost2010PropOp37
 70
     1
102
RTVSPost2010Prop38
140
0.0
102
RTVSPost2010PropOp38
 70
     1
102
RTVSPost2010Prop39
140
1.0
102
RTVSPost2010PropOp39
 70
     1
102
RTVSPost2010Prop40
 90
        0
102
RTVSPost2010PropOp40
 70
     1
102
RTVSPost2010Prop41ColorIndex
 90
       18
102
RTVSPost2010Prop41ColorRGB
 90
        0
102
RTVSPost2010PropOp41
 70
     1
102
RTVSPost2010Prop42
 90
       50
102
RTVSPost2010PropOp42
 70
     1
102
RTVSPost2010Prop43
 90
        3
102
RTVSPost2010PropOp43
 70
     1
102
RTVSPost2010Prop44ColorIndex
 90
        5
102
RTVSPost2010Prop44ColorRGB
 90
      255
102
RTVSPost2010PropOp44
 70
     1
102
RTVSPost2010Prop45
280
     0
102
RTVSPost2010PropOp45
 70
     1
102
RTVSPost2010Prop46
 90
       50
102
RTVSPost2010PropOp46
 70
     1
102
RTVSPost2010Prop47
 90
       50
102
RTVSPost2010PropOp47
 70
     1
102
RTVSPost2010Prop48
 90
       50
102
RTVSPost2010PropOp48
 70
     1
102
RTVSPost2010Prop49
280
     0
102
RTVSPost2010PropOp49
 70
     1
102
RTVSPost2010Prop50
 90
       50
102
RTVSPost2010PropOp50
 70
     1
102
RTVSPost2010Prop51ColorIndex
 90
      256
102
RTVSPost2010Prop51ColorRGB
 90
-16777216
102
RTVSPost2010PropOp51
 70
     0
102
RTVSPost2010Prop52
140
1.0
102
RTVSPost2010PropOp52
 70
     0
102
RTVSPost2010Prop53
 90
        2
102
RTVSPost2010PropOp53
 70
     1
102
RTVSPost2010Prop54
  1
strokes_ogs.tif
102
RTVSPost2010PropOp54
 70
     1
102
RTVSPost2010Prop55
280
     0
102
RTVSPost2010PropOp55
 70
     1
102
RTVSPost2010Prop56
140
1.0
102
RTVSPost2010PropOp56
 70
     1
102
RTVSPost2010Prop57
140
1.0
102
RTVSPost2010PropOp57
 70
     1
  0
XRECORD
  5
B11
102
{ACAD_REACTORS
330
B10
102
}
330
B10
100
AcDbXrecord
280
     1
102
RTVSPost2010Prop28
280
     0
102
RTVSPost2010PropOp28
 70
     1
102
RTVSPost2010Prop29
280
     1
102
RTVSPost2010PropOp29
 70
     1
102
RTVSPost2010Prop30
280
     1
102
RTVSPost2010PropOp30
 70
     1
102
RTVSPost2010Prop31
280
     0
102
RTVSPost2010PropOp31
 70
     1
102
RTVSPost2010Prop32
280
     0
102
RTVSPost2010PropOp32
 70
     1
102
RTVSPost2010Prop33
280
     0
102
RTVSPost2010PropOp33
 70
     1
102
RTVSPost2010Prop34
280
     0
102
RTVSPost2010PropOp34
 70
     1
102
RTVSPost2010Prop35
280
     0
102
RTVSPost2010PropOp35
 70
     1
102
RTVSPost2010Prop36
280
     0
102
RTVSPost2010PropOp36
 70
     1
102
RTVSPost2010Prop37
 90
       50
102
RTVSPost2010PropOp37
 70
     1
102
RTVSPost2010Prop38
140
0.0
102
RTVSPost2010PropOp38
 70
     1
102
RTVSPost2010Prop39
140
1.0
102
RTVSPost2010PropOp39
 70
     1
102
RTVSPost2010Prop40
 90
        0
102
RTVSPost2010PropOp40
 70
     1
102
RTVSPost2010Prop41ColorIndex
 90
       18
102
RTVSPost2010Prop41ColorRGB
 90
        0
102
RTVSPost2010PropOp41
 70
     1
102
RTVSPost2010Prop42
 90
       50
102
RTVSPost2010PropOp42
 70
     1
102
RTVSPost2010Prop43
 90
        3
102
RTVSPost2010PropOp43
 70
     1
102
RTVSPost2010Prop44ColorIndex
 90
        5
102
RTVSPost2010Prop44ColorRGB
 90
      255
102
RTVSPost2010PropOp44
 70
     1
102
RTVSPost2010Prop45
280
     0
102
RTVSPost2010PropOp45
 70
     1
102
RTVSPost2010Prop46
 90
       50
102
RTVSPost2010PropOp46
 70
     1
102
RTVSPost2010Prop47
 90
       50
102
RTVSPost2010PropOp47
 70
     1
102
RTVSPost2010Prop48
 90
       50
102
RTVSPost2010PropOp48
 70
     1
102
RTVSPost2010Prop49
280
     0
102
RTVSPost2010PropOp49
 70
     1
102
RTVSPost2010Prop50
 90
       50
102
RTVSPost2010PropOp50
 70
     1
102
RTVSPost2010Prop51ColorIndex
 90
      256
102
RTVSPost2010Prop51ColorRGB
 90
-16777216
102
RTVSPost2010PropOp51
 70
     0
102
RTVSPost2010Prop52
140
1.0
102
RTVSPost2010PropOp52
 70
     0
102
RTVSPost2010Prop53
 90
        2
102
RTVSPost2010PropOp53
 70
     1
102
RTVSPost2010Prop54
  1
strokes_ogs.tif
102
RTVSPost2010PropOp54
 70
     1
102
RTVSPost2010Prop55
280
     0
102
RTVSPost2010PropOp55
 70
     1
102
RTVSPost2010Prop56
140
1.0
102
RTVSPost2010PropOp56
 70
     1
102
RTVSPost2010Prop57
140
1.0
102
RTVSPost2010PropOp57
 70
     1
  0
XRECORD
  5
B33
102
{ACAD_REACTORS
330
B32
102
}
330
B32
100
AcDbXrecord
280
     1
102
RTVSPost2010Prop28
280
     0
102
RTVSPost2010PropOp28
 70
     1
102
RTVSPost2010Prop29
280
     1
102
RTVSPost2010PropOp29
 70
     1
102
RTVSPost2010Prop30
280
     1
102
RTVSPost2010PropOp30
 70
     1
102
RTVSPost2010Prop31
280
     0
102
RTVSPost2010PropOp31
 70
     1
102
RTVSPost2010Prop32
280
     0
102
RTVSPost2010PropOp32
 70
     1
102
RTVSPost2010Prop33
280
     0
102
RTVSPost2010PropOp33
 70
     1
102
RTVSPost2010Prop34
280
     0
102
RTVSPost2010PropOp34
 70
     1
102
RTVSPost2010Prop35
280
     0
102
RTVSPost2010PropOp35
 70
     1
102
RTVSPost2010Prop36
280
     0
102
RTVSPost2010PropOp36
 70
     1
102
RTVSPost2010Prop37
 90
       50
102
RTVSPost2010PropOp37
 70
     1
102
RTVSPost2010Prop38
140
0.0
102
RTVSPost2010PropOp38
 70
     1
102
RTVSPost2010Prop39
140
1.0
102
RTVSPost2010PropOp39
 70
     1
102
RTVSPost2010Prop40
 90
        0
102
RTVSPost2010PropOp40
 70
     1
102
RTVSPost2010Prop41ColorIndex
 90
       18
102
RTVSPost2010Prop41ColorRGB
 90
        0
102
RTVSPost2010PropOp41
 70
     1
102
RTVSPost2010Prop42
 90
       50
102
RTVSPost2010PropOp42
 70
     1
102
RTVSPost2010Prop43
 90
        3
102
RTVSPost2010PropOp43
 70
     1
102
RTVSPost2010Prop44ColorIndex
 90
        5
102
RTVSPost2010Prop44ColorRGB
 90
      255
102
RTVSPost2010PropOp44
 70
     1
102
RTVSPost2010Prop45
280
     0
102
RTVSPost2010PropOp45
 70
     1
102
RTVSPost2010Prop46
 90
       50
102
RTVSPost2010PropOp46
 70
     1
102
RTVSPost2010Prop47
 90
       50
102
RTVSPost2010PropOp47
 70
     1
102
RTVSPost2010Prop48
 90
       50
102
RTVSPost2010PropOp48
 70
     1
102
RTVSPost2010Prop49
280
     0
102
RTVSPost2010PropOp49
 70
     1
102
RTVSPost2010Prop50
 90
       50
102
RTVSPost2010PropOp50
 70
     1
102
RTVSPost2010Prop51ColorIndex
 90
      256
102
RTVSPost2010Prop51ColorRGB
 90
-16777216
102
RTVSPost2010PropOp51
 70
     0
102
RTVSPost2010Prop52
140
1.0
102
RTVSPost2010PropOp52
 70
     0
102
RTVSPost2010Prop53
 90
        2
102
RTVSPost2010PropOp53
 70
     1
102
RTVSPost2010Prop54
  1
strokes_ogs.tif
102
RTVSPost2010PropOp54
 70
     1
102
RTVSPost2010Prop55
280
     0
102
RTVSPost2010PropOp55
 70
     1
102
RTVSPost2010Prop56
140
1.0
102
RTVSPost2010PropOp56
 70
     1
102
RTVSPost2010Prop57
140
1.0
102
RTVSPost2010PropOp57
 70
     1
  0
XRECORD
  5
B2B
102
{ACAD_REACTORS
330
B2A
102
}
330
B2A
100
AcDbXrecord
280
     1
102
RTVSPost2010Prop28
280
     0
102
RTVSPost2010PropOp28
 70
     1
102
RTVSPost2010Prop29
280
     1
102
RTVSPost2010PropOp29
 70
     1
102
RTVSPost2010Prop30
280
     1
102
RTVSPost2010PropOp30
 70
     1
102
RTVSPost2010Prop31
280
     0
102
RTVSPost2010PropOp31
 70
     1
102
RTVSPost2010Prop32
280
     0
102
RTVSPost2010PropOp32
 70
     1
102
RTVSPost2010Prop33
280
     0
102
RTVSPost2010PropOp33
 70
     1
102
RTVSPost2010Prop34
280
     0
102
RTVSPost2010PropOp34
 70
     1
102
RTVSPost2010Prop35
280
     0
102
RTVSPost2010PropOp35
 70
     1
102
RTVSPost2010Prop36
280
     0
102
RTVSPost2010PropOp36
 70
     1
102
RTVSPost2010Prop37
 90
       50
102
RTVSPost2010PropOp37
 70
     1
102
RTVSPost2010Prop38
140
0.0
102
RTVSPost2010PropOp38
 70
     1
102
RTVSPost2010Prop39
140
1.0
102
RTVSPost2010PropOp39
 70
     1
102
RTVSPost2010Prop40
 90
        0
102
RTVSPost2010PropOp40
 70
     1
102
RTVSPost2010Prop41ColorIndex
 90
       18
102
RTVSPost2010Prop41ColorRGB
 90
        0
102
RTVSPost2010PropOp41
 70
     1
102
RTVSPost2010Prop42
 90
       50
102
RTVSPost2010PropOp42
 70
     1
102
RTVSPost2010Prop43
 90
        3
102
RTVSPost2010PropOp43
 70
     1
102
RTVSPost2010Prop44ColorIndex
 90
        5
102
RTVSPost2010Prop44ColorRGB
 90
      255
102
RTVSPost2010PropOp44
 70
     1
102
RTVSPost2010Prop45
280
     0
102
RTVSPost2010PropOp45
 70
     1
102
RTVSPost2010Prop46
 90
       50
102
RTVSPost2010PropOp46
 70
     1
102
RTVSPost2010Prop47
 90
       50
102
RTVSPost2010PropOp47
 70
     1
102
RTVSPost2010Prop48
 90
       50
102
RTVSPost2010PropOp48
 70
     1
102
RTVSPost2010Prop49
280
     0
102
RTVSPost2010PropOp49
 70
     1
102
RTVSPost2010Prop50
 90
       50
102
RTVSPost2010PropOp50
 70
     1
102
RTVSPost2010Prop51ColorIndex
 90
      256
102
RTVSPost2010Prop51ColorRGB
 90
-16777216
102
RTVSPost2010PropOp51
 70
     0
102
RTVSPost2010Prop52
140
1.0
102
RTVSPost2010PropOp52
 70
     0
102
RTVSPost2010Prop53
 90
        2
102
RTVSPost2010PropOp53
 70
     1
102
RTVSPost2010Prop54
  1
strokes_ogs.tif
102
RTVSPost2010PropOp54
 70
     1
102
RTVSPost2010Prop55
280
     0
102
RTVSPost2010PropOp55
 70
     1
102
RTVSPost2010Prop56
140
1.0
102
RTVSPost2010PropOp56
 70
     1
102
RTVSPost2010Prop57
140
1.0
102
RTVSPost2010PropOp57
 70
     1
  0
XRECORD
  5
B25
102
{ACAD_REACTORS
330
B24
102
}
330
B24
100
AcDbXrecord
280
     1
102
RTVSPost2010Prop28
280
     0
102
RTVSPost2010PropOp28
 70
     1
102
RTVSPost2010Prop29
280
     1
102
RTVSPost2010PropOp29
 70
     1
102
RTVSPost2010Prop30
280
     1
102
RTVSPost2010PropOp30
 70
     1
102
RTVSPost2010Prop31
280
     0
102
RTVSPost2010PropOp31
 70
     1
102
RTVSPost2010Prop32
280
     0
102
RTVSPost2010PropOp32
 70
     1
102
RTVSPost2010Prop33
280
     0
102
RTVSPost2010PropOp33
 70
     1
102
RTVSPost2010Prop34
280
     0
102
RTVSPost2010PropOp34
 70
     1
102
RTVSPost2010Prop35
280
     0
102
RTVSPost2010PropOp35
 70
     1
102
RTVSPost2010Prop36
280
     0
102
RTVSPost2010PropOp36
 70
     1
102
RTVSPost2010Prop37
 90
       50
102
RTVSPost2010PropOp37
 70
     1
102
RTVSPost2010Prop38
140
0.0
102
RTVSPost2010PropOp38
 70
     1
102
RTVSPost2010Prop39
140
1.0
102
RTVSPost2010PropOp39
 70
     1
102
RTVSPost2010Prop40
 90
        0
102
RTVSPost2010PropOp40
 70
     1
102
RTVSPost2010Prop41ColorIndex
 90
       18
102
RTVSPost2010Prop41ColorRGB
 90
        0
102
RTVSPost2010PropOp41
 70
     1
102
RTVSPost2010Prop42
 90
       50
102
RTVSPost2010PropOp42
 70
     1
102
RTVSPost2010Prop43
 90
        3
102
RTVSPost2010PropOp43
 70
     1
102
RTVSPost2010Prop44ColorIndex
 90
        5
102
RTVSPost2010Prop44ColorRGB
 90
      255
102
RTVSPost2010PropOp44
 70
     1
102
RTVSPost2010Prop45
280
     0
102
RTVSPost2010PropOp45
 70
     1
102
RTVSPost2010Prop46
 90
       50
102
RTVSPost2010PropOp46
 70
     1
102
RTVSPost2010Prop47
 90
       50
102
RTVSPost2010PropOp47
 70
     1
102
RTVSPost2010Prop48
 90
       50
102
RTVSPost2010PropOp48
 70
     1
102
RTVSPost2010Prop49
280
     0
102
RTVSPost2010PropOp49
 70
     1
102
RTVSPost2010Prop50
 90
       50
102
RTVSPost2010PropOp50
 70
     1
102
RTVSPost2010Prop51ColorIndex
 90
      256
102
RTVSPost2010Prop51ColorRGB
 90
-16777216
102
RTVSPost2010PropOp51
 70
     0
102
RTVSPost2010Prop52
140
1.0
102
RTVSPost2010PropOp52
 70
     0
102
RTVSPost2010Prop53
 90
        2
102
RTVSPost2010PropOp53
 70
     1
102
RTVSPost2010Prop54
  1
strokes_ogs.tif
102
RTVSPost2010PropOp54
 70
     1
102
RTVSPost2010Prop55
280
     0
102
RTVSPost2010PropOp55
 70
     1
102
RTVSPost2010Prop56
140
1.0
102
RTVSPost2010PropOp56
 70
     1
102
RTVSPost2010Prop57
140
1.0
102
RTVSPost2010PropOp57
 70
     1
  0
XRECORD
  5
B2D
102
{ACAD_REACTORS
330
B2C
102
}
330
B2C
100
AcDbXrecord
280
     1
102
RTVSPost2010Prop28
280
     0
102
RTVSPost2010PropOp28
 70
     1
102
RTVSPost2010Prop29
280
     1
102
RTVSPost2010PropOp29
 70
     1
102
RTVSPost2010Prop30
280
     1
102
RTVSPost2010PropOp30
 70
     1
102
RTVSPost2010Prop31
280
     0
102
RTVSPost2010PropOp31
 70
     1
102
RTVSPost2010Prop32
280
     0
102
RTVSPost2010PropOp32
 70
     1
102
RTVSPost2010Prop33
280
     0
102
RTVSPost2010PropOp33
 70
     1
102
RTVSPost2010Prop34
280
     0
102
RTVSPost2010PropOp34
 70
     1
102
RTVSPost2010Prop35
280
     0
102
RTVSPost2010PropOp35
 70
     1
102
RTVSPost2010Prop36
280
     0
102
RTVSPost2010PropOp36
 70
     1
102
RTVSPost2010Prop37
 90
       50
102
RTVSPost2010PropOp37
 70
     1
102
RTVSPost2010Prop38
140
0.0
102
RTVSPost2010PropOp38
 70
     1
102
RTVSPost2010Prop39
140
1.0
102
RTVSPost2010PropOp39
 70
     1
102
RTVSPost2010Prop40
 90
        0
102
RTVSPost2010PropOp40
 70
     1
102
RTVSPost2010Prop41ColorIndex
 90
       18
102
RTVSPost2010Prop41ColorRGB
 90
        0
102
RTVSPost2010PropOp41
 70
     1
102
RTVSPost2010Prop42
 90
       50
102
RTVSPost2010PropOp42
 70
     1
102
RTVSPost2010Prop43
 90
        3
102
RTVSPost2010PropOp43
 70
     1
102
RTVSPost2010Prop44ColorIndex
 90
        5
102
RTVSPost2010Prop44ColorRGB
 90
      255
102
RTVSPost2010PropOp44
 70
     1
102
RTVSPost2010Prop45
280
     0
102
RTVSPost2010PropOp45
 70
     1
102
RTVSPost2010Prop46
 90
       50
102
RTVSPost2010PropOp46
 70
     1
102
RTVSPost2010Prop47
 90
       50
102
RTVSPost2010PropOp47
 70
     1
102
RTVSPost2010Prop48
 90
       50
102
RTVSPost2010PropOp48
 70
     1
102
RTVSPost2010Prop49
280
     0
102
RTVSPost2010PropOp49
 70
     1
102
RTVSPost2010Prop50
 90
       50
102
RTVSPost2010PropOp50
 70
     1
102
RTVSPost2010Prop51ColorIndex
 90
      256
102
RTVSPost2010Prop51ColorRGB
 90
-16777216
102
RTVSPost2010PropOp51
 70
     0
102
RTVSPost2010Prop52
140
1.0
102
RTVSPost2010PropOp52
 70
     0
102
RTVSPost2010Prop53
 90
        2
102
RTVSPost2010PropOp53
 70
     1
102
RTVSPost2010Prop54
  1
strokes_ogs.tif
102
RTVSPost2010PropOp54
 70
     1
102
RTVSPost2010Prop55
280
     0
102
RTVSPost2010PropOp55
 70
     1
102
RTVSPost2010Prop56
140
1.0
102
RTVSPost2010PropOp56
 70
     1
102
RTVSPost2010Prop57
140
1.0
102
RTVSPost2010PropOp57
 70
     1
  0
XRECORD
  5
B1D
102
{ACAD_REACTORS
330
B1C
102
}
330
B1C
100
AcDbXrecord
280
     1
102
RTVSPost2010Prop28
280
     0
102
RTVSPost2010PropOp28
 70
     1
102
RTVSPost2010Prop29
280
     1
102
RTVSPost2010PropOp29
 70
     1
102
RTVSPost2010Prop30
280
     1
102
RTVSPost2010PropOp30
 70
     1
102
RTVSPost2010Prop31
280
     0
102
RTVSPost2010PropOp31
 70
     1
102
RTVSPost2010Prop32
280
     0
102
RTVSPost2010PropOp32
 70
     1
102
RTVSPost2010Prop33
280
     0
102
RTVSPost2010PropOp33
 70
     1
102
RTVSPost2010Prop34
280
     0
102
RTVSPost2010PropOp34
 70
     1
102
RTVSPost2010Prop35
280
     0
102
RTVSPost2010PropOp35
 70
     1
102
RTVSPost2010Prop36
280
     0
102
RTVSPost2010PropOp36
 70
     1
102
RTVSPost2010Prop37
 90
       50
102
RTVSPost2010PropOp37
 70
     1
102
RTVSPost2010Prop38
140
0.0
102
RTVSPost2010PropOp38
 70
     1
102
RTVSPost2010Prop39
140
1.0
102
RTVSPost2010PropOp39
 70
     1
102
RTVSPost2010Prop40
 90
        0
102
RTVSPost2010PropOp40
 70
     1
102
RTVSPost2010Prop41ColorIndex
 90
       18
102
RTVSPost2010Prop41ColorRGB
 90
        0
102
RTVSPost2010PropOp41
 70
     1
102
RTVSPost2010Prop42
 90
       50
102
RTVSPost2010PropOp42
 70
     1
102
RTVSPost2010Prop43
 90
        3
102
RTVSPost2010PropOp43
 70
     1
102
RTVSPost2010Prop44ColorIndex
 90
        5
102
RTVSPost2010Prop44ColorRGB
 90
      255
102
RTVSPost2010PropOp44
 70
     1
102
RTVSPost2010Prop45
280
     0
102
RTVSPost2010PropOp45
 70
     1
102
RTVSPost2010Prop46
 90
       50
102
RTVSPost2010PropOp46
 70
     1
102
RTVSPost2010Prop47
 90
       50
102
RTVSPost2010PropOp47
 70
     1
102
RTVSPost2010Prop48
 90
       50
102
RTVSPost2010PropOp48
 70
     1
102
RTVSPost2010Prop49
280
     0
102
RTVSPost2010PropOp49
 70
     1
102
RTVSPost2010Prop50
 90
       50
102
RTVSPost2010PropOp50
 70
     1
102
RTVSPost2010Prop51ColorIndex
 90
      256
102
RTVSPost2010Prop51ColorRGB
 90
-16777216
102
RTVSPost2010PropOp51
 70
     0
102
RTVSPost2010Prop52
140
1.0
102
RTVSPost2010PropOp52
 70
     0
102
RTVSPost2010Prop53
 90
        2
102
RTVSPost2010PropOp53
 70
     1
102
RTVSPost2010Prop54
  1
strokes_ogs.tif
102
RTVSPost2010PropOp54
 70
     1
102
RTVSPost2010Prop55
280
     0
102
RTVSPost2010PropOp55
 70
     1
102
RTVSPost2010Prop56
140
1.0
102
RTVSPost2010PropOp56
 70
     1
102
RTVSPost2010Prop57
140
1.0
102
RTVSPost2010PropOp57
 70
     1
  0
XRECORD
  5
B3D
102
{ACAD_REACTORS
330
B3C
102
}
330
B3C
100
AcDbXrecord
280
     1
102
RTVSPost2010Prop28
280
     0
102
RTVSPost2010PropOp28
 70
     1
102
RTVSPost2010Prop29
280
     1
102
RTVSPost2010PropOp29
 70
     1
102
RTVSPost2010Prop30
280
     1
102
RTVSPost2010PropOp30
 70
     1
102
RTVSPost2010Prop31
280
     0
102
RTVSPost2010PropOp31
 70
     1
102
RTVSPost2010Prop32
280
     0
102
RTVSPost2010PropOp32
 70
     1
102
RTVSPost2010Prop33
280
     0
102
RTVSPost2010PropOp33
 70
     1
102
RTVSPost2010Prop34
280
     0
102
RTVSPost2010PropOp34
 70
     1
102
RTVSPost2010Prop35
280
     0
102
RTVSPost2010PropOp35
 70
     1
102
RTVSPost2010Prop36
280
     0
102
RTVSPost2010PropOp36
 70
     1
102
RTVSPost2010Prop37
 90
       50
102
RTVSPost2010PropOp37
 70
     1
102
RTVSPost2010Prop38
140
0.0
102
RTVSPost2010PropOp38
 70
     1
102
RTVSPost2010Prop39
140
1.0
102
RTVSPost2010PropOp39
 70
     1
102
RTVSPost2010Prop40
 90
        0
102
RTVSPost2010PropOp40
 70
     1
102
RTVSPost2010Prop41ColorIndex
 90
       18
102
RTVSPost2010Prop41ColorRGB
 90
        0
102
RTVSPost2010PropOp41
 70
     1
102
RTVSPost2010Prop42
 90
       50
102
RTVSPost2010PropOp42
 70
     1
102
RTVSPost2010Prop43
 90
        3
102
RTVSPost2010PropOp43
 70
     1
102
RTVSPost2010Prop44ColorIndex
 90
        5
102
RTVSPost2010Prop44ColorRGB
 90
      255
102
RTVSPost2010PropOp44
 70
     1
102
RTVSPost2010Prop45
280
     0
102
RTVSPost2010PropOp45
 70
     1
102
RTVSPost2010Prop46
 90
       50
102
RTVSPost2010PropOp46
 70
     1
102
RTVSPost2010Prop47
 90
       50
102
RTVSPost2010PropOp47
 70
     1
102
RTVSPost2010Prop48
 90
       50
102
RTVSPost2010PropOp48
 70
     1
102
RTVSPost2010Prop49
280
     0
102
RTVSPost2010PropOp49
 70
     1
102
RTVSPost2010Prop50
 90
       50
102
RTVSPost2010PropOp50
 70
     1
102
RTVSPost2010Prop51ColorIndex
 90
      256
102
RTVSPost2010Prop51ColorRGB
 90
-16777216
102
RTVSPost2010PropOp51
 70
     0
102
RTVSPost2010Prop52
140
1.0
102
RTVSPost2010PropOp52
 70
     0
102
RTVSPost2010Prop53
 90
        2
102
RTVSPost2010PropOp53
 70
     1
102
RTVSPost2010Prop54
  1
strokes_ogs.tif
102
RTVSPost2010PropOp54
 70
     1
102
RTVSPost2010Prop55
280
     0
102
RTVSPost2010PropOp55
 70
     1
102
RTVSPost2010Prop56
140
1.0
102
RTVSPost2010PropOp56
 70
     1
102
RTVSPost2010Prop57
140
1.0
102
RTVSPost2010PropOp57
 70
     1
  0
XRECORD
  5
B3B
102
{ACAD_REACTORS
330
B3A
102
}
330
B3A
100
AcDbXrecord
280
     1
102
RTVSPost2010Prop28
280
     0
102
RTVSPost2010PropOp28
 70
     1
102
RTVSPost2010Prop29
280
     1
102
RTVSPost2010PropOp29
 70
     1
102
RTVSPost2010Prop30
280
     1
102
RTVSPost2010PropOp30
 70
     1
102
RTVSPost2010Prop31
280
     0
102
RTVSPost2010PropOp31
 70
     1
102
RTVSPost2010Prop32
280
     0
102
RTVSPost2010PropOp32
 70
     1
102
RTVSPost2010Prop33
280
     0
102
RTVSPost2010PropOp33
 70
     1
102
RTVSPost2010Prop34
280
     0
102
RTVSPost2010PropOp34
 70
     1
102
RTVSPost2010Prop35
280
     0
102
RTVSPost2010PropOp35
 70
     1
102
RTVSPost2010Prop36
280
     0
102
RTVSPost2010PropOp36
 70
     1
102
RTVSPost2010Prop37
 90
       50
102
RTVSPost2010PropOp37
 70
     1
102
RTVSPost2010Prop38
140
0.0
102
RTVSPost2010PropOp38
 70
     1
102
RTVSPost2010Prop39
140
1.0
102
RTVSPost2010PropOp39
 70
     1
102
RTVSPost2010Prop40
 90
        0
102
RTVSPost2010PropOp40
 70
     1
102
RTVSPost2010Prop41ColorIndex
 90
       18
102
RTVSPost2010Prop41ColorRGB
 90
        0
102
RTVSPost2010PropOp41
 70
     1
102
RTVSPost2010Prop42
 90
       50
102
RTVSPost2010PropOp42
 70
     1
102
RTVSPost2010Prop43
 90
        3
102
RTVSPost2010PropOp43
 70
     1
102
RTVSPost2010Prop44ColorIndex
 90
        5
102
RTVSPost2010Prop44ColorRGB
 90
      255
102
RTVSPost2010PropOp44
 70
     1
102
RTVSPost2010Prop45
280
     0
102
RTVSPost2010PropOp45
 70
     1
102
RTVSPost2010Prop46
 90
       50
102
RTVSPost2010PropOp46
 70
     1
102
RTVSPost2010Prop47
 90
       50
102
RTVSPost2010PropOp47
 70
     1
102
RTVSPost2010Prop48
 90
       50
102
RTVSPost2010PropOp48
 70
     1
102
RTVSPost2010Prop49
280
     0
102
RTVSPost2010PropOp49
 70
     1
102
RTVSPost2010Prop50
 90
       50
102
RTVSPost2010PropOp50
 70
     1
102
RTVSPost2010Prop51ColorIndex
 90
      256
102
RTVSPost2010Prop51ColorRGB
 90
-16777216
102
RTVSPost2010PropOp51
 70
     0
102
RTVSPost2010Prop52
140
1.0
102
RTVSPost2010PropOp52
 70
     0
102
RTVSPost2010Prop53
 90
        2
102
RTVSPost2010PropOp53
 70
     1
102
RTVSPost2010Prop54
  1
strokes_ogs.tif
102
RTVSPost2010PropOp54
 70
     1
102
RTVSPost2010Prop55
280
     0
102
RTVSPost2010PropOp55
 70
     1
102
RTVSPost2010Prop56
140
1.0
102
RTVSPost2010PropOp56
 70
     1
102
RTVSPost2010Prop57
140
1.0
102
RTVSPost2010PropOp57
 70
     1
  0
XRECORD
  5
B35
102
{ACAD_REACTORS
330
B34
102
}
330
B34
100
AcDbXrecord
280
     1
102
RTVSPost2010Prop28
280
     0
102
RTVSPost2010PropOp28
 70
     1
102
RTVSPost2010Prop29
280
     1
102
RTVSPost2010PropOp29
 70
     1
102
RTVSPost2010Prop30
280
     1
102
RTVSPost2010PropOp30
 70
     1
102
RTVSPost2010Prop31
280
     0
102
RTVSPost2010PropOp31
 70
     1
102
RTVSPost2010Prop32
280
     0
102
RTVSPost2010PropOp32
 70
     1
102
RTVSPost2010Prop33
280
     0
102
RTVSPost2010PropOp33
 70
     1
102
RTVSPost2010Prop34
280
     0
102
RTVSPost2010PropOp34
 70
     1
102
RTVSPost2010Prop35
280
     0
102
RTVSPost2010PropOp35
 70
     1
102
RTVSPost2010Prop36
280
     0
102
RTVSPost2010PropOp36
 70
     1
102
RTVSPost2010Prop37
 90
       50
102
RTVSPost2010PropOp37
 70
     1
102
RTVSPost2010Prop38
140
0.0
102
RTVSPost2010PropOp38
 70
     1
102
RTVSPost2010Prop39
140
1.0
102
RTVSPost2010PropOp39
 70
     1
102
RTVSPost2010Prop40
 90
        0
102
RTVSPost2010PropOp40
 70
     1
102
RTVSPost2010Prop41ColorIndex
 90
       18
102
RTVSPost2010Prop41ColorRGB
 90
        0
102
RTVSPost2010PropOp41
 70
     1
102
RTVSPost2010Prop42
 90
       50
102
RTVSPost2010PropOp42
 70
     1
102
RTVSPost2010Prop43
 90
        3
102
RTVSPost2010PropOp43
 70
     1
102
RTVSPost2010Prop44ColorIndex
 90
        5
102
RTVSPost2010Prop44ColorRGB
 90
      255
102
RTVSPost2010PropOp44
 70
     1
102
RTVSPost2010Prop45
280
     0
102
RTVSPost2010PropOp45
 70
     1
102
RTVSPost2010Prop46
 90
       50
102
RTVSPost2010PropOp46
 70
     1
102
RTVSPost2010Prop47
 90
       50
102
RTVSPost2010PropOp47
 70
     1
102
RTVSPost2010Prop48
 90
       50
102
RTVSPost2010PropOp48
 70
     1
102
RTVSPost2010Prop49
280
     0
102
RTVSPost2010PropOp49
 70
     1
102
RTVSPost2010Prop50
 90
       50
102
RTVSPost2010PropOp50
 70
     1
102
RTVSPost2010Prop51ColorIndex
 90
      256
102
RTVSPost2010Prop51ColorRGB
 90
-16777216
102
RTVSPost2010PropOp51
 70
     0
102
RTVSPost2010Prop52
140
1.0
102
RTVSPost2010PropOp52
 70
     0
102
RTVSPost2010Prop53
 90
        2
102
RTVSPost2010PropOp53
 70
     1
102
RTVSPost2010Prop54
  1
strokes_ogs.tif
102
RTVSPost2010PropOp54
 70
     1
102
RTVSPost2010Prop55
280
     0
102
RTVSPost2010PropOp55
 70
     1
102
RTVSPost2010Prop56
140
1.0
102
RTVSPost2010PropOp56
 70
     1
102
RTVSPost2010Prop57
140
1.0
102
RTVSPost2010PropOp57
 70
     1
  0
XRECORD
  5
B37
102
{ACAD_REACTORS
330
B36
102
}
330
B36
100
AcDbXrecord
280
     1
102
RTVSPost2010Prop28
280
     0
102
RTVSPost2010PropOp28
 70
     1
102
RTVSPost2010Prop29
280
     1
102
RTVSPost2010PropOp29
 70
     1
102
RTVSPost2010Prop30
280
     1
102
RTVSPost2010PropOp30
 70
     1
102
RTVSPost2010Prop31
280
     0
102
RTVSPost2010PropOp31
 70
     1
102
RTVSPost2010Prop32
280
     0
102
RTVSPost2010PropOp32
 70
     1
102
RTVSPost2010Prop33
280
     0
102
RTVSPost2010PropOp33
 70
     1
102
RTVSPost2010Prop34
280
     0
102
RTVSPost2010PropOp34
 70
     1
102
RTVSPost2010Prop35
280
     0
102
RTVSPost2010PropOp35
 70
     1
102
RTVSPost2010Prop36
280
     0
102
RTVSPost2010PropOp36
 70
     1
102
RTVSPost2010Prop37
 90
       50
102
RTVSPost2010PropOp37
 70
     1
102
RTVSPost2010Prop38
140
0.0
102
RTVSPost2010PropOp38
 70
     1
102
RTVSPost2010Prop39
140
1.0
102
RTVSPost2010PropOp39
 70
     1
102
RTVSPost2010Prop40
 90
        0
102
RTVSPost2010PropOp40
 70
     1
102
RTVSPost2010Prop41ColorIndex
 90
       18
102
RTVSPost2010Prop41ColorRGB
 90
        0
102
RTVSPost2010PropOp41
 70
     1
102
RTVSPost2010Prop42
 90
       50
102
RTVSPost2010PropOp42
 70
     1
102
RTVSPost2010Prop43
 90
        3
102
RTVSPost2010PropOp43
 70
     1
102
RTVSPost2010Prop44ColorIndex
 90
        5
102
RTVSPost2010Prop44ColorRGB
 90
      255
102
RTVSPost2010PropOp44
 70
     1
102
RTVSPost2010Prop45
280
     0
102
RTVSPost2010PropOp45
 70
     1
102
RTVSPost2010Prop46
 90
       50
102
RTVSPost2010PropOp46
 70
     1
102
RTVSPost2010Prop47
 90
       50
102
RTVSPost2010PropOp47
 70
     1
102
RTVSPost2010Prop48
 90
       50
102
RTVSPost2010PropOp48
 70
     1
102
RTVSPost2010Prop49
280
     0
102
RTVSPost2010PropOp49
 70
     1
102
RTVSPost2010Prop50
 90
       50
102
RTVSPost2010PropOp50
 70
     1
102
RTVSPost2010Prop51ColorIndex
 90
      256
102
RTVSPost2010Prop51ColorRGB
 90
-16777216
102
RTVSPost2010PropOp51
 70
     0
102
RTVSPost2010Prop52
140
1.0
102
RTVSPost2010PropOp52
 70
     0
102
RTVSPost2010Prop53
 90
        2
102
RTVSPost2010PropOp53
 70
     1
102
RTVSPost2010Prop54
  1
strokes_ogs.tif
102
RTVSPost2010PropOp54
 70
     1
102
RTVSPost2010Prop55
280
     0
102
RTVSPost2010PropOp55
 70
     1
102
RTVSPost2010Prop56
140
1.0
102
RTVSPost2010PropOp56
 70
     1
102
RTVSPost2010Prop57
140
1.0
102
RTVSPost2010PropOp57
 70
     1
  0
XRECORD
  5
B23
102
{ACAD_REACTORS
330
B22
102
}
330
B22
100
AcDbXrecord
280
     1
102
RTVSPost2010Prop28
280
     0
102
RTVSPost2010PropOp28
 70
     1
102
RTVSPost2010Prop29
280
     1
102
RTVSPost2010PropOp29
 70
     1
102
RTVSPost2010Prop30
280
     1
102
RTVSPost2010PropOp30
 70
     1
102
RTVSPost2010Prop31
280
     0
102
RTVSPost2010PropOp31
 70
     1
102
RTVSPost2010Prop32
280
     0
102
RTVSPost2010PropOp32
 70
     1
102
RTVSPost2010Prop33
280
     0
102
RTVSPost2010PropOp33
 70
     1
102
RTVSPost2010Prop34
280
     0
102
RTVSPost2010PropOp34
 70
     1
102
RTVSPost2010Prop35
280
     0
102
RTVSPost2010PropOp35
 70
     1
102
RTVSPost2010Prop36
280
     0
102
RTVSPost2010PropOp36
 70
     1
102
RTVSPost2010Prop37
 90
       50
102
RTVSPost2010PropOp37
 70
     1
102
RTVSPost2010Prop38
140
0.0
102
RTVSPost2010PropOp38
 70
     1
102
RTVSPost2010Prop39
140
1.0
102
RTVSPost2010PropOp39
 70
     1
102
RTVSPost2010Prop40
 90
        0
102
RTVSPost2010PropOp40
 70
     1
102
RTVSPost2010Prop41ColorIndex
 90
       18
102
RTVSPost2010Prop41ColorRGB
 90
        0
102
RTVSPost2010PropOp41
 70
     1
102
RTVSPost2010Prop42
 90
       50
102
RTVSPost2010PropOp42
 70
     1
102
RTVSPost2010Prop43
 90
        3
102
RTVSPost2010PropOp43
 70
     1
102
RTVSPost2010Prop44ColorIndex
 90
        5
102
RTVSPost2010Prop44ColorRGB
 90
      255
102
RTVSPost2010PropOp44
 70
     1
102
RTVSPost2010Prop45
280
     0
102
RTVSPost2010PropOp45
 70
     1
102
RTVSPost2010Prop46
 90
       50
102
RTVSPost2010PropOp46
 70
     1
102
RTVSPost2010Prop47
 90
       50
102
RTVSPost2010PropOp47
 70
     1
102
RTVSPost2010Prop48
 90
       50
102
RTVSPost2010PropOp48
 70
     1
102
RTVSPost2010Prop49
280
     0
102
RTVSPost2010PropOp49
 70
     1
102
RTVSPost2010Prop50
 90
       50
102
RTVSPost2010PropOp50
 70
     1
102
RTVSPost2010Prop51ColorIndex
 90
      256
102
RTVSPost2010Prop51ColorRGB
 90
-16777216
102
RTVSPost2010PropOp51
 70
     0
102
RTVSPost2010Prop52
140
1.0
102
RTVSPost2010PropOp52
 70
     0
102
RTVSPost2010Prop53
 90
        2
102
RTVSPost2010PropOp53
 70
     1
102
RTVSPost2010Prop54
  1
strokes_ogs.tif
102
RTVSPost2010PropOp54
 70
     1
102
RTVSPost2010Prop55
280
     0
102
RTVSPost2010PropOp55
 70
     1
102
RTVSPost2010Prop56
140
1.0
102
RTVSPost2010PropOp56
 70
     1
102
RTVSPost2010Prop57
140
1.0
102
RTVSPost2010PropOp57
 70
     1
  0
XRECORD
  5
B31
102
{ACAD_REACTORS
330
B30
102
}
330
B30
100
AcDbXrecord
280
     1
102
RTVSPost2010Prop28
280
     0
102
RTVSPost2010PropOp28
 70
     1
102
RTVSPost2010Prop29
280
     1
102
RTVSPost2010PropOp29
 70
     1
102
RTVSPost2010Prop30
280
     1
102
RTVSPost2010PropOp30
 70
     1
102
RTVSPost2010Prop31
280
     0
102
RTVSPost2010PropOp31
 70
     1
102
RTVSPost2010Prop32
280
     0
102
RTVSPost2010PropOp32
 70
     1
102
RTVSPost2010Prop33
280
     0
102
RTVSPost2010PropOp33
 70
     1
102
RTVSPost2010Prop34
280
     0
102
RTVSPost2010PropOp34
 70
     1
102
RTVSPost2010Prop35
280
     0
102
RTVSPost2010PropOp35
 70
     1
102
RTVSPost2010Prop36
280
     0
102
RTVSPost2010PropOp36
 70
     1
102
RTVSPost2010Prop37
 90
       50
102
RTVSPost2010PropOp37
 70
     1
102
RTVSPost2010Prop38
140
0.0
102
RTVSPost2010PropOp38
 70
     1
102
RTVSPost2010Prop39
140
1.0
102
RTVSPost2010PropOp39
 70
     1
102
RTVSPost2010Prop40
 90
        0
102
RTVSPost2010PropOp40
 70
     1
102
RTVSPost2010Prop41ColorIndex
 90
       18
102
RTVSPost2010Prop41ColorRGB
 90
        0
102
RTVSPost2010PropOp41
 70
     1
102
RTVSPost2010Prop42
 90
       50
102
RTVSPost2010PropOp42
 70
     1
102
RTVSPost2010Prop43
 90
        3
102
RTVSPost2010PropOp43
 70
     1
102
RTVSPost2010Prop44ColorIndex
 90
        5
102
RTVSPost2010Prop44ColorRGB
 90
      255
102
RTVSPost2010PropOp44
 70
     1
102
RTVSPost2010Prop45
280
     0
102
RTVSPost2010PropOp45
 70
     1
102
RTVSPost2010Prop46
 90
       50
102
RTVSPost2010PropOp46
 70
     1
102
RTVSPost2010Prop47
 90
       50
102
RTVSPost2010PropOp47
 70
     1
102
RTVSPost2010Prop48
 90
       50
102
RTVSPost2010PropOp48
 70
     1
102
RTVSPost2010Prop49
280
     0
102
RTVSPost2010PropOp49
 70
     1
102
RTVSPost2010Prop50
 90
       50
102
RTVSPost2010PropOp50
 70
     1
102
RTVSPost2010Prop51ColorIndex
 90
      256
102
RTVSPost2010Prop51ColorRGB
 90
-16777216
102
RTVSPost2010PropOp51
 70
     0
102
RTVSPost2010Prop52
140
1.0
102
RTVSPost2010PropOp52
 70
     0
102
RTVSPost2010Prop53
 90
        2
102
RTVSPost2010PropOp53
 70
     1
102
RTVSPost2010Prop54
  1
strokes_ogs.tif
102
RTVSPost2010PropOp54
 70
     1
102
RTVSPost2010Prop55
280
     0
102
RTVSPost2010PropOp55
 70
     1
102
RTVSPost2010Prop56
140
1.0
102
RTVSPost2010PropOp56
 70
     1
102
RTVSPost2010Prop57
140
1.0
102
RTVSPost2010PropOp57
 70
     1
  0
XRECORD
  5
B39
102
{ACAD_REACTORS
330
B38
102
}
330
B38
100
AcDbXrecord
280
     1
102
RTVSPost2010Prop28
280
     0
102
RTVSPost2010PropOp28
 70
     1
102
RTVSPost2010Prop29
280
     1
102
RTVSPost2010PropOp29
 70
     1
102
RTVSPost2010Prop30
280
     1
102
RTVSPost2010PropOp30
 70
     1
102
RTVSPost2010Prop31
280
     0
102
RTVSPost2010PropOp31
 70
     1
102
RTVSPost2010Prop32
280
     0
102
RTVSPost2010PropOp32
 70
     1
102
RTVSPost2010Prop33
280
     0
102
RTVSPost2010PropOp33
 70
     1
102
RTVSPost2010Prop34
280
     0
102
RTVSPost2010PropOp34
 70
     1
102
RTVSPost2010Prop35
280
     0
102
RTVSPost2010PropOp35
 70
     1
102
RTVSPost2010Prop36
280
     0
102
RTVSPost2010PropOp36
 70
     1
102
RTVSPost2010Prop37
 90
       50
102
RTVSPost2010PropOp37
 70
     1
102
RTVSPost2010Prop38
140
0.0
102
RTVSPost2010PropOp38
 70
     1
102
RTVSPost2010Prop39
140
1.0
102
RTVSPost2010PropOp39
 70
     1
102
RTVSPost2010Prop40
 90
        0
102
RTVSPost2010PropOp40
 70
     1
102
RTVSPost2010Prop41ColorIndex
 90
       18
102
RTVSPost2010Prop41ColorRGB
 90
        0
102
RTVSPost2010PropOp41
 70
     1
102
RTVSPost2010Prop42
 90
       50
102
RTVSPost2010PropOp42
 70
     1
102
RTVSPost2010Prop43
 90
        3
102
RTVSPost2010PropOp43
 70
     1
102
RTVSPost2010Prop44ColorIndex
 90
        5
102
RTVSPost2010Prop44ColorRGB
 90
      255
102
RTVSPost2010PropOp44
 70
     1
102
RTVSPost2010Prop45
280
     0
102
RTVSPost2010PropOp45
 70
     1
102
RTVSPost2010Prop46
 90
       50
102
RTVSPost2010PropOp46
 70
     1
102
RTVSPost2010Prop47
 90
       50
102
RTVSPost2010PropOp47
 70
     1
102
RTVSPost2010Prop48
 90
       50
102
RTVSPost2010PropOp48
 70
     1
102
RTVSPost2010Prop49
280
     0
102
RTVSPost2010PropOp49
 70
     1
102
RTVSPost2010Prop50
 90
       50
102
RTVSPost2010PropOp50
 70
     1
102
RTVSPost2010Prop51ColorIndex
 90
      256
102
RTVSPost2010Prop51ColorRGB
 90
-16777216
102
RTVSPost2010PropOp51
 70
     0
102
RTVSPost2010Prop52
140
1.0
102
RTVSPost2010PropOp52
 70
     0
102
RTVSPost2010Prop53
 90
        2
102
RTVSPost2010PropOp53
 70
     1
102
RTVSPost2010Prop54
  1
strokes_ogs.tif
102
RTVSPost2010PropOp54
 70
     1
102
RTVSPost2010Prop55
280
     0
102
RTVSPost2010PropOp55
 70
     1
102
RTVSPost2010Prop56
140
1.0
102
RTVSPost2010PropOp56
 70
     1
102
RTVSPost2010Prop57
140
1.0
102
RTVSPost2010PropOp57
 70
     1
  0
FIELD
  5
6C6
102
{ACAD_REACTORS
330
6C5
102
}
330
6C5
100
AcDbField
  1
_text
  2
%<\_FldIdx 0>%-%<\_FldIdx 1>%
 90
        2
360
6C7
360
6C8
 97
        0
 91
       63
 92
        0
 94
        9
 95
        2
 96
        0
300

 93
        0
  7
ACFD_FIELD_VALUE
 93
        3
 90
        0
 94
        0
300

302

304
ACVALUE_END
301

 98
        0
  0
FIELD
  5
6C7
330
6C6
100
AcDbField
  1
AcVar
  2
\AcVar ViewSectionStartId
 90
        0
 97
        0
 91
       63
 92
        0
 94
       43
 95
        2
 96
        0
300

 93
        1
  6
Variable
 93
        2
 90
        4
  1
ViewSectionStartId
 94
        0
300

302

304
ACVALUE_END
  7
ACFD_FIELD_VALUE
 93
        1
 90
        0
 94
        0
300

302

304
ACVALUE_END
301
----
 98
        4
  0
FIELD
  5
6C8
330
6C6
100
AcDbField
  1
AcVar
  2
\AcVar ViewSectionEndId
 90
        0
 97
        0
 91
       63
 92
        0
 94
       43
 95
        2
 96
        0
300

 93
        1
  6
Variable
 93
        2
 90
        4
  1
ViewSectionEndId
 94
        0
300

302

304
ACVALUE_END
  7
ACFD_FIELD_VALUE
 93
        1
 90
        0
 94
        0
300

302

304
ACVALUE_END
301
----
 98
        4
  0
ENDSEC
  0
EOF
