  0
SECTION
  2
HEADER
  9
$ACADVER
  1
AC1015
  9
$ACADMAINTVER
 70
    20
  9
$DWGCODEPAGE
  3
ANSI_1252
  9
$INSBASE
 10
0.0
 20
0.0
 30
0.0
  9
$EXTMIN
 10
54.06373255934386
 20
-572.3372697225561
 30
-0.0000000000112498
  9
$EXTMAX
 10
808.2757141970965
 20
346.2082527385883
 30
0.0000000000002956
  9
$LIMMIN
 10
0.0
 20
0.0
  9
$LIMMAX
 10
420.0
 20
297.0
  9
$ORTHOMODE
 70
     1
  9
$REGENMODE
 70
     1
  9
$FILLMODE
 70
     1
  9
$QTEXTMODE
 70
     0
  9
$MIRRTEXT
 70
     1
  9
$LTSCALE
 40
1.0
  9
$ATTMODE
 70
     1
  9
$TEXTSIZE
 40
2.5
  9
$TRACEWID
 40
1.0
  9
$TEXTSTYLE
  7
STANDARD
  9
$CLAYER
  8
AM_1
  9
$CELTYPE
  6
ByLayer
  9
$CECOLOR
 62
   256
  9
$CELTSCALE
 40
1.0
  9
$DISPSILH
 70
     0
  9
$DIMSCALE
 40
1.0
  9
$DIMASZ
 40
2.5
  9
$DIMEXO
 40
1.0
  9
$DIMDLI
 40
10.0
  9
$DIMRND
 40
0.0
  9
$DIMDLE
 40
0.0
  9
$DIMEXE
 40
1.0
  9
$DIMTP
 40
0.1
  9
$DIMTM
 40
0.1
  9
$DIMTXT
 40
3.5
  9
$DIMCEN
 40
0.0
  9
$DIMTSZ
 40
0.0
  9
$DIMTOL
 70
     0
  9
$DIMLIM
 70
     0
  9
$DIMTIH
 70
     0
  9
$DIMTOH
 70
     0
  9
$DIMSE1
 70
     0
  9
$DIMSE2
 70
     0
  9
$DIMTAD
 70
     1
  9
$DIMZIN
 70
     8
  9
$DIMBLK
  1

  9
$DIMASO
 70
     1
  9
$DIMSHO
 70
     1
  9
$DIMPOST
  1

  9
$DIMAPOST
  1
"
  9
$DIMALT
 70
     0
  9
$DIMALTD
 70
     2
  9
$DIMALTF
 40
0.0393701
  9
$DIMLFAC
 40
1.0
  9
$DIMTOFL
 70
     1
  9
$DIMTVP
 40
0.0
  9
$DIMTIX
 70
     0
  9
$DIMSOXD
 70
     0
  9
$DIMSAH
 70
     0
  9
$DIMBLK1
  1

  9
$DIMBLK2
  1

  9
$DIMSTYLE
  2
AM_DIN
  9
$DIMCLRD
 70
   256
  9
$DIMCLRE
 70
   256
  9
$DIMCLRT
 70
     2
  9
$DIMTFAC
 40
0.71
  9
$DIMGAP
 40
1.5
  9
$DIMJUST
 70
     0
  9
$DIMSD1
 70
     0
  9
$DIMSD2
 70
     0
  9
$DIMTOLJ
 70
     0
  9
$DIMTZIN
 70
     8
  9
$DIMALTZ
 70
     0
  9
$DIMALTTZ
 70
     0
  9
$DIMUPT
 70
     0
  9
$DIMDEC
 70
     0
  9
$DIMTDEC
 70
     3
  9
$DIMALTU
 70
     2
  9
$DIMALTTD
 70
     4
  9
$DIMTXSTY
  7
STANDARD
  9
$DIMAUNIT
 70
     0
  9
$DIMADEC
 70
     0
  9
$DIMALTRND
 40
0.0
  9
$DIMAZIN
 70
     2
  9
$DIMDSEP
 70
    46
  9
$DIMATFIT
 70
     3
  9
$DIMFRAC
 70
     0
  9
$DIMLDRBLK
  1

  9
$DIMLUNIT
 70
     2
  9
$DIMLWD
 70
    -1
  9
$DIMLWE
 70
    -1
  9
$DIMTMOVE
 70
     0
  9
$LUNITS
 70
     2
  9
$LUPREC
 70
     2
  9
$SKETCHINC
 40
1.0
  9
$FILLETRAD
 40
2.5
  9
$AUNITS
 70
     0
  9
$AUPREC
 70
     0
  9
$MENU
  1
.
  9
$ELEVATION
 40
0.0
  9
$PELEVATION
 40
0.0
  9
$THICKNESS
 40
0.0
  9
$LIMCHECK
 70
     0
  9
$CHAMFERA
 40
2.5
  9
$CHAMFERB
 40
2.5
  9
$CHAMFERC
 40
20.0
  9
$CHAMFERD
 40
0.0
  9
$SKPOLY
 70
     0
  9
$TDCREATE
 40
2452964.498016030
  9
$TDUCREATE
 40
2452964.414682697
  9
$TDUPDATE
 40
2454019.992898704
  9
$TDUUPDATE
 40
2454019.909565371
  9
$TDINDWG
 40
0.0116227199
  9
$TDUSRTIMER
 40
0.0116223727
  9
$USRTIMER
 70
     1
  9
$ANGBASE
 50
0.0
  9
$ANGDIR
 70
     0
  9
$PDMODE
 70
     0
  9
$PDSIZE
 40
0.0
  9
$PLINEWID
 40
0.0
  9
$SPLFRAME
 70
     0
  9
$SPLINETYPE
 70
     6
  9
$SPLINESEGS
 70
     8
  9
$HANDSEED
  5
A62
  9
$SURFTAB1
 70
     6
  9
$SURFTAB2
 70
     6
  9
$SURFTYPE
 70
     6
  9
$SURFU
 70
     6
  9
$SURFV
 70
     6
  9
$UCSBASE
  2

  9
$UCSNAME
  2

  9
$UCSORG
 10
0.0
 20
0.0
 30
0.0
  9
$UCSXDIR
 10
1.0
 20
0.0
 30
0.0
  9
$UCSYDIR
 10
0.0
 20
1.0
 30
0.0
  9
$UCSORTHOREF
  2

  9
$UCSORTHOVIEW
 70
     0
  9
$UCSORGTOP
 10
0.0
 20
0.0
 30
0.0
  9
$UCSORGBOTTOM
 10
0.0
 20
0.0
 30
0.0
  9
$UCSORGLEFT
 10
0.0
 20
0.0
 30
0.0
  9
$UCSORGRIGHT
 10
0.0
 20
0.0
 30
0.0
  9
$UCSORGFRONT
 10
0.0
 20
0.0
 30
0.0
  9
$UCSORGBACK
 10
0.0
 20
0.0
 30
0.0
  9
$PUCSBASE
  2

  9
$PUCSNAME
  2

  9
$PUCSORG
 10
0.0
 20
0.0
 30
0.0
  9
$PUCSXDIR
 10
1.0
 20
0.0
 30
0.0
  9
$PUCSYDIR
 10
0.0
 20
1.0
 30
0.0
  9
$PUCSORTHOREF
  2

  9
$PUCSORTHOVIEW
 70
     0
  9
$PUCSORGTOP
 10
0.0
 20
0.0
 30
0.0
  9
$PUCSORGBOTTOM
 10
0.0
 20
0.0
 30
0.0
  9
$PUCSORGLEFT
 10
0.0
 20
0.0
 30
0.0
  9
$PUCSORGRIGHT
 10
0.0
 20
0.0
 30
0.0
  9
$PUCSORGFRONT
 10
0.0
 20
0.0
 30
0.0
  9
$PUCSORGBACK
 10
0.0
 20
0.0
 30
0.0
  9
$USERI1
 70
     0
  9
$USERI2
 70
     0
  9
$USERI3
 70
     0
  9
$USERI4
 70
     0
  9
$USERI5
 70
     0
  9
$USERR1
 40
0.0
  9
$USERR2
 40
0.0
  9
$USERR3
 40
0.0
  9
$USERR4
 40
0.0
  9
$USERR5
 40
0.0
  9
$WORLDVIEW
 70
     1
  9
$SHADEDGE
 70
     3
  9
$SHADEDIF
 70
    70
  9
$TILEMODE
 70
     1
  9
$MAXACTVP
 70
    64
  9
$PINSBASE
 10
0.0
 20
0.0
 30
0.0
  9
$PLIMCHECK
 70
     0
  9
$PEXTMIN
 10
1.000000000000000E+20
 20
1.000000000000000E+20
 30
1.000000000000000E+20
  9
$PEXTMAX
 10
-1.000000000000000E+20
 20
-1.000000000000000E+20
 30
-1.000000000000000E+20
  9
$PLIMMIN
 10
0.0
 20
0.0
  9
$PLIMMAX
 10
420.0
 20
297.0
  9
$UNITMODE
 70
     0
  9
$VISRETAIN
 70
     1
  9
$PLINEGEN
 70
     0
  9
$PSLTSCALE
 70
     1
  9
$TREEDEPTH
 70
  3020
  9
$CMLSTYLE
  2
Standard
  9
$CMLJUST
 70
     0
  9
$CMLSCALE
 40
20.0
  9
$PROXYGRAPHICS
 70
     1
  9
$MEASUREMENT
 70
     1
  9
$CELWEIGHT
370
    -1
  9
$ENDCAPS
280
     0
  9
$JOINSTYLE
280
     0
  9
$LWDISPLAY
290
     0
  9
$INSUNITS
 70
     4
  9
$HYPERLINKBASE
  1

  9
$STYLESHEET
  1

  9
$XEDIT
290
     1
  9
$CEPSNTYPE
380
     0
  9
$PSTYLEMODE
290
     1
  9
$FINGERPRINTGUID
  2
{ADCFDF2F-41BC-40BD-9E77-102E894BC14F}
  9
$VERSIONGUID
  2
{116260AF-311C-48BC-8EE6-8746974E0527}
  9
$EXTNAMES
290
     1
  9
$PSVPSCALE
 40
0.0
  9
$OLESTARTUP
290
     0
  0
ENDSEC
  0
SECTION
  2
CLASSES
  0
CLASS
  1
ACDBDICTIONARYWDFLT
  2
AcDbDictionaryWithDefault
  3
ObjectDBX Classes
 90
        0
280
     0
281
     0
  0
CLASS
  1
ACDBPLACEHOLDER
  2
AcDbPlaceHolder
  3
ObjectDBX Classes
 90
        0
280
     0
281
     0
  0
CLASS
  1
LAYOUT
  2
AcDbLayout
  3
ObjectDBX Classes
 90
        0
280
     0
281
     0
  0
CLASS
  1
ACME_DOCUMENT
  2
AcMeDbDoc
  3
AcMeServices
 90
        0
280
     0
281
     0
  0
CLASS
  1
ACMESCOPE
  2
AcMeScope
  3
AcMeServices
 90
        0
280
     0
281
     0
  0
CLASS
  1
ACMECOMMANDHISTORY
  2
AcMeCommandHistory
  3
AcMeServices
 90
        0
280
     0
281
     0
  0
CLASS
  1
DICTIONARYVAR
  2
AcDbDictionaryVar
  3
ObjectDBX Classes
 90
        0
280
     0
281
     0
  0
CLASS
  1
ACIMSYSVARMAN
  2
AcImSysVarManager
  3
AcMeServices
 90
        0
280
     0
281
     0
  0
CLASS
  1
ACIMREALSYSVAR
  2
AcImRealSysVar
  3
AcMeServices
 90
        0
280
     0
281
     0
  0
CLASS
  1
ACIMINTSYSVAR
  2
AcImIntSysVar
  3
AcMeServices
 90
        0
280
     0
281
     0
  0
CLASS
  1
ACMEDRAWINGMAN
  2
AcMeDrawingMan
  3
AcMeServices
 90
        0
280
     0
281
     0
  0
CLASS
  1
ACMEVIEW
  2
AcMeView
  3
AcMeServices
 90
        0
280
     0
281
     0
  0
CLASS
  1
ACDBENTITYCACHE
  2
AcMeEntityCache
  3
AcMeServices
 90
        0
280
     0
281
     0
  0
CLASS
  1
GSMANAGER
  2
AcMeGSManager
  3
AcMeServices
 90
        0
280
     0
281
     0
  0
CLASS
  1
AMDTINTERNALREACTOR
  2
AmdtInternalReactor
  3
AcMeServices
 90
        0
280
     0
281
     0
  0
CLASS
  1
ACMESTATEMGR
  2
AcMeStateMgr
  3
AcMeServices
 90
        0
280
     0
281
     0
  0
CLASS
  1
ACGREFMASTER
  2
AcGrefMaster
  3
AcAttribServices
 90
        0
280
     0
281
     0
  0
CLASS
  1
ACME_DATABASE
  2
AcMeDbDatabase
  3
AcMeServices
 90
        0
280
     0
281
     0
  0
CLASS
  1
ACRFINSADJUSTERMGR
  2
AcRfInsAdjusterMgr
  3
AcMeServices
 90
        0
280
     0
281
     0
  0
CLASS
  1
ACGREFACADMASTER
  2
AcGrefacadMaster
  3
AcGrefServices
 90
        0
280
     0
281
     0
  0
CLASS
  1
AMIMASTER
  2
AmiMaster
  3
AmiServices
 90
        0
280
     0
281
     0
  0
CLASS
  1
AMGSETTINGSOBJ
  2
AmgSettingsObj
  3
"AcadM|Product Description: AutoCAD Mechanical 2000|Company: Autodesk"
 90
        0
280
     0
281
     0
  0
CLASS
  1
ACMDATADICTIONARY
  2
AcmDataDictionary
  3
"AcmSymBB|Product Description: AutoCAD Mechanical 2004 DX|Company: Autodesk"
 90
        0
280
     0
281
     0
  0
CLASS
  1
ACMDATAENTRYBLOCK
  2
AcmDataEntryBlock
  3
"AcmSymBB|Product Description: AutoCAD Mechanical 2004 DX|Company: Autodesk"
 90
        0
280
     0
281
     0
  0
CLASS
  1
ACIMSTRSYSVAR
  2
AcImStrSysVar
  3
AcMeServices
 90
        0
280
     0
281
     0
  0
CLASS
  1
ACMSTANDARDDIN
  2
AcmStandardDIN
  3
"Amdt_StdImp|Product Description: AutoCAD Mechanical 2004 DX|Company: Autodesk"
 90
        0
280
     0
281
     0
  0
CLASS
  1
AMGOBJPROPCFG
  2
AmgObjPropCfg
  3
"AmgLay|Product Description: AutoCAD Mechanical 2000|Company: Autodesk"
 90
        1
280
     0
281
     0
  0
CLASS
  1
AMDTEDGESTANDARDDIN
  2
AmdtEdgeStdDIN
  3
"Amdt_StdImp|Product Description: AutoCAD Mechanical 2004 DX|Company: Autodesk"
 90
        0
280
     0
281
     0
  0
CLASS
  1
ACMSURFSTANDARDDIN
  2
AcmSurfTextStdDIN
  3
"Amdt_StdImp|Product Description: AutoCAD Mechanical 2004 DX|Company: Autodesk"
 90
        0
280
     0
281
     0
  0
CLASS
  1
ACMFCFSTANDARDDIN
  2
AcmFCFStdDIN
  3
"Amdt_StdImp|Product Description: AutoCAD Mechanical 2004 DX|Company: Autodesk"
 90
        0
280
     0
281
     0
  0
CLASS
  1
ACMWELDSTANDARDDIN
  2
AcmWeldingStdDIN
  3
"Amdt_StdImp|Product Description: AutoCAD Mechanical 2004 DX|Company: Autodesk"
 90
        0
280
     0
281
     0
  0
CLASS
  1
ACMIDSTANDARDDIN
  2
AcmIdStdDIN
  3
"Amdt_StdImp|Product Description: AutoCAD Mechanical 2004 DX|Company: Autodesk"
 90
        0
280
     0
281
     0
  0
CLASS
  1
ACMDATUMSTANDARDDIN
  2
AcmDatumStdDIN
  3
"Amdt_StdImp|Product Description: AutoCAD Mechanical 2004 DX|Company: Autodesk"
 90
        0
280
     0
281
     0
  0
CLASS
  1
ACMBOMSTANDARDDIN
  2
AcmBOMStdDIN
  3
"Amdt_StdImp|Product Description: AutoCAD Mechanical 2004 DX|Company: Autodesk"
 90
        0
280
     0
281
     0
  0
CLASS
  1
ACMDETAILSTANDARDDIN
  2
AmdtDetailSymStdDIN
  3
"Amdt_StdImp|Product Description: AutoCAD Mechanical 2004 DX|Company: Autodesk"
 90
        0
280
     0
281
     0
  0
CLASS
  1
ACMSECTIONSTANDARDDIN
  2
AmdtSectionSymStdDIN
  3
"Amdt_StdImp|Product Description: AutoCAD Mechanical 2004 DX|Company: Autodesk"
 90
        0
280
     0
281
     0
  0
CLASS
  1
ACMCENTERLINESTANDARDDIN
  2
AmdtCenterLineStdDIN
  3
"Amdt_StdImp|Product Description: AutoCAD Mechanical 2004 DX|Company: Autodesk"
 90
        0
280
     0
281
     0
  0
CLASS
  1
ACAMGLAYSTD
  2
AcAmgLayStd
  3
"AcAmgLayStd|Product Description: AutoCAD Mechanical 2000|Company: Autodesk"
 90
        0
280
     0
281
     0
  0
CLASS
  1
ACAMGDIMSTD
  2
AcAmgDimStd
  3
"AcAmgDimStd|Product Description: AutoCAD Mechanical 2000|Company: Autodesk"
 90
        0
280
     0
281
     0
  0
CLASS
  1
ACAMGTITLESTD
  2
AcAmgTitleStd
  3
"TITLEAPP"
 90
        0
280
     0
281
     0
  0
CLASS
  1
ACAMGFILTERDAT
  2
AcAmgFilterDat
  3
"AcadM|Product Description: AutoCAD Mechanical 2000|Company: Autodesk"
 90
        0
280
     0
281
     0
  0
CLASS
  1
AMDTFORMULAUPDATEDISPATCHER
  2
AmdtFormulaUpdateDispatcher
  3
AcMeServices
 90
        0
280
     0
281
     0
  0
CLASS
  1
LAYER_INDEX
  2
AcDbLayerIndex
  3
ObjectDBX Classes
 90
        0
280
     0
281
     0
  0
CLASS
  1
IDBUFFER
  2
AcDbIdBuffer
  3
ObjectDBX Classes
 90
        0
280
     0
281
     0
  0
CLASS
  1
AMDTSECTIONSYMLABEL
  2
AmdtSectionSymLabel
  3
"AcmSymBB|Product Description: AutoCAD Mechanical 2004 DX|Company: Autodesk"
 90
    33791
280
     0
281
     1
  0
CLASS
  1
AMDTSECTIONSYM
  2
AmdtSectionSym
  3
"AcmSymBB|Product Description: AutoCAD Mechanical 2004 DX|Company: Autodesk"
 90
    33791
280
     0
281
     1
  0
CLASS
  1
TABLESTYLE
  2
AcDbTableStyle
  3
ObjectDBX Classes
 90
     2047
280
     0
281
     0
  0
CLASS
  1
AM_DRAWING_MGR
  2
AcDmDwgMgr
  3
AcMechDwgViewMgmt
 90
        0
280
     0
281
     0
  0
CLASS
  1
AM_DWG_DOCUMENT
  2
AcDmDwgDocument
  3
AcMechDwgViewMgmt
 90
        0
280
     0
281
     0
  0
CLASS
  1
AM_DWG_SHEET
  2
AcDmSheet
  3
AcMechDwgViewMgmt
 90
        0
280
     0
281
     0
  0
CLASS
  1
AM_VIEWDIMPARMAP
  2
AcDmViewDimParMap
  3
AcMechDwgViewMgmt
 90
        0
280
     0
281
     0
  0
CLASS
  1
AM_DWGMGR_NAME
  2
AcDmDwgMgrName
  3
AcMechDwgViewMgmt
 90
        0
280
     0
281
     0
  0
CLASS
  1
AMDTMENUSTATEMGR
  2
AmdtMenuStateMgr
  3
McadcomServices
 90
        0
280
     0
281
     0
  0
CLASS
  1
AMDTMCOMMENUSTATE
  2
AmdtMcomMenuState
  3
McadcomServices
 90
        0
280
     0
281
     0
  0
CLASS
  1
MAPIAMMOUDLE
  2
MApiAmModule
  3
MApiAmServices
 90
        0
280
     0
281
     0
  0
CLASS
  1
AMDTADMENUSTATE
  2
AmdtAdMenuState
  3
DesignerServices
 90
        0
280
     0
281
     0
  0
CLASS
  1
ADAPPL
  2
AcAdAppl
  3
DesignerServices
 90
        0
280
     0
281
     0
  0
CLASS
  1
DEPMGR
  2
AcAdDepMgr
  3
DesignerServices
 90
        0
280
     0
281
     0
  0
CLASS
  1
PARAMMGR
  2
AcAdParamMgr
  3
DesignerServices
 90
        0
280
     0
281
     0
  0
CLASS
  1
PARAMSCOPE
  2
AcAdParamScope
  3
DesignerServices
 90
        0
280
     0
281
     0
  0
CLASS
  1
NAMEDAPPL
  2
AcAdNamedAppl
  3
DesignerServices
 90
        0
280
     0
281
     0
  0
CLASS
  1
AMDTDMMENUSTATE
  2
AmdtDmMenuState
  3
AcMechDwgViewMgmt
 90
        0
280
     0
281
     0
  0
CLASS
  1
AMDTAMMENUSTATE
  2
AmdtAmMenuState
  3
DesignerAssemblies
 90
        0
280
     0
281
     0
  0
CLASS
  1
ACAMPROJECT
  2
AcAmProject
  3
DesignerAssemblies
 90
        0
280
     0
281
     0
  0
CLASS
  1
ACAMGRCOMPDEF
  2
AcAmGrCompDef
  3
DesignerAssemblies
 90
        0
280
     0
281
     0
  0
CLASS
  1
ACCMCONTEXT
  2
AcCmContext
  3
DesignerAssemblies
 90
        0
280
     0
281
     0
  0
CLASS
  1
ACAMCOMPDEF
  2
AcAmCompDef
  3
DesignerAssemblies
 90
        0
280
     0
281
     0
  0
CLASS
  1
ACAMCOMPDEFMGR
  2
AcAmCompDefMgr
  3
DesignerAssemblies
 90
        0
280
     0
281
     0
  0
CLASS
  1
AMCONTEXTMGR
  2
AcAmContextMgr
  3
DesignerAssemblies
 90
        0
280
     0
281
     0
  0
CLASS
  1
ACAMCONTEXTMODELER
  2
AcAmContextModeler
  3
DesignerAssemblies
 90
        0
280
     0
281
     0
  0
CLASS
  1
ACMTHREADLINESTANDARDDIN
  2
AmdtThreadLineStdDIN
  3
"Amdt_StdImp|Product Description: AutoCAD Mechanical 2004 DX|Company: Autodesk"
 90
        0
280
     0
281
     0
  0
CLASS
  1
ACMNOTESTANDARDDIN
  2
AmdtNoteStdDIN
  3
"Amdt_StdImp|Product Description: AutoCAD Mechanical 2004 DX|Company: Autodesk"
 90
        0
280
     0
281
     0
  0
CLASS
  1
AMDTNOTETEMPLATEDB
  2
AmdtNoteTemplateDB
  3
AMDT_STDIMP_MODULE_NAME
 90
        0
280
     0
281
     0
  0
CLASS
  1
CATALOGSTATE
  2
AcAmCatalogState
  3
DesignerAssemblies
 90
        0
280
     0
281
     0
  0
CLASS
  1
ACAMGRCOMPDEFSET
  2
AcAmGrCompDefSet
  3
DesignerAssemblies
 90
        0
280
     0
281
     0
  0
CLASS
  1
AMDTBROWSERDBTAB
  2
AmdtBrowserDbTab
  3
McadcomServices
 90
        0
280
     0
281
     0
  0
CLASS
  1
CBROWSERAPPOBJECT
  2
CBrowserAppObject
  3
McadcomServices
 90
        0
280
     0
281
     0
  0
CLASS
  1
DM_PLACEHOLDER
  2
AcDmSelsetPlaceholder
  3
AcMechDwgViewMgmt
 90
        0
280
     0
281
     0
  0
ENDSEC
  0
SECTION
  2
TABLES
  0
TABLE
  2
VPORT
  5
8
330
0
100
AcDbSymbolTable
 70
    97
  0
VPORT
  5
A59
330
8
100
AcDbSymbolTableRecord
100
AcDbViewportTableRecord
  2
*Active
 70
     0
 10
0.0
 20
0.0
 11
1.0
 21
1.0
 12
431.1697233782202
 22
-113.0645084919839
 13
0.0
 23
0.0
 14
2.5
 24
2.5
 15
10.0
 25
10.0
 16
0.0
 26
0.0
 36
1.0
 17
0.0
 27
0.0
 37
0.0
 40
925.2177659657048
 41
1.494545454545454
 42
50.0
 43
0.0
 44
0.0
 50
0.0
 51
0.0
 71
     0
 72
   100
 73
     1
 74
     3
 75
     0
 76
     0
 77
     0
 78
     0
281
     0
 65
     1
110
0.0
120
0.0
130
0.0
111
1.0
121
0.0
131
0.0
112
0.0
122
1.0
132
0.0
 79
     0
146
0.0
  0
ENDTAB
  0
TABLE
  2
LTYPE
  5
5
330
0
100
AcDbSymbolTable
 70
    26
  0
LTYPE
  5
14
330
5
100
AcDbSymbolTableRecord
100
AcDbLinetypeTableRecord
  2
ByBlock
 70
     0
  3

 72
    65
 73
     0
 40
0.0
  0
LTYPE
  5
15
330
5
100
AcDbSymbolTableRecord
100
AcDbLinetypeTableRecord
  2
ByLayer
 70
     0
  3

 72
    65
 73
     0
 40
0.0
  0
LTYPE
  5
16
330
5
100
AcDbSymbolTableRecord
100
AcDbLinetypeTableRecord
  2
Continuous
 70
     0
  3
Solid line
 72
    65
 73
     0
 40
0.0
  0
LTYPE
  5
52
330
5
100
AcDbSymbolTableRecord
100
AcDbLinetypeTableRecord
  2
Amconstr
 70
     0
  3
_______________________
 72
    65
 73
     2
 40
9999.0
 49
9999.0
 74
     0
 49
0.0
 74
     0
  0
LTYPE
  5
57
330
5
100
AcDbSymbolTableRecord
100
AcDbLinetypeTableRecord
  2
Amzigzag
 70
     0
  3
/\/-/\/-/\/-/\/-/\/-/\/
 72
    65
 73
     2
 40
11.0001
 49
0.0001
 74
     4
 75
   135
340
56
 46
0.04
 50
0.0
 44
0.0
 45
0.0
 49
-11.0
 74
     0
  0
LTYPE
  5
58
330
5
100
AcDbSymbolTableRecord
100
AcDbLinetypeTableRecord
  2
AM_DIN_F_W050
 70
     0
  3
__ __ __ __ __ __ __ __ __ __ __ __ __ __ __
 72
    65
 73
     2
 40
6.25
 49
4.75
 74
     0
 49
-1.5
 74
     0
  0
LTYPE
  5
59
330
5
100
AcDbSymbolTableRecord
100
AcDbLinetypeTableRecord
  2
AM_DIN_G_W050
 70
     0
  3
____ . ____ . ____ . ____ . ____ . ____ . ____
 72
    65
 73
     4
 40
13.75
 49
9.75
 74
     0
 49
-1.5
 74
     0
 49
1.0
 74
     0
 49
-1.5
 74
     0
  0
LTYPE
  5
5A
330
5
100
AcDbSymbolTableRecord
100
AcDbLinetypeTableRecord
  2
AM_DIN_K_W050
 70
     0
  3
_____ . . _____ . . _____ . . ____ .. ____
 72
    65
 73
     6
 40
16.25
 49
9.75
 74
     0
 49
-1.5
 74
     0
 49
1.0
 74
     0
 49
-1.5
 74
     0
 49
1.0
 74
     0
 49
-1.5
 74
     0
  0
LTYPE
  5
5B
330
5
100
AcDbSymbolTableRecord
100
AcDbLinetypeTableRecord
  2
AM_DIN_G_W050x2
 70
     0
  3
__ . __ . __ . __ . __ . __
 72
    65
 73
     4
 40
6.875
 49
4.75
 74
     0
 49
-0.875
 74
     0
 49
0.375
 74
     0
 49
-0.875
 74
     0
  0
LTYPE
  5
5C
330
5
100
AcDbSymbolTableRecord
100
AcDbLinetypeTableRecord
  2
AM_DIN_F_W050x2
 70
     0
  3
 _ _ _ _ _ _ _ _ _ _ _ _
 72
    65
 73
     2
 40
3.125
 49
2.25
 74
     0
 49
-0.875
 74
     0
  0
LTYPE
  5
69
330
5
100
AcDbSymbolTableRecord
100
AcDbLinetypeTableRecord
  2
ACDINWELD
 70
     0
  3
_ _ _ _ _
 72
    65
 73
     2
 40
2.0
 49
2.0
 74
     0
 49
-1.0
 74
     0
  0
LTYPE
  5
6A
330
5
100
AcDbSymbolTableRecord
100
AcDbLinetypeTableRecord
  2
ACDINTGB
 70
     0
  3
__ . . __ . .
 72
    65
 73
     6
 40
9.0
 49
4.0
 74
     0
 49
-1.0
 74
     0
 49
1.0
 74
     0
 49
-1.0
 74
     0
 49
1.0
 74
     0
 49
-1.0
 74
     0
  0
LTYPE
  5
6B
330
5
100
AcDbSymbolTableRecord
100
AcDbLinetypeTableRecord
  2
ACDINTGL
 70
     0
  3
_ _ _ _ _
 72
    65
 73
     2
 40
3.0
 49
2.0
 74
     0
 49
-1.0
 74
     0
  0
LTYPE
  5
6D
330
5
100
AcDbSymbolTableRecord
100
AcDbLinetypeTableRecord
  2
CENTER
 70
     0
  3
__ . __
 72
    65
 73
     4
 40
7.0
 49
4.0
 74
     0
 49
-1.0
 74
     0
 49
1.0
 74
     0
 49
-1.0
 74
     0
  0
LTYPE
  5
B7
330
5
100
AcDbSymbolTableRecord
100
AcDbLinetypeTableRecord
  2
AUSGEZOGEN
 70
     0
  3
Ausgezogene Linie
 72
    65
 73
     0
 40
0.0
  0
LTYPE
  5
81F
330
5
100
AcDbSymbolTableRecord
100
AcDbLinetypeTableRecord
  2
HIDDEN
 70
     0
  3
Verdeckt
 72
    65
 73
     2
 40
9.525
 49
6.349999999999999
 74
     0
 49
-3.174999999999999
 74
     0
  0
LTYPE
  5
820
330
5
100
AcDbSymbolTableRecord
100
AcDbLinetypeTableRecord
  2
PHANTOM2
 70
     0
  3
Phantom (.5x) ___ _ _ ___ _ _ ___ _ _ ___ _ _
 72
    65
 73
     6
 40
31.75
 49
15.875
 74
     0
 49
-3.174999999999999
 74
     0
 49
3.174999999999999
 74
     0
 49
-3.174999999999999
 74
     0
 49
3.174999999999999
 74
     0
 49
-3.174999999999999
 74
     0
  0
ENDTAB
  0
TABLE
  2
LAYER
  5
2
330
0
100
AcDbSymbolTable
 70
    15
  0
LAYER
  5
10
330
2
100
AcDbSymbolTableRecord
100
AcDbLayerTableRecord
  2
0
 70
     0
 62
     7
  6
Continuous
370
    -3
390
F
  0
LAYER
  5
BE
330
2
100
AcDbSymbolTableRecord
100
AcDbLayerTableRecord
  2
SICHTBAR
 70
     0
 62
     7
  6
AUSGEZOGEN
370
    -3
390
F
  0
LAYER
  5
C1
330
2
100
AcDbSymbolTableRecord
100
AcDbLayerTableRecord
  2
DEFPOINTS
 70
     0
 62
     7
  6
Continuous
290
     0
370
    -3
390
F
  0
LAYER
  5
73C
330
2
100
AcDbSymbolTableRecord
100
AcDbLayerTableRecord
  2
AM_1
 70
     0
 62
    14
  6
Continuous
370
    50
390
F
  0
LAYER
  5
75D
330
2
100
AcDbSymbolTableRecord
100
AcDbLayerTableRecord
  2
AM_5
 70
     0
 62
     3
  6
Continuous
370
    25
390
F
  0
ENDTAB
  0
TABLE
  2
STYLE
  5
3
330
0
100
AcDbSymbolTable
 70
     8
  0
STYLE
  5
11
330
3
100
AcDbSymbolTableRecord
100
AcDbTextStyleTableRecord
  2
STANDARD
 70
     0
 40
0.0
 41
1.0
 50
0.0
 71
     0
 42
2.5
  3
ISOCP.SHX
  4

  0
STYLE
  5
56
330
3
100
AcDbSymbolTableRecord
100
AcDbTextStyleTableRecord
  2

 70
     1
 40
0.0
 41
1.0
 50
0.0
 71
     0
 42
2.5
  3
ltypeshp.shx
  4

  0
STYLE
  5
5D
330
3
100
AcDbSymbolTableRecord
100
AcDbTextStyleTableRecord
  2
ACDINTS
 70
     0
 40
1.0
 41
1.0
 50
0.0
 71
     0
 42
2.5
  3
isocp.shx
  4

  0
STYLE
  5
68
330
3
100
AcDbSymbolTableRecord
100
AcDbTextStyleTableRecord
  2
ACDINGDT
 70
     0
 40
0.0
 41
1.0
 50
0.0
 71
     0
 42
2.5
  3
amgdt.shx
  4

  0
ENDTAB
  0
TABLE
  2
VIEW
  5
6
330
0
100
AcDbSymbolTable
 70
     0
  0
ENDTAB
  0
TABLE
  2
UCS
  5
7
330
0
100
AcDbSymbolTable
 70
     0
  0
ENDTAB
  0
TABLE
  2
APPID
  5
9
330
0
100
AcDbSymbolTable
 70
    19
  0
APPID
  5
12
330
9
100
AcDbSymbolTableRecord
100
AcDbRegAppTableRecord
  2
ACAD
 70
     0
  0
APPID
  5
2C
330
9
100
AcDbSymbolTableRecord
100
AcDbRegAppTableRecord
  2
MCAD_NO_VIS
 70
     0
  0
APPID
  5
2D
330
9
100
AcDbSymbolTableRecord
100
AcDbRegAppTableRecord
  2
ACAD_TEMP_GRAPHIC
 70
     0
  0
APPID
  5
40
330
9
100
AcDbSymbolTableRecord
100
AcDbRegAppTableRecord
  2
ACATTRIBSERVICES
 70
     0
  0
APPID
  5
C4
330
9
100
AcDbSymbolTableRecord
100
AcDbRegAppTableRecord
  2
GENIUS_GENDTOL_13
 70
     0
  0
APPID
  5
C5
330
9
100
AcDbSymbolTableRecord
100
AcDbRegAppTableRecord
  2
GENIUS_GENODEF_13
 70
     0
  0
APPID
  5
C6
330
9
100
AcDbSymbolTableRecord
100
AcDbRegAppTableRecord
  2
GENIUS_GENOBJ-N-HTC_13
 70
     0
  0
APPID
  5
C7
330
9
100
AcDbSymbolTableRecord
100
AcDbRegAppTableRecord
  2
GENIUS_GENHATCH_13
 70
     0
  0
APPID
  5
C8
330
9
100
AcDbSymbolTableRecord
100
AcDbRegAppTableRecord
  2
GENIUS_GENOBJ-N-CEN_13
 70
     0
  0
APPID
  5
C9
330
9
100
AcDbSymbolTableRecord
100
AcDbRegAppTableRecord
  2
GENIUS_GENOBJ-N-FIL_13
 70
     0
  0
APPID
  5
1DF
330
9
100
AcDbSymbolTableRecord
100
AcDbRegAppTableRecord
  2
GENIUS_GENREC_14
 70
     0
  0
APPID
  5
1E0
330
9
100
AcDbSymbolTableRecord
100
AcDbRegAppTableRecord
  2
GENIUS_GENOBJ-N-REC_13
 70
     0
  0
APPID
  5
72B
330
9
100
AcDbSymbolTableRecord
100
AcDbRegAppTableRecord
  2
GENIUS_GENDIMSH_14
 70
     0
  0
APPID
  5
822
330
9
100
AcDbSymbolTableRecord
100
AcDbRegAppTableRecord
  2
AD_DRAW
 70
     0
  0
APPID
  5
840
330
9
100
AcDbSymbolTableRecord
100
AcDbRegAppTableRecord
  2
DESIGNERASSEMBLIES
 70
     0
  0
APPID
  5
84A
330
9
100
AcDbSymbolTableRecord
100
AcDbRegAppTableRecord
  2
ACAD_DSTYLE_DIMARC_LENGTH_SYMBOL
 70
     0
  0
APPID
  5
84B
330
9
100
AcDbSymbolTableRecord
100
AcDbRegAppTableRecord
  2
ACAD_DSTYLE_DIMJOGGED_JOGANGLE_SYMBOL
 70
     0
  0
APPID
  5
85B
330
9
100
AcDbSymbolTableRecord
100
AcDbRegAppTableRecord
  2
ACADM_DIM_EDIT
 70
     0
  0
APPID
  5
85C
330
9
100
AcDbSymbolTableRecord
100
AcDbRegAppTableRecord
  2
AMDT_DM_ADJ
 70
     0
  0
ENDTAB
  0
TABLE
  2
DIMSTYLE
  5
A
330
0
100
AcDbSymbolTable
 70
    11
100
AcDbDimStyleTable
 71
     1
340
70
  0
DIMSTYLE
105
70
330
A
100
AcDbSymbolTableRecord
100
AcDbDimStyleTableRecord
  2
AM_DIN
 70
     0
  4
"
 41
2.5
 42
1.0
 43
10.0
 44
1.0
 47
0.1
 48
0.1
 73
     0
 74
     0
 77
     1
 78
     8
 79
     2
140
3.5
141
0.0
143
0.0393701
146
0.71
147
1.5
172
     1
176
   256
177
   256
178
     2
271
     2
272
     3
274
     4
283
     0
284
     8
340
11
371
    -1
372
    -1
1001
ACAD_DSTYLE_DIMARC_LENGTH_SYMBOL
1070
   379
1070
     0
1001
ACAD_DSTYLE_DIMJOGGED_JOGANGLE_SYMBOL
1070
   384
1040
1.570796326794896
  0
DIMSTYLE
105
71
330
A
100
AcDbSymbolTableRecord
100
AcDbDimStyleTableRecord
  2
AM_DIN$3
 70
     0
  4
"
 41
2.5
 42
1.0
 43
10.0
 44
1.0
 47
0.1
 48
0.1
 73
     0
 77
     1
 78
     8
 79
     2
140
3.5
141
0.0
143
0.0393701
146
0.71
147
1.5
176
   256
177
   256
178
     2
271
     2
272
     3
274
     4
283
     0
284
     8
288
     1
289
     0
340
11
371
    -1
372
    -1
1001
ACAD_DSTYLE_DIMARC_LENGTH_SYMBOL
1070
   379
1070
     0
1001
ACAD_DSTYLE_DIMJOGGED_JOGANGLE_SYMBOL
1070
   384
1040
1.570796326794896
  0
DIMSTYLE
105
72
330
A
100
AcDbSymbolTableRecord
100
AcDbDimStyleTableRecord
  2
AM_DIN$4
 70
     0
  4
"
 41
2.5
 42
1.0
 43
10.0
 44
1.0
 47
0.1
 48
0.1
 73
     0
 77
     1
 78
     8
 79
     2
140
3.5
141
0.0
143
0.0393701
146
0.71
147
1.5
176
   256
177
   256
178
     2
271
     2
272
     3
274
     4
283
     0
284
     8
288
     1
289
     0
340
11
371
    -1
372
    -1
1001
ACAD_DSTYLE_DIMARC_LENGTH_SYMBOL
1070
   379
1070
     0
1001
ACAD_DSTYLE_DIMJOGGED_JOGANGLE_SYMBOL
1070
   384
1040
1.570796326794896
  0
DIMSTYLE
105
73
330
A
100
AcDbSymbolTableRecord
100
AcDbDimStyleTableRecord
  2
AM_DIN$6
 70
     0
  4
"
 41
2.5
 42
1.0
 43
10.0
 44
1.0
 47
0.1
 48
0.1
 73
     0
 74
     0
 78
     8
 79
     2
140
3.5
141
0.0
143
0.0393701
146
0.71
147
1.5
172
     1
176
   256
177
   256
178
     2
271
     2
272
     3
274
     4
283
     0
284
     8
340
11
371
    -1
372
    -1
1001
ACAD_DSTYLE_DIMARC_LENGTH_SYMBOL
1070
   379
1070
     0
1001
ACAD_DSTYLE_DIMJOGGED_JOGANGLE_SYMBOL
1070
   384
1040
1.570796326794896
  0
DIMSTYLE
105
74
330
A
100
AcDbSymbolTableRecord
100
AcDbDimStyleTableRecord
  2
AM_DIN$7
 70
     0
  4
"
 41
2.5
 42
1.0
 43
10.0
 44
1.0
 47
0.1
 48
0.1
 73
     0
 74
     0
 77
     1
 78
     8
 79
     2
140
5.0
141
0.0
143
0.0393701
146
0.71
147
1.5
172
     1
176
   256
177
   256
178
     2
271
     2
272
     3
274
     4
283
     0
284
     8
340
11
371
    -1
372
    -1
1001
ACAD_DSTYLE_DIMARC_LENGTH_SYMBOL
1070
   379
1070
     0
1001
ACAD_DSTYLE_DIMJOGGED_JOGANGLE_SYMBOL
1070
   384
1040
1.570796326794896
  0
DIMSTYLE
105
75
330
A
100
AcDbSymbolTableRecord
100
AcDbDimStyleTableRecord
  2
AM_DIN$SF
 70
     0
  4
"
 41
2.5
 42
1.0
 43
10.0
 44
1.0
 47
0.1
 48
0.1
 73
     0
 74
     0
 75
     1
 76
     1
 77
     1
 78
     8
 79
     2
140
3.5
141
0.0
143
0.0393701
146
0.71
147
1.5
172
     1
176
   256
177
   256
178
     2
271
     2
272
     3
274
     4
283
     0
284
     8
340
11
371
    -1
372
    -1
1001
ACAD_DSTYLE_DIMARC_LENGTH_SYMBOL
1070
   379
1070
     0
1001
ACAD_DSTYLE_DIMJOGGED_JOGANGLE_SYMBOL
1070
   384
1040
1.570796326794896
  0
DIMSTYLE
105
7A
330
A
100
AcDbSymbolTableRecord
100
AcDbDimStyleTableRecord
  2
AM_DIN$SH
 70
     0
  4
"
 41
2.5
 42
1.0
 43
10.0
 44
1.0
 47
0.1
 48
0.1
 73
     0
 74
     0
 75
     1
 76
     1
 77
     1
 78
     8
 79
     2
140
3.5
141
0.0
143
0.0393701
144
2.0
146
0.71
147
1.5
172
     1
173
     1
176
   256
177
   256
178
     2
271
     2
272
     3
274
     4
283
     0
284
     8
340
11
343
76
371
    -1
372
    -1
1001
ACAD_DSTYLE_DIMARC_LENGTH_SYMBOL
1070
   379
1070
     0
1001
ACAD_DSTYLE_DIMJOGGED_JOGANGLE_SYMBOL
1070
   384
1040
1.570796326794896
  0
DIMSTYLE
105
8C7
102
{ACAD_REACTORS
330
8CB
330
8FC
330
95B
330
925
330
983
102
}
330
A
100
AcDbSymbolTableRecord
100
AcDbDimStyleTableRecord
  2
AM_DIN$0
 70
     0
  4
"
 41
2.5
 42
1.0
 43
10.0
 44
1.0
 47
0.1
 48
0.1
 73
     0
 74
     0
 77
     1
 78
     8
 79
     2
140
3.5
141
0.0
143
0.0393701
146
0.71
147
1.5
172
     1
176
   256
177
   256
178
     2
271
     2
272
     3
274
     4
283
     0
284
     8
340
11
371
    -1
372
    -1
1001
ACAD_DSTYLE_DIMARC_LENGTH_SYMBOL
1070
   379
1070
     0
1001
ACAD_DSTYLE_DIMJOGGED_JOGANGLE_SYMBOL
1070
   384
1040
1.570796326794896
  0
ENDTAB
  0
TABLE
  2
BLOCK_RECORD
  5
1
330
0
100
AcDbSymbolTable
 70
    24
  0
BLOCK_RECORD
  5
1F
102
{ACAD_XDICTIONARY
360
182
102
}
330
1
100
AcDbSymbolTableRecord
100
AcDbBlockTableRecord
  2
*Model_Space
340
22
  0
BLOCK_RECORD
  5
1B
330
1
100
AcDbSymbolTableRecord
100
AcDbBlockTableRecord
  2
*Paper_Space
340
1E
  0
BLOCK_RECORD
  5
23
330
1
100
AcDbSymbolTableRecord
100
AcDbBlockTableRecord
  2
*Paper_Space0
340
26
  0
BLOCK_RECORD
  5
76
330
1
100
AcDbSymbolTableRecord
100
AcDbBlockTableRecord
  2
GENAXEH
340
0
  0
BLOCK_RECORD
  5
8CC
330
1
100
AcDbSymbolTableRecord
100
AcDbBlockTableRecord
  2
*D19
340
0
  0
BLOCK_RECORD
  5
8FD
330
1
100
AcDbSymbolTableRecord
100
AcDbBlockTableRecord
  2
*D20
340
0
  0
BLOCK_RECORD
  5
926
330
1
100
AcDbSymbolTableRecord
100
AcDbBlockTableRecord
  2
*D21
340
0
  0
BLOCK_RECORD
  5
95C
330
1
100
AcDbSymbolTableRecord
100
AcDbBlockTableRecord
  2
*D22
340
0
  0
BLOCK_RECORD
  5
984
330
1
100
AcDbSymbolTableRecord
100
AcDbBlockTableRecord
  2
*D23
340
0
  0
ENDTAB
  0
ENDSEC
  0
SECTION
  2
BLOCKS
  0
BLOCK
  5
20
330
1F
100
AcDbEntity
  8
0
100
AcDbBlockBegin
  2
*Model_Space
 70
     0
 10
0.0
 20
0.0
 30
0.0
  3
*Model_Space
  1

  0
ENDBLK
  5
21
330
1F
100
AcDbEntity
  8
0
100
AcDbBlockEnd
  0
BLOCK
  5
1C
330
1B
100
AcDbEntity
 67
     1
  8
0
100
AcDbBlockBegin
  2
*Paper_Space
 70
     0
 10
0.0
 20
0.0
 30
0.0
  3
*Paper_Space
  1

  0
ENDBLK
  5
1D
330
1B
100
AcDbEntity
 67
     1
  8
0
100
AcDbBlockEnd
  0
BLOCK
  5
24
330
23
100
AcDbEntity
 67
     1
  8
0
100
AcDbBlockBegin
  2
*Paper_Space0
 70
     0
 10
0.0
 20
0.0
 30
0.0
  3
*Paper_Space0
  1

  0
ENDBLK
  5
25
330
23
100
AcDbEntity
 67
     1
  8
0
100
AcDbBlockEnd
  0
BLOCK
  5
78
330
76
100
AcDbEntity
  8
0
100
AcDbBlockBegin
  2
GENAXEH
 70
     0
 10
0.0
 20
0.0
 30
0.0
  3
GENAXEH
  1

  0
LINE
  5
77
330
76
100
AcDbEntity
  8
0
100
AcDbLine
 10
-1.0
 20
0.0
 30
0.0
 11
1.0
 21
0.0
 31
0.0
  0
ENDBLK
  5
79
330
76
100
AcDbEntity
  8
0
100
AcDbBlockEnd
  0
BLOCK
  5
8D6
330
8CC
100
AcDbEntity
  8
0
100
AcDbBlockBegin
  2
*D19
 70
     1
 10
0.0
 20
0.0
 30
0.0
  3
*D19
  1

  0
LINE
  5
A01
330
8CC
100
AcDbEntity
  8
AM_5
100
AcDbLine
 10
617.1934031880055
 20
265.933667707597
 30
0.0
 11
617.1934031880055
 21
325.6599158006393
 31
0.0
  0
LINE
  5
A02
330
8CC
100
AcDbEntity
  8
AM_5
100
AcDbLine
 10
285.1934031880122
 20
265.933667707595
 30
0.0
 11
285.1934031880122
 21
325.6599158006393
 31
0.0
  0
LINE
  5
A03
330
8CC
100
AcDbEntity
  8
AM_5
100
AcDbLine
 10
603.1934031880055
 20
324.6599158006393
 30
0.0
 11
299.1934031880122
 21
324.6599158006393
 31
0.0
  0
SOLID
  5
A04
330
8CC
100
AcDbEntity
  8
AM_5
100
AcDbTrace
 10
603.1934031880055
 20
326.9932491339726
 30
0.0
 11
603.1934031880055
 21
322.326582467306
 31
0.0
 12
617.1934031880055
 22
324.6599158006393
 32
0.0
 13
617.1934031880055
 23
324.6599158006393
 33
0.0
  0
SOLID
  5
A05
330
8CC
100
AcDbEntity
  8
AM_5
100
AcDbTrace
 10
299.1934031880122
 20
326.9932491339726
 30
0.0
 11
299.1934031880122
 21
322.326582467306
 31
0.0
 12
285.1934031880122
 22
324.6599158006393
 32
0.0
 13
285.1934031880122
 23
324.6599158006393
 33
0.0
  0
MTEXT
  5
A06
330
8CC
100
AcDbEntity
  8
AM_5
 62
     2
100
AcDbMText
 10
451.1934031880088
 20
336.1618843045763
 30
0.0
 40
20.0
 41
0.0
 71
     5
 72
     1
  1
{\Famgdt|c0;o}332
 73
     1
 44
1.0
1001
ACAD
1000
MTEXTBEGIN
1070
    73
1070
     1
1070
    44
1040
1.0
1070
    74
1070
     0
1000
MTEXTEND
  0
POINT
  5
A07
330
8CC
100
AcDbEntity
  8
DEFPOINTS
 62
     0
100
AcDbPoint
 10
617.1934031880055
 20
264.933667707597
 30
0.0
  0
POINT
  5
A08
330
8CC
100
AcDbEntity
  8
DEFPOINTS
 62
     0
100
AcDbPoint
 10
285.1934031880122
 20
264.933667707595
 30
0.0
  0
POINT
  5
A09
330
8CC
100
AcDbEntity
  8
DEFPOINTS
 62
     0
100
AcDbPoint
 10
285.1934031880122
 20
324.6599158006393
 30
0.0
  0
ENDBLK
  5
8D7
330
8CC
100
AcDbEntity
  8
0
100
AcDbBlockEnd
  0
BLOCK
  5
907
330
8FD
100
AcDbEntity
  8
0
100
AcDbBlockBegin
  2
*D20
 70
     1
 10
0.0
 20
0.0
 30
0.0
  3
*D20
  1

  0
LINE
  5
A0A
330
8FD
100
AcDbEntity
  8
AM_5
100
AcDbLine
 10
471.1934031880056
 20
265.9336677075954
 30
0.0
 11
471.1934031880056
 21
277.9336677075955
 31
0.0
  0
LINE
  5
A0B
330
8FD
100
AcDbEntity
  8
AM_5
100
AcDbLine
 10
431.1934031880054
 20
265.933667707595
 30
0.0
 11
431.1934031880054
 21
277.9336677075955
 31
0.0
  0
LINE
  5
A0C
330
8FD
100
AcDbEntity
  8
AM_5
100
AcDbLine
 10
457.1934031880056
 20
276.9336677075955
 30
0.0
 11
445.1934031880055
 21
276.9336677075955
 31
0.0
  0
SOLID
  5
A0D
330
8FD
100
AcDbEntity
  8
AM_5
100
AcDbTrace
 10
457.1934031880056
 20
279.2670010409288
 30
0.0
 11
457.1934031880056
 21
274.6003343742621
 31
0.0
 12
471.1934031880056
 22
276.9336677075955
 32
0.0
 13
471.1934031880056
 23
276.9336677075955
 33
0.0
  0
SOLID
  5
A0E
330
8FD
100
AcDbEntity
  8
AM_5
100
AcDbTrace
 10
445.1934031880055
 20
279.2670010409288
 30
0.0
 11
445.1934031880055
 21
274.6003343742621
 31
0.0
 12
431.1934031880054
 22
276.9336677075955
 32
0.0
 13
431.1934031880054
 23
276.9336677075955
 33
0.0
  0
MTEXT
  5
A0F
330
8FD
100
AcDbEntity
  8
AM_5
 62
     2
100
AcDbMText
 10
451.1934031880056
 20
288.4336677075955
 30
0.0
 40
20.0
 41
0.0
 71
     5
 72
     1
  1
40
 73
     1
 44
1.0
1001
ACAD
1000
MTEXTBEGIN
1070
    73
1070
     1
1070
    44
1040
1.0
1070
    74
1070
     0
1000
MTEXTEND
  0
POINT
  5
A10
330
8FD
100
AcDbEntity
  8
DEFPOINTS
 62
     0
100
AcDbPoint
 10
471.1934031880056
 20
264.9336677075954
 30
0.0
  0
POINT
  5
A11
330
8FD
100
AcDbEntity
  8
DEFPOINTS
 62
     0
100
AcDbPoint
 10
431.1934031880054
 20
264.933667707595
 30
0.0
  0
POINT
  5
A12
330
8FD
100
AcDbEntity
  8
DEFPOINTS
 62
     0
100
AcDbPoint
 10
431.1934031880054
 20
276.9336677075955
 30
0.0
  0
ENDBLK
  5
908
330
8FD
100
AcDbEntity
  8
0
100
AcDbBlockEnd
  0
BLOCK
  5
930
330
926
100
AcDbEntity
  8
0
100
AcDbBlockBegin
  2
*D21
 70
     1
 10
0.0
 20
0.0
 30
0.0
  3
*D21
  1

  0
LINE
  5
A1C
330
926
100
AcDbEntity
  8
AM_5
100
AcDbLine
 10
176.1934031793371
 20
163.9336677075949
 30
0.0
 11
176.1934031793371
 21
100.5479205952469
 31
0.0
  0
LINE
  5
A1D
330
926
100
AcDbEntity
  8
AM_5
100
AcDbLine
 10
726.1934031966741
 20
163.9336677075977
 30
0.0
 11
726.1934031966741
 21
100.5479205952469
 31
0.0
  0
LINE
  5
A1E
330
926
100
AcDbEntity
  8
AM_5
100
AcDbLine
 10
190.1934031793371
 20
101.5479205952469
 30
0.0
 11
712.1934031966741
 21
101.5479205952469
 31
0.0
  0
SOLID
  5
A1F
330
926
100
AcDbEntity
  8
AM_5
100
AcDbTrace
 10
190.1934031793371
 20
103.8812539285803
 30
0.0
 11
190.1934031793371
 21
99.21458726191366
 31
0.0
 12
176.1934031793371
 22
101.5479205952469
 32
0.0
 13
176.1934031793371
 23
101.5479205952469
 33
0.0
  0
SOLID
  5
A20
330
926
100
AcDbEntity
  8
AM_5
100
AcDbTrace
 10
712.1934031966741
 20
103.8812539285803
 30
0.0
 11
712.1934031966741
 21
99.21458726191366
 31
0.0
 12
726.1934031966741
 22
101.5479205952469
 32
0.0
 13
726.1934031966741
 23
101.5479205952469
 33
0.0
  0
MTEXT
  5
A21
330
926
100
AcDbEntity
  8
AM_5
 62
     2
100
AcDbMText
 10
451.1934031880056
 20
113.0479205952469
 30
0.0
 40
20.0
 41
0.0
 71
     5
 72
     1
  1
{\Famgdt|c0;o}550
 73
     1
 44
1.0
1001
ACAD
1000
MTEXTBEGIN
1070
    73
1070
     1
1070
    44
1040
1.0
1070
    74
1070
     0
1000
MTEXTEND
  0
POINT
  5
A22
330
926
100
AcDbEntity
  8
DEFPOINTS
 62
     0
100
AcDbPoint
 10
176.1934031793371
 20
164.9336677075949
 30
0.0
  0
POINT
  5
A23
330
926
100
AcDbEntity
  8
DEFPOINTS
 62
     0
100
AcDbPoint
 10
726.1934031966741
 20
164.9336677075977
 30
0.0
  0
POINT
  5
A24
330
926
100
AcDbEntity
  8
DEFPOINTS
 62
     0
100
AcDbPoint
 10
726.1934031966741
 20
101.5479205952469
 30
0.0
  0
ENDBLK
  5
931
330
926
100
AcDbEntity
  8
0
100
AcDbBlockEnd
  0
BLOCK
  5
966
330
95C
100
AcDbEntity
  8
0
100
AcDbBlockBegin
  2
*D22
 70
     1
 10
0.0
 20
0.0
 30
0.0
  3
*D22
  1

  0
LINE
  5
A13
330
95C
100
AcDbEntity
  8
AM_5
100
AcDbLine
 10
727.1934031966741
 20
163.9336677075977
 30
0.0
 11
806.8903473338
 21
163.9336677075977
 31
0.0
  0
LINE
  5
A14
330
95C
100
AcDbEntity
  8
AM_5
100
AcDbLine
 10
618.1934031880055
 20
264.9336677075963
 30
0.0
 11
806.8903473338002
 21
264.9336677075963
 31
0.0
  0
LINE
  5
A15
330
95C
100
AcDbEntity
  8
AM_5
100
AcDbLine
 10
805.8903473338
 20
177.9336677075977
 30
0.0
 11
805.8903473338
 21
250.9336677075963
 31
0.0
  0
SOLID
  5
A16
330
95C
100
AcDbEntity
  8
AM_5
100
AcDbTrace
 10
803.5570140004667
 20
177.9336677075977
 30
0.0
 11
808.2236806671334
 21
177.9336677075977
 31
0.0
 12
805.8903473338
 22
163.9336677075977
 32
0.0
 13
805.8903473338
 23
163.9336677075977
 33
0.0
  0
SOLID
  5
A17
330
95C
100
AcDbEntity
  8
AM_5
100
AcDbTrace
 10
803.5570140004667
 20
250.9336677075963
 30
0.0
 11
808.2236806671334
 21
250.9336677075963
 31
0.0
 12
805.8903473338002
 22
264.9336677075963
 32
0.0
 13
805.8903473338002
 23
264.9336677075963
 33
0.0
  0
MTEXT
  5
A18
330
95C
100
AcDbEntity
  8
AM_5
 62
     2
100
AcDbMText
 10
794.3903473338
 20
214.4336677075971
 30
0.0
 40
20.0
 41
0.0
 71
     5
 72
     1
  1
100
 11
0.0000000000000001
 21
1.0
 31
0.0
 73
     1
 44
1.0
1001
ACAD
1000
MTEXTBEGIN
1070
    73
1070
     1
1070
    44
1040
1.0
1070
    74
1070
     0
1000
MTEXTEND
  0
POINT
  5
A19
330
95C
100
AcDbEntity
  8
DEFPOINTS
 62
     0
100
AcDbPoint
 10
726.1934031966741
 20
163.9336677075977
 30
0.0
  0
POINT
  5
A1A
330
95C
100
AcDbEntity
  8
DEFPOINTS
 62
     0
100
AcDbPoint
 10
617.1934031880055
 20
264.9336677075963
 30
0.0
  0
POINT
  5
A1B
330
95C
100
AcDbEntity
  8
DEFPOINTS
 62
     0
100
AcDbPoint
 10
805.8903473338002
 20
264.9336677075963
 30
0.0
  0
ENDBLK
  5
967
330
95C
100
AcDbEntity
  8
0
100
AcDbBlockEnd
  0
BLOCK
  5
98E
330
984
100
AcDbEntity
  8
0
100
AcDbBlockBegin
  2
*D23
 70
     1
 10
0.0
 20
0.0
 30
0.0
  3
*D23
  1

  0
LINE
  5
A25
330
984
100
AcDbEntity
  8
AM_5
100
AcDbLine
 10
175.1934031793371
 20
163.9336677075949
 30
0.0
 11
73.61041017115758
 21
163.9336677075949
 31
0.0
  0
LINE
  5
A26
330
984
100
AcDbEntity
  8
AM_5
100
AcDbLine
 10
194.9434031880135
 20
189.9336677075949
 30
0.0
 11
73.61041017115758
 21
189.933667707595
 31
0.0
  0
LINE
  5
A27
330
984
100
AcDbEntity
  8
AM_5
100
AcDbLine
 10
74.61041017115757
 20
149.9336677075949
 30
0.0
 11
74.61041017115757
 21
135.9336677075949
 31
0.0
  0
LINE
  5
A28
330
984
100
AcDbEntity
  8
AM_5
100
AcDbLine
 10
74.61041017115758
 20
203.933667707595
 30
0.0
 11
74.6104101711576
 21
244.2699688480892
 31
0.0
  0
LINE
  5
A29
330
984
100
AcDbEntity
  8
AM_5
100
AcDbLine
 10
74.61041017115758
 20
163.9336677075949
 30
0.0
 11
74.61041017115758
 21
189.933667707595
 31
0.0
  0
SOLID
  5
A2A
330
984
100
AcDbEntity
  8
AM_5
100
AcDbTrace
 10
72.27707683782424
 20
149.9336677075949
 30
0.0
 11
76.9437435044909
 21
149.9336677075949
 31
0.0
 12
74.61041017115758
 22
163.9336677075949
 32
0.0
 13
74.61041017115758
 23
163.9336677075949
 33
0.0
  0
SOLID
  5
A2B
330
984
100
AcDbEntity
  8
AM_5
100
AcDbTrace
 10
72.27707683782425
 20
203.933667707595
 30
0.0
 11
76.94374350449091
 21
203.933667707595
 31
0.0
 12
74.61041017115758
 22
189.933667707595
 32
0.0
 13
74.61041017115758
 23
189.933667707595
 33
0.0
  0
MTEXT
  5
A2C
330
984
100
AcDbEntity
  8
AM_5
 62
     2
100
AcDbMText
 10
63.10844166722055
 20
231.1018182778421
 30
0.0
 40
20.0
 41
0.0
 71
     5
 72
     1
  1
25
 11
0.0000000000000001
 21
1.0
 31
0.0
 73
     1
 44
1.0
1001
ACAD
1000
MTEXTBEGIN
1070
    73
1070
     1
1070
    44
1040
1.0
1070
    74
1070
     0
1000
MTEXTEND
  0
POINT
  5
A2D
330
984
100
AcDbEntity
  8
DEFPOINTS
 62
     0
100
AcDbPoint
 10
176.1934031793371
 20
163.9336677075949
 30
0.0
  0
POINT
  5
A2E
330
984
100
AcDbEntity
  8
DEFPOINTS
 62
     0
100
AcDbPoint
 10
195.9434031880135
 20
189.9336677075949
 30
0.0
  0
POINT
  5
A2F
330
984
100
AcDbEntity
  8
DEFPOINTS
 62
     0
100
AcDbPoint
 10
74.61041017115758
 20
189.933667707595
 30
0.0
  0
ENDBLK
  5
98F
330
984
100
AcDbEntity
  8
0
100
AcDbBlockEnd
  0
ENDSEC
  0
SECTION
  2
ENTITIES
  0
LINE
  5
FF
330
1F
100
AcDbEntity
  8
0
100
AcDbLine
 10
336.6019224446491
 20
225.9336677075931
 30
-0.0000000000000249
 11
451.1934031880055
 21
225.9336677075931
 31
0.0
  0
LINE
  5
100
330
1F
100
AcDbEntity
  8
0
100
AcDbLine
 10
336.6019224446491
 20
245.9336677075931
 30
-0.0000000000000249
 11
451.1934031880055
 21
245.9336677075931
 31
0.0
  0
LINE
  5
101
330
1F
100
AcDbEntity
  8
0
100
AcDbLine
 10
176.1934031793371
 20
164.9336677075949
 30
0.0
 11
451.1934031880055
 21
164.9336677075949
 31
0.0
  0
LINE
  5
102
330
1F
100
AcDbEntity
  8
SICHTBAR
100
AcDbLine
 10
285.1934031880073
 20
264.933667707595
 30
0.0
 11
451.1934031880055
 21
264.933667707595
 31
0.0
  0
LINE
  5
103
330
1F
100
AcDbEntity
  8
0
100
AcDbLine
 10
333.9294356324791
 20
194.9568705490058
 30
-0.0000000000000198
 11
266.1934031880055
 21
164.9336677075949
 31
0.0
  0
LINE
  5
104
330
1F
100
AcDbEntity
  8
0
100
AcDbLine
 10
336.6028272810269
 20
245.9682220147751
 30
-0.0000000000000249
 11
333.9294356324791
 21
194.9568705490063
 31
-0.0000000000000249
  0
LINE
  5
105
330
1F
100
AcDbEntity
  8
SICHTBAR
100
AcDbLine
 10
323.0250494216425
 20
245.9336677075931
 30
-0.0000000000000249
 11
336.6019224446491
 21
245.9336677075931
 31
-0.0000000000000249
  0
LINE
  5
106
330
1F
100
AcDbEntity
  8
SICHTBAR
100
AcDbLine
 10
322.6934031880055
 20
264.933667707595
 30
0.0
 11
323.0250494216425
 21
245.9336677075931
 31
0.0
  0
LINE
  5
107
330
1F
100
AcDbEntity
  8
0
100
AcDbLine
 10
568.4568939746562
 20
194.9570818712253
 30
-0.0000000000000198
 11
636.1934031880054
 21
164.9336677075968
 31
0.0
  0
LINE
  5
108
330
1F
100
AcDbEntity
  8
0
100
AcDbLine
 10
726.1934031966741
 20
164.9336677075977
 30
0.0
 11
451.1934031880055
 21
164.9336677075949
 31
0.0
  0
LINE
  5
109
330
1F
100
AcDbEntity
  8
SICHTBAR
100
AcDbLine
 10
617.1934031880055
 20
264.933667707597
 30
0.0
 11
451.1934031880046
 21
264.933667707595
 31
0.0
  0
LINE
  5
10A
330
1F
100
AcDbEntity
  8
0
100
AcDbLine
 10
565.7848839313601
 20
245.9336677075945
 30
-0.0000000000000249
 11
451.1934031880046
 21
245.9336677075931
 31
0.0
  0
LINE
  5
10B
330
1F
100
AcDbEntity
  8
0
100
AcDbLine
 10
565.7848839313601
 20
225.9336677075945
 30
-0.0000000000000249
 11
451.1934031880046
 21
225.9336677075931
 31
0.0
  0
LINE
  5
10C
330
1F
100
AcDbEntity
  8
SICHTBAR
100
AcDbLine
 10
579.3617569543676
 20
245.9336677075945
 30
-0.0000000000000249
 11
565.7848839313601
 21
245.9336677075945
 31
-0.0000000000000249
  0
LINE
  5
10D
330
1F
100
AcDbEntity
  8
0
100
AcDbLine
 10
565.7844441507107
 20
245.9504622530273
 30
-0.0000000000000249
 11
568.4568939746562
 21
194.9570818712255
 31
-0.0000000000000249
  0
LINE
  5
10E
330
1F
100
AcDbEntity
  8
SICHTBAR
100
AcDbLine
 10
579.6934031880036
 20
264.9336677075959
 30
0.0
 11
579.3617569543685
 21
245.9336677075945
 31
0.0
  0
LINE
  5
10F
330
1F
100
AcDbEntity
  8
0
100
AcDbLine
 10
617.1934031880055
 20
264.9336677075963
 30
0.0
 11
726.1933364737167
 21
173.3370851145627
 31
0.0
  0
LINE
  5
110
330
1F
100
AcDbEntity
  8
0
100
AcDbLine
 10
606.1934031880054
 20
245.9336677075963
 30
0.0
 11
591.1934031880055
 21
245.9336677075963
 31
0.0
  0
LINE
  5
111
330
1F
100
AcDbEntity
  8
0
100
AcDbLine
 10
591.1934031880055
 20
264.9336677075963
 30
-0.0000000000000148
 11
591.1934031880055
 21
245.9336677075963
 31
-0.0000000000000148
  0
LINE
  5
112
330
1F
100
AcDbEntity
  8
0
100
AcDbLine
 10
311.1934031880073
 20
264.9336677075963
 30
-0.0000000000000148
 11
311.1934031880073
 21
245.9336677075963
 31
-0.0000000000000148
  0
LINE
  5
113
330
1F
100
AcDbEntity
  8
0
100
AcDbLine
 10
296.1934031880073
 20
245.9336677075963
 30
0.0
 11
311.1934031880073
 21
245.9336677075963
 31
0.0
  0
LINE
  5
114
330
1F
100
AcDbEntity
  8
0
100
AcDbLine
 10
285.1934031880073
 20
264.9336677075909
 30
0.0
 11
176.1933364572701
 21
173.3369729758775
 31
0.0
  0
LINE
  5
118
330
1F
100
AcDbEntity
  8
0
100
AcDbLine
 10
296.1934031880073
 20
264.9336677075963
 30
-0.0000000000000159
 11
296.1934031880073
 21
245.9336677075963
 31
-0.0000000000000159
  0
LINE
  5
119
330
1F
100
AcDbEntity
  8
0
100
AcDbLine
 10
606.1934031880054
 20
264.9336677075963
 30
-0.0000000000000159
 11
606.1934031880054
 21
245.9336677075963
 31
-0.0000000000000159
  0
LINE
  5
11A
330
1F
100
AcDbEntity
  8
SICHTBAR
100
AcDbLine
 10
436.1934031880056
 20
249.9336677075949
 30
0.0
 11
451.1934031880055
 21
249.9336677075949
 31
0.0
  0
LINE
  5
11B
330
1F
100
AcDbEntity
  8
SICHTBAR
100
AcDbLine
 10
466.1934031880056
 20
249.9336677075954
 30
0.0
 11
451.1934031880048
 21
249.9336677075949
 31
0.0
  0
LINE
  5
11C
330
1F
100
AcDbEntity
  8
0
100
AcDbLine
 10
471.1934031880056
 20
264.9336677075954
 30
0.0
 11
471.1934031880056
 21
254.9336677075954
 31
0.0
1001
GENIUS_GENODEF_13
1002
{
1000
HIER
1070
     0
1002
}
1002
{
1000
MANEDIT
1070
     0
1002
}
1002
{
1000
NOSEL
1070
     0
1002
}
1002
{
1000
BEHIND
1070
     0
1002
}
1002
{
1000
REACTOR
1002
}
1001
GENIUS_GENOBJ-N-CEN_13
1002
{
1000
OWNER
1000
GEN
1002
}
  0
LINE
  5
11D
330
1F
100
AcDbEntity
  8
0
100
AcDbLine
 10
431.1934031880054
 20
264.933667707595
 30
0.0
 11
431.1934031880055
 21
254.933667707595
 31
0.0
1001
GENIUS_GENODEF_13
1002
{
1000
HIER
1070
     0
1002
}
1002
{
1000
MANEDIT
1070
     0
1002
}
1002
{
1000
NOSEL
1070
     0
1002
}
1002
{
1000
BEHIND
1070
     0
1002
}
1002
{
1000
REACTOR
1002
}
1001
GENIUS_GENOBJ-N-CEN_13
1002
{
1000
OWNER
1000
GEN
1002
}
  0
ARC
  5
11E
330
1F
100
AcDbEntity
  8
0
100
AcDbCircle
 10
466.1934031880056
 20
254.9336677075954
 30
0.0
 40
5.0
100
AcDbArc
 50
270.0
 51
0.0
1001
GENIUS_GENODEF_13
1002
{
1000
HIER
1070
     0
1002
}
1002
{
1000
MANEDIT
1070
     0
1002
}
1002
{
1000
NOSEL
1070
     0
1002
}
1002
{
1000
BEHIND
1070
     0
1002
}
1002
{
1000
REACTOR
1002
}
1001
GENIUS_GENOBJ-N-FIL_13
1002
{
1000
OWNER
1000
GEN
1002
}
  0
ARC
  5
11F
330
1F
100
AcDbEntity
  8
0
100
AcDbCircle
 10
436.1934031880056
 20
254.933667707595
 30
0.0
 40
5.0
100
AcDbArc
 50
180.0
 51
270.0
1001
GENIUS_GENODEF_13
1002
{
1000
HIER
1070
     0
1002
}
1002
{
1000
MANEDIT
1070
     0
1002
}
1002
{
1000
NOSEL
1070
     0
1002
}
1002
{
1000
BEHIND
1070
     0
1002
}
1002
{
1000
REACTOR
1002
}
1001
GENIUS_GENOBJ-N-FIL_13
1002
{
1000
OWNER
1000
GEN
1002
}
  0
LINE
  5
121
330
1F
100
AcDbEntity
  8
0
100
AcDbLine
 10
333.9294356324791
 20
194.9568705490063
 30
-0.0000000000000249
 11
568.4568939746562
 21
194.9570818712253
 31
-0.0000000000000198
  0
LINE
  5
122
330
1F
100
AcDbEntity
  8
0
100
AcDbLine
 10
195.9434031880139
 20
189.9336677075949
 30
0.0
 11
322.5964731754662
 21
189.9336677075947
 31
0.0
  0
HATCH
  5
123
330
1F
100
AcDbEntity
  8
0
 62
     1
100
AcDbHatch
 10
0.0
 20
0.0
 30
0.0
210
0.0
220
0.0
230
1.0
  2
_U
 70
     0
 71
     0
 91
        1
 92
        1
 93
       11
 72
     1
 10
296.1934031880073
 20
264.9336677075963
 11
285.1934031880073
 21
264.933667707595
 72
     1
 10
285.1934031880073
 20
264.933667707595
 11
195.9434031880139
 21
189.9336677075949
 72
     1
 10
195.9434031880139
 20
189.9336677075949
 11
322.5964731754662
 21
189.9336677075947
 72
     1
 10
322.5964731754662
 20
189.9336677075947
 11
333.9294356324791
 21
194.9568705490058
 72
     1
 10
333.9294356324791
 20
194.9568705490058
 11
336.6010163665228
 21
245.9336677075931
 72
     1
 10
336.6010163665228
 20
245.9336677075931
 11
323.0250494216425
 21
245.9336677075931
 72
     1
 10
323.0250494216425
 20
245.9336677075931
 11
322.6934031880055
 21
264.933667707595
 72
     1
 10
322.6934031880055
 20
264.933667707595
 11
311.1934031880073
 21
264.933667707595
 72
     1
 10
311.1934031880073
 20
264.933667707595
 11
311.1934031880073
 21
245.9336677075963
 72
     1
 10
311.1934031880073
 20
245.9336677075963
 11
296.1934031880073
 21
245.9336677075963
 72
     1
 10
296.1934031880073
 20
245.9336677075963
 11
296.1934031880073
 21
264.9336677075963
 97
        0
 75
     0
 76
     0
 52
45.0
 41
12.5
 77
     0
 78
     1
 53
45.0
 43
-207.859833908683
 44
-1234.276222566168
 45
-8.838834764831844
 46
8.838834764831844
 79
     0
 98
        1
 10
-382.963857724254
 20
-1234.276222566168
1001
GENIUS_GENODEF_13
1002
{
1000
HIER
1070
     0
1002
}
1002
{
1000
MANEDIT
1070
     0
1002
}
1002
{
1000
NOSEL
1070
     0
1002
}
1002
{
1000
BEHIND
1070
     0
1002
}
1002
{
1000
OTHER
1070
     0
1002
}
1002
{
1000
REACTOR
1002
}
1001
GENIUS_GENOBJ-N-HTC_13
1002
{
1000
OWNER
1000
GEN
1002
}
1001
GENIUS_GENHATCH_13
1002
{
1000
DATA
1040
45.0
1042
2.5
1000
_U
1070
     0
1011
283.2115038024558
1021
229.4748214941679
1031
0.0
1002
}
1002
{
1000
UCS
1010
0.0
1020
0.0
1030
0.0
1010
1.0
1020
0.0
1030
0.0
1010
0.0
1020
1.0
1030
0.0
1002
}
  0
LINE
  5
124
330
1F
100
AcDbEntity
  8
0
100
AcDbLine
 10
176.1934031793371
 20
164.9336677075952
 30
0.0
 11
176.1933364572701
 21
173.3369729758775
 31
-0.0000000000000062
1001
GENIUS_GENOBJ-N-CEN_13
1002
{
1000
OWNER
1000
GEN
1002
}
1001
GENIUS_GENODEF_13
1002
{
1000
HIER
1070
     0
1002
}
1002
{
1000
MANEDIT
1070
     0
1002
}
1002
{
1000
NOSEL
1070
     0
1002
}
1002
{
1000
BEHIND
1070
     0
1002
}
1002
{
1000
OTHER
1070
     0
1002
}
1002
{
1000
REACTOR
1002
}
  0
LINE
  5
125
330
1F
100
AcDbEntity
  8
0
100
AcDbLine
 10
726.1934031966741
 20
164.9336677075977
 30
0.0
 11
726.1933364737167
 21
173.3370851145624
 31
-0.0000000000000062
1001
GENIUS_GENOBJ-N-CEN_13
1002
{
1000
OWNER
1000
GEN
1002
}
1001
GENIUS_GENODEF_13
1002
{
1000
HIER
1070
     0
1002
}
1002
{
1000
MANEDIT
1070
     0
1002
}
1002
{
1000
NOSEL
1070
     0
1002
}
1002
{
1000
BEHIND
1070
     0
1002
}
1002
{
1000
OTHER
1070
     0
1002
}
1002
{
1000
REACTOR
1002
}
  0
HATCH
  5
126
330
1F
100
AcDbEntity
  8
0
 62
     1
100
AcDbHatch
 10
0.0
 20
0.0
 30
0.0
210
0.0
220
0.0
230
1.0
  2
_U
 70
     0
 71
     0
 91
        1
 92
        1
 93
       12
 72
     1
 10
726.1934031966741
 20
164.9336677075977
 11
726.1933364737167
 21
173.3370851145624
 72
     1
 10
726.1933364737167
 20
173.3370851145624
 11
617.1934031880055
 21
264.9336677075963
 72
     1
 10
617.1934031880055
 20
264.9336677075963
 11
606.1934031880054
 21
264.9336677075963
 72
     1
 10
606.1934031880054
 20
264.9336677075963
 11
606.1934031880054
 21
245.9336677075963
 72
     1
 10
606.1934031880054
 20
245.9336677075963
 11
591.1934031880055
 21
245.9336677075963
 72
     1
 10
591.1934031880055
 20
245.9336677075963
 11
591.1934031880055
 21
264.9336677075963
 72
     1
 10
591.1934031880055
 20
264.9336677075963
 11
579.6934031880036
 21
264.9336677075959
 72
     1
 10
579.6934031880036
 20
264.9336677075959
 11
579.3617569543685
 21
245.9336677075945
 72
     1
 10
579.3617569543685
 20
245.9336677075945
 11
565.7853243155408
 21
245.9336677075945
 72
     1
 10
565.7853243155408
 20
245.9336677075945
 11
568.4568939746562
 21
194.9570818712253
 72
     1
 10
568.4568939746562
 20
194.9570818712253
 11
636.1934031880054
 21
164.9336677075968
 72
     1
 10
636.1934031880054
 20
164.9336677075968
 11
726.1934031966741
 21
164.9336677075977
 97
        0
 75
     0
 76
     0
 52
45.0
 41
12.5
 77
     0
 78
     1
 53
45.0
 43
-207.859833908683
 44
-1234.276222566168
 45
-8.838834764831844
 46
8.838834764831844
 79
     0
 98
        1
 10
-382.963857724254
 20
-1234.276222566168
1001
GENIUS_GENOBJ-N-HTC_13
1002
{
1000
OWNER
1000
GEN
1002
}
1001
GENIUS_GENODEF_13
1002
{
1000
HIER
1070
     0
1002
}
1002
{
1000
MANEDIT
1070
     0
1002
}
1002
{
1000
NOSEL
1070
     0
1002
}
1002
{
1000
BEHIND
1070
     0
1002
}
1002
{
1000
OTHER
1070
     0
1002
}
1002
{
1000
REACTOR
1002
}
1001
GENIUS_GENHATCH_13
1002
{
1000
DATA
1040
45.0
1042
2.5
1000
_U
1070
     0
1011
635.2725579379084
1021
199.6633180076356
1031
0.0
1002
}
1002
{
1000
UCS
1010
0.0
1020
0.0
1030
0.0
1010
1.0
1020
0.0
1030
0.0
1010
0.0
1020
1.0
1030
0.0
1002
}
  0
LINE
  5
459
330
1F
100
AcDbEntity
  8
SICHTBAR
100
AcDbLine
 10
336.5822920768938
 20
-182.7283222383569
 30
0.0
 11
451.193403188005
 21
-182.7283222383569
 31
0.0
  0
LINE
  5
45A
330
1F
100
AcDbEntity
  8
SICHTBAR
100
AcDbLine
 10
322.6934031880051
 20
-168.8283222383563
 30
0.0
 11
451.193403188005
 21
-168.8283222383563
 31
0.0
  0
LINE
  5
45B
330
1F
100
AcDbEntity
  8
SICHTBAR
100
AcDbLine
 10
336.5822920768938
 20
-182.7283222383569
 30
-0.0000000000000249
 11
336.5822920768937
 21
-297.3283222383563
 31
-0.0000000000000249
  0
LINE
  5
45C
330
1F
100
AcDbEntity
  8
SICHTBAR
100
AcDbLine
 10
322.6934031880051
 20
-168.8283222383563
 30
0.0
 11
322.6934031880051
 21
-297.3283222383563
 31
0.0
  0
LINE
  5
45D
330
1F
100
AcDbEntity
  8
SICHTBAR
100
AcDbLine
 10
579.693403188005
 20
-168.8283222383563
 30
0.0
 11
579.6934031880049
 21
-297.3283222383563
 31
0.0
  0
LINE
  5
45E
330
1F
100
AcDbEntity
  8
SICHTBAR
100
AcDbLine
 10
565.8045142991163
 20
-182.7283222383569
 30
-0.0000000000000249
 11
565.8045142991163
 21
-297.3283222383563
 31
-0.0000000000000249
  0
LINE
  5
461
330
1F
100
AcDbEntity
  8
SICHTBAR
100
AcDbLine
 10
579.693403188005
 20
-168.8283222383563
 30
0.0
 11
451.193403188005
 21
-168.8283222383563
 31
0.0
  0
LINE
  5
462
330
1F
100
AcDbEntity
  8
SICHTBAR
100
AcDbLine
 10
565.8045142991163
 20
-182.7283222383569
 30
0.0
 11
451.193403188005
 21
-182.7283222383569
 31
0.0
  0
LINE
  5
463
330
1F
100
AcDbEntity
  8
0
100
AcDbLine
 10
285.1934031880114
 20
-131.3283222383618
 30
0.0
 11
176.193403188005
 21
-22.32832223835635
 31
0.0
  0
LINE
  5
465
330
1F
100
AcDbEntity
  8
0
100
AcDbLine
 10
617.1934031879982
 20
-131.3283222383618
 30
0.0
 11
726.1934031880046
 21
-22.32832223835635
 31
0.0
  0
LINE
  5
46B
330
1F
100
AcDbEntity
  8
0
100
AcDbLine
 10
311.1934031880069
 20
-297.3283222383563
 30
-0.0000000000000148
 11
311.1934031880069
 21
-157.3283222383581
 31
-0.0000000000000148
  0
LINE
  5
46D
330
1F
100
AcDbEntity
  8
0
100
AcDbLine
 10
591.1934031880023
 20
-157.3283222383581
 30
-0.0000000000000148
 11
311.1934031880087
 21
-157.3283222383581
 31
-0.0000000000000148
  0
LINE
  5
46E
330
1F
100
AcDbEntity
  8
0
100
AcDbLine
 10
591.1934031880028
 20
-297.3283222383563
 30
-0.0000000000000148
 11
591.1934031880032
 21
-157.3283222383581
 31
-0.0000000000000148
  0
LINE
  5
47B
330
1F
100
AcDbEntity
  8
0
100
AcDbLine
 10
285.1934031880119
 20
-131.3283222383622
 30
0.0
 11
285.1934031880119
 21
-297.3283222383563
 31
0.0
  0
LINE
  5
47C
330
1F
100
AcDbEntity
  8
0
100
AcDbLine
 10
617.1934031879982
 20
-131.3283222383622
 30
0.0
 11
617.1934031879982
 21
-297.3283222383563
 31
0.0
  0
LINE
  5
47E
330
1F
100
AcDbEntity
  8
0
100
AcDbLine
 10
285.193403188011
 20
-131.3283222383627
 30
0.0
 11
617.1934031879991
 21
-131.3283222383627
 31
0.0
  0
LINE
  5
481
330
1F
100
AcDbEntity
  8
0
100
AcDbLine
 10
606.1934031880051
 20
-297.3283222383563
 30
-0.0000000000000159
 11
606.193403188005
 21
-142.3283222383554
 31
-0.0000000000000159
  0
LINE
  5
483
330
1F
100
AcDbEntity
  8
0
100
AcDbLine
 10
296.1934031880046
 20
-142.3283222383554
 30
-0.0000000000000159
 11
296.193403188006
 21
-297.3283222383563
 31
-0.0000000000000159
  0
LINE
  5
484
330
1F
100
AcDbEntity
  8
0
100
AcDbLine
 10
606.193403188005
 20
-142.3283222383554
 30
-0.0000000000000159
 11
296.1934031880046
 21
-142.3283222383559
 31
-0.0000000000000159
  0
LINE
  5
485
330
1F
100
AcDbEntity
  8
0
100
AcDbLine
 10
471.1934031880051
 20
-157.3283222383581
 30
0.0
 11
471.1934031880051
 21
-142.3283222383554
 31
0.0
  0
LINE
  5
486
330
1F
100
AcDbEntity
  8
0
100
AcDbLine
 10
431.193403188005
 20
-157.3283222383581
 30
0.0
 11
431.193403188005
 21
-142.3283222383559
 31
0.0
  0
LINE
  5
48A
330
1F
100
AcDbEntity
  8
0
100
AcDbLine
 10
311.1934031880073
 20
-277.3283222383564
 30
0.0
 11
296.1934031880046
 21
-277.3283222383564
 31
0.0
  0
LINE
  5
48C
330
1F
100
AcDbEntity
  8
0
100
AcDbLine
 10
591.1934031880032
 20
-277.3283222383573
 30
0.0
 11
606.1934031880059
 21
-277.3283222383573
 31
0.0
  0
ELLIPSE
  5
49F
330
1F
100
AcDbEntity
  8
0
100
AcDbEllipse
 10
145.6434586840769
 20
-161.4133500339665
 30
0.0
 11
-50.01910643911394
 21
17.66169960653373
 31
0.0
210
0.0
220
0.0
230
1.0
 40
0.260707285229906
 41
2.316376483394066
 42
4.150402382967925
  0
ELLIPSE
  5
4A0
330
1F
100
AcDbEntity
  8
0
100
AcDbEllipse
 10
756.743347691934
 20
-161.4133500339665
 30
0.0
 11
50.01910643911394
 21
17.66169960653373
 31
0.0
210
0.0
220
0.0
230
-1.0
 40
0.260707285229906
 41
2.316376483394045
 42
4.150402382967902
  0
ELLIPSE
  5
4A2
330
1F
100
AcDbEntity
  8
0
100
AcDbEllipse
 10
315.2784309836155
 20
8.22162226557225
 30
0.0
 11
-17.66169960653366
 21
50.01910643911396
 31
0.0
210
0.0
220
0.0
230
-1.0
 40
0.260707285229906
 41
2.316376483394033
 42
4.150402382967913
  0
ELLIPSE
  5
4A3
330
1F
100
AcDbEntity
  8
0
100
AcDbEllipse
 10
587.1083753923953
 20
8.22162226557225
 30
0.0
 11
17.66169960653373
 21
50.01910643911394
 31
0.0
210
0.0
220
0.0
230
1.0
 40
0.260707285229906
 41
2.316376483394056
 42
4.150402382967913
  0
LWPOLYLINE
  5
4A5
330
1F
100
AcDbEntity
  8
0
100
AcDbPolyline
 90
        2
 70
     0
 43
0.0
 10
726.193403188005
 20
-297.3283222383563
 10
726.193403188005
 20
-22.32832223835635
1001
GENIUS_GENREC_14
1002
{
1000
PYDIR
1011
736.193403188005
1021
-582.3283222383563
1031
0.0
1002
}
1002
{
1000
PXDIR
1011
166.193403188005
1021
-12.32832223835635
1031
0.0
1002
}
1002
{
1000
PORI
1011
736.193403188005
1021
-12.32832223835635
1031
0.0
1002
}
1002
{
1000
PINS
1011
451.193403188005
1021
-297.3283222383563
1031
0.0
1002
}
1002
{
1000
HVAL
1000
-570
1002
}
1002
{
1000
H
1070
     4
1002
}
1002
{
1000
WVAL
1000
-285
1002
}
1002
{
1000
W
1070
     3
1002
}
1002
{
1000
C
1070
     4
1002
}
1001
GENIUS_GENODEF_13
1002
{
1000
HIER
1070
     0
1002
}
1002
{
1000
MANEDIT
1070
     0
1002
}
1002
{
1000
NOSEL
1070
     0
1002
}
1002
{
1000
BEHIND
1070
     0
1002
}
1002
{
1000
REACTOR
1002
}
1001
GENIUS_GENOBJ-N-REC_13
1002
{
1000
OWNER
1000
GEN
1002
}
  0
LINE
  5
4A6
330
1F
100
AcDbEntity
  8
0
100
AcDbLine
 10
451.1934031880054
 20
-22.32832223835635
 30
0.0
 11
726.1934031880046
 21
-22.32832223835635
 31
0.0
  0
LWPOLYLINE
  5
4AA
330
1F
100
AcDbEntity
  8
0
100
AcDbPolyline
 90
        2
 70
     0
 43
0.0
 10
176.193403188005
 20
-22.32832223835635
 10
176.193403188005
 20
-297.3283222383563
1001
GENIUS_GENREC_14
1002
{
1000
PYDIR
1011
736.193403188005
1021
-582.3283222383563
1031
0.0
1002
}
1002
{
1000
PXDIR
1011
166.193403188005
1021
-12.32832223835635
1031
0.0
1002
}
1002
{
1000
PORI
1011
736.193403188005
1021
-12.32832223835635
1031
0.0
1002
}
1002
{
1000
PINS
1011
451.193403188005
1021
-297.3283222383563
1031
0.0
1002
}
1002
{
1000
HVAL
1000
-570
1002
}
1002
{
1000
H
1070
     4
1002
}
1002
{
1000
WVAL
1000
-285
1002
}
1002
{
1000
W
1070
     3
1002
}
1002
{
1000
C
1070
     4
1002
}
1001
GENIUS_GENODEF_13
1002
{
1000
HIER
1070
     0
1002
}
1002
{
1000
MANEDIT
1070
     0
1002
}
1002
{
1000
NOSEL
1070
     0
1002
}
1002
{
1000
BEHIND
1070
     0
1002
}
1002
{
1000
REACTOR
1002
}
1001
GENIUS_GENOBJ-N-REC_13
1002
{
1000
OWNER
1000
GEN
1002
}
  0
LINE
  5
4AB
330
1F
100
AcDbEntity
  8
0
100
AcDbLine
 10
176.193403188005
 20
-22.32832223835635
 30
0.0
 11
451.1934031880055
 21
-22.32832223835635
 31
0.0
  0
DIMENSION
  5
8CB
330
1F
100
AcDbEntity
  8
AM_5
100
AcDbDimension
  2
*D19
 10
285.1934031880122
 20
324.6599158006393
 30
0.0
 11
451.1934031880088
 21
336.1618843045763
 31
0.0
 70
    32
  1
{\Famgdt;o}<>
 71
     5
 42
331.9999999999933
  3
AM_DIN$0
100
AcDbAlignedDimension
 13
617.1934031880055
 23
264.933667707597
 33
0.0
 14
285.1934031880122
 24
264.933667707595
 34
0.0
 50
0.0000000000007239
100
AcDbRotatedDimension
1001
ACAD
1000
DSTYLE
1002
{
1070
   140
1040
20.0
1070
    41
1040
14.0
1002
}
  0
DIMENSION
  5
8FC
330
1F
100
AcDbEntity
  8
AM_5
100
AcDbDimension
  2
*D20
 10
431.1934031880054
 20
276.9336677075955
 30
0.0
 11
451.1934031880056
 21
288.4336677075955
 31
0.0
 70
    32
 71
     5
 42
40.00000000000011
  3
AM_DIN$0
100
AcDbAlignedDimension
 13
471.1934031880056
 23
264.9336677075954
 33
0.0
 14
431.1934031880054
 24
264.933667707595
 34
0.0
100
AcDbRotatedDimension
1001
ACAD
1000
DSTYLE
1002
{
1070
    41
1040
14.0
1070
   140
1040
20.0
1002
}
  0
DIMENSION
  5
925
330
1F
100
AcDbEntity
  8
AM_5
100
AcDbDimension
  2
*D21
 10
726.1934031966741
 20
101.5479205952469
 30
0.0
 11
451.1934031880056
 21
101.5479205952469
 31
0.0
 70
   160
  1
{\Famgdt;o}<>
 71
     5
 42
550.000000017337
  3
AM_DIN$0
100
AcDbAlignedDimension
 13
176.1934031793371
 23
164.9336677075949
 33
0.0
 14
726.1934031966741
 24
164.9336677075977
 34
0.0
 50
0.0000000000001132
100
AcDbRotatedDimension
1001
ACAD
1000
DSTYLE
1002
{
1070
    41
1040
14.0
1070
   140
1040
20.0
1002
}
  0
DIMENSION
  5
95B
330
1F
100
AcDbEntity
  8
AM_5
100
AcDbDimension
  2
*D22
 10
805.8903473338002
 20
264.9336677075963
 30
0.0
 11
794.3903473338
 21
214.4336677075971
 31
0.0
 70
    32
  1
100
 71
     5
 42
100.9999999999986
  3
AM_DIN$0
100
AcDbAlignedDimension
 13
726.1934031966741
 23
163.9336677075977
 33
0.0
 14
617.1934031880055
 24
264.9336677075963
 34
0.0
 50
90.0
100
AcDbRotatedDimension
1001
ACAD
1000
DSTYLE
1002
{
1070
    41
1040
14.0
1070
   140
1040
20.0
1002
}
  0
DIMENSION
  5
983
330
1F
100
AcDbEntity
  8
AM_5
100
AcDbDimension
  2
*D23
 10
74.61041017115758
 20
189.933667707595
 30
0.0
 11
63.10844166722055
 21
231.1018182778421
 31
0.0
 70
    32
  1
25
 71
     5
 42
26.00000000000003
  3
AM_DIN$0
100
AcDbAlignedDimension
 13
176.1934031793371
 23
163.9336677075949
 33
0.0
 14
195.9434031880135
 24
189.9336677075949
 34
0.0
 50
90.0
100
AcDbRotatedDimension
1001
ACAD
1000
DSTYLE
1002
{
1070
    41
1040
14.0
1070
   140
1040
20.0
1002
}
  0
LINE
  5
A30
330
1F
100
AcDbEntity
  8
SICHTBAR
100
AcDbLine
 10
336.5822920768938
 20
-411.9283222383558
 30
0.0
 11
451.193403188005
 21
-411.9283222383558
 31
0.0
  0
LINE
  5
A31
330
1F
100
AcDbEntity
  8
SICHTBAR
100
AcDbLine
 10
322.6934031880051
 20
-425.8283222383563
 30
0.0
 11
451.193403188005
 21
-425.8283222383563
 31
0.0
  0
LINE
  5
A32
330
1F
100
AcDbEntity
  8
SICHTBAR
100
AcDbLine
 10
336.5822920768938
 20
-411.9283222383558
 30
-0.0000000000000249
 11
336.5822920768937
 21
-297.3283222383564
 31
-0.0000000000000249
  0
LINE
  5
A33
330
1F
100
AcDbEntity
  8
SICHTBAR
100
AcDbLine
 10
322.6934031880051
 20
-425.8283222383563
 30
0.0
 11
322.6934031880051
 21
-297.3283222383564
 31
0.0
  0
LINE
  5
A34
330
1F
100
AcDbEntity
  8
SICHTBAR
100
AcDbLine
 10
579.693403188005
 20
-425.8283222383563
 30
0.0
 11
579.6934031880049
 21
-297.3283222383564
 31
0.0
  0
LINE
  5
A35
330
1F
100
AcDbEntity
  8
SICHTBAR
100
AcDbLine
 10
565.8045142991163
 20
-411.9283222383558
 30
-0.0000000000000249
 11
565.8045142991163
 21
-297.3283222383564
 31
-0.0000000000000249
  0
LINE
  5
A36
330
1F
100
AcDbEntity
  8
SICHTBAR
100
AcDbLine
 10
579.693403188005
 20
-425.8283222383563
 30
0.0
 11
451.193403188005
 21
-425.8283222383563
 31
0.0
  0
LINE
  5
A37
330
1F
100
AcDbEntity
  8
SICHTBAR
100
AcDbLine
 10
565.8045142991163
 20
-411.9283222383558
 30
0.0
 11
451.193403188005
 21
-411.9283222383558
 31
0.0
  0
LINE
  5
A38
330
1F
100
AcDbEntity
  8
0
100
AcDbLine
 10
285.1934031880114
 20
-463.3283222383509
 30
0.0
 11
176.193403188005
 21
-572.3283222383563
 31
0.0
  0
LINE
  5
A39
330
1F
100
AcDbEntity
  8
0
100
AcDbLine
 10
617.1934031879982
 20
-463.3283222383509
 30
0.0
 11
726.1934031880046
 21
-572.3283222383563
 31
0.0
  0
LINE
  5
A3A
330
1F
100
AcDbEntity
  8
0
100
AcDbLine
 10
311.1934031880069
 20
-297.3283222383564
 30
-0.0000000000000148
 11
311.1934031880069
 21
-437.3283222383545
 31
-0.0000000000000148
  0
LINE
  5
A3B
330
1F
100
AcDbEntity
  8
0
100
AcDbLine
 10
591.1934031880023
 20
-437.3283222383545
 30
-0.0000000000000148
 11
311.1934031880087
 21
-437.3283222383545
 31
-0.0000000000000148
  0
LINE
  5
A3C
330
1F
100
AcDbEntity
  8
0
100
AcDbLine
 10
591.1934031880028
 20
-297.3283222383564
 30
-0.0000000000000148
 11
591.1934031880032
 21
-437.3283222383545
 31
-0.0000000000000148
  0
LINE
  5
A3D
330
1F
100
AcDbEntity
  8
0
100
AcDbLine
 10
285.1934031880119
 20
-463.3283222383504
 30
0.0
 11
285.1934031880119
 21
-297.3283222383564
 31
0.0
  0
LINE
  5
A3E
330
1F
100
AcDbEntity
  8
0
100
AcDbLine
 10
617.1934031879982
 20
-463.3283222383504
 30
0.0
 11
617.1934031879982
 21
-297.3283222383564
 31
0.0
  0
LINE
  5
A3F
330
1F
100
AcDbEntity
  8
0
100
AcDbLine
 10
285.193403188011
 20
-463.3283222383499
 30
0.0
 11
617.1934031879991
 21
-463.3283222383499
 31
0.0
  0
LINE
  5
A40
330
1F
100
AcDbEntity
  8
0
100
AcDbLine
 10
606.1934031880051
 20
-297.3283222383564
 30
-0.0000000000000159
 11
606.193403188005
 21
-452.3283222383573
 31
-0.0000000000000159
  0
LINE
  5
A41
330
1F
100
AcDbEntity
  8
0
100
AcDbLine
 10
296.1934031880046
 20
-452.3283222383573
 30
-0.0000000000000159
 11
296.193403188006
 21
-297.3283222383564
 31
-0.0000000000000159
  0
LINE
  5
A42
330
1F
100
AcDbEntity
  8
0
100
AcDbLine
 10
606.193403188005
 20
-452.3283222383573
 30
-0.0000000000000159
 11
296.1934031880046
 21
-452.3283222383567
 31
-0.0000000000000159
  0
LINE
  5
A43
330
1F
100
AcDbEntity
  8
0
100
AcDbLine
 10
471.1934031880051
 20
-437.3283222383545
 30
0.0
 11
471.1934031880051
 21
-452.3283222383573
 31
0.0
  0
LINE
  5
A44
330
1F
100
AcDbEntity
  8
0
100
AcDbLine
 10
431.193403188005
 20
-437.3283222383545
 30
0.0
 11
431.193403188005
 21
-452.3283222383567
 31
0.0
  0
LINE
  5
A45
330
1F
100
AcDbEntity
  8
0
100
AcDbLine
 10
311.1934031880073
 20
-317.3283222383564
 30
0.0
 11
296.1934031880046
 21
-317.3283222383564
 31
0.0
  0
LINE
  5
A46
330
1F
100
AcDbEntity
  8
0
100
AcDbLine
 10
591.1934031880032
 20
-317.3283222383555
 30
0.0
 11
606.1934031880059
 21
-317.3283222383555
 31
0.0
  0
ELLIPSE
  5
A47
330
1F
100
AcDbEntity
  8
0
100
AcDbEllipse
 10
145.6434586840769
 20
-433.2432944427462
 30
0.0
 11
-50.01910643911394
 21
-17.66169960653373
 31
0.0
210
0.0
220
0.0
230
-0.9999999999999998
 40
0.260707285229906
 41
2.316376483394066
 42
4.150402382967925
  0
ELLIPSE
  5
A48
330
1F
100
AcDbEntity
  8
0
100
AcDbEllipse
 10
756.743347691934
 20
-433.2432944427462
 30
0.0
 11
50.01910643911394
 21
-17.66169960653373
 31
0.0
210
0.0
220
0.0
230
0.9999999999999998
 40
0.260707285229906
 41
2.316376483394045
 42
4.150402382967902
  0
ELLIPSE
  5
A49
330
1F
100
AcDbEntity
  8
0
100
AcDbEllipse
 10
315.2784309836155
 20
-602.8782667422849
 30
0.0
 11
-17.66169960653366
 21
-50.01910643911394
 31
0.0
210
0.0
220
0.0
230
1.0
 40
0.260707285229906
 41
2.316376483394033
 42
4.150402382967913
  0
ELLIPSE
  5
A4A
330
1F
100
AcDbEntity
  8
0
100
AcDbEllipse
 10
587.1083753923953
 20
-602.8782667422849
 30
0.0
 11
17.66169960653373
 21
-50.01910643911393
 31
0.0
210
0.0
220
0.0
230
-1.0
 40
0.260707285229906
 41
2.316376483394056
 42
4.150402382967913
  0
LWPOLYLINE
  5
A4B
330
1F
100
AcDbEntity
  8
0
100
AcDbPolyline
 90
        2
 70
     0
 43
0.0
 10
726.193403188005
 20
-297.3283222383564
 10
726.193403188005
 20
-572.3283222383563
1001
GENIUS_GENREC_14
1002
{
1000
PYDIR
1011
736.193403188005
1021
-12.32832223835646
1031
0.0
1002
}
1002
{
1000
PXDIR
1011
166.193403188005
1021
-582.3283222383563
1031
0.0
1002
}
1002
{
1000
PORI
1011
736.193403188005
1021
-582.3283222383563
1031
0.0
1002
}
1002
{
1000
PINS
1011
451.193403188005
1021
-297.3283222383564
1031
0.0
1002
}
1002
{
1000
HVAL
1000
-570
1002
}
1002
{
1000
H
1070
     4
1002
}
1002
{
1000
WVAL
1000
-285
1002
}
1002
{
1000
W
1070
     3
1002
}
1002
{
1000
C
1070
     4
1002
}
1001
GENIUS_GENODEF_13
1002
{
1000
HIER
1070
     0
1002
}
1002
{
1000
MANEDIT
1070
     0
1002
}
1002
{
1000
NOSEL
1070
     0
1002
}
1002
{
1000
BEHIND
1070
     0
1002
}
1002
{
1000
REACTOR
1002
}
1001
GENIUS_GENOBJ-N-REC_13
1002
{
1000
OWNER
1000
GEN
1002
}
  0
LINE
  5
A4C
330
1F
100
AcDbEntity
  8
0
100
AcDbLine
 10
451.1934031880054
 20
-572.3283222383563
 30
0.0
 11
726.1934031880046
 21
-572.3283222383563
 31
0.0
  0
LWPOLYLINE
  5
A4D
330
1F
100
AcDbEntity
  8
0
100
AcDbPolyline
 90
        2
 70
     0
 43
0.0
 10
176.193403188005
 20
-572.3283222383563
 10
176.193403188005
 20
-297.3283222383564
1001
GENIUS_GENREC_14
1002
{
1000
PYDIR
1011
736.193403188005
1021
-12.32832223835646
1031
0.0
1002
}
1002
{
1000
PXDIR
1011
166.193403188005
1021
-582.3283222383563
1031
0.0
1002
}
1002
{
1000
PORI
1011
736.193403188005
1021
-582.3283222383563
1031
0.0
1002
}
1002
{
1000
PINS
1011
451.193403188005
1021
-297.3283222383564
1031
0.0
1002
}
1002
{
1000
HVAL
1000
-570
1002
}
1002
{
1000
H
1070
     4
1002
}
1002
{
1000
WVAL
1000
-285
1002
}
1002
{
1000
W
1070
     3
1002
}
1002
{
1000
C
1070
     4
1002
}
1001
GENIUS_GENODEF_13
1002
{
1000
HIER
1070
     0
1002
}
1002
{
1000
MANEDIT
1070
     0
1002
}
1002
{
1000
NOSEL
1070
     0
1002
}
1002
{
1000
BEHIND
1070
     0
1002
}
1002
{
1000
REACTOR
1002
}
1001
GENIUS_GENOBJ-N-REC_13
1002
{
1000
OWNER
1000
GEN
1002
}
  0
LINE
  5
A4E
330
1F
100
AcDbEntity
  8
0
100
AcDbLine
 10
176.193403188005
 20
-572.3283222383563
 30
0.0
 11
451.1934031880055
 21
-572.3283222383563
 31
0.0
  0
ENDSEC
  0
SECTION
  2
OBJECTS
  0
DICTIONARY
  5
C
330
0
100
AcDbDictionary
281
     1
  3
ACAD_COLOR
350
7ED
  3
ACAD_GROUP
350
D
  3
ACAD_LAYOUT
350
1A
  3
ACAD_MATERIAL
350
7EC
  3
ACAD_MLINESTYLE
350
17
  3
ACAD_PLOTSETTINGS
350
19
  3
ACAD_PLOTSTYLENAME
350
E
  3
ACAD_TABLESTYLE
350
7EE
  3
ACDBHEADERROUNDTRIPXREC
350
A5B
  3
AcDbVariableDictionary
350
30
  3
AcmDictionary
350
47
  3
AMG
350
43
  3
AMGSNAPSETTINGS
350
FA
  3
DWGPROPS
350
A5A
  0
DICTIONARY
  5
182
330
1F
100
AcDbDictionary
280
     1
281
     1
  0
DICTIONARY
  5
7ED
102
{ACAD_REACTORS
330
C
102
}
330
C
100
AcDbDictionary
281
     1
  0
DICTIONARY
  5
D
102
{ACAD_REACTORS
330
C
102
}
330
C
100
AcDbDictionary
281
     1
  0
DICTIONARY
  5
1A
102
{ACAD_REACTORS
330
C
102
}
330
C
100
AcDbDictionary
281
     1
  3
Layout1
350
1E
  3
Layout2
350
26
  3
Model
350
22
  0
DICTIONARY
  5
7EC
102
{ACAD_REACTORS
330
C
102
}
330
C
100
AcDbDictionary
281
     1
  0
DICTIONARY
  5
17
102
{ACAD_REACTORS
330
C
102
}
330
C
100
AcDbDictionary
281
     1
  3
Standard
350
18
  0
DICTIONARY
  5
19
102
{ACAD_REACTORS
330
C
102
}
330
C
100
AcDbDictionary
281
     1
  0
ACDBDICTIONARYWDFLT
  5
E
102
{ACAD_REACTORS
330
C
102
}
330
C
100
AcDbDictionary
281
     1
  3
Normal
350
F
100
AcDbDictionaryWithDefault
340
F
  0
DICTIONARY
  5
7EE
102
{ACAD_REACTORS
330
C
102
}
330
C
100
AcDbDictionary
281
     1
  3
Standard
350
7EF
  0
DICTIONARY
  5
A5B
102
{ACAD_REACTORS
330
C
102
}
330
C
100
AcDbDictionary
281
     1
  0
DICTIONARY
  5
30
102
{ACAD_REACTORS
330
C
102
}
330
C
100
AcDbDictionary
281
     1
  3
CTABLESTYLE
350
A56
  3
DIMASSOC
350
A57
  3
INDEXCTL
350
31
  3
PROJECTNAME
350
A58
  0
DICTIONARY
  5
47
102
{ACAD_REACTORS
330
C
102
}
330
C
100
AcDbDictionary
281
     1
  3
AcmStdDictionary
350
4C
  3
AMDTSECTSYM_ARROWCOLOR
350
849
  0
DICTIONARY
  5
43
102
{ACAD_REACTORS
330
C
102
}
330
C
100
AcDbDictionary
281
     1
  0
DICTIONARY
  5
FA
102
{ACAD_REACTORS
330
C
102
}
330
C
100
AcDbDictionary
281
     1
  0
XRECORD
  5
A5A
102
{ACAD_REACTORS
330
C
102
}
330
C
100
AcDbXrecord
280
     1
  1
DWGPROPS COOKIE
  2

  3

  4

  6

  7

  8

  9

300
AmdtFileType=84
301
=
302
=
303
=
304
=
305
=
306
=
307
=
308
=
309
=
 40
0.0116224884259259
 41
2452964.49801603
 42
2454019.992898704
  1

 90
        1
  0
LAYOUT
  5
1E
102
{ACAD_XDICTIONARY
360
A5C
102
}
102
{ACAD_REACTORS
330
1A
102
}
330
1A
100
AcDbPlotSettings
  1

  2
\\rd-sr-200\AA-PR-032
  4

  6

 40
0.0
 41
0.0
 42
0.0
 43
0.0
 44
0.0
 45
0.0
 46
0.0
 47
0.0
 48
0.0
 49
0.0
140
0.0
141
0.0
142
1.0
143
1.0
 70
   688
 72
     0
 73
     0
 74
     5
  7

 75
    16
147
1.0
148
0.0
149
0.0
100
AcDbLayout
  1
Layout1
 70
     1
 71
     1
 10
0.0
 20
0.0
 11
420.0
 21
297.0
 12
0.0
 22
0.0
 32
0.0
 14
1.000000000000000E+20
 24
1.000000000000000E+20
 34
1.000000000000000E+20
 15
-1.000000000000000E+20
 25
-1.000000000000000E+20
 35
-1.000000000000000E+20
146
0.0
 13
0.0
 23
0.0
 33
0.0
 16
1.0
 26
0.0
 36
0.0
 17
0.0
 27
1.0
 37
0.0
 76
     0
330
1B
  0
LAYOUT
  5
26
102
{ACAD_XDICTIONARY
360
A60
102
}
102
{ACAD_REACTORS
330
1A
102
}
330
1A
100
AcDbPlotSettings
  1

  2
\\rd-sr-200\AA-PR-032
  4

  6

 40
0.0
 41
0.0
 42
0.0
 43
0.0
 44
0.0
 45
0.0
 46
0.0
 47
0.0
 48
0.0
 49
0.0
140
0.0
141
0.0
142
1.0
143
1.0
 70
   688
 72
     0
 73
     0
 74
     5
  7

 75
    16
147
1.0
148
0.0
149
0.0
100
AcDbLayout
  1
Layout2
 70
     1
 71
     2
 10
0.0
 20
0.0
 11
12.0
 21
9.0
 12
0.0
 22
0.0
 32
0.0
 14
0.0
 24
0.0
 34
0.0
 15
0.0
 25
0.0
 35
0.0
146
0.0
 13
0.0
 23
0.0
 33
0.0
 16
1.0
 26
0.0
 36
0.0
 17
0.0
 27
1.0
 37
0.0
 76
     0
330
23
  0
LAYOUT
  5
22
102
{ACAD_XDICTIONARY
360
A5E
102
}
102
{ACAD_REACTORS
330
1A
102
}
330
1A
100
AcDbPlotSettings
  1

  2
\\rd-sr-200\AA-PR-032
  4

  6

 40
0.0
 41
0.0
 42
0.0
 43
0.0
 44
0.0
 45
0.0
 46
0.0
 47
0.0
 48
0.0
 49
0.0
140
0.0
141
0.0
142
1.0
143
1.0
 70
  1712
 72
     0
 73
     0
 74
     0
  7

 75
     0
147
1.0
148
0.0
149
0.0
100
AcDbLayout
  1
Model
 70
     1
 71
     0
 10
0.0
 20
0.0
 11
12.0
 21
9.0
 12
0.0
 22
0.0
 32
0.0
 14
0.0
 24
0.0
 34
0.0
 15
0.0
 25
0.0
 35
0.0
146
0.0
 13
0.0
 23
0.0
 33
0.0
 16
1.0
 26
0.0
 36
0.0
 17
0.0
 27
1.0
 37
0.0
 76
     0
330
1F
  0
MLINESTYLE
  5
18
102
{ACAD_REACTORS
330
17
102
}
330
17
100
AcDbMlineStyle
  2
STANDARD
 70
     0
  3

 62
   256
 51
90.0
 52
90.0
 71
     2
 49
0.5
 62
   256
  6
BYLAYER
 49
-0.5
 62
   256
  6
BYLAYER
  0
ACDBPLACEHOLDER
  5
F
102
{ACAD_REACTORS
330
E
102
}
330
E
  0
TABLESTYLE
  5
7EF
102
{ACAD_REACTORS
330
7EE
102
}
330
7EE
100
AcDbTableStyle
  3
Standard
 70
     0
 71
     0
 40
1.5
 41
1.5
280
     0
281
     0
  7
STANDARD
140
4.5
170
     2
 62
     0
 63
     7
283
     0
274
    -2
284
     1
 64
     0
275
    -2
285
     1
 65
     0
276
    -2
286
     1
 66
     0
277
    -2
287
     1
 67
     0
278
    -2
288
     1
 68
     0
279
    -2
289
     1
 69
     0
  7
STANDARD
140
6.0
170
     5
 62
     0
 63
     7
283
     0
274
    -2
284
     1
 64
     0
275
    -2
285
     1
 65
     0
276
    -2
286
     1
 66
     0
277
    -2
287
     1
 67
     0
278
    -2
288
     1
 68
     0
279
    -2
289
     1
 69
     0
  7
STANDARD
140
4.5
170
     5
 62
     0
 63
     7
283
     0
274
    -2
284
     1
 64
     0
275
    -2
285
     1
 65
     0
276
    -2
286
     1
 66
     0
277
    -2
287
     1
 67
     0
278
    -2
288
     1
 68
     0
279
    -2
289
     1
 69
     0
  0
DICTIONARYVAR
  5
A56
102
{ACAD_REACTORS
330
30
102
}
330
30
100
DictionaryVariables
280
     0
  1
STANDARD
  0
DICTIONARYVAR
  5
A57
102
{ACAD_REACTORS
330
30
102
}
330
30
100
DictionaryVariables
280
     0
  1
1
  0
DICTIONARYVAR
  5
31
102
{ACAD_REACTORS
330
30
102
}
330
30
100
DictionaryVariables
280
     0
  1
0
  0
DICTIONARYVAR
  5
A58
102
{ACAD_REACTORS
330
30
102
}
330
30
100
DictionaryVariables
280
     0
  1

  0
DICTIONARY
  5
4C
102
{ACAD_REACTORS
330
47
102
}
330
47
100
AcDbDictionary
281
     1
  0
XRECORD
  5
849
102
{ACAD_REACTORS
330
47
102
}
330
47
100
AcDbXrecord
280
     1
 90
-1023410169
  0
DICTIONARY
  5
A5C
330
1E
100
AcDbDictionary
280
     1
281
     1
  3
ACAD_XREC_ROUNDTRIP
360
A5D
  0
DICTIONARY
  5
A60
330
26
100
AcDbDictionary
280
     1
281
     1
  3
ACAD_XREC_ROUNDTRIP
360
A61
  0
DICTIONARY
  5
A5E
330
22
100
AcDbDictionary
280
     1
281
     1
  3
ACAD_XREC_ROUNDTRIP
360
A5F
  0
XRECORD
  5
A5D
102
{ACAD_REACTORS
330
A5C
102
}
330
A5C
100
AcDbXrecord
280
     1
102
SHADEPLOT
 70
     0
102
SHADEPLOTRESLEVEL
 70
     2
102
SHADEPLOTCUSTOMDPI
 70
   300
  0
XRECORD
  5
A61
102
{ACAD_REACTORS
330
A60
102
}
330
A60
100
AcDbXrecord
280
     1
102
SHADEPLOT
 70
     0
102
SHADEPLOTRESLEVEL
 70
     2
102
SHADEPLOTCUSTOMDPI
 70
   300
  0
XRECORD
  5
A5F
102
{ACAD_REACTORS
330
A5E
102
}
330
A5E
100
AcDbXrecord
280
     1
102
SHADEPLOT
 70
     0
102
SHADEPLOTRESLEVEL
 70
     2
102
SHADEPLOTCUSTOMDPI
 70
   300
  0
ENDSEC
  0
EOF
