  0
SECTION
  2
HEADER
  9
$ACADVER
  1
AC1015
  9
$ACADMAINTVER
 70
    20
  9
$DWGCODEPAGE
  3
ANSI_1252
  9
$INSBASE
 10
0.0
 20
0.0
 30
0.0
  9
$EXTMIN
 10
4.245048300109033
 20
-0.0326001320520391
 30
-0.0000001862538503
  9
$EXTMAX
 10
390.8333381387761
 20
766.3350940753227
 30
0.0003579045413336
  9
$LIMMIN
 10
0.0
 20
0.0
  9
$LIMMAX
 10
420.0
 20
297.0
  9
$ORTHOMODE
 70
     0
  9
$REGENMODE
 70
     1
  9
$FILLMODE
 70
     1
  9
$QTEXTMODE
 70
     0
  9
$MIRRTEXT
 70
     1
  9
$LTSCALE
 40
1.0
  9
$ATTMODE
 70
     1
  9
$TEXTSIZE
 40
2.5
  9
$TRACEWID
 40
1.0
  9
$TEXTSTYLE
  7
STANDARD
  9
$CLAYER
  8
0
  9
$CELTYPE
  6
BYLAYER
  9
$CECOLOR
 62
   256
  9
$CELTSCALE
 40
1.0
  9
$DISPSILH
 70
     0
  9
$DIMSCALE
 40
1.0
  9
$DIMASZ
 40
2.5
  9
$DIMEXO
 40
1.0
  9
$DIMDLI
 40
10.0
  9
$DIMRND
 40
0.0
  9
$DIMDLE
 40
0.0
  9
$DIMEXE
 40
1.0
  9
$DIMTP
 40
0.1
  9
$DIMTM
 40
0.1
  9
$DIMTXT
 40
3.5
  9
$DIMCEN
 40
0.0
  9
$DIMTSZ
 40
0.0
  9
$DIMTOL
 70
     0
  9
$DIMLIM
 70
     0
  9
$DIMTIH
 70
     0
  9
$DIMTOH
 70
     0
  9
$DIMSE1
 70
     0
  9
$DIMSE2
 70
     0
  9
$DIMTAD
 70
     1
  9
$DIMZIN
 70
     8
  9
$DIMBLK
  1

  9
$DIMASO
 70
     1
  9
$DIMSHO
 70
     1
  9
$DIMPOST
  1

  9
$DIMAPOST
  1
"
  9
$DIMALT
 70
     0
  9
$DIMALTD
 70
     2
  9
$DIMALTF
 40
0.0393701
  9
$DIMLFAC
 40
1.0
  9
$DIMTOFL
 70
     1
  9
$DIMTVP
 40
0.0
  9
$DIMTIX
 70
     0
  9
$DIMSOXD
 70
     0
  9
$DIMSAH
 70
     0
  9
$DIMBLK1
  1

  9
$DIMBLK2
  1

  9
$DIMSTYLE
  2
AM_DIN
  9
$DIMCLRD
 70
   256
  9
$DIMCLRE
 70
   256
  9
$DIMCLRT
 70
     2
  9
$DIMTFAC
 40
0.71
  9
$DIMGAP
 40
1.5
  9
$DIMJUST
 70
     0
  9
$DIMSD1
 70
     0
  9
$DIMSD2
 70
     0
  9
$DIMTOLJ
 70
     0
  9
$DIMTZIN
 70
     8
  9
$DIMALTZ
 70
     0
  9
$DIMALTTZ
 70
     0
  9
$DIMUPT
 70
     0
  9
$DIMDEC
 70
     2
  9
$DIMTDEC
 70
     3
  9
$DIMALTU
 70
     2
  9
$DIMALTTD
 70
     4
  9
$DIMTXSTY
  7
STANDARD
  9
$DIMAUNIT
 70
     0
  9
$DIMADEC
 70
     0
  9
$DIMALTRND
 40
0.0
  9
$DIMAZIN
 70
     2
  9
$DIMDSEP
 70
    46
  9
$DIMATFIT
 70
     3
  9
$DIMFRAC
 70
     0
  9
$DIMLDRBLK
  1

  9
$DIMLUNIT
 70
     2
  9
$DIMLWD
 70
    -1
  9
$DIMLWE
 70
    -1
  9
$DIMTMOVE
 70
     0
  9
$LUNITS
 70
     2
  9
$LUPREC
 70
     2
  9
$SKETCHINC
 40
1.0
  9
$FILLETRAD
 40
2.5
  9
$AUNITS
 70
     0
  9
$AUPREC
 70
     0
  9
$MENU
  1
.
  9
$ELEVATION
 40
0.0
  9
$PELEVATION
 40
0.0
  9
$THICKNESS
 40
0.0
  9
$LIMCHECK
 70
     0
  9
$CHAMFERA
 40
2.5
  9
$CHAMFERB
 40
2.5
  9
$CHAMFERC
 40
20.0
  9
$CHAMFERD
 40
0.0
  9
$SKPOLY
 70
     0
  9
$TDCREATE
 40
2453464.964980729
  9
$TDUCREATE
 40
2453464.881647396
  9
$TDUPDATE
 40
2454019.984629294
  9
$TDUUPDATE
 40
2454019.901295961
  9
$TDINDWG
 40
0.0017428009
  9
$TDUSRTIMER
 40
0.0017419907
  9
$USRTIMER
 70
     1
  9
$ANGBASE
 50
0.0
  9
$ANGDIR
 70
     0
  9
$PDMODE
 70
     0
  9
$PDSIZE
 40
0.0
  9
$PLINEWID
 40
0.0
  9
$SPLFRAME
 70
     0
  9
$SPLINETYPE
 70
     6
  9
$SPLINESEGS
 70
     8
  9
$HANDSEED
  5
2C4
  9
$SURFTAB1
 70
     6
  9
$SURFTAB2
 70
     6
  9
$SURFTYPE
 70
     6
  9
$SURFU
 70
     6
  9
$SURFV
 70
     6
  9
$UCSBASE
  2

  9
$UCSNAME
  2

  9
$UCSORG
 10
0.0
 20
0.0
 30
0.0
  9
$UCSXDIR
 10
1.0
 20
0.0
 30
0.0
  9
$UCSYDIR
 10
0.0
 20
1.0
 30
0.0
  9
$UCSORTHOREF
  2

  9
$UCSORTHOVIEW
 70
     0
  9
$UCSORGTOP
 10
0.0
 20
0.0
 30
0.0
  9
$UCSORGBOTTOM
 10
0.0
 20
0.0
 30
0.0
  9
$UCSORGLEFT
 10
0.0
 20
0.0
 30
0.0
  9
$UCSORGRIGHT
 10
0.0
 20
0.0
 30
0.0
  9
$UCSORGFRONT
 10
0.0
 20
0.0
 30
0.0
  9
$UCSORGBACK
 10
0.0
 20
0.0
 30
0.0
  9
$PUCSBASE
  2

  9
$PUCSNAME
  2

  9
$PUCSORG
 10
0.0
 20
0.0
 30
0.0
  9
$PUCSXDIR
 10
1.0
 20
0.0
 30
0.0
  9
$PUCSYDIR
 10
0.0
 20
1.0
 30
0.0
  9
$PUCSORTHOREF
  2

  9
$PUCSORTHOVIEW
 70
     0
  9
$PUCSORGTOP
 10
0.0
 20
0.0
 30
0.0
  9
$PUCSORGBOTTOM
 10
0.0
 20
0.0
 30
0.0
  9
$PUCSORGLEFT
 10
0.0
 20
0.0
 30
0.0
  9
$PUCSORGRIGHT
 10
0.0
 20
0.0
 30
0.0
  9
$PUCSORGFRONT
 10
0.0
 20
0.0
 30
0.0
  9
$PUCSORGBACK
 10
0.0
 20
0.0
 30
0.0
  9
$USERI1
 70
     0
  9
$USERI2
 70
     0
  9
$USERI3
 70
     0
  9
$USERI4
 70
     0
  9
$USERI5
 70
     0
  9
$USERR1
 40
0.0
  9
$USERR2
 40
0.0
  9
$USERR3
 40
0.0
  9
$USERR4
 40
0.0
  9
$USERR5
 40
0.0
  9
$WORLDVIEW
 70
     1
  9
$SHADEDGE
 70
     3
  9
$SHADEDIF
 70
    70
  9
$TILEMODE
 70
     1
  9
$MAXACTVP
 70
    64
  9
$PINSBASE
 10
0.0
 20
0.0
 30
0.0
  9
$PLIMCHECK
 70
     0
  9
$PEXTMIN
 10
1.000000000000000E+20
 20
1.000000000000000E+20
 30
1.000000000000000E+20
  9
$PEXTMAX
 10
-1.000000000000000E+20
 20
-1.000000000000000E+20
 30
-1.000000000000000E+20
  9
$PLIMMIN
 10
0.0
 20
0.0
  9
$PLIMMAX
 10
420.0
 20
297.0
  9
$UNITMODE
 70
     0
  9
$VISRETAIN
 70
     1
  9
$PLINEGEN
 70
     0
  9
$PSLTSCALE
 70
     1
  9
$TREEDEPTH
 70
  3020
  9
$CMLSTYLE
  2
STANDARD
  9
$CMLJUST
 70
     0
  9
$CMLSCALE
 40
20.0
  9
$PROXYGRAPHICS
 70
     1
  9
$MEASUREMENT
 70
     1
  9
$CELWEIGHT
370
    -1
  9
$ENDCAPS
280
     0
  9
$JOINSTYLE
280
     0
  9
$LWDISPLAY
290
     0
  9
$INSUNITS
 70
     4
  9
$HYPERLINKBASE
  1

  9
$STYLESHEET
  1

  9
$XEDIT
290
     1
  9
$CEPSNTYPE
380
     0
  9
$PSTYLEMODE
290
     1
  9
$FINGERPRINTGUID
  2
{BAF53571-18BE-4140-A8D3-4F987996F639}
  9
$VERSIONGUID
  2
{FD18AFE5-FB2E-4EF8-8B70-90B56D45C3BF}
  9
$EXTNAMES
290
     1
  9
$PSVPSCALE
 40
0.0
  9
$OLESTARTUP
290
     0
  0
ENDSEC
  0
SECTION
  2
CLASSES
  0
CLASS
  1
ACDBDICTIONARYWDFLT
  2
AcDbDictionaryWithDefault
  3
ObjectDBX Classes
 90
        0
280
     0
281
     0
  0
CLASS
  1
ACDBPLACEHOLDER
  2
AcDbPlaceHolder
  3
ObjectDBX Classes
 90
        0
280
     0
281
     0
  0
CLASS
  1
LAYOUT
  2
AcDbLayout
  3
ObjectDBX Classes
 90
        0
280
     0
281
     0
  0
CLASS
  1
AMGSETTINGSOBJ
  2
AmgSettingsObj
  3
"AcadM|Product Description: AutoCAD Mechanical 2000|Company: Autodesk"
 90
        0
280
     0
281
     0
  0
CLASS
  1
ACME_DOCUMENT
  2
AcMeDbDoc
  3
AcMeServices
 90
        0
280
     0
281
     0
  0
CLASS
  1
ACMESCOPE
  2
AcMeScope
  3
AcMeServices
 90
        0
280
     0
281
     0
  0
CLASS
  1
ACMECOMMANDHISTORY
  2
AcMeCommandHistory
  3
AcMeServices
 90
        0
280
     0
281
     0
  0
CLASS
  1
DICTIONARYVAR
  2
AcDbDictionaryVar
  3
ObjectDBX Classes
 90
        0
280
     0
281
     0
  0
CLASS
  1
ACIMSYSVARMAN
  2
AcImSysVarManager
  3
AcMeServices
 90
        0
280
     0
281
     0
  0
CLASS
  1
ACIMREALSYSVAR
  2
AcImRealSysVar
  3
AcMeServices
 90
        0
280
     0
281
     0
  0
CLASS
  1
ACIMINTSYSVAR
  2
AcImIntSysVar
  3
AcMeServices
 90
        0
280
     0
281
     0
  0
CLASS
  1
ACMEDRAWINGMAN
  2
AcMeDrawingMan
  3
AcMeServices
 90
        0
280
     0
281
     0
  0
CLASS
  1
ACMEVIEW
  2
AcMeView
  3
AcMeServices
 90
        0
280
     0
281
     0
  0
CLASS
  1
ACDBENTITYCACHE
  2
AcMeEntityCache
  3
AcMeServices
 90
        0
280
     0
281
     0
  0
CLASS
  1
GSMANAGER
  2
AcMeGSManager
  3
AcMeServices
 90
        0
280
     0
281
     0
  0
CLASS
  1
AMDTINTERNALREACTOR
  2
AmdtInternalReactor
  3
AcMeServices
 90
        0
280
     0
281
     0
  0
CLASS
  1
ACMESTATEMGR
  2
AcMeStateMgr
  3
AcMeServices
 90
        0
280
     0
281
     0
  0
CLASS
  1
ACGREFMASTER
  2
AcGrefMaster
  3
AcAttribServices
 90
        0
280
     0
281
     0
  0
CLASS
  1
ACME_DATABASE
  2
AcMeDbDatabase
  3
AcMeServices
 90
        0
280
     0
281
     0
  0
CLASS
  1
ACRFINSADJUSTERMGR
  2
AcRfInsAdjusterMgr
  3
AcMeServices
 90
        0
280
     0
281
     0
  0
CLASS
  1
ACGREFACADMASTER
  2
AcGrefacadMaster
  3
AcGrefServices
 90
        0
280
     0
281
     0
  0
CLASS
  1
AMIMASTER
  2
AmiMaster
  3
AmiServices
 90
        0
280
     0
281
     0
  0
CLASS
  1
ACMDATADICTIONARY
  2
AcmDataDictionary
  3
"AcmSymBB|Product Description: AutoCAD Mechanical 2004 DX|Company: Autodesk"
 90
        0
280
     0
281
     0
  0
CLASS
  1
ACMDATAENTRYBLOCK
  2
AcmDataEntryBlock
  3
"AcmSymBB|Product Description: AutoCAD Mechanical 2004 DX|Company: Autodesk"
 90
    32768
280
     0
281
     0
  0
CLASS
  1
ACIMSTRSYSVAR
  2
AcImStrSysVar
  3
AcMeServices
 90
        0
280
     0
281
     0
  0
CLASS
  1
ACMSTANDARDDIN
  2
AcmStandardDIN
  3
"Amdt_StdImp|Product Description: AutoCAD Mechanical 2004 DX|Company: Autodesk"
 90
        0
280
     0
281
     0
  0
CLASS
  1
AMGOBJPROPCFG
  2
AmgObjPropCfg
  3
"AmgLay|Product Description: AutoCAD Mechanical 2000|Company: Autodesk"
 90
        1
280
     0
281
     0
  0
CLASS
  1
AMDTEDGESTANDARDDIN
  2
AmdtEdgeStdDIN
  3
"Amdt_StdImp|Product Description: AutoCAD Mechanical 2004 DX|Company: Autodesk"
 90
    32768
280
     0
281
     0
  0
CLASS
  1
ACMSURFSTANDARDDIN
  2
AcmSurfTextStdDIN
  3
"Amdt_StdImp|Product Description: AutoCAD Mechanical 2004 DX|Company: Autodesk"
 90
        0
280
     0
281
     0
  0
CLASS
  1
ACMFCFSTANDARDDIN
  2
AcmFCFStdDIN
  3
"Amdt_StdImp|Product Description: AutoCAD Mechanical 2004 DX|Company: Autodesk"
 90
        0
280
     0
281
     0
  0
CLASS
  1
ACMWELDSTANDARDDIN
  2
AcmWeldingStdDIN
  3
"Amdt_StdImp|Product Description: AutoCAD Mechanical 2004 DX|Company: Autodesk"
 90
        0
280
     0
281
     0
  0
CLASS
  1
ACMIDSTANDARDDIN
  2
AcmIdStdDIN
  3
"Amdt_StdImp|Product Description: AutoCAD Mechanical 2004 DX|Company: Autodesk"
 90
        0
280
     0
281
     0
  0
CLASS
  1
ACMDATUMSTANDARDDIN
  2
AcmDatumStdDIN
  3
"Amdt_StdImp|Product Description: AutoCAD Mechanical 2004 DX|Company: Autodesk"
 90
        0
280
     0
281
     0
  0
CLASS
  1
ACMBOMSTANDARDDIN
  2
AcmBOMStdDIN
  3
"Amdt_StdImp|Product Description: AutoCAD Mechanical 2004 DX|Company: Autodesk"
 90
        0
280
     0
281
     0
  0
CLASS
  1
ACMDETAILSTANDARDDIN
  2
AmdtDetailSymStdDIN
  3
"Amdt_StdImp|Product Description: AutoCAD Mechanical 2004 DX|Company: Autodesk"
 90
        0
280
     0
281
     0
  0
CLASS
  1
ACMSECTIONSTANDARDDIN
  2
AmdtSectionSymStdDIN
  3
"Amdt_StdImp|Product Description: AutoCAD Mechanical 2004 DX|Company: Autodesk"
 90
        0
280
     0
281
     0
  0
CLASS
  1
ACMCENTERLINESTANDARDDIN
  2
AmdtCenterLineStdDIN
  3
"Amdt_StdImp|Product Description: AutoCAD Mechanical 2004 DX|Company: Autodesk"
 90
        0
280
     0
281
     0
  0
CLASS
  1
ACAMGLAYSTD
  2
AcAmgLayStd
  3
"AcAmgLayStd|Product Description: AutoCAD Mechanical 2000|Company: Autodesk"
 90
        0
280
     0
281
     0
  0
CLASS
  1
ACAMGDIMSTD
  2
AcAmgDimStd
  3
"AcAmgDimStd|Product Description: AutoCAD Mechanical 2000|Company: Autodesk"
 90
        0
280
     0
281
     0
  0
CLASS
  1
ACAMGTITLESTD
  2
AcAmgTitleStd
  3
"TITLEAPP"
 90
        0
280
     0
281
     0
  0
CLASS
  1
ACAMGFILTERDAT
  2
AcAmgFilterDat
  3
"AcadM|Product Description: AutoCAD Mechanical 2000|Company: Autodesk"
 90
    32768
280
     0
281
     0
  0
CLASS
  1
AMDTFORMULAUPDATEDISPATCHER
  2
AmdtFormulaUpdateDispatcher
  3
AcMeServices
 90
    32768
280
     0
281
     0
  0
CLASS
  1
LAYER_INDEX
  2
AcDbLayerIndex
  3
ObjectDBX Classes
 90
        0
280
     0
281
     0
  0
CLASS
  1
IDBUFFER
  2
AcDbIdBuffer
  3
ObjectDBX Classes
 90
        0
280
     0
281
     0
  0
CLASS
  1
TABLESTYLE
  2
AcDbTableStyle
  3
ObjectDBX Classes
 90
     2047
280
     0
281
     0
  0
CLASS
  1
AM_DRAWING_MGR
  2
AcDmDwgMgr
  3
AcMechDwgViewMgmt
 90
        0
280
     0
281
     0
  0
CLASS
  1
AM_DWG_DOCUMENT
  2
AcDmDwgDocument
  3
AcMechDwgViewMgmt
 90
        0
280
     0
281
     0
  0
CLASS
  1
AM_DWG_SHEET
  2
AcDmSheet
  3
AcMechDwgViewMgmt
 90
        0
280
     0
281
     0
  0
CLASS
  1
AM_VIEWDIMPARMAP
  2
AcDmViewDimParMap
  3
AcMechDwgViewMgmt
 90
        0
280
     0
281
     0
  0
CLASS
  1
AM_DWGMGR_NAME
  2
AcDmDwgMgrName
  3
AcMechDwgViewMgmt
 90
        0
280
     0
281
     0
  0
CLASS
  1
AMDTMENUSTATEMGR
  2
AmdtMenuStateMgr
  3
McadcomServices
 90
        0
280
     0
281
     0
  0
CLASS
  1
AMDTMCOMMENUSTATE
  2
AmdtMcomMenuState
  3
McadcomServices
 90
        0
280
     0
281
     0
  0
CLASS
  1
MAPIAMMOUDLE
  2
MApiAmModule
  3
MApiAmServices
 90
        0
280
     0
281
     0
  0
CLASS
  1
AMDTADMENUSTATE
  2
AmdtAdMenuState
  3
DesignerServices
 90
        0
280
     0
281
     0
  0
CLASS
  1
ADAPPL
  2
AcAdAppl
  3
DesignerServices
 90
        0
280
     0
281
     0
  0
CLASS
  1
DEPMGR
  2
AcAdDepMgr
  3
DesignerServices
 90
        0
280
     0
281
     0
  0
CLASS
  1
PARAMMGR
  2
AcAdParamMgr
  3
DesignerServices
 90
        0
280
     0
281
     0
  0
CLASS
  1
PARAMSCOPE
  2
AcAdParamScope
  3
DesignerServices
 90
        0
280
     0
281
     0
  0
CLASS
  1
NAMEDAPPL
  2
AcAdNamedAppl
  3
DesignerServices
 90
        0
280
     0
281
     0
  0
CLASS
  1
AMDTDMMENUSTATE
  2
AmdtDmMenuState
  3
AcMechDwgViewMgmt
 90
        0
280
     0
281
     0
  0
CLASS
  1
AMDTAMMENUSTATE
  2
AmdtAmMenuState
  3
DesignerAssemblies
 90
        0
280
     0
281
     0
  0
CLASS
  1
ACAMPROJECT
  2
AcAmProject
  3
DesignerAssemblies
 90
        0
280
     0
281
     0
  0
CLASS
  1
ACAMGRCOMPDEF
  2
AcAmGrCompDef
  3
DesignerAssemblies
 90
        0
280
     0
281
     0
  0
CLASS
  1
ACCMCONTEXT
  2
AcCmContext
  3
DesignerAssemblies
 90
        0
280
     0
281
     0
  0
CLASS
  1
ACAMCOMPDEF
  2
AcAmCompDef
  3
DesignerAssemblies
 90
        0
280
     0
281
     0
  0
CLASS
  1
ACAMCOMPDEFMGR
  2
AcAmCompDefMgr
  3
DesignerAssemblies
 90
        0
280
     0
281
     0
  0
CLASS
  1
AMCONTEXTMGR
  2
AcAmContextMgr
  3
DesignerAssemblies
 90
        0
280
     0
281
     0
  0
CLASS
  1
ACAMCONTEXTMODELER
  2
AcAmContextModeler
  3
DesignerAssemblies
 90
        0
280
     0
281
     0
  0
CLASS
  1
CATALOGSTATE
  2
AcAmCatalogState
  3
DesignerAssemblies
 90
        0
280
     0
281
     0
  0
CLASS
  1
ACAMGRCOMPDEFSET
  2
AcAmGrCompDefSet
  3
DesignerAssemblies
 90
        0
280
     0
281
     0
  0
CLASS
  1
AMDTBROWSERDBTAB
  2
AmdtBrowserDbTab
  3
McadcomServices
 90
        0
280
     0
281
     0
  0
CLASS
  1
CBROWSERAPPOBJECT
  2
CBrowserAppObject
  3
McadcomServices
 90
        0
280
     0
281
     0
  0
CLASS
  1
DM_PLACEHOLDER
  2
AcDmSelsetPlaceholder
  3
AcMechDwgViewMgmt
 90
        0
280
     0
281
     0
  0
CLASS
  1
AMDTEDGESTANDARDDIN13715
  2
AmdtEdgeStdDIN13715
  3
"Amdt_StdImp|Product Description: AutoCAD Mechanical 2004 DX|Company: Autodesk"
 90
        0
280
     0
281
     0
  0
CLASS
  1
ACMTHREADLINESTANDARDDIN
  2
AmdtThreadLineStdDIN
  3
"Amdt_StdImp|Product Description: AutoCAD Mechanical 2004 DX|Company: Autodesk"
 90
        0
280
     0
281
     0
  0
CLASS
  1
ACMNOTESTANDARDDIN
  2
AmdtNoteStdDIN
  3
"Amdt_StdImp|Product Description: AutoCAD Mechanical 2004 DX|Company: Autodesk"
 90
        0
280
     0
281
     0
  0
CLASS
  1
AMDTNOTETEMPLATEDB
  2
AmdtNoteTemplateDB
  3
AMDT_STDIMP_MODULE_NAME
 90
        0
280
     0
281
     0
  0
CLASS
  1
ACAMGHOLECHARTSTDDIN
  2
AcAmgHoleChartStdDIN
  3
ACMSYMBB_MODULE_NAME
 90
        0
280
     0
281
     0
  0
ENDSEC
  0
SECTION
  2
TABLES
  0
TABLE
  2
VPORT
  5
8
330
0
100
AcDbSymbolTable
 70
     4
  0
VPORT
  5
2BD
330
8
100
AcDbSymbolTableRecord
100
AcDbViewportTableRecord
  2
*Active
 70
     0
 10
0.0
 20
0.0
 11
1.0
 21
1.0
 12
197.5391932194425
 22
383.1512469716354
 13
0.0
 23
0.0
 14
2.5
 24
2.5
 15
10.0
 25
10.0
 16
0.0
 26
0.0
 36
1.0
 17
0.0
 27
0.0
 37
0.0
 40
771.934529758518
 41
1.494545454545454
 42
50.0
 43
0.0
 44
0.0
 50
0.0
 51
0.0
 71
     0
 72
   100
 73
     1
 74
     3
 75
     0
 76
     0
 77
     0
 78
     0
281
     0
 65
     0
110
0.0
120
0.0
130
0.0
111
1.0
121
0.0
131
0.0
112
0.0
122
1.0
132
0.0
 79
     0
146
0.0
  0
ENDTAB
  0
TABLE
  2
LTYPE
  5
5
330
0
100
AcDbSymbolTable
 70
    26
  0
LTYPE
  5
14
330
5
100
AcDbSymbolTableRecord
100
AcDbLinetypeTableRecord
  2
BYBLOCK
 70
     0
  3

 72
    65
 73
     0
 40
0.0
  0
LTYPE
  5
15
330
5
100
AcDbSymbolTableRecord
100
AcDbLinetypeTableRecord
  2
BYLAYER
 70
     0
  3

 72
    65
 73
     0
 40
0.0
  0
LTYPE
  5
16
330
5
100
AcDbSymbolTableRecord
100
AcDbLinetypeTableRecord
  2
CONTINUOUS
 70
     0
  3
Solid line
 72
    65
 73
     0
 40
0.0
  0
LTYPE
  5
52
330
5
100
AcDbSymbolTableRecord
100
AcDbLinetypeTableRecord
  2
AMCONSTR
 70
     0
  3
_______________________
 72
    65
 73
     2
 40
9999.0
 49
9999.0
 74
     0
 49
0.0
 74
     0
  0
LTYPE
  5
57
330
5
100
AcDbSymbolTableRecord
100
AcDbLinetypeTableRecord
  2
AMZIGZAG
 70
     0
  3
/\/-/\/-/\/-/\/-/\/-/\/
 72
    65
 73
     2
 40
11.00009999999999
 49
0.0001
 74
     4
 75
   135
340
56
 46
0.04
 50
0.0
 44
0.0
 45
0.0
 49
-11.0
 74
     0
  0
LTYPE
  5
58
330
5
100
AcDbSymbolTableRecord
100
AcDbLinetypeTableRecord
  2
AM_DIN_F_W050
 70
     0
  3
__ __ __ __ __ __ __ __ __ __ __ __ __ __ __
 72
    65
 73
     2
 40
6.25
 49
4.75
 74
     0
 49
-1.5
 74
     0
  0
LTYPE
  5
59
330
5
100
AcDbSymbolTableRecord
100
AcDbLinetypeTableRecord
  2
AM_DIN_G_W050
 70
     0
  3
____ . ____ . ____ . ____ . ____ . ____ . ____
 72
    65
 73
     4
 40
13.75
 49
9.75
 74
     0
 49
-1.5
 74
     0
 49
1.0
 74
     0
 49
-1.5
 74
     0
  0
LTYPE
  5
5A
330
5
100
AcDbSymbolTableRecord
100
AcDbLinetypeTableRecord
  2
AM_DIN_K_W050
 70
     0
  3
_____ . . _____ . . _____ . . ____ .. ____
 72
    65
 73
     6
 40
16.25
 49
9.75
 74
     0
 49
-1.5
 74
     0
 49
1.0
 74
     0
 49
-1.5
 74
     0
 49
1.0
 74
     0
 49
-1.5
 74
     0
  0
LTYPE
  5
5B
330
5
100
AcDbSymbolTableRecord
100
AcDbLinetypeTableRecord
  2
AM_DIN_G_W050X2
 70
     0
  3
__ . __ . __ . __ . __ . __
 72
    65
 73
     4
 40
6.875
 49
4.75
 74
     0
 49
-0.875
 74
     0
 49
0.375
 74
     0
 49
-0.875
 74
     0
  0
LTYPE
  5
5C
330
5
100
AcDbSymbolTableRecord
100
AcDbLinetypeTableRecord
  2
AM_DIN_F_W050X2
 70
     0
  3
 _ _ _ _ _ _ _ _ _ _ _ _
 72
    65
 73
     2
 40
3.125
 49
2.25
 74
     0
 49
-0.875
 74
     0
  0
LTYPE
  5
69
330
5
100
AcDbSymbolTableRecord
100
AcDbLinetypeTableRecord
  2
ACDINWELD
 70
     0
  3
_ _ _ _ _
 72
    65
 73
     2
 40
2.0
 49
2.0
 74
     0
 49
-1.0
 74
     0
  0
LTYPE
  5
6A
330
5
100
AcDbSymbolTableRecord
100
AcDbLinetypeTableRecord
  2
ACDINTGB
 70
     0
  3
__ . . __ . .
 72
    65
 73
     6
 40
9.0
 49
4.0
 74
     0
 49
-1.0
 74
     0
 49
1.0
 74
     0
 49
-1.0
 74
     0
 49
1.0
 74
     0
 49
-1.0
 74
     0
  0
LTYPE
  5
6B
330
5
100
AcDbSymbolTableRecord
100
AcDbLinetypeTableRecord
  2
ACDINTGL
 70
     0
  3
_ _ _ _ _
 72
    65
 73
     2
 40
3.0
 49
2.0
 74
     0
 49
-1.0
 74
     0
  0
LTYPE
  5
6D
330
5
100
AcDbSymbolTableRecord
100
AcDbLinetypeTableRecord
  2
CENTER
 70
     0
  3
__ . __
 72
    65
 73
     4
 40
7.0
 49
4.0
 74
     0
 49
-1.0
 74
     0
 49
1.0
 74
     0
 49
-1.0
 74
     0
  0
LTYPE
  5
AA
330
5
100
AcDbSymbolTableRecord
100
AcDbLinetypeTableRecord
  2
AUSGEZOGEN
 70
     0
  3
Ausgezogene Linie
 72
    65
 73
     0
 40
0.0
  0
LTYPE
  5
23F
330
5
100
AcDbSymbolTableRecord
100
AcDbLinetypeTableRecord
  2
HIDDEN
 70
     0
  3
Verdeckt
 72
    65
 73
     2
 40
9.525
 49
6.349999999999999
 74
     0
 49
-3.174999999999999
 74
     0
  0
LTYPE
  5
240
330
5
100
AcDbSymbolTableRecord
100
AcDbLinetypeTableRecord
  2
PHANTOM2
 70
     0
  3
Phantom (.5x) ___ _ _ ___ _ _ ___ _ _ ___ _ _
 72
    65
 73
     6
 40
31.75
 49
15.875
 74
     0
 49
-3.174999999999999
 74
     0
 49
3.174999999999999
 74
     0
 49
-3.174999999999999
 74
     0
 49
3.174999999999999
 74
     0
 49
-3.174999999999999
 74
     0
  0
ENDTAB
  0
TABLE
  2
LAYER
  5
2
330
0
100
AcDbSymbolTable
 70
     5
  0
LAYER
  5
10
330
2
100
AcDbSymbolTableRecord
100
AcDbLayerTableRecord
  2
0
 70
     0
 62
     7
  6
CONTINUOUS
370
    -3
390
F
  0
LAYER
  5
AE
330
2
100
AcDbSymbolTableRecord
100
AcDbLayerTableRecord
  2
DEFPOINTS
 70
     0
 62
     7
  6
CONTINUOUS
290
     0
370
    -3
390
F
  0
LAYER
  5
AF
330
2
100
AcDbSymbolTableRecord
100
AcDbLayerTableRecord
  2
SICHTBAR
 70
     0
 62
     7
  6
AUSGEZOGEN
370
    -3
390
F
  0
LAYER
  5
B0
330
2
100
AcDbSymbolTableRecord
100
AcDbLayerTableRecord
  2
BEMASS
 70
     0
 62
     3
  6
AUSGEZOGEN
370
    -3
390
F
  0
LAYER
  5
B1
330
2
100
AcDbSymbolTableRecord
100
AcDbLayerTableRecord
  2
5
 70
     0
 62
     3
  6
CONTINUOUS
370
    -3
390
F
  0
ENDTAB
  0
TABLE
  2
STYLE
  5
3
330
0
100
AcDbSymbolTable
 70
     8
  0
STYLE
  5
11
330
3
100
AcDbSymbolTableRecord
100
AcDbTextStyleTableRecord
  2
STANDARD
 70
     0
 40
0.0
 41
1.0
 50
0.0
 71
     0
 42
2.5
  3
ISOCP.SHX
  4

  0
STYLE
  5
56
330
3
100
AcDbSymbolTableRecord
100
AcDbTextStyleTableRecord
  2

 70
     1
 40
0.0
 41
1.0
 50
0.0
 71
     0
 42
2.5
  3
ltypeshp.shx
  4

  0
STYLE
  5
5D
330
3
100
AcDbSymbolTableRecord
100
AcDbTextStyleTableRecord
  2
ACDINTS
 70
     0
 40
1.0
 41
1.0
 50
0.0
 71
     0
 42
2.5
  3
isocp.shx
  4

  0
STYLE
  5
68
330
3
100
AcDbSymbolTableRecord
100
AcDbTextStyleTableRecord
  2
ACDINGDT
 70
     0
 40
0.0
 41
1.0
 50
0.0
 71
     0
 42
2.5
  3
AMGDT
  4

  0
ENDTAB
  0
TABLE
  2
VIEW
  5
6
330
0
100
AcDbSymbolTable
 70
     0
  0
ENDTAB
  0
TABLE
  2
UCS
  5
7
330
0
100
AcDbSymbolTable
 70
     0
  0
ENDTAB
  0
TABLE
  2
APPID
  5
9
330
0
100
AcDbSymbolTable
 70
    13
  0
APPID
  5
12
330
9
100
AcDbSymbolTableRecord
100
AcDbRegAppTableRecord
  2
ACAD
 70
     0
  0
APPID
  5
30
330
9
100
AcDbSymbolTableRecord
100
AcDbRegAppTableRecord
  2
MCAD_NO_VIS
 70
     0
  0
APPID
  5
31
330
9
100
AcDbSymbolTableRecord
100
AcDbRegAppTableRecord
  2
ACAD_TEMP_GRAPHIC
 70
     0
  0
APPID
  5
44
330
9
100
AcDbSymbolTableRecord
100
AcDbRegAppTableRecord
  2
ACATTRIBSERVICES
 70
     0
  0
APPID
  5
B4
330
9
100
AcDbSymbolTableRecord
100
AcDbRegAppTableRecord
  2
GENIUS_GENODEF_13
 70
     0
  0
APPID
  5
B5
330
9
100
AcDbSymbolTableRecord
100
AcDbRegAppTableRecord
  2
GENIUS_GENOBJ-N-HTC_13
 70
     0
  0
APPID
  5
B6
330
9
100
AcDbSymbolTableRecord
100
AcDbRegAppTableRecord
  2
GENIUS_GENHATCH_13
 70
     0
  0
APPID
  5
242
330
9
100
AcDbSymbolTableRecord
100
AcDbRegAppTableRecord
  2
AD_DRAW
 70
     0
  0
APPID
  5
264
330
9
100
AcDbSymbolTableRecord
100
AcDbRegAppTableRecord
  2
DESIGNERASSEMBLIES
 70
     0
  0
APPID
  5
269
330
9
100
AcDbSymbolTableRecord
100
AcDbRegAppTableRecord
  2
ACADM_DIM_EDIT
 70
     0
  0
APPID
  5
26A
330
9
100
AcDbSymbolTableRecord
100
AcDbRegAppTableRecord
  2
AMDT_DM_ADJ
 70
     0
  0
APPID
  5
286
330
9
100
AcDbSymbolTableRecord
100
AcDbRegAppTableRecord
  2
ACAD_DSTYLE_DIMARC_LENGTH_SYMBOL
 70
     0
  0
APPID
  5
287
330
9
100
AcDbSymbolTableRecord
100
AcDbRegAppTableRecord
  2
ACAD_DSTYLE_DIMJOGGED_JOGANGLE_SYMBOL
 70
     0
  0
ENDTAB
  0
TABLE
  2
DIMSTYLE
  5
A
330
0
100
AcDbSymbolTable
 70
     9
100
AcDbDimStyleTable
 71
     1
340
B3
  0
DIMSTYLE
105
70
330
A
100
AcDbSymbolTableRecord
100
AcDbDimStyleTableRecord
  2
AM_DIN
 70
     0
  4
"
 41
2.5
 42
1.0
 43
10.0
 44
1.0
 47
0.1
 48
0.1
 73
     0
 74
     0
 77
     1
 78
     8
140
3.5
141
0.0
143
0.0393701
146
0.71
147
1.5
172
     1
176
   256
177
   256
178
     2
271
     2
272
     3
274
     4
283
     0
284
     8
340
11
  0
DIMSTYLE
105
71
330
A
100
AcDbSymbolTableRecord
100
AcDbDimStyleTableRecord
  2
AM_DIN$3
 70
     0
  4
"
 41
2.5
 42
1.0
 43
10.0
 44
1.0
 47
0.1
 48
0.1
 73
     0
 77
     1
 78
     8
140
3.5
141
0.0
143
0.0393701
146
0.71
147
1.5
176
   256
177
   256
178
     2
271
     2
272
     3
274
     4
283
     0
284
     8
288
     1
340
11
  0
DIMSTYLE
105
72
330
A
100
AcDbSymbolTableRecord
100
AcDbDimStyleTableRecord
  2
AM_DIN$4
 70
     0
  4
"
 41
2.5
 42
1.0
 43
10.0
 44
1.0
 47
0.1
 48
0.1
 73
     0
 77
     1
 78
     8
140
3.5
141
0.0
143
0.0393701
146
0.71
147
1.5
176
   256
177
   256
178
     2
271
     2
272
     3
274
     4
283
     0
284
     8
288
     1
340
11
  0
DIMSTYLE
105
73
330
A
100
AcDbSymbolTableRecord
100
AcDbDimStyleTableRecord
  2
AM_DIN$6
 70
     0
  4
"
 41
2.5
 42
1.0
 43
10.0
 44
1.0
 47
0.1
 48
0.1
 73
     0
 74
     0
 78
     8
140
3.5
141
0.0
143
0.0393701
146
0.71
147
1.5
172
     1
176
   256
177
   256
178
     2
271
     2
272
     3
274
     4
283
     0
284
     8
340
11
  0
DIMSTYLE
105
74
330
A
100
AcDbSymbolTableRecord
100
AcDbDimStyleTableRecord
  2
AM_DIN$7
 70
     0
  4
"
 41
2.5
 42
1.0
 43
10.0
 44
1.0
 47
0.1
 48
0.1
 73
     0
 74
     0
 77
     1
 78
     8
140
5.0
141
0.0
143
0.0393701
146
0.71
147
1.5
172
     1
176
   256
177
   256
178
     2
271
     2
272
     3
274
     4
283
     0
284
     8
340
11
  0
DIMSTYLE
105
75
330
A
100
AcDbSymbolTableRecord
100
AcDbDimStyleTableRecord
  2
AM_DIN$SF
 70
     0
  4
"
 41
2.5
 42
1.0
 43
10.0
 44
1.0
 47
0.1
 48
0.1
 73
     0
 74
     0
 75
     1
 76
     1
 77
     1
 78
     8
140
3.5
141
0.0
143
0.0393701
146
0.71
147
1.5
172
     1
176
   256
177
   256
178
     2
271
     2
272
     3
274
     4
283
     0
284
     8
340
11
  0
DIMSTYLE
105
7A
330
A
100
AcDbSymbolTableRecord
100
AcDbDimStyleTableRecord
  2
AM_DIN$SH
 70
     0
  4
"
 41
2.5
 42
1.0
 43
10.0
 44
1.0
 47
0.1
 48
0.1
 73
     0
 74
     0
 75
     1
 76
     1
 77
     1
 78
     8
140
3.5
141
0.0
143
0.0393701
144
2.0
146
0.71
147
1.5
172
     1
173
     1
176
   256
177
   256
178
     2
271
     2
272
     3
274
     4
283
     0
284
     8
340
11
341
76
343
76
  0
DIMSTYLE
105
B3
102
{ACAD_REACTORS
330
132
330
12A
330
12D
102
}
330
A
100
AcDbSymbolTableRecord
100
AcDbDimStyleTableRecord
  2
GEN-ISO
 70
     0
  4
"
 41
2.5
 42
1.0
 43
7.0
 44
1.0
 47
0.1
 48
0.1
 73
     0
 74
     0
 77
     1
 78
     8
140
3.5
141
0.0
143
0.0393701
146
0.71
147
0.6
172
     1
176
   256
177
   256
178
     2
271
     2
272
     3
274
     4
283
     0
340
11
  0
ENDTAB
  0
TABLE
  2
BLOCK_RECORD
  5
1
330
0
100
AcDbSymbolTable
 70
     8
  0
BLOCK_RECORD
  5
1F
102
{ACAD_XDICTIONARY
360
1D2
102
}
330
1
100
AcDbSymbolTableRecord
100
AcDbBlockTableRecord
  2
*MODEL_SPACE
340
208
  0
BLOCK_RECORD
  5
1B
102
{ACAD_XDICTIONARY
360
1FD
102
}
330
1
100
AcDbSymbolTableRecord
100
AcDbBlockTableRecord
  2
*PAPER_SPACE
340
209
  0
BLOCK_RECORD
  5
76
330
1
100
AcDbSymbolTableRecord
100
AcDbBlockTableRecord
  2
GENAXEH
340
0
  0
BLOCK_RECORD
  5
192
330
1
100
AcDbSymbolTableRecord
100
AcDbBlockTableRecord
  2
*D4
340
0
  0
BLOCK_RECORD
  5
19E
330
1
100
AcDbSymbolTableRecord
100
AcDbBlockTableRecord
  2
*D5
340
0
  0
BLOCK_RECORD
  5
1AA
330
1
100
AcDbSymbolTableRecord
100
AcDbBlockTableRecord
  2
*D6
340
0
  0
ENDTAB
  0
ENDSEC
  0
SECTION
  2
BLOCKS
  0
BLOCK
  5
20
330
1F
100
AcDbEntity
  8
0
100
AcDbBlockBegin
  2
*MODEL_SPACE
 70
     0
 10
0.0
 20
0.0
 30
0.0
  3
*MODEL_SPACE
  1

  0
ENDBLK
  5
21
330
1F
100
AcDbEntity
  8
0
100
AcDbBlockEnd
  0
BLOCK
  5
1C
330
1B
100
AcDbEntity
 67
     1
  8
0
100
AcDbBlockBegin
  2
*PAPER_SPACE
 70
     0
 10
0.0
 20
0.0
 30
0.0
  3
*PAPER_SPACE
  1

  0
ENDBLK
  5
1D
330
1B
100
AcDbEntity
 67
     1
  8
0
100
AcDbBlockEnd
  0
BLOCK
  5
78
330
76
100
AcDbEntity
  8
0
100
AcDbBlockBegin
  2
GENAXEH
 70
     0
 10
0.0
 20
0.0
 30
0.0
  3
GENAXEH
  1

  0
LINE
  5
77
330
76
100
AcDbEntity
  8
0
100
AcDbLine
 10
-1.0
 20
0.0
 30
0.0
 11
1.0
 21
0.0
 31
0.0
  0
ENDBLK
  5
79
330
76
100
AcDbEntity
  8
0
100
AcDbBlockEnd
  0
BLOCK
  5
19C
330
192
100
AcDbEntity
  8
0
100
AcDbBlockBegin
  2
*D4
 70
     1
 10
0.0
 20
0.0
 30
0.0
  3
*D4
  1

  0
LINE
  5
2A7
330
192
100
AcDbEntity
  8
5
370
    -2
100
AcDbLine
 10
109.332334419545
 20
673.5557996871392
 30
0.0
 11
14.25590552097133
 21
673.5557996871392
 31
0.0
  0
LINE
  5
2A8
330
192
100
AcDbEntity
  8
5
370
    -2
100
AcDbLine
 10
104.832334419545
 20
423.5557996871403
 30
0.0
 11
14.25590552097127
 21
423.5557996871403
 31
0.0
  0
LINE
  5
2A9
330
192
100
AcDbEntity
  8
5
370
    -2
100
AcDbLine
 10
15.25590552097133
 20
666.5557996871392
 30
0.0
 11
15.25590552097128
 21
430.5557996871403
 31
0.0
  0
SOLID
  5
2AA
330
192
100
AcDbEntity
  8
5
100
AcDbTrace
 10
14.08923885430466
 20
666.5557996871392
 30
0.0
 11
16.422572187638
 21
666.5557996871392
 31
0.0
 12
15.25590552097133
 22
673.5557996871392
 32
0.0
 13
15.25590552097133
 23
673.5557996871392
 33
0.0
  0
SOLID
  5
2AB
330
192
100
AcDbEntity
  8
5
100
AcDbTrace
 10
14.08923885430461
 20
430.5557996871403
 30
0.0
 11
16.42257218763794
 21
430.5557996871403
 31
0.0
 12
15.25590552097128
 22
423.5557996871403
 32
0.0
 13
15.25590552097128
 23
423.5557996871403
 33
0.0
  0
MTEXT
  5
2AC
330
192
100
AcDbEntity
  8
5
 62
     2
100
AcDbMText
 10
9.254921269002714
 20
548.5557996871398
 30
0.0
 40
10.0
 41
0.0
 71
     5
 72
     1
  1
250
 11
0.0000000000000001
 21
1.0
 31
0.0
 73
     1
 44
1.0
1001
ACAD
1000
MTEXTBEGIN
1070
    73
1070
     1
1070
    44
1040
1.0
1070
    74
1070
     0
1000
MTEXTEND
  0
POINT
  5
2AD
330
192
100
AcDbEntity
  8
DEFPOINTS
 62
     0
100
AcDbPoint
 10
110.332334419545
 20
673.5557996871392
 30
0.0
  0
POINT
  5
2AE
330
192
100
AcDbEntity
  8
DEFPOINTS
 62
     0
100
AcDbPoint
 10
105.832334419545
 20
423.5557996871403
 30
0.0
  0
POINT
  5
2AF
330
192
100
AcDbEntity
  8
DEFPOINTS
 62
     0
100
AcDbPoint
 10
15.25590552097128
 20
423.5557996871403
 30
0.0
  0
ENDBLK
  5
19D
330
192
100
AcDbEntity
  8
0
100
AcDbBlockEnd
  0
BLOCK
  5
1A8
330
19E
100
AcDbEntity
  8
0
100
AcDbBlockBegin
  2
*D5
 70
     1
 10
0.0
 20
0.0
 30
0.0
  3
*D5
  1

  0
LINE
  5
2B0
330
19E
100
AcDbEntity
  8
5
370
    -2
100
AcDbLine
 10
121.332334419545
 20
405.0557996871392
 30
0.0
 11
121.332334419545
 21
335.0737077438698
 31
0.0
  0
LINE
  5
2B1
330
19E
100
AcDbEntity
  8
5
370
    -2
100
AcDbLine
 10
375.332334419545
 20
405.0557996871392
 30
0.0
 11
375.332334419545
 21
335.0737077438698
 31
0.0
  0
LINE
  5
2B2
330
19E
100
AcDbEntity
  8
5
370
    -2
100
AcDbLine
 10
128.332334419545
 20
336.0737077438698
 30
0.0
 11
368.332334419545
 21
336.0737077438698
 31
0.0
  0
SOLID
  5
2B3
330
19E
100
AcDbEntity
  8
5
100
AcDbTrace
 10
128.332334419545
 20
337.2403744105365
 30
0.0
 11
128.332334419545
 21
334.9070410772031
 31
0.0
 12
121.332334419545
 22
336.0737077438698
 32
0.0
 13
121.332334419545
 23
336.0737077438698
 33
0.0
  0
SOLID
  5
2B4
330
19E
100
AcDbEntity
  8
5
100
AcDbTrace
 10
368.332334419545
 20
337.2403744105365
 30
0.0
 11
368.332334419545
 21
334.9070410772031
 31
0.0
 12
375.332334419545
 22
336.0737077438698
 32
0.0
 13
375.332334419545
 23
336.0737077438698
 33
0.0
  0
MTEXT
  5
2B5
330
19E
100
AcDbEntity
  8
5
 62
     2
100
AcDbMText
 10
248.332334419545
 20
342.0746919958383
 30
0.0
 40
10.0
 41
0.0
 71
     5
 72
     1
  1
{\Famgdt|c0;o}254
 73
     1
 44
1.0
1001
ACAD
1000
MTEXTBEGIN
1070
    73
1070
     1
1070
    44
1040
1.0
1070
    74
1070
     0
1000
MTEXTEND
  0
POINT
  5
2B6
330
19E
100
AcDbEntity
  8
DEFPOINTS
 62
     0
100
AcDbPoint
 10
121.332334419545
 20
406.0557996871392
 30
0.0
  0
POINT
  5
2B7
330
19E
100
AcDbEntity
  8
DEFPOINTS
 62
     0
100
AcDbPoint
 10
375.332334419545
 20
406.0557996871392
 30
0.0
  0
POINT
  5
2B8
330
19E
100
AcDbEntity
  8
DEFPOINTS
 62
     0
100
AcDbPoint
 10
375.332334419545
 20
336.0737077438698
 30
0.0
  0
ENDBLK
  5
1A9
330
19E
100
AcDbEntity
  8
0
100
AcDbBlockEnd
  0
BLOCK
  5
1B4
330
1AA
100
AcDbEntity
  8
0
100
AcDbBlockBegin
  2
*D6
 70
     1
 10
0.0
 20
0.0
 30
0.0
  3
*D6
  1

  0
LINE
  5
29E
330
1AA
100
AcDbEntity
  8
5
370
    -2
100
AcDbLine
 10
107.332334419545
 20
671.5557996871393
 30
0.0
 11
107.332334419545
 21
756.2974817281233
 31
0.0
  0
LINE
  5
29F
330
1AA
100
AcDbEntity
  8
5
370
    -2
100
AcDbLine
 10
389.3323344195449
 20
674.5557996871392
 30
0.0
 11
389.3323344195449
 21
756.2974817281233
 31
0.0
  0
LINE
  5
2A0
330
1AA
100
AcDbEntity
  8
5
370
    -2
100
AcDbLine
 10
114.332334419545
 20
755.2974817281233
 30
0.0
 11
382.332334419545
 21
755.2974817281233
 31
0.0
  0
SOLID
  5
2A1
330
1AA
100
AcDbEntity
  8
5
100
AcDbTrace
 10
114.332334419545
 20
756.4641483947899
 30
0.0
 11
114.332334419545
 21
754.1308150614566
 31
0.0
 12
107.332334419545
 22
755.2974817281233
 32
0.0
 13
107.332334419545
 23
755.2974817281233
 33
0.0
  0
SOLID
  5
2A2
330
1AA
100
AcDbEntity
  8
5
100
AcDbTrace
 10
382.332334419545
 20
756.4641483947899
 30
0.0
 11
382.332334419545
 21
754.1308150614566
 31
0.0
 12
389.3323344195449
 22
755.2974817281233
 32
0.0
 13
389.3323344195449
 23
755.2974817281233
 33
0.0
  0
MTEXT
  5
2A3
330
1AA
100
AcDbEntity
  8
5
 62
     2
100
AcDbMText
 10
248.332334419545
 20
761.2984659800917
 30
0.0
 40
10.0
 41
0.0
 71
     5
 72
     1
  1
{\Famgdt|c0;o}282
 73
     1
 44
1.0
1001
ACAD
1000
MTEXTBEGIN
1070
    73
1070
     1
1070
    44
1040
1.0
1070
    74
1070
     0
1000
MTEXTEND
  0
POINT
  5
2A4
330
1AA
100
AcDbEntity
  8
DEFPOINTS
 62
     0
100
AcDbPoint
 10
107.332334419545
 20
670.5557996871394
 30
0.0
  0
POINT
  5
2A5
330
1AA
100
AcDbEntity
  8
DEFPOINTS
 62
     0
100
AcDbPoint
 10
389.3323344195449
 20
673.5557996871392
 30
0.0
  0
POINT
  5
2A6
330
1AA
100
AcDbEntity
  8
DEFPOINTS
 62
     0
100
AcDbPoint
 10
389.3323344195449
 20
755.2974817281233
 30
0.0
  0
ENDBLK
  5
1B5
330
1AA
100
AcDbEntity
  8
0
100
AcDbBlockEnd
  0
ENDSEC
  0
SECTION
  2
ENTITIES
  0
DIMENSION
  5
12A
330
1F
100
AcDbEntity
  8
5
100
AcDbDimension
  2
*D4
 10
15.25590552097128
 20
423.5557996871403
 30
0.0
 11
9.254921269002714
 21
548.5557996871398
 31
0.0
 70
    32
 71
     5
 42
249.9999999999989
  3
GEN-ISO
100
AcDbAlignedDimension
 13
110.332334419545
 23
673.5557996871392
 33
0.0
 14
105.832334419545
 24
423.5557996871403
 34
0.0
 50
90.0
100
AcDbRotatedDimension
1001
ACAD
1000
DSTYLE
1002
{
1070
    41
1040
7.0
1070
   140
1040
10.0
1070
   147
1040
1.0
1070
   271
1070
     0
1002
}
  0
HATCH
  5
12B
330
1F
100
AcDbEntity
  8
SICHTBAR
 62
     1
100
AcDbHatch
 10
0.0
 20
0.0
 30
0.0
210
0.0
220
0.0
230
1.0
  2
_U
 70
     0
 71
     0
 91
        1
 92
        1
 93
       23
 72
     1
 10
350.3573738934137
 20
446.0557996871393
 11
348.960543113746
 21
406.0557996871402
 72
     1
 10
348.960543113746
 20
406.0557996871402
 11
375.332334419545
 21
406.0557996871402
 72
     1
 10
375.332334419545
 20
406.0557996871392
 11
375.332334419545
 21
423.5557996871392
 72
     1
 10
375.332334419545
 20
423.5557996871392
 11
390.8323344195451
 21
423.5557996871392
 72
     1
 10
390.8323344195451
 20
423.5557996871403
 11
390.8323344195451
 21
443.5557996871402
 72
     1
 10
390.8323344195451
 20
443.5557996871392
 11
371.4575403995404
 21
462.930593707144
 72
     1
 10
371.4575403995404
 20
462.930593707144
 11
371.9582549068292
 21
477.2691811602816
 72
     1
 10
371.9582549068292
 20
477.2691811602825
 11
365.4860061706314
 21
478.0638733794112
 72
     1
 10
365.4860061706276
 20
478.0638733794103
 11
365.6605036541404
 21
483.0608275145058
 72
     1
 10
365.6605036541441
 20
483.0608275145058
 11
370.6727243408604
 21
483.3235068699732
 72
     1
 10
370.6727243408604
 20
483.3235068699732
 11
374.1382624338875
 21
582.5635334635071
 72
     1
 10
374.1382624338875
 20
582.5635334635071
 11
369.1504533243933
 21
582.9999102164192
 72
     1
 10
369.1504533243933
 20
582.9999102164192
 11
369.3249508079061
 21
587.9968643515147
 72
     1
 10
369.3249508079024
 20
587.9968643515147
 11
375.8368683983935
 21
588.3381394913067
 72
     1
 10
375.8368683983935
 20
588.3381394913067
 11
376.9238640523544
 21
619.4656223556021
 72
     1
 10
376.9238640523544
 20
619.4656223556021
 11
389.3323344195414
 21
640.9577234757842
 72
     1
 10
389.3323344195449
 20
640.9577234757842
 11
389.3323344195449
 21
670.5557996871394
 72
     1
 10
389.3323344195449
 20
670.5557996871394
 11
386.332334419545
 21
673.5557996871392
 72
     1
 10
386.332334419545
 20
673.5557996871392
 11
376.832334419545
 21
673.5557996871392
 72
     1
 10
376.832334419545
 20
673.5557996871392
 11
376.4134128612677
 21
649.5557996871375
 72
     1
 10
376.4134128612677
 20
649.5557996871375
 11
364.4746361989164
 21
649.5557996871375
 72
     1
 10
364.4746361989164
 20
649.5557996871375
 11
357.3682596073485
 21
446.0557996871393
 72
     1
 10
357.3682596073485
 20
446.0557996871393
 11
350.3573738934137
 21
446.0557996871393
 97
        0
 75
     0
 76
     0
 52
45.0
 41
2.5
 77
     0
 78
     1
 53
45.0
 43
-266.8497225907085
 44
-187.5129588721565
 45
-1.767766952966368
 46
1.767766952966368
 79
     0
 98
        1
 10
-266.8497225907085
 20
-187.5129588721565
1001
GENIUS_GENODEF_13
1002
{
1000
HIER
1070
     0
1002
}
1002
{
1000
MANEDIT
1070
     0
1002
}
1002
{
1000
NOSEL
1070
     0
1002
}
1002
{
1000
BEHIND
1070
     0
1002
}
1002
{
1000
REACTOR
1002
}
1001
GENIUS_GENOBJ-N-HTC_13
1002
{
1000
OWNER
1000
GEN
1002
}
1001
GENIUS_GENHATCH_13
1002
{
1000
DATA
1040
45.0
1042
2.5
1000
_U
1070
     0
1011
370.5780443571057
1021
625.7664940596278
1031
0.0
1002
}
1002
{
1000
UCS
1010
0.0
1020
0.0
1030
0.0
1010
1.0
1020
0.0
1030
0.0
1010
0.0
1020
1.0
1030
0.0
1002
}
  0
HATCH
  5
12C
330
1F
100
AcDbEntity
  8
SICHTBAR
 62
     1
100
AcDbHatch
 10
0.0
 20
0.0
 30
0.0
210
0.0
220
0.0
230
1.0
  2
_U
 70
     0
 71
     0
 91
        1
 92
        1
 93
       15
 72
     1
 10
120.2512559778224
 20
649.5557996871375
 11
119.832334419545
 21
673.5557996871392
 72
     1
 10
119.832334419545
 20
673.5557996871392
 11
110.332334419545
 21
673.5557996871392
 72
     1
 10
110.332334419545
 20
673.5557996871392
 11
107.332334419545
 21
670.5557996871394
 72
     1
 10
107.332334419545
 20
670.5557996871394
 11
107.332334419545
 21
640.9577234757842
 72
     1
 10
107.332334419545
 20
640.9577234757842
 11
119.740804786732
 21
619.4656223556021
 72
     1
 10
119.7408047867356
 20
619.4656223556021
 11
125.2071284395533
 21
462.930593707144
 72
     1
 10
125.2071284395497
 20
462.930593707144
 11
105.832334419545
 21
443.5557996871392
 72
     1
 10
105.832334419545
 20
443.5557996871402
 11
105.832334419545
 21
423.5557996871403
 72
     1
 10
105.832334419545
 20
423.5557996871403
 11
121.332334419545
 21
423.5557996871403
 72
     1
 10
121.332334419545
 20
423.5557996871403
 11
121.332334419545
 21
406.0557996871402
 72
     1
 10
121.332334419545
 20
406.0557996871392
 11
147.704125725344
 21
406.0557996871402
 72
     1
 10
147.704125725344
 20
406.0557996871402
 11
146.3072949456764
 21
446.0557996871393
 72
     1
 10
146.3072949456764
 20
446.0557996871393
 11
139.2964092317451
 21
446.0557996871393
 72
     1
 10
139.2964092317415
 20
446.0557996871393
 11
132.1900326401737
 21
649.5557996871375
 72
     1
 10
132.1900326401737
 20
649.5557996871375
 11
120.2512559778224
 21
649.5557996871375
 97
        0
 75
     0
 76
     0
 52
45.0
 41
2.5
 77
     0
 78
     1
 53
45.0
 43
18123.03963610438
 44
2385.995056329293
 45
-1.767766952966368
 46
1.767766952966368
 79
     0
 98
        1
 10
-266.8497225907085
 20
-187.5129588721565
1001
GENIUS_GENODEF_13
1002
{
1000
HIER
1070
     0
1002
}
1002
{
1000
MANEDIT
1070
     0
1002
}
1002
{
1000
NOSEL
1070
     0
1002
}
1002
{
1000
BEHIND
1070
     0
1002
}
1002
{
1000
REACTOR
1002
}
1001
GENIUS_GENOBJ-N-HTC_13
1002
{
1000
OWNER
1000
GEN
1002
}
1001
GENIUS_GENHATCH_13
1002
{
1000
DATA
1040
45.0
1042
2.5
1000
_U
1070
     0
1011
124.9098414103209
1021
636.2348132442102
1031
0.0
1002
}
1002
{
1000
UCS
1010
0.0
1020
0.0
1030
0.0
1010
1.0
1020
0.0
1030
0.0
1010
0.0
1020
1.0
1030
0.0
1002
}
  0
DIMENSION
  5
12D
330
1F
100
AcDbEntity
  8
5
100
AcDbDimension
  2
*D5
 10
375.332334419545
 20
336.0737077438698
 30
0.0
 11
248.332334419545
 21
342.0746919958383
 31
0.0
 70
    32
  1
{\Famgdt;o}<>
 71
     5
 42
254.0
  3
GEN-ISO
100
AcDbAlignedDimension
 13
121.332334419545
 23
406.0557996871392
 33
0.0
 14
375.332334419545
 24
406.0557996871392
 34
0.0
100
AcDbRotatedDimension
1001
ACAD
1000
DSTYLE
1002
{
1070
    41
1040
7.0
1070
   140
1040
10.0
1070
   147
1040
1.0
1070
   271
1070
     0
1002
}
  0
LINE
  5
12E
330
1F
100
AcDbEntity
  8
SICHTBAR
100
AcDbLine
 10
146.3072949456764
 20
446.0557996871393
 30
0.0000275267927711
 11
248.332334419545
 21
446.0557996871393
 31
0.0000275267927711
  0
LINE
  5
12F
330
1F
100
AcDbEntity
  8
SICHTBAR
100
AcDbLine
 10
147.704125725344
 20
406.0557996871402
 30
0.0000275267927711
 11
248.332334419545
 21
406.0557996871402
 31
0.0000275267927711
  0
LINE
  5
130
330
1F
100
AcDbEntity
  8
SICHTBAR
100
AcDbLine
 10
248.332334419545
 20
446.0557996871393
 30
0.0000275267927711
 11
350.3573738934137
 21
446.0557996871393
 31
0.0000275267927711
  0
LINE
  5
131
330
1F
100
AcDbEntity
  8
SICHTBAR
100
AcDbLine
 10
348.960543113746
 20
406.0557996871402
 30
0.0000275267927711
 11
248.332334419545
 21
406.0557996871402
 31
0.0000275267927711
  0
DIMENSION
  5
132
330
1F
100
AcDbEntity
  8
5
100
AcDbDimension
  2
*D6
 10
389.3323344195449
 20
755.2974817281233
 30
0.0
 11
248.332334419545
 21
761.2984659800917
 31
0.0
 70
    32
  1
{\Famgdt;o}<>
 71
     5
 42
281.9999999999999
  3
GEN-ISO
100
AcDbAlignedDimension
 13
107.332334419545
 23
670.5557996871394
 33
0.0
 14
389.3323344195449
 24
673.5557996871392
 34
0.0
100
AcDbRotatedDimension
1001
ACAD
1000
DSTYLE
1002
{
1070
    41
1040
7.0
1070
   140
1040
10.0
1070
   147
1040
1.0
1070
   271
1070
     0
1002
}
  0
LINE
  5
133
330
1F
100
AcDbEntity
  8
SICHTBAR
100
AcDbLine
 10
374.1382624338875
 20
582.5635334635071
 30
0.0001789211428825
 11
370.6727243408604
 21
483.3235068699732
 31
0.0001789211428825
  0
LINE
  5
134
330
1F
100
AcDbEntity
  8
SICHTBAR
100
AcDbLine
 10
376.9238640523544
 20
619.4656223556021
 30
0.0001789211428825
 11
371.4575403995404
 21
462.930593707144
 31
0.0001789211428825
  0
LINE
  5
135
330
1F
100
AcDbEntity
  8
SICHTBAR
100
AcDbLine
 10
364.4746361989164
 20
649.5557996871375
 30
0.0001789211428825
 11
357.3682596073485
 21
446.0557996871393
 31
0.0001789211428825
  0
LINE
  5
136
330
1F
100
AcDbEntity
  8
SICHTBAR
100
AcDbLine
 10
119.7408047867356
 20
619.4656223556021
 30
0.0001789211428825
 11
125.2071284395497
 21
462.930593707144
 31
0.0001789211428825
  0
LINE
  5
137
330
1F
100
AcDbEntity
  8
SICHTBAR
100
AcDbLine
 10
132.1900326401737
 20
649.5557996871375
 30
0.0001789211428825
 11
139.2964092317415
 21
446.0557996871393
 31
0.0001789211428825
  0
LINE
  5
138
330
1F
100
AcDbEntity
  8
SICHTBAR
100
AcDbLine
 10
386.332334419545
 20
120.5000007694625
 30
0.0001789211428825
 11
386.332334419545
 21
3.000000769462531
 31
0.0001789211428825
  0
LINE
  5
139
330
1F
100
AcDbEntity
  8
SICHTBAR
100
AcDbLine
 10
350.3573738934137
 20
243.0000007694625
 30
0.0001789211428825
 11
350.3573738934137
 21
39.00000076946253
 31
0.0001789211428825
  0
LINE
  5
13A
330
1F
100
AcDbEntity
  8
SICHTBAR
100
AcDbLine
 10
357.3682596073485
 20
250.0000007694625
 30
0.0001789211428825
 11
357.3682596073485
 21
32.00000076946253
 31
0.0001789211428825
  0
LINE
  5
13B
330
1F
100
AcDbEntity
  8
SICHTBAR
100
AcDbLine
 10
364.6143192768831
 20
257.3000007694627
 30
0.0001789211428825
 11
364.6143192768831
 21
24.70000076946325
 31
0.0001789211428825
  0
LINE
  5
13C
330
1F
100
AcDbEntity
  8
SICHTBAR
100
AcDbLine
 10
376.832334419545
 20
269.5000007694625
 30
0.0001789211428825
 11
376.832334419545
 21
12.50000076946253
 31
0.0001789211428825
  0
LINE
  5
13D
330
1F
100
AcDbEntity
  8
SICHTBAR
100
AcDbLine
 10
110.332334419545
 20
120.5000007694625
 30
0.0001789211428825
 11
110.332334419545
 21
3.000000769462531
 31
0.0001789211428825
  0
LINE
  5
13E
330
1F
100
AcDbEntity
  8
SICHTBAR
100
AcDbLine
 10
119.832334419545
 20
269.5000007694625
 30
0.0001789211428825
 11
119.832334419545
 21
12.50000076946253
 31
0.0001789211428825
  0
LINE
  5
13F
330
1F
100
AcDbEntity
  8
SICHTBAR
100
AcDbLine
 10
132.0503495622069
 20
257.3000007694627
 30
0.0001789211428825
 11
132.0503495622069
 21
24.70000076946325
 31
0.0001789211428825
  0
LINE
  5
140
330
1F
100
AcDbEntity
  8
SICHTBAR
100
AcDbLine
 10
139.2964092317415
 20
250.0000007694625
 30
0.0001789211428825
 11
139.2964092317415
 21
32.00000076946253
 31
0.0001789211428825
  0
LINE
  5
141
330
1F
100
AcDbEntity
  8
SICHTBAR
100
AcDbLine
 10
146.3072949456764
 20
243.0000007694625
 30
0.0001789211428825
 11
146.3072949456764
 21
39.00000076946253
 31
0.0001789211428825
  0
LINE
  5
142
330
1F
100
AcDbEntity
  8
SICHTBAR
100
AcDbLine
 10
389.3323344195449
 20
282.0000007694625
 30
0.0001789211428825
 11
389.3323344195449
 21
0.000000769462531
 31
0.0001789211428825
  0
LINE
  5
143
330
1F
100
AcDbEntity
  8
SICHTBAR
100
AcDbLine
 10
107.332334419545
 20
282.0000007694625
 30
0.0001789211428825
 11
107.332334419545
 21
0.000000769462531
 31
0.0001789211428825
  0
LINE
  5
144
330
1F
100
AcDbEntity
  8
SICHTBAR
100
AcDbLine
 10
110.332334419545
 20
3.000000769462531
 30
0.0001789211428825
 11
227.832334419545
 21
3.000000769462531
 31
0.0001789211428825
  0
LINE
  5
145
330
1F
100
AcDbEntity
  8
SICHTBAR
100
AcDbLine
 10
119.832334419545
 20
12.50000076946253
 30
0.0001789211428825
 11
248.332334419545
 21
12.50000076946253
 31
0.0001789211428825
  0
LINE
  5
146
330
1F
100
AcDbEntity
  8
SICHTBAR
100
AcDbLine
 10
132.0503495622069
 20
24.70000076946325
 30
0.0001789211428825
 11
248.332334419545
 21
24.70000076946325
 31
0.0001789211428825
  0
LINE
  5
147
330
1F
100
AcDbEntity
  8
SICHTBAR
100
AcDbLine
 10
139.2964092317415
 20
32.00000076946253
 30
0.0001789211428825
 11
248.332334419545
 21
32.00000076946253
 31
0.0001789211428825
  0
LINE
  5
148
330
1F
100
AcDbEntity
  8
SICHTBAR
100
AcDbLine
 10
146.3072949456764
 20
39.00000076946253
 30
0.0001789211428825
 11
248.332334419545
 21
39.00000076946253
 31
0.0001789211428825
  0
LINE
  5
149
330
1F
100
AcDbEntity
  8
SICHTBAR
100
AcDbLine
 10
107.332334419545
 20
0.000000769462531
 30
0.0001789211428825
 11
248.332334419545
 21
0.000000769462531
 31
0.0001789211428825
  0
LINE
  5
14A
330
1F
100
AcDbEntity
  8
SICHTBAR
100
AcDbLine
 10
107.332334419545
 20
0.000000769462531
 30
0.0001789211428825
 11
110.332334419545
 21
3.000000769462531
 31
0.0001789211428825
  0
LINE
  5
14B
330
1F
100
AcDbEntity
  8
SICHTBAR
100
AcDbLine
 10
389.3323344195449
 20
0.000000769462531
 30
0.0001789211428825
 11
386.332334419545
 21
3.000000769462531
 31
0.0001789211428825
  0
LINE
  5
14C
330
1F
100
AcDbEntity
  8
SICHTBAR
100
AcDbLine
 10
364.6143192768831
 20
24.70000076946325
 30
0.0001789211428825
 11
248.332334419545
 21
24.70000076946325
 31
0.0001789211428825
  0
LINE
  5
14D
330
1F
100
AcDbEntity
  8
SICHTBAR
100
AcDbLine
 10
227.832334419545
 20
12.50000076946253
 30
0.0001789211428825
 11
227.832334419545
 21
0.000000769462531
 31
0.0001789211428825
  0
LINE
  5
14E
330
1F
100
AcDbEntity
  8
SICHTBAR
100
AcDbLine
 10
268.8323344195449
 20
12.50000076946253
 30
0.0001789211428825
 11
268.8323344195449
 21
0.0000007694634405
 31
0.0001789211428825
  0
LINE
  5
14F
330
1F
100
AcDbEntity
  8
SICHTBAR
100
AcDbLine
 10
376.832334419545
 20
12.50000076946253
 30
0.0001789211428825
 11
248.332334419545
 21
12.50000076946253
 31
0.0001789211428825
  0
LINE
  5
150
330
1F
100
AcDbEntity
  8
SICHTBAR
100
AcDbLine
 10
389.3323344195449
 20
0.000000769462531
 30
0.0001789211428825
 11
248.332334419545
 21
0.000000769462531
 31
0.0001789211428825
  0
LINE
  5
151
330
1F
100
AcDbEntity
  8
SICHTBAR
100
AcDbLine
 10
386.332334419545
 20
3.000000769462531
 30
0.0001789211428825
 11
268.8323344195449
 21
3.000000769462531
 31
0.0001789211428825
  0
LINE
  5
152
330
1F
100
AcDbEntity
  8
SICHTBAR
100
AcDbLine
 10
350.3573738934137
 20
39.00000076946253
 30
0.0001789211428825
 11
248.332334419545
 21
39.00000076946253
 31
0.0001789211428825
  0
LINE
  5
153
330
1F
100
AcDbEntity
  8
SICHTBAR
100
AcDbLine
 10
357.3682596073485
 20
32.00000076946253
 30
0.0001789211428825
 11
248.332334419545
 21
32.00000076946253
 31
0.0001789211428825
  0
LINE
  5
154
330
1F
100
AcDbEntity
  8
SICHTBAR
100
AcDbLine
 10
386.332334419545
 20
279.0000007694625
 30
0.0001789211428825
 11
386.332334419545
 21
161.5000007694625
 31
0.0001789211428825
  0
LINE
  5
155
330
1F
100
AcDbEntity
  8
SICHTBAR
100
AcDbLine
 10
110.332334419545
 20
279.0000007694625
 30
0.0001789211428825
 11
110.332334419545
 21
161.5000007694625
 31
0.0001789211428825
  0
LINE
  5
156
330
1F
100
AcDbEntity
  8
SICHTBAR
100
AcDbLine
 10
119.832334419545
 20
120.5000007694625
 30
0.0001789211428825
 11
107.332334419545
 21
120.5000007694625
 31
0.0001789211428825
  0
LINE
  5
157
330
1F
100
AcDbEntity
  8
SICHTBAR
100
AcDbLine
 10
119.832334419545
 20
161.5000007694625
 30
0.0001789211428825
 11
107.332334419545
 21
161.5000007694625
 31
0.0001789211428825
  0
LINE
  5
158
330
1F
100
AcDbEntity
  8
SICHTBAR
100
AcDbLine
 10
389.3323344195449
 20
120.5000007694625
 30
0.0001789211428825
 11
376.832334419545
 21
120.5000007694625
 31
0.0001789211428825
  0
LINE
  5
159
330
1F
100
AcDbEntity
  8
SICHTBAR
100
AcDbLine
 10
389.3323344195449
 20
161.5000007694625
 30
0.0001789211428825
 11
376.832334419545
 21
161.5000007694625
 31
0.0001789211428825
  0
LINE
  5
15A
330
1F
100
AcDbEntity
  8
SICHTBAR
100
AcDbLine
 10
107.332334419545
 20
282.0000007694625
 30
0.0001789211428825
 11
248.332334419545
 21
282.0000007694625
 31
0.0001789211428825
  0
LINE
  5
15B
330
1F
100
AcDbEntity
  8
SICHTBAR
100
AcDbLine
 10
110.332334419545
 20
279.0000007694625
 30
0.0001789211428825
 11
227.832334419545
 21
279.0000007694625
 31
0.0001789211428825
  0
LINE
  5
15C
330
1F
100
AcDbEntity
  8
SICHTBAR
100
AcDbLine
 10
119.832334419545
 20
269.5000007694625
 30
0.0001789211428825
 11
248.332334419545
 21
269.5000007694625
 31
0.0001789211428825
  0
LINE
  5
15D
330
1F
100
AcDbEntity
  8
SICHTBAR
100
AcDbLine
 10
132.0503495622069
 20
257.3000007694627
 30
0.0001789211428825
 11
248.332334419545
 21
257.3000007694627
 31
0.0001789211428825
  0
LINE
  5
15E
330
1F
100
AcDbEntity
  8
SICHTBAR
100
AcDbLine
 10
139.2964092317415
 20
250.0000007694625
 30
0.0001789211428825
 11
248.332334419545
 21
250.0000007694625
 31
0.0001789211428825
  0
LINE
  5
15F
330
1F
100
AcDbEntity
  8
SICHTBAR
100
AcDbLine
 10
146.3072949456764
 20
243.0000007694625
 30
0.0001789211428825
 11
248.332334419545
 21
243.0000007694625
 31
0.0001789211428825
  0
LINE
  5
160
330
1F
100
AcDbEntity
  8
SICHTBAR
100
AcDbLine
 10
107.332334419545
 20
282.0000007694625
 30
0.0001789211428825
 11
110.332334419545
 21
279.0000007694625
 31
0.0001789211428825
  0
LINE
  5
161
330
1F
100
AcDbEntity
  8
SICHTBAR
100
AcDbLine
 10
389.3323344195449
 20
282.0000007694625
 30
0.0001789211428825
 11
248.332334419545
 21
282.0000007694625
 31
0.0001789211428825
  0
LINE
  5
162
330
1F
100
AcDbEntity
  8
SICHTBAR
100
AcDbLine
 10
350.3573738934137
 20
243.0000007694625
 30
0.0001789211428825
 11
248.332334419545
 21
243.0000007694625
 31
0.0001789211428825
  0
LINE
  5
163
330
1F
100
AcDbEntity
  8
SICHTBAR
100
AcDbLine
 10
357.3682596073485
 20
250.0000007694625
 30
0.0001789211428825
 11
248.332334419545
 21
250.0000007694625
 31
0.0001789211428825
  0
LINE
  5
164
330
1F
100
AcDbEntity
  8
SICHTBAR
100
AcDbLine
 10
364.6143192768831
 20
257.3000007694627
 30
0.0001789211428825
 11
248.332334419545
 21
257.3000007694627
 31
0.0001789211428825
  0
LINE
  5
165
330
1F
100
AcDbEntity
  8
SICHTBAR
100
AcDbLine
 10
376.832334419545
 20
269.5000007694625
 30
0.0001789211428825
 11
248.332334419545
 21
269.5000007694625
 31
0.0001789211428825
  0
LINE
  5
166
330
1F
100
AcDbEntity
  8
SICHTBAR
100
AcDbLine
 10
386.332334419545
 20
279.0000007694625
 30
0.0001789211428825
 11
268.8323344195449
 21
279.0000007694625
 31
0.0001789211428825
  0
LINE
  5
167
330
1F
100
AcDbEntity
  8
SICHTBAR
100
AcDbLine
 10
268.8323344195449
 20
282.0000007694625
 30
0.0001789211428825
 11
268.8323344195449
 21
269.5000007694625
 31
0.0001789211428825
  0
LINE
  5
168
330
1F
100
AcDbEntity
  8
SICHTBAR
100
AcDbLine
 10
386.332334419545
 20
279.0000007694634
 30
0.0001789211428825
 11
389.3323344195449
 21
282.0000007694625
 31
0.0001789211428825
  0
LINE
  5
169
330
1F
100
AcDbEntity
  8
SICHTBAR
100
AcDbLine
 10
227.832334419545
 20
282.0000007694625
 30
0.0001789211428825
 11
227.832334419545
 21
269.5000007694625
 31
0.0001789211428825
  0
LINE
  5
16A
330
1F
100
AcDbEntity
  8
SICHTBAR
100
AcDbLine
 10
105.832334419545
 20
443.5557996871402
 30
0.0001789211428825
 11
125.2071284395497
 21
462.930593707144
 31
0.0001789211428825
  0
LINE
  5
16B
330
1F
100
AcDbEntity
  8
SICHTBAR
100
AcDbLine
 10
139.2964092317415
 20
446.0557996871393
 30
0.0001789211428825
 11
146.3072949456764
 21
446.0557996871393
 31
0.0001789211428825
  0
LINE
  5
16C
330
1F
100
AcDbEntity
  8
SICHTBAR
100
AcDbLine
 10
105.832334419545
 20
423.5557996871403
 30
0.0001789211428825
 11
121.332334419545
 21
423.5557996871403
 31
0.0001789211428825
  0
LINE
  5
16D
330
1F
100
AcDbEntity
  8
SICHTBAR
100
AcDbLine
 10
121.332334419545
 20
423.5557996871392
 30
0.0001789211428825
 11
121.332334419545
 21
406.0557996871392
 31
0.0001789211428825
  0
LINE
  5
16E
330
1F
100
AcDbEntity
  8
SICHTBAR
100
AcDbLine
 10
121.332334419545
 20
406.0557996871392
 30
0.0001789211428825
 11
147.704125725344
 21
406.0557996871402
 31
0.0001789211428825
  0
LINE
  5
16F
330
1F
100
AcDbEntity
  8
SICHTBAR
100
AcDbLine
 10
105.832334419545
 20
443.5557996871392
 30
0.0001789211428825
 11
105.832334419545
 21
423.5557996871403
 31
0.0001789211428825
  0
LINE
  5
170
330
1F
100
AcDbEntity
  8
SICHTBAR
100
AcDbLine
 10
146.3072949456764
 20
446.0557996871393
 30
0.0001789211428825
 11
147.704125725344
 21
406.0557996871402
 31
0.0001789211428825
  0
LINE
  5
171
330
1F
100
AcDbEntity
  8
SICHTBAR
100
AcDbLine
 10
390.8323344195451
 20
443.5557996871402
 30
0.0001789211428825
 11
371.4575403995404
 21
462.930593707144
 31
0.0001789211428825
  0
LINE
  5
172
330
1F
100
AcDbEntity
  8
SICHTBAR
100
AcDbLine
 10
390.8323344195451
 20
423.5557996871403
 30
0.0001789211428825
 11
375.332334419545
 21
423.5557996871403
 31
0.0001789211428825
  0
LINE
  5
173
330
1F
100
AcDbEntity
  8
SICHTBAR
100
AcDbLine
 10
375.332334419545
 20
423.5557996871392
 30
0.0001789211428825
 11
375.332334419545
 21
406.0557996871392
 31
0.0001789211428825
  0
LINE
  5
174
330
1F
100
AcDbEntity
  8
SICHTBAR
100
AcDbLine
 10
390.8323344195451
 20
443.5557996871392
 30
0.0001789211428825
 11
390.8323344195451
 21
423.5557996871403
 31
0.0001789211428825
  0
LINE
  5
175
330
1F
100
AcDbEntity
  8
SICHTBAR
100
AcDbLine
 10
357.3682596073485
 20
446.0557996871393
 30
0.0001789211428825
 11
350.3573738934137
 21
446.0557996871393
 31
0.0001789211428825
  0
LINE
  5
176
330
1F
100
AcDbEntity
  8
SICHTBAR
100
AcDbLine
 10
350.3573738934137
 20
446.0557996871393
 30
0.0001789211428825
 11
348.960543113746
 21
406.0557996871402
 31
0.0001789211428825
  0
LINE
  5
177
330
1F
100
AcDbEntity
  8
SICHTBAR
100
AcDbLine
 10
375.332334419545
 20
406.0557996871392
 30
0.0001789211428825
 11
348.960543113746
 21
406.0557996871402
 31
0.0001789211428825
  0
LINE
  5
178
330
1F
100
AcDbEntity
  8
SICHTBAR
100
AcDbLine
 10
365.6605036541441
 20
483.0608275145058
 30
0.0001789211428825
 11
365.4860061706276
 21
478.0638733794103
 31
0.0001789211428825
  0
POINT
  5
179
330
1F
100
AcDbEntity
  8
DEFPOINTS
  6
ByBlock
 62
     0
100
AcDbPoint
 10
365.4860061706276
 20
478.0638733794103
 30
0.0001789211428825
  0
LINE
  5
17A
330
1F
100
AcDbEntity
  8
SICHTBAR
100
AcDbLine
 10
365.6605036541441
 20
483.0608275145058
 30
0.0001789211428825
 11
370.6727243408604
 21
483.3235068699732
 31
0.0001789211428825
  0
LINE
  5
17B
330
1F
100
AcDbEntity
  8
SICHTBAR
100
AcDbLine
 10
371.9582549068292
 20
477.2691811602825
 30
0.0001789211428825
 11
365.4860061706276
 21
478.0638733794103
 31
0.0001789211428825
  0
LINE
  5
17C
330
1F
100
AcDbEntity
  8
BEMASS
100
AcDbLine
 10
389.3323344195449
 20
670.5557996871394
 30
0.0001789211428825
 11
389.3323344195449
 21
673.5557996871392
 31
0.000357842285765
  0
LINE
  5
17D
330
1F
100
AcDbEntity
  8
SICHTBAR
100
AcDbLine
 10
369.1504533243933
 20
582.9999102164192
 30
0.0001789211428825
 11
369.3249508079024
 21
587.9968643515147
 31
0.0001789211428825
  0
POINT
  5
17E
330
1F
100
AcDbEntity
  8
DEFPOINTS
  6
ByBlock
 62
     0
100
AcDbPoint
 10
369.3249508079024
 20
587.9968643515147
 30
0.0001789211428825
  0
LINE
  5
17F
330
1F
100
AcDbEntity
  8
SICHTBAR
100
AcDbLine
 10
375.8368683983935
 20
588.3381394913067
 30
0.0001789211428825
 11
369.3249508079024
 21
587.9968643515147
 31
0.0001789211428825
  0
LINE
  5
180
330
1F
100
AcDbEntity
  8
SICHTBAR
100
AcDbLine
 10
369.1504533243933
 20
582.9999102164192
 30
0.0001789211428825
 11
374.1504533243933
 21
582.5624668987902
 31
0.0001789211428825
  0
LINE
  5
181
330
1F
100
AcDbEntity
  8
SICHTBAR
100
AcDbLine
 10
120.2512559778224
 20
649.5557996871375
 30
0.0001789211428825
 11
376.4134128612677
 21
649.5557996871375
 31
0.0001789211428825
  0
LINE
  5
182
330
1F
100
AcDbEntity
  8
SICHTBAR
100
AcDbLine
 10
110.332334419545
 20
673.5557996871392
 30
0.0001789211428825
 11
227.8434436466632
 21
673.5557996871392
 31
0.0001789211428825
  0
LINE
  5
183
330
1F
100
AcDbEntity
  8
SICHTBAR
100
AcDbLine
 10
119.832334419545
 20
673.5557996871392
 30
0.0001789211428825
 11
120.2512559778224
 21
649.5557996871375
 31
0.0001789211428825
  0
LINE
  5
184
330
1F
100
AcDbEntity
  8
SICHTBAR
100
AcDbLine
 10
107.332334419545
 20
670.5557996871394
 30
0.0001789211428825
 11
107.332334419545
 21
640.9577234757842
 31
0.0001789211428825
  0
LINE
  5
185
330
1F
100
AcDbEntity
  8
SICHTBAR
100
AcDbLine
 10
107.332334419545
 20
640.9577234757842
 30
0.0001789211428825
 11
119.7408047867356
 21
619.4656223556021
 31
0.0001789211428825
  0
LINE
  5
186
330
1F
100
AcDbEntity
  8
SICHTBAR
100
AcDbLine
 10
110.332334419545
 20
673.5557996871392
 30
0.0001789211428825
 11
107.332334419545
 21
670.5557996871394
 31
0.0001789211428825
  0
LINE
  5
187
330
1F
100
AcDbEntity
  8
SICHTBAR
100
AcDbLine
 10
376.832334419545
 20
673.5557996871392
 30
0.0001789211428825
 11
376.4134128612677
 21
649.5557996871375
 31
0.0001789211428825
  0
LINE
  5
188
330
1F
100
AcDbEntity
  8
SICHTBAR
100
AcDbLine
 10
389.3323344195449
 20
670.5557996871394
 30
0.0001789211428825
 11
389.3323344195449
 21
640.9577234757842
 31
0.0001789211428825
  0
ARC
  5
189
330
1F
100
AcDbEntity
  8
SICHTBAR
100
AcDbCircle
 10
233.1607782935825
 20
664.5557996871392
 30
0.0001789211428825
 40
5.0
100
AcDbArc
 50
182.0000000000039
 51
270.0
  0
ARC
  5
18A
330
1F
100
AcDbEntity
  8
SICHTBAR
100
AcDbCircle
 10
263.5038905455112
 20
664.5557996871392
 30
0.0001789211428825
 40
5.0
100
AcDbArc
 50
270.0
 51
357.9999999999961
  0
LINE
  5
18B
330
1F
100
AcDbEntity
  8
SICHTBAR
100
AcDbLine
 10
389.3323344195449
 20
640.9577234757842
 30
0.0001789211428825
 11
376.9238640523544
 21
619.4656223556021
 31
0.0001789211428825
  0
LINE
  5
18C
330
1F
100
AcDbEntity
  8
SICHTBAR
100
AcDbLine
 10
248.332334419545
 20
659.5557996871392
 30
0.0001789211428825
 11
263.5038905455112
 21
659.5557996871392
 31
0.0001789211428825
  0
LINE
  5
18D
330
1F
100
AcDbEntity
  8
SICHTBAR
100
AcDbLine
 10
233.1607782935825
 20
659.5557996871392
 30
0.0001789211428825
 11
248.332334419545
 21
659.5557996871392
 31
0.0001789211428825
  0
LINE
  5
18E
330
1F
100
AcDbEntity
  8
SICHTBAR
100
AcDbLine
 10
386.332334419545
 20
673.5557996871392
 30
0.0001789211428825
 11
389.3323344195449
 21
670.5557996871394
 31
0.0001789211428825
  0
LINE
  5
18F
330
1F
100
AcDbEntity
  8
SICHTBAR
100
AcDbLine
 10
227.8434436466632
 20
673.5557996871392
 30
0.0001789211428825
 11
228.1638241584841
 21
664.3813022036273
 31
0.0001789211428825
  0
LINE
  5
190
330
1F
100
AcDbEntity
  8
SICHTBAR
100
AcDbLine
 10
268.8212251924305
 20
673.5557996871392
 30
0.0001789211428825
 11
268.5008446806059
 21
664.3813022036273
 31
0.0001789211428825
  0
LINE
  5
191
330
1F
100
AcDbEntity
  8
SICHTBAR
100
AcDbLine
 10
268.8212251924305
 20
673.5557996871392
 30
0.0001789211428825
 11
386.332334419545
 21
673.5557996871392
 31
0.0001789211428825
  0
ENDSEC
  0
SECTION
  2
OBJECTS
  0
DICTIONARY
  5
C
330
0
100
AcDbDictionary
281
     1
  3
ACAD_COLOR
350
205
  3
ACAD_GROUP
350
D
  3
ACAD_LAYOUT
350
1A
  3
ACAD_MATERIAL
350
204
  3
ACAD_MLINESTYLE
350
17
  3
ACAD_PLOTSETTINGS
350
19
  3
ACAD_PLOTSTYLENAME
350
E
  3
ACAD_TABLESTYLE
350
206
  3
ACDBHEADERROUNDTRIPXREC
350
2BF
  3
ACDBVARIABLEDICTIONARY
350
34
  3
ACMDICTIONARY
350
47
  3
AMG
350
2B
  3
AMGSNAPSETTINGS
350
126
  3
DWGPROPS
350
2BE
  0
DICTIONARY
  5
1D2
330
1F
100
AcDbDictionary
280
     1
281
     1
  3
ACAD_INDEX
360
1D3
  3
ACAD_LAYOUTSELFREF
360
1FF
  0
DICTIONARY
  5
1FD
330
1B
100
AcDbDictionary
280
     1
281
     1
  3
ACAD_LAYOUTSELFREF
360
1FE
  0
DICTIONARY
  5
205
102
{ACAD_REACTORS
330
C
102
}
330
C
100
AcDbDictionary
281
     1
  0
DICTIONARY
  5
D
102
{ACAD_REACTORS
330
C
102
}
330
C
100
AcDbDictionary
281
     1
  0
DICTIONARY
  5
1A
102
{ACAD_REACTORS
330
C
102
}
330
C
100
AcDbDictionary
281
     1
  3
Layout1
350
209
  3
Model
350
208
  0
DICTIONARY
  5
204
102
{ACAD_REACTORS
330
C
102
}
330
C
100
AcDbDictionary
281
     1
  0
DICTIONARY
  5
17
102
{ACAD_REACTORS
330
C
102
}
330
C
100
AcDbDictionary
281
     1
  3
STANDARD
350
18
  0
DICTIONARY
  5
19
102
{ACAD_REACTORS
330
C
102
}
330
C
100
AcDbDictionary
281
     1
  0
ACDBDICTIONARYWDFLT
  5
E
102
{ACAD_REACTORS
330
C
102
}
330
C
100
AcDbDictionary
281
     1
  3
Normal
350
F
100
AcDbDictionaryWithDefault
340
F
  0
DICTIONARY
  5
206
102
{ACAD_REACTORS
330
C
102
}
330
C
100
AcDbDictionary
281
     1
  3
Standard
350
207
  0
DICTIONARY
  5
2BF
102
{ACAD_REACTORS
330
C
102
}
330
C
100
AcDbDictionary
281
     1
  0
DICTIONARY
  5
34
102
{ACAD_REACTORS
330
C
102
}
330
C
100
AcDbDictionary
281
     1
  3
CTABLESTYLE
350
2BA
  3
DIMASSOC
350
2BB
  3
INDEXCTL
350
35
  3
PROJECTNAME
350
2BC
  0
DICTIONARY
  5
47
102
{ACAD_REACTORS
330
C
102
}
330
C
100
AcDbDictionary
281
     1
  3
ACMSTDDICTIONARY
350
4C
  3
AMDTSECTSYM_ARROWCOLOR
350
27D
  0
DICTIONARY
  5
2B
102
{ACAD_REACTORS
330
C
102
}
330
C
100
AcDbDictionary
281
     1
  0
DICTIONARY
  5
126
102
{ACAD_REACTORS
330
C
102
}
330
C
100
AcDbDictionary
281
     1
  0
XRECORD
  5
2BE
102
{ACAD_REACTORS
330
C
102
}
330
C
100
AcDbXrecord
280
     1
  1
DWGPROPS COOKIE
  2

  3

  4

  6

  7

  8

  9

300
AmdtFileType=84
301
=
302
=
303
=
304
=
305
=
306
=
307
=
308
=
309
=
 40
0.0017370023148148
 41
2453464.964980729
 42
2454019.984629294
  1

 90
        1
  0
DICTIONARY
  5
1D3
102
{ACAD_REACTORS
330
1D2
102
}
330
1D2
100
AcDbDictionary
281
     1
  3
*A1
350
1D4
  0
XRECORD
  5
1FF
102
{ACAD_REACTORS
330
1D2
102
}
330
1D2
100
AcDbXrecord
280
     1
340
1F
  0
XRECORD
  5
1FE
102
{ACAD_REACTORS
330
1FD
102
}
330
1FD
100
AcDbXrecord
280
     1
340
1B
  0
LAYOUT
  5
209
102
{ACAD_XDICTIONARY
360
2C2
102
}
102
{ACAD_REACTORS
330
1A
102
}
330
1A
100
AcDbPlotSettings
  1

  2
Xerox Document Centre CS50 PS
  4

  6

 40
0.0
 41
0.0
 42
0.0
 43
0.0
 44
0.0
 45
0.0
 46
0.0
 47
0.0
 48
0.0
 49
0.0
140
0.0
141
0.0
142
1.0
143
1.0
 70
   688
 72
     0
 73
     0
 74
     5
  7

 75
    16
147
1.0
148
0.0
149
0.0
100
AcDbLayout
  1
Layout1
 70
     1
 71
     1
 10
0.0
 20
0.0
 11
420.0
 21
297.0
 12
0.0
 22
0.0
 32
0.0
 14
1.000000000000000E+20
 24
1.000000000000000E+20
 34
1.000000000000000E+20
 15
-1.000000000000000E+20
 25
-1.000000000000000E+20
 35
-1.000000000000000E+20
146
0.0
 13
0.0
 23
0.0
 33
0.0
 16
1.0
 26
0.0
 36
0.0
 17
0.0
 27
1.0
 37
0.0
 76
     0
330
1B
  0
LAYOUT
  5
208
102
{ACAD_XDICTIONARY
360
2C0
102
}
102
{ACAD_REACTORS
330
1A
102
}
330
1A
100
AcDbPlotSettings
  1

  2
Xerox Document Centre CS50 PS
  4

  6

 40
0.0
 41
0.0
 42
0.0
 43
0.0
 44
0.0
 45
0.0
 46
0.0
 47
0.0
 48
0.0
 49
0.0
140
0.0
141
0.0
142
1.0
143
1.0
 70
  1712
 72
     0
 73
     0
 74
     0
  7

 75
     0
147
1.0
148
0.0
149
0.0
100
AcDbLayout
  1
Model
 70
     1
 71
     0
 10
0.0
 20
0.0
 11
12.0
 21
9.0
 12
0.0
 22
0.0
 32
0.0
 14
0.0
 24
0.0
 34
0.0
 15
0.0
 25
0.0
 35
0.0
146
0.0
 13
0.0
 23
0.0
 33
0.0
 16
1.0
 26
0.0
 36
0.0
 17
0.0
 27
1.0
 37
0.0
 76
     0
330
1F
  0
MLINESTYLE
  5
18
102
{ACAD_REACTORS
330
17
102
}
330
17
100
AcDbMlineStyle
  2
STANDARD
 70
     0
  3

 62
   256
 51
90.0
 52
90.0
 71
     2
 49
0.5
 62
   256
  6
BYLAYER
 49
-0.5
 62
   256
  6
BYLAYER
  0
ACDBPLACEHOLDER
  5
F
102
{ACAD_REACTORS
330
E
102
}
330
E
  0
TABLESTYLE
  5
207
102
{ACAD_REACTORS
330
206
102
}
330
206
100
AcDbTableStyle
  3
Standard
 70
     0
 71
     0
 40
1.5
 41
1.5
280
     0
281
     0
  7
STANDARD
140
4.5
170
     2
 62
     0
 63
     7
283
     0
274
    -2
284
     1
 64
     0
275
    -2
285
     1
 65
     0
276
    -2
286
     1
 66
     0
277
    -2
287
     1
 67
     0
278
    -2
288
     1
 68
     0
279
    -2
289
     1
 69
     0
  7
STANDARD
140
6.0
170
     5
 62
     0
 63
     7
283
     0
274
    -2
284
     1
 64
     0
275
    -2
285
     1
 65
     0
276
    -2
286
     1
 66
     0
277
    -2
287
     1
 67
     0
278
    -2
288
     1
 68
     0
279
    -2
289
     1
 69
     0
  7
STANDARD
140
4.5
170
     5
 62
     0
 63
     7
283
     0
274
    -2
284
     1
 64
     0
275
    -2
285
     1
 65
     0
276
    -2
286
     1
 66
     0
277
    -2
287
     1
 67
     0
278
    -2
288
     1
 68
     0
279
    -2
289
     1
 69
     0
  0
DICTIONARYVAR
  5
2BA
102
{ACAD_REACTORS
330
34
102
}
330
34
100
DictionaryVariables
280
     0
  1
STANDARD
  0
DICTIONARYVAR
  5
2BB
102
{ACAD_REACTORS
330
34
102
}
330
34
100
DictionaryVariables
280
     0
  1
1
  0
DICTIONARYVAR
  5
35
102
{ACAD_REACTORS
330
34
102
}
330
34
100
DictionaryVariables
280
     0
  1
1
  0
DICTIONARYVAR
  5
2BC
102
{ACAD_REACTORS
330
34
102
}
330
34
100
DictionaryVariables
280
     0
  1

  0
DICTIONARY
  5
4C
102
{ACAD_REACTORS
330
47
102
}
330
47
100
AcDbDictionary
281
     1
  0
XRECORD
  5
27D
102
{ACAD_REACTORS
330
47
102
}
330
47
100
AcDbXrecord
280
     1
 90
-1023410169
  0
LAYER_INDEX
  5
1D4
102
{ACAD_REACTORS
330
1D3
102
}
330
1D3
100
AcDbIndex
 40
2454019.984629294
100
AcDbLayerIndex
  8
0
360
1D5
 90
        0
  8
DEFPOINTS
360
1D6
 90
        2
  8
SICHTBAR
360
1D7
 90
       98
  8
BEMASS
360
1D8
 90
        1
  8
5
360
1D9
 90
        3
  0
DICTIONARY
  5
2C2
330
209
100
AcDbDictionary
280
     1
281
     1
  3
ACAD_XREC_ROUNDTRIP
360
2C3
  0
DICTIONARY
  5
2C0
330
208
100
AcDbDictionary
280
     1
281
     1
  3
ACAD_XREC_ROUNDTRIP
360
2C1
  0
IDBUFFER
  5
1D5
330
0
100
AcDbIdBuffer
  0
IDBUFFER
  5
1D6
330
0
100
AcDbIdBuffer
330
179
330
17E
  0
IDBUFFER
  5
1D7
330
0
100
AcDbIdBuffer
330
12B
330
12C
330
12E
330
12F
330
130
330
131
330
133
330
134
330
135
330
136
330
137
330
138
330
139
330
13A
330
13B
330
13C
330
13D
330
13E
330
13F
330
140
330
141
330
142
330
143
330
144
330
145
330
146
330
147
330
148
330
149
330
14A
330
14B
330
14C
330
14D
330
14E
330
14F
330
150
330
151
330
152
330
153
330
154
330
155
330
156
330
157
330
158
330
159
330
15A
330
15B
330
15C
330
15D
330
15E
330
15F
330
160
330
161
330
162
330
163
330
164
330
165
330
166
330
167
330
168
330
169
330
16A
330
16B
330
16C
330
16D
330
16E
330
16F
330
170
330
171
330
172
330
173
330
174
330
175
330
176
330
177
330
178
330
17A
330
17B
330
17D
330
17F
330
180
330
181
330
182
330
183
330
184
330
185
330
186
330
187
330
188
330
189
330
18A
330
18B
330
18C
330
18D
330
18E
330
18F
330
190
330
191
  0
IDBUFFER
  5
1D8
330
0
100
AcDbIdBuffer
330
17C
  0
IDBUFFER
  5
1D9
330
0
100
AcDbIdBuffer
330
12A
330
12D
330
132
  0
XRECORD
  5
2C3
102
{ACAD_REACTORS
330
2C2
102
}
330
2C2
100
AcDbXrecord
280
     1
102
SHADEPLOT
 70
     0
102
SHADEPLOTRESLEVEL
 70
     2
102
SHADEPLOTCUSTOMDPI
 70
   300
  0
XRECORD
  5
2C1
102
{ACAD_REACTORS
330
2C0
102
}
330
2C0
100
AcDbXrecord
280
     1
102
SHADEPLOT
 70
     0
102
SHADEPLOTRESLEVEL
 70
     2
102
SHADEPLOTCUSTOMDPI
 70
   300
  0
ENDSEC
  0
EOF
