  0
SECTION
  2
HEADER
  9
$ACADVER
  1
AC1018
  9
$ACADMAINTVER
 70
   104
  9
$DWGCODEPAGE
  3
ANSI_1252
  9
$LASTSAVEDBY
  1
kbaersch
  9
$CUSTOMPROPERTYTAG
  1
AmdtFileType
  9
$CUSTOMPROPERTY
  1
84
  9
$INSBASE
 10
0.0
 20
0.0
 30
0.0
  9
$EXTMIN
 10
484.7494833665396
 20
-372.0079339596073
 30
-0.0000000349181948
  9
$EXTMAX
 10
924.9304628137457
 20
208.4597877494634
 30
0.0000000814935746
  9
$LIMMIN
 10
0.0
 20
0.0
  9
$LIMMAX
 10
420.0
 20
297.0
  9
$ORTHOMODE
 70
     0
  9
$REGENMODE
 70
     1
  9
$FILLMODE
 70
     1
  9
$QTEXTMODE
 70
     0
  9
$MIRRTEXT
 70
     1
  9
$LTSCALE
 40
1.0
  9
$ATTMODE
 70
     1
  9
$TEXTSIZE
 40
3.5
  9
$TRACEWID
 40
1.0
  9
$TEXTSTYLE
  7
STANDARD
  9
$CLAYER
  8
0
  9
$CELTYPE
  6
ByLayer
  9
$CECOLOR
 62
     3
  9
$CELTSCALE
 40
1.0
  9
$DISPSILH
 70
     0
  9
$DIMSCALE
 40
1.0
  9
$DIMASZ
 40
2.5
  9
$DIMEXO
 40
1.0
  9
$DIMDLI
 40
10.0
  9
$DIMRND
 40
0.0
  9
$DIMDLE
 40
0.0
  9
$DIMEXE
 40
1.0
  9
$DIMTP
 40
0.1
  9
$DIMTM
 40
0.1
  9
$DIMTXT
 40
3.5
  9
$DIMCEN
 40
0.0
  9
$DIMTSZ
 40
0.0
  9
$DIMTOL
 70
     0
  9
$DIMLIM
 70
     0
  9
$DIMTIH
 70
     0
  9
$DIMTOH
 70
     0
  9
$DIMSE1
 70
     0
  9
$DIMSE2
 70
     0
  9
$DIMTAD
 70
     1
  9
$DIMZIN
 70
     8
  9
$DIMBLK
  1

  9
$DIMASO
 70
     1
  9
$DIMSHO
 70
     1
  9
$DIMPOST
  1

  9
$DIMAPOST
  1
"
  9
$DIMALT
 70
     0
  9
$DIMALTD
 70
     2
  9
$DIMALTF
 40
0.0393701
  9
$DIMLFAC
 40
1.0
  9
$DIMTOFL
 70
     1
  9
$DIMTVP
 40
0.0
  9
$DIMTIX
 70
     0
  9
$DIMSOXD
 70
     0
  9
$DIMSAH
 70
     0
  9
$DIMBLK1
  1

  9
$DIMBLK2
  1

  9
$DIMSTYLE
  2
AM_DIN
  9
$DIMCLRD
 70
   256
  9
$DIMCLRE
 70
   256
  9
$DIMCLRT
 70
     2
  9
$DIMTFAC
 40
0.71
  9
$DIMGAP
 40
1.5
  9
$DIMJUST
 70
     0
  9
$DIMSD1
 70
     0
  9
$DIMSD2
 70
     0
  9
$DIMTOLJ
 70
     0
  9
$DIMTZIN
 70
     8
  9
$DIMALTZ
 70
     0
  9
$DIMALTTZ
 70
     0
  9
$DIMUPT
 70
     0
  9
$DIMDEC
 70
     0
  9
$DIMTDEC
 70
     3
  9
$DIMALTU
 70
     2
  9
$DIMALTTD
 70
     4
  9
$DIMTXSTY
  7
STANDARD
  9
$DIMAUNIT
 70
     0
  9
$DIMADEC
 70
     0
  9
$DIMALTRND
 40
0.0
  9
$DIMAZIN
 70
     2
  9
$DIMDSEP
 70
    46
  9
$DIMATFIT
 70
     3
  9
$DIMFRAC
 70
     0
  9
$DIMLDRBLK
  1

  9
$DIMLUNIT
 70
     2
  9
$DIMLWD
 70
    -1
  9
$DIMLWE
 70
    -1
  9
$DIMTMOVE
 70
     0
  9
$LUNITS
 70
     2
  9
$LUPREC
 70
     2
  9
$SKETCHINC
 40
1.0
  9
$FILLETRAD
 40
0.0
  9
$AUNITS
 70
     0
  9
$AUPREC
 70
     0
  9
$MENU
  1
.
  9
$ELEVATION
 40
0.0
  9
$PELEVATION
 40
0.0
  9
$THICKNESS
 40
0.0
  9
$LIMCHECK
 70
     0
  9
$CHAMFERA
 40
2.5
  9
$CHAMFERB
 40
2.5
  9
$CHAMFERC
 40
20.0
  9
$CHAMFERD
 40
0.0
  9
$SKPOLY
 70
     0
  9
$TDCREATE
 40
2452702.557501690
  9
$TDUCREATE
 40
2452702.474168357
  9
$TDUPDATE
 40
2456930.471485498
  9
$TDUUPDATE
 40
2456930.388152164
  9
$TDINDWG
 40
0.9014165741
  9
$TDUSRTIMER
 40
0.9014165741
  9
$USRTIMER
 70
     1
  9
$ANGBASE
 50
0.0
  9
$ANGDIR
 70
     0
  9
$PDMODE
 70
     0
  9
$PDSIZE
 40
0.0
  9
$PLINEWID
 40
0.0
  9
$SPLFRAME
 70
     0
  9
$SPLINETYPE
 70
     6
  9
$SPLINESEGS
 70
     8
  9
$HANDSEED
  5
4791
  9
$SURFTAB1
 70
     6
  9
$SURFTAB2
 70
     6
  9
$SURFTYPE
 70
     6
  9
$SURFU
 70
     6
  9
$SURFV
 70
     6
  9
$UCSBASE
  2

  9
$UCSNAME
  2

  9
$UCSORG
 10
0.0
 20
0.0
 30
0.0
  9
$UCSXDIR
 10
1.0
 20
0.0
 30
0.0
  9
$UCSYDIR
 10
0.0
 20
1.0
 30
0.0
  9
$UCSORTHOREF
  2

  9
$UCSORTHOVIEW
 70
     0
  9
$UCSORGTOP
 10
0.0
 20
0.0
 30
0.0
  9
$UCSORGBOTTOM
 10
0.0
 20
0.0
 30
0.0
  9
$UCSORGLEFT
 10
0.0
 20
0.0
 30
0.0
  9
$UCSORGRIGHT
 10
0.0
 20
0.0
 30
0.0
  9
$UCSORGFRONT
 10
0.0
 20
0.0
 30
0.0
  9
$UCSORGBACK
 10
0.0
 20
0.0
 30
0.0
  9
$PUCSBASE
  2

  9
$PUCSNAME
  2

  9
$PUCSORG
 10
0.0
 20
0.0
 30
0.0
  9
$PUCSXDIR
 10
1.0
 20
0.0
 30
0.0
  9
$PUCSYDIR
 10
0.0
 20
1.0
 30
0.0
  9
$PUCSORTHOREF
  2

  9
$PUCSORTHOVIEW
 70
     0
  9
$PUCSORGTOP
 10
0.0
 20
0.0
 30
0.0
  9
$PUCSORGBOTTOM
 10
0.0
 20
0.0
 30
0.0
  9
$PUCSORGLEFT
 10
0.0
 20
0.0
 30
0.0
  9
$PUCSORGRIGHT
 10
0.0
 20
0.0
 30
0.0
  9
$PUCSORGFRONT
 10
0.0
 20
0.0
 30
0.0
  9
$PUCSORGBACK
 10
0.0
 20
0.0
 30
0.0
  9
$USERI1
 70
     0
  9
$USERI2
 70
     0
  9
$USERI3
 70
     0
  9
$USERI4
 70
     0
  9
$USERI5
 70
     0
  9
$USERR1
 40
0.0
  9
$USERR2
 40
0.0
  9
$USERR3
 40
0.0
  9
$USERR4
 40
0.0
  9
$USERR5
 40
0.0
  9
$WORLDVIEW
 70
     1
  9
$SHADEDGE
 70
     3
  9
$SHADEDIF
 70
    70
  9
$TILEMODE
 70
     1
  9
$MAXACTVP
 70
    64
  9
$PINSBASE
 10
0.0
 20
0.0
 30
0.0
  9
$PLIMCHECK
 70
     0
  9
$PEXTMIN
 10
1.000000000000000E+20
 20
1.000000000000000E+20
 30
1.000000000000000E+20
  9
$PEXTMAX
 10
-1.000000000000000E+20
 20
-1.000000000000000E+20
 30
-1.000000000000000E+20
  9
$PLIMMIN
 10
0.0
 20
0.0
  9
$PLIMMAX
 10
420.0
 20
297.0
  9
$UNITMODE
 70
     0
  9
$VISRETAIN
 70
     1
  9
$PLINEGEN
 70
     0
  9
$PSLTSCALE
 70
     1
  9
$TREEDEPTH
 70
  3020
  9
$CMLSTYLE
  2
Standard
  9
$CMLJUST
 70
     0
  9
$CMLSCALE
 40
20.0
  9
$PROXYGRAPHICS
 70
     1
  9
$MEASUREMENT
 70
     1
  9
$CELWEIGHT
370
    -1
  9
$ENDCAPS
280
     0
  9
$JOINSTYLE
280
     0
  9
$LWDISPLAY
290
     0
  9
$INSUNITS
 70
     4
  9
$HYPERLINKBASE
  1

  9
$STYLESHEET
  1
monochrome.ctb
  9
$XEDIT
290
     1
  9
$CEPSNTYPE
380
     0
  9
$PSTYLEMODE
290
     1
  9
$FINGERPRINTGUID
  2
{D5091DE6-A8E7-4749-B1FA-F4240FAEB0F0}
  9
$VERSIONGUID
  2
{CF252B44-7648-4489-B56A-082513E3BE1C}
  9
$EXTNAMES
290
     1
  9
$PSVPSCALE
 40
0.0
  9
$OLESTARTUP
290
     0
  9
$SORTENTS
280
   127
  9
$INDEXCTL
280
     0
  9
$HIDETEXT
280
     0
  9
$XCLIPFRAME
290
     0
  9
$HALOGAP
280
     0
  9
$OBSCOLOR
 70
   257
  9
$OBSLTYPE
280
     0
  9
$INTERSECTIONDISPLAY
280
     0
  9
$INTERSECTIONCOLOR
 70
   257
  9
$DIMASSOC
280
     1
  9
$PROJECTNAME
  1

  0
ENDSEC
  0
SECTION
  2
CLASSES
  0
CLASS
  1
ACDBDICTIONARYWDFLT
  2
AcDbDictionaryWithDefault
  3
ObjectDBX Classes
 90
        0
 91
        1
280
     0
281
     0
  0
CLASS
  1
AMGSETTINGSOBJ
  2
AmgSettingsObj
  3
"AcadM|Product Description: AutoCAD Mechanical|Company: Autodesk, Inc."
 90
     1024
 91
        3
280
     0
281
     0
  0
CLASS
  1
ACME_DOCUMENT
  2
AcMeDbDoc
  3
AcMeServices
 90
     1024
 91
        2
280
     0
281
     0
  0
CLASS
  1
ACMESCOPE
  2
AcMeScope
  3
AcMeServices
 90
     1024
 91
        1
280
     0
281
     0
  0
CLASS
  1
ACMECOMMANDHISTORY
  2
AcMeCommandHistory
  3
AcMeServices
 90
     1024
 91
        1
280
     0
281
     0
  0
CLASS
  1
DICTIONARYVAR
  2
AcDbDictionaryVar
  3
ObjectDBX Classes
 90
        0
 91
        8
280
     0
281
     0
  0
CLASS
  1
ACIMSYSVARMAN
  2
AcImSysVarManager
  3
AcMeServices
 90
     1024
 91
        5
280
     0
281
     0
  0
CLASS
  1
ACIMREALSYSVAR
  2
AcImRealSysVar
  3
AcMeServices
 90
     1024
 91
        3
280
     0
281
     0
  0
CLASS
  1
ACIMINTSYSVAR
  2
AcImIntSysVar
  3
AcMeServices
 90
     1024
 91
       28
280
     0
281
     0
  0
CLASS
  1
ACMEDRAWINGMAN
  2
AcMeDrawingMan
  3
AcMeServices
 90
     1024
 91
        1
280
     0
281
     0
  0
CLASS
  1
ACMEVIEW
  2
AcMeView
  3
AcMeServices
 90
     1024
 91
        1
280
     0
281
     0
  0
CLASS
  1
ACDBENTITYCACHE
  2
AcMeEntityCache
  3
AcMeServices
 90
     1024
 91
        1
280
     0
281
     0
  0
CLASS
  1
GSMANAGER
  2
AcMeGSManager
  3
AcMeServices
 90
     1024
 91
        0
280
     0
281
     0
  0
CLASS
  1
AMDTINTERNALREACTOR
  2
AmdtInternalReactor
  3
AcMeServices
 90
     1024
 91
        5
280
     0
281
     0
  0
CLASS
  1
ACMESTATEMGR
  2
AcMeStateMgr
  3
AcMeServices
 90
     1024
 91
        1
280
     0
281
     0
  0
CLASS
  1
ACGREFMASTER
  2
AcGrefMaster
  3
AcAttribServices
 90
     1024
 91
        1
280
     0
281
     0
  0
CLASS
  1
ACME_DATABASE
  2
AcMeDbDatabase
  3
AcMeServices
 90
     1024
 91
        1
280
     0
281
     0
  0
CLASS
  1
ACRFINSADJUSTERMGR
  2
AcRfInsAdjusterMgr
  3
AcMeServices
 90
     1024
 91
        1
280
     0
281
     0
  0
CLASS
  1
ACGREFACADMASTER
  2
AcGrefacadMaster
  3
AcGrefServices
 90
     1024
 91
        1
280
     0
281
     0
  0
CLASS
  1
AMIMASTER
  2
AmiMaster
  3
AmiServices
 90
     1024
 91
        1
280
     0
281
     0
  0
CLASS
  1
ACMDATADICTIONARY
  2
AcmDataDictionary
  3
"AcmSymBB|Product Description: AutoCAD Mechanical|Company: Autodesk, Inc."
 90
     1024
 91
        1
280
     0
281
     0
  0
CLASS
  1
ACMDATAENTRYBLOCK
  2
AcmDataEntryBlock
  3
AcmSymBB|Product Description: AutoCAD Mechanical|Company: Autodesk, Inc.
 90
     1024
 91
        1
280
     0
281
     0
  0
CLASS
  1
ACIMSTRSYSVAR
  2
AcImStrSysVar
  3
AcMeServices
 90
     1024
 91
        5
280
     0
281
     0
  0
CLASS
  1
ACMSTANDARDDIN
  2
AcmStandardDIN
  3
"Amdt_StdImp|Product Description: AutoCAD Mechanical|Company: Autodesk, Inc."
 90
     1024
 91
        1
280
     0
281
     0
  0
CLASS
  1
AMGOBJPROPCFG
  2
AmgObjPropCfg
  3
"AmgLay|Product Description: AutoCAD Mechanical|Company: Autodesk, Inc."
 90
     1025
 91
        1
280
     0
281
     0
  0
CLASS
  1
AMDTEDGESTANDARDDIN
  2
AmdtEdgeStdDIN
  3
"Amdt_StdImp|Product Description: AutoCAD Mechanical|Company: Autodesk, Inc."
 90
     1024
 91
        1
280
     0
281
     0
  0
CLASS
  1
ACMSURFSTANDARDDIN
  2
AcmSurfTextStdDIN
  3
"Amdt_StdImp|Product Description: AutoCAD Mechanical|Company: Autodesk, Inc."
 90
     1024
 91
        1
280
     0
281
     0
  0
CLASS
  1
ACMFCFSTANDARDDIN
  2
AcmFCFStdDIN
  3
"Amdt_StdImp|Product Description: AutoCAD Mechanical|Company: Autodesk, Inc."
 90
     1024
 91
        1
280
     0
281
     0
  0
CLASS
  1
ACMWELDSTANDARDDIN
  2
AcmWeldingStdDIN
  3
"Amdt_StdImp|Product Description: AutoCAD Mechanical|Company: Autodesk, Inc."
 90
     1024
 91
        1
280
     0
281
     0
  0
CLASS
  1
ACMIDSTANDARDDIN
  2
AcmIdStdDIN
  3
"Amdt_StdImp|Product Description: AutoCAD Mechanical|Company: Autodesk, Inc."
 90
     1024
 91
        1
280
     0
281
     0
  0
CLASS
  1
ACMDATUMSTANDARDDIN
  2
AcmDatumStdDIN
  3
"Amdt_StdImp|Product Description: AutoCAD Mechanical|Company: Autodesk, Inc."
 90
     1024
 91
        1
280
     0
281
     0
  0
CLASS
  1
ACMBOMSTANDARDDIN
  2
AcmBOMStdDIN
  3
"Amdt_StdImp|Product Description: AutoCAD Mechanical|Company: Autodesk, Inc."
 90
     1024
 91
        1
280
     0
281
     0
  0
CLASS
  1
ACMDETAILSTANDARDDIN
  2
AmdtDetailSymStdDIN
  3
"Amdt_StdImp|Product Description: AutoCAD Mechanical|Company: Autodesk, Inc."
 90
     1024
 91
        1
280
     0
281
     0
  0
CLASS
  1
ACMSECTIONSTANDARDDIN
  2
AmdtSectionSymStdDIN
  3
"Amdt_StdImp|Product Description: AutoCAD Mechanical|Company: Autodesk, Inc."
 90
     1024
 91
        1
280
     0
281
     0
  0
CLASS
  1
ACMCENTERLINESTANDARDDIN
  2
AmdtCenterLineStdDIN
  3
"Amdt_StdImp|Product Description: AutoCAD Mechanical|Company: Autodesk, Inc."
 90
     1024
 91
        1
280
     0
281
     0
  0
CLASS
  1
ACAMGLAYSTD
  2
AcAmgLayStd
  3
"AmgLay|Product Description: AutoCAD Mechanical|Company: Autodesk, Inc."
 90
     1024
 91
        2
280
     0
281
     0
  0
CLASS
  1
ACAMGDIMSTD
  2
AcAmgDimStd
  3
"AmgDim|Product Description: AutoCAD Mechanical|Company: Autodesk, Inc."
 90
     1024
 91
        2
280
     0
281
     0
  0
CLASS
  1
ACAMGTITLESTD
  2
AcAmgTitleStd
  3
"AmgTitle|Product Description: AutoCAD Mechanical|Company: Autodesk, Inc."
 90
     4095
 91
        2
280
     0
281
     0
  0
CLASS
  1
LAYER_INDEX
  2
AcDbLayerIndex
  3
ObjectDBX Classes
 90
        0
 91
        0
280
     0
281
     0
  0
CLASS
  1
IDBUFFER
  2
AcDbIdBuffer
  3
ObjectDBX Classes
 90
        0
 91
        0
280
     0
281
     0
  0
CLASS
  1
ACAMGFILTERDAT
  2
AcAmgFilterDat
  3
"AcadM|Product Description: AutoCAD Mechanical|Company: Autodesk, Inc."
 90
     1024
 91
        6
280
     0
281
     0
  0
CLASS
  1
TABLESTYLE
  2
AcDbTableStyle
  3
ObjectDBX Classes
 90
     4095
 91
        1
280
     0
281
     0
  0
CLASS
  1
AM_DRAWING_MGR
  2
AcDmDwgMgr
  3
AcMechDwgViewMgmt
 90
     1024
 91
        1
280
     0
281
     0
  0
CLASS
  1
AM_DWG_DOCUMENT
  2
AcDmDwgDocument
  3
AcMechDwgViewMgmt
 90
     1024
 91
        1
280
     0
281
     0
  0
CLASS
  1
AM_DWG_SHEET
  2
AcDmSheet
  3
AcMechDwgViewMgmt
 90
     1024
 91
        2
280
     0
281
     0
  0
CLASS
  1
AM_VIEWDIMPARMAP
  2
AcDmViewDimParMap
  3
AcMechDwgViewMgmt
 90
     1024
 91
        2
280
     0
281
     0
  0
CLASS
  1
AM_DWGMGR_NAME
  2
AcDmDwgMgrName
  3
AcMechDwgViewMgmt
 90
     1024
 91
        1
280
     0
281
     0
  0
CLASS
  1
AMDTMENUSTATEMGR
  2
AmdtMenuStateMgr
  3
McadcomServices
 90
     1024
 91
        1
280
     0
281
     0
  0
CLASS
  1
AMDTMCOMMENUSTATE
  2
AmdtMcomMenuState
  3
McadcomServices
 90
     1024
 91
        1
280
     0
281
     0
  0
CLASS
  1
MAPIAMMOUDLE
  2
MApiAmModule
  3
MApiAmServices
 90
     1024
 91
        1
280
     0
281
     0
  0
CLASS
  1
AMDTADMENUSTATE
  2
AmdtAdMenuState
  3
DesignerServices
 90
     1024
 91
        1
280
     0
281
     0
  0
CLASS
  1
ADAPPL
  2
AcAdAppl
  3
DesignerServices
 90
     1024
 91
        1
280
     0
281
     0
  0
CLASS
  1
DEPMGR
  2
AcAdDepMgr
  3
DesignerServices
 90
     1024
 91
        1
280
     0
281
     0
  0
CLASS
  1
PARAMMGR
  2
AcAdParamMgr
  3
DesignerServices
 90
     1024
 91
        1
280
     0
281
     0
  0
CLASS
  1
PARAMSCOPE
  2
AcAdParamScope
  3
DesignerServices
 90
     1024
 91
        1
280
     0
281
     0
  0
CLASS
  1
NAMEDAPPL
  2
AcAdNamedAppl
  3
DesignerServices
 90
     1024
 91
        1
280
     0
281
     0
  0
CLASS
  1
AMDTDMMENUSTATE
  2
AmdtDmMenuState
  3
AcMechDwgViewMgmt
 90
     1024
 91
        1
280
     0
281
     0
  0
CLASS
  1
AMDTAMMENUSTATE
  2
AmdtAmMenuState
  3
DesignerAssemblies
 90
     1024
 91
        1
280
     0
281
     0
  0
CLASS
  1
ACAMPROJECT
  2
AcAmProject
  3
DesignerAssemblies
 90
     1024
 91
        1
280
     0
281
     0
  0
CLASS
  1
ACAMGRCOMPDEF
  2
AcAmGrCompDef
  3
DesignerAssemblies
 90
     1024
 91
        1
280
     0
281
     0
  0
CLASS
  1
ACCMCONTEXT
  2
AcCmContext
  3
DesignerAssemblies
 90
     1024
 91
        1
280
     0
281
     0
  0
CLASS
  1
ACAMCOMPDEF
  2
AcAmCompDef
  3
DesignerAssemblies
 90
     1024
 91
        1
280
     0
281
     0
  0
CLASS
  1
ACAMCOMPDEFMGR
  2
AcAmCompDefMgr
  3
DesignerAssemblies
 90
     1024
 91
        1
280
     0
281
     0
  0
CLASS
  1
AMCONTEXTMGR
  2
AcAmContextMgr
  3
DesignerAssemblies
 90
     1024
 91
        1
280
     0
281
     0
  0
CLASS
  1
ACAMCONTEXTMODELER
  2
AcAmContextModeler
  3
DesignerAssemblies
 90
     1024
 91
        1
280
     0
281
     0
  0
CLASS
  1
ACMTHREADLINESTANDARDDIN
  2
AmdtThreadLineStdDIN
  3
"Amdt_StdImp|Product Description: AutoCAD Mechanical|Company: Autodesk, Inc."
 90
     1024
 91
        1
280
     0
281
     0
  0
CLASS
  1
ACMNOTESTANDARDDIN
  2
AmdtNoteStdDIN
  3
"Amdt_StdImp|Product Description: AutoCAD Mechanical|Company: Autodesk, Inc."
 90
     1024
 91
        1
280
     0
281
     0
  0
CLASS
  1
AMDTNOTETEMPLATEDB
  2
AmdtNoteTemplateDB
  3
AcmSymBB|Product Description: AutoCAD Mechanical|Company: Autodesk, Inc.
 90
     1024
 91
       10
280
     0
281
     0
  0
CLASS
  1
CATALOGSTATE
  2
AcAmCatalogState
  3
DesignerAssemblies
 90
     1024
 91
        1
280
     0
281
     0
  0
CLASS
  1
ACAMGRCOMPDEFSET
  2
AcAmGrCompDefSet
  3
DesignerAssemblies
 90
     1024
 91
        1
280
     0
281
     0
  0
CLASS
  1
AMDTBROWSERDBTAB
  2
AmdtBrowserDbTab
  3
McadcomServices
 90
     1024
 91
        1
280
     0
281
     0
  0
CLASS
  1
CBROWSERAPPOBJECT
  2
CBrowserAppObject
  3
McadcomServices
 90
     1024
 91
        2
280
     0
281
     0
  0
CLASS
  1
DM_PLACEHOLDER
  2
AcDmSelsetPlaceholder
  3
AcMechDwgViewMgmt
 90
     1024
 91
        1
280
     0
281
     0
  0
CLASS
  1
ACMSTANDARDANSI
  2
AcmStandardANSI
  3
"Amdt_StdImp|Product Description: AutoCAD Mechanical|Company: Autodesk, Inc."
 90
     1024
 91
        1
280
     0
281
     0
  0
CLASS
  1
ACMSURFSTANDARDANSI
  2
AcmSurfTextStdANSI
  3
"Amdt_StdImp|Product Description: AutoCAD Mechanical|Company: Autodesk, Inc."
 90
     1024
 91
        1
280
     0
281
     0
  0
CLASS
  1
ACMFCFSTANDARDANSI
  2
AcmFCFStdANSI
  3
"Amdt_StdImp|Product Description: AutoCAD Mechanical|Company: Autodesk, Inc."
 90
     1024
 91
        1
280
     0
281
     0
  0
CLASS
  1
ACMWELDSTANDARDANSI
  2
AcmWeldingStdANSI
  3
"Amdt_StdImp|Product Description: AutoCAD Mechanical|Company: Autodesk, Inc."
 90
     1024
 91
        1
280
     0
281
     0
  0
CLASS
  1
ACMIDSTANDARDANSI
  2
AcmIdStdANSI
  3
"Amdt_StdImp|Product Description: AutoCAD Mechanical|Company: Autodesk, Inc."
 90
     1024
 91
        1
280
     0
281
     0
  0
CLASS
  1
ACMDATUMSTANDARDANSI
  2
AcmDatumStdANSI
  3
"Amdt_StdImp|Product Description: AutoCAD Mechanical|Company: Autodesk, Inc."
 90
     1024
 91
        1
280
     0
281
     0
  0
CLASS
  1
ACMBOMSTANDARDANSI
  2
AcmBOMStdANSI
  3
"Amdt_StdImp|Product Description: AutoCAD Mechanical|Company: Autodesk, Inc."
 90
     1024
 91
        1
280
     0
281
     0
  0
CLASS
  1
ACMDETAILSTANDARDANSI
  2
AmdtDetailSymStdANSI
  3
"Amdt_StdImp|Product Description: AutoCAD Mechanical|Company: Autodesk, Inc."
 90
     1024
 91
        1
280
     0
281
     0
  0
CLASS
  1
ACMSECTIONSTANDARDANSI
  2
AmdtSectionSymStdANSI
  3
"Amdt_StdImp|Product Description: AutoCAD Mechanical|Company: Autodesk, Inc."
 90
     1024
 91
        1
280
     0
281
     0
  0
CLASS
  1
ACMCENTERLINESTANDARDANSI
  2
AmdtCenterLineStdANSI
  3
"Amdt_StdImp|Product Description: AutoCAD Mechanical|Company: Autodesk, Inc."
 90
     1024
 91
        1
280
     0
281
     0
  0
CLASS
  1
ACMTHREADLINESTANDARDANSI
  2
AmdtThreadLineStdANSI
  3
"Amdt_StdImp|Product Description: AutoCAD Mechanical|Company: Autodesk, Inc."
 90
     1024
 91
        1
280
     0
281
     0
  0
CLASS
  1
ACMNOTESTANDARDANSI
  2
AmdtNoteStdANSI
  3
"Amdt_StdImp|Product Description: AutoCAD Mechanical|Company: Autodesk, Inc."
 90
     1024
 91
        1
280
     0
281
     0
  0
CLASS
  1
SORTENTSTABLE
  2
AcDbSortentsTable
  3
ObjectDBX Classes
 90
        0
 91
        1
280
     0
281
     0
  0
CLASS
  1
STDPART2D
  2
AmgStdPart
  3
AmgStdPart|Product Description: AutoCAD Mechanical|Company: Autodesk, Inc.
 90
     4095
 91
        0
280
     0
281
     1
  0
CLASS
  1
ACAMSTDPCOMPDEF
  2
AcAmStdpCompDef
  3
DesignerAssemblies
 90
     1024
 91
        0
280
     0
281
     0
  0
CLASS
  1
ACRFATTGENMGR
  2
AcRfAttGeneralMgr
  3
AcAttribServices
 90
     1024
 91
        1
280
     0
281
     0
  0
CLASS
  1
ACRFOBJATTMGR
  2
AcRfObjAttGroupMgr
  3
AcAttribServices
 90
     1024
 91
        1
280
     0
281
     0
  0
CLASS
  1
ACRFMCADAPIATTHOLDER
  2
AcRfMCADAPIAttHolder
  3
AcAttribServices
 90
     1024
 91
        1
280
     0
281
     0
  0
CLASS
  1
AMDTSYSATTR
  2
AmdtSystemAttribute
  3
AcAttribServices
 90
     1024
 91
        1
280
     0
281
     0
  0
CLASS
  1
ACAMCOMP
  2
AcAmComp
  3
DesignerAssemblies
 90
     1024
 91
        0
280
     0
281
     0
  0
CLASS
  1
AC_AM_STDP_VIEW_DEF
  2
AcAmStdpViewDef
  3
DesignerAssemblies
 90
     1024
 91
        0
280
     0
281
     0
  0
CLASS
  1
AC_AM_MVD_DEP_MGR
  2
AcAmMVDdepMgr
  3
DesignerAssemblies
 90
     1024
 91
        1
280
     0
281
     0
  0
CLASS
  1
AC_AM_MASTER_VIEW_DEF
  2
AcAmMasterViewDef
  3
DesignerAssemblies
 90
     1024
 91
        1
280
     0
281
     0
  0
CLASS
  1
AC_AM_DIRTY_NODES
  2
AcAmDirtyNodes
  3
DesignerAssemblies
 90
     1024
 91
        1
280
     0
281
     0
  0
CLASS
  1
AC_AM_MAPPER_CACHE
  2
AcAmMapperCache
  3
DesignerAssemblies
 90
     1024
 91
        1
280
     0
281
     0
  0
CLASS
  1
ACAMMVDBACKUPOBJECT
  2
AcAmMVDBackupObject
  3
DesignerAssemblies
 90
     1024
 91
        1
280
     0
281
     0
  0
CLASS
  1
AC_AM_COMP_VIEW_INST
  2
AcAmCompView
  3
DesignerAssemblies
 90
     1024
 91
        0
280
     0
281
     0
  0
CLASS
  1
AC_AM_2D_XREF_MGR
  2
AcAmXrefMgr2d
  3
DesignerAssemblies
 90
     1024
 91
        1
280
     0
281
     0
  0
CLASS
  1
AC_AM_HIDE_SITUATION
  2
AcAmHideSituation
  3
DesignerAssemblies
 90
     1024
 91
        0
280
     0
281
     0
  0
CLASS
  1
OBJCLONER
  2
ObjCloner
  3
DesignerAssemblies
 90
     1024
 91
        0
280
     0
281
     1
  0
CLASS
  1
ACDBLINERES
  2
AcDbLineRes
  3
AcGrefServices
 90
     1024
 91
        7
280
     0
281
     0
  0
CLASS
  1
ACMWELDSYM
  2
AcmWelding
  3
"AcmSymBB|Product Description: AutoCAD Mechanical|Company: Autodesk, Inc."
 90
     4095
 91
        5
280
     0
281
     1
  0
CLASS
  1
AMDTNOTE
  2
AmdtNote
  3
"AcmSymBB|Product Description: AutoCAD Mechanical|Company: Autodesk, Inc."
 90
     4095
 91
        9
280
     0
281
     1
  0
CLASS
  1
AMDTFORMULAUPDATEDISPATCHER
  2
AmdtFormulaUpdateDispatcher
  3
AcMeServices
 90
     1024
 91
        0
280
     0
281
     0
  0
CLASS
  1
MATERIAL
  2
AcDbMaterial
  3
ObjectDBX Classes
 90
     1153
 91
        3
280
     0
281
     0
  0
CLASS
  1
VISUALSTYLE
  2
AcDbVisualStyle
  3
ObjectDBX Classes
 90
     4095
 91
       19
280
     0
281
     0
  0
CLASS
  1
SCALE
  2
AcDbScale
  3
ObjectDBX Classes
 90
     1153
 91
       17
280
     0
281
     0
  0
CLASS
  1
MLEADERSTYLE
  2
AcDbMLeaderStyle
  3
ACDB_MLEADERSTYLE_CLASS
 90
     4095
 91
        1
280
     0
281
     0
  0
CLASS
  1
ACMTAPERSTANDARDDIN
  2
AcmTaperStdDIN
  3
"Amdt_StdImp|Product Description: AutoCAD Mechanical|Company: Autodesk, Inc."
 90
     1024
 91
        1
280
     0
281
     0
  0
CLASS
  1
ACMANOOTATIONVIEWSTANDARDDIN
  2
AmdtAnViewStdDIN
  3
"Amdt_StdImp|Product Description: AutoCAD Mechanical|Company: Autodesk, Inc."
 90
     1024
 91
        1
280
     0
281
     0
  0
CLASS
  1
ACMTAPERSTANDARDANSI
  2
AcmTaperStdANSI
  3
"Amdt_StdImp|Product Description: AutoCAD Mechanical|Company: Autodesk, Inc."
 90
     1024
 91
        1
280
     0
281
     0
  0
CLASS
  1
ACMANOOTATIONVIEWSTANDARDANSI
  2
AmdtAnViewStdANSI
  3
"Amdt_StdImp|Product Description: AutoCAD Mechanical|Company: Autodesk, Inc."
 90
     1024
 91
        1
280
     0
281
     0
  0
CLASS
  1
EXACXREFPANELOBJECT
  2
ExAcXREFPanelObject
  3
EXAC_ESW
 90
     1025
 91
        1
280
     0
281
     0
  0
CLASS
  1
NPOCOLLECTION
  2
AcDbImpNonPersistentObjectsCollection
  3
ObjectDBX Classes
 90
     1153
 91
        1
280
     0
281
     0
  0
CLASS
  1
AEC_REFEDIT_STATUS_TRACKER
  2
AecDbRefEditStatusTracker
  3
AecArchBase60|Product Desc: Autodesk Architectural Desktop 2007 |Company: Autodesk,Inc. |WEB Address: www.autodesk.com
 90
      129
 91
        1
280
     0
281
     0
  0
CLASS
  1
IMAGE
  2
AcDbRasterImage
  3
ISM
 90
     2175
 91
        1
280
     0
281
     1
  0
CLASS
  1
IMAGEDEF_REACTOR
  2
AcDbRasterImageDefReactor
  3
ISM
 90
        1
 91
        1
280
     0
281
     0
  0
CLASS
  1
IMAGEDEF
  2
AcDbRasterImageDef
  3
ISM
 90
        0
 91
        1
280
     0
281
     0
  0
CLASS
  1
RASTERVARIABLES
  2
AcDbRasterVariables
  3
ISM
 90
        0
 91
        1
280
     0
281
     0
  0
CLASS
  1
ACDBCIRCARCRES
  2
AcDbCircArcRes
  3
AcGrefServices
 90
     1024
 91
        2
280
     0
281
     0
  0
CLASS
  1
CELLSTYLEMAP
  2
AcDbCellStyleMap
  3
ObjectDBX Classes
 90
     1152
 91
        2
280
     0
281
     0
  0
CLASS
  1
ACAMWBLOCKTEMPENTS
  2
AcAmStructInOutTempObjsHolder
  3
DesignerAssemblies
 90
     1024
 91
        0
280
     0
281
     0
  0
CLASS
  1
CAMSSTRUCTBTNSTATE
  2
StructBtnState
  3
DesignerAssemblies
 90
     1024
 91
        1
280
     0
281
     0
  0
ENDSEC
  0
SECTION
  2
TABLES
  0
TABLE
  2
VPORT
  5
8
330
0
100
AcDbSymbolTable
 70
     1
  0
VPORT
  5
319D
330
8
100
AcDbSymbolTableRecord
100
AcDbViewportTableRecord
  2
*Active
 70
     0
 10
0.0
 20
0.0
 11
1.0
 21
1.0
 12
655.3783804175059
 22
8.221567312883621
 13
0.0
 23
0.0
 14
2.5
 24
2.5
 15
10.0
 25
10.0
 16
0.0
 26
0.0
 36
1.0
 17
0.0
 27
0.0
 37
0.0
 40
934.3842575096303
 41
1.90382626680455
 42
50.0
 43
0.0
 44
0.0
 50
0.0
 51
0.0
 71
     0
 72
   100
 73
     1
 74
     3
 75
     0
 76
     0
 77
     0
 78
     0
281
     0
 65
     1
110
0.0
120
0.0
130
0.0
111
1.0
121
0.0
131
0.0
112
0.0
122
1.0
132
0.0
 79
     0
146
0.0
  0
ENDTAB
  0
TABLE
  2
LTYPE
  5
5
330
0
100
AcDbSymbolTable
 70
    37
  0
LTYPE
  5
14
330
5
100
AcDbSymbolTableRecord
100
AcDbLinetypeTableRecord
  2
ByBlock
 70
     0
  3

 72
    65
 73
     0
 40
0.0
  0
LTYPE
  5
15
330
5
100
AcDbSymbolTableRecord
100
AcDbLinetypeTableRecord
  2
ByLayer
 70
     0
  3

 72
    65
 73
     0
 40
0.0
  0
LTYPE
  5
16
330
5
100
AcDbSymbolTableRecord
100
AcDbLinetypeTableRecord
  2
Continuous
 70
     0
  3
Solid line
 72
    65
 73
     0
 40
0.0
  0
LTYPE
  5
52
330
5
100
AcDbSymbolTableRecord
100
AcDbLinetypeTableRecord
  2
Amconstr
 70
     0
  3
_______________________
 72
    65
 73
     2
 40
9999.0
 49
9999.0
 74
     0
 49
0.0
 74
     0
  0
LTYPE
  5
57
330
5
100
AcDbSymbolTableRecord
100
AcDbLinetypeTableRecord
  2
Amzigzag
 70
     0
  3
/\/-/\/-/\/-/\/-/\/-/\/
 72
    65
 73
     2
 40
11.0001
 49
0.0001
 74
     4
 75
   135
340
56
 46
0.04
 50
0.0
 44
0.0
 45
0.0
 49
-11.0
 74
     0
  0
LTYPE
  5
58
330
5
100
AcDbSymbolTableRecord
100
AcDbLinetypeTableRecord
  2
AM_DIN_F_W050
 70
     0
  3
__ __ __ __ __ __ __ __ __ __ __ __ __ __ __
 72
    65
 73
     2
 40
6.25
 49
4.75
 74
     0
 49
-1.5
 74
     0
  0
LTYPE
  5
59
330
5
100
AcDbSymbolTableRecord
100
AcDbLinetypeTableRecord
  2
AM_DIN_G_W050
 70
     0
  3
____ . ____ . ____ . ____ . ____ . ____ . ____
 72
    65
 73
     4
 40
13.75
 49
9.75
 74
     0
 49
-1.5
 74
     0
 49
1.0
 74
     0
 49
-1.5
 74
     0
  0
LTYPE
  5
5A
330
5
100
AcDbSymbolTableRecord
100
AcDbLinetypeTableRecord
  2
AM_DIN_K_W050
 70
     0
  3
_____ . . _____ . . _____ . . ____ .. ____
 72
    65
 73
     6
 40
16.25
 49
9.75
 74
     0
 49
-1.5
 74
     0
 49
1.0
 74
     0
 49
-1.5
 74
     0
 49
1.0
 74
     0
 49
-1.5
 74
     0
  0
LTYPE
  5
5B
330
5
100
AcDbSymbolTableRecord
100
AcDbLinetypeTableRecord
  2
AM_DIN_G_W050x2
 70
     0
  3
__ . __ . __ . __ . __ . __
 72
    65
 73
     4
 40
6.875
 49
4.75
 74
     0
 49
-0.875
 74
     0
 49
0.375
 74
     0
 49
-0.875
 74
     0
  0
LTYPE
  5
5C
330
5
100
AcDbSymbolTableRecord
100
AcDbLinetypeTableRecord
  2
AM_DIN_F_W050x2
 70
     0
  3
 _ _ _ _ _ _ _ _ _ _ _ _
 72
    65
 73
     2
 40
3.125
 49
2.25
 74
     0
 49
-0.875
 74
     0
  0
LTYPE
  5
69
330
5
100
AcDbSymbolTableRecord
100
AcDbLinetypeTableRecord
  2
ACDINWELD
 70
     0
  3
_ _ _ _ _
 72
    65
 73
     2
 40
2.0
 49
2.0
 74
     0
 49
-1.0
 74
     0
  0
LTYPE
  5
6A
330
5
100
AcDbSymbolTableRecord
100
AcDbLinetypeTableRecord
  2
ACDINTGB
 70
     0
  3
__ . . __ . .
 72
    65
 73
     6
 40
9.0
 49
4.0
 74
     0
 49
-1.0
 74
     0
 49
1.0
 74
     0
 49
-1.0
 74
     0
 49
1.0
 74
     0
 49
-1.0
 74
     0
  0
LTYPE
  5
6B
330
5
100
AcDbSymbolTableRecord
100
AcDbLinetypeTableRecord
  2
ACDINTGL
 70
     0
  3
_ _ _ _ _
 72
    65
 73
     2
 40
3.0
 49
2.0
 74
     0
 49
-1.0
 74
     0
  0
LTYPE
  5
6D
330
5
100
AcDbSymbolTableRecord
100
AcDbLinetypeTableRecord
  2
CENTER
 70
     0
  3
__ . __
 72
    65
 73
     4
 40
7.0
 49
4.0
 74
     0
 49
-1.0
 74
     0
 49
1.0
 74
     0
 49
-1.0
 74
     0
  0
LTYPE
  5
260
330
5
100
AcDbSymbolTableRecord
100
AcDbLinetypeTableRecord
  2
STRICHPUNKT
 70
     0
  3
Strichpunkt __ . __ . __ . __ . __ . __ . __ . 
 72
    65
 73
     4
 40
25.4
 49
12.7
 74
     0
 49
-6.349999999999999
 74
     0
 49
0.0
 74
     0
 49
-6.349999999999999
 74
     0
  0
LTYPE
  5
261
330
5
100
AcDbSymbolTableRecord
100
AcDbLinetypeTableRecord
  2
STRICHLINIE
 70
     0
  3
Strichlinie __ __ __ __ __ __ __ __ __ __ __ __
 72
    65
 73
     2
 40
19.05
 49
12.7
 74
     0
 49
-6.349999999999999
 74
     0
  0
LTYPE
  5
D08
330
5
100
AcDbSymbolTableRecord
100
AcDbLinetypeTableRecord
  2
HIDDEN
 70
     0
  3
Verdeckt
 72
    65
 73
     2
 40
9.525
 49
6.349999999999999
 74
     0
 49
-3.174999999999999
 74
     0
  0
LTYPE
  5
D09
330
5
100
AcDbSymbolTableRecord
100
AcDbLinetypeTableRecord
  2
PHANTOM2
 70
     0
  3
Phantom (.5x) ___ _ _ ___ _ _ ___ _ _ ___ _ _
 72
    65
 73
     6
 40
31.75
 49
15.875
 74
     0
 49
-3.174999999999999
 74
     0
 49
3.174999999999999
 74
     0
 49
-3.174999999999999
 74
     0
 49
3.174999999999999
 74
     0
 49
-3.174999999999999
 74
     0
  0
LTYPE
  5
DE5
330
5
100
AcDbSymbolTableRecord
100
AcDbLinetypeTableRecord
  2
HIDDEN2
 70
     0
  3
Hidden (.5x) _ _ _ _ _ _ _ _ _ _ _ _ _ _ _ _ _
 72
    65
 73
     2
 40
0.1875
 49
0.125
 74
     0
 49
-0.0625
 74
     0
  0
LTYPE
  5
DE7
330
5
100
AcDbSymbolTableRecord
100
AcDbLinetypeTableRecord
  2
ACANSTGB
 70
     0
  3
__ . . __ . .
 72
    65
 73
     6
 40
0.35433070866
 49
0.15748031496
 74
     0
 49
-0.03937007874
 74
     0
 49
0.03937007874
 74
     0
 49
-0.03937007874
 74
     0
 49
0.03937007874
 74
     0
 49
-0.03937007874
 74
     0
  0
LTYPE
  5
DE8
330
5
100
AcDbSymbolTableRecord
100
AcDbLinetypeTableRecord
  2
ACANSTGL
 70
     0
  3
_ _ _ _ _
 72
    65
 73
     2
 40
0.11811023622
 49
0.07874015748
 74
     0
 49
-0.03937007874
 74
     0
  0
ENDTAB
  0
TABLE
  2
LAYER
  5
2
102
{ACAD_XDICTIONARY
360
E07
102
}
330
0
100
AcDbSymbolTable
 70
    31
  0
LAYER
  5
10
102
{ACAD_XDICTIONARY
360
3532
102
}
330
2
100
AcDbSymbolTableRecord
100
AcDbLayerTableRecord
  2
0
 70
     0
 62
     7
  6
Continuous
370
    -3
390
F
  0
LAYER
  5
262
102
{ACAD_XDICTIONARY
360
3534
102
}
330
2
100
AcDbSymbolTableRecord
100
AcDbLayerTableRecord
  2
P-0000
 70
     0
 62
     7
  6
Continuous
370
    -3
390
F
  0
LAYER
  5
265
330
2
100
AcDbSymbolTableRecord
100
AcDbLayerTableRecord
  2
Defpoints
 70
     0
 62
     7
  6
Continuous
290
     0
370
    -3
390
F
  0
LAYER
  5
13D6
102
{ACAD_XDICTIONARY
360
354E
102
}
330
2
100
AcDbSymbolTableRecord
100
AcDbLayerTableRecord
  2
AM_7
 70
     0
 62
     4
  6
AM_DIN_G_W050
370
    25
390
F
  0
LAYER
  5
13F4
102
{ACAD_XDICTIONARY
360
3550
102
}
330
2
100
AcDbSymbolTableRecord
100
AcDbLayerTableRecord
  2
AM_5
 70
     0
 62
     3
  6
Continuous
370
    25
390
F
  0
ENDTAB
  0
TABLE
  2
STYLE
  5
3
330
0
100
AcDbSymbolTable
 70
    18
  0
STYLE
  5
11
330
3
100
AcDbSymbolTableRecord
100
AcDbTextStyleTableRecord
  2
STANDARD
 70
     0
 40
0.0
 41
1.0
 50
0.0
 71
     0
 42
3.5
  3
ISOCP.SHX
  4

  0
STYLE
  5
56
330
3
100
AcDbSymbolTableRecord
100
AcDbTextStyleTableRecord
  2

 70
     1
 40
0.0
 41
1.0
 50
0.0
 71
     0
 42
2.5
  3
ltypeshp.shx
  4

  0
STYLE
  5
5D
330
3
100
AcDbSymbolTableRecord
100
AcDbTextStyleTableRecord
  2
ACDINTS
 70
     0
 40
1.0
 41
1.0
 50
0.0
 71
     0
 42
2.5
  3
isocp.shx
  4

  0
STYLE
  5
68
330
3
100
AcDbSymbolTableRecord
100
AcDbTextStyleTableRecord
  2
ACDINGDT
 70
     0
 40
0.0
 41
1.0
 50
0.0
 71
     0
 42
2.5
  3
amgdt.shx
  4

  0
STYLE
  5
DFC
330
3
100
AcDbSymbolTableRecord
100
AcDbTextStyleTableRecord
  2
ACANSTS
 70
     0
 40
1.0
 41
1.0
 50
0.0
 71
     0
 42
2.0
  3
romans.shx
  4

  0
STYLE
  5
DFD
330
3
100
AcDbSymbolTableRecord
100
AcDbTextStyleTableRecord
  2
ACANSGDT
 70
     0
 40
0.0
 41
1.0
 50
0.0
 71
     0
 42
2.0
  3
amgdtans.shx
  4

  0
ENDTAB
  0
TABLE
  2
VIEW
  5
6
330
0
100
AcDbSymbolTable
 70
     5
  0
ENDTAB
  0
TABLE
  2
UCS
  5
7
330
0
100
AcDbSymbolTable
 70
     0
  0
ENDTAB
  0
TABLE
  2
APPID
  5
9
330
0
100
AcDbSymbolTable
 70
    53
  0
APPID
  5
12
330
9
100
AcDbSymbolTableRecord
100
AcDbRegAppTableRecord
  2
ACAD
 70
     0
  0
APPID
  5
30
330
9
100
AcDbSymbolTableRecord
100
AcDbRegAppTableRecord
  2
MCAD_NO_VIS
 70
     0
  0
APPID
  5
31
330
9
100
AcDbSymbolTableRecord
100
AcDbRegAppTableRecord
  2
ACAD_TEMP_GRAPHIC
 70
     0
  0
APPID
  5
44
330
9
100
AcDbSymbolTableRecord
100
AcDbRegAppTableRecord
  2
ACATTRIBSERVICES
 70
     0
  0
APPID
  5
269
330
9
100
AcDbSymbolTableRecord
100
AcDbRegAppTableRecord
  2
ACME_LAYERS
 70
     0
  0
APPID
  5
D0B
330
9
100
AcDbSymbolTableRecord
100
AcDbRegAppTableRecord
  2
AD_DRAW
 70
     0
  0
APPID
  5
D29
330
9
100
AcDbSymbolTableRecord
100
AcDbRegAppTableRecord
  2
DESIGNERASSEMBLIES
 70
     0
  0
APPID
  5
D34
330
9
100
AcDbSymbolTableRecord
100
AcDbRegAppTableRecord
  2
ACADM_DIM_EDIT
 70
     0
  0
APPID
  5
D35
330
9
100
AcDbSymbolTableRecord
100
AcDbRegAppTableRecord
  2
AMDT_DM_ADJ
 70
     0
  0
APPID
  5
D44
330
9
100
AcDbSymbolTableRecord
100
AcDbRegAppTableRecord
  2
GENIUS_GENBLLY_14
 70
     0
  0
APPID
  5
D45
330
9
100
AcDbSymbolTableRecord
100
AcDbRegAppTableRecord
  2
GENIUS_GENCFG_13
 70
     0
  0
APPID
  5
D46
330
9
100
AcDbSymbolTableRecord
100
AcDbRegAppTableRecord
  2
GENIUS_GENCFG0_13
 70
     0
  0
APPID
  5
D47
330
9
100
AcDbSymbolTableRecord
100
AcDbRegAppTableRecord
  2
GENIUS_GENCFG1_13
 70
     0
  0
APPID
  5
D48
330
9
100
AcDbSymbolTableRecord
100
AcDbRegAppTableRecord
  2
GENIUS_GENCFG2_13
 70
     0
  0
APPID
  5
D49
330
9
100
AcDbSymbolTableRecord
100
AcDbRegAppTableRecord
  2
GENIUS_GENCFG3_13
 70
     0
  0
APPID
  5
D4A
330
9
100
AcDbSymbolTableRecord
100
AcDbRegAppTableRecord
  2
GENIUS_GENCFG4_13
 70
     0
  0
APPID
  5
D4B
330
9
100
AcDbSymbolTableRecord
100
AcDbRegAppTableRecord
  2
GENIUS_VERSION2
 70
     0
  0
APPID
  5
D4C
330
9
100
AcDbSymbolTableRecord
100
AcDbRegAppTableRecord
  2
GENIUS_GENOENT_13
 70
     0
  0
APPID
  5
D4D
330
9
100
AcDbSymbolTableRecord
100
AcDbRegAppTableRecord
  2
GENIUS_GENCFG5_13
 70
     0
  0
APPID
  5
D4E
330
9
100
AcDbSymbolTableRecord
100
AcDbRegAppTableRecord
  2
GENIUS_GEVCFG0_13
 70
     0
  0
APPID
  5
D4F
330
9
100
AcDbSymbolTableRecord
100
AcDbRegAppTableRecord
  2
GENIUS_GENREC_14
 70
     0
  0
APPID
  5
D50
330
9
100
AcDbSymbolTableRecord
100
AcDbRegAppTableRecord
  2
GENIUS_GENODEF_13
 70
     0
  0
APPID
  5
D51
330
9
100
AcDbSymbolTableRecord
100
AcDbRegAppTableRecord
  2
GENIUS_GENOBJ-N-REC_13
 70
     0
  0
APPID
  5
13D8
330
9
100
AcDbSymbolTableRecord
100
AcDbRegAppTableRecord
  2
GENIUS_GENOBJ-N-CEN_13
 70
     0
  0
APPID
  5
13D9
330
9
100
AcDbSymbolTableRecord
100
AcDbRegAppTableRecord
  2
GENIUS_GENCEN_19
 70
     0
  0
APPID
  5
13EF
330
9
100
AcDbSymbolTableRecord
100
AcDbRegAppTableRecord
  2
GENIUS_GENOBJ-N-CRS_13
 70
     0
  0
APPID
  5
13F0
330
9
100
AcDbSymbolTableRecord
100
AcDbRegAppTableRecord
  2
GENIUS_GENOLIS_13
 70
     0
  0
APPID
  5
13F1
330
9
100
AcDbSymbolTableRecord
100
AcDbRegAppTableRecord
  2
GENIUS_GENOREF_13
 70
     0
  0
APPID
  5
162A
330
9
100
AcDbSymbolTableRecord
100
AcDbRegAppTableRecord
  2
ACAD_PSEXT
 70
     0
  0
APPID
  5
16F0
330
9
100
AcDbSymbolTableRecord
100
AcDbRegAppTableRecord
  2
GENIUS_GEFWELD_13
 70
     0
  0
APPID
  5
16F3
330
9
100
AcDbSymbolTableRecord
100
AcDbRegAppTableRecord
  2
GENIUS_GENOBJ-F-WELS_13
 70
     0
  0
APPID
  5
1D2D
330
9
100
AcDbSymbolTableRecord
100
AcDbRegAppTableRecord
  2
GEVID1122456745
 70
     0
  0
APPID
  5
1D2E
330
9
100
AcDbSymbolTableRecord
100
AcDbRegAppTableRecord
  2
GEVDC
 70
     0
  0
APPID
  5
1D49
330
9
100
AcDbSymbolTableRecord
100
AcDbRegAppTableRecord
  2
AMG_2DHIDE
 70
     0
  0
APPID
  5
1D4A
330
9
100
AcDbSymbolTableRecord
100
AcDbRegAppTableRecord
  2
AMG_2DSTRUCT_BTR
 70
     0
  0
APPID
  5
1D5B
330
9
100
AcDbSymbolTableRecord
100
AcDbRegAppTableRecord
  2
ACADM_2DVIEW_IGN_NOTIFY
 70
     0
  0
APPID
  5
1DAC
330
9
100
AcDbSymbolTableRecord
100
AcDbRegAppTableRecord
  2
GEVID1122456746
 70
     0
  0
APPID
  5
1EE9
330
9
100
AcDbSymbolTableRecord
100
AcDbRegAppTableRecord
  2
GEVID1122456748
 70
     0
  0
APPID
  5
1F20
330
9
100
AcDbSymbolTableRecord
100
AcDbRegAppTableRecord
  2
GEVID1122456749
 70
     0
  0
APPID
  5
1FDF
330
9
100
AcDbSymbolTableRecord
100
AcDbRegAppTableRecord
  2
GEVID1122456750
 70
     0
  0
APPID
  5
204C
330
9
100
AcDbSymbolTableRecord
100
AcDbRegAppTableRecord
  2
GEVID1122456751
 70
     0
  0
APPID
  5
2246
330
9
100
AcDbSymbolTableRecord
100
AcDbRegAppTableRecord
  2
GEVID1122456752
 70
     0
  0
APPID
  5
22CD
330
9
100
AcDbSymbolTableRecord
100
AcDbRegAppTableRecord
  2
GEVID1122456753
 70
     0
  0
APPID
  5
23BF
330
9
100
AcDbSymbolTableRecord
100
AcDbRegAppTableRecord
  2
GEVID1122463505
 70
     0
  0
APPID
  5
24A8
330
9
100
AcDbSymbolTableRecord
100
AcDbRegAppTableRecord
  2
GENIUS_GENDTOL_13
 70
     0
  0
APPID
  5
2878
330
9
100
AcDbSymbolTableRecord
100
AcDbRegAppTableRecord
  2
GENIUS_GENOBJ-N-HTC_13
 70
     0
  0
APPID
  5
2879
330
9
100
AcDbSymbolTableRecord
100
AcDbRegAppTableRecord
  2
GENIUS_GENHATCH_13
 70
     0
  0
APPID
  5
2FFD
330
9
100
AcDbSymbolTableRecord
100
AcDbRegAppTableRecord
  2
ACAD_DSTYLE_DIMARC_LENGTH_SYMBOL
 70
     0
  0
APPID
  5
2FFE
330
9
100
AcDbSymbolTableRecord
100
AcDbRegAppTableRecord
  2
ACAD_DSTYLE_DIMJOGGED_JOGANGLE_SYMBOL
 70
     0
  0
APPID
  5
30B1
330
9
100
AcDbSymbolTableRecord
100
AcDbRegAppTableRecord
  2
AcAecLayerStandard
 70
     0
  0
APPID
  5
31DC
330
9
100
AcDbSymbolTableRecord
100
AcDbRegAppTableRecord
  2
ACAD_MLEADERVER
 70
     0
  0
APPID
  5
3224
330
9
100
AcDbSymbolTableRecord
100
AcDbRegAppTableRecord
  2
ACAD_EXEMPT_FROM_CAD_STANDARDS
 70
     0
  0
APPID
  5
3308
330
9
100
AcDbSymbolTableRecord
100
AcDbRegAppTableRecord
  2
ACAD_DSTYLE_DIMINSPECT
 70
     0
  0
ENDTAB
  0
TABLE
  2
DIMSTYLE
  5
A
330
0
100
AcDbSymbolTable
 70
    24
100
AcDbDimStyleTable
 71
     1
340
70
  0
DIMSTYLE
105
70
330
A
100
AcDbSymbolTableRecord
100
AcDbDimStyleTableRecord
  2
AM_DIN
 70
     0
  4
"
 41
2.5
 42
1.0
 43
10.0
 44
1.0
 47
0.1
 48
0.1
 73
     0
 74
     0
 77
     1
 78
     8
 79
     2
140
3.5
141
0.0
143
0.0393701
146
0.71
147
1.5
172
     1
176
   256
177
   256
178
     2
271
     2
272
     3
274
     4
283
     0
284
     8
340
11
371
    -1
372
    -1
1001
ACAD_DSTYLE_DIMJOGGED_JOGANGLE_SYMBOL
1070
   384
1040
1.570796326794896
  0
DIMSTYLE
105
71
330
A
100
AcDbSymbolTableRecord
100
AcDbDimStyleTableRecord
  2
AM_DIN$3
 70
     0
  4
"
 41
2.5
 42
1.0
 43
10.0
 44
1.0
 47
0.1
 48
0.1
 73
     0
 77
     1
 78
     8
 79
     2
140
3.5
141
0.0
143
0.0393701
146
0.71
147
1.5
176
   256
177
   256
178
     2
271
     2
272
     3
274
     4
283
     0
284
     8
288
     1
289
     0
340
11
371
    -1
372
    -1
1001
ACAD_DSTYLE_DIMJOGGED_JOGANGLE_SYMBOL
1070
   384
1040
1.570796326794896
  0
DIMSTYLE
105
72
330
A
100
AcDbSymbolTableRecord
100
AcDbDimStyleTableRecord
  2
AM_DIN$4
 70
     0
  4
"
 41
2.5
 42
1.0
 43
10.0
 44
1.0
 47
0.1
 48
0.1
 73
     0
 77
     1
 78
     8
 79
     2
140
3.5
141
0.0
143
0.0393701
146
0.71
147
1.5
176
   256
177
   256
178
     2
271
     2
272
     3
274
     4
283
     0
284
     8
288
     1
289
     0
340
11
371
    -1
372
    -1
1001
ACAD_DSTYLE_DIMJOGGED_JOGANGLE_SYMBOL
1070
   384
1040
1.570796326794896
  0
DIMSTYLE
105
73
330
A
100
AcDbSymbolTableRecord
100
AcDbDimStyleTableRecord
  2
AM_DIN$6
 70
     0
  4
"
 41
2.5
 42
1.0
 43
10.0
 44
1.0
 47
0.1
 48
0.1
 73
     0
 74
     0
 78
     8
 79
     2
140
3.5
141
0.0
143
0.0393701
146
0.71
147
1.5
172
     1
176
   256
177
   256
178
     2
271
     2
272
     3
274
     4
283
     0
284
     8
340
11
371
    -1
372
    -1
1001
ACAD_DSTYLE_DIMJOGGED_JOGANGLE_SYMBOL
1070
   384
1040
1.570796326794896
  0
DIMSTYLE
105
74
330
A
100
AcDbSymbolTableRecord
100
AcDbDimStyleTableRecord
  2
AM_DIN$7
 70
     0
  4
"
 41
2.5
 42
1.0
 43
10.0
 44
1.0
 47
0.1
 48
0.1
 73
     0
 74
     0
 77
     1
 78
     8
 79
     2
140
5.0
141
0.0
143
0.0393701
146
0.71
147
1.5
172
     1
176
   256
177
   256
178
     2
271
     2
272
     3
274
     4
283
     0
284
     8
340
11
371
    -1
372
    -1
1001
ACAD_DSTYLE_DIMJOGGED_JOGANGLE_SYMBOL
1070
   384
1040
1.570796326794896
  0
DIMSTYLE
105
75
330
A
100
AcDbSymbolTableRecord
100
AcDbDimStyleTableRecord
  2
AM_DIN$SF
 70
     0
  4
"
 41
2.5
 42
1.0
 43
10.0
 44
1.0
 47
0.1
 48
0.1
 73
     0
 74
     0
 75
     1
 76
     1
 77
     1
 78
     8
 79
     2
140
3.5
141
0.0
143
0.0393701
146
0.71
147
1.5
172
     1
176
   256
177
   256
178
     2
271
     2
272
     3
274
     4
283
     0
284
     8
340
11
371
    -1
372
    -1
1001
ACAD_DSTYLE_DIMJOGGED_JOGANGLE_SYMBOL
1070
   384
1040
1.570796326794896
  0
DIMSTYLE
105
7A
330
A
100
AcDbSymbolTableRecord
100
AcDbDimStyleTableRecord
  2
AM_DIN$SH
 70
     0
  4
"
 41
2.5
 42
1.0
 43
10.0
 44
1.0
 47
0.1
 48
0.1
 73
     0
 74
     0
 75
     1
 76
     1
 77
     1
 78
     8
 79
     2
140
3.5
141
0.0
143
0.0393701
144
2.0
146
0.71
147
1.5
172
     1
173
     1
176
   256
177
   256
178
     2
271
     2
272
     3
274
     4
283
     0
284
     8
340
11
343
76
371
    -1
372
    -1
1001
ACAD_DSTYLE_DIMJOGGED_JOGANGLE_SYMBOL
1070
   384
1040
1.570796326794896
  0
DIMSTYLE
105
D43
330
A
100
AcDbSymbolTableRecord
100
AcDbDimStyleTableRecord
  2
STANDARD
 70
     0
340
11
  0
DIMSTYLE
105
E00
330
A
100
AcDbSymbolTableRecord
100
AcDbDimStyleTableRecord
  2
AM_ANSI
 70
     0
  4
mm
 41
0.1
 42
0.05
 43
0.5
 44
0.1
 47
0.1
 48
0.1
 78
     7
 79
     2
140
0.12
141
0.0
146
0.71
147
0.06
176
   256
177
   256
178
     2
274
     4
284
     7
340
11
371
    -1
372
    -1
1001
ACAD_DSTYLE_DIMJOGGED_JOGANGLE_SYMBOL
1070
   384
1040
0.7853981633974483
1001
ACAD_DSTYLE_DIMARC_LENGTH_SYMBOL
1070
   379
1070
     1
  0
DIMSTYLE
105
E01
330
A
100
AcDbSymbolTableRecord
100
AcDbDimStyleTableRecord
  2
AM_ANSI$3
 70
     0
  4
mm
 41
0.1
 42
0.05
 43
0.5
 44
0.1
 47
0.1
 48
0.1
 78
     7
 79
     2
140
0.12
141
0.0
146
0.71
147
0.06
176
   256
177
   256
178
     2
274
     4
284
     7
288
     1
289
     0
340
11
371
    -1
372
    -1
1001
ACAD_DSTYLE_DIMJOGGED_JOGANGLE_SYMBOL
1070
   384
1040
0.7853981633974483
1001
ACAD_DSTYLE_DIMARC_LENGTH_SYMBOL
1070
   379
1070
     1
  0
DIMSTYLE
105
E02
330
A
100
AcDbSymbolTableRecord
100
AcDbDimStyleTableRecord
  2
AM_ANSI$4
 70
     0
  4
mm
 41
0.1
 42
0.05
 43
0.5
 44
0.1
 47
0.1
 48
0.1
 78
     7
 79
     2
140
0.12
141
0.0
146
0.71
147
0.06
176
   256
177
   256
178
     2
274
     4
284
     7
288
     1
289
     0
340
11
371
    -1
372
    -1
1001
ACAD_DSTYLE_DIMJOGGED_JOGANGLE_SYMBOL
1070
   384
1040
0.7853981633974483
1001
ACAD_DSTYLE_DIMARC_LENGTH_SYMBOL
1070
   379
1070
     1
  0
DIMSTYLE
105
E03
330
A
100
AcDbSymbolTableRecord
100
AcDbDimStyleTableRecord
  2
AM_ANSI$7
 70
     0
  4
mm
 41
0.1
 42
0.05
 43
0.5
 44
0.1
 47
0.1
 48
0.1
 78
     7
 79
     2
140
0.24
141
0.0
146
0.71
147
0.06
176
   256
177
   256
178
     2
274
     4
284
     7
340
11
371
    -1
372
    -1
1001
ACAD_DSTYLE_DIMJOGGED_JOGANGLE_SYMBOL
1070
   384
1040
0.7853981633974483
1001
ACAD_DSTYLE_DIMARC_LENGTH_SYMBOL
1070
   379
1070
     1
  0
DIMSTYLE
105
E04
330
A
100
AcDbSymbolTableRecord
100
AcDbDimStyleTableRecord
  2
AM_ANSI$SF
 70
     0
  4
mm
 41
0.1
 42
0.05
 43
0.5
 44
0.1
 47
0.1
 48
0.1
 75
     1
 76
     1
 78
     7
 79
     2
140
0.12
141
0.0
146
0.71
147
0.06
176
   256
177
   256
178
     2
274
     4
284
     7
340
11
371
    -1
372
    -1
1001
ACAD_DSTYLE_DIMJOGGED_JOGANGLE_SYMBOL
1070
   384
1040
0.7853981633974483
1001
ACAD_DSTYLE_DIMARC_LENGTH_SYMBOL
1070
   379
1070
     1
  0
DIMSTYLE
105
E05
330
A
100
AcDbSymbolTableRecord
100
AcDbDimStyleTableRecord
  2
AM_ANSI$SH
 70
     0
  4
mm
 41
0.1
 42
0.05
 43
0.5
 44
0.1
 47
0.1
 48
0.1
 75
     1
 76
     1
 78
     7
 79
     2
140
0.12
141
0.0
146
0.71
147
0.06
173
     1
176
   256
177
   256
178
     2
274
     4
284
     7
340
11
343
76
371
    -1
372
    -1
1001
ACAD_DSTYLE_DIMJOGGED_JOGANGLE_SYMBOL
1070
   384
1040
0.7853981633974483
1001
ACAD_DSTYLE_DIMARC_LENGTH_SYMBOL
1070
   379
1070
     1
  0
DIMSTYLE
105
1400
102
{ACAD_REACTORS
330
3A9B
330
3AE4
330
3AE5
330
452F
330
3C2F
330
3B0A
330
458E
330
3B22
330
3B35
330
3B52
330
3B3E
330
3BBC
330
3BC6
330
3B67
330
3A83
330
45C8
330
4560
102
}
330
A
100
AcDbSymbolTableRecord
100
AcDbDimStyleTableRecord
  2
AM_DIN$0
 70
     0
  4
"
 41
2.5
 42
1.0
 43
10.0
 44
1.0
 47
0.1
 48
0.1
 73
     0
 74
     0
 77
     1
 78
     8
 79
     2
140
3.5
141
0.0
143
0.0393701
146
0.71
147
1.5
172
     1
176
   256
177
   256
178
     2
271
     2
272
     3
274
     4
283
     0
284
     8
340
11
371
    -1
372
    -1
1001
ACAD_DSTYLE_DIMJOGGED_JOGANGLE_SYMBOL
1070
   384
1040
1.570796326794896
  0
ENDTAB
  0
TABLE
  2
BLOCK_RECORD
  5
1
330
0
100
AcDbSymbolTable
 70
    53
  0
BLOCK_RECORD
  5
1F
102
{ACAD_XDICTIONARY
360
81
102
}
330
1
100
AcDbSymbolTableRecord
100
AcDbBlockTableRecord
  2
*Model_Space
340
22
  0
BLOCK_RECORD
  5
1B
330
1
100
AcDbSymbolTableRecord
100
AcDbBlockTableRecord
  2
*Paper_Space
340
1E
  0
BLOCK_RECORD
  5
23
330
1
100
AcDbSymbolTableRecord
100
AcDbBlockTableRecord
  2
*Paper_Space0
340
26
  0
BLOCK_RECORD
  5
76
330
1
100
AcDbSymbolTableRecord
100
AcDbBlockTableRecord
  2
GENAXEH
340
0
  0
BLOCK_RECORD
  5
3D25
330
1
100
AcDbSymbolTableRecord
100
AcDbBlockTableRecord
  2
*D8
340
0
  0
BLOCK_RECORD
  5
3D3D
330
1
100
AcDbSymbolTableRecord
100
AcDbBlockTableRecord
  2
*D10
340
0
  0
BLOCK_RECORD
  5
3D99
330
1
100
AcDbSymbolTableRecord
100
AcDbBlockTableRecord
  2
*D17
340
0
  0
BLOCK_RECORD
  5
3DA5
330
1
100
AcDbSymbolTableRecord
100
AcDbBlockTableRecord
  2
*D18
340
0
  0
BLOCK_RECORD
  5
3DB1
330
1
100
AcDbSymbolTableRecord
100
AcDbBlockTableRecord
  2
*D19
340
0
  0
BLOCK_RECORD
  5
3DCB
330
1
100
AcDbSymbolTableRecord
100
AcDbBlockTableRecord
  2
*D21
340
0
  0
BLOCK_RECORD
  5
3DD7
330
1
100
AcDbSymbolTableRecord
100
AcDbBlockTableRecord
  2
*D22
340
0
  0
BLOCK_RECORD
  5
3DE3
330
1
100
AcDbSymbolTableRecord
100
AcDbBlockTableRecord
  2
*D23
340
0
  0
BLOCK_RECORD
  5
3DEF
330
1
100
AcDbSymbolTableRecord
100
AcDbBlockTableRecord
  2
*D24
340
0
  0
BLOCK_RECORD
  5
3E09
330
1
100
AcDbSymbolTableRecord
100
AcDbBlockTableRecord
  2
*D25
340
0
  0
BLOCK_RECORD
  5
3E2F
330
1
100
AcDbSymbolTableRecord
100
AcDbBlockTableRecord
  2
*D28
340
0
  0
BLOCK_RECORD
  5
3E3B
330
1
100
AcDbSymbolTableRecord
100
AcDbBlockTableRecord
  2
*D29
340
0
  0
BLOCK_RECORD
  5
3E47
330
1
100
AcDbSymbolTableRecord
100
AcDbBlockTableRecord
  2
*D30
340
0
  0
BLOCK_RECORD
  5
3E8F
330
1
100
AcDbSymbolTableRecord
100
AcDbBlockTableRecord
  2
*D36
340
0
  0
BLOCK_RECORD
  5
4530
330
1
100
AcDbSymbolTableRecord
100
AcDbBlockTableRecord
  2
*D47
340
0
  0
BLOCK_RECORD
  5
4561
330
1
100
AcDbSymbolTableRecord
100
AcDbBlockTableRecord
  2
*D48
340
0
  0
BLOCK_RECORD
  5
458F
330
1
100
AcDbSymbolTableRecord
100
AcDbBlockTableRecord
  2
*D50
340
0
  0
BLOCK_RECORD
  5
45C9
330
1
100
AcDbSymbolTableRecord
100
AcDbBlockTableRecord
  2
*D51
340
0
  0
ENDTAB
  0
ENDSEC
  0
SECTION
  2
BLOCKS
  0
BLOCK
  5
20
330
1F
100
AcDbEntity
  8
0
100
AcDbBlockBegin
  2
*Model_Space
 70
     0
 10
0.0
 20
0.0
 30
0.0
  3
*Model_Space
  1

  0
ENDBLK
  5
21
330
1F
100
AcDbEntity
  8
0
100
AcDbBlockEnd
  0
BLOCK
  5
1C
330
1B
100
AcDbEntity
 67
     1
  8
0
100
AcDbBlockBegin
  2
*Paper_Space
 70
     0
 10
0.0
 20
0.0
 30
0.0
  3
*Paper_Space
  1

  0
ENDBLK
  5
1D
330
1B
100
AcDbEntity
 67
     1
  8
0
100
AcDbBlockEnd
  0
BLOCK
  5
24
330
23
100
AcDbEntity
 67
     1
  8
0
100
AcDbBlockBegin
  2
*Paper_Space0
 70
     0
 10
0.0
 20
0.0
 30
0.0
  3
*Paper_Space0
  1

  0
ENDBLK
  5
25
330
23
100
AcDbEntity
 67
     1
  8
0
100
AcDbBlockEnd
  0
BLOCK
  5
78
330
76
100
AcDbEntity
  8
0
100
AcDbBlockBegin
  2
GENAXEH
 70
     0
 10
0.0
 20
0.0
 30
0.0
  3
GENAXEH
  1

  0
LINE
  5
77
330
76
100
AcDbEntity
  8
0
100
AcDbLine
 10
-1.0
 20
0.0
 30
0.0
 11
1.0
 21
0.0
 31
0.0
  0
ENDBLK
  5
79
330
76
100
AcDbEntity
  8
0
100
AcDbBlockEnd
  0
BLOCK
  5
3D26
330
3D25
100
AcDbEntity
  8
0
 62
     3
100
AcDbBlockBegin
  2
*D8
 70
     1
 10
0.0
 20
0.0
 30
0.0
  3
*D8
  1

  0
LINE
  5
46C0
330
3D25
100
AcDbEntity
  8
AM_5
100
AcDbLine
 10
542.250109655153
 20
163.7483660043698
 30
0.0
 11
492.8931080328012
 21
163.7483660043698
 31
0.0
  0
LINE
  5
46C1
330
3D25
100
AcDbEntity
  8
AM_5
100
AcDbLine
 10
552.0898556173086
 20
-111.2516339956302
 30
0.0
 11
492.8931080328011
 21
-111.2516339956302
 31
0.0
  0
LINE
  5
46C2
330
3D25
100
AcDbEntity
  8
AM_5
100
AcDbLine
 10
493.8931080328011
 20
161.2483660043698
 30
0.0
 11
493.8931080328011
 21
-108.7516339956301
 31
0.0
  0
SOLID
  5
46C3
330
3D25
100
AcDbEntity
  8
AM_5
100
AcDbTrace
 10
493.4764413661345
 20
161.2483660043698
 30
0.0
 11
494.3097746994679
 21
161.2483660043698
 31
0.0
 12
493.8931080328011
 22
163.7483660043698
 32
0.0
 13
493.8931080328011
 23
163.7483660043698
 33
0.0
  0
SOLID
  5
46C4
330
3D25
100
AcDbEntity
  8
AM_5
100
AcDbTrace
 10
493.4764413661344
 20
-108.7516339956301
 30
0.0
 11
494.3097746994678
 21
-108.7516339956301
 31
0.0
 12
493.8931080328011
 22
-111.2516339956302
 32
0.0
 13
493.8931080328011
 23
-111.2516339956302
 33
0.0
  0
MTEXT
  5
46C5
330
3D25
100
AcDbEntity
  8
AM_5
 62
     2
100
AcDbMText
 10
488.3923206312263
 20
37.89984896346391
 30
0.0
 40
8.0
 41
0.0
 71
     5
 72
     1
  1
275
 11
0.0000000000000001
 21
1.0
 31
0.0
 73
     1
 44
1.0
  0
POINT
  5
46C6
330
3D25
100
AcDbEntity
  8
Defpoints
 62
     0
100
AcDbPoint
 10
543.2501096551531
 20
163.7483660043698
 30
0.0
  0
POINT
  5
46C7
330
3D25
100
AcDbEntity
  8
Defpoints
 62
     0
100
AcDbPoint
 10
553.0898556173085
 20
-111.2516339956302
 30
0.0
  0
POINT
  5
46C8
330
3D25
100
AcDbEntity
  8
Defpoints
 62
     0
100
AcDbPoint
 10
493.8931080328011
 20
-111.2516339956302
 30
0.0
  0
ENDBLK
  5
3D27
330
3D25
100
AcDbEntity
  8
0
 62
     3
100
AcDbBlockEnd
  0
BLOCK
  5
3D3E
330
3D3D
100
AcDbEntity
  8
0
 62
     3
100
AcDbBlockBegin
  2
*D10
 70
     1
 10
0.0
 20
0.0
 30
0.0
  3
*D10
  1

  0
LINE
  5
462E
330
3D3D
100
AcDbEntity
  8
AM_5
100
AcDbLine
 10
678.250109655153
 20
164.7483660043698
 30
0.0
 11
678.250109655153
 21
194.9098722805198
 31
0.0
  0
LINE
  5
462F
330
3D3D
100
AcDbEntity
  8
AM_5
100
AcDbLine
 10
596.250109655153
 20
173.4272804485297
 30
0.0
 11
596.250109655153
 21
194.9098722805198
 31
0.0
  0
LINE
  5
4630
330
3D3D
100
AcDbEntity
  8
AM_5
100
AcDbLine
 10
675.7501096551529
 20
193.9098722805198
 30
0.0
 11
598.7501096551531
 21
193.9098722805198
 31
0.0
  0
SOLID
  5
4631
330
3D3D
100
AcDbEntity
  8
AM_5
100
AcDbTrace
 10
675.7501096551529
 20
194.3265389471865
 30
0.0
 11
675.7501096551529
 21
193.4932056138532
 31
0.0
 12
678.250109655153
 22
193.9098722805198
 32
0.0
 13
678.250109655153
 23
193.9098722805198
 33
0.0
  0
SOLID
  5
4632
330
3D3D
100
AcDbEntity
  8
AM_5
100
AcDbTrace
 10
598.7501096551531
 20
194.3265389471865
 30
0.0
 11
598.7501096551531
 21
193.4932056138532
 31
0.0
 12
596.250109655153
 22
193.9098722805198
 32
0.0
 13
596.250109655153
 23
193.9098722805198
 33
0.0
  0
MTEXT
  5
4633
330
3D3D
100
AcDbEntity
  8
AM_5
 62
     2
100
AcDbMText
 10
637.250109655153
 20
199.8098722805198
 30
0.0
 40
8.0
 41
0.0
 71
     5
 72
     1
  1
(82)
 73
     1
 44
1.0
  0
POINT
  5
4634
330
3D3D
100
AcDbEntity
  8
Defpoints
 62
     0
100
AcDbPoint
 10
678.250109655153
 20
163.7483660043698
 30
0.0
  0
POINT
  5
4635
330
3D3D
100
AcDbEntity
  8
Defpoints
 62
     0
100
AcDbPoint
 10
596.250109655153
 20
172.4272804485297
 30
0.0
  0
POINT
  5
4636
330
3D3D
100
AcDbEntity
  8
Defpoints
 62
     0
100
AcDbPoint
 10
596.250109655153
 20
193.9098722805198
 30
0.0
  0
ENDBLK
  5
3D3F
330
3D3D
100
AcDbEntity
  8
0
 62
     3
100
AcDbBlockEnd
  0
BLOCK
  5
3D9A
330
3D99
100
AcDbEntity
  8
0
 62
     3
100
AcDbBlockBegin
  2
*D17
 70
     1
 10
0.0
 20
0.0
 30
0.0
  3
*D17
  1

  0
LINE
  5
46E4
330
3D99
100
AcDbEntity
  8
AM_5
100
AcDbLine
 10
708.250109655153
 20
109.7483660043697
 30
0.0
 11
708.250109655153
 21
87.96465826922394
 31
0.0
  0
LINE
  5
46E5
330
3D99
100
AcDbEntity
  8
AM_5
100
AcDbLine
 10
678.250109655153
 20
109.2483660043698
 30
0.0
 11
678.250109655153
 21
87.96465826922394
 31
0.0
  0
LINE
  5
46E6
330
3D99
100
AcDbEntity
  8
AM_5
100
AcDbLine
 10
705.7501096551529
 20
88.96465826922394
 30
0.0
 11
680.7501096551529
 21
88.96465826922394
 31
0.0
  0
SOLID
  5
46E7
330
3D99
100
AcDbEntity
  8
AM_5
100
AcDbTrace
 10
705.7501096551529
 20
89.38132493589062
 30
0.0
 11
705.7501096551529
 21
88.54799160255728
 31
0.0
 12
708.250109655153
 22
88.96465826922394
 32
0.0
 13
708.250109655153
 23
88.96465826922394
 33
0.0
  0
SOLID
  5
46E8
330
3D99
100
AcDbEntity
  8
AM_5
100
AcDbTrace
 10
680.7501096551529
 20
89.38132493589062
 30
0.0
 11
680.7501096551529
 21
88.54799160255728
 31
0.0
 12
678.250109655153
 22
88.96465826922394
 32
0.0
 13
678.250109655153
 23
88.96465826922394
 33
0.0
  0
MTEXT
  5
46E9
330
3D99
100
AcDbEntity
  8
AM_5
 62
     2
100
AcDbMText
 10
695.7547514114935
 20
94.46465826922395
 30
0.0
 40
8.0
 41
0.0
 71
     5
 72
     1
  1
30
 73
     1
 44
1.0
  0
POINT
  5
46EA
330
3D99
100
AcDbEntity
  8
Defpoints
 62
     0
100
AcDbPoint
 10
708.250109655153
 20
110.7483660043697
 30
0.0
  0
POINT
  5
46EB
330
3D99
100
AcDbEntity
  8
Defpoints
 62
     0
100
AcDbPoint
 10
678.250109655153
 20
110.2483660043698
 30
0.0
  0
POINT
  5
46EC
330
3D99
100
AcDbEntity
  8
Defpoints
 62
     0
100
AcDbPoint
 10
678.250109655153
 20
88.96465826922394
 30
0.0
  0
ENDBLK
  5
3D9B
330
3D99
100
AcDbEntity
  8
0
 62
     3
100
AcDbBlockEnd
  0
BLOCK
  5
3DA6
330
3DA5
100
AcDbEntity
  8
0
 62
     3
100
AcDbBlockBegin
  2
*D18
 70
     1
 10
0.0
 20
0.0
 30
0.0
  3
*D18
  1

  0
LINE
  5
46DB
330
3DA5
100
AcDbEntity
  8
AM_5
100
AcDbLine
 10
696.5484037329811
 20
132.7483660043697
 30
0.0
 11
724.7904683340248
 21
132.7483660043697
 31
0.0
  0
LINE
  5
46DC
330
3DA5
100
AcDbEntity
  8
AM_5
100
AcDbLine
 10
709.2501096551529
 20
110.7483660043697
 30
0.0
 11
724.7904683340248
 21
110.7483660043697
 31
0.0
  0
LINE
  5
46DD
330
3DA5
100
AcDbEntity
  8
AM_5
100
AcDbLine
 10
723.7904683340247
 20
130.2483660043696
 30
0.0
 11
723.7904683340247
 21
113.2483660043697
 31
0.0
  0
SOLID
  5
46DE
330
3DA5
100
AcDbEntity
  8
AM_5
100
AcDbTrace
 10
723.3738016673582
 20
130.2483660043696
 30
0.0
 11
724.2071350006914
 21
130.2483660043696
 31
0.0
 12
723.7904683340247
 22
132.7483660043697
 32
0.0
 13
723.7904683340247
 23
132.7483660043697
 33
0.0
  0
SOLID
  5
46DF
330
3DA5
100
AcDbEntity
  8
AM_5
100
AcDbTrace
 10
723.3738016673582
 20
113.2483660043697
 30
0.0
 11
724.2071350006914
 21
113.2483660043697
 31
0.0
 12
723.7904683340247
 22
110.7483660043697
 32
0.0
 13
723.7904683340247
 23
110.7483660043697
 33
0.0
  0
MTEXT
  5
46E0
330
3DA5
100
AcDbEntity
  8
AM_5
 62
     2
100
AcDbMText
 10
718.28968093245
 20
121.49936237662
 30
0.0
 40
8.0
 41
0.0
 71
     5
 72
     1
  1
%%c22
 11
0.0000000000000001
 21
1.0
 31
0.0
 73
     1
 44
1.0
  0
POINT
  5
46E1
330
3DA5
100
AcDbEntity
  8
Defpoints
 62
     0
100
AcDbPoint
 10
695.5484037329811
 20
132.7483660043697
 30
0.0
  0
POINT
  5
46E2
330
3DA5
100
AcDbEntity
  8
Defpoints
 62
     0
100
AcDbPoint
 10
708.250109655153
 20
110.7483660043697
 30
0.0
  0
POINT
  5
46E3
330
3DA5
100
AcDbEntity
  8
Defpoints
 62
     0
100
AcDbPoint
 10
723.7904683340247
 20
110.7483660043697
 30
0.0
  0
ENDBLK
  5
3DA7
330
3DA5
100
AcDbEntity
  8
0
 62
     3
100
AcDbBlockEnd
  0
BLOCK
  5
3DB2
330
3DB1
100
AcDbEntity
  8
0
 62
     3
100
AcDbBlockBegin
  2
*D19
 70
     1
 10
0.0
 20
0.0
 30
0.0
  3
*D19
  1

  0
LINE
  5
465D
330
3DB1
100
AcDbEntity
  8
AM_5
100
AcDbLine
 10
803.8143988476452
 20
153.2483660043697
 30
0.0
 11
803.8143988476452
 21
200.3278270373757
 31
0.0
  0
LINE
  5
465E
330
3DB1
100
AcDbEntity
  8
AM_5
100
AcDbLine
 10
773.8143988476451
 20
153.2483660043697
 30
0.0
 11
773.8143988476451
 21
200.3278270373757
 31
0.0
  0
LINE
  5
465F
330
3DB1
100
AcDbEntity
  8
AM_5
100
AcDbLine
 10
801.3143988476452
 20
199.3278270373757
 30
0.0
 11
776.3143988476452
 21
199.3278270373757
 31
0.0
  0
SOLID
  5
4660
330
3DB1
100
AcDbEntity
  8
AM_5
100
AcDbTrace
 10
801.3143988476452
 20
199.7444937040424
 30
0.0
 11
801.3143988476452
 21
198.9111603707091
 31
0.0
 12
803.8143988476452
 22
199.3278270373757
 32
0.0
 13
803.8143988476452
 23
199.3278270373757
 33
0.0
  0
SOLID
  5
4661
330
3DB1
100
AcDbEntity
  8
AM_5
100
AcDbTrace
 10
776.3143988476452
 20
199.7444937040424
 30
0.0
 11
776.3143988476452
 21
198.9111603707091
 31
0.0
 12
773.8143988476451
 22
199.3278270373757
 32
0.0
 13
773.8143988476451
 23
199.3278270373757
 33
0.0
  0
MTEXT
  5
4662
330
3DB1
100
AcDbEntity
  8
AM_5
 62
     2
100
AcDbMText
 10
788.8143988476452
 20
204.8278270373757
 30
0.0
 40
8.0
 41
0.0
 71
     5
 72
     1
  1
30
 73
     1
 44
1.0
  0
POINT
  5
4663
330
3DB1
100
AcDbEntity
  8
Defpoints
 62
     0
100
AcDbPoint
 10
803.8143988476452
 20
152.2483660043697
 30
0.0
  0
POINT
  5
4664
330
3DB1
100
AcDbEntity
  8
Defpoints
 62
     0
100
AcDbPoint
 10
773.8143988476451
 20
152.2483660043697
 30
0.0
  0
POINT
  5
4665
330
3DB1
100
AcDbEntity
  8
Defpoints
 62
     0
100
AcDbPoint
 10
773.8143988476451
 20
199.3278270373757
 30
0.0
  0
ENDBLK
  5
3DB3
330
3DB1
100
AcDbEntity
  8
0
 62
     3
100
AcDbBlockEnd
  0
BLOCK
  5
3DCC
330
3DCB
100
AcDbEntity
  8
0
 62
     3
100
AcDbBlockBegin
  2
*D21
 70
     1
 10
0.0
 20
0.0
 30
0.0
  3
*D21
  1

  0
LINE
  5
466F
330
3DCB
100
AcDbEntity
  8
AM_5
100
AcDbLine
 10
915.3594345846862
 20
163.7483660043697
 30
0.0
 11
924.8712713284524
 21
163.7483660043697
 31
0.0
  0
LINE
  5
4670
330
3DCB
100
AcDbEntity
  8
AM_5
100
AcDbLine
 10
884.5367003721115
 20
108.7483660043697
 30
0.0
 11
924.8712713284524
 21
108.7483660043697
 31
0.0
  0
LINE
  5
4671
330
3DCB
100
AcDbEntity
  8
AM_5
100
AcDbLine
 10
923.8712713284524
 20
161.2483660043697
 30
0.0
 11
923.8712713284524
 21
111.2483660043697
 31
0.0
  0
SOLID
  5
4672
330
3DCB
100
AcDbEntity
  8
AM_5
100
AcDbTrace
 10
923.4546046617857
 20
161.2483660043697
 30
0.0
 11
924.287937995119
 21
161.2483660043697
 31
0.0
 12
923.8712713284524
 22
163.7483660043697
 32
0.0
 13
923.8712713284524
 23
163.7483660043697
 33
0.0
  0
SOLID
  5
4673
330
3DCB
100
AcDbEntity
  8
AM_5
100
AcDbTrace
 10
923.4546046617857
 20
111.2483660043697
 30
0.0
 11
924.287937995119
 21
111.2483660043697
 31
0.0
 12
923.8712713284524
 22
108.7483660043697
 32
0.0
 13
923.8712713284524
 23
108.7483660043697
 33
0.0
  0
MTEXT
  5
4674
330
3DCB
100
AcDbEntity
  8
AM_5
 62
     2
100
AcDbMText
 10
918.3712713284524
 20
134.2695272235356
 30
0.0
 40
8.0
 41
0.0
 71
     5
 72
     1
  1
55
 11
0.0000000000000001
 21
1.0
 31
0.0
 73
     1
 44
1.0
  0
POINT
  5
4675
330
3DCB
100
AcDbEntity
  8
Defpoints
 62
     0
100
AcDbPoint
 10
914.3594345846862
 20
163.7483660043697
 30
0.0
  0
POINT
  5
4676
330
3DCB
100
AcDbEntity
  8
Defpoints
 62
     0
100
AcDbPoint
 10
883.5367003721115
 20
108.7483660043697
 30
0.0
  0
POINT
  5
4677
330
3DCB
100
AcDbEntity
  8
Defpoints
 62
     0
100
AcDbPoint
 10
923.8712713284524
 20
108.7483660043697
 30
0.0
  0
ENDBLK
  5
3DCD
330
3DCB
100
AcDbEntity
  8
0
 62
     3
100
AcDbBlockEnd
  0
BLOCK
  5
3DD8
330
3DD7
100
AcDbEntity
  8
0
 62
     3
100
AcDbBlockBegin
  2
*D22
 70
     1
 10
0.0
 20
0.0
 30
0.0
  3
*D22
  1

  0
LINE
  5
4678
330
3DD7
100
AcDbEntity
  8
AM_5
100
AcDbLine
 10
679.250109655153
 20
-41.25163399563018
 30
0.0
 11
708.3993171230524
 21
-41.25163399563019
 31
0.0
  0
LINE
  5
4679
330
3DD7
100
AcDbEntity
  8
AM_5
100
AcDbLine
 10
624.4103636929972
 20
-111.2516339956302
 30
0.0
 11
708.3993171230524
 21
-111.2516339956302
 31
0.0
  0
LINE
  5
467A
330
3DD7
100
AcDbEntity
  8
AM_5
100
AcDbLine
 10
707.3993171230524
 20
-43.75163399563019
 30
0.0
 11
707.3993171230524
 21
-108.7516339956302
 31
0.0
  0
SOLID
  5
467B
330
3DD7
100
AcDbEntity
  8
AM_5
100
AcDbTrace
 10
706.9826504563858
 20
-43.75163399563019
 30
0.0
 11
707.8159837897191
 21
-43.75163399563019
 31
0.0
 12
707.3993171230524
 22
-41.25163399563019
 32
0.0
 13
707.3993171230524
 23
-41.25163399563019
 33
0.0
  0
SOLID
  5
467C
330
3DD7
100
AcDbEntity
  8
AM_5
100
AcDbTrace
 10
706.9826504563858
 20
-108.7516339956302
 30
0.0
 11
707.8159837897191
 21
-108.7516339956302
 31
0.0
 12
707.3993171230524
 22
-111.2516339956302
 32
0.0
 13
707.3993171230524
 23
-111.2516339956302
 33
0.0
  0
MTEXT
  5
467D
330
3DD7
100
AcDbEntity
  8
AM_5
 62
     2
100
AcDbMText
 10
701.8993171230524
 20
-78.44493943496127
 30
0.0
 40
8.0
 41
0.0
 71
     5
 72
     1
  1
70
 11
0.0000000000000001
 21
1.0
 31
0.0
 73
     1
 44
1.0
  0
POINT
  5
467E
330
3DD7
100
AcDbEntity
  8
Defpoints
 62
     0
100
AcDbPoint
 10
678.250109655153
 20
-41.25163399563018
 30
0.0
  0
POINT
  5
467F
330
3DD7
100
AcDbEntity
  8
Defpoints
 62
     0
100
AcDbPoint
 10
623.4103636929972
 20
-111.2516339956302
 30
0.0
  0
POINT
  5
4680
330
3DD7
100
AcDbEntity
  8
Defpoints
 62
     0
100
AcDbPoint
 10
707.3993171230524
 20
-111.2516339956302
 30
0.0
  0
ENDBLK
  5
3DD9
330
3DD7
100
AcDbEntity
  8
0
 62
     3
100
AcDbBlockEnd
  0
BLOCK
  5
3DE4
330
3DE3
100
AcDbEntity
  8
0
 62
     3
100
AcDbBlockBegin
  2
*D23
 70
     1
 10
0.0
 20
0.0
 30
0.0
  3
*D23
  1

  0
LINE
  5
468A
330
3DE3
100
AcDbEntity
  8
AM_5
100
AcDbLine
 10
543.2501096551529
 20
-42.25163399563018
 30
0.0
 11
543.2501096551529
 21
-140.6248557529527
 31
0.0
  0
LINE
  5
468B
330
3DE3
100
AcDbEntity
  8
AM_5
100
AcDbLine
 10
588.2501096551529
 20
-125.3079901307924
 30
0.0
 11
588.2501096551529
 21
-140.6248557529527
 31
0.0
  0
LINE
  5
468C
330
3DE3
100
AcDbEntity
  8
AM_5
100
AcDbLine
 10
545.750109655153
 20
-139.6248557529527
 30
0.0
 11
585.7501096551529
 21
-139.6248557529527
 31
0.0
  0
SOLID
  5
468D
330
3DE3
100
AcDbEntity
  8
AM_5
100
AcDbTrace
 10
545.750109655153
 20
-139.208189086286
 30
0.0
 11
545.750109655153
 21
-140.0415224196193
 31
0.0
 12
543.2501096551529
 22
-139.6248557529527
 32
0.0
 13
543.2501096551529
 23
-139.6248557529527
 33
0.0
  0
SOLID
  5
468E
330
3DE3
100
AcDbEntity
  8
AM_5
100
AcDbTrace
 10
585.7501096551529
 20
-139.208189086286
 30
0.0
 11
585.7501096551529
 21
-140.0415224196193
 31
0.0
 12
588.2501096551529
 22
-139.6248557529527
 32
0.0
 13
588.2501096551529
 23
-139.6248557529527
 33
0.0
  0
MTEXT
  5
468F
330
3DE3
100
AcDbEntity
  8
AM_5
 62
     2
100
AcDbMText
 10
565.750109655153
 20
-134.1248557529527
 30
0.0
 40
8.0
 41
0.0
 71
     5
 72
     1
  1
45
 73
     1
 44
1.0
  0
POINT
  5
4690
330
3DE3
100
AcDbEntity
  8
Defpoints
 62
     0
100
AcDbPoint
 10
543.2501096551529
 20
-41.25163399563018
 30
0.0
  0
POINT
  5
4691
330
3DE3
100
AcDbEntity
  8
Defpoints
 62
     0
100
AcDbPoint
 10
588.2501096551529
 20
-124.3079901307924
 30
0.0
  0
POINT
  5
4692
330
3DE3
100
AcDbEntity
  8
Defpoints
 62
     0
100
AcDbPoint
 10
588.2501096551529
 20
-139.6248557529527
 30
0.0
  0
ENDBLK
  5
3DE5
330
3DE3
100
AcDbEntity
  8
0
 62
     3
100
AcDbBlockEnd
  0
BLOCK
  5
3DF0
330
3DEF
100
AcDbEntity
  8
0
 62
     3
100
AcDbBlockBegin
  2
*D24
 70
     1
 10
0.0
 20
0.0
 30
0.0
  3
*D24
  1

  0
LINE
  5
4681
330
3DEF
100
AcDbEntity
  8
AM_5
100
AcDbLine
 10
624.750109655153
 20
-107.2516339956302
 30
0.0
 11
624.750109655153
 21
-129.0058180960491
 31
0.0
  0
LINE
  5
4682
330
3DEF
100
AcDbEntity
  8
AM_5
100
AcDbLine
 10
551.7501096551529
 20
-107.2516339956302
 30
0.0
 11
551.7501096551529
 21
-129.0058180960491
 31
0.0
  0
LINE
  5
4683
330
3DEF
100
AcDbEntity
  8
AM_5
100
AcDbLine
 10
622.2501096551529
 20
-128.0058180960491
 30
0.0
 11
554.250109655153
 21
-128.0058180960491
 31
0.0
  0
SOLID
  5
4684
330
3DEF
100
AcDbEntity
  8
AM_5
100
AcDbTrace
 10
622.2501096551529
 20
-127.5891514293824
 30
0.0
 11
622.2501096551529
 21
-128.4224847627157
 31
0.0
 12
624.750109655153
 22
-128.0058180960491
 32
0.0
 13
624.750109655153
 23
-128.0058180960491
 33
0.0
  0
SOLID
  5
4685
330
3DEF
100
AcDbEntity
  8
AM_5
100
AcDbTrace
 10
554.250109655153
 20
-127.5891514293824
 30
0.0
 11
554.250109655153
 21
-128.4224847627157
 31
0.0
 12
551.7501096551529
 22
-128.0058180960491
 32
0.0
 13
551.7501096551529
 23
-128.0058180960491
 33
0.0
  0
MTEXT
  5
4686
330
3DEF
100
AcDbEntity
  8
AM_5
 62
     2
100
AcDbMText
 10
603.1788150310025
 20
-122.5058180960491
 30
0.0
 40
8.0
 41
0.0
 71
     5
 72
     1
  1
%%c73
 73
     1
 44
1.0
  0
POINT
  5
4687
330
3DEF
100
AcDbEntity
  8
Defpoints
 62
     0
100
AcDbPoint
 10
624.750109655153
 20
-106.2516339956302
 30
0.0
  0
POINT
  5
4688
330
3DEF
100
AcDbEntity
  8
Defpoints
 62
     0
100
AcDbPoint
 10
551.7501096551529
 20
-106.2516339956302
 30
0.0
  0
POINT
  5
4689
330
3DEF
100
AcDbEntity
  8
Defpoints
 62
     0
100
AcDbPoint
 10
551.7501096551529
 20
-128.0058180960491
 30
0.0
  0
ENDBLK
  5
3DF1
330
3DEF
100
AcDbEntity
  8
0
 62
     3
100
AcDbBlockEnd
  0
BLOCK
  5
3E0A
330
3E09
100
AcDbEntity
  8
0
 62
     3
100
AcDbBlockBegin
  2
*D25
 70
     1
 10
0.0
 20
0.0
 30
0.0
  3
*D25
  1

  0
LINE
  5
46B7
330
3E09
100
AcDbEntity
  8
AM_5
100
AcDbLine
 10
540.7001162471173
 20
-223.4769840719176
 30
0.0
 11
540.7001162471173
 21
-175.0647398773083
 31
0.0
  0
LINE
  5
46B8
330
3E09
100
AcDbEntity
  8
AM_5
100
AcDbLine
 10
675.7001162471173
 20
-285.9769840719176
 30
0.0
 11
675.7001162471173
 21
-175.0647398773083
 31
0.0
  0
LINE
  5
46B9
330
3E09
100
AcDbEntity
  8
AM_5
100
AcDbLine
 10
543.2001162471173
 20
-176.0647398773083
 30
0.0
 11
673.2001162471172
 21
-176.0647398773083
 31
0.0
  0
SOLID
  5
46BA
330
3E09
100
AcDbEntity
  8
AM_5
100
AcDbTrace
 10
543.2001162471173
 20
-175.6480732106416
 30
0.0
 11
543.2001162471173
 21
-176.4814065439749
 31
0.0
 12
540.7001162471173
 22
-176.0647398773083
 32
0.0
 13
540.7001162471173
 23
-176.0647398773083
 33
0.0
  0
SOLID
  5
46BB
330
3E09
100
AcDbEntity
  8
AM_5
100
AcDbTrace
 10
673.2001162471172
 20
-175.6480732106416
 30
0.0
 11
673.2001162471172
 21
-176.4814065439749
 31
0.0
 12
675.7001162471173
 22
-176.0647398773083
 32
0.0
 13
675.7001162471173
 23
-176.0647398773083
 33
0.0
  0
MTEXT
  5
46BC
330
3E09
100
AcDbEntity
  8
AM_5
 62
     2
100
AcDbMText
 10
608.2001162471173
 20
-170.5647398773083
 30
0.0
 40
8.0
 41
0.0
 71
     5
 72
     1
  1
135
 73
     1
 44
1.0
  0
POINT
  5
46BD
330
3E09
100
AcDbEntity
  8
Defpoints
 62
     0
100
AcDbPoint
 10
540.7001162471173
 20
-224.4769840719176
 30
0.0
  0
POINT
  5
46BE
330
3E09
100
AcDbEntity
  8
Defpoints
 62
     0
100
AcDbPoint
 10
675.7001162471173
 20
-286.9769840719176
 30
0.0
  0
POINT
  5
46BF
330
3E09
100
AcDbEntity
  8
Defpoints
 62
     0
100
AcDbPoint
 10
675.7001162471173
 20
-176.0647398773083
 30
0.0
  0
ENDBLK
  5
3E0B
330
3E09
100
AcDbEntity
  8
0
 62
     3
100
AcDbBlockEnd
  0
BLOCK
  5
3E30
330
3E2F
100
AcDbEntity
  8
0
 62
     3
100
AcDbBlockBegin
  2
*D28
 70
     1
 10
0.0
 20
0.0
 30
0.0
  3
*D28
  1

  0
LINE
  5
4693
330
3E2F
100
AcDbEntity
  8
AM_5
100
AcDbLine
 10
539.7001162471172
 20
-224.4769840719176
 30
0.0
 11
515.9967567842092
 21
-224.4769840719176
 31
0.0
  0
LINE
  5
4694
330
3E2F
100
AcDbEntity
  8
AM_5
100
AcDbLine
 10
539.7001162471172
 20
-349.4769840719176
 30
0.0
 11
515.996756784209
 21
-349.4769840719176
 31
0.0
  0
LINE
  5
4695
330
3E2F
100
AcDbEntity
  8
AM_5
100
AcDbLine
 10
516.9967567842092
 20
-226.9769840719176
 30
0.0
 11
516.9967567842091
 21
-346.9769840719176
 31
0.0
  0
SOLID
  5
4696
330
3E2F
100
AcDbEntity
  8
AM_5
100
AcDbTrace
 10
516.5800901175425
 20
-226.9769840719176
 30
0.0
 11
517.4134234508758
 21
-226.9769840719176
 31
0.0
 12
516.9967567842092
 22
-224.4769840719176
 32
0.0
 13
516.9967567842092
 23
-224.4769840719176
 33
0.0
  0
SOLID
  5
4697
330
3E2F
100
AcDbEntity
  8
AM_5
100
AcDbTrace
 10
516.5800901175424
 20
-346.9769840719176
 30
0.0
 11
517.4134234508756
 21
-346.9769840719176
 31
0.0
 12
516.9967567842091
 22
-349.4769840719176
 32
0.0
 13
516.9967567842091
 23
-349.4769840719176
 33
0.0
  0
MTEXT
  5
4698
330
3E2F
100
AcDbEntity
  8
AM_5
 62
     2
100
AcDbMText
 10
511.4959693826343
 20
-286.9769840719175
 30
0.0
 40
8.0
 41
0.0
 71
     5
 72
     1
  1
125
 11
0.0000000000000001
 21
1.0
 31
0.0
 73
     1
 44
1.0
  0
POINT
  5
4699
330
3E2F
100
AcDbEntity
  8
Defpoints
 62
     0
100
AcDbPoint
 10
540.7001162471173
 20
-224.4769840719176
 30
0.0
  0
POINT
  5
469A
330
3E2F
100
AcDbEntity
  8
Defpoints
 62
     0
100
AcDbPoint
 10
540.7001162471173
 20
-349.4769840719176
 30
0.0
  0
POINT
  5
469B
330
3E2F
100
AcDbEntity
  8
Defpoints
 62
     0
100
AcDbPoint
 10
516.9967567842091
 20
-349.4769840719176
 30
0.0
  0
ENDBLK
  5
3E31
330
3E2F
100
AcDbEntity
  8
0
 62
     3
100
AcDbBlockEnd
  0
BLOCK
  5
3E3C
330
3E3B
100
AcDbEntity
  8
0
 62
     3
100
AcDbBlockBegin
  2
*D29
 70
     1
 10
0.0
 20
0.0
 30
0.0
  3
*D29
  1

  0
LINE
  5
469C
330
3E3B
100
AcDbEntity
  8
AM_5
100
AcDbLine
 10
592.7001162471173
 20
-368.9769840719176
 30
0.0
 11
500.267396985882
 21
-368.9769840719176
 31
0.0
  0
LINE
  5
469D
330
3E3B
100
AcDbEntity
  8
AM_5
100
AcDbLine
 10
592.7001162471173
 20
-204.9769840719176
 30
0.0
 11
500.267396985882
 21
-204.9769840719176
 31
0.0
  0
LINE
  5
469E
330
3E3B
100
AcDbEntity
  8
AM_5
100
AcDbLine
 10
501.267396985882
 20
-366.4769840719176
 30
0.0
 11
501.267396985882
 21
-207.4769840719176
 31
0.0
  0
SOLID
  5
469F
330
3E3B
100
AcDbEntity
  8
AM_5
100
AcDbTrace
 10
500.8507303192153
 20
-366.4769840719176
 30
0.0
 11
501.6840636525487
 21
-366.4769840719176
 31
0.0
 12
501.267396985882
 22
-368.9769840719176
 32
0.0
 13
501.267396985882
 23
-368.9769840719176
 33
0.0
  0
SOLID
  5
46A0
330
3E3B
100
AcDbEntity
  8
AM_5
100
AcDbTrace
 10
500.8507303192153
 20
-207.4769840719176
 30
0.0
 11
501.6840636525487
 21
-207.4769840719176
 31
0.0
 12
501.267396985882
 22
-204.9769840719176
 32
0.0
 13
501.267396985882
 23
-204.9769840719176
 33
0.0
  0
MTEXT
  5
46A1
330
3E3B
100
AcDbEntity
  8
AM_5
 62
     2
100
AcDbMText
 10
495.7673969858821
 20
-285.8541344209109
 30
0.0
 40
8.0
 41
0.0
 71
     5
 72
     1
  1
164
 11
0.0000000000000001
 21
1.0
 31
0.0
 73
     1
 44
1.0
  0
POINT
  5
46A2
330
3E3B
100
AcDbEntity
  8
Defpoints
 62
     0
100
AcDbPoint
 10
593.7001162471172
 20
-368.9769840719176
 30
0.0
  0
POINT
  5
46A3
330
3E3B
100
AcDbEntity
  8
Defpoints
 62
     0
100
AcDbPoint
 10
593.7001162471172
 20
-204.9769840719176
 30
0.0
  0
POINT
  5
46A4
330
3E3B
100
AcDbEntity
  8
Defpoints
 62
     0
100
AcDbPoint
 10
501.267396985882
 20
-204.9769840719176
 30
0.0
  0
ENDBLK
  5
3E3D
330
3E3B
100
AcDbEntity
  8
0
 62
     3
100
AcDbBlockEnd
  0
BLOCK
  5
3E48
330
3E47
100
AcDbEntity
  8
0
 62
     3
100
AcDbBlockBegin
  2
*D30
 70
     1
 10
0.0
 20
0.0
 30
0.0
  3
*D30
  1

  0
LINE
  5
46A5
330
3E47
100
AcDbEntity
  8
AM_5
100
AcDbLine
 10
540.7001162471173
 20
-223.4769840719176
 30
0.0
 11
540.7001162471173
 21
-191.0507269833207
 31
0.0
  0
LINE
  5
46A6
330
3E47
100
AcDbEntity
  8
AM_5
100
AcDbLine
 10
593.7001162471172
 20
-192.9769840719177
 30
0.0
 11
593.7001162471172
 21
-193.0507269833207
 31
0.0
  0
LINE
  5
46A7
330
3E47
100
AcDbEntity
  8
AM_5
100
AcDbLine
 10
543.2001162471173
 20
-192.0507269833207
 30
0.0
 11
591.2001162471173
 21
-192.0507269833207
 31
0.0
  0
SOLID
  5
46A8
330
3E47
100
AcDbEntity
  8
AM_5
100
AcDbTrace
 10
543.2001162471173
 20
-191.634060316654
 30
0.0
 11
543.2001162471173
 21
-192.4673936499873
 31
0.0
 12
540.7001162471173
 22
-192.0507269833207
 32
0.0
 13
540.7001162471173
 23
-192.0507269833207
 33
0.0
  0
SOLID
  5
46A9
330
3E47
100
AcDbEntity
  8
AM_5
100
AcDbTrace
 10
591.2001162471173
 20
-191.634060316654
 30
0.0
 11
591.2001162471173
 21
-192.4673936499873
 31
0.0
 12
593.7001162471172
 22
-192.0507269833207
 32
0.0
 13
593.7001162471172
 23
-192.0507269833207
 33
0.0
  0
MTEXT
  5
46AA
330
3E47
100
AcDbEntity
  8
AM_5
 62
     2
100
AcDbMText
 10
568.7776477438155
 20
-186.5507269833207
 30
0.0
 40
8.0
 41
0.0
 71
     5
 72
     1
  1
53
 73
     1
 44
1.0
  0
POINT
  5
46AB
330
3E47
100
AcDbEntity
  8
Defpoints
 62
     0
100
AcDbPoint
 10
540.7001162471173
 20
-224.4769840719176
 30
0.0
  0
POINT
  5
46AC
330
3E47
100
AcDbEntity
  8
Defpoints
 62
     0
100
AcDbPoint
 10
593.7001162471172
 20
-191.9769840719177
 30
0.0
  0
POINT
  5
46AD
330
3E47
100
AcDbEntity
  8
Defpoints
 62
     0
100
AcDbPoint
 10
593.7001162471172
 20
-192.0507269833207
 30
0.0
  0
ENDBLK
  5
3E49
330
3E47
100
AcDbEntity
  8
0
 62
     3
100
AcDbBlockEnd
  0
BLOCK
  5
3E90
330
3E8F
100
AcDbEntity
  8
0
 62
     3
100
AcDbBlockBegin
  2
*D36
 70
     1
 10
0.0
 20
0.0
 30
0.0
  3
*D36
  1

  0
LINE
  5
4653
330
3E8F
100
AcDbEntity
  8
AM_5
100
AcDbLine
 10
797.8143988476452
 20
157.2483660043697
 30
0.0
 11
795.8337935469107
 21
157.2483660043697
 31
0.0
  0
LINE
  5
4654
330
3E8F
100
AcDbEntity
  8
AM_5
100
AcDbLine
 10
797.8143988476452
 20
147.2483660043697
 30
0.0
 11
795.8337935469107
 21
147.2483660043697
 31
0.0
  0
LINE
  5
4655
330
3E8F
100
AcDbEntity
  8
AM_5
100
AcDbLine
 10
796.8337935469108
 20
154.7483660043697
 30
0.0
 11
796.8337935469108
 21
149.7483660043697
 31
0.0
  0
LINE
  5
4656
330
3E8F
100
AcDbEntity
  8
AM_5
100
AcDbLine
 10
796.8337935469108
 20
147.2483660043697
 30
0.0
 11
796.8337935469108
 21
134.5420667917712
 31
0.0
  0
SOLID
  5
4657
330
3E8F
100
AcDbEntity
  8
AM_5
100
AcDbTrace
 10
796.4171268802441
 20
154.7483660043697
 30
0.0
 11
797.2504602135773
 21
154.7483660043697
 31
0.0
 12
796.8337935469108
 22
157.2483660043697
 32
0.0
 13
796.8337935469108
 23
157.2483660043697
 33
0.0
  0
SOLID
  5
4658
330
3E8F
100
AcDbEntity
  8
AM_5
100
AcDbTrace
 10
796.4171268802441
 20
149.7483660043697
 30
0.0
 11
797.2504602135773
 21
149.7483660043697
 31
0.0
 12
796.8337935469108
 22
147.2483660043697
 32
0.0
 13
796.8337935469108
 23
147.2483660043697
 33
0.0
  0
MTEXT
  5
4659
330
3E8F
100
AcDbEntity
  8
AM_5
 62
     2
100
AcDbMText
 10
791.3337935469107
 20
139.6452163980706
 30
0.0
 40
8.0
 41
0.0
 71
     5
 72
     1
  1
10
 11
0.0000000000000001
 21
1.0
 31
0.0
 73
     1
 44
1.0
  0
POINT
  5
465A
330
3E8F
100
AcDbEntity
  8
Defpoints
 62
     0
100
AcDbPoint
 10
798.8143988476451
 20
157.2483660043697
 30
0.0
  0
POINT
  5
465B
330
3E8F
100
AcDbEntity
  8
Defpoints
 62
     0
100
AcDbPoint
 10
798.8143988476451
 20
147.2483660043697
 30
0.0
  0
POINT
  5
465C
330
3E8F
100
AcDbEntity
  8
Defpoints
 62
     0
100
AcDbPoint
 10
796.8337935469108
 20
147.2483660043697
 30
0.0
  0
ENDBLK
  5
3E91
330
3E8F
100
AcDbEntity
  8
0
 62
     3
100
AcDbBlockEnd
  0
BLOCK
  5
4531
330
4530
100
AcDbEntity
  8
0
 62
     3
100
AcDbBlockBegin
  2
*D47
 70
     1
 10
0.0
 20
0.0
 30
0.0
  3
*D47
  1

  0
LINE
  5
4709
330
4530
100
AcDbEntity
  8
AM_5
100
AcDbLine
 10
772.8143988476452
 20
152.2483660043697
 30
0.0
 11
739.0321369025768
 21
152.2483660043697
 31
0.0
  0
LINE
  5
470A
330
4530
100
AcDbEntity
  8
AM_5
100
AcDbLine
 10
749.359434584686
 20
163.7483660043697
 30
0.0
 11
739.0321369025768
 21
163.7483660043697
 31
0.0
  0
LINE
  5
470B
330
4530
100
AcDbEntity
  8
AM_5
100
AcDbLine
 10
740.0321369025768
 20
154.7483660043697
 30
0.0
 11
740.0321369025768
 21
161.2483660043697
 31
0.0
  0
SOLID
  5
470C
330
4530
100
AcDbEntity
  8
AM_5
100
AcDbTrace
 10
739.6154702359101
 20
154.7483660043697
 30
0.0
 11
740.4488035692434
 21
154.7483660043697
 31
0.0
 12
740.0321369025768
 22
152.2483660043697
 32
0.0
 13
740.0321369025768
 23
152.2483660043697
 33
0.0
  0
SOLID
  5
470D
330
4530
100
AcDbEntity
  8
AM_5
100
AcDbTrace
 10
739.6154702359101
 20
161.2483660043697
 30
0.0
 11
740.4488035692434
 21
161.2483660043697
 31
0.0
 12
740.0321369025768
 22
163.7483660043697
 32
0.0
 13
740.0321369025768
 23
163.7483660043697
 33
0.0
  0
MTEXT
  5
470E
330
4530
100
AcDbEntity
  8
AM_5
 62
     2
100
AcDbMText
 10
734.5313495010019
 20
157.9983660043698
 30
0.0
 40
8.0
 41
0.0
 71
     5
 72
     1
  1
12
 11
0.0000000000000001
 21
1.0
 31
0.0
 73
     1
 44
1.0
  0
POINT
  5
470F
330
4530
100
AcDbEntity
  8
Defpoints
 62
     0
100
AcDbPoint
 10
773.8143988476451
 20
152.2483660043697
 30
0.0
  0
POINT
  5
4710
330
4530
100
AcDbEntity
  8
Defpoints
 62
     0
100
AcDbPoint
 10
750.359434584686
 20
163.7483660043697
 30
0.0
  0
POINT
  5
4711
330
4530
100
AcDbEntity
  8
Defpoints
 62
     0
100
AcDbPoint
 10
740.0321369025768
 20
163.7483660043697
 30
0.0
  0
ENDBLK
  5
4532
330
4530
100
AcDbEntity
  8
0
 62
     3
100
AcDbBlockEnd
  0
BLOCK
  5
4562
330
4561
100
AcDbEntity
  8
0
 62
     3
100
AcDbBlockBegin
  2
*D48
 70
     1
 10
0.0
 20
0.0
 30
0.0
  3
*D48
  1

  0
LINE
  5
46D2
330
4561
100
AcDbEntity
  8
AM_5
100
AcDbLine
 10
677.2501096551529
 20
163.7483660043698
 30
0.0
 11
641.1027096395888
 21
163.7483660043698
 31
0.0
  0
LINE
  5
46D3
330
4561
100
AcDbEntity
  8
AM_5
100
AcDbLine
 10
668.5451325333318
 20
121.7483660043698
 30
0.0
 11
641.1027096395888
 21
121.7483660043698
 31
0.0
  0
LINE
  5
46D4
330
4561
100
AcDbEntity
  8
AM_5
100
AcDbLine
 10
642.1027096395889
 20
161.2483660043698
 30
0.0
 11
642.1027096395889
 21
124.2483660043698
 31
0.0
  0
SOLID
  5
46D5
330
4561
100
AcDbEntity
  8
AM_5
100
AcDbTrace
 10
641.6860429729222
 20
161.2483660043698
 30
0.0
 11
642.5193763062554
 21
161.2483660043698
 31
0.0
 12
642.1027096395889
 22
163.7483660043698
 32
0.0
 13
642.1027096395889
 23
163.7483660043698
 33
0.0
  0
SOLID
  5
46D6
330
4561
100
AcDbEntity
  8
AM_5
100
AcDbTrace
 10
641.6860429729222
 20
124.2483660043698
 30
0.0
 11
642.5193763062554
 21
124.2483660043698
 31
0.0
 12
642.1027096395889
 22
121.7483660043698
 32
0.0
 13
642.1027096395889
 23
121.7483660043698
 33
0.0
  0
MTEXT
  5
46D7
330
4561
100
AcDbEntity
  8
AM_5
 62
     2
100
AcDbMText
 10
636.601922238014
 20
142.7483660043699
 30
0.0
 40
8.0
 41
0.0
 71
     5
 72
     1
  1
42
 11
0.0000000000000001
 21
1.0
 31
0.0
 73
     1
 44
1.0
  0
POINT
  5
46D8
330
4561
100
AcDbEntity
  8
Defpoints
 62
     0
100
AcDbPoint
 10
678.250109655153
 20
163.7483660043698
 30
0.0
  0
POINT
  5
46D9
330
4561
100
AcDbEntity
  8
Defpoints
 62
     0
100
AcDbPoint
 10
669.5451325333317
 20
121.7483660043698
 30
0.0
  0
POINT
  5
46DA
330
4561
100
AcDbEntity
  8
Defpoints
 62
     0
100
AcDbPoint
 10
642.1027096395889
 20
121.7483660043698
 30
0.0
  0
ENDBLK
  5
4563
330
4561
100
AcDbEntity
  8
0
 62
     3
100
AcDbBlockEnd
  0
BLOCK
  5
4590
330
458F
100
AcDbEntity
  8
0
 62
     3
100
AcDbBlockBegin
  2
*D50
 70
     1
 10
0.0
 20
0.0
 30
0.0
  3
*D50
  1

  0
LINE
  5
46F6
330
458F
100
AcDbEntity
  8
AM_5
100
AcDbLine
 10
788.4879262232383
 20
153.2483660043697
 30
0.0
 11
788.4879262232383
 21
188.8365458724583
 31
0.0
  0
LINE
  5
46F7
330
458F
100
AcDbEntity
  8
AM_5
100
AcDbLine
 10
876.2309429461337
 20
153.2483660043697
 30
0.0
 11
876.2309429461337
 21
188.8365458724583
 31
0.0
  0
LINE
  5
46F8
330
458F
100
AcDbEntity
  8
AM_5
100
AcDbLine
 10
790.9879262232383
 20
187.8365458724583
 30
0.0
 11
873.7309429461339
 21
187.8365458724583
 31
0.0
  0
SOLID
  5
46F9
330
458F
100
AcDbEntity
  8
AM_5
100
AcDbTrace
 10
790.9879262232383
 20
188.253212539125
 30
0.0
 11
790.9879262232383
 21
187.4198792057917
 31
0.0
 12
788.4879262232383
 22
187.8365458724583
 32
0.0
 13
788.4879262232383
 23
187.8365458724583
 33
0.0
  0
SOLID
  5
46FA
330
458F
100
AcDbEntity
  8
AM_5
100
AcDbTrace
 10
873.7309429461339
 20
188.253212539125
 30
0.0
 11
873.7309429461339
 21
187.4198792057917
 31
0.0
 12
876.2309429461337
 22
187.8365458724583
 32
0.0
 13
876.2309429461337
 23
187.8365458724583
 33
0.0
  0
MTEXT
  5
46FB
330
458F
100
AcDbEntity
  8
AM_5
 62
     2
100
AcDbMText
 10
832.3594345846862
 20
193.3365458724584
 30
0.0
 40
8.0
 41
0.0
 71
     5
 72
     1
  1
88
 73
     1
 44
1.0
  0
POINT
  5
46FC
330
458F
100
AcDbEntity
  8
Defpoints
 62
     0
100
AcDbPoint
 10
788.4879262232383
 20
152.2483660043697
 30
0.0
  0
POINT
  5
46FD
330
458F
100
AcDbEntity
  8
Defpoints
 62
     0
100
AcDbPoint
 10
876.2309429461337
 20
152.2483660043697
 30
0.0
  0
POINT
  5
46FE
330
458F
100
AcDbEntity
  8
Defpoints
 62
     0
100
AcDbPoint
 10
876.2309429461337
 20
187.8365458724583
 30
0.0
  0
ENDBLK
  5
4591
330
458F
100
AcDbEntity
  8
0
 62
     3
100
AcDbBlockEnd
  0
BLOCK
  5
45CA
330
45C9
100
AcDbEntity
  8
0
 62
     3
100
AcDbBlockBegin
  2
*D51
 70
     1
 10
0.0
 20
0.0
 30
0.0
  3
*D51
  1

  0
LINE
  5
46C9
330
45C9
100
AcDbEntity
  8
AM_5
100
AcDbLine
 10
542.250109655153
 20
163.7483660043698
 30
0.0
 11
519.3282884050222
 21
163.7483660043698
 31
0.0
  0
LINE
  5
46CA
330
45C9
100
AcDbEntity
  8
AM_5
100
AcDbLine
 10
538.4994228889531
 20
108.7483660043698
 30
0.0
 11
519.3282884050222
 21
108.7483660043698
 31
0.0
  0
LINE
  5
46CB
330
45C9
100
AcDbEntity
  8
AM_5
100
AcDbLine
 10
520.3282884050222
 20
161.2483660043698
 30
0.0
 11
520.3282884050222
 21
111.2483660043698
 31
0.0
  0
SOLID
  5
46CC
330
45C9
100
AcDbEntity
  8
AM_5
100
AcDbTrace
 10
519.9116217383556
 20
161.2483660043698
 30
0.0
 11
520.7449550716888
 21
161.2483660043698
 31
0.0
 12
520.3282884050222
 22
163.7483660043698
 32
0.0
 13
520.3282884050222
 23
163.7483660043698
 33
0.0
  0
SOLID
  5
46CD
330
45C9
100
AcDbEntity
  8
AM_5
100
AcDbTrace
 10
519.9116217383556
 20
111.2483660043698
 30
0.0
 11
520.7449550716888
 21
111.2483660043698
 31
0.0
 12
520.3282884050222
 22
108.7483660043698
 32
0.0
 13
520.3282884050222
 23
108.7483660043698
 33
0.0
  0
MTEXT
  5
46CE
330
45C9
100
AcDbEntity
  8
AM_5
 62
     2
100
AcDbMText
 10
514.8282884050222
 20
136.2483660043699
 30
0.0
 40
8.0
 41
0.0
 71
     5
 72
     1
  1
55
 11
0.0000000000000001
 21
1.0
 31
0.0
 73
     1
 44
1.0
  0
POINT
  5
46CF
330
45C9
100
AcDbEntity
  8
Defpoints
 62
     0
100
AcDbPoint
 10
543.2501096551531
 20
163.7483660043698
 30
0.0
  0
POINT
  5
46D0
330
45C9
100
AcDbEntity
  8
Defpoints
 62
     0
100
AcDbPoint
 10
539.499422888953
 20
108.7483660043698
 30
0.0
  0
POINT
  5
46D1
330
45C9
100
AcDbEntity
  8
Defpoints
 62
     0
100
AcDbPoint
 10
520.3282884050222
 20
108.7483660043698
 30
0.0
  0
ENDBLK
  5
45CB
330
45C9
100
AcDbEntity
  8
0
 62
     3
100
AcDbBlockEnd
  0
ENDSEC
  0
SECTION
  2
ENTITIES
  0
DIMENSION
  5
3A83
330
1F
100
AcDbEntity
  8
AM_5
100
AcDbDimension
  2
*D8
 10
493.8931080328011
 20
-111.2516339956302
 30
0.0
 11
493.8931080328011
 21
37.89984896346391
 31
0.0
 70
   160
  1
<>
 71
     5
 42
275.0
  3
AM_DIN$0
100
AcDbAlignedDimension
 13
543.2501096551531
 23
163.7483660043698
 33
0.0
 14
553.0898556173085
 24
-111.2516339956302
 34
0.0
 50
270.0
100
AcDbRotatedDimension
1001
ACME_LAYERS
1000
1
1001
ACAD
1000
DSTYLE
1002
{
1070
   140
1040
8.0
1002
}
  0
ARC
  5
3A85
330
1F
100
AcDbEntity
  8
P-0000
  6
Continuous
 62
     7
100
AcDbCircle
 10
832.3594345846862
 20
108.7483660043697
 30
0.0
 40
41.0
100
AcDbArc
 50
270.0
 51
0.0
1001
ACME_LAYERS
1000
1
  0
ARC
  5
3A86
330
1F
100
AcDbEntity
  8
P-0000
  6
Continuous
 62
     7
100
AcDbCircle
 10
832.3594345846862
 20
108.7483660043697
 30
0.0
 40
39.46167273222818
100
AcDbArc
 50
270.0
 51
0.0
1001
ACME_LAYERS
1000
1
  0
ARC
  5
3A87
330
1F
100
AcDbEntity
  8
P-0000
  6
Continuous
 62
     7
100
AcDbCircle
 10
832.3594345846862
 20
108.7483660043697
 30
0.0
 40
38.0
100
AcDbArc
 50
270.0
 51
0.0
1001
ACME_LAYERS
1000
1
  0
ARC
  5
3A88
330
1F
100
AcDbEntity
  8
P-0000
  6
Continuous
 62
     7
100
AcDbCircle
 10
832.3594345846862
 20
108.7483660043697
 30
0.0
 40
34.89999999999998
100
AcDbArc
 50
270.0
 51
0.0
1001
ACME_LAYERS
1000
1
  0
LINE
  5
3A89
330
1F
100
AcDbEntity
  8
P-0000
  6
HIDDEN
 62
     2
100
AcDbLine
 10
676.2501096551529
 20
97.74836600436982
 30
0.0
 11
676.2501096551529
 21
-39.23767716528573
 31
0.0
1001
ACME_LAYERS
1000
1
  0
LINE
  5
3A8A
330
1F
100
AcDbEntity
  8
AM_7
100
AcDbLine
 10
596.250109655153
 20
164.9046191596993
 30
0.0
 11
596.2501096551529
 21
-49.5727195514703
 31
0.0
1001
ACME_LAYERS
1000
1
  0
LINE
  5
3A8D
330
1F
100
AcDbEntity
  8
P-0000
  6
HIDDEN
 62
     2
100
AcDbLine
 10
543.9008882840742
 20
146.7483660043698
 30
0.0
 11
543.9008882840742
 21
70.74836600436981
 31
0.0
1001
ACME_LAYERS
1000
1
  0
LINE
  5
3A8E
330
1F
100
AcDbEntity
  8
P-0000
  6
HIDDEN
 62
     2
100
AcDbLine
 10
562.5489330251341
 20
68.24836600436981
 30
0.0
 11
573.0810012310737
 21
73.84836600436983
 31
0.0
1001
ACME_LAYERS
1000
1
  0
LINE
  5
3A8F
330
1F
100
AcDbEntity
  8
P-0000
  6
Continuous
 62
     7
100
AcDbLine
 10
750.359434584686
 20
-37.87615701300649
 30
0.0
 11
750.359434584686
 21
161.7483660043697
 31
0.0
1001
ACME_LAYERS
1000
1
  0
LINE
  5
3A90
330
1F
100
AcDbEntity
  8
P-0000
  6
HIDDEN
 62
     2
100
AcDbLine
 10
562.9478578296832
 20
66.64836600436979
 30
0.0
 11
573.4799260356228
 21
72.24836600436981
 31
0.0
1001
ACME_LAYERS
1000
1
  0
LINE
  5
3A91
330
1F
100
AcDbEntity
  8
P-0000
  6
HIDDEN
 62
     2
100
AcDbLine
 10
545.250109655153
 20
-39.25163399563018
 30
0.0
 11
545.2501096551531
 21
147.7483660043698
 31
0.0
1001
ACME_LAYERS
1000
1
  0
LINE
  5
3A92
330
1F
100
AcDbEntity
  8
P-0000
  6
Continuous
 62
     7
100
AcDbLine
 10
678.250109655153
 20
96.4299459343497
 30
0.0
 11
678.250109655153
 21
-39.25163399563018
 31
0.0
1001
ACME_LAYERS
1000
1
  0
LINE
  5
3A93
330
1F
100
AcDbEntity
  8
P-0000
  6
Continuous
 62
     7
100
AcDbLine
 10
543.2501096551529
 20
-39.25163399563018
 30
0.0
 11
543.2501096551531
 21
147.7483660043698
 31
0.0
1001
ACME_LAYERS
1000
1
  0
LINE
  5
3A94
330
1F
100
AcDbEntity
  8
AM_7
100
AcDbLine
 10
832.3594345846862
 20
108.7483660043697
 30
0.0
 11
832.359434584686
 21
70.7483660043697
 31
0.0
1001
ACME_LAYERS
1000
1
  0
LINE
  5
3A95
330
1F
100
AcDbEntity
  8
P-0000
  6
Continuous
 62
     7
100
AcDbLine
 10
769.814398847645
 20
-39.2516339956303
 30
0.0
 11
769.8143988476451
 21
161.7483660043697
 31
0.0
1001
ACME_LAYERS
1000
1
  0
LINE
  5
3A96
330
1F
100
AcDbEntity
  8
P-0000
  6
Continuous
 62
     7
100
AcDbLine
 10
914.3594345846862
 20
161.7483660043697
 30
0.0
 11
914.3594345846858
 21
-39.2516339956303
 31
0.0
1001
ACME_LAYERS
1000
1
  0
ARC
  5
3A97
330
1F
100
AcDbEntity
  8
P-0000
  6
Continuous
 62
     7
100
AcDbCircle
 10
832.3594345846862
 20
108.7483660043697
 30
0.0
 40
34.90000000000002
100
AcDbArc
 50
180.0
 51
270.0
1001
ACME_LAYERS
1000
1
  0
ARC
  5
3A98
330
1F
100
AcDbEntity
  8
P-0000
  6
Continuous
 62
     7
100
AcDbCircle
 10
832.3594345846862
 20
108.7483660043697
 30
0.0
 40
38.00000000000002
100
AcDbArc
 50
180.0
 51
270.0
1001
ACME_LAYERS
1000
1
  0
ARC
  5
3A99
330
1F
100
AcDbEntity
  8
P-0000
  6
Continuous
 62
     7
100
AcDbCircle
 10
832.3594345846862
 20
108.7483660043697
 30
0.0
 40
39.46167273222817
100
AcDbArc
 50
180.0
 51
270.0
1001
ACME_LAYERS
1000
1
  0
ARC
  5
3A9A
330
1F
100
AcDbEntity
  8
P-0000
  6
Continuous
 62
     7
100
AcDbCircle
 10
832.3594345846862
 20
108.7483660043697
 30
0.0
 40
41.00000000000001
100
AcDbArc
 50
180.0
 51
270.0
1001
ACME_LAYERS
1000
1
  0
DIMENSION
  5
3A9B
330
1F
100
AcDbEntity
  8
AM_5
100
AcDbDimension
  2
*D10
 10
596.250109655153
 20
193.9098722805198
 30
0.0
 11
637.250109655153
 21
193.9098722805198
 31
0.0
 70
   160
  1
(<>)
 71
     5
 42
81.99999999999988
  3
AM_DIN$0
100
AcDbAlignedDimension
 13
678.250109655153
 23
163.7483660043698
 33
0.0
 14
596.250109655153
 24
172.4272804485297
 34
0.0
100
AcDbRotatedDimension
1001
ACME_LAYERS
1000
1
1001
ACAD
1000
DSTYLE
1002
{
1070
   140
1040
8.0
1002
}
  0
LINE
  5
3A9D
330
1F
100
AcDbEntity
  8
P-0000
  6
Continuous
 62
     7
100
AcDbLine
 10
593.808402469488
 20
163.7483660043698
 30
0.0
 11
661.6244723303187
 21
163.7483660043698
 31
0.0
1001
ACME_LAYERS
1000
1
  0
LINE
  5
3A9E
330
1F
100
AcDbEntity
  8
P-0000
  6
Continuous
 62
     7
100
AcDbLine
 10
660.0999895864149
 20
161.7483660043698
 30
0.0
 11
545.2501096551531
 21
161.7483660043698
 31
0.0
1001
ACME_LAYERS
1000
1
  0
SPLINE
  5
3A9F
330
1F
100
AcDbEntity
  8
P-0000
  6
Continuous
 62
     3
100
AcDbSpline
210
0.0
220
0.0
230
1.0
 70
     8
 71
     3
 72
    11
 73
     7
 74
     0
 42
0.0000000001
 43
0.0000000001
 40
0.0
 40
0.0
 40
0.0
 40
0.0
 40
33.10232674379946
 40
47.47669143163864
 40
60.27973735278835
 40
72.1002449126114
 40
72.1002449126114
 40
72.1002449126114
 40
72.1002449126114
 10
676.2501096551529
 20
97.74836600436982
 30
0.0
 10
663.4870032805966
 20
100.6025162369672
 30
0.0
 10
661.3405442932328
 20
118.3860779780141
 30
0.0
 10
654.1027106395888
 20
137.1686332818642
 30
0.0
 10
655.7365205724752
 20
150.3462489503563
 30
0.0
 10
657.953765648594
 20
158.4728644837613
 30
0.0
 10
660.0999895864149
 20
161.7483660043698
 30
0.0
  0
LINE
  5
3AA0
330
1F
100
AcDbEntity
  8
P-0000
  6
Continuous
 62
     7
100
AcDbLine
 10
543.2501096551531
 20
163.7483660043698
 30
0.0
 11
593.808402469488
 21
163.7483660043698
 31
0.0
1001
ACME_LAYERS
1000
1
  0
LINE
  5
3AA1
330
1F
100
AcDbEntity
  8
P-0000
  6
HIDDEN
 62
     2
100
AcDbLine
 10
573.0810012310737
 20
143.6483660043698
 30
0.0
 11
562.5489330251341
 21
149.2483660043698
 31
0.0
1001
ACME_LAYERS
1000
1
  0
LINE
  5
3AA2
330
1F
100
AcDbEntity
  8
AM_7
100
AcDbLine
 10
539.499422888953
 20
108.7483660043698
 30
0.0
 11
592.499422888953
 21
108.7483660043698
 31
0.0
1001
ACME_LAYERS
1000
1
  0
LINE
  5
3AA3
330
1F
100
AcDbEntity
  8
P-0000
  6
HIDDEN
 62
     2
100
AcDbLine
 10
573.4799260356228
 20
145.2483660043698
 30
0.0
 11
562.9478578296832
 21
150.8483660043698
 31
0.0
1001
ACME_LAYERS
1000
1
  0
LINE
  5
3AA4
330
1F
100
AcDbEntity
  8
P-0000
  6
HIDDEN2
 62
     3
100
AcDbLine
 10
547.9319067135706
 20
152.2483660043698
 30
0.0
 11
538.9319067135706
 21
152.2483660043698
 31
0.0
1001
ACME_LAYERS
1000
1
  0
LINE
  5
3AA5
330
1F
100
AcDbEntity
  8
P-0000
  6
HIDDEN
 62
     2
100
AcDbLine
 10
545.2501096551531
 20
147.7483660043698
 30
0.0
 11
545.2501096551531
 21
156.7483660043698
 31
0.0
1001
ACME_LAYERS
1000
1
  0
LINE
  5
3AA6
330
1F
100
AcDbEntity
  8
P-0000
  6
Continuous
 62
     7
100
AcDbLine
 10
543.2501096551531
 20
147.7483660043698
 30
0.0
 11
543.2501096551531
 21
156.7483660043698
 31
0.0
1001
ACME_LAYERS
1000
1
  0
LINE
  5
3AA7
330
1F
100
AcDbEntity
  8
P-0000
  6
Continuous
 62
     7
100
AcDbLine
 10
543.2501096551531
 20
161.7483660043698
 30
0.0
 11
543.2501096551531
 21
163.7483660043698
 31
0.0
1001
ACME_LAYERS
1000
1
  0
LINE
  5
3AA8
330
1F
100
AcDbEntity
  8
P-0000
  6
HIDDEN
 62
     2
100
AcDbLine
 10
545.2501096551531
 20
156.7483660043698
 30
0.0
 11
545.2501096551531
 21
161.7483660043698
 31
0.0
1001
ACME_LAYERS
1000
1
  0
LINE
  5
3AA9
330
1F
100
AcDbEntity
  8
P-0000
  6
Continuous
 62
     7
100
AcDbLine
 10
543.2501096551531
 20
156.7483660043698
 30
0.0
 11
543.2501096551531
 21
161.7483660043698
 31
0.0
1001
ACME_LAYERS
1000
1
  0
LINE
  5
3AAA
330
1F
100
AcDbEntity
  8
P-0000
  6
Continuous
 62
     7
100
AcDbLine
 10
545.2501096551531
 20
161.7483660043698
 30
0.0
 11
543.2501096551531
 21
161.7483660043698
 31
0.0
1001
ACME_LAYERS
1000
1
  0
LINE
  5
3AAB
330
1F
100
AcDbEntity
  8
P-0000
  6
HIDDEN
 62
     2
100
AcDbLine
 10
545.2501096551531
 20
156.7483660043698
 30
0.0
 11
543.2501096551531
 21
156.7483660043698
 31
0.0
1001
ACME_LAYERS
1000
1
  0
LINE
  5
3AAC
330
1F
100
AcDbEntity
  8
P-0000
  6
HIDDEN
 62
     2
100
AcDbLine
 10
562.5489330251341
 20
149.2483660043698
 30
0.0
 11
549.5159802188348
 21
149.2483660043698
 31
0.0
1001
ACME_LAYERS
1000
1
  0
LINE
  5
3AAD
330
1F
100
AcDbEntity
  8
P-0000
  6
HIDDEN
 62
     2
100
AcDbLine
 10
562.9478578296832
 20
150.8483660043698
 30
0.0
 11
549.1758897201629
 21
150.8483660043698
 31
0.0
1001
ACME_LAYERS
1000
1
  0
LINE
  5
3AAE
330
1F
100
AcDbEntity
  8
P-0000
  6
HIDDEN2
 62
     2
100
AcDbLine
 10
549.5159802188348
 20
149.2483660043698
 30
0.0
 11
543.9008882840742
 21
146.7483660043698
 31
0.0
1001
ACME_LAYERS
1000
1
  0
LINE
  5
3AAF
330
1F
100
AcDbEntity
  8
P-0000
  6
HIDDEN2
 62
     2
100
AcDbLine
 10
549.1758897201629
 20
150.8483660043698
 30
0.0
 11
543.2501096551531
 21
148.2100387365981
 31
0.0
1001
ACME_LAYERS
1000
1
  0
LINE
  5
3AB0
330
1F
100
AcDbEntity
  8
P-0000
  6
HIDDEN
 62
     2
100
AcDbLine
 10
545.2501096551531
 20
147.7483660043698
 30
0.0
 11
543.2501096551531
 21
147.7483660043698
 31
0.0
1001
ACME_LAYERS
1000
1
  0
LINE
  5
3AB1
330
1F
100
AcDbEntity
  8
P-0000
  6
HIDDEN
 62
     2
100
AcDbLine
 10
588.250109655153
 20
134.7483660043698
 30
0.0
 11
588.250109655153
 21
145.2483660043698
 31
0.0
1001
ACME_LAYERS
1000
1
  0
LINE
  5
3AB5
330
1F
100
AcDbEntity
  8
P-0000
  6
HIDDEN
 62
     2
100
AcDbLine
 10
583.750109655153
 20
145.2483660043698
 30
0.0
 11
574.9950518665827
 21
145.2483660043698
 31
0.0
1001
ACME_LAYERS
1000
1
  0
LINE
  5
3AB6
330
1F
100
AcDbEntity
  8
P-0000
  6
HIDDEN
 62
     2
100
AcDbLine
 10
583.750109655153
 20
143.6483660043698
 30
0.0
 11
575.049391330694
 21
143.6483660043698
 31
0.0
1001
ACME_LAYERS
1000
1
  0
LINE
  5
3AB7
330
1F
100
AcDbEntity
  8
P-0000
  6
HIDDEN
 62
     2
100
AcDbLine
 10
575.049391330694
 20
143.6483660043698
 30
0.0
 11
573.0810012310737
 21
143.6483660043698
 31
0.0
1001
ACME_LAYERS
1000
1
  0
LINE
  5
3AB8
330
1F
100
AcDbEntity
  8
P-0000
  6
HIDDEN
 62
     2
100
AcDbLine
 10
574.9950518665827
 20
145.2483660043698
 30
0.0
 11
573.4799260356228
 21
145.2483660043698
 31
0.0
1001
ACME_LAYERS
1000
1
  0
LINE
  5
3AB9
330
1F
100
AcDbEntity
  8
P-0000
  6
HIDDEN
 62
     2
100
AcDbLine
 10
588.250109655153
 20
143.6483660043698
 30
0.0
 11
583.750109655153
 21
143.6483660043698
 31
0.0
1001
ACME_LAYERS
1000
1
  0
LINE
  5
3ABA
330
1F
100
AcDbEntity
  8
P-0000
  6
HIDDEN
 62
     2
100
AcDbLine
 10
588.250109655153
 20
145.2483660043698
 30
0.0
 11
583.750109655153
 21
145.2483660043698
 31
0.0
1001
ACME_LAYERS
1000
1
  0
LINE
  5
3ABC
330
1F
100
AcDbEntity
  8
P-0000
  6
HIDDEN
 62
     2
100
AcDbLine
 10
588.250109655153
 20
72.24836600436981
 30
0.0
 11
588.250109655153
 21
108.7483660043698
 31
0.0
1001
ACME_LAYERS
1000
1
  0
LINE
  5
3ABD
330
1F
100
AcDbEntity
  8
P-0000
  6
HIDDEN
 62
     2
100
AcDbLine
 10
588.250109655153
 20
108.7483660043698
 30
0.0
 11
588.250109655153
 21
126.2315052962997
 31
0.0
1001
ACME_LAYERS
1000
1
  0
LINE
  5
3ABE
330
1F
100
AcDbEntity
  8
P-0000
  6
HIDDEN
 62
     2
100
AcDbLine
 10
588.250109655153
 20
126.2315052962997
 30
0.0
 11
588.250109655153
 21
134.7483660043698
 31
0.0
1001
ACME_LAYERS
1000
1
  0
LINE
  5
3ABF
330
1F
100
AcDbEntity
  8
P-0000
  6
HIDDEN
 62
     2
100
AcDbLine
 10
573.0810012310737
 20
73.84836600436983
 30
0.0
 11
588.250109655153
 21
73.84836600436983
 31
0.0
1001
ACME_LAYERS
1000
1
  0
LINE
  5
3AC0
330
1F
100
AcDbEntity
  8
P-0000
  6
HIDDEN
 62
     2
100
AcDbLine
 10
573.4799260356228
 20
72.24836600436981
 30
0.0
 11
588.250109655153
 21
72.24836600436981
 31
0.0
1001
ACME_LAYERS
1000
1
  0
ARC
  5
3AC1
330
1F
100
AcDbEntity
  8
P-0000
  6
Continuous
 62
     7
100
AcDbCircle
 10
832.3594345846862
 20
108.7483660043697
 30
0.0
 40
41.0
100
AcDbArc
 50
0.0
 51
90.0
1001
ACME_LAYERS
1000
1
  0
ARC
  5
3AC2
330
1F
100
AcDbEntity
  8
P-0000
  6
Continuous
 62
     7
100
AcDbCircle
 10
832.3594345846862
 20
108.7483660043697
 30
0.0
 40
39.46167273222815
100
AcDbArc
 50
0.0
 51
90.0
1001
ACME_LAYERS
1000
1
  0
ARC
  5
3AC3
330
1F
100
AcDbEntity
  8
P-0000
  6
Continuous
 62
     7
100
AcDbCircle
 10
832.3594345846862
 20
108.7483660043697
 30
0.0
 40
38.0
100
AcDbArc
 50
0.0
 51
90.0
1001
ACME_LAYERS
1000
1
  0
ARC
  5
3AC4
330
1F
100
AcDbEntity
  8
P-0000
  6
Continuous
 62
     7
100
AcDbCircle
 10
832.3594345846862
 20
108.7483660043697
 30
0.0
 40
34.90000000000001
100
AcDbArc
 50
0.0
 51
90.0
1001
ACME_LAYERS
1000
1
  0
ARC
  5
3AC5
330
1F
100
AcDbEntity
  8
P-0000
  6
Continuous
 62
     7
100
AcDbCircle
 10
832.3594345846862
 20
121.7483660043697
 30
0.0
 40
10.0
100
AcDbArc
 50
0.0
 51
90.0
1001
ACME_LAYERS
1000
1
  0
ARC
  5
3AC6
330
1F
100
AcDbEntity
  8
P-0000
  6
Continuous
 62
     7
100
AcDbCircle
 10
832.3594345846862
 20
121.7483660043697
 30
0.0
 40
11.0
100
AcDbArc
 50
0.0
 51
90.0
1001
ACME_LAYERS
1000
1
  0
LINE
  5
3AC7
330
1F
100
AcDbEntity
  8
P-0000
  6
Continuous
 62
     7
100
AcDbLine
 10
832.3594345846862
 20
161.7483660043697
 30
0.0
 11
914.3594345846862
 21
161.7483660043697
 31
0.0
1001
ACME_LAYERS
1000
1
  0
LINE
  5
3AC8
330
1F
100
AcDbEntity
  8
AM_7
100
AcDbLine
 10
832.3594345846862
 20
121.7483660043697
 30
0.0
 11
848.0254555992368
 21
121.7483660043697
 31
0.0
1001
ACME_LAYERS
1000
1
  0
LINE
  5
3AC9
330
1F
100
AcDbEntity
  8
AM_7
100
AcDbLine
 10
832.3594345846862
 20
108.7483660043697
 30
0.0
 11
883.5367003721115
 21
108.7483660043697
 31
0.0
1001
ACME_LAYERS
1000
1
  0
LINE
  5
3ACA
330
1F
100
AcDbEntity
  8
P-0000
  6
Continuous
 62
     7
100
AcDbLine
 10
832.3594345846862
 20
163.7483660043697
 30
0.0
 11
914.3594345846862
 21
163.7483660043697
 31
0.0
1001
ACME_LAYERS
1000
1
  0
HATCH
  5
3ACF
330
1F
100
AcDbEntity
  8
P-0000
  6
Continuous
 62
     3
100
AcDbHatch
 10
0.0
 20
0.0
 30
0.0
210
0.0
220
0.0
230
1.0
  2
_U
 70
     0
 71
     0
 91
        1
 92
        1
 93
        5
 72
     1
 10
676.2501096551529
 20
161.7483660043698
 11
676.2501096551529
 21
133.2483660043698
 72
     1
 10
676.2501096551529
 20
133.2483660043698
 11
678.250109655153
 21
133.2483660043698
 72
     1
 10
678.250109655153
 20
133.2483660043698
 11
678.250109655153
 21
134.7981467143613
 72
     1
 10
678.250109655153
 20
134.7981467143613
 11
678.250109655153
 21
161.7483660043698
 72
     1
 10
678.250109655153
 20
161.7483660043698
 11
676.2501096551529
 21
161.7483660043698
 97
        0
 75
     0
 76
     0
 52
44.99999999999999
 41
1.0
 77
     0
 78
     1
 53
44.99999999999999
 43
881.6721177930284
 44
-242.8367409526393
 45
-0.7071067811865474
 46
0.7071067811865478
 79
     0
 98
        1
 10
881.6721177930284
 20
-242.8367409526393
1001
ACME_LAYERS
1000
1
  0
LINE
  5
3AD2
330
1F
100
AcDbEntity
  8
P-0000
  6
Continuous
 62
     7
100
AcDbLine
 10
676.2501096551529
 20
161.7483660043698
 30
0.0
 11
676.2501096551529
 21
133.2483660043698
 31
0.0
1001
ACME_LAYERS
1000
1
  0
LINE
  5
3AD3
330
1F
100
AcDbEntity
  8
P-0000
  6
Continuous
 62
     7
100
AcDbLine
 10
678.250109655153
 20
161.7483660043698
 30
0.0
 11
678.250109655153
 21
134.7981467143613
 31
0.0
1001
ACME_LAYERS
1000
1
  0
HATCH
  5
3AD4
330
1F
100
AcDbEntity
  8
P-0000
  6
Continuous
 62
     3
100
AcDbHatch
 10
0.0
 20
0.0
 30
0.0
210
0.0
220
0.0
230
1.0
  2
_U
 70
     0
 71
     0
 91
        1
 92
        1
 93
        5
 72
     1
 10
660.0999895864149
 20
161.7483660043698
 11
661.6244723303185
 21
163.7483660043698
 72
     1
 10
661.6244723303187
 20
163.7483660043698
 11
678.2501096551531
 21
163.7483660043698
 72
     1
 10
678.250109655153
 20
163.7483660043698
 11
678.250109655153
 21
161.7483660043698
 72
     1
 10
678.250109655153
 20
161.7483660043698
 11
676.2501096551529
 21
161.7483660043698
 72
     1
 10
676.2501096551529
 20
161.7483660043698
 11
660.0999895864149
 21
161.7483660043698
 97
        0
 75
     0
 76
     0
 52
-45.00000000000001
 41
1.0
 77
     0
 78
     1
 53
315.0
 43
881.6721177930284
 44
-242.8367409526393
 45
0.7071067811865478
 46
0.7071067811865474
 79
     0
 98
        1
 10
881.6721177930284
 20
-242.8367409526393
1001
ACME_LAYERS
1000
1
  0
LINE
  5
3AD5
330
1F
100
AcDbEntity
  8
P-0000
  6
Continuous
 62
     7
100
AcDbLine
 10
660.0999895864149
 20
161.7483660043698
 30
0.0
 11
676.2501096551529
 21
161.7483660043698
 31
0.0
1001
ACME_LAYERS
1000
1
  0
LINE
  5
3AD6
330
1F
100
AcDbEntity
  8
P-0000
  6
Continuous
 62
     7
100
AcDbLine
 10
661.6244723303187
 20
163.7483660043698
 30
0.0
 11
678.250109655153
 21
163.7483660043698
 31
0.0
1001
ACME_LAYERS
1000
1
  0
SPLINE
  5
3AD7
330
1F
100
AcDbEntity
  8
P-0000
  6
Continuous
 62
     3
100
AcDbSpline
210
0.0
220
0.0
230
1.0
 70
     8
 71
     3
 72
     8
 73
     4
 74
     0
 42
0.0000000001
 43
0.0000000001
 40
72.1002449126114
 40
72.1002449126114
 40
72.1002449126114
 40
72.1002449126114
 40
74.61501083342025
 40
74.61501083342025
 40
74.61501083342025
 40
74.61501083342025
 10
660.0999895864149
 20
161.7483660043698
 30
0.0
 10
660.5565901841421
 20
162.4452159116933
 30
0.0
 10
661.0621557126915
 20
163.1137474243219
 30
0.0
 10
661.6244723303187
 20
163.7483660043698
 30
0.0
  0
LINE
  5
3AD8
330
1F
100
AcDbEntity
  8
P-0000
  6
Continuous
 62
     7
100
AcDbLine
 10
678.250109655153
 20
163.7483660043698
 30
0.0
 11
678.250109655153
 21
161.7483660043698
 31
0.0
1001
ACME_LAYERS
1000
1
  0
LINE
  5
3AD9
330
1F
100
AcDbEntity
  8
P-0000
  6
Continuous
 62
     7
100
AcDbLine
 10
678.250109655153
 20
161.7483660043698
 30
0.0
 11
676.2501096551529
 21
161.7483660043698
 31
0.0
1001
ACME_LAYERS
1000
1
  0
HATCH
  5
3AE3
330
1F
100
AcDbEntity
  8
P-0000
  6
Continuous
 62
     3
100
AcDbHatch
 10
0.0
 20
0.0
 30
0.0
210
0.0
220
0.0
230
1.0
  2
_U
 70
     0
 71
     0
 91
        1
 92
        1
 93
        6
 72
     1
 10
673.250109655153
 20
110.7483660043698
 11
673.250109655153
 21
111.7483660043698
 72
     1
 10
673.250109655153
 20
111.7483660043698
 11
707.6727593859634
 21
111.7483660043698
 72
     1
 10
707.6727593859634
 20
111.7483660043697
 11
708.250109655153
 21
110.7483660043697
 72
     1
 10
708.250109655153
 20
110.7483660043697
 11
678.250109655153
 21
110.7483660043697
 72
     1
 10
678.250109655153
 20
110.7483660043698
 11
676.2501096551529
 21
110.7483660043698
 72
     1
 10
676.2501096551529
 20
110.7483660043698
 11
673.250109655153
 21
110.7483660043698
 97
        0
 75
     0
 76
     0
 52
-45.00000000000001
 41
1.0
 77
     0
 78
     1
 53
315.0
 43
881.6721177930284
 44
-242.8367409526393
 45
0.7071067811865478
 46
0.7071067811865474
 79
     0
 98
        1
 10
881.6721177930284
 20
-242.8367409526393
1001
ACME_LAYERS
1000
1
  0
DIMENSION
  5
3AE4
330
1F
100
AcDbEntity
  8
AM_5
100
AcDbDimension
  2
*D17
 10
678.250109655153
 20
88.96465826922394
 30
0.0
 11
695.7547514114935
 21
88.96465826922394
 31
0.0
 70
   160
  1
<>
 71
     5
 42
30.0
  3
AM_DIN$0
100
AcDbAlignedDimension
 13
708.250109655153
 23
110.7483660043697
 33
0.0
 14
678.250109655153
 24
110.2483660043698
 34
0.0
100
AcDbRotatedDimension
1001
ACME_LAYERS
1000
1
1001
ACAD
1000
DSTYLE
1002
{
1070
   140
1040
8.0
1002
}
  0
DIMENSION
  5
3AE5
330
1F
100
AcDbEntity
  8
AM_5
100
AcDbDimension
  2
*D18
 10
723.7904683340247
 20
110.7483660043697
 30
0.0
 11
723.7904683340247
 21
121.49936237662
 31
0.0
 70
   160
  1
%%c<>
 71
     5
 42
21.99999999999999
  3
AM_DIN$0
100
AcDbAlignedDimension
 13
695.5484037329811
 23
132.7483660043697
 33
0.0
 14
708.250109655153
 24
110.7483660043697
 34
0.0
 50
270.0
100
AcDbRotatedDimension
1001
ACME_LAYERS
1000
1
1001
ACAD
1000
DSTYLE
1002
{
1070
   140
1040
8.0
1002
}
  0
LINE
  5
3AE6
330
1F
100
AcDbEntity
  8
AM_7
100
AcDbLine
 10
669.5451325333317
 20
121.7483660043698
 30
0.0
 11
705.0563616767274
 21
121.7483660043697
 31
0.0
1001
ACME_LAYERS
1000
1
  0
LINE
  5
3AE7
330
1F
100
AcDbEntity
  8
P-0000
  6
Continuous
 62
     7
100
AcDbLine
 10
707.6727593859634
 20
111.7483660043697
 30
0.0
 11
696.1257540021708
 21
131.7483660043697
 31
0.0
1001
ACME_LAYERS
1000
1
  0
LINE
  5
3AE8
330
1F
100
AcDbEntity
  8
P-0000
  6
Continuous
 62
     7
100
AcDbLine
 10
673.250109655153
 20
111.7483660043698
 30
0.0
 11
707.6727593859634
 21
111.7483660043697
 31
0.0
1001
ACME_LAYERS
1000
1
  0
LINE
  5
3AE9
330
1F
100
AcDbEntity
  8
P-0000
  6
Continuous
 62
     7
100
AcDbLine
 10
678.250109655153
 20
110.7483660043698
 30
0.0
 11
708.250109655153
 21
110.7483660043697
 31
0.0
1001
ACME_LAYERS
1000
1
  0
HATCH
  5
3AEA
330
1F
100
AcDbEntity
  8
P-0000
  6
Continuous
 62
     3
100
AcDbHatch
 10
0.0
 20
0.0
 30
0.0
210
0.0
220
0.0
230
1.0
  2
_U
 70
     0
 71
     0
 91
        1
 92
        1
 93
        5
 72
     1
 10
676.2501096551529
 20
110.2483660043698
 11
676.2501096551529
 21
97.74836600436982
 72
     1
 10
676.2501096551529
 20
97.74836600436982
 11
677.1611053276326
 21
96.95168073770105
 72
     1
 10
677.1611053276326
 20
96.95168073770105
 11
678.250109655153
 21
96.4299459343497
 72
     1
 10
678.250109655153
 20
96.4299459343497
 11
678.250109655153
 21
110.2483660043697
 72
     1
 10
678.250109655153
 20
110.2483660043698
 11
676.2501096551529
 21
110.2483660043698
 97
        0
 75
     0
 76
     0
 52
44.99999999999999
 41
1.0
 77
     0
 78
     1
 53
44.99999999999999
 43
881.6721177930284
 44
-242.8367409526393
 45
-0.7071067811865474
 46
0.7071067811865478
 79
     0
 98
        1
 10
881.6721177930284
 20
-242.8367409526393
1001
ACME_LAYERS
1000
1
  0
LINE
  5
3AEB
330
1F
100
AcDbEntity
  8
P-0000
  6
Continuous
 62
     7
100
AcDbLine
 10
678.250109655153
 20
110.2483660043698
 30
0.0
 11
678.250109655153
 21
96.4299459343497
 31
0.0
1001
ACME_LAYERS
1000
1
  0
LINE
  5
3AEC
330
1F
100
AcDbEntity
  8
P-0000
  6
Continuous
 62
     7
100
AcDbLine
 10
676.2501096551529
 20
110.2483660043698
 30
0.0
 11
676.2501096551529
 21
97.74836600436982
 31
0.0
1001
ACME_LAYERS
1000
1
  0
HATCH
  5
3AED
330
1F
100
AcDbEntity
  8
P-0000
  6
Continuous
 62
     3
100
AcDbHatch
 10
0.0
 20
0.0
 30
0.0
210
0.0
220
0.0
230
1.0
  2
_U
 70
     0
 71
     0
 91
        1
 92
        1
 93
        7
 72
     1
 10
673.250109655153
 20
131.7483660043698
 11
673.250109655153
 21
132.7483660043698
 72
     1
 10
673.250109655153
 20
132.7483660043698
 11
676.2501096551529
 21
132.7483660043698
 72
     1
 10
676.2501096551529
 20
132.7483660043698
 11
678.250109655153
 21
132.7483660043698
 72
     1
 10
678.250109655153
 20
132.7483660043698
 11
679.9658398619885
 21
132.7483660043698
 72
     1
 10
679.9658398619885
 20
132.7483660043698
 11
695.5484037329811
 21
132.7483660043698
 72
     1
 10
695.5484037329811
 20
132.7483660043697
 11
696.1257540021708
 21
131.7483660043697
 72
     1
 10
696.1257540021708
 20
131.7483660043697
 11
673.250109655153
 21
131.7483660043697
 97
        0
 75
     0
 76
     0
 52
-45.00000000000001
 41
1.0
 77
     0
 78
     1
 53
315.0
 43
881.6721177930284
 44
-242.8367409526393
 45
0.7071067811865478
 46
0.7071067811865474
 79
     0
 98
        1
 10
881.6721177930284
 20
-242.8367409526393
1001
ACME_LAYERS
1000
1
  0
LINE
  5
3AEE
330
1F
100
AcDbEntity
  8
P-0000
  6
Continuous
 62
     7
100
AcDbLine
 10
679.9658398619885
 20
132.7483660043698
 30
0.0
 11
695.5484037329811
 21
132.7483660043697
 31
0.0
1001
ACME_LAYERS
1000
1
  0
LINE
  5
3AEF
330
1F
100
AcDbEntity
  8
P-0000
  6
Continuous
 62
     7
100
AcDbLine
 10
673.250109655153
 20
131.7483660043698
 30
0.0
 11
696.1257540021708
 21
131.7483660043697
 31
0.0
1001
ACME_LAYERS
1000
1
  0
LINE
  5
3AF0
330
1F
100
AcDbEntity
  8
P-0000
  6
Continuous
 62
     7
100
AcDbLine
 10
673.250109655153
 20
111.7483660043698
 30
0.0
 11
673.250109655153
 21
131.7483660043698
 31
0.0
1001
ACME_LAYERS
1000
1
  0
LINE
  5
3AF1
330
1F
100
AcDbEntity
  8
P-0000
  6
Continuous
 62
     7
100
AcDbLine
 10
676.2501096551529
 20
133.2483660043698
 30
0.0
 11
678.250109655153
 21
133.2483660043698
 31
0.0
1001
ACME_LAYERS
1000
1
  0
LINE
  5
3AF2
330
1F
100
AcDbEntity
  8
P-0000
  6
Continuous
 62
     7
100
AcDbLine
 10
676.2501096551529
 20
132.7483660043698
 30
0.0
 11
678.250109655153
 21
132.7483660043698
 31
0.0
1001
ACME_LAYERS
1000
1
  0
LINE
  5
3AF3
330
1F
100
AcDbEntity
  8
P-0000
  6
Continuous
 62
     7
100
AcDbLine
 10
676.2501096551529
 20
133.2483660043698
 30
0.0
 11
676.2501096551529
 21
132.7483660043698
 31
0.0
1001
ACME_LAYERS
1000
1
  0
LINE
  5
3AF4
330
1F
100
AcDbEntity
  8
P-0000
  6
Continuous
 62
     7
100
AcDbLine
 10
673.250109655153
 20
131.7483660043698
 30
0.0
 11
673.250109655153
 21
132.7483660043698
 31
0.0
1001
ACME_LAYERS
1000
1
  0
LINE
  5
3AF5
330
1F
100
AcDbEntity
  8
P-0000
  6
Continuous
 62
     7
100
AcDbLine
 10
673.250109655153
 20
132.7483660043698
 30
0.0
 11
676.2501096551529
 21
132.7483660043698
 31
0.0
1001
ACME_LAYERS
1000
1
  0
LINE
  5
3AF6
330
1F
100
AcDbEntity
  8
P-0000
  6
Continuous
 62
     7
100
AcDbLine
 10
678.250109655153
 20
134.7981467143613
 30
0.0
 11
678.250109655153
 21
133.2483660043698
 31
0.0
1001
ACME_LAYERS
1000
1
  0
LINE
  5
3AF7
330
1F
100
AcDbEntity
  8
P-0000
  6
Continuous
 62
     7
100
AcDbLine
 10
678.250109655153
 20
133.2483660043698
 30
0.0
 11
678.250109655153
 21
132.7483660043698
 31
0.0
1001
ACME_LAYERS
1000
1
  0
LINE
  5
3AF8
330
1F
100
AcDbEntity
  8
P-0000
  6
Continuous
 62
     7
100
AcDbLine
 10
678.250109655153
 20
132.7483660043698
 30
0.0
 11
679.9658398619885
 21
132.7483660043698
 31
0.0
1001
ACME_LAYERS
1000
1
  0
LINE
  5
3AF9
330
1F
100
AcDbEntity
  8
P-0000
  6
Continuous
 62
     7
100
AcDbLine
 10
676.2501096551529
 20
110.2483660043698
 30
0.0
 11
678.250109655153
 21
110.2483660043698
 31
0.0
1001
ACME_LAYERS
1000
1
  0
LINE
  5
3AFA
330
1F
100
AcDbEntity
  8
P-0000
  6
Continuous
 62
     7
100
AcDbLine
 10
676.2501096551529
 20
110.7483660043698
 30
0.0
 11
678.250109655153
 21
110.7483660043698
 31
0.0
1001
ACME_LAYERS
1000
1
  0
LINE
  5
3AFB
330
1F
100
AcDbEntity
  8
P-0000
  6
Continuous
 62
     7
100
AcDbLine
 10
676.2501096551529
 20
110.7483660043698
 30
0.0
 11
676.2501096551529
 21
110.2483660043698
 31
0.0
1001
ACME_LAYERS
1000
1
  0
LINE
  5
3AFC
330
1F
100
AcDbEntity
  8
P-0000
  6
Continuous
 62
     7
100
AcDbLine
 10
673.250109655153
 20
110.7483660043698
 30
0.0
 11
673.250109655153
 21
111.7483660043698
 31
0.0
1001
ACME_LAYERS
1000
1
  0
LINE
  5
3AFD
330
1F
100
AcDbEntity
  8
P-0000
  6
Continuous
 62
     7
100
AcDbLine
 10
673.250109655153
 20
110.7483660043698
 30
0.0
 11
676.2501096551529
 21
110.7483660043698
 31
0.0
1001
ACME_LAYERS
1000
1
  0
LINE
  5
3AFE
330
1F
100
AcDbEntity
  8
P-0000
  6
Continuous
 62
     7
100
AcDbLine
 10
678.250109655153
 20
110.2483660043698
 30
0.0
 11
678.250109655153
 21
108.6985852943783
 31
0.0
1001
ACME_LAYERS
1000
1
  0
LINE
  5
3AFF
330
1F
100
AcDbEntity
  8
P-0000
  6
Continuous
 62
     7
100
AcDbLine
 10
679.9658398619885
 20
110.7483660043698
 30
0.0
 11
678.250109655153
 21
110.7483660043698
 31
0.0
1001
ACME_LAYERS
1000
1
  0
LINE
  5
3B00
330
1F
100
AcDbEntity
  8
P-0000
  6
Continuous
 62
     7
100
AcDbLine
 10
678.250109655153
 20
110.7483660043698
 30
0.0
 11
678.250109655153
 21
110.2483660043698
 31
0.0
1001
ACME_LAYERS
1000
1
  0
LINE
  5
3B01
330
1F
100
AcDbEntity
  8
P-0000
  6
Continuous
 62
     7
100
AcDbLine
 10
678.250109655153
 20
110.7483660043698
 30
0.0
 11
678.250109655153
 21
110.2483660043698
 31
0.0
1001
ACME_LAYERS
1000
1
  0
LINE
  5
3B02
330
1F
100
AcDbEntity
  8
P-0000
  6
Continuous
 62
     7
100
AcDbLine
 10
696.1257540021708
 20
131.7483660043697
 30
0.0
 11
695.5484037329811
 21
132.7483660043697
 31
0.0
1001
ACME_LAYERS
1000
1
  0
SPLINE
  5
3B03
330
1F
100
AcDbEntity
  8
P-0000
  6
Continuous
 62
     3
100
AcDbSpline
210
0.0
220
0.0
230
1.0
 70
     8
 71
     2
 72
     6
 73
     3
 74
     0
 42
0.0000000001
 43
0.0000000001
 40
0.0
 40
0.0
 40
0.0
 40
2.417669244863113
 40
2.417669244863113
 40
2.417669244863113
 10
676.2501096551529
 20
97.74836600436982
 30
0.0
 10
677.0721010001123
 20
96.81420550604242
 30
0.0
 10
678.250109655153
 20
96.4299459343497
 30
0.0
  0
LINE
  5
3B04
330
1F
100
AcDbEntity
  8
P-0000
  6
Continuous
 62
     7
100
AcDbLine
 10
708.250109655153
 20
110.7483660043697
 30
0.0
 11
707.6727593859634
 21
111.7483660043697
 31
0.0
1001
ACME_LAYERS
1000
1
  0
LINE
  5
3B05
330
1F
100
AcDbEntity
  8
AM_7
100
AcDbLine
 10
832.3594345846862
 20
143.6483660043696
 30
0.0
 11
832.3594345846862
 21
132.7483660043697
 31
0.0
1001
ACME_LAYERS
1000
1
  0
ARC
  5
3B06
330
1F
100
AcDbEntity
  8
P-0000
  6
Continuous
 62
     7
100
AcDbCircle
 10
832.3594345846862
 20
108.7483660043697
 30
0.0
 40
34.90000000000004
100
AcDbArc
 50
90.0
 51
180.0
1001
ACME_LAYERS
1000
1
  0
ARC
  5
3B07
330
1F
100
AcDbEntity
  8
P-0000
  6
Continuous
 62
     7
100
AcDbCircle
 10
832.3594345846862
 20
108.7483660043697
 30
0.0
 40
38.0
100
AcDbArc
 50
90.0
 51
180.0
1001
ACME_LAYERS
1000
1
  0
ARC
  5
3B08
330
1F
100
AcDbEntity
  8
P-0000
  6
Continuous
 62
     7
100
AcDbCircle
 10
832.3594345846862
 20
108.7483660043697
 30
0.0
 40
39.46167273222824
100
AcDbArc
 50
90.0
 51
180.0
1001
ACME_LAYERS
1000
1
  0
ARC
  5
3B09
330
1F
100
AcDbEntity
  8
P-0000
  6
Continuous
 62
     7
100
AcDbCircle
 10
832.3594345846862
 20
108.7483660043697
 30
0.0
 40
41.0
100
AcDbArc
 50
90.0
 51
180.0
1001
ACME_LAYERS
1000
1
  0
DIMENSION
  5
3B0A
330
1F
100
AcDbEntity
  8
AM_5
100
AcDbDimension
  2
*D19
 10
773.8143988476451
 20
199.3278270373757
 30
0.0
 11
788.8143988476452
 21
199.3278270373757
 31
0.0
 70
   160
  1
<>
 71
     5
 42
30.0
  3
AM_DIN$0
100
AcDbAlignedDimension
 13
803.8143988476452
 23
152.2483660043697
 33
0.0
 14
773.8143988476451
 24
152.2483660043697
 34
0.0
100
AcDbRotatedDimension
1001
ACME_LAYERS
1000
1
1001
ACAD
1000
DSTYLE
1002
{
1070
   140
1040
8.0
1002
}
  0
LINE
  5
3B0B
330
1F
100
AcDbEntity
  8
P-0000
  6
Continuous
 62
     7
100
AcDbLine
 10
750.359434584686
 20
163.7483660043697
 30
0.0
 11
832.3594345846862
 21
163.7483660043697
 31
0.0
1001
ACME_LAYERS
1000
1
  0
LINE
  5
3B0C
330
1F
100
AcDbEntity
  8
P-0000
  6
Continuous
 62
     7
100
AcDbLine
 10
769.8143988476451
 20
161.7483660043697
 30
0.0
 11
832.3594345846862
 21
161.7483660043697
 31
0.0
1001
ACME_LAYERS
1000
1
  0
LINE
  5
3B0D
330
1F
100
AcDbEntity
  8
AM_7
100
AcDbLine
 10
809.5664111954627
 20
152.2483660043697
 30
0.0
 11
767.409441251014
 21
152.2483660043697
 31
0.0
1001
ACME_LAYERS
1000
1
  0
LINE
  5
3B0F
330
1F
100
AcDbEntity
  8
P-0000
  6
Continuous
 62
     7
100
AcDbLine
 10
752.359434584686
 20
161.7483660043697
 30
0.0
 11
769.8143988476451
 21
161.7483660043697
 31
0.0
1001
ACME_LAYERS
1000
1
  0
LINE
  5
3B11
330
1F
100
AcDbEntity
  8
P-0000
  6
Continuous
 62
     7
100
AcDbLine
 10
750.359434584686
 20
161.7483660043697
 30
0.0
 11
750.359434584686
 21
163.7483660043697
 31
0.0
1001
ACME_LAYERS
1000
1
  0
LINE
  5
3B12
330
1F
100
AcDbEntity
  8
P-0000
  6
Continuous
 62
     7
100
AcDbLine
 10
750.359434584686
 20
161.7483660043697
 30
0.0
 11
752.359434584686
 21
161.7483660043697
 31
0.0
1001
ACME_LAYERS
1000
1
  0
LINE
  5
3B13
330
1F
100
AcDbEntity
  8
AM_7
100
AcDbLine
 10
832.3594345846862
 20
161.7483660043697
 30
0.0
 11
832.3594345846862
 21
149.7483660043697
 31
0.0
1001
ACME_LAYERS
1000
1
  0
LINE
  5
3B14
330
1F
100
AcDbEntity
  8
P-0000
  6
STRICHPUNKT
 62
     3
100
AcDbLine
 10
832.3594345846862
 20
163.7483660043697
 30
0.0
 11
832.3594345846862
 21
161.7483660043697
 31
0.0
1001
ACME_LAYERS
1000
1
  0
LINE
  5
3B15
330
1F
100
AcDbEntity
  8
AM_7
100
AcDbLine
 10
832.3594345846862
 20
170.2802899635577
 30
0.0
 11
832.3594345846862
 21
163.7483660043697
 31
0.0
1001
ACME_LAYERS
1000
1
  0
LINE
  5
3B16
330
1F
100
AcDbEntity
  8
AM_7
100
AcDbLine
 10
832.3594345846862
 20
146.7483660043697
 30
0.0
 11
832.3594345846862
 21
143.6483660043696
 31
0.0
1001
ACME_LAYERS
1000
1
  0
LINE
  5
3B17
330
1F
100
AcDbEntity
  8
AM_7
100
AcDbLine
 10
832.3594345846862
 20
148.210038736598
 30
0.0
 11
832.3594345846862
 21
146.7483660043697
 31
0.0
1001
ACME_LAYERS
1000
1
  0
LINE
  5
3B18
330
1F
100
AcDbEntity
  8
AM_7
100
AcDbLine
 10
832.3594345846862
 20
149.7483660043697
 30
0.0
 11
832.3594345846862
 21
148.210038736598
 31
0.0
1001
ACME_LAYERS
1000
1
  0
LINE
  5
3B19
330
1F
100
AcDbEntity
  8
AM_7
100
AcDbLine
 10
781.1821687972606
 20
108.7483660043697
 30
0.0
 11
832.3594345846862
 21
108.7483660043697
 31
0.0
1001
ACME_LAYERS
1000
1
  0
LINE
  5
3B1A
330
1F
100
AcDbEntity
  8
AM_7
100
AcDbLine
 10
832.3594345846862
 20
121.7483660043697
 30
0.0
 11
832.3594345846862
 21
111.7483660043697
 31
0.0
1001
ACME_LAYERS
1000
1
  0
ARC
  5
3B1B
330
1F
100
AcDbEntity
  8
P-0000
  6
Continuous
 62
     7
100
AcDbCircle
 10
832.3594345846862
 20
121.7483660043697
 30
0.0
 40
11.0
100
AcDbArc
 50
90.0
 51
180.0
1001
ACME_LAYERS
1000
1
  0
ARC
  5
3B1C
330
1F
100
AcDbEntity
  8
P-0000
  6
Continuous
 62
     7
100
AcDbCircle
 10
832.3594345846862
 20
121.7483660043697
 30
0.0
 40
10.0
100
AcDbArc
 50
90.0
 51
180.0
1001
ACME_LAYERS
1000
1
  0
LINE
  5
3B1D
330
1F
100
AcDbEntity
  8
AM_7
100
AcDbLine
 10
816.6934135701351
 20
121.7483660043697
 30
0.0
 11
832.3594345846862
 21
121.7483660043697
 31
0.0
1001
ACME_LAYERS
1000
1
  0
LINE
  5
3B1E
330
1F
100
AcDbEntity
  8
AM_7
100
AcDbLine
 10
832.3594345846862
 20
131.7483660043697
 30
0.0
 11
832.3594345846862
 21
121.7483660043697
 31
0.0
1001
ACME_LAYERS
1000
1
  0
LINE
  5
3B1F
330
1F
100
AcDbEntity
  8
P-0000
  6
STRICHPUNKT
 62
     3
100
AcDbLine
 10
832.3594345846862
 20
132.7483660043697
 30
0.0
 11
832.3594345846862
 21
131.7483660043697
 31
0.0
1001
ACME_LAYERS
1000
1
  0
LINE
  5
3B20
330
1F
100
AcDbEntity
  8
P-0000
  6
STRICHPUNKT
 62
     3
100
AcDbLine
 10
832.3594345846862
 20
110.7483660043697
 30
0.0
 11
832.3594345846862
 21
108.7483660043697
 31
0.0
1001
ACME_LAYERS
1000
1
  0
LINE
  5
3B21
330
1F
100
AcDbEntity
  8
AM_7
100
AcDbLine
 10
832.3594345846862
 20
111.7483660043697
 30
0.0
 11
832.3594345846862
 21
110.7483660043697
 31
0.0
1001
ACME_LAYERS
1000
1
  0
DIMENSION
  5
3B22
330
1F
100
AcDbEntity
  8
AM_5
100
AcDbDimension
  2
*D21
 10
923.8712713284524
 20
108.7483660043697
 30
0.0
 11
923.8712713284524
 21
134.2695272235356
 31
0.0
 70
   160
  1
<>
 71
     5
 42
55.0
  3
AM_DIN$0
100
AcDbAlignedDimension
 13
914.3594345846862
 23
163.7483660043697
 33
0.0
 14
883.5367003721115
 24
108.7483660043697
 34
0.0
 50
270.0
100
AcDbRotatedDimension
1001
ACME_LAYERS
1000
1
1001
ACAD
1000
DSTYLE
1002
{
1070
   140
1040
8.0
1002
}
  0
LINE
  5
3B23
330
1F
100
AcDbEntity
  8
AM_7
100
AcDbLine
 10
897.309427918358
 20
152.2483660043697
 30
0.0
 11
855.1524579739094
 21
152.2483660043697
 31
0.0
1001
ACME_LAYERS
1000
1
  0
LINE
  5
3B2D
330
1F
100
AcDbEntity
  8
P-0000
  6
Continuous
 62
     7
100
AcDbLine
 10
914.3594345846862
 20
163.7483660043697
 30
0.0
 11
914.3594345846862
 21
161.7483660043697
 31
0.0
1001
ACME_LAYERS
1000
1
  0
DIMENSION
  5
3B35
330
1F
100
AcDbEntity
  8
AM_5
100
AcDbDimension
  2
*D22
 10
707.3993171230524
 20
-111.2516339956302
 30
0.0
 11
707.3993171230524
 21
-78.44493943496127
 31
0.0
 70
   160
  1
<>
 71
     5
 42
70.0
  3
AM_DIN$0
100
AcDbAlignedDimension
 13
678.250109655153
 23
-41.25163399563018
 33
0.0
 14
623.4103636929972
 24
-111.2516339956302
 34
0.0
 50
270.0
100
AcDbRotatedDimension
1001
ACME_LAYERS
1000
1
1001
ACAD
1000
DSTYLE
1002
{
1070
   140
1040
8.0
1002
}
  0
LINE
  5
3B36
330
1F
100
AcDbEntity
  8
P-0000
  6
Continuous
 62
     7
100
AcDbLine
 10
545.250109655153
 20
-39.25163399563018
 30
0.0
 11
678.250109655153
 21
-39.25163399563018
 31
0.0
1001
ACME_LAYERS
1000
1
  0
LINE
  5
3B37
330
1F
100
AcDbEntity
  8
P-0000
  6
Continuous
 62
     7
100
AcDbLine
 10
678.250109655153
 20
-41.25163399563018
 30
0.0
 11
543.2501096551529
 21
-41.25163399563018
 31
0.0
1001
ACME_LAYERS
1000
1
  0
DIMENSION
  5
3B3E
330
1F
100
AcDbEntity
  8
AM_5
100
AcDbDimension
  2
*D23
 10
588.2501096551529
 20
-139.6248557529527
 30
0.0
 11
565.750109655153
 21
-139.6248557529527
 31
0.0
 70
   160
  1
<>
 71
     5
 42
45.0
  3
AM_DIN$0
100
AcDbAlignedDimension
 13
543.2501096551529
 23
-41.25163399563018
 33
0.0
 14
588.2501096551529
 24
-124.3079901307924
 34
0.0
100
AcDbRotatedDimension
1001
ACME_LAYERS
1000
1
1001
ACAD
1000
DSTYLE
1002
{
1070
   140
1040
8.0
1002
}
  0
LINE
  5
3B3F
330
1F
100
AcDbEntity
  8
P-0000
  6
STRICHLINIE
 62
     2
100
AcDbLine
 10
623.150109655153
 20
-106.0409899994904
 30
0.0
 11
623.150109655153
 21
-41.25163399563018
 31
0.0
1001
ACME_LAYERS
1000
1
  0
LINE
  5
3B40
330
1F
100
AcDbEntity
  8
P-0000
  6
STRICHLINIE
 62
     2
100
AcDbLine
 10
553.3501096551528
 20
-41.25163399563018
 30
0.0
 11
553.3501096551528
 21
-106.0409899994904
 31
0.0
1001
ACME_LAYERS
1000
1
  0
LINE
  5
3B41
330
1F
100
AcDbEntity
  8
AM_7
100
AcDbLine
 10
588.2501096551529
 20
-30.30799013079241
 30
0.0
 11
588.2501096551529
 21
-124.3079901307924
 31
0.0
1001
ACME_LAYERS
1000
1
  0
LINE
  5
3B42
330
1F
100
AcDbEntity
  8
P-0000
  6
Continuous
 62
     7
100
AcDbLine
 10
624.750109655153
 20
-106.2516339956302
 30
0.0
 11
624.750109655153
 21
-41.25163399563018
 31
0.0
1001
ACME_LAYERS
1000
1
  0
LINE
  5
3B43
330
1F
100
AcDbEntity
  8
P-0000
  6
Continuous
 62
     7
100
AcDbLine
 10
551.7501096551529
 20
-41.25163399563018
 30
0.0
 11
551.7501096551529
 21
-106.2516339956302
 31
0.0
1001
ACME_LAYERS
1000
1
  0
LINE
  5
3B44
330
1F
100
AcDbEntity
  8
P-0000
  6
HIDDEN
 62
     2
100
AcDbLine
 10
549.5159802188348
 20
68.24836600436981
 30
0.0
 11
562.5489330251341
 21
68.24836600436981
 31
0.0
1001
ACME_LAYERS
1000
1
  0
LINE
  5
3B45
330
1F
100
AcDbEntity
  8
P-0000
  6
HIDDEN
 62
     2
100
AcDbLine
 10
549.1758897201627
 20
66.64836600436979
 30
0.0
 11
562.9478578296832
 21
66.64836600436979
 31
0.0
1001
ACME_LAYERS
1000
1
  0
LINE
  5
3B46
330
1F
100
AcDbEntity
  8
P-0000
  6
HIDDEN
 62
     2
100
AcDbLine
 10
543.9008882840742
 20
70.74836600436981
 30
0.0
 11
549.5159802188348
 21
68.24836600436981
 31
0.0
1001
ACME_LAYERS
1000
1
  0
LINE
  5
3B47
330
1F
100
AcDbEntity
  8
P-0000
  6
HIDDEN
 62
     2
100
AcDbLine
 10
543.2501096551529
 20
69.28669327214163
 30
0.0
 11
549.1758897201627
 21
66.64836600436979
 31
0.0
1001
ACME_LAYERS
1000
1
  0
LINE
  5
3B48
330
1F
100
AcDbEntity
  8
P-0000
  6
Continuous
 62
     7
100
AcDbLine
 10
551.7501096551529
 20
-41.25163399563018
 30
0.0
 11
551.7501096551529
 21
-44.87081856083238
 31
0.0
1001
ACME_LAYERS
1000
1
  0
LINE
  5
3B49
330
1F
100
AcDbEntity
  8
P-0000
  6
Continuous
 62
     7
100
AcDbLine
 10
543.2501096551529
 20
-39.25163399563018
 30
0.0
 11
562.7050739181119
 21
-39.25163399563018
 31
0.0
1001
ACME_LAYERS
1000
1
  0
LINE
  5
3B4A
330
1F
100
AcDbEntity
  8
P-0000
  6
Continuous
 62
     7
100
AcDbLine
 10
543.2501096551529
 20
-39.25163399563018
 30
0.0
 11
543.2501096551529
 21
-37.87615701300638
 31
0.0
1001
ACME_LAYERS
1000
1
  0
LINE
  5
3B4B
330
1F
100
AcDbEntity
  8
P-0000
  6
Continuous
 62
     7
100
AcDbLine
 10
543.2501096551529
 20
-41.25163399563018
 30
0.0
 11
543.2501096551529
 21
-40.54983536265331
 31
0.0
1001
ACME_LAYERS
1000
1
  0
LINE
  5
3B4C
330
1F
100
AcDbEntity
  8
P-0000
  6
Continuous
 62
     7
100
AcDbLine
 10
543.2501096551529
 20
-40.54983536265331
 30
0.0
 11
543.2501096551529
 21
-39.25163399563018
 31
0.0
1001
ACME_LAYERS
1000
1
  0
LINE
  5
3B4D
330
1F
100
AcDbEntity
  8
P-0000
  6
Continuous
 62
     7
100
AcDbLine
 10
543.2501096551529
 20
-39.25163399563018
 30
0.0
 11
545.250109655153
 21
-39.25163399563018
 31
0.0
1001
ACME_LAYERS
1000
1
  0
LINE
  5
3B4E
330
1F
100
AcDbEntity
  8
P-0000
  6
Continuous
 62
     7
100
AcDbLine
 10
543.2501096551529
 20
-41.25163399563018
 30
0.0
 11
543.2501096551529
 21
-39.25163399563018
 31
0.0
1001
ACME_LAYERS
1000
1
  0
LINE
  5
3B4F
330
1F
100
AcDbEntity
  8
P-0000
  6
Continuous
 62
     7
100
AcDbLine
 10
549.0179992241764
 20
-41.25163399563018
 30
0.0
 11
551.7501096551529
 21
-41.25163399563018
 31
0.0
1001
ACME_LAYERS
1000
1
  0
LINE
  5
3B50
330
1F
100
AcDbEntity
  8
P-0000
  6
Continuous
 62
     7
100
AcDbLine
 10
624.750109655153
 20
-44.87081856083238
 30
0.0
 11
624.750109655153
 21
-41.25163399563018
 31
0.0
1001
ACME_LAYERS
1000
1
  0
LINE
  5
3B51
330
1F
100
AcDbEntity
  8
P-0000
  6
Continuous
 62
     7
100
AcDbLine
 10
624.750109655153
 20
-41.25163399563018
 30
0.0
 11
627.4822200861295
 21
-41.25163399563018
 31
0.0
1001
ACME_LAYERS
1000
1
  0
DIMENSION
  5
3B52
330
1F
100
AcDbEntity
  8
AM_5
100
AcDbDimension
  2
*D24
 10
551.7501096551529
 20
-128.0058180960491
 30
0.0
 11
603.1788150310025
 21
-128.0058180960491
 31
0.0
 70
   160
  1
%%c<>
 71
     5
 42
73.0
  3
AM_DIN$0
100
AcDbAlignedDimension
 13
624.750109655153
 23
-106.2516339956302
 33
0.0
 14
551.7501096551529
 24
-106.2516339956302
 34
0.0
100
AcDbRotatedDimension
1001
ACME_LAYERS
1000
1
1001
ACAD
1000
DSTYLE
1002
{
1070
   140
1040
8.0
1002
}
  0
LINE
  5
3B53
330
1F
100
AcDbEntity
  8
P-0000
  6
STRICHLINIE
 62
     2
100
AcDbLine
 10
554.6353369393711
 20
-110.837523523466
 30
0.0
 11
621.8648823709347
 21
-110.837523523466
 31
0.0
1001
ACME_LAYERS
1000
1
  0
LINE
  5
3B54
330
1F
100
AcDbEntity
  8
P-0000
  6
Continuous
 62
     7
100
AcDbLine
 10
553.0898556173085
 20
-111.2516339956302
 30
0.0
 11
588.2501096551529
 21
-111.2516339956302
 31
0.0
1001
ACME_LAYERS
1000
1
  0
LINE
  5
3B55
330
1F
100
AcDbEntity
  8
P-0000
  6
Continuous
 62
     3
100
AcDbLine
 10
553.750109655153
 20
-106.2516339956302
 30
0.0
 11
588.2501096551529
 21
-106.2516339956302
 31
0.0
1001
ACME_LAYERS
1000
1
  0
LINE
  5
3B56
330
1F
100
AcDbEntity
  8
P-0000
  6
STRICHLINIE
 62
     2
100
AcDbLine
 10
553.3501096551528
 20
-106.0409899994904
 30
0.0
 11
554.6353369393711
 21
-110.837523523466
 31
0.0
1001
ACME_LAYERS
1000
1
  0
LINE
  5
3B57
330
1F
100
AcDbEntity
  8
P-0000
  6
Continuous
 62
     7
100
AcDbLine
 10
551.7501096551529
 20
-106.2516339956302
 30
0.0
 11
553.0898556173085
 21
-111.2516339956302
 31
0.0
1001
ACME_LAYERS
1000
1
  0
LINE
  5
3B58
330
1F
100
AcDbEntity
  8
P-0000
  6
Continuous
 62
     3
100
AcDbLine
 10
588.2501096551529
 20
-106.2516339956302
 30
0.0
 11
622.7501096551529
 21
-106.2516339956302
 31
0.0
1001
ACME_LAYERS
1000
1
  0
LINE
  5
3B59
330
1F
100
AcDbEntity
  8
P-0000
  6
Continuous
 62
     7
100
AcDbLine
 10
588.2501096551529
 20
-111.2516339956302
 30
0.0
 11
623.4103636929972
 21
-111.2516339956302
 31
0.0
1001
ACME_LAYERS
1000
1
  0
LINE
  5
3B5A
330
1F
100
AcDbEntity
  8
P-0000
  6
STRICHLINIE
 62
     2
100
AcDbLine
 10
621.8648823709347
 20
-110.837523523466
 30
0.0
 11
623.150109655153
 21
-106.0409899994904
 31
0.0
1001
ACME_LAYERS
1000
1
  0
LINE
  5
3B5B
330
1F
100
AcDbEntity
  8
P-0000
  6
Continuous
 62
     7
100
AcDbLine
 10
623.4103636929972
 20
-111.2516339956302
 30
0.0
 11
624.750109655153
 21
-106.2516339956302
 31
0.0
1001
ACME_LAYERS
1000
1
  0
HATCH
  5
3B65
330
1F
100
AcDbEntity
  8
P-0000
  6
Continuous
 62
     3
100
AcDbHatch
 10
0.0
 20
0.0
 30
0.0
210
0.0
220
0.0
230
1.0
  2
_U
 70
     0
 71
     0
 91
        1
 92
        1
 93
       13
 72
     2
 10
593.7001162471172
 20
-286.9769840719176
 40
82.00000000000002
 50
-7.004726409076411
 51
-0.0000000000000254
 73
     1
 72
     1
 10
675.7001162471173
 20
-286.9769840719176
 11
673.7001162471173
 21
-286.9769840719176
 72
     2
 10
593.7001162471172
 20
-286.9769840719176
 40
80.00000000000003
 50
360.0
 51
367.9032077334846
 73
     0
 72
     2
 10
593.7001162471172
 20
-286.9769840719176
 40
79.99999999999997
 50
367.9032077334846
 51
438.430244776465
 73
     0
 72
     2
 10
593.7001162471172
 20
-286.9769840719176
 40
79.99999999999999
 50
438.430244776465
 51
439.9213418922123
 73
     0
 72
     2
 10
593.7001162471172
 20
-286.9769840719176
 40
79.99999999999999
 50
439.9213418922123
 51
460.0786581077876
 73
     0
 72
     2
 10
593.7001162471172
 20
-286.9769840719176
 40
80.00000000000001
 50
460.0786581077876
 51
489.2144451353026
 73
     0
 72
     1
 10
543.1221436199779
 20
-348.9597936640001
 11
542.7001162471173
 21
-349.4769840719176
 72
     1
 10
542.7001162471173
 20
-349.4769840719176
 11
541.8576943042995
 21
-350.5093639038022
 72
     2
 10
593.7001162471172
 20
-286.9769840719176
 40
81.99999999999999
 50
-129.2144451353026
 51
-90.00000000000003
 73
     1
 72
     2
 10
593.7001162471172
 20
-286.9769840719176
 40
81.99999999999999
 50
-90.00000000000003
 51
-9.2217983823045
 73
     1
 72
     2
 10
593.7001162471172
 20
-286.9769840719176
 40
82.00000000000002
 50
-9.2217983823045
 51
-7.709259860055165
 73
     1
 72
     2
 10
593.7001162471172
 20
-286.9769840719176
 40
82.00000000000002
 50
-7.709259860055165
 51
-7.004726409076411
 73
     1
 97
        0
 75
     0
 76
     0
 52
-45.00000000000002
 41
1.0
 77
     0
 78
     1
 53
314.9999999999999
 43
590.1957317034158
 44
-330.2583372294315
 45
0.7071067811865479
 46
0.7071067811865472
 79
     0
 98
        1
 10
590.1957317034158
 20
-330.2583372294315
1001
ACME_LAYERS
1000
1
  0
HATCH
  5
3B66
330
1F
100
AcDbEntity
  8
P-0000
  6
Continuous
 62
     3
100
AcDbHatch
 10
0.0
 20
0.0
 30
0.0
210
0.0
220
0.0
230
1.0
  2
_U
 70
     0
 71
     0
 91
        1
 92
        1
 93
       12
 72
     2
 10
593.7001162471172
 20
-286.9769840719176
 40
82.0
 50
9.257420112842172
 51
89.99999999999998
 73
     1
 72
     2
 10
593.7001162471172
 20
-286.9769840719176
 40
81.99999999999997
 50
89.99999999999998
 51
129.2144451353026
 73
     1
 72
     1
 10
541.8576943042994
 20
-223.4446042400332
 11
542.7001162471173
 21
-224.4769840719178
 72
     1
 10
542.7001162471173
 20
-224.4769840719176
 11
543.1221436199779
 21
-224.9941744798351
 72
     2
 10
593.7001162471172
 20
-286.9769840719176
 40
80.00000000000001
 50
230.7855548646975
 51
259.9213418922123
 73
     0
 72
     2
 10
593.7001162471172
 20
-286.9769840719176
 40
80.00000000000001
 50
259.9213418922123
 51
280.0786581077876
 73
     0
 72
     2
 10
593.7001162471172
 20
-286.9769840719176
 40
80.0
 50
280.0786581077876
 51
352.0967922665154
 73
     0
 72
     2
 10
593.7001162471172
 20
-286.9769840719176
 40
80.00000000000003
 50
352.0967922665154
 51
360.0
 73
     0
 72
     1
 10
673.7001162471173
 20
-286.9769840719176
 11
675.7001162471173
 21
-286.9769840719176
 72
     2
 10
593.7001162471172
 20
-286.9769840719176
 40
82.00000000000002
 50
-0.0000000000000254
 51
7.004726409076309
 73
     1
 72
     2
 10
593.7001162471172
 20
-286.9769840719176
 40
82.00000000000001
 50
7.004726409076309
 51
7.709259860055063
 73
     1
 72
     2
 10
593.7001162471172
 20
-286.9769840719176
 40
82.00000000000001
 50
7.709259860055063
 51
9.257420112842172
 73
     1
 97
        0
 75
     0
 76
     0
 52
-45.00000000000002
 41
1.0
 77
     0
 78
     1
 53
314.9999999999999
 43
590.1957317034158
 44
-330.2583372294315
 45
0.7071067811865479
 46
0.7071067811865472
 79
     0
 98
        1
 10
590.1957317034158
 20
-330.2583372294315
1001
ACME_LAYERS
1000
1
  0
DIMENSION
  5
3B67
330
1F
100
AcDbEntity
  8
AM_5
100
AcDbDimension
  2
*D25
 10
675.7001162471173
 20
-176.0647398773083
 30
0.0
 11
608.2001162471173
 21
-176.0647398773083
 31
0.0
 70
   160
  1
<>
 71
     5
 42
135.0
  3
AM_DIN$0
100
AcDbAlignedDimension
 13
540.7001162471173
 23
-224.4769840719176
 33
0.0
 14
675.7001162471173
 24
-286.9769840719176
 34
0.0
 50
180.0
100
AcDbRotatedDimension
1001
ACME_LAYERS
1000
1
1001
ACAD
1000
DSTYLE
1002
{
1070
   140
1040
8.0
1002
}
  0
LINE
  5
3B69
330
1F
100
AcDbEntity
  8
AM_7
100
AcDbLine
 10
617.2873404095625
 20
-286.9769840719176
 30
0.0
 11
660.0362943844575
 21
-286.9769840719176
 31
0.0
1001
ACME_LAYERS
1000
1
  0
ARC
  5
3B6A
330
1F
100
AcDbEntity
  8
P-0000
  6
Continuous
 62
     7
100
AcDbCircle
 10
593.7001162471172
 20
-286.9769840719176
 30
0.0
 40
79.99999999999997
100
AcDbArc
 50
281.5697552235359
 51
352.0967922665197
1001
ACME_LAYERS
1000
1
  0
ARC
  5
3B6B
330
1F
100
AcDbEntity
  8
P-0000
  6
Continuous
 62
     7
100
AcDbCircle
 10
593.7001162471172
 20
-286.9769840719176
 30
0.0
 40
81.99999999999999
100
AcDbArc
 50
270.0
 51
350.778201617699
1001
ACME_LAYERS
1000
1
  0
ARC
  5
3B6C
330
1F
100
AcDbEntity
  8
P-0000
  6
Continuous
 62
     7
100
AcDbCircle
 10
593.7001162471172
 20
-286.9769840719176
 30
0.0
 40
80.0
100
AcDbArc
 50
7.903207733480232
 51
79.92134189221499
1001
ACME_LAYERS
1000
1
  0
ARC
  5
3B6D
330
1F
100
AcDbEntity
  8
P-0000
  6
Continuous
 62
     7
100
AcDbCircle
 10
593.7001162471172
 20
-286.9769840719176
 30
0.0
 40
82.0
100
AcDbArc
 50
9.257420112837813
 51
90.0
1001
ACME_LAYERS
1000
1
  0
LINE
  5
3B6E
330
1F
100
AcDbEntity
  8
P-0000
  6
Continuous
 62
     7
100
AcDbLine
 10
668.7001162471172
 20
-297.9769840719177
 30
0.0
 11
668.7001162471172
 21
-275.9769840719177
 31
0.0
1001
ACME_LAYERS
1000
1
  0
LINE
  5
3B6F
330
1F
100
AcDbEntity
  8
AM_7
100
AcDbLine
 10
699.3501162471172
 20
-300.7657585881317
 30
0.0
 11
699.3501162471172
 21
-272.7657585881317
 31
0.0
1001
ACME_LAYERS
1000
1
  0
LINE
  5
3B71
330
1F
100
AcDbEntity
  8
P-0000
  6
Continuous
 62
     7
100
AcDbLine
 10
832.359434584686
 20
-39.2516339956303
 30
0.0
 11
894.9044703217268
 21
-39.2516339956303
 31
0.0
1001
ACME_LAYERS
1000
1
  0
LINE
  5
3B72
330
1F
100
AcDbEntity
  8
P-0000
  6
Continuous
 62
     7
100
AcDbLine
 10
832.359434584686
 20
-41.2516339956303
 30
0.0
 11
868.859434584686
 21
-41.2516339956303
 31
0.0
1001
ACME_LAYERS
1000
1
  0
LINE
  5
3B73
330
1F
100
AcDbEntity
  8
P-0000
  6
Continuous
 62
     3
100
AcDbLine
 10
832.3594345846858
 20
-106.2516339956303
 30
0.0
 11
866.8594345846859
 21
-106.2516339956303
 31
0.0
1001
ACME_LAYERS
1000
1
  0
LINE
  5
3B74
330
1F
100
AcDbEntity
  8
P-0000
  6
Continuous
 62
     7
100
AcDbLine
 10
832.3594345846858
 20
-111.2516339956303
 30
0.0
 11
867.5196886225304
 21
-111.2516339956303
 31
0.0
1001
ACME_LAYERS
1000
1
  0
SPLINE
  5
3B75
330
1F
100
AcDbEntity
  8
P-0000
  6
Continuous
 62
     7
100
AcDbSpline
210
0.0
220
0.0
230
1.0
 70
     8
 71
     2
 72
    24
 73
    21
 74
     0
 42
0.0000000001
 43
0.0000000001
 40
25.29355424920821
 40
25.29355424920821
 40
25.29355424920821
 40
25.80712388407772
 40
26.86238421352769
 40
27.99500607030099
 40
29.2373506758895
 40
30.60275665624399
 40
32.08826148177411
 40
33.67853566932164
 40
35.3494371560757
 40
37.07095405883571
 40
38.80970868879557
 40
40.53122559155558
 40
42.20212707830963
 40
43.79240126585715
 40
45.27790609138728
 40
46.64331207174178
 40
47.88565667733029
 40
49.01827853410359
 40
50.07353886355355
 40
50.58710849842174
 40
50.58710849842174
 40
50.58710849842174
 10
699.3501162471194
 20
-296.9769840719179
 30
0.0
 10
699.0934892091801
 20
-296.9769840719179
 30
0.0
 10
698.3095562048928
 20
-296.8571805547261
 30
0.0
 10
697.3096555146693
 20
-296.3901499673192
 30
0.0
 10
696.3813729484033
 20
-295.637953450518
 30
0.0
 10
695.5486121555885
 20
-294.6276731845627
 30
0.0
 10
694.8327921485542
 20
-293.3902777394568
 30
0.0
 10
694.2534057523966
 20
-291.9622197711159
 30
0.0
 10
693.8269578189903
 20
-290.3855838715593
 30
0.0
 10
693.5659211388373
 20
-288.7071514891871
 30
0.0
 10
693.4780353455952
 20
-286.9769840719179
 30
0.0
 10
693.5659211388373
 20
-285.2468166546483
 30
0.0
 10
693.8269578189903
 20
-283.5683842722762
 30
0.0
 10
694.2534057523966
 20
-281.9917483727196
 30
0.0
 10
694.8327921485542
 20
-280.5636904043789
 30
0.0
 10
695.5486121555885
 20
-279.3262949592728
 30
0.0
 10
696.3813729484033
 20
-278.3160146933175
 30
0.0
 10
697.3096555146693
 20
-277.5638181765163
 30
0.0
 10
698.3095562048928
 20
-277.0967875891094
 30
0.0
 10
699.0934892091794
 20
-276.9769840719176
 30
0.0
 10
699.3501162471174
 20
-276.9769840719178
 30
0.0
  0
SPLINE
  5
3B76
330
1F
100
AcDbEntity
  8
P-0000
  6
Continuous
 62
     7
100
AcDbSpline
210
0.0
220
0.0
230
1.0
 70
     8
 71
     2
 72
    24
 73
    21
 74
     0
 42
0.0000000001
 43
0.0000000001
 40
27.70975505357305
 40
27.70975505357305
 40
27.70975505357305
 40
28.26738384537294
 40
29.4143741004232
 40
30.64852315739574
 40
32.005989952861
 40
33.50142889818656
 40
35.13125061573806
 40
36.87813178895132
 40
38.71500952317452
 40
40.60835031925753
 40
42.52091484146401
 40
44.41425563754705
 40
46.25113337177025
 40
47.99801454498351
 40
49.62783626253503
 40
51.12327520786058
 40
52.48074200332585
 40
53.71489106029839
 40
54.86188131534864
 40
55.41951010714853
 40
55.41951010714853
 40
55.41951010714853
 10
699.3501162471174
 20
-275.9769840719179
 30
0.0
 10
699.0714851998879
 20
-275.9769840719176
 30
0.0
 10
698.219736156193
 20
-276.1090070309496
 30
0.0
 10
697.1341032273777
 20
-276.6232320118426
 30
0.0
 10
696.1266778172467
 20
-277.4508965331571
 30
0.0
 10
695.2230531288774
 20
-278.5621878780179
 30
0.0
 10
694.4463162540833
 20
-279.9231686986772
 30
0.0
 10
693.8175945143854
 20
-281.4938314629254
 30
0.0
 10
693.3548139790704
 20
-283.2279234384545
 30
0.0
 10
693.0715290808124
 20
-285.0739970103999
 30
0.0
 10
692.9761513841486
 20
-286.9769840719176
 30
0.0
 10
693.0715290808124
 20
-288.8799711334355
 30
0.0
 10
693.3548139790704
 20
-290.726044705381
 30
0.0
 10
693.8175945143854
 20
-292.4601366809099
 30
0.0
 10
694.4463162540833
 20
-294.0307994451583
 30
0.0
 10
695.2230531288774
 20
-295.3917802658176
 30
0.0
 10
696.1266778172467
 20
-296.5030716106784
 30
0.0
 10
697.1341032273777
 20
-297.3307361319929
 30
0.0
 10
698.219736156193
 20
-297.8449611128862
 30
0.0
 10
699.0714851998879
 20
-297.9769840719178
 30
0.0
 10
699.3501162471174
 20
-297.9769840719178
 30
0.0
  0
SPLINE
  5
3B77
330
1F
100
AcDbEntity
  8
P-0000
  6
Continuous
 62
     7
100
AcDbSpline
210
0.0
220
0.0
230
1.0
 70
     8
 71
     2
 72
    23
 73
    20
 74
     0
 42
0.0000000001
 43
0.0000000001
 40
0.5135696348672987
 40
0.5135696348672987
 40
0.5135696348672987
 40
1.56882996431727
 40
2.701451821090568
 40
3.943796426679078
 40
5.309202407033572
 40
6.794707232563699
 40
8.384981420111209
 40
10.05588290686527
 40
11.77739980962526
 40
13.51615443958512
 40
15.23767134234515
 40
16.90857282909921
 40
18.49884701664672
 40
19.98435184217685
 40
21.34975782253134
 40
22.59210242811986
 40
23.72472428489315
 40
24.77998461434313
 40
25.29355424920821
 40
25.29355424920821
 40
25.29355424920821
 10
699.8633703229939
 20
-277.016202757167
 30
0.0
 10
700.3906762893417
 20
-277.0967875891094
 30
0.0
 10
701.3905769795652
 20
-277.5638181765163
 30
0.0
 10
702.3188595458313
 20
-278.3160146933175
 30
0.0
 10
703.151620338646
 20
-279.3262949592728
 30
0.0
 10
703.8674403456804
 20
-280.5636904043787
 30
0.0
 10
704.446826741838
 20
-281.9917483727196
 30
0.0
 10
704.8732746752442
 20
-283.5683842722762
 30
0.0
 10
705.1343113553972
 20
-285.2468166546483
 30
0.0
 10
705.2221971486395
 20
-286.9769840719176
 30
0.0
 10
705.1343113553972
 20
-288.7071514891871
 30
0.0
 10
704.8732746752442
 20
-290.3855838715593
 30
0.0
 10
704.446826741838
 20
-291.9622197711159
 30
0.0
 10
703.8674403456804
 20
-293.3902777394568
 30
0.0
 10
703.151620338646
 20
-294.6276731845627
 30
0.0
 10
702.3188595458313
 20
-295.637953450518
 30
0.0
 10
701.3905769795652
 20
-296.3901499673192
 30
0.0
 10
700.3906762893417
 20
-296.8571805547261
 30
0.0
 10
699.6067432850566
 20
-296.9769840719176
 30
0.0
 10
699.3501162471194
 20
-296.9769840719179
 30
0.0
  0
SPLINE
  5
3B78
330
1F
100
AcDbEntity
  8
P-0000
  6
Continuous
 62
     7
100
AcDbSpline
210
0.0
220
0.0
230
1.0
 70
     8
 71
     2
 72
    23
 73
    20
 74
     0
 42
0.0000000001
 43
0.0000000001
 40
0.5576287917990795
 40
0.5576287917990795
 40
0.5576287917990795
 40
1.704619046849332
 40
2.938768103821871
 40
4.296234899287139
 40
5.791673844612695
 40
7.421495562164203
 40
9.168376735377464
 40
11.00525446960066
 40
12.89859526568371
 40
14.8111597878902
 40
16.70450058397321
 40
18.5413783181964
 40
20.28825949140966
 40
21.91808120896117
 40
23.41352015428672
 40
24.77098694975199
 40
26.00513600672453
 40
27.15212626177479
 40
27.70975505357305
 40
27.70975505357305
 40
27.70975505357305
 10
699.9073783415768
 20
-297.9337956520354
 30
0.0
 10
700.4804963380417
 20
-297.8449611128859
 30
0.0
 10
701.5661292668568
 20
-297.3307361319929
 30
0.0
 10
702.5735546769878
 20
-296.5030716106786
 30
0.0
 10
703.4771793653573
 20
-295.3917802658176
 30
0.0
 10
704.2539162401511
 20
-294.0307994451583
 30
0.0
 10
704.8826379798491
 20
-292.4601366809099
 30
0.0
 10
705.3454185151643
 20
-290.726044705381
 30
0.0
 10
705.6287034134221
 20
-288.8799711334355
 30
0.0
 10
705.7240811100861
 20
-286.9769840719176
 30
0.0
 10
705.6287034134221
 20
-285.0739970103999
 30
0.0
 10
705.3454185151643
 20
-283.2279234384545
 30
0.0
 10
704.8826379798494
 20
-281.4938314629257
 30
0.0
 10
704.2539162401511
 20
-279.9231686986772
 30
0.0
 10
703.4771793653573
 20
-278.5621878780179
 30
0.0
 10
702.573554676988
 20
-277.4508965331571
 30
0.0
 10
701.5661292668568
 20
-276.6232320118426
 30
0.0
 10
700.4804963380417
 20
-276.1090070309496
 30
0.0
 10
699.6287472943476
 20
-275.9769840719179
 30
0.0
 10
699.3501162471174
 20
-275.9769840719179
 30
0.0
  0
ARC
  5
3B79
330
1F
100
AcDbEntity
  8
P-0000
  6
Continuous
 62
     7
100
AcDbCircle
 10
593.7001162471172
 20
-286.9769840719176
 30
0.0
 40
82.00000000000002
100
AcDbArc
 50
352.9952735909235
 51
0.0
1001
ACME_LAYERS
1000
1
  0
ARC
  5
3B7A
330
1F
100
AcDbEntity
  8
P-0000
  6
Continuous
 62
     7
100
AcDbCircle
 10
593.7001162471172
 20
-286.9769840719176
 30
0.0
 40
80.00000000000003
100
AcDbArc
 50
352.0967922665197
 51
0.0
1001
ACME_LAYERS
1000
1
  0
LINE
  5
3B7C
330
1F
100
AcDbEntity
  8
P-0000
  6
Continuous
 62
     7
100
AcDbLine
 10
795.859434584686
 20
-44.8708185608325
 30
0.0
 11
795.8594345846859
 21
-106.2516339956303
 31
0.0
1001
ACME_LAYERS
1000
1
  0
LINE
  5
3B7E
330
1F
100
AcDbEntity
  8
AM_7
100
AcDbLine
 10
832.359434584686
 20
-41.2516339956303
 30
0.0
 11
832.3594345846858
 21
-106.2516339956303
 31
0.0
1001
ACME_LAYERS
1000
1
  0
LINE
  5
3B80
330
1F
100
AcDbEntity
  8
P-0000
  6
Continuous
 62
     7
100
AcDbLine
 10
678.250109655153
 20
-37.87615701300638
 30
0.0
 11
678.250109655153
 21
-39.25163399563018
 31
0.0
1001
ACME_LAYERS
1000
1
  0
LINE
  5
3B81
330
1F
100
AcDbEntity
  8
P-0000
  6
Continuous
 62
     7
100
AcDbLine
 10
678.250109655153
 20
-39.25163399563018
 30
0.0
 11
678.250109655153
 21
-41.25163399563018
 31
0.0
1001
ACME_LAYERS
1000
1
  0
LINE
  5
3B82
330
1F
100
AcDbEntity
  8
P-0000
  6
Continuous
 62
     7
100
AcDbLine
 10
678.250109655153
 20
-39.25163399563018
 30
0.0
 11
678.250109655153
 21
-40.54983536265331
 31
0.0
1001
ACME_LAYERS
1000
1
  0
LINE
  5
3B83
330
1F
100
AcDbEntity
  8
P-0000
  6
Continuous
 62
     7
100
AcDbLine
 10
678.250109655153
 20
-40.54983536265331
 30
0.0
 11
678.250109655153
 21
-41.25163399563018
 31
0.0
1001
ACME_LAYERS
1000
1
  0
LINE
  5
3B84
330
1F
100
AcDbEntity
  8
P-0000
  6
Continuous
 62
     7
100
AcDbLine
 10
678.250109655153
 20
-39.25163399563018
 30
0.0
 11
678.250109655153
 21
-41.25163399563018
 31
0.0
1001
ACME_LAYERS
1000
1
  0
LINE
  5
3B85
330
1F
100
AcDbEntity
  8
AM_7
100
AcDbLine
 10
832.359434584686
 20
67.7483660043697
 30
0.0
 11
832.359434584686
 21
-41.2516339956303
 31
0.0
1001
ACME_LAYERS
1000
1
  0
LINE
  5
3B86
330
1F
100
AcDbEntity
  8
P-0000
  6
STRICHPUNKT
 62
     3
100
AcDbLine
 10
832.359434584686
 20
69.28669327214151
 30
0.0
 11
832.359434584686
 21
67.7483660043697
 31
0.0
1001
ACME_LAYERS
1000
1
  0
LINE
  5
3B87
330
1F
100
AcDbEntity
  8
P-0000
  6
STRICHPUNKT
 62
     3
100
AcDbLine
 10
832.359434584686
 20
70.7483660043697
 30
0.0
 11
832.359434584686
 21
69.28669327214151
 31
0.0
1001
ACME_LAYERS
1000
1
  0
LINE
  5
3B88
330
1F
100
AcDbEntity
  8
P-0000
  6
Continuous
 62
     7
100
AcDbLine
 10
750.359434584686
 20
-41.2516339956303
 30
0.0
 11
793.1273241537095
 21
-41.2516339956303
 31
0.0
1001
ACME_LAYERS
1000
1
  0
LINE
  5
3B89
330
1F
100
AcDbEntity
  8
P-0000
  6
Continuous
 62
     7
100
AcDbLine
 10
769.814398847645
 20
-39.2516339956303
 30
0.0
 11
795.859434584686
 21
-39.2516339956303
 31
0.0
1001
ACME_LAYERS
1000
1
  0
LINE
  5
3B8A
330
1F
100
AcDbEntity
  8
P-0000
  6
Continuous
 62
     7
100
AcDbLine
 10
752.359434584686
 20
-39.2516339956303
 30
0.0
 11
769.814398847645
 21
-39.2516339956303
 31
0.0
1001
ACME_LAYERS
1000
1
  0
LINE
  5
3B8B
330
1F
100
AcDbEntity
  8
P-0000
  6
Continuous
 62
     7
100
AcDbLine
 10
750.359434584686
 20
-39.2516339956303
 30
0.0
 11
752.359434584686
 21
-39.2516339956303
 31
0.0
1001
ACME_LAYERS
1000
1
  0
LINE
  5
3B8C
330
1F
100
AcDbEntity
  8
P-0000
  6
Continuous
 62
     7
100
AcDbLine
 10
750.359434584686
 20
-39.2516339956303
 30
0.0
 11
750.359434584686
 21
-37.87615701300649
 31
0.0
1001
ACME_LAYERS
1000
1
  0
LINE
  5
3B8D
330
1F
100
AcDbEntity
  8
P-0000
  6
Continuous
 62
     7
100
AcDbLine
 10
750.359434584686
 20
-40.54983536265342
 30
0.0
 11
750.359434584686
 21
-39.2516339956303
 31
0.0
1001
ACME_LAYERS
1000
1
  0
LINE
  5
3B8E
330
1F
100
AcDbEntity
  8
P-0000
  6
Continuous
 62
     7
100
AcDbLine
 10
750.359434584686
 20
-41.2516339956303
 30
0.0
 11
750.359434584686
 21
-40.54983536265342
 31
0.0
1001
ACME_LAYERS
1000
1
  0
LINE
  5
3B8F
330
1F
100
AcDbEntity
  8
P-0000
  6
Continuous
 62
     7
100
AcDbLine
 10
795.859434584686
 20
-41.2516339956303
 30
0.0
 11
832.359434584686
 21
-41.2516339956303
 31
0.0
1001
ACME_LAYERS
1000
1
  0
LINE
  5
3B90
330
1F
100
AcDbEntity
  8
P-0000
  6
Continuous
 62
     7
100
AcDbLine
 10
795.859434584686
 20
-39.2516339956303
 30
0.0
 11
832.359434584686
 21
-39.2516339956303
 31
0.0
1001
ACME_LAYERS
1000
1
  0
LINE
  5
3B91
330
1F
100
AcDbEntity
  8
P-0000
  6
Continuous
 62
     7
100
AcDbLine
 10
795.859434584686
 20
-41.2516339956303
 30
0.0
 11
795.859434584686
 21
-44.8708185608325
 31
0.0
1001
ACME_LAYERS
1000
1
  0
LINE
  5
3B92
330
1F
100
AcDbEntity
  8
P-0000
  6
Continuous
 62
     7
100
AcDbLine
 10
793.1273241537095
 20
-41.2516339956303
 30
0.0
 11
795.859434584686
 21
-41.2516339956303
 31
0.0
1001
ACME_LAYERS
1000
1
  0
LINE
  5
3B93
330
1F
100
AcDbEntity
  8
AM_7
100
AcDbLine
 10
685.5567800830187
 20
-286.9769840719176
 30
0.0
 11
709.5567800830187
 21
-286.9769840719176
 31
0.0
1001
ACME_LAYERS
1000
1
  0
LINE
  5
3B95
330
1F
100
AcDbEntity
  8
P-0000
  6
Continuous
 62
     7
100
AcDbLine
 10
797.1991805468414
 20
-111.2516339956303
 30
0.0
 11
832.3594345846858
 21
-111.2516339956303
 31
0.0
1001
ACME_LAYERS
1000
1
  0
LINE
  5
3B96
330
1F
100
AcDbEntity
  8
P-0000
  6
Continuous
 62
     3
100
AcDbLine
 10
797.8594345846858
 20
-106.2516339956303
 30
0.0
 11
832.3594345846858
 21
-106.2516339956303
 31
0.0
1001
ACME_LAYERS
1000
1
  0
LINE
  5
3B98
330
1F
100
AcDbEntity
  8
P-0000
  6
Continuous
 62
     7
100
AcDbLine
 10
795.8594345846859
 20
-106.2516339956303
 30
0.0
 11
797.1991805468414
 21
-111.2516339956303
 31
0.0
1001
ACME_LAYERS
1000
1
  0
LINE
  5
3B99
330
1F
100
AcDbEntity
  8
P-0000
  6
STRICHPUNKT
 62
     3
100
AcDbLine
 10
832.3594345846858
 20
-106.2516339956303
 30
0.0
 11
832.3594345846858
 21
-111.2516339956303
 31
0.0
1001
ACME_LAYERS
1000
1
  0
LINE
  5
3B9A
330
1F
100
AcDbEntity
  8
P-0000
  6
Continuous
 62
     7
100
AcDbLine
 10
677.2721745964201
 20
-275.9769840719177
 30
0.0
 11
674.9589619194501
 21
-275.9769840719177
 31
0.0
1001
ACME_LAYERS
1000
1
  0
LINE
  5
3B9B
330
1F
100
AcDbEntity
  8
P-0000
  6
STRICHLINIE
 62
     2
100
AcDbLine
 10
699.3501162471172
 20
-276.9769840719177
 30
0.0
 11
675.0880760446205
 21
-276.9769840719177
 31
0.0
1001
ACME_LAYERS
1000
1
  0
LINE
  5
3B9C
330
1F
100
AcDbEntity
  8
P-0000
  6
STRICHPUNKT
 62
     3
100
AcDbLine
 10
673.7001162471173
 20
-286.9769840719176
 30
0.0
 11
675.7001162471173
 21
-286.9769840719176
 31
0.0
1001
ACME_LAYERS
1000
1
  0
LINE
  5
3B9D
330
1F
100
AcDbEntity
  8
AM_7
100
AcDbLine
 10
672.2873404095625
 20
-286.9769840719176
 30
0.0
 11
685.5567800830187
 21
-286.9769840719176
 31
0.0
1001
ACME_LAYERS
1000
1
  0
ARC
  5
3B9E
330
1F
100
AcDbEntity
  8
P-0000
  6
Continuous
 62
     7
100
AcDbCircle
 10
593.7001162471172
 20
-286.9769840719176
 30
0.0
 40
82.00000000000002
100
AcDbArc
 50
0.0
 51
7.00472640907651
1001
ACME_LAYERS
1000
1
  0
LINE
  5
3B9F
330
1F
100
AcDbEntity
  8
P-0000
  6
Continuous
 62
     7
100
AcDbLine
 10
699.3501162471172
 20
-275.9769840719177
 30
0.0
 11
677.2721745964201
 21
-275.9769840719177
 31
0.0
1001
ACME_LAYERS
1000
1
  0
SPLINE
  5
3BA0
330
1F
100
AcDbEntity
  8
P-0000
  6
Continuous
 62
     7
100
AcDbSpline
210
0.0
220
0.0
230
1.0
 70
     8
 71
     2
 72
     6
 73
     3
 74
     0
 42
0.0000000001
 43
0.0000000001
 40
50.58710849842174
 40
50.58710849842174
 40
50.58710849842174
 40
51.10067813328816
 40
51.10067813328816
 40
51.10067813328816
 10
699.3501162471174
 20
-276.9769840719178
 30
0.0
 10
699.606743285056
 20
-276.9769840719178
 30
0.0
 10
699.8633703229939
 20
-277.016202757167
 30
0.0
  0
ARC
  5
3BA1
330
1F
100
AcDbEntity
  8
P-0000
  6
Continuous
 62
     7
100
AcDbCircle
 10
593.7001162471172
 20
-286.9769840719176
 30
0.0
 40
80.00000000000003
100
AcDbArc
 50
0.0
 51
7.903207733480232
1001
ACME_LAYERS
1000
1
  0
ARC
  5
3BA2
330
1F
100
AcDbEntity
  8
P-0000
  6
Continuous
 62
     7
100
AcDbCircle
 10
593.7001162471172
 20
-286.9769840719176
 30
0.0
 40
82.00000000000001
100
AcDbArc
 50
7.709259860055044
 51
9.257420112837813
1001
ACME_LAYERS
1000
1
  0
LINE
  5
3BA3
330
1F
100
AcDbEntity
  8
P-0000
  6
Continuous
 62
     7
100
AcDbLine
 10
668.7001162471172
 20
-275.9769840719177
 30
0.0
 11
672.9402575897474
 21
-275.9769840719177
 31
0.0
1001
ACME_LAYERS
1000
1
  0
ARC
  5
3BA4
330
1F
100
AcDbEntity
  8
P-0000
  6
Continuous
 62
     7
100
AcDbCircle
 10
593.7001162471172
 20
-286.9769840719176
 30
0.0
 40
82.00000000000001
100
AcDbArc
 50
7.00472640907651
 51
7.709259860055044
1001
ACME_LAYERS
1000
1
  0
LINE
  5
3BA5
330
1F
100
AcDbEntity
  8
P-0000
  6
STRICHPUNKT
 62
     3
100
AcDbLine
 10
663.4490702220123
 20
-286.9769840719176
 30
0.0
 11
673.7001162471173
 21
-286.9769840719176
 31
0.0
1001
ACME_LAYERS
1000
1
  0
LINE
  5
3BA7
330
1F
100
AcDbEntity
  8
P-0000
  6
Continuous
 62
     7
100
AcDbLine
 10
868.8594345846858
 20
-106.2516339956303
 30
0.0
 11
868.859434584686
 21
-41.2516339956303
 31
0.0
1001
ACME_LAYERS
1000
1
  0
LINE
  5
3BA8
330
1F
100
AcDbEntity
  8
P-0000
  6
Continuous
 62
     7
100
AcDbLine
 10
868.859434584686
 20
-41.2516339956303
 30
0.0
 11
914.3594345846858
 21
-41.2516339956303
 31
0.0
1001
ACME_LAYERS
1000
1
  0
LINE
  5
3BA9
330
1F
100
AcDbEntity
  8
P-0000
  6
Continuous
 62
     7
100
AcDbLine
 10
868.859434584686
 20
-44.8708185608325
 30
0.0
 11
868.859434584686
 21
-41.2516339956303
 31
0.0
1001
ACME_LAYERS
1000
1
  0
LINE
  5
3BAA
330
1F
100
AcDbEntity
  8
P-0000
  6
Continuous
 62
     7
100
AcDbLine
 10
868.859434584686
 20
-41.2516339956303
 30
0.0
 11
871.5915450156625
 21
-41.2516339956303
 31
0.0
1001
ACME_LAYERS
1000
1
  0
LINE
  5
3BAB
330
1F
100
AcDbEntity
  8
P-0000
  6
Continuous
 62
     7
100
AcDbLine
 10
894.9044703217268
 20
-39.2516339956303
 30
0.0
 11
914.3594345846858
 21
-39.2516339956303
 31
0.0
1001
ACME_LAYERS
1000
1
  0
LINE
  5
3BAC
330
1F
100
AcDbEntity
  8
P-0000
  6
Continuous
 62
     7
100
AcDbLine
 10
914.3594345846858
 20
-37.87615701300649
 30
0.0
 11
914.3594345846858
 21
-39.2516339956303
 31
0.0
1001
ACME_LAYERS
1000
1
  0
LINE
  5
3BAD
330
1F
100
AcDbEntity
  8
P-0000
  6
Continuous
 62
     7
100
AcDbLine
 10
914.3594345846858
 20
-40.54983536265342
 30
0.0
 11
914.3594345846858
 21
-41.2516339956303
 31
0.0
1001
ACME_LAYERS
1000
1
  0
LINE
  5
3BAE
330
1F
100
AcDbEntity
  8
P-0000
  6
Continuous
 62
     7
100
AcDbLine
 10
914.3594345846858
 20
-39.2516339956303
 30
0.0
 11
914.3594345846858
 21
-40.54983536265342
 31
0.0
1001
ACME_LAYERS
1000
1
  0
LINE
  5
3BAF
330
1F
100
AcDbEntity
  8
P-0000
  6
Continuous
 62
     7
100
AcDbLine
 10
914.3594345846858
 20
-39.2516339956303
 30
0.0
 11
914.3594345846858
 21
-41.2516339956303
 31
0.0
1001
ACME_LAYERS
1000
1
  0
LINE
  5
3BB1
330
1F
100
AcDbEntity
  8
P-0000
  6
Continuous
 62
     7
100
AcDbLine
 10
867.5196886225304
 20
-111.2516339956303
 30
0.0
 11
868.8594345846858
 21
-106.2516339956303
 31
0.0
1001
ACME_LAYERS
1000
1
  0
LINE
  5
3BB2
330
1F
100
AcDbEntity
  8
P-0000
  6
Continuous
 62
     7
100
AcDbLine
 10
677.0605554020781
 20
-297.9769840719177
 30
0.0
 11
674.9589619194501
 21
-297.9769840719177
 31
0.0
1001
ACME_LAYERS
1000
1
  0
LINE
  5
3BB3
330
1F
100
AcDbEntity
  8
P-0000
  6
STRICHLINIE
 62
     2
100
AcDbLine
 10
699.3501162471172
 20
-296.9769840719177
 30
0.0
 11
675.0880760446205
 21
-296.9769840719177
 31
0.0
1001
ACME_LAYERS
1000
1
  0
LINE
  5
3BB4
330
1F
100
AcDbEntity
  8
P-0000
  6
Continuous
 62
     7
100
AcDbLine
 10
699.3501162471172
 20
-297.9769840719177
 30
0.0
 11
677.0605554020781
 21
-297.9769840719177
 31
0.0
1001
ACME_LAYERS
1000
1
  0
SPLINE
  5
3BB5
330
1F
100
AcDbEntity
  8
P-0000
  6
Continuous
 62
     7
100
AcDbSpline
210
0.0
220
0.0
230
1.0
 70
     8
 71
     2
 72
     6
 73
     3
 74
     0
 42
0.0000000001
 43
0.0000000001
 40
55.41951010714853
 40
55.41951010714853
 40
55.41951010714853
 40
55.97713889894681
 40
55.97713889894681
 40
55.97713889894681
 10
699.3501162471174
 20
-297.9769840719178
 30
0.0
 10
699.6287472943476
 20
-297.9769840719176
 30
0.0
 10
699.9073783415768
 20
-297.9337956520354
 30
0.0
  0
ARC
  5
3BB6
330
1F
100
AcDbEntity
  8
P-0000
  6
Continuous
 62
     7
100
AcDbCircle
 10
593.7001162471172
 20
-286.9769840719176
 30
0.0
 40
82.00000000000002
100
AcDbArc
 50
350.778201617699
 51
352.290740139945
1001
ACME_LAYERS
1000
1
  0
LINE
  5
3BB7
330
1F
100
AcDbEntity
  8
P-0000
  6
Continuous
 62
     7
100
AcDbLine
 10
672.9402575897474
 20
-297.9769840719177
 30
0.0
 11
668.7001162471172
 21
-297.9769840719177
 31
0.0
1001
ACME_LAYERS
1000
1
  0
ARC
  5
3BB8
330
1F
100
AcDbEntity
  8
P-0000
  6
Continuous
 62
     7
100
AcDbCircle
 10
593.7001162471172
 20
-286.9769840719176
 30
0.0
 40
82.00000000000002
100
AcDbArc
 50
352.290740139945
 51
352.9952735909235
1001
ACME_LAYERS
1000
1
  0
DIMENSION
  5
3BBC
330
1F
100
AcDbEntity
  8
AM_5
100
AcDbDimension
  2
*D29
 10
501.267396985882
 20
-204.9769840719176
 30
0.0
 11
501.2673969858821
 21
-285.8541344209109
 31
0.0
 70
   160
  1
<>
 71
     5
 42
164.0
  3
AM_DIN$0
100
AcDbAlignedDimension
 13
593.7001162471172
 23
-368.9769840719176
 33
0.0
 14
593.7001162471172
 24
-204.9769840719176
 34
0.0
 50
270.0
100
AcDbRotatedDimension
1001
ACME_LAYERS
1000
1
1001
ACAD
1000
DSTYLE
1002
{
1070
   140
1040
8.0
1002
}
  0
LINE
  5
3BBD
330
1F
100
AcDbEntity
  8
P-0000
  6
Continuous
 62
     3
100
AcDbLine
 10
546.965986810799
 20
-325.4769840719176
 30
0.0
 11
546.965986810799
 21
-286.9769840719176
 31
0.0
1001
ACME_LAYERS
1000
1
  0
LINE
  5
3BBE
330
1F
100
AcDbEntity
  8
P-0000
  6
Continuous
 62
     7
100
AcDbLine
 10
540.7001162471173
 20
-326.4386568041458
 30
0.0
 11
540.7001162471173
 21
-286.9769840719176
 31
0.0
1001
ACME_LAYERS
1000
1
  0
LINE
  5
3BBF
330
1F
100
AcDbEntity
  8
P-0000
  6
Continuous
 62
     3
100
AcDbLine
 10
560.1301162471171
 20
-325.4769840719176
 30
0.0
 11
560.1301162471171
 21
-286.9769840719176
 31
0.0
1001
ACME_LAYERS
1000
1
  0
LINE
  5
3BC0
330
1F
100
AcDbEntity
  8
P-0000
  6
Continuous
 62
     3
100
AcDbLine
 10
570.5310078230378
 20
-319.8769840719177
 30
0.0
 11
570.5310078230378
 21
-286.9769840719176
 31
0.0
1001
ACME_LAYERS
1000
1
  0
ARC
  5
3BC1
330
1F
100
AcDbEntity
  8
P-0000
  6
Continuous
 62
     7
100
AcDbCircle
 10
585.7001162471172
 20
-286.9769840719176
 30
0.0
 40
35.0
100
AcDbArc
 50
278.2132107017363
 51
0.0
1001
ACME_LAYERS
1000
1
  0
DIMENSION
  5
3BC6
330
1F
100
AcDbEntity
  8
AM_5
100
AcDbDimension
  2
*D30
 10
593.7001162471172
 20
-192.0507269833207
 30
0.0
 11
568.7776477438155
 21
-192.0507269833207
 31
0.0
 70
   160
  1
<>
 71
     5
 42
53.0
  3
AM_DIN$0
100
AcDbAlignedDimension
 13
540.7001162471173
 23
-224.4769840719176
 33
0.0
 14
593.7001162471172
 24
-191.9769840719177
 34
0.0
 50
180.0
100
AcDbRotatedDimension
1001
ACME_LAYERS
1000
1
1001
ACAD
1000
DSTYLE
1002
{
1070
   140
1040
8.0
1002
}
  0
LINE
  5
3BD0
330
1F
100
AcDbEntity
  8
AM_7
100
AcDbLine
 10
537.9381190384837
 20
-286.9769840719176
 30
0.0
 11
590.2873404095624
 21
-286.9769840719176
 31
0.0
1001
ACME_LAYERS
1000
1
  0
ARC
  5
3BD1
330
1F
100
AcDbEntity
  8
P-0000
  6
Continuous
 62
     7
100
AcDbCircle
 10
593.7001162471172
 20
-286.9769840719176
 30
0.0
 40
80.00000000000001
100
AcDbArc
 50
100.0786581077849
 51
129.2144451353042
1001
ACME_LAYERS
1000
1
  0
ARC
  5
3BD2
330
1F
100
AcDbEntity
  8
P-0000
  6
Continuous
 62
     7
100
AcDbCircle
 10
593.7001162471172
 20
-286.9769840719176
 30
0.0
 40
81.99999999999997
100
AcDbArc
 50
90.0
 51
129.2144451353042
1001
ACME_LAYERS
1000
1
  0
ARC
  5
3BD3
330
1F
100
AcDbEntity
  8
P-0000
  6
Continuous
 62
     7
100
AcDbCircle
 10
585.7001162471172
 20
-286.9769840719176
 30
0.0
 40
35.00000000000003
100
AcDbArc
 50
0.0
 51
81.7867892982637
1001
ACME_LAYERS
1000
1
  0
ARC
  5
3BDA
330
1F
100
AcDbEntity
  8
P-0000
  6
Continuous
 62
     7
100
AcDbCircle
 10
593.7001162471172
 20
-286.9769840719176
 30
0.0
 40
80.00000000000001
100
AcDbArc
 50
79.92134189221499
 51
100.0786581077849
1001
ACME_LAYERS
1000
1
  0
ARC
  5
3BDB
330
1F
100
AcDbEntity
  8
P-0000
  6
Continuous
 62
     7
100
AcDbCircle
 10
593.7001162471172
 20
-286.9769840719176
 30
0.0
 40
80.00000000000001
100
AcDbArc
 50
79.92134189221499
 51
100.0786581077849
1001
ACME_LAYERS
1000
1
  0
ARC
  5
3BDF
330
1F
100
AcDbEntity
  8
P-0000
  6
Continuous
 62
     7
100
AcDbCircle
 10
593.7001162471172
 20
-286.9769840719176
 30
0.0
 40
80.00000000000005
100
AcDbArc
 50
78.43024477646409
 51
79.92134189221499
1001
ACME_LAYERS
1000
1
  0
ARC
  5
3BE4
330
1F
100
AcDbEntity
  8
P-0000
  6
Continuous
 62
     7
100
AcDbCircle
 10
593.7001162471172
 20
-286.9769840719176
 30
0.0
 40
80.00000000000001
100
AcDbArc
 50
100.0786581077849
 51
101.5697552235359
1001
ACME_LAYERS
1000
1
  0
LINE
  5
3BE6
330
1F
100
AcDbEntity
  8
AM_7
100
AcDbLine
 10
596.2501096551529
 20
-286.9769840719176
 30
0.0
 11
617.2873404095625
 21
-286.9769840719176
 31
0.0
1001
ACME_LAYERS
1000
1
  0
LINE
  5
3BE7
330
1F
100
AcDbEntity
  8
P-0000
  6
Continuous
 62
     7
100
AcDbLine
 10
585.7001162471172
 20
-252.0769840719176
 30
0.0
 11
585.7001162471172
 21
-250.4769840719176
 31
0.0
1001
ACME_LAYERS
1000
1
  0
LINE
  5
3BE8
330
1F
100
AcDbEntity
  8
AM_7
100
AcDbLine
 10
586.8745645720077
 20
-286.9769840719176
 30
0.0
 11
592.8373338175981
 21
-286.9769840719176
 31
0.0
1001
ACME_LAYERS
1000
1
  0
LINE
  5
3BE9
330
1F
100
AcDbEntity
  8
P-0000
  6
Continuous
 62
     7
100
AcDbLine
 10
540.7001162471173
 20
-245.9769840719176
 30
0.0
 11
540.7001162471173
 21
-247.5153113396895
 31
0.0
1001
ACME_LAYERS
1000
1
  0
HATCH
  5
3BEB
330
1F
100
AcDbEntity
  8
P-0000
  6
Continuous
 62
     3
100
AcDbHatch
 10
0.0
 20
0.0
 30
0.0
210
0.0
220
0.0
230
1.0
  2
_SOLID
 70
     1
 71
     0
 91
        1
 92
        1
 93
        3
 72
     1
 10
542.7001162471173
 20
-224.4769840719176
 11
541.8576943042995
 21
-223.4446042400331
 72
     2
 10
541.6991016235813
 20
-224.4319483348767
 40
0.9999999999998538
 50
80.87478018265871
 51
182.5812307112517
 73
     1
 72
     1
 10
540.7001162471173
 20
-224.4769840719176
 11
542.7001162471173
 21
-224.4769840719176
 97
        0
 75
     0
 76
     1
 98
        1
 10
590.1957317034158
 20
-330.2583372294315
450
        0
451
        0
460
0.0
461
0.0
452
        0
462
0.0
453
        0
470

1001
ACME_LAYERS
1000
1
  0
LINE
  5
3BEC
330
1F
100
AcDbEntity
  8
P-0000
  6
Continuous
 62
     7
100
AcDbLine
 10
542.7001162471173
 20
-224.4769840719176
 30
0.0
 11
541.8576943042994
 21
-223.4446042400332
 31
0.0
1001
ACME_LAYERS
1000
1
  0
ARC
  5
3BED
330
1F
100
AcDbEntity
  8
P-0000
  6
Continuous
 62
     7
100
AcDbCircle
 10
541.6991016235813
 20
-224.4319483348767
 30
0.0
 40
0.9999999999998538
100
AcDbArc
 50
80.87478018266006
 51
182.58123071125
1001
ACME_LAYERS
1000
1
  0
HATCH
  5
3BEE
330
1F
100
AcDbEntity
  8
P-0000
  6
Continuous
 62
     3
100
AcDbHatch
 10
0.0
 20
0.0
 30
0.0
210
0.0
220
0.0
230
1.0
  2
_U
 70
     0
 71
     0
 91
        1
 92
        1
 93
        5
 72
     1
 10
542.7001162471173
 20
-245.9769840719176
 11
542.7001162471173
 21
-244.8892870905289
 72
     1
 10
542.7001162471173
 20
-244.8892870905289
 11
542.7001162471173
 21
-224.4769840719178
 72
     1
 10
542.7001162471173
 20
-224.4769840719176
 11
540.7001162471173
 21
-224.4769840719176
 72
     1
 10
540.7001162471173
 20
-224.4769840719176
 11
540.7001162471173
 21
-245.9769840719176
 72
     1
 10
540.7001162471173
 20
-245.9769840719176
 11
542.7001162471173
 21
-245.9769840719176
 97
        0
 75
     0
 76
     0
 52
-135.0
 41
1.0
 77
     0
 78
     1
 53
225.0
 43
590.1957317034158
 44
-330.2583372294315
 45
0.7071067811865472
 46
-0.7071067811865479
 79
     0
 98
        1
 10
590.1957317034158
 20
-330.2583372294315
1001
ACME_LAYERS
1000
1
  0
LINE
  5
3BEF
330
1F
100
AcDbEntity
  8
P-0000
  6
Continuous
 62
     7
100
AcDbLine
 10
540.7001162471173
 20
-224.4769840719176
 30
0.0
 11
540.7001162471173
 21
-245.9769840719176
 31
0.0
1001
ACME_LAYERS
1000
1
  0
LINE
  5
3BF0
330
1F
100
AcDbEntity
  8
P-0000
  6
Continuous
 62
     7
100
AcDbLine
 10
542.7001162471173
 20
-244.8892870905289
 30
0.0
 11
542.7001162471173
 21
-224.4769840719176
 31
0.0
1001
ACME_LAYERS
1000
1
  0
LINE
  5
3BF1
330
1F
100
AcDbEntity
  8
P-0000
  6
Continuous
 62
     7
100
AcDbLine
 10
543.1221436199779
 20
-224.9941744798352
 30
0.0
 11
542.7001162471173
 21
-224.4769840719176
 31
0.0
1001
ACME_LAYERS
1000
1
  0
LINE
  5
3BF2
330
1F
100
AcDbEntity
  8
P-0000
  6
Continuous
 62
     7
100
AcDbLine
 10
542.7001162471173
 20
-224.4769840719176
 30
0.0
 11
540.7001162471173
 21
-224.4769840719176
 31
0.0
1001
ACME_LAYERS
1000
1
  0
LINE
  5
3BF3
330
1F
100
AcDbEntity
  8
P-0000
  6
Continuous
 62
     7
100
AcDbLine
 10
542.7001162471173
 20
-245.9769840719176
 30
0.0
 11
542.7001162471173
 21
-244.8892870905289
 31
0.0
1001
ACME_LAYERS
1000
1
  0
LINE
  5
3BF4
330
1F
100
AcDbEntity
  8
P-0000
  6
Continuous
 62
     7
100
AcDbLine
 10
542.7001162471173
 20
-246.6248539690724
 30
0.0
 11
542.7001162471173
 21
-245.9769840719176
 31
0.0
1001
ACME_LAYERS
1000
1
  0
LINE
  5
3BF5
330
1F
100
AcDbEntity
  8
P-0000
  6
Continuous
 62
     7
100
AcDbLine
 10
542.7001162471173
 20
-245.9769840719176
 30
0.0
 11
540.7001162471173
 21
-245.9769840719176
 31
0.0
1001
ACME_LAYERS
1000
1
  0
LINE
  5
3BF6
330
1F
100
AcDbEntity
  8
P-0000
  6
Continuous
 62
     3
100
AcDbLine
 10
570.5310078230378
 20
-286.9769840719176
 30
0.0
 11
570.5310078230378
 21
-254.0769840719176
 31
0.0
1001
ACME_LAYERS
1000
1
  0
LINE
  5
3BF7
330
1F
100
AcDbEntity
  8
P-0000
  6
Continuous
 62
     3
100
AcDbLine
 10
560.1301162471171
 20
-286.9769840719176
 30
0.0
 11
560.1301162471171
 21
-248.4769840719176
 31
0.0
1001
ACME_LAYERS
1000
1
  0
LINE
  5
3BF8
330
1F
100
AcDbEntity
  8
P-0000
  6
Continuous
 62
     3
100
AcDbLine
 10
546.965986810799
 20
-286.9769840719176
 30
0.0
 11
546.965986810799
 21
-248.4769840719176
 31
0.0
1001
ACME_LAYERS
1000
1
  0
LINE
  5
3BF9
330
1F
100
AcDbEntity
  8
P-0000
  6
Continuous
 62
     7
100
AcDbLine
 10
540.7001162471173
 20
-286.9769840719176
 30
0.0
 11
540.7001162471173
 21
-247.5153113396895
 31
0.0
1001
ACME_LAYERS
1000
1
  0
LINE
  5
3BFA
330
1F
100
AcDbEntity
  8
P-0000
  6
STRICHPUNKT
 62
     3
100
AcDbLine
 10
537.2873404095624
 20
-286.9769840719176
 30
0.0
 11
537.9381190384837
 21
-286.9769840719176
 31
0.0
1001
ACME_LAYERS
1000
1
  0
ARC
  5
3BFD
330
1F
100
AcDbEntity
  8
P-0000
  6
Continuous
 62
     7
100
AcDbCircle
 10
593.7001162471172
 20
-286.9769840719176
 30
0.0
 40
80.00000000000001
100
AcDbArc
 50
230.7855548646958
 51
259.921341892215
1001
ACME_LAYERS
1000
1
  0
ARC
  5
3BFE
330
1F
100
AcDbEntity
  8
P-0000
  6
Continuous
 62
     7
100
AcDbCircle
 10
593.7001162471172
 20
-286.9769840719176
 30
0.0
 40
81.99999999999999
100
AcDbArc
 50
230.7855548646958
 51
270.0
1001
ACME_LAYERS
1000
1
  0
ARC
  5
3C05
330
1F
100
AcDbEntity
  8
P-0000
  6
Continuous
 62
     7
100
AcDbCircle
 10
593.7001162471172
 20
-286.9769840719176
 30
0.0
 40
79.99999999999999
100
AcDbArc
 50
259.921341892215
 51
280.078658107785
1001
ACME_LAYERS
1000
1
  0
ARC
  5
3C08
330
1F
100
AcDbEntity
  8
P-0000
  6
Continuous
 62
     7
100
AcDbCircle
 10
593.7001162471172
 20
-286.9769840719176
 30
0.0
 40
79.99999999999999
100
AcDbArc
 50
280.078658107785
 51
281.5697552235359
1001
ACME_LAYERS
1000
1
  0
ARC
  5
3C0B
330
1F
100
AcDbEntity
  8
P-0000
  6
Continuous
 62
     7
100
AcDbCircle
 10
593.7001162471172
 20
-286.9769840719176
 30
0.0
 40
79.99999999999997
100
AcDbArc
 50
258.4302447764641
 51
259.921341892215
1001
ACME_LAYERS
1000
1
  0
HATCH
  5
3C0D
330
1F
100
AcDbEntity
  8
P-0000
  6
Continuous
 62
     3
100
AcDbHatch
 10
0.0
 20
0.0
 30
0.0
210
0.0
220
0.0
230
1.0
  2
_U
 70
     0
 71
     0
 91
        1
 92
        1
 93
        5
 72
     1
 10
542.7001162471173
 20
-329.0646810533065
 11
542.7001162471173
 21
-327.9769840719176
 72
     1
 10
542.7001162471173
 20
-327.9769840719176
 11
540.7001162471173
 21
-327.9769840719176
 72
     1
 10
540.7001162471173
 20
-327.9769840719176
 11
540.7001162471173
 21
-349.4769840719176
 72
     1
 10
540.7001162471173
 20
-349.4769840719176
 11
542.7001162471173
 21
-349.4769840719176
 72
     1
 10
542.7001162471173
 20
-349.4769840719176
 11
542.7001162471173
 21
-329.0646810533065
 97
        0
 75
     0
 76
     0
 52
-135.0
 41
1.0
 77
     0
 78
     1
 53
225.0
 43
590.1957317034158
 44
-330.2583372294315
 45
0.7071067811865472
 46
-0.7071067811865479
 79
     0
 98
        1
 10
590.1957317034158
 20
-330.2583372294315
1001
ACME_LAYERS
1000
1
  0
LINE
  5
3C0F
330
1F
100
AcDbEntity
  8
P-0000
  6
Continuous
 62
     7
100
AcDbLine
 10
542.7001162471173
 20
-349.4769840719176
 30
0.0
 11
542.7001162471173
 21
-329.0646810533065
 31
0.0
1001
ACME_LAYERS
1000
1
  0
LINE
  5
3C10
330
1F
100
AcDbEntity
  8
P-0000
  6
Continuous
 62
     7
100
AcDbLine
 10
540.7001162471173
 20
-327.9769840719176
 30
0.0
 11
540.7001162471173
 21
-349.4769840719176
 31
0.0
1001
ACME_LAYERS
1000
1
  0
LINE
  5
3C11
330
1F
100
AcDbEntity
  8
P-0000
  6
Continuous
 62
     7
100
AcDbLine
 10
542.7001162471173
 20
-327.9769840719176
 30
0.0
 11
542.7001162471173
 21
-327.3291141747628
 31
0.0
1001
ACME_LAYERS
1000
1
  0
LINE
  5
3C12
330
1F
100
AcDbEntity
  8
P-0000
  6
Continuous
 62
     7
100
AcDbLine
 10
540.7001162471173
 20
-326.4386568041458
 30
0.0
 11
540.7001162471173
 21
-327.9769840719176
 31
0.0
1001
ACME_LAYERS
1000
1
  0
LINE
  5
3C13
330
1F
100
AcDbEntity
  8
P-0000
  6
Continuous
 62
     7
100
AcDbLine
 10
540.7001162471173
 20
-327.9769840719176
 30
0.0
 11
542.7001162471173
 21
-327.9769840719176
 31
0.0
1001
ACME_LAYERS
1000
1
  0
LINE
  5
3C14
330
1F
100
AcDbEntity
  8
P-0000
  6
Continuous
 62
     7
100
AcDbLine
 10
542.7001162471173
 20
-329.0646810533065
 30
0.0
 11
542.7001162471173
 21
-327.9769840719176
 31
0.0
1001
ACME_LAYERS
1000
1
  0
HATCH
  5
3C15
330
1F
100
AcDbEntity
  8
P-0000
  6
Continuous
 62
     3
100
AcDbHatch
 10
0.0
 20
0.0
 30
0.0
210
0.0
220
0.0
230
1.0
  2
_SOLID
 70
     1
 71
     0
 91
        1
 92
        1
 93
        3
 72
     1
 10
541.8576943042993
 20
-350.5093639038022
 11
542.7001162471172
 21
-349.4769840719176
 72
     1
 10
542.7001162471173
 20
-349.4769840719176
 11
540.7001162471173
 21
-349.4769840719176
 72
     2
 10
541.6991016235812
 20
-349.5220198089586
 40
0.9999999999999474
 50
177.4187692887506
 51
279.1252198173408
 73
     1
 97
        0
 75
     0
 76
     1
 98
        1
 10
590.1957317034158
 20
-330.2583372294315
450
        0
451
        0
460
0.0
461
0.0
452
        0
462
0.0
453
        0
470

1001
ACME_LAYERS
1000
1
  0
LINE
  5
3C16
330
1F
100
AcDbEntity
  8
P-0000
  6
Continuous
 62
     7
100
AcDbLine
 10
540.7001162471173
 20
-349.4769840719176
 30
0.0
 11
542.7001162471173
 21
-349.4769840719176
 31
0.0
1001
ACME_LAYERS
1000
1
  0
LINE
  5
3C17
330
1F
100
AcDbEntity
  8
P-0000
  6
Continuous
 62
     7
100
AcDbLine
 10
541.8576943042993
 20
-350.5093639038022
 30
0.0
 11
542.7001162471173
 21
-349.4769840719176
 31
0.0
1001
ACME_LAYERS
1000
1
  0
LINE
  5
3C18
330
1F
100
AcDbEntity
  8
P-0000
  6
Continuous
 62
     7
100
AcDbLine
 10
542.7001162471173
 20
-349.4769840719176
 30
0.0
 11
543.1221436199779
 21
-348.9597936640001
 31
0.0
1001
ACME_LAYERS
1000
1
  0
ARC
  5
3C19
330
1F
100
AcDbEntity
  8
P-0000
  6
Continuous
 62
     7
100
AcDbCircle
 10
541.6991016235812
 20
-349.5220198089586
 30
0.0
 40
0.9999999999999474
100
AcDbArc
 50
177.4187692887499
 51
279.1252198173399
1001
ACME_LAYERS
1000
1
  0
LINE
  5
3C2B
330
1F
100
AcDbEntity
  8
0
100
AcDbLine
 10
778.8143988476451
 20
157.2483660043697
 30
0.0
 11
798.8143988476451
 21
157.2483660043697
 31
0.0
  0
LINE
  5
3C2C
330
1F
100
AcDbEntity
  8
0
100
AcDbLine
 10
778.8143988476451
 20
147.2483660043697
 30
0.0
 11
798.8143988476451
 21
147.2483660043697
 31
0.0
  0
ARC
  5
3C2D
330
1F
100
AcDbEntity
  8
0
100
AcDbCircle
 10
798.8143988476451
 20
152.2483660043697
 30
0.0
 40
4.999999999999995
100
AcDbArc
 50
270.0
 51
90.0
  0
ARC
  5
3C2E
330
1F
100
AcDbEntity
  8
0
100
AcDbCircle
 10
778.8143988476451
 20
152.2483660043697
 30
0.0
 40
4.999999999999976
100
AcDbArc
 50
90.0
 51
270.0
  0
DIMENSION
  5
3C2F
330
1F
100
AcDbEntity
  8
AM_5
100
AcDbDimension
  2
*D36
 10
796.8337935469108
 20
147.2483660043697
 30
0.0
 11
796.8337935469108
 21
139.6452163980706
 31
0.0
 70
   160
 71
     5
 42
10.0
  3
AM_DIN$0
100
AcDbAlignedDimension
 13
798.8143988476451
 23
157.2483660043697
 33
0.0
 14
798.8143988476451
 24
147.2483660043697
 34
0.0
 50
270.0
100
AcDbRotatedDimension
1001
ACAD
1000
DSTYLE
1002
{
1070
   140
1040
8.0
1002
}
  0
LINE
  5
3C30
330
1F
100
AcDbEntity
  8
0
100
AcDbLine
 10
885.9044703217271
 20
157.2483660043697
 30
0.0
 11
865.904470321727
 21
157.2483660043697
 31
0.0
  0
LINE
  5
3C31
330
1F
100
AcDbEntity
  8
0
100
AcDbLine
 10
885.9044703217271
 20
147.2483660043697
 30
0.0
 11
865.904470321727
 21
147.2483660043697
 31
0.0
  0
ARC
  5
3C32
330
1F
100
AcDbEntity
  8
0
100
AcDbCircle
 10
885.9044703217271
 20
152.2483660043697
 30
0.0
 40
4.999999999999975
100
AcDbArc
 50
270.0
 51
90.0
  0
ARC
  5
3C33
330
1F
100
AcDbEntity
  8
0
100
AcDbCircle
 10
865.904470321727
 20
152.2483660043697
 30
0.0
 40
5.000000000000024
100
AcDbArc
 50
90.0
 51
270.0
  0
LINE
  5
3C67
330
1F
100
AcDbEntity
  8
P-0000
  6
Continuous
 62
     7
100
AcDbLine
 10
894.9044703217268
 20
-39.2516339956303
 30
0.0
 11
894.9044703217268
 21
161.7483660043697
 31
0.0
1001
ACME_LAYERS
1000
1
  0
LINE
  5
3CC4
330
1F
100
AcDbEntity
  8
P-0000
  6
Continuous
 62
     7
100
AcDbLine
 10
540.7001162471173
 20
-326.4569840719176
 30
0.0
 11
540.7001162471173
 21
-286.9769840719176
 31
0.0
1001
ACME_LAYERS
1000
1
  0
LINE
  5
3CC5
330
1F
100
AcDbEntity
  8
P-0000
  6
Continuous
 62
     7
100
AcDbLine
 10
541.3080663952272
 20
-324.9769840719176
 30
0.0
 11
541.3080663952272
 21
-248.9769840719176
 31
0.0
1001
ACME_LAYERS
1000
1
  0
HATCH
  5
3CC6
330
1F
100
AcDbEntity
  8
P-0000
  6
Continuous
 62
     3
100
AcDbHatch
 10
0.0
 20
0.0
 30
0.0
210
0.0
220
0.0
230
1.0
  2
_U
 70
     0
 71
     0
 91
        1
 92
        1
 93
       15
 72
     1
 10
585.7001162471172
 20
-326.5769840719177
 11
585.7001162471172
 21
-324.9769840719176
 72
     1
 10
585.7001162471172
 20
-324.9769840719176
 11
570.1268149990198
 21
-324.9769840719176
 72
     2
 10
570.1268149990195
 20
-341.9769840719179
 40
17.00000000000006
 50
89.99999999999907
 51
109.358994175694
 73
     1
 72
     1
 10
564.4915530838062
 20
-325.9381616978484
 11
562.6433324480625
 21
-326.5875365158124
 72
     2
 10
556.8423275353423
 20
-310.0769840719175
 40
17.50000000000001
 50
430.641005824305
 51
449.9999999999999
 73
     0
 72
     1
 10
556.8423275353426
 20
-327.5769840719175
 11
552.1705115390171
 21
-327.5769840719175
 72
     2
 10
552.1705115390169
 20
-304.5769840719178
 40
22.99999999999995
 50
450.0
 51
472.397597952825
 73
     0
 72
     1
 10
543.4067843781991
 20
-325.8419102709605
 11
541.3080663952272
 21
-324.9769840719175
 72
     1
 10
541.3080663952272
 20
-324.9769840719176
 11
540.7001162471171
 21
-326.4569840719176
 72
     1
 10
540.7001162471173
 20
-326.4569840719176
 11
542.797133793099
 21
-327.3212094848071
 72
     2
 10
552.1705115390171
 20
-304.5769840719178
 40
24.60000000000004
 50
-112.3975979528253
 51
-90.0000000000003
 73
     1
 72
     1
 10
552.1705115390169
 20
-329.1769840719177
 11
556.8423275353421
 21
-329.1769840719177
 72
     2
 10
556.8423275353423
 20
-310.0769840719175
 40
19.10000000000007
 50
-89.99999999999998
 51
-70.64100582430514
 73
     1
 72
     1
 10
563.1737100400822
 20
-328.0970727392545
 11
567.5001162471171
 21
-326.5769840719179
 72
     1
 10
567.5001162471172
 20
-326.5769840719177
 11
585.7001162471172
 21
-326.5769840719177
 97
        0
 75
     0
 76
     0
 52
-225.0
 41
2.0
 77
     0
 78
     1
 53
134.9999999999999
 43
504.7384948380763
 44
17.94210426700647
 45
-1.414213562373095
 46
-1.414213562373094
 79
     0
 98
        1
 10
504.7384948380763
 20
17.94210426700647
1001
ACME_LAYERS
1000
1
  0
LINE
  5
3CC7
330
1F
100
AcDbEntity
  8
P-0000
  6
Continuous
 62
     7
100
AcDbLine
 10
541.3080663952272
 20
-324.9769840719176
 30
0.0
 11
543.4067843781991
 21
-325.8419102709605
 31
0.0
1001
ACME_LAYERS
1000
1
  0
LINE
  5
3CC8
330
1F
100
AcDbEntity
  8
P-0000
  6
Continuous
 62
     7
100
AcDbLine
 10
540.7001162471173
 20
-326.4569840719176
 30
0.0
 11
542.7971337930988
 21
-327.3212094848071
 31
0.0
1001
ACME_LAYERS
1000
1
  0
LINE
  5
3CC9
330
1F
100
AcDbEntity
  8
P-0000
  6
Continuous
 62
     7
100
AcDbLine
 10
585.7001162471172
 20
-326.5769840719177
 30
0.0
 11
570.1268149990195
 21
-326.5769840719177
 31
0.0
1001
ACME_LAYERS
1000
1
  0
LINE
  5
3CCA
330
1F
100
AcDbEntity
  8
P-0000
  6
Continuous
 62
     7
100
AcDbLine
 10
585.7001162471172
 20
-324.9769840719178
 30
0.0
 11
570.1268149990197
 21
-324.9769840719178
 31
0.0
1001
ACME_LAYERS
1000
1
  0
ARC
  5
3CCB
330
1F
100
AcDbEntity
  8
P-0000
  6
Continuous
 62
     7
100
AcDbCircle
 10
570.1268149990197
 20
-341.9769840719179
 30
0.0
 40
17.0
100
AcDbArc
 50
90.0
 51
109.3589941756954
1001
ACME_LAYERS
1000
1
  0
ARC
  5
3CCC
330
1F
100
AcDbEntity
  8
P-0000
  6
Continuous
 62
     7
100
AcDbCircle
 10
570.1268149990197
 20
-341.9769840719179
 30
0.0
 40
15.39999999999998
100
AcDbArc
 50
90.0
 51
109.3589941756954
1001
ACME_LAYERS
1000
1
  0
LINE
  5
3CCD
330
1F
100
AcDbEntity
  8
P-0000
  6
Continuous
 62
     7
100
AcDbLine
 10
556.8423275353426
 20
-327.5769840719175
 30
0.0
 11
552.1705115390169
 21
-327.5769840719175
 31
0.0
1001
ACME_LAYERS
1000
1
  0
LINE
  5
3CCE
330
1F
100
AcDbEntity
  8
P-0000
  6
Continuous
 62
     7
100
AcDbLine
 10
556.8423275353423
 20
-329.1769840719177
 30
0.0
 11
552.1705115390169
 21
-329.1769840719177
 31
0.0
1001
ACME_LAYERS
1000
1
  0
ARC
  5
3CCF
330
1F
100
AcDbEntity
  8
P-0000
  6
Continuous
 62
     7
100
AcDbCircle
 10
556.8423275353426
 20
-310.0769840719175
 30
0.0
 40
17.5
100
AcDbArc
 50
270.0
 51
289.3589941756954
1001
ACME_LAYERS
1000
1
  0
ARC
  5
3CD0
330
1F
100
AcDbEntity
  8
P-0000
  6
Continuous
 62
     7
100
AcDbCircle
 10
556.8423275353426
 20
-310.0769840719175
 30
0.0
 40
19.10000000000008
100
AcDbArc
 50
270.0
 51
289.3589941756954
1001
ACME_LAYERS
1000
1
  0
LINE
  5
3CD1
330
1F
100
AcDbEntity
  8
P-0000
  6
Continuous
 62
     7
100
AcDbLine
 10
565.0219306758259
 20
-327.4476979212904
 30
0.0
 11
563.1737100400822
 21
-328.0970727392545
 31
0.0
1001
ACME_LAYERS
1000
1
  0
LINE
  5
3CD2
330
1F
100
AcDbEntity
  8
P-0000
  6
Continuous
 62
     7
100
AcDbLine
 10
562.6433324480623
 20
-326.5875365158125
 30
0.0
 11
564.4915530838062
 21
-325.9381616978484
 31
0.0
1001
ACME_LAYERS
1000
1
  0
ARC
  5
3CD3
330
1F
100
AcDbEntity
  8
P-0000
  6
Continuous
 62
     7
100
AcDbCircle
 10
552.1705115390169
 20
-304.5769840719176
 30
0.0
 40
22.99999999999998
100
AcDbArc
 50
247.6024020471711
 51
270.0
1001
ACME_LAYERS
1000
1
  0
ARC
  5
3CD4
330
1F
100
AcDbEntity
  8
P-0000
  6
Continuous
 62
     7
100
AcDbCircle
 10
552.1705115390169
 20
-304.5769840719176
 30
0.0
 40
24.60000000000002
100
AcDbArc
 50
247.6024020471711
 51
270.0
1001
ACME_LAYERS
1000
1
  0
LINE
  5
3CD5
330
1F
100
AcDbEntity
  8
P-0000
  6
Continuous
 62
     7
100
AcDbLine
 10
540.7001162471173
 20
-326.4569840719176
 30
0.0
 11
541.3080663952272
 21
-324.9769840719176
 31
0.0
1001
ACME_LAYERS
1000
1
  0
HATCH
  5
3CD6
330
1F
100
AcDbEntity
  8
P-0000
  6
Continuous
 62
     3
100
AcDbHatch
 10
0.0
 20
0.0
 30
0.0
210
0.0
220
0.0
230
1.0
  2
_U
 70
     0
 71
     0
 91
        1
 92
        1
 93
       15
 72
     1
 10
585.7001162471172
 20
-248.9769840719179
 11
585.7001162471172
 21
-247.3769840719179
 72
     1
 10
585.7001162471172
 20
-247.3769840719177
 11
567.5001162471172
 21
-247.3769840719177
 72
     1
 10
567.5001162471172
 20
-247.3769840719177
 11
563.1737100400823
 21
-245.856895404581
 72
     2
 10
556.8423275353423
 20
-263.8769840719175
 40
19.10000000000008
 50
70.64100582430497
 51
89.99999999999978
 73
     1
 72
     1
 10
556.8423275353423
 20
-244.7769840719176
 11
552.1705115390171
 21
-244.7769840719176
 72
     2
 10
552.1705115390171
 20
-269.3769840719177
 40
24.60000000000011
 50
-269.9999999999998
 51
-247.6024020471748
 73
     1
 72
     1
 10
542.7971337930988
 20
-246.6327586590281
 11
540.7001162471171
 21
-247.4969840719176
 72
     1
 10
540.7001162471173
 20
-247.4969840719176
 11
541.3080663952273
 21
-248.9769840719176
 72
     1
 10
541.3080663952272
 20
-248.9769840719176
 11
543.4067843781991
 21
-248.1120578728747
 72
     2
 10
552.1705115390169
 20
-269.3769840719177
 40
23.00000000000002
 50
607.6024020471751
 51
630.0
 73
     0
 72
     1
 10
552.1705115390169
 20
-246.3769840719177
 11
556.8423275353423
 21
-246.3769840719177
 72
     2
 10
556.8423275353426
 20
-263.8769840719177
 40
17.50000000000006
 50
629.9999999999998
 51
649.3589941756948
 73
     0
 72
     1
 10
562.6433324480623
 20
-247.3664316280229
 11
564.491553083806
 21
-248.015806445987
 72
     2
 10
570.1268149990197
 20
-231.9769840719179
 40
17.00000000000001
 50
-109.3589941756947
 51
-89.99999999999969
 73
     1
 72
     1
 10
570.1268149990197
 20
-248.9769840719179
 11
585.7001162471171
 21
-248.9769840719179
 97
        0
 75
     0
 76
     0
 52
-225.0
 41
2.0
 77
     0
 78
     1
 53
134.9999999999999
 43
504.7384948380763
 44
17.94210426700647
 45
-1.414213562373095
 46
-1.414213562373094
 79
     0
 98
        1
 10
504.7384948380763
 20
17.94210426700647
1001
ACME_LAYERS
1000
1
  0
LINE
  5
3CD7
330
1F
100
AcDbEntity
  8
P-0000
  6
Continuous
 62
     7
100
AcDbLine
 10
542.7971337930988
 20
-246.6327586590281
 30
0.0
 11
540.7001162471173
 21
-247.4969840719176
 31
0.0
1001
ACME_LAYERS
1000
1
  0
LINE
  5
3CD8
330
1F
100
AcDbEntity
  8
P-0000
  6
Continuous
 62
     7
100
AcDbLine
 10
543.4067843781991
 20
-248.1120578728745
 30
0.0
 11
541.3080663952272
 21
-248.9769840719176
 31
0.0
1001
ACME_LAYERS
1000
1
  0
LINE
  5
3CD9
330
1F
100
AcDbEntity
  8
P-0000
  6
Continuous
 62
     7
100
AcDbLine
 10
570.1268149990197
 20
-248.9769840719179
 30
0.0
 11
585.7001162471172
 21
-248.9769840719179
 31
0.0
1001
ACME_LAYERS
1000
1
  0
LINE
  5
3CDA
330
1F
100
AcDbEntity
  8
P-0000
  6
Continuous
 62
     7
100
AcDbLine
 10
570.1268149990195
 20
-247.3769840719177
 30
0.0
 11
585.7001162471172
 21
-247.3769840719177
 31
0.0
1001
ACME_LAYERS
1000
1
  0
ARC
  5
3CDB
330
1F
100
AcDbEntity
  8
P-0000
  6
Continuous
 62
     7
100
AcDbCircle
 10
570.1268149990197
 20
-231.9769840719179
 30
0.0
 40
15.40000000000004
100
AcDbArc
 50
250.6410058243046
 51
269.999999999987
1001
ACME_LAYERS
1000
1
  0
ARC
  5
3CDC
330
1F
100
AcDbEntity
  8
P-0000
  6
Continuous
 62
     7
100
AcDbCircle
 10
570.1268149990197
 20
-231.9769840719179
 30
0.0
 40
17.0
100
AcDbArc
 50
250.6410058243046
 51
270.0
1001
ACME_LAYERS
1000
1
  0
ARC
  5
3CDD
330
1F
100
AcDbEntity
  8
P-0000
  6
Continuous
 62
     7
100
AcDbCircle
 10
552.1705115390169
 20
-269.3769840719177
 30
0.0
 40
23.0
100
AcDbArc
 50
90.0
 51
112.3975979528287
1001
ACME_LAYERS
1000
1
  0
LINE
  5
3CDE
330
1F
100
AcDbEntity
  8
P-0000
  6
Continuous
 62
     7
100
AcDbLine
 10
564.4915530838062
 20
-248.0158064459871
 30
0.0
 11
562.6433324480623
 21
-247.3664316280229
 31
0.0
1001
ACME_LAYERS
1000
1
  0
LINE
  5
3CDF
330
1F
100
AcDbEntity
  8
P-0000
  6
Continuous
 62
     7
100
AcDbLine
 10
552.1705115390169
 20
-244.7769840719176
 30
0.0
 11
556.8423275353423
 21
-244.7769840719176
 31
0.0
1001
ACME_LAYERS
1000
1
  0
LINE
  5
3CE0
330
1F
100
AcDbEntity
  8
P-0000
  6
Continuous
 62
     7
100
AcDbLine
 10
552.1705115390169
 20
-246.3769840719177
 30
0.0
 11
556.8423275353426
 21
-246.3769840719177
 31
0.0
1001
ACME_LAYERS
1000
1
  0
ARC
  5
3CE1
330
1F
100
AcDbEntity
  8
P-0000
  6
Continuous
 62
     7
100
AcDbCircle
 10
556.8423275353426
 20
-263.8769840719177
 30
0.0
 40
19.10000000000005
100
AcDbArc
 50
70.64100582430459
 51
90.0
1001
ACME_LAYERS
1000
1
  0
ARC
  5
3CE2
330
1F
100
AcDbEntity
  8
P-0000
  6
Continuous
 62
     7
100
AcDbCircle
 10
556.8423275353426
 20
-263.8769840719177
 30
0.0
 40
17.50000000000004
100
AcDbArc
 50
70.64100582430459
 51
90.0
1001
ACME_LAYERS
1000
1
  0
LINE
  5
3CE3
330
1F
100
AcDbEntity
  8
P-0000
  6
Continuous
 62
     7
100
AcDbLine
 10
563.1737100400822
 20
-245.856895404581
 30
0.0
 11
565.0219306758259
 21
-246.5062702225452
 31
0.0
1001
ACME_LAYERS
1000
1
  0
ARC
  5
3CE4
330
1F
100
AcDbEntity
  8
P-0000
  6
Continuous
 62
     7
100
AcDbCircle
 10
552.1705115390169
 20
-269.3769840719177
 30
0.0
 40
24.60000000000014
100
AcDbArc
 50
90.0
 51
112.3975979528287
1001
ACME_LAYERS
1000
1
  0
LINE
  5
3CE5
330
1F
100
AcDbEntity
  8
P-0000
  6
Continuous
 62
     7
100
AcDbLine
 10
540.7001162471173
 20
-286.9769840719176
 30
0.0
 11
540.7001162471173
 21
-247.4969840719176
 31
0.0
1001
ACME_LAYERS
1000
1
  0
LINE
  5
3CE6
330
1F
100
AcDbEntity
  8
P-0000
  6
Continuous
 62
     7
100
AcDbLine
 10
541.3080663952272
 20
-248.9769840719176
 30
0.0
 11
540.7001162471173
 21
-247.4969840719176
 31
0.0
1001
ACME_LAYERS
1000
1
  0
LINE
  5
3CE7
330
1F
100
AcDbEntity
  8
0
100
AcDbLine
 10
585.7001162471172
 20
-326.9769840719176
 30
0.0
 11
585.7001162471172
 21
-246.9769840719176
 31
0.0
  0
LINE
  5
3CE8
330
1F
100
AcDbEntity
  8
0
100
AcDbLine
 10
590.7001162471173
 20
-326.9769840719176
 30
0.0
 11
590.7001162471173
 21
-246.9769840719176
 31
0.0
  0
LINE
  5
3CE9
330
1F
100
AcDbEntity
  8
0
100
AcDbLine
 10
590.7001162471173
 20
-326.9769840719176
 30
0.0
 11
585.7001162471172
 21
-326.9769840719176
 31
0.0
  0
LINE
  5
3CEA
330
1F
100
AcDbEntity
  8
0
100
AcDbLine
 10
590.7001162471173
 20
-246.9769840719176
 30
0.0
 11
585.7001162471172
 21
-246.9769840719176
 31
0.0
  0
DIMENSION
  5
452F
330
1F
100
AcDbEntity
  8
AM_5
100
AcDbDimension
  2
*D47
 10
740.0321369025768
 20
163.7483660043697
 30
0.0
 11
734.5313495010019
 21
157.9983660043698
 31
0.0
 70
    32
 71
     5
 42
11.5
  3
AM_DIN$0
100
AcDbAlignedDimension
 13
773.8143988476451
 23
152.2483660043697
 33
0.0
 14
750.359434584686
 24
163.7483660043697
 34
0.0
 50
90.00000000000003
100
AcDbRotatedDimension
1001
ACAD_DSTYLE_DIMINSPECT
1070
   396
1000
100%
1070
   395
1000

1070
   394
1070
    33
1070
   393
1070
     0
1001
ACAD
1000
DSTYLE
1002
{
1070
   140
1040
8.0
1070
   271
1070
     0
1002
}
  0
DIMENSION
  5
4560
330
1F
100
AcDbEntity
  8
AM_5
100
AcDbDimension
  2
*D48
 10
642.1027096395889
 20
121.7483660043698
 30
0.0
 11
636.601922238014
 21
142.7483660043699
 31
0.0
 70
    32
 71
     5
 42
42.0
  3
AM_DIN$0
100
AcDbAlignedDimension
 13
678.250109655153
 23
163.7483660043698
 33
0.0
 14
669.5451325333317
 24
121.7483660043698
 34
0.0
 50
90.0
100
AcDbRotatedDimension
1001
ACAD_DSTYLE_DIMINSPECT
1070
   396
1000
100%
1070
   395
1000

1070
   394
1070
    33
1070
   393
1070
     0
1001
ACAD
1000
DSTYLE
1002
{
1070
   140
1040
8.0
1002
}
  0
DIMENSION
  5
458E
330
1F
100
AcDbEntity
  8
AM_5
100
AcDbDimension
  2
*D50
 10
876.2309429461337
 20
187.8365458724583
 30
0.0
 11
832.3594345846862
 21
193.3365458724584
 31
0.0
 70
    32
 71
     5
 42
87.74301672289551
  3
AM_DIN$0
100
AcDbAlignedDimension
 13
788.4879262232383
 23
152.2483660043697
 33
0.0
 14
876.2309429461337
 24
152.2483660043697
 34
0.0
 50
0.0000000000000114
100
AcDbRotatedDimension
1001
ACAD_DSTYLE_DIMINSPECT
1070
   396
1000
100%
1070
   395
1000

1070
   394
1070
    33
1070
   393
1070
     0
1001
ACAD
1000
DSTYLE
1002
{
1070
   140
1040
8.0
1070
   271
1070
     0
1002
}
  0
DIMENSION
  5
45C8
330
1F
100
AcDbEntity
  8
AM_5
100
AcDbDimension
  2
*D51
 10
520.3282884050222
 20
108.7483660043698
 30
0.0
 11
514.8282884050222
 21
136.2483660043699
 31
0.0
 70
    32
 71
     5
 42
55.0
  3
AM_DIN$0
100
AcDbAlignedDimension
 13
543.2501096551531
 23
163.7483660043698
 33
0.0
 14
539.499422888953
 24
108.7483660043698
 34
0.0
 50
90.0
100
AcDbRotatedDimension
1001
ACAD_DSTYLE_DIMINSPECT
1070
   396
1000
100%
1070
   395
1000

1070
   394
1070
    33
1070
   393
1070
     0
1001
ACAD
1000
DSTYLE
1002
{
1070
   140
1040
8.0
1002
}
  0
LINE
  5
45F0
330
1F
100
AcDbEntity
  8
AM_7
100
AcDbLine
 10
593.7001162471172
 20
-189.2497567728131
 30
0.0
 11
593.7001162471172
 21
-371.9769840719176
 31
0.0
1001
GENIUS_GENOBJ-N-CEN_13
1002
{
1000
OWNER
1000
GEN
1002
}
1001
GENIUS_GENODEF_13
1002
{
1000
HIER
1070
     0
1002
}
1002
{
1000
MANEDIT
1070
     0
1002
}
1002
{
1000
NOSEL
1070
     0
1002
}
1002
{
1000
BEHIND
1070
     0
1002
}
1002
{
1000
OTHER
1070
     0
1002
}
1002
{
1000
REACTOR
1002
}
1001
GENIUS_GENCEN_19
1002
{
1040
3.0
1002
}
  0
ARC
  5
45F3
330
1F
100
AcDbEntity
  8
P-0000
  6
Continuous
 62
     7
100
AcDbCircle
 10
832.3594345846862
 20
121.7483660043697
 30
0.0
 40
10.0
100
AcDbArc
 50
270.0
 51
0.0
1001
ACME_LAYERS
1000
1
  0
ARC
  5
45F4
330
1F
100
AcDbEntity
  8
P-0000
  6
Continuous
 62
     7
100
AcDbCircle
 10
832.3594345846862
 20
121.7483660043697
 30
0.0
 40
11.0
100
AcDbArc
 50
270.0
 51
0.0
1001
ACME_LAYERS
1000
1
  0
ARC
  5
45F5
330
1F
100
AcDbEntity
  8
P-0000
  6
Continuous
 62
     7
100
AcDbCircle
 10
832.3594345846862
 20
121.7483660043697
 30
0.0
 40
11.0
100
AcDbArc
 50
180.0
 51
270.0
1001
ACME_LAYERS
1000
1
  0
ARC
  5
45F6
330
1F
100
AcDbEntity
  8
P-0000
  6
Continuous
 62
     7
100
AcDbCircle
 10
832.3594345846862
 20
121.7483660043697
 30
0.0
 40
10.0
100
AcDbArc
 50
180.0
 51
270.0
1001
ACME_LAYERS
1000
1
  0
MTEXT
  5
471B
330
1F
100
AcDbEntity
  8
0
 62
     3
100
AcDbMText
 10
553.5782670271855
 20
125.5076490802685
 30
0.0
 40
8.0
 41
27.77179492821506
 71
     1
 72
     5
  1
{\C256;DN 70}
 73
     1
 44
1.0
1001
ACAD
1000
ACAD_MTEXT_COLUMN_INFO_BEGIN
1070
    75
1070
     2
1070
    79
1070
     0
1070
    76
1070
     1
1070
    78
1070
     0
1070
    48
1040
27.77179492821506
1070
    49
1040
17.5
1070
    50
1070
     1
1040
0.0
1000
ACAD_MTEXT_COLUMN_INFO_END
  0
MTEXT
  5
471C
330
1F
100
AcDbEntity
  8
0
 62
     3
100
AcDbMText
 10
592.6907731904602
 20
-87.8313887974391
 30
0.0
 40
8.0
 41
27.77179492821506
 71
     1
 72
     5
  1
{\C256;DN 70}
 73
     1
 44
1.0
1001
ACAD
1000
ACAD_MTEXT_COLUMN_INFO_BEGIN
1070
    75
1070
     2
1070
    79
1070
     0
1070
    76
1070
     1
1070
    78
1070
     0
1070
    48
1040
27.77179492821506
1070
    49
1040
17.5
1070
    50
1070
     1
1040
0.0
1000
ACAD_MTEXT_COLUMN_INFO_END
  0
ENDSEC
  0
SECTION
  2
OBJECTS
  0
DICTIONARY
  5
C
330
0
100
AcDbDictionary
281
     1
  3
ACAD_2007HEADERVARS_RT
350
4765
  3
ACAD_COLOR
350
CD7
  3
ACAD_GROUP
350
D
  3
ACAD_IMAGE_DICT
350
32AC
  3
ACAD_IMAGE_VARS
350
32D0
  3
ACAD_LAYOUT
350
1A
  3
ACAD_MATERIAL
350
CD6
  3
ACAD_MLEADERSTYLE
350
31DA
  3
ACAD_MLINESTYLE
350
17
  3
ACAD_PLOTSETTINGS
350
19
  3
ACAD_PLOTSTYLENAME
350
E
  3
ACAD_SCALELIST
350
31C8
  3
ACAD_TABLESTYLE
350
CD8
  3
ACAD_VISUALSTYLE
350
31B7
  3
ACDB_RECOMPOSE_DATA
350
4764
  3
AcDbVariableDictionary
350
34
  3
AcmDictionary
350
47
  3
AEC_PROPERTY_SET_DEFS
350
3217
  3
AMG
350
2B
  3
AMGSNAPSETTINGS
350
611
  0
DICTIONARY
  5
E07
330
2
100
AcDbDictionary
280
     1
281
     1
  3
ACAD_LAYERSTATES
360
E08
  3
AMLAYER_GROUPCOLORS
360
16F2
  0
DICTIONARY
  5
3532
330
10
100
AcDbDictionary
280
     1
281
     1
  3
ADSK_XREC_LAYER_RECONCILED
360
3533
  0
DICTIONARY
  5
3534
330
262
100
AcDbDictionary
280
     1
281
     1
  3
ADSK_XREC_LAYER_RECONCILED
360
3535
  0
DICTIONARY
  5
354E
330
13D6
100
AcDbDictionary
280
     1
281
     1
  3
ADSK_XREC_LAYER_RECONCILED
360
354F
  0
DICTIONARY
  5
3550
330
13F4
100
AcDbDictionary
280
     1
281
     1
  3
ADSK_XREC_LAYER_RECONCILED
360
3551
  0
DICTIONARY
  5
81
330
1F
100
AcDbDictionary
280
     1
281
     1
  3
ACAD_SORTENTS
360
156E
  0
DICTIONARY
  5
4765
102
{ACAD_REACTORS
330
C
102
}
330
C
100
AcDbDictionary
281
     1
  3
DIMJOGANG
350
4766
  0
DICTIONARY
  5
CD7
102
{ACAD_REACTORS
330
C
102
}
330
C
100
AcDbDictionary
281
     1
  0
DICTIONARY
  5
D
102
{ACAD_REACTORS
330
C
102
}
330
C
100
AcDbDictionary
281
     1
  0
DICTIONARY
  5
32AC
102
{ACAD_REACTORS
330
C
102
}
330
C
100
AcDbDictionary
281
     1
  3
ACO-Logo
350
32AD
  0
RASTERVARIABLES
  5
32D0
102
{ACAD_REACTORS
330
C
102
}
330
C
100
AcDbRasterVariables
 90
        0
 70
     1
 71
     1
 72
     1
  0
DICTIONARY
  5
1A
102
{ACAD_REACTORS
330
C
102
}
330
C
100
AcDbDictionary
281
     1
  3
Layout1
350
1E
  3
Layout2
350
26
  3
Model
350
22
  0
DICTIONARY
  5
CD6
102
{ACAD_REACTORS
330
C
102
}
330
C
100
AcDbDictionary
281
     1
  3
ByBlock
350
31A7
  3
ByLayer
350
319F
  3
Global
350
31AF
  0
DICTIONARY
  5
31DA
102
{ACAD_REACTORS
330
C
102
}
330
C
100
AcDbDictionary
281
     1
  3
Standard
350
31DB
  0
DICTIONARY
  5
17
102
{ACAD_REACTORS
330
C
102
}
330
C
100
AcDbDictionary
281
     1
  3
Standard
350
18
  0
DICTIONARY
  5
19
102
{ACAD_REACTORS
330
C
102
}
330
C
100
AcDbDictionary
281
     1
  0
ACDBDICTIONARYWDFLT
  5
E
102
{ACAD_REACTORS
330
C
102
}
330
C
100
AcDbDictionary
281
     1
  3
Normal
350
F
100
AcDbDictionaryWithDefault
340
F
  0
DICTIONARY
  5
31C8
102
{ACAD_REACTORS
330
C
102
}
330
C
100
AcDbDictionary
281
     1
  3
A0
350
31C9
  3
A1
350
31CA
  3
A2
350
31CB
  3
A3
350
31CC
  3
A4
350
31CD
  3
A5
350
31CE
  3
A6
350
31CF
  3
A7
350
31D0
  3
A8
350
31D1
  3
A9
350
31D2
  3
B0
350
31D3
  3
B1
350
31D4
  3
B2
350
31D5
  3
B3
350
31D6
  3
B4
350
31D7
  3
B5
350
31D8
  3
B6
350
31D9
  0
DICTIONARY
  5
CD8
102
{ACAD_REACTORS
330
C
102
}
330
C
100
AcDbDictionary
281
     1
  3
Standard
350
CD9
  0
DICTIONARY
  5
31B7
102
{ACAD_REACTORS
330
C
102
}
330
C
100
AcDbDictionary
281
     1
  3
2dWireframe
350
31BD
  3
3D Hidden
350
31BF
  3
3dWireframe
350
31BE
  3
Basic
350
31BC
  3
Brighten
350
31C3
  3
ColorChange
350
31C7
  3
Conceptual
350
31C0
  3
Dim
350
31C2
  3
EdgeColorOff
350
40E1
  3
Facepattern
350
31C6
  3
Flat
350
31B8
  3
FlatWithEdges
350
31B9
  3
Gouraud
350
31BA
  3
GouraudWithEdges
350
31BB
  3
JitterOff
350
40DF
  3
Linepattern
350
31C5
  3
OverhangOff
350
40E0
  3
Realistic
350
31C1
  3
Thicken
350
31C4
  0
XRECORD
  5
4764
102
{ACAD_REACTORS
330
C
102
}
330
C
100
AcDbXrecord
280
     1
 90
        1
330
CD9
330
3B22
330
471B
330
471C
  0
DICTIONARY
  5
34
102
{ACAD_REACTORS
330
C
102
}
330
C
100
AcDbDictionary
281
     1
  3
CANNOSCALE
350
356E
  3
CMLEADERSTYLE
350
356C
  3
CTABLESTYLE
350
11F8
  3
INDEXCTL
350
35
  3
LAYEREVAL
350
3570
  3
LAYERNOTIFY
350
3571
  3
LIGHTINGUNITS
350
356F
  3
MSLTSCALE
350
356D
  0
DICTIONARY
  5
47
102
{ACAD_REACTORS
330
C
102
}
330
C
100
AcDbDictionary
281
     1
  3
AcmStdDictionary
350
4C
  3
AMDTSECTSYM_ARROWCOLOR
350
CE1
  0
DICTIONARY
  5
3217
102
{ACAD_REACTORS
330
C
102
}
330
C
100
AcDbDictionary
281
     1
  0
DICTIONARY
  5
2B
102
{ACAD_REACTORS
330
C
102
}
330
C
100
AcDbDictionary
281
     1
  0
DICTIONARY
  5
611
102
{ACAD_REACTORS
330
C
102
}
330
C
100
AcDbDictionary
281
     1
  0
DICTIONARY
  5
E08
102
{ACAD_REACTORS
330
E07
102
}
330
E07
100
AcDbDictionary
281
     1
  0
DICTIONARY
  5
16F2
102
{ACAD_REACTORS
330
E07
102
}
330
E07
100
AcDbDictionary
280
     1
281
     1
  0
XRECORD
  5
3533
102
{ACAD_REACTORS
330
3532
102
}
330
3532
100
AcDbXrecord
280
     1
290
     1
  0
XRECORD
  5
3535
102
{ACAD_REACTORS
330
3534
102
}
330
3534
100
AcDbXrecord
280
     1
290
     1
  0
XRECORD
  5
354F
102
{ACAD_REACTORS
330
354E
102
}
330
354E
100
AcDbXrecord
280
     1
290
     1
  0
XRECORD
  5
3551
102
{ACAD_REACTORS
330
3550
102
}
330
3550
100
AcDbXrecord
280
     1
290
     1
  0
SORTENTSTABLE
  5
156E
102
{ACAD_REACTORS
330
81
102
}
330
81
100
AcDbSortentsTable
330
1F
  0
XRECORD
  5
4766
102
{ACAD_REACTORS
330
4765
102
}
330
4765
100
AcDbXrecord
280
     1
 40
1.570796326794896
  0
IMAGEDEF
  5
32AD
102
{ACAD_REACTORS
330
32AC
330
32AB
102
}
330
32AC
100
AcDbRasterImageDef
 90
        0
  1
L:\calink52\templates\ACO-Logo.jpg
 10
75.0
 20
57.0
 11
0.3527777777777778
 21
0.3527777777777778
280
     1
281
     5
  0
LAYOUT
  5
1E
102
{ACAD_REACTORS
330
1A
102
}
330
1A
100
AcDbPlotSettings
  1

  2
C:\Programme\Acadm 2000i\plotters\PH36.pc3
  4

  6

 40
0.0
 41
0.0
 42
0.0
 43
0.0
 44
0.0
 45
0.0
 46
0.0
 47
0.0
 48
0.0
 49
0.0
140
0.0
141
0.0
142
1.0
143
1.0
 70
   688
 72
     0
 73
     0
 74
     5
  7
monochrome.ctb
 75
    16
147
1.0
 76
     0
 77
     2
 78
   300
148
0.0
149
0.0
100
AcDbLayout
  1
Layout1
 70
     1
 71
     1
 10
0.0
 20
0.0
 11
420.0
 21
297.0
 12
0.0
 22
0.0
 32
0.0
 14
1.000000000000000E+20
 24
1.000000000000000E+20
 34
1.000000000000000E+20
 15
-1.000000000000000E+20
 25
-1.000000000000000E+20
 35
-1.000000000000000E+20
146
0.0
 13
0.0
 23
0.0
 33
0.0
 16
1.0
 26
0.0
 36
0.0
 17
0.0
 27
1.0
 37
0.0
 76
     0
330
1B
  0
LAYOUT
  5
26
102
{ACAD_REACTORS
330
1A
102
}
330
1A
100
AcDbPlotSettings
  1

  2
C:\Programme\Acadm 2000i\plotters\PH36.pc3
  4

  6

 40
0.0
 41
0.0
 42
0.0
 43
0.0
 44
0.0
 45
0.0
 46
0.0
 47
0.0
 48
0.0
 49
0.0
140
0.0
141
0.0
142
1.0
143
1.0
 70
   688
 72
     0
 73
     0
 74
     5
  7
monochrome.ctb
 75
    16
147
1.0
 76
     0
 77
     2
 78
   300
148
0.0
149
0.0
100
AcDbLayout
  1
Layout2
 70
     1
 71
     2
 10
0.0
 20
0.0
 11
12.0
 21
9.0
 12
0.0
 22
0.0
 32
0.0
 14
0.0
 24
0.0
 34
0.0
 15
0.0
 25
0.0
 35
0.0
146
0.0
 13
0.0
 23
0.0
 33
0.0
 16
1.0
 26
0.0
 36
0.0
 17
0.0
 27
1.0
 37
0.0
 76
     0
330
23
  0
LAYOUT
  5
22
102
{ACAD_XDICTIONARY
360
4112
102
}
102
{ACAD_REACTORS
330
1A
102
}
330
1A
100
AcDbPlotSettings
  1

  2
\\rd-sr-211\ST-PR-044
  4
A4
  6

 40
6.011333465576171
 41
4.233341693878173
 42
6.011322021484375
 43
4.23333740234375
 44
209.9733276367187
 45
296.9259948730469
 46
0.0
 47
4.25025401115414
 48
-0.0000000000001137
 49
0.0000000000000727
140
594.0
141
420.0
142
1.0
143
2.121740711658024
 70
 11956
 72
     1
 73
     1
 74
     4
  7
monochrome.ctb
 75
     0
147
0.471311124165853
 76
     0
 77
     2
 78
   300
148
0.0000000000001137
149
-0.0000000000000727
100
AcDbLayout
  1
Model
 70
     1
 71
     0
 10
0.0
 20
0.0
 11
12.0
 21
9.0
 12
0.0
 22
0.0
 32
0.0
 14
0.0
 24
0.0
 34
0.0
 15
0.0
 25
0.0
 35
0.0
146
0.0
 13
0.0
 23
0.0
 33
0.0
 16
1.0
 26
0.0
 36
0.0
 17
0.0
 27
1.0
 37
0.0
 76
     0
330
1F
331
319D
1001
ACAD_PSEXT
1000
\\rd-sr-211\ST-PR-044
1000
HP LaserJet 5100 PCL 5e
1000
ST-Kostruktion
1000
172.23.10.10
1070
     0
  0
MATERIAL
  5
31A7
102
{ACAD_XDICTIONARY
360
31A8
102
}
102
{ACAD_REACTORS
330
CD6
102
}
330
CD6
100
AcDbMaterial
  1
ByBlock
 72
     0
 43
0.0008202099737533
 43
0.0
 43
0.0
 43
0.0
 43
0.0
 43
0.0008202099737533
 43
0.0
 43
0.0
 43
0.0
 43
0.0
 43
1.0
 43
0.0
 43
0.0
 43
0.0
 43
0.0
 43
1.0
 77
     0
 47
0.0008202099737533
 47
0.0
 47
0.0
 47
0.0
 47
0.0
 47
0.0008202099737533
 47
0.0
 47
0.0
 47
0.0
 47
0.0
 47
1.0
 47
0.0
 47
0.0
 47
0.0
 47
0.0
 47
1.0
171
     0
 49
0.0008202099737533
 49
0.0
 49
0.0
 49
0.0
 49
0.0
 49
0.0008202099737533
 49
0.0
 49
0.0
 49
0.0
 49
0.0
 49
1.0
 49
0.0
 49
0.0
 49
0.0
 49
0.0
 49
1.0
175
     0
142
0.0008202099737533
142
0.0
142
0.0
142
0.0
142
0.0
142
0.0008202099737533
142
0.0
142
0.0
142
0.0
142
0.0
142
1.0
142
0.0
142
0.0
142
0.0
142
0.0
142
1.0
179
     0
144
0.0008202099737533
144
0.0
144
0.0
144
0.0
144
0.0
144
0.0008202099737533
144
0.0
144
0.0
144
0.0
144
0.0
144
1.0
144
0.0
144
0.0
144
0.0
144
0.0
144
1.0
147
0.0008202099737533
147
0.0
147
0.0
147
0.0
147
0.0
147
0.0008202099737533
147
0.0
147
0.0
147
0.0
147
0.0
147
1.0
147
0.0
147
0.0
147
0.0
147
0.0
147
1.0
  0
MATERIAL
  5
319F
102
{ACAD_XDICTIONARY
360
31A0
102
}
102
{ACAD_REACTORS
330
CD6
102
}
330
CD6
100
AcDbMaterial
  1
ByLayer
 72
     0
 43
0.0008202099737533
 43
0.0
 43
0.0
 43
0.0
 43
0.0
 43
0.0008202099737533
 43
0.0
 43
0.0
 43
0.0
 43
0.0
 43
1.0
 43
0.0
 43
0.0
 43
0.0
 43
0.0
 43
1.0
 77
     0
 47
0.0008202099737533
 47
0.0
 47
0.0
 47
0.0
 47
0.0
 47
0.0008202099737533
 47
0.0
 47
0.0
 47
0.0
 47
0.0
 47
1.0
 47
0.0
 47
0.0
 47
0.0
 47
0.0
 47
1.0
171
     0
 49
0.0008202099737533
 49
0.0
 49
0.0
 49
0.0
 49
0.0
 49
0.0008202099737533
 49
0.0
 49
0.0
 49
0.0
 49
0.0
 49
1.0
 49
0.0
 49
0.0
 49
0.0
 49
0.0
 49
1.0
175
     0
142
0.0008202099737533
142
0.0
142
0.0
142
0.0
142
0.0
142
0.0008202099737533
142
0.0
142
0.0
142
0.0
142
0.0
142
1.0
142
0.0
142
0.0
142
0.0
142
0.0
142
1.0
179
     0
144
0.0008202099737533
144
0.0
144
0.0
144
0.0
144
0.0
144
0.0008202099737533
144
0.0
144
0.0
144
0.0
144
0.0
144
1.0
144
0.0
144
0.0
144
0.0
144
0.0
144
1.0
147
0.0008202099737533
147
0.0
147
0.0
147
0.0
147
0.0
147
0.0008202099737533
147
0.0
147
0.0
147
0.0
147
0.0
147
1.0
147
0.0
147
0.0
147
0.0
147
0.0
147
1.0
  0
MATERIAL
  5
31AF
102
{ACAD_XDICTIONARY
360
31B0
102
}
102
{ACAD_REACTORS
330
CD6
102
}
330
CD6
100
AcDbMaterial
  1
Global
 72
     0
 43
0.0008202099737533
 43
0.0
 43
0.0
 43
0.0
 43
0.0
 43
0.0008202099737533
 43
0.0
 43
0.0
 43
0.0
 43
0.0
 43
1.0
 43
0.0
 43
0.0
 43
0.0
 43
0.0
 43
1.0
 77
     0
 47
0.0008202099737533
 47
0.0
 47
0.0
 47
0.0
 47
0.0
 47
0.0008202099737533
 47
0.0
 47
0.0
 47
0.0
 47
0.0
 47
1.0
 47
0.0
 47
0.0
 47
0.0
 47
0.0
 47
1.0
171
     0
 49
0.0008202099737533
 49
0.0
 49
0.0
 49
0.0
 49
0.0
 49
0.0008202099737533
 49
0.0
 49
0.0
 49
0.0
 49
0.0
 49
1.0
 49
0.0
 49
0.0
 49
0.0
 49
0.0
 49
1.0
175
     0
142
0.0008202099737533
142
0.0
142
0.0
142
0.0
142
0.0
142
0.0008202099737533
142
0.0
142
0.0
142
0.0
142
0.0
142
1.0
142
0.0
142
0.0
142
0.0
142
0.0
142
1.0
179
     0
144
0.0008202099737533
144
0.0
144
0.0
144
0.0
144
0.0
144
0.0008202099737533
144
0.0
144
0.0
144
0.0
144
0.0
144
1.0
144
0.0
144
0.0
144
0.0
144
0.0
144
1.0
147
0.0008202099737533
147
0.0
147
0.0
147
0.0
147
0.0
147
0.0008202099737533
147
0.0
147
0.0
147
0.0
147
0.0
147
1.0
147
0.0
147
0.0
147
0.0
147
0.0
147
1.0
  0
MLEADERSTYLE
  5
31DB
102
{ACAD_REACTORS
330
31DA
102
}
330
31DA
100
AcDbMLeaderStyle
170
     2
171
     1
172
     0
 90
        2
 40
0.0
 41
0.0
173
     1
 91
-1056964608
340
14
 92
       -2
290
     1
 42
2.0
291
     1
 43
0.36
  3
Standard
 44
4.0
300

342
11
174
     1
178
     6
175
     1
176
     0
 93
-1056964608
 45
4.0
292
     0
297
     0
 46
4.0
 94
-1056964608
 47
1.0
 49
1.0
140
1.0
293
     1
141
0.0
294
     1
177
     0
142
1.0
295
     0
296
     0
143
0.125
1001
ACAD_MLEADERVER
1070
     2
  0
MLINESTYLE
  5
18
102
{ACAD_REACTORS
330
17
102
}
330
17
100
AcDbMlineStyle
  2
STANDARD
 70
     0
  3

 62
   256
 51
90.0
 52
90.0
 71
     2
 49
0.5
 62
   256
  6
BYLAYER
 49
-0.5
 62
   256
  6
BYLAYER
  0
ACDBPLACEHOLDER
  5
F
102
{ACAD_REACTORS
330
E
102
}
330
E
  0
SCALE
  5
31C9
102
{ACAD_REACTORS
330
31C8
102
}
330
31C8
100
AcDbScale
 70
     0
300
1:1
140
1.0
141
1.0
290
     1
  0
SCALE
  5
31CA
102
{ACAD_REACTORS
330
31C8
102
}
330
31C8
100
AcDbScale
 70
     0
300
1:2
140
1.0
141
2.0
290
     0
  0
SCALE
  5
31CB
102
{ACAD_REACTORS
330
31C8
102
}
330
31C8
100
AcDbScale
 70
     0
300
1:4
140
1.0
141
4.0
290
     0
  0
SCALE
  5
31CC
102
{ACAD_REACTORS
330
31C8
102
}
330
31C8
100
AcDbScale
 70
     0
300
1:5
140
1.0
141
5.0
290
     0
  0
SCALE
  5
31CD
102
{ACAD_REACTORS
330
31C8
102
}
330
31C8
100
AcDbScale
 70
     0
300
1:8
140
1.0
141
8.0
290
     0
  0
SCALE
  5
31CE
102
{ACAD_REACTORS
330
31C8
102
}
330
31C8
100
AcDbScale
 70
     0
300
1:10
140
1.0
141
10.0
290
     0
  0
SCALE
  5
31CF
102
{ACAD_REACTORS
330
31C8
102
}
330
31C8
100
AcDbScale
 70
     0
300
1:16
140
1.0
141
16.0
290
     0
  0
SCALE
  5
31D0
102
{ACAD_REACTORS
330
31C8
102
}
330
31C8
100
AcDbScale
 70
     0
300
1:20
140
1.0
141
20.0
290
     0
  0
SCALE
  5
31D1
102
{ACAD_REACTORS
330
31C8
102
}
330
31C8
100
AcDbScale
 70
     0
300
1:30
140
1.0
141
30.0
290
     0
  0
SCALE
  5
31D2
102
{ACAD_REACTORS
330
31C8
102
}
330
31C8
100
AcDbScale
 70
     0
300
1:40
140
1.0
141
40.0
290
     0
  0
SCALE
  5
31D3
102
{ACAD_REACTORS
330
31C8
102
}
330
31C8
100
AcDbScale
 70
     0
300
1:50
140
1.0
141
50.0
290
     0
  0
SCALE
  5
31D4
102
{ACAD_REACTORS
330
31C8
102
}
330
31C8
100
AcDbScale
 70
     0
300
1:100
140
1.0
141
100.0
290
     0
  0
SCALE
  5
31D5
102
{ACAD_REACTORS
330
31C8
102
}
330
31C8
100
AcDbScale
 70
     0
300
2:1
140
2.0
141
1.0
290
     0
  0
SCALE
  5
31D6
102
{ACAD_REACTORS
330
31C8
102
}
330
31C8
100
AcDbScale
 70
     0
300
4:1
140
4.0
141
1.0
290
     0
  0
SCALE
  5
31D7
102
{ACAD_REACTORS
330
31C8
102
}
330
31C8
100
AcDbScale
 70
     0
300
8:1
140
8.0
141
1.0
290
     0
  0
SCALE
  5
31D8
102
{ACAD_REACTORS
330
31C8
102
}
330
31C8
100
AcDbScale
 70
     0
300
10:1
140
10.0
141
1.0
290
     0
  0
SCALE
  5
31D9
102
{ACAD_REACTORS
330
31C8
102
}
330
31C8
100
AcDbScale
 70
     0
300
100:1
140
100.0
141
1.0
290
     0
  0
TABLESTYLE
  5
CD9
102
{ACAD_XDICTIONARY
360
3569
102
}
102
{ACAD_REACTORS
330
CD8
102
}
330
CD8
100
AcDbTableStyle
  3
Standard
 70
     0
 71
     0
 40
1.5
 41
1.5
280
     0
281
     0
  7
STANDARD
140
4.5
170
     2
 62
     0
 63
     7
283
     0
274
    -2
284
     1
 64
     0
275
    -2
285
     1
 65
     0
276
    -2
286
     1
 66
     0
277
    -2
287
     1
 67
     0
278
    -2
288
     1
 68
     0
279
    -2
289
     1
 69
     0
  7
STANDARD
140
6.0
170
     5
 62
     0
 63
     7
283
     0
274
    -2
284
     1
 64
     0
275
    -2
285
     1
 65
     0
276
    -2
286
     1
 66
     0
277
    -2
287
     1
 67
     0
278
    -2
288
     1
 68
     0
279
    -2
289
     1
 69
     0
  7
STANDARD
140
4.5
170
     5
 62
     0
 63
     7
283
     0
274
    -2
284
     1
 64
     0
275
    -2
285
     1
 65
     0
276
    -2
286
     1
 66
     0
277
    -2
287
     1
 67
     0
278
    -2
288
     1
 68
     0
279
    -2
289
     1
 69
     0
  0
VISUALSTYLE
  5
31BD
102
{ACAD_XDICTIONARY
360
4775
102
}
102
{ACAD_REACTORS
330
31B7
102
}
330
31B7
100
AcDbVisualStyle
  2
2dWireframe
 70
     4
 71
     0
 72
     2
 73
     0
 90
        0
 40
-0.6
 41
-30.0
 62
     5
 63
     7
421
 16777215
 74
     1
 91
        4
 64
     7
 65
   257
 75
     1
175
     1
 42
1.0
 92
        0
 66
   257
 43
1.0
 76
     1
 77
     6
 78
     2
 67
     7
 79
     5
170
     0
171
     0
290
     0
174
     0
 93
        1
 44
0.0
173
     0
291
     0
 45
0.0
1001
ACAD
1000
AcDbSavedByObjectVersion
1070
     0
  0
VISUALSTYLE
  5
31BF
102
{ACAD_XDICTIONARY
360
4779
102
}
102
{ACAD_REACTORS
330
31B7
102
}
330
31B7
100
AcDbVisualStyle
  2
3D Hidden
 70
     6
 71
     1
 72
     2
 73
     2
 90
        0
 40
-0.6
 41
-30.0
 62
     5
 63
     7
421
 16777215
 74
     2
 91
        2
 64
     7
 65
   257
 75
     2
175
     1
 42
40.0
 92
        0
 66
   257
 43
1.0
 76
     1
 77
     6
 78
     2
 67
     7
 79
     3
170
     0
171
     0
290
     0
174
     0
 93
        1
 44
0.0
173
     0
291
     0
 45
0.0
1001
ACAD
1000
AcDbSavedByObjectVersion
1070
     0
  0
VISUALSTYLE
  5
31BE
102
{ACAD_XDICTIONARY
360
4777
102
}
102
{ACAD_REACTORS
330
31B7
102
}
330
31B7
100
AcDbVisualStyle
  2
3dWireframe
 70
     5
 71
     0
 72
     2
 73
     0
 90
        0
 40
-0.6
 41
-30.0
 62
     5
 63
     7
421
 16777215
 74
     1
 91
        4
 64
     7
 65
   257
 75
     1
175
     1
 42
1.0
 92
        0
 66
   257
 43
1.0
 76
     1
 77
     6
 78
     2
 67
     7
 79
     5
170
     0
171
     0
290
     0
174
     0
 93
        1
 44
0.0
173
     0
291
     0
 45
0.0
1001
ACAD
1000
AcDbSavedByObjectVersion
1070
     0
  0
VISUALSTYLE
  5
31BC
102
{ACAD_XDICTIONARY
360
4773
102
}
102
{ACAD_REACTORS
330
31B7
102
}
330
31B7
100
AcDbVisualStyle
  2
Basic
 70
     7
 71
     1
 72
     0
 73
     1
 90
        0
 40
-0.6
 41
-30.0
 62
     5
 63
     7
421
 16777215
 74
     0
 91
        4
 64
     7
 65
   257
 75
     1
175
     1
 42
1.0
 92
        8
 66
     7
 43
1.0
 76
     1
 77
     6
 78
     2
 67
     7
 79
     5
170
     0
171
     0
290
     0
174
     0
 93
        1
 44
0.0
173
     0
291
     1
 45
0.0
1001
ACAD
1000
AcDbSavedByObjectVersion
1070
     0
  0
VISUALSTYLE
  5
31C3
102
{ACAD_XDICTIONARY
360
4781
102
}
102
{ACAD_REACTORS
330
31B7
102
}
330
31B7
100
AcDbVisualStyle
  2
Brighten
 70
    12
 71
     2
 72
     2
 73
     0
 90
        0
 40
-0.6
 41
-30.0
 62
     5
 63
     7
421
 16777215
 74
     1
 91
        4
 64
     7
 65
   257
 75
     1
175
     1
 42
1.0
 92
        8
 66
     7
 43
1.0
 76
     1
 77
     6
 78
     2
 67
     7
 79
     5
170
     0
171
     0
290
     0
174
     0
 93
        1
 44
50.0
173
     0
291
     1
 45
0.0
1001
ACAD
1000
AcDbSavedByObjectVersion
1070
     0
  0
VISUALSTYLE
  5
31C7
102
{ACAD_XDICTIONARY
360
4789
102
}
102
{ACAD_REACTORS
330
31B7
102
}
330
31B7
100
AcDbVisualStyle
  2
ColorChange
 70
    16
 71
     2
 72
     2
 73
     3
 90
        0
 40
-0.6
 41
-30.0
 62
     5
 63
     8
421
  8421504
 74
     1
 91
        4
 64
     7
 65
   257
 75
     1
175
     1
 42
1.0
 92
        8
 66
     8
424
  8421504
 43
1.0
 76
     1
 77
     6
 78
     2
 67
     7
 79
     5
170
     0
171
     0
290
     0
174
     0
 93
        1
 44
0.0
173
     0
291
     1
 45
0.0
1001
ACAD
1000
AcDbSavedByObjectVersion
1070
     0
  0
VISUALSTYLE
  5
31C0
102
{ACAD_XDICTIONARY
360
477B
102
}
102
{ACAD_REACTORS
330
31B7
102
}
330
31B7
100
AcDbVisualStyle
  2
Conceptual
 70
     9
 71
     3
 72
     2
 73
     0
 90
        0
 40
-0.6
 41
-30.0
 62
     5
 63
     7
421
 16777215
 74
     2
 91
        2
 64
     7
 65
   257
 75
     1
175
     1
 42
40.0
 92
        8
 66
     7
 43
1.0
 76
     1
 77
     6
 78
     2
 67
     7
 79
     3
170
     0
171
     0
290
     0
174
     0
 93
        1
 44
0.0
173
     0
291
     0
 45
0.0
1001
ACAD
1000
AcDbSavedByObjectVersion
1070
     0
  0
VISUALSTYLE
  5
31C2
102
{ACAD_XDICTIONARY
360
477F
102
}
102
{ACAD_REACTORS
330
31B7
102
}
330
31B7
100
AcDbVisualStyle
  2
Dim
 70
    11
 71
     2
 72
     2
 73
     0
 90
        0
 40
-0.6
 41
-30.0
 62
     5
 63
     7
421
 16777215
 74
     1
 91
        4
 64
     7
 65
   257
 75
     1
175
     1
 42
1.0
 92
        8
 66
     7
 43
1.0
 76
     1
 77
     6
 78
     2
 67
     7
 79
     5
170
     0
171
     0
290
     0
174
     0
 93
        1
 44
-50.0
173
     0
291
     1
 45
0.0
1001
ACAD
1000
AcDbSavedByObjectVersion
1070
     0
  0
VISUALSTYLE
  5
40E1
102
{ACAD_XDICTIONARY
360
478F
102
}
102
{ACAD_REACTORS
330
31B7
102
}
330
31B7
100
AcDbVisualStyle
  2
EdgeColorOff
 70
    22
 71
     2
 72
     2
 73
     0
 90
        0
 40
-0.6
 41
-30.0
 62
     5
 63
     7
421
 16777215
 74
     1
 91
        4
 64
     7
 65
   257
 75
     1
175
     1
 42
1.0
 92
        8
 66
     7
 43
1.0
 76
     1
 77
     6
 78
     2
 67
     7
 79
     5
170
     0
171
     0
290
     0
174
     0
 93
        1
 44
0.0
173
     0
291
     1
 45
0.0
1001
ACAD
1000
AcDbSavedByObjectVersion
1070
     0
  0
VISUALSTYLE
  5
31C6
102
{ACAD_XDICTIONARY
360
4787
102
}
102
{ACAD_REACTORS
330
31B7
102
}
330
31B7
100
AcDbVisualStyle
  2
Facepattern
 70
    15
 71
     2
 72
     2
 73
     0
 90
        0
 40
-0.6
 41
-30.0
 62
     5
 63
     7
421
 16777215
 74
     1
 91
        4
 64
     7
 65
   257
 75
     1
175
     1
 42
1.0
 92
        8
 66
     7
 43
1.0
 76
     1
 77
     6
 78
     2
 67
     7
 79
     5
170
     0
171
     0
290
     0
174
     0
 93
        1
 44
0.0
173
     0
291
     1
 45
0.0
1001
ACAD
1000
AcDbSavedByObjectVersion
1070
     0
  0
VISUALSTYLE
  5
31B8
102
{ACAD_XDICTIONARY
360
476B
102
}
102
{ACAD_REACTORS
330
31B7
102
}
330
31B7
100
AcDbVisualStyle
  2
Flat
 70
     0
 71
     2
 72
     1
 73
     1
 90
        2
 40
-0.6
 41
30.0
 62
     5
 63
     7
421
 16777215
 74
     0
 91
        4
 64
     7
 65
   257
 75
     1
175
     1
 42
1.0
 92
        8
 66
     7
 43
1.0
 76
     1
 77
     6
 78
     2
 67
     7
 79
     5
170
     0
171
     0
290
     0
174
     0
 93
       13
 44
0.0
173
     0
291
     1
 45
0.0
1001
ACAD
1000
AcDbSavedByObjectVersion
1070
     0
  0
VISUALSTYLE
  5
31B9
102
{ACAD_XDICTIONARY
360
476D
102
}
102
{ACAD_REACTORS
330
31B7
102
}
330
31B7
100
AcDbVisualStyle
  2
FlatWithEdges
 70
     1
 71
     2
 72
     1
 73
     1
 90
        2
 40
-0.6
 41
30.0
 62
     5
 63
     7
421
 16777215
 74
     1
 91
        4
 64
     7
 65
   257
 75
     1
175
     1
 42
1.0
 92
        0
 66
   257
 43
1.0
 76
     1
 77
     6
 78
     2
 67
     7
 79
     5
170
     0
171
     0
290
     0
174
     0
 93
       13
 44
0.0
173
     0
291
     1
 45
0.0
1001
ACAD
1000
AcDbSavedByObjectVersion
1070
     0
  0
VISUALSTYLE
  5
31BA
102
{ACAD_XDICTIONARY
360
476F
102
}
102
{ACAD_REACTORS
330
31B7
102
}
330
31B7
100
AcDbVisualStyle
  2
Gouraud
 70
     2
 71
     2
 72
     2
 73
     1
 90
        2
 40
-0.6
 41
30.0
 62
     5
 63
     7
421
 16777215
 74
     0
 91
        4
 64
     7
 65
   257
 75
     1
175
     1
 42
1.0
 92
        0
 66
     7
 43
1.0
 76
     1
 77
     6
 78
     2
 67
     7
 79
     5
170
     0
171
     0
290
     0
174
     0
 93
       13
 44
0.0
173
     0
291
     1
 45
0.0
1001
ACAD
1000
AcDbSavedByObjectVersion
1070
     0
  0
VISUALSTYLE
  5
31BB
102
{ACAD_XDICTIONARY
360
4771
102
}
102
{ACAD_REACTORS
330
31B7
102
}
330
31B7
100
AcDbVisualStyle
  2
GouraudWithEdges
 70
     3
 71
     2
 72
     2
 73
     1
 90
        2
 40
-0.6
 41
30.0
 62
     5
 63
     7
421
 16777215
 74
     1
 91
        4
 64
     7
 65
   257
 75
     1
175
     1
 42
1.0
 92
        0
 66
   257
 43
1.0
 76
     1
 77
     6
 78
     2
 67
     7
 79
     5
170
     0
171
     0
290
     0
174
     0
 93
       13
 44
0.0
173
     0
291
     1
 45
0.0
1001
ACAD
1000
AcDbSavedByObjectVersion
1070
     0
  0
VISUALSTYLE
  5
40DF
102
{ACAD_XDICTIONARY
360
478B
102
}
102
{ACAD_REACTORS
330
31B7
102
}
330
31B7
100
AcDbVisualStyle
  2
JitterOff
 70
    20
 71
     2
 72
     2
 73
     0
 90
        0
 40
-0.6
 41
-30.0
 62
     5
 63
     7
421
 16777215
 74
     1
 91
        4
 64
     7
 65
   257
 75
     1
175
     1
 42
1.0
 92
       10
 66
     7
 43
1.0
 76
     1
 77
     6
 78
     2
 67
     7
 79
     5
170
     0
171
     0
290
     0
174
     0
 93
        1
 44
0.0
173
     0
291
     1
 45
0.0
1001
ACAD
1000
AcDbSavedByObjectVersion
1070
     0
  0
VISUALSTYLE
  5
31C5
102
{ACAD_XDICTIONARY
360
4785
102
}
102
{ACAD_REACTORS
330
31B7
102
}
330
31B7
100
AcDbVisualStyle
  2
Linepattern
 70
    14
 71
     2
 72
     2
 73
     0
 90
        0
 40
-0.6
 41
-30.0
 62
     5
 63
     7
421
 16777215
 74
     1
 91
        4
 64
     7
 65
   257
 75
     7
175
     7
 42
1.0
 92
        8
 66
     7
 43
1.0
 76
     1
 77
     6
 78
     2
 67
     7
 79
     5
170
     0
171
     0
290
     0
174
     0
 93
        1
 44
0.0
173
     0
291
     1
 45
0.0
1001
ACAD
1000
AcDbSavedByObjectVersion
1070
     0
  0
VISUALSTYLE
  5
40E0
102
{ACAD_XDICTIONARY
360
478D
102
}
102
{ACAD_REACTORS
330
31B7
102
}
330
31B7
100
AcDbVisualStyle
  2
OverhangOff
 70
    21
 71
     2
 72
     2
 73
     0
 90
        0
 40
-0.6
 41
-30.0
 62
     5
 63
     7
421
 16777215
 74
     1
 91
        4
 64
     7
 65
   257
 75
     1
175
     1
 42
1.0
 92
        9
 66
     7
 43
1.0
 76
     1
 77
     6
 78
     2
 67
     7
 79
     5
170
     0
171
     0
290
     0
174
     0
 93
        1
 44
0.0
173
     0
291
     1
 45
0.0
1001
ACAD
1000
AcDbSavedByObjectVersion
1070
     0
  0
VISUALSTYLE
  5
31C1
102
{ACAD_XDICTIONARY
360
477D
102
}
102
{ACAD_REACTORS
330
31B7
102
}
330
31B7
100
AcDbVisualStyle
  2
Realistic
 70
     8
 71
     2
 72
     2
 73
     0
 90
        0
 40
-0.6
 41
-30.0
 62
     5
 63
     7
421
 16777215
 74
     1
 91
        0
 64
     7
 65
   257
 75
     1
175
     1
 42
1.0
 92
        8
 66
     8
424
  7895160
 43
1.0
 76
     1
 77
     6
 78
     2
 67
     7
 79
     5
170
     0
171
     0
290
     0
174
     0
 93
       13
 44
0.0
173
     0
291
     0
 45
0.0
1001
ACAD
1000
AcDbSavedByObjectVersion
1070
     0
  0
VISUALSTYLE
  5
31C4
102
{ACAD_XDICTIONARY
360
4783
102
}
102
{ACAD_REACTORS
330
31B7
102
}
330
31B7
100
AcDbVisualStyle
  2
Thicken
 70
    13
 71
     2
 72
     2
 73
     0
 90
        0
 40
-0.6
 41
-30.0
 62
     5
 63
     7
421
 16777215
 74
     1
 91
        4
 64
     7
 65
   257
 75
     1
175
     1
 42
1.0
 92
       12
 66
     7
 43
1.0
 76
     1
 77
     6
 78
     2
 67
     7
 79
     5
170
     0
171
     0
290
     0
174
     0
 93
        1
 44
0.0
173
     0
291
     1
 45
0.0
1001
ACAD
1000
AcDbSavedByObjectVersion
1070
     0
  0
DICTIONARYVAR
  5
356E
102
{ACAD_REACTORS
330
34
102
}
330
34
100
DictionaryVariables
280
     0
  1
1:1
  0
DICTIONARYVAR
  5
356C
102
{ACAD_REACTORS
330
34
102
}
330
34
100
DictionaryVariables
280
     0
  1
STANDARD
  0
DICTIONARYVAR
  5
11F8
102
{ACAD_REACTORS
330
34
102
}
330
34
100
DictionaryVariables
280
     0
  1
STANDARD
  0
DICTIONARYVAR
  5
35
102
{ACAD_REACTORS
330
34
102
}
330
34
100
DictionaryVariables
280
     0
  1
1
  0
DICTIONARYVAR
  5
3570
102
{ACAD_REACTORS
330
34
102
}
330
34
100
DictionaryVariables
280
     0
  1
1
  0
DICTIONARYVAR
  5
3571
102
{ACAD_REACTORS
330
34
102
}
330
34
100
DictionaryVariables
280
     0
  1
15
  0
DICTIONARYVAR
  5
356F
102
{ACAD_REACTORS
330
34
102
}
330
34
100
DictionaryVariables
280
     0
  1
0
  0
DICTIONARYVAR
  5
356D
102
{ACAD_REACTORS
330
34
102
}
330
34
100
DictionaryVariables
280
     0
  1
0
  0
DICTIONARY
  5
4C
102
{ACAD_REACTORS
330
47
102
}
330
47
100
AcDbDictionary
281
     1
  0
XRECORD
  5
CE1
102
{ACAD_REACTORS
330
47
102
}
330
47
100
AcDbXrecord
280
     1
 90
-1023410169
  0
DICTIONARY
  5
4112
330
22
100
AcDbDictionary
280
     1
281
     1
  3
ADSK_XREC_LAYOUTTHUMBNAIL
360
4113
  0
DICTIONARY
  5
31A8
330
31A7
100
AcDbDictionary
280
     1
281
     1
  3
ACAD_XREC_ROUNDTRIP
360
4769
  3
BUMPTILE
360
31AA
  3
DIFFUSETILE
360
31A9
  3
OPACITYTILE
360
31AD
  3
REFLECTIONTILE
360
31AC
  3
REFRACTIONTILE
360
31AE
  3
SPECULARTILE
360
31AB
  0
DICTIONARY
  5
31A0
330
319F
100
AcDbDictionary
280
     1
281
     1
  3
ACAD_XREC_ROUNDTRIP
360
4768
  3
BUMPTILE
360
31A2
  3
DIFFUSETILE
360
31A1
  3
OPACITYTILE
360
31A5
  3
REFLECTIONTILE
360
31A4
  3
REFRACTIONTILE
360
31A6
  3
SPECULARTILE
360
31A3
  0
DICTIONARY
  5
31B0
330
31AF
100
AcDbDictionary
280
     1
281
     1
  3
ACAD_XREC_ROUNDTRIP
360
476A
  3
BUMPTILE
360
31B2
  3
DIFFUSETILE
360
31B1
  3
OPACITYTILE
360
31B5
  3
REFLECTIONTILE
360
31B4
  3
REFRACTIONTILE
360
31B6
  3
SPECULARTILE
360
31B3
  0
DICTIONARY
  5
3569
330
CD9
100
AcDbDictionary
280
     1
281
     1
  3
ACAD_ROUNDTRIP_2008_TABLESTYLE_CELLSTYLEMAP
360
4763
  3
ACAD_XREC_ROUNDTRIP
360
4767
  0
DICTIONARY
  5
4775
330
31BD
100
AcDbDictionary
280
     1
281
     1
  3
ACAD_XREC_ROUNDTRIP
360
4776
  0
DICTIONARY
  5
4779
330
31BF
100
AcDbDictionary
280
     1
281
     1
  3
ACAD_XREC_ROUNDTRIP
360
477A
  0
DICTIONARY
  5
4777
330
31BE
100
AcDbDictionary
280
     1
281
     1
  3
ACAD_XREC_ROUNDTRIP
360
4778
  0
DICTIONARY
  5
4773
330
31BC
100
AcDbDictionary
280
     1
281
     1
  3
ACAD_XREC_ROUNDTRIP
360
4774
  0
DICTIONARY
  5
4781
330
31C3
100
AcDbDictionary
280
     1
281
     1
  3
ACAD_XREC_ROUNDTRIP
360
4782
  0
DICTIONARY
  5
4789
330
31C7
100
AcDbDictionary
280
     1
281
     1
  3
ACAD_XREC_ROUNDTRIP
360
478A
  0
DICTIONARY
  5
477B
330
31C0
100
AcDbDictionary
280
     1
281
     1
  3
ACAD_XREC_ROUNDTRIP
360
477C
  0
DICTIONARY
  5
477F
330
31C2
100
AcDbDictionary
280
     1
281
     1
  3
ACAD_XREC_ROUNDTRIP
360
4780
  0
DICTIONARY
  5
478F
330
40E1
100
AcDbDictionary
280
     1
281
     1
  3
ACAD_XREC_ROUNDTRIP
360
4790
  0
DICTIONARY
  5
4787
330
31C6
100
AcDbDictionary
280
     1
281
     1
  3
ACAD_XREC_ROUNDTRIP
360
4788
  0
DICTIONARY
  5
476B
330
31B8
100
AcDbDictionary
280
     1
281
     1
  3
ACAD_XREC_ROUNDTRIP
360
476C
  0
DICTIONARY
  5
476D
330
31B9
100
AcDbDictionary
280
     1
281
     1
  3
ACAD_XREC_ROUNDTRIP
360
476E
  0
DICTIONARY
  5
476F
330
31BA
100
AcDbDictionary
280
     1
281
     1
  3
ACAD_XREC_ROUNDTRIP
360
4770
  0
DICTIONARY
  5
4771
330
31BB
100
AcDbDictionary
280
     1
281
     1
  3
ACAD_XREC_ROUNDTRIP
360
4772
  0
DICTIONARY
  5
478B
330
40DF
100
AcDbDictionary
280
     1
281
     1
  3
ACAD_XREC_ROUNDTRIP
360
478C
  0
DICTIONARY
  5
4785
330
31C5
100
AcDbDictionary
280
     1
281
     1
  3
ACAD_XREC_ROUNDTRIP
360
4786
  0
DICTIONARY
  5
478D
330
40E0
100
AcDbDictionary
280
     1
281
     1
  3
ACAD_XREC_ROUNDTRIP
360
478E
  0
DICTIONARY
  5
477D
330
31C1
100
AcDbDictionary
280
     1
281
     1
  3
ACAD_XREC_ROUNDTRIP
360
477E
  0
DICTIONARY
  5
4783
330
31C4
100
AcDbDictionary
280
     1
281
     1
  3
ACAD_XREC_ROUNDTRIP
360
4784
  0
XRECORD
  5
4113
102
{ACAD_REACTORS
330
4112
102
}
330
4112
100
AcDbXrecord
280
     1
310
280000000001000086000000010008000000000000860000000000000000000000010000000000000000000000000000FFFFFF000000000000000000000000000000000000000000000000000000000000000000330000006600000099000000CC000000FF00000000330000333300006633000099330000CC330000FF3300
310
0000660000336600006666000099660000CC660000FF66000000990000339900006699000099990000CC990000FF99000000CC000033CC000066CC000099CC0000CCCC0000FFCC000000FF000033FF000066FF000099FF0000CCFF0000FFFF000000003300330033006600330099003300CC003300FF003300003333003333
310
33006633330099333300CC333300FF33330000663300336633006666330099663300CC663300FF66330000993300339933006699330099993300CC993300FF99330000CC330033CC330066CC330099CC3300CCCC3300FFCC330000FF330033FF330066FF330099FF3300CCFF3300FFFF330000006600330066006600660099
310
006600CC006600FF00660000336600333366006633660099336600CC336600FF33660000666600336666006666660099666600CC666600FF66660000996600339966006699660099996600CC996600FF99660000CC660033CC660066CC660099CC6600CCCC6600FFCC660000FF660033FF660066FF660099FF6600CCFF6600
310
FFFF660000009900330099006600990099009900CC009900FF00990000339900333399006633990099339900CC339900FF33990000669900336699006666990099669900CC669900FF66990000999900339999006699990099999900CC999900FF99990000CC990033CC990066CC990099CC9900CCCC9900FFCC990000FF99
310
0033FF990066FF990099FF9900CCFF9900FFFF99000000CC003300CC006600CC009900CC00CC00CC00FF00CC000033CC003333CC006633CC009933CC00CC33CC00FF33CC000066CC003366CC006666CC009966CC00CC66CC00FF66CC000099CC003399CC006699CC009999CC00CC99CC00FF99CC0000CCCC0033CCCC0066CC
310
CC0099CCCC00CCCCCC00FFCCCC0000FFCC0033FFCC0066FFCC0099FFCC00CCFFCC00FFFFCC000000FF003300FF006600FF009900FF00CC00FF00FF00FF000033FF003333FF006633FF009933FF00CC33FF00FF33FF000066FF003366FF006666FF009966FF00CC66FF00FF66FF000099FF003399FF006699FF009999FF00CC
310
99FF00FF99FF0000CCFF0033CCFF0066CCFF0099CCFF00CCCCFF00FFCCFF0000FFFF0033FFFF0066FFFF0099FFFF00CCFFFF00FFFFFF00000000000D0D0D001A1A1A00282828003535350043434300505050005D5D5D006B6B6B00787878008686860093939300A1A1A100AEAEAE00BBBBBB00C9C9C900D6D6D600E4E4E400
310
F1F1F100FFFFFF0000000000000000000000000000000000000000000000000000000000000000000000000000000000E2E2E2E2E2E2E2E2E2E2E2E2E2E2E2E2E2E2E2E2E2E2E2E2E2E2E2E2E2E2E2E2E2E2E2E2E2E2E2E2E2E2E2E2E2E2E2E2E2E2E2E2E2E2E2E2E2E2E2E2E2E2E2E2E2E2E2E2E2E2E2E2E2E2E2E2E2E2E2
310
E2E2E2E2E2E2E2E2E2E2E2E2E2E2E2E2E2E2E2E2E2E2E22DE2E2E2E2E2E2E2E2E2E2E2E2E2E2E2E2E2E2E2E2E2E2E2E2E2E2E2E2E2E2E2E2E2E2E2E2E2E2E2E2E2E2E2E2E2E2E2E2E2E2E2E2E2E2E2E2E2E2E2E2E2E2E2E2E2E2E2E2E2E2E2E2E2E2E2E2E2E2E2E2E2E2E2E2E2E2E2E2E2E2E2E2E2E2E2E2E2E2E2E2E2E2E2
310
E2E2E2E2E2E2E2E2E2E2E2E2E2E2E2E2E2E2E2E2E2E2E2E2E2E2E2E2E2E2E2E2E2E2E2E2E2E2E2E2E2E2E2E2E2E2E2E2E2E2E2E2E2E2E2E2E2E2E2E2E2E2E2E2E2E2E2E2E2E2E2E2E2E2E2E2E2E2E2E2E2E2E2E2E2E2E2E2E2E2E2E2E2E2E2E2E2E2E2E2E2E2E2E2E2E2E2E2E2E2E2E2E2E2E2E2E2E2E2E2E2E2E2E2E2E2E2
310
E2E2E2E22828282828282828282828282828282828F5F5F5F52DF5F5F5F5E2E2E2E2E2E2E2E2E2E2E2E2E2E2E2E2E2E2E2E2E2E2E2E2E2E2E2E2E2E2E2E2E2E2E2E2E2E2E2E2E2E2E2E2E2E2E2E2E2E2E2E2E2E2E2E2E2E2E2E2E2E2E2E2E2E2E2E2E2E2E2E2E2E2E2E2E2E2E2E2E2E2E2E2E2E2E2E2E2E2E2E2E2E2E2E2E2
310
E2E2E2E2E2E2E2E2E2E2E2E2E2E2E2E2E2E2E2E2E2E2E2E2E2E2E2E2E2E2E2E2E2E2E2E2E2E2E2E2E2E2E2E2E2E2E2E2E2E2E2E2E2E2E2E2E2E2E2E2E2E2E2E2E2E2E2E2E2E2E2E2E2E2E2E2E2E2E2E2E2E2E2E2E2E2E2E2E2E2E2E2E2E2E2E2E2E2E2E2E2E2E2E2E2E2E2E2E2E2E2E2E2E2E2E2E2E2E2E2E2E2E2E2E2E2E2
310
E2E2E2E2E2E228E2E2E2E2E2E2E2E2E2E2E2E2E228F5F5F5F5F5F52DF5F5F5F5F5F528E2E2E2E2E2E2E2E2E2E2E2E2E2E2E2E2E2E2E2E2E2E2E2E2E2E2E2E2E2E2E2E2E2E2E2E2E2E2E2E2E2E2E2E2E2E2E2E2E2E2E2E2E2E2E2E2E2E2E2E2E2E2E2E2E2E2E2E2E2E2E2E2E2E2E2E2E2E2E2E2E2E2E2E2E2E2E2E2E2E2E2E2
310
E2E2E2E2E2E2E2E2E2E2E2E2E2E2E2E2E2E2E2E2E2E2E2E2E2E2E2E2E2E2E2E2E2E2E2E2E2E2E2E2E2E2E2E2E2E2E2E2E2E2E2E2E2E2E2E2E2E2E2E2E2E2E2E2E2E2E2E2E2E2E2E2E2E2E2E2E2E2E2E2E2E2E2E2E2E2E2E2E2E2E2E2E2E2E2E2E2E2E2E2E2E2E2E2E2E2E2E2E2E2E2E2E2E2E2E2E2E2E2E2E2E2E2E2E2E2E2
310
E2E2E2E2E2E2E2E228E2E2E2E2E2E2E2E2E2E2E2F5F5F528E2E2E2E2E22DE2E2E2E2E2F5F5F5F5E2E2E2E2E2E2E2E2E2E2E2E2E2E2E2E2E2E2E2E2E2E2E2E2E2E2E2E2E2E2E2E2E2E2E2E2E2E2E2E2E2E2E2E2E2E2E2E2E2E2E2E2E2E2E2E2E2E2E2E2E2E2E2E2E2E2E2E2E2E2E2E2E2E2E2E2E2E2E2E2E2E2E2E2E2E2E2E2
310
E2E2E2E2E2E2E2E2E2E2E2E2E2E2E2E2E2E2E2E2E2E2E2E2E2E2E2E2E2E2E2E2E2E2E2E2E2E2E2E2E2E2E2E2E2E2E2E2E2E2E2E2E2E2E2E2E2E2E2E2E2E2E2E2E2E2E2E2E2E2E2E2E2E2E2E2E2E2E2E2E2E2E2E2E2E2E2E2E2E2E2E2E2E2E2E2E2E2E2E2E2E2E2E2E2E2E2E2E2E2E2E2E2E2E2E2E2E2E2E2E2E2E2E2E2E2E2
310
E2E2E2E2E2E2E2E2E2E228E2E2E2E2E2E2E2E2E2E2F5F5F5E2E2E2E2E2E2E22DE2E2E2E2E2E2E2F5F5F5F5E2E2E2E2E2E2E2E2E2E2E2E2E2E2E2E2E2E2E2E2E2E2E2E2E2E2E2E2E2E2E2E2E2E2E2E2E2E2E2E2E2E2E2E2E2E2E2E2E2E2E2E2E2E2E2E2E2E2E2E2E2E2E2E2E2E2E2E2E2E2E2E2E2E2E2E2E2E2E2E2E2E2E2E2
310
E2E2E2E2E2E2E2E2E2E2E2E2E2E2E2E2E2E2E2E2E2E2E2E2E2E2E2E2E2E2E2E2E2E2E2E2E2E2E2E2E2E2E2E2E2E2E2E2E2E2E2E2E2E2E2E2E2E2E2E2E2E2E2E2E2E2E2E2E2E2E2E2E2E2E2E2E2E2E2E2E2E2E2E2E2E2E2E2E2E2E2E2E2E2E2E2E2E2E2E2E2E2E2E2E2E2E2E2E2E2E2E2E2E2E2E2E2E2E2E2E2E2E2E2E2E2E2
310
E2E2E2E2E2E2E2E2E2E2E2E228E2E2E2E2E2E2E2E2F5F5F5E2E2E2E2E2E2E2E2E22DE2E2E2E2E2E2E2E2E228F5F5E2E2E2E2E2E2E2E2E2E2E2E2E2E2E2E2E2E2E2E2E2E2E2E2E2E2E2E2E2E2E2E2E2E2E2E2E2E2E2E2E2E2E2E2E2E2E2E2E2E2E2E2E2E2E2E2E2E2E2E2E2E2E2E2E2E2E2E2E2E2E2E2E2E2E2E2E2E2E2E2E2
310
E2E2E2E2E2E2E2E2E2E2E2E2E2E2E2E2E2E2E2E2E2E2E2E2E2E2E2E2E2E2E2E2E2E2E2E2E2E2E2E2E2E2E2E2E2E2E2E2E2E2E2E2E2E2E2E2E2E2E2E2E2E2E2E2E2E2E2E2E2E2E2E2E2E2E2E2E2E2E2E2E2E2E2E2E2E2E2E2E2E2E2E2E2E2E2E2E2E2E2E2E2E2E2E2E2E2E2E2E2E2E2E2E2E2E2E2E2E2E2E2E2E2E2E2E2E2E2
310
E2E2E2E2E2E2E2E2E2E2E2E2E2E228E2E2E2E2E2E2E2E2F5E2E2E2E2E2E2E2E2E2E2E22DE2E2E2E2E2E2E2E2E2E228F5F5E2E2E2E2E2E2E2E2E2E2E2E2E2E2E2E2E2E2E2E2E2E2E2E2E2E2E2E2E2E2E2E2E2E2E2E2E2E2E2E2E2E2E2E2E2E2E2E2E2E2E2E2E2E2E2E2E2E2E2E2E2E2E2E2E2E2E2E2E2E2E2E2E2E2E2E2E2E2
310
E2E2E2E2E2E2E2E2E2E2E2E2E2E2E2E2E2E2E2E2E2E2E2E2E2E2E2E2E2E2E2E2E2E2E2E2E2E2E2E2E2E2E2E2E2E2E2E2E2E2E2E2E2E2E2E2E2E2E2E2E2E2E2E2E2E2E2E2E2E2E2E2E2E2E2E2E2E2E2E2E2E2E2E2E2E2E2E2E2E2E2E2E2E2E2E2E2E2E2E2E2E2E2E2E2E2E2E2E2E2E2E2E2E2E2E2E2E2E2E2E2E2E2E2E2E2E2
310
E2E2E2E2E2E2E2E2E2E2E2E2E2E2E2E228E2E2E2E2E2E2E2E2F5E2E2E2E2E2E2E2E2E2E2E22DE2E2E2E2E2E2E2E2E2E2E2E2F5F5E2E2E2E2E2E2E2E2E2E2E2E2E2E2E2E2E2E2E2E2E2E2E2E2E2E2E2E2E2E2E2E2E2E2E2E2E2E2E2E2E2E2E2E2E2E2E2E2E2E2E2E2E2E2E2E2E2E2E2E2E2E2E2E2E2E2E2E2E2E2E2E2E2E2E2
310
E2E2E2E2E2E2E2E2E2E2E2E2E2E2E2E2E2E2E2E2E2E2E2E2E2E2E2E2E2E2E2E2E2E2E2E2E2E2E2E2E2E2E2E2E2E2E2E2E2E2E2E2E2E2E2E2E2E2E2E2E2E2E2E2E2E2E2E2E2E2E2E2E2E2E2E2E2E2E2E2E2E2E2E2E2E2E2E2E2E2E2E2E2E2E2E2E2E2E2E2E2E2E2E2E2E2E2E2E2E2E2E2E2E2E2E2E2E2E2E2E2E2E2E2E2E2E2
310
E2E2E2E2E2E2E2E2E2E2E2E2E2E2E2E2E2E228E2E2E2E2E2E2E2E2F5E2E2E2E2E2E2E2E2E2E2E22DE2E2E2E2E2E2E2E2E2E2E2E2E2F528E2E2E2E2E2E2E2E2E2E2E2E2E2E2E2E2E2E2E2E2E2E2E2E2E2E2E2E2E2E2E2E2E2E2E2E2E2E2E2E2E2E2E2E2E2E2E2E2E2E2E2E2E2E2E2E2E2E2E2E2E2E2E2E2E2E2E2E2E2E2E2E2
310
E2E2E2E2E2E2E2E2E2E2E2E2E2E2E2E2E2E2E2E2E2E2E2E2E2E2E2E2E2E2E2E2E2E2E2E2E2E2E2E2E2E2E2E2E2E2E2E2E2E2E2E2E2E2E2E2E2E2E2E2E2E2E2E2E2E2E2E2E2E2E2E2E2E2E2E2E2E2E2E2E2E2E2E2E2E2E2E2E2E2E2E2E2E2E2E2E2E2E2E2E2E2E2E2E2E2E2E2E2E2E2E2E2E2E2E2E2E2E2E2E2E2E2E2E2E2E2
310
E2E2E2E2E2E2E2E2E2E2E2E2E2E2E2E2E2E2E2E228E2E2E2E2E2E2E2E2F5E2E2E2E2E2E2E2E2E2E2E22DE2E2E2E2E2E2E2E2E2E2E2E2E228F528E2E2E2E2E2E2E2E2E2E2E2E2E2E2E2E2E2E2E2E2E2E2E2E2E2E2E2E2E2E2E2E2E2E2E2E2E2E2E2E2E2E2E2E2E2E2E2E2E2E2E2E2E2E2E2E2E2E2E2E2E2E2E2E2E2E2E2E2E2
310
E2E2E2E2E2E2E2E2E2E2E2E2E2E2E2E2E2E2E2E2E2E2E2E2E2E2E2E2E2E2E2E2E2E2E2E2E2E2E2E2E2E2E2E2E2E2E2E2E2E2E2E2E2E2E2E2E2E2E2E2E2E2E2E2E2E2E2E2E2E2E2E2E2E2E2E2E2E2E2E2E2E2E2E2E2E2E2E2E2E2E2E2E2E2E2E2E2E2E2E2E2E2E2E2E2E2E2E2E2E2E2E2E2E2E2E2E2E2E2E2E2E2E2E2E2E2E2
310
E2E2E2E2E2E2E2E2E2E2E2E2E2E2E2E2E2E2E2E2E2E228E2E2E2E2E2E2E2E2F5F5F5F5F5F5E2E2E2E2E2E22DE2E2E2E2E2E2E2E2E2E2E2E2E2E228F5E2E2E2E2E2E2E2E2E2E2E2E2E2E2E2E2E2E2E2E2E2E2E2E2E2E2E2E2E2E2E2E2E2E2E2E2E2E2E2E2E2E2E2E2E2E2E2E2E2E2E2E2E2E2E2E2E2E2E2E2E2E2E2E2E2E2E2
310
E2E2E2E2E2E2E2E2E2E2E2E2E2E2E2E2E2E2E2E2E2E2E2E2E2E2E2E2E2E2E2E2E2E2E2E2E2E2E2E2E2E2E2E2E2E2E2E2E2E2E2E2E2E2E2E2E2E2E2E2E2E2E2E2E2E2E2E2E2E2E2E2E2E2E2E2E2E2E2E2E2E2E2E2E2E2E2E2E2E2E2E2E2E2E2E2E2E2E2E2E2E2E2E2E2E2E2E2E2E2E2E2E2E2E2E2E2E2E2E2E2E2E2E2E2E2E2
310
E2E2E2E2E2E2E2E2E2E2E2E2E2E2E2E2E2E2E2E2E2E2E2E228E2E2E2E2E2E2E2E2F5F5F5F5F5F5F5F5F5F5F5F52DE2E2E2E2E2E2E2E2E2E2E2E2E2E2E2F5F5E2E2E2E2E2E2E2E2E2E2E2E2E2E2E2E2E2E2E2E2E2E2E2E2E2E2E2E2E2E2E2E2E2E2E2E2E2E2E2E2E2E2E2E2E2E2E2E2E2E2E2E2E2E2E2E2E2E2E2E2E2E2E2E2
310
E2E2E2E2E2E2E2E2E2E2E2E2E2E2E2E2E2E2E2E2E2E2E2E2E2E2E2E2E2E2E2E2E2E2E2E2E2E2E2E2E2E2E2E2E2E2E2E2E2E2E2E2E2E2E2E2E2E2E2E2E2E2E2E2E2E2E2E2E2E2E2E2E2E2E2E2E2E2E2E2E2E2E2E2E2E2E2E2E2E2E2E2E2E2E2E2E2E2E2E2E2E2E2E2E2E2E2E2E2E2E2E2E2E2E2E2E2E2E2E2E2E2E2E2E2E2E2
310
E2E2E2E2E2E2E2E2E2E2E2E2E2E2E2E2E2E2E2E2E2E2E2E2E2E228E2E2E2E2E2E2E2E2F528E2E228E2E228E2E2F5F52DF5E2E2E2E2E2E2E2E2E2E2E2E2E2E228F5E2E2E2E2E2E2E2E2E2E2E2E2E2E2E2E2E2E2E2E2E2E2E2E2E2E2E2E2E2E2E2E2E2E2E2E2E2E2E2E2E2E2E2E2E2E2E2E2E2E2E2E2E2E2E2E2E2E2E2E2E2E2
310
E2E2E2E2E2E2E2E2E2E2E2E2E2E2E2E2E2E2E2E2E2E2E2E2E2E2E2E2E2E2E2E2E2E2E2E2E2E2E2E2E2E2E2E2E2E2E2E2E2E2E2E2E2E2E2E2E2E2E2E2E2E2E2E2E2E2E2E2E2E2E2E2E2E2E2E2E2E2E2E2E2E2E2E2E2E2E2E2E2E2E2E2E2E2E2E2E2E2E2E2E2E2E2E2E2E2E2E2E2E2E2E2E2E2E2E2E2E2E2E2E2E2E2E2E2E2E2
310
E2E2E2E2E2E2E2E2E2E2E2E2E2E2E2E2E2E2E2E2E2E2E2E2E2E2E2E228E2E2E2E2E2E2E2E2F528E2E228E2E228E2E2F5F52DE2F5F5E2E2E2E2E2E2E2E2E2E2E2E2E2F5F5E2E2E2E2E2E2E2E2E2E2E2E2E2E2E2E2E2E2E2E2E2E2E2E2E2E2E2E2E2E2E2E2E2E2E2E2E2E2E2E2E2E2E2E2E2E2E2E2E2E2E2E2E2E2E2E2E2E2E2
310
E2E2E2E2E2E2E2E2E2E2E2E2E2E2E2E2E2E2E2E2E2E2E2E2E2E2E2E2E2E2E2E2E2E2E2E2E2E2E2E2E2E2E2E2E2E2E2E2E2E2E2E2E2E2E2E2E2E2E2E2E2E2E2E2E2E2E2E2E2E2E2E2E2E2E2E2E2E2E2E2E2E2E2E2E2E2E2E2E2E2E2E2E2E2E2E2E2E2E2E2E2E2E2E2E2E2E2E2E2E2E2E2E2E2E2E2E2E2E2E2E2E2E2E2E2E2E2
310
E2E2E2E2E2E2E2E2E2E2E2E2E2E2E2E2E2E2E2E2E2E2E2E2E2E2E2E2E2E228E2E2E2E2E2E2E2E2F528E2E228E2E228E2E2F5F52DE2E2E2F5E2E2E2E2E2E2E2E2E2E2E2E2F5F5E2E2E2E2E2E2E2E2E2E2E2E2E2E2E2E2E2E2E2E2E2E2E2E2E2E2E2E2E2E2E2E2E2E2E2E2E2E2E2E2E2E2E2E2E2E2E2E2E2E2E2E2E2E2E2E2E2
310
E2E2E2E2E2E2E2E2E2E2E2E2E2E2E2E2E2E2E2E2E2E2E2E2E2E2E2E2E2E2E2E2E2E2E2E2E2E2E2E2E2E2E2E2E2E2E2E2E2E2E2E2E2E2E2E2E2E2E2E2E2E2E2E2E2E2E2E2E2E2E2E2E2E2E2E2E2E2E2E2E2E2E2E2E2E2E2E2E2E2E2E2E2E2E2E2E2E2E2E2E2E2E2E2E2E2E2E2E2E2E2E2E2E2E2E2E2E2E2E2E2E2E2E2E2E2E2
310
E2E2E2E2E2E2E2E2E2E2E2E2E2E2E2E2E2E2E2E2E2E2E2E2E2E2E2E2E2E2E2E228E2E2E2E2E2E2E2E2F528E2E228E2E228E2E2F5F52DE2E2E2F5F5E2E2E2E2E2E2E2E2E2E2E2E2F5E2E2E2E2E2E2E2E2E2E2E2E2E2E2E2E2E2E2E2E2E2E2E2E2E2E2E2E2E2E2E2E2E2E2E2E2E2E2E2E2E2E2E2E2E2E2E2E2E2E2E2E2E2E2E2
310
E2E2E2E2E2E2E2E2E2E2E2E2E2E2E2E2E2E2E2E2E2E2E2E2E2E2E2E2E2E2E2E2E2E2E2E2E2E2E2E2E2E2E2E2E2E2E2E2E2E2E2E2E2E2E2E2E2E2E2E2E2E2E2E2E2E2E2E2E2E2E2E2E2E2E2E2E2E2E2E2E2E2E2E2E2E2E2E2E2E2E2E2E2E2E2E2E2E2E2E2E2E2E2E2E2E2E2E2E2E2E2E2E2E2E2E2E2E2E2E2E2E2E2E2E2E2E2
310
E2E2E2E2E2E2E2E2E2E2E2E2E2E2E2E2E2E2E2E2E2E2E2E2E2E2E2E2E2E2E2E2E2E228E2E2E2E2E2E2E2E2F528E2E228E2E228E2E2F5F52DE2E2E2E2F5E2E2E2E2E2E2E2E2E2E2E2E2F528E2E2E2E2E2E2E2E2E2E2E2E2E2E2E2E2E2E2E2E2E2E2E2E2E2E2E2E2E2E2E2E2E2E2E2E2E2E2E2E2E2E2E2E2E2E2E2E2E2E2E2E2
310
E2E2E2E2E2E2E2E2E2E2E2E2E2E2E2E2E2E2E2E2E2E2E2E2E2E2E2E2E2E2E2E2E2E2E2E2E2E2E2E2E2E2E2E2E2E2E2E2E2E2E2E2E2E2E2E2E2E2E2E2E2E2E2E2E2E2E2E2E2E2E2E2E2E2E2E2E2E2E2E2E2E2E2E2E2E2E2E2E2E2E2E2E2E2E2E2E2E2E2E2E2E2E2E2E2E2E2E2E2E2E2E2E2E2E2E2E2E2E2E2E2E2E2E2E2E2E2
310
E2E2E2E2E2E2E2E2E2E2E2E2E2E2E2E2E2E2E2E2E2E2E2E2E2E2E2E2E2E2E2E2E2E2E2E228E2E2E2E2E2E2E2E2F528E2E228E2E228E2E2F5F52DE2E2E2E2E2F5E2E2E2E2E2E2E2E2E2E2F5F5F5F5F5F5F5F5F5E2E2E2E2E2E2E2E2E2E2E2E2E2E2E2E2E2E2E2E2E2E2E2E2E2E2E2E2E2E2E2E2E2E2E2E2E2E2E2E2E2E2E2E2
310
E2E2E2E2E2E2E2E2E2E2E2E2E2E2E2E2E2E2E2E2E2E2E2E2E2E2E2E2E2E2E2E2E2E2E2E2E2E2E2E2E2E2E2E2E2E2E2E2E2E2E2E2E2E2E2E2E2E2E2E2E2E2E2E2E2E2E2E2E2E2E2E2E2E2E2E2E2E2E2E2E2E2E2E2E2E2E2E2E2E2E2E2E2E2E2E2E2E2E2E2E2E2E2E2E2E2E2E2E2E2E2E2E2E2E2E2E2E2E2E2E2E2E2E2E2E2E2
310
E2E2E2E2E2E2E2E2E2E2E2E2E2E2E2E2E2E2E2E2E2E2E2E2E2E2E2E2E2E2E2E2E2E2E2E2DCE228E2E2E2E2E2E2E2E2F528E2E228E2E228E2E2F5F52DE2E2E2E2E2F5E2E2E2E2E2E2E2E2E2E2F5F5F5E2E2E2F5F5F5E2E2E2E2E2E2E2E2E2E2E2E2E2E2E2E2E2E2E2E2E2E2E2E2E2E2E2E2E2E2E2E2E2E2E2E2E2E2E2E2E2E2
310
E2E2E2E2E2E2E2E2E2E2E2E2E2E2E2E2E2E2E2E2E2E2E2E2E2E2E2E2E2E2E2E2E2E2E2E2E2E2E2E2E2E2E2E2E2E2E2E2E2E2E2E2E2E2E2E2E2E2E2E2E2E2E2E2E2E2E2E2E2E2E2E2E2E2E2E2E2E2E2E2E2E2E2E2E2E2E2E2E2E2E2E2E2E2E2E2E2E2E2E2E2E2E2E2E2E2E2E2E2E2E2E2E2E2E2E2E2E2E2E2E2E2E2E2E2E2E2
310
E2E2E2E2E2E2E2E2E2E2E2E2E2E2E2E2E2E2E2E2E2E2E2E2E2E2E2E2E2E2E2E2E2E2E2E2E2E2DCDC28E2E2E2E2E2E2E2E2F528E2E228E2E228E2E2F5F52DE2E2E2E2E2F5E2E2E2E2E2E2E2E2E2E2F5F5F5E2E2E2F52DF5F5E2E2E2E2E2E2E2E2E2E2E2E2E2E2E2E2E2E2E2E2E2E2E2E2E2E2E2E2E2E2E2E2E2E2E2E2E2E2E2
310
E2E2E2E2E2E2E2E2E2E2E2E2E2E2E2E2E2E2E2E2E2E2E2E2E2E2E2E2E2E2E2E2E2E2E2E2E2E2E2E2E2E2E2E2E2E2E2E2E2E2E2E2E2E2E2E2E2E2E2E2E2E2E2E2E2E2E2E2E2E2E2E2E2E2E2E2E2E2E2E2E2E2E2E2E2E2E2E2E2E2E2E2E2E2E2E2E2E2E2E2E2E2E2E2E2E2E2E2E2E2E2E2E2E2E2E2E2E2E2E2E2E2E2E2E2E2E2
310
E2E2E2E2E2E2E2E2E2E2E2E2E2E2E2E2E2E2E2E2E2E2E2E2E2E2E2E2E2E2E2E2E2E2E2E2E2E2E2E2DCDC28E2E2E2E2E2E2E228F5282D2D282D2D282D2DF5F52D2D2D2D2D2DF52D2D2D2D2D2D2D2D2D282828F52D2D2D2D2D2D2D2DE2E2E2E2E2E2E2E2E2E2E2E2E2E2E2E2E2E2E2E2E2E2E2E2E2E2E2E2E2E2E2E2E2E2E2E2
310
E2E2E2E2E2E2E2E2E2E2E2E2E2E2E2E2E2E2E2E2E2E2E2E2E2E2E2E2E2E2E2E2E2E2E2E2E2E2E2E2E2E2E2E2E2E2E2E2E2E2E2E2E2E2E2E2E2E2E2E2E2E2E2E2E2E2E2E2E2E2E2E2E2E2E2E2E2E2E2E2E2E2E2E2E2E2E2E2E2E2E2E2E2E2E2E2E2E2E2E2E2E2E2E2E2E2E2E2E2E2E2E2E2E2E2E2E2E2E2E2E2E2E2E2E2E2E2
310
E2E2E2E2E2E2E2E2E2E2E2E2E2E2E2E2E2E2E2E2E2E2E2E2E2E2E2E2E2E2E2E2E2E2E2E2E2E2E2E2E2E2DCDC28E2E2E2E2E2E2E2E2F528E2E228E2E228E2E2F5F52DE2E2E2E2E2F5E2E2E2E2E2E2E2E2E2E2F5F5F5E2E2E2F52DF5F5E2E2E2E2E2E2E2E2E2E2E2E2E2E2E2E2E2E2E2E2E2E2E2E2E2E2E2E2E2E2E2E2E2E2E2
310
E2E2E2E2E2E2E2E2E2E2E2E2E2E2E2E2E2E2E2E2E2E2E2E2E2E2E2E2E2E2E2E2E2E2E2E2E2E2E2E2E2E2E2E2E2E2E2E2E2E2E2E2E2E2E2E2E2E2E2E2E2E2E2E2E2E2E2E2E2E2E2E2E2E2E2E2E2E2E2E2E2E2E2E2E2E2E2E2E2E2E2E2E2E2E2E2E2E2E2E2E2E2E2E2E2E2E2E2E2E2E2E2E2E2E2E2E2E2E2E2E2E2E2E2E2E2E2
310
E2E2E2E2E2E2E2E2E2E2E2E2E2E2E2E2E2E2E2E2E2E2E2E2E2E2E2E2E2E2E2E2E2E2E2E2E2E2E2E2E2E2E2E2E2DC28E2E2E2E2E2E2E2E2F528E2E228E2E228E2E2F5F52DE2E2E2E2E2F5E2E2E2E2E2E2E2E2E2E2F5F5F5F5F5F5F5F5F5E2E2E2E2E2E2E2E2E2E2E2E2E2E2E2E2E2E2E2E2E2E2E2E2E2E2E2E2E2E2E2E2E2E2
310
E2E2E2E2E2E2E2E2E2E2E2E2E2E2E2E2E2E2E2E2E2E2E2E2E2E2E2E2E2E2E2E2E2E2E2E2E2E2E2E2E2E2E2E2E2E2E2E2E2E2E2E2E2E2E2E2E2E2E2E2E2E2E2E2E2E2E2E2E2E2E2E2E2E2E2E2E2E2E2E2E2E2E2E2E2E2E2E2E2E2E2E2E2E2E2E2E2E2E2E2E2E2E2E2E2E2E2E2E2E2E2E2E2E2E2E2E2E2E2E2E2E2E2E2E2E2E2
310
E2E2E2E2E2E2E2E2E2E2E2E2E2E2E2E2E2E2E2E2E2E2E2E2E2E2E2E2E2E2E2E2E2E2E2E2E2E2E2E2E2E2E2E2E2E2E2E228E2E2E2E2E2E2E2E2F528E2E228E2E228E2E2F5F52DE2E2E2E2E2F5E2E2E2E2E2E2E2E2E2E2E2F5F5E2E2E2E22DE2E2E2E2E2E2E2E2E2E2E2E2E2E2E2E2E2E2E2E2E2E2E2E2E2E2E2E2E2E2E2E2E2
310
E2E2E2E2E2E2E2E2E2E2E2E2E2E2E2E2E2E2E2E2E2E2E2E2E2E2E2E2E2E2E2E2E2E2E2E2E2E2E2E2E2E2E2E2E2E2E2E2E2E2E2E2E2E2E2E2E2E2E2E2E2E2E2E2E2E2E2E2E2E2E2E2E2E2E2E2E2E2E2E2E2E2E2E2E2E2E2E2E2E2E2E2E2E2E2E2E2E2E2E2E2E2E2E2E2E2E2E2E2E2E2E2E2E2E2E2E2E2E2E2E2E2E2E2E2E2E2
310
E2E2E2E2E2E2E2E2E2E2E2E2E2E2E2E2E2E2E2E2E2E2E2E2E2E2E2E2E2E2E2E2E2E2E2E2E2E2E2E2E2E2E2E2E2E2E2E2E2E228E2E2E2E2E2E2E2E2F528E2E228E2E228E2E2F5F52DE2E2E2E2F5E2E2E2E2E2E2E2E2E2E2E2E2F528E2E2E2E2E2E2E2E2E2E2E2E2E2E2E2E2E2E2E2E2E2E2E2E2E2E2E2E2E2E2E2E2E2E2E2E2
310
E2E2E2E2E2E2E2E2E2E2E2E2E2E2E2E2E2E2E2E2E2E2E2E2E2E2E2E2E2E2E2E2E2E2E2E2E2E2E2E2E2E2E2E2E2E2E2E2E2E2E2E2E2E2E2E2E2E2E2E2E2E2E2E2E2E2E2E2E2E2E2E2E2E2E2E2E2E2E2E2E2E2E2E2E2E2E2E2E2E2E2E2E2E2E2E2E2E2E2E2E2E2E2E2E2E2E2E2E2E2E2E2E2E2E2E2E2E2E2E2E2E2E2E2E2E2E2
310
E2E2E2E2E2E2E2E2E2E2E2E2E2E2E2E2E2E2E2E2E2E2E2E2E2E2E2E2E2E2E2E2E2E2E2E2E2E2E2E2E2E2E2E2E2E2E2E2E2E2E2E228E2E2E2E2E2E2E2E2F528E2E228E2E228E2E2F5F52DE2E2E2F5E2E2E2E2E2E2E2E2E2E2E2E2E2F528E2E2E2E2E2E2E2E2E2E2E2E2E2E2E2E2E2E2E2E2E2E2E2E2E2E2E2E2E2E2E2E2E2E2
310
E2E2E2E2E2E2E2E2E2E2E2E2E2E2E2E2E2E2E2E2E2E2E2E2E2E2E2E2E2E2E2E2E2E2E2E2E2E2E2E2E2E2E2E2E2E2E2E2E2E2E2E2E2E2E2E2E2E2E2E2E2E2E2E2E2E2E2E2E2E2E2E2E2E2E2E2E2E2E2E2E2E2E2E2E2E2E2E2E2E2E2E2E2E2E2E2E2E2E2E2E2E2E2E2E2E2E2E2E2E2E2E2E2E2E2E2E2E2E2E2E2E2E2E2E2E2E2
310
E2E2E2E2E2E2E2E2E2E2E2E2E2E2E2E2E2E2E2E2E2E2E2E2E2E2E2E2E2E2E2E2E2E2E2E2E2E2E2E2E2E2E2E2E2E2E2E2E2E2E2E2E2E228E2E2E2E2E2E2E2E2F528E2E228E2E228E2E2F5F52DE2E2F5F5E2E2E2E2E2E2E2E2E2E2E2E2F5F528E2E2E2E2E2E2E2E2E2E2E2E2E2E2E2E2E2E2E2E2E2E2E2E2E2E2E2E2E2E2E2E2
310
E2E2E2E2E2E2E2E2E2E2E2E2E2E2E2E2E2E2E2E2E2E2E2E2E2E2E2E2E2E2E2E2E2E2E2E2E2E2E2E2E2E2E2E2E2E2E2E2E2E2E2E2E2E2E2E2E2E2E2E2E2E2E2E2E2E2E2E2E2E2E2E2E2E2E2E2E2E2E2E2E2E2E2E2E2E2E2E2E2E2E2E2E2E2E2E2E2E2E2E2E2E2E2E2E2E2E2E2E2E2E2E2E2E2E2E2E2E2E2E2E2E2E2E2E2E2E2
310
E2E2E2E2E2E2E2E2E2E2E2E2E2E2E2E2E2E2E2E2E2E2E2E2E2E2E2E2E2E2E2E2E2E2E2E2E2E2E2E2E2E2E2E2E2E2E2E2E2E2E2E2E2E2E2E228E2E2E2E2E2E2E2E2F528E2E228E2E228E2E2F5F52DF5F5E2E2E2E2E2E2E2E2E2E2E2E2E2E2F5F528E2E2E2E2E2E2E2E2E2E2E2E2E2E2E2E2E2E2E2E2E2E2E2E2E2E2E2E2E2E2
310
E2E2E2E2E2E2E2E2E2E2E2E2E2E2E2E2E2E2E2E2E2E2E2E2E2E2E2E2E2E2E2E2E2E2E2E2E2E2E2E2E2E2E2E2E2E2E2E2E2E2E2E2E2E2E2E2E2E2E2E2E2E2E2E2E2E2E2E2E2E2E2E2E2E2E2E2E2E2E2E2E2E2E2E2E2E2E2E2E2E2E2E2E2E2E2E2E2E2E2E2E2E2E2E2E2E2E2E2E2E2E2E2E2E2E2E2E2E2E2E2E2E2E2E2E2E2E2
310
E2E2E2E2E2E2E2E2E2E2E2E2E2E2E2E2E2E2E2E2E2E2E2E2E2E2E2E2E2E2E2E2E2E2E2E2E2E2E2E2E2E2E2E2E2E2E2E2E2E2E2E2E2E2E2E2E2E228E2E2E2E2E2E2E2E2F528E2E228E2F5F5F5F5F5F52DE2E2E2E2E2E2E2E2E2E2E2E2E2E2E2F5F5E228E2E2E2E2E2E2E2E2E2E2E2E2E2E2E2E2E2E2E2E2E2E2E2E2E2E2E2E2
310
E2E2E2E2E2E2E2E2E2E2E2E2E2E2E2E2E2E2E2E2E2E2E2E2E2E2E2E2E2E2E2E2E2E2E2E2E2E2E2E2E2E2E2E2E2E2E2E2E2E2E2E2E2E2E2E2E2E2E2E2E2E2E2E2E2E2E2E2E2E2E2E2E2E2E2E2E2E2E2E2E2E2E2E2E2E2E2E2E2E2E2E2E2E2E2E2E2E2E2E2E2E2E2E2E2E2E2E2E2E2E2E2E2E2E2E2E2E2E2E2E2E2E2E2E2E2E2
310
E2E2E2E2E2E2E2E2E2E2E2E2E2E2E2E2E2E2E2E2E2E2E2E2E2E2E2E2E2E2E2E2E2E2E2E2E2E2E2E2E2E2E2E2E2E2E2E2E2E2E2E2E2E2E2E2E2E2E2E228E2E2E2E2E2E2E2E2F5F5F5F5F5F5F5F5F5F5F5F52DE2E2E2E2E2E2E2E2E2E2E2E2E2E2E2F5F5E228E2E2E2E2E2E2E2E2E2E2E2E2E2E2E2E2E2E2E2E2E2E2E2E2E2E2
310
E2E2E2E2E2E2E2E2E2E2E2E2E2E2E2E2E2E2E2E2E2E2E2E2E2E2E2E2E2E2E2E2E2E2E2E2E2E2E2E2E2E2E2E2E2E2E2E2E2E2E2E2E2E2E2E2E2E2E2E2E2E2E2E2E2E2E2E2E2E2E2E2E2E2E2E2E2E2E2E2E2E2E2E2E2E2E2E2E2E2E2E2E2E2E2E2E2E2E2E2E2E2E2E2E2E2E2E2E2E2E2E2E2E2E2E2E2E2E2E2E2E2E2E2E2E2E2
310
E2E2E2E2E2E2E2E2E2E2E2E2E2E2E2E2E2E2E2E2E2E2E2E2E2E2E2E2E2E2E2E2E2E2E2E2E2E2E2E2E2E2E2E2E2E2E2E2E2E2E2E2E2E2E2E2E2E2E2E2E2E228E2E2E2E2E2E2E2E2F5E2E2E2E2E2E2E2E2E2E2E22DE2E2E2E2E2E2E2E2E2E2E2E2E2E2F5F5E2E228E2E2E2E2E2E2E2E2E2E2E2E2E2E2E2E2E2E2E2E2E2E2E2E2
310
E2E2E2E2E2E2E2E2E2E2E2E2E2E2E2E2E2E2E2E2E2E2E2E2E2E2E2E2E2E2E2E2E2E2E2E2E2E2E2E2E2E2E2E2E2E2E2E2E2E2E2E2E2E2E2E2E2E2E2E2E2E2E2E2E2E2E2E2E2E2E2E2E2E2E2E2E2E2E2E2E2E2E2E2E2E2E2E2E2E2E2E2E2E2E2E2E2E2E2E2E2E2E2E2E2E2E2E2E2E2E2E2E2E2E2E2E2E2E2E2E2E2E2E2E2E2E2
310
E2E2E2E2E2E2E2E2E2E2E2E2E2E2E2E2E2E2E2E2E2E2E2E2E2E2E2E2E2E2E2E2E2E2E2E2E2E2E2E2E2E2E2E2E2E2E2E2E2E2E2E2E2E2E2E2E2E2E2E2E2E2E2E228E2E2E2E2E2E2E2E2F5E2E2E2E2E2E2E2E2E2E2E22DE2E2E2E2E2E2E2E2E2E2E2E2E2F5F5E2E2E228E2E2E2E2E2E2E2E2E2E2E2E2E2E2E2E2E2E2E2E2E2E2
310
E2E2E2E2E2E2E2E2E2E2E2E2E2E2E2E2E2E2E2E2E2E2E2E2E2E2E2E2E2E2E2E2E2E2E2E2E2E2E2E2E2E2E2E2E2E2E2E2E2E2E2E2E2E2E2E2E2E2E2E2E2E2E2E2E2E2E2E2E2E2E2E2E2E2E2E2E2E2E2E2E2E2E2E2E2E2E2E2E2E2E2E2E2E2E2E2E2E2E2E2E2E2E2E2E2E2E2E2E2E2E2E2E2E2E2E2E2E2E2E2E2E2E2E2E2E2E2
310
E2E2E2E2E2E2E2E2E2E2E2E2E2E2E2E2E2E2E2E2E2E2E2E2E2E2E2E2E2E2E2E2E2E2E2E2E2E2E2E2E2E2E2E2E2E2E2E2E2E2E2E2E2E2E2E2E2E2E2E2E2E2E2E2E2E228E2E2E2E2E2E2E2E2F5E2E2E2E2E2E2E2E2E2E2E22DE2E2E2E2E2E2E2E2E2E2E2E2F5F5E2E2E2E228E2E2E2E2E2E2E2E2E2E2E2E2E2E2E2E2E2E2E2E2
310
E2E2E2E2E2E2E2E2E2E2E2E2E2E2E2E2E2E2E2E2E2E2E2E2E2E2E2E2E2E2E2E2E2E2E2E2E2E2E2E2E2E2E2E2E2E2E2E2E2E2E2E2E2E2E2E2E2E2E2E2E2E2E2E2E2E2E2E2E2E2E2E2E2E2E2E2E2E2E2E2E2E2E2E2E2E2E2E2E2E2E2E2E2E2E2E2E2E2E2E2E2E2E2E2E2E2E2E2E2E2E2E2E2E2E2E2E2E2E2E2E2E2E2E2E2E2E2
310
E2E2E2E2E2E2E2E2E2E2E2E2E2E2E2E2E2E2E2E2E2E2E2E2E2E2E2E2E2E2E2E2E2E2E2E2E2E2E2E2E2E2E2E2E2E2E2E2E2E2E2E2E2E2E2E2E2E2E2E2E2E2E2E2E2E2E2E228E2E2E2E2E2E2E2E2F5E2E2E2E2E2E2E2E2E2E2E22DE2E2E2E2E2E2E2E2E2E2E2F528F5E2E2E2E228E2E2E2E2E2E2E2E2E2E2E2E2E2E2E2E2E2E2
310
E2E2E2E2E2E2E2E2E2E2E2E2E2E2E2E2E2E2E2E2E2E2E2E2E2E2E2E2E2E2E2E2E2E2E2E2E2E2E2E2E2E2E2E2E2E2E2E2E2E2E2E2E2E2E2E2E2E2E2E2E2E2E2E2E2E2E2E2E2E2E2E2E2E2E2E2E2E2E2E2E2E2E2E2E2E2E2E2E2E2E2E2E2E2E2E2E2E2E2E2E2E2E2E2E2E2E2E2E2E2E2E2E2E2E2E2E2E2E2E2E2E2E2E2E2E2E2
310
E2E2E2E2E2E2E2E2E2E2E2E2E2E2E2E2E2E2E2E2E2E2E2E2E2E2E2E2E2E2E2E2E2E2E2E2E2E2E2E2E2E2E2E2E2E2E2E2E2E2E2E2E2E2E2E2E2E2E2E2E2E2E2E2E2E2E2E2E2E228E2E2E2E2E2E2E2E2F528E2E2E2E2E2E2E2E2E2E22DE2E2E2E2E2E2E2E2E2E2F5F5F5E2E2E2E2E228E2E2E2E2E2E2E2E2E2E2E2E2E2E2E2E2
310
E2E2E2E2E2E2E2E2E2E2E2E2E2E2E2E2E2E2E2E2E2E2E2E2E2E2E2E2E2E2E2E2E2E2E2E2E2E2E2E2E2E2E2E2E2E2E2E2E2E2E2E2E2E2E2E2E2E2E2E2E2E2E2E2E2E2E2E2E2E2E2E2E2E2E2E2E2E2E2E2E2E2E2E2E2E2E2E2E2E2E2E2E2E2E2E2E2E2E2E2E2E2E2E2E2E2E2E2E2E2E2E2E2E2E2E2E2E2E2E2E2E2E2E2E2E2E2
310
E2E2E2E2E2E2E2E2E2E2E2E2E2E2E2E2E2E2E2E2E2E2E2E2E2E2E2E2E2E2E2E2E2E2E2E2E2E2E2E2E2E2E2E2E2E2E2E2E2E2E2E2E2E2E2E2E2E2E2E2E2E2E2E2E2E2E2E2E2E2E2E228E2E2E2E2E2E2E2E228F5F5F5E2E2E2E2E2E2E2E22DE2E2E2E2E2E2E2E2E2F5F5E2E2E2E2E2E2E228E2E2E2E2E2E2E2E2E2E2E2E2E2E2
310
E2E2E2E2E2E2E2E2E2E2E2E2E2E2E2E2E2E2E2E2E2E2E2E2E2E2E2E2E2E2E2E2E2E2E2E2E2E2E2E2E2E2E2E2E2E2E2E2E2E2E2E2E2E2E2E2E2E2E2E2E2E2E2E2E2E2E2E2E2E2E2E2E2E2E2E2E2E2E2E2E2E2E2E2E2E2E2E2E2E2E2E2E2E2E2E2E2E2E2E2E2E2E2E2E2E2E2E2E2E2E2E2E2E2E2E2E2E2E2E2E2E2E2E2E2E2E2
310
E2E2E2E2E2E2E2E2E2E2E2E2E2E2E2E2E2E2E2E2E2E2E2E2E2E2E2E2E2E2E2E2E2E2E2E2E2E2E2E2E2E2E2E2E2E2E2E2E2E2E2E2E2E2E2E2E2E2E2E2E2E2E2E2E2E2E2E2E2E2E2E2E2E228E2E2E2E2E2E2E2E228E2F5F5F528E2E2E2E2E2E22DE2E2E2E2E2E2E2F5F5F5E2E2E2E2E2E2E2E228E2E2E2E2E2E2E2E2E2E2E2E2
310
E2E2E2E2E2E2E2E2E2E2E2E2E2E2E2E2E2E2E2E2E2E2E2E2E2E2E2E2E2E2E2E2E2E2E2E2E2E2E2E2E2E2E2E2E2E2E2E2E2E2E2E2E2E2E2E2E2E2E2E2E2E2E2E2E2E2E2E2E2E2E2E2E2E2E2E2E2E2E2E2E2E2E2E2E2E2E2E2E2E2E2E2E2E2E2E2E2E2E2E2E2E2E2E2E2E2E2E2E2E2E2E2E2E2E2E2E2E2E2E2E2E2E2E2E2E2E2
310
E2E2E2E2E2E2E2E2E2E2E2E2E2E2E2E2E2E2E2E2E2E2E2E2E2E2E2E2E2E2E2E2E2E2E2E2E2E2E2E2E2E2E2E2E2E2E2E2E2E2E2E2E2E2E2E2E2E2E2E2E2E2E2E2E2E2E2E2E2E2E2E2E2E2E2E228E2E2E2E2E2E2E2E228E2E2E2F5F5F5F528E2E2E22DE2E2E2F5F5F5F5F5E2E2E2E2E2E2E2E2E2E228E2E2E2E2E2E2E2E2E2E2
310
E2E2E2E2E2E2E2E2E2E2E2E2E2E2E2E2E2E2E2E2E2E2E2E2E2E2E2E2E2E2E2E2E2E2E2E2E2E2E2E2E2E2E2E2E2E2E2E2E2E2E2E2E2E2E2E2E2E2E2E2E2E2E2E2E2E2E2E2E2E2E2E2E2E2E2E2E2E2E2E2E2E2E2E2E2E2E2E2E2E2E2E2E2E2E2E2E2E2E2E2E2E2E2E2E2E2E2E2E2E2E2E2E2E2E2E2E2E2E2E2E2E2E2E2E2E2E2
310
E2E2E2E2E2E2E2E2E2E2E2E2E2E2E2E2E2E2E2E2E2E2E2E2E2E2E2E2E2E2E2E2E2E2E2E2E2E2E2E2E2E2E2E2E2E2E2E2E2E2E2E2E2E2E2E2E2E2E2E2E2E2E2E2E2E2E2E2E2E2E2E2E2E2E2E2E2E228282828282828282828282828282828F5F5F5F5F52DF5F5F5F5F528E2E2E2E2E2E2E2E2E2E2E2E228E2E2E2E2E2E2E2E2
310
E2E2E2E2E2E2E2E2E2E2E2E2E2E2E2E2E2E2E2E2E2E2E2E2E2E2E2E2E2E2E2E2E2E2E2E2E2E2E2E2E2E2E2E2E2E2E2E2E2E2E2E2E2E2E2E2E2E2E2E2E2E2E2E2E2E2E2E2E2E2E2E2E2E2E2E2E2E2E2E2E2E2E2E2E2E2E2E2E2E2E2E2E2E2E2E2E2E2E2E2E2E2E2E2E2E2E2E2E2E2E2E2E2E2E2E2E2E2E2E2E2E2E2E2E2E2E2
310
E2E2E2E2E2E2E2E2E2E2E2E2E2E2E2E2E2E2E2E2E2E2E2E2E2E2E2E2E2E2E2E2E2E2E2E2E2E2E2E2E2E2E2E2E2E2E2E2E2E2E2E2E2E2E2E2E2E2E2E2E2E2E2E2E2E2E2E2E2E2E2E2E2E2E2E2E2E2E2E2E2E2E2E2E2E2E2E2E228E2E2E2E2E2E2E2E2E2E2E22DE2E2E2E2E2E2E2E2E2E2E2E2E2E2E2E2E2E228E2E2E2E2E2E2
310
E2E2E2E2E2E2E2E2E2E2E2E2E2E2E2E2E2E2E2E2E2E2E2E2E2E2E2E2E2E2E2E2E2E2E2E2E2E2E2E2E2E2E2E2E2E2E2E2E2E2E2E2E2E2E2E2E2E2E2E2E2E2E2E2E2E2E2E2E2E2E2E2E2E2E2E2E2E2E2E2E2E2E2E2E2E2E2E2E2E2E2E2E2E2E2E2E2E2E2E2E2E2E2E2E2E2E2E2E2E2E2E2E2E2E2E2E2E2E2E2E2E2E2E2E2E2E2
310
E2E2E2E2E2E2E2E2E2E2E2E2E2E2E2E2E2E2E2E2E2E2E2E2E2E2E2E2E2E2E2E2E2E2E2E2E2E2E2E2E2E2E2E2E2E2E2E2E2E2E2E2E2E2E2E2E2E2E2E2E2E2E2E2E2E2E2E2E2E2E2E2E2E2E2E2E2E2E2E2E2E2E2E2E2E2E2E2E2E2E228E2E2E2E2E2E2E2E2E2E2E22DE2E2E2E2E2E2E2E2E2E2E2E2E2E2E2E2E2E228E2E2E2E2
310
E2E2E2E2E2E2E2E2E2E2E2E2E2E2E2E2E2E2E2E2E2E2E2E2E2E2E2E2E2E2E2E2E2E2E2E2E2E2E2E2E2E2E2E2E2E2E2E2E2E2E2E2E2E2E2E2E2E2E2E2E2E2E2E2E2E2E2E2E2E2E2E2E2E2E2E2E2E2E2E2E2E2E2E2E2E2E2E2E2E2E2E2E2E2E2E2E2E2E2E2E2E2E2E2E2E2E2E2E2E2E2E2E2E2E2E2E2E2E2E2E2E2E2E2E2E2E2
310
E2E2E2E2E2E2E2E2E2E2E2E2E2E2E2E2E2E2E2E2E2E2E2E2E2E2E2E2E2E2E2E2E2E2E2E2E2E2E2E2E2E2E2E2E2E2E2E2E2E2E2E2E2E2E2E2E2E2E2E2E2E2E2E2E2E2E2E2E2E2E2E2E2E2E2E2E2E2E2E2E2E2E2E2E2E2E2E2E2E2E2E2E22828282828282828282828282DE2E2E2E2E2E2E2E2E2E2E2E2E2E2E2E2E2E228E2E2
310
E2E2E2E2E2E2E2E2E2E2E2E2E2E2E2E2E2E2E2E2E2E2E2E2E2E2E2E2E2E2E2E2E2E2E2E2E2E2E2E2E2E2E2E2E2E2E2E2E2E2E2E2E2E2E2E2E2E2E2E2E2E2E2E2E2E2E2E2E2E2E2E2E2E2E2E2E2E2E2E2E2E2E2E2E2E2E2E2E2E2E2E2E2E2E2E2E2E2E2E2E2E2E2E2E2E2E2E2E2E2E2E2E2E2E2E2E2E2E2E2E2E2E2E2E2E2E2
310
E2E2E2E2E2E2E2E2E2E2E2E2E2E2E2E2E2E2E2E2E2E2E2E2E2E2E2E2E2E2E2E2E2E2E2E2E2E2E2E2E2E2E2E2E2E2E2E2E2E2E2E2E2E2E2E2E2E2E2E2E2E2E2E2E2E2E2E2E2E2E2E2E2E2E2E2E2E2E2E2E2E2E2E2E2E2E2E2E2E2E2E2E2E2E228E2E2E2E2DCDCDCE2E2E2E22DE2E2E2E2E2E2E2E2E2E2E2E2E2E2E2E2E2E228
310
E2E2E2E2E2E2E2E2E2E2E2E2E2E2E2E2E2E2E2E2E2E2E2E2E2E2E2E2E2E2E2E2E2E2E2E2E2E2E2E2E2E2E2E2E2E2E2E2E2E2E2E2E2E2E2E2E2E2E2E2E2E2E2E2E2E2E2E2E2E2E2E2E2E2E2E2E2E2E2E2E2E2E2E2E2E2E2E2E2E2E2E2E2E2E2E2E2E2E2E2E2E2E2E2E2E2E2E2E2E2E2E2E2E2E2E2E2E2E2E2E2E2E2E2E2E2E2
310
E2E2E2E2E2E2E2E2E2E2E2E2E2E2E2E2E2E2E2E2E2E2E2E2E2E2E2E2E2E2E2E2E2E2E2E2E2E2E2E2E2E2E2E2E2E2E2E2E2E2E2E2E2E2E2E2E2E2E2E2E2E2E2E2E2E2E2E2E2E2E2E2E2E2E2E2E2E2E2E2E2E2E2E2E2E2E2E2E2E2E2E2E2E2E2E2E228E2E2E2E2DCDCDCE2E2E2E2E2E2E2E2E2E2E2E2E2E2E2E2E2E2E2E2E2E2
310
E228E2E2E2E2E2E2E2E2E2E2E2E2E2E2E2E2E2E2E2E2E2E2E2E2E2E2E2E2E2E2E2E2E2E2E2E2E2E2E2E2E2E2E2E2E2E2E2E2E2E2E2E2E2E2E2E2E2E2E2E2E2E2E2E2E2E2E2E2E2E2E2E2E2E2E2E2E2E2E2E2E2E2E2E2E2E2E2E2E2E2E2E2E2E2E2E2E2E2E2E2E2E2E2E2E2E2E2E2E2E2E2E2E2E2E2E2E2E2E2E2E2E2E2E2E2
310
E2E2E2E2E2E2E2E2E2E2E2E2E2E2E2E2E2E2E2E2E2E2E2E2E2E2E2E2E2E2E2E2E2E2E2E2E2E2E2E2E2E2E2E2E2E2E2E2E2E2E2E2E2E2E2E2E2E2E2E2E2E2E2E2E2E2E2E2E2E2E2E2E2E2E2E2E2E2E2E2E2E2E2E2E2E2E2E2E2E2E2E2E2E2E2E2E2E2E228E2E2E2E2E2E2E2E2E2E2E2E2E2E2E2E2E2E2E2E2E2E2E2E2E2E2E2
310
E2E2E228E2E2E2E2E2E2E2E2E2E2E2E2E2E2E2E2E2E2E2E2E2E2E2E2E2E2E2E2E2E2E2E2E2E2E2E2E2E2E2E2E2E2E2E2E2E2E2E2E2E2E2E2E2E2E2E2E2E2E2E2E2E2E2E2E2E2E2E2E2E2E2E2E2E2E2E2E2E2E2E2E2E2E2E2E2E2E2E2E2E2E2E2E2E2E2E2E2E2E2E2E2E2E2E2E2E2E2E2E2E2E2E2E2E2E2E2E2E2E2E2E2E2E2
310
E2E2E2E2E2E2E2E2E2E2E2E2E2E2E2E2E2E2E2E2E2E2E2E2E2E2E2E2E2E2E2E2E2E2E2E2E2E2E2E2E2E2E2E2E2E2E2E2E2E2E2E2E2E2E2E2E2E2E2E2E2E2E2E2E2E2E2E2E2E2E2E2E2E2E2E2E2E2E2E2E2E2E2E2E2E2E2E2E2E2E2E2E2E2E2E2E2E2E2E2E22828282828282828282828282828DCDCDC282828282828282828
310
282828282828E2E2E2E2E2E2E2E2E2E2E2E2E2E2E2E2E2E2E2E2E2E2E2E2E2E2E2E2E2E2E2E2E2E2E2E2E2E2E2E2E2E2E2E2E2E2E2E2E2E2E2E2E2E2E2E2E2E2E2E2E2E2E2E2E2E2E2E2E2E2E2E2E2E2E2E2E2E2E2E2E2E2E2E2E2E2E2E2E2E2E2E2E2E2E2E2E2E2E2E2E2E2E2E2E2E2E2E2E2E2E2E2E2E2E2E2E2E2E2E2E2
310
E2E2E2E2E2E2E2E2E2E2E2E2E2E2E2E2E2E2E2E2E2E2E2E2E2E2E2E2E2E2E2E2E2E2E2E2E2E2E2E2E2E2E2E2E2E2E2E2E2E2E2E2E2E2E2E2E2E2E2E2E2E2E2E2E2E2E2E2E2E2E2E2E2E2E2E2E2E2E2E2E2E2E2E2E2E2E2E2E2E2E2E2E2E2E2E2E2E2E2E2E2E2E2E2E2E2E2E2E2E2E2E2E2E2E2E2E2DCDCDCDCE2E2E2E2E2E2
310
E2E2E2E2E2E2E2E2E2E2E2E2E2E2E2E2E2E2E2E2E2E2E2E2E2E2E2E2E2E2E2E2E2E2E2E2E2E2E2E2E2E2E2E2E2E2E2E2E2E2E2E2E2E2E2E2E2E2E2E2E2E2E2E2E2E2E2E2E2E2E2E2E2E2E2E2E2E2E2E2E2E2E2E2E2E2E2E2E2E2E2E2E2E2E2E2E2E2E2E2E2E2E2E2E2E2E2E2E2E2E2E2E2E2E2E2E2E2E2E2E2E2E2E2E2E2E2
310
E2E2E2E2E2E2E2E2E2E2E2E2E2E2E2E2E2E2E2E2E2E2E2E2E2E2E2E2E2E2E2E2E2E2E2E2E2E2E2E2E2E2E2E2E2E2E2E2E2E2E2E2E2E2E2E2E2E2E2E2E2E2E2E2E2E2E2E2E2E2E2E2E2E2E2E2E2E2E2E2E2E2E2E2E2E2E2E2E2E2E2E2E2E2E2E2E2E2E2E2E2E2E2E2E2E2E2E2E2E2E2E2E2E2E2E2E2E2E2DCDCDCDCE2E2E2E2
310
E2E2E2E2E2E2E2E2E2E2E2E2E2E2E2E2E2E2E2E2E2E2E2E2E2E2E2E2E2E2E2E2E2E2E2E2E2E2E2E2E2E2E2E2E2E2E2E2E2E2E2E2E2E2E2E2E2E2E2E2E2E2E2E2E2E2E2E2E2E2E2E2E2E2E2E2E2E2E2E2E2E2E2E2E2E2E2E2E2E2E2E2E2E2E2E2E2E2E2E2E2E2E2E2E2E2E2E2E2E2E2E2E2E2E2E2E2E2E2E2E2E2E2E2E2E2E2
310
E2E2E2E2E2E2E2E2E2E2E2E2E2E2E2E2E2E2E2E2E2E2E2E2E2E2E2E2E2E2E2E2E2E2E2E2E2E2E2E2E2E2E2E2E2E2E2E2E2E2E2E2E2E2E2E2E2E2E2E2E2E2E2E2E2E2E2E2E2E2E2E2E2E2E2E2E2E2E2E2E2E2E2E2E2E2E2E2E2E2E2E2E2E2E2E2E2E2E2E2E2E2E2E2E2E2E2E2E2E2E2E2E2E2E2E2E2E2E2E2E2E2E2E2E2E2E2
310
E2E2E2E2E2E2E2E2E2E2E2E2E2E2E2E2E2E2E2E2E2E2E2E2E2E2E2E2E2E2E2E2E2E2E2E2E2E2E2E2E2E2E2E2E2E2E2E2E2E2E2E2E2E2E2E2E2E2E2E2E2E2E2E2E2E2E2E2E2E2E2E2E2E2E2E2E2E2E2E2E2E2E2E2E2E2E2E2E2E2E2E2E2E2E2E2E2E2E2E2E2E2E2E2E2E2E2E2E2E2E2E2E2E2E2E2E2E2E2E2E2E2E2E2E2E2E2
310
E2E2E2E2E2E2E2E2E2E2E2E2E2E2E2E2E2E2E2E2E2E2E2E2E2E2E2E2E2E2E2E2E2E2E2E2E2E2E2E2E2E2E2E2E2E2E2E2E2E2E2E2E2E2E2E2E2E2E2E2E2E2E2E2E2E2E2E2E2E2E2E2E2E2E2E2E2E2E2E2E2E2E2E2E2E2E2E2E2E2E2E2E2E2E2E2E2E2E2E2E2E2E2E2E2E2E2E2E2E2E2E2E2E2E2E2E2E2E2E2E2E2E2E2E2E2E2
310
E2E2E2E2E2E2E2E2E2E2E2E2E2E2E2E2E2E2E2E2E2E2E2E2E2E2E2E2E2E2E2E2E2E2E2E2E2E2E2E2E2E2E2E2E2E2E2E2E2E2E2E2E2E2E2E2E2E2E2E2E2E2E2E2E2E2E2E2E2E2E2E2E2E2E2E2E2E2E2E2E2E2E2E2E2E2E2E2E2E2E2E2E2E2E2E2E2E2E2E2E2E2E2E2E2E2E2E2E2E2E2E2E2E2E2E2E2E2E2E2E2E2E2E2E2E2E2
310
E2E2E2E2E2E2E2E2E2E2E2E2E2E2E2E2E2E2E2E2E2E2E2E2E2E2E2E2E2E2E2E2E2E2E2E2E2E2E2E2E2E2E2E2E2E2E2E2E2E2E2E2E2E2E2E2E2E2E2E2E2E2E2E2E2E2E2E2E2E2E2E2E2E2E2E2E2E2E2E2E2E2E2E2E2E2E2E2E2E2E2E2E2E2E2E2E2E2E2E2E2E2E2E2E2E2E2E2E2E2E2E2E2E2E2E2E2E2E2E2E2E2E2E2E2E2E2
310
E2E2E2E2E2E2E2E2E2E2E2E2E2E2E2E2E2E2E2E2E2E2E2E2E2E2E2E2E2E2E2E2E2E2E2E2E2E2E2E2E2E2E2E2E2E2E2E2E2E2E2E2E2E2E2E2E2E2E2E2E2E2E2E2E2E2E2E2E2E2E2E2E2E2E2E2E2E2E2E2E2E2E2E2E2E2E2E2E2E2E2E2E2E2E2E2E2E2E2E2E2E2E2E2E2E2E2E2E2E2E2E2E2E2E2E2E2E2E2E2E2E2E2E2E2E2E2
310
E2E2E2E2E2E2E2E2E2E2E2E2E2E2E2E2E2E2E2E2E2E2E2E2E2E2E2E2E2E2E2E2E2E2E2E2E2E2E2E2E2E2E2E2E2E2E2E2E2E2E2E2E2E2E2E2E2E2E2E2E2E2E2E2E2E2E2E2E2E2E2E2E2E2E2E2E2E2E2E2E2E2E2E2E2E2E2E2E2E2E2E2E2E2E2E2E2E2E2E2E2E2E2E2E2E2E2E2E2E2E2E2E2E2E2E2E2E2E2E2E2E2E2E2E2E2E2
310
E2E2E2E2E2E2E2E2E2E2E2E2E2E2E2E2E2E2E2E2E2E2E2E2E2E2E2E2E2E2E2E2E2E2E2E2E2E2E2E2E2E2E2E2E2E2E2E2E2E2E2E2E2E2E2E2E2E2E2E2E2E2E2E2E2E2E2E2E2E2E2E2E2E2E2E2E2E2E2E2E2E2E2E2E2E2E2E2E2E2E2E2E2E2E2E2E2E2E2E2E2E2E2E2E2E2E2E2E2E2E2E2E2E2E2E2E2E2E2E2E2E2E2E2E2E2E2
310
E2E2E2E2E2E2E2E2E2E2E2E2E2E2E2E2E2E2E2E2E2E2E2E2E2E2E2E2E2E2E2E2E2E2E2E2E2E2E2E2E2E2E2E2E2E2E2E2E2E2E2E2E2E2E2E2E2E2E2E2E2E2E2E2E2E2E2E2E2E2E2E2E2E2E2E2E2E2E2E2E2E2E2E2E2E2E2E2E2E2E2E2E2E2E2E2E2E2E2E2E2E2E2E2E2E2E2E2E2E2E2E2E2E2E2E2E2E2E2E2E2E2E2E2E2E2E2
310
E2E2E2E2E2E2E2E2E2E2E2E2E2E2E2E2E2E2E2E2E2E2E2E2E2E2E2E2E2E2E2E2E2E2E2E2E2E2E2E2E2E2E2E2E2E2E2E2E2E2E2E2E2E2E2E2E2E2E2E2E2E2E2E2E2E2E2E2E2E2E2E2E2E2E2E2E2E2E2E2E2E2E2E2E2E2E2E2E2E2E2E2E2E2E2E2E2E2E2E2E2E2E2E2E2E2E2E2E2E2E2E2E2E2E2E2E2E2E2E2E2E2E2E2E2E2E2
310
E2E2E2E2E2E2E2E2E2E2E2E2E2E2E2E2E2E2E2E2E2E2E2E2E2E2E2E2E2E2E2E2E2E2E2E2E2E2E2E2E2E2E2E2E2E2E2E2E2E2E2E2E2E2E2E2E2E2E2E2E2E2E2E2E2E2E2E2E2E2E2E2E2E2E2E2E2E2E2E2E2E2E2E2E2E2E2E2E2E2E2E2E2E2E2E2E2E2E2E2E2E2E2E2E2E2E2E2E2E2E2E2E2E2E2E2E228282828282828282828
310
2828E2E2E2E2E2E2E2E2E2E2E2E2E2E2E2E2E2E2E2E2E2E2E2E2E2E2E2E2E2E2E2E2E2E2E2E2E2E2E2E2E2E2E2E2E2E2E2E2E2E2E2E2E2E2E2E2E2E2E2E2E2E2E2E2E2E2E2E2E2E2E2E2E2E2E2E2E2E2E2E2E2E2E2E2E2E2E2E2E2E2E2E2E2E2E2E2E2E2E2E2E2E2E2E2E2E2E2E2E2E2E2E2E2E2E2E2E2E2E2E2E2E2E2E2E2
310
E2E2E2E2E2E2E2E2E2E2E2E2E2E2E2E2E2E2E2E2E2E2E2E2E2E2E2E2E2E2E2E2E2E2E2E2E2E2E2E2E2E2E2E2E2E2E2E2E2E2E2E2E2E2E2E2E2E2E2E2E2E2E2E2E2E2E2E2E2E2E2E2E2E2E2E2E2E2E2E2E2E2E2E2E2E2E2E2E2E2E2E2E2E2E2E2E2E2E2E2E2E2E2E2E2E2E2E2E2E2E2E2E2E2E2E2E2E2E228E2E2E2DCDCDCDC
310
E2E2E228E2E2E2E2E2E2E2E2E2E2E2E2E2E2E2E2E2E2E2E2E2E2E2E2E2E2E2E2E2E2E2E2E2E2E2E2E2E2E2E2E2E2E2E2E2E2E2E2E2E2E2E2E2E2E2E2E2E2E2E2E2E2E2E2E2E2E2E2E2E2E2E2E2E2E2E2E2E2E2E2E2E2E2E2E2E2E2E2E2E2E2E2E2E2E2E2E2E2E2E2E2E2E2E2E2E2E2E2E2E2E2E2E2E2E2E2E2E2E2E2E2E2E2
310
E2E2E2E2E2E2E2E2E2E2E2E2E2E2E2E2E2E2E2E2E2E2E2E2E2E2E2E2E2E2E2E2E2E2E2E2E2E2E2E2E2E2E2E2E2E2E2E2E2E2E2E2E2E2E2E2E2E2E2E2E2E2E2E2E2E2E2E2E2E2E2E2E2E2E2E2E2E2E2E2E2E2E2E2E2E2E2E2E2E2E2E2E2E2E2E2E2E2E2E2E2E2E2E2E2E2E2E2E2E2E2E2E2E2E2E2E2E2E2E2E228E2E2E2E2DC
310
DCDCE2E2E228E2E2E2E2E2E2E2E2E2E2E2E2E2E2E2E2E2E2E2E2E2E2E2E2E2E2E2E2E2E2E2E2E2E2E2E2E2E2E2E2E2E2E2E2E2E2E2E2E2E2E2E2E2E2E2E2E2E2E2E2E2E2E2E2E2E2E2E2E2E2E2E2E2E2E2E2E2E2E2E2E2E2E2E2E2E2E2E2E2E2E2E2E2E2E2E2E2E2E2E2E2E2E2E2E2E2E2E2E2E2E2E2E2E2E2E2E2E2E2E2E2
310
E2E2E2E2E2E2E2E2E2E2E2E2E2E2E2E2E2E2E2E2E2E2E2E2E2E2E2E2E2E2E2E2E2E2E2E2E2E2E2E2E2E2E2E2E2E2E2E2E2E2E2E2E2E2E2E2E2E2E2E2E2E2E2E2E2E2E2E2E2E2E2E2E2E2E2E2E2E2E2E2E2E2E2E2E2E2E2E2E2E2E2E2E2E2E2E2E2E2E2E2E2E2E2E2E2E2E2E2E2E2E2E2E2E2E2E2E2E2E2E2E2E2E228E22828
310
282828282828282828DCDCDCDC282828E2E2E2E2E2E2E2E2E2E2E2E2E2E2E2E2E2E2E2E2E2E2E2E2E2E2E2E2E2E2E2E2E2E2E2E2E2E2E2E2E2E2E2E2E2E2E2E2E2E2E2E2E2E2E2E2E2E2E2E2E2E2E2E2E2E2E2E2E2E2E2E2E2E2E2E2E2E2E2E2E2E2E2E2E2E2E2E2E2E2E2E2E2E2E2E2E2E2E2E2E2E2E2E2E2E2E2E2E2E2E2
310
E2E2E2E2E2E2E2E2E2E2E2E2E2E2E2E2E2E2E2E2E2E2E2E2E2E2E2E2E2E2E2E2E2E2E2E2E2E2E2E2E2E2E2E2E2E2E2E2E2E2E2E2E2E2E2E2E2E2E2E2E2E2E2E2E2E2E2E2E2E2E2E2E2E2E2E2E2E2E2E2E2E2E2E2E2E2E2E2E2E2E2E2E2E2E2E2E2E2E2E2E2E2E2E2E2E2E2E2E2E2E2E2E2E2E2E2E2E2E2E2E2E2E2E2E228E2
310
28E2E2E2E2E2E2E2E22DDCDCE2DCDCE2E228E2E2E2E2E2E2E2E2E2E2E2E2E2E2E2E2E2E2E2E2E2E2E2E2E2E2E2E2E2E2E2E2E2E2E2E2E2E2E2E2E2E2E2E2E2E2E2E2E2E2E2E2E2E2E2E2E2E2E2E2E2E2E2E2E2E2E2E2E2E2E2E2E2E2E2E2E2E2E2E2E2E2E2E2E2E2E2E2E2E2E2E2E2E2E2E2E2E2E2E2E2E2E2E2E2E2E2E2E2
310
E2E2E2E2E2E2E2E2E2E2E2E2E2E2E2E2E2E2E2E2E2E2E2E2E2E2E2E2E2E2E2E2E2E2E2E2E2E2E2E2E2E2E2E2E2E2E2E2E2E2E2E2E2E2E2E2E2E2E2E2E2E2E2E2E2E2E2E2E2E2E2E2E2E2E2E2E2E2E2E2E2E2E2E2E2E2E2E2E2E2E2E2E2E2E2E2E2E2E2E2E2E2E2E2E2E2E2E2E2E2E2E2E2E2E2E2E2E2E2E2E2E2E2E2E2E2E2
310
28E228E2E2E2E2E2E2E2E22DDCDCDCDCDCE2E228E2E2E2E2E2E2E2E2E2E2E2E2E2E2E2E2E2E2E2E2E2E2E2E2E2E2E2E2E2E2E2E2E2E2E2E2E2E2E2E2E2E2E2E2E2E2E2E2E2E2E2E2E2E2E2E2E2E2E2E2E2E2E2E2E2E2E2E2E2E2E2E2E2E2E2E2E2E2E2E2E2E2E2E2E2E2E2E2E2E2E2E2E2E2E2E2E2E2E2E2E2E2E2E2E2E2E2
310
E2E2E2E2E2E2E2E2E2E2E2E2E2E2E2E2E2E2E2E2E2E2E2E2E2E2E2E2E2E2E2E2E2E2E2E2E2E2E2E2E2E2E2E2E2E2E2E2E2E2E2E2E2E2E2E2E2E2E2E2E2E2E2E2E2E2E2E2E2E2E2E2E2E2E2E2E2E2E2E2E2E2E2E2E2E2E2E2E2E2E2E2E2E2E2E2E2E2E2E2E2E2E2E2E2E2E2E2E2E2E2E2E2E2E2E2E2E2E2E2E2E2E2E2E2E2E2
310
E2E228E228E2E2E2E2E2E2E2E22DE2E2E2E2E2E2E228E2E2E2E2E2E2E2E2E2E2E2E2E2E2E2E2E2E2E2E2E2E2E2E2E2E2E2E2E2E2E2E2E2E2E2E2E2E2E2E2E2E2E2E2E2E2E2E2E2E2E2E2E2E2E2E2E2E2E2E2E2E2E2E2E2E2E2E2E2E2E2E2E2E2E2E2E2E2E2E2E2E2E2E2E2E2E2E2E2E2E2E2E2E2E2E2E2E2E2E2E2E2E2E2E2
310
E2E2E2E2E2E2E2E2E2E2E2E2E2E2E2E2E2E2E2E2E2E2E2E2E2E2E2E2E2E2E2E2E2E2E2E2E2E2E2E2E2E2E2E2E2E2E2E2E2E2E2E2E2E2E2E2E2E2E2E2E2E2E2E2E2E2E2E2E2E2E2E2E2E2E2E2E2E2E2E2E2E2E2E2E2E2E2E2E2E2E2E2E2E2E2E2E2E2E2E2E2E2E2E2E2E2E2E2E2E2E2E2E2E2E2E2E2E2E2E228282828282828
310
28282828282828F5F5F5F5F5F5F5F5F5F5F5F5F5F5F5DCF528282828282828282828282828282828282828E2E2E2E2E2E2E2E2E2E2E2E2E2E2E2E2E2E2E2E2F5F5F5F5F5F5F5F528F5F5F5F5F5F5F5F5E2E2E2E2E2E2E2E2E2E2E2E2E2E2E2E2E2E2E2E2E2E2E2E2E2E2E2E2E2E2E2E2E2E2E2E2E2E2E2E2E2E2E2E2E2E2E2
310
E2E2E2E2E2E2E2E2E2E2E2E2E2E2E2E2E2E2E2E2E2E2E2E2E2E2E2E2E2E2E2E2E2E2E2E2E2E2E2E2E2E2E2E2E2E2E2E2E2E2E2E2E2E2E2E2E2E2E2E2E2E2E2E2E2E2E2E2E2E2E2E2E2E2E2E2E2E2E2E2E2E2E2E2E2E2E2E2E2E2E2E2E2E2E2E2E2E2E2E2E2E2E2E2E2E2E2E2E2E2E2E2E2E2E2E2E2E2E2E2E2E228E2E2E2E2
310
E2E2E2E2E2E228E2F5DC282828282828282828282828282828F5E2E2E2E2E2E2E2E2E2E2E2E2E2E2E2E2E2E228E2E2E2E2E2E2E2E2E2E2E2E2E2E2E2E2E2E2E2F528282828282828282828282828282828F5E2E2E2E2E2E2E2E2E2E2E2E2E2E2E2E2E2E2E2E2E2E2E2E2E2E2E2E2E2E2E2E2E2E2E2E2E2E2E2E2E2E2E2E2E2
310
E2E2E2E2E2E2E2E2E2E2E2E2E2E2E2E2E2E2E2E2E2E2E2E2E2E2E2E2E2E2E2E2E2E2E2E2E2E2E2E2E2E2E2E2E2E2E2E2E2E2E2E2E2E2E2E2E2E2E2E2E2E2E2E2E2E2E2E2E2E2E2E2E2E2E2E2E2E2E2E2E2E2E2E2E2E2E2E2E2E2E2E2E2E2E2E2E2E2E2E2E2E2E2E2E2E2E2E2E2E2E2E2E2E2E2E2E2E2E2E2E2E2E2E228E2E2
310
E2E2E2E2E2E2E2E228E2F5DCE2E2E2E2E2E2E22DE2E2E2E2E2E2E2F5E2E2E2E2E2E2E2E2E2E2E2E2E2E2E2E2E2E228E2E2E2E2E2E2E2E2E2E2E2E2E2E2E2E2E2E2E2F5E2E2E2E2E2E2E2E22DE2E2E2E2E2E2E2F5E2E2E2E2E2E2E2E2E2E2E2E2E2E2E2E2E2E2E2E2E2E2E2E2E2E2E2E2E2E2E2E2E2E2E2E2E2E2E2E2E2E2E2
310
E2E2E2E2E2E2E2E2E2E2E2E2E2E2E2E2E2E2E2E2E2E2E2E2E2E2E2E2E2E2E2E2E2E2E2E2E2E2E2E2E2E2E2E2E2E2E2E2E2E2E2E2E2E2E2E2E2E2E2E2E2E2E2E2E2E2E2E2E2E2E2E2E2E2E2E2E2E2E2E2E2E2E2E2E2E2E2E2E2E2E2E2E2E2E2E2E2E2E2E2E2E2E2E2E2E2E2E2E2E2E2E2E2E2E2E2E2E2E2E2E2E2E2E2E2E228
310
E2E2E2E2E2E2E2E2E2E228E2F5DCE2E2E2E2E2E2E22DF5F5F5E2F5F5E2F5E2E2E2E2E2E2E2E2E2E2E2E2E2E2E2E2E2E228E2E2E2E2E2E2E2E2E2E2E2E2E2E2E2E2E2E2E2F5E2E2E2E2E2E2E2E22DE2E2E2E2E2E2E2F5E2E2E2E2E2E2E2E2E2E2E2E2E2E2E2E2E2E2E2E2E2E2E2E2E2E2E2E2E2E2E2E2E2E2E2E2E2E2E2E2E2
310
E2E2E2E2E2E2E2E2E2E2E2E2E2E2E2E2E2E2E2E2E2E2E2E2E2E2E2E2E2E2E2E2E2E2E2E2E2E2E2E2E2E2E2E2E2E2E2E2E2E2E2E2E2E2E2E2E2E2E2E2E2E2E2E2E2E2E2E2E2E2E2E2E2E2E2E2E2E2E2E2E2E2E2E2E2E2E2E2E2E2E2E2E2E2E2E2E2E2E2E2E2E2E2E2E2E2E2E2E2E2E2E2E2E2E2E2E2E2E2E2E2E2E2E2E2E2E2
310
E228E2E2E2E2E2E2E2E2E2E228E2F5E2E2E2E2E2E2E2E22DF5F5F5E2F5F5E2F5E2E2E2E2E2E2E2E2E2E2E2E2E2E2E2E2E2E228E2E2E2E2E2E2E2E2E2E2E2E2E2E2E2E2E2E2E2F5E2E2E2E2E2E2E2E22DE2E2E2E2E2E2E2F5E2E2E2E2E2E2E2E2E2E2E2E2E2E2E2E2E2E2E2E2E2E2E2E2E2E2E2E2E2E2E2E2E2E2E2E2E2E2E2
310
E2E2E2E2E2E2E2E2E2E2E2E2E2E2E2E2E2E2E2E2E2E2E2E2E2E2E2E2E2E2E2E2E2E2E2E2E2E2E2E2E2E2E2E2E2E2E2E2E2E2E2E2E2E2E2E2E2E2E2E2E2E2E2E2E2E2E2E2E2E2E2E2E2E2E2E2E2E2E2E2E2E2E2E2E2E2E2E2E2E2E2E2E2E2E2E2E2E2E2E2E2E2E2E2E2E2E2E2E2E2E2E2E2E2E2E2E2E2E2E2E2E2E2E2E2E2E2
310
E2E2E228E2E2E2E2E2E2E2E2E2E228E2F5DCE2E2E2E2E2E2E22DF5F5F5F5F5F5E2F5E2E2E2E2E2E2E2E2E2E2E2E2E2E2E2E2E2E228E2E2E2E2E2E2E2E2E2E2E2E2E2E2E2E2E2E2E2F5E2E2E2E2E2E2E2E22DE2E2E2E2E2E2E2F5E2E2E2E2E2E2E2E2E2E2E2E2E2E2E2E2E2E2E2E2E2E2E2E2E2E2E2E2E2E2E2E2E2E2E2E2E2
310
E2E2E2E2E2E2E2E2E2E2E2E2E2E2E2E2E2E2E2E2E2E2E2E2E2E2E2E2E2E2E2E2E2E2E2E2E2E2E2E2E2E2E2E2E2E2E2E2E2E2E2E2E2E2E2E2E2E2E2E2E2E2E2E2E2E2E2E2E2E2E2E2E2E2E2E2E2E2E2E2E2E2E2E2E2E2E2E2E2E2E2E2E2E2E2E2E2E2E2E2E2E2E2E2E2E2E2E2E2E2E2E2E2E2E2E2E2E2E2E2E2E2E2E2E2E2E2
310
E2E2E2E2E228E2E2E2E2E2E2E2E2E2E228E2F5DCE2E2E2E2E2E2E22DE2E2E2E2E2E2E2F5E2E2E2E2E2E2E2E2E2E2E2E2E2E2E2E2DCE228E2E2E2E2E2E2E2E2E2E2E2E2E2E2E2E2E2E2E2F5E2E2E2E2E2E2E2E22DE2E2E2E2E2E2E2F5E2E2E2E2E2E2E2E2E2E2E2E2E2E2E2E2E2E2E2E2E2E2E2E2E2E2E2E2E2E2E2E2E2E2E2
310
E2E2E2E2E2E2E2E2E2E2E2E2E2E2E2E2E2E2E2E2E2E2E2E2E2E2E2E2E2E2E2E2E2E2E2E2E2E2E2E2E2E2E2E2E2E2E2E2E2E2E2E2E2E2E2E2E2E2E2E2E2E2E2E2E2E2E2E2E2E2E2E2E2E2E2E2E2E2E2E2E2E2E2E2E2E2E2E2E2E2E2E2E2E2E2E2E2E2E2E2E2E2E2E2E2E2E2E2E2E2E2E2E2E2E2E2E2E2E2E2E2E2E2E2E2E2E2
310
E2E2E2E2E2E2E228E2E2E2E2E2E2E2E2E2E228E2F5DCE2E2E2E2E2E2E22DE2E2E2E2E2E2E2F5E2E2E2E2E2E2E2E2E2E2E2E2E2E2E2E2DCDCDCE2E2E2E2E2E2E2E2E2E2E2E2E2E2E2E2E2E2E2F5E2E2E2E2E2E2E2E22DE2E2E2E2E2E2E2F5E2E2E2E2E2E2E2E2E2E2E2E2E2E2E2E2E2E2E2E2E2E2E2E2E2E2E2E2E2E2E2E2E2
310
E2E2E2E2E2E2E2E2E2E2E2E2E2E2E2E2E2E2E2E2E2E2E2E2E2E2E2E2E2E2E2E2E2E2E2E2E2E2E2E2E2E2E2E2E2E2E2E2E2E2E2E2E2E2E2E2E2E2E2E2E2E2E2E2E2E2E2E2E2E2E2E2E2E2E2E2E2E2E2E2E2E2E2E2E2E2E2E2E2E2E2E2E2E2E2E2E2E2E2E2E2E2E2E2E2E2E2E2E2E2E2E2E2E2E2E2E2E2E2E2E2E2E2E2E2E2E2
310
E2E2E2E2E2E2E2E2E228E2E2E2E2E2E2E2E2E2E228E2F5DCE2E2E2E2E2E2E22DE2E2E2E2E2E2E2F5E2E2E2E2E2E2E2E2E2E2E2E2E2E2E2E2DCDCDCE2E2E2E2E2E2E2E2E2E2E2E2E2E2E2E2E2E2E2F5E2E2E2E2E2E2E2E22DE2E2E2E2E2E2E2F5E2E2E2E2E2E2E2E2E2E2E2E2E2E2E2E2E2E2E2E2E2E2E2E2E2E2E2E2E2E2E2
310
E2E2E2E2E2E2E2E2E2E2E2E2E2E2E2E2E2E2E2E2E2E2E2E2E2E2E2E2E2E2E2E2E2E2E2E2E2E2E2E2E2E2E2E2E2E2E2E2E2E2E2E2E2E2E2E2E2E2E2E2E2E2E2E2E2E2E2E2E2E2E2E2E2E2E2E2E2E2E2E2E2E2E2E2E2E2E2E2E2E2E2E2E2E2E2E2E2E2E2E2E2E2E2E2E2E2E2E2E2E2E2E2E2E2E2E2E2E2E2E2E2E2E2E2E2E2E2
310
E2E2E2E2E2E2E2E2E2E2E228E2E2E2E2E2E2E2E2E2E228E2F5DCE2E2E2E2E2E2E22DE2E2E2E2E2E2E2F5E2E2E2E2E2E2E2E2E2E2E2E2E2E2E2E2E2E228E2E2E2E2E2E2E2E2E2E2E2E2E2E2E2E2E2E2E2F5E2E2E2E2E2E2E2E22DE2E2E2E2E2E2E2F5E2E2E2E2E2E2E2E2E2E2E2E2E2E2E2E2E2E2E2E2E2E2E2E2E2E2E2E2E2
310
E2E2E2E2E2E2E2E2E2E2E2E2E2E2E2E2E2E2E2E2E2E2E2E2E2E2E2E2E2E2E2E2E2E2E2E2E2E2E2E2E2E2E2E2E2E2E2E2E2E2E2E2E2E2E2E2E2E2E2E2E2E2E2E2E2E2E2E2E2E2E2E2E2E2E2E2E2E2E2E2E2E2E2E2E2E2E2E2E2E2E2E2E2E2E2E2E2E2E2E2E2E2E2E2E2E2E2E2E2E2E2E2E2E2E2E2E2E2E2E2E2E2E2E2E2E2E2
310
E2E2E2E2E2E2E2E2E2E2E2E2E228E2E2E2E2E2E2E2E2E2E228E2F5DCE2E2E2E2E2E2E22DE2E2E2E2E2E2E2F5E2E2E2E2E2E2E2E2E2E2E2E2E2E2E2E2E2E228E2E2E2E2E2E2E2E2E2E2E2E2E2E2E2E2E2E2E2F5E2E2E2E2E2E2E2E22DE2E2E2E2E2E2E2F5E2E2E2E2E2E2E2E2E2E2E2E2E2E2E2E2E2E2E2E2E2E2E2E2E2E2E2
310
E2E2E2E2E2E2E2E2E2E2E2E2E2E2E2E2E2E2E2E2E2E2E2E2E2E2E2E2E2E2E2E2E2E2E2E2E2E2E2E2E2E2E2E2E2E2E2E2E2E2E2E2E2E2E2E2E2E2E2E2E2E2E2E2E2E2E2E2E2E2E2E2E2E2E2E2E2E2E2E2E2E2E2E2E2E2E2E2E2E2E2E2E2E2E2E2E2E2E2E2E2E2E2E2E2E2E2E2E2E2E2E2E2E2E2E2E2E2E2E2E2E2E2E2E2E2E2
310
E2E2E2E2E2E2E2E2E2E2E2E2E2E2E228E2E2E2E2E2E2E2E2E2E228E2F5DCE2E2E2E2E2E2E22DE2E2E2E2E2E2E2F5E2E2E2E2E2E2E2E2E2E2E2E2E2E2E2E2E2E228E2E2E2E2E2E2E2E2E2E2E2E2E2E2E2E2E2E2E2F5E2E2E2E2E2E2E2E22DE2E2E2E2E2E2E2F5E2E2E2E2E2E2E2E2E2E2E2E2E2E2E2E2E2E2E2E2E2E2E2E2E2
310
E2E2E2E2E2E2E2E2E2E2E2E2E2E2E2E2E2E2E2E2E2E2E2E2E2E2E2E2E2E2E2E2E2E2E2E2E2E2E2E2E2E2E2E2E2E2E2E2E2E2E2E2E2E2E2E2E2E2E2E2E2E2E2E2E2E2E2E2E2E2E2E2E2E2E2E2E2E2E2E2E2E2E2E2E2E2E2E2E2E2E2E2E2E2E2E2E2E2E2E2E2E2E2E2E2E2E2E2E2E2E2E2E2E2E2E2E2E2E2E2E2E2E2E2E2E2E2
310
E2E2E2E2E2E2E2E2E2E2E2E2E2E2E2E2E228E2E2E2E2E2E2E2E2E2E228E2F5DCE2E2E2E2E2E2E22DE2E2E2E2E2E2E2F5E2E2E2E2E2E2E2E2E2E2E2E2E2E2E2E2E2E228E2E2E2E2E2E2E2E2E2E2E2E2E2E2E2E2E2E2E2F5E2E2E2E2E2E2E2E22DE2E2E2E2E2E2E2F5E2E2E2E2E2E2E2E2E2E2E2E2E2E2E2E2E2E2E2E2E2E2E2
310
E2E2E2E2E2E2E2E2E2E2E2E2E2E2E2E2E2E2E2E2E2E2E2E2E2E2E2E2E2E2E2E2E2E2E2E2E2E2E2E2E2E2E2E2E2E2E2E2E2E2E2E2E2E2E2E2E2E2E2E2E2E2E2E2E2E2E2E2E2E2E2E2E2E2E2E2E2E2E2E2E2E2E2E2E2E2E2E2E2E2E2E2E2E2E2E2E2E2E2E2E2E2E2E2E2E2E2E2E2E2E2E2E2E2E2E2E2E2E2E2E2E2E2E2E2E2E2
310
E2E2E2E2E2E2E2E2E2E2E2E2E2E2E2E2E2E2E228E2E2E2E2E2E2E2E2E2E228E2F5DCE2E2E2E2E2E2E22DE2E2E2E2E2E2E2F5E2E2E2E2E2E2E2E2E2E2E2E2E2E2E2E2E2E228E2E2E2E2E2E2E2E2E2E2E2E2E2E2E2E2E2E2E2F5E2E2E2E2E2E2E2E22DE2E2E2E2E2E2E2F5E2E2E2E2E2E2E2E2E2E2E2E2E2E2E2E2E2E2E2E2E2
310
E2E2E2E2E2E2E2E2E2E2E2E2E2E2E2E2E2E2E2E2E2E2E2E2E2E2E2E2E2E2E2E2E2E2E2E2E2E2E2E2E2E2E2E2E2E2E2E2E2E2E2E2E2E2E2E2E2E2E2E2E2E2E2E2E2E2E2E2E2E2E2E2E2E2E2E2E2E2E2E2E2E2E2E2E2E2E2E2E2E2E2E2E2E2E2E2E2E2E2E2E2E2E2E2E2E2E2E2E2E2E2E2E2E2E2E2E2E2E2E2E2E2E2E2E2E2E2
310
E2E2E2E2E2E2E2E2E2E2E2E2E2E2E2E2E2E2E2E2E228E2E2E2E2E2E2E2E2E2E228E2F5DCE2E2E2E2E2E2E22DE22DE2E2E2E2E2F5E2E2E2E2E2E2E2E2E2E2E2E2E2E2E2E2E2E228E2E2E2E2E2E2E2E2E2E2E2E2E2E2E2E2E2E2E2F5E2E2E2E2E2E2E2E22DE2E2E2E2E2E2E2F5E2E2E2E2E2E2E2E2E2E2E2E2E2E2E2E2E2E2E2
310
E2E2E2E2E2E2E2E2E2E2E2E2E2E2E2E2E2E2E2E2E2E2E2E2E2E2E2E2E2E2E2E2E2E2E2E2E2E2E2E2E2E2E2E2E2E2E2E2E2E2E2E2E2E2E2E2E2E2E2E2E2E2E2E2E2E2E2E2E2E2E2E2E2E2E2E2E2E2E2E2E2E2E2E2E2E2E2E2E2E2E2E2E2E2E2E2E2E2E2E2E2E2E2E2E2E2E2E2E2E2E2E2E2E2E2E2E2E2E2E2E2E2E2E2E2E2E2
310
E2E2E2E2E2E2E2E2E2E2E2E2E2E2E2E2E2E2E2E2E2E2E228E2E2E2E2E2E2E2E2E2E228E2F5DCE2E2E2E2E2E2E22DE22DE2E2E2E2E2F5E2E2E2E2E2E2E2E2E2E2E2E2E2E2E2E2E2E228E2E2E2E2E2E2E2E2E2E2E2E2E2E2E2E2E2E2E2F5E2E2E2E2E2E2E2E22DE2E2E2E2E2E2E2F5E2E2E2E2E2E2E2E2E2E2E2E2E2E2E2E2E2
310
E2E2E2E2E2E2E2E2E2E2E2E2E2E2E2E2E2E2E2E2E2E2E2E2E2E2E2E2E2E2E2E2E2E2E2E2E2E2E2E2E2E2E2E2E2E2E2E2E2E2E2E2E2E2E2E2E2E2E2E2E2E2E2E2E2E2E2E2E2E2E2E2E2E2E2E2E2E2E2E2E2E2E2E2E2E2E2E2E2E2E2E2E2E2E2E2E2E2E2E2E2E2E2E2E2E2E2E2E2E2E2E2E2E2E2E2E2E2E2E2E2E2E2E2E2E2E2
310
E2E2E2E2E2E2E2E2E2E2E2E2E2E2E2E2E2E2E2E2E2E2E2E2E228E2E2E2E2E2E2E2E2E2E2F5F5F5F5F5F5F5F5F5F5F52DF5F5F5F5F5F5F5F5F5F5F5F5F5F5F5F5F5F5F5F528282828282828E2E2E2E2E2E2E2E2E2F5F5F5F5F5F5F5F5F5F5F5F5F5F5F5F5F5F5F5F5F5F5F5F5F5F5F5F5F5F5F5F5F5F5F5F5F5F5F5E2E2E2E2
310
E2E2E2E2E2E2E2E2E2E2E2E2E2E2E2E2E2E2E2E2E2E2E2E2E2E2E2E2E2E2E2E2E2E2E2E2E2E2E2E2E2E2E2E2E2E2E2E2E2E2E2E2E2E2E2E2E2E2E2E2E2E2E2E2E2E2E2E2E2E2E2E2E2E2E2E2E2E2E2E2E2E2E2E2E2E2E2E2E2E2E2E2E2E2E2E2E2E2E2E2E2E2E2E2E2E2E2E2E2E2E2E2E2E2E2E2E2E2E2E2E2E2E2E2E2E2E2
310
E2E2E2E2E2E2E2E2E2E2E2E2E2E2E2E2E2E2E2E2E2E2E2E2E2E2E228E2E2E2E2E2E2E2E2E2E2F5DCE2E2E2E2E2E2E2E2E22DE22DE2E2E2E2E2E2E2E2E2E2E2E2E2E2E2E2E2F5E2E2E2E2E2E2E2E2E2E2E2E2E2E2E2E2F5E2E2E2F5E2E2E2E2E2E2E2E2E2E2E2E2E2E22DE2E2E2E2E2E2E2E2E2E2E2E2E2F5E2E2E2E2F5E2E2
310
E2E2E2E2E2E2E2E2E2E2E2E2E2E2E2E2E2E2E2E2E2E2E2E2E2E2E2E2E2E2E2E2E2E2E2E2E2E2E2E2E2E2E2E2E2E2E2E2E2E2E2E2E2E2E2E2E2E2E2E2E2E2E2E2E2E2E2E2E2E2E2E2E2E2E2E2E2E2E2E2E2E2E2E2E2E2E2E2E2E2E2E2E2E2E2E2E2E2E2E2E2E2E2E2E2E2E2E2E2E2E2E2E2E2E2E2E2E2E2E2E2E2E2E2E2E2E2
310
E2E2E2E2E2E2E2E2E2E2E2E2E2E2E2E2E2E2E2E2E2E2E2E2E2E2E2E2E228E2E2E2E2E2E2E2E2E2E2F5DCE2E2E2E2E2E2E2E2E22DE22DE2E2E2E2E2E2E2E2E2E2E2E2E2E2E2E2E2F5E2E2E2E2E2E2E2E2E2E2E2E2E2E2E2E2F5E2E2E2F5E2E2E2E2E2E2E2E2E2E2E2E2E2E22DE2E2E2E2E2E2E2E2E2E2E2E2E2F5E2E2E2E2F5
310
E2E2E2E2E2E2E2E2E2E2E2E2E2E2E2E2E2E2E2E2E2E2E2E2E2E2E2E2E2E2E2E2E2E2E2E2E2E2E2E2E2E2E2E2E2E2E2E2E2E2E2E2E2E2E2E2E2E2E2E2E2E2E2E2E2E2E2E2E2E2E2E2E2E2E2E2E2E2E2E2E2E2E2E2E2E2E2E2E2E2E2E2E2E2E2E2E2E2E2E2E2E2E2E2E2E2E2E2E2E2E2E2E2E2E2E2E2E2E2E2E2E2E2E2E2E2E2
310
E2E2E2E2E2E2E2E2E2E2E2E2E2E2E2E2E2E2E2E2E2E2E2E2E2E2E2E2E2E2E228E2E2E2E2E2E2E2E2E2E2F5DCE2E2E2E2E2E2E2E2E2E2E22DE2E2E2E2E2E2E2E2E2E2E2E2E2E2E2E2E2F5E2E2E2E2E2E2E2E2E2E2E2E2E2E2E2E2F5E2E2E2F5E2E2E2E2E2E2E2E2E2E2E2E2E2E22DE2E2E2E2E2E2E2E2E2E2E2E2E2F5E2E2E2
310
E2F5E2E2E2E2E2E2E2E2E2E2E2E2E2E2E2E2E2E2E2E2E2E2E2E2E2E2E2E2E2E2E2E2E2E2E2E2E2E2E2E2E2E2E2E2E2E2E2E2E2E2E2E2E2E2E2E2E2E2E2E2E2E2E2E2E2E2E2E2E2E2E2E2E2E2E2E2E2E2E2E2E2E2E2E2E2E2E2E2E2E2E2E2E2E2E2E2E2E2E2E2E2E2E2E2E2E2E2E2E2E2E2E2E2E2E2E2E2E2E2E2E2E2E2E2E2
310
E2E2E2E2E2E2E2E2E2E2E2E2E2E2E2E2E2E2E2E2E2E2E2E2E2E2E2E2E2E2E2E2E228E2E2E2E2E2E2E2E2E2E2F5DCE2E2E2E2E2E2E2E2E2E2E22DE2E2E2E2E2E2E2E2E2E2E2E2E2E2E2E2E2F5E2E2E2E2E2E2E2E2E2E2E2E2E2E2E2E2F5E2E2E2F5E2E2E2E2E2E2E2E2E2E2E2E2E2E22DE2E2E2E2E2E2E2E2E2E2E2E2E2F5E2
310
E2E2E2F5E2E2E2E2E2E2E2E2E2E2E2E2E2E2E2E2E2E2E2E2E2E2E2E2E2E2E2E2E2E2E2E2E2E2E2E2E2E2E2E2E2E2E2E2E2E2E2E2E2E2E2E2E2E2E2E2E2E2E2E2E2E2E2E2E2E2E2E2E2E2E2E2E2E2E2E2E2E2E2E2E2E2E2E2E2E2E2E2E2E2E2E2E2E2E2E2E2E2E2E2E2E2E2E2E2E2E2E2E2E2E2E2E2E2E2E2E2E2E2E2E2E2E2
310
E2E2E2E2E2E2E2E2E2E2E2E2E2E2E2E2E2E2E2E2E2E2E2E2E2E2E2E2E2E2E2E2E2E2E228E2E2E2E2E2E2E2E2E2E2F5DCE2E2E2E2E2E2E2E2E2E2E22DE2E2E2E2E2E2E2E2E2E2E2E2E2E2E2E2E2F5E2E2E2E2E2E2E2E2E2E2E2E2E2E2E2E2F5E2E2E2F5E2E2E2E2E2E2E2E2E2E2E2E2E2E22DE2E2E2E2E2E2E2E2E2E2E2E2E2
310
F5E2E2E2E2F5E2E2E2E2E2E2E2E2E2E2E2E2E2E2E2E2E2E2E2E2E2E2E2E2E2E2E2E2E2E2E2E2E2E2E2E2E2E2E2E2E2E2E2E2E2E2E2E2E2E2E2E2E2E2E2E2E2E2E2E2E2E2E2E2E2E2E2E2E2E2E2E2E2E2E2E2E2E2E2E2E2E2E2E2E2E2E2E2E2E2E2E2E2E2E2E2E2E2E2E2E2E2E2E2E2E2E2E2E2E2E2E2E2E2E2E2E2E2E2E2E2
310
E2E2E2E2E2E2E2E2E2E2E2E2E2E2E2E2E2E2E2E2E2E2E2E2E2E2E2E2E2E2E2E2E2E2E2E2E228E2E2E2E2E2E2E2E2E2E2F5DCE2E2E2E2E2E2E2E2E2E2E22DE2E2E2E2E2E2E2E2E2E2E2E2E2E2E2E2E2F5E2E2E2E2E2E2E2E2E2E2E2E2E2E2E2E2F5E2E2E2F5E2E2E2E2E2E2E2E2E2E2E2E2E2E22DE2E2E2E2E2E2E2E2E2E2E2
310
E2E2F5E2E2E2E2F5E2E2E2E2E2E2E2E2E2E2E2E2E2E2E2E2E2E2E2E2E2E2E2E2E2E2E2E2E2E2E2E2E2E2E2E2E2E2E2E2E2E2E2E2E2E2E2E2E2E2E2E2E2E2E2E2E2E2E2E2E2E2E2E2E2E2E2E2E2E2E2E2E2E2E2E2E2E2E2E2E2E2E2E2E2E2E2E2E2E2E2E2E2E2E2E2E2E2E2E2E2E2E2E2E2E2E2E2E2E2E2E2E2E2E2E2E2E2E2
310
E2E2E2E2E2E2E2E2E2E2E2E2E2E2E2E2E2E2E2E2E2E2E2E2E2E2E2E2E2E2E2E2E2E2E2E2E2E2E228E2E2E2E2E2E2E2E2E2E2F5DCE2E2E2E2E2E2E2E2E2E2E22DE2E2E2E2E2E2E2E2E2E2E2E2E2E2E2E2E2F5E2E2E2E2E2E2E2E2E2E2E2E2E2E2E2E2F5E2E2E2F5E2E2E2E2E2E2E2E2E2E2E2E2E2E22DE2E2E2E2E2E2E2E2E2
310
E2E2E2E2F5E2E2E2E2F5E2E2E2E2E2E2E2E2E2E2E2E2E2E2E2E2E2E2E2E2E2E2E2E2E2E2E2E2E2E2E2E2E2E2E2E2E2E2E2E2E2E2E2E2E2E2E2E2E2E2E2E2E2E2E2E2E2E2E2E2E2E2E2E2E2E2E2E2E2E2E2E2E2E2E2E2E2E2E2E2E2E2E2E2E2E2E2E2E2E2E2E2E2E2E2E2E2E2E2E2E2E2E2E2E2E2E2E2E2E2E2E2E2E2E2E2E2
310
E2E2E2E2E2E2E2E2E2E2E2E2E2E2E2E2E2E2E2E2E2E2E2E2E2E2E2E2E2E2E2E2E2E2E2E2E2E2E2E2E228E2E2E2E2E2E2E2E2E2E2F5DCE2E2E2E2E2E2E2E2E2E2E22DE2E2E2E2E2E2E2E2E2E2E2E2E2E2E2E2E2F5E2E2E2E2E2E2E2E2E2E2E2E2E2E2E2E2F5E2E2E2F5E2E2E2E2E2E2E2E2E2E2E2E2E2E22DE2E2E2E2E2E2E2
310
E2E2E2E2E2E2F5E2E2E2E2F5E2E2E2E2E2E2E2E2E2E2E2E2E2E2E2E2E2E2E2E2E2E2E2E2E2E2E2E2E2E2E2E2E2E2E2E2E2E2E2E2E2E2E2E2E2E2E2E2E2E2E2E2E2E2E2E2E2E2E2E2E2E2E2E2E2E2E2E2E2E2E2E2E2E2E2E2E2E2E2E2E2E2E2E2E2E2E2E2E2E2E2E2E2E2E2E2E2E2E2E2E2E2E2E2E2E2E2E2E2E2E2E2E2E2E2
310
E2E2E2E2E2E2E2E2E2E2E2E2E2E2E2E2E2E2E2E2E2E2E2E2E2E2E2E2E2E2E2E2E2E2E2E2E2E2E2E2E2E2E228E2E2E2E2E2E2E2E2E2E2F5DCE2E2E2E2E2E2E2E2E2E2E22DE2E2E2E2E2E2E2E2E2E2E2E2E2E2E2E2E2F5E2E2E2E2E2E2E2E2E2E2E2E2E2E2E2E2F5E2E2E2F5E2E2E2E2E2E2E2E2E2E2E2E2E2E22DE2E2E2E2E2
310
E2E2E2E2E2E2E2E2F5E2E2E2E2F5E2E2E2E2E2E2E2E2E2E2E2E2E2E2E2E2E2E2E2E2E2E2E2E2E2E2E2E2E2E2E2E2E2E2E2E2E2E2E2E2E2E2E2E2E2E2E2E2E2E2E2E2E2E2E2E2E2E2E2E2E2E2E2E2E2E2E2E2E2E2E2E2E2E2E2E2E2E2E2E2E2E2E2E2E2E2E2E2E2E2E2E2E2E2E2E2E2E2E2E2E2E2E2E2E2E2E2E2E2E2E2E2E2
310
E2E2E2E2E2E2E2E2E2E2E2E2E2E2E2E2E2E2E2E2E2E2E2E2E2E2E2E2E2E2E2E2E2E2E2E2E2E2E2E2E2E2E2E2E228E2E2E2E2E2E2E2E2E2E2F5DCE2E2E2E2E2E2E2E2E2E2E22DE2E2E2E2E2E2E2E2E2E2E2E2E2E2E2E2E2F5E2E2E2E2E2E2E2E2E2E2E2E2E2E2E2E2F5E2E2E2F5E2E2E2E2E2E2E2E2E2E2E2E2E2E22DE2E2E2
310
E2E2E2E2E2E2E2E2E2E2F5E2E2E2E2F5E2E2E2E2E2E2E2E2E2E2E2E2E2E2E2E2E2E2E2E2E2E2E2E2E2E2E2E2E2E2E2E2E2E2E2E2E2E2E2E2E2E2E2E2E2E2E2E2E2E2E2E2E2E2E2E2E2E2E2E2E2E2E2E2E2E2E2E2E2E2E2E2E2E2E2E2E2E2E2E2E2E2E2E2E2E2E2E2E2E2E2E2E2E2E2E2E2E2E2E2E2E2E2E2E2E2E2E2E2E2E2
310
E2E2E2E2E2E2E2E2E2E2E2E2E2E2E2E2E2E2E2E2E2E2E2E2E2E2E2E2E2E2E2E2E2E2E2E2E2E2E2E2E2E2E2E2E2E2E228E2E2E2E2E2E2E2E2E2E2F5DCE2E2E2E2E2E2E2E2E2E2E22DE2E2E2E2E2E2E2E2E2E2E2E2E2E2E2E2E2F5E2E2E2E2E2E2E2E2E2E2E2E2E2E2E2E2F5E2E2E2F5E2E2E2E2E2E2E2E2E2E2E2E2E2E22DE2
310
E2E2E2E2E2E2E2E2E2E2E2E2F5E2E2E2E2F5E2E2E2E2E2E2E2E2E2E2E2E2E2E2E2E2E2E2E2E2E2E2E2E2E2E2E2E2E2E2E2E2E2E2E2E2E2E2E2E2E2E2E2E2E2E2E2E2E2E2E2E2E2E2E2E2E2E2E2E2E2E2E2E2E2E2E2E2E2E2E2E2E2E2E2E2E2E2E2E2E2E2E2E2E2E2E2E2E2E2E2E2E2E2E2E2E2E2E2E2E2E2E2E2E2E2E2E2E2
310
E2E2E2E2E2E2E2E2E2E2E2E2E2E2E2E2E2E2E2E2E2E2E2E2E2E2E2E2E2E2E2E2E2E2E2E2E2E2E2E2E2E2E2E2E2E2E2E2E228E2E2E2E2E2E2E2E2E2E2F5DCE2E2E2E2E2E2E2E2E2E2E22DE2E2E2E2E2E2E2E2E2E2E2E2E2E2E2E2E2F5E2E2E2E2E2E2E2E2E2E2E2E2E2E2E2E2F5E2E2E2F5E2E2E2E2E2E2E2E2E2E2E2E2E2E2
310
2DE2E2E2E2E2E2E2E2E2E2E2E2E2F5E2E2E2E2F5E2E2E2E2E2E2E2E2E2E2E2E2E2E2E2E2E2E2E2E2E2E2E2E2E2E2E2E2E2E2E2E2E2E2E2E2E2E2E2E2E2E2E2E2E2E2E2E2E2E2E2E2E2E2E2E2E2E2E2E2E2E2E2E2E2E2E2E2E2E2E2E2E2E2E2E2E2E2E2E2E2E2E2E2E2E2E2E2E2E2E2E2E2E2E2E2E2E2E2E2E2E2E2E2E2E2E2
310
E2E2E2E2E2E2E2E2E2E2E2E2E2E2E2E2E2E2E2E2E2E2E2E2E2E2E2E2E2E2E2E2E2E2E2E2E2E2E2E2E2E2E2E2E2E2E2E2E2E2E228E2E2E2E2E2E2E2E2E2E2F5DCE2E2E2E2E2E2E2E2E2E2E22DE2E2E2E2E2E2E2E2E2E2E2E2E2E2E2E2E2F5E2E2E2E2E2E2E2E2E2E2E2E2E2E2E2E2F5E2E2E2F5E2E2E2E2E2E2E2E2E2E2E2E2
310
E2E22DE2E2E2E2E2E2E2E2E2E2E2E2E2F5E2E2E2E2F5E2E2E2E2E2E2E2E2E2E2E2E2E2E2E2E2E2E2E2E2E2E2E2E2E2E2E2E2E2E2E2E2E2E2E2E2E2E2E2E2E2E2E2E2E2E2E2E2E2E2E2E2E2E2E2E2E2E2E2E2E2E2E2E2E2E2E2E2E2E2E2E2E2E2E2E2E2E2E2E2E2E2E2E2E2E2E2E2E2E2E2E2E2E2E2E2E2E2E2E2E2E2E2E2E2
310
E2E2E2E2E2E2E2E2E2E2E2E2E2E2E2E2E2E2E2E2E2E2E2E2E2E2E2E2E2E2E2E2E2E2E2E2E2E2E2E2E2E2E2E2E2E2E2E2E2E2E2E2E228E2E2E2E2E2E2E2E2E2E2F5DCE2E2E2E2E2E2E2E2E2E2E22DE2E2E2E2E2E2E2E2E2E2E2E2E2E2E2E2E2F5E2E2E2E2E2E2E2E2E2E2E2E2E2E2E2E2F5E2E2E2F5E2E2E2E2E2E2E2E2E2E2
310
E2E2E2E22DE2E2E2E2E2E2E2E2E2E2E2E2E2F5E2E2E2E2F5E2E2E2E2E2E2E2E2E2E2E2E2E2E2E2E2E2E2E2E2E2E2E2E2E2E2E2E2E2E2E2E2E2E2E2E2E2E2E2E2E2E2E2E2E2E2E2E2E2E2E2E2E2E2E2E2E2E2E2E2E2E2E2E2E2E2E2E2E2E2E2E2E2E2E2E2E2E2E2E2E2E2E2E2E2E2E2E2E2E2E2E2E2E2E2E2E2E2E2E2E2E2E2
310
E2E2E2E2E2E2E2E2E2E2E2E2E2E2E2E2E2E2E2E2E2E2E2E2E2E2E2E2E2E2E2E2E2E2E2E2E2E2E2E2E2E2E2E2E2E2E2E2E2E2E2E2E2E2E228E2E2E2E2E2E2E2E2E2E2F5DCE2E2E2E2E2E2E2E2E2E2E22DE2E2E2E2E2E2E2E2E2E2E2E2E2E2E2E2E2F5E2E2E2E2E2E2E2E2E2E2E2E2E2E2E2E2F5E2E2E2F5E2E2E2E2E2E2E2E2
310
E2E2E2E2E2E22DE2E2E2E2E2E2E2E2E2E2E2E2E2F5E2E2E2E2F5E2E2E2E2E2E2E2E2E2E2E2E2E2E2E2E2E2E2E2E2E2E2E2E2E2E2E2E2E2E2E2E2E2E2E2E2E2E2E2E2E2E2E2E2E2E2E2E2E2E2E2E2E2E2E2E2E2E2E2E2E2E2E2E2E2E2E2E2E2E2E2E2E2E2E2E2E2E2E2E2E2E2E2E2E2E2E2E2E2E2E2E2E2E2E2E2E2E2E2E2E2
310
E2E2E2E2E2E2E2E2E2E2E2E2E2E2E2E2E2E2E2E2E2E2E2E2E2E2E2E2E2E2E2E2E2E2E2E2E2E2E2E2E2E2E2E2E2E2E2E2E2E2E2E2E2E2E2DCE2DCE2E2E2E2E2E2E2E2E2E2F5DCE2E2E2E2E2E2E2E2E2E2E22DE2E2E2E2E2E2E2E2E2E2E2E2E2E2E2E2E2F5E2E2E2E2E2E2E2E2E2E2E2E2E2E2E2E2F5E2E2E2F5E2E2E2E2E2E2
310
E2E2E2E2E2E2E2E22DE2E2E2E2E2E2E2E2E2E2E2E2E2F5E2E2E2E2F5E2E2E2E2E2E2E2E2E2E2E2E2E2E2E2E2E2E2E2E2E2E2E2E2E2E2E2E2E2E2E2E2E2E2E2E2E2E2E2E2E2E2E2E2E2E2E2E2E2E2E2E2E2E2E2E2E2E2E2E2E2E2E2E2E2E2E2E2E2E2E2E2E2E2E2E2E2E2E2E2E2E2E2E2E2E2E2E2E2E2E2E2E2E2E2E2E2E2E2
310
E2E2E2E2E2E2E2E2E2E2E2E2E2E2E2E2E2E2E2E2E2E2E2E2E2E2E2E2E2E2E2E2E2E2E2E2E2E2E2E2E2E2E2E2E2E2E2E2E2E2E2E2E2E2E2E2E2DCDCDCE2E2E2E2E2E2E2E2E2E2F5DCE2E2E2E2E2E2E2E2E2E2E22DE2E2E2E2E2E2E2E2E2E2E2E2E2E2E2E2E2F5E2E2E2E2E2E2E2E2E2E2E2E2E2E2E2E2F5E2E2E2F5E2E2E2E2
310
E2E2E2E2E2E2E2E2E2E22DE2E2E2E2E2E2E2E2E2E2E2E2E2F5E2E2E2E2F5E2E2E2E2E2E2E2E2E2E2E2E2E2E2E2E2E2E2E2E2E2E2E2E2E2E2E2E2E2E2E2E2E2E2E2E2E2E2E2E2E2E2E2E2E2E2E2E2E2E2E2E2E2E2E2E2E2E2E2E2E2E2E2E2E2E2E2E2E2E2E2E2E2E2E2E2E2E2E2E2E2E2E2E2E2E2E2E2E2E2E2E2E2E2E2E2E2
310
E2E2E2E2E2E2E2E2E2E2E2E2E2E2E2E2E2E2E2E2E2E2E2E2E2E2E2E2E2E2E2E2E2E2E2E2E2E2E2E2E2E2E2E2E2E2E2E2E2E2E2E2E2E2E2E2E2E2E2DCDCDCE2E2E2E2E2E2E2E2E2E2F5DCE2E2E2E2E2E2E2E2E2E2E22DE2E2E2E2E2E2E2E2E2E2E2E2E2E2E2E2E2F5E2E2E2E2E2E2E2E2E2E2E2E2E2E2E2E2F5E2E2E2F5E2E2
310
E2E2E2E2E2E2E2E2E2E2E2E22DE2E2E2E2E2E2E2E2E2E2E2E2E2F5E2E2E2E2F5E2E2E2E2E2E2E2E2E2E2E2E2E2E2E2E2E2E2E2E2E2E2E2E2E2E2E2E2E2E2E2E2E2E2E2E2E2E2E2E2E2E2E2E2E2E2E2E2E2E2E2E2E2E2E2E2E2E2E2E2E2E2E2E2E2E2E2E2E2E2E2E2E2E2E2E2E2E2E2E2E2E2E2E2E2E2E2E2E2E2E2E2E2E2E2
310
E2E2E2E2E2E2E2E2E2E2E2E2E2E2E2E2E2E2E2E2E2E2E2E2E2E2E2E2E2E2E2E2E2E2E2E2E2E2E2E2E2E2E2E2E2E2E2E2E2E2E2E2E2E2E2E2E2E2E2E2E2DCDCDCE2E2E2E2E2E2E2E2E2E2F5DCE2E2E2E2E2E2E2E2E2E2E22DE2E2E2E2E2E2E2E2E2E2E2E2E2E2E2E2E2F5E2E2E2E2E2E2E2E2E2E2E2E2E2E2E2E2F5E2E2E2F5
310
E2E2E2E2E2E2E2E2E2E2E2E2E2E22DE2E2E2E2E2E2E2E2E2E2E2E2E2F5E2E2E2E2F5E2E2E2E2E2E2E2E2E2E2E2E2E2E2E2E2E2E2E2E2E2E2E2E2E2E2E2E2E2E2E2E2E2E2E2E2E2E2E2E2E2E2E2E2E2E2E2E2E2E2E2E2E2E2E2E2E2E2E2E2E2E2E2E2E2E2E2E2E2E2E2E2E2E2E2E2E2E2E2E2E2E2E2E2E2E2E2E2E2E2E2E2E2
310
E2E2E2E2E2E2E2E2E2E2E2E2E2E2E2E2E2E2E2E2E2E2E2E2E2E2E2E2E2E2E2E2E2E2E2E2E2E2E2E2E2E2E2E2E2E2E2E2E2E2E2E2E2E2E2E2E2E2E2E2E2E2E2E2E228E2E2E2E2E2E2E2E2E2E2F5DCE2E2E2E2E2E2E2E2E2E2E22DE2E2E2E2E2E2E2E2E2E2E2E2E2E2E2E2E2F5E2E2E2E2E2E2E2E2E2E2E2E2E2E2E2E2F5E2E2
310
E2F5E2E2E2E2E2E2E2E2E2E2E2E2E2E22DE2E2E2E2E2E2E2E2E2E2E2E2E2F5E2E2E2E2F5E2E2E2E2E2E2E2E2E2E2E2E2E2E2E2E2E2E2E2E2E2E2E2E2E2E2E2E2E2E2E2E2E2E2E2E2E2E2E2E2E2E2E2E2E2E2E2E2E2E2E2E2E2E2E2E2E2E2E2E2E2E2E2E2E2E2E2E2E2E2E2E2E2E2E2E2E2E2E2E2E2E2E2E2E2E2E2E2E2E2E2
310
E2E2E2E2E2E2E2E2E2E2E2E2E2E2E2E2E2E2E2E2E2E2E2E2E2E2E2E2E2E2E2E2E2E2E2E2E2E2E2E2E2E2E2E2E2E2E2E2E2E2E2E2E2E2E2E2E2E2E2E2E2E2E2E2E2E2E228E2E2E2E2E2E2E2E2E2E2F5DCE2E2E2E2E2E2E2E2E2E2E22DE2E2E2E2E2E2E2E2E2E2E2E2E2E2E2E2E2F5E2E2E2E2E2E2E2E2E2E2E2E2E2E2E2E2F5
310
E2E2E2F5E2E2E2E2E2E2E2E2E2E2E2E2E2E22DE2E2E2E2E2E2E2E2E2E2E2E2E2F5E2E2E2E2F5E2E2E2E2E2E2E2E2E2E2E2E2E2E2E2E2E2E2E2E2E2E2E2E2E2E2E2E2E2E2E2E2E2E2E2E2E2E2E2E2E2E2E2E2E2E2E2E2E2E2E2E2E2E2E2E2E2E2E2E2E2E2E2E2E2E2E2E2E2E2E2E2E2E2E2E2E2E2E2E2E2E2E2E2E2E2E2E2E2
310
E2E2E2E2E2E2E2E2E2E2E2E2E2E2E2E2E2E2E2E2E2E2E2E2E2E2E2E2E2E2E2E2E2E2E2E2E2E2E2E2E2E2E2E2E2E2E2E2E2E2E2E2E2E2E2E2E2E2E2E2E2E2E2E2E2E2E2E2E228E2E2E2E2E2E2E2E2E2E2F5DCE2E2E2E2E2E2E2E2E2E2E22DE2E2E2E2E2E2E2E2E2E2E2E2E2E2E2E2E2F5E2E2E2E2E2E2E2E2E2E2E2E2E2E2E2
310
E2F5E2E2E2F5E2E2E2E2E2E2E2E2E2E2E2E2E2E22DE2E2E2E2E2E2E2E2E2E2E2E2E2F5E2E2E2E2F5E2E2E2E2E2E2E2E2E2E2E2E2E2E2E2E2E2E2E2E2E2E2E2E2E2E2E2E2E2E2E2E2E2E2E2E2E2E2E2E2E2E2E2E2E2E2E2E2E2E2E2E2E2E2E2E2E2E2E2E2E2E2E2E2E2E2E2E2E2E2E2E2E2E2E2E2E2E2E2E2E2E2E2E2E2E2E2
310
E2E2E2E2E2E2E2E2E2E2E2E2E2E2E2E2E2E2E2E2E2E2E2E2E2E2E2E2E2E2E2E2E2E2E2E2E2E2E2E2E2E2E2E2E2E2E2E2E2E2E2E2E2E2E2E2E2E2E2E2E2E2E2E2E2E2E2E2E2E2E228E2E2E2E2E2E2E2E2E2E2F5DCE2E2E2E2E2E2E2E2E2E2E22DE2E2E2E2E2E2E2E2E2E2E2E2E2E2E2E2E2F5E2E2E2E2E2E2E2E2E2E2E2E2E2
310
E2E2E2F5E2E2E2F5E2E2E2E2E2E2E2E2E2E2E2E2E2E22DE2E2E2E2E2E2E2E2E2E2E2E2E2F5E2E2E2E2F5E2E2E2E2E2E2E2E2E2E2E2E2E2E2E2E2E2E2E2E2E2E2E2E2E2E2E2E2E2E2E2E2E2E2E2E2E2E2E2E2E2E2E2E2E2E2E2E2E2E2E2E2E2E2E2E2E2E2E2E2E2E2E2E2E2E2E2E2E2E2E2E2E2E2E2E2E2E2E2E2E2E2E2E2E2
310
E2E2E2E2E2E2E2E2E2E2E2E2E2E2E2E2E2E2E2E2E2E2E2E2E2E2E2E2E2E2E2E2E2E2E2E2E2E2E2E2E2E2E2E2E2E2E2E2E2E2E2E2E2E2E2E2E2E2E2E2E2E2E2E2E2E2E2E2E2E2E2E2E228E2E2E2E2E2E2E2E2E2E2F5DCDCDCDCDCE2E2E2E2E2E2E22DE2E2E2E2E2E2E2E2E2E2E2E2E2E2E2E2E2F5E2E2E2E2E2E2E2E2E2E2E2
310
E2E2E2E2E2F5E2E2E2F5E2E2E2E2E2E2E2E2E2E2E2E2E2E22DE2E2E2E2E2E2E2E2E2E2E2E2E2F5E2E2E2E2F5E2E2E2E2E2E2E2E2E2E2E2E2E2E2E2E2E2E2E2E2E2E2E2E2E2E2E2E2E2E2E2E2E2E2E2E2E2E2E2E2E2E2E2E2E2E2E2E2E2E2E2E2E2E2E2E2E2E2E2E2E2E2E2E2E2E2E2E2E2E2E2E2E2E2E2E2E2E2E2E2E2E2E2
310
E2E2E2E2E2E2E2E2E2E2E2E2E2E2E2E2E2E2E2E2E2E2E2E2E2E2E2E2E2E2E2E2E2E2E2E2E2E2E2E2E2E2E2E2E2E2E2E2E2E2E2E2E2E2E2E2E2E2E2E2E2E2E2E2E2E2E2E2E2E2E2E2E2E2E228E2E2E2E2E2E2E2E2E2E2DCDCDCDCDCDCDCE2E2E2E2E2E22DE2E2E2E2E2E2E2E2E2E2E2E2E2E2E2E2E2F5E2E2E2E2E2E2E2E2E2
310
E2E2E2E2E2E2E2F5E2E2E2F5E2E2E2E2E2E2E2E2E2E2F5F5F5F528F5F5F5E2E2E2E2E2E2E2E2E2E2F5E2E2E2E2F5E2E2E2E2E2E2E2E2E2E2E2E2E2E2E2E2E2E2E2E2E2E2E2E2E2E2E2E2E2E2E2E2E2E2E2E2E2E2E2E2E2E2E2E2E2E2E2E2E2E2E2E2E2E2E2E2E2E2E2E2E2E2E2E2E2E2E2E2E2E2E2E2E2E2E2E2E2E2E2E2E2
310
E2E2E2E2E2E2E2E2E2E2E2E2E2E2E2E2E2E2E2E2E2E2E2E2E2E2E2E2E2E2E2E2E2E2E2E2E2E2E2E2E2E2E2E2E2E2E2E2E2E2E2E2E2E2E2E2E2E2E2E2E2E2E2E2E2E2E2E2E2E2E2E2E2E2E2E2E228E2E2E2E2E2E2E2E2E2E2F5DCE2E2E2E2E2DCDCDCDCDCE22DE2E2E2E2E2E2E2E2E2E2E2E2E2E2E2E2E2F5E2E2E2E2E2E2E2
310
E2E2E2E2E2E2E2E2E2F5E2E2E2F5E2E2E2E2E2E2E2E2E2F5F5F5F5F5F5F5F5F5F5F5E2E2E2E2E2E2E2E2F5E2E2E2E2F5E2E2E2E2E2E2E2E2E2E2E2E2E2E2E2E2E2E2E2E2E2E2E2E2E2E2E2E2E2E2E2E2E2E2E2E2E2E2E2E2E2E2E2E2E2E2E2E2E2E2E2E2E2E2E2E2E2E2E2E2E2E2E2E2E2E2E2E2E2E2E2E2E2E2E2E2E2E2E2
310
E2E2E2E2E2E2E2E2E2E2E2E2E2E2E2E2E2E2E2E2E2E2E2E2E2E2E2E2E2E2E2E2E2E2E2E2E2E2E2E2E2E2E2E2E2E2E2E2E2E2E2E2E2E2E2E2E2E2E2E2E2E2E2E2E2E2E2E2E2E2E2E2E2E2E2E2E2E2E228E2E2E2E2E2E2E2E2E2E2F5DCE2E2E2E2E2E2E2E2E2DCE22DE2E2E2E2E2E2E2E2E2E2E2E2E2E2E2E2E2F5E2E2E2E2E2
310
E2E2E2E2E2E2E2E2E2E2E2F5E2E2E2F5E2E2E2E2E2E2E2F5F5F5F5E2E2E22DE2E2F5F5F5F5E2E2E2E2E2E2E2F5E2E2E2E2F5E2E2E2E2E2E2E2E2E2E2E2E2E2E2E2E2E2E2E2E2E2E2E2E2E2E2E2E2E2E2E2E2E2E2E2E2E2E2E2E2E2E2E2E2E2E2E2E2E2E2E2E2E2E2E2E2E2E2E2E2E2E2E2E2E2E2E2E2E2E2E2E2E2E2E2E2E2
310
E2E2E2E2E2E2E2E2E2E2E2E2E2E2E2E2E2E2E2E2E2E2E2E2E2E2E2E2E2E2E2E2E2E2E2E2E2E2E2E2E2E2E2E2E2E2E2E2E2E2E2E2E2E2E2E2E2E2E2E2E2E2E2E2E2E2E2E2E2E2E2E2E2E2E2E2E2E2E2E2E228E2E2E2E2E2E2E2E2E2E2F5DCE2E2E2E2E2E2E2E2E2DCE22DE2E2E2E2E2E2E2E2E2E2E2E2E2E2E2E2E2F5E2E2E2
310
E2E2E2E2E2E2E2E2E2E2E2E2E2F5E2E2E2F5E2E2E2E2E2E2F5F5F5E2E2E2E2E22DE2E2E2E2F5F5F5E2E2E2E2E2E2F5E2E2E2E2F5E2E2E2E2E2E2E2E2E2E2E2E2E2E2E2E2E2E2E2E2E2E2E2E2E2E2E2E2E2E2E2E2E2E2E2E2E2E2E2E2E2E2E2E2E2E2E2E2E2E2E2E2E2E2E2E2E2E2E2E2E2E2E2E2E2E2E2E2E2E2E2E2E2E2E2
310
E2E2E2E2E2E2E2E2E2E2E2E2E2E2E2E2E2E2E2E2E2E2E2E2E2E2E2E2E2E2E2E2E2E2E2E2E2E2E2E2E2E2E2E2E2E2E2E2E2E2E2E2E2E2E2E2E2E2E2E2E2E2E2E2E2E2E2E2E2E2E2E2E2E2E2E2E2E2E2E2E2E2E228E2E2E2E2E2E2E2E2E2E2F5DCE2E2E2E2E2E2E2E2E2DCE22DE2E2E2E2E2E2E2E2E2E2E2E2E2E2E2E2E22828
310
282828282828E2E2E2E2E2E2E2E2E2F5E2E2E2F5E2E2E2E2E2F5F5F5F5E2E2E2E2E22DE2E2E2E2E2F5F5F5E2E2E2E2E2F5E2E2E2E2F5E2E2E2E2E2E2E2E2E2E2E2E2E2E2E2E2E2E2E2E2E2E2E2E2E2E2E2E2E2E2E2E2E2E2E2E2E2E2E2E2E2E2E2E2E2E2E2E2E2E2E2E2E2E2E2E2E2E2E2E2E2E2E2E2E2E2E2E2E2E2E2E2E2
310
E2E2E2E2E2E2E2E2E2E2E2E2E2E2E2E2E2E2E2E2E2E2E2E2E2E2E2E2E2E2E2E2E2E2E2E2E2E2E2E2E2E2E2E2E2E2E2E2E2E2E2E2E2E2E2E2E2E2E2E2E2E2E2E2E2E2E2E2E2E2E2E2E2E2E2E2E2E2E2E2E2E2E2E2E228E2E2E2E2E2E2E2E2E2E2F5DCE2E2E2E2E2E2E2E2E2DCE22DE2E2E2E2E2E2E2E2E2E2E2E2E2E2E2E2E2
310
28E2E2DCDCDCE228E2E2E2E2E2E2E2E2E2F5E2E2E2F5E2E2E2E2E2F5F5F5E2E2E2E2E2E22DE2E2E2E2E2E2F5F5E2E2E2E2E2F5E2E2E2E2F5E2E2E2E2E2E2E2E2E2E2E2E2E2E2E2E2E2E2E2E2E2E2E2E2E2E2E2E2E2E2E2E2E2E2E2E2E2E2E2E2E2E2E2E2E2E2E2E2E2E2E2E2E2E2E2E2E2E2E2E2E2E2E2E2E2E2E2E2E2E2E2
310
E2E2E2E2E2E2E2E2E2E2E2E2E2E2E2E2E2E2E2E2E2E2E2E2E2E2E2E2E2E2E2E2E2E2E2E2E2E2E2E2E2E2E2E2E2E2E2E2E2E2E2E2E2E2E2E2E2E2E2E2E2E2E2E2E2E2E2E2E2E2E2E2E2E2E2E2E2E2E2E2E2E2E2E2E2E2E228E2E2E2E2E2E2E2E2E2E2F5DCE2E2E2E2E2E2E2E2E2DCE22DE2E2E2E2E2E2E2E2E2E2E2E2E2E2E2
310
E2E228E2E2DCDCDCE228E2E2E2E2E2E2E2E2E2F5E2E2E2F5E2E2E2E2E2F5F5E2E2E2E2E2E2E22DE2E2E2E2E2E2F5F5F5E2E2E2E2F5E2E2E2E2F5E2E2E2E2E2E2E2E2E2E2E2E2E2E2E2E2E2E2E2E2E2E2E2E2E2E2E2E2E2E2E2E2E2E2E2E2E2E2E2E2E2E2E2E2E2E2E2E2E2E2E2E2E2E2E2E2E2E2E2E2E2E2E2E2E2E2E2E2E2
310
E2E2E2E2E2E2E2E2E2E2E2E2E2E2E2E2E2E2E2E2E2E2E2E2E2E2E2E2E2E2E2E2E2E2E2E2E2E2E2E2E2E2E2E2E2E2E2E2E2E2E2E2E2E2E2E2E2E2E2E2E2E2E2E2E2E2E2E2E2E2E2E2E2E2E2E2E2E2E2E2E2E2E2E2E2E2E2E2E228E2E2E2E2E2E2E2E2E2E2F5DCE2E2E2E2E2E2E2E2E2DCE22DE2E2E2E2E2E2E2E2E2E2E2E2E2
310
E2E22828F5E2E2E2E2E2E228E2E2E2E2E2E2E2E2E2F5E2E2E2F5E2E2E2E2E2F5F5E2E2E2E2E2E2E22DE2E2E2E2E2E2E2F5F5E2E2E2E2F5E2E2E2E2F5E2E2E2E2E2E2E2E2E2E2E2E2E2E2E2E2E2E2E2E2E2E2E2E2E2E2E2E2E2E2E2E2E2E2E2E2E2E2E2E2E2E2E2E2E2E2E2E2E2E2E2E2E2E2E2E2E2E2E2E2E2E2E2E2E2E2E2
310
E2E2E2E2E2E2E2E2E2E2E2E2E2E2E2E2E2E2E2E2E2E2E2E2E2E2E2E2E2E2E2E2E2E2E2E2E2E2E2E2E2E2E2E2E2E2E2E2E2E2E2E2E2E2E2E2E2E2E2E2E2E2E2E2E2E2E2E2E2E2E2E2E2E2E2E2E2E2E2E2E2E2E2E2E2E2E2E2E2E2E228E2E2E2E2E2E2E2E2E2E2F5DCE2E2E2E2E2E2E2E2E2DCE22DE2E2E2E2E2E2E2E2E2E2E2
310
E2E2E22828E2F5E2E2E2E2E2E228E2E2E2E2E2E2E2E2E2F5E2E2E2F5E2E2E2E2F5F5F5E2E2E2E2E2E2E22DE2E2E2E2E2E2E2F5F5E2E2E2E2F5E2E2E2E2F5E2E2E2E2E2E2E2E2E2E2E2E2E2E2E2E2E2E2E2E2E2E2E2E2E2E2E2E2E2E2E2E2E2E2E2E2E2E2E2E2E2E2E2E2E2E2E2E2E2E2E2E2E2E2E2E2E2E2E2E2E2E2E2E2E2
310
E2E2E2E2E2E2E2E2E2E2E2E2E2E2E2E2E2E2E2E2E2E2E2E2E2E2E2E2E2E2E2E2E2E2E2E2E2E2E2E2E2E2E2E2E2E2E2E2E2E2E2E2E2E2E2E2E2E2E2E2E2E2E2E2E2E2E2E2E2E2E2E2E2E2E2E2E2E2E2E2E2E2E2E2E2E2E2E2E2E2E2E2E228E2E2E2E2E22828282828282D2D2D2D2D2D2D2D2D2DDC2D2DE2E2E2E2E2E2E2E2E2
310
E2E2E2E2E228E2F5F5F5F5F5F5F5F5F528282828E2E2E2E2E2F5E2E2E2F5E2E22D2D2D2D2D2D2D2D2D2D2DF5F5F52D2D2D2D2D2D2D2D2D282828F528282828282828E2E2E2E2E2E2E2E2E2E2E2E2E2E2E2E2E2E2E2E2E2E2E2E2E2E2E2E2E2E2E2E2E2E2E2E2E2E2E2E2E2E2E2E2E2E2E2E2E2E2E2E2E2E2E2E2E2E2E2E2E2
310
E2E2E2E2E2E2E2E2E2E2E2E2E2E2E2E2E2E2E2E2E2E2E2E2E2E2E2E2E2E2E2E2E2E2E2E2E2E2E2E2E2E2E2E2E2E2E2E2E2E2E2E2E2E2E2E2E2E2E2E2E2E2E2E2E2E2E2E2E2E2E2E2E2E2E2E2E2E2E2E2E2E2E2E2E2E2E2E2E2E2E2E2E2E2E228E2E2E2E2E228E2E2E2E2F5DCE2E2E2E2E2E2E2E2E2DCE22DE2E2E2E2E2E2E2
310
E2E2E2E2E2E2E228E2F5F5F5F5F5F5F5F5F5E2DCDC28E2E2E2E2E2F5E2E2E2F5E2E2E2E2F5F5F5E2E2E2E2E2F5F5F5F5F5E2E2E2E2E2F5F5E2E2E2E2F5E2E2E2E2F5E228E2E2E2E2E2E2E2E2E2E2E2E2E2E2E2E2E2E2E2E2E2E2E2E2E2E2E2E2E2E2E2E2E2E2E2E2E2E2E2E2E2E2E2E2E2E2E2E2E2E2E2E2E2E2E2E2E2E2E2
310
E2E2E2E2E2E2E2E2E2E2E2E2E2E2E2E2E2E2E2E2E2E2E2E2E2E2E2E2E2E2E2E2E2E2E2E2E2E2E2E2E2E2E2E2E2E2E2E2E2E2E2E2E2E2E2E2E2E2E2E2E2E2E2E2E2E2E2E2E2E2E2E2E2E2E2E2E2E2E2E2E2E2E2E2E2E2E2E2E2E2E2E2E2E2E2E2E228E2E2E2E2E228E2E2E2E2F5DCE2F5F5F5E2F5F5E2E2DCE22DE2E2E2E2E2
310
E2E2E2E2E2E2E2E228E2E2F5E2E2E2E2E2E2E2F5E2DCDC28E2E2E2E2E2F5E2E2E2F5E2E2E2E2E2F5F5E2E2E2E2F5F5E22DE2F5E2E2E2E2F5F5F5E2E2E2E2F5E2E2E2E2F5E228E2E2E2E2E2E2E2E2E2E2E2E2E2E2E2E2E2E2E2E2E2E2E2E2E2E2E2E2E2E2E2E2E2E2E2E2E2E2E2E2E2E2E2E2E2E2E2E2E2E2E2E2E2E2E2E2E2
310
E2E2E2E2E2E2E2E2E2E2E2E2E2E2E2E2E2E2E2E2E2E2E2E2E2E2E2E2E2E2E2E2E2E2E2E2E2E2E2E2E2E2E2E2E2E2E2E2E2E2E2E2E2E2E2E2E2E2E2E2E2E2E2E2E2E2E2E2E2E2E2E2E2E2E2E2E2E2E2E2E2E2E2E2E2E2E2E2E2E2E2E2E2E2E2E2E2E2E228E2E2E2E2E228E2E2E2E2F5DCE2F5F5F5F5F5F5F5E2DCE22DE2E2E2
310
E2E2E2E2E2E228282828282828F52D2D2D2D2D2DF52DE2DCDC28E2E2E2E2E2F5E2E2E2F5E2E2E2E2E2F5F5E2E2E22DF52D2D2D2DF52DE2E2E2F5F5F5E2E2E2E2F5E2E2E2E2F5E228E2E2E2E2E2E2E2E2E2E2E2E2E2E2E2E2E2E2E2E2E2E2E2E2E2E2E2E2E2E2E2E2E2E2E2E2E2E2E2E2E2E2E2E2E2E2E2E2E2E2E2E2E2E2E2
310
E2E2E2E2E2E2E2E2E2E2E2E2E2E2E2E2E2E2E2E2E2E2E2E2E2E2E2E2E2E2E2E2E2E2E2E2E2E2E2E2E2E2E2E2E2E2E2E2E2E2E2E2E2E2E2E2E2E2E2E2E2E2E2E2E2E2E2E2E2E2E2E2E2E2E2E2E2E2E2E2E2E2E2E2E2E2E2E2E2E2E2E2E2E2E2E2E2E2E2E2E228E2E2E2E2E228E2E2E2E2F5DCE2F5F5F5F5F5F5E2E2DCE22DE2
310
E2E2E2E2E2E2E2E228E2E2E228E2E2F5E2E2E2E2E2E2F5E2E2DCDC28E2E2E2E2E2F5E2E2E2F5E2E2E2E2E2F5F5F5E2E2E2F5F5E22DF5F5E2E2E2E2F5F5E2E2E2E2E2F5E2E2E2E2F5E228E2E2E2E2E2E2E2E2E2E2E2E2E2E2E2E2E2E2E2E2E2E2E2E2E2E2E2E2E2E2E2E2E2E2E2E2E2E2E2E2E2E2E2E2E2E2E2E2E2E2E2E2E2
310
E2E2E2E2E2E2E2E2E2E2E2E2E2E2E2E2E2E2E2E2E2E2E2E2E2E2E2E2E2E2E2E2E2E2E2E2E2E2E2E2E2E2E2E2E2E2E2E2E2E2E2E2E2E2E2E2E2E2E2E2E2E2E2E2E2E2E2E2E2E2E2E2E2E2E2E2E2E2E2E2E2E2E2E2E2E2E2E2E2E2E2E2E2E2E2E2E2E2E2E2E2E2E228E2E2E2DCDCDCE2E2E2E2F5DCE2E2E2E2E2E2E2E2E2DCE2
310
2DE2E2E2E2E2E2E2E2E228E2E228E2E2E2F5F5F5F5F5F5F5282828DCDC28E2E2E2E2E2F5E2E2E2F5E2E2E2E2E2E2F5F5F5E2E2E2F5F528F5E2E2E2E2F5F5F5E2E2E2E2E2F5E2E2E2E2DCDC28E2E2E2E2E2E2E2E2E2E2E2E2E2E2E2E2E2E2E2E2E2E2E2E2E2E2E2E2E2E2E2E2E2E2E2E2E2E2E2E2E2E2E2E2E2E2E2E2E2E2E2
310
E2E2E2E2E2E2E2E2E2E2E2E2E2E2E2E2E2E2E2E2E2E2E2E2E2E2E2E2E2E2E2E2E2E2E2E2E2E2E2E2E2E2E2E2E2E2E2E2E2E2E2E2E2E2E2E2E2E2E2E2E2E2E2E2E2E2E2E2E2E2E2E2E2E2E2E2E2E2E2E2E2E2E2E2E2E2E2E2E2E2E2E2E2E2E2E2E2E2E2E2E2E2E2E2E228E2E2E2DCDCDCE2E2E2E2F5DCE2E2E2E2E2E2E2E2E2
310
DCE22DE2E2E2E2E2E2E2E2DC28E2E228E2E2E2E2F5E2E2E2E2E2E2E2E2E2E2E2E2E2E2E2E2F5E2E2E2F5E2E2E2E2DCDC28F5F5F5E2E2E2E22DE2E2E2F5F5F5F5E2E2E2E2E2E2F5E2E2E2E2DCDC28E2E2E2E2E2E2E2E2E2E2E2E2E2E2E2E2E2E2E2E2E2E2E2E2E2E2E2E2E2E2E2E2E2E2E2E2E2E2E2E2E2E2E2E2E2E2E2E2E2
310
E2E2E2E2E2E2E2E2E2E2E2E2E2E2E2E2E2E2E2E2E2E2E2E2E2E2E2E2E2E2E2E2E2E2E2E2E2E2E2E2E2E2E2E2E2E2E2E2E2E2E2E2E2E2E2E2E2E2E2E2E2E2E2E2E2E2E2E2E2E2E2E2E2E2E2E2E2E2E2E2E2E2E2E2E2E2E2E2E2E2E2E2E2E2E2E2E2E2E2E2E2E2E2E2E2E2E228E2E2E2DCDCDCE2E2E2E2F5DCE2E2E2E2E2E2E2
310
E2E2DCE22DE2E2E2E2E2E2E2DCDCDCE2E228E2E2E2E2F5E2E2E2E2E2E2E2E2E2E2E2E2E2E2E2E2F5E2E2E2F5E2E2E2E2DCDC28E2F5F5F5F5E2E22DE2F5F5F5F5F5E2E2E2E2E2E2E2F5E2E2E2E2DCDC28E2E2E2E2E2E2E2E2E2E2E2E2E2E2E2E2E2E2E2E2E2E2E2E2E2E2E2E2E2E2E2E2E2E2E2E2E2E2E2E2E2E2E2E2E2E2E2
310
E2E2E2E2E2E2E2E2E2E2E2E2E2E2E2E2E2E2E2E2E2E2E2E2E2E2E2E2E2E2E2E2E2E2E2E2E2E2E2E2E2E2E2E2E2E2E2E2E2E2E2E2E2E2E2E2E2E2E2E2E2E2E2E2E2E2E2E2E2E2E2E2E2E2E2E2E2E2E2E2E2E2E2E2E2E2E2E2E2E2E2E2E2E2E2E2E2E2E2E2E2E2E2E2E2E2E2E2E228E2E2E2E2E228E2E2E2E2F5DCE2E2E2E2DC
310
DCDCDCDCDCE22DE2E2E2E2E2E2E2DCE2DCE2E228E2E2E2E2F5E2E2E2E2E2E2E2E2E2E2E2E2E2E2E2E2F5E2E2E2F5E2E2E2E2DCDC28E2E2F5F5F5F5F52DF5F5F5F5F5E2E2E2E2E2E2E2E2F5E2E2E2E2F5E228E2E2E2E2E2E2E2E2E2E2E2E2E2E2E2E2E2E2E2E2E2E2E2E2E2E2E2E2E2E2E2E2E2E2E2E2E2E2E2E2E2E2E2E2E2
310
E2E2E2E2E2E2E2E2E2E2E2E2E2E2E2E2E2E2E2E2E2E2E2E2E2E2E2E2E2E2E2E2E2E2E2E2E2E2E2E2E2E2E2E2E2E2E2E2E2E2E2E2E2E2E2E2E2E2E2E2E2E2E2E2E2E2E2E2E2E2E2E2E2E2E2E2E2E2E2E2E2E2E2E2E2E2E2E2E2E2E2E2E2E2E2E2E2E2E2E2E2E2E2E2E2E2E2E2E2E2E228E2E2E2E2E228E2E2E2E2DCDCDCDCDC
310
DCDCE2E2E2E2E2E22DE2E2E2E2E2E2E2DCDCDCE2E228E2E2E2E2F5E2E2E2E2E2E2E2E2E2E2E2E2E2E2E2E2F5E2E2E2F5F5F5F5F5F52828F5E2E2F5F5F5F52DF5F5F5E2E2F5F5F5F5F5F5F5F5F5E2E2E2E2F5E228E2E2E2E2E2E2E2E2E2E2E2E2E2E2E2E2E2E2E2E2E2E2E2E2E2E2E2E2E2E2E2E2E2E2E2E2E2E2E2E2E2E2E2
310
E2E2E2E2E2E2E2E2E2E2E2E2E2E2E2E2E2E2E2E2E2E2E2E2E2E2E2E2E2E2E2E2E2E2E2E2E2E2E2E2E2E2E2E2E2E2E2E2E2E2E2E2E2E2E2E2E2E2E2E2E2E2E2E2E2E2E2E2E2E2E2E2E2E2E2E2E2E2E2E2E2E2E2E2E2E2E2E2E2E2E2E2E2E2E2E2E2E2E2E2E2E2E2E2E2E2E2E2E2E2E2E2E228E2E2E2E2E228E2E2E228F5DC28
310
E2E2E2E2E2E2E2E2E2E22DE2E2E2E2E2E2E2E2E228E2E228E2E2E2E2F5E2E2E2E2E2E2E2E2E2E2E2E2DC2828282828282828282D2D2D282D28F52D2DE2E2E2E22DE2E2E2E22DF52D2D2D282D2DF5F52DE2E2E2F5E228E2E2E2E2E2E2E2E2E2E2E2E2E2E2E2E2E2E2E2E2E2E2E2E2E2E2E2E2E2E2E2E2E2E2E2E2E2E2E2E2E2
310
E2E2E2E2E2E2E2E2E2E2E2E2E2E2E2E2E2E2E2E2E2E2E2E2E2E2E2E2E2E2E2E2E2E2E2E2E2E2E2E2E2E2E2E2E2E2E2E2E2E2E2E2E2E2E2E2E2E2E2E2E2E2E2E2E2E2E2E2E2E2E2E2E2E2E2E2E2E2E2E2E2E2E2E2E2E2E2E2E2E2E2E2E2E2E2E2E2E2E2E2E2E2E2E2E2E2E2E2E2E2E2E2E2E2E228E2E2E2E2E228E2E2E2E2DC
310
DCE2E2E2E2E2E2E2E2E2E2E22DE2E2E2E2E2E2E2E2E228E2E2E228E2E2E2F5E2E2E2E2E2E2E2E2E2E2E2DCDCDC28E2F5E2E2E2F528F5F5F5282828F5E2E2E2E2E2E22DE2E2E2E2E2E2F5F5F528F5F5F5F5E2E2E2E2F5E228E2E2E2E2E2E2E2E2E2E2E2E2E2E2E2E2E2E2E2E2E2E2E2E2E2E2E2E2E2E2E2E2E2E2E2E2E2E2E2
310
E2E2E2E2E2E2E2E2E2E2E2E2E2E2E2E2E2E2E2E2E2E2E2E2E2E2E2E2E2E2E2E2E2E2E2E2E2E2E2E2E2E2E2E2E2E2E2E2E2E2E2E2E2E2E2E2E2E2E2E2E2E2E2E2E2E2E2E2E2E2E2E2E2E2E2E2E2E2E2E2E2E2E2E2E2E2E2E2E2E2E2E2E2E2E2E2E2E2E2E2E2E2E2E2E2E2E2E2E2E2E2E2E2E2E2E2E228282828282828282828
310
2828F5F5F5F5F5F5F5F5F5F5F5F5F5F5F5F5F5F5F5F5F5F5282828282828282828E2E2E2E2E2E2E2E2E2E2E2DCDCDC282828F5F5F5F5F5F5F5F528F5F5F5F5F5F5F5F5F52DF5F5F5F5F5F5F5F5F528F5F5F5F5F5F5F5F5F52828E2E2E2E2E2E2E2E2E2E2E2E2E2E2E2E2E2E2E2E2E2E2E2E2E2E2E2E2E2E2E2E2E2E2E2E2E2
310
E2E2E2E2E2E2E2E2E2E2E2E2E2E2E2E2E2E2E2E2E2E2E2E2E2E2E2E2E2E2E2E2E2E2E2E2E2E2E2E2E2E2E2E2E2E2E2E2E2E2E2E2E2E2E2E2E2E2E2E2E2E2E2E2E2E2E2E2E2E2E2E2E2E2E2E2E2E2E2E2E2E2E2E2E2E2E2E2E2E2E2E2E2E2E2E2E2E2E2E2E2E2E2E2E2E2E2E2E2E2E2E2E2E2E2E2E2E2E2E2E2E2E2E2E2E2E2
310
E2E2E2E2E2E2E2E2E2E2E2E2E2E2E2E22DE2E2E2E2E2E2E2E2E2E2E2E2E2E2E2E2E228E2E2E2E2E2E2E2E2E2E2E2E2E2E2E2E2E2E2E2E2E228E2E2E228E2E228E2E2E2E2E2E22DE2E2E2E2E2E2E2E2E228E2E2E2E2E2E2E2E2E2E2E2E2E2E2E2E2E2E2E2E2E2E2E2E2E2E2E2E2E2E2E2E2E2E2E2E2E2E2E2E2E2E2E2E2E2E2
310
E2E2E2E2E2E2E2E2E2E2E2E2E2E2E2E2E2E2E2E2E2E2E2E2E2E2E2E2E2E2E2E2E2E2E2E2E2E2E2E2E2E2E2E2E2E2E2E2E2E2E2E2E2E2E2E2E2E2E2E2E2E2E2E2E2E2E2E2E2E2E2E2E2E2E2E2E2E2E2E2E2E2E2E2E2E2E2E2E2E2E2E2E2E2E2E2E2E2E2E2E2E2E2E2E2E2E2E2E2E2E2E2E2E2E2E2E2E2E2E2E2E2E2E2E2E2E2
310
E2E2E2E2E2E2E2E2E2E2E2E2E2E2E2E2E2E228E2E2E2E2E2E2E2E2E2E2E2E2E2E2E2E2E228E2E2E2E2E2E2E2E2E2E2E2E2E2E2E2E2E2E2E2E2E228E2E2E228E2E228E2E2E2E2E2E22DE2E2E2E2E2E2E2E2E228E2E2E2E2E2E2E2E2E2E2E2E2E2E2E2E2E2E2E2E2E2E2E2E2E2E2E2E2E2E2E2E2E2E2E2E2E2E2E2E2E2E2E2E2
310
E2E2E2E2E2E2E2E2E2E2E2E2E2E2E2E2E2E2E2E2E2E2E2E2E2E2E2E2E2E2E2E2E2E2E2E2E2E2E2E2E2E2E2E2E2E2E2E2E2E2E2E2E2E2E2E2E2E2E2E2E2E2E2E2E2E2E2E2E2E2E2E2E2E2E2E2E2E2E2E2E2E2E2E2E2E2E2E2E2E2E2E2E2E2E2E2E2E2E2E2E2E2E2E2E2E2E2E2E2E2E2E2E2E2E2E2E2E2E2E2E2E2E2E2E2E2E2
310
E2E2E2E2E2E2E2E2E2E2E2E2E2E2E2E2E2E2E2E228E2E2E2E2E2E2E2E2E2E2E2E2E2E2E2E2E228E2E2E2E2E2E2E2E2E2E2E2E2E2E2E2E2E2E2E2E2E228E2E2E228E2E228E2E2E2E2E2E2E2E2E2E2E2E2E2E2E2E228E2E2E2E2E2E2E2E2E2E2E2E2E2E2E2E2E2E2E2E2E2E2E2E2E2E2E2E2E2E2E2E2E2E2E2E2E2E2E2E2E2E2
310
E2E2E2E2E2E2E2E2E2E2E2E2E2E2E2E2E2E2E2E2E2E2E2E2E2E2E2E2E2E2E2E2E2E2E2E2E2E2E2E2E2E2E2E2E2E2E2E2E2E2E2E2E2E2E2E2E2E2E2E2E2E2E2E2E2E2E2E2E2E2E2E2E2E2E2E2E2E2E2E2E2E2E2E2E2E2E2E2E2E2E2E2E2E2E2E2E2E2E2E2E2E2E2E2E2E2E2E2E2E2E2E2E2E2E2E2E2E2E2E2E2E2E2E2E2E2E2
310
E2E2E2E2E2E2E2E2E2E2E2E2E2E2E2E2E2E2E2E2E2E228E2E2E2E2E2E2E2E2E2E2E2E2E2E2E2E2E228E2E2E2E2E2E2E2E2E2E2E2E2E2E2E2E2E2E2E2E2E228E2E2E228E2E228E2E2E2E2E2E2E2E2E2E2E2E2E2E2E2E228E2E2E2E2E2E2E2E2E2E2E2E2E2E2E2E2E2E2E2E2E2E2E2E2E2E2E2E2E2E2E2E2E2E2E2E2E2E2E2E2
310
E2E2E2E2E2E2E2E2E2E2E2E2E2E2E2E2E2E2E2E2E2E2E2E2E2E2E2E2E2E2E2E2E2E2E2E2E2E2E2E2E2E2E2E2E2E2E2E2E2E2E2E2E2E2E2E2E2E2E2E2E2E2E2E2E2E2E2E2E2E2E2E2E2E2E2E2E2E2E2E2E2E2E2E2E2E2E2E2E2E2E2E2E2E2E2E2E2E2E2E2E2E2E2E2E2E2E2E2E2E2E2E2E2E2E2E2E2E2E2E2E2E2E2E2E2E2E2
310
E2E2E2E2E2E2E2E2E2E2E2E2E2E2E2E2E2E2E2E2E2E2E2E228E2E2E2E2E2E2E2E2E2E2E2E2E2E2E2E2E228E2E2E2E2E2E2E2E2E2E2E2E2E2E2E2E2E2E2E2E2E228E2E2E228E2E228E2E2E2E2E2E2E2E2E2E2E2E2E2E2E2E228E2E2E2E2E2E2E2E2E2E2E2E2E2E2E2E2E2E2E2E2E2E2E2E2E2E2E2E2E2E2E2E2E2E2E2E2E2E2
310
E2E2E2E2E2E2E2E2E2E2E2E2E2E2E2E2E2E2E2E2E2E2E2E2E2E2E2E2E2E2E2E2E2E2E2E2E2E2E2E2E2E2E2E2E2E2E2E2E2E2E2E2E2E2E2E2E2E2E2E2E2E2E2E2E2E2E2E2E2E2E2E2E2E2E2E2E2E2E2E2E2E2E2E2E2E2E2E2E2E2E2E2E2E2E2E2E2E2E2E2E2E2E2E2E2E2E2E2E2E2E2E2E2E2E2E2E2E2E2E2E2E2E2E2E2E2E2
310
E2E2E2E2E2E2E2E2E2E2E2E2E2E2E2E2E2E2E2E2E2E2E2E2E2E228E2E2E2E2E2E2E2E2E2E2E2E2E2E2E2E2E228E2E2E2E2E2E2E2E2E2E2E2E2E2E2E2E2E2E2E2E2E228E2E2E2282828282828282828DCDCDC282828282828282828E2E2E2E2E2E2E2E2E2E2E2E2E2E2E2E2E2E2E2E2E2E2E2E2E2E2E2E2E2E2E2E2E2E2E2E2
310
E2E2E2E2E2E2E2E2E2E2E2E2E2E2E2E2E2E2E2E2E2E2E2E2E2E2E2E2E2E2E2E2E2E2E2E2E2E2E2E2E2E2E2E2E2E2E2E2E2E2E2E2E2E2E2E2E2E2E2E2E2E2E2E2E2E2E2E2E2E2E2E2E2E2E2E2E2E2E2E2E2E2E2E2E2E2E2E2E2E2E2E2E2E2E2E2E2E2E2E2E2E2E2E2E2E2E2E2E2E2E2E2E2E2E2E2E2E2E2E2E2E2E2E2E2E2E2
310
E2E2E2E2E2E2E2E2E2E2E2E2E2E2E2E2E2E2E2E2E2E2E2E2E2E2E2E228282828282828282828282828282828282828E2E2E2E2E2E2E2E2E2E2E2E2E2E2E2E2E2E2E2E2E228E2E2E2E2E2E228E2E2E2E2E2DCDCDCE2E2E2E2E2E2E2E2E2E2E2E2E2E2E2E2E2E2E2E2E2E2E2E2E2E2E2E2E2E2E2E2E2E2E2E2E2E2E2E2E2E2E2
310
E2E2E2E2E2E2E2E2E2E2E2E2E2E2E2E2E2E2E2E2E2E2E2E2E2E2E2E2E2E2E2E2E2E2E2E2E2E2E2E2E2E2E2E2E2E2E2E2E2E2E2E2E2E2E2E2E2E2E2E2E2E2E2E2E2E2E2E2E2E2E2E2E2E2E2E2E2E2E2E2E2E2E2E2E2E2E2E2E2E2E2E2E2E2E2E2E2E2E2E2E2E2E2E2E2E2E2E2E2E2E2E2E2E2E2E2E2E2E2E2E2E2E2E2E2E2E2
310
E2E2E2E2E2E2E2E2E2E2E2E2E2E2E2E2E2E2E2E2E2E2E2E2E2E2E2E2E2E228E2E2E2E2E2E2DCDCDCDCDCE2E2E2E2E2E228E2E2E2E2E2E2E2E2E2E2E2E2E2E2E2E2E2E2E2E2E22828E2E2E2E2E228E2E2E2E2E2DCDCDCE2E2E2E2E2E2E2E2E2E2E2E2E2E2E2E2E2E2E2E2E2E2E2E2E2E2E2E2E2E2E2E2E2E2E2E2E2E2E2E2E2
310
E2E2E2E2E2E2E2E2E2E2E2E2E2E2E2E2E2E2E2E2E2E2E2E2E2E2E2E2E2E2E2E2E2E2E2E2E2E2E2E2E2E2E2E2E2E2E2E2E2E2E2E2E2E2E2E2E2E2E2E2E2E2E2E2E2E2E2E2E2E2E2E2E2E2E2E2E2E2E2E2E2E2E2E2E2E2E2E2E2E2E2E2E2E2E2E2E2E2E2E2E2E2E2E2E2E2E2E2E2E2E2E2E2E2E2E2E2E2E2E2E2E2E2E2E2E2E2
310
E2E2E2E2E2E2E2E2E2E2E2E2E2E2E2E2E2E2E2E2E2E2E2E2E2E2E2E2E2E2E2E2E2E2E2E2E2E2E2DCDCDCDCDCE2E2E2E2E2E2E2E2E2E2E2E2E2E2E2E2E2E2E2E2E2E2E2E2E2E2E2E2282828DCDCDC2828E2E2E2E2E2E2E2E2E2E2E2E2E2E2E2E2E2E2E2E2E2E2E2E2E2E2E2E2E2E2E2E2E2E2E2E2E2E2E2E2E2E2E2E2E2E2E2
310
E2E2E2E2E2E2E2E2E2E2E2E2E2E2E2E2E2E2E2E2E2E2E2E2E2E2E2E2E2E2E2E2E2E2E2E2E2E2E2E2E2E2E2E2E2E2E2E2E2E2E2E2E2E2E2E2E2E2E2E2E2E2E2E2E2E2E2E2E2E2E2E2E2E2E2E2E2E2E2E2E2E2E2E2E2E2E2E2E2E2E2E2E2E2E2E2E2E2E2E2E2E2E2E2E2E2E2E2E2E2E2E2E2E2E2E2E2E2E2E2E2E2E2E2E2E2E2
310
E2E2E2E2E2E2E2E2E2E2E2E2E2E2E2E2E2E2E2E2E2E2E2E2E2E2E2E2E2E2E2E2E2E2E2E2E2E2E2E2E2DCE2E2E2DCE2E2E2E2E2E2E2E2E2E2E2E2E2E2E2E2E2E2E2E2E2E2E2E2E2E2E2E2E2E2E2DCDCDCE2E2E2E2E2E2E2E2E2E2E2E2E2E2E2E2E2E2E2E2E2E2E2E2E2E2E2E2E2E2E2E2E2E2E2E2E2E2E2E2E2E2E2E2E2E2E2
310
E2E2E2E2E2E2E2E2E2E2E2E2E2E2E2E2E2E2E2E2E2E2E2E2E2E2E2E2E2E2E2E2E2E2E2E2E2E2E2E2E2E2E2E2E2E2E2E2E2E2E2E2E2E2E2E2E2E2E2E2E2E2E2E2E2E2E2E2E2E2E2E2E2E2E2E2E2E2E2E2E2E2E2E2E2E2E2E2E2E2E2E2E2E2E2E2E2E2E2E2E2E2E2E2E2E2E2E2E2E2E2E2E2E2E2E2E2E2E2E2E2E2E2E2E2E2E2
310
E2E2E2E2E2E2E2E2E2E2E2E2E2E2E2E2E2E2E2E2E2E2E2E2E2E2E2E2E2E2E2E2E2E2E2E2E2E2E2E2E2E2E2E2E2E2E2E2E2E2E2E2E2E2E2E2E2E2E2E2E2E2E2E2E2E2E2E2E2E2E2E2E2E2E2E2E2E2E2DCDCDCE2E2E2E2E2E2E2E2E2E2E2E2E2E2E2E2E2E2E2E2E2E2E2E2E2E2E2E2E2E2E2E2E2E2E2E2E2E2E2E2E2E2E2E2E2
310
E2E2E2E2E2E2E2E2E2E2E2E2E2E2E2E2E2E2E2E2E2E2E2E2E2E2E2E2E2E2E2E2E2E2E2E2E2E2E2E2E2E2E2E2E2E2E2E2E2E2E2E2E2E2E2E2E2E2E2E2E2E2
  0
XRECORD
  5
4769
102
{ACAD_REACTORS
330
31A8
102
}
330
31A8
100
AcDbXrecord
280
     1
102
MATERIAL
148
0.0
149
0.0
149
0.0
 93
        0
 94
      127
282
     0
 72
     0
 77
     0
171
     0
175
     0
179
     0
273
     0
  0
XRECORD
  5
31AA
102
{ACAD_REACTORS
330
31A8
102
}
330
31A8
100
AcDbXrecord
280
     1
270
     1
271
     1
  0
XRECORD
  5
31A9
102
{ACAD_REACTORS
330
31A8
102
}
330
31A8
100
AcDbXrecord
280
     1
270
     1
271
     1
  0
XRECORD
  5
31AD
102
{ACAD_REACTORS
330
31A8
102
}
330
31A8
100
AcDbXrecord
280
     1
270
     1
271
     1
  0
XRECORD
  5
31AC
102
{ACAD_REACTORS
330
31A8
102
}
330
31A8
100
AcDbXrecord
280
     1
270
     1
271
     1
  0
XRECORD
  5
31AE
102
{ACAD_REACTORS
330
31A8
102
}
330
31A8
100
AcDbXrecord
280
     1
270
     1
271
     1
  0
XRECORD
  5
31AB
102
{ACAD_REACTORS
330
31A8
102
}
330
31A8
100
AcDbXrecord
280
     1
270
     1
271
     1
  0
XRECORD
  5
4768
102
{ACAD_REACTORS
330
31A0
102
}
330
31A0
100
AcDbXrecord
280
     1
102
MATERIAL
148
0.0
149
0.0
149
0.0
 93
        0
 94
      127
282
     0
 72
     0
 77
     0
171
     0
175
     0
179
     0
273
     0
  0
XRECORD
  5
31A2
102
{ACAD_REACTORS
330
31A0
102
}
330
31A0
100
AcDbXrecord
280
     1
270
     1
271
     1
  0
XRECORD
  5
31A1
102
{ACAD_REACTORS
330
31A0
102
}
330
31A0
100
AcDbXrecord
280
     1
270
     1
271
     1
  0
XRECORD
  5
31A5
102
{ACAD_REACTORS
330
31A0
102
}
330
31A0
100
AcDbXrecord
280
     1
270
     1
271
     1
  0
XRECORD
  5
31A4
102
{ACAD_REACTORS
330
31A0
102
}
330
31A0
100
AcDbXrecord
280
     1
270
     1
271
     1
  0
XRECORD
  5
31A6
102
{ACAD_REACTORS
330
31A0
102
}
330
31A0
100
AcDbXrecord
280
     1
270
     1
271
     1
  0
XRECORD
  5
31A3
102
{ACAD_REACTORS
330
31A0
102
}
330
31A0
100
AcDbXrecord
280
     1
270
     1
271
     1
  0
XRECORD
  5
476A
102
{ACAD_REACTORS
330
31B0
102
}
330
31B0
100
AcDbXrecord
280
     1
102
MATERIAL
148
0.0
149
0.0
149
0.0
 93
        0
 94
      127
282
     0
 72
     0
 77
     0
171
     0
175
     0
179
     0
273
     0
  0
XRECORD
  5
31B2
102
{ACAD_REACTORS
330
31B0
102
}
330
31B0
100
AcDbXrecord
280
     1
270
     1
271
     1
  0
XRECORD
  5
31B1
102
{ACAD_REACTORS
330
31B0
102
}
330
31B0
100
AcDbXrecord
280
     1
270
     1
271
     1
  0
XRECORD
  5
31B5
102
{ACAD_REACTORS
330
31B0
102
}
330
31B0
100
AcDbXrecord
280
     1
270
     1
271
     1
  0
XRECORD
  5
31B4
102
{ACAD_REACTORS
330
31B0
102
}
330
31B0
100
AcDbXrecord
280
     1
270
     1
271
     1
  0
XRECORD
  5
31B6
102
{ACAD_REACTORS
330
31B0
102
}
330
31B0
100
AcDbXrecord
280
     1
270
     1
271
     1
  0
XRECORD
  5
31B3
102
{ACAD_REACTORS
330
31B0
102
}
330
31B0
100
AcDbXrecord
280
     1
270
     1
271
     1
  0
CELLSTYLEMAP
  5
4763
102
{ACAD_REACTORS
330
3569
102
}
330
3569
100
AcDbCellStyleMap
 90
        3
300
CELLSTYLE
  1
TABLEFORMAT_BEGIN
 90
        5
170
     1
 91
        0
 92
    32768
 62
   257
 93
        1
300
CONTENTFORMAT
  1
CONTENTFORMAT_BEGIN
 90
        0
 91
        0
 92
        4
 93
        0
300

 40
0.0
140
1.0
 94
        5
 62
     0
340
11
144
6.0
309
CONTENTFORMAT_END
171
     1
301
MARGIN
  1
CELLMARGIN_BEGIN
 40
1.5
 40
1.5
 40
1.5
 40
1.5
 40
0.18
 40
0.18
309
CELLMARGIN_END
 94
        6
 95
        1
302
GRIDFORMAT
  1
GRIDFORMAT_BEGIN
 90
        0
 91
        1
 62
     0
 92
       -2
340
0
 93
        0
 40
0.045
309
GRIDFORMAT_END
 95
        2
302
GRIDFORMAT
  1
GRIDFORMAT_BEGIN
 90
        0
 91
        1
 62
     0
 92
       -2
340
0
 93
        0
 40
0.045
309
GRIDFORMAT_END
 95
        4
302
GRIDFORMAT
  1
GRIDFORMAT_BEGIN
 90
        0
 91
        1
 62
     0
 92
       -2
340
0
 93
        0
 40
0.045
309
GRIDFORMAT_END
 95
        8
302
GRIDFORMAT
  1
GRIDFORMAT_BEGIN
 90
        0
 91
        1
 62
     0
 92
       -2
340
0
 93
        0
 40
0.045
309
GRIDFORMAT_END
 95
       16
302
GRIDFORMAT
  1
GRIDFORMAT_BEGIN
 90
        0
 91
        1
 62
     0
 92
       -2
340
0
 93
        0
 40
0.045
309
GRIDFORMAT_END
 95
       32
302
GRIDFORMAT
  1
GRIDFORMAT_BEGIN
 90
        0
 91
        1
 62
     0
 92
       -2
340
0
 93
        0
 40
0.045
309
GRIDFORMAT_END
309
TABLEFORMAT_END
  1
CELLSTYLE_BEGIN
 90
        1
 91
        1
300
_TITLE
309
CELLSTYLE_END
300
CELLSTYLE
  1
TABLEFORMAT_BEGIN
 90
        5
170
     1
 91
        0
 92
        0
 62
   257
 93
        1
300
CONTENTFORMAT
  1
CONTENTFORMAT_BEGIN
 90
        0
 91
        0
 92
        4
 93
        0
300

 40
0.0
140
1.0
 94
        5
 62
     0
340
11
144
4.5
309
CONTENTFORMAT_END
171
     1
301
MARGIN
  1
CELLMARGIN_BEGIN
 40
1.5
 40
1.5
 40
1.5
 40
1.5
 40
0.18
 40
0.18
309
CELLMARGIN_END
 94
        6
 95
        1
302
GRIDFORMAT
  1
GRIDFORMAT_BEGIN
 90
        0
 91
        1
 62
     0
 92
       -2
340
0
 93
        0
 40
0.045
309
GRIDFORMAT_END
 95
        2
302
GRIDFORMAT
  1
GRIDFORMAT_BEGIN
 90
        0
 91
        1
 62
     0
 92
       -2
340
0
 93
        0
 40
0.045
309
GRIDFORMAT_END
 95
        4
302
GRIDFORMAT
  1
GRIDFORMAT_BEGIN
 90
        0
 91
        1
 62
     0
 92
       -2
340
0
 93
        0
 40
0.045
309
GRIDFORMAT_END
 95
        8
302
GRIDFORMAT
  1
GRIDFORMAT_BEGIN
 90
        0
 91
        1
 62
     0
 92
       -2
340
0
 93
        0
 40
0.045
309
GRIDFORMAT_END
 95
       16
302
GRIDFORMAT
  1
GRIDFORMAT_BEGIN
 90
        0
 91
        1
 62
     0
 92
       -2
340
0
 93
        0
 40
0.045
309
GRIDFORMAT_END
 95
       32
302
GRIDFORMAT
  1
GRIDFORMAT_BEGIN
 90
        0
 91
        1
 62
     0
 92
       -2
340
0
 93
        0
 40
0.045
309
GRIDFORMAT_END
309
TABLEFORMAT_END
  1
CELLSTYLE_BEGIN
 90
        2
 91
        1
300
_HEADER
309
CELLSTYLE_END
300
CELLSTYLE
  1
TABLEFORMAT_BEGIN
 90
        5
170
     1
 91
        0
 92
        0
 62
   257
 93
        1
300
CONTENTFORMAT
  1
CONTENTFORMAT_BEGIN
 90
        0
 91
        0
 92
        4
 93
        0
300

 40
0.0
140
1.0
 94
        2
 62
     0
340
11
144
4.5
309
CONTENTFORMAT_END
171
     1
301
MARGIN
  1
CELLMARGIN_BEGIN
 40
1.5
 40
1.5
 40
1.5
 40
1.5
 40
0.18
 40
0.18
309
CELLMARGIN_END
 94
        6
 95
        1
302
GRIDFORMAT
  1
GRIDFORMAT_BEGIN
 90
        0
 91
        1
 62
     0
 92
       -2
340
0
 93
        0
 40
0.045
309
GRIDFORMAT_END
 95
        2
302
GRIDFORMAT
  1
GRIDFORMAT_BEGIN
 90
        0
 91
        1
 62
     0
 92
       -2
340
0
 93
        0
 40
0.045
309
GRIDFORMAT_END
 95
        4
302
GRIDFORMAT
  1
GRIDFORMAT_BEGIN
 90
        0
 91
        1
 62
     0
 92
       -2
340
0
 93
        0
 40
0.045
309
GRIDFORMAT_END
 95
        8
302
GRIDFORMAT
  1
GRIDFORMAT_BEGIN
 90
        0
 91
        1
 62
     0
 92
       -2
340
0
 93
        0
 40
0.045
309
GRIDFORMAT_END
 95
       16
302
GRIDFORMAT
  1
GRIDFORMAT_BEGIN
 90
        0
 91
        1
 62
     0
 92
       -2
340
0
 93
        0
 40
0.045
309
GRIDFORMAT_END
 95
       32
302
GRIDFORMAT
  1
GRIDFORMAT_BEGIN
 90
        0
 91
        1
 62
     0
 92
       -2
340
0
 93
        0
 40
0.045
309
GRIDFORMAT_END
309
TABLEFORMAT_END
  1
CELLSTYLE_BEGIN
 90
        3
 91
        2
300
_DATA
309
CELLSTYLE_END
  0
XRECORD
  5
4767
102
{ACAD_REACTORS
330
3569
102
}
330
3569
100
AcDbXrecord
280
     1
102
ACAD_ROUNDTRIP_PRE2007_TABLESTYLE
 90
        4
 91
        0
  1

 92
        4
 93
        0
  2

 94
        4
 95
        0
  3

  0
XRECORD
  5
4776
102
{ACAD_REACTORS
330
4775
102
}
330
4775
100
AcDbXrecord
280
     1
102
RTVSPropertyOp0
 70
     1
102
RTVSPropertyOp1
 70
     1
102
RTVSPropertyOp2
 70
     1
102
RTVSPropertyOp3
 70
     1
102
RTVSPropertyOp4
 70
     1
102
RTVSPropertyOp5
 70
     1
102
RTVSPropertyOp6
 70
     1
102
RTVSPropertyOp7
 70
     1
102
RTVSPropertyOp8
 70
     1
102
RTVSPropertyOp9
 70
     1
102
RTVSPropertyOp10
 70
     1
102
RTVSPropertyOp11
 70
     1
102
RTVSPropertyOp12
 70
     1
102
RTVSPropertyOp13
 70
     1
102
RTVSPropertyOp14
 70
     1
102
RTVSPropertyOp15
 70
     1
102
RTVSPropertyOp16
 70
     1
102
RTVSPropertyOp17
 70
     1
102
RTVSPropertyOp18
 70
     1
102
RTVSPropertyOp19
 70
     1
102
RTVSPropertyOp20
 70
     1
102
RTVSPropertyOp21
 70
     1
102
RTVSPropertyOp22
 70
     1
102
RTVSPropertyOp23
 70
     1
102
RTVSPropertyOp24
 70
     1
102
RTVSPropertyOp25
 70
     1
102
RTVSPropertyOp26
 70
     1
102
RTVSPropertyOp27
 70
     1
  0
XRECORD
  5
477A
102
{ACAD_REACTORS
330
4779
102
}
330
4779
100
AcDbXrecord
280
     1
102
RTVSPropertyOp0
 70
     1
102
RTVSPropertyOp1
 70
     1
102
RTVSPropertyOp2
 70
     1
102
RTVSPropertyOp3
 70
     1
102
RTVSPropertyOp4
 70
     1
102
RTVSPropertyOp5
 70
     1
102
RTVSPropertyOp6
 70
     1
102
RTVSPropertyOp7
 70
     1
102
RTVSPropertyOp8
 70
     1
102
RTVSPropertyOp9
 70
     1
102
RTVSPropertyOp10
 70
     1
102
RTVSPropertyOp11
 70
     1
102
RTVSPropertyOp12
 70
     1
102
RTVSPropertyOp13
 70
     1
102
RTVSPropertyOp14
 70
     1
102
RTVSPropertyOp15
 70
     1
102
RTVSPropertyOp16
 70
     1
102
RTVSPropertyOp17
 70
     1
102
RTVSPropertyOp18
 70
     1
102
RTVSPropertyOp19
 70
     1
102
RTVSPropertyOp20
 70
     1
102
RTVSPropertyOp21
 70
     1
102
RTVSPropertyOp22
 70
     1
102
RTVSPropertyOp23
 70
     1
102
RTVSPropertyOp24
 70
     1
102
RTVSPropertyOp25
 70
     1
102
RTVSPropertyOp26
 70
     1
102
RTVSPropertyOp27
 70
     1
  0
XRECORD
  5
4778
102
{ACAD_REACTORS
330
4777
102
}
330
4777
100
AcDbXrecord
280
     1
102
RTVSPropertyOp0
 70
     1
102
RTVSPropertyOp1
 70
     1
102
RTVSPropertyOp2
 70
     1
102
RTVSPropertyOp3
 70
     1
102
RTVSPropertyOp4
 70
     1
102
RTVSPropertyOp5
 70
     1
102
RTVSPropertyOp6
 70
     1
102
RTVSPropertyOp7
 70
     1
102
RTVSPropertyOp8
 70
     1
102
RTVSPropertyOp9
 70
     1
102
RTVSPropertyOp10
 70
     1
102
RTVSPropertyOp11
 70
     1
102
RTVSPropertyOp12
 70
     1
102
RTVSPropertyOp13
 70
     1
102
RTVSPropertyOp14
 70
     1
102
RTVSPropertyOp15
 70
     1
102
RTVSPropertyOp16
 70
     1
102
RTVSPropertyOp17
 70
     1
102
RTVSPropertyOp18
 70
     1
102
RTVSPropertyOp19
 70
     1
102
RTVSPropertyOp20
 70
     1
102
RTVSPropertyOp21
 70
     1
102
RTVSPropertyOp22
 70
     1
102
RTVSPropertyOp23
 70
     1
102
RTVSPropertyOp24
 70
     1
102
RTVSPropertyOp25
 70
     1
102
RTVSPropertyOp26
 70
     1
102
RTVSPropertyOp27
 70
     1
  0
XRECORD
  5
4774
102
{ACAD_REACTORS
330
4773
102
}
330
4773
100
AcDbXrecord
280
     1
102
RTVSPropertyOp0
 70
     1
102
RTVSPropertyOp1
 70
     1
102
RTVSPropertyOp2
 70
     1
102
RTVSPropertyOp3
 70
     1
102
RTVSPropertyOp4
 70
     1
102
RTVSPropertyOp5
 70
     1
102
RTVSPropertyOp6
 70
     1
102
RTVSPropertyOp7
 70
     1
102
RTVSPropertyOp8
 70
     1
102
RTVSPropertyOp9
 70
     1
102
RTVSPropertyOp10
 70
     1
102
RTVSPropertyOp11
 70
     1
102
RTVSPropertyOp12
 70
     1
102
RTVSPropertyOp13
 70
     1
102
RTVSPropertyOp14
 70
     1
102
RTVSPropertyOp15
 70
     1
102
RTVSPropertyOp16
 70
     1
102
RTVSPropertyOp17
 70
     1
102
RTVSPropertyOp18
 70
     1
102
RTVSPropertyOp19
 70
     1
102
RTVSPropertyOp20
 70
     1
102
RTVSPropertyOp21
 70
     1
102
RTVSPropertyOp22
 70
     1
102
RTVSPropertyOp23
 70
     1
102
RTVSPropertyOp24
 70
     1
102
RTVSPropertyOp25
 70
     1
102
RTVSPropertyOp26
 70
     1
102
RTVSPropertyOp27
 70
     1
  0
XRECORD
  5
4782
102
{ACAD_REACTORS
330
4781
102
}
330
4781
100
AcDbXrecord
280
     1
102
RTVSPropertyOp0
 70
     1
102
RTVSPropertyOp1
 70
     1
102
RTVSPropertyOp2
 70
     1
102
RTVSPropertyOp3
 70
     1
102
RTVSPropertyOp4
 70
     1
102
RTVSPropertyOp5
 70
     1
102
RTVSPropertyOp6
 70
     1
102
RTVSPropertyOp7
 70
     1
102
RTVSPropertyOp8
 70
     1
102
RTVSPropertyOp9
 70
     1
102
RTVSPropertyOp10
 70
     1
102
RTVSPropertyOp11
 70
     1
102
RTVSPropertyOp12
 70
     1
102
RTVSPropertyOp13
 70
     1
102
RTVSPropertyOp14
 70
     1
102
RTVSPropertyOp15
 70
     1
102
RTVSPropertyOp16
 70
     1
102
RTVSPropertyOp17
 70
     1
102
RTVSPropertyOp18
 70
     1
102
RTVSPropertyOp19
 70
     1
102
RTVSPropertyOp20
 70
     1
102
RTVSPropertyOp21
 70
     1
102
RTVSPropertyOp22
 70
     1
102
RTVSPropertyOp23
 70
     1
102
RTVSPropertyOp24
 70
     1
102
RTVSPropertyOp25
 70
     1
102
RTVSPropertyOp26
 70
     1
102
RTVSPropertyOp27
 70
     1
  0
XRECORD
  5
478A
102
{ACAD_REACTORS
330
4789
102
}
330
4789
100
AcDbXrecord
280
     1
102
RTVSPropertyOp0
 70
     1
102
RTVSPropertyOp1
 70
     1
102
RTVSPropertyOp2
 70
     1
102
RTVSPropertyOp3
 70
     1
102
RTVSPropertyOp4
 70
     1
102
RTVSPropertyOp5
 70
     1
102
RTVSPropertyOp6
 70
     1
102
RTVSPropertyOp7
 70
     1
102
RTVSPropertyOp8
 70
     1
102
RTVSPropertyOp9
 70
     1
102
RTVSPropertyOp10
 70
     1
102
RTVSPropertyOp11
 70
     1
102
RTVSPropertyOp12
 70
     1
102
RTVSPropertyOp13
 70
     1
102
RTVSPropertyOp14
 70
     1
102
RTVSPropertyOp15
 70
     1
102
RTVSPropertyOp16
 70
     1
102
RTVSPropertyOp17
 70
     1
102
RTVSPropertyOp18
 70
     1
102
RTVSPropertyOp19
 70
     1
102
RTVSPropertyOp20
 70
     1
102
RTVSPropertyOp21
 70
     1
102
RTVSPropertyOp22
 70
     1
102
RTVSPropertyOp23
 70
     1
102
RTVSPropertyOp24
 70
     1
102
RTVSPropertyOp25
 70
     1
102
RTVSPropertyOp26
 70
     1
102
RTVSPropertyOp27
 70
     1
  0
XRECORD
  5
477C
102
{ACAD_REACTORS
330
477B
102
}
330
477B
100
AcDbXrecord
280
     1
102
RTVSPropertyOp0
 70
     1
102
RTVSPropertyOp1
 70
     1
102
RTVSPropertyOp2
 70
     1
102
RTVSPropertyOp3
 70
     1
102
RTVSPropertyOp4
 70
     1
102
RTVSPropertyOp5
 70
     1
102
RTVSPropertyOp6
 70
     1
102
RTVSPropertyOp7
 70
     1
102
RTVSPropertyOp8
 70
     1
102
RTVSPropertyOp9
 70
     1
102
RTVSPropertyOp10
 70
     1
102
RTVSPropertyOp11
 70
     1
102
RTVSPropertyOp12
 70
     1
102
RTVSPropertyOp13
 70
     1
102
RTVSPropertyOp14
 70
     1
102
RTVSPropertyOp15
 70
     1
102
RTVSPropertyOp16
 70
     1
102
RTVSPropertyOp17
 70
     1
102
RTVSPropertyOp18
 70
     1
102
RTVSPropertyOp19
 70
     1
102
RTVSPropertyOp20
 70
     1
102
RTVSPropertyOp21
 70
     1
102
RTVSPropertyOp22
 70
     1
102
RTVSPropertyOp23
 70
     1
102
RTVSPropertyOp24
 70
     1
102
RTVSPropertyOp25
 70
     1
102
RTVSPropertyOp26
 70
     1
102
RTVSPropertyOp27
 70
     1
  0
XRECORD
  5
4780
102
{ACAD_REACTORS
330
477F
102
}
330
477F
100
AcDbXrecord
280
     1
102
RTVSPropertyOp0
 70
     1
102
RTVSPropertyOp1
 70
     1
102
RTVSPropertyOp2
 70
     1
102
RTVSPropertyOp3
 70
     1
102
RTVSPropertyOp4
 70
     1
102
RTVSPropertyOp5
 70
     1
102
RTVSPropertyOp6
 70
     1
102
RTVSPropertyOp7
 70
     1
102
RTVSPropertyOp8
 70
     1
102
RTVSPropertyOp9
 70
     1
102
RTVSPropertyOp10
 70
     1
102
RTVSPropertyOp11
 70
     1
102
RTVSPropertyOp12
 70
     1
102
RTVSPropertyOp13
 70
     1
102
RTVSPropertyOp14
 70
     1
102
RTVSPropertyOp15
 70
     1
102
RTVSPropertyOp16
 70
     1
102
RTVSPropertyOp17
 70
     1
102
RTVSPropertyOp18
 70
     1
102
RTVSPropertyOp19
 70
     1
102
RTVSPropertyOp20
 70
     1
102
RTVSPropertyOp21
 70
     1
102
RTVSPropertyOp22
 70
     1
102
RTVSPropertyOp23
 70
     1
102
RTVSPropertyOp24
 70
     1
102
RTVSPropertyOp25
 70
     1
102
RTVSPropertyOp26
 70
     1
102
RTVSPropertyOp27
 70
     1
  0
XRECORD
  5
4790
102
{ACAD_REACTORS
330
478F
102
}
330
478F
100
AcDbXrecord
280
     1
102
RTVSPropertyOp0
 70
     0
102
RTVSPropertyOp1
 70
     0
102
RTVSPropertyOp2
 70
     0
102
RTVSPropertyOp3
 70
     0
102
RTVSPropertyOp4
 70
     0
102
RTVSPropertyOp5
 70
     0
102
RTVSPropertyOp6
 70
     0
102
RTVSPropertyOp7
 70
     0
102
RTVSPropertyOp8
 70
     0
102
RTVSPropertyOp9
 70
     0
102
RTVSPropertyOp10
 70
     0
102
RTVSPropertyOp11
 70
     0
102
RTVSPropertyOp12
 70
     0
102
RTVSPropertyOp13
 70
     0
102
RTVSPropertyOp14
 70
     2
102
RTVSPropertyOp15
 70
     0
102
RTVSPropertyOp16
 70
     0
102
RTVSPropertyOp17
 70
     0
102
RTVSPropertyOp18
 70
     0
102
RTVSPropertyOp19
 70
     0
102
RTVSPropertyOp20
 70
     0
102
RTVSPropertyOp21
 70
     0
102
RTVSPropertyOp22
 70
     0
102
RTVSPropertyOp23
 70
     0
102
RTVSPropertyOp24
 70
     0
102
RTVSPropertyOp25
 70
     0
102
RTVSPropertyOp26
 70
     0
102
RTVSPropertyOp27
 70
     0
  0
XRECORD
  5
4788
102
{ACAD_REACTORS
330
4787
102
}
330
4787
100
AcDbXrecord
280
     1
102
RTVSPropertyOp0
 70
     1
102
RTVSPropertyOp1
 70
     1
102
RTVSPropertyOp2
 70
     1
102
RTVSPropertyOp3
 70
     1
102
RTVSPropertyOp4
 70
     1
102
RTVSPropertyOp5
 70
     1
102
RTVSPropertyOp6
 70
     1
102
RTVSPropertyOp7
 70
     1
102
RTVSPropertyOp8
 70
     1
102
RTVSPropertyOp9
 70
     1
102
RTVSPropertyOp10
 70
     1
102
RTVSPropertyOp11
 70
     1
102
RTVSPropertyOp12
 70
     1
102
RTVSPropertyOp13
 70
     1
102
RTVSPropertyOp14
 70
     1
102
RTVSPropertyOp15
 70
     1
102
RTVSPropertyOp16
 70
     1
102
RTVSPropertyOp17
 70
     1
102
RTVSPropertyOp18
 70
     1
102
RTVSPropertyOp19
 70
     1
102
RTVSPropertyOp20
 70
     1
102
RTVSPropertyOp21
 70
     1
102
RTVSPropertyOp22
 70
     1
102
RTVSPropertyOp23
 70
     1
102
RTVSPropertyOp24
 70
     1
102
RTVSPropertyOp25
 70
     1
102
RTVSPropertyOp26
 70
     1
102
RTVSPropertyOp27
 70
     1
  0
XRECORD
  5
476C
102
{ACAD_REACTORS
330
476B
102
}
330
476B
100
AcDbXrecord
280
     1
102
RTVSPropertyOp0
 70
     1
102
RTVSPropertyOp1
 70
     1
102
RTVSPropertyOp2
 70
     1
102
RTVSPropertyOp3
 70
     1
102
RTVSPropertyOp4
 70
     1
102
RTVSPropertyOp5
 70
     1
102
RTVSPropertyOp6
 70
     1
102
RTVSPropertyOp7
 70
     1
102
RTVSPropertyOp8
 70
     1
102
RTVSPropertyOp9
 70
     1
102
RTVSPropertyOp10
 70
     1
102
RTVSPropertyOp11
 70
     1
102
RTVSPropertyOp12
 70
     1
102
RTVSPropertyOp13
 70
     1
102
RTVSPropertyOp14
 70
     1
102
RTVSPropertyOp15
 70
     1
102
RTVSPropertyOp16
 70
     1
102
RTVSPropertyOp17
 70
     1
102
RTVSPropertyOp18
 70
     1
102
RTVSPropertyOp19
 70
     1
102
RTVSPropertyOp20
 70
     1
102
RTVSPropertyOp21
 70
     1
102
RTVSPropertyOp22
 70
     1
102
RTVSPropertyOp23
 70
     1
102
RTVSPropertyOp24
 70
     1
102
RTVSPropertyOp25
 70
     1
102
RTVSPropertyOp26
 70
     1
102
RTVSPropertyOp27
 70
     1
  0
XRECORD
  5
476E
102
{ACAD_REACTORS
330
476D
102
}
330
476D
100
AcDbXrecord
280
     1
102
RTVSPropertyOp0
 70
     1
102
RTVSPropertyOp1
 70
     1
102
RTVSPropertyOp2
 70
     1
102
RTVSPropertyOp3
 70
     1
102
RTVSPropertyOp4
 70
     1
102
RTVSPropertyOp5
 70
     1
102
RTVSPropertyOp6
 70
     1
102
RTVSPropertyOp7
 70
     1
102
RTVSPropertyOp8
 70
     1
102
RTVSPropertyOp9
 70
     1
102
RTVSPropertyOp10
 70
     1
102
RTVSPropertyOp11
 70
     1
102
RTVSPropertyOp12
 70
     1
102
RTVSPropertyOp13
 70
     1
102
RTVSPropertyOp14
 70
     1
102
RTVSPropertyOp15
 70
     1
102
RTVSPropertyOp16
 70
     1
102
RTVSPropertyOp17
 70
     1
102
RTVSPropertyOp18
 70
     1
102
RTVSPropertyOp19
 70
     1
102
RTVSPropertyOp20
 70
     1
102
RTVSPropertyOp21
 70
     1
102
RTVSPropertyOp22
 70
     1
102
RTVSPropertyOp23
 70
     1
102
RTVSPropertyOp24
 70
     1
102
RTVSPropertyOp25
 70
     1
102
RTVSPropertyOp26
 70
     1
102
RTVSPropertyOp27
 70
     1
  0
XRECORD
  5
4770
102
{ACAD_REACTORS
330
476F
102
}
330
476F
100
AcDbXrecord
280
     1
102
RTVSPropertyOp0
 70
     1
102
RTVSPropertyOp1
 70
     1
102
RTVSPropertyOp2
 70
     1
102
RTVSPropertyOp3
 70
     1
102
RTVSPropertyOp4
 70
     1
102
RTVSPropertyOp5
 70
     1
102
RTVSPropertyOp6
 70
     1
102
RTVSPropertyOp7
 70
     1
102
RTVSPropertyOp8
 70
     1
102
RTVSPropertyOp9
 70
     1
102
RTVSPropertyOp10
 70
     1
102
RTVSPropertyOp11
 70
     1
102
RTVSPropertyOp12
 70
     1
102
RTVSPropertyOp13
 70
     1
102
RTVSPropertyOp14
 70
     1
102
RTVSPropertyOp15
 70
     1
102
RTVSPropertyOp16
 70
     1
102
RTVSPropertyOp17
 70
     1
102
RTVSPropertyOp18
 70
     1
102
RTVSPropertyOp19
 70
     1
102
RTVSPropertyOp20
 70
     1
102
RTVSPropertyOp21
 70
     1
102
RTVSPropertyOp22
 70
     1
102
RTVSPropertyOp23
 70
     1
102
RTVSPropertyOp24
 70
     1
102
RTVSPropertyOp25
 70
     1
102
RTVSPropertyOp26
 70
     1
102
RTVSPropertyOp27
 70
     1
  0
XRECORD
  5
4772
102
{ACAD_REACTORS
330
4771
102
}
330
4771
100
AcDbXrecord
280
     1
102
RTVSPropertyOp0
 70
     1
102
RTVSPropertyOp1
 70
     1
102
RTVSPropertyOp2
 70
     1
102
RTVSPropertyOp3
 70
     1
102
RTVSPropertyOp4
 70
     1
102
RTVSPropertyOp5
 70
     1
102
RTVSPropertyOp6
 70
     1
102
RTVSPropertyOp7
 70
     1
102
RTVSPropertyOp8
 70
     1
102
RTVSPropertyOp9
 70
     1
102
RTVSPropertyOp10
 70
     1
102
RTVSPropertyOp11
 70
     1
102
RTVSPropertyOp12
 70
     1
102
RTVSPropertyOp13
 70
     1
102
RTVSPropertyOp14
 70
     1
102
RTVSPropertyOp15
 70
     1
102
RTVSPropertyOp16
 70
     1
102
RTVSPropertyOp17
 70
     1
102
RTVSPropertyOp18
 70
     1
102
RTVSPropertyOp19
 70
     1
102
RTVSPropertyOp20
 70
     1
102
RTVSPropertyOp21
 70
     1
102
RTVSPropertyOp22
 70
     1
102
RTVSPropertyOp23
 70
     1
102
RTVSPropertyOp24
 70
     1
102
RTVSPropertyOp25
 70
     1
102
RTVSPropertyOp26
 70
     1
102
RTVSPropertyOp27
 70
     1
  0
XRECORD
  5
478C
102
{ACAD_REACTORS
330
478B
102
}
330
478B
100
AcDbXrecord
280
     1
102
RTVSPropertyOp0
 70
     0
102
RTVSPropertyOp1
 70
     0
102
RTVSPropertyOp2
 70
     0
102
RTVSPropertyOp3
 70
     0
102
RTVSPropertyOp4
 70
     0
102
RTVSPropertyOp5
 70
     0
102
RTVSPropertyOp6
 70
     0
102
RTVSPropertyOp7
 70
     0
102
RTVSPropertyOp8
 70
     0
102
RTVSPropertyOp9
 70
     0
102
RTVSPropertyOp10
 70
     0
102
RTVSPropertyOp11
 70
     0
102
RTVSPropertyOp12
 70
     0
102
RTVSPropertyOp13
 70
     0
102
RTVSPropertyOp14
 70
     2
102
RTVSPropertyOp15
 70
     0
102
RTVSPropertyOp16
 70
     0
102
RTVSPropertyOp17
 70
     0
102
RTVSPropertyOp18
 70
     0
102
RTVSPropertyOp19
 70
     0
102
RTVSPropertyOp20
 70
     0
102
RTVSPropertyOp21
 70
     0
102
RTVSPropertyOp22
 70
     0
102
RTVSPropertyOp23
 70
     0
102
RTVSPropertyOp24
 70
     0
102
RTVSPropertyOp25
 70
     0
102
RTVSPropertyOp26
 70
     0
102
RTVSPropertyOp27
 70
     0
  0
XRECORD
  5
4786
102
{ACAD_REACTORS
330
4785
102
}
330
4785
100
AcDbXrecord
280
     1
102
RTVSPropertyOp0
 70
     1
102
RTVSPropertyOp1
 70
     1
102
RTVSPropertyOp2
 70
     1
102
RTVSPropertyOp3
 70
     1
102
RTVSPropertyOp4
 70
     1
102
RTVSPropertyOp5
 70
     1
102
RTVSPropertyOp6
 70
     1
102
RTVSPropertyOp7
 70
     1
102
RTVSPropertyOp8
 70
     1
102
RTVSPropertyOp9
 70
     1
102
RTVSPropertyOp10
 70
     1
102
RTVSPropertyOp11
 70
     1
102
RTVSPropertyOp12
 70
     1
102
RTVSPropertyOp13
 70
     1
102
RTVSPropertyOp14
 70
     1
102
RTVSPropertyOp15
 70
     1
102
RTVSPropertyOp16
 70
     1
102
RTVSPropertyOp17
 70
     1
102
RTVSPropertyOp18
 70
     1
102
RTVSPropertyOp19
 70
     1
102
RTVSPropertyOp20
 70
     1
102
RTVSPropertyOp21
 70
     1
102
RTVSPropertyOp22
 70
     1
102
RTVSPropertyOp23
 70
     1
102
RTVSPropertyOp24
 70
     1
102
RTVSPropertyOp25
 70
     1
102
RTVSPropertyOp26
 70
     1
102
RTVSPropertyOp27
 70
     1
  0
XRECORD
  5
478E
102
{ACAD_REACTORS
330
478D
102
}
330
478D
100
AcDbXrecord
280
     1
102
RTVSPropertyOp0
 70
     0
102
RTVSPropertyOp1
 70
     0
102
RTVSPropertyOp2
 70
     0
102
RTVSPropertyOp3
 70
     0
102
RTVSPropertyOp4
 70
     0
102
RTVSPropertyOp5
 70
     0
102
RTVSPropertyOp6
 70
     0
102
RTVSPropertyOp7
 70
     0
102
RTVSPropertyOp8
 70
     0
102
RTVSPropertyOp9
 70
     0
102
RTVSPropertyOp10
 70
     0
102
RTVSPropertyOp11
 70
     0
102
RTVSPropertyOp12
 70
     0
102
RTVSPropertyOp13
 70
     0
102
RTVSPropertyOp14
 70
     2
102
RTVSPropertyOp15
 70
     0
102
RTVSPropertyOp16
 70
     0
102
RTVSPropertyOp17
 70
     0
102
RTVSPropertyOp18
 70
     0
102
RTVSPropertyOp19
 70
     0
102
RTVSPropertyOp20
 70
     0
102
RTVSPropertyOp21
 70
     0
102
RTVSPropertyOp22
 70
     0
102
RTVSPropertyOp23
 70
     0
102
RTVSPropertyOp24
 70
     0
102
RTVSPropertyOp25
 70
     0
102
RTVSPropertyOp26
 70
     0
102
RTVSPropertyOp27
 70
     0
  0
XRECORD
  5
477E
102
{ACAD_REACTORS
330
477D
102
}
330
477D
100
AcDbXrecord
280
     1
102
RTVSPropertyOp0
 70
     1
102
RTVSPropertyOp1
 70
     1
102
RTVSPropertyOp2
 70
     1
102
RTVSPropertyOp3
 70
     1
102
RTVSPropertyOp4
 70
     1
102
RTVSPropertyOp5
 70
     1
102
RTVSPropertyOp6
 70
     1
102
RTVSPropertyOp7
 70
     1
102
RTVSPropertyOp8
 70
     1
102
RTVSPropertyOp9
 70
     1
102
RTVSPropertyOp10
 70
     1
102
RTVSPropertyOp11
 70
     1
102
RTVSPropertyOp12
 70
     1
102
RTVSPropertyOp13
 70
     1
102
RTVSPropertyOp14
 70
     1
102
RTVSPropertyOp15
 70
     1
102
RTVSPropertyOp16
 70
     1
102
RTVSPropertyOp17
 70
     1
102
RTVSPropertyOp18
 70
     1
102
RTVSPropertyOp19
 70
     1
102
RTVSPropertyOp20
 70
     1
102
RTVSPropertyOp21
 70
     1
102
RTVSPropertyOp22
 70
     1
102
RTVSPropertyOp23
 70
     1
102
RTVSPropertyOp24
 70
     1
102
RTVSPropertyOp25
 70
     1
102
RTVSPropertyOp26
 70
     1
102
RTVSPropertyOp27
 70
     1
  0
XRECORD
  5
4784
102
{ACAD_REACTORS
330
4783
102
}
330
4783
100
AcDbXrecord
280
     1
102
RTVSPropertyOp0
 70
     1
102
RTVSPropertyOp1
 70
     1
102
RTVSPropertyOp2
 70
     1
102
RTVSPropertyOp3
 70
     1
102
RTVSPropertyOp4
 70
     1
102
RTVSPropertyOp5
 70
     1
102
RTVSPropertyOp6
 70
     1
102
RTVSPropertyOp7
 70
     1
102
RTVSPropertyOp8
 70
     1
102
RTVSPropertyOp9
 70
     1
102
RTVSPropertyOp10
 70
     1
102
RTVSPropertyOp11
 70
     1
102
RTVSPropertyOp12
 70
     1
102
RTVSPropertyOp13
 70
     1
102
RTVSPropertyOp14
 70
     1
102
RTVSPropertyOp15
 70
     1
102
RTVSPropertyOp16
 70
     1
102
RTVSPropertyOp17
 70
     1
102
RTVSPropertyOp18
 70
     1
102
RTVSPropertyOp19
 70
     1
102
RTVSPropertyOp20
 70
     1
102
RTVSPropertyOp21
 70
     1
102
RTVSPropertyOp22
 70
     1
102
RTVSPropertyOp23
 70
     1
102
RTVSPropertyOp24
 70
     1
102
RTVSPropertyOp25
 70
     1
102
RTVSPropertyOp26
 70
     1
102
RTVSPropertyOp27
 70
     1
  0
ENDSEC
  0
EOF
