  0
SECTION
  2
HEADER
  9
$ACADVER
  1
AC1015
  9
$ACADMAINTVER
 70
    20
  9
$DWGCODEPAGE
  3
ANSI_1252
  9
$INSBASE
 10
0.0
 20
0.0
 30
0.0
  9
$EXTMIN
 10
100.5747666873742
 20
324.4391545409151
 30
-0.0000000349181948
  9
$EXTMAX
 10
504.6960887387495
 20
573.0480712844671
 30
0.0000000814935746
  9
$LIMMIN
 10
0.0
 20
0.0
  9
$LIMMAX
 10
420.0
 20
297.0
  9
$ORTHOMODE
 70
     0
  9
$REGENMODE
 70
     1
  9
$FILLMODE
 70
     1
  9
$QTEXTMODE
 70
     0
  9
$MIRRTEXT
 70
     1
  9
$LTSCALE
 40
1.0
  9
$ATTMODE
 70
     1
  9
$TEXTSIZE
 40
2.5
  9
$TRACEWID
 40
1.0
  9
$TEXTSTYLE
  7
STANDARD
  9
$CLAYER
  8
0
  9
$CELTYPE
  6
ByLayer
  9
$CECOLOR
 62
   256
  9
$CELTSCALE
 40
1.0
  9
$DISPSILH
 70
     0
  9
$DIMSCALE
 40
1.0
  9
$DIMASZ
 40
2.5
  9
$DIMEXO
 40
1.0
  9
$DIMDLI
 40
10.0
  9
$DIMRND
 40
0.0
  9
$DIMDLE
 40
0.0
  9
$DIMEXE
 40
1.0
  9
$DIMTP
 40
0.1
  9
$DIMTM
 40
0.1
  9
$DIMTXT
 40
3.5
  9
$DIMCEN
 40
0.0
  9
$DIMTSZ
 40
0.0
  9
$DIMTOL
 70
     0
  9
$DIMLIM
 70
     0
  9
$DIMTIH
 70
     0
  9
$DIMTOH
 70
     0
  9
$DIMSE1
 70
     0
  9
$DIMSE2
 70
     0
  9
$DIMTAD
 70
     1
  9
$DIMZIN
 70
     8
  9
$DIMBLK
  1

  9
$DIMASO
 70
     1
  9
$DIMSHO
 70
     1
  9
$DIMPOST
  1

  9
$DIMAPOST
  1
"
  9
$DIMALT
 70
     0
  9
$DIMALTD
 70
     2
  9
$DIMALTF
 40
0.0393701
  9
$DIMLFAC
 40
1.0
  9
$DIMTOFL
 70
     1
  9
$DIMTVP
 40
0.0
  9
$DIMTIX
 70
     0
  9
$DIMSOXD
 70
     0
  9
$DIMSAH
 70
     0
  9
$DIMBLK1
  1

  9
$DIMBLK2
  1

  9
$DIMSTYLE
  2
AM_DIN
  9
$DIMCLRD
 70
   256
  9
$DIMCLRE
 70
   256
  9
$DIMCLRT
 70
     2
  9
$DIMTFAC
 40
0.71
  9
$DIMGAP
 40
1.5
  9
$DIMJUST
 70
     0
  9
$DIMSD1
 70
     0
  9
$DIMSD2
 70
     0
  9
$DIMTOLJ
 70
     0
  9
$DIMTZIN
 70
     8
  9
$DIMALTZ
 70
     0
  9
$DIMALTTZ
 70
     0
  9
$DIMUPT
 70
     0
  9
$DIMDEC
 70
     2
  9
$DIMTDEC
 70
     3
  9
$DIMALTU
 70
     2
  9
$DIMALTTD
 70
     4
  9
$DIMTXSTY
  7
STANDARD
  9
$DIMAUNIT
 70
     0
  9
$DIMADEC
 70
     0
  9
$DIMALTRND
 40
0.0
  9
$DIMAZIN
 70
     2
  9
$DIMDSEP
 70
    46
  9
$DIMATFIT
 70
     3
  9
$DIMFRAC
 70
     0
  9
$DIMLDRBLK
  1

  9
$DIMLUNIT
 70
     2
  9
$DIMLWD
 70
    -1
  9
$DIMLWE
 70
    -1
  9
$DIMTMOVE
 70
     0
  9
$LUNITS
 70
     2
  9
$LUPREC
 70
     2
  9
$SKETCHINC
 40
1.0
  9
$FILLETRAD
 40
2.5
  9
$AUNITS
 70
     0
  9
$AUPREC
 70
     0
  9
$MENU
  1
.
  9
$ELEVATION
 40
0.0
  9
$PELEVATION
 40
0.0
  9
$THICKNESS
 40
0.0
  9
$LIMCHECK
 70
     0
  9
$CHAMFERA
 40
2.5
  9
$CHAMFERB
 40
2.5
  9
$CHAMFERC
 40
20.0
  9
$CHAMFERD
 40
0.0
  9
$SKPOLY
 70
     0
  9
$TDCREATE
 40
2452702.515835023
  9
$TDUCREATE
 40
2452702.474168357
  9
$TDUPDATE
 40
2454041.893740891
  9
$TDUUPDATE
 40
2454041.852074225
  9
$TDINDWG
 40
0.0034294907
  9
$TDUSRTIMER
 40
0.0034294907
  9
$USRTIMER
 70
     1
  9
$ANGBASE
 50
0.0
  9
$ANGDIR
 70
     0
  9
$PDMODE
 70
     0
  9
$PDSIZE
 40
0.0
  9
$PLINEWID
 40
0.0
  9
$SPLFRAME
 70
     0
  9
$SPLINETYPE
 70
     6
  9
$SPLINESEGS
 70
     8
  9
$HANDSEED
  5
97B
  9
$SURFTAB1
 70
     6
  9
$SURFTAB2
 70
     6
  9
$SURFTYPE
 70
     6
  9
$SURFU
 70
     6
  9
$SURFV
 70
     6
  9
$UCSBASE
  2

  9
$UCSNAME
  2

  9
$UCSORG
 10
0.0
 20
0.0
 30
0.0
  9
$UCSXDIR
 10
1.0
 20
0.0
 30
0.0
  9
$UCSYDIR
 10
0.0
 20
1.0
 30
0.0
  9
$UCSORTHOREF
  2

  9
$UCSORTHOVIEW
 70
     0
  9
$UCSORGTOP
 10
0.0
 20
0.0
 30
0.0
  9
$UCSORGBOTTOM
 10
0.0
 20
0.0
 30
0.0
  9
$UCSORGLEFT
 10
0.0
 20
0.0
 30
0.0
  9
$UCSORGRIGHT
 10
0.0
 20
0.0
 30
0.0
  9
$UCSORGFRONT
 10
0.0
 20
0.0
 30
0.0
  9
$UCSORGBACK
 10
0.0
 20
0.0
 30
0.0
  9
$PUCSBASE
  2

  9
$PUCSNAME
  2

  9
$PUCSORG
 10
0.0
 20
0.0
 30
0.0
  9
$PUCSXDIR
 10
1.0
 20
0.0
 30
0.0
  9
$PUCSYDIR
 10
0.0
 20
1.0
 30
0.0
  9
$PUCSORTHOREF
  2

  9
$PUCSORTHOVIEW
 70
     0
  9
$PUCSORGTOP
 10
0.0
 20
0.0
 30
0.0
  9
$PUCSORGBOTTOM
 10
0.0
 20
0.0
 30
0.0
  9
$PUCSORGLEFT
 10
0.0
 20
0.0
 30
0.0
  9
$PUCSORGRIGHT
 10
0.0
 20
0.0
 30
0.0
  9
$PUCSORGFRONT
 10
0.0
 20
0.0
 30
0.0
  9
$PUCSORGBACK
 10
0.0
 20
0.0
 30
0.0
  9
$USERI1
 70
     0
  9
$USERI2
 70
     0
  9
$USERI3
 70
     0
  9
$USERI4
 70
     0
  9
$USERI5
 70
     0
  9
$USERR1
 40
0.0
  9
$USERR2
 40
0.0
  9
$USERR3
 40
0.0
  9
$USERR4
 40
0.0
  9
$USERR5
 40
0.0
  9
$WORLDVIEW
 70
     1
  9
$SHADEDGE
 70
     3
  9
$SHADEDIF
 70
    70
  9
$TILEMODE
 70
     1
  9
$MAXACTVP
 70
    64
  9
$PINSBASE
 10
0.0
 20
0.0
 30
0.0
  9
$PLIMCHECK
 70
     0
  9
$PEXTMIN
 10
1.000000000000000E+20
 20
1.000000000000000E+20
 30
1.000000000000000E+20
  9
$PEXTMAX
 10
-1.000000000000000E+20
 20
-1.000000000000000E+20
 30
-1.000000000000000E+20
  9
$PLIMMIN
 10
0.0
 20
0.0
  9
$PLIMMAX
 10
420.0
 20
297.0
  9
$UNITMODE
 70
     0
  9
$VISRETAIN
 70
     1
  9
$PLINEGEN
 70
     0
  9
$PSLTSCALE
 70
     1
  9
$TREEDEPTH
 70
  3020
  9
$CMLSTYLE
  2
Standard
  9
$CMLJUST
 70
     0
  9
$CMLSCALE
 40
20.0
  9
$PROXYGRAPHICS
 70
     1
  9
$MEASUREMENT
 70
     1
  9
$CELWEIGHT
370
    -1
  9
$ENDCAPS
280
     0
  9
$JOINSTYLE
280
     0
  9
$LWDISPLAY
290
     0
  9
$INSUNITS
 70
     4
  9
$HYPERLINKBASE
  1

  9
$STYLESHEET
  1
monochrome.ctb
  9
$XEDIT
290
     1
  9
$CEPSNTYPE
380
     0
  9
$PSTYLEMODE
290
     1
  9
$FINGERPRINTGUID
  2
{D5091DE6-A8E7-4749-B1FA-F4240FAEB0F0}
  9
$VERSIONGUID
  2
{0A660E47-24C6-4E92-AE11-2F4B7DE93DE8}
  9
$EXTNAMES
290
     1
  9
$PSVPSCALE
 40
0.0
  9
$OLESTARTUP
290
     0
  0
ENDSEC
  0
SECTION
  2
CLASSES
  0
CLASS
  1
ACDBDICTIONARYWDFLT
  2
AcDbDictionaryWithDefault
  3
ObjectDBX Classes
 90
        0
280
     0
281
     0
  0
CLASS
  1
ACDBPLACEHOLDER
  2
AcDbPlaceHolder
  3
ObjectDBX Classes
 90
        0
280
     0
281
     0
  0
CLASS
  1
LAYOUT
  2
AcDbLayout
  3
ObjectDBX Classes
 90
        0
280
     0
281
     0
  0
CLASS
  1
AMGSETTINGSOBJ
  2
AmgSettingsObj
  3
"AcadM|Product Description: AutoCAD Mechanical 2000|Company: Autodesk"
 90
        0
280
     0
281
     0
  0
CLASS
  1
ACME_DOCUMENT
  2
AcMeDbDoc
  3
AcMeServices
 90
        0
280
     0
281
     0
  0
CLASS
  1
ACMESCOPE
  2
AcMeScope
  3
AcMeServices
 90
        0
280
     0
281
     0
  0
CLASS
  1
ACMECOMMANDHISTORY
  2
AcMeCommandHistory
  3
AcMeServices
 90
        0
280
     0
281
     0
  0
CLASS
  1
DICTIONARYVAR
  2
AcDbDictionaryVar
  3
ObjectDBX Classes
 90
        0
280
     0
281
     0
  0
CLASS
  1
ACIMSYSVARMAN
  2
AcImSysVarManager
  3
AcMeServices
 90
        0
280
     0
281
     0
  0
CLASS
  1
ACIMREALSYSVAR
  2
AcImRealSysVar
  3
AcMeServices
 90
        0
280
     0
281
     0
  0
CLASS
  1
ACIMINTSYSVAR
  2
AcImIntSysVar
  3
AcMeServices
 90
        0
280
     0
281
     0
  0
CLASS
  1
ACMEDRAWINGMAN
  2
AcMeDrawingMan
  3
AcMeServices
 90
        0
280
     0
281
     0
  0
CLASS
  1
ACMEVIEW
  2
AcMeView
  3
AcMeServices
 90
        0
280
     0
281
     0
  0
CLASS
  1
ACDBENTITYCACHE
  2
AcMeEntityCache
  3
AcMeServices
 90
        0
280
     0
281
     0
  0
CLASS
  1
GSMANAGER
  2
AcMeGSManager
  3
AcMeServices
 90
        0
280
     0
281
     0
  0
CLASS
  1
AMDTINTERNALREACTOR
  2
AmdtInternalReactor
  3
AcMeServices
 90
        0
280
     0
281
     0
  0
CLASS
  1
ACMESTATEMGR
  2
AcMeStateMgr
  3
AcMeServices
 90
        0
280
     0
281
     0
  0
CLASS
  1
ACGREFMASTER
  2
AcGrefMaster
  3
AcAttribServices
 90
        0
280
     0
281
     0
  0
CLASS
  1
ACME_DATABASE
  2
AcMeDbDatabase
  3
AcMeServices
 90
        0
280
     0
281
     0
  0
CLASS
  1
ACRFINSADJUSTERMGR
  2
AcRfInsAdjusterMgr
  3
AcMeServices
 90
        0
280
     0
281
     0
  0
CLASS
  1
ACGREFACADMASTER
  2
AcGrefacadMaster
  3
AcGrefServices
 90
        0
280
     0
281
     0
  0
CLASS
  1
AMIMASTER
  2
AmiMaster
  3
AmiServices
 90
        0
280
     0
281
     0
  0
CLASS
  1
ACMDATADICTIONARY
  2
AcmDataDictionary
  3
"AcmSymBB|Product Description: AutoCAD Mechanical 2004 DX|Company: Autodesk"
 90
        0
280
     0
281
     0
  0
CLASS
  1
ACMDATAENTRYBLOCK
  2
AcmDataEntryBlock
  3
"AcmSymBB|Product Description: AutoCAD Mechanical 2004 DX|Company: Autodesk"
 90
        0
280
     0
281
     0
  0
CLASS
  1
ACIMSTRSYSVAR
  2
AcImStrSysVar
  3
AcMeServices
 90
        0
280
     0
281
     0
  0
CLASS
  1
ACMSTANDARDDIN
  2
AcmStandardDIN
  3
"Amdt_StdImp|Product Description: AutoCAD Mechanical 2004 DX|Company: Autodesk"
 90
        0
280
     0
281
     0
  0
CLASS
  1
AMGOBJPROPCFG
  2
AmgObjPropCfg
  3
"AmgLay|Product Description: AutoCAD Mechanical 2000|Company: Autodesk"
 90
        1
280
     0
281
     0
  0
CLASS
  1
AMDTEDGESTANDARDDIN
  2
AmdtEdgeStdDIN
  3
"Amdt_StdImp|Product Description: AutoCAD Mechanical 2004 DX|Company: Autodesk"
 90
        0
280
     0
281
     0
  0
CLASS
  1
ACMSURFSTANDARDDIN
  2
AcmSurfTextStdDIN
  3
"Amdt_StdImp|Product Description: AutoCAD Mechanical 2004 DX|Company: Autodesk"
 90
        0
280
     0
281
     0
  0
CLASS
  1
ACMFCFSTANDARDDIN
  2
AcmFCFStdDIN
  3
"Amdt_StdImp|Product Description: AutoCAD Mechanical 2004 DX|Company: Autodesk"
 90
        0
280
     0
281
     0
  0
CLASS
  1
ACMWELDSTANDARDDIN
  2
AcmWeldingStdDIN
  3
"Amdt_StdImp|Product Description: AutoCAD Mechanical 2004 DX|Company: Autodesk"
 90
        0
280
     0
281
     0
  0
CLASS
  1
ACMIDSTANDARDDIN
  2
AcmIdStdDIN
  3
"Amdt_StdImp|Product Description: AutoCAD Mechanical 2004 DX|Company: Autodesk"
 90
        0
280
     0
281
     0
  0
CLASS
  1
ACMDATUMSTANDARDDIN
  2
AcmDatumStdDIN
  3
"Amdt_StdImp|Product Description: AutoCAD Mechanical 2004 DX|Company: Autodesk"
 90
        0
280
     0
281
     0
  0
CLASS
  1
ACMBOMSTANDARDDIN
  2
AcmBOMStdDIN
  3
"Amdt_StdImp|Product Description: AutoCAD Mechanical 2004 DX|Company: Autodesk"
 90
        0
280
     0
281
     0
  0
CLASS
  1
ACMDETAILSTANDARDDIN
  2
AmdtDetailSymStdDIN
  3
"Amdt_StdImp|Product Description: AutoCAD Mechanical 2004 DX|Company: Autodesk"
 90
        0
280
     0
281
     0
  0
CLASS
  1
ACMSECTIONSTANDARDDIN
  2
AmdtSectionSymStdDIN
  3
"Amdt_StdImp|Product Description: AutoCAD Mechanical 2004 DX|Company: Autodesk"
 90
        0
280
     0
281
     0
  0
CLASS
  1
ACMCENTERLINESTANDARDDIN
  2
AmdtCenterLineStdDIN
  3
"Amdt_StdImp|Product Description: AutoCAD Mechanical 2004 DX|Company: Autodesk"
 90
        0
280
     0
281
     0
  0
CLASS
  1
ACAMGLAYSTD
  2
AcAmgLayStd
  3
"AcAmgLayStd|Product Description: AutoCAD Mechanical 2000|Company: Autodesk"
 90
        0
280
     0
281
     0
  0
CLASS
  1
ACAMGDIMSTD
  2
AcAmgDimStd
  3
"AcAmgDimStd|Product Description: AutoCAD Mechanical 2000|Company: Autodesk"
 90
        0
280
     0
281
     0
  0
CLASS
  1
ACAMGTITLESTD
  2
AcAmgTitleStd
  3
"TITLEAPP"
 90
        0
280
     0
281
     0
  0
CLASS
  1
LAYER_INDEX
  2
AcDbLayerIndex
  3
ObjectDBX Classes
 90
        0
280
     0
281
     0
  0
CLASS
  1
IDBUFFER
  2
AcDbIdBuffer
  3
ObjectDBX Classes
 90
        0
280
     0
281
     0
  0
CLASS
  1
ACAMGFILTERDAT
  2
AcAmgFilterDat
  3
"AcadM|Product Description: AutoCAD Mechanical 2000|Company: Autodesk"
 90
        0
280
     0
281
     0
  0
CLASS
  1
TABLESTYLE
  2
AcDbTableStyle
  3
ObjectDBX Classes
 90
     2047
280
     0
281
     0
  0
CLASS
  1
AM_DRAWING_MGR
  2
AcDmDwgMgr
  3
AcMechDwgViewMgmt
 90
        0
280
     0
281
     0
  0
CLASS
  1
AM_DWG_DOCUMENT
  2
AcDmDwgDocument
  3
AcMechDwgViewMgmt
 90
        0
280
     0
281
     0
  0
CLASS
  1
AM_DWG_SHEET
  2
AcDmSheet
  3
AcMechDwgViewMgmt
 90
        0
280
     0
281
     0
  0
CLASS
  1
AM_VIEWDIMPARMAP
  2
AcDmViewDimParMap
  3
AcMechDwgViewMgmt
 90
        0
280
     0
281
     0
  0
CLASS
  1
AM_DWGMGR_NAME
  2
AcDmDwgMgrName
  3
AcMechDwgViewMgmt
 90
        0
280
     0
281
     0
  0
CLASS
  1
AMDTMENUSTATEMGR
  2
AmdtMenuStateMgr
  3
McadcomServices
 90
        0
280
     0
281
     0
  0
CLASS
  1
AMDTMCOMMENUSTATE
  2
AmdtMcomMenuState
  3
McadcomServices
 90
        0
280
     0
281
     0
  0
CLASS
  1
MAPIAMMOUDLE
  2
MApiAmModule
  3
MApiAmServices
 90
        0
280
     0
281
     0
  0
CLASS
  1
AMDTADMENUSTATE
  2
AmdtAdMenuState
  3
DesignerServices
 90
        0
280
     0
281
     0
  0
CLASS
  1
ADAPPL
  2
AcAdAppl
  3
DesignerServices
 90
        0
280
     0
281
     0
  0
CLASS
  1
DEPMGR
  2
AcAdDepMgr
  3
DesignerServices
 90
        0
280
     0
281
     0
  0
CLASS
  1
PARAMMGR
  2
AcAdParamMgr
  3
DesignerServices
 90
        0
280
     0
281
     0
  0
CLASS
  1
PARAMSCOPE
  2
AcAdParamScope
  3
DesignerServices
 90
        0
280
     0
281
     0
  0
CLASS
  1
NAMEDAPPL
  2
AcAdNamedAppl
  3
DesignerServices
 90
        0
280
     0
281
     0
  0
CLASS
  1
AMDTDMMENUSTATE
  2
AmdtDmMenuState
  3
AcMechDwgViewMgmt
 90
        0
280
     0
281
     0
  0
CLASS
  1
AMDTAMMENUSTATE
  2
AmdtAmMenuState
  3
DesignerAssemblies
 90
        0
280
     0
281
     0
  0
CLASS
  1
ACAMPROJECT
  2
AcAmProject
  3
DesignerAssemblies
 90
        0
280
     0
281
     0
  0
CLASS
  1
ACAMGRCOMPDEF
  2
AcAmGrCompDef
  3
DesignerAssemblies
 90
        0
280
     0
281
     0
  0
CLASS
  1
ACCMCONTEXT
  2
AcCmContext
  3
DesignerAssemblies
 90
        0
280
     0
281
     0
  0
CLASS
  1
ACAMCOMPDEF
  2
AcAmCompDef
  3
DesignerAssemblies
 90
        0
280
     0
281
     0
  0
CLASS
  1
ACAMCOMPDEFMGR
  2
AcAmCompDefMgr
  3
DesignerAssemblies
 90
        0
280
     0
281
     0
  0
CLASS
  1
AMCONTEXTMGR
  2
AcAmContextMgr
  3
DesignerAssemblies
 90
        0
280
     0
281
     0
  0
CLASS
  1
ACAMCONTEXTMODELER
  2
AcAmContextModeler
  3
DesignerAssemblies
 90
        0
280
     0
281
     0
  0
CLASS
  1
ACMTHREADLINESTANDARDDIN
  2
AmdtThreadLineStdDIN
  3
"Amdt_StdImp|Product Description: AutoCAD Mechanical 2004 DX|Company: Autodesk"
 90
        0
280
     0
281
     0
  0
CLASS
  1
ACMNOTESTANDARDDIN
  2
AmdtNoteStdDIN
  3
"Amdt_StdImp|Product Description: AutoCAD Mechanical 2004 DX|Company: Autodesk"
 90
        0
280
     0
281
     0
  0
CLASS
  1
AMDTNOTETEMPLATEDB
  2
AmdtNoteTemplateDB
  3
AMDT_STDIMP_MODULE_NAME
 90
        0
280
     0
281
     0
  0
CLASS
  1
CATALOGSTATE
  2
AcAmCatalogState
  3
DesignerAssemblies
 90
        0
280
     0
281
     0
  0
CLASS
  1
ACAMGRCOMPDEFSET
  2
AcAmGrCompDefSet
  3
DesignerAssemblies
 90
        0
280
     0
281
     0
  0
CLASS
  1
AMDTBROWSERDBTAB
  2
AmdtBrowserDbTab
  3
McadcomServices
 90
        0
280
     0
281
     0
  0
CLASS
  1
CBROWSERAPPOBJECT
  2
CBrowserAppObject
  3
McadcomServices
 90
        0
280
     0
281
     0
  0
CLASS
  1
DM_PLACEHOLDER
  2
AcDmSelsetPlaceholder
  3
AcMechDwgViewMgmt
 90
        0
280
     0
281
     0
  0
CLASS
  1
SORTENTSTABLE
  2
AcDbSortentsTable
  3
ObjectDBX Classes
 90
        0
280
     0
281
     0
  0
ENDSEC
  0
SECTION
  2
TABLES
  0
TABLE
  2
VPORT
  5
8
330
0
100
AcDbSymbolTable
 70
    30
  0
VPORT
  5
972
330
8
100
AcDbSymbolTableRecord
100
AcDbViewportTableRecord
  2
*Active
 70
     0
 10
0.0
 20
0.0
 11
1.0
 21
1.0
 12
302.6354277130618
 22
448.743612912691
 13
0.0
 23
0.0
 14
2.5
 24
2.5
 15
10.0
 25
10.0
 16
0.0
 26
0.0
 36
1.0
 17
0.0
 27
0.0
 37
0.0
 40
271.7116880905132
 41
1.494545454545454
 42
50.0
 43
0.0
 44
0.0
 50
0.0
 51
0.0
 71
     0
 72
   100
 73
     1
 74
     3
 75
     0
 76
     0
 77
     0
 78
     0
281
     0
 65
     1
110
0.0
120
0.0
130
0.0
111
1.0
121
0.0
131
0.0
112
0.0
122
1.0
132
0.0
 79
     0
146
0.0
  0
ENDTAB
  0
TABLE
  2
LTYPE
  5
5
330
0
100
AcDbSymbolTable
 70
    21
  0
LTYPE
  5
14
330
5
100
AcDbSymbolTableRecord
100
AcDbLinetypeTableRecord
  2
ByBlock
 70
     0
  3

 72
    65
 73
     0
 40
0.0
  0
LTYPE
  5
15
330
5
100
AcDbSymbolTableRecord
100
AcDbLinetypeTableRecord
  2
ByLayer
 70
     0
  3

 72
    65
 73
     0
 40
0.0
  0
LTYPE
  5
16
330
5
100
AcDbSymbolTableRecord
100
AcDbLinetypeTableRecord
  2
Continuous
 70
     0
  3
Solid line
 72
    65
 73
     0
 40
0.0
  0
LTYPE
  5
52
330
5
100
AcDbSymbolTableRecord
100
AcDbLinetypeTableRecord
  2
Amconstr
 70
     0
  3
_______________________
 72
    65
 73
     2
 40
9999.0
 49
9999.0
 74
     0
 49
0.0
 74
     0
  0
LTYPE
  5
57
330
5
100
AcDbSymbolTableRecord
100
AcDbLinetypeTableRecord
  2
Amzigzag
 70
     0
  3
/\/-/\/-/\/-/\/-/\/-/\/
 72
    65
 73
     2
 40
11.0001
 49
0.0001
 74
     4
 75
   135
340
56
 46
0.04
 50
0.0
 44
0.0
 45
0.0
 49
-11.0
 74
     0
  0
LTYPE
  5
58
330
5
100
AcDbSymbolTableRecord
100
AcDbLinetypeTableRecord
  2
AM_DIN_F_W050
 70
     0
  3
__ __ __ __ __ __ __ __ __ __ __ __ __ __ __
 72
    65
 73
     2
 40
6.25
 49
4.75
 74
     0
 49
-1.5
 74
     0
  0
LTYPE
  5
59
330
5
100
AcDbSymbolTableRecord
100
AcDbLinetypeTableRecord
  2
AM_DIN_G_W050
 70
     0
  3
____ . ____ . ____ . ____ . ____ . ____ . ____
 72
    65
 73
     4
 40
13.75
 49
9.75
 74
     0
 49
-1.5
 74
     0
 49
1.0
 74
     0
 49
-1.5
 74
     0
  0
LTYPE
  5
5A
330
5
100
AcDbSymbolTableRecord
100
AcDbLinetypeTableRecord
  2
AM_DIN_K_W050
 70
     0
  3
_____ . . _____ . . _____ . . ____ .. ____
 72
    65
 73
     6
 40
16.25
 49
9.75
 74
     0
 49
-1.5
 74
     0
 49
1.0
 74
     0
 49
-1.5
 74
     0
 49
1.0
 74
     0
 49
-1.5
 74
     0
  0
LTYPE
  5
5B
330
5
100
AcDbSymbolTableRecord
100
AcDbLinetypeTableRecord
  2
AM_DIN_G_W050x2
 70
     0
  3
__ . __ . __ . __ . __ . __
 72
    65
 73
     4
 40
6.875
 49
4.75
 74
     0
 49
-0.875
 74
     0
 49
0.375
 74
     0
 49
-0.875
 74
     0
  0
LTYPE
  5
5C
330
5
100
AcDbSymbolTableRecord
100
AcDbLinetypeTableRecord
  2
AM_DIN_F_W050x2
 70
     0
  3
 _ _ _ _ _ _ _ _ _ _ _ _
 72
    65
 73
     2
 40
3.125
 49
2.25
 74
     0
 49
-0.875
 74
     0
  0
LTYPE
  5
69
330
5
100
AcDbSymbolTableRecord
100
AcDbLinetypeTableRecord
  2
ACDINWELD
 70
     0
  3
_ _ _ _ _
 72
    65
 73
     2
 40
2.0
 49
2.0
 74
     0
 49
-1.0
 74
     0
  0
LTYPE
  5
6A
330
5
100
AcDbSymbolTableRecord
100
AcDbLinetypeTableRecord
  2
ACDINTGB
 70
     0
  3
__ . . __ . .
 72
    65
 73
     6
 40
9.0
 49
4.0
 74
     0
 49
-1.0
 74
     0
 49
1.0
 74
     0
 49
-1.0
 74
     0
 49
1.0
 74
     0
 49
-1.0
 74
     0
  0
LTYPE
  5
6B
330
5
100
AcDbSymbolTableRecord
100
AcDbLinetypeTableRecord
  2
ACDINTGL
 70
     0
  3
_ _ _ _ _
 72
    65
 73
     2
 40
3.0
 49
2.0
 74
     0
 49
-1.0
 74
     0
  0
LTYPE
  5
6D
330
5
100
AcDbSymbolTableRecord
100
AcDbLinetypeTableRecord
  2
CENTER
 70
     0
  3
__ . __
 72
    65
 73
     4
 40
7.0
 49
4.0
 74
     0
 49
-1.0
 74
     0
 49
1.0
 74
     0
 49
-1.0
 74
     0
  0
LTYPE
  5
227
330
5
100
AcDbSymbolTableRecord
100
AcDbLinetypeTableRecord
  2
STRICHPUNKT
 70
     0
  3
Strichpunkt __ . __ . __ . __ . __ . __ . __ . 
 72
    65
 73
     4
 40
25.4
 49
12.7
 74
     0
 49
-6.349999999999999
 74
     0
 49
0.0
 74
     0
 49
-6.349999999999999
 74
     0
  0
LTYPE
  5
8D9
330
5
100
AcDbSymbolTableRecord
100
AcDbLinetypeTableRecord
  2
HIDDEN
 70
     0
  3
Verdeckt
 72
    65
 73
     2
 40
9.525
 49
6.349999999999999
 74
     0
 49
-3.174999999999999
 74
     0
  0
LTYPE
  5
8DA
330
5
100
AcDbSymbolTableRecord
100
AcDbLinetypeTableRecord
  2
PHANTOM2
 70
     0
  3
Phantom (.5x) ___ _ _ ___ _ _ ___ _ _ ___ _ _
 72
    65
 73
     6
 40
31.75
 49
15.875
 74
     0
 49
-3.174999999999999
 74
     0
 49
3.174999999999999
 74
     0
 49
-3.174999999999999
 74
     0
 49
3.174999999999999
 74
     0
 49
-3.174999999999999
 74
     0
  0
ENDTAB
  0
TABLE
  2
LAYER
  5
2
102
{ACAD_XDICTIONARY
360
944
102
}
330
0
100
AcDbSymbolTable
 70
     7
  0
LAYER
  5
10
330
2
100
AcDbSymbolTableRecord
100
AcDbLayerTableRecord
  2
0
 70
     0
 62
     7
  6
Continuous
370
    -3
390
F
  0
LAYER
  5
229
330
2
100
AcDbSymbolTableRecord
100
AcDbLayerTableRecord
  2
P-0000
 70
     0
 62
     7
  6
Continuous
370
    -3
390
F
  0
LAYER
  5
22B
330
2
100
AcDbSymbolTableRecord
100
AcDbLayerTableRecord
  2
Defpoints
 70
     0
 62
     7
  6
Continuous
290
     0
370
    -3
390
F
  0
LAYER
  5
94B
330
2
100
AcDbSymbolTableRecord
100
AcDbLayerTableRecord
  2
AM_8
 70
     0
 62
     1
  6
Continuous
370
    25
390
F
1001
AcAecLayerStandard
1000

1000

  0
ENDTAB
  0
TABLE
  2
STYLE
  5
3
330
0
100
AcDbSymbolTable
 70
     7
  0
STYLE
  5
11
330
3
100
AcDbSymbolTableRecord
100
AcDbTextStyleTableRecord
  2
STANDARD
 70
     0
 40
0.0
 41
1.0
 50
0.0
 71
     0
 42
2.5
  3
ISOCP.SHX
  4

  0
STYLE
  5
56
330
3
100
AcDbSymbolTableRecord
100
AcDbTextStyleTableRecord
  2

 70
     1
 40
0.0
 41
1.0
 50
0.0
 71
     0
 42
2.5
  3
ltypeshp.shx
  4

  0
STYLE
  5
5D
330
3
100
AcDbSymbolTableRecord
100
AcDbTextStyleTableRecord
  2
ACDINTS
 70
     0
 40
1.0
 41
1.0
 50
0.0
 71
     0
 42
2.5
  3
isocp.shx
  4

  0
STYLE
  5
68
330
3
100
AcDbSymbolTableRecord
100
AcDbTextStyleTableRecord
  2
ACDINGDT
 70
     0
 40
0.0
 41
1.0
 50
0.0
 71
     0
 42
2.5
  3
amgdt.shx
  4

  0
ENDTAB
  0
TABLE
  2
VIEW
  5
6
330
0
100
AcDbSymbolTable
 70
     0
  0
ENDTAB
  0
TABLE
  2
UCS
  5
7
330
0
100
AcDbSymbolTable
 70
     0
  0
ENDTAB
  0
TABLE
  2
APPID
  5
9
330
0
100
AcDbSymbolTable
 70
    16
  0
APPID
  5
12
330
9
100
AcDbSymbolTableRecord
100
AcDbRegAppTableRecord
  2
ACAD
 70
     0
  0
APPID
  5
30
330
9
100
AcDbSymbolTableRecord
100
AcDbRegAppTableRecord
  2
MCAD_NO_VIS
 70
     0
  0
APPID
  5
31
330
9
100
AcDbSymbolTableRecord
100
AcDbRegAppTableRecord
  2
ACAD_TEMP_GRAPHIC
 70
     0
  0
APPID
  5
44
330
9
100
AcDbSymbolTableRecord
100
AcDbRegAppTableRecord
  2
ACATTRIBSERVICES
 70
     0
  0
APPID
  5
232
330
9
100
AcDbSymbolTableRecord
100
AcDbRegAppTableRecord
  2
ACME_LAYERS
 70
     0
  0
APPID
  5
8DC
330
9
100
AcDbSymbolTableRecord
100
AcDbRegAppTableRecord
  2
AD_DRAW
 70
     0
  0
APPID
  5
8FA
330
9
100
AcDbSymbolTableRecord
100
AcDbRegAppTableRecord
  2
DESIGNERASSEMBLIES
 70
     0
  0
APPID
  5
904
330
9
100
AcDbSymbolTableRecord
100
AcDbRegAppTableRecord
  2
ACAD_DSTYLE_DIMARC_LENGTH_SYMBOL
 70
     0
  0
APPID
  5
905
330
9
100
AcDbSymbolTableRecord
100
AcDbRegAppTableRecord
  2
ACAD_DSTYLE_DIMJOGGED_JOGANGLE_SYMBOL
 70
     0
  0
APPID
  5
915
330
9
100
AcDbSymbolTableRecord
100
AcDbRegAppTableRecord
  2
ACADM_DIM_EDIT
 70
     0
  0
APPID
  5
916
330
9
100
AcDbSymbolTableRecord
100
AcDbRegAppTableRecord
  2
AMDT_DM_ADJ
 70
     0
  0
APPID
  5
91D
330
9
100
AcDbSymbolTableRecord
100
AcDbRegAppTableRecord
  2
GENIUS_GENDIMSH_14
 70
     0
  0
APPID
  5
943
330
9
100
AcDbSymbolTableRecord
100
AcDbRegAppTableRecord
  2
AcAecLayerStandard
 70
     0
  0
APPID
  5
94C
330
9
100
AcDbSymbolTableRecord
100
AcDbRegAppTableRecord
  2
GENIUS_GENOBJ-N-HTC_13
 70
     0
  0
APPID
  5
94D
330
9
100
AcDbSymbolTableRecord
100
AcDbRegAppTableRecord
  2
GENIUS_GENODEF_13
 70
     0
  0
APPID
  5
94E
330
9
100
AcDbSymbolTableRecord
100
AcDbRegAppTableRecord
  2
GENIUS_GENHATCH_13
 70
     0
  0
ENDTAB
  0
TABLE
  2
DIMSTYLE
  5
A
330
0
100
AcDbSymbolTable
 70
    14
100
AcDbDimStyleTable
 71
     1
340
70
  0
DIMSTYLE
105
70
330
A
100
AcDbSymbolTableRecord
100
AcDbDimStyleTableRecord
  2
AM_DIN
 70
     0
  4
"
 41
2.5
 42
1.0
 43
10.0
 44
1.0
 47
0.1
 48
0.1
 73
     0
 74
     0
 77
     1
 78
     8
 79
     2
140
3.5
141
0.0
143
0.0393701
146
0.71
147
1.5
172
     1
176
   256
177
   256
178
     2
271
     2
272
     3
274
     4
283
     0
284
     8
340
11
371
    -1
372
    -1
1001
ACAD_DSTYLE_DIMARC_LENGTH_SYMBOL
1070
   379
1070
     0
1001
ACAD_DSTYLE_DIMJOGGED_JOGANGLE_SYMBOL
1070
   384
1040
1.570796326794896
  0
DIMSTYLE
105
71
330
A
100
AcDbSymbolTableRecord
100
AcDbDimStyleTableRecord
  2
AM_DIN$3
 70
     0
  4
"
 41
2.5
 42
1.0
 43
10.0
 44
1.0
 47
0.1
 48
0.1
 73
     0
 77
     1
 78
     8
 79
     2
140
3.5
141
0.0
143
0.0393701
146
0.71
147
1.5
176
   256
177
   256
178
     2
271
     2
272
     3
274
     4
283
     0
284
     8
288
     1
289
     0
340
11
371
    -1
372
    -1
1001
ACAD_DSTYLE_DIMARC_LENGTH_SYMBOL
1070
   379
1070
     0
1001
ACAD_DSTYLE_DIMJOGGED_JOGANGLE_SYMBOL
1070
   384
1040
1.570796326794896
  0
DIMSTYLE
105
72
330
A
100
AcDbSymbolTableRecord
100
AcDbDimStyleTableRecord
  2
AM_DIN$4
 70
     0
  4
"
 41
2.5
 42
1.0
 43
10.0
 44
1.0
 47
0.1
 48
0.1
 73
     0
 77
     1
 78
     8
 79
     2
140
3.5
141
0.0
143
0.0393701
146
0.71
147
1.5
176
   256
177
   256
178
     2
271
     2
272
     3
274
     4
283
     0
284
     8
288
     1
289
     0
340
11
371
    -1
372
    -1
1001
ACAD_DSTYLE_DIMARC_LENGTH_SYMBOL
1070
   379
1070
     0
1001
ACAD_DSTYLE_DIMJOGGED_JOGANGLE_SYMBOL
1070
   384
1040
1.570796326794896
  0
DIMSTYLE
105
73
330
A
100
AcDbSymbolTableRecord
100
AcDbDimStyleTableRecord
  2
AM_DIN$6
 70
     0
  4
"
 41
2.5
 42
1.0
 43
10.0
 44
1.0
 47
0.1
 48
0.1
 73
     0
 74
     0
 78
     8
 79
     2
140
3.5
141
0.0
143
0.0393701
146
0.71
147
1.5
172
     1
176
   256
177
   256
178
     2
271
     2
272
     3
274
     4
283
     0
284
     8
340
11
371
    -1
372
    -1
1001
ACAD_DSTYLE_DIMARC_LENGTH_SYMBOL
1070
   379
1070
     0
1001
ACAD_DSTYLE_DIMJOGGED_JOGANGLE_SYMBOL
1070
   384
1040
1.570796326794896
  0
DIMSTYLE
105
74
330
A
100
AcDbSymbolTableRecord
100
AcDbDimStyleTableRecord
  2
AM_DIN$7
 70
     0
  4
"
 41
2.5
 42
1.0
 43
10.0
 44
1.0
 47
0.1
 48
0.1
 73
     0
 74
     0
 77
     1
 78
     8
 79
     2
140
5.0
141
0.0
143
0.0393701
146
0.71
147
1.5
172
     1
176
   256
177
   256
178
     2
271
     2
272
     3
274
     4
283
     0
284
     8
340
11
371
    -1
372
    -1
1001
ACAD_DSTYLE_DIMARC_LENGTH_SYMBOL
1070
   379
1070
     0
1001
ACAD_DSTYLE_DIMJOGGED_JOGANGLE_SYMBOL
1070
   384
1040
1.570796326794896
  0
DIMSTYLE
105
75
330
A
100
AcDbSymbolTableRecord
100
AcDbDimStyleTableRecord
  2
AM_DIN$SF
 70
     0
  4
"
 41
2.5
 42
1.0
 43
10.0
 44
1.0
 47
0.1
 48
0.1
 73
     0
 74
     0
 75
     1
 76
     1
 77
     1
 78
     8
 79
     2
140
3.5
141
0.0
143
0.0393701
146
0.71
147
1.5
172
     1
176
   256
177
   256
178
     2
271
     2
272
     3
274
     4
283
     0
284
     8
340
11
371
    -1
372
    -1
1001
ACAD_DSTYLE_DIMARC_LENGTH_SYMBOL
1070
   379
1070
     0
1001
ACAD_DSTYLE_DIMJOGGED_JOGANGLE_SYMBOL
1070
   384
1040
1.570796326794896
  0
DIMSTYLE
105
7A
330
A
100
AcDbSymbolTableRecord
100
AcDbDimStyleTableRecord
  2
AM_DIN$SH
 70
     0
  4
"
 41
2.5
 42
1.0
 43
10.0
 44
1.0
 47
0.1
 48
0.1
 73
     0
 74
     0
 75
     1
 76
     1
 77
     1
 78
     8
 79
     2
140
3.5
141
0.0
143
0.0393701
144
2.0
146
0.71
147
1.5
172
     1
173
     1
176
   256
177
   256
178
     2
271
     2
272
     3
274
     4
283
     0
284
     8
340
11
343
76
371
    -1
372
    -1
1001
ACAD_DSTYLE_DIMARC_LENGTH_SYMBOL
1070
   379
1070
     0
1001
ACAD_DSTYLE_DIMJOGGED_JOGANGLE_SYMBOL
1070
   384
1040
1.570796326794896
  0
DIMSTYLE
105
22C
102
{ACAD_REACTORS
330
434
330
446
330
44C
330
44D
330
450
330
452
330
453
102
}
330
A
100
AcDbSymbolTableRecord
100
AcDbDimStyleTableRecord
  2
661N88101_001_00105636316
 70
     0
 41
3.149999999999999
 42
0.0
 43
3.75
 44
2.0
 73
     0
 74
     0
 77
     1
 78
     8
 79
     2
140
3.5
141
0.0
143
0.03937007874016
145
2.0
147
2.0
171
     3
172
     1
173
     1
176
     3
177
     3
178
     2
179
     2
271
     2
272
     2
274
     3
283
     0
284
     8
340
11
  0
DIMSTYLE
105
22E
102
{ACAD_REACTORS
330
44B
102
}
330
A
100
AcDbSymbolTableRecord
100
AcDbDimStyleTableRecord
  2
6613388101_001_00105636316
 70
     0
 41
3.149999999999999
 42
0.0
 43
3.75
 44
2.0
 73
     0
 74
     0
 77
     1
 78
     8
 79
     2
140
3.5
141
0.0
143
0.03937007874016
145
2.0
146
0.6
147
2.0
171
     3
172
     1
173
     1
176
     3
177
     3
178
     2
179
     2
271
     2
272
     0
274
     3
283
     0
284
     8
288
     1
340
11
  0
DIMSTYLE
105
22F
102
{ACAD_REACTORS
330
44A
102
}
330
A
100
AcDbSymbolTableRecord
100
AcDbDimStyleTableRecord
  2
6613488101_001_00105636316
 70
     0
 41
3.149999999999999
 42
0.0
 43
3.75
 44
2.0
 73
     0
 74
     0
 77
     1
 78
     8
 79
     2
140
3.5
141
0.0
143
0.03937007874016
145
2.0
146
0.6
147
2.0
171
     3
172
     1
173
     1
176
     3
177
     3
178
     2
179
     2
271
     2
272
     1
274
     3
283
     0
284
     8
288
     1
340
11
  0
DIMSTYLE
105
231
102
{ACAD_REACTORS
330
42F
102
}
330
A
100
AcDbSymbolTableRecord
100
AcDbDimStyleTableRecord
  2
441N88101_001_00105636316
 70
     0
 41
3.149999999999999
 42
0.0
 43
3.75
 44
2.0
 73
     0
 74
     0
 77
     1
 78
     8
 79
     2
140
3.5
141
0.0
143
0.03937007874016
145
2.0
146
0.6
147
2.0
171
     3
172
     1
173
     1
176
     3
177
     3
178
     2
179
     2
271
     2
272
     2
274
     3
283
     0
284
     8
288
     1
340
11
  0
ENDTAB
  0
TABLE
  2
BLOCK_RECORD
  5
1
330
0
100
AcDbSymbolTable
 70
    69
  0
BLOCK_RECORD
  5
1F
102
{ACAD_XDICTIONARY
360
81
102
}
330
1
100
AcDbSymbolTableRecord
100
AcDbBlockTableRecord
  2
*Model_Space
340
22
  0
BLOCK_RECORD
  5
1B
330
1
100
AcDbSymbolTableRecord
100
AcDbBlockTableRecord
  2
*Paper_Space
340
1E
  0
BLOCK_RECORD
  5
23
330
1
100
AcDbSymbolTableRecord
100
AcDbBlockTableRecord
  2
*Paper_Space0
340
26
  0
BLOCK_RECORD
  5
76
330
1
100
AcDbSymbolTableRecord
100
AcDbBlockTableRecord
  2
GENAXEH
340
0
  0
BLOCK_RECORD
  5
62E
330
1
100
AcDbSymbolTableRecord
100
AcDbBlockTableRecord
  2
*D38
340
0
  0
BLOCK_RECORD
  5
64F
330
1
100
AcDbSymbolTableRecord
100
AcDbBlockTableRecord
  2
*D41
340
0
  0
BLOCK_RECORD
  5
6F0
330
1
100
AcDbSymbolTableRecord
100
AcDbBlockTableRecord
  2
*D55
340
0
  0
BLOCK_RECORD
  5
722
330
1
100
AcDbSymbolTableRecord
100
AcDbBlockTableRecord
  2
*D59
340
0
  0
BLOCK_RECORD
  5
72E
330
1
100
AcDbSymbolTableRecord
100
AcDbBlockTableRecord
  2
*D60
340
0
  0
BLOCK_RECORD
  5
73A
330
1
100
AcDbSymbolTableRecord
100
AcDbBlockTableRecord
  2
*D61
340
0
  0
BLOCK_RECORD
  5
747
330
1
100
AcDbSymbolTableRecord
100
AcDbBlockTableRecord
  2
*D62
340
0
  0
BLOCK_RECORD
  5
767
330
1
100
AcDbSymbolTableRecord
100
AcDbBlockTableRecord
  2
*D65
340
0
  0
BLOCK_RECORD
  5
773
330
1
100
AcDbSymbolTableRecord
100
AcDbBlockTableRecord
  2
*D66
340
0
  0
BLOCK_RECORD
  5
77F
330
1
100
AcDbSymbolTableRecord
100
AcDbBlockTableRecord
  2
*D67
340
0
  0
ENDTAB
  0
ENDSEC
  0
SECTION
  2
BLOCKS
  0
BLOCK
  5
20
330
1F
100
AcDbEntity
  8
0
100
AcDbBlockBegin
  2
*Model_Space
 70
     0
 10
0.0
 20
0.0
 30
0.0
  3
*Model_Space
  1

  0
ENDBLK
  5
21
330
1F
100
AcDbEntity
  8
0
100
AcDbBlockEnd
  0
BLOCK
  5
1C
330
1B
100
AcDbEntity
 67
     1
  8
0
100
AcDbBlockBegin
  2
*Paper_Space
 70
     0
 10
0.0
 20
0.0
 30
0.0
  3
*Paper_Space
  1

  0
ENDBLK
  5
1D
330
1B
100
AcDbEntity
 67
     1
  8
0
100
AcDbBlockEnd
  0
BLOCK
  5
24
330
23
100
AcDbEntity
 67
     1
  8
0
100
AcDbBlockBegin
  2
*Paper_Space0
 70
     0
 10
0.0
 20
0.0
 30
0.0
  3
*Paper_Space0
  1

  0
ENDBLK
  5
25
330
23
100
AcDbEntity
 67
     1
  8
0
100
AcDbBlockEnd
  0
BLOCK
  5
78
330
76
100
AcDbEntity
  8
0
100
AcDbBlockBegin
  2
GENAXEH
 70
     0
 10
0.0
 20
0.0
 30
0.0
  3
GENAXEH
  1

  0
LINE
  5
77
330
76
100
AcDbEntity
  8
0
100
AcDbLine
 10
-1.0
 20
0.0
 30
0.0
 11
1.0
 21
0.0
 31
0.0
  0
ENDBLK
  5
79
330
76
100
AcDbEntity
  8
0
100
AcDbBlockEnd
  0
BLOCK
  5
63B
330
62E
100
AcDbEntity
  8
0
100
AcDbBlockBegin
  2
*D38
 70
     1
 10
0.0
 20
0.0
 30
0.0
  3
*D38
  1

  0
LINE
  5
79F
330
62E
100
AcDbEntity
  8
P-0000
  6
Continuous
 62
     3
370
    -2
100
AcDbLine
 10
339.3112929822383
 20
436.0384063473122
 30
0.0
 11
341.3100746362767
 21
435.9686073539072
 31
0.0
  0
LINE
  5
7A0
330
62E
100
AcDbEntity
  8
P-0000
  6
Continuous
 62
     3
370
    -2
100
AcDbLine
 10
369.761358953051
 20
432.9147412125233
 30
0.0
 11
337.2567692044967
 21
432.9147412125232
 31
0.0
  0
ARC
  5
7A1
330
62E
100
AcDbEntity
  8
P-0000
  6
Continuous
 62
     3
370
    -2
100
AcDbCircle
 10
428.761358953051
 20
432.9147412125234
 30
0.0
 40
89.50458974855427
100
AcDbArc
 50
173.9668879189556
 51
175.9834439594776
  0
ARC
  5
7A2
330
62E
100
AcDbEntity
  8
P-0000
  6
Continuous
 62
     3
370
    -2
100
AcDbCircle
 10
428.761358953051
 20
432.9147412125234
 30
0.0
 40
89.50458974855427
100
AcDbArc
 50
182.016556040522
 51
184.0331120810441
  0
ARC
  5
7A3
330
62E
100
AcDbEntity
  8
P-0000
  6
Continuous
 62
     3
370
    -2
100
AcDbCircle
 10
428.761358953051
 20
432.9147412125234
 30
0.0
 40
89.50458974855427
100
AcDbArc
 50
177.9999999999996
 51
180.0
  0
SOLID
  5
7A4
330
62E
100
AcDbEntity
  8
P-0000
  6
Continuous
 62
     3
100
AcDbTrace
 10
340.0008822574284
 20
439.1565134063375
 30
0.0
 11
338.952329196383
 21
439.2116176545598
 31
0.0
 12
339.3112929822386
 22
436.0384063473122
 32
0.0
 13
339.3112929822386
 23
436.0384063473122
 33
0.0
  0
SOLID
  5
7A5
330
62E
100
AcDbEntity
  8
P-0000
  6
Continuous
 62
     3
100
AcDbTrace
 10
338.787280612127
 20
429.7559905953276
 30
0.0
 11
339.8371180335079
 21
429.7744673014344
 31
0.0
 12
339.2567692044968
 22
432.9147412125234
 32
0.0
 13
339.2567692044968
 23
432.9147412125234
 33
0.0
  0
MTEXT
  5
7A6
330
62E
100
AcDbEntity
  8
P-0000
  6
Continuous
 62
     2
100
AcDbMText
 10
336.19608869328
 20
444.2323933942589
 30
0.0
 40
3.5
 41
0.0
 71
     5
 72
     1
  1
2%%d
 11
0.1213634902094785
 21
0.9926081317640782
 31
0.0
 73
     1
 44
1.0
1001
ACAD
1000
MTEXTBEGIN
1070
    73
1070
     1
1070
    44
1040
1.0
1070
    74
1070
     0
1000
MTEXTEND
  0
POINT
  5
7A7
330
62E
100
AcDbEntity
  8
Defpoints
  6
Continuous
 62
     0
100
AcDbPoint
 10
428.761358953051
 20
432.9147412125233
 30
0.0
  0
POINT
  5
7A8
330
62E
100
AcDbEntity
  8
Defpoints
  6
Continuous
 62
     0
100
AcDbPoint
 10
339.3112929822383
 20
436.0384063473122
 30
0.0
  0
POINT
  5
7A9
330
62E
100
AcDbEntity
  8
Defpoints
  6
Continuous
 62
     0
100
AcDbPoint
 10
369.761358953051
 20
432.9147412125233
 30
0.0
  0
POINT
  5
7AA
330
62E
100
AcDbEntity
  8
Defpoints
  6
Continuous
 62
     0
100
AcDbPoint
 10
339.2628279488492
 20
433.9561509046929
 30
0.0
  0
ENDBLK
  5
63C
330
62E
100
AcDbEntity
  8
0
100
AcDbBlockEnd
  0
BLOCK
  5
659
330
64F
100
AcDbEntity
  8
0
100
AcDbBlockBegin
  2
*D41
 70
     1
 10
0.0
 20
0.0
 30
0.0
  3
*D41
  1

  0
LINE
  5
7B7
330
64F
100
AcDbEntity
  8
P-0000
  6
Continuous
 62
     3
370
    -2
100
AcDbLine
 10
183.7217627092911
 20
533.3147412125233
 30
0.0
 11
119.7664337152402
 21
533.3147412125233
 31
0.0
  0
LINE
  5
7B8
330
64F
100
AcDbEntity
  8
P-0000
  6
Continuous
 62
     3
370
    -2
100
AcDbLine
 10
212.2217627092918
 20
384.4961339653009
 30
0.0
 11
119.7664337152401
 21
384.496133965301
 31
0.0
  0
LINE
  5
7B9
330
64F
100
AcDbEntity
  8
P-0000
  6
Continuous
 62
     3
370
    -2
100
AcDbLine
 10
121.7664337152402
 20
530.1647412125233
 30
0.0
 11
121.7664337152401
 21
387.646133965301
 31
0.0
  0
MTEXT
  5
7BA
330
64F
100
AcDbEntity
  8
P-0000
  6
Continuous
 62
     2
100
AcDbMText
 10
118.0164337152401
 20
458.9054375889121
 30
0.0
 40
3.5
 41
0.0
 71
     5
 72
     1
  1
149
 11
0.0000000000000001
 21
1.0
 31
0.0
 73
     1
 44
1.0
1001
ACAD
1000
MTEXTBEGIN
1070
    73
1070
     1
1070
    44
1040
1.0
1070
    74
1070
     0
1000
MTEXTEND
  0
SOLID
  5
7BB
330
64F
100
AcDbEntity
  8
P-0000
  6
Continuous
 62
     3
100
AcDbTrace
 10
121.2414337152402
 20
530.1647412125233
 30
0.0
 11
122.2914337152402
 21
530.1647412125233
 31
0.0
 12
121.7664337152402
 22
533.3147412125233
 32
0.0
 13
121.7664337152402
 23
533.3147412125233
 33
0.0
  0
SOLID
  5
7BC
330
64F
100
AcDbEntity
  8
P-0000
  6
Continuous
 62
     3
100
AcDbTrace
 10
121.2414337152401
 20
387.646133965301
 30
0.0
 11
122.2914337152402
 21
387.646133965301
 31
0.0
 12
121.7664337152401
 22
384.496133965301
 32
0.0
 13
121.7664337152401
 23
384.496133965301
 33
0.0
  0
POINT
  5
7BD
330
64F
100
AcDbEntity
  8
Defpoints
  6
Continuous
 62
     0
100
AcDbPoint
 10
183.7217627092911
 20
533.3147412125233
 30
0.0
  0
POINT
  5
7BE
330
64F
100
AcDbEntity
  8
Defpoints
  6
Continuous
 62
     0
100
AcDbPoint
 10
212.2217627092918
 20
384.4961339653009
 30
0.0
  0
POINT
  5
7BF
330
64F
100
AcDbEntity
  8
Defpoints
  6
Continuous
 62
     0
100
AcDbPoint
 10
121.7664337152401
 20
384.496133965301
 30
0.0
  0
ENDBLK
  5
65A
330
64F
100
AcDbEntity
  8
0
100
AcDbBlockEnd
  0
BLOCK
  5
6FA
330
6F0
100
AcDbEntity
  8
0
100
AcDbBlockBegin
  2
*D55
 70
     1
 10
0.0
 20
0.0
 30
0.0
  3
*D55
  1

  0
LINE
  5
928
330
6F0
100
AcDbEntity
  8
P-0000
  6
Continuous
 62
     3
370
    -2
100
AcDbLine
 10
428.7613589530509
 20
381.3742065166517
 30
0.0
 11
501.0962492875519
 21
378.8482164850694
 31
0.0
  0
LINE
  5
929
330
6F0
100
AcDbEntity
  8
P-0000
  6
Continuous
 62
     3
370
    -2
100
AcDbLine
 10
428.7613589530509
 20
484.4552759083949
 30
0.0
 11
504.6915352428231
 21
481.8037357247115
 31
0.0
  0
LINE
  5
92A
330
6F0
100
AcDbEntity
  8
P-0000
  6
Continuous
 62
     3
370
    -2
100
AcDbLine
 10
499.2074010481267
 20
382.0660965835845
 30
0.0
 11
502.5828201741721
 21
478.7254536130064
 31
0.0
  0
MTEXT
  5
92B
330
6F0
100
AcDbEntity
  8
P-0000
  6
Continuous
 62
     2
100
AcDbMText
 10
494.3248832878325
 20
432.1316990034993
 30
0.0
 40
3.5
 41
0.0
 71
     5
 72
     1
  1
%%c103.5
 11
0.034899496702506
 21
0.9993908270190955
 31
0.0
 73
     1
 44
1.0
1001
ACAD
1000
MTEXTBEGIN
1070
    73
1070
     1
1070
    44
1040
1.0
1070
    74
1070
     0
1000
MTEXTEND
  0
SOLID
  5
92C
330
6F0
100
AcDbEntity
  8
P-0000
  6
Continuous
 62
     3
100
AcDbTrace
 10
498.6827208639416
 20
382.0844188193533
 30
0.0
 11
499.7320812323116
 21
382.0477743478157
 31
0.0
 12
499.0974676335137
 22
378.9180154784744
 32
0.0
 13
499.0974676335137
 23
378.9180154784744
 33
0.0
  0
SOLID
  5
92D
330
6F0
100
AcDbEntity
  8
P-0000
  6
Continuous
 62
     3
100
AcDbTrace
 10
502.0581399899871
 20
478.7437758487753
 30
0.0
 11
503.1075003583571
 21
478.7071313772377
 31
0.0
 12
502.692753588785
 22
481.8735347181166
 32
0.0
 13
502.692753588785
 23
481.8735347181166
 33
0.0
  0
POINT
  5
92E
330
6F0
100
AcDbEntity
  8
Defpoints
  6
Continuous
 62
     0
100
AcDbPoint
 10
428.7613589530509
 20
381.3742065166517
 30
0.0
  0
POINT
  5
92F
330
6F0
100
AcDbEntity
  8
Defpoints
  6
Continuous
 62
     0
100
AcDbPoint
 10
428.7613589530509
 20
484.4552759083949
 30
0.0
  0
POINT
  5
930
330
6F0
100
AcDbEntity
  8
Defpoints
  6
Continuous
 62
     0
100
AcDbPoint
 10
502.692753588785
 20
481.8735347181166
 30
0.0
  0
ENDBLK
  5
6FB
330
6F0
100
AcDbEntity
  8
0
100
AcDbBlockEnd
  0
BLOCK
  5
72C
330
722
100
AcDbEntity
  8
0
100
AcDbBlockBegin
  2
*D59
 70
     1
 10
0.0
 20
0.0
 30
0.0
  3
*D59
  1

  0
LINE
  5
854
330
722
100
AcDbEntity
  8
P-0000
  6
Continuous
 62
     3
370
    -2
100
AcDbLine
 10
204.2217627092918
 20
511.314741212525
 30
0.0
 11
204.2217627092918
 21
554.6523736365156
 31
0.0
  0
LINE
  5
855
330
722
100
AcDbEntity
  8
P-0000
  6
Continuous
 62
     3
370
    -2
100
AcDbLine
 10
323.2217627092921
 20
511.314741212525
 30
0.0
 11
323.2217627092921
 21
554.6523736365156
 31
0.0
  0
LINE
  5
856
330
722
100
AcDbEntity
  8
P-0000
  6
Continuous
 62
     3
370
    -2
100
AcDbLine
 10
207.3717627092919
 20
552.6523736365155
 30
0.0
 11
320.0717627092922
 21
552.6523736365155
 31
0.0
  0
MTEXT
  5
857
330
722
100
AcDbEntity
  8
P-0000
  6
Continuous
 62
     2
100
AcDbMText
 10
263.7217627092921
 20
556.4023736365156
 30
0.0
 40
3.5
 41
0.0
 71
     5
 72
     1
  1
%%c119{\H0.60x;\C3;±0.3}
 73
     1
 44
1.0
1001
ACAD
1000
MTEXTBEGIN
1070
    73
1070
     1
1070
    44
1040
1.0
1070
    74
1070
     0
1000
MTEXTEND
  0
SOLID
  5
858
330
722
100
AcDbEntity
  8
P-0000
  6
Continuous
 62
     3
100
AcDbTrace
 10
207.3717627092919
 20
553.1773736365155
 30
0.0
 11
207.3717627092919
 21
552.1273736365156
 31
0.0
 12
204.2217627092918
 22
552.6523736365155
 32
0.0
 13
204.2217627092918
 23
552.6523736365155
 33
0.0
  0
SOLID
  5
859
330
722
100
AcDbEntity
  8
P-0000
  6
Continuous
 62
     3
100
AcDbTrace
 10
320.0717627092922
 20
553.1773736365155
 30
0.0
 11
320.0717627092922
 21
552.1273736365156
 31
0.0
 12
323.2217627092921
 22
552.6523736365155
 32
0.0
 13
323.2217627092921
 23
552.6523736365155
 33
0.0
  0
POINT
  5
85A
330
722
100
AcDbEntity
  8
Defpoints
  6
Continuous
 62
     0
100
AcDbPoint
 10
204.2217627092918
 20
511.314741212525
 30
0.0
  0
POINT
  5
85B
330
722
100
AcDbEntity
  8
Defpoints
  6
Continuous
 62
     0
100
AcDbPoint
 10
323.2217627092921
 20
511.314741212525
 30
0.0
  0
POINT
  5
85C
330
722
100
AcDbEntity
  8
Defpoints
  6
Continuous
 62
     0
100
AcDbPoint
 10
323.2217627092921
 20
552.6523736365155
 30
0.0
  0
ENDBLK
  5
72D
330
722
100
AcDbEntity
  8
0
100
AcDbBlockEnd
  0
BLOCK
  5
738
330
72E
100
AcDbEntity
  8
0
100
AcDbBlockBegin
  2
*D60
 70
     1
 10
0.0
 20
0.0
 30
0.0
  3
*D60
  1

  0
LINE
  5
85D
330
72E
100
AcDbEntity
  8
P-0000
  6
Continuous
 62
     3
370
    -2
100
AcDbLine
 10
199.7217627092981
 20
533.3147412125233
 30
0.0
 11
199.7217627092981
 21
568.7137322924685
 31
0.0
  0
LINE
  5
85E
330
72E
100
AcDbEntity
  8
P-0000
  6
Continuous
 62
     3
370
    -2
100
AcDbLine
 10
327.7217627092841
 20
533.3147412125233
 30
0.0
 11
327.7217627092841
 21
568.7137322924685
 31
0.0
  0
LINE
  5
85F
330
72E
100
AcDbEntity
  8
P-0000
  6
Continuous
 62
     3
370
    -2
100
AcDbLine
 10
202.8717627092982
 20
566.7137322924685
 30
0.0
 11
324.5717627092842
 21
566.7137322924685
 31
0.0
  0
MTEXT
  5
860
330
72E
100
AcDbEntity
  8
P-0000
  6
Continuous
 62
     2
100
AcDbMText
 10
264.7905389015071
 20
571.3387322924685
 30
0.0
 40
3.5
 41
0.0
 71
     5
 72
     1
  1
%%c128{}{\H0.60x;\C3;\S+2^ ;}
 73
     1
 44
1.0
1001
ACAD
1000
MTEXTBEGIN
1070
    73
1070
     1
1070
    44
1040
1.0
1070
    74
1070
     0
1000
MTEXTEND
  0
SOLID
  5
861
330
72E
100
AcDbEntity
  8
P-0000
  6
Continuous
 62
     3
100
AcDbTrace
 10
202.8717627092982
 20
567.2387322924684
 30
0.0
 11
202.8717627092982
 21
566.1887322924685
 31
0.0
 12
199.7217627092981
 22
566.7137322924685
 32
0.0
 13
199.7217627092981
 23
566.7137322924685
 33
0.0
  0
SOLID
  5
862
330
72E
100
AcDbEntity
  8
P-0000
  6
Continuous
 62
     3
100
AcDbTrace
 10
324.5717627092842
 20
567.2387322924684
 30
0.0
 11
324.5717627092842
 21
566.1887322924685
 31
0.0
 12
327.7217627092841
 22
566.7137322924685
 32
0.0
 13
327.7217627092841
 23
566.7137322924685
 33
0.0
  0
POINT
  5
863
330
72E
100
AcDbEntity
  8
Defpoints
  6
Continuous
 62
     0
100
AcDbPoint
 10
199.7217627092981
 20
533.3147412125233
 30
0.0
  0
POINT
  5
864
330
72E
100
AcDbEntity
  8
Defpoints
  6
Continuous
 62
     0
100
AcDbPoint
 10
327.7217627092841
 20
533.3147412125233
 30
0.0
  0
POINT
  5
865
330
72E
100
AcDbEntity
  8
Defpoints
  6
Continuous
 62
     0
100
AcDbPoint
 10
327.7217627092841
 20
566.7137322924685
 30
0.0
  0
ENDBLK
  5
739
330
72E
100
AcDbEntity
  8
0
100
AcDbBlockEnd
  0
BLOCK
  5
745
330
73A
100
AcDbEntity
  8
0
100
AcDbBlockBegin
  2
*D61
 70
     1
 10
0.0
 20
0.0
 30
0.0
  3
*D61
  1

  0
LINE
  5
866
330
73A
100
AcDbEntity
  8
P-0000
  6
Continuous
 62
     3
370
    -2
100
AcDbLine
 10
199.7217627092981
 20
513.3147412125233
 30
0.0
 11
131.4172737444581
 21
513.3147412125233
 31
0.0
  0
LINE
  5
867
330
73A
100
AcDbEntity
  8
P-0000
  6
Continuous
 62
     3
370
    -2
100
AcDbLine
 10
186.2217627092863
 20
533.3147412125233
 30
0.0
 11
131.4172737444581
 21
533.3147412125233
 31
0.0
  0
LINE
  5
868
330
73A
100
AcDbEntity
  8
P-0000
  6
Continuous
 62
     3
370
    -2
100
AcDbLine
 10
133.4172737444581
 20
516.4647412125233
 30
0.0
 11
133.4172737444581
 21
519.3439242833894
 31
0.0
  0
LINE
  5
869
330
73A
100
AcDbEntity
  8
P-0000
  6
Continuous
 62
     3
370
    -2
100
AcDbLine
 10
133.4172737444581
 20
530.1647412125233
 30
0.0
 11
133.4172737444581
 21
527.2855581416572
 31
0.0
  0
MTEXT
  5
86A
330
73A
100
AcDbEntity
  8
P-0000
  6
Continuous
 62
     2
100
AcDbMText
 10
129.6672737444581
 20
523.3147412125233
 30
0.0
 40
3.5
 41
0.0
 71
     5
 72
     1
  1
20
 11
0.0000000000000001
 21
1.0
 31
0.0
 73
     1
 44
1.0
1001
ACAD
1000
MTEXTBEGIN
1070
    73
1070
     1
1070
    44
1040
1.0
1070
    74
1070
     0
1000
MTEXTEND
  0
SOLID
  5
86B
330
73A
100
AcDbEntity
  8
P-0000
  6
Continuous
 62
     3
100
AcDbTrace
 10
132.8922737444581
 20
516.4647412125233
 30
0.0
 11
133.9422737444581
 21
516.4647412125233
 31
0.0
 12
133.4172737444581
 22
513.3147412125233
 32
0.0
 13
133.4172737444581
 23
513.3147412125233
 33
0.0
  0
SOLID
  5
86C
330
73A
100
AcDbEntity
  8
P-0000
  6
Continuous
 62
     3
100
AcDbTrace
 10
132.8922737444581
 20
530.1647412125233
 30
0.0
 11
133.9422737444581
 21
530.1647412125233
 31
0.0
 12
133.4172737444581
 22
533.3147412125233
 32
0.0
 13
133.4172737444581
 23
533.3147412125233
 33
0.0
  0
POINT
  5
86D
330
73A
100
AcDbEntity
  8
Defpoints
  6
Continuous
 62
     0
100
AcDbPoint
 10
199.7217627092981
 20
513.3147412125233
 30
0.0
  0
POINT
  5
86E
330
73A
100
AcDbEntity
  8
Defpoints
  6
Continuous
 62
     0
100
AcDbPoint
 10
186.2217627092863
 20
533.3147412125233
 30
0.0
  0
POINT
  5
86F
330
73A
100
AcDbEntity
  8
Defpoints
  6
Continuous
 62
     0
100
AcDbPoint
 10
133.4172737444581
 20
533.3147412125233
 30
0.0
  0
ENDBLK
  5
746
330
73A
100
AcDbEntity
  8
0
100
AcDbBlockEnd
  0
BLOCK
  5
751
330
747
100
AcDbEntity
  8
0
100
AcDbBlockBegin
  2
*D62
 70
     1
 10
0.0
 20
0.0
 30
0.0
  3
*D62
  1

  0
LINE
  5
932
330
747
100
AcDbEntity
  8
P-0000
  6
Continuous
 62
     3
370
    -2
100
AcDbLine
 10
148.7613589530509
 20
363.3147412125234
 30
0.0
 11
104.0980626414641
 21
363.3147412125234
 31
0.0
  0
LINE
  5
933
330
747
100
AcDbEntity
  8
P-0000
  6
Continuous
 62
     3
370
    -2
100
AcDbLine
 10
148.7613589530509
 20
533.3147412125233
 30
0.0
 11
104.0980626414641
 21
533.3147412125233
 31
0.0
  0
LINE
  5
934
330
747
100
AcDbEntity
  8
P-0000
  6
Continuous
 62
     3
370
    -2
100
AcDbLine
 10
106.0980626414641
 20
366.4647412125234
 30
0.0
 11
106.0980626414641
 21
530.1647412125233
 31
0.0
  0
MTEXT
  5
935
330
747
100
AcDbEntity
  8
P-0000
  6
Continuous
 62
     2
100
AcDbMText
 10
118.0028106326973
 20
452.2140975225635
 30
0.0
 40
3.5
 41
0.0
 71
     5
 72
     1
  1
170
 11
0.0000000000000001
 21
1.0
 31
0.0
 73
     1
 44
1.0
1001
ACAD
1000
MTEXTBEGIN
1070
    73
1070
     1
1070
    44
1040
1.0
1070
    74
1070
     0
1000
MTEXTEND
  0
SOLID
  5
936
330
747
100
AcDbEntity
  8
P-0000
  6
Continuous
 62
     3
100
AcDbTrace
 10
105.5730626414641
 20
366.4647412125234
 30
0.0
 11
106.6230626414641
 21
366.4647412125234
 31
0.0
 12
106.0980626414641
 22
363.3147412125234
 32
0.0
 13
106.0980626414641
 23
363.3147412125234
 33
0.0
  0
SOLID
  5
937
330
747
100
AcDbEntity
  8
P-0000
  6
Continuous
 62
     3
100
AcDbTrace
 10
105.5730626414641
 20
530.1647412125233
 30
0.0
 11
106.6230626414641
 21
530.1647412125233
 31
0.0
 12
106.0980626414641
 22
533.3147412125233
 32
0.0
 13
106.0980626414641
 23
533.3147412125233
 33
0.0
  0
POINT
  5
938
330
747
100
AcDbEntity
  8
Defpoints
  6
Continuous
 62
     0
100
AcDbPoint
 10
148.7613589530509
 20
363.3147412125234
 30
0.0
  0
POINT
  5
939
330
747
100
AcDbEntity
  8
Defpoints
  6
Continuous
 62
     0
100
AcDbPoint
 10
148.7613589530509
 20
533.3147412125233
 30
0.0
  0
POINT
  5
93A
330
747
100
AcDbEntity
  8
Defpoints
  6
Continuous
 62
     0
100
AcDbPoint
 10
106.0980626414641
 20
533.3147412125233
 30
0.0
  0
ENDBLK
  5
752
330
747
100
AcDbEntity
  8
0
100
AcDbBlockEnd
  0
BLOCK
  5
771
330
767
100
AcDbEntity
  8
0
100
AcDbBlockBegin
  2
*D65
 70
     1
 10
0.0
 20
0.0
 30
0.0
  3
*D65
  1

  0
LINE
  5
887
330
767
100
AcDbEntity
  8
P-0000
  6
Continuous
 62
     3
370
    -2
100
AcDbLine
 10
428.7613589530509
 20
432.9147412125232
 30
0.0
 11
476.5608512984266
 21
432.9147412125232
 31
0.0
  0
LINE
  5
888
330
767
100
AcDbEntity
  8
P-0000
  6
Continuous
 62
     3
370
    -2
100
AcDbLine
 10
428.7613589530509
 20
363.3147412125234
 30
0.0
 11
476.5608512984265
 21
363.3147412125234
 31
0.0
  0
LINE
  5
889
330
767
100
AcDbEntity
  8
P-0000
  6
Continuous
 62
     3
370
    -2
100
AcDbLine
 10
474.5608512984266
 20
429.7647412125233
 30
0.0
 11
474.5608512984265
 21
366.4647412125233
 31
0.0
  0
MTEXT
  5
88A
330
767
100
AcDbEntity
  8
P-0000
  6
Continuous
 62
     2
100
AcDbMText
 10
470.1786637984265
 20
404.3133459195655
 30
0.0
 40
3.5
 41
0.0
 71
     5
 72
     1
  1
68.5
 11
0.0000000000000001
 21
1.0
 31
0.0
 73
     1
 44
1.0
1001
ACAD
1000
MTEXTBEGIN
1070
    73
1070
     1
1070
    44
1040
1.0
1070
    74
1070
     0
1000
MTEXTEND
  0
SOLID
  5
88B
330
767
100
AcDbEntity
  8
P-0000
  6
Continuous
 62
     3
100
AcDbTrace
 10
474.0358512984266
 20
429.7647412125233
 30
0.0
 11
475.0858512984265
 21
429.7647412125233
 31
0.0
 12
474.5608512984266
 22
432.9147412125232
 32
0.0
 13
474.5608512984266
 23
432.9147412125232
 33
0.0
  0
SOLID
  5
88C
330
767
100
AcDbEntity
  8
P-0000
  6
Continuous
 62
     3
100
AcDbTrace
 10
474.0358512984265
 20
366.4647412125233
 30
0.0
 11
475.0858512984264
 21
366.4647412125233
 31
0.0
 12
474.5608512984265
 22
363.3147412125234
 32
0.0
 13
474.5608512984265
 23
363.3147412125234
 33
0.0
  0
POINT
  5
88D
330
767
100
AcDbEntity
  8
Defpoints
  6
Continuous
 62
     0
100
AcDbPoint
 10
428.7613589530509
 20
432.9147412125232
 30
0.0
  0
POINT
  5
88E
330
767
100
AcDbEntity
  8
Defpoints
  6
Continuous
 62
     0
100
AcDbPoint
 10
428.7613589530509
 20
363.3147412125234
 30
0.0
  0
POINT
  5
88F
330
767
100
AcDbEntity
  8
Defpoints
  6
Continuous
 62
     0
100
AcDbPoint
 10
474.5608512984265
 20
363.3147412125234
 30
0.0
  0
ENDBLK
  5
772
330
767
100
AcDbEntity
  8
0
100
AcDbBlockEnd
  0
BLOCK
  5
77D
330
773
100
AcDbEntity
  8
0
100
AcDbBlockBegin
  2
*D66
 70
     1
 10
0.0
 20
0.0
 30
0.0
  3
*D66
  1

  0
LINE
  5
890
330
773
100
AcDbEntity
  8
P-0000
  6
Continuous
 62
     3
370
    -2
100
AcDbLine
 10
428.7613589530509
 20
432.9147412125233
 30
0.0
 11
424.9742447321823
 21
324.4659791725943
 31
0.0
  0
LINE
  5
891
330
773
100
AcDbEntity
  8
P-0000
  6
Continuous
 62
     3
370
    -2
100
AcDbLine
 10
383.4660591862096
 20
382.955953238869
 30
0.0
 11
381.4765879429797
 21
325.9849508187639
 31
0.0
  0
LINE
  5
892
330
773
100
AcDbEntity
  8
P-0000
  6
Continuous
 62
     3
370
    -2
100
AcDbLine
 10
421.8959626204773
 20
326.5746942412456
 30
0.0
 11
384.694468041495
 21
327.873799058189
 31
0.0
  0
MTEXT
  5
893
330
773
100
AcDbEntity
  8
P-0000
  6
Continuous
 62
     2
100
AcDbMText
 10
401.8711607760729
 20
331.2013681919475
 30
0.0
 40
3.5
 41
0.0
 71
     5
 72
     1
  1
43.5
 11
0.9993908270190935
 21
-0.0348994967025636
 31
0.0
 73
     1
 44
1.0
1001
ACAD
1000
MTEXTBEGIN
1070
    73
1070
     1
1070
    44
1040
1.0
1070
    74
1070
     0
1000
MTEXTEND
  0
SOLID
  5
894
330
773
100
AcDbEntity
  8
P-0000
  6
Continuous
 62
     3
100
AcDbTrace
 10
421.9142848562461
 20
327.0993744254306
 30
0.0
 11
421.8776403847085
 21
326.0500140570605
 31
0.0
 12
425.0440437255874
 22
326.4647608266325
 32
0.0
 13
425.0440437255874
 23
326.4647608266325
 33
0.0
  0
SOLID
  5
895
330
773
100
AcDbEntity
  8
P-0000
  6
Continuous
 62
     3
100
AcDbTrace
 10
384.7127902772638
 20
328.398479242374
 30
0.0
 11
384.6761458057262
 21
327.349118874004
 31
0.0
 12
381.5463869363849
 22
327.9837324728021
 32
0.0
 13
381.5463869363849
 23
327.9837324728021
 33
0.0
  0
POINT
  5
896
330
773
100
AcDbEntity
  8
Defpoints
  6
Continuous
 62
     0
100
AcDbPoint
 10
428.7613589530509
 20
432.9147412125233
 30
0.0
  0
POINT
  5
897
330
773
100
AcDbEntity
  8
Defpoints
  6
Continuous
 62
     0
100
AcDbPoint
 10
383.4660591862096
 20
382.955953238869
 30
0.0
  0
POINT
  5
898
330
773
100
AcDbEntity
  8
Defpoints
  6
Continuous
 62
     0
100
AcDbPoint
 10
381.5463869363849
 20
327.9837324728021
 30
0.0
  0
ENDBLK
  5
77E
330
773
100
AcDbEntity
  8
0
100
AcDbBlockEnd
  0
BLOCK
  5
789
330
77F
100
AcDbEntity
  8
0
100
AcDbBlockBegin
  2
*D67
 70
     1
 10
0.0
 20
0.0
 30
0.0
  3
*D67
  1

  0
LINE
  5
899
330
77F
100
AcDbEntity
  8
P-0000
  6
Continuous
 62
     3
370
    -2
100
AcDbLine
 10
383.4660591862096
 20
382.955953238869
 30
0.0
 11
381.4754852276648
 21
325.9533731837072
 31
0.0
  0
LINE
  5
89A
330
77F
100
AcDbEntity
  8
P-0000
  6
Continuous
 62
     3
370
    -2
100
AcDbLine
 10
323.2217627092921
 20
384.4961339653009
 30
0.0
 11
321.2508460017202
 21
328.0564639278438
 31
0.0
  0
LINE
  5
89B
330
77F
100
AcDbEntity
  8
P-0000
  6
Continuous
 62
     3
370
    -2
100
AcDbLine
 10
378.3972031159598
 20
328.0620882523584
 30
0.0
 11
324.4687261002355
 21
329.9453121672689
 31
0.0
  0
MTEXT
  5
89C
330
77F
100
AcDbEntity
  8
P-0000
  6
Continuous
 62
     2
100
AcDbMText
 10
356.0051195704907
 20
332.596322831414
 30
0.0
 40
3.5
 41
0.0
 71
     5
 72
     1
  1
60
 11
0.9993908270190935
 21
-0.0348994967025636
 31
0.0
 73
     1
 44
1.0
1001
ACAD
1000
MTEXTBEGIN
1070
    73
1070
     1
1070
    44
1040
1.0
1070
    74
1070
     0
1000
MTEXTEND
  0
SOLID
  5
89D
330
77F
100
AcDbEntity
  8
P-0000
  6
Continuous
 62
     3
100
AcDbTrace
 10
378.4155253517287
 20
328.5867684365434
 30
0.0
 11
378.378880880191
 21
327.5374080681734
 31
0.0
 12
381.5452842210699
 22
327.9521548377454
 32
0.0
 13
381.5452842210699
 23
327.9521548377454
 33
0.0
  0
SOLID
  5
89E
330
77F
100
AcDbEntity
  8
P-0000
  6
Continuous
 62
     3
100
AcDbTrace
 10
324.4870483360043
 20
330.4699923514539
 30
0.0
 11
324.4504038644667
 21
329.4206319830839
 31
0.0
 12
321.3206449951254
 22
330.055245581882
 32
0.0
 13
321.3206449951254
 23
330.055245581882
 33
0.0
  0
POINT
  5
89F
330
77F
100
AcDbEntity
  8
Defpoints
  6
Continuous
 62
     0
100
AcDbPoint
 10
383.4660591862096
 20
382.955953238869
 30
0.0
  0
POINT
  5
8A0
330
77F
100
AcDbEntity
  8
Defpoints
  6
Continuous
 62
     0
100
AcDbPoint
 10
323.2217627092921
 20
384.4961339653009
 30
0.0
  0
POINT
  5
8A1
330
77F
100
AcDbEntity
  8
Defpoints
  6
Continuous
 62
     0
100
AcDbPoint
 10
321.3206449951254
 20
330.055245581882
 30
0.0
  0
ENDBLK
  5
78A
330
77F
100
AcDbEntity
  8
0
100
AcDbBlockEnd
  0
ENDSEC
  0
SECTION
  2
ENTITIES
  0
DIMENSION
  5
42F
330
1F
100
AcDbEntity
  8
P-0000
  6
Continuous
100
AcDbDimension
  2
*D38
 10
339.2628279488492
 20
433.9561509046929
 30
0.0
 11
336.19608869328
 21
444.2323933942589
 31
0.0
 70
   165
  1
2%%d
 71
     5
 42
0.0349065850398924
 53
83.0292
  3
441N88101_001_00105636316
100
AcDb3PointAngularDimension
 13
369.7613589530509
 23
432.9147412125232
 33
0.0
 14
339.3112929822382
 24
436.0384063473121
 34
0.0
 15
428.7613589530509
 25
432.9147412125232
 35
0.0
1001
ACAD
1000
DSTYLE
1002
{
1070
   279
1070
     2
1002
}
1001
ACME_LAYERS
1000
1
  0
LINE
  5
431
330
1F
100
AcDbEntity
  8
P-0000
  6
STRICHPUNKT
 62
     3
100
AcDbLine
 10
426.7613589530509
 20
518.3147412125233
 30
0.0
 11
400.7613589530509
 21
518.3147412125233
 31
0.0
1001
ACME_LAYERS
1000
1
  0
CIRCLE
  5
432
330
1F
100
AcDbEntity
  8
P-0000
  6
Continuous
 62
     7
100
AcDbCircle
 10
413.7613589530509
 20
518.3147412125233
 30
0.0
 40
10.0
1001
ACME_LAYERS
1000
1
  0
DIMENSION
  5
434
330
1F
100
AcDbEntity
  8
P-0000
  6
Continuous
100
AcDbDimension
  2
*D41
 10
121.7664337152401
 20
384.496133965301
 30
0.0
 11
118.0164337152401
 21
458.9054375889121
 31
0.0
 70
   160
  1
149
 71
     5
 42
148.8186072472223
  3
661N88101_001_00105636316
100
AcDbAlignedDimension
 13
183.7217627092911
 23
533.3147412125233
 33
0.0
 14
212.2217627092918
 24
384.4961339653009
 34
0.0
 50
90.0
100
AcDbRotatedDimension
1001
ACAD
1000
DSTYLE
1002
{
1070
   279
1070
     2
1070
   288
1070
     1
1002
}
1001
ACME_LAYERS
1000
1
  0
CIRCLE
  5
435
330
1F
100
AcDbEntity
  8
P-0000
  6
Continuous
 62
     7
100
AcDbCircle
 10
163.7613589530509
 20
378.3147412125233
 30
0.0
 40
10.0
1001
ACME_LAYERS
1000
1
  0
ARC
  5
437
330
1F
100
AcDbEntity
  8
P-0000
  6
Continuous
 62
     7
100
AcDbCircle
 10
212.2217627092918
 20
392.4961339653009
 30
0.0
 40
8.0
100
AcDbArc
 50
180.0
 51
270.0
1001
ACME_LAYERS
1000
1
  0
DIMENSION
  5
446
330
1F
100
AcDbEntity
  8
P-0000
  6
Continuous
100
AcDbDimension
  2
*D55
 10
502.692753588785
 20
481.8735347181166
 30
0.0
 11
494.3248832878325
 21
432.1316990034993
 31
0.0
 70
   160
  1
%%c103.5
 71
     5
 42
103.018275189427
  3
661N88101_001_00105636316
100
AcDbAlignedDimension
 13
428.7613589530509
 23
381.3742065166517
 33
0.0
 14
428.7613589530509
 24
484.4552759083949
 34
0.0
 50
267.9999999999997
100
AcDbRotatedDimension
1001
ACAD
1000
DSTYLE
1002
{
1070
   279
1070
     2
1070
   288
1070
     1
1002
}
1001
ACME_LAYERS
1000
1
  0
DIMENSION
  5
44A
330
1F
100
AcDbEntity
  8
P-0000
  6
Continuous
100
AcDbDimension
  2
*D59
 10
323.2217627092921
 20
552.6523736365155
 30
0.0
 11
263.7217627092921
 21
556.4023736365156
 31
0.0
 70
   160
  1
%%c<>{\H0.60x;\C3;±0.3}
 71
     5
 42
119.0000000000003
  3
6613488101_001_00105636316
100
AcDbAlignedDimension
 13
204.2217627092918
 23
511.314741212525
 33
0.0
 14
323.2217627092921
 24
511.314741212525
 34
0.0
100
AcDbRotatedDimension
1001
ACAD
1000
DSTYLE
1002
{
1070
   279
1070
     2
1002
}
1001
ACME_LAYERS
1000
1
  0
DIMENSION
  5
44B
330
1F
100
AcDbEntity
  8
P-0000
  6
Continuous
100
AcDbDimension
  2
*D60
 10
327.7217627092841
 20
566.7137322924685
 30
0.0
 11
264.7905389015071
 21
571.3387322924685
 31
0.0
 70
   160
  1
%%c<>{}{\H0.60x;\C3;\S+2^ ;}
 71
     5
 42
127.9999999999859
  3
6613388101_001_00105636316
100
AcDbAlignedDimension
 13
199.7217627092981
 23
533.3147412125233
 33
0.0
 14
327.7217627092841
 24
533.3147412125233
 34
0.0
100
AcDbRotatedDimension
1001
ACAD
1000
DSTYLE
1002
{
1070
   279
1070
     2
1002
}
1001
ACME_LAYERS
1000
1
  0
DIMENSION
  5
44C
330
1F
100
AcDbEntity
  8
P-0000
  6
Continuous
100
AcDbDimension
  2
*D61
 10
133.4172737444581
 20
533.3147412125233
 30
0.0
 11
129.6672737444581
 21
523.3147412125233
 31
0.0
 70
   160
  1
<>
 71
     5
 42
20.0
  3
661N88101_001_00105636316
100
AcDbAlignedDimension
 13
199.7217627092981
 23
513.3147412125233
 33
0.0
 14
186.2217627092863
 24
533.3147412125233
 34
0.0
 50
90.0
100
AcDbRotatedDimension
1001
ACAD
1000
DSTYLE
1002
{
1070
   279
1070
     2
1070
   288
1070
     1
1002
}
1001
ACME_LAYERS
1000
1
  0
DIMENSION
  5
44D
330
1F
100
AcDbEntity
  8
P-0000
  6
Continuous
100
AcDbDimension
  2
*D62
 10
106.0980626414641
 20
533.3147412125233
 30
0.0
 11
118.0028106326973
 21
452.2140975225635
 31
0.0
 70
   160
  1
<>
 71
     5
 42
169.9999999999999
  3
661N88101_001_00105636316
100
AcDbAlignedDimension
 13
148.7613589530509
 23
363.3147412125234
 33
0.0
 14
148.7613589530509
 24
533.3147412125233
 34
0.0
 50
90.0
100
AcDbRotatedDimension
1001
ACAD
1000
DSTYLE
1002
{
1070
   279
1070
     2
1070
   288
1070
     1
1002
}
1001
ACME_LAYERS
1000
1
  0
DIMENSION
  5
450
330
1F
100
AcDbEntity
  8
P-0000
  6
Continuous
100
AcDbDimension
  2
*D65
 10
474.5608512984265
 20
363.3147412125234
 30
0.0
 11
470.1786637984265
 21
404.3133459195655
 31
0.0
 70
   160
  1
68.5
 71
     5
 42
69.59999999999991
  3
661N88101_001_00105636316
100
AcDbAlignedDimension
 13
428.7613589530509
 23
432.9147412125232
 33
0.0
 14
428.7613589530509
 24
363.3147412125234
 34
0.0
 50
90.0
100
AcDbRotatedDimension
1001
ACAD
1000
DSTYLE
1002
{
1070
   279
1070
     2
1070
   288
1070
     1
1002
}
1001
ACME_LAYERS
1000
1
  0
LINE
  5
451
330
1F
100
AcDbEntity
  8
P-0000
  6
Continuous
 62
     3
100
AcDbLine
 10
472.2108512984266
 20
399.5008459195656
 30
0.0
 11
472.2108512984266
 21
409.1258459195655
 31
0.0
  0
DIMENSION
  5
452
330
1F
100
AcDbEntity
  8
P-0000
  6
Continuous
100
AcDbDimension
  2
*D66
 10
381.5463869363849
 20
327.9837324728021
 30
0.0
 11
401.8711607760729
 21
331.2013681919475
 31
0.0
 70
   160
  1
43.5
 71
     5
 42
43.52417053791066
  3
661N88101_001_00105636316
100
AcDbAlignedDimension
 13
428.7613589530509
 23
432.9147412125232
 33
0.0
 14
383.4660591862096
 24
382.955953238869
 34
0.0
 50
357.9999999999964
100
AcDbRotatedDimension
1001
ACAD
1000
DSTYLE
1002
{
1070
   279
1070
     2
1070
   288
1070
     1
1002
}
1001
ACME_LAYERS
1000
1
  0
DIMENSION
  5
453
330
1F
100
AcDbEntity
  8
P-0000
  6
Continuous
100
AcDbDimension
  2
*D67
 10
321.3206449951254
 20
330.055245581882
 30
0.0
 11
356.0051195704907
 21
332.596322831414
 31
0.0
 70
   160
  1
60
 71
     5
 42
60.26134881143349
  3
661N88101_001_00105636316
100
AcDbAlignedDimension
 13
383.4660591862096
 23
382.955953238869
 33
0.0
 14
323.2217627092921
 24
384.4961339653009
 34
0.0
 50
357.9999999999964
100
AcDbRotatedDimension
1001
ACAD
1000
DSTYLE
1002
{
1070
   279
1070
     2
1070
   288
1070
     1
1002
}
1001
ACME_LAYERS
1000
1
  0
ARC
  5
459
330
1F
100
AcDbEntity
  8
P-0000
  6
Continuous
 62
     7
100
AcDbCircle
 10
352.1867978616782
 20
436.0391007372542
 30
0.0
 40
59.12402798383755
100
AcDbArc
 50
119.3342023237215
 51
240.6657976762784
1001
ACME_LAYERS
1000
1
  0
LINE
  5
4A0
330
1F
100
AcDbEntity
  8
P-0000
  6
STRICHPUNKT
 62
     3
100
AcDbLine
 10
163.7613589530509
 20
391.3147412125234
 30
0.0
 11
163.7613589530509
 21
365.3147412125234
 31
0.0
1001
ACME_LAYERS
1000
1
  0
LINE
  5
4A1
330
1F
100
AcDbEntity
  8
P-0000
  6
STRICHPUNKT
 62
     3
100
AcDbLine
 10
176.7613589530509
 20
378.3147412125233
 30
0.0
 11
150.7613589530509
 21
378.3147412125233
 31
0.0
1001
ACME_LAYERS
1000
1
  0
LINE
  5
4A2
330
1F
100
AcDbEntity
  8
P-0000
  6
STRICHPUNKT
 62
     3
100
AcDbLine
 10
413.7613589530509
 20
531.3147412125233
 30
0.0
 11
413.7613589530509
 21
505.3147412125233
 31
0.0
1001
ACME_LAYERS
1000
1
  0
LINE
  5
4A3
330
1F
100
AcDbEntity
  8
P-0000
  6
Continuous
 62
     7
100
AcDbLine
 10
323.2217627092921
 20
480.7996052448308
 30
0.0
 11
323.2217627092921
 21
477.611880664714
 31
0.0
1001
ACME_LAYERS
1000
1
  0
LINE
  5
4A5
330
1F
100
AcDbEntity
  8
P-0000
  6
Continuous
 62
     7
100
AcDbLine
 10
383.2217627092921
 20
375.9602174497354
 30
0.0
 11
323.2217627092921
 21
378.0554636192402
 31
0.0
1001
ACME_LAYERS
1000
1
  0
LINE
  5
4A6
330
1F
100
AcDbEntity
  8
P-0000
  6
Continuous
 62
     7
100
AcDbLine
 10
383.4660591862096
 20
382.955953238869
 30
0.0
 11
428.7613589530509
 21
381.3742065166517
 31
0.0
1001
ACME_LAYERS
1000
1
  0
LINE
  5
4A7
330
1F
100
AcDbEntity
  8
P-0000
  6
Continuous
 62
     7
100
AcDbLine
 10
383.4660591862096
 20
382.955953238869
 30
0.0
 11
383.2217627092921
 21
375.9602174497354
 31
0.0
1001
ACME_LAYERS
1000
1
  0
LINE
  5
4A8
330
1F
100
AcDbEntity
  8
P-0000
  6
Continuous
 62
     7
100
AcDbLine
 10
387.0613451414804
 20
485.9114724785114
 30
0.0
 11
417.0025799553906
 21
484.8659015192766
 31
0.0
1001
ACME_LAYERS
1000
1
  0
LINE
  5
4A9
330
1F
100
AcDbEntity
  8
P-0000
  6
Continuous
 62
     7
100
AcDbLine
 10
323.2217627092921
 20
506.1151878141971
 30
0.0
 11
387.6882601035348
 21
503.8639681187524
 31
0.0
1001
ACME_LAYERS
1000
1
  0
LINE
  5
4AA
330
1F
100
AcDbEntity
  8
P-0000
  6
Continuous
 62
     7
100
AcDbLine
 10
428.7613589530509
 20
533.3147412125233
 30
0.0
 11
428.7652727512572
 21
533.3147412125233
 31
0.0
1001
ACME_LAYERS
1000
1
  0
LINE
  5
4AB
330
1F
100
AcDbEntity
  8
P-0000
  6
Continuous
 62
     7
100
AcDbLine
 10
428.7613589530509
 20
383.3146506777619
 30
0.0
 11
428.7613589530509
 21
432.9147412125232
 31
0.0
1001
ACME_LAYERS
1000
1
  0
LINE
  5
4AC
330
1F
100
AcDbEntity
  8
P-0000
  6
Continuous
 62
     7
100
AcDbLine
 10
428.7613589530509
 20
363.3147412125234
 30
0.0
 11
428.7613589530509
 21
383.3146506777619
 31
0.0
1001
ACME_LAYERS
1000
1
  0
LINE
  5
4AD
330
1F
100
AcDbEntity
  8
P-0000
  6
Continuous
 62
     7
100
AcDbLine
 10
343.7217627092912
 20
533.3147412125233
 30
0.0
 11
323.2217627092921
 21
533.3147412125233
 31
0.0
1001
ACME_LAYERS
1000
1
  0
LINE
  5
4AE
330
1F
100
AcDbEntity
  8
P-0000
  6
Continuous
 62
     7
100
AcDbLine
 10
327.7217627092841
 20
513.3147412125233
 30
0.0
 11
327.7217627092841
 21
533.3147412125233
 31
0.0
1001
ACME_LAYERS
1000
1
  0
LINE
  5
4AF
330
1F
100
AcDbEntity
  8
P-0000
  6
Continuous
 62
     7
100
AcDbLine
 10
327.7217627092841
 20
513.3147412125233
 30
0.0
 11
323.2217627092921
 21
513.3147412125233
 31
0.0
1001
ACME_LAYERS
1000
1
  0
LINE
  5
4B0
330
1F
100
AcDbEntity
  8
P-0000
  6
Continuous
 62
     7
100
AcDbLine
 10
204.2217627092921
 20
513.3147412125233
 30
0.0
 11
204.2217627092918
 21
511.314741212525
 31
0.0
1001
ACME_LAYERS
1000
1
  0
LINE
  5
4B1
330
1F
100
AcDbEntity
  8
P-0000
  6
Continuous
 62
     7
100
AcDbLine
 10
199.7217627092981
 20
513.3147412125233
 30
0.0
 11
236.2217627093063
 21
513.3147412125233
 31
0.0
1001
ACME_LAYERS
1000
1
  0
LINE
  5
4B2
330
1F
100
AcDbEntity
  8
P-0000
  6
Continuous
 62
     7
100
AcDbLine
 10
183.7217627092911
 20
533.3147412125233
 30
0.0
 11
186.2217627092863
 21
533.3147412125233
 31
0.0
1001
ACME_LAYERS
1000
1
  0
LINE
  5
4B3
330
1F
100
AcDbEntity
  8
P-0000
  6
Continuous
 62
     7
100
AcDbLine
 10
199.7217627092981
 20
533.3147412125233
 30
0.0
 11
199.7217627092981
 21
513.3147412125233
 31
0.0
1001
ACME_LAYERS
1000
1
  0
LINE
  5
4B4
330
1F
100
AcDbEntity
  8
P-0000
  6
Continuous
 62
     7
100
AcDbLine
 10
148.7613589530509
 20
533.3147412125233
 30
0.0
 11
183.7217627092911
 21
533.3147412125233
 31
0.0
1001
ACME_LAYERS
1000
1
  0
LINE
  5
4B5
330
1F
100
AcDbEntity
  8
P-0000
  6
Continuous
 62
     7
100
AcDbLine
 10
148.7613589530509
 20
363.3147412125234
 30
0.0
 11
148.7613589530509
 21
457.3338804520585
 31
0.0
1001
ACME_LAYERS
1000
1
  0
LINE
  5
4B6
330
1F
100
AcDbEntity
  8
P-0000
  6
Continuous
 62
     7
100
AcDbLine
 10
428.7613589530509
 20
363.3147412125234
 30
0.0
 11
323.2217627092921
 21
363.3147412125234
 31
0.0
1001
ACME_LAYERS
1000
1
  0
LINE
  5
4B7
330
1F
100
AcDbEntity
  8
P-0000
  6
Continuous
 62
     7
100
AcDbLine
 10
204.2217627092918
 20
496.8130119513509
 30
0.0
 11
204.2217627092921
 21
457.3338804520585
 31
0.0
1001
ACME_LAYERS
1000
1
  0
LINE
  5
4B8
330
1F
100
AcDbEntity
  8
P-0000
  6
Continuous
 62
     7
100
AcDbLine
 10
228.2217627092987
 20
384.4961339653009
 30
0.0
 11
236.2217627093063
 21
384.4961339653009
 31
0.0
1001
ACME_LAYERS
1000
1
  0
LINE
  5
4B9
330
1F
100
AcDbEntity
  8
P-0000
  6
Continuous
 62
     7
100
AcDbLine
 10
323.2217627092921
 20
511.314741212525
 30
0.0
 11
323.2217627092921
 21
507.533483467696
 31
0.0
1001
ACME_LAYERS
1000
1
  0
LINE
  5
4BA
330
1F
100
AcDbEntity
  8
P-0000
  6
Continuous
 62
     7
100
AcDbLine
 10
204.2217627092918
 20
511.314741212525
 30
0.0
 11
204.2217627092918
 21
496.8130119513509
 31
0.0
1001
ACME_LAYERS
1000
1
  0
LINE
  5
4BB
330
1F
100
AcDbEntity
  8
P-0000
  6
Continuous
 62
     7
100
AcDbLine
 10
417.0025799553906
 20
484.8659015192766
 30
0.0
 11
428.7613589530509
 21
484.4552759083949
 31
0.0
1001
ACME_LAYERS
1000
1
  0
LINE
  5
4BC
330
1F
100
AcDbEntity
  8
P-0000
  6
Continuous
 62
     7
100
AcDbLine
 10
323.2217627092921
 20
511.314741212525
 30
0.0
 11
323.2217627092921
 21
513.3147412125233
 31
0.0
1001
ACME_LAYERS
1000
1
  0
LINE
  5
4BD
330
1F
100
AcDbEntity
  8
P-0000
  6
Continuous
 62
     7
100
AcDbLine
 10
343.7217627092912
 20
533.3147412125233
 30
0.0
 11
428.7613589530509
 21
533.3147412125233
 31
0.0
1001
ACME_LAYERS
1000
1
  0
LINE
  5
4BE
330
1F
100
AcDbEntity
  8
P-0000
  6
Continuous
 62
     7
100
AcDbLine
 10
204.2217627092919
 20
513.4164253732956
 30
0.0
 11
204.2217627092921
 21
513.3147412125233
 31
0.0
1001
ACME_LAYERS
1000
1
  0
LINE
  5
4BF
330
1F
100
AcDbEntity
  8
P-0000
  6
Continuous
 62
     7
100
AcDbLine
 10
197.2174913929722
 20
539.5342732866541
 30
0.0
 11
197.2217627092848
 21
539.5181095340628
 31
0.0
1001
ACME_LAYERS
1000
1
  0
LINE
  5
4C0
330
1F
100
AcDbEntity
  8
P-0000
  6
Continuous
 62
     7
100
AcDbLine
 10
323.2217627092921
 20
507.533483467696
 30
0.0
 11
323.2217627092921
 21
506.1151878141971
 31
0.0
1001
ACME_LAYERS
1000
1
  0
LINE
  5
4C1
330
1F
100
AcDbEntity
  8
P-0000
  6
STRICHPUNKT
 62
     3
100
AcDbLine
 10
263.7217627092921
 20
357.3147412125234
 30
0.0
 11
263.7217627092921
 21
457.3338804520585
 31
0.0
1001
ACME_LAYERS
1000
1
  0
LINE
  5
4CE
330
1F
100
AcDbEntity
  8
P-0000
  6
Continuous
 62
     7
100
AcDbLine
 10
428.7613589530509
 20
447.9147412125233
 30
0.0
 11
428.7613589530509
 21
457.3338804520585
 31
0.0
1001
ACME_LAYERS
1000
1
  0
LINE
  5
4CF
330
1F
100
AcDbEntity
  8
P-0000
  6
Continuous
 62
     7
100
AcDbLine
 10
323.2217627092921
 20
497.7528492597905
 30
0.0
 11
323.2217627092921
 21
496.1828050849451
 31
0.0
1001
ACME_LAYERS
1000
1
  0
LINE
  5
4D0
330
1F
100
AcDbEntity
  8
P-0000
  6
Continuous
 62
     7
100
AcDbLine
 10
387.6882601035348
 20
503.8639681187524
 30
0.0
 11
386.9634447428471
 21
483.1079718667484
 31
0.0
1001
ACME_LAYERS
1000
1
  0
LINE
  5
4D1
330
1F
100
AcDbEntity
  8
P-0000
  6
Continuous
 62
     7
100
AcDbLine
 10
323.2217627092921
 20
487.5820675092071
 30
0.0
 11
323.2217627092921
 21
485.3338804520586
 31
0.0
1001
ACME_LAYERS
1000
1
  0
LINE
  5
4D2
330
1F
100
AcDbEntity
  8
P-0000
  6
Continuous
 62
     7
100
AcDbLine
 10
323.2217627092921
 20
363.3147412125234
 30
0.0
 11
236.2217627093063
 21
363.3147412125234
 31
0.0
1001
ACME_LAYERS
1000
1
  0
LINE
  5
4D3
330
1F
100
AcDbEntity
  8
P-0000
  6
Continuous
 62
     7
100
AcDbLine
 10
236.2217627093063
 20
363.3147412125234
 30
0.0
 11
148.7613589530509
 21
363.3147412125234
 31
0.0
1001
ACME_LAYERS
1000
1
  0
LINE
  5
4D4
330
1F
100
AcDbEntity
  8
P-0000
  6
Continuous
 62
     7
100
AcDbLine
 10
212.2217627092918
 20
384.4961339653009
 30
0.0
 11
323.2217627092921
 21
384.4961339653009
 31
0.0
1001
ACME_LAYERS
1000
1
  0
LINE
  5
4D5
330
1F
100
AcDbEntity
  8
P-0000
  6
Continuous
 62
     7
100
AcDbLine
 10
236.2217627093063
 20
513.3147412125233
 30
0.0
 11
323.2217627092921
 21
513.3147412125233
 31
0.0
1001
ACME_LAYERS
1000
1
  0
LINE
  5
4D6
330
1F
100
AcDbEntity
  8
P-0000
  6
Continuous
 62
     7
100
AcDbLine
 10
236.2217627093063
 20
533.3147412125233
 30
0.0
 11
186.2217627092863
 21
533.3147412125233
 31
0.0
1001
ACME_LAYERS
1000
1
  0
LINE
  5
4D7
330
1F
100
AcDbEntity
  8
P-0000
  6
Continuous
 62
     7
100
AcDbLine
 10
323.2217627092921
 20
533.3147412125233
 30
0.0
 11
236.2217627093063
 21
533.3147412125233
 31
0.0
1001
ACME_LAYERS
1000
1
  0
LINE
  5
4D8
330
1F
100
AcDbEntity
  8
P-0000
  6
Continuous
 62
     7
100
AcDbLine
 10
307.2217627092852
 20
513.3147412125233
 30
0.0
 11
323.2217627092921
 21
513.3147412125233
 31
0.0
1001
ACME_LAYERS
1000
1
  0
LINE
  5
4D9
330
1F
100
AcDbEntity
  8
P-0000
  6
Continuous
 62
     7
100
AcDbLine
 10
148.7613589530509
 20
457.3338804520585
 30
0.0
 11
148.7613589530509
 21
533.3147412125233
 31
0.0
1001
ACME_LAYERS
1000
1
  0
LINE
  5
4DA
330
1F
100
AcDbEntity
  8
P-0000
  6
Continuous
 62
     7
100
AcDbLine
 10
204.2217627092921
 20
457.3338804520585
 30
0.0
 11
204.2217627092918
 21
392.4961339653009
 31
0.0
1001
ACME_LAYERS
1000
1
  0
LINE
  5
4DB
330
1F
100
AcDbEntity
  8
P-0000
  6
STRICHPUNKT
 62
     3
100
AcDbLine
 10
263.7217627092921
 20
457.3338804520585
 30
0.0
 11
263.7217627092921
 21
539.3147412125233
 31
0.0
1001
ACME_LAYERS
1000
1
  0
LINE
  5
4DC
330
1F
100
AcDbEntity
  8
P-0000
  6
Continuous
 62
     7
100
AcDbLine
 10
323.2217627092921
 20
457.3338804520585
 30
0.0
 11
323.2217627092921
 21
384.4961339653009
 31
0.0
1001
ACME_LAYERS
1000
1
  0
LINE
  5
4DD
330
1F
100
AcDbEntity
  8
P-0000
  6
Continuous
 62
     7
100
AcDbLine
 10
386.0809794705401
 20
457.8374728155904
 30
0.0
 11
383.4660591862096
 21
382.955953238869
 31
0.0
1001
ACME_LAYERS
1000
1
  0
LINE
  5
4DE
330
1F
100
AcDbEntity
  8
P-0000
  6
Continuous
 62
     7
100
AcDbLine
 10
428.7613589530509
 20
457.3338804520585
 30
0.0
 11
428.7613589530509
 21
533.3147412125233
 31
0.0
1001
ACME_LAYERS
1000
1
  0
LINE
  5
4DF
330
1F
100
AcDbEntity
  8
P-0000
  6
Continuous
 62
     7
100
AcDbLine
 10
323.2217627092921
 20
384.4961339653009
 30
0.0
 11
323.2217627092921
 21
378.0554636192402
 31
0.0
1001
ACME_LAYERS
1000
1
  0
LINE
  5
4E0
330
1F
100
AcDbEntity
  8
P-0000
  6
Continuous
 62
     7
100
AcDbLine
 10
323.2217627092921
 20
506.1151878141971
 30
0.0
 11
323.2217627092921
 21
497.7528492597905
 31
0.0
1001
ACME_LAYERS
1000
1
  0
LINE
  5
4E1
330
1F
100
AcDbEntity
  8
P-0000
  6
Continuous
 62
     7
100
AcDbLine
 10
323.2217627092921
 20
496.1828050849451
 30
0.0
 11
323.2217627092921
 21
487.5820675092071
 31
0.0
1001
ACME_LAYERS
1000
1
  0
LINE
  5
4E2
330
1F
100
AcDbEntity
  8
P-0000
  6
STRICHPUNKT
 62
     3
100
AcDbLine
 10
431.7595314341082
 20
432.8100427224158
 30
0.0
 11
428.7613589530509
 21
432.9147412125232
 31
0.0
1001
ACME_LAYERS
1000
1
  0
LINE
  5
54A
330
1F
100
AcDbEntity
  8
P-0000
  6
Continuous
 62
     7
100
AcDbLine
 10
323.2217627092921
 20
472.8389098917047
 30
0.0
 11
386.5276421999336
 21
470.6282198665397
 31
0.0
1001
ACME_LAYERS
1000
1
  0
LINE
  5
54B
330
1F
100
AcDbEntity
  8
P-0000
  6
Continuous
 62
     7
100
AcDbLine
 10
323.2217627092921
 20
472.8389098917047
 30
0.0
 11
323.2217627092921
 21
457.3338804520585
 31
0.0
1001
ACME_LAYERS
1000
1
  0
LINE
  5
54C
330
1F
100
AcDbEntity
  8
P-0000
  6
Continuous
 62
     7
100
AcDbLine
 10
386.5276421999336
 20
470.6282198665397
 30
0.0
 11
386.0809794705401
 21
457.8374728155904
 31
0.0
1001
ACME_LAYERS
1000
1
  0
LINE
  5
54D
330
1F
100
AcDbEntity
  8
P-0000
  6
Continuous
 62
     7
100
AcDbLine
 10
323.2217627092921
 20
485.3338804520586
 30
0.0
 11
386.9634447428471
 21
483.1079718667484
 31
0.0
1001
ACME_LAYERS
1000
1
  0
LINE
  5
54E
330
1F
100
AcDbEntity
  8
P-0000
  6
Continuous
 62
     7
100
AcDbLine
 10
386.9634447428471
 20
483.1079718667484
 30
0.0
 11
386.694115005138
 21
475.3953772810917
 31
0.0
1001
ACME_LAYERS
1000
1
  0
LINE
  5
54F
330
1F
100
AcDbEntity
  8
P-0000
  6
Continuous
 62
     7
100
AcDbLine
 10
323.2217627092921
 20
485.3338804520586
 30
0.0
 11
323.2217627092921
 21
480.7996052448308
 31
0.0
1001
ACME_LAYERS
1000
1
  0
LINE
  5
550
330
1F
100
AcDbEntity
  8
P-0000
  6
Continuous
 62
     7
100
AcDbLine
 10
323.2217627092921
 20
477.611880664714
 30
0.0
 11
386.694115005138
 21
475.3953772810917
 31
0.0
1001
ACME_LAYERS
1000
1
  0
LINE
  5
551
330
1F
100
AcDbEntity
  8
P-0000
  6
Continuous
 62
     7
100
AcDbLine
 10
323.2217627092921
 20
477.611880664714
 30
0.0
 11
323.2217627092921
 21
472.8389098917047
 31
0.0
1001
ACME_LAYERS
1000
1
  0
LINE
  5
552
330
1F
100
AcDbEntity
  8
P-0000
  6
Continuous
 62
     7
100
AcDbLine
 10
386.694115005138
 20
475.3953772810917
 30
0.0
 11
386.5276421999336
 21
470.6282198665397
 31
0.0
1001
ACME_LAYERS
1000
1
  0
LINE
  5
553
330
1F
100
AcDbEntity
  8
P-0000
  6
STRICHPUNKT
 62
     3
100
AcDbLine
 10
428.7613589530509
 20
432.9147412125232
 30
0.0
 11
369.7613589530509
 21
432.9147412125232
 31
0.0
1001
ACME_LAYERS
1000
1
  0
LINE
  5
554
330
1F
100
AcDbEntity
  8
P-0000
  6
Continuous
 62
     7
100
AcDbLine
 10
428.7613589530509
 20
432.9147412125232
 30
0.0
 11
428.7613589530509
 21
447.9147412125233
 31
0.0
1001
ACME_LAYERS
1000
1
  0
LINE
  5
555
330
1F
100
AcDbEntity
  8
P-0000
  6
STRICHPUNKT
 62
     3
100
AcDbLine
 10
428.7613589530509
 20
432.9147412125232
 30
0.0
 11
286.4571797645037
 21
437.8841126516796
 31
0.0
1001
ACME_LAYERS
1000
1
  0
HATCH
  5
949
330
1F
100
AcDbEntity
  8
AM_8
100
AcDbHatch
 10
0.0
 20
0.0
 30
0.0
210
0.0
220
0.0
230
1.0
  2
_U
 70
     0
 71
     0
 91
        2
 92
        1
 93
        9
 72
     1
 10
199.7217627092981
 20
513.3147412125233
 11
199.7217627092981
 21
533.3147412125233
 72
     1
 10
199.7217627092981
 20
533.3147412125233
 11
148.7613589530509
 21
533.3147412125233
 72
     1
 10
148.7613589530509
 20
533.3147412125233
 11
148.7613589530509
 21
363.3147412125234
 72
     1
 10
148.7613589530509
 20
363.3147412125234
 11
263.7217627092921
 21
363.3147412125234
 72
     1
 10
263.7217627092921
 20
363.3147412125234
 11
263.7217627092921
 21
384.4961339653009
 72
     1
 10
263.7217627092921
 20
384.4961339653009
 11
212.2217627092918
 21
384.4961339653009
 72
     2
 10
212.2217627092918
 20
392.4961339653009
 40
8.0
 50
90.0
 51
180.0
 73
     0
 72
     1
 10
204.2217627092918
 20
392.4961339653009
 11
204.2217627092921
 21
513.3147412125233
 72
     1
 10
204.2217627092921
 20
513.3147412125233
 11
199.7217627092981
 21
513.3147412125233
 97
        0
 92
       16
 93
        2
 72
     2
 10
163.7613589530509
 20
378.3147412125233
 40
10.0
 50
270.0
 51
540.0
 73
     0
 72
     2
 10
163.7613589530509
 20
378.3147412125233
 40
10.0
 50
180.0
 51
270.0
 73
     0
 97
        0
 75
     0
 76
     0
 52
45.0
 41
2.299999999999999
 77
     1
 78
     2
 53
45.0
 43
0.0
 44
0.0
 45
-1.626345596729059
 46
1.626345596729059
 79
     0
 53
135.0
 43
0.0
 44
0.0
 45
-1.626345596729059
 46
-1.626345596729058
 79
     0
 98
        1
 10
0.0
 20
0.0
1001
GENIUS_GENOBJ-N-HTC_13
1002
{
1000
OWNER
1000
GEN
1002
}
1001
GENIUS_GENODEF_13
1002
{
1000
HIER
1070
     0
1002
}
1002
{
1000
MANEDIT
1070
     0
1002
}
1002
{
1000
NOSEL
1070
     0
1002
}
1002
{
1000
BEHIND
1070
     0
1002
}
1002
{
1000
OTHER
1070
     0
1002
}
1002
{
1000
REACTOR
1002
}
1001
GENIUS_GENHATCH_13
1002
{
1000
DATA
1040
45.0
1042
2.299999999999999
1000
_U
1070
     1
1011
179.3947395068471
1021
438.3817262125348
1031
0.0
1002
}
1002
{
1000
UCS
1010
0.0
1020
0.0
1030
0.0
1010
1.0
1020
0.0
1030
0.0
1010
0.0
1020
1.0
1030
0.0
1002
}
  0
HATCH
  5
957
330
1F
100
AcDbEntity
  8
AM_8
100
AcDbHatch
 10
0.0
 20
0.0
 30
0.0
210
0.0
220
0.0
230
1.0
  2
_U
 70
     0
 71
     0
 91
        1
 92
        1
 93
        8
 72
     1
 10
428.7613589530509
 20
381.3742065166517
 11
383.4660591862096
 21
382.955953238869
 72
     1
 10
383.4660591862096
 20
382.955953238869
 11
383.2217627092921
 21
375.9602174497354
 72
     1
 10
383.2217627092921
 20
375.9602174497354
 11
323.2217627092921
 21
378.0554636192402
 72
     1
 10
323.2217627092921
 20
378.0554636192402
 11
323.2217627092921
 21
384.4961339653009
 72
     1
 10
323.2217627092921
 20
384.4961339653009
 11
263.7217627092921
 21
384.4961339653009
 72
     1
 10
263.7217627092921
 20
384.4961339653009
 11
263.7217627092921
 21
363.3147412125234
 72
     1
 10
263.7217627092921
 20
363.3147412125234
 11
428.7613589530509
 21
363.3147412125234
 72
     1
 10
428.7613589530509
 20
363.3147412125234
 11
428.7613589530509
 21
381.3742065166517
 97
        0
 75
     0
 76
     0
 52
45.0
 41
2.299999999999999
 77
     1
 78
     2
 53
45.0
 43
0.0
 44
0.0
 45
-1.626345596729059
 46
1.626345596729059
 79
     0
 53
135.0
 43
0.0
 44
0.0
 45
-1.626345596729059
 46
-1.626345596729058
 79
     0
 98
        1
 10
0.0
 20
0.0
1001
GENIUS_GENODEF_13
1002
{
1000
HIER
1070
     0
1002
}
1002
{
1000
MANEDIT
1070
     0
1002
}
1002
{
1000
NOSEL
1070
     0
1002
}
1002
{
1000
BEHIND
1070
     0
1002
}
1002
{
1000
OTHER
1070
     0
1002
}
1002
{
1000
REACTOR
1002
}
1001
GENIUS_GENOBJ-N-HTC_13
1002
{
1000
OWNER
1000
GEN
1002
}
1001
GENIUS_GENHATCH_13
1002
{
1000
DATA
1040
45.0
1042
2.299999999999999
1000
_U
1070
     1
1011
287.9913408106354
1021
370.9472259965182
1031
0.0
1002
}
1002
{
1000
UCS
1010
0.0
1020
0.0
1030
0.0
1010
1.0
1020
0.0
1030
0.0
1010
0.0
1020
1.0
1030
0.0
1002
}
  0
HATCH
  5
96B
330
1F
100
AcDbEntity
  8
AM_8
100
AcDbHatch
 10
0.0
 20
0.0
 30
0.0
210
0.0
220
0.0
230
1.0
  2
_U
 70
     0
 71
     0
 91
        3
 92
        1
 93
        8
 72
     1
 10
387.0613451414804
 20
485.9114724785114
 11
387.6882601035348
 21
503.8639681187524
 72
     1
 10
387.6882601035348
 20
503.8639681187524
 11
323.2217627092921
 21
506.1151878141971
 72
     1
 10
323.2217627092921
 20
506.1151878141971
 11
323.2217627092921
 21
513.3147412125233
 72
     1
 10
323.2217627092921
 20
513.3147412125233
 11
327.7217627092841
 21
513.3147412125233
 72
     1
 10
327.7217627092841
 20
513.3147412125233
 11
327.7217627092841
 21
533.3147412125233
 72
     1
 10
327.7217627092841
 20
533.3147412125233
 11
428.7613589530509
 21
533.3147412125233
 72
     1
 10
428.7613589530509
 20
533.3147412125233
 11
428.7613589530509
 21
484.4552759083949
 72
     1
 10
428.7613589530509
 20
484.4552759083949
 11
387.0613451414804
 21
485.9114724785114
 97
        0
 92
       16
 93
        2
 72
     2
 10
413.7613589530507
 20
518.3147412125228
 40
9.999999999999593
 50
168.5408440973862
 51
424.7073253227859
 73
     0
 72
     2
 10
413.7613589530509
 20
518.3147412125235
 40
10.00000000000004
 50
64.70732532278943
 51
168.5408440973827
 73
     0
 97
        0
 92
       16
 93
        4
 72
     1
 10
381.2787641010545
 20
523.4083800590782
 11
382.1907027963
 21
528.5792699769522
 72
     1
 10
382.1907027963
 20
528.5792699769522
 11
397.2010426077028
 21
525.9320448531906
 72
     1
 10
397.2010426077028
 20
525.9320448531906
 11
396.2891039124573
 21
520.7611549353166
 72
     1
 10
396.2891039124573
 20
520.7611549353166
 11
381.2787641010545
 21
523.4083800590782
 97
        0
 75
     0
 76
     0
 52
45.0
 41
2.299999999999999
 77
     1
 78
     2
 53
45.0
 43
0.0
 44
0.0
 45
-1.626345596729059
 46
1.626345596729059
 79
     0
 53
135.0
 43
0.0
 44
0.0
 45
-1.626345596729059
 46
-1.626345596729058
 79
     0
 98
        1
 10
0.0
 20
0.0
1001
GENIUS_GENODEF_13
1002
{
1000
HIER
1070
     0
1002
}
1002
{
1000
MANEDIT
1070
     0
1002
}
1002
{
1000
NOSEL
1070
     0
1002
}
1002
{
1000
BEHIND
1070
     0
1002
}
1002
{
1000
OTHER
1070
     0
1002
}
1002
{
1000
REACTOR
1002
}
1001
GENIUS_GENOBJ-N-HTC_13
1002
{
1000
OWNER
1000
GEN
1002
}
1001
GENIUS_GENHATCH_13
1002
{
1000
DATA
1040
45.0
1042
2.299999999999999
1000
_U
1070
     1
1011
351.5038982645183
1021
516.3425868308093
1031
0.0
1002
}
1002
{
1000
UCS
1010
0.0
1020
0.0
1030
0.0
1010
1.0
1020
0.0
1030
0.0
1010
0.0
1020
1.0
1030
0.0
1002
}
  0
ENDSEC
  0
SECTION
  2
OBJECTS
  0
DICTIONARY
  5
C
330
0
100
AcDbDictionary
281
     1
  3
ACAD_COLOR
350
8A9
  3
ACAD_GROUP
350
D
  3
ACAD_LAYOUT
350
1A
  3
ACAD_MATERIAL
350
8A8
  3
ACAD_MLINESTYLE
350
17
  3
ACAD_PLOTSETTINGS
350
19
  3
ACAD_PLOTSTYLENAME
350
E
  3
ACAD_TABLESTYLE
350
8AA
  3
ACDBHEADERROUNDTRIPXREC
350
974
  3
AcDbVariableDictionary
350
34
  3
AcmDictionary
350
47
  3
AMG
350
2B
  3
AMGSNAPSETTINGS
350
421
  3
DWGPROPS
350
973
  0
DICTIONARY
  5
944
330
2
100
AcDbDictionary
280
     1
281
     1
  3
AMLAYER_GROUPCOLORS
360
945
  0
DICTIONARY
  5
81
330
1F
100
AcDbDictionary
280
     1
281
     1
  3
ACAD_SORTENTS
360
94A
  0
DICTIONARY
  5
8A9
102
{ACAD_REACTORS
330
C
102
}
330
C
100
AcDbDictionary
281
     1
  0
DICTIONARY
  5
D
102
{ACAD_REACTORS
330
C
102
}
330
C
100
AcDbDictionary
281
     1
  0
DICTIONARY
  5
1A
102
{ACAD_REACTORS
330
C
102
}
330
C
100
AcDbDictionary
281
     1
  3
Layout1
350
1E
  3
Layout2
350
26
  3
Model
350
22
  0
DICTIONARY
  5
8A8
102
{ACAD_REACTORS
330
C
102
}
330
C
100
AcDbDictionary
281
     1
  0
DICTIONARY
  5
17
102
{ACAD_REACTORS
330
C
102
}
330
C
100
AcDbDictionary
281
     1
  3
Standard
350
18
  0
DICTIONARY
  5
19
102
{ACAD_REACTORS
330
C
102
}
330
C
100
AcDbDictionary
281
     1
  0
ACDBDICTIONARYWDFLT
  5
E
102
{ACAD_REACTORS
330
C
102
}
330
C
100
AcDbDictionary
281
     1
  3
Normal
350
F
100
AcDbDictionaryWithDefault
340
F
  0
DICTIONARY
  5
8AA
102
{ACAD_REACTORS
330
C
102
}
330
C
100
AcDbDictionary
281
     1
  3
Standard
350
8AB
  0
DICTIONARY
  5
974
102
{ACAD_REACTORS
330
C
102
}
330
C
100
AcDbDictionary
281
     1
  0
DICTIONARY
  5
34
102
{ACAD_REACTORS
330
C
102
}
330
C
100
AcDbDictionary
281
     1
  3
CTABLESTYLE
350
96F
  3
DIMASSOC
350
970
  3
INDEXCTL
350
35
  3
PROJECTNAME
350
971
  0
DICTIONARY
  5
47
102
{ACAD_REACTORS
330
C
102
}
330
C
100
AcDbDictionary
281
     1
  3
AcmStdDictionary
350
4C
  3
AMDTSECTSYM_ARROWCOLOR
350
903
  0
DICTIONARY
  5
2B
102
{ACAD_REACTORS
330
C
102
}
330
C
100
AcDbDictionary
281
     1
  0
DICTIONARY
  5
421
102
{ACAD_REACTORS
330
C
102
}
330
C
100
AcDbDictionary
281
     1
  0
XRECORD
  5
973
102
{ACAD_REACTORS
330
C
102
}
330
C
100
AcDbXrecord
280
     1
  1
DWGPROPS COOKIE
  2

  3

  4

  6

  7

  8

  9

300
AmdtFileType=84
301
=
302
=
303
=
304
=
305
=
306
=
307
=
308
=
309
=
 40
0.0034287962962963
 41
2452702.515835023
 42
2454041.893740891
  1

 90
        1
  0
DICTIONARY
  5
945
102
{ACAD_REACTORS
330
944
102
}
330
944
100
AcDbDictionary
280
     1
281
     1
  0
SORTENTSTABLE
  5
94A
102
{ACAD_REACTORS
330
81
102
}
330
81
100
AcDbSortentsTable
330
1F
331
949
  5
946
331
550
  5
550
331
4D0
  5
4D0
331
4B6
  5
4B6
331
4E1
  5
4E1
331
4A5
  5
4A5
331
450
  5
450
331
432
  5
432
331
4CE
  5
4CE
331
4B4
  5
4B4
331
54E
  5
54E
331
4DF
  5
4DF
331
4A3
  5
4A3
331
54C
  5
54C
331
4B2
  5
4B2
331
4DD
  5
4DD
331
4A1
  5
4A1
331
54A
  5
54A
331
4DB
  5
4DB
331
4C1
  5
4C1
331
4B0
  5
4B0
331
4D9
  5
4D9
331
4BF
  5
4BF
331
459
  5
459
331
4AE
  5
4AE
331
44C
  5
44C
331
4D7
  5
4D7
331
4BD
  5
4BD
331
4AC
  5
4AC
331
44A
  5
44A
331
555
  5
555
331
4D5
  5
4D5
331
4BB
  5
4BB
331
4AA
  5
4AA
331
437
  5
437
331
4D3
  5
4D3
331
4B9
  5
4B9
331
453
  5
453
331
553
  5
553
331
4A8
  5
4A8
331
446
  5
446
331
435
  5
435
331
551
  5
551
331
4D1
  5
4D1
331
4B7
  5
4B7
331
4E2
  5
4E2
331
4A6
  5
4A6
331
451
  5
451
331
54F
  5
54F
331
4E0
  5
4E0
331
4CF
  5
4CF
331
4B5
  5
4B5
331
431
  5
431
331
4B3
  5
4B3
331
957
  5
956
331
54D
  5
54D
331
4DE
  5
4DE
331
4A2
  5
4A2
331
42F
  5
42F
331
54B
  5
54B
331
4B1
  5
4B1
331
4DC
  5
4DC
331
4A0
  5
4A0
331
4DA
  5
4DA
331
4C0
  5
4C0
331
4AF
  5
4AF
331
44D
  5
44D
331
96B
  5
968
331
4D8
  5
4D8
331
4BE
  5
4BE
331
4AD
  5
4AD
331
44B
  5
44B
331
4D6
  5
4D6
331
4BC
  5
4BC
331
4AB
  5
4AB
331
554
  5
554
331
4D4
  5
4D4
331
4BA
  5
4BA
331
4A9
  5
4A9
331
552
  5
552
331
4D2
  5
4D2
331
4B8
  5
4B8
331
4A7
  5
4A7
331
452
  5
452
331
434
  5
434
  0
LAYOUT
  5
1E
102
{ACAD_XDICTIONARY
360
975
102
}
102
{ACAD_REACTORS
330
1A
102
}
330
1A
100
AcDbPlotSettings
  1

  2
C:\Programme\Acadm 2000i\plotters\PH36.pc3
  4

  6

 40
0.0
 41
0.0
 42
0.0
 43
0.0
 44
0.0
 45
0.0
 46
0.0
 47
0.0
 48
0.0
 49
0.0
140
0.0
141
0.0
142
1.0
143
1.0
 70
   688
 72
     0
 73
     0
 74
     5
  7
monochrome.ctb
 75
    16
147
1.0
148
0.0
149
0.0
100
AcDbLayout
  1
Layout1
 70
     1
 71
     1
 10
0.0
 20
0.0
 11
420.0
 21
297.0
 12
0.0
 22
0.0
 32
0.0
 14
1.000000000000000E+20
 24
1.000000000000000E+20
 34
1.000000000000000E+20
 15
-1.000000000000000E+20
 25
-1.000000000000000E+20
 35
-1.000000000000000E+20
146
0.0
 13
0.0
 23
0.0
 33
0.0
 16
1.0
 26
0.0
 36
0.0
 17
0.0
 27
1.0
 37
0.0
 76
     0
330
1B
  0
LAYOUT
  5
26
102
{ACAD_XDICTIONARY
360
979
102
}
102
{ACAD_REACTORS
330
1A
102
}
330
1A
100
AcDbPlotSettings
  1

  2
C:\Programme\Acadm 2000i\plotters\PH36.pc3
  4

  6

 40
0.0
 41
0.0
 42
0.0
 43
0.0
 44
0.0
 45
0.0
 46
0.0
 47
0.0
 48
0.0
 49
0.0
140
0.0
141
0.0
142
1.0
143
1.0
 70
   688
 72
     0
 73
     0
 74
     5
  7
monochrome.ctb
 75
    16
147
1.0
148
0.0
149
0.0
100
AcDbLayout
  1
Layout2
 70
     1
 71
     2
 10
0.0
 20
0.0
 11
12.0
 21
9.0
 12
0.0
 22
0.0
 32
0.0
 14
0.0
 24
0.0
 34
0.0
 15
0.0
 25
0.0
 35
0.0
146
0.0
 13
0.0
 23
0.0
 33
0.0
 16
1.0
 26
0.0
 36
0.0
 17
0.0
 27
1.0
 37
0.0
 76
     0
330
23
  0
LAYOUT
  5
22
102
{ACAD_XDICTIONARY
360
977
102
}
102
{ACAD_REACTORS
330
1A
102
}
330
1A
100
AcDbPlotSettings
  1

  2
C:\Programme\Acadm 2000i\plotters\PH36.pc3
  4

  6

 40
0.0
 41
0.0
 42
0.0
 43
0.0
 44
0.0
 45
0.0
 46
0.0
 47
0.0
 48
0.0
 49
0.0
140
0.0
141
0.0
142
1.0
143
1.0
 70
 11952
 72
     0
 73
     1
 74
     0
  7
monochrome.ctb
 75
     0
147
1.0
148
-2942.578635172484
149
76.34524159542846
100
AcDbLayout
  1
Model
 70
     1
 71
     0
 10
0.0
 20
0.0
 11
12.0
 21
9.0
 12
0.0
 22
0.0
 32
0.0
 14
0.0
 24
0.0
 34
0.0
 15
0.0
 25
0.0
 35
0.0
146
0.0
 13
0.0
 23
0.0
 33
0.0
 16
1.0
 26
0.0
 36
0.0
 17
0.0
 27
1.0
 37
0.0
 76
     0
330
1F
  0
MLINESTYLE
  5
18
102
{ACAD_REACTORS
330
17
102
}
330
17
100
AcDbMlineStyle
  2
STANDARD
 70
     0
  3

 62
   256
 51
90.0
 52
90.0
 71
     2
 49
0.5
 62
   256
  6
BYLAYER
 49
-0.5
 62
   256
  6
BYLAYER
  0
ACDBPLACEHOLDER
  5
F
102
{ACAD_REACTORS
330
E
102
}
330
E
  0
TABLESTYLE
  5
8AB
102
{ACAD_REACTORS
330
8AA
102
}
330
8AA
100
AcDbTableStyle
  3
Standard
 70
     0
 71
     0
 40
1.5
 41
1.5
280
     0
281
     0
  7
STANDARD
140
4.5
170
     2
 62
     0
 63
     7
283
     0
274
    -2
284
     1
 64
     0
275
    -2
285
     1
 65
     0
276
    -2
286
     1
 66
     0
277
    -2
287
     1
 67
     0
278
    -2
288
     1
 68
     0
279
    -2
289
     1
 69
     0
  7
STANDARD
140
6.0
170
     5
 62
     0
 63
     7
283
     0
274
    -2
284
     1
 64
     0
275
    -2
285
     1
 65
     0
276
    -2
286
     1
 66
     0
277
    -2
287
     1
 67
     0
278
    -2
288
     1
 68
     0
279
    -2
289
     1
 69
     0
  7
STANDARD
140
4.5
170
     5
 62
     0
 63
     7
283
     0
274
    -2
284
     1
 64
     0
275
    -2
285
     1
 65
     0
276
    -2
286
     1
 66
     0
277
    -2
287
     1
 67
     0
278
    -2
288
     1
 68
     0
279
    -2
289
     1
 69
     0
  0
DICTIONARYVAR
  5
96F
102
{ACAD_REACTORS
330
34
102
}
330
34
100
DictionaryVariables
280
     0
  1
STANDARD
  0
DICTIONARYVAR
  5
970
102
{ACAD_REACTORS
330
34
102
}
330
34
100
DictionaryVariables
280
     0
  1
1
  0
DICTIONARYVAR
  5
35
102
{ACAD_REACTORS
330
34
102
}
330
34
100
DictionaryVariables
280
     0
  1
0
  0
DICTIONARYVAR
  5
971
102
{ACAD_REACTORS
330
34
102
}
330
34
100
DictionaryVariables
280
     0
  1

  0
DICTIONARY
  5
4C
102
{ACAD_REACTORS
330
47
102
}
330
47
100
AcDbDictionary
281
     1
  0
XRECORD
  5
903
102
{ACAD_REACTORS
330
47
102
}
330
47
100
AcDbXrecord
280
     1
 90
-1023410169
  0
DICTIONARY
  5
975
330
1E
100
AcDbDictionary
280
     1
281
     1
  3
ACAD_XREC_ROUNDTRIP
360
976
  0
DICTIONARY
  5
979
330
26
100
AcDbDictionary
280
     1
281
     1
  3
ACAD_XREC_ROUNDTRIP
360
97A
  0
DICTIONARY
  5
977
330
22
100
AcDbDictionary
280
     1
281
     1
  3
ACAD_XREC_ROUNDTRIP
360
978
  0
XRECORD
  5
976
102
{ACAD_REACTORS
330
975
102
}
330
975
100
AcDbXrecord
280
     1
102
SHADEPLOT
 70
     0
102
SHADEPLOTRESLEVEL
 70
     2
102
SHADEPLOTCUSTOMDPI
 70
   300
  0
XRECORD
  5
97A
102
{ACAD_REACTORS
330
979
102
}
330
979
100
AcDbXrecord
280
     1
102
SHADEPLOT
 70
     0
102
SHADEPLOTRESLEVEL
 70
     2
102
SHADEPLOTCUSTOMDPI
 70
   300
  0
XRECORD
  5
978
102
{ACAD_REACTORS
330
977
102
}
330
977
100
AcDbXrecord
280
     1
102
SHADEPLOT
 70
     0
102
SHADEPLOTRESLEVEL
 70
     2
102
SHADEPLOTCUSTOMDPI
 70
   300
  0
ENDSEC
  0
EOF
