  0
SECTION
  2
HEADER
  9
$ACADVER
  1
AC1015
  9
$ACADMAINTVER
 70
    20
  9
$DWGCODEPAGE
  3
ANSI_1252
  9
$INSBASE
 10
0.0
 20
0.0
 30
0.0
  9
$EXTMIN
 10
850.158858494673
 20
310.7322338280019
 30
-0.0000000349181948
  9
$EXTMAX
 10
1138.395660107949
 20
1399.217600297367
 30
0.0000000814935746
  9
$LIMMIN
 10
0.0
 20
0.0
  9
$LIMMAX
 10
420.0
 20
297.0
  9
$ORTHOMODE
 70
     0
  9
$REGENMODE
 70
     1
  9
$FILLMODE
 70
     1
  9
$QTEXTMODE
 70
     0
  9
$MIRRTEXT
 70
     1
  9
$LTSCALE
 40
1.0
  9
$ATTMODE
 70
     1
  9
$TEXTSIZE
 40
2.5
  9
$TRACEWID
 40
1.0
  9
$TEXTSTYLE
  7
STANDARD
  9
$CLAYER
  8
0
  9
$CELTYPE
  6
ByLayer
  9
$CECOLOR
 62
   256
  9
$CELTSCALE
 40
1.0
  9
$DISPSILH
 70
     0
  9
$DIMSCALE
 40
1.0
  9
$DIMASZ
 40
2.5
  9
$DIMEXO
 40
1.0
  9
$DIMDLI
 40
10.0
  9
$DIMRND
 40
0.0
  9
$DIMDLE
 40
0.0
  9
$DIMEXE
 40
1.0
  9
$DIMTP
 40
0.1
  9
$DIMTM
 40
0.1
  9
$DIMTXT
 40
3.5
  9
$DIMCEN
 40
0.0
  9
$DIMTSZ
 40
0.0
  9
$DIMTOL
 70
     0
  9
$DIMLIM
 70
     0
  9
$DIMTIH
 70
     0
  9
$DIMTOH
 70
     0
  9
$DIMSE1
 70
     0
  9
$DIMSE2
 70
     0
  9
$DIMTAD
 70
     1
  9
$DIMZIN
 70
     8
  9
$DIMBLK
  1

  9
$DIMASO
 70
     1
  9
$DIMSHO
 70
     1
  9
$DIMPOST
  1

  9
$DIMAPOST
  1
"
  9
$DIMALT
 70
     0
  9
$DIMALTD
 70
     2
  9
$DIMALTF
 40
0.0393701
  9
$DIMLFAC
 40
1.0
  9
$DIMTOFL
 70
     1
  9
$DIMTVP
 40
0.0
  9
$DIMTIX
 70
     0
  9
$DIMSOXD
 70
     0
  9
$DIMSAH
 70
     0
  9
$DIMBLK1
  1

  9
$DIMBLK2
  1

  9
$DIMSTYLE
  2
AM_DIN
  9
$DIMCLRD
 70
   256
  9
$DIMCLRE
 70
   256
  9
$DIMCLRT
 70
     2
  9
$DIMTFAC
 40
0.71
  9
$DIMGAP
 40
1.5
  9
$DIMJUST
 70
     0
  9
$DIMSD1
 70
     0
  9
$DIMSD2
 70
     0
  9
$DIMTOLJ
 70
     0
  9
$DIMTZIN
 70
     8
  9
$DIMALTZ
 70
     0
  9
$DIMALTTZ
 70
     0
  9
$DIMUPT
 70
     0
  9
$DIMDEC
 70
     2
  9
$DIMTDEC
 70
     3
  9
$DIMALTU
 70
     2
  9
$DIMALTTD
 70
     4
  9
$DIMTXSTY
  7
STANDARD
  9
$DIMAUNIT
 70
     0
  9
$DIMADEC
 70
     0
  9
$DIMALTRND
 40
0.0
  9
$DIMAZIN
 70
     2
  9
$DIMDSEP
 70
    46
  9
$DIMATFIT
 70
     3
  9
$DIMFRAC
 70
     0
  9
$DIMLDRBLK
  1

  9
$DIMLUNIT
 70
     2
  9
$DIMLWD
 70
    -1
  9
$DIMLWE
 70
    -1
  9
$DIMTMOVE
 70
     0
  9
$LUNITS
 70
     2
  9
$LUPREC
 70
     2
  9
$SKETCHINC
 40
1.0
  9
$FILLETRAD
 40
2.5
  9
$AUNITS
 70
     0
  9
$AUPREC
 70
     0
  9
$MENU
  1
.
  9
$ELEVATION
 40
0.0
  9
$PELEVATION
 40
0.0
  9
$THICKNESS
 40
0.0
  9
$LIMCHECK
 70
     0
  9
$CHAMFERA
 40
2.5
  9
$CHAMFERB
 40
2.5
  9
$CHAMFERC
 40
20.0
  9
$CHAMFERD
 40
0.0
  9
$SKPOLY
 70
     0
  9
$TDCREATE
 40
2452702.515835023
  9
$TDUCREATE
 40
2452702.474168357
  9
$TDUPDATE
 40
2454041.889307731
  9
$TDUUPDATE
 40
2454041.847641065
  9
$TDINDWG
 40
0.0038604282
  9
$TDUSRTIMER
 40
0.0038604282
  9
$USRTIMER
 70
     1
  9
$ANGBASE
 50
0.0
  9
$ANGDIR
 70
     0
  9
$PDMODE
 70
     0
  9
$PDSIZE
 40
0.0
  9
$PLINEWID
 40
0.0
  9
$SPLFRAME
 70
     0
  9
$SPLINETYPE
 70
     6
  9
$SPLINESEGS
 70
     8
  9
$HANDSEED
  5
969
  9
$SURFTAB1
 70
     6
  9
$SURFTAB2
 70
     6
  9
$SURFTYPE
 70
     6
  9
$SURFU
 70
     6
  9
$SURFV
 70
     6
  9
$UCSBASE
  2

  9
$UCSNAME
  2

  9
$UCSORG
 10
0.0
 20
0.0
 30
0.0
  9
$UCSXDIR
 10
1.0
 20
0.0
 30
0.0
  9
$UCSYDIR
 10
0.0
 20
1.0
 30
0.0
  9
$UCSORTHOREF
  2

  9
$UCSORTHOVIEW
 70
     0
  9
$UCSORGTOP
 10
0.0
 20
0.0
 30
0.0
  9
$UCSORGBOTTOM
 10
0.0
 20
0.0
 30
0.0
  9
$UCSORGLEFT
 10
0.0
 20
0.0
 30
0.0
  9
$UCSORGRIGHT
 10
0.0
 20
0.0
 30
0.0
  9
$UCSORGFRONT
 10
0.0
 20
0.0
 30
0.0
  9
$UCSORGBACK
 10
0.0
 20
0.0
 30
0.0
  9
$PUCSBASE
  2

  9
$PUCSNAME
  2

  9
$PUCSORG
 10
0.0
 20
0.0
 30
0.0
  9
$PUCSXDIR
 10
1.0
 20
0.0
 30
0.0
  9
$PUCSYDIR
 10
0.0
 20
1.0
 30
0.0
  9
$PUCSORTHOREF
  2

  9
$PUCSORTHOVIEW
 70
     0
  9
$PUCSORGTOP
 10
0.0
 20
0.0
 30
0.0
  9
$PUCSORGBOTTOM
 10
0.0
 20
0.0
 30
0.0
  9
$PUCSORGLEFT
 10
0.0
 20
0.0
 30
0.0
  9
$PUCSORGRIGHT
 10
0.0
 20
0.0
 30
0.0
  9
$PUCSORGFRONT
 10
0.0
 20
0.0
 30
0.0
  9
$PUCSORGBACK
 10
0.0
 20
0.0
 30
0.0
  9
$USERI1
 70
     0
  9
$USERI2
 70
     0
  9
$USERI3
 70
     0
  9
$USERI4
 70
     0
  9
$USERI5
 70
     0
  9
$USERR1
 40
0.0
  9
$USERR2
 40
0.0
  9
$USERR3
 40
0.0
  9
$USERR4
 40
0.0
  9
$USERR5
 40
0.0
  9
$WORLDVIEW
 70
     1
  9
$SHADEDGE
 70
     3
  9
$SHADEDIF
 70
    70
  9
$TILEMODE
 70
     1
  9
$MAXACTVP
 70
    64
  9
$PINSBASE
 10
0.0
 20
0.0
 30
0.0
  9
$PLIMCHECK
 70
     0
  9
$PEXTMIN
 10
1.000000000000000E+20
 20
1.000000000000000E+20
 30
1.000000000000000E+20
  9
$PEXTMAX
 10
-1.000000000000000E+20
 20
-1.000000000000000E+20
 30
-1.000000000000000E+20
  9
$PLIMMIN
 10
0.0
 20
0.0
  9
$PLIMMAX
 10
420.0
 20
297.0
  9
$UNITMODE
 70
     0
  9
$VISRETAIN
 70
     1
  9
$PLINEGEN
 70
     0
  9
$PSLTSCALE
 70
     1
  9
$TREEDEPTH
 70
  3020
  9
$CMLSTYLE
  2
Standard
  9
$CMLJUST
 70
     0
  9
$CMLSCALE
 40
20.0
  9
$PROXYGRAPHICS
 70
     1
  9
$MEASUREMENT
 70
     1
  9
$CELWEIGHT
370
    -1
  9
$ENDCAPS
280
     0
  9
$JOINSTYLE
280
     0
  9
$LWDISPLAY
290
     0
  9
$INSUNITS
 70
     4
  9
$HYPERLINKBASE
  1

  9
$STYLESHEET
  1
monochrome.ctb
  9
$XEDIT
290
     1
  9
$CEPSNTYPE
380
     0
  9
$PSTYLEMODE
290
     1
  9
$FINGERPRINTGUID
  2
{D5091DE6-A8E7-4749-B1FA-F4240FAEB0F0}
  9
$VERSIONGUID
  2
{FCE97508-32B3-4358-B78E-4A27E9C4C004}
  9
$EXTNAMES
290
     1
  9
$PSVPSCALE
 40
0.0
  9
$OLESTARTUP
290
     0
  0
ENDSEC
  0
SECTION
  2
CLASSES
  0
CLASS
  1
ACDBDICTIONARYWDFLT
  2
AcDbDictionaryWithDefault
  3
ObjectDBX Classes
 90
        0
280
     0
281
     0
  0
CLASS
  1
ACDBPLACEHOLDER
  2
AcDbPlaceHolder
  3
ObjectDBX Classes
 90
        0
280
     0
281
     0
  0
CLASS
  1
LAYOUT
  2
AcDbLayout
  3
ObjectDBX Classes
 90
        0
280
     0
281
     0
  0
CLASS
  1
AMGSETTINGSOBJ
  2
AmgSettingsObj
  3
"AcadM|Product Description: AutoCAD Mechanical 2000|Company: Autodesk"
 90
        0
280
     0
281
     0
  0
CLASS
  1
ACME_DOCUMENT
  2
AcMeDbDoc
  3
AcMeServices
 90
        0
280
     0
281
     0
  0
CLASS
  1
ACMESCOPE
  2
AcMeScope
  3
AcMeServices
 90
        0
280
     0
281
     0
  0
CLASS
  1
ACMECOMMANDHISTORY
  2
AcMeCommandHistory
  3
AcMeServices
 90
        0
280
     0
281
     0
  0
CLASS
  1
DICTIONARYVAR
  2
AcDbDictionaryVar
  3
ObjectDBX Classes
 90
        0
280
     0
281
     0
  0
CLASS
  1
ACIMSYSVARMAN
  2
AcImSysVarManager
  3
AcMeServices
 90
        0
280
     0
281
     0
  0
CLASS
  1
ACIMREALSYSVAR
  2
AcImRealSysVar
  3
AcMeServices
 90
        0
280
     0
281
     0
  0
CLASS
  1
ACIMINTSYSVAR
  2
AcImIntSysVar
  3
AcMeServices
 90
        0
280
     0
281
     0
  0
CLASS
  1
ACMEDRAWINGMAN
  2
AcMeDrawingMan
  3
AcMeServices
 90
        0
280
     0
281
     0
  0
CLASS
  1
ACMEVIEW
  2
AcMeView
  3
AcMeServices
 90
        0
280
     0
281
     0
  0
CLASS
  1
ACDBENTITYCACHE
  2
AcMeEntityCache
  3
AcMeServices
 90
        0
280
     0
281
     0
  0
CLASS
  1
GSMANAGER
  2
AcMeGSManager
  3
AcMeServices
 90
        0
280
     0
281
     0
  0
CLASS
  1
AMDTINTERNALREACTOR
  2
AmdtInternalReactor
  3
AcMeServices
 90
        0
280
     0
281
     0
  0
CLASS
  1
ACMESTATEMGR
  2
AcMeStateMgr
  3
AcMeServices
 90
        0
280
     0
281
     0
  0
CLASS
  1
ACGREFMASTER
  2
AcGrefMaster
  3
AcAttribServices
 90
        0
280
     0
281
     0
  0
CLASS
  1
ACME_DATABASE
  2
AcMeDbDatabase
  3
AcMeServices
 90
        0
280
     0
281
     0
  0
CLASS
  1
ACRFINSADJUSTERMGR
  2
AcRfInsAdjusterMgr
  3
AcMeServices
 90
        0
280
     0
281
     0
  0
CLASS
  1
ACGREFACADMASTER
  2
AcGrefacadMaster
  3
AcGrefServices
 90
        0
280
     0
281
     0
  0
CLASS
  1
AMIMASTER
  2
AmiMaster
  3
AmiServices
 90
        0
280
     0
281
     0
  0
CLASS
  1
ACMDATADICTIONARY
  2
AcmDataDictionary
  3
"AcmSymBB|Product Description: AutoCAD Mechanical 2004 DX|Company: Autodesk"
 90
        0
280
     0
281
     0
  0
CLASS
  1
ACMDATAENTRYBLOCK
  2
AcmDataEntryBlock
  3
"AcmSymBB|Product Description: AutoCAD Mechanical 2004 DX|Company: Autodesk"
 90
        0
280
     0
281
     0
  0
CLASS
  1
ACIMSTRSYSVAR
  2
AcImStrSysVar
  3
AcMeServices
 90
        0
280
     0
281
     0
  0
CLASS
  1
ACMSTANDARDDIN
  2
AcmStandardDIN
  3
"Amdt_StdImp|Product Description: AutoCAD Mechanical 2004 DX|Company: Autodesk"
 90
        0
280
     0
281
     0
  0
CLASS
  1
AMGOBJPROPCFG
  2
AmgObjPropCfg
  3
"AmgLay|Product Description: AutoCAD Mechanical 2000|Company: Autodesk"
 90
        1
280
     0
281
     0
  0
CLASS
  1
AMDTEDGESTANDARDDIN
  2
AmdtEdgeStdDIN
  3
"Amdt_StdImp|Product Description: AutoCAD Mechanical 2004 DX|Company: Autodesk"
 90
        0
280
     0
281
     0
  0
CLASS
  1
ACMSURFSTANDARDDIN
  2
AcmSurfTextStdDIN
  3
"Amdt_StdImp|Product Description: AutoCAD Mechanical 2004 DX|Company: Autodesk"
 90
        0
280
     0
281
     0
  0
CLASS
  1
ACMFCFSTANDARDDIN
  2
AcmFCFStdDIN
  3
"Amdt_StdImp|Product Description: AutoCAD Mechanical 2004 DX|Company: Autodesk"
 90
        0
280
     0
281
     0
  0
CLASS
  1
ACMWELDSTANDARDDIN
  2
AcmWeldingStdDIN
  3
"Amdt_StdImp|Product Description: AutoCAD Mechanical 2004 DX|Company: Autodesk"
 90
        0
280
     0
281
     0
  0
CLASS
  1
ACMIDSTANDARDDIN
  2
AcmIdStdDIN
  3
"Amdt_StdImp|Product Description: AutoCAD Mechanical 2004 DX|Company: Autodesk"
 90
        0
280
     0
281
     0
  0
CLASS
  1
ACMDATUMSTANDARDDIN
  2
AcmDatumStdDIN
  3
"Amdt_StdImp|Product Description: AutoCAD Mechanical 2004 DX|Company: Autodesk"
 90
        0
280
     0
281
     0
  0
CLASS
  1
ACMBOMSTANDARDDIN
  2
AcmBOMStdDIN
  3
"Amdt_StdImp|Product Description: AutoCAD Mechanical 2004 DX|Company: Autodesk"
 90
        0
280
     0
281
     0
  0
CLASS
  1
ACMDETAILSTANDARDDIN
  2
AmdtDetailSymStdDIN
  3
"Amdt_StdImp|Product Description: AutoCAD Mechanical 2004 DX|Company: Autodesk"
 90
        0
280
     0
281
     0
  0
CLASS
  1
ACMSECTIONSTANDARDDIN
  2
AmdtSectionSymStdDIN
  3
"Amdt_StdImp|Product Description: AutoCAD Mechanical 2004 DX|Company: Autodesk"
 90
        0
280
     0
281
     0
  0
CLASS
  1
ACMCENTERLINESTANDARDDIN
  2
AmdtCenterLineStdDIN
  3
"Amdt_StdImp|Product Description: AutoCAD Mechanical 2004 DX|Company: Autodesk"
 90
        0
280
     0
281
     0
  0
CLASS
  1
ACAMGLAYSTD
  2
AcAmgLayStd
  3
"AcAmgLayStd|Product Description: AutoCAD Mechanical 2000|Company: Autodesk"
 90
        0
280
     0
281
     0
  0
CLASS
  1
ACAMGDIMSTD
  2
AcAmgDimStd
  3
"AcAmgDimStd|Product Description: AutoCAD Mechanical 2000|Company: Autodesk"
 90
        0
280
     0
281
     0
  0
CLASS
  1
ACAMGTITLESTD
  2
AcAmgTitleStd
  3
"TITLEAPP"
 90
        0
280
     0
281
     0
  0
CLASS
  1
LAYER_INDEX
  2
AcDbLayerIndex
  3
ObjectDBX Classes
 90
        0
280
     0
281
     0
  0
CLASS
  1
IDBUFFER
  2
AcDbIdBuffer
  3
ObjectDBX Classes
 90
        0
280
     0
281
     0
  0
CLASS
  1
ACAMGFILTERDAT
  2
AcAmgFilterDat
  3
"AcadM|Product Description: AutoCAD Mechanical 2000|Company: Autodesk"
 90
        0
280
     0
281
     0
  0
CLASS
  1
TABLESTYLE
  2
AcDbTableStyle
  3
ObjectDBX Classes
 90
     2047
280
     0
281
     0
  0
CLASS
  1
AM_DRAWING_MGR
  2
AcDmDwgMgr
  3
AcMechDwgViewMgmt
 90
        0
280
     0
281
     0
  0
CLASS
  1
AM_DWG_DOCUMENT
  2
AcDmDwgDocument
  3
AcMechDwgViewMgmt
 90
        0
280
     0
281
     0
  0
CLASS
  1
AM_DWG_SHEET
  2
AcDmSheet
  3
AcMechDwgViewMgmt
 90
        0
280
     0
281
     0
  0
CLASS
  1
AM_VIEWDIMPARMAP
  2
AcDmViewDimParMap
  3
AcMechDwgViewMgmt
 90
        0
280
     0
281
     0
  0
CLASS
  1
AM_DWGMGR_NAME
  2
AcDmDwgMgrName
  3
AcMechDwgViewMgmt
 90
        0
280
     0
281
     0
  0
CLASS
  1
AMDTMENUSTATEMGR
  2
AmdtMenuStateMgr
  3
McadcomServices
 90
        0
280
     0
281
     0
  0
CLASS
  1
AMDTMCOMMENUSTATE
  2
AmdtMcomMenuState
  3
McadcomServices
 90
        0
280
     0
281
     0
  0
CLASS
  1
MAPIAMMOUDLE
  2
MApiAmModule
  3
MApiAmServices
 90
        0
280
     0
281
     0
  0
CLASS
  1
AMDTADMENUSTATE
  2
AmdtAdMenuState
  3
DesignerServices
 90
        0
280
     0
281
     0
  0
CLASS
  1
ADAPPL
  2
AcAdAppl
  3
DesignerServices
 90
        0
280
     0
281
     0
  0
CLASS
  1
DEPMGR
  2
AcAdDepMgr
  3
DesignerServices
 90
        0
280
     0
281
     0
  0
CLASS
  1
PARAMMGR
  2
AcAdParamMgr
  3
DesignerServices
 90
        0
280
     0
281
     0
  0
CLASS
  1
PARAMSCOPE
  2
AcAdParamScope
  3
DesignerServices
 90
        0
280
     0
281
     0
  0
CLASS
  1
NAMEDAPPL
  2
AcAdNamedAppl
  3
DesignerServices
 90
        0
280
     0
281
     0
  0
CLASS
  1
AMDTDMMENUSTATE
  2
AmdtDmMenuState
  3
AcMechDwgViewMgmt
 90
        0
280
     0
281
     0
  0
CLASS
  1
AMDTAMMENUSTATE
  2
AmdtAmMenuState
  3
DesignerAssemblies
 90
        0
280
     0
281
     0
  0
CLASS
  1
ACAMPROJECT
  2
AcAmProject
  3
DesignerAssemblies
 90
        0
280
     0
281
     0
  0
CLASS
  1
ACAMGRCOMPDEF
  2
AcAmGrCompDef
  3
DesignerAssemblies
 90
        0
280
     0
281
     0
  0
CLASS
  1
ACCMCONTEXT
  2
AcCmContext
  3
DesignerAssemblies
 90
        0
280
     0
281
     0
  0
CLASS
  1
ACAMCOMPDEF
  2
AcAmCompDef
  3
DesignerAssemblies
 90
        0
280
     0
281
     0
  0
CLASS
  1
ACAMCOMPDEFMGR
  2
AcAmCompDefMgr
  3
DesignerAssemblies
 90
        0
280
     0
281
     0
  0
CLASS
  1
AMCONTEXTMGR
  2
AcAmContextMgr
  3
DesignerAssemblies
 90
        0
280
     0
281
     0
  0
CLASS
  1
ACAMCONTEXTMODELER
  2
AcAmContextModeler
  3
DesignerAssemblies
 90
        0
280
     0
281
     0
  0
CLASS
  1
ACMTHREADLINESTANDARDDIN
  2
AmdtThreadLineStdDIN
  3
"Amdt_StdImp|Product Description: AutoCAD Mechanical 2004 DX|Company: Autodesk"
 90
        0
280
     0
281
     0
  0
CLASS
  1
ACMNOTESTANDARDDIN
  2
AmdtNoteStdDIN
  3
"Amdt_StdImp|Product Description: AutoCAD Mechanical 2004 DX|Company: Autodesk"
 90
        0
280
     0
281
     0
  0
CLASS
  1
AMDTNOTETEMPLATEDB
  2
AmdtNoteTemplateDB
  3
AMDT_STDIMP_MODULE_NAME
 90
        0
280
     0
281
     0
  0
CLASS
  1
CATALOGSTATE
  2
AcAmCatalogState
  3
DesignerAssemblies
 90
        0
280
     0
281
     0
  0
CLASS
  1
ACAMGRCOMPDEFSET
  2
AcAmGrCompDefSet
  3
DesignerAssemblies
 90
        0
280
     0
281
     0
  0
CLASS
  1
AMDTBROWSERDBTAB
  2
AmdtBrowserDbTab
  3
McadcomServices
 90
        0
280
     0
281
     0
  0
CLASS
  1
CBROWSERAPPOBJECT
  2
CBrowserAppObject
  3
McadcomServices
 90
        0
280
     0
281
     0
  0
CLASS
  1
DM_PLACEHOLDER
  2
AcDmSelsetPlaceholder
  3
AcMechDwgViewMgmt
 90
        0
280
     0
281
     0
  0
ENDSEC
  0
SECTION
  2
TABLES
  0
TABLE
  2
VPORT
  5
8
330
0
100
AcDbSymbolTable
 70
    10
  0
VPORT
  5
960
330
8
100
AcDbSymbolTableRecord
100
AcDbViewportTableRecord
  2
*Active
 70
     0
 10
0.0
 20
0.0
 11
1.0
 21
1.0
 12
994.2772593013113
 22
854.9749170626844
 13
0.0
 23
0.0
 14
2.5
 24
2.5
 15
10.0
 25
10.0
 16
0.0
 26
0.0
 36
1.0
 17
0.0
 27
0.0
 37
0.0
 40
1096.392039833549
 41
1.494545454545454
 42
50.0
 43
0.0
 44
0.0
 50
0.0
 51
0.0
 71
     0
 72
   100
 73
     1
 74
     3
 75
     0
 76
     0
 77
     0
 78
     0
281
     0
 65
     1
110
0.0
120
0.0
130
0.0
111
1.0
121
0.0
131
0.0
112
0.0
122
1.0
132
0.0
 79
     0
146
0.0
  0
ENDTAB
  0
TABLE
  2
LTYPE
  5
5
330
0
100
AcDbSymbolTable
 70
    21
  0
LTYPE
  5
14
330
5
100
AcDbSymbolTableRecord
100
AcDbLinetypeTableRecord
  2
ByBlock
 70
     0
  3

 72
    65
 73
     0
 40
0.0
  0
LTYPE
  5
15
330
5
100
AcDbSymbolTableRecord
100
AcDbLinetypeTableRecord
  2
ByLayer
 70
     0
  3

 72
    65
 73
     0
 40
0.0
  0
LTYPE
  5
16
330
5
100
AcDbSymbolTableRecord
100
AcDbLinetypeTableRecord
  2
Continuous
 70
     0
  3
Solid line
 72
    65
 73
     0
 40
0.0
  0
LTYPE
  5
52
330
5
100
AcDbSymbolTableRecord
100
AcDbLinetypeTableRecord
  2
Amconstr
 70
     0
  3
_______________________
 72
    65
 73
     2
 40
9999.0
 49
9999.0
 74
     0
 49
0.0
 74
     0
  0
LTYPE
  5
57
330
5
100
AcDbSymbolTableRecord
100
AcDbLinetypeTableRecord
  2
Amzigzag
 70
     0
  3
/\/-/\/-/\/-/\/-/\/-/\/
 72
    65
 73
     2
 40
11.0001
 49
0.0001
 74
     4
 75
   135
340
56
 46
0.04
 50
0.0
 44
0.0
 45
0.0
 49
-11.0
 74
     0
  0
LTYPE
  5
58
330
5
100
AcDbSymbolTableRecord
100
AcDbLinetypeTableRecord
  2
AM_DIN_F_W050
 70
     0
  3
__ __ __ __ __ __ __ __ __ __ __ __ __ __ __
 72
    65
 73
     2
 40
6.25
 49
4.75
 74
     0
 49
-1.5
 74
     0
  0
LTYPE
  5
59
330
5
100
AcDbSymbolTableRecord
100
AcDbLinetypeTableRecord
  2
AM_DIN_G_W050
 70
     0
  3
____ . ____ . ____ . ____ . ____ . ____ . ____
 72
    65
 73
     4
 40
13.75
 49
9.75
 74
     0
 49
-1.5
 74
     0
 49
1.0
 74
     0
 49
-1.5
 74
     0
  0
LTYPE
  5
5A
330
5
100
AcDbSymbolTableRecord
100
AcDbLinetypeTableRecord
  2
AM_DIN_K_W050
 70
     0
  3
_____ . . _____ . . _____ . . ____ .. ____
 72
    65
 73
     6
 40
16.25
 49
9.75
 74
     0
 49
-1.5
 74
     0
 49
1.0
 74
     0
 49
-1.5
 74
     0
 49
1.0
 74
     0
 49
-1.5
 74
     0
  0
LTYPE
  5
5B
330
5
100
AcDbSymbolTableRecord
100
AcDbLinetypeTableRecord
  2
AM_DIN_G_W050x2
 70
     0
  3
__ . __ . __ . __ . __ . __
 72
    65
 73
     4
 40
6.875
 49
4.75
 74
     0
 49
-0.875
 74
     0
 49
0.375
 74
     0
 49
-0.875
 74
     0
  0
LTYPE
  5
5C
330
5
100
AcDbSymbolTableRecord
100
AcDbLinetypeTableRecord
  2
AM_DIN_F_W050x2
 70
     0
  3
 _ _ _ _ _ _ _ _ _ _ _ _
 72
    65
 73
     2
 40
3.125
 49
2.25
 74
     0
 49
-0.875
 74
     0
  0
LTYPE
  5
69
330
5
100
AcDbSymbolTableRecord
100
AcDbLinetypeTableRecord
  2
ACDINWELD
 70
     0
  3
_ _ _ _ _
 72
    65
 73
     2
 40
2.0
 49
2.0
 74
     0
 49
-1.0
 74
     0
  0
LTYPE
  5
6A
330
5
100
AcDbSymbolTableRecord
100
AcDbLinetypeTableRecord
  2
ACDINTGB
 70
     0
  3
__ . . __ . .
 72
    65
 73
     6
 40
9.0
 49
4.0
 74
     0
 49
-1.0
 74
     0
 49
1.0
 74
     0
 49
-1.0
 74
     0
 49
1.0
 74
     0
 49
-1.0
 74
     0
  0
LTYPE
  5
6B
330
5
100
AcDbSymbolTableRecord
100
AcDbLinetypeTableRecord
  2
ACDINTGL
 70
     0
  3
_ _ _ _ _
 72
    65
 73
     2
 40
3.0
 49
2.0
 74
     0
 49
-1.0
 74
     0
  0
LTYPE
  5
6D
330
5
100
AcDbSymbolTableRecord
100
AcDbLinetypeTableRecord
  2
CENTER
 70
     0
  3
__ . __
 72
    65
 73
     4
 40
7.0
 49
4.0
 74
     0
 49
-1.0
 74
     0
 49
1.0
 74
     0
 49
-1.0
 74
     0
  0
LTYPE
  5
224
330
5
100
AcDbSymbolTableRecord
100
AcDbLinetypeTableRecord
  2
STRICHPUNKT
 70
     0
  3
Strichpunkt __ . __ . __ . __ . __ . __ . __ . 
 72
    65
 73
     4
 40
25.4
 49
12.7
 74
     0
 49
-6.349999999999999
 74
     0
 49
0.0
 74
     0
 49
-6.349999999999999
 74
     0
  0
LTYPE
  5
225
330
5
100
AcDbSymbolTableRecord
100
AcDbLinetypeTableRecord
  2
STRICHLINIE
 70
     0
  3
Strichlinie __ __ __ __ __ __ __ __ __ __ __ __
 72
    65
 73
     2
 40
19.05
 49
12.7
 74
     0
 49
-6.349999999999999
 74
     0
  0
LTYPE
  5
83A
330
5
100
AcDbSymbolTableRecord
100
AcDbLinetypeTableRecord
  2
HIDDEN
 70
     0
  3
Verdeckt
 72
    65
 73
     2
 40
9.525
 49
6.349999999999999
 74
     0
 49
-3.174999999999999
 74
     0
  0
LTYPE
  5
83B
330
5
100
AcDbSymbolTableRecord
100
AcDbLinetypeTableRecord
  2
PHANTOM2
 70
     0
  3
Phantom (.5x) ___ _ _ ___ _ _ ___ _ _ ___ _ _
 72
    65
 73
     6
 40
31.75
 49
15.875
 74
     0
 49
-3.174999999999999
 74
     0
 49
3.174999999999999
 74
     0
 49
-3.174999999999999
 74
     0
 49
3.174999999999999
 74
     0
 49
-3.174999999999999
 74
     0
  0
ENDTAB
  0
TABLE
  2
LAYER
  5
2
330
0
100
AcDbSymbolTable
 70
     5
  0
LAYER
  5
10
330
2
100
AcDbSymbolTableRecord
100
AcDbLayerTableRecord
  2
0
 70
     0
 62
     7
  6
Continuous
370
    -3
390
F
  0
LAYER
  5
226
330
2
100
AcDbSymbolTableRecord
100
AcDbLayerTableRecord
  2
P-0000
 70
     0
 62
     7
  6
Continuous
370
    -3
390
F
  0
LAYER
  5
228
330
2
100
AcDbSymbolTableRecord
100
AcDbLayerTableRecord
  2
P-1B8A
 70
     0
 62
     7
  6
Continuous
370
    -3
390
F
  0
LAYER
  5
229
330
2
100
AcDbSymbolTableRecord
100
AcDbLayerTableRecord
  2
Defpoints
 70
     0
 62
     7
  6
Continuous
290
     0
370
    -3
390
F
  0
ENDTAB
  0
TABLE
  2
STYLE
  5
3
330
0
100
AcDbSymbolTable
 70
     7
  0
STYLE
  5
11
330
3
100
AcDbSymbolTableRecord
100
AcDbTextStyleTableRecord
  2
STANDARD
 70
     0
 40
0.0
 41
1.0
 50
0.0
 71
     0
 42
2.5
  3
ISOCP.SHX
  4

  0
STYLE
  5
56
330
3
100
AcDbSymbolTableRecord
100
AcDbTextStyleTableRecord
  2

 70
     1
 40
0.0
 41
1.0
 50
0.0
 71
     0
 42
2.5
  3
ltypeshp.shx
  4

  0
STYLE
  5
5D
330
3
100
AcDbSymbolTableRecord
100
AcDbTextStyleTableRecord
  2
ACDINTS
 70
     0
 40
1.0
 41
1.0
 50
0.0
 71
     0
 42
2.5
  3
isocp.shx
  4

  0
STYLE
  5
68
330
3
100
AcDbSymbolTableRecord
100
AcDbTextStyleTableRecord
  2
ACDINGDT
 70
     0
 40
0.0
 41
1.0
 50
0.0
 71
     0
 42
2.5
  3
amgdt.shx
  4

  0
ENDTAB
  0
TABLE
  2
VIEW
  5
6
330
0
100
AcDbSymbolTable
 70
     0
  0
ENDTAB
  0
TABLE
  2
UCS
  5
7
330
0
100
AcDbSymbolTable
 70
     0
  0
ENDTAB
  0
TABLE
  2
APPID
  5
9
330
0
100
AcDbSymbolTable
 70
    12
  0
APPID
  5
12
330
9
100
AcDbSymbolTableRecord
100
AcDbRegAppTableRecord
  2
ACAD
 70
     0
  0
APPID
  5
30
330
9
100
AcDbSymbolTableRecord
100
AcDbRegAppTableRecord
  2
MCAD_NO_VIS
 70
     0
  0
APPID
  5
31
330
9
100
AcDbSymbolTableRecord
100
AcDbRegAppTableRecord
  2
ACAD_TEMP_GRAPHIC
 70
     0
  0
APPID
  5
44
330
9
100
AcDbSymbolTableRecord
100
AcDbRegAppTableRecord
  2
ACATTRIBSERVICES
 70
     0
  0
APPID
  5
230
330
9
100
AcDbSymbolTableRecord
100
AcDbRegAppTableRecord
  2
ACME_LAYERS
 70
     0
  0
APPID
  5
83D
330
9
100
AcDbSymbolTableRecord
100
AcDbRegAppTableRecord
  2
AD_DRAW
 70
     0
  0
APPID
  5
85B
330
9
100
AcDbSymbolTableRecord
100
AcDbRegAppTableRecord
  2
DESIGNERASSEMBLIES
 70
     0
  0
APPID
  5
865
330
9
100
AcDbSymbolTableRecord
100
AcDbRegAppTableRecord
  2
ACAD_DSTYLE_DIMARC_LENGTH_SYMBOL
 70
     0
  0
APPID
  5
866
330
9
100
AcDbSymbolTableRecord
100
AcDbRegAppTableRecord
  2
ACAD_DSTYLE_DIMJOGGED_JOGANGLE_SYMBOL
 70
     0
  0
APPID
  5
876
330
9
100
AcDbSymbolTableRecord
100
AcDbRegAppTableRecord
  2
ACADM_DIM_EDIT
 70
     0
  0
APPID
  5
877
330
9
100
AcDbSymbolTableRecord
100
AcDbRegAppTableRecord
  2
AMDT_DM_ADJ
 70
     0
  0
APPID
  5
87E
330
9
100
AcDbSymbolTableRecord
100
AcDbRegAppTableRecord
  2
GENIUS_GENDIMSH_14
 70
     0
  0
ENDTAB
  0
TABLE
  2
DIMSTYLE
  5
A
330
0
100
AcDbSymbolTable
 70
    14
100
AcDbDimStyleTable
 71
     1
340
70
  0
DIMSTYLE
105
70
330
A
100
AcDbSymbolTableRecord
100
AcDbDimStyleTableRecord
  2
AM_DIN
 70
     0
  4
"
 41
2.5
 42
1.0
 43
10.0
 44
1.0
 47
0.1
 48
0.1
 73
     0
 74
     0
 77
     1
 78
     8
 79
     2
140
3.5
141
0.0
143
0.0393701
146
0.71
147
1.5
172
     1
176
   256
177
   256
178
     2
271
     2
272
     3
274
     4
283
     0
284
     8
340
11
371
    -1
372
    -1
1001
ACAD_DSTYLE_DIMARC_LENGTH_SYMBOL
1070
   379
1070
     0
1001
ACAD_DSTYLE_DIMJOGGED_JOGANGLE_SYMBOL
1070
   384
1040
1.570796326794896
  0
DIMSTYLE
105
71
330
A
100
AcDbSymbolTableRecord
100
AcDbDimStyleTableRecord
  2
AM_DIN$3
 70
     0
  4
"
 41
2.5
 42
1.0
 43
10.0
 44
1.0
 47
0.1
 48
0.1
 73
     0
 77
     1
 78
     8
 79
     2
140
3.5
141
0.0
143
0.0393701
146
0.71
147
1.5
176
   256
177
   256
178
     2
271
     2
272
     3
274
     4
283
     0
284
     8
288
     1
289
     0
340
11
371
    -1
372
    -1
1001
ACAD_DSTYLE_DIMARC_LENGTH_SYMBOL
1070
   379
1070
     0
1001
ACAD_DSTYLE_DIMJOGGED_JOGANGLE_SYMBOL
1070
   384
1040
1.570796326794896
  0
DIMSTYLE
105
72
330
A
100
AcDbSymbolTableRecord
100
AcDbDimStyleTableRecord
  2
AM_DIN$4
 70
     0
  4
"
 41
2.5
 42
1.0
 43
10.0
 44
1.0
 47
0.1
 48
0.1
 73
     0
 77
     1
 78
     8
 79
     2
140
3.5
141
0.0
143
0.0393701
146
0.71
147
1.5
176
   256
177
   256
178
     2
271
     2
272
     3
274
     4
283
     0
284
     8
288
     1
289
     0
340
11
371
    -1
372
    -1
1001
ACAD_DSTYLE_DIMARC_LENGTH_SYMBOL
1070
   379
1070
     0
1001
ACAD_DSTYLE_DIMJOGGED_JOGANGLE_SYMBOL
1070
   384
1040
1.570796326794896
  0
DIMSTYLE
105
73
330
A
100
AcDbSymbolTableRecord
100
AcDbDimStyleTableRecord
  2
AM_DIN$6
 70
     0
  4
"
 41
2.5
 42
1.0
 43
10.0
 44
1.0
 47
0.1
 48
0.1
 73
     0
 74
     0
 78
     8
 79
     2
140
3.5
141
0.0
143
0.0393701
146
0.71
147
1.5
172
     1
176
   256
177
   256
178
     2
271
     2
272
     3
274
     4
283
     0
284
     8
340
11
371
    -1
372
    -1
1001
ACAD_DSTYLE_DIMARC_LENGTH_SYMBOL
1070
   379
1070
     0
1001
ACAD_DSTYLE_DIMJOGGED_JOGANGLE_SYMBOL
1070
   384
1040
1.570796326794896
  0
DIMSTYLE
105
74
330
A
100
AcDbSymbolTableRecord
100
AcDbDimStyleTableRecord
  2
AM_DIN$7
 70
     0
  4
"
 41
2.5
 42
1.0
 43
10.0
 44
1.0
 47
0.1
 48
0.1
 73
     0
 74
     0
 77
     1
 78
     8
 79
     2
140
5.0
141
0.0
143
0.0393701
146
0.71
147
1.5
172
     1
176
   256
177
   256
178
     2
271
     2
272
     3
274
     4
283
     0
284
     8
340
11
371
    -1
372
    -1
1001
ACAD_DSTYLE_DIMARC_LENGTH_SYMBOL
1070
   379
1070
     0
1001
ACAD_DSTYLE_DIMJOGGED_JOGANGLE_SYMBOL
1070
   384
1040
1.570796326794896
  0
DIMSTYLE
105
75
330
A
100
AcDbSymbolTableRecord
100
AcDbDimStyleTableRecord
  2
AM_DIN$SF
 70
     0
  4
"
 41
2.5
 42
1.0
 43
10.0
 44
1.0
 47
0.1
 48
0.1
 73
     0
 74
     0
 75
     1
 76
     1
 77
     1
 78
     8
 79
     2
140
3.5
141
0.0
143
0.0393701
146
0.71
147
1.5
172
     1
176
   256
177
   256
178
     2
271
     2
272
     3
274
     4
283
     0
284
     8
340
11
371
    -1
372
    -1
1001
ACAD_DSTYLE_DIMARC_LENGTH_SYMBOL
1070
   379
1070
     0
1001
ACAD_DSTYLE_DIMJOGGED_JOGANGLE_SYMBOL
1070
   384
1040
1.570796326794896
  0
DIMSTYLE
105
7A
330
A
100
AcDbSymbolTableRecord
100
AcDbDimStyleTableRecord
  2
AM_DIN$SH
 70
     0
  4
"
 41
2.5
 42
1.0
 43
10.0
 44
1.0
 47
0.1
 48
0.1
 73
     0
 74
     0
 75
     1
 76
     1
 77
     1
 78
     8
 79
     2
140
3.5
141
0.0
143
0.0393701
144
2.0
146
0.71
147
1.5
172
     1
173
     1
176
   256
177
   256
178
     2
271
     2
272
     3
274
     4
283
     0
284
     8
340
11
343
76
371
    -1
372
    -1
1001
ACAD_DSTYLE_DIMARC_LENGTH_SYMBOL
1070
   379
1070
     0
1001
ACAD_DSTYLE_DIMJOGGED_JOGANGLE_SYMBOL
1070
   384
1040
1.570796326794896
  0
DIMSTYLE
105
22A
102
{ACAD_REACTORS
330
3D5
330
3E3
330
3E6
330
3E7
330
3F7
330
3F8
330
3FF
330
415
330
43A
330
46D
330
478
330
47A
330
4E7
330
4E8
330
4EB
330
4F1
330
531
102
}
330
A
100
AcDbSymbolTableRecord
100
AcDbDimStyleTableRecord
  2
661N88102_001_0093643228
 70
     0
 40
2.0
 41
3.149999999999999
 42
0.0
 43
3.75
 44
2.0
 73
     0
 74
     0
 77
     1
 78
     8
 79
     2
140
3.5
141
0.0
143
0.03937007874016
145
2.0
147
2.0
171
     3
172
     1
173
     1
176
     3
177
     3
178
     2
179
     2
271
     2
272
     2
274
     3
283
     0
284
     8
340
11
  0
DIMSTYLE
105
22B
102
{ACAD_REACTORS
330
446
330
550
102
}
330
A
100
AcDbSymbolTableRecord
100
AcDbDimStyleTableRecord
  2
6613488102_001_0093643228
 70
     0
 40
2.0
 41
3.149999999999999
 42
0.0
 43
3.75
 44
2.0
 73
     0
 74
     0
 77
     1
 78
     8
 79
     2
140
3.5
141
0.0
143
0.03937007874016
145
2.0
146
0.6
147
2.0
171
     3
172
     1
173
     1
176
     3
177
     3
178
     2
179
     2
271
     2
272
     1
274
     3
283
     0
284
     8
340
11
  0
DIMSTYLE
105
22C
102
{ACAD_REACTORS
330
46C
330
47B
102
}
330
A
100
AcDbSymbolTableRecord
100
AcDbDimStyleTableRecord
  2
6613588102_001_0093643228
 70
     0
 40
2.0
 41
3.149999999999999
 42
0.0
 43
3.75
 44
2.0
 73
     0
 74
     0
 77
     1
 78
     8
 79
     2
140
3.5
141
0.0
143
0.03937007874016
145
2.0
146
0.6
147
2.0
171
     3
172
     1
173
     1
176
     3
177
     3
178
     2
179
     2
271
     2
272
     1
274
     3
283
     0
284
     8
340
11
  0
DIMSTYLE
105
22D
102
{ACAD_REACTORS
330
3DA
330
3F9
102
}
330
A
100
AcDbSymbolTableRecord
100
AcDbDimStyleTableRecord
  2
6613688102_001_0093643228
 70
     0
 40
2.0
 41
3.149999999999999
 42
0.0
 43
3.75
 44
2.0
 73
     0
 74
     0
 77
     1
 78
     8
 79
     2
140
3.5
141
0.0
143
0.03937007874016
145
2.0
146
0.6
147
2.0
171
     3
172
     1
173
     1
176
     3
177
     3
178
     2
179
     2
271
     2
272
     1
274
     3
283
     0
284
     8
340
11
  0
ENDTAB
  0
TABLE
  2
BLOCK_RECORD
  5
1
330
0
100
AcDbSymbolTable
 70
    65
  0
BLOCK_RECORD
  5
1F
102
{ACAD_XDICTIONARY
360
81
102
}
330
1
100
AcDbSymbolTableRecord
100
AcDbBlockTableRecord
  2
*Model_Space
340
22
  0
BLOCK_RECORD
  5
1B
330
1
100
AcDbSymbolTableRecord
100
AcDbBlockTableRecord
  2
*Paper_Space
340
1E
  0
BLOCK_RECORD
  5
23
330
1
100
AcDbSymbolTableRecord
100
AcDbBlockTableRecord
  2
*Paper_Space0
340
26
  0
BLOCK_RECORD
  5
76
330
1
100
AcDbSymbolTableRecord
100
AcDbBlockTableRecord
  2
GENAXEH
340
0
  0
BLOCK_RECORD
  5
56E
330
1
100
AcDbSymbolTableRecord
100
AcDbBlockTableRecord
  2
*D34
340
0
  0
BLOCK_RECORD
  5
57B
330
1
100
AcDbSymbolTableRecord
100
AcDbBlockTableRecord
  2
*D35
340
0
  0
BLOCK_RECORD
  5
587
330
1
100
AcDbSymbolTableRecord
100
AcDbBlockTableRecord
  2
*D36
340
0
  0
BLOCK_RECORD
  5
595
330
1
100
AcDbSymbolTableRecord
100
AcDbBlockTableRecord
  2
*D37
340
0
  0
BLOCK_RECORD
  5
5A2
330
1
100
AcDbSymbolTableRecord
100
AcDbBlockTableRecord
  2
*D38
340
0
  0
BLOCK_RECORD
  5
5AE
330
1
100
AcDbSymbolTableRecord
100
AcDbBlockTableRecord
  2
*D39
340
0
  0
BLOCK_RECORD
  5
5BB
330
1
100
AcDbSymbolTableRecord
100
AcDbBlockTableRecord
  2
*D40
340
0
  0
BLOCK_RECORD
  5
5C7
330
1
100
AcDbSymbolTableRecord
100
AcDbBlockTableRecord
  2
*D41
340
0
  0
BLOCK_RECORD
  5
5E1
330
1
100
AcDbSymbolTableRecord
100
AcDbBlockTableRecord
  2
*D43
340
0
  0
BLOCK_RECORD
  5
5EF
330
1
100
AcDbSymbolTableRecord
100
AcDbBlockTableRecord
  2
*D44
340
0
  0
BLOCK_RECORD
  5
61C
330
1
100
AcDbSymbolTableRecord
100
AcDbBlockTableRecord
  2
*D48
340
0
  0
BLOCK_RECORD
  5
626
330
1
100
AcDbSymbolTableRecord
100
AcDbBlockTableRecord
  2
*D49
340
0
  0
BLOCK_RECORD
  5
64E
330
1
100
AcDbSymbolTableRecord
100
AcDbBlockTableRecord
  2
*D52
340
0
  0
BLOCK_RECORD
  5
65A
330
1
100
AcDbSymbolTableRecord
100
AcDbBlockTableRecord
  2
*D53
340
0
  0
BLOCK_RECORD
  5
667
330
1
100
AcDbSymbolTableRecord
100
AcDbBlockTableRecord
  2
*D54
340
0
  0
BLOCK_RECORD
  5
673
330
1
100
AcDbSymbolTableRecord
100
AcDbBlockTableRecord
  2
*D55
340
0
  0
BLOCK_RECORD
  5
680
330
1
100
AcDbSymbolTableRecord
100
AcDbBlockTableRecord
  2
*D56
340
0
  0
BLOCK_RECORD
  5
68C
330
1
100
AcDbSymbolTableRecord
100
AcDbBlockTableRecord
  2
*D57
340
0
  0
BLOCK_RECORD
  5
698
330
1
100
AcDbSymbolTableRecord
100
AcDbBlockTableRecord
  2
*D58
340
0
  0
BLOCK_RECORD
  5
6A4
330
1
100
AcDbSymbolTableRecord
100
AcDbBlockTableRecord
  2
*D59
340
0
  0
BLOCK_RECORD
  5
6B2
330
1
100
AcDbSymbolTableRecord
100
AcDbBlockTableRecord
  2
*D60
340
0
  0
BLOCK_RECORD
  5
6C0
330
1
100
AcDbSymbolTableRecord
100
AcDbBlockTableRecord
  2
*D61
340
0
  0
BLOCK_RECORD
  5
6CA
330
1
100
AcDbSymbolTableRecord
100
AcDbBlockTableRecord
  2
*D62
340
0
  0
ENDTAB
  0
ENDSEC
  0
SECTION
  2
BLOCKS
  0
BLOCK
  5
20
330
1F
100
AcDbEntity
  8
0
100
AcDbBlockBegin
  2
*Model_Space
 70
     0
 10
0.0
 20
0.0
 30
0.0
  3
*Model_Space
  1

  0
ENDBLK
  5
21
330
1F
100
AcDbEntity
  8
0
100
AcDbBlockEnd
  0
BLOCK
  5
1C
330
1B
100
AcDbEntity
 67
     1
  8
0
100
AcDbBlockBegin
  2
*Paper_Space
 70
     0
 10
0.0
 20
0.0
 30
0.0
  3
*Paper_Space
  1

  0
ENDBLK
  5
1D
330
1B
100
AcDbEntity
 67
     1
  8
0
100
AcDbBlockEnd
  0
BLOCK
  5
24
330
23
100
AcDbEntity
 67
     1
  8
0
100
AcDbBlockBegin
  2
*Paper_Space0
 70
     0
 10
0.0
 20
0.0
 30
0.0
  3
*Paper_Space0
  1

  0
ENDBLK
  5
25
330
23
100
AcDbEntity
 67
     1
  8
0
100
AcDbBlockEnd
  0
BLOCK
  5
78
330
76
100
AcDbEntity
  8
0
100
AcDbBlockBegin
  2
GENAXEH
 70
     0
 10
0.0
 20
0.0
 30
0.0
  3
GENAXEH
  1

  0
LINE
  5
77
330
76
100
AcDbEntity
  8
0
100
AcDbLine
 10
-1.0
 20
0.0
 30
0.0
 11
1.0
 21
0.0
 31
0.0
  0
ENDBLK
  5
79
330
76
100
AcDbEntity
  8
0
100
AcDbBlockEnd
  0
BLOCK
  5
579
330
56E
100
AcDbEntity
  8
0
100
AcDbBlockBegin
  2
*D34
 70
     1
 10
0.0
 20
0.0
 30
0.0
  3
*D34
  1

  0
LINE
  5
884
330
56E
100
AcDbEntity
  8
P-0000
  6
Continuous
 62
     3
370
    -2
100
AcDbLine
 10
907.5736759434875
 20
945.5094159318285
 30
0.0
 11
907.5736759434875
 21
883.9415957201914
 31
0.0
  0
LINE
  5
885
330
56E
100
AcDbEntity
  8
P-0000
  6
Continuous
 62
     3
370
    -2
100
AcDbLine
 10
1112.573675943463
 20
945.5094159318285
 30
0.0
 11
1112.573675943463
 21
883.9415957201914
 31
0.0
  0
LINE
  5
886
330
56E
100
AcDbEntity
  8
P-0000
  6
Continuous
 62
     3
370
    -2
100
AcDbLine
 10
913.8736759434875
 20
887.9415957201914
 30
0.0
 11
997.3898291890604
 21
887.9415957201914
 31
0.0
  0
LINE
  5
887
330
56E
100
AcDbEntity
  8
P-0000
  6
Continuous
 62
     3
370
    -2
100
AcDbLine
 10
1106.273675943462
 20
887.9415957201914
 30
0.0
 11
1018.457534588233
 21
887.9415957201914
 31
0.0
  0
MTEXT
  5
888
330
56E
100
AcDbEntity
  8
P-0000
  6
Continuous
 62
     2
100
AcDbMText
 10
1007.923681888647
 20
895.4415957201915
 30
0.0
 40
7.0
 41
0.0
 71
     5
 72
     1
  1
205
 73
     1
 44
1.0
1001
ACAD
1000
MTEXTBEGIN
1070
    73
1070
     1
1070
    44
1040
1.0
1070
    74
1070
     0
1000
MTEXTEND
  0
SOLID
  5
889
330
56E
100
AcDbEntity
  8
P-0000
  6
Continuous
 62
     3
100
AcDbTrace
 10
913.8736759434875
 20
888.9915957201914
 30
0.0
 11
913.8736759434875
 21
886.8915957201915
 31
0.0
 12
907.5736759434875
 22
887.9415957201914
 32
0.0
 13
907.5736759434875
 23
887.9415957201914
 33
0.0
  0
SOLID
  5
88A
330
56E
100
AcDbEntity
  8
P-0000
  6
Continuous
 62
     3
100
AcDbTrace
 10
1106.273675943462
 20
888.9915957201914
 30
0.0
 11
1106.273675943462
 21
886.8915957201915
 31
0.0
 12
1112.573675943463
 22
887.9415957201914
 32
0.0
 13
1112.573675943463
 23
887.9415957201914
 33
0.0
  0
POINT
  5
88B
330
56E
100
AcDbEntity
  8
Defpoints
  6
Continuous
 62
     0
100
AcDbPoint
 10
907.5736759434875
 20
945.5094159318285
 30
0.0
  0
POINT
  5
88C
330
56E
100
AcDbEntity
  8
Defpoints
  6
Continuous
 62
     0
100
AcDbPoint
 10
1112.573675943463
 20
945.5094159318285
 30
0.0
  0
POINT
  5
88D
330
56E
100
AcDbEntity
  8
Defpoints
  6
Continuous
 62
     0
100
AcDbPoint
 10
1112.573675943463
 20
887.9415957201914
 30
0.0
  0
ENDBLK
  5
57A
330
56E
100
AcDbEntity
  8
0
100
AcDbBlockEnd
  0
BLOCK
  5
585
330
57B
100
AcDbEntity
  8
0
100
AcDbBlockBegin
  2
*D35
 70
     1
 10
0.0
 20
0.0
 30
0.0
  3
*D35
  1

  0
LINE
  5
88E
330
57B
100
AcDbEntity
  8
P-0000
  6
Continuous
 62
     3
370
    -2
100
AcDbLine
 10
920.073675943475
 20
958.0094159318159
 30
0.0
 11
920.073675943475
 21
902.065882421061
 31
0.0
  0
LINE
  5
88F
330
57B
100
AcDbEntity
  8
P-0000
  6
Continuous
 62
     3
370
    -2
100
AcDbLine
 10
1100.073675943475
 20
958.0094159318159
 30
0.0
 11
1100.073675943475
 21
902.065882421061
 31
0.0
  0
LINE
  5
890
330
57B
100
AcDbEntity
  8
P-0000
  6
Continuous
 62
     3
370
    -2
100
AcDbLine
 10
926.3736759434751
 20
906.065882421061
 30
0.0
 11
1093.773675943475
 21
906.065882421061
 31
0.0
  0
MTEXT
  5
891
330
57B
100
AcDbEntity
  8
P-0000
  6
Continuous
 62
     2
100
AcDbMText
 10
1001.709640734063
 20
915.840882421061
 30
0.0
 40
7.0
 41
0.0
 71
     5
 72
     1
  1
180{}{\H0.60x;\C3;\S+0.5^ ;}
 73
     1
 44
1.0
1001
ACAD
1000
MTEXTBEGIN
1070
    73
1070
     1
1070
    44
1040
1.0
1070
    74
1070
     0
1000
MTEXTEND
  0
SOLID
  5
892
330
57B
100
AcDbEntity
  8
P-0000
  6
Continuous
 62
     3
100
AcDbTrace
 10
926.3736759434751
 20
907.1158824210609
 30
0.0
 11
926.3736759434751
 21
905.015882421061
 31
0.0
 12
920.073675943475
 22
906.065882421061
 32
0.0
 13
920.073675943475
 23
906.065882421061
 33
0.0
  0
SOLID
  5
893
330
57B
100
AcDbEntity
  8
P-0000
  6
Continuous
 62
     3
100
AcDbTrace
 10
1093.773675943475
 20
907.1158824210609
 30
0.0
 11
1093.773675943475
 21
905.015882421061
 31
0.0
 12
1100.073675943475
 22
906.065882421061
 32
0.0
 13
1100.073675943475
 23
906.065882421061
 33
0.0
  0
POINT
  5
894
330
57B
100
AcDbEntity
  8
Defpoints
  6
Continuous
 62
     0
100
AcDbPoint
 10
920.073675943475
 20
958.0094159318159
 30
0.0
  0
POINT
  5
895
330
57B
100
AcDbEntity
  8
Defpoints
  6
Continuous
 62
     0
100
AcDbPoint
 10
1100.073675943475
 20
958.0094159318159
 30
0.0
  0
POINT
  5
896
330
57B
100
AcDbEntity
  8
Defpoints
  6
Continuous
 62
     0
100
AcDbPoint
 10
1100.073675943475
 20
906.065882421061
 30
0.0
  0
ENDBLK
  5
586
330
57B
100
AcDbEntity
  8
0
100
AcDbBlockEnd
  0
BLOCK
  5
593
330
587
100
AcDbEntity
  8
0
100
AcDbBlockBegin
  2
*D36
 70
     1
 10
0.0
 20
0.0
 30
0.0
  3
*D36
  1

  0
LINE
  5
897
330
587
100
AcDbEntity
  8
P-0000
  6
Continuous
 62
     3
370
    -2
100
AcDbLine
 10
963.0736759434746
 20
1386.563484477094
 30
0.0
 11
884.3013516581502
 21
1386.563484477094
 31
0.0
  0
LINE
  5
898
330
587
100
AcDbEntity
  8
P-0000
  6
Continuous
 62
     3
370
    -2
100
AcDbLine
 10
956.5736759434759
 20
1369.563484477104
 30
0.0
 11
884.3013516581502
 21
1369.563484477104
 31
0.0
  0
LINE
  5
899
330
587
100
AcDbEntity
  8
P-0000
  6
Continuous
 62
     3
370
    -2
100
AcDbLine
 10
888.3013516581502
 20
1392.863484477094
 30
0.0
 11
888.3013516581502
 21
1399.163484477094
 31
0.0
  0
LINE
  5
89A
330
587
100
AcDbEntity
  8
P-0000
  6
Continuous
 62
     3
370
    -2
100
AcDbLine
 10
888.3013516581502
 20
1363.263484477104
 30
0.0
 11
888.3013516581502
 21
1356.963484477104
 31
0.0
  0
MTEXT
  5
89B
330
587
100
AcDbEntity
  8
P-0000
  6
Continuous
 62
     2
100
AcDbMText
 10
895.8013516581502
 20
1378.063484477099
 30
0.0
 40
7.0
 41
0.0
 71
     5
 72
     1
  1
17
 11
0.0000000000000001
 21
1.0
 31
0.0
 73
     1
 44
1.0
1001
ACAD
1000
MTEXTBEGIN
1070
    73
1070
     1
1070
    44
1040
1.0
1070
    74
1070
     0
1000
MTEXTEND
  0
LINE
  5
89C
330
587
100
AcDbEntity
  8
P-0000
  6
Continuous
 62
     3
370
    -2
100
AcDbLine
 10
888.3013516581502
 20
1386.563484477094
 30
0.0
 11
888.3013516581502
 21
1369.563484477104
 31
0.0
  0
SOLID
  5
89D
330
587
100
AcDbEntity
  8
P-0000
  6
Continuous
 62
     3
100
AcDbTrace
 10
887.2513516581502
 20
1392.863484477094
 30
0.0
 11
889.3513516581501
 21
1392.863484477094
 31
0.0
 12
888.3013516581502
 22
1386.563484477094
 32
0.0
 13
888.3013516581502
 23
1386.563484477094
 33
0.0
  0
SOLID
  5
89E
330
587
100
AcDbEntity
  8
P-0000
  6
Continuous
 62
     3
100
AcDbTrace
 10
887.2513516581502
 20
1363.263484477104
 30
0.0
 11
889.3513516581501
 21
1363.263484477104
 31
0.0
 12
888.3013516581502
 22
1369.563484477104
 32
0.0
 13
888.3013516581502
 23
1369.563484477104
 33
0.0
  0
POINT
  5
89F
330
587
100
AcDbEntity
  8
Defpoints
  6
Continuous
 62
     0
100
AcDbPoint
 10
963.0736759434746
 20
1386.563484477094
 30
0.0
  0
POINT
  5
8A0
330
587
100
AcDbEntity
  8
Defpoints
  6
Continuous
 62
     0
100
AcDbPoint
 10
956.5736759434759
 20
1369.563484477104
 30
0.0
  0
POINT
  5
8A1
330
587
100
AcDbEntity
  8
Defpoints
  6
Continuous
 62
     0
100
AcDbPoint
 10
888.3013516581502
 20
1369.563484477104
 30
0.0
  0
ENDBLK
  5
594
330
587
100
AcDbEntity
  8
0
100
AcDbBlockEnd
  0
BLOCK
  5
5A0
330
595
100
AcDbEntity
  8
0
100
AcDbBlockBegin
  2
*D37
 70
     1
 10
0.0
 20
0.0
 30
0.0
  3
*D37
  1

  0
LINE
  5
8A2
330
595
100
AcDbEntity
  8
P-0000
  6
Continuous
 62
     3
370
    -2
100
AcDbLine
 10
966.0736759434746
 20
1386.563484477097
 30
0.0
 11
872.5415206290422
 21
1386.563484477097
 31
0.0
  0
LINE
  5
8A3
330
595
100
AcDbEntity
  8
P-0000
  6
Continuous
 62
     3
370
    -2
100
AcDbLine
 10
973.5736759434747
 20
1263.56348447708
 30
0.0
 11
872.5415206290421
 21
1263.56348447708
 31
0.0
  0
LINE
  5
8A4
330
595
100
AcDbEntity
  8
P-0000
  6
Continuous
 62
     3
370
    -2
100
AcDbLine
 10
876.5415206290422
 20
1380.263484477097
 30
0.0
 11
876.5415206290422
 21
1322.142473090219
 31
0.0
  0
LINE
  5
8A5
330
595
100
AcDbEntity
  8
P-0000
  6
Continuous
 62
     3
370
    -2
100
AcDbLine
 10
876.5415206290422
 20
1269.863484477079
 30
0.0
 11
876.5415206290422
 21
1302.652523596558
 31
0.0
  0
MTEXT
  5
8A6
330
595
100
AcDbEntity
  8
P-0000
  6
Continuous
 62
     2
100
AcDbMText
 10
884.0415206290421
 20
1312.397498343388
 30
0.0
 40
7.0
 41
0.0
 71
     5
 72
     1
  1
123
 11
0.0000000000000001
 21
1.0
 31
0.0
 73
     1
 44
1.0
1001
ACAD
1000
MTEXTBEGIN
1070
    73
1070
     1
1070
    44
1040
1.0
1070
    74
1070
     0
1000
MTEXTEND
  0
SOLID
  5
8A7
330
595
100
AcDbEntity
  8
P-0000
  6
Continuous
 62
     3
100
AcDbTrace
 10
875.4915206290423
 20
1380.263484477097
 30
0.0
 11
877.5915206290422
 21
1380.263484477097
 31
0.0
 12
876.5415206290422
 22
1386.563484477097
 32
0.0
 13
876.5415206290422
 23
1386.563484477097
 33
0.0
  0
SOLID
  5
8A8
330
595
100
AcDbEntity
  8
P-0000
  6
Continuous
 62
     3
100
AcDbTrace
 10
875.4915206290421
 20
1269.863484477079
 30
0.0
 11
877.591520629042
 21
1269.863484477079
 31
0.0
 12
876.5415206290422
 22
1263.56348447708
 32
0.0
 13
876.5415206290422
 23
1263.56348447708
 33
0.0
  0
POINT
  5
8A9
330
595
100
AcDbEntity
  8
Defpoints
  6
Continuous
 62
     0
100
AcDbPoint
 10
966.0736759434746
 20
1386.563484477097
 30
0.0
  0
POINT
  5
8AA
330
595
100
AcDbEntity
  8
Defpoints
  6
Continuous
 62
     0
100
AcDbPoint
 10
973.5736759434747
 20
1263.56348447708
 30
0.0
  0
POINT
  5
8AB
330
595
100
AcDbEntity
  8
Defpoints
  6
Continuous
 62
     0
100
AcDbPoint
 10
876.5415206290422
 20
1263.56348447708
 30
0.0
  0
ENDBLK
  5
5A1
330
595
100
AcDbEntity
  8
0
100
AcDbBlockEnd
  0
BLOCK
  5
5AC
330
5A2
100
AcDbEntity
  8
0
100
AcDbBlockBegin
  2
*D38
 70
     1
 10
0.0
 20
0.0
 30
0.0
  3
*D38
  1

  0
LINE
  5
8AC
330
5A2
100
AcDbEntity
  8
P-0000
  6
Continuous
 62
     3
370
    -2
100
AcDbLine
 10
963.0736759434746
 20
1386.563484477094
 30
0.0
 11
850.6909958781843
 21
1386.563484477094
 31
0.0
  0
LINE
  5
8AD
330
5A2
100
AcDbEntity
  8
P-0000
  6
Continuous
 62
     3
370
    -2
100
AcDbLine
 10
935.0736759434742
 20
1236.56348447708
 30
0.0
 11
850.6909958781841
 21
1236.56348447708
 31
0.0
  0
LINE
  5
8AE
330
5A2
100
AcDbEntity
  8
P-0000
  6
Continuous
 62
     3
370
    -2
100
AcDbLine
 10
854.6909958781842
 20
1380.263484477094
 30
0.0
 11
854.690995878184
 21
1242.86348447708
 31
0.0
  0
MTEXT
  5
8AF
330
5A2
100
AcDbEntity
  8
P-0000
  6
Continuous
 62
     2
100
AcDbMText
 10
862.1909958781841
 20
1308.755744218246
 30
0.0
 40
7.0
 41
0.0
 71
     5
 72
     1
  1
150
 11
0.0000000000000001
 21
1.0
 31
0.0
 73
     1
 44
1.0
1001
ACAD
1000
MTEXTBEGIN
1070
    73
1070
     1
1070
    44
1040
1.0
1070
    74
1070
     0
1000
MTEXTEND
  0
SOLID
  5
8B0
330
5A2
100
AcDbEntity
  8
P-0000
  6
Continuous
 62
     3
100
AcDbTrace
 10
853.6409958781844
 20
1380.263484477094
 30
0.0
 11
855.7409958781843
 21
1380.263484477094
 31
0.0
 12
854.6909958781842
 22
1386.563484477094
 32
0.0
 13
854.6909958781842
 23
1386.563484477094
 33
0.0
  0
SOLID
  5
8B1
330
5A2
100
AcDbEntity
  8
P-0000
  6
Continuous
 62
     3
100
AcDbTrace
 10
853.6409958781842
 20
1242.86348447708
 30
0.0
 11
855.7409958781841
 21
1242.86348447708
 31
0.0
 12
854.690995878184
 22
1236.56348447708
 32
0.0
 13
854.690995878184
 23
1236.56348447708
 33
0.0
  0
POINT
  5
8B2
330
5A2
100
AcDbEntity
  8
Defpoints
  6
Continuous
 62
     0
100
AcDbPoint
 10
963.0736759434746
 20
1386.563484477094
 30
0.0
  0
POINT
  5
8B3
330
5A2
100
AcDbEntity
  8
Defpoints
  6
Continuous
 62
     0
100
AcDbPoint
 10
935.0736759434742
 20
1236.56348447708
 30
0.0
  0
POINT
  5
8B4
330
5A2
100
AcDbEntity
  8
Defpoints
  6
Continuous
 62
     0
100
AcDbPoint
 10
854.690995878184
 20
1236.56348447708
 30
0.0
  0
ENDBLK
  5
5AD
330
5A2
100
AcDbEntity
  8
0
100
AcDbBlockEnd
  0
BLOCK
  5
5B9
330
5AE
100
AcDbEntity
  8
0
100
AcDbBlockBegin
  2
*D39
 70
     1
 10
0.0
 20
0.0
 30
0.0
  3
*D39
  1

  0
LINE
  5
8B5
330
5AE
100
AcDbEntity
  8
P-0000
  6
Continuous
 62
     3
370
    -2
100
AcDbLine
 10
907.5736759434875
 20
945.5094159318285
 30
0.0
 11
850.197510364228
 21
945.5094159318285
 31
0.0
  0
LINE
  5
8B6
330
5AE
100
AcDbEntity
  8
P-0000
  6
Continuous
 62
     3
370
    -2
100
AcDbLine
 10
907.5736759434876
 20
1150.509415931804
 30
0.0
 11
850.197510364228
 21
1150.509415931804
 31
0.0
  0
LINE
  5
8B7
330
5AE
100
AcDbEntity
  8
P-0000
  6
Continuous
 62
     3
370
    -2
100
AcDbLine
 10
854.1975103642281
 20
951.8094159318284
 30
0.0
 11
854.1975103642281
 21
1037.475563232229
 31
0.0
  0
LINE
  5
8B8
330
5AE
100
AcDbEntity
  8
P-0000
  6
Continuous
 62
     3
370
    -2
100
AcDbLine
 10
854.1975103642281
 20
1144.209415931803
 30
0.0
 11
854.1975103642281
 21
1058.543268631402
 31
0.0
  0
MTEXT
  5
8B9
330
5AE
100
AcDbEntity
  8
P-0000
  6
Continuous
 62
     2
100
AcDbMText
 10
861.6975103642282
 20
1048.009415931816
 30
0.0
 40
7.0
 41
0.0
 71
     5
 72
     1
  1
205
 11
0.0000000000000001
 21
1.0
 31
0.0
 73
     1
 44
1.0
1001
ACAD
1000
MTEXTBEGIN
1070
    73
1070
     1
1070
    44
1040
1.0
1070
    74
1070
     0
1000
MTEXTEND
  0
SOLID
  5
8BA
330
5AE
100
AcDbEntity
  8
P-0000
  6
Continuous
 62
     3
100
AcDbTrace
 10
853.147510364228
 20
951.8094159318284
 30
0.0
 11
855.2475103642279
 21
951.8094159318284
 31
0.0
 12
854.1975103642281
 22
945.5094159318285
 32
0.0
 13
854.1975103642281
 23
945.5094159318285
 33
0.0
  0
SOLID
  5
8BB
330
5AE
100
AcDbEntity
  8
P-0000
  6
Continuous
 62
     3
100
AcDbTrace
 10
853.147510364228
 20
1144.209415931803
 30
0.0
 11
855.2475103642279
 21
1144.209415931803
 31
0.0
 12
854.1975103642281
 22
1150.509415931804
 32
0.0
 13
854.1975103642281
 23
1150.509415931804
 33
0.0
  0
POINT
  5
8BC
330
5AE
100
AcDbEntity
  8
Defpoints
  6
Continuous
 62
     0
100
AcDbPoint
 10
907.5736759434875
 20
945.5094159318285
 30
0.0
  0
POINT
  5
8BD
330
5AE
100
AcDbEntity
  8
Defpoints
  6
Continuous
 62
     0
100
AcDbPoint
 10
907.5736759434876
 20
1150.509415931804
 30
0.0
  0
POINT
  5
8BE
330
5AE
100
AcDbEntity
  8
Defpoints
  6
Continuous
 62
     0
100
AcDbPoint
 10
854.1975103642281
 20
1150.509415931804
 30
0.0
  0
ENDBLK
  5
5BA
330
5AE
100
AcDbEntity
  8
0
100
AcDbBlockEnd
  0
BLOCK
  5
5C5
330
5BB
100
AcDbEntity
  8
0
100
AcDbBlockBegin
  2
*D40
 70
     1
 10
0.0
 20
0.0
 30
0.0
  3
*D40
  1

  0
LINE
  5
8BF
330
5BB
100
AcDbEntity
  8
P-0000
  6
Continuous
 62
     3
370
    -2
100
AcDbLine
 10
907.5736759434876
 20
1098.009415931816
 30
0.0
 11
883.856899951556
 21
1098.009415931816
 31
0.0
  0
LINE
  5
8C0
330
5BB
100
AcDbEntity
  8
P-0000
  6
Continuous
 62
     3
370
    -2
100
AcDbLine
 10
907.5736759434875
 20
998.0094159318159
 30
0.0
 11
883.856899951556
 21
998.0094159318159
 31
0.0
  0
LINE
  5
8C1
330
5BB
100
AcDbEntity
  8
P-0000
  6
Continuous
 62
     3
370
    -2
100
AcDbLine
 10
887.8568999515561
 20
1091.709415931816
 30
0.0
 11
887.8568999515561
 21
1004.309415931816
 31
0.0
  0
MTEXT
  5
8C2
330
5BB
100
AcDbEntity
  8
P-0000
  6
Continuous
 62
     2
100
AcDbMText
 10
895.3568999515562
 20
1048.009415931816
 30
0.0
 40
7.0
 41
0.0
 71
     5
 72
     1
  1
100
 11
0.0000000000000001
 21
1.0
 31
0.0
 73
     1
 44
1.0
1001
ACAD
1000
MTEXTBEGIN
1070
    73
1070
     1
1070
    44
1040
1.0
1070
    74
1070
     0
1000
MTEXTEND
  0
SOLID
  5
8C3
330
5BB
100
AcDbEntity
  8
P-0000
  6
Continuous
 62
     3
100
AcDbTrace
 10
886.8068999515561
 20
1091.709415931816
 30
0.0
 11
888.906899951556
 21
1091.709415931816
 31
0.0
 12
887.8568999515561
 22
1098.009415931816
 32
0.0
 13
887.8568999515561
 23
1098.009415931816
 33
0.0
  0
SOLID
  5
8C4
330
5BB
100
AcDbEntity
  8
P-0000
  6
Continuous
 62
     3
100
AcDbTrace
 10
886.8068999515561
 20
1004.309415931816
 30
0.0
 11
888.906899951556
 21
1004.309415931816
 31
0.0
 12
887.8568999515561
 22
998.0094159318159
 32
0.0
 13
887.8568999515561
 23
998.0094159318159
 33
0.0
  0
POINT
  5
8C5
330
5BB
100
AcDbEntity
  8
Defpoints
  6
Continuous
 62
     0
100
AcDbPoint
 10
907.5736759434876
 20
1098.009415931816
 30
0.0
  0
POINT
  5
8C6
330
5BB
100
AcDbEntity
  8
Defpoints
  6
Continuous
 62
     0
100
AcDbPoint
 10
907.5736759434875
 20
998.0094159318159
 30
0.0
  0
POINT
  5
8C7
330
5BB
100
AcDbEntity
  8
Defpoints
  6
Continuous
 62
     0
100
AcDbPoint
 10
887.8568999515561
 20
998.0094159318159
 30
0.0
  0
ENDBLK
  5
5C6
330
5BB
100
AcDbEntity
  8
0
100
AcDbBlockEnd
  0
BLOCK
  5
5D1
330
5C7
100
AcDbEntity
  8
0
100
AcDbBlockBegin
  2
*D41
 70
     1
 10
0.0
 20
0.0
 30
0.0
  3
*D41
  1

  0
LINE
  5
8C8
330
5C7
100
AcDbEntity
  8
P-0000
  6
Continuous
 62
     3
370
    -2
100
AcDbLine
 10
920.073675943475
 20
1138.009415931816
 30
0.0
 11
864.6969397249231
 21
1138.009415931816
 31
0.0
  0
LINE
  5
8C9
330
5C7
100
AcDbEntity
  8
P-0000
  6
Continuous
 62
     3
370
    -2
100
AcDbLine
 10
920.073675943475
 20
958.0094159318159
 30
0.0
 11
864.6969397249231
 21
958.0094159318159
 31
0.0
  0
LINE
  5
8CA
330
5C7
100
AcDbEntity
  8
P-0000
  6
Continuous
 62
     3
370
    -2
100
AcDbLine
 10
868.6969397249232
 20
1131.709415931816
 30
0.0
 11
868.6969397249232
 21
964.309415931816
 31
0.0
  0
MTEXT
  5
8CB
330
5C7
100
AcDbEntity
  8
P-0000
  6
Continuous
 62
     2
100
AcDbMText
 10
878.4719397249231
 20
1045.810461347667
 30
0.0
 40
7.0
 41
0.0
 71
     5
 72
     1
  1
180{}{\H0.60x;\C3;\S+0.5^ ;}
 11
0.0000000000000001
 21
1.0
 31
0.0
 73
     1
 44
1.0
1001
ACAD
1000
MTEXTBEGIN
1070
    73
1070
     1
1070
    44
1040
1.0
1070
    74
1070
     0
1000
MTEXTEND
  0
SOLID
  5
8CC
330
5C7
100
AcDbEntity
  8
P-0000
  6
Continuous
 62
     3
100
AcDbTrace
 10
867.6469397249231
 20
1131.709415931816
 30
0.0
 11
869.746939724923
 21
1131.709415931816
 31
0.0
 12
868.6969397249232
 22
1138.009415931816
 32
0.0
 13
868.6969397249232
 23
1138.009415931816
 33
0.0
  0
SOLID
  5
8CD
330
5C7
100
AcDbEntity
  8
P-0000
  6
Continuous
 62
     3
100
AcDbTrace
 10
867.6469397249231
 20
964.309415931816
 30
0.0
 11
869.746939724923
 21
964.309415931816
 31
0.0
 12
868.6969397249232
 22
958.0094159318159
 32
0.0
 13
868.6969397249232
 23
958.0094159318159
 33
0.0
  0
POINT
  5
8CE
330
5C7
100
AcDbEntity
  8
Defpoints
  6
Continuous
 62
     0
100
AcDbPoint
 10
920.073675943475
 20
1138.009415931816
 30
0.0
  0
POINT
  5
8CF
330
5C7
100
AcDbEntity
  8
Defpoints
  6
Continuous
 62
     0
100
AcDbPoint
 10
920.073675943475
 20
958.0094159318159
 30
0.0
  0
POINT
  5
8D0
330
5C7
100
AcDbEntity
  8
Defpoints
  6
Continuous
 62
     0
100
AcDbPoint
 10
868.6969397249232
 20
958.0094159318159
 30
0.0
  0
ENDBLK
  5
5D2
330
5C7
100
AcDbEntity
  8
0
100
AcDbBlockEnd
  0
BLOCK
  5
5ED
330
5E1
100
AcDbEntity
  8
0
100
AcDbBlockBegin
  2
*D43
 70
     1
 10
0.0
 20
0.0
 30
0.0
  3
*D43
  1

  0
LINE
  5
8D1
330
5E1
100
AcDbEntity
  8
P-0000
  6
Continuous
 62
     3
370
    -2
100
AcDbLine
 10
915.5736759434876
 20
1236.563484477081
 30
0.0
 11
882.556344473186
 21
1236.563484477081
 31
0.0
  0
LINE
  5
8D2
330
5E1
100
AcDbEntity
  8
P-0000
  6
Continuous
 62
     3
370
    -2
100
AcDbLine
 10
935.0736759434742
 20
1241.56348447708
 30
0.0
 11
882.556344473186
 21
1241.56348447708
 31
0.0
  0
LINE
  5
8D3
330
5E1
100
AcDbEntity
  8
P-0000
  6
Continuous
 62
     3
370
    -2
100
AcDbLine
 10
886.556344473186
 20
1230.263484477081
 30
0.0
 11
886.556344473186
 21
1223.963484477081
 31
0.0
  0
LINE
  5
8D4
330
5E1
100
AcDbEntity
  8
P-0000
  6
Continuous
 62
     3
370
    -2
100
AcDbLine
 10
886.556344473186
 20
1247.86348447708
 30
0.0
 11
886.556344473186
 21
1254.16348447708
 31
0.0
  0
MTEXT
  5
8D5
330
5E1
100
AcDbEntity
  8
P-0000
  6
Continuous
 62
     2
100
AcDbMText
 10
894.0563444731861
 20
1230.458030527669
 30
0.0
 40
7.0
 41
0.0
 71
     5
 72
     1
  1
5
 11
0.0000000000000001
 21
1.0
 31
0.0
 73
     1
 44
1.0
1001
ACAD
1000
MTEXTBEGIN
1070
    73
1070
     1
1070
    44
1040
1.0
1070
    74
1070
     0
1000
MTEXTEND
  0
LINE
  5
8D6
330
5E1
100
AcDbEntity
  8
P-0000
  6
Continuous
 62
     3
370
    -2
100
AcDbLine
 10
886.556344473186
 20
1236.563484477081
 30
0.0
 11
886.556344473186
 21
1241.56348447708
 31
0.0
  0
SOLID
  5
8D7
330
5E1
100
AcDbEntity
  8
P-0000
  6
Continuous
 62
     3
100
AcDbTrace
 10
885.5063444731861
 20
1230.263484477081
 30
0.0
 11
887.606344473186
 21
1230.263484477081
 31
0.0
 12
886.556344473186
 22
1236.563484477081
 32
0.0
 13
886.556344473186
 23
1236.563484477081
 33
0.0
  0
SOLID
  5
8D8
330
5E1
100
AcDbEntity
  8
P-0000
  6
Continuous
 62
     3
100
AcDbTrace
 10
885.5063444731861
 20
1247.86348447708
 30
0.0
 11
887.606344473186
 21
1247.86348447708
 31
0.0
 12
886.556344473186
 22
1241.56348447708
 32
0.0
 13
886.556344473186
 23
1241.56348447708
 33
0.0
  0
POINT
  5
8D9
330
5E1
100
AcDbEntity
  8
Defpoints
  6
Continuous
 62
     0
100
AcDbPoint
 10
915.5736759434876
 20
1236.563484477081
 30
0.0
  0
POINT
  5
8DA
330
5E1
100
AcDbEntity
  8
Defpoints
  6
Continuous
 62
     0
100
AcDbPoint
 10
935.0736759434742
 20
1241.56348447708
 30
0.0
  0
POINT
  5
8DB
330
5E1
100
AcDbEntity
  8
Defpoints
  6
Continuous
 62
     0
100
AcDbPoint
 10
886.556344473186
 20
1241.56348447708
 30
0.0
  0
ENDBLK
  5
5EE
330
5E1
100
AcDbEntity
  8
0
100
AcDbBlockEnd
  0
BLOCK
  5
5F9
330
5EF
100
AcDbEntity
  8
0
100
AcDbBlockBegin
  2
*D44
 70
     1
 10
0.0
 20
0.0
 30
0.0
  3
*D44
  1

  0
LINE
  5
8DC
330
5EF
100
AcDbEntity
  8
P-0000
  6
Continuous
 62
     3
370
    -2
100
AcDbLine
 10
1100.073675943475
 20
1236.56348447708
 30
0.0
 11
1131.367335998274
 21
1236.56348447708
 31
0.0
  0
LINE
  5
8DD
330
5EF
100
AcDbEntity
  8
P-0000
  6
Continuous
 62
     3
370
    -2
100
AcDbLine
 10
1112.573675943461
 20
1347.56348447708
 30
0.0
 11
1131.367335998274
 21
1347.56348447708
 31
0.0
  0
LINE
  5
8DE
330
5EF
100
AcDbEntity
  8
P-0000
  6
Continuous
 62
     3
370
    -2
100
AcDbLine
 10
1127.367335998274
 20
1242.86348447708
 30
0.0
 11
1127.367335998274
 21
1341.26348447708
 31
0.0
  0
MTEXT
  5
8DF
330
5EF
100
AcDbEntity
  8
P-0000
  6
Continuous
 62
     2
100
AcDbMText
 10
1134.867335998274
 20
1289.636535061244
 30
0.0
 40
7.0
 41
0.0
 71
     5
 72
     1
  1
110
 11
0.0000000000000001
 21
1.0
 31
0.0
 73
     1
 44
1.0
1001
ACAD
1000
MTEXTBEGIN
1070
    73
1070
     1
1070
    44
1040
1.0
1070
    74
1070
     0
1000
MTEXTEND
  0
SOLID
  5
8E0
330
5EF
100
AcDbEntity
  8
P-0000
  6
Continuous
 62
     3
100
AcDbTrace
 10
1126.317335998274
 20
1242.86348447708
 30
0.0
 11
1128.417335998274
 21
1242.86348447708
 31
0.0
 12
1127.367335998274
 22
1236.56348447708
 32
0.0
 13
1127.367335998274
 23
1236.56348447708
 33
0.0
  0
SOLID
  5
8E1
330
5EF
100
AcDbEntity
  8
P-0000
  6
Continuous
 62
     3
100
AcDbTrace
 10
1126.317335998274
 20
1341.26348447708
 30
0.0
 11
1128.417335998274
 21
1341.26348447708
 31
0.0
 12
1127.367335998274
 22
1347.56348447708
 32
0.0
 13
1127.367335998274
 23
1347.56348447708
 33
0.0
  0
POINT
  5
8E2
330
5EF
100
AcDbEntity
  8
Defpoints
  6
Continuous
 62
     0
100
AcDbPoint
 10
1100.073675943475
 20
1236.56348447708
 30
0.0
  0
POINT
  5
8E3
330
5EF
100
AcDbEntity
  8
Defpoints
  6
Continuous
 62
     0
100
AcDbPoint
 10
1112.573675943461
 20
1347.56348447708
 30
0.0
  0
POINT
  5
8E4
330
5EF
100
AcDbEntity
  8
Defpoints
  6
Continuous
 62
     0
100
AcDbPoint
 10
1127.367335998274
 20
1347.56348447708
 30
0.0
  0
ENDBLK
  5
5FA
330
5EF
100
AcDbEntity
  8
0
100
AcDbBlockEnd
  0
BLOCK
  5
624
330
61C
100
AcDbEntity
  8
0
100
AcDbBlockBegin
  2
*D48
 70
     1
 10
0.0
 20
0.0
 30
0.0
  3
*D48
  1

  0
LINE
  5
8E5
330
61C
100
AcDbEntity
  8
P-0000
  6
Continuous
 62
     3
370
    -2
100
AcDbLine
 10
1016.869691446456
 20
1006.866929700631
 30
0.0
 11
1008.120524937514
 21
1059.833622091283
 31
0.0
  0
LINE
  5
8E6
330
61C
100
AcDbEntity
  8
P-0000
  6
Continuous
 62
     3
370
    -2
100
AcDbLine
 10
1003.277660440494
 20
1089.151902163001
 30
0.0
 11
1004.474518942681
 21
1081.906224982701
 31
0.0
  0
MTEXT
  5
8E7
330
61C
100
AcDbEntity
  8
P-0000
  6
Continuous
 62
     2
100
AcDbMText
 10
1000.955027442123
 20
1069.987437358864
 30
0.0
 40
7.0
 41
0.0
 71
     5
 72
     1
  1
\U+220596
 11
0.1629739928772432
 21
-0.9866303652562333
 31
0.0
 73
     1
 44
1.0
1001
ACAD
1000
MTEXTBEGIN
1070
    73
1070
     1
1070
    44
1040
1.0
1070
    74
1070
     0
1000
MTEXTEND
  0
SOLID
  5
8E8
330
61C
100
AcDbEntity
  8
P-0000
  6
Continuous
 62
     3
100
AcDbTrace
 10
1017.905653329975
 20
1007.038052393152
 30
0.0
 11
1015.833729562937
 21
1006.69580700811
 31
0.0
 12
1017.896427601582
 22
1000.651158399517
 32
0.0
 13
1017.896427601582
 23
1000.651158399517
 33
0.0
  0
SOLID
  5
8E9
330
61C
100
AcDbEntity
  8
P-0000
  6
Continuous
 62
     3
100
AcDbTrace
 10
1004.313622324013
 20
1089.323024855522
 30
0.0
 11
1002.241698556975
 21
1088.98077947048
 31
0.0
 12
1002.250924285367
 22
1095.367673464115
 32
0.0
 13
1002.250924285367
 23
1095.367673464115
 33
0.0
  0
POINT
  5
8EA
330
61C
100
AcDbEntity
  8
Defpoints
  6
Continuous
 62
     0
100
AcDbPoint
 10
1002.250924285367
 20
1095.367673464115
 30
0.0
  0
POINT
  5
8EB
330
61C
100
AcDbEntity
  8
Defpoints
  6
Continuous
 62
     0
100
AcDbPoint
 10
1017.896427601582
 20
1000.651158399517
 30
0.0
  0
ENDBLK
  5
625
330
61C
100
AcDbEntity
  8
0
100
AcDbBlockEnd
  0
BLOCK
  5
630
330
626
100
AcDbEntity
  8
0
100
AcDbBlockBegin
  2
*D49
 70
     1
 10
0.0
 20
0.0
 30
0.0
  3
*D49
  1

  0
LINE
  5
8EC
330
626
100
AcDbEntity
  8
P-0000
  6
Continuous
 62
     3
370
    -2
100
AcDbLine
 10
1046.573675943474
 20
1241.56348447708
 30
0.0
 11
1046.573675943474
 21
1205.028053051035
 31
0.0
  0
LINE
  5
8ED
330
626
100
AcDbEntity
  8
P-0000
  6
Continuous
 62
     3
370
    -2
100
AcDbLine
 10
973.5736759434729
 20
1241.56348447708
 30
0.0
 11
973.5736759434729
 21
1205.028053051035
 31
0.0
  0
LINE
  5
8EE
330
626
100
AcDbEntity
  8
P-0000
  6
Continuous
 62
     3
370
    -2
100
AcDbLine
 10
1040.273675943474
 20
1209.028053051035
 30
0.0
 11
979.873675943473
 21
1209.028053051035
 31
0.0
  0
MTEXT
  5
8EF
330
626
100
AcDbEntity
  8
P-0000
  6
Continuous
 62
     2
100
AcDbMText
 10
1010.073675943473
 20
1218.803053051035
 30
0.0
 40
7.0
 41
0.0
 71
     5
 72
     1
  1
%%c73{}{\H0.60x;\C3;\S+0.3^ ;}
 73
     1
 44
1.0
1001
ACAD
1000
MTEXTBEGIN
1070
    73
1070
     1
1070
    44
1040
1.0
1070
    74
1070
     0
1000
MTEXTEND
  0
SOLID
  5
8F0
330
626
100
AcDbEntity
  8
P-0000
  6
Continuous
 62
     3
100
AcDbTrace
 10
1040.273675943474
 20
1210.078053051035
 30
0.0
 11
1040.273675943474
 21
1207.978053051036
 31
0.0
 12
1046.573675943474
 22
1209.028053051035
 32
0.0
 13
1046.573675943474
 23
1209.028053051035
 33
0.0
  0
SOLID
  5
8F1
330
626
100
AcDbEntity
  8
P-0000
  6
Continuous
 62
     3
100
AcDbTrace
 10
979.873675943473
 20
1210.078053051035
 30
0.0
 11
979.873675943473
 21
1207.978053051036
 31
0.0
 12
973.5736759434729
 22
1209.028053051035
 32
0.0
 13
973.5736759434729
 23
1209.028053051035
 33
0.0
  0
POINT
  5
8F2
330
626
100
AcDbEntity
  8
Defpoints
  6
Continuous
 62
     0
100
AcDbPoint
 10
1046.573675943474
 20
1241.56348447708
 30
0.0
  0
POINT
  5
8F3
330
626
100
AcDbEntity
  8
Defpoints
  6
Continuous
 62
     0
100
AcDbPoint
 10
973.5736759434729
 20
1241.56348447708
 30
0.0
  0
POINT
  5
8F4
330
626
100
AcDbEntity
  8
Defpoints
  6
Continuous
 62
     0
100
AcDbPoint
 10
973.5736759434729
 20
1209.028053051035
 30
0.0
  0
ENDBLK
  5
631
330
626
100
AcDbEntity
  8
0
100
AcDbBlockEnd
  0
BLOCK
  5
658
330
64E
100
AcDbEntity
  8
0
100
AcDbBlockBegin
  2
*D52
 70
     1
 10
0.0
 20
0.0
 30
0.0
  3
*D52
  1

  0
LINE
  5
8F5
330
64E
100
AcDbEntity
  8
P-0000
  6
Continuous
 62
     3
370
    -2
100
AcDbLine
 10
920.0736759434763
 20
384.8429179567179
 30
0.0
 11
920.0736759434763
 21
328.8993844459642
 31
0.0
  0
LINE
  5
8F6
330
64E
100
AcDbEntity
  8
P-0000
  6
Continuous
 62
     3
370
    -2
100
AcDbLine
 10
1100.073675943476
 20
384.8429179567179
 30
0.0
 11
1100.073675943476
 21
328.8993844459642
 31
0.0
  0
LINE
  5
8F7
330
64E
100
AcDbEntity
  8
P-0000
  6
Continuous
 62
     3
370
    -2
100
AcDbLine
 10
926.3736759434761
 20
332.8993844459642
 30
0.0
 11
1093.773675943476
 21
332.8993844459642
 31
0.0
  0
MTEXT
  5
8F8
330
64E
100
AcDbEntity
  8
P-0000
  6
Continuous
 62
     2
100
AcDbMText
 10
1001.709640734064
 20
342.6743844459638
 30
0.0
 40
7.0
 41
0.0
 71
     5
 72
     1
  1
180{}{\H0.60x;\C3;\S^ -0.5;}
 73
     1
 44
1.0
1001
ACAD
1000
MTEXTBEGIN
1070
    73
1070
     1
1070
    44
1040
1.0
1070
    74
1070
     0
1000
MTEXTEND
  0
SOLID
  5
8F9
330
64E
100
AcDbEntity
  8
P-0000
  6
Continuous
 62
     3
100
AcDbTrace
 10
926.3736759434761
 20
333.9493844459642
 30
0.0
 11
926.3736759434761
 21
331.8493844459642
 31
0.0
 12
920.0736759434763
 22
332.8993844459642
 32
0.0
 13
920.0736759434763
 23
332.8993844459642
 33
0.0
  0
SOLID
  5
8FA
330
64E
100
AcDbEntity
  8
P-0000
  6
Continuous
 62
     3
100
AcDbTrace
 10
1093.773675943476
 20
333.9493844459642
 30
0.0
 11
1093.773675943476
 21
331.8493844459642
 31
0.0
 12
1100.073675943476
 22
332.8993844459642
 32
0.0
 13
1100.073675943476
 23
332.8993844459642
 33
0.0
  0
POINT
  5
8FB
330
64E
100
AcDbEntity
  8
Defpoints
  6
Continuous
 62
     0
100
AcDbPoint
 10
920.0736759434763
 20
384.8429179567179
 30
0.0
  0
POINT
  5
8FC
330
64E
100
AcDbEntity
  8
Defpoints
  6
Continuous
 62
     0
100
AcDbPoint
 10
1100.073675943476
 20
384.8429179567179
 30
0.0
  0
POINT
  5
8FD
330
64E
100
AcDbEntity
  8
Defpoints
  6
Continuous
 62
     0
100
AcDbPoint
 10
1100.073675943476
 20
332.8993844459642
 30
0.0
  0
ENDBLK
  5
659
330
64E
100
AcDbEntity
  8
0
100
AcDbBlockEnd
  0
BLOCK
  5
665
330
65A
100
AcDbEntity
  8
0
100
AcDbBlockBegin
  2
*D53
 70
     1
 10
0.0
 20
0.0
 30
0.0
  3
*D53
  1

  0
LINE
  5
8FE
330
65A
100
AcDbEntity
  8
P-0000
  6
Continuous
 62
     3
370
    -2
100
AcDbLine
 10
907.5736759434889
 20
372.3429179567306
 30
0.0
 11
907.5736759434889
 21
310.7750977450946
 31
0.0
  0
LINE
  5
8FF
330
65A
100
AcDbEntity
  8
P-0000
  6
Continuous
 62
     3
370
    -2
100
AcDbLine
 10
1112.573675943463
 20
372.3429179567306
 30
0.0
 11
1112.573675943463
 21
310.7750977450946
 31
0.0
  0
LINE
  5
900
330
65A
100
AcDbEntity
  8
P-0000
  6
Continuous
 62
     3
370
    -2
100
AcDbLine
 10
913.8736759434889
 20
314.7750977450946
 30
0.0
 11
997.3898291890623
 21
314.7750977450946
 31
0.0
  0
LINE
  5
901
330
65A
100
AcDbEntity
  8
P-0000
  6
Continuous
 62
     3
370
    -2
100
AcDbLine
 10
1106.273675943463
 20
314.7750977450946
 30
0.0
 11
1018.457534588235
 21
314.7750977450946
 31
0.0
  0
MTEXT
  5
902
330
65A
100
AcDbEntity
  8
P-0000
  6
Continuous
 62
     2
100
AcDbMText
 10
1007.923681888649
 20
322.2750977450946
 30
0.0
 40
7.0
 41
0.0
 71
     5
 72
     1
  1
205
 73
     1
 44
1.0
1001
ACAD
1000
MTEXTBEGIN
1070
    73
1070
     1
1070
    44
1040
1.0
1070
    74
1070
     0
1000
MTEXTEND
  0
SOLID
  5
903
330
65A
100
AcDbEntity
  8
P-0000
  6
Continuous
 62
     3
100
AcDbTrace
 10
913.8736759434889
 20
315.8250977450947
 30
0.0
 11
913.8736759434889
 21
313.7250977450946
 31
0.0
 12
907.5736759434889
 22
314.7750977450946
 32
0.0
 13
907.5736759434889
 23
314.7750977450946
 33
0.0
  0
SOLID
  5
904
330
65A
100
AcDbEntity
  8
P-0000
  6
Continuous
 62
     3
100
AcDbTrace
 10
1106.273675943463
 20
315.8250977450947
 30
0.0
 11
1106.273675943463
 21
313.7250977450946
 31
0.0
 12
1112.573675943463
 22
314.7750977450946
 32
0.0
 13
1112.573675943463
 23
314.7750977450946
 33
0.0
  0
POINT
  5
905
330
65A
100
AcDbEntity
  8
Defpoints
  6
Continuous
 62
     0
100
AcDbPoint
 10
907.5736759434889
 20
372.3429179567306
 30
0.0
  0
POINT
  5
906
330
65A
100
AcDbEntity
  8
Defpoints
  6
Continuous
 62
     0
100
AcDbPoint
 10
1112.573675943463
 20
372.3429179567306
 30
0.0
  0
POINT
  5
907
330
65A
100
AcDbEntity
  8
Defpoints
  6
Continuous
 62
     0
100
AcDbPoint
 10
1112.573675943463
 20
314.7750977450946
 30
0.0
  0
ENDBLK
  5
666
330
65A
100
AcDbEntity
  8
0
100
AcDbBlockEnd
  0
BLOCK
  5
671
330
667
100
AcDbEntity
  8
0
100
AcDbBlockBegin
  2
*D54
 70
     1
 10
0.0
 20
0.0
 30
0.0
  3
*D54
  1

  0
LINE
  5
908
330
667
100
AcDbEntity
  8
P-0000
  6
Continuous
 62
     3
370
    -2
100
AcDbLine
 10
907.5736759434889
 20
524.8429179567177
 30
0.0
 11
883.8568999515587
 21
524.8429179567177
 31
0.0
  0
LINE
  5
909
330
667
100
AcDbEntity
  8
P-0000
  6
Continuous
 62
     3
370
    -2
100
AcDbLine
 10
907.5736759434889
 20
424.8429179567178
 30
0.0
 11
883.8568999515587
 21
424.8429179567179
 31
0.0
  0
LINE
  5
90A
330
667
100
AcDbEntity
  8
P-0000
  6
Continuous
 62
     3
370
    -2
100
AcDbLine
 10
887.8568999515588
 20
518.5429179567178
 30
0.0
 11
887.8568999515588
 21
431.1429179567179
 31
0.0
  0
MTEXT
  5
90B
330
667
100
AcDbEntity
  8
P-0000
  6
Continuous
 62
     2
100
AcDbMText
 10
895.3568999515587
 20
474.8429179567177
 30
0.0
 40
7.0
 41
0.0
 71
     5
 72
     1
  1
100
 11
0.0000000000000001
 21
1.0
 31
0.0
 73
     1
 44
1.0
1001
ACAD
1000
MTEXTBEGIN
1070
    73
1070
     1
1070
    44
1040
1.0
1070
    74
1070
     0
1000
MTEXTEND
  0
SOLID
  5
90C
330
667
100
AcDbEntity
  8
P-0000
  6
Continuous
 62
     3
100
AcDbTrace
 10
886.8068999515587
 20
518.5429179567178
 30
0.0
 11
888.9068999515586
 21
518.5429179567178
 31
0.0
 12
887.8568999515588
 22
524.8429179567177
 32
0.0
 13
887.8568999515588
 23
524.8429179567177
 33
0.0
  0
SOLID
  5
90D
330
667
100
AcDbEntity
  8
P-0000
  6
Continuous
 62
     3
100
AcDbTrace
 10
886.8068999515587
 20
431.1429179567179
 30
0.0
 11
888.9068999515586
 21
431.1429179567179
 31
0.0
 12
887.8568999515588
 22
424.8429179567179
 32
0.0
 13
887.8568999515588
 23
424.8429179567179
 33
0.0
  0
POINT
  5
90E
330
667
100
AcDbEntity
  8
Defpoints
  6
Continuous
 62
     0
100
AcDbPoint
 10
907.5736759434889
 20
524.8429179567177
 30
0.0
  0
POINT
  5
90F
330
667
100
AcDbEntity
  8
Defpoints
  6
Continuous
 62
     0
100
AcDbPoint
 10
907.5736759434889
 20
424.8429179567178
 30
0.0
  0
POINT
  5
910
330
667
100
AcDbEntity
  8
Defpoints
  6
Continuous
 62
     0
100
AcDbPoint
 10
887.8568999515588
 20
424.8429179567179
 30
0.0
  0
ENDBLK
  5
672
330
667
100
AcDbEntity
  8
0
100
AcDbBlockEnd
  0
BLOCK
  5
67E
330
673
100
AcDbEntity
  8
0
100
AcDbBlockBegin
  2
*D55
 70
     1
 10
0.0
 20
0.0
 30
0.0
  3
*D55
  1

  0
LINE
  5
911
330
673
100
AcDbEntity
  8
P-0000
  6
Continuous
 62
     3
370
    -2
100
AcDbLine
 10
907.5736759434889
 20
372.3429179567306
 30
0.0
 11
850.1975103642303
 21
372.3429179567307
 31
0.0
  0
LINE
  5
912
330
673
100
AcDbEntity
  8
P-0000
  6
Continuous
 62
     3
370
    -2
100
AcDbLine
 10
907.5736759434889
 20
577.342917956705
 30
0.0
 11
850.1975103642303
 21
577.342917956705
 31
0.0
  0
LINE
  5
913
330
673
100
AcDbEntity
  8
P-0000
  6
Continuous
 62
     3
370
    -2
100
AcDbLine
 10
854.1975103642302
 20
378.6429179567307
 30
0.0
 11
854.1975103642302
 21
464.3090652571311
 31
0.0
  0
LINE
  5
914
330
673
100
AcDbEntity
  8
P-0000
  6
Continuous
 62
     3
370
    -2
100
AcDbLine
 10
854.1975103642302
 20
571.042917956705
 30
0.0
 11
854.1975103642302
 21
485.3767706563041
 31
0.0
  0
MTEXT
  5
915
330
673
100
AcDbEntity
  8
P-0000
  6
Continuous
 62
     2
100
AcDbMText
 10
861.6975103642303
 20
474.8429179567177
 30
0.0
 40
7.0
 41
0.0
 71
     5
 72
     1
  1
205
 11
0.0000000000000001
 21
1.0
 31
0.0
 73
     1
 44
1.0
1001
ACAD
1000
MTEXTBEGIN
1070
    73
1070
     1
1070
    44
1040
1.0
1070
    74
1070
     0
1000
MTEXTEND
  0
SOLID
  5
916
330
673
100
AcDbEntity
  8
P-0000
  6
Continuous
 62
     3
100
AcDbTrace
 10
853.1475103642303
 20
378.6429179567307
 30
0.0
 11
855.2475103642303
 21
378.6429179567307
 31
0.0
 12
854.1975103642302
 22
372.3429179567307
 32
0.0
 13
854.1975103642302
 23
372.3429179567307
 33
0.0
  0
SOLID
  5
917
330
673
100
AcDbEntity
  8
P-0000
  6
Continuous
 62
     3
100
AcDbTrace
 10
853.1475103642303
 20
571.042917956705
 30
0.0
 11
855.2475103642303
 21
571.042917956705
 31
0.0
 12
854.1975103642302
 22
577.342917956705
 32
0.0
 13
854.1975103642302
 23
577.342917956705
 33
0.0
  0
POINT
  5
918
330
673
100
AcDbEntity
  8
Defpoints
  6
Continuous
 62
     0
100
AcDbPoint
 10
907.5736759434889
 20
372.3429179567306
 30
0.0
  0
POINT
  5
919
330
673
100
AcDbEntity
  8
Defpoints
  6
Continuous
 62
     0
100
AcDbPoint
 10
907.5736759434889
 20
577.342917956705
 30
0.0
  0
POINT
  5
91A
330
673
100
AcDbEntity
  8
Defpoints
  6
Continuous
 62
     0
100
AcDbPoint
 10
854.1975103642302
 20
577.342917956705
 30
0.0
  0
ENDBLK
  5
67F
330
673
100
AcDbEntity
  8
0
100
AcDbBlockEnd
  0
BLOCK
  5
68A
330
680
100
AcDbEntity
  8
0
100
AcDbBlockBegin
  2
*D56
 70
     1
 10
0.0
 20
0.0
 30
0.0
  3
*D56
  1

  0
LINE
  5
91B
330
680
100
AcDbEntity
  8
P-0000
  6
Continuous
 62
     3
370
    -2
100
AcDbLine
 10
920.0736759434763
 20
564.8429179567178
 30
0.0
 11
864.6969397249263
 21
564.8429179567178
 31
0.0
  0
LINE
  5
91C
330
680
100
AcDbEntity
  8
P-0000
  6
Continuous
 62
     3
370
    -2
100
AcDbLine
 10
920.0736759434763
 20
384.8429179567179
 30
0.0
 11
864.6969397249263
 21
384.842917956718
 31
0.0
  0
LINE
  5
91D
330
680
100
AcDbEntity
  8
P-0000
  6
Continuous
 62
     3
370
    -2
100
AcDbLine
 10
868.6969397249264
 20
558.5429179567178
 30
0.0
 11
868.6969397249264
 21
391.1429179567179
 31
0.0
  0
MTEXT
  5
91E
330
680
100
AcDbEntity
  8
P-0000
  6
Continuous
 62
     2
100
AcDbMText
 10
878.471939724926
 20
472.6439633725698
 30
0.0
 40
7.0
 41
0.0
 71
     5
 72
     1
  1
180{}{\H0.60x;\C3;\S^ -0.5;}
 11
0.0000000000000001
 21
1.0
 31
0.0
 73
     1
 44
1.0
1001
ACAD
1000
MTEXTBEGIN
1070
    73
1070
     1
1070
    44
1040
1.0
1070
    74
1070
     0
1000
MTEXTEND
  0
SOLID
  5
91F
330
680
100
AcDbEntity
  8
P-0000
  6
Continuous
 62
     3
100
AcDbTrace
 10
867.6469397249263
 20
558.5429179567178
 30
0.0
 11
869.7469397249262
 21
558.5429179567178
 31
0.0
 12
868.6969397249264
 22
564.8429179567178
 32
0.0
 13
868.6969397249264
 23
564.8429179567178
 33
0.0
  0
SOLID
  5
920
330
680
100
AcDbEntity
  8
P-0000
  6
Continuous
 62
     3
100
AcDbTrace
 10
867.6469397249263
 20
391.1429179567179
 30
0.0
 11
869.7469397249262
 21
391.1429179567179
 31
0.0
 12
868.6969397249264
 22
384.842917956718
 32
0.0
 13
868.6969397249264
 23
384.842917956718
 33
0.0
  0
POINT
  5
921
330
680
100
AcDbEntity
  8
Defpoints
  6
Continuous
 62
     0
100
AcDbPoint
 10
920.0736759434763
 20
564.8429179567178
 30
0.0
  0
POINT
  5
922
330
680
100
AcDbEntity
  8
Defpoints
  6
Continuous
 62
     0
100
AcDbPoint
 10
920.0736759434763
 20
384.8429179567179
 30
0.0
  0
POINT
  5
923
330
680
100
AcDbEntity
  8
Defpoints
  6
Continuous
 62
     0
100
AcDbPoint
 10
868.6969397249264
 20
384.842917956718
 30
0.0
  0
ENDBLK
  5
68B
330
680
100
AcDbEntity
  8
0
100
AcDbBlockEnd
  0
BLOCK
  5
696
330
68C
100
AcDbEntity
  8
0
100
AcDbBlockBegin
  2
*D57
 70
     1
 10
0.0
 20
0.0
 30
0.0
  3
*D57
  1

  0
LINE
  5
924
330
68C
100
AcDbEntity
  8
P-0000
  6
Continuous
 62
     3
370
    -2
100
AcDbLine
 10
907.573675943489
 20
754.0239846299324
 30
0.0
 11
872.5228521255626
 21
754.0239846299324
 31
0.0
  0
LINE
  5
925
330
68C
100
AcDbEntity
  8
P-0000
  6
Continuous
 62
     3
370
    -2
100
AcDbLine
 10
907.5736759434889
 20
664.0239846299324
 30
0.0
 11
872.5228521255626
 21
664.0239846299324
 31
0.0
  0
LINE
  5
926
330
68C
100
AcDbEntity
  8
P-0000
  6
Continuous
 62
     3
370
    -2
100
AcDbLine
 10
876.5228521255625
 20
747.7239846299324
 30
0.0
 11
876.5228521255625
 21
670.3239846299323
 31
0.0
  0
MTEXT
  5
927
330
68C
100
AcDbEntity
  8
P-0000
  6
Continuous
 62
     2
100
AcDbMText
 10
884.0228521255626
 20
711.1978790699782
 30
0.0
 40
7.0
 41
0.0
 71
     5
 72
     1
  1
90
 11
0.0000000000000001
 21
1.0
 31
0.0
 73
     1
 44
1.0
1001
ACAD
1000
MTEXTBEGIN
1070
    73
1070
     1
1070
    44
1040
1.0
1070
    74
1070
     0
1000
MTEXTEND
  0
SOLID
  5
928
330
68C
100
AcDbEntity
  8
P-0000
  6
Continuous
 62
     3
100
AcDbTrace
 10
875.4728521255627
 20
747.7239846299324
 30
0.0
 11
877.5728521255626
 21
747.7239846299324
 31
0.0
 12
876.5228521255625
 22
754.0239846299324
 32
0.0
 13
876.5228521255625
 23
754.0239846299324
 33
0.0
  0
SOLID
  5
929
330
68C
100
AcDbEntity
  8
P-0000
  6
Continuous
 62
     3
100
AcDbTrace
 10
875.4728521255627
 20
670.3239846299323
 30
0.0
 11
877.5728521255626
 21
670.3239846299323
 31
0.0
 12
876.5228521255625
 22
664.0239846299324
 32
0.0
 13
876.5228521255625
 23
664.0239846299324
 33
0.0
  0
POINT
  5
92A
330
68C
100
AcDbEntity
  8
Defpoints
  6
Continuous
 62
     0
100
AcDbPoint
 10
907.573675943489
 20
754.0239846299324
 30
0.0
  0
POINT
  5
92B
330
68C
100
AcDbEntity
  8
Defpoints
  6
Continuous
 62
     0
100
AcDbPoint
 10
907.5736759434889
 20
664.0239846299324
 30
0.0
  0
POINT
  5
92C
330
68C
100
AcDbEntity
  8
Defpoints
  6
Continuous
 62
     0
100
AcDbPoint
 10
876.5228521255625
 20
664.0239846299324
 30
0.0
  0
ENDBLK
  5
697
330
68C
100
AcDbEntity
  8
0
100
AcDbBlockEnd
  0
BLOCK
  5
6A2
330
698
100
AcDbEntity
  8
0
100
AcDbBlockBegin
  2
*D58
 70
     1
 10
0.0
 20
0.0
 30
0.0
  3
*D58
  1

  0
LINE
  5
92D
330
698
100
AcDbEntity
  8
P-0000
  6
Continuous
 62
     3
370
    -2
100
AcDbLine
 10
935.0736759434763
 20
769.0239846299324
 30
0.0
 11
860.9585366258214
 21
769.0239846299324
 31
0.0
  0
LINE
  5
92E
330
698
100
AcDbEntity
  8
P-0000
  6
Continuous
 62
     3
370
    -2
100
AcDbLine
 10
915.5736759434889
 20
664.0239846299324
 30
0.0
 11
860.9585366258214
 21
664.0239846299324
 31
0.0
  0
LINE
  5
92F
330
698
100
AcDbEntity
  8
P-0000
  6
Continuous
 62
     3
370
    -2
100
AcDbLine
 10
864.9585366258213
 20
762.7239846299325
 30
0.0
 11
864.9585366258213
 21
670.3239846299323
 31
0.0
  0
MTEXT
  5
930
330
698
100
AcDbEntity
  8
P-0000
  6
Continuous
 62
     2
100
AcDbMText
 10
872.4585366258212
 20
710.8721237037886
 30
0.0
 40
7.0
 41
0.0
 71
     5
 72
     1
  1
105
 11
0.0000000000000001
 21
1.0
 31
0.0
 73
     1
 44
1.0
1001
ACAD
1000
MTEXTBEGIN
1070
    73
1070
     1
1070
    44
1040
1.0
1070
    74
1070
     0
1000
MTEXTEND
  0
SOLID
  5
931
330
698
100
AcDbEntity
  8
P-0000
  6
Continuous
 62
     3
100
AcDbTrace
 10
863.9085366258214
 20
762.7239846299325
 30
0.0
 11
866.0085366258213
 21
762.7239846299325
 31
0.0
 12
864.9585366258214
 22
769.0239846299324
 32
0.0
 13
864.9585366258214
 23
769.0239846299324
 33
0.0
  0
SOLID
  5
932
330
698
100
AcDbEntity
  8
P-0000
  6
Continuous
 62
     3
100
AcDbTrace
 10
863.9085366258214
 20
670.3239846299323
 30
0.0
 11
866.0085366258213
 21
670.3239846299323
 31
0.0
 12
864.9585366258213
 22
664.0239846299324
 32
0.0
 13
864.9585366258213
 23
664.0239846299324
 33
0.0
  0
POINT
  5
933
330
698
100
AcDbEntity
  8
Defpoints
  6
Continuous
 62
     0
100
AcDbPoint
 10
935.0736759434763
 20
769.0239846299324
 30
0.0
  0
POINT
  5
934
330
698
100
AcDbEntity
  8
Defpoints
  6
Continuous
 62
     0
100
AcDbPoint
 10
915.5736759434889
 20
664.0239846299324
 30
0.0
  0
POINT
  5
935
330
698
100
AcDbEntity
  8
Defpoints
  6
Continuous
 62
     0
100
AcDbPoint
 10
864.9585366258213
 20
664.0239846299324
 30
0.0
  0
ENDBLK
  5
6A3
330
698
100
AcDbEntity
  8
0
100
AcDbBlockEnd
  0
BLOCK
  5
6B0
330
6A4
100
AcDbEntity
  8
0
100
AcDbBlockBegin
  2
*D59
 70
     1
 10
0.0
 20
0.0
 30
0.0
  3
*D59
  1

  0
LINE
  5
936
330
6A4
100
AcDbEntity
  8
P-0000
  6
Continuous
 62
     3
370
    -2
100
AcDbLine
 10
935.0736759434763
 20
769.0239846299324
 30
0.0
 11
880.6667362803089
 21
769.0239846299324
 31
0.0
  0
LINE
  5
937
330
6A4
100
AcDbEntity
  8
P-0000
  6
Continuous
 62
     3
370
    -2
100
AcDbLine
 10
935.0736759434763
 20
764.0239846299324
 30
0.0
 11
880.6667362803088
 21
764.0239846299324
 31
0.0
  0
LINE
  5
938
330
6A4
100
AcDbEntity
  8
P-0000
  6
Continuous
 62
     3
370
    -2
100
AcDbLine
 10
884.6667362803088
 20
775.3239846299323
 30
0.0
 11
884.6667362803088
 21
781.6239846299325
 31
0.0
  0
LINE
  5
939
330
6A4
100
AcDbEntity
  8
P-0000
  6
Continuous
 62
     3
370
    -2
100
AcDbLine
 10
884.6667362803087
 20
757.7239846299325
 30
0.0
 11
884.6667362803087
 21
751.4239846299324
 31
0.0
  0
MTEXT
  5
93A
330
6A4
100
AcDbEntity
  8
P-0000
  6
Continuous
 62
     2
100
AcDbMText
 10
892.1667362803088
 20
774.0686647446206
 30
0.0
 40
7.0
 41
0.0
 71
     5
 72
     1
  1
5
 11
0.0000000000000001
 21
1.0
 31
0.0
 73
     1
 44
1.0
1001
ACAD
1000
MTEXTBEGIN
1070
    73
1070
     1
1070
    44
1040
1.0
1070
    74
1070
     0
1000
MTEXTEND
  0
LINE
  5
93B
330
6A4
100
AcDbEntity
  8
P-0000
  6
Continuous
 62
     3
370
    -2
100
AcDbLine
 10
884.6667362803088
 20
769.0239846299324
 30
0.0
 11
884.6667362803087
 21
764.0239846299324
 31
0.0
  0
SOLID
  5
93C
330
6A4
100
AcDbEntity
  8
P-0000
  6
Continuous
 62
     3
100
AcDbTrace
 10
883.616736280309
 20
775.3239846299323
 30
0.0
 11
885.7167362803089
 21
775.3239846299323
 31
0.0
 12
884.6667362803088
 22
769.0239846299324
 32
0.0
 13
884.6667362803088
 23
769.0239846299324
 33
0.0
  0
SOLID
  5
93D
330
6A4
100
AcDbEntity
  8
P-0000
  6
Continuous
 62
     3
100
AcDbTrace
 10
883.6167362803088
 20
757.7239846299325
 30
0.0
 11
885.7167362803087
 21
757.7239846299325
 31
0.0
 12
884.6667362803087
 22
764.0239846299324
 32
0.0
 13
884.6667362803087
 23
764.0239846299324
 33
0.0
  0
POINT
  5
93E
330
6A4
100
AcDbEntity
  8
Defpoints
  6
Continuous
 62
     0
100
AcDbPoint
 10
935.0736759434763
 20
769.0239846299324
 30
0.0
  0
POINT
  5
93F
330
6A4
100
AcDbEntity
  8
Defpoints
  6
Continuous
 62
     0
100
AcDbPoint
 10
935.0736759434763
 20
764.0239846299324
 30
0.0
  0
POINT
  5
940
330
6A4
100
AcDbEntity
  8
Defpoints
  6
Continuous
 62
     0
100
AcDbPoint
 10
884.6667362803087
 20
764.0239846299324
 30
0.0
  0
ENDBLK
  5
6B1
330
6A4
100
AcDbEntity
  8
0
100
AcDbBlockEnd
  0
BLOCK
  5
6BE
330
6B2
100
AcDbEntity
  8
0
100
AcDbBlockBegin
  2
*D60
 70
     1
 10
0.0
 20
0.0
 30
0.0
  3
*D60
  1

  0
LINE
  5
941
330
6B2
100
AcDbEntity
  8
P-0000
  6
Continuous
 62
     3
370
    -2
100
AcDbLine
 10
915.5736759434889
 20
524.8429179567177
 30
0.0
 11
915.5736759434889
 21
603.0674805672991
 31
0.0
  0
LINE
  5
942
330
6B2
100
AcDbEntity
  8
P-0000
  6
Continuous
 62
     3
370
    -2
100
AcDbLine
 10
907.5736759434889
 20
524.8429179567177
 30
0.0
 11
907.5736759434889
 21
603.0674805672991
 31
0.0
  0
LINE
  5
943
330
6B2
100
AcDbEntity
  8
P-0000
  6
Continuous
 62
     3
370
    -2
100
AcDbLine
 10
921.8736759434889
 20
599.0674805672991
 30
0.0
 11
928.173675943489
 21
599.0674805672991
 31
0.0
  0
LINE
  5
944
330
6B2
100
AcDbEntity
  8
P-0000
  6
Continuous
 62
     3
370
    -2
100
AcDbLine
 10
901.273675943489
 20
599.0674805672991
 30
0.0
 11
894.9736759434889
 21
599.0674805672991
 31
0.0
  0
MTEXT
  5
945
330
6B2
100
AcDbEntity
  8
P-0000
  6
Continuous
 62
     2
100
AcDbMText
 10
921.9627792502411
 20
606.5674805672991
 30
0.0
 40
7.0
 41
0.0
 71
     5
 72
     1
  1
7
 73
     1
 44
1.0
1001
ACAD
1000
MTEXTBEGIN
1070
    73
1070
     1
1070
    44
1040
1.0
1070
    74
1070
     0
1000
MTEXTEND
  0
LINE
  5
946
330
6B2
100
AcDbEntity
  8
P-0000
  6
Continuous
 62
     3
370
    -2
100
AcDbLine
 10
915.5736759434889
 20
599.0674805672991
 30
0.0
 11
907.5736759434889
 21
599.0674805672991
 31
0.0
  0
SOLID
  5
947
330
6B2
100
AcDbEntity
  8
P-0000
  6
Continuous
 62
     3
100
AcDbTrace
 10
921.8736759434889
 20
600.1174805672991
 30
0.0
 11
921.8736759434889
 21
598.0174805672992
 31
0.0
 12
915.5736759434889
 22
599.0674805672991
 32
0.0
 13
915.5736759434889
 23
599.0674805672991
 33
0.0
  0
SOLID
  5
948
330
6B2
100
AcDbEntity
  8
P-0000
  6
Continuous
 62
     3
100
AcDbTrace
 10
901.273675943489
 20
600.1174805672991
 30
0.0
 11
901.273675943489
 21
598.0174805672992
 31
0.0
 12
907.5736759434889
 22
599.0674805672991
 32
0.0
 13
907.5736759434889
 23
599.0674805672991
 33
0.0
  0
POINT
  5
949
330
6B2
100
AcDbEntity
  8
Defpoints
  6
Continuous
 62
     0
100
AcDbPoint
 10
915.5736759434889
 20
524.8429179567177
 30
0.0
  0
POINT
  5
94A
330
6B2
100
AcDbEntity
  8
Defpoints
  6
Continuous
 62
     0
100
AcDbPoint
 10
907.5736759434889
 20
524.8429179567177
 30
0.0
  0
POINT
  5
94B
330
6B2
100
AcDbEntity
  8
Defpoints
  6
Continuous
 62
     0
100
AcDbPoint
 10
907.5736759434889
 20
599.0674805672991
 30
0.0
  0
ENDBLK
  5
6BF
330
6B2
100
AcDbEntity
  8
0
100
AcDbBlockEnd
  0
BLOCK
  5
6C8
330
6C0
100
AcDbEntity
  8
0
100
AcDbBlockBegin
  2
*D61
 70
     1
 10
0.0
 20
0.0
 30
0.0
  3
*D61
  1

  0
LINE
  5
94C
330
6C0
100
AcDbEntity
  8
P-0000
  6
Continuous
 62
     3
370
    -2
100
AcDbLine
 10
1014.444564462289
 20
516.3132125488236
 30
0.0
 11
1013.942365408474
 21
511.5484278566639
 31
0.0
  0
LINE
  5
94D
330
6C0
100
AcDbEntity
  8
P-0000
  6
Continuous
 62
     3
370
    -2
100
AcDbLine
 10
1005.702787424662
 20
433.3726233646118
 30
0.0
 11
1011.597419942216
 21
489.2999584963489
 31
0.0
  0
MTEXT
  5
94E
330
6C0
100
AcDbEntity
  8
P-0000
  6
Continuous
 62
     2
100
AcDbMText
 10
1016.747858583461
 20
500.004923294606
 30
0.0
 40
7.0
 41
0.0
 71
     5
 72
     1
  1
\U+220596
 11
0.1048174704751429
 21
0.9944914770289349
 31
0.0
 73
     1
 44
1.0
1001
ACAD
1000
MTEXTBEGIN
1070
    73
1070
     1
1070
    44
1040
1.0
1070
    74
1070
     0
1000
MTEXTEND
  0
SOLID
  5
94F
330
6C0
100
AcDbEntity
  8
P-0000
  6
Continuous
 62
     3
100
AcDbTrace
 10
1013.400348411409
 20
516.4232708928225
 30
0.0
 11
1015.48878051317
 21
516.2031542048246
 31
0.0
 12
1015.104914526283
 22
522.5785088541058
 32
0.0
 13
1015.104914526283
 23
522.5785088541058
 33
0.0
  0
SOLID
  5
950
330
6C0
100
AcDbEntity
  8
P-0000
  6
Continuous
 62
     3
100
AcDbTrace
 10
1004.658571373782
 20
433.4826817086106
 30
0.0
 11
1006.747003475543
 21
433.2625650206129
 31
0.0
 12
1005.042437360669
 22
427.1073270593295
 32
0.0
 13
1005.042437360669
 23
427.1073270593295
 33
0.0
  0
POINT
  5
951
330
6C0
100
AcDbEntity
  8
Defpoints
  6
Continuous
 62
     0
100
AcDbPoint
 10
1005.042437360669
 20
427.1073270593295
 30
0.0
  0
POINT
  5
952
330
6C0
100
AcDbEntity
  8
Defpoints
  6
Continuous
 62
     0
100
AcDbPoint
 10
1015.104914526283
 20
522.5785088541058
 30
0.0
  0
ENDBLK
  5
6C9
330
6C0
100
AcDbEntity
  8
0
100
AcDbBlockEnd
  0
BLOCK
  5
6D4
330
6CA
100
AcDbEntity
  8
0
100
AcDbBlockBegin
  2
*D62
 70
     1
 10
0.0
 20
0.0
 30
0.0
  3
*D62
  1

  0
LINE
  5
953
330
6CA
100
AcDbEntity
  8
P-0000
  6
Continuous
 62
     3
370
    -2
100
AcDbLine
 10
973.5736759434763
 20
664.0239846299324
 30
0.0
 11
973.5736759434763
 21
626.8962773557874
 31
0.0
  0
LINE
  5
954
330
6CA
100
AcDbEntity
  8
P-0000
  6
Continuous
 62
     3
370
    -2
100
AcDbLine
 10
1046.573675943476
 20
664.0239846299324
 30
0.0
 11
1046.573675943476
 21
626.8962773557874
 31
0.0
  0
LINE
  5
955
330
6CA
100
AcDbEntity
  8
P-0000
  6
Continuous
 62
     3
370
    -2
100
AcDbLine
 10
979.8736759434762
 20
630.8962773557874
 30
0.0
 11
1040.273675943476
 21
630.8962773557874
 31
0.0
  0
MTEXT
  5
956
330
6CA
100
AcDbEntity
  8
P-0000
  6
Continuous
 62
     2
100
AcDbMText
 10
1010.073675943476
 20
640.671277355787
 30
0.0
 40
7.0
 41
0.0
 71
     5
 72
     1
  1
%%c73{}{\H0.60x;\C3;\S+0.3^ ;}
 73
     1
 44
1.0
1001
ACAD
1000
MTEXTBEGIN
1070
    73
1070
     1
1070
    44
1040
1.0
1070
    74
1070
     0
1000
MTEXTEND
  0
SOLID
  5
957
330
6CA
100
AcDbEntity
  8
P-0000
  6
Continuous
 62
     3
100
AcDbTrace
 10
979.8736759434762
 20
631.9462773557874
 30
0.0
 11
979.8736759434762
 21
629.8462773557875
 31
0.0
 12
973.5736759434763
 22
630.8962773557874
 32
0.0
 13
973.5736759434763
 23
630.8962773557874
 33
0.0
  0
SOLID
  5
958
330
6CA
100
AcDbEntity
  8
P-0000
  6
Continuous
 62
     3
100
AcDbTrace
 10
1040.273675943476
 20
631.9462773557874
 30
0.0
 11
1040.273675943476
 21
629.8462773557875
 31
0.0
 12
1046.573675943476
 22
630.8962773557874
 32
0.0
 13
1046.573675943476
 23
630.8962773557874
 33
0.0
  0
POINT
  5
959
330
6CA
100
AcDbEntity
  8
Defpoints
  6
Continuous
 62
     0
100
AcDbPoint
 10
973.5736759434763
 20
664.0239846299324
 30
0.0
  0
POINT
  5
95A
330
6CA
100
AcDbEntity
  8
Defpoints
  6
Continuous
 62
     0
100
AcDbPoint
 10
1046.573675943476
 20
664.0239846299324
 30
0.0
  0
POINT
  5
95B
330
6CA
100
AcDbEntity
  8
Defpoints
  6
Continuous
 62
     0
100
AcDbPoint
 10
1046.573675943476
 20
630.8962773557874
 30
0.0
  0
ENDBLK
  5
6D5
330
6CA
100
AcDbEntity
  8
0
100
AcDbBlockEnd
  0
ENDSEC
  0
SECTION
  2
ENTITIES
  0
DIMENSION
  5
3D5
330
1F
100
AcDbEntity
  8
P-0000
  6
Continuous
100
AcDbDimension
  2
*D34
 10
1112.573675943463
 20
887.9415957201914
 30
0.0
 11
1007.923681888647
 21
895.4415957201915
 31
0.0
 70
   160
  1
<>
 71
     5
 42
204.9999999999751
  3
661N88102_001_0093643228
100
AcDbAlignedDimension
 13
907.5736759434875
 23
945.5094159318285
 33
0.0
 14
1112.573675943463
 24
945.5094159318285
 34
0.0
100
AcDbRotatedDimension
1001
ACAD
1000
DSTYLE
1002
{
1070
   279
1070
     2
1070
   288
1070
     1
1002
}
1001
ACME_LAYERS
1000
1
  0
DIMENSION
  5
3DA
330
1F
100
AcDbEntity
  8
P-0000
  6
Continuous
100
AcDbDimension
  2
*D35
 10
1100.073675943475
 20
906.065882421061
 30
0.0
 11
1001.709640734063
 21
915.840882421061
 31
0.0
 70
   160
  1
<>{}{\H0.60x;\C3;\S+0.5^ ;}
 71
     5
 42
180.0
  3
6613688102_001_0093643228
100
AcDbAlignedDimension
 13
920.073675943475
 23
958.0094159318159
 33
0.0
 14
1100.073675943475
 24
958.0094159318159
 34
0.0
100
AcDbRotatedDimension
1001
ACAD
1000
DSTYLE
1002
{
1070
   279
1070
     2
1070
   288
1070
     1
1002
}
1001
ACME_LAYERS
1000
1
  0
LINE
  5
3DB
330
1F
100
AcDbEntity
  8
P-0000
  6
STRICHPUNKT
 62
     3
100
AcDbLine
 10
1112.573675943463
 20
1048.009415931816
 30
0.0
 11
907.5736759434876
 21
1048.009415931816
 31
0.0
1001
ACME_LAYERS
1000
1
  0
LINE
  5
3DC
330
1F
100
AcDbEntity
  8
P-0000
  6
Continuous
 62
     7
100
AcDbLine
 10
907.5736759434876
 20
1150.509415931804
 30
0.0
 11
1010.073675943475
 21
1150.509415931803
 31
0.0
1001
ACME_LAYERS
1000
1
  0
LINE
  5
3DD
330
1F
100
AcDbEntity
  8
P-0000
  6
Continuous
 62
     7
100
AcDbLine
 10
1010.073675943475
 20
945.5094159318285
 30
0.0
 11
907.5736759434875
 21
945.5094159318285
 31
0.0
1001
ACME_LAYERS
1000
1
  0
LINE
  5
3DE
330
1F
100
AcDbEntity
  8
P-0000
  6
Continuous
 62
     7
100
AcDbLine
 10
973.5736759434729
 20
1241.56348447708
 30
0.0
 11
935.0736759434742
 21
1241.56348447708
 31
0.0
1001
ACME_LAYERS
1000
1
  0
LINE
  5
3DF
330
1F
100
AcDbEntity
  8
P-0000
  6
STRICHLINIE
 62
     2
100
AcDbLine
 10
920.073675943475
 20
958.0094159318159
 30
0.0
 11
1100.073675943475
 21
958.0094159318159
 31
0.0
1001
ACME_LAYERS
1000
1
  0
LINE
  5
3E0
330
1F
100
AcDbEntity
  8
P-0000
  6
STRICHLINIE
 62
     2
100
AcDbLine
 10
1100.073675943475
 20
1138.009415931816
 30
0.0
 11
920.073675943475
 21
1138.009415931816
 31
0.0
1001
ACME_LAYERS
1000
1
  0
LINE
  5
3E1
330
1F
100
AcDbEntity
  8
P-0000
  6
Continuous
 62
     7
100
AcDbLine
 10
1100.073675943475
 20
1236.56348447708
 30
0.0
 11
935.0736759434742
 21
1236.56348447708
 31
0.0
1001
ACME_LAYERS
1000
1
  0
LINE
  5
3E2
330
1F
100
AcDbEntity
  8
P-0000
  6
Continuous
 62
     7
100
AcDbLine
 10
946.0736759434761
 20
1386.563484477094
 30
0.0
 11
963.0736759434746
 21
1386.563484477094
 31
0.0
1001
ACME_LAYERS
1000
1
  0
DIMENSION
  5
3E3
330
1F
100
AcDbEntity
  8
P-0000
  6
Continuous
100
AcDbDimension
  2
*D36
 10
888.3013516581502
 20
1369.563484477104
 30
0.0
 11
895.8013516581502
 21
1378.063484477099
 31
0.0
 70
   160
  1
<>
 71
     5
 42
16.99999999999045
  3
661N88102_001_0093643228
100
AcDbAlignedDimension
 13
963.0736759434746
 23
1386.563484477094
 33
0.0
 14
956.5736759434759
 24
1369.563484477104
 34
0.0
 50
270.0
100
AcDbRotatedDimension
1001
ACAD
1000
DSTYLE
1002
{
1070
   279
1070
     2
1070
   288
1070
     1
1002
}
1001
ACME_LAYERS
1000
1
  0
HATCH
  5
3E4
330
1F
100
AcDbEntity
  8
P-0000
  6
Continuous
 62
     3
100
AcDbHatch
 10
0.0
 20
0.0
 30
0.0
210
0.0
220
0.0
230
1.0
  2
_U
 70
     0
 71
     0
 91
        1
 92
        1
 93
       13
 72
     1
 10
915.5736759434876
 20
1347.56348447708
 11
915.5736759434876
 21
1236.563484477081
 72
     1
 10
915.5736759434876
 20
1236.563484477081
 11
935.0736759434743
 21
1236.563484477081
 72
     1
 10
935.0736759434742
 20
1236.56348447708
 11
935.0736759434742
 21
1241.56348447708
 72
     1
 10
935.0736759434742
 20
1241.56348447708
 11
973.5736759434729
 21
1241.56348447708
 72
     1
 10
973.5736759434729
 20
1241.56348447708
 11
973.5736759434747
 21
1263.56348447708
 72
     1
 10
973.5736759434747
 20
1263.56348447708
 11
967.5736759434746
 21
1263.56348447708
 72
     1
 10
967.5736759434746
 20
1263.56348447708
 11
967.5736759434746
 21
1369.563484477104
 72
     1
 10
967.5736759434746
 20
1369.563484477104
 11
969.2099570673185
 21
1369.563484477104
 72
     1
 10
969.2099570673185
 20
1369.563484477104
 11
956.5736759434759
 21
1369.563484477104
 72
     1
 10
956.5736759434759
 20
1369.563484477104
 11
956.5736759434768
 21
1386.563484477077
 72
     1
 10
956.5736759434768
 20
1386.563484477077
 11
907.5736759434876
 21
1386.563484477077
 72
     1
 10
907.5736759434876
 20
1386.563484477077
 11
907.5736759434876
 21
1347.56348447708
 72
     1
 10
907.5736759434876
 20
1347.56348447708
 11
915.5736759434876
 21
1347.56348447708
 97
        0
 75
     0
 76
     0
 52
-45.00000000000001
 41
5.0
 77
     0
 78
     1
 53
315.0
 43
1161.834117444741
 44
999.3136323657685
 45
3.535533905932738
 46
3.535533905932736
 79
     0
 98
        1
 10
1161.834117444741
 20
999.3136323657685
1001
ACME_LAYERS
1000
1
  0
HATCH
  5
3E5
330
1F
100
AcDbEntity
  8
P-0000
  6
Continuous
 62
     3
100
AcDbHatch
 10
0.0
 20
0.0
 30
0.0
210
0.0
220
0.0
230
1.0
  2
_U
 70
     0
 71
     0
 91
        1
 92
        1
 93
       13
 72
     1
 10
915.5736759434876
 20
1347.56348447708
 11
915.5736759434876
 21
1236.563484477081
 72
     1
 10
915.5736759434876
 20
1236.563484477081
 11
935.0736759434743
 21
1236.563484477081
 72
     1
 10
935.0736759434742
 20
1236.56348447708
 11
935.0736759434742
 21
1241.56348447708
 72
     1
 10
935.0736759434742
 20
1241.56348447708
 11
973.5736759434729
 21
1241.56348447708
 72
     1
 10
973.5736759434729
 20
1241.56348447708
 11
973.5736759434747
 21
1263.56348447708
 72
     1
 10
973.5736759434747
 20
1263.56348447708
 11
967.5736759434746
 21
1263.56348447708
 72
     1
 10
967.5736759434746
 20
1263.56348447708
 11
967.5736759434746
 21
1369.563484477104
 72
     1
 10
967.5736759434746
 20
1369.563484477104
 11
969.2099570673185
 21
1369.563484477104
 72
     1
 10
969.2099570673185
 20
1369.563484477104
 11
956.5736759434759
 21
1369.563484477104
 72
     1
 10
956.5736759434759
 20
1369.563484477104
 11
956.5736759434768
 21
1386.563484477077
 72
     1
 10
956.5736759434768
 20
1386.563484477077
 11
907.5736759434876
 21
1386.563484477077
 72
     1
 10
907.5736759434876
 20
1386.563484477077
 11
907.5736759434876
 21
1347.56348447708
 72
     1
 10
907.5736759434876
 20
1347.56348447708
 11
915.5736759434876
 21
1347.56348447708
 97
        0
 75
     0
 76
     0
 52
44.99999999999999
 41
5.0
 77
     0
 78
     1
 53
44.99999999999999
 43
1161.834117444741
 44
999.3136323657685
 45
-3.535533905932736
 46
3.535533905932738
 79
     0
 98
        1
 10
1161.834117444741
 20
999.3136323657685
1001
ACME_LAYERS
1000
1
  0
DIMENSION
  5
3E6
330
1F
100
AcDbEntity
  8
P-0000
  6
Continuous
100
AcDbDimension
  2
*D37
 10
876.5415206290422
 20
1263.56348447708
 30
0.0
 11
884.0415206290421
 21
1312.397498343388
 31
0.0
 70
   160
  1
<>
 71
     5
 42
123.0000000000175
  3
661N88102_001_0093643228
100
AcDbAlignedDimension
 13
966.0736759434746
 23
1386.563484477097
 33
0.0
 14
973.5736759434747
 24
1263.56348447708
 34
0.0
 50
270.0
100
AcDbRotatedDimension
1001
ACAD
1000
DSTYLE
1002
{
1070
   279
1070
     2
1070
   288
1070
     1
1002
}
1001
ACME_LAYERS
1000
1
  0
DIMENSION
  5
3E7
330
1F
100
AcDbEntity
  8
P-0000
  6
Continuous
100
AcDbDimension
  2
*D38
 10
854.690995878184
 20
1236.56348447708
 30
0.0
 11
862.1909958781841
 21
1308.755744218246
 31
0.0
 70
   160
  1
<>
 71
     5
 42
150.0000000000141
  3
661N88102_001_0093643228
100
AcDbAlignedDimension
 13
963.0736759434746
 23
1386.563484477094
 33
0.0
 14
935.0736759434742
 24
1236.56348447708
 34
0.0
 50
270.0
100
AcDbRotatedDimension
1001
ACAD
1000
DSTYLE
1002
{
1070
   279
1070
     2
1070
   288
1070
     1
1002
}
1001
ACME_LAYERS
1000
1
  0
LINE
  5
3EA
330
1F
100
AcDbEntity
  8
P-0000
  6
Continuous
 62
     7
100
AcDbLine
 10
915.5736759434876
 20
1347.56348447708
 30
0.0
 11
915.5736759434876
 21
1236.563484477081
 31
0.0
1001
ACME_LAYERS
1000
1
  0
LINE
  5
3EB
330
1F
100
AcDbEntity
  8
P-0000
  6
Continuous
 62
     7
100
AcDbLine
 10
907.5736759434876
 20
1347.56348447708
 30
0.0
 11
907.5736759434876
 21
1236.563484477081
 31
0.0
1001
ACME_LAYERS
1000
1
  0
LINE
  5
3EF
330
1F
100
AcDbEntity
  8
P-0000
  6
Continuous
 62
     7
100
AcDbLine
 10
907.5736759434876
 20
1386.563484477077
 30
0.0
 11
907.5736759434876
 21
1347.56348447708
 31
0.0
1001
ACME_LAYERS
1000
1
  0
LINE
  5
3F0
330
1F
100
AcDbEntity
  8
P-0000
  6
Continuous
 62
     7
100
AcDbLine
 10
912.5736759434728
 20
1386.563484477077
 30
0.0
 11
926.0736759434747
 21
1386.563484477077
 31
0.0
1001
ACME_LAYERS
1000
1
  0
LINE
  5
3F1
330
1F
100
AcDbEntity
  8
P-0000
  6
Continuous
 62
     7
100
AcDbLine
 10
907.5736759434876
 20
1386.563484477077
 30
0.0
 11
908.3348790035632
 21
1386.563484477079
 31
0.0
1001
ACME_LAYERS
1000
1
  0
LINE
  5
3F2
330
1F
100
AcDbEntity
  8
P-0000
  6
Continuous
 62
     7
100
AcDbLine
 10
908.3348790035632
 20
1386.563484477079
 30
0.0
 11
917.2160642863714
 21
1386.563484477079
 31
0.0
1001
ACME_LAYERS
1000
1
  0
LINE
  5
3F3
330
1F
100
AcDbEntity
  8
P-0000
  6
Continuous
 62
     7
100
AcDbLine
 10
926.0736759434747
 20
1386.563484477077
 30
0.0
 11
946.0736759434761
 21
1386.563484477094
 31
0.0
1001
ACME_LAYERS
1000
1
  0
LINE
  5
3F4
330
1F
100
AcDbEntity
  8
P-0000
  6
Continuous
 62
     7
100
AcDbLine
 10
943.5694046271553
 20
1392.78301655121
 30
0.0
 11
943.5736759434679
 21
1392.766852798619
 31
0.0
1001
ACME_LAYERS
1000
1
  0
LINE
  5
3F5
330
1F
100
AcDbEntity
  8
P-0000
  6
Continuous
 62
     7
100
AcDbLine
 10
915.5736759434876
 20
1347.56348447708
 30
0.0
 11
907.5736759434876
 21
1347.56348447708
 31
0.0
1001
ACME_LAYERS
1000
1
  0
DIMENSION
  5
3F7
330
1F
100
AcDbEntity
  8
P-0000
  6
Continuous
100
AcDbDimension
  2
*D39
 10
854.1975103642281
 20
1150.509415931804
 30
0.0
 11
861.6975103642282
 21
1048.009415931816
 31
0.0
 70
   160
  1
<>
 71
     5
 42
204.9999999999752
  3
661N88102_001_0093643228
100
AcDbAlignedDimension
 13
907.5736759434875
 23
945.5094159318285
 33
0.0
 14
907.5736759434876
 24
1150.509415931804
 34
0.0
 50
270.0
100
AcDbRotatedDimension
1001
ACAD
1000
DSTYLE
1002
{
1070
   279
1070
     2
1070
   288
1070
     1
1002
}
1001
ACME_LAYERS
1000
1
  0
DIMENSION
  5
3F8
330
1F
100
AcDbEntity
  8
P-0000
  6
Continuous
100
AcDbDimension
  2
*D40
 10
887.8568999515561
 20
998.0094159318159
 30
0.0
 11
895.3568999515562
 21
1048.009415931816
 31
0.0
 70
   160
  1
<>
 71
     5
 42
100.0
  3
661N88102_001_0093643228
100
AcDbAlignedDimension
 13
907.5736759434876
 23
1098.009415931816
 33
0.0
 14
907.5736759434875
 24
998.0094159318159
 34
0.0
 50
270.0
100
AcDbRotatedDimension
1001
ACAD
1000
DSTYLE
1002
{
1070
   279
1070
     2
1070
   288
1070
     1
1002
}
1001
ACME_LAYERS
1000
1
  0
DIMENSION
  5
3F9
330
1F
100
AcDbEntity
  8
P-0000
  6
Continuous
100
AcDbDimension
  2
*D41
 10
868.6969397249232
 20
958.0094159318159
 30
0.0
 11
878.4719397249231
 21
1045.810461347667
 31
0.0
 70
   160
  1
<>{}{\H0.60x;\C3;\S+0.5^ ;}
 71
     5
 42
180.0
  3
6613688102_001_0093643228
100
AcDbAlignedDimension
 13
920.073675943475
 23
1138.009415931816
 33
0.0
 14
920.073675943475
 24
958.0094159318159
 34
0.0
 50
270.0
100
AcDbRotatedDimension
1001
ACAD
1000
DSTYLE
1002
{
1070
   279
1070
     2
1070
   288
1070
     1
1002
}
1001
ACME_LAYERS
1000
1
  0
LINE
  5
3FB
330
1F
100
AcDbEntity
  8
P-0000
  6
Continuous
 62
     7
100
AcDbLine
 10
907.5736759434876
 20
1048.009415931816
 30
0.0
 11
907.5736759434876
 21
1098.009415931816
 31
0.0
1001
ACME_LAYERS
1000
1
  0
LINE
  5
3FC
330
1F
100
AcDbEntity
  8
P-0000
  6
STRICHLINIE
 62
     2
100
AcDbLine
 10
915.5736759434876
 20
1098.009415931816
 30
0.0
 11
915.5736759434875
 21
998.0094159318159
 31
0.0
1001
ACME_LAYERS
1000
1
  0
LINE
  5
3FD
330
1F
100
AcDbEntity
  8
P-0000
  6
STRICHLINIE
 62
     2
100
AcDbLine
 10
920.073675943475
 20
1138.009415931816
 30
0.0
 11
920.073675943475
 21
958.0094159318159
 31
0.0
1001
ACME_LAYERS
1000
1
  0
DIMENSION
  5
3FF
330
1F
100
AcDbEntity
  8
P-0000
  6
Continuous
100
AcDbDimension
  2
*D43
 10
886.556344473186
 20
1241.56348447708
 30
0.0
 11
894.0563444731861
 21
1230.458030527669
 31
0.0
 70
   160
  1
<>
 71
     5
 42
4.999999999999772
  3
661N88102_001_0093643228
100
AcDbAlignedDimension
 13
915.5736759434876
 23
1236.563484477081
 33
0.0
 14
935.0736759434742
 24
1241.56348447708
 34
0.0
 50
270.0
100
AcDbRotatedDimension
1001
ACAD
1000
DSTYLE
1002
{
1070
   279
1070
     2
1070
   288
1070
     1
1002
}
1001
ACME_LAYERS
1000
1
  0
LINE
  5
400
330
1F
100
AcDbEntity
  8
P-0000
  6
Continuous
 62
     7
100
AcDbLine
 10
935.0736759434742
 20
1236.56348447708
 30
0.0
 11
915.5736759434876
 21
1236.563484477081
 31
0.0
1001
ACME_LAYERS
1000
1
  0
LINE
  5
401
330
1F
100
AcDbEntity
  8
P-0000
  6
Continuous
 62
     7
100
AcDbLine
 10
915.5736759434876
 20
1236.563484477081
 30
0.0
 11
907.5736759434876
 21
1236.563484477081
 31
0.0
1001
ACME_LAYERS
1000
1
  0
LINE
  5
402
330
1F
100
AcDbEntity
  8
P-0000
  6
Continuous
 62
     7
100
AcDbLine
 10
935.0736759434742
 20
1241.56348447708
 30
0.0
 11
935.0736759434742
 21
1236.56348447708
 31
0.0
1001
ACME_LAYERS
1000
1
  0
LINE
  5
403
330
1F
100
AcDbEntity
  8
P-0000
  6
Continuous
 62
     7
100
AcDbLine
 10
907.5736759434876
 20
1098.009415931816
 30
0.0
 11
907.5736759434876
 21
1150.509415931804
 31
0.0
1001
ACME_LAYERS
1000
1
  0
LINE
  5
404
330
1F
100
AcDbEntity
  8
P-0000
  6
STRICHLINIE
 62
     2
100
AcDbLine
 10
915.5736759434876
 20
1098.009415931816
 30
0.0
 11
907.5736759434876
 21
1098.009415931816
 31
0.0
1001
ACME_LAYERS
1000
1
  0
LINE
  5
405
330
1F
100
AcDbEntity
  8
P-0000
  6
Continuous
 62
     7
100
AcDbLine
 10
907.5736759434875
 20
945.5094159318285
 30
0.0
 11
907.5736759434875
 21
998.0094159318159
 31
0.0
1001
ACME_LAYERS
1000
1
  0
LINE
  5
406
330
1F
100
AcDbEntity
  8
P-0000
  6
Continuous
 62
     7
100
AcDbLine
 10
907.5736759434875
 20
998.0094159318159
 30
0.0
 11
907.5736759434876
 21
1048.009415931816
 31
0.0
1001
ACME_LAYERS
1000
1
  0
LINE
  5
407
330
1F
100
AcDbEntity
  8
P-0000
  6
STRICHLINIE
 62
     2
100
AcDbLine
 10
907.5736759434875
 20
998.0094159318159
 30
0.0
 11
915.5736759434875
 21
998.0094159318159
 31
0.0
1001
ACME_LAYERS
1000
1
  0
HATCH
  5
40A
330
1F
100
AcDbEntity
  8
P-0000
  6
Continuous
 62
     3
100
AcDbHatch
 10
0.0
 20
0.0
 30
0.0
210
0.0
220
0.0
230
1.0
  2
_U
 70
     0
 71
     0
 91
        1
 92
        1
 93
        4
 72
     1
 10
1046.573675943474
 20
1263.56348447708
 11
1054.573675943473
 21
1263.56348447708
 72
     1
 10
1054.573675943473
 20
1263.56348447708
 11
1054.573675943473
 21
1241.56348447708
 72
     1
 10
1054.573675943473
 20
1241.56348447708
 11
1046.573675943474
 21
1241.56348447708
 72
     1
 10
1046.573675943474
 20
1241.56348447708
 11
1046.573675943474
 21
1263.56348447708
 97
        0
 75
     0
 76
     0
 52
-45.00000000000001
 41
5.0
 77
     0
 78
     1
 53
315.0
 43
1161.834117444741
 44
999.3136323657685
 45
3.535533905932738
 46
3.535533905932736
 79
     0
 98
        1
 10
1161.834117444741
 20
999.3136323657685
1001
ACME_LAYERS
1000
1
  0
HATCH
  5
40B
330
1F
100
AcDbEntity
  8
P-0000
  6
Continuous
 62
     3
100
AcDbHatch
 10
0.0
 20
0.0
 30
0.0
210
0.0
220
0.0
230
1.0
  2
_U
 70
     0
 71
     0
 91
        1
 92
        1
 93
        4
 72
     1
 10
1046.573675943474
 20
1263.56348447708
 11
1054.573675943473
 21
1263.56348447708
 72
     1
 10
1054.573675943473
 20
1263.56348447708
 11
1054.573675943473
 21
1241.56348447708
 72
     1
 10
1054.573675943473
 20
1241.56348447708
 11
1046.573675943474
 21
1241.56348447708
 72
     1
 10
1046.573675943474
 20
1241.56348447708
 11
1046.573675943474
 21
1263.56348447708
 97
        0
 75
     0
 76
     0
 52
44.99999999999999
 41
5.0
 77
     0
 78
     1
 53
44.99999999999999
 43
1161.834117444741
 44
999.3136323657685
 45
-3.535533905932736
 46
3.535533905932738
 79
     0
 98
        1
 10
1161.834117444741
 20
999.3136323657685
1001
ACME_LAYERS
1000
1
  0
HATCH
  5
40C
330
1F
100
AcDbEntity
  8
P-0000
  6
Continuous
 62
     3
100
AcDbHatch
 10
0.0
 20
0.0
 30
0.0
210
0.0
220
0.0
230
1.0
  2
_U
 70
     0
 71
     0
 91
        1
 92
        1
 93
        4
 72
     1
 10
1054.573675943473
 20
1263.56348447708
 11
1054.573675943473
 21
1241.56348447708
 72
     1
 10
1054.573675943473
 20
1241.56348447708
 11
1061.573675943472
 21
1241.56348447708
 72
     1
 10
1061.573675943472
 20
1241.56348447708
 11
1061.573675943473
 21
1263.56348447708
 72
     1
 10
1061.573675943473
 20
1263.56348447708
 11
1054.573675943473
 21
1263.56348447708
 97
        0
 75
     0
 76
     0
 52
-45.00000000000001
 41
5.0
 77
     0
 78
     1
 53
315.0
 43
1161.834117444741
 44
999.3136323657685
 45
3.535533905932738
 46
3.535533905932736
 79
     0
 98
        1
 10
1161.834117444741
 20
999.3136323657685
1001
ACME_LAYERS
1000
1
  0
HATCH
  5
40D
330
1F
100
AcDbEntity
  8
P-0000
  6
Continuous
 62
     3
100
AcDbHatch
 10
0.0
 20
0.0
 30
0.0
210
0.0
220
0.0
230
1.0
  2
_U
 70
     0
 71
     0
 91
        1
 92
        1
 93
        4
 72
     1
 10
1054.573675943473
 20
1263.56348447708
 11
1054.573675943473
 21
1241.56348447708
 72
     1
 10
1054.573675943473
 20
1241.56348447708
 11
1061.573675943472
 21
1241.56348447708
 72
     1
 10
1061.573675943472
 20
1241.56348447708
 11
1061.573675943473
 21
1263.56348447708
 72
     1
 10
1061.573675943473
 20
1263.56348447708
 11
1054.573675943473
 21
1263.56348447708
 97
        0
 75
     0
 76
     0
 52
44.99999999999999
 41
5.0
 77
     0
 78
     1
 53
44.99999999999999
 43
1161.834117444741
 44
999.3136323657685
 45
-3.535533905932736
 46
3.535533905932738
 79
     0
 98
        1
 10
1161.834117444741
 20
999.3136323657685
1001
ACME_LAYERS
1000
1
  0
LINE
  5
40E
330
1F
100
AcDbEntity
  8
P-0000
  6
STRICHLINIE
 62
     2
100
AcDbLine
 10
1054.573675943473
 20
1263.56348447708
 30
0.0
 11
1054.573675943473
 21
1241.56348447708
 31
0.0
1001
ACME_LAYERS
1000
1
  0
LINE
  5
40F
330
1F
100
AcDbEntity
  8
P-0000
  6
STRICHLINIE
 62
     2
100
AcDbLine
 10
1061.573675943473
 20
1263.56348447708
 30
0.0
 11
1061.573675943473
 21
1248.56348447708
 31
0.0
1001
ACME_LAYERS
1000
1
  0
LINE
  5
410
330
1F
100
AcDbEntity
  8
P-0000
  6
Continuous
 62
     7
100
AcDbLine
 10
1046.573675943474
 20
1241.56348447708
 30
0.0
 11
1046.573675943474
 21
1263.56348447708
 31
0.0
1001
ACME_LAYERS
1000
1
  0
LINE
  5
411
330
1F
100
AcDbEntity
  8
P-0000
  6
Continuous
 62
     7
100
AcDbLine
 10
973.5736759434781
 20
1263.56348447708
 30
0.0
 11
973.5736759434729
 21
1241.56348447708
 31
0.0
1001
ACME_LAYERS
1000
1
  0
LINE
  5
412
330
1F
100
AcDbEntity
  8
P-0000
  6
STRICHPUNKT
 62
     3
100
AcDbLine
 10
1010.073675943476
 20
1263.56348447708
 30
0.0
 11
1010.073675943474
 21
1224.203260174409
 31
0.0
1001
ACME_LAYERS
1000
1
  0
HATCH
  5
413
330
1F
100
AcDbEntity
  8
P-0000
  6
Continuous
 62
     3
100
AcDbHatch
 10
0.0
 20
0.0
 30
0.0
210
0.0
220
0.0
230
1.0
  2
_U
 70
     0
 71
     0
 91
        1
 92
        1
 93
       10
 72
     1
 10
1112.573675943461
 20
1347.56348447708
 11
1112.57367594347
 21
1386.563484477081
 72
     1
 10
1112.57367594347
 20
1386.56348447708
 11
1063.573675943475
 21
1386.563484477077
 72
     1
 10
1063.573675943475
 20
1386.563484477077
 11
1063.573675943475
 21
1263.56348447708
 72
     1
 10
1063.573675943475
 20
1263.56348447708
 11
1061.573675943473
 21
1263.56348447708
 72
     1
 10
1061.573675943473
 20
1263.56348447708
 11
1061.573675943472
 21
1241.56348447708
 72
     1
 10
1061.573675943472
 20
1241.56348447708
 11
1100.073675943475
 21
1241.56348447708
 72
     1
 10
1100.073675943475
 20
1241.56348447708
 11
1100.073675943475
 21
1236.56348447708
 72
     1
 10
1100.073675943475
 20
1236.56348447708
 11
1104.573675943461
 21
1236.56348447708
 72
     1
 10
1104.573675943461
 20
1236.56348447708
 11
1104.573675943461
 21
1347.56348447708
 72
     1
 10
1104.573675943461
 20
1347.56348447708
 11
1112.573675943461
 21
1347.56348447708
 97
        0
 75
     0
 76
     0
 52
-45.00000000000001
 41
5.0
 77
     0
 78
     1
 53
315.0
 43
1161.834117444741
 44
999.3136323657685
 45
3.535533905932738
 46
3.535533905932736
 79
     0
 98
        1
 10
1161.834117444741
 20
999.3136323657685
1001
ACME_LAYERS
1000
1
  0
HATCH
  5
414
330
1F
100
AcDbEntity
  8
P-0000
  6
Continuous
 62
     3
100
AcDbHatch
 10
0.0
 20
0.0
 30
0.0
210
0.0
220
0.0
230
1.0
  2
_U
 70
     0
 71
     0
 91
        1
 92
        1
 93
       10
 72
     1
 10
1112.573675943461
 20
1347.56348447708
 11
1112.57367594347
 21
1386.563484477081
 72
     1
 10
1112.57367594347
 20
1386.56348447708
 11
1063.573675943475
 21
1386.563484477077
 72
     1
 10
1063.573675943475
 20
1386.563484477077
 11
1063.573675943475
 21
1263.56348447708
 72
     1
 10
1063.573675943475
 20
1263.56348447708
 11
1061.573675943473
 21
1263.56348447708
 72
     1
 10
1061.573675943473
 20
1263.56348447708
 11
1061.573675943472
 21
1241.56348447708
 72
     1
 10
1061.573675943472
 20
1241.56348447708
 11
1100.073675943475
 21
1241.56348447708
 72
     1
 10
1100.073675943475
 20
1241.56348447708
 11
1100.073675943475
 21
1236.56348447708
 72
     1
 10
1100.073675943475
 20
1236.56348447708
 11
1104.573675943461
 21
1236.56348447708
 72
     1
 10
1104.573675943461
 20
1236.56348447708
 11
1104.573675943461
 21
1347.56348447708
 72
     1
 10
1104.573675943461
 20
1347.56348447708
 11
1112.573675943461
 21
1347.56348447708
 97
        0
 75
     0
 76
     0
 52
44.99999999999999
 41
5.0
 77
     0
 78
     1
 53
44.99999999999999
 43
1161.834117444741
 44
999.3136323657685
 45
-3.535533905932736
 46
3.535533905932738
 79
     0
 98
        1
 10
1161.834117444741
 20
999.3136323657685
1001
ACME_LAYERS
1000
1
  0
DIMENSION
  5
415
330
1F
100
AcDbEntity
  8
P-0000
  6
Continuous
100
AcDbDimension
  2
*D44
 10
1127.367335998274
 20
1347.56348447708
 30
0.0
 11
1134.867335998274
 21
1289.636535061244
 31
0.0
 70
   160
  1
110
 71
     5
 42
110.9999999999993
  3
661N88102_001_0093643228
100
AcDbAlignedDimension
 13
1100.073675943475
 23
1236.56348447708
 33
0.0
 14
1112.573675943461
 24
1347.56348447708
 34
0.0
 50
270.0
100
AcDbRotatedDimension
1001
ACAD
1000
DSTYLE
1002
{
1070
   279
1070
     2
1070
   288
1070
     1
1002
}
1001
ACME_LAYERS
1000
1
  0
LINE
  5
416
330
1F
100
AcDbEntity
  8
P-0000
  6
Continuous
 62
     7
100
AcDbLine
 10
1112.57367594347
 20
1386.56348447708
 30
0.0
 11
1112.573675943462
 21
1236.56348447708
 31
0.0
1001
ACME_LAYERS
1000
1
  0
LINE
  5
417
330
1F
100
AcDbEntity
  8
P-0000
  6
Continuous
 62
     7
100
AcDbLine
 10
1104.573675943461
 20
1236.56348447708
 30
0.0
 11
1104.573675943461
 21
1347.56348447708
 31
0.0
1001
ACME_LAYERS
1000
1
  0
LINE
  5
418
330
1F
100
AcDbEntity
  8
P-0000
  6
Continuous
 62
     7
100
AcDbLine
 10
1104.573675943461
 20
1236.56348447708
 30
0.0
 11
1104.573675943461
 21
1347.56348447708
 31
0.0
1001
ACME_LAYERS
1000
1
  0
LINE
  5
41C
330
1F
100
AcDbEntity
  8
P-0000
  6
Continuous
 62
     7
100
AcDbLine
 10
1074.073675943476
 20
1386.563484477077
 30
0.0
 11
1092.511467412958
 21
1386.563484477077
 31
0.0
1001
ACME_LAYERS
1000
1
  0
LINE
  5
41D
330
1F
100
AcDbEntity
  8
P-0000
  6
Continuous
 62
     7
100
AcDbLine
 10
967.5736759434746
 20
1369.563484477104
 30
0.0
 11
967.5736759434746
 21
1263.56348447708
 31
0.0
1001
ACME_LAYERS
1000
1
  0
LINE
  5
41E
330
1F
100
AcDbEntity
  8
P-0000
  6
Continuous
 62
     7
100
AcDbLine
 10
1063.573675943475
 20
1263.56348447708
 30
0.0
 11
1063.573675943475
 21
1386.563484477077
 31
0.0
1001
ACME_LAYERS
1000
1
  0
LINE
  5
41F
330
1F
100
AcDbEntity
  8
P-0000
  6
Continuous
 62
     7
100
AcDbLine
 10
1010.073675943476
 20
1369.563484477104
 30
0.0
 11
1010.073675943476
 21
1263.56348447708
 31
0.0
1001
ACME_LAYERS
1000
1
  0
LINE
  5
420
330
1F
100
AcDbEntity
  8
P-0000
  6
STRICHPUNKT
 62
     3
100
AcDbLine
 10
1010.073675943476
 20
1369.563484477104
 30
0.0
 11
1010.073675943476
 21
1263.56348447708
 31
0.0
1001
ACME_LAYERS
1000
1
  0
LINE
  5
423
330
1F
100
AcDbEntity
  8
P-0000
  6
Continuous
 62
     7
100
AcDbLine
 10
1010.073675943476
 20
1386.563484477097
 30
0.0
 11
1054.073675943475
 21
1386.563484477097
 31
0.0
1001
ACME_LAYERS
1000
1
  0
LINE
  5
424
330
1F
100
AcDbEntity
  8
P-0000
  6
Continuous
 62
     7
100
AcDbLine
 10
969.2099570673185
 20
1369.563484477104
 30
0.0
 11
1010.073675943476
 21
1369.563484477104
 31
0.0
1001
ACME_LAYERS
1000
1
  0
LINE
  5
425
330
1F
100
AcDbEntity
  8
P-0000
  6
Continuous
 62
     7
100
AcDbLine
 10
966.0736759434746
 20
1386.563484477097
 30
0.0
 11
1010.073675943476
 21
1386.563484477097
 31
0.0
1001
ACME_LAYERS
1000
1
  0
LINE
  5
426
330
1F
100
AcDbEntity
  8
P-0000
  6
Continuous
 62
     7
100
AcDbLine
 10
956.5736759434759
 20
1369.563484477104
 30
0.0
 11
956.5736759434768
 21
1386.563484477077
 31
0.0
1001
ACME_LAYERS
1000
1
  0
LINE
  5
427
330
1F
100
AcDbEntity
  8
P-0000
  6
Continuous
 62
     7
100
AcDbLine
 10
963.0736759434746
 20
1386.563484477094
 30
0.0
 11
966.0736759434746
 21
1386.563484477097
 31
0.0
1001
ACME_LAYERS
1000
1
  0
LINE
  5
428
330
1F
100
AcDbEntity
  8
P-0000
  6
Continuous
 62
     7
100
AcDbLine
 10
967.5736759434746
 20
1369.563484477104
 30
0.0
 11
969.2099570673185
 21
1369.563484477104
 31
0.0
1001
ACME_LAYERS
1000
1
  0
LINE
  5
429
330
1F
100
AcDbEntity
  8
P-0000
  6
Continuous
 62
     7
100
AcDbLine
 10
956.5736759434759
 20
1369.563484477104
 30
0.0
 11
967.5736759434746
 21
1369.563484477104
 31
0.0
1001
ACME_LAYERS
1000
1
  0
LINE
  5
42A
330
1F
100
AcDbEntity
  8
P-0000
  6
Continuous
 62
     7
100
AcDbLine
 10
1010.073675943476
 20
1386.563484477097
 30
0.0
 11
1010.073675943476
 21
1369.563484477104
 31
0.0
1001
ACME_LAYERS
1000
1
  0
LINE
  5
42B
330
1F
100
AcDbEntity
  8
P-0000
  6
STRICHPUNKT
 62
     3
100
AcDbLine
 10
1010.073675943476
 20
1386.563484477097
 30
0.0
 11
1010.073675943476
 21
1369.563484477104
 31
0.0
1001
ACME_LAYERS
1000
1
  0
LINE
  5
42C
330
1F
100
AcDbEntity
  8
P-0000
  6
STRICHPUNKT
 62
     3
100
AcDbLine
 10
1010.073675943476
 20
1394.227074243141
 30
0.0
 11
1010.073675943476
 21
1386.563484477097
 31
0.0
1001
ACME_LAYERS
1000
1
  0
LINE
  5
42D
330
1F
100
AcDbEntity
  8
P-0000
  6
STRICHPUNKT
 62
     3
100
AcDbLine
 10
1010.073675943474
 20
1364.705361708134
 30
0.0
 11
1010.073675943474
 21
1364.2495483493
 31
0.0
1001
ACME_LAYERS
1000
1
  0
LINE
  5
42E
330
1F
100
AcDbEntity
  8
P-0000
  6
Continuous
 62
     7
100
AcDbLine
 10
1054.073675943475
 20
1386.563484477077
 30
0.0
 11
1074.073675943476
 21
1386.563484477077
 31
0.0
1001
ACME_LAYERS
1000
1
  0
LINE
  5
42F
330
1F
100
AcDbEntity
  8
P-0000
  6
Continuous
 62
     7
100
AcDbLine
 10
1046.573675943474
 20
1263.56348447708
 30
0.0
 11
1010.073675943476
 21
1263.56348447708
 31
0.0
1001
ACME_LAYERS
1000
1
  0
LINE
  5
430
330
1F
100
AcDbEntity
  8
P-0000
  6
Continuous
 62
     7
100
AcDbLine
 10
1010.073675943476
 20
1263.56348447708
 30
0.0
 11
973.5736759434781
 21
1263.56348447708
 31
0.0
1001
ACME_LAYERS
1000
1
  0
LINE
  5
431
330
1F
100
AcDbEntity
  8
P-0000
  6
Continuous
 62
     7
100
AcDbLine
 10
973.5736759434747
 20
1263.56348447708
 30
0.0
 11
967.5736759434746
 21
1263.56348447708
 31
0.0
1001
ACME_LAYERS
1000
1
  0
LINE
  5
432
330
1F
100
AcDbEntity
  8
P-0000
  6
Continuous
 62
     7
100
AcDbLine
 10
1046.573675943474
 20
1263.56348447708
 30
0.0
 11
1054.573675943473
 21
1263.56348447708
 31
0.0
1001
ACME_LAYERS
1000
1
  0
LINE
  5
433
330
1F
100
AcDbEntity
  8
P-0000
  6
Continuous
 62
     7
100
AcDbLine
 10
1061.573675943473
 20
1263.56348447708
 30
0.0
 11
1063.573675943475
 21
1263.56348447708
 31
0.0
1001
ACME_LAYERS
1000
1
  0
LINE
  5
434
330
1F
100
AcDbEntity
  8
P-0000
  6
Continuous
 62
     7
100
AcDbLine
 10
1054.573675943473
 20
1263.56348447708
 30
0.0
 11
1061.573675943473
 21
1263.56348447708
 31
0.0
1001
ACME_LAYERS
1000
1
  0
LINE
  5
435
330
1F
100
AcDbEntity
  8
P-0000
  6
Continuous
 62
     7
100
AcDbLine
 10
1094.073675943473
 20
1386.563484477077
 30
0.0
 11
1107.573675943473
 21
1386.56348447708
 31
0.0
1001
ACME_LAYERS
1000
1
  0
LINE
  5
436
330
1F
100
AcDbEntity
  8
P-0000
  6
Continuous
 62
     7
100
AcDbLine
 10
1092.511467412958
 20
1386.563484477077
 30
0.0
 11
1094.073675943473
 21
1386.563484477077
 31
0.0
1001
ACME_LAYERS
1000
1
  0
LINE
  5
437
330
1F
100
AcDbEntity
  8
P-0000
  6
Continuous
 62
     7
100
AcDbLine
 10
1102.931287600579
 20
1386.563484477079
 30
0.0
 11
1112.57367594347
 21
1386.56348447708
 31
0.0
1001
ACME_LAYERS
1000
1
  0
LINE
  5
438
330
1F
100
AcDbEntity
  8
P-0000
  6
Continuous
 62
     7
100
AcDbLine
 10
1112.573675943461
 20
1347.56348447708
 30
0.0
 11
1104.573675943461
 21
1347.56348447708
 31
0.0
1001
ACME_LAYERS
1000
1
  0
DIMENSION
  5
43A
330
1F
100
AcDbEntity
  8
P-0000
  6
Continuous
100
AcDbDimension
  2
*D48
 10
1017.896427601582
 20
1000.651158399517
 30
0.0
 11
1000.955027442123
 21
1069.987437358864
 31
0.0
 70
   163
  1
<>
 71
     5
 42
96.00000000000022
  3
661N88102_001_0093643228
100
AcDbDiametricDimension
 15
1002.250924285367
 25
1095.367673464115
 35
0.0
 40
0.0
1001
ACAD
1000
DSTYLE
1002
{
1070
   279
1070
     2
1070
   288
1070
     1
1002
}
1001
ACME_LAYERS
1000
1
  0
LINE
  5
43B
330
1F
100
AcDbEntity
  8
P-0000
  6
STRICHPUNKT
 62
     3
100
AcDbLine
 10
1010.073675943475
 20
1011.509415931815
 30
0.0
 11
1010.073675943475
 21
1084.509415931816
 31
0.0
1001
ACME_LAYERS
1000
1
  0
ARC
  5
43C
330
1F
100
AcDbEntity
  8
P-0000
  6
Continuous
 62
     7
100
AcDbCircle
 10
1010.073675943475
 20
1048.009415931816
 30
0.0
 40
42.50000000000053
100
AcDbArc
 50
90.0
 51
270.0
1001
ACME_LAYERS
1000
1
  0
ARC
  5
43D
330
1F
100
AcDbEntity
  8
P-0000
  6
Continuous
 62
     7
100
AcDbCircle
 10
1010.073675943475
 20
1048.009415931816
 30
0.0
 40
53.49999999999917
100
AcDbArc
 50
90.0
 51
270.0
1001
ACME_LAYERS
1000
1
  0
ARC
  5
43E
330
1F
100
AcDbEntity
  8
P-0000
  6
Continuous
 62
     7
100
AcDbCircle
 10
1010.073675943475
 20
1048.009415931816
 30
0.0
 40
53.49999999999918
100
AcDbArc
 50
270.0
 51
90.0
1001
ACME_LAYERS
1000
1
  0
ARC
  5
43F
330
1F
100
AcDbEntity
  8
P-0000
  6
Continuous
 62
     7
100
AcDbCircle
 10
1010.073675943475
 20
1048.009415931816
 30
0.0
 40
36.50000000000054
100
AcDbArc
 50
90.0
 51
270.0
1001
ACME_LAYERS
1000
1
  0
ARC
  5
440
330
1F
100
AcDbEntity
  8
P-0000
  6
Continuous
 62
     7
100
AcDbCircle
 10
1010.073675943475
 20
1048.009415931816
 30
0.0
 40
36.50000000000054
100
AcDbArc
 50
270.0
 51
90.0
1001
ACME_LAYERS
1000
1
  0
LINE
  5
441
330
1F
100
AcDbEntity
  8
P-0000
  6
Continuous
 62
     7
100
AcDbLine
 10
1112.573675943463
 20
1150.509415931803
 30
0.0
 11
1112.573675943463
 21
1048.009415931816
 31
0.0
1001
ACME_LAYERS
1000
1
  0
LINE
  5
442
330
1F
100
AcDbEntity
  8
P-0000
  6
STRICHLINIE
 62
     2
100
AcDbLine
 10
1104.573675943463
 20
998.0094159318159
 30
0.0
 11
1104.573675943463
 21
1098.009415931816
 31
0.0
1001
ACME_LAYERS
1000
1
  0
LINE
  5
443
330
1F
100
AcDbEntity
  8
P-0000
  6
STRICHLINIE
 62
     2
100
AcDbLine
 10
1100.073675943475
 20
958.0094159318159
 30
0.0
 11
1100.073675943475
 21
1138.009415931816
 31
0.0
1001
ACME_LAYERS
1000
1
  0
LINE
  5
444
330
1F
100
AcDbEntity
  8
P-0000
  6
Continuous
 62
     7
100
AcDbLine
 10
1010.073675943475
 20
1150.509415931803
 30
0.0
 11
1112.573675943463
 21
1150.509415931803
 31
0.0
1001
ACME_LAYERS
1000
1
  0
LINE
  5
445
330
1F
100
AcDbEntity
  8
P-0000
  6
Continuous
 62
     7
100
AcDbLine
 10
1091.573675943473
 20
1241.56348447708
 30
0.0
 11
1084.573675943473
 21
1241.56348447708
 31
0.0
1001
ACME_LAYERS
1000
1
  0
DIMENSION
  5
446
330
1F
100
AcDbEntity
  8
P-0000
  6
Continuous
100
AcDbDimension
  2
*D49
 10
973.5736759434729
 20
1209.028053051035
 30
0.0
 11
1010.073675943473
 21
1218.803053051035
 31
0.0
 70
   160
  1
%%c<>{}{\H0.60x;\C3;\S+0.3^ ;}
 71
     5
 42
73.00000000000171
  3
6613488102_001_0093643228
100
AcDbAlignedDimension
 13
1046.573675943474
 23
1241.56348447708
 33
0.0
 14
973.5736759434729
 24
1241.56348447708
 34
0.0
100
AcDbRotatedDimension
1001
ACAD
1000
DSTYLE
1002
{
1070
   279
1070
     2
1070
   288
1070
     1
1002
}
1001
ACME_LAYERS
1000
1
  0
LINE
  5
447
330
1F
100
AcDbEntity
  8
P-0000
  6
Continuous
 62
     7
100
AcDbLine
 10
1046.573675943474
 20
1241.56348447708
 30
0.0
 11
973.5736759434729
 21
1241.56348447708
 31
0.0
1001
ACME_LAYERS
1000
1
  0
LINE
  5
448
330
1F
100
AcDbEntity
  8
P-0000
  6
Continuous
 62
     7
100
AcDbLine
 10
1054.573675943473
 20
1241.56348447708
 30
0.0
 11
1046.573675943474
 21
1241.56348447708
 31
0.0
1001
ACME_LAYERS
1000
1
  0
LINE
  5
449
330
1F
100
AcDbEntity
  8
P-0000
  6
Continuous
 62
     7
100
AcDbLine
 10
1076.573675943474
 20
1241.56348447708
 30
0.0
 11
1054.573675943473
 21
1241.56348447708
 31
0.0
1001
ACME_LAYERS
1000
1
  0
LINE
  5
44A
330
1F
100
AcDbEntity
  8
P-0000
  6
STRICHLINIE
 62
     2
100
AcDbLine
 10
1061.573675943473
 20
1248.56348447708
 30
0.0
 11
1061.573675943472
 21
1241.56348447708
 31
0.0
1001
ACME_LAYERS
1000
1
  0
LINE
  5
44B
330
1F
100
AcDbEntity
  8
P-0000
  6
Continuous
 62
     7
100
AcDbLine
 10
1084.573675943473
 20
1241.56348447708
 30
0.0
 11
1076.573675943474
 21
1241.56348447708
 31
0.0
1001
ACME_LAYERS
1000
1
  0
LINE
  5
44C
330
1F
100
AcDbEntity
  8
P-0000
  6
STRICHLINIE
 62
     2
100
AcDbLine
 10
1060.073675943475
 20
1142.509415931804
 30
0.0
 11
960.0736759434751
 21
1142.509415931804
 31
0.0
1001
ACME_LAYERS
1000
1
  0
LINE
  5
44D
330
1F
100
AcDbEntity
  8
P-0000
  6
STRICHPUNKT
 62
     3
100
AcDbLine
 10
1010.073675943475
 20
1101.509415931815
 30
0.0
 11
1010.073675943475
 21
1157.455878072103
 31
0.0
1001
ACME_LAYERS
1000
1
  0
LINE
  5
44E
330
1F
100
AcDbEntity
  8
P-0000
  6
STRICHLINIE
 62
     2
100
AcDbLine
 10
960.0736759434751
 20
1150.509415931804
 30
0.0
 11
960.0736759434751
 21
1142.509415931804
 31
0.0
1001
ACME_LAYERS
1000
1
  0
LINE
  5
44F
330
1F
100
AcDbEntity
  8
P-0000
  6
Continuous
 62
     7
100
AcDbLine
 10
1010.073675943475
 20
1101.509415931815
 30
0.0
 11
1010.073675943475
 21
1084.509415931816
 31
0.0
1001
ACME_LAYERS
1000
1
  0
LINE
  5
450
330
1F
100
AcDbEntity
  8
P-0000
  6
STRICHPUNKT
 62
     3
100
AcDbLine
 10
1010.073675943475
 20
1084.509415931816
 30
0.0
 11
1010.073675943475
 21
1101.509415931815
 31
0.0
1001
ACME_LAYERS
1000
1
  0
LINE
  5
451
330
1F
100
AcDbEntity
  8
P-0000
  6
Continuous
 62
     7
100
AcDbLine
 10
1010.073675943475
 20
1101.509415931815
 30
0.0
 11
1010.073675943475
 21
1084.509415931816
 31
0.0
1001
ACME_LAYERS
1000
1
  0
LINE
  5
452
330
1F
100
AcDbEntity
  8
P-0000
  6
STRICHLINIE
 62
     2
100
AcDbLine
 10
1060.073675943475
 20
1142.509415931804
 30
0.0
 11
1060.073675943475
 21
1150.509415931803
 31
0.0
1001
ACME_LAYERS
1000
1
  0
LINE
  5
453
330
1F
100
AcDbEntity
  8
P-0000
  6
Continuous
 62
     7
100
AcDbLine
 10
1100.073675943475
 20
1241.56348447708
 30
0.0
 11
1100.073675943475
 21
1236.56348447708
 31
0.0
1001
ACME_LAYERS
1000
1
  0
LINE
  5
454
330
1F
100
AcDbEntity
  8
P-0000
  6
Continuous
 62
     7
100
AcDbLine
 10
1100.073675943475
 20
1241.56348447708
 30
0.0
 11
1091.573675943473
 21
1241.56348447708
 31
0.0
1001
ACME_LAYERS
1000
1
  0
LINE
  5
455
330
1F
100
AcDbEntity
  8
P-0000
  6
Continuous
 62
     7
100
AcDbLine
 10
1112.573675943462
 20
1236.56348447708
 30
0.0
 11
1100.073675943475
 21
1236.56348447708
 31
0.0
1001
ACME_LAYERS
1000
1
  0
LINE
  5
456
330
1F
100
AcDbEntity
  8
P-0000
  6
STRICHLINIE
 62
     2
100
AcDbLine
 10
1112.573675943463
 20
1098.009415931816
 30
0.0
 11
1104.573675943463
 21
1098.009415931816
 31
0.0
1001
ACME_LAYERS
1000
1
  0
LINE
  5
457
330
1F
100
AcDbEntity
  8
P-0000
  6
Continuous
 62
     7
100
AcDbLine
 10
1112.573675943463
 20
945.5094159318285
 30
0.0
 11
1010.073675943475
 21
945.5094159318285
 31
0.0
1001
ACME_LAYERS
1000
1
  0
LINE
  5
459
330
1F
100
AcDbEntity
  8
P-0000
  6
STRICHPUNKT
 62
     3
100
AcDbLine
 10
1010.073675943475
 20
968.0094159318135
 30
0.0
 11
1010.073675943475
 21
994.5094159318168
 31
0.0
1001
ACME_LAYERS
1000
1
  0
ARC
  5
45B
330
1F
100
AcDbEntity
  8
P-0000
  6
STRICHPUNKT
 62
     3
100
AcDbCircle
 10
1010.073675943475
 20
1048.009415931816
 30
0.0
 40
48.0
100
AcDbArc
 50
262.9104961017485
 51
295.8486234339154
1001
ACME_LAYERS
1000
1
  0
LINE
  5
45C
330
1F
100
AcDbEntity
  8
P-0000
  6
STRICHPUNKT
 62
     3
100
AcDbLine
 10
1010.073675943475
 20
1005.509415931815
 30
0.0
 11
1010.073675943475
 21
1011.509415931815
 31
0.0
1001
ACME_LAYERS
1000
1
  0
LINE
  5
45D
330
1F
100
AcDbEntity
  8
P-0000
  6
Continuous
 62
     7
100
AcDbLine
 10
1010.073675943475
 20
1011.509415931815
 30
0.0
 11
1010.073675943475
 21
994.5094159318168
 31
0.0
1001
ACME_LAYERS
1000
1
  0
LINE
  5
45E
330
1F
100
AcDbEntity
  8
P-0000
  6
STRICHPUNKT
 62
     3
100
AcDbLine
 10
1018.292452206282
 20
985.5816123320325
 30
0.0
 11
1014.421495580383
 21
1014.984447043385
 31
0.0
1001
ACME_LAYERS
1000
1
  0
LINE
  5
45F
330
1F
100
AcDbEntity
  8
P-0000
  6
STRICHPUNKT
 62
     3
100
AcDbLine
 10
1010.073675943475
 20
994.5094159318168
 30
0.0
 11
1010.073675943475
 21
1005.509415931815
 31
0.0
1001
ACME_LAYERS
1000
1
  0
CIRCLE
  5
460
330
1F
100
AcDbEntity
  8
P-0000
  6
Continuous
 62
     7
100
AcDbCircle
 10
1016.338933170037
 20
1000.420062585873
 30
0.0
 40
3.5
1001
ACME_LAYERS
1000
1
  0
ARC
  5
461
330
1F
100
AcDbEntity
  8
P-0000
  6
Continuous
 62
     7
100
AcDbCircle
 10
980.0736759434762
 20
1048.009415931816
 30
0.0
 40
66.49999999999939
100
AcDbArc
 50
357.4143504492105
 51
2.585649550789433
1001
ACME_LAYERS
1000
1
  0
LINE
  5
462
330
1F
100
AcDbEntity
  8
P-1B8A
  6
STRICHPUNKT
 62
     3
100
AcDbLine
 10
1065.573675943476
 20
1048.009415931816
 30
0.0
 11
1082.573675943476
 21
1048.009415931816
 31
0.0
1001
ACME_LAYERS
1000
1
  0
LINE
  5
463
330
1F
100
AcDbEntity
  8
P-0000
  6
STRICHLINIE
 62
     2
100
AcDbLine
 10
960.0736759434751
 20
953.5094159318283
 30
0.0
 11
1060.073675943475
 21
953.5094159318283
 31
0.0
1001
ACME_LAYERS
1000
1
  0
LINE
  5
464
330
1F
100
AcDbEntity
  8
P-0000
  6
STRICHLINIE
 62
     2
100
AcDbLine
 10
960.0736759434751
 20
953.5094159318283
 30
0.0
 11
960.0736759434751
 21
945.5094159318285
 31
0.0
1001
ACME_LAYERS
1000
1
  0
LINE
  5
465
330
1F
100
AcDbEntity
  8
P-0000
  6
STRICHPUNKT
 62
     3
100
AcDbLine
 10
1010.073675943475
 20
945.5094159318285
 30
0.0
 11
1010.073675943475
 21
968.0094159318135
 31
0.0
1001
ACME_LAYERS
1000
1
  0
LINE
  5
466
330
1F
100
AcDbEntity
  8
P-0000
  6
STRICHLINIE
 62
     2
100
AcDbLine
 10
1060.073675943475
 20
945.5094159318283
 30
0.0
 11
1060.073675943475
 21
953.5094159318283
 31
0.0
1001
ACME_LAYERS
1000
1
  0
LINE
  5
467
330
1F
100
AcDbEntity
  8
P-0000
  6
Continuous
 62
     7
100
AcDbLine
 10
1112.573675943463
 20
1048.009415931816
 30
0.0
 11
1112.573675943463
 21
945.5094159318285
 31
0.0
1001
ACME_LAYERS
1000
1
  0
LINE
  5
468
330
1F
100
AcDbEntity
  8
P-0000
  6
STRICHLINIE
 62
     2
100
AcDbLine
 10
1104.573675943463
 20
998.0094159318159
 30
0.0
 11
1112.573675943463
 21
998.0094159318159
 31
0.0
1001
ACME_LAYERS
1000
1
  0
HATCH
  5
46A
330
1F
100
AcDbEntity
  8
P-0000
  6
Continuous
 62
     3
100
AcDbHatch
 10
0.0
 20
0.0
 30
0.0
210
0.0
220
0.0
230
1.0
  2
_U
 70
     0
 71
     0
 91
        1
 92
        1
 93
        8
 72
     1
 10
973.5736759434745
 20
769.0239846299324
 11
973.5736759434763
 21
664.0239846299324
 72
     1
 10
973.5736759434763
 20
664.0239846299324
 11
915.5736759434889
 21
664.0239846299324
 72
     1
 10
915.5736759434889
 20
664.0239846299324
 11
915.5736759434889
 21
754.0239846299324
 72
     1
 10
915.5736759434891
 20
754.0239846299324
 11
907.573675943489
 21
754.0239846299324
 72
     1
 10
907.573675943489
 20
754.0239846299324
 11
907.573675943489
 21
764.0239846299324
 72
     1
 10
907.573675943489
 20
764.0239846299324
 11
935.0736759434763
 21
764.0239846299324
 72
     1
 10
935.0736759434763
 20
764.0239846299324
 11
935.0736759434763
 21
769.0239846299324
 72
     1
 10
935.0736759434763
 20
769.0239846299324
 11
973.5736759434745
 21
769.0239846299324
 97
        0
 75
     0
 76
     0
 52
-45.00000000000001
 41
5.0
 77
     0
 78
     1
 53
315.0
 43
1161.834117444741
 44
999.3136323657685
 45
3.535533905932738
 46
3.535533905932736
 79
     0
 98
        1
 10
1161.834117444741
 20
999.3136323657685
1001
ACME_LAYERS
1000
1
  0
HATCH
  5
46B
330
1F
100
AcDbEntity
  8
P-0000
  6
Continuous
 62
     3
100
AcDbHatch
 10
0.0
 20
0.0
 30
0.0
210
0.0
220
0.0
230
1.0
  2
_U
 70
     0
 71
     0
 91
        1
 92
        1
 93
        8
 72
     1
 10
973.5736759434745
 20
769.0239846299324
 11
973.5736759434763
 21
664.0239846299324
 72
     1
 10
973.5736759434763
 20
664.0239846299324
 11
915.5736759434889
 21
664.0239846299324
 72
     1
 10
915.5736759434889
 20
664.0239846299324
 11
915.5736759434889
 21
754.0239846299324
 72
     1
 10
915.5736759434891
 20
754.0239846299324
 11
907.573675943489
 21
754.0239846299324
 72
     1
 10
907.573675943489
 20
754.0239846299324
 11
907.573675943489
 21
764.0239846299324
 72
     1
 10
907.573675943489
 20
764.0239846299324
 11
935.0736759434763
 21
764.0239846299324
 72
     1
 10
935.0736759434763
 20
764.0239846299324
 11
935.0736759434763
 21
769.0239846299324
 72
     1
 10
935.0736759434763
 20
769.0239846299324
 11
973.5736759434745
 21
769.0239846299324
 97
        0
 75
     0
 76
     0
 52
44.99999999999999
 41
5.0
 77
     0
 78
     1
 53
44.99999999999999
 43
1161.834117444741
 44
999.3136323657685
 45
-3.535533905932736
 46
3.535533905932738
 79
     0
 98
        1
 10
1161.834117444741
 20
999.3136323657685
1001
ACME_LAYERS
1000
1
  0
DIMENSION
  5
46C
330
1F
100
AcDbEntity
  8
P-0000
  6
Continuous
100
AcDbDimension
  2
*D52
 10
1100.073675943476
 20
332.8993844459642
 30
0.0
 11
1001.709640734064
 21
342.6743844459638
 31
0.0
 70
   160
  1
<>{}{\H0.60x;\C3;\S^ -0.5;}
 71
     5
 42
180.0
  3
6613588102_001_0093643228
100
AcDbAlignedDimension
 13
920.0736759434763
 23
384.8429179567179
 33
0.0
 14
1100.073675943476
 24
384.8429179567179
 34
0.0
100
AcDbRotatedDimension
1001
ACAD
1000
DSTYLE
1002
{
1070
   279
1070
     2
1070
   288
1070
     1
1002
}
1001
ACME_LAYERS
1000
1
  0
DIMENSION
  5
46D
330
1F
100
AcDbEntity
  8
P-0000
  6
Continuous
100
AcDbDimension
  2
*D53
 10
1112.573675943463
 20
314.7750977450946
 30
0.0
 11
1007.923681888649
 21
322.2750977450946
 31
0.0
 70
   160
  1
<>
 71
     5
 42
204.9999999999745
  3
661N88102_001_0093643228
100
AcDbAlignedDimension
 13
907.5736759434889
 23
372.3429179567306
 33
0.0
 14
1112.573675943463
 24
372.3429179567306
 34
0.0
100
AcDbRotatedDimension
1001
ACAD
1000
DSTYLE
1002
{
1070
   279
1070
     2
1070
   288
1070
     1
1002
}
1001
ACME_LAYERS
1000
1
  0
LINE
  5
46E
330
1F
100
AcDbEntity
  8
P-0000
  6
STRICHPUNKT
 62
     3
100
AcDbLine
 10
1112.573675943463
 20
474.8429179567177
 30
0.0
 11
907.5736759434889
 21
474.8429179567177
 31
0.0
1001
ACME_LAYERS
1000
1
  0
LINE
  5
46F
330
1F
100
AcDbEntity
  8
P-0000
  6
Continuous
 62
     7
100
AcDbLine
 10
907.5736759434889
 20
577.342917956705
 30
0.0
 11
1010.073675943476
 21
577.342917956705
 31
0.0
1001
ACME_LAYERS
1000
1
  0
LINE
  5
470
330
1F
100
AcDbEntity
  8
P-0000
  6
Continuous
 62
     7
100
AcDbLine
 10
1010.073675943476
 20
372.3429179567306
 30
0.0
 11
907.5736759434889
 21
372.3429179567306
 31
0.0
1001
ACME_LAYERS
1000
1
  0
LINE
  5
471
330
1F
100
AcDbEntity
  8
P-0000
  6
Continuous
 62
     7
100
AcDbLine
 10
920.0736759434763
 20
384.8429179567179
 30
0.0
 11
1100.073675943476
 21
384.8429179567179
 31
0.0
1001
ACME_LAYERS
1000
1
  0
LINE
  5
472
330
1F
100
AcDbEntity
  8
P-0000
  6
Continuous
 62
     7
100
AcDbLine
 10
1100.073675943476
 20
564.8429179567178
 30
0.0
 11
920.0736759434763
 21
564.8429179567178
 31
0.0
1001
ACME_LAYERS
1000
1
  0
LINE
  5
473
330
1F
100
AcDbEntity
  8
P-0000
  6
Continuous
 62
     7
100
AcDbLine
 10
973.5736759434745
 20
769.0239846299324
 30
0.0
 11
935.0736759434763
 21
769.0239846299324
 31
0.0
1001
ACME_LAYERS
1000
1
  0
LINE
  5
474
330
1F
100
AcDbEntity
  8
P-0000
  6
Continuous
 62
     7
100
AcDbLine
 10
973.5736759434763
 20
664.0239846299324
 30
0.0
 11
915.5736759434889
 21
664.0239846299324
 31
0.0
1001
ACME_LAYERS
1000
1
  0
LINE
  5
477
330
1F
100
AcDbEntity
  8
P-0000
  6
Continuous
 62
     7
100
AcDbLine
 10
907.5736759434889
 20
474.8429179567177
 30
0.0
 11
907.5736759434889
 21
524.8429179567177
 31
0.0
1001
ACME_LAYERS
1000
1
  0
DIMENSION
  5
478
330
1F
100
AcDbEntity
  8
P-0000
  6
Continuous
100
AcDbDimension
  2
*D54
 10
887.8568999515588
 20
424.8429179567179
 30
0.0
 11
895.3568999515587
 21
474.8429179567177
 31
0.0
 70
   160
  1
<>
 71
     5
 42
99.99999999999989
  3
661N88102_001_0093643228
100
AcDbAlignedDimension
 13
907.5736759434889
 23
524.8429179567177
 33
0.0
 14
907.5736759434889
 24
424.8429179567178
 34
0.0
 50
270.0
100
AcDbRotatedDimension
1001
ACAD
1000
DSTYLE
1002
{
1070
   279
1070
     2
1070
   288
1070
     1
1002
}
1001
ACME_LAYERS
1000
1
  0
LINE
  5
479
330
1F
100
AcDbEntity
  8
P-0000
  6
STRICHLINIE
 62
     2
100
AcDbLine
 10
915.5736759434889
 20
524.8429179567177
 30
0.0
 11
915.5736759434889
 21
424.8429179567178
 31
0.0
1001
ACME_LAYERS
1000
1
  0
DIMENSION
  5
47A
330
1F
100
AcDbEntity
  8
P-0000
  6
Continuous
100
AcDbDimension
  2
*D55
 10
854.1975103642302
 20
577.342917956705
 30
0.0
 11
861.6975103642303
 21
474.8429179567177
 31
0.0
 70
   160
  1
<>
 71
     5
 42
204.9999999999744
  3
661N88102_001_0093643228
100
AcDbAlignedDimension
 13
907.5736759434889
 23
372.3429179567306
 33
0.0
 14
907.5736759434889
 24
577.342917956705
 34
0.0
 50
270.0
100
AcDbRotatedDimension
1001
ACAD
1000
DSTYLE
1002
{
1070
   279
1070
     2
1070
   288
1070
     1
1002
}
1001
ACME_LAYERS
1000
1
  0
DIMENSION
  5
47B
330
1F
100
AcDbEntity
  8
P-0000
  6
Continuous
100
AcDbDimension
  2
*D56
 10
868.6969397249264
 20
384.842917956718
 30
0.0
 11
878.471939724926
 21
472.6439633725698
 31
0.0
 70
   160
  1
<>{}{\H0.60x;\C3;\S^ -0.5;}
 71
     5
 42
179.9999999999999
  3
6613588102_001_0093643228
100
AcDbAlignedDimension
 13
920.0736759434763
 23
564.8429179567178
 33
0.0
 14
920.0736759434763
 24
384.8429179567179
 34
0.0
 50
270.0
100
AcDbRotatedDimension
1001
ACAD
1000
DSTYLE
1002
{
1070
   279
1070
     2
1070
   288
1070
     1
1002
}
1001
ACME_LAYERS
1000
1
  0
LINE
  5
47C
330
1F
100
AcDbEntity
  8
P-0000
  6
Continuous
 62
     7
100
AcDbLine
 10
920.0736759434763
 20
564.8429179567178
 30
0.0
 11
920.0736759434763
 21
384.8429179567179
 31
0.0
1001
ACME_LAYERS
1000
1
  0
DIMENSION
  5
4E7
330
1F
100
AcDbEntity
  8
P-0000
  6
Continuous
100
AcDbDimension
  2
*D57
 10
876.5228521255625
 20
664.0239846299324
 30
0.0
 11
884.0228521255626
 21
711.1978790699782
 31
0.0
 70
   160
  1
<>
 71
     5
 42
90.0
  3
661N88102_001_0093643228
100
AcDbAlignedDimension
 13
907.573675943489
 23
754.0239846299324
 33
0.0
 14
907.5736759434889
 24
664.0239846299324
 34
0.0
 50
270.0
100
AcDbRotatedDimension
1001
ACAD
1000
DSTYLE
1002
{
1070
   279
1070
     2
1070
   288
1070
     1
1002
}
1001
ACME_LAYERS
1000
1
  0
DIMENSION
  5
4E8
330
1F
100
AcDbEntity
  8
P-0000
  6
Continuous
100
AcDbDimension
  2
*D58
 10
864.9585366258213
 20
664.0239846299324
 30
0.0
 11
872.4585366258212
 21
710.8721237037886
 31
0.0
 70
   160
  1
<>
 71
     5
 42
105.0
  3
661N88102_001_0093643228
100
AcDbAlignedDimension
 13
935.0736759434763
 23
769.0239846299324
 33
0.0
 14
915.5736759434889
 24
664.0239846299324
 34
0.0
 50
270.0
100
AcDbRotatedDimension
1001
ACAD
1000
DSTYLE
1002
{
1070
   279
1070
     2
1070
   288
1070
     1
1002
}
1001
ACME_LAYERS
1000
1
  0
LINE
  5
4E9
330
1F
100
AcDbEntity
  8
P-0000
  6
Continuous
 62
     7
100
AcDbLine
 10
907.573675943489
 20
754.0239846299324
 30
0.0
 11
907.5736759434889
 21
664.0239846299324
 31
0.0
1001
ACME_LAYERS
1000
1
  0
LINE
  5
4EA
330
1F
100
AcDbEntity
  8
P-0000
  6
Continuous
 62
     7
100
AcDbLine
 10
915.5736759434891
 20
754.0239846299324
 30
0.0
 11
915.5736759434889
 21
664.0239846299324
 31
0.0
1001
ACME_LAYERS
1000
1
  0
DIMENSION
  5
4EB
330
1F
100
AcDbEntity
  8
P-0000
  6
Continuous
100
AcDbDimension
  2
*D59
 10
884.6667362803087
 20
764.0239846299324
 30
0.0
 11
892.1667362803088
 21
774.0686647446206
 31
0.0
 70
   160
  1
<>
 71
     5
 42
5.0
  3
661N88102_001_0093643228
100
AcDbAlignedDimension
 13
935.0736759434763
 23
769.0239846299324
 33
0.0
 14
935.0736759434763
 24
764.0239846299324
 34
0.0
 50
270.0
100
AcDbRotatedDimension
1001
ACAD
1000
DSTYLE
1002
{
1070
   279
1070
     2
1070
   288
1070
     1
1002
}
1001
ACME_LAYERS
1000
1
  0
LINE
  5
4EC
330
1F
100
AcDbEntity
  8
P-0000
  6
Continuous
 62
     7
100
AcDbLine
 10
935.0736759434763
 20
764.0239846299324
 30
0.0
 11
907.573675943489
 21
764.0239846299324
 31
0.0
1001
ACME_LAYERS
1000
1
  0
LINE
  5
4ED
330
1F
100
AcDbEntity
  8
P-0000
  6
Continuous
 62
     7
100
AcDbLine
 10
907.573675943489
 20
764.0239846299324
 30
0.0
 11
907.573675943489
 21
754.0239846299324
 31
0.0
1001
ACME_LAYERS
1000
1
  0
LINE
  5
4EE
330
1F
100
AcDbEntity
  8
P-0000
  6
Continuous
 62
     7
100
AcDbLine
 10
915.5736759434891
 20
754.0239846299324
 30
0.0
 11
907.573675943489
 21
754.0239846299324
 31
0.0
1001
ACME_LAYERS
1000
1
  0
LINE
  5
4EF
330
1F
100
AcDbEntity
  8
P-0000
  6
Continuous
 62
     7
100
AcDbLine
 10
935.0736759434763
 20
769.0239846299324
 30
0.0
 11
935.0736759434763
 21
764.0239846299324
 31
0.0
1001
ACME_LAYERS
1000
1
  0
LINE
  5
4F0
330
1F
100
AcDbEntity
  8
P-0000
  6
Continuous
 62
     7
100
AcDbLine
 10
915.5736759434889
 20
664.0239846299324
 30
0.0
 11
907.5736759434889
 21
664.0239846299324
 31
0.0
1001
ACME_LAYERS
1000
1
  0
DIMENSION
  5
4F1
330
1F
100
AcDbEntity
  8
P-0000
  6
Continuous
100
AcDbDimension
  2
*D60
 10
907.5736759434889
 20
599.0674805672991
 30
0.0
 11
921.9627792502411
 21
606.5674805672991
 31
0.0
 70
   160
  1
7
 71
     5
 42
8.0
  3
661N88102_001_0093643228
100
AcDbAlignedDimension
 13
915.5736759434889
 23
524.8429179567177
 33
0.0
 14
907.5736759434889
 24
524.8429179567177
 34
0.0
100
AcDbRotatedDimension
1001
ACAD
1000
DSTYLE
1002
{
1070
   279
1070
     2
1070
   288
1070
     1
1002
}
1001
ACME_LAYERS
1000
1
  0
LINE
  5
4F2
330
1F
100
AcDbEntity
  8
P-0000
  6
Continuous
 62
     7
100
AcDbLine
 10
907.5736759434889
 20
524.8429179567177
 30
0.0
 11
907.5736759434889
 21
577.342917956705
 31
0.0
1001
ACME_LAYERS
1000
1
  0
LINE
  5
4F3
330
1F
100
AcDbEntity
  8
P-0000
  6
STRICHLINIE
 62
     2
100
AcDbLine
 10
915.5736759434889
 20
524.8429179567177
 30
0.0
 11
907.5736759434889
 21
524.8429179567177
 31
0.0
1001
ACME_LAYERS
1000
1
  0
LINE
  5
52A
330
1F
100
AcDbEntity
  8
P-0000
  6
Continuous
 62
     7
100
AcDbLine
 10
907.5736759434889
 20
424.8429179567178
 30
0.0
 11
907.5736759434889
 21
474.8429179567177
 31
0.0
1001
ACME_LAYERS
1000
1
  0
LINE
  5
52C
330
1F
100
AcDbEntity
  8
P-0000
  6
Continuous
 62
     7
100
AcDbLine
 10
907.5736759434889
 20
372.3429179567306
 30
0.0
 11
907.5736759434889
 21
424.8429179567178
 31
0.0
1001
ACME_LAYERS
1000
1
  0
LINE
  5
52D
330
1F
100
AcDbEntity
  8
P-0000
  6
STRICHLINIE
 62
     2
100
AcDbLine
 10
907.5736759434889
 20
424.8429179567178
 30
0.0
 11
915.5736759434889
 21
424.8429179567178
 31
0.0
1001
ACME_LAYERS
1000
1
  0
LINE
  5
530
330
1F
100
AcDbEntity
  8
P-0000
  6
STRICHLINIE
 62
     2
100
AcDbLine
 10
1104.573675943463
 20
424.8429179567178
 30
0.0
 11
1104.573675943463
 21
524.8429179567177
 31
0.0
1001
ACME_LAYERS
1000
1
  0
DIMENSION
  5
531
330
1F
100
AcDbEntity
  8
P-0000
  6
Continuous
100
AcDbDimension
  2
*D61
 10
1015.104914526283
 20
522.5785088541058
 30
0.0
 11
1016.747858583461
 21
500.004923294606
 31
0.0
 70
   163
  1
<>
 71
     5
 42
95.99999999999852
  3
661N88102_001_0093643228
100
AcDbDiametricDimension
 15
1005.042437360669
 25
427.1073270593295
 35
0.0
 40
0.0
1001
ACAD
1000
DSTYLE
1002
{
1070
   279
1070
     2
1070
   288
1070
     1
1002
}
1001
ACME_LAYERS
1000
1
  0
LINE
  5
532
330
1F
100
AcDbEntity
  8
P-0000
  6
Continuous
 62
     7
100
AcDbLine
 10
1112.573675943463
 20
577.342917956705
 30
0.0
 11
1112.573675943463
 21
474.8429179567177
 31
0.0
1001
ACME_LAYERS
1000
1
  0
LINE
  5
533
330
1F
100
AcDbEntity
  8
P-0000
  6
STRICHPUNKT
 62
     3
100
AcDbLine
 10
1010.073675943476
 20
511.3429179567195
 30
0.0
 11
1010.073675943476
 21
584.2893800970053
 31
0.0
1001
ACME_LAYERS
1000
1
  0
LINE
  5
534
330
1F
100
AcDbEntity
  8
P-0000
  6
Continuous
 62
     7
100
AcDbLine
 10
1100.073675943476
 20
384.8429179567179
 30
0.0
 11
1100.073675943476
 21
564.8429179567178
 31
0.0
1001
ACME_LAYERS
1000
1
  0
HATCH
  5
535
330
1F
100
AcDbEntity
  8
P-0000
  6
Continuous
 62
     3
100
AcDbHatch
 10
0.0
 20
0.0
 30
0.0
210
0.0
220
0.0
230
1.0
  2
_U
 70
     0
 71
     0
 91
        1
 92
        1
 93
       12
 72
     1
 10
1104.573675943463
 20
664.0239846299324
 11
1104.573675943463
 21
754.0239846299324
 72
     1
 10
1104.573675943463
 20
754.0239846299324
 11
1112.573675943463
 21
754.0239846299324
 72
     1
 10
1112.573675943463
 20
754.0239846299324
 11
1112.573675943463
 21
764.0239846299324
 72
     1
 10
1112.573675943463
 20
764.0239846299324
 11
1100.073675943476
 21
764.0239846299324
 72
     1
 10
1100.073675943476
 20
764.0239846299324
 11
1100.073675943476
 21
769.0239846299324
 72
     1
 10
1100.073675943476
 20
769.0239846299324
 11
1091.573675943474
 21
769.0239846299324
 72
     1
 10
1091.573675943474
 20
769.0239846299324
 11
1084.573675943474
 21
769.0239846299324
 72
     1
 10
1084.573675943474
 20
769.0239846299324
 11
1076.573675943476
 21
769.0239846299324
 72
     1
 10
1076.573675943476
 20
769.0239846299324
 11
1054.573675943474
 21
769.0239846299324
 72
     1
 10
1054.573675943474
 20
769.0239846299324
 11
1054.573675943474
 21
664.0239846299324
 72
     1
 10
1054.573675943474
 20
664.0239846299324
 11
1061.573675943474
 21
664.0239846299324
 72
     1
 10
1061.573675943474
 20
664.0239846299324
 11
1104.573675943463
 21
664.0239846299324
 97
        0
 75
     0
 76
     0
 52
-45.00000000000001
 41
5.0
 77
     0
 78
     1
 53
315.0
 43
1161.834117444741
 44
999.3136323657685
 45
3.535533905932738
 46
3.535533905932736
 79
     0
 98
        1
 10
1161.834117444741
 20
999.3136323657685
1001
ACME_LAYERS
1000
1
  0
HATCH
  5
536
330
1F
100
AcDbEntity
  8
P-0000
  6
Continuous
 62
     3
100
AcDbHatch
 10
0.0
 20
0.0
 30
0.0
210
0.0
220
0.0
230
1.0
  2
_U
 70
     0
 71
     0
 91
        1
 92
        1
 93
       12
 72
     1
 10
1104.573675943463
 20
664.0239846299324
 11
1104.573675943463
 21
754.0239846299324
 72
     1
 10
1104.573675943463
 20
754.0239846299324
 11
1112.573675943463
 21
754.0239846299324
 72
     1
 10
1112.573675943463
 20
754.0239846299324
 11
1112.573675943463
 21
764.0239846299324
 72
     1
 10
1112.573675943463
 20
764.0239846299324
 11
1100.073675943476
 21
764.0239846299324
 72
     1
 10
1100.073675943476
 20
764.0239846299324
 11
1100.073675943476
 21
769.0239846299324
 72
     1
 10
1100.073675943476
 20
769.0239846299324
 11
1091.573675943474
 21
769.0239846299324
 72
     1
 10
1091.573675943474
 20
769.0239846299324
 11
1084.573675943474
 21
769.0239846299324
 72
     1
 10
1084.573675943474
 20
769.0239846299324
 11
1076.573675943476
 21
769.0239846299324
 72
     1
 10
1076.573675943476
 20
769.0239846299324
 11
1054.573675943474
 21
769.0239846299324
 72
     1
 10
1054.573675943474
 20
769.0239846299324
 11
1054.573675943474
 21
664.0239846299324
 72
     1
 10
1054.573675943474
 20
664.0239846299324
 11
1061.573675943474
 21
664.0239846299324
 72
     1
 10
1061.573675943474
 20
664.0239846299324
 11
1104.573675943463
 21
664.0239846299324
 97
        0
 75
     0
 76
     0
 52
44.99999999999999
 41
5.0
 77
     0
 78
     1
 53
44.99999999999999
 43
1161.834117444741
 44
999.3136323657685
 45
-3.535533905932736
 46
3.535533905932738
 79
     0
 98
        1
 10
1161.834117444741
 20
999.3136323657685
1001
ACME_LAYERS
1000
1
  0
HATCH
  5
537
330
1F
100
AcDbEntity
  8
P-0000
  6
Continuous
 62
     3
100
AcDbHatch
 10
0.0
 20
0.0
 30
0.0
210
0.0
220
0.0
230
1.0
  2
_U
 70
     0
 71
     0
 91
        1
 92
        1
 93
        4
 72
     1
 10
1054.573675943474
 20
769.0239846299324
 11
1054.573675943474
 21
664.0239846299324
 72
     1
 10
1054.573675943474
 20
664.0239846299324
 11
1046.573675943476
 21
664.0239846299324
 72
     1
 10
1046.573675943476
 20
664.0239846299324
 11
1046.573675943476
 21
769.0239846299324
 72
     1
 10
1046.573675943476
 20
769.0239846299324
 11
1054.573675943474
 21
769.0239846299324
 97
        0
 75
     0
 76
     0
 52
-45.00000000000001
 41
5.0
 77
     0
 78
     1
 53
315.0
 43
1161.834117444741
 44
999.3136323657685
 45
3.535533905932738
 46
3.535533905932736
 79
     0
 98
        1
 10
1161.834117444741
 20
999.3136323657685
1001
ACME_LAYERS
1000
1
  0
HATCH
  5
538
330
1F
100
AcDbEntity
  8
P-0000
  6
Continuous
 62
     3
100
AcDbHatch
 10
0.0
 20
0.0
 30
0.0
210
0.0
220
0.0
230
1.0
  2
_U
 70
     0
 71
     0
 91
        1
 92
        1
 93
        4
 72
     1
 10
1054.573675943474
 20
769.0239846299324
 11
1054.573675943474
 21
664.0239846299324
 72
     1
 10
1054.573675943474
 20
664.0239846299324
 11
1046.573675943476
 21
664.0239846299324
 72
     1
 10
1046.573675943476
 20
664.0239846299324
 11
1046.573675943476
 21
769.0239846299324
 72
     1
 10
1046.573675943476
 20
769.0239846299324
 11
1054.573675943474
 21
769.0239846299324
 97
        0
 75
     0
 76
     0
 52
44.99999999999999
 41
5.0
 77
     0
 78
     1
 53
44.99999999999999
 43
1161.834117444741
 44
999.3136323657685
 45
-3.535533905932736
 46
3.535533905932738
 79
     0
 98
        1
 10
1161.834117444741
 20
999.3136323657685
1001
ACME_LAYERS
1000
1
  0
LINE
  5
539
330
1F
100
AcDbEntity
  8
P-0000
  6
Continuous
 62
     7
100
AcDbLine
 10
1104.573675943463
 20
664.0239846299324
 30
0.0
 11
1104.573675943463
 21
754.0239846299324
 31
0.0
1001
ACME_LAYERS
1000
1
  0
LINE
  5
53A
330
1F
100
AcDbEntity
  8
P-0000
  6
Continuous
 62
     7
100
AcDbLine
 10
1046.573675943476
 20
769.0239846299324
 30
0.0
 11
1046.573675943476
 21
664.0239846299324
 31
0.0
1001
ACME_LAYERS
1000
1
  0
LINE
  5
53B
330
1F
100
AcDbEntity
  8
P-0000
  6
STRICHLINIE
 62
     2
100
AcDbLine
 10
1054.573675943474
 20
769.0239846299324
 30
0.0
 11
1054.573675943474
 21
664.0239846299324
 31
0.0
1001
ACME_LAYERS
1000
1
  0
LINE
  5
53C
330
1F
100
AcDbEntity
  8
P-0000
  6
STRICHLINIE
 62
     2
100
AcDbLine
 10
1061.573675943474
 20
664.0239846299324
 30
0.0
 11
1061.573675943474
 21
769.0239846299324
 31
0.0
1001
ACME_LAYERS
1000
1
  0
LINE
  5
53D
330
1F
100
AcDbEntity
  8
P-0000
  6
Continuous
 62
     7
100
AcDbLine
 10
1112.573675943463
 20
754.0239846299324
 30
0.0
 11
1112.573675943458
 21
664.0239846299324
 31
0.0
1001
ACME_LAYERS
1000
1
  0
LINE
  5
53E
330
1F
100
AcDbEntity
  8
P-0000
  6
Continuous
 62
     7
100
AcDbLine
 10
973.5736759434745
 20
769.0239846299324
 30
0.0
 11
973.5736759434763
 21
664.0239846299324
 31
0.0
1001
ACME_LAYERS
1000
1
  0
LINE
  5
53F
330
1F
100
AcDbEntity
  8
P-0000
  6
STRICHPUNKT
 62
     3
100
AcDbLine
 10
1010.073675943476
 20
769.0239846299324
 30
0.0
 11
1010.073675943476
 21
661.0239846299324
 31
0.0
1001
ACME_LAYERS
1000
1
  0
LINE
  5
540
330
1F
100
AcDbEntity
  8
P-0000
  6
STRICHPUNKT
 62
     3
100
AcDbLine
 10
1058.073675943474
 20
783.3402544925307
 30
0.0
 11
1058.073675943474
 21
656.3402544925308
 31
0.0
1001
ACME_LAYERS
1000
1
  0
LINE
  5
541
330
1F
100
AcDbEntity
  8
P-0000
  6
Continuous
 62
     7
100
AcDbLine
 10
1091.573675943474
 20
769.0239846299324
 30
0.0
 11
1084.573675943474
 21
769.0239846299324
 31
0.0
1001
ACME_LAYERS
1000
1
  0
LINE
  5
542
330
1F
100
AcDbEntity
  8
P-0000
  6
Continuous
 62
     7
100
AcDbLine
 10
1046.573675943476
 20
769.0239846299324
 30
0.0
 11
1010.073675943476
 21
769.0239846299324
 31
0.0
1001
ACME_LAYERS
1000
1
  0
LINE
  5
543
330
1F
100
AcDbEntity
  8
P-0000
  6
Continuous
 62
     7
100
AcDbLine
 10
1010.073675943476
 20
769.0239846299324
 30
0.0
 11
973.5736759434745
 21
769.0239846299324
 31
0.0
1001
ACME_LAYERS
1000
1
  0
LINE
  5
544
330
1F
100
AcDbEntity
  8
P-0000
  6
STRICHPUNKT
 62
     3
100
AcDbLine
 10
1010.073675943476
 20
772.0239846299324
 30
0.0
 11
1010.073675943476
 21
769.0239846299324
 31
0.0
1001
ACME_LAYERS
1000
1
  0
LINE
  5
545
330
1F
100
AcDbEntity
  8
P-0000
  6
Continuous
 62
     7
100
AcDbLine
 10
1054.573675943474
 20
769.0239846299324
 30
0.0
 11
1046.573675943476
 21
769.0239846299324
 31
0.0
1001
ACME_LAYERS
1000
1
  0
LINE
  5
546
330
1F
100
AcDbEntity
  8
P-0000
  6
Continuous
 62
     7
100
AcDbLine
 10
1076.573675943476
 20
769.0239846299324
 30
0.0
 11
1054.573675943474
 21
769.0239846299324
 31
0.0
1001
ACME_LAYERS
1000
1
  0
LINE
  5
547
330
1F
100
AcDbEntity
  8
P-0000
  6
Continuous
 62
     7
100
AcDbLine
 10
1084.573675943474
 20
769.0239846299324
 30
0.0
 11
1076.573675943476
 21
769.0239846299324
 31
0.0
1001
ACME_LAYERS
1000
1
  0
LINE
  5
548
330
1F
100
AcDbEntity
  8
P-0000
  6
Continuous
 62
     7
100
AcDbLine
 10
1112.573675943463
 20
764.0239846299324
 30
0.0
 11
1100.073675943476
 21
764.0239846299324
 31
0.0
1001
ACME_LAYERS
1000
1
  0
LINE
  5
549
330
1F
100
AcDbEntity
  8
P-0000
  6
Continuous
 62
     7
100
AcDbLine
 10
1100.073675943476
 20
769.0239846299324
 30
0.0
 11
1091.573675943474
 21
769.0239846299324
 31
0.0
1001
ACME_LAYERS
1000
1
  0
LINE
  5
54A
330
1F
100
AcDbEntity
  8
P-0000
  6
Continuous
 62
     7
100
AcDbLine
 10
1100.073675943476
 20
769.0239846299324
 30
0.0
 11
1100.073675943476
 21
764.0239846299324
 31
0.0
1001
ACME_LAYERS
1000
1
  0
LINE
  5
54B
330
1F
100
AcDbEntity
  8
P-0000
  6
Continuous
 62
     7
100
AcDbLine
 10
1112.573675943463
 20
764.0239846299324
 30
0.0
 11
1112.573675943463
 21
754.0239846299324
 31
0.0
1001
ACME_LAYERS
1000
1
  0
LINE
  5
54C
330
1F
100
AcDbEntity
  8
P-0000
  6
Continuous
 62
     7
100
AcDbLine
 10
1112.573675943463
 20
754.0239846299324
 30
0.0
 11
1104.573675943463
 21
754.0239846299324
 31
0.0
1001
ACME_LAYERS
1000
1
  0
LINE
  5
54D
330
1F
100
AcDbEntity
  8
P-0000
  6
Continuous
 62
     7
100
AcDbLine
 10
1010.073675943476
 20
577.342917956705
 30
0.0
 11
1112.573675943463
 21
577.342917956705
 31
0.0
1001
ACME_LAYERS
1000
1
  0
LINE
  5
54E
330
1F
100
AcDbEntity
  8
P-0000
  6
Continuous
 62
     7
100
AcDbLine
 10
1061.573675943474
 20
664.0239846299324
 30
0.0
 11
1104.573675943463
 21
664.0239846299324
 31
0.0
1001
ACME_LAYERS
1000
1
  0
LINE
  5
54F
330
1F
100
AcDbEntity
  8
P-0000
  6
Continuous
 62
     7
100
AcDbLine
 10
1046.573675943476
 20
664.0239846299324
 30
0.0
 11
973.5736759434763
 21
664.0239846299324
 31
0.0
1001
ACME_LAYERS
1000
1
  0
DIMENSION
  5
550
330
1F
100
AcDbEntity
  8
P-0000
  6
Continuous
100
AcDbDimension
  2
*D62
 10
1046.573675943476
 20
630.8962773557874
 30
0.0
 11
1010.073675943476
 21
640.671277355787
 31
0.0
 70
   160
  1
%%c<>{}{\H0.60x;\C3;\S+0.3^ ;}
 71
     5
 42
73.0
  3
6613488102_001_0093643228
100
AcDbAlignedDimension
 13
973.5736759434763
 23
664.0239846299324
 33
0.0
 14
1046.573675943476
 24
664.0239846299324
 34
0.0
100
AcDbRotatedDimension
1001
ACAD
1000
DSTYLE
1002
{
1070
   279
1070
     2
1070
   288
1070
     1
1002
}
1001
ACME_LAYERS
1000
1
  0
LINE
  5
551
330
1F
100
AcDbEntity
  8
P-0000
  6
Continuous
 62
     7
100
AcDbLine
 10
1046.573675943476
 20
664.0239846299324
 30
0.0
 11
1054.573675943474
 21
664.0239846299324
 31
0.0
1001
ACME_LAYERS
1000
1
  0
LINE
  5
552
330
1F
100
AcDbEntity
  8
P-0000
  6
Continuous
 62
     7
100
AcDbLine
 10
1054.573675943474
 20
664.0239846299324
 30
0.0
 11
1061.573675943474
 21
664.0239846299324
 31
0.0
1001
ACME_LAYERS
1000
1
  0
LINE
  5
553
330
1F
100
AcDbEntity
  8
P-0000
  6
Continuous
 62
     7
100
AcDbLine
 10
1076.573675943476
 20
664.0239846299324
 30
0.0
 11
1084.573675943474
 21
664.0239846299324
 31
0.0
1001
ACME_LAYERS
1000
1
  0
LINE
  5
554
330
1F
100
AcDbEntity
  8
P-0000
  6
STRICHLINIE
 62
     2
100
AcDbLine
 10
1060.073675943476
 20
569.3429179567068
 30
0.0
 11
960.0736759434763
 21
569.3429179567068
 31
0.0
1001
ACME_LAYERS
1000
1
  0
LINE
  5
555
330
1F
100
AcDbEntity
  8
P-0000
  6
STRICHLINIE
 62
     2
100
AcDbLine
 10
960.0736759434763
 20
577.3429179567068
 30
0.0
 11
960.0736759434763
 21
569.3429179567068
 31
0.0
1001
ACME_LAYERS
1000
1
  0
LINE
  5
556
330
1F
100
AcDbEntity
  8
P-0000
  6
STRICHLINIE
 62
     2
100
AcDbLine
 10
1060.073675943476
 20
569.3429179567068
 30
0.0
 11
1060.073675943476
 21
577.342917956705
 31
0.0
1001
ACME_LAYERS
1000
1
  0
LINE
  5
557
330
1F
100
AcDbEntity
  8
P-0000
  6
Continuous
 62
     7
100
AcDbLine
 10
1104.573675943463
 20
664.0239846299324
 30
0.0
 11
1112.573675943458
 21
664.0239846299324
 31
0.0
1001
ACME_LAYERS
1000
1
  0
LINE
  5
558
330
1F
100
AcDbEntity
  8
P-0000
  6
STRICHLINIE
 62
     2
100
AcDbLine
 10
1112.573675943463
 20
524.8429179567177
 30
0.0
 11
1104.573675943463
 21
524.8429179567177
 31
0.0
1001
ACME_LAYERS
1000
1
  0
LINE
  5
55C
330
1F
100
AcDbEntity
  8
P-0000
  6
Continuous
 62
     7
100
AcDbLine
 10
1112.573675943463
 20
372.3429179567306
 30
0.0
 11
1010.073675943476
 21
372.3429179567306
 31
0.0
1001
ACME_LAYERS
1000
1
  0
LINE
  5
55D
330
1F
100
AcDbEntity
  8
P-0000
  6
STRICHPUNKT
 62
     3
100
AcDbLine
 10
1018.292452206283
 20
412.4151143569347
 30
0.0
 11
1014.421495580385
 21
441.8179490682873
 31
0.0
1001
ACME_LAYERS
1000
1
  0
ARC
  5
55E
330
1F
100
AcDbEntity
  8
P-0000
  6
STRICHPUNKT
 62
     3
100
AcDbCircle
 10
1010.073675943476
 20
474.8429179567177
 30
0.0
 40
47.99999999999942
100
AcDbArc
 50
262.9104961017485
 51
295.8486234339213
1001
ACME_LAYERS
1000
1
  0
CIRCLE
  5
55F
330
1F
100
AcDbEntity
  8
P-0000
  6
Continuous
 62
     7
100
AcDbCircle
 10
1016.338933170039
 20
427.2535646107757
 30
0.0
 40
3.5
1001
ACME_LAYERS
1000
1
  0
LINE
  5
560
330
1F
100
AcDbEntity
  8
P-0000
  6
STRICHPUNKT
 62
     3
100
AcDbLine
 10
1010.073675943476
 20
421.3429179567197
 30
0.0
 11
1010.073675943476
 21
511.3429179567195
 31
0.0
1001
ACME_LAYERS
1000
1
  0
ARC
  5
562
330
1F
100
AcDbEntity
  8
P-0000
  6
Continuous
 62
     7
100
AcDbCircle
 10
1010.073675943476
 20
474.8429179567177
 30
0.0
 40
36.5
100
AcDbArc
 50
270.0
 51
90.0
1001
ACME_LAYERS
1000
1
  0
ARC
  5
563
330
1F
100
AcDbEntity
  8
P-0000
  6
Continuous
 62
     7
100
AcDbCircle
 10
1010.073675943476
 20
474.8429179567177
 30
0.0
 40
36.50000000000182
100
AcDbArc
 50
90.0
 51
270.0
1001
ACME_LAYERS
1000
1
  0
ARC
  5
564
330
1F
100
AcDbEntity
  8
P-0000
  6
Continuous
 62
     7
100
AcDbCircle
 10
980.073675943478
 20
474.8429179567177
 30
0.0
 40
66.499999999999
100
AcDbArc
 50
357.4143504492105
 51
2.585649550789433
1001
ACME_LAYERS
1000
1
  0
LINE
  5
565
330
1F
100
AcDbEntity
  8
P-0000
  6
STRICHPUNKT
 62
     3
100
AcDbLine
 10
1065.573675943478
 20
474.8429179567177
 30
0.0
 11
1082.573675943478
 21
474.8429179567177
 31
0.0
1001
ACME_LAYERS
1000
1
  0
LINE
  5
566
330
1F
100
AcDbEntity
  8
P-0000
  6
STRICHLINIE
 62
     2
100
AcDbLine
 10
960.0736759434763
 20
380.3429179567306
 30
0.0
 11
1060.073675943476
 21
380.3429179567306
 31
0.0
1001
ACME_LAYERS
1000
1
  0
LINE
  5
567
330
1F
100
AcDbEntity
  8
P-0000
  6
STRICHPUNKT
 62
     3
100
AcDbLine
 10
1010.073675943476
 20
372.3429179567306
 30
0.0
 11
1010.073675943476
 21
394.8429179567161
 31
0.0
1001
ACME_LAYERS
1000
1
  0
LINE
  5
568
330
1F
100
AcDbEntity
  8
P-0000
  6
STRICHPUNKT
 62
     3
100
AcDbLine
 10
1010.073675943476
 20
394.8429179567161
 30
0.0
 11
1010.073675943476
 21
421.3429179567197
 31
0.0
1001
ACME_LAYERS
1000
1
  0
LINE
  5
569
330
1F
100
AcDbEntity
  8
P-0000
  6
STRICHLINIE
 62
     2
100
AcDbLine
 10
960.0736759434763
 20
380.3429179567306
 30
0.0
 11
960.0736759434763
 21
372.3429179567306
 31
0.0
1001
ACME_LAYERS
1000
1
  0
LINE
  5
56A
330
1F
100
AcDbEntity
  8
P-0000
  6
STRICHLINIE
 62
     2
100
AcDbLine
 10
1060.073675943476
 20
372.3429179567306
 30
0.0
 11
1060.073675943476
 21
380.3429179567306
 31
0.0
1001
ACME_LAYERS
1000
1
  0
LINE
  5
56B
330
1F
100
AcDbEntity
  8
P-0000
  6
Continuous
 62
     7
100
AcDbLine
 10
1112.573675943463
 20
474.8429179567177
 30
0.0
 11
1112.573675943463
 21
372.3429179567306
 31
0.0
1001
ACME_LAYERS
1000
1
  0
LINE
  5
56C
330
1F
100
AcDbEntity
  8
P-0000
  6
STRICHLINIE
 62
     2
100
AcDbLine
 10
1104.573675943463
 20
424.8429179567178
 30
0.0
 11
1112.573675943463
 21
424.8429179567178
 31
0.0
1001
ACME_LAYERS
1000
1
  0
ENDSEC
  0
SECTION
  2
OBJECTS
  0
DICTIONARY
  5
C
330
0
100
AcDbDictionary
281
     1
  3
ACAD_COLOR
350
80A
  3
ACAD_GROUP
350
D
  3
ACAD_LAYOUT
350
1A
  3
ACAD_MATERIAL
350
809
  3
ACAD_MLINESTYLE
350
17
  3
ACAD_PLOTSETTINGS
350
19
  3
ACAD_PLOTSTYLENAME
350
E
  3
ACAD_TABLESTYLE
350
80B
  3
ACDBHEADERROUNDTRIPXREC
350
962
  3
AcDbVariableDictionary
350
34
  3
AcmDictionary
350
47
  3
AMG
350
2B
  3
AMGSNAPSETTINGS
350
3CD
  3
DWGPROPS
350
961
  0
DICTIONARY
  5
81
330
1F
100
AcDbDictionary
280
     1
281
     1
  0
DICTIONARY
  5
80A
102
{ACAD_REACTORS
330
C
102
}
330
C
100
AcDbDictionary
281
     1
  0
DICTIONARY
  5
D
102
{ACAD_REACTORS
330
C
102
}
330
C
100
AcDbDictionary
281
     1
  0
DICTIONARY
  5
1A
102
{ACAD_REACTORS
330
C
102
}
330
C
100
AcDbDictionary
281
     1
  3
Layout1
350
1E
  3
Layout2
350
26
  3
Model
350
22
  0
DICTIONARY
  5
809
102
{ACAD_REACTORS
330
C
102
}
330
C
100
AcDbDictionary
281
     1
  0
DICTIONARY
  5
17
102
{ACAD_REACTORS
330
C
102
}
330
C
100
AcDbDictionary
281
     1
  3
Standard
350
18
  0
DICTIONARY
  5
19
102
{ACAD_REACTORS
330
C
102
}
330
C
100
AcDbDictionary
281
     1
  0
ACDBDICTIONARYWDFLT
  5
E
102
{ACAD_REACTORS
330
C
102
}
330
C
100
AcDbDictionary
281
     1
  3
Normal
350
F
100
AcDbDictionaryWithDefault
340
F
  0
DICTIONARY
  5
80B
102
{ACAD_REACTORS
330
C
102
}
330
C
100
AcDbDictionary
281
     1
  3
Standard
350
80C
  0
DICTIONARY
  5
962
102
{ACAD_REACTORS
330
C
102
}
330
C
100
AcDbDictionary
281
     1
  0
DICTIONARY
  5
34
102
{ACAD_REACTORS
330
C
102
}
330
C
100
AcDbDictionary
281
     1
  3
CTABLESTYLE
350
95D
  3
DIMASSOC
350
95E
  3
INDEXCTL
350
35
  3
PROJECTNAME
350
95F
  0
DICTIONARY
  5
47
102
{ACAD_REACTORS
330
C
102
}
330
C
100
AcDbDictionary
281
     1
  3
AcmStdDictionary
350
4C
  3
AMDTSECTSYM_ARROWCOLOR
350
864
  0
DICTIONARY
  5
2B
102
{ACAD_REACTORS
330
C
102
}
330
C
100
AcDbDictionary
281
     1
  0
DICTIONARY
  5
3CD
102
{ACAD_REACTORS
330
C
102
}
330
C
100
AcDbDictionary
281
     1
  0
XRECORD
  5
961
102
{ACAD_REACTORS
330
C
102
}
330
C
100
AcDbXrecord
280
     1
  1
DWGPROPS COOKIE
  2

  3

  4

  6

  7

  8

  9

300
AmdtFileType=84
301
=
302
=
303
=
304
=
305
=
306
=
307
=
308
=
309
=
 40
0.003858912037037
 41
2452702.515835023
 42
2454041.889307731
  1

 90
        1
  0
LAYOUT
  5
1E
102
{ACAD_XDICTIONARY
360
963
102
}
102
{ACAD_REACTORS
330
1A
102
}
330
1A
100
AcDbPlotSettings
  1

  2
C:\Programme\Acadm 2000i\plotters\PH36.pc3
  4

  6

 40
0.0
 41
0.0
 42
0.0
 43
0.0
 44
0.0
 45
0.0
 46
0.0
 47
0.0
 48
0.0
 49
0.0
140
0.0
141
0.0
142
1.0
143
1.0
 70
   688
 72
     0
 73
     0
 74
     5
  7
monochrome.ctb
 75
    16
147
1.0
148
0.0
149
0.0
100
AcDbLayout
  1
Layout1
 70
     1
 71
     1
 10
0.0
 20
0.0
 11
420.0
 21
297.0
 12
0.0
 22
0.0
 32
0.0
 14
1.000000000000000E+20
 24
1.000000000000000E+20
 34
1.000000000000000E+20
 15
-1.000000000000000E+20
 25
-1.000000000000000E+20
 35
-1.000000000000000E+20
146
0.0
 13
0.0
 23
0.0
 33
0.0
 16
1.0
 26
0.0
 36
0.0
 17
0.0
 27
1.0
 37
0.0
 76
     0
330
1B
  0
LAYOUT
  5
26
102
{ACAD_XDICTIONARY
360
967
102
}
102
{ACAD_REACTORS
330
1A
102
}
330
1A
100
AcDbPlotSettings
  1

  2
C:\Programme\Acadm 2000i\plotters\PH36.pc3
  4

  6

 40
0.0
 41
0.0
 42
0.0
 43
0.0
 44
0.0
 45
0.0
 46
0.0
 47
0.0
 48
0.0
 49
0.0
140
0.0
141
0.0
142
1.0
143
1.0
 70
   688
 72
     0
 73
     0
 74
     5
  7
monochrome.ctb
 75
    16
147
1.0
148
0.0
149
0.0
100
AcDbLayout
  1
Layout2
 70
     1
 71
     2
 10
0.0
 20
0.0
 11
12.0
 21
9.0
 12
0.0
 22
0.0
 32
0.0
 14
0.0
 24
0.0
 34
0.0
 15
0.0
 25
0.0
 35
0.0
146
0.0
 13
0.0
 23
0.0
 33
0.0
 16
1.0
 26
0.0
 36
0.0
 17
0.0
 27
1.0
 37
0.0
 76
     0
330
23
  0
LAYOUT
  5
22
102
{ACAD_XDICTIONARY
360
965
102
}
102
{ACAD_REACTORS
330
1A
102
}
330
1A
100
AcDbPlotSettings
  1

  2
C:\Programme\Acadm 2000i\plotters\PH36.pc3
  4

  6

 40
0.0
 41
0.0
 42
0.0
 43
0.0
 44
0.0
 45
0.0
 46
0.0
 47
0.0
 48
0.0
 49
0.0
140
0.0
141
0.0
142
1.0
143
1.0
 70
 11952
 72
     0
 73
     1
 74
     0
  7
monochrome.ctb
 75
     0
147
1.0
148
-4313.520964760486
149
106.2069450102469
100
AcDbLayout
  1
Model
 70
     1
 71
     0
 10
0.0
 20
0.0
 11
12.0
 21
9.0
 12
0.0
 22
0.0
 32
0.0
 14
0.0
 24
0.0
 34
0.0
 15
0.0
 25
0.0
 35
0.0
146
0.0
 13
0.0
 23
0.0
 33
0.0
 16
1.0
 26
0.0
 36
0.0
 17
0.0
 27
1.0
 37
0.0
 76
     0
330
1F
  0
MLINESTYLE
  5
18
102
{ACAD_REACTORS
330
17
102
}
330
17
100
AcDbMlineStyle
  2
STANDARD
 70
     0
  3

 62
   256
 51
90.0
 52
90.0
 71
     2
 49
0.5
 62
   256
  6
BYLAYER
 49
-0.5
 62
   256
  6
BYLAYER
  0
ACDBPLACEHOLDER
  5
F
102
{ACAD_REACTORS
330
E
102
}
330
E
  0
TABLESTYLE
  5
80C
102
{ACAD_REACTORS
330
80B
102
}
330
80B
100
AcDbTableStyle
  3
Standard
 70
     0
 71
     0
 40
1.5
 41
1.5
280
     0
281
     0
  7
STANDARD
140
4.5
170
     2
 62
     0
 63
     7
283
     0
274
    -2
284
     1
 64
     0
275
    -2
285
     1
 65
     0
276
    -2
286
     1
 66
     0
277
    -2
287
     1
 67
     0
278
    -2
288
     1
 68
     0
279
    -2
289
     1
 69
     0
  7
STANDARD
140
6.0
170
     5
 62
     0
 63
     7
283
     0
274
    -2
284
     1
 64
     0
275
    -2
285
     1
 65
     0
276
    -2
286
     1
 66
     0
277
    -2
287
     1
 67
     0
278
    -2
288
     1
 68
     0
279
    -2
289
     1
 69
     0
  7
STANDARD
140
4.5
170
     5
 62
     0
 63
     7
283
     0
274
    -2
284
     1
 64
     0
275
    -2
285
     1
 65
     0
276
    -2
286
     1
 66
     0
277
    -2
287
     1
 67
     0
278
    -2
288
     1
 68
     0
279
    -2
289
     1
 69
     0
  0
DICTIONARYVAR
  5
95D
102
{ACAD_REACTORS
330
34
102
}
330
34
100
DictionaryVariables
280
     0
  1
STANDARD
  0
DICTIONARYVAR
  5
95E
102
{ACAD_REACTORS
330
34
102
}
330
34
100
DictionaryVariables
280
     0
  1
1
  0
DICTIONARYVAR
  5
35
102
{ACAD_REACTORS
330
34
102
}
330
34
100
DictionaryVariables
280
     0
  1
0
  0
DICTIONARYVAR
  5
95F
102
{ACAD_REACTORS
330
34
102
}
330
34
100
DictionaryVariables
280
     0
  1

  0
DICTIONARY
  5
4C
102
{ACAD_REACTORS
330
47
102
}
330
47
100
AcDbDictionary
281
     1
  0
XRECORD
  5
864
102
{ACAD_REACTORS
330
47
102
}
330
47
100
AcDbXrecord
280
     1
 90
-1023410169
  0
DICTIONARY
  5
963
330
1E
100
AcDbDictionary
280
     1
281
     1
  3
ACAD_XREC_ROUNDTRIP
360
964
  0
DICTIONARY
  5
967
330
26
100
AcDbDictionary
280
     1
281
     1
  3
ACAD_XREC_ROUNDTRIP
360
968
  0
DICTIONARY
  5
965
330
22
100
AcDbDictionary
280
     1
281
     1
  3
ACAD_XREC_ROUNDTRIP
360
966
  0
XRECORD
  5
964
102
{ACAD_REACTORS
330
963
102
}
330
963
100
AcDbXrecord
280
     1
102
SHADEPLOT
 70
     0
102
SHADEPLOTRESLEVEL
 70
     2
102
SHADEPLOTCUSTOMDPI
 70
   300
  0
XRECORD
  5
968
102
{ACAD_REACTORS
330
967
102
}
330
967
100
AcDbXrecord
280
     1
102
SHADEPLOT
 70
     0
102
SHADEPLOTRESLEVEL
 70
     2
102
SHADEPLOTCUSTOMDPI
 70
   300
  0
XRECORD
  5
966
102
{ACAD_REACTORS
330
965
102
}
330
965
100
AcDbXrecord
280
     1
102
SHADEPLOT
 70
     0
102
SHADEPLOTRESLEVEL
 70
     2
102
SHADEPLOTCUSTOMDPI
 70
   300
  0
ENDSEC
  0
EOF
