  0
SECTION
  2
HEADER
  9
$ACADVER
  1
AC1015
  9
$ACADMAINTVER
 70
    20
  9
$DWGCODEPAGE
  3
ANSI_1252
  9
$INSBASE
 10
0.0
 20
0.0
 30
0.0
  9
$EXTMIN
 10
107.3709534274351
 20
18.74082486066652
 30
-0.0000000000000058
  9
$EXTMAX
 10
583.8278822561965
 20
389.9932220438353
 30
0.0000000000000104
  9
$LIMMIN
 10
0.0
 20
0.0
  9
$LIMMAX
 10
420.0
 20
297.0
  9
$ORTHOMODE
 70
     1
  9
$REGENMODE
 70
     1
  9
$FILLMODE
 70
     1
  9
$QTEXTMODE
 70
     0
  9
$MIRRTEXT
 70
     1
  9
$LTSCALE
 40
1.0
  9
$ATTMODE
 70
     1
  9
$TEXTSIZE
 40
2.5
  9
$TRACEWID
 40
1.0
  9
$TEXTSTYLE
  7
STANDARD
  9
$CLAYER
  8
0
  9
$CELTYPE
  6
ByLayer
  9
$CECOLOR
 62
   256
  9
$CELTSCALE
 40
1.0
  9
$DISPSILH
 70
     0
  9
$DIMSCALE
 40
1.0
  9
$DIMASZ
 40
3.5
  9
$DIMEXO
 40
1.0
  9
$DIMDLI
 40
10.0
  9
$DIMRND
 40
0.0
  9
$DIMDLE
 40
0.0
  9
$DIMEXE
 40
1.0
  9
$DIMTP
 40
0.1
  9
$DIMTM
 40
0.1
  9
$DIMTXT
 40
3.5
  9
$DIMCEN
 40
0.0
  9
$DIMTSZ
 40
0.0
  9
$DIMTOL
 70
     0
  9
$DIMLIM
 70
     0
  9
$DIMTIH
 70
     0
  9
$DIMTOH
 70
     0
  9
$DIMSE1
 70
     0
  9
$DIMSE2
 70
     0
  9
$DIMTAD
 70
     1
  9
$DIMZIN
 70
     8
  9
$DIMBLK
  1

  9
$DIMASO
 70
     1
  9
$DIMSHO
 70
     1
  9
$DIMPOST
  1

  9
$DIMAPOST
  1
"
  9
$DIMALT
 70
     0
  9
$DIMALTD
 70
     2
  9
$DIMALTF
 40
0.0393701
  9
$DIMLFAC
 40
1.0
  9
$DIMTOFL
 70
     1
  9
$DIMTVP
 40
0.0
  9
$DIMTIX
 70
     0
  9
$DIMSOXD
 70
     0
  9
$DIMSAH
 70
     0
  9
$DIMBLK1
  1

  9
$DIMBLK2
  1

  9
$DIMSTYLE
  2
AM_DIN
  9
$DIMCLRD
 70
   256
  9
$DIMCLRE
 70
   256
  9
$DIMCLRT
 70
     2
  9
$DIMTFAC
 40
0.71
  9
$DIMGAP
 40
1.5
  9
$DIMJUST
 70
     0
  9
$DIMSD1
 70
     0
  9
$DIMSD2
 70
     0
  9
$DIMTOLJ
 70
     0
  9
$DIMTZIN
 70
     8
  9
$DIMALTZ
 70
     0
  9
$DIMALTTZ
 70
     0
  9
$DIMUPT
 70
     0
  9
$DIMDEC
 70
     2
  9
$DIMTDEC
 70
     3
  9
$DIMALTU
 70
     2
  9
$DIMALTTD
 70
     4
  9
$DIMTXSTY
  7
STANDARD
  9
$DIMAUNIT
 70
     0
  9
$DIMADEC
 70
     0
  9
$DIMALTRND
 40
0.0
  9
$DIMAZIN
 70
     2
  9
$DIMDSEP
 70
    46
  9
$DIMATFIT
 70
     3
  9
$DIMFRAC
 70
     0
  9
$DIMLDRBLK
  1

  9
$DIMLUNIT
 70
     2
  9
$DIMLWD
 70
    -1
  9
$DIMLWE
 70
    -1
  9
$DIMTMOVE
 70
     0
  9
$LUNITS
 70
     2
  9
$LUPREC
 70
     2
  9
$SKETCHINC
 40
1.0
  9
$FILLETRAD
 40
0.0
  9
$AUNITS
 70
     0
  9
$AUPREC
 70
     0
  9
$MENU
  1
.
  9
$ELEVATION
 40
0.0
  9
$PELEVATION
 40
0.0
  9
$THICKNESS
 40
0.0
  9
$LIMCHECK
 70
     0
  9
$CHAMFERA
 40
2.5
  9
$CHAMFERB
 40
2.5
  9
$CHAMFERC
 40
20.0
  9
$CHAMFERD
 40
0.0
  9
$SKPOLY
 70
     0
  9
$TDCREATE
 40
2455512.477373287
  9
$TDUCREATE
 40
2455512.435706621
  9
$TDUPDATE
 40
2455609.652009480
  9
$TDUUPDATE
 40
2455609.610342813
  9
$TDINDWG
 40
0.0814453125
  9
$TDUSRTIMER
 40
0.0814449537
  9
$USRTIMER
 70
     1
  9
$ANGBASE
 50
0.0
  9
$ANGDIR
 70
     0
  9
$PDMODE
 70
     0
  9
$PDSIZE
 40
0.0
  9
$PLINEWID
 40
0.0
  9
$SPLFRAME
 70
     0
  9
$SPLINETYPE
 70
     6
  9
$SPLINESEGS
 70
     8
  9
$HANDSEED
  5
11D4
  9
$SURFTAB1
 70
     6
  9
$SURFTAB2
 70
     6
  9
$SURFTYPE
 70
     6
  9
$SURFU
 70
     6
  9
$SURFV
 70
     6
  9
$UCSBASE
  2

  9
$UCSNAME
  2

  9
$UCSORG
 10
0.0
 20
0.0
 30
0.0
  9
$UCSXDIR
 10
1.0
 20
0.0
 30
0.0
  9
$UCSYDIR
 10
0.0
 20
1.0
 30
0.0
  9
$UCSORTHOREF
  2

  9
$UCSORTHOVIEW
 70
     0
  9
$UCSORGTOP
 10
0.0
 20
0.0
 30
0.0
  9
$UCSORGBOTTOM
 10
0.0
 20
0.0
 30
0.0
  9
$UCSORGLEFT
 10
0.0
 20
0.0
 30
0.0
  9
$UCSORGRIGHT
 10
0.0
 20
0.0
 30
0.0
  9
$UCSORGFRONT
 10
0.0
 20
0.0
 30
0.0
  9
$UCSORGBACK
 10
0.0
 20
0.0
 30
0.0
  9
$PUCSBASE
  2

  9
$PUCSNAME
  2

  9
$PUCSORG
 10
0.0
 20
0.0
 30
0.0
  9
$PUCSXDIR
 10
1.0
 20
0.0
 30
0.0
  9
$PUCSYDIR
 10
0.0
 20
1.0
 30
0.0
  9
$PUCSORTHOREF
  2

  9
$PUCSORTHOVIEW
 70
     0
  9
$PUCSORGTOP
 10
0.0
 20
0.0
 30
0.0
  9
$PUCSORGBOTTOM
 10
0.0
 20
0.0
 30
0.0
  9
$PUCSORGLEFT
 10
0.0
 20
0.0
 30
0.0
  9
$PUCSORGRIGHT
 10
0.0
 20
0.0
 30
0.0
  9
$PUCSORGFRONT
 10
0.0
 20
0.0
 30
0.0
  9
$PUCSORGBACK
 10
0.0
 20
0.0
 30
0.0
  9
$USERI1
 70
     0
  9
$USERI2
 70
     0
  9
$USERI3
 70
     0
  9
$USERI4
 70
     0
  9
$USERI5
 70
     0
  9
$USERR1
 40
0.0
  9
$USERR2
 40
0.0
  9
$USERR3
 40
0.0
  9
$USERR4
 40
0.0
  9
$USERR5
 40
0.0
  9
$WORLDVIEW
 70
     1
  9
$SHADEDGE
 70
     3
  9
$SHADEDIF
 70
    70
  9
$TILEMODE
 70
     1
  9
$MAXACTVP
 70
    64
  9
$PINSBASE
 10
0.0
 20
0.0
 30
0.0
  9
$PLIMCHECK
 70
     0
  9
$PEXTMIN
 10
1.000000000000000E+20
 20
1.000000000000000E+20
 30
1.000000000000000E+20
  9
$PEXTMAX
 10
-1.000000000000000E+20
 20
-1.000000000000000E+20
 30
-1.000000000000000E+20
  9
$PLIMMIN
 10
0.0
 20
0.0
  9
$PLIMMAX
 10
420.0
 20
297.0
  9
$UNITMODE
 70
     0
  9
$VISRETAIN
 70
     1
  9
$PLINEGEN
 70
     0
  9
$PSLTSCALE
 70
     1
  9
$TREEDEPTH
 70
  3020
  9
$CMLSTYLE
  2
Standard
  9
$CMLJUST
 70
     0
  9
$CMLSCALE
 40
20.0
  9
$PROXYGRAPHICS
 70
     1
  9
$MEASUREMENT
 70
     1
  9
$CELWEIGHT
370
    -1
  9
$ENDCAPS
280
     0
  9
$JOINSTYLE
280
     0
  9
$LWDISPLAY
290
     0
  9
$INSUNITS
 70
     4
  9
$HYPERLINKBASE
  1

  9
$STYLESHEET
  1

  9
$XEDIT
290
     1
  9
$CEPSNTYPE
380
     0
  9
$PSTYLEMODE
290
     1
  9
$FINGERPRINTGUID
  2
{2DC0B469-072C-49B3-B8C1-FFDF8F934B85}
  9
$VERSIONGUID
  2
{2CA47846-202F-4EA3-A0A7-9689DC782151}
  9
$EXTNAMES
290
     1
  9
$PSVPSCALE
 40
0.0
  9
$OLESTARTUP
290
     0
  0
ENDSEC
  0
SECTION
  2
CLASSES
  0
CLASS
  1
ACDBDICTIONARYWDFLT
  2
AcDbDictionaryWithDefault
  3
ObjectDBX Classes
 90
        0
280
     0
281
     0
  0
CLASS
  1
ACME_DOCUMENT
  2
AcMeDbDoc
  3
AcMeServices
 90
     1024
280
     0
281
     0
  0
CLASS
  1
AMGSETTINGSOBJ
  2
AmgSettingsObj
  3
"AcadM|Product Description: AutoCAD Mechanical|Company: Autodesk, Inc."
 90
     1024
280
     0
281
     0
  0
CLASS
  1
ACMESCOPE
  2
AcMeScope
  3
AcMeServices
 90
     1024
280
     0
281
     0
  0
CLASS
  1
ACMECOMMANDHISTORY
  2
AcMeCommandHistory
  3
AcMeServices
 90
     1024
280
     0
281
     0
  0
CLASS
  1
ACIMSYSVARMAN
  2
AcImSysVarManager
  3
AcMeServices
 90
     1024
280
     0
281
     0
  0
CLASS
  1
ACIMREALSYSVAR
  2
AcImRealSysVar
  3
AcMeServices
 90
     1024
280
     0
281
     0
  0
CLASS
  1
ACIMINTSYSVAR
  2
AcImIntSysVar
  3
AcMeServices
 90
     1024
280
     0
281
     0
  0
CLASS
  1
ACMEDRAWINGMAN
  2
AcMeDrawingMan
  3
AcMeServices
 90
     1024
280
     0
281
     0
  0
CLASS
  1
ACMEVIEW
  2
AcMeView
  3
AcMeServices
 90
     1024
280
     0
281
     0
  0
CLASS
  1
ACDBENTITYCACHE
  2
AcMeEntityCache
  3
AcMeServices
 90
     1024
280
     0
281
     0
  0
CLASS
  1
GSMANAGER
  2
AcMeGSManager
  3
AcMeServices
 90
     1024
280
     0
281
     0
  0
CLASS
  1
AMDTINTERNALREACTOR
  2
AmdtInternalReactor
  3
AcMeServices
 90
     1024
280
     0
281
     0
  0
CLASS
  1
ACMESTATEMGR
  2
AcMeStateMgr
  3
AcMeServices
 90
     1024
280
     0
281
     0
  0
CLASS
  1
ACGREFMASTER
  2
AcGrefMaster
  3
AcAttribServices
 90
     1024
280
     0
281
     0
  0
CLASS
  1
ACME_DATABASE
  2
AcMeDbDatabase
  3
AcMeServices
 90
     1024
280
     0
281
     0
  0
CLASS
  1
ACRFINSADJUSTERMGR
  2
AcRfInsAdjusterMgr
  3
AcMeServices
 90
     1024
280
     0
281
     0
  0
CLASS
  1
ACGREFACADMASTER
  2
AcGrefacadMaster
  3
AcGrefServices
 90
     1024
280
     0
281
     0
  0
CLASS
  1
AMIMASTER
  2
AmiMaster
  3
AmiServices
 90
     1024
280
     0
281
     0
  0
CLASS
  1
ACMDATADICTIONARY
  2
AcmDataDictionary
  3
"AcmSymBB|Product Description: AutoCAD Mechanical|Company: Autodesk, Inc."
 90
     1024
280
     0
281
     0
  0
CLASS
  1
ACMDATAENTRYBLOCK
  2
AcmDataEntryBlock
  3
AcmSymBB|Product Description: AutoCAD Mechanical|Company: Autodesk, Inc.
 90
    33792
280
     0
281
     0
  0
CLASS
  1
ACIMSTRSYSVAR
  2
AcImStrSysVar
  3
AcMeServices
 90
     1024
280
     0
281
     0
  0
CLASS
  1
ACMSTANDARDISO
  2
AcmStandardISO
  3
"Amdt_StdImp|Product Description: AutoCAD Mechanical|Company: Autodesk, Inc."
 90
    33792
280
     0
281
     0
  0
CLASS
  1
AMGOBJPROPCFG
  2
AmgObjPropCfg
  3
"AmgLay|Product Description: AutoCAD Mechanical|Company: Autodesk, Inc."
 90
     1025
280
     0
281
     0
  0
CLASS
  1
AMDTEDGESTANDARDISO
  2
AmdtEdgeStdISO
  3
"Amdt_StdImp|Product Description: AutoCAD Mechanical|Company: Autodesk, Inc."
 90
    33792
280
     0
281
     0
  0
CLASS
  1
ACMSURFSTANDARDISO
  2
AcmSurfTextStdISO
  3
"Amdt_StdImp|Product Description: AutoCAD Mechanical|Company: Autodesk, Inc."
 90
    33792
280
     0
281
     0
  0
CLASS
  1
ACMFCFSTANDARDISO
  2
AcmFCFStdISO
  3
"Amdt_StdImp|Product Description: AutoCAD Mechanical|Company: Autodesk, Inc."
 90
    33792
280
     0
281
     0
  0
CLASS
  1
ACMWELDSTANDARDISO
  2
AcmWeldingStdISO
  3
"Amdt_StdImp|Product Description: AutoCAD Mechanical|Company: Autodesk, Inc."
 90
    33792
280
     0
281
     0
  0
CLASS
  1
ACMIDSTANDARDISO
  2
AcmIdStdISO
  3
"Amdt_StdImp|Product Description: AutoCAD Mechanical|Company: Autodesk, Inc."
 90
    33792
280
     0
281
     0
  0
CLASS
  1
ACMDATUMSTANDARDISO
  2
AcmDatumStdISO
  3
"Amdt_StdImp|Product Description: AutoCAD Mechanical|Company: Autodesk, Inc."
 90
    33792
280
     0
281
     0
  0
CLASS
  1
ACMBOMSTANDARDISO
  2
AcmBOMStdISO
  3
"Amdt_StdImp|Product Description: AutoCAD Mechanical|Company: Autodesk, Inc."
 90
    33792
280
     0
281
     0
  0
CLASS
  1
ACMDETAILSTANDARDISO
  2
AmdtDetailSymStdISO
  3
"Amdt_StdImp|Product Description: AutoCAD Mechanical|Company: Autodesk, Inc."
 90
    33792
280
     0
281
     0
  0
CLASS
  1
ACMSECTIONSTANDARDISO
  2
AmdtSectionSymStdISO
  3
"Amdt_StdImp|Product Description: AutoCAD Mechanical|Company: Autodesk, Inc."
 90
    33792
280
     0
281
     0
  0
CLASS
  1
ACMCENTERLINESTANDARDISO
  2
AmdtCenterLineStdISO
  3
"Amdt_StdImp|Product Description: AutoCAD Mechanical|Company: Autodesk, Inc."
 90
    33792
280
     0
281
     0
  0
CLASS
  1
ACMNOTESTANDARDISO
  2
AmdtNoteStdISO
  3
"Amdt_StdImp|Product Description: AutoCAD Mechanical|Company: Autodesk, Inc."
 90
    33792
280
     0
281
     0
  0
CLASS
  1
ACAMGLAYSTD
  2
AcAmgLayStd
  3
"AmgLay|Product Description: AutoCAD Mechanical|Company: Autodesk, Inc."
 90
     1024
280
     0
281
     0
  0
CLASS
  1
ACAMGDIMSTD
  2
AcAmgDimStd
  3
"AmgDim|Product Description: AutoCAD Mechanical|Company: Autodesk, Inc."
 90
     1024
280
     0
281
     0
  0
CLASS
  1
ACAMGHOLECHARTSTDISO
  2
AcAmgHoleChartStdISO
  3
AmgDim|Product Description: AutoCAD Mechanical|Company: Autodesk, Inc.
 90
    33792
280
     0
281
     0
  0
CLASS
  1
ACAMGTITLESTD
  2
AcAmgTitleStd
  3
"AmgTitle|Product Description: AutoCAD Mechanical|Company: Autodesk, Inc."
 90
     4095
280
     0
281
     0
  0
CLASS
  1
LAYER_INDEX
  2
AcDbLayerIndex
  3
ObjectDBX Classes
 90
    32768
280
     0
281
     0
  0
CLASS
  1
IDBUFFER
  2
AcDbIdBuffer
  3
ObjectDBX Classes
 90
    32768
280
     0
281
     0
  0
CLASS
  1
DICTIONARYVAR
  2
AcDbDictionaryVar
  3
ObjectDBX Classes
 90
        0
280
     0
281
     0
  0
CLASS
  1
AM_DRAWING_MGR
  2
AcDmDwgMgr
  3
AcMechDwgViewMgmt
 90
     1024
280
     0
281
     0
  0
CLASS
  1
AM_DWG_DOCUMENT
  2
AcDmDwgDocument
  3
AcMechDwgViewMgmt
 90
     1024
280
     0
281
     0
  0
CLASS
  1
AM_DWG_SHEET
  2
AcDmSheet
  3
AcMechDwgViewMgmt
 90
     1024
280
     0
281
     0
  0
CLASS
  1
AM_VIEWDIMPARMAP
  2
AcDmViewDimParMap
  3
AcMechDwgViewMgmt
 90
     1024
280
     0
281
     0
  0
CLASS
  1
AM_DWGMGR_NAME
  2
AcDmDwgMgrName
  3
AcMechDwgViewMgmt
 90
     1024
280
     0
281
     0
  0
CLASS
  1
AMDTMENUSTATEMGR
  2
AmdtMenuStateMgr
  3
McadcomServices
 90
     1024
280
     0
281
     0
  0
CLASS
  1
AMDTMCOMMENUSTATE
  2
AmdtMcomMenuState
  3
McadcomServices
 90
     1024
280
     0
281
     0
  0
CLASS
  1
MAPIAMMOUDLE
  2
MApiAmModule
  3
MApiAmServices
 90
     1024
280
     0
281
     0
  0
CLASS
  1
AMDTADMENUSTATE
  2
AmdtAdMenuState
  3
DesignerServices
 90
     1024
280
     0
281
     0
  0
CLASS
  1
ADAPPL
  2
AcAdAppl
  3
DesignerServices
 90
     1024
280
     0
281
     0
  0
CLASS
  1
DEPMGR
  2
AcAdDepMgr
  3
DesignerServices
 90
     1024
280
     0
281
     0
  0
CLASS
  1
PARAMMGR
  2
AcAdParamMgr
  3
DesignerServices
 90
     1024
280
     0
281
     0
  0
CLASS
  1
PARAMSCOPE
  2
AcAdParamScope
  3
DesignerServices
 90
     1024
280
     0
281
     0
  0
CLASS
  1
NAMEDAPPL
  2
AcAdNamedAppl
  3
DesignerServices
 90
     1024
280
     0
281
     0
  0
CLASS
  1
AMDTDMMENUSTATE
  2
AmdtDmMenuState
  3
AcMechDwgViewMgmt
 90
     1024
280
     0
281
     0
  0
CLASS
  1
AMDTAMMENUSTATE
  2
AmdtAmMenuState
  3
DesignerAssemblies
 90
     1024
280
     0
281
     0
  0
CLASS
  1
ACAMPROJECT
  2
AcAmProject
  3
DesignerAssemblies
 90
     1024
280
     0
281
     0
  0
CLASS
  1
ACAMGRCOMPDEF
  2
AcAmGrCompDef
  3
DesignerAssemblies
 90
     1024
280
     0
281
     0
  0
CLASS
  1
ACCMCONTEXT
  2
AcCmContext
  3
DesignerAssemblies
 90
     1024
280
     0
281
     0
  0
CLASS
  1
ACAMCOMPDEF
  2
AcAmCompDef
  3
DesignerAssemblies
 90
     1024
280
     0
281
     0
  0
CLASS
  1
ACAMCOMPDEFMGR
  2
AcAmCompDefMgr
  3
DesignerAssemblies
 90
     1024
280
     0
281
     0
  0
CLASS
  1
AMCONTEXTMGR
  2
AcAmContextMgr
  3
DesignerAssemblies
 90
     1024
280
     0
281
     0
  0
CLASS
  1
ACAMCONTEXTMODELER
  2
AcAmContextModeler
  3
DesignerAssemblies
 90
     1024
280
     0
281
     0
  0
CLASS
  1
ACMTHREADLINESTANDARDISO
  2
AmdtThreadLineStdISO
  3
"Amdt_StdImp|Product Description: AutoCAD Mechanical|Company: Autodesk, Inc."
 90
    33792
280
     0
281
     0
  0
CLASS
  1
CATALOGSTATE
  2
AcAmCatalogState
  3
DesignerAssemblies
 90
     1024
280
     0
281
     0
  0
CLASS
  1
ACAMGRCOMPDEFSET
  2
AcAmGrCompDefSet
  3
DesignerAssemblies
 90
     1024
280
     0
281
     0
  0
CLASS
  1
AMDTBROWSERDBTAB
  2
AmdtBrowserDbTab
  3
McadcomServices
 90
     1024
280
     0
281
     0
  0
CLASS
  1
CBROWSERAPPOBJECT
  2
CBrowserAppObject
  3
McadcomServices
 90
     1024
280
     0
281
     0
  0
CLASS
  1
DM_PLACEHOLDER
  2
AcDmSelsetPlaceholder
  3
AcMechDwgViewMgmt
 90
     1024
280
     0
281
     0
  0
CLASS
  1
TABLESTYLE
  2
AcDbTableStyle
  3
ObjectDBX Classes
 90
     4095
280
     0
281
     0
  0
CLASS
  1
VAACXREFPANELOBJECT
  2
VaAcXREFPanelObject
  3
VAAC_ADDIN
 90
    32768
280
     0
281
     0
  0
CLASS
  1
VAACIMAGEINVENTORY
  2
VaAcImageInventory
  3
VAAC_ADDIN
 90
    32768
280
     0
281
     0
  0
CLASS
  1
AMDTNOTETEMPLATEDB
  2
AmdtNoteTemplateDB
  3
AcmSymBB|Product Description: AutoCAD Mechanical|Company: Autodesk, Inc.
 90
     1024
280
     0
281
     0
  0
CLASS
  1
ACAMGFILTERDAT
  2
AcAmgFilterDat
  3
"AcadM|Product Description: AutoCAD Mechanical|Company: Autodesk, Inc."
 90
    33792
280
     0
281
     0
  0
CLASS
  1
ACMBOM
  2
AcmBom
  3
"AcmSymBB|Product Description: AutoCAD Mechanical|Company: Autodesk, Inc."
 90
    33792
280
     0
281
     0
  0
CLASS
  1
AMDTFORMULAUPDATEDISPATCHER
  2
AmdtFormulaUpdateDispatcher
  3
AcMeServices
 90
    33792
280
     0
281
     0
  0
CLASS
  1
ACMSTANDARDDIN
  2
AcmStandardDIN
  3
"Amdt_StdImp|Product Description: AutoCAD Mechanical|Company: Autodesk, Inc."
 90
     1024
280
     0
281
     0
  0
CLASS
  1
AMDTEDGESTANDARDDIN13715
  2
AmdtEdgeStdDIN13715
  3
"Amdt_StdImp|Product Description: AutoCAD Mechanical|Company: Autodesk, Inc."
 90
     1024
280
     0
281
     0
  0
CLASS
  1
ACMSURFSTANDARDDIN
  2
AcmSurfTextStdDIN
  3
"Amdt_StdImp|Product Description: AutoCAD Mechanical|Company: Autodesk, Inc."
 90
    33792
280
     0
281
     0
  0
CLASS
  1
ACMFCFSTANDARDDIN
  2
AcmFCFStdDIN
  3
"Amdt_StdImp|Product Description: AutoCAD Mechanical|Company: Autodesk, Inc."
 90
     1024
280
     0
281
     0
  0
CLASS
  1
ACMWELDSTANDARDDIN
  2
AcmWeldingStdDIN
  3
"Amdt_StdImp|Product Description: AutoCAD Mechanical|Company: Autodesk, Inc."
 90
     1024
280
     0
281
     0
  0
CLASS
  1
ACMIDSTANDARDDIN
  2
AcmIdStdDIN
  3
"Amdt_StdImp|Product Description: AutoCAD Mechanical|Company: Autodesk, Inc."
 90
     1024
280
     0
281
     0
  0
CLASS
  1
ACMDATUMSTANDARDDIN
  2
AcmDatumStdDIN
  3
"Amdt_StdImp|Product Description: AutoCAD Mechanical|Company: Autodesk, Inc."
 90
     1024
280
     0
281
     0
  0
CLASS
  1
ACMBOMSTANDARDDIN
  2
AcmBOMStdDIN
  3
"Amdt_StdImp|Product Description: AutoCAD Mechanical|Company: Autodesk, Inc."
 90
     1024
280
     0
281
     0
  0
CLASS
  1
ACMDETAILSTANDARDDIN
  2
AmdtDetailSymStdDIN
  3
"Amdt_StdImp|Product Description: AutoCAD Mechanical|Company: Autodesk, Inc."
 90
     1024
280
     0
281
     0
  0
CLASS
  1
ACMSECTIONSTANDARDDIN
  2
AmdtSectionSymStdDIN
  3
"Amdt_StdImp|Product Description: AutoCAD Mechanical|Company: Autodesk, Inc."
 90
     1024
280
     0
281
     0
  0
CLASS
  1
ACMCENTERLINESTANDARDDIN
  2
AmdtCenterLineStdDIN
  3
"Amdt_StdImp|Product Description: AutoCAD Mechanical|Company: Autodesk, Inc."
 90
     1024
280
     0
281
     0
  0
CLASS
  1
ACMTHREADLINESTANDARDDIN
  2
AmdtThreadLineStdDIN
  3
"Amdt_StdImp|Product Description: AutoCAD Mechanical|Company: Autodesk, Inc."
 90
     1024
280
     0
281
     0
  0
CLASS
  1
ACMNOTESTANDARDDIN
  2
AmdtNoteStdDIN
  3
"Amdt_StdImp|Product Description: AutoCAD Mechanical|Company: Autodesk, Inc."
 90
     1024
280
     0
281
     0
  0
CLASS
  1
ACAMGHOLECHARTSTDDIN
  2
AcAmgHoleChartStdDIN
  3
AmgDim|Product Description: AutoCAD Mechanical|Company: Autodesk, Inc.
 90
     1024
280
     0
281
     0
  0
CLASS
  1
MATERIAL
  2
AcDbMaterial
  3
ObjectDBX Classes
 90
     1153
280
     0
281
     0
  0
CLASS
  1
VISUALSTYLE
  2
AcDbVisualStyle
  3
ObjectDBX Classes
 90
     4095
280
     0
281
     0
  0
CLASS
  1
SCALE
  2
AcDbScale
  3
ObjectDBX Classes
 90
     1153
280
     0
281
     0
  0
CLASS
  1
MLEADERSTYLE
  2
AcDbMLeaderStyle
  3
ACDB_MLEADERSTYLE_CLASS
 90
     4095
280
     0
281
     0
  0
CLASS
  1
ACRFATTGENMGR
  2
AcRfAttGeneralMgr
  3
AcAttribServices
 90
    33792
280
     0
281
     0
  0
CLASS
  1
ACRFOBJATTMGR
  2
AcRfObjAttGroupMgr
  3
AcAttribServices
 90
    33792
280
     0
281
     0
  0
CLASS
  1
ACRFMCADAPIATTHOLDER
  2
AcRfMCADAPIAttHolder
  3
AcAttribServices
 90
    33792
280
     0
281
     0
  0
CLASS
  1
AMDTSYSATTR
  2
AmdtSystemAttribute
  3
AcAttribServices
 90
    33792
280
     0
281
     0
  0
CLASS
  1
ACMTAPERSTANDARDISO
  2
AcmTaperStdISO
  3
"Amdt_StdImp|Product Description: AutoCAD Mechanical|Company: Autodesk, Inc."
 90
    33792
280
     0
281
     0
  0
CLASS
  1
ACMANOOTATIONVIEWSTANDARDISO
  2
AmdtAnViewStdISO
  3
"Amdt_StdImp|Product Description: AutoCAD Mechanical|Company: Autodesk, Inc."
 90
    33792
280
     0
281
     0
  0
CLASS
  1
ACMTAPERSTANDARDDIN
  2
AcmTaperStdDIN
  3
"Amdt_StdImp|Product Description: AutoCAD Mechanical|Company: Autodesk, Inc."
 90
     1024
280
     0
281
     0
  0
CLASS
  1
ACMANOOTATIONVIEWSTANDARDDIN
  2
AmdtAnViewStdDIN
  3
"Amdt_StdImp|Product Description: AutoCAD Mechanical|Company: Autodesk, Inc."
 90
     1024
280
     0
281
     0
  0
CLASS
  1
EXACXREFPANELOBJECT
  2
ExAcXREFPanelObject
  3
EXAC_ESW
 90
     1025
280
     0
281
     0
  0
CLASS
  1
NPOCOLLECTION
  2
AcDbImpNonPersistentObjectsCollection
  3
ObjectDBX Classes
 90
     1153
280
     0
281
     0
  0
CLASS
  1
SORTENTSTABLE
  2
AcDbSortentsTable
  3
ObjectDBX Classes
 90
    32768
280
     0
281
     0
  0
CLASS
  1
AMDTNOTE
  2
AmdtNote
  3
"AcmSymBB|Product Description: AutoCAD Mechanical|Company: Autodesk, Inc."
 90
    36863
280
     0
281
     1
  0
CLASS
  1
AEC_REFEDIT_STATUS_TRACKER
  2
AecDbRefEditStatusTracker
  3
AecArchBase50|Product Desc: Autodesk Architectural Desktop 2007 |Company: Autodesk,Inc. |WEB Address: www.autodesk.com
 90
    32897
280
     0
281
     0
  0
CLASS
  1
DIMASSOC
  2
AcDbDimAssoc
  3
"AcDbDimAssoc|Product Desc:     AcDim ARX App For Dimension|Company:          Autodesk, Inc.|WEB Address:      www.autodesk.com"
 90
        0
280
     0
281
     0
  0
CLASS
  1
CELLSTYLEMAP
  2
AcDbCellStyleMap
  3
ObjectDBX Classes
 90
     1152
280
     0
281
     0
  0
CLASS
  1
ACMSURFSTANDARDDIN2002
  2
AcmSurfTextStdDIN2002
  3
"Amdt_StdImp|Product Description: AutoCAD Mechanical|Company: Autodesk, Inc."
 90
     1024
280
     0
281
     0
  0
CLASS
  1
ACDBPLACEHOLDER
  2
AcDbPlaceHolder
  3
ObjectDBX Classes
 90
        0
280
     0
281
     0
  0
CLASS
  1
LAYOUT
  2
AcDbLayout
  3
ObjectDBX Classes
 90
        0
280
     0
281
     0
  0
ENDSEC
  0
SECTION
  2
TABLES
  0
TABLE
  2
VPORT
  5
8
330
0
100
AcDbSymbolTable
 70
     1
  0
VPORT
  5
3B2
330
8
100
AcDbSymbolTableRecord
100
AcDbViewportTableRecord
  2
*Active
 70
     0
 10
0.0
 20
0.0
 11
1.0
 21
1.0
 12
345.5994178418158
 22
204.3670234522509
 13
0.0
 23
0.0
 14
2.5
 24
2.5
 15
10.0
 25
10.0
 16
0.0
 26
0.0
 36
1.0
 17
0.0
 27
0.0
 37
0.0
 40
373.7807903535422
 41
1.752272727272726
 42
50.0
 43
0.0
 44
0.0
 50
0.0
 51
0.0
 71
     0
 72
   100
 73
     1
 74
     3
 75
     0
 76
     0
 77
     0
 78
     0
281
     0
 65
     0
110
0.0
120
0.0
130
0.0
111
1.0
121
0.0
131
0.0
112
0.0
122
1.0
132
0.0
 79
     0
146
0.0
  0
ENDTAB
  0
TABLE
  2
LTYPE
  5
5
330
0
100
AcDbSymbolTable
 70
    21
  0
LTYPE
  5
14
330
5
100
AcDbSymbolTableRecord
100
AcDbLinetypeTableRecord
  2
ByBlock
 70
     0
  3

 72
    65
 73
     0
 40
0.0
  0
LTYPE
  5
15
330
5
100
AcDbSymbolTableRecord
100
AcDbLinetypeTableRecord
  2
ByLayer
 70
     0
  3

 72
    65
 73
     0
 40
0.0
  0
LTYPE
  5
16
330
5
100
AcDbSymbolTableRecord
100
AcDbLinetypeTableRecord
  2
Continuous
 70
     0
  3
Solid line
 72
    65
 73
     0
 40
0.0
  0
LTYPE
  5
67
330
5
100
AcDbSymbolTableRecord
100
AcDbLinetypeTableRecord
  2
Amconstr
 70
     0
  3
_______________________
 72
    65
 73
     2
 40
9999.0
 49
9999.0
 74
     0
 49
0.0
 74
     0
  0
LTYPE
  5
6C
330
5
100
AcDbSymbolTableRecord
100
AcDbLinetypeTableRecord
  2
Amzigzag
 70
     0
  3
/\/-/\/-/\/-/\/-/\/-/\/
 72
    65
 73
     2
 40
11.0001
 49
0.0001
 74
     4
 75
   136
340
22C
 46
0.04
 50
0.0
 44
0.0
 45
0.0
 49
-11.0
 74
     0
  0
LTYPE
  5
7E
330
5
100
AcDbSymbolTableRecord
100
AcDbLinetypeTableRecord
  2
CENTER
 70
     0
  3
__ . __
 72
    65
 73
     4
 40
7.0
 49
4.0
 74
     0
 49
-1.0
 74
     0
 49
1.0
 74
     0
 49
-1.0
 74
     0
  0
LTYPE
  5
D8
330
5
100
AcDbSymbolTableRecord
100
AcDbLinetypeTableRecord
  2
HIDDEN
 70
     0
  3
Hidden __ __ __ __ __ __ __ __ __ __ __ __ __ _
 72
    65
 73
     2
 40
9.524999999999996
 49
6.349999999999997
 74
     0
 49
-3.174999999999998
 74
     0
  0
LTYPE
  5
D9
330
5
100
AcDbSymbolTableRecord
100
AcDbLinetypeTableRecord
  2
PHANTOM2
 70
     0
  3
Phantom (.5x) ___ _ _ ___ _ _ ___ _ _ ___ _ _
 72
    65
 73
     6
 40
31.75
 49
15.875
 74
     0
 49
-3.174999999999998
 74
     0
 49
3.174999999999998
 74
     0
 49
-3.174999999999998
 74
     0
 49
3.174999999999998
 74
     0
 49
-3.174999999999998
 74
     0
  0
LTYPE
  5
2E5
330
5
100
AcDbSymbolTableRecord
100
AcDbLinetypeTableRecord
  2
ACDINWELD
 70
     0
  3
_ _ _ _ _
 72
    65
 73
     2
 40
2.0
 49
2.0
 74
     0
 49
-1.0
 74
     0
  0
LTYPE
  5
2E6
330
5
100
AcDbSymbolTableRecord
100
AcDbLinetypeTableRecord
  2
ACDINTGB
 70
     0
  3
__ . . __ . .
 72
    65
 73
     6
 40
9.0
 49
4.0
 74
     0
 49
-1.0
 74
     0
 49
1.0
 74
     0
 49
-1.0
 74
     0
 49
1.0
 74
     0
 49
-1.0
 74
     0
  0
LTYPE
  5
2E7
330
5
100
AcDbSymbolTableRecord
100
AcDbLinetypeTableRecord
  2
ACDINTGL
 70
     0
  3
_ _ _ _ _
 72
    65
 73
     2
 40
3.0
 49
2.0
 74
     0
 49
-1.0
 74
     0
  0
LTYPE
  5
321
330
5
100
AcDbSymbolTableRecord
100
AcDbLinetypeTableRecord
  2
AM_DIN_F_W050
 70
     0
  3
__ __ __ __ __ __ __ __ __ __ __ __ __ __ __
 72
    65
 73
     2
 40
6.25
 49
4.75
 74
     0
 49
-1.5
 74
     0
  0
LTYPE
  5
322
330
5
100
AcDbSymbolTableRecord
100
AcDbLinetypeTableRecord
  2
AM_DIN_G_W050
 70
     0
  3
____ . ____ . ____ . ____ . ____ . ____ . ____
 72
    65
 73
     4
 40
13.75
 49
9.75
 74
     0
 49
-1.5
 74
     0
 49
1.0
 74
     0
 49
-1.5
 74
     0
  0
LTYPE
  5
323
330
5
100
AcDbSymbolTableRecord
100
AcDbLinetypeTableRecord
  2
AM_DIN_K_W050
 70
     0
  3
_____ . . _____ . . _____ . . ____ .. ____
 72
    65
 73
     6
 40
16.25
 49
9.75
 74
     0
 49
-1.5
 74
     0
 49
1.0
 74
     0
 49
-1.5
 74
     0
 49
1.0
 74
     0
 49
-1.5
 74
     0
  0
LTYPE
  5
324
330
5
100
AcDbSymbolTableRecord
100
AcDbLinetypeTableRecord
  2
AM_DIN_G_W050x2
 70
     0
  3
__ . __ . __ . __ . __ . __
 72
    65
 73
     4
 40
6.875
 49
4.75
 74
     0
 49
-0.875
 74
     0
 49
0.375
 74
     0
 49
-0.875
 74
     0
  0
LTYPE
  5
325
330
5
100
AcDbSymbolTableRecord
100
AcDbLinetypeTableRecord
  2
AM_DIN_F_W050x2
 70
     0
  3
 _ _ _ _ _ _ _ _ _ _ _ _
 72
    65
 73
     2
 40
3.125
 49
2.25
 74
     0
 49
-0.875
 74
     0
  0
LTYPE
  5
58A
330
5
100
AcDbSymbolTableRecord
100
AcDbLinetypeTableRecord
  2
STRICHPUNKT
 70
     0
  3
Strichpunkt __ . __ . __ . __ . __ . __ . __ . 
 72
    65
 73
     4
 40
25.4
 49
12.7
 74
     0
 49
-6.349999999999997
 74
     0
 49
0.0
 74
     0
 49
-6.349999999999997
 74
     0
  0
LTYPE
  5
58B
330
5
100
AcDbSymbolTableRecord
100
AcDbLinetypeTableRecord
  2
STRICHLINIE
 70
     0
  3
Strichlinie __ __ __ __ __ __ __ __ __ __ __ __
 72
    65
 73
     2
 40
19.05
 49
12.7
 74
     0
 49
-6.349999999999997
 74
     0
  0
LTYPE
  5
10A6
330
5
100
AcDbSymbolTableRecord
100
AcDbLinetypeTableRecord
  2
AM_ISO02W050
 70
     0
  3
__ __ __ __ __ __ __ __ __ __ __ __ __ __ __
 72
    65
 73
     2
 40
7.5
 49
6.0
 74
     0
 49
-1.5
 74
     0
  0
LTYPE
  5
10A7
330
5
100
AcDbSymbolTableRecord
100
AcDbLinetypeTableRecord
  2
AM_ISO08W050
 70
     0
  3
____ . ____ . ____ . ____ . ____ . ____ . ____
 72
    65
 73
     4
 40
18.0
 49
12.0
 74
     0
 49
-1.5
 74
     0
 49
3.0
 74
     0
 49
-1.5
 74
     0
  0
LTYPE
  5
10A8
330
5
100
AcDbSymbolTableRecord
100
AcDbLinetypeTableRecord
  2
AM_ISO09W050
 70
     0
  3
_____ . . _____ . . _____ . . ____ .. ____
 72
    65
 73
     6
 40
22.5
 49
12.0
 74
     0
 49
-1.5
 74
     0
 49
3.0
 74
     0
 49
-1.5
 74
     0
 49
3.0
 74
     0
 49
-1.5
 74
     0
  0
LTYPE
  5
10A9
330
5
100
AcDbSymbolTableRecord
100
AcDbLinetypeTableRecord
  2
AM_ISO08W050x2
 70
     0
  3
__ . __ . __ . __ . __ . __
 72
    65
 73
     4
 40
9.0
 49
6.0
 74
     0
 49
-0.75
 74
     0
 49
1.5
 74
     0
 49
-0.75
 74
     0
  0
LTYPE
  5
10AA
330
5
100
AcDbSymbolTableRecord
100
AcDbLinetypeTableRecord
  2
AM_ISO02W050x2
 70
     0
  3
 _ _ _ _ _ _ _ _ _ _ _ _
 72
    65
 73
     2
 40
3.75
 49
3.0
 74
     0
 49
-0.75
 74
     0
  0
ENDTAB
  0
TABLE
  2
LAYER
  5
2
102
{ACAD_XDICTIONARY
360
59C
102
}
330
0
100
AcDbSymbolTable
 70
     7
  0
LAYER
  5
10
102
{ACAD_XDICTIONARY
360
EDF
102
}
330
2
100
AcDbSymbolTableRecord
100
AcDbLayerTableRecord
  2
0
 70
     0
 62
     7
  6
Continuous
370
    -3
390
F
  0
LAYER
  5
58C
102
{ACAD_XDICTIONARY
360
58D
102
}
330
2
100
AcDbSymbolTableRecord
100
AcDbLayerTableRecord
  2
P-0000
 70
     0
 62
     7
  6
Continuous
370
    -3
390
F
  0
LAYER
  5
58E
330
2
100
AcDbSymbolTableRecord
100
AcDbLayerTableRecord
  2
Defpoints
 70
     0
 62
     7
  6
Continuous
290
     0
370
    -3
390
F
  0
LAYER
  5
58F
102
{ACAD_XDICTIONARY
360
590
102
}
330
2
100
AcDbSymbolTableRecord
100
AcDbLayerTableRecord
  2
AM_5
 70
     0
 62
     3
  6
Continuous
370
    25
390
F
1001
AcAecLayerStandard
1000

1000

  0
LAYER
  5
591
102
{ACAD_XDICTIONARY
360
592
102
}
330
2
100
AcDbSymbolTableRecord
100
AcDbLayerTableRecord
  2
AM_8
 70
     0
 62
     1
  6
Continuous
370
    25
390
F
  0
LAYER
  5
922
102
{ACAD_XDICTIONARY
360
923
102
}
330
2
100
AcDbSymbolTableRecord
100
AcDbLayerTableRecord
  2
AM_7
 70
     0
 62
     4
  6
AM_DIN_G_W050
370
    25
390
F
  0
LAYER
  5
10AC
330
2
100
AcDbSymbolTableRecord
100
AcDbLayerTableRecord
  2
AM_CL
 70
     0
 62
     1
  6
Amconstr
370
    25
390
F
1001
AcAecLayerStandard
1000

1000

  0
ENDTAB
  0
TABLE
  2
STYLE
  5
3
330
0
100
AcDbSymbolTable
 70
     4
  0
STYLE
  5
11
330
3
100
AcDbSymbolTableRecord
100
AcDbTextStyleTableRecord
  2
STANDARD
 70
     0
 40
0.0
 41
1.0
 50
0.0
 71
     0
 42
2.5
  3
ISOCP.SHX
  4

  0
STYLE
  5
22C
330
3
100
AcDbSymbolTableRecord
100
AcDbTextStyleTableRecord
  2

 70
     1
 40
0.0
 41
1.0
 50
0.0
 71
     0
 42
2.5
  3
genltshp.shx
  4

  0
STYLE
  5
2E4
330
3
100
AcDbSymbolTableRecord
100
AcDbTextStyleTableRecord
  2
ACDINGDT
 70
     0
 40
0.0
 41
1.0
 50
0.0
 71
     0
 42
2.5
  3
amgdt.shx
  4

  0
STYLE
  5
1155
330
3
100
AcDbSymbolTableRecord
100
AcDbTextStyleTableRecord
  2
ACDINTS
 70
     0
 40
1.0
 41
1.0
 50
0.0
 71
     0
 42
2.5
  3
isocp.shx
  4

  0
ENDTAB
  0
TABLE
  2
VIEW
  5
6
330
0
100
AcDbSymbolTable
 70
     0
  0
ENDTAB
  0
TABLE
  2
UCS
  5
7
330
0
100
AcDbSymbolTable
 70
     0
  0
ENDTAB
  0
TABLE
  2
APPID
  5
9
330
0
100
AcDbSymbolTable
 70
    25
  0
APPID
  5
12
330
9
100
AcDbSymbolTableRecord
100
AcDbRegAppTableRecord
  2
ACAD
 70
     0
  0
APPID
  5
46
330
9
100
AcDbSymbolTableRecord
100
AcDbRegAppTableRecord
  2
MCAD_NO_VIS
 70
     0
  0
APPID
  5
47
330
9
100
AcDbSymbolTableRecord
100
AcDbRegAppTableRecord
  2
ACAD_TEMP_GRAPHIC
 70
     0
  0
APPID
  5
58
330
9
100
AcDbSymbolTableRecord
100
AcDbRegAppTableRecord
  2
ACATTRIBSERVICES
 70
     0
  0
APPID
  5
EE
330
9
100
AcDbSymbolTableRecord
100
AcDbRegAppTableRecord
  2
AD_DRAW
 70
     0
  0
APPID
  5
10C
330
9
100
AcDbSymbolTableRecord
100
AcDbRegAppTableRecord
  2
DESIGNERASSEMBLIES
 70
     0
  0
APPID
  5
111
330
9
100
AcDbSymbolTableRecord
100
AcDbRegAppTableRecord
  2
ACADM_DIM_EDIT
 70
     0
  0
APPID
  5
112
330
9
100
AcDbSymbolTableRecord
100
AcDbRegAppTableRecord
  2
AMDT_DM_ADJ
 70
     0
  0
APPID
  5
1A3
330
9
100
AcDbSymbolTableRecord
100
AcDbRegAppTableRecord
  2
ACAD_DSTYLE_DIMARC_LENGTH_SYMBOL
 70
     0
  0
APPID
  5
1A4
330
9
100
AcDbSymbolTableRecord
100
AcDbRegAppTableRecord
  2
ACAD_DSTYLE_DIMJOGGED_JOGANGLE_SYMBOL
 70
     0
  0
APPID
  5
3F1
330
9
100
AcDbSymbolTableRecord
100
AcDbRegAppTableRecord
  2
ACAD_MLEADERVER
 70
     0
  0
APPID
  5
595
330
9
100
AcDbSymbolTableRecord
100
AcDbRegAppTableRecord
  2
ACME_LAYERS
 70
     0
  0
APPID
  5
596
330
9
100
AcDbSymbolTableRecord
100
AcDbRegAppTableRecord
  2
ACAD_PSEXT
 70
     0
  0
APPID
  5
597
330
9
100
AcDbSymbolTableRecord
100
AcDbRegAppTableRecord
  2
GENIUS_GENODEF_13
 70
     0
  0
APPID
  5
598
330
9
100
AcDbSymbolTableRecord
100
AcDbRegAppTableRecord
  2
AcAecLayerStandard
 70
     0
  0
APPID
  5
599
330
9
100
AcDbSymbolTableRecord
100
AcDbRegAppTableRecord
  2
GENIUS_GENOBJ-N-HTC_13
 70
     0
  0
APPID
  5
59A
330
9
100
AcDbSymbolTableRecord
100
AcDbRegAppTableRecord
  2
GENIUS_GENHATCH_13
 70
     0
  0
APPID
  5
59B
330
9
100
AcDbSymbolTableRecord
100
AcDbRegAppTableRecord
  2
ACAD_DSTYLE_DIMINSPECT
 70
     0
  0
APPID
  5
925
330
9
100
AcDbSymbolTableRecord
100
AcDbRegAppTableRecord
  2
GENIUS_GENOBJ-N-CEN_13
 70
     0
  0
APPID
  5
926
330
9
100
AcDbSymbolTableRecord
100
AcDbRegAppTableRecord
  2
GENIUS_GENCEN_19
 70
     0
  0
APPID
  5
DF1
330
9
100
AcDbSymbolTableRecord
100
AcDbRegAppTableRecord
  2
ACAD_EXEMPT_FROM_CAD_STANDARDS
 70
     0
  0
APPID
  5
E70
330
9
100
AcDbSymbolTableRecord
100
AcDbRegAppTableRecord
  2
ACAD_DSTYLE_DIMANGULAR_EXTENSION
 70
     0
  0
APPID
  5
103E
330
9
100
AcDbSymbolTableRecord
100
AcDbRegAppTableRecord
  2
ACAD_DSTYLE_DIM_LINETYPE
 70
     0
  0
APPID
  5
103F
330
9
100
AcDbSymbolTableRecord
100
AcDbRegAppTableRecord
  2
ACAD_DSTYLE_DIM_EXT1_LINETYPE
 70
     0
  0
APPID
  5
1040
330
9
100
AcDbSymbolTableRecord
100
AcDbRegAppTableRecord
  2
ACAD_DSTYLE_DIM_EXT2_LINETYPE
 70
     0
  0
ENDTAB
  0
TABLE
  2
DIMSTYLE
  5
A
330
0
100
AcDbSymbolTable
 70
     9
100
AcDbDimStyleTable
 71
     1
340
2F0
  0
DIMSTYLE
105
2F0
102
{ACAD_REACTORS
330
1141
102
}
330
A
100
AcDbSymbolTableRecord
100
AcDbDimStyleTableRecord
  2
AM_DIN
 70
     0
  4
"
 41
3.5
 42
1.0
 43
10.0
 44
1.0
 47
0.1
 48
0.1
 73
     0
 74
     0
 77
     1
 78
     8
 79
     2
140
3.5
141
0.0
143
0.0393701
146
0.71
147
1.5
172
     1
176
   256
177
   256
178
     2
271
     2
272
     3
274
     4
283
     0
284
     8
340
11
371
    -1
372
    -1
1001
ACAD_DSTYLE_DIMJOGGED_JOGANGLE_SYMBOL
1070
   384
1040
1.570796326794896
1001
ACAD_DSTYLE_DIM_LINETYPE
1070
   380
1005
14
1001
ACAD_DSTYLE_DIM_EXT1_LINETYPE
1070
   381
1005
14
1001
ACAD_DSTYLE_DIM_EXT2_LINETYPE
1070
   382
1005
14
  0
DIMSTYLE
105
301
330
A
100
AcDbSymbolTableRecord
100
AcDbDimStyleTableRecord
  2
AM_DIN$3
 70
     0
  4
"
 41
3.5
 42
1.0
 43
10.0
 44
1.0
 47
0.1
 48
0.1
 73
     0
 77
     1
 78
     8
 79
     2
140
3.5
141
0.0
143
0.0393701
146
0.71
147
1.5
176
   256
177
   256
178
     2
271
     2
272
     3
274
     4
283
     0
284
     8
288
     1
289
     0
340
11
371
    -1
372
    -1
1001
ACAD_DSTYLE_DIMJOGGED_JOGANGLE_SYMBOL
1070
   384
1040
1.570796326794896
1001
ACAD_DSTYLE_DIM_LINETYPE
1070
   380
1005
14
1001
ACAD_DSTYLE_DIM_EXT1_LINETYPE
1070
   381
1005
14
1001
ACAD_DSTYLE_DIM_EXT2_LINETYPE
1070
   382
1005
14
  0
DIMSTYLE
105
306
330
A
100
AcDbSymbolTableRecord
100
AcDbDimStyleTableRecord
  2
AM_DIN$4
 70
     0
  4
"
 41
3.5
 42
1.0
 43
10.0
 44
1.0
 47
0.1
 48
0.1
 73
     0
 74
     0
 77
     1
 78
     8
 79
     2
140
3.5
141
0.0
143
0.0393701
146
0.71
147
1.5
172
     1
176
   256
177
   256
178
     2
271
     2
272
     3
274
     4
283
     0
284
     8
340
11
371
    -1
372
    -1
1001
ACAD_DSTYLE_DIMJOGGED_JOGANGLE_SYMBOL
1070
   384
1040
1.570796326794896
1001
ACAD_DSTYLE_DIM_LINETYPE
1070
   380
1005
14
1001
ACAD_DSTYLE_DIM_EXT1_LINETYPE
1070
   381
1005
14
1001
ACAD_DSTYLE_DIM_EXT2_LINETYPE
1070
   382
1005
14
  0
DIMSTYLE
105
30B
330
A
100
AcDbSymbolTableRecord
100
AcDbDimStyleTableRecord
  2
AM_DIN$6
 70
     0
  4
"
 41
3.5
 42
1.0
 43
10.0
 44
1.0
 47
0.1
 48
0.1
 73
     0
 74
     0
 78
     8
 79
     2
140
3.5
141
0.0
143
0.0393701
146
0.71
147
1.5
172
     1
176
   256
177
   256
178
     2
271
     2
272
     3
274
     4
283
     0
284
     8
340
11
371
    -1
372
    -1
1001
ACAD_DSTYLE_DIMJOGGED_JOGANGLE_SYMBOL
1070
   384
1040
1.570796326794896
1001
ACAD_DSTYLE_DIM_LINETYPE
1070
   380
1005
14
1001
ACAD_DSTYLE_DIM_EXT1_LINETYPE
1070
   381
1005
14
1001
ACAD_DSTYLE_DIM_EXT2_LINETYPE
1070
   382
1005
14
  0
DIMSTYLE
105
310
330
A
100
AcDbSymbolTableRecord
100
AcDbDimStyleTableRecord
  2
AM_DIN$7
 70
     0
  4
"
 41
3.5
 42
1.0
 43
10.0
 44
1.0
 47
0.1
 48
0.1
 73
     0
 74
     0
 77
     1
 78
     8
 79
     2
140
3.5
141
0.0
143
0.0393701
146
0.71
147
1.5
172
     1
176
   256
177
   256
178
     2
271
     2
272
     3
274
     4
283
     0
284
     8
340
11
371
    -1
372
    -1
1001
ACAD_DSTYLE_DIMJOGGED_JOGANGLE_SYMBOL
1070
   384
1040
1.570796326794896
1001
ACAD_DSTYLE_DIM_LINETYPE
1070
   380
1005
14
1001
ACAD_DSTYLE_DIM_EXT1_LINETYPE
1070
   381
1005
14
1001
ACAD_DSTYLE_DIM_EXT2_LINETYPE
1070
   382
1005
14
  0
DIMSTYLE
105
315
330
A
100
AcDbSymbolTableRecord
100
AcDbDimStyleTableRecord
  2
AM_DIN$SF
 70
     0
  4
"
 41
3.5
 42
1.0
 43
10.0
 44
1.0
 47
0.1
 48
0.1
 73
     0
 74
     0
 75
     1
 76
     1
 77
     1
 78
     8
 79
     2
140
3.5
141
0.0
143
0.0393701
146
0.71
147
1.5
172
     1
176
   256
177
   256
178
     2
271
     2
272
     3
274
     4
283
     0
284
     8
340
11
371
    -1
372
    -1
1001
ACAD_DSTYLE_DIMJOGGED_JOGANGLE_SYMBOL
1070
   384
1040
1.570796326794896
1001
ACAD_DSTYLE_DIM_LINETYPE
1070
   380
1005
14
1001
ACAD_DSTYLE_DIM_EXT1_LINETYPE
1070
   381
1005
14
1001
ACAD_DSTYLE_DIM_EXT2_LINETYPE
1070
   382
1005
14
  0
DIMSTYLE
105
31A
330
A
100
AcDbSymbolTableRecord
100
AcDbDimStyleTableRecord
  2
AM_DIN$SH
 70
     0
  4
"
 41
3.5
 42
1.0
 43
10.0
 44
1.0
 47
0.1
 48
0.1
 73
     0
 74
     0
 75
     1
 76
     1
 77
     1
 78
     8
 79
     2
140
3.5
141
0.0
143
0.0393701
144
2.0
146
0.71
147
1.5
172
     1
173
     1
176
   256
177
   256
178
     2
271
     2
272
     3
274
     4
283
     0
284
     8
340
11
343
87
371
    -1
372
    -1
1001
ACAD_DSTYLE_DIMJOGGED_JOGANGLE_SYMBOL
1070
   384
1040
1.570796326794896
1001
ACAD_DSTYLE_DIM_LINETYPE
1070
   380
1005
14
1001
ACAD_DSTYLE_DIM_EXT1_LINETYPE
1070
   381
1005
14
1001
ACAD_DSTYLE_DIM_EXT2_LINETYPE
1070
   382
1005
14
  0
DIMSTYLE
105
594
102
{ACAD_REACTORS
330
85B
330
859
330
85A
330
85D
102
}
330
A
100
AcDbSymbolTableRecord
100
AcDbDimStyleTableRecord
  2
AM_DIN$0
 70
     0
  4
"
 41
3.5
 42
1.0
 43
10.0
 44
1.0
 47
0.1
 48
0.1
 73
     0
 74
     0
 77
     1
 78
     8
 79
     2
140
3.5
141
0.0
143
0.0393701
146
0.71
147
1.5
172
     1
176
   256
177
   256
178
     2
271
     2
272
     3
274
     4
283
     0
284
     8
340
11
371
    -1
372
    -1
1001
ACAD_DSTYLE_DIMJOGGED_JOGANGLE_SYMBOL
1070
   384
1040
1.570796326794896
1001
ACAD_DSTYLE_DIM_LINETYPE
1070
   380
1005
14
1001
ACAD_DSTYLE_DIM_EXT1_LINETYPE
1070
   381
1005
14
1001
ACAD_DSTYLE_DIM_EXT2_LINETYPE
1070
   382
1005
14
  0
DIMSTYLE
105
E89
102
{ACAD_REACTORS
330
E8B
102
}
330
A
100
AcDbSymbolTableRecord
100
AcDbDimStyleTableRecord
  2
AM_DIN$2
 70
     0
  4
"
 41
3.5
 42
1.0
 43
10.0
 44
1.0
 47
0.1
 48
0.1
 73
     0
 74
     0
 77
     1
 78
     8
 79
     2
140
3.5
141
0.0
143
0.0393701
146
0.71
147
1.5
172
     1
176
   256
177
   256
178
     2
271
     2
272
     3
274
     4
283
     0
284
     8
340
11
371
    -1
372
    -1
1001
ACAD_DSTYLE_DIMJOGGED_JOGANGLE_SYMBOL
1070
   384
1040
1.570796326794896
1001
ACAD_DSTYLE_DIM_LINETYPE
1070
   380
1005
14
1001
ACAD_DSTYLE_DIM_EXT1_LINETYPE
1070
   381
1005
14
1001
ACAD_DSTYLE_DIM_EXT2_LINETYPE
1070
   382
1005
14
  0
ENDTAB
  0
TABLE
  2
BLOCK_RECORD
  5
1
330
0
100
AcDbSymbolTable
 70
     9
  0
BLOCK_RECORD
  5
1F
102
{ACAD_XDICTIONARY
360
8F
102
}
330
1
100
AcDbSymbolTableRecord
100
AcDbBlockTableRecord
  2
*Model_Space
340
22
  0
BLOCK_RECORD
  5
1B
330
1
100
AcDbSymbolTableRecord
100
AcDbBlockTableRecord
  2
*Paper_Space
340
1E
  0
BLOCK_RECORD
  5
23
330
1
100
AcDbSymbolTableRecord
100
AcDbBlockTableRecord
  2
*Paper_Space0
340
26
  0
BLOCK_RECORD
  5
87
330
1
100
AcDbSymbolTableRecord
100
AcDbBlockTableRecord
  2
GENAXEH
340
0
  0
BLOCK_RECORD
  5
8AB
330
1
100
AcDbSymbolTableRecord
100
AcDbBlockTableRecord
  2
*D2
340
0
  0
BLOCK_RECORD
  5
8B7
330
1
100
AcDbSymbolTableRecord
100
AcDbBlockTableRecord
  2
*D3
340
0
  0
BLOCK_RECORD
  5
8C3
330
1
100
AcDbSymbolTableRecord
100
AcDbBlockTableRecord
  2
*D4
340
0
  0
BLOCK_RECORD
  5
8DB
330
1
100
AcDbSymbolTableRecord
100
AcDbBlockTableRecord
  2
*D5
340
0
  0
BLOCK_RECORD
  5
DE4
330
1
100
AcDbSymbolTableRecord
100
AcDbBlockTableRecord
  2
*D6
340
0
  0
BLOCK_RECORD
  5
E8C
330
1
100
AcDbSymbolTableRecord
100
AcDbBlockTableRecord
  2
*D7
340
0
  0
ENDTAB
  0
ENDSEC
  0
SECTION
  2
BLOCKS
  0
BLOCK
  5
20
330
1F
100
AcDbEntity
  8
0
100
AcDbBlockBegin
  2
*Model_Space
 70
     0
 10
0.0
 20
0.0
 30
0.0
  3
*Model_Space
  1

  0
ENDBLK
  5
21
330
1F
100
AcDbEntity
  8
0
100
AcDbBlockEnd
  0
BLOCK
  5
1C
330
1B
100
AcDbEntity
 67
     1
  8
0
100
AcDbBlockBegin
  2
*Paper_Space
 70
     0
 10
0.0
 20
0.0
 30
0.0
  3
*Paper_Space
  1

  0
ENDBLK
  5
1D
330
1B
100
AcDbEntity
 67
     1
  8
0
100
AcDbBlockEnd
  0
BLOCK
  5
24
330
23
100
AcDbEntity
 67
     1
  8
0
100
AcDbBlockBegin
  2
*Paper_Space0
 70
     0
 10
0.0
 20
0.0
 30
0.0
  3
*Paper_Space0
  1

  0
ENDBLK
  5
25
330
23
100
AcDbEntity
 67
     1
  8
0
100
AcDbBlockEnd
  0
BLOCK
  5
89
330
87
100
AcDbEntity
  8
0
100
AcDbBlockBegin
  2
GENAXEH
 70
     0
 10
0.0
 20
0.0
 30
0.0
  3
GENAXEH
  1

  0
LINE
  5
88
330
87
100
AcDbEntity
  8
0
100
AcDbLine
 10
-1.0
 20
0.0
 30
0.0
 11
1.0
 21
0.0
 31
0.0
  0
ENDBLK
  5
8A
330
87
100
AcDbEntity
  8
0
100
AcDbBlockEnd
  0
BLOCK
  5
8AC
330
8AB
100
AcDbEntity
  8
0
100
AcDbBlockBegin
  2
*D2
 70
     1
 10
0.0
 20
0.0
 30
0.0
  3
*D2
  1

  0
LINE
  5
11A2
330
8AB
100
AcDbEntity
  8
AM_5
  6
ByBlock
100
AcDbLine
 10
286.4742936659663
 20
78.5679591438833
 30
0.0
 11
286.4742936659663
 21
18.76338202791339
 31
0.0
  0
LINE
  5
11A3
330
8AB
100
AcDbEntity
  8
AM_5
  6
ByBlock
100
AcDbLine
 10
516.4742936659663
 20
155.8997045404901
 30
0.0
 11
516.4742936659663
 21
18.76338202791339
 31
0.0
  0
LINE
  5
11A4
330
8AB
100
AcDbEntity
  8
AM_5
  6
ByBlock
100
AcDbLine
 10
291.4742936659663
 20
19.76338202791339
 30
0.0
 11
511.4742936659663
 21
19.76338202791339
 31
0.0
  0
SOLID
  5
11A5
330
8AB
100
AcDbEntity
  8
AM_5
100
AcDbTrace
 10
291.4742936659663
 20
20.59671536124672
 30
0.0
 11
291.4742936659663
 21
18.93004869458006
 31
0.0
 12
286.4742936659663
 22
19.76338202791339
 32
0.0
 13
286.4742936659663
 23
19.76338202791339
 33
0.0
  0
SOLID
  5
11A6
330
8AB
100
AcDbEntity
  8
AM_5
100
AcDbTrace
 10
511.4742936659663
 20
20.59671536124672
 30
0.0
 11
511.4742936659663
 21
18.93004869458006
 31
0.0
 12
516.4742936659663
 22
19.76338202791339
 32
0.0
 13
516.4742936659663
 23
19.76338202791339
 33
0.0
  0
MTEXT
  5
11A7
330
8AB
100
AcDbEntity
  8
AM_5
 62
     2
100
AcDbMText
 10
401.4742936659663
 20
26.26436627988189
 30
0.0
 40
10.0
 41
0.0
 71
     5
 72
     1
  1
230
 73
     1
 44
1.0
1001
ACAD
1000
MTEXTBEGIN
1070
    73
1070
     1
1070
    44
1040
1.0
1070
    74
1070
     0
1000
MTEXTEND
  0
POINT
  5
11A8
330
8AB
100
AcDbEntity
  8
Defpoints
 62
     0
100
AcDbPoint
 10
286.4742936659663
 20
79.5679591438833
 30
0.0
  0
POINT
  5
11A9
330
8AB
100
AcDbEntity
  8
Defpoints
 62
     0
100
AcDbPoint
 10
516.4742936659663
 20
156.8997045404901
 30
0.0
  0
POINT
  5
11AA
330
8AB
100
AcDbEntity
  8
Defpoints
 62
     0
100
AcDbPoint
 10
516.4742936659663
 20
19.76338202791339
 30
0.0
  0
ENDBLK
  5
8AD
330
8AB
100
AcDbEntity
  8
0
100
AcDbBlockEnd
  0
BLOCK
  5
8B8
330
8B7
100
AcDbEntity
  8
0
100
AcDbBlockBegin
  2
*D3
 70
     1
 10
0.0
 20
0.0
 30
0.0
  3
*D3
  1

  0
LINE
  5
11AB
330
8B7
100
AcDbEntity
  8
AM_5
  6
ByBlock
100
AcDbLine
 10
509.1565230001542
 20
90.61471202723275
 30
0.0
 11
556.0737285972598
 21
88.97632710537896
 31
0.0
  0
LINE
  5
11AC
330
8B7
100
AcDbEntity
  8
AM_5
  6
ByBlock
100
AcDbLine
 10
513.798156061587
 20
223.5336920207724
 30
0.0
 11
560.7153616586934
 21
221.8953070989185
 31
0.0
  0
LINE
  5
11AD
330
8B7
100
AcDbEntity
  8
AM_5
  6
ByBlock
100
AcDbLine
 10
555.2488352537533
 20
94.00818073717696
 30
0.0
 11
559.5414733481617
 21
216.9332524605256
 31
0.0
  0
SOLID
  5
11AE
330
8B7
100
AcDbEntity
  8
AM_5
100
AcDbTrace
 10
554.4160095645707
 20
94.03726365109571
 30
0.0
 11
556.0816609429359
 21
93.9790978232582
 31
0.0
 12
555.0743377702407
 22
89.01122660208148
 32
0.0
 13
555.0743377702407
 23
89.01122660208148
 33
0.0
  0
SOLID
  5
11AF
330
8B7
100
AcDbEntity
  8
AM_5
100
AcDbTrace
 10
558.7086476589791
 20
216.9623353744443
 30
0.0
 11
560.3742990373444
 21
216.9041695466068
 31
0.0
 12
559.7159708316743
 22
221.930206595621
 32
0.0
 13
559.7159708316743
 23
221.930206595621
 33
0.0
  0
MTEXT
  5
11B0
330
8B7
100
AcDbEntity
  8
AM_5
 62
     2
100
AcDbMText
 10
552.0035972019985
 20
187.3258261847373
 30
0.0
 40
10.0
 41
0.0
 71
     5
 72
     1
  1
%%c133
 11
0.034899496702508
 21
0.9993908270190955
 31
0.0
 73
     1
 44
1.0
1001
ACAD
1000
MTEXTBEGIN
1070
    73
1070
     1
1070
    44
1040
1.0
1070
    74
1070
     0
1000
MTEXTEND
  0
POINT
  5
11B1
330
8B7
100
AcDbEntity
  8
Defpoints
 62
     0
100
AcDbPoint
 10
508.1571321731352
 20
90.64961152393527
 30
0.0
  0
POINT
  5
11B2
330
8B7
100
AcDbEntity
  8
Defpoints
 62
     0
100
AcDbPoint
 10
512.7987652345679
 20
223.5685915174749
 30
0.0
  0
POINT
  5
11B3
330
8B7
100
AcDbEntity
  8
Defpoints
 62
     0
100
AcDbPoint
 10
559.7159708316743
 20
221.930206595621
 30
0.0
  0
ENDBLK
  5
8B9
330
8B7
100
AcDbEntity
  8
0
100
AcDbBlockEnd
  0
BLOCK
  5
8C4
330
8C3
100
AcDbEntity
  8
0
100
AcDbBlockBegin
  2
*D4
 70
     1
 10
0.0
 20
0.0
 30
0.0
  3
*D4
  1

  0
LINE
  5
1199
330
8C3
100
AcDbEntity
  8
AM_5
  6
ByBlock
100
AcDbLine
 10
236.6315994390424
 20
97.77915458991763
 30
0.0
 11
117.3994779772497
 21
97.77915458991769
 31
0.0
  0
LINE
  5
119A
330
8C3
100
AcDbEntity
  8
AM_5
  6
ByBlock
100
AcDbLine
 10
159.6598861668081
 20
275.2826119848837
 30
0.0
 11
117.3994779772497
 21
275.2826119848838
 31
0.0
  0
LINE
  5
119B
330
8C3
100
AcDbEntity
  8
AM_5
  6
ByBlock
100
AcDbLine
 10
118.3994779772497
 20
102.7791545899177
 30
0.0
 11
118.3994779772497
 21
270.2826119848838
 31
0.0
  0
SOLID
  5
119C
330
8C3
100
AcDbEntity
  8
AM_5
100
AcDbTrace
 10
117.5661446439164
 20
102.7791545899177
 30
0.0
 11
119.232811310583
 21
102.7791545899177
 31
0.0
 12
118.3994779772497
 22
97.77915458991769
 32
0.0
 13
118.3994779772497
 23
97.77915458991769
 33
0.0
  0
SOLID
  5
119D
330
8C3
100
AcDbEntity
  8
AM_5
100
AcDbTrace
 10
117.5661446439164
 20
270.2826119848838
 30
0.0
 11
119.232811310583
 21
270.2826119848838
 31
0.0
 12
118.3994779772497
 22
275.2826119848838
 32
0.0
 13
118.3994779772497
 23
275.2826119848838
 33
0.0
  0
MTEXT
  5
119E
330
8C3
100
AcDbEntity
  8
AM_5
 62
     2
100
AcDbMText
 10
111.8994779772497
 20
183.6104815683862
 30
0.0
 40
10.0
 41
0.0
 71
     5
 72
     1
  1
177.5
 11
0.0000000000000001
 21
1.0
 31
0.0
 73
     1
 44
1.0
1001
ACAD
1000
MTEXTBEGIN
1070
    73
1070
     1
1070
    44
1040
1.0
1070
    74
1070
     0
1000
MTEXTEND
  0
POINT
  5
119F
330
8C3
100
AcDbEntity
  8
Defpoints
 62
     0
100
AcDbPoint
 10
237.6315994390424
 20
97.77915458991763
 30
0.0
  0
POINT
  5
11A0
330
8C3
100
AcDbEntity
  8
Defpoints
 62
     0
100
AcDbPoint
 10
160.6598861668081
 20
275.2826119848837
 30
0.0
  0
POINT
  5
11A1
330
8C3
100
AcDbEntity
  8
Defpoints
 62
     0
100
AcDbPoint
 10
118.3994779772497
 20
275.2826119848838
 30
0.0
  0
ENDBLK
  5
8C5
330
8C3
100
AcDbEntity
  8
0
100
AcDbBlockEnd
  0
BLOCK
  5
8DC
330
8DB
100
AcDbEntity
  8
0
100
AcDbBlockBegin
  2
*D5
 70
     1
 10
0.0
 20
0.0
 30
0.0
  3
*D5
  1

  0
LINE
  5
11B4
330
8DB
100
AcDbEntity
  8
AM_5
  6
ByBlock
100
AcDbLine
 10
444.7857529003614
 20
281.2826119848836
 30
0.0
 11
583.7972190626352
 21
281.2826119848836
 31
0.0
  0
LINE
  5
11B5
330
8DB
100
AcDbEntity
  8
AM_5
  6
ByBlock
100
AcDbLine
 10
517.4742936659663
 20
156.8997045404901
 30
0.0
 11
583.7972190626351
 21
156.89970454049
 31
0.0
  0
LINE
  5
11B6
330
8DB
100
AcDbEntity
  8
AM_5
  6
ByBlock
100
AcDbLine
 10
582.7972190626352
 20
276.2826119848836
 30
0.0
 11
582.7972190626351
 21
161.89970454049
 31
0.0
  0
SOLID
  5
11B7
330
8DB
100
AcDbEntity
  8
AM_5
100
AcDbTrace
 10
581.9638857293019
 20
276.2826119848836
 30
0.0
 11
583.6305523959686
 21
276.2826119848836
 31
0.0
 12
582.7972190626352
 22
281.2826119848836
 32
0.0
 13
582.7972190626352
 23
281.2826119848836
 33
0.0
  0
SOLID
  5
11B8
330
8DB
100
AcDbEntity
  8
AM_5
100
AcDbTrace
 10
581.9638857293017
 20
161.89970454049
 30
0.0
 11
583.6305523959684
 21
161.89970454049
 31
0.0
 12
582.7972190626351
 22
156.89970454049
 32
0.0
 13
582.7972190626351
 23
156.89970454049
 33
0.0
  0
MTEXT
  5
11B9
330
8DB
100
AcDbEntity
  8
AM_5
 62
     2
100
AcDbMText
 10
576.2962348106666
 20
217.3782009832176
 30
0.0
 40
10.0
 41
0.0
 71
     5
 72
     1
  1
124.4
 11
0.0000000000000001
 21
1.0
 31
0.0
 73
     1
 44
1.0
1001
ACAD
1000
MTEXTBEGIN
1070
    73
1070
     1
1070
    44
1040
1.0
1070
    74
1070
     0
1000
MTEXTEND
  0
POINT
  5
11BA
330
8DB
100
AcDbEntity
  8
Defpoints
 62
     0
100
AcDbPoint
 10
443.7857529003614
 20
281.2826119848836
 30
0.0
  0
POINT
  5
11BB
330
8DB
100
AcDbEntity
  8
Defpoints
 62
     0
100
AcDbPoint
 10
516.4742936659663
 20
156.8997045404901
 30
0.0
  0
POINT
  5
11BC
330
8DB
100
AcDbEntity
  8
Defpoints
 62
     0
100
AcDbPoint
 10
582.7972190626351
 20
156.89970454049
 30
0.0
  0
ENDBLK
  5
8DD
330
8DB
100
AcDbEntity
  8
0
100
AcDbBlockEnd
  0
BLOCK
  5
DE5
330
DE4
100
AcDbEntity
  8
0
100
AcDbBlockBegin
  2
*D6
 70
     1
 10
0.0
 20
0.0
 30
0.0
  3
*D6
  1

  0
LINE
  5
1190
330
DE4
100
AcDbEntity
  8
AM_5
  6
ByBlock
100
AcDbLine
 10
36.4742936659689
 20
284.3137593417976
 30
0.0
 11
36.47429366596891
 21
443.0123136742476
 31
0.0
  0
LINE
  5
1191
330
DE4
100
AcDbEntity
  8
AM_5
  6
ByBlock
100
AcDbLine
 10
536.4742936659715
 20
282.3137593417907
 30
0.0
 11
536.4742936659715
 21
443.0123136742476
 31
0.0
  0
LINE
  5
1192
330
DE4
100
AcDbEntity
  8
AM_5
  6
ByBlock
100
AcDbLine
 10
41.47429366596891
 20
442.0123136742476
 30
0.0
 11
531.4742936659715
 21
442.0123136742476
 31
0.0
  0
SOLID
  5
1193
330
DE4
100
AcDbEntity
  8
AM_5
100
AcDbTrace
 10
41.47429366596891
 20
442.8456470075809
 30
0.0
 11
41.47429366596891
 21
441.1789803409142
 31
0.0
 12
36.47429366596891
 22
442.0123136742476
 32
0.0
 13
36.47429366596891
 23
442.0123136742476
 33
0.0
  0
SOLID
  5
1194
330
DE4
100
AcDbEntity
  8
AM_5
100
AcDbTrace
 10
531.4742936659715
 20
442.8456470075809
 30
0.0
 11
531.4742936659715
 21
441.1789803409142
 31
0.0
 12
536.4742936659715
 22
442.0123136742476
 32
0.0
 13
536.4742936659715
 23
442.0123136742476
 33
0.0
  0
MTEXT
  5
1195
330
DE4
100
AcDbEntity
  8
AM_5
 62
     2
100
AcDbMText
 10
286.4742936659703
 20
448.5123136742475
 30
0.0
 40
10.0
 41
0.0
 71
     5
 72
     1
  1
{\Famgdt;o}500
 73
     1
 44
1.0
1001
ACAD
1000
MTEXTBEGIN
1070
    73
1070
     1
1070
    44
1040
1.0
1070
    74
1070
     0
1000
MTEXTEND
  0
POINT
  5
1196
330
DE4
100
AcDbEntity
  8
Defpoints
 62
     0
100
AcDbPoint
 10
36.4742936659689
 20
283.3137593417977
 30
0.0
  0
POINT
  5
1197
330
DE4
100
AcDbEntity
  8
Defpoints
 62
     0
100
AcDbPoint
 10
536.4742936659715
 20
281.3137593417907
 30
0.0
  0
POINT
  5
1198
330
DE4
100
AcDbEntity
  8
Defpoints
 62
     0
100
AcDbPoint
 10
536.4742936659715
 20
442.0123136742476
 30
0.0
  0
ENDBLK
  5
DE6
330
DE4
100
AcDbEntity
  8
0
100
AcDbBlockEnd
  0
BLOCK
  5
E8D
330
E8C
100
AcDbEntity
  8
0
100
AcDbBlockBegin
  2
*D7
 70
     1
 10
0.0
 20
0.0
 30
0.0
  3
*D7
  1

  0
ARC
  5
1183
330
E8C
100
AcDbEntity
  8
AM_5
  6
ByBlock
100
AcDbCircle
 10
361.9742936659714
 20
162.294963426965
 30
0.0
 40
128.2181059764872
100
AcDbArc
 50
353.5302481999011
 51
358.0
  0
LINE
  5
1184
330
E8C
100
AcDbEntity
  8
AM_5
  6
ByBlock
100
AcDbLine
 10
489.3758401553162
 20
147.847518935947
 30
0.0
 11
487.882404280949
 21
134.6779898821864
 31
0.0
  0
ARC
  5
1185
330
E8C
100
AcDbEntity
  8
AM_5
  6
ByBlock
100
AcDbCircle
 10
361.9742936659714
 20
162.294963426965
 30
0.0
 40
128.2181059764872
100
AcDbArc
 50
353.5310983512878
 51
355.7655491756439
  0
ARC
  5
1186
330
E8C
100
AcDbEntity
  8
AM_5
  6
ByBlock
100
AcDbCircle
 10
361.9742936659714
 20
162.294963426965
 30
0.0
 40
128.2181059764872
100
AcDbArc
 50
2.234450824356093
 51
4.468901648712186
  0
ARC
  5
1187
330
E8C
100
AcDbEntity
  8
AM_5
  6
ByBlock
100
AcDbCircle
 10
361.9742936659714
 20
162.294963426965
 30
0.0
 40
128.2181059764872
100
AcDbArc
 50
358.0
 51
0.0
  0
SOLID
  5
1188
330
E8C
100
AcDbEntity
  8
AM_5
100
AcDbTrace
 10
489.010297277063
 20
152.8729300678487
 30
0.0
 11
490.6744978886254
 21
152.7822983832517
 31
0.0
 12
490.1142926366351
 22
157.8202160602376
 32
0.0
 13
490.1142926366351
 23
157.8202160602376
 33
0.0
  0
SOLID
  5
1189
330
E8C
100
AcDbEntity
  8
AM_5
100
AcDbTrace
 10
490.9280844239012
 20
167.3102612592775
 30
0.0
 11
489.2617345982085
 21
167.2777645488095
 31
0.0
 12
490.1923996424587
 22
162.294963426965
 32
0.0
 13
490.1923996424587
 23
162.294963426965
 33
0.0
  0
MTEXT
  5
118A
330
E8C
100
AcDbEntity
  8
AM_5
 62
     2
100
AcDbMText
 10
482.1695396100761
 20
141.9952766094377
 30
0.0
 40
10.0
 41
0.0
 71
     5
 72
     1
  1
2\U+00B0
 11
0.1126786609503292
 21
0.9936314806639535
 31
0.0
 73
     1
 44
1.0
1001
ACAD
1000
MTEXTBEGIN
1070
    73
1070
     1
1070
    44
1040
1.0
1070
    74
1070
     0
1000
MTEXTEND
  0
POINT
  5
118B
330
E8C
100
AcDbEntity
  8
Defpoints
 62
     0
100
AcDbPoint
 10
490.1837203029113
 20
160.8031116833769
 30
0.0
  0
POINT
  5
118C
330
E8C
100
AcDbEntity
  8
Defpoints
 62
     0
100
AcDbPoint
 10
361.9742936659732
 20
162.294963426965
 30
0.0
  0
POINT
  5
118D
330
E8C
100
AcDbEntity
  8
Defpoints
 62
     0
100
AcDbPoint
 10
286.4742936659662
 20
164.9314815235922
 30
0.0
  0
POINT
  5
118E
330
E8C
100
AcDbEntity
  8
Defpoints
 62
     0
100
AcDbPoint
 10
516.4742936659664
 20
156.8997045404901
 30
0.0
  0
POINT
  5
118F
330
E8C
100
AcDbEntity
  8
Defpoints
 62
     0
100
AcDbPoint
 10
516.662700257889
 20
162.294963426965
 30
0.0
  0
ENDBLK
  5
E8E
330
E8C
100
AcDbEntity
  8
0
100
AcDbBlockEnd
  0
ENDSEC
  0
SECTION
  2
ENTITIES
  0
LINE
  5
729
330
1F
100
AcDbEntity
  8
P-0000
  6
Continuous
 62
     7
100
AcDbLine
 10
345.4733793495249
 20
97.77915458991763
 30
0.0
 11
347.0267067488447
 21
97.77915458991763
 31
0.0
1001
ACME_LAYERS
1000
1
  0
LINE
  5
72A
330
1F
100
AcDbEntity
  8
P-0000
  6
Continuous
 62
     7
100
AcDbLine
 10
346.9742936659732
 20
96.27824027346946
 30
0.0
 11
346.7885292017807
 21
96.46400473766199
 31
0.0
1001
ACME_LAYERS
1000
1
  0
LINE
  5
72B
330
1F
100
AcDbEntity
  8
P-0000
  6
Continuous
 62
     7
100
AcDbLine
 10
363.9032763266064
 20
228.768136563991
 30
0.0
 11
412.9432258439458
 21
227.0556237910091
 31
0.0
1001
ACME_LAYERS
1000
1
  0
LINE
  5
72C
330
1F
100
AcDbEntity
  8
P-0000
  6
Continuous
 62
     7
100
AcDbLine
 10
361.9742936659732
 20
230.8367172114341
 30
0.0
 11
361.9742936659732
 21
228.8354981228366
 31
0.0
1001
ACME_LAYERS
1000
1
  0
LINE
  5
72D
330
1F
100
AcDbEntity
  8
P-0000
  6
Continuous
 62
     7
100
AcDbLine
 10
361.9742936659732
 20
230.8367172114341
 30
0.0
 11
363.9032763266064
 21
228.768136563991
 31
0.0
1001
ACME_LAYERS
1000
1
  0
LINE
  5
72E
330
1F
100
AcDbEntity
  8
P-0000
  6
Continuous
 62
     7
100
AcDbLine
 10
361.9742936659725
 20
264.2826119848838
 30
0.0
 11
361.974293665972
 21
267.485980306426
 31
0.0
1001
ACME_LAYERS
1000
1
  0
LINE
  5
72F
330
1F
100
AcDbEntity
  8
P-0000
  6
Continuous
 62
     7
100
AcDbLine
 10
361.9742936659725
 20
264.2826119848838
 30
0.0
 11
361.9742936659724
 21
266.2826119848836
 31
0.0
1001
ACME_LAYERS
1000
1
  0
LINE
  5
731
330
1F
100
AcDbEntity
  8
P-0000
  6
Continuous
 62
     7
100
AcDbLine
 10
210.9742936659607
 20
264.2826119848834
 30
0.0
 11
210.9742936659593
 21
257.4859803064263
 31
0.0
1001
ACME_LAYERS
1000
1
  0
LINE
  5
732
330
1F
100
AcDbEntity
  8
P-0000
  6
Continuous
 62
     7
100
AcDbLine
 10
210.9742936659607
 20
264.2826119848834
 30
0.0
 11
210.9742936659608
 21
268.2511952357073
 31
0.0
1001
ACME_LAYERS
1000
1
  0
LINE
  5
734
330
1F
100
AcDbEntity
  8
P-0000
  6
Continuous
 62
     7
100
AcDbLine
 10
412.9432258439458
 20
227.0556237910091
 30
0.0
 11
425.2563032646726
 21
226.6256416526659
 31
0.0
1001
ACME_LAYERS
1000
1
  0
LINE
  5
735
330
1F
100
AcDbEntity
  8
P-0000
  6
Continuous
 62
     7
100
AcDbLine
 10
174.2242936659589
 20
281.2826119848836
 30
0.0
 11
174.2242936659589
 21
277.2826119848836
 31
0.0
1001
ACME_LAYERS
1000
1
  0
LINE
  5
736
330
1F
100
AcDbEntity
  8
P-0000
  6
Continuous
 62
     7
100
AcDbLine
 10
166.2242936659591
 20
281.2826119848836
 30
0.0
 11
166.2242936659591
 21
277.2826119848836
 31
0.0
1001
ACME_LAYERS
1000
1
  0
LINE
  5
73C
330
1F
100
AcDbEntity
  8
P-0000
  6
Continuous
 62
     7
100
AcDbLine
 10
167.024293665959
 20
277.2826119848836
 30
0.0
 11
171.5138899097251
 21
277.2826119848836
 31
0.0
1001
ACME_LAYERS
1000
1
  0
LINE
  5
73D
330
1F
100
AcDbEntity
  8
P-0000
  6
Continuous
 62
     7
100
AcDbLine
 10
166.2242936659591
 20
277.2826119848836
 30
0.0
 11
167.024293665959
 21
277.2826119848836
 31
0.0
1001
ACME_LAYERS
1000
1
  0
LINE
  5
73E
330
1F
100
AcDbEntity
  8
P-0000
  6
Continuous
 62
     7
100
AcDbLine
 10
205.9742936659603
 20
281.2826119848836
 30
0.0
 11
214.6472027506737
 21
281.2826119848836
 31
0.0
1001
ACME_LAYERS
1000
1
  0
LINE
  5
742
330
1F
100
AcDbEntity
  8
P-0000
  6
Continuous
 62
     7
100
AcDbLine
 10
210.9742936659593
 20
257.4859803064263
 30
0.0
 11
210.9742936659591
 21
255.3842961456559
 31
0.0
1001
ACME_LAYERS
1000
1
  0
LINE
  5
743
330
1F
100
AcDbEntity
  8
P-0000
  6
Continuous
 62
     7
100
AcDbLine
 10
167.024293665959
 20
277.2826119848836
 30
0.0
 11
173.4242936659592
 21
277.2826119848836
 31
0.0
1001
ACME_LAYERS
1000
1
  0
LINE
  5
744
330
1F
100
AcDbEntity
  8
P-0000
  6
Continuous
 62
     7
100
AcDbLine
 10
166.2242936659591
 20
277.2826119848836
 30
0.0
 11
167.024293665959
 21
277.2826119848836
 31
0.0
1001
ACME_LAYERS
1000
1
  0
LINE
  5
745
330
1F
100
AcDbEntity
  8
P-0000
  6
Continuous
 62
     7
100
AcDbLine
 10
173.4242936659592
 20
277.2826119848836
 30
0.0
 11
174.2242936659589
 21
277.2826119848836
 31
0.0
1001
ACME_LAYERS
1000
1
  0
LINE
  5
755
330
1F
100
AcDbEntity
  8
P-0000
  6
Continuous
 62
     7
100
AcDbLine
 10
194.6166820088626
 20
277.5505611773144
 30
0.0
 11
200.1525803937261
 21
280.7467136000219
 31
0.0
1001
ACME_LAYERS
1000
1
  0
LINE
  5
756
330
1F
100
AcDbEntity
  8
P-0000
  6
Continuous
 62
     7
100
AcDbLine
 10
121.4307836240009
 20
275.2826119848837
 30
0.0
 11
146.0025803937247
 21
275.2826119848837
 31
0.0
1001
ACME_LAYERS
1000
1
  0
LINE
  5
757
330
1F
100
AcDbEntity
  8
P-0000
  6
Continuous
 62
     7
100
AcDbLine
 10
140.5653253840924
 20
277.803010474831
 30
0.0
 11
144.0025803937247
 21
275.8185103697457
 31
0.0
1001
ACME_LAYERS
1000
1
  0
LINE
  5
758
330
1F
100
AcDbEntity
  8
P-0000
  6
Continuous
 62
     7
100
AcDbLine
 10
174.1807836240009
 20
277.2826119848836
 30
0.0
 11
193.6166820088624
 21
277.2826119848836
 31
0.0
1001
ACME_LAYERS
1000
1
  0
LINE
  5
759
330
1F
100
AcDbEntity
  8
P-0000
  6
Continuous
 62
     7
100
AcDbLine
 10
121.4307836240009
 20
275.2826119848837
 30
0.0
 11
125.7962418639094
 21
277.803010474831
 31
0.0
1001
ACME_LAYERS
1000
1
  0
LINE
  5
75A
330
1F
100
AcDbEntity
  8
P-0000
  6
Continuous
 62
     7
100
AcDbLine
 10
146.2807836240013
 20
277.2826119848836
 30
0.0
 11
146.0025803937247
 21
277.2826119848836
 31
0.0
1001
ACME_LAYERS
1000
1
  0
LINE
  5
75B
330
1F
100
AcDbEntity
  8
P-0000
  6
Continuous
 62
     7
100
AcDbLine
 10
124.7962418639094
 20
279.5350612823991
 30
0.0
 11
126.6628344315691
 21
280.6127390038059
 31
0.0
1001
ACME_LAYERS
1000
1
  0
LINE
  5
75C
330
1F
100
AcDbEntity
  8
P-0000
  6
Continuous
 62
     7
100
AcDbLine
 10
126.7962418639094
 20
280.0709596672628
 30
0.0
 11
139.5653253840924
 21
280.0709596672628
 31
0.0
1001
ACME_LAYERS
1000
1
  0
LINE
  5
75D
330
1F
100
AcDbEntity
  8
P-0000
  6
Continuous
 62
     7
100
AcDbLine
 10
129.1628344315709
 20
281.2826119848836
 30
0.0
 11
138.0128344315694
 21
281.2826119848836
 31
0.0
1001
ACME_LAYERS
1000
1
  0
LINE
  5
75E
330
1F
100
AcDbEntity
  8
P-0000
  6
Continuous
 62
     7
100
AcDbLine
 10
137.4485505769666
 20
276.7826119848836
 30
0.0
 11
136.0343370145934
 21
278.1968255472571
 31
0.0
1001
ACME_LAYERS
1000
1
  0
LINE
  5
75F
330
1F
100
AcDbEntity
  8
P-0000
  6
Continuous
 62
     7
100
AcDbLine
 10
128.9130166710352
 20
276.7826119848836
 30
0.0
 11
137.4485505769666
 21
276.7826119848836
 31
0.0
1001
ACME_LAYERS
1000
1
  0
LINE
  5
760
330
1F
100
AcDbEntity
  8
P-0000
  6
Continuous
 62
     7
100
AcDbLine
 10
121.4307836240009
 20
275.2826119848837
 30
0.0
 11
125.7962418639094
 21
277.803010474831
 31
0.0
1001
ACME_LAYERS
1000
1
  0
LINE
  5
761
330
1F
100
AcDbEntity
  8
P-0000
  6
Continuous
 62
     7
100
AcDbLine
 10
121.4307836240009
 20
275.2826119848837
 30
0.0
 11
120.4307836240009
 21
277.0146627924538
 31
0.0
1001
ACME_LAYERS
1000
1
  0
LINE
  5
762
330
1F
100
AcDbEntity
  8
P-0000
  6
Continuous
 62
     7
100
AcDbLine
 10
128.2104554262828
 20
277.4851732296359
 30
0.0
 11
128.9130166710352
 21
276.7826119848836
 31
0.0
1001
ACME_LAYERS
1000
1
  0
LINE
  5
763
330
1F
100
AcDbEntity
  8
P-0000
  6
Continuous
 62
     7
100
AcDbLine
 10
137.4485505769666
 20
276.7826119848836
 30
0.0
 11
138.151111821719
 21
277.4851732296359
 31
0.0
1001
ACME_LAYERS
1000
1
  0
LINE
  5
764
330
1F
100
AcDbEntity
  8
P-0000
  6
Continuous
 62
     7
100
AcDbLine
 10
146.2807836240013
 20
277.2826119848836
 30
0.0
 11
140.5128344315694
 21
280.6127390038059
 31
0.0
1001
ACME_LAYERS
1000
1
  0
LINE
  5
765
330
1F
100
AcDbEntity
  8
P-0000
  6
Continuous
 62
     7
100
AcDbLine
 10
129.6246689886562
 20
278.8993867920094
 30
0.0
 11
130.3272302334085
 21
278.1968255472571
 31
0.0
1001
ACME_LAYERS
1000
1
  0
LINE
  5
766
330
1F
100
AcDbEntity
  8
P-0000
  6
Continuous
 62
     3
100
AcDbLine
 10
120.4307836240009
 20
277.0146627924538
 30
0.0
 11
124.7962418639094
 21
279.5350612823991
 31
0.0
1001
ACME_LAYERS
1000
1
  0
LINE
  5
767
330
1F
100
AcDbEntity
  8
P-0000
  6
Continuous
 62
     7
100
AcDbLine
 10
130.3272302334085
 20
278.1968255472571
 30
0.0
 11
128.9130166710352
 21
276.7826119848836
 31
0.0
1001
ACME_LAYERS
1000
1
  0
LINE
  5
768
330
1F
100
AcDbEntity
  8
P-0000
  6
Continuous
 62
     7
100
AcDbLine
 10
141.5653253840924
 20
279.5350612823991
 30
0.0
 11
145.0025803937247
 21
277.5505611773156
 31
0.0
1001
ACME_LAYERS
1000
1
  0
LINE
  5
769
330
1F
100
AcDbEntity
  8
P-0000
  6
Continuous
 62
     7
100
AcDbLine
 10
136.0343370145934
 20
278.1968255472571
 30
0.0
 11
136.7368982593457
 21
278.8993867920094
 31
0.0
1001
ACME_LAYERS
1000
1
  0
LINE
  5
76A
330
1F
100
AcDbEntity
  8
P-0000
  6
Continuous
 62
     7
100
AcDbLine
 10
130.3272302334085
 20
278.1968255472571
 30
0.0
 11
136.0343370145934
 21
278.1968255472571
 31
0.0
1001
ACME_LAYERS
1000
1
  0
LINE
  5
76B
330
1F
100
AcDbEntity
  8
P-0000
  6
Continuous
 62
     7
100
AcDbLine
 10
146.2807836240013
 20
277.2826119848836
 30
0.0
 11
166.2242936659591
 21
277.2826119848836
 31
0.0
1001
ACME_LAYERS
1000
1
  0
LINE
  5
76C
330
1F
100
AcDbEntity
  8
P-0000
  6
Continuous
 62
     7
100
AcDbLine
 10
195.6166820088624
 20
275.8185103697457
 30
0.0
 11
201.1525803937261
 21
279.0146627924538
 31
0.0
1001
ACME_LAYERS
1000
1
  0
LINE
  5
76D
330
1F
100
AcDbEntity
  8
P-0000
  6
STRICHPUNKT
 62
     3
100
AcDbLine
 10
133.1807836240009
 20
283.0709596672627
 30
0.0
 11
133.1807836240009
 21
273.7826119848837
 31
0.0
1001
ACME_LAYERS
1000
1
  0
LINE
  5
76E
330
1F
100
AcDbEntity
  8
P-0000
  6
Continuous
 62
     7
100
AcDbLine
 10
202.1525803937261
 20
279.2826119848836
 30
0.0
 11
204.0365021964831
 21
279.2826119848836
 31
0.0
1001
ACME_LAYERS
1000
1
  0
LINE
  5
76F
330
1F
100
AcDbEntity
  8
P-0000
  6
Continuous
 62
     7
100
AcDbLine
 10
202.1525803937261
 20
281.2826119848836
 30
0.0
 11
205.9742936659603
 21
281.2826119848836
 31
0.0
1001
ACME_LAYERS
1000
1
  0
LINE
  5
770
330
1F
100
AcDbEntity
  8
P-0000
  6
Continuous
 62
     7
100
AcDbLine
 10
216.4742936659571
 20
280.4691386987402
 30
0.0
 11
212.974293665959
 21
272.6080099900705
 31
0.0
1001
ACME_LAYERS
1000
1
  0
LINE
  5
771
330
1F
100
AcDbEntity
  8
P-0000
  6
Continuous
 62
     7
100
AcDbLine
 10
212.974293665959
 20
272.6080099900705
 30
0.0
 11
212.974293665959
 21
261.985980306423
 31
0.0
1001
ACME_LAYERS
1000
1
  0
LINE
  5
772
330
1F
100
AcDbEntity
  8
P-0000
  6
Continuous
 62
     7
100
AcDbLine
 10
212.974293665959
 20
272.6080099900705
 30
0.0
 11
212.974293665959
 21
253.6172972030457
 31
0.0
1001
ACME_LAYERS
1000
1
  0
LINE
  5
773
330
1F
100
AcDbEntity
  8
P-0000
  6
Continuous
 62
     7
100
AcDbLine
 10
212.1481202544258
 20
275.6695807972882
 30
0.0
 11
210.9742936659608
 21
273.0331231134081
 31
0.0
1001
ACME_LAYERS
1000
1
  0
LINE
  5
774
330
1F
100
AcDbEntity
  8
P-0000
  6
Continuous
 62
     7
100
AcDbLine
 10
214.6472027506737
 20
281.2826119848836
 30
0.0
 11
216.4742936659626
 21
280.4691386987311
 31
0.0
1001
ACME_LAYERS
1000
1
  0
LINE
  5
775
330
1F
100
AcDbEntity
  8
P-0000
  6
Continuous
 62
     7
100
AcDbLine
 10
216.4742936659626
 20
280.4691386987311
 30
0.0
 11
212.974293665959
 21
272.6080099900705
 31
0.0
1001
ACME_LAYERS
1000
1
  0
LINE
  5
776
330
1F
100
AcDbEntity
  8
P-0000
  6
Continuous
 62
     7
100
AcDbLine
 10
210.9742936659608
 20
273.0331231134081
 30
0.0
 11
210.9742936659607
 21
272.4859803064264
 31
0.0
1001
ACME_LAYERS
1000
1
  0
LINE
  5
777
330
1F
100
AcDbEntity
  8
P-0000
  6
Continuous
 62
     7
100
AcDbLine
 10
210.9742936659603
 20
267.485980306426
 30
0.0
 11
210.9742936659602
 21
266.2826119848836
 31
0.0
1001
ACME_LAYERS
1000
1
  0
LINE
  5
778
330
1F
100
AcDbEntity
  8
P-0000
  6
Continuous
 62
     7
100
AcDbLine
 10
210.9742936659607
 20
272.4859803064264
 30
0.0
 11
210.9742936659603
 21
267.485980306426
 31
0.0
1001
ACME_LAYERS
1000
1
  0
LINE
  5
779
330
1F
100
AcDbEntity
  8
P-0000
  6
Continuous
 62
     7
100
AcDbLine
 10
212.9192789583667
 20
277.4016316048565
 30
0.0
 11
212.1481202544258
 21
275.6695807972882
 31
0.0
1001
ACME_LAYERS
1000
1
  0
LINE
  5
77A
330
1F
100
AcDbEntity
  8
P-0000
  6
Continuous
 62
     7
100
AcDbLine
 10
214.6472027506737
 20
281.2826119848836
 30
0.0
 11
212.9192789583667
 21
277.4016316048565
 31
0.0
1001
ACME_LAYERS
1000
1
  0
LINE
  5
77B
330
1F
100
AcDbEntity
  8
P-0000
  6
Continuous
 62
     7
100
AcDbLine
 10
210.9742936659608
 20
273.0331231134081
 30
0.0
 11
210.9742936659607
 21
272.4859803064264
 31
0.0
1001
ACME_LAYERS
1000
1
  0
LINE
  5
77C
330
1F
100
AcDbEntity
  8
P-0000
  6
Continuous
 62
     7
100
AcDbLine
 10
398.7242936659733
 20
277.2826119848836
 30
0.0
 11
398.7242936659733
 21
281.2826119848836
 31
0.0
1001
ACME_LAYERS
1000
1
  0
LINE
  5
77D
330
1F
100
AcDbEntity
  8
P-0000
  6
Continuous
 62
     7
100
AcDbLine
 10
406.7242936659731
 20
277.2826119848836
 30
0.0
 11
406.7242936659731
 21
281.2826119848836
 31
0.0
1001
ACME_LAYERS
1000
1
  0
LINE
  5
77F
330
1F
100
AcDbEntity
  8
P-0000
  6
Continuous
 62
     7
100
AcDbLine
 10
399.5242936659731
 20
277.2826119848836
 30
0.0
 11
405.9242936659733
 21
277.2826119848836
 31
0.0
1001
ACME_LAYERS
1000
1
  0
LINE
  5
780
330
1F
100
AcDbEntity
  8
P-0000
  6
Continuous
 62
     7
100
AcDbLine
 10
405.9242936659733
 20
277.2826119848836
 30
0.0
 11
406.7242936659731
 21
277.2826119848836
 31
0.0
1001
ACME_LAYERS
1000
1
  0
LINE
  5
781
330
1F
100
AcDbEntity
  8
P-0000
  6
Continuous
 62
     7
100
AcDbLine
 10
398.7242936659733
 20
277.2826119848836
 30
0.0
 11
399.5242936659731
 21
277.2826119848836
 31
0.0
1001
ACME_LAYERS
1000
1
  0
LINE
  5
794
330
1F
100
AcDbEntity
  8
P-0000
  6
Continuous
 62
     7
100
AcDbLine
 10
377.47219454886
 20
278.0469154242295
 30
0.0
 11
378.0954675306094
 21
277.6870686004372
 31
0.0
1001
ACME_LAYERS
1000
1
  0
LINE
  5
795
330
1F
100
AcDbEntity
  8
P-0000
  6
Continuous
 62
     3
100
AcDbLine
 10
378.2270616731677
 20
277.6110926868083
 30
0.0
 11
378.0954675306094
 21
277.6870686004372
 31
0.0
1001
ACME_LAYERS
1000
1
  0
LINE
  5
796
330
1F
100
AcDbEntity
  8
P-0000
  6
Continuous
 62
     7
100
AcDbLine
 10
378.0954675306094
 20
277.6870686004372
 30
0.0
 11
378.2270616731677
 21
277.6110926868083
 31
0.0
1001
ACME_LAYERS
1000
1
  0
LINE
  5
797
330
1F
100
AcDbEntity
  8
P-0000
  6
Continuous
 62
     7
100
AcDbLine
 10
372.7960069382062
 20
280.7467136000219
 30
0.0
 11
377.47219454886
 21
278.0469154242295
 31
0.0
1001
ACME_LAYERS
1000
1
  0
LINE
  5
798
330
1F
100
AcDbEntity
  8
P-0000
  6
Continuous
 62
     3
100
AcDbLine
 10
378.0954675306094
 20
277.6870686004372
 30
0.0
 11
377.47219454886
 21
278.0469154242295
 31
0.0
1001
ACME_LAYERS
1000
1
  0
LINE
  5
799
330
1F
100
AcDbEntity
  8
P-0000
  6
Continuous
 62
     7
100
AcDbLine
 10
379.3319053230699
 20
275.2826119848837
 30
0.0
 11
426.9460069382073
 21
275.2826119848837
 31
0.0
1001
ACME_LAYERS
1000
1
  0
LINE
  5
79A
330
1F
100
AcDbEntity
  8
P-0000
  6
Continuous
 62
     7
100
AcDbLine
 10
428.9460069382076
 20
275.8185103697457
 30
0.0
 11
432.3832619478399
 21
277.803010474831
 31
0.0
1001
ACME_LAYERS
1000
1
  0
LINE
  5
79B
330
1F
100
AcDbEntity
  8
P-0000
  6
Continuous
 62
     7
100
AcDbLine
 10
379.3319053230699
 20
277.2826119848836
 30
0.0
 11
398.7678037079314
 21
277.2826119848836
 31
0.0
1001
ACME_LAYERS
1000
1
  0
LINE
  5
79C
330
1F
100
AcDbEntity
  8
P-0000
  6
Continuous
 62
     7
100
AcDbLine
 10
447.1523454680228
 20
277.803010474831
 30
0.0
 11
451.5178037079313
 21
275.2826119848837
 31
0.0
1001
ACME_LAYERS
1000
1
  0
LINE
  5
79D
330
1F
100
AcDbEntity
  8
P-0000
  6
Continuous
 62
     7
100
AcDbLine
 10
426.9460069382073
 20
277.2826119848836
 30
0.0
 11
426.667803707931
 21
277.2826119848836
 31
0.0
1001
ACME_LAYERS
1000
1
  0
LINE
  5
79E
330
1F
100
AcDbEntity
  8
P-0000
  6
Continuous
 62
     7
100
AcDbLine
 10
446.2857529003631
 20
280.6127390038059
 30
0.0
 11
448.1523454680226
 21
279.5350612823991
 31
0.0
1001
ACME_LAYERS
1000
1
  0
LINE
  5
79F
330
1F
100
AcDbEntity
  8
P-0000
  6
Continuous
 62
     7
100
AcDbLine
 10
433.3832619478399
 20
280.0709596672628
 30
0.0
 11
446.1523454680228
 21
280.0709596672628
 31
0.0
1001
ACME_LAYERS
1000
1
  0
LINE
  5
7A0
330
1F
100
AcDbEntity
  8
P-0000
  6
Continuous
 62
     7
100
AcDbLine
 10
434.9357529003627
 20
281.2826119848836
 30
0.0
 11
443.7857529003614
 21
281.2826119848836
 31
0.0
1001
ACME_LAYERS
1000
1
  0
LINE
  5
7A1
330
1F
100
AcDbEntity
  8
P-0000
  6
Continuous
 62
     7
100
AcDbLine
 10
436.9142503173389
 20
278.1968255472571
 30
0.0
 11
435.5000367549656
 21
276.7826119848836
 31
0.0
1001
ACME_LAYERS
1000
1
  0
LINE
  5
7A2
330
1F
100
AcDbEntity
  8
P-0000
  6
Continuous
 62
     7
100
AcDbLine
 10
435.5000367549656
 20
276.7826119848836
 30
0.0
 11
444.0355706608968
 21
276.7826119848836
 31
0.0
1001
ACME_LAYERS
1000
1
  0
LINE
  5
7A3
330
1F
100
AcDbEntity
  8
P-0000
  6
Continuous
 62
     7
100
AcDbLine
 10
447.1523454680228
 20
277.803010474831
 30
0.0
 11
451.5178037079313
 21
275.2826119848837
 31
0.0
1001
ACME_LAYERS
1000
1
  0
LINE
  5
7A4
330
1F
100
AcDbEntity
  8
P-0000
  6
Continuous
 62
     7
100
AcDbLine
 10
452.5178037079313
 20
277.0146627924538
 30
0.0
 11
451.5178037079313
 21
275.2826119848837
 31
0.0
1001
ACME_LAYERS
1000
1
  0
LINE
  5
7A5
330
1F
100
AcDbEntity
  8
P-0000
  6
Continuous
 62
     7
100
AcDbLine
 10
444.0355706608968
 20
276.7826119848836
 30
0.0
 11
444.7381319056495
 21
277.4851732296359
 31
0.0
1001
ACME_LAYERS
1000
1
  0
LINE
  5
7A6
330
1F
100
AcDbEntity
  8
P-0000
  6
Continuous
 62
     7
100
AcDbLine
 10
434.7974755102133
 20
277.4851732296359
 30
0.0
 11
435.5000367549656
 21
276.7826119848836
 31
0.0
1001
ACME_LAYERS
1000
1
  0
LINE
  5
7A7
330
1F
100
AcDbEntity
  8
P-0000
  6
Continuous
 62
     7
100
AcDbLine
 10
432.4357529003627
 20
280.6127390038059
 30
0.0
 11
426.667803707931
 21
277.2826119848836
 31
0.0
1001
ACME_LAYERS
1000
1
  0
LINE
  5
7A8
330
1F
100
AcDbEntity
  8
P-0000
  6
Continuous
 62
     7
100
AcDbLine
 10
442.6213570985238
 20
278.1968255472571
 30
0.0
 11
443.323918343276
 21
278.8993867920094
 31
0.0
1001
ACME_LAYERS
1000
1
  0
LINE
  5
7A9
330
1F
100
AcDbEntity
  8
P-0000
  6
Continuous
 62
     3
100
AcDbLine
 10
448.1523454680226
 20
279.5350612823991
 30
0.0
 11
452.5178037079313
 21
277.0146627924538
 31
0.0
1001
ACME_LAYERS
1000
1
  0
LINE
  5
7AA
330
1F
100
AcDbEntity
  8
P-0000
  6
Continuous
 62
     7
100
AcDbLine
 10
444.0355706608968
 20
276.7826119848836
 30
0.0
 11
442.6213570985238
 21
278.1968255472571
 31
0.0
1001
ACME_LAYERS
1000
1
  0
LINE
  5
7AB
330
1F
100
AcDbEntity
  8
P-0000
  6
Continuous
 62
     7
100
AcDbLine
 10
427.9460069382074
 20
277.5505611773156
 30
0.0
 11
431.3832619478398
 21
279.5350612823991
 31
0.0
1001
ACME_LAYERS
1000
1
  0
LINE
  5
7AC
330
1F
100
AcDbEntity
  8
P-0000
  6
Continuous
 62
     7
100
AcDbLine
 10
436.2116890725864
 20
278.8993867920094
 30
0.0
 11
436.9142503173389
 21
278.1968255472571
 31
0.0
1001
ACME_LAYERS
1000
1
  0
LINE
  5
7AD
330
1F
100
AcDbEntity
  8
P-0000
  6
Continuous
 62
     7
100
AcDbLine
 10
436.9142503173389
 20
278.1968255472571
 30
0.0
 11
442.6213570985238
 21
278.1968255472571
 31
0.0
1001
ACME_LAYERS
1000
1
  0
LINE
  5
7AE
330
1F
100
AcDbEntity
  8
P-0000
  6
Continuous
 62
     7
100
AcDbLine
 10
398.7678037079314
 20
277.2826119848836
 30
0.0
 11
426.667803707931
 21
277.2826119848836
 31
0.0
1001
ACME_LAYERS
1000
1
  0
LINE
  5
7AF
330
1F
100
AcDbEntity
  8
P-0000
  6
Continuous
 62
     7
100
AcDbLine
 10
371.7960069382062
 20
279.0146627924538
 30
0.0
 11
377.3319053230699
 21
275.8185103697457
 31
0.0
1001
ACME_LAYERS
1000
1
  0
LINE
  5
7B0
330
1F
100
AcDbEntity
  8
P-0000
  6
Continuous
 62
     7
100
AcDbLine
 10
378.2270616731677
 20
277.6110926868083
 30
0.0
 11
378.3319053230699
 21
277.5505611773156
 31
0.0
1001
ACME_LAYERS
1000
1
  0
LINE
  5
7B1
330
1F
100
AcDbEntity
  8
P-0000
  6
STRICHPUNKT
 62
     3
100
AcDbLine
 10
439.7678037079312
 20
273.7826119848837
 30
0.0
 11
439.7678037079312
 21
283.0709596672627
 31
0.0
1001
ACME_LAYERS
1000
1
  0
LINE
  5
7B2
330
1F
100
AcDbEntity
  8
P-0000
  6
Continuous
 62
     7
100
AcDbLine
 10
368.9120851354492
 20
279.2826119848836
 30
0.0
 11
370.7960069382062
 21
279.2826119848836
 31
0.0
1001
ACME_LAYERS
1000
1
  0
LINE
  5
7B3
330
1F
100
AcDbEntity
  8
P-0000
  6
Continuous
 62
     7
100
AcDbLine
 10
366.974293665972
 20
281.2826119848836
 30
0.0
 11
370.7960069382062
 21
281.2826119848836
 31
0.0
1001
ACME_LAYERS
1000
1
  0
LINE
  5
7B4
330
1F
100
AcDbEntity
  8
P-0000
  6
Continuous
 62
     7
100
AcDbLine
 10
359.9742936659733
 20
272.6080099900705
 30
0.0
 11
356.4742936659752
 21
280.4691386987402
 31
0.0
1001
ACME_LAYERS
1000
1
  0
LINE
  5
7B5
330
1F
100
AcDbEntity
  8
P-0000
  6
Continuous
 62
     7
100
AcDbLine
 10
359.9742936659733
 20
261.985980306423
 30
0.0
 11
359.9742936659733
 21
272.6080099900705
 31
0.0
1001
ACME_LAYERS
1000
1
  0
LINE
  5
7B6
330
1F
100
AcDbEntity
  8
P-0000
  6
Continuous
 62
     7
100
AcDbLine
 10
359.9742936659733
 20
253.6172972030457
 30
0.0
 11
359.9742936659733
 21
272.6080099900705
 31
0.0
1001
ACME_LAYERS
1000
1
  0
LINE
  5
7B7
330
1F
100
AcDbEntity
  8
P-0000
  6
Continuous
 62
     7
100
AcDbLine
 10
361.9742936659715
 20
273.0331231134081
 30
0.0
 11
360.8004670775065
 21
275.6695807972882
 31
0.0
1001
ACME_LAYERS
1000
1
  0
LINE
  5
7B8
330
1F
100
AcDbEntity
  8
P-0000
  6
Continuous
 62
     7
100
AcDbLine
 10
356.4742936659697
 20
280.4691386987311
 30
0.0
 11
358.3013845812586
 21
281.2826119848836
 31
0.0
1001
ACME_LAYERS
1000
1
  0
LINE
  5
7B9
330
1F
100
AcDbEntity
  8
P-0000
  6
Continuous
 62
     7
100
AcDbLine
 10
359.9742936659733
 20
272.6080099900705
 30
0.0
 11
356.4742936659697
 21
280.4691386987311
 31
0.0
1001
ACME_LAYERS
1000
1
  0
LINE
  5
7BA
330
1F
100
AcDbEntity
  8
P-0000
  6
Continuous
 62
     7
100
AcDbLine
 10
361.9742936659716
 20
272.4859803064264
 30
0.0
 11
361.9742936659715
 21
273.0331231134081
 31
0.0
1001
ACME_LAYERS
1000
1
  0
LINE
  5
7BB
330
1F
100
AcDbEntity
  8
P-0000
  6
Continuous
 62
     7
100
AcDbLine
 10
361.974293665973
 20
257.4859803064263
 30
0.0
 11
361.9742936659725
 21
264.2826119848838
 31
0.0
1001
ACME_LAYERS
1000
1
  0
LINE
  5
7BC
330
1F
100
AcDbEntity
  8
P-0000
  6
Continuous
 62
     7
100
AcDbLine
 10
361.974293665972
 20
267.485980306426
 30
0.0
 11
361.9742936659716
 21
272.4859803064264
 31
0.0
1001
ACME_LAYERS
1000
1
  0
LINE
  5
7BD
330
1F
100
AcDbEntity
  8
P-0000
  6
Continuous
 62
     7
100
AcDbLine
 10
360.8004670775065
 20
275.6695807972882
 30
0.0
 11
360.0293083735656
 21
277.4016316048565
 31
0.0
1001
ACME_LAYERS
1000
1
  0
LINE
  5
7BE
330
1F
100
AcDbEntity
  8
P-0000
  6
Continuous
 62
     7
100
AcDbLine
 10
360.0293083735656
 20
277.4016316048565
 30
0.0
 11
358.3013845812586
 21
281.2826119848836
 31
0.0
1001
ACME_LAYERS
1000
1
  0
LINE
  5
7BF
330
1F
100
AcDbEntity
  8
P-0000
  6
Continuous
 62
     7
100
AcDbLine
 10
361.9742936659716
 20
272.4859803064264
 30
0.0
 11
361.9742936659715
 21
273.0331231134081
 31
0.0
1001
ACME_LAYERS
1000
1
  0
LINE
  5
7C0
330
1F
100
AcDbEntity
  8
P-0000
  6
STRICHPUNKT
 62
     3
100
AcDbLine
 10
286.4742936659663
 20
226.1046693681059
 30
0.0
 11
286.4742936659663
 21
181.8713401830486
 31
0.0
1001
ACME_LAYERS
1000
1
  0
LINE
  5
7C1
330
1F
100
AcDbEntity
  8
P-0000
  6
STRICHPUNKT
 62
     3
100
AcDbLine
 10
286.4742936659663
 20
166.8863658434331
 30
0.0
 11
286.4742936659663
 21
130.339941576598
 31
0.0
1001
ACME_LAYERS
1000
1
  0
LINE
  5
7C2
330
1F
100
AcDbEntity
  8
P-0000
  6
Continuous
 62
     7
100
AcDbLine
 10
439.7551109120648
 20
226.119332132906
 30
0.0
 11
451.5138899097251
 21
225.7087065220244
 31
0.0
1001
ACME_LAYERS
1000
1
  0
LINE
  5
7C3
330
1F
100
AcDbEntity
  8
P-0000
  6
Continuous
 62
     7
100
AcDbLine
 10
508.1571321731352
 20
90.64961152393527
 30
0.0
 11
514.2174962167064
 21
92.27348117524876
 31
0.0
1001
ACME_LAYERS
1000
1
  0
LINE
  5
7C4
330
1F
100
AcDbEntity
  8
P-0000
  6
Continuous
 62
     7
100
AcDbLine
 10
514.2174962167064
 20
92.27348117524876
 30
0.0
 11
516.4742936659663
 21
156.8997045404901
 31
0.0
1001
ACME_LAYERS
1000
1
  0
LINE
  5
7C5
330
1F
100
AcDbEntity
  8
P-0000
  6
Continuous
 62
     7
100
AcDbLine
 10
518.7467670946331
 20
221.9748292224916
 30
0.0
 11
512.7987652345681
 21
223.5685915174749
 31
0.0
1001
ACME_LAYERS
1000
1
  0
LINE
  5
7C6
330
1F
100
AcDbEntity
  8
P-0000
  6
Continuous
 62
     3
100
AcDbLine
 10
512.7615441231613
 20
222.5027183437604
 30
0.0
 11
508.2553811535868
 21
93.46309421293323
 31
0.0
1001
ACME_LAYERS
1000
1
  0
LINE
  5
7C7
330
1F
100
AcDbEntity
  8
P-0000
  6
Continuous
 62
     7
100
AcDbLine
 10
516.4742936659663
 20
156.8997045404901
 30
0.0
 11
518.7467670946331
 21
221.9748292224916
 31
0.0
1001
ACME_LAYERS
1000
1
  0
LINE
  5
7C8
330
1F
100
AcDbEntity
  8
P-0000
  6
STRICHPUNKT
 62
     3
100
AcDbLine
 10
516.4742936659663
 20
156.8997045404901
 30
0.0
 11
521.4867699179708
 21
156.7246650127109
 31
0.0
1001
ACME_LAYERS
1000
1
  0
LINE
  5
7C9
330
1F
100
AcDbEntity
  8
P-0000
  6
STRICHPUNKT
 62
     3
100
AcDbLine
 10
286.4742936659663
 20
130.339941576598
 30
0.0
 11
286.4742936659663
 21
79.5679591438833
 31
0.0
1001
ACME_LAYERS
1000
1
  0
LINE
  5
7CA
330
1F
100
AcDbEntity
  8
P-0000
  6
STRICHPUNKT
 62
     3
100
AcDbLine
 10
286.4742936659663
 20
181.8713401830486
 30
0.0
 11
286.4742936659663
 21
166.8863658434331
 31
0.0
1001
ACME_LAYERS
1000
1
  0
LINE
  5
7CB
330
1F
100
AcDbEntity
  8
P-0000
  6
Continuous
 62
     7
100
AcDbLine
 10
210.9742936659602
 20
266.2826119848836
 30
0.0
 11
208.9742936659605
 21
266.2826119848836
 31
0.0
1001
ACME_LAYERS
1000
1
  0
LINE
  5
7CC
330
1F
100
AcDbEntity
  8
P-0000
  6
Continuous
 62
     7
100
AcDbLine
 10
210.9742936659602
 20
266.2826119848836
 30
0.0
 11
210.9742936659607
 21
264.2826119848834
 31
0.0
1001
ACME_LAYERS
1000
1
  0
LINE
  5
7CD
330
1F
100
AcDbEntity
  8
P-0000
  6
Continuous
 62
     7
100
AcDbLine
 10
208.9742936659605
 20
266.2826119848836
 30
0.0
 11
208.9742936659605
 21
275.2826119848837
 31
0.0
1001
ACME_LAYERS
1000
1
  0
LINE
  5
7CE
330
1F
100
AcDbEntity
  8
P-0000
  6
Continuous
 62
     7
100
AcDbLine
 10
210.9742936659608
 20
273.0331231134081
 30
0.0
 11
210.9742936659608
 21
276.2826119848837
 31
0.0
1001
ACME_LAYERS
1000
1
  0
LINE
  5
7CF
330
1F
100
AcDbEntity
  8
P-0000
  6
Continuous
 62
     7
100
AcDbLine
 10
205.9742936659605
 20
279.2826119848836
 30
0.0
 11
204.0365021964831
 21
279.2826119848836
 31
0.0
1001
ACME_LAYERS
1000
1
  0
LINE
  5
7D0
330
1F
100
AcDbEntity
  8
P-0000
  6
Continuous
 62
     7
100
AcDbLine
 10
346.9742936659732
 20
96.27824027346946
 30
0.0
 11
362.0886663462302
 21
95.75043474908985
 31
0.0
1001
ACME_LAYERS
1000
1
  0
LINE
  5
7D1
330
1F
100
AcDbEntity
  8
P-0000
  6
Continuous
 62
     7
100
AcDbLine
 10
210.974293665959
 20
253.2826119848853
 30
0.0
 11
210.974293665959
 21
250.0342287776883
 31
0.0
1001
ACME_LAYERS
1000
1
  0
LINE
  5
7D2
330
1F
100
AcDbEntity
  8
P-0000
  6
Continuous
 62
     7
100
AcDbLine
 10
361.9742936659733
 20
253.2826119848853
 30
0.0
 11
361.9742936659733
 21
250.0342287776883
 31
0.0
1001
ACME_LAYERS
1000
1
  0
LINE
  5
7D3
330
1F
100
AcDbEntity
  8
P-0000
  6
Continuous
 62
     7
100
AcDbLine
 10
359.9742936659733
 20
253.6172972030457
 30
0.0
 11
359.9742936659733
 21
250.0342287776883
 31
0.0
1001
ACME_LAYERS
1000
1
  0
LINE
  5
7D4
330
1F
100
AcDbEntity
  8
P-0000
  6
Continuous
 62
     7
100
AcDbLine
 10
212.974293665959
 20
253.6172972030457
 30
0.0
 11
212.974293665959
 21
250.0342287776883
 31
0.0
1001
ACME_LAYERS
1000
1
  0
LINE
  5
7D5
330
1F
100
AcDbEntity
  8
P-0000
  6
Continuous
 62
     7
100
AcDbLine
 10
210.974293665959
 20
238.0808827237113
 30
0.0
 11
210.974293665959
 21
109.7791545899176
 31
0.0
1001
ACME_LAYERS
1000
1
  0
LINE
  5
7D6
330
1F
100
AcDbEntity
  8
P-0000
  6
Continuous
 62
     7
100
AcDbLine
 10
377.47219454886
 20
278.0469154242295
 30
0.0
 11
378.0954675306094
 21
277.6870686004372
 31
0.0
1001
ACME_LAYERS
1000
1
  0
LINE
  5
7D7
330
1F
100
AcDbEntity
  8
P-0000
  6
Continuous
 62
     3
100
AcDbLine
 10
378.2270616731677
 20
277.6110926868083
 30
0.0
 11
378.0954675306094
 21
277.6870686004372
 31
0.0
1001
ACME_LAYERS
1000
1
  0
LINE
  5
7D8
330
1F
100
AcDbEntity
  8
P-0000
  6
Continuous
 62
     7
100
AcDbLine
 10
378.0954675306094
 20
277.6870686004372
 30
0.0
 11
378.2270616731677
 21
277.6110926868083
 31
0.0
1001
ACME_LAYERS
1000
1
  0
LINE
  5
7D9
330
1F
100
AcDbEntity
  8
P-0000
  6
Continuous
 62
     7
100
AcDbLine
 10
372.7960069382062
 20
280.7467136000219
 30
0.0
 11
377.47219454886
 21
278.0469154242295
 31
0.0
1001
ACME_LAYERS
1000
1
  0
LINE
  5
7DA
330
1F
100
AcDbEntity
  8
P-0000
  6
Continuous
 62
     3
100
AcDbLine
 10
378.0954675306094
 20
277.6870686004372
 30
0.0
 11
377.47219454886
 21
278.0469154242295
 31
0.0
1001
ACME_LAYERS
1000
1
  0
LINE
  5
7DB
330
1F
100
AcDbEntity
  8
P-0000
  6
Continuous
 62
     7
100
AcDbLine
 10
371.7960069382062
 20
279.0146627924538
 30
0.0
 11
377.3319053230699
 21
275.8185103697457
 31
0.0
1001
ACME_LAYERS
1000
1
  0
LINE
  5
7DC
330
1F
100
AcDbEntity
  8
P-0000
  6
Continuous
 62
     7
100
AcDbLine
 10
378.2270616731677
 20
277.6110926868083
 30
0.0
 11
378.3319053230699
 21
277.5505611773156
 31
0.0
1001
ACME_LAYERS
1000
1
  0
LINE
  5
7DD
330
1F
100
AcDbEntity
  8
P-0000
  6
Continuous
 62
     7
100
AcDbLine
 10
368.9120851354492
 20
279.2826119848836
 30
0.0
 11
370.7960069382062
 21
279.2826119848836
 31
0.0
1001
ACME_LAYERS
1000
1
  0
LINE
  5
7DE
330
1F
100
AcDbEntity
  8
P-0000
  6
Continuous
 62
     7
100
AcDbLine
 10
358.3013845812586
 20
281.2826119848836
 30
0.0
 11
370.7960069382062
 21
281.2826119848836
 31
0.0
1001
ACME_LAYERS
1000
1
  0
LINE
  5
7DF
330
1F
100
AcDbEntity
  8
P-0000
  6
Continuous
 62
     7
100
AcDbLine
 10
359.9742936659733
 20
272.6080099900705
 30
0.0
 11
356.4742936659752
 21
280.4691386987402
 31
0.0
1001
ACME_LAYERS
1000
1
  0
LINE
  5
7E0
330
1F
100
AcDbEntity
  8
P-0000
  6
Continuous
 62
     7
100
AcDbLine
 10
359.9742936659733
 20
261.985980306423
 30
0.0
 11
359.9742936659733
 21
272.6080099900705
 31
0.0
1001
ACME_LAYERS
1000
1
  0
LINE
  5
7E1
330
1F
100
AcDbEntity
  8
P-0000
  6
Continuous
 62
     7
100
AcDbLine
 10
361.9742936659715
 20
273.0331231134081
 30
0.0
 11
360.8004670775065
 21
275.6695807972882
 31
0.0
1001
ACME_LAYERS
1000
1
  0
LINE
  5
7E2
330
1F
100
AcDbEntity
  8
P-0000
  6
Continuous
 62
     7
100
AcDbLine
 10
356.4742936659697
 20
280.4691386987311
 30
0.0
 11
358.3013845812586
 21
281.2826119848836
 31
0.0
1001
ACME_LAYERS
1000
1
  0
LINE
  5
7E3
330
1F
100
AcDbEntity
  8
P-0000
  6
Continuous
 62
     7
100
AcDbLine
 10
359.9742936659733
 20
272.6080099900705
 30
0.0
 11
356.4742936659697
 21
280.4691386987311
 31
0.0
1001
ACME_LAYERS
1000
1
  0
LINE
  5
7E4
330
1F
100
AcDbEntity
  8
P-0000
  6
Continuous
 62
     7
100
AcDbLine
 10
361.9742936659716
 20
272.4859803064264
 30
0.0
 11
361.9742936659715
 21
273.0331231134081
 31
0.0
1001
ACME_LAYERS
1000
1
  0
LINE
  5
7E5
330
1F
100
AcDbEntity
  8
P-0000
  6
Continuous
 62
     7
100
AcDbLine
 10
361.9742936659724
 20
266.2826119848836
 30
0.0
 11
361.974293665972
 21
267.485980306426
 31
0.0
1001
ACME_LAYERS
1000
1
  0
LINE
  5
7E6
330
1F
100
AcDbEntity
  8
P-0000
  6
Continuous
 62
     7
100
AcDbLine
 10
361.974293665972
 20
267.485980306426
 30
0.0
 11
361.9742936659716
 21
272.4859803064264
 31
0.0
1001
ACME_LAYERS
1000
1
  0
LINE
  5
7E7
330
1F
100
AcDbEntity
  8
P-0000
  6
Continuous
 62
     7
100
AcDbLine
 10
360.8004670775065
 20
275.6695807972882
 30
0.0
 11
360.0293083735656
 21
277.4016316048565
 31
0.0
1001
ACME_LAYERS
1000
1
  0
LINE
  5
7E8
330
1F
100
AcDbEntity
  8
P-0000
  6
Continuous
 62
     7
100
AcDbLine
 10
360.0293083735656
 20
277.4016316048565
 30
0.0
 11
358.3013845812586
 21
281.2826119848836
 31
0.0
1001
ACME_LAYERS
1000
1
  0
LINE
  5
7E9
330
1F
100
AcDbEntity
  8
P-0000
  6
Continuous
 62
     7
100
AcDbLine
 10
361.9742936659716
 20
272.4859803064264
 30
0.0
 11
361.9742936659715
 21
273.0331231134081
 31
0.0
1001
ACME_LAYERS
1000
1
  0
LINE
  5
7EA
330
1F
100
AcDbEntity
  8
P-0000
  6
Continuous
 62
     7
100
AcDbLine
 10
363.9742936659721
 20
266.2826119848836
 30
0.0
 11
361.9742936659724
 21
266.2826119848836
 31
0.0
1001
ACME_LAYERS
1000
1
  0
LINE
  5
7EB
330
1F
100
AcDbEntity
  8
P-0000
  6
Continuous
 62
     7
100
AcDbLine
 10
361.974293665973
 20
257.4859803064263
 30
0.0
 11
361.9742936659725
 21
264.2826119848838
 31
0.0
1001
ACME_LAYERS
1000
1
  0
LINE
  5
7EC
330
1F
100
AcDbEntity
  8
P-0000
  6
Continuous
 62
     7
100
AcDbLine
 10
363.9742936659721
 20
276.2826119848837
 30
0.0
 11
363.9742936659721
 21
275.2826119848837
 31
0.0
1001
ACME_LAYERS
1000
1
  0
LINE
  5
7ED
330
1F
100
AcDbEntity
  8
P-0000
  6
Continuous
 62
     7
100
AcDbLine
 10
361.9742936659719
 20
276.2826119848837
 30
0.0
 11
361.9742936659715
 21
273.0331231134081
 31
0.0
1001
ACME_LAYERS
1000
1
  0
LINE
  5
7EE
330
1F
100
AcDbEntity
  8
P-0000
  6
Continuous
 62
     7
100
AcDbLine
 10
368.9120851354492
 20
279.2826119848836
 30
0.0
 11
366.9742936659722
 21
279.2826119848836
 31
0.0
1001
ACME_LAYERS
1000
1
  0
LINE
  5
7EF
330
1F
100
AcDbEntity
  8
P-0000
  6
Continuous
 62
     7
100
AcDbLine
 10
222.974293665959
 20
97.77915458991763
 30
0.0
 11
345.4733793495249
 21
97.77915458991763
 31
0.0
1001
ACME_LAYERS
1000
1
  0
LINE
  5
7F0
330
1F
100
AcDbEntity
  8
P-0000
  6
Continuous
 62
     7
100
AcDbLine
 10
404.6158465969081
 20
227.3464222821652
 30
0.0
 11
405.4459852160465
 21
227.3174332028002
 31
0.0
1001
ACME_LAYERS
1000
1
  0
LINE
  5
7F1
330
1F
100
AcDbEntity
  8
P-0000
  6
Continuous
 62
     7
100
AcDbLine
 10
416.4392843132581
 20
226.9335387390726
 30
0.0
 11
418.4380659672948
 21
226.8637397456676
 31
0.0
1001
ACME_LAYERS
1000
1
  0
LINE
  5
7F2
330
1F
100
AcDbEntity
  8
P-0000
  6
Continuous
 62
     7
100
AcDbLine
 10
171.5138899097251
 20
277.2826119848836
 30
0.0
 11
174.1807836240009
 21
277.2826119848836
 31
0.0
1001
ACME_LAYERS
1000
1
  0
LINE
  5
7F3
330
1F
100
AcDbEntity
  8
P-0000
  6
Continuous
 62
     7
100
AcDbLine
 10
146.0025803937247
 20
275.2826119848837
 30
0.0
 11
193.6166820088624
 21
275.2826119848837
 31
0.0
1001
ACME_LAYERS
1000
1
  0
LINE
  5
7F4
330
1F
100
AcDbEntity
  8
P-0000
  6
Continuous
 62
     7
100
AcDbLine
 10
208.9742936659605
 20
275.2826119848837
 30
0.0
 11
208.9742936659605
 21
276.2826119848837
 31
0.0
1001
ACME_LAYERS
1000
1
  0
LINE
  5
7F5
330
1F
100
AcDbEntity
  8
P-0000
  6
Continuous
 62
     7
100
AcDbLine
 10
363.9742936659721
 20
275.2826119848837
 30
0.0
 11
363.9742936659721
 21
266.2826119848836
 31
0.0
1001
ACME_LAYERS
1000
1
  0
LINE
  5
7F6
330
1F
100
AcDbEntity
  8
P-0000
  6
Continuous
 62
     7
100
AcDbLine
 10
193.6166820088624
 20
275.2826119848837
 30
0.0
 11
208.9742936659605
 21
275.2826119848837
 31
0.0
1001
ACME_LAYERS
1000
1
  0
LINE
  5
7F7
330
1F
100
AcDbEntity
  8
P-0000
  6
Continuous
 62
     7
100
AcDbLine
 10
210.9742936659591
 20
255.3842961456559
 30
0.0
 11
210.9742936659601
 21
255.2826119848837
 31
0.0
1001
ACME_LAYERS
1000
1
  0
LINE
  5
7F8
330
1F
100
AcDbEntity
  8
P-0000
  6
Continuous
 62
     7
100
AcDbLine
 10
361.9742936659733
 20
253.2826119848853
 30
0.0
 11
361.974293665973
 21
257.4859803064263
 31
0.0
1001
ACME_LAYERS
1000
1
  0
LINE
  5
7F9
330
1F
100
AcDbEntity
  8
P-0000
  6
Continuous
 62
     7
100
AcDbLine
 10
379.3319053230699
 20
275.2826119848837
 30
0.0
 11
363.9742936659721
 21
275.2826119848837
 31
0.0
1001
ACME_LAYERS
1000
1
  0
LINE
  5
7FA
330
1F
100
AcDbEntity
  8
P-0000
  6
Continuous
 62
     7
100
AcDbLine
 10
451.5138899097251
 20
92.62763713028109
 30
0.0
 11
451.513889909727
 21
92.62763713028109
 31
0.0
1001
ACME_LAYERS
1000
1
  0
LINE
  5
7FB
330
1F
100
AcDbEntity
  8
P-0000
  6
Continuous
 62
     7
100
AcDbLine
 10
426.9460069382073
 20
275.2826119848837
 30
0.0
 11
451.5178037079313
 21
275.2826119848837
 31
0.0
1001
ACME_LAYERS
1000
1
  0
LINE
  5
7FC
330
1F
100
AcDbEntity
  8
P-0000
  6
Continuous
 62
     7
100
AcDbLine
 10
451.5138899097251
 20
225.7087065220244
 30
0.0
 11
451.513889909727
 21
225.7087065220243
 31
0.0
1001
ACME_LAYERS
1000
1
  0
LINE
  5
7FD
330
1F
100
AcDbEntity
  8
P-0000
  6
Continuous
 62
     7
100
AcDbLine
 10
361.9742936659732
 20
228.8354981228366
 30
0.0
 11
363.9032763266064
 21
228.768136563991
 31
0.0
1001
ACME_LAYERS
1000
1
  0
LINE
  5
7FE
330
1F
100
AcDbEntity
  8
P-0000
  6
Continuous
 62
     7
100
AcDbLine
 10
365.6730931302757
 20
95.62526380760415
 30
0.0
 11
451.5138899097251
 21
92.62763713028109
 31
0.0
1001
ACME_LAYERS
1000
1
  0
LINE
  5
7FF
330
1F
100
AcDbEntity
  8
P-0000
  6
Continuous
 62
     7
100
AcDbLine
 10
214.6472027506737
 20
281.2826119848836
 30
0.0
 11
358.3013845812586
 21
281.2826119848836
 31
0.0
1001
ACME_LAYERS
1000
1
  0
LINE
  5
800
330
1F
100
AcDbEntity
  8
P-0000
  6
Continuous
 62
     3
100
AcDbLine
 10
353.5819215052143
 20
280.4691386987402
 30
0.0
 11
286.4742936659687
 21
280.4691386987402
 31
0.0
1001
ACME_LAYERS
1000
1
  0
LINE
  5
801
330
1F
100
AcDbEntity
  8
P-0000
  6
STRICHPUNKT
 62
     3
100
AcDbLine
 10
286.4742936659687
 20
290.5710167119387
 30
0.0
 11
286.4742936659683
 21
269.6080099900705
 31
0.0
1001
ACME_LAYERS
1000
1
  0
LINE
  5
802
330
1F
100
AcDbEntity
  8
P-0000
  6
Continuous
 62
     3
100
AcDbLine
 10
356.6297894884773
 20
272.6080099900705
 30
0.0
 11
286.4742936659683
 21
272.6080099900705
 31
0.0
1001
ACME_LAYERS
1000
1
  0
LINE
  5
803
330
1F
100
AcDbEntity
  8
P-0000
  6
STRICHPUNKT
 62
     3
100
AcDbLine
 10
286.4742936659735
 20
389.9648563653279
 30
0.0
 11
286.4742936659673
 21
246.3342287776883
 31
0.0
1001
ACME_LAYERS
1000
1
  0
LINE
  5
804
330
1F
100
AcDbEntity
  8
P-0000
  6
Continuous
 62
     3
100
AcDbLine
 10
286.4742936659662
 20
272.6080099900705
 30
0.0
 11
216.3187978434573
 21
272.6080099900705
 31
0.0
1001
ACME_LAYERS
1000
1
  0
LINE
  5
805
330
1F
100
AcDbEntity
  8
P-0000
  6
Continuous
 62
     3
100
AcDbLine
 10
286.4742936659659
 20
280.4691386987402
 30
0.0
 11
219.3666658267203
 21
280.4691386987402
 31
0.0
1001
ACME_LAYERS
1000
1
  0
LINE
  5
806
330
1F
100
AcDbEntity
  8
P-0000
  6
Continuous
 62
     7
100
AcDbLine
 10
210.9742936659607
 20
264.0029333155595
 30
0.0
 11
210.9742936659607
 21
264.2826119848834
 31
0.0
1001
ACME_LAYERS
1000
1
  0
LINE
  5
807
330
1F
100
AcDbEntity
  8
P-0000
  6
Continuous
 62
     7
100
AcDbLine
 10
210.9742936659608
 20
270.1471608858871
 30
0.0
 11
210.9742936659608
 21
273.0331231134081
 31
0.0
1001
ACME_LAYERS
1000
1
  0
LINE
  5
808
330
1F
100
AcDbEntity
  8
P-0000
  6
Continuous
 62
     7
100
AcDbLine
 10
210.9742936659608
 20
268.2511952357073
 30
0.0
 11
210.9742936659608
 21
270.1471608858871
 31
0.0
1001
ACME_LAYERS
1000
1
  0
LINE
  5
809
330
1F
100
AcDbEntity
  8
P-0000
  6
Continuous
 62
     7
100
AcDbLine
 10
361.9742936659732
 20
238.8974139796182
 30
0.0
 11
361.9742936659732
 21
230.8367172114341
 31
0.0
1001
ACME_LAYERS
1000
1
  0
LINE
  5
80A
330
1F
100
AcDbEntity
  8
P-0000
  6
Continuous
 62
     7
100
AcDbLine
 10
347.0267067488447
 20
97.77915458991763
 30
0.0
 11
346.9743255946071
 21
96.27915458991765
 31
0.0
1001
ACME_LAYERS
1000
1
  0
LINE
  5
80B
330
1F
100
AcDbEntity
  8
P-0000
  6
Continuous
 62
     7
100
AcDbLine
 10
347.0267067488447
 20
97.77915458991763
 30
0.0
 11
349.9742936659732
 21
97.77915458991763
 31
0.0
1001
ACME_LAYERS
1000
1
  0
LINE
  5
80C
330
1F
100
AcDbEntity
  8
P-0000
  6
STRICHLINIE
 62
     2
100
AcDbLine
 10
361.9742936659732
 20
228.8354981228366
 30
0.0
 11
361.9742936659732
 21
109.7791545899176
 31
0.0
1001
ACME_LAYERS
1000
1
  0
LINE
  5
80D
330
1F
100
AcDbEntity
  8
P-0000
  6
Continuous
 62
     7
100
AcDbLine
 10
346.9743255946071
 20
96.27915458991765
 30
0.0
 11
346.9742936659732
 21
96.27824027346946
 31
0.0
1001
ACME_LAYERS
1000
1
  0
LINE
  5
80E
330
1F
100
AcDbEntity
  8
P-0000
  6
Continuous
 62
     7
100
AcDbLine
 10
210.974293665959
 20
250.0342287776883
 30
0.0
 11
210.974293665959
 21
238.0808827237113
 31
0.0
1001
ACME_LAYERS
1000
1
  0
LINE
  5
80F
330
1F
100
AcDbEntity
  8
P-0000
  6
Continuous
 62
     7
100
AcDbLine
 10
212.974293665959
 20
250.0342287776883
 30
0.0
 11
212.974293665959
 21
237.9172972030457
 31
0.0
1001
ACME_LAYERS
1000
1
  0
LINE
  5
810
330
1F
100
AcDbEntity
  8
P-0000
  6
STRICHPUNKT
 62
     3
100
AcDbLine
 10
286.4742936659673
 20
249.3342287776883
 30
0.0
 11
286.4742936659663
 21
226.1046693681059
 31
0.0
1001
ACME_LAYERS
1000
1
  0
LINE
  5
811
330
1F
100
AcDbEntity
  8
P-0000
  6
Continuous
 62
     7
100
AcDbLine
 10
359.9742936659733
 20
250.0342287776883
 30
0.0
 11
359.9742936659733
 21
238.9172972030457
 31
0.0
1001
ACME_LAYERS
1000
1
  0
LINE
  5
812
330
1F
100
AcDbEntity
  8
P-0000
  6
Continuous
 62
     7
100
AcDbLine
 10
361.9742936659733
 20
250.0342287776883
 30
0.0
 11
361.9742936659732
 21
238.8974139796182
 31
0.0
1001
ACME_LAYERS
1000
1
  0
LINE
  5
813
102
{ACAD_REACTORS
330
E9D
102
}
330
1F
100
AcDbEntity
  8
P-0000
  6
STRICHPUNKT
 62
     3
100
AcDbLine
 10
286.4742936659663
 20
164.9314815235922
 30
0.0
 11
516.4742936659663
 21
156.8997045404901
 31
0.0
1001
ACME_LAYERS
1000
1
  0
LINE
  5
814
330
1F
100
AcDbEntity
  8
P-0000
  6
Continuous
 62
     7
100
AcDbLine
 10
219.970022349649
 20
281.5021440590158
 30
0.0
 11
219.9742936659601
 21
281.4859803064231
 31
0.0
1001
ACME_LAYERS
1000
1
  0
LINE
  5
815
330
1F
100
AcDbEntity
  8
P-0000
  6
Continuous
 62
     7
100
AcDbLine
 10
210.9742936659591
 20
255.3842961456559
 30
0.0
 11
210.9742936659601
 21
255.2826119848837
 31
0.0
1001
ACME_LAYERS
1000
1
  0
LINE
  5
816
330
1F
100
AcDbEntity
  8
P-0000
  6
Continuous
 62
     7
100
AcDbLine
 10
361.9742936659747
 20
253.2826119848854
 30
0.0
 11
361.9742936659747
 21
255.2826119848837
 31
0.0
1001
ACME_LAYERS
1000
1
  0
LINE
  5
817
330
1F
100
AcDbEntity
  8
P-0000
  6
Continuous
 62
     7
100
AcDbLine
 10
210.9742936659601
 20
253.2826119848854
 30
0.0
 11
210.9742936659601
 21
238.7808827237118
 31
0.0
1001
ACME_LAYERS
1000
1
  0
LINE
  5
818
330
1F
100
AcDbEntity
  8
P-0000
  6
Continuous
 62
     7
100
AcDbLine
 10
361.9742936659747
 20
253.2826119848854
 30
0.0
 11
361.9742936659747
 21
249.5013542400578
 31
0.0
1001
ACME_LAYERS
1000
1
  0
LINE
  5
819
330
1F
100
AcDbEntity
  8
P-0000
  6
Continuous
 62
     7
100
AcDbLine
 10
210.9742936659601
 20
238.7808827237118
 30
0.0
 11
210.9742936659601
 21
104.4640047376619
 31
0.0
1001
ACME_LAYERS
1000
1
  0
LINE
  5
81A
330
1F
100
AcDbEntity
  8
P-0000
  6
Continuous
 62
     7
100
AcDbLine
 10
206.4742936659674
 20
275.2826119848837
 30
0.0
 11
208.9742936659619
 21
275.2826119848837
 31
0.0
1001
ACME_LAYERS
1000
1
  0
LINE
  5
81B
330
1F
100
AcDbEntity
  8
P-0000
  6
Continuous
 62
     7
100
AcDbLine
 10
210.9742936659601
 20
255.2826119848837
 30
0.0
 11
210.9742936659601
 21
253.2826119848854
 31
0.0
1001
ACME_LAYERS
1000
1
  0
LINE
  5
81C
330
1F
100
AcDbEntity
  8
P-0000
  6
Continuous
 62
     7
100
AcDbLine
 10
451.513889909727
 20
275.2826119848837
 30
0.0
 11
451.5178037079326
 21
275.2826119848837
 31
0.0
1001
ACME_LAYERS
1000
1
  0
LINE
  5
81D
330
1F
100
AcDbEntity
  8
P-0000
  6
Continuous
 62
     7
100
AcDbLine
 10
420.6395886163278
 20
93.70579148896643
 30
0.0
 11
451.513889909727
 21
92.62763713028109
 31
0.0
1001
ACME_LAYERS
1000
1
  0
LINE
  5
81E
330
1F
100
AcDbEntity
  8
P-0000
  6
Continuous
 62
     7
100
AcDbLine
 10
218.9742936659601
 20
96.46400473766199
 30
0.0
 11
346.7885292017807
 21
96.46400473766199
 31
0.0
1001
ACME_LAYERS
1000
1
  0
LINE
  5
81F
330
1F
100
AcDbEntity
  8
P-0000
  6
Continuous
 62
     7
100
AcDbLine
 10
210.9742936659601
 20
255.2826119848837
 30
0.0
 11
210.974293665959
 21
253.2826119848853
 31
0.0
1001
ACME_LAYERS
1000
1
  0
LINE
  5
820
330
1F
100
AcDbEntity
  8
P-0000
  6
Continuous
 62
     7
100
AcDbLine
 10
451.513889909727
 20
225.7087065220243
 30
0.0
 11
512.7987652345681
 21
223.5685915174749
 31
0.0
1001
ACME_LAYERS
1000
1
  0
LINE
  5
821
330
1F
100
AcDbEntity
  8
P-0000
  6
Continuous
 62
     7
100
AcDbLine
 10
425.2563032646726
 20
226.6256416526659
 30
0.0
 11
439.7551109120648
 21
226.119332132906
 31
0.0
1001
ACME_LAYERS
1000
1
  0
LINE
  5
822
330
1F
100
AcDbEntity
  8
P-0000
  6
Continuous
 62
     7
100
AcDbLine
 10
451.513889909727
 20
92.62763713028109
 30
0.0
 11
508.1571321731352
 21
90.64961152393527
 31
0.0
1001
ACME_LAYERS
1000
1
  0
LINE
  5
823
330
1F
100
AcDbEntity
  8
P-0000
  6
Continuous
 62
     7
100
AcDbLine
 10
362.0886663462302
 20
95.75043474908985
 30
0.0
 11
365.6730931302757
 21
95.62526380760415
 31
0.0
1001
ACME_LAYERS
1000
1
  0
LINE
  5
824
330
1F
100
AcDbEntity
  8
P-0000
  6
Continuous
 62
     7
100
AcDbLine
 10
346.7885292017807
 20
96.46400473766199
 30
0.0
 11
345.4733793495249
 21
97.77915458991763
 31
0.0
1001
ACME_LAYERS
1000
1
  0
LINE
  5
825
330
1F
100
AcDbEntity
  8
P-0000
  6
Continuous
 62
     7
100
AcDbLine
 10
377.4259261043312
 20
228.2969275491439
 30
0.0
 11
387.4198343745208
 21
227.9479325821183
 31
0.0
1001
ACME_LAYERS
1000
1
  0
LINE
  5
826
330
1F
100
AcDbEntity
  8
P-0000
  6
Continuous
 62
     7
100
AcDbLine
 10
391.4173976825983
 20
227.808334595308
 30
0.0
 11
401.4113059527895
 21
227.4593396282824
 31
0.0
1001
ACME_LAYERS
1000
1
  0
LINE
  5
827
330
1F
100
AcDbEntity
  8
P-0000
  6
Continuous
 62
     7
100
AcDbLine
 10
404.6158465969081
 20
227.3464222821652
 30
0.0
 11
405.4459852160465
 21
227.3174332028002
 31
0.0
1001
ACME_LAYERS
1000
1
  0
LINE
  5
828
330
1F
100
AcDbEntity
  8
P-0000
  6
Continuous
 62
     7
100
AcDbLine
 10
411.4423301781603
 20
227.1080362225846
 30
0.0
 11
412.2724687973001
 21
227.0790471432199
 31
0.0
1001
ACME_LAYERS
1000
1
  0
LINE
  5
829
330
1F
100
AcDbEntity
  8
P-0000
  6
Continuous
 62
     7
100
AcDbLine
 10
416.4392843132581
 20
226.9335387390726
 30
0.0
 11
418.4380659672948
 21
226.8637397456676
 31
0.0
1001
ACME_LAYERS
1000
1
  0
LINE
  5
82A
330
1F
100
AcDbEntity
  8
P-0000
  6
Continuous
 62
     7
100
AcDbLine
 10
374.8782628450479
 20
95.30030367880494
 30
0.0
 11
384.8721711152391
 21
94.95130871178115
 31
0.0
1001
ACME_LAYERS
1000
1
  0
LINE
  5
82B
330
1F
100
AcDbEntity
  8
P-0000
  6
Continuous
 62
     7
100
AcDbLine
 10
388.8697344233148
 20
94.81171072497083
 30
0.0
 11
398.863642693506
 21
94.46271575794529
 31
0.0
1001
ACME_LAYERS
1000
1
  0
ARC
  5
82C
330
1F
100
AcDbEntity
  8
P-0000
  6
Continuous
 62
     7
100
AcDbCircle
 10
193.6166820088624
 20
279.2826119848836
 30
0.0
 40
4.0
100
AcDbArc
 50
270.0
 51
300.0
1001
ACME_LAYERS
1000
1
  0
ARC
  5
82D
330
1F
100
AcDbEntity
  8
P-0000
  6
Continuous
 62
     7
100
AcDbCircle
 10
146.0025803937247
 20
279.2826119848836
 30
0.0
 40
4.000000000000205
100
AcDbArc
 50
239.9999999999991
 51
270.0
1001
ACME_LAYERS
1000
1
  0
ARC
  5
82E
330
1F
100
AcDbEntity
  8
P-0000
  6
Continuous
 62
     7
100
AcDbCircle
 10
379.3319053230699
 20
279.2826119848836
 30
0.0
 40
4.000000000000205
100
AcDbArc
 50
239.9999999999991
 51
270.0
1001
ACME_LAYERS
1000
1
  0
ARC
  5
82F
330
1F
100
AcDbEntity
  8
P-0000
  6
Continuous
 62
     7
100
AcDbCircle
 10
426.9460069382073
 20
279.2826119848836
 30
0.0
 40
4.0
100
AcDbArc
 50
270.0
 51
300.0
1001
ACME_LAYERS
1000
1
  0
ARC
  5
830
330
1F
100
AcDbEntity
  8
P-0000
  6
Continuous
 62
     7
100
AcDbCircle
 10
379.3319053230699
 20
279.2826119848836
 30
0.0
 40
4.000000000000205
100
AcDbArc
 50
239.9999999999991
 51
270.0
1001
ACME_LAYERS
1000
1
  0
ARC
  5
831
330
1F
100
AcDbEntity
  8
P-0000
  6
Continuous
 62
     7
100
AcDbCircle
 10
348.6494667491496
 20
101.5533874444813
 30
0.0
 40
4.000000000001051
100
AcDbArc
 50
289.3420354090299
 51
54.12796002190707
1001
ACME_LAYERS
1000
1
  0
ARC
  5
832
330
1F
100
AcDbEntity
  8
P-0000
  6
Continuous
 62
     7
100
AcDbCircle
 10
396.1077329632421
 20
163.3073263563771
 30
0.0
 40
73.88526898722753
100
AcDbArc
 50
117.5148797024447
 51
232.3670877388419
1001
ACME_LAYERS
1000
1
  0
ARC
  5
834
330
1F
100
AcDbEntity
  8
P-0000
  6
Continuous
 62
     7
100
AcDbCircle
 10
146.0025803937247
 20
279.2826119848836
 30
0.0
 40
1.999999999999324
100
AcDbArc
 50
239.9999999999878
 51
270.0
1001
ACME_LAYERS
1000
1
  0
ARC
  5
835
330
1F
100
AcDbEntity
  8
P-0000
  6
Continuous
 62
     7
100
AcDbCircle
 10
193.6166820088624
 20
279.2826119848836
 30
0.0
 40
2.0
100
AcDbArc
 50
270.0
 51
300.0000000000122
1001
ACME_LAYERS
1000
1
  0
ARC
  5
836
330
1F
100
AcDbEntity
  8
P-0000
  6
Continuous
 62
     7
100
AcDbCircle
 10
126.7962418639094
 20
276.0709596672628
 30
0.0
 40
4.000000000000655
100
AcDbArc
 50
45.00000000000015
 51
90.0
1001
ACME_LAYERS
1000
1
  0
ARC
  5
837
330
1F
100
AcDbEntity
  8
P-0000
  6
Continuous
 62
     7
100
AcDbCircle
 10
139.5653253840924
 20
276.0709596672628
 30
0.0
 40
3.999999999998728
100
AcDbArc
 50
59.99999999998784
 51
90.0
1001
ACME_LAYERS
1000
1
  0
ARC
  5
838
330
1F
100
AcDbEntity
  8
P-0000
  6
Continuous
 62
     7
100
AcDbCircle
 10
129.1628344315691
 20
276.2826119848837
 30
0.0
 40
5.0
100
AcDbArc
 50
89.99999999998044
 51
120.0000000000001
1001
ACME_LAYERS
1000
1
  0
ARC
  5
839
330
1F
100
AcDbEntity
  8
P-0000
  6
Continuous
 62
     7
100
AcDbCircle
 10
126.7962418639094
 20
276.0709596672628
 30
0.0
 40
2.000000000000237
100
AcDbArc
 50
44.99999999999785
 51
120.0000000000121
1001
ACME_LAYERS
1000
1
  0
ARC
  5
83A
330
1F
100
AcDbEntity
  8
P-0000
  6
Continuous
 62
     7
100
AcDbCircle
 10
139.5653253840924
 20
276.0709596672628
 30
0.0
 40
1.999999999999401
100
AcDbArc
 50
59.99999999998784
 51
135.000000000002
1001
ACME_LAYERS
1000
1
  0
ARC
  5
83B
330
1F
100
AcDbEntity
  8
P-0000
  6
Continuous
 62
     7
100
AcDbCircle
 10
138.0128344315694
 20
276.2826119848837
 30
0.0
 40
5.000000000000087
100
AcDbArc
 50
59.99999999999912
 51
90.0
1001
ACME_LAYERS
1000
1
  0
ARC
  5
83C
330
1F
100
AcDbEntity
  8
P-0000
  6
Continuous
 62
     7
100
AcDbCircle
 10
126.7962418639094
 20
276.0709596672628
 30
0.0
 40
4.0
100
AcDbArc
 50
90.0
 51
120.0000000000121
1001
ACME_LAYERS
1000
1
  0
ARC
  5
83D
330
1F
100
AcDbEntity
  8
P-0000
  6
Continuous
 62
     7
100
AcDbCircle
 10
139.5653253840924
 20
276.0709596672628
 30
0.0
 40
1.999999999999401
100
AcDbArc
 50
59.99999999998784
 51
135.000000000002
1001
ACME_LAYERS
1000
1
  0
ARC
  5
83E
330
1F
100
AcDbEntity
  8
P-0000
  6
Continuous
 62
     7
100
AcDbCircle
 10
139.5653253840924
 20
276.0709596672628
 30
0.0
 40
4.0
100
AcDbArc
 50
90.0
 51
134.9999999999998
1001
ACME_LAYERS
1000
1
  0
ARC
  5
83F
330
1F
100
AcDbEntity
  8
P-0000
  6
Continuous
 62
     7
100
AcDbCircle
 10
202.1525803937261
 20
277.2826119848836
 30
0.0
 40
2.0
100
AcDbArc
 50
90.0
 51
119.999999999983
1001
ACME_LAYERS
1000
1
  0
ARC
  5
840
330
1F
100
AcDbEntity
  8
P-0000
  6
Continuous
 62
     7
100
AcDbCircle
 10
202.1525803937261
 20
277.2826119848836
 30
0.0
 40
4.0
100
AcDbArc
 50
90.0
 51
119.9999999999979
1001
ACME_LAYERS
1000
1
  0
ARC
  5
841
330
1F
100
AcDbEntity
  8
P-0000
  6
Continuous
 62
     7
100
AcDbCircle
 10
426.9460069382073
 20
279.2826119848836
 30
0.0
 40
2.0
100
AcDbArc
 50
270.0
 51
300.0000000000122
1001
ACME_LAYERS
1000
1
  0
ARC
  5
842
330
1F
100
AcDbEntity
  8
P-0000
  6
Continuous
 62
     7
100
AcDbCircle
 10
379.3319053230699
 20
279.2826119848836
 30
0.0
 40
1.999999999999324
100
AcDbArc
 50
239.9999999999878
 51
270.0
1001
ACME_LAYERS
1000
1
  0
ARC
  5
843
330
1F
100
AcDbEntity
  8
P-0000
  6
Continuous
 62
     7
100
AcDbCircle
 10
446.1523454680228
 20
276.0709596672628
 30
0.0
 40
4.0
100
AcDbArc
 50
90.0
 51
134.9999999999998
1001
ACME_LAYERS
1000
1
  0
ARC
  5
844
330
1F
100
AcDbEntity
  8
P-0000
  6
Continuous
 62
     7
100
AcDbCircle
 10
433.3832619478399
 20
276.0709596672628
 30
0.0
 40
4.0
100
AcDbArc
 50
90.0
 51
120.0000000000121
1001
ACME_LAYERS
1000
1
  0
ARC
  5
845
330
1F
100
AcDbEntity
  8
P-0000
  6
Continuous
 62
     7
100
AcDbCircle
 10
443.7857529003631
 20
276.2826119848837
 30
0.0
 40
5.000000000000087
100
AcDbArc
 50
59.99999999999912
 51
90.00000000001952
1001
ACME_LAYERS
1000
1
  0
ARC
  5
846
330
1F
100
AcDbEntity
  8
P-0000
  6
Continuous
 62
     7
100
AcDbCircle
 10
446.1523454680228
 20
276.0709596672628
 30
0.0
 40
1.999999999999401
100
AcDbArc
 50
59.99999999998784
 51
134.9999999999998
1001
ACME_LAYERS
1000
1
  0
ARC
  5
847
330
1F
100
AcDbEntity
  8
P-0000
  6
Continuous
 62
     7
100
AcDbCircle
 10
433.3832619478399
 20
276.0709596672628
 30
0.0
 40
2.000000000000285
100
AcDbArc
 50
44.99999999999324
 51
120.0000000000121
1001
ACME_LAYERS
1000
1
  0
ARC
  5
848
330
1F
100
AcDbEntity
  8
P-0000
  6
Continuous
 62
     7
100
AcDbCircle
 10
434.9357529003627
 20
276.2826119848837
 30
0.0
 40
5.0
100
AcDbArc
 50
90.0
 51
120.0000000000001
1001
ACME_LAYERS
1000
1
  0
ARC
  5
849
330
1F
100
AcDbEntity
  8
P-0000
  6
Continuous
 62
     7
100
AcDbCircle
 10
446.1523454680228
 20
276.0709596672628
 30
0.0
 40
3.999999999998728
100
AcDbArc
 50
59.99999999998784
 51
90.0
1001
ACME_LAYERS
1000
1
  0
ARC
  5
84A
330
1F
100
AcDbEntity
  8
P-0000
  6
Continuous
 62
     7
100
AcDbCircle
 10
433.3832619478399
 20
276.0709596672628
 30
0.0
 40
2.000000000000285
100
AcDbArc
 50
44.99999999999324
 51
120.0000000000121
1001
ACME_LAYERS
1000
1
  0
ARC
  5
84B
330
1F
100
AcDbEntity
  8
P-0000
  6
Continuous
 62
     7
100
AcDbCircle
 10
433.3832619478399
 20
276.0709596672628
 30
0.0
 40
4.000000000000635
100
AcDbArc
 50
45.00000000000015
 51
90.0
1001
ACME_LAYERS
1000
1
  0
ARC
  5
84C
330
1F
100
AcDbEntity
  8
P-0000
  6
Continuous
 62
     7
100
AcDbCircle
 10
370.7960069382062
 20
277.2826119848836
 30
0.0
 40
2.000000000001048
100
AcDbArc
 50
60.00000000001705
 51
90.0
1001
ACME_LAYERS
1000
1
  0
ARC
  5
84D
330
1F
100
AcDbEntity
  8
P-0000
  6
Continuous
 62
     7
100
AcDbCircle
 10
370.7960069382062
 20
277.2826119848836
 30
0.0
 40
4.000000000000389
100
AcDbArc
 50
60.00000000000203
 51
90.0
1001
ACME_LAYERS
1000
1
  0
ARC
  5
84E
330
1F
100
AcDbEntity
  8
P-0000
  6
Continuous
 62
     7
100
AcDbCircle
 10
205.9742936659605
 20
276.2826119848837
 30
0.0
 40
3.0
100
AcDbArc
 50
0.0
 51
90.0
1001
ACME_LAYERS
1000
1
  0
ARC
  5
84F
330
1F
100
AcDbEntity
  8
P-0000
  6
Continuous
 62
     7
100
AcDbCircle
 10
205.9742936659605
 20
276.2826119848837
 30
0.0
 40
5.000000000000311
100
AcDbArc
 50
0.0
 51
90.00000000000325
1001
ACME_LAYERS
1000
1
  0
ARC
  5
850
330
1F
100
AcDbEntity
  8
P-0000
  6
Continuous
 62
     7
100
AcDbCircle
 10
379.3319053230699
 20
279.2826119848836
 30
0.0
 40
1.999999999999324
100
AcDbArc
 50
239.9999999999878
 51
270.0
1001
ACME_LAYERS
1000
1
  0
ARC
  5
851
330
1F
100
AcDbEntity
  8
P-0000
  6
Continuous
 62
     7
100
AcDbCircle
 10
370.7960069382062
 20
277.2826119848836
 30
0.0
 40
2.000000000001048
100
AcDbArc
 50
60.00000000001705
 51
90.0
1001
ACME_LAYERS
1000
1
  0
ARC
  5
852
330
1F
100
AcDbEntity
  8
P-0000
  6
Continuous
 62
     7
100
AcDbCircle
 10
370.7960069382062
 20
277.2826119848836
 30
0.0
 40
4.000000000000389
100
AcDbArc
 50
60.00000000000203
 51
90.0
1001
ACME_LAYERS
1000
1
  0
ARC
  5
853
330
1F
100
AcDbEntity
  8
P-0000
  6
Continuous
 62
     7
100
AcDbCircle
 10
366.9742936659722
 20
276.2826119848837
 30
0.0
 40
3.0
100
AcDbArc
 50
90.0
 51
180.0
1001
ACME_LAYERS
1000
1
  0
ARC
  5
854
330
1F
100
AcDbEntity
  8
P-0000
  6
Continuous
 62
     7
100
AcDbCircle
 10
366.9742936659722
 20
276.2826119848837
 30
0.0
 40
5.0
100
AcDbArc
 50
90.0
 51
180.0
1001
ACME_LAYERS
1000
1
  0
ARC
  5
855
330
1F
100
AcDbEntity
  8
P-0000
  6
Continuous
 62
     7
100
AcDbCircle
 10
222.974293665959
 20
109.7791545899176
 30
0.0
 40
12.0
100
AcDbArc
 50
180.0
 51
270.0
1001
ACME_LAYERS
1000
1
  0
ARC
  5
856
330
1F
100
AcDbEntity
  8
P-0000
  6
STRICHLINIE
 62
     2
100
AcDbCircle
 10
349.9742936659732
 20
109.7791545899176
 30
0.0
 40
12.0
100
AcDbArc
 50
270.0
 51
0.0
1001
ACME_LAYERS
1000
1
  0
ARC
  5
857
330
1F
100
AcDbEntity
  8
P-0000
  6
Continuous
 62
     7
100
AcDbCircle
 10
218.9742936659601
 20
104.4640047376619
 30
0.0
 40
8.0
100
AcDbArc
 50
180.0
 51
270.0
1001
ACME_LAYERS
1000
1
  0
DIMENSION
  5
859
330
1F
100
AcDbEntity
  8
AM_5
100
AcDbDimension
  2
*D2
 10
516.4742936659663
 20
19.76338202791339
 30
0.0
 11
401.4742936659663
 21
19.76338202791339
 31
0.0
 70
   160
  1
<>
 71
     5
 42
230.0000000000001
  3
AM_DIN$0
100
AcDbAlignedDimension
 13
286.4742936659663
 23
79.5679591438833
 33
0.0
 14
516.4742936659663
 24
156.8997045404901
 34
0.0
100
AcDbRotatedDimension
1001
ACME_LAYERS
1000
1
1001
ACAD
1000
DSTYLE
1002
{
1070
    41
1040
5.0
1070
   140
1040
10.0
1070
   271
1070
     0
1002
}
  0
DIMENSION
  5
85A
330
1F
100
AcDbEntity
  8
AM_5
100
AcDbDimension
  2
*D3
 10
559.7159708316743
 20
221.930206595621
 30
0.0
 11
558.4996375776227
 21
187.098979456171
 31
0.0
 70
   160
  1
%%c<>
 71
     5
 42
132.9999999999998
  3
AM_DIN$0
100
AcDbAlignedDimension
 13
508.1571321731352
 23
90.64961152393527
 33
0.0
 14
512.7987652345681
 24
223.5685915174749
 34
0.0
 50
87.99999999999959
100
AcDbRotatedDimension
1001
ACME_LAYERS
1000
1
1001
ACAD
1000
DSTYLE
1002
{
1070
    41
1040
5.0
1070
   140
1040
10.0
1070
   271
1070
     0
1002
}
  0
DIMENSION
  5
85B
330
1F
100
AcDbEntity
  8
AM_5
100
AcDbDimension
  2
*D4
 10
118.3994779772497
 20
275.2826119848838
 30
0.0
 11
118.3994779772497
 21
183.6104815683862
 31
0.0
 70
   160
  1
177.5
 71
     5
 42
177.503457394966
  3
AM_DIN$0
100
AcDbAlignedDimension
 13
237.6315994390424
 23
97.77915458991763
 33
0.0
 14
160.6598861668081
 24
275.2826119848837
 34
0.0
 50
90.0
100
AcDbRotatedDimension
1001
ACME_LAYERS
1000
1
1001
ACAD
1000
DSTYLE
1002
{
1070
    41
1040
5.0
1070
   140
1040
10.0
1070
   271
1070
     0
1002
}
  0
DIMENSION
  5
85D
330
1F
100
AcDbEntity
  8
AM_5
100
AcDbDimension
  2
*D5
 10
582.7972190626351
 20
156.89970454049
 30
0.0
 11
582.7972190626351
 21
217.3782009832176
 31
0.0
 70
   160
  1
124.4
 71
     5
 42
124.3829074443935
  3
AM_DIN$0
100
AcDbAlignedDimension
 13
443.7857529003614
 23
281.2826119848836
 33
0.0
 14
516.4742936659663
 24
156.8997045404901
 34
0.0
 50
90.0
100
AcDbRotatedDimension
1001
ACME_LAYERS
1000
1
1001
ACAD
1000
DSTYLE
1002
{
1070
    41
1040
5.0
1070
   140
1040
10.0
1070
   271
1070
     0
1002
}
  0
HATCH
  5
85E
330
1F
100
AcDbEntity
  8
P-0000
  6
Continuous
 62
     3
100
AcDbHatch
 10
0.0
 20
0.0
 30
0.0
210
0.0
220
0.0
230
1.0
  2
_SOLID
 70
     1
 71
     0
 91
        1
 92
        1
 93
        5
 72
     1
 10
347.0267067488447
 20
97.77915458991763
 11
346.9743255946071
 21
96.27915458991765
 72
     1
 10
346.9743255946071
 20
96.27915458991765
 11
346.9742936659732
 21
96.27824027346946
 72
     1
 10
346.9742936659732
 20
96.27824027346946
 11
346.7885292017807
 21
96.46400473766199
 72
     1
 10
346.7885292017807
 20
96.46400473766199
 11
345.4733793495249
 21
97.77915458991763
 72
     1
 10
345.4733793495249
 20
97.77915458991763
 11
347.0267067488447
 21
97.77915458991763
 97
        0
 75
     0
 76
     1
 98
        1
 10
457.168990107027
 20
408.6815205990776
1001
ACME_LAYERS
1000
1
  0
HATCH
  5
85F
330
1F
100
AcDbEntity
  8
P-0000
  6
Continuous
 62
     3
100
AcDbHatch
 10
0.0
 20
0.0
 30
0.0
210
0.0
220
0.0
230
1.0
  2
_SOLID
 70
     1
 71
     0
 91
        1
 92
        1
 93
        3
 72
     1
 10
361.9742936659732
 20
228.8354981228366
 11
363.9032763266064
 21
228.768136563991
 72
     1
 10
363.9032763266064
 20
228.768136563991
 11
361.9742936659732
 21
230.8367172114342
 72
     1
 10
361.9742936659732
 20
230.8367172114341
 11
361.9742936659732
 21
228.8354981228365
 97
        0
 75
     0
 76
     1
 98
        1
 10
457.168990107027
 20
408.6815205990776
1001
ACME_LAYERS
1000
1
  0
HATCH
  5
862
330
1F
100
AcDbEntity
  8
P-0000
  6
Continuous
 62
     3
100
AcDbHatch
 10
0.0
 20
0.0
 30
0.0
210
0.0
220
0.0
230
1.0
  2
_U
 70
     0
 71
     0
 91
        1
 92
        1
 93
       29
 72
     1
 10
363.9742936659721
 20
276.2826119848837
 11
363.9742936659721
 21
275.2826119848837
 72
     1
 10
363.9742936659721
 20
275.2826119848837
 11
363.9742936659721
 21
266.2826119848836
 72
     1
 10
363.9742936659721
 20
266.2826119848836
 11
361.9742936659724
 21
266.2826119848836
 72
     1
 10
361.9742936659724
 20
266.2826119848836
 11
361.9742936659717
 21
276.2826119848837
 72
     2
 10
366.9742936659722
 20
276.2826119848837
 40
5.0
 50
180.0
 51
269.999999999999
 73
     0
 72
     1
 10
366.974293665972
 20
281.2826119848836
 11
370.7960069382062
 21
281.2826119848836
 72
     2
 10
370.7960069382062
 20
277.2826119848836
 40
4.000000000000389
 50
270.0
 51
299.9999999999968
 73
     0
 72
     1
 10
372.7960069382062
 20
280.7467136000219
 11
377.47219454886
 21
278.0469154242295
 72
     1
 10
377.47219454886
 20
278.0469154242295
 11
378.3319053230699
 21
277.5505611773156
 72
     2
 10
379.3319053230699
 20
279.2826119848836
 40
1.999999999999324
 50
239.9999999999888
 51
270.0
 73
     1
 72
     1
 10
379.3319053230699
 20
277.2826119848836
 11
398.7678037079314
 21
277.2826119848836
 72
     1
 10
398.7678037079314
 20
277.2826119848836
 11
426.9460069382073
 21
277.2826119848836
 72
     1
 10
426.9460069382073
 20
277.2826119848836
 11
427.9460069382074
 21
277.5505611773156
 72
     1
 10
427.9460069382074
 20
277.5505611773156
 11
431.3832619478398
 21
279.5350612823991
 72
     2
 10
433.3832619478399
 20
276.0709596672628
 40
4.0
 50
239.9999999999895
 51
270.0
 73
     0
 72
     2
 10
433.3832619478399
 20
276.0709596672628
 40
4.000000000000635
 50
270.0
 51
315.0000000000012
 73
     0
 72
     1
 10
436.2116890725864
 20
278.8993867920094
 11
436.9142503173389
 21
278.1968255472571
 72
     1
 10
436.9142503173389
 20
278.1968255472571
 11
435.5000367549656
 21
276.7826119848836
 72
     1
 10
435.5000367549656
 20
276.7826119848836
 11
434.7974755102133
 21
277.4851732296359
 72
     2
 10
433.3832619478399
 20
276.0709596672628
 40
2.000000000000285
 50
44.99999999999576
 51
120.0000000000099
 73
     1
 72
     1
 10
432.3832619478399
 20
277.803010474831
 11
428.9460069382076
 21
275.8185103697457
 72
     2
 10
426.9460069382073
 20
279.2826119848836
 40
4.0
 50
60.0000000000017
 51
90.0
 73
     0
 72
     1
 10
426.9460069382073
 20
275.2826119848837
 11
379.3319053230699
 21
275.2826119848837
 72
     2
 10
379.3319053230699
 20
279.2826119848836
 40
4.000000000000205
 50
90.0
 51
119.9999999999983
 73
     0
 72
     1
 10
377.3319053230699
 20
275.8185103697457
 11
371.7960069382062
 21
279.0146627924538
 72
     2
 10
370.7960069382062
 20
277.2826119848836
 40
2.000000000001048
 50
60.00000000001736
 51
90.0
 73
     1
 72
     1
 10
370.7960069382062
 20
279.2826119848836
 11
368.9120851354492
 21
279.2826119848836
 72
     1
 10
368.9120851354492
 20
279.2826119848836
 11
366.974293665972
 21
279.2826119848836
 72
     2
 10
366.9742936659722
 20
276.2826119848837
 40
3.0
 50
90.0
 51
180.0
 73
     1
 97
        0
 75
     0
 76
     0
 52
45.0
 41
2.0
 77
     0
 78
     1
 53
45.0
 43
457.168990107027
 44
408.6815205990776
 45
-1.414213562373094
 46
1.414213562373094
 79
     0
 98
        1
 10
457.168990107027
 20
408.6815205990776
1001
ACME_LAYERS
1000
1
  0
HATCH
  5
863
330
1F
100
AcDbEntity
  8
P-0000
  6
Continuous
 62
     3
100
AcDbHatch
 10
0.0
 20
0.0
 30
0.0
210
0.0
220
0.0
230
1.0
  2
_U
 70
     0
 71
     0
 91
        1
 92
        1
 93
       30
 72
     1
 10
208.9742936659605
 20
266.2826119848836
 11
208.9742936659605
 21
275.2826119848837
 72
     1
 10
208.9742936659605
 20
275.2826119848837
 11
208.9742936659605
 21
276.2826119848837
 72
     2
 10
205.9742936659605
 20
276.2826119848837
 40
3.0
 50
0.0
 51
90.0
 73
     1
 72
     1
 10
205.9742936659605
 20
279.2826119848836
 11
204.0365021964831
 21
279.2826119848836
 72
     1
 10
204.0365021964831
 20
279.2826119848836
 11
202.1525803937261
 21
279.2826119848836
 72
     2
 10
202.1525803937261
 20
277.2826119848836
 40
2.0
 50
90.0
 51
119.9999999999826
 73
     1
 72
     1
 10
201.1525803937261
 20
279.0146627924538
 11
195.6166820088624
 21
275.8185103697457
 72
     2
 10
193.6166820088624
 20
279.2826119848836
 40
4.0
 50
60.0000000000017
 51
90.0
 73
     0
 72
     1
 10
193.6166820088624
 20
275.2826119848837
 11
146.0025803937247
 21
275.2826119848837
 72
     2
 10
146.0025803937247
 20
279.2826119848836
 40
4.000000000000205
 50
90.0
 51
119.9999999999983
 73
     0
 72
     1
 10
144.0025803937247
 20
275.8185103697457
 11
140.5653253840924
 21
277.803010474831
 72
     2
 10
139.5653253840924
 20
276.0709596672628
 40
1.999999999999401
 50
59.99999999999008
 51
135.000000000004
 73
     1
 72
     1
 10
138.151111821719
 20
277.4851732296359
 11
137.4485505769666
 21
276.7826119848836
 72
     1
 10
137.4485505769666
 20
276.7826119848836
 11
136.0343370145934
 21
278.1968255472571
 72
     1
 10
136.0343370145934
 20
278.1968255472571
 11
136.7368982593457
 21
278.8993867920094
 72
     2
 10
139.5653253840924
 20
276.0709596672628
 40
4.0
 50
224.9999999999992
 51
270.0
 73
     0
 72
     2
 10
139.5653253840924
 20
276.0709596672628
 40
3.999999999998728
 50
270.0
 51
300.0000000000105
 73
     0
 72
     1
 10
141.5653253840924
 20
279.5350612823991
 11
145.0025803937247
 21
277.5505611773156
 72
     2
 10
146.0025803937247
 20
279.2826119848836
 40
1.999999999999324
 50
239.9999999999888
 51
270.0
 73
     1
 72
     1
 10
146.0025803937247
 20
277.2826119848836
 11
174.1807836240009
 21
277.2826119848836
 72
     1
 10
174.1807836240009
 20
277.2826119848836
 11
193.6166820088624
 21
277.2826119848836
 72
     1
 10
193.6166820088624
 20
277.2826119848836
 11
193.9020362399215
 21
277.3030734116769
 72
     1
 10
193.9020362399215
 20
277.3030734116769
 11
194.1951878772389
 21
277.3681065761028
 72
     1
 10
194.1951878772389
 20
277.3681065761027
 11
194.6166820088626
 21
277.5505611773144
 72
     1
 10
194.6166820088626
 20
277.5505611773144
 11
200.1525803937261
 21
280.7467136000219
 72
     2
 10
202.1525803937261
 20
277.2826119848836
 40
4.0
 50
240.0000000000032
 51
270.0
 73
     0
 72
     1
 10
202.1525803937261
 20
281.2826119848836
 11
205.9742936659603
 21
281.2826119848836
 72
     2
 10
205.9742936659605
 20
276.2826119848837
 40
5.000000000000311
 50
269.9999999999977
 51
360.0
 73
     0
 72
     1
 10
210.9742936659608
 20
276.2826119848837
 11
210.9742936659602
 21
266.2826119848836
 72
     1
 10
210.9742936659602
 20
266.2826119848836
 11
208.9742936659605
 21
266.2826119848836
 97
        0
 75
     0
 76
     0
 52
45.0
 41
2.0
 77
     0
 78
     1
 53
45.0
 43
457.168990107027
 44
408.6815205990776
 45
-1.414213562373094
 46
1.414213562373094
 79
     0
 98
        1
 10
457.168990107027
 20
408.6815205990776
1001
ACME_LAYERS
1000
1
  0
HATCH
  5
864
330
1F
100
AcDbEntity
  8
P-0000
  6
Continuous
 62
     3
100
AcDbHatch
 10
0.0
 20
0.0
 30
0.0
210
0.0
220
0.0
230
1.0
  2
_U
 70
     0
 71
     0
 91
        1
 92
        1
 93
        9
 72
     1
 10
121.4307836240009
 20
275.2826119848837
 11
120.4307836240009
 21
277.0146627924538
 72
     1
 10
120.4307836240009
 20
277.0146627924538
 11
124.7962418639094
 21
279.5350612823991
 72
     2
 10
126.7962418639094
 20
276.0709596672628
 40
4.0
 50
239.9999999999895
 51
270.0
 73
     0
 72
     2
 10
126.7962418639094
 20
276.0709596672628
 40
4.000000000000655
 50
270.0
 51
315.0000000000014
 73
     0
 72
     1
 10
129.6246689886562
 20
278.8993867920094
 11
130.3272302334085
 21
278.1968255472571
 72
     1
 10
130.3272302334085
 20
278.1968255472571
 11
128.9130166710352
 21
276.7826119848836
 72
     1
 10
128.9130166710352
 20
276.7826119848836
 11
128.2104554262828
 21
277.4851732296359
 72
     2
 10
126.7962418639094
 20
276.0709596672628
 40
2.000000000000237
 50
44.99999999999712
 51
120.0000000000099
 73
     1
 72
     1
 10
125.7962418639094
 20
277.803010474831
 11
121.4307836240009
 21
275.2826119848837
 97
        0
 75
     0
 76
     0
 52
45.0
 41
2.0
 77
     0
 78
     1
 53
45.0
 43
457.168990107027
 44
408.6815205990776
 45
-1.414213562373094
 46
1.414213562373094
 79
     0
 98
        1
 10
457.168990107027
 20
408.6815205990776
1001
ACME_LAYERS
1000
1
  0
HATCH
  5
865
330
1F
100
AcDbEntity
  8
P-0000
  6
Continuous
 62
     3
100
AcDbHatch
 10
0.0
 20
0.0
 30
0.0
210
0.0
220
0.0
230
1.0
  2
_U
 70
     0
 71
     0
 91
        1
 92
        1
 93
        9
 72
     1
 10
452.5178037079313
 20
277.0146627924538
 11
451.5178037079313
 21
275.2826119848837
 72
     1
 10
451.5178037079313
 20
275.2826119848837
 11
447.1523454680228
 21
277.803010474831
 72
     2
 10
446.1523454680228
 20
276.0709596672628
 40
1.999999999999401
 50
59.99999999999008
 51
135.0000000000022
 73
     1
 72
     1
 10
444.7381319056495
 20
277.4851732296359
 11
444.0355706608968
 21
276.7826119848836
 72
     1
 10
444.0355706608968
 20
276.7826119848836
 11
442.6213570985238
 21
278.1968255472571
 72
     1
 10
442.6213570985238
 20
278.1968255472571
 11
443.323918343276
 21
278.8993867920094
 72
     2
 10
446.1523454680228
 20
276.0709596672628
 40
4.0
 50
224.9999999999987
 51
270.0
 73
     0
 72
     2
 10
446.1523454680228
 20
276.0709596672628
 40
3.999999999998728
 50
270.0
 51
300.0000000000107
 73
     0
 72
     1
 10
448.1523454680226
 20
279.5350612823991
 11
452.5178037079313
 21
277.0146627924538
 97
        0
 75
     0
 76
     0
 52
45.0
 41
2.0
 77
     0
 78
     1
 53
45.0
 43
457.168990107027
 44
408.6815205990776
 45
-1.414213562373094
 46
1.414213562373094
 79
     0
 98
        1
 10
457.168990107027
 20
408.6815205990776
1001
ACME_LAYERS
1000
1
  0
HATCH
  5
866
330
1F
100
AcDbEntity
  8
P-0000
  6
Continuous
 62
     3
100
AcDbHatch
 10
0.0
 20
0.0
 30
0.0
210
0.0
220
0.0
230
1.0
  2
_U
 70
     0
 71
     0
 91
        1
 92
        1
 93
        7
 72
     1
 10
214.6472027506737
 20
281.2826119848836
 11
216.4742936659626
 21
280.4691386987311
 72
     1
 10
216.4742936659626
 20
280.4691386987311
 11
212.974293665959
 21
272.6080099900705
 72
     1
 10
212.974293665959
 20
272.6080099900705
 11
212.974293665959
 21
237.9172972030457
 72
     1
 10
212.974293665959
 20
237.9172972030457
 11
212.1280202753271
 21
237.9837170342688
 72
     1
 10
212.1280202753271
 20
237.9837170342688
 11
210.974293665959
 21
238.0808827237113
 72
     1
 10
210.974293665959
 20
238.0808827237113
 11
210.9742936659608
 21
273.0331231134081
 72
     1
 10
210.9742936659608
 20
273.0331231134081
 11
214.6472027506737
 21
281.2826119848836
 97
        0
 75
     0
 76
     0
 52
135.0
 41
2.0
 77
     0
 78
     1
 53
135.0
 43
457.168990107027
 44
408.6815205990776
 45
-1.414213562373094
 46
-1.414213562373094
 79
     0
 98
        1
 10
457.168990107027
 20
408.6815205990776
1001
ACME_LAYERS
1000
1
  0
HATCH
  5
867
330
1F
100
AcDbEntity
  8
P-0000
  6
Continuous
 62
     3
100
AcDbHatch
 10
0.0
 20
0.0
 30
0.0
210
0.0
220
0.0
230
1.0
  2
_U
 70
     0
 71
     0
 91
        1
 92
        1
 93
        6
 72
     1
 10
361.9742936659732
 20
238.8974139796182
 11
359.9742936659733
 21
238.9172972030457
 72
     1
 10
359.9742936659733
 20
238.9172972030457
 11
359.9742936659733
 21
272.6080099900705
 72
     1
 10
359.9742936659733
 20
272.6080099900705
 11
356.4742936659696
 21
280.4691386987311
 72
     1
 10
356.4742936659697
 20
280.4691386987311
 11
358.3013845812586
 21
281.2826119848836
 72
     1
 10
358.3013845812586
 20
281.2826119848836
 11
361.9742936659715
 21
273.0331231134081
 72
     1
 10
361.9742936659715
 20
273.0331231134081
 11
361.9742936659732
 21
238.8974139796182
 97
        0
 75
     0
 76
     0
 52
135.0
 41
2.0
 77
     0
 78
     1
 53
135.0
 43
457.168990107027
 44
408.6815205990776
 45
-1.414213562373094
 46
-1.414213562373094
 79
     0
 98
        1
 10
457.168990107027
 20
408.6815205990776
1001
ACME_LAYERS
1000
1
  0
HATCH
  5
869
330
1F
100
AcDbEntity
  8
P-0000
  6
Continuous
 62
     3
100
AcDbHatch
 10
0.0
 20
0.0
 30
0.0
210
0.0
220
0.0
230
1.0
  2
_U
 70
     0
 71
     0
 91
        1
 92
        1
 93
        6
 72
     1
 10
212.974293665959
 20
227.7668697680046
 11
212.974293665959
 21
219.301172173029
 72
     1
 10
212.974293665959
 20
219.301172173029
 11
212.9742936659583
 21
217.7791545899177
 72
     1
 10
212.9742936659583
 20
217.7791545899177
 11
212.974293665959
 21
168.0746929668054
 72
     1
 10
212.9742936659578
 20
168.0746929668054
 11
210.9742936659591
 21
168.4284400606063
 72
     1
 10
210.974293665959
 20
168.4284400606062
 11
210.974293665959
 21
227.5798374525201
 72
     1
 10
210.974293665959
 20
227.5798374525201
 11
212.974293665959
 21
227.7668697680046
 97
        0
 75
     0
 76
     0
 52
45.0
 41
2.0
 77
     0
 78
     1
 53
45.0
 43
457.168990107027
 44
421.3342287776881
 45
-1.414213562373094
 46
1.414213562373094
 79
     0
 98
        1
 10
457.168990107027
 20
421.3342287776881
1001
ACME_LAYERS
1000
1
  0
LINE
  5
86B
330
1F
100
AcDbEntity
  8
P-0000
  6
Continuous
 62
     7
100
AcDbLine
 10
225.9742936659583
 20
213.2791545899177
 30
0.0
 11
225.9742936659583
 21
195.2791545899177
 31
0.0
1001
ACME_LAYERS
1000
1
  0
LINE
  5
86C
330
1F
100
AcDbEntity
  8
P-0000
  6
Continuous
 62
     7
100
AcDbLine
 10
227.9742936659583
 20
213.2791545899177
 30
0.0
 11
227.9742936659583
 21
195.2791545899177
 31
0.0
1001
ACME_LAYERS
1000
1
  0
LINE
  5
86D
330
1F
100
AcDbEntity
  8
P-0000
  6
Continuous
 62
     7
100
AcDbLine
 10
210.974293665959
 20
227.5798374525201
 30
0.0
 11
210.974293665959
 21
168.4284400606062
 31
0.0
1001
ACME_LAYERS
1000
1
  0
LINE
  5
86E
330
1F
100
AcDbEntity
  8
P-0000
  6
Continuous
 62
     7
100
AcDbLine
 10
212.9742936659583
 20
217.7791545899177
 30
0.0
 11
212.974293665959
 21
168.0746929668054
 31
0.0
1001
ACME_LAYERS
1000
1
  0
SPLINE
  5
86F
330
1F
100
AcDbEntity
  8
P-0000
  6
Continuous
 62
     3
100
AcDbSpline
210
0.0
220
0.0
230
1.0
 70
     8
 71
     3
 72
     8
 73
     4
 74
     0
 42
0.0000000001
 43
0.0000000001
 40
91.70129750225886
 40
91.70129750225886
 40
91.70129750225886
 40
91.70129750225886
 40
93.54775306490266
 40
93.54775306490266
 40
93.54775306490266
 40
93.54775306490266
 10
212.9742936659578
 20
168.0746929668054
 30
0.0
 10
212.3223572132584
 20
168.1463277635579
 30
0.0
 10
211.6559877323491
 20
168.2629906349822
 30
0.0
 10
210.974293665959
 20
168.4284400606062
 30
0.0
  0
ARC
  5
870
330
1F
100
AcDbEntity
  8
P-0000
  6
Continuous
 62
     7
100
AcDbCircle
 10
223.4742936659583
 20
195.2791545899177
 30
0.0
 40
2.5
100
AcDbArc
 50
270.0
 51
0.0
1001
ACME_LAYERS
1000
1
  0
ARC
  5
871
330
1F
100
AcDbEntity
  8
P-0000
  6
Continuous
 62
     7
100
AcDbCircle
 10
223.4742936659583
 20
195.2791545899177
 30
0.0
 40
4.5
100
AcDbArc
 50
270.0
 51
0.0
1001
ACME_LAYERS
1000
1
  0
LINE
  5
872
330
1F
100
AcDbEntity
  8
P-0000
  6
Continuous
 62
     7
100
AcDbLine
 10
212.9742936659583
 20
192.7791545899177
 30
0.0
 11
223.4742936659583
 21
192.7791545899177
 31
0.0
1001
ACME_LAYERS
1000
1
  0
LINE
  5
873
330
1F
100
AcDbEntity
  8
P-0000
  6
Continuous
 62
     7
100
AcDbLine
 10
212.9742936659583
 20
190.7791545899176
 30
0.0
 11
223.4742936659583
 21
190.7791545899176
 31
0.0
1001
ACME_LAYERS
1000
1
  0
LINE
  5
874
330
1F
100
AcDbEntity
  8
P-0000
  6
Continuous
 62
     7
100
AcDbLine
 10
212.9742936659583
 20
192.7791545899177
 30
0.0
 11
212.9742936659583
 21
190.7791545899176
 31
0.0
1001
ACME_LAYERS
1000
1
  0
LINE
  5
875
330
1F
100
AcDbEntity
  8
P-0000
  6
Continuous
 62
     7
100
AcDbLine
 10
212.974293665959
 20
227.7668697680046
 30
0.0
 11
212.9742936659583
 21
217.7791545899177
 31
0.0
1001
ACME_LAYERS
1000
1
  0
ARC
  5
876
330
1F
100
AcDbEntity
  8
P-0000
  6
Continuous
 62
     7
100
AcDbCircle
 10
223.4742936659583
 20
213.2791545899177
 30
0.0
 40
2.5
100
AcDbArc
 50
0.0
 51
90.0
1001
ACME_LAYERS
1000
1
  0
ARC
  5
877
330
1F
100
AcDbEntity
  8
P-0000
  6
Continuous
 62
     7
100
AcDbCircle
 10
223.4742936659583
 20
213.2791545899177
 30
0.0
 40
4.5
100
AcDbArc
 50
0.0
 51
90.0
1001
ACME_LAYERS
1000
1
  0
LINE
  5
878
330
1F
100
AcDbEntity
  8
P-0000
  6
Continuous
 62
     7
100
AcDbLine
 10
212.9742936659583
 20
215.7791545899177
 30
0.0
 11
223.4742936659583
 21
215.7791545899177
 31
0.0
1001
ACME_LAYERS
1000
1
  0
LINE
  5
879
330
1F
100
AcDbEntity
  8
P-0000
  6
Continuous
 62
     7
100
AcDbLine
 10
214.4963112490703
 20
217.7791545899177
 30
0.0
 11
223.4742936659583
 21
217.7791545899177
 31
0.0
1001
ACME_LAYERS
1000
1
  0
LINE
  5
87A
330
1F
100
AcDbEntity
  8
P-0000
  6
Continuous
 62
     7
100
AcDbLine
 10
212.9742936659583
 20
217.7791545899177
 30
0.0
 11
212.9742936659583
 21
215.7791545899177
 31
0.0
1001
ACME_LAYERS
1000
1
  0
LINE
  5
87C
330
1F
100
AcDbEntity
  8
P-0000
  6
Continuous
 62
     7
100
AcDbLine
 10
212.9742936659583
 20
217.7791545899177
 30
0.0
 11
214.4963112490703
 21
217.7791545899177
 31
0.0
1001
ACME_LAYERS
1000
1
  0
SPLINE
  5
87F
330
1F
100
AcDbEntity
  8
P-0000
  6
Continuous
 62
     3
100
AcDbSpline
210
0.0
220
0.0
230
1.0
 70
     8
 71
     3
 72
     8
 73
     4
 74
     0
 42
0.0000000001
 43
0.0000000001
 40
0.0
 40
0.0
 40
0.0
 40
0.0
 40
1.99910978361636
 40
1.99910978361636
 40
1.99910978361636
 40
1.99910978361636
 10
210.974293665959
 20
227.5798374525201
 30
0.0
 10
211.6384965209283
 20
227.6695423331537
 30
0.0
 10
212.305740198402
 20
227.7316597330361
 30
0.0
 10
212.974293665959
 20
227.7668697680046
 30
0.0
  0
LINE
  5
887
330
1F
100
AcDbEntity
  8
P-0000
  6
Continuous
 62
     7
100
AcDbLine
 10
174.2242936659589
 20
281.2826119848836
 30
0.0
 11
174.2242936659589
 21
277.2826119848836
 31
0.0
1001
ACME_LAYERS
1000
1
  0
LINE
  5
B89
330
1F
100
AcDbEntity
  8
P-0000
  6
STRICHPUNKT
 62
     3
100
AcDbLine
 10
286.4742936659689
 20
289.2349372007806
 30
0.0
 11
286.474293665968
 21
273.0857093781287
 31
0.0
1001
ACME_LAYERS
1000
1
  0
LINE
  5
B8A
330
1F
100
AcDbEntity
  8
P-0000
  6
Continuous
 62
     7
100
AcDbLine
 10
286.4645334342288
 20
299.170311372942
 30
0.0
 11
286.464533434232
 21
299.170311372942
 31
0.0
1001
ACME_LAYERS
1000
1
  0
LINE
  5
B8B
330
1F
100
AcDbEntity
  8
P-0000
  6
Continuous
 62
     7
100
AcDbLine
 10
286.4840538976858
 20
299.170311372942
 30
0.0
 11
286.4840538976908
 21
299.1703113729429
 31
0.0
1001
ACME_LAYERS
1000
1
  0
LINE
  5
B8C
330
1F
100
AcDbEntity
  8
P-0000
  6
Continuous
 62
     7
100
AcDbLine
 10
286.4840538976858
 20
299.170311372942
 30
0.0
 11
286.4840538976908
 21
299.1703113729429
 31
0.0
1001
ACME_LAYERS
1000
1
  0
LINE
  5
B8D
330
1F
100
AcDbEntity
  8
P-0000
  6
Continuous
 62
     7
100
AcDbLine
 10
286.4645334342288
 20
299.170311372942
 30
0.0
 11
286.464533434232
 21
299.170311372942
 31
0.0
1001
ACME_LAYERS
1000
1
  0
LINE
  5
B8E
330
1F
100
AcDbEntity
  8
P-0000
  6
Continuous
 62
     7
100
AcDbLine
 10
286.4840538976858
 20
299.170311372942
 30
0.0
 11
286.4840538976908
 21
299.1703113729429
 31
0.0
1001
ACME_LAYERS
1000
1
  0
LINE
  5
B8F
330
1F
100
AcDbEntity
  8
P-0000
  6
Continuous
 62
     7
100
AcDbLine
 10
286.4645334342288
 20
299.170311372942
 30
0.0
 11
286.464533434232
 21
299.170311372942
 31
0.0
1001
ACME_LAYERS
1000
1
  0
LINE
  5
B90
330
1F
100
AcDbEntity
  8
P-0000
  6
Continuous
 62
     7
100
AcDbLine
 10
286.4645334342288
 20
299.170311372942
 30
0.0
 11
286.464533434232
 21
299.170311372942
 31
0.0
1001
ACME_LAYERS
1000
1
  0
LINE
  5
B91
330
1F
100
AcDbEntity
  8
P-0000
  6
Continuous
 62
     7
100
AcDbLine
 10
286.4840538976858
 20
299.170311372942
 30
0.0
 11
286.4840538976908
 21
299.1703113729429
 31
0.0
1001
ACME_LAYERS
1000
1
  0
LINE
  5
B92
330
1F
100
AcDbEntity
  8
P-0000
  6
Continuous
 62
     7
100
AcDbLine
 10
286.4840538976858
 20
299.170311372942
 30
0.0
 11
286.4840538976908
 21
299.1703113729429
 31
0.0
1001
ACME_LAYERS
1000
1
  0
LINE
  5
B93
330
1F
100
AcDbEntity
  8
P-0000
  6
Continuous
 62
     7
100
AcDbLine
 10
286.4645334342288
 20
299.170311372942
 30
0.0
 11
286.464533434232
 21
299.170311372942
 31
0.0
1001
ACME_LAYERS
1000
1
  0
LINE
  5
B94
330
1F
100
AcDbEntity
  8
P-0000
  6
Continuous
 62
     7
100
AcDbLine
 10
286.4840538976999
 20
299.170311372942
 30
0.0
 11
286.4840538977031
 21
299.170311372942
 31
0.0
1001
ACME_LAYERS
1000
1
  0
LINE
  5
B95
330
1F
100
AcDbEntity
  8
P-0000
  6
Continuous
 62
     7
100
AcDbLine
 10
286.4645334342418
 20
299.1703113729429
 30
0.0
 11
286.464533434247
 21
299.170311372942
 31
0.0
1001
ACME_LAYERS
1000
1
  0
LINE
  5
B96
330
1F
100
AcDbEntity
  8
P-0000
  6
Continuous
 62
     7
100
AcDbLine
 10
286.4645334342418
 20
299.1703113729429
 30
0.0
 11
286.464533434247
 21
299.170311372942
 31
0.0
1001
ACME_LAYERS
1000
1
  0
LINE
  5
B97
330
1F
100
AcDbEntity
  8
P-0000
  6
Continuous
 62
     7
100
AcDbLine
 10
286.4840538976999
 20
299.170311372942
 30
0.0
 11
286.4840538977031
 21
299.170311372942
 31
0.0
1001
ACME_LAYERS
1000
1
  0
LINE
  5
B98
330
1F
100
AcDbEntity
  8
P-0000
  6
Continuous
 62
     7
100
AcDbLine
 10
286.4645334342418
 20
299.1703113729429
 30
0.0
 11
286.464533434247
 21
299.170311372942
 31
0.0
1001
ACME_LAYERS
1000
1
  0
LINE
  5
B99
330
1F
100
AcDbEntity
  8
P-0000
  6
Continuous
 62
     7
100
AcDbLine
 10
286.4840538976999
 20
299.170311372942
 30
0.0
 11
286.4840538977031
 21
299.170311372942
 31
0.0
1001
ACME_LAYERS
1000
1
  0
LINE
  5
B9A
330
1F
100
AcDbEntity
  8
P-0000
  6
Continuous
 62
     7
100
AcDbLine
 10
286.4840538976999
 20
299.170311372942
 30
0.0
 11
286.4840538977031
 21
299.170311372942
 31
0.0
1001
ACME_LAYERS
1000
1
  0
LINE
  5
B9B
330
1F
100
AcDbEntity
  8
P-0000
  6
Continuous
 62
     7
100
AcDbLine
 10
286.4645334342418
 20
299.1703113729429
 30
0.0
 11
286.464533434247
 21
299.170311372942
 31
0.0
1001
ACME_LAYERS
1000
1
  0
LINE
  5
B9C
330
1F
100
AcDbEntity
  8
P-0000
  6
Continuous
 62
     7
100
AcDbLine
 10
286.4645334342418
 20
299.1703113729429
 30
0.0
 11
286.464533434247
 21
299.170311372942
 31
0.0
1001
ACME_LAYERS
1000
1
  0
LINE
  5
B9D
330
1F
100
AcDbEntity
  8
P-0000
  6
Continuous
 62
     7
100
AcDbLine
 10
286.4840538976999
 20
299.170311372942
 30
0.0
 11
286.4840538977031
 21
299.170311372942
 31
0.0
1001
ACME_LAYERS
1000
1
  0
LINE
  5
BA7
330
1F
100
AcDbEntity
  8
0
100
AcDbLine
 10
536.4742936659746
 20
286.3137593417907
 30
0.0
 11
536.4742936659715
 21
281.3137593417907
 31
0.0
  0
LINE
  5
BA9
330
1F
100
AcDbEntity
  8
P-0000
  6
Continuous
 62
     7
100
AcDbLine
 10
166.1590286030221
 20
290.5196792467397
 30
0.0
 11
166.1590286030221
 21
286.5196792467406
 31
0.0
1001
ACME_LAYERS
1000
1
  0
LINE
  5
BAA
330
1F
100
AcDbEntity
  8
P-0000
  6
Continuous
 62
     7
100
AcDbLine
 10
174.1590286030212
 20
290.5196792467397
 30
0.0
 11
174.1590286030212
 21
286.5196792467406
 31
0.0
1001
ACME_LAYERS
1000
1
  0
LINE
  5
BAB
330
1F
100
AcDbEntity
  8
P-0000
  6
Continuous
 62
     7
100
AcDbLine
 10
158.5439921718578
 20
290.5196792467397
 30
0.0
 11
160.9815948850835
 21
290.5196792467397
 31
0.0
1001
ACME_LAYERS
1000
1
  0
LINE
  5
BAC
330
1F
100
AcDbEntity
  8
P-0000
  6
Continuous
 62
     7
100
AcDbLine
 10
158.5439921718578
 20
290.5196792467397
 30
0.0
 11
160.9815948850835
 21
290.5196792467397
 31
0.0
1001
ACME_LAYERS
1000
1
  0
LINE
  5
BAD
330
1F
100
AcDbEntity
  8
P-0000
  6
Continuous
 62
     7
100
AcDbLine
 10
160.9815948850835
 20
290.5196792467397
 30
0.0
 11
162.3919234139446
 21
290.5196792467397
 31
0.0
1001
ACME_LAYERS
1000
1
  0
LINE
  5
BAE
330
1F
100
AcDbEntity
  8
P-0000
  6
Continuous
 62
     7
100
AcDbLine
 10
160.9815948850835
 20
290.5196792467397
 30
0.0
 11
162.3919234139446
 21
290.5196792467397
 31
0.0
1001
ACME_LAYERS
1000
1
  0
LINE
  5
BAF
330
1F
100
AcDbEntity
  8
P-0000
  6
Continuous
 62
     7
100
AcDbLine
 10
322.974293665973
 20
290.2876284391727
 30
0.0
 11
195.7301136385838
 21
290.2876284391719
 31
0.0
1001
ACME_LAYERS
1000
1
  0
LINE
  5
BB0
330
1F
100
AcDbEntity
  8
P-0000
  6
Continuous
 62
     7
100
AcDbLine
 10
162.3919234139446
 20
290.5196792467397
 30
0.0
 11
165.2155650471139
 21
290.5196792467397
 31
0.0
1001
ACME_LAYERS
1000
1
  0
LINE
  5
BB2
330
1F
100
AcDbEntity
  8
P-0000
  6
Continuous
 62
     3
100
AcDbLine
 10
147.2777428736046
 20
288.5196792467397
 30
0.0
 11
147.813641258466
 21
288.5196792467397
 31
0.0
1001
ACME_LAYERS
1000
1
  0
LINE
  5
BB3
330
1F
100
AcDbEntity
  8
P-0000
  6
Continuous
 62
     3
100
AcDbLine
 10
146.813641258466
 20
288.7876284391727
 30
0.0
 11
147.2777428736046
 21
288.5196792467397
 31
0.0
1001
ACME_LAYERS
1000
1
  0
LINE
  5
BB4
330
1F
100
AcDbEntity
  8
P-0000
  6
Continuous
 62
     7
100
AcDbLine
 10
184.715565047113
 20
289.3481063714868
 30
0.0
 11
184.9582057342339
 21
289.1054656843669
 31
0.0
1001
ACME_LAYERS
1000
1
  0
LINE
  5
BB5
330
1F
100
AcDbEntity
  8
P-0000
  6
Continuous
 62
     7
100
AcDbLine
 10
155.715565047113
 20
289.3481063714868
 30
0.0
 11
155.4729243599948
 21
289.1054656843669
 31
0.0
1001
ACME_LAYERS
1000
1
  0
LINE
  5
BB6
330
1F
100
AcDbEntity
  8
P-0000
  6
Continuous
 62
     7
100
AcDbLine
 10
165.2155650471139
 20
290.5196792467397
 30
0.0
 11
165.2155650471139
 21
288.5196792467397
 31
0.0
1001
ACME_LAYERS
1000
1
  0
LINE
  5
BB7
330
1F
100
AcDbEntity
  8
P-0000
  6
Continuous
 62
     7
100
AcDbLine
 10
175.2155650471139
 20
290.5196792467397
 30
0.0
 11
175.2155650471139
 21
288.5196792467397
 31
0.0
1001
ACME_LAYERS
1000
1
  0
LINE
  5
BB8
330
1F
100
AcDbEntity
  8
P-0000
  6
Continuous
 62
     7
100
AcDbLine
 10
140.2155650471139
 20
290.2876284391719
 30
0.0
 11
145.8136412584661
 21
287.0555776316026
 31
0.0
1001
ACME_LAYERS
1000
1
  0
LINE
  5
BBA
330
1F
100
AcDbEntity
  8
P-0000
  6
Continuous
 62
     7
100
AcDbLine
 10
157.1297786094867
 20
287.9338928091137
 30
0.0
 11
156.8871379223658
 21
287.6912521219958
 31
0.0
1001
ACME_LAYERS
1000
1
  0
LINE
  5
BBB
330
1F
100
AcDbEntity
  8
P-0000
  6
Continuous
 62
     7
100
AcDbLine
 10
183.3013514847378
 20
287.9338928091137
 30
0.0
 11
183.5439921718596
 21
287.6912521219958
 31
0.0
1001
ACME_LAYERS
1000
1
  0
LINE
  5
BBC
330
1F
100
AcDbEntity
  8
P-0000
  6
Continuous
 62
     7
100
AcDbLine
 10
200.2155650471139
 20
290.2876284391719
 30
0.0
 11
194.6174888357598
 21
287.0555776316026
 31
0.0
1001
ACME_LAYERS
1000
1
  0
LINE
  5
BBD
330
1F
100
AcDbEntity
  8
P-0000
  6
Continuous
 62
     7
100
AcDbLine
 10
192.6174888357607
 20
286.5196792467406
 30
0.0
 11
249.9742936659689
 21
286.5196792467406
 31
0.0
1001
ACME_LAYERS
1000
1
  0
LINE
  5
BBE
330
1F
100
AcDbEntity
  8
P-0000
  6
Continuous
 62
     7
100
AcDbLine
 10
192.6174888357607
 20
288.5196792467397
 30
0.0
 11
186.3724192966049
 21
288.5196792467397
 31
0.0
1001
ACME_LAYERS
1000
1
  0
LINE
  5
BBF
330
1F
100
AcDbEntity
  8
P-0000
  6
Continuous
 62
     7
100
AcDbLine
 10
192.6174888357607
 20
286.5196792467406
 30
0.0
 11
186.3724192966049
 21
286.5196792467406
 31
0.0
1001
ACME_LAYERS
1000
1
  0
LINE
  5
BC0
330
1F
100
AcDbEntity
  8
P-0000
  6
Continuous
 62
     7
100
AcDbLine
 10
147.813641258466
 20
286.5196792467406
 30
0.0
 11
154.05871079762
 21
286.5196792467406
 31
0.0
1001
ACME_LAYERS
1000
1
  0
LINE
  5
BC1
330
1F
100
AcDbEntity
  8
P-0000
  6
Continuous
 62
     7
100
AcDbLine
 10
165.2155650471139
 20
290.5196792467397
 30
0.0
 11
166.215565047113
 21
290.5196792467397
 31
0.0
1001
ACME_LAYERS
1000
1
  0
LINE
  5
BC2
330
1F
100
AcDbEntity
  8
P-0000
  6
Continuous
 62
     7
100
AcDbLine
 10
162.3919234139446
 20
290.5196792467397
 30
0.0
 11
165.2155650471139
 21
290.5196792467397
 31
0.0
1001
ACME_LAYERS
1000
1
  0
LINE
  5
BC3
330
1F
100
AcDbEntity
  8
P-0000
  6
Continuous
 62
     7
100
AcDbLine
 10
175.2155650471139
 20
290.5196792467397
 30
0.0
 11
181.8871379223658
 21
290.5196792467397
 31
0.0
1001
ACME_LAYERS
1000
1
  0
LINE
  5
BC4
330
1F
100
AcDbEntity
  8
P-0000
  6
Continuous
 62
     7
100
AcDbLine
 10
174.1590286030212
 20
288.5196792467397
 30
0.0
 11
181.8871379223658
 21
288.5196792467397
 31
0.0
1001
ACME_LAYERS
1000
1
  0
LINE
  5
BC5
330
1F
100
AcDbEntity
  8
P-0000
  6
Continuous
 62
     7
100
AcDbLine
 10
158.5439921718587
 20
288.5196792467397
 30
0.0
 11
166.1590286030221
 21
288.5196792467397
 31
0.0
1001
ACME_LAYERS
1000
1
  0
LINE
  5
BC6
330
1F
100
AcDbEntity
  8
P-0000
  6
Continuous
 62
     7
100
AcDbLine
 10
174.215565047113
 20
290.5196792467397
 30
0.0
 11
175.2155650471139
 21
290.5196792467397
 31
0.0
1001
ACME_LAYERS
1000
1
  0
LINE
  5
BC7
330
1F
100
AcDbEntity
  8
P-0000
  6
Continuous
 62
     7
100
AcDbLine
 10
147.813641258466
 20
288.5196792467397
 30
0.0
 11
154.05871079762
 21
288.5196792467397
 31
0.0
1001
ACME_LAYERS
1000
1
  0
LINE
  5
BC8
330
1F
100
AcDbEntity
  8
P-0000
  6
Continuous
 62
     7
100
AcDbLine
 10
180.215565047113
 20
290.5196792467397
 30
0.0
 11
175.2155650471139
 21
290.5196792467397
 31
0.0
1001
ACME_LAYERS
1000
1
  0
LINE
  5
BC9
330
1F
100
AcDbEntity
  8
P-0000
  6
Continuous
 62
     7
100
AcDbLine
 10
175.2155650471139
 20
290.5196792467397
 30
0.0
 11
174.215565047113
 21
290.5196792467397
 31
0.0
1001
ACME_LAYERS
1000
1
  0
LINE
  5
BCA
330
1F
100
AcDbEntity
  8
P-0000
  6
Continuous
 62
     7
100
AcDbLine
 10
161.7698669336917
 20
290.5196792467397
 30
0.0
 11
166.215565047113
 21
290.5196792467397
 31
0.0
1001
ACME_LAYERS
1000
1
  0
LINE
  5
BCB
330
1F
100
AcDbEntity
  8
P-0000
  6
Continuous
 62
     7
100
AcDbLine
 10
174.215565047113
 20
290.5196792467397
 30
0.0
 11
175.2155650471139
 21
290.5196792467397
 31
0.0
1001
ACME_LAYERS
1000
1
  0
LINE
  5
BCC
330
1F
100
AcDbEntity
  8
P-0000
  6
Continuous
 62
     7
100
AcDbLine
 10
164.7155650471139
 20
290.5196792467428
 30
0.0
 11
159.7155650471148
 21
290.5196792467428
 31
0.0
1001
ACME_LAYERS
1000
1
  0
LINE
  5
BCD
330
1F
100
AcDbEntity
  8
P-0000
  6
Continuous
 62
     7
100
AcDbLine
 10
175.2155650471139
 20
290.5196792467397
 30
0.0
 11
178.7698669336917
 21
290.5196792467397
 31
0.0
1001
ACME_LAYERS
1000
1
  0
LINE
  5
BCE
330
1F
100
AcDbEntity
  8
P-0000
  6
Continuous
 62
     7
100
AcDbLine
 10
175.2155650471139
 20
290.5196792467397
 30
0.0
 11
174.7155650471139
 21
290.5196792467428
 31
0.0
1001
ACME_LAYERS
1000
1
  0
LINE
  5
BCF
330
1F
100
AcDbEntity
  8
P-0000
  6
Continuous
 62
     7
100
AcDbLine
 10
166.215565047113
 20
290.5196792467397
 30
0.0
 11
165.2155650471139
 21
290.5196792467397
 31
0.0
1001
ACME_LAYERS
1000
1
  0
LINE
  5
BD0
330
1F
100
AcDbEntity
  8
P-0000
  6
Continuous
 62
     7
100
AcDbLine
 10
181.8871379223658
 20
290.5196792467397
 30
0.0
 11
175.2155650471139
 21
290.5196792467397
 31
0.0
1001
ACME_LAYERS
1000
1
  0
ARC
  5
BD1
330
1F
100
AcDbEntity
  8
P-0000
  6
Continuous
 62
     7
100
AcDbCircle
 10
154.05871079762
 20
290.5196792467397
 30
0.0
 40
4.0
100
AcDbArc
 50
270.0
 51
315.0000000000092
1001
ACME_LAYERS
1000
1
  0
ARC
  5
BD2
330
1F
100
AcDbEntity
  8
P-0000
  6
Continuous
 62
     7
100
AcDbCircle
 10
181.8871379223658
 20
286.5196792467406
 30
0.0
 40
4.000000000000613
100
AcDbArc
 50
45.00000000002764
 51
90.0
1001
ACME_LAYERS
1000
1
  0
ARC
  5
BD3
330
1F
100
AcDbEntity
  8
P-0000
  6
Continuous
 62
     7
100
AcDbCircle
 10
186.3724192966049
 20
290.5196792467397
 30
0.0
 40
3.999999999999423
100
AcDbArc
 50
224.9999999999908
 51
270.0
1001
ACME_LAYERS
1000
1
  0
ARC
  5
BD4
330
1F
100
AcDbEntity
  8
P-0000
  6
Continuous
 62
     7
100
AcDbCircle
 10
192.6174888357607
 20
290.5196792467397
 30
0.0
 40
4.0
100
AcDbArc
 50
270.0
 51
299.9999999999961
1001
ACME_LAYERS
1000
1
  0
ARC
  5
BD5
330
1F
100
AcDbEntity
  8
P-0000
  6
Continuous
 62
     7
100
AcDbCircle
 10
192.6174888357607
 20
290.5196792467397
 30
0.0
 40
2.0
100
AcDbArc
 50
270.0
 51
300.0000000000341
1001
ACME_LAYERS
1000
1
  0
ARC
  5
BD6
330
1F
100
AcDbEntity
  8
P-0000
  6
Continuous
 62
     7
100
AcDbCircle
 10
186.3724192966049
 20
290.5196792467397
 30
0.0
 40
2.000000000000397
100
AcDbArc
 50
225.0000000000276
 51
270.0
1001
ACME_LAYERS
1000
1
  0
ARC
  5
BD7
330
1F
100
AcDbEntity
  8
P-0000
  6
Continuous
 62
     7
100
AcDbCircle
 10
181.8871379223658
 20
286.5196792467406
 30
0.0
 40
2.000000000000311
100
AcDbArc
 50
45.00000000002764
 51
90.0
1001
ACME_LAYERS
1000
1
  0
ARC
  5
BD8
330
1F
100
AcDbEntity
  8
P-0000
  6
Continuous
 62
     7
100
AcDbCircle
 10
158.5439921718587
 20
286.5196792467406
 30
0.0
 40
2.0
100
AcDbArc
 50
90.0
 51
134.9999999999724
1001
ACME_LAYERS
1000
1
  0
ARC
  5
BD9
330
1F
100
AcDbEntity
  8
P-0000
  6
Continuous
 62
     7
100
AcDbCircle
 10
154.05871079762
 20
290.5196792467397
 30
0.0
 40
2.0
100
AcDbArc
 50
270.0
 51
315.0000000000092
1001
ACME_LAYERS
1000
1
  0
ARC
  5
BDA
330
1F
100
AcDbEntity
  8
P-0000
  6
Continuous
 62
     7
100
AcDbCircle
 10
147.813641258466
 20
290.5196792467397
 30
0.0
 40
1.999999999999425
100
AcDbArc
 50
239.999999999966
 51
270.0
1001
ACME_LAYERS
1000
1
  0
ARC
  5
BDB
330
1F
100
AcDbEntity
  8
P-0000
  6
Continuous
 62
     7
100
AcDbCircle
 10
147.813641258466
 20
290.5196792467397
 30
0.0
 40
4.000000000000401
100
AcDbArc
 50
240.0000000000039
 51
270.0
1001
ACME_LAYERS
1000
1
  0
ARC
  5
BDC
330
1F
100
AcDbEntity
  8
P-0000
  6
Continuous
 62
     7
100
AcDbCircle
 10
158.5439921718587
 20
286.5196792467406
 30
0.0
 40
4.0
100
AcDbArc
 50
90.00000000002605
 51
134.9999999999724
1001
ACME_LAYERS
1000
1
  0
HATCH
  5
BDD
330
1F
100
AcDbEntity
  8
P-0000
  6
Continuous
 62
     3
100
AcDbHatch
 10
0.0
 20
0.0
 30
0.0
210
0.0
220
0.0
230
1.0
  2
_U
 70
     0
 71
     0
 91
        1
 92
        1
 93
       19
 72
     1
 10
199.215565047113
 20
292.0196792467397
 11
193.6174888357616
 21
288.7876284391719
 72
     1
 10
193.6174888357607
 20
288.7876284391727
 11
193.1533872206221
 21
288.5196792467406
 72
     1
 10
193.1533872206221
 20
288.5196792467397
 11
192.6174888357607
 21
288.5196792467397
 72
     1
 10
192.6174888357607
 20
288.5196792467397
 11
186.3724192966049
 21
288.5196792467397
 72
     1
 10
186.3724192966049
 20
288.5196792467397
 11
185.5439921718586
 21
288.5196792467397
 72
     1
 10
185.5439921718586
 20
288.5196792467397
 11
184.9582057342339
 21
289.1054656843669
 72
     1
 10
184.9582057342339
 20
289.1054656843669
 11
184.715565047113
 21
289.3481063714868
 72
     2
 10
181.8871379223658
 20
286.5196792467406
 40
4.000000000000613
 50
44.99999999999911
 51
89.99999999999998
 73
     1
 72
     1
 10
181.8871379223658
 20
290.5196792467397
 11
175.2155650471139
 21
290.5196792467397
 72
     1
 10
175.2155650471139
 20
290.5196792467397
 11
175.2155650471139
 21
288.5196792467406
 72
     1
 10
175.2155650471139
 20
288.5196792467397
 11
181.8871379223658
 21
288.5196792467397
 72
     1
 10
181.8871379223658
 20
288.5196792467397
 11
182.7155650471139
 21
288.5196792467397
 72
     1
 10
182.7155650471139
 20
288.5196792467397
 11
183.3013514847387
 21
287.9338928091137
 72
     1
 10
183.3013514847378
 20
287.9338928091137
 11
183.5439921718596
 21
287.6912521219958
 72
     2
 10
186.3724192966049
 20
290.5196792467397
 40
3.999999999999423
 50
224.9999999999822
 51
270.0
 73
     1
 72
     1
 10
186.3724192966049
 20
286.5196792467406
 11
192.6174888357607
 21
286.5196792467406
 72
     2
 10
192.6174888357607
 20
290.5196792467397
 40
4.0
 50
270.0
 51
299.9999999999967
 73
     1
 72
     1
 10
194.6174888357598
 20
287.0555776316026
 11
200.2155650471139
 21
290.2876284391719
 72
     1
 10
200.2155650471139
 20
290.2876284391719
 11
199.215565047113
 21
292.0196792467397
 97
        0
 75
     0
 76
     0
 52
44.99999999999999
 41
3.0
 77
     0
 78
     1
 53
45.0
 43
227.1824370322177
 44
427.1456447411157
 45
-2.121320343559641
 46
2.121320343559641
 79
     0
 98
        1
 10
227.1824370322177
 20
427.1456447411157
1001
ACME_LAYERS
1000
1
  0
LINE
  5
BDE
330
1F
100
AcDbEntity
  8
P-0000
  6
Continuous
 62
     7
100
AcDbLine
 10
192.5827074126561
 20
286.5196792467406
 30
0.0
 11
186.3376378735027
 21
286.5196792467406
 31
0.0
1001
ACME_LAYERS
1000
1
  0
LINE
  5
BDF
330
1F
100
AcDbEntity
  8
P-0000
  6
Continuous
 62
     7
100
AcDbLine
 10
147.813641258466
 20
286.5196792467406
 30
0.0
 11
154.0587107976219
 21
286.5196792467406
 31
0.0
1001
ACME_LAYERS
1000
1
  0
LINE
  5
BE0
330
1F
100
AcDbEntity
  8
P-0000
  6
Continuous
 62
     7
100
AcDbLine
 10
192.617488835763
 20
286.5196792467406
 30
0.0
 11
186.3724192966066
 21
286.5196792467406
 31
0.0
1001
ACME_LAYERS
1000
1
  0
LINE
  5
BE2
330
1F
100
AcDbEntity
  8
0
100
AcDbLine
 10
166.1590286030221
 20
290.5196792467397
 30
0.0
 11
166.1590286030221
 21
277.2826119848836
 31
0.0
  0
LINE
  5
BE3
330
1F
100
AcDbEntity
  8
0
100
AcDbLine
 10
174.1590286030248
 20
288.5196792467397
 30
0.0
 11
174.1590286030227
 21
277.2826119848836
 31
0.0
  0
LINE
  5
BE5
330
1F
100
AcDbEntity
  8
P-0000
  6
Continuous
 62
     7
100
AcDbLine
 10
406.789558728917
 20
290.5196792467397
 30
0.0
 11
406.789558728917
 21
282.27526764149
 31
0.0
1001
ACME_LAYERS
1000
1
  0
LINE
  5
BE6
330
1F
100
AcDbEntity
  8
P-0000
  6
Continuous
 62
     7
100
AcDbLine
 10
398.7895587289178
 20
290.5196792467397
 30
0.0
 11
398.7895587289178
 21
283.3137593417948
 31
0.0
1001
ACME_LAYERS
1000
1
  0
LINE
  5
BE7
330
1F
100
AcDbEntity
  8
P-0000
  6
Continuous
 62
     7
100
AcDbLine
 10
414.4045951600817
 20
290.5196792467397
 30
0.0
 11
411.9669924468551
 21
290.5196792467397
 31
0.0
1001
ACME_LAYERS
1000
1
  0
LINE
  5
BE8
330
1F
100
AcDbEntity
  8
P-0000
  6
Continuous
 62
     7
100
AcDbLine
 10
414.4045951600817
 20
290.5196792467397
 30
0.0
 11
411.9669924468551
 21
290.5196792467397
 31
0.0
1001
ACME_LAYERS
1000
1
  0
LINE
  5
BE9
330
1F
100
AcDbEntity
  8
P-0000
  6
Continuous
 62
     7
100
AcDbLine
 10
411.9669924468551
 20
290.5196792467397
 30
0.0
 11
410.5566639179959
 21
290.5196792467397
 31
0.0
1001
ACME_LAYERS
1000
1
  0
LINE
  5
BEA
330
1F
100
AcDbEntity
  8
P-0000
  6
Continuous
 62
     7
100
AcDbLine
 10
411.9669924468551
 20
290.5196792467397
 30
0.0
 11
410.5566639179959
 21
290.5196792467397
 31
0.0
1001
ACME_LAYERS
1000
1
  0
LINE
  5
BEB
330
1F
100
AcDbEntity
  8
P-0000
  6
Continuous
 62
     7
100
AcDbLine
 10
322.974293665973
 20
290.2876284391727
 30
0.0
 11
377.2533881687817
 21
290.2876284391719
 31
0.0
1001
ACME_LAYERS
1000
1
  0
LINE
  5
BEC
330
1F
100
AcDbEntity
  8
P-0000
  6
Continuous
 62
     7
100
AcDbLine
 10
410.5566639179959
 20
290.5196792467397
 30
0.0
 11
407.7330222848271
 21
290.5196792467397
 31
0.0
1001
ACME_LAYERS
1000
1
  0
LINE
  5
BEE
330
1F
100
AcDbEntity
  8
P-0000
  6
Continuous
 62
     3
100
AcDbLine
 10
425.6708444583358
 20
288.5196792467397
 30
0.0
 11
425.1349460734719
 21
288.5196792467397
 31
0.0
1001
ACME_LAYERS
1000
1
  0
LINE
  5
BEF
330
1F
100
AcDbEntity
  8
P-0000
  6
Continuous
 62
     3
100
AcDbLine
 10
426.1349460734729
 20
288.7876284391727
 30
0.0
 11
425.6708444583358
 21
288.5196792467397
 31
0.0
1001
ACME_LAYERS
1000
1
  0
LINE
  5
BF0
330
1F
100
AcDbEntity
  8
P-0000
  6
Continuous
 62
     7
100
AcDbLine
 10
388.2330222848271
 20
289.3481063714868
 30
0.0
 11
387.990381597708
 21
289.1054656843669
 31
0.0
1001
ACME_LAYERS
1000
1
  0
LINE
  5
BF1
330
1F
100
AcDbEntity
  8
P-0000
  6
Continuous
 62
     7
100
AcDbLine
 10
417.2330222848255
 20
289.3481063714868
 30
0.0
 11
417.4756629719448
 21
289.1054656843669
 31
0.0
1001
ACME_LAYERS
1000
1
  0
LINE
  5
BF2
330
1F
100
AcDbEntity
  8
P-0000
  6
Continuous
 62
     7
100
AcDbLine
 10
407.7330222848271
 20
290.5196792467397
 30
0.0
 11
407.7330222848271
 21
288.5196792467397
 31
0.0
1001
ACME_LAYERS
1000
1
  0
LINE
  5
BF3
330
1F
100
AcDbEntity
  8
P-0000
  6
Continuous
 62
     7
100
AcDbLine
 10
397.7330222848272
 20
290.5196792467397
 30
0.0
 11
397.7330222848272
 21
288.5196792467397
 31
0.0
1001
ACME_LAYERS
1000
1
  0
LINE
  5
BF4
330
1F
100
AcDbEntity
  8
P-0000
  6
Continuous
 62
     7
100
AcDbLine
 10
432.7330222848248
 20
290.2876284391719
 30
0.0
 11
427.134946073473
 21
287.0555776316026
 31
0.0
1001
ACME_LAYERS
1000
1
  0
LINE
  5
BF5
330
1F
100
AcDbEntity
  8
P-0000
  6
Continuous
 62
     7
100
AcDbLine
 10
431.7330222848256
 20
292.0196792467397
 30
0.0
 11
426.1349460734729
 21
288.7876284391727
 31
0.0
1001
ACME_LAYERS
1000
1
  0
LINE
  5
BF6
330
1F
100
AcDbEntity
  8
P-0000
  6
Continuous
 62
     7
100
AcDbLine
 10
415.8188087224536
 20
287.9338928091137
 30
0.0
 11
416.0614494095751
 21
287.6912521219958
 31
0.0
1001
ACME_LAYERS
1000
1
  0
LINE
  5
BF7
330
1F
100
AcDbEntity
  8
P-0000
  6
Continuous
 62
     7
100
AcDbLine
 10
389.6472358472009
 20
287.9338928091137
 30
0.0
 11
389.4045951600809
 21
287.6912521219958
 31
0.0
1001
ACME_LAYERS
1000
1
  0
LINE
  5
BF8
330
1F
100
AcDbEntity
  8
P-0000
  6
Continuous
 62
     7
100
AcDbLine
 10
372.733022284828
 20
290.2876284391719
 30
0.0
 11
378.3310984961798
 21
287.0555776316026
 31
0.0
1001
ACME_LAYERS
1000
1
  0
LINE
  5
BF9
330
1F
100
AcDbEntity
  8
P-0000
  6
Continuous
 62
     7
100
AcDbLine
 10
380.3310984961798
 20
286.5196792467406
 30
0.0
 11
249.9742936659689
 21
286.5196792467406
 31
0.0
1001
ACME_LAYERS
1000
1
  0
LINE
  5
BFA
330
1F
100
AcDbEntity
  8
P-0000
  6
Continuous
 62
     7
100
AcDbLine
 10
380.3310984961798
 20
288.5196792467397
 30
0.0
 11
386.5761680353338
 21
288.5196792467397
 31
0.0
1001
ACME_LAYERS
1000
1
  0
LINE
  5
BFB
330
1F
100
AcDbEntity
  8
P-0000
  6
Continuous
 62
     7
100
AcDbLine
 10
380.3310984961798
 20
286.5196792467406
 30
0.0
 11
386.5761680353338
 21
286.5196792467406
 31
0.0
1001
ACME_LAYERS
1000
1
  0
LINE
  5
BFC
330
1F
100
AcDbEntity
  8
P-0000
  6
Continuous
 62
     7
100
AcDbLine
 10
425.1349460734719
 20
286.5196792467406
 30
0.0
 11
418.8898765343209
 21
286.5196792467406
 31
0.0
1001
ACME_LAYERS
1000
1
  0
LINE
  5
BFD
330
1F
100
AcDbEntity
  8
P-0000
  6
Continuous
 62
     7
100
AcDbLine
 10
407.7330222848271
 20
290.5196792467397
 30
0.0
 11
406.7330222848267
 21
290.5196792467397
 31
0.0
1001
ACME_LAYERS
1000
1
  0
LINE
  5
BFE
330
1F
100
AcDbEntity
  8
P-0000
  6
Continuous
 62
     7
100
AcDbLine
 10
410.5566639179959
 20
290.5196792467397
 30
0.0
 11
407.7330222848271
 21
290.5196792467397
 31
0.0
1001
ACME_LAYERS
1000
1
  0
LINE
  5
BFF
330
1F
100
AcDbEntity
  8
P-0000
  6
Continuous
 62
     7
100
AcDbLine
 10
397.7330222848272
 20
290.5196792467397
 30
0.0
 11
391.0614494095728
 21
290.5196792467397
 31
0.0
1001
ACME_LAYERS
1000
1
  0
LINE
  5
C00
330
1F
100
AcDbEntity
  8
P-0000
  6
Continuous
 62
     7
100
AcDbLine
 10
398.7330222848271
 20
288.5196792467397
 30
0.0
 11
391.0614494095728
 21
288.5196792467397
 31
0.0
1001
ACME_LAYERS
1000
1
  0
LINE
  5
C01
330
1F
100
AcDbEntity
  8
P-0000
  6
Continuous
 62
     7
100
AcDbLine
 10
414.4045951600809
 20
288.5196792467397
 30
0.0
 11
406.789558728917
 21
288.5196792467397
 31
0.0
1001
ACME_LAYERS
1000
1
  0
LINE
  5
C02
330
1F
100
AcDbEntity
  8
P-0000
  6
Continuous
 62
     7
100
AcDbLine
 10
398.7330222848271
 20
290.5196792467397
 30
0.0
 11
397.7330222848272
 21
290.5196792467397
 31
0.0
1001
ACME_LAYERS
1000
1
  0
LINE
  5
C03
330
1F
100
AcDbEntity
  8
P-0000
  6
Continuous
 62
     7
100
AcDbLine
 10
425.1349460734719
 20
288.5196792467397
 30
0.0
 11
418.8898765343209
 21
288.5196792467397
 31
0.0
1001
ACME_LAYERS
1000
1
  0
LINE
  5
C04
330
1F
100
AcDbEntity
  8
P-0000
  6
Continuous
 62
     7
100
AcDbLine
 10
392.7330222848281
 20
290.5196792467397
 30
0.0
 11
397.7330222848272
 21
290.5196792467397
 31
0.0
1001
ACME_LAYERS
1000
1
  0
LINE
  5
C05
330
1F
100
AcDbEntity
  8
P-0000
  6
Continuous
 62
     7
100
AcDbLine
 10
397.7330222848272
 20
290.5196792467397
 30
0.0
 11
398.7330222848271
 21
290.5196792467397
 31
0.0
1001
ACME_LAYERS
1000
1
  0
LINE
  5
C06
330
1F
100
AcDbEntity
  8
P-0000
  6
Continuous
 62
     7
100
AcDbLine
 10
411.1787203982478
 20
290.5196792467397
 30
0.0
 11
406.7330222848267
 21
290.5196792467397
 31
0.0
1001
ACME_LAYERS
1000
1
  0
LINE
  5
C07
330
1F
100
AcDbEntity
  8
P-0000
  6
Continuous
 62
     7
100
AcDbLine
 10
398.7330222848271
 20
290.5196792467397
 30
0.0
 11
397.7330222848272
 21
290.5196792467397
 31
0.0
1001
ACME_LAYERS
1000
1
  0
LINE
  5
C08
330
1F
100
AcDbEntity
  8
P-0000
  6
Continuous
 62
     7
100
AcDbLine
 10
408.2330222848256
 20
290.5196792467428
 30
0.0
 11
413.2330222848255
 21
290.5196792467428
 31
0.0
1001
ACME_LAYERS
1000
1
  0
LINE
  5
C09
330
1F
100
AcDbEntity
  8
P-0000
  6
Continuous
 62
     7
100
AcDbLine
 10
397.7330222848272
 20
290.5196792467397
 30
0.0
 11
394.1787203982479
 21
290.5196792467397
 31
0.0
1001
ACME_LAYERS
1000
1
  0
LINE
  5
C0A
330
1F
100
AcDbEntity
  8
P-0000
  6
Continuous
 62
     7
100
AcDbLine
 10
397.7330222848272
 20
290.5196792467397
 30
0.0
 11
398.2330222848248
 21
290.5196792467428
 31
0.0
1001
ACME_LAYERS
1000
1
  0
LINE
  5
C0B
330
1F
100
AcDbEntity
  8
P-0000
  6
Continuous
 62
     7
100
AcDbLine
 10
406.7330222848267
 20
290.5196792467397
 30
0.0
 11
407.7330222848271
 21
290.5196792467397
 31
0.0
1001
ACME_LAYERS
1000
1
  0
LINE
  5
C0C
330
1F
100
AcDbEntity
  8
P-0000
  6
Continuous
 62
     7
100
AcDbLine
 10
391.0614494095728
 20
290.5196792467397
 30
0.0
 11
397.7330222848272
 21
290.5196792467397
 31
0.0
1001
ACME_LAYERS
1000
1
  0
ARC
  5
C0D
330
1F
100
AcDbEntity
  8
P-0000
  6
Continuous
 62
     7
100
AcDbCircle
 10
418.8898765343209
 20
290.5196792467397
 30
0.0
 40
4.0
100
AcDbArc
 50
224.9999999999908
 51
270.0
1001
ACME_LAYERS
1000
1
  0
ARC
  5
C0E
330
1F
100
AcDbEntity
  8
P-0000
  6
Continuous
 62
     7
100
AcDbCircle
 10
391.0614494095728
 20
286.5196792467406
 30
0.0
 40
4.000000000000613
100
AcDbArc
 50
90.0
 51
134.9999999999724
1001
ACME_LAYERS
1000
1
  0
ARC
  5
C0F
330
1F
100
AcDbEntity
  8
P-0000
  6
Continuous
 62
     7
100
AcDbCircle
 10
386.5761680353338
 20
290.5196792467397
 30
0.0
 40
3.999999999999423
100
AcDbArc
 50
270.0
 51
315.0000000000092
1001
ACME_LAYERS
1000
1
  0
ARC
  5
C10
330
1F
100
AcDbEntity
  8
P-0000
  6
Continuous
 62
     7
100
AcDbCircle
 10
380.3310984961798
 20
290.5196792467397
 30
0.0
 40
4.0
100
AcDbArc
 50
240.0000000000039
 51
270.0
1001
ACME_LAYERS
1000
1
  0
ARC
  5
C11
330
1F
100
AcDbEntity
  8
P-0000
  6
Continuous
 62
     7
100
AcDbCircle
 10
380.3310984961798
 20
290.5196792467397
 30
0.0
 40
2.0
100
AcDbArc
 50
239.999999999966
 51
270.0
1001
ACME_LAYERS
1000
1
  0
ARC
  5
C12
330
1F
100
AcDbEntity
  8
P-0000
  6
Continuous
 62
     7
100
AcDbCircle
 10
386.5761680353338
 20
290.5196792467397
 30
0.0
 40
2.000000000000397
100
AcDbArc
 50
270.0
 51
314.9999999999724
1001
ACME_LAYERS
1000
1
  0
ARC
  5
C13
330
1F
100
AcDbEntity
  8
P-0000
  6
Continuous
 62
     7
100
AcDbCircle
 10
391.0614494095728
 20
286.5196792467406
 30
0.0
 40
2.000000000000311
100
AcDbArc
 50
90.0
 51
134.9999999999724
1001
ACME_LAYERS
1000
1
  0
ARC
  5
C14
330
1F
100
AcDbEntity
  8
P-0000
  6
Continuous
 62
     7
100
AcDbCircle
 10
414.4045951600809
 20
286.5196792467406
 30
0.0
 40
2.0
100
AcDbArc
 50
45.00000000002764
 51
90.0
1001
ACME_LAYERS
1000
1
  0
ARC
  5
C15
330
1F
100
AcDbEntity
  8
P-0000
  6
Continuous
 62
     7
100
AcDbCircle
 10
418.8898765343209
 20
290.5196792467397
 30
0.0
 40
2.0
100
AcDbArc
 50
224.9999999999908
 51
270.0
1001
ACME_LAYERS
1000
1
  0
ARC
  5
C16
330
1F
100
AcDbEntity
  8
P-0000
  6
Continuous
 62
     7
100
AcDbCircle
 10
425.1349460734719
 20
290.5196792467397
 30
0.0
 40
1.999999999999425
100
AcDbArc
 50
270.0
 51
300.0000000000341
1001
ACME_LAYERS
1000
1
  0
ARC
  5
C17
330
1F
100
AcDbEntity
  8
P-0000
  6
Continuous
 62
     7
100
AcDbCircle
 10
425.1349460734719
 20
290.5196792467397
 30
0.0
 40
4.000000000000401
100
AcDbArc
 50
270.0
 51
299.9999999999961
1001
ACME_LAYERS
1000
1
  0
ARC
  5
C18
330
1F
100
AcDbEntity
  8
P-0000
  6
Continuous
 62
     7
100
AcDbCircle
 10
414.4045951600809
 20
286.5196792467406
 30
0.0
 40
4.0
100
AcDbArc
 50
45.00000000002764
 51
89.99999999997395
1001
ACME_LAYERS
1000
1
  0
HATCH
  5
C19
330
1F
100
AcDbEntity
  8
P-0000
  6
Continuous
 62
     3
100
AcDbHatch
 10
0.0
 20
0.0
 30
0.0
210
0.0
220
0.0
230
1.0
  2
_U
 70
     0
 71
     0
 91
        1
 92
        1
 93
       19
 72
     1
 10
373.7330222848281
 20
292.0196792467397
 11
379.3310984961798
 21
288.7876284391719
 72
     1
 10
379.3310984961798
 20
288.7876284391727
 11
379.7952001113179
 21
288.5196792467406
 72
     1
 10
379.795200111317
 20
288.5196792467397
 11
380.3310984961798
 21
288.5196792467397
 72
     1
 10
380.3310984961798
 20
288.5196792467397
 11
386.5761680353338
 21
288.5196792467397
 72
     1
 10
386.5761680353338
 20
288.5196792467397
 11
387.40459516008
 21
288.5196792467397
 72
     1
 10
387.40459516008
 20
288.5196792467397
 11
387.990381597708
 21
289.1054656843669
 72
     1
 10
387.990381597708
 20
289.1054656843669
 11
388.2330222848281
 21
289.3481063714868
 72
     2
 10
391.0614494095728
 20
286.5196792467406
 40
4.000000000000613
 50
-135.0000000000008
 51
-90.00000000000001
 73
     0
 72
     1
 10
391.0614494095728
 20
290.5196792467397
 11
397.7330222848272
 21
290.5196792467397
 72
     1
 10
397.7330222848272
 20
290.5196792467397
 11
397.7330222848272
 21
288.5196792467406
 72
     1
 10
397.7330222848272
 20
288.5196792467397
 11
391.0614494095728
 21
288.5196792467397
 72
     1
 10
391.0614494095728
 20
288.5196792467397
 11
390.2330222848272
 21
288.5196792467397
 72
     1
 10
390.2330222848289
 20
288.5196792467397
 11
389.6472358472018
 21
287.9338928091137
 72
     1
 10
389.6472358472009
 20
287.9338928091137
 11
389.40459516008
 21
287.6912521219958
 72
     2
 10
386.5761680353338
 20
290.5196792467397
 40
3.999999999999423
 50
44.99999999998222
 51
90.0
 73
     0
 72
     1
 10
386.5761680353338
 20
286.5196792467406
 11
380.3310984961798
 21
286.5196792467406
 72
     2
 10
380.3310984961798
 20
290.5196792467397
 40
4.0
 50
90.0
 51
119.9999999999965
 73
     0
 72
     1
 10
378.3310984961798
 20
287.0555776316026
 11
372.733022284828
 21
290.2876284391719
 72
     1
 10
372.733022284828
 20
290.2876284391719
 11
373.7330222848281
 21
292.0196792467397
 97
        0
 75
     0
 76
     0
 52
44.99999999999999
 41
3.0
 77
     0
 78
     1
 53
135.0
 43
345.7661502997219
 44
427.1456447411157
 45
2.121320343559641
 46
2.121320343559641
 79
     0
 98
        1
 10
345.7661502997219
 20
427.1456447411157
1001
ACME_LAYERS
1000
1
  0
HATCH
  5
C1A
330
1F
100
AcDbEntity
  8
P-0000
  6
Continuous
 62
     3
100
AcDbHatch
 10
0.0
 20
0.0
 30
0.0
210
0.0
220
0.0
230
1.0
  2
_U
 70
     0
 71
     0
 91
        1
 92
        1
 93
       19
 72
     2
 10
418.8898765343209
 20
290.5196792467397
 40
2.0
 50
90.0
 51
135.0000000000351
 73
     0
 72
     1
 10
417.4756629719448
 20
289.1054656843669
 11
417.2330222848255
 21
289.3481063714868
 72
     2
 10
414.4045951600809
 20
286.5196792467406
 40
4.0
 50
404.9999999999991
 51
449.9999999999738
 73
     1
 72
     1
 10
414.4045951600817
 20
290.5196792467397
 11
411.9669924468538
 21
290.5196792467397
 72
     1
 10
411.9669924468551
 20
290.5196792467397
 11
410.5566639179959
 21
290.5196792467397
 72
     1
 10
410.5566639179959
 20
290.5196792467397
 11
407.7330222848271
 21
290.5196792467397
 72
     1
 10
407.7330222848271
 20
290.5196792467397
 11
407.7330222848271
 21
288.5196792467406
 72
     1
 10
407.7330222848271
 20
288.5196792467397
 11
414.40459516008
 21
288.5196792467397
 72
     1
 10
414.4045951600809
 20
288.5196792467397
 11
415.233022284828
 21
288.5196792467397
 72
     1
 10
415.2330222848267
 20
288.5196792467397
 11
415.8188087224536
 21
287.9338928091137
 72
     1
 10
415.8188087224536
 20
287.9338928091137
 11
416.0614494095751
 21
287.6912521219958
 72
     2
 10
418.8898765343209
 20
290.5196792467397
 40
4.0
 50
224.9999999999821
 51
270.0
 73
     1
 72
     1
 10
418.8898765343209
 20
286.5196792467406
 11
425.1349460734719
 21
286.5196792467406
 72
     2
 10
425.1349460734719
 20
290.5196792467397
 40
4.000000000000401
 50
270.0
 51
299.9999999999967
 73
     1
 72
     1
 10
427.134946073473
 20
287.0555776316026
 11
432.7330222848248
 21
290.2876284391719
 72
     1
 10
432.7330222848248
 20
290.2876284391719
 11
431.7330222848256
 21
292.0196792467397
 72
     1
 10
431.7330222848256
 20
292.0196792467397
 11
426.1349460734729
 21
288.7876284391719
 72
     2
 10
425.1349460734719
 20
290.5196792467397
 40
1.999999999999425
 50
59.99999999999046
 51
90.0
 73
     0
 72
     1
 10
425.1349460734719
 20
288.5196792467397
 11
418.8898765343209
 21
288.5196792467397
 97
        0
 75
     0
 76
     0
 52
44.99999999999999
 41
5.0
 77
     0
 78
     1
 53
135.0
 43
345.7661502997219
 44
427.1456447411157
 45
3.535533905932736
 46
3.535533905932738
 79
     0
 98
        1
 10
345.7661502997219
 20
427.1456447411157
1001
ACME_LAYERS
1000
1
  0
LINE
  5
C1B
330
1F
100
AcDbEntity
  8
P-0000
  6
Continuous
 62
     7
100
AcDbLine
 10
380.3658799192852
 20
286.5196792467406
 30
0.0
 11
386.6109494584378
 21
286.5196792467406
 31
0.0
1001
ACME_LAYERS
1000
1
  0
LINE
  5
C1C
330
1F
100
AcDbEntity
  8
P-0000
  6
Continuous
 62
     7
100
AcDbLine
 10
425.1349460734719
 20
286.5196792467406
 30
0.0
 11
418.8898765343187
 21
286.5196792467406
 31
0.0
1001
ACME_LAYERS
1000
1
  0
LINE
  5
C1D
330
1F
100
AcDbEntity
  8
P-0000
  6
Continuous
 62
     7
100
AcDbLine
 10
380.3310984961779
 20
286.5196792467406
 30
0.0
 11
386.5761680353319
 21
286.5196792467406
 31
0.0
1001
ACME_LAYERS
1000
1
  0
LINE
  5
C1E
330
1F
100
AcDbEntity
  8
0
100
AcDbLine
 10
406.789558728917
 20
290.5196792467397
 30
0.0
 11
406.789558728917
 21
277.2826119848836
 31
0.0
  0
LINE
  5
C1F
330
1F
100
AcDbEntity
  8
0
100
AcDbLine
 10
398.7895587289178
 20
290.5196792467397
 30
0.0
 11
398.7895587289178
 21
277.2826119848836
 31
0.0
  0
LINE
  5
C27
330
1F
100
AcDbEntity
  8
0
100
AcDbLine
 10
536.4742936659657
 20
283.3137593415988
 30
0.0
 11
536.4742936659638
 21
281.3137593415988
 31
0.0
  0
LINE
  5
C2A
330
1F
100
AcDbEntity
  8
0
100
AcDbLine
 10
536.4742936659638
 20
281.3137593415988
 30
0.0
 11
536.4742936659657
 21
283.3137593415988
 31
0.0
  0
LINE
  5
C30
330
1F
100
AcDbEntity
  8
P-0000
  6
Continuous
 62
     7
100
AcDbLine
 10
425.1349460734719
 20
286.5196792467407
 30
0.0
 11
418.8898765343198
 21
286.5196792467406
 31
0.0
1001
ACME_LAYERS
1000
1
  0
LINE
  5
C31
330
1F
100
AcDbEntity
  8
P-0000
  6
Continuous
 62
     7
100
AcDbLine
 10
425.1349460734719
 20
286.5196792467406
 30
0.0
 11
418.8898765343187
 21
286.5196792467406
 31
0.0
1001
ACME_LAYERS
1000
1
  0
LINE
  5
C35
330
1F
100
AcDbEntity
  8
P-0000
  6
Continuous
 62
     7
100
AcDbLine
 10
174.2155650471121
 20
291.0196792467417
 30
0.0
 11
174.2155650471121
 21
285.0196792467388
 31
0.0
1001
ACME_LAYERS
1000
1
  0
LINE
  5
C36
330
1F
100
AcDbEntity
  8
P-0000
  6
Continuous
 62
     7
100
AcDbLine
 10
174.2155650471121
 20
291.0196792467417
 30
0.0
 11
174.7155650471139
 21
291.0196792467417
 31
0.0
1001
ACME_LAYERS
1000
1
  0
LINE
  5
C37
330
1F
100
AcDbEntity
  8
P-0000
  6
Continuous
 62
     7
100
AcDbLine
 10
173.4155650471128
 20
291.0196792467417
 30
0.0
 11
174.2155650471121
 21
291.0196792467417
 31
0.0
1001
ACME_LAYERS
1000
1
  0
LINE
  5
C38
330
1F
100
AcDbEntity
  8
0
100
AcDbLine
 10
166.215565047112
 20
285.0196792467388
 30
0.0
 11
166.215565047112
 21
291.0196792467417
 31
0.0
  0
LINE
  5
C39
330
1F
100
AcDbEntity
  8
P-0000
  6
Continuous
 62
     7
100
AcDbLine
 10
175.2330222848257
 20
291.0196792467417
 30
0.0
 11
180.6442666869036
 21
291.0196792467417
 31
0.0
1001
ACME_LAYERS
1000
1
  0
LINE
  5
C3A
330
1F
100
AcDbEntity
  8
P-0000
  6
Continuous
 62
     7
100
AcDbLine
 10
165.2330222848248
 20
291.0196792467417
 30
0.0
 11
175.2330222848257
 21
291.0196792467417
 31
0.0
1001
ACME_LAYERS
1000
1
  0
LINE
  5
C3B
330
1F
100
AcDbEntity
  8
P-0000
  6
Continuous
 62
     7
100
AcDbLine
 10
180.6442666869036
 20
291.0196792467417
 30
0.0
 11
182.6442666869036
 21
291.0196792467417
 31
0.0
1001
ACME_LAYERS
1000
1
  0
LINE
  5
C3C
330
1F
100
AcDbEntity
  8
P-0000
  6
Continuous
 62
     7
100
AcDbLine
 10
285.9732620531119
 20
305.0140279483109
 30
0.0
 11
285.9732620531161
 21
305.0140279483109
 31
0.0
1001
ACME_LAYERS
1000
1
  0
LINE
  5
C3D
330
1F
100
AcDbEntity
  8
P-0000
  6
Continuous
 62
     7
100
AcDbLine
 10
285.992782516568
 20
305.0140279483109
 30
0.0
 11
285.9927825165708
 21
305.0140279483109
 31
0.0
1001
ACME_LAYERS
1000
1
  0
LINE
  5
C3E
330
1F
100
AcDbEntity
  8
P-0000
  6
STRICHPUNKT
 62
     3
100
AcDbLine
 10
402.750479522538
 20
287.9925677619857
 30
0.0
 11
402.750479522538
 21
294.9925677619858
 31
0.0
1001
ACME_LAYERS
1000
1
  0
LINE
  5
C3F
330
1F
100
AcDbEntity
  8
P-0000
  6
Continuous
 62
     7
100
AcDbLine
 10
407.7504795225388
 20
293.0196792467406
 30
0.0
 11
397.7504795225389
 21
293.0196792467406
 31
0.0
1001
ACME_LAYERS
1000
1
  0
LINE
  5
C40
330
1F
100
AcDbEntity
  8
P-0000
  6
Continuous
 62
     7
100
AcDbLine
 10
295.0004795225389
 20
291.0196792467406
 30
0.0
 11
291.5004795225412
 21
291.0196792467406
 31
0.0
1001
ACME_LAYERS
1000
1
  0
LINE
  5
C41
330
1F
100
AcDbEntity
  8
P-0000
  6
Continuous
 62
     7
100
AcDbLine
 10
291.5004795225412
 20
291.0196792467406
 30
0.0
 11
286.5004795225388
 21
291.0196792467406
 31
0.0
1001
ACME_LAYERS
1000
1
  0
LINE
  5
C42
330
1F
100
AcDbEntity
  8
P-0000
  6
Continuous
 62
     7
100
AcDbLine
 10
297.0004795225412
 20
291.0196792467406
 30
0.0
 11
295.0004795225389
 21
291.0196792467406
 31
0.0
1001
ACME_LAYERS
1000
1
  0
LINE
  5
C43
330
1F
100
AcDbEntity
  8
P-0000
  6
Continuous
 62
     7
100
AcDbLine
 10
297.0004795225412
 20
293.0196792467406
 30
0.0
 11
297.0004795225412
 21
291.0196792467406
 31
0.0
1001
ACME_LAYERS
1000
1
  0
LINE
  5
C44
330
1F
100
AcDbEntity
  8
P-0000
  6
Continuous
 62
     7
100
AcDbLine
 10
405.9504795225397
 20
304.1669606864527
 30
0.0
 11
402.750479522538
 21
304.1669606864527
 31
0.0
1001
ACME_LAYERS
1000
1
  0
LINE
  5
C45
330
1F
100
AcDbEntity
  8
P-0000
  6
Continuous
 62
     7
100
AcDbLine
 10
399.5504795225386
 20
303.5669606864525
 30
0.0
 11
405.9504795225397
 21
303.5669606864525
 31
0.0
1001
ACME_LAYERS
1000
1
  0
LINE
  5
C46
330
1F
100
AcDbEntity
  8
P-0000
  6
Continuous
 62
     7
100
AcDbLine
 10
406.7504795225412
 20
303.5669606864525
 30
0.0
 11
406.7504795225412
 21
300.6196792467399
 31
0.0
1001
ACME_LAYERS
1000
1
  0
LINE
  5
C47
330
1F
100
AcDbEntity
  8
P-0000
  6
Continuous
 62
     3
100
AcDbLine
 10
405.9504795225397
 20
304.1669606864527
 30
0.0
 11
405.9504795225397
 21
300.6196792467399
 31
0.0
1001
ACME_LAYERS
1000
1
  0
LINE
  5
C48
330
1F
100
AcDbEntity
  8
P-0000
  6
Continuous
 62
     7
100
AcDbLine
 10
405.9504795225397
 20
303.5669606864525
 30
0.0
 11
406.7504795225412
 21
303.5669606864525
 31
0.0
1001
ACME_LAYERS
1000
1
  0
LINE
  5
C49
330
1F
100
AcDbEntity
  8
P-0000
  6
Continuous
 62
     3
100
AcDbLine
 10
405.9504795225397
 20
304.1669606864527
 30
0.0
 11
405.9504795225397
 21
303.5669606864525
 31
0.0
1001
ACME_LAYERS
1000
1
  0
LINE
  5
C4A
330
1F
100
AcDbEntity
  8
P-0000
  6
Continuous
 62
     7
100
AcDbLine
 10
406.7504795225412
 20
303.5669606864525
 30
0.0
 11
405.9504795225397
 21
304.1669606864527
 31
0.0
1001
ACME_LAYERS
1000
1
  0
LINE
  5
C4B
330
1F
100
AcDbEntity
  8
P-0000
  6
Continuous
 62
     3
100
AcDbLine
 10
406.0070159666298
 20
291.0196792467406
 30
0.0
 11
406.0070159666298
 21
277.2826119848836
 31
0.0
1001
ACME_LAYERS
1000
1
  0
LINE
  5
C4C
330
1F
100
AcDbEntity
  8
P-0000
  6
Continuous
 62
     7
100
AcDbLine
 10
398.7504795225389
 20
303.5669606864525
 30
0.0
 11
398.7504795225389
 21
300.6196792467399
 31
0.0
1001
ACME_LAYERS
1000
1
  0
LINE
  5
C4D
330
1F
100
AcDbEntity
  8
P-0000
  6
Continuous
 62
     3
100
AcDbLine
 10
399.607015966629
 20
291.0196792467406
 30
0.0
 11
399.607015966629
 21
277.2826119848836
 31
0.0
1001
ACME_LAYERS
1000
1
  0
LINE
  5
C4E
330
1F
100
AcDbEntity
  8
P-0000
  6
STRICHPUNKT
 62
     3
100
AcDbLine
 10
402.750479522538
 20
300.6196792467399
 30
0.0
 11
402.750479522538
 21
304.1669606864527
 31
0.0
1001
ACME_LAYERS
1000
1
  0
LINE
  5
C4F
330
1F
100
AcDbEntity
  8
P-0000
  6
Continuous
 62
     3
100
AcDbLine
 10
399.5504795225386
 20
304.1669606864527
 30
0.0
 11
399.5504795225386
 21
300.6196792467399
 31
0.0
1001
ACME_LAYERS
1000
1
  0
LINE
  5
C50
330
1F
100
AcDbEntity
  8
P-0000
  6
Continuous
 62
     3
100
AcDbLine
 10
399.5504795225386
 20
304.1669606864527
 30
0.0
 11
399.5504795225386
 21
303.5669606864525
 31
0.0
1001
ACME_LAYERS
1000
1
  0
LINE
  5
C51
330
1F
100
AcDbEntity
  8
P-0000
  6
Continuous
 62
     7
100
AcDbLine
 10
398.7504795225389
 20
303.5669606864525
 30
0.0
 11
399.5504795225386
 21
303.5669606864525
 31
0.0
1001
ACME_LAYERS
1000
1
  0
LINE
  5
C52
330
1F
100
AcDbEntity
  8
P-0000
  6
Continuous
 62
     7
100
AcDbLine
 10
399.5504795225386
 20
304.1669606864527
 30
0.0
 11
398.7504795225389
 21
303.5669606864525
 31
0.0
1001
ACME_LAYERS
1000
1
  0
LINE
  5
C53
330
1F
100
AcDbEntity
  8
P-0000
  6
Continuous
 62
     7
100
AcDbLine
 10
402.750479522538
 20
304.1669606864527
 30
0.0
 11
399.5504795225386
 21
304.1669606864527
 31
0.0
1001
ACME_LAYERS
1000
1
  0
LINE
  5
C54
330
1F
100
AcDbEntity
  8
P-0000
  6
Continuous
 62
     7
100
AcDbLine
 10
398.7504795225412
 20
300.6196792467399
 30
0.0
 11
405.9504795225397
 21
300.6196792467399
 31
0.0
1001
ACME_LAYERS
1000
1
  0
LINE
  5
C55
330
1F
100
AcDbEntity
  8
P-0000
  6
Continuous
 62
     7
100
AcDbLine
 10
405.9504795225397
 20
300.6196792467399
 30
0.0
 11
406.7504795225412
 21
300.6196792467399
 31
0.0
1001
ACME_LAYERS
1000
1
  0
LINE
  5
C56
330
1F
100
AcDbEntity
  8
P-0000
  6
Continuous
 62
     7
100
AcDbLine
 10
411.1961776359605
 20
294.5196792467388
 30
0.0
 11
411.1961776359605
 21
293.0196792467406
 31
0.0
1001
ACME_LAYERS
1000
1
  0
LINE
  5
C57
330
1F
100
AcDbEntity
  8
P-0000
  6
Continuous
 62
     7
100
AcDbLine
 10
398.7504795225412
 20
291.0196792467406
 30
0.0
 11
398.7504795225412
 21
285.0196792467377
 31
0.0
1001
ACME_LAYERS
1000
1
  0
LINE
  5
C58
330
1F
100
AcDbEntity
  8
P-0000
  6
Continuous
 62
     7
100
AcDbLine
 10
394.1961776359597
 20
293.0196792467406
 30
0.0
 11
394.1961776359597
 21
294.5196792467388
 31
0.0
1001
ACME_LAYERS
1000
1
  0
LINE
  5
C59
330
1F
100
AcDbEntity
  8
P-0000
  6
Continuous
 62
     7
100
AcDbLine
 10
411.1961776359605
 20
294.6196792467389
 30
0.0
 11
411.1961776359605
 21
294.5196792467388
 31
0.0
1001
ACME_LAYERS
1000
1
  0
LINE
  5
C5A
330
1F
100
AcDbEntity
  8
P-0000
  6
Continuous
 62
     7
100
AcDbLine
 10
394.1961776359597
 20
294.6196792467389
 30
0.0
 11
411.1961776359605
 21
294.6196792467389
 31
0.0
1001
ACME_LAYERS
1000
1
  0
LINE
  5
C5B
330
1F
100
AcDbEntity
  8
P-0000
  6
Continuous
 62
     7
100
AcDbLine
 10
394.1961776359597
 20
294.5196792467388
 30
0.0
 11
394.1961776359597
 21
294.6196792467389
 31
0.0
1001
ACME_LAYERS
1000
1
  0
LINE
  5
C5C
330
1F
100
AcDbEntity
  8
P-0000
  6
Continuous
 62
     7
100
AcDbLine
 10
395.244926023075
 20
296.5066184386457
 30
0.0
 11
395.244926023075
 21
295.2002358303388
 31
0.0
1001
ACME_LAYERS
1000
1
  0
LINE
  5
C5D
330
1F
100
AcDbEntity
  8
P-0000
  6
Continuous
 62
     7
100
AcDbLine
 10
409.2504795225411
 20
294.6196792467389
 30
0.0
 11
396.2504795225389
 21
294.6196792467389
 31
0.0
1001
ACME_LAYERS
1000
1
  0
LINE
  5
C5E
330
1F
100
AcDbEntity
  8
P-0000
  6
Continuous
 62
     7
100
AcDbLine
 10
410.2560330220047
 20
296.5066184386457
 30
0.0
 11
410.2560330220047
 21
295.2002358303388
 31
0.0
1001
ACME_LAYERS
1000
1
  0
LINE
  5
C5F
330
1F
100
AcDbEntity
  8
P-0000
  6
Continuous
 62
     7
100
AcDbLine
 10
406.7504795225412
 20
300.6196792467399
 30
0.0
 11
409.2504795225411
 21
300.6196792467399
 31
0.0
1001
ACME_LAYERS
1000
1
  0
LINE
  5
C60
330
1F
100
AcDbEntity
  8
P-0000
  6
Continuous
 62
     7
100
AcDbLine
 10
395.4915976117289
 20
295.0468228123727
 30
0.0
 11
396.2504795225389
 21
294.6196792467389
 31
0.0
1001
ACME_LAYERS
1000
1
  0
LINE
  5
C61
330
1F
100
AcDbEntity
  8
P-0000
  6
Continuous
 62
     7
100
AcDbLine
 10
395.4915976117289
 20
300.1925356811038
 30
0.0
 11
396.2504795225389
 21
300.6196792467399
 31
0.0
1001
ACME_LAYERS
1000
1
  0
LINE
  5
C62
330
1F
100
AcDbEntity
  8
P-0000
  6
Continuous
 62
     7
100
AcDbLine
 10
410.009361433347
 20
295.0468228123727
 30
0.0
 11
409.2504795225411
 21
294.6196792467389
 31
0.0
1001
ACME_LAYERS
1000
1
  0
LINE
  5
C63
330
1F
100
AcDbEntity
  8
P-0000
  6
Continuous
 62
     7
100
AcDbLine
 10
410.009361433347
 20
300.1925356811038
 30
0.0
 11
409.2504795225411
 21
300.6196792467399
 31
0.0
1001
ACME_LAYERS
1000
1
  0
LINE
  5
C64
330
1F
100
AcDbEntity
  8
P-0000
  6
Continuous
 62
     7
100
AcDbLine
 10
396.2504795225389
 20
300.6196792467399
 30
0.0
 11
398.7504795225412
 21
300.6196792467399
 31
0.0
1001
ACME_LAYERS
1000
1
  0
LINE
  5
C65
330
1F
100
AcDbEntity
  8
P-0000
  6
Continuous
 62
     7
100
AcDbLine
 10
410.2560330220047
 20
300.0391226631379
 30
0.0
 11
410.2560330220047
 21
296.5066184386457
 31
0.0
1001
ACME_LAYERS
1000
1
  0
LINE
  5
C66
330
1F
100
AcDbEntity
  8
P-0000
  6
Continuous
 62
     7
100
AcDbLine
 10
406.5032562722739
 20
300.0391226631379
 30
0.0
 11
406.5032562722739
 21
294.6196792467389
 31
0.0
1001
ACME_LAYERS
1000
1
  0
LINE
  5
C67
330
1F
100
AcDbEntity
  8
P-0000
  6
Continuous
 62
     7
100
AcDbLine
 10
398.9977027728067
 20
300.0391226631379
 30
0.0
 11
398.9977027728067
 21
294.6196792467389
 31
0.0
1001
ACME_LAYERS
1000
1
  0
LINE
  5
C68
330
1F
100
AcDbEntity
  8
P-0000
  6
Continuous
 62
     7
100
AcDbLine
 10
395.244926023075
 20
300.0391226631379
 30
0.0
 11
395.244926023075
 21
296.5066184386457
 31
0.0
1001
ACME_LAYERS
1000
1
  0
LINE
  5
C69
330
1F
100
AcDbEntity
  8
P-0000
  6
Continuous
 62
     7
100
AcDbLine
 10
411.1961776359605
 20
293.0196792467406
 30
0.0
 11
406.7504795225412
 21
293.0196792467406
 31
0.0
1001
ACME_LAYERS
1000
1
  0
LINE
  5
C6A
330
1F
100
AcDbEntity
  8
P-0000
  6
Continuous
 62
     7
100
AcDbLine
 10
394.1961776359597
 20
293.0196792467406
 30
0.0
 11
398.2504795225371
 21
293.0196792467406
 31
0.0
1001
ACME_LAYERS
1000
1
  0
LINE
  5
C6B
330
1F
100
AcDbEntity
  8
P-0000
  6
Continuous
 62
     7
100
AcDbLine
 10
398.7504795225412
 20
291.0196792467406
 30
0.0
 11
398.2504795225371
 21
291.0196792467406
 31
0.0
1001
ACME_LAYERS
1000
1
  0
LINE
  5
C6C
330
1F
100
AcDbEntity
  8
P-0000
  6
Continuous
 62
     7
100
AcDbLine
 10
399.5504795225386
 20
291.0196792467406
 30
0.0
 11
398.7504795225412
 21
291.0196792467406
 31
0.0
1001
ACME_LAYERS
1000
1
  0
LINE
  5
C6D
330
1F
100
AcDbEntity
  8
P-0000
  6
Continuous
 62
     7
100
AcDbLine
 10
405.9504795225397
 20
291.0196792467406
 30
0.0
 11
399.5504795225386
 21
291.0196792467406
 31
0.0
1001
ACME_LAYERS
1000
1
  0
LINE
  5
C6E
330
1F
100
AcDbEntity
  8
P-0000
  6
Continuous
 62
     7
100
AcDbLine
 10
406.7504795225412
 20
291.0196792467406
 30
0.0
 11
405.9504795225397
 21
291.0196792467406
 31
0.0
1001
ACME_LAYERS
1000
1
  0
ARC
  5
C6F
330
1F
100
AcDbEntity
  8
P-0000
  6
Continuous
 62
     7
100
AcDbCircle
 10
402.7504795225412
 20
307.039122663137
 30
0.0
 40
12.41944341639904
100
AcDbArc
 50
252.4120462260086
 51
287.5879537739915
1001
ACME_LAYERS
1000
1
  0
ARC
  5
C70
330
1F
100
AcDbEntity
  8
P-0000
  6
Continuous
 62
     7
100
AcDbCircle
 10
402.7504795225412
 20
288.2002358303388
 30
0.0
 40
12.41944341639904
100
AcDbArc
 50
72.41204622600854
 51
107.5879537739914
1001
ACME_LAYERS
1000
1
  0
ARC
  5
C71
330
1F
100
AcDbEntity
  8
P-0000
  6
Continuous
 62
     7
100
AcDbCircle
 10
397.1213143979397
 20
297.9422488196878
 30
0.0
 40
3.322569572950221
100
AcDbArc
 50
240.6266206051648
 51
304.3842474680531
1001
ACME_LAYERS
1000
1
  0
ARC
  5
C72
330
1F
100
AcDbEntity
  8
P-0000
  6
Continuous
 62
     7
100
AcDbCircle
 10
397.1213143979388
 20
297.2971096737878
 30
0.0
 40
3.322569572950149
100
AcDbArc
 50
119.3733793948352
 51
124.3842474680531
1001
ACME_LAYERS
1000
1
  0
ARC
  5
C73
330
1F
100
AcDbEntity
  8
P-0000
  6
Continuous
 62
     7
100
AcDbCircle
 10
408.3796446471373
 20
297.9422488196878
 30
0.0
 40
3.322569572950221
100
AcDbArc
 50
299.3733793948352
 51
304.3842474680531
1001
ACME_LAYERS
1000
1
  0
ARC
  5
C74
330
1F
100
AcDbEntity
  8
P-0000
  6
Continuous
 62
     7
100
AcDbCircle
 10
408.3796446471373
 20
297.2971096737878
 30
0.0
 40
3.322569572949122
100
AcDbArc
 50
60.62662060516479
 51
124.3842474680224
1001
ACME_LAYERS
1000
1
  0
ARC
  5
C75
330
1F
100
AcDbEntity
  8
P-0000
  6
Continuous
 62
     7
100
AcDbCircle
 10
397.1213143979397
 20
297.9422488196878
 30
0.0
 40
3.322569572949876
100
AcDbArc
 50
235.6157525319468
 51
240.6266206051648
1001
ACME_LAYERS
1000
1
  0
ARC
  5
C76
330
1F
100
AcDbEntity
  8
P-0000
  6
Continuous
 62
     7
100
AcDbCircle
 10
397.1213143979397
 20
297.2971096737878
 30
0.0
 40
3.322569572949888
100
AcDbArc
 50
55.61575253194686
 51
119.3733793948352
1001
ACME_LAYERS
1000
1
  0
ARC
  5
C77
330
1F
100
AcDbEntity
  8
P-0000
  6
Continuous
 62
     7
100
AcDbCircle
 10
408.3796446471373
 20
297.9422488196878
 30
0.0
 40
3.322569572949872
100
AcDbArc
 50
235.6157525319775
 51
299.3733793948352
1001
ACME_LAYERS
1000
1
  0
ARC
  5
C78
330
1F
100
AcDbEntity
  8
P-0000
  6
Continuous
 62
     7
100
AcDbCircle
 10
408.3796446471373
 20
297.2971096737878
 30
0.0
 40
3.322569572949884
100
AcDbArc
 50
55.61575253194686
 51
60.62662060516479
1001
ACME_LAYERS
1000
1
  0
LINE
  5
C79
330
1F
100
AcDbEntity
  8
0
100
AcDbLine
 10
406.7504795225412
 20
285.0196792467377
 30
0.0
 11
406.7504795225412
 21
291.0196792467406
 31
0.0
  0
LINE
  5
C7A
330
1F
100
AcDbEntity
  8
P-0000
  6
Continuous
 62
     7
100
AcDbLine
 10
278.0004795225371
 20
291.0196792467406
 30
0.0
 11
281.500479522538
 21
291.0196792467406
 31
0.0
1001
ACME_LAYERS
1000
1
  0
LINE
  5
C7B
330
1F
100
AcDbEntity
  8
P-0000
  6
Continuous
 62
     7
100
AcDbLine
 10
281.500479522538
 20
291.0196792467406
 30
0.0
 11
286.5004795225388
 21
291.0196792467406
 31
0.0
1001
ACME_LAYERS
1000
1
  0
LINE
  5
C7C
330
1F
100
AcDbEntity
  8
P-0000
  6
Continuous
 62
     7
100
AcDbLine
 10
276.0004795225421
 20
291.0196792467406
 30
0.0
 11
278.0004795225371
 21
291.0196792467406
 31
0.0
1001
ACME_LAYERS
1000
1
  0
LINE
  5
C7D
330
1F
100
AcDbEntity
  8
P-0000
  6
Continuous
 62
     7
100
AcDbLine
 10
276.0004795225421
 20
293.0196792467406
 30
0.0
 11
276.0004795225421
 21
291.0196792467406
 31
0.0
1001
ACME_LAYERS
1000
1
  0
LINE
  5
C7E
330
1F
100
AcDbEntity
  8
P-0000
  6
Continuous
 62
     7
100
AcDbLine
 10
364.6990862822038
 20
301.0023469395007
 30
0.0
 11
364.6990862822038
 21
298.1196792467367
 31
0.0
1001
ACME_LAYERS
1000
1
  0
LINE
  5
C7F
330
1F
100
AcDbEntity
  8
P-0000
  6
Continuous
 62
     3
100
AcDbLine
 10
365.4990862822018
 20
300.5404667241477
 30
0.0
 11
365.4990862822018
 21
298.1196792467367
 31
0.0
1001
ACME_LAYERS
1000
1
  0
LINE
  5
C80
330
1F
100
AcDbEntity
  8
P-0000
  6
Continuous
 62
     7
100
AcDbLine
 10
369.6920131874038
 20
298.1196792467367
 30
0.0
 11
365.4990862822026
 21
298.1196792467367
 31
0.0
1001
ACME_LAYERS
1000
1
  0
LINE
  5
C81
330
1F
100
AcDbEntity
  8
P-0000
  6
Continuous
 62
     7
100
AcDbLine
 10
365.4990862822026
 20
298.1196792467367
 30
0.0
 11
364.6990862822038
 21
298.1196792467367
 31
0.0
1001
ACME_LAYERS
1000
1
  0
LINE
  5
C82
330
1F
100
AcDbEntity
  8
P-0000
  6
Continuous
 62
     7
100
AcDbLine
 10
360.253388168783
 20
292.0196792467368
 30
0.0
 11
360.253388168783
 21
290.2876284391727
 31
0.0
1001
ACME_LAYERS
1000
1
  0
LINE
  5
C83
330
1F
100
AcDbEntity
  8
P-0000
  6
Continuous
 62
     7
100
AcDbLine
 10
377.2533881687817
 20
290.2876284391719
 30
0.0
 11
377.2533881687817
 21
292.0196792467368
 31
0.0
1001
ACME_LAYERS
1000
1
  0
LINE
  5
C84
330
1F
100
AcDbEntity
  8
P-0000
  6
Continuous
 62
     7
100
AcDbLine
 10
360.253388168783
 20
292.1196792467366
 30
0.0
 11
360.253388168783
 21
292.0196792467368
 31
0.0
1001
ACME_LAYERS
1000
1
  0
LINE
  5
C85
330
1F
100
AcDbEntity
  8
P-0000
  6
Continuous
 62
     7
100
AcDbLine
 10
377.2533881687817
 20
292.1196792467366
 30
0.0
 11
360.253388168783
 21
292.1196792467366
 31
0.0
1001
ACME_LAYERS
1000
1
  0
LINE
  5
C86
330
1F
100
AcDbEntity
  8
P-0000
  6
Continuous
 62
     7
100
AcDbLine
 10
377.2533881687817
 20
292.0196792467368
 30
0.0
 11
377.2533881687817
 21
292.1196792467366
 31
0.0
1001
ACME_LAYERS
1000
1
  0
LINE
  5
C87
330
1F
100
AcDbEntity
  8
P-0000
  6
Continuous
 62
     7
100
AcDbLine
 10
376.2046397816669
 20
294.0066184386439
 30
0.0
 11
376.2046397816669
 21
292.7002358303369
 31
0.0
1001
ACME_LAYERS
1000
1
  0
LINE
  5
C88
330
1F
100
AcDbEntity
  8
P-0000
  6
Continuous
 62
     7
100
AcDbLine
 10
362.1990862822012
 20
292.1196792467366
 30
0.0
 11
375.1990862822029
 21
292.1196792467366
 31
0.0
1001
ACME_LAYERS
1000
1
  0
LINE
  5
C89
330
1F
100
AcDbEntity
  8
P-0000
  6
Continuous
 62
     7
100
AcDbLine
 10
361.193532782739
 20
294.0066184386439
 30
0.0
 11
361.193532782739
 21
292.7002358303369
 31
0.0
1001
ACME_LAYERS
1000
1
  0
LINE
  5
C8A
330
1F
100
AcDbEntity
  8
P-0000
  6
Continuous
 62
     7
100
AcDbLine
 10
364.6990862822038
 20
298.1196792467367
 30
0.0
 11
362.1990862822012
 21
298.1196792467367
 31
0.0
1001
ACME_LAYERS
1000
1
  0
LINE
  5
C8B
330
1F
100
AcDbEntity
  8
P-0000
  6
Continuous
 62
     7
100
AcDbLine
 10
372.4518630319338
 20
294.0066184386439
 30
0.0
 11
372.4518630319338
 21
292.7002358303369
 31
0.0
1001
ACME_LAYERS
1000
1
  0
LINE
  5
C8C
330
1F
100
AcDbEntity
  8
P-0000
  6
Continuous
 62
     7
100
AcDbLine
 10
364.9463095324707
 20
294.0066184386439
 30
0.0
 11
364.9463095324707
 21
292.7002358303369
 31
0.0
1001
ACME_LAYERS
1000
1
  0
LINE
  5
C8D
330
1F
100
AcDbEntity
  8
P-0000
  6
Continuous
 62
     7
100
AcDbLine
 10
375.957968193013
 20
292.5468228123709
 30
0.0
 11
375.1990862822029
 21
292.1196792467366
 31
0.0
1001
ACME_LAYERS
1000
1
  0
LINE
  5
C8E
330
1F
100
AcDbEntity
  8
P-0000
  6
Continuous
 62
     7
100
AcDbLine
 10
361.4402043713952
 20
292.5468228123709
 30
0.0
 11
362.1990862822012
 21
292.1196792467366
 31
0.0
1001
ACME_LAYERS
1000
1
  0
LINE
  5
C8F
330
1F
100
AcDbEntity
  8
P-0000
  6
Continuous
 62
     7
100
AcDbLine
 10
361.4402043713952
 20
297.6925356811018
 30
0.0
 11
362.1990862822012
 21
298.1196792467367
 31
0.0
1001
ACME_LAYERS
1000
1
  0
LINE
  5
C90
330
1F
100
AcDbEntity
  8
P-0000
  6
Continuous
 62
     7
100
AcDbLine
 10
361.193532782739
 20
297.5391226631357
 30
0.0
 11
361.193532782739
 21
294.0066184386439
 31
0.0
1001
ACME_LAYERS
1000
1
  0
LINE
  5
C91
330
1F
100
AcDbEntity
  8
P-0000
  6
Continuous
 62
     7
100
AcDbLine
 10
364.9463095324707
 20
297.5391226631357
 30
0.0
 11
364.9463095324707
 21
294.0066184386439
 31
0.0
1001
ACME_LAYERS
1000
1
  0
LINE
  5
C92
330
1F
100
AcDbEntity
  8
P-0000
  6
Continuous
 62
     7
100
AcDbLine
 10
372.4518630319338
 20
296.5262791960749
 30
0.0
 11
372.4518630319338
 21
294.0066184386439
 31
0.0
1001
ACME_LAYERS
1000
1
  0
LINE
  5
C93
330
1F
100
AcDbEntity
  8
P-0000
  6
Continuous
 62
     7
100
AcDbLine
 10
376.2046397816669
 20
294.3596125294077
 30
0.0
 11
376.2046397816669
 21
294.0066184386439
 31
0.0
1001
ACME_LAYERS
1000
1
  0
ARC
  5
C94
330
1F
100
AcDbEntity
  8
P-0000
  6
Continuous
 62
     7
100
AcDbCircle
 10
368.6990862821998
 20
304.5391226631357
 30
0.0
 40
12.41944341639904
100
AcDbArc
 50
252.4120462260086
 51
287.5879537739915
1001
ACME_LAYERS
1000
1
  0
ARC
  5
C95
330
1F
100
AcDbEntity
  8
P-0000
  6
Continuous
 62
     7
100
AcDbCircle
 10
368.6990862821998
 20
285.7002358303368
 30
0.0
 40
12.41944341639904
100
AcDbArc
 50
85.04168193072981
 51
107.5879537739914
1001
ACME_LAYERS
1000
1
  0
ARC
  5
C96
330
1F
100
AcDbEntity
  8
P-0000
  6
Continuous
 62
     7
100
AcDbCircle
 10
374.3282514068009
 20
295.4422488196857
 30
0.0
 40
3.322569572950221
100
AcDbArc
 50
235.6157525319468
 51
299.3733793948352
1001
ACME_LAYERS
1000
1
  0
ARC
  5
C97
330
1F
100
AcDbEntity
  8
P-0000
  6
Continuous
 62
     7
100
AcDbCircle
 10
363.0699211576037
 20
295.4422488196857
 30
0.0
 40
3.322569572950221
100
AcDbArc
 50
235.6157525319468
 51
240.6266206051648
1001
ACME_LAYERS
1000
1
  0
ARC
  5
C98
330
1F
100
AcDbEntity
  8
P-0000
  6
Continuous
 62
     7
100
AcDbCircle
 10
363.0699211576037
 20
294.7971096737869
 30
0.0
 40
3.322569572949122
100
AcDbArc
 50
55.61575253197758
 51
119.3733793948352
1001
ACME_LAYERS
1000
1
  0
ARC
  5
C99
330
1F
100
AcDbEntity
  8
P-0000
  6
Continuous
 62
     7
100
AcDbCircle
 10
374.3282514068009
 20
295.4422488196857
 30
0.0
 40
3.322569572949876
100
AcDbArc
 50
299.3733793948352
 51
304.3842474680531
1001
ACME_LAYERS
1000
1
  0
ARC
  5
C9A
330
1F
100
AcDbEntity
  8
P-0000
  6
Continuous
 62
     7
100
AcDbCircle
 10
363.0699211576037
 20
295.4422488196857
 30
0.0
 40
3.322569572949872
100
AcDbArc
 50
240.6266206051648
 51
304.3842474680224
1001
ACME_LAYERS
1000
1
  0
ARC
  5
C9B
330
1F
100
AcDbEntity
  8
P-0000
  6
Continuous
 62
     7
100
AcDbCircle
 10
363.0699211576037
 20
294.7971096737869
 30
0.0
 40
3.322569572949884
100
AcDbArc
 50
119.3733793948352
 51
124.3842474680531
1001
ACME_LAYERS
1000
1
  0
HATCH
  5
C9C
330
1F
100
AcDbEntity
  8
P-0000
  6
Continuous
 62
     1
100
AcDbHatch
 10
0.0
 20
0.0
 30
0.0
210
0.0
220
0.0
230
1.0
  2
_U
 70
     0
 71
     0
 91
        1
 92
        1
 93
       16
 72
     1
 10
371.0004795225466
 20
310.0140279483109
 11
371.0004795225466
 21
309.9648563653279
 72
     1
 10
371.0004795225466
 20
309.9648563653279
 11
371.5004795225457
 21
309.9648563653279
 72
     1
 10
371.5004795225457
 20
309.9648563653279
 11
371.5004795225457
 21
308.0140279483096
 72
     1
 10
371.5004795225457
 20
308.0140279483096
 11
378.5613706908619
 21
308.0140279483096
 72
     2
 10
378.5613706908619
 20
307.5140279483109
 40
0.5
 50
270.0
 51
360.0
 73
     0
 72
     1
 10
379.0613706908628
 20
307.5140279483109
 11
379.0613706908628
 21
295.0196792467397
 72
     2
 10
383.0613706908628
 20
295.0196792467397
 40
4.000000000000068
 50
180.0
 51
270.0
 73
     1
 72
     1
 10
383.0613706908628
 20
291.0196792467406
 11
397.7504795225389
 21
291.0196792467406
 72
     1
 10
397.7504795225389
 20
291.0196792467406
 11
397.7504795225389
 21
293.0196792467406
 72
     1
 10
397.7504795225389
 20
293.0196792467406
 11
383.0004795225466
 21
293.0196792467406
 72
     2
 10
383.0004795225466
 20
295.0196792467397
 40
1.999999999999999
 50
90.0
 51
180.0
 73
     0
 72
     1
 10
381.0004795225466
 20
295.0196792467397
 11
381.0004795225466
 21
312.5140279483096
 72
     1
 10
381.0004795225466
 20
312.5140279483096
 11
379.000479522548
 21
312.5140279483096
 72
     1
 10
379.000479522548
 20
312.5140279483096
 11
379.000479522548
 21
310.5140279483109
 72
     2
 10
378.500479522548
 20
310.5140279483109
 40
0.5
 50
360.0
 51
450.0
 73
     0
 72
     1
 10
378.500479522548
 20
310.0140279483109
 11
371.0004795225466
 21
310.0140279483109
 97
        0
 75
     0
 76
     0
 52
44.99999999999999
 41
1.0
 77
     0
 78
     1
 53
45.0
 43
-2306.319091858085
 44
-842.4687288309309
 45
-0.7071067811865475
 46
0.7071067811865476
 79
     0
 98
        1
 10
411.9395883542308
 20
-198.4016403947881
1001
ACME_LAYERS
1000
1
1001
ACAD
1010
0.0
1020
0.0
1030
0.0
  0
LINE
  5
C9D
330
1F
100
AcDbEntity
  8
P-0000
  6
Continuous
 62
     7
100
AcDbLine
 10
351.0004795225389
 20
312.5140279483096
 30
0.0
 11
353.7761825374099
 21
312.5140279483096
 31
0.0
1001
ACME_LAYERS
1000
1
  0
LINE
  5
C9E
330
1F
100
AcDbEntity
  8
P-0000
  6
Continuous
 62
     7
100
AcDbLine
 10
370.4627590656649
 20
312.5140279483096
 30
0.0
 11
379.000479522548
 21
312.5140279483096
 31
0.0
1001
ACME_LAYERS
1000
1
  0
LINE
  5
C9F
330
1F
100
AcDbEntity
  8
P-0000
  6
Continuous
 62
     7
100
AcDbLine
 10
352.5544985284772
 20
308.0140279483096
 30
0.0
 11
381.0613706908619
 21
291.5555776316026
 31
0.0
1001
ACME_LAYERS
1000
1
  0
LINE
  5
CA0
330
1F
100
AcDbEntity
  8
P-0000
  6
Continuous
 62
     7
100
AcDbLine
 10
378.5613706908619
 20
308.0140279483096
 30
0.0
 11
371.5004795225457
 21
308.0140279483096
 31
0.0
1001
ACME_LAYERS
1000
1
  0
LINE
  5
CA1
330
1F
100
AcDbEntity
  8
P-0000
  6
Continuous
 62
     7
100
AcDbLine
 10
371.0004795225466
 20
310.0140279483109
 30
0.0
 11
378.500479522548
 21
310.0140279483109
 31
0.0
1001
ACME_LAYERS
1000
1
  0
LINE
  5
CA2
330
1F
100
AcDbEntity
  8
P-0000
  6
Continuous
 62
     7
100
AcDbLine
 10
291.0004795225548
 20
291.0196792467406
 30
0.0
 11
286.0004795225457
 21
291.0196792467406
 31
0.0
1001
ACME_LAYERS
1000
1
  0
LINE
  5
CA3
330
1F
100
AcDbEntity
  8
P-0000
  6
Continuous
 62
     7
100
AcDbLine
 10
286.0102397542672
 20
312.5140279483096
 30
0.0
 11
351.0004795225389
 21
312.5140279483096
 31
0.0
1001
ACME_LAYERS
1000
1
  0
LINE
  5
CA4
330
1F
100
AcDbEntity
  8
P-0000
  6
Continuous
 62
     7
100
AcDbLine
 10
286.0102397542672
 20
310.0140279483109
 30
0.0
 11
341.000479522548
 21
310.0140279483109
 31
0.0
1001
ACME_LAYERS
1000
1
  0
LINE
  5
CA5
330
1F
100
AcDbEntity
  8
P-0000
  6
Continuous
 62
     7
100
AcDbLine
 10
296.0004795225539
 20
308.0140279483096
 30
0.0
 11
347.0004795225389
 21
308.0140279483096
 31
0.0
1001
ACME_LAYERS
1000
1
  0
LINE
  5
CA6
330
1F
100
AcDbEntity
  8
P-0000
  6
Continuous
 62
     7
100
AcDbLine
 10
297.0004795225548
 20
293.0196792467406
 30
0.0
 11
297.0004795225548
 21
308.0140279483096
 31
0.0
1001
ACME_LAYERS
1000
1
  0
LINE
  5
CA7
330
1F
100
AcDbEntity
  8
P-0000
  6
Continuous
 62
     7
100
AcDbLine
 10
287.5004795225548
 20
308.0140279483096
 30
0.0
 11
296.0004795225539
 21
308.0140279483096
 31
0.0
1001
ACME_LAYERS
1000
1
  0
LINE
  5
CA8
330
1F
100
AcDbEntity
  8
P-0000
  6
Continuous
 62
     7
100
AcDbLine
 10
287.010239754284
 20
310.0140279483109
 30
0.0
 11
295.992495330085
 21
310.0140279483109
 31
0.0
1001
ACME_LAYERS
1000
1
  0
LINE
  5
CA9
330
1F
100
AcDbEntity
  8
P-0000
  6
Continuous
 62
     7
100
AcDbLine
 10
286.0102397542848
 20
310.0140279483109
 30
0.0
 11
287.010239754284
 21
310.0140279483109
 31
0.0
1001
ACME_LAYERS
1000
1
  0
LINE
  5
CAA
330
1F
100
AcDbEntity
  8
P-0000
  6
Continuous
 62
     7
100
AcDbLine
 10
286.0102397542848
 20
308.0140279483096
 30
0.0
 11
287.5004795225548
 21
308.0140279483096
 31
0.0
1001
ACME_LAYERS
1000
1
  0
LINE
  5
CAB
330
1F
100
AcDbEntity
  8
P-0000
  6
Continuous
 62
     7
100
AcDbLine
 10
285.9907192908261
 20
305.0140279483109
 30
0.0
 11
285.9907192908297
 21
305.0140279483109
 31
0.0
1001
ACME_LAYERS
1000
1
  0
LINE
  5
CAC
330
1F
100
AcDbEntity
  8
P-0000
  6
Continuous
 62
     7
100
AcDbLine
 10
286.0102397542808
 20
305.0140279483109
 30
0.0
 11
286.0102397542848
 21
305.0140279483109
 31
0.0
1001
ACME_LAYERS
1000
1
  0
LINE
  5
CAD
330
1F
100
AcDbEntity
  8
P-0000
  6
Continuous
 62
     7
100
AcDbLine
 10
296.0004795225539
 20
291.0196792467406
 30
0.0
 11
291.0004795225548
 21
291.0196792467406
 31
0.0
1001
ACME_LAYERS
1000
1
  0
HATCH
  5
CAE
330
1F
100
AcDbEntity
  8
P-0000
  6
Continuous
 62
     1
100
AcDbHatch
 10
0.0
 20
0.0
 30
0.0
210
0.0
220
0.0
230
1.0
  2
_U
 70
     0
 71
     0
 91
        1
 92
        1
 93
       11
 72
     1
 10
351.5004795225389
 20
310.0140279483109
 11
363.0004795225457
 21
310.0140279483109
 72
     1
 10
363.0004795225457
 20
310.0140279483109
 11
363.0004795225457
 21
308.0140279483096
 72
     1
 10
363.0004795225457
 20
308.0140279483096
 11
352.5544985284772
 21
308.0140279483096
 72
     1
 10
352.5544985284772
 20
308.0140279483096
 11
347.0004795225389
 21
308.0140279483096
 72
     1
 10
347.0004795225389
 20
308.0140279483096
 11
347.0004795225389
 21
310.0140279483109
 72
     1
 10
347.0004795225389
 20
310.0140279483109
 11
348.5004795225389
 21
310.0140279483109
 72
     2
 10
348.5004795225389
 20
310.5140279483109
 40
0.5
 50
-90.00000000000001
 51
-0.0000000000000127
 73
     1
 72
     1
 10
349.0004795225389
 20
310.5140279483109
 11
349.0004795225389
 21
312.5140279483096
 72
     1
 10
349.0004795225389
 20
312.5140279483096
 11
351.0004795225389
 21
312.5140279483096
 72
     1
 10
351.0004795225389
 20
312.5140279483096
 11
351.0004795225389
 21
310.5140279483109
 72
     2
 10
351.5004795225389
 20
310.5140279483109
 40
0.5
 50
180.0
 51
270.0
 73
     1
 97
        0
 75
     0
 76
     0
 52
44.99999999999999
 41
1.0
 77
     0
 78
     1
 53
45.0
 43
-2306.319091858085
 44
-842.4687288309309
 45
-0.7071067811865475
 46
0.7071067811865476
 79
     0
 98
        1
 10
411.9395883542308
 20
-198.4016403947881
1001
ACME_LAYERS
1000
1
1001
ACAD
1010
0.0
1020
0.0
1030
0.0
  0
LINE
  5
CAF
330
1F
100
AcDbEntity
  8
P-0000
  6
Continuous
 62
     7
100
AcDbLine
 10
351.5004795225389
 20
310.0140279483109
 30
0.0
 11
363.0004795225457
 21
310.0140279483109
 31
0.0
1001
ACME_LAYERS
1000
1
  0
LINE
  5
CB0
330
1F
100
AcDbEntity
  8
P-0000
  6
Continuous
 62
     7
100
AcDbLine
 10
347.0004795225389
 20
308.0140279483096
 30
0.0
 11
352.5544985284772
 21
308.0140279483096
 31
0.0
1001
ACME_LAYERS
1000
1
  0
LINE
  5
CB1
330
1F
100
AcDbEntity
  8
P-0000
  6
Continuous
 62
     7
100
AcDbLine
 10
341.000479522548
 20
310.0140279483109
 30
0.0
 11
347.0004795225389
 21
310.0140279483109
 31
0.0
1001
ACME_LAYERS
1000
1
  0
LINE
  5
CB2
330
1F
100
AcDbEntity
  8
P-0000
  6
Continuous
 62
     7
100
AcDbLine
 10
347.0004795225389
 20
308.0140279483096
 30
0.0
 11
347.0004795225389
 21
310.0140279483109
 31
0.0
1001
ACME_LAYERS
1000
1
  0
LINE
  5
CB3
330
1F
100
AcDbEntity
  8
P-0000
  6
Continuous
 62
     7
100
AcDbLine
 10
347.0004795225389
 20
310.0140279483109
 30
0.0
 11
348.5004795225389
 21
310.0140279483109
 31
0.0
1001
ACME_LAYERS
1000
1
  0
LINE
  5
CB4
330
1F
100
AcDbEntity
  8
P-0000
  6
Continuous
 62
     7
100
AcDbLine
 10
351.0004795225389
 20
310.5140279483109
 30
0.0
 11
351.0004795225389
 21
312.5140279483096
 31
0.0
1001
ACME_LAYERS
1000
1
  0
LINE
  5
CB5
330
1F
100
AcDbEntity
  8
P-0000
  6
Continuous
 62
     7
100
AcDbLine
 10
349.0004795225389
 20
310.5140279483109
 30
0.0
 11
349.0004795225389
 21
312.5140279483096
 31
0.0
1001
ACME_LAYERS
1000
1
  0
LINE
  5
CB6
330
1F
100
AcDbEntity
  8
P-0000
  6
Continuous
 62
     7
100
AcDbLine
 10
351.0004795225389
 20
312.5140279483096
 30
0.0
 11
349.0004795225389
 21
312.5140279483096
 31
0.0
1001
ACME_LAYERS
1000
1
  0
ARC
  5
CB7
330
1F
100
AcDbEntity
  8
P-0000
  6
Continuous
 62
     7
100
AcDbCircle
 10
351.5004795225389
 20
310.5140279483109
 30
0.0
 40
0.5
100
AcDbArc
 50
180.0
 51
270.0
1001
ACME_LAYERS
1000
1
  0
ARC
  5
CB8
330
1F
100
AcDbEntity
  8
P-0000
  6
Continuous
 62
     7
100
AcDbCircle
 10
348.5004795225389
 20
310.5140279483109
 30
0.0
 40
0.5
100
AcDbArc
 50
270.0
 51
0.0
1001
ACME_LAYERS
1000
1
  0
LINE
  5
CB9
330
1F
100
AcDbEntity
  8
P-0000
  6
Continuous
 62
     7
100
AcDbLine
 10
366.7113101276089
 20
308.0140279483096
 30
0.0
 11
363.0004795225457
 21
308.0140279483096
 31
0.0
1001
ACME_LAYERS
1000
1
  0
LINE
  5
CBA
330
1F
100
AcDbEntity
  8
P-0000
  6
Continuous
 62
     7
100
AcDbLine
 10
363.0004795225457
 20
310.0140279483109
 30
0.0
 11
371.0004795225466
 21
310.0140279483109
 31
0.0
1001
ACME_LAYERS
1000
1
  0
LINE
  5
CBB
330
1F
100
AcDbEntity
  8
P-0000
  6
Continuous
 62
     7
100
AcDbLine
 10
363.0004795225457
 20
308.0140279483096
 30
0.0
 11
352.5544985284772
 21
308.0140279483096
 31
0.0
1001
ACME_LAYERS
1000
1
  0
LINE
  5
CBC
330
1F
100
AcDbEntity
  8
P-0000
  6
Continuous
 62
     7
100
AcDbLine
 10
363.0004795225457
 20
310.0140279483109
 30
0.0
 11
363.0004795225457
 21
308.0140279483096
 31
0.0
1001
ACME_LAYERS
1000
1
  0
LINE
  5
CBD
330
1F
100
AcDbEntity
  8
P-0000
  6
Continuous
 62
     7
100
AcDbLine
 10
368.510239754269
 20
310.0140279483109
 30
0.0
 11
369.5102397542691
 21
310.0140279483109
 31
0.0
1001
ACME_LAYERS
1000
1
  0
LINE
  5
CBE
330
1F
100
AcDbEntity
  8
P-0000
  6
Continuous
 62
     7
100
AcDbLine
 10
368.510239754269
 20
310.0140279483109
 30
0.0
 11
369.5102397542691
 21
310.0140279483109
 31
0.0
1001
ACME_LAYERS
1000
1
  0
LINE
  5
CBF
330
1F
100
AcDbEntity
  8
P-0000
  6
Continuous
 62
     7
100
AcDbLine
 10
407.7504795225388
 20
293.0196792467406
 30
0.0
 11
397.7504795225389
 21
293.0196792467406
 31
0.0
1001
ACME_LAYERS
1000
1
  0
LINE
  5
CC0
330
1F
100
AcDbEntity
  8
P-0000
  6
Continuous
 62
     7
100
AcDbLine
 10
407.7504795225388
 20
291.0196792467406
 30
0.0
 11
397.7504795225389
 21
291.0196792467406
 31
0.0
1001
ACME_LAYERS
1000
1
  0
LINE
  5
CC1
330
1F
100
AcDbEntity
  8
P-0000
  6
Continuous
 62
     7
100
AcDbLine
 10
379.0613706908628
 20
295.0196792467397
 30
0.0
 11
379.0613706908628
 21
307.5140279483109
 31
0.0
1001
ACME_LAYERS
1000
1
  0
LINE
  5
CC2
330
1F
100
AcDbEntity
  8
P-0000
  6
Continuous
 62
     7
100
AcDbLine
 10
381.0004795225466
 20
295.0196792467397
 30
0.0
 11
381.0004795225466
 21
310.0140279483109
 31
0.0
1001
ACME_LAYERS
1000
1
  0
LINE
  5
CC3
330
1F
100
AcDbEntity
  8
P-0000
  6
Continuous
 62
     7
100
AcDbLine
 10
390.8121713201006
 20
293.0196792467406
 30
0.0
 11
381.0004795225466
 21
310.0140279483109
 31
0.0
1001
ACME_LAYERS
1000
1
  0
LINE
  5
CC4
330
1F
100
AcDbEntity
  8
P-0000
  6
Continuous
 62
     7
100
AcDbLine
 10
381.0004795225466
 20
312.5140279483096
 30
0.0
 11
379.000479522548
 21
312.5140279483096
 31
0.0
1001
ACME_LAYERS
1000
1
  0
LINE
  5
CC5
330
1F
100
AcDbEntity
  8
P-0000
  6
Continuous
 62
     7
100
AcDbLine
 10
379.000479522548
 20
312.5140279483096
 30
0.0
 11
379.000479522548
 21
310.5140279483109
 31
0.0
1001
ACME_LAYERS
1000
1
  0
ARC
  5
CC6
330
1F
100
AcDbEntity
  8
P-0000
  6
Continuous
 62
     7
100
AcDbCircle
 10
378.500479522548
 20
310.5140279483109
 30
0.0
 40
0.5
100
AcDbArc
 50
270.0
 51
0.0
1001
ACME_LAYERS
1000
1
  0
ARC
  5
CC7
330
1F
100
AcDbEntity
  8
P-0000
  6
Continuous
 62
     7
100
AcDbCircle
 10
378.5613706908619
 20
307.5140279483109
 30
0.0
 40
0.5
100
AcDbArc
 50
0.0
 51
90.0
1001
ACME_LAYERS
1000
1
  0
LINE
  5
CC8
330
1F
100
AcDbEntity
  8
P-0000
  6
Continuous
 62
     7
100
AcDbLine
 10
381.0004795225466
 20
312.5140279483096
 30
0.0
 11
381.0004795225466
 21
310.0140279483109
 31
0.0
1001
ACME_LAYERS
1000
1
  0
LINE
  5
CC9
330
1F
100
AcDbEntity
  8
P-0000
  6
Continuous
 62
     7
100
AcDbLine
 10
390.8121713201006
 20
293.0196792467406
 30
0.0
 11
383.0004795225466
 21
293.0196792467406
 31
0.0
1001
ACME_LAYERS
1000
1
  0
LINE
  5
CCA
330
1F
100
AcDbEntity
  8
P-0000
  6
Continuous
 62
     7
100
AcDbLine
 10
397.7504795225389
 20
291.0196792467406
 30
0.0
 11
383.0613706908628
 21
291.0196792467406
 31
0.0
1001
ACME_LAYERS
1000
1
  0
ARC
  5
CCB
330
1F
100
AcDbEntity
  8
P-0000
  6
Continuous
 62
     7
100
AcDbCircle
 10
383.0004795225466
 20
295.0196792467397
 30
0.0
 40
2.0
100
AcDbArc
 50
180.0
 51
270.0
1001
ACME_LAYERS
1000
1
  0
ARC
  5
CCC
330
1F
100
AcDbEntity
  8
P-0000
  6
Continuous
 62
     7
100
AcDbCircle
 10
383.0613706908628
 20
295.0196792467397
 30
0.0
 40
4.0
100
AcDbArc
 50
180.0
 51
240.0000000000039
1001
ACME_LAYERS
1000
1
  0
LINE
  5
CCD
330
1F
100
AcDbEntity
  8
P-0000
  6
Continuous
 62
     7
100
AcDbLine
 10
397.7504795225389
 20
293.0196792467406
 30
0.0
 11
390.8121713201006
 21
293.0196792467406
 31
0.0
1001
ACME_LAYERS
1000
1
  0
LINE
  5
CCE
330
1F
100
AcDbEntity
  8
P-0000
  6
Continuous
 62
     7
100
AcDbLine
 10
397.7504795225389
 20
291.0196792467406
 30
0.0
 11
397.7504795225389
 21
293.0196792467406
 31
0.0
1001
ACME_LAYERS
1000
1
  0
LINE
  5
CCF
330
1F
100
AcDbEntity
  8
AM_7
  6
AM_DIN_G_W050x2
100
AcDbLine
 10
402.750479522538
 20
277.2826119848836
 30
0.0
 11
402.750479522538
 21
304.1669606864527
 31
0.0
1001
ACME_LAYERS
1000
1
  0
HATCH
  5
CD0
330
1F
100
AcDbEntity
  8
P-0000
  6
Continuous
 62
     1
100
AcDbHatch
 10
0.0
 20
0.0
 30
0.0
210
0.0
220
0.0
230
1.0
  2
_U
 70
     0
 71
     0
 91
        1
 92
        1
 93
        4
 72
     1
 10
412.7504795225389
 20
291.0196792467406
 11
407.7504795225388
 21
291.0196792467406
 72
     1
 10
407.7504795225388
 20
291.0196792467406
 11
407.7504795225388
 21
293.0196792467406
 72
     1
 10
407.7504795225388
 20
293.0196792467406
 11
412.7504795225389
 21
293.0196792467406
 72
     1
 10
412.7504795225389
 20
293.0196792467406
 11
412.7504795225389
 21
291.0196792467406
 97
        0
 75
     0
 76
     0
 52
44.99999999999999
 41
1.0
 77
     0
 78
     1
 53
45.0
 43
19.64929416622527
 44
118.6756574725197
 45
-0.7071067811865475
 46
0.7071067811865476
 79
     0
 98
        1
 10
411.9395883542308
 20
-198.4016403947881
1001
ACME_LAYERS
1000
1
1001
ACAD
1010
0.0
1020
0.0
1030
0.0
  0
LINE
  5
CD1
330
1F
100
AcDbEntity
  8
P-0000
  6
Continuous
 62
     7
100
AcDbLine
 10
412.7504795225389
 20
293.0196792467406
 30
0.0
 11
407.7504795225388
 21
293.0196792467406
 31
0.0
1001
ACME_LAYERS
1000
1
  0
LINE
  5
CD2
330
1F
100
AcDbEntity
  8
P-0000
  6
Continuous
 62
     7
100
AcDbLine
 10
412.7504795225389
 20
291.0196792467406
 30
0.0
 11
407.7504795225388
 21
291.0196792467406
 31
0.0
1001
ACME_LAYERS
1000
1
  0
LINE
  5
CD3
330
1F
100
AcDbEntity
  8
P-0000
  6
Continuous
 62
     7
100
AcDbLine
 10
407.7504795225388
 20
291.0196792467406
 30
0.0
 11
407.7504795225388
 21
293.0196792467406
 31
0.0
1001
ACME_LAYERS
1000
1
  0
LINE
  5
CD4
330
1F
100
AcDbEntity
  8
P-0000
  6
Continuous
 62
     7
100
AcDbLine
 10
412.7504795225389
 20
291.0196792467406
 30
0.0
 11
412.7504795225389
 21
293.0196792467406
 31
0.0
1001
ACME_LAYERS
1000
1
  0
LINE
  5
CD5
330
1F
100
AcDbEntity
  8
P-0000
  6
Continuous
 62
     7
100
AcDbLine
 10
287.500479522548
 20
351.9648563653267
 30
0.0
 11
287.500479522548
 21
315.9648563653288
 31
0.0
1001
ACME_LAYERS
1000
1
  0
LINE
  5
CD6
330
1F
100
AcDbEntity
  8
P-0000
  6
Continuous
 62
     7
100
AcDbLine
 10
362.4481499335278
 20
334.5339855646169
 30
0.0
 11
363.4269391498108
 21
331.8447842944688
 31
0.0
1001
ACME_LAYERS
1000
1
  0
LINE
  5
CD7
330
1F
100
AcDbEntity
  8
P-0000
  6
Continuous
 62
     7
100
AcDbLine
 10
353.776182537413
 20
315.9648563653288
 30
0.0
 11
340.6732541038271
 21
351.9648563653267
 31
0.0
1001
ACME_LAYERS
1000
1
  0
LINE
  5
CD8
330
1F
100
AcDbEntity
  8
P-0000
  6
Continuous
 62
     7
100
AcDbLine
 10
287.500479522548
 20
357.9345054649597
 30
0.0
 11
338.5004795225466
 21
357.9345054649597
 31
0.0
1001
ACME_LAYERS
1000
1
  0
LINE
  5
CD9
330
1F
100
AcDbEntity
  8
P-0000
  6
Continuous
 62
     7
100
AcDbLine
 10
287.500479522548
 20
357.9345054649597
 30
0.0
 11
338.5004795225466
 21
357.9345054649597
 31
0.0
1001
ACME_LAYERS
1000
1
  0
LINE
  5
CDA
330
1F
100
AcDbEntity
  8
P-0000
  6
Continuous
 62
     7
100
AcDbLine
 10
333.8704724440957
 20
389.9648563653279
 30
0.0
 11
326.8423852017102
 21
389.9648563653279
 31
0.0
1001
ACME_LAYERS
1000
1
  0
LINE
  5
CDB
330
1F
100
AcDbEntity
  8
P-0000
  6
Continuous
 62
     7
100
AcDbLine
 10
339.5004795225457
 20
351.9648563653267
 30
0.0
 11
287.500479522548
 21
351.9648563653267
 31
0.0
1001
ACME_LAYERS
1000
1
  0
LINE
  5
CDC
330
1F
100
AcDbEntity
  8
P-0000
  6
Continuous
 62
     7
100
AcDbLine
 10
332.3019387157049
 20
374.9648563653267
 30
0.0
 11
290.1046425785797
 21
374.9648563653267
 31
0.0
1001
ACME_LAYERS
1000
1
  0
LINE
  5
CDD
330
1F
100
AcDbEntity
  8
P-0000
  6
Continuous
 62
     7
100
AcDbLine
 10
287.500479522548
 20
374.9648563653267
 30
0.0
 11
287.500479522548
 21
357.9345054649597
 31
0.0
1001
ACME_LAYERS
1000
1
  0
LINE
  5
CDE
330
1F
100
AcDbEntity
  8
P-0000
  6
Continuous
 62
     7
100
AcDbLine
 10
324.7140296567589
 20
389.9648563653279
 30
0.0
 11
290.1046425785797
 21
389.9648563653279
 31
0.0
1001
ACME_LAYERS
1000
1
  0
LINE
  5
CDF
330
1F
100
AcDbEntity
  8
P-0000
  6
Continuous
 62
     7
100
AcDbLine
 10
290.1046425785797
 20
389.9648563653279
 30
0.0
 11
290.1046425785797
 21
374.9648563653267
 31
0.0
1001
ACME_LAYERS
1000
1
  0
LINE
  5
CE0
330
1F
100
AcDbEntity
  8
P-0000
  6
Continuous
 62
     7
100
AcDbLine
 10
290.1046425785797
 20
389.9648563653279
 30
0.0
 11
286.000479522548
 21
389.9648563653279
 31
0.0
1001
ACME_LAYERS
1000
1
  0
LINE
  5
CE1
330
1F
100
AcDbEntity
  8
P-0000
  6
Continuous
 62
     7
100
AcDbLine
 10
290.1046425785797
 20
374.9648563653267
 30
0.0
 11
287.500479522548
 21
374.9648563653267
 31
0.0
1001
ACME_LAYERS
1000
1
  0
LINE
  5
CE2
330
1F
100
AcDbEntity
  8
P-0000
  6
Continuous
 62
     7
100
AcDbLine
 10
287.500479522548
 20
374.9648563653267
 30
0.0
 11
286.000479522548
 21
374.9648563653267
 31
0.0
1001
ACME_LAYERS
1000
1
  0
LINE
  5
CE3
330
1F
100
AcDbEntity
  8
P-0000
  6
Continuous
 62
     7
100
AcDbLine
 10
286.000479522548
 20
374.9648563653267
 30
0.0
 11
284.5004795225457
 21
374.9648563653267
 31
0.0
1001
ACME_LAYERS
1000
1
  0
HATCH
  5
CE4
330
1F
100
AcDbEntity
  8
P-0000
  6
Continuous
 62
     1
100
AcDbHatch
 10
0.0
 20
0.0
 30
0.0
210
0.0
220
0.0
230
1.0
  2
_U
 70
     0
 71
     0
 91
        1
 92
        1
 93
        5
 72
     1
 10
328.2982661387749
 20
385.964856365328
 11
326.8423852017102
 21
389.9648563653279
 72
     1
 10
326.8423852017102
 20
389.9648563653279
 11
324.7140296567589
 21
389.9648563653279
 72
     1
 10
324.7140296567589
 20
389.9648563653279
 11
325.9304255112468
 21
386.6228362220028
 72
     2
 10
326.8701181320337
 20
386.9648563653279
 40
1.000000000000015
 50
200.0000000000031
 51
270.0
 73
     1
 72
     1
 10
326.8701181320337
 20
385.964856365328
 11
328.2982661387749
 21
385.964856365328
 97
        0
 75
     0
 76
     0
 52
44.99999999999999
 41
1.0
 77
     0
 78
     1
 53
45.0
 43
113.409452286486
 44
428.4629393973068
 45
-0.7071067811865474
 46
0.7071067811865479
 79
     0
 98
        1
 10
411.9493485859528
 20
-178.5139993030262
1001
ACME_LAYERS
1000
1
  0
LINE
  5
CE5
330
1F
100
AcDbEntity
  8
P-0000
  6
Continuous
 62
     7
100
AcDbLine
 10
325.9304255112468
 20
386.6228362220018
 30
0.0
 11
324.7140296567589
 21
389.9648563653279
 31
0.0
1001
ACME_LAYERS
1000
1
  0
LINE
  5
CE6
330
1F
100
AcDbEntity
  8
P-0000
  6
Continuous
 62
     7
100
AcDbLine
 10
328.2982661387749
 20
385.964856365328
 30
0.0
 11
326.8423852017102
 21
389.9648563653279
 31
0.0
1001
ACME_LAYERS
1000
1
  0
LINE
  5
CE7
330
1F
100
AcDbEntity
  8
P-0000
  6
Continuous
 62
     7
100
AcDbLine
 10
326.8423852017102
 20
389.9648563653279
 30
0.0
 11
324.7140296567589
 21
389.9648563653279
 31
0.0
1001
ACME_LAYERS
1000
1
  0
ARC
  5
CE8
330
1F
100
AcDbEntity
  8
P-0000
  6
Continuous
 62
     7
100
AcDbCircle
 10
326.8701181320337
 20
386.9648563653279
 30
0.0
 40
1.000000000000015
100
AcDbArc
 50
200.0000000000006
 51
270.0
1001
ACME_LAYERS
1000
1
  0
ARC
  5
CE9
330
1F
100
AcDbEntity
  8
P-0000
  6
Continuous
 62
     7
100
AcDbCircle
 10
326.8701181320337
 20
386.9648563653279
 30
0.0
 40
1.000000000000015
100
AcDbArc
 50
200.0000000000006
 51
270.0
1001
ACME_LAYERS
1000
1
  0
LINE
  5
CEA
330
1F
100
AcDbEntity
  8
P-0000
  6
Continuous
 62
     7
100
AcDbLine
 10
328.2982661387749
 20
385.964856365328
 30
0.0
 11
326.8701181320337
 21
385.964856365328
 31
0.0
1001
ACME_LAYERS
1000
1
  0
LINE
  5
CEB
330
1F
100
AcDbEntity
  8
P-0000
  6
Continuous
 62
     7
100
AcDbLine
 10
286.000479522548
 20
357.9345054649597
 30
0.0
 11
287.500479522548
 21
357.9345054649597
 31
0.0
1001
ACME_LAYERS
1000
1
  0
LINE
  5
CEC
330
1F
100
AcDbEntity
  8
P-0000
  6
Continuous
 62
     7
100
AcDbLine
 10
286.000479522548
 20
357.9345054649597
 30
0.0
 11
287.500479522548
 21
357.9345054649597
 31
0.0
1001
ACME_LAYERS
1000
1
  0
LINE
  5
CED
330
1F
100
AcDbEntity
  8
P-0000
  6
Continuous
 62
     7
100
AcDbLine
 10
287.500479522548
 20
351.9648563653267
 30
0.0
 11
286.000479522548
 21
351.9648563653267
 31
0.0
1001
ACME_LAYERS
1000
1
  0
LINE
  5
CEE
330
1F
100
AcDbEntity
  8
P-0000
  6
Continuous
 62
     7
100
AcDbLine
 10
345.1467838935258
 20
382.0690980852359
 30
0.0
 11
362.4481499335278
 21
334.5339855646169
 31
0.0
1001
ACME_LAYERS
1000
1
  0
LINE
  5
CEF
330
1F
100
AcDbEntity
  8
P-0000
  6
Continuous
 62
     7
100
AcDbLine
 10
338.5004795225466
 20
357.9345054649597
 30
0.0
 11
332.3019387157049
 21
374.9648563653267
 31
0.0
1001
ACME_LAYERS
1000
1
  0
ARC
  5
CF0
330
1F
100
AcDbEntity
  8
P-0000
  6
Continuous
 62
     7
100
AcDbCircle
 10
333.8704724440957
 20
377.9648563653279
 30
0.0
 40
11.99999999999995
100
AcDbArc
 50
19.99999999998923
 51
90.0
1001
ACME_LAYERS
1000
1
  0
HATCH
  5
CF1
330
1F
100
AcDbEntity
  8
P-0000
  6
Continuous
 62
     3
100
AcDbHatch
 10
0.0
 20
0.0
 30
0.0
210
0.0
220
0.0
230
1.0
  2
_U
 70
     0
 71
     0
 91
        1
 92
        1
 93
        4
 72
     1
 10
340.6732541038271
 20
351.9648563653267
 11
338.5004795225466
 21
357.9345054649597
 72
     1
 10
338.5004795225466
 20
357.9345054649597
 11
338.5004795225466
 21
352.9648563653279
 72
     2
 10
339.5004795225457
 20
352.9648563653279
 40
1.0
 50
180.0
 51
270.0
 73
     1
 72
     1
 10
339.5004795225457
 20
351.9648563653267
 11
340.6732541038271
 21
351.9648563653267
 97
        0
 75
     0
 76
     0
 52
44.99999999999999
 41
1.0
 77
     0
 78
     1
 53
45.0
 43
411.9493485859528
 44
-178.5139993030262
 45
-0.7071067811865474
 46
0.7071067811865479
 79
     0
 98
        1
 10
411.9493485859528
 20
-178.5139993030262
1001
ACME_LAYERS
1000
1
  0
LINE
  5
CF2
330
1F
100
AcDbEntity
  8
P-0000
  6
Continuous
 62
     7
100
AcDbLine
 10
340.6732541038271
 20
351.9648563653267
 30
0.0
 11
339.5004795225457
 21
351.9648563653267
 31
0.0
1001
ACME_LAYERS
1000
1
  0
LINE
  5
CF3
330
1F
100
AcDbEntity
  8
P-0000
  6
Continuous
 62
     7
100
AcDbLine
 10
340.6732541038271
 20
351.9648563653267
 30
0.0
 11
338.5004795225466
 21
357.9345054649597
 31
0.0
1001
ACME_LAYERS
1000
1
  0
LINE
  5
CF4
330
1F
100
AcDbEntity
  8
P-0000
  6
Continuous
 62
     7
100
AcDbLine
 10
338.5004795225466
 20
352.9648563653279
 30
0.0
 11
338.5004795225466
 21
357.9345054649597
 31
0.0
1001
ACME_LAYERS
1000
1
  0
LINE
  5
CF5
330
1F
100
AcDbEntity
  8
P-0000
  6
Continuous
 62
     7
100
AcDbLine
 10
338.5004795225466
 20
352.9648563653279
 30
0.0
 11
338.5004795225466
 21
357.9345054649597
 31
0.0
1001
ACME_LAYERS
1000
1
  0
ARC
  5
CF6
330
1F
100
AcDbEntity
  8
P-0000
  6
Continuous
 62
     7
100
AcDbCircle
 10
339.5004795225457
 20
352.9648563653279
 30
0.0
 40
1.0
100
AcDbArc
 50
180.0
 51
270.0
1001
ACME_LAYERS
1000
1
  0
ARC
  5
CF7
330
1F
100
AcDbEntity
  8
P-0000
  6
Continuous
 62
     7
100
AcDbCircle
 10
339.5004795225457
 20
352.9648563653279
 30
0.0
 40
1.0
100
AcDbArc
 50
180.0
 51
270.0
1001
ACME_LAYERS
1000
1
  0
LINE
  5
CF8
330
1F
100
AcDbEntity
  8
P-0000
  6
Continuous
 62
     7
100
AcDbLine
 10
287.500479522548
 20
315.9648563653288
 30
0.0
 11
353.776182537413
 21
315.9648563653288
 31
0.0
1001
ACME_LAYERS
1000
1
  0
LINE
  5
CF9
330
1F
100
AcDbEntity
  8
P-0000
  6
Continuous
 62
     7
100
AcDbLine
 10
287.500479522548
 20
315.9648563653288
 30
0.0
 11
353.776182537413
 21
315.9648563653288
 31
0.0
1001
ACME_LAYERS
1000
1
  0
LINE
  5
CFA
330
1F
100
AcDbEntity
  8
P-0000
  6
Continuous
 62
     7
100
AcDbLine
 10
287.500479522548
 20
315.9648563653288
 30
0.0
 11
353.776182537413
 21
315.9648563653288
 31
0.0
1001
ACME_LAYERS
1000
1
  0
LINE
  5
CFB
330
1F
100
AcDbEntity
  8
P-0000
  6
Continuous
 62
     7
100
AcDbLine
 10
353.776182537413
 20
309.9648563653279
 30
0.0
 11
287.500479522548
 21
309.9648563653279
 31
0.0
1001
ACME_LAYERS
1000
1
  0
LINE
  5
CFC
330
1F
100
AcDbEntity
  8
P-0000
  6
Continuous
 62
     7
100
AcDbLine
 10
286.000479522548
 20
315.9648563653288
 30
0.0
 11
287.500479522548
 21
315.9648563653288
 31
0.0
1001
ACME_LAYERS
1000
1
  0
LINE
  5
CFD
330
1F
100
AcDbEntity
  8
P-0000
  6
Continuous
 62
     7
100
AcDbLine
 10
286.000479522548
 20
315.9648563653288
 30
0.0
 11
287.500479522548
 21
315.9648563653288
 31
0.0
1001
ACME_LAYERS
1000
1
  0
LINE
  5
CFE
330
1F
100
AcDbEntity
  8
P-0000
  6
Continuous
 62
     7
100
AcDbLine
 10
286.000479522548
 20
315.9648563653288
 30
0.0
 11
287.500479522548
 21
315.9648563653288
 31
0.0
1001
ACME_LAYERS
1000
1
  0
LINE
  5
CFF
330
1F
100
AcDbEntity
  8
P-0000
  6
Continuous
 62
     7
100
AcDbLine
 10
287.500479522548
 20
309.9648563653279
 30
0.0
 11
286.000479522548
 21
309.9648563653279
 31
0.0
1001
ACME_LAYERS
1000
1
  0
LINE
  5
D00
330
1F
100
AcDbEntity
  8
P-0000
  6
Continuous
 62
     7
100
AcDbLine
 10
363.4269391498108
 20
331.8447842944688
 30
0.0
 11
371.0004795225466
 21
311.0366531350518
 31
0.0
1001
ACME_LAYERS
1000
1
  0
LINE
  5
D01
330
1F
100
AcDbEntity
  8
P-0000
  6
Continuous
 62
     7
100
AcDbLine
 10
365.0004795225466
 20
309.9648563653279
 30
0.0
 11
356.7761825374121
 21
309.9648563653279
 31
0.0
1001
ACME_LAYERS
1000
1
  0
LINE
  5
D02
330
1F
100
AcDbEntity
  8
P-0000
  6
Continuous
 62
     7
100
AcDbLine
 10
356.7761825374121
 20
309.9648563653279
 30
0.0
 11
356.7761825374121
 21
315.9648563653288
 31
0.0
1001
ACME_LAYERS
1000
1
  0
LINE
  5
D03
330
1F
100
AcDbEntity
  8
P-0000
  6
Continuous
 62
     7
100
AcDbLine
 10
353.776182537413
 20
309.9648563653279
 30
0.0
 11
353.776182537413
 21
315.9648563653288
 31
0.0
1001
ACME_LAYERS
1000
1
  0
LINE
  5
D04
330
1F
100
AcDbEntity
  8
P-0000
  6
Continuous
 62
     7
100
AcDbLine
 10
353.776182537413
 20
315.9648563653288
 30
0.0
 11
356.7761825374121
 21
315.9648563653288
 31
0.0
1001
ACME_LAYERS
1000
1
  0
LINE
  5
D05
330
1F
100
AcDbEntity
  8
P-0000
  6
Continuous
 62
     7
100
AcDbLine
 10
353.776182537413
 20
315.9648563653288
 30
0.0
 11
356.7761825374121
 21
315.9648563653288
 31
0.0
1001
ACME_LAYERS
1000
1
  0
LINE
  5
D06
330
1F
100
AcDbEntity
  8
P-0000
  6
Continuous
 62
     7
100
AcDbLine
 10
356.7761825374121
 20
309.9648563653279
 30
0.0
 11
353.776182537413
 21
309.9648563653279
 31
0.0
1001
ACME_LAYERS
1000
1
  0
LINE
  5
D07
330
1F
100
AcDbEntity
  8
P-0000
  6
Continuous
 62
     7
100
AcDbLine
 10
371.5004795225457
 20
307.7648563653269
 30
0.0
 11
371.5004795225457
 21
309.9648563653279
 31
0.0
1001
ACME_LAYERS
1000
1
  0
LINE
  5
D08
330
1F
100
AcDbEntity
  8
P-0000
  6
Continuous
 62
     7
100
AcDbLine
 10
370.2242492559979
 20
304.0082885965357
 30
0.0
 11
365.0004795225466
 21
309.9648563653279
 31
0.0
1001
ACME_LAYERS
1000
1
  0
LINE
  5
D09
330
1F
100
AcDbEntity
  8
P-0000
  6
Continuous
 62
     7
100
AcDbLine
 10
371.0004795225466
 20
309.9648563653279
 30
0.0
 11
371.0004795225466
 21
311.0366531350518
 31
0.0
1001
ACME_LAYERS
1000
1
  0
LINE
  5
D0A
330
1F
100
AcDbEntity
  8
P-0000
  6
Continuous
 62
     7
100
AcDbLine
 10
371.5004795225457
 20
309.9648563653279
 30
0.0
 11
371.0004795225466
 21
309.9648563653279
 31
0.0
1001
ACME_LAYERS
1000
1
  0
LINE
  5
D0B
330
1F
100
AcDbEntity
  8
P-0000
  6
Continuous
 62
     7
100
AcDbLine
 10
371.0004795225466
 20
309.9648563653279
 30
0.0
 11
371.0004795225466
 21
311.0366531350518
 31
0.0
1001
ACME_LAYERS
1000
1
  0
LINE
  5
D0C
330
1F
100
AcDbEntity
  8
P-0000
  6
Continuous
 62
     7
100
AcDbLine
 10
372.7004795225478
 20
306.2648563653278
 30
0.0
 11
371.1416523304773
 21
304.0673145941277
 31
0.0
1001
ACME_LAYERS
1000
1
  0
LINE
  5
D0D
330
1F
100
AcDbEntity
  8
P-0000
  6
Continuous
 62
     7
100
AcDbLine
 10
371.5004795225457
 20
307.7648563653269
 30
0.0
 11
372.7004795225478
 21
307.7648563653269
 31
0.0
1001
ACME_LAYERS
1000
1
  0
LINE
  5
D0E
330
1F
100
AcDbEntity
  8
P-0000
  6
Continuous
 62
     7
100
AcDbLine
 10
372.7004795225478
 20
307.7648563653269
 30
0.0
 11
372.7004795225478
 21
306.2648563653278
 31
0.0
1001
ACME_LAYERS
1000
1
  0
ARC
  5
D0F
330
1F
100
AcDbEntity
  8
P-0000
  6
Continuous
 62
     7
100
AcDbCircle
 10
370.6522725283929
 20
304.4144563653278
 30
0.0
 40
0.6000000000000229
100
AcDbArc
 50
270.0
 51
324.6500000000033
1001
ACME_LAYERS
1000
1
  0
ARC
  5
D10
330
1F
100
AcDbEntity
  8
P-0000
  6
Continuous
 62
     7
100
AcDbCircle
 10
370.6520461064536
 20
304.3834563653278
 30
0.0
 40
0.5689999999999894
100
AcDbArc
 50
221.2500000000013
 51
270.0
1001
ACME_LAYERS
1000
1
  0
LINE
  5
D11
330
1F
100
AcDbEntity
  8
P-0000
  6
Continuous
 62
     7
100
AcDbLine
 10
370.6522725283929
 20
303.8144563653276
 30
0.0
 11
370.6520461064536
 21
303.8144563653276
 31
0.0
1001
ACME_LAYERS
1000
1
  0
HATCH
  5
D12
330
1F
100
AcDbEntity
  8
AM_8
100
AcDbHatch
 10
0.0
 20
0.0
 30
0.0
210
0.0
220
0.0
230
1.0
  2
_U
 70
     0
 71
     0
 91
        1
 92
        1
 93
        4
 72
     1
 10
356.7761825374121
 20
315.9648563653288
 11
353.776182537413
 21
315.9648563653288
 72
     1
 10
353.776182537413
 20
315.9648563653288
 11
353.776182537413
 21
309.9648563653279
 72
     1
 10
353.776182537413
 20
309.9648563653279
 11
356.7761825374121
 21
309.9648563653279
 72
     1
 10
356.7761825374121
 20
309.9648563653279
 11
356.7761825374121
 21
315.9648563653288
 97
        0
 75
     0
 76
     0
 52
44.99999999999999
 41
1.0
 77
     0
 78
     1
 53
45.0
 43
113.409452286486
 44
428.4629393973068
 45
-0.7071067811865474
 46
0.7071067811865479
 79
     0
 98
        1
 10
113.409452286486
 20
428.4629393973068
1001
GENIUS_GENODEF_13
1002
{
1000
HIER
1070
     0
1002
}
1002
{
1000
MANEDIT
1070
     0
1002
}
1002
{
1000
NOSEL
1070
     0
1002
}
1002
{
1000
BEHIND
1070
     0
1002
}
1002
{
1000
OTHER
1070
     0
1002
}
1002
{
1000
REACTOR
1002
}
1001
GENIUS_GENOBJ-N-HTC_13
1002
{
1000
OWNER
1000
GEN
1002
}
1001
GENIUS_GENHATCH_13
1002
{
1000
DATA
1040
135.0
1042
1.0
1000
_U
1070
     0
1011
354.5451593528599
1021
310.4234434118457
1031
0.0
1002
}
1002
{
1000
UCS
1010
0.0
1020
0.0
1030
0.0
1010
1.0
1020
0.0
1030
0.0
1010
0.0
1020
1.0
1030
0.0
1002
}
  0
LINE
  5
D13
330
1F
100
AcDbEntity
  8
P-0000
  6
Continuous
 62
     7
100
AcDbLine
 10
165.2330222848257
 20
293.0196792467429
 30
0.0
 11
175.2330222848257
 21
293.0196792467415
 31
0.0
1001
ACME_LAYERS
1000
1
  0
LINE
  5
D14
330
1F
100
AcDbEntity
  8
P-0000
  6
Continuous
 62
     7
100
AcDbLine
 10
167.0330222848259
 20
304.1669606864547
 30
0.0
 11
170.2330222848257
 21
304.1669606864547
 31
0.0
1001
ACME_LAYERS
1000
1
  0
LINE
  5
D15
330
1F
100
AcDbEntity
  8
P-0000
  6
Continuous
 62
     7
100
AcDbLine
 10
173.4330222848251
 20
303.5669606864525
 30
0.0
 11
167.0330222848259
 21
303.5669606864548
 31
0.0
1001
ACME_LAYERS
1000
1
  0
LINE
  5
D16
330
1F
100
AcDbEntity
  8
P-0000
  6
Continuous
 62
     7
100
AcDbLine
 10
166.2330222848257
 20
303.5669606864548
 30
0.0
 11
166.2330222848257
 21
300.6196792467408
 31
0.0
1001
ACME_LAYERS
1000
1
  0
LINE
  5
D17
330
1F
100
AcDbEntity
  8
P-0000
  6
Continuous
 62
     3
100
AcDbLine
 10
167.0330222848259
 20
304.1669606864547
 30
0.0
 11
167.0330222848259
 21
300.6196792467408
 31
0.0
1001
ACME_LAYERS
1000
1
  0
LINE
  5
D18
330
1F
100
AcDbEntity
  8
P-0000
  6
Continuous
 62
     7
100
AcDbLine
 10
167.0330222848259
 20
303.5669606864548
 30
0.0
 11
166.2330222848257
 21
303.5669606864548
 31
0.0
1001
ACME_LAYERS
1000
1
  0
LINE
  5
D19
330
1F
100
AcDbEntity
  8
P-0000
  6
Continuous
 62
     3
100
AcDbLine
 10
167.0330222848259
 20
304.1669606864547
 30
0.0
 11
167.0330222848259
 21
303.5669606864548
 31
0.0
1001
ACME_LAYERS
1000
1
  0
LINE
  5
D1A
330
1F
100
AcDbEntity
  8
P-0000
  6
Continuous
 62
     7
100
AcDbLine
 10
166.2330222848257
 20
303.5669606864548
 30
0.0
 11
167.0330222848259
 21
304.1669606864547
 31
0.0
1001
ACME_LAYERS
1000
1
  0
LINE
  5
D1B
330
1F
100
AcDbEntity
  8
P-0000
  6
Continuous
 62
     7
100
AcDbLine
 10
174.2330222848271
 20
303.5669606864525
 30
0.0
 11
174.2330222848271
 21
300.6196792467399
 31
0.0
1001
ACME_LAYERS
1000
1
  0
LINE
  5
D1C
330
1F
100
AcDbEntity
  8
P-0000
  6
STRICHPUNKT
 62
     3
100
AcDbLine
 10
170.2330222848257
 20
300.6196792467408
 30
0.0
 11
170.2330222848257
 21
304.1669606864547
 31
0.0
1001
ACME_LAYERS
1000
1
  0
LINE
  5
D1D
330
1F
100
AcDbEntity
  8
P-0000
  6
Continuous
 62
     3
100
AcDbLine
 10
173.4330222848251
 20
304.1669606864538
 30
0.0
 11
173.4330222848251
 21
300.6196792467399
 31
0.0
1001
ACME_LAYERS
1000
1
  0
LINE
  5
D1E
330
1F
100
AcDbEntity
  8
P-0000
  6
Continuous
 62
     3
100
AcDbLine
 10
173.4330222848251
 20
304.1669606864538
 30
0.0
 11
173.4330222848251
 21
303.5669606864525
 31
0.0
1001
ACME_LAYERS
1000
1
  0
LINE
  5
D1F
330
1F
100
AcDbEntity
  8
P-0000
  6
Continuous
 62
     7
100
AcDbLine
 10
174.2330222848271
 20
303.5669606864525
 30
0.0
 11
173.4330222848251
 21
303.5669606864525
 31
0.0
1001
ACME_LAYERS
1000
1
  0
LINE
  5
D20
330
1F
100
AcDbEntity
  8
P-0000
  6
Continuous
 62
     7
100
AcDbLine
 10
173.4330222848251
 20
304.1669606864538
 30
0.0
 11
174.2330222848271
 21
303.5669606864525
 31
0.0
1001
ACME_LAYERS
1000
1
  0
LINE
  5
D21
330
1F
100
AcDbEntity
  8
P-0000
  6
Continuous
 62
     7
100
AcDbLine
 10
170.2330222848257
 20
304.1669606864547
 30
0.0
 11
173.4330222848251
 21
304.1669606864538
 31
0.0
1001
ACME_LAYERS
1000
1
  0
LINE
  5
D22
330
1F
100
AcDbEntity
  8
P-0000
  6
Continuous
 62
     7
100
AcDbLine
 10
174.2330222848248
 20
300.6196792467399
 30
0.0
 11
167.0330222848259
 21
300.6196792467408
 31
0.0
1001
ACME_LAYERS
1000
1
  0
LINE
  5
D23
330
1F
100
AcDbEntity
  8
P-0000
  6
Continuous
 62
     7
100
AcDbLine
 10
167.0330222848259
 20
300.6196792467408
 30
0.0
 11
166.2330222848248
 21
300.6196792467408
 31
0.0
1001
ACME_LAYERS
1000
1
  0
LINE
  5
D24
330
1F
100
AcDbEntity
  8
P-0000
  6
Continuous
 62
     7
100
AcDbLine
 10
161.787324171404
 20
294.5196792467388
 30
0.0
 11
161.787324171404
 21
293.0196792467429
 31
0.0
1001
ACME_LAYERS
1000
1
  0
LINE
  5
D25
330
1F
100
AcDbEntity
  8
P-0000
  6
Continuous
 62
     7
100
AcDbLine
 10
178.7873241714058
 20
293.0196792467415
 30
0.0
 11
178.7873241714058
 21
294.5196792467388
 31
0.0
1001
ACME_LAYERS
1000
1
  0
LINE
  5
D26
330
1F
100
AcDbEntity
  8
P-0000
  6
Continuous
 62
     7
100
AcDbLine
 10
161.787324171404
 20
294.6196792467407
 30
0.0
 11
161.787324171404
 21
294.5196792467388
 31
0.0
1001
ACME_LAYERS
1000
1
  0
LINE
  5
D27
330
1F
100
AcDbEntity
  8
P-0000
  6
Continuous
 62
     7
100
AcDbLine
 10
178.7873241714058
 20
294.6196792467399
 30
0.0
 11
161.787324171404
 21
294.6196792467407
 31
0.0
1001
ACME_LAYERS
1000
1
  0
LINE
  5
D28
330
1F
100
AcDbEntity
  8
P-0000
  6
Continuous
 62
     7
100
AcDbLine
 10
178.7873241714058
 20
294.5196792467388
 30
0.0
 11
178.7873241714058
 21
294.6196792467399
 31
0.0
1001
ACME_LAYERS
1000
1
  0
LINE
  5
D29
330
1F
100
AcDbEntity
  8
P-0000
  6
Continuous
 62
     7
100
AcDbLine
 10
177.7385757842911
 20
296.5066184386457
 30
0.0
 11
177.7385757842911
 21
295.2002358303398
 31
0.0
1001
ACME_LAYERS
1000
1
  0
LINE
  5
D2A
330
1F
100
AcDbEntity
  8
P-0000
  6
Continuous
 62
     7
100
AcDbLine
 10
163.7330222848271
 20
294.6196792467407
 30
0.0
 11
176.7330222848248
 21
294.6196792467399
 31
0.0
1001
ACME_LAYERS
1000
1
  0
LINE
  5
D2B
330
1F
100
AcDbEntity
  8
P-0000
  6
Continuous
 62
     7
100
AcDbLine
 10
162.727468785359
 20
296.5066184386478
 30
0.0
 11
162.727468785359
 21
295.2002358303409
 31
0.0
1001
ACME_LAYERS
1000
1
  0
LINE
  5
D2C
330
1F
100
AcDbEntity
  8
P-0000
  6
Continuous
 62
     7
100
AcDbLine
 10
166.2330222848248
 20
300.6196792467408
 30
0.0
 11
163.7330222848271
 21
300.6196792467408
 31
0.0
1001
ACME_LAYERS
1000
1
  0
LINE
  5
D2D
330
1F
100
AcDbEntity
  8
P-0000
  6
Continuous
 62
     7
100
AcDbLine
 10
177.4919041956348
 20
295.046822812374
 30
0.0
 11
176.7330222848248
 21
294.6196792467399
 31
0.0
1001
ACME_LAYERS
1000
1
  0
LINE
  5
D2E
330
1F
100
AcDbEntity
  8
P-0000
  6
Continuous
 62
     7
100
AcDbLine
 10
177.4919041956348
 20
300.1925356811048
 30
0.0
 11
176.7330222848248
 21
300.6196792467399
 31
0.0
1001
ACME_LAYERS
1000
1
  0
LINE
  5
D2F
330
1F
100
AcDbEntity
  8
P-0000
  6
Continuous
 62
     7
100
AcDbLine
 10
162.9741403740166
 20
295.046822812374
 30
0.0
 11
163.7330222848271
 21
294.6196792467407
 31
0.0
1001
ACME_LAYERS
1000
1
  0
LINE
  5
D30
330
1F
100
AcDbEntity
  8
P-0000
  6
Continuous
 62
     7
100
AcDbLine
 10
162.9741403740179
 20
300.1925356811048
 30
0.0
 11
163.7330222848271
 21
300.6196792467408
 31
0.0
1001
ACME_LAYERS
1000
1
  0
LINE
  5
D31
330
1F
100
AcDbEntity
  8
P-0000
  6
Continuous
 62
     7
100
AcDbLine
 10
176.7330222848248
 20
300.6196792467399
 30
0.0
 11
174.2330222848248
 21
300.6196792467399
 31
0.0
1001
ACME_LAYERS
1000
1
  0
LINE
  5
D32
330
1F
100
AcDbEntity
  8
P-0000
  6
Continuous
 62
     7
100
AcDbLine
 10
162.727468785359
 20
300.0391226631388
 30
0.0
 11
162.727468785359
 21
296.5066184386478
 31
0.0
1001
ACME_LAYERS
1000
1
  0
LINE
  5
D33
330
1F
100
AcDbEntity
  8
P-0000
  6
Continuous
 62
     7
100
AcDbLine
 10
166.4802455350939
 20
300.0391226631388
 30
0.0
 11
166.4802455350939
 21
294.6196792467407
 31
0.0
1001
ACME_LAYERS
1000
1
  0
LINE
  5
D34
330
1F
100
AcDbEntity
  8
P-0000
  6
Continuous
 62
     7
100
AcDbLine
 10
173.985799034557
 20
300.0391226631388
 30
0.0
 11
173.985799034557
 21
294.6196792467399
 31
0.0
1001
ACME_LAYERS
1000
1
  0
LINE
  5
D35
330
1F
100
AcDbEntity
  8
P-0000
  6
Continuous
 62
     7
100
AcDbLine
 10
177.7385757842911
 20
300.0391226631388
 30
0.0
 11
177.7385757842911
 21
296.5066184386457
 31
0.0
1001
ACME_LAYERS
1000
1
  0
LINE
  5
D36
330
1F
100
AcDbEntity
  8
P-0000
  6
Continuous
 62
     7
100
AcDbLine
 10
161.787324171404
 20
293.0196792467429
 30
0.0
 11
166.2330222848248
 21
293.0196792467429
 31
0.0
1001
ACME_LAYERS
1000
1
  0
LINE
  5
D37
330
1F
100
AcDbEntity
  8
P-0000
  6
Continuous
 62
     7
100
AcDbLine
 10
178.7873241714058
 20
293.0196792467415
 30
0.0
 11
174.7330222848271
 21
293.0196792467415
 31
0.0
1001
ACME_LAYERS
1000
1
  0
LINE
  5
D38
330
1F
100
AcDbEntity
  8
P-0000
  6
Continuous
 62
     7
100
AcDbLine
 10
167.0330222848259
 20
291.0196792467417
 30
0.0
 11
173.4330222848251
 21
291.0196792467417
 31
0.0
1001
ACME_LAYERS
1000
1
  0
ARC
  5
D39
330
1F
100
AcDbEntity
  8
P-0000
  6
Continuous
 62
     7
100
AcDbCircle
 10
170.2330222848257
 20
307.0391226631379
 30
0.0
 40
12.41944341639904
100
AcDbArc
 50
252.4120462260364
 51
287.5879537739637
1001
ACME_LAYERS
1000
1
  0
ARC
  5
D3A
330
1F
100
AcDbEntity
  8
P-0000
  6
Continuous
 62
     7
100
AcDbCircle
 10
170.2330222848257
 20
288.2002358303397
 30
0.0
 40
12.41944341639904
100
AcDbArc
 50
72.41204622603635
 51
107.5879537739635
1001
ACME_LAYERS
1000
1
  0
ARC
  5
D3B
330
1F
100
AcDbEntity
  8
P-0000
  6
Continuous
 62
     7
100
AcDbCircle
 10
175.8621874094249
 20
297.9422488196896
 30
0.0
 40
3.322569572950221
100
AcDbArc
 50
235.6157525319775
 51
299.3733793948352
1001
ACME_LAYERS
1000
1
  0
ARC
  5
D3C
330
1F
100
AcDbEntity
  8
P-0000
  6
Continuous
 62
     7
100
AcDbCircle
 10
175.8621874094249
 20
297.2971096737878
 30
0.0
 40
3.322569572950149
100
AcDbArc
 50
55.61575253197758
 51
60.62662060516479
1001
ACME_LAYERS
1000
1
  0
ARC
  5
D3D
330
1F
100
AcDbEntity
  8
P-0000
  6
Continuous
 62
     7
100
AcDbCircle
 10
164.6038571602269
 20
297.9422488196896
 30
0.0
 40
3.322569572950221
100
AcDbArc
 50
235.6157525319775
 51
240.6266206051648
1001
ACME_LAYERS
1000
1
  0
ARC
  5
D3E
330
1F
100
AcDbEntity
  8
P-0000
  6
Continuous
 62
     7
100
AcDbCircle
 10
164.6038571602269
 20
297.297109673791
 30
0.0
 40
3.322569572949122
100
AcDbArc
 50
55.61575253197758
 51
119.3733793948352
1001
ACME_LAYERS
1000
1
  0
ARC
  5
D3F
330
1F
100
AcDbEntity
  8
P-0000
  6
Continuous
 62
     7
100
AcDbCircle
 10
175.8621874094249
 20
297.9422488196896
 30
0.0
 40
3.322569572949876
100
AcDbArc
 50
299.3733793948352
 51
304.3842474680224
1001
ACME_LAYERS
1000
1
  0
ARC
  5
D40
330
1F
100
AcDbEntity
  8
P-0000
  6
Continuous
 62
     7
100
AcDbCircle
 10
175.8621874094249
 20
297.2971096737897
 30
0.0
 40
3.322569572949888
100
AcDbArc
 50
60.62662060516479
 51
124.3842474680224
1001
ACME_LAYERS
1000
1
  0
ARC
  5
D41
330
1F
100
AcDbEntity
  8
P-0000
  6
Continuous
 62
     7
100
AcDbCircle
 10
164.6038571602269
 20
297.9422488196896
 30
0.0
 40
3.322569572949872
100
AcDbArc
 50
240.6266206051648
 51
304.3842474680224
1001
ACME_LAYERS
1000
1
  0
ARC
  5
D42
330
1F
100
AcDbEntity
  8
P-0000
  6
Continuous
 62
     7
100
AcDbCircle
 10
164.6038571602269
 20
297.297109673791
 30
0.0
 40
3.322569572949884
100
AcDbArc
 50
119.3733793948352
 51
124.3842474680224
1001
ACME_LAYERS
1000
1
  0
LINE
  5
D43
330
1F
100
AcDbEntity
  8
P-0000
  6
Continuous
 62
     7
100
AcDbLine
 10
208.284415525164
 20
301.0023469395007
 30
0.0
 11
208.284415525164
 21
298.1196792467377
 31
0.0
1001
ACME_LAYERS
1000
1
  0
LINE
  5
D44
330
1F
100
AcDbEntity
  8
P-0000
  6
Continuous
 62
     3
100
AcDbLine
 10
207.4844155251638
 20
300.5404667241489
 30
0.0
 11
207.4844155251638
 21
298.1196792467377
 31
0.0
1001
ACME_LAYERS
1000
1
  0
LINE
  5
D45
330
1F
100
AcDbEntity
  8
P-0000
  6
Continuous
 62
     7
100
AcDbLine
 10
203.2914886199608
 20
298.1196792467377
 30
0.0
 11
207.484415525162
 21
298.1196792467377
 31
0.0
1001
ACME_LAYERS
1000
1
  0
LINE
  5
D46
330
1F
100
AcDbEntity
  8
P-0000
  6
Continuous
 62
     7
100
AcDbLine
 10
207.484415525162
 20
298.1196792467377
 30
0.0
 11
208.284415525164
 21
298.1196792467377
 31
0.0
1001
ACME_LAYERS
1000
1
  0
LINE
  5
D47
330
1F
100
AcDbEntity
  8
P-0000
  6
Continuous
 62
     7
100
AcDbLine
 10
212.730113638582
 20
292.1196792467376
 30
0.0
 11
212.730113638582
 21
290.2876284391719
 31
0.0
1001
ACME_LAYERS
1000
1
  0
LINE
  5
D48
330
1F
100
AcDbEntity
  8
P-0000
  6
Continuous
 62
     7
100
AcDbLine
 10
195.7301136385838
 20
290.2876284391719
 30
0.0
 11
195.7301136385838
 21
292.0196792467377
 31
0.0
1001
ACME_LAYERS
1000
1
  0
LINE
  5
D49
330
1F
100
AcDbEntity
  8
P-0000
  6
Continuous
 62
     7
100
AcDbLine
 10
212.730113638582
 20
292.1196792467376
 30
0.0
 11
212.730113638582
 21
292.0196792467377
 31
0.0
1001
ACME_LAYERS
1000
1
  0
LINE
  5
D4A
330
1F
100
AcDbEntity
  8
P-0000
  6
Continuous
 62
     7
100
AcDbLine
 10
195.7301136385838
 20
292.1196792467376
 30
0.0
 11
212.730113638582
 21
292.1196792467376
 31
0.0
1001
ACME_LAYERS
1000
1
  0
LINE
  5
D4B
330
1F
100
AcDbEntity
  8
P-0000
  6
Continuous
 62
     7
100
AcDbLine
 10
195.7301136385838
 20
292.0196792467377
 30
0.0
 11
195.7301136385838
 21
292.1196792467376
 31
0.0
1001
ACME_LAYERS
1000
1
  0
LINE
  5
D4C
330
1F
100
AcDbEntity
  8
P-0000
  6
Continuous
 62
     7
100
AcDbLine
 10
196.7788620256968
 20
294.0066184386439
 30
0.0
 11
196.7788620256968
 21
292.7002358303379
 31
0.0
1001
ACME_LAYERS
1000
1
  0
LINE
  5
D4D
330
1F
100
AcDbEntity
  8
P-0000
  6
Continuous
 62
     7
100
AcDbLine
 10
210.7844155251631
 20
292.1196792467376
 30
0.0
 11
197.7844155251617
 21
292.1196792467376
 31
0.0
1001
ACME_LAYERS
1000
1
  0
LINE
  5
D4E
330
1F
100
AcDbEntity
  8
P-0000
  6
Continuous
 62
     7
100
AcDbLine
 10
211.7899690246289
 20
294.0066184386439
 30
0.0
 11
211.7899690246289
 21
292.7002358303379
 31
0.0
1001
ACME_LAYERS
1000
1
  0
LINE
  5
D4F
330
1F
100
AcDbEntity
  8
P-0000
  6
Continuous
 62
     7
100
AcDbLine
 10
208.284415525164
 20
298.1196792467377
 30
0.0
 11
210.7844155251649
 21
298.1196792467377
 31
0.0
1001
ACME_LAYERS
1000
1
  0
LINE
  5
D50
330
1F
100
AcDbEntity
  8
P-0000
  6
Continuous
 62
     7
100
AcDbLine
 10
200.5316387754308
 20
294.0066184386439
 30
0.0
 11
200.5316387754308
 21
292.7002358303379
 31
0.0
1001
ACME_LAYERS
1000
1
  0
LINE
  5
D51
330
1F
100
AcDbEntity
  8
P-0000
  6
Continuous
 62
     7
100
AcDbLine
 10
208.0371922748948
 20
294.0066184386439
 30
0.0
 11
208.0371922748948
 21
292.7002358303379
 31
0.0
1001
ACME_LAYERS
1000
1
  0
LINE
  5
D52
330
1F
100
AcDbEntity
  8
P-0000
  6
Continuous
 62
     7
100
AcDbLine
 10
197.0255336143529
 20
292.5468228123719
 30
0.0
 11
197.7844155251617
 21
292.1196792467376
 31
0.0
1001
ACME_LAYERS
1000
1
  0
LINE
  5
D53
330
1F
100
AcDbEntity
  8
P-0000
  6
Continuous
 62
     7
100
AcDbLine
 10
211.5432974359699
 20
292.5468228123719
 30
0.0
 11
210.7844155251631
 21
292.1196792467376
 31
0.0
1001
ACME_LAYERS
1000
1
  0
LINE
  5
D54
330
1F
100
AcDbEntity
  8
P-0000
  6
Continuous
 62
     7
100
AcDbLine
 10
211.5432974359721
 20
297.6925356811029
 30
0.0
 11
210.7844155251649
 21
298.1196792467377
 31
0.0
1001
ACME_LAYERS
1000
1
  0
LINE
  5
D55
330
1F
100
AcDbEntity
  8
P-0000
  6
Continuous
 62
     7
100
AcDbLine
 10
211.7899690246289
 20
297.539122663137
 30
0.0
 11
211.7899690246289
 21
294.0066184386439
 31
0.0
1001
ACME_LAYERS
1000
1
  0
LINE
  5
D56
330
1F
100
AcDbEntity
  8
P-0000
  6
Continuous
 62
     7
100
AcDbLine
 10
208.0371922748948
 20
297.539122663137
 30
0.0
 11
208.0371922748948
 21
294.0066184386439
 31
0.0
1001
ACME_LAYERS
1000
1
  0
LINE
  5
D57
330
1F
100
AcDbEntity
  8
P-0000
  6
Continuous
 62
     7
100
AcDbLine
 10
200.5316387754308
 20
296.5262791960767
 30
0.0
 11
200.5316387754308
 21
294.0066184386439
 31
0.0
1001
ACME_LAYERS
1000
1
  0
LINE
  5
D58
330
1F
100
AcDbEntity
  8
P-0000
  6
Continuous
 62
     7
100
AcDbLine
 10
196.7788620256968
 20
294.3596125294088
 30
0.0
 11
196.7788620256968
 21
294.0066184386439
 31
0.0
1001
ACME_LAYERS
1000
1
  0
ARC
  5
D59
330
1F
100
AcDbEntity
  8
P-0000
  6
Continuous
 62
     7
100
AcDbCircle
 10
204.284415525164
 20
304.539122663137
 30
0.0
 40
12.41944341639904
100
AcDbArc
 50
252.4120462260364
 51
287.5879537739637
1001
ACME_LAYERS
1000
1
  0
ARC
  5
D5A
330
1F
100
AcDbEntity
  8
P-0000
  6
Continuous
 62
     7
100
AcDbCircle
 10
204.2844155251631
 20
285.7002358303379
 30
0.0
 40
12.41944341639904
100
AcDbArc
 50
72.41204622603635
 51
94.95831806929613
1001
ACME_LAYERS
1000
1
  0
ARC
  5
D5B
330
1F
100
AcDbEntity
  8
P-0000
  6
Continuous
 62
     7
100
AcDbCircle
 10
198.6552504005629
 20
295.4422488196869
 30
0.0
 40
3.322569572950221
100
AcDbArc
 50
240.6266206051648
 51
304.3842474680224
1001
ACME_LAYERS
1000
1
  0
ARC
  5
D5C
330
1F
100
AcDbEntity
  8
P-0000
  6
Continuous
 62
     7
100
AcDbCircle
 10
209.913580649761
 20
295.4422488196869
 30
0.0
 40
3.322569572950221
100
AcDbArc
 50
299.3733793948352
 51
304.3842474680224
1001
ACME_LAYERS
1000
1
  0
ARC
  5
D5D
330
1F
100
AcDbEntity
  8
P-0000
  6
Continuous
 62
     7
100
AcDbCircle
 10
209.913580649761
 20
294.7971096737878
 30
0.0
 40
3.322569572949122
100
AcDbArc
 50
60.62662060516479
 51
124.3842474680224
1001
ACME_LAYERS
1000
1
  0
ARC
  5
D5E
330
1F
100
AcDbEntity
  8
P-0000
  6
Continuous
 62
     7
100
AcDbCircle
 10
198.6552504005629
 20
295.4422488196869
 30
0.0
 40
3.322569572949876
100
AcDbArc
 50
235.6157525319775
 51
240.6266206051648
1001
ACME_LAYERS
1000
1
  0
ARC
  5
D5F
330
1F
100
AcDbEntity
  8
P-0000
  6
Continuous
 62
     7
100
AcDbCircle
 10
209.913580649761
 20
295.4422488196869
 30
0.0
 40
3.322569572949872
100
AcDbArc
 50
235.6157525319775
 51
299.3733793948352
1001
ACME_LAYERS
1000
1
  0
ARC
  5
D60
330
1F
100
AcDbEntity
  8
P-0000
  6
Continuous
 62
     7
100
AcDbCircle
 10
209.913580649761
 20
294.7971096737878
 30
0.0
 40
3.322569572949884
100
AcDbArc
 50
55.61575253197758
 51
60.62662060516479
1001
ACME_LAYERS
1000
1
  0
HATCH
  5
D61
330
1F
100
AcDbEntity
  8
P-0000
  6
Continuous
 62
     1
100
AcDbHatch
 10
0.0
 20
0.0
 30
0.0
210
0.0
220
0.0
230
1.0
  2
_U
 70
     0
 71
     0
 91
        1
 92
        1
 93
       16
 72
     1
 10
201.9830222848212
 20
310.0140279483109
 11
201.9830222848212
 21
309.9648563653289
 72
     1
 10
201.9830222848212
 20
309.9648563653289
 11
201.4830222848189
 21
309.9648563653289
 72
     1
 10
201.4830222848189
 20
309.9648563653289
 11
201.4830222848189
 21
308.0140279483109
 72
     1
 10
201.4830222848189
 20
308.0140279483109
 11
194.4221311165036
 21
308.0140279483109
 72
     2
 10
194.4221311165036
 20
307.5140279483109
 40
0.5
 50
449.9999999999992
 51
539.9999999999992
 73
     1
 72
     1
 10
193.9221311165032
 20
307.5140279483109
 11
193.9221311165032
 21
295.0196792467415
 72
     2
 10
189.9221311165018
 20
295.0196792467415
 40
4.000000000000068
 50
0.0000000000008651
 51
90.00000000000088
 73
     0
 72
     1
 10
189.9221311165018
 20
291.0196792467417
 11
175.2330222848257
 21
291.0196792467417
 72
     1
 10
175.2330222848257
 20
291.0196792467417
 11
175.2330222848257
 21
293.0196792467415
 72
     1
 10
175.2330222848257
 20
293.0196792467415
 11
189.983022284818
 21
293.0196792467415
 72
     2
 10
189.983022284818
 20
295.0196792467415
 40
1.999999999999999
 50
269.9999999999992
 51
359.9999999999992
 73
     1
 72
     1
 10
191.983022284818
 20
295.0196792467415
 11
191.983022284818
 21
312.5140279483109
 72
     1
 10
191.983022284818
 20
312.5140279483109
 11
193.9830222848189
 21
312.5140279483109
 72
     1
 10
193.9830222848189
 20
312.5140279483109
 11
193.9830222848189
 21
310.5140279483109
 72
     2
 10
194.4830222848161
 20
310.5140279483109
 40
0.5
 50
539.9999999999992
 51
629.999999999999
 73
     1
 72
     1
 10
194.4830222848161
 20
310.0140279483109
 11
201.9830222848212
 21
310.0140279483109
 97
        0
 75
     0
 76
     0
 52
44.99999999999999
 41
1.0
 77
     0
 78
     1
 53
45.0
 43
-2306.319091858085
 44
-842.4687288309309
 45
-0.7071067811865475
 46
0.7071067811865476
 79
     0
 98
        1
 10
161.0439134531246
 20
-198.4016403947863
1001
ACME_LAYERS
1000
1
1001
ACAD
1010
0.0
1020
0.0
1030
0.0
  0
LINE
  5
D62
330
1F
100
AcDbEntity
  8
P-0000
  6
Continuous
 62
     7
100
AcDbLine
 10
221.9830222848271
 20
312.5140279483109
 30
0.0
 11
219.2073192699539
 21
312.5140279483109
 31
0.0
1001
ACME_LAYERS
1000
1
  0
LINE
  5
D63
330
1F
100
AcDbEntity
  8
P-0000
  6
Continuous
 62
     7
100
AcDbLine
 10
202.5207427416997
 20
312.5140279483109
 30
0.0
 11
193.9830222848189
 21
312.5140279483109
 31
0.0
1001
ACME_LAYERS
1000
1
  0
LINE
  5
D64
330
1F
100
AcDbEntity
  8
P-0000
  6
Continuous
 62
     7
100
AcDbLine
 10
220.4290032788888
 20
308.0140279483109
 30
0.0
 11
191.9221311165031
 21
291.5555776316036
 31
0.0
1001
ACME_LAYERS
1000
1
  0
LINE
  5
D65
330
1F
100
AcDbEntity
  8
P-0000
  6
Continuous
 62
     7
100
AcDbLine
 10
194.4221311165036
 20
308.0140279483109
 30
0.0
 11
201.4830222848189
 21
308.0140279483109
 31
0.0
1001
ACME_LAYERS
1000
1
  0
LINE
  5
D66
330
1F
100
AcDbEntity
  8
P-0000
  6
Continuous
 62
     7
100
AcDbLine
 10
201.9830222848212
 20
310.0140279483109
 30
0.0
 11
194.4830222848161
 21
310.0140279483109
 31
0.0
1001
ACME_LAYERS
1000
1
  0
LINE
  5
D67
330
1F
100
AcDbEntity
  8
P-0000
  6
Continuous
 62
     7
100
AcDbLine
 10
286.9732620530988
 20
312.5140279483096
 30
0.0
 11
221.9830222848271
 21
312.5140279483109
 31
0.0
1001
ACME_LAYERS
1000
1
  0
LINE
  5
D68
330
1F
100
AcDbEntity
  8
P-0000
  6
Continuous
 62
     7
100
AcDbLine
 10
286.9732620530988
 20
310.0140279483109
 30
0.0
 11
231.9830222848162
 21
310.0140279483109
 31
0.0
1001
ACME_LAYERS
1000
1
  0
LINE
  5
D69
330
1F
100
AcDbEntity
  8
P-0000
  6
Continuous
 62
     7
100
AcDbLine
 10
276.9830222848106
 20
308.0140279483096
 30
0.0
 11
225.983022284828
 21
308.0140279483109
 31
0.0
1001
ACME_LAYERS
1000
1
  0
LINE
  5
D6A
330
1F
100
AcDbEntity
  8
P-0000
  6
Continuous
 62
     7
100
AcDbLine
 10
275.9830222848107
 20
293.0196792467406
 30
0.0
 11
275.9830222848107
 21
308.0140279483096
 31
0.0
1001
ACME_LAYERS
1000
1
  0
LINE
  5
D6B
330
1F
100
AcDbEntity
  8
P-0000
  6
Continuous
 62
     7
100
AcDbLine
 10
285.4830222848098
 20
308.0140279483096
 30
0.0
 11
276.9830222848106
 21
308.0140279483096
 31
0.0
1001
ACME_LAYERS
1000
1
  0
LINE
  5
D6C
330
1F
100
AcDbEntity
  8
P-0000
  6
Continuous
 62
     7
100
AcDbLine
 10
285.9732620530806
 20
310.0140279483109
 30
0.0
 11
276.9910064772828
 21
310.0140279483109
 31
0.0
1001
ACME_LAYERS
1000
1
  0
LINE
  5
D6D
330
1F
100
AcDbEntity
  8
P-0000
  6
Continuous
 62
     7
100
AcDbLine
 10
286.9732620530797
 20
310.0140279483109
 30
0.0
 11
285.9732620530806
 21
310.0140279483109
 31
0.0
1001
ACME_LAYERS
1000
1
  0
LINE
  5
D6E
330
1F
100
AcDbEntity
  8
P-0000
  6
Continuous
 62
     7
100
AcDbLine
 10
286.9732620530797
 20
308.0140279483096
 30
0.0
 11
285.4830222848098
 21
308.0140279483096
 31
0.0
1001
ACME_LAYERS
1000
1
  0
HATCH
  5
D6F
330
1F
100
AcDbEntity
  8
P-0000
  6
Continuous
 62
     1
100
AcDbHatch
 10
0.0
 20
0.0
 30
0.0
210
0.0
220
0.0
230
1.0
  2
_U
 70
     0
 71
     0
 91
        1
 92
        1
 93
       11
 72
     1
 10
221.4830222848257
 20
310.0140279483109
 11
209.9830222848189
 21
310.0140279483109
 72
     1
 10
209.9830222848189
 20
310.0140279483109
 11
209.9830222848189
 21
308.0140279483109
 72
     1
 10
209.9830222848189
 20
308.0140279483109
 11
220.4290032788888
 21
308.0140279483109
 72
     1
 10
220.4290032788888
 20
308.0140279483109
 11
225.983022284828
 21
308.0140279483109
 72
     1
 10
225.983022284828
 20
308.0140279483109
 11
225.983022284828
 21
310.0140279483109
 72
     1
 10
225.983022284828
 20
310.0140279483109
 11
224.483022284828
 21
310.0140279483109
 72
     2
 10
224.483022284828
 20
310.5140279483109
 40
0.5
 50
-269.9999999999992
 51
-179.9999999999991
 73
     0
 72
     1
 10
223.9830222848271
 20
310.5140279483109
 11
223.9830222848271
 21
312.5140279483109
 72
     1
 10
223.9830222848271
 20
312.5140279483109
 11
221.9830222848271
 21
312.5140279483109
 72
     1
 10
221.9830222848271
 20
312.5140279483109
 11
221.9830222848271
 21
310.5140279483109
 72
     2
 10
221.4830222848257
 20
310.5140279483109
 40
0.5
 50
0.0000000000008651
 51
90.00000000000088
 73
     0
 97
        0
 75
     0
 76
     0
 52
44.99999999999999
 41
1.0
 77
     0
 78
     1
 53
45.0
 43
-2306.319091858085
 44
-842.4687288309309
 45
-0.7071067811865475
 46
0.7071067811865476
 79
     0
 98
        1
 10
161.0439134531246
 20
-198.4016403947863
1001
ACME_LAYERS
1000
1
1001
ACAD
1010
0.0
1020
0.0
1030
0.0
  0
LINE
  5
D70
330
1F
100
AcDbEntity
  8
P-0000
  6
Continuous
 62
     7
100
AcDbLine
 10
221.4830222848257
 20
310.0140279483109
 30
0.0
 11
209.9830222848189
 21
310.0140279483109
 31
0.0
1001
ACME_LAYERS
1000
1
  0
LINE
  5
D71
330
1F
100
AcDbEntity
  8
P-0000
  6
Continuous
 62
     7
100
AcDbLine
 10
225.983022284828
 20
308.0140279483109
 30
0.0
 11
220.4290032788888
 21
308.0140279483109
 31
0.0
1001
ACME_LAYERS
1000
1
  0
LINE
  5
D72
330
1F
100
AcDbEntity
  8
P-0000
  6
Continuous
 62
     7
100
AcDbLine
 10
231.9830222848162
 20
310.0140279483109
 30
0.0
 11
225.983022284828
 21
310.0140279483109
 31
0.0
1001
ACME_LAYERS
1000
1
  0
LINE
  5
D73
330
1F
100
AcDbEntity
  8
P-0000
  6
Continuous
 62
     7
100
AcDbLine
 10
225.983022284828
 20
308.0140279483109
 30
0.0
 11
225.983022284828
 21
310.0140279483109
 31
0.0
1001
ACME_LAYERS
1000
1
  0
LINE
  5
D74
330
1F
100
AcDbEntity
  8
P-0000
  6
Continuous
 62
     7
100
AcDbLine
 10
225.983022284828
 20
310.0140279483109
 30
0.0
 11
224.483022284828
 21
310.0140279483109
 31
0.0
1001
ACME_LAYERS
1000
1
  0
LINE
  5
D75
330
1F
100
AcDbEntity
  8
P-0000
  6
Continuous
 62
     7
100
AcDbLine
 10
221.9830222848271
 20
310.5140279483109
 30
0.0
 11
221.9830222848271
 21
312.5140279483109
 31
0.0
1001
ACME_LAYERS
1000
1
  0
LINE
  5
D76
330
1F
100
AcDbEntity
  8
P-0000
  6
Continuous
 62
     7
100
AcDbLine
 10
223.9830222848271
 20
310.5140279483109
 30
0.0
 11
223.9830222848271
 21
312.5140279483109
 31
0.0
1001
ACME_LAYERS
1000
1
  0
LINE
  5
D77
330
1F
100
AcDbEntity
  8
P-0000
  6
Continuous
 62
     7
100
AcDbLine
 10
221.9830222848271
 20
312.5140279483109
 30
0.0
 11
223.9830222848271
 21
312.5140279483109
 31
0.0
1001
ACME_LAYERS
1000
1
  0
ARC
  5
D78
330
1F
100
AcDbEntity
  8
P-0000
  6
Continuous
 62
     7
100
AcDbCircle
 10
221.4830222848257
 20
310.5140279483109
 30
0.0
 40
0.5
100
AcDbArc
 50
270.0
 51
0.0
1001
ACME_LAYERS
1000
1
  0
ARC
  5
D79
330
1F
100
AcDbEntity
  8
P-0000
  6
Continuous
 62
     7
100
AcDbCircle
 10
224.483022284828
 20
310.5140279483109
 30
0.0
 40
0.5
100
AcDbArc
 50
180.0
 51
270.0
1001
ACME_LAYERS
1000
1
  0
LINE
  5
D7A
330
1F
100
AcDbEntity
  8
P-0000
  6
Continuous
 62
     7
100
AcDbLine
 10
206.2721916797589
 20
308.0140279483109
 30
0.0
 11
209.9830222848189
 21
308.0140279483109
 31
0.0
1001
ACME_LAYERS
1000
1
  0
LINE
  5
D7B
330
1F
100
AcDbEntity
  8
P-0000
  6
Continuous
 62
     7
100
AcDbLine
 10
209.9830222848189
 20
310.0140279483109
 30
0.0
 11
201.9830222848212
 21
310.0140279483109
 31
0.0
1001
ACME_LAYERS
1000
1
  0
LINE
  5
D7C
330
1F
100
AcDbEntity
  8
P-0000
  6
Continuous
 62
     7
100
AcDbLine
 10
209.9830222848189
 20
308.0140279483109
 30
0.0
 11
220.4290032788888
 21
308.0140279483109
 31
0.0
1001
ACME_LAYERS
1000
1
  0
LINE
  5
D7D
330
1F
100
AcDbEntity
  8
P-0000
  6
Continuous
 62
     7
100
AcDbLine
 10
209.9830222848189
 20
310.0140279483109
 30
0.0
 11
209.9830222848189
 21
308.0140279483109
 31
0.0
1001
ACME_LAYERS
1000
1
  0
LINE
  5
D7E
330
1F
100
AcDbEntity
  8
P-0000
  6
Continuous
 62
     7
100
AcDbLine
 10
204.473262053097
 20
310.0140279483109
 30
0.0
 11
203.4732620530956
 21
310.0140279483109
 31
0.0
1001
ACME_LAYERS
1000
1
  0
LINE
  5
D7F
330
1F
100
AcDbEntity
  8
P-0000
  6
Continuous
 62
     7
100
AcDbLine
 10
204.473262053097
 20
310.0140279483109
 30
0.0
 11
203.4732620530956
 21
310.0140279483109
 31
0.0
1001
ACME_LAYERS
1000
1
  0
LINE
  5
D80
330
1F
100
AcDbEntity
  8
P-0000
  6
Continuous
 62
     7
100
AcDbLine
 10
165.2330222848271
 20
293.0196792467429
 30
0.0
 11
175.2330222848257
 21
293.0196792467415
 31
0.0
1001
ACME_LAYERS
1000
1
  0
LINE
  5
D81
330
1F
100
AcDbEntity
  8
P-0000
  6
Continuous
 62
     7
100
AcDbLine
 10
165.2330222848271
 20
291.0196792467417
 30
0.0
 11
175.2330222848257
 21
291.0196792467417
 31
0.0
1001
ACME_LAYERS
1000
1
  0
LINE
  5
D82
330
1F
100
AcDbEntity
  8
P-0000
  6
Continuous
 62
     7
100
AcDbLine
 10
193.9221311165032
 20
295.0196792467415
 30
0.0
 11
193.9221311165032
 21
307.5140279483109
 31
0.0
1001
ACME_LAYERS
1000
1
  0
LINE
  5
D83
330
1F
100
AcDbEntity
  8
P-0000
  6
Continuous
 62
     7
100
AcDbLine
 10
191.983022284818
 20
295.0196792467415
 30
0.0
 11
191.983022284818
 21
310.0140279483109
 31
0.0
1001
ACME_LAYERS
1000
1
  0
LINE
  5
D84
330
1F
100
AcDbEntity
  8
P-0000
  6
Continuous
 62
     7
100
AcDbLine
 10
182.1713304872649
 20
293.0196792467415
 30
0.0
 11
191.983022284818
 21
310.0140279483109
 31
0.0
1001
ACME_LAYERS
1000
1
  0
LINE
  5
D85
330
1F
100
AcDbEntity
  8
P-0000
  6
Continuous
 62
     7
100
AcDbLine
 10
191.983022284818
 20
312.5140279483109
 30
0.0
 11
193.9830222848189
 21
312.5140279483109
 31
0.0
1001
ACME_LAYERS
1000
1
  0
LINE
  5
D86
330
1F
100
AcDbEntity
  8
P-0000
  6
Continuous
 62
     7
100
AcDbLine
 10
193.9830222848189
 20
312.5140279483109
 30
0.0
 11
193.9830222848189
 21
310.5140279483109
 31
0.0
1001
ACME_LAYERS
1000
1
  0
ARC
  5
D87
330
1F
100
AcDbEntity
  8
P-0000
  6
Continuous
 62
     7
100
AcDbCircle
 10
194.4830222848161
 20
310.5140279483109
 30
0.0
 40
0.5
100
AcDbArc
 50
180.0
 51
270.0
1001
ACME_LAYERS
1000
1
  0
ARC
  5
D88
330
1F
100
AcDbEntity
  8
P-0000
  6
Continuous
 62
     7
100
AcDbCircle
 10
194.4221311165036
 20
307.5140279483109
 30
0.0
 40
0.5
100
AcDbArc
 50
90.0
 51
180.0
1001
ACME_LAYERS
1000
1
  0
LINE
  5
D89
330
1F
100
AcDbEntity
  8
P-0000
  6
Continuous
 62
     7
100
AcDbLine
 10
191.983022284818
 20
312.5140279483109
 30
0.0
 11
191.983022284818
 21
310.0140279483109
 31
0.0
1001
ACME_LAYERS
1000
1
  0
LINE
  5
D8A
330
1F
100
AcDbEntity
  8
P-0000
  6
Continuous
 62
     7
100
AcDbLine
 10
182.1713304872649
 20
293.0196792467415
 30
0.0
 11
189.983022284818
 21
293.0196792467415
 31
0.0
1001
ACME_LAYERS
1000
1
  0
LINE
  5
D8B
330
1F
100
AcDbEntity
  8
P-0000
  6
Continuous
 62
     7
100
AcDbLine
 10
175.2330222848257
 20
291.0196792467417
 30
0.0
 11
189.9221311165018
 21
291.0196792467417
 31
0.0
1001
ACME_LAYERS
1000
1
  0
ARC
  5
D8C
330
1F
100
AcDbEntity
  8
P-0000
  6
Continuous
 62
     7
100
AcDbCircle
 10
189.983022284818
 20
295.0196792467415
 30
0.0
 40
2.0
100
AcDbArc
 50
270.0
 51
0.0
1001
ACME_LAYERS
1000
1
  0
ARC
  5
D8D
330
1F
100
AcDbEntity
  8
P-0000
  6
Continuous
 62
     7
100
AcDbCircle
 10
189.9221311165018
 20
295.0196792467415
 30
0.0
 40
4.0
100
AcDbArc
 50
299.9999999999961
 51
0.0
1001
ACME_LAYERS
1000
1
  0
ARC
  5
D8E
330
1F
100
AcDbEntity
  8
P-0000
  6
Continuous
 62
     7
100
AcDbCircle
 10
189.9221311165018
 20
295.0196792467415
 30
0.0
 40
4.000000000000031
100
AcDbArc
 50
270.0
 51
299.9999999999961
1001
ACME_LAYERS
1000
1
  0
LINE
  5
D8F
330
1F
100
AcDbEntity
  8
P-0000
  6
Continuous
 62
     7
100
AcDbLine
 10
175.2330222848257
 20
293.0196792467415
 30
0.0
 11
182.1713304872649
 21
293.0196792467415
 31
0.0
1001
ACME_LAYERS
1000
1
  0
LINE
  5
D90
330
1F
100
AcDbEntity
  8
P-0000
  6
Continuous
 62
     7
100
AcDbLine
 10
175.2330222848257
 20
291.0196792467417
 30
0.0
 11
175.2330222848257
 21
293.0196792467415
 31
0.0
1001
ACME_LAYERS
1000
1
  0
HATCH
  5
D91
330
1F
100
AcDbEntity
  8
P-0000
  6
Continuous
 62
     1
100
AcDbHatch
 10
0.0
 20
0.0
 30
0.0
210
0.0
220
0.0
230
1.0
  2
_U
 70
     0
 71
     0
 91
        1
 92
        1
 93
        4
 72
     1
 10
160.2330222848271
 20
291.0196792467417
 11
165.2330222848271
 21
291.0196792467417
 72
     1
 10
165.2330222848271
 20
291.0196792467417
 11
165.2330222848271
 21
293.0196792467429
 72
     1
 10
165.2330222848271
 20
293.0196792467429
 11
160.2330222848271
 21
293.0196792467429
 72
     1
 10
160.2330222848271
 20
293.0196792467429
 11
160.2330222848271
 21
291.0196792467417
 97
        0
 75
     0
 76
     0
 52
44.99999999999999
 41
1.0
 77
     0
 78
     1
 53
45.0
 43
19.64929416622527
 44
118.6756574725197
 45
-0.7071067811865475
 46
0.7071067811865476
 79
     0
 98
        1
 10
161.0439134531246
 20
-198.4016403947863
1001
ACME_LAYERS
1000
1
1001
ACAD
1010
0.0
1020
0.0
1030
0.0
  0
LINE
  5
D92
330
1F
100
AcDbEntity
  8
P-0000
  6
Continuous
 62
     7
100
AcDbLine
 10
160.2330222848271
 20
293.0196792467429
 30
0.0
 11
165.2330222848271
 21
293.0196792467429
 31
0.0
1001
ACME_LAYERS
1000
1
  0
LINE
  5
D93
330
1F
100
AcDbEntity
  8
P-0000
  6
Continuous
 62
     7
100
AcDbLine
 10
160.2330222848271
 20
291.0196792467417
 30
0.0
 11
165.2330222848271
 21
291.0196792467417
 31
0.0
1001
ACME_LAYERS
1000
1
  0
LINE
  5
D94
330
1F
100
AcDbEntity
  8
P-0000
  6
Continuous
 62
     7
100
AcDbLine
 10
165.2330222848271
 20
291.0196792467417
 30
0.0
 11
165.2330222848271
 21
293.0196792467429
 31
0.0
1001
ACME_LAYERS
1000
1
  0
LINE
  5
D95
330
1F
100
AcDbEntity
  8
P-0000
  6
Continuous
 62
     7
100
AcDbLine
 10
160.2330222848271
 20
291.0196792467417
 30
0.0
 11
160.2330222848271
 21
293.0196792467429
 31
0.0
1001
ACME_LAYERS
1000
1
  0
LINE
  5
D96
330
1F
100
AcDbEntity
  8
P-0000
  6
Continuous
 62
     7
100
AcDbLine
 10
285.4830222848189
 20
351.9648563653267
 30
0.0
 11
285.4830222848189
 21
315.9648563653288
 31
0.0
1001
ACME_LAYERS
1000
1
  0
LINE
  5
D97
330
1F
100
AcDbEntity
  8
P-0000
  6
Continuous
 62
     7
100
AcDbLine
 10
210.5353518738387
 20
334.5339855646179
 30
0.0
 11
209.5565626575538
 21
331.8447842944699
 31
0.0
1001
ACME_LAYERS
1000
1
  0
LINE
  5
D98
330
1F
100
AcDbEntity
  8
P-0000
  6
Continuous
 62
     7
100
AcDbLine
 10
219.2073192699539
 20
315.9648563653288
 30
0.0
 11
232.3102477035398
 21
351.9648563653267
 31
0.0
1001
ACME_LAYERS
1000
1
  0
LINE
  5
D99
330
1F
100
AcDbEntity
  8
P-0000
  6
Continuous
 62
     7
100
AcDbLine
 10
285.4830222848189
 20
357.9345054649597
 30
0.0
 11
234.4830222848189
 21
357.9345054649597
 31
0.0
1001
ACME_LAYERS
1000
1
  0
LINE
  5
D9A
330
1F
100
AcDbEntity
  8
P-0000
  6
Continuous
 62
     7
100
AcDbLine
 10
285.4830222848189
 20
357.9345054649597
 30
0.0
 11
234.4830222848189
 21
357.9345054649597
 31
0.0
1001
ACME_LAYERS
1000
1
  0
LINE
  5
D9B
330
1F
100
AcDbEntity
  8
P-0000
  6
Continuous
 62
     7
100
AcDbLine
 10
239.1130293632699
 20
389.9648563653288
 30
0.0
 11
246.1411166056567
 21
389.9648563653288
 31
0.0
1001
ACME_LAYERS
1000
1
  0
LINE
  5
D9C
330
1F
100
AcDbEntity
  8
P-0000
  6
Continuous
 62
     7
100
AcDbLine
 10
233.4830222848189
 20
351.9648563653267
 30
0.0
 11
285.4830222848189
 21
351.9648563653267
 31
0.0
1001
ACME_LAYERS
1000
1
  0
LINE
  5
D9D
330
1F
100
AcDbEntity
  8
P-0000
  6
Continuous
 62
     7
100
AcDbLine
 10
240.6815630916629
 20
374.9648563653267
 30
0.0
 11
282.878859228785
 21
374.9648563653267
 31
0.0
1001
ACME_LAYERS
1000
1
  0
LINE
  5
D9E
330
1F
100
AcDbEntity
  8
P-0000
  6
Continuous
 62
     7
100
AcDbLine
 10
285.4830222848189
 20
374.9648563653267
 30
0.0
 11
285.4830222848189
 21
357.9345054649597
 31
0.0
1001
ACME_LAYERS
1000
1
  0
LINE
  5
D9F
330
1F
100
AcDbEntity
  8
P-0000
  6
Continuous
 62
     7
100
AcDbLine
 10
248.269472150608
 20
389.9648563653279
 30
0.0
 11
282.8788592287859
 21
389.9648563653279
 31
0.0
1001
ACME_LAYERS
1000
1
  0
LINE
  5
DA0
330
1F
100
AcDbEntity
  8
P-0000
  6
Continuous
 62
     7
100
AcDbLine
 10
282.8788592287859
 20
389.9648563653279
 30
0.0
 11
282.878859228785
 21
374.9648563653267
 31
0.0
1001
ACME_LAYERS
1000
1
  0
LINE
  5
DA1
330
1F
100
AcDbEntity
  8
P-0000
  6
Continuous
 62
     7
100
AcDbLine
 10
282.8788592287859
 20
389.9648563653279
 30
0.0
 11
286.9830222848189
 21
389.9648563653279
 31
0.0
1001
ACME_LAYERS
1000
1
  0
LINE
  5
DA2
330
1F
100
AcDbEntity
  8
P-0000
  6
Continuous
 62
     7
100
AcDbLine
 10
282.878859228785
 20
374.9648563653267
 30
0.0
 11
285.4830222848189
 21
374.9648563653267
 31
0.0
1001
ACME_LAYERS
1000
1
  0
LINE
  5
DA3
330
1F
100
AcDbEntity
  8
P-0000
  6
Continuous
 62
     7
100
AcDbLine
 10
285.4830222848189
 20
374.9648563653267
 30
0.0
 11
286.9830222848189
 21
374.9648563653267
 31
0.0
1001
ACME_LAYERS
1000
1
  0
HATCH
  5
DA4
330
1F
100
AcDbEntity
  8
P-0000
  6
Continuous
 62
     1
100
AcDbHatch
 10
0.0
 20
0.0
 30
0.0
210
0.0
220
0.0
230
1.0
  2
_U
 70
     0
 71
     0
 91
        1
 92
        1
 93
        5
 72
     1
 10
244.6852356685907
 20
385.9648563653289
 11
246.1411166056567
 21
389.9648563653288
 72
     1
 10
246.1411166056567
 20
389.9648563653288
 11
248.269472150608
 21
389.9648563653288
 72
     1
 10
248.269472150608
 20
389.9648563653279
 11
247.0530762961201
 21
386.6228362220028
 72
     2
 10
246.1133836753332
 20
386.9648563653279
 40
1.000000000000015
 50
20.00000000000397
 51
90.00000000000088
 73
     0
 72
     1
 10
246.1133836753332
 20
385.9648563653289
 11
244.6852356685907
 21
385.9648563653289
 97
        0
 75
     0
 76
     0
 52
44.99999999999999
 41
1.0
 77
     0
 78
     1
 53
45.0
 43
-2306.319091858085
 44
-842.4687288309309
 45
-0.7071067811865475
 46
0.7071067811865476
 79
     0
 98
        1
 10
161.0341532214041
 20
-178.5139993030253
1001
ACME_LAYERS
1000
1
1001
ACAD
1010
0.0
1020
0.0
1030
0.0
  0
LINE
  5
DA5
330
1F
100
AcDbEntity
  8
P-0000
  6
Continuous
 62
     7
100
AcDbLine
 10
247.0530762961201
 20
386.6228362220018
 30
0.0
 11
248.269472150608
 21
389.9648563653279
 31
0.0
1001
ACME_LAYERS
1000
1
  0
LINE
  5
DA6
330
1F
100
AcDbEntity
  8
P-0000
  6
Continuous
 62
     7
100
AcDbLine
 10
244.6852356685907
 20
385.9648563653289
 30
0.0
 11
246.1411166056567
 21
389.9648563653288
 31
0.0
1001
ACME_LAYERS
1000
1
  0
LINE
  5
DA7
330
1F
100
AcDbEntity
  8
P-0000
  6
Continuous
 62
     7
100
AcDbLine
 10
246.1411166056567
 20
389.9648563653288
 30
0.0
 11
248.269472150608
 21
389.9648563653279
 31
0.0
1001
ACME_LAYERS
1000
1
  0
ARC
  5
DA8
330
1F
100
AcDbEntity
  8
P-0000
  6
Continuous
 62
     7
100
AcDbCircle
 10
246.1133836753332
 20
386.9648563653279
 30
0.0
 40
1.000000000000015
100
AcDbArc
 50
270.0
 51
339.9999999999994
1001
ACME_LAYERS
1000
1
  0
ARC
  5
DA9
330
1F
100
AcDbEntity
  8
P-0000
  6
Continuous
 62
     7
100
AcDbCircle
 10
246.1133836753332
 20
386.9648563653279
 30
0.0
 40
1.000000000000015
100
AcDbArc
 50
270.0
 51
339.9999999999994
1001
ACME_LAYERS
1000
1
  0
LINE
  5
DAA
330
1F
100
AcDbEntity
  8
P-0000
  6
Continuous
 62
     7
100
AcDbLine
 10
244.6852356685907
 20
385.9648563653289
 30
0.0
 11
246.1133836753332
 21
385.9648563653289
 31
0.0
1001
ACME_LAYERS
1000
1
  0
LINE
  5
DAB
330
1F
100
AcDbEntity
  8
P-0000
  6
Continuous
 62
     7
100
AcDbLine
 10
285.4830222848189
 20
351.9648563653267
 30
0.0
 11
286.9830222848189
 21
351.9648563653267
 31
0.0
1001
ACME_LAYERS
1000
1
  0
LINE
  5
DAC
330
1F
100
AcDbEntity
  8
P-0000
  6
Continuous
 62
     7
100
AcDbLine
 10
227.8367179138389
 20
382.0690980852368
 30
0.0
 11
210.5353518738387
 21
334.5339855646179
 31
0.0
1001
ACME_LAYERS
1000
1
  0
LINE
  5
DAD
330
1F
100
AcDbEntity
  8
P-0000
  6
Continuous
 62
     7
100
AcDbLine
 10
234.4830222848189
 20
357.9345054649597
 30
0.0
 11
240.6815630916629
 21
374.9648563653267
 31
0.0
1001
ACME_LAYERS
1000
1
  0
ARC
  5
DAE
330
1F
100
AcDbEntity
  8
P-0000
  6
Continuous
 62
     7
100
AcDbCircle
 10
239.1130293632699
 20
377.9648563653279
 30
0.0
 40
11.99999999999995
100
AcDbArc
 50
90.0
 51
159.9999999999993
1001
ACME_LAYERS
1000
1
  0
HATCH
  5
DAF
330
1F
100
AcDbEntity
  8
P-0000
  6
Continuous
 62
     3
100
AcDbHatch
 10
0.0
 20
0.0
 30
0.0
210
0.0
220
0.0
230
1.0
  2
_U
 70
     0
 71
     0
 91
        1
 92
        1
 93
        4
 72
     1
 10
232.3102477035398
 20
351.9648563653267
 11
234.4830222848189
 21
357.9345054649597
 72
     1
 10
234.4830222848189
 20
357.9345054649597
 11
234.4830222848189
 21
352.9648563653279
 72
     2
 10
233.4830222848189
 20
352.9648563653279
 40
1.0
 50
0.0000000000008651
 51
90.00000000000088
 73
     0
 72
     1
 10
233.4830222848189
 20
351.9648563653267
 11
232.3102477035398
 21
351.9648563653267
 97
        0
 75
     0
 76
     0
 52
44.99999999999999
 41
1.0
 77
     0
 78
     1
 53
45.0
 43
-2306.319091858085
 44
-842.4687288309309
 45
-0.7071067811865475
 46
0.7071067811865476
 79
     0
 98
        1
 10
161.0341532214041
 20
-178.5139993030253
1001
ACME_LAYERS
1000
1
1001
ACAD
1010
0.0
1020
0.0
1030
0.0
  0
LINE
  5
DB0
330
1F
100
AcDbEntity
  8
P-0000
  6
Continuous
 62
     7
100
AcDbLine
 10
232.3102477035398
 20
351.9648563653267
 30
0.0
 11
233.4830222848189
 21
351.9648563653267
 31
0.0
1001
ACME_LAYERS
1000
1
  0
LINE
  5
DB1
330
1F
100
AcDbEntity
  8
P-0000
  6
Continuous
 62
     7
100
AcDbLine
 10
232.3102477035398
 20
351.9648563653267
 30
0.0
 11
234.4830222848189
 21
357.9345054649597
 31
0.0
1001
ACME_LAYERS
1000
1
  0
LINE
  5
DB2
330
1F
100
AcDbEntity
  8
P-0000
  6
Continuous
 62
     7
100
AcDbLine
 10
234.4830222848189
 20
352.9648563653279
 30
0.0
 11
234.4830222848189
 21
357.9345054649597
 31
0.0
1001
ACME_LAYERS
1000
1
  0
LINE
  5
DB3
330
1F
100
AcDbEntity
  8
P-0000
  6
Continuous
 62
     7
100
AcDbLine
 10
234.4830222848189
 20
352.9648563653279
 30
0.0
 11
234.4830222848189
 21
357.9345054649597
 31
0.0
1001
ACME_LAYERS
1000
1
  0
ARC
  5
DB4
330
1F
100
AcDbEntity
  8
P-0000
  6
Continuous
 62
     7
100
AcDbCircle
 10
233.4830222848189
 20
352.9648563653279
 30
0.0
 40
1.0
100
AcDbArc
 50
270.0
 51
0.0
1001
ACME_LAYERS
1000
1
  0
ARC
  5
DB5
330
1F
100
AcDbEntity
  8
P-0000
  6
Continuous
 62
     7
100
AcDbCircle
 10
233.4830222848189
 20
352.9648563653279
 30
0.0
 40
1.0
100
AcDbArc
 50
270.0
 51
0.0
1001
ACME_LAYERS
1000
1
  0
LINE
  5
DB6
330
1F
100
AcDbEntity
  8
P-0000
  6
Continuous
 62
     7
100
AcDbLine
 10
285.4830222848189
 20
315.9648563653288
 30
0.0
 11
219.2073192699539
 21
315.9648563653288
 31
0.0
1001
ACME_LAYERS
1000
1
  0
LINE
  5
DB7
330
1F
100
AcDbEntity
  8
P-0000
  6
Continuous
 62
     7
100
AcDbLine
 10
285.4830222848189
 20
315.9648563653288
 30
0.0
 11
219.2073192699539
 21
315.9648563653288
 31
0.0
1001
ACME_LAYERS
1000
1
  0
LINE
  5
DB8
330
1F
100
AcDbEntity
  8
P-0000
  6
Continuous
 62
     7
100
AcDbLine
 10
285.4830222848189
 20
315.9648563653288
 30
0.0
 11
219.2073192699539
 21
315.9648563653288
 31
0.0
1001
ACME_LAYERS
1000
1
  0
LINE
  5
DB9
330
1F
100
AcDbEntity
  8
P-0000
  6
Continuous
 62
     7
100
AcDbLine
 10
219.2073192699539
 20
309.9648563653289
 30
0.0
 11
285.4830222848189
 21
309.9648563653279
 31
0.0
1001
ACME_LAYERS
1000
1
  0
LINE
  5
DBA
330
1F
100
AcDbEntity
  8
P-0000
  6
Continuous
 62
     7
100
AcDbLine
 10
286.9830222848189
 20
315.9648563653288
 30
0.0
 11
285.4830222848189
 21
315.9648563653288
 31
0.0
1001
ACME_LAYERS
1000
1
  0
LINE
  5
DBB
330
1F
100
AcDbEntity
  8
P-0000
  6
Continuous
 62
     7
100
AcDbLine
 10
286.9830222848189
 20
315.9648563653288
 30
0.0
 11
285.4830222848189
 21
315.9648563653288
 31
0.0
1001
ACME_LAYERS
1000
1
  0
LINE
  5
DBC
330
1F
100
AcDbEntity
  8
P-0000
  6
Continuous
 62
     7
100
AcDbLine
 10
286.9830222848189
 20
315.9648563653288
 30
0.0
 11
285.4830222848189
 21
315.9648563653288
 31
0.0
1001
ACME_LAYERS
1000
1
  0
LINE
  5
DBD
330
1F
100
AcDbEntity
  8
P-0000
  6
Continuous
 62
     7
100
AcDbLine
 10
285.4830222848189
 20
309.9648563653279
 30
0.0
 11
286.9830222848189
 21
309.9648563653279
 31
0.0
1001
ACME_LAYERS
1000
1
  0
LINE
  5
DBE
330
1F
100
AcDbEntity
  8
P-0000
  6
Continuous
 62
     7
100
AcDbLine
 10
209.5565626575538
 20
331.8447842944699
 30
0.0
 11
201.9830222848212
 21
311.0366531350527
 31
0.0
1001
ACME_LAYERS
1000
1
  0
LINE
  5
DBF
330
1F
100
AcDbEntity
  8
P-0000
  6
Continuous
 62
     7
100
AcDbLine
 10
207.9830222848189
 20
309.9648563653289
 30
0.0
 11
216.207319269953
 21
309.9648563653289
 31
0.0
1001
ACME_LAYERS
1000
1
  0
LINE
  5
DC0
330
1F
100
AcDbEntity
  8
P-0000
  6
Continuous
 62
     7
100
AcDbLine
 10
216.207319269953
 20
309.9648563653289
 30
0.0
 11
216.207319269953
 21
315.9648563653288
 31
0.0
1001
ACME_LAYERS
1000
1
  0
LINE
  5
DC1
330
1F
100
AcDbEntity
  8
P-0000
  6
Continuous
 62
     7
100
AcDbLine
 10
219.2073192699539
 20
309.9648563653289
 30
0.0
 11
219.2073192699539
 21
315.9648563653288
 31
0.0
1001
ACME_LAYERS
1000
1
  0
LINE
  5
DC2
330
1F
100
AcDbEntity
  8
P-0000
  6
Continuous
 62
     7
100
AcDbLine
 10
219.2073192699539
 20
315.9648563653288
 30
0.0
 11
216.207319269953
 21
315.9648563653288
 31
0.0
1001
ACME_LAYERS
1000
1
  0
LINE
  5
DC3
330
1F
100
AcDbEntity
  8
P-0000
  6
Continuous
 62
     7
100
AcDbLine
 10
219.2073192699539
 20
315.9648563653288
 30
0.0
 11
216.207319269953
 21
315.9648563653288
 31
0.0
1001
ACME_LAYERS
1000
1
  0
LINE
  5
DC4
330
1F
100
AcDbEntity
  8
P-0000
  6
Continuous
 62
     7
100
AcDbLine
 10
216.207319269953
 20
309.9648563653289
 30
0.0
 11
219.2073192699539
 21
309.9648563653289
 31
0.0
1001
ACME_LAYERS
1000
1
  0
LINE
  5
DC5
330
1F
100
AcDbEntity
  8
P-0000
  6
Continuous
 62
     7
100
AcDbLine
 10
201.4830222848189
 20
307.7648563653278
 30
0.0
 11
201.4830222848189
 21
309.9648563653289
 31
0.0
1001
ACME_LAYERS
1000
1
  0
LINE
  5
DC6
330
1F
100
AcDbEntity
  8
P-0000
  6
Continuous
 62
     7
100
AcDbLine
 10
202.7592525513699
 20
304.0082885965357
 30
0.0
 11
207.9830222848189
 21
309.9648563653289
 31
0.0
1001
ACME_LAYERS
1000
1
  0
LINE
  5
DC7
330
1F
100
AcDbEntity
  8
P-0000
  6
Continuous
 62
     7
100
AcDbLine
 10
201.9830222848212
 20
309.9648563653289
 30
0.0
 11
201.9830222848212
 21
311.0366531350527
 31
0.0
1001
ACME_LAYERS
1000
1
  0
LINE
  5
DC8
330
1F
100
AcDbEntity
  8
P-0000
  6
Continuous
 62
     7
100
AcDbLine
 10
201.4830222848189
 20
309.9648563653289
 30
0.0
 11
201.9830222848212
 21
309.9648563653289
 31
0.0
1001
ACME_LAYERS
1000
1
  0
LINE
  5
DC9
330
1F
100
AcDbEntity
  8
P-0000
  6
Continuous
 62
     7
100
AcDbLine
 10
201.9830222848212
 20
309.9648563653289
 30
0.0
 11
201.9830222848212
 21
311.0366531350527
 31
0.0
1001
ACME_LAYERS
1000
1
  0
LINE
  5
DCA
330
1F
100
AcDbEntity
  8
P-0000
  6
Continuous
 62
     7
100
AcDbLine
 10
200.2830222848186
 20
306.2648563653289
 30
0.0
 11
201.841849476891
 21
304.0673145941286
 31
0.0
1001
ACME_LAYERS
1000
1
  0
LINE
  5
DCB
330
1F
100
AcDbEntity
  8
P-0000
  6
Continuous
 62
     7
100
AcDbLine
 10
201.4830222848189
 20
307.7648563653278
 30
0.0
 11
200.2830222848186
 21
307.7648563653278
 31
0.0
1001
ACME_LAYERS
1000
1
  0
LINE
  5
DCC
330
1F
100
AcDbEntity
  8
P-0000
  6
Continuous
 62
     7
100
AcDbLine
 10
200.2830222848186
 20
307.7648563653278
 30
0.0
 11
200.2830222848186
 21
306.2648563653289
 31
0.0
1001
ACME_LAYERS
1000
1
  0
ARC
  5
DCD
330
1F
100
AcDbEntity
  8
P-0000
  6
Continuous
 62
     7
100
AcDbCircle
 10
202.331229278974
 20
304.4144563653286
 30
0.0
 40
0.6000000000000229
100
AcDbArc
 50
215.3499999999967
 51
270.0
1001
ACME_LAYERS
1000
1
  0
ARC
  5
DCE
330
1F
100
AcDbEntity
  8
P-0000
  6
Continuous
 62
     7
100
AcDbCircle
 10
202.3314557009129
 20
304.3834563653278
 30
0.0
 40
0.5689999999999894
100
AcDbArc
 50
270.0
 51
318.7499999999986
1001
ACME_LAYERS
1000
1
  0
LINE
  5
DCF
330
1F
100
AcDbEntity
  8
P-0000
  6
Continuous
 62
     7
100
AcDbLine
 10
202.331229278974
 20
303.8144563653276
 30
0.0
 11
202.3314557009129
 21
303.8144563653276
 31
0.0
1001
ACME_LAYERS
1000
1
  0
HATCH
  5
DD0
330
1F
100
AcDbEntity
  8
P-0000
  6
Continuous
 62
     1
100
AcDbHatch
 10
0.0
 20
0.0
 30
0.0
210
0.0
220
0.0
230
1.0
  2
_U
 70
     0
 71
     0
 91
        1
 92
        1
 93
        4
 72
     1
 10
216.207319269953
 20
315.9648563653288
 11
219.2073192699539
 21
315.9648563653288
 72
     1
 10
219.2073192699539
 20
315.9648563653288
 11
219.2073192699539
 21
309.9648563653289
 72
     1
 10
219.2073192699539
 20
309.9648563653289
 11
216.207319269953
 21
309.9648563653289
 72
     1
 10
216.207319269953
 20
309.9648563653289
 11
216.207319269953
 21
315.9648563653288
 97
        0
 75
     0
 76
     0
 52
44.99999999999999
 41
1.0
 77
     0
 78
     1
 53
45.0
 43
-2306.319091858085
 44
-842.4687288309309
 45
-0.7071067811865475
 46
0.7071067811865476
 79
     0
 98
        1
 10
459.5740495208832
 20
428.462939397304
1001
ACAD
1010
0.0
1020
0.0
1030
0.0
1001
GENIUS_GENODEF_13
1002
{
1000
HIER
1070
     0
1002
}
1002
{
1000
MANEDIT
1070
     0
1002
}
1002
{
1000
NOSEL
1070
     0
1002
}
1002
{
1000
BEHIND
1070
     0
1002
}
1002
{
1000
OTHER
1070
     0
1002
}
1002
{
1000
REACTOR
1002
}
1001
GENIUS_GENOBJ-N-HTC_13
1002
{
1000
OWNER
1000
GEN
1002
}
1001
GENIUS_GENHATCH_13
1002
{
1000
DATA
1040
135.0
1042
-1.0
1000
_U
1070
     0
1011
218.4383424545047
1021
310.4234434118479
1031
0.0
1002
}
1002
{
1000
UCS
1010
0.0
1020
0.0
1030
0.0
1010
1.0
1020
0.0
1030
0.0
1010
0.0
1020
1.0
1030
0.0
1002
}
  0
LWPOLYLINE
  5
DD1
330
1F
100
AcDbEntity
  8
0
100
AcDbPolyline
 90
        5
 70
     0
 43
0.0
 10
282.8788592287859
 20
389.9648563653279
 10
290.1046425785797
 20
389.9648563653279
 10
290.1046425785797
 20
374.9648563653267
 10
282.878859228785
 20
374.9648563653267
 10
282.8788592287859
 20
389.9648563653279
  0
HATCH
  5
DD2
330
1F
100
AcDbEntity
  8
AM_8
100
AcDbHatch
 10
0.0
 20
0.0
 30
0.0
210
0.0
220
0.0
230
1.0
  2
_U
 70
     0
 71
     0
 91
        1
 92
        1
 93
        4
 72
     1
 10
290.1046425785797
 20
374.9648563653267
 11
290.1046425785797
 21
389.9648563653279
 72
     1
 10
290.1046425785797
 20
389.9648563653279
 11
286.4917509036839
 21
389.9648563653279
 72
     1
 10
286.4917509036839
 20
389.9648563653279
 11
286.4917509036839
 21
374.9648563653267
 72
     1
 10
286.4917509036839
 20
374.9648563653267
 11
290.1046425785797
 21
374.9648563653267
 97
        0
 75
     0
 76
     0
 52
45.0
 41
2.5
 77
     0
 78
     1
 53
45.0
 43
-2306.319091858085
 44
-842.4687288309309
 45
-1.767766952966368
 46
1.767766952966368
 79
     0
 98
        1
 10
-2306.319091858085
 20
-842.4687288309309
1001
GENIUS_GENOBJ-N-HTC_13
1002
{
1000
OWNER
1000
GEN
1002
}
1001
GENIUS_GENODEF_13
1002
{
1000
HIER
1070
     0
1002
}
1002
{
1000
MANEDIT
1070
     0
1002
}
1002
{
1000
NOSEL
1070
     0
1002
}
1002
{
1000
BEHIND
1070
     0
1002
}
1002
{
1000
OTHER
1070
     0
1002
}
1002
{
1000
REACTOR
1002
}
1001
GENIUS_GENHATCH_13
1002
{
1000
DATA
1040
45.0
1042
2.5
1000
_U
1070
     0
1011
287.4034655673407
1021
381.4285533504398
1031
0.0
1002
}
1002
{
1000
UCS
1010
0.0
1020
0.0
1030
0.0
1010
1.0
1020
0.0
1030
0.0
1010
0.0
1020
1.0
1030
0.0
1002
}
  0
HATCH
  5
DD3
330
1F
100
AcDbEntity
  8
AM_8
100
AcDbHatch
 10
0.0
 20
0.0
 30
0.0
210
0.0
220
0.0
230
1.0
  2
_U
 70
     0
 71
     0
 91
        1
 92
        1
 93
        4
 72
     1
 10
286.4917509036839
 20
374.9648563653267
 11
286.4917509036839
 21
389.9648563653279
 72
     1
 10
286.4917509036839
 20
389.9648563653279
 11
282.8788592287859
 21
389.9648563653279
 72
     1
 10
282.8788592287859
 20
389.9648563653279
 11
282.878859228785
 21
374.9648563653267
 72
     1
 10
282.878859228785
 20
374.9648563653267
 11
286.4917509036839
 21
374.9648563653267
 97
        0
 75
     0
 76
     0
 52
45.0
 41
2.5
 77
     0
 78
     1
 53
45.0
 43
-2306.319091858085
 44
-842.4687288309309
 45
-1.767766952966368
 46
1.767766952966368
 79
     0
 98
        1
 10
-2306.319091858085
 20
-842.4687288309309
1001
GENIUS_GENOBJ-N-HTC_13
1002
{
1000
OWNER
1000
GEN
1002
}
1001
GENIUS_GENODEF_13
1002
{
1000
HIER
1070
     0
1002
}
1002
{
1000
MANEDIT
1070
     0
1002
}
1002
{
1000
NOSEL
1070
     0
1002
}
1002
{
1000
BEHIND
1070
     0
1002
}
1002
{
1000
OTHER
1070
     0
1002
}
1002
{
1000
REACTOR
1002
}
1001
GENIUS_GENHATCH_13
1002
{
1000
DATA
1040
45.0
1042
2.5
1000
_U
1070
     0
1011
284.2820762373701
1021
383.1683879365607
1031
0.0
1002
}
1002
{
1000
UCS
1010
0.0
1020
0.0
1030
0.0
1010
1.0
1020
0.0
1030
0.0
1010
0.0
1020
1.0
1030
0.0
1002
}
  0
ARC
  5
DD4
330
1F
100
AcDbEntity
  8
0
100
AcDbCircle
 10
382.8962773192909
 20
294.4035423960449
 30
0.0
 40
3.387888078812326
100
AcDbArc
 50
237.2068436404873
 51
272.793156359504
  0
LINE
  5
DD6
330
1F
100
AcDbEntity
  8
0
100
AcDbLine
 10
284.9917509036822
 20
308.0140279483096
 30
0.0
 11
284.9917509036822
 21
291.0196792467406
 31
0.0
  0
LINE
  5
DD7
330
1F
100
AcDbEntity
  8
0
100
AcDbLine
 10
287.9742936659698
 20
308.0140279483096
 30
0.0
 11
287.9742936659698
 21
291.0196792467406
 31
0.0
  0
LINE
  5
DD8
330
1F
100
AcDbEntity
  8
0
100
AcDbLine
 10
379.3310984961788
 20
288.7876284391719
 30
0.0
 11
376.670532559205
 21
290.2876284391719
 31
0.0
  0
LINE
  5
DD9
330
1F
100
AcDbEntity
  8
0
100
AcDbLine
 10
193.6174888357607
 20
288.7876284391719
 30
0.0
 11
196.7028749898357
 21
290.2876284391719
 31
0.0
  0
LINE
  5
DDA
330
1F
100
AcDbEntity
  8
P-0000
  6
Continuous
 62
     7
100
AcDbLine
 10
140.2504795225403
 20
290.2876284391765
 30
0.0
 11
145.8485557338911
 21
287.0555776316068
 31
0.0
1001
ACME_LAYERS
1000
1
  0
LINE
  5
DDB
330
1F
100
AcDbEntity
  8
P-0000
  6
Continuous
 62
     7
100
AcDbLine
 10
141.2504795225389
 20
292.0196792467447
 30
0.0
 11
146.848555733892
 21
288.7876284391766
 31
0.0
1001
ACME_LAYERS
1000
1
  0
ARC
  5
DDC
330
1F
100
AcDbEntity
  8
P-0000
  6
Continuous
 62
     7
100
AcDbCircle
 10
147.8485557338929
 20
290.5196792467438
 30
0.0
 40
4.000000000000401
100
AcDbArc
 50
240.0000000000039
 51
270.0
1001
ACME_LAYERS
1000
1
  0
HATCH
  5
DDD
330
1F
100
AcDbEntity
  8
P-0000
  6
Continuous
 62
     3
100
AcDbHatch
 10
0.0
 20
0.0
 30
0.0
210
0.0
220
0.0
230
1.0
  2
_U
 70
     0
 71
     0
 91
        1
 92
        1
 93
       19
 72
     2
 10
154.0936252730445
 20
290.5196792467438
 40
2.0
 50
269.9999999999983
 51
315.0000000000334
 73
     1
 72
     1
 10
155.5078388354189
 20
289.1054656843707
 11
155.750479522538
 21
289.3481063714907
 72
     2
 10
158.5789066472836
 20
286.5196792467438
 40
4.0
 50
225.0000000000008
 51
269.9999999999755
 73
     0
 72
     1
 10
158.5789066472828
 20
290.5196792467438
 11
161.0165093605108
 21
290.5196792467438
 72
     1
 10
161.0165093605108
 20
290.5196792467438
 11
162.4268378893692
 21
290.5196792467438
 72
     1
 10
162.4268378893692
 20
290.5196792467438
 11
165.250479522538
 21
290.5196792467438
 72
     1
 10
165.250479522538
 20
290.5196792467438
 11
165.250479522538
 21
288.5196792467438
 72
     1
 10
165.250479522538
 20
288.5196792467438
 11
158.5789066472851
 21
288.5196792467447
 72
     1
 10
158.5789066472836
 20
288.5196792467438
 11
157.7504795225371
 21
288.5196792467447
 72
     1
 10
157.750479522538
 20
288.5196792467447
 11
157.1646930849118
 21
287.9338928091178
 72
     1
 10
157.1646930849109
 20
287.9338928091178
 11
156.9220523977899
 21
287.6912521219999
 72
     2
 10
154.0936252730445
 20
290.5196792467438
 40
4.0
 50
44.99999999998384
 51
90.00000000000174
 73
     0
 72
     1
 10
154.0936252730445
 20
286.5196792467438
 11
147.8485557338929
 21
286.5196792467447
 72
     2
 10
147.8485557338929
 20
290.5196792467438
 40
4.000000000000401
 50
90.00000000000174
 51
119.9999999999984
 73
     0
 72
     1
 10
145.8485557338911
 20
287.0555776316068
 11
140.2504795225403
 21
290.2876284391765
 72
     1
 10
140.2504795225403
 20
290.2876284391765
 11
141.2504795225389
 21
292.0196792467447
 72
     1
 10
141.2504795225389
 20
292.0196792467447
 11
146.848555733892
 21
288.7876284391766
 72
     2
 10
147.8485557338929
 20
290.5196792467438
 40
1.999999999999425
 50
239.9999999999888
 51
269.9999999999983
 73
     1
 72
     1
 10
147.8485557338929
 20
288.5196792467447
 11
154.0936252730445
 21
288.5196792467447
 97
        0
 75
     0
 76
     0
 52
44.99999999999999
 41
5.0
 77
     0
 78
     1
 53
44.99999999999827
 43
227.2173515076477
 44
427.1456447411178
 45
-3.535533905932628
 46
3.535533905932843
 79
     0
 98
        1
 10
227.2173515076477
 20
427.1456447411178
1001
ACME_LAYERS
1000
1
  0
LINE
  5
DDE
330
1F
100
AcDbEntity
  8
0
100
AcDbLine
 10
140.2504795225403
 20
290.2876284391765
 30
0.0
 11
141.2504795225389
 21
292.0196792467438
 31
0.0
  0
LINE
  5
DDF
330
1F
100
AcDbEntity
  8
P-0000
  6
Continuous
 62
     3
100
AcDbLine
 10
166.9783047508129
 20
291.0196792467417
 30
0.0
 11
166.9783047508129
 21
277.2826119848836
 31
0.0
  0
LINE
  5
DE0
330
1F
100
AcDbEntity
  8
P-0000
  6
Continuous
 62
     3
100
AcDbLine
 10
173.4330222848251
 20
291.0196792467417
 30
0.0
 11
173.433022284825
 21
277.2826119848836
 31
0.0
  0
LINE
  5
DE1
330
1F
100
AcDbEntity
  8
AM_7
  6
AM_DIN_G_W050x2
100
AcDbLine
 10
170.205663517819
 20
304.1669606864547
 30
0.0
 11
170.205663517819
 21
277.2826119848836
 31
0.0
1001
GENIUS_GENODEF_13
1002
{
1000
HIER
1070
     0
1002
}
1002
{
1000
MANEDIT
1070
     0
1002
}
1002
{
1000
NOSEL
1070
     0
1002
}
1002
{
1000
BEHIND
1070
     0
1002
}
1002
{
1000
OTHER
1070
     0
1002
}
1002
{
1000
REACTOR
1002
}
1001
GENIUS_GENOBJ-N-CEN_13
1002
{
1000
OWNER
1000
GEN
1002
}
1001
GENIUS_GENCEN_19
1002
{
1040
3.0
1002
}
  0
LINE
  5
DF7
330
1F
100
AcDbEntity
  8
0
100
AcDbLine
 10
431.7330222848256
 20
292.0196792467397
 30
0.0
 11
432.7330222848248
 21
290.2876284391719
 31
0.0
  0
LINE
  5
E40
102
{ACAD_REACTORS
330
E9D
102
}
330
1F
100
AcDbEntity
  8
AM_8
100
AcDbLine
 10
361.9742936659732
 20
162.294963426965
 30
0.0
 11
516.662700257889
 21
162.294963426965
 31
0.0
  0
DIMENSION
  5
E8B
102
{ACAD_XDICTIONARY
360
E9C
102
}
102
{ACAD_REACTORS
330
E9D
102
}
330
1F
100
AcDbEntity
  8
AM_5
100
AcDbDimension
  2
*D7
 10
516.662700257889
 20
162.294963426965
 30
0.0
 11
482.1695396100761
 21
141.9952766094377
 31
0.0
 70
    34
 71
     5
 42
0.0349065850398871
  3
AM_DIN$2
100
AcDb2LineAngularDimension
 13
286.4742936659663
 23
164.9314815235922
 33
0.0
 14
516.4742936659663
 24
156.8997045404901
 34
0.0
 15
361.9742936659732
 25
162.294963426965
 35
0.0
 16
490.1837203029113
 26
160.8031116833769
 36
0.0
1001
ACAD_DSTYLE_DIMINSPECT
1070
   396
1000
100%
1070
   395
1000

1070
   394
1070
    33
1070
   393
1070
     0
1001
ACAD
1000
DSTYLE
1002
{
1070
    41
1040
5.0
1070
   140
1040
10.0
1070
   271
1070
     0
1002
}
  0
LINE
  5
F15
330
1F
100
AcDbEntity
  8
P-0000
  6
Continuous
 62
     7
100
AcDbLine
 10
146.0025803937247
 20
275.2826119848837
 30
0.0
 11
193.6166820088624
 21
275.2826119848837
 31
0.0
1001
ACME_LAYERS
1000
1
  0
LINE
  5
F16
330
1F
100
AcDbEntity
  8
P-0000
  6
Continuous
 62
     7
100
AcDbLine
 10
193.6166820088624
 20
275.2826119848837
 30
0.0
 11
208.9742936659605
 21
275.2826119848837
 31
0.0
1001
ACME_LAYERS
1000
1
  0
LINE
  5
F17
330
1F
100
AcDbEntity
  8
P-0000
  6
Continuous
 62
     7
100
AcDbLine
 10
379.3319053230699
 20
275.2826119848837
 30
0.0
 11
363.9742936659721
 21
275.2826119848837
 31
0.0
1001
ACME_LAYERS
1000
1
  0
LINE
  5
F18
330
1F
100
AcDbEntity
  8
0
100
AcDbLine
 10
452.5178037079313
 20
269.2001642566861
 30
0.0
 11
450.9996756013726
 21
225.7266632813557
 31
0.0
  0
LINE
  5
F19
330
1F
100
AcDbEntity
  8
0
100
AcDbLine
 10
446.3580425399396
 20
92.80768328781601
 30
0.0
 11
444.839914433381
 21
49.33418231248499
 31
0.0
  0
LINE
  5
F1A
330
1F
100
AcDbEntity
  8
0
100
AcDbLine
 10
452.5178037079313
 20
269.2001642566861
 30
0.0
 11
389.1805280319535
 21
271.4119506608026
 31
0.0
  0
LINE
  5
F1B
330
1F
100
AcDbEntity
  8
0
100
AcDbLine
 10
365.9742936659664
 20
275.2826119848837
 30
0.0
 11
365.9742936659664
 21
241.7037391207549
 31
0.0
  0
LINE
  5
F1C
330
1F
100
AcDbEntity
  8
0
100
AcDbLine
 10
365.9742936659664
 20
241.7037391207549
 30
0.0
 11
451.453369058505
 21
238.7187440326036
 31
0.0
  0
LINE
  5
F1D
330
1F
100
AcDbEntity
  8
0
100
AcDbLine
 10
444.839914433381
 20
49.33418231248499
 30
0.0
 11
176.4742936659663
 21
58.70571629481537
 31
0.0
  0
LINE
  5
F1E
330
1F
100
AcDbEntity
  8
0
100
AcDbLine
 10
176.4742936659663
 20
58.70571629481537
 30
0.0
 11
176.4742936659663
 21
275.2826119848837
 31
0.0
  0
LINE
  5
F1F
330
1F
100
AcDbEntity
  8
0
100
AcDbLine
 10
445.9043490828071
 20
79.81560253656747
 30
0.0
 11
205.9631125212509
 21
88.19453515010001
 31
0.0
  0
LINE
  5
F20
330
1F
100
AcDbEntity
  8
0
100
AcDbLine
 10
206.9742936659663
 20
89.20571629481537
 30
0.0
 11
206.9742936659663
 21
275.2826119848837
 31
0.0
  0
LINE
  5
F21
330
1F
100
AcDbEntity
  8
0
100
AcDbLine
 10
206.9742936659663
 20
89.20571629481537
 30
0.0
 11
176.4742936659663
 21
58.70571629481537
 31
0.0
  0
HATCH
  5
F22
330
1F
100
AcDbEntity
  8
AM_8
100
AcDbHatch
 10
0.0
 20
0.0
 30
0.0
210
0.0
220
0.0
230
1.0
  2
_U
 70
     0
 71
     0
 91
        1
 92
        1
 93
        4
 72
     1
 10
444.839914433381
 20
49.33418231248502
 11
445.9043490828071
 21
79.8156025365674
 72
     1
 10
445.9043490828071
 20
79.8156025365674
 11
206.9742936659663
 21
88.15922392643097
 72
     1
 10
206.9742936659663
 20
88.15922392643097
 11
176.4742936659663
 21
58.70571629481537
 72
     1
 10
176.4742936659663
 20
58.70571629481537
 11
444.839914433381
 21
49.33418231248502
 97
        0
 75
     0
 76
     0
 52
45.0
 41
4.599999999999996
 77
     1
 78
     2
 53
45.0
 43
-29.86752245236857
 44
-106.2477136665532
 45
-3.252691193458116
 46
3.252691193458118
 79
     0
 53
135.0
 43
-29.86752245236857
 44
-106.2477136665532
 45
-3.252691193458118
 46
-3.252691193458116
 79
     0
 98
        1
 10
-29.86752245236857
 20
-106.2477136665532
1001
GENIUS_GENOBJ-N-HTC_13
1002
{
1000
OWNER
1000
GEN
1002
}
1001
GENIUS_GENODEF_13
1002
{
1000
HIER
1070
     0
1002
}
1002
{
1000
MANEDIT
1070
     0
1002
}
1002
{
1000
NOSEL
1070
     0
1002
}
1002
{
1000
BEHIND
1070
     0
1002
}
1002
{
1000
OTHER
1070
     0
1002
}
1002
{
1000
REACTOR
1002
}
1001
GENIUS_GENHATCH_13
1002
{
1000
DATA
1040
45.0
1042
2.299999999999998
1000
_U
1070
     1
1011
318.2198147132381
1021
65.60469885637303
1031
0.0
1002
}
1002
{
1000
UCS
1010
0.0
1020
0.0
1030
0.0
1010
1.0
1020
0.0
1030
0.0
1010
0.0
1020
1.0
1030
0.0
1002
}
  0
HATCH
  5
F23
330
1F
100
AcDbEntity
  8
AM_8
100
AcDbHatch
 10
0.0
 20
0.0
 30
0.0
210
0.0
220
0.0
230
1.0
  2
_U
 70
     0
 71
     0
 91
        1
 92
        1
 93
        4
 72
     1
 10
206.9742936659663
 20
88.15922392643097
 11
206.9742936659663
 21
275.2826119848837
 72
     1
 10
206.9742936659663
 20
275.2826119848837
 11
176.4742936659663
 21
275.2826119848837
 72
     1
 10
176.4742936659663
 20
275.2826119848837
 11
176.4742936659663
 21
58.70571629481537
 72
     1
 10
176.4742936659663
 20
58.70571629481537
 11
206.9742936659663
 21
88.15922392643097
 97
        0
 75
     0
 76
     0
 52
45.0
 41
4.599999999999996
 77
     1
 78
     2
 53
45.0
 43
-29.86752245236857
 44
-106.2477136665532
 45
-3.252691193458116
 46
3.252691193458118
 79
     0
 53
135.0
 43
-29.86752245236857
 44
-106.2477136665532
 45
-3.252691193458118
 46
-3.252691193458116
 79
     0
 98
        1
 10
-29.86752245236857
 20
-106.2477136665532
1001
GENIUS_GENOBJ-N-HTC_13
1002
{
1000
OWNER
1000
GEN
1002
}
1001
GENIUS_GENODEF_13
1002
{
1000
HIER
1070
     0
1002
}
1002
{
1000
MANEDIT
1070
     0
1002
}
1002
{
1000
NOSEL
1070
     0
1002
}
1002
{
1000
BEHIND
1070
     0
1002
}
1002
{
1000
OTHER
1070
     0
1002
}
1002
{
1000
REACTOR
1002
}
1001
GENIUS_GENHATCH_13
1002
{
1000
DATA
1040
45.0
1042
2.299999999999998
1000
_U
1070
     1
1011
186.0915742381048
1021
177.0492692900545
1031
0.0
1002
}
1002
{
1000
UCS
1010
0.0
1020
0.0
1030
0.0
1010
1.0
1020
0.0
1030
0.0
1010
0.0
1020
1.0
1030
0.0
1002
}
  0
LINE
  5
F24
330
1F
100
AcDbEntity
  8
0
100
AcDbLine
 10
393.0511893560346
 20
275.2826119848837
 30
0.0
 11
365.9742936659664
 21
248.2057162948154
 31
0.0
  0
HATCH
  5
F25
330
1F
100
AcDbEntity
  8
AM_8
100
AcDbHatch
 10
0.0
 20
0.0
 30
0.0
210
0.0
220
0.0
230
1.0
  2
_U
 70
     0
 71
     0
 91
        1
 92
        1
 93
        5
 72
     1
 10
452.5178037079313
 20
269.2001642566861
 11
389.1805280319535
 21
271.4119506608026
 72
     1
 10
389.1805280319535
 20
271.4119506608026
 11
365.9742936659664
 21
248.2057162948154
 72
     1
 10
365.9742936659664
 20
248.2057162948154
 11
365.9742936659664
 21
241.7037391207549
 72
     1
 10
365.9742936659664
 20
241.7037391207549
 11
451.453369058505
 21
238.7187440326036
 72
     1
 10
451.453369058505
 20
238.7187440326036
 11
452.5178037079313
 21
269.2001642566861
 97
        0
 75
     0
 76
     0
 52
45.0
 41
4.599999999999996
 77
     1
 78
     2
 53
45.0
 43
-29.86752245236857
 44
-106.2477136665532
 45
-3.252691193458116
 46
3.252691193458118
 79
     0
 53
135.0
 43
-29.86752245236857
 44
-106.2477136665532
 45
-3.252691193458118
 46
-3.252691193458116
 79
     0
 98
        1
 10
-29.86752245236857
 20
-106.2477136665532
1001
GENIUS_GENODEF_13
1002
{
1000
HIER
1070
     0
1002
}
1002
{
1000
MANEDIT
1070
     0
1002
}
1002
{
1000
NOSEL
1070
     0
1002
}
1002
{
1000
BEHIND
1070
     0
1002
}
1002
{
1000
OTHER
1070
     0
1002
}
1002
{
1000
REACTOR
1002
}
1001
GENIUS_GENOBJ-N-HTC_13
1002
{
1000
OWNER
1000
GEN
1002
}
1001
GENIUS_GENHATCH_13
1002
{
1000
DATA
1040
45.0
1042
2.299999999999998
1000
_U
1070
     1
1011
398.0246000853248
1021
251.1830080110217
1031
0.0
1002
}
1002
{
1000
UCS
1010
0.0
1020
0.0
1030
0.0
1010
1.0
1020
0.0
1030
0.0
1010
0.0
1020
1.0
1030
0.0
1002
}
  0
HATCH
  5
F26
330
1F
100
AcDbEntity
  8
AM_8
100
AcDbHatch
 10
0.0
 20
0.0
 30
0.0
210
0.0
220
0.0
230
1.0
  2
_U
 70
     0
 71
     0
 91
        1
 92
        1
 93
        3
 72
     1
 10
365.9742936659664
 20
248.2057162948154
 11
393.0511893560346
 21
275.2826119848837
 72
     1
 10
393.0511893560346
 20
275.2826119848837
 11
365.9742936659664
 21
275.2826119848837
 72
     1
 10
365.9742936659664
 20
275.2826119848837
 11
365.9742936659664
 21
248.2057162948154
 97
        0
 75
     0
 76
     0
 52
45.0
 41
4.599999999999996
 77
     1
 78
     2
 53
45.0
 43
-29.86752245236857
 44
-106.2477136665532
 45
-3.252691193458116
 46
3.252691193458118
 79
     0
 53
135.0
 43
-29.86752245236857
 44
-106.2477136665532
 45
-3.252691193458118
 46
-3.252691193458116
 79
     0
 98
        1
 10
-29.86752245236857
 20
-106.2477136665532
1001
GENIUS_GENODEF_13
1002
{
1000
HIER
1070
     0
1002
}
1002
{
1000
MANEDIT
1070
     0
1002
}
1002
{
1000
NOSEL
1070
     0
1002
}
1002
{
1000
BEHIND
1070
     0
1002
}
1002
{
1000
OTHER
1070
     0
1002
}
1002
{
1000
REACTOR
1002
}
1001
GENIUS_GENOBJ-N-HTC_13
1002
{
1000
OWNER
1000
GEN
1002
}
1001
GENIUS_GENHATCH_13
1002
{
1000
DATA
1040
45.0
1042
2.299999999999998
1000
_U
1070
     1
1011
375.7857980698495
1021
269.2610658783205
1031
0.0
1002
}
1002
{
1000
UCS
1010
0.0
1020
0.0
1030
0.0
1010
1.0
1020
0.0
1030
0.0
1010
0.0
1020
1.0
1030
0.0
1002
}
  0
ENDSEC
  0
SECTION
  2
OBJECTS
  0
DICTIONARY
  5
C
330
0
100
AcDbDictionary
281
     1
  3
ACAD_2007HEADERVARS_RT
350
11C6
  3
ACAD_COLOR
350
BE
  3
ACAD_GROUP
350
D
  3
ACAD_LAYOUT
350
1A
  3
ACAD_MATERIAL
350
BD
  3
ACAD_MLEADERSTYLE
350
3EF
  3
ACAD_MLINESTYLE
350
17
  3
ACAD_PLOTSETTINGS
350
19
  3
ACAD_PLOTSTYLENAME
350
E
  3
ACAD_SCALELIST
350
3DD
  3
ACAD_TABLESTYLE
350
11A
  3
ACAD_VISUALSTYLE
350
3CC
  3
ACDB_RECOMPOSE_DATA
350
F34
  3
AcDbVariableDictionary
350
94
  3
AcmDictionary
350
5B
  3
AcmSystemVariableManager
350
11D2
  3
AEC_PROPERTY_SET_DEFS
350
726
  3
AMG
350
41
  3
AMGSNAPSETTINGS
350
26B
  3
DWGPROPS
350
11C5
  0
DICTIONARY
  5
59C
330
2
100
AcDbDictionary
280
     1
281
     1
  3
ACAD_LAYERSTATES
360
59D
  0
DICTIONARY
  5
EDF
330
10
100
AcDbDictionary
280
     1
281
     1
  3
ADSK_XREC_LAYER_RECONCILED
360
EE0
  0
DICTIONARY
  5
58D
330
58C
100
AcDbDictionary
280
     1
281
     1
  3
ADSK_XREC_LAYER_RECONCILED
360
EE1
  0
DICTIONARY
  5
590
330
58F
100
AcDbDictionary
280
     1
281
     1
  3
ADSK_XREC_LAYER_RECONCILED
360
EE2
  0
DICTIONARY
  5
592
330
591
100
AcDbDictionary
280
     1
281
     1
  3
ADSK_XREC_LAYER_RECONCILED
360
EE3
  0
DICTIONARY
  5
923
330
922
100
AcDbDictionary
280
     1
281
     1
  3
ADSK_XREC_LAYER_RECONCILED
360
EE4
  0
DICTIONARY
  5
8F
330
1F
100
AcDbDictionary
280
     1
281
     1
  0
DICTIONARY
  5
E9C
330
E8B
100
AcDbDictionary
280
     1
281
     1
  3
ACAD_DIMASSOC
360
E9D
  0
DICTIONARY
  5
11C6
102
{ACAD_REACTORS
330
C
102
}
330
C
100
AcDbDictionary
281
     1
  3
DIMJOGANG
350
11C7
  3
DIMLTEX1
350
11C9
  3
DIMLTEX2
350
11CA
  3
DIMLTYPE
350
11C8
  0
DICTIONARY
  5
BE
102
{ACAD_REACTORS
330
C
102
}
330
C
100
AcDbDictionary
281
     1
  0
DICTIONARY
  5
D
102
{ACAD_REACTORS
330
C
102
}
330
C
100
AcDbDictionary
281
     1
  0
DICTIONARY
  5
1A
102
{ACAD_REACTORS
330
C
102
}
330
C
100
AcDbDictionary
281
     1
  3
Layout1
350
1E
  3
Layout2
350
26
  3
Model
350
22
  0
DICTIONARY
  5
BD
102
{ACAD_REACTORS
330
C
102
}
330
C
100
AcDbDictionary
281
     1
  3
ByBlock
350
3BC
  3
ByLayer
350
3B4
  3
Global
350
3C4
  0
DICTIONARY
  5
3EF
102
{ACAD_REACTORS
330
C
102
}
330
C
100
AcDbDictionary
281
     1
  3
Standard
350
3F0
  0
DICTIONARY
  5
17
102
{ACAD_REACTORS
330
C
102
}
330
C
100
AcDbDictionary
281
     1
  3
Standard
350
18
  0
DICTIONARY
  5
19
102
{ACAD_REACTORS
330
C
102
}
330
C
100
AcDbDictionary
281
     1
  0
ACDBDICTIONARYWDFLT
  5
E
102
{ACAD_REACTORS
330
C
102
}
330
C
100
AcDbDictionary
281
     1
  3
Normal
350
F
100
AcDbDictionaryWithDefault
340
F
  0
DICTIONARY
  5
3DD
102
{ACAD_REACTORS
330
C
102
}
330
C
100
AcDbDictionary
281
     1
  3
A0
350
3DE
  3
A1
350
3DF
  3
A2
350
3E0
  3
A3
350
3E1
  3
A4
350
3E2
  3
A5
350
3E3
  3
A6
350
3E4
  3
A7
350
3E5
  3
A8
350
3E6
  3
A9
350
3E7
  3
B0
350
3E8
  3
B1
350
3E9
  3
B2
350
3EA
  3
B3
350
3EB
  3
B4
350
3EC
  3
B5
350
3ED
  3
B6
350
3EE
  0
DICTIONARY
  5
11A
102
{ACAD_REACTORS
330
C
102
}
330
C
100
AcDbDictionary
281
     1
  3
Standard
350
11B
  0
DICTIONARY
  5
3CC
102
{ACAD_REACTORS
330
C
102
}
330
C
100
AcDbDictionary
281
     1
  3
2dWireframe
350
3D2
  3
3D Hidden
350
3D4
  3
3dWireframe
350
3D3
  3
Basic
350
3D1
  3
Brighten
350
3D8
  3
ColorChange
350
3DC
  3
Conceptual
350
3D5
  3
Dim
350
3D7
  3
Facepattern
350
3DB
  3
Flat
350
3CD
  3
FlatWithEdges
350
3CE
  3
Gouraud
350
3CF
  3
GouraudWithEdges
350
3D0
  3
Linepattern
350
3DA
  3
Realistic
350
3D6
  3
Thicken
350
3D9
  0
XRECORD
  5
F34
102
{ACAD_REACTORS
330
C
102
}
330
C
100
AcDbXrecord
280
     1
 90
        1
330
11B
  0
DICTIONARY
  5
94
102
{ACAD_REACTORS
330
C
102
}
330
C
100
AcDbDictionary
281
     1
  3
CANNOSCALE
350
F31
  3
CMLEADERSTYLE
350
F30
  3
CTABLESTYLE
350
138
  3
DIMASSOC
350
96
  3
INDEXCTL
350
95
  3
SORTENTS
350
11C3
  0
DICTIONARY
  5
5B
102
{ACAD_REACTORS
330
C
102
}
330
C
100
AcDbDictionary
281
     1
  3
AcmBOM
350
272
  3
AcmStdDictionary
350
61
  3
AMDTSECTSYM_ARROWCOLOR
350
123
  0
DICTIONARY
  5
726
102
{ACAD_REACTORS
330
C
102
}
330
C
100
AcDbDictionary
281
     1
  0
DICTIONARY
  5
41
102
{ACAD_REACTORS
330
C
102
}
330
C
100
AcDbDictionary
281
     1
  0
DICTIONARY
  5
26B
102
{ACAD_REACTORS
330
C
102
}
330
C
100
AcDbDictionary
281
     1
  0
XRECORD
  5
11C5
102
{ACAD_REACTORS
330
C
102
}
330
C
100
AcDbXrecord
280
     1
  1
DWGPROPS COOKIE
  2

  3

  4

  6

  7

  8
jamoeller
  9

300
AmdtFileType=84
301
=
302
=
303
=
304
=
305
=
306
=
307
=
308
=
309
=
 40
0.0814449537037037
 41
2455512.477373287
 42
2455609.65200948
  1

 90
        1
  0
DICTIONARY
  5
59D
102
{ACAD_REACTORS
330
59C
102
}
330
59C
100
AcDbDictionary
281
     1
  0
XRECORD
  5
EE0
102
{ACAD_REACTORS
330
EDF
102
}
330
EDF
100
AcDbXrecord
280
     1
290
     1
  0
XRECORD
  5
EE1
102
{ACAD_REACTORS
330
58D
102
}
330
58D
100
AcDbXrecord
280
     1
290
     1
  0
XRECORD
  5
EE2
102
{ACAD_REACTORS
330
590
102
}
330
590
100
AcDbXrecord
280
     1
290
     1
  0
XRECORD
  5
EE3
102
{ACAD_REACTORS
330
592
102
}
330
592
100
AcDbXrecord
280
     1
290
     1
  0
XRECORD
  5
EE4
102
{ACAD_REACTORS
330
923
102
}
330
923
100
AcDbXrecord
280
     1
290
     1
  0
DIMASSOC
  5
E9D
102
{ACAD_REACTORS
330
E9C
102
}
330
E9C
100
AcDbDimAssoc
330
E8B
 90
       15
 70
     0
 71
     0
  1
AcDbOsnapPointRef
 72
    13
331
813
 73
     2
 91
        0
 40
0.0
 10
0.0
 20
0.0
 30
2.000000000000000E+50
 75
     0
  1
AcDbOsnapPointRef
 72
     1
331
813
 73
     2
 91
        0
 40
0.0
 10
0.0
 20
0.0
 30
2.000000000000000E+50
 75
     0
  1
AcDbOsnapPointRef
 72
    13
331
E40
 73
     2
 91
        0
 40
0.0
 10
0.0
 20
0.0
 30
2.000000000000000E+50
 75
     0
  1
AcDbOsnapPointRef
 72
     1
331
E40
 73
     2
 91
        0
 40
0.0
 10
0.0
 20
0.0
 30
2.000000000000000E+50
 75
     0
  0
XRECORD
  5
11C7
102
{ACAD_REACTORS
330
11C6
102
}
330
11C6
100
AcDbXrecord
280
     1
 40
1.570796326794896
  0
XRECORD
  5
11C9
102
{ACAD_REACTORS
330
11C6
102
}
330
11C6
100
AcDbXrecord
280
     1
340
14
  0
XRECORD
  5
11CA
102
{ACAD_REACTORS
330
11C6
102
}
330
11C6
100
AcDbXrecord
280
     1
340
14
  0
XRECORD
  5
11C8
102
{ACAD_REACTORS
330
11C6
102
}
330
11C6
100
AcDbXrecord
280
     1
340
14
  0
LAYOUT
  5
1E
102
{ACAD_XDICTIONARY
360
11CB
102
}
102
{ACAD_REACTORS
330
1A
102
}
330
1A
100
AcDbPlotSettings
  1

  2

  4

  6

 40
0.0
 41
0.0
 42
0.0
 43
0.0
 44
0.0
 45
0.0
 46
0.0
 47
0.0
 48
0.0
 49
0.0
140
0.0
141
0.0
142
1.0
143
1.0
 70
   688
 72
     0
 73
     0
 74
     5
  7

 75
    16
147
1.0
148
0.0
149
0.0
100
AcDbLayout
  1
Layout1
 70
     1
 71
     1
 10
0.0
 20
0.0
 11
420.0
 21
297.0
 12
0.0
 22
0.0
 32
0.0
 14
1.000000000000000E+20
 24
1.000000000000000E+20
 34
1.000000000000000E+20
 15
-1.000000000000000E+20
 25
-1.000000000000000E+20
 35
-1.000000000000000E+20
146
0.0
 13
0.0
 23
0.0
 33
0.0
 16
1.0
 26
0.0
 36
0.0
 17
0.0
 27
1.0
 37
0.0
 76
     0
330
1B
  0
LAYOUT
  5
26
102
{ACAD_XDICTIONARY
360
11CF
102
}
102
{ACAD_REACTORS
330
1A
102
}
330
1A
100
AcDbPlotSettings
  1

  2

  4

  6

 40
0.0
 41
0.0
 42
0.0
 43
0.0
 44
0.0
 45
0.0
 46
0.0
 47
0.0
 48
0.0
 49
0.0
140
0.0
141
0.0
142
1.0
143
1.0
 70
   688
 72
     0
 73
     0
 74
     5
  7

 75
    16
147
1.0
148
0.0
149
0.0
100
AcDbLayout
  1
Layout2
 70
     1
 71
     2
 10
0.0
 20
0.0
 11
12.0
 21
9.0
 12
0.0
 22
0.0
 32
0.0
 14
0.0
 24
0.0
 34
0.0
 15
0.0
 25
0.0
 35
0.0
146
0.0
 13
0.0
 23
0.0
 33
0.0
 16
1.0
 26
0.0
 36
0.0
 17
0.0
 27
1.0
 37
0.0
 76
     0
330
23
  0
LAYOUT
  5
22
102
{ACAD_XDICTIONARY
360
11CD
102
}
102
{ACAD_REACTORS
330
1A
102
}
330
1A
100
AcDbPlotSettings
  1

  2

  4

  6

 40
0.0
 41
0.0
 42
0.0
 43
0.0
 44
0.0
 45
0.0
 46
0.0
 47
0.0
 48
0.0
 49
0.0
140
0.0
141
0.0
142
1.0
143
1.0
 70
  1712
 72
     0
 73
     0
 74
     0
  7

 75
     0
147
1.0
148
0.0
149
0.0
100
AcDbLayout
  1
Model
 70
     1
 71
     0
 10
0.0
 20
0.0
 11
12.0
 21
9.0
 12
0.0
 22
0.0
 32
0.0
 14
0.0
 24
0.0
 34
0.0
 15
0.0
 25
0.0
 35
0.0
146
0.0
 13
0.0
 23
0.0
 33
0.0
 16
1.0
 26
0.0
 36
0.0
 17
0.0
 27
1.0
 37
0.0
 76
     0
330
1F
331
3B2
  0
MATERIAL
  5
3BC
102
{ACAD_XDICTIONARY
360
3BD
102
}
102
{ACAD_REACTORS
330
BD
102
}
330
BD
100
AcDbMaterial
  1
ByBlock
 72
     0
 43
0.0008202099737533
 43
0.0
 43
0.0
 43
0.0
 43
0.0
 43
0.0008202099737533
 43
0.0
 43
0.0
 43
0.0
 43
0.0
 43
1.0
 43
0.0
 43
0.0
 43
0.0
 43
0.0
 43
1.0
 77
     0
 47
0.0008202099737533
 47
0.0
 47
0.0
 47
0.0
 47
0.0
 47
0.0008202099737533
 47
0.0
 47
0.0
 47
0.0
 47
0.0
 47
1.0
 47
0.0
 47
0.0
 47
0.0
 47
0.0
 47
1.0
171
     0
 49
0.0008202099737533
 49
0.0
 49
0.0
 49
0.0
 49
0.0
 49
0.0008202099737533
 49
0.0
 49
0.0
 49
0.0
 49
0.0
 49
1.0
 49
0.0
 49
0.0
 49
0.0
 49
0.0
 49
1.0
175
     0
142
0.0008202099737533
142
0.0
142
0.0
142
0.0
142
0.0
142
0.0008202099737533
142
0.0
142
0.0
142
0.0
142
0.0
142
1.0
142
0.0
142
0.0
142
0.0
142
0.0
142
1.0
179
     0
144
0.0008202099737533
144
0.0
144
0.0
144
0.0
144
0.0
144
0.0008202099737533
144
0.0
144
0.0
144
0.0
144
0.0
144
1.0
144
0.0
144
0.0
144
0.0
144
0.0
144
1.0
147
0.0008202099737533
147
0.0
147
0.0
147
0.0
147
0.0
147
0.0008202099737533
147
0.0
147
0.0
147
0.0
147
0.0
147
1.0
147
0.0
147
0.0
147
0.0
147
0.0
147
1.0
  0
MATERIAL
  5
3B4
102
{ACAD_XDICTIONARY
360
3B5
102
}
102
{ACAD_REACTORS
330
BD
102
}
330
BD
100
AcDbMaterial
  1
ByLayer
 72
     0
 43
0.0008202099737533
 43
0.0
 43
0.0
 43
0.0
 43
0.0
 43
0.0008202099737533
 43
0.0
 43
0.0
 43
0.0
 43
0.0
 43
1.0
 43
0.0
 43
0.0
 43
0.0
 43
0.0
 43
1.0
 77
     0
 47
0.0008202099737533
 47
0.0
 47
0.0
 47
0.0
 47
0.0
 47
0.0008202099737533
 47
0.0
 47
0.0
 47
0.0
 47
0.0
 47
1.0
 47
0.0
 47
0.0
 47
0.0
 47
0.0
 47
1.0
171
     0
 49
0.0008202099737533
 49
0.0
 49
0.0
 49
0.0
 49
0.0
 49
0.0008202099737533
 49
0.0
 49
0.0
 49
0.0
 49
0.0
 49
1.0
 49
0.0
 49
0.0
 49
0.0
 49
0.0
 49
1.0
175
     0
142
0.0008202099737533
142
0.0
142
0.0
142
0.0
142
0.0
142
0.0008202099737533
142
0.0
142
0.0
142
0.0
142
0.0
142
1.0
142
0.0
142
0.0
142
0.0
142
0.0
142
1.0
179
     0
144
0.0008202099737533
144
0.0
144
0.0
144
0.0
144
0.0
144
0.0008202099737533
144
0.0
144
0.0
144
0.0
144
0.0
144
1.0
144
0.0
144
0.0
144
0.0
144
0.0
144
1.0
147
0.0008202099737533
147
0.0
147
0.0
147
0.0
147
0.0
147
0.0008202099737533
147
0.0
147
0.0
147
0.0
147
0.0
147
1.0
147
0.0
147
0.0
147
0.0
147
0.0
147
1.0
  0
MATERIAL
  5
3C4
102
{ACAD_XDICTIONARY
360
3C5
102
}
102
{ACAD_REACTORS
330
BD
102
}
330
BD
100
AcDbMaterial
  1
Global
 72
     0
 43
0.0008202099737533
 43
0.0
 43
0.0
 43
0.0
 43
0.0
 43
0.0008202099737533
 43
0.0
 43
0.0
 43
0.0
 43
0.0
 43
1.0
 43
0.0
 43
0.0
 43
0.0
 43
0.0
 43
1.0
 77
     0
 47
0.0008202099737533
 47
0.0
 47
0.0
 47
0.0
 47
0.0
 47
0.0008202099737533
 47
0.0
 47
0.0
 47
0.0
 47
0.0
 47
1.0
 47
0.0
 47
0.0
 47
0.0
 47
0.0
 47
1.0
171
     0
 49
0.0008202099737533
 49
0.0
 49
0.0
 49
0.0
 49
0.0
 49
0.0008202099737533
 49
0.0
 49
0.0
 49
0.0
 49
0.0
 49
1.0
 49
0.0
 49
0.0
 49
0.0
 49
0.0
 49
1.0
175
     0
142
0.0008202099737533
142
0.0
142
0.0
142
0.0
142
0.0
142
0.0008202099737533
142
0.0
142
0.0
142
0.0
142
0.0
142
1.0
142
0.0
142
0.0
142
0.0
142
0.0
142
1.0
179
     0
144
0.0008202099737533
144
0.0
144
0.0
144
0.0
144
0.0
144
0.0008202099737533
144
0.0
144
0.0
144
0.0
144
0.0
144
1.0
144
0.0
144
0.0
144
0.0
144
0.0
144
1.0
147
0.0008202099737533
147
0.0
147
0.0
147
0.0
147
0.0
147
0.0008202099737533
147
0.0
147
0.0
147
0.0
147
0.0
147
1.0
147
0.0
147
0.0
147
0.0
147
0.0
147
1.0
  0
MLEADERSTYLE
  5
3F0
102
{ACAD_REACTORS
330
3EF
102
}
330
3EF
100
AcDbMLeaderStyle
170
     2
171
     1
172
     0
 90
        2
 40
0.0
 41
0.0
173
     1
 91
-1056964608
340
14
 92
       -2
290
     1
 42
2.0
291
     1
 43
0.36
  3
Standard
 44
4.0
300

342
11
174
     1
178
     6
175
     1
176
     0
 93
-1056964608
 45
4.0
292
     0
297
     0
 46
4.0
 94
-1056964608
 47
1.0
 49
1.0
140
1.0
293
     1
141
0.0
294
     1
177
     0
142
1.0
295
     0
296
     0
143
0.125
1001
ACAD_MLEADERVER
1070
     2
  0
MLINESTYLE
  5
18
102
{ACAD_REACTORS
330
17
102
}
330
17
100
AcDbMlineStyle
  2
STANDARD
 70
     0
  3

 62
   256
 51
90.0
 52
90.0
 71
     2
 49
0.5
 62
   256
  6
BYLAYER
 49
-0.5
 62
   256
  6
BYLAYER
  0
ACDBPLACEHOLDER
  5
F
102
{ACAD_REACTORS
330
E
102
}
330
E
  0
SCALE
  5
3DE
102
{ACAD_REACTORS
330
3DD
102
}
330
3DD
100
AcDbScale
 70
     0
300
1:1
140
1.0
141
1.0
290
     1
  0
SCALE
  5
3DF
102
{ACAD_REACTORS
330
3DD
102
}
330
3DD
100
AcDbScale
 70
     0
300
1:2
140
1.0
141
2.0
290
     0
  0
SCALE
  5
3E0
102
{ACAD_REACTORS
330
3DD
102
}
330
3DD
100
AcDbScale
 70
     0
300
1:4
140
1.0
141
4.0
290
     0
  0
SCALE
  5
3E1
102
{ACAD_REACTORS
330
3DD
102
}
330
3DD
100
AcDbScale
 70
     0
300
1:5
140
1.0
141
5.0
290
     0
  0
SCALE
  5
3E2
102
{ACAD_REACTORS
330
3DD
102
}
330
3DD
100
AcDbScale
 70
     0
300
1:8
140
1.0
141
8.0
290
     0
  0
SCALE
  5
3E3
102
{ACAD_REACTORS
330
3DD
102
}
330
3DD
100
AcDbScale
 70
     0
300
1:10
140
1.0
141
10.0
290
     0
  0
SCALE
  5
3E4
102
{ACAD_REACTORS
330
3DD
102
}
330
3DD
100
AcDbScale
 70
     0
300
1:16
140
1.0
141
16.0
290
     0
  0
SCALE
  5
3E5
102
{ACAD_REACTORS
330
3DD
102
}
330
3DD
100
AcDbScale
 70
     0
300
1:20
140
1.0
141
20.0
290
     0
  0
SCALE
  5
3E6
102
{ACAD_REACTORS
330
3DD
102
}
330
3DD
100
AcDbScale
 70
     0
300
1:30
140
1.0
141
30.0
290
     0
  0
SCALE
  5
3E7
102
{ACAD_REACTORS
330
3DD
102
}
330
3DD
100
AcDbScale
 70
     0
300
1:40
140
1.0
141
40.0
290
     0
  0
SCALE
  5
3E8
102
{ACAD_REACTORS
330
3DD
102
}
330
3DD
100
AcDbScale
 70
     0
300
1:50
140
1.0
141
50.0
290
     0
  0
SCALE
  5
3E9
102
{ACAD_REACTORS
330
3DD
102
}
330
3DD
100
AcDbScale
 70
     0
300
1:100
140
1.0
141
100.0
290
     0
  0
SCALE
  5
3EA
102
{ACAD_REACTORS
330
3DD
102
}
330
3DD
100
AcDbScale
 70
     0
300
2:1
140
2.0
141
1.0
290
     0
  0
SCALE
  5
3EB
102
{ACAD_REACTORS
330
3DD
102
}
330
3DD
100
AcDbScale
 70
     0
300
4:1
140
4.0
141
1.0
290
     0
  0
SCALE
  5
3EC
102
{ACAD_REACTORS
330
3DD
102
}
330
3DD
100
AcDbScale
 70
     0
300
8:1
140
8.0
141
1.0
290
     0
  0
SCALE
  5
3ED
102
{ACAD_REACTORS
330
3DD
102
}
330
3DD
100
AcDbScale
 70
     0
300
10:1
140
10.0
141
1.0
290
     0
  0
SCALE
  5
3EE
102
{ACAD_REACTORS
330
3DD
102
}
330
3DD
100
AcDbScale
 70
     0
300
100:1
140
100.0
141
1.0
290
     0
  0
TABLESTYLE
  5
11B
102
{ACAD_XDICTIONARY
360
F32
102
}
102
{ACAD_REACTORS
330
11A
102
}
330
11A
100
AcDbTableStyle
  3
Standard
 70
     0
 71
     0
 40
1.5
 41
1.5
280
     0
281
     0
  7
STANDARD
140
4.5
170
     2
 62
     0
 63
     7
283
     0
274
    -2
284
     1
 64
     0
275
    -2
285
     1
 65
     0
276
    -2
286
     1
 66
     0
277
    -2
287
     1
 67
     0
278
    -2
288
     1
 68
     0
279
    -2
289
     1
 69
     0
  7
STANDARD
140
6.0
170
     5
 62
     0
 63
     7
283
     0
274
    -2
284
     1
 64
     0
275
    -2
285
     1
 65
     0
276
    -2
286
     1
 66
     0
277
    -2
287
     1
 67
     0
278
    -2
288
     1
 68
     0
279
    -2
289
     1
 69
     0
  7
STANDARD
140
4.5
170
     5
 62
     0
 63
     7
283
     0
274
    -2
284
     1
 64
     0
275
    -2
285
     1
 65
     0
276
    -2
286
     1
 66
     0
277
    -2
287
     1
 67
     0
278
    -2
288
     1
 68
     0
279
    -2
289
     1
 69
     0
  0
VISUALSTYLE
  5
3D2
102
{ACAD_REACTORS
330
3CC
102
}
330
3CC
100
AcDbVisualStyle
  2
2dWireframe
 70
     4
 71
     0
 72
     2
 73
     0
 90
        0
 40
-0.6
 41
-30.0
 62
     5
 63
     7
 74
     1
 91
        4
 64
     7
 65
   257
 75
     1
175
     1
 42
1.0
 92
        0
 66
   257
 43
1.0
 76
     1
 77
     6
 78
     2
 67
     7
 79
     5
170
     0
171
     0
290
     0
174
     0
 93
        1
 44
0.0
173
     0
291
     0
 45
0.0
1001
ACAD
1000
AcDbSavedByObjectVersion
1070
     0
1000
AcDbSavedByObjectVersion
1070
     0
1000
AcDbSavedByObjectVersion
1070
     0
1000
AcDbSavedByObjectVersion
1070
     0
  0
VISUALSTYLE
  5
3D4
102
{ACAD_REACTORS
330
3CC
102
}
330
3CC
100
AcDbVisualStyle
  2
3D Hidden
 70
     6
 71
     1
 72
     2
 73
     2
 90
        0
 40
-0.6
 41
-30.0
 62
     5
 63
     7
 74
     2
 91
        2
 64
     7
 65
   257
 75
     2
175
     1
 42
40.0
 92
        0
 66
   257
 43
1.0
 76
     1
 77
     6
 78
     2
 67
     7
 79
     3
170
     0
171
     0
290
     0
174
     0
 93
        1
 44
0.0
173
     0
291
     0
 45
0.0
1001
ACAD
1000
AcDbSavedByObjectVersion
1070
     0
1000
AcDbSavedByObjectVersion
1070
     0
1000
AcDbSavedByObjectVersion
1070
     0
1000
AcDbSavedByObjectVersion
1070
     0
  0
VISUALSTYLE
  5
3D3
102
{ACAD_REACTORS
330
3CC
102
}
330
3CC
100
AcDbVisualStyle
  2
3dWireframe
 70
     5
 71
     0
 72
     2
 73
     0
 90
        0
 40
-0.6
 41
-30.0
 62
     5
 63
     7
 74
     1
 91
        4
 64
     7
 65
   257
 75
     1
175
     1
 42
1.0
 92
        0
 66
   257
 43
1.0
 76
     1
 77
     6
 78
     2
 67
     7
 79
     5
170
     0
171
     0
290
     0
174
     0
 93
        1
 44
0.0
173
     0
291
     0
 45
0.0
1001
ACAD
1000
AcDbSavedByObjectVersion
1070
     0
1000
AcDbSavedByObjectVersion
1070
     0
1000
AcDbSavedByObjectVersion
1070
     0
1000
AcDbSavedByObjectVersion
1070
     0
  0
VISUALSTYLE
  5
3D1
102
{ACAD_REACTORS
330
3CC
102
}
330
3CC
100
AcDbVisualStyle
  2
Basic
 70
     7
 71
     1
 72
     0
 73
     1
 90
        0
 40
-0.6
 41
-30.0
 62
     5
 63
     7
 74
     0
 91
        4
 64
     7
 65
   257
 75
     1
175
     1
 42
1.0
 92
        8
 66
     7
 43
1.0
 76
     1
 77
     6
 78
     2
 67
     7
 79
     5
170
     0
171
     0
290
     0
174
     0
 93
        1
 44
0.0
173
     0
291
     1
 45
0.0
1001
ACAD
1000
AcDbSavedByObjectVersion
1070
     0
1000
AcDbSavedByObjectVersion
1070
     0
1000
AcDbSavedByObjectVersion
1070
     0
1000
AcDbSavedByObjectVersion
1070
     0
  0
VISUALSTYLE
  5
3D8
102
{ACAD_REACTORS
330
3CC
102
}
330
3CC
100
AcDbVisualStyle
  2
Brighten
 70
    12
 71
     2
 72
     2
 73
     0
 90
        0
 40
-0.6
 41
-30.0
 62
     5
 63
     7
 74
     1
 91
        4
 64
     7
 65
   257
 75
     1
175
     1
 42
1.0
 92
        8
 66
     7
 43
1.0
 76
     1
 77
     6
 78
     2
 67
     7
 79
     5
170
     0
171
     0
290
     0
174
     0
 93
        1
 44
50.0
173
     0
291
     1
 45
0.0
1001
ACAD
1000
AcDbSavedByObjectVersion
1070
     0
1000
AcDbSavedByObjectVersion
1070
     0
1000
AcDbSavedByObjectVersion
1070
     0
1000
AcDbSavedByObjectVersion
1070
     0
  0
VISUALSTYLE
  5
3DC
102
{ACAD_REACTORS
330
3CC
102
}
330
3CC
100
AcDbVisualStyle
  2
ColorChange
 70
    16
 71
     2
 72
     2
 73
     3
 90
        0
 40
-0.6
 41
-30.0
 62
     5
 63
     8
 74
     1
 91
        4
 64
     7
 65
   257
 75
     1
175
     1
 42
1.0
 92
        8
 66
     8
 43
1.0
 76
     1
 77
     6
 78
     2
 67
     7
 79
     5
170
     0
171
     0
290
     0
174
     0
 93
        1
 44
0.0
173
     0
291
     1
 45
0.0
1001
ACAD
1000
AcDbSavedByObjectVersion
1070
     0
1000
AcDbSavedByObjectVersion
1070
     0
1000
AcDbSavedByObjectVersion
1070
     0
1000
AcDbSavedByObjectVersion
1070
     0
  0
VISUALSTYLE
  5
3D5
102
{ACAD_REACTORS
330
3CC
102
}
330
3CC
100
AcDbVisualStyle
  2
Conceptual
 70
     9
 71
     3
 72
     2
 73
     0
 90
        0
 40
-0.6
 41
-30.0
 62
     5
 63
     7
 74
     2
 91
        2
 64
     7
 65
   257
 75
     1
175
     1
 42
40.0
 92
        8
 66
     7
 43
1.0
 76
     1
 77
     6
 78
     2
 67
     7
 79
     3
170
     0
171
     0
290
     0
174
     0
 93
        1
 44
0.0
173
     0
291
     0
 45
0.0
1001
ACAD
1000
AcDbSavedByObjectVersion
1070
     0
1000
AcDbSavedByObjectVersion
1070
     0
1000
AcDbSavedByObjectVersion
1070
     0
1000
AcDbSavedByObjectVersion
1070
     0
  0
VISUALSTYLE
  5
3D7
102
{ACAD_REACTORS
330
3CC
102
}
330
3CC
100
AcDbVisualStyle
  2
Dim
 70
    11
 71
     2
 72
     2
 73
     0
 90
        0
 40
-0.6
 41
-30.0
 62
     5
 63
     7
 74
     1
 91
        4
 64
     7
 65
   257
 75
     1
175
     1
 42
1.0
 92
        8
 66
     7
 43
1.0
 76
     1
 77
     6
 78
     2
 67
     7
 79
     5
170
     0
171
     0
290
     0
174
     0
 93
        1
 44
-50.0
173
     0
291
     1
 45
0.0
1001
ACAD
1000
AcDbSavedByObjectVersion
1070
     0
1000
AcDbSavedByObjectVersion
1070
     0
1000
AcDbSavedByObjectVersion
1070
     0
1000
AcDbSavedByObjectVersion
1070
     0
  0
VISUALSTYLE
  5
3DB
102
{ACAD_REACTORS
330
3CC
102
}
330
3CC
100
AcDbVisualStyle
  2
Facepattern
 70
    15
 71
     2
 72
     2
 73
     0
 90
        0
 40
-0.6
 41
-30.0
 62
     5
 63
     7
 74
     1
 91
        4
 64
     7
 65
   257
 75
     1
175
     1
 42
1.0
 92
        8
 66
     7
 43
1.0
 76
     1
 77
     6
 78
     2
 67
     7
 79
     5
170
     0
171
     0
290
     0
174
     0
 93
        1
 44
0.0
173
     0
291
     1
 45
0.0
1001
ACAD
1000
AcDbSavedByObjectVersion
1070
     0
1000
AcDbSavedByObjectVersion
1070
     0
1000
AcDbSavedByObjectVersion
1070
     0
1000
AcDbSavedByObjectVersion
1070
     0
  0
VISUALSTYLE
  5
3CD
102
{ACAD_REACTORS
330
3CC
102
}
330
3CC
100
AcDbVisualStyle
  2
Flat
 70
     0
 71
     2
 72
     1
 73
     1
 90
        2
 40
-0.6
 41
30.0
 62
     5
 63
     7
 74
     0
 91
        4
 64
     7
 65
   257
 75
     1
175
     1
 42
1.0
 92
        8
 66
     7
 43
1.0
 76
     1
 77
     6
 78
     2
 67
     7
 79
     5
170
     0
171
     0
290
     0
174
     0
 93
       13
 44
0.0
173
     0
291
     1
 45
0.0
1001
ACAD
1000
AcDbSavedByObjectVersion
1070
     0
1000
AcDbSavedByObjectVersion
1070
     0
1000
AcDbSavedByObjectVersion
1070
     0
1000
AcDbSavedByObjectVersion
1070
     0
  0
VISUALSTYLE
  5
3CE
102
{ACAD_REACTORS
330
3CC
102
}
330
3CC
100
AcDbVisualStyle
  2
FlatWithEdges
 70
     1
 71
     2
 72
     1
 73
     1
 90
        2
 40
-0.6
 41
30.0
 62
     5
 63
     7
 74
     1
 91
        4
 64
     7
 65
   257
 75
     1
175
     1
 42
1.0
 92
        0
 66
   257
 43
1.0
 76
     1
 77
     6
 78
     2
 67
     7
 79
     5
170
     0
171
     0
290
     0
174
     0
 93
       13
 44
0.0
173
     0
291
     1
 45
0.0
1001
ACAD
1000
AcDbSavedByObjectVersion
1070
     0
1000
AcDbSavedByObjectVersion
1070
     0
1000
AcDbSavedByObjectVersion
1070
     0
1000
AcDbSavedByObjectVersion
1070
     0
  0
VISUALSTYLE
  5
3CF
102
{ACAD_REACTORS
330
3CC
102
}
330
3CC
100
AcDbVisualStyle
  2
Gouraud
 70
     2
 71
     2
 72
     2
 73
     1
 90
        2
 40
-0.6
 41
30.0
 62
     5
 63
     7
 74
     0
 91
        4
 64
     7
 65
   257
 75
     1
175
     1
 42
1.0
 92
        0
 66
     7
 43
1.0
 76
     1
 77
     6
 78
     2
 67
     7
 79
     5
170
     0
171
     0
290
     0
174
     0
 93
       13
 44
0.0
173
     0
291
     1
 45
0.0
1001
ACAD
1000
AcDbSavedByObjectVersion
1070
     0
1000
AcDbSavedByObjectVersion
1070
     0
1000
AcDbSavedByObjectVersion
1070
     0
1000
AcDbSavedByObjectVersion
1070
     0
  0
VISUALSTYLE
  5
3D0
102
{ACAD_REACTORS
330
3CC
102
}
330
3CC
100
AcDbVisualStyle
  2
GouraudWithEdges
 70
     3
 71
     2
 72
     2
 73
     1
 90
        2
 40
-0.6
 41
30.0
 62
     5
 63
     7
 74
     1
 91
        4
 64
     7
 65
   257
 75
     1
175
     1
 42
1.0
 92
        0
 66
   257
 43
1.0
 76
     1
 77
     6
 78
     2
 67
     7
 79
     5
170
     0
171
     0
290
     0
174
     0
 93
       13
 44
0.0
173
     0
291
     1
 45
0.0
1001
ACAD
1000
AcDbSavedByObjectVersion
1070
     0
1000
AcDbSavedByObjectVersion
1070
     0
1000
AcDbSavedByObjectVersion
1070
     0
1000
AcDbSavedByObjectVersion
1070
     0
  0
VISUALSTYLE
  5
3DA
102
{ACAD_REACTORS
330
3CC
102
}
330
3CC
100
AcDbVisualStyle
  2
Linepattern
 70
    14
 71
     2
 72
     2
 73
     0
 90
        0
 40
-0.6
 41
-30.0
 62
     5
 63
     7
 74
     1
 91
        4
 64
     7
 65
   257
 75
     7
175
     7
 42
1.0
 92
        8
 66
     7
 43
1.0
 76
     1
 77
     6
 78
     2
 67
     7
 79
     5
170
     0
171
     0
290
     0
174
     0
 93
        1
 44
0.0
173
     0
291
     1
 45
0.0
1001
ACAD
1000
AcDbSavedByObjectVersion
1070
     0
1000
AcDbSavedByObjectVersion
1070
     0
1000
AcDbSavedByObjectVersion
1070
     0
1000
AcDbSavedByObjectVersion
1070
     0
  0
VISUALSTYLE
  5
3D6
102
{ACAD_REACTORS
330
3CC
102
}
330
3CC
100
AcDbVisualStyle
  2
Realistic
 70
     8
 71
     2
 72
     2
 73
     0
 90
        0
 40
-0.6
 41
-30.0
 62
     5
 63
     7
 74
     1
 91
        0
 64
     7
 65
   257
 75
     1
175
     1
 42
1.0
 92
        8
 66
     8
 43
1.0
 76
     1
 77
     6
 78
     2
 67
     7
 79
     5
170
     0
171
     0
290
     0
174
     0
 93
       13
 44
0.0
173
     0
291
     0
 45
0.0
1001
ACAD
1000
AcDbSavedByObjectVersion
1070
     0
1000
AcDbSavedByObjectVersion
1070
     0
1000
AcDbSavedByObjectVersion
1070
     0
1000
AcDbSavedByObjectVersion
1070
     0
  0
VISUALSTYLE
  5
3D9
102
{ACAD_REACTORS
330
3CC
102
}
330
3CC
100
AcDbVisualStyle
  2
Thicken
 70
    13
 71
     2
 72
     2
 73
     0
 90
        0
 40
-0.6
 41
-30.0
 62
     5
 63
     7
 74
     1
 91
        4
 64
     7
 65
   257
 75
     1
175
     1
 42
1.0
 92
       12
 66
     7
 43
1.0
 76
     1
 77
     6
 78
     2
 67
     7
 79
     5
170
     0
171
     0
290
     0
174
     0
 93
        1
 44
0.0
173
     0
291
     1
 45
0.0
1001
ACAD
1000
AcDbSavedByObjectVersion
1070
     0
1000
AcDbSavedByObjectVersion
1070
     0
1000
AcDbSavedByObjectVersion
1070
     0
1000
AcDbSavedByObjectVersion
1070
     0
  0
DICTIONARYVAR
  5
F31
102
{ACAD_REACTORS
330
94
102
}
330
94
100
DictionaryVariables
280
     0
  1
1:1
  0
DICTIONARYVAR
  5
F30
102
{ACAD_REACTORS
330
94
102
}
330
94
100
DictionaryVariables
280
     0
  1
STANDARD
  0
DICTIONARYVAR
  5
138
102
{ACAD_REACTORS
330
94
102
}
330
94
100
DictionaryVariables
280
     0
  1
STANDARD
  0
DICTIONARYVAR
  5
96
102
{ACAD_REACTORS
330
94
102
}
330
94
100
DictionaryVariables
280
     0
  1
2
  0
DICTIONARYVAR
  5
95
102
{ACAD_REACTORS
330
94
102
}
330
94
100
DictionaryVariables
280
     0
  1
0
  0
DICTIONARYVAR
  5
11C3
102
{ACAD_REACTORS
330
94
102
}
330
94
100
DictionaryVariables
280
     0
  1
127
  0
DICTIONARY
  5
272
102
{ACAD_REACTORS
330
5B
102
}
330
5B
100
AcDbDictionary
281
     1
  0
DICTIONARY
  5
61
102
{ACAD_REACTORS
330
5B
102
}
330
5B
100
AcDbDictionary
281
     1
  0
XRECORD
  5
123
102
{ACAD_REACTORS
330
5B
102
}
330
5B
100
AcDbXrecord
280
     1
 90
-1023410169
  0
DICTIONARY
  5
11CB
330
1E
100
AcDbDictionary
280
     1
281
     1
  3
ACAD_XREC_ROUNDTRIP
360
11CC
  0
DICTIONARY
  5
11CF
330
26
100
AcDbDictionary
280
     1
281
     1
  3
ACAD_XREC_ROUNDTRIP
360
11D0
  0
DICTIONARY
  5
11CD
330
22
100
AcDbDictionary
280
     1
281
     1
  3
ACAD_XREC_ROUNDTRIP
360
11CE
  0
DICTIONARY
  5
3BD
330
3BC
100
AcDbDictionary
280
     1
281
     1
  3
ACAD_XREC_ROUNDTRIP
360
F39
  3
BUMPTILE
360
3BF
  3
DIFFUSETILE
360
3BE
  3
OPACITYTILE
360
3C2
  3
REFLECTIONTILE
360
3C1
  3
REFRACTIONTILE
360
3C3
  3
SPECULARTILE
360
3C0
  0
DICTIONARY
  5
3B5
330
3B4
100
AcDbDictionary
280
     1
281
     1
  3
ACAD_XREC_ROUNDTRIP
360
F38
  3
BUMPTILE
360
3B7
  3
DIFFUSETILE
360
3B6
  3
OPACITYTILE
360
3BA
  3
REFLECTIONTILE
360
3B9
  3
REFRACTIONTILE
360
3BB
  3
SPECULARTILE
360
3B8
  0
DICTIONARY
  5
3C5
330
3C4
100
AcDbDictionary
280
     1
281
     1
  3
ACAD_XREC_ROUNDTRIP
360
F3A
  3
BUMPTILE
360
3C7
  3
DIFFUSETILE
360
3C6
  3
OPACITYTILE
360
3CA
  3
REFLECTIONTILE
360
3C9
  3
REFRACTIONTILE
360
3CB
  3
SPECULARTILE
360
3C8
  0
DICTIONARY
  5
F32
330
11B
100
AcDbDictionary
280
     1
281
     1
  3
ACAD_ROUNDTRIP_2008_TABLESTYLE_CELLSTYLEMAP
360
11C4
  3
ACAD_XREC_ROUNDTRIP
360
11D1
  0
XRECORD
  5
11CC
102
{ACAD_REACTORS
330
11CB
102
}
330
11CB
100
AcDbXrecord
280
     1
102
SHADEPLOT
 70
     0
102
SHADEPLOTRESLEVEL
 70
     2
102
SHADEPLOTCUSTOMDPI
 70
   300
  0
XRECORD
  5
11D0
102
{ACAD_REACTORS
330
11CF
102
}
330
11CF
100
AcDbXrecord
280
     1
102
SHADEPLOT
 70
     0
102
SHADEPLOTRESLEVEL
 70
     2
102
SHADEPLOTCUSTOMDPI
 70
   300
  0
XRECORD
  5
11CE
102
{ACAD_REACTORS
330
11CD
102
}
330
11CD
100
AcDbXrecord
280
     1
102
SHADEPLOT
 70
     0
102
SHADEPLOTRESLEVEL
 70
     2
102
SHADEPLOTCUSTOMDPI
 70
   300
  0
XRECORD
  5
F39
102
{ACAD_REACTORS
330
3BD
102
}
330
3BD
100
AcDbXrecord
280
     1
102
MATERIAL
148
0.0
149
0.0
149
0.0
 93
        0
 94
      127
282
     0
 72
     0
 77
     0
171
     0
175
     0
179
     0
273
     0
  0
XRECORD
  5
3BF
102
{ACAD_REACTORS
330
3BD
102
}
330
3BD
100
AcDbXrecord
280
     1
270
     1
271
     1
  0
XRECORD
  5
3BE
102
{ACAD_REACTORS
330
3BD
102
}
330
3BD
100
AcDbXrecord
280
     1
270
     1
271
     1
  0
XRECORD
  5
3C2
102
{ACAD_REACTORS
330
3BD
102
}
330
3BD
100
AcDbXrecord
280
     1
270
     1
271
     1
  0
XRECORD
  5
3C1
102
{ACAD_REACTORS
330
3BD
102
}
330
3BD
100
AcDbXrecord
280
     1
270
     1
271
     1
  0
XRECORD
  5
3C3
102
{ACAD_REACTORS
330
3BD
102
}
330
3BD
100
AcDbXrecord
280
     1
270
     1
271
     1
  0
XRECORD
  5
3C0
102
{ACAD_REACTORS
330
3BD
102
}
330
3BD
100
AcDbXrecord
280
     1
270
     1
271
     1
  0
XRECORD
  5
F38
102
{ACAD_REACTORS
330
3B5
102
}
330
3B5
100
AcDbXrecord
280
     1
102
MATERIAL
148
0.0
149
0.0
149
0.0
 93
        0
 94
      127
282
     0
 72
     0
 77
     0
171
     0
175
     0
179
     0
273
     0
  0
XRECORD
  5
3B7
102
{ACAD_REACTORS
330
3B5
102
}
330
3B5
100
AcDbXrecord
280
     1
270
     1
271
     1
  0
XRECORD
  5
3B6
102
{ACAD_REACTORS
330
3B5
102
}
330
3B5
100
AcDbXrecord
280
     1
270
     1
271
     1
  0
XRECORD
  5
3BA
102
{ACAD_REACTORS
330
3B5
102
}
330
3B5
100
AcDbXrecord
280
     1
270
     1
271
     1
  0
XRECORD
  5
3B9
102
{ACAD_REACTORS
330
3B5
102
}
330
3B5
100
AcDbXrecord
280
     1
270
     1
271
     1
  0
XRECORD
  5
3BB
102
{ACAD_REACTORS
330
3B5
102
}
330
3B5
100
AcDbXrecord
280
     1
270
     1
271
     1
  0
XRECORD
  5
3B8
102
{ACAD_REACTORS
330
3B5
102
}
330
3B5
100
AcDbXrecord
280
     1
270
     1
271
     1
  0
XRECORD
  5
F3A
102
{ACAD_REACTORS
330
3C5
102
}
330
3C5
100
AcDbXrecord
280
     1
102
MATERIAL
148
0.0
149
0.0
149
0.0
 93
        0
 94
      127
282
     0
 72
     0
 77
     0
171
     0
175
     0
179
     0
273
     0
  0
XRECORD
  5
3C7
102
{ACAD_REACTORS
330
3C5
102
}
330
3C5
100
AcDbXrecord
280
     1
270
     1
271
     1
  0
XRECORD
  5
3C6
102
{ACAD_REACTORS
330
3C5
102
}
330
3C5
100
AcDbXrecord
280
     1
270
     1
271
     1
  0
XRECORD
  5
3CA
102
{ACAD_REACTORS
330
3C5
102
}
330
3C5
100
AcDbXrecord
280
     1
270
     1
271
     1
  0
XRECORD
  5
3C9
102
{ACAD_REACTORS
330
3C5
102
}
330
3C5
100
AcDbXrecord
280
     1
270
     1
271
     1
  0
XRECORD
  5
3CB
102
{ACAD_REACTORS
330
3C5
102
}
330
3C5
100
AcDbXrecord
280
     1
270
     1
271
     1
  0
XRECORD
  5
3C8
102
{ACAD_REACTORS
330
3C5
102
}
330
3C5
100
AcDbXrecord
280
     1
270
     1
271
     1
  0
CELLSTYLEMAP
  5
11C4
102
{ACAD_REACTORS
330
F32
102
}
330
F32
100
AcDbCellStyleMap
 90
        3
300
CELLSTYLE
  1
TABLEFORMAT_BEGIN
 90
        5
170
     1
 91
        0
 92
    32768
 62
   257
 93
        1
300
CONTENTFORMAT
  1
CONTENTFORMAT_BEGIN
 90
        0
 91
        0
 92
        4
 93
        0
300

 40
0.0
140
1.0
 94
        5
 62
     0
340
11
144
6.0
309
CONTENTFORMAT_END
171
     1
301
MARGIN
  1
CELLMARGIN_BEGIN
 40
1.5
 40
1.5
 40
1.5
 40
1.5
 40
0.18
 40
0.18
309
CELLMARGIN_END
 94
        6
 95
        1
302
GRIDFORMAT
  1
GRIDFORMAT_BEGIN
 90
        0
 91
        1
 62
     0
 92
       -2
340
0
 93
        0
 40
0.045
309
GRIDFORMAT_END
 95
        2
302
GRIDFORMAT
  1
GRIDFORMAT_BEGIN
 90
        0
 91
        1
 62
     0
 92
       -2
340
0
 93
        0
 40
0.045
309
GRIDFORMAT_END
 95
        4
302
GRIDFORMAT
  1
GRIDFORMAT_BEGIN
 90
        0
 91
        1
 62
     0
 92
       -2
340
0
 93
        0
 40
0.045
309
GRIDFORMAT_END
 95
        8
302
GRIDFORMAT
  1
GRIDFORMAT_BEGIN
 90
        0
 91
        1
 62
     0
 92
       -2
340
0
 93
        0
 40
0.045
309
GRIDFORMAT_END
 95
       16
302
GRIDFORMAT
  1
GRIDFORMAT_BEGIN
 90
        0
 91
        1
 62
     0
 92
       -2
340
0
 93
        0
 40
0.045
309
GRIDFORMAT_END
 95
       32
302
GRIDFORMAT
  1
GRIDFORMAT_BEGIN
 90
        0
 91
        1
 62
     0
 92
       -2
340
0
 93
        0
 40
0.045
309
GRIDFORMAT_END
309
TABLEFORMAT_END
  1
CELLSTYLE_BEGIN
 90
        1
 91
        1
300
_TITLE
309
CELLSTYLE_END
300
CELLSTYLE
  1
TABLEFORMAT_BEGIN
 90
        5
170
     1
 91
        0
 92
        0
 62
   257
 93
        1
300
CONTENTFORMAT
  1
CONTENTFORMAT_BEGIN
 90
        0
 91
        0
 92
        4
 93
        0
300

 40
0.0
140
1.0
 94
        5
 62
     0
340
11
144
4.5
309
CONTENTFORMAT_END
171
     1
301
MARGIN
  1
CELLMARGIN_BEGIN
 40
1.5
 40
1.5
 40
1.5
 40
1.5
 40
0.18
 40
0.18
309
CELLMARGIN_END
 94
        6
 95
        1
302
GRIDFORMAT
  1
GRIDFORMAT_BEGIN
 90
        0
 91
        1
 62
     0
 92
       -2
340
0
 93
        0
 40
0.045
309
GRIDFORMAT_END
 95
        2
302
GRIDFORMAT
  1
GRIDFORMAT_BEGIN
 90
        0
 91
        1
 62
     0
 92
       -2
340
0
 93
        0
 40
0.045
309
GRIDFORMAT_END
 95
        4
302
GRIDFORMAT
  1
GRIDFORMAT_BEGIN
 90
        0
 91
        1
 62
     0
 92
       -2
340
0
 93
        0
 40
0.045
309
GRIDFORMAT_END
 95
        8
302
GRIDFORMAT
  1
GRIDFORMAT_BEGIN
 90
        0
 91
        1
 62
     0
 92
       -2
340
0
 93
        0
 40
0.045
309
GRIDFORMAT_END
 95
       16
302
GRIDFORMAT
  1
GRIDFORMAT_BEGIN
 90
        0
 91
        1
 62
     0
 92
       -2
340
0
 93
        0
 40
0.045
309
GRIDFORMAT_END
 95
       32
302
GRIDFORMAT
  1
GRIDFORMAT_BEGIN
 90
        0
 91
        1
 62
     0
 92
       -2
340
0
 93
        0
 40
0.045
309
GRIDFORMAT_END
309
TABLEFORMAT_END
  1
CELLSTYLE_BEGIN
 90
        2
 91
        1
300
_HEADER
309
CELLSTYLE_END
300
CELLSTYLE
  1
TABLEFORMAT_BEGIN
 90
        5
170
     1
 91
        0
 92
        0
 62
   257
 93
        1
300
CONTENTFORMAT
  1
CONTENTFORMAT_BEGIN
 90
        0
 91
        0
 92
        4
 93
        0
300

 40
0.0
140
1.0
 94
        2
 62
     0
340
11
144
4.5
309
CONTENTFORMAT_END
171
     1
301
MARGIN
  1
CELLMARGIN_BEGIN
 40
1.5
 40
1.5
 40
1.5
 40
1.5
 40
0.18
 40
0.18
309
CELLMARGIN_END
 94
        6
 95
        1
302
GRIDFORMAT
  1
GRIDFORMAT_BEGIN
 90
        0
 91
        1
 62
     0
 92
       -2
340
0
 93
        0
 40
0.045
309
GRIDFORMAT_END
 95
        2
302
GRIDFORMAT
  1
GRIDFORMAT_BEGIN
 90
        0
 91
        1
 62
     0
 92
       -2
340
0
 93
        0
 40
0.045
309
GRIDFORMAT_END
 95
        4
302
GRIDFORMAT
  1
GRIDFORMAT_BEGIN
 90
        0
 91
        1
 62
     0
 92
       -2
340
0
 93
        0
 40
0.045
309
GRIDFORMAT_END
 95
        8
302
GRIDFORMAT
  1
GRIDFORMAT_BEGIN
 90
        0
 91
        1
 62
     0
 92
       -2
340
0
 93
        0
 40
0.045
309
GRIDFORMAT_END
 95
       16
302
GRIDFORMAT
  1
GRIDFORMAT_BEGIN
 90
        0
 91
        1
 62
     0
 92
       -2
340
0
 93
        0
 40
0.045
309
GRIDFORMAT_END
 95
       32
302
GRIDFORMAT
  1
GRIDFORMAT_BEGIN
 90
        0
 91
        1
 62
     0
 92
       -2
340
0
 93
        0
 40
0.045
309
GRIDFORMAT_END
309
TABLEFORMAT_END
  1
CELLSTYLE_BEGIN
 90
        3
 91
        2
300
_DATA
309
CELLSTYLE_END
  0
XRECORD
  5
11D1
102
{ACAD_REACTORS
330
F32
102
}
330
F32
100
AcDbXrecord
280
     1
102
ACAD_ROUNDTRIP_PRE2007_TABLESTYLE
 90
        4
 91
        0
  1

 92
        4
 93
        0
  2

 94
        4
 95
        0
  3

  0
ENDSEC
  0
EOF
