  0
SECTION
  2
HEADER
  9
$ACADVER
  1
AC1015
  9
$ACADMAINTVER
 70
    20
  9
$DWGCODEPAGE
  3
ANSI_1252
  9
$INSBASE
 10
0.0
 20
0.0
 30
0.0
  9
$EXTMIN
 10
2477.784939532588
 20
892.9458924049926
 30
-0.0015258207003583
  9
$EXTMAX
 10
2824.855907239579
 20
1379.227329243224
 30
0.0000000349246037
  9
$LIMMIN
 10
0.0
 20
0.0
  9
$LIMMAX
 10
420.0
 20
297.0
  9
$ORTHOMODE
 70
     0
  9
$REGENMODE
 70
     1
  9
$FILLMODE
 70
     1
  9
$QTEXTMODE
 70
     0
  9
$MIRRTEXT
 70
     1
  9
$LTSCALE
 40
1.0
  9
$ATTMODE
 70
     1
  9
$TEXTSIZE
 40
2.5
  9
$TRACEWID
 40
1.0
  9
$TEXTSTYLE
  7
STANDARD
  9
$CLAYER
  8
0
  9
$CELTYPE
  6
ByLayer
  9
$CECOLOR
 62
   256
  9
$CELTSCALE
 40
1.0
  9
$DISPSILH
 70
     0
  9
$DIMSCALE
 40
1.0
  9
$DIMASZ
 40
3.5
  9
$DIMEXO
 40
1.0
  9
$DIMDLI
 40
10.0
  9
$DIMRND
 40
0.0
  9
$DIMDLE
 40
0.0
  9
$DIMEXE
 40
1.0
  9
$DIMTP
 40
0.1
  9
$DIMTM
 40
0.1
  9
$DIMTXT
 40
3.5
  9
$DIMCEN
 40
0.0
  9
$DIMTSZ
 40
0.0
  9
$DIMTOL
 70
     0
  9
$DIMLIM
 70
     0
  9
$DIMTIH
 70
     0
  9
$DIMTOH
 70
     0
  9
$DIMSE1
 70
     0
  9
$DIMSE2
 70
     0
  9
$DIMTAD
 70
     1
  9
$DIMZIN
 70
     8
  9
$DIMBLK
  1

  9
$DIMASO
 70
     1
  9
$DIMSHO
 70
     1
  9
$DIMPOST
  1

  9
$DIMAPOST
  1
"
  9
$DIMALT
 70
     0
  9
$DIMALTD
 70
     2
  9
$DIMALTF
 40
0.0393701
  9
$DIMLFAC
 40
1.0
  9
$DIMTOFL
 70
     1
  9
$DIMTVP
 40
0.0
  9
$DIMTIX
 70
     0
  9
$DIMSOXD
 70
     0
  9
$DIMSAH
 70
     0
  9
$DIMBLK1
  1

  9
$DIMBLK2
  1

  9
$DIMSTYLE
  2
AM_DIN
  9
$DIMCLRD
 70
   256
  9
$DIMCLRE
 70
   256
  9
$DIMCLRT
 70
     2
  9
$DIMTFAC
 40
0.71
  9
$DIMGAP
 40
1.5
  9
$DIMJUST
 70
     0
  9
$DIMSD1
 70
     0
  9
$DIMSD2
 70
     0
  9
$DIMTOLJ
 70
     0
  9
$DIMTZIN
 70
     8
  9
$DIMALTZ
 70
     0
  9
$DIMALTTZ
 70
     0
  9
$DIMUPT
 70
     0
  9
$DIMDEC
 70
     2
  9
$DIMTDEC
 70
     3
  9
$DIMALTU
 70
     2
  9
$DIMALTTD
 70
     4
  9
$DIMTXSTY
  7
STANDARD
  9
$DIMAUNIT
 70
     0
  9
$DIMADEC
 70
     0
  9
$DIMALTRND
 40
0.0
  9
$DIMAZIN
 70
     2
  9
$DIMDSEP
 70
    46
  9
$DIMATFIT
 70
     3
  9
$DIMFRAC
 70
     0
  9
$DIMLDRBLK
  1

  9
$DIMLUNIT
 70
     2
  9
$DIMLWD
 70
    -1
  9
$DIMLWE
 70
    -1
  9
$DIMTMOVE
 70
     0
  9
$LUNITS
 70
     2
  9
$LUPREC
 70
     2
  9
$SKETCHINC
 40
1.0
  9
$FILLETRAD
 40
0.0
  9
$AUNITS
 70
     0
  9
$AUPREC
 70
     0
  9
$MENU
  1
.
  9
$ELEVATION
 40
0.0
  9
$PELEVATION
 40
0.0
  9
$THICKNESS
 40
0.0
  9
$LIMCHECK
 70
     0
  9
$CHAMFERA
 40
2.5
  9
$CHAMFERB
 40
2.5
  9
$CHAMFERC
 40
20.0
  9
$CHAMFERD
 40
0.0
  9
$SKPOLY
 70
     0
  9
$TDCREATE
 40
2455477.292545521
  9
$TDUCREATE
 40
2455477.250878854
  9
$TDUPDATE
 40
2455610.331726852
  9
$TDUUPDATE
 40
2455610.290060185
  9
$TDINDWG
 40
0.2414804398
  9
$TDUSRTIMER
 40
0.2414791898
  9
$USRTIMER
 70
     1
  9
$ANGBASE
 50
0.0
  9
$ANGDIR
 70
     0
  9
$PDMODE
 70
     0
  9
$PDSIZE
 40
0.0
  9
$PLINEWID
 40
0.0
  9
$SPLFRAME
 70
     0
  9
$SPLINETYPE
 70
     6
  9
$SPLINESEGS
 70
     8
  9
$HANDSEED
  5
3268
  9
$SURFTAB1
 70
     6
  9
$SURFTAB2
 70
     6
  9
$SURFTYPE
 70
     6
  9
$SURFU
 70
     6
  9
$SURFV
 70
     6
  9
$UCSBASE
  2

  9
$UCSNAME
  2

  9
$UCSORG
 10
0.0
 20
0.0
 30
0.0
  9
$UCSXDIR
 10
1.0
 20
0.0
 30
0.0
  9
$UCSYDIR
 10
0.0
 20
1.0
 30
0.0
  9
$UCSORTHOREF
  2

  9
$UCSORTHOVIEW
 70
     0
  9
$UCSORGTOP
 10
0.0
 20
0.0
 30
0.0
  9
$UCSORGBOTTOM
 10
0.0
 20
0.0
 30
0.0
  9
$UCSORGLEFT
 10
0.0
 20
0.0
 30
0.0
  9
$UCSORGRIGHT
 10
0.0
 20
0.0
 30
0.0
  9
$UCSORGFRONT
 10
0.0
 20
0.0
 30
0.0
  9
$UCSORGBACK
 10
0.0
 20
0.0
 30
0.0
  9
$PUCSBASE
  2

  9
$PUCSNAME
  2

  9
$PUCSORG
 10
0.0
 20
0.0
 30
0.0
  9
$PUCSXDIR
 10
1.0
 20
0.0
 30
0.0
  9
$PUCSYDIR
 10
0.0
 20
1.0
 30
0.0
  9
$PUCSORTHOREF
  2

  9
$PUCSORTHOVIEW
 70
     0
  9
$PUCSORGTOP
 10
0.0
 20
0.0
 30
0.0
  9
$PUCSORGBOTTOM
 10
0.0
 20
0.0
 30
0.0
  9
$PUCSORGLEFT
 10
0.0
 20
0.0
 30
0.0
  9
$PUCSORGRIGHT
 10
0.0
 20
0.0
 30
0.0
  9
$PUCSORGFRONT
 10
0.0
 20
0.0
 30
0.0
  9
$PUCSORGBACK
 10
0.0
 20
0.0
 30
0.0
  9
$USERI1
 70
     0
  9
$USERI2
 70
     0
  9
$USERI3
 70
     0
  9
$USERI4
 70
     0
  9
$USERI5
 70
     0
  9
$USERR1
 40
0.0
  9
$USERR2
 40
0.0
  9
$USERR3
 40
0.0
  9
$USERR4
 40
0.0
  9
$USERR5
 40
0.0
  9
$WORLDVIEW
 70
     1
  9
$SHADEDGE
 70
     3
  9
$SHADEDIF
 70
    70
  9
$TILEMODE
 70
     1
  9
$MAXACTVP
 70
    64
  9
$PINSBASE
 10
0.0
 20
0.0
 30
0.0
  9
$PLIMCHECK
 70
     0
  9
$PEXTMIN
 10
1.000000000000000E+20
 20
1.000000000000000E+20
 30
1.000000000000000E+20
  9
$PEXTMAX
 10
-1.000000000000000E+20
 20
-1.000000000000000E+20
 30
-1.000000000000000E+20
  9
$PLIMMIN
 10
0.0
 20
0.0
  9
$PLIMMAX
 10
420.0
 20
297.0
  9
$UNITMODE
 70
     0
  9
$VISRETAIN
 70
     1
  9
$PLINEGEN
 70
     0
  9
$PSLTSCALE
 70
     1
  9
$TREEDEPTH
 70
  3020
  9
$CMLSTYLE
  2
Standard
  9
$CMLJUST
 70
     0
  9
$CMLSCALE
 40
20.0
  9
$PROXYGRAPHICS
 70
     1
  9
$MEASUREMENT
 70
     1
  9
$CELWEIGHT
370
    -1
  9
$ENDCAPS
280
     0
  9
$JOINSTYLE
280
     0
  9
$LWDISPLAY
290
     0
  9
$INSUNITS
 70
     4
  9
$HYPERLINKBASE
  1

  9
$STYLESHEET
  1

  9
$XEDIT
290
     1
  9
$CEPSNTYPE
380
     0
  9
$PSTYLEMODE
290
     1
  9
$FINGERPRINTGUID
  2
{135D8A84-6883-4383-80F5-1B71993FAB95}
  9
$VERSIONGUID
  2
{DFBEADBC-1281-4B5E-AAAF-E3BFC3FFDB7D}
  9
$EXTNAMES
290
     1
  9
$PSVPSCALE
 40
0.0
  9
$OLESTARTUP
290
     0
  0
ENDSEC
  0
SECTION
  2
CLASSES
  0
CLASS
  1
ACDBDICTIONARYWDFLT
  2
AcDbDictionaryWithDefault
  3
ObjectDBX Classes
 90
        0
280
     0
281
     0
  0
CLASS
  1
ACME_DOCUMENT
  2
AcMeDbDoc
  3
AcMeServices
 90
     1024
280
     0
281
     0
  0
CLASS
  1
AMGSETTINGSOBJ
  2
AmgSettingsObj
  3
"AcadM|Product Description: AutoCAD Mechanical|Company: Autodesk, Inc."
 90
     1024
280
     0
281
     0
  0
CLASS
  1
ACMESCOPE
  2
AcMeScope
  3
AcMeServices
 90
     1024
280
     0
281
     0
  0
CLASS
  1
ACMECOMMANDHISTORY
  2
AcMeCommandHistory
  3
AcMeServices
 90
     1024
280
     0
281
     0
  0
CLASS
  1
ACIMSYSVARMAN
  2
AcImSysVarManager
  3
AcMeServices
 90
     1024
280
     0
281
     0
  0
CLASS
  1
ACIMREALSYSVAR
  2
AcImRealSysVar
  3
AcMeServices
 90
     1024
280
     0
281
     0
  0
CLASS
  1
ACIMINTSYSVAR
  2
AcImIntSysVar
  3
AcMeServices
 90
     1024
280
     0
281
     0
  0
CLASS
  1
ACMEDRAWINGMAN
  2
AcMeDrawingMan
  3
AcMeServices
 90
     1024
280
     0
281
     0
  0
CLASS
  1
ACMEVIEW
  2
AcMeView
  3
AcMeServices
 90
     1024
280
     0
281
     0
  0
CLASS
  1
ACDBENTITYCACHE
  2
AcMeEntityCache
  3
AcMeServices
 90
     1024
280
     0
281
     0
  0
CLASS
  1
GSMANAGER
  2
AcMeGSManager
  3
AcMeServices
 90
     1024
280
     0
281
     0
  0
CLASS
  1
AMDTINTERNALREACTOR
  2
AmdtInternalReactor
  3
AcMeServices
 90
     1024
280
     0
281
     0
  0
CLASS
  1
ACMESTATEMGR
  2
AcMeStateMgr
  3
AcMeServices
 90
     1024
280
     0
281
     0
  0
CLASS
  1
ACGREFMASTER
  2
AcGrefMaster
  3
AcAttribServices
 90
     1024
280
     0
281
     0
  0
CLASS
  1
ACME_DATABASE
  2
AcMeDbDatabase
  3
AcMeServices
 90
     1024
280
     0
281
     0
  0
CLASS
  1
ACRFINSADJUSTERMGR
  2
AcRfInsAdjusterMgr
  3
AcMeServices
 90
     1024
280
     0
281
     0
  0
CLASS
  1
ACGREFACADMASTER
  2
AcGrefacadMaster
  3
AcGrefServices
 90
     1024
280
     0
281
     0
  0
CLASS
  1
AMIMASTER
  2
AmiMaster
  3
AmiServices
 90
     1024
280
     0
281
     0
  0
CLASS
  1
ACMDATADICTIONARY
  2
AcmDataDictionary
  3
"AcmSymBB|Product Description: AutoCAD Mechanical|Company: Autodesk, Inc."
 90
     1024
280
     0
281
     0
  0
CLASS
  1
ACMDATAENTRYBLOCK
  2
AcmDataEntryBlock
  3
AcmSymBB|Product Description: AutoCAD Mechanical|Company: Autodesk, Inc.
 90
    33792
280
     0
281
     0
  0
CLASS
  1
ACIMSTRSYSVAR
  2
AcImStrSysVar
  3
AcMeServices
 90
     1024
280
     0
281
     0
  0
CLASS
  1
ACMSTANDARDISO
  2
AcmStandardISO
  3
"Amdt_StdImp|Product Description: AutoCAD Mechanical|Company: Autodesk, Inc."
 90
    33792
280
     0
281
     0
  0
CLASS
  1
AMGOBJPROPCFG
  2
AmgObjPropCfg
  3
"AmgLay|Product Description: AutoCAD Mechanical|Company: Autodesk, Inc."
 90
     1025
280
     0
281
     0
  0
CLASS
  1
AMDTEDGESTANDARDISO
  2
AmdtEdgeStdISO
  3
"Amdt_StdImp|Product Description: AutoCAD Mechanical|Company: Autodesk, Inc."
 90
    33792
280
     0
281
     0
  0
CLASS
  1
ACMSURFSTANDARDISO
  2
AcmSurfTextStdISO
  3
"Amdt_StdImp|Product Description: AutoCAD Mechanical|Company: Autodesk, Inc."
 90
    33792
280
     0
281
     0
  0
CLASS
  1
ACMFCFSTANDARDISO
  2
AcmFCFStdISO
  3
"Amdt_StdImp|Product Description: AutoCAD Mechanical|Company: Autodesk, Inc."
 90
    33792
280
     0
281
     0
  0
CLASS
  1
ACMWELDSTANDARDISO
  2
AcmWeldingStdISO
  3
"Amdt_StdImp|Product Description: AutoCAD Mechanical|Company: Autodesk, Inc."
 90
    33792
280
     0
281
     0
  0
CLASS
  1
ACMIDSTANDARDISO
  2
AcmIdStdISO
  3
"Amdt_StdImp|Product Description: AutoCAD Mechanical|Company: Autodesk, Inc."
 90
    33792
280
     0
281
     0
  0
CLASS
  1
ACMDATUMSTANDARDISO
  2
AcmDatumStdISO
  3
"Amdt_StdImp|Product Description: AutoCAD Mechanical|Company: Autodesk, Inc."
 90
    33792
280
     0
281
     0
  0
CLASS
  1
ACMBOMSTANDARDISO
  2
AcmBOMStdISO
  3
"Amdt_StdImp|Product Description: AutoCAD Mechanical|Company: Autodesk, Inc."
 90
    33792
280
     0
281
     0
  0
CLASS
  1
ACMDETAILSTANDARDISO
  2
AmdtDetailSymStdISO
  3
"Amdt_StdImp|Product Description: AutoCAD Mechanical|Company: Autodesk, Inc."
 90
    33792
280
     0
281
     0
  0
CLASS
  1
ACMSECTIONSTANDARDISO
  2
AmdtSectionSymStdISO
  3
"Amdt_StdImp|Product Description: AutoCAD Mechanical|Company: Autodesk, Inc."
 90
    33792
280
     0
281
     0
  0
CLASS
  1
ACMCENTERLINESTANDARDISO
  2
AmdtCenterLineStdISO
  3
"Amdt_StdImp|Product Description: AutoCAD Mechanical|Company: Autodesk, Inc."
 90
    33792
280
     0
281
     0
  0
CLASS
  1
ACMNOTESTANDARDISO
  2
AmdtNoteStdISO
  3
"Amdt_StdImp|Product Description: AutoCAD Mechanical|Company: Autodesk, Inc."
 90
    33792
280
     0
281
     0
  0
CLASS
  1
ACAMGLAYSTD
  2
AcAmgLayStd
  3
"AmgLay|Product Description: AutoCAD Mechanical|Company: Autodesk, Inc."
 90
     1024
280
     0
281
     0
  0
CLASS
  1
ACAMGDIMSTD
  2
AcAmgDimStd
  3
"AmgDim|Product Description: AutoCAD Mechanical|Company: Autodesk, Inc."
 90
     1024
280
     0
281
     0
  0
CLASS
  1
ACAMGHOLECHARTSTDISO
  2
AcAmgHoleChartStdISO
  3
AmgDim|Product Description: AutoCAD Mechanical|Company: Autodesk, Inc.
 90
    33792
280
     0
281
     0
  0
CLASS
  1
ACAMGTITLESTD
  2
AcAmgTitleStd
  3
"AmgTitle|Product Description: AutoCAD Mechanical|Company: Autodesk, Inc."
 90
     4095
280
     0
281
     0
  0
CLASS
  1
LAYER_INDEX
  2
AcDbLayerIndex
  3
ObjectDBX Classes
 90
    32768
280
     0
281
     0
  0
CLASS
  1
IDBUFFER
  2
AcDbIdBuffer
  3
ObjectDBX Classes
 90
    32768
280
     0
281
     0
  0
CLASS
  1
DICTIONARYVAR
  2
AcDbDictionaryVar
  3
ObjectDBX Classes
 90
        0
280
     0
281
     0
  0
CLASS
  1
AM_DRAWING_MGR
  2
AcDmDwgMgr
  3
AcMechDwgViewMgmt
 90
     1024
280
     0
281
     0
  0
CLASS
  1
AM_DWG_DOCUMENT
  2
AcDmDwgDocument
  3
AcMechDwgViewMgmt
 90
     1024
280
     0
281
     0
  0
CLASS
  1
AM_DWG_SHEET
  2
AcDmSheet
  3
AcMechDwgViewMgmt
 90
     1024
280
     0
281
     0
  0
CLASS
  1
AM_VIEWDIMPARMAP
  2
AcDmViewDimParMap
  3
AcMechDwgViewMgmt
 90
     1024
280
     0
281
     0
  0
CLASS
  1
AM_DWGMGR_NAME
  2
AcDmDwgMgrName
  3
AcMechDwgViewMgmt
 90
     1024
280
     0
281
     0
  0
CLASS
  1
AMDTMENUSTATEMGR
  2
AmdtMenuStateMgr
  3
McadcomServices
 90
     1024
280
     0
281
     0
  0
CLASS
  1
AMDTMCOMMENUSTATE
  2
AmdtMcomMenuState
  3
McadcomServices
 90
     1024
280
     0
281
     0
  0
CLASS
  1
MAPIAMMOUDLE
  2
MApiAmModule
  3
MApiAmServices
 90
     1024
280
     0
281
     0
  0
CLASS
  1
AMDTADMENUSTATE
  2
AmdtAdMenuState
  3
DesignerServices
 90
     1024
280
     0
281
     0
  0
CLASS
  1
ADAPPL
  2
AcAdAppl
  3
DesignerServices
 90
     1024
280
     0
281
     0
  0
CLASS
  1
DEPMGR
  2
AcAdDepMgr
  3
DesignerServices
 90
     1024
280
     0
281
     0
  0
CLASS
  1
PARAMMGR
  2
AcAdParamMgr
  3
DesignerServices
 90
     1024
280
     0
281
     0
  0
CLASS
  1
PARAMSCOPE
  2
AcAdParamScope
  3
DesignerServices
 90
     1024
280
     0
281
     0
  0
CLASS
  1
NAMEDAPPL
  2
AcAdNamedAppl
  3
DesignerServices
 90
     1024
280
     0
281
     0
  0
CLASS
  1
AMDTDMMENUSTATE
  2
AmdtDmMenuState
  3
AcMechDwgViewMgmt
 90
     1024
280
     0
281
     0
  0
CLASS
  1
AMDTAMMENUSTATE
  2
AmdtAmMenuState
  3
DesignerAssemblies
 90
     1024
280
     0
281
     0
  0
CLASS
  1
ACAMPROJECT
  2
AcAmProject
  3
DesignerAssemblies
 90
     1024
280
     0
281
     0
  0
CLASS
  1
ACAMGRCOMPDEF
  2
AcAmGrCompDef
  3
DesignerAssemblies
 90
     1024
280
     0
281
     0
  0
CLASS
  1
ACCMCONTEXT
  2
AcCmContext
  3
DesignerAssemblies
 90
     1024
280
     0
281
     0
  0
CLASS
  1
ACAMCOMPDEF
  2
AcAmCompDef
  3
DesignerAssemblies
 90
     1024
280
     0
281
     0
  0
CLASS
  1
ACAMCOMPDEFMGR
  2
AcAmCompDefMgr
  3
DesignerAssemblies
 90
     1024
280
     0
281
     0
  0
CLASS
  1
AMCONTEXTMGR
  2
AcAmContextMgr
  3
DesignerAssemblies
 90
     1024
280
     0
281
     0
  0
CLASS
  1
ACAMCONTEXTMODELER
  2
AcAmContextModeler
  3
DesignerAssemblies
 90
     1024
280
     0
281
     0
  0
CLASS
  1
ACMTHREADLINESTANDARDISO
  2
AmdtThreadLineStdISO
  3
"Amdt_StdImp|Product Description: AutoCAD Mechanical|Company: Autodesk, Inc."
 90
    33792
280
     0
281
     0
  0
CLASS
  1
CATALOGSTATE
  2
AcAmCatalogState
  3
DesignerAssemblies
 90
     1024
280
     0
281
     0
  0
CLASS
  1
ACAMGRCOMPDEFSET
  2
AcAmGrCompDefSet
  3
DesignerAssemblies
 90
     1024
280
     0
281
     0
  0
CLASS
  1
AMDTBROWSERDBTAB
  2
AmdtBrowserDbTab
  3
McadcomServices
 90
     1024
280
     0
281
     0
  0
CLASS
  1
CBROWSERAPPOBJECT
  2
CBrowserAppObject
  3
McadcomServices
 90
     1024
280
     0
281
     0
  0
CLASS
  1
DM_PLACEHOLDER
  2
AcDmSelsetPlaceholder
  3
AcMechDwgViewMgmt
 90
     1024
280
     0
281
     0
  0
CLASS
  1
TABLESTYLE
  2
AcDbTableStyle
  3
ObjectDBX Classes
 90
     4095
280
     0
281
     0
  0
CLASS
  1
VAACXREFPANELOBJECT
  2
VaAcXREFPanelObject
  3
VAAC_ADDIN
 90
    32768
280
     0
281
     0
  0
CLASS
  1
VAACIMAGEINVENTORY
  2
VaAcImageInventory
  3
VAAC_ADDIN
 90
    32768
280
     0
281
     0
  0
CLASS
  1
AMDTNOTETEMPLATEDB
  2
AmdtNoteTemplateDB
  3
AcmSymBB|Product Description: AutoCAD Mechanical|Company: Autodesk, Inc.
 90
     1024
280
     0
281
     0
  0
CLASS
  1
ACAMGFILTERDAT
  2
AcAmgFilterDat
  3
"AcadM|Product Description: AutoCAD Mechanical|Company: Autodesk, Inc."
 90
    33792
280
     0
281
     0
  0
CLASS
  1
ACMBOM
  2
AcmBom
  3
"AcmSymBB|Product Description: AutoCAD Mechanical|Company: Autodesk, Inc."
 90
    33792
280
     0
281
     0
  0
CLASS
  1
AMDTFORMULAUPDATEDISPATCHER
  2
AmdtFormulaUpdateDispatcher
  3
AcMeServices
 90
    33792
280
     0
281
     0
  0
CLASS
  1
ACMSTANDARDDIN
  2
AcmStandardDIN
  3
"Amdt_StdImp|Product Description: AutoCAD Mechanical|Company: Autodesk, Inc."
 90
     1024
280
     0
281
     0
  0
CLASS
  1
AMDTEDGESTANDARDDIN13715
  2
AmdtEdgeStdDIN13715
  3
"Amdt_StdImp|Product Description: AutoCAD Mechanical|Company: Autodesk, Inc."
 90
     1024
280
     0
281
     0
  0
CLASS
  1
ACMSURFSTANDARDDIN
  2
AcmSurfTextStdDIN
  3
"Amdt_StdImp|Product Description: AutoCAD Mechanical|Company: Autodesk, Inc."
 90
    33792
280
     0
281
     0
  0
CLASS
  1
ACMFCFSTANDARDDIN
  2
AcmFCFStdDIN
  3
"Amdt_StdImp|Product Description: AutoCAD Mechanical|Company: Autodesk, Inc."
 90
     1024
280
     0
281
     0
  0
CLASS
  1
ACMWELDSTANDARDDIN
  2
AcmWeldingStdDIN
  3
"Amdt_StdImp|Product Description: AutoCAD Mechanical|Company: Autodesk, Inc."
 90
     1024
280
     0
281
     0
  0
CLASS
  1
ACMIDSTANDARDDIN
  2
AcmIdStdDIN
  3
"Amdt_StdImp|Product Description: AutoCAD Mechanical|Company: Autodesk, Inc."
 90
     1024
280
     0
281
     0
  0
CLASS
  1
ACMDATUMSTANDARDDIN
  2
AcmDatumStdDIN
  3
"Amdt_StdImp|Product Description: AutoCAD Mechanical|Company: Autodesk, Inc."
 90
     1024
280
     0
281
     0
  0
CLASS
  1
ACMBOMSTANDARDDIN
  2
AcmBOMStdDIN
  3
"Amdt_StdImp|Product Description: AutoCAD Mechanical|Company: Autodesk, Inc."
 90
     1024
280
     0
281
     0
  0
CLASS
  1
ACMDETAILSTANDARDDIN
  2
AmdtDetailSymStdDIN
  3
"Amdt_StdImp|Product Description: AutoCAD Mechanical|Company: Autodesk, Inc."
 90
     1024
280
     0
281
     0
  0
CLASS
  1
ACMSECTIONSTANDARDDIN
  2
AmdtSectionSymStdDIN
  3
"Amdt_StdImp|Product Description: AutoCAD Mechanical|Company: Autodesk, Inc."
 90
     1024
280
     0
281
     0
  0
CLASS
  1
ACMCENTERLINESTANDARDDIN
  2
AmdtCenterLineStdDIN
  3
"Amdt_StdImp|Product Description: AutoCAD Mechanical|Company: Autodesk, Inc."
 90
     1024
280
     0
281
     0
  0
CLASS
  1
ACMTHREADLINESTANDARDDIN
  2
AmdtThreadLineStdDIN
  3
"Amdt_StdImp|Product Description: AutoCAD Mechanical|Company: Autodesk, Inc."
 90
     1024
280
     0
281
     0
  0
CLASS
  1
ACMNOTESTANDARDDIN
  2
AmdtNoteStdDIN
  3
"Amdt_StdImp|Product Description: AutoCAD Mechanical|Company: Autodesk, Inc."
 90
     1024
280
     0
281
     0
  0
CLASS
  1
ACAMGHOLECHARTSTDDIN
  2
AcAmgHoleChartStdDIN
  3
AmgDim|Product Description: AutoCAD Mechanical|Company: Autodesk, Inc.
 90
     1024
280
     0
281
     0
  0
CLASS
  1
MATERIAL
  2
AcDbMaterial
  3
ObjectDBX Classes
 90
     1153
280
     0
281
     0
  0
CLASS
  1
VISUALSTYLE
  2
AcDbVisualStyle
  3
ObjectDBX Classes
 90
     4095
280
     0
281
     0
  0
CLASS
  1
SCALE
  2
AcDbScale
  3
ObjectDBX Classes
 90
     1153
280
     0
281
     0
  0
CLASS
  1
MLEADERSTYLE
  2
AcDbMLeaderStyle
  3
ACDB_MLEADERSTYLE_CLASS
 90
     4095
280
     0
281
     0
  0
CLASS
  1
ACRFATTGENMGR
  2
AcRfAttGeneralMgr
  3
AcAttribServices
 90
    33792
280
     0
281
     0
  0
CLASS
  1
ACRFOBJATTMGR
  2
AcRfObjAttGroupMgr
  3
AcAttribServices
 90
    33792
280
     0
281
     0
  0
CLASS
  1
ACRFMCADAPIATTHOLDER
  2
AcRfMCADAPIAttHolder
  3
AcAttribServices
 90
    33792
280
     0
281
     0
  0
CLASS
  1
AMDTSYSATTR
  2
AmdtSystemAttribute
  3
AcAttribServices
 90
    33792
280
     0
281
     0
  0
CLASS
  1
ACMTAPERSTANDARDISO
  2
AcmTaperStdISO
  3
"Amdt_StdImp|Product Description: AutoCAD Mechanical|Company: Autodesk, Inc."
 90
    33792
280
     0
281
     0
  0
CLASS
  1
ACMANOOTATIONVIEWSTANDARDISO
  2
AmdtAnViewStdISO
  3
"Amdt_StdImp|Product Description: AutoCAD Mechanical|Company: Autodesk, Inc."
 90
    33792
280
     0
281
     0
  0
CLASS
  1
ACMTAPERSTANDARDDIN
  2
AcmTaperStdDIN
  3
"Amdt_StdImp|Product Description: AutoCAD Mechanical|Company: Autodesk, Inc."
 90
     1024
280
     0
281
     0
  0
CLASS
  1
ACMANOOTATIONVIEWSTANDARDDIN
  2
AmdtAnViewStdDIN
  3
"Amdt_StdImp|Product Description: AutoCAD Mechanical|Company: Autodesk, Inc."
 90
     1024
280
     0
281
     0
  0
CLASS
  1
EXACXREFPANELOBJECT
  2
ExAcXREFPanelObject
  3
EXAC_ESW
 90
     1025
280
     0
281
     0
  0
CLASS
  1
NPOCOLLECTION
  2
AcDbImpNonPersistentObjectsCollection
  3
ObjectDBX Classes
 90
     1153
280
     0
281
     0
  0
CLASS
  1
SORTENTSTABLE
  2
AcDbSortentsTable
  3
ObjectDBX Classes
 90
        0
280
     0
281
     0
  0
CLASS
  1
AEC_REFEDIT_STATUS_TRACKER
  2
AecDbRefEditStatusTracker
  3
AecArchBase50|Product Desc: Autodesk Architectural Desktop 2007 |Company: Autodesk,Inc. |WEB Address: www.autodesk.com
 90
    32897
280
     0
281
     0
  0
CLASS
  1
CAMSSTRUCTBTNSTATE
  2
StructBtnState
  3
DesignerAssemblies
 90
    33792
280
     0
281
     0
  0
CLASS
  1
CELLSTYLEMAP
  2
AcDbCellStyleMap
  3
ObjectDBX Classes
 90
     1152
280
     0
281
     0
  0
CLASS
  1
DIMASSOC
  2
AcDbDimAssoc
  3
"AcDbDimAssoc|Product Desc:     AcDim ARX App For Dimension|Company:          Autodesk, Inc.|WEB Address:      www.autodesk.com"
 90
        0
280
     0
281
     0
  0
CLASS
  1
ACMSURFSTANDARDDIN2002
  2
AcmSurfTextStdDIN2002
  3
"Amdt_StdImp|Product Description: AutoCAD Mechanical|Company: Autodesk, Inc."
 90
     1024
280
     0
281
     0
  0
CLASS
  1
ACDBPLACEHOLDER
  2
AcDbPlaceHolder
  3
ObjectDBX Classes
 90
        0
280
     0
281
     0
  0
CLASS
  1
LAYOUT
  2
AcDbLayout
  3
ObjectDBX Classes
 90
        0
280
     0
281
     0
  0
ENDSEC
  0
SECTION
  2
TABLES
  0
TABLE
  2
VPORT
  5
8
330
0
100
AcDbSymbolTable
 70
     1
  0
VPORT
  5
3B2
330
8
100
AcDbSymbolTableRecord
100
AcDbViewportTableRecord
  2
*Active
 70
     0
 10
0.0
 20
0.0
 11
1.0
 21
1.0
 12
2651.320423386084
 22
1136.086610824108
 13
0.0
 23
0.0
 14
2.5
 24
2.5
 15
10.0
 25
10.0
 16
0.0
 26
0.0
 36
1.0
 17
0.0
 27
0.0
 37
0.0
 40
489.5932286895701
 41
1.752272727272727
 42
50.0
 43
0.0
 44
0.0
 50
0.0
 51
0.0
 71
     0
 72
   100
 73
     1
 74
     3
 75
     0
 76
     0
 77
     0
 78
     0
281
     0
 65
     0
110
0.0
120
0.0
130
0.0
111
1.0
121
0.0
131
0.0
112
0.0
122
1.0
132
0.0
 79
     0
146
0.0
  0
ENDTAB
  0
TABLE
  2
LTYPE
  5
5
330
0
100
AcDbSymbolTable
 70
    21
  0
LTYPE
  5
14
330
5
100
AcDbSymbolTableRecord
100
AcDbLinetypeTableRecord
  2
ByBlock
 70
     0
  3

 72
    65
 73
     0
 40
0.0
  0
LTYPE
  5
15
330
5
100
AcDbSymbolTableRecord
100
AcDbLinetypeTableRecord
  2
ByLayer
 70
     0
  3

 72
    65
 73
     0
 40
0.0
  0
LTYPE
  5
16
330
5
100
AcDbSymbolTableRecord
100
AcDbLinetypeTableRecord
  2
Continuous
 70
     0
  3
Solid line
 72
    65
 73
     0
 40
0.0
  0
LTYPE
  5
67
330
5
100
AcDbSymbolTableRecord
100
AcDbLinetypeTableRecord
  2
Amconstr
 70
     0
  3
_______________________
 72
    65
 73
     2
 40
9999.0
 49
9999.0
 74
     0
 49
0.0
 74
     0
  0
LTYPE
  5
6C
330
5
100
AcDbSymbolTableRecord
100
AcDbLinetypeTableRecord
  2
Amzigzag
 70
     0
  3
/\/-/\/-/\/-/\/-/\/-/\/
 72
    65
 73
     2
 40
11.0001
 49
0.0001
 74
     4
 75
   136
340
22C
 46
0.04
 50
0.0
 44
0.0
 45
0.0
 49
-11.0
 74
     0
  0
LTYPE
  5
7E
330
5
100
AcDbSymbolTableRecord
100
AcDbLinetypeTableRecord
  2
CENTER
 70
     0
  3
__ . __
 72
    65
 73
     4
 40
7.0
 49
4.0
 74
     0
 49
-1.0
 74
     0
 49
1.0
 74
     0
 49
-1.0
 74
     0
  0
LTYPE
  5
D8
330
5
100
AcDbSymbolTableRecord
100
AcDbLinetypeTableRecord
  2
HIDDEN
 70
     0
  3
Hidden __ __ __ __ __ __ __ __ __ __ __ __ __ _
 72
    65
 73
     2
 40
9.524999999999996
 49
6.349999999999997
 74
     0
 49
-3.174999999999998
 74
     0
  0
LTYPE
  5
D9
330
5
100
AcDbSymbolTableRecord
100
AcDbLinetypeTableRecord
  2
PHANTOM2
 70
     0
  3
Phantom (.5x) ___ _ _ ___ _ _ ___ _ _ ___ _ _
 72
    65
 73
     6
 40
31.75
 49
15.875
 74
     0
 49
-3.174999999999998
 74
     0
 49
3.174999999999998
 74
     0
 49
-3.174999999999998
 74
     0
 49
3.174999999999998
 74
     0
 49
-3.174999999999998
 74
     0
  0
LTYPE
  5
2E5
330
5
100
AcDbSymbolTableRecord
100
AcDbLinetypeTableRecord
  2
ACDINWELD
 70
     0
  3
_ _ _ _ _
 72
    65
 73
     2
 40
2.0
 49
2.0
 74
     0
 49
-1.0
 74
     0
  0
LTYPE
  5
2E6
330
5
100
AcDbSymbolTableRecord
100
AcDbLinetypeTableRecord
  2
ACDINTGB
 70
     0
  3
__ . . __ . .
 72
    65
 73
     6
 40
9.0
 49
4.0
 74
     0
 49
-1.0
 74
     0
 49
1.0
 74
     0
 49
-1.0
 74
     0
 49
1.0
 74
     0
 49
-1.0
 74
     0
  0
LTYPE
  5
2E7
330
5
100
AcDbSymbolTableRecord
100
AcDbLinetypeTableRecord
  2
ACDINTGL
 70
     0
  3
_ _ _ _ _
 72
    65
 73
     2
 40
3.0
 49
2.0
 74
     0
 49
-1.0
 74
     0
  0
LTYPE
  5
321
330
5
100
AcDbSymbolTableRecord
100
AcDbLinetypeTableRecord
  2
AM_DIN_F_W050
 70
     0
  3
__ __ __ __ __ __ __ __ __ __ __ __ __ __ __
 72
    65
 73
     2
 40
6.25
 49
4.75
 74
     0
 49
-1.5
 74
     0
  0
LTYPE
  5
322
330
5
100
AcDbSymbolTableRecord
100
AcDbLinetypeTableRecord
  2
AM_DIN_G_W050
 70
     0
  3
____ . ____ . ____ . ____ . ____ . ____ . ____
 72
    65
 73
     4
 40
13.75
 49
9.75
 74
     0
 49
-1.5
 74
     0
 49
1.0
 74
     0
 49
-1.5
 74
     0
  0
LTYPE
  5
323
330
5
100
AcDbSymbolTableRecord
100
AcDbLinetypeTableRecord
  2
AM_DIN_K_W050
 70
     0
  3
_____ . . _____ . . _____ . . ____ .. ____
 72
    65
 73
     6
 40
16.25
 49
9.75
 74
     0
 49
-1.5
 74
     0
 49
1.0
 74
     0
 49
-1.5
 74
     0
 49
1.0
 74
     0
 49
-1.5
 74
     0
  0
LTYPE
  5
324
330
5
100
AcDbSymbolTableRecord
100
AcDbLinetypeTableRecord
  2
AM_DIN_G_W050x2
 70
     0
  3
__ . __ . __ . __ . __ . __
 72
    65
 73
     4
 40
6.875
 49
4.75
 74
     0
 49
-0.875
 74
     0
 49
0.375
 74
     0
 49
-0.875
 74
     0
  0
LTYPE
  5
325
330
5
100
AcDbSymbolTableRecord
100
AcDbLinetypeTableRecord
  2
AM_DIN_F_W050x2
 70
     0
  3
 _ _ _ _ _ _ _ _ _ _ _ _
 72
    65
 73
     2
 40
3.125
 49
2.25
 74
     0
 49
-0.875
 74
     0
  0
LTYPE
  5
456
330
5
100
AcDbSymbolTableRecord
100
AcDbLinetypeTableRecord
  2
STRICHPUNKT
 70
     0
  3
Strichpunkt __ . __ . __ . __ . __ . __ . __ . 
 72
    65
 73
     4
 40
25.4
 49
12.7
 74
     0
 49
-6.349999999999997
 74
     0
 49
0.0
 74
     0
 49
-6.349999999999997
 74
     0
  0
LTYPE
  5
457
330
5
100
AcDbSymbolTableRecord
100
AcDbLinetypeTableRecord
  2
STRICHLINIE
 70
     0
  3
Strichlinie __ __ __ __ __ __ __ __ __ __ __ __
 72
    65
 73
     2
 40
19.05
 49
12.7
 74
     0
 49
-6.349999999999997
 74
     0
  0
LTYPE
  5
31A0
330
5
100
AcDbSymbolTableRecord
100
AcDbLinetypeTableRecord
  2
AM_ISO02W050
 70
     0
  3
__ __ __ __ __ __ __ __ __ __ __ __ __ __ __
 72
    65
 73
     2
 40
7.5
 49
6.0
 74
     0
 49
-1.5
 74
     0
  0
LTYPE
  5
31A1
330
5
100
AcDbSymbolTableRecord
100
AcDbLinetypeTableRecord
  2
AM_ISO08W050
 70
     0
  3
____ . ____ . ____ . ____ . ____ . ____ . ____
 72
    65
 73
     4
 40
18.0
 49
12.0
 74
     0
 49
-1.5
 74
     0
 49
3.0
 74
     0
 49
-1.5
 74
     0
  0
LTYPE
  5
31A2
330
5
100
AcDbSymbolTableRecord
100
AcDbLinetypeTableRecord
  2
AM_ISO09W050
 70
     0
  3
_____ . . _____ . . _____ . . ____ .. ____
 72
    65
 73
     6
 40
22.5
 49
12.0
 74
     0
 49
-1.5
 74
     0
 49
3.0
 74
     0
 49
-1.5
 74
     0
 49
3.0
 74
     0
 49
-1.5
 74
     0
  0
LTYPE
  5
31A3
330
5
100
AcDbSymbolTableRecord
100
AcDbLinetypeTableRecord
  2
AM_ISO08W050x2
 70
     0
  3
__ . __ . __ . __ . __ . __
 72
    65
 73
     4
 40
9.0
 49
6.0
 74
     0
 49
-0.75
 74
     0
 49
1.5
 74
     0
 49
-0.75
 74
     0
  0
LTYPE
  5
31A4
330
5
100
AcDbSymbolTableRecord
100
AcDbLinetypeTableRecord
  2
AM_ISO02W050x2
 70
     0
  3
 _ _ _ _ _ _ _ _ _ _ _ _
 72
    65
 73
     2
 40
3.75
 49
3.0
 74
     0
 49
-0.75
 74
     0
  0
ENDTAB
  0
TABLE
  2
LAYER
  5
2
102
{ACAD_XDICTIONARY
360
468
102
}
330
0
100
AcDbSymbolTable
 70
     7
  0
LAYER
  5
10
102
{ACAD_XDICTIONARY
360
20EC
102
}
330
2
100
AcDbSymbolTableRecord
100
AcDbLayerTableRecord
  2
0
 70
     0
 62
     7
  6
Continuous
370
    -3
390
F
  0
LAYER
  5
458
102
{ACAD_XDICTIONARY
360
459
102
}
330
2
100
AcDbSymbolTableRecord
100
AcDbLayerTableRecord
  2
P-0000
 70
     0
 62
     7
  6
Continuous
370
    -3
390
F
  0
LAYER
  5
45A
330
2
100
AcDbSymbolTableRecord
100
AcDbLayerTableRecord
  2
Defpoints
 70
     0
 62
     7
  6
Continuous
290
     0
370
    -3
390
F
  0
LAYER
  5
45B
102
{ACAD_XDICTIONARY
360
45C
102
}
330
2
100
AcDbSymbolTableRecord
100
AcDbLayerTableRecord
  2
AM_5
 70
     0
 62
     3
  6
Continuous
370
    25
390
F
1001
AcAecLayerStandard
1000

1000

  0
LAYER
  5
45E
102
{ACAD_XDICTIONARY
360
45F
102
}
330
2
100
AcDbSymbolTableRecord
100
AcDbLayerTableRecord
  2
AM_8
 70
     0
 62
     1
  6
Continuous
370
    25
390
F
  0
LAYER
  5
460
102
{ACAD_XDICTIONARY
360
461
102
}
330
2
100
AcDbSymbolTableRecord
100
AcDbLayerTableRecord
  2
P-3FF0
 70
     0
 62
     7
  6
Continuous
370
    -3
390
F
  0
LAYER
  5
EAD
102
{ACAD_XDICTIONARY
360
EAE
102
}
330
2
100
AcDbSymbolTableRecord
100
AcDbLayerTableRecord
  2
AM_7
 70
     0
 62
     4
  6
AM_DIN_G_W050
370
    25
390
F
1001
AcAecLayerStandard
1000

1000

  0
ENDTAB
  0
TABLE
  2
STYLE
  5
3
330
0
100
AcDbSymbolTable
 70
     4
  0
STYLE
  5
11
330
3
100
AcDbSymbolTableRecord
100
AcDbTextStyleTableRecord
  2
STANDARD
 70
     0
 40
0.0
 41
1.0
 50
0.0
 71
     0
 42
2.5
  3
ISOCP.SHX
  4

  0
STYLE
  5
22C
330
3
100
AcDbSymbolTableRecord
100
AcDbTextStyleTableRecord
  2

 70
     1
 40
0.0
 41
1.0
 50
0.0
 71
     0
 42
2.5
  3
genltshp.shx
  4

  0
STYLE
  5
2E4
330
3
100
AcDbSymbolTableRecord
100
AcDbTextStyleTableRecord
  2
ACDINGDT
 70
     0
 40
0.0
 41
1.0
 50
0.0
 71
     0
 42
2.5
  3
amgdt.shx
  4

  0
STYLE
  5
322D
330
3
100
AcDbSymbolTableRecord
100
AcDbTextStyleTableRecord
  2
ACDINTS
 70
     0
 40
1.0
 41
1.0
 50
0.0
 71
     0
 42
2.5
  3
isocp.shx
  4

  0
ENDTAB
  0
TABLE
  2
VIEW
  5
6
330
0
100
AcDbSymbolTable
 70
     0
  0
ENDTAB
  0
TABLE
  2
UCS
  5
7
330
0
100
AcDbSymbolTable
 70
     0
  0
ENDTAB
  0
TABLE
  2
APPID
  5
9
330
0
100
AcDbSymbolTable
 70
    25
  0
APPID
  5
12
330
9
100
AcDbSymbolTableRecord
100
AcDbRegAppTableRecord
  2
ACAD
 70
     0
  0
APPID
  5
46
330
9
100
AcDbSymbolTableRecord
100
AcDbRegAppTableRecord
  2
MCAD_NO_VIS
 70
     0
  0
APPID
  5
47
330
9
100
AcDbSymbolTableRecord
100
AcDbRegAppTableRecord
  2
ACAD_TEMP_GRAPHIC
 70
     0
  0
APPID
  5
58
330
9
100
AcDbSymbolTableRecord
100
AcDbRegAppTableRecord
  2
ACATTRIBSERVICES
 70
     0
  0
APPID
  5
EE
330
9
100
AcDbSymbolTableRecord
100
AcDbRegAppTableRecord
  2
AD_DRAW
 70
     0
  0
APPID
  5
10C
330
9
100
AcDbSymbolTableRecord
100
AcDbRegAppTableRecord
  2
DESIGNERASSEMBLIES
 70
     0
  0
APPID
  5
111
330
9
100
AcDbSymbolTableRecord
100
AcDbRegAppTableRecord
  2
ACADM_DIM_EDIT
 70
     0
  0
APPID
  5
112
330
9
100
AcDbSymbolTableRecord
100
AcDbRegAppTableRecord
  2
AMDT_DM_ADJ
 70
     0
  0
APPID
  5
1A3
330
9
100
AcDbSymbolTableRecord
100
AcDbRegAppTableRecord
  2
ACAD_DSTYLE_DIMARC_LENGTH_SYMBOL
 70
     0
  0
APPID
  5
1A4
330
9
100
AcDbSymbolTableRecord
100
AcDbRegAppTableRecord
  2
ACAD_DSTYLE_DIMJOGGED_JOGANGLE_SYMBOL
 70
     0
  0
APPID
  5
3F1
330
9
100
AcDbSymbolTableRecord
100
AcDbRegAppTableRecord
  2
ACAD_MLEADERVER
 70
     0
  0
APPID
  5
464
330
9
100
AcDbSymbolTableRecord
100
AcDbRegAppTableRecord
  2
ACME_LAYERS
 70
     0
  0
APPID
  5
465
330
9
100
AcDbSymbolTableRecord
100
AcDbRegAppTableRecord
  2
AcAecLayerStandard
 70
     0
  0
APPID
  5
466
330
9
100
AcDbSymbolTableRecord
100
AcDbRegAppTableRecord
  2
ACAD_PSEXT
 70
     0
  0
APPID
  5
467
330
9
100
AcDbSymbolTableRecord
100
AcDbRegAppTableRecord
  2
ACAD_DSTYLE_DIMINSPECT
 70
     0
  0
APPID
  5
EB0
330
9
100
AcDbSymbolTableRecord
100
AcDbRegAppTableRecord
  2
GENIUS_GENODEF_13
 70
     0
  0
APPID
  5
EB1
330
9
100
AcDbSymbolTableRecord
100
AcDbRegAppTableRecord
  2
GENIUS_GENOBJ-N-CEN_13
 70
     0
  0
APPID
  5
EB2
330
9
100
AcDbSymbolTableRecord
100
AcDbRegAppTableRecord
  2
GENIUS_GENCEN_19
 70
     0
  0
APPID
  5
15A4
330
9
100
AcDbSymbolTableRecord
100
AcDbRegAppTableRecord
  2
GENIUS_GENOBJ-N-HTC_13
 70
     0
  0
APPID
  5
15A5
330
9
100
AcDbSymbolTableRecord
100
AcDbRegAppTableRecord
  2
GENIUS_GENHATCH_13
 70
     0
  0
APPID
  5
1DFF
330
9
100
AcDbSymbolTableRecord
100
AcDbRegAppTableRecord
  2
ACAD_EXEMPT_FROM_CAD_STANDARDS
 70
     0
  0
APPID
  5
2220
330
9
100
AcDbSymbolTableRecord
100
AcDbRegAppTableRecord
  2
ACAD_DSTYLE_DIM_LINETYPE
 70
     0
  0
APPID
  5
2221
330
9
100
AcDbSymbolTableRecord
100
AcDbRegAppTableRecord
  2
ACAD_DSTYLE_DIM_EXT1_LINETYPE
 70
     0
  0
APPID
  5
2222
330
9
100
AcDbSymbolTableRecord
100
AcDbRegAppTableRecord
  2
ACAD_DSTYLE_DIM_EXT2_LINETYPE
 70
     0
  0
APPID
  5
25C5
330
9
100
AcDbSymbolTableRecord
100
AcDbRegAppTableRecord
  2
GENIUS_GENDTOL_13
 70
     0
  0
ENDTAB
  0
TABLE
  2
DIMSTYLE
  5
A
330
0
100
AcDbSymbolTable
 70
     9
100
AcDbDimStyleTable
 71
     1
340
2F0
  0
DIMSTYLE
105
2F0
102
{ACAD_REACTORS
330
3219
102
}
330
A
100
AcDbSymbolTableRecord
100
AcDbDimStyleTableRecord
  2
AM_DIN
 70
     0
  4
"
 41
3.5
 42
1.0
 43
10.0
 44
1.0
 47
0.1
 48
0.1
 73
     0
 74
     0
 77
     1
 78
     8
 79
     2
140
3.5
141
0.0
143
0.0393701
146
0.71
147
1.5
172
     1
176
   256
177
   256
178
     2
271
     2
272
     3
274
     4
283
     0
284
     8
340
11
371
    -1
372
    -1
1001
ACAD_DSTYLE_DIMJOGGED_JOGANGLE_SYMBOL
1070
   384
1040
1.570796326794896
1001
ACAD_DSTYLE_DIM_LINETYPE
1070
   380
1005
14
1001
ACAD_DSTYLE_DIM_EXT1_LINETYPE
1070
   381
1005
14
1001
ACAD_DSTYLE_DIM_EXT2_LINETYPE
1070
   382
1005
14
  0
DIMSTYLE
105
301
330
A
100
AcDbSymbolTableRecord
100
AcDbDimStyleTableRecord
  2
AM_DIN$3
 70
     0
  4
"
 41
3.5
 42
1.0
 43
10.0
 44
1.0
 47
0.1
 48
0.1
 73
     0
 77
     1
 78
     8
 79
     2
140
3.5
141
0.0
143
0.0393701
146
0.71
147
1.5
176
   256
177
   256
178
     2
271
     2
272
     3
274
     4
283
     0
284
     8
288
     1
289
     0
340
11
371
    -1
372
    -1
1001
ACAD_DSTYLE_DIMJOGGED_JOGANGLE_SYMBOL
1070
   384
1040
1.570796326794896
1001
ACAD_DSTYLE_DIM_LINETYPE
1070
   380
1005
14
1001
ACAD_DSTYLE_DIM_EXT1_LINETYPE
1070
   381
1005
14
1001
ACAD_DSTYLE_DIM_EXT2_LINETYPE
1070
   382
1005
14
  0
DIMSTYLE
105
306
330
A
100
AcDbSymbolTableRecord
100
AcDbDimStyleTableRecord
  2
AM_DIN$4
 70
     0
  4
"
 41
3.5
 42
1.0
 43
10.0
 44
1.0
 47
0.1
 48
0.1
 73
     0
 74
     0
 77
     1
 78
     8
 79
     2
140
3.5
141
0.0
143
0.0393701
146
0.71
147
1.5
172
     1
176
   256
177
   256
178
     2
271
     2
272
     3
274
     4
283
     0
284
     8
340
11
371
    -1
372
    -1
1001
ACAD_DSTYLE_DIMJOGGED_JOGANGLE_SYMBOL
1070
   384
1040
1.570796326794896
1001
ACAD_DSTYLE_DIM_LINETYPE
1070
   380
1005
14
1001
ACAD_DSTYLE_DIM_EXT1_LINETYPE
1070
   381
1005
14
1001
ACAD_DSTYLE_DIM_EXT2_LINETYPE
1070
   382
1005
14
  0
DIMSTYLE
105
30B
330
A
100
AcDbSymbolTableRecord
100
AcDbDimStyleTableRecord
  2
AM_DIN$6
 70
     0
  4
"
 41
3.5
 42
1.0
 43
10.0
 44
1.0
 47
0.1
 48
0.1
 73
     0
 74
     0
 78
     8
 79
     2
140
3.5
141
0.0
143
0.0393701
146
0.71
147
1.5
172
     1
176
   256
177
   256
178
     2
271
     2
272
     3
274
     4
283
     0
284
     8
340
11
371
    -1
372
    -1
1001
ACAD_DSTYLE_DIMJOGGED_JOGANGLE_SYMBOL
1070
   384
1040
1.570796326794896
1001
ACAD_DSTYLE_DIM_LINETYPE
1070
   380
1005
14
1001
ACAD_DSTYLE_DIM_EXT1_LINETYPE
1070
   381
1005
14
1001
ACAD_DSTYLE_DIM_EXT2_LINETYPE
1070
   382
1005
14
  0
DIMSTYLE
105
310
330
A
100
AcDbSymbolTableRecord
100
AcDbDimStyleTableRecord
  2
AM_DIN$7
 70
     0
  4
"
 41
3.5
 42
1.0
 43
10.0
 44
1.0
 47
0.1
 48
0.1
 73
     0
 74
     0
 77
     1
 78
     8
 79
     2
140
3.5
141
0.0
143
0.0393701
146
0.71
147
1.5
172
     1
176
   256
177
   256
178
     2
271
     2
272
     3
274
     4
283
     0
284
     8
340
11
371
    -1
372
    -1
1001
ACAD_DSTYLE_DIMJOGGED_JOGANGLE_SYMBOL
1070
   384
1040
1.570796326794896
1001
ACAD_DSTYLE_DIM_LINETYPE
1070
   380
1005
14
1001
ACAD_DSTYLE_DIM_EXT1_LINETYPE
1070
   381
1005
14
1001
ACAD_DSTYLE_DIM_EXT2_LINETYPE
1070
   382
1005
14
  0
DIMSTYLE
105
315
330
A
100
AcDbSymbolTableRecord
100
AcDbDimStyleTableRecord
  2
AM_DIN$SF
 70
     0
  4
"
 41
3.5
 42
1.0
 43
10.0
 44
1.0
 47
0.1
 48
0.1
 73
     0
 74
     0
 75
     1
 76
     1
 77
     1
 78
     8
 79
     2
140
3.5
141
0.0
143
0.0393701
146
0.71
147
1.5
172
     1
176
   256
177
   256
178
     2
271
     2
272
     3
274
     4
283
     0
284
     8
340
11
371
    -1
372
    -1
1001
ACAD_DSTYLE_DIMJOGGED_JOGANGLE_SYMBOL
1070
   384
1040
1.570796326794896
1001
ACAD_DSTYLE_DIM_LINETYPE
1070
   380
1005
14
1001
ACAD_DSTYLE_DIM_EXT1_LINETYPE
1070
   381
1005
14
1001
ACAD_DSTYLE_DIM_EXT2_LINETYPE
1070
   382
1005
14
  0
DIMSTYLE
105
31A
330
A
100
AcDbSymbolTableRecord
100
AcDbDimStyleTableRecord
  2
AM_DIN$SH
 70
     0
  4
"
 41
3.5
 42
1.0
 43
10.0
 44
1.0
 47
0.1
 48
0.1
 73
     0
 74
     0
 75
     1
 76
     1
 77
     1
 78
     8
 79
     2
140
3.5
141
0.0
143
0.0393701
144
2.0
146
0.71
147
1.5
172
     1
173
     1
176
   256
177
   256
178
     2
271
     2
272
     3
274
     4
283
     0
284
     8
340
11
343
87
371
    -1
372
    -1
1001
ACAD_DSTYLE_DIMJOGGED_JOGANGLE_SYMBOL
1070
   384
1040
1.570796326794896
1001
ACAD_DSTYLE_DIM_LINETYPE
1070
   380
1005
14
1001
ACAD_DSTYLE_DIM_EXT1_LINETYPE
1070
   381
1005
14
1001
ACAD_DSTYLE_DIM_EXT2_LINETYPE
1070
   382
1005
14
  0
DIMSTYLE
105
463
102
{ACAD_REACTORS
330
2F8C
102
}
330
A
100
AcDbSymbolTableRecord
100
AcDbDimStyleTableRecord
  2
AM_DIN$0
 70
     0
  4
"
 41
3.5
 42
1.0
 43
10.0
 44
1.0
 47
0.1
 48
0.1
 73
     0
 74
     0
 77
     1
 78
     8
 79
     2
140
3.5
141
0.0
143
0.0393701
146
0.71
147
1.5
172
     1
176
   256
177
   256
178
     2
271
     2
272
     3
274
     4
283
     0
284
     8
340
11
371
    -1
372
    -1
1001
ACAD_DSTYLE_DIMJOGGED_JOGANGLE_SYMBOL
1070
   384
1040
1.570796326794896
1001
ACAD_DSTYLE_DIM_LINETYPE
1070
   380
1005
14
1001
ACAD_DSTYLE_DIM_EXT1_LINETYPE
1070
   381
1005
14
1001
ACAD_DSTYLE_DIM_EXT2_LINETYPE
1070
   382
1005
14
  0
DIMSTYLE
105
EAF
330
A
100
AcDbSymbolTableRecord
100
AcDbDimStyleTableRecord
  2
AM_DIN$2
 70
     0
  4
"
 41
3.5
 42
1.0
 43
10.0
 44
1.0
 47
0.1
 48
0.1
 73
     0
 74
     0
 77
     1
 78
     8
 79
     2
140
3.5
141
0.0
143
0.0393701
146
0.71
147
1.5
172
     1
176
   256
177
   256
178
     2
271
     2
272
     3
274
     4
283
     0
284
     8
340
11
371
    -1
372
    -1
1001
ACAD_DSTYLE_DIMJOGGED_JOGANGLE_SYMBOL
1070
   384
1040
1.570796326794896
1001
ACAD_DSTYLE_DIM_LINETYPE
1070
   380
1005
14
1001
ACAD_DSTYLE_DIM_EXT1_LINETYPE
1070
   381
1005
14
1001
ACAD_DSTYLE_DIM_EXT2_LINETYPE
1070
   382
1005
14
  0
ENDTAB
  0
TABLE
  2
BLOCK_RECORD
  5
1
330
0
100
AcDbSymbolTable
 70
     5
  0
BLOCK_RECORD
  5
1F
102
{ACAD_XDICTIONARY
360
8F
102
}
330
1
100
AcDbSymbolTableRecord
100
AcDbBlockTableRecord
  2
*Model_Space
340
22
  0
BLOCK_RECORD
  5
1B
330
1
100
AcDbSymbolTableRecord
100
AcDbBlockTableRecord
  2
*Paper_Space
340
1E
  0
BLOCK_RECORD
  5
23
330
1
100
AcDbSymbolTableRecord
100
AcDbBlockTableRecord
  2
*Paper_Space0
340
26
  0
BLOCK_RECORD
  5
87
330
1
100
AcDbSymbolTableRecord
100
AcDbBlockTableRecord
  2
GENAXEH
340
0
  0
BLOCK_RECORD
  5
2F8F
330
1
100
AcDbSymbolTableRecord
100
AcDbBlockTableRecord
  2
*D2
340
0
  0
BLOCK_RECORD
  5
2F9B
330
1
100
AcDbSymbolTableRecord
100
AcDbBlockTableRecord
  2
*D3
340
0
  0
ENDTAB
  0
ENDSEC
  0
SECTION
  2
BLOCKS
  0
BLOCK
  5
20
330
1F
100
AcDbEntity
  8
0
100
AcDbBlockBegin
  2
*Model_Space
 70
     0
 10
0.0
 20
0.0
 30
0.0
  3
*Model_Space
  1

  0
ENDBLK
  5
21
330
1F
100
AcDbEntity
  8
0
100
AcDbBlockEnd
  0
BLOCK
  5
1C
330
1B
100
AcDbEntity
 67
     1
  8
0
100
AcDbBlockBegin
  2
*Paper_Space
 70
     0
 10
0.0
 20
0.0
 30
0.0
  3
*Paper_Space
  1

  0
ENDBLK
  5
1D
330
1B
100
AcDbEntity
 67
     1
  8
0
100
AcDbBlockEnd
  0
BLOCK
  5
24
330
23
100
AcDbEntity
 67
     1
  8
0
100
AcDbBlockBegin
  2
*Paper_Space0
 70
     0
 10
0.0
 20
0.0
 30
0.0
  3
*Paper_Space0
  1

  0
ENDBLK
  5
25
330
23
100
AcDbEntity
 67
     1
  8
0
100
AcDbBlockEnd
  0
BLOCK
  5
89
330
87
100
AcDbEntity
  8
0
100
AcDbBlockBegin
  2
GENAXEH
 70
     0
 10
0.0
 20
0.0
 30
0.0
  3
GENAXEH
  1

  0
LINE
  5
88
330
87
100
AcDbEntity
  8
0
100
AcDbLine
 10
-1.0
 20
0.0
 30
0.0
 11
1.0
 21
0.0
 31
0.0
  0
ENDBLK
  5
8A
330
87
100
AcDbEntity
  8
0
100
AcDbBlockEnd
  0
BLOCK
  5
2F90
330
2F8F
100
AcDbEntity
  8
0
100
AcDbBlockBegin
  2
*D2
 70
     1
 10
0.0
 20
0.0
 30
0.0
  3
*D2
  1

  0
LINE
  5
3249
330
2F8F
100
AcDbEntity
  8
AM_5
  6
ByBlock
100
AcDbLine
 10
2657.606507231516
 20
893.0468322989382
 30
0.0
 11
2485.928455429458
 21
893.0468322989382
 31
0.0
  0
LINE
  5
324A
330
2F8F
100
AcDbEntity
  8
AM_5
  6
ByBlock
100
AcDbLine
 10
2492.56299718955
 20
1263.046832298938
 30
0.0
 11
2485.928455429458
 21
1263.046832298938
 31
0.0
  0
LINE
  5
324B
330
2F8F
100
AcDbEntity
  8
AM_5
  6
ByBlock
100
AcDbLine
 10
2486.928455429458
 20
898.0468322989382
 30
0.0
 11
2486.928455429458
 21
1258.046832298938
 31
0.0
  0
SOLID
  5
324C
330
2F8F
100
AcDbEntity
  8
AM_5
100
AcDbTrace
 10
2486.095122096124
 20
898.0468322989382
 30
0.0
 11
2487.761788762791
 21
898.0468322989382
 31
0.0
 12
2486.928455429458
 22
893.0468322989382
 32
0.0
 13
2486.928455429458
 23
893.0468322989382
 33
0.0
  0
SOLID
  5
324D
330
2F8F
100
AcDbEntity
  8
AM_5
100
AcDbTrace
 10
2486.095122096125
 20
1258.046832298938
 30
0.0
 11
2487.761788762792
 21
1258.046832298938
 31
0.0
 12
2486.928455429458
 22
1263.046832298938
 32
0.0
 13
2486.928455429458
 23
1263.046832298938
 33
0.0
  0
MTEXT
  5
324E
330
2F8F
100
AcDbEntity
  8
AM_5
 62
     2
100
AcDbMText
 10
2481.428455429458
 20
1078.046832298938
 30
0.0
 40
8.0
 41
0.0
 71
     5
 72
     1
  1
370
 11
0.0000000000000001
 21
1.0
 31
0.0
 73
     1
 44
1.0
1001
ACAD
1000
MTEXTBEGIN
1070
    73
1070
     1
1070
    44
1040
1.0
1070
    74
1070
     0
1000
MTEXTEND
  0
POINT
  5
324F
330
2F8F
100
AcDbEntity
  8
Defpoints
 62
     0
100
AcDbPoint
 10
2658.606507231516
 20
893.0468322989382
 30
0.0
  0
POINT
  5
3250
330
2F8F
100
AcDbEntity
  8
Defpoints
 62
     0
100
AcDbPoint
 10
2493.56299718955
 20
1263.046832298938
 30
0.0
  0
POINT
  5
3251
330
2F8F
100
AcDbEntity
  8
Defpoints
 62
     0
100
AcDbPoint
 10
2486.928455429458
 20
1263.046832298938
 30
0.0
  0
ENDBLK
  5
2F91
330
2F8F
100
AcDbEntity
  8
0
100
AcDbBlockEnd
  0
BLOCK
  5
2F9C
330
2F9B
100
AcDbEntity
  8
0
100
AcDbBlockBegin
  2
*D3
 70
     1
 10
0.0
 20
0.0
 30
0.0
  3
*D3
  1

  0
LINE
  5
3240
330
2F9B
100
AcDbEntity
  8
AM_5
  6
ByBlock
100
AcDbLine
 10
2408.562997189571
 20
1272.046832298938
 30
0.0
 11
2408.562997189571
 21
1422.204391321396
 31
0.0
  0
LINE
  5
3241
330
2F9B
100
AcDbEntity
  8
AM_5
  6
ByBlock
100
AcDbLine
 10
2908.650017273462
 20
1272.046832298938
 30
0.0
 11
2908.650017273462
 21
1422.204391321396
 31
0.0
  0
LINE
  5
3242
330
2F9B
100
AcDbEntity
  8
AM_5
  6
ByBlock
100
AcDbLine
 10
2413.562997189571
 20
1421.204391321396
 30
0.0
 11
2903.650017273462
 21
1421.204391321396
 31
0.0
  0
SOLID
  5
3243
330
2F9B
100
AcDbEntity
  8
AM_5
100
AcDbTrace
 10
2413.562997189571
 20
1422.037724654729
 30
0.0
 11
2413.562997189571
 21
1420.371057988062
 31
0.0
 12
2408.562997189571
 22
1421.204391321396
 32
0.0
 13
2408.562997189571
 23
1421.204391321396
 33
0.0
  0
SOLID
  5
3244
330
2F9B
100
AcDbEntity
  8
AM_5
100
AcDbTrace
 10
2903.650017273462
 20
1422.037724654729
 30
0.0
 11
2903.650017273462
 21
1420.371057988062
 31
0.0
 12
2908.650017273462
 22
1421.204391321396
 32
0.0
 13
2908.650017273462
 23
1421.204391321396
 33
0.0
  0
MTEXT
  5
3245
330
2F9B
100
AcDbEntity
  8
AM_5
 62
     2
100
AcDbMText
 10
2658.606507231517
 20
1426.704391321396
 30
0.0
 40
8.0
 41
0.0
 71
     5
 72
     1
  1
{\Famgdt;o} 500
 73
     1
 44
1.0
1001
ACAD
1000
MTEXTBEGIN
1070
    73
1070
     1
1070
    44
1040
1.0
1070
    74
1070
     0
1000
MTEXTEND
  0
POINT
  5
3246
330
2F9B
100
AcDbEntity
  8
Defpoints
 62
     0
100
AcDbPoint
 10
2408.562997189571
 20
1271.046832298938
 30
0.0
  0
POINT
  5
3247
330
2F9B
100
AcDbEntity
  8
Defpoints
 62
     0
100
AcDbPoint
 10
2908.650017273462
 20
1271.046832298938
 30
0.0
  0
POINT
  5
3248
330
2F9B
100
AcDbEntity
  8
Defpoints
 62
     0
100
AcDbPoint
 10
2908.650017273462
 20
1421.204391321396
 30
0.0
  0
ENDBLK
  5
2F9D
330
2F9B
100
AcDbEntity
  8
0
100
AcDbBlockEnd
  0
ENDSEC
  0
SECTION
  2
ENTITIES
  0
LINE
  5
2C62
330
1F
100
AcDbEntity
  8
P-0000
  6
Continuous
 62
     7
100
AcDbLine
 10
2622.106507231515
 20
1202.505043343343
 30
0.0
 11
2622.106507231515
 21
898.0468322989384
 31
0.0
1001
ACME_LAYERS
1000
1
  0
LINE
  5
2C63
330
1F
100
AcDbEntity
  8
P-0000
  6
Continuous
 62
     7
100
AcDbLine
 10
2574.606507231516
 20
1263.046832298935
 30
0.0
 11
2594.606507231516
 21
1263.046832298953
 31
0.0
1001
ACME_LAYERS
1000
1
  0
LINE
  5
2C64
330
1F
100
AcDbEntity
  8
P-0000
  6
Continuous
 62
     7
100
AcDbLine
 10
2611.606507231515
 20
1267.046832298938
 30
0.0
 11
2576.168715762032
 21
1267.046832298938
 31
0.0
1001
ACME_LAYERS
1000
1
  0
LINE
  5
2C66
330
1F
100
AcDbEntity
  8
P-0000
  6
Continuous
 62
     7
100
AcDbLine
 10
2574.284793959275
 20
1269.046832298938
 30
0.0
 11
2611.606507231515
 21
1269.046832298938
 31
0.0
1001
ACME_LAYERS
1000
1
  0
HATCH
  5
2C67
330
1F
100
AcDbEntity
  8
P-0000
  6
Continuous
 62
     3
100
AcDbHatch
 10
0.0
 20
0.0
 30
0.0
210
0.0
220
0.0
230
1.0
  2
_U
 70
     0
 71
     0
 91
        1
 92
        1
 93
        9
 72
     1
 10
2493.56299718955
 20
1263.046832298938
 11
2492.56299718955
 21
1264.778883106508
 72
     1
 10
2492.56299718955
 20
1264.778883106508
 11
2496.928455429459
 21
1267.299281596453
 72
     2
 10
2498.928455429458
 20
1263.835179981318
 40
4.0
 50
239.9999999999895
 51
270.0
 73
     0
 72
     2
 10
2498.928455429458
 20
1263.835179981318
 40
4.000000000000613
 50
270.0
 51
315.0000000000009
 73
     0
 72
     1
 10
2501.756882554205
 20
1266.663607106065
 11
2502.459443798957
 21
1265.961045861312
 72
     1
 10
2502.459443798957
 20
1265.961045861311
 11
2501.045230236584
 21
1264.546832298939
 72
     1
 10
2501.045230236584
 20
1264.546832298939
 11
2500.342668991832
 21
1265.249393543691
 72
     2
 10
2498.928455429458
 20
1263.835179981318
 40
2.000000000000115
 50
44.99999999999594
 51
120.0000000000099
 73
     1
 72
     1
 10
2497.928455429458
 20
1265.567230788886
 11
2493.56299718955
 21
1263.046832298939
 97
        0
 75
     0
 76
     0
 52
44.99999999999999
 41
2.0
 77
     0
 78
     1
 53
45.0
 43
2810.366948732782
 44
1129.155967265375
 45
-1.414213562373094
 46
1.414213562373094
 79
     0
 98
        1
 10
2810.366948732782
 20
1129.155967265375
1001
ACME_LAYERS
1000
1
  0
LINE
  5
2C68
330
1F
100
AcDbEntity
  8
P-0000
  6
Continuous
 62
     3
100
AcDbLine
 10
2492.56299718955
 20
1264.778883106508
 30
0.0
 11
2496.928455429459
 21
1267.299281596453
 31
0.0
1001
ACME_LAYERS
1000
1
  0
LINE
  5
2C69
330
1F
100
AcDbEntity
  8
P-0000
  6
Continuous
 62
     7
100
AcDbLine
 10
2493.56299718955
 20
1263.046832298938
 30
0.0
 11
2497.928455429458
 21
1265.567230788886
 31
0.0
1001
ACME_LAYERS
1000
1
  0
LINE
  5
2C6A
330
1F
100
AcDbEntity
  8
P-0000
  6
Continuous
 62
     7
100
AcDbLine
 10
2493.56299718955
 20
1263.046832298938
 30
0.0
 11
2497.928455429458
 21
1265.567230788886
 31
0.0
1001
ACME_LAYERS
1000
1
  0
LINE
  5
2C6B
330
1F
100
AcDbEntity
  8
P-0000
  6
Continuous
 62
     7
100
AcDbLine
 10
2493.56299718955
 20
1263.046832298938
 30
0.0
 11
2518.134793959274
 21
1263.046832298938
 31
0.0
1001
ACME_LAYERS
1000
1
  0
LINE
  5
2C6C
330
1F
100
AcDbEntity
  8
P-0000
  6
Continuous
 62
     7
100
AcDbLine
 10
2493.56299718955
 20
1263.046832298938
 30
0.0
 11
2492.56299718955
 21
1264.778883106508
 31
0.0
1001
ACME_LAYERS
1000
1
  0
LINE
  5
2C6D
330
1F
100
AcDbEntity
  8
P-0000
  6
Continuous
 62
     7
100
AcDbLine
 10
2518.134793959274
 20
1263.046832298938
 30
0.0
 11
2556.106507231528
 21
1263.046832298935
 31
0.0
1001
ACME_LAYERS
1000
1
  0
LINE
  5
2C6F
330
1F
100
AcDbEntity
  8
P-0000
  6
Continuous
 62
     7
100
AcDbLine
 10
2538.356507231508
 20
1265.046832298938
 30
0.0
 11
2546.31299718955
 21
1265.046832298938
 31
0.0
1001
ACME_LAYERS
1000
1
  0
ARC
  5
2C70
330
1F
100
AcDbEntity
  8
P-0000
  6
Continuous
 62
     7
100
AcDbCircle
 10
2518.134793959274
 20
1267.046832298938
 30
0.0
 40
1.999999999999253
100
AcDbArc
 50
239.9999999999995
 51
270.0
1001
ACME_LAYERS
1000
1
  0
ARC
  5
2C71
330
1F
100
AcDbEntity
  8
P-0000
  6
Continuous
 62
     7
100
AcDbCircle
 10
2518.134793959274
 20
1267.046832298938
 30
0.0
 40
4.000000000000131
100
AcDbArc
 50
239.9999999999995
 51
270.0
1001
ACME_LAYERS
1000
1
  0
LINE
  5
2C72
330
1F
100
AcDbEntity
  8
P-0000
  6
Continuous
 62
     7
100
AcDbLine
 10
2518.41299718955
 20
1265.046832298938
 30
0.0
 11
2512.645047997119
 21
1268.376959317861
 31
0.0
1001
ACME_LAYERS
1000
1
  0
LINE
  5
2C73
330
1F
100
AcDbEntity
  8
P-0000
  6
Continuous
 62
     7
100
AcDbLine
 10
2512.697538949641
 20
1265.567230788886
 30
0.0
 11
2516.134793959273
 21
1263.582730683801
 31
0.0
1001
ACME_LAYERS
1000
1
  0
LINE
  5
2C74
330
1F
100
AcDbEntity
  8
P-0000
  6
Continuous
 62
     7
100
AcDbLine
 10
2502.459443798957
 20
1265.961045861311
 30
0.0
 11
2508.166550580142
 21
1265.961045861311
 31
0.0
1001
ACME_LAYERS
1000
1
  0
LINE
  5
2C75
330
1F
100
AcDbEntity
  8
P-0000
  6
Continuous
 62
     7
100
AcDbLine
 10
2501.045230236584
 20
1264.546832298939
 30
0.0
 11
2509.580764142516
 21
1264.546832298939
 31
0.0
1001
ACME_LAYERS
1000
1
  0
LINE
  5
2C76
330
1F
100
AcDbEntity
  8
P-0000
  6
Continuous
 62
     7
100
AcDbLine
 10
2501.29504799712
 20
1269.046832298938
 30
0.0
 11
2510.145047997119
 21
1269.046832298938
 31
0.0
1001
ACME_LAYERS
1000
1
  0
LINE
  5
2C77
330
1F
100
AcDbEntity
  8
P-0000
  6
Continuous
 62
     7
100
AcDbLine
 10
2498.928455429458
 20
1267.835179981317
 30
0.0
 11
2511.697538949642
 21
1267.835179981317
 31
0.0
1001
ACME_LAYERS
1000
1
  0
ARC
  5
2C78
330
1F
100
AcDbEntity
  8
P-0000
  6
Continuous
 62
     7
100
AcDbCircle
 10
2501.295047997118
 20
1264.046832298938
 30
0.0
 40
5.0
100
AcDbArc
 50
89.99999999997395
 51
120.0000000000005
1001
ACME_LAYERS
1000
1
  0
ARC
  5
2C79
330
1F
100
AcDbEntity
  8
P-0000
  6
Continuous
 62
     7
100
AcDbCircle
 10
2498.928455429458
 20
1263.835179981318
 30
0.0
 40
4.000000000000613
100
AcDbArc
 50
44.99999999999078
 51
90.0
1001
ACME_LAYERS
1000
1
  0
LINE
  5
2C7A
330
1F
100
AcDbEntity
  8
P-0000
  6
Continuous
 62
     7
100
AcDbLine
 10
2500.342668991832
 20
1265.249393543691
 30
0.0
 11
2501.045230236584
 21
1264.546832298939
 31
0.0
1001
ACME_LAYERS
1000
1
  0
ARC
  5
2C7B
330
1F
100
AcDbEntity
  8
P-0000
  6
Continuous
 62
     7
100
AcDbCircle
 10
2498.928455429458
 20
1263.835179981318
 30
0.0
 40
4.0
100
AcDbArc
 50
90.0
 51
120.0000000000005
1001
ACME_LAYERS
1000
1
  0
LINE
  5
2C7C
330
1F
100
AcDbEntity
  8
P-0000
  6
Continuous
 62
     7
100
AcDbLine
 10
2496.928455429459
 20
1267.299281596453
 30
0.0
 11
2498.795047997118
 21
1268.376959317861
 31
0.0
1001
ACME_LAYERS
1000
1
  0
ARC
  5
2C7D
330
1F
100
AcDbEntity
  8
P-0000
  6
Continuous
 62
     7
100
AcDbCircle
 10
2498.928455429458
 20
1263.835179981318
 30
0.0
 40
2.000000000000115
100
AcDbArc
 50
44.99999999999078
 51
120.0000000000005
1001
ACME_LAYERS
1000
1
  0
LINE
  5
2C7E
330
1F
100
AcDbEntity
  8
P-0000
  6
Continuous
 62
     7
100
AcDbLine
 10
2502.459443798957
 20
1265.961045861311
 30
0.0
 11
2501.045230236584
 21
1264.546832298939
 31
0.0
1001
ACME_LAYERS
1000
1
  0
LINE
  5
2C7F
330
1F
100
AcDbEntity
  8
P-0000
  6
Continuous
 62
     7
100
AcDbLine
 10
2501.756882554205
 20
1266.663607106065
 30
0.0
 11
2502.459443798957
 21
1265.961045861311
 31
0.0
1001
ACME_LAYERS
1000
1
  0
ARC
  5
2C80
330
1F
100
AcDbEntity
  8
P-0000
  6
Continuous
 62
     7
100
AcDbCircle
 10
2511.697538949642
 20
1263.835179981318
 30
0.0
 40
1.999999999999401
100
AcDbArc
 50
59.99999999999944
 51
135.0000000000092
1001
ACME_LAYERS
1000
1
  0
ARC
  5
2C81
330
1F
100
AcDbEntity
  8
P-0000
  6
Continuous
 62
     7
100
AcDbCircle
 10
2510.145047997119
 20
1264.046832298938
 30
0.0
 40
5.000000000000164
100
AcDbArc
 50
59.99999999999944
 51
90.0
1001
ACME_LAYERS
1000
1
  0
ARC
  5
2C82
330
1F
100
AcDbEntity
  8
P-0000
  6
Continuous
 62
     7
100
AcDbCircle
 10
2511.697538949642
 20
1263.835179981318
 30
0.0
 40
1.999999999999401
100
AcDbArc
 50
59.99999999999944
 51
135.0000000000092
1001
ACME_LAYERS
1000
1
  0
ARC
  5
2C83
330
1F
100
AcDbEntity
  8
P-0000
  6
Continuous
 62
     7
100
AcDbCircle
 10
2511.697538949642
 20
1263.835179981318
 30
0.0
 40
3.999999999998728
100
AcDbArc
 50
59.99999999999944
 51
90.0
1001
ACME_LAYERS
1000
1
  0
ARC
  5
2C84
330
1F
100
AcDbEntity
  8
P-0000
  6
Continuous
 62
     7
100
AcDbCircle
 10
2511.697538949642
 20
1263.835179981318
 30
0.0
 40
4.0
100
AcDbArc
 50
90.0
 51
135.0000000000092
1001
ACME_LAYERS
1000
1
  0
LINE
  5
2C85
330
1F
100
AcDbEntity
  8
P-0000
  6
Continuous
 62
     7
100
AcDbLine
 10
2508.166550580142
 20
1265.961045861311
 30
0.0
 11
2508.869111824895
 21
1266.663607106065
 31
0.0
1001
ACME_LAYERS
1000
1
  0
LINE
  5
2C86
330
1F
100
AcDbEntity
  8
P-0000
  6
Continuous
 62
     7
100
AcDbLine
 10
2509.580764142516
 20
1264.546832298939
 30
0.0
 11
2510.283325387268
 21
1265.249393543691
 31
0.0
1001
ACME_LAYERS
1000
1
  0
LINE
  5
2C87
330
1F
100
AcDbEntity
  8
P-0000
  6
Continuous
 62
     7
100
AcDbLine
 10
2509.580764142516
 20
1264.546832298939
 30
0.0
 11
2508.166550580142
 21
1265.961045861311
 31
0.0
1001
ACME_LAYERS
1000
1
  0
LINE
  5
2C88
330
1F
100
AcDbEntity
  8
P-0000
  6
Continuous
 62
     7
100
AcDbLine
 10
2513.697538949642
 20
1267.299281596453
 30
0.0
 11
2517.134793959274
 21
1265.31478149137
 31
0.0
1001
ACME_LAYERS
1000
1
  0
LINE
  5
2C89
330
1F
100
AcDbEntity
  8
P-0000
  6
Continuous
 62
     7
100
AcDbLine
 10
2518.41299718955
 20
1265.046832298938
 30
0.0
 11
2538.356507231508
 21
1265.046832298938
 31
0.0
1001
ACME_LAYERS
1000
1
  0
LINE
  5
2C8A
330
1F
100
AcDbEntity
  8
P-0000
  6
Continuous
 62
     7
100
AcDbLine
 10
2518.41299718955
 20
1265.046832298938
 30
0.0
 11
2518.134793959274
 21
1265.046832298938
 31
0.0
1001
ACME_LAYERS
1000
1
  0
LINE
  5
2C8B
330
1F
100
AcDbEntity
  8
P-0000
  6
Continuous
 62
     7
100
AcDbLine
 10
2538.291242168569
 20
1278.252752203882
 30
0.0
 11
2538.291242168569
 21
1274.252752203882
 31
0.0
1001
ACME_LAYERS
1000
1
  0
LINE
  5
2C8C
330
1F
100
AcDbEntity
  8
P-0000
  6
Continuous
 62
     7
100
AcDbLine
 10
2561.106507231513
 20
1263.046832298935
 30
0.0
 11
2574.606507231516
 21
1263.046832298935
 31
0.0
1001
ACME_LAYERS
1000
1
  0
LINE
  5
2C8D
330
1F
100
AcDbEntity
  8
P-0000
  6
Continuous
 62
     7
100
AcDbLine
 10
2546.31299718955
 20
1265.046832298938
 30
0.0
 11
2565.748895574412
 21
1265.046832298938
 31
0.0
1001
ACME_LAYERS
1000
1
  0
LINE
  5
2C8E
330
1F
100
AcDbEntity
  8
P-0000
  6
Continuous
 62
     7
100
AcDbLine
 10
2556.867710291604
 20
1263.046832298938
 30
0.0
 11
2565.748895574412
 21
1263.046832298938
 31
0.0
1001
ACME_LAYERS
1000
1
  0
LINE
  5
2C8F
330
1F
100
AcDbEntity
  8
P-0000
  6
Continuous
 62
     7
100
AcDbLine
 10
2546.29124216857
 20
1278.252752203882
 30
0.0
 11
2546.29124216857
 21
1274.252752203882
 31
0.0
1001
ACME_LAYERS
1000
1
  0
LINE
  5
2C90
330
1F
100
AcDbEntity
  8
P-0000
  6
Continuous
 62
     7
100
AcDbLine
 10
2556.106507231528
 20
1263.046832298935
 30
0.0
 11
2556.867710291604
 21
1263.046832298938
 31
0.0
1001
ACME_LAYERS
1000
1
  0
LINE
  5
2C91
330
1F
100
AcDbEntity
  8
P-0000
  6
Continuous
 62
     7
100
AcDbLine
 10
2567.748895574412
 20
1263.582730683801
 30
0.0
 11
2573.284793959275
 21
1266.778883106508
 31
0.0
1001
ACME_LAYERS
1000
1
  0
LINE
  5
2C92
330
1F
100
AcDbEntity
  8
P-0000
  6
Continuous
 62
     7
100
AcDbLine
 10
2574.284793959275
 20
1267.046832298938
 30
0.0
 11
2576.168715762032
 21
1267.046832298938
 31
0.0
1001
ACME_LAYERS
1000
1
  0
LINE
  5
2C93
330
1F
100
AcDbEntity
  8
P-0000
  6
Continuous
 62
     7
100
AcDbLine
 10
2566.748895574411
 20
1265.314781491369
 30
0.0
 11
2572.284793959275
 21
1268.510933914076
 31
0.0
1001
ACME_LAYERS
1000
1
  0
ARC
  5
2C94
330
1F
100
AcDbEntity
  8
P-0000
  6
Continuous
 62
     7
100
AcDbCircle
 10
2565.748895574412
 20
1267.046832298938
 30
0.0
 40
2.0
100
AcDbArc
 50
270.0
 51
300.0000000000005
1001
ACME_LAYERS
1000
1
  0
ARC
  5
2C95
330
1F
100
AcDbEntity
  8
P-0000
  6
Continuous
 62
     7
100
AcDbCircle
 10
2574.284793959275
 20
1265.046832298938
 30
0.0
 40
4.0
100
AcDbArc
 50
90.0
 51
120.0000000000005
1001
ACME_LAYERS
1000
1
  0
ARC
  5
2C96
330
1F
100
AcDbEntity
  8
P-0000
  6
Continuous
 62
     7
100
AcDbCircle
 10
2574.284793959275
 20
1265.046832298938
 30
0.0
 40
2.0
100
AcDbArc
 50
90.0
 51
119.9999999999682
1001
ACME_LAYERS
1000
1
  0
ARC
  5
2C97
330
1F
100
AcDbEntity
  8
P-0000
  6
Continuous
 62
     7
100
AcDbCircle
 10
2565.748895574412
 20
1267.046832298938
 30
0.0
 40
4.0
100
AcDbArc
 50
270.0
 51
300.0000000000005
1001
ACME_LAYERS
1000
1
  0
LINE
  5
2C98
330
1F
100
AcDbEntity
  8
P-0000
  6
Continuous
 62
     7
100
AcDbLine
 10
2619.236189045051
 20
1269.046832298938
 30
0.0
 11
2658.606507231516
 21
1269.046832298938
 31
0.0
1001
ACME_LAYERS
1000
1
  0
LINE
  5
2C99
330
1F
100
AcDbEntity
  8
P-0000
  6
Continuous
 62
     7
100
AcDbLine
 10
2611.606507231515
 20
1269.046832298938
 30
0.0
 11
2658.606507231516
 21
1269.046832298938
 31
0.0
1001
ACME_LAYERS
1000
1
  0
LINE
  5
2C9A
330
1F
100
AcDbEntity
  8
P-0000
  6
Continuous
 62
     7
100
AcDbLine
 10
2594.606507231516
 20
1263.046832298953
 30
0.0
 11
2611.606507231515
 21
1263.046832298953
 31
0.0
1001
ACME_LAYERS
1000
1
  0
LINE
  5
2C9B
330
1F
100
AcDbEntity
  8
P-0000
  6
Continuous
 62
     7
100
AcDbLine
 10
2592.102235915196
 20
1269.26636437307
 30
0.0
 11
2592.106507231508
 21
1269.250200620477
 31
0.0
1001
ACME_LAYERS
1000
1
  0
LINE
  5
2C9C
330
1F
100
AcDbEntity
  8
P-0000
  6
Continuous
 62
     7
100
AcDbLine
 10
2614.606507231516
 20
1263.046832298956
 30
0.0
 11
2614.606507231516
 21
1264.046832298938
 31
0.0
1001
ACME_LAYERS
1000
1
  0
ARC
  5
2C9D
330
1F
100
AcDbEntity
  8
P-0000
  6
Continuous
 62
     7
100
AcDbCircle
 10
2611.606507231515
 20
1264.046832298938
 30
0.0
 40
3.0
100
AcDbArc
 50
0.0
 51
90.0
1001
ACME_LAYERS
1000
1
  0
LINE
  5
2C9E
330
1F
100
AcDbEntity
  8
P-0000
  6
Continuous
 62
     7
100
AcDbLine
 10
2611.606507231515
 20
1263.046832298953
 30
0.0
 11
2614.606507231516
 21
1263.046832298956
 31
0.0
1001
ACME_LAYERS
1000
1
  0
LINE
  5
2C9F
330
1F
100
AcDbEntity
  8
P-0000
  6
Continuous
 62
     7
100
AcDbLine
 10
2622.106507231513
 20
1118.046832298939
 30
0.0
 11
2622.106507231515
 21
1013.046832298938
 31
0.0
1001
ACME_LAYERS
1000
1
  0
LINE
  5
2CA0
330
1F
100
AcDbEntity
  8
P-0000
  6
Continuous
 62
     7
100
AcDbLine
 10
2622.106507231515
 20
1125.046832298938
 30
0.0
 11
2622.106507231513
 21
1118.046832298939
 31
0.0
1001
ACME_LAYERS
1000
1
  0
LINE
  5
2CA1
330
1F
100
AcDbEntity
  8
P-0000
  6
Continuous
 62
     7
100
AcDbLine
 10
2693.76676126936
 20
893.0468322989382
 30
0.0
 11
2623.446253193671
 21
893.0468322989382
 31
0.0
1001
ACME_LAYERS
1000
1
  0
LINE
  5
2CA2
330
1F
100
AcDbEntity
  8
P-0000
  6
Continuous
 62
     3
100
AcDbLine
 10
2692.464942770045
 20
898.0468322989384
 30
0.0
 11
2624.464942770047
 21
898.0468322989384
 31
0.0
1001
ACME_LAYERS
1000
1
  0
LINE
  5
2CA3
330
1F
100
AcDbEntity
  8
P-0000
  6
Continuous
 62
     7
100
AcDbLine
 10
2546.34777861266
 20
1280.252752203884
 30
0.0
 11
2546.34777861266
 21
1274.252752203882
 31
0.0
1001
ACME_LAYERS
1000
1
  0
LINE
  5
2CA4
330
1F
100
AcDbEntity
  8
P-0000
  6
Continuous
 62
     7
100
AcDbLine
 10
2524.847778612669
 20
1279.752752203882
 30
0.0
 11
2538.347778612659
 21
1279.752752203882
 31
0.0
1001
ACME_LAYERS
1000
1
  0
LINE
  5
2CA5
330
1F
100
AcDbEntity
  8
P-0000
  6
Continuous
 62
     7
100
AcDbLine
 10
2530.676205737404
 20
1278.252752203882
 30
0.0
 11
2533.113808450631
 21
1278.252752203882
 31
0.0
1001
ACME_LAYERS
1000
1
  0
LINE
  5
2CA6
330
1F
100
AcDbEntity
  8
P-0000
  6
Continuous
 62
     7
100
AcDbLine
 10
2658.597778612652
 20
1279.752752203882
 30
0.0
 11
2571.347778612659
 21
1279.752752203882
 31
0.0
1001
ACME_LAYERS
1000
1
  0
LINE
  5
2CA7
330
1F
100
AcDbEntity
  8
P-0000
  6
Continuous
 62
     7
100
AcDbLine
 10
2530.676205737404
 20
1278.252752203882
 30
0.0
 11
2533.113808450631
 21
1278.252752203882
 31
0.0
1001
ACME_LAYERS
1000
1
  0
LINE
  5
2CA8
330
1F
100
AcDbEntity
  8
P-0000
  6
Continuous
 62
     7
100
AcDbLine
 10
2533.113808450631
 20
1278.252752203882
 30
0.0
 11
2534.524136979492
 21
1278.252752203882
 31
0.0
1001
ACME_LAYERS
1000
1
  0
LINE
  5
2CA9
330
1F
100
AcDbEntity
  8
P-0000
  6
Continuous
 62
     7
100
AcDbLine
 10
2533.113808450631
 20
1278.252752203882
 30
0.0
 11
2534.524136979492
 21
1278.252752203882
 31
0.0
1001
ACME_LAYERS
1000
1
  0
LINE
  5
2CAA
330
1F
100
AcDbEntity
  8
P-0000
  6
Continuous
 62
     7
100
AcDbLine
 10
2658.597778612657
 20
1278.020701396314
 30
0.0
 11
2572.34777861266
 21
1278.020701396314
 31
0.0
1001
ACME_LAYERS
1000
1
  0
LINE
  5
2CAB
330
1F
100
AcDbEntity
  8
P-0000
  6
Continuous
 62
     7
100
AcDbLine
 10
2571.347778612659
 20
1279.752752203882
 30
0.0
 11
2565.749702401308
 21
1276.520701396314
 31
0.0
1001
ACME_LAYERS
1000
1
  0
LINE
  5
2CAC
330
1F
100
AcDbEntity
  8
P-0000
  6
Continuous
 62
     7
100
AcDbLine
 10
2546.34777861266
 20
1279.752752203882
 30
0.0
 11
2571.347778612659
 21
1279.752752203882
 31
0.0
1001
ACME_LAYERS
1000
1
  0
LINE
  5
2CAD
330
1F
100
AcDbEntity
  8
P-0000
  6
Continuous
 62
     7
100
AcDbLine
 10
2572.34777861266
 20
1278.020701396314
 30
0.0
 11
2571.347778612659
 21
1279.752752203882
 31
0.0
1001
ACME_LAYERS
1000
1
  0
LINE
  5
2CAE
330
1F
100
AcDbEntity
  8
P-0000
  6
Continuous
 62
     7
100
AcDbLine
 10
2571.347778612659
 20
1279.752752203882
 30
0.0
 11
2571.275812450159
 21
1279.752752203882
 31
0.0
1001
ACME_LAYERS
1000
1
  0
LINE
  5
2CAF
330
1F
100
AcDbEntity
  8
P-0000
  6
Continuous
 62
     7
100
AcDbLine
 10
2534.524136979492
 20
1278.252752203882
 30
0.0
 11
2537.34777861266
 21
1278.252752203882
 31
0.0
1001
ACME_LAYERS
1000
1
  0
LINE
  5
2CB1
330
1F
100
AcDbEntity
  8
P-0000
  6
Continuous
 62
     3
100
AcDbLine
 10
2519.409956439152
 20
1276.252752203882
 30
0.0
 11
2519.945854824014
 21
1276.252752203882
 31
0.0
1001
ACME_LAYERS
1000
1
  0
LINE
  5
2CB2
330
1F
100
AcDbEntity
  8
P-0000
  6
Continuous
 62
     3
100
AcDbLine
 10
2518.945854824015
 20
1276.520701396314
 30
0.0
 11
2519.409956439152
 21
1276.252752203882
 31
0.0
1001
ACME_LAYERS
1000
1
  0
LINE
  5
2CB3
330
1F
100
AcDbEntity
  8
P-0000
  6
Continuous
 62
     7
100
AcDbLine
 10
2556.847778612659
 20
1277.08117932863
 30
0.0
 11
2557.09041929978
 21
1276.838538641509
 31
0.0
1001
ACME_LAYERS
1000
1
  0
LINE
  5
2CB4
330
1F
100
AcDbEntity
  8
P-0000
  6
Continuous
 62
     7
100
AcDbLine
 10
2527.84777861266
 20
1277.08117932863
 30
0.0
 11
2527.605137925541
 21
1276.838538641509
 31
0.0
1001
ACME_LAYERS
1000
1
  0
LINE
  5
2CB5
330
1F
100
AcDbEntity
  8
P-0000
  6
Continuous
 62
     7
100
AcDbLine
 10
2537.34777861266
 20
1278.252752203882
 30
0.0
 11
2537.34777861266
 21
1276.252752203882
 31
0.0
1001
ACME_LAYERS
1000
1
  0
LINE
  5
2CB6
330
1F
100
AcDbEntity
  8
P-0000
  6
Continuous
 62
     7
100
AcDbLine
 10
2547.34777861266
 20
1278.252752203882
 30
0.0
 11
2547.34777861266
 21
1276.252752203882
 31
0.0
1001
ACME_LAYERS
1000
1
  0
LINE
  5
2CB7
330
1F
100
AcDbEntity
  8
P-0000
  6
Continuous
 62
     7
100
AcDbLine
 10
2512.347778612661
 20
1278.020701396314
 30
0.0
 11
2513.34777861266
 21
1279.752752203882
 31
0.0
1001
ACME_LAYERS
1000
1
  0
LINE
  5
2CB8
330
1F
100
AcDbEntity
  8
P-0000
  6
Continuous
 62
     7
100
AcDbLine
 10
2512.347778612661
 20
1278.020701396314
 30
0.0
 11
2517.945854824014
 21
1274.788650588744
 31
0.0
1001
ACME_LAYERS
1000
1
  0
LINE
  5
2CB9
330
1F
100
AcDbEntity
  8
P-0000
  6
Continuous
 62
     7
100
AcDbLine
 10
2513.34777861266
 20
1279.752752203882
 30
0.0
 11
2518.945854824015
 21
1276.520701396314
 31
0.0
1001
ACME_LAYERS
1000
1
  0
LINE
  5
2CBA
330
1F
100
AcDbEntity
  8
P-0000
  6
Continuous
 62
     7
100
AcDbLine
 10
2529.261992175033
 20
1275.666965766255
 30
0.0
 11
2529.019351487912
 21
1275.424325079138
 31
0.0
1001
ACME_LAYERS
1000
1
  0
LINE
  5
2CBB
330
1F
100
AcDbEntity
  8
P-0000
  6
Continuous
 62
     7
100
AcDbLine
 10
2555.433565050286
 20
1275.666965766255
 30
0.0
 11
2555.676205737406
 21
1275.424325079138
 31
0.0
1001
ACME_LAYERS
1000
1
  0
LINE
  5
2CBC
330
1F
100
AcDbEntity
  8
P-0000
  6
Continuous
 62
     7
100
AcDbLine
 10
2572.34777861266
 20
1278.020701396314
 30
0.0
 11
2566.749702401307
 21
1274.788650588744
 31
0.0
1001
ACME_LAYERS
1000
1
  0
LINE
  5
2CBD
330
1F
100
AcDbEntity
  8
P-0000
  6
Continuous
 62
     7
100
AcDbLine
 10
2564.749702401307
 20
1274.252752203882
 30
0.0
 11
2658.597778612657
 21
1274.252752203882
 31
0.0
1001
ACME_LAYERS
1000
1
  0
LINE
  5
2CBE
330
1F
100
AcDbEntity
  8
P-0000
  6
Continuous
 62
     7
100
AcDbLine
 10
2564.749702401307
 20
1276.252752203882
 30
0.0
 11
2558.504632862153
 21
1276.252752203882
 31
0.0
1001
ACME_LAYERS
1000
1
  0
LINE
  5
2CBF
330
1F
100
AcDbEntity
  8
P-0000
  6
Continuous
 62
     7
100
AcDbLine
 10
2564.749702401307
 20
1274.252752203882
 30
0.0
 11
2558.504632862153
 21
1274.252752203882
 31
0.0
1001
ACME_LAYERS
1000
1
  0
LINE
  5
2CC0
330
1F
100
AcDbEntity
  8
P-0000
  6
Continuous
 62
     7
100
AcDbLine
 10
2519.945854824014
 20
1274.252752203882
 30
0.0
 11
2526.190924363166
 21
1274.252752203882
 31
0.0
1001
ACME_LAYERS
1000
1
  0
LINE
  5
2CC1
330
1F
100
AcDbEntity
  8
P-0000
  6
Continuous
 62
     7
100
AcDbLine
 10
2537.34777861266
 20
1278.252752203882
 30
0.0
 11
2538.347778612659
 21
1278.252752203882
 31
0.0
1001
ACME_LAYERS
1000
1
  0
LINE
  5
2CC2
330
1F
100
AcDbEntity
  8
P-0000
  6
Continuous
 62
     7
100
AcDbLine
 10
2534.524136979492
 20
1278.252752203882
 30
0.0
 11
2537.34777861266
 21
1278.252752203882
 31
0.0
1001
ACME_LAYERS
1000
1
  0
LINE
  5
2CC3
330
1F
100
AcDbEntity
  8
P-0000
  6
Continuous
 62
     7
100
AcDbLine
 10
2547.34777861266
 20
1278.252752203882
 30
0.0
 11
2554.019351487915
 21
1278.252752203882
 31
0.0
1001
ACME_LAYERS
1000
1
  0
LINE
  5
2CC4
330
1F
100
AcDbEntity
  8
P-0000
  6
Continuous
 62
     7
100
AcDbLine
 10
2546.34777861266
 20
1276.252752203882
 30
0.0
 11
2554.019351487915
 21
1276.252752203882
 31
0.0
1001
ACME_LAYERS
1000
1
  0
LINE
  5
2CC5
330
1F
100
AcDbEntity
  8
P-0000
  6
Continuous
 62
     7
100
AcDbLine
 10
2530.676205737406
 20
1276.252752203882
 30
0.0
 11
2538.291242168569
 21
1276.252752203882
 31
0.0
1001
ACME_LAYERS
1000
1
  0
LINE
  5
2CC6
330
1F
100
AcDbEntity
  8
P-0000
  6
Continuous
 62
     7
100
AcDbLine
 10
2546.34777861266
 20
1278.252752203882
 30
0.0
 11
2547.34777861266
 21
1278.252752203882
 31
0.0
1001
ACME_LAYERS
1000
1
  0
LINE
  5
2CC7
330
1F
100
AcDbEntity
  8
P-0000
  6
Continuous
 62
     7
100
AcDbLine
 10
2519.945854824014
 20
1276.252752203882
 30
0.0
 11
2526.190924363166
 21
1276.252752203882
 31
0.0
1001
ACME_LAYERS
1000
1
  0
LINE
  5
2CC8
330
1F
100
AcDbEntity
  8
P-0000
  6
Continuous
 62
     7
100
AcDbLine
 10
2552.347778612659
 20
1278.252752203882
 30
0.0
 11
2547.34777861266
 21
1278.252752203882
 31
0.0
1001
ACME_LAYERS
1000
1
  0
LINE
  5
2CC9
330
1F
100
AcDbEntity
  8
P-0000
  6
Continuous
 62
     7
100
AcDbLine
 10
2547.34777861266
 20
1278.252752203882
 30
0.0
 11
2546.34777861266
 21
1278.252752203882
 31
0.0
1001
ACME_LAYERS
1000
1
  0
LINE
  5
2CCA
330
1F
100
AcDbEntity
  8
P-0000
  6
Continuous
 62
     7
100
AcDbLine
 10
2513.34777861266
 20
1279.752752203882
 30
0.0
 11
2524.847778612669
 21
1279.752752203882
 31
0.0
1001
ACME_LAYERS
1000
1
  0
LINE
  5
2CCB
330
1F
100
AcDbEntity
  8
P-0000
  6
Continuous
 62
     7
100
AcDbLine
 10
2533.902080499239
 20
1278.252752203882
 30
0.0
 11
2538.347778612659
 21
1278.252752203882
 31
0.0
1001
ACME_LAYERS
1000
1
  0
LINE
  5
2CCC
330
1F
100
AcDbEntity
  8
P-0000
  6
Continuous
 62
     7
100
AcDbLine
 10
2546.34777861266
 20
1278.252752203882
 30
0.0
 11
2547.34777861266
 21
1278.252752203882
 31
0.0
1001
ACME_LAYERS
1000
1
  0
LINE
  5
2CCD
330
1F
100
AcDbEntity
  8
P-0000
  6
Continuous
 62
     7
100
AcDbLine
 10
2658.606507231516
 20
1279.752752203882
 30
0.0
 11
2658.597778612681
 21
1279.752752203882
 31
0.0
1001
ACME_LAYERS
1000
1
  0
LINE
  5
2CCE
330
1F
100
AcDbEntity
  8
P-0000
  6
Continuous
 62
     7
100
AcDbLine
 10
2658.606507231516
 20
1278.020701396314
 30
0.0
 11
2658.597778612657
 21
1278.020701396314
 31
0.0
1001
ACME_LAYERS
1000
1
  0
LINE
  5
2CCF
330
1F
100
AcDbEntity
  8
P-0000
  6
Continuous
 62
     7
100
AcDbLine
 10
2658.606507231516
 20
1274.252752203882
 30
0.0
 11
2658.597778612657
 21
1274.252752203882
 31
0.0
1001
ACME_LAYERS
1000
1
  0
LINE
  5
2CD0
330
1F
100
AcDbEntity
  8
P-0000
  6
Continuous
 62
     7
100
AcDbLine
 10
2536.847778612661
 20
1278.252752203884
 30
0.0
 11
2531.847778612661
 21
1278.252752203884
 31
0.0
1001
ACME_LAYERS
1000
1
  0
LINE
  5
2CD1
330
1F
100
AcDbEntity
  8
P-0000
  6
Continuous
 62
     7
100
AcDbLine
 10
2547.34777861266
 20
1278.252752203882
 30
0.0
 11
2550.902080499239
 21
1278.252752203882
 31
0.0
1001
ACME_LAYERS
1000
1
  0
LINE
  5
2CD2
330
1F
100
AcDbEntity
  8
P-0000
  6
Continuous
 62
     7
100
AcDbLine
 10
2547.34777861266
 20
1278.252752203882
 30
0.0
 11
2546.847778612661
 21
1278.252752203884
 31
0.0
1001
ACME_LAYERS
1000
1
  0
LINE
  5
2CD3
330
1F
100
AcDbEntity
  8
P-0000
  6
Continuous
 62
     7
100
AcDbLine
 10
2538.347778612659
 20
1278.252752203882
 30
0.0
 11
2537.34777861266
 21
1278.252752203882
 31
0.0
1001
ACME_LAYERS
1000
1
  0
LINE
  5
2CD4
330
1F
100
AcDbEntity
  8
P-0000
  6
Continuous
 62
     7
100
AcDbLine
 10
2554.019351487915
 20
1278.252752203882
 30
0.0
 11
2547.34777861266
 21
1278.252752203882
 31
0.0
1001
ACME_LAYERS
1000
1
  0
ARC
  5
2CD5
330
1F
100
AcDbEntity
  8
P-0000
  6
Continuous
 62
     7
100
AcDbCircle
 10
2526.190924363166
 20
1278.252752203882
 30
0.0
 40
4.0
100
AcDbArc
 50
270.0
 51
315.0000000000092
1001
ACME_LAYERS
1000
1
  0
ARC
  5
2CD6
330
1F
100
AcDbEntity
  8
P-0000
  6
Continuous
 62
     7
100
AcDbCircle
 10
2554.019351487915
 20
1274.252752203882
 30
0.0
 40
4.000000000000613
100
AcDbArc
 50
44.99999999999078
 51
90.0
1001
ACME_LAYERS
1000
1
  0
ARC
  5
2CD7
330
1F
100
AcDbEntity
  8
P-0000
  6
Continuous
 62
     7
100
AcDbCircle
 10
2558.504632862153
 20
1278.252752203882
 30
0.0
 40
3.999999999999423
100
AcDbArc
 50
224.9999999999908
 51
270.0
1001
ACME_LAYERS
1000
1
  0
ARC
  5
2CD8
330
1F
100
AcDbEntity
  8
P-0000
  6
Continuous
 62
     7
100
AcDbCircle
 10
2564.749702401307
 20
1278.252752203882
 30
0.0
 40
4.0
100
AcDbArc
 50
270.0
 51
300.0000000000005
1001
ACME_LAYERS
1000
1
  0
ARC
  5
2CD9
330
1F
100
AcDbEntity
  8
P-0000
  6
Continuous
 62
     7
100
AcDbCircle
 10
2564.749702401307
 20
1278.252752203882
 30
0.0
 40
2.0
100
AcDbArc
 50
270.0
 51
300.0000000000296
1001
ACME_LAYERS
1000
1
  0
ARC
  5
2CDA
330
1F
100
AcDbEntity
  8
P-0000
  6
Continuous
 62
     7
100
AcDbCircle
 10
2558.504632862153
 20
1278.252752203882
 30
0.0
 40
2.000000000000397
100
AcDbArc
 50
224.9999999999908
 51
270.0
1001
ACME_LAYERS
1000
1
  0
ARC
  5
2CDB
330
1F
100
AcDbEntity
  8
P-0000
  6
Continuous
 62
     7
100
AcDbCircle
 10
2554.019351487915
 20
1274.252752203882
 30
0.0
 40
2.000000000000311
100
AcDbArc
 50
44.99999999999078
 51
90.0
1001
ACME_LAYERS
1000
1
  0
ARC
  5
2CDC
330
1F
100
AcDbEntity
  8
P-0000
  6
Continuous
 62
     7
100
AcDbCircle
 10
2530.676205737406
 20
1274.252752203882
 30
0.0
 40
2.0
100
AcDbArc
 50
90.0
 51
135.0000000000092
1001
ACME_LAYERS
1000
1
  0
ARC
  5
2CDD
330
1F
100
AcDbEntity
  8
P-0000
  6
Continuous
 62
     7
100
AcDbCircle
 10
2526.190924363166
 20
1278.252752203882
 30
0.0
 40
2.0
100
AcDbArc
 50
270.0
 51
315.0000000000092
1001
ACME_LAYERS
1000
1
  0
ARC
  5
2CDE
330
1F
100
AcDbEntity
  8
P-0000
  6
Continuous
 62
     7
100
AcDbCircle
 10
2519.945854824014
 20
1278.252752203882
 30
0.0
 40
1.999999999999425
100
AcDbArc
 50
239.9999999999704
 51
270.0
1001
ACME_LAYERS
1000
1
  0
ARC
  5
2CDF
330
1F
100
AcDbEntity
  8
P-0000
  6
Continuous
 62
     7
100
AcDbCircle
 10
2519.945854824014
 20
1278.252752203882
 30
0.0
 40
4.000000000000401
100
AcDbArc
 50
239.9999999999995
 51
270.0
1001
ACME_LAYERS
1000
1
  0
ARC
  5
2CE0
330
1F
100
AcDbEntity
  8
P-0000
  6
Continuous
 62
     7
100
AcDbCircle
 10
2530.676205737406
 20
1274.252752203882
 30
0.0
 40
4.0
100
AcDbArc
 50
90.00000000002605
 51
135.0000000000092
1001
ACME_LAYERS
1000
1
  0
HATCH
  5
2CE1
330
1F
100
AcDbEntity
  8
P-0000
  6
Continuous
 62
     3
100
AcDbHatch
 10
0.0
 20
0.0
 30
0.0
210
0.0
220
0.0
230
1.0
  2
_U
 70
     0
 71
     0
 91
        1
 92
        1
 93
       19
 72
     1
 10
2571.347778612659
 20
1279.752752203882
 11
2565.749702401308
 21
1276.520701396315
 72
     1
 10
2565.749702401308
 20
1276.520701396314
 11
2565.285600786169
 21
1276.252752203882
 72
     1
 10
2565.285600786169
 20
1276.252752203882
 11
2564.749702401307
 21
1276.252752203882
 72
     1
 10
2564.749702401307
 20
1276.252752203882
 11
2558.504632862153
 21
1276.252752203882
 72
     1
 10
2558.504632862153
 20
1276.252752203882
 11
2557.676205737406
 21
1276.252752203882
 72
     1
 10
2557.676205737406
 20
1276.252752203882
 11
2557.09041929978
 21
1276.838538641509
 72
     1
 10
2557.09041929978
 20
1276.838538641509
 11
2556.847778612659
 21
1277.08117932863
 72
     2
 10
2554.019351487915
 20
1274.252752203882
 40
4.000000000000613
 50
44.99999999999911
 51
89.99999999999998
 73
     1
 72
     1
 10
2554.019351487915
 20
1278.252752203882
 11
2547.34777861266
 21
1278.252752203882
 72
     1
 10
2547.34777861266
 20
1278.252752203882
 11
2547.34777861266
 21
1276.252752203882
 72
     1
 10
2547.34777861266
 20
1276.252752203882
 11
2554.019351487915
 21
1276.252752203882
 72
     1
 10
2554.019351487915
 20
1276.252752203882
 11
2554.84777861266
 21
1276.252752203882
 72
     1
 10
2554.84777861266
 20
1276.252752203882
 11
2555.433565050286
 21
1275.666965766256
 72
     1
 10
2555.433565050286
 20
1275.666965766255
 11
2555.676205737406
 21
1275.424325079137
 72
     2
 10
2558.504632862153
 20
1278.252752203882
 40
3.999999999999423
 50
224.9999999999822
 51
270.0
 73
     1
 72
     1
 10
2558.504632862153
 20
1274.252752203882
 11
2564.749702401307
 21
1274.252752203882
 72
     2
 10
2564.749702401307
 20
1278.252752203882
 40
4.0
 50
270.0
 51
299.9999999999967
 73
     1
 72
     1
 10
2566.749702401307
 20
1274.788650588744
 11
2572.34777861266
 21
1278.020701396314
 72
     1
 10
2572.34777861266
 20
1278.020701396314
 11
2571.347778612659
 21
1279.752752203882
 97
        0
 75
     0
 76
     0
 52
44.99999999999999
 41
3.0
 77
     0
 78
     1
 53
45.0
 43
65.79566446974877
 44
146.7643441262128
 45
-2.121320343559641
 46
2.121320343559641
 79
     0
 98
        1
 10
2599.314650597765
 20
1414.878717698258
1001
ACME_LAYERS
1000
1
1001
ACAD
1010
0.0
1020
0.0
1030
0.0
  0
HATCH
  5
2CE2
330
1F
100
AcDbEntity
  8
P-0000
  6
Continuous
 62
     3
100
AcDbHatch
 10
0.0
 20
0.0
 30
0.0
210
0.0
220
0.0
230
1.0
  2
_U
 70
     0
 71
     0
 91
        1
 92
        1
 93
       19
 72
     2
 10
2526.190924363166
 20
1278.252752203882
 40
2.0
 50
270.0
 51
315.0000000000351
 73
     1
 72
     1
 10
2527.605137925541
 20
1276.838538641509
 11
2527.84777861266
 21
1277.08117932863
 72
     2
 10
2530.676205737406
 20
1274.252752203882
 40
4.0
 50
224.9999999999992
 51
269.9999999999739
 73
     0
 72
     1
 10
2530.676205737404
 20
1278.252752203882
 11
2533.113808450631
 21
1278.252752203882
 72
     1
 10
2533.113808450631
 20
1278.252752203882
 11
2534.524136979492
 21
1278.252752203882
 72
     1
 10
2534.524136979492
 20
1278.252752203882
 11
2537.34777861266
 21
1278.252752203882
 72
     1
 10
2537.34777861266
 20
1278.252752203882
 11
2537.34777861266
 21
1276.252752203882
 72
     1
 10
2537.34777861266
 20
1276.252752203882
 11
2530.676205737406
 21
1276.252752203882
 72
     1
 10
2530.676205737406
 20
1276.252752203882
 11
2529.84777861266
 21
1276.252752203882
 72
     1
 10
2529.84777861266
 20
1276.252752203882
 11
2529.261992175033
 21
1275.666965766256
 72
     1
 10
2529.261992175033
 20
1275.666965766255
 11
2529.019351487912
 21
1275.424325079137
 72
     2
 10
2526.190924363166
 20
1278.252752203882
 40
4.0
 50
44.99999999998212
 51
90.00000000000001
 73
     0
 72
     1
 10
2526.190924363166
 20
1274.252752203882
 11
2519.945854824014
 21
1274.252752203882
 72
     2
 10
2519.945854824014
 20
1278.252752203882
 40
4.000000000000401
 50
90.00000000000001
 51
119.9999999999967
 73
     0
 72
     1
 10
2517.945854824014
 20
1274.788650588744
 11
2512.347778612661
 21
1278.020701396314
 72
     1
 10
2512.347778612661
 20
1278.020701396314
 11
2513.34777861266
 21
1279.752752203882
 72
     1
 10
2513.34777861266
 20
1279.752752203882
 11
2518.945854824015
 21
1276.520701396315
 72
     2
 10
2519.945854824014
 20
1278.252752203882
 40
1.999999999999425
 50
239.9999999999905
 51
270.0
 73
     1
 72
     1
 10
2519.945854824014
 20
1276.252752203882
 11
2526.190924363166
 21
1276.252752203882
 97
        0
 75
     0
 76
     0
 52
44.99999999999999
 41
5.0
 77
     0
 78
     1
 53
45.0
 43
2599.314650597765
 44
1414.878717698258
 45
-3.535533905932736
 46
3.535533905932738
 79
     0
 98
        1
 10
2599.314650597765
 20
1414.878717698258
1001
ACME_LAYERS
1000
1
  0
LINE
  5
2CE3
330
1F
100
AcDbEntity
  8
0
100
AcDbLine
 10
2538.347778612659
 20
1274.252752203882
 30
0.0
 11
2538.347778612659
 21
1280.252752203884
 31
0.0
  0
LINE
  5
2CE4
330
1F
100
AcDbEntity
  8
P-0000
  6
STRICHPUNKT
 62
     3
100
AcDbLine
 10
2774.865235850373
 20
1277.22564071913
 30
0.0
 11
2774.865235850373
 21
1284.22564071913
 31
0.0
1001
ACME_LAYERS
1000
1
  0
LINE
  5
2CE5
330
1F
100
AcDbEntity
  8
P-0000
  6
Continuous
 62
     7
100
AcDbLine
 10
2779.865235850373
 20
1282.252752203884
 30
0.0
 11
2769.865235850373
 21
1282.252752203884
 31
0.0
1001
ACME_LAYERS
1000
1
  0
LINE
  5
2CE6
330
1F
100
AcDbEntity
  8
P-0000
  6
Continuous
 62
     7
100
AcDbLine
 10
2667.115235850373
 20
1280.252752203884
 30
0.0
 11
2663.615235850373
 21
1280.252752203884
 31
0.0
1001
ACME_LAYERS
1000
1
  0
LINE
  5
2CE7
330
1F
100
AcDbEntity
  8
P-0000
  6
Continuous
 62
     7
100
AcDbLine
 10
2667.115235850373
 20
1282.252752203884
 30
0.0
 11
2663.615235850373
 21
1282.252752203884
 31
0.0
1001
ACME_LAYERS
1000
1
  0
LINE
  5
2CE8
330
1F
100
AcDbEntity
  8
P-0000
  6
Continuous
 62
     7
100
AcDbLine
 10
2663.615235850373
 20
1280.252752203884
 30
0.0
 11
2658.615235850373
 21
1280.252752203884
 31
0.0
1001
ACME_LAYERS
1000
1
  0
LINE
  5
2CE9
330
1F
100
AcDbEntity
  8
P-0000
  6
Continuous
 62
     7
100
AcDbLine
 10
2663.615235850373
 20
1282.252752203884
 30
0.0
 11
2658.615235850373
 21
1282.252752203884
 31
0.0
1001
ACME_LAYERS
1000
1
  0
LINE
  5
2CEA
330
1F
100
AcDbEntity
  8
P-0000
  6
Continuous
 62
     7
100
AcDbLine
 10
2669.115235850373
 20
1280.252752203884
 30
0.0
 11
2667.115235850373
 21
1280.252752203884
 31
0.0
1001
ACME_LAYERS
1000
1
  0
LINE
  5
2CEB
330
1F
100
AcDbEntity
  8
P-0000
  6
Continuous
 62
     7
100
AcDbLine
 10
2669.115235850373
 20
1282.252752203884
 30
0.0
 11
2669.115235850373
 21
1280.252752203884
 31
0.0
1001
ACME_LAYERS
1000
1
  0
LINE
  5
2CEC
330
1F
100
AcDbEntity
  8
P-0000
  6
Continuous
 62
     7
100
AcDbLine
 10
2669.115235850373
 20
1282.252752203884
 30
0.0
 11
2667.115235850373
 21
1282.252752203884
 31
0.0
1001
ACME_LAYERS
1000
1
  0
LINE
  5
2CED
330
1F
100
AcDbEntity
  8
P-0000
  6
Continuous
 62
     7
100
AcDbLine
 10
2564.714920978203
 20
1274.252752203882
 30
0.0
 11
2558.469851439049
 21
1274.252752203882
 31
0.0
1001
ACME_LAYERS
1000
1
  0
LINE
  5
2CEE
330
1F
100
AcDbEntity
  8
P-0000
  6
Continuous
 62
     7
100
AcDbLine
 10
2519.945854824014
 20
1274.252752203882
 30
0.0
 11
2526.190924363168
 21
1274.252752203882
 31
0.0
1001
ACME_LAYERS
1000
1
  0
LINE
  5
2CEF
330
1F
100
AcDbEntity
  8
P-0000
  6
Continuous
 62
     7
100
AcDbLine
 10
2564.749702401309
 20
1274.252752203882
 30
0.0
 11
2558.504632862155
 21
1274.252752203882
 31
0.0
1001
ACME_LAYERS
1000
1
  0
LINE
  5
2CF7
330
1F
100
AcDbEntity
  8
0
100
AcDbLine
 10
2538.291242168569
 20
1278.252752203882
 30
0.0
 11
2538.291242168569
 21
1265.046832298938
 31
0.0
  0
LINE
  5
2CF8
330
1F
100
AcDbEntity
  8
0
100
AcDbLine
 10
2546.29124216857
 20
1278.252752203882
 30
0.0
 11
2546.29124216857
 21
1265.046832298938
 31
0.0
  0
HATCH
  5
2CFA
330
1F
100
AcDbEntity
  8
P-3FF0
  6
Continuous
 62
     3
100
AcDbHatch
 10
0.0
 20
0.0
 30
0.0
210
0.0
220
0.0
230
1.0
  2
_U
 70
     0
 71
     0
 91
        1
 92
        1
 93
       37
 72
     1
 10
2509.62427418446
 20
1264.481659088797
 11
2508.210060622086
 21
1265.89587265117
 72
     1
 10
2508.210060622086
 20
1265.89587265117
 11
2508.912621866838
 21
1266.598433895921
 72
     2
 10
2511.741048991584
 20
1263.770006771176
 40
4.0
 50
224.9999999999994
 51
270.0
 73
     0
 72
     2
 10
2511.741048991584
 20
1263.770006771176
 40
3.999999999999721
 50
270.0
 51
299.9999999999985
 73
     0
 72
     1
 10
2513.741048991584
 20
1267.234108386312
 11
2517.178304001217
 21
1265.249608281227
 72
     2
 10
2518.178304001216
 20
1266.981659088797
 40
1.999999999999868
 50
239.9999999999979
 51
270.0
 73
     1
 72
     1
 10
2518.178304001216
 20
1264.981659088797
 11
2518.456507231493
 21
1264.981659088797
 72
     1
 10
2518.456507231493
 20
1264.981659088797
 11
2538.356507231493
 21
1264.981659088797
 72
     1
 10
2538.356507231493
 20
1264.981659088797
 11
2539.156507231493
 21
1264.981659088797
 72
     1
 10
2539.156507231493
 20
1264.981659088797
 11
2545.556507231494
 21
1264.981659088797
 72
     1
 10
2545.556507231494
 20
1264.981659088797
 11
2546.356507231493
 21
1264.981659088797
 72
     1
 10
2546.356507231493
 20
1264.981659088797
 11
2565.792405616357
 21
1264.981659088797
 72
     2
 10
2565.792405616357
 20
1266.981659088797
 40
2.0
 50
-90.00000000000001
 51
-59.99999999999786
 73
     1
 72
     1
 10
2566.792405616356
 20
1265.249608281228
 11
2572.244385591039
 21
1268.397310387227
 72
     2
 10
2574.041797411264
 20
1265.99537143123
 40
2.999999999970075
 50
233.1918656392357
 51
275.4802249851991
 73
     0
 72
     1
 10
2574.328304001219
 20
1268.981659088797
 11
2612.076640298273
 21
1268.981659088797
 72
     2
 10
2612.076640298273
 20
1262.981659088797
 40
6.000000000000177
 50
270.0
 51
322.9999999999994
 73
     0
 72
     1
 10
2616.868453358557
 20
1266.592549227709
 11
2622.59968478175
 21
1258.986948246051
 72
     2
 10
2618.606507231516
 20
1255.977873130291
 40
5.0
 50
322.9999999999976
 51
359.9999999999961
 73
     0
 72
     1
 10
2623.606507231515
 20
1255.977873130291
 11
2623.606507231515
 21
1251.981659088797
 72
     1
 10
2623.606507231515
 20
1251.981659088797
 11
2623.00997685669
 21
1251.981659088797
 72
     1
 10
2623.00997685669
 20
1251.981659088797
 11
2621.606507231516
 21
1253.385128713971
 72
     1
 10
2621.606507231516
 20
1253.385128713971
 11
2621.606507231516
 21
1255.97787313029
 72
     2
 10
2618.606507231516
 20
1255.977873130291
 40
3.0
 50
-0.0000000000000127
 51
37.00000000000023
 73
     1
 72
     1
 10
2621.002413761658
 20
1257.783318199746
 11
2617.085182930898
 21
1262.981659088797
 72
     1
 10
2617.085182930898
 20
1262.981659088797
 11
2615.271182338462
 21
1265.388919181404
 72
     2
 10
2612.076640298273
 20
1262.981659088797
 40
4.000000000000238
 50
37.00000000000207
 51
89.99999999999998
 73
     1
 72
     1
 10
2612.076640298273
 20
1266.981659088797
 11
2574.328304001219
 21
1266.981659088797
 72
     2
 10
2574.328304001219
 20
1264.981659088797
 40
2.0
 50
89.99999999999998
 51
119.9999999999928
 73
     1
 72
     1
 10
2573.328304001219
 20
1266.713709896366
 11
2567.792405616355
 21
1263.517557473659
 72
     2
 10
2565.792405616357
 20
1266.981659088797
 40
4.0
 50
420.0000000000091
 51
450.0
 73
     0
 72
     1
 10
2565.792405616357
 20
1262.981659088797
 11
2558.606507231493
 21
1262.981659088797
 72
     1
 10
2558.606507231493
 20
1262.981659088797
 11
2518.178304001216
 21
1262.981659088797
 72
     2
 10
2518.178304001216
 20
1266.981659088797
 40
3.999999999999785
 50
90.0000000000049
 51
120.0000000000017
 73
     0
 72
     1
 10
2516.178304001217
 20
1263.517557473658
 11
2512.741048991584
 21
1265.502057578743
 72
     2
 10
2511.741048991584
 20
1263.770006771176
 40
1.999999999999721
 50
59.99999999999537
 51
135.000000000001
 73
     1
 72
     1
 10
2510.326835429211
 20
1265.184220333549
 11
2509.62427418446
 21
1264.481659088797
 97
        0
 75
     0
 76
     0
 52
44.99999999999999
 41
2.0
 77
     0
 78
     1
 53
45.0
 43
3366.585951172861
 44
867.1976786814767
 45
-1.414213562373094
 46
1.414213562373094
 79
     0
 98
        1
 10
3366.585951172861
 20
867.1976786814767
1001
ACME_LAYERS
1000
1
  0
LINE
  5
2CFB
330
1F
100
AcDbEntity
  8
P-3FF0
  6
Continuous
 62
     7
100
AcDbLine
 10
2612.076640298273
 20
1266.981659088797
 30
0.0
 11
2574.328304001219
 21
1266.981659088797
 31
0.0
1001
ACME_LAYERS
1000
1
  0
HATCH
  5
2CFC
330
1F
100
AcDbEntity
  8
P-3FF0
  6
Continuous
 62
     3
100
AcDbHatch
 10
0.0
 20
0.0
 30
0.0
210
0.0
220
0.0
230
1.0
  2
_U
 70
     0
 71
     0
 91
        1
 92
        1
 93
        6
 72
     1
 10
2623.606507231506
 20
1195.983994683221
 11
2622.775003959015
 21
1196.905854217505
 72
     1
 10
2622.775003959015
 20
1196.905854217505
 11
2622.106507231515
 21
1197.981659088797
 72
     1
 10
2622.106507231515
 20
1197.981659088797
 11
2622.106507231515
 21
1250.416803794898
 72
     1
 10
2622.106507231515
 20
1250.416803794899
 11
2623.00997685669
 21
1251.981659088797
 72
     1
 10
2623.00997685669
 20
1251.981659088797
 11
2623.606507231515
 21
1251.981659088797
 72
     1
 10
2623.606507231515
 20
1251.981659088797
 11
2623.606507231515
 21
1195.983994683212
 97
        0
 75
     0
 76
     0
 52
-45.0
 41
2.0
 77
     0
 78
     1
 53
315.0
 43
3366.585951172861
 44
867.1976786814767
 45
1.414213562373094
 46
1.414213562373094
 79
     0
 98
        1
 10
3366.585951172861
 20
867.1976786814767
1001
ACME_LAYERS
1000
1
  0
LINE
  5
2CFD
330
1F
100
AcDbEntity
  8
P-3FF0
  6
Continuous
 62
     7
100
AcDbLine
 10
2622.106507231515
 20
1197.981659088797
 30
0.0
 11
2622.106507231515
 21
1250.416803794899
 31
0.0
1001
ACME_LAYERS
1000
1
  0
LINE
  5
2CFE
330
1F
100
AcDbEntity
  8
P-3FF0
  6
Continuous
 62
     7
100
AcDbLine
 10
2623.606507231515
 20
1251.981659088797
 30
0.0
 11
2623.606507231515
 21
1195.983994683212
 31
0.0
1001
ACME_LAYERS
1000
1
  0
LINE
  5
2CFF
330
1F
100
AcDbEntity
  8
P-3FF0
  6
Continuous
 62
     7
100
AcDbLine
 10
2623.606507231515
 20
1255.977873130291
 30
0.0
 11
2623.606507231515
 21
1251.981659088797
 31
0.0
1001
ACME_LAYERS
1000
1
  0
ARC
  5
2D00
330
1F
100
AcDbEntity
  8
P-3FF0
  6
Continuous
 62
     7
100
AcDbCircle
 10
2612.076640298273
 20
1262.981659088797
 30
0.0
 40
6.000000000000177
100
AcDbArc
 50
36.99999999998547
 51
90.0
1001
ACME_LAYERS
1000
1
  0
LINE
  5
2D01
102
{ACAD_REACTORS
330
30DD
102
}
330
1F
100
AcDbEntity
  8
P-3FF0
  6
Continuous
 62
     7
100
AcDbLine
 10
2617.085182930898
 20
1262.981659088797
 30
0.0
 11
2615.271182338462
 21
1265.388919181404
 31
0.0
1001
ACME_LAYERS
1000
1
  0
ARC
  5
2D02
330
1F
100
AcDbEntity
  8
P-3FF0
  6
Continuous
 62
     7
100
AcDbCircle
 10
2612.076640298273
 20
1262.981659088797
 30
0.0
 40
4.000000000000238
100
AcDbArc
 50
36.99999999998547
 51
90.0
1001
ACME_LAYERS
1000
1
  0
LINE
  5
2D03
102
{ACAD_REACTORS
330
30DD
102
}
330
1F
100
AcDbEntity
  8
P-3FF0
  6
Continuous
 62
     7
100
AcDbLine
 10
2621.002413761658
 20
1257.783318199746
 30
0.0
 11
2617.085182930898
 21
1262.981659088797
 31
0.0
1001
ACME_LAYERS
1000
1
  0
LINE
  5
2D04
102
{ACAD_REACTORS
330
30DD
102
}
330
1F
100
AcDbEntity
  8
P-3FF0
  6
Continuous
 62
     7
100
AcDbLine
 10
2622.59968478175
 20
1258.986948246051
 30
0.0
 11
2616.868453358557
 21
1266.592549227709
 31
0.0
1001
ACME_LAYERS
1000
1
  0
ARC
  5
2D05
102
{ACAD_REACTORS
330
30DD
102
}
330
1F
100
AcDbEntity
  8
P-3FF0
  6
Continuous
 62
     7
100
AcDbCircle
 10
2618.606507231516
 20
1255.977873130291
 30
0.0
 40
3.0
100
AcDbArc
 50
0.0
 51
36.99999999998547
1001
ACME_LAYERS
1000
1
  0
ARC
  5
2D06
330
1F
100
AcDbEntity
  8
P-3FF0
  6
Continuous
 62
     7
100
AcDbCircle
 10
2618.606507231516
 20
1255.977873130291
 30
0.0
 40
5.0
100
AcDbArc
 50
0.0
 51
36.99999999998547
1001
ACME_LAYERS
1000
1
  0
LINE
  5
2D07
330
1F
100
AcDbEntity
  8
P-3FF0
  6
Continuous
 62
     7
100
AcDbLine
 10
2621.606507231516
 20
1255.977873130291
 30
0.0
 11
2621.606507231516
 21
1253.385128713971
 31
0.0
1001
ACME_LAYERS
1000
1
  0
LINE
  5
2D08
330
1F
100
AcDbEntity
  8
0
100
AcDbLine
 10
2621.606507231516
 20
1253.385128713971
 30
0.0
 11
2622.106507231515
 21
1250.416803794899
 31
0.0
  0
LINE
  5
2D09
330
1F
100
AcDbEntity
  8
0
100
AcDbLine
 10
2623.606507231515
 20
1195.983994683212
 30
0.0
 11
2622.106507231515
 21
1195.983994683212
 31
0.0
  0
LINE
  5
2D10
330
1F
100
AcDbEntity
  8
P-0000
  6
Continuous
 62
     7
100
AcDbLine
 10
2695.106507231518
 20
1202.505043343343
 30
0.0
 11
2695.106507231519
 21
898.0468322989384
 31
0.0
1001
ACME_LAYERS
1000
1
  0
LINE
  5
2D11
330
1F
100
AcDbEntity
  8
P-0000
  6
Continuous
 62
     7
100
AcDbLine
 10
2742.606507231518
 20
1263.046832298935
 30
0.0
 11
2722.606507231517
 21
1263.046832298953
 31
0.0
1001
ACME_LAYERS
1000
1
  0
LINE
  5
2D12
330
1F
100
AcDbEntity
  8
P-0000
  6
Continuous
 62
     7
100
AcDbLine
 10
2705.606507231519
 20
1267.046832298938
 30
0.0
 11
2741.044298701001
 21
1267.046832298938
 31
0.0
1001
ACME_LAYERS
1000
1
  0
LINE
  5
2D14
330
1F
100
AcDbEntity
  8
P-0000
  6
Continuous
 62
     7
100
AcDbLine
 10
2742.928220503758
 20
1269.046832298938
 30
0.0
 11
2705.606507231519
 21
1269.046832298938
 31
0.0
1001
ACME_LAYERS
1000
1
  0
HATCH
  5
2D15
330
1F
100
AcDbEntity
  8
P-0000
  6
Continuous
 62
     3
100
AcDbHatch
 10
0.0
 20
0.0
 30
0.0
210
0.0
220
0.0
230
1.0
  2
_U
 70
     0
 71
     0
 91
        1
 92
        1
 93
        9
 72
     1
 10
2823.650017273484
 20
1263.046832298938
 11
2824.650017273484
 21
1264.778883106508
 72
     1
 10
2824.650017273484
 20
1264.778883106508
 11
2820.284559033575
 21
1267.299281596453
 72
     2
 10
2818.284559033574
 20
1263.835179981318
 40
4.0
 50
419.9999999999893
 51
450.0
 73
     1
 72
     2
 10
2818.284559033574
 20
1263.835179981318
 40
4.000000000000613
 50
450.0
 51
495.0000000000009
 73
     1
 72
     1
 10
2815.456131908828
 20
1266.663607106065
 11
2814.753570664075
 21
1265.961045861312
 72
     1
 10
2814.753570664075
 20
1265.961045861311
 11
2816.167784226449
 21
1264.546832298939
 72
     1
 10
2816.167784226449
 20
1264.546832298939
 11
2816.870345471201
 21
1265.249393543691
 72
     2
 10
2818.284559033574
 20
1263.835179981318
 40
2.000000000000115
 50
-135.000000000004
 51
-59.99999999999011
 73
     0
 72
     1
 10
2819.284559033575
 20
1265.567230788886
 11
2823.650017273484
 21
1263.046832298939
 97
        0
 75
     0
 76
     0
 52
44.99999999999999
 41
2.0
 77
     0
 78
     1
 53
135.0
 43
2506.846065730253
 44
1129.155967265375
 45
1.414213562373094
 46
1.414213562373094
 79
     0
 98
        1
 10
2506.846065730253
 20
1129.155967265375
1001
ACME_LAYERS
1000
1
  0
LINE
  5
2D16
330
1F
100
AcDbEntity
  8
P-0000
  6
Continuous
 62
     3
100
AcDbLine
 10
2824.650017273484
 20
1264.778883106508
 30
0.0
 11
2820.284559033575
 21
1267.299281596453
 31
0.0
1001
ACME_LAYERS
1000
1
  0
LINE
  5
2D17
330
1F
100
AcDbEntity
  8
P-0000
  6
Continuous
 62
     7
100
AcDbLine
 10
2823.650017273484
 20
1263.046832298938
 30
0.0
 11
2819.284559033575
 21
1265.567230788886
 31
0.0
1001
ACME_LAYERS
1000
1
  0
LINE
  5
2D18
330
1F
100
AcDbEntity
  8
P-0000
  6
Continuous
 62
     7
100
AcDbLine
 10
2823.650017273484
 20
1263.046832298938
 30
0.0
 11
2819.284559033575
 21
1265.567230788886
 31
0.0
1001
ACME_LAYERS
1000
1
  0
LINE
  5
2D19
330
1F
100
AcDbEntity
  8
P-0000
  6
Continuous
 62
     7
100
AcDbLine
 10
2823.650017273484
 20
1263.046832298938
 30
0.0
 11
2799.078220503759
 21
1263.046832298938
 31
0.0
1001
ACME_LAYERS
1000
1
  0
LINE
  5
2D1A
330
1F
100
AcDbEntity
  8
P-0000
  6
Continuous
 62
     7
100
AcDbLine
 10
2823.650017273484
 20
1263.046832298938
 30
0.0
 11
2824.650017273484
 21
1264.778883106508
 31
0.0
1001
ACME_LAYERS
1000
1
  0
LINE
  5
2D1B
330
1F
100
AcDbEntity
  8
P-0000
  6
Continuous
 62
     7
100
AcDbLine
 10
2799.078220503759
 20
1263.046832298938
 30
0.0
 11
2761.106507231505
 21
1263.046832298935
 31
0.0
1001
ACME_LAYERS
1000
1
  0
LINE
  5
2D1C
330
1F
100
AcDbEntity
  8
P-0000
  6
Continuous
 62
     7
100
AcDbLine
 10
2778.065235850374
 20
1293.400033643596
 30
0.0
 11
2774.865235850373
 21
1293.400033643596
 31
0.0
1001
ACME_LAYERS
1000
1
  0
LINE
  5
2D1D
330
1F
100
AcDbEntity
  8
P-0000
  6
Continuous
 62
     7
100
AcDbLine
 10
2771.665235850373
 20
1292.800033643596
 30
0.0
 11
2778.065235850374
 21
1292.800033643596
 31
0.0
1001
ACME_LAYERS
1000
1
  0
LINE
  5
2D1F
330
1F
100
AcDbEntity
  8
P-0000
  6
Continuous
 62
     7
100
AcDbLine
 10
2778.856507231525
 20
1265.046832298938
 30
0.0
 11
2770.900017273485
 21
1265.046832298938
 31
0.0
1001
ACME_LAYERS
1000
1
  0
LINE
  5
2D20
330
1F
100
AcDbEntity
  8
P-0000
  6
Continuous
 62
     7
100
AcDbLine
 10
2778.865235850373
 20
1292.800033643596
 30
0.0
 11
2778.865235850373
 21
1289.852752203882
 31
0.0
1001
ACME_LAYERS
1000
1
  0
LINE
  5
2D21
330
1F
100
AcDbEntity
  8
P-0000
  6
Continuous
 62
     3
100
AcDbLine
 10
2778.065235850374
 20
1293.400033643596
 30
0.0
 11
2778.065235850374
 21
1289.852752203882
 31
0.0
1001
ACME_LAYERS
1000
1
  0
LINE
  5
2D22
330
1F
100
AcDbEntity
  8
P-0000
  6
Continuous
 62
     7
100
AcDbLine
 10
2778.065235850374
 20
1292.800033643596
 30
0.0
 11
2778.865235850373
 21
1292.800033643596
 31
0.0
1001
ACME_LAYERS
1000
1
  0
LINE
  5
2D23
330
1F
100
AcDbEntity
  8
P-0000
  6
Continuous
 62
     3
100
AcDbLine
 10
2778.065235850374
 20
1293.400033643596
 30
0.0
 11
2778.065235850374
 21
1292.800033643596
 31
0.0
1001
ACME_LAYERS
1000
1
  0
LINE
  5
2D24
330
1F
100
AcDbEntity
  8
P-0000
  6
Continuous
 62
     7
100
AcDbLine
 10
2778.865235850373
 20
1292.800033643596
 30
0.0
 11
2778.065235850374
 21
1293.400033643596
 31
0.0
1001
ACME_LAYERS
1000
1
  0
ARC
  5
2D25
330
1F
100
AcDbEntity
  8
P-0000
  6
Continuous
 62
     7
100
AcDbCircle
 10
2799.078220503759
 20
1267.046832298938
 30
0.0
 40
1.999999999999253
100
AcDbArc
 50
270.0
 51
300.0000000000296
1001
ACME_LAYERS
1000
1
  0
ARC
  5
2D26
330
1F
100
AcDbEntity
  8
P-0000
  6
Continuous
 62
     7
100
AcDbCircle
 10
2799.078220503759
 20
1267.046832298938
 30
0.0
 40
4.000000000000131
100
AcDbArc
 50
270.0
 51
300.0000000000005
1001
ACME_LAYERS
1000
1
  0
LINE
  5
2D27
330
1F
100
AcDbEntity
  8
P-0000
  6
Continuous
 62
     7
100
AcDbLine
 10
2798.800017273483
 20
1265.046832298938
 30
0.0
 11
2804.567966465915
 21
1268.376959317861
 31
0.0
1001
ACME_LAYERS
1000
1
  0
LINE
  5
2D28
330
1F
100
AcDbEntity
  8
P-0000
  6
Continuous
 62
     7
100
AcDbLine
 10
2804.515475513392
 20
1265.567230788886
 30
0.0
 11
2801.078220503761
 21
1263.582730683801
 31
0.0
1001
ACME_LAYERS
1000
1
  0
LINE
  5
2D29
330
1F
100
AcDbEntity
  8
P-0000
  6
Continuous
 62
     7
100
AcDbLine
 10
2814.753570664075
 20
1265.961045861311
 30
0.0
 11
2809.046463882891
 21
1265.961045861311
 31
0.0
1001
ACME_LAYERS
1000
1
  0
LINE
  5
2D2A
330
1F
100
AcDbEntity
  8
P-0000
  6
Continuous
 62
     7
100
AcDbLine
 10
2816.167784226449
 20
1264.546832298939
 30
0.0
 11
2807.632250320517
 21
1264.546832298939
 31
0.0
1001
ACME_LAYERS
1000
1
  0
LINE
  5
2D2B
330
1F
100
AcDbEntity
  8
P-0000
  6
Continuous
 62
     7
100
AcDbLine
 10
2815.917966465913
 20
1269.046832298938
 30
0.0
 11
2807.067966465915
 21
1269.046832298938
 31
0.0
1001
ACME_LAYERS
1000
1
  0
LINE
  5
2D2C
330
1F
100
AcDbEntity
  8
P-0000
  6
Continuous
 62
     7
100
AcDbLine
 10
2818.284559033574
 20
1267.835179981317
 30
0.0
 11
2805.515475513391
 21
1267.835179981317
 31
0.0
1001
ACME_LAYERS
1000
1
  0
ARC
  5
2D2D
330
1F
100
AcDbEntity
  8
P-0000
  6
Continuous
 62
     7
100
AcDbCircle
 10
2815.917966465915
 20
1264.046832298938
 30
0.0
 40
5.0
100
AcDbArc
 50
59.99999999999944
 51
90.00000000002605
1001
ACME_LAYERS
1000
1
  0
ARC
  5
2D2E
330
1F
100
AcDbEntity
  8
P-0000
  6
Continuous
 62
     7
100
AcDbCircle
 10
2818.284559033574
 20
1263.835179981318
 30
0.0
 40
4.000000000000613
100
AcDbArc
 50
90.0
 51
135.0000000000092
1001
ACME_LAYERS
1000
1
  0
LINE
  5
2D2F
330
1F
100
AcDbEntity
  8
P-0000
  6
Continuous
 62
     7
100
AcDbLine
 10
2816.870345471201
 20
1265.249393543691
 30
0.0
 11
2816.167784226449
 21
1264.546832298939
 31
0.0
1001
ACME_LAYERS
1000
1
  0
ARC
  5
2D30
330
1F
100
AcDbEntity
  8
P-0000
  6
Continuous
 62
     7
100
AcDbCircle
 10
2818.284559033574
 20
1263.835179981318
 30
0.0
 40
4.0
100
AcDbArc
 50
59.99999999997037
 51
90.0
1001
ACME_LAYERS
1000
1
  0
LINE
  5
2D31
330
1F
100
AcDbEntity
  8
P-0000
  6
Continuous
 62
     7
100
AcDbLine
 10
2820.284559033575
 20
1267.299281596453
 30
0.0
 11
2818.417966465915
 21
1268.376959317861
 31
0.0
1001
ACME_LAYERS
1000
1
  0
ARC
  5
2D32
330
1F
100
AcDbEntity
  8
P-0000
  6
Continuous
 62
     7
100
AcDbCircle
 10
2818.284559033574
 20
1263.835179981318
 30
0.0
 40
2.000000000000115
100
AcDbArc
 50
59.99999999997037
 51
135.0000000000092
1001
ACME_LAYERS
1000
1
  0
LINE
  5
2D33
330
1F
100
AcDbEntity
  8
P-0000
  6
Continuous
 62
     7
100
AcDbLine
 10
2814.753570664075
 20
1265.961045861311
 30
0.0
 11
2816.167784226449
 21
1264.546832298939
 31
0.0
1001
ACME_LAYERS
1000
1
  0
LINE
  5
2D34
330
1F
100
AcDbEntity
  8
P-0000
  6
Continuous
 62
     7
100
AcDbLine
 10
2815.456131908828
 20
1266.663607106065
 30
0.0
 11
2814.753570664075
 21
1265.961045861311
 31
0.0
1001
ACME_LAYERS
1000
1
  0
ARC
  5
2D35
330
1F
100
AcDbEntity
  8
P-0000
  6
Continuous
 62
     7
100
AcDbCircle
 10
2805.515475513391
 20
1263.835179981318
 30
0.0
 40
1.999999999999401
100
AcDbArc
 50
44.99999999999078
 51
120.0000000000296
1001
ACME_LAYERS
1000
1
  0
ARC
  5
2D36
330
1F
100
AcDbEntity
  8
P-0000
  6
Continuous
 62
     7
100
AcDbCircle
 10
2807.067966465915
 20
1264.046832298938
 30
0.0
 40
5.000000000000164
100
AcDbArc
 50
90.0
 51
120.0000000000005
1001
ACME_LAYERS
1000
1
  0
ARC
  5
2D37
330
1F
100
AcDbEntity
  8
P-0000
  6
Continuous
 62
     7
100
AcDbCircle
 10
2805.515475513391
 20
1263.835179981318
 30
0.0
 40
1.999999999999401
100
AcDbArc
 50
44.99999999999078
 51
120.0000000000296
1001
ACME_LAYERS
1000
1
  0
ARC
  5
2D38
330
1F
100
AcDbEntity
  8
P-0000
  6
Continuous
 62
     7
100
AcDbCircle
 10
2805.515475513391
 20
1263.835179981318
 30
0.0
 40
3.999999999998728
100
AcDbArc
 50
90.0
 51
120.0000000000296
1001
ACME_LAYERS
1000
1
  0
ARC
  5
2D39
330
1F
100
AcDbEntity
  8
P-0000
  6
Continuous
 62
     7
100
AcDbCircle
 10
2805.515475513391
 20
1263.835179981318
 30
0.0
 40
4.0
100
AcDbArc
 50
44.99999999999078
 51
90.0
1001
ACME_LAYERS
1000
1
  0
LINE
  5
2D3A
330
1F
100
AcDbEntity
  8
P-0000
  6
Continuous
 62
     7
100
AcDbLine
 10
2809.046463882891
 20
1265.961045861311
 30
0.0
 11
2808.343902638138
 21
1266.663607106065
 31
0.0
1001
ACME_LAYERS
1000
1
  0
LINE
  5
2D3B
330
1F
100
AcDbEntity
  8
P-0000
  6
Continuous
 62
     7
100
AcDbLine
 10
2807.632250320517
 20
1264.546832298939
 30
0.0
 11
2806.929689075765
 21
1265.249393543691
 31
0.0
1001
ACME_LAYERS
1000
1
  0
LINE
  5
2D3C
330
1F
100
AcDbEntity
  8
P-0000
  6
Continuous
 62
     7
100
AcDbLine
 10
2807.632250320517
 20
1264.546832298939
 30
0.0
 11
2809.046463882891
 21
1265.961045861311
 31
0.0
1001
ACME_LAYERS
1000
1
  0
LINE
  5
2D3D
330
1F
100
AcDbEntity
  8
P-0000
  6
Continuous
 62
     7
100
AcDbLine
 10
2803.515475513392
 20
1267.299281596453
 30
0.0
 11
2800.078220503759
 21
1265.31478149137
 31
0.0
1001
ACME_LAYERS
1000
1
  0
LINE
  5
2D3E
330
1F
100
AcDbEntity
  8
P-0000
  6
Continuous
 62
     7
100
AcDbLine
 10
2798.800017273483
 20
1265.046832298938
 30
0.0
 11
2778.856507231525
 21
1265.046832298938
 31
0.0
1001
ACME_LAYERS
1000
1
  0
LINE
  5
2D3F
330
1F
100
AcDbEntity
  8
P-0000
  6
Continuous
 62
     7
100
AcDbLine
 10
2798.800017273483
 20
1265.046832298938
 30
0.0
 11
2799.078220503759
 21
1265.046832298938
 31
0.0
1001
ACME_LAYERS
1000
1
  0
LINE
  5
2D40
330
1F
100
AcDbEntity
  8
P-0000
  6
Continuous
 62
     3
100
AcDbLine
 10
2778.121772294464
 20
1280.252752203884
 30
0.0
 11
2778.121772294465
 21
1265.046832298938
 31
0.0
1001
ACME_LAYERS
1000
1
  0
LINE
  5
2D41
330
1F
100
AcDbEntity
  8
P-0000
  6
Continuous
 62
     7
100
AcDbLine
 10
2778.921772294464
 20
1278.252752203882
 30
0.0
 11
2778.921772294464
 21
1274.252752203882
 31
0.0
1001
ACME_LAYERS
1000
1
  0
LINE
  5
2D42
330
1F
100
AcDbEntity
  8
P-0000
  6
Continuous
 62
     7
100
AcDbLine
 10
2770.865235850373
 20
1292.800033643596
 30
0.0
 11
2770.865235850373
 21
1289.852752203882
 31
0.0
1001
ACME_LAYERS
1000
1
  0
LINE
  5
2D43
330
1F
100
AcDbEntity
  8
P-0000
  6
Continuous
 62
     3
100
AcDbLine
 10
2771.721772294464
 20
1280.252752203884
 30
0.0
 11
2771.721772294464
 21
1265.046832298938
 31
0.0
1001
ACME_LAYERS
1000
1
  0
LINE
  5
2D44
330
1F
100
AcDbEntity
  8
P-0000
  6
STRICHPUNKT
 62
     3
100
AcDbLine
 10
2774.865235850373
 20
1289.852752203882
 30
0.0
 11
2774.865235850373
 21
1293.400033643596
 31
0.0
1001
ACME_LAYERS
1000
1
  0
LINE
  5
2D45
330
1F
100
AcDbEntity
  8
P-0000
  6
Continuous
 62
     3
100
AcDbLine
 10
2771.665235850373
 20
1293.400033643596
 30
0.0
 11
2771.665235850373
 21
1289.852752203882
 31
0.0
1001
ACME_LAYERS
1000
1
  0
LINE
  5
2D46
330
1F
100
AcDbEntity
  8
P-0000
  6
Continuous
 62
     3
100
AcDbLine
 10
2771.665235850373
 20
1293.400033643596
 30
0.0
 11
2771.665235850373
 21
1292.800033643596
 31
0.0
1001
ACME_LAYERS
1000
1
  0
LINE
  5
2D47
330
1F
100
AcDbEntity
  8
P-0000
  6
Continuous
 62
     7
100
AcDbLine
 10
2770.865235850373
 20
1292.800033643596
 30
0.0
 11
2771.665235850373
 21
1292.800033643596
 31
0.0
1001
ACME_LAYERS
1000
1
  0
LINE
  5
2D48
330
1F
100
AcDbEntity
  8
P-0000
  6
Continuous
 62
     7
100
AcDbLine
 10
2771.665235850373
 20
1293.400033643596
 30
0.0
 11
2770.865235850373
 21
1292.800033643596
 31
0.0
1001
ACME_LAYERS
1000
1
  0
LINE
  5
2D49
330
1F
100
AcDbEntity
  8
P-0000
  6
Continuous
 62
     7
100
AcDbLine
 10
2774.865235850373
 20
1293.400033643596
 30
0.0
 11
2771.665235850373
 21
1293.400033643596
 31
0.0
1001
ACME_LAYERS
1000
1
  0
LINE
  5
2D4A
330
1F
100
AcDbEntity
  8
P-0000
  6
Continuous
 62
     7
100
AcDbLine
 10
2756.10650723152
 20
1263.046832298935
 30
0.0
 11
2742.606507231518
 21
1263.046832298935
 31
0.0
1001
ACME_LAYERS
1000
1
  0
LINE
  5
2D4B
330
1F
100
AcDbEntity
  8
P-0000
  6
Continuous
 62
     7
100
AcDbLine
 10
2770.900017273485
 20
1265.046832298938
 30
0.0
 11
2751.464118888621
 21
1265.046832298938
 31
0.0
1001
ACME_LAYERS
1000
1
  0
LINE
  5
2D4C
330
1F
100
AcDbEntity
  8
P-0000
  6
Continuous
 62
     7
100
AcDbLine
 10
2760.345304171429
 20
1263.046832298938
 30
0.0
 11
2751.464118888621
 21
1263.046832298938
 31
0.0
1001
ACME_LAYERS
1000
1
  0
LINE
  5
2D4D
330
1F
100
AcDbEntity
  8
P-0000
  6
Continuous
 62
     7
100
AcDbLine
 10
2770.921772294465
 20
1278.252752203882
 30
0.0
 11
2770.921772294465
 21
1274.252752203882
 31
0.0
1001
ACME_LAYERS
1000
1
  0
LINE
  5
2D4E
330
1F
100
AcDbEntity
  8
P-0000
  6
Continuous
 62
     7
100
AcDbLine
 10
2761.106507231505
 20
1263.046832298935
 30
0.0
 11
2760.345304171429
 21
1263.046832298938
 31
0.0
1001
ACME_LAYERS
1000
1
  0
LINE
  5
2D4F
330
1F
100
AcDbEntity
  8
P-0000
  6
Continuous
 62
     7
100
AcDbLine
 10
2749.464118888622
 20
1263.582730683801
 30
0.0
 11
2743.928220503759
 21
1266.778883106508
 31
0.0
1001
ACME_LAYERS
1000
1
  0
LINE
  5
2D50
330
1F
100
AcDbEntity
  8
P-0000
  6
Continuous
 62
     7
100
AcDbLine
 10
2742.928220503758
 20
1267.046832298938
 30
0.0
 11
2741.044298701001
 21
1267.046832298938
 31
0.0
1001
ACME_LAYERS
1000
1
  0
LINE
  5
2D51
330
1F
100
AcDbEntity
  8
P-0000
  6
Continuous
 62
     7
100
AcDbLine
 10
2750.464118888622
 20
1265.314781491369
 30
0.0
 11
2744.928220503758
 21
1268.510933914076
 31
0.0
1001
ACME_LAYERS
1000
1
  0
ARC
  5
2D52
330
1F
100
AcDbEntity
  8
P-0000
  6
Continuous
 62
     7
100
AcDbCircle
 10
2751.464118888621
 20
1267.046832298938
 30
0.0
 40
2.0
100
AcDbArc
 50
239.9999999999704
 51
270.0
1001
ACME_LAYERS
1000
1
  0
ARC
  5
2D53
330
1F
100
AcDbEntity
  8
P-0000
  6
Continuous
 62
     7
100
AcDbCircle
 10
2742.928220503758
 20
1265.046832298938
 30
0.0
 40
4.0
100
AcDbArc
 50
59.99999999999944
 51
90.0
1001
ACME_LAYERS
1000
1
  0
ARC
  5
2D54
330
1F
100
AcDbEntity
  8
P-0000
  6
Continuous
 62
     7
100
AcDbCircle
 10
2742.928220503758
 20
1265.046832298938
 30
0.0
 40
2.0
100
AcDbArc
 50
60.00000000003179
 51
90.0
1001
ACME_LAYERS
1000
1
  0
ARC
  5
2D55
330
1F
100
AcDbEntity
  8
P-0000
  6
Continuous
 62
     7
100
AcDbCircle
 10
2751.464118888621
 20
1267.046832298938
 30
0.0
 40
4.0
100
AcDbArc
 50
239.9999999999995
 51
270.0
1001
ACME_LAYERS
1000
1
  0
LINE
  5
2D56
330
1F
100
AcDbEntity
  8
P-0000
  6
Continuous
 62
     7
100
AcDbLine
 10
2697.976825417982
 20
1269.046832298938
 30
0.0
 11
2658.606507231517
 21
1269.046832298938
 31
0.0
1001
ACME_LAYERS
1000
1
  0
LINE
  5
2D57
330
1F
100
AcDbEntity
  8
P-0000
  6
Continuous
 62
     7
100
AcDbLine
 10
2705.606507231519
 20
1269.046832298938
 30
0.0
 11
2658.606507231517
 21
1269.046832298938
 31
0.0
1001
ACME_LAYERS
1000
1
  0
LINE
  5
2D58
330
1F
100
AcDbEntity
  8
P-0000
  6
Continuous
 62
     7
100
AcDbLine
 10
2722.606507231517
 20
1263.046832298953
 30
0.0
 11
2701.285347545795
 21
1263.046832298953
 31
0.0
1001
ACME_LAYERS
1000
1
  0
LINE
  5
2D59
330
1F
100
AcDbEntity
  8
P-0000
  6
Continuous
 62
     7
100
AcDbLine
 10
2725.110778547839
 20
1269.26636437307
 30
0.0
 11
2725.106507231525
 21
1269.250200620477
 31
0.0
1001
ACME_LAYERS
1000
1
  0
LINE
  5
2D5A
330
1F
100
AcDbEntity
  8
P-0000
  6
Continuous
 62
     7
100
AcDbLine
 10
2702.606507231519
 20
1263.046832298956
 30
0.0
 11
2702.606507231519
 21
1264.046832298938
 31
0.0
1001
ACME_LAYERS
1000
1
  0
ARC
  5
2D5B
330
1F
100
AcDbEntity
  8
P-0000
  6
Continuous
 62
     7
100
AcDbCircle
 10
2705.606507231519
 20
1264.046832298938
 30
0.0
 40
3.0
100
AcDbArc
 50
90.0
 51
180.0
1001
ACME_LAYERS
1000
1
  0
LINE
  5
2D5C
330
1F
100
AcDbEntity
  8
P-0000
  6
Continuous
 62
     7
100
AcDbLine
 10
2712.106650263983
 20
1263.046832298946
 30
0.0
 11
2701.285347545791
 21
1263.046832298957
 31
0.0
1001
ACME_LAYERS
1000
1
  0
LINE
  5
2D5D
330
1F
100
AcDbEntity
  8
P-0000
  6
Continuous
 62
     7
100
AcDbLine
 10
2770.865235850374
 20
1289.852752203882
 30
0.0
 11
2778.065235850374
 21
1289.852752203882
 31
0.0
1001
ACME_LAYERS
1000
1
  0
LINE
  5
2D5E
330
1F
100
AcDbEntity
  8
P-0000
  6
Continuous
 62
     7
100
AcDbLine
 10
2778.065235850374
 20
1289.852752203882
 30
0.0
 11
2778.865235850374
 21
1289.852752203882
 31
0.0
1001
ACME_LAYERS
1000
1
  0
LINE
  5
2D5F
330
1F
100
AcDbEntity
  8
P-0000
  6
Continuous
 62
     7
100
AcDbLine
 10
2783.310933963794
 20
1283.752752203882
 30
0.0
 11
2783.310933963794
 21
1282.252752203884
 31
0.0
1001
ACME_LAYERS
1000
1
  0
LINE
  5
2D60
330
1F
100
AcDbEntity
  8
P-0000
  6
Continuous
 62
     7
100
AcDbLine
 10
2770.865235850374
 20
1280.252752203884
 30
0.0
 11
2770.865235850374
 21
1274.252752203882
 31
0.0
1001
ACME_LAYERS
1000
1
  0
LINE
  5
2D61
330
1F
100
AcDbEntity
  8
P-0000
  6
Continuous
 62
     7
100
AcDbLine
 10
2766.310933963794
 20
1282.252752203884
 30
0.0
 11
2766.310933963794
 21
1283.752752203882
 31
0.0
1001
ACME_LAYERS
1000
1
  0
LINE
  5
2D62
330
1F
100
AcDbEntity
  8
P-0000
  6
Continuous
 62
     7
100
AcDbLine
 10
2792.365235850364
 20
1279.752752203882
 30
0.0
 11
2778.865235850374
 21
1279.752752203882
 31
0.0
1001
ACME_LAYERS
1000
1
  0
LINE
  5
2D63
330
1F
100
AcDbEntity
  8
P-0000
  6
Continuous
 62
     7
100
AcDbLine
 10
2786.536808725629
 20
1278.252752203882
 30
0.0
 11
2784.099206012401
 21
1278.252752203882
 31
0.0
1001
ACME_LAYERS
1000
1
  0
LINE
  5
2D64
330
1F
100
AcDbEntity
  8
P-0000
  6
Continuous
 62
     7
100
AcDbLine
 10
2658.615235850381
 20
1279.752752203882
 30
0.0
 11
2745.865235850374
 21
1279.752752203882
 31
0.0
1001
ACME_LAYERS
1000
1
  0
LINE
  5
2D65
330
1F
100
AcDbEntity
  8
P-0000
  6
Continuous
 62
     7
100
AcDbLine
 10
2786.536808725629
 20
1278.252752203882
 30
0.0
 11
2784.099206012401
 21
1278.252752203882
 31
0.0
1001
ACME_LAYERS
1000
1
  0
LINE
  5
2D66
330
1F
100
AcDbEntity
  8
P-0000
  6
Continuous
 62
     7
100
AcDbLine
 10
2784.099206012401
 20
1278.252752203882
 30
0.0
 11
2782.688877483542
 21
1278.252752203882
 31
0.0
1001
ACME_LAYERS
1000
1
  0
LINE
  5
2D67
330
1F
100
AcDbEntity
  8
P-0000
  6
Continuous
 62
     7
100
AcDbLine
 10
2784.099206012401
 20
1278.252752203882
 30
0.0
 11
2782.688877483542
 21
1278.252752203882
 31
0.0
1001
ACME_LAYERS
1000
1
  0
LINE
  5
2D68
330
1F
100
AcDbEntity
  8
P-0000
  6
Continuous
 62
     7
100
AcDbLine
 10
2658.615235850376
 20
1278.020701396314
 30
0.0
 11
2744.865235850375
 21
1278.020701396314
 31
0.0
1001
ACME_LAYERS
1000
1
  0
LINE
  5
2D69
330
1F
100
AcDbEntity
  8
P-0000
  6
Continuous
 62
     7
100
AcDbLine
 10
2745.865235850374
 20
1279.752752203882
 30
0.0
 11
2751.463312061726
 21
1276.520701396314
 31
0.0
1001
ACME_LAYERS
1000
1
  0
LINE
  5
2D6A
330
1F
100
AcDbEntity
  8
P-0000
  6
Continuous
 62
     7
100
AcDbLine
 10
2770.865235850374
 20
1279.752752203882
 30
0.0
 11
2745.865235850374
 21
1279.752752203882
 31
0.0
1001
ACME_LAYERS
1000
1
  0
LINE
  5
2D6B
330
1F
100
AcDbEntity
  8
P-0000
  6
Continuous
 62
     7
100
AcDbLine
 10
2744.865235850375
 20
1278.020701396314
 30
0.0
 11
2745.865235850374
 21
1279.752752203882
 31
0.0
1001
ACME_LAYERS
1000
1
  0
LINE
  5
2D6C
330
1F
100
AcDbEntity
  8
P-0000
  6
Continuous
 62
     7
100
AcDbLine
 10
2745.865235850374
 20
1279.752752203882
 30
0.0
 11
2745.937202012874
 21
1279.752752203882
 31
0.0
1001
ACME_LAYERS
1000
1
  0
LINE
  5
2D6D
330
1F
100
AcDbEntity
  8
P-0000
  6
Continuous
 62
     7
100
AcDbLine
 10
2782.688877483542
 20
1278.252752203882
 30
0.0
 11
2779.865235850374
 21
1278.252752203882
 31
0.0
1001
ACME_LAYERS
1000
1
  0
LINE
  5
2D6F
330
1F
100
AcDbEntity
  8
P-0000
  6
Continuous
 62
     3
100
AcDbLine
 10
2797.803058023882
 20
1276.252752203882
 30
0.0
 11
2797.267159639019
 21
1276.252752203882
 31
0.0
1001
ACME_LAYERS
1000
1
  0
LINE
  5
2D70
330
1F
100
AcDbEntity
  8
P-0000
  6
Continuous
 62
     3
100
AcDbLine
 10
2798.26715963902
 20
1276.520701396314
 30
0.0
 11
2797.803058023882
 21
1276.252752203882
 31
0.0
1001
ACME_LAYERS
1000
1
  0
LINE
  5
2D71
330
1F
100
AcDbEntity
  8
P-0000
  6
Continuous
 62
     7
100
AcDbLine
 10
2760.365235850374
 20
1277.08117932863
 30
0.0
 11
2760.122595163254
 21
1276.838538641509
 31
0.0
1001
ACME_LAYERS
1000
1
  0
LINE
  5
2D72
330
1F
100
AcDbEntity
  8
P-0000
  6
Continuous
 62
     7
100
AcDbLine
 10
2789.365235850373
 20
1277.08117932863
 30
0.0
 11
2789.607876537492
 21
1276.838538641509
 31
0.0
1001
ACME_LAYERS
1000
1
  0
LINE
  5
2D73
330
1F
100
AcDbEntity
  8
P-0000
  6
Continuous
 62
     7
100
AcDbLine
 10
2779.865235850374
 20
1278.252752203882
 30
0.0
 11
2779.865235850374
 21
1276.252752203882
 31
0.0
1001
ACME_LAYERS
1000
1
  0
LINE
  5
2D74
330
1F
100
AcDbEntity
  8
P-0000
  6
Continuous
 62
     7
100
AcDbLine
 10
2769.865235850375
 20
1278.252752203882
 30
0.0
 11
2769.865235850375
 21
1276.252752203882
 31
0.0
1001
ACME_LAYERS
1000
1
  0
LINE
  5
2D75
330
1F
100
AcDbEntity
  8
P-0000
  6
Continuous
 62
     7
100
AcDbLine
 10
2804.865235850372
 20
1278.020701396314
 30
0.0
 11
2803.865235850374
 21
1279.752752203882
 31
0.0
1001
ACME_LAYERS
1000
1
  0
LINE
  5
2D76
330
1F
100
AcDbEntity
  8
P-0000
  6
Continuous
 62
     7
100
AcDbLine
 10
2804.865235850372
 20
1278.020701396314
 30
0.0
 11
2799.26715963902
 21
1274.788650588744
 31
0.0
1001
ACME_LAYERS
1000
1
  0
LINE
  5
2D77
330
1F
100
AcDbEntity
  8
P-0000
  6
Continuous
 62
     7
100
AcDbLine
 10
2803.865235850374
 20
1279.752752203882
 30
0.0
 11
2798.26715963902
 21
1276.520701396314
 31
0.0
1001
ACME_LAYERS
1000
1
  0
LINE
  5
2D78
330
1F
100
AcDbEntity
  8
P-0000
  6
Continuous
 62
     7
100
AcDbLine
 10
2787.951022288
 20
1275.666965766255
 30
0.0
 11
2788.193662975121
 21
1275.424325079138
 31
0.0
1001
ACME_LAYERS
1000
1
  0
LINE
  5
2D79
330
1F
100
AcDbEntity
  8
P-0000
  6
Continuous
 62
     7
100
AcDbLine
 10
2761.779449412748
 20
1275.666965766255
 30
0.0
 11
2761.536808725626
 21
1275.424325079138
 31
0.0
1001
ACME_LAYERS
1000
1
  0
LINE
  5
2D7A
330
1F
100
AcDbEntity
  8
P-0000
  6
Continuous
 62
     7
100
AcDbLine
 10
2744.865235850375
 20
1278.020701396314
 30
0.0
 11
2750.463312061726
 21
1274.788650588744
 31
0.0
1001
ACME_LAYERS
1000
1
  0
LINE
  5
2D7B
330
1F
100
AcDbEntity
  8
P-0000
  6
Continuous
 62
     7
100
AcDbLine
 10
2752.463312061726
 20
1274.252752203882
 30
0.0
 11
2658.615235850376
 21
1274.252752203882
 31
0.0
1001
ACME_LAYERS
1000
1
  0
LINE
  5
2D7C
330
1F
100
AcDbEntity
  8
P-0000
  6
Continuous
 62
     7
100
AcDbLine
 10
2752.463312061726
 20
1276.252752203882
 30
0.0
 11
2758.708381600881
 21
1276.252752203882
 31
0.0
1001
ACME_LAYERS
1000
1
  0
LINE
  5
2D7D
330
1F
100
AcDbEntity
  8
P-0000
  6
Continuous
 62
     7
100
AcDbLine
 10
2752.463312061726
 20
1274.252752203882
 30
0.0
 11
2758.708381600881
 21
1274.252752203882
 31
0.0
1001
ACME_LAYERS
1000
1
  0
LINE
  5
2D7E
330
1F
100
AcDbEntity
  8
P-0000
  6
Continuous
 62
     7
100
AcDbLine
 10
2797.267159639019
 20
1274.252752203882
 30
0.0
 11
2791.022090099867
 21
1274.252752203882
 31
0.0
1001
ACME_LAYERS
1000
1
  0
LINE
  5
2D7F
330
1F
100
AcDbEntity
  8
P-0000
  6
Continuous
 62
     7
100
AcDbLine
 10
2779.865235850374
 20
1278.252752203882
 30
0.0
 11
2778.865235850374
 21
1278.252752203882
 31
0.0
1001
ACME_LAYERS
1000
1
  0
LINE
  5
2D80
330
1F
100
AcDbEntity
  8
P-0000
  6
Continuous
 62
     7
100
AcDbLine
 10
2782.688877483542
 20
1278.252752203882
 30
0.0
 11
2779.865235850374
 21
1278.252752203882
 31
0.0
1001
ACME_LAYERS
1000
1
  0
LINE
  5
2D81
330
1F
100
AcDbEntity
  8
P-0000
  6
Continuous
 62
     7
100
AcDbLine
 10
2769.865235850375
 20
1278.252752203882
 30
0.0
 11
2763.193662975119
 21
1278.252752203882
 31
0.0
1001
ACME_LAYERS
1000
1
  0
LINE
  5
2D82
330
1F
100
AcDbEntity
  8
P-0000
  6
Continuous
 62
     7
100
AcDbLine
 10
2770.865235850374
 20
1276.252752203882
 30
0.0
 11
2763.193662975119
 21
1276.252752203882
 31
0.0
1001
ACME_LAYERS
1000
1
  0
LINE
  5
2D83
330
1F
100
AcDbEntity
  8
P-0000
  6
Continuous
 62
     7
100
AcDbLine
 10
2786.536808725627
 20
1276.252752203882
 30
0.0
 11
2778.921772294464
 21
1276.252752203882
 31
0.0
1001
ACME_LAYERS
1000
1
  0
LINE
  5
2D84
330
1F
100
AcDbEntity
  8
P-0000
  6
Continuous
 62
     7
100
AcDbLine
 10
2770.865235850374
 20
1278.252752203882
 30
0.0
 11
2769.865235850375
 21
1278.252752203882
 31
0.0
1001
ACME_LAYERS
1000
1
  0
LINE
  5
2D85
330
1F
100
AcDbEntity
  8
P-0000
  6
Continuous
 62
     7
100
AcDbLine
 10
2797.267159639019
 20
1276.252752203882
 30
0.0
 11
2791.022090099867
 21
1276.252752203882
 31
0.0
1001
ACME_LAYERS
1000
1
  0
LINE
  5
2D86
330
1F
100
AcDbEntity
  8
P-0000
  6
Continuous
 62
     7
100
AcDbLine
 10
2764.865235850374
 20
1278.252752203882
 30
0.0
 11
2769.865235850375
 21
1278.252752203882
 31
0.0
1001
ACME_LAYERS
1000
1
  0
LINE
  5
2D87
330
1F
100
AcDbEntity
  8
P-0000
  6
Continuous
 62
     7
100
AcDbLine
 10
2769.865235850375
 20
1278.252752203882
 30
0.0
 11
2770.865235850374
 21
1278.252752203882
 31
0.0
1001
ACME_LAYERS
1000
1
  0
LINE
  5
2D88
330
1F
100
AcDbEntity
  8
P-0000
  6
Continuous
 62
     7
100
AcDbLine
 10
2803.865235850374
 20
1279.752752203882
 30
0.0
 11
2792.365235850364
 21
1279.752752203882
 31
0.0
1001
ACME_LAYERS
1000
1
  0
LINE
  5
2D89
330
1F
100
AcDbEntity
  8
P-0000
  6
Continuous
 62
     7
100
AcDbLine
 10
2783.310933963794
 20
1278.252752203882
 30
0.0
 11
2778.865235850374
 21
1278.252752203882
 31
0.0
1001
ACME_LAYERS
1000
1
  0
LINE
  5
2D8A
330
1F
100
AcDbEntity
  8
P-0000
  6
Continuous
 62
     7
100
AcDbLine
 10
2770.865235850374
 20
1278.252752203882
 30
0.0
 11
2769.865235850375
 21
1278.252752203882
 31
0.0
1001
ACME_LAYERS
1000
1
  0
LINE
  5
2D8B
330
1F
100
AcDbEntity
  8
P-0000
  6
Continuous
 62
     7
100
AcDbLine
 10
2783.310933963794
 20
1283.852752203882
 30
0.0
 11
2783.310933963794
 21
1283.752752203882
 31
0.0
1001
ACME_LAYERS
1000
1
  0
LINE
  5
2D8C
330
1F
100
AcDbEntity
  8
P-0000
  6
Continuous
 62
     7
100
AcDbLine
 10
2766.310933963794
 20
1283.852752203882
 30
0.0
 11
2783.310933963794
 21
1283.852752203882
 31
0.0
1001
ACME_LAYERS
1000
1
  0
LINE
  5
2D8D
330
1F
100
AcDbEntity
  8
P-0000
  6
Continuous
 62
     7
100
AcDbLine
 10
2766.310933963794
 20
1283.752752203882
 30
0.0
 11
2766.310933963794
 21
1283.852752203882
 31
0.0
1001
ACME_LAYERS
1000
1
  0
LINE
  5
2D8E
330
1F
100
AcDbEntity
  8
P-0000
  6
Continuous
 62
     7
100
AcDbLine
 10
2767.359682350909
 20
1285.739691395789
 30
0.0
 11
2767.359682350909
 21
1284.433308787482
 31
0.0
1001
ACME_LAYERS
1000
1
  0
LINE
  5
2D8F
330
1F
100
AcDbEntity
  8
P-0000
  6
Continuous
 62
     7
100
AcDbLine
 10
2781.365235850374
 20
1283.852752203882
 30
0.0
 11
2768.365235850374
 21
1283.852752203882
 31
0.0
1001
ACME_LAYERS
1000
1
  0
LINE
  5
2D90
330
1F
100
AcDbEntity
  8
P-0000
  6
Continuous
 62
     7
100
AcDbLine
 10
2782.370789349839
 20
1285.739691395789
 30
0.0
 11
2782.370789349839
 21
1284.433308787482
 31
0.0
1001
ACME_LAYERS
1000
1
  0
LINE
  5
2D91
330
1F
100
AcDbEntity
  8
P-0000
  6
Continuous
 62
     7
100
AcDbLine
 10
2778.865235850374
 20
1289.852752203882
 30
0.0
 11
2781.365235850374
 21
1289.852752203882
 31
0.0
1001
ACME_LAYERS
1000
1
  0
LINE
  5
2D92
330
1F
100
AcDbEntity
  8
P-0000
  6
Continuous
 62
     7
100
AcDbLine
 10
2767.606353939565
 20
1284.279895769517
 30
0.0
 11
2768.365235850374
 21
1283.852752203882
 31
0.0
1001
ACME_LAYERS
1000
1
  0
LINE
  5
2D93
330
1F
100
AcDbEntity
  8
P-0000
  6
Continuous
 62
     7
100
AcDbLine
 10
2767.606353939565
 20
1289.425608638248
 30
0.0
 11
2768.365235850374
 21
1289.852752203882
 31
0.0
1001
ACME_LAYERS
1000
1
  0
LINE
  5
2D94
330
1F
100
AcDbEntity
  8
P-0000
  6
Continuous
 62
     7
100
AcDbLine
 10
2782.124117761181
 20
1284.279895769517
 30
0.0
 11
2781.365235850374
 21
1283.852752203882
 31
0.0
1001
ACME_LAYERS
1000
1
  0
LINE
  5
2D95
330
1F
100
AcDbEntity
  8
P-0000
  6
Continuous
 62
     7
100
AcDbLine
 10
2782.124117761181
 20
1289.425608638248
 30
0.0
 11
2781.365235850374
 21
1289.852752203882
 31
0.0
1001
ACME_LAYERS
1000
1
  0
LINE
  5
2D96
330
1F
100
AcDbEntity
  8
P-0000
  6
Continuous
 62
     7
100
AcDbLine
 10
2768.365235850374
 20
1289.852752203882
 30
0.0
 11
2770.865235850374
 21
1289.852752203882
 31
0.0
1001
ACME_LAYERS
1000
1
  0
LINE
  5
2D97
330
1F
100
AcDbEntity
  8
P-0000
  6
Continuous
 62
     7
100
AcDbLine
 10
2782.370789349839
 20
1289.272195620282
 30
0.0
 11
2782.370789349839
 21
1285.739691395789
 31
0.0
1001
ACME_LAYERS
1000
1
  0
LINE
  5
2D98
330
1F
100
AcDbEntity
  8
P-0000
  6
Continuous
 62
     7
100
AcDbLine
 10
2778.618012600106
 20
1289.272195620282
 30
0.0
 11
2778.618012600106
 21
1283.852752203882
 31
0.0
1001
ACME_LAYERS
1000
1
  0
LINE
  5
2D99
330
1F
100
AcDbEntity
  8
P-0000
  6
Continuous
 62
     7
100
AcDbLine
 10
2771.112459100641
 20
1289.272195620282
 30
0.0
 11
2771.112459100641
 21
1283.852752203882
 31
0.0
1001
ACME_LAYERS
1000
1
  0
LINE
  5
2D9A
330
1F
100
AcDbEntity
  8
P-0000
  6
Continuous
 62
     7
100
AcDbLine
 10
2767.359682350909
 20
1289.272195620282
 30
0.0
 11
2767.359682350909
 21
1285.739691395789
 31
0.0
1001
ACME_LAYERS
1000
1
  0
LINE
  5
2D9B
330
1F
100
AcDbEntity
  8
P-0000
  6
Continuous
 62
     7
100
AcDbLine
 10
2658.606507231516
 20
1279.752752203882
 30
0.0
 11
2658.615235850352
 21
1279.752752203882
 31
0.0
1001
ACME_LAYERS
1000
1
  0
LINE
  5
2D9C
330
1F
100
AcDbEntity
  8
P-0000
  6
Continuous
 62
     7
100
AcDbLine
 10
2658.606507231516
 20
1278.020701396314
 30
0.0
 11
2658.615235850376
 21
1278.020701396314
 31
0.0
1001
ACME_LAYERS
1000
1
  0
LINE
  5
2D9D
330
1F
100
AcDbEntity
  8
P-0000
  6
Continuous
 62
     7
100
AcDbLine
 10
2658.606507231517
 20
1274.252752203882
 30
0.0
 11
2658.615235850376
 21
1274.252752203882
 31
0.0
1001
ACME_LAYERS
1000
1
  0
LINE
  5
2D9E
330
1F
100
AcDbEntity
  8
P-0000
  6
Continuous
 62
     7
100
AcDbLine
 10
2780.365235850372
 20
1278.252752203884
 30
0.0
 11
2785.365235850372
 21
1278.252752203884
 31
0.0
1001
ACME_LAYERS
1000
1
  0
LINE
  5
2D9F
330
1F
100
AcDbEntity
  8
P-0000
  6
Continuous
 62
     7
100
AcDbLine
 10
2783.310933963794
 20
1282.252752203884
 30
0.0
 11
2778.865235850374
 21
1282.252752203884
 31
0.0
1001
ACME_LAYERS
1000
1
  0
LINE
  5
2DA0
330
1F
100
AcDbEntity
  8
P-0000
  6
Continuous
 62
     7
100
AcDbLine
 10
2769.865235850375
 20
1278.252752203882
 30
0.0
 11
2766.310933963794
 21
1278.252752203882
 31
0.0
1001
ACME_LAYERS
1000
1
  0
LINE
  5
2DA1
330
1F
100
AcDbEntity
  8
P-0000
  6
Continuous
 62
     7
100
AcDbLine
 10
2769.865235850375
 20
1278.252752203882
 30
0.0
 11
2770.365235850372
 21
1278.252752203884
 31
0.0
1001
ACME_LAYERS
1000
1
  0
LINE
  5
2DA2
330
1F
100
AcDbEntity
  8
P-0000
  6
Continuous
 62
     7
100
AcDbLine
 10
2766.310933963794
 20
1282.252752203884
 30
0.0
 11
2770.365235850372
 21
1282.252752203884
 31
0.0
1001
ACME_LAYERS
1000
1
  0
LINE
  5
2DA3
330
1F
100
AcDbEntity
  8
P-0000
  6
Continuous
 62
     7
100
AcDbLine
 10
2778.865235850374
 20
1278.252752203882
 30
0.0
 11
2779.865235850374
 21
1278.252752203882
 31
0.0
1001
ACME_LAYERS
1000
1
  0
LINE
  5
2DA4
330
1F
100
AcDbEntity
  8
P-0000
  6
Continuous
 62
     7
100
AcDbLine
 10
2770.865235850374
 20
1280.252752203884
 30
0.0
 11
2770.365235850372
 21
1280.252752203884
 31
0.0
1001
ACME_LAYERS
1000
1
  0
LINE
  5
2DA5
330
1F
100
AcDbEntity
  8
P-0000
  6
Continuous
 62
     7
100
AcDbLine
 10
2771.665235850373
 20
1280.252752203884
 30
0.0
 11
2770.865235850374
 21
1280.252752203884
 31
0.0
1001
ACME_LAYERS
1000
1
  0
LINE
  5
2DA6
330
1F
100
AcDbEntity
  8
P-0000
  6
Continuous
 62
     7
100
AcDbLine
 10
2778.065235850374
 20
1280.252752203884
 30
0.0
 11
2771.665235850373
 21
1280.252752203884
 31
0.0
1001
ACME_LAYERS
1000
1
  0
LINE
  5
2DA7
330
1F
100
AcDbEntity
  8
P-0000
  6
Continuous
 62
     7
100
AcDbLine
 10
2778.865235850374
 20
1280.252752203884
 30
0.0
 11
2778.065235850374
 21
1280.252752203884
 31
0.0
1001
ACME_LAYERS
1000
1
  0
LINE
  5
2DA8
330
1F
100
AcDbEntity
  8
P-0000
  6
Continuous
 62
     7
100
AcDbLine
 10
2763.193662975119
 20
1278.252752203882
 30
0.0
 11
2769.865235850375
 21
1278.252752203882
 31
0.0
1001
ACME_LAYERS
1000
1
  0
ARC
  5
2DA9
330
1F
100
AcDbEntity
  8
P-0000
  6
Continuous
 62
     7
100
AcDbCircle
 10
2791.022090099867
 20
1278.252752203882
 30
0.0
 40
4.0
100
AcDbArc
 50
224.9999999999908
 51
270.0
1001
ACME_LAYERS
1000
1
  0
ARC
  5
2DAA
330
1F
100
AcDbEntity
  8
P-0000
  6
Continuous
 62
     7
100
AcDbCircle
 10
2763.193662975119
 20
1274.252752203882
 30
0.0
 40
4.000000000000613
100
AcDbArc
 50
90.0
 51
135.0000000000092
1001
ACME_LAYERS
1000
1
  0
ARC
  5
2DAB
330
1F
100
AcDbEntity
  8
P-0000
  6
Continuous
 62
     7
100
AcDbCircle
 10
2758.708381600881
 20
1278.252752203882
 30
0.0
 40
3.999999999999423
100
AcDbArc
 50
270.0
 51
315.0000000000092
1001
ACME_LAYERS
1000
1
  0
ARC
  5
2DAC
330
1F
100
AcDbEntity
  8
P-0000
  6
Continuous
 62
     7
100
AcDbCircle
 10
2752.463312061726
 20
1278.252752203882
 30
0.0
 40
4.0
100
AcDbArc
 50
239.9999999999995
 51
270.0
1001
ACME_LAYERS
1000
1
  0
ARC
  5
2DAD
330
1F
100
AcDbEntity
  8
P-0000
  6
Continuous
 62
     7
100
AcDbCircle
 10
2774.865235850374
 20
1296.272195620281
 30
0.0
 40
12.41944341639904
100
AcDbArc
 50
252.4120462260095
 51
287.5879537739905
1001
ACME_LAYERS
1000
1
  0
ARC
  5
2DAE
330
1F
100
AcDbEntity
  8
P-0000
  6
Continuous
 62
     7
100
AcDbCircle
 10
2774.865235850374
 20
1277.433308787482
 30
0.0
 40
12.41944341639904
100
AcDbArc
 50
72.41204622600953
 51
107.5879537739904
1001
ACME_LAYERS
1000
1
  0
ARC
  5
2DAF
330
1F
100
AcDbEntity
  8
P-0000
  6
Continuous
 62
     7
100
AcDbCircle
 10
2769.236070725774
 20
1287.175321776832
 30
0.0
 40
3.322569572950221
100
AcDbArc
 50
240.6266206051676
 51
304.3842474680531
1001
ACME_LAYERS
1000
1
  0
ARC
  5
2DB0
330
1F
100
AcDbEntity
  8
P-0000
  6
Continuous
 62
     7
100
AcDbCircle
 10
2769.236070725773
 20
1286.530182630931
 30
0.0
 40
3.322569572950149
100
AcDbArc
 50
119.3733793948324
 51
124.3842474680531
1001
ACME_LAYERS
1000
1
  0
ARC
  5
2DB1
330
1F
100
AcDbEntity
  8
P-0000
  6
Continuous
 62
     7
100
AcDbCircle
 10
2780.494400974971
 20
1287.175321776832
 30
0.0
 40
3.322569572950221
100
AcDbArc
 50
299.3733793948324
 51
304.3842474680531
1001
ACME_LAYERS
1000
1
  0
ARC
  5
2DB2
330
1F
100
AcDbEntity
  8
P-0000
  6
Continuous
 62
     7
100
AcDbCircle
 10
2780.494400974971
 20
1286.530182630932
 30
0.0
 40
3.322569572949122
100
AcDbArc
 50
60.62662060516761
 51
124.3842474680243
1001
ACME_LAYERS
1000
1
  0
ARC
  5
2DB3
330
1F
100
AcDbEntity
  8
P-0000
  6
Continuous
 62
     7
100
AcDbCircle
 10
2769.236070725774
 20
1287.175321776832
 30
0.0
 40
3.322569572949876
100
AcDbArc
 50
235.6157525319468
 51
240.6266206051676
1001
ACME_LAYERS
1000
1
  0
ARC
  5
2DB4
330
1F
100
AcDbEntity
  8
P-0000
  6
Continuous
 62
     7
100
AcDbCircle
 10
2769.236070725774
 20
1286.530182630932
 30
0.0
 40
3.322569572949888
100
AcDbArc
 50
55.61575253194686
 51
119.3733793948324
1001
ACME_LAYERS
1000
1
  0
ARC
  5
2DB5
330
1F
100
AcDbEntity
  8
P-0000
  6
Continuous
 62
     7
100
AcDbCircle
 10
2780.494400974971
 20
1287.175321776832
 30
0.0
 40
3.322569572949872
100
AcDbArc
 50
235.6157525319757
 51
299.3733793948324
1001
ACME_LAYERS
1000
1
  0
ARC
  5
2DB6
330
1F
100
AcDbEntity
  8
P-0000
  6
Continuous
 62
     7
100
AcDbCircle
 10
2780.494400974971
 20
1286.530182630932
 30
0.0
 40
3.322569572949884
100
AcDbArc
 50
55.61575253194686
 51
60.62662060516761
1001
ACME_LAYERS
1000
1
  0
ARC
  5
2DB7
330
1F
100
AcDbEntity
  8
P-0000
  6
Continuous
 62
     7
100
AcDbCircle
 10
2752.463312061726
 20
1278.252752203882
 30
0.0
 40
2.0
100
AcDbArc
 50
239.9999999999704
 51
270.0
1001
ACME_LAYERS
1000
1
  0
ARC
  5
2DB8
330
1F
100
AcDbEntity
  8
P-0000
  6
Continuous
 62
     7
100
AcDbCircle
 10
2758.708381600881
 20
1278.252752203882
 30
0.0
 40
2.000000000000397
100
AcDbArc
 50
270.0
 51
315.0000000000092
1001
ACME_LAYERS
1000
1
  0
ARC
  5
2DB9
330
1F
100
AcDbEntity
  8
P-0000
  6
Continuous
 62
     7
100
AcDbCircle
 10
2763.193662975119
 20
1274.252752203882
 30
0.0
 40
2.000000000000311
100
AcDbArc
 50
90.0
 51
135.0000000000092
1001
ACME_LAYERS
1000
1
  0
ARC
  5
2DBA
330
1F
100
AcDbEntity
  8
P-0000
  6
Continuous
 62
     7
100
AcDbCircle
 10
2786.536808725627
 20
1274.252752203882
 30
0.0
 40
2.0
100
AcDbArc
 50
44.99999999999078
 51
90.0
1001
ACME_LAYERS
1000
1
  0
ARC
  5
2DBB
330
1F
100
AcDbEntity
  8
P-0000
  6
Continuous
 62
     7
100
AcDbCircle
 10
2791.022090099867
 20
1278.252752203882
 30
0.0
 40
2.0
100
AcDbArc
 50
224.9999999999908
 51
270.0
1001
ACME_LAYERS
1000
1
  0
ARC
  5
2DBC
330
1F
100
AcDbEntity
  8
P-0000
  6
Continuous
 62
     7
100
AcDbCircle
 10
2797.267159639019
 20
1278.252752203882
 30
0.0
 40
1.999999999999425
100
AcDbArc
 50
270.0
 51
300.0000000000296
1001
ACME_LAYERS
1000
1
  0
ARC
  5
2DBD
330
1F
100
AcDbEntity
  8
P-0000
  6
Continuous
 62
     7
100
AcDbCircle
 10
2797.267159639019
 20
1278.252752203882
 30
0.0
 40
4.000000000000401
100
AcDbArc
 50
270.0
 51
300.0000000000005
1001
ACME_LAYERS
1000
1
  0
ARC
  5
2DBE
330
1F
100
AcDbEntity
  8
P-0000
  6
Continuous
 62
     7
100
AcDbCircle
 10
2786.536808725627
 20
1274.252752203882
 30
0.0
 40
4.0
100
AcDbArc
 50
44.99999999999078
 51
89.99999999997395
1001
ACME_LAYERS
1000
1
  0
HATCH
  5
2DBF
330
1F
100
AcDbEntity
  8
P-0000
  6
Continuous
 62
     3
100
AcDbHatch
 10
0.0
 20
0.0
 30
0.0
210
0.0
220
0.0
230
1.0
  2
_U
 70
     0
 71
     0
 91
        1
 92
        1
 93
       19
 72
     1
 10
2745.865235850374
 20
1279.752752203882
 11
2751.463312061726
 21
1276.520701396315
 72
     1
 10
2751.463312061726
 20
1276.520701396314
 11
2751.927413676864
 21
1276.252752203882
 72
     1
 10
2751.927413676864
 20
1276.252752203882
 11
2752.463312061726
 21
1276.252752203882
 72
     1
 10
2752.463312061726
 20
1276.252752203882
 11
2758.708381600881
 21
1276.252752203882
 72
     1
 10
2758.708381600881
 20
1276.252752203882
 11
2759.536808725628
 21
1276.252752203882
 72
     1
 10
2759.536808725628
 20
1276.252752203882
 11
2760.122595163254
 21
1276.838538641509
 72
     1
 10
2760.122595163254
 20
1276.838538641509
 11
2760.365235850374
 21
1277.08117932863
 72
     2
 10
2763.193662975119
 20
1274.252752203882
 40
4.000000000000613
 50
-135.0000000000008
 51
-90.00000000000001
 73
     0
 72
     1
 10
2763.193662975119
 20
1278.252752203882
 11
2769.865235850375
 21
1278.252752203882
 72
     1
 10
2769.865235850375
 20
1278.252752203882
 11
2769.865235850375
 21
1276.252752203882
 72
     1
 10
2769.865235850375
 20
1276.252752203882
 11
2763.193662975121
 21
1276.252752203882
 72
     1
 10
2763.193662975119
 20
1276.252752203882
 11
2762.365235850374
 21
1276.252752203882
 72
     1
 10
2762.365235850374
 20
1276.252752203882
 11
2761.779449412748
 21
1275.666965766256
 72
     1
 10
2761.779449412748
 20
1275.666965766255
 11
2761.536808725626
 21
1275.424325079137
 72
     2
 10
2758.708381600881
 20
1278.252752203882
 40
3.999999999999423
 50
44.99999999998222
 51
90.0
 73
     0
 72
     1
 10
2758.708381600881
 20
1274.252752203882
 11
2752.463312061726
 21
1274.252752203882
 72
     2
 10
2752.463312061726
 20
1278.252752203882
 40
4.0
 50
90.0
 51
119.9999999999965
 73
     0
 72
     1
 10
2750.463312061726
 20
1274.788650588744
 11
2744.865235850375
 21
1278.020701396314
 72
     1
 10
2744.865235850375
 20
1278.020701396314
 11
2745.865235850374
 21
1279.752752203882
 97
        0
 75
     0
 76
     0
 52
44.99999999999999
 41
3.0
 77
     0
 78
     1
 53
45.0
 43
65.79566446974877
 44
146.7643441262128
 45
-2.121320343559641
 46
2.121320343559641
 79
     0
 98
        1
 10
2717.898363865268
 20
1414.878717698258
1001
ACME_LAYERS
1000
1
1001
ACAD
1010
0.0
1020
0.0
1030
0.0
  0
HATCH
  5
2DC0
330
1F
100
AcDbEntity
  8
P-0000
  6
Continuous
 62
     3
100
AcDbHatch
 10
0.0
 20
0.0
 30
0.0
210
0.0
220
0.0
230
1.0
  2
_U
 70
     0
 71
     0
 91
        1
 92
        1
 93
       19
 72
     2
 10
2791.022090099867
 20
1278.252752203882
 40
2.0
 50
90.0
 51
135.0000000000351
 73
     0
 72
     1
 10
2789.607876537492
 20
1276.838538641509
 11
2789.365235850373
 21
1277.08117932863
 72
     2
 10
2786.536808725627
 20
1274.252752203882
 40
4.0
 50
404.9999999999991
 51
449.9999999999738
 73
     1
 72
     1
 10
2786.536808725629
 20
1278.252752203882
 11
2784.099206012401
 21
1278.252752203882
 72
     1
 10
2784.099206012401
 20
1278.252752203882
 11
2782.688877483542
 21
1278.252752203882
 72
     1
 10
2782.688877483542
 20
1278.252752203882
 11
2779.865235850374
 21
1278.252752203882
 72
     1
 10
2779.865235850374
 20
1278.252752203882
 11
2779.865235850374
 21
1276.252752203882
 72
     1
 10
2779.865235850374
 20
1276.252752203882
 11
2786.536808725627
 21
1276.252752203882
 72
     1
 10
2786.536808725627
 20
1276.252752203882
 11
2787.365235850374
 21
1276.252752203882
 72
     1
 10
2787.365235850374
 20
1276.252752203882
 11
2787.951022288
 21
1275.666965766256
 72
     1
 10
2787.951022288
 20
1275.666965766255
 11
2788.193662975121
 21
1275.424325079137
 72
     2
 10
2791.022090099867
 20
1278.252752203882
 40
4.0
 50
224.9999999999821
 51
270.0
 73
     1
 72
     1
 10
2791.022090099867
 20
1274.252752203882
 11
2797.267159639019
 21
1274.252752203882
 72
     2
 10
2797.267159639019
 20
1278.252752203882
 40
4.000000000000401
 50
270.0
 51
299.9999999999967
 73
     1
 72
     1
 10
2799.26715963902
 20
1274.788650588744
 11
2804.865235850372
 21
1278.020701396314
 72
     1
 10
2804.865235850372
 20
1278.020701396314
 11
2803.865235850374
 21
1279.752752203882
 72
     1
 10
2803.865235850374
 20
1279.752752203882
 11
2798.26715963902
 21
1276.520701396315
 72
     2
 10
2797.267159639019
 20
1278.252752203882
 40
1.999999999999425
 50
59.99999999999046
 51
90.0
 73
     0
 72
     1
 10
2797.267159639019
 20
1276.252752203882
 11
2791.022090099867
 21
1276.252752203882
 97
        0
 75
     0
 76
     0
 52
44.99999999999999
 41
3.0
 77
     0
 78
     1
 53
45.0
 43
65.79566446974877
 44
146.7643441262128
 45
-2.121320343559641
 46
2.121320343559641
 79
     0
 98
        1
 10
2717.898363865268
 20
1414.878717698258
1001
ACME_LAYERS
1000
1
1001
ACAD
1010
0.0
1020
0.0
1030
0.0
  0
LINE
  5
2DC1
330
1F
100
AcDbEntity
  8
0
100
AcDbLine
 10
2778.865235850374
 20
1274.252752203882
 30
0.0
 11
2778.865235850374
 21
1280.252752203884
 31
0.0
  0
LINE
  5
2DC2
330
1F
100
AcDbEntity
  8
P-0000
  6
Continuous
 62
     7
100
AcDbLine
 10
2752.498093484831
 20
1274.252752203882
 30
0.0
 11
2758.743163023985
 21
1274.252752203882
 31
0.0
1001
ACME_LAYERS
1000
1
  0
LINE
  5
2DC3
330
1F
100
AcDbEntity
  8
P-0000
  6
Continuous
 62
     7
100
AcDbLine
 10
2797.267159639019
 20
1274.252752203882
 30
0.0
 11
2791.022090099865
 21
1274.252752203882
 31
0.0
1001
ACME_LAYERS
1000
1
  0
LINE
  5
2DC4
330
1F
100
AcDbEntity
  8
P-0000
  6
Continuous
 62
     7
100
AcDbLine
 10
2752.463312061725
 20
1274.252752203882
 30
0.0
 11
2758.708381600879
 21
1274.252752203882
 31
0.0
1001
ACME_LAYERS
1000
1
  0
LINE
  5
2DCC
330
1F
100
AcDbEntity
  8
0
100
AcDbLine
 10
2778.921772294464
 20
1278.252752203882
 30
0.0
 11
2778.921772294464
 21
1265.046832298938
 31
0.0
  0
LINE
  5
2DCD
330
1F
100
AcDbEntity
  8
0
100
AcDbLine
 10
2770.921772294465
 20
1278.252752203882
 30
0.0
 11
2770.921772294465
 21
1265.046832298938
 31
0.0
  0
HATCH
  5
2DCF
330
1F
100
AcDbEntity
  8
P-3FF0
  6
Continuous
 62
     3
100
AcDbHatch
 10
0.0
 20
0.0
 30
0.0
210
0.0
220
0.0
230
1.0
  2
_U
 70
     0
 71
     0
 91
        1
 92
        1
 93
       37
 72
     1
 10
2807.588740278574
 20
1264.481659088797
 11
2809.002953840947
 21
1265.89587265117
 72
     1
 10
2809.002953840947
 20
1265.89587265117
 11
2808.300392596196
 21
1266.598433895921
 72
     2
 10
2805.471965471451
 20
1263.770006771176
 40
4.0
 50
404.9999999999993
 51
450.0
 73
     1
 72
     2
 10
2805.471965471451
 20
1263.770006771176
 40
3.999999999999721
 50
450.0
 51
479.9999999999984
 73
     1
 72
     1
 10
2803.471965471449
 20
1267.234108386312
 11
2800.034710461817
 21
1265.249608281227
 72
     2
 10
2799.034710461816
 20
1266.981659088797
 40
1.999999999999868
 50
59.99999999999786
 51
90.0
 73
     0
 72
     1
 10
2799.034710461816
 20
1264.981659088797
 11
2798.75650723154
 21
1264.981659088797
 72
     1
 10
2798.75650723154
 20
1264.981659088797
 11
2778.85650723154
 21
1264.981659088797
 72
     1
 10
2778.85650723154
 20
1264.981659088797
 11
2778.056507231541
 21
1264.981659088797
 72
     1
 10
2778.056507231541
 20
1264.981659088797
 11
2771.65650723154
 21
1264.981659088797
 72
     1
 10
2771.65650723154
 20
1264.981659088797
 11
2770.85650723154
 21
1264.981659088797
 72
     1
 10
2770.85650723154
 20
1264.981659088797
 11
2751.420608846678
 21
1264.981659088797
 72
     2
 10
2751.420608846678
 20
1266.981659088797
 40
2.0
 50
-270.0
 51
-239.9999999999979
 73
     0
 72
     1
 10
2750.420608846678
 20
1265.249608281228
 11
2744.968628871994
 21
1268.397310387227
 72
     2
 10
2743.17121705177
 20
1265.99537143123
 40
2.999999999970075
 50
413.1918656392357
 51
455.4802249851991
 73
     1
 72
     1
 10
2742.884710461814
 20
1268.981659088797
 11
2705.13637416476
 21
1268.981659088797
 72
     2
 10
2705.13637416476
 20
1262.981659088797
 40
6.000000000000177
 50
450.0
 51
502.9999999999994
 73
     1
 72
     1
 10
2700.344561104476
 20
1266.592549227709
 11
2694.613329681283
 21
1258.986948246051
 72
     2
 10
2698.606507231518
 20
1255.977873130291
 40
5.0
 50
502.9999999999976
 51
539.9999999999961
 73
     1
 72
     1
 10
2693.606507231519
 20
1255.977873130291
 11
2693.606507231519
 21
1251.981659088797
 72
     1
 10
2693.606507231519
 20
1251.981659088797
 11
2694.203037606344
 21
1251.981659088797
 72
     1
 10
2694.203037606344
 20
1251.981659088797
 11
2695.606507231518
 21
1253.385128713971
 72
     1
 10
2695.606507231518
 20
1253.385128713971
 11
2695.606507231518
 21
1255.97787313029
 72
     2
 10
2698.606507231518
 20
1255.977873130291
 40
3.0
 50
-180.0
 51
-142.9999999999997
 73
     0
 72
     1
 10
2696.210600701377
 20
1257.783318199746
 11
2700.127831532137
 21
1262.981659088797
 72
     1
 10
2700.127831532135
 20
1262.981659088797
 11
2701.941832124571
 21
1265.388919181404
 72
     2
 10
2705.13637416476
 20
1262.981659088797
 40
4.000000000000238
 50
-142.9999999999979
 51
-90.00000000000001
 73
     0
 72
     1
 10
2705.13637416476
 20
1266.981659088797
 11
2742.884710461814
 21
1266.981659088797
 72
     2
 10
2742.884710461814
 20
1264.981659088797
 40
2.0
 50
-90.00000000000001
 51
-60.00000000000715
 73
     0
 72
     1
 10
2743.884710461814
 20
1266.713709896366
 11
2749.420608846679
 21
1263.517557473659
 72
     2
 10
2751.420608846678
 20
1266.981659088797
 40
4.0
 50
600.0000000000092
 51
630.0
 73
     1
 72
     1
 10
2751.420608846678
 20
1262.981659088797
 11
2758.606507231541
 21
1262.981659088797
 72
     1
 10
2758.606507231541
 20
1262.981659088797
 11
2799.034710461816
 21
1262.981659088797
 72
     2
 10
2799.034710461816
 20
1266.981659088797
 40
3.999999999999785
 50
270.0000000000049
 51
300.0000000000018
 73
     1
 72
     1
 10
2801.034710461816
 20
1263.517557473658
 11
2804.471965471449
 21
1265.502057578743
 72
     2
 10
2805.471965471451
 20
1263.770006771176
 40
1.999999999999721
 50
-120.0000000000046
 51
-44.9999999999988
 73
     0
 72
     1
 10
2806.886179033821
 20
1265.184220333549
 11
2807.588740278574
 21
1264.481659088797
 97
        0
 75
     0
 76
     0
 52
44.99999999999999
 41
2.0
 77
     0
 78
     1
 53
135.0
 43
1950.627063290174
 44
867.1976786814767
 45
1.414213562373094
 46
1.414213562373094
 79
     0
 98
        1
 10
1950.627063290174
 20
867.1976786814767
1001
ACME_LAYERS
1000
1
  0
LINE
  5
2DD0
330
1F
100
AcDbEntity
  8
P-3FF0
  6
Continuous
 62
     7
100
AcDbLine
 10
2705.13637416476
 20
1266.981659088797
 30
0.0
 11
2742.884710461814
 21
1266.981659088797
 31
0.0
1001
ACME_LAYERS
1000
1
  0
HATCH
  5
2DD1
330
1F
100
AcDbEntity
  8
P-3FF0
  6
Continuous
 62
     3
100
AcDbHatch
 10
0.0
 20
0.0
 30
0.0
210
0.0
220
0.0
230
1.0
  2
_U
 70
     0
 71
     0
 91
        1
 92
        1
 93
        6
 72
     1
 10
2693.606507231529
 20
1195.983994683221
 11
2694.438010504018
 21
1196.905854217505
 72
     1
 10
2694.438010504018
 20
1196.905854217505
 11
2695.106507231518
 21
1197.981659088797
 72
     1
 10
2695.106507231518
 20
1197.981659088797
 11
2695.106507231518
 21
1250.416803794898
 72
     1
 10
2695.106507231518
 20
1250.416803794899
 11
2694.203037606344
 21
1251.981659088797
 72
     1
 10
2694.203037606344
 20
1251.981659088797
 11
2693.606507231519
 21
1251.981659088797
 72
     1
 10
2693.606507231519
 20
1251.981659088797
 11
2693.606507231519
 21
1195.983994683212
 97
        0
 75
     0
 76
     0
 52
-45.0
 41
2.0
 77
     0
 78
     1
 53
225.0
 43
1950.627063290174
 44
867.1976786814767
 45
-1.414213562373094
 46
1.414213562373094
 79
     0
 98
        1
 10
1950.627063290174
 20
867.1976786814767
1001
ACME_LAYERS
1000
1
  0
LINE
  5
2DD2
330
1F
100
AcDbEntity
  8
P-3FF0
  6
Continuous
 62
     7
100
AcDbLine
 10
2695.106507231518
 20
1197.981659088797
 30
0.0
 11
2695.106507231518
 21
1250.416803794899
 31
0.0
1001
ACME_LAYERS
1000
1
  0
LINE
  5
2DD3
330
1F
100
AcDbEntity
  8
P-3FF0
  6
Continuous
 62
     7
100
AcDbLine
 10
2693.606507231519
 20
1251.981659088797
 30
0.0
 11
2693.606507231519
 21
1195.983994683212
 31
0.0
1001
ACME_LAYERS
1000
1
  0
LINE
  5
2DD4
330
1F
100
AcDbEntity
  8
P-3FF0
  6
Continuous
 62
     7
100
AcDbLine
 10
2693.606507231519
 20
1255.977873130291
 30
0.0
 11
2693.606507231519
 21
1251.981659088797
 31
0.0
1001
ACME_LAYERS
1000
1
  0
ARC
  5
2DD5
330
1F
100
AcDbEntity
  8
P-3FF0
  6
Continuous
 62
     7
100
AcDbCircle
 10
2705.13637416476
 20
1262.981659088797
 30
0.0
 40
6.000000000000177
100
AcDbArc
 50
90.0
 51
143.0000000000145
1001
ACME_LAYERS
1000
1
  0
LINE
  5
2DD6
330
1F
100
AcDbEntity
  8
P-3FF0
  6
Continuous
 62
     7
100
AcDbLine
 10
2700.127831532135
 20
1262.981659088797
 30
0.0
 11
2701.941832124571
 21
1265.388919181404
 31
0.0
1001
ACME_LAYERS
1000
1
  0
ARC
  5
2DD7
330
1F
100
AcDbEntity
  8
P-3FF0
  6
Continuous
 62
     7
100
AcDbCircle
 10
2705.13637416476
 20
1262.981659088797
 30
0.0
 40
4.000000000000238
100
AcDbArc
 50
90.0
 51
143.0000000000145
1001
ACME_LAYERS
1000
1
  0
LINE
  5
2DD8
330
1F
100
AcDbEntity
  8
P-3FF0
  6
Continuous
 62
     7
100
AcDbLine
 10
2696.210600701377
 20
1257.783318199746
 30
0.0
 11
2700.127831532135
 21
1262.981659088797
 31
0.0
1001
ACME_LAYERS
1000
1
  0
LINE
  5
2DD9
330
1F
100
AcDbEntity
  8
P-3FF0
  6
Continuous
 62
     7
100
AcDbLine
 10
2694.613329681283
 20
1258.986948246051
 30
0.0
 11
2700.344561104476
 21
1266.592549227709
 31
0.0
1001
ACME_LAYERS
1000
1
  0
ARC
  5
2DDA
330
1F
100
AcDbEntity
  8
P-3FF0
  6
Continuous
 62
     7
100
AcDbCircle
 10
2698.606507231518
 20
1255.977873130291
 30
0.0
 40
3.0
100
AcDbArc
 50
143.0000000000145
 51
180.0
1001
ACME_LAYERS
1000
1
  0
ARC
  5
2DDB
330
1F
100
AcDbEntity
  8
P-3FF0
  6
Continuous
 62
     7
100
AcDbCircle
 10
2698.606507231518
 20
1255.977873130291
 30
0.0
 40
5.0
100
AcDbArc
 50
143.0000000000145
 51
179.999999999987
1001
ACME_LAYERS
1000
1
  0
LINE
  5
2DDC
330
1F
100
AcDbEntity
  8
P-3FF0
  6
Continuous
 62
     7
100
AcDbLine
 10
2695.606507231518
 20
1255.977873130291
 30
0.0
 11
2695.606507231518
 21
1253.385128713971
 31
0.0
1001
ACME_LAYERS
1000
1
  0
LINE
  5
2DDD
330
1F
100
AcDbEntity
  8
0
100
AcDbLine
 10
2695.606507231518
 20
1253.385128713971
 30
0.0
 11
2695.106507231518
 21
1250.416803794899
 31
0.0
  0
LINE
  5
2DDE
330
1F
100
AcDbEntity
  8
0
100
AcDbLine
 10
2693.606507231519
 20
1195.983994683212
 30
0.0
 11
2695.106507231518
 21
1195.983994683212
 31
0.0
  0
LINE
  5
2DE4
330
1F
100
AcDbEntity
  8
P-0000
  6
Continuous
 62
     7
100
AcDbLine
 10
2650.115235850372
 20
1280.252752203884
 30
0.0
 11
2653.615235850373
 21
1280.252752203884
 31
0.0
1001
ACME_LAYERS
1000
1
  0
LINE
  5
2DE5
330
1F
100
AcDbEntity
  8
P-0000
  6
Continuous
 62
     7
100
AcDbLine
 10
2650.115235850372
 20
1282.252752203884
 30
0.0
 11
2653.615235850373
 21
1282.252752203884
 31
0.0
1001
ACME_LAYERS
1000
1
  0
LINE
  5
2DE6
330
1F
100
AcDbEntity
  8
P-0000
  6
Continuous
 62
     7
100
AcDbLine
 10
2653.615235850373
 20
1280.252752203884
 30
0.0
 11
2658.615235850373
 21
1280.252752203884
 31
0.0
1001
ACME_LAYERS
1000
1
  0
LINE
  5
2DE7
330
1F
100
AcDbEntity
  8
P-0000
  6
Continuous
 62
     7
100
AcDbLine
 10
2653.615235850373
 20
1282.252752203884
 30
0.0
 11
2658.615235850373
 21
1282.252752203884
 31
0.0
1001
ACME_LAYERS
1000
1
  0
LINE
  5
2DE8
330
1F
100
AcDbEntity
  8
P-0000
  6
Continuous
 62
     7
100
AcDbLine
 10
2648.115235850375
 20
1280.252752203884
 30
0.0
 11
2650.115235850372
 21
1280.252752203884
 31
0.0
1001
ACME_LAYERS
1000
1
  0
LINE
  5
2DE9
330
1F
100
AcDbEntity
  8
P-0000
  6
Continuous
 62
     7
100
AcDbLine
 10
2648.115235850375
 20
1282.252752203884
 30
0.0
 11
2648.115235850375
 21
1280.252752203884
 31
0.0
1001
ACME_LAYERS
1000
1
  0
LINE
  5
2DEA
330
1F
100
AcDbEntity
  8
P-0000
  6
Continuous
 62
     7
100
AcDbLine
 10
2648.115235850375
 20
1282.252752203884
 30
0.0
 11
2650.115235850372
 21
1282.252752203884
 31
0.0
1001
ACME_LAYERS
1000
1
  0
LINE
  5
2DEB
330
1F
100
AcDbEntity
  8
P-0000
  6
Continuous
 62
     7
100
AcDbLine
 10
2567.953473739575
 20
1279.752752203882
 30
0.0
 11
2572.399171852996
 21
1279.752752203882
 31
0.0
1001
ACME_LAYERS
1000
1
  0
LINE
  5
2DEC
330
1F
100
AcDbEntity
  8
P-0000
  6
Continuous
 62
     7
100
AcDbLine
 10
2584.953473739575
 20
1279.752752203882
 30
0.0
 11
2580.899171852998
 21
1279.752752203882
 31
0.0
1001
ACME_LAYERS
1000
1
  0
LINE
  5
2DED
330
1F
100
AcDbEntity
  8
P-0000
  6
Continuous
 62
     7
100
AcDbLine
 10
2573.199171852997
 20
1279.752752203882
 30
0.0
 11
2580.899171852998
 21
1279.752752203882
 31
0.0
1001
ACME_LAYERS
1000
1
  0
LINE
  5
2DEE
330
1F
100
AcDbEntity
  8
P-0000
  6
Continuous
 62
     7
100
AcDbLine
 10
2572.399171852996
 20
1279.752752203882
 30
0.0
 11
2573.199171852997
 21
1279.752752203882
 31
0.0
1001
ACME_LAYERS
1000
1
  0
LINE
  5
2DEF
330
1F
100
AcDbEntity
  8
P-0000
  6
Continuous
 62
     7
100
AcDbLine
 10
2736.813842610036
 20
1290.235419896643
 30
0.0
 11
2736.813842610036
 21
1287.352752203881
 31
0.0
1001
ACME_LAYERS
1000
1
  0
LINE
  5
2DF0
330
1F
100
AcDbEntity
  8
P-0000
  6
Continuous
 62
     3
100
AcDbLine
 10
2737.613842610036
 20
1289.773539681292
 30
0.0
 11
2737.613842610036
 21
1287.352752203881
 31
0.0
1001
ACME_LAYERS
1000
1
  0
LINE
  5
2DF1
330
1F
100
AcDbEntity
  8
P-0000
  6
Continuous
 62
     7
100
AcDbLine
 10
2741.806769515238
 20
1287.352752203881
 30
0.0
 11
2737.613842610037
 21
1287.352752203881
 31
0.0
1001
ACME_LAYERS
1000
1
  0
LINE
  5
2DF2
330
1F
100
AcDbEntity
  8
P-0000
  6
Continuous
 62
     7
100
AcDbLine
 10
2737.613842610037
 20
1287.352752203881
 30
0.0
 11
2736.813842610036
 21
1287.352752203881
 31
0.0
1001
ACME_LAYERS
1000
1
  0
LINE
  5
2DF3
330
1F
100
AcDbEntity
  8
P-0000
  6
Continuous
 62
     7
100
AcDbLine
 10
2732.368144496616
 20
1281.252752203881
 30
0.0
 11
2732.368144496616
 21
1279.752752203882
 31
0.0
1001
ACME_LAYERS
1000
1
  0
LINE
  5
2DF4
330
1F
100
AcDbEntity
  8
P-0000
  6
Continuous
 62
     7
100
AcDbLine
 10
2749.368144496615
 20
1279.752752203882
 30
0.0
 11
2749.368144496615
 21
1281.252752203881
 31
0.0
1001
ACME_LAYERS
1000
1
  0
LINE
  5
2DF5
330
1F
100
AcDbEntity
  8
P-0000
  6
Continuous
 62
     7
100
AcDbLine
 10
2732.368144496616
 20
1281.352752203881
 30
0.0
 11
2732.368144496616
 21
1281.252752203881
 31
0.0
1001
ACME_LAYERS
1000
1
  0
LINE
  5
2DF6
330
1F
100
AcDbEntity
  8
P-0000
  6
Continuous
 62
     7
100
AcDbLine
 10
2749.368144496615
 20
1281.352752203881
 30
0.0
 11
2732.368144496616
 21
1281.352752203881
 31
0.0
1001
ACME_LAYERS
1000
1
  0
LINE
  5
2DF7
330
1F
100
AcDbEntity
  8
P-0000
  6
Continuous
 62
     7
100
AcDbLine
 10
2749.368144496615
 20
1281.252752203881
 30
0.0
 11
2749.368144496615
 21
1281.352752203881
 31
0.0
1001
ACME_LAYERS
1000
1
  0
LINE
  5
2DF8
330
1F
100
AcDbEntity
  8
P-0000
  6
Continuous
 62
     7
100
AcDbLine
 10
2748.319396109502
 20
1283.239691395787
 30
0.0
 11
2748.319396109502
 21
1281.93330878748
 31
0.0
1001
ACME_LAYERS
1000
1
  0
LINE
  5
2DF9
330
1F
100
AcDbEntity
  8
P-0000
  6
Continuous
 62
     7
100
AcDbLine
 10
2734.313842610035
 20
1281.352752203881
 30
0.0
 11
2747.313842610036
 21
1281.352752203881
 31
0.0
1001
ACME_LAYERS
1000
1
  0
LINE
  5
2DFA
330
1F
100
AcDbEntity
  8
P-0000
  6
Continuous
 62
     7
100
AcDbLine
 10
2733.308289110571
 20
1283.239691395787
 30
0.0
 11
2733.308289110571
 21
1281.93330878748
 31
0.0
1001
ACME_LAYERS
1000
1
  0
LINE
  5
2DFB
330
1F
100
AcDbEntity
  8
P-0000
  6
Continuous
 62
     7
100
AcDbLine
 10
2736.813842610036
 20
1287.352752203881
 30
0.0
 11
2734.313842610035
 21
1287.352752203881
 31
0.0
1001
ACME_LAYERS
1000
1
  0
LINE
  5
2DFC
330
1F
100
AcDbEntity
  8
P-0000
  6
Continuous
 62
     7
100
AcDbLine
 10
2744.566619359768
 20
1283.239691395787
 30
0.0
 11
2744.566619359768
 21
1281.93330878748
 31
0.0
1001
ACME_LAYERS
1000
1
  0
LINE
  5
2DFD
330
1F
100
AcDbEntity
  8
P-0000
  6
Continuous
 62
     7
100
AcDbLine
 10
2737.061065860304
 20
1283.239691395787
 30
0.0
 11
2737.061065860304
 21
1281.93330878748
 31
0.0
1001
ACME_LAYERS
1000
1
  0
LINE
  5
2DFE
330
1F
100
AcDbEntity
  8
P-0000
  6
Continuous
 62
     7
100
AcDbLine
 10
2748.072724520846
 20
1281.779895769515
 30
0.0
 11
2747.313842610036
 21
1281.352752203881
 31
0.0
1001
ACME_LAYERS
1000
1
  0
LINE
  5
2DFF
330
1F
100
AcDbEntity
  8
P-0000
  6
Continuous
 62
     7
100
AcDbLine
 10
2733.554960699228
 20
1281.779895769515
 30
0.0
 11
2734.313842610035
 21
1281.352752203881
 31
0.0
1001
ACME_LAYERS
1000
1
  0
LINE
  5
2E00
330
1F
100
AcDbEntity
  8
P-0000
  6
Continuous
 62
     7
100
AcDbLine
 10
2733.554960699228
 20
1286.925608638245
 30
0.0
 11
2734.313842610035
 21
1287.352752203881
 31
0.0
1001
ACME_LAYERS
1000
1
  0
LINE
  5
2E01
330
1F
100
AcDbEntity
  8
P-0000
  6
Continuous
 62
     7
100
AcDbLine
 10
2733.308289110571
 20
1286.772195620279
 30
0.0
 11
2733.308289110571
 21
1283.239691395787
 31
0.0
1001
ACME_LAYERS
1000
1
  0
LINE
  5
2E02
330
1F
100
AcDbEntity
  8
P-0000
  6
Continuous
 62
     7
100
AcDbLine
 10
2737.061065860304
 20
1286.772195620279
 30
0.0
 11
2737.061065860304
 21
1283.239691395787
 31
0.0
1001
ACME_LAYERS
1000
1
  0
LINE
  5
2E03
330
1F
100
AcDbEntity
  8
P-0000
  6
Continuous
 62
     7
100
AcDbLine
 10
2744.566619359768
 20
1285.759352153219
 30
0.0
 11
2744.566619359768
 21
1283.239691395787
 31
0.0
1001
ACME_LAYERS
1000
1
  0
LINE
  5
2E04
330
1F
100
AcDbEntity
  8
P-0000
  6
Continuous
 62
     7
100
AcDbLine
 10
2748.319396109502
 20
1283.592685486551
 30
0.0
 11
2748.319396109502
 21
1283.239691395787
 31
0.0
1001
ACME_LAYERS
1000
1
  0
LINE
  5
2E05
330
1F
100
AcDbEntity
  8
P-0000
  6
Continuous
 62
     7
100
AcDbLine
 10
2732.368144496616
 20
1279.752752203882
 30
0.0
 11
2736.813842610036
 21
1279.752752203882
 31
0.0
1001
ACME_LAYERS
1000
1
  0
LINE
  5
2E06
330
1F
100
AcDbEntity
  8
P-0000
  6
Continuous
 62
     7
100
AcDbLine
 10
2749.368144496615
 20
1279.752752203882
 30
0.0
 11
2745.313842610038
 21
1279.752752203882
 31
0.0
1001
ACME_LAYERS
1000
1
  0
LINE
  5
2E07
330
1F
100
AcDbEntity
  8
P-0000
  6
Continuous
 62
     7
100
AcDbLine
 10
2737.613842610037
 20
1279.752752203882
 30
0.0
 11
2745.313842610038
 21
1279.752752203882
 31
0.0
1001
ACME_LAYERS
1000
1
  0
LINE
  5
2E08
330
1F
100
AcDbEntity
  8
P-0000
  6
Continuous
 62
     7
100
AcDbLine
 10
2736.813842610036
 20
1279.752752203882
 30
0.0
 11
2737.613842610037
 21
1279.752752203882
 31
0.0
1001
ACME_LAYERS
1000
1
  0
ARC
  5
2E09
330
1F
100
AcDbEntity
  8
P-0000
  6
Continuous
 62
     7
100
AcDbCircle
 10
2740.813842610035
 20
1293.772195620279
 30
0.0
 40
12.41944341639904
100
AcDbArc
 50
252.4120462260095
 51
287.5879537739905
1001
ACME_LAYERS
1000
1
  0
ARC
  5
2E0A
330
1F
100
AcDbEntity
  8
P-0000
  6
Continuous
 62
     7
100
AcDbCircle
 10
2740.813842610035
 20
1274.933308787481
 30
0.0
 40
12.41944341639904
100
AcDbArc
 50
85.04168193073009
 51
107.5879537739904
1001
ACME_LAYERS
1000
1
  0
ARC
  5
2E0B
330
1F
100
AcDbEntity
  8
P-0000
  6
Continuous
 62
     7
100
AcDbCircle
 10
2746.443007734635
 20
1284.675321776829
 30
0.0
 40
3.322569572950221
100
AcDbArc
 50
235.6157525319468
 51
299.3733793948324
1001
ACME_LAYERS
1000
1
  0
ARC
  5
2E0C
330
1F
100
AcDbEntity
  8
P-0000
  6
Continuous
 62
     7
100
AcDbCircle
 10
2735.184677485438
 20
1284.675321776829
 30
0.0
 40
3.322569572950221
100
AcDbArc
 50
235.6157525319468
 51
240.6266206051676
1001
ACME_LAYERS
1000
1
  0
ARC
  5
2E0D
330
1F
100
AcDbEntity
  8
P-0000
  6
Continuous
 62
     7
100
AcDbCircle
 10
2735.184677485438
 20
1284.03018263093
 30
0.0
 40
3.322569572949122
100
AcDbArc
 50
55.61575253197573
 51
119.3733793948324
1001
ACME_LAYERS
1000
1
  0
ARC
  5
2E0E
330
1F
100
AcDbEntity
  8
P-0000
  6
Continuous
 62
     7
100
AcDbCircle
 10
2746.443007734635
 20
1284.675321776829
 30
0.0
 40
3.322569572949876
100
AcDbArc
 50
299.3733793948324
 51
304.3842474680531
1001
ACME_LAYERS
1000
1
  0
ARC
  5
2E0F
330
1F
100
AcDbEntity
  8
P-0000
  6
Continuous
 62
     7
100
AcDbCircle
 10
2735.184677485438
 20
1284.675321776829
 30
0.0
 40
3.322569572949872
100
AcDbArc
 50
240.6266206051676
 51
304.3842474680243
1001
ACME_LAYERS
1000
1
  0
ARC
  5
2E10
330
1F
100
AcDbEntity
  8
P-0000
  6
Continuous
 62
     7
100
AcDbCircle
 10
2735.184677485438
 20
1284.03018263093
 30
0.0
 40
3.322569572949884
100
AcDbArc
 50
119.3733793948324
 51
124.3842474680531
1001
ACME_LAYERS
1000
1
  0
LINE
  5
2E11
330
1F
100
AcDbEntity
  8
P-0000
  6
Continuous
 62
     7
100
AcDbLine
 10
2655.406507231516
 20
1293.400033643596
 30
0.0
 11
2658.606507231516
 21
1293.400033643596
 31
0.0
1001
ACME_LAYERS
1000
1
  0
LINE
  5
2E12
330
1F
100
AcDbEntity
  8
P-0000
  6
Continuous
 62
     7
100
AcDbLine
 10
2661.806507231516
 20
1292.800033643596
 30
0.0
 11
2655.406507231516
 21
1292.800033643596
 31
0.0
1001
ACME_LAYERS
1000
1
  0
LINE
  5
2E13
330
1F
100
AcDbEntity
  8
P-0000
  6
Continuous
 62
     7
100
AcDbLine
 10
2654.606507231516
 20
1292.800033643596
 30
0.0
 11
2654.606507231516
 21
1289.852752203882
 31
0.0
1001
ACME_LAYERS
1000
1
  0
LINE
  5
2E14
330
1F
100
AcDbEntity
  8
P-0000
  6
Continuous
 62
     3
100
AcDbLine
 10
2655.406507231516
 20
1293.400033643596
 30
0.0
 11
2655.406507231516
 21
1289.852752203882
 31
0.0
1001
ACME_LAYERS
1000
1
  0
LINE
  5
2E15
330
1F
100
AcDbEntity
  8
P-0000
  6
Continuous
 62
     7
100
AcDbLine
 10
2655.406507231516
 20
1292.800033643596
 30
0.0
 11
2654.606507231516
 21
1292.800033643596
 31
0.0
1001
ACME_LAYERS
1000
1
  0
LINE
  5
2E16
330
1F
100
AcDbEntity
  8
P-0000
  6
Continuous
 62
     3
100
AcDbLine
 10
2655.406507231516
 20
1293.400033643596
 30
0.0
 11
2655.406507231516
 21
1292.800033643596
 31
0.0
1001
ACME_LAYERS
1000
1
  0
LINE
  5
2E17
330
1F
100
AcDbEntity
  8
P-0000
  6
Continuous
 62
     7
100
AcDbLine
 10
2654.606507231516
 20
1292.800033643596
 30
0.0
 11
2655.406507231516
 21
1293.400033643596
 31
0.0
1001
ACME_LAYERS
1000
1
  0
LINE
  5
2E18
330
1F
100
AcDbEntity
  8
P-0000
  6
Continuous
 62
     7
100
AcDbLine
 10
2662.606507231516
 20
1292.800033643596
 30
0.0
 11
2662.606507231516
 21
1289.852752203882
 31
0.0
1001
ACME_LAYERS
1000
1
  0
LINE
  5
2E19
330
1F
100
AcDbEntity
  8
P-0000
  6
Continuous
 62
     3
100
AcDbLine
 10
2661.806507231516
 20
1293.400033643596
 30
0.0
 11
2661.806507231516
 21
1289.852752203882
 31
0.0
1001
ACME_LAYERS
1000
1
  0
LINE
  5
2E1A
330
1F
100
AcDbEntity
  8
P-0000
  6
Continuous
 62
     3
100
AcDbLine
 10
2661.806507231516
 20
1293.400033643596
 30
0.0
 11
2661.806507231516
 21
1292.800033643596
 31
0.0
1001
ACME_LAYERS
1000
1
  0
LINE
  5
2E1B
330
1F
100
AcDbEntity
  8
P-0000
  6
Continuous
 62
     7
100
AcDbLine
 10
2662.606507231516
 20
1292.800033643596
 30
0.0
 11
2661.806507231516
 21
1292.800033643596
 31
0.0
1001
ACME_LAYERS
1000
1
  0
LINE
  5
2E1C
330
1F
100
AcDbEntity
  8
P-0000
  6
Continuous
 62
     7
100
AcDbLine
 10
2661.806507231516
 20
1293.400033643596
 30
0.0
 11
2662.606507231516
 21
1292.800033643596
 31
0.0
1001
ACME_LAYERS
1000
1
  0
LINE
  5
2E1D
330
1F
100
AcDbEntity
  8
P-0000
  6
Continuous
 62
     7
100
AcDbLine
 10
2658.606507231516
 20
1293.400033643596
 30
0.0
 11
2661.806507231516
 21
1293.400033643596
 31
0.0
1001
ACME_LAYERS
1000
1
  0
LINE
  5
2E1E
330
1F
100
AcDbEntity
  8
P-0000
  6
Continuous
 62
     7
100
AcDbLine
 10
2661.806507231516
 20
1289.852752203882
 30
0.0
 11
2655.406507231516
 21
1289.852752203882
 31
0.0
1001
ACME_LAYERS
1000
1
  0
LINE
  5
2E1F
330
1F
100
AcDbEntity
  8
P-0000
  6
Continuous
 62
     7
100
AcDbLine
 10
2655.406507231516
 20
1289.852752203882
 30
0.0
 11
2654.606507231516
 21
1289.852752203882
 31
0.0
1001
ACME_LAYERS
1000
1
  0
LINE
  5
2E20
330
1F
100
AcDbEntity
  8
P-0000
  6
Continuous
 62
     7
100
AcDbLine
 10
2650.160809118095
 20
1283.752752203882
 30
0.0
 11
2650.160809118095
 21
1282.252752203884
 31
0.0
1001
ACME_LAYERS
1000
1
  0
LINE
  5
2E21
330
1F
100
AcDbEntity
  8
P-0000
  6
Continuous
 62
     7
100
AcDbLine
 10
2667.160809118096
 20
1282.252752203884
 30
0.0
 11
2667.160809118096
 21
1283.752752203882
 31
0.0
1001
ACME_LAYERS
1000
1
  0
LINE
  5
2E22
330
1F
100
AcDbEntity
  8
P-0000
  6
Continuous
 62
     7
100
AcDbLine
 10
2650.160809118095
 20
1283.852752203882
 30
0.0
 11
2650.160809118095
 21
1283.752752203882
 31
0.0
1001
ACME_LAYERS
1000
1
  0
LINE
  5
2E23
330
1F
100
AcDbEntity
  8
P-0000
  6
Continuous
 62
     7
100
AcDbLine
 10
2667.160809118096
 20
1283.852752203882
 30
0.0
 11
2650.160809118095
 21
1283.852752203882
 31
0.0
1001
ACME_LAYERS
1000
1
  0
LINE
  5
2E24
330
1F
100
AcDbEntity
  8
P-0000
  6
Continuous
 62
     7
100
AcDbLine
 10
2667.160809118096
 20
1283.752752203882
 30
0.0
 11
2667.160809118096
 21
1283.852752203882
 31
0.0
1001
ACME_LAYERS
1000
1
  0
LINE
  5
2E25
330
1F
100
AcDbEntity
  8
P-0000
  6
Continuous
 62
     7
100
AcDbLine
 10
2666.112060730982
 20
1285.739691395789
 30
0.0
 11
2666.112060730982
 21
1284.433308787482
 31
0.0
1001
ACME_LAYERS
1000
1
  0
LINE
  5
2E26
330
1F
100
AcDbEntity
  8
P-0000
  6
Continuous
 62
     7
100
AcDbLine
 10
2652.106507231516
 20
1283.852752203882
 30
0.0
 11
2665.106507231516
 21
1283.852752203882
 31
0.0
1001
ACME_LAYERS
1000
1
  0
LINE
  5
2E27
330
1F
100
AcDbEntity
  8
P-0000
  6
Continuous
 62
     7
100
AcDbLine
 10
2651.100953732051
 20
1285.739691395789
 30
0.0
 11
2651.100953732051
 21
1284.433308787482
 31
0.0
1001
ACME_LAYERS
1000
1
  0
LINE
  5
2E28
330
1F
100
AcDbEntity
  8
P-0000
  6
Continuous
 62
     7
100
AcDbLine
 10
2654.606507231516
 20
1289.852752203882
 30
0.0
 11
2652.106507231516
 21
1289.852752203882
 31
0.0
1001
ACME_LAYERS
1000
1
  0
LINE
  5
2E29
330
1F
100
AcDbEntity
  8
P-0000
  6
Continuous
 62
     7
100
AcDbLine
 10
2662.359283981248
 20
1285.739691395789
 30
0.0
 11
2662.359283981248
 21
1284.433308787482
 31
0.0
1001
ACME_LAYERS
1000
1
  0
LINE
  5
2E2A
330
1F
100
AcDbEntity
  8
P-0000
  6
Continuous
 62
     7
100
AcDbLine
 10
2654.853730481784
 20
1285.739691395789
 30
0.0
 11
2654.853730481784
 21
1284.433308787482
 31
0.0
1001
ACME_LAYERS
1000
1
  0
LINE
  5
2E2B
330
1F
100
AcDbEntity
  8
P-0000
  6
Continuous
 62
     7
100
AcDbLine
 10
2665.865389142326
 20
1284.279895769517
 30
0.0
 11
2665.106507231516
 21
1283.852752203882
 31
0.0
1001
ACME_LAYERS
1000
1
  0
LINE
  5
2E2C
330
1F
100
AcDbEntity
  8
P-0000
  6
Continuous
 62
     7
100
AcDbLine
 10
2665.865389142326
 20
1289.425608638248
 30
0.0
 11
2665.106507231516
 21
1289.852752203882
 31
0.0
1001
ACME_LAYERS
1000
1
  0
LINE
  5
2E2D
330
1F
100
AcDbEntity
  8
P-0000
  6
Continuous
 62
     7
100
AcDbLine
 10
2651.347625320708
 20
1284.279895769517
 30
0.0
 11
2652.106507231516
 21
1283.852752203882
 31
0.0
1001
ACME_LAYERS
1000
1
  0
LINE
  5
2E2E
330
1F
100
AcDbEntity
  8
P-0000
  6
Continuous
 62
     7
100
AcDbLine
 10
2651.347625320708
 20
1289.425608638248
 30
0.0
 11
2652.106507231516
 21
1289.852752203882
 31
0.0
1001
ACME_LAYERS
1000
1
  0
LINE
  5
2E2F
330
1F
100
AcDbEntity
  8
P-0000
  6
Continuous
 62
     7
100
AcDbLine
 10
2665.106507231516
 20
1289.852752203882
 30
0.0
 11
2662.606507231516
 21
1289.852752203882
 31
0.0
1001
ACME_LAYERS
1000
1
  0
LINE
  5
2E30
330
1F
100
AcDbEntity
  8
P-0000
  6
Continuous
 62
     7
100
AcDbLine
 10
2662.606507231516
 20
1289.852752203882
 30
0.0
 11
2661.806507231516
 21
1289.852752203882
 31
0.0
1001
ACME_LAYERS
1000
1
  0
LINE
  5
2E31
330
1F
100
AcDbEntity
  8
P-0000
  6
Continuous
 62
     7
100
AcDbLine
 10
2651.100953732051
 20
1289.272195620282
 30
0.0
 11
2651.100953732051
 21
1285.739691395789
 31
0.0
1001
ACME_LAYERS
1000
1
  0
LINE
  5
2E32
330
1F
100
AcDbEntity
  8
P-0000
  6
Continuous
 62
     7
100
AcDbLine
 10
2654.853730481784
 20
1289.272195620282
 30
0.0
 11
2654.853730481784
 21
1285.739691395789
 31
0.0
1001
ACME_LAYERS
1000
1
  0
LINE
  5
2E33
330
1F
100
AcDbEntity
  8
P-0000
  6
Continuous
 62
     7
100
AcDbLine
 10
2662.359283981248
 20
1289.272195620282
 30
0.0
 11
2662.359283981248
 21
1285.739691395789
 31
0.0
1001
ACME_LAYERS
1000
1
  0
LINE
  5
2E34
330
1F
100
AcDbEntity
  8
P-0000
  6
Continuous
 62
     7
100
AcDbLine
 10
2666.112060730982
 20
1289.272195620282
 30
0.0
 11
2666.112060730982
 21
1285.739691395789
 31
0.0
1001
ACME_LAYERS
1000
1
  0
LINE
  5
2E35
330
1F
100
AcDbEntity
  8
P-0000
  6
Continuous
 62
     7
100
AcDbLine
 10
2650.160809118095
 20
1282.252752203884
 30
0.0
 11
2654.606507231516
 21
1282.252752203884
 31
0.0
1001
ACME_LAYERS
1000
1
  0
LINE
  5
2E36
330
1F
100
AcDbEntity
  8
P-0000
  6
Continuous
 62
     7
100
AcDbLine
 10
2667.160809118096
 20
1282.252752203884
 30
0.0
 11
2663.106507231518
 21
1282.252752203884
 31
0.0
1001
ACME_LAYERS
1000
1
  0
LINE
  5
2E37
330
1F
100
AcDbEntity
  8
P-0000
  6
Continuous
 62
     7
100
AcDbLine
 10
2655.406507231516
 20
1282.252752203884
 30
0.0
 11
2663.106507231518
 21
1282.252752203884
 31
0.0
1001
ACME_LAYERS
1000
1
  0
LINE
  5
2E38
330
1F
100
AcDbEntity
  8
P-0000
  6
Continuous
 62
     7
100
AcDbLine
 10
2654.606507231516
 20
1282.252752203884
 30
0.0
 11
2655.406507231516
 21
1282.252752203884
 31
0.0
1001
ACME_LAYERS
1000
1
  0
ARC
  5
2E39
330
1F
100
AcDbEntity
  8
P-0000
  6
Continuous
 62
     7
100
AcDbCircle
 10
2658.606507231516
 20
1296.272195620281
 30
0.0
 40
12.41944341639904
100
AcDbArc
 50
252.4120462260095
 51
287.5879537739905
1001
ACME_LAYERS
1000
1
  0
ARC
  5
2E3A
330
1F
100
AcDbEntity
  8
P-0000
  6
Continuous
 62
     7
100
AcDbCircle
 10
2658.606507231516
 20
1277.433308787482
 30
0.0
 40
12.41944341639904
100
AcDbArc
 50
72.41204622600953
 51
107.5879537739904
1001
ACME_LAYERS
1000
1
  0
ARC
  5
2E3B
330
1F
100
AcDbEntity
  8
P-0000
  6
Continuous
 62
     7
100
AcDbCircle
 10
2664.235672356115
 20
1287.175321776832
 30
0.0
 40
3.322569572950221
100
AcDbArc
 50
235.6157525319468
 51
299.3733793948324
1001
ACME_LAYERS
1000
1
  0
ARC
  5
2E3C
330
1F
100
AcDbEntity
  8
P-0000
  6
Continuous
 62
     7
100
AcDbCircle
 10
2664.235672356115
 20
1286.530182630932
 30
0.0
 40
3.322569572950149
100
AcDbArc
 50
55.61575253194686
 51
60.62662060516761
1001
ACME_LAYERS
1000
1
  0
ARC
  5
2E3D
330
1F
100
AcDbEntity
  8
P-0000
  6
Continuous
 62
     7
100
AcDbCircle
 10
2652.977342106919
 20
1287.175321776832
 30
0.0
 40
3.322569572950221
100
AcDbArc
 50
235.6157525319468
 51
240.6266206051676
1001
ACME_LAYERS
1000
1
  0
ARC
  5
2E3E
330
1F
100
AcDbEntity
  8
P-0000
  6
Continuous
 62
     7
100
AcDbCircle
 10
2652.977342106919
 20
1286.530182630932
 30
0.0
 40
3.322569572949122
100
AcDbArc
 50
55.61575253197573
 51
119.3733793948324
1001
ACME_LAYERS
1000
1
  0
ARC
  5
2E3F
330
1F
100
AcDbEntity
  8
P-0000
  6
Continuous
 62
     7
100
AcDbCircle
 10
2664.235672356115
 20
1287.175321776832
 30
0.0
 40
3.322569572949876
100
AcDbArc
 50
299.3733793948324
 51
304.3842474680531
1001
ACME_LAYERS
1000
1
  0
ARC
  5
2E40
330
1F
100
AcDbEntity
  8
P-0000
  6
Continuous
 62
     7
100
AcDbCircle
 10
2664.235672356115
 20
1286.530182630932
 30
0.0
 40
3.322569572949888
100
AcDbArc
 50
60.62662060516761
 51
124.3842474680531
1001
ACME_LAYERS
1000
1
  0
ARC
  5
2E41
330
1F
100
AcDbEntity
  8
P-0000
  6
Continuous
 62
     7
100
AcDbCircle
 10
2652.977342106919
 20
1287.175321776832
 30
0.0
 40
3.322569572949872
100
AcDbArc
 50
240.6266206051676
 51
304.3842474680243
1001
ACME_LAYERS
1000
1
  0
ARC
  5
2E42
330
1F
100
AcDbEntity
  8
P-0000
  6
Continuous
 62
     7
100
AcDbCircle
 10
2652.977342106919
 20
1286.530182630932
 30
0.0
 40
3.322569572949884
100
AcDbArc
 50
119.3733793948324
 51
124.3842474680531
1001
ACME_LAYERS
1000
1
  0
LINE
  5
2E44
330
1F
100
AcDbEntity
  8
P-0000
  6
Continuous
 62
     7
100
AcDbLine
 10
2658.606507231513
 20
950.7145702466806
 30
0.0
 11
2658.606507231516
 21
950.7145702466806
 31
0.0
1001
ACME_LAYERS
1000
1
  0
LINE
  5
2E45
102
{ACAD_REACTORS
330
2F8E
102
}
330
1F
100
AcDbEntity
  8
P-0000
  6
STRICHPUNKT
 62
     3
100
AcDbLine
 10
2658.606507231517
 20
1379.197929322472
 30
0.0
 11
2658.606507231516
 21
893.0468322989382
 31
0.0
1001
ACME_LAYERS
1000
1
  0
HATCH
  5
2E46
330
1F
100
AcDbEntity
  8
AM_8
100
AcDbHatch
 10
0.0
 20
0.0
 30
0.0
210
0.0
220
0.0
230
1.0
  2
_U
 70
     0
 71
     0
 91
        1
 92
        1
 93
       16
 72
     1
 10
2743.115235850381
 20
1299.247100905454
 11
2743.115235850381
 21
1299.197929322472
 72
     1
 10
2743.115235850381
 20
1299.197929322472
 11
2743.615235850381
 21
1299.197929322472
 72
     1
 10
2743.615235850381
 20
1299.197929322472
 11
2743.61523585038
 21
1297.247100905454
 72
     1
 10
2743.61523585038
 20
1297.247100905454
 11
2750.676127018695
 21
1297.247100905454
 72
     2
 10
2750.676127018695
 20
1296.747100905454
 40
0.5
 50
270.0
 51
360.0
 73
     0
 72
     1
 10
2751.176127018696
 20
1296.747100905454
 11
2751.176127018696
 21
1284.252752203885
 72
     2
 10
2755.176127018696
 20
1284.252752203884
 40
4.000000000000068
 50
180.0
 51
270.0
 73
     1
 72
     1
 10
2755.176127018696
 20
1280.252752203884
 11
2769.865235850373
 21
1280.252752203884
 72
     1
 10
2769.865235850373
 20
1280.252752203884
 11
2769.865235850373
 21
1282.252752203884
 72
     1
 10
2769.865235850373
 20
1282.252752203884
 11
2755.115235850381
 21
1282.252752203884
 72
     2
 10
2755.115235850381
 20
1284.252752203884
 40
1.999999999999999
 50
90.0
 51
180.0
 73
     0
 72
     1
 10
2753.115235850381
 20
1284.252752203884
 11
2753.115235850381
 21
1301.747100905453
 72
     1
 10
2753.115235850381
 20
1301.747100905454
 11
2751.115235850381
 21
1301.747100905454
 72
     1
 10
2751.115235850381
 20
1301.747100905454
 11
2751.115235850381
 21
1299.747100905454
 72
     2
 10
2750.615235850383
 20
1299.747100905454
 40
0.5
 50
360.0
 51
450.0
 73
     0
 72
     1
 10
2750.615235850383
 20
1299.247100905454
 11
2743.115235850381
 21
1299.247100905454
 97
        0
 75
     0
 76
     0
 52
44.99999999999999
 41
1.0
 77
     0
 78
     1
 53
45.0
 43
65.79566446974877
 44
146.7643441262128
 45
-0.7071067811865475
 46
0.7071067811865476
 79
     0
 98
        1
 10
2784.054344682066
 20
790.8314325623558
1001
ACME_LAYERS
1000
1
1001
ACAD
1010
0.0
1020
0.0
1030
0.0
  0
LINE
  5
2E47
330
1F
100
AcDbEntity
  8
P-0000
  6
Continuous
 62
     7
100
AcDbLine
 10
2723.115235850373
 20
1301.747100905454
 30
0.0
 11
2725.890938865245
 21
1301.747100905454
 31
0.0
1001
ACME_LAYERS
1000
1
  0
LINE
  5
2E48
330
1F
100
AcDbEntity
  8
P-0000
  6
Continuous
 62
     7
100
AcDbLine
 10
2742.577515393501
 20
1301.747100905454
 30
0.0
 11
2751.115235850381
 21
1301.747100905454
 31
0.0
1001
ACME_LAYERS
1000
1
  0
LINE
  5
2E49
330
1F
100
AcDbEntity
  8
P-0000
  6
Continuous
 62
     7
100
AcDbLine
 10
2724.669254856311
 20
1297.247100905454
 30
0.0
 11
2753.176127018696
 21
1280.788650588747
 31
0.0
1001
ACME_LAYERS
1000
1
  0
LINE
  5
2E4A
330
1F
100
AcDbEntity
  8
P-0000
  6
Continuous
 62
     7
100
AcDbLine
 10
2750.676127018695
 20
1297.247100905454
 30
0.0
 11
2743.61523585038
 21
1297.247100905454
 31
0.0
1001
ACME_LAYERS
1000
1
  0
LINE
  5
2E4B
330
1F
100
AcDbEntity
  8
P-0000
  6
Continuous
 62
     7
100
AcDbLine
 10
2743.115235850381
 20
1299.247100905454
 30
0.0
 11
2750.615235850383
 21
1299.247100905454
 31
0.0
1001
ACME_LAYERS
1000
1
  0
LINE
  5
2E4C
330
1F
100
AcDbEntity
  8
P-0000
  6
Continuous
 62
     7
100
AcDbLine
 10
2663.11523585039
 20
1280.252752203884
 30
0.0
 11
2658.11523585038
 21
1280.252752203884
 31
0.0
1001
ACME_LAYERS
1000
1
  0
LINE
  5
2E4D
330
1F
100
AcDbEntity
  8
P-0000
  6
Continuous
 62
     7
100
AcDbLine
 10
2658.124996082102
 20
1301.747100905454
 30
0.0
 11
2723.115235850373
 21
1301.747100905454
 31
0.0
1001
ACME_LAYERS
1000
1
  0
LINE
  5
2E4E
330
1F
100
AcDbEntity
  8
P-0000
  6
Continuous
 62
     7
100
AcDbLine
 10
2658.124996082102
 20
1299.247100905454
 30
0.0
 11
2713.115235850382
 21
1299.247100905454
 31
0.0
1001
ACME_LAYERS
1000
1
  0
LINE
  5
2E4F
330
1F
100
AcDbEntity
  8
P-0000
  6
Continuous
 62
     7
100
AcDbLine
 10
2668.115235850389
 20
1297.247100905454
 30
0.0
 11
2719.115235850373
 21
1297.247100905454
 31
0.0
1001
ACME_LAYERS
1000
1
  0
LINE
  5
2E50
330
1F
100
AcDbEntity
  8
P-0000
  6
Continuous
 62
     7
100
AcDbLine
 10
2668.115235850389
 20
1282.252752203884
 30
0.0
 11
2668.115235850389
 21
1297.247100905454
 31
0.0
1001
ACME_LAYERS
1000
1
  0
LINE
  5
2E51
330
1F
100
AcDbEntity
  8
P-0000
  6
Continuous
 62
     7
100
AcDbLine
 10
2659.615235850389
 20
1297.247100905454
 30
0.0
 11
2668.115235850389
 21
1297.247100905454
 31
0.0
1001
ACME_LAYERS
1000
1
  0
LINE
  5
2E52
330
1F
100
AcDbEntity
  8
P-0000
  6
Continuous
 62
     7
100
AcDbLine
 10
2659.124996082118
 20
1299.247100905454
 30
0.0
 11
2668.107251657918
 21
1299.247100905454
 31
0.0
1001
ACME_LAYERS
1000
1
  0
LINE
  5
2E53
330
1F
100
AcDbEntity
  8
P-0000
  6
STRICHPUNKT
 62
     3
100
AcDbLine
 10
2658.10547561866
 20
1297.247100905454
 30
0.0
 11
2658.10547561866
 21
1299.247100905454
 31
0.0
1001
ACME_LAYERS
1000
1
  0
LINE
  5
2E54
330
1F
100
AcDbEntity
  8
P-0000
  6
STRICHPUNKT
 62
     3
100
AcDbLine
 10
2658.124996082118
 20
1299.247100905454
 30
0.0
 11
2658.124996082118
 21
1297.247100905454
 31
0.0
1001
ACME_LAYERS
1000
1
  0
LINE
  5
2E55
330
1F
100
AcDbEntity
  8
P-0000
  6
Continuous
 62
     7
100
AcDbLine
 10
2658.124996082118
 20
1299.247100905454
 30
0.0
 11
2659.124996082118
 21
1299.247100905454
 31
0.0
1001
ACME_LAYERS
1000
1
  0
LINE
  5
2E56
330
1F
100
AcDbEntity
  8
P-0000
  6
Continuous
 62
     7
100
AcDbLine
 10
2658.124996082118
 20
1297.247100905454
 30
0.0
 11
2659.615235850389
 21
1297.247100905454
 31
0.0
1001
ACME_LAYERS
1000
1
  0
LINE
  5
2E57
330
1F
100
AcDbEntity
  8
P-0000
  6
Continuous
 62
     7
100
AcDbLine
 10
2658.105475618659
 20
1294.247100905454
 30
0.0
 11
2658.105475618663
 21
1294.247100905454
 31
0.0
1001
ACME_LAYERS
1000
1
  0
LINE
  5
2E58
330
1F
100
AcDbEntity
  8
P-0000
  6
Continuous
 62
     7
100
AcDbLine
 10
2658.124996082116
 20
1294.247100905454
 30
0.0
 11
2658.124996082119
 21
1294.247100905454
 31
0.0
1001
ACME_LAYERS
1000
1
  0
LINE
  5
2E59
330
1F
100
AcDbEntity
  8
P-0000
  6
Continuous
 62
     7
100
AcDbLine
 10
2668.115235850389
 20
1280.252752203884
 30
0.0
 11
2663.11523585039
 21
1280.252752203884
 31
0.0
1001
ACME_LAYERS
1000
1
  0
LINE
  5
2E5A
330
1F
100
AcDbEntity
  8
P-0000
  6
STRICHLINIE
 62
     6
100
AcDbLine
 10
2668.115235850389
 20
1282.252752203884
 30
0.0
 11
2663.11523585039
 21
1282.252752203884
 31
0.0
1001
ACME_LAYERS
1000
1
  0
LINE
  5
2E5B
330
1F
100
AcDbEntity
  8
P-0000
  6
STRICHLINIE
 62
     6
100
AcDbLine
 10
2663.11523585039
 20
1282.252752203884
 30
0.0
 11
2659.615235850389
 21
1282.252752203884
 31
0.0
1001
ACME_LAYERS
1000
1
  0
LINE
  5
2E5C
330
1F
100
AcDbEntity
  8
P-0000
  6
STRICHLINIE
 62
     6
100
AcDbLine
 10
2659.615235850389
 20
1282.252752203884
 30
0.0
 11
2658.115235850381
 21
1282.252752203884
 31
0.0
1001
ACME_LAYERS
1000
1
  0
HATCH
  5
2E5D
330
1F
100
AcDbEntity
  8
AM_8
100
AcDbHatch
 10
0.0
 20
0.0
 30
0.0
210
0.0
220
0.0
230
1.0
  2
_U
 70
     0
 71
     0
 91
        1
 92
        1
 93
       11
 72
     1
 10
2723.615235850373
 20
1299.247100905454
 11
2735.115235850381
 21
1299.247100905454
 72
     1
 10
2735.115235850381
 20
1299.247100905454
 11
2735.115235850381
 21
1297.247100905454
 72
     1
 10
2735.115235850381
 20
1297.247100905454
 11
2724.669254856311
 21
1297.247100905454
 72
     1
 10
2724.669254856311
 20
1297.247100905454
 11
2719.115235850373
 21
1297.247100905454
 72
     1
 10
2719.115235850373
 20
1297.247100905454
 11
2719.115235850373
 21
1299.247100905454
 72
     1
 10
2719.115235850373
 20
1299.247100905454
 11
2720.615235850373
 21
1299.247100905454
 72
     2
 10
2720.615235850373
 20
1299.747100905454
 40
0.5
 50
-90.00000000000001
 51
-0.0000000000000127
 73
     1
 72
     1
 10
2721.115235850373
 20
1299.747100905454
 11
2721.115235850373
 21
1301.747100905454
 72
     1
 10
2721.115235850373
 20
1301.747100905454
 11
2723.115235850373
 21
1301.747100905454
 72
     1
 10
2723.115235850373
 20
1301.747100905454
 11
2723.115235850373
 21
1299.747100905454
 72
     2
 10
2723.615235850373
 20
1299.747100905454
 40
0.5
 50
180.0
 51
270.0
 73
     1
 97
        0
 75
     0
 76
     0
 52
44.99999999999999
 41
1.0
 77
     0
 78
     1
 53
45.0
 43
65.79566446974877
 44
146.7643441262128
 45
-0.7071067811865475
 46
0.7071067811865476
 79
     0
 98
        1
 10
2784.054344682066
 20
790.8314325623558
1001
ACME_LAYERS
1000
1
1001
ACAD
1010
0.0
1020
0.0
1030
0.0
  0
LINE
  5
2E5E
330
1F
100
AcDbEntity
  8
P-0000
  6
Continuous
 62
     7
100
AcDbLine
 10
2723.615235850373
 20
1299.247100905454
 30
0.0
 11
2735.115235850381
 21
1299.247100905454
 31
0.0
1001
ACME_LAYERS
1000
1
  0
LINE
  5
2E5F
330
1F
100
AcDbEntity
  8
P-0000
  6
Continuous
 62
     7
100
AcDbLine
 10
2719.115235850373
 20
1297.247100905454
 30
0.0
 11
2724.669254856311
 21
1297.247100905454
 31
0.0
1001
ACME_LAYERS
1000
1
  0
LINE
  5
2E60
330
1F
100
AcDbEntity
  8
P-0000
  6
Continuous
 62
     7
100
AcDbLine
 10
2713.115235850382
 20
1299.247100905454
 30
0.0
 11
2719.115235850373
 21
1299.247100905454
 31
0.0
1001
ACME_LAYERS
1000
1
  0
LINE
  5
2E61
330
1F
100
AcDbEntity
  8
P-0000
  6
Continuous
 62
     7
100
AcDbLine
 10
2719.115235850373
 20
1297.247100905454
 30
0.0
 11
2719.115235850373
 21
1299.247100905454
 31
0.0
1001
ACME_LAYERS
1000
1
  0
LINE
  5
2E62
330
1F
100
AcDbEntity
  8
P-0000
  6
Continuous
 62
     7
100
AcDbLine
 10
2719.115235850373
 20
1299.247100905454
 30
0.0
 11
2720.615235850373
 21
1299.247100905454
 31
0.0
1001
ACME_LAYERS
1000
1
  0
LINE
  5
2E63
330
1F
100
AcDbEntity
  8
P-0000
  6
Continuous
 62
     7
100
AcDbLine
 10
2723.115235850373
 20
1299.747100905454
 30
0.0
 11
2723.115235850373
 21
1301.747100905454
 31
0.0
1001
ACME_LAYERS
1000
1
  0
LINE
  5
2E64
330
1F
100
AcDbEntity
  8
P-0000
  6
Continuous
 62
     7
100
AcDbLine
 10
2721.115235850373
 20
1299.747100905454
 30
0.0
 11
2721.115235850373
 21
1301.747100905454
 31
0.0
1001
ACME_LAYERS
1000
1
  0
LINE
  5
2E65
330
1F
100
AcDbEntity
  8
P-0000
  6
Continuous
 62
     7
100
AcDbLine
 10
2723.115235850373
 20
1301.747100905454
 30
0.0
 11
2721.115235850373
 21
1301.747100905454
 31
0.0
1001
ACME_LAYERS
1000
1
  0
ARC
  5
2E66
330
1F
100
AcDbEntity
  8
P-0000
  6
Continuous
 62
     7
100
AcDbCircle
 10
2723.615235850373
 20
1299.747100905454
 30
0.0
 40
0.5
100
AcDbArc
 50
180.0
 51
270.0
1001
ACME_LAYERS
1000
1
  0
ARC
  5
2E67
330
1F
100
AcDbEntity
  8
P-0000
  6
Continuous
 62
     7
100
AcDbCircle
 10
2720.615235850373
 20
1299.747100905454
 30
0.0
 40
0.5
100
AcDbArc
 50
270.0
 51
0.0
1001
ACME_LAYERS
1000
1
  0
LINE
  5
2E68
330
1F
100
AcDbEntity
  8
P-0000
  6
Continuous
 62
     7
100
AcDbLine
 10
2738.826066455442
 20
1297.247100905454
 30
0.0
 11
2735.115235850381
 21
1297.247100905454
 31
0.0
1001
ACME_LAYERS
1000
1
  0
LINE
  5
2E69
330
1F
100
AcDbEntity
  8
P-0000
  6
Continuous
 62
     7
100
AcDbLine
 10
2735.115235850381
 20
1299.247100905454
 30
0.0
 11
2743.115235850381
 21
1299.247100905454
 31
0.0
1001
ACME_LAYERS
1000
1
  0
LINE
  5
2E6A
330
1F
100
AcDbEntity
  8
P-0000
  6
Continuous
 62
     7
100
AcDbLine
 10
2735.115235850381
 20
1297.247100905454
 30
0.0
 11
2724.669254856311
 21
1297.247100905454
 31
0.0
1001
ACME_LAYERS
1000
1
  0
LINE
  5
2E6B
330
1F
100
AcDbEntity
  8
P-0000
  6
Continuous
 62
     7
100
AcDbLine
 10
2735.115235850381
 20
1299.247100905454
 30
0.0
 11
2735.115235850381
 21
1297.247100905454
 31
0.0
1001
ACME_LAYERS
1000
1
  0
LINE
  5
2E6C
330
1F
100
AcDbEntity
  8
P-0000
  6
Continuous
 62
     7
100
AcDbLine
 10
2740.624996082103
 20
1299.247100905454
 30
0.0
 11
2741.624996082103
 21
1299.247100905454
 31
0.0
1001
ACME_LAYERS
1000
1
  0
LINE
  5
2E6D
330
1F
100
AcDbEntity
  8
P-0000
  6
Continuous
 62
     7
100
AcDbLine
 10
2740.624996082103
 20
1299.247100905454
 30
0.0
 11
2741.624996082103
 21
1299.247100905454
 31
0.0
1001
ACME_LAYERS
1000
1
  0
LINE
  5
2E6E
330
1F
100
AcDbEntity
  8
P-0000
  6
Continuous
 62
     7
100
AcDbLine
 10
2779.865235850372
 20
1282.252752203884
 30
0.0
 11
2769.865235850373
 21
1282.252752203884
 31
0.0
1001
ACME_LAYERS
1000
1
  0
LINE
  5
2E6F
330
1F
100
AcDbEntity
  8
P-0000
  6
Continuous
 62
     7
100
AcDbLine
 10
2779.865235850372
 20
1280.252752203884
 30
0.0
 11
2769.865235850373
 21
1280.252752203884
 31
0.0
1001
ACME_LAYERS
1000
1
  0
LINE
  5
2E70
330
1F
100
AcDbEntity
  8
P-0000
  6
Continuous
 62
     7
100
AcDbLine
 10
2751.176127018696
 20
1284.252752203884
 30
0.0
 11
2751.176127018696
 21
1296.747100905454
 31
0.0
1001
ACME_LAYERS
1000
1
  0
LINE
  5
2E71
330
1F
100
AcDbEntity
  8
P-0000
  6
Continuous
 62
     7
100
AcDbLine
 10
2753.115235850381
 20
1284.252752203884
 30
0.0
 11
2753.115235850381
 21
1299.247100905454
 31
0.0
1001
ACME_LAYERS
1000
1
  0
LINE
  5
2E72
330
1F
100
AcDbEntity
  8
P-0000
  6
Continuous
 62
     7
100
AcDbLine
 10
2762.926927647936
 20
1282.252752203884
 30
0.0
 11
2753.115235850381
 21
1299.247100905454
 31
0.0
1001
ACME_LAYERS
1000
1
  0
LINE
  5
2E73
330
1F
100
AcDbEntity
  8
P-0000
  6
Continuous
 62
     7
100
AcDbLine
 10
2753.115235850381
 20
1301.747100905454
 30
0.0
 11
2751.115235850381
 21
1301.747100905454
 31
0.0
1001
ACME_LAYERS
1000
1
  0
LINE
  5
2E74
330
1F
100
AcDbEntity
  8
P-0000
  6
Continuous
 62
     7
100
AcDbLine
 10
2751.115235850381
 20
1301.747100905454
 30
0.0
 11
2751.115235850381
 21
1299.747100905454
 31
0.0
1001
ACME_LAYERS
1000
1
  0
ARC
  5
2E75
330
1F
100
AcDbEntity
  8
P-0000
  6
Continuous
 62
     7
100
AcDbCircle
 10
2750.615235850383
 20
1299.747100905454
 30
0.0
 40
0.5
100
AcDbArc
 50
270.0
 51
0.0
1001
ACME_LAYERS
1000
1
  0
ARC
  5
2E76
330
1F
100
AcDbEntity
  8
P-0000
  6
Continuous
 62
     7
100
AcDbCircle
 10
2750.676127018695
 20
1296.747100905454
 30
0.0
 40
0.5
100
AcDbArc
 50
0.0
 51
90.0
1001
ACME_LAYERS
1000
1
  0
LINE
  5
2E77
330
1F
100
AcDbEntity
  8
P-0000
  6
Continuous
 62
     7
100
AcDbLine
 10
2753.115235850381
 20
1301.747100905454
 30
0.0
 11
2753.115235850381
 21
1299.247100905454
 31
0.0
1001
ACME_LAYERS
1000
1
  0
LINE
  5
2E78
330
1F
100
AcDbEntity
  8
P-0000
  6
Continuous
 62
     7
100
AcDbLine
 10
2762.926927647936
 20
1282.252752203884
 30
0.0
 11
2755.115235850381
 21
1282.252752203884
 31
0.0
1001
ACME_LAYERS
1000
1
  0
LINE
  5
2E79
330
1F
100
AcDbEntity
  8
P-0000
  6
Continuous
 62
     7
100
AcDbLine
 10
2769.865235850373
 20
1280.252752203884
 30
0.0
 11
2755.176127018696
 21
1280.252752203884
 31
0.0
1001
ACME_LAYERS
1000
1
  0
ARC
  5
2E7A
330
1F
100
AcDbEntity
  8
P-0000
  6
Continuous
 62
     7
100
AcDbCircle
 10
2755.115235850381
 20
1284.252752203884
 30
0.0
 40
2.0
100
AcDbArc
 50
180.0
 51
270.0
1001
ACME_LAYERS
1000
1
  0
ARC
  5
2E7B
330
1F
100
AcDbEntity
  8
P-0000
  6
Continuous
 62
     7
100
AcDbCircle
 10
2755.176127018696
 20
1284.252752203884
 30
0.0
 40
4.0
100
AcDbArc
 50
180.0
 51
239.9999999999995
1001
ACME_LAYERS
1000
1
  0
ARC
  5
2E7C
330
1F
100
AcDbEntity
  8
P-0000
  6
Continuous
 62
     7
100
AcDbCircle
 10
2755.176127018696
 20
1284.252752203884
 30
0.0
 40
4.000000000000031
100
AcDbArc
 50
239.9999999999995
 51
270.0
1001
ACME_LAYERS
1000
1
  0
LINE
  5
2E7D
330
1F
100
AcDbEntity
  8
P-0000
  6
Continuous
 62
     7
100
AcDbLine
 10
2769.865235850373
 20
1282.252752203884
 30
0.0
 11
2762.926927647936
 21
1282.252752203884
 31
0.0
1001
ACME_LAYERS
1000
1
  0
LINE
  5
2E7E
330
1F
100
AcDbEntity
  8
P-0000
  6
Continuous
 62
     7
100
AcDbLine
 10
2769.865235850373
 20
1280.252752203884
 30
0.0
 11
2769.865235850373
 21
1282.252752203884
 31
0.0
1001
ACME_LAYERS
1000
1
  0
LINE
  5
2E7F
330
1F
100
AcDbEntity
  8
AM_7
  6
AM_DIN_G_W050x2
100
AcDbLine
 10
2774.865235850373
 20
1274.252752203884
 30
0.0
 11
2774.865235850373
 21
1288.252752203884
 31
0.0
1001
ACME_LAYERS
1000
1
  0
HATCH
  5
2E80
330
1F
100
AcDbEntity
  8
P-0000
  6
Continuous
 62
     1
100
AcDbHatch
 10
0.0
 20
0.0
 30
0.0
210
0.0
220
0.0
230
1.0
  2
_U
 70
     0
 71
     0
 91
        1
 92
        1
 93
        4
 72
     1
 10
2784.865235850373
 20
1280.252752203884
 11
2779.865235850372
 21
1280.252752203884
 72
     1
 10
2779.865235850372
 20
1280.252752203884
 11
2779.865235850372
 21
1282.252752203884
 72
     1
 10
2779.865235850372
 20
1282.252752203884
 11
2784.865235850373
 21
1282.252752203884
 72
     1
 10
2784.865235850373
 20
1282.252752203884
 11
2784.865235850373
 21
1280.252752203884
 97
        0
 75
     0
 76
     0
 52
-45.0
 41
2.0
 77
     0
 78
     1
 53
315.0
 43
2784.054344682066
 44
790.8314325623558
 45
1.414213562373094
 46
1.414213562373094
 79
     0
 98
        1
 10
2784.054344682066
 20
790.8314325623558
1001
ACME_LAYERS
1000
1
  0
LINE
  5
2E81
330
1F
100
AcDbEntity
  8
P-0000
  6
Continuous
 62
     7
100
AcDbLine
 10
2784.865235850373
 20
1282.252752203884
 30
0.0
 11
2779.865235850372
 21
1282.252752203884
 31
0.0
1001
ACME_LAYERS
1000
1
  0
LINE
  5
2E82
330
1F
100
AcDbEntity
  8
P-0000
  6
Continuous
 62
     7
100
AcDbLine
 10
2784.865235850373
 20
1280.252752203884
 30
0.0
 11
2779.865235850372
 21
1280.252752203884
 31
0.0
1001
ACME_LAYERS
1000
1
  0
LINE
  5
2E83
330
1F
100
AcDbEntity
  8
P-0000
  6
Continuous
 62
     7
100
AcDbLine
 10
2779.865235850372
 20
1280.252752203884
 30
0.0
 11
2779.865235850372
 21
1282.252752203884
 31
0.0
1001
ACME_LAYERS
1000
1
  0
LINE
  5
2E84
330
1F
100
AcDbEntity
  8
P-0000
  6
Continuous
 62
     7
100
AcDbLine
 10
2784.865235850373
 20
1280.252752203884
 30
0.0
 11
2784.865235850373
 21
1282.252752203884
 31
0.0
1001
ACME_LAYERS
1000
1
  0
LINE
  5
2E85
330
1F
100
AcDbEntity
  8
P-0000
  6
Continuous
 62
     7
100
AcDbLine
 10
2659.615235850381
 20
1341.197929322472
 30
0.0
 11
2659.615235850381
 21
1305.197929322472
 31
0.0
1001
ACME_LAYERS
1000
1
  0
LINE
  5
2E86
330
1F
100
AcDbEntity
  8
P-0000
  6
Continuous
 62
     7
100
AcDbLine
 10
2734.562906261361
 20
1323.767058521761
 30
0.0
 11
2735.541695477647
 21
1321.077857251612
 31
0.0
1001
ACME_LAYERS
1000
1
  0
LINE
  5
2E87
330
1F
100
AcDbEntity
  8
P-0000
  6
Continuous
 62
     7
100
AcDbLine
 10
2725.890938865246
 20
1305.197929322472
 30
0.0
 11
2712.788010431661
 21
1341.197929322472
 31
0.0
1001
ACME_LAYERS
1000
1
  0
LINE
  5
2E88
330
1F
100
AcDbEntity
  8
P-0000
  6
Continuous
 62
     7
100
AcDbLine
 10
2659.615235850381
 20
1347.167578422103
 30
0.0
 11
2710.615235850381
 21
1347.167578422103
 31
0.0
1001
ACME_LAYERS
1000
1
  0
LINE
  5
2E89
330
1F
100
AcDbEntity
  8
P-0000
  6
Continuous
 62
     7
100
AcDbLine
 10
2659.615235850381
 20
1347.167578422103
 30
0.0
 11
2710.615235850381
 21
1347.167578422103
 31
0.0
1001
ACME_LAYERS
1000
1
  0
LINE
  5
2E8A
330
1F
100
AcDbEntity
  8
P-0000
  6
Continuous
 62
     7
100
AcDbLine
 10
2705.98522877193
 20
1379.197929322472
 30
0.0
 11
2698.957141529544
 21
1379.197929322472
 31
0.0
1001
ACME_LAYERS
1000
1
  0
LINE
  5
2E8B
330
1F
100
AcDbEntity
  8
P-0000
  6
Continuous
 62
     7
100
AcDbLine
 10
2711.615235850381
 20
1341.197929322472
 30
0.0
 11
2659.615235850381
 21
1341.197929322472
 31
0.0
1001
ACME_LAYERS
1000
1
  0
LINE
  5
2E8C
330
1F
100
AcDbEntity
  8
P-0000
  6
Continuous
 62
     7
100
AcDbLine
 10
2704.416695043538
 20
1364.197929322471
 30
0.0
 11
2662.219398906415
 21
1364.197929322471
 31
0.0
1001
ACME_LAYERS
1000
1
  0
LINE
  5
2E8D
330
1F
100
AcDbEntity
  8
P-0000
  6
Continuous
 62
     7
100
AcDbLine
 10
2659.615235850381
 20
1364.197929322471
 30
0.0
 11
2659.615235850381
 21
1347.167578422103
 31
0.0
1001
ACME_LAYERS
1000
1
  0
LINE
  5
2E8E
330
1F
100
AcDbEntity
  8
P-0000
  6
Continuous
 62
     7
100
AcDbLine
 10
2696.828785984593
 20
1379.197929322472
 30
0.0
 11
2662.219398906415
 21
1379.197929322472
 31
0.0
1001
ACME_LAYERS
1000
1
  0
LINE
  5
2E8F
330
1F
100
AcDbEntity
  8
P-0000
  6
Continuous
 62
     7
100
AcDbLine
 10
2662.219398906415
 20
1379.197929322472
 30
0.0
 11
2662.219398906415
 21
1364.197929322471
 31
0.0
1001
ACME_LAYERS
1000
1
  0
LINE
  5
2E90
330
1F
100
AcDbEntity
  8
P-0000
  6
Continuous
 62
     7
100
AcDbLine
 10
2662.219398906415
 20
1379.197929322472
 30
0.0
 11
2658.115235850381
 21
1379.197929322472
 31
0.0
1001
ACME_LAYERS
1000
1
  0
LINE
  5
2E91
330
1F
100
AcDbEntity
  8
P-0000
  6
Continuous
 62
     7
100
AcDbLine
 10
2662.219398906415
 20
1364.197929322471
 30
0.0
 11
2659.615235850381
 21
1364.197929322471
 31
0.0
1001
ACME_LAYERS
1000
1
  0
LINE
  5
2E92
330
1F
100
AcDbEntity
  8
P-0000
  6
Continuous
 62
     7
100
AcDbLine
 10
2659.615235850381
 20
1364.197929322471
 30
0.0
 11
2658.115235850381
 21
1364.197929322471
 31
0.0
1001
ACME_LAYERS
1000
1
  0
HATCH
  5
2E93
330
1F
100
AcDbEntity
  8
P-0000
  6
Continuous
 62
     1
100
AcDbHatch
 10
0.0
 20
0.0
 30
0.0
210
0.0
220
0.0
230
1.0
  2
_U
 70
     0
 71
     0
 91
        1
 92
        1
 93
        5
 72
     1
 10
2700.41302246661
 20
1375.197929322472
 11
2698.957141529544
 21
1379.197929322472
 72
     1
 10
2698.957141529544
 20
1379.197929322472
 11
2696.828785984593
 21
1379.197929322472
 72
     1
 10
2696.828785984593
 20
1379.197929322472
 11
2698.045181839081
 21
1375.855909179146
 72
     2
 10
2698.984874459867
 20
1376.197929322471
 40
1.000000000000015
 50
200.0000000000031
 51
270.0
 73
     1
 72
     1
 10
2698.984874459867
 20
1375.197929322472
 11
2700.41302246661
 21
1375.197929322472
 97
        0
 75
     0
 76
     0
 52
44.99999999999999
 41
1.0
 77
     0
 78
     1
 53
45.0
 43
65.79566446974877
 44
146.7643441262128
 45
-0.7071067811865475
 46
0.7071067811865476
 79
     0
 98
        1
 10
2784.064104913787
 20
810.7190736541173
1001
ACME_LAYERS
1000
1
1001
ACAD
1010
0.0
1020
0.0
1030
0.0
  0
LINE
  5
2E94
330
1F
100
AcDbEntity
  8
P-0000
  6
Continuous
 62
     7
100
AcDbLine
 10
2698.045181839081
 20
1375.855909179146
 30
0.0
 11
2696.828785984593
 21
1379.197929322472
 31
0.0
1001
ACME_LAYERS
1000
1
  0
LINE
  5
2E95
330
1F
100
AcDbEntity
  8
P-0000
  6
Continuous
 62
     7
100
AcDbLine
 10
2700.41302246661
 20
1375.197929322472
 30
0.0
 11
2698.957141529544
 21
1379.197929322472
 31
0.0
1001
ACME_LAYERS
1000
1
  0
LINE
  5
2E96
330
1F
100
AcDbEntity
  8
P-0000
  6
Continuous
 62
     7
100
AcDbLine
 10
2698.957141529544
 20
1379.197929322472
 30
0.0
 11
2696.828785984593
 21
1379.197929322472
 31
0.0
1001
ACME_LAYERS
1000
1
  0
ARC
  5
2E97
330
1F
100
AcDbEntity
  8
P-0000
  6
Continuous
 62
     7
100
AcDbCircle
 10
2698.984874459867
 20
1376.197929322471
 30
0.0
 40
1.000000000000015
100
AcDbArc
 50
200.0000000000015
 51
270.0
1001
ACME_LAYERS
1000
1
  0
ARC
  5
2E98
330
1F
100
AcDbEntity
  8
P-0000
  6
Continuous
 62
     7
100
AcDbCircle
 10
2698.984874459867
 20
1376.197929322471
 30
0.0
 40
1.000000000000015
100
AcDbArc
 50
200.0000000000015
 51
270.0
1001
ACME_LAYERS
1000
1
  0
LINE
  5
2E99
330
1F
100
AcDbEntity
  8
P-0000
  6
Continuous
 62
     7
100
AcDbLine
 10
2700.41302246661
 20
1375.197929322472
 30
0.0
 11
2698.984874459867
 21
1375.197929322472
 31
0.0
1001
ACME_LAYERS
1000
1
  0
LINE
  5
2E9A
330
1F
100
AcDbEntity
  8
P-0000
  6
Continuous
 62
     7
100
AcDbLine
 10
2658.115235850381
 20
1347.167578422103
 30
0.0
 11
2659.615235850381
 21
1347.167578422103
 31
0.0
1001
ACME_LAYERS
1000
1
  0
LINE
  5
2E9B
330
1F
100
AcDbEntity
  8
P-0000
  6
Continuous
 62
     7
100
AcDbLine
 10
2658.115235850381
 20
1347.167578422103
 30
0.0
 11
2659.615235850381
 21
1347.167578422103
 31
0.0
1001
ACME_LAYERS
1000
1
  0
LINE
  5
2E9C
330
1F
100
AcDbEntity
  8
P-0000
  6
Continuous
 62
     7
100
AcDbLine
 10
2659.615235850381
 20
1341.197929322472
 30
0.0
 11
2658.115235850381
 21
1341.197929322472
 31
0.0
1001
ACME_LAYERS
1000
1
  0
LINE
  5
2E9D
330
1F
100
AcDbEntity
  8
P-0000
  6
Continuous
 62
     7
100
AcDbLine
 10
2717.261540221361
 20
1371.302171042379
 30
0.0
 11
2734.562906261361
 21
1323.767058521761
 31
0.0
1001
ACME_LAYERS
1000
1
  0
LINE
  5
2E9E
330
1F
100
AcDbEntity
  8
P-0000
  6
Continuous
 62
     7
100
AcDbLine
 10
2710.615235850381
 20
1347.167578422103
 30
0.0
 11
2704.416695043538
 21
1364.197929322471
 31
0.0
1001
ACME_LAYERS
1000
1
  0
ARC
  5
2E9F
330
1F
100
AcDbEntity
  8
P-0000
  6
Continuous
 62
     7
100
AcDbCircle
 10
2705.98522877193
 20
1367.197929322472
 30
0.0
 40
11.99999999999995
100
AcDbArc
 50
19.99999999998924
 51
90.0
1001
ACME_LAYERS
1000
1
  0
HATCH
  5
2EA0
330
1F
100
AcDbEntity
  8
P-0000
  6
Continuous
 62
     3
100
AcDbHatch
 10
0.0
 20
0.0
 30
0.0
210
0.0
220
0.0
230
1.0
  2
_U
 70
     0
 71
     0
 91
        1
 92
        1
 93
        4
 72
     1
 10
2712.788010431661
 20
1341.197929322472
 11
2710.615235850381
 21
1347.167578422103
 72
     1
 10
2710.615235850381
 20
1347.167578422103
 11
2710.615235850381
 21
1342.197929322472
 72
     2
 10
2711.615235850381
 20
1342.197929322472
 40
1.0
 50
180.0
 51
270.0
 73
     1
 72
     1
 10
2711.615235850381
 20
1341.197929322472
 11
2712.788010431661
 21
1341.197929322472
 97
        0
 75
     0
 76
     0
 52
44.99999999999999
 41
1.0
 77
     0
 78
     1
 53
45.0
 43
2784.064104913787
 44
810.7190736541173
 45
-0.7071067811865474
 46
0.7071067811865479
 79
     0
 98
        1
 10
2784.064104913787
 20
810.7190736541173
1001
ACME_LAYERS
1000
1
  0
LINE
  5
2EA1
330
1F
100
AcDbEntity
  8
P-0000
  6
Continuous
 62
     7
100
AcDbLine
 10
2712.788010431661
 20
1341.197929322472
 30
0.0
 11
2711.615235850381
 21
1341.197929322472
 31
0.0
1001
ACME_LAYERS
1000
1
  0
LINE
  5
2EA2
330
1F
100
AcDbEntity
  8
P-0000
  6
Continuous
 62
     7
100
AcDbLine
 10
2712.788010431661
 20
1341.197929322472
 30
0.0
 11
2710.615235850381
 21
1347.167578422103
 31
0.0
1001
ACME_LAYERS
1000
1
  0
LINE
  5
2EA3
330
1F
100
AcDbEntity
  8
P-0000
  6
Continuous
 62
     7
100
AcDbLine
 10
2710.615235850381
 20
1342.197929322472
 30
0.0
 11
2710.615235850381
 21
1347.167578422103
 31
0.0
1001
ACME_LAYERS
1000
1
  0
LINE
  5
2EA4
330
1F
100
AcDbEntity
  8
P-0000
  6
Continuous
 62
     7
100
AcDbLine
 10
2710.615235850381
 20
1342.197929322472
 30
0.0
 11
2710.615235850381
 21
1347.167578422103
 31
0.0
1001
ACME_LAYERS
1000
1
  0
ARC
  5
2EA5
330
1F
100
AcDbEntity
  8
P-0000
  6
Continuous
 62
     7
100
AcDbCircle
 10
2711.615235850381
 20
1342.197929322472
 30
0.0
 40
1.0
100
AcDbArc
 50
180.0
 51
270.0
1001
ACME_LAYERS
1000
1
  0
ARC
  5
2EA6
330
1F
100
AcDbEntity
  8
P-0000
  6
Continuous
 62
     7
100
AcDbCircle
 10
2711.615235850381
 20
1342.197929322472
 30
0.0
 40
1.0
100
AcDbArc
 50
180.0
 51
270.0
1001
ACME_LAYERS
1000
1
  0
LINE
  5
2EA7
330
1F
100
AcDbEntity
  8
P-0000
  6
Continuous
 62
     7
100
AcDbLine
 10
2659.615235850381
 20
1305.197929322472
 30
0.0
 11
2725.890938865246
 21
1305.197929322472
 31
0.0
1001
ACME_LAYERS
1000
1
  0
LINE
  5
2EA8
330
1F
100
AcDbEntity
  8
P-0000
  6
Continuous
 62
     7
100
AcDbLine
 10
2659.615235850381
 20
1305.197929322472
 30
0.0
 11
2725.890938865246
 21
1305.197929322472
 31
0.0
1001
ACME_LAYERS
1000
1
  0
LINE
  5
2EA9
330
1F
100
AcDbEntity
  8
P-0000
  6
Continuous
 62
     7
100
AcDbLine
 10
2659.615235850381
 20
1305.197929322472
 30
0.0
 11
2725.890938865246
 21
1305.197929322472
 31
0.0
1001
ACME_LAYERS
1000
1
  0
LINE
  5
2EAA
330
1F
100
AcDbEntity
  8
P-0000
  6
Continuous
 62
     7
100
AcDbLine
 10
2725.890938865246
 20
1299.197929322472
 30
0.0
 11
2659.615235850381
 21
1299.197929322472
 31
0.0
1001
ACME_LAYERS
1000
1
  0
LINE
  5
2EAB
330
1F
100
AcDbEntity
  8
P-0000
  6
Continuous
 62
     7
100
AcDbLine
 10
2658.115235850381
 20
1305.197929322472
 30
0.0
 11
2659.615235850381
 21
1305.197929322472
 31
0.0
1001
ACME_LAYERS
1000
1
  0
LINE
  5
2EAC
330
1F
100
AcDbEntity
  8
P-0000
  6
Continuous
 62
     7
100
AcDbLine
 10
2658.115235850381
 20
1305.197929322472
 30
0.0
 11
2659.615235850381
 21
1305.197929322472
 31
0.0
1001
ACME_LAYERS
1000
1
  0
LINE
  5
2EAD
330
1F
100
AcDbEntity
  8
P-0000
  6
Continuous
 62
     7
100
AcDbLine
 10
2658.115235850381
 20
1305.197929322472
 30
0.0
 11
2659.615235850381
 21
1305.197929322472
 31
0.0
1001
ACME_LAYERS
1000
1
  0
LINE
  5
2EAE
330
1F
100
AcDbEntity
  8
P-0000
  6
Continuous
 62
     7
100
AcDbLine
 10
2659.615235850381
 20
1299.197929322472
 30
0.0
 11
2658.115235850381
 21
1299.197929322472
 31
0.0
1001
ACME_LAYERS
1000
1
  0
LINE
  5
2EAF
330
1F
100
AcDbEntity
  8
P-0000
  6
Continuous
 62
     7
100
AcDbLine
 10
2735.541695477647
 20
1321.077857251612
 30
0.0
 11
2743.115235850381
 21
1300.269726092195
 31
0.0
1001
ACME_LAYERS
1000
1
  0
LINE
  5
2EB0
330
1F
100
AcDbEntity
  8
P-0000
  6
Continuous
 62
     7
100
AcDbLine
 10
2737.115235850381
 20
1299.197929322472
 30
0.0
 11
2728.890938865246
 21
1299.197929322472
 31
0.0
1001
ACME_LAYERS
1000
1
  0
LINE
  5
2EB1
330
1F
100
AcDbEntity
  8
P-0000
  6
Continuous
 62
     7
100
AcDbLine
 10
2728.890938865246
 20
1299.197929322472
 30
0.0
 11
2728.890938865246
 21
1305.197929322472
 31
0.0
1001
ACME_LAYERS
1000
1
  0
LINE
  5
2EB2
330
1F
100
AcDbEntity
  8
P-0000
  6
Continuous
 62
     7
100
AcDbLine
 10
2725.890938865246
 20
1299.197929322472
 30
0.0
 11
2725.890938865246
 21
1305.197929322472
 31
0.0
1001
ACME_LAYERS
1000
1
  0
LINE
  5
2EB3
330
1F
100
AcDbEntity
  8
P-0000
  6
Continuous
 62
     7
100
AcDbLine
 10
2725.890938865246
 20
1305.197929322472
 30
0.0
 11
2728.890938865246
 21
1305.197929322472
 31
0.0
1001
ACME_LAYERS
1000
1
  0
LINE
  5
2EB4
330
1F
100
AcDbEntity
  8
P-0000
  6
Continuous
 62
     7
100
AcDbLine
 10
2725.890938865246
 20
1305.197929322472
 30
0.0
 11
2728.890938865246
 21
1305.197929322472
 31
0.0
1001
ACME_LAYERS
1000
1
  0
LINE
  5
2EB5
330
1F
100
AcDbEntity
  8
P-0000
  6
Continuous
 62
     7
100
AcDbLine
 10
2728.890938865246
 20
1299.197929322472
 30
0.0
 11
2725.890938865246
 21
1299.197929322472
 31
0.0
1001
ACME_LAYERS
1000
1
  0
LINE
  5
2EB6
102
{ACAD_REACTORS
330
2E46
102
}
330
1F
100
AcDbEntity
  8
P-0000
  6
Continuous
 62
     7
100
AcDbLine
 10
2743.615235850381
 20
1296.997929322471
 30
0.0
 11
2743.615235850381
 21
1299.197929322472
 31
0.0
1001
ACME_LAYERS
1000
1
  0
LINE
  5
2EB7
330
1F
100
AcDbEntity
  8
P-0000
  6
Continuous
 62
     7
100
AcDbLine
 10
2742.339005583832
 20
1293.24136155368
 30
0.0
 11
2737.115235850381
 21
1299.197929322472
 31
0.0
1001
ACME_LAYERS
1000
1
  0
LINE
  5
2EB8
330
1F
100
AcDbEntity
  8
P-0000
  6
Continuous
 62
     7
100
AcDbLine
 10
2743.115235850381
 20
1299.197929322472
 30
0.0
 11
2743.115235850381
 21
1300.269726092195
 31
0.0
1001
ACME_LAYERS
1000
1
  0
LINE
  5
2EB9
102
{ACAD_REACTORS
330
2E46
102
}
330
1F
100
AcDbEntity
  8
P-0000
  6
Continuous
 62
     7
100
AcDbLine
 10
2743.615235850381
 20
1299.197929322472
 30
0.0
 11
2743.115235850381
 21
1299.197929322472
 31
0.0
1001
ACME_LAYERS
1000
1
  0
LINE
  5
2EBA
102
{ACAD_REACTORS
330
2E46
102
}
330
1F
100
AcDbEntity
  8
P-0000
  6
Continuous
 62
     7
100
AcDbLine
 10
2743.115235850381
 20
1299.197929322472
 30
0.0
 11
2743.115235850381
 21
1300.269726092195
 31
0.0
1001
ACME_LAYERS
1000
1
  0
LINE
  5
2EBB
330
1F
100
AcDbEntity
  8
P-0000
  6
Continuous
 62
     7
100
AcDbLine
 10
2744.815235850381
 20
1295.497929322471
 30
0.0
 11
2743.256408658311
 21
1293.300387551272
 31
0.0
1001
ACME_LAYERS
1000
1
  0
LINE
  5
2EBC
330
1F
100
AcDbEntity
  8
P-0000
  6
Continuous
 62
     7
100
AcDbLine
 10
2743.615235850381
 20
1296.997929322471
 30
0.0
 11
2744.815235850381
 21
1296.997929322471
 31
0.0
1001
ACME_LAYERS
1000
1
  0
LINE
  5
2EBD
330
1F
100
AcDbEntity
  8
P-0000
  6
Continuous
 62
     7
100
AcDbLine
 10
2744.815235850381
 20
1296.997929322471
 30
0.0
 11
2744.815235850381
 21
1295.497929322471
 31
0.0
1001
ACME_LAYERS
1000
1
  0
ARC
  5
2EBE
330
1F
100
AcDbEntity
  8
P-0000
  6
Continuous
 62
     7
100
AcDbCircle
 10
2742.767028856226
 20
1293.647529322472
 30
0.0
 40
0.6000000000000229
100
AcDbArc
 50
270.0
 51
324.6500000000025
1001
ACME_LAYERS
1000
1
  0
ARC
  5
2EBF
330
1F
100
AcDbEntity
  8
P-0000
  6
Continuous
 62
     7
100
AcDbCircle
 10
2742.766802434287
 20
1293.616529322472
 30
0.0
 40
0.5689999999999894
100
AcDbArc
 50
221.2500000000013
 51
270.0
1001
ACME_LAYERS
1000
1
  0
LINE
  5
2EC0
330
1F
100
AcDbEntity
  8
P-0000
  6
Continuous
 62
     7
100
AcDbLine
 10
2742.767028856226
 20
1293.047529322471
 30
0.0
 11
2742.766802434287
 21
1293.047529322471
 31
0.0
1001
ACME_LAYERS
1000
1
  0
HATCH
  5
2EC1
330
1F
100
AcDbEntity
  8
AM_8
100
AcDbHatch
 10
0.0
 20
0.0
 30
0.0
210
0.0
220
0.0
230
1.0
  2
_U
 70
     0
 71
     0
 91
        1
 92
        1
 93
        4
 72
     1
 10
2728.890938865246
 20
1305.197929322472
 11
2725.890938865246
 21
1305.197929322472
 72
     1
 10
2725.890938865246
 20
1305.197929322472
 11
2725.890938865246
 21
1299.197929322472
 72
     1
 10
2725.890938865246
 20
1299.197929322472
 11
2728.890938865246
 21
1299.197929322472
 72
     1
 10
2728.890938865246
 20
1299.197929322472
 11
2728.890938865246
 21
1305.197929322472
 97
        0
 75
     0
 76
     0
 52
44.99999999999999
 41
1.0
 77
     0
 78
     1
 53
45.0
 43
2485.524208614322
 44
1417.696012354451
 45
-0.7071067811865474
 46
0.7071067811865479
 79
     0
 98
        1
 10
2485.524208614322
 20
1417.696012354451
1001
GENIUS_GENODEF_13
1002
{
1000
HIER
1070
     0
1002
}
1002
{
1000
MANEDIT
1070
     0
1002
}
1002
{
1000
NOSEL
1070
     0
1002
}
1002
{
1000
BEHIND
1070
     0
1002
}
1002
{
1000
OTHER
1070
     0
1002
}
1002
{
1000
REACTOR
1002
}
1001
GENIUS_GENOBJ-N-HTC_13
1002
{
1000
OWNER
1000
GEN
1002
}
1001
GENIUS_GENHATCH_13
1002
{
1000
DATA
1040
135.0
1042
1.0
1000
_U
1070
     0
1011
2726.659915680693
1021
1299.65651636899
1031
0.0
1002
}
1002
{
1000
UCS
1010
0.0
1020
0.0
1030
0.0
1010
1.0
1020
0.0
1030
0.0
1010
0.0
1020
1.0
1030
0.0
1002
}
  0
LINE
  5
2EC2
330
1F
100
AcDbEntity
  8
P-0000
  6
STRICHPUNKT
 62
     3
100
AcDbLine
 10
2658.56691098775
 20
893.0468322989382
 30
0.0
 11
2658.56691098775
 21
1379.197929322472
 31
0.0
1001
ACME_LAYERS
1000
1
  0
LINE
  5
2EC3
330
1F
100
AcDbEntity
  8
P-0000
  6
STRICHPUNKT
 62
     3
100
AcDbLine
 10
2658.566910987755
 20
893.0468322989382
 30
0.0
 11
2658.566910987754
 21
944.4245236160167
 31
0.0
1001
ACME_LAYERS
1000
1
  0
LINE
  5
2EC4
330
1F
100
AcDbEntity
  8
P-0000
  6
STRICHPUNKT
 62
     3
100
AcDbLine
 10
2658.606507231513
 20
919.8801895694078
 30
0.0
 11
2658.606507231513
 21
948.8610503298732
 31
0.0
1001
ACME_LAYERS
1000
1
  0
LINE
  5
2EC5
330
1F
100
AcDbEntity
  8
P-0000
  6
STRICHPUNKT
 62
     3
100
AcDbLine
 10
2542.34777861266
 20
1277.22564071913
 30
0.0
 11
2542.34777861266
 21
1284.22564071913
 31
0.0
1001
ACME_LAYERS
1000
1
  0
LINE
  5
2EC6
330
1F
100
AcDbEntity
  8
P-0000
  6
Continuous
 62
     7
100
AcDbLine
 10
2537.34777861266
 20
1282.252752203884
 30
0.0
 11
2547.34777861266
 21
1282.252752203884
 31
0.0
1001
ACME_LAYERS
1000
1
  0
LINE
  5
2EC7
330
1F
100
AcDbEntity
  8
P-0000
  6
Continuous
 62
     7
100
AcDbLine
 10
2539.147778612659
 20
1293.400033643596
 30
0.0
 11
2542.34777861266
 21
1293.400033643596
 31
0.0
1001
ACME_LAYERS
1000
1
  0
LINE
  5
2EC8
330
1F
100
AcDbEntity
  8
P-0000
  6
Continuous
 62
     7
100
AcDbLine
 10
2545.547778612659
 20
1292.800033643596
 30
0.0
 11
2539.147778612659
 21
1292.800033643596
 31
0.0
1001
ACME_LAYERS
1000
1
  0
LINE
  5
2EC9
330
1F
100
AcDbEntity
  8
P-0000
  6
Continuous
 62
     7
100
AcDbLine
 10
2538.347778612659
 20
1292.800033643596
 30
0.0
 11
2538.347778612659
 21
1289.852752203882
 31
0.0
1001
ACME_LAYERS
1000
1
  0
LINE
  5
2ECA
330
1F
100
AcDbEntity
  8
P-0000
  6
Continuous
 62
     3
100
AcDbLine
 10
2539.147778612659
 20
1293.400033643596
 30
0.0
 11
2539.147778612659
 21
1289.852752203882
 31
0.0
1001
ACME_LAYERS
1000
1
  0
LINE
  5
2ECB
330
1F
100
AcDbEntity
  8
P-0000
  6
Continuous
 62
     7
100
AcDbLine
 10
2539.147778612659
 20
1292.800033643596
 30
0.0
 11
2538.347778612659
 21
1292.800033643596
 31
0.0
1001
ACME_LAYERS
1000
1
  0
LINE
  5
2ECC
330
1F
100
AcDbEntity
  8
P-0000
  6
Continuous
 62
     3
100
AcDbLine
 10
2539.147778612659
 20
1293.400033643596
 30
0.0
 11
2539.147778612659
 21
1292.800033643596
 31
0.0
1001
ACME_LAYERS
1000
1
  0
LINE
  5
2ECD
330
1F
100
AcDbEntity
  8
P-0000
  6
Continuous
 62
     7
100
AcDbLine
 10
2538.347778612659
 20
1292.800033643596
 30
0.0
 11
2539.147778612659
 21
1293.400033643596
 31
0.0
1001
ACME_LAYERS
1000
1
  0
LINE
  5
2ECE
330
1F
100
AcDbEntity
  8
P-0000
  6
Continuous
 62
     7
100
AcDbLine
 10
2546.34777861266
 20
1292.800033643596
 30
0.0
 11
2546.34777861266
 21
1289.852752203882
 31
0.0
1001
ACME_LAYERS
1000
1
  0
LINE
  5
2ECF
330
1F
100
AcDbEntity
  8
P-0000
  6
STRICHPUNKT
 62
     3
100
AcDbLine
 10
2542.34777861266
 20
1289.852752203882
 30
0.0
 11
2542.34777861266
 21
1293.400033643596
 31
0.0
1001
ACME_LAYERS
1000
1
  0
LINE
  5
2ED0
330
1F
100
AcDbEntity
  8
P-0000
  6
Continuous
 62
     3
100
AcDbLine
 10
2545.547778612659
 20
1293.400033643596
 30
0.0
 11
2545.547778612659
 21
1289.852752203882
 31
0.0
1001
ACME_LAYERS
1000
1
  0
LINE
  5
2ED1
330
1F
100
AcDbEntity
  8
P-0000
  6
Continuous
 62
     3
100
AcDbLine
 10
2545.547778612659
 20
1293.400033643596
 30
0.0
 11
2545.547778612659
 21
1292.800033643596
 31
0.0
1001
ACME_LAYERS
1000
1
  0
LINE
  5
2ED2
330
1F
100
AcDbEntity
  8
P-0000
  6
Continuous
 62
     7
100
AcDbLine
 10
2546.34777861266
 20
1292.800033643596
 30
0.0
 11
2545.547778612659
 21
1292.800033643596
 31
0.0
1001
ACME_LAYERS
1000
1
  0
LINE
  5
2ED3
330
1F
100
AcDbEntity
  8
P-0000
  6
Continuous
 62
     7
100
AcDbLine
 10
2545.547778612659
 20
1293.400033643596
 30
0.0
 11
2546.34777861266
 21
1292.800033643596
 31
0.0
1001
ACME_LAYERS
1000
1
  0
LINE
  5
2ED4
330
1F
100
AcDbEntity
  8
P-0000
  6
Continuous
 62
     7
100
AcDbLine
 10
2542.34777861266
 20
1293.400033643596
 30
0.0
 11
2545.547778612659
 21
1293.400033643596
 31
0.0
1001
ACME_LAYERS
1000
1
  0
LINE
  5
2ED5
330
1F
100
AcDbEntity
  8
P-0000
  6
Continuous
 62
     7
100
AcDbLine
 10
2546.34777861266
 20
1289.852752203882
 30
0.0
 11
2539.147778612659
 21
1289.852752203882
 31
0.0
1001
ACME_LAYERS
1000
1
  0
LINE
  5
2ED6
330
1F
100
AcDbEntity
  8
P-0000
  6
Continuous
 62
     7
100
AcDbLine
 10
2539.147778612659
 20
1289.852752203882
 30
0.0
 11
2538.347778612659
 21
1289.852752203882
 31
0.0
1001
ACME_LAYERS
1000
1
  0
LINE
  5
2ED7
330
1F
100
AcDbEntity
  8
P-0000
  6
Continuous
 62
     7
100
AcDbLine
 10
2533.902080499238
 20
1283.752752203882
 30
0.0
 11
2533.902080499238
 21
1282.252752203884
 31
0.0
1001
ACME_LAYERS
1000
1
  0
LINE
  5
2ED8
330
1F
100
AcDbEntity
  8
P-0000
  6
Continuous
 62
     7
100
AcDbLine
 10
2550.902080499239
 20
1282.252752203884
 30
0.0
 11
2550.902080499239
 21
1283.752752203882
 31
0.0
1001
ACME_LAYERS
1000
1
  0
LINE
  5
2ED9
330
1F
100
AcDbEntity
  8
P-0000
  6
Continuous
 62
     7
100
AcDbLine
 10
2533.902080499238
 20
1283.852752203882
 30
0.0
 11
2533.902080499238
 21
1283.752752203882
 31
0.0
1001
ACME_LAYERS
1000
1
  0
LINE
  5
2EDA
330
1F
100
AcDbEntity
  8
P-0000
  6
Continuous
 62
     7
100
AcDbLine
 10
2550.902080499239
 20
1283.852752203882
 30
0.0
 11
2533.902080499238
 21
1283.852752203882
 31
0.0
1001
ACME_LAYERS
1000
1
  0
LINE
  5
2EDB
330
1F
100
AcDbEntity
  8
P-0000
  6
Continuous
 62
     7
100
AcDbLine
 10
2550.902080499239
 20
1283.752752203882
 30
0.0
 11
2550.902080499239
 21
1283.852752203882
 31
0.0
1001
ACME_LAYERS
1000
1
  0
LINE
  5
2EDC
330
1F
100
AcDbEntity
  8
P-0000
  6
Continuous
 62
     7
100
AcDbLine
 10
2549.853332112124
 20
1285.739691395789
 30
0.0
 11
2549.853332112124
 21
1284.433308787482
 31
0.0
1001
ACME_LAYERS
1000
1
  0
LINE
  5
2EDD
330
1F
100
AcDbEntity
  8
P-0000
  6
Continuous
 62
     7
100
AcDbLine
 10
2535.84777861266
 20
1283.852752203882
 30
0.0
 11
2548.847778612659
 21
1283.852752203882
 31
0.0
1001
ACME_LAYERS
1000
1
  0
LINE
  5
2EDE
330
1F
100
AcDbEntity
  8
P-0000
  6
Continuous
 62
     7
100
AcDbLine
 10
2534.842225113194
 20
1285.739691395789
 30
0.0
 11
2534.842225113194
 21
1284.433308787482
 31
0.0
1001
ACME_LAYERS
1000
1
  0
LINE
  5
2EDF
330
1F
100
AcDbEntity
  8
P-0000
  6
Continuous
 62
     7
100
AcDbLine
 10
2538.347778612659
 20
1289.852752203882
 30
0.0
 11
2535.84777861266
 21
1289.852752203882
 31
0.0
1001
ACME_LAYERS
1000
1
  0
LINE
  5
2EE0
330
1F
100
AcDbEntity
  8
P-0000
  6
Continuous
 62
     7
100
AcDbLine
 10
2549.606660523469
 20
1284.279895769517
 30
0.0
 11
2548.847778612659
 21
1283.852752203882
 31
0.0
1001
ACME_LAYERS
1000
1
  0
LINE
  5
2EE1
330
1F
100
AcDbEntity
  8
P-0000
  6
Continuous
 62
     7
100
AcDbLine
 10
2549.606660523469
 20
1289.425608638248
 30
0.0
 11
2548.847778612659
 21
1289.852752203882
 31
0.0
1001
ACME_LAYERS
1000
1
  0
LINE
  5
2EE2
330
1F
100
AcDbEntity
  8
P-0000
  6
Continuous
 62
     7
100
AcDbLine
 10
2535.088896701852
 20
1284.279895769517
 30
0.0
 11
2535.84777861266
 21
1283.852752203882
 31
0.0
1001
ACME_LAYERS
1000
1
  0
LINE
  5
2EE3
330
1F
100
AcDbEntity
  8
P-0000
  6
Continuous
 62
     7
100
AcDbLine
 10
2535.088896701852
 20
1289.425608638248
 30
0.0
 11
2535.84777861266
 21
1289.852752203882
 31
0.0
1001
ACME_LAYERS
1000
1
  0
LINE
  5
2EE4
330
1F
100
AcDbEntity
  8
P-0000
  6
Continuous
 62
     7
100
AcDbLine
 10
2548.847778612659
 20
1289.852752203882
 30
0.0
 11
2546.34777861266
 21
1289.852752203882
 31
0.0
1001
ACME_LAYERS
1000
1
  0
LINE
  5
2EE5
330
1F
100
AcDbEntity
  8
P-0000
  6
Continuous
 62
     7
100
AcDbLine
 10
2534.842225113194
 20
1289.272195620282
 30
0.0
 11
2534.842225113194
 21
1285.739691395789
 31
0.0
1001
ACME_LAYERS
1000
1
  0
LINE
  5
2EE6
330
1F
100
AcDbEntity
  8
P-0000
  6
Continuous
 62
     7
100
AcDbLine
 10
2538.595001862927
 20
1289.272195620282
 30
0.0
 11
2538.595001862927
 21
1283.852752203882
 31
0.0
1001
ACME_LAYERS
1000
1
  0
LINE
  5
2EE7
330
1F
100
AcDbEntity
  8
P-0000
  6
Continuous
 62
     7
100
AcDbLine
 10
2546.100555362391
 20
1289.272195620282
 30
0.0
 11
2546.100555362391
 21
1283.852752203882
 31
0.0
1001
ACME_LAYERS
1000
1
  0
LINE
  5
2EE8
330
1F
100
AcDbEntity
  8
P-0000
  6
Continuous
 62
     7
100
AcDbLine
 10
2549.853332112124
 20
1289.272195620282
 30
0.0
 11
2549.853332112124
 21
1285.739691395789
 31
0.0
1001
ACME_LAYERS
1000
1
  0
LINE
  5
2EE9
330
1F
100
AcDbEntity
  8
P-0000
  6
Continuous
 62
     7
100
AcDbLine
 10
2533.902080499238
 20
1282.252752203884
 30
0.0
 11
2538.347778612659
 21
1282.252752203884
 31
0.0
1001
ACME_LAYERS
1000
1
  0
LINE
  5
2EEA
330
1F
100
AcDbEntity
  8
P-0000
  6
Continuous
 62
     7
100
AcDbLine
 10
2550.902080499239
 20
1282.252752203884
 30
0.0
 11
2546.847778612661
 21
1282.252752203884
 31
0.0
1001
ACME_LAYERS
1000
1
  0
ARC
  5
2EEB
330
1F
100
AcDbEntity
  8
P-0000
  6
Continuous
 62
     7
100
AcDbCircle
 10
2542.34777861266
 20
1296.272195620281
 30
0.0
 40
12.41944341639904
100
AcDbArc
 50
252.4120462260364
 51
287.5879537739637
1001
ACME_LAYERS
1000
1
  0
ARC
  5
2EEC
330
1F
100
AcDbEntity
  8
P-0000
  6
Continuous
 62
     7
100
AcDbCircle
 10
2542.34777861266
 20
1277.433308787482
 30
0.0
 40
12.41944341639904
100
AcDbArc
 50
72.41204622603635
 51
107.5879537739636
1001
ACME_LAYERS
1000
1
  0
ARC
  5
2EED
330
1F
100
AcDbEntity
  8
P-0000
  6
Continuous
 62
     7
100
AcDbCircle
 10
2547.976943737257
 20
1287.175321776832
 30
0.0
 40
3.322569572950221
100
AcDbArc
 50
235.6157525319757
 51
299.3733793948324
1001
ACME_LAYERS
1000
1
  0
ARC
  5
2EEE
330
1F
100
AcDbEntity
  8
P-0000
  6
Continuous
 62
     7
100
AcDbCircle
 10
2547.976943737261
 20
1286.530182630931
 30
0.0
 40
3.322569572950149
100
AcDbArc
 50
55.61575253197573
 51
60.62662060516761
1001
ACME_LAYERS
1000
1
  0
ARC
  5
2EEF
330
1F
100
AcDbEntity
  8
P-0000
  6
Continuous
 62
     7
100
AcDbCircle
 10
2536.718613488063
 20
1287.175321776832
 30
0.0
 40
3.322569572950221
100
AcDbArc
 50
235.6157525319757
 51
240.6266206051676
1001
ACME_LAYERS
1000
1
  0
ARC
  5
2EF0
330
1F
100
AcDbEntity
  8
P-0000
  6
Continuous
 62
     7
100
AcDbCircle
 10
2536.718613488063
 20
1286.530182630932
 30
0.0
 40
3.322569572949122
100
AcDbArc
 50
55.61575253197573
 51
119.3733793948324
1001
ACME_LAYERS
1000
1
  0
ARC
  5
2EF1
330
1F
100
AcDbEntity
  8
P-0000
  6
Continuous
 62
     7
100
AcDbCircle
 10
2547.976943737257
 20
1287.175321776832
 30
0.0
 40
3.322569572949876
100
AcDbArc
 50
299.3733793948324
 51
304.3842474680243
1001
ACME_LAYERS
1000
1
  0
ARC
  5
2EF2
330
1F
100
AcDbEntity
  8
P-0000
  6
Continuous
 62
     7
100
AcDbCircle
 10
2547.976943737257
 20
1286.530182630932
 30
0.0
 40
3.322569572949888
100
AcDbArc
 50
60.62662060516761
 51
124.3842474680243
1001
ACME_LAYERS
1000
1
  0
ARC
  5
2EF3
330
1F
100
AcDbEntity
  8
P-0000
  6
Continuous
 62
     7
100
AcDbCircle
 10
2536.718613488063
 20
1287.175321776832
 30
0.0
 40
3.322569572949872
100
AcDbArc
 50
240.6266206051676
 51
304.3842474680243
1001
ACME_LAYERS
1000
1
  0
ARC
  5
2EF4
330
1F
100
AcDbEntity
  8
P-0000
  6
Continuous
 62
     7
100
AcDbCircle
 10
2536.718613488063
 20
1286.530182630932
 30
0.0
 40
3.322569572949884
100
AcDbArc
 50
119.3733793948324
 51
124.3842474680243
1001
ACME_LAYERS
1000
1
  0
LINE
  5
2EF5
330
1F
100
AcDbEntity
  8
P-0000
  6
Continuous
 62
     7
100
AcDbLine
 10
2580.399171852997
 20
1290.235419896643
 30
0.0
 11
2580.399171852997
 21
1287.352752203881
 31
0.0
1001
ACME_LAYERS
1000
1
  0
LINE
  5
2EF6
330
1F
100
AcDbEntity
  8
P-0000
  6
Continuous
 62
     3
100
AcDbLine
 10
2579.599171852998
 20
1289.773539681292
 30
0.0
 11
2579.599171852998
 21
1287.352752203881
 31
0.0
1001
ACME_LAYERS
1000
1
  0
LINE
  5
2EF7
330
1F
100
AcDbEntity
  8
P-0000
  6
Continuous
 62
     7
100
AcDbLine
 10
2575.406244947794
 20
1287.352752203881
 30
0.0
 11
2579.599171852994
 21
1287.352752203881
 31
0.0
1001
ACME_LAYERS
1000
1
  0
LINE
  5
2EF8
330
1F
100
AcDbEntity
  8
P-0000
  6
Continuous
 62
     7
100
AcDbLine
 10
2579.599171852994
 20
1287.352752203881
 30
0.0
 11
2580.399171852997
 21
1287.352752203881
 31
0.0
1001
ACME_LAYERS
1000
1
  0
LINE
  5
2EF9
330
1F
100
AcDbEntity
  8
P-0000
  6
Continuous
 62
     7
100
AcDbLine
 10
2568.893618353531
 20
1283.239691395787
 30
0.0
 11
2568.893618353531
 21
1281.93330878748
 31
0.0
1001
ACME_LAYERS
1000
1
  0
LINE
  5
2EFA
330
1F
100
AcDbEntity
  8
P-0000
  6
Continuous
 62
     7
100
AcDbLine
 10
2583.904725352462
 20
1283.239691395787
 30
0.0
 11
2583.904725352462
 21
1281.93330878748
 31
0.0
1001
ACME_LAYERS
1000
1
  0
LINE
  5
2EFB
330
1F
100
AcDbEntity
  8
P-0000
  6
Continuous
 62
     7
100
AcDbLine
 10
2580.399171852997
 20
1287.352752203881
 30
0.0
 11
2582.899171852998
 21
1287.352752203881
 31
0.0
1001
ACME_LAYERS
1000
1
  0
LINE
  5
2EFC
330
1F
100
AcDbEntity
  8
P-0000
  6
Continuous
 62
     7
100
AcDbLine
 10
2572.646395103265
 20
1283.239691395787
 30
0.0
 11
2572.646395103265
 21
1281.93330878748
 31
0.0
1001
ACME_LAYERS
1000
1
  0
LINE
  5
2EFD
330
1F
100
AcDbEntity
  8
P-0000
  6
Continuous
 62
     7
100
AcDbLine
 10
2580.151948602728
 20
1283.239691395787
 30
0.0
 11
2580.151948602728
 21
1281.93330878748
 31
0.0
1001
ACME_LAYERS
1000
1
  0
LINE
  5
2EFE
330
1F
100
AcDbEntity
  8
P-0000
  6
Continuous
 62
     7
100
AcDbLine
 10
2583.658053763806
 20
1286.925608638245
 30
0.0
 11
2582.899171852998
 21
1287.352752203881
 31
0.0
1001
ACME_LAYERS
1000
1
  0
LINE
  5
2EFF
330
1F
100
AcDbEntity
  8
P-0000
  6
Continuous
 62
     7
100
AcDbLine
 10
2583.904725352462
 20
1286.772195620279
 30
0.0
 11
2583.904725352462
 21
1283.239691395787
 31
0.0
1001
ACME_LAYERS
1000
1
  0
LINE
  5
2F00
330
1F
100
AcDbEntity
  8
P-0000
  6
Continuous
 62
     7
100
AcDbLine
 10
2580.151948602728
 20
1286.772195620279
 30
0.0
 11
2580.151948602728
 21
1283.239691395787
 31
0.0
1001
ACME_LAYERS
1000
1
  0
LINE
  5
2F01
330
1F
100
AcDbEntity
  8
P-0000
  6
Continuous
 62
     7
100
AcDbLine
 10
2572.646395103265
 20
1285.759352153219
 30
0.0
 11
2572.646395103265
 21
1283.239691395787
 31
0.0
1001
ACME_LAYERS
1000
1
  0
LINE
  5
2F02
330
1F
100
AcDbEntity
  8
P-0000
  6
Continuous
 62
     7
100
AcDbLine
 10
2568.893618353531
 20
1283.592685486551
 30
0.0
 11
2568.893618353531
 21
1283.239691395787
 31
0.0
1001
ACME_LAYERS
1000
1
  0
ARC
  5
2F03
330
1F
100
AcDbEntity
  8
P-0000
  6
Continuous
 62
     7
100
AcDbCircle
 10
2576.399171852998
 20
1274.933308787481
 30
0.0
 40
12.41944341639904
100
AcDbArc
 50
72.41204622603635
 51
94.95831806929642
1001
ACME_LAYERS
1000
1
  0
ARC
  5
2F04
330
1F
100
AcDbEntity
  8
P-0000
  6
Continuous
 62
     7
100
AcDbCircle
 10
2582.028336977594
 20
1284.03018263093
 30
0.0
 40
3.322569572949122
100
AcDbArc
 50
60.62662060516761
 51
124.3842474680243
1001
ACME_LAYERS
1000
1
  0
ARC
  5
2F05
330
1F
100
AcDbEntity
  8
P-0000
  6
Continuous
 62
     7
100
AcDbCircle
 10
2582.028336977594
 20
1284.03018263093
 30
0.0
 40
3.322569572949884
100
AcDbArc
 50
55.61575253197573
 51
60.62662060516761
1001
ACME_LAYERS
1000
1
  0
HATCH
  5
2F06
330
1F
100
AcDbEntity
  8
AM_8
100
AcDbHatch
 10
0.0
 20
0.0
 30
0.0
210
0.0
220
0.0
230
1.0
  2
_U
 70
     0
 71
     0
 91
        1
 92
        1
 93
       16
 72
     1
 10
2574.097778612651
 20
1299.247100905454
 11
2574.097778612651
 21
1299.197929322472
 72
     1
 10
2574.097778612651
 20
1299.197929322472
 11
2573.597778612651
 21
1299.197929322472
 72
     1
 10
2573.597778612651
 20
1299.197929322472
 11
2573.597778612652
 21
1297.247100905454
 72
     1
 10
2573.597778612652
 20
1297.247100905454
 11
2566.536887444337
 21
1297.247100905454
 72
     2
 10
2566.536887444337
 20
1296.747100905454
 40
0.5
 50
450.0
 51
540.0
 73
     1
 72
     1
 10
2566.036887444337
 20
1296.747100905454
 11
2566.036887444337
 21
1284.252752203885
 72
     2
 10
2562.036887444337
 20
1284.252752203884
 40
4.000000000000068
 50
0.0
 51
90.0
 73
     0
 72
     1
 10
2562.036887444337
 20
1280.252752203884
 11
2547.34777861266
 21
1280.252752203884
 72
     1
 10
2547.34777861266
 20
1280.252752203884
 11
2547.34777861266
 21
1282.252752203884
 72
     1
 10
2547.34777861266
 20
1282.252752203884
 11
2562.097778612651
 21
1282.252752203884
 72
     2
 10
2562.097778612651
 20
1284.252752203884
 40
1.999999999999999
 50
270.0
 51
360.0
 73
     1
 72
     1
 10
2564.097778612651
 20
1284.252752203884
 11
2564.097778612651
 21
1301.747100905453
 72
     1
 10
2564.097778612651
 20
1301.747100905454
 11
2566.097778612652
 21
1301.747100905454
 72
     1
 10
2566.097778612652
 20
1301.747100905454
 11
2566.097778612652
 21
1299.747100905454
 72
     2
 10
2566.59777861265
 20
1299.747100905454
 40
0.5
 50
540.0
 51
630.0
 73
     1
 72
     1
 10
2566.59777861265
 20
1299.247100905454
 11
2574.097778612651
 21
1299.247100905454
 97
        0
 75
     0
 76
     0
 52
44.99999999999999
 41
1.0
 77
     0
 78
     1
 53
45.0
 43
65.79566446974877
 44
146.7643441262128
 45
-0.7071067811865475
 46
0.7071067811865476
 79
     0
 98
        1
 10
2533.158669780966
 20
790.8314325623558
1001
ACME_LAYERS
1000
1
1001
ACAD
1010
0.0
1020
0.0
1030
0.0
  0
LINE
  5
2F07
330
1F
100
AcDbEntity
  8
P-0000
  6
Continuous
 62
     7
100
AcDbLine
 10
2594.097778612659
 20
1301.747100905454
 30
0.0
 11
2591.322075597788
 21
1301.747100905454
 31
0.0
1001
ACME_LAYERS
1000
1
  0
LINE
  5
2F08
330
1F
100
AcDbEntity
  8
P-0000
  6
Continuous
 62
     7
100
AcDbLine
 10
2574.635499069532
 20
1301.747100905454
 30
0.0
 11
2566.097778612652
 21
1301.747100905454
 31
0.0
1001
ACME_LAYERS
1000
1
  0
LINE
  5
2F09
330
1F
100
AcDbEntity
  8
P-0000
  6
Continuous
 62
     7
100
AcDbLine
 10
2592.543759606722
 20
1297.247100905454
 30
0.0
 11
2564.036887444337
 21
1280.788650588747
 31
0.0
1001
ACME_LAYERS
1000
1
  0
LINE
  5
2F0A
330
1F
100
AcDbEntity
  8
P-0000
  6
Continuous
 62
     7
100
AcDbLine
 10
2566.536887444337
 20
1297.247100905454
 30
0.0
 11
2573.597778612652
 21
1297.247100905454
 31
0.0
1001
ACME_LAYERS
1000
1
  0
LINE
  5
2F0B
330
1F
100
AcDbEntity
  8
P-0000
  6
Continuous
 62
     7
100
AcDbLine
 10
2574.097778612651
 20
1299.247100905454
 30
0.0
 11
2566.59777861265
 21
1299.247100905454
 31
0.0
1001
ACME_LAYERS
1000
1
  0
LINE
  5
2F0C
330
1F
100
AcDbEntity
  8
P-0000
  6
Continuous
 62
     7
100
AcDbLine
 10
2659.088018380932
 20
1301.747100905454
 30
0.0
 11
2594.097778612659
 21
1301.747100905454
 31
0.0
1001
ACME_LAYERS
1000
1
  0
LINE
  5
2F0D
330
1F
100
AcDbEntity
  8
P-0000
  6
Continuous
 62
     7
100
AcDbLine
 10
2659.088018380932
 20
1299.247100905454
 30
0.0
 11
2604.09777861265
 21
1299.247100905454
 31
0.0
1001
ACME_LAYERS
1000
1
  0
LINE
  5
2F0E
330
1F
100
AcDbEntity
  8
P-0000
  6
Continuous
 62
     7
100
AcDbLine
 10
2649.097778612643
 20
1297.247100905454
 30
0.0
 11
2598.097778612661
 21
1297.247100905454
 31
0.0
1001
ACME_LAYERS
1000
1
  0
LINE
  5
2F0F
330
1F
100
AcDbEntity
  8
P-0000
  6
Continuous
 62
     7
100
AcDbLine
 10
2649.097778612643
 20
1282.252752203884
 30
0.0
 11
2649.097778612643
 21
1297.247100905454
 31
0.0
1001
ACME_LAYERS
1000
1
  0
LINE
  5
2F10
330
1F
100
AcDbEntity
  8
P-0000
  6
Continuous
 62
     7
100
AcDbLine
 10
2657.597778612644
 20
1297.247100905454
 30
0.0
 11
2649.097778612643
 21
1297.247100905454
 31
0.0
1001
ACME_LAYERS
1000
1
  0
LINE
  5
2F11
330
1F
100
AcDbEntity
  8
P-0000
  6
Continuous
 62
     7
100
AcDbLine
 10
2658.088018380915
 20
1299.247100905454
 30
0.0
 11
2649.105762805115
 21
1299.247100905454
 31
0.0
1001
ACME_LAYERS
1000
1
  0
LINE
  5
2F12
330
1F
100
AcDbEntity
  8
P-0000
  6
Continuous
 62
     7
100
AcDbLine
 10
2659.088018380914
 20
1299.247100905454
 30
0.0
 11
2658.088018380915
 21
1299.247100905454
 31
0.0
1001
ACME_LAYERS
1000
1
  0
LINE
  5
2F13
330
1F
100
AcDbEntity
  8
P-0000
  6
Continuous
 62
     7
100
AcDbLine
 10
2659.088018380914
 20
1297.247100905454
 30
0.0
 11
2657.597778612644
 21
1297.247100905454
 31
0.0
1001
ACME_LAYERS
1000
1
  0
HATCH
  5
2F14
330
1F
100
AcDbEntity
  8
AM_8
100
AcDbHatch
 10
0.0
 20
0.0
 30
0.0
210
0.0
220
0.0
230
1.0
  2
_U
 70
     0
 71
     0
 91
        1
 92
        1
 93
       11
 72
     1
 10
2593.59777861266
 20
1299.247100905454
 11
2582.097778612652
 21
1299.247100905454
 72
     1
 10
2582.097778612652
 20
1299.247100905454
 11
2582.097778612652
 21
1297.247100905454
 72
     1
 10
2582.097778612652
 20
1297.247100905454
 11
2592.543759606722
 21
1297.247100905454
 72
     1
 10
2592.543759606722
 20
1297.247100905454
 11
2598.097778612661
 21
1297.247100905454
 72
     1
 10
2598.097778612661
 20
1297.247100905454
 11
2598.097778612661
 21
1299.247100905454
 72
     1
 10
2598.097778612661
 20
1299.247100905454
 11
2596.597778612661
 21
1299.247100905454
 72
     2
 10
2596.597778612661
 20
1299.747100905454
 40
0.5
 50
-270.0
 51
-180.0
 73
     0
 72
     1
 10
2596.097778612659
 20
1299.747100905454
 11
2596.097778612659
 21
1301.747100905454
 72
     1
 10
2596.097778612659
 20
1301.747100905454
 11
2594.097778612659
 21
1301.747100905454
 72
     1
 10
2594.097778612659
 20
1301.747100905454
 11
2594.097778612659
 21
1299.747100905454
 72
     2
 10
2593.59777861266
 20
1299.747100905454
 40
0.5
 50
0.0
 51
90.0
 73
     0
 97
        0
 75
     0
 76
     0
 52
44.99999999999999
 41
1.0
 77
     0
 78
     1
 53
45.0
 43
65.79566446974877
 44
146.7643441262128
 45
-0.7071067811865475
 46
0.7071067811865476
 79
     0
 98
        1
 10
2533.158669780966
 20
790.8314325623558
1001
ACME_LAYERS
1000
1
1001
ACAD
1010
0.0
1020
0.0
1030
0.0
  0
LINE
  5
2F15
330
1F
100
AcDbEntity
  8
P-0000
  6
Continuous
 62
     7
100
AcDbLine
 10
2593.59777861266
 20
1299.247100905454
 30
0.0
 11
2582.097778612652
 21
1299.247100905454
 31
0.0
1001
ACME_LAYERS
1000
1
  0
LINE
  5
2F16
330
1F
100
AcDbEntity
  8
P-0000
  6
Continuous
 62
     7
100
AcDbLine
 10
2598.097778612661
 20
1297.247100905454
 30
0.0
 11
2592.543759606722
 21
1297.247100905454
 31
0.0
1001
ACME_LAYERS
1000
1
  0
LINE
  5
2F17
330
1F
100
AcDbEntity
  8
P-0000
  6
Continuous
 62
     7
100
AcDbLine
 10
2604.09777861265
 20
1299.247100905454
 30
0.0
 11
2598.097778612661
 21
1299.247100905454
 31
0.0
1001
ACME_LAYERS
1000
1
  0
LINE
  5
2F18
330
1F
100
AcDbEntity
  8
P-0000
  6
Continuous
 62
     7
100
AcDbLine
 10
2598.097778612661
 20
1297.247100905454
 30
0.0
 11
2598.097778612661
 21
1299.247100905454
 31
0.0
1001
ACME_LAYERS
1000
1
  0
LINE
  5
2F19
330
1F
100
AcDbEntity
  8
P-0000
  6
Continuous
 62
     7
100
AcDbLine
 10
2598.097778612661
 20
1299.247100905454
 30
0.0
 11
2596.597778612661
 21
1299.247100905454
 31
0.0
1001
ACME_LAYERS
1000
1
  0
LINE
  5
2F1A
330
1F
100
AcDbEntity
  8
P-0000
  6
Continuous
 62
     7
100
AcDbLine
 10
2594.097778612659
 20
1299.747100905454
 30
0.0
 11
2594.097778612659
 21
1301.747100905454
 31
0.0
1001
ACME_LAYERS
1000
1
  0
LINE
  5
2F1B
330
1F
100
AcDbEntity
  8
P-0000
  6
Continuous
 62
     7
100
AcDbLine
 10
2596.097778612659
 20
1299.747100905454
 30
0.0
 11
2596.097778612659
 21
1301.747100905454
 31
0.0
1001
ACME_LAYERS
1000
1
  0
LINE
  5
2F1C
330
1F
100
AcDbEntity
  8
P-0000
  6
Continuous
 62
     7
100
AcDbLine
 10
2594.097778612659
 20
1301.747100905454
 30
0.0
 11
2596.097778612659
 21
1301.747100905454
 31
0.0
1001
ACME_LAYERS
1000
1
  0
ARC
  5
2F1D
330
1F
100
AcDbEntity
  8
P-0000
  6
Continuous
 62
     7
100
AcDbCircle
 10
2593.59777861266
 20
1299.747100905454
 30
0.0
 40
0.5
100
AcDbArc
 50
270.0
 51
0.0
1001
ACME_LAYERS
1000
1
  0
ARC
  5
2F1E
330
1F
100
AcDbEntity
  8
P-0000
  6
Continuous
 62
     7
100
AcDbCircle
 10
2596.597778612661
 20
1299.747100905454
 30
0.0
 40
0.5
100
AcDbArc
 50
180.0
 51
270.0
1001
ACME_LAYERS
1000
1
  0
LINE
  5
2F1F
330
1F
100
AcDbEntity
  8
P-0000
  6
Continuous
 62
     7
100
AcDbLine
 10
2578.386948007592
 20
1297.247100905454
 30
0.0
 11
2582.097778612652
 21
1297.247100905454
 31
0.0
1001
ACME_LAYERS
1000
1
  0
LINE
  5
2F20
330
1F
100
AcDbEntity
  8
P-0000
  6
Continuous
 62
     7
100
AcDbLine
 10
2582.097778612652
 20
1299.247100905454
 30
0.0
 11
2574.097778612651
 21
1299.247100905454
 31
0.0
1001
ACME_LAYERS
1000
1
  0
LINE
  5
2F21
330
1F
100
AcDbEntity
  8
P-0000
  6
Continuous
 62
     7
100
AcDbLine
 10
2582.097778612652
 20
1297.247100905454
 30
0.0
 11
2592.543759606722
 21
1297.247100905454
 31
0.0
1001
ACME_LAYERS
1000
1
  0
LINE
  5
2F22
330
1F
100
AcDbEntity
  8
P-0000
  6
Continuous
 62
     7
100
AcDbLine
 10
2582.097778612652
 20
1299.247100905454
 30
0.0
 11
2582.097778612652
 21
1297.247100905454
 31
0.0
1001
ACME_LAYERS
1000
1
  0
LINE
  5
2F23
330
1F
100
AcDbEntity
  8
P-0000
  6
Continuous
 62
     7
100
AcDbLine
 10
2576.588018380929
 20
1299.247100905454
 30
0.0
 11
2575.588018380929
 21
1299.247100905454
 31
0.0
1001
ACME_LAYERS
1000
1
  0
LINE
  5
2F24
330
1F
100
AcDbEntity
  8
P-0000
  6
Continuous
 62
     7
100
AcDbLine
 10
2576.588018380929
 20
1299.247100905454
 30
0.0
 11
2575.588018380929
 21
1299.247100905454
 31
0.0
1001
ACME_LAYERS
1000
1
  0
LINE
  5
2F25
330
1F
100
AcDbEntity
  8
P-0000
  6
Continuous
 62
     7
100
AcDbLine
 10
2537.34777861266
 20
1282.252752203884
 30
0.0
 11
2547.34777861266
 21
1282.252752203884
 31
0.0
1001
ACME_LAYERS
1000
1
  0
LINE
  5
2F26
330
1F
100
AcDbEntity
  8
P-0000
  6
Continuous
 62
     7
100
AcDbLine
 10
2566.036887444337
 20
1284.252752203884
 30
0.0
 11
2566.036887444337
 21
1296.747100905454
 31
0.0
1001
ACME_LAYERS
1000
1
  0
LINE
  5
2F27
330
1F
100
AcDbEntity
  8
P-0000
  6
Continuous
 62
     7
100
AcDbLine
 10
2564.097778612651
 20
1284.252752203884
 30
0.0
 11
2564.097778612651
 21
1299.247100905454
 31
0.0
1001
ACME_LAYERS
1000
1
  0
LINE
  5
2F28
330
1F
100
AcDbEntity
  8
P-0000
  6
Continuous
 62
     7
100
AcDbLine
 10
2554.286086815098
 20
1282.252752203884
 30
0.0
 11
2564.097778612651
 21
1299.247100905454
 31
0.0
1001
ACME_LAYERS
1000
1
  0
LINE
  5
2F29
330
1F
100
AcDbEntity
  8
P-0000
  6
Continuous
 62
     7
100
AcDbLine
 10
2564.097778612651
 20
1301.747100905454
 30
0.0
 11
2566.097778612652
 21
1301.747100905454
 31
0.0
1001
ACME_LAYERS
1000
1
  0
LINE
  5
2F2A
330
1F
100
AcDbEntity
  8
P-0000
  6
Continuous
 62
     7
100
AcDbLine
 10
2566.097778612652
 20
1301.747100905454
 30
0.0
 11
2566.097778612652
 21
1299.747100905454
 31
0.0
1001
ACME_LAYERS
1000
1
  0
ARC
  5
2F2B
330
1F
100
AcDbEntity
  8
P-0000
  6
Continuous
 62
     7
100
AcDbCircle
 10
2566.59777861265
 20
1299.747100905454
 30
0.0
 40
0.5
100
AcDbArc
 50
180.0
 51
270.0
1001
ACME_LAYERS
1000
1
  0
ARC
  5
2F2C
330
1F
100
AcDbEntity
  8
P-0000
  6
Continuous
 62
     7
100
AcDbCircle
 10
2566.536887444337
 20
1296.747100905454
 30
0.0
 40
0.5
100
AcDbArc
 50
90.0
 51
180.0
1001
ACME_LAYERS
1000
1
  0
LINE
  5
2F2D
330
1F
100
AcDbEntity
  8
P-0000
  6
Continuous
 62
     7
100
AcDbLine
 10
2564.097778612651
 20
1301.747100905454
 30
0.0
 11
2564.097778612651
 21
1299.247100905454
 31
0.0
1001
ACME_LAYERS
1000
1
  0
LINE
  5
2F2E
330
1F
100
AcDbEntity
  8
P-0000
  6
Continuous
 62
     7
100
AcDbLine
 10
2554.286086815098
 20
1282.252752203884
 30
0.0
 11
2562.097778612651
 21
1282.252752203884
 31
0.0
1001
ACME_LAYERS
1000
1
  0
ARC
  5
2F2F
330
1F
100
AcDbEntity
  8
P-0000
  6
Continuous
 62
     7
100
AcDbCircle
 10
2562.097778612651
 20
1284.252752203884
 30
0.0
 40
2.0
100
AcDbArc
 50
270.0
 51
0.0
1001
ACME_LAYERS
1000
1
  0
ARC
  5
2F30
330
1F
100
AcDbEntity
  8
P-0000
  6
Continuous
 62
     7
100
AcDbCircle
 10
2562.036887444337
 20
1284.252752203884
 30
0.0
 40
4.0
100
AcDbArc
 50
300.0000000000005
 51
0.0
1001
ACME_LAYERS
1000
1
  0
LINE
  5
2F31
330
1F
100
AcDbEntity
  8
P-0000
  6
Continuous
 62
     7
100
AcDbLine
 10
2547.34777861266
 20
1282.252752203884
 30
0.0
 11
2554.286086815098
 21
1282.252752203884
 31
0.0
1001
ACME_LAYERS
1000
1
  0
LINE
  5
2F32
330
1F
100
AcDbEntity
  8
P-0000
  6
Continuous
 62
     7
100
AcDbLine
 10
2547.34777861266
 20
1280.252752203884
 30
0.0
 11
2547.34777861266
 21
1282.252752203884
 31
0.0
1001
ACME_LAYERS
1000
1
  0
LINE
  5
2F33
330
1F
100
AcDbEntity
  8
AM_7
  6
AM_DIN_G_W050x2
100
AcDbLine
 10
2542.34777861266
 20
1274.252752203884
 30
0.0
 11
2542.34777861266
 21
1288.252752203884
 31
0.0
1001
ACME_LAYERS
1000
1
  0
HATCH
  5
2F34
330
1F
100
AcDbEntity
  8
P-0000
  6
Continuous
 62
     1
100
AcDbHatch
 10
0.0
 20
0.0
 30
0.0
210
0.0
220
0.0
230
1.0
  2
_U
 70
     0
 71
     0
 91
        1
 92
        1
 93
        4
 72
     1
 10
2532.347778612659
 20
1280.252752203884
 11
2537.34777861266
 21
1280.252752203884
 72
     1
 10
2537.34777861266
 20
1280.252752203884
 11
2537.34777861266
 21
1282.252752203884
 72
     1
 10
2537.34777861266
 20
1282.252752203884
 11
2532.347778612659
 21
1282.252752203884
 72
     1
 10
2532.347778612659
 20
1282.252752203884
 11
2532.347778612659
 21
1280.252752203884
 97
        0
 75
     0
 76
     0
 52
-45.0
 41
2.0
 77
     0
 78
     1
 53
225.0
 43
2533.158669780966
 44
790.8314325623558
 45
-1.414213562373094
 46
1.414213562373094
 79
     0
 98
        1
 10
2533.158669780966
 20
790.8314325623558
1001
ACME_LAYERS
1000
1
  0
LINE
  5
2F35
330
1F
100
AcDbEntity
  8
P-0000
  6
Continuous
 62
     7
100
AcDbLine
 10
2532.347778612659
 20
1282.252752203884
 30
0.0
 11
2537.34777861266
 21
1282.252752203884
 31
0.0
1001
ACME_LAYERS
1000
1
  0
LINE
  5
2F36
330
1F
100
AcDbEntity
  8
P-0000
  6
Continuous
 62
     7
100
AcDbLine
 10
2537.34777861266
 20
1280.252752203884
 30
0.0
 11
2537.34777861266
 21
1282.252752203884
 31
0.0
1001
ACME_LAYERS
1000
1
  0
LINE
  5
2F37
330
1F
100
AcDbEntity
  8
P-0000
  6
Continuous
 62
     7
100
AcDbLine
 10
2532.347778612659
 20
1280.252752203884
 30
0.0
 11
2532.347778612659
 21
1282.252752203884
 31
0.0
1001
ACME_LAYERS
1000
1
  0
LINE
  5
2F38
330
1F
100
AcDbEntity
  8
P-0000
  6
Continuous
 62
     7
100
AcDbLine
 10
2657.597778612652
 20
1341.197929322472
 30
0.0
 11
2657.597778612652
 21
1305.197929322472
 31
0.0
1001
ACME_LAYERS
1000
1
  0
LINE
  5
2F39
330
1F
100
AcDbEntity
  8
P-0000
  6
Continuous
 62
     7
100
AcDbLine
 10
2582.650108201673
 20
1323.767058521761
 30
0.0
 11
2581.671318985386
 21
1321.077857251612
 31
0.0
1001
ACME_LAYERS
1000
1
  0
LINE
  5
2F3A
330
1F
100
AcDbEntity
  8
P-0000
  6
Continuous
 62
     7
100
AcDbLine
 10
2591.322075597786
 20
1305.197929322472
 30
0.0
 11
2604.425004031373
 21
1341.197929322472
 31
0.0
1001
ACME_LAYERS
1000
1
  0
LINE
  5
2F3B
330
1F
100
AcDbEntity
  8
P-0000
  6
Continuous
 62
     7
100
AcDbLine
 10
2657.597778612652
 20
1347.167578422103
 30
0.0
 11
2606.597778612651
 21
1347.167578422103
 31
0.0
1001
ACME_LAYERS
1000
1
  0
LINE
  5
2F3C
330
1F
100
AcDbEntity
  8
P-0000
  6
Continuous
 62
     7
100
AcDbLine
 10
2657.597778612652
 20
1347.167578422103
 30
0.0
 11
2606.597778612651
 21
1347.167578422103
 31
0.0
1001
ACME_LAYERS
1000
1
  0
LINE
  5
2F3D
330
1F
100
AcDbEntity
  8
P-0000
  6
Continuous
 62
     7
100
AcDbLine
 10
2611.227785691102
 20
1379.197929322472
 30
0.0
 11
2618.255872933488
 21
1379.197929322472
 31
0.0
1001
ACME_LAYERS
1000
1
  0
LINE
  5
2F3E
330
1F
100
AcDbEntity
  8
P-0000
  6
Continuous
 62
     7
100
AcDbLine
 10
2605.597778612652
 20
1341.197929322472
 30
0.0
 11
2657.597778612652
 21
1341.197929322472
 31
0.0
1001
ACME_LAYERS
1000
1
  0
LINE
  5
2F3F
330
1F
100
AcDbEntity
  8
P-0000
  6
Continuous
 62
     7
100
AcDbLine
 10
2612.796319419494
 20
1364.197929322471
 30
0.0
 11
2654.993615556616
 21
1364.197929322471
 31
0.0
1001
ACME_LAYERS
1000
1
  0
LINE
  5
2F40
330
1F
100
AcDbEntity
  8
P-0000
  6
Continuous
 62
     7
100
AcDbLine
 10
2657.597778612652
 20
1364.197929322471
 30
0.0
 11
2657.597778612652
 21
1347.167578422103
 31
0.0
1001
ACME_LAYERS
1000
1
  0
LINE
  5
2F41
330
1F
100
AcDbEntity
  8
P-0000
  6
Continuous
 62
     7
100
AcDbLine
 10
2620.38422847844
 20
1379.197929322472
 30
0.0
 11
2654.993615556616
 21
1379.197929322472
 31
0.0
1001
ACME_LAYERS
1000
1
  0
LINE
  5
2F42
330
1F
100
AcDbEntity
  8
P-0000
  6
Continuous
 62
     7
100
AcDbLine
 10
2654.993615556616
 20
1379.197929322472
 30
0.0
 11
2654.993615556616
 21
1364.197929322471
 31
0.0
1001
ACME_LAYERS
1000
1
  0
LINE
  5
2F43
330
1F
100
AcDbEntity
  8
P-0000
  6
Continuous
 62
     7
100
AcDbLine
 10
2654.993615556616
 20
1379.197929322472
 30
0.0
 11
2659.097778612652
 21
1379.197929322472
 31
0.0
1001
ACME_LAYERS
1000
1
  0
LINE
  5
2F44
330
1F
100
AcDbEntity
  8
P-0000
  6
Continuous
 62
     7
100
AcDbLine
 10
2654.993615556616
 20
1364.197929322471
 30
0.0
 11
2657.597778612652
 21
1364.197929322471
 31
0.0
1001
ACME_LAYERS
1000
1
  0
LINE
  5
2F45
330
1F
100
AcDbEntity
  8
P-0000
  6
Continuous
 62
     7
100
AcDbLine
 10
2657.597778612652
 20
1364.197929322471
 30
0.0
 11
2659.097778612652
 21
1364.197929322471
 31
0.0
1001
ACME_LAYERS
1000
1
  0
HATCH
  5
2F46
330
1F
100
AcDbEntity
  8
P-0000
  6
Continuous
 62
     1
100
AcDbHatch
 10
0.0
 20
0.0
 30
0.0
210
0.0
220
0.0
230
1.0
  2
_U
 70
     0
 71
     0
 91
        1
 92
        1
 93
        5
 72
     1
 10
2616.799991996423
 20
1375.197929322472
 11
2618.255872933488
 21
1379.197929322472
 72
     1
 10
2618.255872933488
 20
1379.197929322472
 11
2620.38422847844
 21
1379.197929322472
 72
     1
 10
2620.38422847844
 20
1379.197929322472
 11
2619.167832623952
 21
1375.855909179146
 72
     2
 10
2618.228140003167
 20
1376.197929322471
 40
1.000000000000015
 50
20.00000000000311
 51
90.0
 73
     0
 72
     1
 10
2618.228140003167
 20
1375.197929322472
 11
2616.799991996423
 21
1375.197929322472
 97
        0
 75
     0
 76
     0
 52
44.99999999999999
 41
1.0
 77
     0
 78
     1
 53
45.0
 43
65.79566446974877
 44
146.7643441262128
 45
-0.7071067811865475
 46
0.7071067811865476
 79
     0
 98
        1
 10
2533.148909549246
 20
810.7190736541173
1001
ACME_LAYERS
1000
1
1001
ACAD
1010
0.0
1020
0.0
1030
0.0
  0
LINE
  5
2F47
330
1F
100
AcDbEntity
  8
P-0000
  6
Continuous
 62
     7
100
AcDbLine
 10
2619.167832623952
 20
1375.855909179146
 30
0.0
 11
2620.38422847844
 21
1379.197929322472
 31
0.0
1001
ACME_LAYERS
1000
1
  0
LINE
  5
2F48
330
1F
100
AcDbEntity
  8
P-0000
  6
Continuous
 62
     7
100
AcDbLine
 10
2616.799991996423
 20
1375.197929322472
 30
0.0
 11
2618.255872933488
 21
1379.197929322472
 31
0.0
1001
ACME_LAYERS
1000
1
  0
LINE
  5
2F49
330
1F
100
AcDbEntity
  8
P-0000
  6
Continuous
 62
     7
100
AcDbLine
 10
2618.255872933488
 20
1379.197929322472
 30
0.0
 11
2620.38422847844
 21
1379.197929322472
 31
0.0
1001
ACME_LAYERS
1000
1
  0
ARC
  5
2F4A
330
1F
100
AcDbEntity
  8
P-0000
  6
Continuous
 62
     7
100
AcDbCircle
 10
2618.228140003167
 20
1376.197929322471
 30
0.0
 40
1.000000000000015
100
AcDbArc
 50
270.0
 51
339.9999999999985
1001
ACME_LAYERS
1000
1
  0
ARC
  5
2F4B
330
1F
100
AcDbEntity
  8
P-0000
  6
Continuous
 62
     7
100
AcDbCircle
 10
2618.228140003167
 20
1376.197929322471
 30
0.0
 40
1.000000000000015
100
AcDbArc
 50
270.0
 51
339.9999999999985
1001
ACME_LAYERS
1000
1
  0
LINE
  5
2F4C
330
1F
100
AcDbEntity
  8
P-0000
  6
Continuous
 62
     7
100
AcDbLine
 10
2616.799991996423
 20
1375.197929322472
 30
0.0
 11
2618.228140003167
 21
1375.197929322472
 31
0.0
1001
ACME_LAYERS
1000
1
  0
LINE
  5
2F4D
330
1F
100
AcDbEntity
  8
P-0000
  6
Continuous
 62
     7
100
AcDbLine
 10
2659.097778612652
 20
1347.167578422103
 30
0.0
 11
2657.597778612652
 21
1347.167578422103
 31
0.0
1001
ACME_LAYERS
1000
1
  0
LINE
  5
2F4E
330
1F
100
AcDbEntity
  8
P-0000
  6
Continuous
 62
     7
100
AcDbLine
 10
2659.097778612652
 20
1347.167578422103
 30
0.0
 11
2657.597778612652
 21
1347.167578422103
 31
0.0
1001
ACME_LAYERS
1000
1
  0
LINE
  5
2F4F
330
1F
100
AcDbEntity
  8
P-0000
  6
Continuous
 62
     7
100
AcDbLine
 10
2657.597778612652
 20
1341.197929322472
 30
0.0
 11
2659.097778612652
 21
1341.197929322472
 31
0.0
1001
ACME_LAYERS
1000
1
  0
LINE
  5
2F50
330
1F
100
AcDbEntity
  8
P-0000
  6
Continuous
 62
     7
100
AcDbLine
 10
2599.951474241672
 20
1371.302171042379
 30
0.0
 11
2582.650108201673
 21
1323.767058521761
 31
0.0
1001
ACME_LAYERS
1000
1
  0
LINE
  5
2F51
330
1F
100
AcDbEntity
  8
P-0000
  6
Continuous
 62
     7
100
AcDbLine
 10
2606.597778612651
 20
1347.167578422103
 30
0.0
 11
2612.796319419494
 21
1364.197929322471
 31
0.0
1001
ACME_LAYERS
1000
1
  0
ARC
  5
2F52
330
1F
100
AcDbEntity
  8
P-0000
  6
Continuous
 62
     7
100
AcDbCircle
 10
2611.227785691102
 20
1367.197929322472
 30
0.0
 40
11.99999999999995
100
AcDbArc
 50
90.0
 51
160.0000000000108
1001
ACME_LAYERS
1000
1
  0
HATCH
  5
2F53
330
1F
100
AcDbEntity
  8
P-0000
  6
Continuous
 62
     3
100
AcDbHatch
 10
0.0
 20
0.0
 30
0.0
210
0.0
220
0.0
230
1.0
  2
_U
 70
     0
 71
     0
 91
        1
 92
        1
 93
        4
 72
     1
 10
2604.425004031373
 20
1341.197929322472
 11
2606.597778612651
 21
1347.167578422103
 72
     1
 10
2606.597778612651
 20
1347.167578422103
 11
2606.597778612651
 21
1342.197929322472
 72
     2
 10
2605.597778612652
 20
1342.197929322472
 40
1.0
 50
0.0
 51
90.0
 73
     0
 72
     1
 10
2605.597778612652
 20
1341.197929322472
 11
2604.425004031373
 21
1341.197929322472
 97
        0
 75
     0
 76
     0
 52
44.99999999999999
 41
1.0
 77
     0
 78
     1
 53
45.0
 43
65.79566446974877
 44
146.7643441262128
 45
-0.7071067811865475
 46
0.7071067811865476
 79
     0
 98
        1
 10
2533.148909549246
 20
810.7190736541173
1001
ACME_LAYERS
1000
1
1001
ACAD
1010
0.0
1020
0.0
1030
0.0
  0
LINE
  5
2F54
330
1F
100
AcDbEntity
  8
P-0000
  6
Continuous
 62
     7
100
AcDbLine
 10
2604.425004031373
 20
1341.197929322472
 30
0.0
 11
2605.597778612652
 21
1341.197929322472
 31
0.0
1001
ACME_LAYERS
1000
1
  0
LINE
  5
2F55
330
1F
100
AcDbEntity
  8
P-0000
  6
Continuous
 62
     7
100
AcDbLine
 10
2604.425004031373
 20
1341.197929322472
 30
0.0
 11
2606.597778612651
 21
1347.167578422103
 31
0.0
1001
ACME_LAYERS
1000
1
  0
LINE
  5
2F56
330
1F
100
AcDbEntity
  8
P-0000
  6
Continuous
 62
     7
100
AcDbLine
 10
2606.597778612651
 20
1342.197929322472
 30
0.0
 11
2606.597778612651
 21
1347.167578422103
 31
0.0
1001
ACME_LAYERS
1000
1
  0
LINE
  5
2F57
330
1F
100
AcDbEntity
  8
P-0000
  6
Continuous
 62
     7
100
AcDbLine
 10
2606.597778612651
 20
1342.197929322472
 30
0.0
 11
2606.597778612651
 21
1347.167578422103
 31
0.0
1001
ACME_LAYERS
1000
1
  0
ARC
  5
2F58
330
1F
100
AcDbEntity
  8
P-0000
  6
Continuous
 62
     7
100
AcDbCircle
 10
2605.597778612652
 20
1342.197929322472
 30
0.0
 40
1.0
100
AcDbArc
 50
270.0
 51
0.0
1001
ACME_LAYERS
1000
1
  0
ARC
  5
2F59
330
1F
100
AcDbEntity
  8
P-0000
  6
Continuous
 62
     7
100
AcDbCircle
 10
2605.597778612652
 20
1342.197929322472
 30
0.0
 40
1.0
100
AcDbArc
 50
270.0
 51
0.0
1001
ACME_LAYERS
1000
1
  0
LINE
  5
2F5A
330
1F
100
AcDbEntity
  8
P-0000
  6
Continuous
 62
     7
100
AcDbLine
 10
2657.597778612652
 20
1305.197929322472
 30
0.0
 11
2591.322075597786
 21
1305.197929322472
 31
0.0
1001
ACME_LAYERS
1000
1
  0
LINE
  5
2F5B
330
1F
100
AcDbEntity
  8
P-0000
  6
Continuous
 62
     7
100
AcDbLine
 10
2657.597778612652
 20
1305.197929322472
 30
0.0
 11
2591.322075597786
 21
1305.197929322472
 31
0.0
1001
ACME_LAYERS
1000
1
  0
LINE
  5
2F5C
330
1F
100
AcDbEntity
  8
P-0000
  6
Continuous
 62
     7
100
AcDbLine
 10
2657.597778612652
 20
1305.197929322472
 30
0.0
 11
2591.322075597786
 21
1305.197929322472
 31
0.0
1001
ACME_LAYERS
1000
1
  0
LINE
  5
2F5D
330
1F
100
AcDbEntity
  8
P-0000
  6
Continuous
 62
     7
100
AcDbLine
 10
2591.322075597786
 20
1299.197929322472
 30
0.0
 11
2657.597778612652
 21
1299.197929322472
 31
0.0
1001
ACME_LAYERS
1000
1
  0
LINE
  5
2F5E
330
1F
100
AcDbEntity
  8
P-0000
  6
Continuous
 62
     7
100
AcDbLine
 10
2659.097778612652
 20
1305.197929322472
 30
0.0
 11
2657.597778612652
 21
1305.197929322472
 31
0.0
1001
ACME_LAYERS
1000
1
  0
LINE
  5
2F5F
330
1F
100
AcDbEntity
  8
P-0000
  6
Continuous
 62
     7
100
AcDbLine
 10
2659.097778612652
 20
1305.197929322472
 30
0.0
 11
2657.597778612652
 21
1305.197929322472
 31
0.0
1001
ACME_LAYERS
1000
1
  0
LINE
  5
2F60
330
1F
100
AcDbEntity
  8
P-0000
  6
Continuous
 62
     7
100
AcDbLine
 10
2659.097778612652
 20
1305.197929322472
 30
0.0
 11
2657.597778612652
 21
1305.197929322472
 31
0.0
1001
ACME_LAYERS
1000
1
  0
LINE
  5
2F61
330
1F
100
AcDbEntity
  8
P-0000
  6
Continuous
 62
     7
100
AcDbLine
 10
2657.597778612652
 20
1299.197929322472
 30
0.0
 11
2659.097778612652
 21
1299.197929322472
 31
0.0
1001
ACME_LAYERS
1000
1
  0
LINE
  5
2F62
330
1F
100
AcDbEntity
  8
P-0000
  6
Continuous
 62
     7
100
AcDbLine
 10
2581.671318985386
 20
1321.077857251612
 30
0.0
 11
2574.097778612651
 21
1300.269726092195
 31
0.0
1001
ACME_LAYERS
1000
1
  0
LINE
  5
2F63
330
1F
100
AcDbEntity
  8
P-0000
  6
Continuous
 62
     7
100
AcDbLine
 10
2580.097778612651
 20
1299.197929322472
 30
0.0
 11
2588.322075597786
 21
1299.197929322472
 31
0.0
1001
ACME_LAYERS
1000
1
  0
LINE
  5
2F64
330
1F
100
AcDbEntity
  8
P-0000
  6
Continuous
 62
     7
100
AcDbLine
 10
2588.322075597786
 20
1299.197929322472
 30
0.0
 11
2588.322075597786
 21
1305.197929322472
 31
0.0
1001
ACME_LAYERS
1000
1
  0
LINE
  5
2F65
330
1F
100
AcDbEntity
  8
P-0000
  6
Continuous
 62
     7
100
AcDbLine
 10
2591.322075597786
 20
1299.197929322472
 30
0.0
 11
2591.322075597786
 21
1305.197929322472
 31
0.0
1001
ACME_LAYERS
1000
1
  0
LINE
  5
2F66
330
1F
100
AcDbEntity
  8
P-0000
  6
Continuous
 62
     7
100
AcDbLine
 10
2591.322075597786
 20
1305.197929322472
 30
0.0
 11
2588.322075597786
 21
1305.197929322472
 31
0.0
1001
ACME_LAYERS
1000
1
  0
LINE
  5
2F67
330
1F
100
AcDbEntity
  8
P-0000
  6
Continuous
 62
     7
100
AcDbLine
 10
2591.322075597786
 20
1305.197929322472
 30
0.0
 11
2588.322075597786
 21
1305.197929322472
 31
0.0
1001
ACME_LAYERS
1000
1
  0
LINE
  5
2F68
330
1F
100
AcDbEntity
  8
P-0000
  6
Continuous
 62
     7
100
AcDbLine
 10
2588.322075597786
 20
1299.197929322472
 30
0.0
 11
2591.322075597786
 21
1299.197929322472
 31
0.0
1001
ACME_LAYERS
1000
1
  0
LINE
  5
2F69
330
1F
100
AcDbEntity
  8
P-0000
  6
Continuous
 62
     7
100
AcDbLine
 10
2573.597778612651
 20
1296.997929322471
 30
0.0
 11
2573.597778612651
 21
1299.197929322472
 31
0.0
1001
ACME_LAYERS
1000
1
  0
LINE
  5
2F6A
330
1F
100
AcDbEntity
  8
P-0000
  6
Continuous
 62
     7
100
AcDbLine
 10
2574.8740088792
 20
1293.24136155368
 30
0.0
 11
2580.097778612651
 21
1299.197929322472
 31
0.0
1001
ACME_LAYERS
1000
1
  0
LINE
  5
2F6B
330
1F
100
AcDbEntity
  8
P-0000
  6
Continuous
 62
     7
100
AcDbLine
 10
2574.097778612651
 20
1299.197929322472
 30
0.0
 11
2574.097778612651
 21
1300.269726092195
 31
0.0
1001
ACME_LAYERS
1000
1
  0
LINE
  5
2F6C
330
1F
100
AcDbEntity
  8
P-0000
  6
Continuous
 62
     7
100
AcDbLine
 10
2573.597778612651
 20
1299.197929322472
 30
0.0
 11
2574.097778612651
 21
1299.197929322472
 31
0.0
1001
ACME_LAYERS
1000
1
  0
LINE
  5
2F6D
330
1F
100
AcDbEntity
  8
P-0000
  6
Continuous
 62
     7
100
AcDbLine
 10
2574.097778612651
 20
1299.197929322472
 30
0.0
 11
2574.097778612651
 21
1300.269726092195
 31
0.0
1001
ACME_LAYERS
1000
1
  0
LINE
  5
2F6E
330
1F
100
AcDbEntity
  8
P-0000
  6
Continuous
 62
     7
100
AcDbLine
 10
2572.397778612651
 20
1295.497929322471
 30
0.0
 11
2573.956605804724
 21
1293.300387551272
 31
0.0
1001
ACME_LAYERS
1000
1
  0
LINE
  5
2F6F
330
1F
100
AcDbEntity
  8
P-0000
  6
Continuous
 62
     7
100
AcDbLine
 10
2573.597778612651
 20
1296.997929322471
 30
0.0
 11
2572.397778612651
 21
1296.997929322471
 31
0.0
1001
ACME_LAYERS
1000
1
  0
LINE
  5
2F70
330
1F
100
AcDbEntity
  8
P-0000
  6
Continuous
 62
     7
100
AcDbLine
 10
2572.397778612651
 20
1296.997929322471
 30
0.0
 11
2572.397778612651
 21
1295.497929322471
 31
0.0
1001
ACME_LAYERS
1000
1
  0
ARC
  5
2F71
330
1F
100
AcDbEntity
  8
P-0000
  6
Continuous
 62
     7
100
AcDbCircle
 10
2574.445985606807
 20
1293.647529322472
 30
0.0
 40
0.6000000000000229
100
AcDbArc
 50
215.3499999999974
 51
270.0
1001
ACME_LAYERS
1000
1
  0
ARC
  5
2F72
330
1F
100
AcDbEntity
  8
P-0000
  6
Continuous
 62
     7
100
AcDbCircle
 10
2574.446212028747
 20
1293.616529322472
 30
0.0
 40
0.5689999999999894
100
AcDbArc
 50
270.0
 51
318.7499999999986
1001
ACME_LAYERS
1000
1
  0
LINE
  5
2F73
330
1F
100
AcDbEntity
  8
P-0000
  6
Continuous
 62
     7
100
AcDbLine
 10
2574.445985606807
 20
1293.047529322471
 30
0.0
 11
2574.446212028747
 21
1293.047529322471
 31
0.0
1001
ACME_LAYERS
1000
1
  0
HATCH
  5
2F74
330
1F
100
AcDbEntity
  8
AM_8
100
AcDbHatch
 10
0.0
 20
0.0
 30
0.0
210
0.0
220
0.0
230
1.0
  2
_U
 70
     0
 71
     0
 91
        1
 92
        1
 93
        4
 72
     1
 10
2588.322075597786
 20
1305.197929322472
 11
2591.322075597786
 21
1305.197929322472
 72
     1
 10
2591.322075597786
 20
1305.197929322472
 11
2591.322075597786
 21
1299.197929322472
 72
     1
 10
2591.322075597786
 20
1299.197929322472
 11
2588.322075597786
 21
1299.197929322472
 72
     1
 10
2588.322075597786
 20
1299.197929322472
 11
2588.322075597786
 21
1305.197929322472
 97
        0
 75
     0
 76
     0
 52
44.99999999999999
 41
1.0
 77
     0
 78
     1
 53
45.0
 43
65.79566446974877
 44
146.7643441262128
 45
-0.7071067811865475
 46
0.7071067811865476
 79
     0
 98
        1
 10
2831.688805848711
 20
1417.696012354451
1001
GENIUS_GENODEF_13
1002
{
1000
HIER
1070
     0
1002
}
1002
{
1000
MANEDIT
1070
     0
1002
}
1002
{
1000
NOSEL
1070
     0
1002
}
1002
{
1000
BEHIND
1070
     0
1002
}
1002
{
1000
OTHER
1070
     0
1002
}
1002
{
1000
REACTOR
1002
}
1001
GENIUS_GENOBJ-N-HTC_13
1002
{
1000
OWNER
1000
GEN
1002
}
1001
GENIUS_GENHATCH_13
1002
{
1000
DATA
1040
135.0
1042
-1.0
1000
_U
1070
     0
1011
2590.553098782339
1021
1299.65651636899
1031
0.0
1002
}
1002
{
1000
UCS
1010
0.0
1020
0.0
1030
0.0
1010
1.0
1020
0.0
1030
0.0
1010
0.0
1020
1.0
1030
0.0
1002
}
1001
ACAD
1010
0.0
1020
0.0
1030
0.0
  0
LINE
  5
2F75
330
1F
100
AcDbEntity
  8
P-0000
  6
Continuous
 62
     7
100
AcDbLine
 10
2584.862327204136
 20
1281.252752203881
 30
0.0
 11
2584.862327204136
 21
1279.752752203882
 31
0.0
1001
ACME_LAYERS
1000
1
  0
LINE
  5
2F76
330
1F
100
AcDbEntity
  8
P-0000
  6
Continuous
 62
     7
100
AcDbLine
 10
2567.862327204137
 20
1279.752752203882
 30
0.0
 11
2567.862327204137
 21
1281.252752203881
 31
0.0
1001
ACME_LAYERS
1000
1
  0
LINE
  5
2F77
330
1F
100
AcDbEntity
  8
P-0000
  6
Continuous
 62
     7
100
AcDbLine
 10
2584.862327204136
 20
1281.352752203881
 30
0.0
 11
2584.862327204136
 21
1281.252752203881
 31
0.0
1001
ACME_LAYERS
1000
1
  0
LINE
  5
2F78
330
1F
100
AcDbEntity
  8
P-0000
  6
Continuous
 62
     7
100
AcDbLine
 10
2567.862327204137
 20
1281.352752203881
 30
0.0
 11
2584.862327204136
 21
1281.352752203881
 31
0.0
1001
ACME_LAYERS
1000
1
  0
LINE
  5
2F79
330
1F
100
AcDbEntity
  8
P-0000
  6
Continuous
 62
     7
100
AcDbLine
 10
2567.862327204137
 20
1281.252752203881
 30
0.0
 11
2567.862327204137
 21
1281.352752203881
 31
0.0
1001
ACME_LAYERS
1000
1
  0
LINE
  5
2F7A
330
1F
100
AcDbEntity
  8
P-0000
  6
Continuous
 62
     7
100
AcDbLine
 10
2568.911075591251
 20
1283.239691395787
 30
0.0
 11
2568.911075591251
 21
1281.93330878748
 31
0.0
1001
ACME_LAYERS
1000
1
  0
LINE
  5
2F7B
330
1F
100
AcDbEntity
  8
P-0000
  6
Continuous
 62
     7
100
AcDbLine
 10
2582.916629090718
 20
1281.352752203881
 30
0.0
 11
2569.916629090716
 21
1281.352752203881
 31
0.0
1001
ACME_LAYERS
1000
1
  0
LINE
  5
2F7C
330
1F
100
AcDbEntity
  8
P-0000
  6
Continuous
 62
     7
100
AcDbLine
 10
2583.922182590181
 20
1283.239691395787
 30
0.0
 11
2583.922182590181
 21
1281.93330878748
 31
0.0
1001
ACME_LAYERS
1000
1
  0
LINE
  5
2F7D
330
1F
100
AcDbEntity
  8
P-0000
  6
Continuous
 62
     7
100
AcDbLine
 10
2572.663852340986
 20
1283.239691395787
 30
0.0
 11
2572.663852340986
 21
1281.93330878748
 31
0.0
1001
ACME_LAYERS
1000
1
  0
LINE
  5
2F7E
330
1F
100
AcDbEntity
  8
P-0000
  6
Continuous
 62
     7
100
AcDbLine
 10
2580.169405840448
 20
1283.239691395787
 30
0.0
 11
2580.169405840448
 21
1281.93330878748
 31
0.0
1001
ACME_LAYERS
1000
1
  0
LINE
  5
2F7F
330
1F
100
AcDbEntity
  8
P-0000
  6
Continuous
 62
     7
100
AcDbLine
 10
2569.157747179906
 20
1281.779895769515
 30
0.0
 11
2569.916629090716
 21
1281.352752203881
 31
0.0
1001
ACME_LAYERS
1000
1
  0
LINE
  5
2F80
330
1F
100
AcDbEntity
  8
P-0000
  6
Continuous
 62
     7
100
AcDbLine
 10
2583.675511001525
 20
1281.779895769515
 30
0.0
 11
2582.916629090718
 21
1281.352752203881
 31
0.0
1001
ACME_LAYERS
1000
1
  0
ARC
  5
2F81
330
1F
100
AcDbEntity
  8
P-0000
  6
Continuous
 62
     7
100
AcDbCircle
 10
2576.416629090719
 20
1293.772195620279
 30
0.0
 40
12.41944341639904
100
AcDbArc
 50
252.4120462260364
 51
287.5879537739637
1001
ACME_LAYERS
1000
1
  0
ARC
  5
2F82
330
1F
100
AcDbEntity
  8
P-0000
  6
Continuous
 62
     7
100
AcDbCircle
 10
2570.787463966118
 20
1284.675321776829
 30
0.0
 40
3.322569572950221
100
AcDbArc
 50
240.6266206051676
 51
304.3842474680243
1001
ACME_LAYERS
1000
1
  0
ARC
  5
2F83
330
1F
100
AcDbEntity
  8
P-0000
  6
Continuous
 62
     7
100
AcDbCircle
 10
2582.045794215313
 20
1284.675321776829
 30
0.0
 40
3.322569572950221
100
AcDbArc
 50
299.3733793948324
 51
304.3842474680243
1001
ACME_LAYERS
1000
1
  0
ARC
  5
2F84
330
1F
100
AcDbEntity
  8
P-0000
  6
Continuous
 62
     7
100
AcDbCircle
 10
2570.787463966118
 20
1284.675321776829
 30
0.0
 40
3.322569572949876
100
AcDbArc
 50
235.6157525319757
 51
240.6266206051676
1001
ACME_LAYERS
1000
1
  0
ARC
  5
2F85
330
1F
100
AcDbEntity
  8
P-0000
  6
Continuous
 62
     7
100
AcDbCircle
 10
2582.045794215313
 20
1284.675321776829
 30
0.0
 40
3.322569572949872
100
AcDbArc
 50
235.6157525319757
 51
299.3733793948324
1001
ACME_LAYERS
1000
1
  0
HATCH
  5
2F86
330
1F
100
AcDbEntity
  8
AM_8
100
AcDbHatch
 10
0.0
 20
0.0
 30
0.0
210
0.0
220
0.0
230
1.0
  2
_U
 70
     0
 71
     0
 91
        1
 92
        1
 93
        4
 72
     1
 10
2658.606507231513
 20
1379.197929322472
 11
2658.606507231513
 21
1364.197929322471
 72
     1
 10
2658.606507231513
 20
1364.197929322471
 11
2662.219398906415
 21
1364.197929322471
 72
     1
 10
2662.219398906415
 20
1364.197929322471
 11
2662.219398906415
 21
1379.197929322472
 72
     1
 10
2662.219398906415
 20
1379.197929322472
 11
2658.606507231513
 21
1379.197929322472
 97
        0
 75
     0
 76
     0
 52
45.0
 41
2.5
 77
     0
 78
     1
 53
45.0
 43
65.79566446974877
 44
146.7643441262128
 45
-1.767766952966368
 46
1.767766952966368
 79
     0
 98
        1
 10
65.79566446974877
 20
146.7643441262128
1001
GENIUS_GENOBJ-N-HTC_13
1002
{
1000
OWNER
1000
GEN
1002
}
1001
GENIUS_GENODEF_13
1002
{
1000
HIER
1070
     0
1002
}
1002
{
1000
MANEDIT
1070
     0
1002
}
1002
{
1000
NOSEL
1070
     0
1002
}
1002
{
1000
BEHIND
1070
     0
1002
}
1002
{
1000
OTHER
1070
     0
1002
}
1002
{
1000
REACTOR
1002
}
1001
GENIUS_GENHATCH_13
1002
{
1000
DATA
1040
45.0
1042
2.5
1000
_U
1070
     0
1011
2660.680486417565
1021
1373.475234277252
1031
0.0
1002
}
1002
{
1000
UCS
1010
0.0
1020
0.0
1030
0.0
1010
1.0
1020
0.0
1030
0.0
1010
0.0
1020
1.0
1030
0.0
1002
}
  0
HATCH
  5
2F87
330
1F
100
AcDbEntity
  8
AM_8
100
AcDbHatch
 10
0.0
 20
0.0
 30
0.0
210
0.0
220
0.0
230
1.0
  2
_U
 70
     0
 71
     0
 91
        1
 92
        1
 93
        4
 72
     1
 10
2654.993615556616
 20
1379.197929322472
 11
2654.993615556616
 21
1364.197929322471
 72
     1
 10
2654.993615556616
 20
1364.197929322471
 11
2658.606507231513
 21
1364.197929322471
 72
     1
 10
2658.606507231513
 20
1364.197929322471
 11
2658.606507231513
 21
1379.197929322472
 72
     1
 10
2658.606507231513
 20
1379.197929322472
 11
2654.993615556616
 21
1379.197929322472
 97
        0
 75
     0
 76
     0
 52
45.0
 41
2.5
 77
     0
 78
     1
 53
45.0
 43
65.79566446974877
 44
146.7643441262128
 45
-1.767766952966368
 46
1.767766952966368
 79
     0
 98
        1
 10
65.79566446974877
 20
146.7643441262128
1001
GENIUS_GENODEF_13
1002
{
1000
HIER
1070
     0
1002
}
1002
{
1000
MANEDIT
1070
     0
1002
}
1002
{
1000
NOSEL
1070
     0
1002
}
1002
{
1000
BEHIND
1070
     0
1002
}
1002
{
1000
OTHER
1070
     0
1002
}
1002
{
1000
REACTOR
1002
}
1001
GENIUS_GENOBJ-N-HTC_13
1002
{
1000
OWNER
1000
GEN
1002
}
1001
GENIUS_GENHATCH_13
1002
{
1000
DATA
1040
45.0
1042
2.5
1000
_U
1070
     0
1011
2657.855964232719
1021
1376.038643701989
1031
0.0
1002
}
1002
{
1000
UCS
1010
0.0
1020
0.0
1030
0.0
1010
1.0
1020
0.0
1030
0.0
1010
0.0
1020
1.0
1030
0.0
1002
}
  0
LINE
  5
2F8A
330
1F
100
AcDbEntity
  8
0
100
AcDbLine
 10
2693.76676126936
 20
893.0468322989382
 30
0.0
 11
2695.106507231519
 21
898.0468322989384
 31
0.0
  0
LINE
  5
2F8B
330
1F
100
AcDbEntity
  8
0
100
AcDbLine
 10
2623.446253193671
 20
893.0468322989382
 30
0.0
 11
2622.106507231515
 21
898.0468322989384
 31
0.0
  0
DIMENSION
  5
2F8C
102
{ACAD_XDICTIONARY
360
2F8D
102
}
102
{ACAD_REACTORS
330
2F8E
102
}
330
1F
100
AcDbEntity
  8
AM_5
100
AcDbDimension
  2
*D2
 10
2486.928455429458
 20
1263.046832298938
 30
0.0
 11
2481.428455429458
 21
1078.046832298938
 31
0.0
 70
    32
 71
     5
 42
369.9999999999996
  3
AM_DIN$0
100
AcDbAlignedDimension
 13
2658.606507231516
 23
893.0468322989382
 33
0.0
 14
2493.56299718955
 24
1263.046832298938
 34
0.0
 50
90.0
100
AcDbRotatedDimension
1001
ACAD_DSTYLE_DIMINSPECT
1070
   396
1000
100%
1070
   395
1000

1070
   394
1070
    33
1070
   393
1070
     0
1001
ACAD
1000
DSTYLE
1002
{
1070
    41
1040
5.0
1070
   140
1040
8.0
1070
   271
1070
     0
1002
}
  0
LINE
  5
30C3
330
1F
100
AcDbEntity
  8
P-0000
  6
Continuous
 62
     7
100
AcDbLine
 10
2695.066910987752
 20
1245.046832298956
 30
0.0
 11
2695.066910987752
 21
1133.046832298956
 31
0.0
1001
ACME_LAYERS
1000
1
  0
LINE
  5
30C4
330
1F
100
AcDbEntity
  8
P-0000
  6
Continuous
 62
     7
100
AcDbLine
 10
2622.066910987751
 20
1238.046832298957
 30
0.0
 11
2622.066910987753
 21
1133.046832298956
 31
0.0
1001
ACME_LAYERS
1000
1
  0
LINE
  5
30C5
330
1F
100
AcDbEntity
  8
P-0000
  6
Continuous
 62
     7
100
AcDbLine
 10
2622.066910987753
 20
1245.046832298956
 30
0.0
 11
2622.066910987751
 21
1238.046832298957
 31
0.0
1001
ACME_LAYERS
1000
1
  0
LINE
  5
30C6
330
1F
100
AcDbEntity
  8
P-0000
  6
Continuous
 62
     7
100
AcDbLine
 10
2695.066910987752
 20
1269.761925010847
 30
0.0
 11
2695.066910987752
 21
1267.761925010848
 31
0.0
1001
ACME_LAYERS
1000
1
  0
LINE
  5
30C7
330
1F
100
AcDbEntity
  8
P-0000
  6
Continuous
 62
     7
100
AcDbLine
 10
2695.066910987752
 20
1281.592569636249
 30
0.0
 11
2695.066910987752
 21
1273.931280385448
 31
0.0
1001
ACME_LAYERS
1000
1
  0
LINE
  5
30C9
330
1F
100
AcDbEntity
  8
P-0000
  6
Continuous
 62
     7
100
AcDbLine
 10
2658.606507231517
 20
1013.046832298956
 30
0.0
 11
2658.56691098775
 21
1013.046832298956
 31
0.0
1001
ACME_LAYERS
1000
1
  0
LINE
  5
30CF
330
1F
100
AcDbEntity
  8
P-0000
  6
Continuous
 62
     7
100
AcDbLine
 10
2695.066910987748
 20
1155.525647939241
 30
0.0
 11
2695.066910987748
 21
1177.52564793924
 31
0.0
1001
ACME_LAYERS
1000
1
  0
LINE
  5
30D0
330
1F
100
AcDbEntity
  8
P-0000
  6
Continuous
 62
     7
100
AcDbLine
 10
2622.066910987753
 20
1177.52564793924
 30
0.0
 11
2622.066910987747
 21
1155.525647939241
 31
0.0
1001
ACME_LAYERS
1000
1
  0
LINE
  5
30D1
330
1F
100
AcDbEntity
  8
P-0000
  6
STRICHPUNKT
 62
     3
100
AcDbLine
 10
2658.56691098775
 20
1177.52564793924
 30
0.0
 11
2658.566910987748
 21
1138.16542363657
 31
0.0
1001
ACME_LAYERS
1000
1
  0
LINE
  5
30D2
330
1F
100
AcDbEntity
  8
P-0000
  6
Continuous
 62
     7
100
AcDbLine
 10
2658.56691098775
 20
1283.525647939264
 30
0.0
 11
2658.56691098775
 21
1177.52564793924
 31
0.0
1001
ACME_LAYERS
1000
1
  0
LINE
  5
30D3
330
1F
100
AcDbEntity
  8
P-0000
  6
STRICHPUNKT
 62
     3
100
AcDbLine
 10
2658.56691098775
 20
1283.525647939264
 30
0.0
 11
2658.56691098775
 21
1177.52564793924
 31
0.0
1001
ACME_LAYERS
1000
1
  0
LINE
  5
30D4
330
1F
100
AcDbEntity
  8
P-0000
  6
Continuous
 62
     7
100
AcDbLine
 10
2658.56691098775
 20
1300.525647939258
 30
0.0
 11
2658.56691098775
 21
1283.525647939264
 31
0.0
1001
ACME_LAYERS
1000
1
  0
LINE
  5
30D5
330
1F
100
AcDbEntity
  8
P-0000
  6
STRICHPUNKT
 62
     3
100
AcDbLine
 10
2658.56691098775
 20
1300.525647939258
 30
0.0
 11
2658.56691098775
 21
1283.525647939264
 31
0.0
1001
ACME_LAYERS
1000
1
  0
LINE
  5
30D6
330
1F
100
AcDbEntity
  8
P-0000
  6
STRICHPUNKT
 62
     3
100
AcDbLine
 10
2658.566910987749
 20
1278.667525170294
 30
0.0
 11
2658.566910987749
 21
1278.211711811461
 31
0.0
1001
ACME_LAYERS
1000
1
  0
LINE
  5
30D7
330
1F
100
AcDbEntity
  8
P-0000
  6
Continuous
 62
     7
100
AcDbLine
 10
2695.06691098775
 20
1130.548810985078
 30
0.0
 11
2695.06691098775
 21
1025.548810985078
 31
0.0
1001
ACME_LAYERS
1000
1
  0
LINE
  5
30D8
330
1F
100
AcDbEntity
  8
P-0000
  6
Continuous
 62
     7
100
AcDbLine
 10
2622.066910987748
 20
1130.548810985078
 30
0.0
 11
2622.066910987749
 21
1025.548810985078
 31
0.0
1001
ACME_LAYERS
1000
1
  0
LINE
  5
30D9
330
1F
100
AcDbEntity
  8
P-0000
  6
STRICHPUNKT
 62
     3
100
AcDbLine
 10
2658.56691098775
 20
1130.548810985078
 30
0.0
 11
2658.56691098775
 21
1022.548810985078
 31
0.0
1001
ACME_LAYERS
1000
1
  0
LINE
  5
30DA
330
1F
100
AcDbEntity
  8
P-0000
  6
STRICHPUNKT
 62
     3
100
AcDbLine
 10
2658.56691098775
 20
1133.548810985078
 30
0.0
 11
2658.56691098775
 21
1130.548810985078
 31
0.0
1001
ACME_LAYERS
1000
1
  0
HATCH
  5
30DD
330
1F
100
AcDbEntity
  8
AM_8
100
AcDbHatch
 10
0.0
 20
0.0
 30
0.0
210
0.0
220
0.0
230
1.0
  2
ANSI37
 70
     0
 71
     0
 91
        2
 92
        5
 93
        4
 72
     1
 10
2747.56691098775
 20
1013.046832298956
 11
2747.56691098775
 21
1263.046832298956
 72
     1
 10
2747.56691098775
 20
1263.046832298956
 11
2696.06691098775
 21
1263.046832298956
 72
     1
 10
2696.06691098775
 20
1263.046832298956
 11
2696.06691098775
 21
1013.046832298956
 72
     1
 10
2696.06691098775
 20
1013.046832298956
 11
2747.56691098775
 21
1013.046832298956
 97
        0
 92
        1
 93
        6
 72
     2
 10
2618.606507231518
 20
1255.977873130287
 40
3.000000000000028
 50
34.90173146247664
 51
37.00000000005669
 73
     1
 72
     1
 10
2621.002413761658
 20
1257.783318199746
 11
2617.036071394424
 21
1263.046832298956
 72
     1
 10
2617.036071394424
 20
1263.046832298956
 11
2569.56691098775
 21
1263.046832298956
 72
     1
 10
2569.56691098775
 20
1263.046832298956
 11
2569.56691098775
 21
1013.046832298956
 72
     1
 10
2569.56691098775
 20
1013.046832298956
 11
2621.06691098775
 21
1013.046832298956
 72
     1
 10
2621.06691098775
 20
1013.046832298956
 11
2621.06691098775
 21
1257.694385104123
 97
        0
 75
     0
 76
     1
 52
-90.00000000000001
 41
3.0
 77
     0
 78
     2
 53
315.0
 43
2295.849281365979
 44
1426.015983209902
 45
6.735192090801866
 46
6.735192090801862
 79
     0
 53
44.99999999999999
 43
2295.849281365979
 44
1426.015983209902
 45
-6.735192090801862
 46
6.735192090801866
 79
     0
 47
0.4940700874395353
 98
        2
 10
2719.095807068148
 20
1150.789979699911
 10
2595.57828595233
 20
1132.996260870741
1001
ACAD
1010
0.0
1020
0.0
1030
0.0
  0
LINE
  5
30DE
330
1F
100
AcDbEntity
  8
P-0000
  6
Continuous
 62
     7
100
AcDbLine
 10
2568.56691098775
 20
1263.046832298956
 30
0.0
 11
2617.036071394425
 21
1263.046832298956
 31
0.0
1001
ACME_LAYERS
1000
1
  0
LINE
  5
30DF
330
1F
100
AcDbEntity
  8
P-0000
  6
Continuous
 62
     7
100
AcDbLine
 10
2621.06691098775
 20
1013.046832298956
 30
0.0
 11
2621.066910987749
 21
1257.694385104125
 31
0.0
1001
ACME_LAYERS
1000
1
  0
LINE
  5
30E1
330
1F
100
AcDbEntity
  8
P-0000
  6
Continuous
 62
     7
100
AcDbLine
 10
2569.56691098775
 20
1013.046832298956
 30
0.0
 11
2569.56691098775
 21
1263.046832298956
 31
0.0
1001
ACME_LAYERS
1000
1
  0
LINE
  5
30E2
330
1F
100
AcDbEntity
  8
P-0000
  6
STRICHPUNKT
 62
     3
100
AcDbLine
 10
2658.56691098775
 20
1268.313247115677
 30
0.0
 11
2658.56691098775
 21
1007.046832298956
 31
0.0
1001
ACME_LAYERS
1000
1
  0
LINE
  5
30E3
330
1F
100
AcDbEntity
  8
P-0000
  6
Continuous
 62
     7
100
AcDbLine
 10
2700.176943068609
 20
1263.046832298956
 30
0.0
 11
2748.566910987749
 21
1263.046832298956
 31
0.0
1001
ACME_LAYERS
1000
1
  0
LINE
  5
30E4
330
1F
100
AcDbEntity
  8
P-0000
  6
Continuous
 62
     7
100
AcDbLine
 10
2696.06691098775
 20
1257.355666060081
 30
0.0
 11
2696.06691098775
 21
1013.046832298956
 31
0.0
1001
ACME_LAYERS
1000
1
  0
LINE
  5
30E6
330
1F
100
AcDbEntity
  8
P-0000
  6
Continuous
 62
     7
100
AcDbLine
 10
2747.56691098775
 20
1263.046832298956
 30
0.0
 11
2747.56691098775
 21
1013.046832298956
 31
0.0
1001
ACME_LAYERS
1000
1
  0
LINE
  5
30E7
330
1F
100
AcDbEntity
  8
P-0000
  6
Continuous
 62
     7
100
AcDbLine
 10
2581.56691098775
 20
1263.046832298956
 30
0.0
 11
2614.56691098775
 21
1263.046832298956
 31
0.0
1001
ACME_LAYERS
1000
1
  0
LINE
  5
30E8
330
1F
100
AcDbEntity
  8
P-0000
  6
Continuous
 62
     7
100
AcDbLine
 10
2569.566910987749
 20
1013.046832298956
 30
0.0
 11
2622.106507231516
 21
1013.046832298956
 31
0.0
1001
ACME_LAYERS
1000
1
  0
LINE
  5
311B
330
1F
100
AcDbEntity
  8
P-0000
  6
Continuous
 62
     7
100
AcDbLine
 10
2658.56691098775
 20
1013.046832298956
 30
0.0
 11
2658.606507231517
 21
1013.046832298956
 31
0.0
1001
ACME_LAYERS
1000
1
  0
LINE
  5
311C
330
1F
100
AcDbEntity
  8
P-0000
  6
Continuous
 62
     7
100
AcDbLine
 10
2695.106507231518
 20
1013.046832298956
 30
0.0
 11
2747.56691098775
 21
1013.046832298956
 31
0.0
1001
ACME_LAYERS
1000
1
  0
LINE
  5
311D
330
1F
100
AcDbEntity
  8
P-0000
  6
Continuous
 62
     7
100
AcDbLine
 10
2658.56691098775
 20
1263.046832298956
 30
0.0
 11
2658.606507231517
 21
1263.046832298956
 31
0.0
1001
ACME_LAYERS
1000
1
  0
ENDSEC
  0
SECTION
  2
OBJECTS
  0
DICTIONARY
  5
C
330
0
100
AcDbDictionary
281
     1
  3
ACAD_2007HEADERVARS_RT
350
325A
  3
ACAD_COLOR
350
BE
  3
ACAD_GROUP
350
D
  3
ACAD_LAYOUT
350
1A
  3
ACAD_MATERIAL
350
BD
  3
ACAD_MLEADERSTYLE
350
3EF
  3
ACAD_MLINESTYLE
350
17
  3
ACAD_PLOTSETTINGS
350
19
  3
ACAD_PLOTSTYLENAME
350
E
  3
ACAD_SCALELIST
350
3DD
  3
ACAD_TABLESTYLE
350
11A
  3
ACAD_VISUALSTYLE
350
3CC
  3
ACDB_RECOMPOSE_DATA
350
2212
  3
AcDbVariableDictionary
350
94
  3
AcmDictionary
350
5B
  3
AcmSystemVariableManager
350
3266
  3
AEC_PROPERTY_SET_DEFS
350
942
  3
AMG
350
41
  3
AMGSNAPSETTINGS
350
26B
  3
DWGPROPS
350
3259
  0
DICTIONARY
  5
468
330
2
100
AcDbDictionary
280
     1
281
     1
  3
ACAD_LAYERSTATES
360
469
  3
AMLAYER_GROUPCOLORS
360
24B0
  0
DICTIONARY
  5
20EC
330
10
100
AcDbDictionary
280
     1
281
     1
  3
ADSK_XREC_LAYER_RECONCILED
360
20ED
  0
DICTIONARY
  5
459
330
458
100
AcDbDictionary
280
     1
281
     1
  3
ADSK_XREC_LAYER_RECONCILED
360
20EE
  0
DICTIONARY
  5
45C
330
45B
100
AcDbDictionary
280
     1
281
     1
  3
ADSK_XREC_LAYER_RECONCILED
360
20EF
  0
DICTIONARY
  5
45F
330
45E
100
AcDbDictionary
280
     1
281
     1
  3
ADSK_XREC_LAYER_RECONCILED
360
20F2
  0
DICTIONARY
  5
461
330
460
100
AcDbDictionary
280
     1
281
     1
  3
ADSK_XREC_LAYER_RECONCILED
360
20F3
  0
DICTIONARY
  5
EAE
330
EAD
100
AcDbDictionary
280
     1
281
     1
  3
ADSK_XREC_LAYER_RECONCILED
360
20F5
  0
DICTIONARY
  5
8F
330
1F
100
AcDbDictionary
280
     1
281
     1
  3
ACAD_SORTENTS
360
1DD7
  0
DICTIONARY
  5
2F8D
330
2F8C
100
AcDbDictionary
280
     1
281
     1
  3
ACAD_DIMASSOC
360
2F8E
  0
DICTIONARY
  5
325A
102
{ACAD_REACTORS
330
C
102
}
330
C
100
AcDbDictionary
281
     1
  3
DIMJOGANG
350
325B
  3
DIMLTEX1
350
325D
  3
DIMLTEX2
350
325E
  3
DIMLTYPE
350
325C
  0
DICTIONARY
  5
BE
102
{ACAD_REACTORS
330
C
102
}
330
C
100
AcDbDictionary
281
     1
  0
DICTIONARY
  5
D
102
{ACAD_REACTORS
330
C
102
}
330
C
100
AcDbDictionary
281
     1
  0
DICTIONARY
  5
1A
102
{ACAD_REACTORS
330
C
102
}
330
C
100
AcDbDictionary
281
     1
  3
Layout1
350
1E
  3
Layout2
350
26
  3
Model
350
22
  0
DICTIONARY
  5
BD
102
{ACAD_REACTORS
330
C
102
}
330
C
100
AcDbDictionary
281
     1
  3
ByBlock
350
3BC
  3
ByLayer
350
3B4
  3
Global
350
3C4
  0
DICTIONARY
  5
3EF
102
{ACAD_REACTORS
330
C
102
}
330
C
100
AcDbDictionary
281
     1
  3
Standard
350
3F0
  0
DICTIONARY
  5
17
102
{ACAD_REACTORS
330
C
102
}
330
C
100
AcDbDictionary
281
     1
  3
Standard
350
18
  0
DICTIONARY
  5
19
102
{ACAD_REACTORS
330
C
102
}
330
C
100
AcDbDictionary
281
     1
  0
ACDBDICTIONARYWDFLT
  5
E
102
{ACAD_REACTORS
330
C
102
}
330
C
100
AcDbDictionary
281
     1
  3
Normal
350
F
100
AcDbDictionaryWithDefault
340
F
  0
DICTIONARY
  5
3DD
102
{ACAD_REACTORS
330
C
102
}
330
C
100
AcDbDictionary
281
     1
  3
A0
350
3DE
  3
A1
350
3DF
  3
A2
350
3E0
  3
A3
350
3E1
  3
A4
350
3E2
  3
A5
350
3E3
  3
A6
350
3E4
  3
A7
350
3E5
  3
A8
350
3E6
  3
A9
350
3E7
  3
B0
350
3E8
  3
B1
350
3E9
  3
B2
350
3EA
  3
B3
350
3EB
  3
B4
350
3EC
  3
B5
350
3ED
  3
B6
350
3EE
  0
DICTIONARY
  5
11A
102
{ACAD_REACTORS
330
C
102
}
330
C
100
AcDbDictionary
281
     1
  3
Standard
350
11B
  0
DICTIONARY
  5
3CC
102
{ACAD_REACTORS
330
C
102
}
330
C
100
AcDbDictionary
281
     1
  3
2dWireframe
350
3D2
  3
3D Hidden
350
3D4
  3
3dWireframe
350
3D3
  3
Basic
350
3D1
  3
Brighten
350
3D8
  3
ColorChange
350
3DC
  3
Conceptual
350
3D5
  3
Dim
350
3D7
  3
Facepattern
350
3DB
  3
Flat
350
3CD
  3
FlatWithEdges
350
3CE
  3
Gouraud
350
3CF
  3
GouraudWithEdges
350
3D0
  3
Linepattern
350
3DA
  3
Realistic
350
3D6
  3
Thicken
350
3D9
  0
XRECORD
  5
2212
102
{ACAD_REACTORS
330
C
102
}
330
C
100
AcDbXrecord
280
     1
 90
        1
330
11B
  0
DICTIONARY
  5
94
102
{ACAD_REACTORS
330
C
102
}
330
C
100
AcDbDictionary
281
     1
  3
CANNOSCALE
350
220E
  3
CMLEADERSTYLE
350
220D
  3
CTABLESTYLE
350
138
  3
DIMASSOC
350
96
  3
INDEXCTL
350
95
  3
SORTENTS
350
220F
  0
DICTIONARY
  5
5B
102
{ACAD_REACTORS
330
C
102
}
330
C
100
AcDbDictionary
281
     1
  3
AcmBOM
350
272
  3
AcmStdDictionary
350
61
  3
AMDTSECTSYM_ARROWCOLOR
350
123
  0
DICTIONARY
  5
942
102
{ACAD_REACTORS
330
C
102
}
330
C
100
AcDbDictionary
281
     1
  0
DICTIONARY
  5
41
102
{ACAD_REACTORS
330
C
102
}
330
C
100
AcDbDictionary
281
     1
  0
DICTIONARY
  5
26B
102
{ACAD_REACTORS
330
C
102
}
330
C
100
AcDbDictionary
281
     1
  0
XRECORD
  5
3259
102
{ACAD_REACTORS
330
C
102
}
330
C
100
AcDbXrecord
280
     1
  1
DWGPROPS COOKIE
  2

  3

  4

  6

  7

  8
jamoeller
  9

300
AmdtFileType=84
301
=
302
=
303
=
304
=
305
=
306
=
307
=
308
=
309
=
 40
0.2414802662037037
 41
2455477.292545521
 42
2455610.331726852
  1

 90
        1
  0
DICTIONARY
  5
469
102
{ACAD_REACTORS
330
468
102
}
330
468
100
AcDbDictionary
281
     1
  0
DICTIONARY
  5
24B0
102
{ACAD_REACTORS
330
468
102
}
330
468
100
AcDbDictionary
280
     1
281
     1
  0
XRECORD
  5
20ED
102
{ACAD_REACTORS
330
20EC
102
}
330
20EC
100
AcDbXrecord
280
     1
290
     1
  0
XRECORD
  5
20EE
102
{ACAD_REACTORS
330
459
102
}
330
459
100
AcDbXrecord
280
     1
290
     1
  0
XRECORD
  5
20EF
102
{ACAD_REACTORS
330
45C
102
}
330
45C
100
AcDbXrecord
280
     1
290
     1
  0
XRECORD
  5
20F2
102
{ACAD_REACTORS
330
45F
102
}
330
45F
100
AcDbXrecord
280
     1
290
     1
  0
XRECORD
  5
20F3
102
{ACAD_REACTORS
330
461
102
}
330
461
100
AcDbXrecord
280
     1
290
     1
  0
XRECORD
  5
20F5
102
{ACAD_REACTORS
330
EAE
102
}
330
EAE
100
AcDbXrecord
280
     1
290
     1
  0
SORTENTSTABLE
  5
1DD7
102
{ACAD_REACTORS
330
8F
102
}
330
8F
100
AcDbSortentsTable
330
1F
331
2F25
  5
2F25
331
2F5C
  5
2F5C
331
2EE6
  5
2EE6
331
30D3
  5
30D3
331
2EEE
  5
2EEE
331
2F64
  5
2F64
331
2CC0
  5
2CC0
331
2DA3
  5
2DA3
331
2D64
  5
2D64
331
2D49
  5
2D49
331
2E1B
  5
2E1B
331
2E5A
  5
2E5A
331
2C95
  5
2C95
331
2CC8
  5
2CC8
331
2D07
  5
2D07
331
2DDC
  5
2DDC
331
2E99
  5
2E99
331
2DAB
  5
2DAB
331
2D12
  5
2D12
331
2D6C
  5
2D6C
331
2D51
  5
2D51
331
2EA1
  5
2EA1
331
2E23
  5
2E23
331
2E62
  5
2E62
331
2C9D
  5
2C9D
331
2D59
  5
2D59
331
2CD0
  5
2CD0
331
2D74
  5
2D74
331
2DB3
  5
2DB3
331
2D1A
  5
2D1A
331
30DF
  5
30E2
331
2DE4
  5
2DE4
331
2EA9
  5
2EA9
331
2DEC
  5
2DEC
331
2E2B
  5
2E2B
331
2C66
  5
2C66
331
2D22
  5
2D22
331
2D7C
  5
2D7C
331
2CD8
  5
2CD8
331
2CA5
  5
2CA5
331
2E6A
  5
2E6A
331
2E72
  5
2E72
331
2DF4
  5
2DF4
331
2F6C
  5
2F6C
331
30E3
  5
30E7
331
2EB7
  5
2EB7
331
2EF6
  5
2EF6
331
2F2D
  5
2F2D
331
2F74
  5
2F74
331
2EBF
  5
2EBF
331
2EFE
  5
2EFE
331
2F35
  5
2F35
331
2F3D
  5
2F3D
331
2F7C
  5
2F7C
331
2EC7
  5
2EC7
331
2F06
  5
2F06
331
311B
  5
311E
331
2F0E
  5
2F0E
331
2F45
  5
2F45
331
2ECF
  5
2ECF
331
2F84
  5
2F84
331
2CE0
  5
2CE0
331
2D2A
  5
2D2A
331
2D84
  5
2D84
331
2E33
  5
2E33
331
2E7A
  5
2E7A
331
2DBD
  5
2DBD
331
2DFC
  5
2DFC
331
2CE8
  5
2CE8
331
2D32
  5
2D32
331
2D8C
  5
2D8C
331
2CA9
  5
2CA9
331
2C76
  5
2C76
331
2E3B
  5
2E3B
331
2E82
  5
2E82
331
2C7E
  5
2C7E
331
2CB1
  5
2CB1
331
2D94
  5
2D94
331
2D3A
  5
2D3A
331
2E04
  5
2E04
331
2E0C
  5
2E0C
331
2E4B
  5
2E4B
331
2C86
  5
2C86
331
2D42
  5
2D42
331
2CB9
  5
2CB9
331
2D9C
  5
2D9C
331
2F8B
  5
2F8B
331
2CF8
  5
2CF8
331
2DCD
  5
2DCD
331
2E8A
  5
2E8A
331
2E92
  5
2E92
331
2DD5
  5
2DD5
331
2E14
  5
2E14
331
2C8E
  5
2C8E
331
2E53
  5
2E53
331
30C4
  5
30C4
331
2F16
  5
2F16
331
2F4D
  5
2F4D
331
2ED7
  5
2ED7
331
2EDF
  5
2EDF
331
2F1E
  5
2F1E
331
2F55
  5
2F55
331
2F5D
  5
2F5D
331
30D4
  5
30D4
331
2EE7
  5
2EE7
331
2F26
  5
2F26
331
2F65
  5
2F65
331
2EEF
  5
2EEF
331
2D4A
  5
2D4A
331
2D65
  5
2D65
331
2DA4
  5
2DA4
331
2CC1
  5
2CC1
331
2D00
  5
2D00
331
2E9A
  5
2E9A
331
2DDD
  5
2DDD
331
2E1C
  5
2E1C
331
30D8
  5
30D8
331
2D52
  5
2D52
331
2D6D
  5
2D6D
331
2DAC
  5
2DAC
331
2CC9
  5
2CC9
331
2C96
  5
2C96
331
2E5B
  5
2E5B
331
2E63
  5
2E63
331
2EA2
  5
2EA2
331
2C9E
  5
2C9E
331
2CD1
  5
2CD1
331
2D08
  5
2D08
331
2DE5
  5
2DE5
331
2DB4
  5
2DB4
331
2D1B
  5
2D1B
331
2D75
  5
2D75
331
2D5A
  5
2D5A
331
2E24
  5
2E24
331
2E2C
  5
2E2C
331
2E6B
  5
2E6B
331
2C67
  5
2C67
331
2CD9
  5
2CD9
331
2CA6
  5
2CA6
331
2D23
  5
2D23
331
2DED
  5
2DED
331
2EAA
  5
2EAA
331
2D7D
  5
2D7D
331
2E73
  5
2E73
331
2C6F
  5
2C6F
331
2DF5
  5
2DF5
331
2EB0
  5
2EB0
331
2F2E
  5
2F2E
331
2F6D
  5
2F6D
331
2EB8
  5
2EB8
331
2EF7
  5
2EF7
331
30E4
  5
30E8
331
2EFF
  5
2EFF
331
2F36
  5
2F36
331
2EC0
  5
2EC0
331
2F75
  5
2F75
331
2F7D
  5
2F7D
331
311C
  5
3124
331
2EC8
  5
2EC8
331
2F07
  5
2F07
331
2F3E
  5
2F3E
331
2F85
  5
2F85
331
2F0F
  5
2F0F
331
2F46
  5
2F46
331
2CE1
  5
2CE1
331
2D85
  5
2D85
331
2D2B
  5
2D2B
331
2DFD
  5
2DFD
331
2E34
  5
2E34
331
2C77
  5
2C77
331
2D33
  5
2D33
331
2D8D
  5
2D8D
331
2CAA
  5
2CAA
331
2CE9
  5
2CE9
331
2DBE
  5
2DBE
331
2E7B
  5
2E7B
331
2E83
  5
2E83
331
2E05
  5
2E05
331
2D3B
  5
2D3B
331
2CB2
  5
2CB2
331
2C7F
  5
2C7F
331
2E3C
  5
2E3C
331
2D95
  5
2D95
331
2E44
  5
2E44
331
2E4C
  5
2E4C
331
2E8B
  5
2E8B
331
2E0D
  5
2E0D
331
2F8C
  5
2F8C
331
2D43
  5
2D43
331
2D9D
  5
2D9D
331
2CBA
  5
2CBA
331
2C87
  5
2C87
331
2E54
  5
2E54
331
2E93
  5
2E93
331
2C8F
  5
2C8F
331
2DD6
  5
2DD6
331
2E15
  5
2E15
331
2ED0
  5
2ED0
331
2F4E
  5
2F4E
331
30C5
  5
30C5
331
2ED8
  5
2ED8
331
2F17
  5
2F17
331
2F1F
  5
2F1F
331
2F56
  5
2F56
331
2EE0
  5
2EE0
331
30D5
  5
30D5
331
2F27
  5
2F27
331
2F5E
  5
2F5E
331
2EE8
  5
2EE8
331
2F66
  5
2F66
331
2CC2
  5
2CC2
331
2D01
  5
2D01
331
2DA5
  5
2DA5
331
2D66
  5
2D66
331
2D4B
  5
2D4B
331
2E1D
  5
2E1D
331
2E5C
  5
2E5C
331
2C97
  5
2C97
331
2D53
  5
2D53
331
2CCA
  5
2CCA
331
2DAD
  5
2DAD
331
2D14
  5
2D14
331
30D9
  5
30D9
331
2DDE
  5
2DDE
331
2E9B
  5
2E9B
331
2EA3
  5
2EA3
331
2DE6
  5
2DE6
331
2E25
  5
2E25
331
2C9F
  5
2C9F
331
2E64
  5
2E64
331
2D5B
  5
2D5B
331
2CD2
  5
2CD2
331
2D76
  5
2D76
331
2DB5
  5
2DB5
331
2D1C
  5
2D1C
331
2D09
  5
2D09
331
2EAB
  5
2EAB
331
2DEE
  5
2DEE
331
2E2D
  5
2E2D
331
2C68
  5
2C68
331
2D24
  5
2D24
331
2D7E
  5
2D7E
331
2CDA
  5
2CDA
331
2CA7
  5
2CA7
331
2E6C
  5
2E6C
331
2E74
  5
2E74
331
2DF6
  5
2DF6
331
2EF0
  5
2EF0
331
2EB1
  5
2EB1
331
2F6E
  5
2F6E
331
2EB9
  5
2EB9
331
2EF8
  5
2EF8
331
2F2F
  5
2F2F
331
2F37
  5
2F37
331
2F76
  5
2F76
331
2EC1
  5
2EC1
331
2F00
  5
2F00
331
2F3F
  5
2F3F
331
2F7E
  5
2F7E
331
2EC9
  5
2EC9
331
2F08
  5
2F08
331
311D
  5
30DF
331
2F47
  5
2F47
331
2F86
  5
2F86
331
2CE2
  5
2CE2
331
2D2C
  5
2D2C
331
2D86
  5
2D86
331
2C70
  5
2C70
331
2E35
  5
2E35
331
2E7C
  5
2E7C
331
2C78
  5
2C78
331
2CEA
  5
2CEA
331
2DBF
  5
2DBF
331
2DFE
  5
2DFE
331
2D34
  5
2D34
331
2D8E
  5
2D8E
331
2CAB
  5
2CAB
331
2E3D
  5
2E3D
331
2E84
  5
2E84
331
2C80
  5
2C80
331
2CB3
  5
2CB3
331
2D96
  5
2D96
331
2E45
  5
2E45
331
2D3C
  5
2D3C
331
2E06
  5
2E06
331
2E0E
  5
2E0E
331
2E4D
  5
2E4D
331
2C88
  5
2C88
331
2D44
  5
2D44
331
2D9E
  5
2D9E
331
2CBB
  5
2CBB
331
2CFA
  5
2CFA
331
2DCF
  5
2DCF
331
2E8C
  5
2E8C
331
2E94
  5
2E94
331
2DD7
  5
2DD7
331
2E16
  5
2E16
331
2E55
  5
2E55
331
2F10
  5
2F10
331
2ED1
  5
2ED1
331
30C6
  5
30C6
331
2ED9
  5
2ED9
331
2F18
  5
2F18
331
2F4F
  5
2F4F
331
2EE1
  5
2EE1
331
2F20
  5
2F20
331
2F57
  5
2F57
331
2F5F
  5
2F5F
331
2EE9
  5
2EE9
331
30D6
  5
30D6
331
2F67
  5
2F67
331
2D02
  5
2D02
331
2D4C
  5
2D4C
331
2D67
  5
2D67
331
2DA6
  5
2DA6
331
2CC3
  5
2CC3
331
2C90
  5
2C90
331
2E5D
  5
2E5D
331
2E9C
  5
2E9C
331
2E1E
  5
2E1E
331
30DA
  5
30DA
331
2D15
  5
2D15
331
2D54
  5
2D54
331
2D6F
  5
2D6F
331
2DAE
  5
2DAE
331
2CCB
  5
2CCB
331
2C98
  5
2C98
331
2E65
  5
2E65
331
2EA4
  5
2EA4
331
2CA0
  5
2CA0
331
2CD3
  5
2CD3
331
2DE7
  5
2DE7
331
2DB6
  5
2DB6
331
2D1D
  5
2D1D
331
2D77
  5
2D77
331
2D5C
  5
2D5C
331
2E26
  5
2E26
331
2E2E
  5
2E2E
331
2E6D
  5
2E6D
331
2C69
  5
2C69
331
2CDB
  5
2CDB
331
2D25
  5
2D25
331
2DEF
  5
2DEF
331
2EAC
  5
2EAC
331
2D7F
  5
2D7F
331
2DF7
  5
2DF7
331
2E75
  5
2E75
331
2F28
  5
2F28
331
2EB2
  5
2EB2
331
2EF1
  5
2EF1
331
30E6
  5
311B
331
2F30
  5
2F30
331
2F6F
  5
2F6F
331
2EBA
  5
2EBA
331
2EF9
  5
2EF9
331
2F01
  5
2F01
331
2F38
  5
2F38
331
2EC2
  5
2EC2
331
2F77
  5
2F77
331
2F7F
  5
2F7F
331
2ECA
  5
2ECA
331
2F09
  5
2F09
331
2F40
  5
2F40
331
2F87
  5
2F87
331
2C71
  5
2C71
331
2CE3
  5
2CE3
331
2DB8
  5
2DB8
331
2D87
  5
2D87
331
2D2D
  5
2D2D
331
2DFF
  5
2DFF
331
2E36
  5
2E36
331
2C79
  5
2C79
331
2D35
  5
2D35
331
2D8F
  5
2D8F
331
2CAC
  5
2CAC
331
2CEB
  5
2CEB
331
2DC0
  5
2DC0
331
2E7D
  5
2E7D
331
2E85
  5
2E85
331
2E07
  5
2E07
331
2E46
  5
2E46
331
2D3D
  5
2D3D
331
2D97
  5
2D97
331
2CB4
  5
2CB4
331
2C81
  5
2C81
331
2E3E
  5
2E3E
331
2E4E
  5
2E4E
331
2E8D
  5
2E8D
331
2C89
  5
2C89
331
2CFB
  5
2CFB
331
2DD0
  5
2DD0
331
2E0F
  5
2E0F
331
2D45
  5
2D45
331
2D9F
  5
2D9F
331
2CBC
  5
2CBC
331
2E56
  5
2E56
331
2E95
  5
2E95
331
2E17
  5
2E17
331
2F48
  5
2F48
331
2ED2
  5
2ED2
331
2F11
  5
2F11
331
2F50
  5
2F50
331
30C7
  5
30C7
331
2EDA
  5
2EDA
331
2F19
  5
2F19
331
2F21
  5
2F21
331
2F58
  5
2F58
331
2EE2
  5
2EE2
331
30CF
  5
30CF
331
30D7
  5
30D7
331
2EEA
  5
2EEA
331
2F60
  5
2F60
331
2D60
  5
2D60
331
2C91
  5
2C91
331
2CC4
  5
2CC4
331
2D03
  5
2D03
331
2DD8
  5
2DD8
331
2DA7
  5
2DA7
331
2D68
  5
2D68
331
2D4D
  5
2D4D
331
2E1F
  5
2E1F
331
2E5E
  5
2E5E
331
2D55
  5
2D55
331
2CCC
  5
2CCC
331
2C99
  5
2C99
331
2D70
  5
2D70
331
2DAF
  5
2DAF
331
2D16
  5
2D16
331
2E9D
  5
2E9D
331
2EA5
  5
2EA5
331
2DE8
  5
2DE8
331
2E27
  5
2E27
331
2C62
  5
2C62
331
2D5D
  5
2D5D
331
2CD4
  5
2CD4
331
2CA1
  5
2CA1
331
2E66
  5
2E66
331
2D78
  5
2D78
331
2DB7
  5
2DB7
331
2E6E
  5
2E6E
331
2EAD
  5
2EAD
331
2DF0
  5
2DF0
331
2C6A
  5
2C6A
331
2E2F
  5
2E2F
331
2D26
  5
2D26
331
2CDC
  5
2CDC
331
2E76
  5
2E76
331
2EF2
  5
2EF2
331
2F29
  5
2F29
331
2EB3
  5
2EB3
331
2F68
  5
2F68
331
2F70
  5
2F70
331
30E7
  5
311C
331
2EBB
  5
2EBB
331
2EFA
  5
2EFA
331
2F31
  5
2F31
331
2F39
  5
2F39
331
2F78
  5
2F78
331
2EC3
  5
2EC3
331
2F02
  5
2F02
331
2F41
  5
2F41
331
2F80
  5
2F80
331
2ECB
  5
2ECB
331
2F0A
  5
2F0A
331
2D80
  5
2D80
331
2DB9
  5
2DB9
331
2DF8
  5
2DF8
331
2CE4
  5
2CE4
331
2D2E
  5
2D2E
331
2D88
  5
2D88
331
2C72
  5
2C72
331
2E37
  5
2E37
331
2E7E
  5
2E7E
331
2C7A
  5
2C7A
331
2CAD
  5
2CAD
331
2CEC
  5
2CEC
331
2DC1
  5
2DC1
331
2D36
  5
2D36
331
2E00
  5
2E00
331
2D90
  5
2D90
331
2E08
  5
2E08
331
2E3F
  5
2E3F
331
2C82
  5
2C82
331
2CB5
  5
2CB5
331
2E86
  5
2E86
331
2D98
  5
2D98
331
2E47
  5
2E47
331
2D3E
  5
2D3E
331
2E10
  5
2E10
331
2E4F
  5
2E4F
331
2C8A
  5
2C8A
331
2D46
  5
2D46
331
2CBD
  5
2CBD
331
2CFC
  5
2CFC
331
2DD1
  5
2DD1
331
2E8E
  5
2E8E
331
2E96
  5
2E96
331
2E57
  5
2E57
331
2F12
  5
2F12
331
2F49
  5
2F49
331
2ED3
  5
2ED3
331
2EDB
  5
2EDB
331
2F1A
  5
2F1A
331
2F51
  5
2F51
331
2F59
  5
2F59
331
30D0
  5
30D0
331
2EE3
  5
2EE3
331
2F22
  5
2F22
331
2F61
  5
2F61
331
2EEB
  5
2EEB
331
2D61
  5
2D61
331
2DA0
  5
2DA0
331
2DD9
  5
2DD9
331
2E18
  5
2E18
331
2D04
  5
2D04
331
2D4E
  5
2D4E
331
2D69
  5
2D69
331
2DA8
  5
2DA8
331
2CC5
  5
2CC5
331
2C92
  5
2C92
331
2E5F
  5
2E5F
331
2E9E
  5
2E9E
331
2C9A
  5
2C9A
331
2E20
  5
2E20
331
2D17
  5
2D17
331
2D56
  5
2D56
331
2D71
  5
2D71
331
2DB0
  5
2DB0
331
2CCD
  5
2CCD
331
2E67
  5
2E67
331
2EA6
  5
2EA6
331
2CA2
  5
2CA2
331
2DE9
  5
2DE9
331
2CD5
  5
2CD5
331
2D1F
  5
2D1F
331
2D79
  5
2D79
331
2D5E
  5
2D5E
331
2C63
  5
2C63
331
2E28
  5
2E28
331
2E6F
  5
2E6F
331
2C6B
  5
2C6B
331
2CDD
  5
2CDD
331
2D27
  5
2D27
331
2DF1
  5
2DF1
331
2EAE
  5
2EAE
331
2E77
  5
2E77
331
2F2A
  5
2F2A
331
2F69
  5
2F69
331
2EB4
  5
2EB4
331
2EF3
  5
2EF3
331
30E8
  5
311D
331
2EFB
  5
2EFB
331
2F32
  5
2F32
331
2EBC
  5
2EBC
331
2F71
  5
2F71
331
2F03
  5
2F03
331
2F3A
  5
2F3A
331
2EC4
  5
2EC4
331
2F79
  5
2F79
331
2F81
  5
2F81
331
2ECC
  5
2ECC
331
2F0B
  5
2F0B
331
2F42
  5
2F42
331
2D81
  5
2D81
331
2DF9
  5
2DF9
331
2E30
  5
2E30
331
2C73
  5
2C73
331
2CE5
  5
2CE5
331
2DBA
  5
2DBA
331
2D89
  5
2D89
331
2D2F
  5
2D2F
331
2E7F
  5
2E7F
331
2E01
  5
2E01
331
2E38
  5
2E38
331
2C7B
  5
2C7B
331
2D37
  5
2D37
331
2CAE
  5
2CAE
331
2D91
  5
2D91
331
2E40
  5
2E40
331
2CED
  5
2CED
331
2DC2
  5
2DC2
331
2E87
  5
2E87
331
2E09
  5
2E09
331
2D3F
  5
2D3F
331
2D99
  5
2D99
331
2CB6
  5
2CB6
331
2C83
  5
2C83
331
2E48
  5
2E48
331
2E50
  5
2E50
331
2E8F
  5
2E8F
331
2C8B
  5
2C8B
331
2CBE
  5
2CBE
331
2CFD
  5
2CFD
331
2DD2
  5
2DD2
331
2D47
  5
2D47
331
2E11
  5
2E11
331
2E97
  5
2E97
331
2F4A
  5
2F4A
331
2ED4
  5
2ED4
331
2F13
  5
2F13
331
2F52
  5
2F52
331
30C9
  5
30C9
331
2EDC
  5
2EDC
331
2F1B
  5
2F1B
331
2F23
  5
2F23
331
2F5A
  5
2F5A
331
2EE4
  5
2EE4
331
30D1
  5
30D1
331
2EEC
  5
2EEC
331
2F62
  5
2F62
331
2D62
  5
2D62
331
2DA1
  5
2DA1
331
2E19
  5
2E19
331
2E58
  5
2E58
331
2C93
  5
2C93
331
2CC6
  5
2CC6
331
2D05
  5
2D05
331
2DDA
  5
2DDA
331
2DA9
  5
2DA9
331
2D10
  5
2D10
331
2D6A
  5
2D6A
331
2D4F
  5
2D4F
331
2E21
  5
2E21
331
2E60
  5
2E60
331
2C9B
  5
2C9B
331
2D57
  5
2D57
331
2CCE
  5
2CCE
331
2D72
  5
2D72
331
2DB1
  5
2DB1
331
2D18
  5
2D18
331
30DD
  5
30DD
331
2E9F
  5
2E9F
331
2EA7
  5
2EA7
331
2DEA
  5
2DEA
331
2E29
  5
2E29
331
2C64
  5
2C64
331
2D20
  5
2D20
331
2D7A
  5
2D7A
331
2D5F
  5
2D5F
331
2CD6
  5
2CD6
331
2CA3
  5
2CA3
331
2E68
  5
2E68
331
2E70
  5
2E70
331
2DF2
  5
2DF2
331
2EAF
  5
2EAF
331
2C6C
  5
2C6C
331
2CDE
  5
2CDE
331
2F6A
  5
2F6A
331
30E1
  5
30E4
331
2EF4
  5
2EF4
331
2F2B
  5
2F2B
331
2EB5
  5
2EB5
331
2F72
  5
2F72
331
2EBD
  5
2EBD
331
2EFC
  5
2EFC
331
2F33
  5
2F33
331
2F3B
  5
2F3B
331
2F7A
  5
2F7A
331
2EC5
  5
2EC5
331
2F04
  5
2F04
331
2F0C
  5
2F0C
331
2F43
  5
2F43
331
2ECD
  5
2ECD
331
2F82
  5
2F82
331
2D28
  5
2D28
331
2D82
  5
2D82
331
2E78
  5
2E78
331
2DBB
  5
2DBB
331
2DFA
  5
2DFA
331
2CE6
  5
2CE6
331
2D30
  5
2D30
331
2D8A
  5
2D8A
331
2C74
  5
2C74
331
2E31
  5
2E31
331
2E39
  5
2E39
331
2E80
  5
2E80
331
2C7C
  5
2C7C
331
2CAF
  5
2CAF
331
2CEE
  5
2CEE
331
2DC3
  5
2DC3
331
2D92
  5
2D92
331
2E41
  5
2E41
331
2D38
  5
2D38
331
2E02
  5
2E02
331
2E0A
  5
2E0A
331
2E49
  5
2E49
331
2C84
  5
2C84
331
2CB7
  5
2CB7
331
2E88
  5
2E88
331
2D9A
  5
2D9A
331
2D40
  5
2D40
331
2E90
  5
2E90
331
2E12
  5
2E12
331
2E51
  5
2E51
331
2C8C
  5
2C8C
331
2CBF
  5
2CBF
331
2CFE
  5
2CFE
331
2DD3
  5
2DD3
331
2F14
  5
2F14
331
2F4B
  5
2F4B
331
2ED5
  5
2ED5
331
2EDD
  5
2EDD
331
2F1C
  5
2F1C
331
2F53
  5
2F53
331
2F5B
  5
2F5B
331
30D2
  5
30D2
331
2EE5
  5
2EE5
331
2F24
  5
2F24
331
2F63
  5
2F63
331
2EED
  5
2EED
331
2D48
  5
2D48
331
2D63
  5
2D63
331
2DA2
  5
2DA2
331
2E98
  5
2E98
331
2DDB
  5
2DDB
331
2E1A
  5
2E1A
331
2D06
  5
2D06
331
2D11
  5
2D11
331
2D50
  5
2D50
331
2D6B
  5
2D6B
331
2DAA
  5
2DAA
331
2CC7
  5
2CC7
331
2C94
  5
2C94
331
2E59
  5
2E59
331
2E61
  5
2E61
331
2EA0
  5
2EA0
331
2C9C
  5
2C9C
331
2CCF
  5
2CCF
331
30DE
  5
30DE
331
2D19
  5
2D19
331
2D58
  5
2D58
331
2E22
  5
2E22
331
2D73
  5
2D73
331
2DB2
  5
2DB2
331
2E2A
  5
2E2A
331
2E69
  5
2E69
331
2CA4
  5
2CA4
331
2DEB
  5
2DEB
331
2EA8
  5
2EA8
331
2CD7
  5
2CD7
331
2D21
  5
2D21
331
2D7B
  5
2D7B
331
2E71
  5
2E71
331
2C6D
  5
2C6D
331
2CDF
  5
2CDF
331
2DF3
  5
2DF3
331
2F2C
  5
2F2C
331
2F6B
  5
2F6B
331
2EB6
  5
2EB6
331
2EF5
  5
2EF5
331
30E2
  5
30E6
331
2EFD
  5
2EFD
331
2F34
  5
2F34
331
2EBE
  5
2EBE
331
2F73
  5
2F73
331
2F7B
  5
2F7B
331
2F05
  5
2F05
331
2F3C
  5
2F3C
331
2EC6
  5
2EC6
331
2F83
  5
2F83
331
2ECE
  5
2ECE
331
2F0D
  5
2F0D
331
2F44
  5
2F44
331
2D83
  5
2D83
331
2D29
  5
2D29
331
2DFB
  5
2DFB
331
2E32
  5
2E32
331
2C75
  5
2C75
331
2D31
  5
2D31
331
2D8B
  5
2D8B
331
2CA8
  5
2CA8
331
2CE7
  5
2CE7
331
2DBC
  5
2DBC
331
2E79
  5
2E79
331
2E81
  5
2E81
331
2DC4
  5
2DC4
331
2E03
  5
2E03
331
2C7D
  5
2C7D
331
2E3A
  5
2E3A
331
2D39
  5
2D39
331
2D93
  5
2D93
331
2E42
  5
2E42
331
2CEF
  5
2CEF
331
2E89
  5
2E89
331
2DCC
  5
2DCC
331
2E0B
  5
2E0B
331
2CF7
  5
2CF7
331
2F8A
  5
2F8A
331
2D41
  5
2D41
331
2D9B
  5
2D9B
331
2CB8
  5
2CB8
331
2C85
  5
2C85
331
2E4A
  5
2E4A
331
2E52
  5
2E52
331
2E91
  5
2E91
331
2C8D
  5
2C8D
331
2CFF
  5
2CFF
331
2DD4
  5
2DD4
331
2E13
  5
2E13
331
2F4C
  5
2F4C
331
30C3
  5
30C3
331
2ED6
  5
2ED6
331
2F15
  5
2F15
331
2F1D
  5
2F1D
331
2F54
  5
2F54
331
2EDE
  5
2EDE
  0
DIMASSOC
  5
2F8E
102
{ACAD_REACTORS
330
2F8D
102
}
330
2F8D
100
AcDbDimAssoc
330
2F8C
 90
        1
 70
     0
 71
     0
  1
AcDbOsnapPointRef
 72
     1
331
2E45
 73
     0
 91
        0
 40
0.0
 10
0.0
 20
0.0
 30
2.000000000000000E+50
 75
     0
  0
XRECORD
  5
325B
102
{ACAD_REACTORS
330
325A
102
}
330
325A
100
AcDbXrecord
280
     1
 40
1.570796326794896
  0
XRECORD
  5
325D
102
{ACAD_REACTORS
330
325A
102
}
330
325A
100
AcDbXrecord
280
     1
340
14
  0
XRECORD
  5
325E
102
{ACAD_REACTORS
330
325A
102
}
330
325A
100
AcDbXrecord
280
     1
340
14
  0
XRECORD
  5
325C
102
{ACAD_REACTORS
330
325A
102
}
330
325A
100
AcDbXrecord
280
     1
340
14
  0
LAYOUT
  5
1E
102
{ACAD_XDICTIONARY
360
325F
102
}
102
{ACAD_REACTORS
330
1A
102
}
330
1A
100
AcDbPlotSettings
  1

  2

  4

  6

 40
0.0
 41
0.0
 42
0.0
 43
0.0
 44
0.0
 45
0.0
 46
0.0
 47
0.0
 48
0.0
 49
0.0
140
0.0
141
0.0
142
1.0
143
1.0
 70
   688
 72
     0
 73
     0
 74
     5
  7

 75
    16
147
1.0
148
0.0
149
0.0
100
AcDbLayout
  1
Layout1
 70
     1
 71
     1
 10
0.0
 20
0.0
 11
420.0
 21
297.0
 12
0.0
 22
0.0
 32
0.0
 14
1.000000000000000E+20
 24
1.000000000000000E+20
 34
1.000000000000000E+20
 15
-1.000000000000000E+20
 25
-1.000000000000000E+20
 35
-1.000000000000000E+20
146
0.0
 13
0.0
 23
0.0
 33
0.0
 16
1.0
 26
0.0
 36
0.0
 17
0.0
 27
1.0
 37
0.0
 76
     0
330
1B
  0
LAYOUT
  5
26
102
{ACAD_XDICTIONARY
360
3263
102
}
102
{ACAD_REACTORS
330
1A
102
}
330
1A
100
AcDbPlotSettings
  1

  2

  4

  6

 40
0.0
 41
0.0
 42
0.0
 43
0.0
 44
0.0
 45
0.0
 46
0.0
 47
0.0
 48
0.0
 49
0.0
140
0.0
141
0.0
142
1.0
143
1.0
 70
   688
 72
     0
 73
     0
 74
     5
  7

 75
    16
147
1.0
148
0.0
149
0.0
100
AcDbLayout
  1
Layout2
 70
     1
 71
     2
 10
0.0
 20
0.0
 11
12.0
 21
9.0
 12
0.0
 22
0.0
 32
0.0
 14
0.0
 24
0.0
 34
0.0
 15
0.0
 25
0.0
 35
0.0
146
0.0
 13
0.0
 23
0.0
 33
0.0
 16
1.0
 26
0.0
 36
0.0
 17
0.0
 27
1.0
 37
0.0
 76
     0
330
23
  0
LAYOUT
  5
22
102
{ACAD_XDICTIONARY
360
3261
102
}
102
{ACAD_REACTORS
330
1A
102
}
330
1A
100
AcDbPlotSettings
  1

  2

  4

  6

 40
0.0
 41
0.0
 42
0.0
 43
0.0
 44
0.0
 45
0.0
 46
0.0
 47
0.0
 48
0.0
 49
0.0
140
0.0
141
0.0
142
1.0
143
1.0
 70
  1712
 72
     0
 73
     0
 74
     0
  7

 75
     0
147
1.0
148
0.0
149
0.0
100
AcDbLayout
  1
Model
 70
     1
 71
     0
 10
0.0
 20
0.0
 11
12.0
 21
9.0
 12
0.0
 22
0.0
 32
0.0
 14
0.0
 24
0.0
 34
0.0
 15
0.0
 25
0.0
 35
0.0
146
0.0
 13
0.0
 23
0.0
 33
0.0
 16
1.0
 26
0.0
 36
0.0
 17
0.0
 27
1.0
 37
0.0
 76
     0
330
1F
331
3B2
  0
MATERIAL
  5
3BC
102
{ACAD_XDICTIONARY
360
3BD
102
}
102
{ACAD_REACTORS
330
BD
102
}
330
BD
100
AcDbMaterial
  1
ByBlock
 72
     0
 43
0.0008202099737533
 43
0.0
 43
0.0
 43
0.0
 43
0.0
 43
0.0008202099737533
 43
0.0
 43
0.0
 43
0.0
 43
0.0
 43
1.0
 43
0.0
 43
0.0
 43
0.0
 43
0.0
 43
1.0
 77
     0
 47
0.0008202099737533
 47
0.0
 47
0.0
 47
0.0
 47
0.0
 47
0.0008202099737533
 47
0.0
 47
0.0
 47
0.0
 47
0.0
 47
1.0
 47
0.0
 47
0.0
 47
0.0
 47
0.0
 47
1.0
171
     0
 49
0.0008202099737533
 49
0.0
 49
0.0
 49
0.0
 49
0.0
 49
0.0008202099737533
 49
0.0
 49
0.0
 49
0.0
 49
0.0
 49
1.0
 49
0.0
 49
0.0
 49
0.0
 49
0.0
 49
1.0
175
     0
142
0.0008202099737533
142
0.0
142
0.0
142
0.0
142
0.0
142
0.0008202099737533
142
0.0
142
0.0
142
0.0
142
0.0
142
1.0
142
0.0
142
0.0
142
0.0
142
0.0
142
1.0
179
     0
144
0.0008202099737533
144
0.0
144
0.0
144
0.0
144
0.0
144
0.0008202099737533
144
0.0
144
0.0
144
0.0
144
0.0
144
1.0
144
0.0
144
0.0
144
0.0
144
0.0
144
1.0
147
0.0008202099737533
147
0.0
147
0.0
147
0.0
147
0.0
147
0.0008202099737533
147
0.0
147
0.0
147
0.0
147
0.0
147
1.0
147
0.0
147
0.0
147
0.0
147
0.0
147
1.0
  0
MATERIAL
  5
3B4
102
{ACAD_XDICTIONARY
360
3B5
102
}
102
{ACAD_REACTORS
330
BD
102
}
330
BD
100
AcDbMaterial
  1
ByLayer
 72
     0
 43
0.0008202099737533
 43
0.0
 43
0.0
 43
0.0
 43
0.0
 43
0.0008202099737533
 43
0.0
 43
0.0
 43
0.0
 43
0.0
 43
1.0
 43
0.0
 43
0.0
 43
0.0
 43
0.0
 43
1.0
 77
     0
 47
0.0008202099737533
 47
0.0
 47
0.0
 47
0.0
 47
0.0
 47
0.0008202099737533
 47
0.0
 47
0.0
 47
0.0
 47
0.0
 47
1.0
 47
0.0
 47
0.0
 47
0.0
 47
0.0
 47
1.0
171
     0
 49
0.0008202099737533
 49
0.0
 49
0.0
 49
0.0
 49
0.0
 49
0.0008202099737533
 49
0.0
 49
0.0
 49
0.0
 49
0.0
 49
1.0
 49
0.0
 49
0.0
 49
0.0
 49
0.0
 49
1.0
175
     0
142
0.0008202099737533
142
0.0
142
0.0
142
0.0
142
0.0
142
0.0008202099737533
142
0.0
142
0.0
142
0.0
142
0.0
142
1.0
142
0.0
142
0.0
142
0.0
142
0.0
142
1.0
179
     0
144
0.0008202099737533
144
0.0
144
0.0
144
0.0
144
0.0
144
0.0008202099737533
144
0.0
144
0.0
144
0.0
144
0.0
144
1.0
144
0.0
144
0.0
144
0.0
144
0.0
144
1.0
147
0.0008202099737533
147
0.0
147
0.0
147
0.0
147
0.0
147
0.0008202099737533
147
0.0
147
0.0
147
0.0
147
0.0
147
1.0
147
0.0
147
0.0
147
0.0
147
0.0
147
1.0
  0
MATERIAL
  5
3C4
102
{ACAD_XDICTIONARY
360
3C5
102
}
102
{ACAD_REACTORS
330
BD
102
}
330
BD
100
AcDbMaterial
  1
Global
 72
     0
 43
0.0008202099737533
 43
0.0
 43
0.0
 43
0.0
 43
0.0
 43
0.0008202099737533
 43
0.0
 43
0.0
 43
0.0
 43
0.0
 43
1.0
 43
0.0
 43
0.0
 43
0.0
 43
0.0
 43
1.0
 77
     0
 47
0.0008202099737533
 47
0.0
 47
0.0
 47
0.0
 47
0.0
 47
0.0008202099737533
 47
0.0
 47
0.0
 47
0.0
 47
0.0
 47
1.0
 47
0.0
 47
0.0
 47
0.0
 47
0.0
 47
1.0
171
     0
 49
0.0008202099737533
 49
0.0
 49
0.0
 49
0.0
 49
0.0
 49
0.0008202099737533
 49
0.0
 49
0.0
 49
0.0
 49
0.0
 49
1.0
 49
0.0
 49
0.0
 49
0.0
 49
0.0
 49
1.0
175
     0
142
0.0008202099737533
142
0.0
142
0.0
142
0.0
142
0.0
142
0.0008202099737533
142
0.0
142
0.0
142
0.0
142
0.0
142
1.0
142
0.0
142
0.0
142
0.0
142
0.0
142
1.0
179
     0
144
0.0008202099737533
144
0.0
144
0.0
144
0.0
144
0.0
144
0.0008202099737533
144
0.0
144
0.0
144
0.0
144
0.0
144
1.0
144
0.0
144
0.0
144
0.0
144
0.0
144
1.0
147
0.0008202099737533
147
0.0
147
0.0
147
0.0
147
0.0
147
0.0008202099737533
147
0.0
147
0.0
147
0.0
147
0.0
147
1.0
147
0.0
147
0.0
147
0.0
147
0.0
147
1.0
  0
MLEADERSTYLE
  5
3F0
102
{ACAD_REACTORS
330
3EF
102
}
330
3EF
100
AcDbMLeaderStyle
170
     2
171
     1
172
     0
 90
        2
 40
0.0
 41
0.0
173
     1
 91
-1056964608
340
14
 92
       -2
290
     1
 42
2.0
291
     1
 43
0.36
  3
Standard
 44
4.0
300

342
11
174
     1
178
     6
175
     1
176
     0
 93
-1056964608
 45
4.0
292
     0
297
     0
 46
4.0
 94
-1056964608
 47
1.0
 49
1.0
140
1.0
293
     1
141
0.0
294
     1
177
     0
142
1.0
295
     0
296
     0
143
0.125
1001
ACAD_MLEADERVER
1070
     2
  0
MLINESTYLE
  5
18
102
{ACAD_REACTORS
330
17
102
}
330
17
100
AcDbMlineStyle
  2
STANDARD
 70
     0
  3

 62
   256
 51
90.0
 52
90.0
 71
     2
 49
0.5
 62
   256
  6
BYLAYER
 49
-0.5
 62
   256
  6
BYLAYER
  0
ACDBPLACEHOLDER
  5
F
102
{ACAD_REACTORS
330
E
102
}
330
E
  0
SCALE
  5
3DE
102
{ACAD_REACTORS
330
3DD
102
}
330
3DD
100
AcDbScale
 70
     0
300
1:1
140
1.0
141
1.0
290
     1
  0
SCALE
  5
3DF
102
{ACAD_REACTORS
330
3DD
102
}
330
3DD
100
AcDbScale
 70
     0
300
1:2
140
1.0
141
2.0
290
     0
  0
SCALE
  5
3E0
102
{ACAD_REACTORS
330
3DD
102
}
330
3DD
100
AcDbScale
 70
     0
300
1:4
140
1.0
141
4.0
290
     0
  0
SCALE
  5
3E1
102
{ACAD_REACTORS
330
3DD
102
}
330
3DD
100
AcDbScale
 70
     0
300
1:5
140
1.0
141
5.0
290
     0
  0
SCALE
  5
3E2
102
{ACAD_REACTORS
330
3DD
102
}
330
3DD
100
AcDbScale
 70
     0
300
1:8
140
1.0
141
8.0
290
     0
  0
SCALE
  5
3E3
102
{ACAD_REACTORS
330
3DD
102
}
330
3DD
100
AcDbScale
 70
     0
300
1:10
140
1.0
141
10.0
290
     0
  0
SCALE
  5
3E4
102
{ACAD_REACTORS
330
3DD
102
}
330
3DD
100
AcDbScale
 70
     0
300
1:16
140
1.0
141
16.0
290
     0
  0
SCALE
  5
3E5
102
{ACAD_REACTORS
330
3DD
102
}
330
3DD
100
AcDbScale
 70
     0
300
1:20
140
1.0
141
20.0
290
     0
  0
SCALE
  5
3E6
102
{ACAD_REACTORS
330
3DD
102
}
330
3DD
100
AcDbScale
 70
     0
300
1:30
140
1.0
141
30.0
290
     0
  0
SCALE
  5
3E7
102
{ACAD_REACTORS
330
3DD
102
}
330
3DD
100
AcDbScale
 70
     0
300
1:40
140
1.0
141
40.0
290
     0
  0
SCALE
  5
3E8
102
{ACAD_REACTORS
330
3DD
102
}
330
3DD
100
AcDbScale
 70
     0
300
1:50
140
1.0
141
50.0
290
     0
  0
SCALE
  5
3E9
102
{ACAD_REACTORS
330
3DD
102
}
330
3DD
100
AcDbScale
 70
     0
300
1:100
140
1.0
141
100.0
290
     0
  0
SCALE
  5
3EA
102
{ACAD_REACTORS
330
3DD
102
}
330
3DD
100
AcDbScale
 70
     0
300
2:1
140
2.0
141
1.0
290
     0
  0
SCALE
  5
3EB
102
{ACAD_REACTORS
330
3DD
102
}
330
3DD
100
AcDbScale
 70
     0
300
4:1
140
4.0
141
1.0
290
     0
  0
SCALE
  5
3EC
102
{ACAD_REACTORS
330
3DD
102
}
330
3DD
100
AcDbScale
 70
     0
300
8:1
140
8.0
141
1.0
290
     0
  0
SCALE
  5
3ED
102
{ACAD_REACTORS
330
3DD
102
}
330
3DD
100
AcDbScale
 70
     0
300
10:1
140
10.0
141
1.0
290
     0
  0
SCALE
  5
3EE
102
{ACAD_REACTORS
330
3DD
102
}
330
3DD
100
AcDbScale
 70
     0
300
100:1
140
100.0
141
1.0
290
     0
  0
TABLESTYLE
  5
11B
102
{ACAD_XDICTIONARY
360
2210
102
}
102
{ACAD_REACTORS
330
11A
102
}
330
11A
100
AcDbTableStyle
  3
Standard
 70
     0
 71
     0
 40
1.5
 41
1.5
280
     0
281
     0
  7
STANDARD
140
4.5
170
     2
 62
     0
 63
     7
283
     0
274
    -2
284
     1
 64
     0
275
    -2
285
     1
 65
     0
276
    -2
286
     1
 66
     0
277
    -2
287
     1
 67
     0
278
    -2
288
     1
 68
     0
279
    -2
289
     1
 69
     0
  7
STANDARD
140
6.0
170
     5
 62
     0
 63
     7
283
     0
274
    -2
284
     1
 64
     0
275
    -2
285
     1
 65
     0
276
    -2
286
     1
 66
     0
277
    -2
287
     1
 67
     0
278
    -2
288
     1
 68
     0
279
    -2
289
     1
 69
     0
  7
STANDARD
140
4.5
170
     5
 62
     0
 63
     7
283
     0
274
    -2
284
     1
 64
     0
275
    -2
285
     1
 65
     0
276
    -2
286
     1
 66
     0
277
    -2
287
     1
 67
     0
278
    -2
288
     1
 68
     0
279
    -2
289
     1
 69
     0
  0
VISUALSTYLE
  5
3D2
102
{ACAD_REACTORS
330
3CC
102
}
330
3CC
100
AcDbVisualStyle
  2
2dWireframe
 70
     4
 71
     0
 72
     2
 73
     0
 90
        0
 40
-0.6
 41
-30.0
 62
     5
 63
     7
 74
     1
 91
        4
 64
     7
 65
   257
 75
     1
175
     1
 42
1.0
 92
        0
 66
   257
 43
1.0
 76
     1
 77
     6
 78
     2
 67
     7
 79
     5
170
     0
171
     0
290
     0
174
     0
 93
        1
 44
0.0
173
     0
291
     0
 45
0.0
1001
ACAD
1000
AcDbSavedByObjectVersion
1070
     0
1000
AcDbSavedByObjectVersion
1070
     0
1000
AcDbSavedByObjectVersion
1070
     0
1000
AcDbSavedByObjectVersion
1070
     0
1000
AcDbSavedByObjectVersion
1070
     0
1000
AcDbSavedByObjectVersion
1070
     0
1000
AcDbSavedByObjectVersion
1070
     0
1000
AcDbSavedByObjectVersion
1070
     0
1000
AcDbSavedByObjectVersion
1070
     0
1000
AcDbSavedByObjectVersion
1070
     0
  0
VISUALSTYLE
  5
3D4
102
{ACAD_REACTORS
330
3CC
102
}
330
3CC
100
AcDbVisualStyle
  2
3D Hidden
 70
     6
 71
     1
 72
     2
 73
     2
 90
        0
 40
-0.6
 41
-30.0
 62
     5
 63
     7
 74
     2
 91
        2
 64
     7
 65
   257
 75
     2
175
     1
 42
40.0
 92
        0
 66
   257
 43
1.0
 76
     1
 77
     6
 78
     2
 67
     7
 79
     3
170
     0
171
     0
290
     0
174
     0
 93
        1
 44
0.0
173
     0
291
     0
 45
0.0
1001
ACAD
1000
AcDbSavedByObjectVersion
1070
     0
1000
AcDbSavedByObjectVersion
1070
     0
1000
AcDbSavedByObjectVersion
1070
     0
1000
AcDbSavedByObjectVersion
1070
     0
1000
AcDbSavedByObjectVersion
1070
     0
1000
AcDbSavedByObjectVersion
1070
     0
1000
AcDbSavedByObjectVersion
1070
     0
1000
AcDbSavedByObjectVersion
1070
     0
1000
AcDbSavedByObjectVersion
1070
     0
1000
AcDbSavedByObjectVersion
1070
     0
  0
VISUALSTYLE
  5
3D3
102
{ACAD_REACTORS
330
3CC
102
}
330
3CC
100
AcDbVisualStyle
  2
3dWireframe
 70
     5
 71
     0
 72
     2
 73
     0
 90
        0
 40
-0.6
 41
-30.0
 62
     5
 63
     7
 74
     1
 91
        4
 64
     7
 65
   257
 75
     1
175
     1
 42
1.0
 92
        0
 66
   257
 43
1.0
 76
     1
 77
     6
 78
     2
 67
     7
 79
     5
170
     0
171
     0
290
     0
174
     0
 93
        1
 44
0.0
173
     0
291
     0
 45
0.0
1001
ACAD
1000
AcDbSavedByObjectVersion
1070
     0
1000
AcDbSavedByObjectVersion
1070
     0
1000
AcDbSavedByObjectVersion
1070
     0
1000
AcDbSavedByObjectVersion
1070
     0
1000
AcDbSavedByObjectVersion
1070
     0
1000
AcDbSavedByObjectVersion
1070
     0
1000
AcDbSavedByObjectVersion
1070
     0
1000
AcDbSavedByObjectVersion
1070
     0
1000
AcDbSavedByObjectVersion
1070
     0
1000
AcDbSavedByObjectVersion
1070
     0
  0
VISUALSTYLE
  5
3D1
102
{ACAD_REACTORS
330
3CC
102
}
330
3CC
100
AcDbVisualStyle
  2
Basic
 70
     7
 71
     1
 72
     0
 73
     1
 90
        0
 40
-0.6
 41
-30.0
 62
     5
 63
     7
 74
     0
 91
        4
 64
     7
 65
   257
 75
     1
175
     1
 42
1.0
 92
        8
 66
     7
 43
1.0
 76
     1
 77
     6
 78
     2
 67
     7
 79
     5
170
     0
171
     0
290
     0
174
     0
 93
        1
 44
0.0
173
     0
291
     1
 45
0.0
1001
ACAD
1000
AcDbSavedByObjectVersion
1070
     0
1000
AcDbSavedByObjectVersion
1070
     0
1000
AcDbSavedByObjectVersion
1070
     0
1000
AcDbSavedByObjectVersion
1070
     0
1000
AcDbSavedByObjectVersion
1070
     0
1000
AcDbSavedByObjectVersion
1070
     0
1000
AcDbSavedByObjectVersion
1070
     0
1000
AcDbSavedByObjectVersion
1070
     0
1000
AcDbSavedByObjectVersion
1070
     0
1000
AcDbSavedByObjectVersion
1070
     0
  0
VISUALSTYLE
  5
3D8
102
{ACAD_REACTORS
330
3CC
102
}
330
3CC
100
AcDbVisualStyle
  2
Brighten
 70
    12
 71
     2
 72
     2
 73
     0
 90
        0
 40
-0.6
 41
-30.0
 62
     5
 63
     7
 74
     1
 91
        4
 64
     7
 65
   257
 75
     1
175
     1
 42
1.0
 92
        8
 66
     7
 43
1.0
 76
     1
 77
     6
 78
     2
 67
     7
 79
     5
170
     0
171
     0
290
     0
174
     0
 93
        1
 44
50.0
173
     0
291
     1
 45
0.0
1001
ACAD
1000
AcDbSavedByObjectVersion
1070
     0
1000
AcDbSavedByObjectVersion
1070
     0
1000
AcDbSavedByObjectVersion
1070
     0
1000
AcDbSavedByObjectVersion
1070
     0
1000
AcDbSavedByObjectVersion
1070
     0
1000
AcDbSavedByObjectVersion
1070
     0
1000
AcDbSavedByObjectVersion
1070
     0
1000
AcDbSavedByObjectVersion
1070
     0
1000
AcDbSavedByObjectVersion
1070
     0
1000
AcDbSavedByObjectVersion
1070
     0
  0
VISUALSTYLE
  5
3DC
102
{ACAD_REACTORS
330
3CC
102
}
330
3CC
100
AcDbVisualStyle
  2
ColorChange
 70
    16
 71
     2
 72
     2
 73
     3
 90
        0
 40
-0.6
 41
-30.0
 62
     5
 63
     8
 74
     1
 91
        4
 64
     7
 65
   257
 75
     1
175
     1
 42
1.0
 92
        8
 66
     8
 43
1.0
 76
     1
 77
     6
 78
     2
 67
     7
 79
     5
170
     0
171
     0
290
     0
174
     0
 93
        1
 44
0.0
173
     0
291
     1
 45
0.0
1001
ACAD
1000
AcDbSavedByObjectVersion
1070
     0
1000
AcDbSavedByObjectVersion
1070
     0
1000
AcDbSavedByObjectVersion
1070
     0
1000
AcDbSavedByObjectVersion
1070
     0
1000
AcDbSavedByObjectVersion
1070
     0
1000
AcDbSavedByObjectVersion
1070
     0
1000
AcDbSavedByObjectVersion
1070
     0
1000
AcDbSavedByObjectVersion
1070
     0
1000
AcDbSavedByObjectVersion
1070
     0
1000
AcDbSavedByObjectVersion
1070
     0
  0
VISUALSTYLE
  5
3D5
102
{ACAD_REACTORS
330
3CC
102
}
330
3CC
100
AcDbVisualStyle
  2
Conceptual
 70
     9
 71
     3
 72
     2
 73
     0
 90
        0
 40
-0.6
 41
-30.0
 62
     5
 63
     7
 74
     2
 91
        2
 64
     7
 65
   257
 75
     1
175
     1
 42
40.0
 92
        8
 66
     7
 43
1.0
 76
     1
 77
     6
 78
     2
 67
     7
 79
     3
170
     0
171
     0
290
     0
174
     0
 93
        1
 44
0.0
173
     0
291
     0
 45
0.0
1001
ACAD
1000
AcDbSavedByObjectVersion
1070
     0
1000
AcDbSavedByObjectVersion
1070
     0
1000
AcDbSavedByObjectVersion
1070
     0
1000
AcDbSavedByObjectVersion
1070
     0
1000
AcDbSavedByObjectVersion
1070
     0
1000
AcDbSavedByObjectVersion
1070
     0
1000
AcDbSavedByObjectVersion
1070
     0
1000
AcDbSavedByObjectVersion
1070
     0
1000
AcDbSavedByObjectVersion
1070
     0
1000
AcDbSavedByObjectVersion
1070
     0
  0
VISUALSTYLE
  5
3D7
102
{ACAD_REACTORS
330
3CC
102
}
330
3CC
100
AcDbVisualStyle
  2
Dim
 70
    11
 71
     2
 72
     2
 73
     0
 90
        0
 40
-0.6
 41
-30.0
 62
     5
 63
     7
 74
     1
 91
        4
 64
     7
 65
   257
 75
     1
175
     1
 42
1.0
 92
        8
 66
     7
 43
1.0
 76
     1
 77
     6
 78
     2
 67
     7
 79
     5
170
     0
171
     0
290
     0
174
     0
 93
        1
 44
-50.0
173
     0
291
     1
 45
0.0
1001
ACAD
1000
AcDbSavedByObjectVersion
1070
     0
1000
AcDbSavedByObjectVersion
1070
     0
1000
AcDbSavedByObjectVersion
1070
     0
1000
AcDbSavedByObjectVersion
1070
     0
1000
AcDbSavedByObjectVersion
1070
     0
1000
AcDbSavedByObjectVersion
1070
     0
1000
AcDbSavedByObjectVersion
1070
     0
1000
AcDbSavedByObjectVersion
1070
     0
1000
AcDbSavedByObjectVersion
1070
     0
1000
AcDbSavedByObjectVersion
1070
     0
  0
VISUALSTYLE
  5
3DB
102
{ACAD_REACTORS
330
3CC
102
}
330
3CC
100
AcDbVisualStyle
  2
Facepattern
 70
    15
 71
     2
 72
     2
 73
     0
 90
        0
 40
-0.6
 41
-30.0
 62
     5
 63
     7
 74
     1
 91
        4
 64
     7
 65
   257
 75
     1
175
     1
 42
1.0
 92
        8
 66
     7
 43
1.0
 76
     1
 77
     6
 78
     2
 67
     7
 79
     5
170
     0
171
     0
290
     0
174
     0
 93
        1
 44
0.0
173
     0
291
     1
 45
0.0
1001
ACAD
1000
AcDbSavedByObjectVersion
1070
     0
1000
AcDbSavedByObjectVersion
1070
     0
1000
AcDbSavedByObjectVersion
1070
     0
1000
AcDbSavedByObjectVersion
1070
     0
1000
AcDbSavedByObjectVersion
1070
     0
1000
AcDbSavedByObjectVersion
1070
     0
1000
AcDbSavedByObjectVersion
1070
     0
1000
AcDbSavedByObjectVersion
1070
     0
1000
AcDbSavedByObjectVersion
1070
     0
1000
AcDbSavedByObjectVersion
1070
     0
  0
VISUALSTYLE
  5
3CD
102
{ACAD_REACTORS
330
3CC
102
}
330
3CC
100
AcDbVisualStyle
  2
Flat
 70
     0
 71
     2
 72
     1
 73
     1
 90
        2
 40
-0.6
 41
30.0
 62
     5
 63
     7
 74
     0
 91
        4
 64
     7
 65
   257
 75
     1
175
     1
 42
1.0
 92
        8
 66
     7
 43
1.0
 76
     1
 77
     6
 78
     2
 67
     7
 79
     5
170
     0
171
     0
290
     0
174
     0
 93
       13
 44
0.0
173
     0
291
     1
 45
0.0
1001
ACAD
1000
AcDbSavedByObjectVersion
1070
     0
1000
AcDbSavedByObjectVersion
1070
     0
1000
AcDbSavedByObjectVersion
1070
     0
1000
AcDbSavedByObjectVersion
1070
     0
1000
AcDbSavedByObjectVersion
1070
     0
1000
AcDbSavedByObjectVersion
1070
     0
1000
AcDbSavedByObjectVersion
1070
     0
1000
AcDbSavedByObjectVersion
1070
     0
1000
AcDbSavedByObjectVersion
1070
     0
1000
AcDbSavedByObjectVersion
1070
     0
  0
VISUALSTYLE
  5
3CE
102
{ACAD_REACTORS
330
3CC
102
}
330
3CC
100
AcDbVisualStyle
  2
FlatWithEdges
 70
     1
 71
     2
 72
     1
 73
     1
 90
        2
 40
-0.6
 41
30.0
 62
     5
 63
     7
 74
     1
 91
        4
 64
     7
 65
   257
 75
     1
175
     1
 42
1.0
 92
        0
 66
   257
 43
1.0
 76
     1
 77
     6
 78
     2
 67
     7
 79
     5
170
     0
171
     0
290
     0
174
     0
 93
       13
 44
0.0
173
     0
291
     1
 45
0.0
1001
ACAD
1000
AcDbSavedByObjectVersion
1070
     0
1000
AcDbSavedByObjectVersion
1070
     0
1000
AcDbSavedByObjectVersion
1070
     0
1000
AcDbSavedByObjectVersion
1070
     0
1000
AcDbSavedByObjectVersion
1070
     0
1000
AcDbSavedByObjectVersion
1070
     0
1000
AcDbSavedByObjectVersion
1070
     0
1000
AcDbSavedByObjectVersion
1070
     0
1000
AcDbSavedByObjectVersion
1070
     0
1000
AcDbSavedByObjectVersion
1070
     0
  0
VISUALSTYLE
  5
3CF
102
{ACAD_REACTORS
330
3CC
102
}
330
3CC
100
AcDbVisualStyle
  2
Gouraud
 70
     2
 71
     2
 72
     2
 73
     1
 90
        2
 40
-0.6
 41
30.0
 62
     5
 63
     7
 74
     0
 91
        4
 64
     7
 65
   257
 75
     1
175
     1
 42
1.0
 92
        0
 66
     7
 43
1.0
 76
     1
 77
     6
 78
     2
 67
     7
 79
     5
170
     0
171
     0
290
     0
174
     0
 93
       13
 44
0.0
173
     0
291
     1
 45
0.0
1001
ACAD
1000
AcDbSavedByObjectVersion
1070
     0
1000
AcDbSavedByObjectVersion
1070
     0
1000
AcDbSavedByObjectVersion
1070
     0
1000
AcDbSavedByObjectVersion
1070
     0
1000
AcDbSavedByObjectVersion
1070
     0
1000
AcDbSavedByObjectVersion
1070
     0
1000
AcDbSavedByObjectVersion
1070
     0
1000
AcDbSavedByObjectVersion
1070
     0
1000
AcDbSavedByObjectVersion
1070
     0
1000
AcDbSavedByObjectVersion
1070
     0
  0
VISUALSTYLE
  5
3D0
102
{ACAD_REACTORS
330
3CC
102
}
330
3CC
100
AcDbVisualStyle
  2
GouraudWithEdges
 70
     3
 71
     2
 72
     2
 73
     1
 90
        2
 40
-0.6
 41
30.0
 62
     5
 63
     7
 74
     1
 91
        4
 64
     7
 65
   257
 75
     1
175
     1
 42
1.0
 92
        0
 66
   257
 43
1.0
 76
     1
 77
     6
 78
     2
 67
     7
 79
     5
170
     0
171
     0
290
     0
174
     0
 93
       13
 44
0.0
173
     0
291
     1
 45
0.0
1001
ACAD
1000
AcDbSavedByObjectVersion
1070
     0
1000
AcDbSavedByObjectVersion
1070
     0
1000
AcDbSavedByObjectVersion
1070
     0
1000
AcDbSavedByObjectVersion
1070
     0
1000
AcDbSavedByObjectVersion
1070
     0
1000
AcDbSavedByObjectVersion
1070
     0
1000
AcDbSavedByObjectVersion
1070
     0
1000
AcDbSavedByObjectVersion
1070
     0
1000
AcDbSavedByObjectVersion
1070
     0
1000
AcDbSavedByObjectVersion
1070
     0
  0
VISUALSTYLE
  5
3DA
102
{ACAD_REACTORS
330
3CC
102
}
330
3CC
100
AcDbVisualStyle
  2
Linepattern
 70
    14
 71
     2
 72
     2
 73
     0
 90
        0
 40
-0.6
 41
-30.0
 62
     5
 63
     7
 74
     1
 91
        4
 64
     7
 65
   257
 75
     7
175
     7
 42
1.0
 92
        8
 66
     7
 43
1.0
 76
     1
 77
     6
 78
     2
 67
     7
 79
     5
170
     0
171
     0
290
     0
174
     0
 93
        1
 44
0.0
173
     0
291
     1
 45
0.0
1001
ACAD
1000
AcDbSavedByObjectVersion
1070
     0
1000
AcDbSavedByObjectVersion
1070
     0
1000
AcDbSavedByObjectVersion
1070
     0
1000
AcDbSavedByObjectVersion
1070
     0
1000
AcDbSavedByObjectVersion
1070
     0
1000
AcDbSavedByObjectVersion
1070
     0
1000
AcDbSavedByObjectVersion
1070
     0
1000
AcDbSavedByObjectVersion
1070
     0
1000
AcDbSavedByObjectVersion
1070
     0
1000
AcDbSavedByObjectVersion
1070
     0
  0
VISUALSTYLE
  5
3D6
102
{ACAD_REACTORS
330
3CC
102
}
330
3CC
100
AcDbVisualStyle
  2
Realistic
 70
     8
 71
     2
 72
     2
 73
     0
 90
        0
 40
-0.6
 41
-30.0
 62
     5
 63
     7
 74
     1
 91
        0
 64
     7
 65
   257
 75
     1
175
     1
 42
1.0
 92
        8
 66
     8
 43
1.0
 76
     1
 77
     6
 78
     2
 67
     7
 79
     5
170
     0
171
     0
290
     0
174
     0
 93
       13
 44
0.0
173
     0
291
     0
 45
0.0
1001
ACAD
1000
AcDbSavedByObjectVersion
1070
     0
1000
AcDbSavedByObjectVersion
1070
     0
1000
AcDbSavedByObjectVersion
1070
     0
1000
AcDbSavedByObjectVersion
1070
     0
1000
AcDbSavedByObjectVersion
1070
     0
1000
AcDbSavedByObjectVersion
1070
     0
1000
AcDbSavedByObjectVersion
1070
     0
1000
AcDbSavedByObjectVersion
1070
     0
1000
AcDbSavedByObjectVersion
1070
     0
1000
AcDbSavedByObjectVersion
1070
     0
  0
VISUALSTYLE
  5
3D9
102
{ACAD_REACTORS
330
3CC
102
}
330
3CC
100
AcDbVisualStyle
  2
Thicken
 70
    13
 71
     2
 72
     2
 73
     0
 90
        0
 40
-0.6
 41
-30.0
 62
     5
 63
     7
 74
     1
 91
        4
 64
     7
 65
   257
 75
     1
175
     1
 42
1.0
 92
       12
 66
     7
 43
1.0
 76
     1
 77
     6
 78
     2
 67
     7
 79
     5
170
     0
171
     0
290
     0
174
     0
 93
        1
 44
0.0
173
     0
291
     1
 45
0.0
1001
ACAD
1000
AcDbSavedByObjectVersion
1070
     0
1000
AcDbSavedByObjectVersion
1070
     0
1000
AcDbSavedByObjectVersion
1070
     0
1000
AcDbSavedByObjectVersion
1070
     0
1000
AcDbSavedByObjectVersion
1070
     0
1000
AcDbSavedByObjectVersion
1070
     0
1000
AcDbSavedByObjectVersion
1070
     0
1000
AcDbSavedByObjectVersion
1070
     0
1000
AcDbSavedByObjectVersion
1070
     0
1000
AcDbSavedByObjectVersion
1070
     0
  0
DICTIONARYVAR
  5
220E
102
{ACAD_REACTORS
330
94
102
}
330
94
100
DictionaryVariables
280
     0
  1
1:1
  0
DICTIONARYVAR
  5
220D
102
{ACAD_REACTORS
330
94
102
}
330
94
100
DictionaryVariables
280
     0
  1
STANDARD
  0
DICTIONARYVAR
  5
138
102
{ACAD_REACTORS
330
94
102
}
330
94
100
DictionaryVariables
280
     0
  1
STANDARD
  0
DICTIONARYVAR
  5
96
102
{ACAD_REACTORS
330
94
102
}
330
94
100
DictionaryVariables
280
     0
  1
2
  0
DICTIONARYVAR
  5
95
102
{ACAD_REACTORS
330
94
102
}
330
94
100
DictionaryVariables
280
     0
  1
0
  0
DICTIONARYVAR
  5
220F
102
{ACAD_REACTORS
330
94
102
}
330
94
100
DictionaryVariables
280
     0
  1
127
  0
DICTIONARY
  5
272
102
{ACAD_REACTORS
330
5B
102
}
330
5B
100
AcDbDictionary
281
     1
  0
DICTIONARY
  5
61
102
{ACAD_REACTORS
330
5B
102
}
330
5B
100
AcDbDictionary
281
     1
  0
XRECORD
  5
123
102
{ACAD_REACTORS
330
5B
102
}
330
5B
100
AcDbXrecord
280
     1
 90
-1023410169
  0
DICTIONARY
  5
325F
330
1E
100
AcDbDictionary
280
     1
281
     1
  3
ACAD_XREC_ROUNDTRIP
360
3260
  0
DICTIONARY
  5
3263
330
26
100
AcDbDictionary
280
     1
281
     1
  3
ACAD_XREC_ROUNDTRIP
360
3264
  0
DICTIONARY
  5
3261
330
22
100
AcDbDictionary
280
     1
281
     1
  3
ACAD_XREC_ROUNDTRIP
360
3262
  0
DICTIONARY
  5
3BD
330
3BC
100
AcDbDictionary
280
     1
281
     1
  3
ACAD_XREC_ROUNDTRIP
360
221E
  3
BUMPTILE
360
3BF
  3
DIFFUSETILE
360
3BE
  3
OPACITYTILE
360
3C2
  3
REFLECTIONTILE
360
3C1
  3
REFRACTIONTILE
360
3C3
  3
SPECULARTILE
360
3C0
  0
DICTIONARY
  5
3B5
330
3B4
100
AcDbDictionary
280
     1
281
     1
  3
ACAD_XREC_ROUNDTRIP
360
221D
  3
BUMPTILE
360
3B7
  3
DIFFUSETILE
360
3B6
  3
OPACITYTILE
360
3BA
  3
REFLECTIONTILE
360
3B9
  3
REFRACTIONTILE
360
3BB
  3
SPECULARTILE
360
3B8
  0
DICTIONARY
  5
3C5
330
3C4
100
AcDbDictionary
280
     1
281
     1
  3
ACAD_XREC_ROUNDTRIP
360
221F
  3
BUMPTILE
360
3C7
  3
DIFFUSETILE
360
3C6
  3
OPACITYTILE
360
3CA
  3
REFLECTIONTILE
360
3C9
  3
REFRACTIONTILE
360
3CB
  3
SPECULARTILE
360
3C8
  0
DICTIONARY
  5
2210
330
11B
100
AcDbDictionary
280
     1
281
     1
  3
ACAD_ROUNDTRIP_2008_TABLESTYLE_CELLSTYLEMAP
360
3258
  3
ACAD_XREC_ROUNDTRIP
360
3265
  0
XRECORD
  5
3260
102
{ACAD_REACTORS
330
325F
102
}
330
325F
100
AcDbXrecord
280
     1
102
SHADEPLOT
 70
     0
102
SHADEPLOTRESLEVEL
 70
     2
102
SHADEPLOTCUSTOMDPI
 70
   300
  0
XRECORD
  5
3264
102
{ACAD_REACTORS
330
3263
102
}
330
3263
100
AcDbXrecord
280
     1
102
SHADEPLOT
 70
     0
102
SHADEPLOTRESLEVEL
 70
     2
102
SHADEPLOTCUSTOMDPI
 70
   300
  0
XRECORD
  5
3262
102
{ACAD_REACTORS
330
3261
102
}
330
3261
100
AcDbXrecord
280
     1
102
SHADEPLOT
 70
     0
102
SHADEPLOTRESLEVEL
 70
     2
102
SHADEPLOTCUSTOMDPI
 70
   300
  0
XRECORD
  5
221E
102
{ACAD_REACTORS
330
3BD
102
}
330
3BD
100
AcDbXrecord
280
     1
102
MATERIAL
148
0.0
149
0.0
149
0.0
 93
        0
 94
      127
282
     0
 72
     0
 77
     0
171
     0
175
     0
179
     0
273
     0
  0
XRECORD
  5
3BF
102
{ACAD_REACTORS
330
3BD
102
}
330
3BD
100
AcDbXrecord
280
     1
270
     1
271
     1
  0
XRECORD
  5
3BE
102
{ACAD_REACTORS
330
3BD
102
}
330
3BD
100
AcDbXrecord
280
     1
270
     1
271
     1
  0
XRECORD
  5
3C2
102
{ACAD_REACTORS
330
3BD
102
}
330
3BD
100
AcDbXrecord
280
     1
270
     1
271
     1
  0
XRECORD
  5
3C1
102
{ACAD_REACTORS
330
3BD
102
}
330
3BD
100
AcDbXrecord
280
     1
270
     1
271
     1
  0
XRECORD
  5
3C3
102
{ACAD_REACTORS
330
3BD
102
}
330
3BD
100
AcDbXrecord
280
     1
270
     1
271
     1
  0
XRECORD
  5
3C0
102
{ACAD_REACTORS
330
3BD
102
}
330
3BD
100
AcDbXrecord
280
     1
270
     1
271
     1
  0
XRECORD
  5
221D
102
{ACAD_REACTORS
330
3B5
102
}
330
3B5
100
AcDbXrecord
280
     1
102
MATERIAL
148
0.0
149
0.0
149
0.0
 93
        0
 94
      127
282
     0
 72
     0
 77
     0
171
     0
175
     0
179
     0
273
     0
  0
XRECORD
  5
3B7
102
{ACAD_REACTORS
330
3B5
102
}
330
3B5
100
AcDbXrecord
280
     1
270
     1
271
     1
  0
XRECORD
  5
3B6
102
{ACAD_REACTORS
330
3B5
102
}
330
3B5
100
AcDbXrecord
280
     1
270
     1
271
     1
  0
XRECORD
  5
3BA
102
{ACAD_REACTORS
330
3B5
102
}
330
3B5
100
AcDbXrecord
280
     1
270
     1
271
     1
  0
XRECORD
  5
3B9
102
{ACAD_REACTORS
330
3B5
102
}
330
3B5
100
AcDbXrecord
280
     1
270
     1
271
     1
  0
XRECORD
  5
3BB
102
{ACAD_REACTORS
330
3B5
102
}
330
3B5
100
AcDbXrecord
280
     1
270
     1
271
     1
  0
XRECORD
  5
3B8
102
{ACAD_REACTORS
330
3B5
102
}
330
3B5
100
AcDbXrecord
280
     1
270
     1
271
     1
  0
XRECORD
  5
221F
102
{ACAD_REACTORS
330
3C5
102
}
330
3C5
100
AcDbXrecord
280
     1
102
MATERIAL
148
0.0
149
0.0
149
0.0
 93
        0
 94
      127
282
     0
 72
     0
 77
     0
171
     0
175
     0
179
     0
273
     0
  0
XRECORD
  5
3C7
102
{ACAD_REACTORS
330
3C5
102
}
330
3C5
100
AcDbXrecord
280
     1
270
     1
271
     1
  0
XRECORD
  5
3C6
102
{ACAD_REACTORS
330
3C5
102
}
330
3C5
100
AcDbXrecord
280
     1
270
     1
271
     1
  0
XRECORD
  5
3CA
102
{ACAD_REACTORS
330
3C5
102
}
330
3C5
100
AcDbXrecord
280
     1
270
     1
271
     1
  0
XRECORD
  5
3C9
102
{ACAD_REACTORS
330
3C5
102
}
330
3C5
100
AcDbXrecord
280
     1
270
     1
271
     1
  0
XRECORD
  5
3CB
102
{ACAD_REACTORS
330
3C5
102
}
330
3C5
100
AcDbXrecord
280
     1
270
     1
271
     1
  0
XRECORD
  5
3C8
102
{ACAD_REACTORS
330
3C5
102
}
330
3C5
100
AcDbXrecord
280
     1
270
     1
271
     1
  0
CELLSTYLEMAP
  5
3258
102
{ACAD_REACTORS
330
2210
102
}
330
2210
100
AcDbCellStyleMap
 90
        3
300
CELLSTYLE
  1
TABLEFORMAT_BEGIN
 90
        5
170
     1
 91
        0
 92
    32768
 62
   257
 93
        1
300
CONTENTFORMAT
  1
CONTENTFORMAT_BEGIN
 90
        0
 91
        0
 92
        4
 93
        0
300

 40
0.0
140
1.0
 94
        5
 62
     0
340
11
144
6.0
309
CONTENTFORMAT_END
171
     1
301
MARGIN
  1
CELLMARGIN_BEGIN
 40
1.5
 40
1.5
 40
1.5
 40
1.5
 40
0.18
 40
0.18
309
CELLMARGIN_END
 94
        6
 95
        1
302
GRIDFORMAT
  1
GRIDFORMAT_BEGIN
 90
        0
 91
        1
 62
     0
 92
       -2
340
0
 93
        0
 40
0.045
309
GRIDFORMAT_END
 95
        2
302
GRIDFORMAT
  1
GRIDFORMAT_BEGIN
 90
        0
 91
        1
 62
     0
 92
       -2
340
0
 93
        0
 40
0.045
309
GRIDFORMAT_END
 95
        4
302
GRIDFORMAT
  1
GRIDFORMAT_BEGIN
 90
        0
 91
        1
 62
     0
 92
       -2
340
0
 93
        0
 40
0.045
309
GRIDFORMAT_END
 95
        8
302
GRIDFORMAT
  1
GRIDFORMAT_BEGIN
 90
        0
 91
        1
 62
     0
 92
       -2
340
0
 93
        0
 40
0.045
309
GRIDFORMAT_END
 95
       16
302
GRIDFORMAT
  1
GRIDFORMAT_BEGIN
 90
        0
 91
        1
 62
     0
 92
       -2
340
0
 93
        0
 40
0.045
309
GRIDFORMAT_END
 95
       32
302
GRIDFORMAT
  1
GRIDFORMAT_BEGIN
 90
        0
 91
        1
 62
     0
 92
       -2
340
0
 93
        0
 40
0.045
309
GRIDFORMAT_END
309
TABLEFORMAT_END
  1
CELLSTYLE_BEGIN
 90
        1
 91
        1
300
_TITLE
309
CELLSTYLE_END
300
CELLSTYLE
  1
TABLEFORMAT_BEGIN
 90
        5
170
     1
 91
        0
 92
        0
 62
   257
 93
        1
300
CONTENTFORMAT
  1
CONTENTFORMAT_BEGIN
 90
        0
 91
        0
 92
        4
 93
        0
300

 40
0.0
140
1.0
 94
        5
 62
     0
340
11
144
4.5
309
CONTENTFORMAT_END
171
     1
301
MARGIN
  1
CELLMARGIN_BEGIN
 40
1.5
 40
1.5
 40
1.5
 40
1.5
 40
0.18
 40
0.18
309
CELLMARGIN_END
 94
        6
 95
        1
302
GRIDFORMAT
  1
GRIDFORMAT_BEGIN
 90
        0
 91
        1
 62
     0
 92
       -2
340
0
 93
        0
 40
0.045
309
GRIDFORMAT_END
 95
        2
302
GRIDFORMAT
  1
GRIDFORMAT_BEGIN
 90
        0
 91
        1
 62
     0
 92
       -2
340
0
 93
        0
 40
0.045
309
GRIDFORMAT_END
 95
        4
302
GRIDFORMAT
  1
GRIDFORMAT_BEGIN
 90
        0
 91
        1
 62
     0
 92
       -2
340
0
 93
        0
 40
0.045
309
GRIDFORMAT_END
 95
        8
302
GRIDFORMAT
  1
GRIDFORMAT_BEGIN
 90
        0
 91
        1
 62
     0
 92
       -2
340
0
 93
        0
 40
0.045
309
GRIDFORMAT_END
 95
       16
302
GRIDFORMAT
  1
GRIDFORMAT_BEGIN
 90
        0
 91
        1
 62
     0
 92
       -2
340
0
 93
        0
 40
0.045
309
GRIDFORMAT_END
 95
       32
302
GRIDFORMAT
  1
GRIDFORMAT_BEGIN
 90
        0
 91
        1
 62
     0
 92
       -2
340
0
 93
        0
 40
0.045
309
GRIDFORMAT_END
309
TABLEFORMAT_END
  1
CELLSTYLE_BEGIN
 90
        2
 91
        1
300
_HEADER
309
CELLSTYLE_END
300
CELLSTYLE
  1
TABLEFORMAT_BEGIN
 90
        5
170
     1
 91
        0
 92
        0
 62
   257
 93
        1
300
CONTENTFORMAT
  1
CONTENTFORMAT_BEGIN
 90
        0
 91
        0
 92
        4
 93
        0
300

 40
0.0
140
1.0
 94
        2
 62
     0
340
11
144
4.5
309
CONTENTFORMAT_END
171
     1
301
MARGIN
  1
CELLMARGIN_BEGIN
 40
1.5
 40
1.5
 40
1.5
 40
1.5
 40
0.18
 40
0.18
309
CELLMARGIN_END
 94
        6
 95
        1
302
GRIDFORMAT
  1
GRIDFORMAT_BEGIN
 90
        0
 91
        1
 62
     0
 92
       -2
340
0
 93
        0
 40
0.045
309
GRIDFORMAT_END
 95
        2
302
GRIDFORMAT
  1
GRIDFORMAT_BEGIN
 90
        0
 91
        1
 62
     0
 92
       -2
340
0
 93
        0
 40
0.045
309
GRIDFORMAT_END
 95
        4
302
GRIDFORMAT
  1
GRIDFORMAT_BEGIN
 90
        0
 91
        1
 62
     0
 92
       -2
340
0
 93
        0
 40
0.045
309
GRIDFORMAT_END
 95
        8
302
GRIDFORMAT
  1
GRIDFORMAT_BEGIN
 90
        0
 91
        1
 62
     0
 92
       -2
340
0
 93
        0
 40
0.045
309
GRIDFORMAT_END
 95
       16
302
GRIDFORMAT
  1
GRIDFORMAT_BEGIN
 90
        0
 91
        1
 62
     0
 92
       -2
340
0
 93
        0
 40
0.045
309
GRIDFORMAT_END
 95
       32
302
GRIDFORMAT
  1
GRIDFORMAT_BEGIN
 90
        0
 91
        1
 62
     0
 92
       -2
340
0
 93
        0
 40
0.045
309
GRIDFORMAT_END
309
TABLEFORMAT_END
  1
CELLSTYLE_BEGIN
 90
        3
 91
        2
300
_DATA
309
CELLSTYLE_END
  0
XRECORD
  5
3265
102
{ACAD_REACTORS
330
2210
102
}
330
2210
100
AcDbXrecord
280
     1
102
ACAD_ROUNDTRIP_PRE2007_TABLESTYLE
 90
        4
 91
        0
  1

 92
        4
 93
        0
  2

 94
        4
 95
        0
  3

  0
ENDSEC
  0
EOF
