  0
SECTION
  2
HEADER
  9
$ACADVER
  1
AC1015
  9
$ACADMAINTVER
 70
    20
  9
$DWGCODEPAGE
  3
ANSI_1252
  9
$INSBASE
 10
0.0
 20
0.0
 30
0.0
  9
$EXTMIN
 10
2327.239004557443
 20
1768.31787412974
 30
-0.0000000349181948
  9
$EXTMAX
 10
2681.574416278071
 20
2267.812391123538
 30
0.0000000814935747
  9
$LIMMIN
 10
0.0
 20
0.0
  9
$LIMMAX
 10
420.0
 20
297.0
  9
$ORTHOMODE
 70
     0
  9
$REGENMODE
 70
     1
  9
$FILLMODE
 70
     1
  9
$QTEXTMODE
 70
     0
  9
$MIRRTEXT
 70
     1
  9
$LTSCALE
 40
1.0
  9
$ATTMODE
 70
     1
  9
$TEXTSIZE
 40
2.5
  9
$TRACEWID
 40
1.0
  9
$TEXTSTYLE
  7
STANDARD
  9
$CLAYER
  8
0
  9
$CELTYPE
  6
ByLayer
  9
$CECOLOR
 62
   256
  9
$CELTSCALE
 40
1.0
  9
$DISPSILH
 70
     0
  9
$DIMSCALE
 40
1.0
  9
$DIMASZ
 40
3.5
  9
$DIMEXO
 40
1.0
  9
$DIMDLI
 40
10.0
  9
$DIMRND
 40
0.0
  9
$DIMDLE
 40
0.0
  9
$DIMEXE
 40
1.0
  9
$DIMTP
 40
0.1
  9
$DIMTM
 40
0.1
  9
$DIMTXT
 40
3.5
  9
$DIMCEN
 40
0.0
  9
$DIMTSZ
 40
0.0
  9
$DIMTOL
 70
     0
  9
$DIMLIM
 70
     0
  9
$DIMTIH
 70
     0
  9
$DIMTOH
 70
     0
  9
$DIMSE1
 70
     0
  9
$DIMSE2
 70
     0
  9
$DIMTAD
 70
     1
  9
$DIMZIN
 70
     8
  9
$DIMBLK
  1

  9
$DIMASO
 70
     1
  9
$DIMSHO
 70
     1
  9
$DIMPOST
  1

  9
$DIMAPOST
  1
"
  9
$DIMALT
 70
     0
  9
$DIMALTD
 70
     2
  9
$DIMALTF
 40
0.0393701
  9
$DIMLFAC
 40
1.0
  9
$DIMTOFL
 70
     1
  9
$DIMTVP
 40
0.0
  9
$DIMTIX
 70
     0
  9
$DIMSOXD
 70
     0
  9
$DIMSAH
 70
     0
  9
$DIMBLK1
  1

  9
$DIMBLK2
  1

  9
$DIMSTYLE
  2
AM_DIN
  9
$DIMCLRD
 70
   256
  9
$DIMCLRE
 70
   256
  9
$DIMCLRT
 70
     2
  9
$DIMTFAC
 40
0.71
  9
$DIMGAP
 40
1.5
  9
$DIMJUST
 70
     0
  9
$DIMSD1
 70
     0
  9
$DIMSD2
 70
     0
  9
$DIMTOLJ
 70
     0
  9
$DIMTZIN
 70
     8
  9
$DIMALTZ
 70
     0
  9
$DIMALTTZ
 70
     0
  9
$DIMUPT
 70
     0
  9
$DIMDEC
 70
     2
  9
$DIMTDEC
 70
     3
  9
$DIMALTU
 70
     2
  9
$DIMALTTD
 70
     4
  9
$DIMTXSTY
  7
STANDARD
  9
$DIMAUNIT
 70
     0
  9
$DIMADEC
 70
     0
  9
$DIMALTRND
 40
0.0
  9
$DIMAZIN
 70
     2
  9
$DIMDSEP
 70
    46
  9
$DIMATFIT
 70
     3
  9
$DIMFRAC
 70
     0
  9
$DIMLDRBLK
  1

  9
$DIMLUNIT
 70
     2
  9
$DIMLWD
 70
    -1
  9
$DIMLWE
 70
    -1
  9
$DIMTMOVE
 70
     0
  9
$LUNITS
 70
     2
  9
$LUPREC
 70
     2
  9
$SKETCHINC
 40
1.0
  9
$FILLETRAD
 40
0.0
  9
$AUNITS
 70
     0
  9
$AUPREC
 70
     0
  9
$MENU
  1
.
  9
$ELEVATION
 40
0.0
  9
$PELEVATION
 40
0.0
  9
$THICKNESS
 40
0.0
  9
$LIMCHECK
 70
     0
  9
$CHAMFERA
 40
2.5
  9
$CHAMFERB
 40
2.5
  9
$CHAMFERC
 40
20.0
  9
$CHAMFERD
 40
0.0
  9
$SKPOLY
 70
     0
  9
$TDCREATE
 40
2455477.553616193
  9
$TDUCREATE
 40
2455477.511949526
  9
$TDUPDATE
 40
2455610.492925706
  9
$TDUUPDATE
 40
2455610.451259039
  9
$TDINDWG
 40
0.0932126505
  9
$TDUSRTIMER
 40
0.0931134375
  9
$USRTIMER
 70
     1
  9
$ANGBASE
 50
0.0
  9
$ANGDIR
 70
     0
  9
$PDMODE
 70
     0
  9
$PDSIZE
 40
0.0
  9
$PLINEWID
 40
0.0
  9
$SPLFRAME
 70
     0
  9
$SPLINETYPE
 70
     6
  9
$SPLINESEGS
 70
     8
  9
$HANDSEED
  5
59D6
  9
$SURFTAB1
 70
     6
  9
$SURFTAB2
 70
     6
  9
$SURFTYPE
 70
     6
  9
$SURFU
 70
     6
  9
$SURFV
 70
     6
  9
$UCSBASE
  2

  9
$UCSNAME
  2

  9
$UCSORG
 10
0.0
 20
0.0
 30
0.0
  9
$UCSXDIR
 10
1.0
 20
0.0
 30
0.0
  9
$UCSYDIR
 10
0.0
 20
1.0
 30
0.0
  9
$UCSORTHOREF
  2

  9
$UCSORTHOVIEW
 70
     0
  9
$UCSORGTOP
 10
0.0
 20
0.0
 30
0.0
  9
$UCSORGBOTTOM
 10
0.0
 20
0.0
 30
0.0
  9
$UCSORGLEFT
 10
0.0
 20
0.0
 30
0.0
  9
$UCSORGRIGHT
 10
0.0
 20
0.0
 30
0.0
  9
$UCSORGFRONT
 10
0.0
 20
0.0
 30
0.0
  9
$UCSORGBACK
 10
0.0
 20
0.0
 30
0.0
  9
$PUCSBASE
  2

  9
$PUCSNAME
  2

  9
$PUCSORG
 10
0.0
 20
0.0
 30
0.0
  9
$PUCSXDIR
 10
1.0
 20
0.0
 30
0.0
  9
$PUCSYDIR
 10
0.0
 20
1.0
 30
0.0
  9
$PUCSORTHOREF
  2

  9
$PUCSORTHOVIEW
 70
     0
  9
$PUCSORGTOP
 10
0.0
 20
0.0
 30
0.0
  9
$PUCSORGBOTTOM
 10
0.0
 20
0.0
 30
0.0
  9
$PUCSORGLEFT
 10
0.0
 20
0.0
 30
0.0
  9
$PUCSORGRIGHT
 10
0.0
 20
0.0
 30
0.0
  9
$PUCSORGFRONT
 10
0.0
 20
0.0
 30
0.0
  9
$PUCSORGBACK
 10
0.0
 20
0.0
 30
0.0
  9
$USERI1
 70
     0
  9
$USERI2
 70
     0
  9
$USERI3
 70
     0
  9
$USERI4
 70
     0
  9
$USERI5
 70
     0
  9
$USERR1
 40
0.0
  9
$USERR2
 40
0.0
  9
$USERR3
 40
0.0
  9
$USERR4
 40
0.0
  9
$USERR5
 40
0.0
  9
$WORLDVIEW
 70
     1
  9
$SHADEDGE
 70
     3
  9
$SHADEDIF
 70
    70
  9
$TILEMODE
 70
     1
  9
$MAXACTVP
 70
    64
  9
$PINSBASE
 10
0.0
 20
0.0
 30
0.0
  9
$PLIMCHECK
 70
     0
  9
$PEXTMIN
 10
1.000000000000000E+20
 20
1.000000000000000E+20
 30
1.000000000000000E+20
  9
$PEXTMAX
 10
-1.000000000000000E+20
 20
-1.000000000000000E+20
 30
-1.000000000000000E+20
  9
$PLIMMIN
 10
0.0
 20
0.0
  9
$PLIMMAX
 10
420.0
 20
297.0
  9
$UNITMODE
 70
     0
  9
$VISRETAIN
 70
     1
  9
$PLINEGEN
 70
     0
  9
$PSLTSCALE
 70
     1
  9
$TREEDEPTH
 70
  3020
  9
$CMLSTYLE
  2
Standard
  9
$CMLJUST
 70
     0
  9
$CMLSCALE
 40
20.0
  9
$PROXYGRAPHICS
 70
     1
  9
$MEASUREMENT
 70
     1
  9
$CELWEIGHT
370
    -1
  9
$ENDCAPS
280
     0
  9
$JOINSTYLE
280
     0
  9
$LWDISPLAY
290
     0
  9
$INSUNITS
 70
     4
  9
$HYPERLINKBASE
  1

  9
$STYLESHEET
  1

  9
$XEDIT
290
     1
  9
$CEPSNTYPE
380
     0
  9
$PSTYLEMODE
290
     1
  9
$FINGERPRINTGUID
  2
{79BBCB45-C826-4422-B9A9-B5DDF74292BD}
  9
$VERSIONGUID
  2
{A615785A-14F9-4BFD-A969-29F6D2D677BC}
  9
$EXTNAMES
290
     1
  9
$PSVPSCALE
 40
0.0
  9
$OLESTARTUP
290
     0
  0
ENDSEC
  0
SECTION
  2
CLASSES
  0
CLASS
  1
ACDBDICTIONARYWDFLT
  2
AcDbDictionaryWithDefault
  3
ObjectDBX Classes
 90
        0
280
     0
281
     0
  0
CLASS
  1
ACME_DOCUMENT
  2
AcMeDbDoc
  3
AcMeServices
 90
     1024
280
     0
281
     0
  0
CLASS
  1
AMGSETTINGSOBJ
  2
AmgSettingsObj
  3
"AcadM|Product Description: AutoCAD Mechanical|Company: Autodesk, Inc."
 90
     1024
280
     0
281
     0
  0
CLASS
  1
ACMESCOPE
  2
AcMeScope
  3
AcMeServices
 90
     1024
280
     0
281
     0
  0
CLASS
  1
ACMECOMMANDHISTORY
  2
AcMeCommandHistory
  3
AcMeServices
 90
     1024
280
     0
281
     0
  0
CLASS
  1
ACIMSYSVARMAN
  2
AcImSysVarManager
  3
AcMeServices
 90
     1024
280
     0
281
     0
  0
CLASS
  1
ACIMREALSYSVAR
  2
AcImRealSysVar
  3
AcMeServices
 90
     1024
280
     0
281
     0
  0
CLASS
  1
ACIMINTSYSVAR
  2
AcImIntSysVar
  3
AcMeServices
 90
     1024
280
     0
281
     0
  0
CLASS
  1
ACMEDRAWINGMAN
  2
AcMeDrawingMan
  3
AcMeServices
 90
     1024
280
     0
281
     0
  0
CLASS
  1
ACMEVIEW
  2
AcMeView
  3
AcMeServices
 90
     1024
280
     0
281
     0
  0
CLASS
  1
ACDBENTITYCACHE
  2
AcMeEntityCache
  3
AcMeServices
 90
     1024
280
     0
281
     0
  0
CLASS
  1
GSMANAGER
  2
AcMeGSManager
  3
AcMeServices
 90
     1024
280
     0
281
     0
  0
CLASS
  1
AMDTINTERNALREACTOR
  2
AmdtInternalReactor
  3
AcMeServices
 90
     1024
280
     0
281
     0
  0
CLASS
  1
ACMESTATEMGR
  2
AcMeStateMgr
  3
AcMeServices
 90
     1024
280
     0
281
     0
  0
CLASS
  1
ACGREFMASTER
  2
AcGrefMaster
  3
AcAttribServices
 90
     1024
280
     0
281
     0
  0
CLASS
  1
ACME_DATABASE
  2
AcMeDbDatabase
  3
AcMeServices
 90
     1024
280
     0
281
     0
  0
CLASS
  1
ACRFINSADJUSTERMGR
  2
AcRfInsAdjusterMgr
  3
AcMeServices
 90
     1024
280
     0
281
     0
  0
CLASS
  1
ACGREFACADMASTER
  2
AcGrefacadMaster
  3
AcGrefServices
 90
     1024
280
     0
281
     0
  0
CLASS
  1
AMIMASTER
  2
AmiMaster
  3
AmiServices
 90
     1024
280
     0
281
     0
  0
CLASS
  1
ACMDATADICTIONARY
  2
AcmDataDictionary
  3
"AcmSymBB|Product Description: AutoCAD Mechanical|Company: Autodesk, Inc."
 90
     1024
280
     0
281
     0
  0
CLASS
  1
ACMDATAENTRYBLOCK
  2
AcmDataEntryBlock
  3
AcmSymBB|Product Description: AutoCAD Mechanical|Company: Autodesk, Inc.
 90
    33792
280
     0
281
     0
  0
CLASS
  1
ACIMSTRSYSVAR
  2
AcImStrSysVar
  3
AcMeServices
 90
     1024
280
     0
281
     0
  0
CLASS
  1
ACMSTANDARDISO
  2
AcmStandardISO
  3
"Amdt_StdImp|Product Description: AutoCAD Mechanical|Company: Autodesk, Inc."
 90
    33792
280
     0
281
     0
  0
CLASS
  1
AMGOBJPROPCFG
  2
AmgObjPropCfg
  3
"AmgLay|Product Description: AutoCAD Mechanical|Company: Autodesk, Inc."
 90
     1025
280
     0
281
     0
  0
CLASS
  1
AMDTEDGESTANDARDISO
  2
AmdtEdgeStdISO
  3
"Amdt_StdImp|Product Description: AutoCAD Mechanical|Company: Autodesk, Inc."
 90
    33792
280
     0
281
     0
  0
CLASS
  1
ACMSURFSTANDARDISO
  2
AcmSurfTextStdISO
  3
"Amdt_StdImp|Product Description: AutoCAD Mechanical|Company: Autodesk, Inc."
 90
    33792
280
     0
281
     0
  0
CLASS
  1
ACMFCFSTANDARDISO
  2
AcmFCFStdISO
  3
"Amdt_StdImp|Product Description: AutoCAD Mechanical|Company: Autodesk, Inc."
 90
    33792
280
     0
281
     0
  0
CLASS
  1
ACMWELDSTANDARDISO
  2
AcmWeldingStdISO
  3
"Amdt_StdImp|Product Description: AutoCAD Mechanical|Company: Autodesk, Inc."
 90
    33792
280
     0
281
     0
  0
CLASS
  1
ACMIDSTANDARDISO
  2
AcmIdStdISO
  3
"Amdt_StdImp|Product Description: AutoCAD Mechanical|Company: Autodesk, Inc."
 90
    33792
280
     0
281
     0
  0
CLASS
  1
ACMDATUMSTANDARDISO
  2
AcmDatumStdISO
  3
"Amdt_StdImp|Product Description: AutoCAD Mechanical|Company: Autodesk, Inc."
 90
    33792
280
     0
281
     0
  0
CLASS
  1
ACMBOMSTANDARDISO
  2
AcmBOMStdISO
  3
"Amdt_StdImp|Product Description: AutoCAD Mechanical|Company: Autodesk, Inc."
 90
    33792
280
     0
281
     0
  0
CLASS
  1
ACMDETAILSTANDARDISO
  2
AmdtDetailSymStdISO
  3
"Amdt_StdImp|Product Description: AutoCAD Mechanical|Company: Autodesk, Inc."
 90
    33792
280
     0
281
     0
  0
CLASS
  1
ACMSECTIONSTANDARDISO
  2
AmdtSectionSymStdISO
  3
"Amdt_StdImp|Product Description: AutoCAD Mechanical|Company: Autodesk, Inc."
 90
    33792
280
     0
281
     0
  0
CLASS
  1
ACMCENTERLINESTANDARDISO
  2
AmdtCenterLineStdISO
  3
"Amdt_StdImp|Product Description: AutoCAD Mechanical|Company: Autodesk, Inc."
 90
    33792
280
     0
281
     0
  0
CLASS
  1
ACMNOTESTANDARDISO
  2
AmdtNoteStdISO
  3
"Amdt_StdImp|Product Description: AutoCAD Mechanical|Company: Autodesk, Inc."
 90
    33792
280
     0
281
     0
  0
CLASS
  1
ACAMGLAYSTD
  2
AcAmgLayStd
  3
"AmgLay|Product Description: AutoCAD Mechanical|Company: Autodesk, Inc."
 90
     1024
280
     0
281
     0
  0
CLASS
  1
ACAMGDIMSTD
  2
AcAmgDimStd
  3
"AmgDim|Product Description: AutoCAD Mechanical|Company: Autodesk, Inc."
 90
     1024
280
     0
281
     0
  0
CLASS
  1
ACAMGHOLECHARTSTDISO
  2
AcAmgHoleChartStdISO
  3
AmgDim|Product Description: AutoCAD Mechanical|Company: Autodesk, Inc.
 90
    33792
280
     0
281
     0
  0
CLASS
  1
ACAMGTITLESTD
  2
AcAmgTitleStd
  3
"AmgTitle|Product Description: AutoCAD Mechanical|Company: Autodesk, Inc."
 90
     4095
280
     0
281
     0
  0
CLASS
  1
LAYER_INDEX
  2
AcDbLayerIndex
  3
ObjectDBX Classes
 90
    32768
280
     0
281
     0
  0
CLASS
  1
IDBUFFER
  2
AcDbIdBuffer
  3
ObjectDBX Classes
 90
    32768
280
     0
281
     0
  0
CLASS
  1
DICTIONARYVAR
  2
AcDbDictionaryVar
  3
ObjectDBX Classes
 90
        0
280
     0
281
     0
  0
CLASS
  1
AM_DRAWING_MGR
  2
AcDmDwgMgr
  3
AcMechDwgViewMgmt
 90
     1024
280
     0
281
     0
  0
CLASS
  1
AM_DWG_DOCUMENT
  2
AcDmDwgDocument
  3
AcMechDwgViewMgmt
 90
     1024
280
     0
281
     0
  0
CLASS
  1
AM_DWG_SHEET
  2
AcDmSheet
  3
AcMechDwgViewMgmt
 90
     1024
280
     0
281
     0
  0
CLASS
  1
AM_VIEWDIMPARMAP
  2
AcDmViewDimParMap
  3
AcMechDwgViewMgmt
 90
     1024
280
     0
281
     0
  0
CLASS
  1
AM_DWGMGR_NAME
  2
AcDmDwgMgrName
  3
AcMechDwgViewMgmt
 90
     1024
280
     0
281
     0
  0
CLASS
  1
AMDTMENUSTATEMGR
  2
AmdtMenuStateMgr
  3
McadcomServices
 90
     1024
280
     0
281
     0
  0
CLASS
  1
AMDTMCOMMENUSTATE
  2
AmdtMcomMenuState
  3
McadcomServices
 90
     1024
280
     0
281
     0
  0
CLASS
  1
MAPIAMMOUDLE
  2
MApiAmModule
  3
MApiAmServices
 90
     1024
280
     0
281
     0
  0
CLASS
  1
AMDTADMENUSTATE
  2
AmdtAdMenuState
  3
DesignerServices
 90
     1024
280
     0
281
     0
  0
CLASS
  1
ADAPPL
  2
AcAdAppl
  3
DesignerServices
 90
     1024
280
     0
281
     0
  0
CLASS
  1
DEPMGR
  2
AcAdDepMgr
  3
DesignerServices
 90
     1024
280
     0
281
     0
  0
CLASS
  1
PARAMMGR
  2
AcAdParamMgr
  3
DesignerServices
 90
     1024
280
     0
281
     0
  0
CLASS
  1
PARAMSCOPE
  2
AcAdParamScope
  3
DesignerServices
 90
     1024
280
     0
281
     0
  0
CLASS
  1
NAMEDAPPL
  2
AcAdNamedAppl
  3
DesignerServices
 90
     1024
280
     0
281
     0
  0
CLASS
  1
AMDTDMMENUSTATE
  2
AmdtDmMenuState
  3
AcMechDwgViewMgmt
 90
     1024
280
     0
281
     0
  0
CLASS
  1
AMDTAMMENUSTATE
  2
AmdtAmMenuState
  3
DesignerAssemblies
 90
     1024
280
     0
281
     0
  0
CLASS
  1
ACAMPROJECT
  2
AcAmProject
  3
DesignerAssemblies
 90
     1024
280
     0
281
     0
  0
CLASS
  1
ACAMGRCOMPDEF
  2
AcAmGrCompDef
  3
DesignerAssemblies
 90
     1024
280
     0
281
     0
  0
CLASS
  1
ACCMCONTEXT
  2
AcCmContext
  3
DesignerAssemblies
 90
     1024
280
     0
281
     0
  0
CLASS
  1
ACAMCOMPDEF
  2
AcAmCompDef
  3
DesignerAssemblies
 90
     1024
280
     0
281
     0
  0
CLASS
  1
ACAMCOMPDEFMGR
  2
AcAmCompDefMgr
  3
DesignerAssemblies
 90
     1024
280
     0
281
     0
  0
CLASS
  1
AMCONTEXTMGR
  2
AcAmContextMgr
  3
DesignerAssemblies
 90
     1024
280
     0
281
     0
  0
CLASS
  1
ACAMCONTEXTMODELER
  2
AcAmContextModeler
  3
DesignerAssemblies
 90
     1024
280
     0
281
     0
  0
CLASS
  1
ACMTHREADLINESTANDARDISO
  2
AmdtThreadLineStdISO
  3
"Amdt_StdImp|Product Description: AutoCAD Mechanical|Company: Autodesk, Inc."
 90
    33792
280
     0
281
     0
  0
CLASS
  1
CATALOGSTATE
  2
AcAmCatalogState
  3
DesignerAssemblies
 90
     1024
280
     0
281
     0
  0
CLASS
  1
ACAMGRCOMPDEFSET
  2
AcAmGrCompDefSet
  3
DesignerAssemblies
 90
     1024
280
     0
281
     0
  0
CLASS
  1
AMDTBROWSERDBTAB
  2
AmdtBrowserDbTab
  3
McadcomServices
 90
     1024
280
     0
281
     0
  0
CLASS
  1
CBROWSERAPPOBJECT
  2
CBrowserAppObject
  3
McadcomServices
 90
     1024
280
     0
281
     0
  0
CLASS
  1
DM_PLACEHOLDER
  2
AcDmSelsetPlaceholder
  3
AcMechDwgViewMgmt
 90
     1024
280
     0
281
     0
  0
CLASS
  1
TABLESTYLE
  2
AcDbTableStyle
  3
ObjectDBX Classes
 90
     4095
280
     0
281
     0
  0
CLASS
  1
VAACXREFPANELOBJECT
  2
VaAcXREFPanelObject
  3
VAAC_ADDIN
 90
    32768
280
     0
281
     0
  0
CLASS
  1
VAACIMAGEINVENTORY
  2
VaAcImageInventory
  3
VAAC_ADDIN
 90
    32768
280
     0
281
     0
  0
CLASS
  1
AMDTNOTETEMPLATEDB
  2
AmdtNoteTemplateDB
  3
AcmSymBB|Product Description: AutoCAD Mechanical|Company: Autodesk, Inc.
 90
     1024
280
     0
281
     0
  0
CLASS
  1
ACAMGFILTERDAT
  2
AcAmgFilterDat
  3
"AcadM|Product Description: AutoCAD Mechanical|Company: Autodesk, Inc."
 90
    33792
280
     0
281
     0
  0
CLASS
  1
ACMBOM
  2
AcmBom
  3
"AcmSymBB|Product Description: AutoCAD Mechanical|Company: Autodesk, Inc."
 90
    33792
280
     0
281
     0
  0
CLASS
  1
AMDTFORMULAUPDATEDISPATCHER
  2
AmdtFormulaUpdateDispatcher
  3
AcMeServices
 90
    33792
280
     0
281
     0
  0
CLASS
  1
ACMSTANDARDDIN
  2
AcmStandardDIN
  3
"Amdt_StdImp|Product Description: AutoCAD Mechanical|Company: Autodesk, Inc."
 90
     1024
280
     0
281
     0
  0
CLASS
  1
AMDTEDGESTANDARDDIN13715
  2
AmdtEdgeStdDIN13715
  3
"Amdt_StdImp|Product Description: AutoCAD Mechanical|Company: Autodesk, Inc."
 90
     1024
280
     0
281
     0
  0
CLASS
  1
ACMSURFSTANDARDDIN
  2
AcmSurfTextStdDIN
  3
"Amdt_StdImp|Product Description: AutoCAD Mechanical|Company: Autodesk, Inc."
 90
    33792
280
     0
281
     0
  0
CLASS
  1
ACMFCFSTANDARDDIN
  2
AcmFCFStdDIN
  3
"Amdt_StdImp|Product Description: AutoCAD Mechanical|Company: Autodesk, Inc."
 90
     1024
280
     0
281
     0
  0
CLASS
  1
ACMWELDSTANDARDDIN
  2
AcmWeldingStdDIN
  3
"Amdt_StdImp|Product Description: AutoCAD Mechanical|Company: Autodesk, Inc."
 90
     1024
280
     0
281
     0
  0
CLASS
  1
ACMIDSTANDARDDIN
  2
AcmIdStdDIN
  3
"Amdt_StdImp|Product Description: AutoCAD Mechanical|Company: Autodesk, Inc."
 90
     1024
280
     0
281
     0
  0
CLASS
  1
ACMDATUMSTANDARDDIN
  2
AcmDatumStdDIN
  3
"Amdt_StdImp|Product Description: AutoCAD Mechanical|Company: Autodesk, Inc."
 90
     1024
280
     0
281
     0
  0
CLASS
  1
ACMBOMSTANDARDDIN
  2
AcmBOMStdDIN
  3
"Amdt_StdImp|Product Description: AutoCAD Mechanical|Company: Autodesk, Inc."
 90
     1024
280
     0
281
     0
  0
CLASS
  1
ACMDETAILSTANDARDDIN
  2
AmdtDetailSymStdDIN
  3
"Amdt_StdImp|Product Description: AutoCAD Mechanical|Company: Autodesk, Inc."
 90
     1024
280
     0
281
     0
  0
CLASS
  1
ACMSECTIONSTANDARDDIN
  2
AmdtSectionSymStdDIN
  3
"Amdt_StdImp|Product Description: AutoCAD Mechanical|Company: Autodesk, Inc."
 90
     1024
280
     0
281
     0
  0
CLASS
  1
ACMCENTERLINESTANDARDDIN
  2
AmdtCenterLineStdDIN
  3
"Amdt_StdImp|Product Description: AutoCAD Mechanical|Company: Autodesk, Inc."
 90
     1024
280
     0
281
     0
  0
CLASS
  1
ACMTHREADLINESTANDARDDIN
  2
AmdtThreadLineStdDIN
  3
"Amdt_StdImp|Product Description: AutoCAD Mechanical|Company: Autodesk, Inc."
 90
     1024
280
     0
281
     0
  0
CLASS
  1
ACMNOTESTANDARDDIN
  2
AmdtNoteStdDIN
  3
"Amdt_StdImp|Product Description: AutoCAD Mechanical|Company: Autodesk, Inc."
 90
     1024
280
     0
281
     0
  0
CLASS
  1
ACAMGHOLECHARTSTDDIN
  2
AcAmgHoleChartStdDIN
  3
AmgDim|Product Description: AutoCAD Mechanical|Company: Autodesk, Inc.
 90
     1024
280
     0
281
     0
  0
CLASS
  1
MATERIAL
  2
AcDbMaterial
  3
ObjectDBX Classes
 90
     1153
280
     0
281
     0
  0
CLASS
  1
VISUALSTYLE
  2
AcDbVisualStyle
  3
ObjectDBX Classes
 90
     4095
280
     0
281
     0
  0
CLASS
  1
SCALE
  2
AcDbScale
  3
ObjectDBX Classes
 90
     1153
280
     0
281
     0
  0
CLASS
  1
MLEADERSTYLE
  2
AcDbMLeaderStyle
  3
ACDB_MLEADERSTYLE_CLASS
 90
     4095
280
     0
281
     0
  0
CLASS
  1
ACRFATTGENMGR
  2
AcRfAttGeneralMgr
  3
AcAttribServices
 90
    33792
280
     0
281
     0
  0
CLASS
  1
ACRFOBJATTMGR
  2
AcRfObjAttGroupMgr
  3
AcAttribServices
 90
    33792
280
     0
281
     0
  0
CLASS
  1
ACRFMCADAPIATTHOLDER
  2
AcRfMCADAPIAttHolder
  3
AcAttribServices
 90
    33792
280
     0
281
     0
  0
CLASS
  1
AMDTSYSATTR
  2
AmdtSystemAttribute
  3
AcAttribServices
 90
    33792
280
     0
281
     0
  0
CLASS
  1
ACMTAPERSTANDARDISO
  2
AcmTaperStdISO
  3
"Amdt_StdImp|Product Description: AutoCAD Mechanical|Company: Autodesk, Inc."
 90
    33792
280
     0
281
     0
  0
CLASS
  1
ACMANOOTATIONVIEWSTANDARDISO
  2
AmdtAnViewStdISO
  3
"Amdt_StdImp|Product Description: AutoCAD Mechanical|Company: Autodesk, Inc."
 90
    33792
280
     0
281
     0
  0
CLASS
  1
ACMTAPERSTANDARDDIN
  2
AcmTaperStdDIN
  3
"Amdt_StdImp|Product Description: AutoCAD Mechanical|Company: Autodesk, Inc."
 90
     1024
280
     0
281
     0
  0
CLASS
  1
ACMANOOTATIONVIEWSTANDARDDIN
  2
AmdtAnViewStdDIN
  3
"Amdt_StdImp|Product Description: AutoCAD Mechanical|Company: Autodesk, Inc."
 90
     1024
280
     0
281
     0
  0
CLASS
  1
EXACXREFPANELOBJECT
  2
ExAcXREFPanelObject
  3
EXAC_ESW
 90
     1025
280
     0
281
     0
  0
CLASS
  1
NPOCOLLECTION
  2
AcDbImpNonPersistentObjectsCollection
  3
ObjectDBX Classes
 90
     1153
280
     0
281
     0
  0
CLASS
  1
SORTENTSTABLE
  2
AcDbSortentsTable
  3
ObjectDBX Classes
 90
        0
280
     0
281
     0
  0
CLASS
  1
AEC_REFEDIT_STATUS_TRACKER
  2
AecDbRefEditStatusTracker
  3
AecArchBase50|Product Desc: Autodesk Architectural Desktop 2007 |Company: Autodesk,Inc. |WEB Address: www.autodesk.com
 90
      129
280
     0
281
     0
  0
CLASS
  1
DIMASSOC
  2
AcDbDimAssoc
  3
"AcDbDimAssoc|Product Desc:     AcDim ARX App For Dimension|Company:          Autodesk, Inc.|WEB Address:      www.autodesk.com"
 90
    32768
280
     0
281
     0
  0
CLASS
  1
CAMSSTRUCTBTNSTATE
  2
StructBtnState
  3
DesignerAssemblies
 90
    33792
280
     0
281
     0
  0
CLASS
  1
CELLSTYLEMAP
  2
AcDbCellStyleMap
  3
ObjectDBX Classes
 90
     1152
280
     0
281
     0
  0
CLASS
  1
ACMDIMBREAKPERSREACTOR
  2
AcmDimBreakPersReactor
  3
AmgDim|Product Description: AutoCAD Mechanical|Company: Autodesk, Inc.
 90
    36863
280
     0
281
     0
  0
CLASS
  1
ACMSURFSTANDARDDIN2002
  2
AcmSurfTextStdDIN2002
  3
"Amdt_StdImp|Product Description: AutoCAD Mechanical|Company: Autodesk, Inc."
 90
     1024
280
     0
281
     0
  0
CLASS
  1
ACDBPLACEHOLDER
  2
AcDbPlaceHolder
  3
ObjectDBX Classes
 90
        0
280
     0
281
     0
  0
CLASS
  1
LAYOUT
  2
AcDbLayout
  3
ObjectDBX Classes
 90
        0
280
     0
281
     0
  0
ENDSEC
  0
SECTION
  2
TABLES
  0
TABLE
  2
VPORT
  5
8
330
0
100
AcDbSymbolTable
 70
     1
  0
VPORT
  5
3B2
330
8
100
AcDbSymbolTableRecord
100
AcDbViewportTableRecord
  2
*Active
 70
     0
 10
0.0
 20
0.0
 11
1.0
 21
1.0
 12
2504.406710417757
 22
2018.065132626639
 13
0.0
 23
0.0
 14
2.5
 24
2.5
 15
10.0
 25
10.0
 16
0.0
 26
0.0
 36
1.0
 17
0.0
 27
0.0
 37
0.0
 40
502.9508175977948
 41
1.752272727272727
 42
50.0
 43
0.0
 44
0.0
 50
0.0
 51
0.0
 71
     0
 72
   100
 73
     1
 74
     3
 75
     0
 76
     0
 77
     0
 78
     0
281
     0
 65
     0
110
0.0
120
0.0
130
0.0
111
1.0
121
0.0
131
0.0
112
0.0
122
1.0
132
0.0
 79
     0
146
0.0
  0
ENDTAB
  0
TABLE
  2
LTYPE
  5
5
330
0
100
AcDbSymbolTable
 70
    21
  0
LTYPE
  5
14
330
5
100
AcDbSymbolTableRecord
100
AcDbLinetypeTableRecord
  2
ByBlock
 70
     0
  3

 72
    65
 73
     0
 40
0.0
  0
LTYPE
  5
15
330
5
100
AcDbSymbolTableRecord
100
AcDbLinetypeTableRecord
  2
ByLayer
 70
     0
  3

 72
    65
 73
     0
 40
0.0
  0
LTYPE
  5
16
330
5
100
AcDbSymbolTableRecord
100
AcDbLinetypeTableRecord
  2
Continuous
 70
     0
  3
Solid line
 72
    65
 73
     0
 40
0.0
  0
LTYPE
  5
67
330
5
100
AcDbSymbolTableRecord
100
AcDbLinetypeTableRecord
  2
Amconstr
 70
     0
  3
_______________________
 72
    65
 73
     2
 40
9999.0
 49
9999.0
 74
     0
 49
0.0
 74
     0
  0
LTYPE
  5
6C
330
5
100
AcDbSymbolTableRecord
100
AcDbLinetypeTableRecord
  2
Amzigzag
 70
     0
  3
/\/-/\/-/\/-/\/-/\/-/\/
 72
    65
 73
     2
 40
11.0001
 49
0.0001
 74
     4
 75
   136
340
22C
 46
0.04
 50
0.0
 44
0.0
 45
0.0
 49
-11.0
 74
     0
  0
LTYPE
  5
7E
330
5
100
AcDbSymbolTableRecord
100
AcDbLinetypeTableRecord
  2
CENTER
 70
     0
  3
__ . __
 72
    65
 73
     4
 40
7.0
 49
4.0
 74
     0
 49
-1.0
 74
     0
 49
1.0
 74
     0
 49
-1.0
 74
     0
  0
LTYPE
  5
D8
330
5
100
AcDbSymbolTableRecord
100
AcDbLinetypeTableRecord
  2
HIDDEN
 70
     0
  3
Hidden __ __ __ __ __ __ __ __ __ __ __ __ __ _
 72
    65
 73
     2
 40
9.524999999999996
 49
6.349999999999997
 74
     0
 49
-3.174999999999998
 74
     0
  0
LTYPE
  5
D9
330
5
100
AcDbSymbolTableRecord
100
AcDbLinetypeTableRecord
  2
PHANTOM2
 70
     0
  3
Phantom (.5x) ___ _ _ ___ _ _ ___ _ _ ___ _ _
 72
    65
 73
     6
 40
31.75
 49
15.875
 74
     0
 49
-3.174999999999998
 74
     0
 49
3.174999999999998
 74
     0
 49
-3.174999999999998
 74
     0
 49
3.174999999999998
 74
     0
 49
-3.174999999999998
 74
     0
  0
LTYPE
  5
2E5
330
5
100
AcDbSymbolTableRecord
100
AcDbLinetypeTableRecord
  2
ACDINWELD
 70
     0
  3
_ _ _ _ _
 72
    65
 73
     2
 40
2.0
 49
2.0
 74
     0
 49
-1.0
 74
     0
  0
LTYPE
  5
2E6
330
5
100
AcDbSymbolTableRecord
100
AcDbLinetypeTableRecord
  2
ACDINTGB
 70
     0
  3
__ . . __ . .
 72
    65
 73
     6
 40
9.0
 49
4.0
 74
     0
 49
-1.0
 74
     0
 49
1.0
 74
     0
 49
-1.0
 74
     0
 49
1.0
 74
     0
 49
-1.0
 74
     0
  0
LTYPE
  5
2E7
330
5
100
AcDbSymbolTableRecord
100
AcDbLinetypeTableRecord
  2
ACDINTGL
 70
     0
  3
_ _ _ _ _
 72
    65
 73
     2
 40
3.0
 49
2.0
 74
     0
 49
-1.0
 74
     0
  0
LTYPE
  5
321
330
5
100
AcDbSymbolTableRecord
100
AcDbLinetypeTableRecord
  2
AM_DIN_F_W050
 70
     0
  3
__ __ __ __ __ __ __ __ __ __ __ __ __ __ __
 72
    65
 73
     2
 40
6.25
 49
4.75
 74
     0
 49
-1.5
 74
     0
  0
LTYPE
  5
322
330
5
100
AcDbSymbolTableRecord
100
AcDbLinetypeTableRecord
  2
AM_DIN_G_W050
 70
     0
  3
____ . ____ . ____ . ____ . ____ . ____ . ____
 72
    65
 73
     4
 40
13.75
 49
9.75
 74
     0
 49
-1.5
 74
     0
 49
1.0
 74
     0
 49
-1.5
 74
     0
  0
LTYPE
  5
323
330
5
100
AcDbSymbolTableRecord
100
AcDbLinetypeTableRecord
  2
AM_DIN_K_W050
 70
     0
  3
_____ . . _____ . . _____ . . ____ .. ____
 72
    65
 73
     6
 40
16.25
 49
9.75
 74
     0
 49
-1.5
 74
     0
 49
1.0
 74
     0
 49
-1.5
 74
     0
 49
1.0
 74
     0
 49
-1.5
 74
     0
  0
LTYPE
  5
324
330
5
100
AcDbSymbolTableRecord
100
AcDbLinetypeTableRecord
  2
AM_DIN_G_W050x2
 70
     0
  3
__ . __ . __ . __ . __ . __
 72
    65
 73
     4
 40
6.875
 49
4.75
 74
     0
 49
-0.875
 74
     0
 49
0.375
 74
     0
 49
-0.875
 74
     0
  0
LTYPE
  5
325
330
5
100
AcDbSymbolTableRecord
100
AcDbLinetypeTableRecord
  2
AM_DIN_F_W050x2
 70
     0
  3
 _ _ _ _ _ _ _ _ _ _ _ _
 72
    65
 73
     2
 40
3.125
 49
2.25
 74
     0
 49
-0.875
 74
     0
  0
LTYPE
  5
459
330
5
100
AcDbSymbolTableRecord
100
AcDbLinetypeTableRecord
  2
STRICHPUNKT
 70
     0
  3
Strichpunkt __ . __ . __ . __ . __ . __ . __ . 
 72
    65
 73
     4
 40
25.4
 49
12.7
 74
     0
 49
-6.349999999999997
 74
     0
 49
0.0
 74
     0
 49
-6.349999999999997
 74
     0
  0
LTYPE
  5
45A
330
5
100
AcDbSymbolTableRecord
100
AcDbLinetypeTableRecord
  2
STRICHLINIE
 70
     0
  3
Strichlinie __ __ __ __ __ __ __ __ __ __ __ __
 72
    65
 73
     2
 40
19.05
 49
12.7
 74
     0
 49
-6.349999999999997
 74
     0
  0
LTYPE
  5
5571
330
5
100
AcDbSymbolTableRecord
100
AcDbLinetypeTableRecord
  2
AM_ISO02W050
 70
     0
  3
__ __ __ __ __ __ __ __ __ __ __ __ __ __ __
 72
    65
 73
     2
 40
7.5
 49
6.0
 74
     0
 49
-1.5
 74
     0
  0
LTYPE
  5
5572
330
5
100
AcDbSymbolTableRecord
100
AcDbLinetypeTableRecord
  2
AM_ISO08W050
 70
     0
  3
____ . ____ . ____ . ____ . ____ . ____ . ____
 72
    65
 73
     4
 40
18.0
 49
12.0
 74
     0
 49
-1.5
 74
     0
 49
3.0
 74
     0
 49
-1.5
 74
     0
  0
LTYPE
  5
5573
330
5
100
AcDbSymbolTableRecord
100
AcDbLinetypeTableRecord
  2
AM_ISO09W050
 70
     0
  3
_____ . . _____ . . _____ . . ____ .. ____
 72
    65
 73
     6
 40
22.5
 49
12.0
 74
     0
 49
-1.5
 74
     0
 49
3.0
 74
     0
 49
-1.5
 74
     0
 49
3.0
 74
     0
 49
-1.5
 74
     0
  0
LTYPE
  5
5574
330
5
100
AcDbSymbolTableRecord
100
AcDbLinetypeTableRecord
  2
AM_ISO08W050x2
 70
     0
  3
__ . __ . __ . __ . __ . __
 72
    65
 73
     4
 40
9.0
 49
6.0
 74
     0
 49
-0.75
 74
     0
 49
1.5
 74
     0
 49
-0.75
 74
     0
  0
LTYPE
  5
5575
330
5
100
AcDbSymbolTableRecord
100
AcDbLinetypeTableRecord
  2
AM_ISO02W050x2
 70
     0
  3
 _ _ _ _ _ _ _ _ _ _ _ _
 72
    65
 73
     2
 40
3.75
 49
3.0
 74
     0
 49
-0.75
 74
     0
  0
ENDTAB
  0
TABLE
  2
LAYER
  5
2
102
{ACAD_XDICTIONARY
360
470
102
}
330
0
100
AcDbSymbolTable
 70
     8
  0
LAYER
  5
10
102
{ACAD_XDICTIONARY
360
4CED
102
}
330
2
100
AcDbSymbolTableRecord
100
AcDbLayerTableRecord
  2
0
 70
     0
 62
     7
  6
Continuous
370
    -3
390
F
  0
LAYER
  5
45B
102
{ACAD_XDICTIONARY
360
45C
102
}
330
2
100
AcDbSymbolTableRecord
100
AcDbLayerTableRecord
  2
P-0000
 70
     0
 62
     7
  6
Continuous
370
    -3
390
F
  0
LAYER
  5
45D
330
2
100
AcDbSymbolTableRecord
100
AcDbLayerTableRecord
  2
Defpoints
 70
     0
 62
     7
  6
Continuous
290
     0
370
    -3
390
F
  0
LAYER
  5
45E
102
{ACAD_XDICTIONARY
360
45F
102
}
330
2
100
AcDbSymbolTableRecord
100
AcDbLayerTableRecord
  2
AM_5
 70
     0
 62
     3
  6
Continuous
370
    25
390
F
1001
AcAecLayerStandard
1000

1000

  0
LAYER
  5
462
102
{ACAD_XDICTIONARY
360
463
102
}
330
2
100
AcDbSymbolTableRecord
100
AcDbLayerTableRecord
  2
AM_8
 70
     0
 62
     1
  6
Continuous
370
    25
390
F
  0
LAYER
  5
466
102
{ACAD_XDICTIONARY
360
467
102
}
330
2
100
AcDbSymbolTableRecord
100
AcDbLayerTableRecord
  2
AM_CL
 70
     0
 62
     1
  6
Amconstr
370
    25
390
F
1001
AcAecLayerStandard
1000

1000

  0
LAYER
  5
25C5
102
{ACAD_XDICTIONARY
360
25C6
102
}
330
2
100
AcDbSymbolTableRecord
100
AcDbLayerTableRecord
  2
AM_7
 70
     0
 62
     4
  6
AM_DIN_G_W050
370
    25
390
F
1001
AcAecLayerStandard
1000

1000

  0
LAYER
  5
33F9
102
{ACAD_XDICTIONARY
360
33FA
102
}
330
2
100
AcDbSymbolTableRecord
100
AcDbLayerTableRecord
  2
P-4229
 70
     0
 62
     7
  6
Continuous
370
    -3
390
F
  0
ENDTAB
  0
TABLE
  2
STYLE
  5
3
330
0
100
AcDbSymbolTable
 70
     4
  0
STYLE
  5
11
330
3
100
AcDbSymbolTableRecord
100
AcDbTextStyleTableRecord
  2
STANDARD
 70
     0
 40
0.0
 41
1.0
 50
0.0
 71
     0
 42
2.5
  3
ISOCP.SHX
  4

  0
STYLE
  5
22C
330
3
100
AcDbSymbolTableRecord
100
AcDbTextStyleTableRecord
  2

 70
     1
 40
0.0
 41
1.0
 50
0.0
 71
     0
 42
2.5
  3
genltshp.shx
  4

  0
STYLE
  5
2E4
330
3
100
AcDbSymbolTableRecord
100
AcDbTextStyleTableRecord
  2
ACDINGDT
 70
     0
 40
0.0
 41
1.0
 50
0.0
 71
     0
 42
2.5
  3
amgdt.shx
  4

  0
STYLE
  5
5647
330
3
100
AcDbSymbolTableRecord
100
AcDbTextStyleTableRecord
  2
ACDINTS
 70
     0
 40
1.0
 41
1.0
 50
0.0
 71
     0
 42
2.5
  3
isocp.shx
  4

  0
ENDTAB
  0
TABLE
  2
VIEW
  5
6
330
0
100
AcDbSymbolTable
 70
     0
  0
ENDTAB
  0
TABLE
  2
UCS
  5
7
330
0
100
AcDbSymbolTable
 70
     0
  0
ENDTAB
  0
TABLE
  2
APPID
  5
9
330
0
100
AcDbSymbolTable
 70
    25
  0
APPID
  5
12
330
9
100
AcDbSymbolTableRecord
100
AcDbRegAppTableRecord
  2
ACAD
 70
     0
  0
APPID
  5
46
330
9
100
AcDbSymbolTableRecord
100
AcDbRegAppTableRecord
  2
MCAD_NO_VIS
 70
     0
  0
APPID
  5
47
330
9
100
AcDbSymbolTableRecord
100
AcDbRegAppTableRecord
  2
ACAD_TEMP_GRAPHIC
 70
     0
  0
APPID
  5
58
330
9
100
AcDbSymbolTableRecord
100
AcDbRegAppTableRecord
  2
ACATTRIBSERVICES
 70
     0
  0
APPID
  5
EE
330
9
100
AcDbSymbolTableRecord
100
AcDbRegAppTableRecord
  2
AD_DRAW
 70
     0
  0
APPID
  5
10C
330
9
100
AcDbSymbolTableRecord
100
AcDbRegAppTableRecord
  2
DESIGNERASSEMBLIES
 70
     0
  0
APPID
  5
111
330
9
100
AcDbSymbolTableRecord
100
AcDbRegAppTableRecord
  2
ACADM_DIM_EDIT
 70
     0
  0
APPID
  5
112
330
9
100
AcDbSymbolTableRecord
100
AcDbRegAppTableRecord
  2
AMDT_DM_ADJ
 70
     0
  0
APPID
  5
1A3
330
9
100
AcDbSymbolTableRecord
100
AcDbRegAppTableRecord
  2
ACAD_DSTYLE_DIMARC_LENGTH_SYMBOL
 70
     0
  0
APPID
  5
1A4
330
9
100
AcDbSymbolTableRecord
100
AcDbRegAppTableRecord
  2
ACAD_DSTYLE_DIMJOGGED_JOGANGLE_SYMBOL
 70
     0
  0
APPID
  5
3F1
330
9
100
AcDbSymbolTableRecord
100
AcDbRegAppTableRecord
  2
ACAD_MLEADERVER
 70
     0
  0
APPID
  5
46A
330
9
100
AcDbSymbolTableRecord
100
AcDbRegAppTableRecord
  2
ACME_LAYERS
 70
     0
  0
APPID
  5
46B
330
9
100
AcDbSymbolTableRecord
100
AcDbRegAppTableRecord
  2
AcAecLayerStandard
 70
     0
  0
APPID
  5
46C
330
9
100
AcDbSymbolTableRecord
100
AcDbRegAppTableRecord
  2
ACAD_DSTYLE_DIMINSPECT
 70
     0
  0
APPID
  5
46D
330
9
100
AcDbSymbolTableRecord
100
AcDbRegAppTableRecord
  2
GENIUS_GENODEF_13
 70
     0
  0
APPID
  5
46E
330
9
100
AcDbSymbolTableRecord
100
AcDbRegAppTableRecord
  2
GENIUS_GENOBJ-N-HTC_13
 70
     0
  0
APPID
  5
46F
330
9
100
AcDbSymbolTableRecord
100
AcDbRegAppTableRecord
  2
GENIUS_GENHATCH_13
 70
     0
  0
APPID
  5
1415
330
9
100
AcDbSymbolTableRecord
100
AcDbRegAppTableRecord
  2
GENIUS_GENDTOL_13
 70
     0
  0
APPID
  5
33FC
330
9
100
AcDbSymbolTableRecord
100
AcDbRegAppTableRecord
  2
ACAD_PSEXT
 70
     0
  0
APPID
  5
45BE
330
9
100
AcDbSymbolTableRecord
100
AcDbRegAppTableRecord
  2
ACAD_EXEMPT_FROM_CAD_STANDARDS
 70
     0
  0
APPID
  5
45E0
330
9
100
AcDbSymbolTableRecord
100
AcDbRegAppTableRecord
  2
GENIUS_GENOBJ-N-CEN_13
 70
     0
  0
APPID
  5
45E1
330
9
100
AcDbSymbolTableRecord
100
AcDbRegAppTableRecord
  2
GENIUS_GENCEN_19
 70
     0
  0
APPID
  5
4D0A
330
9
100
AcDbSymbolTableRecord
100
AcDbRegAppTableRecord
  2
ACAD_DSTYLE_DIM_LINETYPE
 70
     0
  0
APPID
  5
4D0B
330
9
100
AcDbSymbolTableRecord
100
AcDbRegAppTableRecord
  2
ACAD_DSTYLE_DIM_EXT1_LINETYPE
 70
     0
  0
APPID
  5
4D0C
330
9
100
AcDbSymbolTableRecord
100
AcDbRegAppTableRecord
  2
ACAD_DSTYLE_DIM_EXT2_LINETYPE
 70
     0
  0
ENDTAB
  0
TABLE
  2
DIMSTYLE
  5
A
330
0
100
AcDbSymbolTable
 70
     9
100
AcDbDimStyleTable
 71
     1
340
2F0
  0
DIMSTYLE
105
2F0
102
{ACAD_REACTORS
330
575E
102
}
330
A
100
AcDbSymbolTableRecord
100
AcDbDimStyleTableRecord
  2
AM_DIN
 70
     0
  4
"
 41
3.5
 42
1.0
 43
10.0
 44
1.0
 47
0.1
 48
0.1
 73
     0
 74
     0
 77
     1
 78
     8
 79
     2
140
3.5
141
0.0
143
0.0393701
146
0.71
147
1.5
172
     1
176
   256
177
   256
178
     2
271
     2
272
     3
274
     4
283
     0
284
     8
340
11
371
    -1
372
    -1
1001
ACAD_DSTYLE_DIMJOGGED_JOGANGLE_SYMBOL
1070
   384
1040
1.570796326794896
1001
ACAD_DSTYLE_DIM_LINETYPE
1070
   380
1005
14
1001
ACAD_DSTYLE_DIM_EXT1_LINETYPE
1070
   381
1005
14
1001
ACAD_DSTYLE_DIM_EXT2_LINETYPE
1070
   382
1005
14
  0
DIMSTYLE
105
301
330
A
100
AcDbSymbolTableRecord
100
AcDbDimStyleTableRecord
  2
AM_DIN$3
 70
     0
  4
"
 41
3.5
 42
1.0
 43
10.0
 44
1.0
 47
0.1
 48
0.1
 73
     0
 77
     1
 78
     8
 79
     2
140
3.5
141
0.0
143
0.0393701
146
0.71
147
1.5
176
   256
177
   256
178
     2
271
     2
272
     3
274
     4
283
     0
284
     8
288
     1
289
     0
340
11
371
    -1
372
    -1
1001
ACAD_DSTYLE_DIMJOGGED_JOGANGLE_SYMBOL
1070
   384
1040
1.570796326794896
1001
ACAD_DSTYLE_DIM_LINETYPE
1070
   380
1005
14
1001
ACAD_DSTYLE_DIM_EXT1_LINETYPE
1070
   381
1005
14
1001
ACAD_DSTYLE_DIM_EXT2_LINETYPE
1070
   382
1005
14
  0
DIMSTYLE
105
306
330
A
100
AcDbSymbolTableRecord
100
AcDbDimStyleTableRecord
  2
AM_DIN$4
 70
     0
  4
"
 41
3.5
 42
1.0
 43
10.0
 44
1.0
 47
0.1
 48
0.1
 73
     0
 74
     0
 77
     1
 78
     8
 79
     2
140
3.5
141
0.0
143
0.0393701
146
0.71
147
1.5
172
     1
176
   256
177
   256
178
     2
271
     2
272
     3
274
     4
283
     0
284
     8
340
11
371
    -1
372
    -1
1001
ACAD_DSTYLE_DIMJOGGED_JOGANGLE_SYMBOL
1070
   384
1040
1.570796326794896
1001
ACAD_DSTYLE_DIM_LINETYPE
1070
   380
1005
14
1001
ACAD_DSTYLE_DIM_EXT1_LINETYPE
1070
   381
1005
14
1001
ACAD_DSTYLE_DIM_EXT2_LINETYPE
1070
   382
1005
14
  0
DIMSTYLE
105
30B
330
A
100
AcDbSymbolTableRecord
100
AcDbDimStyleTableRecord
  2
AM_DIN$6
 70
     0
  4
"
 41
3.5
 42
1.0
 43
10.0
 44
1.0
 47
0.1
 48
0.1
 73
     0
 74
     0
 78
     8
 79
     2
140
3.5
141
0.0
143
0.0393701
146
0.71
147
1.5
172
     1
176
   256
177
   256
178
     2
271
     2
272
     3
274
     4
283
     0
284
     8
340
11
371
    -1
372
    -1
1001
ACAD_DSTYLE_DIMJOGGED_JOGANGLE_SYMBOL
1070
   384
1040
1.570796326794896
1001
ACAD_DSTYLE_DIM_LINETYPE
1070
   380
1005
14
1001
ACAD_DSTYLE_DIM_EXT1_LINETYPE
1070
   381
1005
14
1001
ACAD_DSTYLE_DIM_EXT2_LINETYPE
1070
   382
1005
14
  0
DIMSTYLE
105
310
330
A
100
AcDbSymbolTableRecord
100
AcDbDimStyleTableRecord
  2
AM_DIN$7
 70
     0
  4
"
 41
3.5
 42
1.0
 43
10.0
 44
1.0
 47
0.1
 48
0.1
 73
     0
 74
     0
 77
     1
 78
     8
 79
     2
140
3.5
141
0.0
143
0.0393701
146
0.71
147
1.5
172
     1
176
   256
177
   256
178
     2
271
     2
272
     3
274
     4
283
     0
284
     8
340
11
371
    -1
372
    -1
1001
ACAD_DSTYLE_DIMJOGGED_JOGANGLE_SYMBOL
1070
   384
1040
1.570796326794896
1001
ACAD_DSTYLE_DIM_LINETYPE
1070
   380
1005
14
1001
ACAD_DSTYLE_DIM_EXT1_LINETYPE
1070
   381
1005
14
1001
ACAD_DSTYLE_DIM_EXT2_LINETYPE
1070
   382
1005
14
  0
DIMSTYLE
105
315
330
A
100
AcDbSymbolTableRecord
100
AcDbDimStyleTableRecord
  2
AM_DIN$SF
 70
     0
  4
"
 41
3.5
 42
1.0
 43
10.0
 44
1.0
 47
0.1
 48
0.1
 73
     0
 74
     0
 75
     1
 76
     1
 77
     1
 78
     8
 79
     2
140
3.5
141
0.0
143
0.0393701
146
0.71
147
1.5
172
     1
176
   256
177
   256
178
     2
271
     2
272
     3
274
     4
283
     0
284
     8
340
11
371
    -1
372
    -1
1001
ACAD_DSTYLE_DIMJOGGED_JOGANGLE_SYMBOL
1070
   384
1040
1.570796326794896
1001
ACAD_DSTYLE_DIM_LINETYPE
1070
   380
1005
14
1001
ACAD_DSTYLE_DIM_EXT1_LINETYPE
1070
   381
1005
14
1001
ACAD_DSTYLE_DIM_EXT2_LINETYPE
1070
   382
1005
14
  0
DIMSTYLE
105
31A
330
A
100
AcDbSymbolTableRecord
100
AcDbDimStyleTableRecord
  2
AM_DIN$SH
 70
     0
  4
"
 41
3.5
 42
1.0
 43
10.0
 44
1.0
 47
0.1
 48
0.1
 73
     0
 74
     0
 75
     1
 76
     1
 77
     1
 78
     8
 79
     2
140
3.5
141
0.0
143
0.0393701
144
2.0
146
0.71
147
1.5
172
     1
173
     1
176
   256
177
   256
178
     2
271
     2
272
     3
274
     4
283
     0
284
     8
340
11
343
87
371
    -1
372
    -1
1001
ACAD_DSTYLE_DIMJOGGED_JOGANGLE_SYMBOL
1070
   384
1040
1.570796326794896
1001
ACAD_DSTYLE_DIM_LINETYPE
1070
   380
1005
14
1001
ACAD_DSTYLE_DIM_EXT1_LINETYPE
1070
   381
1005
14
1001
ACAD_DSTYLE_DIM_EXT2_LINETYPE
1070
   382
1005
14
  0
DIMSTYLE
105
468
102
{ACAD_REACTORS
330
55B4
102
}
330
A
100
AcDbSymbolTableRecord
100
AcDbDimStyleTableRecord
  2
AM_DIN$0
 70
     0
  4
"
 41
3.5
 42
1.0
 43
10.0
 44
1.0
 47
0.1
 48
0.1
 73
     0
 74
     0
 77
     1
 78
     8
 79
     2
140
3.5
141
0.0
143
0.0393701
146
0.71
147
1.5
172
     1
176
   256
177
   256
178
     2
271
     2
272
     3
274
     4
283
     0
284
     8
340
11
371
    -1
372
    -1
1001
ACAD_DSTYLE_DIMJOGGED_JOGANGLE_SYMBOL
1070
   384
1040
1.570796326794896
1001
ACAD_DSTYLE_DIM_LINETYPE
1070
   380
1005
14
1001
ACAD_DSTYLE_DIM_EXT1_LINETYPE
1070
   381
1005
14
1001
ACAD_DSTYLE_DIM_EXT2_LINETYPE
1070
   382
1005
14
  0
DIMSTYLE
105
469
330
A
100
AcDbSymbolTableRecord
100
AcDbDimStyleTableRecord
  2
AM_DIN$2
 70
     0
  4
"
 41
3.5
 42
1.0
 43
10.0
 44
1.0
 47
0.1
 48
0.1
 73
     0
 74
     0
 77
     1
 78
     8
 79
     2
140
3.5
141
0.0
143
0.0393701
146
0.71
147
1.5
172
     1
176
   256
177
   256
178
     2
271
     2
272
     3
274
     4
283
     0
284
     8
340
11
371
    -1
372
    -1
1001
ACAD_DSTYLE_DIMJOGGED_JOGANGLE_SYMBOL
1070
   384
1040
1.570796326794896
1001
ACAD_DSTYLE_DIM_LINETYPE
1070
   380
1005
14
1001
ACAD_DSTYLE_DIM_EXT1_LINETYPE
1070
   381
1005
14
1001
ACAD_DSTYLE_DIM_EXT2_LINETYPE
1070
   382
1005
14
  0
ENDTAB
  0
TABLE
  2
BLOCK_RECORD
  5
1
330
0
100
AcDbSymbolTable
 70
    17
  0
BLOCK_RECORD
  5
1F
102
{ACAD_XDICTIONARY
360
8F
102
}
330
1
100
AcDbSymbolTableRecord
100
AcDbBlockTableRecord
  2
*Model_Space
340
22
  0
BLOCK_RECORD
  5
1B
330
1
100
AcDbSymbolTableRecord
100
AcDbBlockTableRecord
  2
*Paper_Space
340
1E
  0
BLOCK_RECORD
  5
23
330
1
100
AcDbSymbolTableRecord
100
AcDbBlockTableRecord
  2
*Paper_Space0
340
26
  0
BLOCK_RECORD
  5
87
330
1
100
AcDbSymbolTableRecord
100
AcDbBlockTableRecord
  2
GENAXEH
340
0
  0
BLOCK_RECORD
  5
3B58
330
1
100
AcDbSymbolTableRecord
100
AcDbBlockTableRecord
  2
*D2
340
0
  0
BLOCK_RECORD
  5
3B70
330
1
100
AcDbSymbolTableRecord
100
AcDbBlockTableRecord
  2
*D3
340
0
  0
BLOCK_RECORD
  5
3B7C
330
1
100
AcDbSymbolTableRecord
100
AcDbBlockTableRecord
  2
*D4
340
0
  0
BLOCK_RECORD
  5
3B88
330
1
100
AcDbSymbolTableRecord
100
AcDbBlockTableRecord
  2
*D5
340
0
  0
BLOCK_RECORD
  5
417F
330
1
100
AcDbSymbolTableRecord
100
AcDbBlockTableRecord
  2
*D6
340
0
  0
BLOCK_RECORD
  5
4CA9
330
1
100
AcDbSymbolTableRecord
100
AcDbBlockTableRecord
  2
*D7
340
0
  0
BLOCK_RECORD
  5
5251
330
1
100
AcDbSymbolTableRecord
100
AcDbBlockTableRecord
  2
*D8
340
0
  0
BLOCK_RECORD
  5
5284
330
1
100
AcDbSymbolTableRecord
100
AcDbBlockTableRecord
  2
*D9
340
0
  0
BLOCK_RECORD
  5
557D
330
1
100
AcDbSymbolTableRecord
100
AcDbBlockTableRecord
  2
*D10
340
0
  0
BLOCK_RECORD
  5
55BC
330
1
100
AcDbSymbolTableRecord
100
AcDbBlockTableRecord
  2
*D11
340
0
  0
ENDTAB
  0
ENDSEC
  0
SECTION
  2
BLOCKS
  0
BLOCK
  5
20
330
1F
100
AcDbEntity
  8
0
100
AcDbBlockBegin
  2
*Model_Space
 70
     0
 10
0.0
 20
0.0
 30
0.0
  3
*Model_Space
  1

  0
ENDBLK
  5
21
330
1F
100
AcDbEntity
  8
0
100
AcDbBlockEnd
  0
BLOCK
  5
1C
330
1B
100
AcDbEntity
 67
     1
  8
0
100
AcDbBlockBegin
  2
*Paper_Space
 70
     0
 10
0.0
 20
0.0
 30
0.0
  3
*Paper_Space
  1

  0
ENDBLK
  5
1D
330
1B
100
AcDbEntity
 67
     1
  8
0
100
AcDbBlockEnd
  0
BLOCK
  5
24
330
23
100
AcDbEntity
 67
     1
  8
0
100
AcDbBlockBegin
  2
*Paper_Space0
 70
     0
 10
0.0
 20
0.0
 30
0.0
  3
*Paper_Space0
  1

  0
ENDBLK
  5
25
330
23
100
AcDbEntity
 67
     1
  8
0
100
AcDbBlockEnd
  0
BLOCK
  5
89
330
87
100
AcDbEntity
  8
0
100
AcDbBlockBegin
  2
GENAXEH
 70
     0
 10
0.0
 20
0.0
 30
0.0
  3
GENAXEH
  1

  0
LINE
  5
88
330
87
100
AcDbEntity
  8
0
100
AcDbLine
 10
-1.0
 20
0.0
 30
0.0
 11
1.0
 21
0.0
 31
0.0
  0
ENDBLK
  5
8A
330
87
100
AcDbEntity
  8
0
100
AcDbBlockEnd
  0
BLOCK
  5
3B59
330
3B58
100
AcDbEntity
  8
0
100
AcDbBlockBegin
  2
*D2
 70
     1
 10
0.0
 20
0.0
 30
0.0
  3
*D2
  1

  0
LINE
  5
54A1
330
3B58
100
AcDbEntity
  8
AM_5
  6
ByBlock
100
AcDbLine
 10
2515.335371044955
 20
1655.516321984969
 30
0.0
 11
2515.335371044955
 21
1604.607257053268
 31
0.0
  0
LINE
  5
54A2
330
3B58
100
AcDbEntity
  8
AM_5
  6
ByBlock
100
AcDbLine
 10
2740.861546089801
 20
1722.408775319259
 30
0.0
 11
2740.861546089801
 21
1604.607257053268
 31
0.0
  0
LINE
  5
54A3
330
3B58
100
AcDbEntity
  8
AM_5
  6
ByBlock
100
AcDbLine
 10
2520.335371044955
 20
1605.607257053268
 30
0.0
 11
2735.861546089801
 21
1605.607257053268
 31
0.0
  0
SOLID
  5
54A4
330
3B58
100
AcDbEntity
  8
AM_5
100
AcDbTrace
 10
2520.335371044955
 20
1606.440590386601
 30
0.0
 11
2520.335371044955
 21
1604.773923719935
 31
0.0
 12
2515.335371044955
 22
1605.607257053268
 32
0.0
 13
2515.335371044955
 23
1605.607257053268
 33
0.0
  0
SOLID
  5
54A5
330
3B58
100
AcDbEntity
  8
AM_5
100
AcDbTrace
 10
2735.861546089801
 20
1606.440590386601
 30
0.0
 11
2735.861546089801
 21
1604.773923719935
 31
0.0
 12
2740.861546089801
 22
1605.607257053268
 32
0.0
 13
2740.861546089801
 23
1605.607257053268
 33
0.0
  0
MTEXT
  5
54A6
330
3B58
100
AcDbEntity
  8
AM_5
 62
     2
100
AcDbMText
 10
2614.828218896689
 20
1612.108241305237
 30
0.0
 40
10.0
 41
0.0
 71
     5
 72
     1
  1
226
 73
     1
 44
1.0
1001
ACAD
1000
MTEXTBEGIN
1070
    73
1070
     1
1070
    44
1040
1.0
1070
    74
1070
     0
1000
MTEXTEND
  0
POINT
  5
54A7
330
3B58
100
AcDbEntity
  8
Defpoints
 62
     0
100
AcDbPoint
 10
2515.335371044955
 20
1656.516321984969
 30
0.0
  0
POINT
  5
54A8
330
3B58
100
AcDbEntity
  8
Defpoints
 62
     0
100
AcDbPoint
 10
2740.861546089801
 20
1723.408775319259
 30
0.0
  0
POINT
  5
54A9
330
3B58
100
AcDbEntity
  8
Defpoints
 62
     0
100
AcDbPoint
 10
2740.861546089801
 20
1605.607257053268
 30
0.0
  0
ENDBLK
  5
3B5A
330
3B58
100
AcDbEntity
  8
0
100
AcDbBlockEnd
  0
BLOCK
  5
3B71
330
3B70
100
AcDbEntity
  8
0
100
AcDbBlockBegin
  2
*D3
 70
     1
 10
0.0
 20
0.0
 30
0.0
  3
*D3
  1

  0
LINE
  5
54AA
330
3B70
100
AcDbEntity
  8
AM_5
  6
ByBlock
100
AcDbLine
 10
2737.662279305479
 20
1775.062303103035
 30
0.0
 11
2764.925955856682
 21
1774.110234538691
 31
0.0
  0
LINE
  5
54AB
330
3B70
100
AcDbEntity
  8
AM_5
  6
ByBlock
100
AcDbLine
 10
2734.067631145122
 20
1672.125047920069
 30
0.0
 11
2761.331307696319
 21
1671.172979355725
 31
0.0
  0
LINE
  5
54AC
330
3B70
100
AcDbEntity
  8
AM_5
  6
ByBlock
100
AcDbLine
 10
2763.752067546151
 20
1769.148179900298
 30
0.0
 11
2760.506414352813
 21
1676.204832987524
 31
0.0
  0
SOLID
  5
54AD
330
3B70
100
AcDbEntity
  8
AM_5
100
AcDbTrace
 10
2762.919241856968
 20
1769.177262814217
 30
0.0
 11
2764.584893235334
 21
1769.119096986379
 31
0.0
 12
2763.926565029664
 22
1774.145134035394
 32
0.0
 13
2763.926565029664
 23
1774.145134035394
 33
0.0
  0
SOLID
  5
54AE
330
3B70
100
AcDbEntity
  8
AM_5
100
AcDbTrace
 10
2759.67358866363
 20
1676.233915901442
 30
0.0
 11
2761.339240041996
 21
1676.175750073605
 31
0.0
 12
2760.3319168693
 22
1671.207878852428
 32
0.0
 13
2760.3319168693
 23
1671.207878852428
 33
0.0
  0
MTEXT
  5
54AF
330
3B70
100
AcDbEntity
  8
AM_5
 62
     2
100
AcDbMText
 10
2754.832111597245
 20
1699.963166336093
 30
0.0
 40
10.0
 41
0.0
 71
     5
 72
     1
  1
%%c103
 11
0.0348994967025624
 21
0.9993908270190935
 31
0.0
 73
     1
 44
1.0
1001
ACAD
1000
MTEXTBEGIN
1070
    73
1070
     1
1070
    44
1040
1.0
1070
    74
1070
     0
1000
MTEXTEND
  0
POINT
  5
54B0
330
3B70
100
AcDbEntity
  8
Defpoints
 62
     0
100
AcDbPoint
 10
2736.66288847846
 20
1775.097202599738
 30
0.0
  0
POINT
  5
54B1
330
3B70
100
AcDbEntity
  8
Defpoints
 62
     0
100
AcDbPoint
 10
2733.068240318103
 20
1672.159947416772
 30
0.0
  0
POINT
  5
54B2
330
3B70
100
AcDbEntity
  8
Defpoints
 62
     0
100
AcDbPoint
 10
2760.3319168693
 20
1671.207878852428
 30
0.0
  0
ENDBLK
  5
3B72
330
3B70
100
AcDbEntity
  8
0
100
AcDbBlockEnd
  0
BLOCK
  5
3B7D
330
3B7C
100
AcDbEntity
  8
0
100
AcDbBlockBegin
  2
*D4
 70
     1
 10
0.0
 20
0.0
 30
0.0
  3
*D4
  1

  0
LINE
  5
54B3
330
3B7C
100
AcDbEntity
  8
AM_5
  6
ByBlock
100
AcDbLine
 10
2681.37888108692
 20
1827.208035656004
 30
0.0
 11
2801.655776025899
 21
1827.208035656004
 31
0.0
  0
LINE
  5
54B4
330
3B7C
100
AcDbEntity
  8
AM_5
  6
ByBlock
100
AcDbLine
 10
2741.861546089801
 20
1723.408775319259
 30
0.0
 11
2801.655776025899
 21
1723.408775319259
 31
0.0
  0
LINE
  5
54B5
330
3B7C
100
AcDbEntity
  8
AM_5
  6
ByBlock
100
AcDbLine
 10
2800.655776025899
 20
1822.208035656004
 30
0.0
 11
2800.655776025899
 21
1728.408775319259
 31
0.0
  0
SOLID
  5
54B6
330
3B7C
100
AcDbEntity
  8
AM_5
100
AcDbTrace
 10
2799.822442692565
 20
1822.208035656004
 30
0.0
 11
2801.489109359233
 21
1822.208035656004
 31
0.0
 12
2800.655776025899
 22
1827.208035656004
 32
0.0
 13
2800.655776025899
 23
1827.208035656004
 33
0.0
  0
SOLID
  5
54B7
330
3B7C
100
AcDbEntity
  8
AM_5
100
AcDbTrace
 10
2799.822442692565
 20
1728.408775319259
 30
0.0
 11
2801.489109359233
 21
1728.408775319259
 31
0.0
 12
2800.655776025899
 22
1723.408775319259
 32
0.0
 13
2800.655776025899
 23
1723.408775319259
 33
0.0
  0
MTEXT
  5
54B8
330
3B7C
100
AcDbEntity
  8
AM_5
 62
     2
100
AcDbMText
 10
2794.155776025899
 20
1775.308405487632
 30
0.0
 40
10.0
 41
0.0
 71
     5
 72
     1
  1
104
 11
0.0000000000000001
 21
1.0
 31
0.0
 73
     1
 44
1.0
1001
ACAD
1000
MTEXTBEGIN
1070
    73
1070
     1
1070
    44
1040
1.0
1070
    74
1070
     0
1000
MTEXTEND
  0
POINT
  5
54B9
330
3B7C
100
AcDbEntity
  8
Defpoints
 62
     0
100
AcDbPoint
 10
2680.37888108692
 20
1827.208035656004
 30
0.0
  0
POINT
  5
54BA
330
3B7C
100
AcDbEntity
  8
Defpoints
 62
     0
100
AcDbPoint
 10
2740.861546089801
 20
1723.408775319259
 30
0.0
  0
POINT
  5
54BB
330
3B7C
100
AcDbEntity
  8
Defpoints
 62
     0
100
AcDbPoint
 10
2800.655776025899
 20
1723.408775319259
 30
0.0
  0
ENDBLK
  5
3B7E
330
3B7C
100
AcDbEntity
  8
0
100
AcDbBlockEnd
  0
BLOCK
  5
3B89
330
3B88
100
AcDbEntity
  8
0
100
AcDbBlockBegin
  2
*D5
 70
     1
 10
0.0
 20
0.0
 30
0.0
  3
*D5
  1

  0
ARC
  5
5496
330
3B88
100
AcDbEntity
  8
AM_5
  6
ByBlock
100
AcDbCircle
 10
2574.735371044977
 20
1729.61404163422
 30
0.0
 40
133.6497748951977
100
AcDbArc
 50
353.5735815679045
 51
355.7172111168549
  0
ARC
  5
5497
330
3B88
100
AcDbEntity
  8
AM_5
  6
ByBlock
100
AcDbCircle
 10
2574.735371044977
 20
1729.61404163422
 30
0.0
 40
133.6497748951977
100
AcDbArc
 50
2.143629548950459
 51
4.287259097900919
  0
ARC
  5
5498
330
3B88
100
AcDbEntity
  8
AM_5
  6
ByBlock
100
AcDbCircle
 10
2574.735371044977
 20
1729.61404163422
 30
0.0
 40
133.6497748951977
100
AcDbArc
 50
357.8608406658053
 51
0.0000000000000799
  0
SOLID
  5
5499
330
3B88
100
AcDbEntity
  8
AM_5
100
AcDbTrace
 10
2707.179918793071
 20
1719.679863541355
 30
0.0
 11
2708.843968883293
 21
1719.586508975272
 31
0.0
 12
2708.29200753643
 22
1724.625336528981
 32
0.0
 13
2708.29200753643
 23
1724.625336528981
 33
0.0
  0
SOLID
  5
549A
330
3B88
100
AcDbEntity
  8
AM_5
100
AcDbTrace
 10
2709.124805440383
 20
1734.628754813276
 30
0.0
 11
2707.458430382299
 21
1734.597578803664
 31
0.0
 12
2708.385145940175
 22
1729.61404163422
 32
0.0
 13
2708.385145940175
 23
1729.61404163422
 33
0.0
  0
MTEXT
  5
549B
330
3B88
100
AcDbEntity
  8
AM_5
 62
     2
100
AcDbMText
 10
2701.338918855271
 20
1717.851531532953
 30
0.0
 40
10.0
 41
0.0
 71
     5
 72
     1
  1
2°
 11
0.0925098071461276
 21
0.9957117733469793
 31
0.0
 73
     1
 44
1.0
1001
ACAD
1000
MTEXTBEGIN
1070
    73
1070
     1
1070
    44
1040
1.0
1070
    74
1070
     0
1000
MTEXTEND
  0
POINT
  5
549C
330
3B88
100
AcDbEntity
  8
Defpoints
 62
     0
100
AcDbPoint
 10
2708.374796160033
 20
1727.950796476498
 30
0.0
  0
POINT
  5
549D
330
3B88
100
AcDbEntity
  8
Defpoints
 62
     0
100
AcDbPoint
 10
2740.861546089801
 20
1723.408775319259
 30
0.0
  0
POINT
  5
549E
330
3B88
100
AcDbEntity
  8
Defpoints
 62
     0
100
AcDbPoint
 10
2741.078238764421
 20
1729.61404163422
 30
0.0
  0
POINT
  5
549F
330
3B88
100
AcDbEntity
  8
Defpoints
 62
     0
100
AcDbPoint
 10
2703.011469758313
 20
1729.61404163422
 30
0.0
  0
POINT
  5
54A0
330
3B88
100
AcDbEntity
  8
Defpoints
 62
     0
100
AcDbPoint
 10
2680.374967288714
 20
1725.668114221394
 30
0.0
  0
ENDBLK
  5
3B8A
330
3B88
100
AcDbEntity
  8
0
100
AcDbBlockEnd
  0
BLOCK
  5
4180
330
417F
100
AcDbEntity
  8
0
100
AcDbBlockBegin
  2
*D6
 70
     1
 10
0.0
 20
0.0
 30
0.0
  3
*D6
  1

  0
LINE
  5
565A
330
417F
100
AcDbEntity
  8
AM_5
  6
ByBlock
100
AcDbLine
 10
2265.291861003038
 20
2148.250098146036
 30
0.0
 11
2265.291861003038
 21
2291.954246198159
 31
0.0
  0
LINE
  5
565B
330
417F
100
AcDbEntity
  8
AM_5
  6
ByBlock
100
AcDbLine
 10
2765.378881086929
 20
2148.250098146036
 30
0.0
 11
2765.378881086929
 21
2291.954246198159
 31
0.0
  0
LINE
  5
565C
330
417F
100
AcDbEntity
  8
AM_5
  6
ByBlock
100
AcDbLine
 10
2270.291861003038
 20
2290.954246198159
 30
0.0
 11
2760.378881086929
 21
2290.954246198159
 31
0.0
  0
SOLID
  5
565D
330
417F
100
AcDbEntity
  8
AM_5
100
AcDbTrace
 10
2270.291861003038
 20
2291.787579531492
 30
0.0
 11
2270.291861003038
 21
2290.120912864825
 31
0.0
 12
2265.291861003038
 22
2290.954246198159
 32
0.0
 13
2265.291861003038
 23
2290.954246198159
 33
0.0
  0
SOLID
  5
565E
330
417F
100
AcDbEntity
  8
AM_5
100
AcDbTrace
 10
2760.378881086929
 20
2291.787579531492
 30
0.0
 11
2760.378881086929
 21
2290.120912864825
 31
0.0
 12
2765.378881086929
 22
2290.954246198159
 32
0.0
 13
2765.378881086929
 23
2290.954246198159
 33
0.0
  0
MTEXT
  5
565F
330
417F
100
AcDbEntity
  8
AM_5
 62
     2
100
AcDbMText
 10
2522.374559892537
 20
2297.454246198159
 30
0.0
 40
10.0
 41
0.0
 71
     5
 72
     1
  1
{\Famgdt;o}500
 73
     1
 44
1.0
1001
ACAD
1000
MTEXTBEGIN
1070
    73
1070
     1
1070
    44
1040
1.0
1070
    74
1070
     0
1000
MTEXTEND
  0
POINT
  5
5660
330
417F
100
AcDbEntity
  8
Defpoints
 62
     0
100
AcDbPoint
 10
2265.291861003038
 20
2147.250098146036
 30
0.0
  0
POINT
  5
5661
330
417F
100
AcDbEntity
  8
Defpoints
 62
     0
100
AcDbPoint
 10
2765.378881086929
 20
2147.250098146036
 30
0.0
  0
POINT
  5
5662
330
417F
100
AcDbEntity
  8
Defpoints
 62
     0
100
AcDbPoint
 10
2765.378881086929
 20
2290.954246198159
 30
0.0
  0
ENDBLK
  5
4181
330
417F
100
AcDbEntity
  8
0
100
AcDbBlockEnd
  0
BLOCK
  5
4CAA
330
4CA9
100
AcDbEntity
  8
0
100
AcDbBlockBegin
  2
*D7
 70
     1
 10
0.0
 20
0.0
 30
0.0
  3
*D7
  1

  0
LINE
  5
54CE
330
4CA9
100
AcDbEntity
  8
AM_5
  6
ByBlock
100
AcDbLine
 10
2264.291861003038
 20
1838.208035656004
 30
0.0
 11
2223.864245373041
 21
1838.208035656004
 31
0.0
  0
LINE
  5
54CF
330
4CA9
100
AcDbEntity
  8
AM_5
  6
ByBlock
100
AcDbLine
 10
2348.291861003017
 20
2141.982148953606
 30
0.0
 11
2223.864245373041
 21
2141.982148953606
 31
0.0
  0
LINE
  5
54D0
330
4CA9
100
AcDbEntity
  8
AM_5
  6
ByBlock
100
AcDbLine
 10
2224.864245373041
 20
1843.208035656004
 30
0.0
 11
2224.864245373041
 21
2136.982148953606
 31
0.0
  0
SOLID
  5
54D1
330
4CA9
100
AcDbEntity
  8
AM_5
100
AcDbTrace
 10
2224.030912039708
 20
1843.208035656004
 30
0.0
 11
2225.697578706375
 21
1843.208035656004
 31
0.0
 12
2224.864245373041
 22
1838.208035656004
 32
0.0
 13
2224.864245373041
 23
1838.208035656004
 33
0.0
  0
SOLID
  5
54D2
330
4CA9
100
AcDbEntity
  8
AM_5
100
AcDbTrace
 10
2224.030912039708
 20
2136.982148953606
 30
0.0
 11
2225.697578706375
 21
2136.982148953606
 31
0.0
 12
2224.864245373041
 22
2141.982148953606
 32
0.0
 13
2224.864245373041
 23
2141.982148953606
 33
0.0
  0
MTEXT
  5
54D3
330
4CA9
100
AcDbEntity
  8
AM_5
 62
     2
100
AcDbMText
 10
2218.363261121072
 20
1990.095092304805
 30
0.0
 40
10.0
 41
0.0
 71
     5
 72
     1
  1
25-300
 11
0.0000000000000001
 21
1.0
 31
0.0
 73
     1
 44
1.0
1001
ACAD
1000
MTEXTBEGIN
1070
    73
1070
     1
1070
    44
1040
1.0
1070
    74
1070
     0
1000
MTEXTEND
  0
POINT
  5
54D4
330
4CA9
100
AcDbEntity
  8
Defpoints
 62
     0
100
AcDbPoint
 10
2265.291861003038
 20
1838.208035656004
 30
0.0
  0
POINT
  5
54D5
330
4CA9
100
AcDbEntity
  8
Defpoints
 62
     0
100
AcDbPoint
 10
2349.291861003017
 20
2141.982148953606
 30
0.0
  0
POINT
  5
54D6
330
4CA9
100
AcDbEntity
  8
Defpoints
 62
     0
100
AcDbPoint
 10
2224.864245373041
 20
2141.982148953606
 30
0.0
  0
ENDBLK
  5
4CAB
330
4CA9
100
AcDbEntity
  8
0
100
AcDbBlockEnd
  0
BLOCK
  5
5252
330
5251
100
AcDbEntity
  8
0
100
AcDbBlockBegin
  2
*D8
 70
     1
 10
0.0
 20
0.0
 30
0.0
  3
*D8
  1

  0
LINE
  5
54C5
330
5251
100
AcDbEntity
  8
AM_5
  6
ByBlock
100
AcDbLine
 10
2419.946395502948
 20
1645.262164184151
 30
0.0
 11
2337.291861002989
 21
1645.262164184151
 31
0.0
  0
LINE
  5
54C6
330
5251
100
AcDbEntity
  8
AM_5
  6
ByBlock
100
AcDbLine
 10
2349.291861002989
 20
1827.208035656004
 30
0.0
 11
2337.291861002989
 21
1827.208035656004
 31
0.0
  0
LINE
  5
54C7
330
5251
100
AcDbEntity
  8
AM_5
  6
ByBlock
100
AcDbLine
 10
2338.291861002989
 20
1650.262164184151
 30
0.0
 11
2338.291861002989
 21
1822.208035656004
 31
0.0
  0
SOLID
  5
54C8
330
5251
100
AcDbEntity
  8
AM_5
100
AcDbTrace
 10
2337.458527669655
 20
1650.262164184151
 30
0.0
 11
2339.125194336322
 21
1650.262164184151
 31
0.0
 12
2338.291861002989
 22
1645.262164184151
 32
0.0
 13
2338.291861002989
 23
1645.262164184151
 33
0.0
  0
SOLID
  5
54C9
330
5251
100
AcDbEntity
  8
AM_5
100
AcDbTrace
 10
2337.458527669655
 20
1822.208035656004
 30
0.0
 11
2339.125194336322
 21
1822.208035656004
 31
0.0
 12
2338.291861002989
 22
1827.208035656004
 32
0.0
 13
2338.291861002989
 23
1827.208035656004
 33
0.0
  0
MTEXT
  5
54CA
330
5251
100
AcDbEntity
  8
AM_5
 62
     2
100
AcDbMText
 10
2331.79087675102
 20
1736.235099920078
 30
0.0
 40
10.0
 41
0.0
 71
     5
 72
     1
  1
182
 11
0.0000000000000001
 21
1.0
 31
0.0
 73
     1
 44
1.0
1001
ACAD
1000
MTEXTBEGIN
1070
    73
1070
     1
1070
    44
1040
1.0
1070
    74
1070
     0
1000
MTEXTEND
  0
POINT
  5
54CB
330
5251
100
AcDbEntity
  8
Defpoints
 62
     0
100
AcDbPoint
 10
2420.946395502948
 20
1645.262164184151
 30
0.0
  0
POINT
  5
54CC
330
5251
100
AcDbEntity
  8
Defpoints
 62
     0
100
AcDbPoint
 10
2350.291861002989
 20
1827.208035656004
 30
0.0
  0
POINT
  5
54CD
330
5251
100
AcDbEntity
  8
Defpoints
 62
     0
100
AcDbPoint
 10
2338.291861002989
 20
1827.208035656004
 30
0.0
  0
ENDBLK
  5
5253
330
5251
100
AcDbEntity
  8
0
100
AcDbBlockEnd
  0
BLOCK
  5
5285
330
5284
100
AcDbEntity
  8
0
100
AcDbBlockBegin
  2
*D9
 70
     1
 10
0.0
 20
0.0
 30
0.0
  3
*D9
  1

  0
LINE
  5
54BC
330
5284
100
AcDbEntity
  8
AM_5
  6
ByBlock
100
AcDbLine
 10
2419.946395502948
 20
1644.262164184151
 30
0.0
 11
2419.946395502948
 21
1554.733164050091
 31
0.0
  0
LINE
  5
54BD
330
5284
100
AcDbEntity
  8
AM_5
  6
ByBlock
100
AcDbLine
 10
2670.946395502946
 20
1634.923981454537
 30
0.0
 11
2670.946395502946
 21
1554.733164050091
 31
0.0
  0
LINE
  5
54BE
330
5284
100
AcDbEntity
  8
AM_5
  6
ByBlock
100
AcDbLine
 10
2424.946395502948
 20
1555.733164050091
 30
0.0
 11
2665.946395502946
 21
1555.733164050091
 31
0.0
  0
SOLID
  5
54BF
330
5284
100
AcDbEntity
  8
AM_5
100
AcDbTrace
 10
2424.946395502948
 20
1556.566497383424
 30
0.0
 11
2424.946395502948
 21
1554.899830716757
 31
0.0
 12
2419.946395502948
 22
1555.733164050091
 32
0.0
 13
2419.946395502948
 23
1555.733164050091
 33
0.0
  0
SOLID
  5
54C0
330
5284
100
AcDbEntity
  8
AM_5
100
AcDbTrace
 10
2665.946395502946
 20
1556.566497383424
 30
0.0
 11
2665.946395502946
 21
1554.899830716757
 31
0.0
 12
2670.946395502946
 22
1555.733164050091
 32
0.0
 13
2670.946395502946
 23
1555.733164050091
 33
0.0
  0
MTEXT
  5
54C1
330
5284
100
AcDbEntity
  8
AM_5
 62
     2
100
AcDbMText
 10
2545.446395502947
 20
1562.234148302059
 30
0.0
 40
10.0
 41
0.0
 71
     5
 72
     1
  1
251x180
 73
     1
 44
1.0
1001
ACAD
1000
MTEXTBEGIN
1070
    73
1070
     1
1070
    44
1040
1.0
1070
    74
1070
     0
1000
MTEXTEND
  0
POINT
  5
54C2
330
5284
100
AcDbEntity
  8
Defpoints
 62
     0
100
AcDbPoint
 10
2419.946395502948
 20
1645.262164184151
 30
0.0
  0
POINT
  5
54C3
330
5284
100
AcDbEntity
  8
Defpoints
 62
     0
100
AcDbPoint
 10
2670.946395502946
 20
1635.923981454538
 30
0.0
  0
POINT
  5
54C4
330
5284
100
AcDbEntity
  8
Defpoints
 62
     0
100
AcDbPoint
 10
2670.946395502946
 20
1555.733164050091
 30
0.0
  0
ENDBLK
  5
5286
330
5284
100
AcDbEntity
  8
0
100
AcDbBlockEnd
  0
BLOCK
  5
557E
330
557D
100
AcDbEntity
  8
0
100
AcDbBlockBegin
  2
*D10
 70
     1
 10
0.0
 20
0.0
 30
0.0
  3
*D10
  1

  0
LINE
  5
557F
330
557D
100
AcDbEntity
  8
AM_5
  6
ByBlock
100
AcDbLine
 10
300.4750636045828
 20
202.7102925396457
 30
0.0
 11
123.431552562616
 21
202.7102925396457
 31
0.0
  0
LINE
  5
5580
330
557D
100
AcDbEntity
  8
AM_5
  6
ByBlock
100
AcDbLine
 10
135.431553562616
 20
572.7102925396466
 30
0.0
 11
123.4315525626161
 21
572.7102925396466
 31
0.0
  0
LINE
  5
5581
330
557D
100
AcDbEntity
  8
AM_5
  6
ByBlock
100
AcDbLine
 10
124.431552562616
 20
207.7102925396457
 30
0.0
 11
124.4315525626161
 21
567.7102925396466
 31
0.0
  0
SOLID
  5
5582
330
557D
100
AcDbEntity
  8
AM_5
100
AcDbTrace
 10
123.5982192292827
 20
207.7102925396457
 30
0.0
 11
125.2648858959493
 21
207.7102925396457
 31
0.0
 12
124.431552562616
 22
202.7102925396457
 32
0.0
 13
124.431552562616
 23
202.7102925396457
 33
0.0
  0
SOLID
  5
5583
330
557D
100
AcDbEntity
  8
AM_5
100
AcDbTrace
 10
123.5982192292828
 20
567.7102925396466
 30
0.0
 11
125.2648858959494
 21
567.7102925396466
 31
0.0
 12
124.4315525626161
 22
572.7102925396466
 32
0.0
 13
124.4315525626161
 23
572.7102925396466
 33
0.0
  0
MTEXT
  5
5584
330
557D
100
AcDbEntity
  8
AM_5
 62
     2
100
AcDbMText
 10
117.931552562616
 20
387.7102925396462
 30
0.0
 40
10.0
 41
0.0
 71
     5
 72
     1
  1
370
 11
0.0000000000000001
 21
1.0
 31
0.0
 73
     1
 44
1.0
1001
ACAD
1000
MTEXTBEGIN
1070
    73
1070
     1
1070
    44
1040
1.0
1070
    74
1070
     0
1000
MTEXTEND
  0
POINT
  5
5585
330
557D
100
AcDbEntity
  8
Defpoints
 62
     0
100
AcDbPoint
 10
301.4750636045828
 20
202.7102925396457
 30
0.0
  0
POINT
  5
5586
330
557D
100
AcDbEntity
  8
Defpoints
 62
     0
100
AcDbPoint
 10
136.431553562616
 20
572.7102925396466
 30
0.0
  0
POINT
  5
5587
330
557D
100
AcDbEntity
  8
Defpoints
 62
     0
100
AcDbPoint
 10
124.4315525626161
 20
572.7102925396466
 30
0.0
  0
ENDBLK
  5
5588
330
557D
100
AcDbEntity
  8
0
100
AcDbBlockEnd
  0
BLOCK
  5
55BD
330
55BC
100
AcDbEntity
  8
0
100
AcDbBlockBegin
  2
*D11
 70
     1
 10
0.0
 20
0.0
 30
0.0
  3
*D11
  1

  0
LINE
  5
577B
330
55BC
100
AcDbEntity
  8
AM_5
  6
ByBlock
100
AcDbLine
 10
2514.335371044953
 20
1770.250098146036
 30
0.0
 11
2337.291860002986
 21
1770.250098146036
 31
0.0
  0
LINE
  5
577C
330
55BC
100
AcDbEntity
  8
AM_5
  6
ByBlock
100
AcDbLine
 10
2349.291861002986
 20
2140.250098146037
 30
0.0
 11
2337.291860002986
 21
2140.250098146037
 31
0.0
  0
LINE
  5
577D
330
55BC
100
AcDbEntity
  8
AM_5
  6
ByBlock
100
AcDbLine
 10
2338.291860002986
 20
1775.250098146036
 30
0.0
 11
2338.291860002986
 21
2135.250098146037
 31
0.0
  0
SOLID
  5
577E
330
55BC
100
AcDbEntity
  8
AM_5
100
AcDbTrace
 10
2337.458526669653
 20
1775.250098146036
 30
0.0
 11
2339.12519333632
 21
1775.250098146036
 31
0.0
 12
2338.291860002986
 22
1770.250098146036
 32
0.0
 13
2338.291860002986
 23
1770.250098146036
 33
0.0
  0
SOLID
  5
577F
330
55BC
100
AcDbEntity
  8
AM_5
100
AcDbTrace
 10
2337.458526669653
 20
2135.250098146037
 30
0.0
 11
2339.12519333632
 21
2135.250098146037
 31
0.0
 12
2338.291860002986
 22
2140.250098146037
 32
0.0
 13
2338.291860002986
 23
2140.250098146037
 33
0.0
  0
MTEXT
  5
5780
330
55BC
100
AcDbEntity
  8
AM_5
 62
     2
100
AcDbMText
 10
2331.791860002986
 20
1955.250098146037
 30
0.0
 40
10.0
 41
0.0
 71
     5
 72
     1
  1
370
 11
0.0000000000000001
 21
1.0
 31
0.0
 73
     1
 44
1.0
1001
ACAD
1000
MTEXTBEGIN
1070
    73
1070
     1
1070
    44
1040
1.0
1070
    74
1070
     0
1000
MTEXTEND
  0
POINT
  5
5781
330
55BC
100
AcDbEntity
  8
Defpoints
 62
     0
100
AcDbPoint
 10
2515.335371044953
 20
1770.250098146036
 30
0.0
  0
POINT
  5
5782
330
55BC
100
AcDbEntity
  8
Defpoints
 62
     0
100
AcDbPoint
 10
2350.291861002986
 20
2140.250098146037
 30
0.0
  0
POINT
  5
5783
330
55BC
100
AcDbEntity
  8
Defpoints
 62
     0
100
AcDbPoint
 10
2338.291860002986
 20
2140.250098146037
 30
0.0
  0
ENDBLK
  5
55BE
330
55BC
100
AcDbEntity
  8
0
100
AcDbBlockEnd
  0
ENDSEC
  0
SECTION
  2
ENTITIES
  0
LINE
  5
37EE
330
1F
100
AcDbEntity
  8
P-0000
  6
Continuous
 62
     7
100
AcDbLine
 10
2515.335371044953
 20
1833.208035656004
 30
0.0
 11
2515.335371044957
 21
1833.208035656004
 31
0.0
1001
ACME_LAYERS
1000
1
  0
LINE
  5
3AAD
330
1F
100
AcDbEntity
  8
P-0000
  6
STRICHPUNKT
 62
     3
100
AcDbLine
 10
2515.335371044957
 20
1823.823433661191
 30
0.0
 11
2515.335371044955
 21
1784.249652448808
 31
0.0
1001
ACME_LAYERS
1000
1
  0
LINE
  5
3AAE
330
1F
100
AcDbEntity
  8
P-0000
  6
STRICHPUNKT
 62
     3
100
AcDbLine
 10
2515.335371044955
 20
1784.249652448808
 30
0.0
 11
2515.335371044955
 21
1778.020093039226
 31
0.0
1001
ACME_LAYERS
1000
1
  0
LINE
  5
3AB1
330
1F
100
AcDbEntity
  8
P-0000
  6
STRICHPUNKT
 62
     3
100
AcDbLine
 10
2515.335371044958
 20
1840.682661483842
 30
0.0
 11
2515.335371044957
 21
1824.533433661191
 31
0.0
1001
ACME_LAYERS
1000
1
  0
LINE
  5
3EC2
330
1F
100
AcDbEntity
  8
P-0000
  6
Continuous
 62
     7
100
AcDbLine
 10
2566.831099728656
 20
2025.684936203106
 30
0.0
 11
2566.831099728652
 21
2080.788319281844
 31
0.0
1001
ACME_LAYERS
1000
1
  0
LINE
  5
3EC3
330
1F
100
AcDbEntity
  8
P-0000
  6
STRICHPUNKT
 62
     3
100
AcDbLine
 10
2515.335371044968
 20
2135.466117738716
 30
0.0
 11
2515.335371044968
 21
2077.733874358361
 31
0.0
1001
ACME_LAYERS
1000
1
  0
LINE
  5
3EC4
330
1F
100
AcDbEntity
  8
P-0000
  6
Continuous
 62
     7
100
AcDbLine
 10
2463.839642361283
 20
2080.788319281844
 30
0.0
 11
2463.839642361282
 21
2025.684936203106
 31
0.0
1001
ACME_LAYERS
1000
1
  0
LINE
  5
3EC5
330
1F
100
AcDbEntity
  8
P-0000
  6
Continuous
 62
     7
100
AcDbLine
 10
2458.814046744351
 20
2140.250098146037
 30
0.0
 11
2435.695218268405
 21
2140.250098146037
 31
0.0
1001
ACME_LAYERS
1000
1
  0
LINE
  5
3EC6
330
1F
100
AcDbEntity
  8
P-0000
  6
Continuous
 62
     7
100
AcDbLine
 10
2453.805504111726
 20
2144.250098146036
 30
0.0
 11
2431.057167814671
 21
2144.250098146036
 31
0.0
1001
ACME_LAYERS
1000
1
  0
LINE
  5
3EC7
330
1F
100
AcDbEntity
  8
P-0000
  6
Continuous
 62
     7
100
AcDbLine
 10
2453.805504111726
 20
2146.250098146036
 30
0.0
 11
2431.057167814671
 21
2146.250098146036
 31
0.0
1001
ACME_LAYERS
1000
1
  0
ARC
  5
3ECA
330
1F
100
AcDbEntity
  8
P-0000
  6
Continuous
 62
     7
100
AcDbCircle
 10
2431.057167814671
 20
2142.250098146036
 30
0.0
 40
2.0
100
AcDbArc
 50
90.0
 51
119.9999999999989
1001
ACME_LAYERS
1000
1
  0
LINE
  5
3ECB
330
1F
100
AcDbEntity
  8
P-0000
  6
Continuous
 62
     7
100
AcDbLine
 10
2591.369509294515
 20
2146.250098146036
 30
0.0
 11
2515.335371044983
 21
2146.250098146036
 31
0.0
1001
ACME_LAYERS
1000
1
  0
LINE
  5
3ECD
330
1F
100
AcDbEntity
  8
P-0000
  6
Continuous
 62
     3
100
AcDbLine
 10
2561.851655787205
 20
2135.466117738716
 30
0.0
 11
2515.335371044968
 21
2135.466117738716
 31
0.0
1001
ACME_LAYERS
1000
1
  0
ARC
  5
3ECE
330
1F
100
AcDbEntity
  8
P-0000
  6
Continuous
 62
     7
100
AcDbCircle
 10
2453.805504111726
 20
2140.250098146037
 30
0.0
 40
4.000000000000238
100
AcDbArc
 50
36.99999999999589
 51
90.0
1001
ACME_LAYERS
1000
1
  0
LINE
  5
3ECF
330
1F
100
AcDbEntity
  8
P-0000
  6
Continuous
 62
     7
100
AcDbLine
 10
2464.328548595205
 20
2136.255387303291
 30
0.0
 11
2458.597317172011
 21
2143.860988284949
 31
0.0
1001
ACME_LAYERS
1000
1
  0
LINE
  5
3ED1
330
1F
100
AcDbEntity
  8
P-0000
  6
Continuous
 62
     7
100
AcDbLine
 10
2515.335371044953
 20
2146.250098146036
 30
0.0
 11
2453.805504111726
 21
2146.250098146036
 31
0.0
1001
ACME_LAYERS
1000
1
  0
ARC
  5
3ED2
330
1F
100
AcDbEntity
  8
P-0000
  6
Continuous
 62
     7
100
AcDbCircle
 10
2453.805504111726
 20
2140.250098146037
 30
0.0
 40
6.000000000000177
100
AcDbArc
 50
36.99999999999589
 51
90.0
1001
ACME_LAYERS
1000
1
  0
LINE
  5
3ED4
330
1F
100
AcDbEntity
  8
P-0000
  6
Continuous
 62
     3
100
AcDbLine
 10
2515.335371044968
 20
2135.466117738716
 30
0.0
 11
2468.819086302731
 21
2135.466117738716
 31
0.0
1001
ACME_LAYERS
1000
1
  0
HATCH
  5
3ED5
330
1F
100
AcDbEntity
  8
P-0000
  6
Continuous
 62
     3
100
AcDbHatch
 10
0.0
 20
0.0
 30
0.0
210
0.0
220
0.0
230
1.0
  2
_U
 70
     0
 71
     0
 91
        1
 92
        1
 93
        8
 72
     1
 10
2463.835371044968
 20
2080.788319281844
 11
2464.633761402711
 21
2081.048948102404
 72
     1
 10
2464.633761402711
 20
2081.048948102404
 11
2465.335371044969
 21
2081.250098146036
 72
     1
 10
2465.335371044968
 20
2081.250098146036
 11
2465.335371044968
 21
2129.250098146036
 72
     1
 10
2465.335371044968
 20
2129.250098146036
 11
2464.738840670143
 21
2129.250098146036
 72
     1
 10
2464.738840670143
 20
2129.250098146036
 11
2463.835371044968
 21
2128.346628520861
 72
     1
 10
2463.835371044968
 20
2128.346628520861
 11
2463.835371044883
 21
2127.846628520861
 72
     1
 10
2463.835371044883
 20
2127.846628520861
 11
2463.835371044968
 21
2127.707665556918
 72
     1
 10
2463.835371044968
 20
2127.707665556918
 11
2463.835371044968
 21
2080.788319281844
 97
        0
 75
     0
 76
     0
 52
315.0
 41
2.0
 77
     0
 78
     1
 53
315.0
 43
3223.314814986313
 44
1744.466117738715
 45
1.414213562373094
 46
1.414213562373094
 79
     0
 98
        1
 10
3223.314814986313
 20
1744.466117738715
1001
ACME_LAYERS
1000
1
  0
LINE
  5
3ED6
330
1F
100
AcDbEntity
  8
P-0000
  6
Continuous
 62
     7
100
AcDbLine
 10
2465.335371044968
 20
2129.250098146036
 30
0.0
 11
2465.335371044968
 21
2081.250098146036
 31
0.0
1001
ACME_LAYERS
1000
1
  0
LINE
  5
3ED7
330
1F
100
AcDbEntity
  8
P-0000
  6
Continuous
 62
     7
100
AcDbLine
 10
2463.835371044968
 20
2080.788319281844
 30
0.0
 11
2463.835371044968
 21
2128.346628520861
 31
0.0
1001
ACME_LAYERS
1000
1
  0
LINE
  5
3ED8
330
1F
100
AcDbEntity
  8
P-0000
  6
Continuous
 62
     7
100
AcDbLine
 10
2462.731277575111
 20
2135.051757256986
 30
0.0
 11
2458.814046744351
 21
2140.250098146037
 31
0.0
1001
ACME_LAYERS
1000
1
  0
LINE
  5
3ED9
330
1F
100
AcDbEntity
  8
P-0000
  6
Continuous
 62
     7
100
AcDbLine
 10
2458.007850348991
 20
2141.319956897708
 30
0.0
 11
2457.000046151916
 21
2142.657358238645
 31
0.0
1001
ACME_LAYERS
1000
1
  0
LINE
  5
3EDA
330
1F
100
AcDbEntity
  8
P-0000
  6
Continuous
 62
     7
100
AcDbLine
 10
2458.814046744351
 20
2140.250098146037
 30
0.0
 11
2458.007850348991
 21
2141.319956897708
 31
0.0
1001
ACME_LAYERS
1000
1
  0
ARC
  5
3EDB
330
1F
100
AcDbEntity
  8
P-0000
  6
Continuous
 62
     7
100
AcDbCircle
 10
2460.335371044968
 20
2133.24631218753
 30
0.0
 40
5.0
100
AcDbArc
 50
0.0
 51
36.99999999999589
1001
ACME_LAYERS
1000
1
  0
ARC
  5
3EDD
330
1F
100
AcDbEntity
  8
P-0000
  6
Continuous
 62
     7
100
AcDbCircle
 10
2460.335371044968
 20
2133.24631218753
 30
0.0
 40
3.0
100
AcDbArc
 50
0.0
 51
36.99999999999589
1001
ACME_LAYERS
1000
1
  0
LINE
  5
3EDF
330
1F
100
AcDbEntity
  8
P-0000
  6
Continuous
 62
     7
100
AcDbLine
 10
2463.835371044968
 20
2128.346628520861
 30
0.0
 11
2463.835371044883
 21
2129.168992733074
 31
0.0
1001
ACME_LAYERS
1000
1
  0
LINE
  5
3EE0
330
1F
100
AcDbEntity
  8
P-0000
  6
Continuous
 62
     7
100
AcDbLine
 10
2463.835371044968
 20
2128.346628520861
 30
0.0
 11
2463.835371044968
 21
2129.250098146036
 31
0.0
1001
ACME_LAYERS
1000
1
  0
LINE
  5
3EE2
330
1F
100
AcDbEntity
  8
P-0000
  6
Continuous
 62
     7
100
AcDbLine
 10
2463.835371044883
 20
2127.846628520861
 30
0.0
 11
2463.835371044968
 21
2128.346628520861
 31
0.0
1001
ACME_LAYERS
1000
1
  0
LINE
  5
3EE3
330
1F
100
AcDbEntity
  8
P-0000
  6
Continuous
 62
     7
100
AcDbLine
 10
2463.335371044968
 20
2130.653567771211
 30
0.0
 11
2463.335371044968
 21
2129.168992733074
 31
0.0
1001
ACME_LAYERS
1000
1
  0
LINE
  5
3EE4
330
1F
100
AcDbEntity
  8
P-0000
  6
Continuous
 62
     7
100
AcDbLine
 10
2465.335371044968
 20
2133.24631218753
 30
0.0
 11
2465.335371044968
 21
2129.250098146036
 31
0.0
1001
ACME_LAYERS
1000
1
  0
LINE
  5
3EE5
330
1F
100
AcDbEntity
  8
P-0000
  6
Continuous
 62
     7
100
AcDbLine
 10
2464.738840670143
 20
2129.250098146036
 30
0.0
 11
2463.335371044968
 21
2129.250098146036
 31
0.0
1001
ACME_LAYERS
1000
1
  0
LINE
  5
3EE7
330
1F
100
AcDbEntity
  8
P-0000
  6
Continuous
 62
     7
100
AcDbLine
 10
2463.335371044968
 20
2133.24631218753
 30
0.0
 11
2463.335371044968
 21
2130.653567771211
 31
0.0
1001
ACME_LAYERS
1000
1
  0
LINE
  5
3EE8
330
1F
100
AcDbEntity
  8
P-0000
  6
Continuous
 62
     7
100
AcDbLine
 10
2465.335371044968
 20
2129.250098146036
 30
0.0
 11
2464.738840670143
 21
2129.250098146036
 31
0.0
1001
ACME_LAYERS
1000
1
  0
SPLINE
  5
3EE9
330
1F
100
AcDbEntity
  8
P-0000
  6
Continuous
 62
     3
100
AcDbSpline
210
0.0
220
0.0
230
1.0
 70
     8
 71
     3
 72
     8
 73
     4
 74
     0
 42
0.0000000001
 43
0.0000000001
 40
0.0
 40
0.0
 40
0.0
 40
0.0
 40
1.565389413088656
 40
1.565389413088656
 40
1.565389413088656
 40
1.565389413088656
 10
2463.839642361283
 20
2080.788319281844
 30
0.0
 10
2464.333288355823
 20
2080.96171625368
 30
0.0
 10
2464.832127387214
 20
2081.11518224616
 30
0.0
 10
2465.335371044968
 20
2081.250098146036
 30
0.0
  0
ARC
  5
3EEA
330
1F
100
AcDbEntity
  8
P-0000
  6
Continuous
 62
     7
100
AcDbCircle
 10
2576.865237978211
 20
2140.250098146037
 30
0.0
 40
4.0
100
AcDbArc
 50
90.0
 51
143.0000000000041
1001
ACME_LAYERS
1000
1
  0
ARC
  5
3EEB
330
1F
100
AcDbEntity
  8
P-0000
  6
Continuous
 62
     7
100
AcDbCircle
 10
2576.865237978211
 20
2140.250098146037
 30
0.0
 40
4.0
100
AcDbArc
 50
90.0
 51
143.0000000000041
1001
ACME_LAYERS
1000
1
  0
LINE
  5
3EEC
330
1F
100
AcDbEntity
  8
P-0000
  6
Continuous
 62
     7
100
AcDbLine
 10
2572.073424917926
 20
2143.860988284949
 30
0.0
 11
2566.342193494732
 21
2136.255387303291
 31
0.0
1001
ACME_LAYERS
1000
1
  0
LINE
  5
3EED
330
1F
100
AcDbEntity
  8
P-0000
  6
Continuous
 62
     7
100
AcDbLine
 10
2601.613574275234
 20
2145.714199761174
 30
0.0
 11
2606.289761885889
 21
2143.014401585382
 31
0.0
1001
ACME_LAYERS
1000
1
  0
LINE
  5
3EEE
330
1F
100
AcDbEntity
  8
P-0000
  6
Continuous
 62
     7
100
AcDbLine
 10
2600.613574275234
 20
2143.982148953606
 30
0.0
 11
2606.149472660098
 21
2140.785996530899
 31
0.0
1001
ACME_LAYERS
1000
1
  0
LINE
  5
3EEF
330
1F
100
AcDbEntity
  8
P-0000
  6
Continuous
 62
     7
100
AcDbLine
 10
2599.613574275235
 20
2144.250098146036
 30
0.0
 11
2576.865237978211
 21
2144.250098146036
 31
0.0
1001
ACME_LAYERS
1000
1
  0
ARC
  5
3EF0
330
1F
100
AcDbEntity
  8
P-0000
  6
Continuous
 62
     7
100
AcDbCircle
 10
2576.865237978211
 20
2140.250098146037
 30
0.0
 40
6.0
100
AcDbArc
 50
90.0
 51
143.0000000000041
1001
ACME_LAYERS
1000
1
  0
ARC
  5
3EF2
330
1F
100
AcDbEntity
  8
P-0000
  6
Continuous
 62
     7
100
AcDbCircle
 10
2599.613574275235
 20
2142.250098146036
 30
0.0
 40
4.000000000000023
100
AcDbArc
 50
60.00000000000109
 51
90.0
1001
ACME_LAYERS
1000
1
  0
ARC
  5
3EF3
330
1F
100
AcDbEntity
  8
P-0000
  6
Continuous
 62
     7
100
AcDbCircle
 10
2599.613574275235
 20
2142.250098146036
 30
0.0
 40
2.000000000000205
100
AcDbArc
 50
60.00000000000109
 51
90.0
1001
ACME_LAYERS
1000
1
  0
LINE
  5
3EF4
330
1F
100
AcDbEntity
  8
P-0000
  6
Continuous
 62
     7
100
AcDbLine
 10
2599.613574275235
 20
2146.250098146036
 30
0.0
 11
2594.195560073558
 21
2146.250098146036
 31
0.0
1001
ACME_LAYERS
1000
1
  0
LINE
  5
3EF5
330
1F
100
AcDbEntity
  8
P-0000
  6
Continuous
 62
     7
100
AcDbLine
 10
2594.195560073558
 20
2146.250098146036
 30
0.0
 11
2591.369509294515
 21
2146.250098146036
 31
0.0
1001
ACME_LAYERS
1000
1
  0
HATCH
  5
3EF6
330
1F
100
AcDbEntity
  8
P-0000
  6
Continuous
 62
     3
100
AcDbHatch
 10
0.0
 20
0.0
 30
0.0
210
0.0
220
0.0
230
1.0
  2
_U
 70
     0
 71
     0
 91
        1
 92
        1
 93
        7
 72
     1
 10
2566.831099728652
 20
2080.788319281844
 11
2565.335371044963
 21
2081.250098146037
 72
     1
 10
2565.335371044968
 20
2081.250098146036
 11
2565.335371044968
 21
2129.250098146036
 72
     1
 10
2565.335371044968
 20
2129.250098146036
 11
2565.931901419793
 21
2129.250098146036
 72
     1
 10
2565.931901419793
 20
2129.250098146036
 11
2566.835371044968
 21
2128.346628520861
 72
     1
 10
2566.835371044968
 20
2128.346628520861
 11
2566.835371044968
 21
2082.257282168642
 72
     1
 10
2566.835371044968
 20
2082.257282168642
 11
2566.835371044968
 21
2081.650202695553
 72
     1
 10
2566.835371044968
 20
2081.650202695553
 11
2566.831099728652
 21
2080.788319281844
 97
        0
 75
     0
 76
     0
 52
315.0
 41
2.0
 77
     0
 78
     1
 53
315.0
 43
3223.314814986313
 44
1744.466117738715
 45
1.414213562373094
 46
1.414213562373094
 79
     0
 98
        1
 10
3223.314814986313
 20
1744.466117738715
1001
ACME_LAYERS
1000
1
  0
LINE
  5
3EF7
330
1F
100
AcDbEntity
  8
P-0000
  6
Continuous
 62
     7
100
AcDbLine
 10
2566.835371044968
 20
2128.346628520861
 30
0.0
 11
2566.835371044968
 21
2080.788319281844
 31
0.0
1001
ACME_LAYERS
1000
1
  0
LINE
  5
3EF8
330
1F
100
AcDbEntity
  8
P-0000
  6
Continuous
 62
     7
100
AcDbLine
 10
2565.335371044968
 20
2081.250098146036
 30
0.0
 11
2565.335371044968
 21
2129.250098146036
 31
0.0
1001
ACME_LAYERS
1000
1
  0
LINE
  5
3EFB
330
1F
100
AcDbEntity
  8
P-0000
  6
Continuous
 62
     7
100
AcDbLine
 10
2567.335371044968
 20
2129.250098146036
 30
0.0
 11
2565.931901419793
 21
2129.250098146036
 31
0.0
1001
ACME_LAYERS
1000
1
  0
ARC
  5
3EFD
330
1F
100
AcDbEntity
  8
P-0000
  6
Continuous
 62
     7
100
AcDbCircle
 10
2570.335371044968
 20
2133.24631218753
 30
0.0
 40
5.000000000000214
100
AcDbArc
 50
143.0000000000041
 51
179.999999999987
1001
ACME_LAYERS
1000
1
  0
LINE
  5
3EFE
330
1F
100
AcDbEntity
  8
P-0000
  6
Continuous
 62
     7
100
AcDbLine
 10
2565.335371044968
 20
2129.250098146036
 30
0.0
 11
2565.335371044968
 21
2133.24631218753
 31
0.0
1001
ACME_LAYERS
1000
1
  0
LINE
  5
3EFF
330
1F
100
AcDbEntity
  8
P-0000
  6
Continuous
 62
     7
100
AcDbLine
 10
2565.931901419793
 20
2129.250098146036
 30
0.0
 11
2565.335371044968
 21
2129.250098146036
 31
0.0
1001
ACME_LAYERS
1000
1
  0
LINE
  5
3F00
330
1F
100
AcDbEntity
  8
P-0000
  6
Continuous
 62
     7
100
AcDbLine
 10
2571.856695345585
 20
2140.250098146037
 30
0.0
 11
2567.939464514826
 21
2135.051757256986
 31
0.0
1001
ACME_LAYERS
1000
1
  0
LINE
  5
3F01
330
1F
100
AcDbEntity
  8
P-0000
  6
Continuous
 62
     7
100
AcDbLine
 10
2572.662891740945
 20
2141.319956897708
 30
0.0
 11
2571.856695345585
 21
2140.250098146037
 31
0.0
1001
ACME_LAYERS
1000
1
  0
LINE
  5
3F02
330
1F
100
AcDbEntity
  8
P-0000
  6
Continuous
 62
     7
100
AcDbLine
 10
2573.67069593802
 20
2142.657358238645
 30
0.0
 11
2572.662891740945
 21
2141.319956897708
 31
0.0
1001
ACME_LAYERS
1000
1
  0
LINE
  5
3F03
330
1F
100
AcDbEntity
  8
P-0000
  6
Continuous
 62
     7
100
AcDbLine
 10
2572.662891740945
 20
2141.319956897708
 30
0.0
 11
2571.856695345585
 21
2140.250098146037
 31
0.0
1001
ACME_LAYERS
1000
1
  0
LINE
  5
3F04
330
1F
100
AcDbEntity
  8
P-0000
  6
Continuous
 62
     7
100
AcDbLine
 10
2573.67069593802
 20
2142.657358238645
 30
0.0
 11
2572.662891740945
 21
2141.319956897708
 31
0.0
1001
ACME_LAYERS
1000
1
  0
ARC
  5
3F05
330
1F
100
AcDbEntity
  8
P-0000
  6
Continuous
 62
     7
100
AcDbCircle
 10
2570.335371044968
 20
2133.24631218753
 30
0.0
 40
3.000000000000071
100
AcDbArc
 50
143.0000000000041
 51
180.0
1001
ACME_LAYERS
1000
1
  0
LINE
  5
3F07
330
1F
100
AcDbEntity
  8
P-0000
  6
Continuous
 62
     7
100
AcDbLine
 10
2566.835371045053
 20
2129.168992733074
 30
0.0
 11
2566.835371044968
 21
2128.346628520861
 31
0.0
1001
ACME_LAYERS
1000
1
  0
LINE
  5
3F08
330
1F
100
AcDbEntity
  8
P-0000
  6
Continuous
 62
     7
100
AcDbLine
 10
2566.835371044968
 20
2129.250098146036
 30
0.0
 11
2566.835371044968
 21
2128.346628520861
 31
0.0
1001
ACME_LAYERS
1000
1
  0
LINE
  5
3F09
330
1F
100
AcDbEntity
  8
P-0000
  6
Continuous
 62
     7
100
AcDbLine
 10
2567.335371044968
 20
2129.168992733074
 30
0.0
 11
2567.335371044968
 21
2130.653567771211
 31
0.0
1001
ACME_LAYERS
1000
1
  0
LINE
  5
3F0A
330
1F
100
AcDbEntity
  8
P-0000
  6
Continuous
 62
     7
100
AcDbLine
 10
2567.335371044968
 20
2130.653567771211
 30
0.0
 11
2567.335371044968
 21
2133.24631218753
 31
0.0
1001
ACME_LAYERS
1000
1
  0
SPLINE
  5
3F0B
330
1F
100
AcDbEntity
  8
P-0000
  6
Continuous
 62
     3
100
AcDbSpline
210
0.0
220
0.0
230
1.0
 70
     8
 71
     3
 72
     8
 73
     4
 74
     0
 42
0.0000000001
 43
0.0000000001
 40
0.0
 40
0.0
 40
0.0
 40
0.0
 40
1.565389413094596
 40
1.565389413094596
 40
1.565389413094596
 40
1.565389413094596
 10
2566.831099728652
 20
2080.788319281844
 30
0.0
 10
2566.337453734111
 20
2080.961716253681
 30
0.0
 10
2565.838614702717
 20
2081.115182246162
 30
0.0
 10
2565.335371044963
 20
2081.250098146037
 30
0.0
  0
ARC
  5
3F0C
330
1F
100
AcDbEntity
  8
P-0000
  6
Continuous
 62
     7
100
AcDbCircle
 10
2608.149472660099
 20
2144.250098146036
 30
0.0
 40
1.999999999999868
100
AcDbArc
 50
240.0000000000011
 51
270.0
1001
ACME_LAYERS
1000
1
  0
ARC
  5
3F0D
330
1F
100
AcDbEntity
  8
P-0000
  6
Continuous
 62
     7
100
AcDbCircle
 10
2608.149472660099
 20
2144.250098146036
 30
0.0
 40
3.999999999999741
100
AcDbArc
 50
240.0000000000229
 51
270.0
1001
ACME_LAYERS
1000
1
  0
LINE
  5
3F0E
330
1F
100
AcDbEntity
  8
P-0000
  6
Continuous
 62
     7
100
AcDbLine
 10
2606.289761885889
 20
2143.014401585382
 30
0.0
 11
2606.913034867638
 21
2142.654554761591
 31
0.0
1001
ACME_LAYERS
1000
1
  0
LINE
  5
3F0F
330
1F
100
AcDbEntity
  8
P-0000
  6
Continuous
 62
     3
100
AcDbLine
 10
2607.044629010196
 20
2142.578578847961
 30
0.0
 11
2606.913034867638
 21
2142.654554761591
 31
0.0
1001
ACME_LAYERS
1000
1
  0
LINE
  5
3F10
330
1F
100
AcDbEntity
  8
P-0000
  6
Continuous
 62
     7
100
AcDbLine
 10
2606.913034867638
 20
2142.654554761591
 30
0.0
 11
2607.044629010196
 21
2142.578578847961
 31
0.0
1001
ACME_LAYERS
1000
1
  0
LINE
  5
3F11
330
1F
100
AcDbEntity
  8
P-0000
  6
Continuous
 62
     3
100
AcDbLine
 10
2606.913034867638
 20
2142.654554761591
 30
0.0
 11
2606.289761885889
 21
2143.014401585382
 31
0.0
1001
ACME_LAYERS
1000
1
  0
LINE
  5
3F12
330
1F
100
AcDbEntity
  8
P-0000
  6
Continuous
 62
     7
100
AcDbLine
 10
2607.044629010196
 20
2142.578578847961
 30
0.0
 11
2607.149472660098
 21
2142.518047338468
 31
0.0
1001
ACME_LAYERS
1000
1
  0
LINE
  5
3F13
330
1F
100
AcDbEntity
  8
P-0000
  6
Continuous
 62
     7
100
AcDbLine
 10
2566.831099728638
 20
1774.309969750941
 30
0.0
 11
2566.831099728656
 21
2035.453466467576
 31
0.0
1001
ACME_LAYERS
1000
1
  0
LINE
  5
3F14
330
1F
100
AcDbEntity
  8
P-0000
  6
STRICHPUNKT
 62
     3
100
AcDbLine
 10
2515.335371044968
 20
2077.733874358361
 30
0.0
 11
2515.335371044968
 21
1768.331452759759
 31
0.0
1001
ACME_LAYERS
1000
1
  0
LINE
  5
3F15
330
1F
100
AcDbEntity
  8
P-0000
  6
Continuous
 62
     7
100
AcDbLine
 10
2463.839642361282
 20
2035.453466467576
 30
0.0
 11
2463.839642361298
 21
1774.309969750941
 31
0.0
1001
ACME_LAYERS
1000
1
  0
LINE
  5
3F17
330
1F
100
AcDbEntity
  8
P-0000
  6
Continuous
 62
     3
100
AcDbLine
 10
2565.401834093359
 20
1774.309969751003
 30
0.0
 11
2533.355927103624
 21
1774.309969751003
 31
0.0
1001
ACME_LAYERS
1000
1
  0
LINE
  5
3F18
330
1F
100
AcDbEntity
  8
P-0000
  6
Continuous
 62
     7
100
AcDbLine
 10
2565.743260410731
 20
1770.250098146036
 30
0.0
 11
2533.355927103624
 21
1770.250098146036
 31
0.0
1001
ACME_LAYERS
1000
1
  0
LINE
  5
3F1B
330
1F
100
AcDbEntity
  8
P-0000
  6
Continuous
 62
     7
100
AcDbLine
 10
2463.83964236129
 20
1774.309969750971
 30
0.0
 11
2464.927481679206
 21
1770.250098146036
 31
0.0
1001
ACME_LAYERS
1000
1
  0
LINE
  5
3F1C
330
1F
100
AcDbEntity
  8
P-0000
  6
Continuous
 62
     3
100
AcDbLine
 10
2533.355927103624
 20
1774.309969751003
 30
0.0
 11
2515.335371044983
 21
1774.309969751003
 31
0.0
1001
ACME_LAYERS
1000
1
  0
LINE
  5
3F1D
330
1F
100
AcDbEntity
  8
P-0000
  6
Continuous
 62
     7
100
AcDbLine
 10
2533.355927103624
 20
1770.250098146036
 30
0.0
 11
2515.335371044983
 21
1770.250098146036
 31
0.0
1001
ACME_LAYERS
1000
1
  0
LINE
  5
3F1E
330
1F
100
AcDbEntity
  8
P-0000
  6
Continuous
 62
     3
100
AcDbLine
 10
2515.335371044953
 20
1774.309969751003
 30
0.0
 11
2467.637330569815
 21
1774.309969751003
 31
0.0
1001
ACME_LAYERS
1000
1
  0
LINE
  5
3F1F
330
1F
100
AcDbEntity
  8
P-0000
  6
Continuous
 62
     7
100
AcDbLine
 10
2515.335371044953
 20
1770.250098146036
 30
0.0
 11
2464.927481679206
 21
1770.250098146036
 31
0.0
1001
ACME_LAYERS
1000
1
  0
LINE
  5
3F20
330
1F
100
AcDbEntity
  8
P-0000
  6
Continuous
 62
     7
100
AcDbLine
 10
2565.743260410731
 20
1770.250098146036
 30
0.0
 11
2566.831099728646
 21
1774.309969750971
 31
0.0
1001
ACME_LAYERS
1000
1
  0
LINE
  5
3F22
330
1F
100
AcDbEntity
  8
P-0000
  6
Continuous
 62
     7
100
AcDbLine
 10
2431.335371044981
 20
2140.250098146033
 30
0.0
 11
2451.335371044983
 21
2140.250098146051
 31
0.0
1001
ACME_LAYERS
1000
1
  0
LINE
  5
3F24
330
1F
100
AcDbEntity
  8
P-0000
  6
Continuous
 62
     7
100
AcDbLine
 10
2431.013657772743
 20
2146.250098146036
 30
0.0
 11
2468.335371044981
 21
2146.250098146036
 31
0.0
1001
ACME_LAYERS
1000
1
  0
HATCH
  5
3F25
330
1F
100
AcDbEntity
  8
P-0000
  6
Continuous
 62
     3
100
AcDbHatch
 10
0.0
 20
0.0
 30
0.0
210
0.0
220
0.0
230
1.0
  2
_U
 70
     0
 71
     0
 91
        1
 92
        1
 93
        9
 72
     1
 10
2350.291861003016
 20
2140.250098146037
 11
2349.291861003017
 21
2141.982148953606
 72
     1
 10
2349.291861003017
 20
2141.982148953606
 11
2353.657319242925
 21
2144.502547443551
 72
     2
 10
2355.657319242925
 20
2141.038445828415
 40
4.0
 50
239.9999999999895
 51
270.0
 73
     0
 72
     2
 10
2355.657319242925
 20
2141.038445828415
 40
4.000000000000613
 50
270.0
 51
315.0000000000009
 73
     0
 72
     1
 10
2358.485746367672
 20
2143.866872953162
 11
2359.188307612424
 21
2143.16431170841
 72
     1
 10
2359.188307612424
 20
2143.16431170841
 11
2357.774094050051
 21
2141.750098146036
 72
     1
 10
2357.774094050051
 20
2141.750098146036
 11
2357.071532805298
 21
2142.452659390789
 72
     2
 10
2355.657319242925
 20
2141.038445828415
 40
2.000000000000115
 50
44.99999999999594
 51
120.0000000000099
 73
     1
 72
     1
 10
2354.657319242925
 20
2142.770496635984
 11
2350.291861003016
 21
2140.250098146037
 97
        0
 75
     0
 76
     0
 52
44.99999999999999
 41
2.0
 77
     0
 78
     1
 53
45.0
 43
2667.095812546248
 44
2006.359233112473
 45
-1.414213562373094
 46
1.414213562373094
 79
     0
 98
        1
 10
2667.095812546248
 20
2006.359233112473
1001
ACME_LAYERS
1000
1
  0
LINE
  5
3F26
330
1F
100
AcDbEntity
  8
P-0000
  6
Continuous
 62
     3
100
AcDbLine
 10
2349.291861003017
 20
2141.982148953606
 30
0.0
 11
2353.657319242925
 21
2144.502547443551
 31
0.0
1001
ACME_LAYERS
1000
1
  0
LINE
  5
3F27
330
1F
100
AcDbEntity
  8
P-0000
  6
Continuous
 62
     7
100
AcDbLine
 10
2350.291861003016
 20
2140.250098146037
 30
0.0
 11
2354.657319242925
 21
2142.770496635984
 31
0.0
1001
ACME_LAYERS
1000
1
  0
LINE
  5
3F28
330
1F
100
AcDbEntity
  8
P-0000
  6
Continuous
 62
     7
100
AcDbLine
 10
2350.291861003016
 20
2140.250098146037
 30
0.0
 11
2354.657319242925
 21
2142.770496635984
 31
0.0
1001
ACME_LAYERS
1000
1
  0
LINE
  5
3F29
330
1F
100
AcDbEntity
  8
P-0000
  6
Continuous
 62
     7
100
AcDbLine
 10
2350.291861003016
 20
2140.250098146037
 30
0.0
 11
2374.86365777274
 21
2140.250098146037
 31
0.0
1001
ACME_LAYERS
1000
1
  0
LINE
  5
3F2A
330
1F
100
AcDbEntity
  8
P-0000
  6
Continuous
 62
     7
100
AcDbLine
 10
2350.291861003016
 20
2140.250098146037
 30
0.0
 11
2349.291861003017
 21
2141.982148953606
 31
0.0
1001
ACME_LAYERS
1000
1
  0
LINE
  5
3F2B
330
1F
100
AcDbEntity
  8
P-0000
  6
Continuous
 62
     7
100
AcDbLine
 10
2374.86365777274
 20
2140.250098146037
 30
0.0
 11
2412.835371044995
 21
2140.250098146033
 31
0.0
1001
ACME_LAYERS
1000
1
  0
LINE
  5
3F2E
330
1F
100
AcDbEntity
  8
P-0000
  6
Continuous
 62
     7
100
AcDbLine
 10
2395.085371044975
 20
2142.250098146036
 30
0.0
 11
2403.041861003016
 21
2142.250098146036
 31
0.0
1001
ACME_LAYERS
1000
1
  0
ARC
  5
3F35
330
1F
100
AcDbEntity
  8
P-0000
  6
Continuous
 62
     7
100
AcDbCircle
 10
2374.86365777274
 20
2144.250098146036
 30
0.0
 40
1.999999999999253
100
AcDbArc
 50
239.9999999999713
 51
270.0
1001
ACME_LAYERS
1000
1
  0
ARC
  5
3F36
330
1F
100
AcDbEntity
  8
P-0000
  6
Continuous
 62
     7
100
AcDbCircle
 10
2374.86365777274
 20
2144.250098146036
 30
0.0
 40
4.000000000000131
100
AcDbArc
 50
240.0000000000011
 51
270.0
1001
ACME_LAYERS
1000
1
  0
LINE
  5
3F37
330
1F
100
AcDbEntity
  8
P-0000
  6
Continuous
 62
     7
100
AcDbLine
 10
2375.141861003017
 20
2142.250098146036
 30
0.0
 11
2369.373911810585
 21
2145.580225164958
 31
0.0
1001
ACME_LAYERS
1000
1
  0
LINE
  5
3F38
330
1F
100
AcDbEntity
  8
P-0000
  6
Continuous
 62
     7
100
AcDbLine
 10
2369.426402763108
 20
2142.770496635984
 30
0.0
 11
2372.863657772739
 21
2140.785996530898
 31
0.0
1001
ACME_LAYERS
1000
1
  0
LINE
  5
3F39
330
1F
100
AcDbEntity
  8
P-0000
  6
Continuous
 62
     7
100
AcDbLine
 10
2359.188307612424
 20
2143.16431170841
 30
0.0
 11
2364.895414393609
 21
2143.16431170841
 31
0.0
1001
ACME_LAYERS
1000
1
  0
LINE
  5
3F3A
330
1F
100
AcDbEntity
  8
P-0000
  6
Continuous
 62
     7
100
AcDbLine
 10
2357.774094050051
 20
2141.750098146036
 30
0.0
 11
2366.309627955982
 21
2141.750098146036
 31
0.0
1001
ACME_LAYERS
1000
1
  0
LINE
  5
3F3B
330
1F
100
AcDbEntity
  8
P-0000
  6
Continuous
 62
     7
100
AcDbLine
 10
2358.023911810587
 20
2146.250098146036
 30
0.0
 11
2366.873911810585
 21
2146.250098146036
 31
0.0
1001
ACME_LAYERS
1000
1
  0
LINE
  5
3F3C
330
1F
100
AcDbEntity
  8
P-0000
  6
Continuous
 62
     7
100
AcDbLine
 10
2355.657319242925
 20
2145.038445828416
 30
0.0
 11
2368.426402763108
 21
2145.038445828416
 31
0.0
1001
ACME_LAYERS
1000
1
  0
ARC
  5
3F3D
330
1F
100
AcDbEntity
  8
P-0000
  6
Continuous
 62
     7
100
AcDbCircle
 10
2358.023911810585
 20
2141.250098146036
 30
0.0
 40
5.0
100
AcDbArc
 50
89.99999999997395
 51
119.9999999999989
1001
ACME_LAYERS
1000
1
  0
ARC
  5
3F3E
330
1F
100
AcDbEntity
  8
P-0000
  6
Continuous
 62
     7
100
AcDbCircle
 10
2355.657319242925
 20
2141.038445828415
 30
0.0
 40
4.000000000000613
100
AcDbArc
 50
45.0
 51
90.0
1001
ACME_LAYERS
1000
1
  0
LINE
  5
3F3F
330
1F
100
AcDbEntity
  8
P-0000
  6
Continuous
 62
     7
100
AcDbLine
 10
2357.071532805298
 20
2142.452659390789
 30
0.0
 11
2357.774094050051
 21
2141.750098146036
 31
0.0
1001
ACME_LAYERS
1000
1
  0
ARC
  5
3F40
330
1F
100
AcDbEntity
  8
P-0000
  6
Continuous
 62
     7
100
AcDbCircle
 10
2355.657319242925
 20
2141.038445828415
 30
0.0
 40
4.0
100
AcDbArc
 50
90.0
 51
120.0000000000288
1001
ACME_LAYERS
1000
1
  0
LINE
  5
3F41
330
1F
100
AcDbEntity
  8
P-0000
  6
Continuous
 62
     7
100
AcDbLine
 10
2353.657319242925
 20
2144.502547443551
 30
0.0
 11
2355.523911810585
 21
2145.580225164958
 31
0.0
1001
ACME_LAYERS
1000
1
  0
ARC
  5
3F42
330
1F
100
AcDbEntity
  8
P-0000
  6
Continuous
 62
     7
100
AcDbCircle
 10
2355.657319242925
 20
2141.038445828415
 30
0.0
 40
2.000000000000115
100
AcDbArc
 50
44.99999999999078
 51
120.0000000000288
1001
ACME_LAYERS
1000
1
  0
LINE
  5
3F43
330
1F
100
AcDbEntity
  8
P-0000
  6
Continuous
 62
     7
100
AcDbLine
 10
2359.188307612424
 20
2143.16431170841
 30
0.0
 11
2357.774094050051
 21
2141.750098146036
 31
0.0
1001
ACME_LAYERS
1000
1
  0
LINE
  5
3F44
330
1F
100
AcDbEntity
  8
P-0000
  6
Continuous
 62
     7
100
AcDbLine
 10
2358.485746367672
 20
2143.866872953162
 30
0.0
 11
2359.188307612424
 21
2143.16431170841
 31
0.0
1001
ACME_LAYERS
1000
1
  0
ARC
  5
3F45
330
1F
100
AcDbEntity
  8
P-0000
  6
Continuous
 62
     7
100
AcDbCircle
 10
2368.426402763108
 20
2141.038445828415
 30
0.0
 40
1.999999999999401
100
AcDbArc
 50
59.99999999997119
 51
135.0000000000092
1001
ACME_LAYERS
1000
1
  0
ARC
  5
3F46
330
1F
100
AcDbEntity
  8
P-0000
  6
Continuous
 62
     7
100
AcDbCircle
 10
2366.873911810585
 20
2141.250098146036
 30
0.0
 40
5.000000000000164
100
AcDbArc
 50
60.00000000000109
 51
90.0
1001
ACME_LAYERS
1000
1
  0
ARC
  5
3F47
330
1F
100
AcDbEntity
  8
P-0000
  6
Continuous
 62
     7
100
AcDbCircle
 10
2368.426402763108
 20
2141.038445828415
 30
0.0
 40
1.999999999999401
100
AcDbArc
 50
59.99999999997119
 51
135.0000000000092
1001
ACME_LAYERS
1000
1
  0
ARC
  5
3F48
330
1F
100
AcDbEntity
  8
P-0000
  6
Continuous
 62
     7
100
AcDbCircle
 10
2368.426402763108
 20
2141.038445828415
 30
0.0
 40
3.999999999998728
100
AcDbArc
 50
59.99999999997119
 51
90.0
1001
ACME_LAYERS
1000
1
  0
ARC
  5
3F49
330
1F
100
AcDbEntity
  8
P-0000
  6
Continuous
 62
     7
100
AcDbCircle
 10
2368.426402763108
 20
2141.038445828415
 30
0.0
 40
4.0
100
AcDbArc
 50
90.0
 51
135.0
1001
ACME_LAYERS
1000
1
  0
LINE
  5
3F4A
330
1F
100
AcDbEntity
  8
P-0000
  6
Continuous
 62
     7
100
AcDbLine
 10
2364.895414393609
 20
2143.16431170841
 30
0.0
 11
2365.597975638361
 21
2143.866872953162
 31
0.0
1001
ACME_LAYERS
1000
1
  0
LINE
  5
3F4B
330
1F
100
AcDbEntity
  8
P-0000
  6
Continuous
 62
     7
100
AcDbLine
 10
2366.309627955982
 20
2141.750098146036
 30
0.0
 11
2367.012189200735
 21
2142.452659390789
 31
0.0
1001
ACME_LAYERS
1000
1
  0
LINE
  5
3F4C
330
1F
100
AcDbEntity
  8
P-0000
  6
Continuous
 62
     7
100
AcDbLine
 10
2366.309627955982
 20
2141.750098146036
 30
0.0
 11
2364.895414393609
 21
2143.16431170841
 31
0.0
1001
ACME_LAYERS
1000
1
  0
LINE
  5
3F4D
330
1F
100
AcDbEntity
  8
P-0000
  6
Continuous
 62
     7
100
AcDbLine
 10
2370.426402763108
 20
2144.502547443551
 30
0.0
 11
2373.86365777274
 21
2142.518047338468
 31
0.0
1001
ACME_LAYERS
1000
1
  0
LINE
  5
3F4E
330
1F
100
AcDbEntity
  8
P-0000
  6
Continuous
 62
     7
100
AcDbLine
 10
2375.141861003017
 20
2142.250098146036
 30
0.0
 11
2395.085371044975
 21
2142.250098146036
 31
0.0
1001
ACME_LAYERS
1000
1
  0
LINE
  5
3F4F
330
1F
100
AcDbEntity
  8
P-0000
  6
Continuous
 62
     7
100
AcDbLine
 10
2375.141861003017
 20
2142.250098146036
 30
0.0
 11
2374.86365777274
 21
2142.250098146036
 31
0.0
1001
ACME_LAYERS
1000
1
  0
LINE
  5
3F51
330
1F
100
AcDbEntity
  8
P-0000
  6
Continuous
 62
     7
100
AcDbLine
 10
2395.020105982035
 20
2155.45601805098
 30
0.0
 11
2395.020105982035
 21
2151.45601805098
 31
0.0
1001
ACME_LAYERS
1000
1
  0
LINE
  5
3F5A
330
1F
100
AcDbEntity
  8
P-0000
  6
Continuous
 62
     7
100
AcDbLine
 10
2417.835371044979
 20
2140.250098146033
 30
0.0
 11
2431.335371044981
 21
2140.250098146033
 31
0.0
1001
ACME_LAYERS
1000
1
  0
LINE
  5
3F5B
330
1F
100
AcDbEntity
  8
P-0000
  6
Continuous
 62
     7
100
AcDbLine
 10
2403.041861003016
 20
2142.250098146036
 30
0.0
 11
2422.477759387878
 21
2142.250098146036
 31
0.0
1001
ACME_LAYERS
1000
1
  0
LINE
  5
3F5C
330
1F
100
AcDbEntity
  8
P-0000
  6
Continuous
 62
     7
100
AcDbLine
 10
2413.59657410507
 20
2140.250098146037
 30
0.0
 11
2422.477759387878
 21
2140.250098146037
 31
0.0
1001
ACME_LAYERS
1000
1
  0
LINE
  5
3F5D
330
1F
100
AcDbEntity
  8
P-0000
  6
Continuous
 62
     7
100
AcDbLine
 10
2403.020105982035
 20
2155.45601805098
 30
0.0
 11
2403.020105982035
 21
2151.45601805098
 31
0.0
1001
ACME_LAYERS
1000
1
  0
LINE
  5
3F5E
330
1F
100
AcDbEntity
  8
P-0000
  6
Continuous
 62
     7
100
AcDbLine
 10
2412.835371044995
 20
2140.250098146033
 30
0.0
 11
2413.59657410507
 21
2140.250098146037
 31
0.0
1001
ACME_LAYERS
1000
1
  0
LINE
  5
3F5F
330
1F
100
AcDbEntity
  8
P-0000
  6
Continuous
 62
     7
100
AcDbLine
 10
2424.477759387878
 20
2140.785996530898
 30
0.0
 11
2430.013657772742
 21
2143.982148953607
 31
0.0
1001
ACME_LAYERS
1000
1
  0
LINE
  5
3F60
330
1F
100
AcDbEntity
  8
P-0000
  6
Continuous
 62
     7
100
AcDbLine
 10
2423.477759387878
 20
2142.518047338467
 30
0.0
 11
2429.013657772741
 21
2145.714199761175
 31
0.0
1001
ACME_LAYERS
1000
1
  0
ARC
  5
3F61
330
1F
100
AcDbEntity
  8
P-0000
  6
Continuous
 62
     7
100
AcDbCircle
 10
2422.477759387878
 20
2144.250098146036
 30
0.0
 40
2.0
100
AcDbArc
 50
270.0
 51
300.0000000000288
1001
ACME_LAYERS
1000
1
  0
ARC
  5
3F62
330
1F
100
AcDbEntity
  8
P-0000
  6
Continuous
 62
     7
100
AcDbCircle
 10
2431.013657772743
 20
2142.250098146036
 30
0.0
 40
4.0
100
AcDbArc
 50
90.0
 51
119.9999999999989
1001
ACME_LAYERS
1000
1
  0
ARC
  5
3F63
330
1F
100
AcDbEntity
  8
P-0000
  6
Continuous
 62
     7
100
AcDbCircle
 10
2430.783903246124
 20
2142.804774640215
 30
0.0
 40
1.406942913943622
100
AcDbArc
 50
78.80050130599656
 51
123.1929568710186
1001
ACME_LAYERS
1000
1
  0
ARC
  5
3F64
330
1F
100
AcDbEntity
  8
P-0000
  6
Continuous
 62
     7
100
AcDbCircle
 10
2422.477759387878
 20
2144.250098146036
 30
0.0
 40
4.0
100
AcDbArc
 50
270.0
 51
299.9999999999989
1001
ACME_LAYERS
1000
1
  0
LINE
  5
3F65
330
1F
100
AcDbEntity
  8
P-0000
  6
Continuous
 62
     7
100
AcDbLine
 10
2475.965052858517
 20
2146.250098146036
 30
0.0
 11
2515.335371044983
 21
2146.250098146036
 31
0.0
1001
ACME_LAYERS
1000
1
  0
LINE
  5
3F66
330
1F
100
AcDbEntity
  8
P-0000
  6
Continuous
 62
     7
100
AcDbLine
 10
2468.335371044981
 20
2146.250098146036
 30
0.0
 11
2515.335371044983
 21
2146.250098146036
 31
0.0
1001
ACME_LAYERS
1000
1
  0
LINE
  5
3F67
330
1F
100
AcDbEntity
  8
P-0000
  6
Continuous
 62
     7
100
AcDbLine
 10
2451.335371044983
 20
2140.250098146051
 30
0.0
 11
2458.81404674434
 21
2140.250098146051
 31
0.0
1001
ACME_LAYERS
1000
1
  0
LINE
  5
3F68
330
1F
100
AcDbEntity
  8
P-0000
  6
Continuous
 62
     7
100
AcDbLine
 10
2448.831099728662
 20
2146.469630220167
 30
0.0
 11
2448.835371044975
 21
2146.453466467576
 31
0.0
1001
ACME_LAYERS
1000
1
  0
LINE
  5
3F69
330
1F
100
AcDbEntity
  8
P-0000
  6
STRICHPUNKT
 62
     3
100
AcDbLine
 10
2515.335371044981
 20
2118.39197537709
 30
0.0
 11
2515.335371044981
 21
2117.936162018257
 31
0.0
1001
ACME_LAYERS
1000
1
  0
LINE
  5
3F6F
330
1F
100
AcDbEntity
  8
P-0000
  6
Continuous
 62
     7
100
AcDbLine
 10
2381.576642426135
 20
2156.95601805098
 30
0.0
 11
2395.076642426126
 21
2156.95601805098
 31
0.0
1001
ACME_LAYERS
1000
1
  0
LINE
  5
3F70
330
1F
100
AcDbEntity
  8
P-0000
  6
Continuous
 62
     7
100
AcDbLine
 10
2387.405069550871
 20
2155.45601805098
 30
0.0
 11
2389.842672264098
 21
2155.45601805098
 31
0.0
1001
ACME_LAYERS
1000
1
  0
LINE
  5
3F71
330
1F
100
AcDbEntity
  8
P-0000
  6
Continuous
 62
     7
100
AcDbLine
 10
2515.326642426118
 20
2156.95601805098
 30
0.0
 11
2428.076642426125
 21
2156.95601805098
 31
0.0
1001
ACME_LAYERS
1000
1
  0
LINE
  5
3F72
330
1F
100
AcDbEntity
  8
P-0000
  6
Continuous
 62
     7
100
AcDbLine
 10
2387.405069550871
 20
2155.45601805098
 30
0.0
 11
2389.842672264098
 21
2155.45601805098
 31
0.0
1001
ACME_LAYERS
1000
1
  0
LINE
  5
3F73
330
1F
100
AcDbEntity
  8
P-0000
  6
Continuous
 62
     7
100
AcDbLine
 10
2389.842672264098
 20
2155.45601805098
 30
0.0
 11
2391.253000792958
 21
2155.45601805098
 31
0.0
1001
ACME_LAYERS
1000
1
  0
LINE
  5
3F74
330
1F
100
AcDbEntity
  8
P-0000
  6
Continuous
 62
     7
100
AcDbLine
 10
2389.842672264098
 20
2155.45601805098
 30
0.0
 11
2391.253000792958
 21
2155.45601805098
 31
0.0
1001
ACME_LAYERS
1000
1
  0
LINE
  5
3F75
330
1F
100
AcDbEntity
  8
P-0000
  6
Continuous
 62
     7
100
AcDbLine
 10
2515.326642426123
 20
2155.223967243412
 30
0.0
 11
2429.076642426126
 21
2155.223967243412
 31
0.0
1001
ACME_LAYERS
1000
1
  0
LINE
  5
3F76
330
1F
100
AcDbEntity
  8
P-0000
  6
Continuous
 62
     7
100
AcDbLine
 10
2428.076642426125
 20
2156.95601805098
 30
0.0
 11
2422.478566214774
 21
2153.723967243412
 31
0.0
1001
ACME_LAYERS
1000
1
  0
LINE
  5
3F77
330
1F
100
AcDbEntity
  8
P-0000
  6
Continuous
 62
     7
100
AcDbLine
 10
2403.076642426126
 20
2156.95601805098
 30
0.0
 11
2428.076642426125
 21
2156.95601805098
 31
0.0
1001
ACME_LAYERS
1000
1
  0
LINE
  5
3F78
330
1F
100
AcDbEntity
  8
P-0000
  6
Continuous
 62
     7
100
AcDbLine
 10
2429.076642426126
 20
2155.223967243412
 30
0.0
 11
2428.076642426125
 21
2156.95601805098
 31
0.0
1001
ACME_LAYERS
1000
1
  0
LINE
  5
3F79
330
1F
100
AcDbEntity
  8
P-0000
  6
Continuous
 62
     7
100
AcDbLine
 10
2428.076642426125
 20
2156.95601805098
 30
0.0
 11
2428.004676263626
 21
2156.95601805098
 31
0.0
1001
ACME_LAYERS
1000
1
  0
LINE
  5
3F7A
330
1F
100
AcDbEntity
  8
P-0000
  6
Continuous
 62
     7
100
AcDbLine
 10
2391.253000792958
 20
2155.45601805098
 30
0.0
 11
2394.076642426126
 21
2155.45601805098
 31
0.0
1001
ACME_LAYERS
1000
1
  0
LINE
  5
3F7C
330
1F
100
AcDbEntity
  8
P-0000
  6
Continuous
 62
     3
100
AcDbLine
 10
2376.138820252618
 20
2153.45601805098
 30
0.0
 11
2376.67471863748
 21
2153.45601805098
 31
0.0
1001
ACME_LAYERS
1000
1
  0
LINE
  5
3F7D
330
1F
100
AcDbEntity
  8
P-0000
  6
Continuous
 62
     3
100
AcDbLine
 10
2375.67471863748
 20
2153.723967243412
 30
0.0
 11
2376.138820252618
 21
2153.45601805098
 31
0.0
1001
ACME_LAYERS
1000
1
  0
LINE
  5
3F7E
330
1F
100
AcDbEntity
  8
P-0000
  6
Continuous
 62
     7
100
AcDbLine
 10
2413.576642426126
 20
2154.284445175727
 30
0.0
 11
2413.819283113246
 21
2154.041804488607
 31
0.0
1001
ACME_LAYERS
1000
1
  0
LINE
  5
3F7F
330
1F
100
AcDbEntity
  8
P-0000
  6
Continuous
 62
     7
100
AcDbLine
 10
2384.576642426126
 20
2154.284445175727
 30
0.0
 11
2384.334001739008
 21
2154.041804488607
 31
0.0
1001
ACME_LAYERS
1000
1
  0
LINE
  5
3F80
330
1F
100
AcDbEntity
  8
P-0000
  6
Continuous
 62
     7
100
AcDbLine
 10
2394.076642426126
 20
2155.45601805098
 30
0.0
 11
2394.076642426126
 21
2153.45601805098
 31
0.0
1001
ACME_LAYERS
1000
1
  0
LINE
  5
3F81
330
1F
100
AcDbEntity
  8
P-0000
  6
Continuous
 62
     7
100
AcDbLine
 10
2404.076642426126
 20
2155.45601805098
 30
0.0
 11
2404.076642426126
 21
2153.45601805098
 31
0.0
1001
ACME_LAYERS
1000
1
  0
LINE
  5
3F82
330
1F
100
AcDbEntity
  8
P-0000
  6
Continuous
 62
     7
100
AcDbLine
 10
2369.076642426128
 20
2155.223967243412
 30
0.0
 11
2370.076642426126
 21
2156.95601805098
 31
0.0
1001
ACME_LAYERS
1000
1
  0
LINE
  5
3F83
330
1F
100
AcDbEntity
  8
P-0000
  6
Continuous
 62
     7
100
AcDbLine
 10
2369.076642426128
 20
2155.223967243412
 30
0.0
 11
2374.67471863748
 21
2151.991916435842
 31
0.0
1001
ACME_LAYERS
1000
1
  0
LINE
  5
3F84
330
1F
100
AcDbEntity
  8
P-0000
  6
Continuous
 62
     7
100
AcDbLine
 10
2370.076642426126
 20
2156.95601805098
 30
0.0
 11
2375.67471863748
 21
2153.723967243412
 31
0.0
1001
ACME_LAYERS
1000
1
  0
LINE
  5
3F85
330
1F
100
AcDbEntity
  8
P-0000
  6
Continuous
 62
     7
100
AcDbLine
 10
2385.990855988499
 20
2152.870231613354
 30
0.0
 11
2385.748215301379
 21
2152.627590926235
 31
0.0
1001
ACME_LAYERS
1000
1
  0
LINE
  5
3F86
330
1F
100
AcDbEntity
  8
P-0000
  6
Continuous
 62
     7
100
AcDbLine
 10
2412.162428863752
 20
2152.870231613354
 30
0.0
 11
2412.405069550872
 21
2152.627590926235
 31
0.0
1001
ACME_LAYERS
1000
1
  0
LINE
  5
3F87
330
1F
100
AcDbEntity
  8
P-0000
  6
Continuous
 62
     7
100
AcDbLine
 10
2429.076642426126
 20
2155.223967243412
 30
0.0
 11
2423.478566214774
 21
2151.991916435842
 31
0.0
1001
ACME_LAYERS
1000
1
  0
LINE
  5
3F88
330
1F
100
AcDbEntity
  8
P-0000
  6
Continuous
 62
     7
100
AcDbLine
 10
2421.478566214773
 20
2151.45601805098
 30
0.0
 11
2515.326642426123
 21
2151.45601805098
 31
0.0
1001
ACME_LAYERS
1000
1
  0
LINE
  5
3F89
330
1F
100
AcDbEntity
  8
P-0000
  6
Continuous
 62
     7
100
AcDbLine
 10
2421.478566214773
 20
2153.45601805098
 30
0.0
 11
2415.233496675619
 21
2153.45601805098
 31
0.0
1001
ACME_LAYERS
1000
1
  0
LINE
  5
3F8A
330
1F
100
AcDbEntity
  8
P-0000
  6
Continuous
 62
     7
100
AcDbLine
 10
2421.478566214773
 20
2151.45601805098
 30
0.0
 11
2415.233496675619
 21
2151.45601805098
 31
0.0
1001
ACME_LAYERS
1000
1
  0
LINE
  5
3F8B
330
1F
100
AcDbEntity
  8
P-0000
  6
Continuous
 62
     7
100
AcDbLine
 10
2376.67471863748
 20
2151.45601805098
 30
0.0
 11
2382.919788176632
 21
2151.45601805098
 31
0.0
1001
ACME_LAYERS
1000
1
  0
LINE
  5
3F8C
330
1F
100
AcDbEntity
  8
P-0000
  6
Continuous
 62
     7
100
AcDbLine
 10
2394.076642426126
 20
2155.45601805098
 30
0.0
 11
2395.076642426126
 21
2155.45601805098
 31
0.0
1001
ACME_LAYERS
1000
1
  0
LINE
  5
3F8D
330
1F
100
AcDbEntity
  8
P-0000
  6
Continuous
 62
     7
100
AcDbLine
 10
2391.253000792958
 20
2155.45601805098
 30
0.0
 11
2394.076642426126
 21
2155.45601805098
 31
0.0
1001
ACME_LAYERS
1000
1
  0
LINE
  5
3F8E
330
1F
100
AcDbEntity
  8
P-0000
  6
Continuous
 62
     7
100
AcDbLine
 10
2404.076642426126
 20
2155.45601805098
 30
0.0
 11
2410.74821530138
 21
2155.45601805098
 31
0.0
1001
ACME_LAYERS
1000
1
  0
LINE
  5
3F8F
330
1F
100
AcDbEntity
  8
P-0000
  6
Continuous
 62
     7
100
AcDbLine
 10
2403.076642426126
 20
2153.45601805098
 30
0.0
 11
2410.74821530138
 21
2153.45601805098
 31
0.0
1001
ACME_LAYERS
1000
1
  0
LINE
  5
3F90
330
1F
100
AcDbEntity
  8
P-0000
  6
Continuous
 62
     7
100
AcDbLine
 10
2387.405069550872
 20
2153.45601805098
 30
0.0
 11
2395.020105982035
 21
2153.45601805098
 31
0.0
1001
ACME_LAYERS
1000
1
  0
LINE
  5
3F91
330
1F
100
AcDbEntity
  8
P-0000
  6
Continuous
 62
     7
100
AcDbLine
 10
2403.076642426126
 20
2155.45601805098
 30
0.0
 11
2404.076642426126
 21
2155.45601805098
 31
0.0
1001
ACME_LAYERS
1000
1
  0
LINE
  5
3F92
330
1F
100
AcDbEntity
  8
P-0000
  6
Continuous
 62
     7
100
AcDbLine
 10
2376.67471863748
 20
2153.45601805098
 30
0.0
 11
2382.919788176632
 21
2153.45601805098
 31
0.0
1001
ACME_LAYERS
1000
1
  0
LINE
  5
3F93
330
1F
100
AcDbEntity
  8
P-0000
  6
Continuous
 62
     7
100
AcDbLine
 10
2409.076642426126
 20
2155.45601805098
 30
0.0
 11
2404.076642426126
 21
2155.45601805098
 31
0.0
1001
ACME_LAYERS
1000
1
  0
LINE
  5
3F94
330
1F
100
AcDbEntity
  8
P-0000
  6
Continuous
 62
     7
100
AcDbLine
 10
2404.076642426126
 20
2155.45601805098
 30
0.0
 11
2403.076642426126
 21
2155.45601805098
 31
0.0
1001
ACME_LAYERS
1000
1
  0
LINE
  5
3F95
330
1F
100
AcDbEntity
  8
P-0000
  6
Continuous
 62
     7
100
AcDbLine
 10
2370.076642426126
 20
2156.95601805098
 30
0.0
 11
2381.576642426135
 21
2156.95601805098
 31
0.0
1001
ACME_LAYERS
1000
1
  0
LINE
  5
3F96
330
1F
100
AcDbEntity
  8
P-0000
  6
Continuous
 62
     7
100
AcDbLine
 10
2390.630944312706
 20
2155.45601805098
 30
0.0
 11
2395.076642426126
 21
2155.45601805098
 31
0.0
1001
ACME_LAYERS
1000
1
  0
LINE
  5
3F97
330
1F
100
AcDbEntity
  8
P-0000
  6
Continuous
 62
     7
100
AcDbLine
 10
2403.076642426126
 20
2155.45601805098
 30
0.0
 11
2404.076642426126
 21
2155.45601805098
 31
0.0
1001
ACME_LAYERS
1000
1
  0
LINE
  5
3FAD
330
1F
100
AcDbEntity
  8
P-0000
  6
Continuous
 62
     7
100
AcDbLine
 10
2515.335371044983
 20
2151.45601805098
 30
0.0
 11
2515.326642426123
 21
2151.45601805098
 31
0.0
1001
ACME_LAYERS
1000
1
  0
LINE
  5
3FAE
330
1F
100
AcDbEntity
  8
P-0000
  6
Continuous
 62
     7
100
AcDbLine
 10
2393.576642426127
 20
2155.456018050982
 30
0.0
 11
2388.576642426127
 21
2155.456018050982
 31
0.0
1001
ACME_LAYERS
1000
1
  0
LINE
  5
3FB0
330
1F
100
AcDbEntity
  8
P-0000
  6
Continuous
 62
     7
100
AcDbLine
 10
2404.076642426126
 20
2155.45601805098
 30
0.0
 11
2407.630944312705
 21
2155.45601805098
 31
0.0
1001
ACME_LAYERS
1000
1
  0
LINE
  5
3FB1
330
1F
100
AcDbEntity
  8
P-0000
  6
Continuous
 62
     7
100
AcDbLine
 10
2404.076642426126
 20
2155.45601805098
 30
0.0
 11
2403.576642426128
 21
2155.456018050982
 31
0.0
1001
ACME_LAYERS
1000
1
  0
LINE
  5
3FB3
330
1F
100
AcDbEntity
  8
P-0000
  6
Continuous
 62
     7
100
AcDbLine
 10
2395.076642426126
 20
2155.45601805098
 30
0.0
 11
2394.076642426126
 21
2155.45601805098
 31
0.0
1001
ACME_LAYERS
1000
1
  0
LINE
  5
3FB6
330
1F
100
AcDbEntity
  8
P-0000
  6
Continuous
 62
     7
100
AcDbLine
 10
2410.74821530138
 20
2155.45601805098
 30
0.0
 11
2404.076642426126
 21
2155.45601805098
 31
0.0
1001
ACME_LAYERS
1000
1
  0
ARC
  5
3FB7
330
1F
100
AcDbEntity
  8
P-0000
  6
Continuous
 62
     7
100
AcDbCircle
 10
2382.919788176632
 20
2155.45601805098
 30
0.0
 40
4.0
100
AcDbArc
 50
270.0
 51
315.0000000000092
1001
ACME_LAYERS
1000
1
  0
ARC
  5
3FB8
330
1F
100
AcDbEntity
  8
P-0000
  6
Continuous
 62
     7
100
AcDbCircle
 10
2410.74821530138
 20
2151.45601805098
 30
0.0
 40
4.000000000000613
100
AcDbArc
 50
45.0
 51
90.0
1001
ACME_LAYERS
1000
1
  0
ARC
  5
3FB9
330
1F
100
AcDbEntity
  8
P-0000
  6
Continuous
 62
     7
100
AcDbCircle
 10
2415.233496675619
 20
2155.45601805098
 30
0.0
 40
3.999999999999423
100
AcDbArc
 50
224.9999999999908
 51
270.0
1001
ACME_LAYERS
1000
1
  0
ARC
  5
3FBA
330
1F
100
AcDbEntity
  8
P-0000
  6
Continuous
 62
     7
100
AcDbCircle
 10
2421.478566214773
 20
2155.45601805098
 30
0.0
 40
4.0
100
AcDbArc
 50
270.0
 51
299.9999999999989
1001
ACME_LAYERS
1000
1
  0
ARC
  5
3FC5
330
1F
100
AcDbEntity
  8
P-0000
  6
Continuous
 62
     7
100
AcDbCircle
 10
2421.478566214773
 20
2155.45601805098
 30
0.0
 40
2.0
100
AcDbArc
 50
270.0
 51
300.0000000000288
1001
ACME_LAYERS
1000
1
  0
ARC
  5
3FC6
330
1F
100
AcDbEntity
  8
P-0000
  6
Continuous
 62
     7
100
AcDbCircle
 10
2415.233496675619
 20
2155.45601805098
 30
0.0
 40
2.000000000000397
100
AcDbArc
 50
225.0
 51
270.0
1001
ACME_LAYERS
1000
1
  0
ARC
  5
3FC7
330
1F
100
AcDbEntity
  8
P-0000
  6
Continuous
 62
     7
100
AcDbCircle
 10
2410.74821530138
 20
2151.45601805098
 30
0.0
 40
2.000000000000311
100
AcDbArc
 50
45.0
 51
90.0
1001
ACME_LAYERS
1000
1
  0
ARC
  5
3FC8
330
1F
100
AcDbEntity
  8
P-0000
  6
Continuous
 62
     7
100
AcDbCircle
 10
2387.405069550872
 20
2151.45601805098
 30
0.0
 40
2.0
100
AcDbArc
 50
90.0
 51
135.0
1001
ACME_LAYERS
1000
1
  0
ARC
  5
3FC9
330
1F
100
AcDbEntity
  8
P-0000
  6
Continuous
 62
     7
100
AcDbCircle
 10
2382.919788176632
 20
2155.45601805098
 30
0.0
 40
2.0
100
AcDbArc
 50
270.0
 51
315.0000000000184
1001
ACME_LAYERS
1000
1
  0
ARC
  5
3FCA
330
1F
100
AcDbEntity
  8
P-0000
  6
Continuous
 62
     7
100
AcDbCircle
 10
2376.67471863748
 20
2155.45601805098
 30
0.0
 40
1.999999999999425
100
AcDbArc
 50
239.9999999999713
 51
270.0
1001
ACME_LAYERS
1000
1
  0
ARC
  5
3FCB
330
1F
100
AcDbEntity
  8
P-0000
  6
Continuous
 62
     7
100
AcDbCircle
 10
2376.67471863748
 20
2155.45601805098
 30
0.0
 40
4.000000000000401
100
AcDbArc
 50
240.0000000000011
 51
270.0
1001
ACME_LAYERS
1000
1
  0
ARC
  5
3FCC
330
1F
100
AcDbEntity
  8
P-0000
  6
Continuous
 62
     7
100
AcDbCircle
 10
2387.405069550872
 20
2151.45601805098
 30
0.0
 40
4.0
100
AcDbArc
 50
90.00000000002605
 51
135.0
1001
ACME_LAYERS
1000
1
  0
HATCH
  5
3FCD
330
1F
100
AcDbEntity
  8
P-0000
  6
Continuous
 62
     3
100
AcDbHatch
 10
0.0
 20
0.0
 30
0.0
210
0.0
220
0.0
230
1.0
  2
_U
 70
     0
 71
     0
 91
        1
 92
        1
 93
       19
 72
     1
 10
2428.076642426125
 20
2156.95601805098
 11
2422.478566214774
 21
2153.723967243412
 72
     1
 10
2422.478566214774
 20
2153.723967243412
 11
2422.014464599636
 21
2153.45601805098
 72
     1
 10
2422.014464599636
 20
2153.45601805098
 11
2421.478566214774
 21
2153.45601805098
 72
     1
 10
2421.478566214773
 20
2153.45601805098
 11
2415.233496675619
 21
2153.45601805098
 72
     1
 10
2415.233496675619
 20
2153.45601805098
 11
2414.405069550873
 21
2153.45601805098
 72
     1
 10
2414.405069550873
 20
2153.45601805098
 11
2413.819283113246
 21
2154.041804488606
 72
     1
 10
2413.819283113246
 20
2154.041804488607
 11
2413.576642426126
 21
2154.284445175727
 72
     2
 10
2410.74821530138
 20
2151.45601805098
 40
4.000000000000613
 50
44.99999999999911
 51
89.99999999999998
 73
     1
 72
     1
 10
2410.74821530138
 20
2155.45601805098
 11
2404.076642426126
 21
2155.45601805098
 72
     1
 10
2404.076642426126
 20
2155.45601805098
 11
2404.076642426126
 21
2153.456018050981
 72
     1
 10
2404.076642426126
 20
2153.45601805098
 11
2410.748215301379
 21
2153.45601805098
 72
     1
 10
2410.74821530138
 20
2153.45601805098
 11
2411.576642426126
 21
2153.45601805098
 72
     1
 10
2411.576642426126
 20
2153.45601805098
 11
2412.162428863752
 21
2152.870231613354
 72
     1
 10
2412.162428863752
 20
2152.870231613354
 11
2412.405069550872
 21
2152.627590926235
 72
     2
 10
2415.233496675619
 20
2155.45601805098
 40
3.999999999999423
 50
224.9999999999822
 51
270.0
 73
     1
 72
     1
 10
2415.233496675619
 20
2151.45601805098
 11
2421.478566214774
 21
2151.45601805098
 72
     2
 10
2421.478566214773
 20
2155.45601805098
 40
4.0
 50
270.0
 51
299.9999999999967
 73
     1
 72
     1
 10
2423.478566214774
 20
2151.991916435842
 11
2429.076642426126
 21
2155.223967243412
 72
     1
 10
2429.076642426126
 20
2155.223967243412
 11
2428.076642426126
 21
2156.95601805098
 97
        0
 75
     0
 76
     0
 52
44.99999999999999
 41
3.0
 77
     0
 78
     1
 53
45.0
 43
2456.043514411231
 44
2292.081983545355
 45
-2.121320343559641
 46
2.121320343559641
 79
     0
 98
        1
 10
2456.043514411231
 20
2292.081983545355
1001
ACME_LAYERS
1000
1
  0
HATCH
  5
3FCE
330
1F
100
AcDbEntity
  8
P-0000
  6
Continuous
 62
     3
100
AcDbHatch
 10
0.0
 20
0.0
 30
0.0
210
0.0
220
0.0
230
1.0
  2
_U
 70
     0
 71
     0
 91
        1
 92
        1
 93
       19
 72
     2
 10
2382.919788176632
 20
2155.45601805098
 40
2.0
 50
270.0
 51
315.0000000000351
 73
     1
 72
     1
 10
2384.334001739008
 20
2154.041804488607
 11
2384.576642426126
 21
2154.284445175727
 72
     2
 10
2387.405069550872
 20
2151.45601805098
 40
4.0
 50
224.9999999999992
 51
269.9999999999739
 73
     0
 72
     1
 10
2387.405069550871
 20
2155.45601805098
 11
2389.842672264098
 21
2155.45601805098
 72
     1
 10
2389.842672264098
 20
2155.45601805098
 11
2391.253000792958
 21
2155.45601805098
 72
     1
 10
2391.253000792958
 20
2155.45601805098
 11
2394.076642426126
 21
2155.45601805098
 72
     1
 10
2394.076642426126
 20
2155.45601805098
 11
2394.076642426126
 21
2153.456018050981
 72
     1
 10
2394.076642426126
 20
2153.45601805098
 11
2387.405069550872
 21
2153.45601805098
 72
     1
 10
2387.405069550872
 20
2153.45601805098
 11
2386.576642426126
 21
2153.45601805098
 72
     1
 10
2386.576642426126
 20
2153.45601805098
 11
2385.990855988499
 21
2152.870231613354
 72
     1
 10
2385.990855988499
 20
2152.870231613354
 11
2385.748215301379
 21
2152.627590926235
 72
     2
 10
2382.919788176632
 20
2155.45601805098
 40
4.0
 50
44.99999999998212
 51
90.00000000000001
 73
     0
 72
     1
 10
2382.919788176632
 20
2151.45601805098
 11
2376.67471863748
 21
2151.45601805098
 72
     2
 10
2376.67471863748
 20
2155.45601805098
 40
4.000000000000401
 50
90.00000000000001
 51
119.9999999999967
 73
     0
 72
     1
 10
2374.67471863748
 20
2151.991916435842
 11
2369.076642426128
 21
2155.223967243412
 72
     1
 10
2369.076642426128
 20
2155.223967243412
 11
2370.076642426126
 21
2156.95601805098
 72
     1
 10
2370.076642426126
 20
2156.95601805098
 11
2375.67471863748
 21
2153.723967243412
 72
     2
 10
2376.67471863748
 20
2155.45601805098
 40
1.999999999999425
 50
239.9999999999905
 51
270.0
 73
     1
 72
     1
 10
2376.67471863748
 20
2153.45601805098
 11
2382.919788176632
 21
2153.45601805098
 97
        0
 75
     0
 76
     0
 52
44.99999999999999
 41
5.0
 77
     0
 78
     1
 53
45.0
 43
2456.043514411231
 44
2292.081983545355
 45
-3.535533905932736
 46
3.535533905932738
 79
     0
 98
        1
 10
2456.043514411231
 20
2292.081983545355
1001
ACME_LAYERS
1000
1
  0
LINE
  5
3FD8
330
1F
100
AcDbEntity
  8
P-0000
  6
Continuous
 62
     7
100
AcDbLine
 10
2636.594099663839
 20
2156.95601805098
 30
0.0
 11
2626.594099663839
 21
2156.95601805098
 31
0.0
1001
ACME_LAYERS
1000
1
  0
LINE
  5
3FDB
330
1F
100
AcDbEntity
  8
P-0000
  6
Continuous
 62
     7
100
AcDbLine
 10
2421.44378479167
 20
2151.45601805098
 30
0.0
 11
2415.198715252515
 21
2151.45601805098
 31
0.0
1001
ACME_LAYERS
1000
1
  0
LINE
  5
3FDC
330
1F
100
AcDbEntity
  8
P-0000
  6
Continuous
 62
     7
100
AcDbLine
 10
2376.67471863748
 20
2151.456018050981
 30
0.0
 11
2382.919788176634
 21
2151.45601805098
 31
0.0
1001
ACME_LAYERS
1000
1
  0
LINE
  5
3FDD
330
1F
100
AcDbEntity
  8
P-0000
  6
Continuous
 62
     7
100
AcDbLine
 10
2421.478566214775
 20
2151.45601805098
 30
0.0
 11
2415.233496675621
 21
2151.45601805098
 31
0.0
1001
ACME_LAYERS
1000
1
  0
LINE
  5
3FE5
330
1F
100
AcDbEntity
  8
0
100
AcDbLine
 10
2395.020105982035
 20
2155.45601805098
 30
0.0
 11
2395.020105982035
 21
2142.250098146036
 31
0.0
  0
LINE
  5
3FE6
330
1F
100
AcDbEntity
  8
0
100
AcDbLine
 10
2403.020105982035
 20
2155.45601805098
 30
0.0
 11
2403.020105982035
 21
2142.250098146036
 31
0.0
  0
LINE
  5
3FF1
330
1F
100
AcDbEntity
  8
P-0000
  6
Continuous
 62
     7
100
AcDbLine
 10
2599.657084317224
 20
2146.250098146036
 30
0.0
 11
2562.335371044985
 21
2146.250098146036
 31
0.0
1001
ACME_LAYERS
1000
1
  0
HATCH
  5
3FF2
330
1F
100
AcDbEntity
  8
P-0000
  6
Continuous
 62
     3
100
AcDbHatch
 10
0.0
 20
0.0
 30
0.0
210
0.0
220
0.0
230
1.0
  2
_U
 70
     0
 71
     0
 91
        1
 92
        1
 93
        9
 72
     1
 10
2680.37888108695
 20
2140.250098146037
 11
2681.37888108695
 21
2141.982148953606
 72
     1
 10
2681.37888108695
 20
2141.982148953606
 11
2677.013422847041
 21
2144.502547443551
 72
     2
 10
2675.013422847041
 20
2141.038445828415
 40
4.0
 50
419.9999999999893
 51
450.0
 73
     1
 72
     2
 10
2675.013422847041
 20
2141.038445828415
 40
4.000000000000613
 50
450.0
 51
495.0000000000009
 73
     1
 72
     1
 10
2672.184995722294
 20
2143.866872953162
 11
2671.482434477542
 21
2143.16431170841
 72
     1
 10
2671.482434477542
 20
2143.16431170841
 11
2672.896648039917
 21
2141.750098146036
 72
     1
 10
2672.896648039915
 20
2141.750098146036
 11
2673.599209284667
 21
2142.452659390789
 72
     2
 10
2675.013422847041
 20
2141.038445828415
 40
2.000000000000115
 50
-135.000000000004
 51
-59.99999999999011
 73
     0
 72
     1
 10
2676.013422847041
 20
2142.770496635984
 11
2680.378881086949
 21
2140.250098146037
 97
        0
 75
     0
 76
     0
 52
44.99999999999999
 41
2.0
 77
     0
 78
     1
 53
135.0
 43
2363.574929543718
 44
2006.359233112473
 45
1.414213562373094
 46
1.414213562373094
 79
     0
 98
        1
 10
2363.574929543718
 20
2006.359233112473
1001
ACME_LAYERS
1000
1
  0
LINE
  5
3FF3
330
1F
100
AcDbEntity
  8
P-0000
  6
Continuous
 62
     3
100
AcDbLine
 10
2681.37888108695
 20
2141.982148953606
 30
0.0
 11
2677.013422847041
 21
2144.502547443551
 31
0.0
1001
ACME_LAYERS
1000
1
  0
LINE
  5
3FF4
330
1F
100
AcDbEntity
  8
P-0000
  6
Continuous
 62
     7
100
AcDbLine
 10
2680.37888108695
 20
2140.250098146037
 30
0.0
 11
2676.013422847041
 21
2142.770496635984
 31
0.0
1001
ACME_LAYERS
1000
1
  0
LINE
  5
3FF5
330
1F
100
AcDbEntity
  8
P-0000
  6
Continuous
 62
     7
100
AcDbLine
 10
2680.37888108695
 20
2140.250098146037
 30
0.0
 11
2676.013422847041
 21
2142.770496635984
 31
0.0
1001
ACME_LAYERS
1000
1
  0
LINE
  5
3FF6
330
1F
100
AcDbEntity
  8
P-0000
  6
Continuous
 62
     7
100
AcDbLine
 10
2680.37888108695
 20
2140.250098146037
 30
0.0
 11
2655.807084317226
 21
2140.250098146037
 31
0.0
1001
ACME_LAYERS
1000
1
  0
LINE
  5
3FF7
330
1F
100
AcDbEntity
  8
P-0000
  6
Continuous
 62
     7
100
AcDbLine
 10
2680.37888108695
 20
2140.250098146037
 30
0.0
 11
2681.37888108695
 21
2141.982148953606
 31
0.0
1001
ACME_LAYERS
1000
1
  0
LINE
  5
3FF8
330
1F
100
AcDbEntity
  8
P-0000
  6
Continuous
 62
     7
100
AcDbLine
 10
2655.807084317226
 20
2140.250098146037
 30
0.0
 11
2617.835371044972
 21
2140.250098146033
 31
0.0
1001
ACME_LAYERS
1000
1
  0
LINE
  5
3FFC
330
1F
100
AcDbEntity
  8
P-0000
  6
Continuous
 62
     7
100
AcDbLine
 10
2635.585371044991
 20
2142.250098146036
 30
0.0
 11
2627.628881086951
 21
2142.250098146036
 31
0.0
1001
ACME_LAYERS
1000
1
  0
ARC
  5
4002
330
1F
100
AcDbEntity
  8
P-0000
  6
Continuous
 62
     7
100
AcDbCircle
 10
2655.807084317226
 20
2144.250098146036
 30
0.0
 40
1.999999999999253
100
AcDbArc
 50
270.0
 51
300.0000000000288
1001
ACME_LAYERS
1000
1
  0
ARC
  5
4003
330
1F
100
AcDbEntity
  8
P-0000
  6
Continuous
 62
     7
100
AcDbCircle
 10
2655.807084317226
 20
2144.250098146036
 30
0.0
 40
4.000000000000131
100
AcDbArc
 50
270.0
 51
299.9999999999989
1001
ACME_LAYERS
1000
1
  0
LINE
  5
4004
330
1F
100
AcDbEntity
  8
P-0000
  6
Continuous
 62
     7
100
AcDbLine
 10
2655.528881086949
 20
2142.250098146036
 30
0.0
 11
2661.296830279381
 21
2145.580225164958
 31
0.0
1001
ACME_LAYERS
1000
1
  0
LINE
  5
4005
330
1F
100
AcDbEntity
  8
P-0000
  6
Continuous
 62
     7
100
AcDbLine
 10
2661.244339326858
 20
2142.770496635984
 30
0.0
 11
2657.807084317226
 21
2140.785996530898
 31
0.0
1001
ACME_LAYERS
1000
1
  0
LINE
  5
4006
330
1F
100
AcDbEntity
  8
P-0000
  6
Continuous
 62
     7
100
AcDbLine
 10
2671.482434477542
 20
2143.16431170841
 30
0.0
 11
2665.775327696357
 21
2143.16431170841
 31
0.0
1001
ACME_LAYERS
1000
1
  0
LINE
  5
4007
330
1F
100
AcDbEntity
  8
P-0000
  6
Continuous
 62
     7
100
AcDbLine
 10
2672.896648039915
 20
2141.750098146036
 30
0.0
 11
2664.361114133984
 21
2141.750098146036
 31
0.0
1001
ACME_LAYERS
1000
1
  0
LINE
  5
4008
330
1F
100
AcDbEntity
  8
P-0000
  6
Continuous
 62
     7
100
AcDbLine
 10
2672.646830279379
 20
2146.250098146036
 30
0.0
 11
2663.796830279381
 21
2146.250098146036
 31
0.0
1001
ACME_LAYERS
1000
1
  0
LINE
  5
4009
330
1F
100
AcDbEntity
  8
P-0000
  6
Continuous
 62
     7
100
AcDbLine
 10
2675.013422847041
 20
2145.038445828416
 30
0.0
 11
2662.244339326858
 21
2145.038445828416
 31
0.0
1001
ACME_LAYERS
1000
1
  0
ARC
  5
400A
330
1F
100
AcDbEntity
  8
P-0000
  6
Continuous
 62
     7
100
AcDbCircle
 10
2672.646830279381
 20
2141.250098146036
 30
0.0
 40
5.0
100
AcDbArc
 50
60.00000000000109
 51
90.00000000002605
1001
ACME_LAYERS
1000
1
  0
ARC
  5
400B
330
1F
100
AcDbEntity
  8
P-0000
  6
Continuous
 62
     7
100
AcDbCircle
 10
2675.013422847041
 20
2141.038445828415
 30
0.0
 40
4.000000000000613
100
AcDbArc
 50
90.0
 51
135.0
1001
ACME_LAYERS
1000
1
  0
LINE
  5
400C
330
1F
100
AcDbEntity
  8
P-0000
  6
Continuous
 62
     7
100
AcDbLine
 10
2673.599209284668
 20
2142.452659390789
 30
0.0
 11
2672.896648039915
 21
2141.750098146036
 31
0.0
1001
ACME_LAYERS
1000
1
  0
ARC
  5
400D
330
1F
100
AcDbEntity
  8
P-0000
  6
Continuous
 62
     7
100
AcDbCircle
 10
2675.013422847041
 20
2141.038445828415
 30
0.0
 40
4.0
100
AcDbArc
 50
59.99999999997119
 51
90.0
1001
ACME_LAYERS
1000
1
  0
LINE
  5
400E
330
1F
100
AcDbEntity
  8
P-0000
  6
Continuous
 62
     7
100
AcDbLine
 10
2677.013422847041
 20
2144.502547443551
 30
0.0
 11
2675.146830279381
 21
2145.580225164958
 31
0.0
1001
ACME_LAYERS
1000
1
  0
ARC
  5
400F
330
1F
100
AcDbEntity
  8
P-0000
  6
Continuous
 62
     7
100
AcDbCircle
 10
2675.013422847041
 20
2141.038445828415
 30
0.0
 40
2.000000000000115
100
AcDbArc
 50
59.99999999997119
 51
135.0000000000092
1001
ACME_LAYERS
1000
1
  0
LINE
  5
4010
330
1F
100
AcDbEntity
  8
P-0000
  6
Continuous
 62
     7
100
AcDbLine
 10
2671.482434477542
 20
2143.16431170841
 30
0.0
 11
2672.896648039915
 21
2141.750098146036
 31
0.0
1001
ACME_LAYERS
1000
1
  0
LINE
  5
4011
330
1F
100
AcDbEntity
  8
P-0000
  6
Continuous
 62
     7
100
AcDbLine
 10
2672.184995722294
 20
2143.866872953162
 30
0.0
 11
2671.482434477542
 21
2143.16431170841
 31
0.0
1001
ACME_LAYERS
1000
1
  0
ARC
  5
4012
330
1F
100
AcDbEntity
  8
P-0000
  6
Continuous
 62
     7
100
AcDbCircle
 10
2662.244339326858
 20
2141.038445828415
 30
0.0
 40
1.999999999999401
100
AcDbArc
 50
44.99999999999078
 51
120.0000000000288
1001
ACME_LAYERS
1000
1
  0
ARC
  5
4013
330
1F
100
AcDbEntity
  8
P-0000
  6
Continuous
 62
     7
100
AcDbCircle
 10
2663.796830279381
 20
2141.250098146036
 30
0.0
 40
5.000000000000164
100
AcDbArc
 50
90.0
 51
119.9999999999989
1001
ACME_LAYERS
1000
1
  0
ARC
  5
4014
330
1F
100
AcDbEntity
  8
P-0000
  6
Continuous
 62
     7
100
AcDbCircle
 10
2662.244339326858
 20
2141.038445828415
 30
0.0
 40
1.999999999999401
100
AcDbArc
 50
44.99999999999078
 51
120.0000000000288
1001
ACME_LAYERS
1000
1
  0
ARC
  5
4015
330
1F
100
AcDbEntity
  8
P-0000
  6
Continuous
 62
     7
100
AcDbCircle
 10
2662.244339326858
 20
2141.038445828415
 30
0.0
 40
3.999999999998728
100
AcDbArc
 50
90.0
 51
120.0000000000288
1001
ACME_LAYERS
1000
1
  0
ARC
  5
4016
330
1F
100
AcDbEntity
  8
P-0000
  6
Continuous
 62
     7
100
AcDbCircle
 10
2662.244339326858
 20
2141.038445828415
 30
0.0
 40
4.0
100
AcDbArc
 50
45.0
 51
90.0
1001
ACME_LAYERS
1000
1
  0
LINE
  5
4017
330
1F
100
AcDbEntity
  8
P-0000
  6
Continuous
 62
     7
100
AcDbLine
 10
2665.775327696357
 20
2143.16431170841
 30
0.0
 11
2665.072766451605
 21
2143.866872953162
 31
0.0
1001
ACME_LAYERS
1000
1
  0
LINE
  5
4018
330
1F
100
AcDbEntity
  8
P-0000
  6
Continuous
 62
     7
100
AcDbLine
 10
2664.361114133984
 20
2141.750098146036
 30
0.0
 11
2663.658552889231
 21
2142.452659390789
 31
0.0
1001
ACME_LAYERS
1000
1
  0
LINE
  5
4019
330
1F
100
AcDbEntity
  8
P-0000
  6
Continuous
 62
     7
100
AcDbLine
 10
2664.361114133984
 20
2141.750098146036
 30
0.0
 11
2665.775327696357
 21
2143.16431170841
 31
0.0
1001
ACME_LAYERS
1000
1
  0
LINE
  5
401A
330
1F
100
AcDbEntity
  8
P-0000
  6
Continuous
 62
     7
100
AcDbLine
 10
2660.244339326858
 20
2144.502547443551
 30
0.0
 11
2656.807084317226
 21
2142.518047338468
 31
0.0
1001
ACME_LAYERS
1000
1
  0
LINE
  5
401B
330
1F
100
AcDbEntity
  8
P-0000
  6
Continuous
 62
     7
100
AcDbLine
 10
2655.528881086949
 20
2142.250098146036
 30
0.0
 11
2635.585371044991
 21
2142.250098146036
 31
0.0
1001
ACME_LAYERS
1000
1
  0
LINE
  5
401C
330
1F
100
AcDbEntity
  8
P-0000
  6
Continuous
 62
     7
100
AcDbLine
 10
2655.528881086949
 20
2142.250098146036
 30
0.0
 11
2655.807084317226
 21
2142.250098146036
 31
0.0
1001
ACME_LAYERS
1000
1
  0
LINE
  5
401D
330
1F
100
AcDbEntity
  8
P-0000
  6
Continuous
 62
     3
100
AcDbLine
 10
2634.850636107931
 20
2156.95601805098
 30
0.0
 11
2634.850636107931
 21
2142.250098146036
 31
0.0
1001
ACME_LAYERS
1000
1
  0
LINE
  5
401E
330
1F
100
AcDbEntity
  8
P-0000
  6
Continuous
 62
     7
100
AcDbLine
 10
2635.650636107931
 20
2155.45601805098
 30
0.0
 11
2635.650636107931
 21
2151.45601805098
 31
0.0
1001
ACME_LAYERS
1000
1
  0
LINE
  5
4020
330
1F
100
AcDbEntity
  8
P-0000
  6
Continuous
 62
     3
100
AcDbLine
 10
2628.45063610793
 20
2156.95601805098
 30
0.0
 11
2628.45063610793
 21
2142.250098146036
 31
0.0
1001
ACME_LAYERS
1000
1
  0
LINE
  5
4028
330
1F
100
AcDbEntity
  8
P-0000
  6
Continuous
 62
     7
100
AcDbLine
 10
2627.628881086951
 20
2142.250098146036
 30
0.0
 11
2608.192982702088
 21
2142.250098146036
 31
0.0
1001
ACME_LAYERS
1000
1
  0
LINE
  5
4029
330
1F
100
AcDbEntity
  8
P-0000
  6
Continuous
 62
     7
100
AcDbLine
 10
2617.074167984896
 20
2140.250098146037
 30
0.0
 11
2608.192982702088
 21
2140.250098146037
 31
0.0
1001
ACME_LAYERS
1000
1
  0
LINE
  5
402A
330
1F
100
AcDbEntity
  8
P-0000
  6
Continuous
 62
     7
100
AcDbLine
 10
2627.650636107931
 20
2155.45601805098
 30
0.0
 11
2627.650636107931
 21
2151.45601805098
 31
0.0
1001
ACME_LAYERS
1000
1
  0
LINE
  5
402B
330
1F
100
AcDbEntity
  8
P-0000
  6
Continuous
 62
     7
100
AcDbLine
 10
2617.835371044972
 20
2140.250098146033
 30
0.0
 11
2617.074167984896
 21
2140.250098146037
 31
0.0
1001
ACME_LAYERS
1000
1
  0
LINE
  5
402C
330
1F
100
AcDbEntity
  8
P-0000
  6
Continuous
 62
     7
100
AcDbLine
 10
2606.192982702089
 20
2140.785996530898
 30
0.0
 11
2600.657084317225
 21
2143.982148953607
 31
0.0
1001
ACME_LAYERS
1000
1
  0
LINE
  5
402D
330
1F
100
AcDbEntity
  8
P-0000
  6
Continuous
 62
     7
100
AcDbLine
 10
2599.657084317224
 20
2144.250098146036
 30
0.0
 11
2597.773162514468
 21
2144.250098146036
 31
0.0
1001
ACME_LAYERS
1000
1
  0
LINE
  5
402E
330
1F
100
AcDbEntity
  8
P-0000
  6
Continuous
 62
     7
100
AcDbLine
 10
2607.192982702088
 20
2142.518047338467
 30
0.0
 11
2601.657084317225
 21
2145.714199761175
 31
0.0
1001
ACME_LAYERS
1000
1
  0
ARC
  5
402F
330
1F
100
AcDbEntity
  8
P-0000
  6
Continuous
 62
     7
100
AcDbCircle
 10
2608.192982702088
 20
2144.250098146036
 30
0.0
 40
2.0
100
AcDbArc
 50
239.9999999999713
 51
270.0
1001
ACME_LAYERS
1000
1
  0
ARC
  5
4030
330
1F
100
AcDbEntity
  8
P-0000
  6
Continuous
 62
     7
100
AcDbCircle
 10
2599.657084317224
 20
2142.250098146036
 30
0.0
 40
4.0
100
AcDbArc
 50
60.00000000000109
 51
90.0
1001
ACME_LAYERS
1000
1
  0
ARC
  5
4031
330
1F
100
AcDbEntity
  8
P-0000
  6
Continuous
 62
     7
100
AcDbCircle
 10
2599.657084317224
 20
2142.250098146036
 30
0.0
 40
2.0
100
AcDbArc
 50
60.00000000002287
 51
90.0
1001
ACME_LAYERS
1000
1
  0
ARC
  5
4032
330
1F
100
AcDbEntity
  8
P-0000
  6
Continuous
 62
     7
100
AcDbCircle
 10
2608.192982702088
 20
2144.250098146036
 30
0.0
 40
4.0
100
AcDbArc
 50
240.0000000000011
 51
270.0
1001
ACME_LAYERS
1000
1
  0
LINE
  5
4033
330
1F
100
AcDbEntity
  8
P-0000
  6
Continuous
 62
     7
100
AcDbLine
 10
2554.705689231449
 20
2146.250098146036
 30
0.0
 11
2515.335371044983
 21
2146.250098146036
 31
0.0
1001
ACME_LAYERS
1000
1
  0
LINE
  5
4034
330
1F
100
AcDbEntity
  8
P-0000
  6
Continuous
 62
     7
100
AcDbLine
 10
2562.335371044985
 20
2146.250098146036
 30
0.0
 11
2515.335371044983
 21
2146.250098146036
 31
0.0
1001
ACME_LAYERS
1000
1
  0
LINE
  5
4036
330
1F
100
AcDbEntity
  8
P-0000
  6
Continuous
 62
     7
100
AcDbLine
 10
2581.839642361304
 20
2146.469630220167
 30
0.0
 11
2581.835371044992
 21
2146.453466467576
 31
0.0
1001
ACME_LAYERS
1000
1
  0
LINE
  5
4037
330
1F
100
AcDbEntity
  8
P-0000
  6
STRICHPUNKT
 62
     3
100
AcDbLine
 10
2515.335371044985
 20
2118.39197537709
 30
0.0
 11
2515.335371044985
 21
2117.936162018257
 31
0.0
1001
ACME_LAYERS
1000
1
  0
LINE
  5
403B
330
1F
100
AcDbEntity
  8
P-0000
  6
Continuous
 62
     7
100
AcDbLine
 10
2627.59409966384
 20
2156.95601805098
 30
0.0
 11
2627.59409966384
 21
2151.45601805098
 31
0.0
1001
ACME_LAYERS
1000
1
  0
LINE
  5
403D
330
1F
100
AcDbEntity
  8
P-0000
  6
Continuous
 62
     7
100
AcDbLine
 10
2649.094099663831
 20
2156.95601805098
 30
0.0
 11
2635.59409966384
 21
2156.95601805098
 31
0.0
1001
ACME_LAYERS
1000
1
  0
LINE
  5
403E
330
1F
100
AcDbEntity
  8
P-0000
  6
Continuous
 62
     7
100
AcDbLine
 10
2643.265672539095
 20
2155.45601805098
 30
0.0
 11
2640.828069825868
 21
2155.45601805098
 31
0.0
1001
ACME_LAYERS
1000
1
  0
LINE
  5
403F
330
1F
100
AcDbEntity
  8
P-0000
  6
Continuous
 62
     7
100
AcDbLine
 10
2515.344099663848
 20
2156.95601805098
 30
0.0
 11
2602.59409966384
 21
2156.95601805098
 31
0.0
1001
ACME_LAYERS
1000
1
  0
LINE
  5
4040
330
1F
100
AcDbEntity
  8
P-0000
  6
Continuous
 62
     7
100
AcDbLine
 10
2643.265672539095
 20
2155.45601805098
 30
0.0
 11
2640.828069825868
 21
2155.45601805098
 31
0.0
1001
ACME_LAYERS
1000
1
  0
LINE
  5
4041
330
1F
100
AcDbEntity
  8
P-0000
  6
Continuous
 62
     7
100
AcDbLine
 10
2640.828069825868
 20
2155.45601805098
 30
0.0
 11
2639.417741297008
 21
2155.45601805098
 31
0.0
1001
ACME_LAYERS
1000
1
  0
LINE
  5
4042
330
1F
100
AcDbEntity
  8
P-0000
  6
Continuous
 62
     7
100
AcDbLine
 10
2640.828069825868
 20
2155.45601805098
 30
0.0
 11
2639.417741297008
 21
2155.45601805098
 31
0.0
1001
ACME_LAYERS
1000
1
  0
LINE
  5
4043
330
1F
100
AcDbEntity
  8
P-0000
  6
Continuous
 62
     7
100
AcDbLine
 10
2515.344099663844
 20
2155.223967243412
 30
0.0
 11
2601.59409966384
 21
2155.223967243412
 31
0.0
1001
ACME_LAYERS
1000
1
  0
LINE
  5
4044
330
1F
100
AcDbEntity
  8
P-0000
  6
Continuous
 62
     7
100
AcDbLine
 10
2602.59409966384
 20
2156.95601805098
 30
0.0
 11
2608.192175875192
 21
2153.723967243412
 31
0.0
1001
ACME_LAYERS
1000
1
  0
LINE
  5
4045
330
1F
100
AcDbEntity
  8
P-0000
  6
Continuous
 62
     7
100
AcDbLine
 10
2627.59409966384
 20
2156.95601805098
 30
0.0
 11
2602.59409966384
 21
2156.95601805098
 31
0.0
1001
ACME_LAYERS
1000
1
  0
LINE
  5
4046
330
1F
100
AcDbEntity
  8
P-0000
  6
Continuous
 62
     7
100
AcDbLine
 10
2601.59409966384
 20
2155.223967243412
 30
0.0
 11
2602.59409966384
 21
2156.95601805098
 31
0.0
1001
ACME_LAYERS
1000
1
  0
LINE
  5
4047
330
1F
100
AcDbEntity
  8
P-0000
  6
Continuous
 62
     7
100
AcDbLine
 10
2602.59409966384
 20
2156.95601805098
 30
0.0
 11
2602.666065826341
 21
2156.95601805098
 31
0.0
1001
ACME_LAYERS
1000
1
  0
LINE
  5
4048
330
1F
100
AcDbEntity
  8
P-0000
  6
Continuous
 62
     7
100
AcDbLine
 10
2639.417741297008
 20
2155.45601805098
 30
0.0
 11
2636.59409966384
 21
2155.45601805098
 31
0.0
1001
ACME_LAYERS
1000
1
  0
LINE
  5
404A
330
1F
100
AcDbEntity
  8
P-0000
  6
Continuous
 62
     3
100
AcDbLine
 10
2654.531921837348
 20
2153.45601805098
 30
0.0
 11
2653.996023452486
 21
2153.45601805098
 31
0.0
1001
ACME_LAYERS
1000
1
  0
LINE
  5
404B
330
1F
100
AcDbEntity
  8
P-0000
  6
Continuous
 62
     3
100
AcDbLine
 10
2654.996023452486
 20
2153.723967243412
 30
0.0
 11
2654.531921837348
 21
2153.45601805098
 31
0.0
1001
ACME_LAYERS
1000
1
  0
LINE
  5
404C
330
1F
100
AcDbEntity
  8
P-0000
  6
Continuous
 62
     7
100
AcDbLine
 10
2617.09409966384
 20
2154.284445175727
 30
0.0
 11
2616.85145897672
 21
2154.041804488607
 31
0.0
1001
ACME_LAYERS
1000
1
  0
LINE
  5
404D
330
1F
100
AcDbEntity
  8
P-0000
  6
Continuous
 62
     7
100
AcDbLine
 10
2646.09409966384
 20
2154.284445175727
 30
0.0
 11
2646.336740350959
 21
2154.041804488607
 31
0.0
1001
ACME_LAYERS
1000
1
  0
LINE
  5
404E
330
1F
100
AcDbEntity
  8
P-0000
  6
Continuous
 62
     7
100
AcDbLine
 10
2636.59409966384
 20
2155.45601805098
 30
0.0
 11
2636.59409966384
 21
2153.45601805098
 31
0.0
1001
ACME_LAYERS
1000
1
  0
LINE
  5
404F
330
1F
100
AcDbEntity
  8
P-0000
  6
Continuous
 62
     7
100
AcDbLine
 10
2626.594099663841
 20
2155.45601805098
 30
0.0
 11
2626.594099663841
 21
2153.45601805098
 31
0.0
1001
ACME_LAYERS
1000
1
  0
LINE
  5
4050
330
1F
100
AcDbEntity
  8
P-0000
  6
Continuous
 62
     7
100
AcDbLine
 10
2661.594099663838
 20
2155.223967243412
 30
0.0
 11
2660.594099663839
 21
2156.95601805098
 31
0.0
1001
ACME_LAYERS
1000
1
  0
LINE
  5
4051
330
1F
100
AcDbEntity
  8
P-0000
  6
Continuous
 62
     7
100
AcDbLine
 10
2661.594099663838
 20
2155.223967243412
 30
0.0
 11
2655.996023452486
 21
2151.991916435842
 31
0.0
1001
ACME_LAYERS
1000
1
  0
LINE
  5
4052
330
1F
100
AcDbEntity
  8
P-0000
  6
Continuous
 62
     7
100
AcDbLine
 10
2660.594099663839
 20
2156.95601805098
 30
0.0
 11
2654.996023452486
 21
2153.723967243412
 31
0.0
1001
ACME_LAYERS
1000
1
  0
LINE
  5
4053
330
1F
100
AcDbEntity
  8
P-0000
  6
Continuous
 62
     7
100
AcDbLine
 10
2644.679886101467
 20
2152.870231613354
 30
0.0
 11
2644.922526788587
 21
2152.627590926235
 31
0.0
1001
ACME_LAYERS
1000
1
  0
LINE
  5
4054
330
1F
100
AcDbEntity
  8
P-0000
  6
Continuous
 62
     7
100
AcDbLine
 10
2618.508313226214
 20
2152.870231613354
 30
0.0
 11
2618.265672539094
 21
2152.627590926235
 31
0.0
1001
ACME_LAYERS
1000
1
  0
LINE
  5
4055
330
1F
100
AcDbEntity
  8
P-0000
  6
Continuous
 62
     7
100
AcDbLine
 10
2601.59409966384
 20
2155.223967243412
 30
0.0
 11
2607.192175875193
 21
2151.991916435842
 31
0.0
1001
ACME_LAYERS
1000
1
  0
LINE
  5
4056
330
1F
100
AcDbEntity
  8
P-0000
  6
Continuous
 62
     7
100
AcDbLine
 10
2609.192175875192
 20
2151.45601805098
 30
0.0
 11
2515.344099663844
 21
2151.45601805098
 31
0.0
1001
ACME_LAYERS
1000
1
  0
LINE
  5
4057
330
1F
100
AcDbEntity
  8
P-0000
  6
Continuous
 62
     7
100
AcDbLine
 10
2609.192175875192
 20
2153.45601805098
 30
0.0
 11
2615.437245414347
 21
2153.45601805098
 31
0.0
1001
ACME_LAYERS
1000
1
  0
LINE
  5
4058
330
1F
100
AcDbEntity
  8
P-0000
  6
Continuous
 62
     7
100
AcDbLine
 10
2609.192175875192
 20
2151.45601805098
 30
0.0
 11
2615.437245414347
 21
2151.45601805098
 31
0.0
1001
ACME_LAYERS
1000
1
  0
LINE
  5
4059
330
1F
100
AcDbEntity
  8
P-0000
  6
Continuous
 62
     7
100
AcDbLine
 10
2653.996023452486
 20
2151.45601805098
 30
0.0
 11
2647.750953913334
 21
2151.45601805098
 31
0.0
1001
ACME_LAYERS
1000
1
  0
LINE
  5
405A
330
1F
100
AcDbEntity
  8
P-0000
  6
Continuous
 62
     7
100
AcDbLine
 10
2636.59409966384
 20
2155.45601805098
 30
0.0
 11
2635.59409966384
 21
2155.45601805098
 31
0.0
1001
ACME_LAYERS
1000
1
  0
LINE
  5
405B
330
1F
100
AcDbEntity
  8
P-0000
  6
Continuous
 62
     7
100
AcDbLine
 10
2639.417741297008
 20
2155.45601805098
 30
0.0
 11
2636.59409966384
 21
2155.45601805098
 31
0.0
1001
ACME_LAYERS
1000
1
  0
LINE
  5
405C
330
1F
100
AcDbEntity
  8
P-0000
  6
Continuous
 62
     7
100
AcDbLine
 10
2626.594099663841
 20
2155.45601805098
 30
0.0
 11
2619.922526788587
 21
2155.45601805098
 31
0.0
1001
ACME_LAYERS
1000
1
  0
LINE
  5
405D
330
1F
100
AcDbEntity
  8
P-0000
  6
Continuous
 62
     7
100
AcDbLine
 10
2627.59409966384
 20
2153.45601805098
 30
0.0
 11
2619.922526788587
 21
2153.45601805098
 31
0.0
1001
ACME_LAYERS
1000
1
  0
LINE
  5
405E
330
1F
100
AcDbEntity
  8
P-0000
  6
Continuous
 62
     7
100
AcDbLine
 10
2643.265672539094
 20
2153.45601805098
 30
0.0
 11
2635.650636107931
 21
2153.45601805098
 31
0.0
1001
ACME_LAYERS
1000
1
  0
LINE
  5
405F
330
1F
100
AcDbEntity
  8
P-0000
  6
Continuous
 62
     7
100
AcDbLine
 10
2627.59409966384
 20
2155.45601805098
 30
0.0
 11
2626.594099663841
 21
2155.45601805098
 31
0.0
1001
ACME_LAYERS
1000
1
  0
LINE
  5
4060
330
1F
100
AcDbEntity
  8
P-0000
  6
Continuous
 62
     7
100
AcDbLine
 10
2653.996023452486
 20
2153.45601805098
 30
0.0
 11
2647.750953913334
 21
2153.45601805098
 31
0.0
1001
ACME_LAYERS
1000
1
  0
LINE
  5
4061
330
1F
100
AcDbEntity
  8
P-0000
  6
Continuous
 62
     7
100
AcDbLine
 10
2621.59409966384
 20
2155.45601805098
 30
0.0
 11
2626.594099663841
 21
2155.45601805098
 31
0.0
1001
ACME_LAYERS
1000
1
  0
LINE
  5
4062
330
1F
100
AcDbEntity
  8
P-0000
  6
Continuous
 62
     7
100
AcDbLine
 10
2626.594099663841
 20
2155.45601805098
 30
0.0
 11
2627.59409966384
 21
2155.45601805098
 31
0.0
1001
ACME_LAYERS
1000
1
  0
LINE
  5
4063
330
1F
100
AcDbEntity
  8
P-0000
  6
Continuous
 62
     7
100
AcDbLine
 10
2660.594099663839
 20
2156.95601805098
 30
0.0
 11
2649.094099663831
 21
2156.95601805098
 31
0.0
1001
ACME_LAYERS
1000
1
  0
LINE
  5
4064
330
1F
100
AcDbEntity
  8
P-0000
  6
Continuous
 62
     7
100
AcDbLine
 10
2640.039797777261
 20
2155.45601805098
 30
0.0
 11
2635.59409966384
 21
2155.45601805098
 31
0.0
1001
ACME_LAYERS
1000
1
  0
LINE
  5
4065
330
1F
100
AcDbEntity
  8
P-0000
  6
Continuous
 62
     7
100
AcDbLine
 10
2627.59409966384
 20
2155.45601805098
 30
0.0
 11
2626.594099663841
 21
2155.45601805098
 31
0.0
1001
ACME_LAYERS
1000
1
  0
LINE
  5
4078
330
1F
100
AcDbEntity
  8
P-0000
  6
Continuous
 62
     7
100
AcDbLine
 10
2515.335371044983
 20
2151.45601805098
 30
0.0
 11
2515.344099663844
 21
2151.45601805098
 31
0.0
1001
ACME_LAYERS
1000
1
  0
LINE
  5
4079
330
1F
100
AcDbEntity
  8
P-0000
  6
Continuous
 62
     7
100
AcDbLine
 10
2637.094099663838
 20
2155.456018050982
 30
0.0
 11
2642.094099663838
 21
2155.456018050982
 31
0.0
1001
ACME_LAYERS
1000
1
  0
LINE
  5
407A
330
1F
100
AcDbEntity
  8
P-0000
  6
Continuous
 62
     7
100
AcDbLine
 10
2640.039797777261
 20
2156.95601805098
 30
0.0
 11
2635.59409966384
 21
2156.95601805098
 31
0.0
1001
ACME_LAYERS
1000
1
  0
LINE
  5
407B
330
1F
100
AcDbEntity
  8
P-0000
  6
Continuous
 62
     7
100
AcDbLine
 10
2626.594099663841
 20
2155.45601805098
 30
0.0
 11
2623.039797777261
 21
2155.45601805098
 31
0.0
1001
ACME_LAYERS
1000
1
  0
LINE
  5
407C
330
1F
100
AcDbEntity
  8
P-0000
  6
Continuous
 62
     7
100
AcDbLine
 10
2626.594099663841
 20
2155.45601805098
 30
0.0
 11
2627.094099663838
 21
2155.456018050982
 31
0.0
1001
ACME_LAYERS
1000
1
  0
LINE
  5
407D
330
1F
100
AcDbEntity
  8
P-0000
  6
Continuous
 62
     7
100
AcDbLine
 10
2623.039797777261
 20
2156.95601805098
 30
0.0
 11
2627.094099663838
 21
2156.95601805098
 31
0.0
1001
ACME_LAYERS
1000
1
  0
LINE
  5
407E
330
1F
100
AcDbEntity
  8
P-0000
  6
Continuous
 62
     7
100
AcDbLine
 10
2635.59409966384
 20
2155.45601805098
 30
0.0
 11
2636.59409966384
 21
2155.45601805098
 31
0.0
1001
ACME_LAYERS
1000
1
  0
LINE
  5
407F
330
1F
100
AcDbEntity
  8
P-0000
  6
Continuous
 62
     7
100
AcDbLine
 10
2619.922526788587
 20
2155.45601805098
 30
0.0
 11
2626.594099663841
 21
2155.45601805098
 31
0.0
1001
ACME_LAYERS
1000
1
  0
ARC
  5
4080
330
1F
100
AcDbEntity
  8
P-0000
  6
Continuous
 62
     7
100
AcDbCircle
 10
2647.750953913334
 20
2155.45601805098
 30
0.0
 40
4.0
100
AcDbArc
 50
224.9999999999908
 51
270.0
1001
ACME_LAYERS
1000
1
  0
ARC
  5
4081
330
1F
100
AcDbEntity
  8
P-0000
  6
Continuous
 62
     7
100
AcDbCircle
 10
2619.922526788587
 20
2151.45601805098
 30
0.0
 40
4.000000000000613
100
AcDbArc
 50
90.0
 51
134.9999999999816
1001
ACME_LAYERS
1000
1
  0
ARC
  5
4082
330
1F
100
AcDbEntity
  8
P-0000
  6
Continuous
 62
     7
100
AcDbCircle
 10
2615.437245414347
 20
2155.45601805098
 30
0.0
 40
3.999999999999423
100
AcDbArc
 50
270.0
 51
315.0000000000092
1001
ACME_LAYERS
1000
1
  0
ARC
  5
4083
330
1F
100
AcDbEntity
  8
P-0000
  6
Continuous
 62
     7
100
AcDbCircle
 10
2609.192175875192
 20
2155.45601805098
 30
0.0
 40
4.0
100
AcDbArc
 50
240.0000000000011
 51
270.0
1001
ACME_LAYERS
1000
1
  0
ARC
  5
408E
330
1F
100
AcDbEntity
  8
P-0000
  6
Continuous
 62
     7
100
AcDbCircle
 10
2609.192175875192
 20
2155.45601805098
 30
0.0
 40
2.0
100
AcDbArc
 50
239.9999999999713
 51
270.0
1001
ACME_LAYERS
1000
1
  0
ARC
  5
408F
330
1F
100
AcDbEntity
  8
P-0000
  6
Continuous
 62
     7
100
AcDbCircle
 10
2615.437245414347
 20
2155.45601805098
 30
0.0
 40
2.000000000000397
100
AcDbArc
 50
270.0
 51
314.9999999999816
1001
ACME_LAYERS
1000
1
  0
ARC
  5
4090
330
1F
100
AcDbEntity
  8
P-0000
  6
Continuous
 62
     7
100
AcDbCircle
 10
2619.922526788587
 20
2151.45601805098
 30
0.0
 40
2.000000000000311
100
AcDbArc
 50
90.0
 51
134.9999999999816
1001
ACME_LAYERS
1000
1
  0
ARC
  5
4091
330
1F
100
AcDbEntity
  8
P-0000
  6
Continuous
 62
     7
100
AcDbCircle
 10
2643.265672539094
 20
2151.45601805098
 30
0.0
 40
2.0
100
AcDbArc
 50
45.00000000001842
 51
90.0
1001
ACME_LAYERS
1000
1
  0
ARC
  5
4092
330
1F
100
AcDbEntity
  8
P-0000
  6
Continuous
 62
     7
100
AcDbCircle
 10
2647.750953913334
 20
2155.45601805098
 30
0.0
 40
2.0
100
AcDbArc
 50
224.9999999999816
 51
270.0
1001
ACME_LAYERS
1000
1
  0
ARC
  5
4093
330
1F
100
AcDbEntity
  8
P-0000
  6
Continuous
 62
     7
100
AcDbCircle
 10
2653.996023452486
 20
2155.45601805098
 30
0.0
 40
1.999999999999425
100
AcDbArc
 50
270.0
 51
300.0000000000288
1001
ACME_LAYERS
1000
1
  0
ARC
  5
4094
330
1F
100
AcDbEntity
  8
P-0000
  6
Continuous
 62
     7
100
AcDbCircle
 10
2653.996023452486
 20
2155.45601805098
 30
0.0
 40
4.000000000000401
100
AcDbArc
 50
270.0
 51
299.9999999999989
1001
ACME_LAYERS
1000
1
  0
ARC
  5
4095
330
1F
100
AcDbEntity
  8
P-0000
  6
Continuous
 62
     7
100
AcDbCircle
 10
2643.265672539094
 20
2151.45601805098
 30
0.0
 40
4.0
100
AcDbArc
 50
45.00000000001842
 51
89.99999999997395
1001
ACME_LAYERS
1000
1
  0
HATCH
  5
4096
330
1F
100
AcDbEntity
  8
P-0000
  6
Continuous
 62
     3
100
AcDbHatch
 10
0.0
 20
0.0
 30
0.0
210
0.0
220
0.0
230
1.0
  2
_U
 70
     0
 71
     0
 91
        1
 92
        1
 93
       19
 72
     1
 10
2602.59409966384
 20
2156.95601805098
 11
2608.192175875192
 21
2153.723967243412
 72
     1
 10
2608.192175875192
 20
2153.723967243412
 11
2608.656277490331
 21
2153.45601805098
 72
     1
 10
2608.656277490331
 20
2153.45601805098
 11
2609.192175875192
 21
2153.45601805098
 72
     1
 10
2609.192175875192
 20
2153.45601805098
 11
2615.437245414347
 21
2153.45601805098
 72
     1
 10
2615.437245414347
 20
2153.45601805098
 11
2616.265672539094
 21
2153.45601805098
 72
     1
 10
2616.265672539094
 20
2153.45601805098
 11
2616.85145897672
 21
2154.041804488606
 72
     1
 10
2616.85145897672
 20
2154.041804488607
 11
2617.09409966384
 21
2154.284445175727
 72
     2
 10
2619.922526788587
 20
2151.45601805098
 40
4.000000000000613
 50
-135.0000000000008
 51
-90.00000000000001
 73
     0
 72
     1
 10
2619.922526788587
 20
2155.45601805098
 11
2626.594099663841
 21
2155.45601805098
 72
     1
 10
2626.594099663841
 20
2155.45601805098
 11
2626.594099663841
 21
2153.456018050981
 72
     1
 10
2626.594099663841
 20
2153.45601805098
 11
2619.922526788587
 21
2153.45601805098
 72
     1
 10
2619.922526788587
 20
2153.45601805098
 11
2619.09409966384
 21
2153.45601805098
 72
     1
 10
2619.09409966384
 20
2153.45601805098
 11
2618.508313226214
 21
2152.870231613354
 72
     1
 10
2618.508313226214
 20
2152.870231613354
 11
2618.265672539094
 21
2152.627590926235
 72
     2
 10
2615.437245414347
 20
2155.45601805098
 40
3.999999999999423
 50
44.99999999998222
 51
90.0
 73
     0
 72
     1
 10
2615.437245414347
 20
2151.45601805098
 11
2609.192175875192
 21
2151.45601805098
 72
     2
 10
2609.192175875192
 20
2155.45601805098
 40
4.0
 50
90.0
 51
119.9999999999965
 73
     0
 72
     1
 10
2607.192175875193
 20
2151.991916435842
 11
2601.59409966384
 21
2155.223967243412
 72
     1
 10
2601.59409966384
 20
2155.223967243412
 11
2602.59409966384
 21
2156.95601805098
 97
        0
 75
     0
 76
     0
 52
44.99999999999999
 41
3.0
 77
     0
 78
     1
 53
135.0
 43
2574.627227678735
 44
2292.081983545355
 45
2.121320343559641
 46
2.121320343559641
 79
     0
 98
        1
 10
2574.627227678735
 20
2292.081983545355
1001
ACME_LAYERS
1000
1
  0
HATCH
  5
4097
330
1F
100
AcDbEntity
  8
P-0000
  6
Continuous
 62
     3
100
AcDbHatch
 10
0.0
 20
0.0
 30
0.0
210
0.0
220
0.0
230
1.0
  2
_U
 70
     0
 71
     0
 91
        1
 92
        1
 93
       19
 72
     2
 10
2647.750953913334
 20
2155.45601805098
 40
2.0
 50
90.0
 51
135.0000000000351
 73
     0
 72
     1
 10
2646.336740350959
 20
2154.041804488607
 11
2646.09409966384
 21
2154.284445175727
 72
     2
 10
2643.265672539094
 20
2151.45601805098
 40
4.0
 50
404.9999999999991
 51
449.9999999999738
 73
     1
 72
     1
 10
2643.265672539095
 20
2155.45601805098
 11
2640.828069825868
 21
2155.45601805098
 72
     1
 10
2640.828069825868
 20
2155.45601805098
 11
2639.417741297008
 21
2155.45601805098
 72
     1
 10
2639.417741297008
 20
2155.45601805098
 11
2636.59409966384
 21
2155.45601805098
 72
     1
 10
2636.59409966384
 20
2155.45601805098
 11
2636.59409966384
 21
2153.456018050981
 72
     1
 10
2636.59409966384
 20
2153.45601805098
 11
2643.265672539094
 21
2153.45601805098
 72
     1
 10
2643.265672539094
 20
2153.45601805098
 11
2644.094099663841
 21
2153.45601805098
 72
     1
 10
2644.094099663841
 20
2153.45601805098
 11
2644.679886101467
 21
2152.870231613354
 72
     1
 10
2644.679886101467
 20
2152.870231613354
 11
2644.922526788587
 21
2152.627590926235
 72
     2
 10
2647.750953913334
 20
2155.45601805098
 40
4.0
 50
224.9999999999821
 51
270.0
 73
     1
 72
     1
 10
2647.750953913334
 20
2151.45601805098
 11
2653.996023452486
 21
2151.45601805098
 72
     2
 10
2653.996023452486
 20
2155.45601805098
 40
4.000000000000401
 50
270.0
 51
299.9999999999967
 73
     1
 72
     1
 10
2655.996023452486
 20
2151.991916435842
 11
2661.594099663838
 21
2155.223967243412
 72
     1
 10
2661.594099663838
 20
2155.223967243412
 11
2660.594099663839
 21
2156.95601805098
 72
     1
 10
2660.594099663839
 20
2156.95601805098
 11
2654.996023452486
 21
2153.723967243412
 72
     2
 10
2653.996023452486
 20
2155.45601805098
 40
1.999999999999425
 50
59.99999999999046
 51
90.0
 73
     0
 72
     1
 10
2653.996023452486
 20
2153.45601805098
 11
2647.750953913334
 21
2153.45601805098
 97
        0
 75
     0
 76
     0
 52
44.99999999999999
 41
5.0
 77
     0
 78
     1
 53
135.0
 43
2574.627227678735
 44
2292.081983545355
 45
3.535533905932736
 46
3.535533905932738
 79
     0
 98
        1
 10
2574.627227678735
 20
2292.081983545355
1001
ACME_LAYERS
1000
1
  0
LINE
  5
4098
330
1F
100
AcDbEntity
  8
0
100
AcDbLine
 10
2635.59409966384
 20
2151.45601805098
 30
0.0
 11
2635.59409966384
 21
2156.95601805098
 31
0.0
  0
LINE
  5
409D
330
1F
100
AcDbEntity
  8
P-0000
  6
Continuous
 62
     7
100
AcDbLine
 10
2609.226957298298
 20
2151.45601805098
 30
0.0
 11
2615.472026837451
 21
2151.45601805098
 31
0.0
1001
ACME_LAYERS
1000
1
  0
LINE
  5
409E
330
1F
100
AcDbEntity
  8
P-0000
  6
Continuous
 62
     7
100
AcDbLine
 10
2653.996023452486
 20
2151.456018050981
 30
0.0
 11
2647.750953913333
 21
2151.45601805098
 31
0.0
1001
ACME_LAYERS
1000
1
  0
LINE
  5
409F
330
1F
100
AcDbEntity
  8
P-0000
  6
Continuous
 62
     7
100
AcDbLine
 10
2609.192175875191
 20
2151.45601805098
 30
0.0
 11
2615.437245414345
 21
2151.45601805098
 31
0.0
1001
ACME_LAYERS
1000
1
  0
LINE
  5
40A7
330
1F
100
AcDbEntity
  8
0
100
AcDbLine
 10
2635.650636107931
 20
2155.45601805098
 30
0.0
 11
2635.650636107931
 21
2142.250098146036
 31
0.0
  0
LINE
  5
40A8
330
1F
100
AcDbEntity
  8
0
100
AcDbLine
 10
2627.650636107931
 20
2155.45601805098
 30
0.0
 11
2627.650636107931
 21
2142.250098146036
 31
0.0
  0
LINE
  5
40D8
330
1F
100
AcDbEntity
  8
P-0000
  6
Continuous
 62
     7
100
AcDbLine
 10
2424.682337553041
 20
2156.95601805098
 30
0.0
 11
2429.128035666462
 21
2156.95601805098
 31
0.0
1001
ACME_LAYERS
1000
1
  0
LINE
  5
40D9
330
1F
100
AcDbEntity
  8
P-0000
  6
Continuous
 62
     7
100
AcDbLine
 10
2441.682337553042
 20
2156.95601805098
 30
0.0
 11
2437.628035666464
 21
2156.95601805098
 31
0.0
1001
ACME_LAYERS
1000
1
  0
LINE
  5
40DA
330
1F
100
AcDbEntity
  8
P-0000
  6
Continuous
 62
     7
100
AcDbLine
 10
2429.928035666463
 20
2156.95601805098
 30
0.0
 11
2437.628035666464
 21
2156.95601805098
 31
0.0
1001
ACME_LAYERS
1000
1
  0
LINE
  5
40DB
330
1F
100
AcDbEntity
  8
P-0000
  6
Continuous
 62
     7
100
AcDbLine
 10
2429.128035666462
 20
2156.95601805098
 30
0.0
 11
2429.928035666463
 21
2156.95601805098
 31
0.0
1001
ACME_LAYERS
1000
1
  0
LINE
  5
4111
330
1F
100
AcDbEntity
  8
P-0000
  6
Continuous
 62
     7
100
AcDbLine
 10
2589.097008310081
 20
2156.95601805098
 30
0.0
 11
2593.542706423502
 21
2156.95601805098
 31
0.0
1001
ACME_LAYERS
1000
1
  0
LINE
  5
4112
330
1F
100
AcDbEntity
  8
P-0000
  6
Continuous
 62
     7
100
AcDbLine
 10
2606.097008310082
 20
2156.95601805098
 30
0.0
 11
2602.042706423504
 21
2156.95601805098
 31
0.0
1001
ACME_LAYERS
1000
1
  0
LINE
  5
4113
330
1F
100
AcDbEntity
  8
P-0000
  6
Continuous
 62
     7
100
AcDbLine
 10
2594.342706423503
 20
2156.95601805098
 30
0.0
 11
2602.042706423504
 21
2156.95601805098
 31
0.0
1001
ACME_LAYERS
1000
1
  0
LINE
  5
4114
330
1F
100
AcDbEntity
  8
P-0000
  6
Continuous
 62
     7
100
AcDbLine
 10
2593.542706423502
 20
2156.95601805098
 30
0.0
 11
2594.342706423503
 21
2156.95601805098
 31
0.0
1001
ACME_LAYERS
1000
1
  0
HATCH
  5
4171
330
1F
100
AcDbEntity
  8
AM_8
100
AcDbHatch
 10
0.0
 20
0.0
 30
0.0
210
0.0
220
0.0
230
1.0
  2
_U
 70
     0
 71
     0
 91
        1
 92
        1
 93
       32
 72
     1
 10
2412.835371044995
 20
2140.250098146033
 11
2422.477759387878
 21
2140.250098146033
 72
     1
 10
2422.477759387878
 20
2140.250098146033
 11
2424.477759387879
 21
2140.785996530899
 72
     1
 10
2424.477759387879
 20
2140.785996530899
 11
2430.623768418723
 21
2144.202574769042
 72
     1
 10
2430.623768418723
 20
2144.202574769042
 11
2453.805504111726
 21
2144.250098146036
 72
     1
 10
2453.805504111726
 20
2144.250098146036
 11
2455.590295364165
 21
2143.829835592445
 72
     1
 10
2455.590295364165
 20
2143.829835592445
 11
2458.81404674434
 21
2140.250098146051
 72
     1
 10
2458.81404674434
 20
2140.250098146051
 11
2463.180342010587
 21
2134.198226156746
 72
     1
 10
2463.180342010586
 20
2134.198226156745
 11
2463.335371044968
 21
2130.653567771211
 72
     1
 10
2463.335371044968
 20
2130.653567771211
 11
2463.835371044968
 21
2129.250098146036
 72
     1
 10
2463.835371044968
 20
2129.250098146036
 11
2465.335371044968
 21
2129.250098146036
 72
     1
 10
2465.335371044968
 20
2129.250098146036
 11
2465.335371044968
 21
2133.24631218753
 72
     1
 10
2465.335371044968
 20
2133.24631218753
 11
2464.328548595204
 21
2136.255387303291
 72
     1
 10
2464.328548595204
 20
2136.255387303291
 11
2458.597317172011
 21
2143.860988284949
 72
     1
 10
2458.597317172011
 20
2143.860988284949
 11
2456.482690990385
 21
2145.619704315649
 72
     1
 10
2456.482690990385
 20
2145.619704315649
 11
2453.805504111727
 21
2146.250098146036
 72
     1
 10
2453.805504111726
 20
2146.250098146036
 11
2431.057167814671
 21
2146.250098146036
 72
     1
 10
2431.057167814671
 20
2146.250098146036
 11
2429.013657772741
 21
2145.714199761174
 72
     1
 10
2429.013657772741
 20
2145.714199761174
 11
2424.598205152828
 21
2143.164937002473
 72
     1
 10
2424.598205152828
 20
2143.164937002473
 11
2422.477759387878
 21
2142.250098146036
 72
     1
 10
2422.477759387878
 20
2142.250098146036
 11
2374.86365777274
 21
2142.250098146036
 72
     2
 10
2374.863657772742
 20
2144.250098146036
 40
1.999999999999543
 50
90.00000000004559
 51
120.0000000000595
 73
     0
 72
     1
 10
2373.86365777274
 20
2142.518047338469
 11
2370.426402763108
 21
2144.502547443551
 72
     1
 10
2370.426402763108
 20
2144.502547443551
 11
2368.426402763108
 21
2145.038445828415
 72
     1
 10
2368.426402763108
 20
2145.038445828415
 11
2365.597975638362
 21
2143.866872953162
 72
     1
 10
2365.597975638361
 20
2143.866872953161
 11
2364.895414393608
 21
2143.16431170841
 72
     1
 10
2364.895414393609
 20
2143.16431170841
 11
2366.309627955982
 21
2141.750098146036
 72
     1
 10
2366.309627955982
 20
2141.750098146036
 11
2367.012189200735
 21
2142.452659390789
 72
     2
 10
2368.426402763107
 20
2141.038445828415
 40
1.999999999999934
 50
225.0000000000069
 51
300.0000000000272
 73
     0
 72
     1
 10
2369.426402763108
 20
2142.770496635983
 11
2372.863657772739
 21
2140.785996530898
 72
     1
 10
2372.863657772739
 20
2140.785996530898
 11
2374.86365777274
 21
2140.250098146037
 72
     1
 10
2374.86365777274
 20
2140.250098146037
 11
2375.274789999211
 21
2140.250098146037
 72
     1
 10
2375.274789999211
 20
2140.250098146037
 11
2412.835371044995
 21
2140.250098146033
 97
        0
 75
     0
 76
     0
 52
45.0
 41
2.5
 77
     0
 78
     1
 53
45.0
 43
1050.701786562589
 44
1231.230201780811
 45
-1.767766952966368
 46
1.767766952966368
 79
     0
 98
        1
 10
1050.701786562589
 20
1231.230201780811
1001
GENIUS_GENOBJ-N-HTC_13
1002
{
1000
OWNER
1000
GEN
1002
}
1001
GENIUS_GENODEF_13
1002
{
1000
HIER
1070
     0
1002
}
1002
{
1000
MANEDIT
1070
     0
1002
}
1002
{
1000
NOSEL
1070
     0
1002
}
1002
{
1000
BEHIND
1070
     0
1002
}
1002
{
1000
OTHER
1070
     0
1002
}
1002
{
1000
REACTOR
1002
}
1001
GENIUS_GENHATCH_13
1002
{
1000
DATA
1040
45.0
1042
2.5
1000
_U
1070
     0
1011
2375.274789999211
1021
2141.042402197622
1031
0.0
1002
}
1002
{
1000
UCS
1010
0.0
1020
0.0
1030
0.0
1010
1.0
1020
0.0
1030
0.0
1010
0.0
1020
1.0
1030
0.0
1002
}
  0
HATCH
  5
4172
330
1F
100
AcDbEntity
  8
AM_8
100
AcDbHatch
 10
0.0
 20
0.0
 30
0.0
210
0.0
220
0.0
230
1.0
  2
_U
 70
     0
 71
     0
 91
        1
 92
        1
 93
       32
 72
     1
 10
2617.835371044956
 20
2140.250098145748
 11
2608.192982702072
 21
2140.250098145775
 72
     1
 10
2608.192982702072
 20
2140.250098145775
 11
2606.192982702073
 21
2140.785996530646
 72
     1
 10
2606.192982702073
 20
2140.785996530646
 11
2600.046973671238
 21
2144.202574768806
 72
     1
 10
2600.046973671238
 20
2144.202574768806
 11
2576.865237978234
 21
2144.250098145865
 72
     1
 10
2576.865237978234
 20
2144.250098145865
 11
2575.080446725794
 21
2143.829835592278
 72
     1
 10
2575.080446725794
 20
2143.829835592279
 11
2571.856695345609
 21
2140.250098145894
 72
     1
 10
2571.856695345609
 20
2140.250098145894
 11
2567.490400079346
 21
2134.1982261566
 72
     1
 10
2567.490400079346
 20
2134.198226156601
 11
2567.335371044955
 21
2130.653567771068
 72
     1
 10
2567.335371044955
 20
2130.653567771067
 11
2566.835371044951
 21
2129.250098145893
 72
     1
 10
2566.83537104495
 20
2129.250098145893
 11
2565.33537104495
 21
2129.250098145897
 72
     1
 10
2565.33537104495
 20
2129.250098145897
 11
2565.335371044962
 21
2133.246312187391
 72
     1
 10
2565.335371044962
 20
2133.246312187391
 11
2566.342193494734
 21
2136.255387303148
 72
     1
 10
2566.342193494734
 20
2136.255387303148
 11
2572.073424917949
 21
2143.86098828479
 72
     1
 10
2572.073424917949
 20
2143.860988284791
 11
2574.18805109958
 21
2145.619704315485
 72
     1
 10
2574.188051099579
 20
2145.619704315485
 11
2576.865237978239
 21
2146.250098145864
 72
     1
 10
2576.86523797824
 20
2146.250098145864
 11
2599.613574275294
 21
2146.250098145802
 72
     1
 10
2599.613574275294
 20
2146.250098145802
 11
2601.657084317223
 21
2145.714199760934
 72
     1
 10
2601.657084317223
 20
2145.714199760934
 11
2606.072536937129
 21
2143.164937002221
 72
     1
 10
2606.072536937129
 20
2143.164937002221
 11
2608.192982702077
 21
2142.250098145778
 72
     1
 10
2608.192982702077
 20
2142.250098145778
 11
2655.807084317215
 21
2142.250098145645
 72
     2
 10
2655.807084317218
 20
2144.250098145645
 40
1.999999999999543
 50
269.9999999998861
 51
299.9999999999001
 73
     1
 72
     1
 10
2656.807084317216
 20
2142.518047338075
 11
2660.244339326853
 21
2144.502547443149
 72
     1
 10
2660.244339326853
 20
2144.502547443148
 11
2662.244339326855
 21
2145.038445828005
 72
     1
 10
2662.244339326855
 20
2145.038445828006
 11
2665.072766451598
 21
2143.866872952745
 72
     1
 10
2665.072766451598
 20
2143.866872952745
 11
2665.775327696349
 21
2143.164311707991
 72
     1
 10
2665.775327696349
 20
2143.164311707991
 11
2664.361114133972
 21
2141.750098145621
 72
     1
 10
2664.361114133971
 20
2141.750098145621
 11
2663.658552889221
 21
2142.452659390376
 72
     2
 10
2662.244339326844
 20
2141.038445828006
 40
1.999999999999934
 50
404.9999999998474
 51
479.9999999998678
 73
     1
 72
     1
 10
2661.244339326848
 20
2142.770496635577
 11
2657.807084317211
 21
2140.785996530501
 72
     1
 10
2657.80708431721
 20
2140.785996530501
 11
2655.807084317209
 21
2140.250098145645
 72
     1
 10
2655.807084317209
 20
2140.250098145645
 11
2655.395952090739
 21
2140.250098145646
 72
     1
 10
2655.395952090739
 20
2140.250098145647
 11
2617.835371044956
 21
2140.250098145748
 97
        0
 75
     0
 76
     0
 52
45.0
 41
2.5
 77
     0
 78
     1
 53
45.0
 43
1050.701786562589
 44
1231.230201780811
 45
-1.767766952966368
 46
1.767766952966368
 79
     0
 98
        1
 10
3979.96895552483
 20
1231.230201776735
1001
GENIUS_GENOBJ-N-HTC_13
1002
{
1000
OWNER
1000
GEN
1002
}
1001
GENIUS_GENODEF_13
1002
{
1000
HIER
1070
     0
1002
}
1002
{
1000
MANEDIT
1070
     0
1002
}
1002
{
1000
NOSEL
1070
     0
1002
}
1002
{
1000
BEHIND
1070
     0
1002
}
1002
{
1000
OTHER
1070
     0
1002
}
1002
{
1000
REACTOR
1002
}
1001
GENIUS_GENHATCH_13
1002
{
1000
DATA
1040
45.0
1042
-2.5
1000
_U
1070
     0
1011
2655.39595209074
1021
2141.042402197232
1031
0.0
1002
}
1002
{
1000
UCS
1010
0.0
1020
0.0
1030
0.0
1010
1.0
1020
0.0
1030
0.0
1010
0.0
1020
1.0
1030
0.0
1002
}
1001
ACAD
1010
0.0
1020
0.0
1030
0.0
  0
LINE
  5
454D
330
1F
100
AcDbEntity
  8
P-0000
  6
STRICHPUNKT
 62
     3
100
AcDbLine
 10
2515.335371044957
 20
1841.208035656004
 30
0.0
 11
2515.335371044957
 21
1833.208035656004
 31
0.0
1001
ACME_LAYERS
1000
1
  0
LINE
  5
454F
330
1F
100
AcDbEntity
  8
P-0000
  6
STRICHPUNKT
 62
     3
100
AcDbLine
 10
2515.335371044957
 20
1833.208035656004
 30
0.0
 11
2515.335371044957
 21
1812.708035656004
 31
0.0
1001
ACME_LAYERS
1000
1
  0
LINE
  5
4955
330
1F
100
AcDbEntity
  8
P-0000
  6
Continuous
 62
     7
100
AcDbLine
 10
2428.059185188412
 20
2156.946570935935
 30
0.0
 11
2427.987219025912
 21
2156.946570935935
 31
0.0
1001
ACME_LAYERS
1000
1
  0
LINE
  5
4980
330
1F
100
AcDbEntity
  8
P-0000
  6
Continuous
 62
     7
100
AcDbLine
 10
2602.576642426126
 20
2156.946570935935
 30
0.0
 11
2602.648608588627
 21
2156.946570935935
 31
0.0
1001
ACME_LAYERS
1000
1
  0
LINE
  5
4AD2
330
1F
100
AcDbEntity
  8
P-0000
  6
Continuous
 62
     7
100
AcDbLine
 10
2429.110578428749
 20
2156.946570935935
 30
0.0
 11
2429.91057842875
 21
2156.946570935935
 31
0.0
1001
ACME_LAYERS
1000
1
  0
LINE
  5
4AE0
330
1F
100
AcDbEntity
  8
P-0000
  6
Continuous
 62
     7
100
AcDbLine
 10
2593.525249185789
 20
2156.946570935935
 30
0.0
 11
2594.32524918579
 21
2156.946570935935
 31
0.0
1001
ACME_LAYERS
1000
1
  0
LINE
  5
4E06
330
1F
100
AcDbEntity
  8
AM_7
  6
AM_DIN_G_W050x2
100
AcDbLine
 10
2399.020105982035
 20
2158.45601805098
 30
0.0
 11
2399.020105982035
 21
2139.250098146036
 31
0.0
1001
GENIUS_GENODEF_13
1002
{
1000
HIER
1070
     0
1002
}
1002
{
1000
MANEDIT
1070
     0
1002
}
1002
{
1000
NOSEL
1070
     0
1002
}
1002
{
1000
BEHIND
1070
     0
1002
}
1002
{
1000
OTHER
1070
     0
1002
}
1002
{
1000
REACTOR
1002
}
1001
GENIUS_GENOBJ-N-CEN_13
1002
{
1000
OWNER
1000
GEN
1002
}
1001
GENIUS_GENCEN_19
1002
{
1040
3.0
1002
}
  0
LINE
  5
4E08
330
1F
100
AcDbEntity
  8
0
100
AcDbLine
 10
2395.076642426126
 20
2156.95601805098
 30
0.0
 11
2403.076642426126
 21
2156.95601805098
 31
0.0
  0
LINE
  5
4FEF
330
1F
100
AcDbEntity
  8
P-0000
  6
STRICHPUNKT
 62
     3
100
AcDbLine
 10
2515.278834600882
 20
2267.640100835848
 30
0.0
 11
2515.278834600881
 21
2156.956018050872
 31
0.0
1001
ACME_LAYERS
1000
1
  0
LINE
  5
4FF0
330
1F
100
AcDbEntity
  8
P-0000
  6
Continuous
 62
     7
100
AcDbLine
 10
2428.020105982025
 20
2156.956018050873
 30
0.0
 11
2427.948139819524
 21
2156.956018050873
 31
0.0
1001
ACME_LAYERS
1000
1
  0
LINE
  5
4FF1
330
1F
100
AcDbEntity
  8
P-0000
  6
Continuous
 62
     7
100
AcDbLine
 10
2403.020105982025
 20
2157.456018050875
 30
0.0
 11
2403.520105982026
 21
2157.456018050875
 31
0.0
1001
ACME_LAYERS
1000
1
  0
LINE
  5
4FF2
330
1F
100
AcDbEntity
  8
P-0000
  6
Continuous
 62
     7
100
AcDbLine
 10
2402.220105982025
 20
2157.456018050875
 30
0.0
 11
2403.020105982025
 21
2157.456018050875
 31
0.0
1001
ACME_LAYERS
1000
1
  0
LINE
  5
4FF3
330
1F
100
AcDbEntity
  8
P-0000
  6
Continuous
 62
     7
100
AcDbLine
 10
2636.537563219738
 20
2159.456018050875
 30
0.0
 11
2626.537563219738
 21
2159.456018050875
 31
0.0
1001
ACME_LAYERS
1000
1
  0
LINE
  5
4FFB
330
1F
100
AcDbEntity
  8
P-0000
  6
Continuous
 62
     7
100
AcDbLine
 10
2634.737563219739
 20
2170.603299490587
 30
0.0
 11
2631.537563219738
 21
2170.603299490587
 31
0.0
1001
ACME_LAYERS
1000
1
  0
LINE
  5
4FFC
330
1F
100
AcDbEntity
  8
P-0000
  6
Continuous
 62
     7
100
AcDbLine
 10
2628.337563219738
 20
2170.003299490588
 30
0.0
 11
2634.737563219739
 21
2170.003299490588
 31
0.0
1001
ACME_LAYERS
1000
1
  0
LINE
  5
4FFD
330
1F
100
AcDbEntity
  8
P-0000
  6
Continuous
 62
     7
100
AcDbLine
 10
2635.537563219738
 20
2170.003299490588
 30
0.0
 11
2635.537563219738
 21
2167.056018050874
 31
0.0
1001
ACME_LAYERS
1000
1
  0
LINE
  5
4FFE
330
1F
100
AcDbEntity
  8
P-0000
  6
Continuous
 62
     3
100
AcDbLine
 10
2634.737563219739
 20
2170.603299490587
 30
0.0
 11
2634.737563219739
 21
2167.056018050874
 31
0.0
1001
ACME_LAYERS
1000
1
  0
LINE
  5
4FFF
330
1F
100
AcDbEntity
  8
P-0000
  6
Continuous
 62
     7
100
AcDbLine
 10
2634.737563219739
 20
2170.003299490588
 30
0.0
 11
2635.537563219738
 21
2170.003299490588
 31
0.0
1001
ACME_LAYERS
1000
1
  0
LINE
  5
5000
330
1F
100
AcDbEntity
  8
P-0000
  6
Continuous
 62
     3
100
AcDbLine
 10
2634.737563219739
 20
2170.603299490587
 30
0.0
 11
2634.737563219739
 21
2170.003299490588
 31
0.0
1001
ACME_LAYERS
1000
1
  0
LINE
  5
5001
330
1F
100
AcDbEntity
  8
P-0000
  6
Continuous
 62
     7
100
AcDbLine
 10
2635.537563219738
 20
2170.003299490588
 30
0.0
 11
2634.737563219739
 21
2170.603299490587
 31
0.0
1001
ACME_LAYERS
1000
1
  0
LINE
  5
5002
330
1F
100
AcDbEntity
  8
P-0000
  6
Continuous
 62
     7
100
AcDbLine
 10
2627.537563219738
 20
2170.003299490588
 30
0.0
 11
2627.537563219738
 21
2167.056018050874
 31
0.0
1001
ACME_LAYERS
1000
1
  0
LINE
  5
5003
330
1F
100
AcDbEntity
  8
P-0000
  6
STRICHPUNKT
 62
     3
100
AcDbLine
 10
2631.537563219738
 20
2167.056018050874
 30
0.0
 11
2631.537563219738
 21
2170.603299490587
 31
0.0
1001
ACME_LAYERS
1000
1
  0
LINE
  5
5004
330
1F
100
AcDbEntity
  8
P-0000
  6
Continuous
 62
     3
100
AcDbLine
 10
2628.337563219738
 20
2170.603299490587
 30
0.0
 11
2628.337563219738
 21
2167.056018050874
 31
0.0
1001
ACME_LAYERS
1000
1
  0
LINE
  5
5005
330
1F
100
AcDbEntity
  8
P-0000
  6
Continuous
 62
     3
100
AcDbLine
 10
2628.337563219738
 20
2170.603299490587
 30
0.0
 11
2628.337563219738
 21
2170.003299490588
 31
0.0
1001
ACME_LAYERS
1000
1
  0
LINE
  5
5006
330
1F
100
AcDbEntity
  8
P-0000
  6
Continuous
 62
     7
100
AcDbLine
 10
2627.537563219738
 20
2170.003299490588
 30
0.0
 11
2628.337563219738
 21
2170.003299490588
 31
0.0
1001
ACME_LAYERS
1000
1
  0
LINE
  5
5007
330
1F
100
AcDbEntity
  8
P-0000
  6
Continuous
 62
     7
100
AcDbLine
 10
2628.337563219738
 20
2170.603299490587
 30
0.0
 11
2627.537563219738
 21
2170.003299490588
 31
0.0
1001
ACME_LAYERS
1000
1
  0
LINE
  5
5008
330
1F
100
AcDbEntity
  8
P-0000
  6
Continuous
 62
     7
100
AcDbLine
 10
2631.537563219738
 20
2170.603299490587
 30
0.0
 11
2628.337563219738
 21
2170.603299490587
 31
0.0
1001
ACME_LAYERS
1000
1
  0
LINE
  5
5009
330
1F
100
AcDbEntity
  8
P-0000
  6
Continuous
 62
     7
100
AcDbLine
 10
2627.537563219739
 20
2167.056018050874
 30
0.0
 11
2634.737563219739
 21
2167.056018050874
 31
0.0
1001
ACME_LAYERS
1000
1
  0
LINE
  5
500A
330
1F
100
AcDbEntity
  8
P-0000
  6
Continuous
 62
     7
100
AcDbLine
 10
2634.737563219739
 20
2167.056018050874
 30
0.0
 11
2635.537563219739
 21
2167.056018050874
 31
0.0
1001
ACME_LAYERS
1000
1
  0
LINE
  5
500B
330
1F
100
AcDbEntity
  8
P-0000
  6
Continuous
 62
     7
100
AcDbLine
 10
2639.983261333159
 20
2160.956018050873
 30
0.0
 11
2639.983261333159
 21
2159.456018050875
 31
0.0
1001
ACME_LAYERS
1000
1
  0
LINE
  5
500C
330
1F
100
AcDbEntity
  8
P-0000
  6
Continuous
 62
     7
100
AcDbLine
 10
2622.983261333159
 20
2159.456018050875
 30
0.0
 11
2622.983261333159
 21
2160.956018050873
 31
0.0
1001
ACME_LAYERS
1000
1
  0
LINE
  5
500D
330
1F
100
AcDbEntity
  8
P-0000
  6
Continuous
 62
     7
100
AcDbLine
 10
2602.537563219739
 20
2156.956018050873
 30
0.0
 11
2602.609529382239
 21
2156.956018050873
 31
0.0
1001
ACME_LAYERS
1000
1
  0
LINE
  5
500E
330
1F
100
AcDbEntity
  8
P-0000
  6
Continuous
 62
     7
100
AcDbLine
 10
2639.983261333159
 20
2161.056018050874
 30
0.0
 11
2639.983261333159
 21
2160.956018050873
 31
0.0
1001
ACME_LAYERS
1000
1
  0
LINE
  5
500F
330
1F
100
AcDbEntity
  8
P-0000
  6
Continuous
 62
     7
100
AcDbLine
 10
2622.983261333159
 20
2161.056018050874
 30
0.0
 11
2639.983261333159
 21
2161.056018050874
 31
0.0
1001
ACME_LAYERS
1000
1
  0
LINE
  5
5010
330
1F
100
AcDbEntity
  8
P-0000
  6
Continuous
 62
     7
100
AcDbLine
 10
2622.983261333159
 20
2160.956018050873
 30
0.0
 11
2622.983261333159
 21
2161.056018050874
 31
0.0
1001
ACME_LAYERS
1000
1
  0
LINE
  5
5011
330
1F
100
AcDbEntity
  8
P-0000
  6
Continuous
 62
     7
100
AcDbLine
 10
2624.032009720273
 20
2162.942957242782
 30
0.0
 11
2624.032009720273
 21
2161.636574634474
 31
0.0
1001
ACME_LAYERS
1000
1
  0
LINE
  5
5012
330
1F
100
AcDbEntity
  8
P-0000
  6
Continuous
 62
     7
100
AcDbLine
 10
2638.037563219739
 20
2161.056018050874
 30
0.0
 11
2625.03756321974
 21
2161.056018050874
 31
0.0
1001
ACME_LAYERS
1000
1
  0
LINE
  5
5013
330
1F
100
AcDbEntity
  8
P-0000
  6
Continuous
 62
     7
100
AcDbLine
 10
2639.043116719204
 20
2162.942957242782
 30
0.0
 11
2639.043116719204
 21
2161.636574634474
 31
0.0
1001
ACME_LAYERS
1000
1
  0
LINE
  5
5014
330
1F
100
AcDbEntity
  8
P-0000
  6
Continuous
 62
     7
100
AcDbLine
 10
2635.537563219739
 20
2167.056018050874
 30
0.0
 11
2638.037563219739
 21
2167.056018050874
 31
0.0
1001
ACME_LAYERS
1000
1
  0
LINE
  5
5015
330
1F
100
AcDbEntity
  8
P-0000
  6
Continuous
 62
     7
100
AcDbLine
 10
2624.27868130893
 20
2161.483161616507
 30
0.0
 11
2625.03756321974
 21
2161.056018050874
 31
0.0
1001
ACME_LAYERS
1000
1
  0
LINE
  5
5016
330
1F
100
AcDbEntity
  8
P-0000
  6
Continuous
 62
     7
100
AcDbLine
 10
2624.27868130893
 20
2166.628874485238
 30
0.0
 11
2625.03756321974
 21
2167.056018050874
 31
0.0
1001
ACME_LAYERS
1000
1
  0
LINE
  5
5017
330
1F
100
AcDbEntity
  8
P-0000
  6
Continuous
 62
     7
100
AcDbLine
 10
2638.796445130546
 20
2161.483161616507
 30
0.0
 11
2638.037563219739
 21
2161.056018050874
 31
0.0
1001
ACME_LAYERS
1000
1
  0
LINE
  5
5018
330
1F
100
AcDbEntity
  8
P-0000
  6
Continuous
 62
     7
100
AcDbLine
 10
2638.796445130546
 20
2166.628874485238
 30
0.0
 11
2638.037563219739
 21
2167.056018050874
 31
0.0
1001
ACME_LAYERS
1000
1
  0
LINE
  5
5019
330
1F
100
AcDbEntity
  8
P-0000
  6
Continuous
 62
     7
100
AcDbLine
 10
2625.03756321974
 20
2167.056018050874
 30
0.0
 11
2627.537563219739
 21
2167.056018050874
 31
0.0
1001
ACME_LAYERS
1000
1
  0
LINE
  5
501A
330
1F
100
AcDbEntity
  8
P-0000
  6
Continuous
 62
     7
100
AcDbLine
 10
2639.043116719204
 20
2166.475461467272
 30
0.0
 11
2639.043116719204
 21
2162.942957242782
 31
0.0
1001
ACME_LAYERS
1000
1
  0
LINE
  5
501B
330
1F
100
AcDbEntity
  8
P-0000
  6
Continuous
 62
     7
100
AcDbLine
 10
2635.290339969471
 20
2166.475461467272
 30
0.0
 11
2635.290339969471
 21
2161.056018050874
 31
0.0
1001
ACME_LAYERS
1000
1
  0
LINE
  5
501C
330
1F
100
AcDbEntity
  8
P-0000
  6
Continuous
 62
     7
100
AcDbLine
 10
2627.784786470006
 20
2166.475461467272
 30
0.0
 11
2627.784786470006
 21
2161.056018050874
 31
0.0
1001
ACME_LAYERS
1000
1
  0
LINE
  5
501D
330
1F
100
AcDbEntity
  8
P-0000
  6
Continuous
 62
     7
100
AcDbLine
 10
2624.032009720273
 20
2166.475461467272
 30
0.0
 11
2624.032009720273
 21
2162.942957242782
 31
0.0
1001
ACME_LAYERS
1000
1
  0
LINE
  5
501E
330
1F
100
AcDbEntity
  8
P-0000
  6
Continuous
 62
     7
100
AcDbLine
 10
2639.983261333159
 20
2159.456018050875
 30
0.0
 11
2635.537563219739
 21
2159.456018050875
 31
0.0
1001
ACME_LAYERS
1000
1
  0
LINE
  5
501F
330
1F
100
AcDbEntity
  8
P-0000
  6
Continuous
 62
     7
100
AcDbLine
 10
2622.983261333159
 20
2159.456018050875
 30
0.0
 11
2627.037563219737
 21
2159.456018050875
 31
0.0
1001
ACME_LAYERS
1000
1
  0
LINE
  5
5020
330
1F
100
AcDbEntity
  8
P-0000
  6
Continuous
 62
     7
100
AcDbLine
 10
2627.537563219739
 20
2157.456018050875
 30
0.0
 11
2627.037563219737
 21
2157.456018050875
 31
0.0
1001
ACME_LAYERS
1000
1
  0
LINE
  5
5021
330
1F
100
AcDbEntity
  8
P-0000
  6
Continuous
 62
     7
100
AcDbLine
 10
2628.337563219738
 20
2157.456018050875
 30
0.0
 11
2627.537563219739
 21
2157.456018050875
 31
0.0
1001
ACME_LAYERS
1000
1
  0
LINE
  5
5022
330
1F
100
AcDbEntity
  8
P-0000
  6
Continuous
 62
     7
100
AcDbLine
 10
2634.737563219739
 20
2157.456018050875
 30
0.0
 11
2628.337563219738
 21
2157.456018050875
 31
0.0
1001
ACME_LAYERS
1000
1
  0
LINE
  5
5023
330
1F
100
AcDbEntity
  8
P-0000
  6
Continuous
 62
     7
100
AcDbLine
 10
2635.537563219739
 20
2157.456018050875
 30
0.0
 11
2634.737563219739
 21
2157.456018050875
 31
0.0
1001
ACME_LAYERS
1000
1
  0
ARC
  5
5024
330
1F
100
AcDbEntity
  8
P-0000
  6
Continuous
 62
     7
100
AcDbCircle
 10
2631.537563219739
 20
2173.475461467271
 30
0.0
 40
12.41944341639904
100
AcDbArc
 50
252.4120462260087
 51
287.5879537739912
1001
ACME_LAYERS
1000
1
  0
ARC
  5
5025
330
1F
100
AcDbEntity
  8
P-0000
  6
Continuous
 62
     7
100
AcDbCircle
 10
2631.537563219739
 20
2154.636574634473
 30
0.0
 40
12.41944341639904
100
AcDbArc
 50
72.41204622600879
 51
107.5879537739912
1001
ACME_LAYERS
1000
1
  0
ARC
  5
5026
330
1F
100
AcDbEntity
  8
P-0000
  6
Continuous
 62
     7
100
AcDbCircle
 10
2625.908398095139
 20
2164.378587623823
 30
0.0
 40
3.322569572950221
100
AcDbArc
 50
240.6266206051669
 51
304.3842474680536
1001
ACME_LAYERS
1000
1
  0
ARC
  5
5027
330
1F
100
AcDbEntity
  8
P-0000
  6
Continuous
 62
     7
100
AcDbCircle
 10
2625.908398095138
 20
2163.733448477922
 30
0.0
 40
3.322569572950149
100
AcDbArc
 50
119.3733793948332
 51
124.3842474680534
1001
ACME_LAYERS
1000
1
  0
ARC
  5
5028
330
1F
100
AcDbEntity
  8
P-0000
  6
Continuous
 62
     7
100
AcDbCircle
 10
2637.166728344336
 20
2164.378587623823
 30
0.0
 40
3.322569572950221
100
AcDbArc
 50
299.3733793948331
 51
304.3842474680536
1001
ACME_LAYERS
1000
1
  0
ARC
  5
5029
330
1F
100
AcDbEntity
  8
P-0000
  6
Continuous
 62
     7
100
AcDbCircle
 10
2637.166728344336
 20
2163.733448477923
 30
0.0
 40
3.322569572949122
100
AcDbArc
 50
60.62662060516681
 51
124.3842474680229
1001
ACME_LAYERS
1000
1
  0
ARC
  5
502A
330
1F
100
AcDbEntity
  8
P-0000
  6
Continuous
 62
     7
100
AcDbCircle
 10
2625.908398095139
 20
2164.378587623823
 30
0.0
 40
3.322569572949876
100
AcDbArc
 50
235.6157525319464
 51
240.6266206051669
1001
ACME_LAYERS
1000
1
  0
ARC
  5
502B
330
1F
100
AcDbEntity
  8
P-0000
  6
Continuous
 62
     7
100
AcDbCircle
 10
2625.908398095139
 20
2163.733448477923
 30
0.0
 40
3.322569572949888
100
AcDbArc
 50
55.61575253194639
 51
119.3733793948332
1001
ACME_LAYERS
1000
1
  0
ARC
  5
502C
330
1F
100
AcDbEntity
  8
P-0000
  6
Continuous
 62
     7
100
AcDbCircle
 10
2637.166728344336
 20
2164.378587623823
 30
0.0
 40
3.322569572949872
100
AcDbArc
 50
235.6157525319771
 51
299.3733793948331
1001
ACME_LAYERS
1000
1
  0
ARC
  5
502D
330
1F
100
AcDbEntity
  8
P-0000
  6
Continuous
 62
     7
100
AcDbCircle
 10
2637.166728344336
 20
2163.733448477923
 30
0.0
 40
3.322569572949884
100
AcDbArc
 50
55.61575253194639
 51
60.62662060516681
1001
ACME_LAYERS
1000
1
  0
LINE
  5
502E
330
1F
100
AcDbEntity
  8
P-0000
  6
Continuous
 62
     7
100
AcDbLine
 10
2404.037563219738
 20
2157.456018050875
 30
0.0
 11
2409.448807621818
 21
2157.456018050875
 31
0.0
1001
ACME_LAYERS
1000
1
  0
LINE
  5
502F
330
1F
100
AcDbEntity
  8
P-0000
  6
Continuous
 62
     7
100
AcDbLine
 10
2394.037563219738
 20
2157.456018050875
 30
0.0
 11
2404.037563219738
 21
2157.456018050875
 31
0.0
1001
ACME_LAYERS
1000
1
  0
LINE
  5
5030
330
1F
100
AcDbEntity
  8
P-0000
  6
Continuous
 62
     7
100
AcDbLine
 10
2409.448807621818
 20
2157.456018050875
 30
0.0
 11
2411.448807621817
 21
2157.456018050875
 31
0.0
1001
ACME_LAYERS
1000
1
  0
LINE
  5
5031
330
1F
100
AcDbEntity
  8
P-0000
  6
Continuous
 62
     7
100
AcDbLine
 10
2385.037563219738
 20
2157.456018050875
 30
0.0
 11
2394.037563219738
 21
2157.456018050875
 31
0.0
1001
ACME_LAYERS
1000
1
  0
LINE
  5
5039
330
1F
100
AcDbEntity
  8
P-0000
  6
Continuous
 62
     7
100
AcDbLine
 10
2424.62580110894
 20
2156.956018050873
 30
0.0
 11
2429.071499222362
 21
2156.956018050873
 31
0.0
1001
ACME_LAYERS
1000
1
  0
LINE
  5
503A
330
1F
100
AcDbEntity
  8
P-0000
  6
Continuous
 62
     7
100
AcDbLine
 10
2441.62580110894
 20
2156.956018050873
 30
0.0
 11
2437.571499222363
 21
2156.956018050873
 31
0.0
1001
ACME_LAYERS
1000
1
  0
LINE
  5
503B
330
1F
100
AcDbEntity
  8
P-0000
  6
Continuous
 62
     7
100
AcDbLine
 10
2429.871499222362
 20
2156.956018050873
 30
0.0
 11
2437.571499222363
 21
2156.956018050873
 31
0.0
1001
ACME_LAYERS
1000
1
  0
LINE
  5
503C
330
1F
100
AcDbEntity
  8
P-0000
  6
Continuous
 62
     7
100
AcDbLine
 10
2429.071499222362
 20
2156.956018050873
 30
0.0
 11
2429.871499222362
 21
2156.956018050873
 31
0.0
1001
ACME_LAYERS
1000
1
  0
LINE
  5
503D
330
1F
100
AcDbEntity
  8
P-0000
  6
Continuous
 62
     7
100
AcDbLine
 10
2593.486169979401
 20
2167.438685743635
 30
0.0
 11
2593.486169979401
 21
2164.556018050871
 31
0.0
1001
ACME_LAYERS
1000
1
  0
LINE
  5
503E
330
1F
100
AcDbEntity
  8
P-0000
  6
Continuous
 62
     3
100
AcDbLine
 10
2594.286169979401
 20
2166.976805528282
 30
0.0
 11
2594.286169979401
 21
2164.556018050871
 31
0.0
1001
ACME_LAYERS
1000
1
  0
LINE
  5
503F
330
1F
100
AcDbEntity
  8
P-0000
  6
Continuous
 62
     7
100
AcDbLine
 10
2598.479096884603
 20
2164.556018050871
 30
0.0
 11
2594.286169979402
 21
2164.556018050871
 31
0.0
1001
ACME_LAYERS
1000
1
  0
LINE
  5
5040
330
1F
100
AcDbEntity
  8
P-0000
  6
Continuous
 62
     7
100
AcDbLine
 10
2594.286169979402
 20
2164.556018050871
 30
0.0
 11
2593.486169979401
 21
2164.556018050871
 31
0.0
1001
ACME_LAYERS
1000
1
  0
LINE
  5
5041
330
1F
100
AcDbEntity
  8
P-0000
  6
Continuous
 62
     7
100
AcDbLine
 10
2589.040471865982
 20
2158.456018050871
 30
0.0
 11
2589.040471865982
 21
2156.956018050873
 31
0.0
1001
ACME_LAYERS
1000
1
  0
LINE
  5
5042
330
1F
100
AcDbEntity
  8
P-0000
  6
Continuous
 62
     7
100
AcDbLine
 10
2606.040471865981
 20
2156.956018050873
 30
0.0
 11
2606.040471865981
 21
2158.456018050871
 31
0.0
1001
ACME_LAYERS
1000
1
  0
LINE
  5
5043
330
1F
100
AcDbEntity
  8
P-0000
  6
Continuous
 62
     7
100
AcDbLine
 10
2589.040471865982
 20
2158.556018050871
 30
0.0
 11
2589.040471865982
 21
2158.456018050871
 31
0.0
1001
ACME_LAYERS
1000
1
  0
LINE
  5
5044
330
1F
100
AcDbEntity
  8
P-0000
  6
Continuous
 62
     7
100
AcDbLine
 10
2606.040471865981
 20
2158.556018050871
 30
0.0
 11
2589.040471865982
 21
2158.556018050871
 31
0.0
1001
ACME_LAYERS
1000
1
  0
LINE
  5
5045
330
1F
100
AcDbEntity
  8
P-0000
  6
Continuous
 62
     7
100
AcDbLine
 10
2606.040471865981
 20
2158.456018050871
 30
0.0
 11
2606.040471865981
 21
2158.556018050871
 31
0.0
1001
ACME_LAYERS
1000
1
  0
LINE
  5
5046
330
1F
100
AcDbEntity
  8
P-0000
  6
Continuous
 62
     7
100
AcDbLine
 10
2604.991723478867
 20
2160.442957242778
 30
0.0
 11
2604.991723478867
 21
2159.136574634471
 31
0.0
1001
ACME_LAYERS
1000
1
  0
LINE
  5
5047
330
1F
100
AcDbEntity
  8
P-0000
  6
Continuous
 62
     7
100
AcDbLine
 10
2590.9861699794
 20
2158.556018050871
 30
0.0
 11
2603.986169979401
 21
2158.556018050871
 31
0.0
1001
ACME_LAYERS
1000
1
  0
LINE
  5
5048
330
1F
100
AcDbEntity
  8
P-0000
  6
Continuous
 62
     7
100
AcDbLine
 10
2589.980616479936
 20
2160.442957242778
 30
0.0
 11
2589.980616479936
 21
2159.136574634471
 31
0.0
1001
ACME_LAYERS
1000
1
  0
LINE
  5
5049
330
1F
100
AcDbEntity
  8
P-0000
  6
Continuous
 62
     7
100
AcDbLine
 10
2593.486169979401
 20
2164.556018050871
 30
0.0
 11
2590.9861699794
 21
2164.556018050871
 31
0.0
1001
ACME_LAYERS
1000
1
  0
LINE
  5
504A
330
1F
100
AcDbEntity
  8
P-0000
  6
Continuous
 62
     7
100
AcDbLine
 10
2601.238946729133
 20
2160.442957242778
 30
0.0
 11
2601.238946729133
 21
2159.136574634471
 31
0.0
1001
ACME_LAYERS
1000
1
  0
LINE
  5
504B
330
1F
100
AcDbEntity
  8
P-0000
  6
Continuous
 62
     7
100
AcDbLine
 10
2593.73339322967
 20
2160.442957242778
 30
0.0
 11
2593.73339322967
 21
2159.136574634471
 31
0.0
1001
ACME_LAYERS
1000
1
  0
LINE
  5
504C
330
1F
100
AcDbEntity
  8
P-0000
  6
Continuous
 62
     7
100
AcDbLine
 10
2604.745051890211
 20
2158.983161616506
 30
0.0
 11
2603.986169979401
 21
2158.556018050871
 31
0.0
1001
ACME_LAYERS
1000
1
  0
LINE
  5
504D
330
1F
100
AcDbEntity
  8
P-0000
  6
Continuous
 62
     7
100
AcDbLine
 10
2590.227288068593
 20
2158.983161616506
 30
0.0
 11
2590.9861699794
 21
2158.556018050871
 31
0.0
1001
ACME_LAYERS
1000
1
  0
LINE
  5
504E
330
1F
100
AcDbEntity
  8
P-0000
  6
Continuous
 62
     7
100
AcDbLine
 10
2590.227288068593
 20
2164.128874485236
 30
0.0
 11
2590.9861699794
 21
2164.556018050871
 31
0.0
1001
ACME_LAYERS
1000
1
  0
LINE
  5
504F
330
1F
100
AcDbEntity
  8
P-0000
  6
Continuous
 62
     7
100
AcDbLine
 10
2589.980616479936
 20
2163.97546146727
 30
0.0
 11
2589.980616479936
 21
2160.442957242778
 31
0.0
1001
ACME_LAYERS
1000
1
  0
LINE
  5
5050
330
1F
100
AcDbEntity
  8
P-0000
  6
Continuous
 62
     7
100
AcDbLine
 10
2593.73339322967
 20
2163.97546146727
 30
0.0
 11
2593.73339322967
 21
2160.442957242778
 31
0.0
1001
ACME_LAYERS
1000
1
  0
LINE
  5
5051
330
1F
100
AcDbEntity
  8
P-0000
  6
Continuous
 62
     7
100
AcDbLine
 10
2601.238946729133
 20
2162.96261800021
 30
0.0
 11
2601.238946729133
 21
2160.442957242778
 31
0.0
1001
ACME_LAYERS
1000
1
  0
LINE
  5
5052
330
1F
100
AcDbEntity
  8
P-0000
  6
Continuous
 62
     7
100
AcDbLine
 10
2604.991723478867
 20
2160.795951333542
 30
0.0
 11
2604.991723478867
 21
2160.442957242778
 31
0.0
1001
ACME_LAYERS
1000
1
  0
LINE
  5
5053
330
1F
100
AcDbEntity
  8
P-0000
  6
Continuous
 62
     7
100
AcDbLine
 10
2589.040471865982
 20
2156.956018050873
 30
0.0
 11
2593.486169979401
 21
2156.956018050873
 31
0.0
1001
ACME_LAYERS
1000
1
  0
LINE
  5
5054
330
1F
100
AcDbEntity
  8
P-0000
  6
Continuous
 62
     7
100
AcDbLine
 10
2606.040471865981
 20
2156.956018050873
 30
0.0
 11
2601.986169979404
 21
2156.956018050873
 31
0.0
1001
ACME_LAYERS
1000
1
  0
LINE
  5
5055
330
1F
100
AcDbEntity
  8
P-0000
  6
Continuous
 62
     7
100
AcDbLine
 10
2594.286169979402
 20
2156.956018050873
 30
0.0
 11
2601.986169979404
 21
2156.956018050873
 31
0.0
1001
ACME_LAYERS
1000
1
  0
LINE
  5
5056
330
1F
100
AcDbEntity
  8
P-0000
  6
Continuous
 62
     7
100
AcDbLine
 10
2593.486169979401
 20
2156.956018050873
 30
0.0
 11
2594.286169979402
 21
2156.956018050873
 31
0.0
1001
ACME_LAYERS
1000
1
  0
ARC
  5
5057
330
1F
100
AcDbEntity
  8
P-0000
  6
Continuous
 62
     7
100
AcDbCircle
 10
2597.4861699794
 20
2170.97546146727
 30
0.0
 40
12.41944341639904
100
AcDbArc
 50
252.4120462260087
 51
287.5879537739912
1001
ACME_LAYERS
1000
1
  0
ARC
  5
5058
330
1F
100
AcDbEntity
  8
P-0000
  6
Continuous
 62
     7
100
AcDbCircle
 10
2597.4861699794
 20
2152.136574634472
 30
0.0
 40
12.41944341639904
100
AcDbArc
 50
85.04168193072988
 51
107.5879537739912
1001
ACME_LAYERS
1000
1
  0
ARC
  5
5059
330
1F
100
AcDbEntity
  8
P-0000
  6
Continuous
 62
     7
100
AcDbCircle
 10
2603.115335104
 20
2161.878587623821
 30
0.0
 40
3.322569572950221
100
AcDbArc
 50
235.6157525319464
 51
299.3733793948331
1001
ACME_LAYERS
1000
1
  0
ARC
  5
505A
330
1F
100
AcDbEntity
  8
P-0000
  6
Continuous
 62
     7
100
AcDbCircle
 10
2591.857004854803
 20
2161.878587623821
 30
0.0
 40
3.322569572950221
100
AcDbArc
 50
235.6157525319464
 51
240.6266206051669
1001
ACME_LAYERS
1000
1
  0
ARC
  5
505B
330
1F
100
AcDbEntity
  8
P-0000
  6
Continuous
 62
     7
100
AcDbCircle
 10
2591.857004854803
 20
2161.233448477921
 30
0.0
 40
3.322569572949122
100
AcDbArc
 50
55.61575253197712
 51
119.3733793948332
1001
ACME_LAYERS
1000
1
  0
ARC
  5
505C
330
1F
100
AcDbEntity
  8
P-0000
  6
Continuous
 62
     7
100
AcDbCircle
 10
2603.115335104
 20
2161.878587623821
 30
0.0
 40
3.322569572949876
100
AcDbArc
 50
299.3733793948331
 51
304.3842474680536
1001
ACME_LAYERS
1000
1
  0
ARC
  5
505D
330
1F
100
AcDbEntity
  8
P-0000
  6
Continuous
 62
     7
100
AcDbCircle
 10
2591.857004854803
 20
2161.878587623821
 30
0.0
 40
3.322569572949872
100
AcDbArc
 50
240.6266206051669
 51
304.3842474680229
1001
ACME_LAYERS
1000
1
  0
ARC
  5
505E
330
1F
100
AcDbEntity
  8
P-0000
  6
Continuous
 62
     7
100
AcDbCircle
 10
2591.857004854803
 20
2161.233448477921
 30
0.0
 40
3.322569572949884
100
AcDbArc
 50
119.3733793948332
 51
124.3842474680534
1001
ACME_LAYERS
1000
1
  0
HATCH
  5
5091
330
1F
100
AcDbEntity
  8
P-0000
  6
Continuous
 62
     1
100
AcDbHatch
 10
0.0
 20
0.0
 30
0.0
210
0.0
220
0.0
230
1.0
  2
_U
 70
     0
 71
     0
 91
        1
 92
        1
 93
       16
 72
     1
 10
2599.787563219746
 20
2176.450366752444
 11
2599.787563219746
 21
2176.401195169462
 72
     1
 10
2599.787563219746
 20
2176.401195169462
 11
2600.287563219746
 21
2176.401195169462
 72
     1
 10
2600.287563219746
 20
2176.401195169462
 11
2600.287563219745
 21
2174.450366752444
 72
     1
 10
2600.287563219745
 20
2174.450366752444
 11
2607.34845438806
 21
2174.450366752444
 72
     2
 10
2607.34845438806
 20
2173.950366752444
 40
0.5
 50
270.0
 51
360.0
 73
     0
 72
     1
 10
2607.848454388061
 20
2173.950366752444
 11
2607.848454388061
 21
2161.456018050875
 72
     2
 10
2611.848454388061
 20
2161.456018050875
 40
4.000000000000068
 50
180.0
 51
270.0
 73
     1
 72
     1
 10
2611.848454388061
 20
2157.456018050875
 11
2626.537563219738
 21
2157.456018050875
 72
     1
 10
2626.537563219738
 20
2157.456018050875
 11
2626.537563219738
 21
2159.456018050875
 72
     1
 10
2626.537563219738
 20
2159.456018050875
 11
2611.787563219746
 21
2159.456018050875
 72
     2
 10
2611.787563219746
 20
2161.456018050875
 40
1.999999999999999
 50
90.0
 51
180.0
 73
     0
 72
     1
 10
2609.787563219746
 20
2161.456018050875
 11
2609.787563219746
 21
2178.950366752443
 72
     1
 10
2609.787563219746
 20
2178.950366752443
 11
2607.787563219746
 21
2178.950366752443
 72
     1
 10
2607.787563219746
 20
2178.950366752443
 11
2607.787563219746
 21
2176.950366752445
 72
     2
 10
2607.287563219747
 20
2176.950366752445
 40
0.5
 50
360.0
 51
450.0
 73
     0
 72
     1
 10
2607.287563219747
 20
2176.450366752444
 11
2599.787563219746
 21
2176.450366752444
 97
        0
 75
     0
 76
     0
 52
-45.0
 41
2.0
 77
     0
 78
     1
 53
315.0
 43
2640.726672051431
 44
1668.034698409346
 45
1.414213562373094
 46
1.414213562373094
 79
     0
 98
        1
 10
2640.726672051431
 20
1668.034698409346
1001
ACME_LAYERS
1000
1
  0
LINE
  5
5092
330
1F
100
AcDbEntity
  8
P-0000
  6
Continuous
 62
     7
100
AcDbLine
 10
2579.787563219738
 20
2178.950366752443
 30
0.0
 11
2582.56326623461
 21
2178.950366752443
 31
0.0
1001
ACME_LAYERS
1000
1
  0
LINE
  5
5093
330
1F
100
AcDbEntity
  8
P-0000
  6
Continuous
 62
     7
100
AcDbLine
 10
2599.249842762865
 20
2178.950366752443
 30
0.0
 11
2607.787563219746
 21
2178.950366752443
 31
0.0
1001
ACME_LAYERS
1000
1
  0
LINE
  5
5094
330
1F
100
AcDbEntity
  8
P-0000
  6
Continuous
 62
     7
100
AcDbLine
 10
2581.341582225676
 20
2174.450366752444
 30
0.0
 11
2609.848454388061
 21
2157.991916435737
 31
0.0
1001
ACME_LAYERS
1000
1
  0
LINE
  5
5095
330
1F
100
AcDbEntity
  8
P-0000
  6
Continuous
 62
     7
100
AcDbLine
 10
2607.34845438806
 20
2174.450366752444
 30
0.0
 11
2600.287563219745
 21
2174.450366752444
 31
0.0
1001
ACME_LAYERS
1000
1
  0
LINE
  5
5096
330
1F
100
AcDbEntity
  8
P-0000
  6
Continuous
 62
     7
100
AcDbLine
 10
2599.787563219746
 20
2176.450366752444
 30
0.0
 11
2607.287563219747
 21
2176.450366752444
 31
0.0
1001
ACME_LAYERS
1000
1
  0
LINE
  5
5098
330
1F
100
AcDbEntity
  8
P-0000
  6
Continuous
 62
     7
100
AcDbLine
 10
2514.797323451467
 20
2178.950366752443
 30
0.0
 11
2579.787563219738
 21
2178.950366752443
 31
0.0
1001
ACME_LAYERS
1000
1
  0
LINE
  5
5099
330
1F
100
AcDbEntity
  8
P-0000
  6
Continuous
 62
     7
100
AcDbLine
 10
2514.797323451467
 20
2176.450366752444
 30
0.0
 11
2569.787563219747
 21
2176.450366752444
 31
0.0
1001
ACME_LAYERS
1000
1
  0
LINE
  5
509A
330
1F
100
AcDbEntity
  8
P-0000
  6
Continuous
 62
     7
100
AcDbLine
 10
2524.787563219755
 20
2174.450366752444
 30
0.0
 11
2575.787563219738
 21
2174.450366752444
 31
0.0
1001
ACME_LAYERS
1000
1
  0
LINE
  5
509D
330
1F
100
AcDbEntity
  8
P-0000
  6
Continuous
 62
     7
100
AcDbLine
 10
2515.797323451483
 20
2176.450366752444
 30
0.0
 11
2524.779579027284
 21
2176.450366752444
 31
0.0
1001
ACME_LAYERS
1000
1
  0
LINE
  5
509E
330
1F
100
AcDbEntity
  8
P-0000
  6
STRICHPUNKT
 62
     3
100
AcDbLine
 10
2514.777802988025
 20
2174.450366752444
 30
0.0
 11
2514.777802988025
 21
2176.450366752444
 31
0.0
1001
ACME_LAYERS
1000
1
  0
LINE
  5
509F
330
1F
100
AcDbEntity
  8
P-0000
  6
STRICHPUNKT
 62
     3
100
AcDbLine
 10
2514.797323451483
 20
2176.450366752444
 30
0.0
 11
2514.797323451483
 21
2174.450366752444
 31
0.0
1001
ACME_LAYERS
1000
1
  0
LINE
  5
50A0
330
1F
100
AcDbEntity
  8
P-0000
  6
Continuous
 62
     7
100
AcDbLine
 10
2514.797323451483
 20
2176.450366752444
 30
0.0
 11
2515.797323451483
 21
2176.450366752444
 31
0.0
1001
ACME_LAYERS
1000
1
  0
HATCH
  5
50A8
330
1F
100
AcDbEntity
  8
P-0000
  6
Continuous
 62
     1
100
AcDbHatch
 10
0.0
 20
0.0
 30
0.0
210
0.0
220
0.0
230
1.0
  2
_U
 70
     0
 71
     0
 91
        1
 92
        1
 93
       11
 72
     1
 10
2580.287563219738
 20
2176.450366752444
 11
2591.787563219746
 21
2176.450366752444
 72
     1
 10
2591.787563219746
 20
2176.450366752444
 11
2591.787563219746
 21
2174.450366752444
 72
     1
 10
2591.787563219746
 20
2174.450366752444
 11
2581.341582225676
 21
2174.450366752444
 72
     1
 10
2581.341582225676
 20
2174.450366752444
 11
2575.787563219738
 21
2174.450366752444
 72
     1
 10
2575.787563219738
 20
2174.450366752444
 11
2575.787563219738
 21
2176.450366752444
 72
     1
 10
2575.787563219738
 20
2176.450366752444
 11
2577.287563219738
 21
2176.450366752444
 72
     2
 10
2577.287563219738
 20
2176.950366752445
 40
0.5
 50
-90.00000000000001
 51
-0.0000000000000127
 73
     1
 72
     1
 10
2577.787563219738
 20
2176.950366752445
 11
2577.787563219738
 21
2178.950366752443
 72
     1
 10
2577.787563219738
 20
2178.950366752443
 11
2579.787563219738
 21
2178.950366752443
 72
     1
 10
2579.787563219738
 20
2178.950366752443
 11
2579.787563219738
 21
2176.950366752445
 72
     2
 10
2580.287563219738
 20
2176.950366752445
 40
0.5
 50
180.0
 51
270.0
 73
     1
 97
        0
 75
     0
 76
     0
 52
-45.0
 41
2.0
 77
     0
 78
     1
 53
315.0
 43
2286.107967934649
 44
2236.994757625023
 45
1.414213562373094
 46
1.414213562373094
 79
     0
 98
        1
 10
2640.726672051431
 20
1668.034698409346
1001
ACME_LAYERS
1000
1
  0
LINE
  5
50A9
330
1F
100
AcDbEntity
  8
P-0000
  6
Continuous
 62
     7
100
AcDbLine
 10
2580.287563219738
 20
2176.450366752444
 30
0.0
 11
2591.787563219746
 21
2176.450366752444
 31
0.0
1001
ACME_LAYERS
1000
1
  0
LINE
  5
50AA
330
1F
100
AcDbEntity
  8
P-0000
  6
Continuous
 62
     7
100
AcDbLine
 10
2575.787563219738
 20
2174.450366752444
 30
0.0
 11
2581.341582225676
 21
2174.450366752444
 31
0.0
1001
ACME_LAYERS
1000
1
  0
LINE
  5
50AB
330
1F
100
AcDbEntity
  8
P-0000
  6
Continuous
 62
     7
100
AcDbLine
 10
2569.787563219747
 20
2176.450366752444
 30
0.0
 11
2575.787563219738
 21
2176.450366752444
 31
0.0
1001
ACME_LAYERS
1000
1
  0
LINE
  5
50AC
330
1F
100
AcDbEntity
  8
P-0000
  6
Continuous
 62
     7
100
AcDbLine
 10
2575.787563219738
 20
2174.450366752444
 30
0.0
 11
2575.787563219738
 21
2176.450366752444
 31
0.0
1001
ACME_LAYERS
1000
1
  0
LINE
  5
50AD
330
1F
100
AcDbEntity
  8
P-0000
  6
Continuous
 62
     7
100
AcDbLine
 10
2575.787563219738
 20
2176.450366752444
 30
0.0
 11
2577.287563219738
 21
2176.450366752444
 31
0.0
1001
ACME_LAYERS
1000
1
  0
LINE
  5
50AE
330
1F
100
AcDbEntity
  8
P-0000
  6
Continuous
 62
     7
100
AcDbLine
 10
2579.787563219738
 20
2176.950366752445
 30
0.0
 11
2579.787563219738
 21
2178.950366752443
 31
0.0
1001
ACME_LAYERS
1000
1
  0
LINE
  5
50AF
330
1F
100
AcDbEntity
  8
P-0000
  6
Continuous
 62
     7
100
AcDbLine
 10
2577.787563219738
 20
2176.950366752445
 30
0.0
 11
2577.787563219738
 21
2178.950366752443
 31
0.0
1001
ACME_LAYERS
1000
1
  0
LINE
  5
50B0
330
1F
100
AcDbEntity
  8
P-0000
  6
Continuous
 62
     7
100
AcDbLine
 10
2579.787563219738
 20
2178.950366752443
 30
0.0
 11
2577.787563219738
 21
2178.950366752443
 31
0.0
1001
ACME_LAYERS
1000
1
  0
ARC
  5
50B1
330
1F
100
AcDbEntity
  8
P-0000
  6
Continuous
 62
     7
100
AcDbCircle
 10
2580.287563219738
 20
2176.950366752445
 30
0.0
 40
0.5
100
AcDbArc
 50
180.0
 51
270.0
1001
ACME_LAYERS
1000
1
  0
ARC
  5
50B2
330
1F
100
AcDbEntity
  8
P-0000
  6
Continuous
 62
     7
100
AcDbCircle
 10
2577.287563219738
 20
2176.950366752445
 30
0.0
 40
0.5
100
AcDbArc
 50
270.0
 51
0.0
1001
ACME_LAYERS
1000
1
  0
LINE
  5
50B3
330
1F
100
AcDbEntity
  8
P-0000
  6
Continuous
 62
     7
100
AcDbLine
 10
2595.498393824807
 20
2174.450366752444
 30
0.0
 11
2591.787563219746
 21
2174.450366752444
 31
0.0
1001
ACME_LAYERS
1000
1
  0
LINE
  5
50B4
330
1F
100
AcDbEntity
  8
P-0000
  6
Continuous
 62
     7
100
AcDbLine
 10
2591.787563219746
 20
2176.450366752444
 30
0.0
 11
2599.787563219746
 21
2176.450366752444
 31
0.0
1001
ACME_LAYERS
1000
1
  0
LINE
  5
50B5
330
1F
100
AcDbEntity
  8
P-0000
  6
Continuous
 62
     7
100
AcDbLine
 10
2591.787563219746
 20
2174.450366752444
 30
0.0
 11
2581.341582225676
 21
2174.450366752444
 31
0.0
1001
ACME_LAYERS
1000
1
  0
LINE
  5
50B6
330
1F
100
AcDbEntity
  8
P-0000
  6
Continuous
 62
     7
100
AcDbLine
 10
2591.787563219746
 20
2176.450366752444
 30
0.0
 11
2591.787563219746
 21
2174.450366752444
 31
0.0
1001
ACME_LAYERS
1000
1
  0
LINE
  5
50B7
330
1F
100
AcDbEntity
  8
P-0000
  6
Continuous
 62
     7
100
AcDbLine
 10
2597.297323451468
 20
2176.450366752444
 30
0.0
 11
2598.297323451468
 21
2176.450366752444
 31
0.0
1001
ACME_LAYERS
1000
1
  0
LINE
  5
50B8
330
1F
100
AcDbEntity
  8
P-0000
  6
Continuous
 62
     7
100
AcDbLine
 10
2597.297323451468
 20
2176.450366752444
 30
0.0
 11
2598.297323451468
 21
2176.450366752444
 31
0.0
1001
ACME_LAYERS
1000
1
  0
LINE
  5
50B9
330
1F
100
AcDbEntity
  8
P-0000
  6
Continuous
 62
     7
100
AcDbLine
 10
2636.537563219737
 20
2159.456018050875
 30
0.0
 11
2626.537563219738
 21
2159.456018050875
 31
0.0
1001
ACME_LAYERS
1000
1
  0
LINE
  5
50BA
330
1F
100
AcDbEntity
  8
P-0000
  6
Continuous
 62
     7
100
AcDbLine
 10
2636.537563219737
 20
2157.456018050875
 30
0.0
 11
2626.537563219738
 21
2157.456018050875
 31
0.0
1001
ACME_LAYERS
1000
1
  0
LINE
  5
50BB
330
1F
100
AcDbEntity
  8
P-0000
  6
Continuous
 62
     7
100
AcDbLine
 10
2607.848454388061
 20
2161.456018050875
 30
0.0
 11
2607.848454388061
 21
2173.950366752444
 31
0.0
1001
ACME_LAYERS
1000
1
  0
LINE
  5
50BC
330
1F
100
AcDbEntity
  8
P-0000
  6
Continuous
 62
     7
100
AcDbLine
 10
2609.787563219746
 20
2161.456018050875
 30
0.0
 11
2609.787563219746
 21
2176.450366752444
 31
0.0
1001
ACME_LAYERS
1000
1
  0
LINE
  5
50BD
330
1F
100
AcDbEntity
  8
P-0000
  6
Continuous
 62
     7
100
AcDbLine
 10
2619.599255017301
 20
2159.456018050875
 30
0.0
 11
2609.787563219746
 21
2176.450366752444
 31
0.0
1001
ACME_LAYERS
1000
1
  0
LINE
  5
50BE
330
1F
100
AcDbEntity
  8
P-0000
  6
Continuous
 62
     7
100
AcDbLine
 10
2609.787563219746
 20
2178.950366752443
 30
0.0
 11
2607.787563219746
 21
2178.950366752443
 31
0.0
1001
ACME_LAYERS
1000
1
  0
LINE
  5
50BF
330
1F
100
AcDbEntity
  8
P-0000
  6
Continuous
 62
     7
100
AcDbLine
 10
2607.787563219746
 20
2178.950366752443
 30
0.0
 11
2607.787563219746
 21
2176.950366752445
 31
0.0
1001
ACME_LAYERS
1000
1
  0
ARC
  5
50C0
330
1F
100
AcDbEntity
  8
P-0000
  6
Continuous
 62
     7
100
AcDbCircle
 10
2607.287563219747
 20
2176.950366752445
 30
0.0
 40
0.5
100
AcDbArc
 50
270.0
 51
0.0
1001
ACME_LAYERS
1000
1
  0
ARC
  5
50C1
330
1F
100
AcDbEntity
  8
P-0000
  6
Continuous
 62
     7
100
AcDbCircle
 10
2607.34845438806
 20
2173.950366752444
 30
0.0
 40
0.5
100
AcDbArc
 50
0.0
 51
90.0
1001
ACME_LAYERS
1000
1
  0
LINE
  5
50C2
330
1F
100
AcDbEntity
  8
P-0000
  6
Continuous
 62
     7
100
AcDbLine
 10
2609.787563219746
 20
2178.950366752443
 30
0.0
 11
2609.787563219746
 21
2176.450366752444
 31
0.0
1001
ACME_LAYERS
1000
1
  0
LINE
  5
50C3
330
1F
100
AcDbEntity
  8
P-0000
  6
Continuous
 62
     7
100
AcDbLine
 10
2619.599255017301
 20
2159.456018050875
 30
0.0
 11
2611.787563219746
 21
2159.456018050875
 31
0.0
1001
ACME_LAYERS
1000
1
  0
LINE
  5
50C4
330
1F
100
AcDbEntity
  8
P-0000
  6
Continuous
 62
     7
100
AcDbLine
 10
2626.537563219738
 20
2157.456018050875
 30
0.0
 11
2611.848454388061
 21
2157.456018050875
 31
0.0
1001
ACME_LAYERS
1000
1
  0
ARC
  5
50C5
330
1F
100
AcDbEntity
  8
P-0000
  6
Continuous
 62
     7
100
AcDbCircle
 10
2611.787563219746
 20
2161.456018050875
 30
0.0
 40
2.0
100
AcDbArc
 50
180.0
 51
270.0
1001
ACME_LAYERS
1000
1
  0
ARC
  5
50C6
330
1F
100
AcDbEntity
  8
P-0000
  6
Continuous
 62
     7
100
AcDbCircle
 10
2611.848454388061
 20
2161.456018050875
 30
0.0
 40
4.0
100
AcDbArc
 50
180.0
 51
240.0000000000007
1001
ACME_LAYERS
1000
1
  0
ARC
  5
50C7
330
1F
100
AcDbEntity
  8
P-0000
  6
Continuous
 62
     7
100
AcDbCircle
 10
2611.848454388061
 20
2161.456018050875
 30
0.0
 40
4.000000000000031
100
AcDbArc
 50
240.0000000000007
 51
270.0
1001
ACME_LAYERS
1000
1
  0
LINE
  5
50C8
330
1F
100
AcDbEntity
  8
P-0000
  6
Continuous
 62
     7
100
AcDbLine
 10
2626.537563219738
 20
2159.456018050875
 30
0.0
 11
2619.599255017301
 21
2159.456018050875
 31
0.0
1001
ACME_LAYERS
1000
1
  0
LINE
  5
50C9
330
1F
100
AcDbEntity
  8
P-0000
  6
Continuous
 62
     7
100
AcDbLine
 10
2626.537563219738
 20
2157.456018050875
 30
0.0
 11
2626.537563219738
 21
2159.456018050875
 31
0.0
1001
ACME_LAYERS
1000
1
  0
HATCH
  5
50CA
330
1F
100
AcDbEntity
  8
P-0000
  6
Continuous
 62
     1
100
AcDbHatch
 10
0.0
 20
0.0
 30
0.0
210
0.0
220
0.0
230
1.0
  2
_U
 70
     0
 71
     0
 91
        1
 92
        1
 93
        4
 72
     1
 10
2641.537563219738
 20
2157.456018050875
 11
2636.537563219737
 21
2157.456018050875
 72
     1
 10
2636.537563219737
 20
2157.456018050875
 11
2636.537563219737
 21
2159.456018050875
 72
     1
 10
2636.537563219737
 20
2159.456018050875
 11
2641.537563219738
 21
2159.456018050875
 72
     1
 10
2641.537563219738
 20
2159.456018050875
 11
2641.537563219738
 21
2157.456018050875
 97
        0
 75
     0
 76
     0
 52
-45.0
 41
2.0
 77
     0
 78
     1
 53
315.0
 43
2640.726672051431
 44
1668.034698409346
 45
1.414213562373094
 46
1.414213562373094
 79
     0
 98
        1
 10
2640.726672051431
 20
1668.034698409346
1001
ACME_LAYERS
1000
1
  0
LINE
  5
50CB
330
1F
100
AcDbEntity
  8
P-0000
  6
Continuous
 62
     7
100
AcDbLine
 10
2641.537563219738
 20
2159.456018050875
 30
0.0
 11
2636.537563219737
 21
2159.456018050875
 31
0.0
1001
ACME_LAYERS
1000
1
  0
LINE
  5
50CC
330
1F
100
AcDbEntity
  8
P-0000
  6
Continuous
 62
     7
100
AcDbLine
 10
2641.537563219738
 20
2157.456018050875
 30
0.0
 11
2636.537563219737
 21
2157.456018050875
 31
0.0
1001
ACME_LAYERS
1000
1
  0
LINE
  5
50CD
330
1F
100
AcDbEntity
  8
P-0000
  6
Continuous
 62
     7
100
AcDbLine
 10
2636.537563219737
 20
2157.456018050875
 30
0.0
 11
2636.537563219737
 21
2159.456018050875
 31
0.0
1001
ACME_LAYERS
1000
1
  0
LINE
  5
50CE
330
1F
100
AcDbEntity
  8
P-0000
  6
Continuous
 62
     7
100
AcDbLine
 10
2641.537563219738
 20
2157.456018050875
 30
0.0
 11
2641.537563219738
 21
2159.456018050875
 31
0.0
1001
ACME_LAYERS
1000
1
  0
LINE
  5
50CF
330
1F
100
AcDbEntity
  8
P-0000
  6
Continuous
 62
     7
100
AcDbLine
 10
2516.287563219747
 20
2218.401195169462
 30
0.0
 11
2516.287563219747
 21
2182.401195169462
 31
0.0
1001
ACME_LAYERS
1000
1
  0
LINE
  5
50D0
330
1F
100
AcDbEntity
  8
P-0000
  6
Continuous
 62
     7
100
AcDbLine
 10
2591.235233630726
 20
2200.970324368751
 30
0.0
 11
2592.214022847012
 21
2198.281123098604
 31
0.0
1001
ACME_LAYERS
1000
1
  0
LINE
  5
50D1
330
1F
100
AcDbEntity
  8
P-0000
  6
Continuous
 62
     7
100
AcDbLine
 10
2582.563266234612
 20
2182.401195169462
 30
0.0
 11
2569.460337801026
 21
2218.401195169462
 31
0.0
1001
ACME_LAYERS
1000
1
  0
LINE
  5
50D2
330
1F
100
AcDbEntity
  8
P-0000
  6
Continuous
 62
     7
100
AcDbLine
 10
2516.287563219747
 20
2224.370844269094
 30
0.0
 11
2567.287563219746
 21
2224.370844269094
 31
0.0
1001
ACME_LAYERS
1000
1
  0
LINE
  5
50D3
330
1F
100
AcDbEntity
  8
P-0000
  6
Continuous
 62
     7
100
AcDbLine
 10
2516.287563219747
 20
2224.370844269094
 30
0.0
 11
2567.287563219746
 21
2224.370844269094
 31
0.0
1001
ACME_LAYERS
1000
1
  0
LINE
  5
50D4
330
1F
100
AcDbEntity
  8
P-0000
  6
Continuous
 62
     7
100
AcDbLine
 10
2562.657556141295
 20
2256.401195169462
 30
0.0
 11
2555.629468898909
 21
2256.401195169462
 31
0.0
1001
ACME_LAYERS
1000
1
  0
LINE
  5
50D5
330
1F
100
AcDbEntity
  8
P-0000
  6
Continuous
 62
     7
100
AcDbLine
 10
2568.287563219746
 20
2218.401195169462
 30
0.0
 11
2516.287563219747
 21
2218.401195169462
 31
0.0
1001
ACME_LAYERS
1000
1
  0
LINE
  5
50D6
330
1F
100
AcDbEntity
  8
P-0000
  6
Continuous
 62
     7
100
AcDbLine
 10
2561.089022412903
 20
2241.401195169461
 30
0.0
 11
2518.89172627578
 21
2241.401195169461
 31
0.0
1001
ACME_LAYERS
1000
1
  0
LINE
  5
50D7
330
1F
100
AcDbEntity
  8
P-0000
  6
Continuous
 62
     7
100
AcDbLine
 10
2516.287563219747
 20
2241.401195169461
 30
0.0
 11
2516.287563219747
 21
2224.370844269094
 31
0.0
1001
ACME_LAYERS
1000
1
  0
LINE
  5
50D8
330
1F
100
AcDbEntity
  8
P-0000
  6
Continuous
 62
     7
100
AcDbLine
 10
2553.501113353958
 20
2256.401195169462
 30
0.0
 11
2518.89172627578
 21
2256.401195169462
 31
0.0
1001
ACME_LAYERS
1000
1
  0
LINE
  5
50D9
330
1F
100
AcDbEntity
  8
P-0000
  6
Continuous
 62
     7
100
AcDbLine
 10
2518.89172627578
 20
2256.401195169462
 30
0.0
 11
2518.89172627578
 21
2241.401195169461
 31
0.0
1001
ACME_LAYERS
1000
1
  0
LINE
  5
50DA
330
1F
100
AcDbEntity
  8
P-0000
  6
Continuous
 62
     7
100
AcDbLine
 10
2518.89172627578
 20
2256.401195169462
 30
0.0
 11
2514.787563219746
 21
2256.401195169462
 31
0.0
1001
ACME_LAYERS
1000
1
  0
LINE
  5
50DB
330
1F
100
AcDbEntity
  8
P-0000
  6
Continuous
 62
     7
100
AcDbLine
 10
2518.89172627578
 20
2241.401195169461
 30
0.0
 11
2516.287563219747
 21
2241.401195169461
 31
0.0
1001
ACME_LAYERS
1000
1
  0
LINE
  5
50DC
330
1F
100
AcDbEntity
  8
P-0000
  6
Continuous
 62
     7
100
AcDbLine
 10
2516.287563219747
 20
2241.401195169461
 30
0.0
 11
2514.787563219746
 21
2241.401195169461
 31
0.0
1001
ACME_LAYERS
1000
1
  0
LINE
  5
50DD
330
1F
100
AcDbEntity
  8
P-0000
  6
Continuous
 62
     7
100
AcDbLine
 10
2514.787563219746
 20
2241.401195169461
 30
0.0
 11
2513.287563219746
 21
2241.401195169461
 31
0.0
1001
ACME_LAYERS
1000
1
  0
HATCH
  5
50DE
330
1F
100
AcDbEntity
  8
P-0000
  6
Continuous
 62
     1
100
AcDbHatch
 10
0.0
 20
0.0
 30
0.0
210
0.0
220
0.0
230
1.0
  2
_U
 70
     0
 71
     0
 91
        1
 92
        1
 93
        5
 72
     1
 10
2557.085349835976
 20
2252.401195169462
 11
2555.629468898909
 21
2256.401195169462
 72
     1
 10
2555.629468898909
 20
2256.401195169462
 11
2553.501113353958
 21
2256.401195169462
 72
     1
 10
2553.501113353958
 20
2256.401195169462
 11
2554.717509208446
 21
2253.059175026136
 72
     2
 10
2555.657201829232
 20
2253.401195169462
 40
1.000000000000015
 50
200.0000000000031
 51
270.0
 73
     1
 72
     1
 10
2555.657201829232
 20
2252.401195169462
 11
2557.085349835976
 21
2252.401195169462
 97
        0
 75
     0
 76
     0
 52
44.99999999999999
 41
1.0
 77
     0
 78
     1
 53
45.0
 43
2342.196535983686
 44
2294.899278201441
 45
-0.7071067811865474
 46
0.7071067811865479
 79
     0
 98
        1
 10
2640.736432283152
 20
1687.922339501108
1001
ACME_LAYERS
1000
1
  0
LINE
  5
50DF
330
1F
100
AcDbEntity
  8
P-0000
  6
Continuous
 62
     7
100
AcDbLine
 10
2554.717509208446
 20
2253.059175026137
 30
0.0
 11
2553.501113353958
 21
2256.401195169462
 31
0.0
1001
ACME_LAYERS
1000
1
  0
LINE
  5
50E0
330
1F
100
AcDbEntity
  8
P-0000
  6
Continuous
 62
     7
100
AcDbLine
 10
2557.085349835976
 20
2252.401195169462
 30
0.0
 11
2555.629468898909
 21
2256.401195169462
 31
0.0
1001
ACME_LAYERS
1000
1
  0
LINE
  5
50E1
330
1F
100
AcDbEntity
  8
P-0000
  6
Continuous
 62
     7
100
AcDbLine
 10
2555.629468898909
 20
2256.401195169462
 30
0.0
 11
2553.501113353958
 21
2256.401195169462
 31
0.0
1001
ACME_LAYERS
1000
1
  0
ARC
  5
50E2
330
1F
100
AcDbEntity
  8
P-0000
  6
Continuous
 62
     7
100
AcDbCircle
 10
2555.657201829232
 20
2253.401195169462
 30
0.0
 40
1.000000000000015
100
AcDbArc
 50
200.0000000000022
 51
270.0
1001
ACME_LAYERS
1000
1
  0
ARC
  5
50E3
330
1F
100
AcDbEntity
  8
P-0000
  6
Continuous
 62
     7
100
AcDbCircle
 10
2555.657201829232
 20
2253.401195169462
 30
0.0
 40
1.000000000000015
100
AcDbArc
 50
200.0000000000022
 51
270.0
1001
ACME_LAYERS
1000
1
  0
LINE
  5
50E4
330
1F
100
AcDbEntity
  8
P-0000
  6
Continuous
 62
     7
100
AcDbLine
 10
2557.085349835976
 20
2252.401195169462
 30
0.0
 11
2555.657201829232
 21
2252.401195169462
 31
0.0
1001
ACME_LAYERS
1000
1
  0
LINE
  5
50E5
330
1F
100
AcDbEntity
  8
P-0000
  6
Continuous
 62
     7
100
AcDbLine
 10
2514.787563219746
 20
2224.370844269094
 30
0.0
 11
2516.287563219747
 21
2224.370844269094
 31
0.0
1001
ACME_LAYERS
1000
1
  0
LINE
  5
50E6
330
1F
100
AcDbEntity
  8
P-0000
  6
Continuous
 62
     7
100
AcDbLine
 10
2514.787563219746
 20
2224.370844269094
 30
0.0
 11
2516.287563219747
 21
2224.370844269094
 31
0.0
1001
ACME_LAYERS
1000
1
  0
LINE
  5
50E7
330
1F
100
AcDbEntity
  8
P-0000
  6
Continuous
 62
     7
100
AcDbLine
 10
2516.287563219747
 20
2218.401195169462
 30
0.0
 11
2514.787563219746
 21
2218.401195169462
 31
0.0
1001
ACME_LAYERS
1000
1
  0
LINE
  5
50E8
330
1F
100
AcDbEntity
  8
P-0000
  6
Continuous
 62
     7
100
AcDbLine
 10
2573.933867590727
 20
2248.505436889371
 30
0.0
 11
2591.235233630726
 21
2200.970324368751
 31
0.0
1001
ACME_LAYERS
1000
1
  0
LINE
  5
50E9
330
1F
100
AcDbEntity
  8
P-0000
  6
Continuous
 62
     7
100
AcDbLine
 10
2567.287563219746
 20
2224.370844269094
 30
0.0
 11
2561.089022412903
 21
2241.401195169461
 31
0.0
1001
ACME_LAYERS
1000
1
  0
ARC
  5
50EA
330
1F
100
AcDbEntity
  8
P-0000
  6
Continuous
 62
     7
100
AcDbCircle
 10
2562.657556141295
 20
2244.401195169462
 30
0.0
 40
11.99999999999995
100
AcDbArc
 50
19.99999999998924
 51
90.0
1001
ACME_LAYERS
1000
1
  0
HATCH
  5
50EB
330
1F
100
AcDbEntity
  8
P-0000
  6
Continuous
 62
     3
100
AcDbHatch
 10
0.0
 20
0.0
 30
0.0
210
0.0
220
0.0
230
1.0
  2
_U
 70
     0
 71
     0
 91
        1
 92
        1
 93
        4
 72
     1
 10
2569.460337801026
 20
2218.401195169462
 11
2567.287563219746
 21
2224.370844269094
 72
     1
 10
2567.287563219746
 20
2224.370844269094
 11
2567.287563219746
 21
2219.401195169462
 72
     2
 10
2568.287563219746
 20
2219.401195169462
 40
1.0
 50
180.0
 51
270.0
 73
     1
 72
     1
 10
2568.287563219746
 20
2218.401195169462
 11
2569.460337801026
 21
2218.401195169462
 97
        0
 75
     0
 76
     0
 52
44.99999999999999
 41
1.0
 77
     0
 78
     1
 53
45.0
 43
2640.736432283152
 44
1687.922339501108
 45
-0.7071067811865474
 46
0.7071067811865479
 79
     0
 98
        1
 10
2640.736432283152
 20
1687.922339501108
1001
ACME_LAYERS
1000
1
  0
LINE
  5
50EC
330
1F
100
AcDbEntity
  8
P-0000
  6
Continuous
 62
     7
100
AcDbLine
 10
2569.460337801026
 20
2218.401195169462
 30
0.0
 11
2568.287563219746
 21
2218.401195169462
 31
0.0
1001
ACME_LAYERS
1000
1
  0
LINE
  5
50ED
330
1F
100
AcDbEntity
  8
P-0000
  6
Continuous
 62
     7
100
AcDbLine
 10
2569.460337801026
 20
2218.401195169462
 30
0.0
 11
2567.287563219746
 21
2224.370844269094
 31
0.0
1001
ACME_LAYERS
1000
1
  0
LINE
  5
50EE
330
1F
100
AcDbEntity
  8
P-0000
  6
Continuous
 62
     7
100
AcDbLine
 10
2567.287563219746
 20
2219.401195169462
 30
0.0
 11
2567.287563219746
 21
2224.370844269094
 31
0.0
1001
ACME_LAYERS
1000
1
  0
LINE
  5
50EF
330
1F
100
AcDbEntity
  8
P-0000
  6
Continuous
 62
     7
100
AcDbLine
 10
2567.287563219746
 20
2219.401195169462
 30
0.0
 11
2567.287563219746
 21
2224.370844269094
 31
0.0
1001
ACME_LAYERS
1000
1
  0
ARC
  5
50F0
330
1F
100
AcDbEntity
  8
P-0000
  6
Continuous
 62
     7
100
AcDbCircle
 10
2568.287563219746
 20
2219.401195169462
 30
0.0
 40
1.0
100
AcDbArc
 50
180.0
 51
270.0
1001
ACME_LAYERS
1000
1
  0
ARC
  5
50F1
330
1F
100
AcDbEntity
  8
P-0000
  6
Continuous
 62
     7
100
AcDbCircle
 10
2568.287563219746
 20
2219.401195169462
 30
0.0
 40
1.0
100
AcDbArc
 50
180.0
 51
270.0
1001
ACME_LAYERS
1000
1
  0
LINE
  5
50F2
330
1F
100
AcDbEntity
  8
P-0000
  6
Continuous
 62
     7
100
AcDbLine
 10
2516.287563219747
 20
2182.401195169462
 30
0.0
 11
2582.563266234612
 21
2182.401195169462
 31
0.0
1001
ACME_LAYERS
1000
1
  0
LINE
  5
50F3
330
1F
100
AcDbEntity
  8
P-0000
  6
Continuous
 62
     7
100
AcDbLine
 10
2516.287563219747
 20
2182.401195169462
 30
0.0
 11
2582.563266234612
 21
2182.401195169462
 31
0.0
1001
ACME_LAYERS
1000
1
  0
LINE
  5
50F4
330
1F
100
AcDbEntity
  8
P-0000
  6
Continuous
 62
     7
100
AcDbLine
 10
2516.287563219747
 20
2182.401195169462
 30
0.0
 11
2582.563266234612
 21
2182.401195169462
 31
0.0
1001
ACME_LAYERS
1000
1
  0
LINE
  5
50F5
330
1F
100
AcDbEntity
  8
P-0000
  6
Continuous
 62
     7
100
AcDbLine
 10
2582.563266234612
 20
2176.401195169462
 30
0.0
 11
2516.287563219747
 21
2176.401195169462
 31
0.0
1001
ACME_LAYERS
1000
1
  0
LINE
  5
50F6
330
1F
100
AcDbEntity
  8
P-0000
  6
Continuous
 62
     7
100
AcDbLine
 10
2514.787563219746
 20
2182.401195169462
 30
0.0
 11
2516.287563219747
 21
2182.401195169462
 31
0.0
1001
ACME_LAYERS
1000
1
  0
LINE
  5
50F7
330
1F
100
AcDbEntity
  8
P-0000
  6
Continuous
 62
     7
100
AcDbLine
 10
2514.787563219746
 20
2182.401195169462
 30
0.0
 11
2516.287563219747
 21
2182.401195169462
 31
0.0
1001
ACME_LAYERS
1000
1
  0
LINE
  5
50F8
330
1F
100
AcDbEntity
  8
P-0000
  6
Continuous
 62
     7
100
AcDbLine
 10
2514.787563219746
 20
2182.401195169462
 30
0.0
 11
2516.287563219747
 21
2182.401195169462
 31
0.0
1001
ACME_LAYERS
1000
1
  0
LINE
  5
50F9
330
1F
100
AcDbEntity
  8
P-0000
  6
Continuous
 62
     7
100
AcDbLine
 10
2516.287563219747
 20
2176.401195169462
 30
0.0
 11
2514.787563219746
 21
2176.401195169462
 31
0.0
1001
ACME_LAYERS
1000
1
  0
LINE
  5
50FA
330
1F
100
AcDbEntity
  8
P-0000
  6
Continuous
 62
     7
100
AcDbLine
 10
2592.214022847012
 20
2198.281123098604
 30
0.0
 11
2599.787563219746
 21
2177.472991939187
 31
0.0
1001
ACME_LAYERS
1000
1
  0
LINE
  5
50FB
330
1F
100
AcDbEntity
  8
P-0000
  6
Continuous
 62
     7
100
AcDbLine
 10
2593.787563219746
 20
2176.401195169462
 30
0.0
 11
2585.563266234611
 21
2176.401195169462
 31
0.0
1001
ACME_LAYERS
1000
1
  0
LINE
  5
50FC
330
1F
100
AcDbEntity
  8
P-0000
  6
Continuous
 62
     7
100
AcDbLine
 10
2585.563266234611
 20
2176.401195169462
 30
0.0
 11
2585.563266234611
 21
2182.401195169462
 31
0.0
1001
ACME_LAYERS
1000
1
  0
LINE
  5
50FD
330
1F
100
AcDbEntity
  8
P-0000
  6
Continuous
 62
     7
100
AcDbLine
 10
2582.563266234612
 20
2176.401195169462
 30
0.0
 11
2582.563266234612
 21
2182.401195169462
 31
0.0
1001
ACME_LAYERS
1000
1
  0
LINE
  5
50FE
330
1F
100
AcDbEntity
  8
P-0000
  6
Continuous
 62
     7
100
AcDbLine
 10
2582.563266234612
 20
2182.401195169462
 30
0.0
 11
2585.563266234611
 21
2182.401195169462
 31
0.0
1001
ACME_LAYERS
1000
1
  0
LINE
  5
50FF
330
1F
100
AcDbEntity
  8
P-0000
  6
Continuous
 62
     7
100
AcDbLine
 10
2582.563266234612
 20
2182.401195169462
 30
0.0
 11
2585.563266234611
 21
2182.401195169462
 31
0.0
1001
ACME_LAYERS
1000
1
  0
LINE
  5
5100
330
1F
100
AcDbEntity
  8
P-0000
  6
Continuous
 62
     7
100
AcDbLine
 10
2585.563266234611
 20
2176.401195169462
 30
0.0
 11
2582.563266234612
 21
2176.401195169462
 31
0.0
1001
ACME_LAYERS
1000
1
  0
LINE
  5
5101
330
1F
100
AcDbEntity
  8
P-0000
  6
Continuous
 62
     7
100
AcDbLine
 10
2600.287563219746
 20
2174.201195169462
 30
0.0
 11
2600.287563219746
 21
2176.401195169462
 31
0.0
1001
ACME_LAYERS
1000
1
  0
LINE
  5
5102
330
1F
100
AcDbEntity
  8
P-0000
  6
Continuous
 62
     7
100
AcDbLine
 10
2599.011332953197
 20
2170.444627400671
 30
0.0
 11
2593.787563219746
 21
2176.401195169462
 31
0.0
1001
ACME_LAYERS
1000
1
  0
LINE
  5
5103
330
1F
100
AcDbEntity
  8
P-0000
  6
Continuous
 62
     7
100
AcDbLine
 10
2599.787563219746
 20
2176.401195169462
 30
0.0
 11
2599.787563219746
 21
2177.472991939187
 31
0.0
1001
ACME_LAYERS
1000
1
  0
LINE
  5
5104
330
1F
100
AcDbEntity
  8
P-0000
  6
Continuous
 62
     7
100
AcDbLine
 10
2600.287563219746
 20
2176.401195169462
 30
0.0
 11
2599.787563219746
 21
2176.401195169462
 31
0.0
1001
ACME_LAYERS
1000
1
  0
LINE
  5
5105
330
1F
100
AcDbEntity
  8
P-0000
  6
Continuous
 62
     7
100
AcDbLine
 10
2599.787563219746
 20
2176.401195169462
 30
0.0
 11
2599.787563219746
 21
2177.472991939187
 31
0.0
1001
ACME_LAYERS
1000
1
  0
LINE
  5
5106
330
1F
100
AcDbEntity
  8
P-0000
  6
Continuous
 62
     7
100
AcDbLine
 10
2601.487563219746
 20
2172.701195169462
 30
0.0
 11
2599.928736027676
 21
2170.503653398262
 31
0.0
1001
ACME_LAYERS
1000
1
  0
LINE
  5
5107
330
1F
100
AcDbEntity
  8
P-0000
  6
Continuous
 62
     7
100
AcDbLine
 10
2600.287563219746
 20
2174.201195169462
 30
0.0
 11
2601.487563219746
 21
2174.201195169462
 31
0.0
1001
ACME_LAYERS
1000
1
  0
LINE
  5
5108
330
1F
100
AcDbEntity
  8
P-0000
  6
Continuous
 62
     7
100
AcDbLine
 10
2601.487563219746
 20
2174.201195169462
 30
0.0
 11
2601.487563219746
 21
2172.701195169462
 31
0.0
1001
ACME_LAYERS
1000
1
  0
ARC
  5
5109
330
1F
100
AcDbEntity
  8
P-0000
  6
Continuous
 62
     7
100
AcDbCircle
 10
2599.439356225591
 20
2170.850795169463
 30
0.0
 40
0.6000000000000229
100
AcDbArc
 50
270.0
 51
324.6500000000039
1001
ACME_LAYERS
1000
1
  0
ARC
  5
510A
330
1F
100
AcDbEntity
  8
P-0000
  6
Continuous
 62
     7
100
AcDbCircle
 10
2599.439129803652
 20
2170.819795169462
 30
0.0
 40
0.5689999999999894
100
AcDbArc
 50
221.2500000000007
 51
270.0
1001
ACME_LAYERS
1000
1
  0
LINE
  5
510B
330
1F
100
AcDbEntity
  8
P-0000
  6
Continuous
 62
     7
100
AcDbLine
 10
2599.439356225591
 20
2170.250795169462
 30
0.0
 11
2599.439129803652
 21
2170.250795169462
 31
0.0
1001
ACME_LAYERS
1000
1
  0
HATCH
  5
510C
330
1F
100
AcDbEntity
  8
P-0000
  6
Continuous
 62
     1
100
AcDbHatch
 10
0.0
 20
0.0
 30
0.0
210
0.0
220
0.0
230
1.0
  2
_U
 70
     0
 71
     0
 91
        1
 92
        1
 93
        4
 72
     1
 10
2585.563266234611
 20
2182.401195169462
 11
2582.563266234612
 21
2182.401195169462
 72
     1
 10
2582.563266234612
 20
2182.401195169462
 11
2582.563266234612
 21
2176.401195169462
 72
     1
 10
2582.563266234612
 20
2176.401195169462
 11
2585.563266234611
 21
2176.401195169462
 72
     1
 10
2585.563266234611
 20
2176.401195169462
 11
2585.563266234611
 21
2182.401195169462
 97
        0
 75
     0
 76
     0
 52
44.99999999999999
 41
1.0
 77
     0
 78
     1
 53
45.0
 43
-77.53200816088611
 44
1023.967609973203
 45
-0.7071067811865475
 46
0.7071067811865476
 79
     0
 98
        1
 10
2342.196535983686
 20
2294.899278201441
1001
GENIUS_GENODEF_13
1002
{
1000
HIER
1070
     0
1002
}
1002
{
1000
MANEDIT
1070
     0
1002
}
1002
{
1000
NOSEL
1070
     0
1002
}
1002
{
1000
BEHIND
1070
     0
1002
}
1002
{
1000
OTHER
1070
     0
1002
}
1002
{
1000
REACTOR
1002
}
1001
GENIUS_GENOBJ-N-HTC_13
1002
{
1000
OWNER
1000
GEN
1002
}
1001
GENIUS_GENHATCH_13
1002
{
1000
DATA
1040
135.0
1042
1.0
1000
_U
1070
     0
1011
2583.332243050058
1021
2176.859782215982
1031
0.0
1002
}
1002
{
1000
UCS
1010
0.0
1020
0.0
1030
0.0
1010
1.0
1020
0.0
1030
0.0
1010
0.0
1020
1.0
1030
0.0
1002
}
1001
ACAD
1010
0.0
1020
0.0
1030
0.0
  0
LINE
  5
510D
330
1F
100
AcDbEntity
  8
P-0000
  6
Continuous
 62
     7
100
AcDbLine
 10
2394.020105982037
 20
2159.456018050985
 30
0.0
 11
2404.020105982037
 21
2159.456018050976
 31
0.0
1001
ACME_LAYERS
1000
1
  0
LINE
  5
510E
330
1F
100
AcDbEntity
  8
P-0000
  6
Continuous
 62
     7
100
AcDbLine
 10
2395.820105982047
 20
2170.603299490696
 30
0.0
 11
2399.020105982047
 21
2170.603299490694
 31
0.0
1001
ACME_LAYERS
1000
1
  0
LINE
  5
510F
330
1F
100
AcDbEntity
  8
P-0000
  6
Continuous
 62
     7
100
AcDbLine
 10
2402.220105982046
 20
2170.003299490691
 30
0.0
 11
2395.820105982045
 21
2170.003299490696
 31
0.0
1001
ACME_LAYERS
1000
1
  0
LINE
  5
5110
330
1F
100
AcDbEntity
  8
P-0000
  6
Continuous
 62
     7
100
AcDbLine
 10
2395.020105982046
 20
2170.003299490696
 30
0.0
 11
2395.020105982045
 21
2167.056018050982
 31
0.0
1001
ACME_LAYERS
1000
1
  0
LINE
  5
5111
330
1F
100
AcDbEntity
  8
P-0000
  6
Continuous
 62
     3
100
AcDbLine
 10
2395.820105982047
 20
2170.603299490696
 30
0.0
 11
2395.820105982042
 21
2167.056018050982
 31
0.0
1001
ACME_LAYERS
1000
1
  0
LINE
  5
5112
330
1F
100
AcDbEntity
  8
P-0000
  6
Continuous
 62
     7
100
AcDbLine
 10
2395.820105982045
 20
2170.003299490696
 30
0.0
 11
2395.020105982046
 21
2170.003299490696
 31
0.0
1001
ACME_LAYERS
1000
1
  0
LINE
  5
5113
330
1F
100
AcDbEntity
  8
P-0000
  6
Continuous
 62
     3
100
AcDbLine
 10
2395.820105982047
 20
2170.603299490696
 30
0.0
 11
2395.820105982045
 21
2170.003299490696
 31
0.0
1001
ACME_LAYERS
1000
1
  0
LINE
  5
5114
330
1F
100
AcDbEntity
  8
P-0000
  6
Continuous
 62
     7
100
AcDbLine
 10
2395.020105982046
 20
2170.003299490696
 30
0.0
 11
2395.820105982047
 21
2170.603299490696
 31
0.0
1001
ACME_LAYERS
1000
1
  0
LINE
  5
5115
330
1F
100
AcDbEntity
  8
P-0000
  6
Continuous
 62
     7
100
AcDbLine
 10
2403.020105982047
 20
2170.00329949069
 30
0.0
 11
2403.020105982044
 21
2167.056018050976
 31
0.0
1001
ACME_LAYERS
1000
1
  0
LINE
  5
5116
330
1F
100
AcDbEntity
  8
P-0000
  6
STRICHPUNKT
 62
     3
100
AcDbLine
 10
2399.020105982044
 20
2167.056018050979
 30
0.0
 11
2399.020105982047
 21
2170.603299490694
 31
0.0
1001
ACME_LAYERS
1000
1
  0
LINE
  5
5117
330
1F
100
AcDbEntity
  8
P-0000
  6
Continuous
 62
     3
100
AcDbLine
 10
2402.220105982048
 20
2170.603299490689
 30
0.0
 11
2402.220105982043
 21
2167.056018050976
 31
0.0
1001
ACME_LAYERS
1000
1
  0
LINE
  5
5118
330
1F
100
AcDbEntity
  8
P-0000
  6
Continuous
 62
     3
100
AcDbLine
 10
2402.220105982048
 20
2170.603299490689
 30
0.0
 11
2402.220105982046
 21
2170.003299490691
 31
0.0
1001
ACME_LAYERS
1000
1
  0
LINE
  5
5119
330
1F
100
AcDbEntity
  8
P-0000
  6
Continuous
 62
     7
100
AcDbLine
 10
2403.020105982047
 20
2170.00329949069
 30
0.0
 11
2402.220105982046
 21
2170.003299490691
 31
0.0
1001
ACME_LAYERS
1000
1
  0
LINE
  5
511A
330
1F
100
AcDbEntity
  8
P-0000
  6
Continuous
 62
     7
100
AcDbLine
 10
2402.220105982048
 20
2170.603299490689
 30
0.0
 11
2403.020105982047
 21
2170.00329949069
 31
0.0
1001
ACME_LAYERS
1000
1
  0
LINE
  5
511B
330
1F
100
AcDbEntity
  8
P-0000
  6
Continuous
 62
     7
100
AcDbLine
 10
2399.020105982047
 20
2170.603299490694
 30
0.0
 11
2402.220105982048
 21
2170.603299490689
 31
0.0
1001
ACME_LAYERS
1000
1
  0
LINE
  5
511C
330
1F
100
AcDbEntity
  8
P-0000
  6
Continuous
 62
     7
100
AcDbLine
 10
2403.020105982044
 20
2167.056018050976
 30
0.0
 11
2395.820105982042
 21
2167.056018050982
 31
0.0
1001
ACME_LAYERS
1000
1
  0
LINE
  5
511D
330
1F
100
AcDbEntity
  8
P-0000
  6
Continuous
 62
     7
100
AcDbLine
 10
2395.820105982042
 20
2167.056018050982
 30
0.0
 11
2395.020105982043
 21
2167.056018050982
 31
0.0
1001
ACME_LAYERS
1000
1
  0
LINE
  5
511E
330
1F
100
AcDbEntity
  8
P-0000
  6
Continuous
 62
     7
100
AcDbLine
 10
2390.574407868617
 20
2160.956018050985
 30
0.0
 11
2390.574407868616
 21
2159.456018050988
 31
0.0
1001
ACME_LAYERS
1000
1
  0
LINE
  5
511F
330
1F
100
AcDbEntity
  8
P-0000
  6
Continuous
 62
     7
100
AcDbLine
 10
2407.574407868616
 20
2159.456018050973
 30
0.0
 11
2407.574407868617
 21
2160.956018050971
 31
0.0
1001
ACME_LAYERS
1000
1
  0
LINE
  5
5120
330
1F
100
AcDbEntity
  8
P-0000
  6
Continuous
 62
     7
100
AcDbLine
 10
2390.574407868617
 20
2161.056018050986
 30
0.0
 11
2390.574407868617
 21
2160.956018050985
 31
0.0
1001
ACME_LAYERS
1000
1
  0
LINE
  5
5121
330
1F
100
AcDbEntity
  8
P-0000
  6
Continuous
 62
     7
100
AcDbLine
 10
2407.574407868617
 20
2161.056018050971
 30
0.0
 11
2390.574407868617
 21
2161.056018050986
 31
0.0
1001
ACME_LAYERS
1000
1
  0
LINE
  5
5122
330
1F
100
AcDbEntity
  8
P-0000
  6
Continuous
 62
     7
100
AcDbLine
 10
2407.574407868617
 20
2160.956018050971
 30
0.0
 11
2407.574407868617
 21
2161.056018050971
 31
0.0
1001
ACME_LAYERS
1000
1
  0
LINE
  5
5123
330
1F
100
AcDbEntity
  8
P-0000
  6
Continuous
 62
     7
100
AcDbLine
 10
2406.525659481505
 20
2162.94295724288
 30
0.0
 11
2406.525659481503
 21
2161.636574634573
 31
0.0
1001
ACME_LAYERS
1000
1
  0
LINE
  5
5124
330
1F
100
AcDbEntity
  8
P-0000
  6
Continuous
 62
     7
100
AcDbLine
 10
2392.520105982037
 20
2161.056018050985
 30
0.0
 11
2405.520105982037
 21
2161.056018050973
 31
0.0
1001
ACME_LAYERS
1000
1
  0
LINE
  5
5125
330
1F
100
AcDbEntity
  8
P-0000
  6
Continuous
 62
     7
100
AcDbLine
 10
2391.514552482574
 20
2162.942957242893
 30
0.0
 11
2391.514552482573
 21
2161.636574634586
 31
0.0
1001
ACME_LAYERS
1000
1
  0
LINE
  5
5126
330
1F
100
AcDbEntity
  8
P-0000
  6
Continuous
 62
     7
100
AcDbLine
 10
2395.020105982043
 20
2167.056018050982
 30
0.0
 11
2392.520105982043
 21
2167.056018050985
 31
0.0
1001
ACME_LAYERS
1000
1
  0
LINE
  5
5127
330
1F
100
AcDbEntity
  8
P-0000
  6
Continuous
 62
     7
100
AcDbLine
 10
2406.278987892848
 20
2161.483161616607
 30
0.0
 11
2405.520105982037
 21
2161.056018050973
 31
0.0
1001
ACME_LAYERS
1000
1
  0
LINE
  5
5128
330
1F
100
AcDbEntity
  8
P-0000
  6
Continuous
 62
     7
100
AcDbLine
 10
2406.278987892852
 20
2166.628874485337
 30
0.0
 11
2405.520105982045
 21
2167.056018050973
 31
0.0
1001
ACME_LAYERS
1000
1
  0
LINE
  5
5129
330
1F
100
AcDbEntity
  8
P-0000
  6
Continuous
 62
     7
100
AcDbLine
 10
2391.761224071231
 20
2161.483161616619
 30
0.0
 11
2392.520105982037
 21
2161.056018050985
 31
0.0
1001
ACME_LAYERS
1000
1
  0
LINE
  5
512A
330
1F
100
AcDbEntity
  8
P-0000
  6
Continuous
 62
     7
100
AcDbLine
 10
2391.761224071235
 20
2166.62887448535
 30
0.0
 11
2392.520105982043
 21
2167.056018050985
 31
0.0
1001
ACME_LAYERS
1000
1
  0
LINE
  5
512B
330
1F
100
AcDbEntity
  8
P-0000
  6
Continuous
 62
     7
100
AcDbLine
 10
2405.520105982045
 20
2167.056018050973
 30
0.0
 11
2403.020105982044
 21
2167.056018050976
 31
0.0
1001
ACME_LAYERS
1000
1
  0
LINE
  5
512C
330
1F
100
AcDbEntity
  8
P-0000
  6
Continuous
 62
     7
100
AcDbLine
 10
2391.514552482577
 20
2166.475461467385
 30
0.0
 11
2391.514552482574
 21
2162.942957242893
 31
0.0
1001
ACME_LAYERS
1000
1
  0
LINE
  5
512D
330
1F
100
AcDbEntity
  8
P-0000
  6
Continuous
 62
     7
100
AcDbLine
 10
2395.26732923231
 20
2166.475461467381
 30
0.0
 11
2395.267329232305
 21
2161.056018050982
 31
0.0
1001
ACME_LAYERS
1000
1
  0
LINE
  5
512E
330
1F
100
AcDbEntity
  8
P-0000
  6
Continuous
 62
     7
100
AcDbLine
 10
2402.772882731775
 20
2166.475461467375
 30
0.0
 11
2402.77288273177
 21
2161.056018050976
 31
0.0
1001
ACME_LAYERS
1000
1
  0
LINE
  5
512F
330
1F
100
AcDbEntity
  8
P-0000
  6
Continuous
 62
     7
100
AcDbLine
 10
2406.525659481508
 20
2166.475461467371
 30
0.0
 11
2406.525659481505
 21
2162.94295724288
 31
0.0
1001
ACME_LAYERS
1000
1
  0
LINE
  5
5130
330
1F
100
AcDbEntity
  8
P-0000
  6
Continuous
 62
     7
100
AcDbLine
 10
2390.574407868616
 20
2159.456018050988
 30
0.0
 11
2395.020105982036
 21
2159.456018050985
 31
0.0
1001
ACME_LAYERS
1000
1
  0
LINE
  5
5131
330
1F
100
AcDbEntity
  8
P-0000
  6
Continuous
 62
     7
100
AcDbLine
 10
2407.574407868616
 20
2159.456018050973
 30
0.0
 11
2403.520105982038
 21
2159.456018050976
 31
0.0
1001
ACME_LAYERS
1000
1
  0
LINE
  5
5132
330
1F
100
AcDbEntity
  8
P-0000
  6
Continuous
 62
     7
100
AcDbLine
 10
2403.020105982034
 20
2157.456018050977
 30
0.0
 11
2403.520105982037
 21
2157.456018050976
 31
0.0
1001
ACME_LAYERS
1000
1
  0
LINE
  5
5133
330
1F
100
AcDbEntity
  8
P-0000
  6
Continuous
 62
     7
100
AcDbLine
 10
2402.220105982035
 20
2157.456018050977
 30
0.0
 11
2403.020105982034
 21
2157.456018050977
 31
0.0
1001
ACME_LAYERS
1000
1
  0
LINE
  5
5134
330
1F
100
AcDbEntity
  8
P-0000
  6
Continuous
 62
     7
100
AcDbLine
 10
2395.820105982034
 20
2157.456018050984
 30
0.0
 11
2402.220105982035
 21
2157.456018050977
 31
0.0
1001
ACME_LAYERS
1000
1
  0
LINE
  5
5135
330
1F
100
AcDbEntity
  8
P-0000
  6
Continuous
 62
     7
100
AcDbLine
 10
2395.020105982034
 20
2157.456018050984
 30
0.0
 11
2395.820105982034
 21
2157.456018050984
 31
0.0
1001
ACME_LAYERS
1000
1
  0
ARC
  5
5136
330
1F
100
AcDbEntity
  8
P-0000
  6
Continuous
 62
     7
100
AcDbCircle
 10
2399.020105982049
 20
2173.475461467377
 30
0.0
 40
12.41944341639904
100
AcDbArc
 50
252.4120462259817
 51
287.5879537739637
1001
ACME_LAYERS
1000
1
  0
ARC
  5
5137
330
1F
100
AcDbEntity
  8
P-0000
  6
Continuous
 62
     7
100
AcDbCircle
 10
2399.020105982031
 20
2154.636574634578
 30
0.0
 40
12.41944341639904
100
AcDbArc
 50
72.41204622598172
 51
107.5879537739636
1001
ACME_LAYERS
1000
1
  0
ARC
  5
5138
330
1F
100
AcDbEntity
  8
P-0000
  6
Continuous
 62
     7
100
AcDbCircle
 10
2404.64927110664
 20
2164.378587623923
 30
0.0
 40
3.322569572950221
100
AcDbArc
 50
235.615752531913
 51
299.3733793947722
1001
ACME_LAYERS
1000
1
  0
ARC
  5
5139
330
1F
100
AcDbEntity
  8
P-0000
  6
Continuous
 62
     7
100
AcDbCircle
 10
2404.649271106641
 20
2163.733448478022
 30
0.0
 40
3.322569572950149
100
AcDbArc
 50
55.61575253191295
 51
60.62662060510744
1001
ACME_LAYERS
1000
1
  0
ARC
  5
513A
330
1F
100
AcDbEntity
  8
P-0000
  6
Continuous
 62
     7
100
AcDbCircle
 10
2393.390940857443
 20
2164.378587623934
 30
0.0
 40
3.322569572950221
100
AcDbArc
 50
235.615752531913
 51
240.6266206051074
1001
ACME_LAYERS
1000
1
  0
ARC
  5
513B
330
1F
100
AcDbEntity
  8
P-0000
  6
Continuous
 62
     7
100
AcDbCircle
 10
2393.390940857443
 20
2163.733448478034
 30
0.0
 40
3.322569572949122
100
AcDbArc
 50
55.61575253191295
 51
119.3733793947722
1001
ACME_LAYERS
1000
1
  0
ARC
  5
513C
330
1F
100
AcDbEntity
  8
P-0000
  6
Continuous
 62
     7
100
AcDbCircle
 10
2404.64927110664
 20
2164.378587623923
 30
0.0
 40
3.322569572949876
100
AcDbArc
 50
299.3733793947722
 51
304.3842474680229
1001
ACME_LAYERS
1000
1
  0
ARC
  5
513D
330
1F
100
AcDbEntity
  8
P-0000
  6
Continuous
 62
     7
100
AcDbCircle
 10
2404.64927110664
 20
2163.733448478023
 30
0.0
 40
3.322569572949888
100
AcDbArc
 50
60.62662060510744
 51
124.3842474680229
1001
ACME_LAYERS
1000
1
  0
ARC
  5
513E
330
1F
100
AcDbEntity
  8
P-0000
  6
Continuous
 62
     7
100
AcDbCircle
 10
2393.390940857443
 20
2164.378587623934
 30
0.0
 40
3.322569572949872
100
AcDbArc
 50
240.6266206051074
 51
304.3842474679592
1001
ACME_LAYERS
1000
1
  0
ARC
  5
513F
330
1F
100
AcDbEntity
  8
P-0000
  6
Continuous
 62
     7
100
AcDbCircle
 10
2393.390940857443
 20
2163.733448478034
 30
0.0
 40
3.322569572949884
100
AcDbArc
 50
119.3733793947722
 51
124.3842474680229
1001
ACME_LAYERS
1000
1
  0
LINE
  5
5140
330
1F
100
AcDbEntity
  8
P-0000
  6
Continuous
 62
     7
100
AcDbLine
 10
2437.071499222381
 20
2167.438685743706
 30
0.0
 11
2437.071499222378
 21
2164.556018050942
 31
0.0
1001
ACME_LAYERS
1000
1
  0
LINE
  5
5141
330
1F
100
AcDbEntity
  8
P-0000
  6
Continuous
 62
     3
100
AcDbLine
 10
2436.271499222381
 20
2166.976805528355
 30
0.0
 11
2436.271499222378
 21
2164.556018050942
 31
0.0
1001
ACME_LAYERS
1000
1
  0
LINE
  5
5142
330
1F
100
AcDbEntity
  8
P-0000
  6
Continuous
 62
     7
100
AcDbLine
 10
2432.078572317176
 20
2164.556018050947
 30
0.0
 11
2436.271499222377
 21
2164.556018050942
 31
0.0
1001
ACME_LAYERS
1000
1
  0
LINE
  5
5143
330
1F
100
AcDbEntity
  8
P-0000
  6
Continuous
 62
     7
100
AcDbLine
 10
2436.271499222377
 20
2164.556018050942
 30
0.0
 11
2437.071499222378
 21
2164.556018050942
 31
0.0
1001
ACME_LAYERS
1000
1
  0
LINE
  5
5144
330
1F
100
AcDbEntity
  8
P-0000
  6
Continuous
 62
     7
100
AcDbLine
 10
2441.517197335793
 20
2158.456018050938
 30
0.0
 11
2441.517197335791
 21
2156.95601805094
 31
0.0
1001
ACME_LAYERS
1000
1
  0
LINE
  5
5145
330
1F
100
AcDbEntity
  8
P-0000
  6
Continuous
 62
     7
100
AcDbLine
 10
2424.517197335792
 20
2156.956018050955
 30
0.0
 11
2424.517197335794
 21
2158.456018050953
 31
0.0
1001
ACME_LAYERS
1000
1
  0
LINE
  5
5146
330
1F
100
AcDbEntity
  8
P-0000
  6
Continuous
 62
     7
100
AcDbLine
 10
2441.517197335793
 20
2158.556018050938
 30
0.0
 11
2441.517197335793
 21
2158.456018050938
 31
0.0
1001
ACME_LAYERS
1000
1
  0
LINE
  5
5147
330
1F
100
AcDbEntity
  8
P-0000
  6
Continuous
 62
     7
100
AcDbLine
 10
2424.517197335794
 20
2158.556018050953
 30
0.0
 11
2441.517197335793
 21
2158.556018050938
 31
0.0
1001
ACME_LAYERS
1000
1
  0
LINE
  5
5148
330
1F
100
AcDbEntity
  8
P-0000
  6
Continuous
 62
     7
100
AcDbLine
 10
2424.517197335794
 20
2158.456018050953
 30
0.0
 11
2424.517197335794
 21
2158.556018050953
 31
0.0
1001
ACME_LAYERS
1000
1
  0
LINE
  5
5149
330
1F
100
AcDbEntity
  8
P-0000
  6
Continuous
 62
     7
100
AcDbLine
 10
2425.565945722909
 20
2160.442957242859
 30
0.0
 11
2425.565945722909
 21
2159.136574634553
 31
0.0
1001
ACME_LAYERS
1000
1
  0
LINE
  5
514A
330
1F
100
AcDbEntity
  8
P-0000
  6
Continuous
 62
     7
100
AcDbLine
 10
2439.571499222374
 20
2158.55601805094
 30
0.0
 11
2426.571499222374
 21
2158.556018050953
 31
0.0
1001
ACME_LAYERS
1000
1
  0
LINE
  5
514B
330
1F
100
AcDbEntity
  8
P-0000
  6
Continuous
 62
     7
100
AcDbLine
 10
2440.57705272184
 20
2160.442957242846
 30
0.0
 11
2440.57705272184
 21
2159.136574634539
 31
0.0
1001
ACME_LAYERS
1000
1
  0
LINE
  5
514C
330
1F
100
AcDbEntity
  8
P-0000
  6
Continuous
 62
     7
100
AcDbLine
 10
2437.071499222378
 20
2164.556018050942
 30
0.0
 11
2439.57149922238
 21
2164.55601805094
 31
0.0
1001
ACME_LAYERS
1000
1
  0
LINE
  5
514D
330
1F
100
AcDbEntity
  8
P-0000
  6
Continuous
 62
     7
100
AcDbLine
 10
2429.318722472643
 20
2160.442957242856
 30
0.0
 11
2429.318722472642
 21
2159.136574634549
 31
0.0
1001
ACME_LAYERS
1000
1
  0
LINE
  5
514E
330
1F
100
AcDbEntity
  8
P-0000
  6
Continuous
 62
     7
100
AcDbLine
 10
2436.824275972106
 20
2160.442957242849
 30
0.0
 11
2436.824275972105
 21
2159.136574634542
 31
0.0
1001
ACME_LAYERS
1000
1
  0
LINE
  5
514F
330
1F
100
AcDbEntity
  8
P-0000
  6
Continuous
 62
     7
100
AcDbLine
 10
2425.812617311563
 20
2158.983161616586
 30
0.0
 11
2426.571499222374
 21
2158.556018050953
 31
0.0
1001
ACME_LAYERS
1000
1
  0
LINE
  5
5150
330
1F
100
AcDbEntity
  8
P-0000
  6
Continuous
 62
     7
100
AcDbLine
 10
2440.330381133182
 20
2158.983161616573
 30
0.0
 11
2439.571499222374
 21
2158.55601805094
 31
0.0
1001
ACME_LAYERS
1000
1
  0
LINE
  5
5151
330
1F
100
AcDbEntity
  8
P-0000
  6
Continuous
 62
     7
100
AcDbLine
 10
2440.330381133187
 20
2164.128874485305
 30
0.0
 11
2439.57149922238
 21
2164.55601805094
 31
0.0
1001
ACME_LAYERS
1000
1
  0
LINE
  5
5152
330
1F
100
AcDbEntity
  8
P-0000
  6
Continuous
 62
     7
100
AcDbLine
 10
2440.577052721843
 20
2163.975461467339
 30
0.0
 11
2440.57705272184
 21
2160.442957242846
 31
0.0
1001
ACME_LAYERS
1000
1
  0
LINE
  5
5153
330
1F
100
AcDbEntity
  8
P-0000
  6
Continuous
 62
     7
100
AcDbLine
 10
2436.824275972111
 20
2163.975461467341
 30
0.0
 11
2436.824275972106
 21
2160.442957242849
 31
0.0
1001
ACME_LAYERS
1000
1
  0
LINE
  5
5154
330
1F
100
AcDbEntity
  8
P-0000
  6
Continuous
 62
     7
100
AcDbLine
 10
2429.318722472645
 20
2162.962618000287
 30
0.0
 11
2429.318722472643
 21
2160.442957242856
 31
0.0
1001
ACME_LAYERS
1000
1
  0
LINE
  5
5155
330
1F
100
AcDbEntity
  8
P-0000
  6
Continuous
 62
     7
100
AcDbLine
 10
2425.565945722909
 20
2160.795951333623
 30
0.0
 11
2425.565945722909
 21
2160.442957242859
 31
0.0
1001
ACME_LAYERS
1000
1
  0
ARC
  5
5156
330
1F
100
AcDbEntity
  8
P-0000
  6
Continuous
 62
     7
100
AcDbCircle
 10
2433.071499222385
 20
2170.975461467346
 30
0.0
 40
12.41944341639904
100
AcDbArc
 50
252.4120462259817
 51
287.5879537739637
1001
ACME_LAYERS
1000
1
  0
ARC
  5
5157
330
1F
100
AcDbEntity
  8
P-0000
  6
Continuous
 62
     7
100
AcDbCircle
 10
2433.071499222368
 20
2152.136574634546
 30
0.0
 40
12.41944341639904
100
AcDbArc
 50
72.41204622598172
 51
94.95831806924394
1001
ACME_LAYERS
1000
1
  0
ARC
  5
5158
330
1F
100
AcDbEntity
  8
P-0000
  6
Continuous
 62
     7
100
AcDbCircle
 10
2427.442334097777
 20
2161.878587623901
 30
0.0
 40
3.322569572950221
100
AcDbArc
 50
240.6266206051074
 51
304.3842474680229
1001
ACME_LAYERS
1000
1
  0
ARC
  5
5159
330
1F
100
AcDbEntity
  8
P-0000
  6
Continuous
 62
     7
100
AcDbCircle
 10
2438.700664346974
 20
2161.87858762389
 30
0.0
 40
3.322569572950221
100
AcDbArc
 50
299.3733793947722
 51
304.3842474680229
1001
ACME_LAYERS
1000
1
  0
ARC
  5
515A
330
1F
100
AcDbEntity
  8
P-0000
  6
Continuous
 62
     7
100
AcDbCircle
 10
2438.700664346974
 20
2161.233448477991
 30
0.0
 40
3.322569572949122
100
AcDbArc
 50
60.62662060510744
 51
124.3842474679592
1001
ACME_LAYERS
1000
1
  0
ARC
  5
515B
330
1F
100
AcDbEntity
  8
P-0000
  6
Continuous
 62
     7
100
AcDbCircle
 10
2427.442334097777
 20
2161.878587623901
 30
0.0
 40
3.322569572949876
100
AcDbArc
 50
235.615752531913
 51
240.6266206051074
1001
ACME_LAYERS
1000
1
  0
ARC
  5
515C
330
1F
100
AcDbEntity
  8
P-0000
  6
Continuous
 62
     7
100
AcDbCircle
 10
2438.700664346974
 20
2161.87858762389
 30
0.0
 40
3.322569572949872
100
AcDbArc
 50
235.615752531913
 51
299.3733793947722
1001
ACME_LAYERS
1000
1
  0
ARC
  5
515D
330
1F
100
AcDbEntity
  8
P-0000
  6
Continuous
 62
     7
100
AcDbCircle
 10
2438.700664346974
 20
2161.233448477991
 30
0.0
 40
3.322569572949884
100
AcDbArc
 50
55.61575253191295
 51
60.62662060510744
1001
ACME_LAYERS
1000
1
  0
HATCH
  5
515E
330
1F
100
AcDbEntity
  8
P-0000
  6
Continuous
 62
     1
100
AcDbHatch
 10
0.0
 20
0.0
 30
0.0
210
0.0
220
0.0
230
1.0
  2
_U
 70
     0
 71
     0
 91
        1
 92
        1
 93
       16
 72
     1
 10
2430.770105982044
 20
2176.450366752522
 11
2430.770105982044
 21
2176.401195169539
 72
     1
 10
2430.770105982044
 20
2176.401195169539
 11
2430.270105982045
 21
2176.401195169539
 72
     1
 10
2430.270105982045
 20
2176.401195169539
 11
2430.270105982045
 21
2174.450366752521
 72
     1
 10
2430.270105982045
 20
2174.450366752521
 11
2423.209214813728
 21
2174.450366752529
 72
     2
 10
2423.209214813728
 20
2173.950366752529
 40
0.5
 50
449.9999999999478
 51
539.9999999999478
 73
     1
 72
     1
 10
2422.709214813727
 20
2173.950366752529
 11
2422.709214813715
 21
2161.45601805096
 72
     2
 10
2418.709214813717
 20
2161.456018050964
 40
4.000000000000068
 50
0.0000000000521102
 51
90.00000000005211
 73
     0
 72
     1
 10
2418.709214813712
 20
2157.456018050963
 11
2404.020105982035
 21
2157.456018050976
 72
     1
 10
2404.020105982035
 20
2157.456018050976
 11
2404.020105982037
 21
2159.456018050976
 72
     1
 10
2404.020105982037
 20
2159.456018050976
 11
2418.770105982029
 21
2159.456018050962
 72
     2
 10
2418.770105982031
 20
2161.456018050964
 40
1.999999999999999
 50
269.9999999999479
 51
359.9999999999479
 73
     1
 72
     1
 10
2420.77010598203
 20
2161.456018050962
 11
2420.770105982046
 21
2178.95036675253
 72
     1
 10
2420.770105982046
 20
2178.95036675253
 11
2422.770105982046
 21
2178.950366752529
 72
     1
 10
2422.770105982046
 20
2178.950366752529
 11
2422.770105982045
 21
2176.950366752529
 72
     2
 10
2423.270105982044
 20
2176.950366752529
 40
0.5
 50
539.9999999999478
 51
629.9999999999479
 73
     1
 72
     1
 10
2423.270105982044
 20
2176.450366752528
 11
2430.770105982044
 21
2176.450366752522
 97
        0
 75
     0
 76
     0
 52
-45.0
 41
2.0
 77
     0
 78
     1
 53
315.0
 43
-77.53200816088611
 44
1023.967609973203
 45
1.414213562373094
 46
1.414213562373094
 79
     0
 98
        1
 10
2389.830997149898
 20
1668.03469840946
1001
ACME_LAYERS
1000
1
1001
ACAD
1010
0.0
1020
0.0
1030
0.0
  0
LINE
  5
515F
330
1F
100
AcDbEntity
  8
P-0000
  6
Continuous
 62
     7
100
AcDbLine
 10
2450.770105982055
 20
2178.950366752503
 30
0.0
 11
2447.994402967183
 21
2178.950366752505
 31
0.0
1001
ACME_LAYERS
1000
1
  0
LINE
  5
5160
330
1F
100
AcDbEntity
  8
P-0000
  6
Continuous
 62
     7
100
AcDbLine
 10
2431.30782643893
 20
2178.950366752521
 30
0.0
 11
2422.770105982046
 21
2178.950366752529
 31
0.0
1001
ACME_LAYERS
1000
1
  0
LINE
  5
5161
330
1F
100
AcDbEntity
  8
P-0000
  6
Continuous
 62
     7
100
AcDbLine
 10
2449.216086976113
 20
2174.450366752504
 30
0.0
 11
2420.709214813712
 21
2157.991916435823
 31
0.0
1001
ACME_LAYERS
1000
1
  0
LINE
  5
5162
330
1F
100
AcDbEntity
  8
P-0000
  6
Continuous
 62
     7
100
AcDbLine
 10
2423.209214813728
 20
2174.450366752529
 30
0.0
 11
2430.270105982045
 21
2174.450366752521
 31
0.0
1001
ACME_LAYERS
1000
1
  0
LINE
  5
5163
330
1F
100
AcDbEntity
  8
P-0000
  6
Continuous
 62
     7
100
AcDbLine
 10
2430.770105982044
 20
2176.450366752522
 30
0.0
 11
2423.270105982044
 21
2176.450366752528
 31
0.0
1001
ACME_LAYERS
1000
1
  0
LINE
  5
5164
330
1F
100
AcDbEntity
  8
P-0000
  6
Continuous
 62
     7
100
AcDbLine
 10
2515.760345750326
 20
2178.950366752443
 30
0.0
 11
2450.770105982055
 21
2178.950366752503
 31
0.0
1001
ACME_LAYERS
1000
1
  0
LINE
  5
5165
330
1F
100
AcDbEntity
  8
P-0000
  6
Continuous
 62
     7
100
AcDbLine
 10
2515.760345750325
 20
2176.450366752444
 30
0.0
 11
2460.770105982045
 21
2176.450366752493
 31
0.0
1001
ACME_LAYERS
1000
1
  0
LINE
  5
5166
330
1F
100
AcDbEntity
  8
P-0000
  6
Continuous
 62
     7
100
AcDbLine
 10
2505.770105982036
 20
2174.450366752453
 30
0.0
 11
2454.77010598205
 21
2174.4503667525
 31
0.0
1001
ACME_LAYERS
1000
1
  0
HATCH
  5
516A
330
1F
100
AcDbEntity
  8
P-0000
  6
Continuous
 62
     1
100
AcDbHatch
 10
0.0
 20
0.0
 30
0.0
210
0.0
220
0.0
230
1.0
  2
_U
 70
     0
 71
     0
 91
        1
 92
        1
 93
       11
 72
     1
 10
2450.270105982052
 20
2176.450366752503
 11
2438.770105982044
 21
2176.450366752514
 72
     1
 10
2438.770105982044
 20
2176.450366752514
 11
2438.770105982042
 21
2174.450366752513
 72
     1
 10
2438.770105982042
 20
2174.450366752513
 11
2449.216086976113
 21
2174.450366752504
 72
     1
 10
2449.216086976113
 20
2174.450366752504
 11
2454.77010598205
 21
2174.450366752499
 72
     1
 10
2454.77010598205
 20
2174.4503667525
 11
2454.770105982052
 21
2176.450366752499
 72
     1
 10
2454.770105982052
 20
2176.450366752499
 11
2453.270105982052
 21
2176.450366752501
 72
     2
 10
2453.270105982053
 20
2176.9503667525
 40
0.5
 50
-269.9999999999479
 51
-179.9999999999479
 73
     0
 72
     1
 10
2452.770105982053
 20
2176.950366752501
 11
2452.770105982055
 21
2178.950366752502
 72
     1
 10
2452.770105982055
 20
2178.950366752502
 11
2450.770105982055
 21
2178.950366752503
 72
     1
 10
2450.770105982055
 20
2178.950366752503
 11
2450.770105982053
 21
2176.950366752503
 72
     2
 10
2450.270105982052
 20
2176.950366752503
 40
0.5
 50
0.0000000000521102
 51
90.00000000005211
 73
     0
 97
        0
 75
     0
 76
     0
 52
-45.0
 41
2.0
 77
     0
 78
     1
 53
315.0
 43
-77.53200816088611
 44
1023.967609973203
 45
1.414213562373094
 46
1.414213562373094
 79
     0
 98
        1
 10
2389.830997149898
 20
1668.03469840946
1001
ACME_LAYERS
1000
1
1001
ACAD
1010
0.0
1020
0.0
1030
0.0
  0
LINE
  5
516B
330
1F
100
AcDbEntity
  8
P-0000
  6
Continuous
 62
     7
100
AcDbLine
 10
2450.270105982052
 20
2176.450366752503
 30
0.0
 11
2438.770105982044
 21
2176.450366752514
 31
0.0
1001
ACME_LAYERS
1000
1
  0
LINE
  5
516C
330
1F
100
AcDbEntity
  8
P-0000
  6
Continuous
 62
     7
100
AcDbLine
 10
2454.77010598205
 20
2174.4503667525
 30
0.0
 11
2449.216086976113
 21
2174.450366752504
 31
0.0
1001
ACME_LAYERS
1000
1
  0
LINE
  5
516D
330
1F
100
AcDbEntity
  8
P-0000
  6
Continuous
 62
     7
100
AcDbLine
 10
2460.770105982045
 20
2176.450366752493
 30
0.0
 11
2454.770105982052
 21
2176.450366752499
 31
0.0
1001
ACME_LAYERS
1000
1
  0
LINE
  5
516E
330
1F
100
AcDbEntity
  8
P-0000
  6
Continuous
 62
     7
100
AcDbLine
 10
2454.77010598205
 20
2174.4503667525
 30
0.0
 11
2454.770105982052
 21
2176.450366752499
 31
0.0
1001
ACME_LAYERS
1000
1
  0
LINE
  5
516F
330
1F
100
AcDbEntity
  8
P-0000
  6
Continuous
 62
     7
100
AcDbLine
 10
2454.770105982052
 20
2176.450366752499
 30
0.0
 11
2453.270105982052
 21
2176.450366752501
 31
0.0
1001
ACME_LAYERS
1000
1
  0
LINE
  5
5170
330
1F
100
AcDbEntity
  8
P-0000
  6
Continuous
 62
     7
100
AcDbLine
 10
2450.770105982053
 20
2176.950366752503
 30
0.0
 11
2450.770105982055
 21
2178.950366752503
 31
0.0
1001
ACME_LAYERS
1000
1
  0
LINE
  5
5171
330
1F
100
AcDbEntity
  8
P-0000
  6
Continuous
 62
     7
100
AcDbLine
 10
2452.770105982053
 20
2176.950366752501
 30
0.0
 11
2452.770105982055
 21
2178.950366752502
 31
0.0
1001
ACME_LAYERS
1000
1
  0
LINE
  5
5172
330
1F
100
AcDbEntity
  8
P-0000
  6
Continuous
 62
     7
100
AcDbLine
 10
2450.770105982055
 20
2178.950366752503
 30
0.0
 11
2452.770105982055
 21
2178.950366752502
 31
0.0
1001
ACME_LAYERS
1000
1
  0
ARC
  5
5173
330
1F
100
AcDbEntity
  8
P-0000
  6
Continuous
 62
     7
100
AcDbCircle
 10
2450.270105982052
 20
2176.950366752503
 30
0.0
 40
0.5
100
AcDbArc
 50
269.9999999999479
 51
359.9999999999479
1001
ACME_LAYERS
1000
1
  0
ARC
  5
5174
330
1F
100
AcDbEntity
  8
P-0000
  6
Continuous
 62
     7
100
AcDbCircle
 10
2453.270105982053
 20
2176.9503667525
 30
0.0
 40
0.5
100
AcDbArc
 50
179.9999999999479
 51
269.9999999999479
1001
ACME_LAYERS
1000
1
  0
LINE
  5
5175
330
1F
100
AcDbEntity
  8
P-0000
  6
Continuous
 62
     7
100
AcDbLine
 10
2435.059275376981
 20
2174.450366752518
 30
0.0
 11
2438.770105982042
 21
2174.450366752513
 31
0.0
1001
ACME_LAYERS
1000
1
  0
LINE
  5
5176
330
1F
100
AcDbEntity
  8
P-0000
  6
Continuous
 62
     7
100
AcDbLine
 10
2438.770105982044
 20
2176.450366752514
 30
0.0
 11
2430.770105982044
 21
2176.450366752522
 31
0.0
1001
ACME_LAYERS
1000
1
  0
LINE
  5
5177
330
1F
100
AcDbEntity
  8
P-0000
  6
Continuous
 62
     7
100
AcDbLine
 10
2438.770105982042
 20
2174.450366752513
 30
0.0
 11
2449.216086976113
 21
2174.450366752504
 31
0.0
1001
ACME_LAYERS
1000
1
  0
LINE
  5
5178
330
1F
100
AcDbEntity
  8
P-0000
  6
Continuous
 62
     7
100
AcDbLine
 10
2438.770105982044
 20
2176.450366752514
 30
0.0
 11
2438.770105982042
 21
2174.450366752513
 31
0.0
1001
ACME_LAYERS
1000
1
  0
LINE
  5
5179
330
1F
100
AcDbEntity
  8
P-0000
  6
Continuous
 62
     7
100
AcDbLine
 10
2433.260345750322
 20
2176.450366752519
 30
0.0
 11
2432.260345750322
 21
2176.45036675252
 31
0.0
1001
ACME_LAYERS
1000
1
  0
LINE
  5
517A
330
1F
100
AcDbEntity
  8
P-0000
  6
Continuous
 62
     7
100
AcDbLine
 10
2433.260345750322
 20
2176.450366752519
 30
0.0
 11
2432.260345750322
 21
2176.45036675252
 31
0.0
1001
ACME_LAYERS
1000
1
  0
LINE
  5
517B
330
1F
100
AcDbEntity
  8
P-0000
  6
Continuous
 62
     7
100
AcDbLine
 10
2394.020105982037
 20
2159.456018050985
 30
0.0
 11
2404.020105982037
 21
2159.456018050976
 31
0.0
1001
ACME_LAYERS
1000
1
  0
LINE
  5
517C
330
1F
100
AcDbEntity
  8
P-0000
  6
Continuous
 62
     7
100
AcDbLine
 10
2394.020105982036
 20
2157.456018050985
 30
0.0
 11
2404.020105982035
 21
2157.456018050976
 31
0.0
1001
ACME_LAYERS
1000
1
  0
LINE
  5
517D
330
1F
100
AcDbEntity
  8
P-0000
  6
Continuous
 62
     7
100
AcDbLine
 10
2422.709214813715
 20
2161.45601805096
 30
0.0
 11
2422.709214813727
 21
2173.950366752529
 31
0.0
1001
ACME_LAYERS
1000
1
  0
LINE
  5
517E
330
1F
100
AcDbEntity
  8
P-0000
  6
Continuous
 62
     7
100
AcDbLine
 10
2420.77010598203
 20
2161.456018050962
 30
0.0
 11
2420.770105982045
 21
2176.450366752531
 31
0.0
1001
ACME_LAYERS
1000
1
  0
LINE
  5
517F
330
1F
100
AcDbEntity
  8
P-0000
  6
Continuous
 62
     7
100
AcDbLine
 10
2410.958414184475
 20
2159.45601805097
 30
0.0
 11
2420.770105982045
 21
2176.450366752531
 31
0.0
1001
ACME_LAYERS
1000
1
  0
LINE
  5
5180
330
1F
100
AcDbEntity
  8
P-0000
  6
Continuous
 62
     7
100
AcDbLine
 10
2420.770105982046
 20
2178.95036675253
 30
0.0
 11
2422.770105982046
 21
2178.950366752529
 31
0.0
1001
ACME_LAYERS
1000
1
  0
LINE
  5
5181
330
1F
100
AcDbEntity
  8
P-0000
  6
Continuous
 62
     7
100
AcDbLine
 10
2422.770105982046
 20
2178.950366752529
 30
0.0
 11
2422.770105982045
 21
2176.950366752529
 31
0.0
1001
ACME_LAYERS
1000
1
  0
ARC
  5
5182
330
1F
100
AcDbEntity
  8
P-0000
  6
Continuous
 62
     7
100
AcDbCircle
 10
2423.270105982044
 20
2176.950366752529
 30
0.0
 40
0.5
100
AcDbArc
 50
179.9999999999479
 51
269.9999999999479
1001
ACME_LAYERS
1000
1
  0
ARC
  5
5183
330
1F
100
AcDbEntity
  8
P-0000
  6
Continuous
 62
     7
100
AcDbCircle
 10
2423.209214813728
 20
2173.950366752529
 30
0.0
 40
0.5
100
AcDbArc
 50
89.99999999994789
 51
179.9999999999479
1001
ACME_LAYERS
1000
1
  0
LINE
  5
5184
330
1F
100
AcDbEntity
  8
P-0000
  6
Continuous
 62
     7
100
AcDbLine
 10
2420.770105982046
 20
2178.95036675253
 30
0.0
 11
2420.770105982045
 21
2176.450366752531
 31
0.0
1001
ACME_LAYERS
1000
1
  0
LINE
  5
5185
330
1F
100
AcDbEntity
  8
P-0000
  6
Continuous
 62
     7
100
AcDbLine
 10
2410.958414184475
 20
2159.45601805097
 30
0.0
 11
2418.770105982029
 21
2159.456018050962
 31
0.0
1001
ACME_LAYERS
1000
1
  0
LINE
  5
5186
330
1F
100
AcDbEntity
  8
P-0000
  6
Continuous
 62
     7
100
AcDbLine
 10
2404.020105982035
 20
2157.456018050976
 30
0.0
 11
2418.709214813712
 21
2157.456018050963
 31
0.0
1001
ACME_LAYERS
1000
1
  0
ARC
  5
5187
330
1F
100
AcDbEntity
  8
P-0000
  6
Continuous
 62
     7
100
AcDbCircle
 10
2418.770105982031
 20
2161.456018050964
 30
0.0
 40
2.0
100
AcDbArc
 50
269.9999999999479
 51
359.9999999999479
1001
ACME_LAYERS
1000
1
  0
ARC
  5
5188
330
1F
100
AcDbEntity
  8
P-0000
  6
Continuous
 62
     7
100
AcDbCircle
 10
2418.709214813717
 20
2161.456018050964
 30
0.0
 40
4.0
100
AcDbArc
 50
299.9999999999395
 51
359.9999999999479
1001
ACME_LAYERS
1000
1
  0
ARC
  5
5189
330
1F
100
AcDbEntity
  8
P-0000
  6
Continuous
 62
     7
100
AcDbCircle
 10
2418.709214813717
 20
2161.456018050964
 30
0.0
 40
4.000000000000031
100
AcDbArc
 50
269.9999999999479
 51
299.9999999999395
1001
ACME_LAYERS
1000
1
  0
LINE
  5
518A
330
1F
100
AcDbEntity
  8
P-0000
  6
Continuous
 62
     7
100
AcDbLine
 10
2404.020105982037
 20
2159.456018050976
 30
0.0
 11
2410.958414184475
 21
2159.45601805097
 31
0.0
1001
ACME_LAYERS
1000
1
  0
LINE
  5
518B
330
1F
100
AcDbEntity
  8
P-0000
  6
Continuous
 62
     7
100
AcDbLine
 10
2404.020105982035
 20
2157.456018050976
 30
0.0
 11
2404.020105982037
 21
2159.456018050976
 31
0.0
1001
ACME_LAYERS
1000
1
  0
HATCH
  5
518C
330
1F
100
AcDbEntity
  8
P-0000
  6
Continuous
 62
     1
100
AcDbHatch
 10
0.0
 20
0.0
 30
0.0
210
0.0
220
0.0
230
1.0
  2
_U
 70
     0
 71
     0
 91
        1
 92
        1
 93
        4
 72
     1
 10
2389.020105982035
 20
2157.456018050989
 11
2394.020105982036
 21
2157.456018050985
 72
     1
 10
2394.020105982036
 20
2157.456018050985
 11
2394.020105982037
 21
2159.456018050985
 72
     1
 10
2394.020105982037
 20
2159.456018050985
 11
2389.020105982037
 21
2159.45601805099
 72
     1
 10
2389.020105982037
 20
2159.45601805099
 11
2389.020105982035
 21
2157.456018050989
 97
        0
 75
     0
 76
     0
 52
-45.0
 41
2.0
 77
     0
 78
     1
 53
315.0
 43
-77.53200816088611
 44
1023.967609973203
 45
1.414213562373094
 46
1.414213562373094
 79
     0
 98
        1
 10
2389.830997149898
 20
1668.03469840946
1001
ACME_LAYERS
1000
1
1001
ACAD
1010
0.0
1020
0.0
1030
0.0
  0
LINE
  5
518D
330
1F
100
AcDbEntity
  8
P-0000
  6
Continuous
 62
     7
100
AcDbLine
 10
2389.020105982037
 20
2159.45601805099
 30
0.0
 11
2394.020105982037
 21
2159.456018050985
 31
0.0
1001
ACME_LAYERS
1000
1
  0
LINE
  5
518E
330
1F
100
AcDbEntity
  8
P-0000
  6
Continuous
 62
     7
100
AcDbLine
 10
2389.020105982035
 20
2157.456018050989
 30
0.0
 11
2394.020105982036
 21
2157.456018050985
 31
0.0
1001
ACME_LAYERS
1000
1
  0
LINE
  5
518F
330
1F
100
AcDbEntity
  8
P-0000
  6
Continuous
 62
     7
100
AcDbLine
 10
2394.020105982036
 20
2157.456018050985
 30
0.0
 11
2394.020105982037
 21
2159.456018050985
 31
0.0
1001
ACME_LAYERS
1000
1
  0
LINE
  5
5190
330
1F
100
AcDbEntity
  8
P-0000
  6
Continuous
 62
     7
100
AcDbLine
 10
2389.020105982035
 20
2157.456018050989
 30
0.0
 11
2389.020105982037
 21
2159.45601805099
 31
0.0
1001
ACME_LAYERS
1000
1
  0
LINE
  5
5191
330
1F
100
AcDbEntity
  8
P-0000
  6
Continuous
 62
     7
100
AcDbLine
 10
2514.270105982082
 20
2218.401195169463
 30
0.0
 11
2514.270105982049
 21
2182.401195169463
 31
0.0
1001
ACME_LAYERS
1000
1
  0
LINE
  5
5192
330
1F
100
AcDbEntity
  8
P-0000
  6
Continuous
 62
     7
100
AcDbLine
 10
2439.322435571086
 20
2200.97032436882
 30
0.0
 11
2438.343646354799
 21
2198.281123098674
 31
0.0
1001
ACME_LAYERS
1000
1
  0
LINE
  5
5193
330
1F
100
AcDbEntity
  8
P-0000
  6
Continuous
 62
     7
100
AcDbLine
 10
2447.994402967184
 20
2182.401195169523
 30
0.0
 11
2461.097331400803
 21
2218.401195169511
 31
0.0
1001
ACME_LAYERS
1000
1
  0
LINE
  5
5194
330
1F
100
AcDbEntity
  8
P-0000
  6
Continuous
 62
     7
100
AcDbLine
 10
2514.270105982088
 20
2224.370844269095
 30
0.0
 11
2463.270105982087
 21
2224.370844269142
 31
0.0
1001
ACME_LAYERS
1000
1
  0
LINE
  5
5195
330
1F
100
AcDbEntity
  8
P-0000
  6
Continuous
 62
     7
100
AcDbLine
 10
2514.270105982088
 20
2224.370844269095
 30
0.0
 11
2463.270105982087
 21
2224.370844269142
 31
0.0
1001
ACME_LAYERS
1000
1
  0
LINE
  5
5196
330
1F
100
AcDbEntity
  8
P-0000
  6
Continuous
 62
     7
100
AcDbLine
 10
2467.900113060568
 20
2256.401195169506
 30
0.0
 11
2474.928200302954
 21
2256.401195169499
 31
0.0
1001
ACME_LAYERS
1000
1
  0
LINE
  5
5197
330
1F
100
AcDbEntity
  8
P-0000
  6
Continuous
 62
     7
100
AcDbLine
 10
2462.270105982082
 20
2218.40119516951
 30
0.0
 11
2514.270105982082
 21
2218.401195169463
 31
0.0
1001
ACME_LAYERS
1000
1
  0
LINE
  5
5198
330
1F
100
AcDbEntity
  8
P-0000
  6
Continuous
 62
     7
100
AcDbLine
 10
2469.468646788945
 20
2241.401195169504
 30
0.0
 11
2511.665942926069
 21
2241.401195169465
 31
0.0
1001
ACME_LAYERS
1000
1
  0
LINE
  5
5199
330
1F
100
AcDbEntity
  8
P-0000
  6
Continuous
 62
     7
100
AcDbLine
 10
2514.270105982103
 20
2241.401195169462
 30
0.0
 11
2514.270105982088
 21
2224.370844269095
 31
0.0
1001
ACME_LAYERS
1000
1
  0
LINE
  5
519A
330
1F
100
AcDbEntity
  8
P-0000
  6
Continuous
 62
     7
100
AcDbLine
 10
2477.056555847905
 20
2256.401195169496
 30
0.0
 11
2511.665942926084
 21
2256.401195169466
 31
0.0
1001
ACME_LAYERS
1000
1
  0
LINE
  5
519B
330
1F
100
AcDbEntity
  8
P-0000
  6
Continuous
 62
     7
100
AcDbLine
 10
2511.665942926084
 20
2256.401195169466
 30
0.0
 11
2511.665942926069
 21
2241.401195169465
 31
0.0
1001
ACME_LAYERS
1000
1
  0
LINE
  5
519C
330
1F
100
AcDbEntity
  8
P-0000
  6
Continuous
 62
     7
100
AcDbLine
 10
2511.665942926084
 20
2256.401195169466
 30
0.0
 11
2515.770105982117
 21
2256.401195169461
 31
0.0
1001
ACME_LAYERS
1000
1
  0
LINE
  5
519D
330
1F
100
AcDbEntity
  8
P-0000
  6
Continuous
 62
     7
100
AcDbLine
 10
2511.665942926069
 20
2241.401195169465
 30
0.0
 11
2514.270105982103
 21
2241.401195169462
 31
0.0
1001
ACME_LAYERS
1000
1
  0
HATCH
  5
519E
330
1F
100
AcDbEntity
  8
P-0000
  6
Continuous
 62
     1
100
AcDbHatch
 10
0.0
 20
0.0
 30
0.0
210
0.0
220
0.0
230
1.0
  2
_U
 70
     0
 71
     0
 91
        1
 92
        1
 93
        5
 72
     1
 10
2473.472319365885
 20
2252.4011951695
 11
2474.928200302954
 21
2256.401195169498
 72
     1
 10
2474.928200302954
 20
2256.401195169499
 11
2477.056555847905
 21
2256.401195169496
 72
     1
 10
2477.056555847905
 20
2256.401195169496
 11
2475.840159993414
 21
2253.059175026173
 72
     2
 10
2474.900467372628
 20
2253.401195169499
 40
1.000000000000015
 50
20.00000000005522
 51
90.00000000005211
 73
     0
 72
     1
 10
2474.900467372627
 20
2252.401195169499
 11
2473.472319365885
 21
2252.4011951695
 97
        0
 75
     0
 76
     0
 52
44.99999999999999
 41
1.0
 77
     0
 78
     1
 53
45.0
 43
-77.53200816088611
 44
1023.967609973203
 45
-0.7071067811865475
 46
0.7071067811865476
 79
     0
 98
        1
 10
2389.821236918195
 20
1687.922339501222
1001
ACME_LAYERS
1000
1
1001
ACAD
1010
0.0
1020
0.0
1030
0.0
  0
LINE
  5
519F
330
1F
100
AcDbEntity
  8
P-0000
  6
Continuous
 62
     7
100
AcDbLine
 10
2475.840159993414
 20
2253.059175026173
 30
0.0
 11
2477.056555847905
 21
2256.401195169496
 31
0.0
1001
ACME_LAYERS
1000
1
  0
LINE
  5
51A0
330
1F
100
AcDbEntity
  8
P-0000
  6
Continuous
 62
     7
100
AcDbLine
 10
2473.472319365885
 20
2252.4011951695
 30
0.0
 11
2474.928200302954
 21
2256.401195169499
 31
0.0
1001
ACME_LAYERS
1000
1
  0
LINE
  5
51A1
330
1F
100
AcDbEntity
  8
P-0000
  6
Continuous
 62
     7
100
AcDbLine
 10
2474.928200302954
 20
2256.401195169499
 30
0.0
 11
2477.056555847905
 21
2256.401195169496
 31
0.0
1001
ACME_LAYERS
1000
1
  0
ARC
  5
51A2
330
1F
100
AcDbEntity
  8
P-0000
  6
Continuous
 62
     7
100
AcDbCircle
 10
2474.900467372628
 20
2253.401195169499
 30
0.0
 40
1.000000000000015
100
AcDbArc
 50
269.9999999999479
 51
339.9999999999407
1001
ACME_LAYERS
1000
1
  0
ARC
  5
51A3
330
1F
100
AcDbEntity
  8
P-0000
  6
Continuous
 62
     7
100
AcDbCircle
 10
2474.900467372628
 20
2253.401195169499
 30
0.0
 40
1.000000000000015
100
AcDbArc
 50
269.9999999999479
 51
339.9999999999407
1001
ACME_LAYERS
1000
1
  0
LINE
  5
51A4
330
1F
100
AcDbEntity
  8
P-0000
  6
Continuous
 62
     7
100
AcDbLine
 10
2473.472319365885
 20
2252.4011951695
 30
0.0
 11
2474.900467372627
 21
2252.401195169499
 31
0.0
1001
ACME_LAYERS
1000
1
  0
LINE
  5
51A5
330
1F
100
AcDbEntity
  8
P-0000
  6
Continuous
 62
     7
100
AcDbLine
 10
2515.770105982088
 20
2224.370844269094
 30
0.0
 11
2514.270105982088
 21
2224.370844269095
 31
0.0
1001
ACME_LAYERS
1000
1
  0
LINE
  5
51A6
330
1F
100
AcDbEntity
  8
P-0000
  6
Continuous
 62
     7
100
AcDbLine
 10
2515.770105982088
 20
2224.370844269094
 30
0.0
 11
2514.270105982088
 21
2224.370844269095
 31
0.0
1001
ACME_LAYERS
1000
1
  0
LINE
  5
51A7
330
1F
100
AcDbEntity
  8
P-0000
  6
Continuous
 62
     7
100
AcDbLine
 10
2514.270105982082
 20
2218.401195169463
 30
0.0
 11
2515.770105982082
 21
2218.401195169461
 31
0.0
1001
ACME_LAYERS
1000
1
  0
LINE
  5
51A8
330
1F
100
AcDbEntity
  8
P-0000
  6
Continuous
 62
     7
100
AcDbLine
 10
2456.62380161113
 20
2248.505436889423
 30
0.0
 11
2439.322435571086
 21
2200.97032436882
 31
0.0
1001
ACME_LAYERS
1000
1
  0
LINE
  5
51A9
330
1F
100
AcDbEntity
  8
P-0000
  6
Continuous
 62
     7
100
AcDbLine
 10
2463.270105982087
 20
2224.370844269142
 30
0.0
 11
2469.468646788945
 21
2241.401195169504
 31
0.0
1001
ACME_LAYERS
1000
1
  0
ARC
  5
51AA
330
1F
100
AcDbEntity
  8
P-0000
  6
Continuous
 62
     7
100
AcDbCircle
 10
2467.900113060557
 20
2244.401195169506
 30
0.0
 40
11.99999999999995
100
AcDbArc
 50
89.99999999994789
 51
159.9999999999536
1001
ACME_LAYERS
1000
1
  0
HATCH
  5
51AB
330
1F
100
AcDbEntity
  8
P-0000
  6
Continuous
 62
     3
100
AcDbHatch
 10
0.0
 20
0.0
 30
0.0
210
0.0
220
0.0
230
1.0
  2
_U
 70
     0
 71
     0
 91
        1
 92
        1
 93
        4
 72
     1
 10
2461.097331400803
 20
2218.401195169511
 11
2463.270105982087
 21
2224.370844269141
 72
     1
 10
2463.270105982087
 20
2224.370844269142
 11
2463.270105982084
 21
2219.401195169509
 72
     2
 10
2462.270105982085
 20
2219.40119516951
 40
1.0
 50
0.0000000000521102
 51
90.00000000005211
 73
     0
 72
     1
 10
2462.270105982082
 20
2218.40119516951
 11
2461.097331400803
 21
2218.401195169511
 97
        0
 75
     0
 76
     0
 52
44.99999999999999
 41
1.0
 77
     0
 78
     1
 53
45.0
 43
-77.53200816088611
 44
1023.967609973203
 45
-0.7071067811865475
 46
0.7071067811865476
 79
     0
 98
        1
 10
2389.821236918195
 20
1687.922339501222
1001
ACME_LAYERS
1000
1
1001
ACAD
1010
0.0
1020
0.0
1030
0.0
  0
LINE
  5
51AC
330
1F
100
AcDbEntity
  8
P-0000
  6
Continuous
 62
     7
100
AcDbLine
 10
2461.097331400803
 20
2218.401195169511
 30
0.0
 11
2462.270105982082
 21
2218.40119516951
 31
0.0
1001
ACME_LAYERS
1000
1
  0
LINE
  5
51AD
330
1F
100
AcDbEntity
  8
P-0000
  6
Continuous
 62
     7
100
AcDbLine
 10
2461.097331400803
 20
2218.401195169511
 30
0.0
 11
2463.270105982087
 21
2224.370844269142
 31
0.0
1001
ACME_LAYERS
1000
1
  0
LINE
  5
51AE
330
1F
100
AcDbEntity
  8
P-0000
  6
Continuous
 62
     7
100
AcDbLine
 10
2463.270105982084
 20
2219.401195169509
 30
0.0
 11
2463.270105982087
 21
2224.370844269142
 31
0.0
1001
ACME_LAYERS
1000
1
  0
LINE
  5
51AF
330
1F
100
AcDbEntity
  8
P-0000
  6
Continuous
 62
     7
100
AcDbLine
 10
2463.270105982084
 20
2219.401195169509
 30
0.0
 11
2463.270105982087
 21
2224.370844269142
 31
0.0
1001
ACME_LAYERS
1000
1
  0
ARC
  5
51B0
330
1F
100
AcDbEntity
  8
P-0000
  6
Continuous
 62
     7
100
AcDbCircle
 10
2462.270105982085
 20
2219.40119516951
 30
0.0
 40
1.0
100
AcDbArc
 50
269.9999999999479
 51
359.9999999999479
1001
ACME_LAYERS
1000
1
  0
ARC
  5
51B1
330
1F
100
AcDbEntity
  8
P-0000
  6
Continuous
 62
     3
100
AcDbCircle
 10
2462.270105982085
 20
2219.40119516951
 30
0.0
 40
1.0
100
AcDbArc
 50
269.9999999999479
 51
359.9999999999479
1001
ACME_LAYERS
1000
1
  0
LINE
  5
51B2
330
1F
100
AcDbEntity
  8
P-0000
  6
Continuous
 62
     7
100
AcDbLine
 10
2514.270105982049
 20
2182.401195169463
 30
0.0
 11
2447.994402967184
 21
2182.401195169523
 31
0.0
1001
ACME_LAYERS
1000
1
  0
LINE
  5
51B3
330
1F
100
AcDbEntity
  8
P-0000
  6
Continuous
 62
     7
100
AcDbLine
 10
2514.270105982049
 20
2182.401195169463
 30
0.0
 11
2447.994402967184
 21
2182.401195169523
 31
0.0
1001
ACME_LAYERS
1000
1
  0
LINE
  5
51B4
330
1F
100
AcDbEntity
  8
P-0000
  6
Continuous
 62
     7
100
AcDbLine
 10
2514.270105982049
 20
2182.401195169463
 30
0.0
 11
2447.994402967184
 21
2182.401195169523
 31
0.0
1001
ACME_LAYERS
1000
1
  0
LINE
  5
51B5
330
1F
100
AcDbEntity
  8
P-0000
  6
Continuous
 62
     7
100
AcDbLine
 10
2447.994402967179
 20
2176.401195169523
 30
0.0
 11
2514.270105982044
 21
2176.401195169463
 31
0.0
1001
ACME_LAYERS
1000
1
  0
LINE
  5
51B6
330
1F
100
AcDbEntity
  8
P-0000
  6
Continuous
 62
     7
100
AcDbLine
 10
2438.343646354799
 20
2198.281123098674
 30
0.0
 11
2430.770105982045
 21
2177.472991939263
 31
0.0
1001
ACME_LAYERS
1000
1
  0
LINE
  5
51B7
330
1F
100
AcDbEntity
  8
P-0000
  6
Continuous
 62
     7
100
AcDbLine
 10
2436.770105982045
 20
2176.401195169534
 30
0.0
 11
2444.994402967179
 21
2176.401195169527
 31
0.0
1001
ACME_LAYERS
1000
1
  0
LINE
  5
51B8
330
1F
100
AcDbEntity
  8
P-0000
  6
Continuous
 62
     7
100
AcDbLine
 10
2444.994402967179
 20
2176.401195169527
 30
0.0
 11
2444.994402967185
 21
2182.401195169527
 31
0.0
1001
ACME_LAYERS
1000
1
  0
LINE
  5
51B9
330
1F
100
AcDbEntity
  8
P-0000
  6
Continuous
 62
     7
100
AcDbLine
 10
2447.994402967179
 20
2176.401195169523
 30
0.0
 11
2447.994402967184
 21
2182.401195169523
 31
0.0
1001
ACME_LAYERS
1000
1
  0
LINE
  5
51BA
330
1F
100
AcDbEntity
  8
P-0000
  6
Continuous
 62
     7
100
AcDbLine
 10
2447.994402967184
 20
2182.401195169523
 30
0.0
 11
2444.994402967185
 21
2182.401195169527
 31
0.0
1001
ACME_LAYERS
1000
1
  0
LINE
  5
51BB
330
1F
100
AcDbEntity
  8
P-0000
  6
Continuous
 62
     7
100
AcDbLine
 10
2447.994402967184
 20
2182.401195169523
 30
0.0
 11
2444.994402967185
 21
2182.401195169527
 31
0.0
1001
ACME_LAYERS
1000
1
  0
LINE
  5
51BC
330
1F
100
AcDbEntity
  8
P-0000
  6
Continuous
 62
     7
100
AcDbLine
 10
2444.994402967179
 20
2176.401195169527
 30
0.0
 11
2447.994402967179
 21
2176.401195169523
 31
0.0
1001
ACME_LAYERS
1000
1
  0
LINE
  5
51BD
330
1F
100
AcDbEntity
  8
P-0000
  6
Continuous
 62
     7
100
AcDbLine
 10
2430.270105982042
 20
2174.20119516954
 30
0.0
 11
2430.270105982045
 21
2176.401195169539
 31
0.0
1001
ACME_LAYERS
1000
1
  0
LINE
  5
51BE
330
1F
100
AcDbEntity
  8
P-0000
  6
Continuous
 62
     7
100
AcDbLine
 10
2431.546336248588
 20
2170.444627400746
 30
0.0
 11
2436.770105982045
 21
2176.401195169534
 31
0.0
1001
ACME_LAYERS
1000
1
  0
LINE
  5
51BF
330
1F
100
AcDbEntity
  8
P-0000
  6
Continuous
 62
     7
100
AcDbLine
 10
2430.770105982044
 20
2176.401195169539
 30
0.0
 11
2430.770105982045
 21
2177.472991939263
 31
0.0
1001
ACME_LAYERS
1000
1
  0
LINE
  5
51C0
330
1F
100
AcDbEntity
  8
P-0000
  6
Continuous
 62
     7
100
AcDbLine
 10
2430.270105982045
 20
2176.401195169539
 30
0.0
 11
2430.770105982044
 21
2176.401195169539
 31
0.0
1001
ACME_LAYERS
1000
1
  0
LINE
  5
51C1
330
1F
100
AcDbEntity
  8
P-0000
  6
Continuous
 62
     7
100
AcDbLine
 10
2430.770105982044
 20
2176.401195169539
 30
0.0
 11
2430.770105982045
 21
2177.472991939263
 31
0.0
1001
ACME_LAYERS
1000
1
  0
LINE
  5
51C2
330
1F
100
AcDbEntity
  8
P-0000
  6
Continuous
 62
     7
100
AcDbLine
 10
2429.070105982042
 20
2172.70119516954
 30
0.0
 11
2430.628933174109
 21
2170.503653398339
 31
0.0
1001
ACME_LAYERS
1000
1
  0
LINE
  5
51C3
330
1F
100
AcDbEntity
  8
P-0000
  6
Continuous
 62
     7
100
AcDbLine
 10
2430.270105982042
 20
2174.20119516954
 30
0.0
 11
2429.070105982042
 21
2174.201195169541
 31
0.0
1001
ACME_LAYERS
1000
1
  0
LINE
  5
51C4
330
1F
100
AcDbEntity
  8
P-0000
  6
Continuous
 62
     7
100
AcDbLine
 10
2429.070105982042
 20
2174.201195169541
 30
0.0
 11
2429.070105982042
 21
2172.70119516954
 31
0.0
1001
ACME_LAYERS
1000
1
  0
ARC
  5
51C5
330
1F
100
AcDbEntity
  8
P-0000
  6
Continuous
 62
     7
100
AcDbCircle
 10
2431.118312976194
 20
2170.850795169538
 30
0.0
 40
0.6000000000000229
100
AcDbArc
 50
215.3499999999387
 51
269.9999999999479
1001
ACME_LAYERS
1000
1
  0
ARC
  5
51C6
330
1F
100
AcDbEntity
  8
P-0000
  6
Continuous
 62
     7
100
AcDbCircle
 10
2431.118539398132
 20
2170.819795169538
 30
0.0
 40
0.5689999999999894
100
AcDbArc
 50
269.9999999999479
 51
318.7499999999233
1001
ACME_LAYERS
1000
1
  0
LINE
  5
51C7
330
1F
100
AcDbEntity
  8
P-0000
  6
Continuous
 62
     7
100
AcDbLine
 10
2431.118312976194
 20
2170.250795169538
 30
0.0
 11
2431.118539398132
 21
2170.250795169538
 31
0.0
1001
ACME_LAYERS
1000
1
  0
HATCH
  5
51C8
330
1F
100
AcDbEntity
  8
P-0000
  6
Continuous
 62
     1
100
AcDbHatch
 10
0.0
 20
0.0
 30
0.0
210
0.0
220
0.0
230
1.0
  2
_U
 70
     0
 71
     0
 91
        1
 92
        1
 93
        4
 72
     1
 10
2444.994402967185
 20
2182.401195169527
 11
2447.994402967184
 21
2182.401195169524
 72
     1
 10
2447.994402967184
 20
2182.401195169523
 11
2447.994402967179
 21
2176.401195169523
 72
     1
 10
2447.994402967179
 20
2176.401195169523
 11
2444.994402967179
 21
2176.401195169525
 72
     1
 10
2444.994402967179
 20
2176.401195169527
 11
2444.994402967185
 21
2182.401195169527
 97
        0
 75
     0
 76
     0
 52
44.99999999999999
 41
1.0
 77
     0
 78
     1
 53
45.0
 43
-77.53200816088611
 44
1023.967609973203
 45
-0.7071067811865475
 46
0.7071067811865476
 79
     0
 98
        1
 10
2688.361133218212
 20
2294.899278201285
1001
GENIUS_GENODEF_13
1002
{
1000
HIER
1070
     0
1002
}
1002
{
1000
MANEDIT
1070
     0
1002
}
1002
{
1000
NOSEL
1070
     0
1002
}
1002
{
1000
BEHIND
1070
     0
1002
}
1002
{
1000
OTHER
1070
     0
1002
}
1002
{
1000
REACTOR
1002
}
1001
GENIUS_GENOBJ-N-HTC_13
1002
{
1000
OWNER
1000
GEN
1002
}
1001
GENIUS_GENHATCH_13
1002
{
1000
DATA
1040
135.0
1042
-1.0
1000
_U
1070
     0
1011
2447.225426151733
1021
2176.859782216043
1031
0.0
1002
}
1002
{
1000
UCS
1010
0.0
1020
0.0
1030
0.0
1010
1.0
1020
0.0
1030
0.0
1010
0.0
1020
1.0
1030
0.0
1002
}
1001
ACAD
1010
0.0
1020
0.0
1030
0.0
  0
HATCH
  5
51C9
330
1F
100
AcDbEntity
  8
AM_8
100
AcDbHatch
 10
0.0
 20
0.0
 30
0.0
210
0.0
220
0.0
230
1.0
  2
_U
 70
     0
 71
     0
 91
        1
 92
        1
 93
        5
 72
     1
 10
2515.770105982117
 20
2256.401195169461
 11
2515.278834600882
 21
2256.401195169462
 72
     1
 10
2515.278834600882
 20
2256.401195169462
 11
2515.278834600882
 21
2241.401195169461
 72
     1
 10
2515.278834600882
 20
2241.401195169461
 11
2518.89172627578
 21
2241.401195169461
 72
     1
 10
2518.89172627578
 20
2241.401195169461
 11
2518.89172627578
 21
2256.401195169462
 72
     1
 10
2518.89172627578
 20
2256.401195169462
 11
2515.770105982117
 21
2256.401195169461
 97
        0
 75
     0
 76
     0
 52
45.0
 41
2.5
 77
     0
 78
     1
 53
45.0
 43
-77.53200816088611
 44
1023.967609973203
 45
-1.767766952966368
 46
1.767766952966368
 79
     0
 98
        1
 10
-77.53200816088611
 20
1023.967609973203
1001
GENIUS_GENODEF_13
1002
{
1000
HIER
1070
     0
1002
}
1002
{
1000
MANEDIT
1070
     0
1002
}
1002
{
1000
NOSEL
1070
     0
1002
}
1002
{
1000
BEHIND
1070
     0
1002
}
1002
{
1000
OTHER
1070
     0
1002
}
1002
{
1000
REACTOR
1002
}
1001
GENIUS_GENOBJ-N-HTC_13
1002
{
1000
OWNER
1000
GEN
1002
}
1001
GENIUS_GENHATCH_13
1002
{
1000
DATA
1040
45.0
1042
2.5
1000
_U
1070
     0
1011
2517.643361469775
1021
2254.010725032654
1031
0.0
1002
}
1002
{
1000
UCS
1010
0.0
1020
0.0
1030
0.0
1010
1.0
1020
0.0
1030
0.0
1010
0.0
1020
1.0
1030
0.0
1002
}
  0
HATCH
  5
51CA
330
1F
100
AcDbEntity
  8
AM_8
100
AcDbHatch
 10
0.0
 20
0.0
 30
0.0
210
0.0
220
0.0
230
1.0
  2
_U
 70
     0
 71
     0
 91
        1
 92
        1
 93
        8
 72
     1
 10
2514.787563219746
 20
2256.401195169462
 11
2511.665942926084
 21
2256.401195169465
 72
     1
 10
2511.665942926084
 20
2256.401195169466
 11
2511.665942926069
 21
2241.401195169465
 72
     1
 10
2511.665942926069
 20
2241.401195169465
 11
2513.287563219746
 21
2241.401195169462
 72
     1
 10
2513.287563219746
 20
2241.401195169461
 11
2514.270105982103
 21
2241.401195169462
 72
     1
 10
2514.270105982103
 20
2241.401195169462
 11
2514.787563219746
 21
2241.401195169461
 72
     1
 10
2514.787563219746
 20
2241.401195169461
 11
2515.278834600882
 21
2241.401195169461
 72
     1
 10
2515.278834600882
 20
2241.401195169461
 11
2515.278834600882
 21
2256.401195169462
 72
     1
 10
2515.278834600882
 20
2256.401195169462
 11
2514.787563219746
 21
2256.401195169462
 97
        0
 75
     0
 76
     0
 52
45.0
 41
2.5
 77
     0
 78
     1
 53
45.0
 43
-77.53200816088611
 44
1023.967609973203
 45
-1.767766952966368
 46
1.767766952966368
 79
     0
 98
        1
 10
-77.53200816088611
 20
1023.967609973203
1001
GENIUS_GENOBJ-N-HTC_13
1002
{
1000
OWNER
1000
GEN
1002
}
1001
GENIUS_GENODEF_13
1002
{
1000
HIER
1070
     0
1002
}
1002
{
1000
MANEDIT
1070
     0
1002
}
1002
{
1000
NOSEL
1070
     0
1002
}
1002
{
1000
BEHIND
1070
     0
1002
}
1002
{
1000
OTHER
1070
     0
1002
}
1002
{
1000
REACTOR
1002
}
1001
GENIUS_GENHATCH_13
1002
{
1000
DATA
1040
45.0
1042
2.5
1000
_U
1070
     0
1011
2514.544457737024
1021
2252.664104663299
1031
0.0
1002
}
1002
{
1000
UCS
1010
0.0
1020
0.0
1030
0.0
1010
1.0
1020
0.0
1030
0.0
1010
0.0
1020
1.0
1030
0.0
1002
}
  0
LINE
  5
51CB
330
1F
100
AcDbEntity
  8
AM_7
  6
AM_DIN_G_W050x2
100
AcDbLine
 10
2399.020105982045
 20
2169.475461467378
 30
0.0
 11
2399.037563219738
 21
2157.456018050875
 31
0.0
1001
GENIUS_GENOBJ-N-CEN_13
1002
{
1000
OWNER
1000
GEN
1002
}
1001
GENIUS_GENODEF_13
1002
{
1000
HIER
1070
     0
1002
}
1002
{
1000
MANEDIT
1070
     0
1002
}
1002
{
1000
NOSEL
1070
     0
1002
}
1002
{
1000
BEHIND
1070
     0
1002
}
1002
{
1000
OTHER
1070
     0
1002
}
1002
{
1000
REACTOR
1002
}
1001
GENIUS_GENCEN_19
1002
{
1040
3.0
1002
}
  0
LINE
  5
51CC
330
1F
100
AcDbEntity
  8
AM_7
  6
AM_DIN_G_W050x2
100
AcDbLine
 10
2631.537563219739
 20
2169.475461467272
 30
0.0
 11
2631.537563219737
 21
2157.456018050875
 31
0.0
1001
GENIUS_GENODEF_13
1002
{
1000
HIER
1070
     0
1002
}
1002
{
1000
MANEDIT
1070
     0
1002
}
1002
{
1000
NOSEL
1070
     0
1002
}
1002
{
1000
BEHIND
1070
     0
1002
}
1002
{
1000
OTHER
1070
     0
1002
}
1002
{
1000
REACTOR
1002
}
1001
GENIUS_GENOBJ-N-CEN_13
1002
{
1000
OWNER
1000
GEN
1002
}
1001
GENIUS_GENCEN_19
1002
{
1040
3.0
1002
}
  0
LINE
  5
51CF
330
1F
100
AcDbEntity
  8
0
100
AcDbLine
 10
2385.037563219738
 20
2157.456018050875
 30
0.0
 11
2385.037563219738
 21
2156.95601805098
 31
0.0
  0
LINE
  5
5222
330
1F
100
AcDbEntity
  8
P-0000
  6
STRICHPUNKT
 62
     3
100
AcDbLine
 10
2515.346395502946
 20
1823.823433661191
 30
0.0
 11
2515.346395502945
 21
1784.249652448808
 31
0.0
1001
ACME_LAYERS
1000
1
  0
LINE
  5
5223
330
1F
100
AcDbEntity
  8
P-0000
  6
STRICHPUNKT
 62
     3
100
AcDbLine
 10
2515.281130439996
 20
1843.860360871902
 30
0.0
 11
2515.346395502946
 21
1823.823433661191
 31
0.0
1001
ACME_LAYERS
1000
1
  0
LINE
  5
53B4
330
1F
100
AcDbEntity
  8
P-0000
  6
Continuous
 62
     7
100
AcDbLine
 10
2515.335371044952
 20
2156.95601805098
 30
0.0
 11
2515.326642426117
 21
2156.95601805098
 31
0.0
1001
ACME_LAYERS
1000
1
  0
LINE
  5
53B5
330
1F
100
AcDbEntity
  8
P-0000
  6
Continuous
 62
     7
100
AcDbLine
 10
2515.335371044952
 20
2155.223967243412
 30
0.0
 11
2515.326642426094
 21
2155.223967243412
 31
0.0
1001
ACME_LAYERS
1000
1
  0
LINE
  5
53B6
330
1F
100
AcDbEntity
  8
P-0000
  6
Continuous
 62
     7
100
AcDbLine
 10
2523.844099663809
 20
2157.456018050982
 30
0.0
 11
2520.344099663809
 21
2157.456018050982
 31
0.0
1001
ACME_LAYERS
1000
1
  0
LINE
  5
53B7
330
1F
100
AcDbEntity
  8
P-0000
  6
Continuous
 62
     7
100
AcDbLine
 10
2520.344099663809
 20
2157.456018050982
 30
0.0
 11
2515.344099663809
 21
2157.456018050982
 31
0.0
1001
ACME_LAYERS
1000
1
  0
LINE
  5
53B8
330
1F
100
AcDbEntity
  8
P-0000
  6
Continuous
 62
     7
100
AcDbLine
 10
2525.844099663809
 20
2157.456018050982
 30
0.0
 11
2523.844099663809
 21
2157.456018050982
 31
0.0
1001
ACME_LAYERS
1000
1
  0
LINE
  5
53B9
330
1F
100
AcDbEntity
  8
P-0000
  6
Continuous
 62
     7
100
AcDbLine
 10
2525.844099663809
 20
2159.456018050982
 30
0.0
 11
2525.844099663809
 21
2157.456018050982
 31
0.0
1001
ACME_LAYERS
1000
1
  0
LINE
  5
53BA
330
1F
100
AcDbEntity
  8
P-0000
  6
Continuous
 62
     7
100
AcDbLine
 10
2515.335371044952
 20
2156.95601805098
 30
0.0
 11
2515.344099663789
 21
2156.95601805098
 31
0.0
1001
ACME_LAYERS
1000
1
  0
LINE
  5
53BB
330
1F
100
AcDbEntity
  8
P-0000
  6
Continuous
 62
     7
100
AcDbLine
 10
2515.335371044952
 20
2155.223967243412
 30
0.0
 11
2515.344099663812
 21
2155.223967243412
 31
0.0
1001
ACME_LAYERS
1000
1
  0
LINE
  5
53BC
330
1F
100
AcDbEntity
  8
P-0000
  6
Continuous
 62
     7
100
AcDbLine
 10
2506.844099663808
 20
2157.456018050982
 30
0.0
 11
2510.344099663809
 21
2157.456018050982
 31
0.0
1001
ACME_LAYERS
1000
1
  0
LINE
  5
53BD
330
1F
100
AcDbEntity
  8
P-0000
  6
Continuous
 62
     7
100
AcDbLine
 10
2510.344099663809
 20
2157.456018050982
 30
0.0
 11
2515.344099663809
 21
2157.456018050982
 31
0.0
1001
ACME_LAYERS
1000
1
  0
LINE
  5
53BE
330
1F
100
AcDbEntity
  8
P-0000
  6
Continuous
 62
     7
100
AcDbLine
 10
2504.84409966381
 20
2157.456018050982
 30
0.0
 11
2506.844099663808
 21
2157.456018050982
 31
0.0
1001
ACME_LAYERS
1000
1
  0
LINE
  5
53BF
330
1F
100
AcDbEntity
  8
P-0000
  6
Continuous
 62
     7
100
AcDbLine
 10
2504.84409966381
 20
2159.456018050982
 30
0.0
 11
2504.84409966381
 21
2157.456018050982
 31
0.0
1001
ACME_LAYERS
1000
1
  0
LINE
  5
53C0
330
1F
100
AcDbEntity
  8
P-0000
  6
Continuous
 62
     7
100
AcDbLine
 10
2519.844099663826
 20
2157.456018050982
 30
0.0
 11
2514.844099663816
 21
2157.456018050982
 31
0.0
1001
ACME_LAYERS
1000
1
  0
LINE
  5
53C1
330
1F
100
AcDbEntity
  8
P-0000
  6
Continuous
 62
     7
100
AcDbLine
 10
2525.844099663825
 20
2159.456018050982
 30
0.0
 11
2525.844099663825
 21
2174.450366752552
 31
0.0
1001
ACME_LAYERS
1000
1
  0
LINE
  5
53C2
330
1F
100
AcDbEntity
  8
P-0000
  6
Continuous
 62
     7
100
AcDbLine
 10
2516.344099663825
 20
2174.450366752552
 30
0.0
 11
2524.844099663825
 21
2174.450366752552
 31
0.0
1001
ACME_LAYERS
1000
1
  0
LINE
  5
53C3
330
1F
100
AcDbEntity
  8
P-0000
  6
Continuous
 62
     7
100
AcDbLine
 10
2514.853859895554
 20
2174.450366752552
 30
0.0
 11
2516.344099663825
 21
2174.450366752552
 31
0.0
1001
ACME_LAYERS
1000
1
  0
LINE
  5
53C4
330
1F
100
AcDbEntity
  8
P-0000
  6
Continuous
 62
     7
100
AcDbLine
 10
2514.834339432095
 20
2171.450366752551
 30
0.0
 11
2514.834339432099
 21
2171.450366752551
 31
0.0
1001
ACME_LAYERS
1000
1
  0
LINE
  5
53C5
330
1F
100
AcDbEntity
  8
P-0000
  6
Continuous
 62
     7
100
AcDbLine
 10
2514.853859895552
 20
2171.450366752551
 30
0.0
 11
2514.853859895556
 21
2171.450366752551
 31
0.0
1001
ACME_LAYERS
1000
1
  0
LINE
  5
53C6
330
1F
100
AcDbEntity
  8
P-0000
  6
Continuous
 62
     7
100
AcDbLine
 10
2524.844099663825
 20
2157.456018050982
 30
0.0
 11
2519.844099663826
 21
2157.456018050982
 31
0.0
1001
ACME_LAYERS
1000
1
  0
LINE
  5
53C7
330
1F
100
AcDbEntity
  8
P-0000
  6
Continuous
 62
     7
100
AcDbLine
 10
2504.82664242608
 20
2159.456018050982
 30
0.0
 11
2504.82664242608
 21
2174.450366752552
 31
0.0
1001
ACME_LAYERS
1000
1
  0
LINE
  5
53C8
330
1F
100
AcDbEntity
  8
P-0000
  6
Continuous
 62
     7
100
AcDbLine
 10
2514.32664242608
 20
2174.450366752552
 30
0.0
 11
2505.826642426081
 21
2174.450366752552
 31
0.0
1001
ACME_LAYERS
1000
1
  0
LINE
  5
53C9
330
1F
100
AcDbEntity
  8
P-0000
  6
Continuous
 62
     7
100
AcDbLine
 10
2515.816882194351
 20
2174.450366752552
 30
0.0
 11
2514.32664242608
 21
2174.450366752552
 31
0.0
1001
ACME_LAYERS
1000
1
  0
LINE
  5
53CA
330
1F
100
AcDbEntity
  8
0
100
AcDbLine
 10
2513.32664242608
 20
2174.450366752552
 30
0.0
 11
2513.32664242608
 21
2157.456018050982
 31
0.0
  0
LINE
  5
53CB
330
1F
100
AcDbEntity
  8
0
100
AcDbLine
 10
2517.344099663825
 20
2174.450366752552
 30
0.0
 11
2517.344099663821
 21
2157.456018050982
 31
0.0
  0
LINE
  5
55A6
330
1F
100
AcDbEntity
  8
P-0000
  6
Continuous
 62
     7
100
AcDbLine
 10
2566.831099728626
 20
2025.684936203106
 30
0.0
 11
2566.831099728622
 21
2080.788319281844
 31
0.0
1001
ACME_LAYERS
1000
1
  0
LINE
  5
55A7
330
1F
100
AcDbEntity
  8
P-0000
  6
STRICHPUNKT
 62
     3
100
AcDbLine
 10
2515.278834600851
 20
2156.956018050872
 30
0.0
 11
2515.335371044939
 21
2077.733874358361
 31
0.0
1001
ACME_LAYERS
1000
1
  0
LINE
  5
55A8
330
1F
100
AcDbEntity
  8
P-0000
  6
Continuous
 62
     7
100
AcDbLine
 10
2463.839642361253
 20
2080.788319281844
 30
0.0
 11
2463.839642361252
 21
2025.684936203106
 31
0.0
1001
ACME_LAYERS
1000
1
  0
HATCH
  5
55A9
330
1F
100
AcDbEntity
  8
P-0000
  6
Continuous
 62
     3
100
AcDbHatch
 10
0.0
 20
0.0
 30
0.0
210
0.0
220
0.0
230
1.0
  2
_U
 70
     0
 71
     0
 91
        1
 92
        1
 93
        8
 72
     1
 10
2463.835371044938
 20
2080.788319281844
 11
2464.63376140268
 21
2081.048948102404
 72
     1
 10
2464.63376140268
 20
2081.048948102404
 11
2465.335371044939
 21
2081.250098146036
 72
     1
 10
2465.335371044938
 20
2081.250098146036
 11
2465.335371044938
 21
2129.250098146036
 72
     1
 10
2465.335371044938
 20
2129.250098146036
 11
2464.738840670113
 21
2129.250098146036
 72
     1
 10
2464.738840670113
 20
2129.250098146036
 11
2463.835371044938
 21
2128.346628520861
 72
     1
 10
2463.835371044938
 20
2128.346628520861
 11
2463.835371044853
 21
2127.846628520861
 72
     1
 10
2463.835371044853
 20
2127.846628520861
 11
2463.835371044938
 21
2127.707665556918
 72
     1
 10
2463.835371044938
 20
2127.707665556918
 11
2463.835371044938
 21
2080.788319281844
 97
        0
 75
     0
 76
     0
 52
315.0
 41
2.0
 77
     0
 78
     1
 53
315.0
 43
3223.314814986282
 44
1744.466117738715
 45
1.414213562373094
 46
1.414213562373094
 79
     0
 98
        1
 10
3223.314814986282
 20
1744.466117738715
1001
ACME_LAYERS
1000
1
  0
LINE
  5
55AA
330
1F
100
AcDbEntity
  8
P-0000
  6
Continuous
 62
     7
100
AcDbLine
 10
2465.335371044938
 20
2129.250098146036
 30
0.0
 11
2465.335371044938
 21
2081.250098146036
 31
0.0
1001
ACME_LAYERS
1000
1
  0
LINE
  5
55AB
330
1F
100
AcDbEntity
  8
P-0000
  6
Continuous
 62
     7
100
AcDbLine
 10
2463.835371044938
 20
2080.788319281844
 30
0.0
 11
2463.835371044938
 21
2128.346628520861
 31
0.0
1001
ACME_LAYERS
1000
1
  0
SPLINE
  5
55AC
330
1F
100
AcDbEntity
  8
P-0000
  6
Continuous
 62
     3
100
AcDbSpline
210
0.0
220
0.0
230
1.0
 70
     8
 71
     3
 72
     8
 73
     4
 74
     0
 42
0.0000000001
 43
0.0000000001
 40
0.0
 40
0.0
 40
0.0
 40
0.0
 40
1.565389413088656
 40
1.565389413088656
 40
1.565389413088656
 40
1.565389413088656
 10
2463.839642361253
 20
2080.788319281844
 30
0.0
 10
2464.333288355793
 20
2080.96171625368
 30
0.0
 10
2464.832127387186
 20
2081.11518224616
 30
0.0
 10
2465.335371044938
 20
2081.250098146036
 30
0.0
  0
HATCH
  5
55AD
330
1F
100
AcDbEntity
  8
P-0000
  6
Continuous
 62
     3
100
AcDbHatch
 10
0.0
 20
0.0
 30
0.0
210
0.0
220
0.0
230
1.0
  2
_U
 70
     0
 71
     0
 91
        1
 92
        1
 93
        7
 72
     1
 10
2566.831099728622
 20
2080.788319281844
 11
2565.335371044934
 21
2081.250098146037
 72
     1
 10
2565.335371044938
 20
2081.250098146036
 11
2565.335371044938
 21
2129.250098146036
 72
     1
 10
2565.335371044938
 20
2129.250098146036
 11
2565.931901419763
 21
2129.250098146036
 72
     1
 10
2565.931901419763
 20
2129.250098146036
 11
2566.835371044938
 21
2128.346628520861
 72
     1
 10
2566.835371044938
 20
2128.346628520861
 11
2566.835371044938
 21
2082.257282168642
 72
     1
 10
2566.835371044938
 20
2082.257282168642
 11
2566.835371044938
 21
2081.650202695553
 72
     1
 10
2566.835371044938
 20
2081.650202695553
 11
2566.831099728622
 21
2080.788319281844
 97
        0
 75
     0
 76
     0
 52
315.0
 41
2.0
 77
     0
 78
     1
 53
315.0
 43
3223.314814986282
 44
1744.466117738715
 45
1.414213562373094
 46
1.414213562373094
 79
     0
 98
        1
 10
3223.314814986282
 20
1744.466117738715
1001
ACME_LAYERS
1000
1
  0
LINE
  5
55AE
330
1F
100
AcDbEntity
  8
P-0000
  6
Continuous
 62
     7
100
AcDbLine
 10
2566.835371044938
 20
2128.346628520861
 30
0.0
 11
2566.835371044938
 21
2080.788319281844
 31
0.0
1001
ACME_LAYERS
1000
1
  0
LINE
  5
55AF
330
1F
100
AcDbEntity
  8
P-0000
  6
Continuous
 62
     7
100
AcDbLine
 10
2565.335371044938
 20
2081.250098146036
 30
0.0
 11
2565.335371044938
 21
2129.250098146036
 31
0.0
1001
ACME_LAYERS
1000
1
  0
SPLINE
  5
55B0
330
1F
100
AcDbEntity
  8
P-0000
  6
Continuous
 62
     3
100
AcDbSpline
210
0.0
220
0.0
230
1.0
 70
     8
 71
     3
 72
     8
 73
     4
 74
     0
 42
0.0000000001
 43
0.0000000001
 40
0.0
 40
0.0
 40
0.0
 40
0.0
 40
1.565389413094596
 40
1.565389413094596
 40
1.565389413094596
 40
1.565389413094596
 10
2566.831099728622
 20
2080.788319281844
 30
0.0
 10
2566.337453734081
 20
2080.961716253681
 30
0.0
 10
2565.838614702688
 20
2081.115182246162
 30
0.0
 10
2565.335371044934
 20
2081.250098146037
 30
0.0
  0
LINE
  5
55B1
330
1F
100
AcDbEntity
  8
P-0000
  6
Continuous
 62
     7
100
AcDbLine
 10
2566.831099728608
 20
1774.309969750941
 30
0.0
 11
2566.831099728626
 21
2035.453466467576
 31
0.0
1001
ACME_LAYERS
1000
1
  0
LINE
  5
55B2
330
1F
100
AcDbEntity
  8
P-0000
  6
STRICHPUNKT
 62
     3
100
AcDbLine
 10
2515.335371044939
 20
2077.733874358361
 30
0.0
 11
2515.335371044939
 21
1768.331452759759
 31
0.0
1001
ACME_LAYERS
1000
1
  0
LINE
  5
55B3
330
1F
100
AcDbEntity
  8
P-0000
  6
Continuous
 62
     7
100
AcDbLine
 10
2463.839642361252
 20
2035.453466467576
 30
0.0
 11
2463.839642361268
 21
1774.309969750941
 31
0.0
1001
ACME_LAYERS
1000
1
  0
DIMENSION
  5
55B4
330
1F
100
AcDbEntity
  8
AM_5
100
AcDbDimension
  2
*D11
 10
2338.291860002986
 20
2140.250098146037
 30
0.0
 11
2331.791860002986
 21
1955.250098146037
 31
0.0
 70
    32
 71
     5
 42
370.0000000000009
  3
AM_DIN$0
100
AcDbAlignedDimension
 13
2515.335371044953
 23
1770.250098146036
 33
0.0
 14
2350.291861002986
 24
2140.250098146037
 34
0.0
 50
90.0
100
AcDbRotatedDimension
1001
ACAD_DSTYLE_DIMINSPECT
1070
   396
1000
100%
1070
   395
1000

1070
   394
1070
    33
1070
   393
1070
     0
1001
ACAD
1000
DSTYLE
1002
{
1070
    41
1040
5.0
1070
   140
1040
10.0
1070
   271
1070
     0
1002
}
  0
LINE
  5
55B7
330
1F
100
AcDbEntity
  8
P-0000
  6
STRICHPUNKT
 62
     3
100
AcDbLine
 10
2515.358474832263
 20
2145.516512962759
 30
0.0
 11
2515.358474832263
 21
1884.250098146037
 31
0.0
1001
ACME_LAYERS
1000
1
  0
LINE
  5
55BA
330
1F
100
AcDbEntity
  8
P-0000
  6
Continuous
 62
     7
100
AcDbLine
 10
2515.335371044939
 20
1890.250098146037
 30
0.0
 11
2515.358474832263
 21
1890.250098146037
 31
0.0
1001
ACME_LAYERS
1000
1
  0
LINE
  5
57E5
330
1F
100
AcDbEntity
  8
P-0000
  6
Continuous
 62
     7
100
AcDbLine
 10
2458.814046744351
 20
2140.250098146037
 30
0.0
 11
2435.695218268405
 21
2140.250098146037
 31
0.0
1001
ACME_LAYERS
1000
1
  0
LINE
  5
57E6
330
1F
100
AcDbEntity
  8
P-0000
  6
Continuous
 62
     7
100
AcDbLine
 10
2431.335371044981
 20
2140.250098146033
 30
0.0
 11
2451.335371044983
 21
2140.250098146051
 31
0.0
1001
ACME_LAYERS
1000
1
  0
LINE
  5
57E7
330
1F
100
AcDbEntity
  8
P-0000
  6
Continuous
 62
     7
100
AcDbLine
 10
2417.835371044979
 20
2140.250098146033
 30
0.0
 11
2431.335371044981
 21
2140.250098146033
 31
0.0
1001
ACME_LAYERS
1000
1
  0
LINE
  5
57E8
330
1F
100
AcDbEntity
  8
P-0000
  6
Continuous
 62
     7
100
AcDbLine
 10
2451.335371044983
 20
2140.250098146051
 30
0.0
 11
2458.81404674434
 21
2140.250098146051
 31
0.0
1001
ACME_LAYERS
1000
1
  0
LINE
  5
57F1
330
1F
100
AcDbEntity
  8
P-0000
  6
Continuous
 62
     7
100
AcDbLine
 10
2431.335371044929
 20
2140.250098146033
 30
0.0
 11
2454.33537104493
 21
2140.250098146053
 31
0.0
1001
ACME_LAYERS
1000
1
  0
LINE
  5
57F2
330
1F
100
AcDbEntity
  8
P-0000
  6
Continuous
 62
     7
100
AcDbLine
 10
2417.835371044926
 20
2140.250098146033
 30
0.0
 11
2431.335371044929
 21
2140.250098146033
 31
0.0
1001
ACME_LAYERS
1000
1
  0
LINE
  5
58A6
330
1F
100
AcDbEntity
  8
P-0000
  6
Continuous
 62
     7
100
AcDbLine
 10
2458.814046744351
 20
2140.250098146037
 30
0.0
 11
2435.695218268405
 21
2140.250098146037
 31
0.0
1001
ACME_LAYERS
1000
1
  0
LINE
  5
58A7
330
1F
100
AcDbEntity
  8
P-0000
  6
Continuous
 62
     7
100
AcDbLine
 10
2431.335371044981
 20
2140.250098146033
 30
0.0
 11
2451.335371044983
 21
2140.250098146051
 31
0.0
1001
ACME_LAYERS
1000
1
  0
LINE
  5
58A8
330
1F
100
AcDbEntity
  8
P-0000
  6
Continuous
 62
     7
100
AcDbLine
 10
2417.835371044979
 20
2140.250098146033
 30
0.0
 11
2431.335371044981
 21
2140.250098146033
 31
0.0
1001
ACME_LAYERS
1000
1
  0
LINE
  5
58A9
330
1F
100
AcDbEntity
  8
P-0000
  6
Continuous
 62
     7
100
AcDbLine
 10
2599.335371044985
 20
2140.250098146033
 30
0.0
 11
2579.335371044984
 21
2140.250098146051
 31
0.0
1001
ACME_LAYERS
1000
1
  0
LINE
  5
58AA
330
1F
100
AcDbEntity
  8
P-0000
  6
Continuous
 62
     7
100
AcDbLine
 10
2612.835371044987
 20
2140.250098146033
 30
0.0
 11
2599.335371044985
 21
2140.250098146033
 31
0.0
1001
ACME_LAYERS
1000
1
  0
LINE
  5
58AB
330
1F
100
AcDbEntity
  8
P-0000
  6
Continuous
 62
     7
100
AcDbLine
 10
2579.335371044984
 20
2140.250098146051
 30
0.0
 11
2571.856695345597
 21
2140.250098146051
 31
0.0
1001
ACME_LAYERS
1000
1
  0
LINE
  5
58B0
330
1F
100
AcDbEntity
  8
P-0000
  6
Continuous
 62
     7
100
AcDbLine
 10
2431.335371044966
 20
2140.250098146037
 30
0.0
 11
2454.335371044968
 21
2140.250098146058
 31
0.0
1001
ACME_LAYERS
1000
1
  0
LINE
  5
58B1
330
1F
100
AcDbEntity
  8
P-0000
  6
Continuous
 62
     7
100
AcDbLine
 10
2417.835371044964
 20
2140.250098146037
 30
0.0
 11
2431.335371044966
 21
2140.250098146037
 31
0.0
1001
ACME_LAYERS
1000
1
  0
LINE
  5
58B4
330
1F
100
AcDbEntity
  8
P-0000
  6
Continuous
 62
     7
100
AcDbLine
 10
2599.335371044965
 20
2140.250098146037
 30
0.0
 11
2612.835371044964
 21
2140.250098146041
 31
0.0
1001
ACME_LAYERS
1000
1
  0
LINE
  5
58C2
330
1F
100
AcDbEntity
  8
P-0000
  6
Continuous
 62
     7
100
AcDbLine
 10
2597.77316251445
 20
2140.250098146037
 30
0.0
 11
2599.335371044965
 21
2140.250098146037
 31
0.0
1001
ACME_LAYERS
1000
1
  0
LINE
  5
598D
330
1F
100
AcDbEntity
  8
P-0000
  6
Continuous
 62
     7
100
AcDbLine
 10
2458.814046744351
 20
2140.250098146037
 30
0.0
 11
2435.695218268405
 21
2140.250098146037
 31
0.0
1001
ACME_LAYERS
1000
1
  0
LINE
  5
598E
330
1F
100
AcDbEntity
  8
P-0000
  6
Continuous
 62
     7
100
AcDbLine
 10
2431.335371044981
 20
2140.250098146033
 30
0.0
 11
2451.335371044983
 21
2140.250098146051
 31
0.0
1001
ACME_LAYERS
1000
1
  0
LINE
  5
598F
330
1F
100
AcDbEntity
  8
P-0000
  6
Continuous
 62
     7
100
AcDbLine
 10
2417.835371044979
 20
2140.250098146033
 30
0.0
 11
2431.335371044981
 21
2140.250098146033
 31
0.0
1001
ACME_LAYERS
1000
1
  0
LINE
  5
5990
330
1F
100
AcDbEntity
  8
P-0000
  6
Continuous
 62
     7
100
AcDbLine
 10
2451.335371044983
 20
2140.250098146051
 30
0.0
 11
2458.81404674434
 21
2140.250098146051
 31
0.0
1001
ACME_LAYERS
1000
1
  0
LINE
  5
5991
330
1F
100
AcDbEntity
  8
P-0000
  6
Continuous
 62
     7
100
AcDbLine
 10
2599.335371044985
 20
2140.250098146033
 30
0.0
 11
2579.335371044984
 21
2140.250098146051
 31
0.0
1001
ACME_LAYERS
1000
1
  0
LINE
  5
5992
330
1F
100
AcDbEntity
  8
P-0000
  6
Continuous
 62
     7
100
AcDbLine
 10
2612.835371044987
 20
2140.250098146033
 30
0.0
 11
2599.335371044985
 21
2140.250098146033
 31
0.0
1001
ACME_LAYERS
1000
1
  0
LINE
  5
5993
330
1F
100
AcDbEntity
  8
P-0000
  6
Continuous
 62
     7
100
AcDbLine
 10
2579.335371044984
 20
2140.250098146051
 30
0.0
 11
2571.856695345597
 21
2140.250098146051
 31
0.0
1001
ACME_LAYERS
1000
1
  0
HATCH
  5
5994
330
1F
100
AcDbEntity
  8
AM_8
100
AcDbHatch
 10
0.0
 20
0.0
 30
0.0
210
0.0
220
0.0
230
1.0
  2
ANSI37
 70
     0
 71
     0
 91
        2
 92
        1
 93
        8
 72
     1
 10
2451.335371044983
 20
2076.381211102106
 11
2451.335371044983
 21
2140.250098146037
 72
     1
 10
2451.335371044983
 20
2140.250098146037
 11
2426.335371044967
 21
2140.250098146037
 72
     1
 10
2426.335371044967
 20
2140.250098146037
 11
2426.335371044967
 21
1890.250098146037
 72
     1
 10
2426.335371044967
 20
1890.250098146037
 11
2464.335371044967
 21
1890.250098146037
 72
     1
 10
2464.335371044967
 20
1890.250098146037
 11
2464.335371044968
 21
2136.246333606662
 72
     1
 10
2464.335371044968
 20
2136.246333606662
 11
2463.839642361283
 21
2136.904187789276
 72
     1
 10
2463.839642361283
 20
2136.904187789276
 11
2463.839642361283
 21
2076.381211102106
 72
     1
 10
2463.839642361283
 20
2076.381211102106
 11
2451.335371044983
 21
2076.381211102106
 97
        0
 92
        1
 93
        6
 72
     1
 10
2583.260446388998
 20
2076.596217316245
 11
2583.260446388998
 21
1890.250098146037
 72
     1
 10
2583.260446388998
 20
1890.250098146037
 11
2604.335371044968
 21
1890.250098146037
 72
     1
 10
2604.335371044968
 20
1890.250098146037
 11
2604.335371044968
 21
2140.250098146037
 72
     1
 10
2604.335371044968
 20
2140.250098146037
 11
2579.355851000682
 21
2140.250098146037
 72
     1
 10
2579.355851000682
 20
2140.250098146037
 11
2579.569304928088
 21
2076.596217316245
 72
     1
 10
2579.569304928088
 20
2076.596217316245
 11
2583.260446388998
 21
2076.596217316245
 97
        0
 75
     0
 76
     1
 52
-90.00000000000001
 41
3.0
 77
     0
 78
     2
 53
315.0
 43
2152.617741423197
 44
2303.219249056983
 45
6.735192090801866
 46
6.735192090801862
 79
     0
 53
45.0
 43
2152.617741423197
 44
2303.219249056983
 45
-6.735192090801862
 46
6.735192090801866
 79
     0
 98
        2
 10
2575.864267125366
 20
2027.993245546992
 10
2452.346746009548
 20
2010.199526717823
1001
ACAD
1010
0.0
1020
0.0
1030
0.0
  0
LINE
  5
5995
330
1F
100
AcDbEntity
  8
P-0000
  6
Continuous
 62
     7
100
AcDbLine
 10
2426.335371044967
 20
1890.250098146037
 30
0.0
 11
2426.335371044967
 21
2140.250098146037
 31
0.0
1001
ACME_LAYERS
1000
1
  0
LINE
  5
5996
330
1F
100
AcDbEntity
  8
P-0000
  6
Continuous
 62
     7
100
AcDbLine
 10
2604.335371044968
 20
2140.250098146037
 30
0.0
 11
2604.335371044968
 21
1890.250098146037
 31
0.0
1001
ACME_LAYERS
1000
1
  0
LINE
  5
5997
330
1F
100
AcDbEntity
  8
0
100
AcDbLine
 10
2604.335371044968
 20
1890.250098146037
 30
0.0
 11
2583.260446388998
 21
1890.250098146037
 31
0.0
  0
LINE
  5
5998
330
1F
100
AcDbEntity
  8
0
100
AcDbLine
 10
2463.839642361291
 20
1890.250098146037
 30
0.0
 11
2426.335371044967
 21
1890.250098146037
 31
0.0
  0
LINE
  5
5999
330
1F
100
AcDbEntity
  8
P-0000
  6
Continuous
 62
     7
100
AcDbLine
 10
2575.015201901329
 20
2122.990321382973
 30
0.0
 11
2574.811951744122
 21
2115.987983288851
 31
0.0
1001
ACME_LAYERS
1000
1
  0
LINE
  5
599A
330
1F
100
AcDbEntity
  8
P-0000
  6
Continuous
 62
     7
100
AcDbLine
 10
2574.164465051852
 20
2093.680887476446
 30
0.0
 11
2573.960667143659
 21
2086.659678363214
 31
0.0
1001
ACME_LAYERS
1000
1
  0
LINE
  5
599B
330
1F
100
AcDbEntity
  8
P-0000
  6
STRICHLINIE
 62
     2
100
AcDbLine
 10
2570.852982497226
 20
2112.104232102798
 30
0.0
 11
2459.809216960041
 21
2112.176664713796
 31
0.0
  0
LINE
  5
599C
330
1F
100
AcDbEntity
  8
P-0000
  6
STRICHLINIE
 62
     2
100
AcDbLine
 10
2570.97753906462
 20
2127.10618314499
 30
0.0
 11
2459.94956569506
 21
2127.178739928794
 31
0.0
  0
LINE
  5
599D
102
{ACAD_REACTORS
330
5994
102
}
330
1F
100
AcDbEntity
  8
P-0000
  6
STRICHLINIE
 62
     2
100
AcDbLine
 10
2458.958874849792
 20
2083.178009875417
 30
0.0
 11
2569.995786629045
 21
2082.785457969693
 31
0.0
  0
LINE
  5
599E
330
1F
100
AcDbEntity
  8
P-0000
  6
STRICHLINIE
 62
     2
100
AcDbLine
 10
2459.12361356728
 20
2098.179240060866
 30
0.0
 11
2570.152592392054
 21
2097.786641439885
 31
0.0
  0
ARC
  5
599F
330
1F
100
AcDbEntity
  8
0
100
AcDbCircle
 10
2569.972290556453
 20
2086.775445148173
 30
0.0
 40
3.990056359233776
100
AcDbArc
 50
270.3373971327484
 51
358.3373971327556
  0
ARC
  5
59A0
330
1F
100
AcDbEntity
  8
0
100
AcDbCircle
 10
2570.176088464647
 20
2093.796654261405
 30
0.0
 40
3.990056359233776
100
AcDbArc
 50
358.3373971327556
 51
90.33739713274847
  0
ARC
  5
59A1
330
1F
100
AcDbEntity
  8
0
100
AcDbCircle
 10
2571.016885859527
 20
2123.106376670955
 30
0.0
 40
4.000000000000071
100
AcDbArc
 50
358.3373971327556
 51
90.56361041085166
  0
ARC
  5
59A2
330
1F
100
AcDbEntity
  8
0
100
AcDbCircle
 10
2570.81363570232
 20
2116.104038576832
 30
0.0
 40
4.000000000000076
100
AcDbArc
 50
270.5636104108517
 51
358.3373971327556
  0
ARC
  5
59A3
330
1F
100
AcDbEntity
  8
0
100
AcDbCircle
 10
2459.988912489969
 20
2123.178933454759
 30
0.0
 40
4.000000000000109
100
AcDbArc
 50
90.56361041085166
 51
178.3373971327556
  0
ARC
  5
59A4
330
1F
100
AcDbEntity
  8
0
100
AcDbCircle
 10
2459.78566233276
 20
2116.176595360636
 30
0.0
 40
3.999999999999976
100
AcDbArc
 50
178.3373971327556
 51
270.5636104108517
  0
ARC
  5
59A5
330
1F
100
AcDbEntity
  8
0
100
AcDbCircle
 10
2459.147168194561
 20
2094.179309414026
 30
0.0
 40
3.999999999999893
100
AcDbArc
 50
90.33739713274847
 51
178.3373971327556
  0
ARC
  5
59A6
330
1F
100
AcDbEntity
  8
0
100
AcDbCircle
 10
2458.935369284143
 20
2087.169609118051
 30
0.0
 40
3.991668451338988
100
AcDbArc
 50
178.3373971327556
 51
270.3373971327484
  0
LINE
  5
59A7
330
1F
100
AcDbEntity
  8
P-0000
  6
Continuous
 62
     7
100
AcDbLine
 10
2582.470971261388
 20
2071.367320079113
 30
0.0
 11
2581.621426973844
 21
1833.834842055123
 31
0.0
1001
ACME_LAYERS
1000
1
  0
LINE
  5
59A8
330
1F
100
AcDbEntity
  8
P-0000
  6
Continuous
 62
     7
100
AcDbLine
 10
2577.621454627073
 20
1833.849715691754
 30
0.0
 11
2577.571231738773
 21
1820.343256621689
 31
0.0
1001
ACME_LAYERS
1000
1
  0
LINE
  5
59A9
330
1F
100
AcDbEntity
  8
P-0000
  6
Continuous
 62
     7
100
AcDbLine
 10
2570.621503020223
 20
1833.875744555856
 30
0.0
 11
2570.57037118396
 21
1820.124841789277
 31
0.0
1001
ACME_LAYERS
1000
1
  0
LINE
  5
59AA
330
1F
100
AcDbEntity
  8
0
100
AcDbLine
 10
2581.621426973844
 20
1833.834842055123
 30
0.0
 11
2566.621530673452
 21
1833.890618192489
 31
0.0
  0
LINE
  5
59AB
330
1F
100
AcDbEntity
  8
0
100
AcDbLine
 10
2455.787346290958
 20
2116.292650648619
 30
0.0
 11
2455.990596448167
 21
2123.29498874274
 31
0.0
  0
LINE
  5
59AC
330
1F
100
AcDbEntity
  8
0
100
AcDbLine
 10
2454.945381283506
 20
2087.285422675963
 30
0.0
 11
2455.148852152758
 21
2094.295364702007
 31
0.0
  0
LINE
  5
59AD
330
1F
100
AcDbEntity
  8
0
100
AcDbLine
 10
2451.335371044983
 20
2140.250098146051
 30
0.0
 11
2451.335371044983
 21
2076.381211102106
 31
0.0
  0
LINE
  5
59AE
330
1F
100
AcDbEntity
  8
0
100
AcDbLine
 10
2451.335371044983
 20
2076.381211102106
 30
0.0
 11
2463.839642361283
 21
2076.381211102106
 31
0.0
  0
LINE
  5
59AF
102
{ACAD_REACTORS
330
5994
102
}
330
1F
100
AcDbEntity
  8
0
100
AcDbLine
 10
2579.355131213151
 20
2140.464745261174
 30
0.0
 11
2579.569304928088
 21
2076.596217316245
 31
0.0
  0
LINE
  5
59B0
102
{ACAD_REACTORS
330
5994
102
}
330
1F
100
AcDbEntity
  8
0
100
AcDbLine
 10
2579.569304928088
 20
2076.596217316245
 30
0.0
 11
2583.260446388998
 21
2076.596217316245
 31
0.0
  0
LINE
  5
59B1
102
{ACAD_REACTORS
330
5994
102
}
330
1F
100
AcDbEntity
  8
0
100
AcDbLine
 10
2583.260446388998
 20
2076.596217316245
 30
0.0
 11
2583.260446388998
 21
1890.250098146037
 31
0.0
  0
ARC
  5
59B2
330
1F
100
AcDbEntity
  8
0
100
AcDbCircle
 10
2577.834614719324
 20
2071.284027946737
 30
0.0
 40
4.637104653170354
100
AcDbArc
 50
358.5609527050877
 51
90.0
  0
LWPOLYLINE
  5
59B3
330
1F
100
AcDbEntity
  8
0
100
AcDbPolyline
 90
        4
 70
     0
 43
0.0
 10
2577.834614719324
 20
2075.921132599908
 10
2575.906907469323
 20
2078.034295311036
 10
2574.279430279806
 20
2082.150299363458
 10
2573.960667143657
 20
2086.659678363214
  0
ENDSEC
  0
SECTION
  2
OBJECTS
  0
DICTIONARY
  5
C
330
0
100
AcDbDictionary
281
     1
  3
ACAD_2007HEADERVARS_RT
350
59C8
  3
ACAD_COLOR
350
BE
  3
ACAD_GROUP
350
D
  3
ACAD_LAYOUT
350
1A
  3
ACAD_MATERIAL
350
BD
  3
ACAD_MLEADERSTYLE
350
3EF
  3
ACAD_MLINESTYLE
350
17
  3
ACAD_PLOTSETTINGS
350
19
  3
ACAD_PLOTSTYLENAME
350
E
  3
ACAD_SCALELIST
350
3DD
  3
ACAD_TABLESTYLE
350
11A
  3
ACAD_VISUALSTYLE
350
3CC
  3
ACDB_RECOMPOSE_DATA
350
4CFC
  3
AcDbVariableDictionary
350
94
  3
AcmDictionary
350
5B
  3
AcmSystemVariableManager
350
59D4
  3
AEC_PROPERTY_SET_DEFS
350
C10
  3
AMG
350
41
  3
AMGSNAPSETTINGS
350
26B
  3
DWGPROPS
350
59C7
  0
DICTIONARY
  5
470
330
2
100
AcDbDictionary
280
     1
281
     1
  3
ACAD_LAYERSTATES
360
471
  0
DICTIONARY
  5
4CED
330
10
100
AcDbDictionary
280
     1
281
     1
  3
ADSK_XREC_LAYER_RECONCILED
360
4CEE
  0
DICTIONARY
  5
45C
330
45B
100
AcDbDictionary
280
     1
281
     1
  3
ADSK_XREC_LAYER_RECONCILED
360
4CEF
  0
DICTIONARY
  5
45F
330
45E
100
AcDbDictionary
280
     1
281
     1
  3
ADSK_XREC_LAYER_RECONCILED
360
4CF0
  0
DICTIONARY
  5
463
330
462
100
AcDbDictionary
280
     1
281
     1
  3
ADSK_XREC_LAYER_RECONCILED
360
4CF2
  0
DICTIONARY
  5
467
330
466
100
AcDbDictionary
280
     1
281
     1
  3
ADSK_XREC_LAYER_RECONCILED
360
4CF4
  0
DICTIONARY
  5
25C6
330
25C5
100
AcDbDictionary
280
     1
281
     1
  3
ADSK_XREC_LAYER_RECONCILED
360
4CF5
  0
DICTIONARY
  5
33FA
330
33F9
100
AcDbDictionary
280
     1
281
     1
  3
ADSK_XREC_LAYER_RECONCILED
360
4CF6
  0
DICTIONARY
  5
8F
330
1F
100
AcDbDictionary
280
     1
281
     1
  0
DICTIONARY
  5
59C8
102
{ACAD_REACTORS
330
C
102
}
330
C
100
AcDbDictionary
281
     1
  3
DIMJOGANG
350
59C9
  3
DIMLTEX1
350
59CB
  3
DIMLTEX2
350
59CC
  3
DIMLTYPE
350
59CA
  0
DICTIONARY
  5
BE
102
{ACAD_REACTORS
330
C
102
}
330
C
100
AcDbDictionary
281
     1
  0
DICTIONARY
  5
D
102
{ACAD_REACTORS
330
C
102
}
330
C
100
AcDbDictionary
281
     1
  0
DICTIONARY
  5
1A
102
{ACAD_REACTORS
330
C
102
}
330
C
100
AcDbDictionary
281
     1
  3
Layout1
350
1E
  3
Layout2
350
26
  3
Model
350
22
  0
DICTIONARY
  5
BD
102
{ACAD_REACTORS
330
C
102
}
330
C
100
AcDbDictionary
281
     1
  3
ByBlock
350
3BC
  3
ByLayer
350
3B4
  3
Global
350
3C4
  0
DICTIONARY
  5
3EF
102
{ACAD_REACTORS
330
C
102
}
330
C
100
AcDbDictionary
281
     1
  3
Standard
350
3F0
  0
DICTIONARY
  5
17
102
{ACAD_REACTORS
330
C
102
}
330
C
100
AcDbDictionary
281
     1
  3
Standard
350
18
  0
DICTIONARY
  5
19
102
{ACAD_REACTORS
330
C
102
}
330
C
100
AcDbDictionary
281
     1
  0
ACDBDICTIONARYWDFLT
  5
E
102
{ACAD_REACTORS
330
C
102
}
330
C
100
AcDbDictionary
281
     1
  3
Normal
350
F
100
AcDbDictionaryWithDefault
340
F
  0
DICTIONARY
  5
3DD
102
{ACAD_REACTORS
330
C
102
}
330
C
100
AcDbDictionary
281
     1
  3
A0
350
3DE
  3
A1
350
3DF
  3
A2
350
3E0
  3
A3
350
3E1
  3
A4
350
3E2
  3
A5
350
3E3
  3
A6
350
3E4
  3
A7
350
3E5
  3
A8
350
3E6
  3
A9
350
3E7
  3
B0
350
3E8
  3
B1
350
3E9
  3
B2
350
3EA
  3
B3
350
3EB
  3
B4
350
3EC
  3
B5
350
3ED
  3
B6
350
3EE
  0
DICTIONARY
  5
11A
102
{ACAD_REACTORS
330
C
102
}
330
C
100
AcDbDictionary
281
     1
  3
Standard
350
11B
  0
DICTIONARY
  5
3CC
102
{ACAD_REACTORS
330
C
102
}
330
C
100
AcDbDictionary
281
     1
  3
2dWireframe
350
3D2
  3
3D Hidden
350
3D4
  3
3dWireframe
350
3D3
  3
Basic
350
3D1
  3
Brighten
350
3D8
  3
ColorChange
350
3DC
  3
Conceptual
350
3D5
  3
Dim
350
3D7
  3
Facepattern
350
3DB
  3
Flat
350
3CD
  3
FlatWithEdges
350
3CE
  3
Gouraud
350
3CF
  3
GouraudWithEdges
350
3D0
  3
Linepattern
350
3DA
  3
Realistic
350
3D6
  3
Thicken
350
3D9
  0
XRECORD
  5
4CFC
102
{ACAD_REACTORS
330
C
102
}
330
C
100
AcDbXrecord
280
     1
 90
        1
330
11B
  0
DICTIONARY
  5
94
102
{ACAD_REACTORS
330
C
102
}
330
C
100
AcDbDictionary
281
     1
  3
CANNOSCALE
350
4CF8
  3
CMLEADERSTYLE
350
4CF7
  3
CTABLESTYLE
350
138
  3
DIMASSOC
350
96
  3
INDEXCTL
350
95
  3
SORTENTS
350
4CF9
  0
DICTIONARY
  5
5B
102
{ACAD_REACTORS
330
C
102
}
330
C
100
AcDbDictionary
281
     1
  3
AcmBOM
350
272
  3
AcmStdDictionary
350
61
  3
AMDTSECTSYM_ARROWCOLOR
350
123
  0
DICTIONARY
  5
C10
102
{ACAD_REACTORS
330
C
102
}
330
C
100
AcDbDictionary
281
     1
  0
DICTIONARY
  5
41
102
{ACAD_REACTORS
330
C
102
}
330
C
100
AcDbDictionary
281
     1
  0
DICTIONARY
  5
26B
102
{ACAD_REACTORS
330
C
102
}
330
C
100
AcDbDictionary
281
     1
  0
XRECORD
  5
59C7
102
{ACAD_REACTORS
330
C
102
}
330
C
100
AcDbXrecord
280
     1
  1
DWGPROPS COOKIE
  2

  3

  4

  6

  7

  8
jamoeller
  9

300
AmdtFileType=84
301
=
302
=
303
=
304
=
305
=
306
=
307
=
308
=
309
=
 40
0.0932124652777778
 41
2455477.553616193
 42
2455610.492925706
  1

 90
        1
  0
DICTIONARY
  5
471
102
{ACAD_REACTORS
330
470
102
}
330
470
100
AcDbDictionary
281
     1
  0
XRECORD
  5
4CEE
102
{ACAD_REACTORS
330
4CED
102
}
330
4CED
100
AcDbXrecord
280
     1
290
     1
  0
XRECORD
  5
4CEF
102
{ACAD_REACTORS
330
45C
102
}
330
45C
100
AcDbXrecord
280
     1
290
     1
  0
XRECORD
  5
4CF0
102
{ACAD_REACTORS
330
45F
102
}
330
45F
100
AcDbXrecord
280
     1
290
     1
  0
XRECORD
  5
4CF2
102
{ACAD_REACTORS
330
463
102
}
330
463
100
AcDbXrecord
280
     1
290
     1
  0
XRECORD
  5
4CF4
102
{ACAD_REACTORS
330
467
102
}
330
467
100
AcDbXrecord
280
     1
290
     1
  0
XRECORD
  5
4CF5
102
{ACAD_REACTORS
330
25C6
102
}
330
25C6
100
AcDbXrecord
280
     1
290
     1
  0
XRECORD
  5
4CF6
102
{ACAD_REACTORS
330
33FA
102
}
330
33FA
100
AcDbXrecord
280
     1
290
     1
  0
XRECORD
  5
59C9
102
{ACAD_REACTORS
330
59C8
102
}
330
59C8
100
AcDbXrecord
280
     1
 40
1.570796326794896
  0
XRECORD
  5
59CB
102
{ACAD_REACTORS
330
59C8
102
}
330
59C8
100
AcDbXrecord
280
     1
340
14
  0
XRECORD
  5
59CC
102
{ACAD_REACTORS
330
59C8
102
}
330
59C8
100
AcDbXrecord
280
     1
340
14
  0
XRECORD
  5
59CA
102
{ACAD_REACTORS
330
59C8
102
}
330
59C8
100
AcDbXrecord
280
     1
340
14
  0
LAYOUT
  5
1E
102
{ACAD_XDICTIONARY
360
59CD
102
}
102
{ACAD_REACTORS
330
1A
102
}
330
1A
100
AcDbPlotSettings
  1

  2

  4

  6

 40
0.0
 41
0.0
 42
0.0
 43
0.0
 44
0.0
 45
0.0
 46
0.0
 47
0.0
 48
0.0
 49
0.0
140
0.0
141
0.0
142
1.0
143
1.0
 70
   688
 72
     0
 73
     0
 74
     5
  7

 75
    16
147
1.0
148
0.0
149
0.0
100
AcDbLayout
  1
Layout1
 70
     1
 71
     1
 10
0.0
 20
0.0
 11
420.0
 21
297.0
 12
0.0
 22
0.0
 32
0.0
 14
1.000000000000000E+20
 24
1.000000000000000E+20
 34
1.000000000000000E+20
 15
-1.000000000000000E+20
 25
-1.000000000000000E+20
 35
-1.000000000000000E+20
146
0.0
 13
0.0
 23
0.0
 33
0.0
 16
1.0
 26
0.0
 36
0.0
 17
0.0
 27
1.0
 37
0.0
 76
     0
330
1B
  0
LAYOUT
  5
26
102
{ACAD_XDICTIONARY
360
59D1
102
}
102
{ACAD_REACTORS
330
1A
102
}
330
1A
100
AcDbPlotSettings
  1

  2

  4

  6

 40
0.0
 41
0.0
 42
0.0
 43
0.0
 44
0.0
 45
0.0
 46
0.0
 47
0.0
 48
0.0
 49
0.0
140
0.0
141
0.0
142
1.0
143
1.0
 70
   688
 72
     0
 73
     0
 74
     5
  7

 75
    16
147
1.0
148
0.0
149
0.0
100
AcDbLayout
  1
Layout2
 70
     1
 71
     2
 10
0.0
 20
0.0
 11
12.0
 21
9.0
 12
0.0
 22
0.0
 32
0.0
 14
0.0
 24
0.0
 34
0.0
 15
0.0
 25
0.0
 35
0.0
146
0.0
 13
0.0
 23
0.0
 33
0.0
 16
1.0
 26
0.0
 36
0.0
 17
0.0
 27
1.0
 37
0.0
 76
     0
330
23
  0
LAYOUT
  5
22
102
{ACAD_XDICTIONARY
360
59CF
102
}
102
{ACAD_REACTORS
330
1A
102
}
330
1A
100
AcDbPlotSettings
  1

  2

  4

  6

 40
0.0
 41
0.0
 42
0.0
 43
0.0
 44
0.0
 45
0.0
 46
0.0
 47
0.0
 48
0.0
 49
0.0
140
0.0
141
0.0
142
1.0
143
1.0
 70
  1712
 72
     0
 73
     0
 74
     0
  7

 75
     0
147
1.0
148
0.0
149
0.0
100
AcDbLayout
  1
Model
 70
     1
 71
     0
 10
0.0
 20
0.0
 11
12.0
 21
9.0
 12
0.0
 22
0.0
 32
0.0
 14
0.0
 24
0.0
 34
0.0
 15
0.0
 25
0.0
 35
0.0
146
0.0
 13
0.0
 23
0.0
 33
0.0
 16
1.0
 26
0.0
 36
0.0
 17
0.0
 27
1.0
 37
0.0
 76
     0
330
1F
331
3B2
  0
MATERIAL
  5
3BC
102
{ACAD_XDICTIONARY
360
3BD
102
}
102
{ACAD_REACTORS
330
BD
102
}
330
BD
100
AcDbMaterial
  1
ByBlock
 72
     0
 43
0.0008202099737533
 43
0.0
 43
0.0
 43
0.0
 43
0.0
 43
0.0008202099737533
 43
0.0
 43
0.0
 43
0.0
 43
0.0
 43
1.0
 43
0.0
 43
0.0
 43
0.0
 43
0.0
 43
1.0
 77
     0
 47
0.0008202099737533
 47
0.0
 47
0.0
 47
0.0
 47
0.0
 47
0.0008202099737533
 47
0.0
 47
0.0
 47
0.0
 47
0.0
 47
1.0
 47
0.0
 47
0.0
 47
0.0
 47
0.0
 47
1.0
171
     0
 49
0.0008202099737533
 49
0.0
 49
0.0
 49
0.0
 49
0.0
 49
0.0008202099737533
 49
0.0
 49
0.0
 49
0.0
 49
0.0
 49
1.0
 49
0.0
 49
0.0
 49
0.0
 49
0.0
 49
1.0
175
     0
142
0.0008202099737533
142
0.0
142
0.0
142
0.0
142
0.0
142
0.0008202099737533
142
0.0
142
0.0
142
0.0
142
0.0
142
1.0
142
0.0
142
0.0
142
0.0
142
0.0
142
1.0
179
     0
144
0.0008202099737533
144
0.0
144
0.0
144
0.0
144
0.0
144
0.0008202099737533
144
0.0
144
0.0
144
0.0
144
0.0
144
1.0
144
0.0
144
0.0
144
0.0
144
0.0
144
1.0
147
0.0008202099737533
147
0.0
147
0.0
147
0.0
147
0.0
147
0.0008202099737533
147
0.0
147
0.0
147
0.0
147
0.0
147
1.0
147
0.0
147
0.0
147
0.0
147
0.0
147
1.0
  0
MATERIAL
  5
3B4
102
{ACAD_XDICTIONARY
360
3B5
102
}
102
{ACAD_REACTORS
330
BD
102
}
330
BD
100
AcDbMaterial
  1
ByLayer
 72
     0
 43
0.0008202099737533
 43
0.0
 43
0.0
 43
0.0
 43
0.0
 43
0.0008202099737533
 43
0.0
 43
0.0
 43
0.0
 43
0.0
 43
1.0
 43
0.0
 43
0.0
 43
0.0
 43
0.0
 43
1.0
 77
     0
 47
0.0008202099737533
 47
0.0
 47
0.0
 47
0.0
 47
0.0
 47
0.0008202099737533
 47
0.0
 47
0.0
 47
0.0
 47
0.0
 47
1.0
 47
0.0
 47
0.0
 47
0.0
 47
0.0
 47
1.0
171
     0
 49
0.0008202099737533
 49
0.0
 49
0.0
 49
0.0
 49
0.0
 49
0.0008202099737533
 49
0.0
 49
0.0
 49
0.0
 49
0.0
 49
1.0
 49
0.0
 49
0.0
 49
0.0
 49
0.0
 49
1.0
175
     0
142
0.0008202099737533
142
0.0
142
0.0
142
0.0
142
0.0
142
0.0008202099737533
142
0.0
142
0.0
142
0.0
142
0.0
142
1.0
142
0.0
142
0.0
142
0.0
142
0.0
142
1.0
179
     0
144
0.0008202099737533
144
0.0
144
0.0
144
0.0
144
0.0
144
0.0008202099737533
144
0.0
144
0.0
144
0.0
144
0.0
144
1.0
144
0.0
144
0.0
144
0.0
144
0.0
144
1.0
147
0.0008202099737533
147
0.0
147
0.0
147
0.0
147
0.0
147
0.0008202099737533
147
0.0
147
0.0
147
0.0
147
0.0
147
1.0
147
0.0
147
0.0
147
0.0
147
0.0
147
1.0
  0
MATERIAL
  5
3C4
102
{ACAD_XDICTIONARY
360
3C5
102
}
102
{ACAD_REACTORS
330
BD
102
}
330
BD
100
AcDbMaterial
  1
Global
 72
     0
 43
0.0008202099737533
 43
0.0
 43
0.0
 43
0.0
 43
0.0
 43
0.0008202099737533
 43
0.0
 43
0.0
 43
0.0
 43
0.0
 43
1.0
 43
0.0
 43
0.0
 43
0.0
 43
0.0
 43
1.0
 77
     0
 47
0.0008202099737533
 47
0.0
 47
0.0
 47
0.0
 47
0.0
 47
0.0008202099737533
 47
0.0
 47
0.0
 47
0.0
 47
0.0
 47
1.0
 47
0.0
 47
0.0
 47
0.0
 47
0.0
 47
1.0
171
     0
 49
0.0008202099737533
 49
0.0
 49
0.0
 49
0.0
 49
0.0
 49
0.0008202099737533
 49
0.0
 49
0.0
 49
0.0
 49
0.0
 49
1.0
 49
0.0
 49
0.0
 49
0.0
 49
0.0
 49
1.0
175
     0
142
0.0008202099737533
142
0.0
142
0.0
142
0.0
142
0.0
142
0.0008202099737533
142
0.0
142
0.0
142
0.0
142
0.0
142
1.0
142
0.0
142
0.0
142
0.0
142
0.0
142
1.0
179
     0
144
0.0008202099737533
144
0.0
144
0.0
144
0.0
144
0.0
144
0.0008202099737533
144
0.0
144
0.0
144
0.0
144
0.0
144
1.0
144
0.0
144
0.0
144
0.0
144
0.0
144
1.0
147
0.0008202099737533
147
0.0
147
0.0
147
0.0
147
0.0
147
0.0008202099737533
147
0.0
147
0.0
147
0.0
147
0.0
147
1.0
147
0.0
147
0.0
147
0.0
147
0.0
147
1.0
  0
MLEADERSTYLE
  5
3F0
102
{ACAD_REACTORS
330
3EF
102
}
330
3EF
100
AcDbMLeaderStyle
170
     2
171
     1
172
     0
 90
        2
 40
0.0
 41
0.0
173
     1
 91
-1056964608
340
14
 92
       -2
290
     1
 42
2.0
291
     1
 43
0.36
  3
Standard
 44
4.0
300

342
11
174
     1
178
     6
175
     1
176
     0
 93
-1056964608
 45
4.0
292
     0
297
     0
 46
4.0
 94
-1056964608
 47
1.0
 49
1.0
140
1.0
293
     1
141
0.0
294
     1
177
     0
142
1.0
295
     0
296
     0
143
0.125
1001
ACAD_MLEADERVER
1070
     2
  0
MLINESTYLE
  5
18
102
{ACAD_REACTORS
330
17
102
}
330
17
100
AcDbMlineStyle
  2
STANDARD
 70
     0
  3

 62
   256
 51
90.0
 52
90.0
 71
     2
 49
0.5
 62
   256
  6
BYLAYER
 49
-0.5
 62
   256
  6
BYLAYER
  0
ACDBPLACEHOLDER
  5
F
102
{ACAD_REACTORS
330
E
102
}
330
E
  0
SCALE
  5
3DE
102
{ACAD_REACTORS
330
3DD
102
}
330
3DD
100
AcDbScale
 70
     0
300
1:1
140
1.0
141
1.0
290
     1
  0
SCALE
  5
3DF
102
{ACAD_REACTORS
330
3DD
102
}
330
3DD
100
AcDbScale
 70
     0
300
1:2
140
1.0
141
2.0
290
     0
  0
SCALE
  5
3E0
102
{ACAD_REACTORS
330
3DD
102
}
330
3DD
100
AcDbScale
 70
     0
300
1:4
140
1.0
141
4.0
290
     0
  0
SCALE
  5
3E1
102
{ACAD_REACTORS
330
3DD
102
}
330
3DD
100
AcDbScale
 70
     0
300
1:5
140
1.0
141
5.0
290
     0
  0
SCALE
  5
3E2
102
{ACAD_REACTORS
330
3DD
102
}
330
3DD
100
AcDbScale
 70
     0
300
1:8
140
1.0
141
8.0
290
     0
  0
SCALE
  5
3E3
102
{ACAD_REACTORS
330
3DD
102
}
330
3DD
100
AcDbScale
 70
     0
300
1:10
140
1.0
141
10.0
290
     0
  0
SCALE
  5
3E4
102
{ACAD_REACTORS
330
3DD
102
}
330
3DD
100
AcDbScale
 70
     0
300
1:16
140
1.0
141
16.0
290
     0
  0
SCALE
  5
3E5
102
{ACAD_REACTORS
330
3DD
102
}
330
3DD
100
AcDbScale
 70
     0
300
1:20
140
1.0
141
20.0
290
     0
  0
SCALE
  5
3E6
102
{ACAD_REACTORS
330
3DD
102
}
330
3DD
100
AcDbScale
 70
     0
300
1:30
140
1.0
141
30.0
290
     0
  0
SCALE
  5
3E7
102
{ACAD_REACTORS
330
3DD
102
}
330
3DD
100
AcDbScale
 70
     0
300
1:40
140
1.0
141
40.0
290
     0
  0
SCALE
  5
3E8
102
{ACAD_REACTORS
330
3DD
102
}
330
3DD
100
AcDbScale
 70
     0
300
1:50
140
1.0
141
50.0
290
     0
  0
SCALE
  5
3E9
102
{ACAD_REACTORS
330
3DD
102
}
330
3DD
100
AcDbScale
 70
     0
300
1:100
140
1.0
141
100.0
290
     0
  0
SCALE
  5
3EA
102
{ACAD_REACTORS
330
3DD
102
}
330
3DD
100
AcDbScale
 70
     0
300
2:1
140
2.0
141
1.0
290
     0
  0
SCALE
  5
3EB
102
{ACAD_REACTORS
330
3DD
102
}
330
3DD
100
AcDbScale
 70
     0
300
4:1
140
4.0
141
1.0
290
     0
  0
SCALE
  5
3EC
102
{ACAD_REACTORS
330
3DD
102
}
330
3DD
100
AcDbScale
 70
     0
300
8:1
140
8.0
141
1.0
290
     0
  0
SCALE
  5
3ED
102
{ACAD_REACTORS
330
3DD
102
}
330
3DD
100
AcDbScale
 70
     0
300
10:1
140
10.0
141
1.0
290
     0
  0
SCALE
  5
3EE
102
{ACAD_REACTORS
330
3DD
102
}
330
3DD
100
AcDbScale
 70
     0
300
100:1
140
100.0
141
1.0
290
     0
  0
TABLESTYLE
  5
11B
102
{ACAD_XDICTIONARY
360
4CFA
102
}
102
{ACAD_REACTORS
330
11A
102
}
330
11A
100
AcDbTableStyle
  3
Standard
 70
     0
 71
     0
 40
1.5
 41
1.5
280
     0
281
     0
  7
STANDARD
140
4.5
170
     2
 62
     0
 63
     7
283
     0
274
    -2
284
     1
 64
     0
275
    -2
285
     1
 65
     0
276
    -2
286
     1
 66
     0
277
    -2
287
     1
 67
     0
278
    -2
288
     1
 68
     0
279
    -2
289
     1
 69
     0
  7
STANDARD
140
6.0
170
     5
 62
     0
 63
     7
283
     0
274
    -2
284
     1
 64
     0
275
    -2
285
     1
 65
     0
276
    -2
286
     1
 66
     0
277
    -2
287
     1
 67
     0
278
    -2
288
     1
 68
     0
279
    -2
289
     1
 69
     0
  7
STANDARD
140
4.5
170
     5
 62
     0
 63
     7
283
     0
274
    -2
284
     1
 64
     0
275
    -2
285
     1
 65
     0
276
    -2
286
     1
 66
     0
277
    -2
287
     1
 67
     0
278
    -2
288
     1
 68
     0
279
    -2
289
     1
 69
     0
  0
VISUALSTYLE
  5
3D2
102
{ACAD_REACTORS
330
3CC
102
}
330
3CC
100
AcDbVisualStyle
  2
2dWireframe
 70
     4
 71
     0
 72
     2
 73
     0
 90
        0
 40
-0.6
 41
-30.0
 62
     5
 63
     7
 74
     1
 91
        4
 64
     7
 65
   257
 75
     1
175
     1
 42
1.0
 92
        0
 66
   257
 43
1.0
 76
     1
 77
     6
 78
     2
 67
     7
 79
     5
170
     0
171
     0
290
     0
174
     0
 93
        1
 44
0.0
173
     0
291
     0
 45
0.0
1001
ACAD
1000
AcDbSavedByObjectVersion
1070
     0
1000
AcDbSavedByObjectVersion
1070
     0
1000
AcDbSavedByObjectVersion
1070
     0
1000
AcDbSavedByObjectVersion
1070
     0
1000
AcDbSavedByObjectVersion
1070
     0
1000
AcDbSavedByObjectVersion
1070
     0
1000
AcDbSavedByObjectVersion
1070
     0
1000
AcDbSavedByObjectVersion
1070
     0
  0
VISUALSTYLE
  5
3D4
102
{ACAD_REACTORS
330
3CC
102
}
330
3CC
100
AcDbVisualStyle
  2
3D Hidden
 70
     6
 71
     1
 72
     2
 73
     2
 90
        0
 40
-0.6
 41
-30.0
 62
     5
 63
     7
 74
     2
 91
        2
 64
     7
 65
   257
 75
     2
175
     1
 42
40.0
 92
        0
 66
   257
 43
1.0
 76
     1
 77
     6
 78
     2
 67
     7
 79
     3
170
     0
171
     0
290
     0
174
     0
 93
        1
 44
0.0
173
     0
291
     0
 45
0.0
1001
ACAD
1000
AcDbSavedByObjectVersion
1070
     0
1000
AcDbSavedByObjectVersion
1070
     0
1000
AcDbSavedByObjectVersion
1070
     0
1000
AcDbSavedByObjectVersion
1070
     0
1000
AcDbSavedByObjectVersion
1070
     0
1000
AcDbSavedByObjectVersion
1070
     0
1000
AcDbSavedByObjectVersion
1070
     0
1000
AcDbSavedByObjectVersion
1070
     0
  0
VISUALSTYLE
  5
3D3
102
{ACAD_REACTORS
330
3CC
102
}
330
3CC
100
AcDbVisualStyle
  2
3dWireframe
 70
     5
 71
     0
 72
     2
 73
     0
 90
        0
 40
-0.6
 41
-30.0
 62
     5
 63
     7
 74
     1
 91
        4
 64
     7
 65
   257
 75
     1
175
     1
 42
1.0
 92
        0
 66
   257
 43
1.0
 76
     1
 77
     6
 78
     2
 67
     7
 79
     5
170
     0
171
     0
290
     0
174
     0
 93
        1
 44
0.0
173
     0
291
     0
 45
0.0
1001
ACAD
1000
AcDbSavedByObjectVersion
1070
     0
1000
AcDbSavedByObjectVersion
1070
     0
1000
AcDbSavedByObjectVersion
1070
     0
1000
AcDbSavedByObjectVersion
1070
     0
1000
AcDbSavedByObjectVersion
1070
     0
1000
AcDbSavedByObjectVersion
1070
     0
1000
AcDbSavedByObjectVersion
1070
     0
1000
AcDbSavedByObjectVersion
1070
     0
  0
VISUALSTYLE
  5
3D1
102
{ACAD_REACTORS
330
3CC
102
}
330
3CC
100
AcDbVisualStyle
  2
Basic
 70
     7
 71
     1
 72
     0
 73
     1
 90
        0
 40
-0.6
 41
-30.0
 62
     5
 63
     7
 74
     0
 91
        4
 64
     7
 65
   257
 75
     1
175
     1
 42
1.0
 92
        8
 66
     7
 43
1.0
 76
     1
 77
     6
 78
     2
 67
     7
 79
     5
170
     0
171
     0
290
     0
174
     0
 93
        1
 44
0.0
173
     0
291
     1
 45
0.0
1001
ACAD
1000
AcDbSavedByObjectVersion
1070
     0
1000
AcDbSavedByObjectVersion
1070
     0
1000
AcDbSavedByObjectVersion
1070
     0
1000
AcDbSavedByObjectVersion
1070
     0
1000
AcDbSavedByObjectVersion
1070
     0
1000
AcDbSavedByObjectVersion
1070
     0
1000
AcDbSavedByObjectVersion
1070
     0
1000
AcDbSavedByObjectVersion
1070
     0
  0
VISUALSTYLE
  5
3D8
102
{ACAD_REACTORS
330
3CC
102
}
330
3CC
100
AcDbVisualStyle
  2
Brighten
 70
    12
 71
     2
 72
     2
 73
     0
 90
        0
 40
-0.6
 41
-30.0
 62
     5
 63
     7
 74
     1
 91
        4
 64
     7
 65
   257
 75
     1
175
     1
 42
1.0
 92
        8
 66
     7
 43
1.0
 76
     1
 77
     6
 78
     2
 67
     7
 79
     5
170
     0
171
     0
290
     0
174
     0
 93
        1
 44
50.0
173
     0
291
     1
 45
0.0
1001
ACAD
1000
AcDbSavedByObjectVersion
1070
     0
1000
AcDbSavedByObjectVersion
1070
     0
1000
AcDbSavedByObjectVersion
1070
     0
1000
AcDbSavedByObjectVersion
1070
     0
1000
AcDbSavedByObjectVersion
1070
     0
1000
AcDbSavedByObjectVersion
1070
     0
1000
AcDbSavedByObjectVersion
1070
     0
1000
AcDbSavedByObjectVersion
1070
     0
  0
VISUALSTYLE
  5
3DC
102
{ACAD_REACTORS
330
3CC
102
}
330
3CC
100
AcDbVisualStyle
  2
ColorChange
 70
    16
 71
     2
 72
     2
 73
     3
 90
        0
 40
-0.6
 41
-30.0
 62
     5
 63
     8
 74
     1
 91
        4
 64
     7
 65
   257
 75
     1
175
     1
 42
1.0
 92
        8
 66
     8
 43
1.0
 76
     1
 77
     6
 78
     2
 67
     7
 79
     5
170
     0
171
     0
290
     0
174
     0
 93
        1
 44
0.0
173
     0
291
     1
 45
0.0
1001
ACAD
1000
AcDbSavedByObjectVersion
1070
     0
1000
AcDbSavedByObjectVersion
1070
     0
1000
AcDbSavedByObjectVersion
1070
     0
1000
AcDbSavedByObjectVersion
1070
     0
1000
AcDbSavedByObjectVersion
1070
     0
1000
AcDbSavedByObjectVersion
1070
     0
1000
AcDbSavedByObjectVersion
1070
     0
1000
AcDbSavedByObjectVersion
1070
     0
  0
VISUALSTYLE
  5
3D5
102
{ACAD_REACTORS
330
3CC
102
}
330
3CC
100
AcDbVisualStyle
  2
Conceptual
 70
     9
 71
     3
 72
     2
 73
     0
 90
        0
 40
-0.6
 41
-30.0
 62
     5
 63
     7
 74
     2
 91
        2
 64
     7
 65
   257
 75
     1
175
     1
 42
40.0
 92
        8
 66
     7
 43
1.0
 76
     1
 77
     6
 78
     2
 67
     7
 79
     3
170
     0
171
     0
290
     0
174
     0
 93
        1
 44
0.0
173
     0
291
     0
 45
0.0
1001
ACAD
1000
AcDbSavedByObjectVersion
1070
     0
1000
AcDbSavedByObjectVersion
1070
     0
1000
AcDbSavedByObjectVersion
1070
     0
1000
AcDbSavedByObjectVersion
1070
     0
1000
AcDbSavedByObjectVersion
1070
     0
1000
AcDbSavedByObjectVersion
1070
     0
1000
AcDbSavedByObjectVersion
1070
     0
1000
AcDbSavedByObjectVersion
1070
     0
  0
VISUALSTYLE
  5
3D7
102
{ACAD_REACTORS
330
3CC
102
}
330
3CC
100
AcDbVisualStyle
  2
Dim
 70
    11
 71
     2
 72
     2
 73
     0
 90
        0
 40
-0.6
 41
-30.0
 62
     5
 63
     7
 74
     1
 91
        4
 64
     7
 65
   257
 75
     1
175
     1
 42
1.0
 92
        8
 66
     7
 43
1.0
 76
     1
 77
     6
 78
     2
 67
     7
 79
     5
170
     0
171
     0
290
     0
174
     0
 93
        1
 44
-50.0
173
     0
291
     1
 45
0.0
1001
ACAD
1000
AcDbSavedByObjectVersion
1070
     0
1000
AcDbSavedByObjectVersion
1070
     0
1000
AcDbSavedByObjectVersion
1070
     0
1000
AcDbSavedByObjectVersion
1070
     0
1000
AcDbSavedByObjectVersion
1070
     0
1000
AcDbSavedByObjectVersion
1070
     0
1000
AcDbSavedByObjectVersion
1070
     0
1000
AcDbSavedByObjectVersion
1070
     0
  0
VISUALSTYLE
  5
3DB
102
{ACAD_REACTORS
330
3CC
102
}
330
3CC
100
AcDbVisualStyle
  2
Facepattern
 70
    15
 71
     2
 72
     2
 73
     0
 90
        0
 40
-0.6
 41
-30.0
 62
     5
 63
     7
 74
     1
 91
        4
 64
     7
 65
   257
 75
     1
175
     1
 42
1.0
 92
        8
 66
     7
 43
1.0
 76
     1
 77
     6
 78
     2
 67
     7
 79
     5
170
     0
171
     0
290
     0
174
     0
 93
        1
 44
0.0
173
     0
291
     1
 45
0.0
1001
ACAD
1000
AcDbSavedByObjectVersion
1070
     0
1000
AcDbSavedByObjectVersion
1070
     0
1000
AcDbSavedByObjectVersion
1070
     0
1000
AcDbSavedByObjectVersion
1070
     0
1000
AcDbSavedByObjectVersion
1070
     0
1000
AcDbSavedByObjectVersion
1070
     0
1000
AcDbSavedByObjectVersion
1070
     0
1000
AcDbSavedByObjectVersion
1070
     0
  0
VISUALSTYLE
  5
3CD
102
{ACAD_REACTORS
330
3CC
102
}
330
3CC
100
AcDbVisualStyle
  2
Flat
 70
     0
 71
     2
 72
     1
 73
     1
 90
        2
 40
-0.6
 41
30.0
 62
     5
 63
     7
 74
     0
 91
        4
 64
     7
 65
   257
 75
     1
175
     1
 42
1.0
 92
        8
 66
     7
 43
1.0
 76
     1
 77
     6
 78
     2
 67
     7
 79
     5
170
     0
171
     0
290
     0
174
     0
 93
       13
 44
0.0
173
     0
291
     1
 45
0.0
1001
ACAD
1000
AcDbSavedByObjectVersion
1070
     0
1000
AcDbSavedByObjectVersion
1070
     0
1000
AcDbSavedByObjectVersion
1070
     0
1000
AcDbSavedByObjectVersion
1070
     0
1000
AcDbSavedByObjectVersion
1070
     0
1000
AcDbSavedByObjectVersion
1070
     0
1000
AcDbSavedByObjectVersion
1070
     0
1000
AcDbSavedByObjectVersion
1070
     0
  0
VISUALSTYLE
  5
3CE
102
{ACAD_REACTORS
330
3CC
102
}
330
3CC
100
AcDbVisualStyle
  2
FlatWithEdges
 70
     1
 71
     2
 72
     1
 73
     1
 90
        2
 40
-0.6
 41
30.0
 62
     5
 63
     7
 74
     1
 91
        4
 64
     7
 65
   257
 75
     1
175
     1
 42
1.0
 92
        0
 66
   257
 43
1.0
 76
     1
 77
     6
 78
     2
 67
     7
 79
     5
170
     0
171
     0
290
     0
174
     0
 93
       13
 44
0.0
173
     0
291
     1
 45
0.0
1001
ACAD
1000
AcDbSavedByObjectVersion
1070
     0
1000
AcDbSavedByObjectVersion
1070
     0
1000
AcDbSavedByObjectVersion
1070
     0
1000
AcDbSavedByObjectVersion
1070
     0
1000
AcDbSavedByObjectVersion
1070
     0
1000
AcDbSavedByObjectVersion
1070
     0
1000
AcDbSavedByObjectVersion
1070
     0
1000
AcDbSavedByObjectVersion
1070
     0
  0
VISUALSTYLE
  5
3CF
102
{ACAD_REACTORS
330
3CC
102
}
330
3CC
100
AcDbVisualStyle
  2
Gouraud
 70
     2
 71
     2
 72
     2
 73
     1
 90
        2
 40
-0.6
 41
30.0
 62
     5
 63
     7
 74
     0
 91
        4
 64
     7
 65
   257
 75
     1
175
     1
 42
1.0
 92
        0
 66
     7
 43
1.0
 76
     1
 77
     6
 78
     2
 67
     7
 79
     5
170
     0
171
     0
290
     0
174
     0
 93
       13
 44
0.0
173
     0
291
     1
 45
0.0
1001
ACAD
1000
AcDbSavedByObjectVersion
1070
     0
1000
AcDbSavedByObjectVersion
1070
     0
1000
AcDbSavedByObjectVersion
1070
     0
1000
AcDbSavedByObjectVersion
1070
     0
1000
AcDbSavedByObjectVersion
1070
     0
1000
AcDbSavedByObjectVersion
1070
     0
1000
AcDbSavedByObjectVersion
1070
     0
1000
AcDbSavedByObjectVersion
1070
     0
  0
VISUALSTYLE
  5
3D0
102
{ACAD_REACTORS
330
3CC
102
}
330
3CC
100
AcDbVisualStyle
  2
GouraudWithEdges
 70
     3
 71
     2
 72
     2
 73
     1
 90
        2
 40
-0.6
 41
30.0
 62
     5
 63
     7
 74
     1
 91
        4
 64
     7
 65
   257
 75
     1
175
     1
 42
1.0
 92
        0
 66
   257
 43
1.0
 76
     1
 77
     6
 78
     2
 67
     7
 79
     5
170
     0
171
     0
290
     0
174
     0
 93
       13
 44
0.0
173
     0
291
     1
 45
0.0
1001
ACAD
1000
AcDbSavedByObjectVersion
1070
     0
1000
AcDbSavedByObjectVersion
1070
     0
1000
AcDbSavedByObjectVersion
1070
     0
1000
AcDbSavedByObjectVersion
1070
     0
1000
AcDbSavedByObjectVersion
1070
     0
1000
AcDbSavedByObjectVersion
1070
     0
1000
AcDbSavedByObjectVersion
1070
     0
1000
AcDbSavedByObjectVersion
1070
     0
  0
VISUALSTYLE
  5
3DA
102
{ACAD_REACTORS
330
3CC
102
}
330
3CC
100
AcDbVisualStyle
  2
Linepattern
 70
    14
 71
     2
 72
     2
 73
     0
 90
        0
 40
-0.6
 41
-30.0
 62
     5
 63
     7
 74
     1
 91
        4
 64
     7
 65
   257
 75
     7
175
     7
 42
1.0
 92
        8
 66
     7
 43
1.0
 76
     1
 77
     6
 78
     2
 67
     7
 79
     5
170
     0
171
     0
290
     0
174
     0
 93
        1
 44
0.0
173
     0
291
     1
 45
0.0
1001
ACAD
1000
AcDbSavedByObjectVersion
1070
     0
1000
AcDbSavedByObjectVersion
1070
     0
1000
AcDbSavedByObjectVersion
1070
     0
1000
AcDbSavedByObjectVersion
1070
     0
1000
AcDbSavedByObjectVersion
1070
     0
1000
AcDbSavedByObjectVersion
1070
     0
1000
AcDbSavedByObjectVersion
1070
     0
1000
AcDbSavedByObjectVersion
1070
     0
  0
VISUALSTYLE
  5
3D6
102
{ACAD_REACTORS
330
3CC
102
}
330
3CC
100
AcDbVisualStyle
  2
Realistic
 70
     8
 71
     2
 72
     2
 73
     0
 90
        0
 40
-0.6
 41
-30.0
 62
     5
 63
     7
 74
     1
 91
        0
 64
     7
 65
   257
 75
     1
175
     1
 42
1.0
 92
        8
 66
     8
 43
1.0
 76
     1
 77
     6
 78
     2
 67
     7
 79
     5
170
     0
171
     0
290
     0
174
     0
 93
       13
 44
0.0
173
     0
291
     0
 45
0.0
1001
ACAD
1000
AcDbSavedByObjectVersion
1070
     0
1000
AcDbSavedByObjectVersion
1070
     0
1000
AcDbSavedByObjectVersion
1070
     0
1000
AcDbSavedByObjectVersion
1070
     0
1000
AcDbSavedByObjectVersion
1070
     0
1000
AcDbSavedByObjectVersion
1070
     0
1000
AcDbSavedByObjectVersion
1070
     0
1000
AcDbSavedByObjectVersion
1070
     0
  0
VISUALSTYLE
  5
3D9
102
{ACAD_REACTORS
330
3CC
102
}
330
3CC
100
AcDbVisualStyle
  2
Thicken
 70
    13
 71
     2
 72
     2
 73
     0
 90
        0
 40
-0.6
 41
-30.0
 62
     5
 63
     7
 74
     1
 91
        4
 64
     7
 65
   257
 75
     1
175
     1
 42
1.0
 92
       12
 66
     7
 43
1.0
 76
     1
 77
     6
 78
     2
 67
     7
 79
     5
170
     0
171
     0
290
     0
174
     0
 93
        1
 44
0.0
173
     0
291
     1
 45
0.0
1001
ACAD
1000
AcDbSavedByObjectVersion
1070
     0
1000
AcDbSavedByObjectVersion
1070
     0
1000
AcDbSavedByObjectVersion
1070
     0
1000
AcDbSavedByObjectVersion
1070
     0
1000
AcDbSavedByObjectVersion
1070
     0
1000
AcDbSavedByObjectVersion
1070
     0
1000
AcDbSavedByObjectVersion
1070
     0
1000
AcDbSavedByObjectVersion
1070
     0
  0
DICTIONARYVAR
  5
4CF8
102
{ACAD_REACTORS
330
94
102
}
330
94
100
DictionaryVariables
280
     0
  1
1:1
  0
DICTIONARYVAR
  5
4CF7
102
{ACAD_REACTORS
330
94
102
}
330
94
100
DictionaryVariables
280
     0
  1
STANDARD
  0
DICTIONARYVAR
  5
138
102
{ACAD_REACTORS
330
94
102
}
330
94
100
DictionaryVariables
280
     0
  1
STANDARD
  0
DICTIONARYVAR
  5
96
102
{ACAD_REACTORS
330
94
102
}
330
94
100
DictionaryVariables
280
     0
  1
2
  0
DICTIONARYVAR
  5
95
102
{ACAD_REACTORS
330
94
102
}
330
94
100
DictionaryVariables
280
     0
  1
0
  0
DICTIONARYVAR
  5
4CF9
102
{ACAD_REACTORS
330
94
102
}
330
94
100
DictionaryVariables
280
     0
  1
127
  0
DICTIONARY
  5
272
102
{ACAD_REACTORS
330
5B
102
}
330
5B
100
AcDbDictionary
281
     1
  0
DICTIONARY
  5
61
102
{ACAD_REACTORS
330
5B
102
}
330
5B
100
AcDbDictionary
281
     1
  0
XRECORD
  5
123
102
{ACAD_REACTORS
330
5B
102
}
330
5B
100
AcDbXrecord
280
     1
 90
-1023410169
  0
DICTIONARY
  5
59CD
330
1E
100
AcDbDictionary
280
     1
281
     1
  3
ACAD_XREC_ROUNDTRIP
360
59CE
  0
DICTIONARY
  5
59D1
330
26
100
AcDbDictionary
280
     1
281
     1
  3
ACAD_XREC_ROUNDTRIP
360
59D2
  0
DICTIONARY
  5
59CF
330
22
100
AcDbDictionary
280
     1
281
     1
  3
ACAD_XREC_ROUNDTRIP
360
59D0
  0
DICTIONARY
  5
3BD
330
3BC
100
AcDbDictionary
280
     1
281
     1
  3
ACAD_XREC_ROUNDTRIP
360
4D08
  3
BUMPTILE
360
3BF
  3
DIFFUSETILE
360
3BE
  3
OPACITYTILE
360
3C2
  3
REFLECTIONTILE
360
3C1
  3
REFRACTIONTILE
360
3C3
  3
SPECULARTILE
360
3C0
  0
DICTIONARY
  5
3B5
330
3B4
100
AcDbDictionary
280
     1
281
     1
  3
ACAD_XREC_ROUNDTRIP
360
4D07
  3
BUMPTILE
360
3B7
  3
DIFFUSETILE
360
3B6
  3
OPACITYTILE
360
3BA
  3
REFLECTIONTILE
360
3B9
  3
REFRACTIONTILE
360
3BB
  3
SPECULARTILE
360
3B8
  0
DICTIONARY
  5
3C5
330
3C4
100
AcDbDictionary
280
     1
281
     1
  3
ACAD_XREC_ROUNDTRIP
360
4D09
  3
BUMPTILE
360
3C7
  3
DIFFUSETILE
360
3C6
  3
OPACITYTILE
360
3CA
  3
REFLECTIONTILE
360
3C9
  3
REFRACTIONTILE
360
3CB
  3
SPECULARTILE
360
3C8
  0
DICTIONARY
  5
4CFA
330
11B
100
AcDbDictionary
280
     1
281
     1
  3
ACAD_ROUNDTRIP_2008_TABLESTYLE_CELLSTYLEMAP
360
59C6
  3
ACAD_XREC_ROUNDTRIP
360
59D3
  0
XRECORD
  5
59CE
102
{ACAD_REACTORS
330
59CD
102
}
330
59CD
100
AcDbXrecord
280
     1
102
SHADEPLOT
 70
     0
102
SHADEPLOTRESLEVEL
 70
     2
102
SHADEPLOTCUSTOMDPI
 70
   300
  0
XRECORD
  5
59D2
102
{ACAD_REACTORS
330
59D1
102
}
330
59D1
100
AcDbXrecord
280
     1
102
SHADEPLOT
 70
     0
102
SHADEPLOTRESLEVEL
 70
     2
102
SHADEPLOTCUSTOMDPI
 70
   300
  0
XRECORD
  5
59D0
102
{ACAD_REACTORS
330
59CF
102
}
330
59CF
100
AcDbXrecord
280
     1
102
SHADEPLOT
 70
     0
102
SHADEPLOTRESLEVEL
 70
     2
102
SHADEPLOTCUSTOMDPI
 70
   300
  0
XRECORD
  5
4D08
102
{ACAD_REACTORS
330
3BD
102
}
330
3BD
100
AcDbXrecord
280
     1
102
MATERIAL
148
0.0
149
0.0
149
0.0
 93
        0
 94
      127
282
     0
 72
     0
 77
     0
171
     0
175
     0
179
     0
273
     0
  0
XRECORD
  5
3BF
102
{ACAD_REACTORS
330
3BD
102
}
330
3BD
100
AcDbXrecord
280
     1
270
     1
271
     1
  0
XRECORD
  5
3BE
102
{ACAD_REACTORS
330
3BD
102
}
330
3BD
100
AcDbXrecord
280
     1
270
     1
271
     1
  0
XRECORD
  5
3C2
102
{ACAD_REACTORS
330
3BD
102
}
330
3BD
100
AcDbXrecord
280
     1
270
     1
271
     1
  0
XRECORD
  5
3C1
102
{ACAD_REACTORS
330
3BD
102
}
330
3BD
100
AcDbXrecord
280
     1
270
     1
271
     1
  0
XRECORD
  5
3C3
102
{ACAD_REACTORS
330
3BD
102
}
330
3BD
100
AcDbXrecord
280
     1
270
     1
271
     1
  0
XRECORD
  5
3C0
102
{ACAD_REACTORS
330
3BD
102
}
330
3BD
100
AcDbXrecord
280
     1
270
     1
271
     1
  0
XRECORD
  5
4D07
102
{ACAD_REACTORS
330
3B5
102
}
330
3B5
100
AcDbXrecord
280
     1
102
MATERIAL
148
0.0
149
0.0
149
0.0
 93
        0
 94
      127
282
     0
 72
     0
 77
     0
171
     0
175
     0
179
     0
273
     0
  0
XRECORD
  5
3B7
102
{ACAD_REACTORS
330
3B5
102
}
330
3B5
100
AcDbXrecord
280
     1
270
     1
271
     1
  0
XRECORD
  5
3B6
102
{ACAD_REACTORS
330
3B5
102
}
330
3B5
100
AcDbXrecord
280
     1
270
     1
271
     1
  0
XRECORD
  5
3BA
102
{ACAD_REACTORS
330
3B5
102
}
330
3B5
100
AcDbXrecord
280
     1
270
     1
271
     1
  0
XRECORD
  5
3B9
102
{ACAD_REACTORS
330
3B5
102
}
330
3B5
100
AcDbXrecord
280
     1
270
     1
271
     1
  0
XRECORD
  5
3BB
102
{ACAD_REACTORS
330
3B5
102
}
330
3B5
100
AcDbXrecord
280
     1
270
     1
271
     1
  0
XRECORD
  5
3B8
102
{ACAD_REACTORS
330
3B5
102
}
330
3B5
100
AcDbXrecord
280
     1
270
     1
271
     1
  0
XRECORD
  5
4D09
102
{ACAD_REACTORS
330
3C5
102
}
330
3C5
100
AcDbXrecord
280
     1
102
MATERIAL
148
0.0
149
0.0
149
0.0
 93
        0
 94
      127
282
     0
 72
     0
 77
     0
171
     0
175
     0
179
     0
273
     0
  0
XRECORD
  5
3C7
102
{ACAD_REACTORS
330
3C5
102
}
330
3C5
100
AcDbXrecord
280
     1
270
     1
271
     1
  0
XRECORD
  5
3C6
102
{ACAD_REACTORS
330
3C5
102
}
330
3C5
100
AcDbXrecord
280
     1
270
     1
271
     1
  0
XRECORD
  5
3CA
102
{ACAD_REACTORS
330
3C5
102
}
330
3C5
100
AcDbXrecord
280
     1
270
     1
271
     1
  0
XRECORD
  5
3C9
102
{ACAD_REACTORS
330
3C5
102
}
330
3C5
100
AcDbXrecord
280
     1
270
     1
271
     1
  0
XRECORD
  5
3CB
102
{ACAD_REACTORS
330
3C5
102
}
330
3C5
100
AcDbXrecord
280
     1
270
     1
271
     1
  0
XRECORD
  5
3C8
102
{ACAD_REACTORS
330
3C5
102
}
330
3C5
100
AcDbXrecord
280
     1
270
     1
271
     1
  0
CELLSTYLEMAP
  5
59C6
102
{ACAD_REACTORS
330
4CFA
102
}
330
4CFA
100
AcDbCellStyleMap
 90
        3
300
CELLSTYLE
  1
TABLEFORMAT_BEGIN
 90
        5
170
     1
 91
        0
 92
    32768
 62
   257
 93
        1
300
CONTENTFORMAT
  1
CONTENTFORMAT_BEGIN
 90
        0
 91
        0
 92
        4
 93
        0
300

 40
0.0
140
1.0
 94
        5
 62
     0
340
11
144
6.0
309
CONTENTFORMAT_END
171
     1
301
MARGIN
  1
CELLMARGIN_BEGIN
 40
1.5
 40
1.5
 40
1.5
 40
1.5
 40
0.18
 40
0.18
309
CELLMARGIN_END
 94
        6
 95
        1
302
GRIDFORMAT
  1
GRIDFORMAT_BEGIN
 90
        0
 91
        1
 62
     0
 92
       -2
340
0
 93
        0
 40
0.045
309
GRIDFORMAT_END
 95
        2
302
GRIDFORMAT
  1
GRIDFORMAT_BEGIN
 90
        0
 91
        1
 62
     0
 92
       -2
340
0
 93
        0
 40
0.045
309
GRIDFORMAT_END
 95
        4
302
GRIDFORMAT
  1
GRIDFORMAT_BEGIN
 90
        0
 91
        1
 62
     0
 92
       -2
340
0
 93
        0
 40
0.045
309
GRIDFORMAT_END
 95
        8
302
GRIDFORMAT
  1
GRIDFORMAT_BEGIN
 90
        0
 91
        1
 62
     0
 92
       -2
340
0
 93
        0
 40
0.045
309
GRIDFORMAT_END
 95
       16
302
GRIDFORMAT
  1
GRIDFORMAT_BEGIN
 90
        0
 91
        1
 62
     0
 92
       -2
340
0
 93
        0
 40
0.045
309
GRIDFORMAT_END
 95
       32
302
GRIDFORMAT
  1
GRIDFORMAT_BEGIN
 90
        0
 91
        1
 62
     0
 92
       -2
340
0
 93
        0
 40
0.045
309
GRIDFORMAT_END
309
TABLEFORMAT_END
  1
CELLSTYLE_BEGIN
 90
        1
 91
        1
300
_TITLE
309
CELLSTYLE_END
300
CELLSTYLE
  1
TABLEFORMAT_BEGIN
 90
        5
170
     1
 91
        0
 92
        0
 62
   257
 93
        1
300
CONTENTFORMAT
  1
CONTENTFORMAT_BEGIN
 90
        0
 91
        0
 92
        4
 93
        0
300

 40
0.0
140
1.0
 94
        5
 62
     0
340
11
144
4.5
309
CONTENTFORMAT_END
171
     1
301
MARGIN
  1
CELLMARGIN_BEGIN
 40
1.5
 40
1.5
 40
1.5
 40
1.5
 40
0.18
 40
0.18
309
CELLMARGIN_END
 94
        6
 95
        1
302
GRIDFORMAT
  1
GRIDFORMAT_BEGIN
 90
        0
 91
        1
 62
     0
 92
       -2
340
0
 93
        0
 40
0.045
309
GRIDFORMAT_END
 95
        2
302
GRIDFORMAT
  1
GRIDFORMAT_BEGIN
 90
        0
 91
        1
 62
     0
 92
       -2
340
0
 93
        0
 40
0.045
309
GRIDFORMAT_END
 95
        4
302
GRIDFORMAT
  1
GRIDFORMAT_BEGIN
 90
        0
 91
        1
 62
     0
 92
       -2
340
0
 93
        0
 40
0.045
309
GRIDFORMAT_END
 95
        8
302
GRIDFORMAT
  1
GRIDFORMAT_BEGIN
 90
        0
 91
        1
 62
     0
 92
       -2
340
0
 93
        0
 40
0.045
309
GRIDFORMAT_END
 95
       16
302
GRIDFORMAT
  1
GRIDFORMAT_BEGIN
 90
        0
 91
        1
 62
     0
 92
       -2
340
0
 93
        0
 40
0.045
309
GRIDFORMAT_END
 95
       32
302
GRIDFORMAT
  1
GRIDFORMAT_BEGIN
 90
        0
 91
        1
 62
     0
 92
       -2
340
0
 93
        0
 40
0.045
309
GRIDFORMAT_END
309
TABLEFORMAT_END
  1
CELLSTYLE_BEGIN
 90
        2
 91
        1
300
_HEADER
309
CELLSTYLE_END
300
CELLSTYLE
  1
TABLEFORMAT_BEGIN
 90
        5
170
     1
 91
        0
 92
        0
 62
   257
 93
        1
300
CONTENTFORMAT
  1
CONTENTFORMAT_BEGIN
 90
        0
 91
        0
 92
        4
 93
        0
300

 40
0.0
140
1.0
 94
        2
 62
     0
340
11
144
4.5
309
CONTENTFORMAT_END
171
     1
301
MARGIN
  1
CELLMARGIN_BEGIN
 40
1.5
 40
1.5
 40
1.5
 40
1.5
 40
0.18
 40
0.18
309
CELLMARGIN_END
 94
        6
 95
        1
302
GRIDFORMAT
  1
GRIDFORMAT_BEGIN
 90
        0
 91
        1
 62
     0
 92
       -2
340
0
 93
        0
 40
0.045
309
GRIDFORMAT_END
 95
        2
302
GRIDFORMAT
  1
GRIDFORMAT_BEGIN
 90
        0
 91
        1
 62
     0
 92
       -2
340
0
 93
        0
 40
0.045
309
GRIDFORMAT_END
 95
        4
302
GRIDFORMAT
  1
GRIDFORMAT_BEGIN
 90
        0
 91
        1
 62
     0
 92
       -2
340
0
 93
        0
 40
0.045
309
GRIDFORMAT_END
 95
        8
302
GRIDFORMAT
  1
GRIDFORMAT_BEGIN
 90
        0
 91
        1
 62
     0
 92
       -2
340
0
 93
        0
 40
0.045
309
GRIDFORMAT_END
 95
       16
302
GRIDFORMAT
  1
GRIDFORMAT_BEGIN
 90
        0
 91
        1
 62
     0
 92
       -2
340
0
 93
        0
 40
0.045
309
GRIDFORMAT_END
 95
       32
302
GRIDFORMAT
  1
GRIDFORMAT_BEGIN
 90
        0
 91
        1
 62
     0
 92
       -2
340
0
 93
        0
 40
0.045
309
GRIDFORMAT_END
309
TABLEFORMAT_END
  1
CELLSTYLE_BEGIN
 90
        3
 91
        2
300
_DATA
309
CELLSTYLE_END
  0
XRECORD
  5
59D3
102
{ACAD_REACTORS
330
4CFA
102
}
330
4CFA
100
AcDbXrecord
280
     1
102
ACAD_ROUNDTRIP_PRE2007_TABLESTYLE
 90
        4
 91
        0
  1

 92
        4
 93
        0
  2

 94
        4
 95
        0
  3

  0
ENDSEC
  0
EOF
