  0
SECTION
  2
HEADER
  9
$ACADVER
  1
AC1015
  9
$ACADMAINTVER
 70
    20
  9
$DWGCODEPAGE
  3
ANSI_1252
  9
$INSBASE
 10
0.0
 20
0.0
 30
0.0
  9
$EXTMIN
 10
25.31151973271482
 20
48.73975903874403
 30
0.0
  9
$EXTMAX
 10
335.3369693414265
 20
358.7023156835108
 30
0.0
  9
$LIMMIN
 10
0.0
 20
0.0
  9
$LIMMAX
 10
420.0
 20
297.0
  9
$ORTHOMODE
 70
     0
  9
$REGENMODE
 70
     1
  9
$FILLMODE
 70
     1
  9
$QTEXTMODE
 70
     0
  9
$MIRRTEXT
 70
     1
  9
$LTSCALE
 40
1.0
  9
$ATTMODE
 70
     1
  9
$TEXTSIZE
 40
2.5
  9
$TRACEWID
 40
1.0
  9
$TEXTSTYLE
  7
STANDARD
  9
$CLAYER
  8
0
  9
$CELTYPE
  6
ByLayer
  9
$CECOLOR
 62
   256
  9
$CELTSCALE
 40
1.0
  9
$DISPSILH
 70
     0
  9
$DIMSCALE
 40
1.0
  9
$DIMASZ
 40
2.5
  9
$DIMEXO
 40
1.0
  9
$DIMDLI
 40
10.0
  9
$DIMRND
 40
0.0
  9
$DIMDLE
 40
0.0
  9
$DIMEXE
 40
1.0
  9
$DIMTP
 40
1.0
  9
$DIMTM
 40
1.0
  9
$DIMTXT
 40
3.5
  9
$DIMCEN
 40
0.0
  9
$DIMTSZ
 40
0.0
  9
$DIMTOL
 70
     0
  9
$DIMLIM
 70
     0
  9
$DIMTIH
 70
     0
  9
$DIMTOH
 70
     0
  9
$DIMSE1
 70
     0
  9
$DIMSE2
 70
     0
  9
$DIMTAD
 70
     1
  9
$DIMZIN
 70
     8
  9
$DIMBLK
  1

  9
$DIMASO
 70
     1
  9
$DIMSHO
 70
     1
  9
$DIMPOST
  1

  9
$DIMAPOST
  1
"
  9
$DIMALT
 70
     0
  9
$DIMALTD
 70
     2
  9
$DIMALTF
 40
0.0393701
  9
$DIMLFAC
 40
1.0
  9
$DIMTOFL
 70
     1
  9
$DIMTVP
 40
0.0
  9
$DIMTIX
 70
     0
  9
$DIMSOXD
 70
     0
  9
$DIMSAH
 70
     0
  9
$DIMBLK1
  1

  9
$DIMBLK2
  1

  9
$DIMSTYLE
  2
AM_ISO
  9
$DIMCLRD
 70
   256
  9
$DIMCLRE
 70
   256
  9
$DIMCLRT
 70
     2
  9
$DIMTFAC
 40
0.71
  9
$DIMGAP
 40
1.5
  9
$DIMJUST
 70
     0
  9
$DIMSD1
 70
     0
  9
$DIMSD2
 70
     0
  9
$DIMTOLJ
 70
     0
  9
$DIMTZIN
 70
     8
  9
$DIMALTZ
 70
     0
  9
$DIMALTTZ
 70
     0
  9
$DIMUPT
 70
     0
  9
$DIMDEC
 70
     2
  9
$DIMTDEC
 70
     3
  9
$DIMALTU
 70
     2
  9
$DIMALTTD
 70
     4
  9
$DIMTXSTY
  7
STANDARD
  9
$DIMAUNIT
 70
     0
  9
$DIMADEC
 70
     0
  9
$DIMALTRND
 40
0.0
  9
$DIMAZIN
 70
     2
  9
$DIMDSEP
 70
    46
  9
$DIMATFIT
 70
     3
  9
$DIMFRAC
 70
     0
  9
$DIMLDRBLK
  1

  9
$DIMLUNIT
 70
     2
  9
$DIMLWD
 70
    -1
  9
$DIMLWE
 70
    -1
  9
$DIMTMOVE
 70
     0
  9
$LUNITS
 70
     2
  9
$LUPREC
 70
     2
  9
$SKETCHINC
 40
1.0
  9
$FILLETRAD
 40
0.0
  9
$AUNITS
 70
     0
  9
$AUPREC
 70
     0
  9
$MENU
  1
.
  9
$ELEVATION
 40
0.0
  9
$PELEVATION
 40
0.0
  9
$THICKNESS
 40
0.0
  9
$LIMCHECK
 70
     0
  9
$CHAMFERA
 40
2.5
  9
$CHAMFERB
 40
2.5
  9
$CHAMFERC
 40
20.0
  9
$CHAMFERD
 40
0.0
  9
$SKPOLY
 70
     0
  9
$TDCREATE
 40
2453878.360939479
  9
$TDUCREATE
 40
2453878.277606146
  9
$TDUPDATE
 40
2454020.001422072
  9
$TDUUPDATE
 40
2454019.918088738
  9
$TDINDWG
 40
0.3146252662
  9
$TDUSRTIMER
 40
0.3139385995
  9
$USRTIMER
 70
     1
  9
$ANGBASE
 50
0.0
  9
$ANGDIR
 70
     0
  9
$PDMODE
 70
     0
  9
$PDSIZE
 40
0.0
  9
$PLINEWID
 40
0.0
  9
$SPLFRAME
 70
     0
  9
$SPLINETYPE
 70
     6
  9
$SPLINESEGS
 70
     8
  9
$HANDSEED
  5
10C9
  9
$SURFTAB1
 70
     6
  9
$SURFTAB2
 70
     6
  9
$SURFTYPE
 70
     6
  9
$SURFU
 70
     6
  9
$SURFV
 70
     6
  9
$UCSBASE
  2

  9
$UCSNAME
  2

  9
$UCSORG
 10
0.0
 20
0.0
 30
0.0
  9
$UCSXDIR
 10
1.0
 20
0.0
 30
0.0
  9
$UCSYDIR
 10
0.0
 20
1.0
 30
0.0
  9
$UCSORTHOREF
  2

  9
$UCSORTHOVIEW
 70
     0
  9
$UCSORGTOP
 10
0.0
 20
0.0
 30
0.0
  9
$UCSORGBOTTOM
 10
0.0
 20
0.0
 30
0.0
  9
$UCSORGLEFT
 10
0.0
 20
0.0
 30
0.0
  9
$UCSORGRIGHT
 10
0.0
 20
0.0
 30
0.0
  9
$UCSORGFRONT
 10
0.0
 20
0.0
 30
0.0
  9
$UCSORGBACK
 10
0.0
 20
0.0
 30
0.0
  9
$PUCSBASE
  2

  9
$PUCSNAME
  2

  9
$PUCSORG
 10
0.0
 20
0.0
 30
0.0
  9
$PUCSXDIR
 10
1.0
 20
0.0
 30
0.0
  9
$PUCSYDIR
 10
0.0
 20
1.0
 30
0.0
  9
$PUCSORTHOREF
  2

  9
$PUCSORTHOVIEW
 70
     0
  9
$PUCSORGTOP
 10
0.0
 20
0.0
 30
0.0
  9
$PUCSORGBOTTOM
 10
0.0
 20
0.0
 30
0.0
  9
$PUCSORGLEFT
 10
0.0
 20
0.0
 30
0.0
  9
$PUCSORGRIGHT
 10
0.0
 20
0.0
 30
0.0
  9
$PUCSORGFRONT
 10
0.0
 20
0.0
 30
0.0
  9
$PUCSORGBACK
 10
0.0
 20
0.0
 30
0.0
  9
$USERI1
 70
     0
  9
$USERI2
 70
     0
  9
$USERI3
 70
     0
  9
$USERI4
 70
     0
  9
$USERI5
 70
     0
  9
$USERR1
 40
0.0
  9
$USERR2
 40
0.0
  9
$USERR3
 40
0.0
  9
$USERR4
 40
0.0
  9
$USERR5
 40
0.0
  9
$WORLDVIEW
 70
     1
  9
$SHADEDGE
 70
     3
  9
$SHADEDIF
 70
    70
  9
$TILEMODE
 70
     1
  9
$MAXACTVP
 70
    64
  9
$PINSBASE
 10
0.0
 20
0.0
 30
0.0
  9
$PLIMCHECK
 70
     0
  9
$PEXTMIN
 10
1.000000000000000E+20
 20
1.000000000000000E+20
 30
1.000000000000000E+20
  9
$PEXTMAX
 10
-1.000000000000000E+20
 20
-1.000000000000000E+20
 30
-1.000000000000000E+20
  9
$PLIMMIN
 10
0.0
 20
0.0
  9
$PLIMMAX
 10
420.0
 20
297.0
  9
$UNITMODE
 70
     0
  9
$VISRETAIN
 70
     1
  9
$PLINEGEN
 70
     0
  9
$PSLTSCALE
 70
     1
  9
$TREEDEPTH
 70
  3020
  9
$CMLSTYLE
  2
Standard
  9
$CMLJUST
 70
     0
  9
$CMLSCALE
 40
20.0
  9
$PROXYGRAPHICS
 70
     1
  9
$MEASUREMENT
 70
     1
  9
$CELWEIGHT
370
    -1
  9
$ENDCAPS
280
     0
  9
$JOINSTYLE
280
     0
  9
$LWDISPLAY
290
     0
  9
$INSUNITS
 70
     4
  9
$HYPERLINKBASE
  1

  9
$STYLESHEET
  1

  9
$XEDIT
290
     1
  9
$CEPSNTYPE
380
     0
  9
$PSTYLEMODE
290
     1
  9
$FINGERPRINTGUID
  2
{B48278F0-5081-43CC-B5A4-7A32094B14EA}
  9
$VERSIONGUID
  2
{65BC522B-F621-4ACE-9292-A12F90537827}
  9
$EXTNAMES
290
     1
  9
$PSVPSCALE
 40
0.0
  9
$OLESTARTUP
290
     0
  0
ENDSEC
  0
SECTION
  2
CLASSES
  0
CLASS
  1
ACDBDICTIONARYWDFLT
  2
AcDbDictionaryWithDefault
  3
ObjectDBX Classes
 90
        0
280
     0
281
     0
  0
CLASS
  1
ACDBPLACEHOLDER
  2
AcDbPlaceHolder
  3
ObjectDBX Classes
 90
        0
280
     0
281
     0
  0
CLASS
  1
LAYOUT
  2
AcDbLayout
  3
ObjectDBX Classes
 90
        0
280
     0
281
     0
  0
CLASS
  1
ACME_DOCUMENT
  2
AcMeDbDoc
  3
AcMeServices
 90
        0
280
     0
281
     0
  0
CLASS
  1
AMGSETTINGSOBJ
  2
AmgSettingsObj
  3
"AcadM|Product Description: AutoCAD Mechanical 2000|Company: Autodesk"
 90
        0
280
     0
281
     0
  0
CLASS
  1
ACMESCOPE
  2
AcMeScope
  3
AcMeServices
 90
        0
280
     0
281
     0
  0
CLASS
  1
ACMECOMMANDHISTORY
  2
AcMeCommandHistory
  3
AcMeServices
 90
        0
280
     0
281
     0
  0
CLASS
  1
ACIMSYSVARMAN
  2
AcImSysVarManager
  3
AcMeServices
 90
        0
280
     0
281
     0
  0
CLASS
  1
ACIMREALSYSVAR
  2
AcImRealSysVar
  3
AcMeServices
 90
        0
280
     0
281
     0
  0
CLASS
  1
ACIMINTSYSVAR
  2
AcImIntSysVar
  3
AcMeServices
 90
        0
280
     0
281
     0
  0
CLASS
  1
ACMEDRAWINGMAN
  2
AcMeDrawingMan
  3
AcMeServices
 90
        0
280
     0
281
     0
  0
CLASS
  1
ACMEVIEW
  2
AcMeView
  3
AcMeServices
 90
        0
280
     0
281
     0
  0
CLASS
  1
ACDBENTITYCACHE
  2
AcMeEntityCache
  3
AcMeServices
 90
        0
280
     0
281
     0
  0
CLASS
  1
GSMANAGER
  2
AcMeGSManager
  3
AcMeServices
 90
        0
280
     0
281
     0
  0
CLASS
  1
AMDTINTERNALREACTOR
  2
AmdtInternalReactor
  3
AcMeServices
 90
        0
280
     0
281
     0
  0
CLASS
  1
ACMESTATEMGR
  2
AcMeStateMgr
  3
AcMeServices
 90
        0
280
     0
281
     0
  0
CLASS
  1
ACGREFMASTER
  2
AcGrefMaster
  3
AcAttribServices
 90
        0
280
     0
281
     0
  0
CLASS
  1
ACME_DATABASE
  2
AcMeDbDatabase
  3
AcMeServices
 90
        0
280
     0
281
     0
  0
CLASS
  1
ACRFINSADJUSTERMGR
  2
AcRfInsAdjusterMgr
  3
AcMeServices
 90
        0
280
     0
281
     0
  0
CLASS
  1
ACGREFACADMASTER
  2
AcGrefacadMaster
  3
AcGrefServices
 90
        0
280
     0
281
     0
  0
CLASS
  1
AMIMASTER
  2
AmiMaster
  3
AmiServices
 90
        0
280
     0
281
     0
  0
CLASS
  1
ACMDATADICTIONARY
  2
AcmDataDictionary
  3
"AcmSymBB|Product Description: AutoCAD Mechanical 2004 DX|Company: Autodesk"
 90
        0
280
     0
281
     0
  0
CLASS
  1
ACMDATAENTRYBLOCK
  2
AcmDataEntryBlock
  3
"AcmSymBB|Product Description: AutoCAD Mechanical 2004 DX|Company: Autodesk"
 90
        0
280
     0
281
     0
  0
CLASS
  1
ACIMSTRSYSVAR
  2
AcImStrSysVar
  3
AcMeServices
 90
        0
280
     0
281
     0
  0
CLASS
  1
ACMSTANDARDISO
  2
AcmStandardISO
  3
"Amdt_StdImp|Product Description: AutoCAD Mechanical 2004 DX|Company: Autodesk"
 90
        0
280
     0
281
     0
  0
CLASS
  1
AMGOBJPROPCFG
  2
AmgObjPropCfg
  3
"AmgLay|Product Description: AutoCAD Mechanical 2000|Company: Autodesk"
 90
        1
280
     0
281
     0
  0
CLASS
  1
AMDTEDGESTANDARDISO
  2
AmdtEdgeStdISO
  3
"Amdt_StdImp|Product Description: AutoCAD Mechanical 2004 DX|Company: Autodesk"
 90
        0
280
     0
281
     0
  0
CLASS
  1
ACMSURFSTANDARDISO
  2
AcmSurfTextStdISO
  3
"Amdt_StdImp|Product Description: AutoCAD Mechanical 2004 DX|Company: Autodesk"
 90
        0
280
     0
281
     0
  0
CLASS
  1
ACMFCFSTANDARDISO
  2
AcmFCFStdISO
  3
"Amdt_StdImp|Product Description: AutoCAD Mechanical 2004 DX|Company: Autodesk"
 90
        0
280
     0
281
     0
  0
CLASS
  1
ACMWELDSTANDARDISO
  2
AcmWeldingStdISO
  3
"Amdt_StdImp|Product Description: AutoCAD Mechanical 2004 DX|Company: Autodesk"
 90
        0
280
     0
281
     0
  0
CLASS
  1
ACMIDSTANDARDISO
  2
AcmIdStdISO
  3
"Amdt_StdImp|Product Description: AutoCAD Mechanical 2004 DX|Company: Autodesk"
 90
        0
280
     0
281
     0
  0
CLASS
  1
ACMDATUMSTANDARDISO
  2
AcmDatumStdISO
  3
"Amdt_StdImp|Product Description: AutoCAD Mechanical 2004 DX|Company: Autodesk"
 90
        0
280
     0
281
     0
  0
CLASS
  1
ACMBOMSTANDARDISO
  2
AcmBOMStdISO
  3
"Amdt_StdImp|Product Description: AutoCAD Mechanical 2004 DX|Company: Autodesk"
 90
        0
280
     0
281
     0
  0
CLASS
  1
ACMDETAILSTANDARDISO
  2
AmdtDetailSymStdISO
  3
"Amdt_StdImp|Product Description: AutoCAD Mechanical 2004 DX|Company: Autodesk"
 90
        0
280
     0
281
     0
  0
CLASS
  1
ACMSECTIONSTANDARDISO
  2
AmdtSectionSymStdISO
  3
"Amdt_StdImp|Product Description: AutoCAD Mechanical 2004 DX|Company: Autodesk"
 90
        0
280
     0
281
     0
  0
CLASS
  1
ACMCENTERLINESTANDARDISO
  2
AmdtCenterLineStdISO
  3
"Amdt_StdImp|Product Description: AutoCAD Mechanical 2004 DX|Company: Autodesk"
 90
        0
280
     0
281
     0
  0
CLASS
  1
ACMNOTESTANDARDISO
  2
AmdtNoteStdISO
  3
"Amdt_StdImp|Product Description: AutoCAD Mechanical 2004 DX|Company: Autodesk"
 90
        0
280
     0
281
     0
  0
CLASS
  1
ACAMGLAYSTD
  2
AcAmgLayStd
  3
"AcAmgLayStd|Product Description: AutoCAD Mechanical 2000|Company: Autodesk"
 90
        0
280
     0
281
     0
  0
CLASS
  1
ACAMGDIMSTD
  2
AcAmgDimStd
  3
"AcAmgDimStd|Product Description: AutoCAD Mechanical 2000|Company: Autodesk"
 90
        0
280
     0
281
     0
  0
CLASS
  1
ACAMGHOLECHARTSTDISO
  2
AcAmgHoleChartStdISO
  3
ACMSYMBB_MODULE_NAME
 90
        0
280
     0
281
     0
  0
CLASS
  1
ACAMGTITLESTD
  2
AcAmgTitleStd
  3
"TITLEAPP"
 90
        0
280
     0
281
     0
  0
CLASS
  1
LAYER_INDEX
  2
AcDbLayerIndex
  3
ObjectDBX Classes
 90
    32768
280
     0
281
     0
  0
CLASS
  1
IDBUFFER
  2
AcDbIdBuffer
  3
ObjectDBX Classes
 90
    32768
280
     0
281
     0
  0
CLASS
  1
DICTIONARYVAR
  2
AcDbDictionaryVar
  3
ObjectDBX Classes
 90
        0
280
     0
281
     0
  0
CLASS
  1
AM_DRAWING_MGR
  2
AcDmDwgMgr
  3
AcMechDwgViewMgmt
 90
        0
280
     0
281
     0
  0
CLASS
  1
AM_DWG_DOCUMENT
  2
AcDmDwgDocument
  3
AcMechDwgViewMgmt
 90
        0
280
     0
281
     0
  0
CLASS
  1
AM_DWG_SHEET
  2
AcDmSheet
  3
AcMechDwgViewMgmt
 90
        0
280
     0
281
     0
  0
CLASS
  1
AM_VIEWDIMPARMAP
  2
AcDmViewDimParMap
  3
AcMechDwgViewMgmt
 90
        0
280
     0
281
     0
  0
CLASS
  1
AM_DWGMGR_NAME
  2
AcDmDwgMgrName
  3
AcMechDwgViewMgmt
 90
        0
280
     0
281
     0
  0
CLASS
  1
AMDTMENUSTATEMGR
  2
AmdtMenuStateMgr
  3
McadcomServices
 90
        0
280
     0
281
     0
  0
CLASS
  1
AMDTMCOMMENUSTATE
  2
AmdtMcomMenuState
  3
McadcomServices
 90
        0
280
     0
281
     0
  0
CLASS
  1
MAPIAMMOUDLE
  2
MApiAmModule
  3
MApiAmServices
 90
        0
280
     0
281
     0
  0
CLASS
  1
AMDTADMENUSTATE
  2
AmdtAdMenuState
  3
DesignerServices
 90
        0
280
     0
281
     0
  0
CLASS
  1
ADAPPL
  2
AcAdAppl
  3
DesignerServices
 90
        0
280
     0
281
     0
  0
CLASS
  1
DEPMGR
  2
AcAdDepMgr
  3
DesignerServices
 90
        0
280
     0
281
     0
  0
CLASS
  1
PARAMMGR
  2
AcAdParamMgr
  3
DesignerServices
 90
        0
280
     0
281
     0
  0
CLASS
  1
PARAMSCOPE
  2
AcAdParamScope
  3
DesignerServices
 90
        0
280
     0
281
     0
  0
CLASS
  1
NAMEDAPPL
  2
AcAdNamedAppl
  3
DesignerServices
 90
        0
280
     0
281
     0
  0
CLASS
  1
AMDTDMMENUSTATE
  2
AmdtDmMenuState
  3
AcMechDwgViewMgmt
 90
        0
280
     0
281
     0
  0
CLASS
  1
AMDTAMMENUSTATE
  2
AmdtAmMenuState
  3
DesignerAssemblies
 90
        0
280
     0
281
     0
  0
CLASS
  1
ACAMPROJECT
  2
AcAmProject
  3
DesignerAssemblies
 90
        0
280
     0
281
     0
  0
CLASS
  1
ACAMGRCOMPDEF
  2
AcAmGrCompDef
  3
DesignerAssemblies
 90
        0
280
     0
281
     0
  0
CLASS
  1
ACCMCONTEXT
  2
AcCmContext
  3
DesignerAssemblies
 90
        0
280
     0
281
     0
  0
CLASS
  1
ACAMCOMPDEF
  2
AcAmCompDef
  3
DesignerAssemblies
 90
        0
280
     0
281
     0
  0
CLASS
  1
ACAMCOMPDEFMGR
  2
AcAmCompDefMgr
  3
DesignerAssemblies
 90
        0
280
     0
281
     0
  0
CLASS
  1
AMCONTEXTMGR
  2
AcAmContextMgr
  3
DesignerAssemblies
 90
        0
280
     0
281
     0
  0
CLASS
  1
ACAMCONTEXTMODELER
  2
AcAmContextModeler
  3
DesignerAssemblies
 90
        0
280
     0
281
     0
  0
CLASS
  1
ACMTHREADLINESTANDARDISO
  2
AmdtThreadLineStdISO
  3
"Amdt_StdImp|Product Description: AutoCAD Mechanical 2004 DX|Company: Autodesk"
 90
        0
280
     0
281
     0
  0
CLASS
  1
CATALOGSTATE
  2
AcAmCatalogState
  3
DesignerAssemblies
 90
        0
280
     0
281
     0
  0
CLASS
  1
ACAMGRCOMPDEFSET
  2
AcAmGrCompDefSet
  3
DesignerAssemblies
 90
        0
280
     0
281
     0
  0
CLASS
  1
AMDTBROWSERDBTAB
  2
AmdtBrowserDbTab
  3
McadcomServices
 90
        0
280
     0
281
     0
  0
CLASS
  1
CBROWSERAPPOBJECT
  2
CBrowserAppObject
  3
McadcomServices
 90
        0
280
     0
281
     0
  0
CLASS
  1
DM_PLACEHOLDER
  2
AcDmSelsetPlaceholder
  3
AcMechDwgViewMgmt
 90
        0
280
     0
281
     0
  0
CLASS
  1
TABLESTYLE
  2
AcDbTableStyle
  3
ObjectDBX Classes
 90
     2047
280
     0
281
     0
  0
CLASS
  1
VAACXREFPANELOBJECT
  2
VaAcXREFPanelObject
  3
VAAC_ADDIN
 90
    32768
280
     0
281
     0
  0
CLASS
  1
VAACIMAGEINVENTORY
  2
VaAcImageInventory
  3
VAAC_ADDIN
 90
    32768
280
     0
281
     0
  0
CLASS
  1
AMDTNOTETEMPLATEDB
  2
AmdtNoteTemplateDB
  3
AMDT_STDIMP_MODULE_NAME
 90
        0
280
     0
281
     0
  0
CLASS
  1
ACAMGFILTERDAT
  2
AcAmgFilterDat
  3
"AcadM|Product Description: AutoCAD Mechanical 2000|Company: Autodesk"
 90
        0
280
     0
281
     0
  0
CLASS
  1
ACMBOM
  2
AcmBom
  3
"AcmSymBB|Product Description: AutoCAD Mechanical 2004 DX|Company: Autodesk"
 90
    32768
280
     0
281
     0
  0
CLASS
  1
AMDTFORMULAUPDATEDISPATCHER
  2
AmdtFormulaUpdateDispatcher
  3
AcMeServices
 90
    32768
280
     0
281
     0
  0
CLASS
  1
STDPART2D
  2
AmgStdPart
  3
"AmgStdPart|Product Description: AutoCAD Mechanical 2000|Company: Autodesk"
 90
     1023
280
     0
281
     1
  0
CLASS
  1
ACMSTANDARDDIN
  2
AcmStandardDIN
  3
"Amdt_StdImp|Product Description: AutoCAD Mechanical 2004 DX|Company: Autodesk"
 90
        0
280
     0
281
     0
  0
CLASS
  1
AMDTEDGESTANDARDDIN
  2
AmdtEdgeStdDIN
  3
"Amdt_StdImp|Product Description: AutoCAD Mechanical 2004 DX|Company: Autodesk"
 90
        0
280
     0
281
     0
  0
CLASS
  1
ACMSURFSTANDARDDIN
  2
AcmSurfTextStdDIN
  3
"Amdt_StdImp|Product Description: AutoCAD Mechanical 2004 DX|Company: Autodesk"
 90
        0
280
     0
281
     0
  0
CLASS
  1
ACMFCFSTANDARDDIN
  2
AcmFCFStdDIN
  3
"Amdt_StdImp|Product Description: AutoCAD Mechanical 2004 DX|Company: Autodesk"
 90
        0
280
     0
281
     0
  0
CLASS
  1
ACMWELDSTANDARDDIN
  2
AcmWeldingStdDIN
  3
"Amdt_StdImp|Product Description: AutoCAD Mechanical 2004 DX|Company: Autodesk"
 90
        0
280
     0
281
     0
  0
CLASS
  1
ACMIDSTANDARDDIN
  2
AcmIdStdDIN
  3
"Amdt_StdImp|Product Description: AutoCAD Mechanical 2004 DX|Company: Autodesk"
 90
        0
280
     0
281
     0
  0
CLASS
  1
ACMDATUMSTANDARDDIN
  2
AcmDatumStdDIN
  3
"Amdt_StdImp|Product Description: AutoCAD Mechanical 2004 DX|Company: Autodesk"
 90
        0
280
     0
281
     0
  0
CLASS
  1
ACMBOMSTANDARDDIN
  2
AcmBOMStdDIN
  3
"Amdt_StdImp|Product Description: AutoCAD Mechanical 2004 DX|Company: Autodesk"
 90
        0
280
     0
281
     0
  0
CLASS
  1
ACMDETAILSTANDARDDIN
  2
AmdtDetailSymStdDIN
  3
"Amdt_StdImp|Product Description: AutoCAD Mechanical 2004 DX|Company: Autodesk"
 90
        0
280
     0
281
     0
  0
CLASS
  1
ACMSECTIONSTANDARDDIN
  2
AmdtSectionSymStdDIN
  3
"Amdt_StdImp|Product Description: AutoCAD Mechanical 2004 DX|Company: Autodesk"
 90
        0
280
     0
281
     0
  0
CLASS
  1
ACMCENTERLINESTANDARDDIN
  2
AmdtCenterLineStdDIN
  3
"Amdt_StdImp|Product Description: AutoCAD Mechanical 2004 DX|Company: Autodesk"
 90
        0
280
     0
281
     0
  0
CLASS
  1
ACMTHREADLINESTANDARDDIN
  2
AmdtThreadLineStdDIN
  3
"Amdt_StdImp|Product Description: AutoCAD Mechanical 2004 DX|Company: Autodesk"
 90
        0
280
     0
281
     0
  0
CLASS
  1
ACMNOTESTANDARDDIN
  2
AmdtNoteStdDIN
  3
"Amdt_StdImp|Product Description: AutoCAD Mechanical 2004 DX|Company: Autodesk"
 90
        0
280
     0
281
     0
  0
CLASS
  1
SORTENTSTABLE
  2
AcDbSortentsTable
  3
ObjectDBX Classes
 90
        0
280
     0
281
     0
  0
CLASS
  1
DIMASSOC
  2
AcDbDimAssoc
  3
"AcDbDimAssoc|Product Desc:     AcDim ARX App For Dimension|Company:          Autodesk, Inc.|WEB Address:      www.autodesk.com"
 90
        0
280
     0
281
     0
  0
ENDSEC
  0
SECTION
  2
TABLES
  0
TABLE
  2
VPORT
  5
8
330
0
100
AcDbSymbolTable
 70
    29
  0
VPORT
  5
10BE
330
8
100
AcDbSymbolTableRecord
100
AcDbViewportTableRecord
  2
*Active
 70
     0
 10
0.0
 20
0.0
 11
1.0
 21
1.0
 12
180.3242445370706
 22
203.7210373611274
 13
0.0
 23
0.0
 14
2.5
 24
2.5
 15
10.0
 25
10.0
 16
0.0
 26
0.0
 36
1.0
 17
0.0
 27
0.0
 37
0.0
 40
312.2141006397651
 41
1.494545454545454
 42
50.0
 43
0.0
 44
0.0
 50
0.0
 51
0.0
 71
     0
 72
   100
 73
     1
 74
     3
 75
     0
 76
     0
 77
     0
 78
     0
281
     0
 65
     1
110
0.0
120
0.0
130
0.0
111
1.0
121
0.0
131
0.0
112
0.0
122
1.0
132
0.0
 79
     0
146
0.0
  0
ENDTAB
  0
TABLE
  2
LTYPE
  5
5
330
0
100
AcDbSymbolTable
 70
    26
  0
LTYPE
  5
14
330
5
100
AcDbSymbolTableRecord
100
AcDbLinetypeTableRecord
  2
ByBlock
 70
     0
  3

 72
    65
 73
     0
 40
0.0
  0
LTYPE
  5
15
330
5
100
AcDbSymbolTableRecord
100
AcDbLinetypeTableRecord
  2
ByLayer
 70
     0
  3

 72
    65
 73
     0
 40
0.0
  0
LTYPE
  5
16
330
5
100
AcDbSymbolTableRecord
100
AcDbLinetypeTableRecord
  2
Continuous
 70
     0
  3
Solid line
 72
    65
 73
     0
 40
0.0
  0
LTYPE
  5
64
330
5
100
AcDbSymbolTableRecord
100
AcDbLinetypeTableRecord
  2
AM_ISO02W050
 70
     0
  3
__ __ __ __ __ __ __ __ __ __ __ __ __ __ __
 72
    65
 73
     2
 40
7.5
 49
6.0
 74
     0
 49
-1.5
 74
     0
  0
LTYPE
  5
65
330
5
100
AcDbSymbolTableRecord
100
AcDbLinetypeTableRecord
  2
AM_ISO08W050
 70
     0
  3
____ . ____ . ____ . ____ . ____ . ____ . ____
 72
    65
 73
     4
 40
18.0
 49
12.0
 74
     0
 49
-1.5
 74
     0
 49
3.0
 74
     0
 49
-1.5
 74
     0
  0
LTYPE
  5
66
330
5
100
AcDbSymbolTableRecord
100
AcDbLinetypeTableRecord
  2
AM_ISO09W050
 70
     0
  3
_____ . . _____ . . _____ . . ____ .. ____
 72
    65
 73
     6
 40
22.5
 49
12.0
 74
     0
 49
-1.5
 74
     0
 49
3.0
 74
     0
 49
-1.5
 74
     0
 49
3.0
 74
     0
 49
-1.5
 74
     0
  0
LTYPE
  5
67
330
5
100
AcDbSymbolTableRecord
100
AcDbLinetypeTableRecord
  2
Amconstr
 70
     0
  3
_______________________
 72
    65
 73
     2
 40
9999.0
 49
9999.0
 74
     0
 49
0.0
 74
     0
  0
LTYPE
  5
68
330
5
100
AcDbSymbolTableRecord
100
AcDbLinetypeTableRecord
  2
AM_ISO08W050x2
 70
     0
  3
__ . __ . __ . __ . __ . __
 72
    65
 73
     4
 40
9.0
 49
6.0
 74
     0
 49
-0.75
 74
     0
 49
1.5
 74
     0
 49
-0.75
 74
     0
  0
LTYPE
  5
69
330
5
100
AcDbSymbolTableRecord
100
AcDbLinetypeTableRecord
  2
AM_ISO02W050x2
 70
     0
  3
 _ _ _ _ _ _ _ _ _ _ _ _
 72
    65
 73
     2
 40
3.75
 49
3.0
 74
     0
 49
-0.75
 74
     0
  0
LTYPE
  5
6C
330
5
100
AcDbSymbolTableRecord
100
AcDbLinetypeTableRecord
  2
Amzigzag
 70
     0
  3
/\/-/\/-/\/-/\/-/\/-/\/
 72
    65
 73
     2
 40
11.0001
 49
0.0001
 74
     4
 75
   136
340
22C
 46
0.04
 50
0.0
 44
0.0
 45
0.0
 49
-11.0
 74
     0
  0
LTYPE
  5
7A
330
5
100
AcDbSymbolTableRecord
100
AcDbLinetypeTableRecord
  2
ACISOWELD
 70
     0
  3
_ _ _ _ _
 72
    65
 73
     2
 40
2.0
 49
2.0
 74
     0
 49
-1.0
 74
     0
  0
LTYPE
  5
7B
330
5
100
AcDbSymbolTableRecord
100
AcDbLinetypeTableRecord
  2
ACISOTGB
 70
     0
  3
__ . . __ . .
 72
    65
 73
     6
 40
9.0
 49
4.0
 74
     0
 49
-1.0
 74
     0
 49
1.0
 74
     0
 49
-1.0
 74
     0
 49
1.0
 74
     0
 49
-1.0
 74
     0
  0
LTYPE
  5
7C
330
5
100
AcDbSymbolTableRecord
100
AcDbLinetypeTableRecord
  2
ACISOTGL
 70
     0
  3
_ _ _ _ _
 72
    65
 73
     2
 40
3.0
 49
2.0
 74
     0
 49
-1.0
 74
     0
  0
LTYPE
  5
7E
330
5
100
AcDbSymbolTableRecord
100
AcDbLinetypeTableRecord
  2
CENTER
 70
     0
  3
__ . __
 72
    65
 73
     4
 40
7.0
 49
4.0
 74
     0
 49
-1.0
 74
     0
 49
1.0
 74
     0
 49
-1.0
 74
     0
  0
LTYPE
  5
D8
330
5
100
AcDbSymbolTableRecord
100
AcDbLinetypeTableRecord
  2
HIDDEN
 70
     0
  3
Hidden __ __ __ __ __ __ __ __ __ __ __ __ __ _
 72
    65
 73
     2
 40
9.524999999999998
 49
6.349999999999999
 74
     0
 49
-3.174999999999999
 74
     0
  0
LTYPE
  5
D9
330
5
100
AcDbSymbolTableRecord
100
AcDbLinetypeTableRecord
  2
PHANTOM2
 70
     0
  3
Phantom (.5x) ___ _ _ ___ _ _ ___ _ _ ___ _ _
 72
    65
 73
     6
 40
31.75
 49
15.875
 74
     0
 49
-3.174999999999999
 74
     0
 49
3.174999999999999
 74
     0
 49
-3.174999999999999
 74
     0
 49
3.174999999999999
 74
     0
 49
-3.174999999999999
 74
     0
  0
LTYPE
  5
5AC
330
5
100
AcDbSymbolTableRecord
100
AcDbLinetypeTableRecord
  2
AM_DIN_G_W050x2
 70
     0
  3
__ . __ . __ . __ . __ . __
 72
    65
 73
     4
 40
6.875
 49
4.75
 74
     0
 49
-0.875
 74
     0
 49
0.375
 74
     0
 49
-0.875
 74
     0
  0
LTYPE
  5
5AD
330
5
100
AcDbSymbolTableRecord
100
AcDbLinetypeTableRecord
  2
AM_DIN_F_W050x2
 70
     0
  3
 _ _ _ _ _ _ _ _ _ _ _ _
 72
    65
 73
     2
 40
3.125
 49
2.25
 74
     0
 49
-0.875
 74
     0
  0
LTYPE
  5
5AE
330
5
100
AcDbSymbolTableRecord
100
AcDbLinetypeTableRecord
  2
ACDINWELD
 70
     0
  3
_ _ _ _ _
 72
    65
 73
     2
 40
2.0
 49
2.0
 74
     0
 49
-1.0
 74
     0
  0
LTYPE
  5
5AF
330
5
100
AcDbSymbolTableRecord
100
AcDbLinetypeTableRecord
  2
ACDINTGB
 70
     0
  3
__ . . __ . .
 72
    65
 73
     6
 40
9.0
 49
4.0
 74
     0
 49
-1.0
 74
     0
 49
1.0
 74
     0
 49
-1.0
 74
     0
 49
1.0
 74
     0
 49
-1.0
 74
     0
  0
LTYPE
  5
5B0
330
5
100
AcDbSymbolTableRecord
100
AcDbLinetypeTableRecord
  2
ACDINTGL
 70
     0
  3
_ _ _ _ _
 72
    65
 73
     2
 40
3.0
 49
2.0
 74
     0
 49
-1.0
 74
     0
  0
LTYPE
  5
5B3
330
5
100
AcDbSymbolTableRecord
100
AcDbLinetypeTableRecord
  2
GEN7
 70
     0
  3
____ . ____ . ____ . ____ . ____ . ____ . ____
 72
    65
 73
     4
 40
13.75
 49
9.75
 74
     0
 49
-1.5
 74
     0
 49
1.0
 74
     0
 49
-1.5
 74
     0
  0
LTYPE
  5
5B4
330
5
100
AcDbSymbolTableRecord
100
AcDbLinetypeTableRecord
  2
GEN7A
 70
     0
  3
__ . __ . __
 72
    65
 73
     4
 40
6.875
 49
4.75
 74
     0
 49
-0.875
 74
     0
 49
0.375
 74
     0
 49
-0.875
 74
     0
  0
ENDTAB
  0
TABLE
  2
LAYER
  5
2
102
{ACAD_XDICTIONARY
360
5EC
102
}
330
0
100
AcDbSymbolTable
 70
    27
  0
LAYER
  5
10
330
2
100
AcDbSymbolTableRecord
100
AcDbLayerTableRecord
  2
0
 70
     0
 62
     7
  6
Continuous
370
    -3
390
F
  0
LAYER
  5
5BE
330
2
100
AcDbSymbolTableRecord
100
AcDbLayerTableRecord
  2
4
 70
     0
 62
     3
  6
Continuous
370
    -3
390
F
  0
LAYER
  5
5BF
330
2
100
AcDbSymbolTableRecord
100
AcDbLayerTableRecord
  2
7A
 70
     0
 62
     4
  6
GEN7A
370
    -3
390
F
  0
LAYER
  5
5C0
330
2
100
AcDbSymbolTableRecord
100
AcDbLayerTableRecord
  2
7
 70
     0
 62
     4
  6
GEN7
370
    -3
390
F
  0
LAYER
  5
5C2
330
2
100
AcDbSymbolTableRecord
100
AcDbLayerTableRecord
  2
AM_8
 70
     0
 62
     1
  6
Continuous
370
    25
390
F
  0
LAYER
  5
5C3
330
2
100
AcDbSymbolTableRecord
100
AcDbLayerTableRecord
  2
AM_5
 70
     0
 62
     3
  6
Continuous
370
    25
390
F
  0
LAYER
  5
5C4
330
2
100
AcDbSymbolTableRecord
100
AcDbLayerTableRecord
  2
Defpoints
 70
     0
 62
     7
  6
Continuous
290
     0
370
    -3
390
F
  0
LAYER
  5
5C5
330
2
100
AcDbSymbolTableRecord
100
AcDbLayerTableRecord
  2
8
 70
     0
 62
     1
  6
Continuous
370
    -3
390
F
  0
LAYER
  5
5C6
330
2
100
AcDbSymbolTableRecord
100
AcDbLayerTableRecord
  2
AM_0N
 70
     0
 62
     7
  6
Continuous
370
    50
390
F
  0
LAYER
  5
5C7
330
2
100
AcDbSymbolTableRecord
100
AcDbLayerTableRecord
  2
AM_INV
 70
     0
 62
  -253
  6
Continuous
370
     0
390
F
  0
LAYER
  5
5C8
330
2
100
AcDbSymbolTableRecord
100
AcDbLayerTableRecord
  2
AM_3N
 70
     0
 62
     6
  6
AM_ISO02W050
370
    25
390
F
  0
LAYER
  5
5C9
330
2
100
AcDbSymbolTableRecord
100
AcDbLayerTableRecord
  2
AM_4N
 70
     0
 62
     3
  6
Continuous
370
    25
390
F
  0
LAYER
  5
5CA
330
2
100
AcDbSymbolTableRecord
100
AcDbLayerTableRecord
  2
AM_7N
 70
     0
 62
     4
  6
AM_ISO08W050
370
    25
390
F
  0
LAYER
  5
5CB
330
2
100
AcDbSymbolTableRecord
100
AcDbLayerTableRecord
  2
AM_9
 70
     0
 62
  -253
  6
Continuous
370
     0
390
F
  0
LAYER
  5
5CC
330
2
100
AcDbSymbolTableRecord
100
AcDbLayerTableRecord
  2
AM_9N
 70
     0
 62
  -253
  6
Continuous
370
     0
390
F
  0
ENDTAB
  0
TABLE
  2
STYLE
  5
3
330
0
100
AcDbSymbolTable
 70
    14
  0
STYLE
  5
11
330
3
100
AcDbSymbolTableRecord
100
AcDbTextStyleTableRecord
  2
STANDARD
 70
     0
 40
0.0
 41
1.0
 50
0.0
 71
     0
 42
2.5
  3
ISOCP.SHX
  4

  0
STYLE
  5
6D
330
3
100
AcDbSymbolTableRecord
100
AcDbTextStyleTableRecord
  2
ACISOTS
 70
     0
 40
1.0
 41
1.0
 50
0.0
 71
     0
 42
2.5
  3
isocp.shx
  4
bigfont.shx
  0
STYLE
  5
79
330
3
100
AcDbSymbolTableRecord
100
AcDbTextStyleTableRecord
  2
ACISOGDT
 70
     0
 40
0.0
 41
1.0
 50
0.0
 71
     0
 42
2.5
  3
AMGDT
  4
bigfont.shx
  0
STYLE
  5
22C
330
3
100
AcDbSymbolTableRecord
100
AcDbTextStyleTableRecord
  2

 70
     1
 40
0.0
 41
1.0
 50
0.0
 71
     0
 42
2.5
  3
genltshp.shx
  4

  0
STYLE
  5
5CD
330
3
100
AcDbSymbolTableRecord
100
AcDbTextStyleTableRecord
  2
ACDINTS
 70
     0
 40
1.0
 41
1.0
 50
0.0
 71
     0
 42
2.5
  3
isocp.shx
  4

  0
STYLE
  5
5CE
330
3
100
AcDbSymbolTableRecord
100
AcDbTextStyleTableRecord
  2
ACDINGDT
 70
     0
 40
0.0
 41
1.0
 50
0.0
 71
     0
 42
2.5
  3
amgdt.shx
  4

  0
ENDTAB
  0
TABLE
  2
VIEW
  5
6
330
0
100
AcDbSymbolTable
 70
     0
  0
ENDTAB
  0
TABLE
  2
UCS
  5
7
330
0
100
AcDbSymbolTable
 70
     0
  0
ENDTAB
  0
TABLE
  2
APPID
  5
9
330
0
100
AcDbSymbolTable
 70
    32
  0
APPID
  5
12
330
9
100
AcDbSymbolTableRecord
100
AcDbRegAppTableRecord
  2
ACAD
 70
     0
  0
APPID
  5
46
330
9
100
AcDbSymbolTableRecord
100
AcDbRegAppTableRecord
  2
MCAD_NO_VIS
 70
     0
  0
APPID
  5
47
330
9
100
AcDbSymbolTableRecord
100
AcDbRegAppTableRecord
  2
ACAD_TEMP_GRAPHIC
 70
     0
  0
APPID
  5
58
330
9
100
AcDbSymbolTableRecord
100
AcDbRegAppTableRecord
  2
ACATTRIBSERVICES
 70
     0
  0
APPID
  5
EE
330
9
100
AcDbSymbolTableRecord
100
AcDbRegAppTableRecord
  2
AD_DRAW
 70
     0
  0
APPID
  5
10C
330
9
100
AcDbSymbolTableRecord
100
AcDbRegAppTableRecord
  2
DESIGNERASSEMBLIES
 70
     0
  0
APPID
  5
111
330
9
100
AcDbSymbolTableRecord
100
AcDbRegAppTableRecord
  2
ACADM_DIM_EDIT
 70
     0
  0
APPID
  5
112
330
9
100
AcDbSymbolTableRecord
100
AcDbRegAppTableRecord
  2
AMDT_DM_ADJ
 70
     0
  0
APPID
  5
1A3
330
9
100
AcDbSymbolTableRecord
100
AcDbRegAppTableRecord
  2
ACAD_DSTYLE_DIMARC_LENGTH_SYMBOL
 70
     0
  0
APPID
  5
1A4
330
9
100
AcDbSymbolTableRecord
100
AcDbRegAppTableRecord
  2
ACAD_DSTYLE_DIMJOGGED_JOGANGLE_SYMBOL
 70
     0
  0
APPID
  5
5DA
330
9
100
AcDbSymbolTableRecord
100
AcDbRegAppTableRecord
  2
GENIUS_GENBLLY_14
 70
     0
  0
APPID
  5
5DB
330
9
100
AcDbSymbolTableRecord
100
AcDbRegAppTableRecord
  2
GENIUS_VERSION2
 70
     0
  0
APPID
  5
5DC
330
9
100
AcDbSymbolTableRecord
100
AcDbRegAppTableRecord
  2
GENIUS_GENREC_14
 70
     0
  0
APPID
  5
5DD
330
9
100
AcDbSymbolTableRecord
100
AcDbRegAppTableRecord
  2
GENIUS_GENODEF_13
 70
     0
  0
APPID
  5
5DE
330
9
100
AcDbSymbolTableRecord
100
AcDbRegAppTableRecord
  2
GENIUS_GENOBJ-N-REC_13
 70
     0
  0
APPID
  5
5DF
330
9
100
AcDbSymbolTableRecord
100
AcDbRegAppTableRecord
  2
GENIUS_GENOENT_13
 70
     0
  0
APPID
  5
5E0
330
9
100
AcDbSymbolTableRecord
100
AcDbRegAppTableRecord
  2
GENIUS_GENOBJ-N-HTC_13
 70
     0
  0
APPID
  5
5E1
330
9
100
AcDbSymbolTableRecord
100
AcDbRegAppTableRecord
  2
GENIUS_GENHATCH_13
 70
     0
  0
APPID
  5
5E2
330
9
100
AcDbSymbolTableRecord
100
AcDbRegAppTableRecord
  2
GENIUS_GENOBJ-N-FIL_13
 70
     0
  0
APPID
  5
5E3
330
9
100
AcDbSymbolTableRecord
100
AcDbRegAppTableRecord
  2
GENIUS_GENOBJ-N-CEN_13
 70
     0
  0
APPID
  5
5E4
330
9
100
AcDbSymbolTableRecord
100
AcDbRegAppTableRecord
  2
GENIUS_GENBH_13
 70
     0
  0
APPID
  5
5E5
330
9
100
AcDbSymbolTableRecord
100
AcDbRegAppTableRecord
  2
GENIUS_GENBHRL_14
 70
     0
  0
APPID
  5
5E6
330
9
100
AcDbSymbolTableRecord
100
AcDbRegAppTableRecord
  2
GENIUS_GENOLIS_13
 70
     0
  0
APPID
  5
5E7
330
9
100
AcDbSymbolTableRecord
100
AcDbRegAppTableRecord
  2
GENIUS_GENOBJ-NBEHI-BHF_13
 70
     0
  0
APPID
  5
5E8
330
9
100
AcDbSymbolTableRecord
100
AcDbRegAppTableRecord
  2
GENIUS_GENOREF_13
 70
     0
  0
APPID
  5
5E9
330
9
100
AcDbSymbolTableRecord
100
AcDbRegAppTableRecord
  2
GENIUS_GENOBJ-NBEHI-BHB_13
 70
     0
  0
APPID
  5
5EA
330
9
100
AcDbSymbolTableRecord
100
AcDbRegAppTableRecord
  2
GENIUS_GEFWELD_13
 70
     0
  0
APPID
  5
5EB
330
9
100
AcDbSymbolTableRecord
100
AcDbRegAppTableRecord
  2
GENIUS_GENOBJ-F-WELS_13
 70
     0
  0
APPID
  5
B5D
330
9
100
AcDbSymbolTableRecord
100
AcDbRegAppTableRecord
  2
GENIUS_GENDTOL_13
 70
     0
  0
APPID
  5
B5E
330
9
100
AcDbSymbolTableRecord
100
AcDbRegAppTableRecord
  2
ACAD_PSEXT
 70
     0
  0
APPID
  5
E3E
330
9
100
AcDbSymbolTableRecord
100
AcDbRegAppTableRecord
  2
GENIUS_GENDIMSH_14
 70
     0
  0
APPID
  5
EAE
330
9
100
AcDbSymbolTableRecord
100
AcDbRegAppTableRecord
  2
AcAecLayerStandard
 70
     0
  0
ENDTAB
  0
TABLE
  2
DIMSTYLE
  5
A
330
0
100
AcDbSymbolTable
 70
    17
100
AcDbDimStyleTable
 71
     1
340
81
  0
DIMSTYLE
105
81
330
A
100
AcDbSymbolTableRecord
100
AcDbDimStyleTableRecord
  2
AM_ISO
 70
     0
  4
"
 41
2.5
 42
1.0
 43
10.0
 44
1.0
 47
0.1
 48
0.1
 73
     0
 74
     0
 77
     1
 78
     8
 79
     2
140
3.5
141
0.0
143
0.0393701
146
0.71
147
1.5
172
     1
176
   256
177
   256
178
     2
271
     2
272
     3
274
     4
283
     0
284
     8
340
11
371
    -1
372
    -1
1001
ACAD_DSTYLE_DIMARC_LENGTH_SYMBOL
1070
   379
1070
     1
1001
ACAD_DSTYLE_DIMJOGGED_JOGANGLE_SYMBOL
1070
   384
1040
0.7853981633974483
  0
DIMSTYLE
105
82
330
A
100
AcDbSymbolTableRecord
100
AcDbDimStyleTableRecord
  2
AM_ISO$3
 70
     0
  4
"
 41
2.5
 42
1.0
 43
10.0
 44
1.0
 47
0.1
 48
0.1
 73
     0
 77
     1
 78
     8
 79
     2
140
3.5
141
0.0
143
0.0393701
146
0.71
147
1.5
176
   256
177
   256
178
     2
271
     2
272
     3
274
     4
283
     0
284
     8
288
     1
289
     0
340
11
371
    -1
372
    -1
1001
ACAD_DSTYLE_DIMARC_LENGTH_SYMBOL
1070
   379
1070
     1
1001
ACAD_DSTYLE_DIMJOGGED_JOGANGLE_SYMBOL
1070
   384
1040
0.7853981633974483
  0
DIMSTYLE
105
83
330
A
100
AcDbSymbolTableRecord
100
AcDbDimStyleTableRecord
  2
AM_ISO$4
 70
     0
  4
"
 41
2.5
 42
1.0
 43
10.0
 44
1.0
 47
0.1
 48
0.1
 73
     0
 77
     1
 78
     8
 79
     2
140
3.5
141
0.0
143
0.0393701
146
0.71
147
1.5
176
   256
177
   256
178
     2
271
     2
272
     3
274
     4
283
     0
284
     8
288
     1
289
     0
340
11
371
    -1
372
    -1
1001
ACAD_DSTYLE_DIMARC_LENGTH_SYMBOL
1070
   379
1070
     1
1001
ACAD_DSTYLE_DIMJOGGED_JOGANGLE_SYMBOL
1070
   384
1040
0.7853981633974483
  0
DIMSTYLE
105
84
330
A
100
AcDbSymbolTableRecord
100
AcDbDimStyleTableRecord
  2
AM_ISO$6
 70
     0
  4
"
 41
2.5
 42
1.0
 43
10.0
 44
1.0
 47
0.1
 48
0.1
 73
     0
 74
     0
 78
     8
 79
     2
140
3.5
141
0.0
143
0.0393701
146
0.71
147
1.5
172
     1
176
   256
177
   256
178
     2
271
     2
272
     3
274
     4
283
     0
284
     8
340
11
371
    -1
372
    -1
1001
ACAD_DSTYLE_DIMARC_LENGTH_SYMBOL
1070
   379
1070
     1
1001
ACAD_DSTYLE_DIMJOGGED_JOGANGLE_SYMBOL
1070
   384
1040
0.7853981633974483
  0
DIMSTYLE
105
85
330
A
100
AcDbSymbolTableRecord
100
AcDbDimStyleTableRecord
  2
AM_ISO$7
 70
     0
  4
"
 41
2.5
 42
1.0
 43
10.0
 44
1.0
 47
0.1
 48
0.1
 73
     0
 74
     0
 77
     1
 78
     8
 79
     2
140
5.0
141
0.0
143
0.0393701
146
0.71
147
1.5
172
     1
176
   256
177
   256
178
     2
271
     2
272
     3
274
     4
283
     0
284
     8
340
11
371
    -1
372
    -1
1001
ACAD_DSTYLE_DIMARC_LENGTH_SYMBOL
1070
   379
1070
     1
1001
ACAD_DSTYLE_DIMJOGGED_JOGANGLE_SYMBOL
1070
   384
1040
0.7853981633974483
  0
DIMSTYLE
105
86
330
A
100
AcDbSymbolTableRecord
100
AcDbDimStyleTableRecord
  2
AM_ISO$SF
 70
     0
  4
"
 41
2.5
 42
1.0
 43
10.0
 44
1.0
 47
0.1
 48
0.1
 73
     0
 74
     0
 75
     1
 76
     1
 77
     1
 78
     8
 79
     2
140
3.5
141
0.0
143
0.0393701
146
0.71
147
1.5
172
     1
176
   256
177
   256
178
     2
271
     2
272
     3
274
     4
283
     0
284
     8
340
11
371
    -1
372
    -1
1001
ACAD_DSTYLE_DIMARC_LENGTH_SYMBOL
1070
   379
1070
     1
1001
ACAD_DSTYLE_DIMJOGGED_JOGANGLE_SYMBOL
1070
   384
1040
0.7853981633974483
  0
DIMSTYLE
105
8B
330
A
100
AcDbSymbolTableRecord
100
AcDbDimStyleTableRecord
  2
AM_ISO$SH
 70
     0
  4
"
 41
2.5
 42
1.0
 43
10.0
 44
1.0
 47
0.1
 48
0.1
 73
     0
 74
     0
 75
     1
 76
     1
 77
     1
 78
     8
 79
     2
140
3.5
141
0.0
143
0.0393701
144
2.0
146
0.71
147
1.5
172
     1
173
     1
176
   256
177
   256
178
     2
271
     2
272
     3
274
     4
283
     0
284
     8
340
11
343
87
371
    -1
372
    -1
1001
ACAD_DSTYLE_DIMARC_LENGTH_SYMBOL
1070
   379
1070
     1
1001
ACAD_DSTYLE_DIMJOGGED_JOGANGLE_SYMBOL
1070
   384
1040
0.7853981633974483
  0
DIMSTYLE
105
5D3
330
A
100
AcDbSymbolTableRecord
100
AcDbDimStyleTableRecord
  2
AM_DIN
 70
     0
  4
"
 41
2.5
 42
1.0
 43
10.0
 44
1.0
 47
0.1
 48
0.1
 73
     0
 74
     0
 77
     1
 78
     8
 79
     2
140
3.5
141
0.0
143
0.0393701
146
0.71
147
1.5
172
     1
176
   256
177
   256
178
     2
271
     2
272
     3
274
     4
283
     0
284
     8
340
11
371
    -1
372
    -1
1001
ACAD_DSTYLE_DIMARC_LENGTH_SYMBOL
1070
   379
1070
     0
1001
ACAD_DSTYLE_DIMJOGGED_JOGANGLE_SYMBOL
1070
   384
1040
1.570796326794896
  0
DIMSTYLE
105
5D4
330
A
100
AcDbSymbolTableRecord
100
AcDbDimStyleTableRecord
  2
AM_DIN$3
 70
     0
  4
"
 41
2.5
 42
1.0
 43
10.0
 44
1.0
 47
0.1
 48
0.1
 73
     0
 77
     1
 78
     8
 79
     2
140
3.5
141
0.0
143
0.0393701
146
0.71
147
1.5
176
   256
177
   256
178
     2
271
     2
272
     3
274
     4
283
     0
284
     8
288
     1
289
     0
340
11
371
    -1
372
    -1
1001
ACAD_DSTYLE_DIMARC_LENGTH_SYMBOL
1070
   379
1070
     0
1001
ACAD_DSTYLE_DIMJOGGED_JOGANGLE_SYMBOL
1070
   384
1040
1.570796326794896
  0
DIMSTYLE
105
5D5
330
A
100
AcDbSymbolTableRecord
100
AcDbDimStyleTableRecord
  2
AM_DIN$4
 70
     0
  4
"
 41
2.5
 42
1.0
 43
10.0
 44
1.0
 47
0.1
 48
0.1
 73
     0
 77
     1
 78
     8
 79
     2
140
3.5
141
0.0
143
0.0393701
146
0.71
147
1.5
176
   256
177
   256
178
     2
271
     2
272
     3
274
     4
283
     0
284
     8
288
     1
289
     0
340
11
371
    -1
372
    -1
1001
ACAD_DSTYLE_DIMARC_LENGTH_SYMBOL
1070
   379
1070
     0
1001
ACAD_DSTYLE_DIMJOGGED_JOGANGLE_SYMBOL
1070
   384
1040
1.570796326794896
  0
DIMSTYLE
105
5D6
330
A
100
AcDbSymbolTableRecord
100
AcDbDimStyleTableRecord
  2
AM_DIN$6
 70
     0
  4
"
 41
2.5
 42
1.0
 43
10.0
 44
1.0
 47
0.1
 48
0.1
 73
     0
 74
     0
 78
     8
 79
     2
140
3.5
141
0.0
143
0.0393701
146
0.71
147
1.5
172
     1
176
   256
177
   256
178
     2
271
     2
272
     3
274
     4
283
     0
284
     8
340
11
371
    -1
372
    -1
1001
ACAD_DSTYLE_DIMARC_LENGTH_SYMBOL
1070
   379
1070
     0
1001
ACAD_DSTYLE_DIMJOGGED_JOGANGLE_SYMBOL
1070
   384
1040
1.570796326794896
  0
DIMSTYLE
105
5D7
330
A
100
AcDbSymbolTableRecord
100
AcDbDimStyleTableRecord
  2
AM_DIN$7
 70
     0
  4
"
 41
2.5
 42
1.0
 43
10.0
 44
1.0
 47
0.1
 48
0.1
 73
     0
 74
     0
 77
     1
 78
     8
 79
     2
140
5.0
141
0.0
143
0.0393701
146
0.71
147
1.5
172
     1
176
   256
177
   256
178
     2
271
     2
272
     3
274
     4
283
     0
284
     8
340
11
371
    -1
372
    -1
1001
ACAD_DSTYLE_DIMARC_LENGTH_SYMBOL
1070
   379
1070
     0
1001
ACAD_DSTYLE_DIMJOGGED_JOGANGLE_SYMBOL
1070
   384
1040
1.570796326794896
  0
DIMSTYLE
105
5D8
330
A
100
AcDbSymbolTableRecord
100
AcDbDimStyleTableRecord
  2
AM_DIN$SF
 70
     0
  4
"
 41
2.5
 42
1.0
 43
10.0
 44
1.0
 47
0.1
 48
0.1
 73
     0
 74
     0
 75
     1
 76
     1
 77
     1
 78
     8
 79
     2
140
3.5
141
0.0
143
0.0393701
146
0.71
147
1.5
172
     1
176
   256
177
   256
178
     2
271
     2
272
     3
274
     4
283
     0
284
     8
340
11
371
    -1
372
    -1
1001
ACAD_DSTYLE_DIMARC_LENGTH_SYMBOL
1070
   379
1070
     0
1001
ACAD_DSTYLE_DIMJOGGED_JOGANGLE_SYMBOL
1070
   384
1040
1.570796326794896
  0
DIMSTYLE
105
5D9
330
A
100
AcDbSymbolTableRecord
100
AcDbDimStyleTableRecord
  2
AM_DIN$SH
 70
     0
  4
"
 41
2.5
 42
1.0
 43
10.0
 44
1.0
 47
0.1
 48
0.1
 73
     0
 74
     0
 75
     1
 76
     1
 77
     1
 78
     8
 79
     2
140
3.5
141
0.0
143
0.0393701
144
2.0
146
0.71
147
1.5
172
     1
173
     1
176
   256
177
   256
178
     2
271
     2
272
     3
274
     4
283
     0
284
     8
340
11
343
87
371
    -1
372
    -1
1001
ACAD_DSTYLE_DIMARC_LENGTH_SYMBOL
1070
   379
1070
     0
1001
ACAD_DSTYLE_DIMJOGGED_JOGANGLE_SYMBOL
1070
   384
1040
1.570796326794896
  0
DIMSTYLE
105
E50
102
{ACAD_REACTORS
330
102A
330
82A
330
831
330
E54
102
}
330
A
100
AcDbSymbolTableRecord
100
AcDbDimStyleTableRecord
  2
AM_ISO$0
 70
     0
  4
"
 41
2.5
 42
1.0
 43
10.0
 44
1.0
 47
0.1
 48
0.1
 73
     0
 74
     0
 77
     1
 78
     8
 79
     2
140
3.5
141
0.0
143
0.0393701
146
0.71
147
1.5
172
     1
176
   256
177
   256
178
     2
271
     2
272
     3
274
     4
283
     0
284
     8
340
11
371
    -1
372
    -1
1001
ACAD_DSTYLE_DIMARC_LENGTH_SYMBOL
1070
   379
1070
     1
1001
ACAD_DSTYLE_DIMJOGGED_JOGANGLE_SYMBOL
1070
   384
1040
0.7853981633974483
  0
ENDTAB
  0
TABLE
  2
BLOCK_RECORD
  5
1
330
0
100
AcDbSymbolTable
 70
    13
  0
BLOCK_RECORD
  5
1F
102
{ACAD_XDICTIONARY
360
8F
102
}
330
1
100
AcDbSymbolTableRecord
100
AcDbBlockTableRecord
  2
*Model_Space
340
22
  0
BLOCK_RECORD
  5
1B
330
1
100
AcDbSymbolTableRecord
100
AcDbBlockTableRecord
  2
*Paper_Space
340
1E
  0
BLOCK_RECORD
  5
23
330
1
100
AcDbSymbolTableRecord
100
AcDbBlockTableRecord
  2
*Paper_Space0
340
26
  0
BLOCK_RECORD
  5
87
330
1
100
AcDbSymbolTableRecord
100
AcDbBlockTableRecord
  2
GENAXEH
340
0
  0
BLOCK_RECORD
  5
56C
330
1
100
AcDbSymbolTableRecord
100
AcDbBlockTableRecord
  2
*X5
340
0
102
{BLKREFS
331
856
102
}
  0
BLOCK_RECORD
  5
573
330
1
100
AcDbSymbolTableRecord
100
AcDbBlockTableRecord
  2
*X6
340
0
102
{BLKREFS
331
861
102
}
  0
BLOCK_RECORD
  5
A2A
330
1
100
AcDbSymbolTableRecord
100
AcDbBlockTableRecord
  2
*D7
340
0
  0
BLOCK_RECORD
  5
A36
330
1
100
AcDbSymbolTableRecord
100
AcDbBlockTableRecord
  2
*D8
340
0
  0
BLOCK_RECORD
  5
E55
330
1
100
AcDbSymbolTableRecord
100
AcDbBlockTableRecord
  2
*D9
340
0
  0
BLOCK_RECORD
  5
102B
330
1
100
AcDbSymbolTableRecord
100
AcDbBlockTableRecord
  2
*D10
340
0
  0
BLOCK_RECORD
  5
1086
330
1
100
AcDbSymbolTableRecord
100
AcDbBlockTableRecord
  2
*U11
340
0
  0
BLOCK_RECORD
  5
109B
330
1
100
AcDbSymbolTableRecord
100
AcDbBlockTableRecord
  2
*U12
340
0
  0
ENDTAB
  0
ENDSEC
  0
SECTION
  2
BLOCKS
  0
BLOCK
  5
20
330
1F
100
AcDbEntity
  8
0
100
AcDbBlockBegin
  2
*Model_Space
 70
     0
 10
0.0
 20
0.0
 30
0.0
  3
*Model_Space
  1

  0
ENDBLK
  5
21
330
1F
100
AcDbEntity
  8
0
100
AcDbBlockEnd
  0
BLOCK
  5
1C
330
1B
100
AcDbEntity
 67
     1
  8
0
100
AcDbBlockBegin
  2
*Paper_Space
 70
     0
 10
0.0
 20
0.0
 30
0.0
  3
*Paper_Space
  1

  0
ENDBLK
  5
1D
330
1B
100
AcDbEntity
 67
     1
  8
0
100
AcDbBlockEnd
  0
BLOCK
  5
24
330
23
100
AcDbEntity
 67
     1
  8
0
100
AcDbBlockBegin
  2
*Paper_Space0
 70
     0
 10
0.0
 20
0.0
 30
0.0
  3
*Paper_Space0
  1

  0
ENDBLK
  5
25
330
23
100
AcDbEntity
 67
     1
  8
0
100
AcDbBlockEnd
  0
BLOCK
  5
89
330
87
100
AcDbEntity
  8
0
100
AcDbBlockBegin
  2
GENAXEH
 70
     0
 10
0.0
 20
0.0
 30
0.0
  3
GENAXEH
  1

  0
LINE
  5
88
330
87
100
AcDbEntity
  8
0
100
AcDbLine
 10
-1.0
 20
0.0
 30
0.0
 11
1.0
 21
0.0
 31
0.0
  0
ENDBLK
  5
8A
330
87
100
AcDbEntity
  8
0
100
AcDbBlockEnd
  0
BLOCK
  5
56D
330
56C
100
AcDbEntity
  8
0
100
AcDbBlockBegin
  2
*X5
 70
     1
 10
0.0
 20
0.0
 30
0.0
  3
*X5
  1

  0
LINE
  5
56E
330
56C
100
AcDbEntity
  8
8
100
AcDbLine
 10
305.438
 20
364.986
 30
0.0
 11
311.866
 21
371.414
 31
0.0
  0
LINE
  5
56F
330
56C
100
AcDbEntity
  8
8
100
AcDbLine
 10
300.953
 20
364.991
 30
0.0
 11
306.992
 21
371.031
 31
0.0
  0
LINE
  5
570
330
56C
100
AcDbEntity
  8
8
100
AcDbLine
 10
296.584
 20
365.112
 30
0.0
 11
302.502
 21
371.031
 31
0.0
  0
LINE
  5
571
330
56C
100
AcDbEntity
  8
8
100
AcDbLine
 10
295.392
 20
368.41
 30
0.0
 11
298.012
 21
371.031
 31
0.0
  0
ENDBLK
  5
572
330
56C
100
AcDbEntity
  8
0
100
AcDbBlockEnd
  0
BLOCK
  5
574
330
573
100
AcDbEntity
  8
0
100
AcDbBlockBegin
  2
*X6
 70
     1
 10
0.0
 20
0.0
 30
0.0
  3
*X6
  1

  0
LINE
  5
575
330
573
100
AcDbEntity
  8
8
100
AcDbLine
 10
349.919
 20
364.566
 30
0.0
 11
356.195
 21
370.842
 31
0.0
  0
LINE
  5
576
330
573
100
AcDbEntity
  8
8
100
AcDbLine
 10
345.72
 20
364.857
 30
0.0
 11
351.8930000000001
 21
371.03
 31
0.0
  0
LINE
  5
577
330
573
100
AcDbEntity
  8
8
100
AcDbLine
 10
341.694
 20
365.321
 30
0.0
 11
347.403
 21
371.03
 31
0.0
  0
LINE
  5
578
330
573
100
AcDbEntity
  8
8
100
AcDbLine
 10
337.033
 20
365.15
 30
0.0
 11
342.913
 21
371.03
 31
0.0
  0
LINE
  5
579
330
573
100
AcDbEntity
  8
8
100
AcDbLine
 10
332.159
 20
364.767
 30
0.0
 11
338.423
 21
371.03
 31
0.0
  0
LINE
  5
57A
330
573
100
AcDbEntity
  8
8
100
AcDbLine
 10
327.946
 20
365.043
 30
0.0
 11
333.933
 21
371.03
 31
0.0
  0
LINE
  5
57B
330
573
100
AcDbEntity
  8
8
100
AcDbLine
 10
325.3
 20
366.887
 30
0.0
 11
329.4430000000001
 21
371.031
 31
0.0
  0
LINE
  5
57C
330
573
100
AcDbEntity
  8
8
100
AcDbLine
 10
324.6090000000001
 20
370.6869999999999
 30
0.0
 11
326.851
 21
372.929
 31
0.0
  0
ENDBLK
  5
57D
330
573
100
AcDbEntity
  8
0
100
AcDbBlockEnd
  0
BLOCK
  5
A34
330
A2A
100
AcDbEntity
  8
0
100
AcDbBlockBegin
  2
*D7
 70
     1
 10
0.0
 20
0.0
 30
0.0
  3
*D7
  1

  0
LINE
  5
1060
330
A2A
100
AcDbEntity
  8
AM_5
100
AcDbLine
 10
47.31635332291171
 20
278.1963750952626
 30
0.0
 11
35.31635332291179
 21
278.1963750952626
 31
0.0
  0
LINE
  5
1061
330
A2A
100
AcDbEntity
  8
AM_5
100
AcDbLine
 10
160.3369693414262
 20
83.19637509526234
 30
0.0
 11
35.31635332291176
 21
83.19637509526238
 31
0.0
  0
LINE
  5
1062
330
A2A
100
AcDbEntity
  8
AM_5
100
AcDbLine
 10
36.31635332291179
 20
271.1963750952626
 30
0.0
 11
36.31635332291175
 21
90.19637509526239
 31
0.0
  0
SOLID
  5
1063
330
A2A
100
AcDbEntity
  8
AM_5
100
AcDbTrace
 10
35.14968665624512
 20
271.1963750952626
 30
0.0
 11
37.48301998957845
 21
271.1963750952626
 31
0.0
 12
36.3163533229118
 22
278.1963750952626
 32
0.0
 13
36.3163533229118
 23
278.1963750952626
 33
0.0
  0
SOLID
  5
1064
330
A2A
100
AcDbEntity
  8
AM_5
100
AcDbTrace
 10
35.14968665624509
 20
90.19637509526239
 30
0.0
 11
37.48301998957842
 21
90.19637509526239
 31
0.0
 12
36.31635332291175
 22
83.19637509526238
 32
0.0
 13
36.31635332291175
 23
83.19637509526238
 33
0.0
  0
MTEXT
  5
1065
330
A2A
100
AcDbEntity
  8
AM_5
 62
     2
100
AcDbMText
 10
29.81635332291174
 20
180.6963750952625
 30
0.0
 40
10.0
 41
0.0
 71
     5
 72
     1
  1
195
 11
0.0000000000000001
 21
1.0
 31
0.0
 73
     1
 44
1.0
1001
ACAD
1000
MTEXTBEGIN
1070
    73
1070
     1
1070
    44
1040
1.0
1070
    74
1070
     0
1000
MTEXTEND
  0
POINT
  5
1066
330
A2A
100
AcDbEntity
  8
Defpoints
 62
     0
100
AcDbPoint
 10
48.3163533229117
 20
278.1963750952626
 30
0.0
  0
POINT
  5
1067
330
A2A
100
AcDbEntity
  8
Defpoints
 62
     0
100
AcDbPoint
 10
161.3369693414262
 20
83.19637509526234
 30
0.0
  0
POINT
  5
1068
330
A2A
100
AcDbEntity
  8
Defpoints
 62
     0
100
AcDbPoint
 10
36.31635332291175
 20
83.19637509526238
 30
0.0
  0
ENDBLK
  5
A35
330
A2A
100
AcDbEntity
  8
0
100
AcDbBlockEnd
  0
BLOCK
  5
A40
330
A36
100
AcDbEntity
  8
0
100
AcDbBlockBegin
  2
*D8
 70
     1
 10
0.0
 20
0.0
 30
0.0
  3
*D8
  1

  0
LINE
  5
107C
330
A36
100
AcDbEntity
  8
AM_5
100
AcDbLine
 10
149.6729896004608
 20
159.280917325655
 30
0.0
 11
72.61220632234085
 21
159.280917325655
 31
0.0
  0
LINE
  5
107D
330
A36
100
AcDbEntity
  8
AM_5
100
AcDbLine
 10
164.3369693414262
 20
83.19637509526234
 30
0.0
 11
72.61220632234084
 21
83.19637509526236
 31
0.0
  0
LINE
  5
107E
330
A36
100
AcDbEntity
  8
AM_5
100
AcDbLine
 10
73.61220632234085
 20
152.280917325655
 30
0.0
 11
73.61220632234084
 21
90.19637509526237
 31
0.0
  0
SOLID
  5
107F
330
A36
100
AcDbEntity
  8
AM_5
100
AcDbTrace
 10
72.44553965567418
 20
152.280917325655
 30
0.0
 11
74.77887298900752
 21
152.280917325655
 31
0.0
 12
73.61220632234085
 22
159.280917325655
 32
0.0
 13
73.61220632234085
 23
159.280917325655
 33
0.0
  0
SOLID
  5
1080
330
A36
100
AcDbEntity
  8
AM_5
100
AcDbTrace
 10
72.44553965567416
 20
90.19637509526237
 30
0.0
 11
74.77887298900751
 21
90.19637509526237
 31
0.0
 12
73.61220632234084
 22
83.19637509526236
 32
0.0
 13
73.61220632234084
 23
83.19637509526236
 33
0.0
  0
MTEXT
  5
1081
330
A36
100
AcDbEntity
  8
AM_5
 62
     2
100
AcDbMText
 10
67.11220632234084
 20
121.2386462104587
 30
0.0
 40
10.0
 41
0.0
 71
     5
 72
     1
  1
76
 11
0.0000000000000001
 21
1.0
 31
0.0
 73
     1
 44
1.0
1001
ACAD
1000
MTEXTBEGIN
1070
    73
1070
     1
1070
    44
1040
1.0
1070
    74
1070
     0
1000
MTEXTEND
  0
POINT
  5
1082
330
A36
100
AcDbEntity
  8
Defpoints
 62
     0
100
AcDbPoint
 10
150.6729896004608
 20
159.280917325655
 30
0.0
  0
POINT
  5
1083
330
A36
100
AcDbEntity
  8
Defpoints
 62
     0
100
AcDbPoint
 10
165.3369693414262
 20
83.19637509526234
 30
0.0
  0
POINT
  5
1084
330
A36
100
AcDbEntity
  8
Defpoints
 62
     0
100
AcDbPoint
 10
73.61220632234084
 20
83.19637509526236
 30
0.0
  0
ENDBLK
  5
A41
330
A36
100
AcDbEntity
  8
0
100
AcDbBlockEnd
  0
BLOCK
  5
E5F
330
E55
100
AcDbEntity
  8
0
100
AcDbBlockBegin
  2
*D9
 70
     1
 10
0.0
 20
0.0
 30
0.0
  3
*D9
  1

  0
LINE
  5
1072
330
E55
100
AcDbEntity
  8
AM_5
100
AcDbLine
 10
229.3369693414261
 20
82.19637509526222
 30
0.0
 11
229.3369693414261
 21
48.9064257054107
 31
0.0
  0
LINE
  5
1073
330
E55
100
AcDbEntity
  8
AM_5
100
AcDbLine
 10
151.336969341426
 20
82.19637509526238
 30
0.0
 11
151.336969341426
 21
48.9064257054107
 31
0.0
  0
LINE
  5
1074
330
E55
100
AcDbEntity
  8
AM_5
100
AcDbLine
 10
222.3369693414261
 20
49.90642570541069
 30
0.0
 11
158.336969341426
 21
49.90642570541069
 31
0.0
  0
SOLID
  5
1075
330
E55
100
AcDbEntity
  8
AM_5
100
AcDbTrace
 10
222.3369693414261
 20
51.07309237207736
 30
0.0
 11
222.3369693414261
 21
48.73975903874403
 31
0.0
 12
229.3369693414261
 22
49.90642570541069
 32
0.0
 13
229.3369693414261
 23
49.90642570541069
 33
0.0
  0
SOLID
  5
1076
330
E55
100
AcDbEntity
  8
AM_5
100
AcDbTrace
 10
158.336969341426
 20
51.07309237207736
 30
0.0
 11
158.336969341426
 21
48.73975903874403
 31
0.0
 12
151.336969341426
 22
49.90642570541069
 32
0.0
 13
151.336969341426
 23
49.90642570541069
 33
0.0
  0
MTEXT
  5
1077
330
E55
100
AcDbEntity
  8
AM_5
 62
     2
100
AcDbMText
 10
190.336969341426
 20
56.4064257054107
 30
0.0
 40
10.0
 41
0.0
 71
     5
 72
     1
  1
%%c78
 73
     1
 44
1.0
1001
ACAD
1000
MTEXTBEGIN
1070
    73
1070
     1
1070
    44
1040
1.0
1070
    74
1070
     0
1000
MTEXTEND
  0
POINT
  5
1078
330
E55
100
AcDbEntity
  8
Defpoints
 62
     0
100
AcDbPoint
 10
229.3369693414261
 20
83.19637509526222
 30
0.0
  0
POINT
  5
1079
330
E55
100
AcDbEntity
  8
Defpoints
 62
     0
100
AcDbPoint
 10
151.336969341426
 20
83.19637509526238
 30
0.0
  0
POINT
  5
107A
330
E55
100
AcDbEntity
  8
Defpoints
 62
     0
100
AcDbPoint
 10
151.336969341426
 20
49.90642570541069
 30
0.0
  0
ENDBLK
  5
E60
330
E55
100
AcDbEntity
  8
0
100
AcDbBlockEnd
  0
BLOCK
  5
1035
330
102B
100
AcDbEntity
  8
0
100
AcDbBlockBegin
  2
*D10
 70
     1
 10
0.0
 20
0.0
 30
0.0
  3
*D10
  1

  0
LINE
  5
1057
330
102B
100
AcDbEntity
  8
AM_5
100
AcDbLine
 10
335.3369693414265
 20
274.1963750952621
 30
0.0
 11
335.3369693414265
 21
348.6935450854401
 31
0.0
  0
LINE
  5
1058
330
102B
100
AcDbEntity
  8
AM_5
100
AcDbLine
 10
45.3369693414262
 20
274.1963750952624
 30
0.0
 11
45.3369693414262
 21
348.6935450854401
 31
0.0
  0
LINE
  5
1059
330
102B
100
AcDbEntity
  8
AM_5
100
AcDbLine
 10
328.3369693414265
 20
347.6935450854401
 30
0.0
 11
52.33696934142621
 21
347.6935450854401
 31
0.0
  0
SOLID
  5
105A
330
102B
100
AcDbEntity
  8
AM_5
100
AcDbTrace
 10
328.3369693414265
 20
348.8602117521068
 30
0.0
 11
328.3369693414265
 21
346.5268784187734
 31
0.0
 12
335.3369693414265
 22
347.6935450854401
 32
0.0
 13
335.3369693414265
 23
347.6935450854401
 33
0.0
  0
SOLID
  5
105B
330
102B
100
AcDbEntity
  8
AM_5
100
AcDbTrace
 10
52.33696934142621
 20
348.8602117521068
 30
0.0
 11
52.33696934142621
 21
346.5268784187734
 31
0.0
 12
45.3369693414262
 22
347.6935450854401
 32
0.0
 13
45.3369693414262
 23
347.6935450854401
 33
0.0
  0
MTEXT
  5
105C
330
102B
100
AcDbEntity
  8
AM_5
 62
     2
100
AcDbMText
 10
190.3369693414263
 20
354.1945293374086
 30
0.0
 40
10.0
 41
0.0
 71
     5
 72
     1
  1
%%c290
 73
     1
 44
1.0
1001
ACAD
1000
MTEXTBEGIN
1070
    73
1070
     1
1070
    44
1040
1.0
1070
    74
1070
     0
1000
MTEXTEND
  0
POINT
  5
105D
330
102B
100
AcDbEntity
  8
Defpoints
 62
     0
100
AcDbPoint
 10
335.3369693414265
 20
273.196375095262
 30
0.0
  0
POINT
  5
105E
330
102B
100
AcDbEntity
  8
Defpoints
 62
     0
100
AcDbPoint
 10
45.3369693414262
 20
273.1963750952624
 30
0.0
  0
POINT
  5
105F
330
102B
100
AcDbEntity
  8
Defpoints
 62
     0
100
AcDbPoint
 10
45.3369693414262
 20
347.6935450854401
 30
0.0
  0
ENDBLK
  5
1036
330
102B
100
AcDbEntity
  8
0
100
AcDbBlockEnd
  0
BLOCK
  5
1098
330
1086
100
AcDbEntity
  8
0
100
AcDbBlockBegin
  2
*U11
 70
     1
 10
0.0
 20
0.0
 30
0.0
  3
*U11
  1

  0
ARC
  5
1087
330
1086
100
AcDbEntity
  8
AM_0N
100
AcDbCircle
 10
84.70634434142615
 20
289.4020191624079
 30
0.0
 40
3.318843022839333
100
AcDbArc
 50
55.56153059526803
 51
115.5615305952687
  0
ARC
  5
1088
330
1086
100
AcDbEntity
  8
AM_0N
100
AcDbCircle
 10
84.70634434142615
 20
290.405730611871
 30
0.0
 40
3.318843022839333
100
AcDbArc
 50
244.4384694047314
 51
304.438469404732
  0
LINE
  5
1089
330
1086
100
AcDbEntity
  8
AM_0N
100
AcDbLine
 10
84.58696934142613
 20
293.1538748871395
 30
0.0
 11
96.08696934142614
 21
293.1538748871395
 31
0.0
  0
LINE
  5
108A
330
1086
100
AcDbEntity
  8
AM_0N
100
AcDbLine
 10
84.58696934142613
 20
286.6538748871395
 30
0.0
 11
96.08696934142614
 21
286.6538748871395
 31
0.0
  0
ARC
  5
108B
330
1086
100
AcDbEntity
  8
AM_0N
100
AcDbCircle
 10
95.96759434142613
 20
289.4020191624079
 30
0.0
 40
3.318843022839363
100
AcDbArc
 50
64.43846940473168
 51
124.4384694047317
  0
ARC
  5
108C
330
1086
100
AcDbEntity
  8
AM_0N
100
AcDbCircle
 10
90.33696934142614
 20
280.3180106882028
 30
0.0
 40
12.4028514970445
100
AcDbArc
 50
72.38303115961318
 51
107.6169688403868
  0
ARC
  5
108D
330
1086
100
AcDbEntity
  8
AM_0N
100
AcDbCircle
 10
90.33696934142614
 20
299.4897390860762
 30
0.0
 40
12.40285149704452
100
AcDbArc
 50
252.3830311596132
 51
287.6169688403867
  0
ARC
  5
108E
330
1086
100
AcDbEntity
  8
AM_0N
100
AcDbCircle
 10
95.96759434142613
 20
290.405730611871
 30
0.0
 40
3.318843022839333
100
AcDbArc
 50
235.5615305952681
 51
295.5615305952702
  0
LINE
  5
108F
330
1086
100
AcDbEntity
  8
AM_0N
100
AcDbLine
 10
97.84446934142614
 20
292.1391817890387
 30
0.0
 11
96.08696934142614
 21
293.1538748871395
 31
0.0
  0
LINE
  5
1090
330
1086
100
AcDbEntity
  8
AM_7N
  6
AM_ISO08W050x2
100
AcDbLine
 10
90.33696934142614
 20
283.6538748871395
 30
0.0
 11
90.33696934142614
 21
296.1538748871395
 31
0.0
  0
LINE
  5
1091
330
1086
100
AcDbEntity
  8
AM_0N
100
AcDbLine
 10
86.58321934142614
 20
287.6685679852402
 30
0.0
 11
86.58321934142614
 21
292.1391817890387
 31
0.0
  0
LINE
  5
1092
330
1086
100
AcDbEntity
  8
AM_0N
100
AcDbLine
 10
97.84446934142614
 20
287.6685679852402
 30
0.0
 11
96.08696934142614
 21
286.6538748871395
 31
0.0
  0
LINE
  5
1093
330
1086
100
AcDbEntity
  8
AM_0N
100
AcDbLine
 10
97.84446934142614
 20
287.6685679852402
 30
0.0
 11
97.84446934142614
 21
292.1391817890387
 31
0.0
  0
LINE
  5
1094
330
1086
100
AcDbEntity
  8
AM_0N
100
AcDbLine
 10
94.09071934142614
 20
287.6685679852402
 30
0.0
 11
94.09071934142614
 21
292.1391817890387
 31
0.0
  0
LINE
  5
1095
330
1086
100
AcDbEntity
  8
AM_0N
100
AcDbLine
 10
82.82946934142614
 20
292.1391817890387
 30
0.0
 11
84.58696934142613
 21
293.1538748871395
 31
0.0
  0
LINE
  5
1096
330
1086
100
AcDbEntity
  8
AM_0N
100
AcDbLine
 10
82.82946934142614
 20
287.6685679852402
 30
0.0
 11
84.58696934142613
 21
286.6538748871395
 31
0.0
  0
LINE
  5
1097
330
1086
100
AcDbEntity
  8
AM_0N
100
AcDbLine
 10
82.82946934142614
 20
287.6685679852402
 30
0.0
 11
82.82946934142614
 21
292.1391817890387
 31
0.0
  0
ENDBLK
  5
1099
330
1086
100
AcDbEntity
  8
0
100
AcDbBlockEnd
  0
BLOCK
  5
10BA
330
109B
100
AcDbEntity
  8
0
100
AcDbBlockBegin
  2
*U12
 70
     1
 10
0.0
 20
0.0
 30
0.0
  3
*U12
  1

  0
ARC
  5
109C
330
109B
100
AcDbEntity
  8
AM_3N
  6
AM_ISO02W050x2
100
AcDbCircle
 10
90.33276314028388
 20
298.4632084243443
 30
0.0
 40
3.464999999999999
100
AcDbArc
 50
250.5287793655092
 51
289.4712206344904
  0
ARC
  5
109D
330
109B
100
AcDbEntity
  8
AM_3N
  6
AM_ISO02W050x2
100
AcDbCircle
 10
92.06526314028385
 20
295.9387709259386
 30
0.0
 40
0.9405625015943439
100
AcDbArc
 50
232.1211205082829
 51
292.1211205082801
  0
ARC
  5
109E
330
109B
100
AcDbEntity
  8
AM_3N
  6
AM_ISO02W050x2
100
AcDbCircle
 10
88.60026314028386
 20
295.9387709259386
 30
0.0
 40
0.9405625015943439
100
AcDbArc
 50
247.8788794917199
 51
307.8788794917171
  0
LINE
  5
109F
330
109B
100
AcDbEntity
  8
AM_0N
100
AcDbLine
 10
86.33276314028385
 20
299.4295625952624
 30
0.0
 11
86.33276314028385
 21
293.1538748871395
 31
0.0
  0
LINE
  5
10A0
330
109B
100
AcDbEntity
  8
AM_9N
100
AcDbLine
 10
86.33276314028385
 20
293.1538748871395
 30
0.0
 11
86.33276314028385
 21
286.6538748871395
 31
0.0
  0
LINE
  5
10A1
330
109B
100
AcDbEntity
  8
AM_0N
100
AcDbLine
 10
86.33276314028385
 20
286.6538748871395
 30
0.0
 11
86.33276314028385
 21
266.4463750952624
 31
0.0
  0
LINE
  5
10A2
330
109B
100
AcDbEntity
  8
AM_0N
100
AcDbLine
 10
94.33276314028388
 20
266.4463750952624
 30
0.0
 11
94.33276314028388
 21
286.6538748871395
 31
0.0
  0
LINE
  5
10A3
330
109B
100
AcDbEntity
  8
AM_9N
100
AcDbLine
 10
94.33276314028388
 20
286.6538748871395
 30
0.0
 11
94.33276314028388
 21
293.1538748871395
 31
0.0
  0
LINE
  5
10A4
330
109B
100
AcDbEntity
  8
AM_0N
100
AcDbLine
 10
94.33276314028388
 20
293.1538748871395
 30
0.0
 11
94.33276314028388
 21
299.4295625952624
 31
0.0
  0
LINE
  5
10A5
330
109B
100
AcDbEntity
  8
AM_4N
100
AcDbLine
 10
87.09957564028387
 20
265.6795625952624
 30
0.0
 11
87.09957564028385
 21
286.6538748871395
 31
0.0
  0
LINE
  5
10A6
330
109B
100
AcDbEntity
  8
AM_9N
100
AcDbLine
 10
87.09957564028385
 20
286.6538748871395
 30
0.0
 11
87.09957564028385
 21
293.1538748871395
 31
0.0
  0
LINE
  5
10A7
330
109B
100
AcDbEntity
  8
AM_4N
100
AcDbLine
 10
87.09957564028385
 20
293.1538748871395
 30
0.0
 11
87.09957564028385
 21
300.1963750952624
 31
0.0
  0
LINE
  5
10A8
330
109B
100
AcDbEntity
  8
AM_4N
100
AcDbLine
 10
93.56595064028388
 20
265.6795625952624
 30
0.0
 11
93.56595064028386
 21
286.6538748871395
 31
0.0
  0
LINE
  5
10A9
330
109B
100
AcDbEntity
  8
AM_9N
100
AcDbLine
 10
93.56595064028386
 20
286.6538748871395
 30
0.0
 11
93.56595064028386
 21
293.1538748871395
 31
0.0
  0
LINE
  5
10AA
330
109B
100
AcDbEntity
  8
AM_4N
100
AcDbLine
 10
93.56595064028386
 20
293.1538748871395
 30
0.0
 11
93.56595064028386
 21
300.1963750952624
 31
0.0
  0
LINE
  5
10AB
330
109B
100
AcDbEntity
  8
AM_7N
  6
AM_ISO08W050x2
100
AcDbLine
 10
90.33276314028388
 20
303.1963750952624
 30
0.0
 11
90.33276314028388
 21
262.1963750952624
 31
0.0
  0
LINE
  5
10AC
330
109B
100
AcDbEntity
  8
AM_0N
100
AcDbLine
 10
87.58276314028385
 20
265.1963750952624
 30
0.0
 11
86.33276314028385
 21
266.4463750952624
 31
0.0
  0
LINE
  5
10AD
330
109B
100
AcDbEntity
  8
AM_0N
100
AcDbLine
 10
86.33276314028385
 20
266.4463750952624
 30
0.0
 11
94.33276314028388
 21
266.4463750952624
 31
0.0
  0
LINE
  5
10AE
330
109B
100
AcDbEntity
  8
AM_0N
100
AcDbLine
 10
93.08276314028388
 20
265.1963750952624
 30
0.0
 11
94.33276314028388
 21
266.4463750952624
 31
0.0
  0
LINE
  5
10AF
330
109B
100
AcDbEntity
  8
AM_0N
100
AcDbLine
 10
87.58276314028385
 20
265.1963750952624
 30
0.0
 11
93.08276314028388
 21
265.1963750952624
 31
0.0
  0
LINE
  5
10B0
330
109B
100
AcDbEntity
  8
AM_0N
100
AcDbLine
 10
86.33276314028385
 20
299.4295625952624
 30
0.0
 11
94.33276314028388
 21
299.4295625952624
 31
0.0
  0
LINE
  5
10B1
330
109B
100
AcDbEntity
  8
AM_0N
100
AcDbLine
 10
86.33276314028385
 20
299.4295625952624
 30
0.0
 11
87.09957564028385
 21
300.1963750952624
 31
0.0
  0
LINE
  5
10B2
330
109B
100
AcDbEntity
  8
AM_3N
  6
AM_ISO02W050x2
100
AcDbLine
 10
88.02276314028386
 20
300.1963750952624
 30
0.0
 11
88.02276314028386
 21
295.1963750952624
 31
0.0
  0
LINE
  5
10B3
330
109B
100
AcDbEntity
  8
AM_3N
  6
AM_ISO02W050x2
100
AcDbLine
 10
92.64276314028386
 20
300.1963750952624
 30
0.0
 11
92.64276314028386
 21
295.1963750952624
 31
0.0
  0
LINE
  5
10B4
330
109B
100
AcDbEntity
  8
AM_3N
  6
AM_ISO02W050x2
100
AcDbLine
 10
89.17776314028385
 20
300.1963750952624
 30
0.0
 11
89.17776314028385
 21
295.1963750952624
 31
0.0
  0
LINE
  5
10B5
330
109B
100
AcDbEntity
  8
AM_3N
  6
AM_ISO02W050x2
100
AcDbLine
 10
91.48776314028387
 20
300.1963750952624
 30
0.0
 11
91.48776314028387
 21
295.1963750952624
 31
0.0
  0
LINE
  5
10B6
330
109B
100
AcDbEntity
  8
AM_0N
100
AcDbLine
 10
93.56595064028386
 20
300.1963750952624
 30
0.0
 11
94.33276314028388
 21
299.4295625952624
 31
0.0
  0
LINE
  5
10B7
330
109B
100
AcDbEntity
  8
AM_3N
  6
AM_ISO02W050x2
100
AcDbLine
 10
88.02276314028386
 20
295.1963750952624
 30
0.0
 11
90.33276314028388
 21
293.8626959734344
 31
0.0
  0
LINE
  5
10B8
330
109B
100
AcDbEntity
  8
AM_3N
  6
AM_ISO02W050x2
100
AcDbLine
 10
92.64276314028386
 20
295.1963750952624
 30
0.0
 11
90.33276314028388
 21
293.8626959734344
 31
0.0
  0
LINE
  5
10B9
330
109B
100
AcDbEntity
  8
AM_0N
100
AcDbLine
 10
93.56595064028386
 20
300.1963750952624
 30
0.0
 11
87.09957564028385
 21
300.1963750952624
 31
0.0
  0
ENDBLK
  5
10BB
330
109B
100
AcDbEntity
  8
0
100
AcDbBlockEnd
  0
ENDSEC
  0
SECTION
  2
ENTITIES
  0
LINE
  5
820
330
1F
100
AcDbEntity
  8
0
100
AcDbLine
 10
262.8339693414261
 20
286.6543750952622
 30
0.0
 11
279.6509693414261
 21
286.6543750952622
 31
0.0
  0
LINE
  5
821
330
1F
100
AcDbEntity
  8
0
100
AcDbLine
 10
190.3369693414261
 20
284.6553750952622
 30
0.0
 11
328.3619693414262
 21
284.6553750952622
 31
0.0
  0
ARC
  5
823
330
1F
100
AcDbEntity
  8
0
100
AcDbCircle
 10
266.7172005224583
 20
265.1963750952623
 30
0.0
 40
5.0
100
AcDbArc
 50
222.8934611166923
 51
270.0
1001
GENIUS_GENODEF_13
1002
{
1000
HIER
1070
     0
1002
}
1002
{
1000
MANEDIT
1070
     0
1002
}
1002
{
1000
NOSEL
1070
     0
1002
}
1002
{
1000
BEHIND
1070
     0
1002
}
1002
{
1000
OTHER
1070
     0
1002
}
1002
{
1000
REACTOR
1002
}
1001
GENIUS_GENOBJ-N-FIL_13
1002
{
1000
OWNER
1000
GEN
1002
}
  0
LINE
  5
824
330
1F
100
AcDbEntity
  8
0
100
AcDbLine
 10
263.5003276174658
 20
266.8936210372431
 30
0.0
 11
262.7157859979014
 21
257.9262692919317
 31
0.0
  0
LINE
  5
826
330
1F
100
AcDbEntity
  8
0
100
AcDbLine
 10
332.3575853599411
 20
278.1963750952621
 30
0.0
 11
261.3411755425686
 21
278.1963750952621
 31
0.0
  0
ARC
  5
827
330
1F
100
AcDbEntity
  8
0
100
AcDbCircle
 10
271.4698852021997
 20
266.1963750952621
 30
0.0
 40
8.0
100
AcDbArc
 50
90.00000000000161
 51
175.0000000000001
1001
GENIUS_GENODEF_13
1002
{
1000
HIER
1070
     0
1002
}
1002
{
1000
MANEDIT
1070
     0
1002
}
1002
{
1000
NOSEL
1070
     0
1002
}
1002
{
1000
BEHIND
1070
     0
1002
}
1002
{
1000
OTHER
1070
     0
1002
}
1002
{
1000
REACTOR
1002
}
1001
GENIUS_GENOBJ-N-FIL_13
1002
{
1000
OWNER
1000
GEN
1002
}
  0
LINE
  5
828
330
1F
100
AcDbEntity
  8
0
100
AcDbLine
 10
238.5034889726189
 20
284.1963750952623
 30
0.0
 11
265.3411755425686
 21
284.1963750952621
 31
0.0
  0
ARC
  5
829
330
1F
100
AcDbEntity
  8
0
100
AcDbCircle
 10
257.7348125074429
 20
258.3620480056704
 30
0.0
 40
5.0
100
AcDbArc
 50
273.0000000000007
 51
355.0000000000002
1001
GENIUS_GENODEF_13
1002
{
1000
HIER
1070
     0
1002
}
1002
{
1000
MANEDIT
1070
     0
1002
}
1002
{
1000
NOSEL
1070
     0
1002
}
1002
{
1000
BEHIND
1070
     0
1002
}
1002
{
1000
OTHER
1070
     0
1002
}
1002
{
1000
REACTOR
1002
}
1001
GENIUS_GENOBJ-N-FIL_13
1002
{
1000
OWNER
1000
GEN
1002
}
  0
DIMENSION
  5
82A
330
1F
100
AcDbEntity
  8
AM_5
100
AcDbDimension
  2
*D7
 10
36.31635332291175
 20
83.19637509526238
 30
0.0
 11
29.81635332291174
 21
180.6963750952625
 31
0.0
 70
    32
 71
     5
 42
195.0000000000002
  3
AM_ISO$0
100
AcDbAlignedDimension
 13
48.3163533229117
 23
278.1963750952626
 33
0.0
 14
161.3369693414262
 24
83.19637509526234
 34
0.0
 50
90.00000000000003
100
AcDbRotatedDimension
1001
ACAD
1000
DSTYLE
1002
{
1070
    41
1040
7.0
1070
    47
1040
1.0
1070
    48
1040
1.0
1070
   140
1040
10.0
1002
}
  0
LINE
  5
82C
330
1F
100
AcDbEntity
  8
0
100
AcDbLine
 10
128.1315222640895
 20
173.6132748309726
 30
0.0
 11
127.4787281106515
 21
248.4160756857051
 31
0.0
  0
LINE
  5
82D
330
1F
100
AcDbEntity
  8
7
100
AcDbLine
 10
190.3369693414263
 20
297.9645568675314
 30
0.0
 11
190.3369693414262
 21
75.45592453173179
 31
0.0
1001
GENIUS_GENOBJ-N-CEN_13
1002
{
1000
OWNER
1000
GEN
1002
}
1001
GENIUS_GENODEF_13
1002
{
1000
HIER
1070
     0
1002
}
1002
{
1000
MANEDIT
1070
     0
1002
}
1002
{
1000
NOSEL
1070
     0
1002
}
1002
{
1000
BEHIND
1070
     0
1002
}
1002
{
1000
OTHER
1070
     0
1002
}
1002
{
1000
REACTOR
1002
}
  0
LINE
  5
82E
330
1F
100
AcDbEntity
  8
0
100
AcDbLine
 10
132.0869693414264
 20
177.5209014234822
 30
0.0
 11
132.0869693414262
 21
257.1902148058183
 31
0.0
  0
LINE
  5
82F
330
1F
100
AcDbEntity
  8
0
100
AcDbLine
 10
248.586969341426
 20
178.7185340982528
 30
0.0
 11
248.5869693414262
 21
257.1902148058182
 31
0.0
  0
LINE
  5
830
330
1F
100
AcDbEntity
  8
0
100
AcDbLine
 10
252.5424164187628
 20
173.6132748309725
 30
0.0
 11
253.1952105722008
 21
248.416075685705
 31
0.0
  0
DIMENSION
  5
831
330
1F
100
AcDbEntity
  8
AM_5
100
AcDbDimension
  2
*D8
 10
73.61220632234084
 20
83.19637509526236
 30
0.0
 11
67.11220632234084
 21
121.2386462104587
 31
0.0
 70
    32
 71
     5
 42
76.08454223039267
  3
AM_ISO$0
100
AcDbAlignedDimension
 13
150.6729896004608
 23
159.280917325655
 33
0.0
 14
165.3369693414262
 24
83.19637509526234
 34
0.0
 50
90.0
100
AcDbRotatedDimension
1001
ACAD
1000
DSTYLE
1002
{
1070
    41
1040
7.0
1070
    47
1040
1.0
1070
    48
1040
1.0
1070
   140
1040
10.0
1070
   271
1070
     0
1002
}
  0
LINE
  5
833
330
1F
100
AcDbEntity
  8
0
100
AcDbLine
 10
143.8369693414264
 20
168.691813650458
 30
0.0
 11
190.3369693414262
 21
168.6918136504579
 31
0.0
  0
LINE
  5
835
102
{ACAD_REACTORS
330
E62
102
}
330
1F
100
AcDbEntity
  8
0
100
AcDbLine
 10
151.336969341426
 20
83.19637509526238
 30
0.0
 11
190.3369693414262
 21
83.19637509526222
 31
0.0
  0
LINE
  5
838
330
1F
100
AcDbEntity
  8
0
100
AcDbLine
 10
136.6511906276881
 20
173.7375606077942
 30
0.0
 11
142.8369693414262
 21
173.1963750952621
 31
0.0
  0
LINE
  5
839
330
1F
100
AcDbEntity
  8
0
100
AcDbLine
 10
136.6511906276879
 20
173.7375606077945
 30
0.0
 11
142.8369693414262
 21
173.1963750952621
 31
0.0
  0
LINE
  5
83A
330
1F
100
AcDbEntity
  8
0
100
AcDbLine
 10
137.131179571667
 20
164.6918136504581
 30
0.0
 11
145.9348597663547
 21
164.2304323219364
 31
0.0
  0
ARC
  5
83B
330
1F
100
AcDbEntity
  8
0
100
AcDbCircle
 10
137.1311795716672
 20
173.691813650458
 30
0.0
 40
9.0
100
AcDbArc
 50
180.5000000000013
 51
270.0
1001
GENIUS_GENOBJ-N-FIL_13
1002
{
1000
OWNER
1000
GEN
1002
}
1001
GENIUS_GENODEF_13
1002
{
1000
HIER
1070
     0
1002
}
1002
{
1000
MANEDIT
1070
     0
1002
}
1002
{
1000
NOSEL
1070
     0
1002
}
1002
{
1000
BEHIND
1070
     0
1002
}
1002
{
1000
OTHER
1070
     0
1002
}
1002
{
1000
REACTOR
1002
}
  0
ARC
  5
83C
330
1F
100
AcDbEntity
  8
0
100
AcDbCircle
 10
137.0869693414263
 20
178.7185340982531
 30
0.0
 40
5.0
100
AcDbArc
 50
180.0
 51
265.0000000000002
1001
GENIUS_GENOBJ-N-FIL_13
1002
{
1000
OWNER
1000
GEN
1002
}
1001
GENIUS_GENODEF_13
1002
{
1000
HIER
1070
     0
1002
}
1002
{
1000
MANEDIT
1070
     0
1002
}
1002
{
1000
NOSEL
1070
     0
1002
}
1002
{
1000
BEHIND
1070
     0
1002
}
1002
{
1000
OTHER
1070
     0
1002
}
1002
{
1000
REACTOR
1002
}
  0
LINE
  5
83F
330
1F
100
AcDbEntity
  8
0
100
AcDbLine
 10
142.8369693414262
 20
173.1963750952623
 30
0.0
 11
142.8369693414264
 21
169.691813650458
 31
0.0
1001
GENIUS_GENOBJ-N-CEN_13
1002
{
1000
OWNER
1000
GEN
1002
}
1001
GENIUS_GENODEF_13
1002
{
1000
HIER
1070
     0
1002
}
1002
{
1000
MANEDIT
1070
     0
1002
}
1002
{
1000
NOSEL
1070
     0
1002
}
1002
{
1000
BEHIND
1070
     0
1002
}
1002
{
1000
OTHER
1070
     0
1002
}
1002
{
1000
REACTOR
1002
}
  0
LINE
  5
841
330
1F
100
AcDbEntity
  8
0
100
AcDbLine
 10
160.5908903619253
 20
168.6885582461305
 30
0.0
 11
160.5909182684044
 21
168.6853604803664
 31
0.0
1001
GENIUS_GENOBJ-N-CEN_13
1002
{
1000
OWNER
1000
GEN
1002
}
1001
GENIUS_GENODEF_13
1002
{
1000
HIER
1070
     0
1002
}
1002
{
1000
MANEDIT
1070
     0
1002
}
1002
{
1000
NOSEL
1070
     0
1002
}
1002
{
1000
BEHIND
1070
     0
1002
}
1002
{
1000
OTHER
1070
     0
1002
}
1002
{
1000
REACTOR
1002
}
  0
LINE
  5
844
102
{ACAD_REACTORS
330
E62
102
}
330
1F
100
AcDbEntity
  8
0
100
AcDbLine
 10
229.336969341426
 20
83.19637509526222
 30
0.0
 11
190.336969341426
 21
83.19637509526222
 31
0.0
  0
LINE
  5
848
330
1F
100
AcDbEntity
  8
0
100
AcDbLine
 10
236.836969341426
 20
168.6918136504579
 30
0.0
 11
190.3369693414262
 21
168.6918136504579
 31
0.0
  0
LINE
  5
849
330
1F
100
AcDbEntity
  8
0
100
AcDbLine
 10
220.0830483209271
 20
168.6885582461304
 30
0.0
 11
220.083020414448
 21
168.6853604803662
 31
0.0
1001
GENIUS_GENOBJ-N-CEN_13
1002
{
1000
OWNER
1000
GEN
1002
}
1001
GENIUS_GENODEF_13
1002
{
1000
HIER
1070
     0
1002
}
1002
{
1000
MANEDIT
1070
     0
1002
}
1002
{
1000
NOSEL
1070
     0
1002
}
1002
{
1000
BEHIND
1070
     0
1002
}
1002
{
1000
OTHER
1070
     0
1002
}
1002
{
1000
REACTOR
1002
}
  0
LINE
  5
84A
330
1F
100
AcDbEntity
  8
0
100
AcDbLine
 10
244.0227480551645
 20
173.7375606077942
 30
0.0
 11
237.8369693414262
 21
173.1963750952619
 31
0.0
  0
LINE
  5
84B
330
1F
100
AcDbEntity
  8
0
100
AcDbLine
 10
244.0227480551645
 20
173.7375606077941
 30
0.0
 11
237.8369693414262
 21
173.1963750952619
 31
0.0
  0
LINE
  5
84C
330
1F
100
AcDbEntity
  8
0
100
AcDbLine
 10
243.5427591111853
 20
164.6918136504579
 30
0.0
 11
234.7390789164975
 21
164.2304323219362
 31
0.0
  0
LINE
  5
84D
330
1F
100
AcDbEntity
  8
0
100
AcDbLine
 10
237.8369693414262
 20
173.196375095262
 30
0.0
 11
237.836969341426
 21
169.6918136504579
 31
0.0
1001
GENIUS_GENOBJ-N-CEN_13
1002
{
1000
OWNER
1000
GEN
1002
}
1001
GENIUS_GENODEF_13
1002
{
1000
HIER
1070
     0
1002
}
1002
{
1000
MANEDIT
1070
     0
1002
}
1002
{
1000
NOSEL
1070
     0
1002
}
1002
{
1000
BEHIND
1070
     0
1002
}
1002
{
1000
OTHER
1070
     0
1002
}
1002
{
1000
REACTOR
1002
}
  0
ARC
  5
84F
330
1F
100
AcDbEntity
  8
0
100
AcDbCircle
 10
243.5427591111853
 20
173.691813650458
 30
0.0
 40
9.0
100
AcDbArc
 50
270.0
 51
359.4999999999987
1001
GENIUS_GENOBJ-N-FIL_13
1002
{
1000
OWNER
1000
GEN
1002
}
1001
GENIUS_GENODEF_13
1002
{
1000
HIER
1070
     0
1002
}
1002
{
1000
MANEDIT
1070
     0
1002
}
1002
{
1000
NOSEL
1070
     0
1002
}
1002
{
1000
BEHIND
1070
     0
1002
}
1002
{
1000
OTHER
1070
     0
1002
}
1002
{
1000
REACTOR
1002
}
  0
ARC
  5
850
330
1F
100
AcDbEntity
  8
0
100
AcDbCircle
 10
243.586969341426
 20
178.7185340982531
 30
0.0
 40
5.0
100
AcDbArc
 50
274.9999999999997
 51
0.0
1001
GENIUS_GENOBJ-N-FIL_13
1002
{
1000
OWNER
1000
GEN
1002
}
1001
GENIUS_GENODEF_13
1002
{
1000
HIER
1070
     0
1002
}
1002
{
1000
MANEDIT
1070
     0
1002
}
1002
{
1000
NOSEL
1070
     0
1002
}
1002
{
1000
BEHIND
1070
     0
1002
}
1002
{
1000
OTHER
1070
     0
1002
}
1002
{
1000
REACTOR
1002
}
  0
LINE
  5
852
330
1F
100
AcDbEntity
  8
0
100
AcDbLine
 10
96.1375667684023
 20
286.654219811765
 30
0.0
 11
98.74896934142618
 21
286.6543750952622
 31
0.0
1001
GENIUS_GENOREF_13
1005
A29
1005
A28
  0
LINE
  5
853
330
1F
100
AcDbEntity
  8
0
100
AcDbLine
 10
94.33276314028388
 20
278.1963750952624
 30
0.0
 11
108.0923938442588
 21
278.1963750952624
 31
0.0
1001
GENIUS_GENOREF_13
1005
A29
  0
LINE
  5
854
330
1F
100
AcDbEntity
  8
0
100
AcDbLine
 10
94.33276314028388
 20
278.1963750952624
 30
0.0
 11
119.332763140284
 21
278.1963750952624
 31
0.0
1001
GENIUS_GENOREF_13
1005
A29
  0
LINE
  5
855
330
1F
100
AcDbEntity
  8
0
100
AcDbLine
 10
97.83796934142618
 20
279.0243750952622
 30
0.0
 11
103.5559693414261
 21
278.5743750952622
 31
0.0
  0
INSERT
  5
856
330
1F
100
AcDbEntity
  8
8
100
AcDbBlockReference
  2
*X5
 10
408.5239693414261
 20
-86.37562490473777
 30
0.0
 41
-1.0
1001
ACAD
1000
HATCH
1002
{
1070
    19
1000
ANSI31,_I
1040
3.174999999999999
1040
0.7850000000000001
1002
}
  0
ARC
  5
857
330
1F
100
AcDbEntity
  8
0
100
AcDbCircle
 10
94.85423139674697
 20
265.1963750952624
 30
0.0
 40
5.0
100
AcDbArc
 50
270.0
 51
357.0000000000009
1001
GENIUS_GENODEF_13
1002
{
1000
HIER
1070
     0
1002
}
1002
{
1000
MANEDIT
1070
     0
1002
}
1002
{
1000
NOSEL
1070
     0
1002
}
1002
{
1000
BEHIND
1070
     0
1002
}
1002
{
1000
OTHER
1070
     0
1002
}
1002
{
1000
REACTOR
1002
}
1001
GENIUS_GENOBJ-N-FIL_13
1002
{
1000
OWNER
1000
GEN
1002
}
  0
LINE
  5
85A
330
1F
100
AcDbEntity
  8
0
100
AcDbLine
 10
82.10674299927502
 20
287.6463654575904
 30
0.0
 11
82.10674299927502
 21
294.0312707930801
 31
0.0
  0
LINE
  5
85B
330
1F
100
AcDbEntity
  8
0
100
AcDbLine
 10
98.58817018728046
 20
294.0444447626997
 30
0.0
 11
98.58817018728046
 21
287.6808858411708
 31
0.0
  0
INSERT
  5
85C
330
1F
100
AcDbEntity
  8
AM_0N
100
AcDbBlockReference
  2
*U11
 10
0.0
 20
0.0
 30
0.0
1001
GENIUS_GENOREF_13
1005
A27
  0
INSERT
  5
85D
330
1F
100
AcDbEntity
  8
AM_0N
100
AcDbBlockReference
  2
*U12
 10
0.0
 20
0.0
 30
0.0
1001
GENIUS_GENOREF_13
1005
A26
1005
A28
  0
LINE
  5
85F
330
1F
100
AcDbEntity
  8
0
100
AcDbLine
 10
58.70096934142612
 20
278.1823750952623
 30
0.0
 11
55.36368727183656
 21
278.4513677155747
 31
0.0
  0
LINE
  5
860
330
1F
100
AcDbEntity
  8
0
100
AcDbLine
 10
79.92396934142613
 20
284.6553750952622
 30
0.0
 11
52.31196934142616
 21
284.6553750952622
 31
0.0
  0
INSERT
  5
861
330
1F
100
AcDbEntity
  8
8
100
AcDbBlockReference
  2
*X6
 10
408.5239693414261
 20
-86.37562490473777
 30
0.0
 41
-1.0
1001
ACAD
1000
HATCH
1002
{
1070
    19
1000
ANSI31,_I
1040
3.174999999999999
1040
0.7850000000000001
1002
}
  0
LINE
  5
862
330
1F
100
AcDbEntity
  8
0
100
AcDbLine
 10
45.3369693414262
 20
273.1963750952624
 30
0.0
 11
65.50909012099248
 21
273.1963750952624
 31
0.0
  0
HATCH
  5
863
330
1F
100
AcDbEntity
  8
AM_8
100
AcDbHatch
 10
0.0
 20
0.0
 30
0.0
210
0.0
220
0.0
230
1.0
  2
_U
 70
     0
 71
     0
 91
        3
 92
        0
 93
       16
 72
     1
 10
87.13276314028385
 20
265.6463750952624
 11
86.33276314028385
 21
266.4463750952624
 72
     1
 10
86.33276314028385
 20
266.4463750952624
 11
86.33276314028385
 21
278.1963750952625
 72
     1
 10
86.33276314028391
 20
278.1963750952624
 11
48.31635332291162
 21
278.1963750952623
 72
     2
 10
48.31635332291162
 20
275.6963750952624
 40
2.5
 50
90.0
 51
169.9999999999975
 73
     1
 72
     1
 10
45.85433394038108
 20
276.1304955394298
 11
45.33696934142622
 21
273.1963750952623
 72
     1
 10
45.33696934142622
 20
273.1963750952624
 11
65.50909012099239
 21
273.1963750952624
 72
     1
 10
65.50909012099251
 20
273.1963750952624
 11
65.68541710170101
 21
274.1963750952624
 72
     1
 10
65.68541710170101
 20
274.1963750952624
 11
75.58794030670961
 21
274.1963750952623
 72
     2
 10
75.58794030670961
 20
269.1963750952622
 40
5.0
 50
3.000000000000382
 51
90.0
 73
     1
 72
     1
 10
80.58108798048252
 20
269.4580548764769
 11
80.81814721004812
 21
264.9346953140475
 72
     2
 10
85.81129488382103
 20
265.1963750952624
 40
5.000000000000041
 50
-176.9999999999983
 51
-90.0
 73
     1
 72
     1
 10
85.81129488382103
 20
260.1963750952624
 11
90.33276314028402
 21
260.1963750952624
 72
     1
 10
90.33276314028388
 20
260.1963750952624
 11
90.33276314028388
 21
263.5249390107292
 72
     1
 10
90.33276314028391
 20
263.5249390107291
 11
90.3278228646476
 21
263.5223585873023
 72
     1
 10
90.32782286464763
 20
263.5223585873024
 11
87.13276314028382
 21
265.1963750952625
 72
     1
 10
87.13276314028385
 20
265.1963750952625
 11
87.13276314028385
 21
265.6463750952624
 97
        0
 92
        0
 93
        4
 72
     1
 10
87.13276314028385
 20
265.6463750952624
 11
86.33276314028385
 21
266.4463750952624
 72
     1
 10
87.13276314028385
 20
265.6463750952624
 11
87.13276314028385
 21
268.1963750952623
 72
     1
 10
87.13276314028385
 20
268.1963750952624
 11
86.33276314028391
 21
268.1963750952624
 72
     1
 10
86.33276314028385
 20
266.4463750952624
 11
86.33276314028385
 21
268.1963750952624
 97
        0
 92
        0
 93
        4
 72
     1
 10
87.13276314028385
 20
265.6463750952624
 11
86.33276314028385
 21
266.4463750952624
 72
     1
 10
87.13276314028385
 20
265.6463750952624
 11
87.13276314028385
 21
268.1963750952623
 72
     1
 10
87.13276314028385
 20
268.1963750952624
 11
86.33276314028391
 21
268.1963750952624
 72
     1
 10
86.33276314028385
 20
266.4463750952624
 11
86.33276314028385
 21
268.1963750952624
 97
        0
 75
     0
 76
     0
 52
44.99999999999999
 41
2.5
 77
     0
 78
     1
 53
44.99999999999996
 43
190.3369693414262
 44
168.6918136504579
 45
-1.767766952966368
 46
1.767766952966369
 79
     0
 98
        1
 10
684.0960362753819
 20
-273.4121246237901
1001
GENIUS_GENODEF_13
1002
{
1000
HIER
1070
     0
1002
}
1002
{
1000
MANEDIT
1070
     0
1002
}
1002
{
1000
NOSEL
1070
     0
1002
}
1002
{
1000
BEHIND
1070
     0
1002
}
1002
{
1000
OTHER
1070
     0
1002
}
1002
{
1000
REACTOR
1002
}
1001
GENIUS_GENOBJ-N-HTC_13
1002
{
1000
OWNER
1000
GEN
1002
}
1001
GENIUS_GENHATCH_13
1002
{
1000
DATA
1040
45.0
1042
2.5
1000
_U
1070
     0
1011
55.16268152756302
1021
275.645818009824
1031
0.0
1002
}
1002
{
1000
UCS
1010
0.0
1020
0.0
1030
0.0
1010
1.0
1020
0.0
1030
0.0
1010
0.0
1020
1.0
1030
0.0
1002
}
1001
GENIUS_GENBHRL_14
1071
        1
1071
        2
1001
GENIUS_GENOREF_13
1005
A29
  0
LINE
  5
864
330
1F
100
AcDbEntity
  8
0
100
AcDbLine
 10
48.3163533229116
 20
278.1963750952624
 30
0.0
 11
86.33276314028385
 21
278.1963750952624
 31
0.0
1001
GENIUS_GENOREF_13
1005
A29
  0
ARC
  5
865
330
1F
100
AcDbEntity
  8
0
100
AcDbCircle
 10
48.3163533229117
 20
275.6963750952626
 30
0.0
 40
2.5
100
AcDbArc
 50
90.0
 51
170.0000000000014
  0
LINE
  5
866
102
{ACAD_REACTORS
330
1038
102
}
330
1F
100
AcDbEntity
  8
0
100
AcDbLine
 10
45.85433394038125
 20
276.1304955394297
 30
0.0
 11
45.3369693414262
 21
273.1963750952624
 31
0.0
  0
LINE
  5
867
330
1F
100
AcDbEntity
  8
0
100
AcDbLine
 10
52.61614398324247
 20
281.1800247420712
 30
0.0
 11
52.31196934142616
 21
284.6543750952622
 31
0.0
  0
ARC
  5
868
330
1F
100
AcDbEntity
  8
0
100
AcDbCircle
 10
55.604712510029
 20
281.4416698465564
 30
0.0
 40
3.0
100
AcDbArc
 50
185.0034101715662
 51
265.3917904261128
1001
GENIUS_GENODEF_13
1002
{
1000
HIER
1070
     0
1002
}
1002
{
1000
MANEDIT
1070
     0
1002
}
1002
{
1000
NOSEL
1070
     0
1002
}
1002
{
1000
BEHIND
1070
     0
1002
}
1002
{
1000
REACTOR
1002
}
1001
GENIUS_GENOBJ-N-FIL_13
1002
{
1000
OWNER
1000
GEN
1002
}
  0
LINE
  5
869
330
1F
100
AcDbEntity
  8
7A
100
AcDbLine
 10
90.33276314028391
 20
265.1963750952624
 30
0.0
 11
90.33276314028388
 21
259.1963750952624
 31
0.0
1001
GENIUS_GENOREF_13
1005
A29
  0
ARC
  5
86A
330
1F
100
AcDbEntity
  8
0
100
AcDbCircle
 10
85.81129488382101
 20
265.1963750952624
 30
0.0
 40
5.0
100
AcDbArc
 50
182.9999999999991
 51
270.0
1001
GENIUS_GENODEF_13
1002
{
1000
HIER
1070
     0
1002
}
1002
{
1000
MANEDIT
1070
     0
1002
}
1002
{
1000
NOSEL
1070
     0
1002
}
1002
{
1000
BEHIND
1070
     0
1002
}
1002
{
1000
OTHER
1070
     0
1002
}
1002
{
1000
REACTOR
1002
}
1001
GENIUS_GENOBJ-N-FIL_13
1002
{
1000
OWNER
1000
GEN
1002
}
  0
LINE
  5
86B
330
1F
100
AcDbEntity
  8
0
100
AcDbLine
 10
85.81129488382101
 20
260.1963750952624
 30
0.0
 11
94.85423139674697
 21
260.1963750952624
 31
0.0
  0
LINE
  5
86C
330
1F
100
AcDbEntity
  8
0
100
AcDbLine
 10
77.21996934142612
 20
278.3443750952622
 30
0.0
 11
82.92996934142616
 21
278.8943750952622
 31
0.0
  0
ARC
  5
86D
330
1F
100
AcDbEntity
  8
0
100
AcDbCircle
 10
75.58794030670958
 20
269.1963750952624
 30
0.0
 40
5.0
100
AcDbArc
 50
2.99999999999909
 51
90.0
1001
GENIUS_GENOBJ-N-FIL_13
1002
{
1000
OWNER
1000
GEN
1002
}
1001
GENIUS_GENODEF_13
1002
{
1000
HIER
1070
     0
1002
}
1002
{
1000
MANEDIT
1070
     0
1002
}
1002
{
1000
NOSEL
1070
     0
1002
}
1002
{
1000
BEHIND
1070
     0
1002
}
1002
{
1000
OTHER
1070
     0
1002
}
1002
{
1000
REACTOR
1002
}
  0
LINE
  5
86E
330
1F
100
AcDbEntity
  8
0
100
AcDbLine
 10
65.68541710170086
 20
274.1963750952624
 30
0.0
 11
75.58794030670958
 21
274.1963750952622
 31
0.0
  0
LINE
  5
86F
330
1F
100
AcDbEntity
  8
0
100
AcDbLine
 10
65.50909012099248
 20
273.1963750952624
 30
0.0
 11
65.68541710170086
 21
274.1963750952624
 31
0.0
  0
LINE
  5
870
330
1F
100
AcDbEntity
  8
0
100
AcDbLine
 10
58.70096934142612
 20
278.1823750952623
 30
0.0
 11
67.8369693414262
 21
279.0623750952623
 31
0.0
  0
LINE
  5
871
330
1F
100
AcDbEntity
  8
0
100
AcDbLine
 10
67.8369693414262
 20
279.0623750952623
 30
0.0
 11
76.98696934142617
 21
278.3423750952622
 31
0.0
  0
LINE
  5
872
330
1F
100
AcDbEntity
  8
0
100
AcDbLine
 10
76.98696934142617
 20
278.3423750952622
 30
0.0
 11
77.21996934142612
 21
278.3443750952622
 31
0.0
  0
LINE
  5
873
330
1F
100
AcDbEntity
  8
AM_INV
 48
0.256
100
AcDbLine
 10
90.33696934142614
 20
288.5563750952622
 30
0.0
 11
90.33696934142614
 21
277.3043750952622
 31
0.0
1001
GENIUS_GENBH_13
1002
{
1000
OA
1000
7
1070
   256
1000
ByLayer
1005
5C0
1005
15
1071
       -1
1002
}
1001
GENIUS_GENOREF_13
1005
A29
1005
A28
  0
LINE
  5
874
330
1F
100
AcDbEntity
  8
AM_INV
100
AcDbLine
 10
90.33276314028398
 20
278.1963750952624
 30
0.0
 11
90.33276314028391
 21
265.1963750952624
 31
0.0
1001
GENIUS_GENBH_13
1002
{
1000
OA
1000
7A
1070
   256
1000
ByLayer
1005
5BF
1005
15
1071
       -1
1002
}
1001
GENIUS_GENOREF_13
1005
A29
  0
LINE
  5
875
330
1F
100
AcDbEntity
  8
AM_INV
100
AcDbLine
 10
93.53276314028404
 20
278.1963750952624
 30
0.0
 11
93.53276314028391
 21
265.6463750952624
 31
0.0
1001
GENIUS_GENBH_13
1002
{
1000
OA
1000
0
1070
   256
1000
ByLayer
1005
10
1005
15
1071
       -1
1002
}
1001
GENIUS_GENOREF_13
1005
A29
  0
LINE
  5
876
330
1F
100
AcDbEntity
  8
AM_INV
100
AcDbLine
 10
87.13276314028382
 20
278.1963750952624
 30
0.0
 11
87.13276314028382
 21
265.6463750952624
 31
0.0
1001
GENIUS_GENBH_13
1002
{
1000
OA
1000
0
1070
   256
1000
ByLayer
1005
10
1005
15
1071
       -1
1002
}
1001
GENIUS_GENOREF_13
1005
A29
  0
LINE
  5
877
330
1F
100
AcDbEntity
  8
AM_INV
100
AcDbLine
 10
94.33276314028399
 20
278.1963750952624
 30
0.0
 11
94.33276314028388
 21
268.1963750952624
 31
0.0
1001
GENIUS_GENBH_13
1002
{
1000
OA
1000
4
1070
   256
1000
ByLayer
1005
5BE
1005
15
1071
       -1
1002
}
1001
GENIUS_GENOREF_13
1005
A29
  0
LINE
  5
878
330
1F
100
AcDbEntity
  8
AM_INV
100
AcDbLine
 10
86.33276314028387
 20
278.1963750952624
 30
0.0
 11
86.33276314028387
 21
268.1963750952624
 31
0.0
1001
GENIUS_GENBH_13
1002
{
1000
OA
1000
4
1070
   256
1000
ByLayer
1005
5BE
1005
15
1071
       -1
1002
}
1001
GENIUS_GENOREF_13
1005
A29
  0
LINE
  5
879
330
1F
100
AcDbEntity
  8
AM_INV
100
AcDbLine
 10
87.58276314028385
 20
265.1963750952624
 30
0.0
 11
93.08276314028388
 21
265.1963750952624
 31
0.0
1001
GENIUS_GENBH_13
1002
{
1000
OA
1000
0
1070
   256
1000
ByLayer
1005
10
1005
15
1071
       -1
1002
}
1001
GENIUS_GENOREF_13
1005
A29
  0
LINE
  5
87A
330
1F
100
AcDbEntity
  8
AM_INV
100
AcDbLine
 10
86.33276314028387
 20
268.1963750952624
 30
0.0
 11
94.33276314028388
 21
268.1963750952624
 31
0.0
1001
GENIUS_GENBH_13
1002
{
1000
OA
1000
4
1070
   256
1000
ByLayer
1005
5BE
1005
15
1071
       -1
1002
}
1001
GENIUS_GENOREF_13
1005
A29
  0
LINE
  5
87B
330
1F
100
AcDbEntity
  8
0
100
AcDbLine
 10
90.3278228646476
 20
263.5223585873024
 30
0.0
 11
87.13276314028382
 21
265.1963750952624
 31
0.0
1001
GENIUS_GENOREF_13
1005
A29
  0
LINE
  5
87C
330
1F
100
AcDbEntity
  8
0
100
AcDbLine
 10
80.81814721004809
 20
264.9346953140476
 30
0.0
 11
80.5810879804825
 21
269.4580548764769
 31
0.0
  0
LINE
  5
87D
330
1F
100
AcDbEntity
  8
0
100
AcDbLine
 10
87.13276314028382
 20
265.6463750952624
 30
0.0
 11
87.13276314028382
 21
265.1963750952624
 31
0.0
1001
GENIUS_GENOREF_13
1005
A29
  0
LINE
  5
87E
330
1F
100
AcDbEntity
  8
0
100
AcDbLine
 10
87.13276314028382
 20
265.1963750952624
 30
0.0
 11
87.58276314028385
 21
265.1963750952624
 31
0.0
1001
GENIUS_GENOREF_13
1005
A29
  0
LINE
  5
87F
330
1F
100
AcDbEntity
  8
0
100
AcDbLine
 10
93.08276314028388
 20
265.1963750952624
 30
0.0
 11
93.53276314028391
 21
265.1963750952624
 31
0.0
1001
GENIUS_GENOREF_13
1005
A29
  0
LINE
  5
880
330
1F
100
AcDbEntity
  8
0
100
AcDbLine
 10
93.53276314028391
 20
265.1963750952624
 30
0.0
 11
90.3278228646476
 21
263.5223585873024
 31
0.0
1001
GENIUS_GENOREF_13
1005
A29
  0
LINE
  5
881
330
1F
100
AcDbEntity
  8
0
100
AcDbLine
 10
93.53276314028391
 20
265.6463750952624
 30
0.0
 11
93.53276314028391
 21
265.1963750952624
 31
0.0
1001
GENIUS_GENOREF_13
1005
A29
  0
LINE
  5
882
330
1F
100
AcDbEntity
  8
AM_INV
100
AcDbLine
 10
86.33276314028385
 20
278.6266259766251
 30
0.0
 11
88.64896934142615
 21
278.4443750952622
 31
0.0
1001
GENIUS_GENBH_13
1002
{
1000
OA
1000
0
1070
   256
1000
ByLayer
1005
10
1005
15
1071
       -1
1002
}
1001
GENIUS_GENOREF_13
1005
A29
  0
LINE
  5
883
330
1F
100
AcDbEntity
  8
AM_INV
100
AcDbLine
 10
86.33276314028385
 20
286.6536367824715
 30
0.0
 11
94.33276314028388
 21
286.6541124915754
 31
0.0
1001
GENIUS_GENBH_13
1002
{
1000
OA
1000
0
1070
   256
1000
ByLayer
1005
10
1005
15
1071
       -1
1002
}
1001
GENIUS_GENOREF_13
1005
A29
1005
A28
  0
LINE
  5
884
330
1F
100
AcDbEntity
  8
AM_INV
100
AcDbLine
 10
87.13276314028382
 20
278.1963750952624
 30
0.0
 11
93.53276314028404
 21
278.1963750952624
 31
0.0
1001
GENIUS_GENBH_13
1002
{
1000
OA
1000
0
1070
   256
1000
ByLayer
1005
10
1005
15
1071
       -1
1002
}
1001
GENIUS_GENOREF_13
1005
A29
  0
LINE
  5
885
330
1F
100
AcDbEntity
  8
AM_INV
100
AcDbLine
 10
87.13276314028382
 20
278.1963750952624
 30
0.0
 11
93.53276314028404
 21
278.1963750952624
 31
0.0
1001
GENIUS_GENBH_13
1002
{
1000
OA
1000
0
1070
   256
1000
ByLayer
1005
10
1005
15
1071
       -1
1002
}
1001
GENIUS_GENOREF_13
1005
A29
  0
ARC
  5
886
330
1F
100
AcDbEntity
  8
0
100
AcDbCircle
 10
79.92396934142613
 20
285.6553750952622
 30
0.0
 40
1.0
100
AcDbArc
 50
269.9959999999996
 51
355.0000000000002
  0
LINE
  5
887
330
1F
100
AcDbEntity
  8
0
100
AcDbLine
 10
82.97196934142613
 20
278.8903750952622
 30
0.0
 11
84.34096934142615
 21
286.6553750952622
 31
0.0
1001
GENIUS_GENOREF_13
1005
A28
  0
LINE
  5
888
330
1F
100
AcDbEntity
  8
0
100
AcDbLine
 10
82.92996934142616
 20
278.8943750952622
 30
0.0
 11
86.33276314028385
 21
278.6266259766251
 31
0.0
1001
GENIUS_GENOREF_13
1005
A29
  0
LINE
  5
889
330
1F
100
AcDbEntity
  8
AM_INV
100
AcDbLine
 10
86.33276314028385
 20
278.1963750952624
 30
0.0
 11
87.13276314028382
 21
278.1963750952624
 31
0.0
1001
GENIUS_GENBH_13
1002
{
1000
OA
1000
0
1070
   256
1000
ByLayer
1005
10
1005
15
1071
       -1
1002
}
1001
GENIUS_GENOREF_13
1005
A29
  0
LINE
  5
88A
330
1F
100
AcDbEntity
  8
0
100
AcDbLine
 10
81.93196934142617
 20
286.6533750952622
 30
0.0
 11
86.33276314028385
 21
286.6536367824715
 31
0.0
1001
GENIUS_GENOREF_13
1005
A29
1005
A28
  0
ARC
  5
88B
330
1F
100
AcDbEntity
  8
0
100
AcDbCircle
 10
81.93196934142617
 20
285.6553750952622
 30
0.0
 40
1.0
100
AcDbArc
 50
90.00299999999958
 51
174.9989999999991
  0
LINE
  5
88C
330
1F
100
AcDbEntity
  8
0
100
AcDbLine
 10
80.91996934142612
 20
285.5673750952623
 30
0.0
 11
80.93596934142619
 21
285.7423750952623
 31
0.0
  0
LINE
  5
88D
330
1F
100
AcDbEntity
  8
0
100
AcDbLine
 10
97.68896934142617
 20
279.0103750952622
 30
0.0
 11
96.34096934142617
 21
286.6553750952622
 31
0.0
1001
GENIUS_GENOREF_13
1005
A28
  0
LINE
  5
88E
330
1F
100
AcDbEntity
  8
AM_INV
100
AcDbLine
 10
92.1279693414262
 20
278.4743750952622
 30
0.0
 11
94.33276314028388
 21
278.6867457764131
 31
0.0
1001
GENIUS_GENBH_13
1002
{
1000
OA
1000
0
1070
   256
1000
ByLayer
1005
10
1005
15
1071
       -1
1002
}
1001
GENIUS_GENOREF_13
1005
A29
  0
LINE
  5
88F
330
1F
100
AcDbEntity
  8
AM_INV
100
AcDbLine
 10
88.64896934142615
 20
278.4443750952622
 30
0.0
 11
92.1279693414262
 21
278.4743750952622
 31
0.0
1001
GENIUS_GENBH_13
1002
{
1000
OA
1000
0
1070
   256
1000
ByLayer
1005
10
1005
15
1071
       -1
1002
}
1001
GENIUS_GENOREF_13
1005
A29
  0
LINE
  5
890
330
1F
100
AcDbEntity
  8
0
100
AcDbLine
 10
94.33276314028388
 20
278.6867457764131
 30
0.0
 11
97.83796934142618
 21
279.0243750952622
 31
0.0
1001
GENIUS_GENOREF_13
1005
A29
  0
LINE
  5
891
330
1F
100
AcDbEntity
  8
AM_INV
100
AcDbLine
 10
93.53276314028404
 20
278.1963750952624
 30
0.0
 11
94.33276314028388
 21
278.1963750952624
 31
0.0
1001
GENIUS_GENBH_13
1002
{
1000
OA
1000
0
1070
   256
1000
ByLayer
1005
10
1005
15
1071
       -1
1002
}
1001
GENIUS_GENOREF_13
1005
A29
  0
LINE
  5
892
330
1F
100
AcDbEntity
  8
AM_INV
100
AcDbLine
 10
93.53276314028404
 20
278.1963750952624
 30
0.0
 11
94.33276314028388
 21
278.1963750952624
 31
0.0
1001
GENIUS_GENBH_13
1002
{
1000
OA
1000
0
1070
   256
1000
ByLayer
1005
10
1005
15
1071
       -1
1002
}
1001
GENIUS_GENOREF_13
1005
A29
  0
LINE
  5
893
330
1F
100
AcDbEntity
  8
0
100
AcDbLine
 10
96.08756161816973
 20
286.6542168382768
 30
0.0
 11
96.1375667684023
 21
286.654219811765
 31
0.0
1001
GENIUS_GENOREF_13
1005
A29
1005
A28
  0
LINE
  5
894
330
1F
100
AcDbEntity
  8
AM_INV
100
AcDbLine
 10
94.33276314028388
 20
286.6541124915754
 30
0.0
 11
96.08756161816973
 21
286.6542168382768
 31
0.0
1001
GENIUS_GENBH_13
1002
{
1000
OA
1000
0
1070
   256
1000
ByLayer
1005
10
1005
15
1071
       -1
1002
}
1001
GENIUS_GENOREF_13
1005
A29
1005
A28
  0
LINE
  5
899
330
1F
100
AcDbEntity
  8
0
100
AcDbLine
 10
85.54708042123644
 20
301.1169559030817
 30
0.0
 11
95.21336211884232
 21
301.1169559030817
 31
0.0
  0
LINE
  5
89A
330
1F
100
AcDbEntity
  8
0
100
AcDbLine
 10
85.54708042123644
 20
294.0312707930801
 30
0.0
 11
85.54708042123644
 21
301.1169559030817
 31
0.0
  0
LINE
  5
89B
330
1F
100
AcDbEntity
  8
0
100
AcDbLine
 10
82.10674299927502
 20
294.0312707930801
 30
0.0
 11
85.54708042123644
 21
294.0312707930801
 31
0.0
  0
LINE
  5
89C
330
1F
100
AcDbEntity
  8
0
100
AcDbLine
 10
95.21336211884232
 20
301.1169559030817
 30
0.0
 11
95.21336211884232
 21
294.0444447626997
 31
0.0
  0
LINE
  5
89D
330
1F
100
AcDbEntity
  8
0
100
AcDbLine
 10
95.21336211884232
 20
294.0444447626997
 30
0.0
 11
98.58817018728046
 21
294.0444447626997
 31
0.0
  0
LINE
  5
89E
330
1F
100
AcDbEntity
  8
0
100
AcDbLine
 10
151.204742999275
 20
287.6463654575904
 30
0.0
 11
151.204742999275
 21
294.0312707930801
 31
0.0
  0
LINE
  5
89F
330
1F
100
AcDbEntity
  8
0
100
AcDbLine
 10
167.6861701872804
 20
294.0444447626997
 30
0.0
 11
167.6861701872804
 21
287.6808858411708
 31
0.0
  0
LINE
  5
8A0
330
1F
100
AcDbEntity
  8
AM_9N
100
AcDbLine
 10
163.4307631402838
 20
286.6538748871395
 30
0.0
 11
163.4307631402838
 21
293.1538748871395
 31
0.0
  0
LINE
  5
8A1
330
1F
100
AcDbEntity
  8
AM_9N
100
AcDbLine
 10
162.6639506402838
 20
286.6538748871395
 30
0.0
 11
162.6639506402838
 21
293.1538748871395
 31
0.0
  0
LINE
  5
8A2
330
1F
100
AcDbEntity
  8
AM_0N
100
AcDbLine
 10
166.9424693414261
 20
287.6685679852402
 30
0.0
 11
166.9424693414261
 21
292.1391817890387
 31
0.0
  0
LINE
  5
8A3
330
1F
100
AcDbEntity
  8
AM_0N
100
AcDbLine
 10
163.1887193414261
 20
287.6685679852402
 30
0.0
 11
163.1887193414261
 21
292.1391817890387
 31
0.0
  0
LINE
  5
8A4
330
1F
100
AcDbEntity
  8
AM_9N
100
AcDbLine
 10
155.4307631402838
 20
293.1538748871395
 30
0.0
 11
155.4307631402838
 21
286.6538748871395
 31
0.0
  0
LINE
  5
8A5
330
1F
100
AcDbEntity
  8
AM_9N
100
AcDbLine
 10
156.1975756402838
 20
286.6538748871395
 30
0.0
 11
156.1975756402838
 21
293.1538748871395
 31
0.0
  0
LINE
  5
8A6
330
1F
100
AcDbEntity
  8
AM_7N
  6
AM_DIN_G_W050x2
100
AcDbLine
 10
159.4349693414261
 20
283.6538748871395
 30
0.0
 11
159.4349693414261
 21
296.1538748871395
 31
0.0
  0
LINE
  5
8A7
330
1F
100
AcDbEntity
  8
AM_0N
100
AcDbLine
 10
155.6812193414261
 20
287.6685679852402
 30
0.0
 11
155.6812193414261
 21
292.1391817890387
 31
0.0
  0
LINE
  5
8A8
330
1F
100
AcDbEntity
  8
AM_0N
100
AcDbLine
 10
151.9274693414261
 20
287.6685679852402
 30
0.0
 11
151.9274693414261
 21
292.1391817890387
 31
0.0
  0
LINE
  5
8AA
330
1F
100
AcDbEntity
  8
0
100
AcDbLine
 10
190.3369693414261
 20
284.6553750952622
 30
0.0
 11
100.7569693414261
 21
284.6553750952622
 31
0.0
  0
LINE
  5
8AB
330
1F
100
AcDbEntity
  8
0
100
AcDbLine
 10
164.4468830958532
 20
278.1963750952624
 30
0.0
 11
190.3369693414262
 21
278.1963750952622
 31
0.0
  0
LINE
  5
8AC
330
1F
100
AcDbEntity
  8
0
100
AcDbLine
 10
190.3369693414263
 20
284.1963750952624
 30
0.0
 11
166.4562707976592
 21
284.1963750952624
 31
0.0
  0
LINE
  5
8AD
330
1F
100
AcDbEntity
  8
0
100
AcDbLine
 10
132.0869693414262
 20
257.1902148058183
 30
0.0
 11
190.3369693414262
 21
257.1902148058183
 31
0.0
  0
LINE
  5
8AE
330
1F
100
AcDbEntity
  8
0
100
AcDbLine
 10
190.3369693414263
 20
273.1963750952622
 30
0.0
 11
128.836969341426
 21
273.1963750952622
 31
0.0
  0
LINE
  5
8AF
330
1F
100
AcDbEntity
  8
0
100
AcDbLine
 10
130.6654732757907
 20
268.5280379326465
 30
0.0
 11
250.0084654070619
 21
268.5280379326455
 31
0.0
  0
LINE
  5
8B0
330
1F
100
AcDbEntity
  8
0
100
AcDbLine
 10
142.1704497102337
 20
284.1963750952622
 30
0.0
 11
115.332763140284
 21
284.1963750952622
 31
0.0
  0
LINE
  5
8B1
330
1F
100
AcDbEntity
  8
0
100
AcDbLine
 10
164.4468830958532
 20
278.1963750952624
 30
0.0
 11
119.332763140284
 21
278.1963750952624
 31
0.0
  0
LINE
  5
8B2
330
1F
100
AcDbEntity
  8
0
100
AcDbLine
 10
117.1736110653868
 20
266.8936210372434
 30
0.0
 11
117.9581526849509
 21
257.926269291932
 31
0.0
  0
LINE
  5
8B3
330
1F
100
AcDbEntity
  8
0
100
AcDbLine
 10
122.3369693414263
 20
273.1963750952624
 30
0.0
 11
122.3369693414262
 21
259.596375095262
 31
0.0
  0
ARC
  5
8B4
330
1F
100
AcDbEntity
  8
0
100
AcDbCircle
 10
122.9391261754098
 20
258.3620480056705
 30
0.0
 40
5.0
100
AcDbArc
 50
184.9999999999998
 51
266.9999999999993
1001
GENIUS_GENODEF_13
1002
{
1000
HIER
1070
     0
1002
}
1002
{
1000
MANEDIT
1070
     0
1002
}
1002
{
1000
NOSEL
1070
     0
1002
}
1002
{
1000
BEHIND
1070
     0
1002
}
1002
{
1000
OTHER
1070
     0
1002
}
1002
{
1000
REACTOR
1002
}
1001
GENIUS_GENOBJ-N-FIL_13
1002
{
1000
OWNER
1000
GEN
1002
}
  0
ARC
  5
8B5
330
1F
100
AcDbEntity
  8
0
100
AcDbCircle
 10
122.4789184953309
 20
248.3724430082133
 30
0.0
 40
5.0
100
AcDbArc
 50
0.500000000001317
 51
86.9999999999993
1001
GENIUS_GENOBJ-N-FIL_13
1002
{
1000
OWNER
1000
GEN
1002
}
1001
GENIUS_GENODEF_13
1002
{
1000
HIER
1070
     0
1002
}
1002
{
1000
MANEDIT
1070
     0
1002
}
1002
{
1000
NOSEL
1070
     0
1002
}
1002
{
1000
BEHIND
1070
     0
1002
}
1002
{
1000
OTHER
1070
     0
1002
}
1002
{
1000
REACTOR
1002
}
  0
LINE
  5
8B6
330
1F
100
AcDbEntity
  8
0
100
AcDbLine
 10
124.3369693414262
 20
257.596375095262
 30
0.0
 11
132.0869693414262
 21
257.1902148058183
 31
0.0
  0
LINE
  5
8B7
330
1F
100
AcDbEntity
  8
0
100
AcDbLine
 10
122.6774463941952
 20
253.3689003318976
 30
0.0
 11
122.7405982765455
 21
253.3655906819862
 31
0.0
  0
ARC
  5
8B8
330
1F
100
AcDbEntity
  8
0
100
AcDbCircle
 10
124.3369693414264
 20
259.596375095262
 30
0.0
 40
2.0
100
AcDbArc
 50
180.0
 51
270.0
1001
GENIUS_GENOBJ-N-FIL_13
1002
{
1000
OWNER
1000
GEN
1002
}
1001
GENIUS_GENODEF_13
1002
{
1000
HIER
1070
     0
1002
}
1002
{
1000
MANEDIT
1070
     0
1002
}
1002
{
1000
NOSEL
1070
     0
1002
}
1002
{
1000
BEHIND
1070
     0
1002
}
1002
{
1000
OTHER
1070
     0
1002
}
1002
{
1000
REACTOR
1002
}
  0
LINE
  5
8BA
330
1F
100
AcDbEntity
  8
0
100
AcDbLine
 10
119.0183164645857
 20
284.1963750952624
 30
0.0
 11
119.332763140284
 21
278.1963750952624
 31
0.0
  0
ARC
  5
8BB
330
1F
100
AcDbEntity
  8
0
100
AcDbCircle
 10
111.1425064630585
 20
282.1963750952626
 30
0.0
 40
4.0
100
AcDbArc
 50
270.0
 51
355.0000000000002
  0
LINE
  5
8BC
330
1F
100
AcDbEntity
  8
0
100
AcDbLine
 10
105.0775859738583
 20
274.1963750952624
 30
0.0
 11
109.2040534806528
 21
274.1963750952619
 31
0.0
  0
ARC
  5
8BD
330
1F
100
AcDbEntity
  8
0
100
AcDbCircle
 10
105.0775859738584
 20
269.1963750952624
 30
0.0
 40
5.0
100
AcDbArc
 50
90.0
 51
177.0000000000009
1001
GENIUS_GENODEF_13
1002
{
1000
HIER
1070
     0
1002
}
1002
{
1000
MANEDIT
1070
     0
1002
}
1002
{
1000
NOSEL
1070
     0
1002
}
1002
{
1000
BEHIND
1070
     0
1002
}
1002
{
1000
OTHER
1070
     0
1002
}
1002
{
1000
REACTOR
1002
}
1001
GENIUS_GENOBJ-N-FIL_13
1002
{
1000
OWNER
1000
GEN
1002
}
  0
LINE
  5
8BE
330
1F
100
AcDbEntity
  8
0
100
AcDbLine
 10
99.84737907051965
 20
264.9346953140476
 30
0.0
 11
100.0844383000856
 21
269.4580548764772
 31
0.0
  0
ARC
  5
8BF
330
1F
100
AcDbEntity
  8
0
100
AcDbCircle
 10
109.2040534806527
 20
266.1963750952622
 30
0.0
 40
8.0
100
AcDbArc
 50
4.999999999999813
 51
89.99999999999836
1001
GENIUS_GENODEF_13
1002
{
1000
HIER
1070
     0
1002
}
1002
{
1000
MANEDIT
1070
     0
1002
}
1002
{
1000
NOSEL
1070
     0
1002
}
1002
{
1000
BEHIND
1070
     0
1002
}
1002
{
1000
OTHER
1070
     0
1002
}
1002
{
1000
REACTOR
1002
}
1001
GENIUS_GENOBJ-N-FIL_13
1002
{
1000
OWNER
1000
GEN
1002
}
  0
LINE
  5
8C0
330
1F
100
AcDbEntity
  8
0
100
AcDbLine
 10
103.5559693414261
 20
278.5743750952622
 30
0.0
 11
111.3859693414261
 21
278.6533750952622
 31
0.0
  0
ARC
  5
8C1
330
1F
100
AcDbEntity
  8
0
100
AcDbCircle
 10
100.7569693414261
 20
285.6553750952622
 30
0.0
 40
1.0
100
AcDbArc
 50
184.9999999999998
 51
270.0049999999998
  0
LINE
  5
8C2
330
1F
100
AcDbEntity
  8
0
100
AcDbLine
 10
99.76096934142617
 20
285.5683750952622
 30
0.0
 11
99.74596934142613
 21
285.7423750952623
 31
0.0
  0
ARC
  5
8C3
330
1F
100
AcDbEntity
  8
0
100
AcDbCircle
 10
98.74896934142618
 20
285.6553750952622
 30
0.0
 40
1.0
100
AcDbArc
 50
4.999999999999793
 51
90.00499999999979
  0
LINE
  5
8C5
330
1F
100
AcDbEntity
  8
0
100
AcDbLine
 10
112.9639693414261
 20
280.1023750952623
 30
0.0
 11
113.3619693414261
 21
284.6553750952622
 31
0.0
  0
ARC
  5
8C6
330
1F
100
AcDbEntity
  8
0
100
AcDbCircle
 10
111.3699693414261
 20
280.2423750952623
 30
0.0
 40
1.6
100
AcDbArc
 50
270.5020000000001
 51
355.0000000000002
  0
LINE
  5
8C7
330
1F
100
AcDbEntity
  8
0
100
AcDbLine
 10
115.332763140284
 20
284.1963750952624
 30
0.0
 11
115.1272852554257
 21
281.8477521242718
 31
0.0
  0
LINE
  5
8C9
330
1F
100
AcDbEntity
  8
0
100
AcDbLine
 10
119.332763140284
 20
278.1963750952624
 30
0.0
 11
119.5948020366991
 21
273.1963750952624
 31
0.0
  0
LINE
  5
8CA
330
1F
100
AcDbEntity
  8
0
100
AcDbLine
 10
124.3369693414264
 20
268.1963750952629
 30
0.0
 11
130.6654732757907
 21
268.5280379326465
 31
0.0
  0
ARC
  5
8CB
330
1F
100
AcDbEntity
  8
0
100
AcDbCircle
 10
124.3369693414265
 20
266.1963750952631
 30
0.0
 40
2.0
100
AcDbArc
 50
90.0
 51
180.0
1001
GENIUS_GENOBJ-N-FIL_13
1002
{
1000
OWNER
1000
GEN
1002
}
1001
GENIUS_GENODEF_13
1002
{
1000
HIER
1070
     0
1002
}
1002
{
1000
MANEDIT
1070
     0
1002
}
1002
{
1000
NOSEL
1070
     0
1002
}
1002
{
1000
BEHIND
1070
     0
1002
}
1002
{
1000
OTHER
1070
     0
1002
}
1002
{
1000
REACTOR
1002
}
  0
ARC
  5
8CC
330
1F
100
AcDbEntity
  8
0
100
AcDbCircle
 10
124.3369693414262
 20
266.1963750952622
 30
0.0
 40
2.0
100
AcDbArc
 50
90.0
 51
180.0
1001
GENIUS_GENOBJ-N-FIL_13
1002
{
1000
OWNER
1000
GEN
1002
}
1001
GENIUS_GENODEF_13
1002
{
1000
HIER
1070
     0
1002
}
1002
{
1000
MANEDIT
1070
     0
1002
}
1002
{
1000
NOSEL
1070
     0
1002
}
1002
{
1000
BEHIND
1070
     0
1002
}
1002
{
1000
OTHER
1070
     0
1002
}
1002
{
1000
REACTOR
1002
}
  0
LINE
  5
8CD
330
1F
100
AcDbEntity
  8
0
100
AcDbLine
 10
128.836969341426
 20
273.1963750952624
 30
0.0
 11
119.5948020366991
 21
273.1963750952624
 31
0.0
  0
LINE
  5
8CE
330
1F
100
AcDbEntity
  8
0
100
AcDbLine
 10
132.0869693414265
 20
270.1963750952629
 30
0.0
 11
132.0869693414265
 21
271.6963750952631
 31
0.0
  0
LINE
  5
8CF
330
1F
100
AcDbEntity
  8
0
100
AcDbLine
 10
132.0869693414265
 20
270.0259822347783
 30
0.0
 11
132.0869693414265
 21
271.6963750952631
 31
0.0
  0
LINE
  5
8D0
330
1F
100
AcDbEntity
  8
0
100
AcDbLine
 10
132.0869693414263
 20
270.1963750952621
 30
0.0
 11
132.0869693414263
 21
271.6963750952624
 31
0.0
  0
LINE
  5
8D1
330
1F
100
AcDbEntity
  8
0
100
AcDbLine
 10
132.0869693414263
 20
270.1963750952619
 30
0.0
 11
132.0869693414263
 21
271.6963750952624
 31
0.0
  0
ARC
  5
8D2
330
1F
100
AcDbEntity
  8
0
100
AcDbCircle
 10
130.5869693414265
 20
270.0259822347785
 30
0.0
 40
1.5
100
AcDbArc
 50
272.9999999999975
 51
0.0
1001
GENIUS_GENOBJ-N-FIL_13
1002
{
1000
OWNER
1000
GEN
1002
}
1001
GENIUS_GENODEF_13
1002
{
1000
HIER
1070
     0
1002
}
1002
{
1000
MANEDIT
1070
     0
1002
}
1002
{
1000
NOSEL
1070
     0
1002
}
1002
{
1000
BEHIND
1070
     0
1002
}
1002
{
1000
OTHER
1070
     0
1002
}
1002
{
1000
REACTOR
1002
}
  0
ARC
  5
8D3
330
1F
100
AcDbEntity
  8
0
100
AcDbCircle
 10
130.5869693414264
 20
271.6963750952622
 30
0.0
 40
1.5
100
AcDbArc
 50
0.0000000000032569
 51
90.0
1001
GENIUS_GENOBJ-N-FIL_13
1002
{
1000
OWNER
1000
GEN
1002
}
1001
GENIUS_GENODEF_13
1002
{
1000
HIER
1070
     0
1002
}
1002
{
1000
MANEDIT
1070
     0
1002
}
1002
{
1000
NOSEL
1070
     0
1002
}
1002
{
1000
BEHIND
1070
     0
1002
}
1002
{
1000
OTHER
1070
     0
1002
}
1002
{
1000
REACTOR
1002
}
  0
ARC
  5
8D4
330
1F
100
AcDbEntity
  8
0
100
AcDbCircle
 10
130.5869693414264
 20
271.6963750952624
 30
0.0
 40
1.5
100
AcDbArc
 50
0.0000000000032569
 51
90.0
1001
GENIUS_GENOBJ-N-FIL_13
1002
{
1000
OWNER
1000
GEN
1002
}
1001
GENIUS_GENODEF_13
1002
{
1000
HIER
1070
     0
1002
}
1002
{
1000
MANEDIT
1070
     0
1002
}
1002
{
1000
NOSEL
1070
     0
1002
}
1002
{
1000
BEHIND
1070
     0
1002
}
1002
{
1000
OTHER
1070
     0
1002
}
1002
{
1000
REACTOR
1002
}
  0
LINE
  5
8D5
330
1F
100
AcDbEntity
  8
AM_0N
100
AcDbLine
 10
153.6849693414261
 20
286.6538748871395
 30
0.0
 11
165.1849693414261
 21
286.6538748871395
 31
0.0
  0
ARC
  5
8D6
330
1F
100
AcDbEntity
  8
AM_0N
100
AcDbCircle
 10
159.4349693414261
 20
299.4897390860762
 30
0.0
 40
12.40285149704452
100
AcDbArc
 50
252.3830311596132
 51
287.6169688403867
  0
LINE
  5
8D7
330
1F
100
AcDbEntity
  8
0
100
AcDbLine
 10
151.0299693414261
 20
286.6533750952622
 30
0.0
 11
167.8469693414261
 21
286.6543750952622
 31
0.0
  0
LINE
  5
8D8
330
1F
100
AcDbEntity
  8
7
 48
0.256
100
AcDbLine
 10
159.4349693414261
 20
288.5563750952622
 30
0.0
 11
159.4349693414261
 21
277.3043750952622
 31
0.0
  0
ARC
  5
8D9
330
1F
100
AcDbEntity
  8
0
100
AcDbCircle
 10
151.0299693414261
 20
285.6553750952622
 30
0.0
 40
1.0
100
AcDbArc
 50
90.00299999999958
 51
174.9989999999991
  0
ARC
  5
8DA
330
1F
100
AcDbEntity
  8
0
100
AcDbCircle
 10
149.0219693414261
 20
285.6553750952622
 30
0.0
 40
1.0
100
AcDbArc
 50
269.9959999999996
 51
355.0000000000002
  0
LINE
  5
8DB
330
1F
100
AcDbEntity
  8
0
100
AcDbLine
 10
142.4848963859319
 20
278.1963750952624
 30
0.0
 11
142.1704497102337
 21
284.1963750952622
 31
0.0
  0
ARC
  5
8DC
330
1F
100
AcDbEntity
  8
AM_0N
100
AcDbCircle
 10
153.8043443414261
 20
290.405730611871
 30
0.0
 40
3.318843022839333
100
AcDbArc
 50
244.4384694047314
 51
304.438469404732
  0
LINE
  5
8DD
330
1F
100
AcDbEntity
  8
AM_0N
100
AcDbLine
 10
151.9274693414261
 20
287.6685679852402
 30
0.0
 11
153.6849693414261
 21
286.6538748871395
 31
0.0
  0
LINE
  5
8DE
330
1F
100
AcDbEntity
  8
0
100
AcDbLine
 10
150.0179693414262
 20
285.5673750952623
 30
0.0
 11
150.0339693414261
 21
285.7413750952622
 31
0.0
  0
ARC
  5
8DF
330
1F
100
AcDbEntity
  8
0
100
AcDbCircle
 10
169.8549693414261
 20
285.6553750952622
 30
0.0
 40
1.0
100
AcDbArc
 50
184.9999999999998
 51
270.0049999999998
  0
ARC
  5
8E0
330
1F
100
AcDbEntity
  8
0
100
AcDbCircle
 10
155.7401038529755
 20
284.4487275287727
 30
0.0
 40
10.7191378261982
100
AcDbArc
 50
324.3178106436647
 51
358.6510048148678
  0
LINE
  5
8E1
330
1F
100
AcDbEntity
  8
0
100
AcDbLine
 10
168.4656584994649
 20
278.1963750952624
 30
0.0
 11
168.7796742369227
 21
284.1881523037897
 31
0.0
  0
ARC
  5
8E2
330
1F
100
AcDbEntity
  8
AM_0N
100
AcDbCircle
 10
165.0655943414261
 20
290.405730611871
 30
0.0
 40
3.318843022839333
100
AcDbArc
 50
235.5615305952681
 51
295.5615305952702
  0
LINE
  5
8E3
330
1F
100
AcDbEntity
  8
AM_0N
100
AcDbLine
 10
166.9424693414261
 20
287.6685679852402
 30
0.0
 11
165.1849693414261
 21
286.6538748871395
 31
0.0
  0
ARC
  5
8E4
330
1F
100
AcDbEntity
  8
0
100
AcDbCircle
 10
167.8469693414261
 20
285.6553750952622
 30
0.0
 40
1.0
100
AcDbArc
 50
4.999999999999793
 51
90.00499999999979
  0
LINE
  5
8E5
330
1F
100
AcDbEntity
  8
0
100
AcDbLine
 10
168.8589693414261
 20
285.5683750952622
 30
0.0
 11
168.8439693414261
 21
285.7423750952623
 31
0.0
  0
LINE
  5
8E6
330
1F
100
AcDbEntity
  8
0
100
AcDbLine
 10
261.3411755425686
 20
278.1963750952623
 30
0.0
 11
190.3369693414263
 21
278.1963750952622
 31
0.0
  0
LINE
  5
8E7
330
1F
100
AcDbEntity
  8
0
100
AcDbLine
 10
190.3369693414262
 20
273.1963750952622
 30
0.0
 11
251.8369693414265
 21
273.196375095262
 31
0.0
  0
LINE
  5
8E8
330
1F
100
AcDbEntity
  8
0
100
AcDbLine
 10
248.5869693414262
 20
257.1902148058182
 30
0.0
 11
190.3369693414263
 21
257.1902148058183
 31
0.0
  0
LINE
  5
8E9
330
1F
100
AcDbEntity
  8
0
100
AcDbLine
 10
190.3369693414263
 20
284.1963750952624
 30
0.0
 11
214.2176678851935
 21
284.1963750952622
 31
0.0
  0
LINE
  5
8EA
330
1F
100
AcDbEntity
  8
7
 48
0.383
100
AcDbLine
 10
190.3369693414261
 20
291.1203750952622
 30
0.0
 11
190.3369693414261
 21
274.2833750952622
 31
0.0
  0
ARC
  5
8EB
330
1F
100
AcDbEntity
  8
0
100
AcDbCircle
 10
224.9338348298772
 20
284.4487275287727
 30
0.0
 40
10.7191378261982
100
AcDbArc
 50
181.3489951851322
 51
215.6821893563353
  0
LINE
  5
8EC
330
1F
100
AcDbEntity
  8
0
100
AcDbLine
 10
212.2082801833875
 20
278.1963750952622
 30
0.0
 11
211.8938335076893
 21
284.1963750952622
 31
0.0
  0
LINE
  5
8ED
330
1F
100
AcDbEntity
  8
0
100
AcDbLine
 10
258.3369693414262
 20
266.1963750952618
 30
0.0
 11
258.3369693414262
 21
259.5963750952617
 31
0.0
  0
ARC
  5
8EE
330
1F
100
AcDbEntity
  8
0
100
AcDbCircle
 10
258.1950201875217
 20
248.3724430082132
 30
0.0
 40
5.0
100
AcDbArc
 50
93.00000000000066
 51
179.4999999999987
1001
GENIUS_GENOBJ-N-FIL_13
1002
{
1000
OWNER
1000
GEN
1002
}
1001
GENIUS_GENODEF_13
1002
{
1000
HIER
1070
     0
1002
}
1002
{
1000
MANEDIT
1070
     0
1002
}
1002
{
1000
NOSEL
1070
     0
1002
}
1002
{
1000
BEHIND
1070
     0
1002
}
1002
{
1000
OTHER
1070
     0
1002
}
1002
{
1000
REACTOR
1002
}
  0
LINE
  5
8EF
330
1F
100
AcDbEntity
  8
0
100
AcDbLine
 10
256.3369693414262
 20
257.5963750952617
 30
0.0
 11
248.5869693414262
 21
257.1902148058182
 31
0.0
  0
LINE
  5
8F0
330
1F
100
AcDbEntity
  8
0
100
AcDbLine
 10
257.9964922886574
 20
253.3689003318973
 30
0.0
 11
257.9333404063069
 21
253.3655906819859
 31
0.0
  0
ARC
  5
8F1
330
1F
100
AcDbEntity
  8
0
100
AcDbCircle
 10
256.3369693414263
 20
259.5963750952619
 30
0.0
 40
2.0
100
AcDbArc
 50
270.0
 51
0.0
1001
GENIUS_GENOBJ-N-FIL_13
1002
{
1000
OWNER
1000
GEN
1002
}
1001
GENIUS_GENODEF_13
1002
{
1000
HIER
1070
     0
1002
}
1002
{
1000
MANEDIT
1070
     0
1002
}
1002
{
1000
NOSEL
1070
     0
1002
}
1002
{
1000
BEHIND
1070
     0
1002
}
1002
{
1000
OTHER
1070
     0
1002
}
1002
{
1000
REACTOR
1002
}
  0
LINE
  5
8F2
330
1F
100
AcDbEntity
  8
0
100
AcDbLine
 10
238.1890422969206
 20
278.1963750952623
 30
0.0
 11
238.5034889726189
 21
284.1963750952623
 31
0.0
  0
LINE
  5
8F4
330
1F
100
AcDbEntity
  8
0
100
AcDbLine
 10
261.3411755425686
 20
278.1963750952621
 30
0.0
 11
261.0791366461535
 21
273.196375095262
 31
0.0
  0
LINE
  5
8F5
330
1F
100
AcDbEntity
  8
0
100
AcDbLine
 10
251.8369693414265
 20
273.196375095262
 30
0.0
 11
261.0791366461535
 21
273.196375095262
 31
0.0
  0
LINE
  5
8F6
330
1F
100
AcDbEntity
  8
0
100
AcDbLine
 10
256.3369693414262
 20
268.1963750952618
 30
0.0
 11
250.0084654070619
 21
268.5280379326455
 31
0.0
  0
LINE
  5
8F7
330
1F
100
AcDbEntity
  8
0
100
AcDbLine
 10
248.5869693414263
 20
270.0259822347774
 30
0.0
 11
248.5869693414263
 21
271.6963750952621
 31
0.0
  0
LINE
  5
8F8
330
1F
100
AcDbEntity
  8
0
100
AcDbLine
 10
248.5869693414263
 20
270.1963750952618
 30
0.0
 11
248.5869693414263
 21
271.6963750952621
 31
0.0
  0
ARC
  5
8F9
330
1F
100
AcDbEntity
  8
0
100
AcDbCircle
 10
250.0869693414263
 20
270.0259822347775
 30
0.0
 40
1.5
100
AcDbArc
 50
180.0
 51
267.0000000000009
1001
GENIUS_GENOBJ-N-FIL_13
1002
{
1000
OWNER
1000
GEN
1002
}
1001
GENIUS_GENODEF_13
1002
{
1000
HIER
1070
     0
1002
}
1002
{
1000
MANEDIT
1070
     0
1002
}
1002
{
1000
NOSEL
1070
     0
1002
}
1002
{
1000
BEHIND
1070
     0
1002
}
1002
{
1000
OTHER
1070
     0
1002
}
1002
{
1000
REACTOR
1002
}
  0
ARC
  5
8FA
330
1F
100
AcDbEntity
  8
0
100
AcDbCircle
 10
250.0869693414263
 20
271.6963750952623
 30
0.0
 40
1.5
100
AcDbArc
 50
90.0
 51
179.9999999999967
1001
GENIUS_GENOBJ-N-FIL_13
1002
{
1000
OWNER
1000
GEN
1002
}
1001
GENIUS_GENODEF_13
1002
{
1000
HIER
1070
     0
1002
}
1002
{
1000
MANEDIT
1070
     0
1002
}
1002
{
1000
NOSEL
1070
     0
1002
}
1002
{
1000
BEHIND
1070
     0
1002
}
1002
{
1000
OTHER
1070
     0
1002
}
1002
{
1000
REACTOR
1002
}
  0
ARC
  5
8FB
330
1F
100
AcDbEntity
  8
0
100
AcDbCircle
 10
250.0869693414263
 20
271.6963750952621
 30
0.0
 40
1.5
100
AcDbArc
 50
90.0
 51
179.9999999999967
1001
GENIUS_GENOBJ-N-FIL_13
1002
{
1000
OWNER
1000
GEN
1002
}
1001
GENIUS_GENODEF_13
1002
{
1000
HIER
1070
     0
1002
}
1002
{
1000
MANEDIT
1070
     0
1002
}
1002
{
1000
NOSEL
1070
     0
1002
}
1002
{
1000
BEHIND
1070
     0
1002
}
1002
{
1000
OTHER
1070
     0
1002
}
1002
{
1000
REACTOR
1002
}
  0
ARC
  5
8FC
330
1F
100
AcDbEntity
  8
0
100
AcDbCircle
 10
256.3369693414263
 20
266.1963750952621
 30
0.0
 40
2.0
100
AcDbArc
 50
0.0
 51
90.0
1001
GENIUS_GENOBJ-N-FIL_13
1002
{
1000
OWNER
1000
GEN
1002
}
1001
GENIUS_GENODEF_13
1002
{
1000
HIER
1070
     0
1002
}
1002
{
1000
MANEDIT
1070
     0
1002
}
1002
{
1000
NOSEL
1070
     0
1002
}
1002
{
1000
BEHIND
1070
     0
1002
}
1002
{
1000
OTHER
1070
     0
1002
}
1002
{
1000
REACTOR
1002
}
  0
ARC
  5
8FD
330
1F
100
AcDbEntity
  8
0
100
AcDbCircle
 10
260.8259693414262
 20
285.6553750952622
 30
0.0
 40
1.0
100
AcDbArc
 50
269.9959999999996
 51
355.0000000000002
  0
LINE
  5
8FE
330
1F
100
AcDbEntity
  8
0
100
AcDbLine
 10
261.6556222182668
 20
284.1963750952621
 30
0.0
 11
261.3411755425686
 21
278.1963750952621
 31
0.0
  0
LINE
  5
8FF
330
1F
100
AcDbEntity
  8
0
100
AcDbLine
 10
261.8219693414261
 20
285.5673750952623
 30
0.0
 11
261.8369693414261
 21
285.7413750952622
 31
0.0
  0
ARC
  5
900
330
1F
100
AcDbEntity
  8
0
100
AcDbCircle
 10
262.8339693414261
 20
285.6553750952622
 30
0.0
 40
1.0
100
AcDbArc
 50
90.00299999999958
 51
174.9989999999991
  0
LINE
  5
901
330
1F
100
AcDbEntity
  8
0
100
AcDbLine
 10
154.6450804212364
 20
301.1169559030817
 30
0.0
 11
164.3113621188423
 21
301.1169559030817
 31
0.0
  0
ARC
  5
902
330
1F
100
AcDbEntity
  8
AM_3N
  6
AM_DIN_F_W050x2
100
AcDbCircle
 10
159.4307631402838
 20
298.4632084243443
 30
0.0
 40
3.464999999999999
100
AcDbArc
 50
250.5287793655092
 51
289.4712206344904
  0
LINE
  5
903
330
1F
100
AcDbEntity
  8
AM_0N
100
AcDbLine
 10
155.4307631402838
 20
299.4295625952624
 30
0.0
 11
163.4307631402838
 21
299.4295625952624
 31
0.0
  0
LINE
  5
904
330
1F
100
AcDbEntity
  8
AM_3N
  6
AM_DIN_F_W050x2
100
AcDbLine
 10
161.7407631402838
 20
295.1963750952624
 30
0.0
 11
159.4307631402838
 21
293.8626959734344
 31
0.0
  0
LINE
  5
905
330
1F
100
AcDbEntity
  8
AM_0N
100
AcDbLine
 10
162.6639506402838
 20
300.1963750952624
 30
0.0
 11
156.1975756402838
 21
300.1963750952624
 31
0.0
  0
LINE
  5
906
330
1F
100
AcDbEntity
  8
AM_0N
100
AcDbLine
 10
153.6849693414261
 20
293.1538748871395
 30
0.0
 11
165.1849693414261
 21
293.1538748871395
 31
0.0
  0
ARC
  5
907
330
1F
100
AcDbEntity
  8
AM_0N
100
AcDbCircle
 10
159.4349693414261
 20
280.3180106882028
 30
0.0
 40
12.4028514970445
100
AcDbArc
 50
72.38303115961318
 51
107.6169688403868
  0
LINE
  5
908
330
1F
100
AcDbEntity
  8
0
100
AcDbLine
 10
154.6450804212364
 20
294.0312707930801
 30
0.0
 11
154.6450804212364
 21
301.1169559030817
 31
0.0
  0
LINE
  5
909
330
1F
100
AcDbEntity
  8
AM_0N
100
AcDbLine
 10
155.4307631402838
 20
299.4295625952624
 30
0.0
 11
155.4307631402838
 21
293.1538748871395
 31
0.0
  0
LINE
  5
90A
330
1F
100
AcDbEntity
  8
AM_4N
100
AcDbLine
 10
156.1975756402838
 20
293.1538748871395
 30
0.0
 11
156.1975756402838
 21
300.1963750952624
 31
0.0
  0
LINE
  5
90B
330
1F
100
AcDbEntity
  8
AM_3N
  6
AM_DIN_F_W050x2
100
AcDbLine
 10
157.1207631402838
 20
300.1963750952624
 30
0.0
 11
157.1207631402838
 21
295.1963750952624
 31
0.0
  0
LINE
  5
90C
330
1F
100
AcDbEntity
  8
AM_3N
  6
AM_DIN_F_W050x2
100
AcDbLine
 10
158.2757631402838
 20
300.1963750952624
 30
0.0
 11
158.2757631402838
 21
295.1963750952624
 31
0.0
  0
ARC
  5
90D
330
1F
100
AcDbEntity
  8
AM_0N
100
AcDbCircle
 10
153.8043443414261
 20
289.4020191624079
 30
0.0
 40
3.318843022839333
100
AcDbArc
 50
55.56153059526803
 51
115.5615305952687
  0
LINE
  5
90E
330
1F
100
AcDbEntity
  8
0
100
AcDbLine
 10
151.204742999275
 20
294.0312707930801
 30
0.0
 11
154.6450804212364
 21
294.0312707930801
 31
0.0
  0
LINE
  5
90F
330
1F
100
AcDbEntity
  8
AM_0N
100
AcDbLine
 10
151.9274693414261
 20
292.1391817890387
 30
0.0
 11
153.6849693414261
 21
293.1538748871395
 31
0.0
  0
ARC
  5
910
330
1F
100
AcDbEntity
  8
AM_3N
  6
AM_DIN_F_W050x2
100
AcDbCircle
 10
157.6982631402838
 20
295.9387709259386
 30
0.0
 40
0.9405625015943439
100
AcDbArc
 50
247.8788794917199
 51
307.8788794917171
  0
LINE
  5
911
330
1F
100
AcDbEntity
  8
AM_3N
  6
AM_DIN_F_W050x2
100
AcDbLine
 10
157.1207631402838
 20
295.1963750952624
 30
0.0
 11
159.4307631402838
 21
293.8626959734344
 31
0.0
  0
LINE
  5
912
330
1F
100
AcDbEntity
  8
AM_0N
100
AcDbLine
 10
155.4307631402838
 20
299.4295625952624
 30
0.0
 11
156.1975756402838
 21
300.1963750952624
 31
0.0
  0
LINE
  5
913
330
1F
100
AcDbEntity
  8
0
100
AcDbLine
 10
164.3113621188423
 20
301.1169559030817
 30
0.0
 11
164.3113621188423
 21
294.0444447626997
 31
0.0
  0
LINE
  5
914
330
1F
100
AcDbEntity
  8
AM_0N
100
AcDbLine
 10
163.4307631402838
 20
293.1538748871395
 30
0.0
 11
163.4307631402838
 21
299.4295625952624
 31
0.0
  0
LINE
  5
915
330
1F
100
AcDbEntity
  8
AM_4N
100
AcDbLine
 10
162.6639506402838
 20
293.1538748871395
 30
0.0
 11
162.6639506402838
 21
300.1963750952624
 31
0.0
  0
LINE
  5
916
330
1F
100
AcDbEntity
  8
AM_3N
  6
AM_DIN_F_W050x2
100
AcDbLine
 10
161.7407631402838
 20
300.1963750952624
 30
0.0
 11
161.7407631402838
 21
295.1963750952624
 31
0.0
  0
LINE
  5
917
330
1F
100
AcDbEntity
  8
AM_3N
  6
AM_DIN_F_W050x2
100
AcDbLine
 10
160.5857631402838
 20
300.1963750952624
 30
0.0
 11
160.5857631402838
 21
295.1963750952624
 31
0.0
  0
LINE
  5
918
330
1F
100
AcDbEntity
  8
0
100
AcDbLine
 10
164.3113621188423
 20
294.0444447626997
 30
0.0
 11
167.6861701872804
 21
294.0444447626997
 31
0.0
  0
ARC
  5
919
330
1F
100
AcDbEntity
  8
AM_0N
100
AcDbCircle
 10
165.0655943414261
 20
289.4020191624079
 30
0.0
 40
3.318843022839363
100
AcDbArc
 50
64.43846940473168
 51
124.4384694047317
  0
LINE
  5
91A
330
1F
100
AcDbEntity
  8
AM_0N
100
AcDbLine
 10
166.9424693414261
 20
292.1391817890387
 30
0.0
 11
165.1849693414261
 21
293.1538748871395
 31
0.0
  0
ARC
  5
91B
330
1F
100
AcDbEntity
  8
AM_3N
  6
AM_DIN_F_W050x2
100
AcDbCircle
 10
161.1632631402838
 20
295.9387709259386
 30
0.0
 40
0.9405625015943439
100
AcDbArc
 50
232.1211205082829
 51
292.1211205082801
  0
LINE
  5
91C
330
1F
100
AcDbEntity
  8
AM_0N
100
AcDbLine
 10
162.6639506402838
 20
300.1963750952624
 30
0.0
 11
163.4307631402838
 21
299.4295625952624
 31
0.0
  0
LINE
  5
962
330
1F
100
AcDbEntity
  8
0
100
AcDbLine
 10
279.4936701872805
 20
294.0449449708225
 30
0.0
 11
279.4936701872805
 21
287.6813860492936
 31
0.0
  0
LINE
  5
963
330
1F
100
AcDbEntity
  8
0
100
AcDbLine
 10
263.012242999275
 20
287.6468656657131
 30
0.0
 11
263.012242999275
 21
294.0317710012029
 31
0.0
  0
LINE
  5
964
330
1F
100
AcDbEntity
  8
AM_9N
100
AcDbLine
 10
275.2382631402839
 20
286.6543750952622
 30
0.0
 11
275.2382631402839
 21
293.1543750952622
 31
0.0
  0
LINE
  5
965
330
1F
100
AcDbEntity
  8
AM_9N
100
AcDbLine
 10
274.4714506402839
 20
286.6543750952622
 30
0.0
 11
274.4714506402839
 21
293.1543750952622
 31
0.0
  0
LINE
  5
966
330
1F
100
AcDbEntity
  8
AM_0N
100
AcDbLine
 10
278.7499693414261
 20
287.669068193363
 30
0.0
 11
278.7499693414261
 21
292.1396819971614
 31
0.0
  0
LINE
  5
967
330
1F
100
AcDbEntity
  8
AM_0N
100
AcDbLine
 10
274.9962193414261
 20
287.669068193363
 30
0.0
 11
274.9962193414261
 21
292.1396819971614
 31
0.0
  0
LINE
  5
968
330
1F
100
AcDbEntity
  8
AM_9N
100
AcDbLine
 10
267.2382631402839
 20
293.1543750952622
 30
0.0
 11
267.2382631402839
 21
286.6543750952622
 31
0.0
  0
LINE
  5
969
330
1F
100
AcDbEntity
  8
AM_9N
100
AcDbLine
 10
268.0050756402839
 20
286.6543750952622
 30
0.0
 11
268.0050756402839
 21
293.1543750952622
 31
0.0
  0
LINE
  5
96A
330
1F
100
AcDbEntity
  8
AM_0N
100
AcDbLine
 10
267.4887193414262
 20
287.669068193363
 30
0.0
 11
267.4887193414262
 21
292.1396819971614
 31
0.0
  0
LINE
  5
96B
330
1F
100
AcDbEntity
  8
AM_0N
100
AcDbLine
 10
263.7349693414261
 20
287.669068193363
 30
0.0
 11
263.7349693414261
 21
292.1396819971614
 31
0.0
  0
LINE
  5
97E
330
1F
100
AcDbEntity
  8
0
100
AcDbLine
 10
312.8369693414261
 20
279.0623750952623
 30
0.0
 11
303.6859693414262
 21
278.3423750952622
 31
0.0
  0
HATCH
  5
97F
330
1F
100
AcDbEntity
  8
8
100
AcDbHatch
 10
0.0
 20
0.0
 30
0.0
210
0.0
220
0.0
230
1.0
  2
_U
 70
     0
 71
     0
 91
        1
 92
        1
 93
       17
 72
     1
 10
282.8364189516589
 20
279.0243317877967
 11
277.1179693414262
 21
278.5743750952622
 72
     1
 10
277.1179693414262
 20
278.5743750952622
 11
272.4799693414261
 21
278.6211697312775
 72
     1
 10
272.4799693414261
 20
278.6211697312775
 11
272.4799693414261
 21
284.6553750952622
 72
     1
 10
272.4799693414261
 20
284.6553750952622
 11
328.3619693414262
 21
284.6553750952622
 72
     1
 10
328.3619693414262
 20
284.6553750952622
 11
328.3620568900643
 21
284.6553750952622
 72
     1
 10
328.3620568900643
 20
284.6553750952622
 11
328.3619693414262
 21
284.6543750952622
 72
     1
 10
328.3619693414262
 20
284.6543750952622
 11
328.0577946996099
 21
281.1800247420712
 72
     2
 10
325.0692261728233
 20
281.4416698465564
 40
2.999999999999948
 50
5.003410171564149
 51
85.39179042611376
 73
     0
 72
     1
 10
325.3102514110158
 20
278.4513677155747
 11
321.9729693414262
 21
278.1823750952623
 72
     1
 10
321.9729693414262
 20
278.1823750952623
 11
312.8369693414261
 21
279.0623750952623
 72
     1
 10
312.8369693414261
 20
279.0623750952623
 11
303.6860677064873
 21
278.3423828346179
 72
     1
 10
303.6860677064873
 20
278.3423828346179
 11
303.4539693414262
 21
278.3443750952622
 72
     1
 10
303.4539693414262
 20
278.3443750952622
 11
303.4528715276304
 21
278.3443845185566
 72
     1
 10
303.4528715276304
 20
278.3443845185566
 11
297.7439693414261
 21
278.8943750952622
 72
     1
 10
297.7439693414261
 20
278.8943750952622
 11
292.0249693414267
 21
278.4443750952623
 72
     1
 10
292.0249693414267
 20
278.4443750952623
 11
288.5459693414262
 21
278.4743750952622
 72
     1
 10
288.5459693414262
 20
278.4743750952622
 11
282.8364189516589
 21
279.0243317877967
 97
        0
 75
     0
 76
     0
 52
45.0
 41
2.5
 77
     0
 78
     1
 53
135.0
 43
408.5239693414261
 44
-86.37562490473777
 45
1.767766952966368
 46
1.767766952966368
 79
     0
 98
        1
 10
408.5239693414261
 20
-86.37562490473777
1001
GENIUS_GENODEF_13
1002
{
1000
HIER
1070
     0
1002
}
1002
{
1000
MANEDIT
1070
     0
1002
}
1002
{
1000
NOSEL
1070
     0
1002
}
1002
{
1000
BEHIND
1070
     0
1002
}
1002
{
1000
REACTOR
1002
}
1001
GENIUS_GENOBJ-N-HTC_13
1002
{
1000
OWNER
1000
GEN
1002
}
1001
GENIUS_GENHATCH_13
1002
{
1000
DATA
1040
45.0
1042
2.5
1000
_U
1070
     0
1011
279.9440544842191
1021
281.2326109009923
1031
0.0
1002
}
1002
{
1000
UCS
1010
0.0
1020
0.0
1030
0.0
1010
1.0
1020
0.0
1030
0.0
1010
0.0
1020
1.0
1030
0.0
1002
}
  0
LINE
  5
980
330
1F
100
AcDbEntity
  8
0
100
AcDbLine
 10
314.9885215811516
 20
274.1963750952621
 30
0.0
 11
271.4698852021997
 21
274.1963750952616
 31
0.0
  0
ARC
  5
981
330
1F
100
AcDbEntity
  8
0
100
AcDbCircle
 10
275.7601370353843
 20
265.1963750952623
 30
0.0
 40
5.0
100
AcDbArc
 50
270.0
 51
357.0000000000009
1001
GENIUS_GENODEF_13
1002
{
1000
HIER
1070
     0
1002
}
1002
{
1000
MANEDIT
1070
     0
1002
}
1002
{
1000
NOSEL
1070
     0
1002
}
1002
{
1000
BEHIND
1070
     0
1002
}
1002
{
1000
OTHER
1070
     0
1002
}
1002
{
1000
REACTOR
1002
}
1001
GENIUS_GENOBJ-N-FIL_13
1002
{
1000
OWNER
1000
GEN
1002
}
  0
LINE
  5
982
330
1F
100
AcDbEntity
  8
0
100
AcDbLine
 10
275.7601370353842
 20
260.1963750952621
 30
0.0
 11
266.7172005224582
 21
260.1963750952621
 31
0.0
  0
LINE
  5
983
330
1F
100
AcDbEntity
  8
0
100
AcDbLine
 10
288.5459693414262
 20
278.4743750952622
 30
0.0
 11
282.8359693414262
 21
279.0243750952622
 31
0.0
  0
ARC
  5
984
330
1F
100
AcDbEntity
  8
0
100
AcDbCircle
 10
285.9834916124955
 20
269.1963750952623
 30
0.0
 40
5.0
100
AcDbArc
 50
90.0
 51
177.0000000000009
1001
GENIUS_GENOBJ-N-FIL_13
1002
{
1000
OWNER
1000
GEN
1002
}
1001
GENIUS_GENODEF_13
1002
{
1000
HIER
1070
     0
1002
}
1002
{
1000
MANEDIT
1070
     0
1002
}
1002
{
1000
NOSEL
1070
     0
1002
}
1002
{
1000
BEHIND
1070
     0
1002
}
1002
{
1000
OTHER
1070
     0
1002
}
1002
{
1000
REACTOR
1002
}
  0
ARC
  5
985
330
1F
100
AcDbEntity
  8
0
100
AcDbCircle
 10
269.5314322197941
 20
282.1963750952625
 30
0.0
 40
4.0
100
AcDbArc
 50
184.9999999999998
 51
270.0
  0
LINE
  5
986
330
1F
100
AcDbEntity
  8
0
100
AcDbLine
 10
280.7532847091569
 20
264.9346953140473
 30
0.0
 11
280.9903439387228
 21
269.4580548764768
 31
0.0
  0
LINE
  5
987
330
1F
100
AcDbEntity
  8
AM_0N
100
AcDbLine
 10
265.4924693414262
 20
286.6543750952622
 30
0.0
 11
276.9924693414262
 21
286.6543750952622
 31
0.0
  0
ARC
  5
988
330
1F
100
AcDbEntity
  8
AM_0N
100
AcDbCircle
 10
271.2424693414261
 20
299.4902392941989
 30
0.0
 40
12.40285149704452
100
AcDbArc
 50
252.3830311596132
 51
287.6169688403867
  0
LINE
  5
989
330
1F
100
AcDbEntity
  8
0
100
AcDbLine
 10
277.1179693414262
 20
278.5743750952622
 30
0.0
 11
269.2879693414262
 21
278.6533750952622
 31
0.0
  0
LINE
  5
98A
330
1F
100
AcDbEntity
  8
0
100
AcDbLine
 10
267.7099693414262
 20
280.1023750952623
 30
0.0
 11
267.3119693414262
 21
284.6553750952622
 31
0.0
  0
HATCH
  5
98B
330
1F
100
AcDbEntity
  8
8
100
AcDbHatch
 10
0.0
 20
0.0
 30
0.0
210
0.0
220
0.0
230
1.0
  2
_U
 70
     0
 71
     0
 91
        1
 92
        1
 93
        8
 72
     1
 10
267.710194268555
 20
280.1013750346431
 11
267.7099693414261
 21
280.1023750952623
 72
     1
 10
267.7099693414262
 20
280.1023750952623
 11
267.3120567563175
 21
284.6543750952622
 72
     1
 10
267.3120567563174
 20
284.6543750952622
 11
272.4799693414261
 21
284.6543750952622
 72
     1
 10
272.4799693414261
 20
284.6543750952622
 11
272.4799693414261
 21
278.6223750952623
 72
     1
 10
272.4799693414261
 20
278.6223750952623
 11
269.3039693414262
 21
278.6553750952622
 72
     1
 10
269.3039693414261
 20
278.6553750952622
 11
268.845115730737
 21
278.7095824269743
 72
     2
 10
269.3039693414261
 20
280.2423750952623
 40
1.599999999999994
 50
106.6654868888185
 51
159.7044193461186
 73
     0
 72
     1
 10
267.8033042346879
 20
279.687393800606
 11
267.710194268555
 21
280.1013750346431
 97
        0
 75
     0
 76
     0
 52
45.0
 41
2.5
 77
     0
 78
     1
 53
135.0
 43
408.5239693414261
 44
-86.37562490473777
 45
1.767766952966368
 46
1.767766952966368
 79
     0
 98
        1
 10
408.5239693414261
 20
-86.37562490473777
1001
GENIUS_GENODEF_13
1002
{
1000
HIER
1070
     0
1002
}
1002
{
1000
MANEDIT
1070
     0
1002
}
1002
{
1000
NOSEL
1070
     0
1002
}
1002
{
1000
BEHIND
1070
     0
1002
}
1002
{
1000
REACTOR
1002
}
1001
GENIUS_GENOBJ-N-HTC_13
1002
{
1000
OWNER
1000
GEN
1002
}
1001
GENIUS_GENHATCH_13
1002
{
1000
DATA
1040
45.0
1042
2.5
1000
_U
1070
     0
1011
268.753395213758
1021
281.733448066735
1031
0.0
1002
}
1002
{
1000
UCS
1010
0.0
1020
0.0
1030
0.0
1010
1.0
1020
0.0
1030
0.0
1010
0.0
1020
1.0
1030
0.0
1002
}
  0
ARC
  5
98C
330
1F
100
AcDbEntity
  8
0
100
AcDbCircle
 10
269.3039693414261
 20
280.2423750952623
 30
0.0
 40
1.6
100
AcDbArc
 50
184.9999999999998
 51
269.4979999999999
  0
LINE
  5
98D
330
1F
100
AcDbEntity
  8
0
100
AcDbLine
 10
265.3411755425686
 20
284.1963750952621
 30
0.0
 11
265.5466534274268
 21
281.8477521242714
 31
0.0
  0
ARC
  5
98E
330
1F
100
AcDbEntity
  8
AM_0N
100
AcDbCircle
 10
265.6118443414261
 20
290.4062308199938
 30
0.0
 40
3.318843022839333
100
AcDbArc
 50
244.4384694047314
 51
304.438469404732
  0
LINE
  5
98F
330
1F
100
AcDbEntity
  8
AM_0N
100
AcDbLine
 10
263.7349693414261
 20
287.669068193363
 30
0.0
 11
265.4924693414262
 21
286.6543750952622
 31
0.0
  0
LINE
  5
990
330
1F
100
AcDbEntity
  8
AM_7N
  6
AM_DIN_G_W050x2
100
AcDbLine
 10
271.6062230658633
 20
285.4743200189449
 30
0.0
 11
271.6062230658633
 21
287.7233200189449
 31
0.0
  0
LINE
  5
991
330
1F
100
AcDbEntity
  8
7
 48
0.256
100
AcDbLine
 10
271.6027230658633
 20
286.3753200189449
 30
0.0
 11
271.6027230658633
 21
285.4743200189449
 31
0.0
  0
ARC
  5
992
330
1F
100
AcDbEntity
  8
0
100
AcDbCircle
 10
281.6589693414261
 20
285.6553750952622
 30
0.0
 40
1.0
100
AcDbArc
 50
184.9999999999998
 51
270.0049999999998
  0
LINE
  5
993
330
1F
100
AcDbEntity
  8
0
100
AcDbLine
 10
282.8369693414261
 20
279.0243750952622
 30
0.0
 11
277.1179693414262
 21
278.5743750952622
 31
0.0
  0
LINE
  5
994
330
1F
100
AcDbEntity
  8
AM_0N
100
AcDbLine
 10
278.7499693414261
 20
287.669068193363
 30
0.0
 11
276.9924693414262
 21
286.6543750952622
 31
0.0
  0
ARC
  5
995
330
1F
100
AcDbEntity
  8
AM_0N
100
AcDbCircle
 10
276.8730943414261
 20
290.4062308199938
 30
0.0
 40
3.318843022839333
100
AcDbArc
 50
235.5615305952681
 51
295.5615305952702
  0
LINE
  5
996
330
1F
100
AcDbEntity
  8
0
100
AcDbLine
 10
280.6619693414262
 20
285.5683750952622
 30
0.0
 11
280.6469693414261
 21
285.7423750952623
 31
0.0
  0
ARC
  5
997
330
1F
100
AcDbEntity
  8
0
100
AcDbCircle
 10
279.6509693414261
 20
285.6553750952622
 30
0.0
 40
1.0
100
AcDbArc
 50
4.999999999999793
 51
90.00499999999979
  0
LINE
  5
998
330
1F
100
AcDbEntity
  8
0
100
AcDbLine
 10
297.7439693414262
 20
278.8943750952622
 30
0.0
 11
292.0249693414261
 21
278.4443750952622
 31
0.0
  0
LINE
  5
999
330
1F
100
AcDbEntity
  8
0
100
AcDbLine
 10
292.0249693414261
 20
278.4443750952622
 30
0.0
 11
288.5459693414262
 21
278.4743750952622
 31
0.0
  0
LINE
  5
99A
330
1F
100
AcDbEntity
  8
0
100
AcDbLine
 10
303.4529693414261
 20
278.3443750952622
 30
0.0
 11
297.7439693414262
 21
278.8943750952622
 31
0.0
  0
LINE
  5
99B
330
1F
100
AcDbEntity
  8
0
100
AcDbLine
 10
303.6869693414262
 20
278.3423750952622
 30
0.0
 11
303.4539693414262
 21
278.3443750952622
 31
0.0
  0
LINE
  5
99C
330
1F
100
AcDbEntity
  8
0
100
AcDbLine
 10
321.9729693414262
 20
278.1823750952623
 30
0.0
 11
325.3102514110158
 21
278.4513677155747
 31
0.0
  0
LINE
  5
99D
330
1F
100
AcDbEntity
  8
0
100
AcDbLine
 10
335.3369693414265
 20
273.196375095262
 30
0.0
 11
315.1648485618602
 21
273.196375095262
 31
0.0
  0
LINE
  5
99E
330
1F
100
AcDbEntity
  8
0
100
AcDbLine
 10
315.1648485618602
 20
273.196375095262
 30
0.0
 11
314.9885215811516
 21
274.1963750952621
 31
0.0
  0
LINE
  5
99F
330
1F
100
AcDbEntity
  8
0
100
AcDbLine
 10
321.9729693414262
 20
278.1823750952623
 30
0.0
 11
312.8369693414261
 21
279.0623750952623
 31
0.0
  0
ARC
  5
9A0
330
1F
100
AcDbEntity
  8
0
100
AcDbCircle
 10
332.3575853599411
 20
275.6963750952623
 30
0.0
 40
2.5
100
AcDbArc
 50
9.999999999998614
 51
90.0
  0
LINE
  5
9A1
102
{ACAD_REACTORS
330
1038
102
}
330
1F
100
AcDbEntity
  8
0
100
AcDbLine
 10
334.8196047424714
 20
276.1304955394294
 30
0.0
 11
335.3369693414265
 21
273.196375095262
 31
0.0
  0
LINE
  5
9A2
330
1F
100
AcDbEntity
  8
0
100
AcDbLine
 10
328.0577946996098
 20
281.1800247420712
 30
0.0
 11
328.3619693414262
 21
284.6543750952622
 31
0.0
  0
LINE
  5
9A3
330
1F
100
AcDbEntity
  8
4
100
AcDbLine
 10
327.9569693414261
 20
280.0283750952622
 30
0.0
 11
327.9649693414262
 21
280.1153750952622
 31
0.0
  0
LINE
  5
9A4
330
1F
100
AcDbEntity
  8
4
100
AcDbLine
 10
327.8369693414262
 20
278.6543750952622
 30
0.0
 11
327.9549693414261
 21
280.0013750952622
 31
0.0
  0
ARC
  5
9A5
330
1F
100
AcDbEntity
  8
0
100
AcDbCircle
 10
325.0692261728233
 20
281.4416698465564
 30
0.0
 40
3.0
100
AcDbArc
 50
274.6082095738872
 51
354.9965898284371
1001
GENIUS_GENODEF_13
1002
{
1000
HIER
1070
     0
1002
}
1002
{
1000
MANEDIT
1070
     0
1002
}
1002
{
1000
NOSEL
1070
     0
1002
}
1002
{
1000
BEHIND
1070
     0
1002
}
1002
{
1000
REACTOR
1002
}
1001
GENIUS_GENOBJ-N-FIL_13
1002
{
1000
OWNER
1000
GEN
1002
}
  0
LINE
  5
9A7
330
1F
100
AcDbEntity
  8
0
100
AcDbLine
 10
266.4525804212364
 20
301.1174561112044
 30
0.0
 11
276.1188621188424
 21
301.1174561112044
 31
0.0
  0
ARC
  5
9A8
330
1F
100
AcDbEntity
  8
AM_3N
  6
AM_DIN_F_W050x2
100
AcDbCircle
 10
272.9707631402839
 20
295.9392711340613
 30
0.0
 40
0.9405625015943439
100
AcDbArc
 50
232.1211205082829
 51
292.1211205082801
  0
LINE
  5
9A9
330
1F
100
AcDbEntity
  8
AM_0N
100
AcDbLine
 10
267.2382631402839
 20
299.4300628033851
 30
0.0
 11
275.2382631402839
 21
299.4300628033851
 31
0.0
  0
LINE
  5
9AA
330
1F
100
AcDbEntity
  8
AM_3N
  6
AM_DIN_F_W050x2
100
AcDbLine
 10
273.5482631402839
 20
295.1968753033851
 30
0.0
 11
271.2382631402839
 21
293.8631961815571
 31
0.0
  0
LINE
  5
9AB
330
1F
100
AcDbEntity
  8
AM_0N
100
AcDbLine
 10
274.4714506402839
 20
300.1968753033851
 30
0.0
 11
268.0050756402839
 21
300.1968753033851
 31
0.0
  0
LINE
  5
9AC
330
1F
100
AcDbEntity
  8
AM_0N
100
AcDbLine
 10
265.4924693414262
 20
293.1543750952622
 30
0.0
 11
276.9924693414262
 21
293.1543750952622
 31
0.0
  0
ARC
  5
9AD
330
1F
100
AcDbEntity
  8
AM_0N
100
AcDbCircle
 10
271.2424693414261
 20
280.3185108963255
 30
0.0
 40
12.4028514970445
100
AcDbArc
 50
72.38303115961318
 51
107.6169688403868
  0
LINE
  5
9AE
330
1F
100
AcDbEntity
  8
0
100
AcDbLine
 10
266.4525804212364
 20
294.0317710012029
 30
0.0
 11
266.4525804212364
 21
301.1174561112044
 31
0.0
  0
LINE
  5
9AF
330
1F
100
AcDbEntity
  8
AM_0N
100
AcDbLine
 10
267.2382631402839
 20
299.4300628033851
 30
0.0
 11
267.2382631402839
 21
293.1543750952622
 31
0.0
  0
LINE
  5
9B0
330
1F
100
AcDbEntity
  8
AM_4N
100
AcDbLine
 10
268.0050756402839
 20
293.1543750952622
 30
0.0
 11
268.0050756402839
 21
300.1968753033851
 31
0.0
  0
LINE
  5
9B1
330
1F
100
AcDbEntity
  8
AM_3N
  6
AM_DIN_F_W050x2
100
AcDbLine
 10
268.9282631402839
 20
300.1968753033851
 30
0.0
 11
268.9282631402839
 21
295.1968753033851
 31
0.0
  0
LINE
  5
9B2
330
1F
100
AcDbEntity
  8
AM_3N
  6
AM_DIN_F_W050x2
100
AcDbLine
 10
270.0832631402839
 20
300.1968753033851
 30
0.0
 11
270.0832631402839
 21
295.1968753033851
 31
0.0
  0
LINE
  5
9B3
330
1F
100
AcDbEntity
  8
AM_3N
  6
AM_DIN_F_W050x2
100
AcDbLine
 10
272.3932631402838
 20
300.1968753033851
 30
0.0
 11
272.3932631402838
 21
295.1968753033851
 31
0.0
  0
LINE
  5
9B4
330
1F
100
AcDbEntity
  8
0
100
AcDbLine
 10
263.012242999275
 20
294.0317710012029
 30
0.0
 11
266.4525804212364
 21
294.0317710012029
 31
0.0
  0
ARC
  5
9B5
330
1F
100
AcDbEntity
  8
AM_0N
100
AcDbCircle
 10
265.6118443414261
 20
289.4025193705306
 30
0.0
 40
3.318843022839333
100
AcDbArc
 50
55.56153059526803
 51
115.5615305952687
  0
LINE
  5
9B6
330
1F
100
AcDbEntity
  8
AM_0N
100
AcDbLine
 10
263.7349693414261
 20
292.1396819971614
 30
0.0
 11
265.4924693414262
 21
293.1543750952622
 31
0.0
  0
ARC
  5
9B7
330
1F
100
AcDbEntity
  8
AM_3N
  6
AM_DIN_F_W050x2
100
AcDbCircle
 10
271.2382631402839
 20
298.463708632467
 30
0.0
 40
3.464999999999999
100
AcDbArc
 50
250.5287793655092
 51
289.4712206344904
  0
ARC
  5
9B8
330
1F
100
AcDbEntity
  8
AM_3N
  6
AM_DIN_F_W050x2
100
AcDbCircle
 10
269.5057631402839
 20
295.9392711340613
 30
0.0
 40
0.9405625015943439
100
AcDbArc
 50
247.8788794917199
 51
307.8788794917171
  0
LINE
  5
9B9
330
1F
100
AcDbEntity
  8
AM_3N
  6
AM_DIN_F_W050x2
100
AcDbLine
 10
268.9282631402839
 20
295.1968753033851
 30
0.0
 11
271.2382631402839
 21
293.8631961815571
 31
0.0
  0
LINE
  5
9BA
330
1F
100
AcDbEntity
  8
AM_0N
100
AcDbLine
 10
267.2382631402839
 20
299.4300628033851
 30
0.0
 11
268.0050756402839
 21
300.1968753033851
 31
0.0
  0
LINE
  5
9BB
330
1F
100
AcDbEntity
  8
0
100
AcDbLine
 10
276.1188621188424
 20
301.1174561112044
 30
0.0
 11
276.1188621188424
 21
294.0449449708225
 31
0.0
  0
LINE
  5
9BC
330
1F
100
AcDbEntity
  8
AM_0N
100
AcDbLine
 10
275.2382631402839
 20
293.1543750952622
 30
0.0
 11
275.2382631402839
 21
299.4300628033851
 31
0.0
  0
LINE
  5
9BD
330
1F
100
AcDbEntity
  8
AM_4N
100
AcDbLine
 10
274.4714506402839
 20
293.1543750952622
 30
0.0
 11
274.4714506402839
 21
300.1968753033851
 31
0.0
  0
LINE
  5
9BE
330
1F
100
AcDbEntity
  8
AM_3N
  6
AM_DIN_F_W050x2
100
AcDbLine
 10
273.5482631402839
 20
300.1968753033851
 30
0.0
 11
273.5482631402839
 21
295.1968753033851
 31
0.0
  0
LINE
  5
9BF
330
1F
100
AcDbEntity
  8
0
100
AcDbLine
 10
276.1188621188424
 20
294.0449449708225
 30
0.0
 11
279.4936701872805
 21
294.0449449708225
 31
0.0
  0
LINE
  5
9C0
330
1F
100
AcDbEntity
  8
AM_0N
100
AcDbLine
 10
278.7499693414261
 20
292.1396819971614
 30
0.0
 11
276.9924693414262
 21
293.1543750952622
 31
0.0
  0
ARC
  5
9C1
330
1F
100
AcDbEntity
  8
AM_0N
100
AcDbCircle
 10
276.8730943414261
 20
289.4025193705306
 30
0.0
 40
3.318843022839363
100
AcDbArc
 50
64.43846940473168
 51
124.4384694047317
  0
LINE
  5
9C2
330
1F
100
AcDbEntity
  8
AM_0N
100
AcDbLine
 10
274.4714506402839
 20
300.1968753033851
 30
0.0
 11
275.2382631402839
 21
299.4300628033851
 31
0.0
  0
LINE
  5
9D5
330
1F
100
AcDbEntity
  8
0
100
AcDbLine
 10
237.8369693414263
 20
168.6918136504579
 30
0.0
 11
142.8369693414263
 21
168.691813650458
 31
0.0
  0
LINE
  5
9E1
330
1F
100
AcDbEntity
  8
0
100
AcDbLine
 10
142.8369693414263
 20
170.9366039576231
 30
0.0
 11
142.8369693414263
 21
168.691813650458
 31
0.0
1001
GENIUS_GENODEF_13
1002
{
1000
HIER
1070
     0
1002
}
1002
{
1000
MANEDIT
1070
     0
1002
}
1002
{
1000
NOSEL
1070
     0
1002
}
1002
{
1000
BEHIND
1070
     0
1002
}
1002
{
1000
OTHER
1070
     0
1002
}
1002
{
1000
REACTOR
1002
}
1001
GENIUS_GENOBJ-N-CEN_13
1002
{
1000
OWNER
1000
GEN
1002
}
  0
LINE
  5
9E2
330
1F
100
AcDbEntity
  8
0
100
AcDbLine
 10
142.8370295153609
 20
170.9367189017293
 30
0.0
 11
142.8369693585001
 21
168.6930872333399
 31
0.0
1001
GENIUS_GENODEF_13
1002
{
1000
HIER
1070
     0
1002
}
1002
{
1000
MANEDIT
1070
     0
1002
}
1002
{
1000
NOSEL
1070
     0
1002
}
1002
{
1000
BEHIND
1070
     0
1002
}
1002
{
1000
OTHER
1070
     0
1002
}
1002
{
1000
REACTOR
1002
}
1001
GENIUS_GENOBJ-N-CEN_13
1002
{
1000
OWNER
1000
GEN
1002
}
  0
LINE
  5
A17
330
1F
100
AcDbEntity
  8
0
100
AcDbLine
 10
237.8369693414263
 20
170.9354453196538
 30
0.0
 11
237.8369693414263
 21
168.691813650458
 31
0.0
1001
GENIUS_GENODEF_13
1002
{
1000
HIER
1070
     0
1002
}
1002
{
1000
MANEDIT
1070
     0
1002
}
1002
{
1000
NOSEL
1070
     0
1002
}
1002
{
1000
BEHIND
1070
     0
1002
}
1002
{
1000
OTHER
1070
     0
1002
}
1002
{
1000
REACTOR
1002
}
1001
GENIUS_GENOBJ-N-CEN_13
1002
{
1000
OWNER
1000
GEN
1002
}
  0
POINT
  5
A26
330
1F
100
AcDbEntity
  8
0
 60
     1
100
AcDbPoint
 10
-0.0000006096354355
 20
0.000000329575073
 30
0.0
1001
GENIUS_GENOENT_13
1002
{
1000
MYREF
1005
A26
1002
}
1002
{
1000
GRP
1005
0
1002
}
1001
GENIUS_GENOLIS_13
1002
{
1000
ENT
1005
85D
1002
}
1001
GENIUS_GENOBJ-NBEHI-BHF_13
1002
{
1000
OWNER
1000
genbehi
1002
}
1001
GENIUS_GENODEF_13
1002
{
1000
HIER
1070
     1
1002
}
1002
{
1000
MANEDIT
1070
     0
1002
}
1002
{
1000
NOSEL
1070
     1
1002
}
1002
{
1000
BEHIND
1070
     0
1002
}
1002
{
1000
OTHER
1070
     0
1002
}
1002
{
1000
REACTOR
1002
}
1001
GENIUS_GENBH_13
1002
{
1000
OIUMAP
1000
OIU
1002
}
1002
{
1000
FLAGS
1070
    32
1002
}
1002
{
1000
BGO
1005
A29
1002
}
  0
POINT
  5
A27
330
1F
100
AcDbEntity
  8
0
 60
     1
100
AcDbPoint
 10
-0.0000006096354355
 20
0.000000329575073
 30
0.0
1001
GENIUS_GENOENT_13
1002
{
1000
MYREF
1005
A27
1002
}
1002
{
1000
GRP
1005
0
1002
}
1001
GENIUS_GENOBJ-NBEHI-BHF_13
1002
{
1000
OWNER
1000
genbehi
1002
}
1001
GENIUS_GENODEF_13
1002
{
1000
HIER
1070
     1
1002
}
1002
{
1000
MANEDIT
1070
     0
1002
}
1002
{
1000
NOSEL
1070
     1
1002
}
1002
{
1000
BEHIND
1070
     0
1002
}
1002
{
1000
OTHER
1070
     0
1002
}
1002
{
1000
REACTOR
1002
}
1001
GENIUS_GENOLIS_13
1002
{
1000
ENT
1005
85C
1002
}
1001
GENIUS_GENBH_13
1002
{
1000
OIUMAP
1000
OIU
1002
}
1002
{
1000
FLAGS
1070
    32
1002
}
1002
{
1000
BGO
1005
A28
1002
}
  0
POINT
  5
A28
330
1F
100
AcDbEntity
  8
0
 60
     1
100
AcDbPoint
 10
-0.0000006096354355
 20
0.000000329575073
 30
0.0
1001
GENIUS_GENOBJ-NBEHI-BHB_13
1002
{
1000
OWNER
1000
genbehi
1002
}
1001
GENIUS_GENOLIS_13
1002
{
1000
ENT
1005
893
1005
894
1005
852
1005
883
1005
873
1005
88D
1005
887
1005
88A
1005
85D
1002
}
1001
GENIUS_GENOENT_13
1002
{
1000
MYREF
1005
A28
1002
}
1002
{
1000
GRP
1005
0
1002
}
1001
GENIUS_GENODEF_13
1002
{
1000
HIER
1070
     1
1002
}
1002
{
1000
MANEDIT
1070
     0
1002
}
1002
{
1000
NOSEL
1070
     1
1002
}
1002
{
1000
BEHIND
1070
     0
1002
}
1002
{
1000
OTHER
1070
     1
1002
}
1002
{
1000
REACTOR
1002
}
1001
GENIUS_GENBH_13
1002
{
1000
FGO
1005
A27
1002
}
  0
POINT
  5
A29
330
1F
100
AcDbEntity
  8
0
 60
     1
100
AcDbPoint
 10
-0.0000006096354355
 20
0.000000329575073
 30
0.0
1001
GENIUS_GENOENT_13
1002
{
1000
MYREF
1005
A29
1002
}
1002
{
1000
GRP
1005
0
1002
}
1001
GENIUS_GENOLIS_13
1002
{
1000
ENT
1005
893
1005
852
1005
890
1005
853
1005
854
1005
889
1005
882
1005
894
1005
883
1005
87F
1005
879
1005
869
1005
87D
1005
881
1005
885
1005
884
1005
88F
1005
88E
1005
873
1005
892
1005
891
1005
864
1005
888
1005
88A
1005
87B
1005
880
1005
87E
1005
87A
1005
82B
1005
863
1005
877
1005
878
1005
874
1005
876
1005
875
1002
}
1001
GENIUS_GENOBJ-NBEHI-BHB_13
1002
{
1000
OWNER
1000
genbehi
1002
}
1001
GENIUS_GENBH_13
1002
{
1000
FGO
1005
A26
1002
}
1001
GENIUS_GENODEF_13
1002
{
1000
HIER
1070
     1
1002
}
1002
{
1000
MANEDIT
1070
     1
1002
}
1002
{
1000
NOSEL
1070
     1
1002
}
1002
{
1000
BEHIND
1070
     1
1002
}
1002
{
1000
OTHER
1070
     1
1002
}
1002
{
1000
REACTOR
1002
}
  0
ARC
  5
BB5
330
1F
100
AcDbEntity
  8
0
100
AcDbCircle
 10
235.0007586977122
 20
159.2372846481633
 30
0.0
 40
5.0
100
AcDbArc
 50
92.9999999999991
 51
179.5000000000019
  0
LINE
  5
BE0
102
{ACAD_REACTORS
330
E62
102
}
330
1F
100
AcDbEntity
  8
0
100
AcDbLine
 10
230.0009490823914
 20
159.2809173256552
 30
0.0
 11
229.3369693414261
 21
83.19637509526225
 31
0.0
1001
GENIUS_GENOBJ-N-CEN_13
1002
{
1000
OWNER
1000
GEN
1002
}
1001
GENIUS_GENODEF_13
1002
{
1000
HIER
1070
     0
1002
}
1002
{
1000
MANEDIT
1070
     0
1002
}
1002
{
1000
NOSEL
1070
     0
1002
}
1002
{
1000
BEHIND
1070
     0
1002
}
1002
{
1000
OTHER
1070
     0
1002
}
1002
{
1000
REACTOR
1002
}
  0
LINE
  5
BE1
330
1F
100
AcDbEntity
  8
0
100
AcDbLine
 10
225.3369693414259
 20
159.691813650458
 30
0.0
 11
225.3369693414261
 21
83.19637509526225
 31
0.0
1001
GENIUS_GENOBJ-N-CEN_13
1002
{
1000
OWNER
1000
GEN
1002
}
1001
GENIUS_GENODEF_13
1002
{
1000
HIER
1070
     0
1002
}
1002
{
1000
MANEDIT
1070
     0
1002
}
1002
{
1000
NOSEL
1070
     0
1002
}
1002
{
1000
BEHIND
1070
     0
1002
}
1002
{
1000
OTHER
1070
     0
1002
}
1002
{
1000
REACTOR
1002
}
  0
ARC
  5
BE3
330
1F
100
AcDbEntity
  8
0
100
AcDbCircle
 10
234.3369693414261
 20
159.6918136504578
 30
0.0
 40
9.0
100
AcDbArc
 50
90.0
 51
180.0
1001
GENIUS_GENOBJ-N-CEN_13
1002
{
1000
OWNER
1000
GEN
1002
}
1001
GENIUS_GENODEF_13
1002
{
1000
HIER
1070
     0
1002
}
1002
{
1000
MANEDIT
1070
     0
1002
}
1002
{
1000
NOSEL
1070
     0
1002
}
1002
{
1000
BEHIND
1070
     0
1002
}
1002
{
1000
OTHER
1070
     0
1002
}
1002
{
1000
REACTOR
1002
}
1001
GENIUS_GENOBJ-N-FIL_13
1002
{
1000
OWNER
1000
GEN
1002
}
  0
ARC
  5
BE4
330
1F
100
AcDbEntity
  8
0
100
AcDbCircle
 10
145.67317998514
 20
159.2372846481633
 30
0.0
 40
5.0
100
AcDbArc
 50
0.4999999999980886
 51
86.99999999999441
  0
LINE
  5
BE5
330
1F
100
AcDbEntity
  8
0
100
AcDbLine
 10
150.6729896004608
 20
159.2809173256552
 30
0.0
 11
151.3369693414261
 21
83.19637509526229
 31
0.0
1001
GENIUS_GENOBJ-N-CEN_13
1002
{
1000
OWNER
1000
GEN
1002
}
1001
GENIUS_GENODEF_13
1002
{
1000
HIER
1070
     0
1002
}
1002
{
1000
MANEDIT
1070
     0
1002
}
1002
{
1000
NOSEL
1070
     0
1002
}
1002
{
1000
BEHIND
1070
     0
1002
}
1002
{
1000
OTHER
1070
     0
1002
}
1002
{
1000
REACTOR
1002
}
  0
LINE
  5
BE6
330
1F
100
AcDbEntity
  8
0
100
AcDbLine
 10
155.3369693414263
 20
159.6918136504581
 30
0.0
 11
155.3369693414261
 21
83.19637509526229
 31
0.0
1001
GENIUS_GENOBJ-N-CEN_13
1002
{
1000
OWNER
1000
GEN
1002
}
1001
GENIUS_GENODEF_13
1002
{
1000
HIER
1070
     0
1002
}
1002
{
1000
MANEDIT
1070
     0
1002
}
1002
{
1000
NOSEL
1070
     0
1002
}
1002
{
1000
BEHIND
1070
     0
1002
}
1002
{
1000
OTHER
1070
     0
1002
}
1002
{
1000
REACTOR
1002
}
  0
ARC
  5
BE7
330
1F
100
AcDbEntity
  8
0
100
AcDbCircle
 10
146.3369693414261
 20
159.6918136504578
 30
0.0
 40
9.0
100
AcDbArc
 50
0.0
 51
90.0
1001
GENIUS_GENOBJ-N-CEN_13
1002
{
1000
OWNER
1000
GEN
1002
}
1001
GENIUS_GENODEF_13
1002
{
1000
HIER
1070
     0
1002
}
1002
{
1000
MANEDIT
1070
     0
1002
}
1002
{
1000
NOSEL
1070
     0
1002
}
1002
{
1000
BEHIND
1070
     0
1002
}
1002
{
1000
OTHER
1070
     0
1002
}
1002
{
1000
REACTOR
1002
}
1001
GENIUS_GENOBJ-N-FIL_13
1002
{
1000
OWNER
1000
GEN
1002
}
  0
DIMENSION
  5
E54
102
{ACAD_XDICTIONARY
360
E61
102
}
102
{ACAD_REACTORS
330
E62
102
}
330
1F
100
AcDbEntity
  8
AM_5
100
AcDbDimension
  2
*D9
 10
151.336969341426
 20
49.90642570541069
 30
0.0
 11
190.336969341426
 21
56.4064257054107
 31
0.0
 70
    32
  1
%%c<>
 71
     5
 42
78.00000000000003
  3
AM_ISO$0
100
AcDbAlignedDimension
 13
229.3369693414261
 23
83.19637509526222
 33
0.0
 14
151.336969341426
 24
83.19637509526238
 34
0.0
 50
0.0000000000001132
100
AcDbRotatedDimension
1001
ACAD
1000
DSTYLE
1002
{
1070
    41
1040
7.0
1070
    47
1040
1.0
1070
    48
1040
1.0
1070
   140
1040
10.0
1002
}
  0
HATCH
  5
EB5
330
1F
100
AcDbEntity
  8
AM_8
100
AcDbHatch
 10
0.0
 20
0.0
 30
0.0
210
0.0
220
0.0
230
1.0
  2
_U
 70
     0
 71
     0
 91
        1
 92
        1
 93
       34
 72
     1
 10
132.0869693414263
 20
178.7185340982531
 11
132.0869693414262
 21
257.1902148058183
 72
     1
 10
132.0869693414262
 20
257.1902148058183
 11
124.3369693414262
 21
257.596375095262
 72
     2
 10
124.3369693414264
 20
259.596375095262
 40
2.0
 50
90.00000000000651
 51
180.0
 73
     0
 72
     1
 10
122.3369693414264
 20
259.596375095262
 11
122.3369693414263
 21
273.1963750952624
 72
     1
 10
122.3369693414263
 20
273.1963750952624
 11
119.5948020366991
 21
273.1963750952624
 72
     1
 10
119.5948020366991
 20
273.1963750952624
 11
119.332763140284
 21
278.1963750952624
 72
     1
 10
119.332763140284
 20
278.1963750952624
 11
94.33276314028388
 21
278.1963750952624
 72
     1
 10
94.33276314028388
 20
278.1963750952624
 11
94.33276314028388
 21
266.4463750952624
 72
     1
 10
94.33276314028388
 20
266.4463750952624
 11
93.53276314028391
 21
265.6463750952624
 72
     1
 10
93.53276314028391
 20
265.6463750952624
 11
93.53276314028391
 21
265.1963750952624
 72
     1
 10
93.53276314028391
 20
265.1963750952624
 11
90.33276314028389
 21
263.5249390107293
 72
     1
 10
90.33276314028389
 20
263.5249390107293
 11
90.33276314028388
 21
260.1963750952624
 72
     1
 10
90.33276314028388
 20
260.1963750952624
 11
94.85423139674697
 21
260.1963750952624
 72
     2
 10
94.85423139674695
 20
265.1963750952624
 40
5.0
 50
270.0000000000002
 51
357.000000000001
 73
     1
 72
     1
 10
99.84737907051984
 20
264.9346953140478
 11
100.0844383000856
 21
269.4580548764772
 72
     2
 10
105.0775859738584
 20
269.1963750952624
 40
4.999999999999971
 50
183.0000000000004
 51
269.9999999999995
 73
     0
 72
     1
 10
105.0775859738584
 20
274.1963750952624
 11
109.2040534806528
 21
274.1963750952619
 72
     2
 10
109.2040534806529
 20
266.1963750952621
 40
7.999999999999886
 50
269.9999999999999
 51
354.9999999999993
 73
     0
 72
     1
 10
117.1736110653867
 20
266.8936210372434
 11
117.9581526849509
 21
257.926269291932
 72
     2
 10
122.9391261754097
 20
258.3620480056707
 40
5.000000000000065
 50
185.0000000000036
 51
267.0000000000002
 73
     1
 72
     1
 10
122.677446394195
 20
253.3689003318977
 11
122.7405982765455
 21
253.3655906819862
 72
     2
 10
122.4789184953309
 20
248.3724430082133
 40
5.000000000000031
 50
272.9999999999979
 51
359.4999999999986
 73
     0
 72
     1
 10
127.4787281106518
 20
248.4160756857053
 11
128.1315222640895
 21
173.6132748309726
 72
     2
 10
137.1311795716671
 20
173.6918136504581
 40
9.000000000000051
 50
180.5000000000006
 51
270.0000000000003
 73
     1
 72
     1
 10
137.1311795716672
 20
164.6918136504581
 11
145.9348597663547
 21
164.2304323219364
 72
     2
 10
145.6731799851399
 20
159.2372846481634
 40
5.000000000000103
 50
273.0000000000013
 51
359.5000000000033
 73
     0
 72
     1
 10
150.6729896004608
 20
159.280917325655
 11
151.3369693414261
 21
83.19637509526229
 72
     1
 10
151.3369693414261
 20
83.19637509526229
 11
155.3369693414261
 21
83.19637509526229
 72
     1
 10
155.3369693414261
 20
83.19637509526229
 11
155.3369693414263
 21
159.6918136504581
 72
     2
 10
146.3369693414262
 20
159.6918136504577
 40
9.000000000000113
 50
0.0000000000021713
 51
90.00000000000072
 73
     1
 72
     1
 10
146.3369693414261
 20
168.6918136504578
 11
142.8369693414263
 21
168.691813650458
 72
     1
 10
142.8369693414263
 20
168.691813650458
 11
142.8369693414262
 21
173.1963750952623
 72
     1
 10
142.8369693414262
 20
173.1963750952623
 11
136.6511906276881
 21
173.7375606077942
 72
     2
 10
137.0869693414263
 20
178.718534098253
 40
5.000000000000046
 50
94.99999999999907
 51
180.0000000000006
 73
     0
 97
        0
 75
     0
 76
     0
 52
45.0
 41
2.5
 77
     0
 78
     1
 53
45.0
 43
0.0
 44
0.0
 45
-1.767766952966368
 46
1.767766952966368
 79
     0
 98
        1
 10
0.0
 20
0.0
1001
GENIUS_GENOBJ-N-HTC_13
1002
{
1000
OWNER
1000
GEN
1002
}
1001
GENIUS_GENODEF_13
1002
{
1000
HIER
1070
     0
1002
}
1002
{
1000
MANEDIT
1070
     0
1002
}
1002
{
1000
NOSEL
1070
     0
1002
}
1002
{
1000
BEHIND
1070
     0
1002
}
1002
{
1000
OTHER
1070
     0
1002
}
1002
{
1000
REACTOR
1002
}
1001
GENIUS_GENHATCH_13
1002
{
1000
DATA
1040
45.0
1042
2.5
1000
_U
1070
     0
1011
153.1594622674267
1021
126.9371977431947
1031
0.0
1002
}
1002
{
1000
UCS
1010
0.0
1020
0.0
1030
0.0
1010
1.0
1020
0.0
1030
0.0
1010
0.0
1020
1.0
1030
0.0
1002
}
  0
HATCH
  5
FB8
330
1F
100
AcDbEntity
  8
AM_8
100
AcDbHatch
 10
0.0
 20
0.0
 30
0.0
210
0.0
220
0.0
230
1.0
  2
_U
 70
     0
 71
     0
 91
        1
 92
        1
 93
       37
 72
     1
 10
315.1648485618602
 20
273.196375095262
 11
314.9885215811516
 21
274.1963750952621
 72
     1
 10
314.9885215811516
 20
274.1963750952621
 11
271.4698852021995
 21
274.1963750952621
 72
     2
 10
271.4698852021996
 20
266.1963750952622
 40
7.999999999999886
 50
90.00000000000122
 51
175.0000000000025
 73
     1
 72
     1
 10
263.5003276174658
 20
266.8936210372431
 11
262.7157859979016
 21
257.9262692919321
 72
     2
 10
257.7348125074428
 20
258.3620480056703
 40
5.000000000000097
 50
4.999999999998365
 51
87.00000000000166
 73
     0
 72
     1
 10
257.9964922886574
 20
253.3689003318973
 11
257.933340406307
 21
253.365590681986
 72
     2
 10
258.1950201875217
 20
248.3724430082131
 40
5.000000000000014
 50
93.00000000000038
 51
179.5000000000003
 73
     1
 72
     1
 10
253.1952105722008
 20
248.416075685705
 11
252.5424164187628
 21
173.6132748309725
 72
     2
 10
243.5427591111853
 20
173.691813650458
 40
9.000000000000051
 50
0.5000000000009358
 51
89.99999999999964
 73
     0
 72
     1
 10
243.5427591111853
 20
164.6918136504579
 11
234.7390789164975
 21
164.2304323219361
 72
     2
 10
235.0007586977122
 20
159.2372846481633
 40
4.999999999999951
 50
92.99999999999911
 51
179.4999999999999
 73
     1
 72
     1
 10
230.0009490823914
 20
159.2809173256552
 11
229.336969341426
 21
83.19637509526222
 72
     1
 10
229.336969341426
 20
83.19637509526222
 11
225.3369693414261
 21
83.19637509526225
 72
     1
 10
225.3369693414261
 20
83.19637509526225
 11
225.3369693414259
 21
159.691813650458
 72
     2
 10
234.336969341426
 20
159.6918136504577
 40
9.000000000000113
 50
180.0000000000023
 51
270.0000000000007
 73
     0
 72
     1
 10
234.3369693414261
 20
168.6918136504578
 11
237.8369693414263
 21
168.691813650458
 72
     1
 10
237.8369693414263
 20
168.691813650458
 11
237.8369693414262
 21
173.1963750952619
 72
     1
 10
237.8369693414262
 20
173.1963750952619
 11
244.0227480551643
 21
173.7375606077943
 72
     2
 10
243.586969341426
 20
178.7185340982531
 40
5.000000000000024
 50
275.0000000000001
 51
359.9999999999964
 73
     1
 72
     1
 10
248.586969341426
 20
178.7185340982528
 11
248.5869693414262
 21
257.1902148058182
 72
     1
 10
248.5869693414262
 20
257.1902148058182
 11
256.3369693414263
 21
257.5963750952619
 72
     2
 10
256.3369693414262
 20
259.5963750952619
 40
2.0
 50
270.0000000000017
 51
359.9999999999935
 73
     1
 72
     1
 10
258.3369693414262
 20
259.5963750952617
 11
258.3369693414263
 21
266.1963750952621
 72
     2
 10
256.3369693414263
 20
266.1963750952619
 40
1.999999999999943
 50
0.0000000000048853
 51
90.00000000000325
 73
     1
 72
     1
 10
256.3369693414262
 20
268.1963750952618
 11
250.0084654070619
 21
268.5280379326457
 72
     2
 10
250.0869693414264
 20
270.0259822347776
 40
1.500000000000141
 50
93.00000000000313
 51
179.9999999999913
 73
     0
 72
     1
 10
248.5869693414263
 20
270.0259822347774
 11
248.5869693414263
 21
271.6963750952624
 72
     2
 10
250.0869693414263
 20
271.696375095262
 40
1.500000000000056
 50
180.0000000000151
 51
269.9999999999978
 73
     0
 72
     1
 10
250.0869693414263
 20
273.196375095262
 11
261.0791366461535
 21
273.196375095262
 72
     1
 10
261.0791366461535
 20
273.196375095262
 11
261.3411755425686
 21
278.1963750952621
 72
     1
 10
261.3411755425686
 20
278.1963750952621
 11
321.827623886883
 21
278.1963750952621
 72
     1
 10
321.827623886883
 20
278.1963750952621
 11
321.9729693414262
 21
278.1823750952623
 72
     1
 10
321.9729693414262
 20
278.1823750952623
 11
322.1466616491158
 21
278.1963750952621
 72
     1
 10
322.1466616491158
 20
278.1963750952621
 11
332.3575853599411
 21
278.1963750952623
 72
     2
 10
332.3575853599409
 20
275.6963750952623
 40
2.499999999999943
 50
270.0000000000039
 51
350.0000000000065
 73
     0
 72
     1
 10
334.8196047424714
 20
276.1304955394294
 11
335.3369693414265
 21
273.196375095262
 72
     1
 10
335.3369693414265
 20
273.196375095262
 11
315.1648485618602
 21
273.196375095262
 97
        0
 75
     0
 76
     0
 52
45.0
 41
2.5
 77
     0
 78
     1
 53
45.0
 43
0.0
 44
0.0
 45
-1.767766952966368
 46
1.767766952966368
 79
     0
 98
        1
 10
0.0
 20
0.0
1001
GENIUS_GENOBJ-N-HTC_13
1002
{
1000
OWNER
1000
GEN
1002
}
1001
GENIUS_GENODEF_13
1002
{
1000
HIER
1070
     0
1002
}
1002
{
1000
MANEDIT
1070
     0
1002
}
1002
{
1000
NOSEL
1070
     0
1002
}
1002
{
1000
BEHIND
1070
     0
1002
}
1002
{
1000
OTHER
1070
     0
1002
}
1002
{
1000
REACTOR
1002
}
1001
GENIUS_GENHATCH_13
1002
{
1000
DATA
1040
45.0
1042
2.5
1000
_U
1070
     0
1011
226.770938665403
1021
113.6271371551943
1031
0.0
1002
}
1002
{
1000
UCS
1010
0.0
1020
0.0
1030
0.0
1010
1.0
1020
0.0
1030
0.0
1010
0.0
1020
1.0
1030
0.0
1002
}
  0
DIMENSION
  5
102A
102
{ACAD_XDICTIONARY
360
1037
102
}
102
{ACAD_REACTORS
330
1038
102
}
330
1F
100
AcDbEntity
  8
AM_5
100
AcDbDimension
  2
*D10
 10
45.3369693414262
 20
347.6935450854401
 30
0.0
 11
190.3369693414263
 21
354.1945293374086
 31
0.0
 70
    32
  1
%%c<>
 71
     5
 42
290.0000000000003
  3
AM_ISO$0
100
AcDbAlignedDimension
 13
335.3369693414265
 23
273.196375095262
 33
0.0
 14
45.3369693414262
 24
273.1963750952624
 34
0.0
 50
0.0000000000000114
100
AcDbRotatedDimension
1001
ACAD
1000
DSTYLE
1002
{
1070
   140
1040
10.0
1070
    41
1040
7.0
1070
    47
1040
1.0
1070
    48
1040
1.0
1002
}
  0
ENDSEC
  0
SECTION
  2
OBJECTS
  0
DICTIONARY
  5
C
330
0
100
AcDbDictionary
281
     1
  3
ACAD_COLOR
350
BE
  3
ACAD_GROUP
350
D
  3
ACAD_LAYOUT
350
1A
  3
ACAD_MATERIAL
350
BD
  3
ACAD_MLINESTYLE
350
17
  3
ACAD_PLOTSETTINGS
350
19
  3
ACAD_PLOTSTYLENAME
350
E
  3
ACAD_TABLESTYLE
350
11A
  3
ACDBHEADERROUNDTRIPXREC
350
10C0
  3
AcDbVariableDictionary
350
94
  3
AcmDictionary
350
5B
  3
AEC_CLASSIFICATION_SYSTEM_DEFS
350
817
  3
AEC_PROPERTY_SET_DEFS
350
818
  3
AMG
350
41
  3
AMGSNAPSETTINGS
350
26B
  3
DWGPROPS
350
10BF
  0
DICTIONARY
  5
5EC
330
2
100
AcDbDictionary
280
     1
281
     1
  3
ACAD_LAYERSTATES
360
5ED
  3
AMLAYER_GROUPCOLORS
360
EAF
  0
DICTIONARY
  5
8F
330
1F
100
AcDbDictionary
280
     1
281
     1
  3
ACAD_SORTENTS
360
EB6
  0
DICTIONARY
  5
E61
330
E54
100
AcDbDictionary
280
     1
281
     1
  3
ACAD_DIMASSOC
360
E62
  0
DICTIONARY
  5
1037
330
102A
100
AcDbDictionary
280
     1
281
     1
  3
ACAD_DIMASSOC
360
1038
  0
DICTIONARY
  5
BE
102
{ACAD_REACTORS
330
C
102
}
330
C
100
AcDbDictionary
281
     1
  0
DICTIONARY
  5
D
102
{ACAD_REACTORS
330
C
102
}
330
C
100
AcDbDictionary
281
     1
  0
DICTIONARY
  5
1A
102
{ACAD_REACTORS
330
C
102
}
330
C
100
AcDbDictionary
281
     1
  3
Layout1
350
1E
  3
Layout2
350
26
  3
Model
350
22
  0
DICTIONARY
  5
BD
102
{ACAD_REACTORS
330
C
102
}
330
C
100
AcDbDictionary
281
     1
  0
DICTIONARY
  5
17
102
{ACAD_REACTORS
330
C
102
}
330
C
100
AcDbDictionary
281
     1
  3
Standard
350
18
  0
DICTIONARY
  5
19
102
{ACAD_REACTORS
330
C
102
}
330
C
100
AcDbDictionary
281
     1
  0
ACDBDICTIONARYWDFLT
  5
E
102
{ACAD_REACTORS
330
C
102
}
330
C
100
AcDbDictionary
281
     1
  3
Normal
350
F
100
AcDbDictionaryWithDefault
340
F
  0
DICTIONARY
  5
11A
102
{ACAD_REACTORS
330
C
102
}
330
C
100
AcDbDictionary
281
     1
  3
Standard
350
11B
  0
DICTIONARY
  5
10C0
102
{ACAD_REACTORS
330
C
102
}
330
C
100
AcDbDictionary
281
     1
  0
DICTIONARY
  5
94
102
{ACAD_REACTORS
330
C
102
}
330
C
100
AcDbDictionary
281
     1
  3
CTABLESTYLE
350
138
  3
DIMASSOC
350
96
  3
INDEXCTL
350
95
  3
PROJECTNAME
350
10BD
  0
DICTIONARY
  5
5B
102
{ACAD_REACTORS
330
C
102
}
330
C
100
AcDbDictionary
281
     1
  3
AcmBOM
350
272
  3
AcmStdDictionary
350
61
  3
AMDTSECTSYM_ARROWCOLOR
350
123
  0
DICTIONARY
  5
817
102
{ACAD_REACTORS
330
C
102
}
330
C
100
AcDbDictionary
281
     1
  0
DICTIONARY
  5
818
102
{ACAD_REACTORS
330
C
102
}
330
C
100
AcDbDictionary
281
     1
  0
DICTIONARY
  5
41
102
{ACAD_REACTORS
330
C
102
}
330
C
100
AcDbDictionary
281
     1
  0
DICTIONARY
  5
26B
102
{ACAD_REACTORS
330
C
102
}
330
C
100
AcDbDictionary
281
     1
  0
XRECORD
  5
10BF
102
{ACAD_REACTORS
330
C
102
}
330
C
100
AcDbXrecord
280
     1
  1
DWGPROPS COOKIE
  2

  3

  4

  6

  7

  8

  9

300
AmdtFileType=84
301
=
302
=
303
=
304
=
305
=
306
=
307
=
308
=
309
=
 40
0.3146251504629629
 41
2453878.360939479
 42
2454020.001422072
  1

 90
        1
  0
DICTIONARY
  5
5ED
102
{ACAD_REACTORS
330
5EC
102
}
330
5EC
100
AcDbDictionary
281
     1
  0
DICTIONARY
  5
EAF
102
{ACAD_REACTORS
330
5EC
102
}
330
5EC
100
AcDbDictionary
280
     1
281
     1
  0
SORTENTSTABLE
  5
EB6
102
{ACAD_REACTORS
330
8F
102
}
330
8F
100
AcDbSortentsTable
330
1F
331
899
  5
899
331
823
  5
823
331
862
  5
862
331
8D8
  5
8D8
331
98D
  5
98D
331
917
  5
917
331
8E0
  5
8E0
331
86A
  5
86A
331
8A1
  5
8A1
331
995
  5
995
331
8E8
  5
8E8
331
872
  5
872
331
833
  5
833
331
8F0
  5
8F0
331
966
  5
966
331
87A
  5
87A
331
83B
  5
83B
331
8B1
  5
8B1
331
99D
  5
99D
331
9A5
  5
9A5
331
BE3
  5
BE3
331
8F8
  5
8F8
331
882
  5
882
331
900
  5
900
331
88A
  5
88A
331
8C1
  5
8C1
331
84B
  5
84B
331
9AD
  5
9AD
331
908
  5
908
331
97E
  5
97E
331
9B5
  5
9B5
331
892
  5
892
331
853
  5
853
331
8C9
  5
8C9
331
986
  5
986
331
9BD
  5
9BD
331
85B
  5
85B
331
8D1
  5
8D1
331
910
  5
910
331
8D9
  5
8D9
331
863
  5
863
331
824
  5
824
331
89A
  5
89A
331
98E
  5
98E
331
8E1
  5
8E1
331
8A2
  5
8A2
331
82C
  5
82C
331
86B
  5
86B
331
918
  5
918
331
9D5
  5
9D5
331
8E9
  5
8E9
331
873
  5
873
331
8AA
  5
8AA
331
996
  5
996
331
8F1
  5
8F1
331
967
  5
967
331
87B
  5
87B
331
83C
  5
83C
331
8B2
  5
8B2
331
99E
  5
99E
331
BE4
  5
BE4
331
8F9
  5
8F9
331
883
  5
883
331
844
  5
844
331
8BA
  5
8BA
331
901
  5
901
331
9AE
  5
9AE
331
88B
  5
88B
331
E54
  5
E54
331
84C
  5
84C
331
8C2
  5
8C2
331
909
  5
909
331
97F
  5
97F
331
893
  5
893
331
8CA
  5
8CA
331
854
  5
854
331
9B6
  5
9B6
331
987
  5
987
331
8D2
  5
8D2
331
85C
  5
85C
331
9BE
  5
9BE
331
911
  5
911
331
89B
  5
89B
331
864
  5
864
331
8DA
  5
8DA
331
98F
  5
98F
331
919
  5
919
331
8E2
  5
8E2
331
86C
  5
86C
331
82D
  5
82D
331
8A3
  5
8A3
331
997
  5
997
331
8EA
  5
8EA
331
874
  5
874
331
BB5
  5
BB5
331
835
  5
835
331
8AB
  5
8AB
331
8F2
  5
8F2
331
968
  5
968
331
87C
  5
87C
331
8B3
  5
8B3
331
99F
  5
99F
331
9A7
  5
9A7
331
BE5
  5
BE5
331
8FA
  5
8FA
331
884
  5
884
331
8BB
  5
8BB
331
902
  5
902
331
88C
  5
88C
331
84D
  5
84D
331
8C3
  5
8C3
331
9AF
  5
9AF
331
90A
  5
90A
331
980
  5
980
331
9B7
  5
9B7
331
894
  5
894
331
855
  5
855
331
8CB
  5
8CB
331
85D
  5
85D
331
8D3
  5
8D3
331
9BF
  5
9BF
331
988
  5
988
331
912
  5
912
331
8DB
  5
8DB
331
89C
  5
89C
331
826
  5
826
331
865
  5
865
331
8E3
  5
8E3
331
8A4
  5
8A4
331
82E
  5
82E
331
86D
  5
86D
331
91A
  5
91A
331
990
  5
990
331
8EB
  5
8EB
331
875
  5
875
331
8AC
  5
8AC
331
998
  5
998
331
969
  5
969
331
87D
  5
87D
331
8B4
  5
8B4
331
9A0
  5
9A0
331
A17
  5
A17
331
BE6
  5
BE6
331
8FB
  5
8FB
331
9A8
  5
9A8
331
EB5
  5
EB3
331
885
  5
885
331
8BC
  5
8BC
331
903
  5
903
331
88D
  5
88D
331
9B0
  5
9B0
331
981
  5
981
331
90B
  5
90B
331
8CC
  5
8CC
331
856
  5
856
331
9B8
  5
9B8
331
8D4
  5
8D4
331
9C0
  5
9C0
331
913
  5
913
331
89D
  5
89D
331
827
  5
827
331
866
  5
866
331
8DC
  5
8DC
331
989
  5
989
331
991
  5
991
331
91B
  5
91B
331
8E4
  5
8E4
331
86E
  5
86E
331
82F
  5
82F
331
8A5
  5
8A5
331
962
  5
962
331
999
  5
999
331
8EC
  5
8EC
331
876
  5
876
331
8AD
  5
8AD
331
8F4
  5
8F4
331
96A
  5
96A
331
87E
  5
87E
331
83F
  5
83F
331
8B5
  5
8B5
331
9A1
  5
9A1
331
BE7
  5
BE7
331
8FC
  5
8FC
331
886
  5
886
331
8BD
  5
8BD
331
9A9
  5
9A9
331
904
  5
904
331
88E
  5
88E
331
84F
  5
84F
331
8C5
  5
8C5
331
9B1
  5
9B1
331
90C
  5
90C
331
982
  5
982
331
9B9
  5
9B9
331
857
  5
857
331
8CD
  5
8CD
331
85F
  5
85F
331
8D5
  5
8D5
331
9C1
  5
9C1
331
820
  5
820
331
98A
  5
98A
331
914
  5
914
331
8DD
  5
8DD
331
89E
  5
89E
331
828
  5
828
331
867
  5
867
331
9E1
  5
9E1
331
91C
  5
91C
331
8A6
  5
8A6
331
830
  5
830
331
86F
  5
86F
331
8E5
  5
8E5
331
992
  5
992
331
963
  5
963
331
8ED
  5
8ED
331
877
  5
877
331
838
  5
838
331
8AE
  5
8AE
331
99A
  5
99A
331
8F5
  5
8F5
331
96B
  5
96B
331
87F
  5
87F
331
8B6
  5
8B6
331
9A2
  5
9A2
331
BE0
  5
BE0
331
8FD
  5
8FD
331
9AA
  5
9AA
331
887
  5
887
331
848
  5
848
331
8BE
  5
8BE
331
905
  5
905
331
88F
  5
88F
331
850
  5
850
331
8C6
  5
8C6
331
9B2
  5
9B2
331
983
  5
983
331
90D
  5
90D
331
8CE
  5
8CE
331
9BA
  5
9BA
331
8D6
  5
8D6
331
9C2
  5
9C2
331
821
  5
821
331
860
  5
860
331
98B
  5
98B
331
915
  5
915
331
89F
  5
89F
331
868
  5
868
331
829
  5
829
331
8DE
  5
8DE
331
993
  5
993
331
8E6
  5
8E6
331
870
  5
870
331
831
  5
831
331
8A7
  5
8A7
331
9E2
  5
9E2
331
964
  5
964
331
99B
  5
99B
331
8EE
  5
8EE
331
878
  5
878
331
839
  5
839
331
8AF
  5
8AF
331
8F6
  5
8F6
331
8B7
  5
8B7
331
9A3
  5
9A3
331
BE1
  5
BE1
331
880
  5
880
331
841
  5
841
331
8FE
  5
8FE
331
888
  5
888
331
8BF
  5
8BF
331
FB8
  5
FB7
331
849
  5
849
331
9AB
  5
9AB
331
906
  5
906
331
890
  5
890
331
8C7
  5
8C7
331
9B3
  5
9B3
331
90E
  5
90E
331
984
  5
984
331
9BB
  5
9BB
331
8CF
  5
8CF
331
8D7
  5
8D7
331
861
  5
861
331
98C
  5
98C
331
916
  5
916
331
8DF
  5
8DF
331
8A0
  5
8A0
331
82A
  5
82A
331
869
  5
869
331
8A8
  5
8A8
331
8E7
  5
8E7
331
994
  5
994
331
871
  5
871
331
99C
  5
99C
331
8EF
  5
8EF
331
965
  5
965
331
879
  5
879
331
8B0
  5
8B0
331
83A
  5
83A
331
8F7
  5
8F7
331
9A4
  5
9A4
331
881
  5
881
331
8B8
  5
8B8
331
8FF
  5
8FF
331
9AC
  5
9AC
331
889
  5
889
331
84A
  5
84A
331
8C0
  5
8C0
331
907
  5
907
331
891
  5
891
331
852
  5
852
331
9B4
  5
9B4
331
985
  5
985
331
90F
  5
90F
331
8D0
  5
8D0
331
85A
  5
85A
331
9BC
  5
9BC
  0
DIMASSOC
  5
E62
102
{ACAD_REACTORS
330
E61
102
}
330
E61
100
AcDbDimAssoc
330
E54
 90
        3
 70
     0
 71
     0
  1
AcDbOsnapPointRef
 72
     6
331
844
 73
     0
 91
        0
 40
0.0
 10
0.0
 20
0.0
 30
0.0
332
BE0
 74
     0
 92
        0
 75
     0
  1
AcDbOsnapPointRef
 72
    13
331
835
 73
     0
 91
        0
 40
0.0
 10
0.0
 20
0.0
 30
2.000000000000000E+50
 75
     0
  0
DIMASSOC
  5
1038
102
{ACAD_REACTORS
330
1037
102
}
330
1037
100
AcDbDimAssoc
330
102A
 90
        3
 70
     0
 71
     0
  1
AcDbOsnapPointRef
 72
     1
331
9A1
 73
     0
 91
        0
 40
0.0
 10
0.0
 20
0.0
 30
2.000000000000000E+50
 75
     0
  1
AcDbOsnapPointRef
 72
     1
331
866
 73
     0
 91
        0
 40
0.0
 10
0.0
 20
0.0
 30
2.000000000000000E+50
 75
     0
  0
LAYOUT
  5
1E
102
{ACAD_XDICTIONARY
360
10C1
102
}
102
{ACAD_REACTORS
330
1A
102
}
330
1A
100
AcDbPlotSettings
  1

  2

  4

  6

 40
0.0
 41
0.0
 42
0.0
 43
0.0
 44
0.0
 45
0.0
 46
0.0
 47
0.0
 48
0.0
 49
0.0
140
0.0
141
0.0
142
1.0
143
1.0
 70
   688
 72
     0
 73
     0
 74
     5
  7

 75
    16
147
1.0
148
0.0
149
0.0
100
AcDbLayout
  1
Layout1
 70
     1
 71
     1
 10
0.0
 20
0.0
 11
420.0
 21
297.0
 12
0.0
 22
0.0
 32
0.0
 14
1.000000000000000E+20
 24
1.000000000000000E+20
 34
1.000000000000000E+20
 15
-1.000000000000000E+20
 25
-1.000000000000000E+20
 35
-1.000000000000000E+20
146
0.0
 13
0.0
 23
0.0
 33
0.0
 16
1.0
 26
0.0
 36
0.0
 17
0.0
 27
1.0
 37
0.0
 76
     0
330
1B
  0
LAYOUT
  5
26
102
{ACAD_XDICTIONARY
360
10C5
102
}
102
{ACAD_REACTORS
330
1A
102
}
330
1A
100
AcDbPlotSettings
  1

  2

  4

  6

 40
0.0
 41
0.0
 42
0.0
 43
0.0
 44
0.0
 45
0.0
 46
0.0
 47
0.0
 48
0.0
 49
0.0
140
0.0
141
0.0
142
1.0
143
1.0
 70
   688
 72
     0
 73
     0
 74
     5
  7

 75
    16
147
1.0
148
0.0
149
0.0
100
AcDbLayout
  1
Layout2
 70
     1
 71
     2
 10
0.0
 20
0.0
 11
12.0
 21
9.0
 12
0.0
 22
0.0
 32
0.0
 14
0.0
 24
0.0
 34
0.0
 15
0.0
 25
0.0
 35
0.0
146
0.0
 13
0.0
 23
0.0
 33
0.0
 16
1.0
 26
0.0
 36
0.0
 17
0.0
 27
1.0
 37
0.0
 76
     0
330
23
  0
LAYOUT
  5
22
102
{ACAD_XDICTIONARY
360
10C3
102
}
102
{ACAD_REACTORS
330
1A
102
}
330
1A
100
AcDbPlotSettings
  1

  2

  4

  6

 40
0.0
 41
0.0
 42
0.0
 43
0.0
 44
0.0
 45
0.0
 46
0.0
 47
0.0
 48
0.0
 49
0.0
140
0.0
141
0.0
142
1.0
143
1.0
 70
  1712
 72
     0
 73
     0
 74
     0
  7

 75
     0
147
1.0
148
0.0
149
0.0
100
AcDbLayout
  1
Model
 70
     1
 71
     0
 10
0.0
 20
0.0
 11
12.0
 21
9.0
 12
0.0
 22
0.0
 32
0.0
 14
0.0
 24
0.0
 34
0.0
 15
0.0
 25
0.0
 35
0.0
146
0.0
 13
0.0
 23
0.0
 33
0.0
 16
1.0
 26
0.0
 36
0.0
 17
0.0
 27
1.0
 37
0.0
 76
     0
330
1F
  0
MLINESTYLE
  5
18
102
{ACAD_REACTORS
330
17
102
}
330
17
100
AcDbMlineStyle
  2
STANDARD
 70
     0
  3

 62
   256
 51
90.0
 52
90.0
 71
     2
 49
0.5
 62
   256
  6
BYLAYER
 49
-0.5
 62
   256
  6
BYLAYER
  0
ACDBPLACEHOLDER
  5
F
102
{ACAD_REACTORS
330
E
102
}
330
E
  0
TABLESTYLE
  5
11B
102
{ACAD_REACTORS
330
11A
102
}
330
11A
100
AcDbTableStyle
  3
Standard
 70
     0
 71
     0
 40
1.5
 41
1.5
280
     0
281
     0
  7
STANDARD
140
4.5
170
     2
 62
     0
 63
     7
283
     0
274
    -2
284
     1
 64
     0
275
    -2
285
     1
 65
     0
276
    -2
286
     1
 66
     0
277
    -2
287
     1
 67
     0
278
    -2
288
     1
 68
     0
279
    -2
289
     1
 69
     0
  7
STANDARD
140
6.0
170
     5
 62
     0
 63
     7
283
     0
274
    -2
284
     1
 64
     0
275
    -2
285
     1
 65
     0
276
    -2
286
     1
 66
     0
277
    -2
287
     1
 67
     0
278
    -2
288
     1
 68
     0
279
    -2
289
     1
 69
     0
  7
STANDARD
140
4.5
170
     5
 62
     0
 63
     7
283
     0
274
    -2
284
     1
 64
     0
275
    -2
285
     1
 65
     0
276
    -2
286
     1
 66
     0
277
    -2
287
     1
 67
     0
278
    -2
288
     1
 68
     0
279
    -2
289
     1
 69
     0
  0
DICTIONARYVAR
  5
138
102
{ACAD_REACTORS
330
94
102
}
330
94
100
DictionaryVariables
280
     0
  1
STANDARD
  0
DICTIONARYVAR
  5
96
102
{ACAD_REACTORS
330
94
102
}
330
94
100
DictionaryVariables
280
     0
  1
2
  0
DICTIONARYVAR
  5
95
102
{ACAD_REACTORS
330
94
102
}
330
94
100
DictionaryVariables
280
     0
  1
0
  0
DICTIONARYVAR
  5
10BD
102
{ACAD_REACTORS
330
94
102
}
330
94
100
DictionaryVariables
280
     0
  1

  0
DICTIONARY
  5
272
102
{ACAD_REACTORS
330
5B
102
}
330
5B
100
AcDbDictionary
281
     1
  0
DICTIONARY
  5
61
102
{ACAD_REACTORS
330
5B
102
}
330
5B
100
AcDbDictionary
281
     1
  0
XRECORD
  5
123
102
{ACAD_REACTORS
330
5B
102
}
330
5B
100
AcDbXrecord
280
     1
 90
-1023410169
  0
DICTIONARY
  5
10C1
330
1E
100
AcDbDictionary
280
     1
281
     1
  3
ACAD_XREC_ROUNDTRIP
360
10C2
  0
DICTIONARY
  5
10C5
330
26
100
AcDbDictionary
280
     1
281
     1
  3
ACAD_XREC_ROUNDTRIP
360
10C6
  0
DICTIONARY
  5
10C3
330
22
100
AcDbDictionary
280
     1
281
     1
  3
ACAD_XREC_ROUNDTRIP
360
10C4
  0
XRECORD
  5
10C2
102
{ACAD_REACTORS
330
10C1
102
}
330
10C1
100
AcDbXrecord
280
     1
102
SHADEPLOT
 70
     0
102
SHADEPLOTRESLEVEL
 70
     2
102
SHADEPLOTCUSTOMDPI
 70
   300
  0
XRECORD
  5
10C6
102
{ACAD_REACTORS
330
10C5
102
}
330
10C5
100
AcDbXrecord
280
     1
102
SHADEPLOT
 70
     0
102
SHADEPLOTRESLEVEL
 70
     2
102
SHADEPLOTCUSTOMDPI
 70
   300
  0
XRECORD
  5
10C4
102
{ACAD_REACTORS
330
10C3
102
}
330
10C3
100
AcDbXrecord
280
     1
102
SHADEPLOT
 70
     0
102
SHADEPLOTRESLEVEL
 70
     2
102
SHADEPLOTCUSTOMDPI
 70
   300
  0
ENDSEC
  0
EOF
