  0
SECTION
  2
HEADER
  9
$ACADVER
  1
AC1018
  9
$ACADMAINTVER
 70
   104
  9
$DWGCODEPAGE
  3
ANSI_1252
  9
$LASTSAVEDBY
  1
kbaersch
  9
$CUSTOMPROPERTYTAG
  1
AmdtFileType
  9
$CUSTOMPROPERTY
  1
84
  9
$INSBASE
 10
0.0
 20
0.0
 30
0.0
  9
$EXTMIN
 10
31.48966156634284
 20
36.98734044419473
 30
0.0
  9
$EXTMAX
 10
976.7721543908672
 20
415.8810653627744
 30
0.0
  9
$LIMMIN
 10
0.0
 20
0.0
  9
$LIMMAX
 10
420.0
 20
297.0
  9
$ORTHOMODE
 70
     0
  9
$REGENMODE
 70
     1
  9
$FILLMODE
 70
     1
  9
$QTEXTMODE
 70
     0
  9
$MIRRTEXT
 70
     1
  9
$LTSCALE
 40
1.0
  9
$ATTMODE
 70
     1
  9
$TEXTSIZE
 40
2.5
  9
$TRACEWID
 40
1.0
  9
$TEXTSTYLE
  7
STANDARD
  9
$CLAYER
  8
0
  9
$CELTYPE
  6
ByLayer
  9
$CECOLOR
 62
   256
  9
$CELTSCALE
 40
1.0
  9
$DISPSILH
 70
     0
  9
$DIMSCALE
 40
1.0
  9
$DIMASZ
 40
2.5
  9
$DIMEXO
 40
1.0
  9
$DIMDLI
 40
10.0
  9
$DIMRND
 40
0.0
  9
$DIMDLE
 40
0.0
  9
$DIMEXE
 40
1.0
  9
$DIMTP
 40
1.0
  9
$DIMTM
 40
1.0
  9
$DIMTXT
 40
3.5
  9
$DIMCEN
 40
0.0
  9
$DIMTSZ
 40
0.0
  9
$DIMTOL
 70
     0
  9
$DIMLIM
 70
     0
  9
$DIMTIH
 70
     0
  9
$DIMTOH
 70
     0
  9
$DIMSE1
 70
     0
  9
$DIMSE2
 70
     0
  9
$DIMTAD
 70
     1
  9
$DIMZIN
 70
     8
  9
$DIMBLK
  1

  9
$DIMASO
 70
     1
  9
$DIMSHO
 70
     1
  9
$DIMPOST
  1

  9
$DIMAPOST
  1
"
  9
$DIMALT
 70
     0
  9
$DIMALTD
 70
     2
  9
$DIMALTF
 40
0.0393701
  9
$DIMLFAC
 40
1.0
  9
$DIMTOFL
 70
     1
  9
$DIMTVP
 40
0.0
  9
$DIMTIX
 70
     0
  9
$DIMSOXD
 70
     0
  9
$DIMSAH
 70
     0
  9
$DIMBLK1
  1

  9
$DIMBLK2
  1

  9
$DIMSTYLE
  2
AM_ISO
  9
$DIMCLRD
 70
   256
  9
$DIMCLRE
 70
   256
  9
$DIMCLRT
 70
     2
  9
$DIMTFAC
 40
0.71
  9
$DIMGAP
 40
1.5
  9
$DIMJUST
 70
     0
  9
$DIMSD1
 70
     0
  9
$DIMSD2
 70
     0
  9
$DIMTOLJ
 70
     0
  9
$DIMTZIN
 70
     8
  9
$DIMALTZ
 70
     0
  9
$DIMALTTZ
 70
     0
  9
$DIMUPT
 70
     0
  9
$DIMDEC
 70
     0
  9
$DIMTDEC
 70
     3
  9
$DIMALTU
 70
     2
  9
$DIMALTTD
 70
     4
  9
$DIMTXSTY
  7
STANDARD
  9
$DIMAUNIT
 70
     0
  9
$DIMADEC
 70
     0
  9
$DIMALTRND
 40
0.0
  9
$DIMAZIN
 70
     2
  9
$DIMDSEP
 70
    46
  9
$DIMATFIT
 70
     3
  9
$DIMFRAC
 70
     0
  9
$DIMLDRBLK
  1

  9
$DIMLUNIT
 70
     2
  9
$DIMLWD
 70
    -1
  9
$DIMLWE
 70
    -1
  9
$DIMTMOVE
 70
     0
  9
$LUNITS
 70
     2
  9
$LUPREC
 70
     2
  9
$SKETCHINC
 40
1.0
  9
$FILLETRAD
 40
0.0
  9
$AUNITS
 70
     0
  9
$AUPREC
 70
     0
  9
$MENU
  1
.
  9
$ELEVATION
 40
0.0
  9
$PELEVATION
 40
0.0
  9
$THICKNESS
 40
0.0
  9
$LIMCHECK
 70
     0
  9
$CHAMFERA
 40
2.5
  9
$CHAMFERB
 40
2.5
  9
$CHAMFERC
 40
20.0
  9
$CHAMFERD
 40
0.0
  9
$SKPOLY
 70
     0
  9
$TDCREATE
 40
2453878.319272813
  9
$TDUCREATE
 40
2453878.277606146
  9
$TDUPDATE
 40
2455643.607409190
  9
$TDUUPDATE
 40
2455643.565742523
  9
$TDINDWG
 40
0.3374430556
  9
$TDUSRTIMER
 40
0.3367563889
  9
$USRTIMER
 70
     1
  9
$ANGBASE
 50
0.0
  9
$ANGDIR
 70
     0
  9
$PDMODE
 70
     0
  9
$PDSIZE
 40
0.0
  9
$PLINEWID
 40
0.0
  9
$SPLFRAME
 70
     0
  9
$SPLINETYPE
 70
     6
  9
$SPLINESEGS
 70
     8
  9
$HANDSEED
  5
30D9
  9
$SURFTAB1
 70
     6
  9
$SURFTAB2
 70
     6
  9
$SURFTYPE
 70
     6
  9
$SURFU
 70
     6
  9
$SURFV
 70
     6
  9
$UCSBASE
  2

  9
$UCSNAME
  2

  9
$UCSORG
 10
0.0
 20
0.0
 30
0.0
  9
$UCSXDIR
 10
1.0
 20
0.0
 30
0.0
  9
$UCSYDIR
 10
0.0
 20
1.0
 30
0.0
  9
$UCSORTHOREF
  2

  9
$UCSORTHOVIEW
 70
     0
  9
$UCSORGTOP
 10
0.0
 20
0.0
 30
0.0
  9
$UCSORGBOTTOM
 10
0.0
 20
0.0
 30
0.0
  9
$UCSORGLEFT
 10
0.0
 20
0.0
 30
0.0
  9
$UCSORGRIGHT
 10
0.0
 20
0.0
 30
0.0
  9
$UCSORGFRONT
 10
0.0
 20
0.0
 30
0.0
  9
$UCSORGBACK
 10
0.0
 20
0.0
 30
0.0
  9
$PUCSBASE
  2

  9
$PUCSNAME
  2

  9
$PUCSORG
 10
0.0
 20
0.0
 30
0.0
  9
$PUCSXDIR
 10
1.0
 20
0.0
 30
0.0
  9
$PUCSYDIR
 10
0.0
 20
1.0
 30
0.0
  9
$PUCSORTHOREF
  2

  9
$PUCSORTHOVIEW
 70
     0
  9
$PUCSORGTOP
 10
0.0
 20
0.0
 30
0.0
  9
$PUCSORGBOTTOM
 10
0.0
 20
0.0
 30
0.0
  9
$PUCSORGLEFT
 10
0.0
 20
0.0
 30
0.0
  9
$PUCSORGRIGHT
 10
0.0
 20
0.0
 30
0.0
  9
$PUCSORGFRONT
 10
0.0
 20
0.0
 30
0.0
  9
$PUCSORGBACK
 10
0.0
 20
0.0
 30
0.0
  9
$USERI1
 70
     0
  9
$USERI2
 70
     0
  9
$USERI3
 70
     0
  9
$USERI4
 70
     0
  9
$USERI5
 70
     0
  9
$USERR1
 40
0.0
  9
$USERR2
 40
0.0
  9
$USERR3
 40
0.0
  9
$USERR4
 40
0.0
  9
$USERR5
 40
0.0
  9
$WORLDVIEW
 70
     1
  9
$SHADEDGE
 70
     3
  9
$SHADEDIF
 70
    70
  9
$TILEMODE
 70
     1
  9
$MAXACTVP
 70
    64
  9
$PINSBASE
 10
0.0
 20
0.0
 30
0.0
  9
$PLIMCHECK
 70
     0
  9
$PEXTMIN
 10
1.000000000000000E+20
 20
1.000000000000000E+20
 30
1.000000000000000E+20
  9
$PEXTMAX
 10
-1.000000000000000E+20
 20
-1.000000000000000E+20
 30
-1.000000000000000E+20
  9
$PLIMMIN
 10
0.0
 20
0.0
  9
$PLIMMAX
 10
420.0
 20
297.0
  9
$UNITMODE
 70
     0
  9
$VISRETAIN
 70
     1
  9
$PLINEGEN
 70
     0
  9
$PSLTSCALE
 70
     1
  9
$TREEDEPTH
 70
  3020
  9
$CMLSTYLE
  2
Standard
  9
$CMLJUST
 70
     0
  9
$CMLSCALE
 40
20.0
  9
$PROXYGRAPHICS
 70
     1
  9
$MEASUREMENT
 70
     1
  9
$CELWEIGHT
370
    -1
  9
$ENDCAPS
280
     0
  9
$JOINSTYLE
280
     0
  9
$LWDISPLAY
290
     0
  9
$INSUNITS
 70
     4
  9
$HYPERLINKBASE
  1

  9
$STYLESHEET
  1
monochrome.ctb
  9
$XEDIT
290
     1
  9
$CEPSNTYPE
380
     0
  9
$PSTYLEMODE
290
     1
  9
$FINGERPRINTGUID
  2
{B48278F0-5081-43CC-B5A4-7A32094B14EA}
  9
$VERSIONGUID
  2
{52A298A7-59FF-41A7-8BBA-8AEE28555875}
  9
$EXTNAMES
290
     1
  9
$PSVPSCALE
 40
0.0
  9
$OLESTARTUP
290
     0
  9
$SORTENTS
280
   127
  9
$INDEXCTL
280
     0
  9
$HIDETEXT
280
     0
  9
$XCLIPFRAME
290
     0
  9
$HALOGAP
280
     0
  9
$OBSCOLOR
 70
   257
  9
$OBSLTYPE
280
     0
  9
$INTERSECTIONDISPLAY
280
     0
  9
$INTERSECTIONCOLOR
 70
   257
  9
$DIMASSOC
280
     2
  9
$PROJECTNAME
  1

  0
ENDSEC
  0
SECTION
  2
CLASSES
  0
CLASS
  1
ACDBDICTIONARYWDFLT
  2
AcDbDictionaryWithDefault
  3
ObjectDBX Classes
 90
        0
 91
        1
280
     0
281
     0
  0
CLASS
  1
ACME_DOCUMENT
  2
AcMeDbDoc
  3
AcMeServices
 90
     1024
 91
        2
280
     0
281
     0
  0
CLASS
  1
AMGSETTINGSOBJ
  2
AmgSettingsObj
  3
"AcadM|Product Description: AutoCAD Mechanical|Company: Autodesk, Inc."
 90
     1024
 91
        4
280
     0
281
     0
  0
CLASS
  1
ACMESCOPE
  2
AcMeScope
  3
AcMeServices
 90
     1024
 91
        1
280
     0
281
     0
  0
CLASS
  1
ACMECOMMANDHISTORY
  2
AcMeCommandHistory
  3
AcMeServices
 90
     1024
 91
        1
280
     0
281
     0
  0
CLASS
  1
ACIMSYSVARMAN
  2
AcImSysVarManager
  3
AcMeServices
 90
     1024
 91
        5
280
     0
281
     0
  0
CLASS
  1
ACIMREALSYSVAR
  2
AcImRealSysVar
  3
AcMeServices
 90
     1024
 91
        3
280
     0
281
     0
  0
CLASS
  1
ACIMINTSYSVAR
  2
AcImIntSysVar
  3
AcMeServices
 90
     1024
 91
       27
280
     0
281
     0
  0
CLASS
  1
ACMEDRAWINGMAN
  2
AcMeDrawingMan
  3
AcMeServices
 90
     1024
 91
        1
280
     0
281
     0
  0
CLASS
  1
ACMEVIEW
  2
AcMeView
  3
AcMeServices
 90
     1024
 91
        1
280
     0
281
     0
  0
CLASS
  1
ACDBENTITYCACHE
  2
AcMeEntityCache
  3
AcMeServices
 90
     1024
 91
        1
280
     0
281
     0
  0
CLASS
  1
GSMANAGER
  2
AcMeGSManager
  3
AcMeServices
 90
     1024
 91
        1
280
     0
281
     0
  0
CLASS
  1
AMDTINTERNALREACTOR
  2
AmdtInternalReactor
  3
AcMeServices
 90
     1024
 91
        2
280
     0
281
     0
  0
CLASS
  1
ACMESTATEMGR
  2
AcMeStateMgr
  3
AcMeServices
 90
     1024
 91
        1
280
     0
281
     0
  0
CLASS
  1
ACGREFMASTER
  2
AcGrefMaster
  3
AcAttribServices
 90
     1024
 91
        1
280
     0
281
     0
  0
CLASS
  1
ACME_DATABASE
  2
AcMeDbDatabase
  3
AcMeServices
 90
     1024
 91
        2
280
     0
281
     0
  0
CLASS
  1
ACRFINSADJUSTERMGR
  2
AcRfInsAdjusterMgr
  3
AcMeServices
 90
     1024
 91
        1
280
     0
281
     0
  0
CLASS
  1
ACGREFACADMASTER
  2
AcGrefacadMaster
  3
AcGrefServices
 90
     1024
 91
        1
280
     0
281
     0
  0
CLASS
  1
AMIMASTER
  2
AmiMaster
  3
AmiServices
 90
     1024
 91
        1
280
     0
281
     0
  0
CLASS
  1
ACMDATADICTIONARY
  2
AcmDataDictionary
  3
"AcmSymBB|Product Description: AutoCAD Mechanical|Company: Autodesk, Inc."
 90
     1024
 91
        1
280
     0
281
     0
  0
CLASS
  1
ACMDATAENTRYBLOCK
  2
AcmDataEntryBlock
  3
AcmSymBB|Product Description: AutoCAD Mechanical|Company: Autodesk, Inc.
 90
     1024
 91
        2
280
     0
281
     0
  0
CLASS
  1
ACIMSTRSYSVAR
  2
AcImStrSysVar
  3
AcMeServices
 90
     1024
 91
        5
280
     0
281
     0
  0
CLASS
  1
ACMSTANDARDISO
  2
AcmStandardISO
  3
"Amdt_StdImp|Product Description: AutoCAD Mechanical|Company: Autodesk, Inc."
 90
     1024
 91
        1
280
     0
281
     0
  0
CLASS
  1
AMGOBJPROPCFG
  2
AmgObjPropCfg
  3
"AmgLay|Product Description: AutoCAD Mechanical|Company: Autodesk, Inc."
 90
     1025
 91
        1
280
     0
281
     0
  0
CLASS
  1
AMDTEDGESTANDARDISO
  2
AmdtEdgeStdISO
  3
"Amdt_StdImp|Product Description: AutoCAD Mechanical|Company: Autodesk, Inc."
 90
     1024
 91
        1
280
     0
281
     0
  0
CLASS
  1
ACMSURFSTANDARDISO
  2
AcmSurfTextStdISO
  3
"Amdt_StdImp|Product Description: AutoCAD Mechanical|Company: Autodesk, Inc."
 90
     1024
 91
        1
280
     0
281
     0
  0
CLASS
  1
ACMFCFSTANDARDISO
  2
AcmFCFStdISO
  3
"Amdt_StdImp|Product Description: AutoCAD Mechanical|Company: Autodesk, Inc."
 90
     1024
 91
        1
280
     0
281
     0
  0
CLASS
  1
ACMWELDSTANDARDISO
  2
AcmWeldingStdISO
  3
"Amdt_StdImp|Product Description: AutoCAD Mechanical|Company: Autodesk, Inc."
 90
     1024
 91
        1
280
     0
281
     0
  0
CLASS
  1
ACMIDSTANDARDISO
  2
AcmIdStdISO
  3
"Amdt_StdImp|Product Description: AutoCAD Mechanical|Company: Autodesk, Inc."
 90
     1024
 91
        1
280
     0
281
     0
  0
CLASS
  1
ACMDATUMSTANDARDISO
  2
AcmDatumStdISO
  3
"Amdt_StdImp|Product Description: AutoCAD Mechanical|Company: Autodesk, Inc."
 90
     1024
 91
        1
280
     0
281
     0
  0
CLASS
  1
ACMBOMSTANDARDISO
  2
AcmBOMStdISO
  3
"Amdt_StdImp|Product Description: AutoCAD Mechanical|Company: Autodesk, Inc."
 90
     1024
 91
        1
280
     0
281
     0
  0
CLASS
  1
ACMDETAILSTANDARDISO
  2
AmdtDetailSymStdISO
  3
"Amdt_StdImp|Product Description: AutoCAD Mechanical|Company: Autodesk, Inc."
 90
     1024
 91
        1
280
     0
281
     0
  0
CLASS
  1
ACMSECTIONSTANDARDISO
  2
AmdtSectionSymStdISO
  3
"Amdt_StdImp|Product Description: AutoCAD Mechanical|Company: Autodesk, Inc."
 90
     1024
 91
        1
280
     0
281
     0
  0
CLASS
  1
ACMCENTERLINESTANDARDISO
  2
AmdtCenterLineStdISO
  3
"Amdt_StdImp|Product Description: AutoCAD Mechanical|Company: Autodesk, Inc."
 90
     1024
 91
        1
280
     0
281
     0
  0
CLASS
  1
ACMNOTESTANDARDISO
  2
AmdtNoteStdISO
  3
"Amdt_StdImp|Product Description: AutoCAD Mechanical|Company: Autodesk, Inc."
 90
     1024
 91
        1
280
     0
281
     0
  0
CLASS
  1
ACAMGLAYSTD
  2
AcAmgLayStd
  3
"AmgLay|Product Description: AutoCAD Mechanical|Company: Autodesk, Inc."
 90
     1024
 91
        2
280
     0
281
     0
  0
CLASS
  1
ACAMGDIMSTD
  2
AcAmgDimStd
  3
"AmgDim|Product Description: AutoCAD Mechanical|Company: Autodesk, Inc."
 90
     1024
 91
        2
280
     0
281
     0
  0
CLASS
  1
ACAMGHOLECHARTSTDISO
  2
AcAmgHoleChartStdISO
  3
AmgDim|Product Description: AutoCAD Mechanical|Company: Autodesk, Inc.
 90
     1024
 91
        1
280
     0
281
     0
  0
CLASS
  1
ACAMGTITLESTD
  2
AcAmgTitleStd
  3
"AmgTitle|Product Description: AutoCAD Mechanical|Company: Autodesk, Inc."
 90
     4095
 91
        2
280
     0
281
     0
  0
CLASS
  1
LAYER_INDEX
  2
AcDbLayerIndex
  3
ObjectDBX Classes
 90
        0
 91
        0
280
     0
281
     0
  0
CLASS
  1
IDBUFFER
  2
AcDbIdBuffer
  3
ObjectDBX Classes
 90
        0
 91
        0
280
     0
281
     0
  0
CLASS
  1
DICTIONARYVAR
  2
AcDbDictionaryVar
  3
ObjectDBX Classes
 90
        0
 91
       25
280
     0
281
     0
  0
CLASS
  1
AM_DRAWING_MGR
  2
AcDmDwgMgr
  3
AcMechDwgViewMgmt
 90
     1024
 91
        1
280
     0
281
     0
  0
CLASS
  1
AM_DWG_DOCUMENT
  2
AcDmDwgDocument
  3
AcMechDwgViewMgmt
 90
     1024
 91
        1
280
     0
281
     0
  0
CLASS
  1
AM_DWG_SHEET
  2
AcDmSheet
  3
AcMechDwgViewMgmt
 90
     1024
 91
        2
280
     0
281
     0
  0
CLASS
  1
AM_VIEWDIMPARMAP
  2
AcDmViewDimParMap
  3
AcMechDwgViewMgmt
 90
     1024
 91
        2
280
     0
281
     0
  0
CLASS
  1
AM_DWGMGR_NAME
  2
AcDmDwgMgrName
  3
AcMechDwgViewMgmt
 90
     1024
 91
        1
280
     0
281
     0
  0
CLASS
  1
AMDTMENUSTATEMGR
  2
AmdtMenuStateMgr
  3
McadcomServices
 90
     1024
 91
        1
280
     0
281
     0
  0
CLASS
  1
AMDTMCOMMENUSTATE
  2
AmdtMcomMenuState
  3
McadcomServices
 90
     1024
 91
        1
280
     0
281
     0
  0
CLASS
  1
MAPIAMMOUDLE
  2
MApiAmModule
  3
MApiAmServices
 90
     1024
 91
        1
280
     0
281
     0
  0
CLASS
  1
AMDTADMENUSTATE
  2
AmdtAdMenuState
  3
DesignerServices
 90
     1024
 91
        1
280
     0
281
     0
  0
CLASS
  1
ADAPPL
  2
AcAdAppl
  3
DesignerServices
 90
     1024
 91
        1
280
     0
281
     0
  0
CLASS
  1
DEPMGR
  2
AcAdDepMgr
  3
DesignerServices
 90
     1024
 91
        1
280
     0
281
     0
  0
CLASS
  1
PARAMMGR
  2
AcAdParamMgr
  3
DesignerServices
 90
     1024
 91
        1
280
     0
281
     0
  0
CLASS
  1
PARAMSCOPE
  2
AcAdParamScope
  3
DesignerServices
 90
     1024
 91
        1
280
     0
281
     0
  0
CLASS
  1
NAMEDAPPL
  2
AcAdNamedAppl
  3
DesignerServices
 90
     1024
 91
        1
280
     0
281
     0
  0
CLASS
  1
AMDTDMMENUSTATE
  2
AmdtDmMenuState
  3
AcMechDwgViewMgmt
 90
     1024
 91
        1
280
     0
281
     0
  0
CLASS
  1
AMDTAMMENUSTATE
  2
AmdtAmMenuState
  3
DesignerAssemblies
 90
     1024
 91
        1
280
     0
281
     0
  0
CLASS
  1
ACAMPROJECT
  2
AcAmProject
  3
DesignerAssemblies
 90
     1024
 91
        1
280
     0
281
     0
  0
CLASS
  1
ACAMGRCOMPDEF
  2
AcAmGrCompDef
  3
DesignerAssemblies
 90
     1024
 91
        1
280
     0
281
     0
  0
CLASS
  1
ACCMCONTEXT
  2
AcCmContext
  3
DesignerAssemblies
 90
     1024
 91
        1
280
     0
281
     0
  0
CLASS
  1
ACAMCOMPDEF
  2
AcAmCompDef
  3
DesignerAssemblies
 90
     1024
 91
        1
280
     0
281
     0
  0
CLASS
  1
ACAMCOMPDEFMGR
  2
AcAmCompDefMgr
  3
DesignerAssemblies
 90
     1024
 91
        1
280
     0
281
     0
  0
CLASS
  1
AMCONTEXTMGR
  2
AcAmContextMgr
  3
DesignerAssemblies
 90
     1024
 91
        1
280
     0
281
     0
  0
CLASS
  1
ACAMCONTEXTMODELER
  2
AcAmContextModeler
  3
DesignerAssemblies
 90
     1024
 91
        1
280
     0
281
     0
  0
CLASS
  1
ACMTHREADLINESTANDARDISO
  2
AmdtThreadLineStdISO
  3
"Amdt_StdImp|Product Description: AutoCAD Mechanical|Company: Autodesk, Inc."
 90
     1024
 91
        1
280
     0
281
     0
  0
CLASS
  1
CATALOGSTATE
  2
AcAmCatalogState
  3
DesignerAssemblies
 90
     1024
 91
        1
280
     0
281
     0
  0
CLASS
  1
ACAMGRCOMPDEFSET
  2
AcAmGrCompDefSet
  3
DesignerAssemblies
 90
     1024
 91
        1
280
     0
281
     0
  0
CLASS
  1
AMDTBROWSERDBTAB
  2
AmdtBrowserDbTab
  3
McadcomServices
 90
     1024
 91
        1
280
     0
281
     0
  0
CLASS
  1
CBROWSERAPPOBJECT
  2
CBrowserAppObject
  3
McadcomServices
 90
     1024
 91
        3
280
     0
281
     0
  0
CLASS
  1
DM_PLACEHOLDER
  2
AcDmSelsetPlaceholder
  3
AcMechDwgViewMgmt
 90
     1024
 91
        1
280
     0
281
     0
  0
CLASS
  1
TABLESTYLE
  2
AcDbTableStyle
  3
ObjectDBX Classes
 90
     4095
 91
        1
280
     0
281
     0
  0
CLASS
  1
VAACXREFPANELOBJECT
  2
VaAcXREFPanelObject
  3
VAAC_ADDIN
 90
        0
 91
        0
280
     0
281
     0
  0
CLASS
  1
VAACIMAGEINVENTORY
  2
VaAcImageInventory
  3
VAAC_ADDIN
 90
        0
 91
        0
280
     0
281
     0
  0
CLASS
  1
AMDTNOTETEMPLATEDB
  2
AmdtNoteTemplateDB
  3
AcmSymBB|Product Description: AutoCAD Mechanical|Company: Autodesk, Inc.
 90
     1024
 91
       12
280
     0
281
     0
  0
CLASS
  1
ACAMGFILTERDAT
  2
AcAmgFilterDat
  3
"AcadM|Product Description: AutoCAD Mechanical|Company: Autodesk, Inc."
 90
     1024
 91
        6
280
     0
281
     0
  0
CLASS
  1
ACMBOM
  2
AcmBom
  3
"AcmSymBB|Product Description: AutoCAD Mechanical|Company: Autodesk, Inc."
 90
     1024
 91
        0
280
     0
281
     0
  0
CLASS
  1
AMDTFORMULAUPDATEDISPATCHER
  2
AmdtFormulaUpdateDispatcher
  3
AcMeServices
 90
     1024
 91
        0
280
     0
281
     0
  0
CLASS
  1
STDPART2D
  2
AmgStdPart
  3
AmgStdPart|Product Description: AutoCAD Mechanical|Company: Autodesk, Inc.
 90
     4095
 91
        4
280
     0
281
     1
  0
CLASS
  1
ACMSTANDARDDIN
  2
AcmStandardDIN
  3
"Amdt_StdImp|Product Description: AutoCAD Mechanical|Company: Autodesk, Inc."
 90
     1024
 91
        1
280
     0
281
     0
  0
CLASS
  1
AMDTEDGESTANDARDDIN
  2
AmdtEdgeStdDIN
  3
"Amdt_StdImp|Product Description: AutoCAD Mechanical|Company: Autodesk, Inc."
 90
     1024
 91
        1
280
     0
281
     0
  0
CLASS
  1
ACMSURFSTANDARDDIN
  2
AcmSurfTextStdDIN
  3
"Amdt_StdImp|Product Description: AutoCAD Mechanical|Company: Autodesk, Inc."
 90
     1024
 91
        1
280
     0
281
     0
  0
CLASS
  1
ACMFCFSTANDARDDIN
  2
AcmFCFStdDIN
  3
"Amdt_StdImp|Product Description: AutoCAD Mechanical|Company: Autodesk, Inc."
 90
     1024
 91
        1
280
     0
281
     0
  0
CLASS
  1
ACMWELDSTANDARDDIN
  2
AcmWeldingStdDIN
  3
"Amdt_StdImp|Product Description: AutoCAD Mechanical|Company: Autodesk, Inc."
 90
     1024
 91
        1
280
     0
281
     0
  0
CLASS
  1
ACMIDSTANDARDDIN
  2
AcmIdStdDIN
  3
"Amdt_StdImp|Product Description: AutoCAD Mechanical|Company: Autodesk, Inc."
 90
     1024
 91
        1
280
     0
281
     0
  0
CLASS
  1
ACMDATUMSTANDARDDIN
  2
AcmDatumStdDIN
  3
"Amdt_StdImp|Product Description: AutoCAD Mechanical|Company: Autodesk, Inc."
 90
     1024
 91
        1
280
     0
281
     0
  0
CLASS
  1
ACMBOMSTANDARDDIN
  2
AcmBOMStdDIN
  3
"Amdt_StdImp|Product Description: AutoCAD Mechanical|Company: Autodesk, Inc."
 90
     1024
 91
        1
280
     0
281
     0
  0
CLASS
  1
ACMDETAILSTANDARDDIN
  2
AmdtDetailSymStdDIN
  3
"Amdt_StdImp|Product Description: AutoCAD Mechanical|Company: Autodesk, Inc."
 90
     1024
 91
        1
280
     0
281
     0
  0
CLASS
  1
ACMSECTIONSTANDARDDIN
  2
AmdtSectionSymStdDIN
  3
"Amdt_StdImp|Product Description: AutoCAD Mechanical|Company: Autodesk, Inc."
 90
     1024
 91
        1
280
     0
281
     0
  0
CLASS
  1
ACMCENTERLINESTANDARDDIN
  2
AmdtCenterLineStdDIN
  3
"Amdt_StdImp|Product Description: AutoCAD Mechanical|Company: Autodesk, Inc."
 90
     1024
 91
        1
280
     0
281
     0
  0
CLASS
  1
ACMTHREADLINESTANDARDDIN
  2
AmdtThreadLineStdDIN
  3
"Amdt_StdImp|Product Description: AutoCAD Mechanical|Company: Autodesk, Inc."
 90
     1024
 91
        1
280
     0
281
     0
  0
CLASS
  1
ACMNOTESTANDARDDIN
  2
AmdtNoteStdDIN
  3
"Amdt_StdImp|Product Description: AutoCAD Mechanical|Company: Autodesk, Inc."
 90
     1024
 91
        1
280
     0
281
     0
  0
CLASS
  1
SORTENTSTABLE
  2
AcDbSortentsTable
  3
ObjectDBX Classes
 90
        0
 91
        1
280
     0
281
     0
  0
CLASS
  1
DIMASSOC
  2
AcDbDimAssoc
  3
"AcDbDimAssoc|Product Desc:     AcDim ARX App For Dimension|Company:          Autodesk, Inc.|WEB Address:      www.autodesk.com"
 90
        0
 91
        5
280
     0
281
     0
  0
CLASS
  1
MATERIAL
  2
AcDbMaterial
  3
ObjectDBX Classes
 90
     1153
 91
        3
280
     0
281
     0
  0
CLASS
  1
VISUALSTYLE
  2
AcDbVisualStyle
  3
ObjectDBX Classes
 90
     4095
 91
       16
280
     0
281
     0
  0
CLASS
  1
SCALE
  2
AcDbScale
  3
ObjectDBX Classes
 90
     1153
 91
       17
280
     0
281
     0
  0
CLASS
  1
MLEADERSTYLE
  2
AcDbMLeaderStyle
  3
ACDB_MLEADERSTYLE_CLASS
 90
     4095
 91
        1
280
     0
281
     0
  0
CLASS
  1
ACRFATTGENMGR
  2
AcRfAttGeneralMgr
  3
AcAttribServices
 90
     1024
 91
        1
280
     0
281
     0
  0
CLASS
  1
ACRFOBJATTMGR
  2
AcRfObjAttGroupMgr
  3
AcAttribServices
 90
     1024
 91
        1
280
     0
281
     0
  0
CLASS
  1
ACRFMCADAPIATTHOLDER
  2
AcRfMCADAPIAttHolder
  3
AcAttribServices
 90
     1024
 91
        1
280
     0
281
     0
  0
CLASS
  1
AMDTSYSATTR
  2
AmdtSystemAttribute
  3
AcAttribServices
 90
     1024
 91
        1
280
     0
281
     0
  0
CLASS
  1
ACMTAPERSTANDARDISO
  2
AcmTaperStdISO
  3
"Amdt_StdImp|Product Description: AutoCAD Mechanical|Company: Autodesk, Inc."
 90
     1024
 91
        1
280
     0
281
     0
  0
CLASS
  1
ACMANOOTATIONVIEWSTANDARDISO
  2
AmdtAnViewStdISO
  3
"Amdt_StdImp|Product Description: AutoCAD Mechanical|Company: Autodesk, Inc."
 90
     1024
 91
        1
280
     0
281
     0
  0
CLASS
  1
ACMTAPERSTANDARDDIN
  2
AcmTaperStdDIN
  3
"Amdt_StdImp|Product Description: AutoCAD Mechanical|Company: Autodesk, Inc."
 90
     1024
 91
        1
280
     0
281
     0
  0
CLASS
  1
ACMANOOTATIONVIEWSTANDARDDIN
  2
AmdtAnViewStdDIN
  3
"Amdt_StdImp|Product Description: AutoCAD Mechanical|Company: Autodesk, Inc."
 90
     1024
 91
        1
280
     0
281
     0
  0
CLASS
  1
EXACXREFPANELOBJECT
  2
ExAcXREFPanelObject
  3
EXAC_ESW
 90
     1025
 91
        1
280
     0
281
     0
  0
CLASS
  1
NPOCOLLECTION
  2
AcDbImpNonPersistentObjectsCollection
  3
ObjectDBX Classes
 90
     1153
 91
        1
280
     0
281
     0
  0
CLASS
  1
CAMSSTRUCTBTNSTATE
  2
StructBtnState
  3
DesignerAssemblies
 90
     1024
 91
        1
280
     0
281
     0
  0
CLASS
  1
CELLSTYLEMAP
  2
AcDbCellStyleMap
  3
ObjectDBX Classes
 90
     1152
 91
        7
280
     0
281
     0
  0
CLASS
  1
AEC_REFEDIT_STATUS_TRACKER
  2
AecDbRefEditStatusTracker
  3
AecArchBase50|Product Desc: Autodesk Architectural Desktop 2007 |Company: Autodesk,Inc. |WEB Address: www.autodesk.com
 90
      129
 91
        1
280
     0
281
     0
  0
ENDSEC
  0
SECTION
  2
TABLES
  0
TABLE
  2
VPORT
  5
8
330
0
100
AcDbSymbolTable
 70
     1
  0
VPORT
  5
2D03
330
8
100
AcDbSymbolTableRecord
100
AcDbViewportTableRecord
  2
*Active
 70
     0
 10
0.0
 20
0.0
 11
1.0
 21
1.0
 12
717.6967252420237
 22
207.0562008725048
 13
0.0
 23
0.0
 14
2.5
 24
2.5
 15
10.0
 25
10.0
 16
0.0
 26
0.0
 36
1.0
 17
0.0
 27
0.0
 37
0.0
 40
475.3538231125157
 41
2.439807383627608
 42
50.0
 43
0.0
 44
0.0
 50
0.0
 51
0.0
 71
     0
 72
   100
 73
     1
 74
     3
 75
     0
 76
     0
 77
     0
 78
     0
281
     0
 65
     1
110
0.0
120
0.0
130
0.0
111
1.0
121
0.0
131
0.0
112
0.0
122
1.0
132
0.0
 79
     0
146
0.0
  0
ENDTAB
  0
TABLE
  2
LTYPE
  5
5
330
0
100
AcDbSymbolTable
 70
    30
  0
LTYPE
  5
14
330
5
100
AcDbSymbolTableRecord
100
AcDbLinetypeTableRecord
  2
ByBlock
 70
     0
  3

 72
    65
 73
     0
 40
0.0
  0
LTYPE
  5
15
330
5
100
AcDbSymbolTableRecord
100
AcDbLinetypeTableRecord
  2
ByLayer
 70
     0
  3

 72
    65
 73
     0
 40
0.0
  0
LTYPE
  5
16
330
5
100
AcDbSymbolTableRecord
100
AcDbLinetypeTableRecord
  2
Continuous
 70
     0
  3
Solid line
 72
    65
 73
     0
 40
0.0
  0
LTYPE
  5
64
330
5
100
AcDbSymbolTableRecord
100
AcDbLinetypeTableRecord
  2
AM_ISO02W050
 70
     0
  3
__ __ __ __ __ __ __ __ __ __ __ __ __ __ __
 72
    65
 73
     2
 40
7.5
 49
6.0
 74
     0
 49
-1.5
 74
     0
  0
LTYPE
  5
65
330
5
100
AcDbSymbolTableRecord
100
AcDbLinetypeTableRecord
  2
AM_ISO08W050
 70
     0
  3
____ . ____ . ____ . ____ . ____ . ____ . ____
 72
    65
 73
     4
 40
18.0
 49
12.0
 74
     0
 49
-1.5
 74
     0
 49
3.0
 74
     0
 49
-1.5
 74
     0
  0
LTYPE
  5
66
330
5
100
AcDbSymbolTableRecord
100
AcDbLinetypeTableRecord
  2
AM_ISO09W050
 70
     0
  3
_____ . . _____ . . _____ . . ____ .. ____
 72
    65
 73
     6
 40
22.5
 49
12.0
 74
     0
 49
-1.5
 74
     0
 49
3.0
 74
     0
 49
-1.5
 74
     0
 49
3.0
 74
     0
 49
-1.5
 74
     0
  0
LTYPE
  5
67
330
5
100
AcDbSymbolTableRecord
100
AcDbLinetypeTableRecord
  2
Amconstr
 70
     0
  3
_______________________
 72
    65
 73
     2
 40
9999.0
 49
9999.0
 74
     0
 49
0.0
 74
     0
  0
LTYPE
  5
68
330
5
100
AcDbSymbolTableRecord
100
AcDbLinetypeTableRecord
  2
AM_ISO08W050x2
 70
     0
  3
__ . __ . __ . __ . __ . __
 72
    65
 73
     4
 40
9.0
 49
6.0
 74
     0
 49
-0.75
 74
     0
 49
1.5
 74
     0
 49
-0.75
 74
     0
  0
LTYPE
  5
69
330
5
100
AcDbSymbolTableRecord
100
AcDbLinetypeTableRecord
  2
AM_ISO02W050x2
 70
     0
  3
 _ _ _ _ _ _ _ _ _ _ _ _
 72
    65
 73
     2
 40
3.75
 49
3.0
 74
     0
 49
-0.75
 74
     0
  0
LTYPE
  5
6C
330
5
100
AcDbSymbolTableRecord
100
AcDbLinetypeTableRecord
  2
Amzigzag
 70
     0
  3
/\/-/\/-/\/-/\/-/\/-/\/
 72
    65
 73
     2
 40
11.0001
 49
0.0001
 74
     4
 75
   136
340
22C
 46
0.04
 50
0.0
 44
0.0
 45
0.0
 49
-11.0
 74
     0
  0
LTYPE
  5
7A
330
5
100
AcDbSymbolTableRecord
100
AcDbLinetypeTableRecord
  2
ACISOWELD
 70
     0
  3
_ _ _ _ _
 72
    65
 73
     2
 40
2.0
 49
2.0
 74
     0
 49
-1.0
 74
     0
  0
LTYPE
  5
7B
330
5
100
AcDbSymbolTableRecord
100
AcDbLinetypeTableRecord
  2
ACISOTGB
 70
     0
  3
__ . . __ . .
 72
    65
 73
     6
 40
9.0
 49
4.0
 74
     0
 49
-1.0
 74
     0
 49
1.0
 74
     0
 49
-1.0
 74
     0
 49
1.0
 74
     0
 49
-1.0
 74
     0
  0
LTYPE
  5
7C
330
5
100
AcDbSymbolTableRecord
100
AcDbLinetypeTableRecord
  2
ACISOTGL
 70
     0
  3
_ _ _ _ _
 72
    65
 73
     2
 40
3.0
 49
2.0
 74
     0
 49
-1.0
 74
     0
  0
LTYPE
  5
7E
330
5
100
AcDbSymbolTableRecord
100
AcDbLinetypeTableRecord
  2
CENTER
 70
     0
  3
__ . __
 72
    65
 73
     4
 40
7.0
 49
4.0
 74
     0
 49
-1.0
 74
     0
 49
1.0
 74
     0
 49
-1.0
 74
     0
  0
LTYPE
  5
D8
330
5
100
AcDbSymbolTableRecord
100
AcDbLinetypeTableRecord
  2
HIDDEN
 70
     0
  3
Hidden __ __ __ __ __ __ __ __ __ __ __ __ __ _
 72
    65
 73
     2
 40
9.524999999999998
 49
6.349999999999999
 74
     0
 49
-3.174999999999999
 74
     0
  0
LTYPE
  5
D9
330
5
100
AcDbSymbolTableRecord
100
AcDbLinetypeTableRecord
  2
PHANTOM2
 70
     0
  3
Phantom (.5x) ___ _ _ ___ _ _ ___ _ _ ___ _ _
 72
    65
 73
     6
 40
31.75
 49
15.875
 74
     0
 49
-3.174999999999999
 74
     0
 49
3.174999999999999
 74
     0
 49
-3.174999999999999
 74
     0
 49
3.174999999999999
 74
     0
 49
-3.174999999999999
 74
     0
  0
LTYPE
  5
5AC
330
5
100
AcDbSymbolTableRecord
100
AcDbLinetypeTableRecord
  2
AM_DIN_G_W050x2
 70
     0
  3
__ . __ . __ . __ . __ . __
 72
    65
 73
     4
 40
6.875
 49
4.75
 74
     0
 49
-0.875
 74
     0
 49
0.375
 74
     0
 49
-0.875
 74
     0
  0
LTYPE
  5
5AD
330
5
100
AcDbSymbolTableRecord
100
AcDbLinetypeTableRecord
  2
AM_DIN_F_W050x2
 70
     0
  3
 _ _ _ _ _ _ _ _ _ _ _ _
 72
    65
 73
     2
 40
3.125
 49
2.25
 74
     0
 49
-0.875
 74
     0
  0
LTYPE
  5
5AE
330
5
100
AcDbSymbolTableRecord
100
AcDbLinetypeTableRecord
  2
ACDINWELD
 70
     0
  3
_ _ _ _ _
 72
    65
 73
     2
 40
2.0
 49
2.0
 74
     0
 49
-1.0
 74
     0
  0
LTYPE
  5
5AF
330
5
100
AcDbSymbolTableRecord
100
AcDbLinetypeTableRecord
  2
ACDINTGB
 70
     0
  3
__ . . __ . .
 72
    65
 73
     6
 40
9.0
 49
4.0
 74
     0
 49
-1.0
 74
     0
 49
1.0
 74
     0
 49
-1.0
 74
     0
 49
1.0
 74
     0
 49
-1.0
 74
     0
  0
LTYPE
  5
5B0
330
5
100
AcDbSymbolTableRecord
100
AcDbLinetypeTableRecord
  2
ACDINTGL
 70
     0
  3
_ _ _ _ _
 72
    65
 73
     2
 40
3.0
 49
2.0
 74
     0
 49
-1.0
 74
     0
  0
LTYPE
  5
5B3
330
5
100
AcDbSymbolTableRecord
100
AcDbLinetypeTableRecord
  2
GEN7
 70
     0
  3
____ . ____ . ____ . ____ . ____ . ____ . ____
 72
    65
 73
     4
 40
13.75
 49
9.75
 74
     0
 49
-1.5
 74
     0
 49
1.0
 74
     0
 49
-1.5
 74
     0
  0
LTYPE
  5
5B4
330
5
100
AcDbSymbolTableRecord
100
AcDbLinetypeTableRecord
  2
GEN7A
 70
     0
  3
__ . __ . __
 72
    65
 73
     4
 40
6.875
 49
4.75
 74
     0
 49
-0.875
 74
     0
 49
0.375
 74
     0
 49
-0.875
 74
     0
  0
LTYPE
  5
1243
330
5
100
AcDbSymbolTableRecord
100
AcDbLinetypeTableRecord
  2
GEN4A
 70
     0
  3
_____ . . _____ . . _____ . . ____ .. ____
 72
    65
 73
     6
 40
16.25
 49
9.75
 74
     0
 49
-1.5
 74
     0
 49
1.0
 74
     0
 49
-1.5
 74
     0
 49
1.0
 74
     0
 49
-1.5
 74
     0
  0
ENDTAB
  0
TABLE
  2
LAYER
  5
2
102
{ACAD_XDICTIONARY
360
5EC
102
}
330
0
100
AcDbSymbolTable
 70
    33
  0
LAYER
  5
10
102
{ACAD_XDICTIONARY
360
2DDB
102
}
330
2
100
AcDbSymbolTableRecord
100
AcDbLayerTableRecord
  2
0
 70
     0
 62
     7
  6
Continuous
370
    -3
390
F
  0
LAYER
  5
5BE
102
{ACAD_XDICTIONARY
360
2DEF
102
}
330
2
100
AcDbSymbolTableRecord
100
AcDbLayerTableRecord
  2
4
 70
     0
 62
     3
  6
Continuous
370
    -3
390
F
  0
LAYER
  5
5BF
102
{ACAD_XDICTIONARY
360
2DF1
102
}
330
2
100
AcDbSymbolTableRecord
100
AcDbLayerTableRecord
  2
7A
 70
     0
 62
     4
  6
GEN7A
370
    -3
390
F
  0
LAYER
  5
5C0
102
{ACAD_XDICTIONARY
360
2DF3
102
}
330
2
100
AcDbSymbolTableRecord
100
AcDbLayerTableRecord
  2
7
 70
     0
 62
     4
  6
GEN7
370
    -3
390
F
  0
LAYER
  5
5C1
102
{ACAD_XDICTIONARY
360
2DF5
102
}
330
2
100
AcDbSymbolTableRecord
100
AcDbLayerTableRecord
  2
AM_7
 70
     0
 62
     4
  6
AM_ISO08W050
370
    25
390
F
  0
LAYER
  5
5C2
102
{ACAD_XDICTIONARY
360
2DF7
102
}
330
2
100
AcDbSymbolTableRecord
100
AcDbLayerTableRecord
  2
AM_8
 70
     0
 62
     1
  6
Continuous
370
    25
390
F
  0
LAYER
  5
5C4
330
2
100
AcDbSymbolTableRecord
100
AcDbLayerTableRecord
  2
Defpoints
 70
     0
 62
     7
  6
Continuous
290
     0
370
    -3
390
F
  0
LAYER
  5
5C5
102
{ACAD_XDICTIONARY
360
2DFB
102
}
330
2
100
AcDbSymbolTableRecord
100
AcDbLayerTableRecord
  2
8
 70
     0
 62
     1
  6
Continuous
370
    -3
390
F
  0
LAYER
  5
5C6
102
{ACAD_XDICTIONARY
360
2DFD
102
}
330
2
100
AcDbSymbolTableRecord
100
AcDbLayerTableRecord
  2
AM_0N
 70
     0
 62
     7
  6
Continuous
370
    50
390
F
  0
LAYER
  5
5C7
102
{ACAD_XDICTIONARY
360
2DFF
102
}
330
2
100
AcDbSymbolTableRecord
100
AcDbLayerTableRecord
  2
AM_INV
 70
     0
 62
  -253
  6
Continuous
370
     0
390
F
  0
LAYER
  5
5C8
102
{ACAD_XDICTIONARY
360
2E01
102
}
330
2
100
AcDbSymbolTableRecord
100
AcDbLayerTableRecord
  2
AM_3N
 70
     0
 62
     6
  6
AM_ISO02W050
370
    25
390
F
  0
LAYER
  5
5C9
102
{ACAD_XDICTIONARY
360
2E03
102
}
330
2
100
AcDbSymbolTableRecord
100
AcDbLayerTableRecord
  2
AM_4N
 70
     0
 62
     3
  6
Continuous
370
    25
390
F
  0
LAYER
  5
5CA
102
{ACAD_XDICTIONARY
360
2E05
102
}
330
2
100
AcDbSymbolTableRecord
100
AcDbLayerTableRecord
  2
AM_7N
 70
     0
 62
     4
  6
AM_ISO08W050
370
    25
390
F
  0
LAYER
  5
5CB
102
{ACAD_XDICTIONARY
360
2E07
102
}
330
2
100
AcDbSymbolTableRecord
100
AcDbLayerTableRecord
  2
AM_9
 70
     0
 62
  -253
  6
Continuous
370
     0
390
F
  0
LAYER
  5
5CC
102
{ACAD_XDICTIONARY
360
2E09
102
}
330
2
100
AcDbSymbolTableRecord
100
AcDbLayerTableRecord
  2
AM_9N
 70
     0
 62
  -253
  6
Continuous
370
     0
390
F
  0
LAYER
  5
1247
102
{ACAD_XDICTIONARY
360
2E11
102
}
330
2
100
AcDbSymbolTableRecord
100
AcDbLayerTableRecord
  2
4A
 70
     0
 62
     3
  6
GEN4A
370
    -3
390
F
  0
LAYER
  5
1249
102
{ACAD_XDICTIONARY
360
2E15
102
}
330
2
100
AcDbSymbolTableRecord
100
AcDbLayerTableRecord
  2
BEMASS
 70
     0
 62
     3
  6
Continuous
370
    -3
390
F
  0
LAYER
  5
124A
102
{ACAD_XDICTIONARY
360
2E17
102
}
330
2
100
AcDbSymbolTableRecord
100
AcDbLayerTableRecord
  2
SICHTBAR
 70
     0
 62
     7
  6
Continuous
370
    -3
390
F
  0
ENDTAB
  0
TABLE
  2
STYLE
  5
3
330
0
100
AcDbSymbolTable
 70
    15
  0
STYLE
  5
11
330
3
100
AcDbSymbolTableRecord
100
AcDbTextStyleTableRecord
  2
STANDARD
 70
     0
 40
0.0
 41
1.0
 50
0.0
 71
     0
 42
2.5
  3
ISOCP.SHX
  4

  0
STYLE
  5
6D
330
3
100
AcDbSymbolTableRecord
100
AcDbTextStyleTableRecord
  2
ACISOTS
 70
     0
 40
1.0
 41
1.0
 50
0.0
 71
     0
 42
2.5
  3
isocp.shx
  4
bigfont.shx
  0
STYLE
  5
79
330
3
100
AcDbSymbolTableRecord
100
AcDbTextStyleTableRecord
  2
ACISOGDT
 70
     0
 40
0.0
 41
1.0
 50
0.0
 71
     0
 42
2.5
  3
AMGDT
  4
bigfont.shx
  0
STYLE
  5
22C
330
3
100
AcDbSymbolTableRecord
100
AcDbTextStyleTableRecord
  2

 70
     1
 40
0.0
 41
1.0
 50
0.0
 71
     0
 42
2.5
  3
genltshp.shx
  4

  0
STYLE
  5
5CD
330
3
100
AcDbSymbolTableRecord
100
AcDbTextStyleTableRecord
  2
ACDINTS
 70
     0
 40
1.0
 41
1.0
 50
0.0
 71
     0
 42
2.5
  3
isocp.shx
  4

  0
STYLE
  5
5CE
330
3
100
AcDbSymbolTableRecord
100
AcDbTextStyleTableRecord
  2
ACDINGDT
 70
     0
 40
0.0
 41
1.0
 50
0.0
 71
     0
 42
2.5
  3
amgdt.shx
  4

  0
ENDTAB
  0
TABLE
  2
VIEW
  5
6
330
0
100
AcDbSymbolTable
 70
     0
  0
ENDTAB
  0
TABLE
  2
UCS
  5
7
330
0
100
AcDbSymbolTable
 70
     0
  0
ENDTAB
  0
TABLE
  2
APPID
  5
9
330
0
100
AcDbSymbolTable
 70
    34
  0
APPID
  5
12
330
9
100
AcDbSymbolTableRecord
100
AcDbRegAppTableRecord
  2
ACAD
 70
     0
  0
APPID
  5
46
330
9
100
AcDbSymbolTableRecord
100
AcDbRegAppTableRecord
  2
MCAD_NO_VIS
 70
     0
  0
APPID
  5
47
330
9
100
AcDbSymbolTableRecord
100
AcDbRegAppTableRecord
  2
ACAD_TEMP_GRAPHIC
 70
     0
  0
APPID
  5
58
330
9
100
AcDbSymbolTableRecord
100
AcDbRegAppTableRecord
  2
ACATTRIBSERVICES
 70
     0
  0
APPID
  5
EE
330
9
100
AcDbSymbolTableRecord
100
AcDbRegAppTableRecord
  2
AD_DRAW
 70
     0
  0
APPID
  5
10C
330
9
100
AcDbSymbolTableRecord
100
AcDbRegAppTableRecord
  2
DESIGNERASSEMBLIES
 70
     0
  0
APPID
  5
111
330
9
100
AcDbSymbolTableRecord
100
AcDbRegAppTableRecord
  2
ACADM_DIM_EDIT
 70
     0
  0
APPID
  5
112
330
9
100
AcDbSymbolTableRecord
100
AcDbRegAppTableRecord
  2
AMDT_DM_ADJ
 70
     0
  0
APPID
  5
1A3
330
9
100
AcDbSymbolTableRecord
100
AcDbRegAppTableRecord
  2
ACAD_DSTYLE_DIMARC_LENGTH_SYMBOL
 70
     0
  0
APPID
  5
1A4
330
9
100
AcDbSymbolTableRecord
100
AcDbRegAppTableRecord
  2
ACAD_DSTYLE_DIMJOGGED_JOGANGLE_SYMBOL
 70
     0
  0
APPID
  5
5DA
330
9
100
AcDbSymbolTableRecord
100
AcDbRegAppTableRecord
  2
GENIUS_GENBLLY_14
 70
     0
  0
APPID
  5
5DB
330
9
100
AcDbSymbolTableRecord
100
AcDbRegAppTableRecord
  2
GENIUS_VERSION2
 70
     0
  0
APPID
  5
5DC
330
9
100
AcDbSymbolTableRecord
100
AcDbRegAppTableRecord
  2
GENIUS_GENREC_14
 70
     0
  0
APPID
  5
5DD
330
9
100
AcDbSymbolTableRecord
100
AcDbRegAppTableRecord
  2
GENIUS_GENODEF_13
 70
     0
  0
APPID
  5
5DE
330
9
100
AcDbSymbolTableRecord
100
AcDbRegAppTableRecord
  2
GENIUS_GENOBJ-N-REC_13
 70
     0
  0
APPID
  5
5DF
330
9
100
AcDbSymbolTableRecord
100
AcDbRegAppTableRecord
  2
GENIUS_GENOENT_13
 70
     0
  0
APPID
  5
5E0
330
9
100
AcDbSymbolTableRecord
100
AcDbRegAppTableRecord
  2
GENIUS_GENOBJ-N-HTC_13
 70
     0
  0
APPID
  5
5E1
330
9
100
AcDbSymbolTableRecord
100
AcDbRegAppTableRecord
  2
GENIUS_GENHATCH_13
 70
     0
  0
APPID
  5
5E2
330
9
100
AcDbSymbolTableRecord
100
AcDbRegAppTableRecord
  2
GENIUS_GENOBJ-N-FIL_13
 70
     0
  0
APPID
  5
5E3
330
9
100
AcDbSymbolTableRecord
100
AcDbRegAppTableRecord
  2
GENIUS_GENOBJ-N-CEN_13
 70
     0
  0
APPID
  5
5E4
330
9
100
AcDbSymbolTableRecord
100
AcDbRegAppTableRecord
  2
GENIUS_GENBH_13
 70
     0
  0
APPID
  5
5E5
330
9
100
AcDbSymbolTableRecord
100
AcDbRegAppTableRecord
  2
GENIUS_GENBHRL_14
 70
     0
  0
APPID
  5
5E6
330
9
100
AcDbSymbolTableRecord
100
AcDbRegAppTableRecord
  2
GENIUS_GENOLIS_13
 70
     0
  0
APPID
  5
5E7
330
9
100
AcDbSymbolTableRecord
100
AcDbRegAppTableRecord
  2
GENIUS_GENOBJ-NBEHI-BHF_13
 70
     0
  0
APPID
  5
5E8
330
9
100
AcDbSymbolTableRecord
100
AcDbRegAppTableRecord
  2
GENIUS_GENOREF_13
 70
     0
  0
APPID
  5
5E9
330
9
100
AcDbSymbolTableRecord
100
AcDbRegAppTableRecord
  2
GENIUS_GENOBJ-NBEHI-BHB_13
 70
     0
  0
APPID
  5
5EA
330
9
100
AcDbSymbolTableRecord
100
AcDbRegAppTableRecord
  2
GENIUS_GEFWELD_13
 70
     0
  0
APPID
  5
5EB
330
9
100
AcDbSymbolTableRecord
100
AcDbRegAppTableRecord
  2
GENIUS_GENOBJ-F-WELS_13
 70
     0
  0
APPID
  5
B5D
330
9
100
AcDbSymbolTableRecord
100
AcDbRegAppTableRecord
  2
GENIUS_GENDTOL_13
 70
     0
  0
APPID
  5
B5E
330
9
100
AcDbSymbolTableRecord
100
AcDbRegAppTableRecord
  2
ACAD_PSEXT
 70
     0
  0
APPID
  5
E3E
330
9
100
AcDbSymbolTableRecord
100
AcDbRegAppTableRecord
  2
GENIUS_GENDIMSH_14
 70
     0
  0
APPID
  5
EAE
330
9
100
AcDbSymbolTableRecord
100
AcDbRegAppTableRecord
  2
AcAecLayerStandard
 70
     0
  0
APPID
  5
2D42
330
9
100
AcDbSymbolTableRecord
100
AcDbRegAppTableRecord
  2
ACAD_MLEADERVER
 70
     0
  0
APPID
  5
2DBF
330
9
100
AcDbSymbolTableRecord
100
AcDbRegAppTableRecord
  2
ACAD_DSTYLE_DIMINSPECT
 70
     0
  0
ENDTAB
  0
TABLE
  2
DIMSTYLE
  5
A
330
0
100
AcDbSymbolTable
 70
    19
100
AcDbDimStyleTable
 71
     2
340
124D
340
81
  0
DIMSTYLE
105
81
330
A
100
AcDbSymbolTableRecord
100
AcDbDimStyleTableRecord
  2
AM_ISO
 70
     0
  4
"
 41
2.5
 42
1.0
 43
10.0
 44
1.0
 47
0.1
 48
0.1
 73
     0
 74
     0
 77
     1
 78
     8
 79
     2
140
3.5
141
0.0
143
0.0393701
146
0.71
147
1.5
172
     1
176
   256
177
   256
178
     2
271
     2
272
     3
274
     4
283
     0
284
     8
340
11
371
    -1
372
    -1
1001
ACAD_DSTYLE_DIMJOGGED_JOGANGLE_SYMBOL
1070
   384
1040
0.7853981633974483
1001
ACAD_DSTYLE_DIMARC_LENGTH_SYMBOL
1070
   379
1070
     1
  0
DIMSTYLE
105
82
330
A
100
AcDbSymbolTableRecord
100
AcDbDimStyleTableRecord
  2
AM_ISO$3
 70
     0
  4
"
 41
2.5
 42
1.0
 43
10.0
 44
1.0
 47
0.1
 48
0.1
 73
     0
 77
     1
 78
     8
 79
     2
140
3.5
141
0.0
143
0.0393701
146
0.71
147
1.5
176
   256
177
   256
178
     2
271
     2
272
     3
274
     4
283
     0
284
     8
288
     1
289
     0
340
11
371
    -1
372
    -1
1001
ACAD_DSTYLE_DIMJOGGED_JOGANGLE_SYMBOL
1070
   384
1040
0.7853981633974483
1001
ACAD_DSTYLE_DIMARC_LENGTH_SYMBOL
1070
   379
1070
     1
  0
DIMSTYLE
105
83
330
A
100
AcDbSymbolTableRecord
100
AcDbDimStyleTableRecord
  2
AM_ISO$4
 70
     0
  4
"
 41
2.5
 42
1.0
 43
10.0
 44
1.0
 47
0.1
 48
0.1
 73
     0
 77
     1
 78
     8
 79
     2
140
3.5
141
0.0
143
0.0393701
146
0.71
147
1.5
176
   256
177
   256
178
     2
271
     2
272
     3
274
     4
283
     0
284
     8
288
     1
289
     0
340
11
371
    -1
372
    -1
1001
ACAD_DSTYLE_DIMJOGGED_JOGANGLE_SYMBOL
1070
   384
1040
0.7853981633974483
1001
ACAD_DSTYLE_DIMARC_LENGTH_SYMBOL
1070
   379
1070
     1
  0
DIMSTYLE
105
84
330
A
100
AcDbSymbolTableRecord
100
AcDbDimStyleTableRecord
  2
AM_ISO$6
 70
     0
  4
"
 41
2.5
 42
1.0
 43
10.0
 44
1.0
 47
0.1
 48
0.1
 73
     0
 74
     0
 78
     8
 79
     2
140
3.5
141
0.0
143
0.0393701
146
0.71
147
1.5
172
     1
176
   256
177
   256
178
     2
271
     2
272
     3
274
     4
283
     0
284
     8
340
11
371
    -1
372
    -1
1001
ACAD_DSTYLE_DIMJOGGED_JOGANGLE_SYMBOL
1070
   384
1040
0.7853981633974483
1001
ACAD_DSTYLE_DIMARC_LENGTH_SYMBOL
1070
   379
1070
     1
  0
DIMSTYLE
105
85
330
A
100
AcDbSymbolTableRecord
100
AcDbDimStyleTableRecord
  2
AM_ISO$7
 70
     0
  4
"
 41
2.5
 42
1.0
 43
10.0
 44
1.0
 47
0.1
 48
0.1
 73
     0
 74
     0
 77
     1
 78
     8
 79
     2
140
5.0
141
0.0
143
0.0393701
146
0.71
147
1.5
172
     1
176
   256
177
   256
178
     2
271
     2
272
     3
274
     4
283
     0
284
     8
340
11
371
    -1
372
    -1
1001
ACAD_DSTYLE_DIMJOGGED_JOGANGLE_SYMBOL
1070
   384
1040
0.7853981633974483
1001
ACAD_DSTYLE_DIMARC_LENGTH_SYMBOL
1070
   379
1070
     1
  0
DIMSTYLE
105
86
330
A
100
AcDbSymbolTableRecord
100
AcDbDimStyleTableRecord
  2
AM_ISO$SF
 70
     0
  4
"
 41
2.5
 42
1.0
 43
10.0
 44
1.0
 47
0.1
 48
0.1
 73
     0
 74
     0
 75
     1
 76
     1
 77
     1
 78
     8
 79
     2
140
3.5
141
0.0
143
0.0393701
146
0.71
147
1.5
172
     1
176
   256
177
   256
178
     2
271
     2
272
     3
274
     4
283
     0
284
     8
340
11
371
    -1
372
    -1
1001
ACAD_DSTYLE_DIMJOGGED_JOGANGLE_SYMBOL
1070
   384
1040
0.7853981633974483
1001
ACAD_DSTYLE_DIMARC_LENGTH_SYMBOL
1070
   379
1070
     1
  0
DIMSTYLE
105
8B
330
A
100
AcDbSymbolTableRecord
100
AcDbDimStyleTableRecord
  2
AM_ISO$SH
 70
     0
  4
"
 41
2.5
 42
1.0
 43
10.0
 44
1.0
 47
0.1
 48
0.1
 73
     0
 74
     0
 75
     1
 76
     1
 77
     1
 78
     8
 79
     2
140
3.5
141
0.0
143
0.0393701
144
2.0
146
0.71
147
1.5
172
     1
173
     1
176
   256
177
   256
178
     2
271
     2
272
     3
274
     4
283
     0
284
     8
340
11
343
87
371
    -1
372
    -1
1001
ACAD_DSTYLE_DIMJOGGED_JOGANGLE_SYMBOL
1070
   384
1040
0.7853981633974483
1001
ACAD_DSTYLE_DIMARC_LENGTH_SYMBOL
1070
   379
1070
     1
  0
DIMSTYLE
105
5D3
330
A
100
AcDbSymbolTableRecord
100
AcDbDimStyleTableRecord
  2
AM_DIN
 70
     0
  4
"
 41
2.5
 42
1.0
 43
10.0
 44
1.0
 47
0.1
 48
0.1
 73
     0
 74
     0
 77
     1
 78
     8
 79
     2
140
3.5
141
0.0
143
0.0393701
146
0.71
147
1.5
172
     1
176
   256
177
   256
178
     2
271
     2
272
     3
274
     4
283
     0
284
     8
340
11
371
    -1
372
    -1
1001
ACAD_DSTYLE_DIMJOGGED_JOGANGLE_SYMBOL
1070
   384
1040
1.570796326794896
  0
DIMSTYLE
105
5D4
330
A
100
AcDbSymbolTableRecord
100
AcDbDimStyleTableRecord
  2
AM_DIN$3
 70
     0
  4
"
 41
2.5
 42
1.0
 43
10.0
 44
1.0
 47
0.1
 48
0.1
 73
     0
 77
     1
 78
     8
 79
     2
140
3.5
141
0.0
143
0.0393701
146
0.71
147
1.5
176
   256
177
   256
178
     2
271
     2
272
     3
274
     4
283
     0
284
     8
288
     1
289
     0
340
11
371
    -1
372
    -1
1001
ACAD_DSTYLE_DIMJOGGED_JOGANGLE_SYMBOL
1070
   384
1040
1.570796326794896
  0
DIMSTYLE
105
5D5
330
A
100
AcDbSymbolTableRecord
100
AcDbDimStyleTableRecord
  2
AM_DIN$4
 70
     0
  4
"
 41
2.5
 42
1.0
 43
10.0
 44
1.0
 47
0.1
 48
0.1
 73
     0
 77
     1
 78
     8
 79
     2
140
3.5
141
0.0
143
0.0393701
146
0.71
147
1.5
176
   256
177
   256
178
     2
271
     2
272
     3
274
     4
283
     0
284
     8
288
     1
289
     0
340
11
371
    -1
372
    -1
1001
ACAD_DSTYLE_DIMJOGGED_JOGANGLE_SYMBOL
1070
   384
1040
1.570796326794896
  0
DIMSTYLE
105
5D6
330
A
100
AcDbSymbolTableRecord
100
AcDbDimStyleTableRecord
  2
AM_DIN$6
 70
     0
  4
"
 41
2.5
 42
1.0
 43
10.0
 44
1.0
 47
0.1
 48
0.1
 73
     0
 74
     0
 78
     8
 79
     2
140
3.5
141
0.0
143
0.0393701
146
0.71
147
1.5
172
     1
176
   256
177
   256
178
     2
271
     2
272
     3
274
     4
283
     0
284
     8
340
11
371
    -1
372
    -1
1001
ACAD_DSTYLE_DIMJOGGED_JOGANGLE_SYMBOL
1070
   384
1040
1.570796326794896
  0
DIMSTYLE
105
5D7
330
A
100
AcDbSymbolTableRecord
100
AcDbDimStyleTableRecord
  2
AM_DIN$7
 70
     0
  4
"
 41
2.5
 42
1.0
 43
10.0
 44
1.0
 47
0.1
 48
0.1
 73
     0
 74
     0
 77
     1
 78
     8
 79
     2
140
5.0
141
0.0
143
0.0393701
146
0.71
147
1.5
172
     1
176
   256
177
   256
178
     2
271
     2
272
     3
274
     4
283
     0
284
     8
340
11
371
    -1
372
    -1
1001
ACAD_DSTYLE_DIMJOGGED_JOGANGLE_SYMBOL
1070
   384
1040
1.570796326794896
  0
DIMSTYLE
105
5D8
330
A
100
AcDbSymbolTableRecord
100
AcDbDimStyleTableRecord
  2
AM_DIN$SF
 70
     0
  4
"
 41
2.5
 42
1.0
 43
10.0
 44
1.0
 47
0.1
 48
0.1
 73
     0
 74
     0
 75
     1
 76
     1
 77
     1
 78
     8
 79
     2
140
3.5
141
0.0
143
0.0393701
146
0.71
147
1.5
172
     1
176
   256
177
   256
178
     2
271
     2
272
     3
274
     4
283
     0
284
     8
340
11
371
    -1
372
    -1
1001
ACAD_DSTYLE_DIMJOGGED_JOGANGLE_SYMBOL
1070
   384
1040
1.570796326794896
  0
DIMSTYLE
105
5D9
330
A
100
AcDbSymbolTableRecord
100
AcDbDimStyleTableRecord
  2
AM_DIN$SH
 70
     0
  4
"
 41
2.5
 42
1.0
 43
10.0
 44
1.0
 47
0.1
 48
0.1
 73
     0
 74
     0
 75
     1
 76
     1
 77
     1
 78
     8
 79
     2
140
3.5
141
0.0
143
0.0393701
144
2.0
146
0.71
147
1.5
172
     1
173
     1
176
   256
177
   256
178
     2
271
     2
272
     3
274
     4
283
     0
284
     8
340
11
343
87
371
    -1
372
    -1
1001
ACAD_DSTYLE_DIMJOGGED_JOGANGLE_SYMBOL
1070
   384
1040
1.570796326794896
  0
DIMSTYLE
105
E50
330
A
100
AcDbSymbolTableRecord
100
AcDbDimStyleTableRecord
  2
AM_ISO$0
 70
     0
  4
"
 41
2.5
 42
1.0
 43
10.0
 44
1.0
 47
0.1
 48
0.1
 73
     0
 74
     0
 77
     1
 78
     8
 79
     2
140
3.5
141
0.0
143
0.0393701
146
0.71
147
1.5
172
     1
176
   256
177
   256
178
     2
271
     2
272
     3
274
     4
283
     0
284
     8
340
11
371
    -1
372
    -1
1001
ACAD_DSTYLE_DIMJOGGED_JOGANGLE_SYMBOL
1070
   384
1040
0.7853981633974483
1001
ACAD_DSTYLE_DIMARC_LENGTH_SYMBOL
1070
   379
1070
     1
  0
DIMSTYLE
105
124D
102
{ACAD_REACTORS
330
2835
330
2836
330
2C55
330
2844
330
2C88
102
}
330
A
100
AcDbSymbolTableRecord
100
AcDbDimStyleTableRecord
  2
GEN-ISO
 70
     0
  3
<>
  4
"
 41
2.5
 42
1.0
 43
7.0
 44
1.0
 47
0.1
 48
0.1
 73
     0
 74
     0
 77
     1
 78
     8
140
4.0
141
0.0
143
0.0393701
146
0.71
147
0.6
172
     1
176
   256
177
   256
178
     2
271
     2
272
     3
274
     4
283
     0
340
11
  0
ENDTAB
  0
TABLE
  2
BLOCK_RECORD
  5
1
330
0
100
AcDbSymbolTable
 70
    50
  0
BLOCK_RECORD
  5
1F
102
{ACAD_XDICTIONARY
360
8F
102
}
330
1
100
AcDbSymbolTableRecord
100
AcDbBlockTableRecord
  2
*Model_Space
340
22
  0
BLOCK_RECORD
  5
1B
330
1
100
AcDbSymbolTableRecord
100
AcDbBlockTableRecord
  2
*Paper_Space
340
1E
  0
BLOCK_RECORD
  5
23
330
1
100
AcDbSymbolTableRecord
100
AcDbBlockTableRecord
  2
*Paper_Space0
340
26
  0
BLOCK_RECORD
  5
87
330
1
100
AcDbSymbolTableRecord
100
AcDbBlockTableRecord
  2
GENAXEH
340
0
  0
BLOCK_RECORD
  5
56C
330
1
100
AcDbSymbolTableRecord
100
AcDbBlockTableRecord
  2
*X5
340
0
102
{BLKREFS
331
2B8A
102
}
  0
BLOCK_RECORD
  5
573
330
1
100
AcDbSymbolTableRecord
100
AcDbBlockTableRecord
  2
*X6
340
0
102
{BLKREFS
331
2B91
102
}
  0
BLOCK_RECORD
  5
291F
330
1
100
AcDbSymbolTableRecord
100
AcDbBlockTableRecord
  2
*D36
340
0
  0
BLOCK_RECORD
  5
292B
330
1
100
AcDbSymbolTableRecord
100
AcDbBlockTableRecord
  2
*D37
340
0
  0
BLOCK_RECORD
  5
294E
330
1
100
AcDbSymbolTableRecord
100
AcDbBlockTableRecord
  2
*D38
340
0
  0
BLOCK_RECORD
  5
2C56
330
1
100
AcDbSymbolTableRecord
100
AcDbBlockTableRecord
  2
*D40
340
0
  0
BLOCK_RECORD
  5
2C89
330
1
100
AcDbSymbolTableRecord
100
AcDbBlockTableRecord
  2
*D41
340
0
  0
BLOCK_RECORD
  5
3091
330
1
100
AcDbSymbolTableRecord
100
AcDbBlockTableRecord
  2
*U48
340
0
  0
BLOCK_RECORD
  5
30A6
330
1
100
AcDbSymbolTableRecord
100
AcDbBlockTableRecord
  2
*U49
340
0
  0
ENDTAB
  0
ENDSEC
  0
SECTION
  2
BLOCKS
  0
BLOCK
  5
20
330
1F
100
AcDbEntity
  8
0
100
AcDbBlockBegin
  2
*Model_Space
 70
     0
 10
0.0
 20
0.0
 30
0.0
  3
*Model_Space
  1

  0
ENDBLK
  5
21
330
1F
100
AcDbEntity
  8
0
100
AcDbBlockEnd
  0
BLOCK
  5
1C
330
1B
100
AcDbEntity
 67
     1
  8
0
100
AcDbBlockBegin
  2
*Paper_Space
 70
     0
 10
0.0
 20
0.0
 30
0.0
  3
*Paper_Space
  1

  0
ENDBLK
  5
1D
330
1B
100
AcDbEntity
 67
     1
  8
0
100
AcDbBlockEnd
  0
BLOCK
  5
24
330
23
100
AcDbEntity
 67
     1
  8
0
100
AcDbBlockBegin
  2
*Paper_Space0
 70
     0
 10
0.0
 20
0.0
 30
0.0
  3
*Paper_Space0
  1

  0
ENDBLK
  5
25
330
23
100
AcDbEntity
 67
     1
  8
0
100
AcDbBlockEnd
  0
BLOCK
  5
89
330
87
100
AcDbEntity
  8
0
100
AcDbBlockBegin
  2
GENAXEH
 70
     0
 10
0.0
 20
0.0
 30
0.0
  3
GENAXEH
  1

  0
LINE
  5
88
330
87
100
AcDbEntity
  8
0
100
AcDbLine
 10
-1.0
 20
0.0
 30
0.0
 11
1.0
 21
0.0
 31
0.0
  0
ENDBLK
  5
8A
330
87
100
AcDbEntity
  8
0
100
AcDbBlockEnd
  0
BLOCK
  5
56D
330
56C
100
AcDbEntity
  8
0
100
AcDbBlockBegin
  2
*X5
 70
     1
 10
0.0
 20
0.0
 30
0.0
  3
*X5
  1

  0
LINE
  5
56E
330
56C
100
AcDbEntity
  8
8
100
AcDbLine
 10
305.438
 20
364.986
 30
0.0
 11
311.866
 21
371.414
 31
0.0
  0
LINE
  5
56F
330
56C
100
AcDbEntity
  8
8
100
AcDbLine
 10
300.953
 20
364.991
 30
0.0
 11
306.992
 21
371.031
 31
0.0
  0
LINE
  5
570
330
56C
100
AcDbEntity
  8
8
100
AcDbLine
 10
296.584
 20
365.112
 30
0.0
 11
302.502
 21
371.031
 31
0.0
  0
LINE
  5
571
330
56C
100
AcDbEntity
  8
8
100
AcDbLine
 10
295.392
 20
368.41
 30
0.0
 11
298.012
 21
371.031
 31
0.0
  0
ENDBLK
  5
572
330
56C
100
AcDbEntity
  8
0
100
AcDbBlockEnd
  0
BLOCK
  5
574
330
573
100
AcDbEntity
  8
0
100
AcDbBlockBegin
  2
*X6
 70
     1
 10
0.0
 20
0.0
 30
0.0
  3
*X6
  1

  0
LINE
  5
575
330
573
100
AcDbEntity
  8
8
100
AcDbLine
 10
349.919
 20
364.566
 30
0.0
 11
356.195
 21
370.842
 31
0.0
  0
LINE
  5
576
330
573
100
AcDbEntity
  8
8
100
AcDbLine
 10
345.72
 20
364.857
 30
0.0
 11
351.8930000000001
 21
371.03
 31
0.0
  0
LINE
  5
577
330
573
100
AcDbEntity
  8
8
100
AcDbLine
 10
341.694
 20
365.321
 30
0.0
 11
347.403
 21
371.03
 31
0.0
  0
LINE
  5
578
330
573
100
AcDbEntity
  8
8
100
AcDbLine
 10
337.033
 20
365.15
 30
0.0
 11
342.913
 21
371.03
 31
0.0
  0
LINE
  5
579
330
573
100
AcDbEntity
  8
8
100
AcDbLine
 10
332.159
 20
364.767
 30
0.0
 11
338.423
 21
371.03
 31
0.0
  0
LINE
  5
57A
330
573
100
AcDbEntity
  8
8
100
AcDbLine
 10
327.946
 20
365.043
 30
0.0
 11
333.933
 21
371.03
 31
0.0
  0
LINE
  5
57B
330
573
100
AcDbEntity
  8
8
100
AcDbLine
 10
325.3
 20
366.887
 30
0.0
 11
329.4430000000001
 21
371.031
 31
0.0
  0
LINE
  5
57C
330
573
100
AcDbEntity
  8
8
100
AcDbLine
 10
324.6090000000001
 20
370.6869999999999
 30
0.0
 11
326.851
 21
372.929
 31
0.0
  0
ENDBLK
  5
57D
330
573
100
AcDbEntity
  8
0
100
AcDbBlockEnd
  0
BLOCK
  5
2929
330
291F
100
AcDbEntity
  8
0
100
AcDbBlockBegin
  2
*D36
 70
     1
 10
0.0
 20
0.0
 30
0.0
  3
*D36
  1

  0
LINE
  5
2DAD
330
291F
100
AcDbEntity
  8
BEMASS
370
    -2
100
AcDbLine
 10
763.2226041412756
 20
338.5385182665254
 30
0.0
 11
763.2226041412756
 21
389.0290354516096
 31
0.0
  0
LINE
  5
2DAE
330
291F
100
AcDbEntity
  8
BEMASS
370
    -2
100
AcDbLine
 10
473.2226041412759
 20
338.5385182665256
 30
0.0
 11
473.2226041412759
 21
389.0290354516096
 31
0.0
  0
LINE
  5
2DAF
330
291F
100
AcDbEntity
  8
BEMASS
370
    -2
100
AcDbLine
 10
760.7226041412757
 20
388.0290354516096
 30
0.0
 11
475.7226041412759
 21
388.0290354516096
 31
0.0
  0
SOLID
  5
2DB0
330
291F
100
AcDbEntity
  8
BEMASS
100
AcDbTrace
 10
760.7226041412757
 20
388.4457021182763
 30
0.0
 11
760.7226041412757
 21
387.6123687849429
 31
0.0
 12
763.2226041412756
 22
388.0290354516096
 32
0.0
 13
763.2226041412756
 23
388.0290354516096
 33
0.0
  0
SOLID
  5
2DB1
330
291F
100
AcDbEntity
  8
BEMASS
100
AcDbTrace
 10
475.7226041412759
 20
388.4457021182763
 30
0.0
 11
475.7226041412759
 21
387.6123687849429
 31
0.0
 12
473.2226041412759
 22
388.0290354516096
 32
0.0
 13
473.2226041412759
 23
388.0290354516096
 33
0.0
  0
MTEXT
  5
2DB2
330
291F
100
AcDbEntity
  8
BEMASS
 62
     2
100
AcDbMText
 10
618.2226041412758
 20
391.6296260027907
 30
0.0
 40
6.0
 41
0.0
 71
     5
 72
     1
  1
%%c290
 73
     1
 44
1.0
  0
POINT
  5
2DB3
330
291F
100
AcDbEntity
  8
Defpoints
 62
     0
100
AcDbPoint
 10
763.2226041412756
 20
337.5385182665255
 30
0.0
  0
POINT
  5
2DB4
330
291F
100
AcDbEntity
  8
Defpoints
 62
     0
100
AcDbPoint
 10
473.2226041412759
 20
337.5385182665255
 30
0.0
  0
POINT
  5
2DB5
330
291F
100
AcDbEntity
  8
Defpoints
 62
     0
100
AcDbPoint
 10
473.2226041412759
 20
388.0290354516096
 30
0.0
  0
ENDBLK
  5
292A
330
291F
100
AcDbEntity
  8
0
100
AcDbBlockEnd
  0
BLOCK
  5
2935
330
292B
100
AcDbEntity
  8
0
100
AcDbBlockBegin
  2
*D37
 70
     1
 10
0.0
 20
0.0
 30
0.0
  3
*D37
  1

  0
LINE
  5
2D87
330
292B
100
AcDbEntity
  8
BEMASS
370
    -2
100
AcDbLine
 10
547.2226041412759
 20
344.5385182665252
 30
0.0
 11
547.2226041412759
 21
369.7992451231496
 31
0.0
  0
LINE
  5
2D88
330
292B
100
AcDbEntity
  8
BEMASS
370
    -2
100
AcDbLine
 10
689.2226041412759
 20
344.5385182665252
 30
0.0
 11
689.2226041412759
 21
369.7992451231496
 31
0.0
  0
LINE
  5
2D89
330
292B
100
AcDbEntity
  8
BEMASS
370
    -2
100
AcDbLine
 10
549.7226041412759
 20
368.7992451231496
 30
0.0
 11
686.7226041412759
 21
368.7992451231496
 31
0.0
  0
SOLID
  5
2D8A
330
292B
100
AcDbEntity
  8
BEMASS
100
AcDbTrace
 10
549.7226041412759
 20
369.2159117898163
 30
0.0
 11
549.7226041412759
 21
368.3825784564829
 31
0.0
 12
547.2226041412759
 22
368.7992451231496
 32
0.0
 13
547.2226041412759
 23
368.7992451231496
 33
0.0
  0
SOLID
  5
2D8B
330
292B
100
AcDbEntity
  8
BEMASS
100
AcDbTrace
 10
686.7226041412759
 20
369.2159117898163
 30
0.0
 11
686.7226041412759
 21
368.3825784564829
 31
0.0
 12
689.2226041412759
 22
368.7992451231496
 32
0.0
 13
689.2226041412759
 23
368.7992451231496
 33
0.0
  0
MTEXT
  5
2D8C
330
292B
100
AcDbEntity
  8
BEMASS
 62
     2
100
AcDbMText
 10
618.2226041412759
 20
372.3998356743307
 30
0.0
 40
6.0
 41
0.0
 71
     5
 72
     1
  1
%%c142
 73
     1
 44
1.0
  0
POINT
  5
2D8D
330
292B
100
AcDbEntity
  8
Defpoints
 62
     0
100
AcDbPoint
 10
547.2226041412759
 20
343.5385182665252
 30
0.0
  0
POINT
  5
2D8E
330
292B
100
AcDbEntity
  8
Defpoints
 62
     0
100
AcDbPoint
 10
689.2226041412759
 20
343.5385182665252
 30
0.0
  0
POINT
  5
2D8F
330
292B
100
AcDbEntity
  8
Defpoints
 62
     0
100
AcDbPoint
 10
689.2226041412759
 20
368.7992451231496
 30
0.0
  0
ENDBLK
  5
2936
330
292B
100
AcDbEntity
  8
0
100
AcDbBlockEnd
  0
BLOCK
  5
295A
330
294E
100
AcDbEntity
  8
0
100
AcDbBlockBegin
  2
*D38
 70
     1
 10
0.0
 20
0.0
 30
0.0
  3
*D38
  1

  0
LINE
  5
2FE4
330
294E
100
AcDbEntity
  8
BEMASS
370
    -2
100
AcDbLine
 10
472.2226041412759
 20
337.5385182665255
 30
0.0
 11
447.9241073749695
 21
337.5385182665255
 31
0.0
  0
LINE
  5
2FE5
330
294E
100
AcDbEntity
  8
BEMASS
370
    -2
100
AcDbLine
 10
475.3783151034699
 20
343.5385182665258
 30
0.0
 11
447.9241073749695
 21
343.5385182665258
 31
0.0
  0
LINE
  5
2FE6
330
294E
100
AcDbEntity
  8
BEMASS
370
    -2
100
AcDbLine
 10
448.9241073749695
 20
335.0385182665255
 30
0.0
 11
448.9241073749695
 21
332.5385182665256
 31
0.0
  0
LINE
  5
2FE7
330
294E
100
AcDbEntity
  8
BEMASS
370
    -2
100
AcDbLine
 10
448.9241073749695
 20
346.0385182665258
 30
0.0
 11
448.9241073749695
 21
348.5385182665258
 31
0.0
  0
LINE
  5
2FE8
330
294E
100
AcDbEntity
  8
BEMASS
370
    -2
100
AcDbLine
 10
448.9241073749695
 20
337.5385182665255
 30
0.0
 11
448.9241073749695
 21
343.5385182665258
 31
0.0
  0
SOLID
  5
2FE9
330
294E
100
AcDbEntity
  8
BEMASS
100
AcDbTrace
 10
448.5074407083027
 20
335.0385182665255
 30
0.0
 11
449.3407740416361
 21
335.0385182665255
 31
0.0
 12
448.9241073749695
 22
337.5385182665255
 32
0.0
 13
448.9241073749695
 23
337.5385182665255
 33
0.0
  0
SOLID
  5
2FEA
330
294E
100
AcDbEntity
  8
BEMASS
100
AcDbTrace
 10
448.5074407083027
 20
346.0385182665258
 30
0.0
 11
449.3407740416361
 21
346.0385182665258
 31
0.0
 12
448.9241073749695
 22
343.5385182665258
 32
0.0
 13
448.9241073749695
 23
343.5385182665258
 33
0.0
  0
MTEXT
  5
2FEB
330
294E
100
AcDbEntity
  8
BEMASS
 62
     2
100
AcDbMText
 10
445.3241073749693
 20
340.5385182665258
 30
0.0
 40
6.0
 41
0.0
 71
     5
 72
     1
  1
6
 11
0.0000000000000001
 21
1.0
 31
0.0
 73
     1
 44
1.0
  0
POINT
  5
2FEC
330
294E
100
AcDbEntity
  8
Defpoints
 62
     0
100
AcDbPoint
 10
473.2226041412759
 20
337.5385182665255
 30
0.0
  0
POINT
  5
2FED
330
294E
100
AcDbEntity
  8
Defpoints
 62
     0
100
AcDbPoint
 10
476.3783151034699
 20
343.5385182665258
 30
0.0
  0
POINT
  5
2FEE
330
294E
100
AcDbEntity
  8
Defpoints
 62
     0
100
AcDbPoint
 10
448.9241073749695
 20
343.5385182665258
 30
0.0
  0
ENDBLK
  5
295B
330
294E
100
AcDbEntity
  8
0
100
AcDbBlockEnd
  0
BLOCK
  5
2C60
330
2C56
100
AcDbEntity
  8
0
100
AcDbBlockBegin
  2
*D40
 70
     1
 10
0.0
 20
0.0
 30
0.0
  3
*D40
  1

  0
LINE
  5
3040
330
2C56
100
AcDbEntity
  8
BEMASS
370
    -2
100
AcDbLine
 10
762.6738622032982
 20
342.9536293743232
 30
0.0
 11
801.3700926371198
 21
342.9536293743232
 31
0.0
  0
LINE
  5
3041
330
2C56
100
AcDbEntity
  8
BEMASS
370
    -2
100
AcDbLine
 10
668.2227793048997
 20
93.53851826652544
 30
0.0
 11
801.3700926371198
 21
93.53851826652539
 31
0.0
  0
LINE
  5
3042
330
2C56
100
AcDbEntity
  8
BEMASS
370
    -2
100
AcDbLine
 10
800.3700926371198
 20
340.4536293743232
 30
0.0
 11
800.3700926371198
 21
96.03851826652539
 31
0.0
  0
SOLID
  5
3043
330
2C56
100
AcDbEntity
  8
BEMASS
100
AcDbTrace
 10
799.9534259704533
 20
340.4536293743232
 30
0.0
 11
800.7867593037865
 21
340.4536293743232
 31
0.0
 12
800.3700926371198
 22
342.9536293743232
 32
0.0
 13
800.3700926371198
 23
342.9536293743232
 33
0.0
  0
SOLID
  5
3044
330
2C56
100
AcDbEntity
  8
BEMASS
100
AcDbTrace
 10
799.9534259704532
 20
96.0385182665254
 30
0.0
 11
800.7867593037865
 21
96.03851826652539
 31
0.0
 12
800.3700926371198
 22
93.53851826652539
 32
0.0
 13
800.3700926371198
 23
93.53851826652539
 33
0.0
  0
MTEXT
  5
3045
330
2C56
100
AcDbEntity
  8
BEMASS
 62
     2
100
AcDbMText
 10
796.7695020859387
 20
218.2460738204244
 30
0.0
 40
6.0
 41
0.0
 71
     5
 72
     1
  1
250
 11
0.0000000000000001
 21
1.0
 31
0.0
 73
     1
 44
1.0
  0
POINT
  5
3046
330
2C56
100
AcDbEntity
  8
Defpoints
 62
     0
100
AcDbPoint
 10
761.6738622032983
 20
342.9536293743232
 30
0.0
  0
POINT
  5
3047
330
2C56
100
AcDbEntity
  8
Defpoints
 62
     0
100
AcDbPoint
 10
667.2227793048997
 20
93.53851826652544
 30
0.0
  0
POINT
  5
3048
330
2C56
100
AcDbEntity
  8
Defpoints
 62
     0
100
AcDbPoint
 10
800.3700926371198
 20
93.53851826652539
 30
0.0
  0
ENDBLK
  5
2C61
330
2C56
100
AcDbEntity
  8
0
100
AcDbBlockEnd
  0
BLOCK
  5
2C93
330
2C89
100
AcDbEntity
  8
0
100
AcDbBlockBegin
  2
*D41
 70
     1
 10
0.0
 20
0.0
 30
0.0
  3
*D41
  1

  0
LINE
  5
2DD2
330
2C89
100
AcDbEntity
  8
BEMASS
370
    -2
100
AcDbLine
 10
673.2226041412758
 20
92.53851826652544
 30
0.0
 11
673.2226041412758
 21
44.96171219288771
 31
0.0
  0
LINE
  5
2DD3
330
2C89
100
AcDbEntity
  8
BEMASS
370
    -2
100
AcDbLine
 10
563.2290267137356
 20
91.69801739135753
 30
0.0
 11
563.2290267137356
 21
44.96171219288771
 31
0.0
  0
LINE
  5
2DD4
330
2C89
100
AcDbEntity
  8
BEMASS
370
    -2
100
AcDbLine
 10
670.7226041412758
 20
45.96171219288772
 30
0.0
 11
565.7290267137357
 21
45.96171219288772
 31
0.0
  0
SOLID
  5
2DD5
330
2C89
100
AcDbEntity
  8
BEMASS
100
AcDbTrace
 10
670.7226041412758
 20
46.37837885955438
 30
0.0
 11
670.7226041412758
 21
45.54504552622105
 31
0.0
 12
673.2226041412758
 22
45.96171219288772
 32
0.0
 13
673.2226041412758
 23
45.96171219288772
 33
0.0
  0
SOLID
  5
2DD6
330
2C89
100
AcDbEntity
  8
BEMASS
100
AcDbTrace
 10
565.7290267137357
 20
46.37837885955438
 30
0.0
 11
565.7290267137357
 21
45.54504552622105
 31
0.0
 12
563.2290267137356
 22
45.96171219288772
 32
0.0
 13
563.2290267137356
 23
45.96171219288772
 33
0.0
  0
MTEXT
  5
2DD7
330
2C89
100
AcDbEntity
  8
BEMASS
 62
     2
100
AcDbMText
 10
618.2258154275057
 20
49.56171219288772
 30
0.0
 40
6.0
 41
0.0
 71
     5
 72
     1
  1
%%c110
 73
     1
 44
1.0
  0
POINT
  5
2DD8
330
2C89
100
AcDbEntity
  8
Defpoints
 62
     0
100
AcDbPoint
 10
673.2226041412758
 20
93.53851826652544
 30
0.0
  0
POINT
  5
2DD9
330
2C89
100
AcDbEntity
  8
Defpoints
 62
     0
100
AcDbPoint
 10
563.2290267137356
 20
92.69801739135752
 30
0.0
  0
POINT
  5
2DDA
330
2C89
100
AcDbEntity
  8
Defpoints
 62
     0
100
AcDbPoint
 10
563.2290267137356
 20
45.96171219288772
 30
0.0
  0
ENDBLK
  5
2C94
330
2C89
100
AcDbEntity
  8
0
100
AcDbBlockEnd
  0
BLOCK
  5
30A3
330
3091
100
AcDbEntity
  8
0
100
AcDbBlockBegin
  2
*U48
 70
     1
 10
0.0
 20
0.0
 30
0.0
  3
*U48
  1

  0
ARC
  5
3092
330
3091
100
AcDbEntity
  8
AM_0N
100
AcDbCircle
 10
512.591979141276
 20
354.7441623336711
 30
0.0
 40
3.318843022839333
100
AcDbArc
 50
55.56153059526803
 51
115.5615305952687
  0
ARC
  5
3093
330
3091
100
AcDbEntity
  8
AM_0N
100
AcDbCircle
 10
512.591979141276
 20
355.7478737831342
 30
0.0
 40
3.318843022839333
100
AcDbArc
 50
244.4384694047314
 51
304.438469404732
  0
LINE
  5
3094
330
3091
100
AcDbEntity
  8
AM_0N
100
AcDbLine
 10
512.4726041412761
 20
358.4960180584026
 30
0.0
 11
523.972604141276
 21
358.4960180584026
 31
0.0
  0
LINE
  5
3095
330
3091
100
AcDbEntity
  8
AM_0N
100
AcDbLine
 10
512.4726041412761
 20
351.9960180584026
 30
0.0
 11
523.972604141276
 21
351.9960180584026
 31
0.0
  0
ARC
  5
3096
330
3091
100
AcDbEntity
  8
AM_0N
100
AcDbCircle
 10
523.853229141276
 20
354.7441623336711
 30
0.0
 40
3.318843022839363
100
AcDbArc
 50
64.43846940473168
 51
124.4384694047317
  0
ARC
  5
3097
330
3091
100
AcDbEntity
  8
AM_0N
100
AcDbCircle
 10
518.222604141276
 20
345.660153859466
 30
0.0
 40
12.4028514970445
100
AcDbArc
 50
72.38303115961318
 51
107.6169688403868
  0
ARC
  5
3098
330
3091
100
AcDbEntity
  8
AM_0N
100
AcDbCircle
 10
518.222604141276
 20
364.8318822573394
 30
0.0
 40
12.40285149704452
100
AcDbArc
 50
252.3830311596132
 51
287.6169688403867
  0
ARC
  5
3099
330
3091
100
AcDbEntity
  8
AM_0N
100
AcDbCircle
 10
523.853229141276
 20
355.7478737831342
 30
0.0
 40
3.318843022839333
100
AcDbArc
 50
235.5615305952681
 51
295.5615305952702
  0
LINE
  5
309A
330
3091
100
AcDbEntity
  8
AM_0N
100
AcDbLine
 10
525.730104141276
 20
357.4813249603018
 30
0.0
 11
523.972604141276
 21
358.4960180584026
 31
0.0
  0
LINE
  5
309B
330
3091
100
AcDbEntity
  8
AM_7N
  6
AM_ISO08W050x2
100
AcDbLine
 10
518.222604141276
 20
348.9960180584026
 30
0.0
 11
518.222604141276
 21
361.4960180584026
 31
0.0
  0
LINE
  5
309C
330
3091
100
AcDbEntity
  8
AM_0N
100
AcDbLine
 10
514.4688541412761
 20
353.0107111565034
 30
0.0
 11
514.4688541412761
 21
357.4813249603018
 31
0.0
  0
LINE
  5
309D
330
3091
100
AcDbEntity
  8
AM_0N
100
AcDbLine
 10
525.730104141276
 20
353.0107111565034
 30
0.0
 11
523.972604141276
 21
351.9960180584026
 31
0.0
  0
LINE
  5
309E
330
3091
100
AcDbEntity
  8
AM_0N
100
AcDbLine
 10
525.730104141276
 20
353.0107111565034
 30
0.0
 11
525.730104141276
 21
357.4813249603018
 31
0.0
  0
LINE
  5
309F
330
3091
100
AcDbEntity
  8
AM_0N
100
AcDbLine
 10
521.976354141276
 20
353.0107111565034
 30
0.0
 11
521.976354141276
 21
357.4813249603018
 31
0.0
  0
LINE
  5
30A0
330
3091
100
AcDbEntity
  8
AM_0N
100
AcDbLine
 10
510.7151041412761
 20
357.4813249603018
 30
0.0
 11
512.4726041412761
 21
358.4960180584026
 31
0.0
  0
LINE
  5
30A1
330
3091
100
AcDbEntity
  8
AM_0N
100
AcDbLine
 10
510.7151041412761
 20
353.0107111565034
 30
0.0
 11
512.4726041412761
 21
351.9960180584026
 31
0.0
  0
LINE
  5
30A2
330
3091
100
AcDbEntity
  8
AM_0N
100
AcDbLine
 10
510.7151041412761
 20
353.0107111565034
 30
0.0
 11
510.7151041412761
 21
357.4813249603018
 31
0.0
  0
ENDBLK
  5
30A4
330
3091
100
AcDbEntity
  8
0
100
AcDbBlockEnd
  0
BLOCK
  5
30C5
330
30A6
100
AcDbEntity
  8
0
100
AcDbBlockBegin
  2
*U49
 70
     1
 10
0.0
 20
0.0
 30
0.0
  3
*U49
  1

  0
ARC
  5
30A7
330
30A6
100
AcDbEntity
  8
AM_3N
  6
AM_ISO02W050x2
100
AcDbCircle
 10
518.2183979401337
 20
363.8053515956074
 30
0.0
 40
3.464999999999999
100
AcDbArc
 50
250.5287793655092
 51
289.4712206344904
  0
ARC
  5
30A8
330
30A6
100
AcDbEntity
  8
AM_3N
  6
AM_ISO02W050x2
100
AcDbCircle
 10
519.9508979401338
 20
361.2809140972017
 30
0.0
 40
0.9405625015943439
100
AcDbArc
 50
232.1211205082828
 51
292.1211205082801
  0
ARC
  5
30A9
330
30A6
100
AcDbEntity
  8
AM_3N
  6
AM_ISO02W050x2
100
AcDbCircle
 10
516.4858979401337
 20
361.2809140972017
 30
0.0
 40
0.9405625015943439
100
AcDbArc
 50
247.8788794917199
 51
307.8788794917171
  0
LINE
  5
30AA
330
30A6
100
AcDbEntity
  8
AM_0N
100
AcDbLine
 10
514.2183979401337
 20
364.7717057665255
 30
0.0
 11
514.2183979401337
 21
358.4960180584026
 31
0.0
  0
LINE
  5
30AB
330
30A6
100
AcDbEntity
  8
AM_9N
100
AcDbLine
 10
514.2183979401337
 20
358.4960180584026
 30
0.0
 11
514.2183979401337
 21
351.9960180584026
 31
0.0
  0
LINE
  5
30AC
330
30A6
100
AcDbEntity
  8
AM_0N
100
AcDbLine
 10
514.2183979401337
 20
351.9960180584026
 30
0.0
 11
514.2183979401337
 21
331.7885182665256
 31
0.0
  0
LINE
  5
30AD
330
30A6
100
AcDbEntity
  8
AM_0N
100
AcDbLine
 10
522.2183979401337
 20
331.7885182665256
 30
0.0
 11
522.2183979401337
 21
351.9960180584026
 31
0.0
  0
LINE
  5
30AE
330
30A6
100
AcDbEntity
  8
AM_9N
100
AcDbLine
 10
522.2183979401337
 20
351.9960180584026
 30
0.0
 11
522.2183979401337
 21
358.4960180584026
 31
0.0
  0
LINE
  5
30AF
330
30A6
100
AcDbEntity
  8
AM_0N
100
AcDbLine
 10
522.2183979401337
 20
358.4960180584026
 30
0.0
 11
522.2183979401337
 21
364.7717057665255
 31
0.0
  0
LINE
  5
30B0
330
30A6
100
AcDbEntity
  8
AM_4N
100
AcDbLine
 10
514.9852104401337
 20
331.0217057665255
 30
0.0
 11
514.9852104401337
 21
351.9960180584026
 31
0.0
  0
LINE
  5
30B1
330
30A6
100
AcDbEntity
  8
AM_9N
100
AcDbLine
 10
514.9852104401337
 20
351.9960180584026
 30
0.0
 11
514.9852104401337
 21
358.4960180584026
 31
0.0
  0
LINE
  5
30B2
330
30A6
100
AcDbEntity
  8
AM_4N
100
AcDbLine
 10
514.9852104401337
 20
358.4960180584026
 30
0.0
 11
514.9852104401337
 21
365.5385182665256
 31
0.0
  0
LINE
  5
30B3
330
30A6
100
AcDbEntity
  8
AM_4N
100
AcDbLine
 10
521.4515854401338
 20
331.0217057665255
 30
0.0
 11
521.4515854401337
 21
351.9960180584026
 31
0.0
  0
LINE
  5
30B4
330
30A6
100
AcDbEntity
  8
AM_9N
100
AcDbLine
 10
521.4515854401337
 20
351.9960180584026
 30
0.0
 11
521.4515854401337
 21
358.4960180584026
 31
0.0
  0
LINE
  5
30B5
330
30A6
100
AcDbEntity
  8
AM_4N
100
AcDbLine
 10
521.4515854401337
 20
358.4960180584026
 30
0.0
 11
521.4515854401337
 21
365.5385182665256
 31
0.0
  0
LINE
  5
30B6
330
30A6
100
AcDbEntity
  8
AM_7N
  6
AM_ISO08W050x2
100
AcDbLine
 10
518.2183979401337
 20
368.5385182665255
 30
0.0
 11
518.2183979401337
 21
327.5385182665256
 31
0.0
  0
LINE
  5
30B7
330
30A6
100
AcDbEntity
  8
AM_0N
100
AcDbLine
 10
515.4683979401337
 20
330.5385182665256
 30
0.0
 11
514.2183979401337
 21
331.7885182665256
 31
0.0
  0
LINE
  5
30B8
330
30A6
100
AcDbEntity
  8
AM_0N
100
AcDbLine
 10
514.2183979401337
 20
331.7885182665256
 30
0.0
 11
522.2183979401337
 21
331.7885182665256
 31
0.0
  0
LINE
  5
30B9
330
30A6
100
AcDbEntity
  8
AM_0N
100
AcDbLine
 10
520.9683979401337
 20
330.5385182665256
 30
0.0
 11
522.2183979401337
 21
331.7885182665256
 31
0.0
  0
LINE
  5
30BA
330
30A6
100
AcDbEntity
  8
AM_0N
100
AcDbLine
 10
515.4683979401337
 20
330.5385182665256
 30
0.0
 11
520.9683979401337
 21
330.5385182665256
 31
0.0
  0
LINE
  5
30BB
330
30A6
100
AcDbEntity
  8
AM_0N
100
AcDbLine
 10
514.2183979401337
 20
364.7717057665255
 30
0.0
 11
522.2183979401337
 21
364.7717057665255
 31
0.0
  0
LINE
  5
30BC
330
30A6
100
AcDbEntity
  8
AM_0N
100
AcDbLine
 10
514.2183979401337
 20
364.7717057665255
 30
0.0
 11
514.9852104401337
 21
365.5385182665256
 31
0.0
  0
LINE
  5
30BD
330
30A6
100
AcDbEntity
  8
AM_3N
  6
AM_ISO02W050x2
100
AcDbLine
 10
515.9083979401337
 20
365.5385182665256
 30
0.0
 11
515.9083979401337
 21
360.5385182665255
 31
0.0
  0
LINE
  5
30BE
330
30A6
100
AcDbEntity
  8
AM_3N
  6
AM_ISO02W050x2
100
AcDbLine
 10
520.5283979401338
 20
365.5385182665256
 30
0.0
 11
520.5283979401338
 21
360.5385182665255
 31
0.0
  0
LINE
  5
30BF
330
30A6
100
AcDbEntity
  8
AM_3N
  6
AM_ISO02W050x2
100
AcDbLine
 10
517.0633979401337
 20
365.5385182665256
 30
0.0
 11
517.0633979401337
 21
360.5385182665255
 31
0.0
  0
LINE
  5
30C0
330
30A6
100
AcDbEntity
  8
AM_3N
  6
AM_ISO02W050x2
100
AcDbLine
 10
519.3733979401338
 20
365.5385182665256
 30
0.0
 11
519.3733979401338
 21
360.5385182665255
 31
0.0
  0
LINE
  5
30C1
330
30A6
100
AcDbEntity
  8
AM_0N
100
AcDbLine
 10
521.4515854401337
 20
365.5385182665256
 30
0.0
 11
522.2183979401337
 21
364.7717057665255
 31
0.0
  0
LINE
  5
30C2
330
30A6
100
AcDbEntity
  8
AM_3N
  6
AM_ISO02W050x2
100
AcDbLine
 10
515.9083979401337
 20
360.5385182665255
 30
0.0
 11
518.2183979401337
 21
359.2048391446975
 31
0.0
  0
LINE
  5
30C3
330
30A6
100
AcDbEntity
  8
AM_3N
  6
AM_ISO02W050x2
100
AcDbLine
 10
520.5283979401338
 20
360.5385182665255
 30
0.0
 11
518.2183979401337
 21
359.2048391446975
 31
0.0
  0
LINE
  5
30C4
330
30A6
100
AcDbEntity
  8
AM_0N
100
AcDbLine
 10
521.4515854401337
 20
365.5385182665256
 30
0.0
 11
514.9852104401337
 21
365.5385182665256
 31
0.0
  0
ENDBLK
  5
30C6
330
30A6
100
AcDbEntity
  8
0
100
AcDbBlockEnd
  0
ENDSEC
  0
SECTION
  2
ENTITIES
  0
LINE
  5
873
330
1F
100
AcDbEntity
  8
AM_INV
 48
0.256
100
AcDbLine
 10
90.33696934142614
 20
288.5563750952622
 30
0.0
 11
90.33696934142614
 21
277.3043750952622
 31
0.0
1001
GENIUS_GENBH_13
1002
{
1000
OA
1000
7
1070
   256
1000
ByLayer
1005
5C0
1005
15
1071
       -1
1002
}
1001
GENIUS_GENOREF_13
1005
A29
1005
A28
  0
LINE
  5
874
330
1F
100
AcDbEntity
  8
AM_INV
100
AcDbLine
 10
90.33276314028398
 20
278.1963750952624
 30
0.0
 11
90.33276314028391
 21
265.1963750952624
 31
0.0
1001
GENIUS_GENBH_13
1002
{
1000
OA
1000
7A
1070
   256
1000
ByLayer
1005
5BF
1005
15
1071
       -1
1002
}
1001
GENIUS_GENOREF_13
1005
A29
  0
LINE
  5
875
330
1F
100
AcDbEntity
  8
AM_INV
100
AcDbLine
 10
93.53276314028404
 20
278.1963750952624
 30
0.0
 11
93.53276314028391
 21
265.6463750952624
 31
0.0
1001
GENIUS_GENBH_13
1002
{
1000
OA
1000
0
1070
   256
1000
ByLayer
1005
10
1005
15
1071
       -1
1002
}
1001
GENIUS_GENOREF_13
1005
A29
  0
LINE
  5
876
330
1F
100
AcDbEntity
  8
AM_INV
100
AcDbLine
 10
87.13276314028382
 20
278.1963750952624
 30
0.0
 11
87.13276314028382
 21
265.6463750952624
 31
0.0
1001
GENIUS_GENBH_13
1002
{
1000
OA
1000
0
1070
   256
1000
ByLayer
1005
10
1005
15
1071
       -1
1002
}
1001
GENIUS_GENOREF_13
1005
A29
  0
LINE
  5
877
330
1F
100
AcDbEntity
  8
AM_INV
100
AcDbLine
 10
94.33276314028399
 20
278.1963750952624
 30
0.0
 11
94.33276314028388
 21
268.1963750952624
 31
0.0
1001
GENIUS_GENBH_13
1002
{
1000
OA
1000
4
1070
   256
1000
ByLayer
1005
5BE
1005
15
1071
       -1
1002
}
1001
GENIUS_GENOREF_13
1005
A29
  0
LINE
  5
878
330
1F
100
AcDbEntity
  8
AM_INV
100
AcDbLine
 10
86.33276314028387
 20
278.1963750952624
 30
0.0
 11
86.33276314028387
 21
268.1963750952624
 31
0.0
1001
GENIUS_GENBH_13
1002
{
1000
OA
1000
4
1070
   256
1000
ByLayer
1005
5BE
1005
15
1071
       -1
1002
}
1001
GENIUS_GENOREF_13
1005
A29
  0
LINE
  5
879
330
1F
100
AcDbEntity
  8
AM_INV
100
AcDbLine
 10
87.58276314028385
 20
265.1963750952624
 30
0.0
 11
93.08276314028388
 21
265.1963750952624
 31
0.0
1001
GENIUS_GENBH_13
1002
{
1000
OA
1000
0
1070
   256
1000
ByLayer
1005
10
1005
15
1071
       -1
1002
}
1001
GENIUS_GENOREF_13
1005
A29
  0
LINE
  5
87A
330
1F
100
AcDbEntity
  8
AM_INV
100
AcDbLine
 10
86.33276314028387
 20
268.1963750952624
 30
0.0
 11
94.33276314028388
 21
268.1963750952624
 31
0.0
1001
GENIUS_GENBH_13
1002
{
1000
OA
1000
4
1070
   256
1000
ByLayer
1005
5BE
1005
15
1071
       -1
1002
}
1001
GENIUS_GENOREF_13
1005
A29
  0
LINE
  5
882
330
1F
100
AcDbEntity
  8
AM_INV
100
AcDbLine
 10
86.33276314028385
 20
278.6266259766251
 30
0.0
 11
88.64896934142615
 21
278.4443750952622
 31
0.0
1001
GENIUS_GENBH_13
1002
{
1000
OA
1000
0
1070
   256
1000
ByLayer
1005
10
1005
15
1071
       -1
1002
}
1001
GENIUS_GENOREF_13
1005
A29
  0
LINE
  5
883
330
1F
100
AcDbEntity
  8
AM_INV
100
AcDbLine
 10
86.33276314028385
 20
286.6536367824715
 30
0.0
 11
94.33276314028388
 21
286.6541124915754
 31
0.0
1001
GENIUS_GENBH_13
1002
{
1000
OA
1000
0
1070
   256
1000
ByLayer
1005
10
1005
15
1071
       -1
1002
}
1001
GENIUS_GENOREF_13
1005
A29
1005
A28
  0
LINE
  5
884
330
1F
100
AcDbEntity
  8
AM_INV
100
AcDbLine
 10
87.13276314028382
 20
278.1963750952624
 30
0.0
 11
93.53276314028404
 21
278.1963750952624
 31
0.0
1001
GENIUS_GENBH_13
1002
{
1000
OA
1000
0
1070
   256
1000
ByLayer
1005
10
1005
15
1071
       -1
1002
}
1001
GENIUS_GENOREF_13
1005
A29
  0
LINE
  5
885
330
1F
100
AcDbEntity
  8
AM_INV
100
AcDbLine
 10
87.13276314028382
 20
278.1963750952624
 30
0.0
 11
93.53276314028404
 21
278.1963750952624
 31
0.0
1001
GENIUS_GENBH_13
1002
{
1000
OA
1000
0
1070
   256
1000
ByLayer
1005
10
1005
15
1071
       -1
1002
}
1001
GENIUS_GENOREF_13
1005
A29
  0
LINE
  5
889
330
1F
100
AcDbEntity
  8
AM_INV
100
AcDbLine
 10
86.33276314028385
 20
278.1963750952624
 30
0.0
 11
87.13276314028382
 21
278.1963750952624
 31
0.0
1001
GENIUS_GENBH_13
1002
{
1000
OA
1000
0
1070
   256
1000
ByLayer
1005
10
1005
15
1071
       -1
1002
}
1001
GENIUS_GENOREF_13
1005
A29
  0
LINE
  5
88E
330
1F
100
AcDbEntity
  8
AM_INV
100
AcDbLine
 10
92.1279693414262
 20
278.4743750952622
 30
0.0
 11
94.33276314028388
 21
278.6867457764131
 31
0.0
1001
GENIUS_GENBH_13
1002
{
1000
OA
1000
0
1070
   256
1000
ByLayer
1005
10
1005
15
1071
       -1
1002
}
1001
GENIUS_GENOREF_13
1005
A29
  0
LINE
  5
88F
330
1F
100
AcDbEntity
  8
AM_INV
100
AcDbLine
 10
88.64896934142615
 20
278.4443750952622
 30
0.0
 11
92.1279693414262
 21
278.4743750952622
 31
0.0
1001
GENIUS_GENBH_13
1002
{
1000
OA
1000
0
1070
   256
1000
ByLayer
1005
10
1005
15
1071
       -1
1002
}
1001
GENIUS_GENOREF_13
1005
A29
  0
LINE
  5
891
330
1F
100
AcDbEntity
  8
AM_INV
100
AcDbLine
 10
93.53276314028404
 20
278.1963750952624
 30
0.0
 11
94.33276314028388
 21
278.1963750952624
 31
0.0
1001
GENIUS_GENBH_13
1002
{
1000
OA
1000
0
1070
   256
1000
ByLayer
1005
10
1005
15
1071
       -1
1002
}
1001
GENIUS_GENOREF_13
1005
A29
  0
LINE
  5
892
330
1F
100
AcDbEntity
  8
AM_INV
100
AcDbLine
 10
93.53276314028404
 20
278.1963750952624
 30
0.0
 11
94.33276314028388
 21
278.1963750952624
 31
0.0
1001
GENIUS_GENBH_13
1002
{
1000
OA
1000
0
1070
   256
1000
ByLayer
1005
10
1005
15
1071
       -1
1002
}
1001
GENIUS_GENOREF_13
1005
A29
  0
LINE
  5
894
330
1F
100
AcDbEntity
  8
AM_INV
100
AcDbLine
 10
94.33276314028388
 20
286.6541124915754
 30
0.0
 11
96.08756161816973
 21
286.6542168382768
 31
0.0
1001
GENIUS_GENBH_13
1002
{
1000
OA
1000
0
1070
   256
1000
ByLayer
1005
10
1005
15
1071
       -1
1002
}
1001
GENIUS_GENOREF_13
1005
A29
1005
A28
  0
LINE
  5
8A0
330
1F
100
AcDbEntity
  8
AM_9N
100
AcDbLine
 10
163.4307631402838
 20
286.6538748871395
 30
0.0
 11
163.4307631402838
 21
293.1538748871395
 31
0.0
  0
LINE
  5
8A1
330
1F
100
AcDbEntity
  8
AM_9N
100
AcDbLine
 10
162.6639506402838
 20
286.6538748871395
 30
0.0
 11
162.6639506402838
 21
293.1538748871395
 31
0.0
  0
LINE
  5
8A4
330
1F
100
AcDbEntity
  8
AM_9N
100
AcDbLine
 10
155.4307631402838
 20
293.1538748871395
 30
0.0
 11
155.4307631402838
 21
286.6538748871395
 31
0.0
  0
LINE
  5
8A5
330
1F
100
AcDbEntity
  8
AM_9N
100
AcDbLine
 10
156.1975756402838
 20
286.6538748871395
 30
0.0
 11
156.1975756402838
 21
293.1538748871395
 31
0.0
  0
LINE
  5
964
330
1F
100
AcDbEntity
  8
AM_9N
100
AcDbLine
 10
275.2382631402839
 20
286.6543750952622
 30
0.0
 11
275.2382631402839
 21
293.1543750952622
 31
0.0
  0
LINE
  5
965
330
1F
100
AcDbEntity
  8
AM_9N
100
AcDbLine
 10
274.4714506402839
 20
286.6543750952622
 30
0.0
 11
274.4714506402839
 21
293.1543750952622
 31
0.0
  0
LINE
  5
968
330
1F
100
AcDbEntity
  8
AM_9N
100
AcDbLine
 10
267.2382631402839
 20
293.1543750952622
 30
0.0
 11
267.2382631402839
 21
286.6543750952622
 31
0.0
  0
LINE
  5
969
330
1F
100
AcDbEntity
  8
AM_9N
100
AcDbLine
 10
268.0050756402839
 20
286.6543750952622
 30
0.0
 11
268.0050756402839
 21
293.1543750952622
 31
0.0
  0
POINT
  5
A28
330
1F
100
AcDbEntity
  8
0
 60
     1
100
AcDbPoint
 10
-0.0000006096354355
 20
0.000000329575073
 30
0.0
1001
GENIUS_GENOBJ-NBEHI-BHB_13
1002
{
1000
OWNER
1000
genbehi
1002
}
1001
GENIUS_GENOLIS_13
1002
{
1000
ENT
1005
893
1005
894
1005
852
1005
883
1005
873
1005
88D
1005
887
1005
88A
1005
85D
1002
}
1001
GENIUS_GENOENT_13
1002
{
1000
MYREF
1005
A28
1002
}
1002
{
1000
GRP
1005
0
1002
}
1001
GENIUS_GENBH_13
1002
{
1000
FGO
1005
A27
1002
}
1001
GENIUS_GENODEF_13
1002
{
1000
HIER
1070
     1
1002
}
1002
{
1000
MANEDIT
1070
     1
1002
}
1002
{
1000
NOSEL
1070
     1
1002
}
1002
{
1000
BEHIND
1070
     0
1002
}
1002
{
1000
OTHER
1070
     1
1002
}
1002
{
1000
REACTOR
1002
}
  0
POINT
  5
A29
330
1F
100
AcDbEntity
  8
0
 60
     1
100
AcDbPoint
 10
-0.0000006096354355
 20
0.000000329575073
 30
0.0
1001
GENIUS_GENOENT_13
1002
{
1000
MYREF
1005
A29
1002
}
1002
{
1000
GRP
1005
0
1002
}
1001
GENIUS_GENOLIS_13
1002
{
1000
ENT
1005
893
1005
852
1005
890
1005
853
1005
854
1005
889
1005
882
1005
894
1005
883
1005
87F
1005
879
1005
869
1005
87D
1005
881
1005
885
1005
884
1005
88F
1005
88E
1005
873
1005
892
1005
891
1005
864
1005
888
1005
88A
1005
87B
1005
880
1005
87E
1005
87A
1005
82B
1005
863
1005
877
1005
878
1005
874
1005
876
1005
875
1002
}
1001
GENIUS_GENOBJ-NBEHI-BHB_13
1002
{
1000
OWNER
1000
genbehi
1002
}
1001
GENIUS_GENBH_13
1002
{
1000
FGO
1005
A26
1002
}
1001
GENIUS_GENODEF_13
1002
{
1000
HIER
1070
     1
1002
}
1002
{
1000
MANEDIT
1070
     1
1002
}
1002
{
1000
NOSEL
1070
     1
1002
}
1002
{
1000
BEHIND
1070
     1
1002
}
1002
{
1000
OTHER
1070
     1
1002
}
1002
{
1000
REACTOR
1002
}
  0
LINE
  5
26DB
330
1F
100
AcDbEntity
  8
7
100
AcDbLine
 10
618.2226041412757
 20
297.9645568675314
 30
0.0
 11
618.2226041412755
 21
75.45592453173179
 31
0.0
1001
GENIUS_GENOBJ-N-CEN_13
1002
{
1000
OWNER
1000
GEN
1002
}
1001
GENIUS_GENODEF_13
1002
{
1000
HIER
1070
     0
1002
}
1002
{
1000
MANEDIT
1070
     0
1002
}
1002
{
1000
NOSEL
1070
     0
1002
}
1002
{
1000
BEHIND
1070
     0
1002
}
1002
{
1000
OTHER
1070
     0
1002
}
1002
{
1000
REACTOR
1002
}
  0
LINE
  5
2713
330
1F
100
AcDbEntity
  8
AM_INV
 48
0.256
100
AcDbLine
 10
518.2226041412755
 20
288.5563750952622
 30
0.0
 11
518.2226041412755
 21
277.3043750952622
 31
0.0
1001
GENIUS_GENBH_13
1002
{
1000
OA
1000
7
1070
   256
1000
ByLayer
1005
5C0
1005
15
1071
       -1
1002
}
1001
GENIUS_GENOREF_13
1005
28EC
1005
28EB
  0
LINE
  5
2714
330
1F
100
AcDbEntity
  8
AM_INV
100
AcDbLine
 10
518.2183979401334
 20
278.1963750952624
 30
0.0
 11
518.2183979401332
 21
265.1963750952624
 31
0.0
1001
GENIUS_GENBH_13
1002
{
1000
OA
1000
7A
1070
   256
1000
ByLayer
1005
5BF
1005
15
1071
       -1
1002
}
1001
GENIUS_GENOREF_13
1005
28EC
  0
LINE
  5
2715
330
1F
100
AcDbEntity
  8
AM_INV
100
AcDbLine
 10
521.4183979401334
 20
278.1963750952624
 30
0.0
 11
521.4183979401332
 21
265.6463750952624
 31
0.0
1001
GENIUS_GENBH_13
1002
{
1000
OA
1000
0
1070
   256
1000
ByLayer
1005
10
1005
15
1071
       -1
1002
}
1001
GENIUS_GENOREF_13
1005
28EC
  0
LINE
  5
2716
330
1F
100
AcDbEntity
  8
AM_INV
100
AcDbLine
 10
515.0183979401331
 20
278.1963750952624
 30
0.0
 11
515.0183979401331
 21
265.6463750952624
 31
0.0
1001
GENIUS_GENBH_13
1002
{
1000
OA
1000
0
1070
   256
1000
ByLayer
1005
10
1005
15
1071
       -1
1002
}
1001
GENIUS_GENOREF_13
1005
28EC
  0
LINE
  5
2717
330
1F
100
AcDbEntity
  8
AM_INV
100
AcDbLine
 10
522.2183979401334
 20
278.1963750952624
 30
0.0
 11
522.2183979401331
 21
268.1963750952624
 31
0.0
1001
GENIUS_GENBH_13
1002
{
1000
OA
1000
4
1070
   256
1000
ByLayer
1005
5BE
1005
15
1071
       -1
1002
}
1001
GENIUS_GENOREF_13
1005
28EC
  0
LINE
  5
2718
330
1F
100
AcDbEntity
  8
AM_INV
100
AcDbLine
 10
514.2183979401331
 20
278.1963750952624
 30
0.0
 11
514.2183979401331
 21
268.1963750952624
 31
0.0
1001
GENIUS_GENBH_13
1002
{
1000
OA
1000
4
1070
   256
1000
ByLayer
1005
5BE
1005
15
1071
       -1
1002
}
1001
GENIUS_GENOREF_13
1005
28EC
  0
LINE
  5
2719
330
1F
100
AcDbEntity
  8
AM_INV
100
AcDbLine
 10
515.4683979401331
 20
265.1963750952624
 30
0.0
 11
520.9683979401331
 21
265.1963750952624
 31
0.0
1001
GENIUS_GENBH_13
1002
{
1000
OA
1000
0
1070
   256
1000
ByLayer
1005
10
1005
15
1071
       -1
1002
}
1001
GENIUS_GENOREF_13
1005
28EC
  0
LINE
  5
271A
330
1F
100
AcDbEntity
  8
AM_INV
100
AcDbLine
 10
514.2183979401331
 20
268.1963750952624
 30
0.0
 11
522.2183979401331
 21
268.1963750952624
 31
0.0
1001
GENIUS_GENBH_13
1002
{
1000
OA
1000
4
1070
   256
1000
ByLayer
1005
5BE
1005
15
1071
       -1
1002
}
1001
GENIUS_GENOREF_13
1005
28EC
  0
LINE
  5
2722
330
1F
100
AcDbEntity
  8
AM_INV
100
AcDbLine
 10
514.2183979401331
 20
278.6266259766251
 30
0.0
 11
516.5346041412755
 21
278.4443750952622
 31
0.0
1001
GENIUS_GENBH_13
1002
{
1000
OA
1000
0
1070
   256
1000
ByLayer
1005
10
1005
15
1071
       -1
1002
}
1001
GENIUS_GENOREF_13
1005
28EC
  0
LINE
  5
2723
330
1F
100
AcDbEntity
  8
AM_INV
100
AcDbLine
 10
514.2183979401331
 20
286.6536367824715
 30
0.0
 11
522.2183979401331
 21
286.6541124915754
 31
0.0
1001
GENIUS_GENBH_13
1002
{
1000
OA
1000
0
1070
   256
1000
ByLayer
1005
10
1005
15
1071
       -1
1002
}
1001
GENIUS_GENOREF_13
1005
28EC
1005
28EB
  0
LINE
  5
2724
330
1F
100
AcDbEntity
  8
AM_INV
100
AcDbLine
 10
515.0183979401331
 20
278.1963750952624
 30
0.0
 11
521.4183979401334
 21
278.1963750952624
 31
0.0
1001
GENIUS_GENBH_13
1002
{
1000
OA
1000
0
1070
   256
1000
ByLayer
1005
10
1005
15
1071
       -1
1002
}
1001
GENIUS_GENOREF_13
1005
28EC
  0
LINE
  5
2725
330
1F
100
AcDbEntity
  8
AM_INV
100
AcDbLine
 10
515.0183979401331
 20
278.1963750952624
 30
0.0
 11
521.4183979401334
 21
278.1963750952624
 31
0.0
1001
GENIUS_GENBH_13
1002
{
1000
OA
1000
0
1070
   256
1000
ByLayer
1005
10
1005
15
1071
       -1
1002
}
1001
GENIUS_GENOREF_13
1005
28EC
  0
LINE
  5
2729
330
1F
100
AcDbEntity
  8
AM_INV
100
AcDbLine
 10
514.2183979401331
 20
278.1963750952624
 30
0.0
 11
515.0183979401331
 21
278.1963750952624
 31
0.0
1001
GENIUS_GENBH_13
1002
{
1000
OA
1000
0
1070
   256
1000
ByLayer
1005
10
1005
15
1071
       -1
1002
}
1001
GENIUS_GENOREF_13
1005
28EC
  0
LINE
  5
272E
330
1F
100
AcDbEntity
  8
AM_INV
100
AcDbLine
 10
520.0136041412755
 20
278.4743750952622
 30
0.0
 11
522.2183979401331
 21
278.6867457764131
 31
0.0
1001
GENIUS_GENBH_13
1002
{
1000
OA
1000
0
1070
   256
1000
ByLayer
1005
10
1005
15
1071
       -1
1002
}
1001
GENIUS_GENOREF_13
1005
28EC
  0
LINE
  5
272F
330
1F
100
AcDbEntity
  8
AM_INV
100
AcDbLine
 10
516.5346041412755
 20
278.4443750952622
 30
0.0
 11
520.0136041412755
 21
278.4743750952622
 31
0.0
1001
GENIUS_GENBH_13
1002
{
1000
OA
1000
0
1070
   256
1000
ByLayer
1005
10
1005
15
1071
       -1
1002
}
1001
GENIUS_GENOREF_13
1005
28EC
  0
LINE
  5
2731
330
1F
100
AcDbEntity
  8
AM_INV
100
AcDbLine
 10
521.4183979401334
 20
278.1963750952624
 30
0.0
 11
522.2183979401331
 21
278.1963750952624
 31
0.0
1001
GENIUS_GENBH_13
1002
{
1000
OA
1000
0
1070
   256
1000
ByLayer
1005
10
1005
15
1071
       -1
1002
}
1001
GENIUS_GENOREF_13
1005
28EC
  0
LINE
  5
2732
330
1F
100
AcDbEntity
  8
AM_INV
100
AcDbLine
 10
521.4183979401334
 20
278.1963750952624
 30
0.0
 11
522.2183979401331
 21
278.1963750952624
 31
0.0
1001
GENIUS_GENBH_13
1002
{
1000
OA
1000
0
1070
   256
1000
ByLayer
1005
10
1005
15
1071
       -1
1002
}
1001
GENIUS_GENOREF_13
1005
28EC
  0
LINE
  5
2734
330
1F
100
AcDbEntity
  8
AM_INV
100
AcDbLine
 10
522.2183979401331
 20
286.6541124915754
 30
0.0
 11
523.9731964180191
 21
286.6542168382768
 31
0.0
1001
GENIUS_GENBH_13
1002
{
1000
OA
1000
0
1070
   256
1000
ByLayer
1005
10
1005
15
1071
       -1
1002
}
1001
GENIUS_GENOREF_13
1005
28EC
1005
28EB
  0
LINE
  5
2740
330
1F
100
AcDbEntity
  8
AM_9N
100
AcDbLine
 10
591.3163979401332
 20
286.6538748871395
 30
0.0
 11
591.3163979401332
 21
293.1538748871395
 31
0.0
  0
LINE
  5
2741
330
1F
100
AcDbEntity
  8
AM_9N
100
AcDbLine
 10
590.5495854401332
 20
286.6538748871395
 30
0.0
 11
590.5495854401332
 21
293.1538748871395
 31
0.0
  0
LINE
  5
2744
330
1F
100
AcDbEntity
  8
AM_9N
100
AcDbLine
 10
583.3163979401331
 20
293.1538748871395
 30
0.0
 11
583.3163979401331
 21
286.6538748871395
 31
0.0
  0
LINE
  5
2745
330
1F
100
AcDbEntity
  8
AM_9N
100
AcDbLine
 10
584.0832104401331
 20
286.6538748871395
 30
0.0
 11
584.0832104401331
 21
293.1538748871395
 31
0.0
  0
LINE
  5
278A
330
1F
100
AcDbEntity
  8
7
 48
0.383
100
AcDbLine
 10
618.2226041412755
 20
291.1203750952622
 30
0.0
 11
618.2226041412755
 21
274.2833750952622
 31
0.0
  0
LINE
  5
27C2
330
1F
100
AcDbEntity
  8
AM_9N
100
AcDbLine
 10
703.1238979401332
 20
286.6543750952622
 30
0.0
 11
703.1238979401332
 21
293.1543750952622
 31
0.0
  0
LINE
  5
27C3
330
1F
100
AcDbEntity
  8
AM_9N
100
AcDbLine
 10
702.3570854401332
 20
286.6543750952622
 30
0.0
 11
702.3570854401332
 21
293.1543750952622
 31
0.0
  0
LINE
  5
27C6
330
1F
100
AcDbEntity
  8
AM_9N
100
AcDbLine
 10
695.1238979401332
 20
293.1543750952622
 30
0.0
 11
695.1238979401332
 21
286.6543750952622
 31
0.0
  0
LINE
  5
27C7
330
1F
100
AcDbEntity
  8
AM_9N
100
AcDbLine
 10
695.8907104401332
 20
286.6543750952622
 30
0.0
 11
695.8907104401332
 21
293.1543750952622
 31
0.0
  0
LINE
  5
2822
330
1F
100
AcDbEntity
  8
0
100
AcDbLine
 10
570.2226041412758
 20
93.53851826652556
 30
0.0
 11
666.2226041412758
 21
93.53851826652556
 31
0.0
  0
LINE
  5
2823
330
1F
100
AcDbEntity
  8
4A
100
AcDbLine
 10
567.9609884994818
 20
123.5385182665255
 30
0.0
 11
668.4516990634306
 21
123.5385182665256
 31
0.0
  0
LINE
  5
2824
330
1F
100
AcDbEntity
  8
0
100
AcDbLine
 10
563.2226041412758
 20
93.53851826652567
 30
0.0
 11
673.2226041412756
 21
93.53851826652544
 31
0.0
  0
LINE
  5
2825
330
1F
100
AcDbEntity
  8
4A
100
AcDbLine
 10
569.2224289776519
 20
103.5385182665255
 30
0.0
 11
666.2226041412756
 21
103.5385182665255
 31
0.0
  0
LINE
  5
2827
330
1F
100
AcDbEntity
  8
BEMASS
100
AcDbLine
 10
672.1493518291008
 20
281.5200334451477
 30
0.0
 11
618.2226041412762
 21
281.5200334451477
 31
0.0
  0
LINE
  5
2828
330
1F
100
AcDbEntity
  8
BEMASS
100
AcDbLine
 10
669.6277825343302
 20
276.5593454501815
 30
0.0
 11
621.2226041412762
 21
276.5593454501815
 31
0.0
  0
LINE
  5
2829
330
1F
100
AcDbEntity
  8
0
100
AcDbLine
 10
677.1264959506285
 20
322.5323579770817
 30
0.0
 11
618.2226041412761
 21
322.5323579770817
 31
0.0
  0
ARC
  5
282A
330
1F
100
AcDbEntity
  8
0
100
AcDbCircle
 10
642.3994640302177
 20
343.5385182665258
 30
0.0
 40
6.0
100
AcDbArc
 50
17.10463517664093
 51
90.0
  0
LINE
  5
282B
330
1F
100
AcDbEntity
  8
0
100
AcDbLine
 10
618.2226041412761
 20
349.5385182665255
 30
0.0
 11
644.4062591017005
 21
349.5385182665255
 31
0.0
  0
LINE
  5
282C
330
1F
100
AcDbEntity
  8
0
100
AcDbLine
 10
678.5479920162639
 20
333.8701811039099
 30
0.0
 11
618.2226041412761
 21
333.8701811039092
 31
0.0
  0
LINE
  5
282D
330
1F
100
AcDbEntity
  8
0
100
AcDbLine
 10
618.2226041412761
 20
338.5385182665256
 30
0.0
 11
683.0752581026928
 21
338.5385182665256
 31
0.0
  0
LINE
  5
282E
330
1F
100
AcDbEntity
  8
0
100
AcDbLine
 10
618.8764959506285
 20
338.5385182665256
 30
0.0
 11
680.3764959506287
 21
338.5385182665256
 31
0.0
  0
LINE
  5
282F
330
1F
100
AcDbEntity
  8
4A
100
AcDbLine
 10
667.2227793048998
 20
103.5385182665254
 30
0.0
 11
570.222604141276
 21
103.5385182665256
 31
0.0
  0
LINE
  5
2830
330
1F
100
AcDbEntity
  8
4A
100
AcDbLine
 10
668.4516990634306
 20
123.5385182665254
 30
0.0
 11
567.9609884994817
 21
123.5385182665256
 31
0.0
  0
LINE
  5
2831
330
1F
100
AcDbEntity
  8
0
100
AcDbLine
 10
666.2226041412758
 20
93.53851826652544
 30
0.0
 11
570.2226041412758
 21
93.53851826652567
 31
0.0
  0
LINE
  5
2832
330
1F
100
AcDbEntity
  8
0
100
AcDbLine
 10
673.2226041412758
 20
93.53851826652556
 30
0.0
 11
563.222604141276
 21
93.53851826652556
 31
0.0
  0
DIMENSION
  5
2835
330
1F
100
AcDbEntity
  8
BEMASS
100
AcDbDimension
  2
*D36
 10
473.2226041412759
 20
388.0290354516096
 30
0.0
 11
618.2226041412758
 21
388.0290354516096
 31
0.0
 70
   160
  1
%%c<>
 71
     5
 42
289.9999999999998
  3
GEN-ISO
100
AcDbAlignedDimension
 13
763.2226041412756
 23
337.5385182665255
 33
0.0
 14
473.2226041412759
 24
337.5385182665255
 34
0.0
100
AcDbRotatedDimension
1001
ACAD
1000
DSTYLE
1002
{
1070
   140
1040
6.0
1002
}
  0
DIMENSION
  5
2836
330
1F
100
AcDbEntity
  8
BEMASS
100
AcDbDimension
  2
*D37
 10
689.2226041412759
 20
368.7992451231496
 30
0.0
 11
618.2226041412759
 21
372.3998356743307
 31
0.0
 70
    32
  1
%%c<>
 71
     5
 42
142.0
  3
GEN-ISO
100
AcDbAlignedDimension
 13
547.2226041412759
 23
343.5385182665252
 33
0.0
 14
689.2226041412759
 24
343.5385182665252
 34
0.0
100
AcDbRotatedDimension
1001
ACAD
1000
DSTYLE
1002
{
1070
   140
1040
6.0
1002
}
  0
HATCH
  5
2838
330
1F
100
AcDbEntity
  8
8
100
AcDbHatch
 10
0.0
 20
0.0
 30
0.0
210
0.0
220
0.0
230
1.0
  2
_U
 70
     0
 71
     0
 91
        1
 92
        1
 93
       30
 72
     1
 10
567.9935092191213
 20
123.5385182665255
 11
569.2224289776519
 21
103.5843651072571
 72
     1
 10
569.2224289776519
 20
103.5843651072571
 11
569.2224289776519
 21
93.53851826652544
 72
     1
 10
569.2224289776519
 20
93.53851826652544
 11
563.2226041412759
 21
93.53851826652544
 72
     1
 10
563.2226041412758
 20
93.53851826652556
 11
561.8707126078488
 21
270.4561044926137
 72
     2
 10
555.8709410694639
 20
270.4037452796236
 40
5.999999999999917
 50
0.4999999999975135
 51
54.9771838557214
 73
     1
 72
     1
 10
559.3143566154835
 20
275.3172867089217
 11
558.4217726053698
 21
275.8345148821228
 72
     2
 10
560.9726041412758
 20
281.2652844846219
 40
6.000000000000059
 50
115.1594359785876
 51
179.9999999999995
 73
     0
 72
     1
 10
554.9726041412758
 20
281.2652844846218
 11
554.9726041412761
 21
313.7061568211195
 72
     2
 10
549.9726041412762
 20
313.7061568211195
 40
4.999999999999971
 50
0.0000000000012849
 51
88.86395064975713
 73
     1
 72
     2
 10
550.1708691659082
 20
323.704191176933
 40
5.000000000001065
 50
91.13604935025593
 51
175.0000000000091
 73
     0
 72
     1
 10
545.1898956754483
 20
323.2684124631954
 11
543.9661046734755
 21
337.2564076233947
 72
     2
 10
541.4756179282461
 20
337.0385182665255
 40
2.500000000000058
 50
5.000000000000974
 51
89.99999999999998
 73
     1
 72
     1
 10
541.4756179282461
 20
339.5385182665255
 11
535.1045471574105
 21
339.5385182665258
 72
     2
 10
535.1045471574103
 20
331.5385182665257
 40
8.000000000000113
 50
89.99999999999957
 51
173.2436729694119
 73
     1
 72
     2
 10
518.2226041412762
 20
333.5385182665257
 40
8.999999999999928
 50
6.756327030587933
 51
166.3910393692181
 73
     0
 72
     2
 10
501.699892499418
 20
329.5385182665257
 40
7.999999999999817
 50
13.60896063078442
 51
90.00000000000182
 73
     1
 72
     1
 10
501.6998924994178
 20
337.5385182665255
 11
473.2226041412761
 21
337.5385182665255
 72
     1
 10
473.2226041412761
 20
337.5385182665255
 11
473.9162957209396
 21
341.4726387106931
 72
     2
 10
476.3783151034698
 20
341.0385182665256
 40
2.499999999999752
 50
190.0000000000061
 51
270.0000000000059
 73
     0
 72
     1
 10
476.37831510347
 20
343.5385182665253
 11
547.222604141276
 21
343.5385182665253
 72
     1
 10
547.222604141276
 20
343.5385182665253
 11
547.4846430376912
 21
338.5385182665256
 72
     1
 10
547.4846430376912
 20
338.5385182665256
 11
549.5687123319237
 21
338.5385182665258
 72
     1
 10
549.5687123319237
 20
338.5385182665258
 11
549.5687123319239
 21
324.9385182665254
 72
     2
 10
551.5687123319238
 20
324.9385182665254
 40
2.0
 50
180.0
 51
269.9999999999919
 73
     1
 72
     1
 10
551.5687123319236
 20
322.9385182665254
 11
557.6034440318833
 21
322.6222513795615
 72
     2
 10
557.4726041412757
 20
320.1256775426749
 40
2.500000000000085
 50
273.0000000000035
 51
359.9999999999961
 73
     0
 72
     1
 10
559.9726041412758
 20
320.125677542675
 11
559.9726041412758
 21
284.0831165524279
 72
     2
 10
566.2731498710305
 20
284.1570905333419
 40
6.300979974780367
 50
180.6726722328519
 51
227.9963994770037
 73
     1
 72
     2
 10
556.8664107296092
 20
270.9272341590144
 40
9.999999999999957
 50
301.2669826744547
 51
359.499999999999
 73
     0
 72
     1
 10
566.8660299602509
 20
271.0144995139983
 11
567.9935092191211
 21
123.5385182665254
 97
        0
 75
     0
 76
     0
 52
44.99999999999999
 41
2.5
 77
     0
 78
     1
 53
44.99999999999999
 43
342.891864150239
 44
-143.4457177287574
 45
-1.767766952966368
 46
1.767766952966369
 79
     0
 98
        1
 10
342.891864150239
 20
-143.4457177287574
1001
GENIUS_GENOBJ-N-HTC_13
1002
{
1000
OWNER
1000
GEN
1002
}
1001
GENIUS_GENODEF_13
1002
{
1000
HIER
1070
     0
1002
}
1002
{
1000
MANEDIT
1070
     0
1002
}
1002
{
1000
NOSEL
1070
     0
1002
}
1002
{
1000
BEHIND
1070
     0
1002
}
1002
{
1000
OTHER
1070
     0
1002
}
1002
{
1000
REACTOR
1002
}
1001
GENIUS_GENHATCH_13
1002
{
1000
DATA
1040
45.0
1042
2.5
1000
_U
1070
     0
1011
566.3786419012698
1021
100.2941809019875
1031
0.0
1002
}
1002
{
1000
UCS
1010
0.0
1020
0.0
1030
0.0
1010
1.0
1020
0.0
1030
0.0
1010
0.0
1020
1.0
1030
0.0
1002
}
  0
ARC
  5
2839
330
1F
100
AcDbEntity
  8
SICHTBAR
100
AcDbCircle
 10
556.8664107296091
 20
270.9272341590144
 30
0.0
 40
10.0
100
AcDbArc
 50
0.4999999999980604
 51
58.73301732554178
  0
LINE
  5
283A
330
1F
100
AcDbEntity
  8
SICHTBAR
100
AcDbLine
 10
566.8660299602509
 20
271.0144995139983
 30
0.0
 11
566.7957612611115
 21
279.0664948947151
 31
0.0
  0
ARC
  5
283B
330
1F
100
AcDbEntity
  8
SICHTBAR
100
AcDbCircle
 10
555.8709410694638
 20
270.4037452796235
 30
0.0
 40
6.0
100
AcDbArc
 50
0.4999999999980604
 51
54.97718385571785
  0
LINE
  5
283C
330
1F
100
AcDbEntity
  8
0
100
AcDbLine
 10
621.2316953146167
 20
272.4401982800105
 30
0.0
 11
621.2316953146167
 21
279.0446785559691
 31
0.0
  0
LINE
  5
283D
330
1F
100
AcDbEntity
  8
0
100
AcDbLine
 10
615.2316953146167
 20
272.4401982800105
 30
0.0
 11
615.2316953146167
 21
279.0446785559691
 31
0.0
  0
LINE
  5
283E
330
1F
100
AcDbEntity
  8
7A
 48
3000900.0
100
AcDbLine
 10
618.2226041412758
 20
86.1932563216726
 30
0.0
 11
618.2226041412761
 21
349.5385182665253
 31
0.0
  0
LINE
  5
283F
330
1F
100
AcDbEntity
  8
7A
 48
3000900.0
100
AcDbLine
 10
618.2226041412758
 20
86.1932563216726
 30
0.0
 11
618.2226041412761
 21
349.5385182665252
 31
0.0
  0
LINE
  5
2840
330
1F
100
AcDbEntity
  8
0
100
AcDbLine
 10
531.2315638112028
 20
338.5385182665256
 30
0.0
 11
543.4756179282461
 21
338.5385182665256
 31
0.0
  0
LINE
  5
2841
330
1F
100
AcDbEntity
  8
0
100
AcDbLine
 10
535.1045471574103
 20
339.5385182665255
 30
0.0
 11
541.4756179282461
 21
339.5385182665255
 31
0.0
  0
LINE
  5
2842
330
1F
100
AcDbEntity
  8
0
100
AcDbLine
 10
521.4226041412761
 20
343.5385182665253
 30
0.0
 11
547.222604141276
 21
343.5385182665253
 31
0.0
  0
DIMENSION
  5
2844
330
1F
100
AcDbEntity
  8
BEMASS
100
AcDbDimension
  2
*D38
 10
448.9241073749695
 20
343.5385182665258
 30
0.0
 11
445.3241073749693
 21
340.5385182665258
 31
0.0
 70
    32
 71
     5
 42
6.000000000000227
  3
GEN-ISO
100
AcDbAlignedDimension
 13
473.2226041412759
 23
337.5385182665255
 33
0.0
 14
476.3783151034699
 24
343.5385182665258
 34
0.0
 50
90.0
100
AcDbRotatedDimension
1001
ACAD
1000
DSTYLE
1002
{
1070
   140
1040
6.0
1002
}
  0
LINE
  5
2845
330
1F
100
AcDbEntity
  8
BEMASS
100
AcDbLine
 10
473.2226041412759
 20
337.5385182665255
 30
0.0
 11
473.2226041412759
 21
355.3222603436367
 31
0.0
  0
LINE
  5
2847
330
1F
100
AcDbEntity
  8
0
100
AcDbLine
 10
501.6998924994178
 20
337.5385182665255
 30
0.0
 11
473.2226041412761
 21
337.5385182665255
 31
0.0
  0
LINE
  5
2848
330
1F
100
AcDbEntity
  8
0
100
AcDbLine
 10
476.37831510347
 20
343.5385182665253
 30
0.0
 11
515.022604141276
 21
343.5385182665253
 31
0.0
  0
LINE
  5
2849
330
1F
100
AcDbEntity
  8
0
100
AcDbLine
 10
473.9162957209394
 20
341.4726387106929
 30
0.0
 11
473.2226041412761
 21
337.5385182665255
 31
0.0
  0
ARC
  5
284A
330
1F
100
AcDbEntity
  8
0
100
AcDbCircle
 10
476.37831510347
 20
341.0385182665259
 30
0.0
 40
2.5
100
AcDbArc
 50
90.0
 51
170.0000000000014
  0
ARC
  5
284B
330
1F
100
AcDbEntity
  8
0
100
AcDbCircle
 10
501.6998924994178
 20
329.5385182665258
 30
0.0
 40
8.0
100
AcDbArc
 50
13.60896063078402
 51
90.0
  0
ARC
  5
284C
330
1F
100
AcDbEntity
  8
0
100
AcDbCircle
 10
518.222604141276
 20
333.5385182665258
 30
0.0
 40
9.0
100
AcDbArc
 50
193.608960630784
 51
353.2436729694116
  0
LINE
  5
284E
330
1F
100
AcDbEntity
  8
0
100
AcDbLine
 10
521.4226041412761
 20
343.5385182665253
 30
0.0
 11
535.9822348452508
 21
343.5385182665253
 31
0.0
  0
LINE
  5
284F
330
1F
100
AcDbEntity
  8
0
100
AcDbLine
 10
515.022604141276
 20
343.5385182665253
 30
0.0
 11
521.4226041412761
 21
343.5385182665253
 31
0.0
  0
LINE
  5
2850
330
1F
100
AcDbEntity
  8
0
100
AcDbLine
 10
515.022604141276
 20
343.5385182665253
 30
0.0
 11
521.4226041412761
 21
343.5385182665253
 31
0.0
  0
ARC
  5
2851
330
1F
100
AcDbEntity
  8
0
100
AcDbCircle
 10
535.1045471574103
 20
331.5385182665258
 30
0.0
 40
8.0
100
AcDbArc
 50
90.0
 51
173.2436729694116
  0
ARC
  5
2853
330
1F
100
AcDbEntity
  8
0
100
AcDbCircle
 10
571.6534394069213
 20
343.5385182665258
 30
0.0
 40
6.0
100
AcDbArc
 50
17.10463517664093
 51
90.0
  0
LINE
  5
2854
330
1F
100
AcDbEntity
  8
0
100
AcDbLine
 10
546.9081574655778
 20
349.5385182665253
 30
0.0
 11
547.222604141276
 21
343.5385182665253
 31
0.0
  0
ARC
  5
2855
330
1F
100
AcDbEntity
  8
0
100
AcDbCircle
 10
539.0323474640507
 20
347.5385182665258
 30
0.0
 40
4.0
100
AcDbArc
 50
270.0
 51
355.0000000000003
  0
ARC
  5
2856
330
1F
100
AcDbEntity
  8
0
100
AcDbCircle
 10
594.0457442523344
 20
343.5385182665258
 30
0.0
 40
6.0
100
AcDbArc
 50
90.0
 51
162.895364823359
  0
ARC
  5
2857
330
1F
100
AcDbEntity
  8
0
100
AcDbCircle
 10
592.0389491808515
 20
343.5385182665258
 30
0.0
 40
6.0
100
AcDbArc
 50
90.0
 51
162.895364823359
  0
LINE
  5
2859
330
1F
100
AcDbEntity
  8
0
100
AcDbLine
 10
571.6534394069213
 20
349.5385182665258
 30
0.0
 11
543.222604141276
 21
349.5385182665253
 31
0.0
  0
LINE
  5
285A
330
1F
100
AcDbEntity
  8
0
100
AcDbLine
 10
543.222604141276
 20
349.5385182665253
 30
0.0
 11
543.0171262564178
 21
347.1898952955347
 31
0.0
  0
LINE
  5
285B
330
1F
100
AcDbEntity
  8
0
100
AcDbLine
 10
618.2226041412761
 20
349.5385182665255
 30
0.0
 11
592.0389491808515
 21
349.5385182665253
 31
0.0
  0
LINE
  5
285C
330
1F
100
AcDbEntity
  8
BEMASS
100
AcDbLine
 10
566.817425748222
 20
276.5593454501815
 30
0.0
 11
615.222604141276
 21
276.5593454501815
 31
0.0
  0
LINE
  5
285D
330
1F
100
AcDbEntity
  8
0
100
AcDbLine
 10
617.5687123319238
 20
338.5385182665256
 30
0.0
 11
556.0687123319235
 21
338.5385182665256
 31
0.0
  0
LINE
  5
285E
330
1F
100
AcDbEntity
  8
BEMASS
100
AcDbLine
 10
564.2958564534514
 20
281.5200334451477
 30
0.0
 11
618.2226041412761
 21
281.5200334451477
 31
0.0
  0
LINE
  5
285F
330
1F
100
AcDbEntity
  8
0
100
AcDbLine
 10
557.8972162662881
 20
333.8701811039099
 30
0.0
 11
618.2226041412761
 21
333.8701811039092
 31
0.0
  0
LINE
  5
2860
330
1F
100
AcDbEntity
  8
0
100
AcDbLine
 10
618.2226041412761
 20
338.5385182665256
 30
0.0
 11
553.3699501798593
 21
338.5385182665256
 31
0.0
  0
LINE
  5
2861
330
1F
100
AcDbEntity
  8
0
100
AcDbLine
 10
559.3187123319236
 20
322.5323579770817
 30
0.0
 11
618.2226041412761
 21
322.5323579770817
 31
0.0
  0
LINE
  5
2862
330
1F
100
AcDbEntity
  8
0
100
AcDbLine
 10
554.9726041412758
 20
281.2652844846218
 30
0.0
 11
554.9726041412758
 21
313.7061568211216
 31
0.0
  0
LINE
  5
2863
330
1F
100
AcDbEntity
  8
0
100
AcDbLine
 10
559.9726041412757
 20
284.0831165524278
 30
0.0
 11
559.9726041412758
 21
320.125677542675
 31
0.0
  0
LINE
  5
2866
330
1F
100
AcDbEntity
  8
0
100
AcDbLine
 10
549.5687123319237
 20
338.5385182665258
 30
0.0
 11
549.5687123319235
 21
324.9385182665254
 31
0.0
  0
LINE
  5
2867
330
1F
100
AcDbEntity
  8
0
100
AcDbLine
 10
543.9661046734754
 20
337.2564076233947
 30
0.0
 11
545.1898956754483
 21
323.2684124631954
 31
0.0
  0
ARC
  5
2868
330
1F
100
AcDbEntity
  8
0
100
AcDbCircle
 10
551.5687123319236
 20
331.5385182665256
 30
0.0
 40
2.0
100
AcDbArc
 50
90.0
 51
180.0
1001
GENIUS_GENOBJ-N-FIL_13
1002
{
1000
OWNER
1000
GEN
1002
}
1001
GENIUS_GENODEF_13
1002
{
1000
HIER
1070
     0
1002
}
1002
{
1000
MANEDIT
1070
     0
1002
}
1002
{
1000
NOSEL
1070
     0
1002
}
1002
{
1000
BEHIND
1070
     0
1002
}
1002
{
1000
OTHER
1070
     0
1002
}
1002
{
1000
REACTOR
1002
}
  0
ARC
  5
2869
330
1F
100
AcDbEntity
  8
0
100
AcDbCircle
 10
551.568712331924
 20
331.5385182665265
 30
0.0
 40
2.0
100
AcDbArc
 50
90.0
 51
180.0
1001
GENIUS_GENOBJ-N-FIL_13
1002
{
1000
OWNER
1000
GEN
1002
}
1001
GENIUS_GENODEF_13
1002
{
1000
HIER
1070
     0
1002
}
1002
{
1000
MANEDIT
1070
     0
1002
}
1002
{
1000
NOSEL
1070
     0
1002
}
1002
{
1000
BEHIND
1070
     0
1002
}
1002
{
1000
OTHER
1070
     0
1002
}
1002
{
1000
REACTOR
1002
}
  0
LINE
  5
286A
330
1F
100
AcDbEntity
  8
0
100
AcDbLine
 10
553.3699501798593
 20
338.5385182665256
 30
0.0
 11
547.4846430376912
 21
338.5385182665256
 31
0.0
  0
LINE
  5
286B
330
1F
100
AcDbEntity
  8
0
100
AcDbLine
 10
547.222604141276
 20
343.5385182665253
 30
0.0
 11
547.4846430376912
 21
338.5385182665256
 31
0.0
  0
ARC
  5
286C
330
1F
100
AcDbEntity
  8
0
100
AcDbCircle
 10
541.4756179282461
 20
337.0385182665255
 30
0.0
 40
2.5
100
AcDbArc
 50
4.999999999999745
 51
90.0
1001
GENIUS_GENOBJ-N-FIL_13
1002
{
1000
OWNER
1000
GEN
1002
}
1001
GENIUS_GENODEF_13
1002
{
1000
HIER
1070
     0
1002
}
1002
{
1000
MANEDIT
1070
     0
1002
}
1002
{
1000
NOSEL
1070
     0
1002
}
1002
{
1000
BEHIND
1070
     0
1002
}
1002
{
1000
OTHER
1070
     0
1002
}
1002
{
1000
REACTOR
1002
}
  0
POINT
  5
286D
330
1F
100
AcDbEntity
  8
Defpoints
  6
ByBlock
 62
     0
100
AcDbPoint
 10
541.6934238207469
 20
344.5521035893865
 30
0.0
 50
270.0
  0
LINE
  5
286E
330
1F
100
AcDbEntity
  8
0
100
AcDbLine
 10
559.3187123319238
 20
335.5385182665253
 30
0.0
 11
559.3187123319238
 21
337.0385182665258
 31
0.0
  0
LINE
  5
286F
330
1F
100
AcDbEntity
  8
0
100
AcDbLine
 10
559.3187123319238
 20
335.5385182665255
 30
0.0
 11
559.3187123319238
 21
337.0385182665258
 31
0.0
  0
LINE
  5
2870
330
1F
100
AcDbEntity
  8
0
100
AcDbLine
 10
559.318712331924
 20
335.5385182665262
 30
0.0
 11
559.318712331924
 21
337.0385182665265
 31
0.0
  0
LINE
  5
2871
330
1F
100
AcDbEntity
  8
0
100
AcDbLine
 10
559.318712331924
 20
335.3681254060417
 30
0.0
 11
559.318712331924
 21
337.0385182665265
 31
0.0
  0
ARC
  5
2872
330
1F
100
AcDbEntity
  8
0
100
AcDbCircle
 10
557.8187123319238
 20
337.0385182665258
 30
0.0
 40
1.5
100
AcDbArc
 50
0.0
 51
90.0
1001
GENIUS_GENOBJ-N-FIL_13
1002
{
1000
OWNER
1000
GEN
1002
}
1001
GENIUS_GENODEF_13
1002
{
1000
HIER
1070
     0
1002
}
1002
{
1000
MANEDIT
1070
     0
1002
}
1002
{
1000
NOSEL
1070
     0
1002
}
1002
{
1000
BEHIND
1070
     0
1002
}
1002
{
1000
OTHER
1070
     0
1002
}
1002
{
1000
REACTOR
1002
}
  0
ARC
  5
2873
330
1F
100
AcDbEntity
  8
0
100
AcDbCircle
 10
557.8187123319238
 20
337.0385182665255
 30
0.0
 40
1.5
100
AcDbArc
 50
0.0
 51
90.0
1001
GENIUS_GENOBJ-N-FIL_13
1002
{
1000
OWNER
1000
GEN
1002
}
1001
GENIUS_GENODEF_13
1002
{
1000
HIER
1070
     0
1002
}
1002
{
1000
MANEDIT
1070
     0
1002
}
1002
{
1000
NOSEL
1070
     0
1002
}
1002
{
1000
BEHIND
1070
     0
1002
}
1002
{
1000
OTHER
1070
     0
1002
}
1002
{
1000
REACTOR
1002
}
  0
ARC
  5
2874
330
1F
100
AcDbEntity
  8
0
100
AcDbCircle
 10
557.818712331924
 20
335.3681254060419
 30
0.0
 40
1.5
100
AcDbArc
 50
272.9999999999925
 51
0.0
1001
GENIUS_GENOBJ-N-FIL_13
1002
{
1000
OWNER
1000
GEN
1002
}
1001
GENIUS_GENODEF_13
1002
{
1000
HIER
1070
     0
1002
}
1002
{
1000
MANEDIT
1070
     0
1002
}
1002
{
1000
NOSEL
1070
     0
1002
}
1002
{
1000
BEHIND
1070
     0
1002
}
1002
{
1000
OTHER
1070
     0
1002
}
1002
{
1000
REACTOR
1002
}
  0
LINE
  5
2875
330
1F
100
AcDbEntity
  8
0
100
AcDbLine
 10
551.5687123319238
 20
333.5385182665262
 30
0.0
 11
557.8972162662881
 21
333.8701811039099
 31
0.0
  0
ARC
  5
2876
330
1F
100
AcDbEntity
  8
0
100
AcDbCircle
 10
550.1708691659071
 20
323.704191176932
 30
0.0
 40
5.0
100
AcDbArc
 50
184.9999999999997
 51
268.8639506497594
1001
GENIUS_GENODEF_13
1002
{
1000
HIER
1070
     0
1002
}
1002
{
1000
MANEDIT
1070
     0
1002
}
1002
{
1000
NOSEL
1070
     0
1002
}
1002
{
1000
BEHIND
1070
     0
1002
}
1002
{
1000
OTHER
1070
     0
1002
}
1002
{
1000
REACTOR
1002
}
1001
GENIUS_GENOBJ-N-FIL_13
1002
{
1000
OWNER
1000
GEN
1002
}
  0
ARC
  5
2877
330
1F
100
AcDbEntity
  8
0
100
AcDbCircle
 10
551.5687123319238
 20
324.9385182665254
 30
0.0
 40
2.0
100
AcDbArc
 50
180.0
 51
270.0
1001
GENIUS_GENOBJ-N-FIL_13
1002
{
1000
OWNER
1000
GEN
1002
}
1001
GENIUS_GENODEF_13
1002
{
1000
HIER
1070
     0
1002
}
1002
{
1000
MANEDIT
1070
     0
1002
}
1002
{
1000
NOSEL
1070
     0
1002
}
1002
{
1000
BEHIND
1070
     0
1002
}
1002
{
1000
OTHER
1070
     0
1002
}
1002
{
1000
REACTOR
1002
}
  0
ARC
  5
2878
330
1F
100
AcDbEntity
  8
0
100
AcDbCircle
 10
550.1708691659072
 20
323.7041911769339
 30
0.0
 40
5.0
100
AcDbArc
 50
184.9999999999997
 51
268.8639506497464
1001
GENIUS_GENODEF_13
1002
{
1000
HIER
1070
     0
1002
}
1002
{
1000
MANEDIT
1070
     0
1002
}
1002
{
1000
NOSEL
1070
     0
1002
}
1002
{
1000
BEHIND
1070
     0
1002
}
1002
{
1000
OTHER
1070
     0
1002
}
1002
{
1000
REACTOR
1002
}
1001
GENIUS_GENOBJ-N-FIL_13
1002
{
1000
OWNER
1000
GEN
1002
}
  0
LINE
  5
2879
330
1F
100
AcDbEntity
  8
0
100
AcDbLine
 10
549.9091893846927
 20
318.711043503159
 30
0.0
 11
549.972341267043
 21
318.7077338532475
 31
0.0
  0
LINE
  5
287A
330
1F
100
AcDbEntity
  8
0
100
AcDbLine
 10
549.9091893846927
 20
318.711043503161
 30
0.0
 11
549.9723412670428
 21
318.7077338532496
 31
0.0
  0
ARC
  5
287B
330
1F
100
AcDbEntity
  8
0
100
AcDbCircle
 10
549.9726041412762
 20
313.7061568211194
 30
0.0
 40
5.0
100
AcDbArc
 50
0.0
 51
88.86395064975946
1001
GENIUS_GENODEF_13
1002
{
1000
HIER
1070
     0
1002
}
1002
{
1000
MANEDIT
1070
     0
1002
}
1002
{
1000
NOSEL
1070
     0
1002
}
1002
{
1000
BEHIND
1070
     0
1002
}
1002
{
1000
OTHER
1070
     0
1002
}
1002
{
1000
REACTOR
1002
}
1001
GENIUS_GENOBJ-N-FIL_13
1002
{
1000
OWNER
1000
GEN
1002
}
  0
ARC
  5
287C
330
1F
100
AcDbEntity
  8
0
100
AcDbCircle
 10
557.4726041412758
 20
320.125677542675
 30
0.0
 40
2.5
100
AcDbArc
 50
0.0
 51
86.99999999999439
1001
GENIUS_GENOBJ-N-FIL_13
1002
{
1000
OWNER
1000
GEN
1002
}
1001
GENIUS_GENODEF_13
1002
{
1000
HIER
1070
     0
1002
}
1002
{
1000
MANEDIT
1070
     0
1002
}
1002
{
1000
NOSEL
1070
     0
1002
}
1002
{
1000
BEHIND
1070
     0
1002
}
1002
{
1000
OTHER
1070
     0
1002
}
1002
{
1000
REACTOR
1002
}
  0
LINE
  5
287D
330
1F
100
AcDbEntity
  8
0
100
AcDbLine
 10
551.5687123319236
 20
322.9385182665254
 30
0.0
 11
559.3187123319236
 21
322.5323579770817
 31
0.0
  0
ARC
  5
287E
330
1F
100
AcDbEntity
  8
0
100
AcDbCircle
 10
583.9149107762153
 20
346.0385182665258
 30
0.0
 40
2.5
100
AcDbArc
 50
270.0
 51
342.8953648233591
  0
ARC
  5
287F
330
1F
100
AcDbEntity
  8
0
100
AcDbCircle
 10
585.9217058476985
 20
346.0385182665258
 30
0.0
 40
2.5
100
AcDbArc
 50
270.0
 51
342.8953648233591
  0
ARC
  5
2880
330
1F
100
AcDbEntity
  8
0
100
AcDbCircle
 10
592.0389491808515
 20
343.5385182665258
 30
0.0
 40
6.0
100
AcDbArc
 50
179.9737323409979
 51
180.0
  0
ARC
  5
2881
330
1F
100
AcDbEntity
  8
0
100
AcDbCircle
 10
579.7774778115573
 20
346.0385182665258
 30
0.0
 40
2.5
100
AcDbArc
 50
197.1046351766409
 51
270.0
  0
LINE
  5
2882
330
1F
100
AcDbEntity
  8
0
100
AcDbLine
 10
579.7774778115573
 20
343.5385182665253
 30
0.0
 11
585.9217058476985
 21
343.5385182665253
 31
0.0
  0
LINE
  5
2883
330
1F
100
AcDbEntity
  8
0
100
AcDbLine
 10
564.2958564534511
 20
281.5446785559691
 30
0.0
 11
562.4726041412757
 21
281.5446785559691
 31
0.0
  0
ARC
  5
2884
330
1F
100
AcDbEntity
  8
0
100
AcDbCircle
 10
562.4726041412757
 20
284.0446785559693
 30
0.0
 40
2.5
100
AcDbArc
 50
180.0
 51
270.0
1001
GENIUS_GENOBJ-N-FIL_13
1002
{
1000
OWNER
1000
GEN
1002
}
1001
GENIUS_GENODEF_13
1002
{
1000
HIER
1070
     0
1002
}
1002
{
1000
MANEDIT
1070
     0
1002
}
1002
{
1000
NOSEL
1070
     0
1002
}
1002
{
1000
BEHIND
1070
     0
1002
}
1002
{
1000
OTHER
1070
     0
1002
}
1002
{
1000
REACTOR
1002
}
  0
ARC
  5
2885
330
1F
100
AcDbEntity
  8
0
100
AcDbCircle
 10
566.2731498710305
 20
284.1570905333419
 30
0.0
 40
6.300979974780323
100
AcDbArc
 50
180.6726722328512
 51
227.9963994770112
1001
GENIUS_GENODEF_13
1002
{
1000
HIER
1070
     0
1002
}
1002
{
1000
MANEDIT
1070
     0
1002
}
1002
{
1000
NOSEL
1070
     0
1002
}
1002
{
1000
BEHIND
1070
     0
1002
}
1002
{
1000
OTHER
1070
     0
1002
}
1002
{
1000
REACTOR
1002
}
1001
GENIUS_GENOBJ-N-FIL_13
1002
{
1000
OWNER
1000
GEN
1002
}
  0
LINE
  5
2886
330
1F
100
AcDbEntity
  8
0
100
AcDbLine
 10
559.3143566154835
 20
275.3172867089217
 30
0.0
 11
558.4217726053699
 21
275.8345148821228
 31
0.0
  0
ARC
  5
2887
330
1F
100
AcDbEntity
  8
0
100
AcDbCircle
 10
560.9726041412756
 20
281.2652844846218
 30
0.0
 40
6.0
100
AcDbArc
 50
180.0
 51
244.8405640214147
1001
GENIUS_GENODEF_13
1002
{
1000
HIER
1070
     0
1002
}
1002
{
1000
MANEDIT
1070
     0
1002
}
1002
{
1000
NOSEL
1070
     0
1002
}
1002
{
1000
BEHIND
1070
     0
1002
}
1002
{
1000
OTHER
1070
     0
1002
}
1002
{
1000
REACTOR
1002
}
1001
GENIUS_GENOBJ-N-FIL_13
1002
{
1000
OWNER
1000
GEN
1002
}
  0
ARC
  5
2888
330
1F
100
AcDbEntity
  8
SICHTBAR
100
AcDbCircle
 10
564.295856453451
 20
279.0446785559693
 30
0.0
 40
2.5
100
AcDbArc
 50
0.4999999999980604
 51
90.0
  0
LINE
  5
288B
330
1F
100
AcDbEntity
  8
0
 62
   100
100
AcDbLine
 10
617.5687123319238
 20
338.5385182665256
 30
0.0
 11
618.2226041412761
 21
338.5385182665256
 31
0.0
  0
ARC
  5
288C
330
1F
100
AcDbEntity
  8
0
100
AcDbCircle
 10
617.7316953146167
 20
279.0446785559693
 30
0.0
 40
2.5
100
AcDbArc
 50
90.0
 51
180.0
  0
LINE
  5
288E
330
1F
100
AcDbEntity
  8
0
100
AcDbLine
 10
617.7316953146167
 20
281.5446785559693
 30
0.0
 11
618.7316953146166
 21
281.5446785559693
 31
0.0
  0
ARC
  5
288F
330
1F
100
AcDbEntity
  8
0
100
AcDbCircle
 10
618.7316953146166
 20
279.0446785559693
 30
0.0
 40
2.5
100
AcDbArc
 50
0.0
 51
90.0
  0
LINE
  5
2890
102
{ACAD_REACTORS
330
2C96
102
}
330
1F
100
AcDbEntity
  8
SICHTBAR
100
AcDbLine
 10
563.2226041412758
 20
93.53851826652556
 30
0.0
 11
561.8707126078489
 21
270.4561044926138
 31
0.0
  0
LINE
  5
2891
330
1F
100
AcDbEntity
  8
SICHTBAR
100
AcDbLine
 10
567.9935092191213
 20
123.5385182665255
 30
0.0
 11
566.8660299602509
 21
271.0144995139983
 31
0.0
  0
ARC
  5
2892
330
1F
100
AcDbEntity
  8
0
100
AcDbCircle
 10
612.7316953146167
 20
272.4401982800105
 30
0.0
 40
2.5
100
AcDbArc
 50
325.2302811151473
 51
0.0
  0
ARC
  5
2893
330
1F
100
AcDbEntity
  8
0
100
AcDbCircle
 10
623.7316953146167
 20
272.4401982800105
 30
0.0
 40
2.5
100
AcDbArc
 50
180.0
 51
214.7697188848527
  0
LINE
  5
2894
330
1F
100
AcDbEntity
  8
0
100
AcDbLine
 10
563.2226041412758
 20
93.53851826652556
 30
0.0
 11
570.2226041412758
 21
93.53851826652556
 31
0.0
  0
LINE
  5
2895
330
1F
100
AcDbEntity
  8
0
100
AcDbLine
 10
567.9935092191213
 20
123.5385182665255
 30
0.0
 11
569.2224289776519
 21
103.5843651072573
 31
0.0
  0
LINE
  5
2896
330
1F
100
AcDbEntity
  8
0
100
AcDbLine
 10
569.2224289776519
 20
93.53851826652544
 30
0.0
 11
569.2224289776519
 21
103.5843651072571
 31
0.0
  0
HATCH
  5
2898
330
1F
100
AcDbEntity
  8
8
100
AcDbHatch
 10
0.0
 20
0.0
 30
0.0
210
0.0
220
0.0
230
1.0
  2
_U
 70
     0
 71
     0
 91
        2
 92
        1
 93
       34
 72
     1
 10
743.2487900628452
 20
337.5385182665255
 11
743.2226041412761
 21
338.5385182665253
 72
     1
 10
743.2226041412759
 20
338.5385182665253
 11
694.9753808910087
 21
338.5385182665256
 72
     1
 10
694.9753808910088
 20
338.5385182665256
 11
694.8821016907802
 21
338.5385182665257
 72
     2
 10
694.88210169078
 20
336.0385182665257
 40
2.499999999999943
 50
89.99999999999738
 51
175.000000000004
 73
     1
 72
     1
 10
692.3916149455505
 20
336.2564076233947
 11
691.2553126071036
 21
323.2684124631958
 72
     2
 10
686.2743391166447
 20
323.704191176934
 40
5.000000000000111
 50
5.000000000000363
 51
88.8639506497536
 73
     0
 72
     2
 10
686.4726041412762
 20
313.7061568211213
 40
5.000000000000083
 50
91.13604935024639
 51
179.9999999999993
 73
     1
 72
     1
 10
681.4726041412763
 20
313.7061568211215
 11
681.4726041412763
 21
281.2652844846218
 72
     2
 10
675.4726041412761
 20
281.2652844846218
 40
6.00000000000017
 50
0.0000000000010814
 51
64.84056402141158
 73
     0
 72
     1
 10
678.0234356771821
 20
275.8345148821227
 11
677.1308516670683
 21
275.3172867089217
 72
     2
 10
680.5742672130881
 20
270.4037452796234
 40
5.999999999999984
 50
125.0228161442777
 51
179.5000000000003
 73
     1
 72
     1
 10
674.574495674703
 20
270.4561044926136
 11
673.2226041412758
 21
93.53851826652544
 72
     1
 10
673.2226041412758
 20
93.53851826652544
 11
667.2227793048998
 21
93.53851826652544
 72
     1
 10
667.2227793048997
 20
93.53851826652544
 11
667.2227793048997
 21
103.5843651072572
 72
     1
 10
667.2227793048998
 20
103.5843651072572
 11
668.4516990634306
 21
123.5385182665254
 72
     1
 10
668.4516990634305
 20
123.5385182665254
 11
669.5791783223011
 21
271.0144995139978
 72
     2
 10
679.5787975529427
 20
270.9272341590144
 40
9.999999999999939
 50
180.4999999999977
 51
238.733017325545
 73
     0
 72
     2
 10
670.1720584115212
 20
284.1570905333419
 40
6.300979974780554
 50
312.0036005229974
 51
359.3273277671461
 73
     1
 72
     1
 10
676.4726041412761
 20
284.0831165524278
 11
676.4726041412761
 21
320.125677542675
 72
     2
 10
678.9726041412762
 20
320.125677542675
 40
2.499999999999943
 50
179.9999999999987
 51
266.9999999999996
 73
     0
 72
     1
 10
678.8417642506689
 20
322.6222513795615
 11
684.8764959506284
 21
322.9385182665255
 72
     2
 10
684.8764959506284
 20
324.9385182665256
 40
2.000000000000113
 50
269.9999999999968
 51
359.9999999999935
 73
     1
 72
     1
 10
686.8764959506283
 20
324.9385182665254
 11
686.8764959506283
 21
331.5385182665257
 72
     2
 10
684.8764959506286
 20
331.5385182665262
 40
2.0
 50
359.9999999999837
 51
450.0000000000081
 73
     1
 72
     1
 10
684.8764959506281
 20
333.5385182665262
 11
678.5479920162638
 21
333.8701811039102
 72
     2
 10
678.6264959506283
 20
335.3681254060421
 40
1.499999999999959
 50
92.99999999999478
 51
179.9999999999891
 73
     0
 72
     1
 10
677.1264959506282
 20
335.3681254060417
 11
677.1264959506283
 21
337.0385182665259
 72
     2
 10
678.6264959506285
 20
337.0385182665257
 40
1.500000000000056
 50
180.0000000000109
 51
269.9999999999978
 73
     0
 72
     1
 10
678.6264959506284
 20
338.5385182665257
 11
688.9605652448611
 21
338.5385182665256
 72
     1
 10
688.9605652448608
 20
338.5385182665256
 11
689.2226041412759
 21
343.5385182665253
 72
     1
 10
689.2226041412759
 20
343.5385182665253
 11
760.0668931790819
 21
343.5385182665258
 72
     2
 10
760.0668931790819
 20
341.0385182665259
 40
2.499999999999886
 50
269.9999999999973
 51
350.0000000000104
 73
     0
 72
     1
 10
762.5289125616125
 20
341.4726387106928
 11
763.2226041412759
 21
337.5385182665255
 72
     1
 10
763.2226041412759
 20
337.5385182665255
 11
743.2487900628451
 21
337.5385182665255
 97
        0
 92
       16
 93
        4
 72
     1
 10
680.8554468537509
 20
284.2385693000215
 11
677.0897614288017
 21
284.2385693000215
 72
     1
 10
677.0897614288017
 20
284.2385693000215
 11
677.0897614288017
 21
290.2385693000215
 72
     1
 10
677.0897614288017
 20
290.2385693000215
 11
680.8554468537509
 21
290.2385693000215
 72
     1
 10
680.8554468537509
 20
290.2385693000215
 11
680.8554468537509
 21
284.2385693000215
 97
        0
 75
     0
 76
     0
 52
44.99999999999999
 41
2.5
 77
     0
 78
     1
 53
44.99999999999999
 43
342.891864150239
 44
-143.4457177287574
 45
-1.767766952966368
 46
1.767766952966369
 79
     0
 98
        1
 10
342.891864150239
 20
-143.4457177287574
1001
GENIUS_GENOBJ-N-HTC_13
1002
{
1000
OWNER
1000
GEN
1002
}
1001
GENIUS_GENODEF_13
1002
{
1000
HIER
1070
     0
1002
}
1002
{
1000
MANEDIT
1070
     0
1002
}
1002
{
1000
NOSEL
1070
     0
1002
}
1002
{
1000
BEHIND
1070
     0
1002
}
1002
{
1000
OTHER
1070
     0
1002
}
1002
{
1000
REACTOR
1002
}
1001
GENIUS_GENHATCH_13
1002
{
1000
DATA
1040
45.0
1042
2.5
1000
_U
1070
     0
1011
671.1860690107418
1021
101.4911747261911
1031
0.0
1002
}
1002
{
1000
UCS
1010
0.0
1020
0.0
1030
0.0
1010
1.0
1020
0.0
1030
0.0
1010
0.0
1020
1.0
1030
0.0
1002
}
  0
LINE
  5
2899
330
1F
100
AcDbEntity
  8
SICHTBAR
100
AcDbLine
 10
669.5791783223011
 20
271.0144995139983
 30
0.0
 11
669.6494470214404
 21
279.0664948947151
 31
0.0
  0
ARC
  5
289A
330
1F
100
AcDbEntity
  8
SICHTBAR
100
AcDbCircle
 10
679.5787975529428
 20
270.9272341590144
 30
0.0
 40
10.0
100
AcDbArc
 50
121.2669826744582
 51
179.5000000000019
  0
ARC
  5
289B
330
1F
100
AcDbEntity
  8
SICHTBAR
100
AcDbCircle
 10
680.5742672130882
 20
270.4037452796235
 30
0.0
 40
6.0
100
AcDbArc
 50
125.0228161442821
 51
179.5000000000019
  0
LINE
  5
289D
330
1F
100
AcDbEntity
  8
0
100
AcDbLine
 10
763.2226041412759
 20
337.5385182665255
 30
0.0
 11
743.2487900628452
 21
337.5385182665258
 31
0.0
  0
LINE
  5
289E
330
1F
100
AcDbEntity
  8
0
100
AcDbLine
 10
760.0668931790819
 20
343.5385182665257
 30
0.0
 11
689.2226041412759
 21
343.5385182665253
 31
0.0
  0
LINE
  5
28A0
330
1F
100
AcDbEntity
  8
0
100
AcDbLine
 10
689.5370508169742
 20
349.5385182665253
 30
0.0
 11
689.2226041412759
 21
343.5385182665253
 31
0.0
  0
LINE
  5
28A1
330
1F
100
AcDbEntity
  8
0
100
AcDbLine
 10
689.5370508169742
 20
349.5385182665253
 30
0.0
 11
689.2226041412759
 21
343.5385182665253
 31
0.0
  0
ARC
  5
28A2
330
1F
100
AcDbEntity
  8
0
100
AcDbCircle
 10
697.4128608185012
 20
347.5385182665258
 30
0.0
 40
4.0
100
AcDbArc
 50
184.9999999999997
 51
270.0
  0
ARC
  5
28A3
330
1F
100
AcDbEntity
  8
0
100
AcDbCircle
 10
697.4128608185012
 20
347.538518266526
 30
0.0
 40
4.0
100
AcDbArc
 50
184.9999999999997
 51
270.0
  0
ARC
  5
28A4
330
1F
100
AcDbEntity
  8
0
100
AcDbCircle
 10
664.7917688756307
 20
343.5385182665258
 30
0.0
 40
6.0
100
AcDbArc
 50
90.0
 51
162.895364823359
  0
ARC
  5
28A5
330
1F
100
AcDbEntity
  8
0
100
AcDbCircle
 10
664.7917688756307
 20
343.5385182665259
 30
0.0
 40
6.0
100
AcDbArc
 50
90.0
 51
162.895364823359
  0
ARC
  5
28A6
330
1F
100
AcDbEntity
  8
0
100
AcDbCircle
 10
644.4062591017005
 20
343.5385182665258
 30
0.0
 40
6.0
100
AcDbArc
 50
17.10463517664093
 51
90.0
  0
LINE
  5
28A7
330
1F
100
AcDbEntity
  8
BEMASS
100
AcDbLine
 10
689.2226041412759
 20
343.5385182665252
 30
0.0
 11
689.2226041412759
 21
360.8853683032169
 31
0.0
  0
LINE
  5
28AB
330
1F
100
AcDbEntity
  8
0
100
AcDbLine
 10
693.2226041412759
 20
349.5385182665255
 30
0.0
 11
664.7917688756307
 21
349.5385182665253
 31
0.0
  0
LINE
  5
28AC
330
1F
100
AcDbEntity
  8
0
100
AcDbLine
 10
664.7917688756307
 20
349.5385182665258
 30
0.0
 11
693.2226041412759
 21
349.5385182665253
 31
0.0
  0
LINE
  5
28AD
330
1F
100
AcDbEntity
  8
BEMASS
100
AcDbLine
 10
693.2226041412759
 20
349.5385182665252
 30
0.0
 11
693.2226041412759
 21
362.162285127504
 31
0.0
  0
LINE
  5
28AF
330
1F
100
AcDbEntity
  8
0
100
AcDbLine
 10
693.2226041412759
 20
349.5385182665255
 30
0.0
 11
693.4280820261342
 21
347.189895295535
 31
0.0
  0
LINE
  5
28B0
330
1F
100
AcDbEntity
  8
0
100
AcDbLine
 10
693.2226041412759
 20
349.5385182665253
 30
0.0
 11
693.4280820261342
 21
347.1898952955347
 31
0.0
  0
LINE
  5
28B1
330
1F
100
AcDbEntity
  8
0
100
AcDbLine
 10
705.2136444713491
 20
338.5385182665256
 30
0.0
 11
694.88210169078
 21
338.5385182665256
 31
0.0
  0
LINE
  5
28B2
330
1F
100
AcDbEntity
  8
0
100
AcDbLine
 10
715.0226041412759
 20
343.5385182665255
 30
0.0
 11
689.2226041412759
 21
343.5385182665253
 31
0.0
  0
LINE
  5
28B3
330
1F
100
AcDbEntity
  8
0
100
AcDbLine
 10
743.2226041412759
 20
338.5385182665253
 30
0.0
 11
694.9753808910088
 21
338.5385182665256
 31
0.0
  0
LINE
  5
28B4
330
1F
100
AcDbEntity
  8
0
100
AcDbLine
 10
731.2487900628452
 20
337.5385182665258
 30
0.0
 11
692.8821016907802
 21
337.538518266526
 31
0.0
  0
ARC
  5
28B5
330
1F
100
AcDbEntity
  8
0
100
AcDbCircle
 10
699.1243035787706
 20
333.5385182665258
 30
0.0
 40
9.0
100
AcDbArc
 50
214.5067338943884
 51
346.391039369216
  0
LINE
  5
28B6
330
1F
100
AcDbEntity
  8
0
100
AcDbLine
 10
681.4726041412763
 20
281.2652844846218
 30
0.0
 11
681.4726041412763
 21
313.7061568211215
 31
0.0
  0
LINE
  5
28B7
330
1F
100
AcDbEntity
  8
0
100
AcDbLine
 10
676.4726041412763
 20
284.0831165524278
 30
0.0
 11
676.4726041412763
 21
320.125677542675
 31
0.0
  0
LINE
  5
28B9
330
1F
100
AcDbEntity
  8
0
100
AcDbLine
 10
656.6677304709948
 20
343.5385182665253
 30
0.0
 11
650.5235024348536
 21
343.5385182665253
 31
0.0
  0
ARC
  5
28BA
330
1F
100
AcDbEntity
  8
0
100
AcDbCircle
 10
644.4062591017005
 20
343.5385182665258
 30
0.0
 40
6.0
100
AcDbArc
 50
0.0
 51
0.0262676590020423
  0
ARC
  5
28BB
330
1F
100
AcDbEntity
  8
0
100
AcDbCircle
 10
650.5235024348536
 20
346.0385182665258
 30
0.0
 40
2.5
100
AcDbArc
 50
197.1046351766409
 51
270.0
  0
ARC
  5
28BC
330
1F
100
AcDbEntity
  8
0
100
AcDbCircle
 10
652.5302975063367
 20
346.0385182665258
 30
0.0
 40
2.5
100
AcDbArc
 50
197.1046351766409
 51
270.0
  0
ARC
  5
28BD
330
1F
100
AcDbEntity
  8
0
100
AcDbCircle
 10
656.6677304709948
 20
346.0385182665258
 30
0.0
 40
2.5
100
AcDbArc
 50
270.0
 51
342.8953648233591
  0
ARC
  5
28BE
330
1F
100
AcDbEntity
  8
0
100
AcDbCircle
 10
656.6677304709948
 20
346.0385182665259
 30
0.0
 40
2.5
100
AcDbArc
 50
270.0
 51
342.8953648233591
  0
LINE
  5
28BF
330
1F
100
AcDbEntity
  8
0
100
AcDbLine
 10
686.8764959506283
 20
331.5385182665266
 30
0.0
 11
686.8764959506283
 21
324.9385182665254
 31
0.0
  0
LINE
  5
28C0
330
1F
100
AcDbEntity
  8
0
100
AcDbLine
 10
692.3916149455505
 20
336.2564076233947
 30
0.0
 11
691.2553126071036
 21
323.2684124631954
 31
0.0
  0
LINE
  5
28C1
330
1F
100
AcDbEntity
  8
0
100
AcDbLine
 10
684.8764959506281
 20
333.5385182665262
 30
0.0
 11
678.5479920162639
 21
333.8701811039099
 31
0.0
  0
LINE
  5
28C2
330
1F
100
AcDbEntity
  8
0
100
AcDbLine
 10
677.1264959506282
 20
335.5385182665262
 30
0.0
 11
677.1264959506282
 21
337.0385182665265
 31
0.0
  0
LINE
  5
28C3
330
1F
100
AcDbEntity
  8
0
100
AcDbLine
 10
677.1264959506285
 20
335.5385182665255
 30
0.0
 11
677.1264959506285
 21
337.0385182665258
 31
0.0
  0
LINE
  5
28C4
330
1F
100
AcDbEntity
  8
0
100
AcDbLine
 10
677.1264959506285
 20
335.5385182665253
 30
0.0
 11
677.1264959506285
 21
337.0385182665258
 31
0.0
  0
LINE
  5
28C5
330
1F
100
AcDbEntity
  8
0
100
AcDbLine
 10
677.1264959506282
 20
335.3681254060417
 30
0.0
 11
677.1264959506282
 21
337.0385182665265
 31
0.0
  0
ARC
  5
28C6
330
1F
100
AcDbEntity
  8
0
100
AcDbCircle
 10
678.6264959506283
 20
337.0385182665257
 30
0.0
 40
1.5
100
AcDbArc
 50
90.0
 51
180.0
1001
GENIUS_GENOBJ-N-FIL_13
1002
{
1000
OWNER
1000
GEN
1002
}
1001
GENIUS_GENODEF_13
1002
{
1000
HIER
1070
     0
1002
}
1002
{
1000
MANEDIT
1070
     0
1002
}
1002
{
1000
NOSEL
1070
     0
1002
}
1002
{
1000
BEHIND
1070
     0
1002
}
1002
{
1000
OTHER
1070
     0
1002
}
1002
{
1000
REACTOR
1002
}
  0
ARC
  5
28C7
330
1F
100
AcDbEntity
  8
0
100
AcDbCircle
 10
678.6264959506283
 20
337.0385182665259
 30
0.0
 40
1.5
100
AcDbArc
 50
90.0
 51
180.0
1001
GENIUS_GENOBJ-N-FIL_13
1002
{
1000
OWNER
1000
GEN
1002
}
1001
GENIUS_GENODEF_13
1002
{
1000
HIER
1070
     0
1002
}
1002
{
1000
MANEDIT
1070
     0
1002
}
1002
{
1000
NOSEL
1070
     0
1002
}
1002
{
1000
BEHIND
1070
     0
1002
}
1002
{
1000
OTHER
1070
     0
1002
}
1002
{
1000
REACTOR
1002
}
  0
ARC
  5
28C8
330
1F
100
AcDbEntity
  8
0
100
AcDbCircle
 10
678.6264959506283
 20
335.3681254060421
 30
0.0
 40
1.5
100
AcDbArc
 50
180.0
 51
267.0000000000074
1001
GENIUS_GENOBJ-N-FIL_13
1002
{
1000
OWNER
1000
GEN
1002
}
1001
GENIUS_GENODEF_13
1002
{
1000
HIER
1070
     0
1002
}
1002
{
1000
MANEDIT
1070
     0
1002
}
1002
{
1000
NOSEL
1070
     0
1002
}
1002
{
1000
BEHIND
1070
     0
1002
}
1002
{
1000
OTHER
1070
     0
1002
}
1002
{
1000
REACTOR
1002
}
  0
ARC
  5
28C9
330
1F
100
AcDbEntity
  8
0
100
AcDbCircle
 10
694.88210169078
 20
336.0385182665257
 30
0.0
 40
2.5
100
AcDbArc
 50
90.0
 51
175.0000000000002
1001
GENIUS_GENOBJ-N-FIL_13
1002
{
1000
OWNER
1000
GEN
1002
}
1001
GENIUS_GENODEF_13
1002
{
1000
HIER
1070
     0
1002
}
1002
{
1000
MANEDIT
1070
     0
1002
}
1002
{
1000
NOSEL
1070
     0
1002
}
1002
{
1000
BEHIND
1070
     0
1002
}
1002
{
1000
OTHER
1070
     0
1002
}
1002
{
1000
REACTOR
1002
}
  0
POINT
  5
28CA
330
1F
100
AcDbEntity
  8
Defpoints
  6
ByBlock
 62
     0
100
AcDbPoint
 10
694.751784461805
 20
344.5521035893865
 30
0.0
 50
270.0
  0
LINE
  5
28CB
330
1F
100
AcDbEntity
  8
0
100
AcDbLine
 10
683.0752581026928
 20
338.5385182665256
 30
0.0
 11
688.9605652448608
 21
338.5385182665256
 31
0.0
  0
LINE
  5
28CC
330
1F
100
AcDbEntity
  8
0
100
AcDbLine
 10
689.2226041412759
 20
343.5385182665253
 30
0.0
 11
688.9605652448608
 21
338.5385182665256
 31
0.0
  0
LINE
  5
28CD
330
1F
100
AcDbEntity
  8
0
100
AcDbLine
 10
689.2226041412759
 20
343.5385182665253
 30
0.0
 11
688.9605652448608
 21
338.5385182665256
 31
0.0
  0
ARC
  5
28CE
330
1F
100
AcDbEntity
  8
0
100
AcDbCircle
 10
684.8764959506281
 20
331.5385182665266
 30
0.0
 40
2.0
100
AcDbArc
 50
0.0
 51
90.0
1001
GENIUS_GENOBJ-N-FIL_13
1002
{
1000
OWNER
1000
GEN
1002
}
1001
GENIUS_GENODEF_13
1002
{
1000
HIER
1070
     0
1002
}
1002
{
1000
MANEDIT
1070
     0
1002
}
1002
{
1000
NOSEL
1070
     0
1002
}
1002
{
1000
BEHIND
1070
     0
1002
}
1002
{
1000
OTHER
1070
     0
1002
}
1002
{
1000
REACTOR
1002
}
  0
ARC
  5
28CF
330
1F
100
AcDbEntity
  8
0
100
AcDbCircle
 10
684.8764959506284
 20
331.5385182665257
 30
0.0
 40
2.0
100
AcDbArc
 50
0.0
 51
90.0
1001
GENIUS_GENOBJ-N-FIL_13
1002
{
1000
OWNER
1000
GEN
1002
}
1001
GENIUS_GENODEF_13
1002
{
1000
HIER
1070
     0
1002
}
1002
{
1000
MANEDIT
1070
     0
1002
}
1002
{
1000
NOSEL
1070
     0
1002
}
1002
{
1000
BEHIND
1070
     0
1002
}
1002
{
1000
OTHER
1070
     0
1002
}
1002
{
1000
REACTOR
1002
}
  0
ARC
  5
28D0
330
1F
100
AcDbEntity
  8
0
100
AcDbCircle
 10
686.4726041412762
 20
313.7061568211215
 30
0.0
 40
5.0
100
AcDbArc
 50
91.13604935024055
 51
180.0
1001
GENIUS_GENODEF_13
1002
{
1000
HIER
1070
     0
1002
}
1002
{
1000
MANEDIT
1070
     0
1002
}
1002
{
1000
NOSEL
1070
     0
1002
}
1002
{
1000
BEHIND
1070
     0
1002
}
1002
{
1000
OTHER
1070
     0
1002
}
1002
{
1000
REACTOR
1002
}
1001
GENIUS_GENOBJ-N-FIL_13
1002
{
1000
OWNER
1000
GEN
1002
}
  0
LINE
  5
28D1
330
1F
100
AcDbEntity
  8
0
100
AcDbLine
 10
684.8764959506284
 20
322.9385182665254
 30
0.0
 11
677.1264959506285
 21
322.5323579770817
 31
0.0
  0
ARC
  5
28D2
330
1F
100
AcDbEntity
  8
0
100
AcDbCircle
 10
678.9726041412762
 20
320.1256775426749
 30
0.0
 40
2.5
100
AcDbArc
 50
92.99999999999256
 51
180.0
1001
GENIUS_GENOBJ-N-FIL_13
1002
{
1000
OWNER
1000
GEN
1002
}
1001
GENIUS_GENODEF_13
1002
{
1000
HIER
1070
     0
1002
}
1002
{
1000
MANEDIT
1070
     0
1002
}
1002
{
1000
NOSEL
1070
     0
1002
}
1002
{
1000
BEHIND
1070
     0
1002
}
1002
{
1000
OTHER
1070
     0
1002
}
1002
{
1000
REACTOR
1002
}
  0
ARC
  5
28D3
330
1F
100
AcDbEntity
  8
0
100
AcDbCircle
 10
686.2743391166447
 20
323.704191176934
 30
0.0
 40
5.0
100
AcDbArc
 50
271.1360493502406
 51
355.0000000000003
1001
GENIUS_GENODEF_13
1002
{
1000
HIER
1070
     0
1002
}
1002
{
1000
MANEDIT
1070
     0
1002
}
1002
{
1000
NOSEL
1070
     0
1002
}
1002
{
1000
BEHIND
1070
     0
1002
}
1002
{
1000
OTHER
1070
     0
1002
}
1002
{
1000
REACTOR
1002
}
1001
GENIUS_GENOBJ-N-FIL_13
1002
{
1000
OWNER
1000
GEN
1002
}
  0
LINE
  5
28D4
330
1F
100
AcDbEntity
  8
0
100
AcDbLine
 10
686.5360188978593
 20
318.711043503161
 30
0.0
 11
686.472867015509
 21
318.7077338532496
 31
0.0
  0
ARC
  5
28D5
330
1F
100
AcDbEntity
  8
0
100
AcDbCircle
 10
684.8764959506281
 20
324.9385182665255
 30
0.0
 40
2.0
100
AcDbArc
 50
270.0
 51
0.0
1001
GENIUS_GENOBJ-N-FIL_13
1002
{
1000
OWNER
1000
GEN
1002
}
1001
GENIUS_GENODEF_13
1002
{
1000
HIER
1070
     0
1002
}
1002
{
1000
MANEDIT
1070
     0
1002
}
1002
{
1000
NOSEL
1070
     0
1002
}
1002
{
1000
BEHIND
1070
     0
1002
}
1002
{
1000
OTHER
1070
     0
1002
}
1002
{
1000
REACTOR
1002
}
  0
ARC
  5
28D6
330
1F
100
AcDbEntity
  8
SICHTBAR
100
AcDbCircle
 10
672.1493518291009
 20
279.0446785559693
 30
0.0
 40
2.5
100
AcDbArc
 50
90.0
 51
179.5000000000019
  0
ARC
  5
28D7
330
1F
100
AcDbEntity
  8
0
100
AcDbCircle
 10
673.9726041412763
 20
284.0446785559691
 30
0.0
 40
2.5
100
AcDbArc
 50
270.0
 51
0.0
1001
GENIUS_GENOBJ-N-FIL_13
1002
{
1000
OWNER
1000
GEN
1002
}
1001
GENIUS_GENODEF_13
1002
{
1000
HIER
1070
     0
1002
}
1002
{
1000
MANEDIT
1070
     0
1002
}
1002
{
1000
NOSEL
1070
     0
1002
}
1002
{
1000
BEHIND
1070
     0
1002
}
1002
{
1000
OTHER
1070
     0
1002
}
1002
{
1000
REACTOR
1002
}
  0
ARC
  5
28D8
330
1F
100
AcDbEntity
  8
0
100
AcDbCircle
 10
670.1720584115215
 20
284.1570905333419
 30
0.0
 40
6.300979974780323
100
AcDbArc
 50
312.0036005229888
 51
359.3273277671488
1001
GENIUS_GENODEF_13
1002
{
1000
HIER
1070
     0
1002
}
1002
{
1000
MANEDIT
1070
     0
1002
}
1002
{
1000
NOSEL
1070
     0
1002
}
1002
{
1000
BEHIND
1070
     0
1002
}
1002
{
1000
OTHER
1070
     0
1002
}
1002
{
1000
REACTOR
1002
}
1001
GENIUS_GENOBJ-N-FIL_13
1002
{
1000
OWNER
1000
GEN
1002
}
  0
LINE
  5
28D9
330
1F
100
AcDbEntity
  8
0
100
AcDbLine
 10
677.1308516670684
 20
275.3172867089217
 30
0.0
 11
678.0234356771821
 21
275.8345148821227
 31
0.0
  0
LINE
  5
28DA
330
1F
100
AcDbEntity
  8
0
100
AcDbLine
 10
672.1493518291008
 20
281.5446785559691
 30
0.0
 11
673.9726041412763
 21
281.5446785559691
 31
0.0
  0
ARC
  5
28DB
330
1F
100
AcDbEntity
  8
0
100
AcDbCircle
 10
675.4726041412762
 20
281.2652844846218
 30
0.0
 40
6.0
100
AcDbArc
 50
295.1594359785853
 51
0.0
1001
GENIUS_GENODEF_13
1002
{
1000
HIER
1070
     0
1002
}
1002
{
1000
MANEDIT
1070
     0
1002
}
1002
{
1000
NOSEL
1070
     0
1002
}
1002
{
1000
BEHIND
1070
     0
1002
}
1002
{
1000
OTHER
1070
     0
1002
}
1002
{
1000
REACTOR
1002
}
1001
GENIUS_GENOBJ-N-FIL_13
1002
{
1000
OWNER
1000
GEN
1002
}
  0
ARC
  5
28DC
330
1F
100
AcDbEntity
  8
0
100
AcDbCircle
 10
715.647015220629
 20
329.5385182665258
 30
0.0
 40
8.0
100
AcDbArc
 50
90.0
 51
166.3910393692159
  0
LINE
  5
28DD
330
1F
100
AcDbEntity
  8
0
100
AcDbLine
 10
743.2487900628452
 20
337.5385182665258
 30
0.0
 11
731.2487900628452
 21
337.5385182665258
 31
0.0
  0
LINE
  5
28DE
330
1F
100
AcDbEntity
  8
0
100
AcDbLine
 10
743.2226041412759
 20
338.5385182665256
 30
0.0
 11
743.2487900628452
 21
337.5385182665255
 31
0.0
  0
ARC
  5
28DF
330
1F
100
AcDbEntity
  8
0
100
AcDbCircle
 10
760.0668931790819
 20
341.0385182665258
 30
0.0
 40
2.5
100
AcDbArc
 50
9.999999999998609
 51
90.0
  0
LINE
  5
28E0
330
1F
100
AcDbEntity
  8
0
100
AcDbLine
 10
763.2226041412759
 20
337.5385182665255
 30
0.0
 11
762.5289125616125
 21
341.4726387106928
 31
0.0
  0
LINE
  5
28E1
330
1F
100
AcDbEntity
  8
SICHTBAR
100
AcDbLine
 10
668.4516990634305
 20
123.5385182665254
 30
0.0
 11
669.5791783223011
 21
271.0144995139983
 31
0.0
  0
LINE
  5
28E2
330
1F
100
AcDbEntity
  8
SICHTBAR
100
AcDbLine
 10
673.2226041412758
 20
93.53851826652544
 30
0.0
 11
674.574495674703
 21
270.4561044926136
 31
0.0
  0
LINE
  5
28E3
102
{ACAD_REACTORS
330
2C96
102
}
330
1F
100
AcDbEntity
  8
0
100
AcDbLine
 10
673.2226041412758
 20
93.53851826652544
 30
0.0
 11
666.2226041412758
 21
93.53851826652544
 31
0.0
  0
LINE
  5
28E4
330
1F
100
AcDbEntity
  8
0
100
AcDbLine
 10
668.4516990634305
 20
123.5385182665254
 30
0.0
 11
667.2227793048998
 21
103.5843651072572
 31
0.0
  0
LINE
  5
28E5
102
{ACAD_REACTORS
330
2C63
102
}
330
1F
100
AcDbEntity
  8
0
100
AcDbLine
 10
667.2227793048997
 20
93.53851826652544
 30
0.0
 11
667.2227793048998
 21
103.584365107257
 31
0.0
  0
POINT
  5
28EB
330
1F
100
AcDbEntity
  8
0
 60
     1
100
AcDbPoint
 10
427.8856341902139
 20
0.000000329575073
 30
0.0
1001
GENIUS_GENOBJ-NBEHI-BHB_13
1002
{
1000
OWNER
1000
genbehi
1002
}
1001
GENIUS_GENOLIS_13
1002
{
1000
ENT
1005
2733
1005
2734
1005
26F2
1005
2723
1005
2713
1005
272D
1005
2727
1005
272A
1005
26FD
1002
}
1001
GENIUS_GENOENT_13
1002
{
1000
MYREF
1005
28EB
1002
}
1002
{
1000
GRP
1005
0
1002
}
1001
GENIUS_GENBH_13
1002
{
1000
FGO
1005
28EA
1002
}
1001
GENIUS_GENODEF_13
1002
{
1000
HIER
1070
     1
1002
}
1002
{
1000
MANEDIT
1070
     1
1002
}
1002
{
1000
NOSEL
1070
     1
1002
}
1002
{
1000
BEHIND
1070
     0
1002
}
1002
{
1000
OTHER
1070
     1
1002
}
1002
{
1000
REACTOR
1002
}
  0
POINT
  5
28EC
330
1F
100
AcDbEntity
  8
0
 60
     1
100
AcDbPoint
 10
427.8856341902139
 20
0.000000329575073
 30
0.0
1001
GENIUS_GENOENT_13
1002
{
1000
MYREF
1005
28EC
1002
}
1002
{
1000
GRP
1005
0
1002
}
1001
GENIUS_GENOLIS_13
1002
{
1000
ENT
1005
2733
1005
26F2
1005
2730
1005
26F3
1005
26F4
1005
2729
1005
2722
1005
2734
1005
2723
1005
271F
1005
2719
1005
2709
1005
271D
1005
2721
1005
2725
1005
2724
1005
272F
1005
272E
1005
2713
1005
2732
1005
2731
1005
2704
1005
2728
1005
272A
1005
271B
1005
2720
1005
271E
1005
271A
1005
0
1005
2703
1005
2717
1005
2718
1005
2714
1005
2716
1005
2715
1002
}
1001
GENIUS_GENOBJ-NBEHI-BHB_13
1002
{
1000
OWNER
1000
genbehi
1002
}
1001
GENIUS_GENBH_13
1002
{
1000
FGO
1005
28E9
1002
}
1001
GENIUS_GENODEF_13
1002
{
1000
HIER
1070
     1
1002
}
1002
{
1000
MANEDIT
1070
     1
1002
}
1002
{
1000
NOSEL
1070
     1
1002
}
1002
{
1000
BEHIND
1070
     1
1002
}
1002
{
1000
OTHER
1070
     1
1002
}
1002
{
1000
REACTOR
1002
}
  0
LINE
  5
2B84
330
1F
100
AcDbEntity
  8
0
100
AcDbLine
 10
690.7196041412761
 20
351.9965182665254
 30
0.0
 11
707.5366041412761
 21
351.9965182665254
 31
0.0
  0
LINE
  5
2B85
330
1F
100
AcDbEntity
  8
0
100
AcDbLine
 10
618.2226041412761
 20
349.9975182665254
 30
0.0
 11
756.2476041412761
 21
349.9975182665254
 31
0.0
  0
LINE
  5
2B86
330
1F
100
AcDbEntity
  8
0
100
AcDbLine
 10
524.0232015682522
 20
351.9963629830281
 30
0.0
 11
526.634604141276
 21
351.9965182665254
 31
0.0
1001
GENIUS_GENOREF_13
1005
2C43
1005
2C42
  0
LINE
  5
2B87
330
1F
100
AcDbEntity
  8
0
100
AcDbLine
 10
522.2183979401337
 20
343.5385182665255
 30
0.0
 11
535.9780286441088
 21
343.5385182665255
 31
0.0
1001
GENIUS_GENOREF_13
1005
2C43
  0
LINE
  5
2B88
330
1F
100
AcDbEntity
  8
0
100
AcDbLine
 10
522.2183979401337
 20
343.5385182665255
 30
0.0
 11
547.2183979401339
 21
343.5385182665255
 31
0.0
1001
GENIUS_GENOREF_13
1005
2C43
  0
LINE
  5
2B89
330
1F
100
AcDbEntity
  8
0
100
AcDbLine
 10
525.723604141276
 20
344.3665182665254
 30
0.0
 11
531.4416041412761
 21
343.9165182665254
 31
0.0
  0
INSERT
  5
2B8A
330
1F
100
AcDbEntity
  8
8
100
AcDbBlockReference
  2
*X5
 10
836.4096041412761
 20
-21.03348173347462
 30
0.0
 41
-1.0
1001
ACAD
1000
HATCH
1002
{
1070
    19
1000
ANSI31,_I
1040
3.174999999999999
1040
0.7850000000000001
1002
}
  0
INSERT
  5
2B8D
330
1F
100
AcDbEntity
  8
AM_0N
100
AcDbBlockReference
  2
*U48
 10
0.0
 20
0.0
 30
0.0
1001
GENIUS_GENOREF_13
1005
2C41
  0
INSERT
  5
2B8E
330
1F
100
AcDbEntity
  8
AM_0N
100
AcDbBlockReference
  2
*U49
 10
0.0
 20
0.0
 30
0.0
1001
GENIUS_GENOREF_13
1005
2C40
1005
2C42
  0
LINE
  5
2B8F
330
1F
100
AcDbEntity
  8
0
100
AcDbLine
 10
486.586604141276
 20
343.5245182665255
 30
0.0
 11
483.2493220716864
 21
343.7935108868378
 31
0.0
  0
LINE
  5
2B90
330
1F
100
AcDbEntity
  8
0
100
AcDbLine
 10
507.809604141276
 20
349.9975182665254
 30
0.0
 11
480.1976041412761
 21
349.9975182665254
 31
0.0
  0
INSERT
  5
2B91
330
1F
100
AcDbEntity
  8
8
100
AcDbBlockReference
  2
*X6
 10
836.4096041412761
 20
-21.03348173347462
 30
0.0
 41
-1.0
1001
ACAD
1000
HATCH
1002
{
1070
    19
1000
ANSI31,_I
1040
3.174999999999999
1040
0.7850000000000001
1002
}
  0
LINE
  5
2B92
330
1F
100
AcDbEntity
  8
0
100
AcDbLine
 10
480.5017787830924
 20
346.5221679133343
 30
0.0
 11
480.1976041412761
 21
349.9965182665254
 31
0.0
  0
ARC
  5
2B93
330
1F
100
AcDbEntity
  8
0
100
AcDbCircle
 10
483.4903473098789
 20
346.7838130178196
 30
0.0
 40
3.0
100
AcDbArc
 50
185.0034101715662
 51
265.3917904261119
1001
GENIUS_GENODEF_13
1002
{
1000
HIER
1070
     0
1002
}
1002
{
1000
MANEDIT
1070
     0
1002
}
1002
{
1000
NOSEL
1070
     0
1002
}
1002
{
1000
BEHIND
1070
     0
1002
}
1002
{
1000
REACTOR
1002
}
1001
GENIUS_GENOBJ-N-FIL_13
1002
{
1000
OWNER
1000
GEN
1002
}
  0
LINE
  5
2B94
330
1F
100
AcDbEntity
  8
0
100
AcDbLine
 10
505.105604141276
 20
343.6865182665254
 30
0.0
 11
510.8156041412761
 21
344.2365182665254
 31
0.0
  0
LINE
  5
2B95
330
1F
100
AcDbEntity
  8
0
100
AcDbLine
 10
486.586604141276
 20
343.5245182665255
 30
0.0
 11
495.7226041412761
 21
344.4045182665254
 31
0.0
  0
LINE
  5
2B96
330
1F
100
AcDbEntity
  8
0
100
AcDbLine
 10
495.7226041412761
 20
344.4045182665254
 30
0.0
 11
504.8726041412761
 21
343.6845182665254
 31
0.0
  0
LINE
  5
2B97
330
1F
100
AcDbEntity
  8
0
100
AcDbLine
 10
504.8726041412761
 20
343.6845182665254
 30
0.0
 11
505.105604141276
 21
343.6865182665254
 31
0.0
  0
LINE
  5
2B98
330
1F
100
AcDbEntity
  8
AM_INV
 48
0.256
100
AcDbLine
 10
518.222604141276
 20
353.8985182665253
 30
0.0
 11
518.222604141276
 21
342.6465182665254
 31
0.0
1001
GENIUS_GENBH_13
1002
{
1000
OA
1000
7
1070
   256
1000
ByLayer
1005
5C0
1005
15
1071
       -1
1002
}
1001
GENIUS_GENOREF_13
1005
2C43
1005
2C42
  0
LINE
  5
2B99
330
1F
100
AcDbEntity
  8
AM_INV
100
AcDbLine
 10
518.2183979401339
 20
343.5385182665255
 30
0.0
 11
518.2183979401338
 21
330.5385182665256
 31
0.0
1001
GENIUS_GENBH_13
1002
{
1000
OA
1000
7A
1070
   256
1000
ByLayer
1005
5BF
1005
15
1071
       -1
1002
}
1001
GENIUS_GENOREF_13
1005
2C43
  0
LINE
  5
2B9A
330
1F
100
AcDbEntity
  8
AM_INV
100
AcDbLine
 10
521.4183979401339
 20
343.5385182665255
 30
0.0
 11
521.4183979401338
 21
330.9885182665256
 31
0.0
1001
GENIUS_GENBH_13
1002
{
1000
OA
1000
0
1070
   256
1000
ByLayer
1005
10
1005
15
1071
       -1
1002
}
1001
GENIUS_GENOREF_13
1005
2C43
  0
LINE
  5
2B9B
330
1F
100
AcDbEntity
  8
AM_INV
100
AcDbLine
 10
515.0183979401337
 20
343.5385182665255
 30
0.0
 11
515.0183979401337
 21
330.9885182665256
 31
0.0
1001
GENIUS_GENBH_13
1002
{
1000
OA
1000
0
1070
   256
1000
ByLayer
1005
10
1005
15
1071
       -1
1002
}
1001
GENIUS_GENOREF_13
1005
2C43
  0
LINE
  5
2B9C
330
1F
100
AcDbEntity
  8
AM_INV
100
AcDbLine
 10
522.2183979401339
 20
343.5385182665255
 30
0.0
 11
522.2183979401337
 21
333.5385182665256
 31
0.0
1001
GENIUS_GENBH_13
1002
{
1000
OA
1000
4
1070
   256
1000
ByLayer
1005
5BE
1005
15
1071
       -1
1002
}
1001
GENIUS_GENOREF_13
1005
2C43
  0
LINE
  5
2B9D
330
1F
100
AcDbEntity
  8
AM_INV
100
AcDbLine
 10
514.2183979401337
 20
343.5385182665255
 30
0.0
 11
514.2183979401337
 21
333.5385182665256
 31
0.0
1001
GENIUS_GENBH_13
1002
{
1000
OA
1000
4
1070
   256
1000
ByLayer
1005
5BE
1005
15
1071
       -1
1002
}
1001
GENIUS_GENOREF_13
1005
2C43
  0
LINE
  5
2B9E
330
1F
100
AcDbEntity
  8
AM_INV
100
AcDbLine
 10
515.4683979401337
 20
330.5385182665256
 30
0.0
 11
520.9683979401337
 21
330.5385182665256
 31
0.0
1001
GENIUS_GENBH_13
1002
{
1000
OA
1000
0
1070
   256
1000
ByLayer
1005
10
1005
15
1071
       -1
1002
}
1001
GENIUS_GENOREF_13
1005
2C43
  0
LINE
  5
2B9F
330
1F
100
AcDbEntity
  8
AM_INV
100
AcDbLine
 10
514.2183979401337
 20
333.5385182665256
 30
0.0
 11
522.2183979401337
 21
333.5385182665256
 31
0.0
1001
GENIUS_GENBH_13
1002
{
1000
OA
1000
4
1070
   256
1000
ByLayer
1005
5BE
1005
15
1071
       -1
1002
}
1001
GENIUS_GENOREF_13
1005
2C43
  0
LINE
  5
2BA0
330
1F
100
AcDbEntity
  8
0
100
AcDbLine
 10
518.2134576644974
 20
328.8645017585655
 30
0.0
 11
515.0183979401337
 21
330.5385182665256
 31
0.0
1001
GENIUS_GENOREF_13
1005
2C43
  0
LINE
  5
2BA1
330
1F
100
AcDbEntity
  8
0
100
AcDbLine
 10
515.0183979401337
 20
330.9885182665256
 30
0.0
 11
515.0183979401337
 21
330.5385182665256
 31
0.0
1001
GENIUS_GENOREF_13
1005
2C43
  0
LINE
  5
2BA2
330
1F
100
AcDbEntity
  8
0
100
AcDbLine
 10
515.0183979401337
 20
330.5385182665256
 30
0.0
 11
515.4683979401337
 21
330.5385182665256
 31
0.0
1001
GENIUS_GENOREF_13
1005
2C43
  0
LINE
  5
2BA3
330
1F
100
AcDbEntity
  8
0
100
AcDbLine
 10
520.9683979401337
 20
330.5385182665256
 30
0.0
 11
521.4183979401338
 21
330.5385182665256
 31
0.0
1001
GENIUS_GENOREF_13
1005
2C43
  0
LINE
  5
2BA4
330
1F
100
AcDbEntity
  8
0
100
AcDbLine
 10
521.4183979401338
 20
330.5385182665256
 30
0.0
 11
518.2134576644974
 21
328.8645017585655
 31
0.0
1001
GENIUS_GENOREF_13
1005
2C43
  0
LINE
  5
2BA5
330
1F
100
AcDbEntity
  8
0
100
AcDbLine
 10
521.4183979401338
 20
330.9885182665256
 30
0.0
 11
521.4183979401338
 21
330.5385182665256
 31
0.0
1001
GENIUS_GENOREF_13
1005
2C43
  0
LINE
  5
2BA6
330
1F
100
AcDbEntity
  8
AM_INV
100
AcDbLine
 10
514.2183979401337
 20
343.9687691478882
 30
0.0
 11
516.534604141276
 21
343.7865182665254
 31
0.0
1001
GENIUS_GENBH_13
1002
{
1000
OA
1000
0
1070
   256
1000
ByLayer
1005
10
1005
15
1071
       -1
1002
}
1001
GENIUS_GENOREF_13
1005
2C43
  0
LINE
  5
2BA7
330
1F
100
AcDbEntity
  8
AM_INV
100
AcDbLine
 10
514.2183979401337
 20
351.9957799537347
 30
0.0
 11
522.2183979401337
 21
351.9962556628386
 31
0.0
1001
GENIUS_GENBH_13
1002
{
1000
OA
1000
0
1070
   256
1000
ByLayer
1005
10
1005
15
1071
       -1
1002
}
1001
GENIUS_GENOREF_13
1005
2C43
1005
2C42
  0
LINE
  5
2BA8
330
1F
100
AcDbEntity
  8
AM_INV
100
AcDbLine
 10
515.0183979401337
 20
343.5385182665255
 30
0.0
 11
521.4183979401339
 21
343.5385182665255
 31
0.0
1001
GENIUS_GENBH_13
1002
{
1000
OA
1000
0
1070
   256
1000
ByLayer
1005
10
1005
15
1071
       -1
1002
}
1001
GENIUS_GENOREF_13
1005
2C43
  0
LINE
  5
2BA9
330
1F
100
AcDbEntity
  8
AM_INV
100
AcDbLine
 10
515.0183979401337
 20
343.5385182665255
 30
0.0
 11
521.4183979401339
 21
343.5385182665255
 31
0.0
1001
GENIUS_GENBH_13
1002
{
1000
OA
1000
0
1070
   256
1000
ByLayer
1005
10
1005
15
1071
       -1
1002
}
1001
GENIUS_GENOREF_13
1005
2C43
  0
ARC
  5
2BAA
330
1F
100
AcDbEntity
  8
0
100
AcDbCircle
 10
507.809604141276
 20
350.9975182665254
 30
0.0
 40
1.0
100
AcDbArc
 50
269.995999999998
 51
355.0000000000002
  0
LINE
  5
2BAB
330
1F
100
AcDbEntity
  8
0
100
AcDbLine
 10
510.857604141276
 20
344.2325182665253
 30
0.0
 11
512.226604141276
 21
351.9975182665254
 31
0.0
1001
GENIUS_GENOREF_13
1005
2C42
  0
LINE
  5
2BAC
330
1F
100
AcDbEntity
  8
0
100
AcDbLine
 10
510.8156041412761
 20
344.2365182665254
 30
0.0
 11
514.2183979401337
 21
343.9687691478882
 31
0.0
1001
GENIUS_GENOREF_13
1005
2C43
  0
LINE
  5
2BAD
330
1F
100
AcDbEntity
  8
AM_INV
100
AcDbLine
 10
514.2183979401337
 20
343.5385182665255
 30
0.0
 11
515.0183979401337
 21
343.5385182665255
 31
0.0
1001
GENIUS_GENBH_13
1002
{
1000
OA
1000
0
1070
   256
1000
ByLayer
1005
10
1005
15
1071
       -1
1002
}
1001
GENIUS_GENOREF_13
1005
2C43
  0
LINE
  5
2BAE
330
1F
100
AcDbEntity
  8
0
100
AcDbLine
 10
509.817604141276
 20
351.9955182665254
 30
0.0
 11
514.2183979401337
 21
351.9957799537347
 31
0.0
1001
GENIUS_GENOREF_13
1005
2C43
1005
2C42
  0
ARC
  5
2BAF
330
1F
100
AcDbEntity
  8
0
100
AcDbCircle
 10
509.817604141276
 20
350.9975182665254
 30
0.0
 40
1.0
100
AcDbArc
 50
90.00300000000036
 51
174.9989999999991
  0
LINE
  5
2BB0
330
1F
100
AcDbEntity
  8
0
100
AcDbLine
 10
508.805604141276
 20
350.9095182665254
 30
0.0
 11
508.8216041412761
 21
351.0845182665254
 31
0.0
  0
LINE
  5
2BB1
330
1F
100
AcDbEntity
  8
0
100
AcDbLine
 10
525.5746041412761
 20
344.3525182665254
 30
0.0
 11
524.2266041412761
 21
351.9975182665254
 31
0.0
1001
GENIUS_GENOREF_13
1005
2C42
  0
LINE
  5
2BB2
330
1F
100
AcDbEntity
  8
AM_INV
100
AcDbLine
 10
520.013604141276
 20
343.8165182665254
 30
0.0
 11
522.2183979401337
 21
344.0288889476763
 31
0.0
1001
GENIUS_GENBH_13
1002
{
1000
OA
1000
0
1070
   256
1000
ByLayer
1005
10
1005
15
1071
       -1
1002
}
1001
GENIUS_GENOREF_13
1005
2C43
  0
LINE
  5
2BB3
330
1F
100
AcDbEntity
  8
AM_INV
100
AcDbLine
 10
516.534604141276
 20
343.7865182665254
 30
0.0
 11
520.013604141276
 21
343.8165182665254
 31
0.0
1001
GENIUS_GENBH_13
1002
{
1000
OA
1000
0
1070
   256
1000
ByLayer
1005
10
1005
15
1071
       -1
1002
}
1001
GENIUS_GENOREF_13
1005
2C43
  0
LINE
  5
2BB4
330
1F
100
AcDbEntity
  8
0
100
AcDbLine
 10
522.2183979401337
 20
344.0288889476763
 30
0.0
 11
525.723604141276
 21
344.3665182665254
 31
0.0
1001
GENIUS_GENOREF_13
1005
2C43
  0
LINE
  5
2BB5
330
1F
100
AcDbEntity
  8
AM_INV
100
AcDbLine
 10
521.4183979401339
 20
343.5385182665255
 30
0.0
 11
522.2183979401337
 21
343.5385182665255
 31
0.0
1001
GENIUS_GENBH_13
1002
{
1000
OA
1000
0
1070
   256
1000
ByLayer
1005
10
1005
15
1071
       -1
1002
}
1001
GENIUS_GENOREF_13
1005
2C43
  0
LINE
  5
2BB6
330
1F
100
AcDbEntity
  8
AM_INV
100
AcDbLine
 10
521.4183979401339
 20
343.5385182665255
 30
0.0
 11
522.2183979401337
 21
343.5385182665255
 31
0.0
1001
GENIUS_GENBH_13
1002
{
1000
OA
1000
0
1070
   256
1000
ByLayer
1005
10
1005
15
1071
       -1
1002
}
1001
GENIUS_GENOREF_13
1005
2C43
  0
LINE
  5
2BB7
330
1F
100
AcDbEntity
  8
0
100
AcDbLine
 10
523.9731964180196
 20
351.99636000954
 30
0.0
 11
524.0232015682522
 21
351.9963629830281
 31
0.0
1001
GENIUS_GENOREF_13
1005
2C43
1005
2C42
  0
LINE
  5
2BB8
330
1F
100
AcDbEntity
  8
AM_INV
100
AcDbLine
 10
522.2183979401337
 20
351.9962556628386
 30
0.0
 11
523.9731964180196
 21
351.99636000954
 31
0.0
1001
GENIUS_GENBH_13
1002
{
1000
OA
1000
0
1070
   256
1000
ByLayer
1005
10
1005
15
1071
       -1
1002
}
1001
GENIUS_GENOREF_13
1005
2C43
1005
2C42
  0
LINE
  5
2BC0
330
1F
100
AcDbEntity
  8
AM_9N
100
AcDbLine
 10
591.3163979401338
 20
351.9960180584026
 30
0.0
 11
591.3163979401338
 21
358.4960180584026
 31
0.0
  0
LINE
  5
2BC1
330
1F
100
AcDbEntity
  8
AM_9N
100
AcDbLine
 10
590.5495854401338
 20
351.9960180584026
 30
0.0
 11
590.5495854401338
 21
358.4960180584026
 31
0.0
  0
LINE
  5
2BC2
330
1F
100
AcDbEntity
  8
AM_0N
100
AcDbLine
 10
594.828104141276
 20
353.0107111565034
 30
0.0
 11
594.828104141276
 21
357.4813249603018
 31
0.0
  0
LINE
  5
2BC3
330
1F
100
AcDbEntity
  8
AM_0N
100
AcDbLine
 10
591.074354141276
 20
353.0107111565034
 30
0.0
 11
591.074354141276
 21
357.4813249603018
 31
0.0
  0
LINE
  5
2BC4
330
1F
100
AcDbEntity
  8
AM_9N
100
AcDbLine
 10
583.3163979401336
 20
358.4960180584026
 30
0.0
 11
583.3163979401336
 21
351.9960180584026
 31
0.0
  0
LINE
  5
2BC5
330
1F
100
AcDbEntity
  8
AM_9N
100
AcDbLine
 10
584.0832104401337
 20
351.9960180584026
 30
0.0
 11
584.0832104401337
 21
358.4960180584026
 31
0.0
  0
LINE
  5
2BC6
330
1F
100
AcDbEntity
  8
AM_7N
  6
AM_DIN_G_W050x2
100
AcDbLine
 10
587.320604141276
 20
348.9960180584026
 30
0.0
 11
587.320604141276
 21
361.4960180584026
 31
0.0
  0
LINE
  5
2BC7
330
1F
100
AcDbEntity
  8
AM_0N
100
AcDbLine
 10
583.566854141276
 20
353.0107111565034
 30
0.0
 11
583.566854141276
 21
357.4813249603018
 31
0.0
  0
LINE
  5
2BC8
330
1F
100
AcDbEntity
  8
AM_0N
100
AcDbLine
 10
579.813104141276
 20
353.0107111565034
 30
0.0
 11
579.813104141276
 21
357.4813249603018
 31
0.0
  0
LINE
  5
2BC9
330
1F
100
AcDbEntity
  8
0
100
AcDbLine
 10
618.2226041412761
 20
349.9975182665254
 30
0.0
 11
528.6426041412761
 21
349.9975182665254
 31
0.0
  0
LINE
  5
2BCA
330
1F
100
AcDbEntity
  8
0
100
AcDbLine
 10
592.3325178957031
 20
343.5385182665255
 30
0.0
 11
618.2226041412762
 21
343.5385182665253
 31
0.0
  0
LINE
  5
2BCB
330
1F
100
AcDbEntity
  8
0
100
AcDbLine
 10
592.3325178957031
 20
343.5385182665255
 30
0.0
 11
547.2183979401339
 21
343.5385182665255
 31
0.0
  0
LINE
  5
2BCC
330
1F
100
AcDbEntity
  8
0
100
AcDbLine
 10
531.4416041412761
 20
343.9165182665254
 30
0.0
 11
539.271604141276
 21
343.9955182665254
 31
0.0
  0
ARC
  5
2BCD
330
1F
100
AcDbEntity
  8
0
100
AcDbCircle
 10
528.6426041412761
 20
350.9975182665254
 30
0.0
 40
1.0
100
AcDbArc
 50
184.9999999999998
 51
270.0049999999982
  0
LINE
  5
2BCE
330
1F
100
AcDbEntity
  8
0
100
AcDbLine
 10
527.646604141276
 20
350.9105182665254
 30
0.0
 11
527.631604141276
 21
351.0845182665254
 31
0.0
  0
ARC
  5
2BCF
330
1F
100
AcDbEntity
  8
0
100
AcDbCircle
 10
526.634604141276
 20
350.9975182665254
 30
0.0
 40
1.0
100
AcDbArc
 50
4.999999999999793
 51
90.00499999999822
  0
LINE
  5
2BD0
330
1F
100
AcDbEntity
  8
0
100
AcDbLine
 10
540.8496041412759
 20
345.4445182665254
 30
0.0
 11
541.247604141276
 21
349.9975182665254
 31
0.0
  0
ARC
  5
2BD1
330
1F
100
AcDbEntity
  8
0
100
AcDbCircle
 10
539.2556041412761
 20
345.5845182665254
 30
0.0
 40
1.6
100
AcDbArc
 50
270.5020000000009
 51
355.0000000000002
  0
LINE
  5
2BD2
330
1F
100
AcDbEntity
  8
AM_0N
100
AcDbLine
 10
581.5706041412759
 20
351.9960180584026
 30
0.0
 11
593.070604141276
 21
351.9960180584026
 31
0.0
  0
ARC
  5
2BD3
330
1F
100
AcDbEntity
  8
AM_0N
100
AcDbCircle
 10
587.320604141276
 20
364.8318822573394
 30
0.0
 40
12.40285149704452
100
AcDbArc
 50
252.3830311596125
 51
287.6169688403875
  0
LINE
  5
2BD4
330
1F
100
AcDbEntity
  8
0
100
AcDbLine
 10
578.915604141276
 20
351.9955182665254
 30
0.0
 11
595.732604141276
 21
351.9965182665254
 31
0.0
  0
LINE
  5
2BD5
330
1F
100
AcDbEntity
  8
7
 48
0.256
100
AcDbLine
 10
587.320604141276
 20
353.8985182665253
 30
0.0
 11
587.320604141276
 21
342.6465182665254
 31
0.0
  0
ARC
  5
2BD6
330
1F
100
AcDbEntity
  8
0
100
AcDbCircle
 10
578.915604141276
 20
350.9975182665254
 30
0.0
 40
1.0
100
AcDbArc
 50
90.00300000000036
 51
174.9989999999991
  0
ARC
  5
2BD7
330
1F
100
AcDbEntity
  8
0
100
AcDbCircle
 10
576.907604141276
 20
350.9975182665254
 30
0.0
 40
1.0
100
AcDbArc
 50
269.995999999998
 51
355.0000000000002
  0
ARC
  5
2BD8
330
1F
100
AcDbEntity
  8
AM_0N
100
AcDbCircle
 10
581.689979141276
 20
355.7478737831342
 30
0.0
 40
3.318843022839333
100
AcDbArc
 50
244.43846940473
 51
304.4384694047322
  0
LINE
  5
2BD9
330
1F
100
AcDbEntity
  8
AM_0N
100
AcDbLine
 10
579.813104141276
 20
353.0107111565034
 30
0.0
 11
581.5706041412759
 21
351.9960180584026
 31
0.0
  0
LINE
  5
2BDA
330
1F
100
AcDbEntity
  8
0
100
AcDbLine
 10
577.903604141276
 20
350.9095182665254
 30
0.0
 11
577.919604141276
 21
351.0835182665254
 31
0.0
  0
ARC
  5
2BDB
330
1F
100
AcDbEntity
  8
0
100
AcDbCircle
 10
597.7406041412761
 20
350.9975182665254
 30
0.0
 40
1.0
100
AcDbArc
 50
184.9999999999998
 51
270.0049999999982
  0
ARC
  5
2BDC
330
1F
100
AcDbEntity
  8
AM_0N
100
AcDbCircle
 10
592.951229141276
 20
355.7478737831342
 30
0.0
 40
3.318843022839333
100
AcDbArc
 50
235.5615305952678
 51
295.5615305952701
  0
LINE
  5
2BDD
330
1F
100
AcDbEntity
  8
AM_0N
100
AcDbLine
 10
594.828104141276
 20
353.0107111565034
 30
0.0
 11
593.070604141276
 21
351.9960180584026
 31
0.0
  0
ARC
  5
2BDE
330
1F
100
AcDbEntity
  8
0
100
AcDbCircle
 10
595.732604141276
 20
350.9975182665254
 30
0.0
 40
1.0
100
AcDbArc
 50
4.999999999999793
 51
90.00499999999822
  0
LINE
  5
2BDF
330
1F
100
AcDbEntity
  8
0
100
AcDbLine
 10
596.7446041412761
 20
350.9105182665254
 30
0.0
 11
596.7296041412761
 21
351.0845182665254
 31
0.0
  0
LINE
  5
2BE0
330
1F
100
AcDbEntity
  8
0
100
AcDbLine
 10
689.2268103424185
 20
343.5385182665255
 30
0.0
 11
618.2226041412762
 21
343.5385182665253
 31
0.0
  0
ARC
  5
2BE2
330
1F
100
AcDbEntity
  8
AM_3N
  6
AM_DIN_F_W050x2
100
AcDbCircle
 10
587.3163979401338
 20
363.8053515956074
 30
0.0
 40
3.464999999999999
100
AcDbArc
 50
250.5287793655103
 51
289.4712206344897
  0
LINE
  5
2BE3
330
1F
100
AcDbEntity
  8
AM_0N
100
AcDbLine
 10
583.3163979401336
 20
364.7717057665255
 30
0.0
 11
591.3163979401338
 21
364.7717057665255
 31
0.0
  0
LINE
  5
2BE4
330
1F
100
AcDbEntity
  8
AM_3N
  6
AM_DIN_F_W050x2
100
AcDbLine
 10
589.6263979401338
 20
360.5385182665255
 30
0.0
 11
587.3163979401338
 21
359.2048391446975
 31
0.0
  0
LINE
  5
2BE5
330
1F
100
AcDbEntity
  8
AM_0N
100
AcDbLine
 10
590.5495854401338
 20
365.5385182665256
 30
0.0
 11
584.0832104401337
 21
365.5385182665256
 31
0.0
  0
LINE
  5
2BE6
330
1F
100
AcDbEntity
  8
AM_0N
100
AcDbLine
 10
581.5706041412759
 20
358.4960180584026
 30
0.0
 11
593.070604141276
 21
358.4960180584026
 31
0.0
  0
ARC
  5
2BE7
330
1F
100
AcDbEntity
  8
AM_0N
100
AcDbCircle
 10
587.320604141276
 20
345.660153859466
 30
0.0
 40
12.4028514970445
100
AcDbArc
 50
72.38303115961248
 51
107.6169688403875
  0
LINE
  5
2BE9
330
1F
100
AcDbEntity
  8
AM_0N
100
AcDbLine
 10
583.3163979401336
 20
364.7717057665255
 30
0.0
 11
583.3163979401336
 21
358.4960180584026
 31
0.0
  0
LINE
  5
2BEA
330
1F
100
AcDbEntity
  8
AM_4N
100
AcDbLine
 10
584.0832104401337
 20
358.4960180584026
 30
0.0
 11
584.0832104401337
 21
365.5385182665256
 31
0.0
  0
LINE
  5
2BEB
330
1F
100
AcDbEntity
  8
AM_3N
  6
AM_DIN_F_W050x2
100
AcDbLine
 10
585.0063979401337
 20
365.5385182665256
 30
0.0
 11
585.0063979401337
 21
360.5385182665255
 31
0.0
  0
LINE
  5
2BEC
330
1F
100
AcDbEntity
  8
AM_3N
  6
AM_DIN_F_W050x2
100
AcDbLine
 10
586.1613979401337
 20
365.5385182665256
 30
0.0
 11
586.1613979401337
 21
360.5385182665255
 31
0.0
  0
ARC
  5
2BED
330
1F
100
AcDbEntity
  8
AM_0N
100
AcDbCircle
 10
581.689979141276
 20
354.7441623336711
 30
0.0
 40
3.318843022839333
100
AcDbArc
 50
55.56153059526782
 51
115.5615305952699
  0
LINE
  5
2BEF
330
1F
100
AcDbEntity
  8
AM_0N
100
AcDbLine
 10
579.813104141276
 20
357.4813249603018
 30
0.0
 11
581.5706041412759
 21
358.4960180584026
 31
0.0
  0
ARC
  5
2BF0
330
1F
100
AcDbEntity
  8
AM_3N
  6
AM_DIN_F_W050x2
100
AcDbCircle
 10
585.5838979401337
 20
361.2809140972017
 30
0.0
 40
0.9405625015943439
100
AcDbArc
 50
247.8788794917213
 51
307.8788794917159
  0
LINE
  5
2BF1
330
1F
100
AcDbEntity
  8
AM_3N
  6
AM_DIN_F_W050x2
100
AcDbLine
 10
585.0063979401337
 20
360.5385182665255
 30
0.0
 11
587.3163979401338
 21
359.2048391446975
 31
0.0
  0
LINE
  5
2BF2
330
1F
100
AcDbEntity
  8
AM_0N
100
AcDbLine
 10
583.3163979401336
 20
364.7717057665255
 30
0.0
 11
584.0832104401337
 21
365.5385182665256
 31
0.0
  0
LINE
  5
2BF4
330
1F
100
AcDbEntity
  8
AM_0N
100
AcDbLine
 10
591.3163979401338
 20
358.4960180584026
 30
0.0
 11
591.3163979401338
 21
364.7717057665255
 31
0.0
  0
LINE
  5
2BF5
330
1F
100
AcDbEntity
  8
AM_4N
100
AcDbLine
 10
590.5495854401338
 20
358.4960180584026
 30
0.0
 11
590.5495854401338
 21
365.5385182665256
 31
0.0
  0
LINE
  5
2BF6
330
1F
100
AcDbEntity
  8
AM_3N
  6
AM_DIN_F_W050x2
100
AcDbLine
 10
589.6263979401338
 20
365.5385182665256
 30
0.0
 11
589.6263979401338
 21
360.5385182665255
 31
0.0
  0
LINE
  5
2BF7
330
1F
100
AcDbEntity
  8
AM_3N
  6
AM_DIN_F_W050x2
100
AcDbLine
 10
588.4713979401338
 20
365.5385182665256
 30
0.0
 11
588.4713979401338
 21
360.5385182665255
 31
0.0
  0
ARC
  5
2BF9
330
1F
100
AcDbEntity
  8
AM_0N
100
AcDbCircle
 10
592.951229141276
 20
354.7441623336711
 30
0.0
 40
3.318843022839363
100
AcDbArc
 50
64.43846940473285
 51
124.4384694047321
  0
LINE
  5
2BFA
330
1F
100
AcDbEntity
  8
AM_0N
100
AcDbLine
 10
594.828104141276
 20
357.4813249603018
 30
0.0
 11
593.070604141276
 21
358.4960180584026
 31
0.0
  0
ARC
  5
2BFB
330
1F
100
AcDbEntity
  8
AM_3N
  6
AM_DIN_F_W050x2
100
AcDbCircle
 10
589.0488979401338
 20
361.2809140972017
 30
0.0
 40
0.9405625015943439
100
AcDbArc
 50
232.1211205082841
 51
292.1211205082787
  0
LINE
  5
2BFC
330
1F
100
AcDbEntity
  8
AM_0N
100
AcDbLine
 10
590.5495854401338
 20
365.5385182665256
 30
0.0
 11
591.3163979401338
 21
364.7717057665255
 31
0.0
  0
LINE
  5
2BFF
330
1F
100
AcDbEntity
  8
AM_9N
100
AcDbLine
 10
703.1238979401337
 20
351.9965182665254
 30
0.0
 11
703.1238979401337
 21
358.4965182665253
 31
0.0
  0
LINE
  5
2C00
330
1F
100
AcDbEntity
  8
AM_9N
100
AcDbLine
 10
702.3570854401338
 20
351.9965182665254
 30
0.0
 11
702.3570854401338
 21
358.4965182665253
 31
0.0
  0
LINE
  5
2C01
330
1F
100
AcDbEntity
  8
AM_0N
100
AcDbLine
 10
706.6356041412761
 20
353.0112113646262
 30
0.0
 11
706.6356041412761
 21
357.4818251684245
 31
0.0
  0
LINE
  5
2C02
330
1F
100
AcDbEntity
  8
AM_0N
100
AcDbLine
 10
702.881854141276
 20
353.0112113646262
 30
0.0
 11
702.881854141276
 21
357.4818251684245
 31
0.0
  0
LINE
  5
2C03
330
1F
100
AcDbEntity
  8
AM_9N
100
AcDbLine
 10
695.1238979401338
 20
358.4965182665253
 30
0.0
 11
695.1238979401338
 21
351.9965182665254
 31
0.0
  0
LINE
  5
2C04
330
1F
100
AcDbEntity
  8
AM_9N
100
AcDbLine
 10
695.8907104401338
 20
351.9965182665254
 30
0.0
 11
695.8907104401338
 21
358.4965182665253
 31
0.0
  0
LINE
  5
2C05
330
1F
100
AcDbEntity
  8
AM_0N
100
AcDbLine
 10
695.3743541412761
 20
353.0112113646262
 30
0.0
 11
695.3743541412761
 21
357.4818251684245
 31
0.0
  0
LINE
  5
2C06
330
1F
100
AcDbEntity
  8
AM_0N
100
AcDbLine
 10
691.6206041412761
 20
353.0112113646262
 30
0.0
 11
691.6206041412761
 21
357.4818251684245
 31
0.0
  0
LINE
  5
2C07
330
1F
100
AcDbEntity
  8
0
100
AcDbLine
 10
740.722604141276
 20
344.4045182665254
 30
0.0
 11
731.5716041412761
 21
343.6845182665254
 31
0.0
  0
HATCH
  5
2C08
330
1F
100
AcDbEntity
  8
8
100
AcDbHatch
 10
0.0
 20
0.0
 30
0.0
210
0.0
220
0.0
230
1.0
  2
_U
 70
     0
 71
     0
 91
        1
 92
        1
 93
       17
 72
     1
 10
710.722053751509
 20
344.3664749590599
 11
705.0036041412761
 21
343.9165182665254
 72
     1
 10
705.0036041412759
 20
343.9165182665254
 11
700.365604141276
 21
343.9633129025407
 72
     1
 10
700.365604141276
 20
343.9633129025407
 11
700.365604141276
 21
349.9975182665254
 72
     1
 10
700.365604141276
 20
349.9975182665254
 11
756.2476041412761
 21
349.9975182665254
 72
     1
 10
756.2476041412761
 20
349.9975182665254
 11
756.2476916899143
 21
349.9975182665253
 72
     1
 10
756.2476916899141
 20
349.9975182665253
 11
756.247604141276
 21
349.9965182665254
 72
     1
 10
756.2476041412761
 20
349.9965182665254
 11
755.9434294994598
 21
346.5221679133344
 72
     2
 10
752.9548609726732
 20
346.7838130178196
 40
2.999999999999948
 50
5.003410171564149
 51
85.39179042611376
 73
     0
 72
     1
 10
753.1958862108657
 20
343.7935108868378
 11
749.8586041412761
 21
343.5245182665255
 72
     1
 10
749.858604141276
 20
343.5245182665255
 11
740.7226041412759
 21
344.4045182665254
 72
     1
 10
740.722604141276
 20
344.4045182665254
 11
731.5717025063372
 21
343.6845260058811
 72
     1
 10
731.5717025063371
 20
343.6845260058811
 11
731.339604141276
 21
343.6865182665254
 72
     1
 10
731.339604141276
 20
343.6865182665254
 11
731.3385063274803
 21
343.6865276898198
 72
     1
 10
731.3385063274803
 20
343.6865276898198
 11
725.629604141276
 21
344.2365182665254
 72
     1
 10
725.629604141276
 20
344.2365182665254
 11
719.9106041412766
 21
343.7865182665254
 72
     1
 10
719.9106041412766
 20
343.7865182665254
 11
716.4316041412761
 21
343.8165182665254
 72
     1
 10
716.4316041412761
 20
343.8165182665254
 11
710.722053751509
 21
344.3664749590599
 97
        0
 75
     0
 76
     0
 52
45.0
 41
2.5
 77
     0
 78
     1
 53
135.0
 43
836.4096041412761
 44
-21.03348173347462
 45
1.767766952966368
 46
1.767766952966368
 79
     0
 98
        1
 10
836.4096041412761
 20
-21.03348173347462
1001
GENIUS_GENODEF_13
1002
{
1000
HIER
1070
     0
1002
}
1002
{
1000
MANEDIT
1070
     0
1002
}
1002
{
1000
NOSEL
1070
     0
1002
}
1002
{
1000
BEHIND
1070
     0
1002
}
1002
{
1000
REACTOR
1002
}
1001
GENIUS_GENOBJ-N-HTC_13
1002
{
1000
OWNER
1000
GEN
1002
}
1001
GENIUS_GENHATCH_13
1002
{
1000
DATA
1040
45.0
1042
2.5
1000
_U
1070
     0
1011
707.829689284069
1021
346.5747540722554
1031
0.0
1002
}
1002
{
1000
UCS
1010
0.0
1020
0.0
1030
0.0
1010
1.0
1020
0.0
1030
0.0
1010
0.0
1020
1.0
1030
0.0
1002
}
  0
LINE
  5
2C09
330
1F
100
AcDbEntity
  8
0
100
AcDbLine
 10
716.4316041412761
 20
343.8165182665254
 30
0.0
 11
710.7216041412761
 21
344.3665182665254
 31
0.0
  0
LINE
  5
2C0A
330
1F
100
AcDbEntity
  8
AM_0N
100
AcDbLine
 10
693.3781041412761
 20
351.9965182665254
 30
0.0
 11
704.8781041412761
 21
351.9965182665254
 31
0.0
  0
ARC
  5
2C0B
330
1F
100
AcDbEntity
  8
AM_0N
100
AcDbCircle
 10
699.1281041412761
 20
364.8323824654621
 30
0.0
 40
12.40285149704452
100
AcDbArc
 50
252.3830311596125
 51
287.6169688403875
  0
LINE
  5
2C0C
330
1F
100
AcDbEntity
  8
0
100
AcDbLine
 10
705.0036041412759
 20
343.9165182665254
 30
0.0
 11
697.1736041412761
 21
343.9955182665254
 31
0.0
  0
LINE
  5
2C0D
330
1F
100
AcDbEntity
  8
0
100
AcDbLine
 10
695.5956041412761
 20
345.4445182665254
 30
0.0
 11
695.1976041412761
 21
349.9975182665254
 31
0.0
  0
HATCH
  5
2C0E
330
1F
100
AcDbEntity
  8
8
100
AcDbHatch
 10
0.0
 20
0.0
 30
0.0
210
0.0
220
0.0
230
1.0
  2
_U
 70
     0
 71
     0
 91
        1
 92
        1
 93
        8
 72
     1
 10
695.5958290684049
 20
345.4435182059063
 11
695.5956041412759
 21
345.4445182665254
 72
     1
 10
695.5956041412761
 20
345.4445182665254
 11
695.1976915561673
 21
349.9965182665254
 72
     1
 10
695.1976915561673
 20
349.9965182665254
 11
700.365604141276
 21
349.9965182665254
 72
     1
 10
700.365604141276
 20
349.9965182665254
 11
700.365604141276
 21
343.9645182665254
 72
     1
 10
700.365604141276
 20
343.9645182665254
 11
697.1896041412762
 21
343.9975182665254
 72
     1
 10
697.189604141276
 20
343.9975182665254
 11
696.7307505305869
 21
344.0517255982374
 72
     2
 10
697.189604141276
 20
345.5845182665254
 40
1.599999999999994
 50
106.6654868888185
 51
159.7044193461186
 73
     0
 72
     1
 10
695.6889390345378
 20
345.0295369718692
 11
695.5958290684049
 21
345.4435182059063
 97
        0
 75
     0
 76
     0
 52
45.0
 41
2.5
 77
     0
 78
     1
 53
135.0
 43
836.4096041412761
 44
-21.03348173347462
 45
1.767766952966368
 46
1.767766952966368
 79
     0
 98
        1
 10
836.4096041412761
 20
-21.03348173347462
1001
GENIUS_GENODEF_13
1002
{
1000
HIER
1070
     0
1002
}
1002
{
1000
MANEDIT
1070
     0
1002
}
1002
{
1000
NOSEL
1070
     0
1002
}
1002
{
1000
BEHIND
1070
     0
1002
}
1002
{
1000
REACTOR
1002
}
1001
GENIUS_GENOBJ-N-HTC_13
1002
{
1000
OWNER
1000
GEN
1002
}
1001
GENIUS_GENHATCH_13
1002
{
1000
DATA
1040
45.0
1042
2.5
1000
_U
1070
     0
1011
696.6390300136079
1021
347.0755912379981
1031
0.0
1002
}
1002
{
1000
UCS
1010
0.0
1020
0.0
1030
0.0
1010
1.0
1020
0.0
1030
0.0
1010
0.0
1020
1.0
1030
0.0
1002
}
  0
ARC
  5
2C0F
330
1F
100
AcDbEntity
  8
0
100
AcDbCircle
 10
697.189604141276
 20
345.5845182665254
 30
0.0
 40
1.6
100
AcDbArc
 50
184.9999999999998
 51
269.4979999999991
  0
ARC
  5
2C10
330
1F
100
AcDbEntity
  8
AM_0N
100
AcDbCircle
 10
693.4974791412761
 20
355.7483739912569
 30
0.0
 40
3.318843022839333
100
AcDbArc
 50
244.43846940473
 51
304.4384694047322
  0
LINE
  5
2C11
330
1F
100
AcDbEntity
  8
AM_0N
100
AcDbLine
 10
691.6206041412761
 20
353.0112113646262
 30
0.0
 11
693.3781041412761
 21
351.9965182665254
 31
0.0
  0
ARC
  5
2C14
330
1F
100
AcDbEntity
  8
0
100
AcDbCircle
 10
709.5446041412761
 20
350.9975182665254
 30
0.0
 40
1.0
100
AcDbArc
 50
184.9999999999998
 51
270.0049999999982
  0
LINE
  5
2C15
330
1F
100
AcDbEntity
  8
0
100
AcDbLine
 10
710.7226041412761
 20
344.3665182665254
 30
0.0
 11
705.0036041412759
 21
343.9165182665254
 31
0.0
  0
LINE
  5
2C16
330
1F
100
AcDbEntity
  8
AM_0N
100
AcDbLine
 10
706.6356041412761
 20
353.0112113646262
 30
0.0
 11
704.8781041412761
 21
351.9965182665254
 31
0.0
  0
ARC
  5
2C17
330
1F
100
AcDbEntity
  8
AM_0N
100
AcDbCircle
 10
704.7587291412761
 20
355.7483739912569
 30
0.0
 40
3.318843022839333
100
AcDbArc
 50
235.5615305952678
 51
295.5615305952701
  0
LINE
  5
2C18
330
1F
100
AcDbEntity
  8
0
100
AcDbLine
 10
708.5476041412761
 20
350.9105182665254
 30
0.0
 11
708.532604141276
 21
351.0845182665254
 31
0.0
  0
ARC
  5
2C19
330
1F
100
AcDbEntity
  8
0
100
AcDbCircle
 10
707.5366041412761
 20
350.9975182665254
 30
0.0
 40
1.0
100
AcDbArc
 50
4.999999999999793
 51
90.00499999999822
  0
LINE
  5
2C1A
330
1F
100
AcDbEntity
  8
0
100
AcDbLine
 10
725.6296041412761
 20
344.2365182665254
 30
0.0
 11
719.910604141276
 21
343.7865182665254
 31
0.0
  0
LINE
  5
2C1B
330
1F
100
AcDbEntity
  8
0
100
AcDbLine
 10
719.910604141276
 20
343.7865182665254
 30
0.0
 11
716.4316041412761
 21
343.8165182665254
 31
0.0
  0
LINE
  5
2C1C
330
1F
100
AcDbEntity
  8
0
100
AcDbLine
 10
731.338604141276
 20
343.6865182665254
 30
0.0
 11
725.6296041412761
 21
344.2365182665254
 31
0.0
  0
LINE
  5
2C1D
330
1F
100
AcDbEntity
  8
0
100
AcDbLine
 10
731.572604141276
 20
343.6845182665254
 30
0.0
 11
731.339604141276
 21
343.6865182665254
 31
0.0
  0
LINE
  5
2C1E
330
1F
100
AcDbEntity
  8
0
100
AcDbLine
 10
749.858604141276
 20
343.5245182665255
 30
0.0
 11
753.1958862108657
 21
343.7935108868378
 31
0.0
  0
LINE
  5
2C1F
330
1F
100
AcDbEntity
  8
0
100
AcDbLine
 10
749.858604141276
 20
343.5245182665255
 30
0.0
 11
740.722604141276
 21
344.4045182665254
 31
0.0
  0
LINE
  5
2C20
330
1F
100
AcDbEntity
  8
0
100
AcDbLine
 10
755.9434294994597
 20
346.5221679133344
 30
0.0
 11
756.2476041412761
 21
349.9965182665254
 31
0.0
  0
LINE
  5
2C21
330
1F
100
AcDbEntity
  8
4
100
AcDbLine
 10
755.8426041412761
 20
345.3705182665254
 30
0.0
 11
755.8506041412761
 21
345.4575182665254
 31
0.0
  0
LINE
  5
2C22
330
1F
100
AcDbEntity
  8
4
100
AcDbLine
 10
755.7226041412761
 20
343.9965182665253
 30
0.0
 11
755.840604141276
 21
345.3435182665253
 31
0.0
  0
ARC
  5
2C23
330
1F
100
AcDbEntity
  8
0
100
AcDbCircle
 10
752.9548609726732
 20
346.7838130178196
 30
0.0
 40
3.0
100
AcDbArc
 50
274.6082095738881
 51
354.996589828437
1001
GENIUS_GENODEF_13
1002
{
1000
HIER
1070
     0
1002
}
1002
{
1000
MANEDIT
1070
     0
1002
}
1002
{
1000
NOSEL
1070
     0
1002
}
1002
{
1000
BEHIND
1070
     0
1002
}
1002
{
1000
REACTOR
1002
}
1001
GENIUS_GENOBJ-N-FIL_13
1002
{
1000
OWNER
1000
GEN
1002
}
  0
ARC
  5
2C25
330
1F
100
AcDbEntity
  8
AM_3N
  6
AM_DIN_F_W050x2
100
AcDbCircle
 10
700.8563979401339
 20
361.2814143053244
 30
0.0
 40
0.9405625015943439
100
AcDbArc
 50
232.1211205082841
 51
292.1211205082787
  0
LINE
  5
2C26
330
1F
100
AcDbEntity
  8
AM_0N
100
AcDbLine
 10
695.1238979401338
 20
364.7722059746483
 30
0.0
 11
703.1238979401337
 21
364.7722059746483
 31
0.0
  0
LINE
  5
2C27
330
1F
100
AcDbEntity
  8
AM_3N
  6
AM_DIN_F_W050x2
100
AcDbLine
 10
701.4338979401337
 20
360.5390184746483
 30
0.0
 11
699.1238979401337
 21
359.2053393528203
 31
0.0
  0
LINE
  5
2C28
330
1F
100
AcDbEntity
  8
AM_0N
100
AcDbLine
 10
702.3570854401338
 20
365.5390184746483
 30
0.0
 11
695.8907104401338
 21
365.5390184746483
 31
0.0
  0
LINE
  5
2C29
330
1F
100
AcDbEntity
  8
AM_0N
100
AcDbLine
 10
693.3781041412761
 20
358.4965182665253
 30
0.0
 11
704.8781041412761
 21
358.4965182665253
 31
0.0
  0
ARC
  5
2C2A
330
1F
100
AcDbEntity
  8
AM_0N
100
AcDbCircle
 10
699.1281041412761
 20
345.6606540675887
 30
0.0
 40
12.4028514970445
100
AcDbArc
 50
72.38303115961248
 51
107.6169688403875
  0
LINE
  5
2C2C
330
1F
100
AcDbEntity
  8
AM_0N
100
AcDbLine
 10
695.1238979401338
 20
364.7722059746483
 30
0.0
 11
695.1238979401338
 21
358.4965182665253
 31
0.0
  0
LINE
  5
2C2D
330
1F
100
AcDbEntity
  8
AM_4N
100
AcDbLine
 10
695.8907104401338
 20
358.4965182665253
 30
0.0
 11
695.8907104401338
 21
365.5390184746483
 31
0.0
  0
LINE
  5
2C2E
330
1F
100
AcDbEntity
  8
AM_3N
  6
AM_DIN_F_W050x2
100
AcDbLine
 10
696.8138979401338
 20
365.5390184746483
 30
0.0
 11
696.8138979401338
 21
360.5390184746483
 31
0.0
  0
LINE
  5
2C2F
330
1F
100
AcDbEntity
  8
AM_3N
  6
AM_DIN_F_W050x2
100
AcDbLine
 10
697.9688979401338
 20
365.5390184746483
 30
0.0
 11
697.9688979401338
 21
360.5390184746483
 31
0.0
  0
LINE
  5
2C30
330
1F
100
AcDbEntity
  8
AM_3N
  6
AM_DIN_F_W050x2
100
AcDbLine
 10
700.2788979401337
 20
365.5390184746483
 30
0.0
 11
700.2788979401337
 21
360.5390184746483
 31
0.0
  0
ARC
  5
2C32
330
1F
100
AcDbEntity
  8
AM_0N
100
AcDbCircle
 10
693.4974791412761
 20
354.7446625417938
 30
0.0
 40
3.318843022839333
100
AcDbArc
 50
55.56153059526782
 51
115.5615305952699
  0
LINE
  5
2C33
330
1F
100
AcDbEntity
  8
AM_0N
100
AcDbLine
 10
691.6206041412761
 20
357.4818251684245
 30
0.0
 11
693.3781041412761
 21
358.4965182665253
 31
0.0
  0
ARC
  5
2C34
330
1F
100
AcDbEntity
  8
AM_3N
  6
AM_DIN_F_W050x2
100
AcDbCircle
 10
699.1238979401337
 20
363.8058518037301
 30
0.0
 40
3.464999999999999
100
AcDbArc
 50
250.5287793655103
 51
289.4712206344897
  0
ARC
  5
2C35
330
1F
100
AcDbEntity
  8
AM_3N
  6
AM_DIN_F_W050x2
100
AcDbCircle
 10
697.3913979401337
 20
361.2814143053244
 30
0.0
 40
0.9405625015943439
100
AcDbArc
 50
247.8788794917213
 51
307.8788794917159
  0
LINE
  5
2C36
330
1F
100
AcDbEntity
  8
AM_3N
  6
AM_DIN_F_W050x2
100
AcDbLine
 10
696.8138979401338
 20
360.5390184746483
 30
0.0
 11
699.1238979401337
 21
359.2053393528203
 31
0.0
  0
LINE
  5
2C37
330
1F
100
AcDbEntity
  8
AM_0N
100
AcDbLine
 10
695.1238979401338
 20
364.7722059746483
 30
0.0
 11
695.8907104401338
 21
365.5390184746483
 31
0.0
  0
LINE
  5
2C39
330
1F
100
AcDbEntity
  8
AM_0N
100
AcDbLine
 10
703.1238979401337
 20
358.4965182665253
 30
0.0
 11
703.1238979401337
 21
364.7722059746483
 31
0.0
  0
LINE
  5
2C3A
330
1F
100
AcDbEntity
  8
AM_4N
100
AcDbLine
 10
702.3570854401338
 20
358.4965182665253
 30
0.0
 11
702.3570854401338
 21
365.5390184746483
 31
0.0
  0
LINE
  5
2C3B
330
1F
100
AcDbEntity
  8
AM_3N
  6
AM_DIN_F_W050x2
100
AcDbLine
 10
701.4338979401337
 20
365.5390184746483
 30
0.0
 11
701.4338979401337
 21
360.5390184746483
 31
0.0
  0
LINE
  5
2C3D
330
1F
100
AcDbEntity
  8
AM_0N
100
AcDbLine
 10
706.6356041412761
 20
357.4818251684245
 30
0.0
 11
704.8781041412761
 21
358.4965182665253
 31
0.0
  0
ARC
  5
2C3E
330
1F
100
AcDbEntity
  8
AM_0N
100
AcDbCircle
 10
704.7587291412761
 20
354.7446625417938
 30
0.0
 40
3.318843022839363
100
AcDbArc
 50
64.43846940473285
 51
124.4384694047321
  0
LINE
  5
2C3F
330
1F
100
AcDbEntity
  8
AM_0N
100
AcDbLine
 10
702.3570854401338
 20
365.5390184746483
 30
0.0
 11
703.1238979401337
 21
364.7722059746483
 31
0.0
  0
POINT
  5
2C40
330
1F
100
AcDbEntity
  8
0
 60
     1
100
AcDbPoint
 10
427.8856341902145
 20
65.34214350083823
 30
0.0
1001
GENIUS_GENOENT_13
1002
{
1000
MYREF
1005
2C40
1002
}
1002
{
1000
GRP
1005
0
1002
}
1001
GENIUS_GENOLIS_13
1002
{
1000
ENT
1005
2B8E
1002
}
1001
GENIUS_GENOBJ-NBEHI-BHF_13
1002
{
1000
OWNER
1000
genbehi
1002
}
1001
GENIUS_GENODEF_13
1002
{
1000
HIER
1070
     1
1002
}
1002
{
1000
MANEDIT
1070
     0
1002
}
1002
{
1000
NOSEL
1070
     1
1002
}
1002
{
1000
BEHIND
1070
     0
1002
}
1002
{
1000
OTHER
1070
     0
1002
}
1002
{
1000
REACTOR
1002
}
1001
GENIUS_GENBH_13
1002
{
1000
OIUMAP
1000
OIU
1002
}
1002
{
1000
FLAGS
1070
    32
1002
}
1002
{
1000
BGO
1005
2C43
1002
}
  0
POINT
  5
2C41
330
1F
100
AcDbEntity
  8
0
 60
     1
100
AcDbPoint
 10
427.8856341902145
 20
65.34214350083823
 30
0.0
1001
GENIUS_GENOENT_13
1002
{
1000
MYREF
1005
2C41
1002
}
1002
{
1000
GRP
1005
0
1002
}
1001
GENIUS_GENOBJ-NBEHI-BHF_13
1002
{
1000
OWNER
1000
genbehi
1002
}
1001
GENIUS_GENODEF_13
1002
{
1000
HIER
1070
     1
1002
}
1002
{
1000
MANEDIT
1070
     0
1002
}
1002
{
1000
NOSEL
1070
     1
1002
}
1002
{
1000
BEHIND
1070
     0
1002
}
1002
{
1000
OTHER
1070
     0
1002
}
1002
{
1000
REACTOR
1002
}
1001
GENIUS_GENOLIS_13
1002
{
1000
ENT
1005
2B8D
1002
}
1001
GENIUS_GENBH_13
1002
{
1000
OIUMAP
1000
OIU
1002
}
1002
{
1000
FLAGS
1070
    32
1002
}
1002
{
1000
BGO
1005
2C42
1002
}
  0
POINT
  5
2C42
330
1F
100
AcDbEntity
  8
0
 60
     1
100
AcDbPoint
 10
427.8856341902145
 20
65.34214350083823
 30
0.0
1001
GENIUS_GENOBJ-NBEHI-BHB_13
1002
{
1000
OWNER
1000
genbehi
1002
}
1001
GENIUS_GENOLIS_13
1002
{
1000
ENT
1005
2BB7
1005
2BB8
1005
2B86
1005
2BA7
1005
2B98
1005
2BB1
1005
2BAB
1005
2BAE
1005
2B8E
1002
}
1001
GENIUS_GENOENT_13
1002
{
1000
MYREF
1005
2C42
1002
}
1002
{
1000
GRP
1005
0
1002
}
1001
GENIUS_GENODEF_13
1002
{
1000
HIER
1070
     1
1002
}
1002
{
1000
MANEDIT
1070
     0
1002
}
1002
{
1000
NOSEL
1070
     1
1002
}
1002
{
1000
BEHIND
1070
     0
1002
}
1002
{
1000
OTHER
1070
     1
1002
}
1002
{
1000
REACTOR
1002
}
1001
GENIUS_GENBH_13
1002
{
1000
FGO
1005
2C41
1002
}
  0
POINT
  5
2C43
330
1F
100
AcDbEntity
  8
0
 60
     1
100
AcDbPoint
 10
427.8856341902145
 20
65.34214350083823
 30
0.0
1001
GENIUS_GENOENT_13
1002
{
1000
MYREF
1005
2C43
1002
}
1002
{
1000
GRP
1005
0
1002
}
1001
GENIUS_GENOLIS_13
1002
{
1000
ENT
1005
2BB7
1005
2B86
1005
2BB4
1005
2B87
1005
2B88
1005
2BAD
1005
2BA6
1005
2BB8
1005
2BA7
1005
2BA3
1005
2B9E
1005
2709
1005
2BA1
1005
2BA5
1005
2BA9
1005
2BA8
1005
2BB3
1005
2BB2
1005
2B98
1005
2BB6
1005
2BB5
1005
2704
1005
2BAC
1005
2BAE
1005
2BA0
1005
2BA4
1005
2BA2
1005
2B9F
1005
0
1005
2703
1005
2B9C
1005
2B9D
1005
2B99
1005
2B9B
1005
2B9A
1002
}
1001
GENIUS_GENOBJ-NBEHI-BHB_13
1002
{
1000
OWNER
1000
genbehi
1002
}
1001
GENIUS_GENBH_13
1002
{
1000
FGO
1005
2C40
1002
}
1001
GENIUS_GENODEF_13
1002
{
1000
HIER
1070
     1
1002
}
1002
{
1000
MANEDIT
1070
     1
1002
}
1002
{
1000
NOSEL
1070
     1
1002
}
1002
{
1000
BEHIND
1070
     1
1002
}
1002
{
1000
OTHER
1070
     1
1002
}
1002
{
1000
REACTOR
1002
}
  0
ARC
  5
2C44
330
1F
100
AcDbEntity
  8
0
100
AcDbCircle
 10
688.7116041412755
 20
350.9965182678961
 30
0.0
 40
1.0
100
AcDbArc
 50
269.995999999998
 51
355.0000000000002
  0
ARC
  5
2C45
330
1F
100
AcDbEntity
  8
0
100
AcDbCircle
 10
690.7196041412755
 20
350.9965182678961
 30
0.0
 40
1.0
100
AcDbArc
 50
90.00300000000036
 51
174.9989999999991
  0
DIMENSION
  5
2C55
102
{ACAD_XDICTIONARY
360
2C62
102
}
102
{ACAD_REACTORS
330
2C63
102
}
330
1F
100
AcDbEntity
  8
BEMASS
100
AcDbDimension
  2
*D40
 10
800.3700926371198
 20
93.53851826652539
 30
0.0
 11
800.3700926371198
 21
218.2460738204244
 31
0.0
 70
   160
  1
250
 71
     5
 42
249.4151111077978
  3
GEN-ISO
100
AcDbAlignedDimension
 13
761.6738622032983
 23
342.9536293743232
 33
0.0
 14
667.2227793048997
 24
93.53851826652544
 34
0.0
 50
90.0
100
AcDbRotatedDimension
1001
ACAD
1000
DSTYLE
1002
{
1070
   140
1040
6.0
1070
   271
1070
     0
1002
}
1001
ACAD_DSTYLE_DIMINSPECT
1070
   396
1000
100%
1070
   395
1000

1070
   394
1070
    33
1070
   393
1070
     0
  0
DIMENSION
  5
2C88
102
{ACAD_XDICTIONARY
360
2C95
102
}
102
{ACAD_REACTORS
330
2C96
102
}
330
1F
100
AcDbEntity
  8
BEMASS
100
AcDbDimension
  2
*D41
 10
563.2290267137356
 20
45.96171219288772
 30
0.0
 11
618.2258154275057
 21
49.56171219288772
 31
0.0
 70
    32
  1
%%c<>
 71
     5
 42
109.9935774275401
  3
GEN-ISO
100
AcDbAlignedDimension
 13
673.2226041412758
 23
93.53851826652544
 33
0.0
 14
563.2290267137356
 24
92.69801739135752
 34
0.0
 50
0.0000000000001132
100
AcDbRotatedDimension
1001
ACAD
1000
DSTYLE
1002
{
1070
   140
1040
6.0
1070
   271
1070
     0
1002
}
  0
LINE
  5
2ED9
330
1F
100
AcDbEntity
  8
0
100
AcDbLine
 10
558.3610117644253
 20
160.8245442964007
 30
0.0
 11
558.5726041412755
 21
159.6245442964008
 31
0.0
  0
ARC
  5
2EDA
330
1F
100
AcDbEntity
  8
0
100
AcDbCircle
 10
563.8226041412755
 20
152.9245442964007
 30
0.0
 40
0.25
100
AcDbArc
 50
283.3210848770339
 51
76.67891512296607
  0
LINE
  5
2EDB
330
1F
100
AcDbEntity
  8
0
100
AcDbLine
 10
558.5726041412755
 20
154.4245442964007
 30
0.0
 11
563.8802061042606
 21
153.1678178335153
 31
0.0
  0
LINE
  5
2EDC
330
1F
100
AcDbEntity
  8
0
100
AcDbLine
 10
558.5726041412755
 20
151.4245442964007
 30
0.0
 11
563.8802061042606
 21
152.6812707592861
 31
0.0
  0
LINE
  5
2EDD
330
1F
100
AcDbEntity
  8
0
100
AcDbLine
 10
558.5726041412755
 20
159.6245442964008
 30
0.0
 11
563.8802061042606
 21
158.3678178335154
 31
0.0
  0
LINE
  5
2EDE
330
1F
100
AcDbEntity
  8
0
100
AcDbLine
 10
558.5726041412755
 20
156.6245442964008
 30
0.0
 11
563.8802061042606
 21
157.8812707592861
 31
0.0
  0
ARC
  5
2EDF
330
1F
100
AcDbEntity
  8
0
100
AcDbCircle
 10
563.8226041412755
 20
158.1245442964008
 30
0.0
 40
0.25
100
AcDbArc
 50
283.3210848770339
 51
76.67891512296607
  0
LINE
  5
2EE0
330
1F
100
AcDbEntity
  8
0
100
AcDbLine
 10
558.5726041412755
 20
156.6245442964008
 30
0.0
 11
558.5726041412755
 21
154.4245442964007
 31
0.0
  0
LINE
  5
2EE1
330
1F
100
AcDbEntity
  8
0
100
AcDbLine
 10
558.5726041412755
 20
151.4245442964007
 30
0.0
 11
558.3610117644253
 21
150.2245442964007
 31
0.0
  0
LINE
  5
2EE2
330
1F
100
AcDbEntity
  8
0
100
AcDbLine
 10
550.8726041412756
 20
160.8245442964007
 30
0.0
 11
550.0726041412755
 21
160.0245442964007
 31
0.0
  0
ARC
  5
2EE3
330
1F
100
AcDbEntity
  8
0
100
AcDbCircle
 10
550.0726041412755
 20
155.5245442964007
 30
0.0
 40
0.5
100
AcDbArc
 50
90.0
 51
270.0
  0
ARC
  5
2EE4
330
1F
100
AcDbEntity
  8
0
100
AcDbCircle
 10
550.0726041412755
 20
157.5245442964007
 30
0.0
 40
0.5
100
AcDbArc
 50
90.0
 51
270.0
  0
ARC
  5
2EE5
330
1F
100
AcDbEntity
  8
0
100
AcDbCircle
 10
550.0726041412755
 20
159.5245442964007
 30
0.0
 40
0.5
100
AcDbArc
 50
90.0
 51
270.0
  0
ARC
  5
2EE6
330
1F
100
AcDbEntity
  8
0
100
AcDbCircle
 10
550.0726041412755
 20
151.5245442964007
 30
0.0
 40
0.5
100
AcDbArc
 50
90.0
 51
270.0
  0
ARC
  5
2EE7
330
1F
100
AcDbEntity
  8
0
100
AcDbCircle
 10
550.0726041412755
 20
153.5245442964007
 30
0.0
 40
0.5
100
AcDbArc
 50
90.0
 51
270.0
  0
LINE
  5
2EE8
330
1F
100
AcDbEntity
  8
0
100
AcDbLine
 10
550.0726041412755
 20
159.0245442964007
 30
0.0
 11
550.0726041412755
 21
158.0245442964007
 31
0.0
  0
LINE
  5
2EE9
330
1F
100
AcDbEntity
  8
0
100
AcDbLine
 10
550.0726041412755
 20
157.0245442964007
 30
0.0
 11
550.0726041412755
 21
156.0245442964007
 31
0.0
  0
LINE
  5
2EEA
330
1F
100
AcDbEntity
  8
0
100
AcDbLine
 10
550.0726041412755
 20
155.0245442964007
 30
0.0
 11
550.0726041412755
 21
154.0245442964007
 31
0.0
  0
LINE
  5
2EEB
330
1F
100
AcDbEntity
  8
0
100
AcDbLine
 10
550.0726041412755
 20
153.0245442964007
 30
0.0
 11
550.0726041412755
 21
152.0245442964007
 31
0.0
  0
LINE
  5
2EEC
330
1F
100
AcDbEntity
  8
0
100
AcDbLine
 10
550.0726041412755
 20
151.0245442964007
 30
0.0
 11
550.8726041412755
 21
150.2245442964007
 31
0.0
  0
HATCH
  5
2EED
330
1F
100
AcDbEntity
  8
AM_8
100
AcDbHatch
 10
0.0
 20
0.0
 30
0.0
210
0.0
220
0.0
230
1.0
  2
_U
 70
     0
 71
     0
 91
        1
 92
        1
 93
       22
 72
     2
 10
563.8226041412755
 20
158.1245442964008
 40
0.2499999999999957
 50
283.3210848770341
 51
436.6789151229658
 73
     1
 72
     1
 10
563.8802061042606
 20
158.3678178335154
 11
558.5726041412755
 21
159.6245442964008
 72
     1
 10
558.5726041412755
 20
159.6245442964008
 11
558.3786444624962
 21
160.7245442964007
 72
     1
 10
558.3786444624962
 20
160.7245442964007
 11
550.7726041412756
 21
160.7245442964007
 72
     1
 10
550.7726041412755
 20
160.7245442964007
 11
550.0726041412755
 21
160.0245442964007
 72
     2
 10
550.0726041412755
 20
159.5245442964007
 40
0.5
 50
90.0
 51
270.0
 73
     1
 72
     1
 10
550.0726041412755
 20
159.0245442964007
 11
550.0726041412755
 21
158.0245442964007
 72
     2
 10
550.0726041412755
 20
157.5245442964007
 40
0.5
 50
90.0
 51
270.0
 73
     1
 72
     1
 10
550.0726041412755
 20
157.0245442964007
 11
550.0726041412755
 21
156.0245442964007
 72
     2
 10
550.0726041412755
 20
155.5245442964007
 40
0.5
 50
90.0
 51
270.0
 73
     1
 72
     1
 10
550.0726041412755
 20
155.0245442964007
 11
550.0726041412755
 21
154.0245442964007
 72
     2
 10
550.0726041412755
 20
153.5245442964007
 40
0.5
 50
90.0
 51
270.0
 73
     1
 72
     1
 10
550.0726041412755
 20
153.0245442964007
 11
550.0726041412755
 21
152.0245442964007
 72
     2
 10
550.0726041412755
 20
151.5245442964007
 40
0.5
 50
90.0
 51
270.0
 73
     1
 72
     1
 10
550.0726041412755
 20
151.0245442964007
 11
550.7726041412754
 21
150.3245442964008
 72
     1
 10
550.7726041412754
 20
150.3245442964008
 11
558.3786444624961
 21
150.3245442964007
 72
     1
 10
558.3786444624962
 20
150.3245442964007
 11
558.5726041412755
 21
151.4245442964007
 72
     1
 10
558.5726041412755
 20
151.4245442964007
 11
563.8802061042606
 21
152.6812707592861
 72
     2
 10
563.8226041412755
 20
152.9245442964007
 40
0.2499999999999957
 50
283.3210848770341
 51
436.6789151229658
 73
     1
 72
     1
 10
563.8802061042606
 20
153.1678178335153
 11
558.5726041412755
 21
154.4245442964007
 72
     1
 10
558.5726041412755
 20
154.4245442964007
 11
558.5726041412755
 21
156.6245442964008
 72
     1
 10
558.5726041412755
 20
156.6245442964008
 11
563.8802061042606
 21
157.8812707592861
 97
        0
 75
     0
 76
     0
 52
45.0
 41
2.299999999999999
 77
     1
 78
     2
 53
45.0
 43
467.2130160200843
 44
-73.1000319227472
 45
-1.626345596729059
 46
1.626345596729059
 79
     0
 53
135.0
 43
467.2130160200843
 44
-73.1000319227472
 45
-1.626345596729059
 46
-1.626345596729058
 79
     0
 98
        1
 10
467.2130160200843
 20
-73.1000319227472
1001
GENIUS_GENOBJ-N-HTC_13
1002
{
1000
OWNER
1000
GEN
1002
}
1001
GENIUS_GENODEF_13
1002
{
1000
HIER
1070
     0
1002
}
1002
{
1000
MANEDIT
1070
     0
1002
}
1002
{
1000
NOSEL
1070
     0
1002
}
1002
{
1000
BEHIND
1070
     0
1002
}
1002
{
1000
OTHER
1070
     0
1002
}
1002
{
1000
REACTOR
1002
}
1001
GENIUS_GENHATCH_13
1002
{
1000
DATA
1040
45.0
1042
2.299999999999999
1000
_U
1070
     1
1011
554.9340901567246
1021
156.3383291475474
1031
0.0
1002
}
1002
{
1000
UCS
1010
0.0
1020
0.0
1030
0.0
1010
1.0
1020
0.0
1030
0.0
1010
0.0
1020
1.0
1030
0.0
1002
}
  0
LINE
  5
2EEE
330
1F
100
AcDbEntity
  8
0
100
AcDbLine
 10
558.5726041412755
 20
156.6245442964008
 30
0.0
 11
562.7405409033208
 21
156.6245442964007
 31
0.0
  0
LINE
  5
2EEF
330
1F
100
AcDbEntity
  8
0
100
AcDbLine
 10
562.7573519023684
 20
154.4245442964007
 30
0.0
 11
558.5726041412755
 21
154.4245442964007
 31
0.0
  0
LINE
  5
2EF0
330
1F
100
AcDbEntity
  8
0
100
AcDbLine
 10
558.5726041412755
 20
159.6245442964008
 30
0.0
 11
562.7176168137106
 21
159.6245442964008
 31
0.0
  0
LINE
  5
2EF1
330
1F
100
AcDbEntity
  8
0
100
AcDbLine
 10
558.5726041412755
 20
151.4245442964007
 30
0.0
 11
562.7802759919786
 21
151.4245442964007
 31
0.0
  0
LINE
  5
2EF2
330
1F
100
AcDbEntity
  8
0
100
AcDbLine
 10
550.8726041412756
 20
160.8245442964007
 30
0.0
 11
562.7084471778664
 21
160.8245442964007
 31
0.0
  0
LINE
  5
2EF3
330
1F
100
AcDbEntity
  8
0
100
AcDbLine
 10
550.8726041412755
 20
150.2245442964007
 30
0.0
 11
562.7894456278228
 21
150.2245442964007
 31
0.0
  0
LINE
  5
2EF4
330
1F
100
AcDbEntity
  8
AM_7
  6
AM_DIN_G_W050x2
100
AcDbLine
 10
618.2226041412755
 20
163.8245442964007
 30
0.0
 11
618.2226041412755
 21
147.2245442964007
 31
0.0
1001
GENIUS_GENOBJ-N-CEN_13
1002
{
1000
OWNER
1000
GEN
1002
}
1001
GENIUS_GENODEF_13
1002
{
1000
HIER
1070
     0
1002
}
1002
{
1000
MANEDIT
1070
     0
1002
}
1002
{
1000
NOSEL
1070
     0
1002
}
1002
{
1000
BEHIND
1070
     0
1002
}
1002
{
1000
OTHER
1070
     0
1002
}
1002
{
1000
REACTOR
1002
}
  0
LINE
  5
2EF5
330
1F
100
AcDbEntity
  8
0
100
AcDbLine
 10
685.5726041412755
 20
160.8245442964007
 30
0.0
 11
673.7367611046854
 21
160.8245442964007
 31
0.0
  0
LINE
  5
2EF6
330
1F
100
AcDbEntity
  8
0
100
AcDbLine
 10
677.8726041412755
 20
159.6245442964008
 30
0.0
 11
673.7275914688411
 21
159.6245442964008
 31
0.0
  0
LINE
  5
2EF7
330
1F
100
AcDbEntity
  8
0
100
AcDbLine
 10
677.8726041412755
 20
156.6245442964008
 30
0.0
 11
673.7046673792309
 21
156.6245442964007
 31
0.0
  0
LINE
  5
2EF8
330
1F
100
AcDbEntity
  8
0
100
AcDbLine
 10
673.6878563801834
 20
154.4245442964007
 30
0.0
 11
677.8726041412755
 21
154.4245442964007
 31
0.0
  0
LINE
  5
2EF9
330
1F
100
AcDbEntity
  8
0
100
AcDbLine
 10
677.8726041412755
 20
151.4245442964007
 30
0.0
 11
673.6649322905731
 21
151.4245442964006
 31
0.0
  0
LINE
  5
2EFA
330
1F
100
AcDbEntity
  8
0
100
AcDbLine
 10
685.5726041412756
 20
150.2245442964007
 30
0.0
 11
673.655762654729
 21
150.2245442964007
 31
0.0
  0
LINE
  5
2EFB
330
1F
100
AcDbEntity
  8
0
100
AcDbLine
 10
686.3726041412755
 20
155.0245442964007
 30
0.0
 11
686.3726041412755
 21
154.0245442964007
 31
0.0
  0
LINE
  5
2EFC
330
1F
100
AcDbEntity
  8
0
100
AcDbLine
 10
677.8726041412755
 20
156.6245442964008
 30
0.0
 11
677.8726041412755
 21
154.4245442964007
 31
0.0
  0
HATCH
  5
2EFD
330
1F
100
AcDbEntity
  8
AM_8
100
AcDbHatch
 10
0.0
 20
0.0
 30
0.0
210
0.0
220
0.0
230
1.0
  2
_U
 70
     0
 71
     0
 91
        1
 92
        1
 93
       22
 72
     2
 10
672.6226041412756
 20
158.1245442964008
 40
0.2499999999999957
 50
103.3210848770341
 51
256.6789151229659
 73
     0
 72
     1
 10
672.5650021782904
 20
158.3678178335154
 11
677.8726041412755
 21
159.6245442964008
 72
     1
 10
677.8726041412755
 20
159.6245442964008
 11
678.066563820055
 21
160.7245442964007
 72
     1
 10
678.066563820055
 20
160.7245442964007
 11
685.6726041412756
 21
160.7245442964007
 72
     1
 10
685.6726041412755
 20
160.7245442964007
 11
686.3726041412755
 21
160.0245442964007
 72
     2
 10
686.3726041412755
 20
159.5245442964007
 40
0.5
 50
-90.0
 51
90.0
 73
     0
 72
     1
 10
686.3726041412755
 20
159.0245442964007
 11
686.3726041412755
 21
158.0245442964007
 72
     2
 10
686.3726041412755
 20
157.5245442964007
 40
0.5
 50
-90.0
 51
90.0
 73
     0
 72
     1
 10
686.3726041412755
 20
157.0245442964007
 11
686.3726041412755
 21
156.0245442964007
 72
     2
 10
686.3726041412755
 20
155.5245442964007
 40
0.5
 50
-90.0
 51
90.0
 73
     0
 72
     1
 10
686.3726041412755
 20
155.0245442964007
 11
686.3726041412755
 21
154.0245442964007
 72
     2
 10
686.3726041412755
 20
153.5245442964007
 40
0.5
 50
-90.0
 51
90.0
 73
     0
 72
     1
 10
686.3726041412755
 20
153.0245442964007
 11
686.3726041412755
 21
152.0245442964007
 72
     2
 10
686.3726041412755
 20
151.5245442964007
 40
0.5
 50
-90.0
 51
90.0
 73
     0
 72
     1
 10
686.3726041412755
 20
151.0245442964007
 11
685.6726041412756
 21
150.3245442964008
 72
     1
 10
685.6726041412756
 20
150.3245442964008
 11
678.066563820055
 21
150.3245442964007
 72
     1
 10
678.066563820055
 20
150.3245442964007
 11
677.8726041412757
 21
151.4245442964007
 72
     1
 10
677.8726041412755
 20
151.4245442964007
 11
672.5650021782904
 21
152.6812707592861
 72
     2
 10
672.6226041412756
 20
152.9245442964007
 40
0.2499999999999957
 50
103.3210848770341
 51
256.6789151229659
 73
     0
 72
     1
 10
672.5650021782904
 20
153.1678178335153
 11
677.8726041412755
 21
154.4245442964007
 72
     1
 10
677.8726041412755
 20
154.4245442964007
 11
677.8726041412755
 21
156.6245442964008
 72
     1
 10
677.8726041412755
 20
156.6245442964008
 11
672.5650021782904
 21
157.8812707592861
 97
        0
 75
     0
 76
     0
 52
45.0
 41
2.299999999999999
 77
     1
 78
     2
 53
135.0
 43
769.2321922624666
 44
-73.1000319227472
 45
1.626345596729059
 46
1.626345596729059
 79
     0
 53
45.0
 43
769.2321922624666
 44
-73.1000319227472
 45
1.626345596729059
 46
-1.626345596729058
 79
     0
 98
        1
 10
769.2321922624666
 20
-73.1000319227472
1001
GENIUS_GENOBJ-N-HTC_13
1002
{
1000
OWNER
1000
GEN
1002
}
1001
GENIUS_GENODEF_13
1002
{
1000
HIER
1070
     0
1002
}
1002
{
1000
MANEDIT
1070
     0
1002
}
1002
{
1000
NOSEL
1070
     0
1002
}
1002
{
1000
BEHIND
1070
     0
1002
}
1002
{
1000
OTHER
1070
     0
1002
}
1002
{
1000
REACTOR
1002
}
1001
GENIUS_GENHATCH_13
1002
{
1000
DATA
1040
45.0
1042
2.299999999999999
1000
_U
1070
     1
1011
681.5111181258264
1021
156.3383291475474
1031
0.0
1002
}
1002
{
1000
UCS
1010
0.0
1020
0.0
1030
0.0
1010
1.0
1020
0.0
1030
0.0
1010
0.0
1020
1.0
1030
0.0
1002
}
  0
LINE
  5
2EFE
330
1F
100
AcDbEntity
  8
0
100
AcDbLine
 10
686.3726041412755
 20
151.0245442964007
 30
0.0
 11
685.5726041412756
 21
150.2245442964007
 31
0.0
  0
LINE
  5
2EFF
330
1F
100
AcDbEntity
  8
0
100
AcDbLine
 10
686.3726041412755
 20
153.0245442964007
 30
0.0
 11
686.3726041412755
 21
152.0245442964007
 31
0.0
  0
ARC
  5
2F00
330
1F
100
AcDbEntity
  8
0
100
AcDbCircle
 10
686.3726041412755
 20
153.5245442964007
 30
0.0
 40
0.5
100
AcDbArc
 50
270.0
 51
90.0
  0
ARC
  5
2F01
330
1F
100
AcDbEntity
  8
0
100
AcDbCircle
 10
686.3726041412755
 20
151.5245442964007
 30
0.0
 40
0.5
100
AcDbArc
 50
270.0
 51
90.0
  0
LINE
  5
2F02
330
1F
100
AcDbEntity
  8
0
100
AcDbLine
 10
677.8726041412755
 20
151.4245442964007
 30
0.0
 11
678.0841965181257
 21
150.2245442964007
 31
0.0
  0
ARC
  5
2F03
330
1F
100
AcDbEntity
  8
0
100
AcDbCircle
 10
672.6226041412756
 20
152.9245442964007
 30
0.0
 40
0.25
100
AcDbArc
 50
103.3210848770339
 51
256.6789151229661
  0
LINE
  5
2F04
330
1F
100
AcDbEntity
  8
0
100
AcDbLine
 10
677.8726041412755
 20
151.4245442964007
 30
0.0
 11
672.5650021782904
 21
152.6812707592861
 31
0.0
  0
LINE
  5
2F05
330
1F
100
AcDbEntity
  8
0
100
AcDbLine
 10
677.8726041412755
 20
154.4245442964007
 30
0.0
 11
672.5650021782904
 21
153.1678178335153
 31
0.0
  0
LINE
  5
2F06
330
1F
100
AcDbEntity
  8
0
100
AcDbLine
 10
685.5726041412755
 20
160.8245442964007
 30
0.0
 11
686.3726041412755
 21
160.0245442964007
 31
0.0
  0
LINE
  5
2F07
330
1F
100
AcDbEntity
  8
0
100
AcDbLine
 10
686.3726041412755
 20
159.0245442964007
 30
0.0
 11
686.3726041412755
 21
158.0245442964007
 31
0.0
  0
ARC
  5
2F08
330
1F
100
AcDbEntity
  8
0
100
AcDbCircle
 10
686.3726041412755
 20
159.5245442964007
 30
0.0
 40
0.5
100
AcDbArc
 50
270.0
 51
90.0
  0
ARC
  5
2F09
330
1F
100
AcDbEntity
  8
0
100
AcDbCircle
 10
686.3726041412755
 20
157.5245442964007
 30
0.0
 40
0.5
100
AcDbArc
 50
270.0
 51
90.0
  0
ARC
  5
2F0A
330
1F
100
AcDbEntity
  8
0
100
AcDbCircle
 10
686.3726041412755
 20
155.5245442964007
 30
0.0
 40
0.5
100
AcDbArc
 50
270.0
 51
90.0
  0
LINE
  5
2F0B
330
1F
100
AcDbEntity
  8
0
100
AcDbLine
 10
686.3726041412755
 20
157.0245442964007
 30
0.0
 11
686.3726041412755
 21
156.0245442964007
 31
0.0
  0
LINE
  5
2F0C
330
1F
100
AcDbEntity
  8
0
100
AcDbLine
 10
678.0841965181257
 20
160.8245442964007
 30
0.0
 11
677.8726041412755
 21
159.6245442964008
 31
0.0
  0
ARC
  5
2F0D
330
1F
100
AcDbEntity
  8
0
100
AcDbCircle
 10
672.6226041412756
 20
158.1245442964008
 30
0.0
 40
0.25
100
AcDbArc
 50
103.3210848770339
 51
256.6789151229661
  0
LINE
  5
2F0E
330
1F
100
AcDbEntity
  8
0
100
AcDbLine
 10
677.8726041412755
 20
156.6245442964008
 30
0.0
 11
672.5650021782904
 21
157.8812707592861
 31
0.0
  0
LINE
  5
2F0F
330
1F
100
AcDbEntity
  8
0
100
AcDbLine
 10
677.8726041412755
 20
159.6245442964008
 30
0.0
 11
672.5650021782904
 21
158.3678178335154
 31
0.0
  0
ENDSEC
  0
SECTION
  2
OBJECTS
  0
DICTIONARY
  5
C
330
0
100
AcDbDictionary
281
     1
  3
ACAD_2007HEADERVARS_RT
350
30CD
  3
ACAD_COLOR
350
BE
  3
ACAD_GROUP
350
D
  3
ACAD_LAYOUT
350
1A
  3
ACAD_MATERIAL
350
BD
  3
ACAD_MLEADERSTYLE
350
2D40
  3
ACAD_MLINESTYLE
350
17
  3
ACAD_PLOTSETTINGS
350
19
  3
ACAD_PLOTSTYLENAME
350
E
  3
ACAD_SCALELIST
350
2D2E
  3
ACAD_TABLESTYLE
350
11A
  3
ACAD_VISUALSTYLE
350
2D1D
  3
ACDB_RECOMPOSE_DATA
350
30CC
  3
AcDbVariableDictionary
350
94
  3
AcmDictionary
350
5B
  3
AEC_CLASSIFICATION_SYSTEM_DEFS
350
817
  3
AEC_PROPERTY_SET_DEFS
350
818
  3
AMG
350
41
  3
AMGSNAPSETTINGS
350
26B
  0
DICTIONARY
  5
5EC
330
2
100
AcDbDictionary
280
     1
281
     1
  3
ACAD_LAYERSTATES
360
5ED
  3
AMLAYER_GROUPCOLORS
360
EAF
  0
DICTIONARY
  5
2DDB
330
10
100
AcDbDictionary
280
     1
281
     1
  3
ADSK_XREC_LAYER_RECONCILED
360
2DDC
  0
DICTIONARY
  5
2DEF
330
5BE
100
AcDbDictionary
280
     1
281
     1
  3
ADSK_XREC_LAYER_RECONCILED
360
2DF0
  0
DICTIONARY
  5
2DF1
330
5BF
100
AcDbDictionary
280
     1
281
     1
  3
ADSK_XREC_LAYER_RECONCILED
360
2DF2
  0
DICTIONARY
  5
2DF3
330
5C0
100
AcDbDictionary
280
     1
281
     1
  3
ADSK_XREC_LAYER_RECONCILED
360
2DF4
  0
DICTIONARY
  5
2DF5
330
5C1
100
AcDbDictionary
280
     1
281
     1
  3
ADSK_XREC_LAYER_RECONCILED
360
2DF6
  0
DICTIONARY
  5
2DF7
330
5C2
100
AcDbDictionary
280
     1
281
     1
  3
ADSK_XREC_LAYER_RECONCILED
360
2DF8
  0
DICTIONARY
  5
2DFB
330
5C5
100
AcDbDictionary
280
     1
281
     1
  3
ADSK_XREC_LAYER_RECONCILED
360
2DFC
  0
DICTIONARY
  5
2DFD
330
5C6
100
AcDbDictionary
280
     1
281
     1
  3
ADSK_XREC_LAYER_RECONCILED
360
2DFE
  0
DICTIONARY
  5
2DFF
330
5C7
100
AcDbDictionary
280
     1
281
     1
  3
ADSK_XREC_LAYER_RECONCILED
360
2E00
  0
DICTIONARY
  5
2E01
330
5C8
100
AcDbDictionary
280
     1
281
     1
  3
ADSK_XREC_LAYER_RECONCILED
360
2E02
  0
DICTIONARY
  5
2E03
330
5C9
100
AcDbDictionary
280
     1
281
     1
  3
ADSK_XREC_LAYER_RECONCILED
360
2E04
  0
DICTIONARY
  5
2E05
330
5CA
100
AcDbDictionary
280
     1
281
     1
  3
ADSK_XREC_LAYER_RECONCILED
360
2E06
  0
DICTIONARY
  5
2E07
330
5CB
100
AcDbDictionary
280
     1
281
     1
  3
ADSK_XREC_LAYER_RECONCILED
360
2E08
  0
DICTIONARY
  5
2E09
330
5CC
100
AcDbDictionary
280
     1
281
     1
  3
ADSK_XREC_LAYER_RECONCILED
360
2E0A
  0
DICTIONARY
  5
2E11
330
1247
100
AcDbDictionary
280
     1
281
     1
  3
ADSK_XREC_LAYER_RECONCILED
360
2E12
  0
DICTIONARY
  5
2E15
330
1249
100
AcDbDictionary
280
     1
281
     1
  3
ADSK_XREC_LAYER_RECONCILED
360
2E16
  0
DICTIONARY
  5
2E17
330
124A
100
AcDbDictionary
280
     1
281
     1
  3
ADSK_XREC_LAYER_RECONCILED
360
2E18
  0
DICTIONARY
  5
8F
330
1F
100
AcDbDictionary
280
     1
281
     1
  3
ACAD_SORTENTS
360
EB6
  0
DICTIONARY
  5
2C62
330
2C55
100
AcDbDictionary
280
     1
281
     1
  3
ACAD_DIMASSOC
360
2C63
  0
DICTIONARY
  5
2C95
330
2C88
100
AcDbDictionary
280
     1
281
     1
  3
ACAD_DIMASSOC
360
2C96
  0
DICTIONARY
  5
30CD
102
{ACAD_REACTORS
330
C
102
}
330
C
100
AcDbDictionary
281
     1
  3
DIMARCSYM
350
30CE
  0
DICTIONARY
  5
BE
102
{ACAD_REACTORS
330
C
102
}
330
C
100
AcDbDictionary
281
     1
  0
DICTIONARY
  5
D
102
{ACAD_REACTORS
330
C
102
}
330
C
100
AcDbDictionary
281
     1
  0
DICTIONARY
  5
1A
102
{ACAD_REACTORS
330
C
102
}
330
C
100
AcDbDictionary
281
     1
  3
Layout1
350
1E
  3
Layout2
350
26
  3
Model
350
22
  0
DICTIONARY
  5
BD
102
{ACAD_REACTORS
330
C
102
}
330
C
100
AcDbDictionary
281
     1
  3
ByBlock
350
2D0D
  3
ByLayer
350
2D05
  3
Global
350
2D15
  0
DICTIONARY
  5
2D40
102
{ACAD_REACTORS
330
C
102
}
330
C
100
AcDbDictionary
281
     1
  3
Standard
350
2D41
  0
DICTIONARY
  5
17
102
{ACAD_REACTORS
330
C
102
}
330
C
100
AcDbDictionary
281
     1
  3
Standard
350
18
  0
DICTIONARY
  5
19
102
{ACAD_REACTORS
330
C
102
}
330
C
100
AcDbDictionary
281
     1
  0
ACDBDICTIONARYWDFLT
  5
E
102
{ACAD_REACTORS
330
C
102
}
330
C
100
AcDbDictionary
281
     1
  3
Normal
350
F
100
AcDbDictionaryWithDefault
340
F
  0
DICTIONARY
  5
2D2E
102
{ACAD_REACTORS
330
C
102
}
330
C
100
AcDbDictionary
281
     1
  3
A0
350
2D2F
  3
A1
350
2D30
  3
A2
350
2D31
  3
A3
350
2D32
  3
A4
350
2D33
  3
A5
350
2D34
  3
A6
350
2D35
  3
A7
350
2D36
  3
A8
350
2D37
  3
A9
350
2D38
  3
B0
350
2D39
  3
B1
350
2D3A
  3
B2
350
2D3B
  3
B3
350
2D3C
  3
B4
350
2D3D
  3
B5
350
2D3E
  3
B6
350
2D3F
  0
DICTIONARY
  5
11A
102
{ACAD_REACTORS
330
C
102
}
330
C
100
AcDbDictionary
281
     1
  3
Standard
350
11B
  0
DICTIONARY
  5
2D1D
102
{ACAD_REACTORS
330
C
102
}
330
C
100
AcDbDictionary
281
     1
  3
2dWireframe
350
2D23
  3
3D Hidden
350
2D25
  3
3dWireframe
350
2D24
  3
Basic
350
2D22
  3
Brighten
350
2D29
  3
ColorChange
350
2D2D
  3
Conceptual
350
2D26
  3
Dim
350
2D28
  3
Facepattern
350
2D2C
  3
Flat
350
2D1E
  3
FlatWithEdges
350
2D1F
  3
Gouraud
350
2D20
  3
GouraudWithEdges
350
2D21
  3
Linepattern
350
2D2B
  3
Realistic
350
2D27
  3
Thicken
350
2D2A
  0
XRECORD
  5
30CC
102
{ACAD_REACTORS
330
C
102
}
330
C
100
AcDbXrecord
280
     1
 90
        1
330
11B
  0
DICTIONARY
  5
94
102
{ACAD_REACTORS
330
C
102
}
330
C
100
AcDbDictionary
281
     1
  3
CANNOSCALE
350
30C9
  3
CMLEADERSTYLE
350
30C8
  3
CTABLESTYLE
350
138
  3
DIMASSOC
350
96
  3
INDEXCTL
350
95
  0
DICTIONARY
  5
5B
102
{ACAD_REACTORS
330
C
102
}
330
C
100
AcDbDictionary
281
     1
  3
AcmBOM
350
272
  3
AcmStdDictionary
350
61
  3
AMDTSECTSYM_ARROWCOLOR
350
123
  0
DICTIONARY
  5
817
102
{ACAD_REACTORS
330
C
102
}
330
C
100
AcDbDictionary
281
     1
  0
DICTIONARY
  5
818
102
{ACAD_REACTORS
330
C
102
}
330
C
100
AcDbDictionary
281
     1
  0
DICTIONARY
  5
41
102
{ACAD_REACTORS
330
C
102
}
330
C
100
AcDbDictionary
281
     1
  0
DICTIONARY
  5
26B
102
{ACAD_REACTORS
330
C
102
}
330
C
100
AcDbDictionary
281
     1
  0
DICTIONARY
  5
5ED
102
{ACAD_REACTORS
330
5EC
102
}
330
5EC
100
AcDbDictionary
281
     1
  0
DICTIONARY
  5
EAF
102
{ACAD_REACTORS
330
5EC
102
}
330
5EC
100
AcDbDictionary
280
     1
281
     1
  0
XRECORD
  5
2DDC
102
{ACAD_REACTORS
330
2DDB
102
}
330
2DDB
100
AcDbXrecord
280
     1
290
     1
  0
XRECORD
  5
2DF0
102
{ACAD_REACTORS
330
2DEF
102
}
330
2DEF
100
AcDbXrecord
280
     1
290
     1
  0
XRECORD
  5
2DF2
102
{ACAD_REACTORS
330
2DF1
102
}
330
2DF1
100
AcDbXrecord
280
     1
290
     1
  0
XRECORD
  5
2DF4
102
{ACAD_REACTORS
330
2DF3
102
}
330
2DF3
100
AcDbXrecord
280
     1
290
     1
  0
XRECORD
  5
2DF6
102
{ACAD_REACTORS
330
2DF5
102
}
330
2DF5
100
AcDbXrecord
280
     1
290
     1
  0
XRECORD
  5
2DF8
102
{ACAD_REACTORS
330
2DF7
102
}
330
2DF7
100
AcDbXrecord
280
     1
290
     1
  0
XRECORD
  5
2DFC
102
{ACAD_REACTORS
330
2DFB
102
}
330
2DFB
100
AcDbXrecord
280
     1
290
     1
  0
XRECORD
  5
2DFE
102
{ACAD_REACTORS
330
2DFD
102
}
330
2DFD
100
AcDbXrecord
280
     1
290
     1
  0
XRECORD
  5
2E00
102
{ACAD_REACTORS
330
2DFF
102
}
330
2DFF
100
AcDbXrecord
280
     1
290
     1
  0
XRECORD
  5
2E02
102
{ACAD_REACTORS
330
2E01
102
}
330
2E01
100
AcDbXrecord
280
     1
290
     1
  0
XRECORD
  5
2E04
102
{ACAD_REACTORS
330
2E03
102
}
330
2E03
100
AcDbXrecord
280
     1
290
     1
  0
XRECORD
  5
2E06
102
{ACAD_REACTORS
330
2E05
102
}
330
2E05
100
AcDbXrecord
280
     1
290
     1
  0
XRECORD
  5
2E08
102
{ACAD_REACTORS
330
2E07
102
}
330
2E07
100
AcDbXrecord
280
     1
290
     1
  0
XRECORD
  5
2E0A
102
{ACAD_REACTORS
330
2E09
102
}
330
2E09
100
AcDbXrecord
280
     1
290
     1
  0
XRECORD
  5
2E12
102
{ACAD_REACTORS
330
2E11
102
}
330
2E11
100
AcDbXrecord
280
     1
290
     1
  0
XRECORD
  5
2E16
102
{ACAD_REACTORS
330
2E15
102
}
330
2E15
100
AcDbXrecord
280
     1
290
     1
  0
XRECORD
  5
2E18
102
{ACAD_REACTORS
330
2E17
102
}
330
2E17
100
AcDbXrecord
280
     1
290
     1
  0
SORTENTSTABLE
  5
EB6
102
{ACAD_REACTORS
330
8F
102
}
330
8F
100
AcDbSortentsTable
330
1F
331
88F
  5
88F
331
965
  5
965
331
878
  5
878
331
8A0
  5
8A0
331
879
  5
879
331
889
  5
889
331
891
  5
891
331
8A1
  5
8A1
331
87A
  5
87A
331
882
  5
882
331
892
  5
892
331
873
  5
873
331
968
  5
968
331
883
  5
883
331
874
  5
874
331
969
  5
969
331
884
  5
884
331
894
  5
894
331
8A4
  5
8A4
331
875
  5
875
331
885
  5
885
331
8A5
  5
8A5
331
876
  5
876
331
88E
  5
88E
331
964
  5
964
331
877
  5
877
  0
DIMASSOC
  5
2C63
102
{ACAD_REACTORS
330
2C62
102
}
330
2C62
100
AcDbDimAssoc
330
2C55
 90
        2
 70
     0
 71
     0
  1
AcDbOsnapPointRef
 72
    13
331
28E5
 73
     0
 91
        0
 40
0.0
 10
0.0
 20
0.0
 30
2.000000000000000E+50
 75
     0
  0
DIMASSOC
  5
2C96
102
{ACAD_REACTORS
330
2C95
102
}
330
2C95
100
AcDbDimAssoc
330
2C88
 90
        3
 70
     0
 71
     0
  1
AcDbOsnapPointRef
 72
    13
331
28E3
 73
     0
 91
        0
 40
0.0
 10
0.0
 20
0.0
 30
2.000000000000000E+50
 75
     0
  1
AcDbOsnapPointRef
 72
     8
331
2890
 73
     0
 91
        0
 40
-0.0047508045587618
 10
0.0
 20
0.0
 30
0.0
 75
     1
  1
AcDbOsnapPointRef
 72
    13
331
28E3
 73
     0
 91
        0
 40
0.0
 10
0.0
 20
0.0
 30
2.000000000000000E+50
 75
     0
  0
XRECORD
  5
30CE
102
{ACAD_REACTORS
330
30CD
102
}
330
30CD
100
AcDbXrecord
280
     1
 70
     1
  0
LAYOUT
  5
1E
102
{ACAD_REACTORS
330
1A
102
}
330
1A
100
AcDbPlotSettings
  1

  2

  4

  6

 40
0.0
 41
0.0
 42
0.0
 43
0.0
 44
0.0
 45
0.0
 46
0.0
 47
0.0
 48
0.0
 49
0.0
140
0.0
141
0.0
142
1.0
143
1.0
 70
   688
 72
     0
 73
     0
 74
     5
  7
monochrome.ctb
 75
    16
147
1.0
 76
     0
 77
     2
 78
   300
148
0.0
149
0.0
100
AcDbLayout
  1
Layout1
 70
     1
 71
     1
 10
0.0
 20
0.0
 11
420.0
 21
297.0
 12
0.0
 22
0.0
 32
0.0
 14
1.000000000000000E+20
 24
1.000000000000000E+20
 34
1.000000000000000E+20
 15
-1.000000000000000E+20
 25
-1.000000000000000E+20
 35
-1.000000000000000E+20
146
0.0
 13
0.0
 23
0.0
 33
0.0
 16
1.0
 26
0.0
 36
0.0
 17
0.0
 27
1.0
 37
0.0
 76
     0
330
1B
  0
LAYOUT
  5
26
102
{ACAD_REACTORS
330
1A
102
}
330
1A
100
AcDbPlotSettings
  1

  2

  4

  6

 40
0.0
 41
0.0
 42
0.0
 43
0.0
 44
0.0
 45
0.0
 46
0.0
 47
0.0
 48
0.0
 49
0.0
140
0.0
141
0.0
142
1.0
143
1.0
 70
   688
 72
     0
 73
     0
 74
     5
  7
monochrome.ctb
 75
    16
147
1.0
 76
     0
 77
     2
 78
   300
148
0.0
149
0.0
100
AcDbLayout
  1
Layout2
 70
     1
 71
     2
 10
0.0
 20
0.0
 11
12.0
 21
9.0
 12
0.0
 22
0.0
 32
0.0
 14
0.0
 24
0.0
 34
0.0
 15
0.0
 25
0.0
 35
0.0
146
0.0
 13
0.0
 23
0.0
 33
0.0
 16
1.0
 26
0.0
 36
0.0
 17
0.0
 27
1.0
 37
0.0
 76
     0
330
23
  0
LAYOUT
  5
22
102
{ACAD_REACTORS
330
1A
102
}
330
1A
100
AcDbPlotSettings
  1

  2
\\rd-sr-211\PH-PR-040
  4
A4
  6

 40
6.011333465576171
 41
4.233341693878173
 42
6.011322021484375
 43
4.23333740234375
 44
209.9733276367187
 45
296.9259948730469
 46
0.0
 47
55.52715920890958
 48
-21.568082005919
 49
25.77930822578412
140
412.9321773680874
141
415.1819635926505
142
1.0
143
2.194992594142382
 70
 11956
 72
     1
 73
     0
 74
     4
  7
monochrome.ctb
 75
     0
147
0.4555824027236483
 76
     0
 77
     2
 78
   300
148
21.568082005919
149
-25.77930822578412
100
AcDbLayout
  1
Model
 70
     1
 71
     0
 10
0.0
 20
0.0
 11
12.0
 21
9.0
 12
0.0
 22
0.0
 32
0.0
 14
0.0
 24
0.0
 34
0.0
 15
0.0
 25
0.0
 35
0.0
146
0.0
 13
0.0
 23
0.0
 33
0.0
 16
1.0
 26
0.0
 36
0.0
 17
0.0
 27
1.0
 37
0.0
 76
     0
330
1F
331
2D03
1001
ACAD_PSEXT
1000
\\rd-sr-211\PH-PR-040
1000
HP LaserJet 5100 PCL 5e
1000
PH
1000
172.26.20.34
1070
     0
  0
MATERIAL
  5
2D0D
102
{ACAD_XDICTIONARY
360
2D0E
102
}
102
{ACAD_REACTORS
330
BD
102
}
330
BD
100
AcDbMaterial
  1
ByBlock
 72
     0
 43
0.0008202099737533
 43
0.0
 43
0.0
 43
0.0
 43
0.0
 43
0.0008202099737533
 43
0.0
 43
0.0
 43
0.0
 43
0.0
 43
1.0
 43
0.0
 43
0.0
 43
0.0
 43
0.0
 43
1.0
 77
     0
 47
0.0008202099737533
 47
0.0
 47
0.0
 47
0.0
 47
0.0
 47
0.0008202099737533
 47
0.0
 47
0.0
 47
0.0
 47
0.0
 47
1.0
 47
0.0
 47
0.0
 47
0.0
 47
0.0
 47
1.0
171
     0
 49
0.0008202099737533
 49
0.0
 49
0.0
 49
0.0
 49
0.0
 49
0.0008202099737533
 49
0.0
 49
0.0
 49
0.0
 49
0.0
 49
1.0
 49
0.0
 49
0.0
 49
0.0
 49
0.0
 49
1.0
175
     0
142
0.0008202099737533
142
0.0
142
0.0
142
0.0
142
0.0
142
0.0008202099737533
142
0.0
142
0.0
142
0.0
142
0.0
142
1.0
142
0.0
142
0.0
142
0.0
142
0.0
142
1.0
179
     0
144
0.0008202099737533
144
0.0
144
0.0
144
0.0
144
0.0
144
0.0008202099737533
144
0.0
144
0.0
144
0.0
144
0.0
144
1.0
144
0.0
144
0.0
144
0.0
144
0.0
144
1.0
147
0.0008202099737533
147
0.0
147
0.0
147
0.0
147
0.0
147
0.0008202099737533
147
0.0
147
0.0
147
0.0
147
0.0
147
1.0
147
0.0
147
0.0
147
0.0
147
0.0
147
1.0
  0
MATERIAL
  5
2D05
102
{ACAD_XDICTIONARY
360
2D06
102
}
102
{ACAD_REACTORS
330
BD
102
}
330
BD
100
AcDbMaterial
  1
ByLayer
 72
     0
 43
0.0008202099737533
 43
0.0
 43
0.0
 43
0.0
 43
0.0
 43
0.0008202099737533
 43
0.0
 43
0.0
 43
0.0
 43
0.0
 43
1.0
 43
0.0
 43
0.0
 43
0.0
 43
0.0
 43
1.0
 77
     0
 47
0.0008202099737533
 47
0.0
 47
0.0
 47
0.0
 47
0.0
 47
0.0008202099737533
 47
0.0
 47
0.0
 47
0.0
 47
0.0
 47
1.0
 47
0.0
 47
0.0
 47
0.0
 47
0.0
 47
1.0
171
     0
 49
0.0008202099737533
 49
0.0
 49
0.0
 49
0.0
 49
0.0
 49
0.0008202099737533
 49
0.0
 49
0.0
 49
0.0
 49
0.0
 49
1.0
 49
0.0
 49
0.0
 49
0.0
 49
0.0
 49
1.0
175
     0
142
0.0008202099737533
142
0.0
142
0.0
142
0.0
142
0.0
142
0.0008202099737533
142
0.0
142
0.0
142
0.0
142
0.0
142
1.0
142
0.0
142
0.0
142
0.0
142
0.0
142
1.0
179
     0
144
0.0008202099737533
144
0.0
144
0.0
144
0.0
144
0.0
144
0.0008202099737533
144
0.0
144
0.0
144
0.0
144
0.0
144
1.0
144
0.0
144
0.0
144
0.0
144
0.0
144
1.0
147
0.0008202099737533
147
0.0
147
0.0
147
0.0
147
0.0
147
0.0008202099737533
147
0.0
147
0.0
147
0.0
147
0.0
147
1.0
147
0.0
147
0.0
147
0.0
147
0.0
147
1.0
  0
MATERIAL
  5
2D15
102
{ACAD_XDICTIONARY
360
2D16
102
}
102
{ACAD_REACTORS
330
BD
102
}
330
BD
100
AcDbMaterial
  1
Global
 72
     0
 43
0.0008202099737533
 43
0.0
 43
0.0
 43
0.0
 43
0.0
 43
0.0008202099737533
 43
0.0
 43
0.0
 43
0.0
 43
0.0
 43
1.0
 43
0.0
 43
0.0
 43
0.0
 43
0.0
 43
1.0
 77
     0
 47
0.0008202099737533
 47
0.0
 47
0.0
 47
0.0
 47
0.0
 47
0.0008202099737533
 47
0.0
 47
0.0
 47
0.0
 47
0.0
 47
1.0
 47
0.0
 47
0.0
 47
0.0
 47
0.0
 47
1.0
171
     0
 49
0.0008202099737533
 49
0.0
 49
0.0
 49
0.0
 49
0.0
 49
0.0008202099737533
 49
0.0
 49
0.0
 49
0.0
 49
0.0
 49
1.0
 49
0.0
 49
0.0
 49
0.0
 49
0.0
 49
1.0
175
     0
142
0.0008202099737533
142
0.0
142
0.0
142
0.0
142
0.0
142
0.0008202099737533
142
0.0
142
0.0
142
0.0
142
0.0
142
1.0
142
0.0
142
0.0
142
0.0
142
0.0
142
1.0
179
     0
144
0.0008202099737533
144
0.0
144
0.0
144
0.0
144
0.0
144
0.0008202099737533
144
0.0
144
0.0
144
0.0
144
0.0
144
1.0
144
0.0
144
0.0
144
0.0
144
0.0
144
1.0
147
0.0008202099737533
147
0.0
147
0.0
147
0.0
147
0.0
147
0.0008202099737533
147
0.0
147
0.0
147
0.0
147
0.0
147
1.0
147
0.0
147
0.0
147
0.0
147
0.0
147
1.0
  0
MLEADERSTYLE
  5
2D41
102
{ACAD_REACTORS
330
2D40
102
}
330
2D40
100
AcDbMLeaderStyle
170
     2
171
     1
172
     0
 90
        2
 40
0.0
 41
0.0
173
     1
 91
-1056964608
340
14
 92
       -2
290
     1
 42
2.0
291
     1
 43
0.36
  3
Standard
 44
4.0
300

342
11
174
     1
178
     6
175
     1
176
     0
 93
-1056964608
 45
4.0
292
     0
297
     0
 46
4.0
 94
-1056964608
 47
1.0
 49
1.0
140
1.0
293
     1
141
0.0
294
     1
177
     0
142
1.0
295
     0
296
     0
143
0.125
1001
ACAD_MLEADERVER
1070
     2
  0
MLINESTYLE
  5
18
102
{ACAD_REACTORS
330
17
102
}
330
17
100
AcDbMlineStyle
  2
STANDARD
 70
     0
  3

 62
   256
 51
90.0
 52
90.0
 71
     2
 49
0.5
 62
   256
  6
BYLAYER
 49
-0.5
 62
   256
  6
BYLAYER
  0
ACDBPLACEHOLDER
  5
F
102
{ACAD_REACTORS
330
E
102
}
330
E
  0
SCALE
  5
2D2F
102
{ACAD_REACTORS
330
2D2E
102
}
330
2D2E
100
AcDbScale
 70
     0
300
1:1
140
1.0
141
1.0
290
     1
  0
SCALE
  5
2D30
102
{ACAD_REACTORS
330
2D2E
102
}
330
2D2E
100
AcDbScale
 70
     0
300
1:2
140
1.0
141
2.0
290
     0
  0
SCALE
  5
2D31
102
{ACAD_REACTORS
330
2D2E
102
}
330
2D2E
100
AcDbScale
 70
     0
300
1:4
140
1.0
141
4.0
290
     0
  0
SCALE
  5
2D32
102
{ACAD_REACTORS
330
2D2E
102
}
330
2D2E
100
AcDbScale
 70
     0
300
1:5
140
1.0
141
5.0
290
     0
  0
SCALE
  5
2D33
102
{ACAD_REACTORS
330
2D2E
102
}
330
2D2E
100
AcDbScale
 70
     0
300
1:8
140
1.0
141
8.0
290
     0
  0
SCALE
  5
2D34
102
{ACAD_REACTORS
330
2D2E
102
}
330
2D2E
100
AcDbScale
 70
     0
300
1:10
140
1.0
141
10.0
290
     0
  0
SCALE
  5
2D35
102
{ACAD_REACTORS
330
2D2E
102
}
330
2D2E
100
AcDbScale
 70
     0
300
1:16
140
1.0
141
16.0
290
     0
  0
SCALE
  5
2D36
102
{ACAD_REACTORS
330
2D2E
102
}
330
2D2E
100
AcDbScale
 70
     0
300
1:20
140
1.0
141
20.0
290
     0
  0
SCALE
  5
2D37
102
{ACAD_REACTORS
330
2D2E
102
}
330
2D2E
100
AcDbScale
 70
     0
300
1:30
140
1.0
141
30.0
290
     0
  0
SCALE
  5
2D38
102
{ACAD_REACTORS
330
2D2E
102
}
330
2D2E
100
AcDbScale
 70
     0
300
1:40
140
1.0
141
40.0
290
     0
  0
SCALE
  5
2D39
102
{ACAD_REACTORS
330
2D2E
102
}
330
2D2E
100
AcDbScale
 70
     0
300
1:50
140
1.0
141
50.0
290
     0
  0
SCALE
  5
2D3A
102
{ACAD_REACTORS
330
2D2E
102
}
330
2D2E
100
AcDbScale
 70
     0
300
1:100
140
1.0
141
100.0
290
     0
  0
SCALE
  5
2D3B
102
{ACAD_REACTORS
330
2D2E
102
}
330
2D2E
100
AcDbScale
 70
     0
300
2:1
140
2.0
141
1.0
290
     0
  0
SCALE
  5
2D3C
102
{ACAD_REACTORS
330
2D2E
102
}
330
2D2E
100
AcDbScale
 70
     0
300
4:1
140
4.0
141
1.0
290
     0
  0
SCALE
  5
2D3D
102
{ACAD_REACTORS
330
2D2E
102
}
330
2D2E
100
AcDbScale
 70
     0
300
8:1
140
8.0
141
1.0
290
     0
  0
SCALE
  5
2D3E
102
{ACAD_REACTORS
330
2D2E
102
}
330
2D2E
100
AcDbScale
 70
     0
300
10:1
140
10.0
141
1.0
290
     0
  0
SCALE
  5
2D3F
102
{ACAD_REACTORS
330
2D2E
102
}
330
2D2E
100
AcDbScale
 70
     0
300
100:1
140
100.0
141
1.0
290
     0
  0
TABLESTYLE
  5
11B
102
{ACAD_XDICTIONARY
360
30CA
102
}
102
{ACAD_REACTORS
330
11A
102
}
330
11A
100
AcDbTableStyle
  3
Standard
 70
     0
 71
     0
 40
1.5
 41
1.5
280
     0
281
     0
  7
STANDARD
140
4.5
170
     2
 62
     0
 63
     7
283
     0
274
    -2
284
     1
 64
     0
275
    -2
285
     1
 65
     0
276
    -2
286
     1
 66
     0
277
    -2
287
     1
 67
     0
278
    -2
288
     1
 68
     0
279
    -2
289
     1
 69
     0
  7
STANDARD
140
6.0
170
     5
 62
     0
 63
     7
283
     0
274
    -2
284
     1
 64
     0
275
    -2
285
     1
 65
     0
276
    -2
286
     1
 66
     0
277
    -2
287
     1
 67
     0
278
    -2
288
     1
 68
     0
279
    -2
289
     1
 69
     0
  7
STANDARD
140
4.5
170
     5
 62
     0
 63
     7
283
     0
274
    -2
284
     1
 64
     0
275
    -2
285
     1
 65
     0
276
    -2
286
     1
 66
     0
277
    -2
287
     1
 67
     0
278
    -2
288
     1
 68
     0
279
    -2
289
     1
 69
     0
  0
VISUALSTYLE
  5
2D23
102
{ACAD_REACTORS
330
2D1D
102
}
330
2D1D
100
AcDbVisualStyle
  2
2dWireframe
 70
     4
 71
     0
 72
     2
 73
     0
 90
        0
 40
-0.6
 41
-30.0
 62
     5
 63
     7
421
 16777215
 74
     1
 91
        4
 64
     7
 65
   257
 75
     1
175
     1
 42
1.0
 92
        0
 66
   257
 43
1.0
 76
     1
 77
     6
 78
     2
 67
     7
 79
     5
170
     0
171
     0
290
     0
174
     0
 93
        1
 44
0.0
173
     0
291
     0
 45
0.0
1001
ACAD
1000
AcDbSavedByObjectVersion
1070
     0
  0
VISUALSTYLE
  5
2D25
102
{ACAD_REACTORS
330
2D1D
102
}
330
2D1D
100
AcDbVisualStyle
  2
3D Hidden
 70
     6
 71
     1
 72
     2
 73
     2
 90
        0
 40
-0.6
 41
-30.0
 62
     5
 63
     7
421
 16777215
 74
     2
 91
        2
 64
     7
 65
   257
 75
     2
175
     1
 42
40.0
 92
        0
 66
   257
 43
1.0
 76
     1
 77
     6
 78
     2
 67
     7
 79
     3
170
     0
171
     0
290
     0
174
     0
 93
        1
 44
0.0
173
     0
291
     0
 45
0.0
1001
ACAD
1000
AcDbSavedByObjectVersion
1070
     0
  0
VISUALSTYLE
  5
2D24
102
{ACAD_REACTORS
330
2D1D
102
}
330
2D1D
100
AcDbVisualStyle
  2
3dWireframe
 70
     5
 71
     0
 72
     2
 73
     0
 90
        0
 40
-0.6
 41
-30.0
 62
     5
 63
     7
421
 16777215
 74
     1
 91
        4
 64
     7
 65
   257
 75
     1
175
     1
 42
1.0
 92
        0
 66
   257
 43
1.0
 76
     1
 77
     6
 78
     2
 67
     7
 79
     5
170
     0
171
     0
290
     0
174
     0
 93
        1
 44
0.0
173
     0
291
     0
 45
0.0
1001
ACAD
1000
AcDbSavedByObjectVersion
1070
     0
  0
VISUALSTYLE
  5
2D22
102
{ACAD_REACTORS
330
2D1D
102
}
330
2D1D
100
AcDbVisualStyle
  2
Basic
 70
     7
 71
     1
 72
     0
 73
     1
 90
        0
 40
-0.6
 41
-30.0
 62
     5
 63
     7
421
 16777215
 74
     0
 91
        4
 64
     7
 65
   257
 75
     1
175
     1
 42
1.0
 92
        8
 66
     7
 43
1.0
 76
     1
 77
     6
 78
     2
 67
     7
 79
     5
170
     0
171
     0
290
     0
174
     0
 93
        1
 44
0.0
173
     0
291
     1
 45
0.0
1001
ACAD
1000
AcDbSavedByObjectVersion
1070
     0
  0
VISUALSTYLE
  5
2D29
102
{ACAD_REACTORS
330
2D1D
102
}
330
2D1D
100
AcDbVisualStyle
  2
Brighten
 70
    12
 71
     2
 72
     2
 73
     0
 90
        0
 40
-0.6
 41
-30.0
 62
     5
 63
     7
421
 16777215
 74
     1
 91
        4
 64
     7
 65
   257
 75
     1
175
     1
 42
1.0
 92
        8
 66
     7
 43
1.0
 76
     1
 77
     6
 78
     2
 67
     7
 79
     5
170
     0
171
     0
290
     0
174
     0
 93
        1
 44
50.0
173
     0
291
     1
 45
0.0
1001
ACAD
1000
AcDbSavedByObjectVersion
1070
     0
  0
VISUALSTYLE
  5
2D2D
102
{ACAD_REACTORS
330
2D1D
102
}
330
2D1D
100
AcDbVisualStyle
  2
ColorChange
 70
    16
 71
     2
 72
     2
 73
     3
 90
        0
 40
-0.6
 41
-30.0
 62
     5
 63
     8
421
  8421504
 74
     1
 91
        4
 64
     7
 65
   257
 75
     1
175
     1
 42
1.0
 92
        8
 66
     8
424
  8421504
 43
1.0
 76
     1
 77
     6
 78
     2
 67
     7
 79
     5
170
     0
171
     0
290
     0
174
     0
 93
        1
 44
0.0
173
     0
291
     1
 45
0.0
1001
ACAD
1000
AcDbSavedByObjectVersion
1070
     0
  0
VISUALSTYLE
  5
2D26
102
{ACAD_REACTORS
330
2D1D
102
}
330
2D1D
100
AcDbVisualStyle
  2
Conceptual
 70
     9
 71
     3
 72
     2
 73
     0
 90
        0
 40
-0.6
 41
-30.0
 62
     5
 63
     7
421
 16777215
 74
     2
 91
        2
 64
     7
 65
   257
 75
     1
175
     1
 42
40.0
 92
        8
 66
     7
 43
1.0
 76
     1
 77
     6
 78
     2
 67
     7
 79
     3
170
     0
171
     0
290
     0
174
     0
 93
        1
 44
0.0
173
     0
291
     0
 45
0.0
1001
ACAD
1000
AcDbSavedByObjectVersion
1070
     0
  0
VISUALSTYLE
  5
2D28
102
{ACAD_REACTORS
330
2D1D
102
}
330
2D1D
100
AcDbVisualStyle
  2
Dim
 70
    11
 71
     2
 72
     2
 73
     0
 90
        0
 40
-0.6
 41
-30.0
 62
     5
 63
     7
421
 16777215
 74
     1
 91
        4
 64
     7
 65
   257
 75
     1
175
     1
 42
1.0
 92
        8
 66
     7
 43
1.0
 76
     1
 77
     6
 78
     2
 67
     7
 79
     5
170
     0
171
     0
290
     0
174
     0
 93
        1
 44
-50.0
173
     0
291
     1
 45
0.0
1001
ACAD
1000
AcDbSavedByObjectVersion
1070
     0
  0
VISUALSTYLE
  5
2D2C
102
{ACAD_REACTORS
330
2D1D
102
}
330
2D1D
100
AcDbVisualStyle
  2
Facepattern
 70
    15
 71
     2
 72
     2
 73
     0
 90
        0
 40
-0.6
 41
-30.0
 62
     5
 63
     7
421
 16777215
 74
     1
 91
        4
 64
     7
 65
   257
 75
     1
175
     1
 42
1.0
 92
        8
 66
     7
 43
1.0
 76
     1
 77
     6
 78
     2
 67
     7
 79
     5
170
     0
171
     0
290
     0
174
     0
 93
        1
 44
0.0
173
     0
291
     1
 45
0.0
1001
ACAD
1000
AcDbSavedByObjectVersion
1070
     0
  0
VISUALSTYLE
  5
2D1E
102
{ACAD_REACTORS
330
2D1D
102
}
330
2D1D
100
AcDbVisualStyle
  2
Flat
 70
     0
 71
     2
 72
     1
 73
     1
 90
        2
 40
-0.6
 41
30.0
 62
     5
 63
     7
421
 16777215
 74
     0
 91
        4
 64
     7
 65
   257
 75
     1
175
     1
 42
1.0
 92
        8
 66
     7
 43
1.0
 76
     1
 77
     6
 78
     2
 67
     7
 79
     5
170
     0
171
     0
290
     0
174
     0
 93
       13
 44
0.0
173
     0
291
     1
 45
0.0
1001
ACAD
1000
AcDbSavedByObjectVersion
1070
     0
  0
VISUALSTYLE
  5
2D1F
102
{ACAD_REACTORS
330
2D1D
102
}
330
2D1D
100
AcDbVisualStyle
  2
FlatWithEdges
 70
     1
 71
     2
 72
     1
 73
     1
 90
        2
 40
-0.6
 41
30.0
 62
     5
 63
     7
421
 16777215
 74
     1
 91
        4
 64
     7
 65
   257
 75
     1
175
     1
 42
1.0
 92
        0
 66
   257
 43
1.0
 76
     1
 77
     6
 78
     2
 67
     7
 79
     5
170
     0
171
     0
290
     0
174
     0
 93
       13
 44
0.0
173
     0
291
     1
 45
0.0
1001
ACAD
1000
AcDbSavedByObjectVersion
1070
     0
  0
VISUALSTYLE
  5
2D20
102
{ACAD_REACTORS
330
2D1D
102
}
330
2D1D
100
AcDbVisualStyle
  2
Gouraud
 70
     2
 71
     2
 72
     2
 73
     1
 90
        2
 40
-0.6
 41
30.0
 62
     5
 63
     7
421
 16777215
 74
     0
 91
        4
 64
     7
 65
   257
 75
     1
175
     1
 42
1.0
 92
        0
 66
     7
 43
1.0
 76
     1
 77
     6
 78
     2
 67
     7
 79
     5
170
     0
171
     0
290
     0
174
     0
 93
       13
 44
0.0
173
     0
291
     1
 45
0.0
1001
ACAD
1000
AcDbSavedByObjectVersion
1070
     0
  0
VISUALSTYLE
  5
2D21
102
{ACAD_REACTORS
330
2D1D
102
}
330
2D1D
100
AcDbVisualStyle
  2
GouraudWithEdges
 70
     3
 71
     2
 72
     2
 73
     1
 90
        2
 40
-0.6
 41
30.0
 62
     5
 63
     7
421
 16777215
 74
     1
 91
        4
 64
     7
 65
   257
 75
     1
175
     1
 42
1.0
 92
        0
 66
   257
 43
1.0
 76
     1
 77
     6
 78
     2
 67
     7
 79
     5
170
     0
171
     0
290
     0
174
     0
 93
       13
 44
0.0
173
     0
291
     1
 45
0.0
1001
ACAD
1000
AcDbSavedByObjectVersion
1070
     0
  0
VISUALSTYLE
  5
2D2B
102
{ACAD_REACTORS
330
2D1D
102
}
330
2D1D
100
AcDbVisualStyle
  2
Linepattern
 70
    14
 71
     2
 72
     2
 73
     0
 90
        0
 40
-0.6
 41
-30.0
 62
     5
 63
     7
421
 16777215
 74
     1
 91
        4
 64
     7
 65
   257
 75
     7
175
     7
 42
1.0
 92
        8
 66
     7
 43
1.0
 76
     1
 77
     6
 78
     2
 67
     7
 79
     5
170
     0
171
     0
290
     0
174
     0
 93
        1
 44
0.0
173
     0
291
     1
 45
0.0
1001
ACAD
1000
AcDbSavedByObjectVersion
1070
     0
  0
VISUALSTYLE
  5
2D27
102
{ACAD_REACTORS
330
2D1D
102
}
330
2D1D
100
AcDbVisualStyle
  2
Realistic
 70
     8
 71
     2
 72
     2
 73
     0
 90
        0
 40
-0.6
 41
-30.0
 62
     5
 63
     7
421
 16777215
 74
     1
 91
        0
 64
     7
 65
   257
 75
     1
175
     1
 42
1.0
 92
        8
 66
     8
424
  7895160
 43
1.0
 76
     1
 77
     6
 78
     2
 67
     7
 79
     5
170
     0
171
     0
290
     0
174
     0
 93
       13
 44
0.0
173
     0
291
     0
 45
0.0
1001
ACAD
1000
AcDbSavedByObjectVersion
1070
     0
  0
VISUALSTYLE
  5
2D2A
102
{ACAD_REACTORS
330
2D1D
102
}
330
2D1D
100
AcDbVisualStyle
  2
Thicken
 70
    13
 71
     2
 72
     2
 73
     0
 90
        0
 40
-0.6
 41
-30.0
 62
     5
 63
     7
421
 16777215
 74
     1
 91
        4
 64
     7
 65
   257
 75
     1
175
     1
 42
1.0
 92
       12
 66
     7
 43
1.0
 76
     1
 77
     6
 78
     2
 67
     7
 79
     5
170
     0
171
     0
290
     0
174
     0
 93
        1
 44
0.0
173
     0
291
     1
 45
0.0
1001
ACAD
1000
AcDbSavedByObjectVersion
1070
     0
  0
DICTIONARYVAR
  5
30C9
102
{ACAD_REACTORS
330
94
102
}
330
94
100
DictionaryVariables
280
     0
  1
1:1
  0
DICTIONARYVAR
  5
30C8
102
{ACAD_REACTORS
330
94
102
}
330
94
100
DictionaryVariables
280
     0
  1
STANDARD
  0
DICTIONARYVAR
  5
138
102
{ACAD_REACTORS
330
94
102
}
330
94
100
DictionaryVariables
280
     0
  1
STANDARD
  0
DICTIONARYVAR
  5
96
102
{ACAD_REACTORS
330
94
102
}
330
94
100
DictionaryVariables
280
     0
  1
2
  0
DICTIONARYVAR
  5
95
102
{ACAD_REACTORS
330
94
102
}
330
94
100
DictionaryVariables
280
     0
  1
1
  0
DICTIONARY
  5
272
102
{ACAD_REACTORS
330
5B
102
}
330
5B
100
AcDbDictionary
281
     1
  0
DICTIONARY
  5
61
102
{ACAD_REACTORS
330
5B
102
}
330
5B
100
AcDbDictionary
281
     1
  0
XRECORD
  5
123
102
{ACAD_REACTORS
330
5B
102
}
330
5B
100
AcDbXrecord
280
     1
 90
-1023410169
  0
DICTIONARY
  5
2D0E
330
2D0D
100
AcDbDictionary
280
     1
281
     1
  3
ACAD_XREC_ROUNDTRIP
360
30D7
  3
BUMPTILE
360
2D10
  3
DIFFUSETILE
360
2D0F
  3
OPACITYTILE
360
2D13
  3
REFLECTIONTILE
360
2D12
  3
REFRACTIONTILE
360
2D14
  3
SPECULARTILE
360
2D11
  0
DICTIONARY
  5
2D06
330
2D05
100
AcDbDictionary
280
     1
281
     1
  3
ACAD_XREC_ROUNDTRIP
360
30D6
  3
BUMPTILE
360
2D08
  3
DIFFUSETILE
360
2D07
  3
OPACITYTILE
360
2D0B
  3
REFLECTIONTILE
360
2D0A
  3
REFRACTIONTILE
360
2D0C
  3
SPECULARTILE
360
2D09
  0
DICTIONARY
  5
2D16
330
2D15
100
AcDbDictionary
280
     1
281
     1
  3
ACAD_XREC_ROUNDTRIP
360
30D8
  3
BUMPTILE
360
2D18
  3
DIFFUSETILE
360
2D17
  3
OPACITYTILE
360
2D1B
  3
REFLECTIONTILE
360
2D1A
  3
REFRACTIONTILE
360
2D1C
  3
SPECULARTILE
360
2D19
  0
DICTIONARY
  5
30CA
330
11B
100
AcDbDictionary
280
     1
281
     1
  3
ACAD_ROUNDTRIP_2008_TABLESTYLE_CELLSTYLEMAP
360
30CB
  3
ACAD_XREC_ROUNDTRIP
360
30CF
  0
XRECORD
  5
30D7
102
{ACAD_REACTORS
330
2D0E
102
}
330
2D0E
100
AcDbXrecord
280
     1
102
MATERIAL
148
0.0
149
0.0
149
0.0
 93
        0
 94
      127
282
     0
 72
     0
 77
     0
171
     0
175
     0
179
     0
273
     0
  0
XRECORD
  5
2D10
102
{ACAD_REACTORS
330
2D0E
102
}
330
2D0E
100
AcDbXrecord
280
     1
270
     1
271
     1
  0
XRECORD
  5
2D0F
102
{ACAD_REACTORS
330
2D0E
102
}
330
2D0E
100
AcDbXrecord
280
     1
270
     1
271
     1
  0
XRECORD
  5
2D13
102
{ACAD_REACTORS
330
2D0E
102
}
330
2D0E
100
AcDbXrecord
280
     1
270
     1
271
     1
  0
XRECORD
  5
2D12
102
{ACAD_REACTORS
330
2D0E
102
}
330
2D0E
100
AcDbXrecord
280
     1
270
     1
271
     1
  0
XRECORD
  5
2D14
102
{ACAD_REACTORS
330
2D0E
102
}
330
2D0E
100
AcDbXrecord
280
     1
270
     1
271
     1
  0
XRECORD
  5
2D11
102
{ACAD_REACTORS
330
2D0E
102
}
330
2D0E
100
AcDbXrecord
280
     1
270
     1
271
     1
  0
XRECORD
  5
30D6
102
{ACAD_REACTORS
330
2D06
102
}
330
2D06
100
AcDbXrecord
280
     1
102
MATERIAL
148
0.0
149
0.0
149
0.0
 93
        0
 94
      127
282
     0
 72
     0
 77
     0
171
     0
175
     0
179
     0
273
     0
  0
XRECORD
  5
2D08
102
{ACAD_REACTORS
330
2D06
102
}
330
2D06
100
AcDbXrecord
280
     1
270
     1
271
     1
  0
XRECORD
  5
2D07
102
{ACAD_REACTORS
330
2D06
102
}
330
2D06
100
AcDbXrecord
280
     1
270
     1
271
     1
  0
XRECORD
  5
2D0B
102
{ACAD_REACTORS
330
2D06
102
}
330
2D06
100
AcDbXrecord
280
     1
270
     1
271
     1
  0
XRECORD
  5
2D0A
102
{ACAD_REACTORS
330
2D06
102
}
330
2D06
100
AcDbXrecord
280
     1
270
     1
271
     1
  0
XRECORD
  5
2D0C
102
{ACAD_REACTORS
330
2D06
102
}
330
2D06
100
AcDbXrecord
280
     1
270
     1
271
     1
  0
XRECORD
  5
2D09
102
{ACAD_REACTORS
330
2D06
102
}
330
2D06
100
AcDbXrecord
280
     1
270
     1
271
     1
  0
XRECORD
  5
30D8
102
{ACAD_REACTORS
330
2D16
102
}
330
2D16
100
AcDbXrecord
280
     1
102
MATERIAL
148
0.0
149
0.0
149
0.0
 93
        0
 94
      127
282
     0
 72
     0
 77
     0
171
     0
175
     0
179
     0
273
     0
  0
XRECORD
  5
2D18
102
{ACAD_REACTORS
330
2D16
102
}
330
2D16
100
AcDbXrecord
280
     1
270
     1
271
     1
  0
XRECORD
  5
2D17
102
{ACAD_REACTORS
330
2D16
102
}
330
2D16
100
AcDbXrecord
280
     1
270
     1
271
     1
  0
XRECORD
  5
2D1B
102
{ACAD_REACTORS
330
2D16
102
}
330
2D16
100
AcDbXrecord
280
     1
270
     1
271
     1
  0
XRECORD
  5
2D1A
102
{ACAD_REACTORS
330
2D16
102
}
330
2D16
100
AcDbXrecord
280
     1
270
     1
271
     1
  0
XRECORD
  5
2D1C
102
{ACAD_REACTORS
330
2D16
102
}
330
2D16
100
AcDbXrecord
280
     1
270
     1
271
     1
  0
XRECORD
  5
2D19
102
{ACAD_REACTORS
330
2D16
102
}
330
2D16
100
AcDbXrecord
280
     1
270
     1
271
     1
  0
CELLSTYLEMAP
  5
30CB
102
{ACAD_REACTORS
330
30CA
102
}
330
30CA
100
AcDbCellStyleMap
 90
        3
300
CELLSTYLE
  1
TABLEFORMAT_BEGIN
 90
        5
170
     1
 91
        0
 92
    32768
 62
   257
 93
        1
300
CONTENTFORMAT
  1
CONTENTFORMAT_BEGIN
 90
        0
 91
        0
 92
        4
 93
        0
300

 40
0.0
140
1.0
 94
        5
 62
     0
340
11
144
6.0
309
CONTENTFORMAT_END
171
     1
301
MARGIN
  1
CELLMARGIN_BEGIN
 40
1.5
 40
1.5
 40
1.5
 40
1.5
 40
0.18
 40
0.18
309
CELLMARGIN_END
 94
        6
 95
        1
302
GRIDFORMAT
  1
GRIDFORMAT_BEGIN
 90
        0
 91
        1
 62
     0
 92
       -2
340
0
 93
        0
 40
0.045
309
GRIDFORMAT_END
 95
        2
302
GRIDFORMAT
  1
GRIDFORMAT_BEGIN
 90
        0
 91
        1
 62
     0
 92
       -2
340
0
 93
        0
 40
0.045
309
GRIDFORMAT_END
 95
        4
302
GRIDFORMAT
  1
GRIDFORMAT_BEGIN
 90
        0
 91
        1
 62
     0
 92
       -2
340
0
 93
        0
 40
0.045
309
GRIDFORMAT_END
 95
        8
302
GRIDFORMAT
  1
GRIDFORMAT_BEGIN
 90
        0
 91
        1
 62
     0
 92
       -2
340
0
 93
        0
 40
0.045
309
GRIDFORMAT_END
 95
       16
302
GRIDFORMAT
  1
GRIDFORMAT_BEGIN
 90
        0
 91
        1
 62
     0
 92
       -2
340
0
 93
        0
 40
0.045
309
GRIDFORMAT_END
 95
       32
302
GRIDFORMAT
  1
GRIDFORMAT_BEGIN
 90
        0
 91
        1
 62
     0
 92
       -2
340
0
 93
        0
 40
0.045
309
GRIDFORMAT_END
309
TABLEFORMAT_END
  1
CELLSTYLE_BEGIN
 90
        1
 91
        1
300
_TITLE
309
CELLSTYLE_END
300
CELLSTYLE
  1
TABLEFORMAT_BEGIN
 90
        5
170
     1
 91
        0
 92
        0
 62
   257
 93
        1
300
CONTENTFORMAT
  1
CONTENTFORMAT_BEGIN
 90
        0
 91
        0
 92
        4
 93
        0
300

 40
0.0
140
1.0
 94
        5
 62
     0
340
11
144
4.5
309
CONTENTFORMAT_END
171
     1
301
MARGIN
  1
CELLMARGIN_BEGIN
 40
1.5
 40
1.5
 40
1.5
 40
1.5
 40
0.18
 40
0.18
309
CELLMARGIN_END
 94
        6
 95
        1
302
GRIDFORMAT
  1
GRIDFORMAT_BEGIN
 90
        0
 91
        1
 62
     0
 92
       -2
340
0
 93
        0
 40
0.045
309
GRIDFORMAT_END
 95
        2
302
GRIDFORMAT
  1
GRIDFORMAT_BEGIN
 90
        0
 91
        1
 62
     0
 92
       -2
340
0
 93
        0
 40
0.045
309
GRIDFORMAT_END
 95
        4
302
GRIDFORMAT
  1
GRIDFORMAT_BEGIN
 90
        0
 91
        1
 62
     0
 92
       -2
340
0
 93
        0
 40
0.045
309
GRIDFORMAT_END
 95
        8
302
GRIDFORMAT
  1
GRIDFORMAT_BEGIN
 90
        0
 91
        1
 62
     0
 92
       -2
340
0
 93
        0
 40
0.045
309
GRIDFORMAT_END
 95
       16
302
GRIDFORMAT
  1
GRIDFORMAT_BEGIN
 90
        0
 91
        1
 62
     0
 92
       -2
340
0
 93
        0
 40
0.045
309
GRIDFORMAT_END
 95
       32
302
GRIDFORMAT
  1
GRIDFORMAT_BEGIN
 90
        0
 91
        1
 62
     0
 92
       -2
340
0
 93
        0
 40
0.045
309
GRIDFORMAT_END
309
TABLEFORMAT_END
  1
CELLSTYLE_BEGIN
 90
        2
 91
        1
300
_HEADER
309
CELLSTYLE_END
300
CELLSTYLE
  1
TABLEFORMAT_BEGIN
 90
        5
170
     1
 91
        0
 92
        0
 62
   257
 93
        1
300
CONTENTFORMAT
  1
CONTENTFORMAT_BEGIN
 90
        0
 91
        0
 92
        4
 93
        0
300

 40
0.0
140
1.0
 94
        2
 62
     0
340
11
144
4.5
309
CONTENTFORMAT_END
171
     1
301
MARGIN
  1
CELLMARGIN_BEGIN
 40
1.5
 40
1.5
 40
1.5
 40
1.5
 40
0.18
 40
0.18
309
CELLMARGIN_END
 94
        6
 95
        1
302
GRIDFORMAT
  1
GRIDFORMAT_BEGIN
 90
        0
 91
        1
 62
     0
 92
       -2
340
0
 93
        0
 40
0.045
309
GRIDFORMAT_END
 95
        2
302
GRIDFORMAT
  1
GRIDFORMAT_BEGIN
 90
        0
 91
        1
 62
     0
 92
       -2
340
0
 93
        0
 40
0.045
309
GRIDFORMAT_END
 95
        4
302
GRIDFORMAT
  1
GRIDFORMAT_BEGIN
 90
        0
 91
        1
 62
     0
 92
       -2
340
0
 93
        0
 40
0.045
309
GRIDFORMAT_END
 95
        8
302
GRIDFORMAT
  1
GRIDFORMAT_BEGIN
 90
        0
 91
        1
 62
     0
 92
       -2
340
0
 93
        0
 40
0.045
309
GRIDFORMAT_END
 95
       16
302
GRIDFORMAT
  1
GRIDFORMAT_BEGIN
 90
        0
 91
        1
 62
     0
 92
       -2
340
0
 93
        0
 40
0.045
309
GRIDFORMAT_END
 95
       32
302
GRIDFORMAT
  1
GRIDFORMAT_BEGIN
 90
        0
 91
        1
 62
     0
 92
       -2
340
0
 93
        0
 40
0.045
309
GRIDFORMAT_END
309
TABLEFORMAT_END
  1
CELLSTYLE_BEGIN
 90
        3
 91
        2
300
_DATA
309
CELLSTYLE_END
  0
XRECORD
  5
30CF
102
{ACAD_REACTORS
330
30CA
102
}
330
30CA
100
AcDbXrecord
280
     1
102
ACAD_ROUNDTRIP_PRE2007_TABLESTYLE
 90
        4
 91
        0
  1

 92
        4
 93
        0
  2

 94
        4
 95
        0
  3

  0
ENDSEC
  0
EOF
