  0
SECTION
  2
HEADER
  9
$ACADVER
  1
AC1015
  9
$ACADMAINTVER
 70
    20
  9
$DWGCODEPAGE
  3
ANSI_1252
  9
$INSBASE
 10
0.0
 20
0.0
 30
0.0
  9
$EXTMIN
 10
223.6312893261565
 20
34.81521854970515
 30
-0.0015258207003583
  9
$EXTMAX
 10
524.7596759055272
 20
478.8574236548242
 30
0.0000000349246037
  9
$LIMMIN
 10
0.0
 20
0.0
  9
$LIMMAX
 10
1050.0
 20
1050.0
  9
$ORTHOMODE
 70
     1
  9
$REGENMODE
 70
     1
  9
$FILLMODE
 70
     1
  9
$QTEXTMODE
 70
     0
  9
$MIRRTEXT
 70
     0
  9
$LTSCALE
 40
5.0
  9
$ATTMODE
 70
     1
  9
$TEXTSIZE
 40
10.0
  9
$TRACEWID
 40
0.05
  9
$TEXTSTYLE
  7
STANDARD
  9
$CLAYER
  8
0
  9
$CELTYPE
  6
BYLAYER
  9
$CECOLOR
 62
   256
  9
$CELTSCALE
 40
1.0
  9
$DISPSILH
 70
     0
  9
$DIMSCALE
 40
5.0
  9
$DIMASZ
 40
2.5
  9
$DIMEXO
 40
1.0
  9
$DIMDLI
 40
7.0
  9
$DIMRND
 40
0.0
  9
$DIMDLE
 40
0.0
  9
$DIMEXE
 40
1.0
  9
$DIMTP
 40
0.1
  9
$DIMTM
 40
0.1
  9
$DIMTXT
 40
3.5
  9
$DIMCEN
 40
0.0
  9
$DIMTSZ
 40
0.0
  9
$DIMTOL
 70
     0
  9
$DIMLIM
 70
     0
  9
$DIMTIH
 70
     0
  9
$DIMTOH
 70
     0
  9
$DIMSE1
 70
     0
  9
$DIMSE2
 70
     0
  9
$DIMTAD
 70
     1
  9
$DIMZIN
 70
    12
  9
$DIMBLK
  1

  9
$DIMASO
 70
     1
  9
$DIMSHO
 70
     1
  9
$DIMPOST
  1

  9
$DIMAPOST
  1
"
  9
$DIMALT
 70
     0
  9
$DIMALTD
 70
     2
  9
$DIMALTF
 40
0.03937
  9
$DIMLFAC
 40
1.0
  9
$DIMTOFL
 70
     1
  9
$DIMTVP
 40
0.0
  9
$DIMTIX
 70
     0
  9
$DIMSOXD
 70
     0
  9
$DIMSAH
 70
     0
  9
$DIMBLK1
  1

  9
$DIMBLK2
  1

  9
$DIMSTYLE
  2
GEN-ISO
  9
$DIMCLRD
 70
   256
  9
$DIMCLRE
 70
   256
  9
$DIMCLRT
 70
     2
  9
$DIMTFAC
 40
0.71
  9
$DIMGAP
 40
0.6
  9
$DIMJUST
 70
     0
  9
$DIMSD1
 70
     0
  9
$DIMSD2
 70
     0
  9
$DIMTOLJ
 70
     0
  9
$DIMTZIN
 70
     0
  9
$DIMALTZ
 70
     0
  9
$DIMALTTZ
 70
     0
  9
$DIMUPT
 70
     0
  9
$DIMDEC
 70
     2
  9
$DIMTDEC
 70
     3
  9
$DIMALTU
 70
     2
  9
$DIMALTTD
 70
     4
  9
$DIMTXSTY
  7
STANDARD
  9
$DIMAUNIT
 70
     0
  9
$DIMADEC
 70
     0
  9
$DIMALTRND
 40
0.0
  9
$DIMAZIN
 70
     0
  9
$DIMDSEP
 70
    46
  9
$DIMATFIT
 70
     3
  9
$DIMFRAC
 70
     0
  9
$DIMLDRBLK
  1

  9
$DIMLUNIT
 70
     2
  9
$DIMLWD
 70
    -2
  9
$DIMLWE
 70
    -2
  9
$DIMTMOVE
 70
     0
  9
$LUNITS
 70
     2
  9
$LUPREC
 70
     2
  9
$SKETCHINC
 40
0.1
  9
$FILLETRAD
 40
12.5
  9
$AUNITS
 70
     0
  9
$AUPREC
 70
     2
  9
$MENU
  1
.
  9
$ELEVATION
 40
0.0
  9
$PELEVATION
 40
0.0
  9
$THICKNESS
 40
0.0
  9
$LIMCHECK
 70
     0
  9
$CHAMFERA
 40
12.5
  9
$CHAMFERB
 40
12.5
  9
$CHAMFERC
 40
0.0
  9
$CHAMFERD
 40
0.0
  9
$SKPOLY
 70
     0
  9
$TDCREATE
 40
2451295.584035452
  9
$TDUCREATE
 40
2451295.500702118
  9
$TDUPDATE
 40
2454019.927589630
  9
$TDUUPDATE
 40
2454019.844256297
  9
$TDINDWG
 40
0.0060251042
  9
$TDUSRTIMER
 40
0.0060249884
  9
$USRTIMER
 70
     1
  9
$ANGBASE
 50
0.0
  9
$ANGDIR
 70
     0
  9
$PDMODE
 70
     0
  9
$PDSIZE
 40
0.0
  9
$PLINEWID
 40
0.0
  9
$SPLFRAME
 70
     0
  9
$SPLINETYPE
 70
     6
  9
$SPLINESEGS
 70
     8
  9
$HANDSEED
  5
1643
  9
$SURFTAB1
 70
     6
  9
$SURFTAB2
 70
     6
  9
$SURFTYPE
 70
     6
  9
$SURFU
 70
     6
  9
$SURFV
 70
     6
  9
$UCSBASE
  2

  9
$UCSNAME
  2

  9
$UCSORG
 10
0.0
 20
0.0
 30
0.0
  9
$UCSXDIR
 10
1.0
 20
0.0
 30
0.0
  9
$UCSYDIR
 10
0.0
 20
1.0
 30
0.0
  9
$UCSORTHOREF
  2

  9
$UCSORTHOVIEW
 70
     0
  9
$UCSORGTOP
 10
0.0
 20
0.0
 30
0.0
  9
$UCSORGBOTTOM
 10
0.0
 20
0.0
 30
0.0
  9
$UCSORGLEFT
 10
0.0
 20
0.0
 30
0.0
  9
$UCSORGRIGHT
 10
0.0
 20
0.0
 30
0.0
  9
$UCSORGFRONT
 10
0.0
 20
0.0
 30
0.0
  9
$UCSORGBACK
 10
0.0
 20
0.0
 30
0.0
  9
$PUCSBASE
  2

  9
$PUCSNAME
  2

  9
$PUCSORG
 10
0.0
 20
0.0
 30
0.0
  9
$PUCSXDIR
 10
1.0
 20
0.0
 30
0.0
  9
$PUCSYDIR
 10
0.0
 20
1.0
 30
0.0
  9
$PUCSORTHOREF
  2

  9
$PUCSORTHOVIEW
 70
     0
  9
$PUCSORGTOP
 10
0.0
 20
0.0
 30
0.0
  9
$PUCSORGBOTTOM
 10
0.0
 20
0.0
 30
0.0
  9
$PUCSORGLEFT
 10
0.0
 20
0.0
 30
0.0
  9
$PUCSORGRIGHT
 10
0.0
 20
0.0
 30
0.0
  9
$PUCSORGFRONT
 10
0.0
 20
0.0
 30
0.0
  9
$PUCSORGBACK
 10
0.0
 20
0.0
 30
0.0
  9
$USERI1
 70
     0
  9
$USERI2
 70
     0
  9
$USERI3
 70
     0
  9
$USERI4
 70
     0
  9
$USERI5
 70
     0
  9
$USERR1
 40
0.0
  9
$USERR2
 40
0.0
  9
$USERR3
 40
0.0
  9
$USERR4
 40
0.0
  9
$USERR5
 40
0.0
  9
$WORLDVIEW
 70
     1
  9
$SHADEDGE
 70
     3
  9
$SHADEDIF
 70
    70
  9
$TILEMODE
 70
     1
  9
$MAXACTVP
 70
    48
  9
$PINSBASE
 10
0.0
 20
0.0
 30
0.0
  9
$PLIMCHECK
 70
     0
  9
$PEXTMIN
 10
0.0
 20
0.0
 30
0.0
  9
$PEXTMAX
 10
209.9
 20
296.9
 30
0.0
  9
$PLIMMIN
 10
0.0
 20
0.0
  9
$PLIMMAX
 10
209.9
 20
296.9
  9
$UNITMODE
 70
     0
  9
$VISRETAIN
 70
     1
  9
$PLINEGEN
 70
     1
  9
$PSLTSCALE
 70
     1
  9
$TREEDEPTH
 70
 -3020
  9
$CMLSTYLE
  2
STANDARD
  9
$CMLJUST
 70
     0
  9
$CMLSCALE
 40
1.0
  9
$PROXYGRAPHICS
 70
     1
  9
$MEASUREMENT
 70
     1
  9
$CELWEIGHT
370
    -1
  9
$ENDCAPS
280
     0
  9
$JOINSTYLE
280
     0
  9
$LWDISPLAY
290
     0
  9
$INSUNITS
 70
     0
  9
$HYPERLINKBASE
  1

  9
$STYLESHEET
  1

  9
$XEDIT
290
     1
  9
$CEPSNTYPE
380
     0
  9
$PSTYLEMODE
290
     1
  9
$FINGERPRINTGUID
  2
{1A4A355C-20F1-43E5-A4F1-9BC440738DAD}
  9
$VERSIONGUID
  2
{C1BA7E2D-D4E0-4DAE-A1D8-6EB1AA1DB9B0}
  9
$EXTNAMES
290
     1
  9
$PSVPSCALE
 40
0.0
  9
$OLESTARTUP
290
     0
  0
ENDSEC
  0
SECTION
  2
CLASSES
  0
CLASS
  1
ACDBDICTIONARYWDFLT
  2
AcDbDictionaryWithDefault
  3
ObjectDBX Classes
 90
        0
280
     0
281
     0
  0
CLASS
  1
TABLESTYLE
  2
AcDbTableStyle
  3
ObjectDBX Classes
 90
     2047
280
     0
281
     0
  0
CLASS
  1
AMGSETTINGSOBJ
  2
AmgSettingsObj
  3
"AcadM|Product Description: AutoCAD Mechanical 2000|Company: Autodesk"
 90
        0
280
     0
281
     0
  0
CLASS
  1
ACME_DOCUMENT
  2
AcMeDbDoc
  3
AcMeServices
 90
        0
280
     0
281
     0
  0
CLASS
  1
ACMESCOPE
  2
AcMeScope
  3
AcMeServices
 90
        0
280
     0
281
     0
  0
CLASS
  1
ACMECOMMANDHISTORY
  2
AcMeCommandHistory
  3
AcMeServices
 90
        0
280
     0
281
     0
  0
CLASS
  1
ACIMSYSVARMAN
  2
AcImSysVarManager
  3
AcMeServices
 90
        0
280
     0
281
     0
  0
CLASS
  1
ACIMINTSYSVAR
  2
AcImIntSysVar
  3
AcMeServices
 90
        0
280
     0
281
     0
  0
CLASS
  1
ACMEDRAWINGMAN
  2
AcMeDrawingMan
  3
AcMeServices
 90
        0
280
     0
281
     0
  0
CLASS
  1
ACMEVIEW
  2
AcMeView
  3
AcMeServices
 90
        0
280
     0
281
     0
  0
CLASS
  1
ACDBENTITYCACHE
  2
AcMeEntityCache
  3
AcMeServices
 90
        0
280
     0
281
     0
  0
CLASS
  1
GSMANAGER
  2
AcMeGSManager
  3
AcMeServices
 90
        0
280
     0
281
     0
  0
CLASS
  1
AMDTINTERNALREACTOR
  2
AmdtInternalReactor
  3
AcMeServices
 90
        0
280
     0
281
     0
  0
CLASS
  1
ACMESTATEMGR
  2
AcMeStateMgr
  3
AcMeServices
 90
        0
280
     0
281
     0
  0
CLASS
  1
ACGREFMASTER
  2
AcGrefMaster
  3
AcAttribServices
 90
        0
280
     0
281
     0
  0
CLASS
  1
AM_DRAWING_MGR
  2
AcDmDwgMgr
  3
AcMechDwgViewMgmt
 90
        0
280
     0
281
     0
  0
CLASS
  1
AM_DWG_DOCUMENT
  2
AcDmDwgDocument
  3
AcMechDwgViewMgmt
 90
        0
280
     0
281
     0
  0
CLASS
  1
AM_DWG_SHEET
  2
AcDmSheet
  3
AcMechDwgViewMgmt
 90
        0
280
     0
281
     0
  0
CLASS
  1
AM_VIEWDIMPARMAP
  2
AcDmViewDimParMap
  3
AcMechDwgViewMgmt
 90
        0
280
     0
281
     0
  0
CLASS
  1
ACIMREALSYSVAR
  2
AcImRealSysVar
  3
AcMeServices
 90
        0
280
     0
281
     0
  0
CLASS
  1
AM_DWGMGR_NAME
  2
AcDmDwgMgrName
  3
AcMechDwgViewMgmt
 90
        0
280
     0
281
     0
  0
CLASS
  1
ACME_DATABASE
  2
AcMeDbDatabase
  3
AcMeServices
 90
        0
280
     0
281
     0
  0
CLASS
  1
ACRFINSADJUSTERMGR
  2
AcRfInsAdjusterMgr
  3
AcMeServices
 90
        0
280
     0
281
     0
  0
CLASS
  1
ACGREFACADMASTER
  2
AcGrefacadMaster
  3
AcGrefServices
 90
        0
280
     0
281
     0
  0
CLASS
  1
AMDTMENUSTATEMGR
  2
AmdtMenuStateMgr
  3
McadcomServices
 90
        0
280
     0
281
     0
  0
CLASS
  1
AMDTMCOMMENUSTATE
  2
AmdtMcomMenuState
  3
McadcomServices
 90
        0
280
     0
281
     0
  0
CLASS
  1
AMIMASTER
  2
AmiMaster
  3
AmiServices
 90
        0
280
     0
281
     0
  0
CLASS
  1
MAPIAMMOUDLE
  2
MApiAmModule
  3
MApiAmServices
 90
        0
280
     0
281
     0
  0
CLASS
  1
ACIMSTRSYSVAR
  2
AcImStrSysVar
  3
AcMeServices
 90
        0
280
     0
281
     0
  0
CLASS
  1
AMDTADMENUSTATE
  2
AmdtAdMenuState
  3
DesignerServices
 90
        0
280
     0
281
     0
  0
CLASS
  1
ADAPPL
  2
AcAdAppl
  3
DesignerServices
 90
        0
280
     0
281
     0
  0
CLASS
  1
DEPMGR
  2
AcAdDepMgr
  3
DesignerServices
 90
        0
280
     0
281
     0
  0
CLASS
  1
PARAMMGR
  2
AcAdParamMgr
  3
DesignerServices
 90
        0
280
     0
281
     0
  0
CLASS
  1
PARAMSCOPE
  2
AcAdParamScope
  3
DesignerServices
 90
        0
280
     0
281
     0
  0
CLASS
  1
NAMEDAPPL
  2
AcAdNamedAppl
  3
DesignerServices
 90
        0
280
     0
281
     0
  0
CLASS
  1
AMDTDMMENUSTATE
  2
AmdtDmMenuState
  3
AcMechDwgViewMgmt
 90
        0
280
     0
281
     0
  0
CLASS
  1
AMDTAMMENUSTATE
  2
AmdtAmMenuState
  3
DesignerAssemblies
 90
        0
280
     0
281
     0
  0
CLASS
  1
ACAMPROJECT
  2
AcAmProject
  3
DesignerAssemblies
 90
        0
280
     0
281
     0
  0
CLASS
  1
ACAMGRCOMPDEF
  2
AcAmGrCompDef
  3
DesignerAssemblies
 90
        0
280
     0
281
     0
  0
CLASS
  1
ACCMCONTEXT
  2
AcCmContext
  3
DesignerAssemblies
 90
        0
280
     0
281
     0
  0
CLASS
  1
ACAMCOMPDEF
  2
AcAmCompDef
  3
DesignerAssemblies
 90
        0
280
     0
281
     0
  0
CLASS
  1
ACAMCOMPDEFMGR
  2
AcAmCompDefMgr
  3
DesignerAssemblies
 90
        0
280
     0
281
     0
  0
CLASS
  1
AMCONTEXTMGR
  2
AcAmContextMgr
  3
DesignerAssemblies
 90
        0
280
     0
281
     0
  0
CLASS
  1
ACAMCONTEXTMODELER
  2
AcAmContextModeler
  3
DesignerAssemblies
 90
        0
280
     0
281
     0
  0
CLASS
  1
ACMDATADICTIONARY
  2
AcmDataDictionary
  3
"AcmSymBB|Product Description: AutoCAD Mechanical 2004 DX|Company: Autodesk"
 90
        0
280
     0
281
     0
  0
CLASS
  1
CATALOGSTATE
  2
AcAmCatalogState
  3
DesignerAssemblies
 90
        0
280
     0
281
     0
  0
CLASS
  1
ACAMGRCOMPDEFSET
  2
AcAmGrCompDefSet
  3
DesignerAssemblies
 90
        0
280
     0
281
     0
  0
CLASS
  1
AMDTBROWSERDBTAB
  2
AmdtBrowserDbTab
  3
McadcomServices
 90
        0
280
     0
281
     0
  0
CLASS
  1
CBROWSERAPPOBJECT
  2
CBrowserAppObject
  3
McadcomServices
 90
        0
280
     0
281
     0
  0
CLASS
  1
DM_PLACEHOLDER
  2
AcDmSelsetPlaceholder
  3
AcMechDwgViewMgmt
 90
        0
280
     0
281
     0
  0
CLASS
  1
ACMSTANDARDDIN
  2
AcmStandardDIN
  3
"Amdt_StdImp|Product Description: AutoCAD Mechanical 2004 DX|Company: Autodesk"
 90
        0
280
     0
281
     0
  0
CLASS
  1
AMGOBJPROPCFG
  2
AmgObjPropCfg
  3
"AmgLay|Product Description: AutoCAD Mechanical 2000|Company: Autodesk"
 90
        1
280
     0
281
     0
  0
CLASS
  1
AMDTEDGESTANDARDDIN13715
  2
AmdtEdgeStdDIN13715
  3
"Amdt_StdImp|Product Description: AutoCAD Mechanical 2004 DX|Company: Autodesk"
 90
        0
280
     0
281
     0
  0
CLASS
  1
ACMSURFSTANDARDDIN
  2
AcmSurfTextStdDIN
  3
"Amdt_StdImp|Product Description: AutoCAD Mechanical 2004 DX|Company: Autodesk"
 90
        0
280
     0
281
     0
  0
CLASS
  1
ACMFCFSTANDARDDIN
  2
AcmFCFStdDIN
  3
"Amdt_StdImp|Product Description: AutoCAD Mechanical 2004 DX|Company: Autodesk"
 90
        0
280
     0
281
     0
  0
CLASS
  1
ACMWELDSTANDARDDIN
  2
AcmWeldingStdDIN
  3
"Amdt_StdImp|Product Description: AutoCAD Mechanical 2004 DX|Company: Autodesk"
 90
        0
280
     0
281
     0
  0
CLASS
  1
ACMIDSTANDARDDIN
  2
AcmIdStdDIN
  3
"Amdt_StdImp|Product Description: AutoCAD Mechanical 2004 DX|Company: Autodesk"
 90
        0
280
     0
281
     0
  0
CLASS
  1
ACMDATUMSTANDARDDIN
  2
AcmDatumStdDIN
  3
"Amdt_StdImp|Product Description: AutoCAD Mechanical 2004 DX|Company: Autodesk"
 90
        0
280
     0
281
     0
  0
CLASS
  1
ACMBOMSTANDARDDIN
  2
AcmBOMStdDIN
  3
"Amdt_StdImp|Product Description: AutoCAD Mechanical 2004 DX|Company: Autodesk"
 90
        0
280
     0
281
     0
  0
CLASS
  1
ACMDETAILSTANDARDDIN
  2
AmdtDetailSymStdDIN
  3
"Amdt_StdImp|Product Description: AutoCAD Mechanical 2004 DX|Company: Autodesk"
 90
        0
280
     0
281
     0
  0
CLASS
  1
ACMSECTIONSTANDARDDIN
  2
AmdtSectionSymStdDIN
  3
"Amdt_StdImp|Product Description: AutoCAD Mechanical 2004 DX|Company: Autodesk"
 90
        0
280
     0
281
     0
  0
CLASS
  1
ACMCENTERLINESTANDARDDIN
  2
AmdtCenterLineStdDIN
  3
"Amdt_StdImp|Product Description: AutoCAD Mechanical 2004 DX|Company: Autodesk"
 90
        0
280
     0
281
     0
  0
CLASS
  1
ACMTHREADLINESTANDARDDIN
  2
AmdtThreadLineStdDIN
  3
"Amdt_StdImp|Product Description: AutoCAD Mechanical 2004 DX|Company: Autodesk"
 90
        0
280
     0
281
     0
  0
CLASS
  1
ACMNOTESTANDARDDIN
  2
AmdtNoteStdDIN
  3
"Amdt_StdImp|Product Description: AutoCAD Mechanical 2004 DX|Company: Autodesk"
 90
        0
280
     0
281
     0
  0
CLASS
  1
AMDTNOTETEMPLATEDB
  2
AmdtNoteTemplateDB
  3
AMDT_STDIMP_MODULE_NAME
 90
        0
280
     0
281
     0
  0
CLASS
  1
ACAMGLAYSTD
  2
AcAmgLayStd
  3
"AcAmgLayStd|Product Description: AutoCAD Mechanical 2000|Company: Autodesk"
 90
        0
280
     0
281
     0
  0
CLASS
  1
ACAMGDIMSTD
  2
AcAmgDimStd
  3
"AcAmgDimStd|Product Description: AutoCAD Mechanical 2000|Company: Autodesk"
 90
        0
280
     0
281
     0
  0
CLASS
  1
ACAMGHOLECHARTSTDDIN
  2
AcAmgHoleChartStdDIN
  3
ACMSYMBB_MODULE_NAME
 90
        0
280
     0
281
     0
  0
CLASS
  1
ACAMGTITLESTD
  2
AcAmgTitleStd
  3
"TITLEAPP"
 90
        0
280
     0
281
     0
  0
CLASS
  1
ACAMGFILTERDAT
  2
AcAmgFilterDat
  3
"AcadM|Product Description: AutoCAD Mechanical 2000|Company: Autodesk"
 90
        0
280
     0
281
     0
  0
CLASS
  1
SORTENTSTABLE
  2
AcDbSortentsTable
  3
ObjectDBX Classes
 90
        0
280
     0
281
     0
  0
CLASS
  1
ACMDATAENTRYBLOCK
  2
AcmDataEntryBlock
  3
"AcmSymBB|Product Description: AutoCAD Mechanical 2004 DX|Company: Autodesk"
 90
        0
280
     0
281
     0
  0
CLASS
  1
DICTIONARYVAR
  2
AcDbDictionaryVar
  3
ObjectDBX Classes
 90
        0
280
     0
281
     0
  0
CLASS
  1
ACDBPLACEHOLDER
  2
AcDbPlaceHolder
  3
ObjectDBX Classes
 90
        0
280
     0
281
     0
  0
CLASS
  1
LAYOUT
  2
AcDbLayout
  3
ObjectDBX Classes
 90
        0
280
     0
281
     0
  0
ENDSEC
  0
SECTION
  2
TABLES
  0
TABLE
  2
VPORT
  5
122A
330
0
100
AcDbSymbolTable
 70
   111
  0
VPORT
  5
163D
330
122A
100
AcDbSymbolTableRecord
100
AcDbViewportTableRecord
  2
*Active
 70
     0
 10
0.0
 20
0.0
 11
1.0
 21
1.0
 12
374.195482615842
 22
256.8363211022647
 13
0.0
 23
0.0
 14
5.0
 24
5.0
 15
50.0
 25
50.0
 16
0.0
 26
0.0
 36
1.0
 17
0.0
 27
0.0
 37
0.0
 40
447.2676932777955
 41
1.494545454545454
 42
50.0
 43
0.0
 44
0.0
 50
0.0
 51
0.0
 71
     0
 72
  1000
 73
     1
 74
     1
 75
     0
 76
     0
 77
     0
 78
     0
281
     0
 65
     0
110
0.0
120
0.0
130
0.0
111
1.0
121
0.0
131
0.0
112
0.0
122
1.0
132
0.0
 79
     0
146
0.0
  0
ENDTAB
  0
TABLE
  2
LTYPE
  5
1227
330
0
100
AcDbSymbolTable
 70
    27
  0
LTYPE
  5
1234
330
1227
100
AcDbSymbolTableRecord
100
AcDbLinetypeTableRecord
  2
BYBLOCK
 70
     0
  3

 72
    65
 73
     0
 40
0.0
  0
LTYPE
  5
1235
330
1227
100
AcDbSymbolTableRecord
100
AcDbLinetypeTableRecord
  2
BYLAYER
 70
     0
  3

 72
    65
 73
     0
 40
0.0
  0
LTYPE
  5
1236
330
1227
100
AcDbSymbolTableRecord
100
AcDbLinetypeTableRecord
  2
CONTINUOUS
 70
     0
  3
Solid line
 72
    65
 73
     0
 40
0.0
  0
LTYPE
  5
1245
330
1227
100
AcDbSymbolTableRecord
100
AcDbLinetypeTableRecord
  2
GEN7
 70
     0
  3
____ _ ____ _ ____ _ ____ _ ____ _ ____ _ ____ _ ____ _ ____ _
 72
    65
 73
     4
 40
22.0
 49
10.75
 74
     0
 49
-3.75
 74
     0
 49
3.75
 74
     0
 49
-3.75
 74
     0
  0
LTYPE
  5
13FB
330
1227
100
AcDbSymbolTableRecord
100
AcDbLinetypeTableRecord
  2
HIDDEN
 70
     0
  3
Verdeckt
 72
    65
 73
     2
 40
9.525
 49
6.349999999999999
 74
     0
 49
-3.174999999999999
 74
     0
  0
LTYPE
  5
13FC
330
1227
100
AcDbSymbolTableRecord
100
AcDbLinetypeTableRecord
  2
PHANTOM2
 70
     0
  3
Phantom (.5x) ___ _ _ ___ _ _ ___ _ _ ___ _ _
 72
    65
 73
     6
 40
31.75
 49
15.875
 74
     0
 49
-3.174999999999999
 74
     0
 49
3.174999999999999
 74
     0
 49
-3.174999999999999
 74
     0
 49
3.174999999999999
 74
     0
 49
-3.174999999999999
 74
     0
  0
LTYPE
  5
13FD
330
1227
100
AcDbSymbolTableRecord
100
AcDbLinetypeTableRecord
  2
CENTER
 70
     0
  3
Mitte ____ _ ____ _ ____ _ ____ _ ____ _ ____
 72
    65
 73
     4
 40
50.8
 49
31.75
 74
     0
 49
-6.349999999999999
 74
     0
 49
6.349999999999999
 74
     0
 49
-6.349999999999999
 74
     0
  0
LTYPE
  5
1434
330
1227
100
AcDbSymbolTableRecord
100
AcDbLinetypeTableRecord
  2
Amconstr
 70
     0
  3
_______________________
 72
    65
 73
     2
 40
9999.0
 49
9999.0
 74
     0
 49
0.0
 74
     0
  0
LTYPE
  5
1439
330
1227
100
AcDbSymbolTableRecord
100
AcDbLinetypeTableRecord
  2
Amzigzag
 70
     0
  3
/\/-/\/-/\/-/\/-/\/-/\/
 72
    65
 73
     2
 40
11.0001
 49
0.0001
 74
     4
 75
   136
340
1438
 46
0.04
 50
0.0
 44
0.0
 45
0.0
 49
-11.0
 74
     0
  0
LTYPE
  5
143A
330
1227
100
AcDbSymbolTableRecord
100
AcDbLinetypeTableRecord
  2
AM_DIN_F_W050
 70
     0
  3
__ __ __ __ __ __ __ __ __ __ __ __ __ __ __
 72
    65
 73
     2
 40
6.25
 49
4.75
 74
     0
 49
-1.5
 74
     0
  0
LTYPE
  5
143B
330
1227
100
AcDbSymbolTableRecord
100
AcDbLinetypeTableRecord
  2
AM_DIN_G_W050
 70
     0
  3
____ . ____ . ____ . ____ . ____ . ____ . ____
 72
    65
 73
     4
 40
13.75
 49
9.75
 74
     0
 49
-1.5
 74
     0
 49
1.0
 74
     0
 49
-1.5
 74
     0
  0
LTYPE
  5
143C
330
1227
100
AcDbSymbolTableRecord
100
AcDbLinetypeTableRecord
  2
AM_DIN_K_W050
 70
     0
  3
_____ . . _____ . . _____ . . ____ .. ____
 72
    65
 73
     6
 40
16.25
 49
9.75
 74
     0
 49
-1.5
 74
     0
 49
1.0
 74
     0
 49
-1.5
 74
     0
 49
1.0
 74
     0
 49
-1.5
 74
     0
  0
LTYPE
  5
143D
330
1227
100
AcDbSymbolTableRecord
100
AcDbLinetypeTableRecord
  2
AM_DIN_G_W050x2
 70
     0
  3
__ . __ . __ . __ . __ . __
 72
    65
 73
     4
 40
6.875
 49
4.75
 74
     0
 49
-0.875
 74
     0
 49
0.375
 74
     0
 49
-0.875
 74
     0
  0
LTYPE
  5
143E
330
1227
100
AcDbSymbolTableRecord
100
AcDbLinetypeTableRecord
  2
AM_DIN_F_W050x2
 70
     0
  3
 _ _ _ _ _ _ _ _ _ _ _ _
 72
    65
 73
     2
 40
3.125
 49
2.25
 74
     0
 49
-0.875
 74
     0
  0
LTYPE
  5
144D
330
1227
100
AcDbSymbolTableRecord
100
AcDbLinetypeTableRecord
  2
ACDINWELD
 70
     0
  3
_ _ _ _ _
 72
    65
 73
     2
 40
2.0
 49
2.0
 74
     0
 49
-1.0
 74
     0
  0
LTYPE
  5
144E
330
1227
100
AcDbSymbolTableRecord
100
AcDbLinetypeTableRecord
  2
ACDINTGB
 70
     0
  3
__ . . __ . .
 72
    65
 73
     6
 40
9.0
 49
4.0
 74
     0
 49
-1.0
 74
     0
 49
1.0
 74
     0
 49
-1.0
 74
     0
 49
1.0
 74
     0
 49
-1.0
 74
     0
  0
LTYPE
  5
144F
330
1227
100
AcDbSymbolTableRecord
100
AcDbLinetypeTableRecord
  2
ACDINTGL
 70
     0
  3
_ _ _ _ _
 72
    65
 73
     2
 40
3.0
 49
2.0
 74
     0
 49
-1.0
 74
     0
  0
LTYPE
  5
157A
330
1227
100
AcDbSymbolTableRecord
100
AcDbLinetypeTableRecord
  2
AUSGEZOGEN
 70
     0
  3
Ausgezogene Linie
 72
    65
 73
     0
 40
0.0
  0
ENDTAB
  0
TABLE
  2
LAYER
  5
1224
102
{ACAD_XDICTIONARY
360
14A3
102
}
330
0
100
AcDbSymbolTable
 70
    18
  0
LAYER
  5
1230
330
1224
100
AcDbSymbolTableRecord
100
AcDbLayerTableRecord
  2
0
 70
     0
 62
     7
  6
CONTINUOUS
370
    -3
390
13BF
  0
LAYER
  5
124D
330
1224
100
AcDbSymbolTableRecord
100
AcDbLayerTableRecord
  2
5
 70
     0
 62
     3
  6
CONTINUOUS
370
    -3
390
13BF
  0
LAYER
  5
124F
330
1224
100
AcDbSymbolTableRecord
100
AcDbLayerTableRecord
  2
7
 70
     0
 62
     4
  6
GEN7
370
    -3
390
13BF
  0
LAYER
  5
1251
330
1224
100
AcDbSymbolTableRecord
100
AcDbLayerTableRecord
  2
SCHRAFFUR_RAND
 70
     0
 62
   -36
  6
CONTINUOUS
370
    -3
390
13BF
  0
LAYER
  5
1281
330
1224
100
AcDbSymbolTableRecord
100
AcDbLayerTableRecord
  2
DEFPOINTS
 70
     0
 62
     7
  6
CONTINUOUS
290
     0
370
    -3
390
13BF
  0
LAYER
  5
14AA
330
1224
100
AcDbSymbolTableRecord
100
AcDbLayerTableRecord
  2
AM_8
 70
     0
 62
     1
  6
CONTINUOUS
370
    25
390
13BF
1001
AcAecLayerStandard
1000

1000

  0
LAYER
  5
157B
330
1224
100
AcDbSymbolTableRecord
100
AcDbLayerTableRecord
  2
Sichtbare Kanten
 70
     0
 62
     7
  6
CONTINUOUS
370
    50
390
13BF
  0
LAYER
  5
157C
330
1224
100
AcDbSymbolTableRecord
100
AcDbLayerTableRecord
  2
BILD
 70
     0
 62
     7
  6
AUSGEZOGEN
370
    -3
390
13BF
  0
ENDTAB
  0
TABLE
  2
STYLE
  5
1225
330
0
100
AcDbSymbolTable
 70
     4
  0
STYLE
  5
1231
330
1225
100
AcDbSymbolTableRecord
100
AcDbTextStyleTableRecord
  2
STANDARD
 70
     0
 40
0.0
 41
1.0
 50
0.0
 71
     0
 42
10.0
  3
ISOCP.SHX
  4

  0
STYLE
  5
1438
330
1225
100
AcDbSymbolTableRecord
100
AcDbTextStyleTableRecord
  2

 70
     1
 40
0.0
 41
1.0
 50
0.0
 71
     0
 42
0.2
  3
genltshp.shx
  4

  0
STYLE
  5
143F
330
1225
100
AcDbSymbolTableRecord
100
AcDbTextStyleTableRecord
  2
ACDINTS
 70
     0
 40
1.0
 41
1.0
 50
0.0
 71
     0
 42
0.2
  3
isocp.shx
  4

  0
STYLE
  5
144C
330
1225
100
AcDbSymbolTableRecord
100
AcDbTextStyleTableRecord
  2
ACDINGDT
 70
     0
 40
0.0
 41
1.0
 50
0.0
 71
     0
 42
0.2
  3
AMGDT
  4

  0
ENDTAB
  0
TABLE
  2
VIEW
  5
1228
330
0
100
AcDbSymbolTable
 70
     6
  0
VIEW
  5
12C4
330
1228
100
AcDbSymbolTableRecord
100
AcDbViewTableRecord
  2
GEN1
 70
     0
 40
525.0
 10
403.491903
 20
787.5
 41
806.983806
 11
0.0
 21
0.0
 31
1.0
 12
0.0
 22
0.0
 32
0.0
 42
50.0
 43
0.0
 44
0.0
 50
0.0
 71
     0
281
     0
 72
     0
  0
VIEW
  5
12C5
330
1228
100
AcDbSymbolTableRecord
100
AcDbViewTableRecord
  2
GEN2
 70
     0
 40
525.0
 10
646.508097
 20
787.5
 41
806.983806
 11
0.0
 21
0.0
 31
1.0
 12
0.0
 22
0.0
 32
0.0
 42
50.0
 43
0.0
 44
0.0
 50
0.0
 71
     0
281
     0
 72
     0
  0
VIEW
  5
12C6
330
1228
100
AcDbSymbolTableRecord
100
AcDbViewTableRecord
  2
GEN3
 70
     0
 40
525.0
 10
403.491903
 20
262.5
 41
806.983806
 11
0.0
 21
0.0
 31
1.0
 12
0.0
 22
0.0
 32
0.0
 42
50.0
 43
0.0
 44
0.0
 50
0.0
 71
     0
281
     0
 72
     0
  0
VIEW
  5
12C7
330
1228
100
AcDbSymbolTableRecord
100
AcDbViewTableRecord
  2
GEN4
 70
     0
 40
525.0
 10
646.508097
 20
262.5
 41
806.983806
 11
0.0
 21
0.0
 31
1.0
 12
0.0
 22
0.0
 32
0.0
 42
50.0
 43
0.0
 44
0.0
 50
0.0
 71
     0
281
     0
 72
     0
  0
VIEW
  5
12C8
330
1228
100
AcDbSymbolTableRecord
100
AcDbViewTableRecord
  2
GEN5
 70
     0
 40
525.0
 10
525.0
 20
525.0
 41
806.983806
 11
0.0
 21
0.0
 31
1.0
 12
0.0
 22
0.0
 32
0.0
 42
50.0
 43
0.0
 44
0.0
 50
0.0
 71
     0
281
     0
 72
     0
  0
VIEW
  5
12C9
330
1228
100
AcDbSymbolTableRecord
100
AcDbViewTableRecord
  2
GEN6
 70
     0
 40
1049.9895
 10
525.0
 20
525.0
 41
1613.951472
 11
0.0
 21
0.0
 31
1.0
 12
0.0
 22
0.0
 32
0.0
 42
50.0
 43
0.0
 44
0.0
 50
0.0
 71
     0
281
     0
 72
     0
  0
ENDTAB
  0
TABLE
  2
UCS
  5
1229
330
0
100
AcDbSymbolTable
 70
     0
  0
ENDTAB
  0
TABLE
  2
APPID
  5
122B
330
0
100
AcDbSymbolTable
 70
    42
  0
APPID
  5
1232
330
122B
100
AcDbSymbolTableRecord
100
AcDbRegAppTableRecord
  2
ACAD
 70
     0
  0
APPID
  5
1292
330
122B
100
AcDbSymbolTableRecord
100
AcDbRegAppTableRecord
  2
GENIUS_GENCFG_13
 70
     0
1001
GENIUS_DUMCFG0_13
1000
DUM
1001
GENIUS_GENCFG0_13
1000
GEN@INFO_POS@XLATE
1001
GENIUS_GENCFG1_13
1000
GEN@INFO_POS
1001
GENIUS_GENCFG2_13
1000
GEN@LAYER@DEFS
1001
GENIUS_GENCFG3_13
1000
GEN@LAYER@ENTSORT
1001
GENIUS_GENCFG4_13
1000
GEN
1001
GENIUS_GEVCFG0_13
1000
GEV
  0
APPID
  5
1293
330
122B
100
AcDbSymbolTableRecord
100
AcDbRegAppTableRecord
  2
GENIUS_DUMCFG0_13
 70
     0
1001
GENIUS_GENCFG_13
1071
925128103
1000
1293
1000
DUM
1070
     0
  0
APPID
  5
1294
330
122B
100
AcDbSymbolTableRecord
100
AcDbRegAppTableRecord
  2
GENIUS_GENCFG0_13
 70
     0
1001
GENIUS_GENCFG_13
1071
1022850957
1000
1294
1000
GEN@INFO_POS@XLATE
1070
     7
1000
GenCfgObject
1000
GenCfgShort
1000
GenCfgReal
1000
GenCfgBool
1000
GenCfgString
1000
GenCfgDim
1000
GenCfgAttrInf
1000
INFOPOINTS
1070
     0
1002
{
1000
GENINF14
1070
     0
1002
{
1000
2GENINF
1070
     4
1000
2
1002
{
1002
}
1000
5GENINF
1070
     4
1000
5
1002
{
1002
}
1000
7GENINF
1070
     4
1000
7
1002
{
1002
}
1000
9GENINF
1070
     4
1000
9
1002
{
1002
}
1000
11GENINF
1070
     4
1000
11
1002
{
1002
}
1000
14GENINF
1070
     4
1000
14
1002
{
1002
}
1002
}
1000
GENINF13
1070
     0
1002
{
1000
2GENINF
1070
     4
1000
2
1002
{
1002
}
1000
3GENINF
1070
     4
1000
3
1002
{
1002
}
1000
4GENINF
1070
     4
1000
4
1002
{
1002
}
1000
5GENINF
1070
     4
1000
5
1002
{
1002
}
1000
6GENINF
1070
     4
1000
6
1002
{
1002
}
1000
7GENINF
1070
     4
1000
7
1002
{
1002
}
1000
8GENINF
1070
     4
1000
8
1002
{
1002
}
1000
9GENINF
1070
     4
1000
9
1002
{
1002
}
1000
10GENINF
1070
     4
1000
10
1002
{
1002
}
1000
11GENINF
1070
     4
1000
11
1002
{
1002
}
1000
12GENINF
1070
     4
1000
12
1002
{
1002
}
1000
13GENINF
1070
     4
1000
13
1002
{
1002
}
1000
14GENINF
1070
     4
1000
14
1002
{
1002
}
1000
15GENINF
1070
     4
1000
15
1002
{
1002
}
1000
16GENINF
1070
     4
1000
16
1002
{
1002
}
1000
17GENINF
1070
     4
1000
17
1002
{
1002
}
1000
18GENINF
1070
     4
1000
18
1002
{
1002
}
1000
19GENINF
1070
     4
1000
19
1002
{
1002
}
1000
20GENINF
1070
     4
1000
20
1002
{
1002
}
1000
21GENINF
1070
     4
1000
21
1002
{
1002
}
1000
22GENINF
1070
     4
1000
22
1002
{
1002
}
1000
23GENINF
1070
     4
1000
23
1002
{
1002
}
1000
24GENINF
1070
     4
1000
24
1002
{
1002
}
1000
0GENINF
1070
     4
1000
0
1002
{
1002
}
1002
}
1000
GENINFO
1070
     0
1002
{
1000
3GENINF
1070
     4
1000
3
1002
{
1002
}
1000
4GENINF
1070
     4
1000
4
1002
{
1002
}
1000
5GENINF
1070
     4
1000
5
1002
{
1002
}
1000
6GENINF
1070
     4
1000
6
1002
{
1002
}
1000
7GENINF
1070
     4
1000
7
1002
{
1002
}
1000
8GENINF
1070
     4
1000
8
1002
{
1002
}
1000
9GENINF
1070
     4
1000
9
1002
{
1002
}
1000
10GENINF
1070
     4
1000
10
1002
{
1002
}
1000
11GENINF
1070
     4
1000
11
1002
{
1002
}
1000
12GENINF
1070
     4
1000
12
1002
{
1002
}
1000
13GENINF
1070
     4
1000
13
1002
{
1002
}
1000
14GENINF
1070
     4
1000
14
1002
{
1002
}
1000
15GENINF
1070
     4
1000
15
1002
{
1002
}
1000
16GENINF
1070
     4
1000
16
1002
{
1002
}
1000
17GENINF
1070
     4
1000
17
1002
{
1002
}
1000
18GENINF
1070
     4
1000
18
1002
{
1002
}
1000
19GENINF
1070
     4
1000
19
1002
{
1002
}
1000
20GENINF
1070
     4
1000
20
1002
{
1002
}
1000
21GENINF
1070
     4
1000
21
1002
{
1002
}
1000
22GENINF
1070
     4
1000
22
1002
{
1002
}
1002
}
1000
DININFO
1070
     0
1002
{
1000
ST-NAME1
1070
     4
1000
5
1002
{
1002
}
1000
ST-NAME2
1070
     4
1000
6
1002
{
1002
}
1000
ST-NORM1
1070
     4
1000
7
1002
{
1002
}
1000
ST-NORM2
1070
     4
1000
8
1002
{
1002
}
1000
ST-MAT1
1070
     4
1000
9
1002
{
1002
}
1000
ST-MAT2
1070
     4
1000
10
1002
{
1002
}
1002
}
1002
}
1000
POS_NUMBERS
1070
     0
1002
{
1000
GENPOS14
1070
     0
1002
{
1000
1GENPOS
1070
     4
1000
1
1002
{
1002
}
1000
2GENPOS
1070
     4
1000
2
1002
{
1002
}
1000
5GENPOS
1070
     4
1000
5
1002
{
1002
}
1000
7GENPOS
1070
     4
1000
7
1002
{
1002
}
1000
9GENPOS
1070
     4
1000
9
1002
{
1002
}
1000
11GENPOS
1070
     4
1000
11
1002
{
1002
}
1000
14GENPOS
1070
     4
1000
14
1002
{
1002
}
1002
}
1000
GENPOS13
1070
     0
1002
{
1000
1GENPOS
1070
     4
1000
1
1002
{
1002
}
1000
2GENPOS
1070
     4
1000
2
1002
{
1002
}
1000
3GENPOS
1070
     4
1000
3
1002
{
1002
}
1000
4GENPOS
1070
     4
1000
4
1002
{
1002
}
1000
5GENPOS
1070
     4
1000
5
1002
{
1002
}
1000
6GENPOS
1070
     4
1000
6
1002
{
1002
}
1000
7GENPOS
1070
     4
1000
7
1002
{
1002
}
1000
8GENPOS
1070
     4
1000
8
1002
{
1002
}
1000
9GENPOS
1070
     4
1000
9
1002
{
1002
}
1000
10GENPOS
1070
     4
1000
10
1002
{
1002
}
1000
11GENPOS
1070
     4
1000
11
1002
{
1002
}
1000
12GENPOS
1070
     4
1000
12
1002
{
1002
}
1000
13GENPOS
1070
     4
1000
13
1002
{
1002
}
1000
14GENPOS
1070
     4
1000
14
1002
{
1002
}
1000
15GENPOS
1070
     4
1000
15
1002
{
1002
}
1000
16GENPOS
1070
     4
1000
16
1002
{
1002
}
1000
17GENPOS
1070
     4
1000
17
1002
{
1002
}
1000
18GENPOS
1070
     4
1000
18
1002
{
1002
}
1000
19GENPOS
1070
     4
1000
19
1002
{
1002
}
1000
20GENPOS
1070
     4
1000
20
1002
{
1002
}
1000
21GENPOS
1070
     4
1000
21
1002
{
1002
}
1000
22GENPOS
1070
     4
1000
22
1002
{
1002
}
1000
23GENPOS
1070
     4
1000
23
1002
{
1002
}
1000
24GENPOS
1070
     4
1000
24
1002
{
1002
}
1000
0GENPOS
1070
     4
1000
0
1002
{
1002
}
1002
}
1000
GENPOS
1070
     0
1002
{
1000
1GENPOS
1070
     4
1000
1
1002
{
1002
}
1000
2GENPOS
1070
     4
1000
2
1002
{
1002
}
1000
3GENPOS
1070
     4
1000
3
1002
{
1002
}
1000
4GENPOS
1070
     4
1000
4
1002
{
1002
}
1000
5GENPOS
1070
     4
1000
5
1002
{
1002
}
1000
6GENPOS
1070
     4
1000
6
1002
{
1002
}
1000
7GENPOS
1070
     4
1000
7
1002
{
1002
}
1000
8GENPOS
1070
     4
1000
8
1002
{
1002
}
1000
9GENPOS
1070
     4
1000
9
1002
{
1002
}
1000
10GENPOS
1070
     4
1000
10
1002
{
1002
}
1000
11GENPOS
1070
     4
1000
11
1002
{
1002
}
1000
12GENPOS
1070
     4
1000
12
1002
{
1002
}
1000
13GENPOS
1070
     4
1000
13
1002
{
1002
}
1000
14GENPOS
1070
     4
1000
14
1002
{
1002
}
1000
15GENPOS
1070
     4
1000
15
1002
{
1002
}
1000
16GENPOS
1070
     4
1000
16
1002
{
1002
}
1000
17GENPOS
1070
     4
1000
17
1002
{
1002
}
1000
18GENPOS
1070
     4
1000
18
1002
{
1002
}
1000
19GENPOS
1070
     4
1000
19
1002
{
1002
}
1000
20GENPOS
1070
     4
1000
20
1002
{
1002
}
1000
21GENPOS
1070
     4
1000
21
1002
{
1002
}
1000
22GENPOS
1070
     4
1000
22
1002
{
1002
}
1000
23GENPOS
1070
     4
1000
23
1002
{
1002
}
1002
}
1000
DIN985
1070
     0
1002
{
1000
POSITION
1070
     4
1000
1
1002
{
1002
}
1000
MENGE
1070
     4
1000
2
1002
{
1002
}
1000
BLATT
1070
     4
1000
3
1002
{
1002
}
1000
BENENN
1070
     4
1000
5
1002
{
1002
}
1000
BENENN2
1070
     4
1000
6
1002
{
1002
}
1000
NORM
1070
     4
1000
7
1002
{
1002
}
1000
NORM2
1070
     4
1000
8
1002
{
1002
}
1000
WERKSTOFF
1070
     4
1000
9
1002
{
1002
}
1000
WERKSTOFF2
1070
     4
1000
10
1002
{
1002
}
1002
}
1000
DIN986
1070
     0
1002
{
1000
POSITION
1070
     4
1000
1
1002
{
1002
}
1000
MENGE
1070
     4
1000
2
1002
{
1002
}
1000
BLATT
1070
     4
1000
3
1002
{
1002
}
1000
BENENN
1070
     4
1000
5
1002
{
1002
}
1000
BENENN2
1070
     4
1000
6
1002
{
1002
}
1000
NORM
1070
     4
1000
7
1002
{
1002
}
1000
NORM2
1070
     4
1000
8
1002
{
1002
}
1000
WERKSTOFF
1070
     4
1000
9
1002
{
1002
}
1000
WERKSTOFF2
1070
     4
1000
10
1002
{
1002
}
1002
}
1000
DIN987
1070
     0
1002
{
1000
POSITION
1070
     4
1000
1
1002
{
1002
}
1000
MENGE
1070
     4
1000
2
1002
{
1002
}
1000
BLATT
1070
     4
1000
3
1002
{
1002
}
1000
BENENN
1070
     4
1000
5
1002
{
1002
}
1000
BENENN2
1070
     4
1000
6
1002
{
1002
}
1000
NORM
1070
     4
1000
7
1002
{
1002
}
1000
NORM2
1070
     4
1000
8
1002
{
1002
}
1000
WERKSTOFF
1070
     4
1000
9
1002
{
1002
}
1000
WERKSTOFF2
1070
     4
1000
10
1002
{
1002
}
1002
}
1002
}
  0
APPID
  5
1295
330
122B
100
AcDbSymbolTableRecord
100
AcDbRegAppTableRecord
  2
GENIUS_GENCFG1_13
 70
     0
1001
GENIUS_GENCFG_13
1071
1022850957
1000
1295
1000
GEN@INFO_POS
1070
     7
1000
GenCfgObject
1000
GenCfgShort
1000
GenCfgReal
1000
GenCfgBool
1000
GenCfgString
1000
GenCfgDim
1000
GenCfgAttrInf
1000
DescrText
1070
     4
1000
5, ,6, ,7, ,8
1002
{
1002
}
1000
DescrText2
1070
     4
1000
26
1002
{
1002
}
1000
VisibleAttr1
1070
     4
1000
1
1002
{
1002
}
1000
VisibleAttr2
1070
     4
1000
26
1002
{
1002
}
1000
UpdateBlock
1070
     3
1070
     1
1002
{
1002
}
1000
Attrib
1070
     0
1002
{
1000
0
1070
     6
1002
{
1000
Prompt
1070
     4
1000
(genmsg gendwg 103)
1002
{
1002
}
1000
Value
1070
     4
1000

1002
{
1002
}
1000
EditFlag
1070
     1
1070
     0
1002
{
1002
}
1000
PosInDDATTE
1070
     1
1070
    27
1002
{
1002
}
1000
FieldLen
1070
     1
1070
    -1
1002
{
1002
}
1002
}
1000
1
1070
     6
1002
{
1000
Prompt
1070
     4
1000
(genmsg gendwg 31)
1002
{
1002
}
1000
Value
1070
     4
1000
1
1002
{
1002
}
1000
EditFlag
1070
     1
1070
     1
1002
{
1002
}
1000
PosInDDATTE
1070
     1
1070
     1
1002
{
1002
}
1000
FieldLen
1070
     1
1070
    -1
1002
{
1002
}
1002
}
1000
2
1070
     6
1002
{
1000
Prompt
1070
     4
1000
(genmsg gendwg 32)
1002
{
1002
}
1000
Value
1070
     4
1000
1
1002
{
1002
}
1000
EditFlag
1070
     1
1070
     1
1002
{
1002
}
1000
PosInDDATTE
1070
     1
1070
     2
1002
{
1002
}
1000
FieldLen
1070
     1
1070
    -1
1002
{
1002
}
1002
}
1000
3
1070
     6
1002
{
1000
Prompt
1070
     4
1000
(genmsg gendwg 33)
1002
{
1002
}
1000
Value
1070
     4
1000

1002
{
1002
}
1000
EditFlag
1070
     1
1070
     1
1002
{
1002
}
1000
PosInDDATTE
1070
     1
1070
     3
1002
{
1002
}
1000
FieldLen
1070
     1
1070
    -1
1002
{
1002
}
1002
}
1000
4
1070
     6
1002
{
1000
Prompt
1070
     4
1000
(genmsg gendwg 34)
1002
{
1002
}
1000
Value
1070
     4
1000

1002
{
1002
}
1000
EditFlag
1070
     1
1070
     1
1002
{
1002
}
1000
PosInDDATTE
1070
     1
1070
     4
1002
{
1002
}
1000
FieldLen
1070
     1
1070
    -1
1002
{
1002
}
1002
}
1000
5
1070
     6
1002
{
1000
Prompt
1070
     4
1000
(genmsg gendwg 35)
1002
{
1002
}
1000
Value
1070
     4
1000

1002
{
1002
}
1000
EditFlag
1070
     1
1070
     1
1002
{
1002
}
1000
PosInDDATTE
1070
     1
1070
     5
1002
{
1002
}
1000
FieldLen
1070
     1
1070
    -1
1002
{
1002
}
1002
}
1000
6
1070
     6
1002
{
1000
Prompt
1070
     4
1000
(genmsg gendwg 36)
1002
{
1002
}
1000
Value
1070
     4
1000

1002
{
1002
}
1000
EditFlag
1070
     1
1070
     1
1002
{
1002
}
1000
PosInDDATTE
1070
     1
1070
     6
1002
{
1002
}
1000
FieldLen
1070
     1
1070
    -1
1002
{
1002
}
1002
}
1000
7
1070
     6
1002
{
1000
Prompt
1070
     4
1000
(genmsg gendwg 37)
1002
{
1002
}
1000
Value
1070
     4
1000

1002
{
1002
}
1000
EditFlag
1070
     1
1070
     1
1002
{
1002
}
1000
PosInDDATTE
1070
     1
1070
     7
1002
{
1002
}
1000
FieldLen
1070
     1
1070
    -1
1002
{
1002
}
1002
}
1000
8
1070
     6
1002
{
1000
Prompt
1070
     4
1000
(genmsg gendwg 38)
1002
{
1002
}
1000
Value
1070
     4
1000

1002
{
1002
}
1000
EditFlag
1070
     1
1070
     1
1002
{
1002
}
1000
PosInDDATTE
1070
     1
1070
     8
1002
{
1002
}
1000
FieldLen
1070
     1
1070
    -1
1002
{
1002
}
1002
}
1000
9
1070
     6
1002
{
1000
Prompt
1070
     4
1000
(genmsg gendwg 39)
1002
{
1002
}
1000
Value
1070
     4
1000

1002
{
1002
}
1000
EditFlag
1070
     1
1070
     1
1002
{
1002
}
1000
PosInDDATTE
1070
     1
1070
     9
1002
{
1002
}
1000
FieldLen
1070
     1
1070
    -1
1002
{
1002
}
1002
}
1000
10
1070
     6
1002
{
1000
Prompt
1070
     4
1000
(genmsg gendwg 40)
1002
{
1002
}
1000
Value
1070
     4
1000

1002
{
1002
}
1000
EditFlag
1070
     1
1070
     1
1002
{
1002
}
1000
PosInDDATTE
1070
     1
1070
    10
1002
{
1002
}
1000
FieldLen
1070
     1
1070
    -1
1002
{
1002
}
1002
}
1000
11
1070
     6
1002
{
1000
Prompt
1070
     4
1000
(genmsg gendwg 41)
1002
{
1002
}
1000
Value
1070
     4
1000

1002
{
1002
}
1000
EditFlag
1070
     1
1070
     1
1002
{
1002
}
1000
PosInDDATTE
1070
     1
1070
    11
1002
{
1002
}
1000
FieldLen
1070
     1
1070
    -1
1002
{
1002
}
1002
}
1000
12
1070
     6
1002
{
1000
Prompt
1070
     4
1000
(genmsg gendwg 42)
1002
{
1002
}
1000
Value
1070
     4
1000

1002
{
1002
}
1000
EditFlag
1070
     1
1070
     1
1002
{
1002
}
1000
PosInDDATTE
1070
     1
1070
    12
1002
{
1002
}
1000
FieldLen
1070
     1
1070
    -1
1002
{
1002
}
1002
}
1000
13
1070
     6
1002
{
1000
Prompt
1070
     4
1000
(genmsg gendwg 43)
1002
{
1002
}
1000
Value
1070
     4
1000

1002
{
1002
}
1000
EditFlag
1070
     1
1070
     1
1002
{
1002
}
1000
PosInDDATTE
1070
     1
1070
    13
1002
{
1002
}
1000
FieldLen
1070
     1
1070
    -1
1002
{
1002
}
1002
}
1000
14
1070
     6
1002
{
1000
Prompt
1070
     4
1000
(genmsg gendwg 44)
1002
{
1002
}
1000
Value
1070
     4
1000

1002
{
1002
}
1000
EditFlag
1070
     1
1070
     1
1002
{
1002
}
1000
PosInDDATTE
1070
     1
1070
    14
1002
{
1002
}
1000
FieldLen
1070
     1
1070
    -1
1002
{
1002
}
1002
}
1000
15
1070
     6
1002
{
1000
Prompt
1070
     4
1000
(genmsg gendwg 45)
1002
{
1002
}
1000
Value
1070
     4
1000

1002
{
1002
}
1000
EditFlag
1070
     1
1070
     1
1002
{
1002
}
1000
PosInDDATTE
1070
     1
1070
    15
1002
{
1002
}
1000
FieldLen
1070
     1
1070
    -1
1002
{
1002
}
1002
}
1000
16
1070
     6
1002
{
1000
Prompt
1070
     4
1000
(genmsg gendwg 46)
1002
{
1002
}
1000
Value
1070
     4
1000

1002
{
1002
}
1000
EditFlag
1070
     1
1070
     1
1002
{
1002
}
1000
PosInDDATTE
1070
     1
1070
    16
1002
{
1002
}
1000
FieldLen
1070
     1
1070
    -1
1002
{
1002
}
1002
}
1000
17
1070
     6
1002
{
1000
Prompt
1070
     4
1000
(genmsg gendwg 47)
1002
{
1002
}
1000
Value
1070
     4
1000

1002
{
1002
}
1000
EditFlag
1070
     1
1070
     1
1002
{
1002
}
1000
PosInDDATTE
1070
     1
1070
    17
1002
{
1002
}
1000
FieldLen
1070
     1
1070
    -1
1002
{
1002
}
1002
}
1000
18
1070
     6
1002
{
1000
Prompt
1070
     4
1000
(genmsg gendwg 48)
1002
{
1002
}
1000
Value
1070
     4
1000

1002
{
1002
}
1000
EditFlag
1070
     1
1070
     1
1002
{
1002
}
1000
PosInDDATTE
1070
     1
1070
    18
1002
{
1002
}
1000
FieldLen
1070
     1
1070
    -1
1002
{
1002
}
1002
}
1000
19
1070
     6
1002
{
1000
Prompt
1070
     4
1000
(genmsg gendwg 99)
1002
{
1002
}
1000
Value
1070
     4
1000

1002
{
1002
}
1000
EditFlag
1070
     1
1070
     1
1002
{
1002
}
1000
PosInDDATTE
1070
     1
1070
    19
1002
{
1002
}
1000
FieldLen
1070
     1
1070
    -1
1002
{
1002
}
1002
}
1000
20
1070
     6
1002
{
1000
Prompt
1070
     4
1000
(genmsg gendwg 100)
1002
{
1002
}
1000
Value
1070
     4
1000

1002
{
1002
}
1000
EditFlag
1070
     1
1070
     1
1002
{
1002
}
1000
PosInDDATTE
1070
     1
1070
    20
1002
{
1002
}
1000
FieldLen
1070
     1
1070
    -1
1002
{
1002
}
1002
}
1000
21
1070
     6
1002
{
1000
Prompt
1070
     4
1000
(genmsg gendwg 101)
1002
{
1002
}
1000
Value
1070
     4
1000

1002
{
1002
}
1000
EditFlag
1070
     1
1070
     1
1002
{
1002
}
1000
PosInDDATTE
1070
     1
1070
    21
1002
{
1002
}
1000
FieldLen
1070
     1
1070
    -1
1002
{
1002
}
1002
}
1000
22
1070
     6
1002
{
1000
Prompt
1070
     4
1000
(genmsg gendwg 102)
1002
{
1002
}
1000
Value
1070
     4
1000

1002
{
1002
}
1000
EditFlag
1070
     1
1070
     1
1002
{
1002
}
1000
PosInDDATTE
1070
     1
1070
    22
1002
{
1002
}
1000
FieldLen
1070
     1
1070
    -1
1002
{
1002
}
1002
}
1000
23
1070
     6
1002
{
1000
Prompt
1070
     4
1000
(genmsg gendwg 30)
1002
{
1002
}
1000
Value
1070
     4
1000

1002
{
1002
}
1000
EditFlag
1070
     1
1070
     1
1002
{
1002
}
1000
PosInDDATTE
1070
     1
1070
    23
1002
{
1002
}
1000
FieldLen
1070
     1
1070
    -1
1002
{
1002
}
1002
}
1000
24
1070
     6
1002
{
1000
Prompt
1070
     4
1000
(genmsg gendwg 104)
1002
{
1002
}
1000
Value
1070
     4
1000

1002
{
1002
}
1000
EditFlag
1070
     1
1070
     1
1002
{
1002
}
1000
PosInDDATTE
1070
     1
1070
    24
1002
{
1002
}
1000
FieldLen
1070
     1
1070
    -1
1002
{
1002
}
1002
}
1000
25
1070
     6
1002
{
1000
Prompt
1070
     4
1000
(genmsg gendwg 105)
1002
{
1002
}
1000
Value
1070
     4
1000

1002
{
1002
}
1000
EditFlag
1070
     1
1070
     1
1002
{
1002
}
1000
PosInDDATTE
1070
     1
1070
    25
1002
{
1002
}
1000
FieldLen
1070
     1
1070
    -1
1002
{
1002
}
1002
}
1000
26
1070
     6
1002
{
1000
Prompt
1070
     4
1000
(genmsg gendwg 106)
1002
{
1002
}
1000
Value
1070
     4
1000

1002
{
1002
}
1000
EditFlag
1070
     1
1070
     1
1002
{
1002
}
1000
PosInDDATTE
1070
     1
1070
    26
1002
{
1002
}
1000
FieldLen
1070
     1
1070
    -1
1002
{
1002
}
1002
}
1000
27
1070
     6
1002
{
1000
Prompt
1070
     4
1000
(genmsg gendwg 109)
1002
{
1002
}
1000
Value
1070
     4
1000

1002
{
1002
}
1000
EditFlag
1070
     1
1070
     2
1002
{
1002
}
1000
PosInDDATTE
1070
     1
1070
    27
1002
{
1002
}
1000
FieldLen
1070
     1
1070
    -1
1002
{
1002
}
1002
}
1002
}
1000
Xlate
1070
     0
1002
{
1000
>
1002
}
  0
APPID
  5
1296
330
122B
100
AcDbSymbolTableRecord
100
AcDbRegAppTableRecord
  2
GENIUS_GENCFG2_13
 70
     0
1001
GENIUS_GENCFG_13
1071
1022850957
1000
1296
1000
GEN@LAYER@DEFS
1070
     9
1000
GenCfgObject
1000
GenCfgShort
1000
GenCfgReal
1000
GenCfgBool
1000
GenCfgString
1000
GenCfgDim
1000
GenCfgAttrInf
1000
GenCfgLaySection
1000
GenCfgLayer
1000
Basic
1070
     0
1002
{
1000
0
1070
     8
1000
0
1002
{
1000
Color
1070
     1
1070
     7
1002
{
1002
}
1000
LType
1070
     4
1000
CONTINUOUS
1002
{
1002
}
1000
Base
1070
     3
1070
     0
1002
{
1002
}
1002
}
1000
1
1070
     8
1000
1
1002
{
1000
Color
1070
     1
1070
    14
1002
{
1002
}
1000
LType
1070
     4
1000
CONTINUOUS
1002
{
1002
}
1000
Base
1070
     3
1070
     0
1002
{
1002
}
1002
}
1000
2
1070
     8
1000
2
1002
{
1000
Color
1070
     1
1070
     5
1002
{
1002
}
1000
LType
1070
     4
1000
CONTINUOUS
1002
{
1002
}
1000
Base
1070
     3
1070
     0
1002
{
1002
}
1002
}
1000
3
1070
     8
1000
3
1002
{
1000
Color
1070
     1
1070
     6
1002
{
1002
}
1000
LType
1070
     4
1000
GEN3
1002
{
1002
}
1000
Base
1070
     3
1070
     0
1002
{
1002
}
1002
}
1000
4
1070
     8
1000
4
1002
{
1000
Color
1070
     1
1070
     3
1002
{
1002
}
1000
LType
1070
     4
1000
CONTINUOUS
1002
{
1002
}
1000
Base
1070
     3
1070
     0
1002
{
1002
}
1002
}
1000
5
1070
     8
1000
5
1002
{
1000
Color
1070
     1
1070
     3
1002
{
1002
}
1000
LType
1070
     4
1000
CONTINUOUS
1002
{
1002
}
1000
Base
1070
     3
1070
     0
1002
{
1002
}
1002
}
1000
6
1070
     8
1000
6
1002
{
1000
Color
1070
     1
1070
     2
1002
{
1002
}
1000
LType
1070
     4
1000
CONTINUOUS
1002
{
1002
}
1000
Base
1070
     3
1070
     0
1002
{
1002
}
1002
}
1000
7
1070
     8
1000
7
1002
{
1000
Color
1070
     1
1070
     4
1002
{
1002
}
1000
LType
1070
     4
1000
GEN7
1002
{
1002
}
1000
Base
1070
     3
1070
     0
1002
{
1002
}
1002
}
1000
8
1070
     8
1000
8
1002
{
1000
Color
1070
     1
1070
     1
1002
{
1002
}
1000
LType
1070
     4
1000
CONTINUOUS
1002
{
1002
}
1000
Base
1070
     3
1070
     0
1002
{
1002
}
1002
}
1000
3A
1070
     8
1000
3A
1002
{
1000
Color
1070
     1
1070
     6
1002
{
1002
}
1000
LType
1070
     4
1000
GEN3A
1002
{
1002
}
1000
Base
1070
     3
1070
     0
1002
{
1002
}
1002
}
1000
7A
1070
     8
1000
7A
1002
{
1000
Color
1070
     1
1070
     4
1002
{
1002
}
1000
LType
1070
     4
1000
GEN7A
1002
{
1002
}
1000
Base
1070
     3
1070
     0
1002
{
1002
}
1002
}
1000
2A
1070
     8
1000
2A
1002
{
1000
Color
1070
     1
1070
     7
1002
{
1002
}
1000
LType
1070
     4
1000
GEN7
1002
{
1002
}
1000
Base
1070
     3
1070
     0
1002
{
1002
}
1002
}
1000
4A
1070
     8
1000
4A
1002
{
1000
Color
1070
     1
1070
     3
1002
{
1002
}
1000
LType
1070
     4
1000
GEN4A
1002
{
1002
}
1000
Base
1070
     3
1070
     0
1002
{
1002
}
1002
}
1000
9
1070
     8
1000
9
1002
{
1000
Color
1070
     1
1070
   253
1002
{
1002
}
1000
LType
1070
     4
1000
CONTINUOUS
1002
{
1002
}
1000
Base
1070
     3
1070
     0
1002
{
1002
}
1002
}
1000
IP
1070
     8
1000
IP
1002
{
1000
Color
1070
     1
1070
     7
1002
{
1002
}
1000
LType
1070
     4
1000
CONTINUOUS
1002
{
1002
}
1000
Base
1070
     3
1070
     0
1002
{
1002
}
1002
}
1002
}
1000
Standard
1070
     0
1002
{
1000
0N
1070
     8
1000
0N
1002
{
1000
Color
1070
     1
1070
     7
1002
{
1002
}
1000
LType
1070
     4
1000
CONTINUOUS
1002
{
1002
}
1000
Base
1070
     3
1070
     0
1002
{
1002
}
1002
}
1000
1N
1070
     8
1000
1N
1002
{
1000
Color
1070
     1
1070
    14
1002
{
1002
}
1000
LType
1070
     4
1000
CONTINUOUS
1002
{
1002
}
1000
Base
1070
     3
1070
     0
1002
{
1002
}
1002
}
1000
2N
1070
     8
1000
2N
1002
{
1000
Color
1070
     1
1070
     5
1002
{
1002
}
1000
LType
1070
     4
1000
CONTINUOUS
1002
{
1002
}
1000
Base
1070
     3
1070
     0
1002
{
1002
}
1002
}
1000
3N
1070
     8
1000
3N
1002
{
1000
Color
1070
     1
1070
     6
1002
{
1002
}
1000
LType
1070
     4
1000
GEN3
1002
{
1002
}
1000
Base
1070
     3
1070
     0
1002
{
1002
}
1002
}
1000
4N
1070
     8
1000
4N
1002
{
1000
Color
1070
     1
1070
     3
1002
{
1002
}
1000
LType
1070
     4
1000
CONTINUOUS
1002
{
1002
}
1000
Base
1070
     3
1070
     0
1002
{
1002
}
1002
}
1000
5N
1070
     8
1000
5N
1002
{
1000
Color
1070
     1
1070
     3
1002
{
1002
}
1000
LType
1070
     4
1000
CONTINUOUS
1002
{
1002
}
1000
Base
1070
     3
1070
     0
1002
{
1002
}
1002
}
1000
6N
1070
     8
1000
6N
1002
{
1000
Color
1070
     1
1070
     2
1002
{
1002
}
1000
LType
1070
     4
1000
CONTINUOUS
1002
{
1002
}
1000
Base
1070
     3
1070
     0
1002
{
1002
}
1002
}
1000
7N
1070
     8
1000
7N
1002
{
1000
Color
1070
     1
1070
     4
1002
{
1002
}
1000
LType
1070
     4
1000
GEN7
1002
{
1002
}
1000
Base
1070
     3
1070
     0
1002
{
1002
}
1002
}
1000
8N
1070
     8
1000
8N
1002
{
1000
Color
1070
     1
1070
     1
1002
{
1002
}
1000
LType
1070
     4
1000
CONTINUOUS
1002
{
1002
}
1000
Base
1070
     3
1070
     0
1002
{
1002
}
1002
}
1000
3AN
1070
     8
1000
3AN
1002
{
1000
Color
1070
     1
1070
     6
1002
{
1002
}
1000
LType
1070
     4
1000
GEN3A
1002
{
1002
}
1000
Base
1070
     3
1070
     0
1002
{
1002
}
1002
}
1000
7AN
1070
     8
1000
7AN
1002
{
1000
Color
1070
     1
1070
     4
1002
{
1002
}
1000
LType
1070
     4
1000
GEN7A
1002
{
1002
}
1000
Base
1070
     3
1070
     0
1002
{
1002
}
1002
}
1000
2AN
1070
     8
1000
2AN
1002
{
1000
Color
1070
     1
1070
     7
1002
{
1002
}
1000
LType
1070
     4
1000
GEN7
1002
{
1002
}
1000
Base
1070
     3
1070
     0
1002
{
1002
}
1002
}
1000
4AN
1070
     8
1000
4AN
1002
{
1000
Color
1070
     1
1070
     3
1002
{
1002
}
1000
LType
1070
     4
1000
GEN4A
1002
{
1002
}
1000
Base
1070
     3
1070
     0
1002
{
1002
}
1002
}
1000
9N
1070
     8
1000
9N
1002
{
1000
Color
1070
     1
1070
   253
1002
{
1002
}
1000
LType
1070
     4
1000
CONTINUOUS
1002
{
1002
}
1000
Base
1070
     3
1070
     0
1002
{
1002
}
1002
}
1000
IPN
1070
     8
1000
IPN
1002
{
1000
Color
1070
     1
1070
     7
1002
{
1002
}
1000
LType
1070
     4
1000
CONTINUOUS
1002
{
1002
}
1000
Base
1070
     3
1070
     0
1002
{
1002
}
1002
}
1002
}
1000
Extra
1070
     0
1002
{
1000
Klin
1070
     8
1000
KLIN
1002
{
1000
Color
1070
     1
1070
     1
1002
{
1002
}
1000
LType
1070
     4
1000
CONTINUOUS
1002
{
1002
}
1000
Base
1070
     3
1070
     1
1002
{
1002
}
1002
}
1000
Info
1070
     8
1000
INFO
1002
{
1000
Color
1070
     1
1070
     4
1002
{
1002
}
1000
LType
1070
     4
1000
CONTINUOUS
1002
{
1002
}
1000
Base
1070
     3
1070
     1
1002
{
1002
}
1002
}
1000
Rahm2
1070
     8
1000
RAHM2
1002
{
1000
Color
1070
     1
1070
     1
1002
{
1002
}
1000
LType
1070
     4
1000
CONTINUOUS
1002
{
1002
}
1000
Base
1070
     3
1070
     1
1002
{
1002
}
1002
}
1000
Rahm3
1070
     8
1000
RAHM3
1002
{
1000
Color
1070
     1
1070
     2
1002
{
1002
}
1000
LType
1070
     4
1000
CONTINUOUS
1002
{
1002
}
1000
Base
1070
     3
1070
     1
1002
{
1002
}
1002
}
1000
Rahm5
1070
     8
1000
RAHM5
1002
{
1000
Color
1070
     1
1070
     7
1002
{
1002
}
1000
LType
1070
     4
1000
CONTINUOUS
1002
{
1002
}
1000
Base
1070
     3
1070
     1
1002
{
1002
}
1002
}
1000
View
1070
     8
1000
VIEW
1002
{
1000
Color
1070
     1
1070
     1
1002
{
1002
}
1000
LType
1070
     4
1000
CONTINUOUS
1002
{
1002
}
1000
Base
1070
     3
1070
     1
1002
{
1002
}
1002
}
1000
Behind
1070
     8
1000
BEHIND
1002
{
1000
Color
1070
     1
1070
   253
1002
{
1002
}
1000
LType
1070
     4
1000
CONTINUOUS
1002
{
1002
}
1000
Base
1070
     3
1070
     1
1002
{
1002
}
1002
}
1002
}
  0
APPID
  5
1297
330
122B
100
AcDbSymbolTableRecord
100
AcDbRegAppTableRecord
  2
GENIUS_GENCFG3_13
 70
     0
1001
GENIUS_GENCFG_13
1071
1022850957
1000
1297
1000
GEN@LAYER@ENTSORT
1070
    10
1000
GenCfgObject
1000
GenCfgShort
1000
GenCfgReal
1000
GenCfgBool
1000
GenCfgString
1000
GenCfgDim
1000
GenCfgAttrInf
1000
GenCfgLaySection
1000
GenCfgLayer
1000
GenCfgEntSort
1000
ADDL
1070
     9
1000
5
1002
{
1000
Class
1070
     4
1000
SYM
1002
{
1002
}
1000
Color
1070
     1
1070
     1
1002
{
1002
}
1000
LType
1070
     4
1000
BYLAYER
1002
{
1002
}
1002
}
1000
ALTR
1070
     9
1000
4
1002
{
1000
Class
1070
     4
1000

1002
{
1002
}
1000
Color
1070
     1
1070
     7
1002
{
1002
}
1000
LType
1070
     4
1000
GEN3A
1002
{
1002
}
1002
}
1000
BELI
1070
     9
1000
4
1002
{
1000
Class
1070
     4
1000

1002
{
1002
}
1000
Color
1070
     1
1070
   256
1002
{
1002
}
1000
LType
1070
     4
1000
BYLAYER
1002
{
1002
}
1002
}
1000
BHNV
1070
     9
1000
9
1002
{
1000
Class
1070
     4
1000
INV
1002
{
1002
}
1000
Color
1070
     1
1070
   256
1002
{
1002
}
1000
LType
1070
     4
1000
BYLAYER
1002
{
1002
}
1002
}
1000
BHNVS
1070
     9
1000
BEHIND
1002
{
1000
Class
1070
     4
1000
INV
1002
{
1002
}
1000
Color
1070
     1
1070
   256
1002
{
1002
}
1000
LType
1070
     4
1000
BYLAYER
1002
{
1002
}
1002
}
1000
BLID
1070
     9
1000
4A
1002
{
1000
Class
1070
     4
1000

1002
{
1002
}
1000
Color
1070
     1
1070
   256
1002
{
1002
}
1000
LType
1070
     4
1000
BYLAYER
1002
{
1002
}
1002
}
1000
BOAP
1070
     9
1000
4A
1002
{
1000
Class
1070
     4
1000

1002
{
1002
}
1000
Color
1070
     1
1070
   256
1002
{
1002
}
1000
LType
1070
     4
1000
BYLAYER
1002
{
1002
}
1002
}
1000
BOR2
1070
     9
1000
RAHM2
1002
{
1000
Class
1070
     4
1000
SPZ,SYM
1002
{
1002
}
1000
Color
1070
     1
1070
   256
1002
{
1002
}
1000
LType
1070
     4
1000
BYLAYER
1002
{
1002
}
1002
}
1000
BOR3
1070
     9
1000
RAHM3
1002
{
1000
Class
1070
     4
1000
SPZ,SYM
1002
{
1002
}
1000
Color
1070
     1
1070
   256
1002
{
1002
}
1000
LType
1070
     4
1000
BYLAYER
1002
{
1002
}
1002
}
1000
BOR5
1070
     9
1000
RAHM5
1002
{
1000
Class
1070
     4
1000
SPZ,SYM
1002
{
1002
}
1000
Color
1070
     1
1070
   256
1002
{
1002
}
1000
LType
1070
     4
1000
BYLAYER
1002
{
1002
}
1002
}
1000
BOR7
1070
     9
1000
RAHM5
1002
{
1000
Class
1070
     4
1000
SPZ,SYM
1002
{
1002
}
1000
Color
1070
     1
1070
     7
1002
{
1002
}
1000
LType
1070
     4
1000
CONTINUOUS
1002
{
1002
}
1002
}
1000
BPAP
1070
     9
1000
4A
1002
{
1000
Class
1070
     4
1000

1002
{
1002
}
1000
Color
1070
     1
1070
   256
1002
{
1002
}
1000
LType
1070
     4
1000
BYLAYER
1002
{
1002
}
1002
}
1000
BPEX
1070
     9
1000
4A
1002
{
1000
Class
1070
     4
1000

1002
{
1002
}
1000
Color
1070
     1
1070
   256
1002
{
1002
}
1000
LType
1070
     4
1000
BYLAYER
1002
{
1002
}
1002
}
1000
BTDI
1070
     9
1000
5
1002
{
1000
Class
1070
     4
1000
DIM,SYM
1002
{
1002
}
1000
Color
1070
     1
1070
   256
1002
{
1002
}
1000
LType
1070
     4
1000
BYLAYER
1002
{
1002
}
1002
}
1000
CAL2
1070
     9
1000
4
1002
{
1000
Class
1070
     4
1000
SYM
1002
{
1002
}
1000
Color
1070
     1
1070
   256
1002
{
1002
}
1000
LType
1070
     4
1000
BYLAYER
1002
{
1002
}
1002
}
1000
CAL3
1070
     9
1000
4
1002
{
1000
Class
1070
     4
1000
SYM
1002
{
1002
}
1000
Color
1070
     1
1070
     2
1002
{
1002
}
1000
LType
1070
     4
1000
BYLAYER
1002
{
1002
}
1002
}
1000
CAL5
1070
     9
1000
4
1002
{
1000
Class
1070
     4
1000
SYM
1002
{
1002
}
1000
Color
1070
     1
1070
     7
1002
{
1002
}
1000
LType
1070
     4
1000
BYLAYER
1002
{
1002
}
1002
}
1000
CAL7
1070
     9
1000
4
1002
{
1000
Class
1070
     4
1000
SYM
1002
{
1002
}
1000
Color
1070
     1
1070
     5
1002
{
1002
}
1000
LType
1070
     4
1000
BYLAYER
1002
{
1002
}
1002
}
1000
CENN
1070
     9
1000
7A
1002
{
1000
Class
1070
     4
1000
CEN
1002
{
1002
}
1000
Color
1070
     1
1070
   256
1002
{
1002
}
1000
LType
1070
     4
1000
BYLAYER
1002
{
1002
}
1002
}
1000
CENW
1070
     9
1000
7
1002
{
1000
Class
1070
     4
1000
CEN
1002
{
1002
}
1000
Color
1070
     1
1070
   256
1002
{
1002
}
1000
LType
1070
     4
1000
BYLAYER
1002
{
1002
}
1002
}
1000
CLIN
1070
     9
1000
KLIN
1002
{
1000
Class
1070
     4
1000
SPZ
1002
{
1002
}
1000
Color
1070
     1
1070
   256
1002
{
1002
}
1000
LType
1070
     4
1000
BYLAYER
1002
{
1002
}
1002
}
1000
CON1
1070
     9
1000
0
1002
{
1000
Class
1070
     4
1000
CON,BGD
1002
{
1002
}
1000
Color
1070
     1
1070
   256
1002
{
1002
}
1000
LType
1070
     4
1000
BYLAYER
1002
{
1002
}
1002
}
1000
CON2
1070
     9
1000
1
1002
{
1000
Class
1070
     4
1000
CON,BGD
1002
{
1002
}
1000
Color
1070
     1
1070
   256
1002
{
1002
}
1000
LType
1070
     4
1000
BYLAYER
1002
{
1002
}
1002
}
1000
CON3
1070
     9
1000
2
1002
{
1000
Class
1070
     4
1000
CON,BGD
1002
{
1002
}
1000
Color
1070
     1
1070
   256
1002
{
1002
}
1000
LType
1070
     4
1000
BYLAYER
1002
{
1002
}
1002
}
1000
CON4
1070
     9
1000
2
1002
{
1000
Class
1070
     4
1000
CON,BGD
1002
{
1002
}
1000
Color
1070
     1
1070
   256
1002
{
1002
}
1000
LType
1070
     4
1000
BYLAYER
1002
{
1002
}
1002
}
1000
DERP
1070
     9
1000
4
1002
{
1000
Class
1070
     4
1000

1002
{
1002
}
1000
Color
1070
     1
1070
   256
1002
{
1002
}
1000
LType
1070
     4
1000
BYLAYER
1002
{
1002
}
1002
}
1000
DETA
1070
     9
1000
4
1002
{
1000
Class
1070
     4
1000

1002
{
1002
}
1000
Color
1070
     1
1070
   256
1002
{
1002
}
1000
LType
1070
     4
1000
BYLAYER
1002
{
1002
}
1002
}
1000
DIAG
1070
     9
1000
5
1002
{
1000
Class
1070
     4
1000
SYM
1002
{
1002
}
1000
Color
1070
     1
1070
   256
1002
{
1002
}
1000
LType
1070
     4
1000
BYLAYER
1002
{
1002
}
1002
}
1000
DILI
1070
     9
1000
5
1002
{
1000
Class
1070
     4
1000
DIM,SYM
1002
{
1002
}
1000
Color
1070
     1
1070
   256
1002
{
1002
}
1000
LType
1070
     4
1000
BYLAYER
1002
{
1002
}
1002
}
1000
DITO2
1070
     9
1000
5
1002
{
1000
Class
1070
     4
1000
DIM,SYM
1002
{
1002
}
1000
Color
1070
     1
1070
     3
1002
{
1002
}
1000
LType
1070
     4
1000
BYLAYER
1002
{
1002
}
1002
}
1000
DITO3
1070
     9
1000
5
1002
{
1000
Class
1070
     4
1000
DIM,SYM
1002
{
1002
}
1000
Color
1070
     1
1070
     2
1002
{
1002
}
1000
LType
1070
     4
1000
BYLAYER
1002
{
1002
}
1002
}
1000
DITX
1070
     9
1000
5
1002
{
1000
Class
1070
     4
1000
DIM,SYM
1002
{
1002
}
1000
Color
1070
     1
1070
     2
1002
{
1002
}
1000
LType
1070
     4
1000
CONTINUOUS
1002
{
1002
}
1002
}
1000
DIXL
1070
     9
1000
5
1002
{
1000
Class
1070
     4
1000
DIM,SYM
1002
{
1002
}
1000
Color
1070
     1
1070
   256
1002
{
1002
}
1000
LType
1070
     4
1000
BYLAYER
1002
{
1002
}
1002
}
1000
EXMP
1070
     9
1000
4A
1002
{
1000
Class
1070
     4
1000

1002
{
1002
}
1000
Color
1070
     1
1070
   256
1002
{
1002
}
1000
LType
1070
     4
1000
BYLAYER
1002
{
1002
}
1002
}
1000
FEMN
1070
     9
1000
8
1002
{
1000
Class
1070
     4
1000

1002
{
1002
}
1000
Color
1070
     1
1070
   256
1002
{
1002
}
1000
LType
1070
     4
1000
BYLAYER
1002
{
1002
}
1002
}
1000
FEMPN
1070
     9
1000
8
1002
{
1000
Class
1070
     4
1000
SYM
1002
{
1002
}
1000
Color
1070
     1
1070
     3
1002
{
1002
}
1000
LType
1070
     4
1000
BYLAYER
1002
{
1002
}
1002
}
1000
FEMSP
1070
     9
1000
4A
1002
{
1000
Class
1070
     4
1000

1002
{
1002
}
1000
Color
1070
     1
1070
   256
1002
{
1002
}
1000
LType
1070
     4
1000
CONTINUOUS
1002
{
1002
}
1002
}
1000
FEMST
1070
     9
1000
4A
1002
{
1000
Class
1070
     4
1000
SYM
1002
{
1002
}
1000
Color
1070
     1
1070
     3
1002
{
1002
}
1000
LType
1070
     4
1000
BYLAYER
1002
{
1002
}
1002
}
1000
FEMVN
1070
     9
1000
2
1002
{
1000
Class
1070
     4
1000
CON
1002
{
1002
}
1000
Color
1070
     1
1070
   256
1002
{
1002
}
1000
LType
1070
     4
1000
BYLAYER
1002
{
1002
}
1002
}
1000
FEMVT
1070
     9
1000
2
1002
{
1000
Class
1070
     4
1000
SYM
1002
{
1002
}
1000
Color
1070
     1
1070
     3
1002
{
1002
}
1000
LType
1070
     4
1000
BYLAYER
1002
{
1002
}
1002
}
1000
FLAT
1070
     9
1000
0
1002
{
1000
Class
1070
     4
1000

1002
{
1002
}
1000
Color
1070
     1
1070
   256
1002
{
1002
}
1000
LType
1070
     4
1000
BYLAYER
1002
{
1002
}
1002
}
1000
FRAR
1070
     9
1000
4A
1002
{
1000
Class
1070
     4
1000

1002
{
1002
}
1000
Color
1070
     1
1070
   256
1002
{
1002
}
1000
LType
1070
     4
1000
BYLAYER
1002
{
1002
}
1002
}
1000
GRLI
1070
     9
1000
5
1002
{
1000
Class
1070
     4
1000
SYM
1002
{
1002
}
1000
Color
1070
     1
1070
   256
1002
{
1002
}
1000
LType
1070
     4
1000
BYLAYER
1002
{
1002
}
1002
}
1000
GVLI
1070
     9
1000
4A
1002
{
1000
Class
1070
     4
1000

1002
{
1002
}
1000
Color
1070
     1
1070
   256
1002
{
1002
}
1000
LType
1070
     4
1000
BYLAYER
1002
{
1002
}
1002
}
1000
HATC
1070
     9
1000
8
1002
{
1000
Class
1070
     4
1000
HTC,BGD
1002
{
1002
}
1000
Color
1070
     1
1070
   256
1002
{
1002
}
1000
LType
1070
     4
1000
BYLAYER
1002
{
1002
}
1002
}
1000
HIDN
1070
     9
1000
3A
1002
{
1000
Class
1070
     4
1000
HID,BGD
1002
{
1002
}
1000
Color
1070
     1
1070
   256
1002
{
1002
}
1000
LType
1070
     4
1000
BYLAYER
1002
{
1002
}
1002
}
1000
HIDW
1070
     9
1000
3
1002
{
1000
Class
1070
     4
1000
HID,BGD
1002
{
1002
}
1000
Color
1070
     1
1070
   256
1002
{
1002
}
1000
LType
1070
     4
1000
BYLAYER
1002
{
1002
}
1002
}
1000
HLIN
1070
     9
1000
4
1002
{
1000
Class
1070
     4
1000
BGD
1002
{
1002
}
1000
Color
1070
     1
1070
   256
1002
{
1002
}
1000
LType
1070
     4
1000
BYLAYER
1002
{
1002
}
1002
}
1000
HOCN
1070
     9
1000
7A
1002
{
1000
Class
1070
     4
1000
CEN
1002
{
1002
}
1000
Color
1070
     1
1070
   256
1002
{
1002
}
1000
LType
1070
     4
1000
BYLAYER
1002
{
1002
}
1002
}
1000
HOCW
1070
     9
1000
7
1002
{
1000
Class
1070
     4
1000
CEN
1002
{
1002
}
1000
Color
1070
     1
1070
   256
1002
{
1002
}
1000
LType
1070
     4
1000
BYLAYER
1002
{
1002
}
1002
}
1000
INFO
1070
     9
1000
INFO
1002
{
1000
Class
1070
     4
1000
SPZ,SYM
1002
{
1002
}
1000
Color
1070
     1
1070
   256
1002
{
1002
}
1000
LType
1070
     4
1000
BYLAYER
1002
{
1002
}
1002
}
1000
LADI
1070
     9
1000
4
1002
{
1000
Class
1070
     4
1000
BGD
1002
{
1002
}
1000
Color
1070
     1
1070
   256
1002
{
1002
}
1000
LType
1070
     4
1000
BYLAYER
1002
{
1002
}
1002
}
1000
LEAD
1070
     9
1000
5
1002
{
1000
Class
1070
     4
1000
SYM
1002
{
1002
}
1000
Color
1070
     1
1070
   256
1002
{
1002
}
1000
LType
1070
     4
1000
BYLAYER
1002
{
1002
}
1002
}
1000
N_ADDL
1070
     9
1000
5N
1002
{
1000
Class
1070
     4
1000
SYM
1002
{
1002
}
1000
Color
1070
     1
1070
     1
1002
{
1002
}
1000
LType
1070
     4
1000
BYLAYER
1002
{
1002
}
1002
}
1000
N_BHNV
1070
     9
1000
9N
1002
{
1000
Class
1070
     4
1000
INV
1002
{
1002
}
1000
Color
1070
     1
1070
   256
1002
{
1002
}
1000
LType
1070
     4
1000
BYLAYER
1002
{
1002
}
1002
}
1000
N_CON1
1070
     9
1000
0N
1002
{
1000
Class
1070
     4
1000
CON,BGD
1002
{
1002
}
1000
Color
1070
     1
1070
   256
1002
{
1002
}
1000
LType
1070
     4
1000
BYLAYER
1002
{
1002
}
1002
}
1000
N_CON2
1070
     9
1000
1N
1002
{
1000
Class
1070
     4
1000
CON,BGD
1002
{
1002
}
1000
Color
1070
     1
1070
   256
1002
{
1002
}
1000
LType
1070
     4
1000
BYLAYER
1002
{
1002
}
1002
}
1000
N_CON3
1070
     9
1000
2N
1002
{
1000
Class
1070
     4
1000
CON,BGD
1002
{
1002
}
1000
Color
1070
     1
1070
   256
1002
{
1002
}
1000
LType
1070
     4
1000
BYLAYER
1002
{
1002
}
1002
}
1000
N_CON4
1070
     9
1000
2N
1002
{
1000
Class
1070
     4
1000
CON,BGD
1002
{
1002
}
1000
Color
1070
     1
1070
   256
1002
{
1002
}
1000
LType
1070
     4
1000
BYLAYER
1002
{
1002
}
1002
}
1000
N_CENN
1070
     9
1000
7AN
1002
{
1000
Class
1070
     4
1000
CEN
1002
{
1002
}
1000
Color
1070
     1
1070
   256
1002
{
1002
}
1000
LType
1070
     4
1000
BYLAYER
1002
{
1002
}
1002
}
1000
N_CENW
1070
     9
1000
7N
1002
{
1000
Class
1070
     4
1000
CEN
1002
{
1002
}
1000
Color
1070
     1
1070
   256
1002
{
1002
}
1000
LType
1070
     4
1000
BYLAYER
1002
{
1002
}
1002
}
1000
N_DILI
1070
     9
1000
5N
1002
{
1000
Class
1070
     4
1000
DIM,SYM
1002
{
1002
}
1000
Color
1070
     1
1070
   256
1002
{
1002
}
1000
LType
1070
     4
1000
BYLAYER
1002
{
1002
}
1002
}
1000
N_DITX
1070
     9
1000
5N
1002
{
1000
Class
1070
     4
1000
DIM,SYM
1002
{
1002
}
1000
Color
1070
     1
1070
     2
1002
{
1002
}
1000
LType
1070
     4
1000
CONTINUOUS
1002
{
1002
}
1002
}
1000
N_DIXL
1070
     9
1000
5N
1002
{
1000
Class
1070
     4
1000
DIM,SYM
1002
{
1002
}
1000
Color
1070
     1
1070
   256
1002
{
1002
}
1000
LType
1070
     4
1000
BYLAYER
1002
{
1002
}
1002
}
1000
N_HATC
1070
     9
1000
8N
1002
{
1000
Class
1070
     4
1000
HTC,BGD
1002
{
1002
}
1000
Color
1070
     1
1070
   256
1002
{
1002
}
1000
LType
1070
     4
1000
BYLAYER
1002
{
1002
}
1002
}
1000
N_HIDN
1070
     9
1000
3AN
1002
{
1000
Class
1070
     4
1000
HID,BGD
1002
{
1002
}
1000
Color
1070
     1
1070
   256
1002
{
1002
}
1000
LType
1070
     4
1000
BYLAYER
1002
{
1002
}
1002
}
1000
N_HIDW
1070
     9
1000
3N
1002
{
1000
Class
1070
     4
1000
HID,BGD
1002
{
1002
}
1000
Color
1070
     1
1070
   256
1002
{
1002
}
1000
LType
1070
     4
1000
BYLAYER
1002
{
1002
}
1002
}
1000
N_NGIP
1070
     9
1000
IPN
1002
{
1000
Class
1070
     4
1000

1002
{
1002
}
1000
Color
1070
     1
1070
   256
1002
{
1002
}
1000
LType
1070
     4
1000
BYLAYER
1002
{
1002
}
1002
}
1000
N_PHAN
1070
     9
1000
4AN
1002
{
1000
Class
1070
     4
1000

1002
{
1002
}
1000
Color
1070
     1
1070
   256
1002
{
1002
}
1000
LType
1070
     4
1000
BYLAYER
1002
{
1002
}
1002
}
1000
N_POSL
1070
     9
1000
5N
1002
{
1000
Class
1070
     4
1000
SYM
1002
{
1002
}
1000
Color
1070
     1
1070
   256
1002
{
1002
}
1000
LType
1070
     4
1000
BYLAYER
1002
{
1002
}
1002
}
1000
N_TCON
1070
     9
1000
0N
1002
{
1000
Class
1070
     4
1000
CON,BGD
1002
{
1002
}
1000
Color
1070
     1
1070
   256
1002
{
1002
}
1000
LType
1070
     4
1000
BYLAYER
1002
{
1002
}
1002
}
1000
N_THLI
1070
     9
1000
4N
1002
{
1000
Class
1070
     4
1000
BGD
1002
{
1002
}
1000
Color
1070
     1
1070
   256
1002
{
1002
}
1000
LType
1070
     4
1000
BYLAYER
1002
{
1002
}
1002
}
1000
N_TLEN
1070
     9
1000
0N
1002
{
1000
Class
1070
     4
1000
CON,BGD
1002
{
1002
}
1000
Color
1070
     1
1070
   256
1002
{
1002
}
1000
LType
1070
     4
1000
BYLAYER
1002
{
1002
}
1002
}
1000
N_TXT3
1070
     9
1000
6N
1002
{
1000
Class
1070
     4
1000
SYM
1002
{
1002
}
1000
Color
1070
     1
1070
   256
1002
{
1002
}
1000
LType
1070
     4
1000
BYLAYER
1002
{
1002
}
1002
}
1000
N_VPLI
1070
     9
1000
2AN
1002
{
1000
Class
1070
     4
1000

1002
{
1002
}
1000
Color
1070
     1
1070
   256
1002
{
1002
}
1000
LType
1070
     4
1000
BYLAYER
1002
{
1002
}
1002
}
1000
NGIP
1070
     9
1000
IP
1002
{
1000
Class
1070
     4
1000

1002
{
1002
}
1000
Color
1070
     1
1070
   256
1002
{
1002
}
1000
LType
1070
     4
1000
BYLAYER
1002
{
1002
}
1002
}
1000
PAL2
1070
     9
1000
RAHM2
1002
{
1000
Class
1070
     4
1000
SPZ,SYM
1002
{
1002
}
1000
Color
1070
     1
1070
   256
1002
{
1002
}
1000
LType
1070
     4
1000
BYLAYER
1002
{
1002
}
1002
}
1000
PAL3
1070
     9
1000
RAHM3
1002
{
1000
Class
1070
     4
1000
SPZ,SYM
1002
{
1002
}
1000
Color
1070
     1
1070
   256
1002
{
1002
}
1000
LType
1070
     4
1000
BYLAYER
1002
{
1002
}
1002
}
1000
PAL5
1070
     9
1000
RAHM5
1002
{
1000
Class
1070
     4
1000
SPZ,SYM
1002
{
1002
}
1000
Color
1070
     1
1070
   256
1002
{
1002
}
1000
LType
1070
     4
1000
BYLAYER
1002
{
1002
}
1002
}
1000
PAL7
1070
     9
1000
RAHM5
1002
{
1000
Class
1070
     4
1000
SPZ,SYM
1002
{
1002
}
1000
Color
1070
     1
1070
     7
1002
{
1002
}
1000
LType
1070
     4
1000
CONTINUOUS
1002
{
1002
}
1002
}
1000
PHAN
1070
     9
1000
4A
1002
{
1000
Class
1070
     4
1000

1002
{
1002
}
1000
Color
1070
     1
1070
   256
1002
{
1002
}
1000
LType
1070
     4
1000
BYLAYER
1002
{
1002
}
1002
}
1000
POSL
1070
     9
1000
5
1002
{
1000
Class
1070
     4
1000
SYM
1002
{
1002
}
1000
Color
1070
     1
1070
   256
1002
{
1002
}
1000
LType
1070
     4
1000
BYLAYER
1002
{
1002
}
1002
}
1000
POSN
1070
     9
1000
6
1002
{
1000
Class
1070
     4
1000
SYM
1002
{
1002
}
1000
Color
1070
     1
1070
     7
1002
{
1002
}
1000
LType
1070
     4
1000
BYLAYER
1002
{
1002
}
1002
}
1000
POSREF
1070
     9
1000
6
1002
{
1000
Class
1070
     4
1000
SYM
1002
{
1002
}
1000
Color
1070
     1
1070
     5
1002
{
1002
}
1000
LType
1070
     4
1000
BYLAYER
1002
{
1002
}
1002
}
1000
POSX
1070
     9
1000
5
1002
{
1000
Class
1070
     4
1000
SYM
1002
{
1002
}
1000
Color
1070
     1
1070
     2
1002
{
1002
}
1000
LType
1070
     4
1000
CONTINUOUS
1002
{
1002
}
1002
}
1000
PSEC
1070
     9
1000
4A
1002
{
1000
Class
1070
     4
1000

1002
{
1002
}
1000
Color
1070
     1
1070
   256
1002
{
1002
}
1000
LType
1070
     4
1000
BYLAYER
1002
{
1002
}
1002
}
1000
RCGN
1070
     9
1000
7A
1002
{
1000
Class
1070
     4
1000
CEN
1002
{
1002
}
1000
Color
1070
     1
1070
   256
1002
{
1002
}
1000
LType
1070
     4
1000
BYLAYER
1002
{
1002
}
1002
}
1000
RCGW
1070
     9
1000
7
1002
{
1000
Class
1070
     4
1000
CEN
1002
{
1002
}
1000
Color
1070
     1
1070
   256
1002
{
1002
}
1000
LType
1070
     4
1000
BYLAYER
1002
{
1002
}
1002
}
1000
RFDI
1070
     9
1000
4
1002
{
1000
Class
1070
     4
1000
BGD
1002
{
1002
}
1000
Color
1070
     1
1070
   256
1002
{
1002
}
1000
LType
1070
     4
1000
BYLAYER
1002
{
1002
}
1002
}
1000
RQTR
1070
     9
1000
4
1002
{
1000
Class
1070
     4
1000

1002
{
1002
}
1000
Color
1070
     1
1070
     7
1002
{
1002
}
1000
LType
1070
     4
1000
GEN7A
1002
{
1002
}
1002
}
1000
RSBO
1070
     9
1000
4
1002
{
1000
Class
1070
     4
1000
BGD
1002
{
1002
}
1000
Color
1070
     1
1070
   256
1002
{
1002
}
1000
LType
1070
     4
1000
BYLAYER
1002
{
1002
}
1002
}
1000
SBRK
1070
     9
1000
4
1002
{
1000
Class
1070
     4
1000
BGD
1002
{
1002
}
1000
Color
1070
     1
1070
   256
1002
{
1002
}
1000
LType
1070
     4
1000
BYLAYER
1002
{
1002
}
1002
}
1000
SCEN
1070
     9
1000
7
1002
{
1000
Class
1070
     4
1000

1002
{
1002
}
1000
Color
1070
     1
1070
   256
1002
{
1002
}
1000
LType
1070
     4
1000
CONTINUOUS
1002
{
1002
}
1002
}
1000
SECT
1070
     9
1000
4
1002
{
1000
Class
1070
     4
1000
BGD
1002
{
1002
}
1000
Color
1070
     1
1070
   256
1002
{
1002
}
1000
LType
1070
     4
1000
BYLAYER
1002
{
1002
}
1002
}
1000
SELN
1070
     9
1000
7A
1002
{
1000
Class
1070
     4
1000

1002
{
1002
}
1000
Color
1070
     1
1070
   256
1002
{
1002
}
1000
LType
1070
     4
1000
BYLAYER
1002
{
1002
}
1002
}
1000
SELW
1070
     9
1000
7
1002
{
1000
Class
1070
     4
1000

1002
{
1002
}
1000
Color
1070
     1
1070
   256
1002
{
1002
}
1000
LType
1070
     4
1000
BYLAYER
1002
{
1002
}
1002
}
1000
SSYS
1070
     9
1000
0
1002
{
1000
Class
1070
     4
1000

1002
{
1002
}
1000
Color
1070
     1
1070
   256
1002
{
1002
}
1000
LType
1070
     4
1000
BYLAYER
1002
{
1002
}
1002
}
1000
STLI
1070
     9
1000
4
1002
{
1000
Class
1070
     4
1000

1002
{
1002
}
1000
Color
1070
     1
1070
     7
1002
{
1002
}
1000
LType
1070
     4
1000
GEN3A
1002
{
1002
}
1002
}
1000
SYB1
1070
     9
1000
5
1002
{
1000
Class
1070
     4
1000
SYM
1002
{
1002
}
1000
Color
1070
     1
1070
   256
1002
{
1002
}
1000
LType
1070
     4
1000
BYLAYER
1002
{
1002
}
1002
}
1000
SYB2
1070
     9
1000
5
1002
{
1000
Class
1070
     4
1000
SYM
1002
{
1002
}
1000
Color
1070
     1
1070
   256
1002
{
1002
}
1000
LType
1070
     4
1000
BYLAYER
1002
{
1002
}
1002
}
1000
SYB3
1070
     9
1000
6
1002
{
1000
Class
1070
     4
1000
SYM
1002
{
1002
}
1000
Color
1070
     1
1070
   256
1002
{
1002
}
1000
LType
1070
     4
1000
CONTINUOUS
1002
{
1002
}
1002
}
1000
SYB5
1070
     9
1000
5
1002
{
1000
Class
1070
     4
1000
SYM
1002
{
1002
}
1000
Color
1070
     1
1070
     7
1002
{
1002
}
1000
LType
1070
     4
1000
BYLAYER
1002
{
1002
}
1002
}
1000
SYMN
1070
     9
1000
7A
1002
{
1000
Class
1070
     4
1000
CEN
1002
{
1002
}
1000
Color
1070
     1
1070
   256
1002
{
1002
}
1000
LType
1070
     4
1000
BYLAYER
1002
{
1002
}
1002
}
1000
SYMW
1070
     9
1000
7
1002
{
1000
Class
1070
     4
1000
CEN
1002
{
1002
}
1000
Color
1070
     1
1070
   256
1002
{
1002
}
1000
LType
1070
     4
1000
BYLAYER
1002
{
1002
}
1002
}
1000
TCON
1070
     9
1000
0
1002
{
1000
Class
1070
     4
1000
CON,BGD
1002
{
1002
}
1000
Color
1070
     1
1070
   256
1002
{
1002
}
1000
LType
1070
     4
1000
BYLAYER
1002
{
1002
}
1002
}
1000
THLI
1070
     9
1000
4
1002
{
1000
Class
1070
     4
1000
BGD
1002
{
1002
}
1000
Color
1070
     1
1070
   256
1002
{
1002
}
1000
LType
1070
     4
1000
BYLAYER
1002
{
1002
}
1002
}
1000
TIT2
1070
     9
1000
RAHM2
1002
{
1000
Class
1070
     4
1000
SPZ,SYM
1002
{
1002
}
1000
Color
1070
     1
1070
   256
1002
{
1002
}
1000
LType
1070
     4
1000
BYLAYER
1002
{
1002
}
1002
}
1000
TIT3
1070
     9
1000
RAHM3
1002
{
1000
Class
1070
     4
1000
SPZ,SYM
1002
{
1002
}
1000
Color
1070
     1
1070
   256
1002
{
1002
}
1000
LType
1070
     4
1000
BYLAYER
1002
{
1002
}
1002
}
1000
TIT5
1070
     9
1000
RAHM5
1002
{
1000
Class
1070
     4
1000
SPZ,SYM
1002
{
1002
}
1000
Color
1070
     1
1070
   256
1002
{
1002
}
1000
LType
1070
     4
1000
BYLAYER
1002
{
1002
}
1002
}
1000
TIT7
1070
     9
1000
RAHM5
1002
{
1000
Class
1070
     4
1000
SPZ,SYM
1002
{
1002
}
1000
Color
1070
     1
1070
     7
1002
{
1002
}
1000
LType
1070
     4
1000
CONTINUOUS
1002
{
1002
}
1002
}
1000
TLEN
1070
     9
1000
0
1002
{
1000
Class
1070
     4
1000
CON,BGD
1002
{
1002
}
1000
Color
1070
     1
1070
   256
1002
{
1002
}
1000
LType
1070
     4
1000
BYLAYER
1002
{
1002
}
1002
}
1000
TRKN
1070
     9
1000
7A
1002
{
1000
Class
1070
     4
1000

1002
{
1002
}
1000
Color
1070
     1
1070
   256
1002
{
1002
}
1000
LType
1070
     4
1000
BYLAYER
1002
{
1002
}
1002
}
1000
TRKW
1070
     9
1000
7
1002
{
1000
Class
1070
     4
1000

1002
{
1002
}
1000
Color
1070
     1
1070
   256
1002
{
1002
}
1000
LType
1070
     4
1000
BYLAYER
1002
{
1002
}
1002
}
1000
TRLI
1070
     9
1000
4
1002
{
1000
Class
1070
     4
1000
BGD
1002
{
1002
}
1000
Color
1070
     1
1070
   256
1002
{
1002
}
1000
LType
1070
     4
1000
BYLAYER
1002
{
1002
}
1002
}
1000
TXT1
1070
     9
1000
6
1002
{
1000
Class
1070
     4
1000
SYM
1002
{
1002
}
1000
Color
1070
     1
1070
     2
1002
{
1002
}
1000
LType
1070
     4
1000
BYLAYER
1002
{
1002
}
1002
}
1000
TXT2
1070
     9
1000
6
1002
{
1000
Class
1070
     4
1000
SYM
1002
{
1002
}
1000
Color
1070
     1
1070
     2
1002
{
1002
}
1000
LType
1070
     4
1000
BYLAYER
1002
{
1002
}
1002
}
1000
TXT3
1070
     9
1000
6
1002
{
1000
Class
1070
     4
1000
SYM
1002
{
1002
}
1000
Color
1070
     1
1070
   256
1002
{
1002
}
1000
LType
1070
     4
1000
BYLAYER
1002
{
1002
}
1002
}
1000
TXT5
1070
     9
1000
6
1002
{
1000
Class
1070
     4
1000
SYM
1002
{
1002
}
1000
Color
1070
     1
1070
     7
1002
{
1002
}
1000
LType
1070
     4
1000
BYLAYER
1002
{
1002
}
1002
}
1000
TXT7
1070
     9
1000
6
1002
{
1000
Class
1070
     4
1000
SYM
1002
{
1002
}
1000
Color
1070
     1
1070
     7
1002
{
1002
}
1000
LType
1070
     4
1000
BYLAYER
1002
{
1002
}
1002
}
1000
VIEW
1070
     9
1000
VIEW
1002
{
1000
Class
1070
     4
1000
SPZ
1002
{
1002
}
1000
Color
1070
     1
1070
   256
1002
{
1002
}
1000
LType
1070
     4
1000
BYLAYER
1002
{
1002
}
1002
}
1000
VPLI
1070
     9
1000
2A
1002
{
1000
Class
1070
     4
1000

1002
{
1002
}
1000
Color
1070
     1
1070
   256
1002
{
1002
}
1000
LType
1070
     4
1000
BYLAYER
1002
{
1002
}
1002
}
1000
ZIZA
1070
     9
1000
4
1002
{
1000
Class
1070
     4
1000
BGD
1002
{
1002
}
1000
Color
1070
     1
1070
   256
1002
{
1002
}
1000
LType
1070
     4
1000
GENZIGZAG
1002
{
1002
}
1002
}
  0
APPID
  5
1298
330
122B
100
AcDbSymbolTableRecord
100
AcDbRegAppTableRecord
  2
GENIUS_GENCFG4_13
 70
     0
1001
GENIUS_GENCFG_13
1071
1022850972
1000
1298
1000
GEN
1070
     9
1000
GenCfgObject
1000
GenCfgShort
1000
GenCfgReal
1000
GenCfgBool
1000
GenCfgString
1000
GenCfgDim
1000
GenCfgLaySection
1000
GenCfgLType
1000
GenCfgFilter
1000
Balloon
1070
     0
1002
{
1000
GenIF
1070
     1
1070
     0
1002
{
1002
}
1000
GenPosInc
1070
     1
1070
     1
1002
{
1002
}
1000
GenPosBlk
1070
     1
1070
     8
1002
{
1002
}
1000
GenPosVar
1070
     1
1070
     0
1002
{
1002
}
1000
GenZiCir
1070
     2
1040
1.5
1002
{
1002
}
1000
MaxCharForCenteredText
1070
     1
1070
    30
1002
{
1002
}
1000
Snap
1070
     0
1002
{
1000
ActivationRadius
1070
     2
1040
1.0
1002
{
1002
}
1000
M
1070
     0
1002
{
1000
SnapStepX
1070
     2
1040
20.0
1002
{
1002
}
1000
SnapStepY
1070
     2
1040
10.0
1002
{
1002
}
1002
}
1000
I
1070
     0
1002
{
1000
SnapStepX
1070
     2
1040
1.0
1002
{
1002
}
1000
SnapStepY
1070
     2
1040
0.5
1002
{
1002
}
1002
}
1002
}
1002
}
1000
Centerline
1070
     0
1002
{
1000
ScaleNot
1070
     3
1070
     0
1002
{
1002
}
1000
M
1070
     0
1002
{
1000
GenCenAng
1070
     4
1000
45|90|135
1002
{
1002
}
1000
GenCenDia
1070
     2
1040
10.0
1002
{
1002
}
1000
GenCenDias
1070
     4
1000
10|20|30
1002
{
1002
}
1000
GenCenDist
1070
     2
1040
3.0
1002
{
1002
}
1000
GenCenLen
1070
     2
1040
10.0
1002
{
1002
}
1000
GenCenOff
1070
     2
1040
10.0
1002
{
1002
}
1002
}
1000
I
1070
     0
1002
{
1000
GenCenAng
1070
     4
1000
45|90|135
1002
{
1002
}
1000
GenCenDia
1070
     2
1040
0.5
1002
{
1002
}
1000
GenCenDias
1070
     4
1000
0.5|1.0|1.5
1002
{
1002
}
1000
GenCenDist
1070
     2
1040
0.125
1002
{
1002
}
1000
GenCenLen
1070
     2
1040
0.5
1002
{
1002
}
1000
GenCenOff
1070
     2
1040
0.5
1002
{
1002
}
1002
}
1002
}
1000
CLine
1070
     0
1002
{
1000
CAngArray
1070
     4
1000
30|45|60
1002
{
1002
}
1000
Typ
1070
     4
1000
XLINE
1002
{
1002
}
1000
M
1070
     0
1002
{
1000
CLinArray
1070
     4
1000
10|20|30
1002
{
1002
}
1002
}
1000
I
1070
     0
1002
{
1000
CLinArray
1070
     4
1000
0.125|0.25|0.5
1002
{
1002
}
1002
}
1002
}
1000
Detail
1070
     0
1002
{
1002
}
1000
Dimension
1070
     5
1002
{
1000
DIMALT
1070
     1
1070
     0
1002
{
1002
}
1000
DIMALTD
1070
     1
1070
     2
1002
{
1002
}
1000
DIMALTTD
1070
     1
1070
     4
1002
{
1002
}
1000
DIMALTTZ
1070
     1
1070
     0
1002
{
1002
}
1000
DIMALTU
1070
     1
1070
     2
1002
{
1002
}
1000
DIMALTZ
1070
     1
1070
     0
1002
{
1002
}
1000
DIMAUNIT
1070
     1
1070
     0
1002
{
1002
}
1000
DIMBLK
1070
     4
1000

1002
{
1002
}
1000
DIMBLK1
1070
     4
1000

1002
{
1002
}
1000
DIMBLK2
1070
     4
1000

1002
{
1002
}
1000
DIMCLRD
1070
     1
1070
   256
1002
{
1002
}
1000
DIMCLRE
1070
     1
1070
   256
1002
{
1002
}
1000
DIMCLRT
1070
     1
1070
     2
1002
{
1002
}
1000
DIMDLE
1070
     2
1040
0.0
1002
{
1002
}
1000
DIMFIT
1070
     1
1070
     3
1002
{
1002
}
1000
DIMJUST
1070
     1
1070
     0
1002
{
1002
}
1000
DIMLFAC
1070
     2
1040
1.0
1002
{
1002
}
1000
DIMLIM
1070
     1
1070
     0
1002
{
1002
}
1000
DIMPOST
1070
     4
1000

1002
{
1002
}
1000
DIMRND
1070
     2
1040
0.0
1002
{
1002
}
1000
DIMSAH
1070
     1
1070
     0
1002
{
1002
}
1000
DIMSCALE
1070
     2
1040
1.0
1002
{
1002
}
1000
DIMSD1
1070
     1
1070
     0
1002
{
1002
}
1000
DIMSD2
1070
     1
1070
     0
1002
{
1002
}
1000
DIMSE1
1070
     1
1070
     0
1002
{
1002
}
1000
DIMSE2
1070
     1
1070
     0
1002
{
1002
}
1000
DIMSOXD
1070
     1
1070
     0
1002
{
1002
}
1000
DIMTAD
1070
     1
1070
     0
1002
{
1002
}
1000
DIMTFAC
1070
     2
1040
0.71
1002
{
1002
}
1000
DIMTIH
1070
     1
1070
     0
1002
{
1002
}
1000
DIMTIX
1070
     1
1070
     0
1002
{
1002
}
1000
DIMTM
1070
     2
1040
0.1
1002
{
1002
}
1000
DIMTOFL
1070
     1
1070
     0
1002
{
1002
}
1000
DIMTOH
1070
     1
1070
     0
1002
{
1002
}
1000
DIMTOL
1070
     1
1070
     0
1002
{
1002
}
1000
DIMTOLJ
1070
     1
1070
     1
1002
{
1002
}
1000
DIMTP
1070
     2
1040
0.1
1002
{
1002
}
1000
DIMTSZ
1070
     2
1040
0.0
1002
{
1002
}
1000
DIMTVP
1070
     2
1040
0.0
1002
{
1002
}
1000
DIMTXSTY
1070
     4
1000
STANDARD
1002
{
1002
}
1000
DIMTZIN
1070
     1
1070
     0
1002
{
1002
}
1000
DIMUNIT
1070
     1
1070
     2
1002
{
1002
}
1000
DIMUPT
1070
     1
1070
     0
1002
{
1002
}
1000
M
1070
     0
1002
{
1000
DIMALTF
1070
     2
1040
0.03937
1002
{
1002
}
1000
DIMAPOST
1070
     4
1000
"
1002
{
1002
}
1000
DIMASZ
1070
     2
1040
2.5
1002
{
1002
}
1000
DIMCEN
1070
     2
1040
0.0
1002
{
1002
}
1000
DIMDEC
1070
     1
1070
     2
1002
{
1002
}
1000
DIMDLI
1070
     2
1040
7.0
1002
{
1002
}
1000
DIMEXE
1070
     2
1040
1.0
1002
{
1002
}
1000
DIMEXO
1070
     2
1040
1.0
1002
{
1002
}
1000
DIMGAP
1070
     2
1040
0.6
1002
{
1002
}
1000
DIMTDEC
1070
     1
1070
     3
1002
{
1002
}
1000
DIMTXT
1070
     2
1040
3.5
1002
{
1002
}
1000
DIMZIN
1070
     1
1070
     8
1002
{
1002
}
1002
}
1000
I
1070
     0
1002
{
1000
DIMALTF
1070
     2
1040
25.4
1002
{
1002
}
1000
DIMAPOST
1070
     4
1000
mm
1002
{
1002
}
1000
DIMASZ
1070
     2
1040
0.1
1002
{
1002
}
1000
DIMCEN
1070
     2
1040
0.0
1002
{
1002
}
1000
DIMDEC
1070
     1
1070
     4
1002
{
1002
}
1000
DIMDLI
1070
     2
1040
0.5
1002
{
1002
}
1000
DIMEXE
1070
     2
1040
0.1
1002
{
1002
}
1000
DIMEXO
1070
     2
1040
0.05
1002
{
1002
}
1000
DIMGAP
1070
     2
1040
0.06
1002
{
1002
}
1000
DIMTDEC
1070
     1
1070
     4
1002
{
1002
}
1000
DIMTXT
1070
     2
1040
0.12
1002
{
1002
}
1000
DIMZIN
1070
     1
1070
     7
1002
{
1002
}
1002
}
1000
GEN-ISO
1070
     5
1002
{
1000
NAME
1070
     4
1000
GEN-ISO
1002
{
1002
}
1000
DIMTAD
1070
     1
1070
     1
1002
{
1002
}
1000
DIMTOLJ
1070
     1
1070
     0
1002
{
1002
}
1000
DIMTOFL
1070
     1
1070
     1
1002
{
1002
}
1000
M
1070
     0
1002
{
1002
}
1000
I
1070
     0
1002
{
1002
}
1002
}
1000
GEN-ISO-POS
1070
     5
1002
{
1000
NAME
1070
     4
1000
GEN-ISO-POS
1002
{
1002
}
1000
DIMTOLJ
1070
     1
1070
     0
1002
{
1002
}
1000
DIMTXSTY
1070
     4
1000
STANDARD
1002
{
1002
}
1000
M
1070
     0
1002
{
1000
DIMASZ
1070
     2
1040
2.5
1002
{
1002
}
1000
DIMGAP
1070
     2
1040
1.5
1002
{
1002
}
1000
DIMTXT
1070
     2
1040
5.0
1002
{
1002
}
1002
}
1000
I
1070
     0
1002
{
1000
DIMASZ
1070
     2
1040
0.1
1002
{
1002
}
1000
DIMGAP
1070
     2
1040
0.06
1002
{
1002
}
1000
DIMTXT
1070
     2
1040
0.2
1002
{
1002
}
1002
}
1002
}
1000
GEN-ISO-CIR
1070
     5
1002
{
1000
NAME
1070
     4
1000
GEN-ISO$3
1002
{
1002
}
1000
DIMFIT
1070
     1
1070
     0
1002
{
1002
}
1000
DIMTAD
1070
     1
1070
     1
1002
{
1002
}
1000
DIMTOH
1070
     1
1070
     1
1002
{
1002
}
1000
DIMTOLJ
1070
     1
1070
     0
1002
{
1002
}
1000
DIMUPT
1070
     1
1070
     1
1002
{
1002
}
1000
M
1070
     0
1002
{
1002
}
1000
I
1070
     0
1002
{
1002
}
1002
}
1000
GEN-ISO-RAD
1070
     5
1002
{
1000
NAME
1070
     4
1000
GEN-ISO$4
1002
{
1002
}
1000
DIMFIT
1070
     1
1070
     0
1002
{
1002
}
1000
DIMTAD
1070
     1
1070
     1
1002
{
1002
}
1000
DIMTIH
1070
     1
1070
     0
1002
{
1002
}
1000
DIMTIX
1070
     1
1070
     0
1002
{
1002
}
1000
DIMTOH
1070
     1
1070
     1
1002
{
1002
}
1000
DIMTOLJ
1070
     1
1070
     0
1002
{
1002
}
1000
DIMTOFL
1070
     1
1070
     0
1002
{
1002
}
1000
DIMUPT
1070
     1
1070
     1
1002
{
1002
}
1000
M
1070
     0
1002
{
1002
}
1000
I
1070
     0
1002
{
1002
}
1002
}
1000
GEN-ISO-ORD
1070
     5
1002
{
1000
NAME
1070
     4
1000
GEN-ISO$6
1002
{
1002
}
1000
DIMTOLJ
1070
     1
1070
     0
1002
{
1002
}
1000
M
1070
     0
1002
{
1002
}
1000
I
1070
     0
1002
{
1002
}
1002
}
1000
GEN-ISO-AXE-F
1070
     5
1002
{
1000
NAME
1070
     4
1000
GEN-ISO-AXE-F
1002
{
1002
}
1000
DIMSE1
1070
     1
1070
     1
1002
{
1002
}
1000
DIMSE2
1070
     1
1070
     1
1002
{
1002
}
1000
DIMTAD
1070
     1
1070
     1
1002
{
1002
}
1000
DIMTOLJ
1070
     1
1070
     0
1002
{
1002
}
1000
DIMTOFL
1070
     1
1070
     1
1002
{
1002
}
1000
M
1070
     0
1002
{
1002
}
1000
I
1070
     0
1002
{
1002
}
1002
}
1000
GEN-ISO-AXE-H
1070
     5
1002
{
1000
NAME
1070
     4
1000
GEN-ISO-AXE-H
1002
{
1002
}
1000
DIMBLK1
1070
     4
1000
GENAXEH
1002
{
1002
}
1000
DIMLFAC
1070
     2
1040
2.0
1002
{
1002
}
1000
DIMSAH
1070
     1
1070
     1
1002
{
1002
}
1000
DIMSE1
1070
     1
1070
     1
1002
{
1002
}
1000
DIMSE2
1070
     1
1070
     1
1002
{
1002
}
1000
DIMTAD
1070
     1
1070
     1
1002
{
1002
}
1000
DIMTOLJ
1070
     1
1070
     0
1002
{
1002
}
1000
DIMTOFL
1070
     1
1070
     1
1002
{
1002
}
1000
M
1070
     0
1002
{
1002
}
1000
I
1070
     0
1002
{
1002
}
1002
}
1000
GEN-ANSI
1070
     5
1002
{
1000
NAME
1070
     4
1000
GEN-ANSI
1002
{
1002
}
1000
DIMTIH
1070
     1
1070
     1
1002
{
1002
}
1000
DIMTOH
1070
     1
1070
     1
1002
{
1002
}
1000
DIMTAD
1070
     1
1070
     0
1002
{
1002
}
1000
DIMTOLJ
1070
     1
1070
     1
1002
{
1002
}
1000
M
1070
     0
1002
{
1002
}
1000
I
1070
     0
1002
{
1002
}
1002
}
1000
GEN-ANSI-POS
1070
     5
1002
{
1000
NAME
1070
     4
1000
GEN-ANSI-POS
1002
{
1002
}
1000
DIMTOLJ
1070
     1
1070
     1
1002
{
1002
}
1000
DIMTXSTY
1070
     4
1000
STANDARD
1002
{
1002
}
1000
M
1070
     0
1002
{
1000
DIMASZ
1070
     2
1040
2.5
1002
{
1002
}
1000
DIMGAP
1070
     2
1040
1.5
1002
{
1002
}
1000
DIMTXT
1070
     2
1040
5.0
1002
{
1002
}
1002
}
1000
I
1070
     0
1002
{
1000
DIMASZ
1070
     2
1040
0.1
1002
{
1002
}
1000
DIMGAP
1070
     2
1040
0.06
1002
{
1002
}
1000
DIMTXT
1070
     2
1040
0.2
1002
{
1002
}
1002
}
1002
}
1000
GEN-ANSI-CIR
1070
     5
1002
{
1000
NAME
1070
     4
1000
GEN-ANSI$3
1002
{
1002
}
1000
DIMFIT
1070
     1
1070
     0
1002
{
1002
}
1000
DIMTAD
1070
     1
1070
     0
1002
{
1002
}
1000
DIMTIH
1070
     1
1070
     1
1002
{
1002
}
1000
DIMTIX
1070
     1
1070
     0
1002
{
1002
}
1000
DIMTOFL
1070
     1
1070
     0
1002
{
1002
}
1000
DIMTOH
1070
     1
1070
     1
1002
{
1002
}
1000
DIMTOLJ
1070
     1
1070
     1
1002
{
1002
}
1000
DIMUPT
1070
     1
1070
     1
1002
{
1002
}
1000
M
1070
     0
1002
{
1002
}
1000
I
1070
     0
1002
{
1002
}
1002
}
1000
GEN-ANSI-RAD
1070
     5
1002
{
1000
NAME
1070
     4
1000
GEN-ANSI$4
1002
{
1002
}
1000
DIMFIT
1070
     1
1070
     0
1002
{
1002
}
1000
DIMTAD
1070
     1
1070
     0
1002
{
1002
}
1000
DIMTIH
1070
     1
1070
     1
1002
{
1002
}
1000
DIMTIX
1070
     1
1070
     0
1002
{
1002
}
1000
DIMTOFL
1070
     1
1070
     0
1002
{
1002
}
1000
DIMTOH
1070
     1
1070
     1
1002
{
1002
}
1000
DIMTOLJ
1070
     1
1070
     1
1002
{
1002
}
1000
DIMUPT
1070
     1
1070
     1
1002
{
1002
}
1000
M
1070
     0
1002
{
1002
}
1000
I
1070
     0
1002
{
1002
}
1002
}
1000
GEN-ANSI-ORD
1070
     5
1002
{
1000
NAME
1070
     4
1000
GEN-ANSI$6
1002
{
1002
}
1000
DIMTAD
1070
     1
1070
     0
1002
{
1002
}
1000
DIMTIH
1070
     1
1070
     1
1002
{
1002
}
1000
DIMTOH
1070
     1
1070
     1
1002
{
1002
}
1000
DIMTOLJ
1070
     1
1070
     1
1002
{
1002
}
1000
M
1070
     0
1002
{
1002
}
1000
I
1070
     0
1002
{
1002
}
1002
}
1000
GEN-ANSI-AXE-F
1070
     5
1002
{
1000
NAME
1070
     4
1000
GEN-ANSI-AXE-F
1002
{
1002
}
1000
DIMBLK1
1070
     4
1000
GENAXEH
1002
{
1002
}
1000
DIMSAH
1070
     1
1070
     1
1002
{
1002
}
1000
DIMSE1
1070
     1
1070
     1
1002
{
1002
}
1000
DIMSE2
1070
     1
1070
     1
1002
{
1002
}
1000
DIMTAD
1070
     1
1070
     0
1002
{
1002
}
1000
DIMTIH
1070
     1
1070
     1
1002
{
1002
}
1000
DIMTOH
1070
     1
1070
     1
1002
{
1002
}
1000
DIMTOLJ
1070
     1
1070
     1
1002
{
1002
}
1000
M
1070
     0
1002
{
1002
}
1000
I
1070
     0
1002
{
1002
}
1002
}
1000
GEN-ANSI-AXE-H
1070
     5
1002
{
1000
NAME
1070
     4
1000
GEN-ANSI-AXE-H
1002
{
1002
}
1000
DIMBLK1
1070
     4
1000
GENAXEH
1002
{
1002
}
1000
DIMLFAC
1070
     2
1040
2.0
1002
{
1002
}
1000
DIMSAH
1070
     1
1070
     1
1002
{
1002
}
1000
DIMSE1
1070
     1
1070
     1
1002
{
1002
}
1000
DIMSE2
1070
     1
1070
     1
1002
{
1002
}
1000
DIMTAD
1070
     1
1070
     0
1002
{
1002
}
1000
DIMTOFL
1070
     1
1070
     1
1002
{
1002
}
1000
DIMTOLJ
1070
     1
1070
     1
1002
{
1002
}
1000
M
1070
     0
1002
{
1002
}
1000
I
1070
     0
1002
{
1002
}
1002
}
1002
}
1000
DimSet
1070
     0
1002
{
1000
ChainSum
1070
     3
1070
     0
1002
{
1002
}
1000
DimDclTyp0
1070
     4
1000
dim23
1002
{
1002
}
1000
HorBra
1070
     3
1070
     0
1002
{
1002
}
1000
StrDia
1070
     4
1000
%%c<>
1002
{
1002
}
1000
StrRad
1070
     4
1000
R<>
1002
{
1002
}
1000
TextMinus
1070
     4
1000
<>
1002
{
1002
}
1000
TextPlus
1070
     4
1000
<>
1002
{
1002
}
1000
M
1070
     0
1002
{
1000
DimdliFirst
1070
     2
1040
10.0
1002
{
1002
}
1000
PointMakeDist
1070
     2
1040
10.0
1002
{
1002
}
1002
}
1000
I
1070
     0
1002
{
1000
DimdliFirst
1070
     2
1040
0.5
1002
{
1002
}
1000
PointMakeDist
1070
     2
1040
0.5
1002
{
1002
}
1002
}
1000
FitGrade
1070
     4
1000
h7
1002
{
1002
}
1002
}
1000
Drawing
1070
     0
1002
{
1000
ChamferDimMode
1070
     1
1070
     2
1002
{
1002
}
1000
Gen_Fiso
1070
    -3
1040
1.0
1002
{
1002
}
1000
GenDimStil
1070
     4
1000
ISO
1002
{
1002
}
1000
GenDwgUScale
1070
     2
1040
1.0
1002
{
1002
}
1000
GenInch
1070
     4
1000
M
1002
{
1002
}
1000
GenPlotScale
1070
     4
1000
1:5
1002
{
1002
}
1000
Revisi
1070
     4
1000
0
1002
{
1002
}
1000
Version
1070
    -5
1000
14.01/Apr  1 1998
1002
{
1002
}
1000
Platform
1070
    -5
1000
WINNT
1002
{
1002
}
1002
}
1000
DwgVar
1070
     0
1002
{
1000
M
1070
     0
1002
{
1002
}
1000
I
1070
     0
1002
{
1002
}
1002
}
1000
Hatch
1070
     0
1002
{
1000
GenHtcFlag
1070
     3
1070
     0
1002
{
1002
}
1002
}
1000
Info_Pos
1070
     0
1002
{
1000
>
1002
}
1000
Layer
1070
     6
1002
{
1000
Defs
1070
     0
1002
{
1000
>
1002
}
1000
EntSort
1070
     0
1002
{
1000
>
1002
}
1000
Match
1070
     0
1002
{
1002
}
1000
Settings
1070
     0
1002
{
1000
FocGrNC
1070
     3
1070
     0
1002
{
1002
}
1000
FocGrLo
1070
     3
1070
     0
1002
{
1002
}
1000
FocLoNC
1070
     3
1070
     0
1002
{
1002
}
1000
FocusCol
1070
     1
1070
   253
1002
{
1002
}
1000
GenStdLG
1070
     4
1000

1002
{
1002
}
1000
LayMatch
1070
     3
1070
     0
1002
{
1002
}
1000
LgOff
1070
     3
1070
     0
1002
{
1002
}
1000
CurLG
1070
    -5
1000

1002
{
1002
}
1002
}
1002
}
1000
LType
1070
     0
1002
{
1000
GEN3
1070
     7
1000
genius.lin
1002
{
1002
}
1000
GEN7
1070
     7
1000
genius.lin
1002
{
1002
}
1000
GEN4A
1070
     7
1000
genius.lin
1002
{
1002
}
1000
GEN3A
1070
     7
1000
genius.lin
1002
{
1002
}
1000
GEN7A
1070
     7
1000
genius.lin
1002
{
1002
}
1000
GENZIGZAG
1070
     7
1000
genius.lin
1002
{
1002
}
1002
}
1000
Objecter
1070
     0
1002
{
1000
CreateGroups
1070
     3
1070
     0
1002
{
1002
}
1000
LaySwitch
1070
     3
1070
     1
1002
{
1002
}
1000
LastObj
1070
    -5
1000
12CB
1002
{
1002
}
1000
TimeStamp
1070
    -5
1000
20020531.15155190
1002
{
1002
}
1002
}
1000
OSWiz
1070
     0
1002
{
1000
Filter
1070
     0
1002
{
1000
HATCH
1070
     8
1002
{
1000
EntityType
1070
     4
1000
LINE
1002
{
1002
}
1000
Layer
1070
     4
1000
8,8N,*-8,*-8N
1002
{
1002
}
1000
Linetype
1070
     4
1000
*
1002
{
1002
}
1000
Color
1070
     4
1000
*
1002
{
1002
}
1000
ApplyInDims
1070
     3
1070
     1
1002
{
1002
}
1002
}
1000
SYMBOLS
1070
     8
1002
{
1000
EntityType
1070
     4
1000
*
1002
{
1002
}
1000
Layer
1070
     4
1000
[5-6],[5-6]N,*-[5-6],*-[5-6]N
1002
{
1002
}
1000
Linetype
1070
     4
1000
*
1002
{
1002
}
1000
Color
1070
     4
1000
*
1002
{
1002
}
1000
ApplyInDims
1070
     3
1070
     1
1002
{
1002
}
1002
}
1000
FEM
1070
     8
1002
{
1000
EntityType
1070
     4
1000
*
1002
{
1002
}
1000
Layer
1070
     4
1000
4A,4AN,*-4A,*-4AN
1002
{
1002
}
1000
Linetype
1070
     4
1000
*
1002
{
1002
}
1000
Color
1070
     4
1000
*
1002
{
1002
}
1000
ApplyInDims
1070
     3
1070
     1
1002
{
1002
}
1002
}
1002
}
1002
}
1000
PaList
1070
     0
1002
{
1000
AutoUpdatePartList
1070
     1
1070
     0
1002
{
1002
}
1000
ReadInfoPoint
1070
     3
1070
     0
1002
{
1002
}
1000
ReadPosNr
1070
     3
1070
     1
1002
{
1002
}
1000
RevStr
1070
     4
1000
0
1002
{
1002
}
1002
}
1000
Paper
1070
     0
1002
{
1002
}
1000
PartDB
1070
     0
1002
{
1000
GenDbOwner
1070
     4
1000

1002
{
1002
}
1002
}
1000
System
1070
     0
1002
{
1000
Menu
1070
     4
1000
GEV
1002
{
1002
}
1002
}
1000
Title
1070
     0
1002
{
1000
MakeView
1070
     1
1070
     2
1002
{
1002
}
1002
}
1000
Tools
1070
     0
1002
{
1000
Trans
1070
     0
1002
{
1000
Drawingtranslation
1070
    -4
1070
     1
1002
{
1002
}
1000
upreserve
1070
     3
1070
     0
1002
{
1002
}
1000
originally_on
1070
    -4
1070
     0
1002
{
1002
}
1000
sourcelang
1070
    -5
1000
D
1002
{
1002
}
1002
}
1002
}
  0
APPID
  5
1299
330
122B
100
AcDbSymbolTableRecord
100
AcDbRegAppTableRecord
  2
GENIUS_GEVCFG0_13
 70
     0
1001
GENIUS_GENCFG_13
1071
1022850957
1000
1299
1000
GEV
1070
     1
1000
GenCfgObject
1000
VED
1070
     0
1002
{
1002
}
  0
APPID
  5
129A
330
122B
100
AcDbSymbolTableRecord
100
AcDbRegAppTableRecord
  2
GEV_VCCNULL_SWITCH_OFF
 70
     0
  0
APPID
  5
129B
330
122B
100
AcDbSymbolTableRecord
100
AcDbRegAppTableRecord
  2
GENIUS_GENDTOL_13
 70
     0
  0
APPID
  5
129C
330
122B
100
AcDbSymbolTableRecord
100
AcDbRegAppTableRecord
  2
GENIUS_GENOENT_13
 70
     0
  0
APPID
  5
129D
330
122B
100
AcDbSymbolTableRecord
100
AcDbRegAppTableRecord
  2
GENIUS_GENBLLY_14
 70
     0
  0
APPID
  5
129E
330
122B
100
AcDbSymbolTableRecord
100
AcDbRegAppTableRecord
  2
GENIUS_GENODEF_13
 70
     0
  0
APPID
  5
129F
330
122B
100
AcDbSymbolTableRecord
100
AcDbRegAppTableRecord
  2
GENIUS_GENOBJ-N-CRS_13
 70
     0
  0
APPID
  5
12A0
330
122B
100
AcDbSymbolTableRecord
100
AcDbRegAppTableRecord
  2
GENIUS_GENOREF_13
 70
     0
  0
APPID
  5
12A1
330
122B
100
AcDbSymbolTableRecord
100
AcDbRegAppTableRecord
  2
GENIUS_GENOLIS_13
 70
     0
  0
APPID
  5
12A2
330
122B
100
AcDbSymbolTableRecord
100
AcDbRegAppTableRecord
  2
GENIUS_GEFCFG0_13
 70
     0
  0
APPID
  5
12A3
330
122B
100
AcDbSymbolTableRecord
100
AcDbRegAppTableRecord
  2
GENIUS_VERSION2
 70
     0
  0
APPID
  5
12A4
330
122B
100
AcDbSymbolTableRecord
100
AcDbRegAppTableRecord
  2
GENIUS_GENREC_14
 70
     0
  0
APPID
  5
12A5
330
122B
100
AcDbSymbolTableRecord
100
AcDbRegAppTableRecord
  2
GENIUS_GENOBJ-N-REC_13
 70
     0
  0
APPID
  5
12A6
330
122B
100
AcDbSymbolTableRecord
100
AcDbRegAppTableRecord
  2
GENIUS_GENOBJ-N-TIT_13
 70
     0
  0
APPID
  5
12A7
330
122B
100
AcDbSymbolTableRecord
100
AcDbRegAppTableRecord
  2
GENIUS_GENTITLE_13
 70
     0
  0
APPID
  5
12A8
330
122B
100
AcDbSymbolTableRecord
100
AcDbRegAppTableRecord
  2
GENIUS_GENZVEED_13
 70
     0
  0
APPID
  5
12A9
330
122B
100
AcDbSymbolTableRecord
100
AcDbRegAppTableRecord
  2
GENIUS_GENOBJ-N-SDF_13
 70
     0
  0
APPID
  5
12AA
330
122B
100
AcDbSymbolTableRecord
100
AcDbRegAppTableRecord
  2
GENIUS_GENSCREG_13
 70
     0
  0
APPID
  5
12AB
330
122B
100
AcDbSymbolTableRecord
100
AcDbRegAppTableRecord
  2
GENIUS_GENBLKED_14
 70
     0
  0
APPID
  5
13CE
330
122B
100
AcDbSymbolTableRecord
100
AcDbRegAppTableRecord
  2
MCAD_NO_VIS
 70
     0
  0
APPID
  5
13CF
330
122B
100
AcDbSymbolTableRecord
100
AcDbRegAppTableRecord
  2
ACAD_TEMP_GRAPHIC
 70
     0
  0
APPID
  5
13FF
330
122B
100
AcDbSymbolTableRecord
100
AcDbRegAppTableRecord
  2
AD_DRAW
 70
     0
  0
APPID
  5
1402
330
122B
100
AcDbSymbolTableRecord
100
AcDbRegAppTableRecord
  2
ACATTRIBSERVICES
 70
     0
  0
APPID
  5
1422
330
122B
100
AcDbSymbolTableRecord
100
AcDbRegAppTableRecord
  2
DESIGNERASSEMBLIES
 70
     0
  0
APPID
  5
1428
330
122B
100
AcDbSymbolTableRecord
100
AcDbRegAppTableRecord
  2
ACADM_DIM_EDIT
 70
     0
  0
APPID
  5
1429
330
122B
100
AcDbSymbolTableRecord
100
AcDbRegAppTableRecord
  2
AMDT_DM_ADJ
 70
     0
  0
APPID
  5
145B
330
122B
100
AcDbSymbolTableRecord
100
AcDbRegAppTableRecord
  2
ACAD_DSTYLE_DIMARC_LENGTH_SYMBOL
 70
     0
  0
APPID
  5
145C
330
122B
100
AcDbSymbolTableRecord
100
AcDbRegAppTableRecord
  2
ACAD_DSTYLE_DIMJOGGED_JOGANGLE_SYMBOL
 70
     0
  0
APPID
  5
14A2
330
122B
100
AcDbSymbolTableRecord
100
AcDbRegAppTableRecord
  2
AcAecLayerStandard
 70
     0
  0
APPID
  5
14AB
330
122B
100
AcDbSymbolTableRecord
100
AcDbRegAppTableRecord
  2
GENIUS_GENOBJ-N-HTC_13
 70
     0
  0
APPID
  5
14AC
330
122B
100
AcDbSymbolTableRecord
100
AcDbRegAppTableRecord
  2
GENIUS_GENHATCH_13
 70
     0
  0
APPID
  5
157D
330
122B
100
AcDbSymbolTableRecord
100
AcDbRegAppTableRecord
  2
GENIUS_GENOBJ-N-CEN_13
 70
     0
  0
APPID
  5
160F
330
122B
100
AcDbSymbolTableRecord
100
AcDbRegAppTableRecord
  2
GENIUS_GENCEN_19
 70
     0
  0
APPID
  5
162E
330
122B
100
AcDbSymbolTableRecord
100
AcDbRegAppTableRecord
  2
GENIUS_GENDIMSH_14
 70
     0
  0
ENDTAB
  0
TABLE
  2
DIMSTYLE
  5
122C
330
0
100
AcDbSymbolTable
 70
    11
100
AcDbDimStyleTable
 71
     1
340
1252
  0
DIMSTYLE
105
1252
102
{ACAD_REACTORS
330
1175
330
116B
330
15E7
102
}
330
122C
100
AcDbSymbolTableRecord
100
AcDbDimStyleTableRecord
  2
GEN-ISO
 70
     0
  4
"
 40
5.0
 41
2.5
 42
1.0
 43
7.0
 44
1.0
 47
0.1
 48
0.1
 73
     0
 74
     0
 77
     1
 78
     8
140
3.5
141
0.0
143
0.03937
146
0.71
147
0.6
172
     1
176
   256
177
   256
178
     2
271
     2
272
     3
274
     4
283
     0
340
1231
  0
DIMSTYLE
105
145A
330
122C
100
AcDbSymbolTableRecord
100
AcDbDimStyleTableRecord
  2
AM_DIN
 70
     0
  4
"
 41
2.5
 42
1.0
 43
10.0
 44
1.0
 47
0.1
 48
0.1
 73
     0
 74
     0
 77
     1
 78
     8
 79
     2
140
3.5
141
0.0
143
0.0393701
146
0.71
147
1.5
172
     1
176
   256
177
   256
178
     2
271
     2
272
     3
274
     4
283
     0
284
     8
340
1231
371
    -1
372
    -1
1001
ACAD_DSTYLE_DIMARC_LENGTH_SYMBOL
1070
   379
1070
     0
1001
ACAD_DSTYLE_DIMJOGGED_JOGANGLE_SYMBOL
1070
   384
1040
1.570796326794896
  0
DIMSTYLE
105
146B
330
122C
100
AcDbSymbolTableRecord
100
AcDbDimStyleTableRecord
  2
AM_DIN$3
 70
     0
  4
"
 41
2.5
 42
1.0
 43
10.0
 44
1.0
 47
0.1
 48
0.1
 73
     0
 77
     1
 78
     8
 79
     2
140
3.5
141
0.0
143
0.0393701
146
0.71
147
1.5
176
   256
177
   256
178
     2
271
     2
272
     3
274
     4
283
     0
284
     8
288
     1
289
     0
340
1231
371
    -1
372
    -1
1001
ACAD_DSTYLE_DIMARC_LENGTH_SYMBOL
1070
   379
1070
     0
1001
ACAD_DSTYLE_DIMJOGGED_JOGANGLE_SYMBOL
1070
   384
1040
1.570796326794896
  0
DIMSTYLE
105
1470
330
122C
100
AcDbSymbolTableRecord
100
AcDbDimStyleTableRecord
  2
AM_DIN$4
 70
     0
  4
"
 41
2.5
 42
1.0
 43
10.0
 44
1.0
 47
0.1
 48
0.1
 73
     0
 77
     1
 78
     8
 79
     2
140
3.5
141
0.0
143
0.0393701
146
0.71
147
1.5
176
   256
177
   256
178
     2
271
     2
272
     3
274
     4
283
     0
284
     8
288
     1
289
     0
340
1231
371
    -1
372
    -1
1001
ACAD_DSTYLE_DIMARC_LENGTH_SYMBOL
1070
   379
1070
     0
1001
ACAD_DSTYLE_DIMJOGGED_JOGANGLE_SYMBOL
1070
   384
1040
1.570796326794896
  0
DIMSTYLE
105
1475
330
122C
100
AcDbSymbolTableRecord
100
AcDbDimStyleTableRecord
  2
AM_DIN$6
 70
     0
  4
"
 41
2.5
 42
1.0
 43
10.0
 44
1.0
 47
0.1
 48
0.1
 73
     0
 74
     0
 78
     8
 79
     2
140
3.5
141
0.0
143
0.0393701
146
0.71
147
1.5
172
     1
176
   256
177
   256
178
     2
271
     2
272
     3
274
     4
283
     0
284
     8
340
1231
371
    -1
372
    -1
1001
ACAD_DSTYLE_DIMARC_LENGTH_SYMBOL
1070
   379
1070
     0
1001
ACAD_DSTYLE_DIMJOGGED_JOGANGLE_SYMBOL
1070
   384
1040
1.570796326794896
  0
DIMSTYLE
105
147A
330
122C
100
AcDbSymbolTableRecord
100
AcDbDimStyleTableRecord
  2
AM_DIN$7
 70
     0
  4
"
 41
2.5
 42
1.0
 43
10.0
 44
1.0
 47
0.1
 48
0.1
 73
     0
 74
     0
 77
     1
 78
     8
 79
     2
140
5.0
141
0.0
143
0.0393701
146
0.71
147
1.5
172
     1
176
   256
177
   256
178
     2
271
     2
272
     3
274
     4
283
     0
284
     8
340
1231
371
    -1
372
    -1
1001
ACAD_DSTYLE_DIMARC_LENGTH_SYMBOL
1070
   379
1070
     0
1001
ACAD_DSTYLE_DIMJOGGED_JOGANGLE_SYMBOL
1070
   384
1040
1.570796326794896
  0
DIMSTYLE
105
147F
330
122C
100
AcDbSymbolTableRecord
100
AcDbDimStyleTableRecord
  2
AM_DIN$SF
 70
     0
  4
"
 41
2.5
 42
1.0
 43
10.0
 44
1.0
 47
0.1
 48
0.1
 73
     0
 74
     0
 75
     1
 76
     1
 77
     1
 78
     8
 79
     2
140
3.5
141
0.0
143
0.0393701
146
0.71
147
1.5
172
     1
176
   256
177
   256
178
     2
271
     2
272
     3
274
     4
283
     0
284
     8
340
1231
371
    -1
372
    -1
1001
ACAD_DSTYLE_DIMARC_LENGTH_SYMBOL
1070
   379
1070
     0
1001
ACAD_DSTYLE_DIMJOGGED_JOGANGLE_SYMBOL
1070
   384
1040
1.570796326794896
  0
DIMSTYLE
105
1488
330
122C
100
AcDbSymbolTableRecord
100
AcDbDimStyleTableRecord
  2
AM_DIN$SH
 70
     0
  4
"
 41
2.5
 42
1.0
 43
10.0
 44
1.0
 47
0.1
 48
0.1
 73
     0
 74
     0
 75
     1
 76
     1
 77
     1
 78
     8
 79
     2
140
3.5
141
0.0
143
0.0393701
144
2.0
146
0.71
147
1.5
172
     1
173
     1
176
   256
177
   256
178
     2
271
     2
272
     3
274
     4
283
     0
284
     8
340
1231
343
1480
371
    -1
372
    -1
1001
ACAD_DSTYLE_DIMARC_LENGTH_SYMBOL
1070
   379
1070
     0
1001
ACAD_DSTYLE_DIMJOGGED_JOGANGLE_SYMBOL
1070
   384
1040
1.570796326794896
  0
ENDTAB
  0
TABLE
  2
BLOCK_RECORD
  5
1223
330
0
100
AcDbSymbolTable
 70
    25
  0
BLOCK_RECORD
  5
123A
102
{ACAD_XDICTIONARY
360
14A8
102
}
330
1223
100
AcDbSymbolTableRecord
100
AcDbBlockTableRecord
  2
*MODEL_SPACE
340
13C6
  0
BLOCK_RECORD
  5
1237
330
1223
100
AcDbSymbolTableRecord
100
AcDbBlockTableRecord
  2
*PAPER_SPACE
340
13C7
  0
BLOCK_RECORD
  5
1269
330
1223
100
AcDbSymbolTableRecord
100
AcDbBlockTableRecord
  2
KATALOG_LEER
340
0
102
{BLKREFS
331
12AD
331
12CA
102
}
  0
BLOCK_RECORD
  5
12DA
330
1223
100
AcDbSymbolTableRecord
100
AcDbBlockTableRecord
  2
*D14
340
0
  0
BLOCK_RECORD
  5
12F1
330
1223
100
AcDbSymbolTableRecord
100
AcDbBlockTableRecord
  2
*D15
340
0
  0
BLOCK_RECORD
  5
1480
330
1223
100
AcDbSymbolTableRecord
100
AcDbBlockTableRecord
  2
GENAXEH
340
0
  0
BLOCK_RECORD
  5
15E8
330
1223
100
AcDbSymbolTableRecord
100
AcDbBlockTableRecord
  2
*D23
340
0
  0
ENDTAB
  0
ENDSEC
  0
SECTION
  2
BLOCKS
  0
BLOCK
  5
123B
330
123A
100
AcDbEntity
  8
0
100
AcDbBlockBegin
  2
*MODEL_SPACE
 70
     0
 10
0.0
 20
0.0
 30
0.0
  3
*MODEL_SPACE
  1

  0
ENDBLK
  5
123C
330
123A
100
AcDbEntity
  8
0
100
AcDbBlockEnd
  0
BLOCK
  5
1238
330
1237
100
AcDbEntity
 67
     1
  8
0
100
AcDbBlockBegin
  2
*PAPER_SPACE
 70
     0
 10
0.0
 20
0.0
 30
0.0
  3
*PAPER_SPACE
  1

  0
ENDBLK
  5
1239
330
1237
100
AcDbEntity
 67
     1
  8
0
100
AcDbBlockEnd
  0
BLOCK
  5
126A
330
1269
100
AcDbEntity
  8
0
100
AcDbBlockBegin
  2
KATALOG_LEER
 70
     0
 10
0.0
 20
0.0
 30
0.0
  3
KATALOG_LEER
  1

  0
ENDBLK
  5
126B
330
1269
100
AcDbEntity
  8
0
100
AcDbBlockEnd
  0
BLOCK
  5
13A1
330
12DA
100
AcDbEntity
  8
0
100
AcDbBlockBegin
  2
*D14
 70
     1
 10
0.0
 20
0.0
 30
0.0
  3
*D14
  1
GEVFRAME
  0
LINE
  5
162F
330
12DA
100
AcDbEntity
  8
5
370
    -2
100
AcDbLine
 10
294.201471
 20
407.02282
 30
0.0
 11
294.201471
 21
463.2914624110076
 31
0.0
  0
LINE
  5
1630
330
12DA
100
AcDbEntity
  8
5
370
    -2
100
AcDbLine
 10
494.507471
 20
407.02282
 30
0.0
 11
494.507471
 21
463.2914624110076
 31
0.0
  0
LINE
  5
1631
330
12DA
100
AcDbEntity
  8
5
370
    -2
100
AcDbLine
 10
319.201471
 20
458.2914624110075
 30
0.0
 11
469.507471
 21
458.2914624110075
 31
0.0
  0
SOLID
  5
1632
330
12DA
100
AcDbEntity
  8
5
100
AcDbTrace
 10
319.201471
 20
462.4581290776742
 30
0.0
 11
319.201471
 21
454.1247957443409
 31
0.0
 12
294.201471
 22
458.2914624110075
 32
0.0
 13
294.201471
 23
458.2914624110075
 33
0.0
  0
SOLID
  5
1633
330
12DA
100
AcDbEntity
  8
5
100
AcDbTrace
 10
469.507471
 20
462.4581290776742
 30
0.0
 11
469.507471
 21
454.1247957443409
 31
0.0
 12
494.507471
 22
458.2914624110075
 32
0.0
 13
494.507471
 23
458.2914624110075
 33
0.0
  0
MTEXT
  5
1634
330
12DA
100
AcDbEntity
  8
5
 62
     2
100
AcDbMText
 10
394.354471
 20
470.0431848519524
 30
0.0
 40
17.5
 41
0.0
 71
     5
 72
     1
  1
{\Fgeniso.shx|c0;\U+25A1}200
 73
     1
 44
1.0
1001
ACAD
1000
MTEXTBEGIN
1070
    73
1070
     1
1070
    44
1040
1.0
1070
    74
1070
     0
1000
MTEXTEND
  0
POINT
  5
1635
330
12DA
100
AcDbEntity
  8
DEFPOINTS
 62
     0
100
AcDbPoint
 10
294.201471
 20
402.02282
 30
0.0
  0
POINT
  5
1636
330
12DA
100
AcDbEntity
  8
DEFPOINTS
 62
     0
100
AcDbPoint
 10
494.507471
 20
402.02282
 30
0.0
  0
POINT
  5
1637
330
12DA
100
AcDbEntity
  8
DEFPOINTS
 62
     0
100
AcDbPoint
 10
494.507471
 20
458.2914624110075
 30
0.0
  0
ENDBLK
  5
13AB
330
12DA
100
AcDbEntity
  8
0
100
AcDbBlockEnd
  0
BLOCK
  5
1361
330
12F1
100
AcDbEntity
  8
0
100
AcDbBlockBegin
  2
*D15
 70
     1
 10
0.0
 20
0.0
 30
0.0
  3
*D15
  1

  0
LINE
  5
1552
330
12F1
100
AcDbEntity
  8
5
370
    -2
100
AcDbLine
 10
308.736471
 20
384.02282
 30
0.0
 11
239.201471
 21
384.02282
 31
0.0
  0
LINE
  5
1553
330
12F1
100
AcDbEntity
  8
5
370
    -2
100
AcDbLine
 10
290.354471
 20
424.02282
 30
0.0
 11
239.201471
 21
424.02282
 31
0.0
  0
LINE
  5
1554
330
12F1
100
AcDbEntity
  8
5
370
    -2
100
AcDbLine
 10
244.201471
 20
359.02282
 30
0.0
 11
244.201471
 21
334.02282
 31
0.0
  0
LINE
  5
1555
330
12F1
100
AcDbEntity
  8
5
370
    -2
100
AcDbLine
 10
244.201471
 20
449.02282
 30
0.0
 11
244.201471
 21
474.02282
 31
0.0
  0
LINE
  5
1556
330
12F1
100
AcDbEntity
  8
5
370
    -2
100
AcDbLine
 10
244.201471
 20
384.02282
 30
0.0
 11
244.201471
 21
424.02282
 31
0.0
  0
SOLID
  5
1557
330
12F1
100
AcDbEntity
  8
5
100
AcDbTrace
 10
240.0348043333333
 20
359.02282
 30
0.0
 11
248.3681376666666
 21
359.02282
 31
0.0
 12
244.201471
 22
384.02282
 32
0.0
 13
244.201471
 23
384.02282
 33
0.0
  0
SOLID
  5
1558
330
12F1
100
AcDbEntity
  8
5
100
AcDbTrace
 10
240.0348043333334
 20
449.02282
 30
0.0
 11
248.3681376666667
 21
449.02282
 31
0.0
 12
244.201471
 22
424.02282
 32
0.0
 13
244.201471
 23
424.02282
 33
0.0
  0
MTEXT
  5
1559
330
12F1
100
AcDbEntity
  8
5
 62
     2
100
AcDbMText
 10
232.4514709999999
 20
404.02282
 30
0.0
 40
17.5
 41
0.0
 71
     5
 72
     1
  1
40
 11
0.0000000000000001
 21
1.0
 31
0.0
 73
     1
 44
1.0
1001
ACAD
1000
MTEXTBEGIN
1070
    73
1070
     1
1070
    44
1040
1.0
1070
    74
1070
     0
1000
MTEXTEND
  0
POINT
  5
155A
330
12F1
100
AcDbEntity
  8
DEFPOINTS
 62
     0
100
AcDbPoint
 10
313.736471
 20
384.02282
 30
0.0
  0
POINT
  5
155B
330
12F1
100
AcDbEntity
  8
DEFPOINTS
 62
     0
100
AcDbPoint
 10
295.354471
 20
424.02282
 30
0.0
  0
POINT
  5
155C
330
12F1
100
AcDbEntity
  8
DEFPOINTS
 62
     0
100
AcDbPoint
 10
244.201471
 20
424.02282
 30
0.0
  0
ENDBLK
  5
136B
330
12F1
100
AcDbEntity
  8
0
100
AcDbBlockEnd
  0
BLOCK
  5
1482
330
1480
100
AcDbEntity
  8
0
100
AcDbBlockBegin
  2
GENAXEH
 70
     0
 10
0.0
 20
0.0
 30
0.0
  3
GENAXEH
  1

  0
LINE
  5
1481
330
1480
100
AcDbEntity
  8
0
100
AcDbLine
 10
-1.0
 20
0.0
 30
0.0
 11
1.0
 21
0.0
 31
0.0
  0
ENDBLK
  5
1483
330
1480
100
AcDbEntity
  8
0
100
AcDbBlockEnd
  0
BLOCK
  5
15F4
330
15E8
100
AcDbEntity
  8
0
100
AcDbBlockBegin
  2
*D23
 70
     1
 10
0.0
 20
0.0
 30
0.0
  3
*D23
  1

  0
LINE
  5
1622
330
15E8
100
AcDbEntity
  8
5
370
    -2
100
AcDbLine
 10
441.8544710009
 20
112.6884278984221
 30
0.0
 11
441.8544710009
 21
34.88448787257264
 31
0.0
  0
LINE
  5
1623
330
15E8
100
AcDbEntity
  8
5
370
    -2
100
AcDbLine
 10
451.8544710009001
 20
112.6884278984221
 30
0.0
 11
451.8544710009001
 21
34.88448787257264
 31
0.0
  0
LINE
  5
1624
330
15E8
100
AcDbEntity
  8
5
370
    -2
100
AcDbLine
 10
416.8544710009
 20
39.88448787257264
 30
0.0
 11
391.8544710009001
 21
39.88448787257264
 31
0.0
  0
LINE
  5
1625
330
15E8
100
AcDbEntity
  8
5
370
    -2
100
AcDbLine
 10
476.8544710009001
 20
39.88448787257264
 30
0.0
 11
523.6182505284591
 21
39.88448787257264
 31
0.0
  0
LINE
  5
1626
330
15E8
100
AcDbEntity
  8
5
370
    -2
100
AcDbLine
 10
441.8544710009
 20
39.88448787257264
 30
0.0
 11
451.8544710009001
 21
39.88448787257264
 31
0.0
  0
SOLID
  5
1627
330
15E8
100
AcDbEntity
  8
5
100
AcDbTrace
 10
416.8544710009
 20
44.05115453923929
 30
0.0
 11
416.8544710009
 21
35.71782120590597
 31
0.0
 12
441.8544710009
 22
39.88448787257264
 32
0.0
 13
441.8544710009
 23
39.88448787257264
 33
0.0
  0
SOLID
  5
1628
330
15E8
100
AcDbEntity
  8
5
100
AcDbTrace
 10
476.8544710009001
 20
44.05115453923929
 30
0.0
 11
476.8544710009001
 21
35.71782120590597
 31
0.0
 12
451.8544710009001
 22
39.88448787257264
 32
0.0
 13
451.8544710009001
 23
39.88448787257264
 33
0.0
  0
MTEXT
  5
1629
330
15E8
100
AcDbEntity
  8
5
 62
     2
100
AcDbMText
 10
512.7363607646795
 20
51.63448787257263
 30
0.0
 40
17.5
 41
0.0
 71
     5
 72
     1
  1
10
 73
     1
 44
1.0
1001
ACAD
1000
MTEXTBEGIN
1070
    73
1070
     1
1070
    44
1040
1.0
1070
    74
1070
     0
1000
MTEXTEND
  0
POINT
  5
162A
330
15E8
100
AcDbEntity
  8
DEFPOINTS
 62
     0
100
AcDbPoint
 10
441.8544710009
 20
117.6884278984221
 30
0.0
  0
POINT
  5
162B
330
15E8
100
AcDbEntity
  8
DEFPOINTS
 62
     0
100
AcDbPoint
 10
451.8544710009001
 20
117.6884278984221
 30
0.0
  0
POINT
  5
162C
330
15E8
100
AcDbEntity
  8
DEFPOINTS
 62
     0
100
AcDbPoint
 10
451.8544710009001
 20
39.88448787257264
 30
0.0
  0
ENDBLK
  5
15F5
330
15E8
100
AcDbEntity
  8
0
100
AcDbBlockEnd
  0
ENDSEC
  0
SECTION
  2
ENTITIES
  0
LINE
  5
1001
330
123A
100
AcDbEntity
  8
7
 48
0.7730000000000001
100
AcDbLine
 10
394.354471
 20
434.02282
 30
0.0
 11
394.3544709999999
 21
361.8410777454352
 31
0.0
  0
LINE
  5
1002
330
123A
100
AcDbEntity
  8
0
100
AcDbLine
 10
300.854471
 20
424.02282
 30
0.0
 11
394.354471
 21
424.02282
 31
0.0
  0
LINE
  5
1003
330
123A
100
AcDbEntity
  8
0
100
AcDbLine
 10
388.854471
 20
424.02282
 30
0.0
 11
389.673471
 21
408.39182
 31
0.0
  0
LINE
  5
1004
330
123A
100
AcDbEntity
  8
0
100
AcDbLine
 10
367.854471
 20
424.02282
 30
0.0
 11
368.673471
 21
408.39182
 31
0.0
  0
LINE
  5
1005
330
123A
100
AcDbEntity
  8
0
100
AcDbLine
 10
346.854471
 20
424.02282
 30
0.0
 11
347.673471
 21
408.39182
 31
0.0
  0
LINE
  5
1006
330
123A
100
AcDbEntity
  8
0
100
AcDbLine
 10
325.854471
 20
424.02282
 30
0.0
 11
326.673471
 21
408.39182
 31
0.0
  0
LINE
  5
1007
330
123A
100
AcDbEntity
  8
0
100
AcDbLine
 10
300.854471
 20
424.02282
 30
0.0
 11
301.168471
 21
418.02282
 31
0.0
  0
LINE
  5
1008
330
123A
100
AcDbEntity
  8
0
100
AcDbLine
 10
302.850471
 20
416.50682
 30
0.0
 11
303.275471
 21
408.39182
 31
0.0
  0
LINE
  5
1009
330
123A
100
AcDbEntity
  8
0
100
AcDbLine
 10
301.168471
 20
418.02282
 30
0.0
 11
301.252471
 21
418.02282
 31
0.0
  0
ARC
  5
100A
330
123A
100
AcDbEntity
  8
0
100
AcDbCircle
 10
301.252471
 20
416.42282
 30
0.0
 40
1.6
100
AcDbArc
 50
3.0
 51
90.0
  0
LINE
  5
100B
330
123A
100
AcDbEntity
  8
0
100
AcDbLine
 10
378.034471
 20
408.39182
 30
0.0
 11
378.854471
 21
424.02282
 31
0.0
  0
LINE
  5
100C
330
123A
100
AcDbEntity
  8
0
100
AcDbLine
 10
357.034471
 20
408.39182
 30
0.0
 11
357.854471
 21
424.02282
 31
0.0
  0
LINE
  5
100D
330
123A
100
AcDbEntity
  8
0
100
AcDbLine
 10
336.034471
 20
408.39182
 30
0.0
 11
336.854471
 21
424.02282
 31
0.0
  0
LINE
  5
100E
330
123A
100
AcDbEntity
  8
0
100
AcDbLine
 10
315.034471
 20
408.39182
 30
0.0
 11
315.854471
 21
424.02282
 31
0.0
  0
LINE
  5
100F
330
123A
100
AcDbEntity
  8
0
100
AcDbLine
 10
305.772471
 20
406.02282
 30
0.0
 11
337.475471
 21
406.02282
 31
0.0
  0
LINE
  5
1010
330
123A
100
AcDbEntity
  8
0
100
AcDbLine
 10
392.169471
 20
406.02282
 30
0.0
 11
394.354471
 21
406.02282
 31
0.0
  0
LINE
  5
1011
330
123A
100
AcDbEntity
  8
0
100
AcDbLine
 10
371.169471
 20
406.02282
 30
0.0
 11
375.538471
 21
406.02282
 31
0.0
  0
LINE
  5
1012
330
123A
100
AcDbEntity
  8
0
100
AcDbLine
 10
350.169471
 20
406.02282
 30
0.0
 11
354.538471
 21
406.02282
 31
0.0
  0
ARC
  5
1013
330
123A
100
AcDbEntity
  8
0
100
AcDbCircle
 10
392.169471
 20
408.52282
 30
0.0
 40
2.5
100
AcDbArc
 50
183.0
 51
270.0
  0
ARC
  5
1014
330
123A
100
AcDbEntity
  8
0
100
AcDbCircle
 10
375.538471
 20
408.52282
 30
0.0
 40
2.5
100
AcDbArc
 50
270.0
 51
357.0
  0
ARC
  5
1015
330
123A
100
AcDbEntity
  8
0
100
AcDbCircle
 10
371.169471
 20
408.52282
 30
0.0
 40
2.5
100
AcDbArc
 50
183.0
 51
270.0
  0
ARC
  5
1016
330
123A
100
AcDbEntity
  8
0
100
AcDbCircle
 10
354.538471
 20
408.52282
 30
0.0
 40
2.5
100
AcDbArc
 50
270.0
 51
357.0
  0
ARC
  5
1017
330
123A
100
AcDbEntity
  8
0
100
AcDbCircle
 10
350.169471
 20
408.52282
 30
0.0
 40
2.5
100
AcDbArc
 50
183.0
 51
270.0
  0
ARC
  5
1018
330
123A
100
AcDbEntity
  8
0
100
AcDbCircle
 10
333.538471
 20
408.52282
 30
0.0
 40
2.5
100
AcDbArc
 50
270.0
 51
357.0
  0
ARC
  5
1019
330
123A
100
AcDbEntity
  8
0
100
AcDbCircle
 10
329.169471
 20
408.52282
 30
0.0
 40
2.5
100
AcDbArc
 50
183.0
 51
270.0
  0
ARC
  5
101A
330
123A
100
AcDbEntity
  8
0
100
AcDbCircle
 10
312.538471
 20
408.52282
 30
0.0
 40
2.5
100
AcDbArc
 50
270.0
 51
357.0
  0
ARC
  5
101B
330
123A
100
AcDbEntity
  8
0
100
AcDbCircle
 10
305.772471
 20
408.52282
 30
0.0
 40
2.5
100
AcDbArc
 50
183.0
 51
270.0
  0
LINE
  5
101C
330
123A
100
AcDbEntity
  8
0
100
AcDbLine
 10
487.8544709999999
 20
424.02282
 30
0.0
 11
394.354471
 21
424.02282
 31
0.0
  0
LINE
  5
101D
330
123A
100
AcDbEntity
  8
0
100
AcDbLine
 10
399.854471
 20
424.02282
 30
0.0
 11
399.034471
 21
408.39182
 31
0.0
  0
LINE
  5
101E
330
123A
100
AcDbEntity
  8
0
100
AcDbLine
 10
420.8544709999999
 20
424.02282
 30
0.0
 11
420.034471
 21
408.39182
 31
0.0
  0
LINE
  5
101F
330
123A
100
AcDbEntity
  8
0
100
AcDbLine
 10
441.8544709999999
 20
424.02282
 30
0.0
 11
441.034471
 21
408.39182
 31
0.0
  0
LINE
  5
1020
330
123A
100
AcDbEntity
  8
0
100
AcDbLine
 10
462.8544709999999
 20
424.02282
 30
0.0
 11
462.034471
 21
408.39182
 31
0.0
  0
LINE
  5
1021
330
123A
100
AcDbEntity
  8
0
100
AcDbLine
 10
487.8544709999999
 20
424.02282
 30
0.0
 11
487.539471
 21
418.02282
 31
0.0
  0
LINE
  5
1022
330
123A
100
AcDbEntity
  8
0
100
AcDbLine
 10
485.858471
 20
416.50682
 30
0.0
 11
485.432471
 21
408.39182
 31
0.0
  0
ARC
  5
1023
330
123A
100
AcDbEntity
  8
0
100
AcDbCircle
 10
487.4554709999999
 20
416.42282
 30
0.0
 40
1.6
100
AcDbArc
 50
90.0
 51
177.0
  0
LINE
  5
1024
330
123A
100
AcDbEntity
  8
0
100
AcDbLine
 10
410.673471
 20
408.39182
 30
0.0
 11
409.8544709999999
 21
424.02282
 31
0.0
  0
LINE
  5
1025
330
123A
100
AcDbEntity
  8
0
100
AcDbLine
 10
431.673471
 20
408.39182
 30
0.0
 11
430.8544709999999
 21
424.02282
 31
0.0
  0
LINE
  5
1026
330
123A
100
AcDbEntity
  8
0
100
AcDbLine
 10
452.673471
 20
408.39182
 30
0.0
 11
451.8544709999999
 21
424.02282
 31
0.0
  0
LINE
  5
1027
330
123A
100
AcDbEntity
  8
0
100
AcDbLine
 10
473.673471
 20
408.39182
 30
0.0
 11
472.854471
 21
424.02282
 31
0.0
  0
LINE
  5
1028
330
123A
100
AcDbEntity
  8
0
100
AcDbLine
 10
482.936471
 20
406.02282
 30
0.0
 11
476.1694709999999
 21
406.02282
 31
0.0
  0
LINE
  5
1029
330
123A
100
AcDbEntity
  8
0
100
AcDbLine
 10
396.538471
 20
406.02282
 30
0.0
 11
394.354471
 21
406.02282
 31
0.0
  0
LINE
  5
102A
330
123A
100
AcDbEntity
  8
0
100
AcDbLine
 10
417.538471
 20
406.02282
 30
0.0
 11
413.1694709999999
 21
406.02282
 31
0.0
  0
LINE
  5
102B
330
123A
100
AcDbEntity
  8
0
100
AcDbLine
 10
438.538471
 20
406.02282
 30
0.0
 11
434.1694709999999
 21
406.02282
 31
0.0
  0
ARC
  5
102C
330
123A
100
AcDbEntity
  8
0
100
AcDbCircle
 10
396.538471
 20
408.52282
 30
0.0
 40
2.5
100
AcDbArc
 50
270.0
 51
357.0
  0
ARC
  5
102D
330
123A
100
AcDbEntity
  8
0
100
AcDbCircle
 10
413.1694709999999
 20
408.52282
 30
0.0
 40
2.5
100
AcDbArc
 50
183.0
 51
270.0
  0
ARC
  5
102E
330
123A
100
AcDbEntity
  8
0
100
AcDbCircle
 10
417.538471
 20
408.52282
 30
0.0
 40
2.5
100
AcDbArc
 50
270.0
 51
357.0
  0
ARC
  5
102F
330
123A
100
AcDbEntity
  8
0
100
AcDbCircle
 10
434.1694709999999
 20
408.52282
 30
0.0
 40
2.5
100
AcDbArc
 50
183.0
 51
270.0
  0
ARC
  5
1030
330
123A
100
AcDbEntity
  8
0
100
AcDbCircle
 10
438.538471
 20
408.52282
 30
0.0
 40
2.5
100
AcDbArc
 50
270.0
 51
357.0
  0
ARC
  5
1031
330
123A
100
AcDbEntity
  8
0
100
AcDbCircle
 10
455.1694709999999
 20
408.52282
 30
0.0
 40
2.5
100
AcDbArc
 50
183.0
 51
270.0
  0
ARC
  5
1032
330
123A
100
AcDbEntity
  8
0
100
AcDbCircle
 10
459.538471
 20
408.52282
 30
0.0
 40
2.5
100
AcDbArc
 50
270.0
 51
357.0
  0
ARC
  5
1033
330
123A
100
AcDbEntity
  8
0
100
AcDbCircle
 10
476.1694709999999
 20
408.52282
 30
0.0
 40
2.5
100
AcDbArc
 50
183.0
 51
270.0
  0
ARC
  5
1034
330
123A
100
AcDbEntity
  8
0
100
AcDbCircle
 10
482.936471
 20
408.52282
 30
0.0
 40
2.5
100
AcDbArc
 50
270.0
 51
357.0
  0
LINE
  5
1035
330
123A
100
AcDbEntity
  8
0
100
AcDbLine
 10
337.854471
 20
406.02282
 30
0.0
 11
338.854471
 21
407.02282
 31
0.0
  0
LINE
  5
1036
330
123A
100
AcDbEntity
  8
0
100
AcDbLine
 10
338.854471
 20
407.02282
 30
0.0
 11
348.169471
 21
407.02282
 31
0.0
  0
LINE
  5
1037
330
123A
100
AcDbEntity
  8
0
100
AcDbLine
 10
356.538471
 20
407.02282
 30
0.0
 11
369.169471
 21
407.02282
 31
0.0
  0
LINE
  5
1038
330
123A
100
AcDbEntity
  8
0
100
AcDbLine
 10
377.538471
 20
407.02282
 30
0.0
 11
390.169471
 21
407.02282
 31
0.0
  0
LINE
  5
1039
330
123A
100
AcDbEntity
  8
0
100
AcDbLine
 10
398.538471
 20
407.02282
 30
0.0
 11
411.169471
 21
407.02282
 31
0.0
  0
LINE
  5
103A
330
123A
100
AcDbEntity
  8
0
100
AcDbLine
 10
419.5384709999999
 20
407.02282
 30
0.0
 11
432.169471
 21
407.02282
 31
0.0
  0
LINE
  5
103B
330
123A
100
AcDbEntity
  8
0
100
AcDbLine
 10
440.5384709999999
 20
407.02282
 30
0.0
 11
449.854471
 21
407.02282
 31
0.0
  0
LINE
  5
103C
330
123A
100
AcDbEntity
  8
0
100
AcDbLine
 10
450.8544709999999
 20
406.02282
 30
0.0
 11
476.1694709999999
 21
406.02282
 31
0.0
  0
LINE
  5
103D
330
123A
100
AcDbEntity
  8
0
100
AcDbLine
 10
449.854471
 20
407.02282
 30
0.0
 11
450.8544709999999
 21
406.02282
 31
0.0
  0
LINE
  5
103E
330
123A
100
AcDbEntity
  8
0
100
AcDbLine
 10
295.354471
 20
424.02282
 30
0.0
 11
300.854471
 21
424.02282
 31
0.0
  0
LINE
  5
103F
330
123A
100
AcDbEntity
  8
0
100
AcDbLine
 10
294.201471
 20
402.02282
 30
0.0
 11
295.354471
 21
424.02282
 31
0.0
  0
LINE
  5
1040
330
123A
100
AcDbEntity
  8
0
100
AcDbLine
 10
294.201471
 20
402.02282
 30
0.0
 11
295.354471
 21
389.02282
 31
0.0
  0
LINE
  5
1041
330
123A
100
AcDbEntity
  8
0
100
AcDbLine
 10
295.354471
 20
389.02282
 30
0.0
 11
324.068471
 21
389.02282
 31
0.0
  0
LINE
  5
1042
330
123A
100
AcDbEntity
  8
0
100
AcDbLine
 10
302.854471
 20
393.02282
 30
0.0
 11
464.849471
 21
393.02282
 31
0.0
  0
LINE
  5
1043
330
123A
100
AcDbEntity
  8
0
100
AcDbLine
 10
299.354471
 20
424.02282
 30
0.0
 11
301.257471
 21
394.51982
 31
0.0
  0
ARC
  5
1044
330
123A
100
AcDbEntity
  8
0
100
AcDbCircle
 10
302.854471
 20
394.6228200000001
 30
0.0
 40
1.6
100
AcDbArc
 50
183.6909999999999
 51
270.0
  0
LINE
  5
1045
330
123A
100
AcDbEntity
  8
0
100
AcDbLine
 10
302.351471
 20
393.1038200000001
 30
0.0
 11
302.614471
 21
389.02282
 31
0.0
  0
LINE
  5
1046
330
123A
100
AcDbEntity
  8
0
100
AcDbLine
 10
312.486471
 20
384.02282
 30
0.0
 11
313.736471
 21
384.02282
 31
0.0
  0
LINE
  5
1047
330
123A
100
AcDbEntity
  8
0
100
AcDbLine
 10
314.260471
 20
374.02282
 30
0.0
 11
323.282471
 21
374.02282
 31
0.0
  0
LINE
  5
1048
330
123A
100
AcDbEntity
  8
0
100
AcDbLine
 10
310.886471
 20
387.42282
 30
0.0
 11
310.886471
 21
385.6228200000001
 31
0.0
  0
LINE
  5
1049
330
123A
100
AcDbEntity
  8
0
100
AcDbLine
 10
323.858471
 20
393.02282
 30
0.0
 11
324.068471
 21
389.02282
 31
0.0
  0
LINE
  5
104A
330
123A
100
AcDbEntity
  8
0
100
AcDbLine
 10
323.282471
 20
374.02282
 30
0.0
 11
324.068471
 21
389.02282
 31
0.0
  0
LINE
  5
104B
330
123A
100
AcDbEntity
  8
0
100
AcDbLine
 10
316.586471
 20
393.02282
 30
0.0
 11
317.582471
 21
374.02282
 31
0.0
  0
LINE
  5
104C
330
123A
100
AcDbEntity
  8
0
100
AcDbLine
 10
313.736471
 20
384.02282
 30
0.0
 11
314.260471
 21
374.02282
 31
0.0
  0
ARC
  5
104D
330
123A
100
AcDbEntity
  8
0
100
AcDbCircle
 10
309.286471
 20
387.42282
 30
0.0
 40
1.6
100
AcDbArc
 50
0.0
 51
90.0
  0
ARC
  5
104E
330
123A
100
AcDbEntity
  8
0
100
AcDbCircle
 10
312.486471
 20
385.6228200000001
 30
0.0
 40
1.6
100
AcDbArc
 50
180.0
 51
270.0
  0
LINE
  5
104F
330
123A
100
AcDbEntity
  8
0
100
AcDbLine
 10
493.3544709999999
 20
424.02282
 30
0.0
 11
487.8544709999999
 21
424.02282
 31
0.0
  0
LINE
  5
1050
330
123A
100
AcDbEntity
  8
0
100
AcDbLine
 10
494.507471
 20
402.02282
 30
0.0
 11
493.3544709999999
 21
424.02282
 31
0.0
  0
LINE
  5
1051
330
123A
100
AcDbEntity
  8
0
100
AcDbLine
 10
494.507471
 20
402.02282
 30
0.0
 11
493.3544709999999
 21
389.02282
 31
0.0
  0
LINE
  5
1052
330
123A
100
AcDbEntity
  8
0
100
AcDbLine
 10
493.3544709999999
 20
389.02282
 30
0.0
 11
464.6404709999999
 21
389.02282
 31
0.0
  0
LINE
  5
1053
330
123A
100
AcDbEntity
  8
0
100
AcDbLine
 10
485.854471
 20
393.02282
 30
0.0
 11
464.849471
 21
393.02282
 31
0.0
  0
LINE
  5
1054
330
123A
100
AcDbEntity
  8
0
100
AcDbLine
 10
489.3544709999999
 20
424.02282
 30
0.0
 11
487.450471
 21
394.51982
 31
0.0
  0
ARC
  5
1055
330
123A
100
AcDbEntity
  8
0
100
AcDbCircle
 10
485.854471
 20
394.6228200000001
 30
0.0
 40
1.6
100
AcDbArc
 50
270.0
 51
356.309
  0
LINE
  5
1056
330
123A
100
AcDbEntity
  8
0
100
AcDbLine
 10
486.3574709999999
 20
393.1038200000001
 30
0.0
 11
486.094471
 21
389.02282
 31
0.0
  0
LINE
  5
1057
330
123A
100
AcDbEntity
  8
0
100
AcDbLine
 10
476.2224709999999
 20
384.02282
 30
0.0
 11
474.9724709999999
 21
384.02282
 31
0.0
  0
LINE
  5
1058
330
123A
100
AcDbEntity
  8
0
100
AcDbLine
 10
477.8224709999999
 20
387.42282
 30
0.0
 11
477.8224709999999
 21
385.6228200000001
 31
0.0
  0
LINE
  5
1059
330
123A
100
AcDbEntity
  8
0
100
AcDbLine
 10
464.849471
 20
393.02282
 30
0.0
 11
464.6404709999999
 21
389.02282
 31
0.0
  0
LINE
  5
105A
330
123A
100
AcDbEntity
  8
0
100
AcDbLine
 10
465.4264709999999
 20
374.02282
 30
0.0
 11
464.6404709999999
 21
389.02282
 31
0.0
  0
LINE
  5
105B
330
123A
100
AcDbEntity
  8
0
100
AcDbLine
 10
472.122471
 20
393.02282
 30
0.0
 11
471.126471
 21
374.02282
 31
0.0
  0
LINE
  5
105C
330
123A
100
AcDbEntity
  8
0
100
AcDbLine
 10
474.9724709999999
 20
384.02282
 30
0.0
 11
474.448471
 21
374.02282
 31
0.0
  0
ARC
  5
105D
330
123A
100
AcDbEntity
  8
0
100
AcDbCircle
 10
479.4224709999999
 20
387.42282
 30
0.0
 40
1.6
100
AcDbArc
 50
90.0
 51
180.0
  0
ARC
  5
105E
330
123A
100
AcDbEntity
  8
0
100
AcDbCircle
 10
476.2224709999999
 20
385.6228200000001
 30
0.0
 40
1.6
100
AcDbArc
 50
270.0
 51
0.0
  0
LINE
  5
105F
330
123A
100
AcDbEntity
  8
0
100
AcDbLine
 10
383.874471
 20
389.02282
 30
0.0
 11
384.083471
 21
393.02282
 31
0.0
  0
LINE
  5
1060
330
123A
100
AcDbEntity
  8
0
100
AcDbLine
 10
385.854471
 20
389.02282
 30
0.0
 11
386.063471
 21
393.02282
 31
0.0
  0
LINE
  5
1061
330
123A
100
AcDbEntity
  8
0
100
AcDbLine
 10
402.068471
 20
374.02282
 30
0.0
 11
402.854471
 21
389.02282
 31
0.0
  0
LINE
  5
1062
330
123A
100
AcDbEntity
  8
0
100
AcDbLine
 10
404.051471
 20
374.02282
 30
0.0
 11
404.837471
 21
389.02282
 31
0.0
  0
LINE
  5
1063
330
123A
100
AcDbEntity
  8
0
100
AcDbLine
 10
383.874471
 20
389.02282
 30
0.0
 11
384.660471
 21
374.02282
 31
0.0
  0
LINE
  5
1064
330
123A
100
AcDbEntity
  8
0
100
AcDbLine
 10
385.854471
 20
389.02282
 30
0.0
 11
386.640471
 21
374.02282
 31
0.0
  0
LINE
  5
1065
330
123A
100
AcDbEntity
  8
0
100
AcDbLine
 10
402.6444709999999
 20
393.02282
 30
0.0
 11
402.854471
 21
389.02282
 31
0.0
  0
LINE
  5
1066
330
123A
100
AcDbEntity
  8
0
100
AcDbLine
 10
404.627471
 20
393.02282
 30
0.0
 11
404.837471
 21
389.02282
 31
0.0
  0
LINE
  5
1067
330
123A
100
AcDbEntity
  8
0
100
AcDbLine
 10
383.874471
 20
389.02282
 30
0.0
 11
404.837471
 21
389.02282
 31
0.0
  0
LINE
  5
1068
330
123A
100
AcDbEntity
  8
0
100
AcDbLine
 10
324.068471
 20
389.02282
 30
0.0
 11
378.207471
 21
389.02282
 31
0.0
  0
LINE
  5
1069
330
123A
100
AcDbEntity
  8
0
100
AcDbLine
 10
410.504471
 20
389.02282
 30
0.0
 11
464.6404709999999
 21
389.02282
 31
0.0
  0
ARC
  5
106A
330
123A
100
AcDbEntity
  8
0
100
AcDbCircle
 10
410.504471
 20
383.05182
 30
0.0
 40
5.969999999999999
100
AcDbArc
 50
90.0
 51
170.64
  0
ARC
  5
106B
330
123A
100
AcDbEntity
  8
0
100
AcDbCircle
 10
412.4944709999999
 20
383.05182
 30
0.0
 40
5.969999999999999
100
AcDbArc
 50
90.0
 51
170.64
  0
ARC
  5
106C
330
123A
100
AcDbEntity
  8
0
100
AcDbCircle
 10
376.218471
 20
383.05182
 30
0.0
 40
5.969999999999999
100
AcDbArc
 50
9.359999999999999
 51
90.0
  0
ARC
  5
106D
330
123A
100
AcDbEntity
  8
0
100
AcDbCircle
 10
378.207471
 20
383.05182
 30
0.0
 40
5.971
100
AcDbArc
 50
9.358999999999999
 51
90.0
  0
LINE
  5
106E
330
123A
100
AcDbEntity
  8
0
100
AcDbLine
 10
382.109471
 20
384.02282
 30
0.0
 11
384.136471
 21
384.02282
 31
0.0
  0
LINE
  5
106F
330
123A
100
AcDbEntity
  8
0
100
AcDbLine
 10
404.5754709999999
 20
384.02282
 30
0.0
 11
406.603471
 21
384.02282
 31
0.0
  0
LINE
  5
1070
330
123A
100
AcDbEntity
  8
0
100
AcDbLine
 10
300.854471
 20
405.02282
 30
0.0
 11
340.300471
 21
405.02282
 31
0.0
  0
LINE
  5
1071
330
123A
100
AcDbEntity
  8
0
100
AcDbLine
 10
448.404471
 20
405.02282
 30
0.0
 11
488.128471
 21
405.02282
 31
0.0
  0
ARC
  5
1072
330
123A
100
AcDbEntity
  8
0
100
AcDbCircle
 10
394.352471
 20
520.7548199999999
 30
0.0
 40
127.732
100
AcDbArc
 50
244.966
 51
295.034
  0
LINE
  5
1073
330
123A
100
AcDbEntity
  8
0
100
AcDbLine
 10
384.660471
 20
374.02282
 30
0.0
 11
404.051471
 21
374.02282
 31
0.0
  0
LINE
  5
1074
330
123A
100
AcDbEntity
  8
0
100
AcDbLine
 10
465.4264709999999
 20
374.02282
 30
0.0
 11
474.448471
 21
374.02282
 31
0.0
  0
POLYLINE
  5
1075
330
123A
100
AcDbEntity
  8
SCHRAFFUR_RAND
100
AcDb2dPolyline
 66
     1
 10
0.0
 20
0.0
 30
0.0
 70
     1
  0
VERTEX
  5
1076
330
1075
100
AcDbEntity
  8
SCHRAFFUR_RAND
100
AcDbVertex
100
AcDb2dVertex
 10
315.854471
 20
424.02282
 30
0.0
  0
VERTEX
  5
1077
330
1075
100
AcDbEntity
  8
SCHRAFFUR_RAND
100
AcDbVertex
100
AcDb2dVertex
 10
300.854471
 20
424.02282
 30
0.0
  0
VERTEX
  5
1078
330
1075
100
AcDbEntity
  8
SCHRAFFUR_RAND
100
AcDbVertex
100
AcDb2dVertex
 10
301.168471
 20
418.02282
 30
0.0
  0
VERTEX
  5
1079
330
1075
100
AcDbEntity
  8
SCHRAFFUR_RAND
100
AcDbVertex
100
AcDb2dVertex
 10
302.068471
 20
417.89482
 30
0.0
  0
VERTEX
  5
107A
330
1075
100
AcDbEntity
  8
SCHRAFFUR_RAND
100
AcDbVertex
100
AcDb2dVertex
 10
302.679471
 20
417.3148199999999
 30
0.0
  0
VERTEX
  5
107B
330
1075
100
AcDbEntity
  8
SCHRAFFUR_RAND
100
AcDbVertex
100
AcDb2dVertex
 10
302.850471
 20
416.50682
 30
0.0
  0
VERTEX
  5
107C
330
1075
100
AcDbEntity
  8
SCHRAFFUR_RAND
100
AcDbVertex
100
AcDb2dVertex
 10
303.275471
 20
408.39182
 30
0.0
  0
VERTEX
  5
107D
330
1075
100
AcDbEntity
  8
SCHRAFFUR_RAND
100
AcDbVertex
100
AcDb2dVertex
 10
303.581471
 20
407.1538199999999
 30
0.0
  0
VERTEX
  5
107E
330
1075
100
AcDbEntity
  8
SCHRAFFUR_RAND
100
AcDbVertex
100
AcDb2dVertex
 10
304.519471
 20
406.26382
 30
0.0
  0
VERTEX
  5
107F
330
1075
100
AcDbEntity
  8
SCHRAFFUR_RAND
100
AcDbVertex
100
AcDb2dVertex
 10
305.772471
 20
406.02282
 30
0.0
  0
VERTEX
  5
1080
330
1075
100
AcDbEntity
  8
SCHRAFFUR_RAND
100
AcDbVertex
100
AcDb2dVertex
 10
312.538471
 20
406.02282
 30
0.0
  0
VERTEX
  5
1081
330
1075
100
AcDbEntity
  8
SCHRAFFUR_RAND
100
AcDbVertex
100
AcDb2dVertex
 10
313.790471
 20
406.26382
 30
0.0
  0
VERTEX
  5
1082
330
1075
100
AcDbEntity
  8
SCHRAFFUR_RAND
100
AcDbVertex
100
AcDb2dVertex
 10
314.728471
 20
407.1538199999999
 30
0.0
  0
VERTEX
  5
1083
330
1075
100
AcDbEntity
  8
SCHRAFFUR_RAND
100
AcDbVertex
100
AcDb2dVertex
 10
315.034471
 20
408.39182
 30
0.0
  0
VERTEX
  5
1084
330
1075
100
AcDbEntity
  8
SCHRAFFUR_RAND
100
AcDbVertex
100
AcDb2dVertex
 10
315.854471
 20
424.02282
 30
0.0
  0
SEQEND
  5
1085
330
1075
100
AcDbEntity
  8
SCHRAFFUR_RAND
  0
POLYLINE
  5
108C
330
123A
100
AcDbEntity
  8
SCHRAFFUR_RAND
100
AcDb2dPolyline
 66
     1
 10
0.0
 20
0.0
 30
0.0
 70
     1
  0
VERTEX
  5
108D
330
108C
100
AcDbEntity
  8
SCHRAFFUR_RAND
100
AcDbVertex
100
AcDb2dVertex
 10
329.169471
 20
406.02282
 30
0.0
  0
VERTEX
  5
108E
330
108C
100
AcDbEntity
  8
SCHRAFFUR_RAND
100
AcDbVertex
100
AcDb2dVertex
 10
333.538471
 20
406.02282
 30
0.0
  0
VERTEX
  5
108F
330
108C
100
AcDbEntity
  8
SCHRAFFUR_RAND
100
AcDbVertex
100
AcDb2dVertex
 10
334.790471
 20
406.26382
 30
0.0
  0
VERTEX
  5
1090
330
108C
100
AcDbEntity
  8
SCHRAFFUR_RAND
100
AcDbVertex
100
AcDb2dVertex
 10
335.728471
 20
407.1538199999999
 30
0.0
  0
VERTEX
  5
1091
330
108C
100
AcDbEntity
  8
SCHRAFFUR_RAND
100
AcDbVertex
100
AcDb2dVertex
 10
336.035471
 20
408.39182
 30
0.0
  0
VERTEX
  5
1092
330
108C
100
AcDbEntity
  8
SCHRAFFUR_RAND
100
AcDbVertex
100
AcDb2dVertex
 10
336.854471
 20
424.02282
 30
0.0
  0
VERTEX
  5
1093
330
108C
100
AcDbEntity
  8
SCHRAFFUR_RAND
100
AcDbVertex
100
AcDb2dVertex
 10
325.854471
 20
424.02282
 30
0.0
  0
VERTEX
  5
1094
330
108C
100
AcDbEntity
  8
SCHRAFFUR_RAND
100
AcDbVertex
100
AcDb2dVertex
 10
326.673471
 20
408.39182
 30
0.0
  0
VERTEX
  5
1095
330
108C
100
AcDbEntity
  8
SCHRAFFUR_RAND
100
AcDbVertex
100
AcDb2dVertex
 10
326.979471
 20
407.1538199999999
 30
0.0
  0
VERTEX
  5
1096
330
108C
100
AcDbEntity
  8
SCHRAFFUR_RAND
100
AcDbVertex
100
AcDb2dVertex
 10
327.917471
 20
406.26382
 30
0.0
  0
VERTEX
  5
1097
330
108C
100
AcDbEntity
  8
SCHRAFFUR_RAND
100
AcDbVertex
100
AcDb2dVertex
 10
329.169471
 20
406.02282
 30
0.0
  0
SEQEND
  5
1098
330
108C
100
AcDbEntity
  8
SCHRAFFUR_RAND
  0
POLYLINE
  5
109E
330
123A
100
AcDbEntity
  8
SCHRAFFUR_RAND
100
AcDb2dPolyline
 66
     1
 10
0.0
 20
0.0
 30
0.0
 70
     1
  0
VERTEX
  5
109F
330
109E
100
AcDbEntity
  8
SCHRAFFUR_RAND
100
AcDbVertex
100
AcDb2dVertex
 10
346.854471
 20
424.02282
 30
0.0
  0
VERTEX
  5
10A0
330
109E
100
AcDbEntity
  8
SCHRAFFUR_RAND
100
AcDbVertex
100
AcDb2dVertex
 10
347.673471
 20
408.39182
 30
0.0
  0
VERTEX
  5
10A1
330
109E
100
AcDbEntity
  8
SCHRAFFUR_RAND
100
AcDbVertex
100
AcDb2dVertex
 10
347.979471
 20
407.1538199999999
 30
0.0
  0
VERTEX
  5
10A2
330
109E
100
AcDbEntity
  8
SCHRAFFUR_RAND
100
AcDbVertex
100
AcDb2dVertex
 10
348.169471
 20
407.02282
 30
0.0
  0
VERTEX
  5
10A3
330
109E
100
AcDbEntity
  8
SCHRAFFUR_RAND
100
AcDbVertex
100
AcDb2dVertex
 10
348.917471
 20
406.26382
 30
0.0
  0
VERTEX
  5
10A4
330
109E
100
AcDbEntity
  8
SCHRAFFUR_RAND
100
AcDbVertex
100
AcDb2dVertex
 10
350.169471
 20
406.02282
 30
0.0
  0
VERTEX
  5
10A5
330
109E
100
AcDbEntity
  8
SCHRAFFUR_RAND
100
AcDbVertex
100
AcDb2dVertex
 10
354.538471
 20
406.02282
 30
0.0
  0
VERTEX
  5
10A6
330
109E
100
AcDbEntity
  8
SCHRAFFUR_RAND
100
AcDbVertex
100
AcDb2dVertex
 10
355.790471
 20
406.26382
 30
0.0
  0
VERTEX
  5
10A7
330
109E
100
AcDbEntity
  8
SCHRAFFUR_RAND
100
AcDbVertex
100
AcDb2dVertex
 10
356.538471
 20
407.02282
 30
0.0
  0
VERTEX
  5
10A8
330
109E
100
AcDbEntity
  8
SCHRAFFUR_RAND
100
AcDbVertex
100
AcDb2dVertex
 10
356.728471
 20
407.1538199999999
 30
0.0
  0
VERTEX
  5
10A9
330
109E
100
AcDbEntity
  8
SCHRAFFUR_RAND
100
AcDbVertex
100
AcDb2dVertex
 10
357.035471
 20
408.39182
 30
0.0
  0
VERTEX
  5
10AA
330
109E
100
AcDbEntity
  8
SCHRAFFUR_RAND
100
AcDbVertex
100
AcDb2dVertex
 10
357.854471
 20
424.02282
 30
0.0
  0
VERTEX
  5
10AB
330
109E
100
AcDbEntity
  8
SCHRAFFUR_RAND
100
AcDbVertex
100
AcDb2dVertex
 10
346.854471
 20
424.02282
 30
0.0
  0
SEQEND
  5
10AC
330
109E
100
AcDbEntity
  8
SCHRAFFUR_RAND
  0
POLYLINE
  5
10B3
330
123A
100
AcDbEntity
  8
SCHRAFFUR_RAND
100
AcDb2dPolyline
 66
     1
 10
0.0
 20
0.0
 30
0.0
 70
     1
  0
VERTEX
  5
10B4
330
10B3
100
AcDbEntity
  8
SCHRAFFUR_RAND
100
AcDbVertex
100
AcDb2dVertex
 10
368.979471
 20
407.1538199999999
 30
0.0
  0
VERTEX
  5
10B5
330
10B3
100
AcDbEntity
  8
SCHRAFFUR_RAND
100
AcDbVertex
100
AcDb2dVertex
 10
369.169471
 20
407.02282
 30
0.0
  0
VERTEX
  5
10B6
330
10B3
100
AcDbEntity
  8
SCHRAFFUR_RAND
100
AcDbVertex
100
AcDb2dVertex
 10
369.917471
 20
406.26382
 30
0.0
  0
VERTEX
  5
10B7
330
10B3
100
AcDbEntity
  8
SCHRAFFUR_RAND
100
AcDbVertex
100
AcDb2dVertex
 10
371.169471
 20
406.02282
 30
0.0
  0
VERTEX
  5
10B8
330
10B3
100
AcDbEntity
  8
SCHRAFFUR_RAND
100
AcDbVertex
100
AcDb2dVertex
 10
375.538471
 20
406.02282
 30
0.0
  0
VERTEX
  5
10B9
330
10B3
100
AcDbEntity
  8
SCHRAFFUR_RAND
100
AcDbVertex
100
AcDb2dVertex
 10
376.790471
 20
406.26382
 30
0.0
  0
VERTEX
  5
10BA
330
10B3
100
AcDbEntity
  8
SCHRAFFUR_RAND
100
AcDbVertex
100
AcDb2dVertex
 10
377.538471
 20
407.02282
 30
0.0
  0
VERTEX
  5
10BB
330
10B3
100
AcDbEntity
  8
SCHRAFFUR_RAND
100
AcDbVertex
100
AcDb2dVertex
 10
377.728471
 20
407.1538199999999
 30
0.0
  0
VERTEX
  5
10BC
330
10B3
100
AcDbEntity
  8
SCHRAFFUR_RAND
100
AcDbVertex
100
AcDb2dVertex
 10
378.035471
 20
408.39182
 30
0.0
  0
VERTEX
  5
10BD
330
10B3
100
AcDbEntity
  8
SCHRAFFUR_RAND
100
AcDbVertex
100
AcDb2dVertex
 10
378.854471
 20
424.02282
 30
0.0
  0
VERTEX
  5
10BE
330
10B3
100
AcDbEntity
  8
SCHRAFFUR_RAND
100
AcDbVertex
100
AcDb2dVertex
 10
367.854471
 20
424.02282
 30
0.0
  0
VERTEX
  5
10BF
330
10B3
100
AcDbEntity
  8
SCHRAFFUR_RAND
100
AcDbVertex
100
AcDb2dVertex
 10
368.673471
 20
408.39182
 30
0.0
  0
VERTEX
  5
10C0
330
10B3
100
AcDbEntity
  8
SCHRAFFUR_RAND
100
AcDbVertex
100
AcDb2dVertex
 10
368.979471
 20
407.1538199999999
 30
0.0
  0
SEQEND
  5
10C1
330
10B3
100
AcDbEntity
  8
SCHRAFFUR_RAND
  0
POLYLINE
  5
10C8
330
123A
100
AcDbEntity
  8
SCHRAFFUR_RAND
100
AcDb2dPolyline
 66
     1
 10
0.0
 20
0.0
 30
0.0
 70
     1
  0
VERTEX
  5
10C9
330
10C8
100
AcDbEntity
  8
SCHRAFFUR_RAND
100
AcDbVertex
100
AcDb2dVertex
 10
389.979471
 20
407.1538199999999
 30
0.0
  0
VERTEX
  5
10CA
330
10C8
100
AcDbEntity
  8
SCHRAFFUR_RAND
100
AcDbVertex
100
AcDb2dVertex
 10
390.169471
 20
407.02282
 30
0.0
  0
VERTEX
  5
10CB
330
10C8
100
AcDbEntity
  8
SCHRAFFUR_RAND
100
AcDbVertex
100
AcDb2dVertex
 10
390.917471
 20
406.26382
 30
0.0
  0
VERTEX
  5
10CC
330
10C8
100
AcDbEntity
  8
SCHRAFFUR_RAND
100
AcDbVertex
100
AcDb2dVertex
 10
392.169471
 20
406.02282
 30
0.0
  0
VERTEX
  5
10CD
330
10C8
100
AcDbEntity
  8
SCHRAFFUR_RAND
100
AcDbVertex
100
AcDb2dVertex
 10
394.354471
 20
406.02282
 30
0.0
  0
VERTEX
  5
10CE
330
10C8
100
AcDbEntity
  8
SCHRAFFUR_RAND
100
AcDbVertex
100
AcDb2dVertex
 10
396.538471
 20
406.02282
 30
0.0
  0
VERTEX
  5
10CF
330
10C8
100
AcDbEntity
  8
SCHRAFFUR_RAND
100
AcDbVertex
100
AcDb2dVertex
 10
397.790471
 20
406.26382
 30
0.0
  0
VERTEX
  5
10D0
330
10C8
100
AcDbEntity
  8
SCHRAFFUR_RAND
100
AcDbVertex
100
AcDb2dVertex
 10
398.538471
 20
407.02282
 30
0.0
  0
VERTEX
  5
10D1
330
10C8
100
AcDbEntity
  8
SCHRAFFUR_RAND
100
AcDbVertex
100
AcDb2dVertex
 10
398.728471
 20
407.1538199999999
 30
0.0
  0
VERTEX
  5
10D2
330
10C8
100
AcDbEntity
  8
SCHRAFFUR_RAND
100
AcDbVertex
100
AcDb2dVertex
 10
399.035471
 20
408.39182
 30
0.0
  0
VERTEX
  5
10D3
330
10C8
100
AcDbEntity
  8
SCHRAFFUR_RAND
100
AcDbVertex
100
AcDb2dVertex
 10
399.854471
 20
424.02282
 30
0.0
  0
VERTEX
  5
10D4
330
10C8
100
AcDbEntity
  8
SCHRAFFUR_RAND
100
AcDbVertex
100
AcDb2dVertex
 10
394.354471
 20
424.02282
 30
0.0
  0
VERTEX
  5
10D5
330
10C8
100
AcDbEntity
  8
SCHRAFFUR_RAND
100
AcDbVertex
100
AcDb2dVertex
 10
388.854471
 20
424.02282
 30
0.0
  0
VERTEX
  5
10D6
330
10C8
100
AcDbEntity
  8
SCHRAFFUR_RAND
100
AcDbVertex
100
AcDb2dVertex
 10
389.673471
 20
408.39182
 30
0.0
  0
VERTEX
  5
10D7
330
10C8
100
AcDbEntity
  8
SCHRAFFUR_RAND
100
AcDbVertex
100
AcDb2dVertex
 10
389.979471
 20
407.1538199999999
 30
0.0
  0
SEQEND
  5
10D8
330
10C8
100
AcDbEntity
  8
SCHRAFFUR_RAND
  0
POLYLINE
  5
10DE
330
123A
100
AcDbEntity
  8
SCHRAFFUR_RAND
100
AcDb2dPolyline
 66
     1
 10
0.0
 20
0.0
 30
0.0
 70
     1
  0
VERTEX
  5
10DF
330
10DE
100
AcDbEntity
  8
SCHRAFFUR_RAND
100
AcDbVertex
100
AcDb2dVertex
 10
410.979471
 20
407.1538199999999
 30
0.0
  0
VERTEX
  5
10E0
330
10DE
100
AcDbEntity
  8
SCHRAFFUR_RAND
100
AcDbVertex
100
AcDb2dVertex
 10
411.169471
 20
407.02282
 30
0.0
  0
VERTEX
  5
10E1
330
10DE
100
AcDbEntity
  8
SCHRAFFUR_RAND
100
AcDbVertex
100
AcDb2dVertex
 10
411.917471
 20
406.26382
 30
0.0
  0
VERTEX
  5
10E2
330
10DE
100
AcDbEntity
  8
SCHRAFFUR_RAND
100
AcDbVertex
100
AcDb2dVertex
 10
413.1694709999999
 20
406.02282
 30
0.0
  0
VERTEX
  5
10E3
330
10DE
100
AcDbEntity
  8
SCHRAFFUR_RAND
100
AcDbVertex
100
AcDb2dVertex
 10
417.538471
 20
406.02282
 30
0.0
  0
VERTEX
  5
10E4
330
10DE
100
AcDbEntity
  8
SCHRAFFUR_RAND
100
AcDbVertex
100
AcDb2dVertex
 10
418.7904709999999
 20
406.26382
 30
0.0
  0
VERTEX
  5
10E5
330
10DE
100
AcDbEntity
  8
SCHRAFFUR_RAND
100
AcDbVertex
100
AcDb2dVertex
 10
419.5384709999999
 20
407.02282
 30
0.0
  0
VERTEX
  5
10E6
330
10DE
100
AcDbEntity
  8
SCHRAFFUR_RAND
100
AcDbVertex
100
AcDb2dVertex
 10
419.7284709999999
 20
407.1538199999999
 30
0.0
  0
VERTEX
  5
10E7
330
10DE
100
AcDbEntity
  8
SCHRAFFUR_RAND
100
AcDbVertex
100
AcDb2dVertex
 10
420.035471
 20
408.39182
 30
0.0
  0
VERTEX
  5
10E8
330
10DE
100
AcDbEntity
  8
SCHRAFFUR_RAND
100
AcDbVertex
100
AcDb2dVertex
 10
420.8544709999999
 20
424.02282
 30
0.0
  0
VERTEX
  5
10E9
330
10DE
100
AcDbEntity
  8
SCHRAFFUR_RAND
100
AcDbVertex
100
AcDb2dVertex
 10
409.8544709999999
 20
424.02282
 30
0.0
  0
VERTEX
  5
10EA
330
10DE
100
AcDbEntity
  8
SCHRAFFUR_RAND
100
AcDbVertex
100
AcDb2dVertex
 10
410.673471
 20
408.39182
 30
0.0
  0
VERTEX
  5
10EB
330
10DE
100
AcDbEntity
  8
SCHRAFFUR_RAND
100
AcDbVertex
100
AcDb2dVertex
 10
410.979471
 20
407.1538199999999
 30
0.0
  0
SEQEND
  5
10EC
330
10DE
100
AcDbEntity
  8
SCHRAFFUR_RAND
  0
POLYLINE
  5
10F3
330
123A
100
AcDbEntity
  8
SCHRAFFUR_RAND
100
AcDb2dPolyline
 66
     1
 10
0.0
 20
0.0
 30
0.0
 70
     1
  0
VERTEX
  5
10F4
330
10F3
100
AcDbEntity
  8
SCHRAFFUR_RAND
100
AcDbVertex
100
AcDb2dVertex
 10
431.979471
 20
407.1538199999999
 30
0.0
  0
VERTEX
  5
10F5
330
10F3
100
AcDbEntity
  8
SCHRAFFUR_RAND
100
AcDbVertex
100
AcDb2dVertex
 10
432.169471
 20
407.02282
 30
0.0
  0
VERTEX
  5
10F6
330
10F3
100
AcDbEntity
  8
SCHRAFFUR_RAND
100
AcDbVertex
100
AcDb2dVertex
 10
432.917471
 20
406.26382
 30
0.0
  0
VERTEX
  5
10F7
330
10F3
100
AcDbEntity
  8
SCHRAFFUR_RAND
100
AcDbVertex
100
AcDb2dVertex
 10
434.1694709999999
 20
406.02282
 30
0.0
  0
VERTEX
  5
10F8
330
10F3
100
AcDbEntity
  8
SCHRAFFUR_RAND
100
AcDbVertex
100
AcDb2dVertex
 10
438.538471
 20
406.02282
 30
0.0
  0
VERTEX
  5
10F9
330
10F3
100
AcDbEntity
  8
SCHRAFFUR_RAND
100
AcDbVertex
100
AcDb2dVertex
 10
439.7904709999999
 20
406.26382
 30
0.0
  0
VERTEX
  5
10FA
330
10F3
100
AcDbEntity
  8
SCHRAFFUR_RAND
100
AcDbVertex
100
AcDb2dVertex
 10
440.5384709999999
 20
407.02282
 30
0.0
  0
VERTEX
  5
10FB
330
10F3
100
AcDbEntity
  8
SCHRAFFUR_RAND
100
AcDbVertex
100
AcDb2dVertex
 10
440.7284709999999
 20
407.1538199999999
 30
0.0
  0
VERTEX
  5
10FC
330
10F3
100
AcDbEntity
  8
SCHRAFFUR_RAND
100
AcDbVertex
100
AcDb2dVertex
 10
441.035471
 20
408.39182
 30
0.0
  0
VERTEX
  5
10FD
330
10F3
100
AcDbEntity
  8
SCHRAFFUR_RAND
100
AcDbVertex
100
AcDb2dVertex
 10
441.8544709999999
 20
424.02282
 30
0.0
  0
VERTEX
  5
10FE
330
10F3
100
AcDbEntity
  8
SCHRAFFUR_RAND
100
AcDbVertex
100
AcDb2dVertex
 10
430.8544709999999
 20
424.02282
 30
0.0
  0
VERTEX
  5
10FF
330
10F3
100
AcDbEntity
  8
SCHRAFFUR_RAND
100
AcDbVertex
100
AcDb2dVertex
 10
431.673471
 20
408.39182
 30
0.0
  0
VERTEX
  5
1100
330
10F3
100
AcDbEntity
  8
SCHRAFFUR_RAND
100
AcDbVertex
100
AcDb2dVertex
 10
431.979471
 20
407.1538199999999
 30
0.0
  0
SEQEND
  5
1101
330
10F3
100
AcDbEntity
  8
SCHRAFFUR_RAND
  0
POLYLINE
  5
1108
330
123A
100
AcDbEntity
  8
SCHRAFFUR_RAND
100
AcDb2dPolyline
 66
     1
 10
0.0
 20
0.0
 30
0.0
 70
     1
  0
VERTEX
  5
1109
330
1108
100
AcDbEntity
  8
SCHRAFFUR_RAND
100
AcDbVertex
100
AcDb2dVertex
 10
455.1694709999999
 20
406.02282
 30
0.0
  0
VERTEX
  5
110A
330
1108
100
AcDbEntity
  8
SCHRAFFUR_RAND
100
AcDbVertex
100
AcDb2dVertex
 10
459.538471
 20
406.02282
 30
0.0
  0
VERTEX
  5
110B
330
1108
100
AcDbEntity
  8
SCHRAFFUR_RAND
100
AcDbVertex
100
AcDb2dVertex
 10
460.7904709999999
 20
406.26382
 30
0.0
  0
VERTEX
  5
110C
330
1108
100
AcDbEntity
  8
SCHRAFFUR_RAND
100
AcDbVertex
100
AcDb2dVertex
 10
461.7284709999999
 20
407.1538199999999
 30
0.0
  0
VERTEX
  5
110D
330
1108
100
AcDbEntity
  8
SCHRAFFUR_RAND
100
AcDbVertex
100
AcDb2dVertex
 10
462.0354709999999
 20
408.39182
 30
0.0
  0
VERTEX
  5
110E
330
1108
100
AcDbEntity
  8
SCHRAFFUR_RAND
100
AcDbVertex
100
AcDb2dVertex
 10
462.8544709999999
 20
424.02282
 30
0.0
  0
VERTEX
  5
110F
330
1108
100
AcDbEntity
  8
SCHRAFFUR_RAND
100
AcDbVertex
100
AcDb2dVertex
 10
451.8544709999999
 20
424.02282
 30
0.0
  0
VERTEX
  5
1110
330
1108
100
AcDbEntity
  8
SCHRAFFUR_RAND
100
AcDbVertex
100
AcDb2dVertex
 10
452.673471
 20
408.39182
 30
0.0
  0
VERTEX
  5
1111
330
1108
100
AcDbEntity
  8
SCHRAFFUR_RAND
100
AcDbVertex
100
AcDb2dVertex
 10
452.979471
 20
407.1538199999999
 30
0.0
  0
VERTEX
  5
1112
330
1108
100
AcDbEntity
  8
SCHRAFFUR_RAND
100
AcDbVertex
100
AcDb2dVertex
 10
453.917471
 20
406.26382
 30
0.0
  0
VERTEX
  5
1113
330
1108
100
AcDbEntity
  8
SCHRAFFUR_RAND
100
AcDbVertex
100
AcDb2dVertex
 10
455.1694709999999
 20
406.02282
 30
0.0
  0
SEQEND
  5
1114
330
1108
100
AcDbEntity
  8
SCHRAFFUR_RAND
  0
POLYLINE
  5
111A
330
123A
100
AcDbEntity
  8
SCHRAFFUR_RAND
100
AcDb2dPolyline
 66
     1
 10
0.0
 20
0.0
 30
0.0
 70
     1
  0
VERTEX
  5
111B
330
111A
100
AcDbEntity
  8
SCHRAFFUR_RAND
100
AcDbVertex
100
AcDb2dVertex
 10
476.1694709999999
 20
406.02282
 30
0.0
  0
VERTEX
  5
111C
330
111A
100
AcDbEntity
  8
SCHRAFFUR_RAND
100
AcDbVertex
100
AcDb2dVertex
 10
482.936471
 20
406.02282
 30
0.0
  0
VERTEX
  5
111D
330
111A
100
AcDbEntity
  8
SCHRAFFUR_RAND
100
AcDbVertex
100
AcDb2dVertex
 10
484.188471
 20
406.26382
 30
0.0
  0
VERTEX
  5
111E
330
111A
100
AcDbEntity
  8
SCHRAFFUR_RAND
100
AcDbVertex
100
AcDb2dVertex
 10
485.1264709999999
 20
407.1538199999999
 30
0.0
  0
VERTEX
  5
111F
330
111A
100
AcDbEntity
  8
SCHRAFFUR_RAND
100
AcDbVertex
100
AcDb2dVertex
 10
485.432471
 20
408.39182
 30
0.0
  0
VERTEX
  5
1120
330
111A
100
AcDbEntity
  8
SCHRAFFUR_RAND
100
AcDbVertex
100
AcDb2dVertex
 10
485.858471
 20
416.50682
 30
0.0
  0
VERTEX
  5
1121
330
111A
100
AcDbEntity
  8
SCHRAFFUR_RAND
100
AcDbVertex
100
AcDb2dVertex
 10
486.028471
 20
417.3148199999999
 30
0.0
  0
VERTEX
  5
1122
330
111A
100
AcDbEntity
  8
SCHRAFFUR_RAND
100
AcDbVertex
100
AcDb2dVertex
 10
486.639471
 20
417.89482
 30
0.0
  0
VERTEX
  5
1123
330
111A
100
AcDbEntity
  8
SCHRAFFUR_RAND
100
AcDbVertex
100
AcDb2dVertex
 10
487.539471
 20
418.02282
 30
0.0
  0
VERTEX
  5
1124
330
111A
100
AcDbEntity
  8
SCHRAFFUR_RAND
100
AcDbVertex
100
AcDb2dVertex
 10
487.8544709999999
 20
424.02282
 30
0.0
  0
VERTEX
  5
1125
330
111A
100
AcDbEntity
  8
SCHRAFFUR_RAND
100
AcDbVertex
100
AcDb2dVertex
 10
472.854471
 20
424.02282
 30
0.0
  0
VERTEX
  5
1126
330
111A
100
AcDbEntity
  8
SCHRAFFUR_RAND
100
AcDbVertex
100
AcDb2dVertex
 10
473.673471
 20
408.39182
 30
0.0
  0
VERTEX
  5
1127
330
111A
100
AcDbEntity
  8
SCHRAFFUR_RAND
100
AcDbVertex
100
AcDb2dVertex
 10
473.9794709999999
 20
407.1538199999999
 30
0.0
  0
VERTEX
  5
1128
330
111A
100
AcDbEntity
  8
SCHRAFFUR_RAND
100
AcDbVertex
100
AcDb2dVertex
 10
474.917471
 20
406.26382
 30
0.0
  0
VERTEX
  5
1129
330
111A
100
AcDbEntity
  8
SCHRAFFUR_RAND
100
AcDbVertex
100
AcDb2dVertex
 10
476.1694709999999
 20
406.02282
 30
0.0
  0
SEQEND
  5
112A
330
111A
100
AcDbEntity
  8
SCHRAFFUR_RAND
  0
POLYLINE
  5
1131
330
123A
100
AcDbEntity
  8
SCHRAFFUR_RAND
100
AcDb2dPolyline
 66
     1
 10
0.0
 20
0.0
 30
0.0
 70
     1
  0
VERTEX
  5
1132
330
1131
100
AcDbEntity
  8
SCHRAFFUR_RAND
100
AcDbVertex
100
AcDb2dVertex
 10
302.351471
 20
393.1038200000001
 30
0.0
  0
VERTEX
  5
1133
330
1131
100
AcDbEntity
  8
SCHRAFFUR_RAND
100
AcDbVertex
100
AcDb2dVertex
 10
302.045471
 20
393.14882
 30
0.0
  0
VERTEX
  5
1134
330
1131
100
AcDbEntity
  8
SCHRAFFUR_RAND
100
AcDbVertex
100
AcDb2dVertex
 10
301.435471
 20
393.72082
 30
0.0
  0
VERTEX
  5
1135
330
1131
100
AcDbEntity
  8
SCHRAFFUR_RAND
100
AcDbVertex
100
AcDb2dVertex
 10
301.257471
 20
394.51982
 30
0.0
  0
VERTEX
  5
1136
330
1131
100
AcDbEntity
  8
SCHRAFFUR_RAND
100
AcDbVertex
100
AcDb2dVertex
 10
299.354471
 20
424.02282
 30
0.0
  0
VERTEX
  5
1137
330
1131
100
AcDbEntity
  8
SCHRAFFUR_RAND
100
AcDbVertex
100
AcDb2dVertex
 10
295.354471
 20
424.02282
 30
0.0
  0
VERTEX
  5
1138
330
1131
100
AcDbEntity
  8
SCHRAFFUR_RAND
100
AcDbVertex
100
AcDb2dVertex
 10
294.201471
 20
402.02282
 30
0.0
  0
VERTEX
  5
1139
330
1131
100
AcDbEntity
  8
SCHRAFFUR_RAND
100
AcDbVertex
100
AcDb2dVertex
 10
295.354471
 20
389.02282
 30
0.0
  0
VERTEX
  5
113A
330
1131
100
AcDbEntity
  8
SCHRAFFUR_RAND
100
AcDbVertex
100
AcDb2dVertex
 10
302.614471
 20
389.02282
 30
0.0
  0
VERTEX
  5
113B
330
1131
100
AcDbEntity
  8
SCHRAFFUR_RAND
100
AcDbVertex
100
AcDb2dVertex
 10
302.351471
 20
393.1038200000001
 30
0.0
  0
SEQEND
  5
113C
330
1131
100
AcDbEntity
  8
SCHRAFFUR_RAND
  0
POLYLINE
  5
1144
330
123A
100
AcDbEntity
  8
SCHRAFFUR_RAND
100
AcDb2dPolyline
 66
     1
 10
0.0
 20
0.0
 30
0.0
 70
     1
  0
VERTEX
  5
1145
330
1144
100
AcDbEntity
  8
SCHRAFFUR_RAND
100
AcDbVertex
100
AcDb2dVertex
 10
489.3544709999999
 20
424.02282
 30
0.0
  0
VERTEX
  5
1146
330
1144
100
AcDbEntity
  8
SCHRAFFUR_RAND
100
AcDbVertex
100
AcDb2dVertex
 10
487.450471
 20
394.51982
 30
0.0
  0
VERTEX
  5
1147
330
1144
100
AcDbEntity
  8
SCHRAFFUR_RAND
100
AcDbVertex
100
AcDb2dVertex
 10
487.2724709999999
 20
393.72082
 30
0.0
  0
VERTEX
  5
1148
330
1144
100
AcDbEntity
  8
SCHRAFFUR_RAND
100
AcDbVertex
100
AcDb2dVertex
 10
486.663471
 20
393.14882
 30
0.0
  0
VERTEX
  5
1149
330
1144
100
AcDbEntity
  8
SCHRAFFUR_RAND
100
AcDbVertex
100
AcDb2dVertex
 10
486.3574709999999
 20
393.1038200000001
 30
0.0
  0
VERTEX
  5
114A
330
1144
100
AcDbEntity
  8
SCHRAFFUR_RAND
100
AcDbVertex
100
AcDb2dVertex
 10
486.094471
 20
389.02282
 30
0.0
  0
VERTEX
  5
114B
330
1144
100
AcDbEntity
  8
SCHRAFFUR_RAND
100
AcDbVertex
100
AcDb2dVertex
 10
493.3544709999999
 20
389.02282
 30
0.0
  0
VERTEX
  5
114C
330
1144
100
AcDbEntity
  8
SCHRAFFUR_RAND
100
AcDbVertex
100
AcDb2dVertex
 10
494.507471
 20
402.02282
 30
0.0
  0
VERTEX
  5
114D
330
1144
100
AcDbEntity
  8
SCHRAFFUR_RAND
100
AcDbVertex
100
AcDb2dVertex
 10
493.3544709999999
 20
424.02282
 30
0.0
  0
VERTEX
  5
114E
330
1144
100
AcDbEntity
  8
SCHRAFFUR_RAND
100
AcDbVertex
100
AcDb2dVertex
 10
489.3544709999999
 20
424.02282
 30
0.0
  0
SEQEND
  5
114F
330
1144
100
AcDbEntity
  8
SCHRAFFUR_RAND
  0
DIMENSION
  5
116B
330
123A
100
AcDbEntity
  8
5
100
AcDbDimension
  2
*D15
 10
244.201471
 20
424.02282
 30
0.0
 11
232.4514709999999
 21
404.02282
 31
0.0
 70
    32
  1
40
 71
     5
 42
40.0
  3
GEN-ISO
100
AcDbAlignedDimension
 13
313.736471
 23
384.02282
 33
0.0
 14
295.354471
 24
424.02282
 34
0.0
 50
90.0
100
AcDbRotatedDimension
1001
ACAD
1000
DSTYLE
1002
{
1070
    41
1040
5.0
1002
}
  0
DIMENSION
  5
1175
330
123A
100
AcDbEntity
  8
5
100
AcDbDimension
  2
*D14
 10
494.507471
 20
458.2914624110075
 30
0.0
 11
394.354471
 21
470.0431848519524
 31
0.0
 70
    32
  1
{\Fgeniso.shx;\U+25A1}200
 71
     5
 42
200.306
  3
GEN-ISO
100
AcDbAlignedDimension
 13
294.201471
 23
402.02282
 33
0.0
 14
494.507471
 24
402.02282
 34
0.0
100
AcDbRotatedDimension
1001
GENIUS_GENDTOL_13
1000

1000
h7
1000

1040
0.0
1000
{\Fgeniso.shx;\U+25A1}200
1001
ACAD
1000
DSTYLE
1002
{
1070
    41
1040
5.0
1002
}
  0
INSERT
  5
12CA
330
123A
100
AcDbEntity
  8
0
100
AcDbBlockReference
  2
KATALOG_LEER
 10
251.839706
 20
11.304483
 30
0.0
 41
5.0
 42
5.0
 43
5.0
1001
GENIUS_GENOREF_13
1005
12CB
  0
POINT
  5
12CB
330
123A
100
AcDbEntity
  8
0
 60
     1
100
AcDbPoint
 10
0.0
 20
0.0
 30
0.0
1001
GENIUS_GENOBJ-N-TIT_13
1002
{
1000
OWNER
1000
GEN
1002
}
1001
GENIUS_GENOENT_13
1002
{
1000
MYREF
1005
12CB
1002
}
1002
{
1000
GRP
1005
0
1002
}
1001
GENIUS_GENOLIS_13
1002
{
1000
ENT
1005
12CA
1002
}
1001
GENIUS_GENTITLE_13
1002
{
1000
SCALE
1000
1:5
1002
}
1002
{
1000
BORDER
1000
KATALOG
1002
}
1002
{
1000
TITLE
1000
KATALOG_LEER
1002
}
1002
{
1000
UNCHG
1002
{
1000
GEN-TITLE-SCA
1000
GEN-TITLE-SIZ
1002
}
1002
}
1002
{
1000
HRA
1005
12C3
1002
}
1002
{
1000
HTIT
1005
12CA
1002
}
1002
{
1000
GENIUSID
1005
12CB
1002
}
1001
GENIUS_GENODEF_13
1002
{
1000
HIER
1070
     1
1002
}
1002
{
1000
MANEDIT
1070
     1
1002
}
1002
{
1000
NOSEL
1070
     0
1002
}
1002
{
1000
BEHIND
1070
     0
1002
}
1002
{
1000
REACTOR
1002
}
  0
HATCH
  5
14A7
330
123A
100
AcDbEntity
  8
AM_8
100
AcDbHatch
 10
0.0
 20
0.0
 30
0.0
210
0.0
220
0.0
230
1.0
  2
_U
 70
     0
 71
     0
 91
        1
 92
        1
 93
       19
 72
     1
 10
303.2760239494469
 20
408.3895829038716
 11
303.5014259384937
 21
407.4776624383816
 72
     2
 10
305.772471
 20
408.52282
 40
2.499999999999977
 50
204.7123584066608
 51
248.2255539018429
 73
     1
 72
     1
 10
304.8450867644848
 20
406.2011915887942
 11
305.772471
 21
406.02282
 72
     1
 10
305.772471
 20
406.02282
 11
312.538471
 21
406.02282
 72
     1
 10
312.538471
 20
406.02282
 11
313.4665430479088
 21
406.2014664565063
 72
     2
 10
312.538471
 20
408.52282
 40
2.500000000000003
 50
291.7914217174236
 51
335.1698499976105
 73
     1
 72
     1
 10
314.8073625753054
 20
407.4729957196996
 11
315.034471
 21
408.39182
 72
     1
 10
315.034471
 20
408.39182
 11
315.854471
 21
424.02282
 72
     1
 10
315.854471
 20
424.02282
 11
300.854471
 21
424.02282
 72
     1
 10
300.854471
 20
424.02282
 11
301.168471
 21
418.02282
 72
     1
 10
301.168471
 20
418.02282
 11
301.252471
 21
418.02282
 72
     2
 10
301.2524709999998
 20
416.42282
 40
1.600000000000022
 50
270.0000000000081
 51
288.7844978266146
 73
     0
 72
     1
 10
301.7676862868141
 20
417.9375982703197
 11
302.068471
 21
417.89482
 72
     1
 10
302.068471
 20
417.89482
 11
302.679471
 21
417.3148199999999
 72
     1
 10
302.679471
 20
417.3148199999999
 11
302.7477681898805
 21
416.9921057928453
 72
     2
 10
301.252471
 20
416.42282
 40
1.600000000000008
 50
339.1572955406391
 51
356.9439082246
 73
     0
 72
     1
 10
302.8501955120569
 20
416.5081217208072
 11
302.850471
 21
416.50682
 72
     1
 10
302.850471
 20
416.50682
 11
303.275471
 21
408.39182
 72
     1
 10
303.275471
 20
408.39182
 11
303.2760239494469
 21
408.3895829038716
 97
        0
 75
     0
 76
     0
 52
45.0
 41
2.5
 77
     0
 78
     1
 53
45.0
 43
0.0
 44
0.0
 45
-1.767766952966368
 46
1.767766952966368
 79
     0
 98
        1
 10
0.0
 20
0.0
1001
GENIUS_GENOBJ-N-HTC_13
1002
{
1000
OWNER
1000
GEN
1002
}
1001
GENIUS_GENODEF_13
1002
{
1000
HIER
1070
     0
1002
}
1002
{
1000
MANEDIT
1070
     0
1002
}
1002
{
1000
NOSEL
1070
     0
1002
}
1002
{
1000
BEHIND
1070
     0
1002
}
1002
{
1000
OTHER
1070
     0
1002
}
1002
{
1000
REACTOR
1002
}
1001
GENIUS_GENHATCH_13
1002
{
1000
DATA
1040
45.0
1042
2.5
1000
_U
1070
     0
1011
309.5513038852081
1021
415.9636288393736
1031
0.0
1002
}
1002
{
1000
UCS
1010
0.0
1020
0.0
1030
0.0
1010
1.0
1020
0.0
1030
0.0
1010
0.0
1020
1.0
1030
0.0
1002
}
  0
HATCH
  5
14B5
330
123A
100
AcDbEntity
  8
AM_8
100
AcDbHatch
 10
0.0
 20
0.0
 30
0.0
210
0.0
220
0.0
230
1.0
  2
_U
 70
     0
 71
     0
 91
        1
 92
        1
 93
       11
 72
     1
 10
336.854471
 20
424.02282
 11
325.854471
 21
424.02282
 72
     1
 10
325.854471
 20
424.02282
 11
326.673471
 21
408.39182
 72
     1
 10
326.673471
 20
408.39182
 11
326.9005794246946
 21
407.4729957196996
 72
     2
 10
329.169471
 20
408.52282
 40
2.500000000000011
 50
204.8301500023895
 51
248.2085782825764
 73
     1
 72
     1
 10
328.2413989520912
 20
406.2014664565063
 11
329.169471
 21
406.02282
 72
     1
 10
329.169471
 20
406.02282
 11
333.538471
 21
406.02282
 72
     1
 10
333.538471
 20
406.02282
 11
334.4665430479088
 21
406.2014664565063
 72
     2
 10
333.5384710000001
 20
408.52282
 40
2.499999999999982
 50
291.7914217174224
 51
335.200212488796
 73
     1
 72
     1
 10
335.8079185852972
 20
407.4741982104168
 11
336.0349185460974
 21
408.3895921891486
 72
     1
 10
336.0349185460974
 20
408.3895921891486
 11
336.035471
 21
408.39182
 72
     1
 10
336.035471
 20
408.39182
 11
336.854471
 21
424.02282
 97
        0
 75
     0
 76
     0
 52
45.0
 41
2.5
 77
     0
 78
     1
 53
45.0
 43
0.0
 44
0.0
 45
-1.767766952966368
 46
1.767766952966368
 79
     0
 98
        1
 10
0.0
 20
0.0
1001
GENIUS_GENOBJ-N-HTC_13
1002
{
1000
OWNER
1000
GEN
1002
}
1001
GENIUS_GENODEF_13
1002
{
1000
HIER
1070
     0
1002
}
1002
{
1000
MANEDIT
1070
     0
1002
}
1002
{
1000
NOSEL
1070
     0
1002
}
1002
{
1000
BEHIND
1070
     0
1002
}
1002
{
1000
OTHER
1070
     0
1002
}
1002
{
1000
REACTOR
1002
}
1001
GENIUS_GENHATCH_13
1002
{
1000
DATA
1040
45.0
1042
2.5
1000
_U
1070
     0
1011
331.0933569107374
1021
417.9823872941695
1031
0.0
1002
}
1002
{
1000
UCS
1010
0.0
1020
0.0
1030
0.0
1010
1.0
1020
0.0
1030
0.0
1010
0.0
1020
1.0
1030
0.0
1002
}
  0
HATCH
  5
14BE
330
123A
100
AcDbEntity
  8
AM_8
100
AcDbHatch
 10
0.0
 20
0.0
 30
0.0
210
0.0
220
0.0
230
1.0
  2
_U
 70
     0
 71
     0
 91
        1
 92
        1
 93
       15
 72
     1
 10
357.854471
 20
424.02282
 11
346.854471
 21
424.02282
 72
     1
 10
346.854471
 20
424.02282
 11
347.673471
 21
408.39182
 72
     1
 10
347.673471
 20
408.39182
 11
347.9005794246946
 21
407.4729957196996
 72
     2
 10
350.1694709999999
 20
408.5228200000001
 40
2.499999999999956
 50
204.8301500023929
 51
216.8698976458448
 73
     1
 72
     1
 10
348.1694709999999
 20
407.0228200000001
 11
348.6404353047416
 21
406.5449297496004
 72
     2
 10
350.1694709999999
 20
408.52282
 40
2.499999999999986
 50
232.2936824711625
 51
248.2085782825776
 73
     1
 72
     1
 10
349.2413989520912
 20
406.2014664565063
 11
350.169471
 21
406.02282
 72
     1
 10
350.169471
 20
406.02282
 11
354.538471
 21
406.02282
 72
     1
 10
354.538471
 20
406.02282
 11
355.4665430479088
 21
406.2014664565063
 72
     2
 10
354.5384709999999
 20
408.52282
 40
2.500000000000024
 50
291.7914217174248
 51
307.7063175288367
 73
     1
 72
     1
 10
356.0675066952583
 20
406.5449297496003
 11
356.5384710000001
 21
407.02282
 72
     2
 10
354.538471
 20
408.52282
 40
2.500000000000011
 50
323.1301023541578
 51
335.2002124887965
 73
     1
 72
     1
 10
356.8079185852972
 20
407.4741982104168
 11
357.0349185460974
 21
408.3895921891486
 72
     1
 10
357.0349185460974
 20
408.3895921891486
 11
357.035471
 21
408.39182
 72
     1
 10
357.035471
 20
408.39182
 11
357.854471
 21
424.02282
 97
        0
 75
     0
 76
     0
 52
45.0
 41
3.0
 77
     0
 78
     1
 53
45.0
 43
0.0
 44
0.0
 45
-2.121320343559642
 46
2.121320343559642
 79
     0
 98
        1
 10
0.0
 20
0.0
1001
GENIUS_GENODEF_13
1002
{
1000
HIER
1070
     0
1002
}
1002
{
1000
MANEDIT
1070
     0
1002
}
1002
{
1000
NOSEL
1070
     0
1002
}
1002
{
1000
BEHIND
1070
     0
1002
}
1002
{
1000
OTHER
1070
     0
1002
}
1002
{
1000
REACTOR
1002
}
1001
GENIUS_GENOBJ-N-HTC_13
1002
{
1000
OWNER
1000
GEN
1002
}
1001
GENIUS_GENHATCH_13
1002
{
1000
DATA
1040
45.0
1042
2.5
1000
_U
1070
     0
1011
351.962220688555
1021
414.9542499355122
1031
0.0
1002
}
1002
{
1000
UCS
1010
0.0
1020
0.0
1030
0.0
1010
1.0
1020
0.0
1030
0.0
1010
0.0
1020
1.0
1030
0.0
1002
}
  0
HATCH
  5
14C7
330
123A
100
AcDbEntity
  8
AM_8
100
AcDbHatch
 10
0.0
 20
0.0
 30
0.0
210
0.0
220
0.0
230
1.0
  2
_U
 70
     0
 71
     0
 91
        1
 92
        1
 93
       15
 72
     1
 10
378.854471
 20
424.02282
 11
367.854471
 21
424.02282
 72
     1
 10
367.854471
 20
424.02282
 11
368.673471
 21
408.39182
 72
     1
 10
368.673471
 20
408.39182
 11
368.9005794246946
 21
407.4729957196996
 72
     2
 10
371.1694709999999
 20
408.5228200000001
 40
2.499999999999956
 50
204.8301500023929
 51
216.8698976458448
 73
     1
 72
     1
 10
369.1694709999999
 20
407.0228200000001
 11
369.6404353047416
 21
406.5449297496004
 72
     2
 10
371.1694709999999
 20
408.52282
 40
2.499999999999986
 50
232.2936824711625
 51
248.2085782825776
 73
     1
 72
     1
 10
370.2413989520912
 20
406.2014664565063
 11
371.169471
 21
406.02282
 72
     1
 10
371.169471
 20
406.02282
 11
375.538471
 21
406.02282
 72
     1
 10
375.538471
 20
406.02282
 11
376.4665430479088
 21
406.2014664565063
 72
     2
 10
375.5384709999999
 20
408.52282
 40
2.500000000000024
 50
291.7914217174248
 51
307.7063175288367
 73
     1
 72
     1
 10
377.0675066952583
 20
406.5449297496003
 11
377.5384710000001
 21
407.02282
 72
     2
 10
375.538471
 20
408.52282
 40
2.500000000000011
 50
323.1301023541578
 51
335.2002124887965
 73
     1
 72
     1
 10
377.8079185852972
 20
407.4741982104168
 11
378.0349185460974
 21
408.3895921891486
 72
     1
 10
378.0349185460974
 20
408.3895921891486
 11
378.035471
 21
408.39182
 72
     1
 10
378.035471
 20
408.39182
 11
378.854471
 21
424.02282
 97
        0
 75
     0
 76
     0
 52
45.0
 41
3.0
 77
     0
 78
     1
 53
45.0
 43
0.0
 44
0.0
 45
-2.121320343559642
 46
2.121320343559642
 79
     0
 98
        1
 10
0.0
 20
0.0
1001
GENIUS_GENOBJ-N-HTC_13
1002
{
1000
OWNER
1000
GEN
1002
}
1001
GENIUS_GENODEF_13
1002
{
1000
HIER
1070
     0
1002
}
1002
{
1000
MANEDIT
1070
     0
1002
}
1002
{
1000
NOSEL
1070
     0
1002
}
1002
{
1000
BEHIND
1070
     0
1002
}
1002
{
1000
OTHER
1070
     0
1002
}
1002
{
1000
REACTOR
1002
}
1001
GENIUS_GENHATCH_13
1002
{
1000
DATA
1040
45.0
1042
2.5
1000
_U
1070
     0
1011
373.5042737140844
1021
415.6271689890621
1031
0.0
1002
}
1002
{
1000
UCS
1010
0.0
1020
0.0
1030
0.0
1010
1.0
1020
0.0
1030
0.0
1010
0.0
1020
1.0
1030
0.0
1002
}
  0
HATCH
  5
14D6
330
123A
100
AcDbEntity
  8
AM_8
100
AcDbHatch
 10
0.0
 20
0.0
 30
0.0
210
0.0
220
0.0
230
1.0
  2
_U
 70
     0
 71
     0
 91
        1
 92
        1
 93
       10
 72
     1
 10
399.854471
 20
424.02282
 11
394.354471
 21
424.02282
 72
     1
 10
394.354471
 20
424.02282
 11
394.354471
 21
406.02282
 72
     1
 10
394.354471
 20
406.02282
 11
396.538471
 21
406.02282
 72
     1
 10
396.538471
 20
406.02282
 11
397.4665430479088
 21
406.2014664565063
 72
     2
 10
396.538471
 20
408.52282
 40
2.500000000000024
 50
291.7914217174248
 51
307.7063175288367
 73
     1
 72
     1
 10
398.0675066952583
 20
406.5449297496003
 11
398.5384710000001
 21
407.02282
 72
     2
 10
396.538471
 20
408.52282
 40
2.500000000000011
 50
323.1301023541578
 51
335.2002124887965
 73
     1
 72
     1
 10
398.8079185852972
 20
407.4741982104168
 11
399.0349185460974
 21
408.3895921891486
 72
     1
 10
399.0349185460974
 20
408.3895921891486
 11
399.035471
 21
408.39182
 72
     1
 10
399.035471
 20
408.39182
 11
399.854471
 21
424.02282
 97
        0
 75
     0
 76
     0
 52
45.0
 41
2.5
 77
     0
 78
     1
 53
45.0
 43
0.0
 44
0.0
 45
-1.767766952966368
 46
1.767766952966368
 79
     0
 98
        1
 10
0.0
 20
0.0
1001
GENIUS_GENODEF_13
1002
{
1000
HIER
1070
     0
1002
}
1002
{
1000
MANEDIT
1070
     0
1002
}
1002
{
1000
NOSEL
1070
     0
1002
}
1002
{
1000
BEHIND
1070
     0
1002
}
1002
{
1000
OTHER
1070
     0
1002
}
1002
{
1000
REACTOR
1002
}
1001
GENIUS_GENOBJ-N-HTC_13
1002
{
1000
OWNER
1000
GEN
1002
}
1001
GENIUS_GENHATCH_13
1002
{
1000
DATA
1040
45.0
1042
2.5
1000
_U
1070
     0
1011
396.3927052350367
1021
413.6084111813393
1031
0.0
1002
}
1002
{
1000
UCS
1010
0.0
1020
0.0
1030
0.0
1010
1.0
1020
0.0
1030
0.0
1010
0.0
1020
1.0
1030
0.0
1002
}
  0
HATCH
  5
14DF
330
123A
100
AcDbEntity
  8
AM_8
100
AcDbHatch
 10
0.0
 20
0.0
 30
0.0
210
0.0
220
0.0
230
1.0
  2
_U
 70
     0
 71
     0
 91
        1
 92
        1
 93
        9
 72
     1
 10
388.854471
 20
424.02282
 11
389.673471
 21
408.39182
 72
     1
 10
389.673471
 20
408.39182
 11
389.9005794246946
 21
407.4729957196996
 72
     2
 10
392.1694709999999
 20
408.5228200000001
 40
2.499999999999956
 50
204.8301500023929
 51
216.8698976458448
 73
     1
 72
     1
 10
390.1694709999999
 20
407.0228200000001
 11
390.6404353047416
 21
406.5449297496004
 72
     2
 10
392.1694709999999
 20
408.52282
 40
2.499999999999986
 50
232.2936824711625
 51
248.2085782825776
 73
     1
 72
     1
 10
391.2413989520912
 20
406.2014664565063
 11
392.169471
 21
406.02282
 72
     1
 10
392.169471
 20
406.02282
 11
394.354471
 21
406.02282
 72
     1
 10
394.354471
 20
406.02282
 11
394.354471
 21
424.02282
 72
     1
 10
394.354471
 20
424.02282
 11
388.854471
 21
424.02282
 97
        0
 75
     0
 76
     0
 52
45.0
 41
2.5
 77
     0
 78
     1
 53
45.0
 43
0.0
 44
0.0
 45
-1.767766952966368
 46
1.767766952966368
 79
     0
 98
        1
 10
0.0
 20
0.0
1001
GENIUS_GENOBJ-N-HTC_13
1002
{
1000
OWNER
1000
GEN
1002
}
1001
GENIUS_GENODEF_13
1002
{
1000
HIER
1070
     0
1002
}
1002
{
1000
MANEDIT
1070
     0
1002
}
1002
{
1000
NOSEL
1070
     0
1002
}
1002
{
1000
BEHIND
1070
     0
1002
}
1002
{
1000
OTHER
1070
     0
1002
}
1002
{
1000
REACTOR
1002
}
1001
GENIUS_GENHATCH_13
1002
{
1000
DATA
1040
45.0
1042
2.5
1000
_U
1070
     0
1011
392.3535707158475
1021
415.6271689890621
1031
0.0
1002
}
1002
{
1000
UCS
1010
0.0
1020
0.0
1030
0.0
1010
1.0
1020
0.0
1030
0.0
1010
0.0
1020
1.0
1030
0.0
1002
}
  0
HATCH
  5
14E8
330
123A
100
AcDbEntity
  8
AM_8
100
AcDbHatch
 10
0.0
 20
0.0
 30
0.0
210
0.0
220
0.0
230
1.0
  2
_U
 70
     0
 71
     0
 91
        1
 92
        1
 93
       15
 72
     1
 10
420.8544709999999
 20
424.02282
 11
409.8544709999999
 21
424.02282
 72
     1
 10
409.8544709999999
 20
424.02282
 11
410.673471
 21
408.39182
 72
     1
 10
410.673471
 20
408.39182
 11
410.9005794246945
 21
407.4729957196996
 72
     2
 10
413.1694709999998
 20
408.5228200000001
 40
2.499999999999956
 50
204.8301500023929
 51
216.8698976458448
 73
     1
 72
     1
 10
411.1694709999999
 20
407.0228200000001
 11
411.6404353047415
 21
406.5449297496004
 72
     2
 10
413.1694709999999
 20
408.52282
 40
2.499999999999986
 50
232.2936824711625
 51
248.2085782825776
 73
     1
 72
     1
 10
412.2413989520912
 20
406.2014664565063
 11
413.1694709999999
 21
406.02282
 72
     1
 10
413.1694709999999
 20
406.02282
 11
417.538471
 21
406.02282
 72
     1
 10
417.538471
 20
406.02282
 11
418.4665430479088
 21
406.2014664565063
 72
     2
 10
417.5384709999999
 20
408.52282
 40
2.500000000000024
 50
291.7914217174248
 51
307.7063175288367
 73
     1
 72
     1
 10
419.0675066952583
 20
406.5449297496003
 11
419.538471
 21
407.02282
 72
     2
 10
417.538471
 20
408.52282
 40
2.500000000000011
 50
323.1301023541578
 51
335.2002124887965
 73
     1
 72
     1
 10
419.8079185852972
 20
407.4741982104168
 11
420.0349185460973
 21
408.3895921891486
 72
     1
 10
420.0349185460973
 20
408.3895921891486
 11
420.035471
 21
408.39182
 72
     1
 10
420.035471
 20
408.39182
 11
420.8544709999999
 21
424.02282
 97
        0
 75
     0
 76
     0
 52
45.0
 41
2.5
 77
     0
 78
     1
 53
45.0
 43
0.0
 44
0.0
 45
-1.767766952966368
 46
1.767766952966368
 79
     0
 98
        1
 10
0.0
 20
0.0
1001
GENIUS_GENODEF_13
1002
{
1000
HIER
1070
     0
1002
}
1002
{
1000
MANEDIT
1070
     0
1002
}
1002
{
1000
NOSEL
1070
     0
1002
}
1002
{
1000
BEHIND
1070
     0
1002
}
1002
{
1000
OTHER
1070
     0
1002
}
1002
{
1000
REACTOR
1002
}
1001
GENIUS_GENOBJ-N-HTC_13
1002
{
1000
OWNER
1000
GEN
1002
}
1001
GENIUS_GENHATCH_13
1002
{
1000
DATA
1040
45.0
1042
2.5
1000
_U
1070
     0
1011
414.5688129890883
1021
418.318847144481
1031
0.0
1002
}
1002
{
1000
UCS
1010
0.0
1020
0.0
1030
0.0
1010
1.0
1020
0.0
1030
0.0
1010
0.0
1020
1.0
1030
0.0
1002
}
  0
HATCH
  5
14F1
330
123A
100
AcDbEntity
  8
AM_8
100
AcDbHatch
 10
0.0
 20
0.0
 30
0.0
210
0.0
220
0.0
230
1.0
  2
_U
 70
     0
 71
     0
 91
        1
 92
        1
 93
       15
 72
     1
 10
441.8544709999999
 20
424.02282
 11
430.8544709999999
 21
424.02282
 72
     1
 10
430.8544709999999
 20
424.02282
 11
431.673471
 21
408.39182
 72
     1
 10
431.673471
 20
408.39182
 11
431.9005794246946
 21
407.4729957196996
 72
     2
 10
434.1694709999998
 20
408.5228200000001
 40
2.499999999999956
 50
204.8301500023929
 51
216.8698976458448
 73
     1
 72
     1
 10
432.1694709999999
 20
407.0228200000001
 11
432.6404353047415
 21
406.5449297496004
 72
     2
 10
434.1694709999999
 20
408.52282
 40
2.499999999999986
 50
232.2936824711625
 51
248.2085782825776
 73
     1
 72
     1
 10
433.2413989520912
 20
406.2014664565063
 11
434.1694709999999
 21
406.02282
 72
     1
 10
434.1694709999999
 20
406.02282
 11
438.538471
 21
406.02282
 72
     1
 10
438.538471
 20
406.02282
 11
439.4665430479088
 21
406.2014664565063
 72
     2
 10
438.5384709999999
 20
408.52282
 40
2.500000000000024
 50
291.7914217174248
 51
307.7063175288367
 73
     1
 72
     1
 10
440.0675066952583
 20
406.5449297496003
 11
440.538471
 21
407.02282
 72
     2
 10
438.538471
 20
408.52282
 40
2.500000000000011
 50
323.1301023541578
 51
335.2002124887965
 73
     1
 72
     1
 10
440.8079185852971
 20
407.4741982104168
 11
441.0349185460973
 21
408.3895921891486
 72
     1
 10
441.0349185460973
 20
408.3895921891486
 11
441.035471
 21
408.39182
 72
     1
 10
441.035471
 20
408.39182
 11
441.8544709999999
 21
424.02282
 97
        0
 75
     0
 76
     0
 52
45.0
 41
2.5
 77
     0
 78
     1
 53
45.0
 43
0.0
 44
0.0
 45
-1.767766952966368
 46
1.767766952966368
 79
     0
 98
        1
 10
0.0
 20
0.0
1001
GENIUS_GENOBJ-N-HTC_13
1002
{
1000
OWNER
1000
GEN
1002
}
1001
GENIUS_GENODEF_13
1002
{
1000
HIER
1070
     0
1002
}
1002
{
1000
MANEDIT
1070
     0
1002
}
1002
{
1000
NOSEL
1070
     0
1002
}
1002
{
1000
BEHIND
1070
     0
1002
}
1002
{
1000
OTHER
1070
     0
1002
}
1002
{
1000
REACTOR
1002
}
1001
GENIUS_GENHATCH_13
1002
{
1000
DATA
1040
45.0
1042
2.5
1000
_U
1070
     0
1011
438.4670278980681
1021
414.6177900852006
1031
0.0
1002
}
1002
{
1000
UCS
1010
0.0
1020
0.0
1030
0.0
1010
1.0
1020
0.0
1030
0.0
1010
0.0
1020
1.0
1030
0.0
1002
}
  0
HATCH
  5
14FA
330
123A
100
AcDbEntity
  8
AM_8
100
AcDbHatch
 10
0.0
 20
0.0
 30
0.0
210
0.0
220
0.0
230
1.0
  2
_U
 70
     0
 71
     0
 91
        1
 92
        1
 93
       11
 72
     1
 10
462.8544709999999
 20
424.02282
 11
451.8544709999999
 21
424.02282
 72
     1
 10
451.8544709999999
 20
424.02282
 11
452.673471
 21
408.39182
 72
     1
 10
452.673471
 20
408.39182
 11
452.9005794246946
 21
407.4729957196996
 72
     2
 10
455.1694709999999
 20
408.52282
 40
2.500000000000011
 50
204.8301500023895
 51
248.2085782825764
 73
     1
 72
     1
 10
454.2413989520912
 20
406.2014664565063
 11
455.1694709999999
 21
406.02282
 72
     1
 10
455.1694709999999
 20
406.02282
 11
459.538471
 21
406.02282
 72
     1
 10
459.538471
 20
406.02282
 11
460.4665430479088
 21
406.2014664565063
 72
     2
 10
459.5384710000001
 20
408.52282
 40
2.499999999999982
 50
291.7914217174224
 51
335.200212488796
 73
     1
 72
     1
 10
461.8079185852971
 20
407.4741982104168
 11
462.0349185460973
 21
408.3895921891486
 72
     1
 10
462.0349185460973
 20
408.3895921891486
 11
462.0354709999999
 21
408.39182
 72
     1
 10
462.0354709999999
 20
408.39182
 11
462.8544709999999
 21
424.02282
 97
        0
 75
     0
 76
     0
 52
45.0
 41
2.5
 77
     0
 78
     1
 53
45.0
 43
0.0
 44
0.0
 45
-1.767766952966368
 46
1.767766952966368
 79
     0
 98
        1
 10
0.0
 20
0.0
1001
GENIUS_GENOBJ-N-HTC_13
1002
{
1000
OWNER
1000
GEN
1002
}
1001
GENIUS_GENODEF_13
1002
{
1000
HIER
1070
     0
1002
}
1002
{
1000
MANEDIT
1070
     0
1002
}
1002
{
1000
NOSEL
1070
     0
1002
}
1002
{
1000
BEHIND
1070
     0
1002
}
1002
{
1000
OTHER
1070
     0
1002
}
1002
{
1000
REACTOR
1002
}
1001
GENIUS_GENHATCH_13
1002
{
1000
DATA
1040
45.0
1042
2.5
1000
_U
1070
     0
1011
458.9992975355699
1021
416.3000886896851
1031
0.0
1002
}
1002
{
1000
UCS
1010
0.0
1020
0.0
1030
0.0
1010
1.0
1020
0.0
1030
0.0
1010
0.0
1020
1.0
1030
0.0
1002
}
1001
ACAD
1010
0.0
1020
0.0
1030
0.0
  0
HATCH
  5
1503
330
123A
100
AcDbEntity
  8
AM_8
100
AcDbHatch
 10
0.0
 20
0.0
 30
0.0
210
0.0
220
0.0
230
1.0
  2
_U
 70
     0
 71
     0
 91
        1
 92
        1
 93
       14
 72
     1
 10
487.539471
 20
418.02282
 11
487.8544709999999
 21
424.02282
 72
     1
 10
487.8544709999999
 20
424.02282
 11
472.854471
 21
424.02282
 72
     1
 10
472.854471
 20
424.02282
 11
473.673471
 21
408.39182
 72
     1
 10
473.673471
 20
408.39182
 11
473.9005794246946
 21
407.4729957196996
 72
     2
 10
476.1694709999999
 20
408.52282
 40
2.500000000000011
 50
204.8301500023895
 51
248.2085782825764
 73
     1
 72
     1
 10
475.2413989520912
 20
406.2014664565063
 11
476.1694709999999
 21
406.02282
 72
     1
 10
476.1694709999999
 20
406.02282
 11
482.936471
 21
406.02282
 72
     1
 10
482.936471
 20
406.02282
 11
483.8645430479088
 21
406.2014664565063
 72
     2
 10
482.936471
 20
408.52282
 40
2.500000000000003
 50
291.7914217174236
 51
335.1698499976117
 73
     1
 72
     1
 10
485.2053625753054
 20
407.4729957196997
 11
485.432471
 21
408.39182
 72
     1
 10
485.432471
 20
408.39182
 11
485.858471
 21
416.50682
 72
     1
 10
485.858471
 20
416.50682
 11
486.028471
 21
417.3148199999999
 72
     1
 10
486.028471
 20
417.3148199999999
 11
486.639471
 21
417.89482
 72
     1
 10
486.639471
 20
417.89482
 11
487.539471
 21
418.02282
 97
        0
 75
     0
 76
     0
 52
45.0
 41
2.5
 77
     0
 78
     1
 53
45.0
 43
0.0
 44
0.0
 45
-1.767766952966368
 46
1.767766952966368
 79
     0
 98
        1
 10
0.0
 20
0.0
1001
GENIUS_GENOBJ-N-HTC_13
1002
{
1000
OWNER
1000
GEN
1002
}
1001
GENIUS_GENODEF_13
1002
{
1000
HIER
1070
     0
1002
}
1002
{
1000
MANEDIT
1070
     0
1002
}
1002
{
1000
NOSEL
1070
     0
1002
}
1002
{
1000
BEHIND
1070
     0
1002
}
1002
{
1000
OTHER
1070
     0
1002
}
1002
{
1000
REACTOR
1002
}
1001
GENIUS_GENHATCH_13
1002
{
1000
DATA
1040
45.0
1042
2.5
1000
_U
1070
     0
1011
478.1851886776488
1021
416.9730083903081
1031
0.0
1002
}
1002
{
1000
UCS
1010
0.0
1020
0.0
1030
0.0
1010
1.0
1020
0.0
1030
0.0
1010
0.0
1020
1.0
1030
0.0
1002
}
1001
ACAD
1010
0.0
1020
0.0
1030
0.0
  0
HATCH
  5
150C
330
123A
100
AcDbEntity
  8
AM_8
100
AcDbHatch
 10
0.0
 20
0.0
 30
0.0
210
0.0
220
0.0
230
1.0
  2
_U
 70
     0
 71
     0
 91
        1
 92
        1
 93
       11
 72
     1
 10
295.354471
 20
424.02282
 11
294.201471
 21
402.02282
 72
     1
 10
294.201471
 20
402.02282
 11
295.354471
 21
389.02282
 72
     1
 10
295.354471
 20
389.02282
 11
302.614471
 21
389.02282
 72
     1
 10
302.614471
 20
389.02282
 11
302.351471
 21
393.1038200000001
 72
     1
 10
302.351471
 20
393.1038200000001
 11
302.045471
 21
393.14882
 72
     1
 10
302.045471
 20
393.14882
 11
301.435471
 21
393.72082
 72
     1
 10
301.435471
 20
393.72082
 11
301.3643217739204
 21
394.0401920878517
 72
     2
 10
302.854471
 20
394.6228199999999
 40
1.599999999999971
 50
158.645183159387
 51
176.2364665351859
 73
     0
 72
     1
 10
301.2579214848751
 20
394.5177978796899
 11
301.257471
 21
394.51982
 72
     1
 10
301.257471
 20
394.51982
 11
299.354471
 21
424.02282
 72
     1
 10
299.354471
 20
424.02282
 11
295.354471
 21
424.02282
 97
        0
 75
     0
 76
     0
 52
45.0
 41
5.0
 77
     0
 78
     1
 53
45.0
 43
0.0
 44
0.0
 45
-3.535533905932737
 46
3.535533905932737
 79
     0
 98
        1
 10
0.0
 20
0.0
1001
GENIUS_GENODEF_13
1002
{
1000
HIER
1070
     0
1002
}
1002
{
1000
MANEDIT
1070
     0
1002
}
1002
{
1000
NOSEL
1070
     0
1002
}
1002
{
1000
BEHIND
1070
     0
1002
}
1002
{
1000
OTHER
1070
     0
1002
}
1002
{
1000
REACTOR
1002
}
1001
GENIUS_GENOBJ-N-HTC_13
1002
{
1000
OWNER
1000
GEN
1002
}
1001
GENIUS_GENHATCH_13
1002
{
1000
DATA
1040
45.0
1042
5.0
1000
_U
1070
     0
1011
298.1070876411918
1021
396.785423842349
1031
0.0
1002
}
1002
{
1000
UCS
1010
0.0
1020
0.0
1030
0.0
1010
1.0
1020
0.0
1030
0.0
1010
0.0
1020
1.0
1030
0.0
1002
}
  0
HATCH
  5
1515
330
123A
100
AcDbEntity
  8
AM_8
100
AcDbHatch
 10
0.0
 20
0.0
 30
0.0
210
0.0
220
0.0
230
1.0
  2
_U
 70
     0
 71
     0
 91
        1
 92
        1
 93
        9
 72
     1
 10
487.2724709999999
 20
393.72082
 11
486.663471
 21
393.14882
 72
     1
 10
486.663471
 20
393.14882
 11
486.3574709999999
 21
393.1038200000001
 72
     1
 10
486.3574709999999
 20
393.1038200000001
 11
486.094471
 21
389.02282
 72
     1
 10
486.094471
 20
389.02282
 11
493.3544709999999
 21
389.02282
 72
     1
 10
493.3544709999999
 20
389.02282
 11
494.507471
 21
402.02282
 72
     1
 10
494.507471
 20
402.02282
 11
493.3544709999999
 21
424.02282
 72
     1
 10
493.3544709999999
 20
424.02282
 11
489.3544709999999
 21
424.02282
 72
     1
 10
489.3544709999999
 20
424.02282
 11
487.450471
 21
394.51982
 72
     1
 10
487.450471
 20
394.51982
 11
487.2724709999999
 21
393.72082
 97
        0
 75
     0
 76
     0
 52
45.0
 41
5.0
 77
     0
 78
     1
 53
45.0
 43
0.0
 44
0.0
 45
-3.535533905932737
 46
3.535533905932737
 79
     0
 98
        1
 10
0.0
 20
0.0
1001
GENIUS_GENOBJ-N-HTC_13
1002
{
1000
OWNER
1000
GEN
1002
}
1001
GENIUS_GENODEF_13
1002
{
1000
HIER
1070
     0
1002
}
1002
{
1000
MANEDIT
1070
     0
1002
}
1002
{
1000
NOSEL
1070
     0
1002
}
1002
{
1000
BEHIND
1070
     0
1002
}
1002
{
1000
OTHER
1070
     0
1002
}
1002
{
1000
REACTOR
1002
}
1001
GENIUS_GENHATCH_13
1002
{
1000
DATA
1040
45.0
1042
5.0
1000
_U
1070
     0
1011
491.3123775574039
1021
394.0937456869301
1031
0.0
1002
}
1002
{
1000
UCS
1010
0.0
1020
0.0
1030
0.0
1010
1.0
1020
0.0
1030
0.0
1010
0.0
1020
1.0
1030
0.0
1002
}
  0
LINE
  5
15B7
330
123A
100
AcDbEntity
  8
0
  6
Continuous
 62
     7
100
AcDbLine
 10
493.1439530655
 20
290.6295396800501
 30
0.0
 11
295.5649889345
 21
290.6295396800501
 31
0.0
  0
LINE
  5
15B8
330
123A
100
AcDbEntity
  8
0
  6
Continuous
 62
     7
100
AcDbLine
 10
295.5649889363001
 20
90.6505755508501
 30
0.0
 11
493.1439530671
 21
90.6505755508501
 31
0.0
  0
LINE
  5
15B9
330
123A
100
AcDbEntity
  8
0
  6
Continuous
 62
     7
100
AcDbLine
 10
494.3439530655
 20
91.85057555084993
 30
0.0
 11
494.3439530655
 21
289.4295396818502
 31
0.0
  0
ARC
  5
15BA
330
123A
100
AcDbEntity
  8
0
  6
Continuous
 62
     7
100
AcDbCircle
 10
493.1439530655
 20
91.85057555084993
 30
0.0
 40
1.199999999999999
100
AcDbArc
 50
270.0537471725954
 51
359.9462525785001
  0
ARC
  5
15BB
330
123A
100
AcDbEntity
  8
0
  6
Continuous
 62
     7
100
AcDbCircle
 10
493.1439530655
 20
289.4295396800503
 30
0.0
 40
1.199999999999999
100
AcDbArc
 50
0.0537471726018923
 51
89.9462525785001
  0
LINE
  5
15BC
330
123A
100
AcDbEntity
  8
0
  6
Continuous
 62
     7
100
AcDbLine
 10
294.3649889363001
 20
289.4295396800503
 30
0.0
 11
294.3649889363001
 21
91.85057554905004
 31
0.0
  0
ARC
  5
15BD
330
123A
100
AcDbEntity
  8
0
  6
Continuous
 62
     7
100
AcDbCircle
 10
295.5649889363002
 20
91.85057555084993
 30
0.0
 40
1.199999999999999
100
AcDbArc
 50
180.0537471726018
 51
269.9462525785001
  0
ARC
  5
15BE
330
123A
100
AcDbEntity
  8
0
  6
Continuous
 62
     7
100
AcDbCircle
 10
295.5649889363002
 20
289.4295396800503
 30
0.0
 40
1.199999999999999
100
AcDbArc
 50
90.05374717259538
 51
179.9462525785001
  0
LINE
  5
15BF
330
123A
100
AcDbEntity
  8
BILD
  6
AUSGEZOGEN
 62
     7
100
AcDbLine
 10
303.3544710009
 20
97.1400499854503
 30
0.0
 11
485.3544710009
 21
97.1400499854503
 31
0.0
  0
LINE
  5
15C0
330
123A
100
AcDbEntity
  8
BILD
  6
AUSGEZOGEN
 62
     7
100
AcDbLine
 10
485.3544710009
 20
284.1400652454499
 30
0.0
 11
303.3544710009
 21
284.1400652454499
 31
0.0
  0
ARC
  5
15C1
330
123A
100
AcDbEntity
  8
0
100
AcDbCircle
 10
320.8544710009001
 20
263.6877108924778
 30
0.0
 40
5.0
100
AcDbArc
 50
0.0
 51
180.0
  0
ARC
  5
15C2
330
123A
100
AcDbEntity
  8
0
100
AcDbCircle
 10
362.8544710009001
 20
263.6877108924778
 30
0.0
 40
5.0
100
AcDbArc
 50
0.0
 51
180.0
  0
ARC
  5
15C3
330
123A
100
AcDbEntity
  8
0
100
AcDbCircle
 10
383.8544710009001
 20
263.6877108924778
 30
0.0
 40
5.0
100
AcDbArc
 50
0.0
 51
180.0
  0
ARC
  5
15C4
330
123A
100
AcDbEntity
  8
0
100
AcDbCircle
 10
425.8544710009001
 20
263.6877108924778
 30
0.0
 40
5.0
100
AcDbArc
 50
0.0
 51
180.0
  0
ARC
  5
15C5
330
123A
100
AcDbEntity
  8
0
100
AcDbCircle
 10
446.8544710009001
 20
263.6877108924778
 30
0.0
 40
5.0
100
AcDbArc
 50
0.0
 51
180.0
  0
ARC
  5
15C6
330
123A
100
AcDbEntity
  8
0
100
AcDbCircle
 10
404.8544710009001
 20
263.6877108924778
 30
0.0
 40
5.0
100
AcDbArc
 50
0.0
 51
180.0
  0
ARC
  5
15C7
330
123A
100
AcDbEntity
  8
0
100
AcDbCircle
 10
467.8544710009001
 20
263.6877108924778
 30
0.0
 40
5.0
100
AcDbArc
 50
0.0
 51
180.0
  0
LINE
  5
15C8
330
123A
100
AcDbEntity
  8
BILD
  6
AUSGEZOGEN
 62
     7
100
AcDbLine
 10
487.8544710009
 20
99.6400499854503
 30
0.0
 11
487.8544710009
 21
281.6400652454499
 31
0.0
  0
ARC
  5
15C9
330
123A
100
AcDbEntity
  8
0
100
AcDbCircle
 10
341.8544710009001
 20
263.6877108924778
 30
0.0
 40
5.0
100
AcDbArc
 50
0.0
 51
180.0
  0
LINE
  5
15CA
330
123A
100
AcDbEntity
  8
Sichtbare Kanten
  6
Continuous
 48
0.0
370
    50
100
AcDbLine
 10
462.8544710009
 20
263.6877108924778
 30
0.0
 11
462.8544710009
 21
117.6884278984221
 31
0.0
1001
GENIUS_GENOBJ-N-CEN_13
1002
{
1000
OWNER
1000
GEN
1002
}
1001
GENIUS_GENODEF_13
1002
{
1000
HIER
1070
     0
1002
}
1002
{
1000
MANEDIT
1070
     0
1002
}
1002
{
1000
NOSEL
1070
     0
1002
}
1002
{
1000
BEHIND
1070
     0
1002
}
1002
{
1000
OTHER
1070
     0
1002
}
1002
{
1000
REACTOR
1002
}
  0
LINE
  5
15CB
330
123A
100
AcDbEntity
  8
Sichtbare Kanten
  6
Continuous
 48
0.0
370
    50
100
AcDbLine
 10
472.8544710009
 20
263.6877108924778
 30
0.0
 11
472.8544710009
 21
117.6884278984221
 31
0.0
1001
GENIUS_GENOBJ-N-CEN_13
1002
{
1000
OWNER
1000
GEN
1002
}
1001
GENIUS_GENODEF_13
1002
{
1000
HIER
1070
     0
1002
}
1002
{
1000
MANEDIT
1070
     0
1002
}
1002
{
1000
NOSEL
1070
     0
1002
}
1002
{
1000
BEHIND
1070
     0
1002
}
1002
{
1000
OTHER
1070
     0
1002
}
1002
{
1000
REACTOR
1002
}
  0
LINE
  5
15CC
330
123A
100
AcDbEntity
  8
Sichtbare Kanten
  6
Continuous
 48
0.0
370
    50
100
AcDbLine
 10
451.8544710009
 20
263.6877108924778
 30
0.0
 11
451.8544710009
 21
117.6884278984221
 31
0.0
1001
GENIUS_GENOBJ-N-CEN_13
1002
{
1000
OWNER
1000
GEN
1002
}
1001
GENIUS_GENODEF_13
1002
{
1000
HIER
1070
     0
1002
}
1002
{
1000
MANEDIT
1070
     0
1002
}
1002
{
1000
NOSEL
1070
     0
1002
}
1002
{
1000
BEHIND
1070
     0
1002
}
1002
{
1000
OTHER
1070
     0
1002
}
1002
{
1000
REACTOR
1002
}
  0
LINE
  5
15CD
330
123A
100
AcDbEntity
  8
Sichtbare Kanten
  6
Continuous
 48
0.0
370
    50
100
AcDbLine
 10
441.8544710009
 20
263.6877108924778
 30
0.0
 11
441.8544710009
 21
117.6884278984221
 31
0.0
1001
GENIUS_GENOBJ-N-CEN_13
1002
{
1000
OWNER
1000
GEN
1002
}
1001
GENIUS_GENODEF_13
1002
{
1000
HIER
1070
     0
1002
}
1002
{
1000
MANEDIT
1070
     0
1002
}
1002
{
1000
NOSEL
1070
     0
1002
}
1002
{
1000
BEHIND
1070
     0
1002
}
1002
{
1000
OTHER
1070
     0
1002
}
1002
{
1000
REACTOR
1002
}
  0
ARC
  5
15CE
330
123A
100
AcDbEntity
  8
0
100
AcDbCircle
 10
467.8544710009001
 20
117.6884278984221
 30
0.0
 40
5.0
100
AcDbArc
 50
180.0
 51
0.0
  0
ARC
  5
15CF
330
123A
100
AcDbEntity
  8
BILD
  6
AUSGEZOGEN
 62
     7
100
AcDbCircle
 10
485.3544710009001
 20
99.6400499854503
 30
0.0
 40
2.5
100
AcDbArc
 50
270.0
 51
0.0
  0
ARC
  5
15D0
330
123A
100
AcDbEntity
  8
0
100
AcDbCircle
 10
446.8544710009001
 20
117.6884278984221
 30
0.0
 40
5.0
100
AcDbArc
 50
180.0
 51
0.0
  0
LINE
  5
15D1
330
123A
100
AcDbEntity
  8
Sichtbare Kanten
  6
Continuous
 48
0.0
370
    50
100
AcDbLine
 10
336.8544710009
 20
263.6877108924778
 30
0.0
 11
336.8544710009
 21
117.6884278984221
 31
0.0
1001
GENIUS_GENOBJ-N-CEN_13
1002
{
1000
OWNER
1000
GEN
1002
}
1001
GENIUS_GENODEF_13
1002
{
1000
HIER
1070
     0
1002
}
1002
{
1000
MANEDIT
1070
     0
1002
}
1002
{
1000
NOSEL
1070
     0
1002
}
1002
{
1000
BEHIND
1070
     0
1002
}
1002
{
1000
OTHER
1070
     0
1002
}
1002
{
1000
REACTOR
1002
}
  0
LINE
  5
15D2
330
123A
100
AcDbEntity
  8
Sichtbare Kanten
  6
Continuous
 48
0.0
370
    50
100
AcDbLine
 10
325.8544710009001
 20
263.6877108924778
 30
0.0
 11
325.8544710009001
 21
117.6884278984221
 31
0.0
1001
GENIUS_GENOBJ-N-CEN_13
1002
{
1000
OWNER
1000
GEN
1002
}
1001
GENIUS_GENODEF_13
1002
{
1000
HIER
1070
     0
1002
}
1002
{
1000
MANEDIT
1070
     0
1002
}
1002
{
1000
NOSEL
1070
     0
1002
}
1002
{
1000
BEHIND
1070
     0
1002
}
1002
{
1000
OTHER
1070
     0
1002
}
1002
{
1000
REACTOR
1002
}
  0
LINE
  5
15D3
330
123A
100
AcDbEntity
  8
Sichtbare Kanten
  6
Continuous
 48
0.0
370
    50
100
AcDbLine
 10
315.8544710009
 20
263.6877108924778
 30
0.0
 11
315.8544710009
 21
117.6884278984221
 31
0.0
1001
GENIUS_GENOBJ-N-CEN_13
1002
{
1000
OWNER
1000
GEN
1002
}
1001
GENIUS_GENODEF_13
1002
{
1000
HIER
1070
     0
1002
}
1002
{
1000
MANEDIT
1070
     0
1002
}
1002
{
1000
NOSEL
1070
     0
1002
}
1002
{
1000
BEHIND
1070
     0
1002
}
1002
{
1000
OTHER
1070
     0
1002
}
1002
{
1000
REACTOR
1002
}
  0
LINE
  5
15D4
330
123A
100
AcDbEntity
  8
Sichtbare Kanten
  6
Continuous
 48
0.0
370
    50
100
AcDbLine
 10
346.8544710009
 20
263.6877108924778
 30
0.0
 11
346.8544710009
 21
117.6884278984221
 31
0.0
1001
GENIUS_GENOBJ-N-CEN_13
1002
{
1000
OWNER
1000
GEN
1002
}
1001
GENIUS_GENODEF_13
1002
{
1000
HIER
1070
     0
1002
}
1002
{
1000
MANEDIT
1070
     0
1002
}
1002
{
1000
NOSEL
1070
     0
1002
}
1002
{
1000
BEHIND
1070
     0
1002
}
1002
{
1000
OTHER
1070
     0
1002
}
1002
{
1000
REACTOR
1002
}
  0
LINE
  5
15D5
330
123A
100
AcDbEntity
  8
Sichtbare Kanten
  6
Continuous
 48
0.0
370
    50
100
AcDbLine
 10
430.8544710009
 20
263.6877108924778
 30
0.0
 11
430.8544710009
 21
117.6884278984221
 31
0.0
1001
GENIUS_GENOBJ-N-CEN_13
1002
{
1000
OWNER
1000
GEN
1002
}
1001
GENIUS_GENODEF_13
1002
{
1000
HIER
1070
     0
1002
}
1002
{
1000
MANEDIT
1070
     0
1002
}
1002
{
1000
NOSEL
1070
     0
1002
}
1002
{
1000
BEHIND
1070
     0
1002
}
1002
{
1000
OTHER
1070
     0
1002
}
1002
{
1000
REACTOR
1002
}
  0
LINE
  5
15D6
330
123A
100
AcDbEntity
  8
Sichtbare Kanten
  6
Continuous
 48
0.0
370
    50
100
AcDbLine
 10
420.8544710009
 20
263.6877108924778
 30
0.0
 11
420.8544710009
 21
117.6884278984221
 31
0.0
1001
GENIUS_GENOBJ-N-CEN_13
1002
{
1000
OWNER
1000
GEN
1002
}
1001
GENIUS_GENODEF_13
1002
{
1000
HIER
1070
     0
1002
}
1002
{
1000
MANEDIT
1070
     0
1002
}
1002
{
1000
NOSEL
1070
     0
1002
}
1002
{
1000
BEHIND
1070
     0
1002
}
1002
{
1000
OTHER
1070
     0
1002
}
1002
{
1000
REACTOR
1002
}
  0
LINE
  5
15D7
330
123A
100
AcDbEntity
  8
Sichtbare Kanten
  6
Continuous
 48
0.0
370
    50
100
AcDbLine
 10
409.8544710009
 20
263.6877108924778
 30
0.0
 11
409.8544710009
 21
117.6884278984221
 31
0.0
1001
GENIUS_GENOBJ-N-CEN_13
1002
{
1000
OWNER
1000
GEN
1002
}
1001
GENIUS_GENODEF_13
1002
{
1000
HIER
1070
     0
1002
}
1002
{
1000
MANEDIT
1070
     0
1002
}
1002
{
1000
NOSEL
1070
     0
1002
}
1002
{
1000
BEHIND
1070
     0
1002
}
1002
{
1000
OTHER
1070
     0
1002
}
1002
{
1000
REACTOR
1002
}
  0
LINE
  5
15D8
330
123A
100
AcDbEntity
  8
Sichtbare Kanten
  6
Continuous
 48
0.0
370
    50
100
AcDbLine
 10
399.8544710009
 20
263.6877108924778
 30
0.0
 11
399.8544710009
 21
117.6884278984221
 31
0.0
1001
GENIUS_GENOBJ-N-CEN_13
1002
{
1000
OWNER
1000
GEN
1002
}
1001
GENIUS_GENODEF_13
1002
{
1000
HIER
1070
     0
1002
}
1002
{
1000
MANEDIT
1070
     0
1002
}
1002
{
1000
NOSEL
1070
     0
1002
}
1002
{
1000
BEHIND
1070
     0
1002
}
1002
{
1000
OTHER
1070
     0
1002
}
1002
{
1000
REACTOR
1002
}
  0
LINE
  5
15D9
330
123A
100
AcDbEntity
  8
Sichtbare Kanten
  6
Continuous
 48
0.0
370
    50
100
AcDbLine
 10
388.8544710009
 20
263.6877108924778
 30
0.0
 11
388.8544710009
 21
117.6884278984221
 31
0.0
1001
GENIUS_GENOBJ-N-CEN_13
1002
{
1000
OWNER
1000
GEN
1002
}
1001
GENIUS_GENODEF_13
1002
{
1000
HIER
1070
     0
1002
}
1002
{
1000
MANEDIT
1070
     0
1002
}
1002
{
1000
NOSEL
1070
     0
1002
}
1002
{
1000
BEHIND
1070
     0
1002
}
1002
{
1000
OTHER
1070
     0
1002
}
1002
{
1000
REACTOR
1002
}
  0
LINE
  5
15DA
330
123A
100
AcDbEntity
  8
Sichtbare Kanten
  6
Continuous
 48
0.0
370
    50
100
AcDbLine
 10
378.8544710009
 20
263.6877108924778
 30
0.0
 11
378.8544710009
 21
117.6884278984221
 31
0.0
1001
GENIUS_GENOBJ-N-CEN_13
1002
{
1000
OWNER
1000
GEN
1002
}
1001
GENIUS_GENODEF_13
1002
{
1000
HIER
1070
     0
1002
}
1002
{
1000
MANEDIT
1070
     0
1002
}
1002
{
1000
NOSEL
1070
     0
1002
}
1002
{
1000
BEHIND
1070
     0
1002
}
1002
{
1000
OTHER
1070
     0
1002
}
1002
{
1000
REACTOR
1002
}
  0
LINE
  5
15DB
330
123A
100
AcDbEntity
  8
Sichtbare Kanten
  6
Continuous
 48
0.0
370
    50
100
AcDbLine
 10
367.8544710009
 20
263.6877108924778
 30
0.0
 11
367.8544710009
 21
117.6884278984221
 31
0.0
1001
GENIUS_GENOBJ-N-CEN_13
1002
{
1000
OWNER
1000
GEN
1002
}
1001
GENIUS_GENODEF_13
1002
{
1000
HIER
1070
     0
1002
}
1002
{
1000
MANEDIT
1070
     0
1002
}
1002
{
1000
NOSEL
1070
     0
1002
}
1002
{
1000
BEHIND
1070
     0
1002
}
1002
{
1000
OTHER
1070
     0
1002
}
1002
{
1000
REACTOR
1002
}
  0
LINE
  5
15DC
330
123A
100
AcDbEntity
  8
Sichtbare Kanten
  6
Continuous
 48
0.0
370
    50
100
AcDbLine
 10
357.8544710009
 20
263.6877108924778
 30
0.0
 11
357.8544710009
 21
117.6884278984221
 31
0.0
1001
GENIUS_GENOBJ-N-CEN_13
1002
{
1000
OWNER
1000
GEN
1002
}
1001
GENIUS_GENODEF_13
1002
{
1000
HIER
1070
     0
1002
}
1002
{
1000
MANEDIT
1070
     0
1002
}
1002
{
1000
NOSEL
1070
     0
1002
}
1002
{
1000
BEHIND
1070
     0
1002
}
1002
{
1000
OTHER
1070
     0
1002
}
1002
{
1000
REACTOR
1002
}
  0
ARC
  5
15DD
330
123A
100
AcDbEntity
  8
0
100
AcDbCircle
 10
404.8544710009001
 20
117.6884278984221
 30
0.0
 40
5.0
100
AcDbArc
 50
180.0
 51
0.0
  0
ARC
  5
15DE
330
123A
100
AcDbEntity
  8
0
100
AcDbCircle
 10
425.8544710009001
 20
117.6884278984221
 30
0.0
 40
5.0
100
AcDbArc
 50
180.0
 51
0.0
  0
ARC
  5
15DF
330
123A
100
AcDbEntity
  8
0
100
AcDbCircle
 10
383.8544710009001
 20
117.6884278984221
 30
0.0
 40
5.0
100
AcDbArc
 50
180.0
 51
0.0
  0
ARC
  5
15E0
330
123A
100
AcDbEntity
  8
0
100
AcDbCircle
 10
341.8544710009001
 20
117.6884278984221
 30
0.0
 40
5.0
100
AcDbArc
 50
180.0
 51
0.0
  0
ARC
  5
15E1
330
123A
100
AcDbEntity
  8
0
100
AcDbCircle
 10
362.8544710009001
 20
117.6884278984221
 30
0.0
 40
5.0
100
AcDbArc
 50
180.0
 51
0.0
  0
ARC
  5
15E2
330
123A
100
AcDbEntity
  8
0
100
AcDbCircle
 10
320.8544710009001
 20
117.6884278984221
 30
0.0
 40
5.0
100
AcDbArc
 50
180.0
 51
0.0
  0
ARC
  5
15E3
330
123A
100
AcDbEntity
  8
BILD
  6
AUSGEZOGEN
 62
     7
100
AcDbCircle
 10
485.3544710009001
 20
281.6400652454499
 30
0.0
 40
2.5
100
AcDbArc
 50
0.0
 51
90.0
  0
LINE
  5
15E4
330
123A
100
AcDbEntity
  8
BILD
  6
AUSGEZOGEN
 62
     7
100
AcDbLine
 10
300.8544710009001
 20
281.6400652454499
 30
0.0
 11
300.8544710009001
 21
99.6400499854503
 31
0.0
  0
ARC
  5
15E5
330
123A
100
AcDbEntity
  8
BILD
  6
AUSGEZOGEN
 62
     7
100
AcDbCircle
 10
303.3544710009001
 20
99.6400499854503
 30
0.0
 40
2.5
100
AcDbArc
 50
180.0
 51
270.0
  0
ARC
  5
15E6
330
123A
100
AcDbEntity
  8
BILD
  6
AUSGEZOGEN
 62
     7
100
AcDbCircle
 10
303.3544710009001
 20
281.6400652454499
 30
0.0
 40
2.5
100
AcDbArc
 50
90.0
 51
180.0
  0
DIMENSION
  5
15E7
330
123A
100
AcDbEntity
  8
5
100
AcDbDimension
  2
*D23
 10
451.8544710009001
 20
39.88448787257264
 30
0.0
 11
512.7363607646795
 21
39.88448787257264
 31
0.0
 70
   160
 71
     5
 42
10.00000000000005
  3
GEN-ISO
100
AcDbAlignedDimension
 13
441.8544710009
 23
117.6884278984221
 33
0.0
 14
451.8544710009001
 24
117.6884278984221
 34
0.0
100
AcDbRotatedDimension
1001
ACAD
1000
DSTYLE
1002
{
1070
    41
1040
5.0
1002
}
  0
ENDSEC
  0
SECTION
  2
OBJECTS
  0
DICTIONARY
  5
122E
330
0
100
AcDbDictionary
281
     1
  3
ACAD_COLOR
350
13C1
  3
ACAD_GROUP
350
122F
  3
ACAD_LAYOUT
350
13C4
  3
ACAD_MATERIAL
350
13C0
  3
ACAD_MLINESTYLE
350
123D
  3
ACAD_PLOTSETTINGS
350
13C5
  3
ACAD_PLOTSTYLENAME
350
13BE
  3
ACAD_TABLESTYLE
350
13C2
  3
ACDBHEADERROUNDTRIPXREC
350
163E
  3
AcDbVariableDictionary
350
1639
  3
AcmDictionary
350
1423
  3
AMG
350
13C9
  3
AMGSNAPSETTINGS
350
1491
  0
DICTIONARY
  5
14A3
330
1224
100
AcDbDictionary
280
     1
281
     1
  3
ACAD_LAYERSTATES
360
157E
  3
AMLAYER_GROUPCOLORS
360
14A4
  0
DICTIONARY
  5
14A8
330
123A
100
AcDbDictionary
280
     1
281
     1
  3
ACAD_SORTENTS
360
14A9
  0
DICTIONARY
  5
13C1
102
{ACAD_REACTORS
330
122E
102
}
330
122E
100
AcDbDictionary
281
     1
  0
DICTIONARY
  5
122F
102
{ACAD_REACTORS
330
122E
102
}
330
122E
100
AcDbDictionary
281
     1
  0
DICTIONARY
  5
13C4
102
{ACAD_REACTORS
330
122E
102
}
330
122E
100
AcDbDictionary
281
     1
  3
Layout1
350
13C7
  3
Model
350
13C6
  0
DICTIONARY
  5
13C0
102
{ACAD_REACTORS
330
122E
102
}
330
122E
100
AcDbDictionary
281
     1
  0
DICTIONARY
  5
123D
102
{ACAD_REACTORS
330
122E
102
}
330
122E
100
AcDbDictionary
281
     1
  3
STANDARD
350
123E
  0
DICTIONARY
  5
13C5
102
{ACAD_REACTORS
330
122E
102
}
330
122E
100
AcDbDictionary
281
     1
  0
ACDBDICTIONARYWDFLT
  5
13BE
102
{ACAD_REACTORS
330
122E
102
}
330
122E
100
AcDbDictionary
281
     1
  3
Normal
350
13BF
100
AcDbDictionaryWithDefault
340
13BF
  0
DICTIONARY
  5
13C2
102
{ACAD_REACTORS
330
122E
102
}
330
122E
100
AcDbDictionary
281
     1
  3
Standard
350
13C3
  0
DICTIONARY
  5
163E
102
{ACAD_REACTORS
330
122E
102
}
330
122E
100
AcDbDictionary
281
     1
  0
DICTIONARY
  5
1639
102
{ACAD_REACTORS
330
122E
102
}
330
122E
100
AcDbDictionary
281
     1
  3
CTABLESTYLE
350
163A
  3
DIMASSOC
350
163B
  3
PROJECTNAME
350
163C
  0
DICTIONARY
  5
1423
102
{ACAD_REACTORS
330
122E
102
}
330
122E
100
AcDbDictionary
281
     1
  3
AcmStdDictionary
350
142E
  3
AMDTSECTSYM_ARROWCOLOR
350
1451
  0
DICTIONARY
  5
13C9
102
{ACAD_REACTORS
330
122E
102
}
330
122E
100
AcDbDictionary
281
     1
  0
DICTIONARY
  5
1491
102
{ACAD_REACTORS
330
122E
102
}
330
122E
100
AcDbDictionary
281
     1
  0
DICTIONARY
  5
157E
102
{ACAD_REACTORS
330
14A3
102
}
330
14A3
100
AcDbDictionary
281
     1
  0
DICTIONARY
  5
14A4
102
{ACAD_REACTORS
330
14A3
102
}
330
14A3
100
AcDbDictionary
280
     1
281
     1
  0
SORTENTSTABLE
  5
14A9
102
{ACAD_REACTORS
330
14A8
102
}
330
14A8
100
AcDbSortentsTable
330
123A
331
108C
  5
108C
331
1069
  5
1069
331
1047
  5
1047
331
1025
  5
1025
331
1175
  5
1175
331
1503
  5
1502
331
1058
  5
1058
331
1036
  5
1036
331
1014
  5
1014
331
1003
  5
1003
331
1067
  5
1067
331
1045
  5
1045
331
1023
  5
1023
331
14DF
  5
14DE
331
1056
  5
1056
331
1034
  5
1034
331
1012
  5
1012
331
1001
  5
1001
331
1065
  5
1065
331
1043
  5
1043
331
1021
  5
1021
331
1054
  5
1054
331
1032
  5
1032
331
1010
  5
1010
331
1063
  5
1063
331
1041
  5
1041
331
1074
  5
1074
331
1052
  5
1052
331
1030
  5
1030
331
101F
  5
101F
331
100E
  5
100E
331
150C
  5
150B
331
1061
  5
1061
331
1072
  5
1072
331
1050
  5
1050
331
102E
  5
102E
331
103F
  5
103F
331
101D
  5
101D
331
100C
  5
100C
331
14E8
  5
14E7
331
116B
  5
116B
331
14B5
  5
14B4
331
1070
  5
1070
331
104E
  5
104E
331
102C
  5
102C
331
105F
  5
105F
331
103D
  5
103D
331
101B
  5
101B
331
100A
  5
100A
331
106E
  5
106E
331
104C
  5
104C
331
102A
  5
102A
331
105D
  5
105D
331
103B
  5
103B
331
1019
  5
1019
331
1008
  5
1008
331
106C
  5
106C
331
104A
  5
104A
331
1028
  5
1028
331
105B
  5
105B
331
1039
  5
1039
331
1017
  5
1017
331
1006
  5
1006
331
1515
  5
1514
331
106A
  5
106A
331
1048
  5
1048
331
1026
  5
1026
331
1059
  5
1059
331
1037
  5
1037
331
1015
  5
1015
331
1004
  5
1004
331
14F1
  5
14F0
331
1068
  5
1068
331
1046
  5
1046
331
1024
  5
1024
331
14BE
  5
14BD
331
1057
  5
1057
331
1035
  5
1035
331
1013
  5
1013
331
1002
  5
1002
331
1066
  5
1066
331
1044
  5
1044
331
1022
  5
1022
331
1055
  5
1055
331
1033
  5
1033
331
1011
  5
1011
331
1064
  5
1064
331
1042
  5
1042
331
1020
  5
1020
331
1075
  5
1075
331
1053
  5
1053
331
1031
  5
1031
331
100F
  5
100F
331
1062
  5
1062
331
1040
  5
1040
331
111A
  5
111A
331
109E
  5
109E
331
1073
  5
1073
331
1051
  5
1051
331
102F
  5
102F
331
101E
  5
101E
331
100D
  5
100D
331
1060
  5
1060
331
14FA
  5
14F9
331
10DE
  5
10DE
331
1071
  5
1071
331
104F
  5
104F
331
102D
  5
102D
331
14C7
  5
14C6
331
103E
  5
103E
331
101C
  5
101C
331
100B
  5
100B
331
10B3
  5
10B3
331
14D6
  5
14D5
331
106F
  5
106F
331
104D
  5
104D
331
102B
  5
102B
331
105E
  5
105E
331
103C
  5
103C
331
101A
  5
101A
331
1009
  5
1009
331
10F3
  5
10F3
331
10C8
  5
10C8
331
14A7
  5
14A5
331
106D
  5
106D
331
104B
  5
104B
331
1029
  5
1029
331
105C
  5
105C
331
103A
  5
103A
331
1018
  5
1018
331
1007
  5
1007
331
12CA
  5
12CA
331
1108
  5
1108
331
1144
  5
1144
331
1131
  5
1131
331
106B
  5
106B
331
1049
  5
1049
331
1027
  5
1027
331
105A
  5
105A
331
1038
  5
1038
331
1016
  5
1016
331
1005
  5
1005
  0
LAYOUT
  5
13C7
102
{ACAD_XDICTIONARY
360
1641
102
}
102
{ACAD_REACTORS
330
13C4
102
}
330
13C4
100
AcDbPlotSettings
  1

  2
Xerox Document Centre CS50 PS
  4

  6

 40
0.0
 41
0.0
 42
0.0
 43
0.0
 44
0.0
 45
0.0
 46
0.0
 47
0.0
 48
0.0
 49
0.0
140
0.0
141
0.0
142
1.0
143
1.0
 70
   688
 72
     0
 73
     0
 74
     5
  7

 75
    16
147
1.0
148
0.0
149
0.0
100
AcDbLayout
  1
Layout1
 70
     1
 71
     1
 10
0.0
 20
0.0
 11
209.9
 21
296.9
 12
0.0
 22
0.0
 32
0.0
 14
0.0
 24
0.0
 34
0.0
 15
209.9
 25
296.9
 35
0.0
146
0.0
 13
0.0
 23
0.0
 33
0.0
 16
1.0
 26
0.0
 36
0.0
 17
0.0
 27
1.0
 37
0.0
 76
     0
330
1237
  0
LAYOUT
  5
13C6
102
{ACAD_XDICTIONARY
360
163F
102
}
102
{ACAD_REACTORS
330
13C4
102
}
330
13C4
100
AcDbPlotSettings
  1

  2
Xerox Document Centre CS50 PS
  4

  6

 40
0.0
 41
0.0
 42
0.0
 43
0.0
 44
0.0
 45
0.0
 46
0.0
 47
0.0
 48
0.0
 49
0.0
140
0.0
141
0.0
142
1.0
143
1.0
 70
  1712
 72
     0
 73
     0
 74
     0
  7

 75
     0
147
1.0
148
0.0
149
0.0
100
AcDbLayout
  1
Model
 70
     1
 71
     0
 10
0.0
 20
0.0
 11
12.0
 21
9.0
 12
0.0
 22
0.0
 32
0.0
 14
0.0
 24
0.0
 34
0.0
 15
0.0
 25
0.0
 35
0.0
146
0.0
 13
0.0
 23
0.0
 33
0.0
 16
1.0
 26
0.0
 36
0.0
 17
0.0
 27
1.0
 37
0.0
 76
     0
330
123A
  0
MLINESTYLE
  5
123E
102
{ACAD_REACTORS
330
123D
102
}
330
123D
100
AcDbMlineStyle
  2
STANDARD
 70
     0
  3

 62
   256
 51
90.0
 52
90.0
 71
     2
 49
0.5
 62
   256
  6
BYLAYER
 49
-0.5
 62
   256
  6
BYLAYER
  0
ACDBPLACEHOLDER
  5
13BF
102
{ACAD_REACTORS
330
13BE
102
}
330
13BE
  0
TABLESTYLE
  5
13C3
102
{ACAD_REACTORS
330
13C2
102
}
330
13C2
100
AcDbTableStyle
  3
Standard
 70
     0
 71
     0
 40
1.5
 41
1.5
280
     0
281
     0
  7
STANDARD
140
4.5
170
     2
 62
     0
 63
     7
283
     0
274
    -2
284
     1
 64
     0
275
    -2
285
     1
 65
     0
276
    -2
286
     1
 66
     0
277
    -2
287
     1
 67
     0
278
    -2
288
     1
 68
     0
279
    -2
289
     1
 69
     0
  7
STANDARD
140
6.0
170
     5
 62
     0
 63
     7
283
     0
274
    -2
284
     1
 64
     0
275
    -2
285
     1
 65
     0
276
    -2
286
     1
 66
     0
277
    -2
287
     1
 67
     0
278
    -2
288
     1
 68
     0
279
    -2
289
     1
 69
     0
  7
STANDARD
140
4.5
170
     5
 62
     0
 63
     7
283
     0
274
    -2
284
     1
 64
     0
275
    -2
285
     1
 65
     0
276
    -2
286
     1
 66
     0
277
    -2
287
     1
 67
     0
278
    -2
288
     1
 68
     0
279
    -2
289
     1
 69
     0
  0
DICTIONARYVAR
  5
163A
102
{ACAD_REACTORS
330
1639
102
}
330
1639
100
DictionaryVariables
280
     0
  1
STANDARD
  0
DICTIONARYVAR
  5
163B
102
{ACAD_REACTORS
330
1639
102
}
330
1639
100
DictionaryVariables
280
     0
  1
1
  0
DICTIONARYVAR
  5
163C
102
{ACAD_REACTORS
330
1639
102
}
330
1639
100
DictionaryVariables
280
     0
  1

  0
DICTIONARY
  5
142E
102
{ACAD_REACTORS
330
1423
102
}
330
1423
100
AcDbDictionary
281
     1
  0
XRECORD
  5
1451
102
{ACAD_REACTORS
330
1423
102
}
330
1423
100
AcDbXrecord
280
     1
 90
-1023410169
  0
DICTIONARY
  5
1641
330
13C7
100
AcDbDictionary
280
     1
281
     1
  3
ACAD_XREC_ROUNDTRIP
360
1642
  0
DICTIONARY
  5
163F
330
13C6
100
AcDbDictionary
280
     1
281
     1
  3
ACAD_XREC_ROUNDTRIP
360
1640
  0
XRECORD
  5
1642
102
{ACAD_REACTORS
330
1641
102
}
330
1641
100
AcDbXrecord
280
     1
102
SHADEPLOT
 70
     0
102
SHADEPLOTRESLEVEL
 70
     2
102
SHADEPLOTCUSTOMDPI
 70
   300
  0
XRECORD
  5
1640
102
{ACAD_REACTORS
330
163F
102
}
330
163F
100
AcDbXrecord
280
     1
102
SHADEPLOT
 70
     0
102
SHADEPLOTRESLEVEL
 70
     2
102
SHADEPLOTCUSTOMDPI
 70
   300
  0
ENDSEC
  0
EOF
