  0
SECTION
  2
HEADER
  9
$ACADVER
  1
AC1015
  9
$ACADMAINTVER
 70
    20
  9
$DWGCODEPAGE
  3
ANSI_1252
  9
$INSBASE
 10
0.0
 20
0.0
 30
0.0
  9
$EXTMIN
 10
376.1526063556698
 20
311.4867119154506
 30
-0.0015258207003583
  9
$EXTMAX
 10
763.8621085966729
 20
525.0218674349853
 30
0.0000000349246037
  9
$LIMMIN
 10
0.0
 20
0.0
  9
$LIMMAX
 10
1189.0
 20
841.0
  9
$ORTHOMODE
 70
     1
  9
$REGENMODE
 70
     1
  9
$FILLMODE
 70
     1
  9
$QTEXTMODE
 70
     0
  9
$MIRRTEXT
 70
     0
  9
$LTSCALE
 40
65.395
  9
$ATTMODE
 70
     1
  9
$TEXTSIZE
 40
0.2
  9
$TRACEWID
 40
0.05
  9
$TEXTSTYLE
  7
STANDARD
  9
$CLAYER
  8
0
  9
$CELTYPE
  6
BYLAYER
  9
$CECOLOR
 62
   256
  9
$CELTSCALE
 40
1.0
  9
$DISPSILH
 70
     0
  9
$DIMSCALE
 40
1.0
  9
$DIMASZ
 40
3.5
  9
$DIMEXO
 40
7.43125
  9
$DIMDLI
 40
45.18199999999999
  9
$DIMRND
 40
0.0
  9
$DIMDLE
 40
0.0
  9
$DIMEXE
 40
21.402
  9
$DIMTP
 40
0.005
  9
$DIMTM
 40
0.005
  9
$DIMTXT
 40
3.5
  9
$DIMCEN
 40
10.701
  9
$DIMTSZ
 40
0.0
  9
$DIMTOL
 70
     1
  9
$DIMLIM
 70
     0
  9
$DIMTIH
 70
     1
  9
$DIMTOH
 70
     1
  9
$DIMSE1
 70
     0
  9
$DIMSE2
 70
     0
  9
$DIMTAD
 70
     0
  9
$DIMZIN
 70
     0
  9
$DIMBLK
  1
_FILLED
  9
$DIMASO
 70
     1
  9
$DIMSHO
 70
     1
  9
$DIMPOST
  1

  9
$DIMAPOST
  1

  9
$DIMALT
 70
     0
  9
$DIMALTD
 70
     2
  9
$DIMALTF
 40
25.4
  9
$DIMLFAC
 40
1.0
  9
$DIMTOFL
 70
     0
  9
$DIMTVP
 40
0.0
  9
$DIMTIX
 70
     0
  9
$DIMSOXD
 70
     0
  9
$DIMSAH
 70
     0
  9
$DIMBLK1
  1

  9
$DIMBLK2
  1

  9
$DIMSTYLE
  2
STANDARD
  9
$DIMCLRD
 70
     0
  9
$DIMCLRE
 70
     0
  9
$DIMCLRT
 70
     0
  9
$DIMTFAC
 40
1.0
  9
$DIMGAP
 40
0.09
  9
$DIMJUST
 70
     0
  9
$DIMSD1
 70
     0
  9
$DIMSD2
 70
     0
  9
$DIMTOLJ
 70
     1
  9
$DIMTZIN
 70
     0
  9
$DIMALTZ
 70
     0
  9
$DIMALTTZ
 70
     0
  9
$DIMUPT
 70
     0
  9
$DIMDEC
 70
     4
  9
$DIMTDEC
 70
     4
  9
$DIMALTU
 70
     2
  9
$DIMALTTD
 70
     2
  9
$DIMTXSTY
  7
STANDARD
  9
$DIMAUNIT
 70
     0
  9
$DIMADEC
 70
     0
  9
$DIMALTRND
 40
0.0
  9
$DIMAZIN
 70
     0
  9
$DIMDSEP
 70
    46
  9
$DIMATFIT
 70
     3
  9
$DIMFRAC
 70
     0
  9
$DIMLDRBLK
  1

  9
$DIMLUNIT
 70
     2
  9
$DIMLWD
 70
    -2
  9
$DIMLWE
 70
    -2
  9
$DIMTMOVE
 70
     0
  9
$LUNITS
 70
     2
  9
$LUPREC
 70
     2
  9
$SKETCHINC
 40
0.1
  9
$FILLETRAD
 40
0.0
  9
$AUNITS
 70
     0
  9
$AUPREC
 70
     0
  9
$MENU
  1
.
  9
$ELEVATION
 40
0.0
  9
$PELEVATION
 40
0.0
  9
$THICKNESS
 40
0.0
  9
$LIMCHECK
 70
     0
  9
$CHAMFERA
 40
0.0
  9
$CHAMFERB
 40
0.0
  9
$CHAMFERC
 40
0.0
  9
$CHAMFERD
 40
0.0
  9
$SKPOLY
 70
     0
  9
$TDCREATE
 40
2456325.332838588
  9
$TDUCREATE
 40
2456325.291171921
  9
$TDUPDATE
 40
2456325.336106806
  9
$TDUUPDATE
 40
2456325.294440139
  9
$TDINDWG
 40
0.0032685764
  9
$TDUSRTIMER
 40
0.0032685764
  9
$USRTIMER
 70
     1
  9
$ANGBASE
 50
0.0
  9
$ANGDIR
 70
     0
  9
$PDMODE
 70
     3
  9
$PDSIZE
 40
0.3125
  9
$PLINEWID
 40
0.0
  9
$SPLFRAME
 70
     0
  9
$SPLINETYPE
 70
     6
  9
$SPLINESEGS
 70
     8
  9
$HANDSEED
  5
613
  9
$SURFTAB1
 70
     6
  9
$SURFTAB2
 70
     6
  9
$SURFTYPE
 70
     6
  9
$SURFU
 70
     6
  9
$SURFV
 70
     6
  9
$UCSBASE
  2

  9
$UCSNAME
  2

  9
$UCSORG
 10
0.0
 20
0.0
 30
0.0
  9
$UCSXDIR
 10
1.0
 20
0.0
 30
0.0
  9
$UCSYDIR
 10
0.0
 20
1.0
 30
0.0
  9
$UCSORTHOREF
  2

  9
$UCSORTHOVIEW
 70
     0
  9
$UCSORGTOP
 10
0.0
 20
0.0
 30
0.0
  9
$UCSORGBOTTOM
 10
0.0
 20
0.0
 30
0.0
  9
$UCSORGLEFT
 10
0.0
 20
0.0
 30
0.0
  9
$UCSORGRIGHT
 10
0.0
 20
0.0
 30
0.0
  9
$UCSORGFRONT
 10
0.0
 20
0.0
 30
0.0
  9
$UCSORGBACK
 10
0.0
 20
0.0
 30
0.0
  9
$PUCSBASE
  2

  9
$PUCSNAME
  2

  9
$PUCSORG
 10
0.0
 20
0.0
 30
0.0
  9
$PUCSXDIR
 10
1.0
 20
0.0
 30
0.0
  9
$PUCSYDIR
 10
0.0
 20
1.0
 30
0.0
  9
$PUCSORTHOREF
  2

  9
$PUCSORTHOVIEW
 70
     0
  9
$PUCSORGTOP
 10
0.0
 20
0.0
 30
0.0
  9
$PUCSORGBOTTOM
 10
0.0
 20
0.0
 30
0.0
  9
$PUCSORGLEFT
 10
0.0
 20
0.0
 30
0.0
  9
$PUCSORGRIGHT
 10
0.0
 20
0.0
 30
0.0
  9
$PUCSORGFRONT
 10
0.0
 20
0.0
 30
0.0
  9
$PUCSORGBACK
 10
0.0
 20
0.0
 30
0.0
  9
$USERI1
 70
     0
  9
$USERI2
 70
     0
  9
$USERI3
 70
     0
  9
$USERI4
 70
     0
  9
$USERI5
 70
     0
  9
$USERR1
 40
0.0
  9
$USERR2
 40
0.0
  9
$USERR3
 40
0.0
  9
$USERR4
 40
0.0
  9
$USERR5
 40
0.0
  9
$WORLDVIEW
 70
     1
  9
$SHADEDGE
 70
     3
  9
$SHADEDIF
 70
    70
  9
$TILEMODE
 70
     1
  9
$MAXACTVP
 70
    64
  9
$PINSBASE
 10
0.0
 20
0.0
 30
0.0
  9
$PLIMCHECK
 70
     0
  9
$PEXTMIN
 10
1.000000000000000E+20
 20
1.000000000000000E+20
 30
1.000000000000000E+20
  9
$PEXTMAX
 10
-1.000000000000000E+20
 20
-1.000000000000000E+20
 30
-1.000000000000000E+20
  9
$PLIMMIN
 10
0.0
 20
0.0
  9
$PLIMMAX
 10
12.0
 20
9.0
  9
$UNITMODE
 70
     0
  9
$VISRETAIN
 70
     1
  9
$PLINEGEN
 70
     0
  9
$PSLTSCALE
 70
     1
  9
$TREEDEPTH
 70
  3020
  9
$CMLSTYLE
  2
Standard
  9
$CMLJUST
 70
     0
  9
$CMLSCALE
 40
1.0
  9
$PROXYGRAPHICS
 70
     1
  9
$MEASUREMENT
 70
     1
  9
$CELWEIGHT
370
    -1
  9
$ENDCAPS
280
     0
  9
$JOINSTYLE
280
     0
  9
$LWDISPLAY
290
     0
  9
$INSUNITS
 70
     4
  9
$HYPERLINKBASE
  1

  9
$STYLESHEET
  1

  9
$XEDIT
290
     1
  9
$CEPSNTYPE
380
     0
  9
$PSTYLEMODE
290
     1
  9
$FINGERPRINTGUID
  2
{E23AE0D1-890E-4156-96E0-D065706B8AC9}
  9
$VERSIONGUID
  2
{E9937AA6-8C44-49F2-920A-A45B4A74FC17}
  9
$EXTNAMES
290
     1
  9
$PSVPSCALE
 40
0.0
  9
$OLESTARTUP
290
     0
  0
ENDSEC
  0
SECTION
  2
CLASSES
  0
CLASS
  1
ACDBDICTIONARYWDFLT
  2
AcDbDictionaryWithDefault
  3
ObjectDBX Classes
 90
        0
280
     0
281
     0
  0
CLASS
  1
ACDBPLACEHOLDER
  2
AcDbPlaceHolder
  3
ObjectDBX Classes
 90
        0
280
     0
281
     0
  0
CLASS
  1
LAYOUT
  2
AcDbLayout
  3
ObjectDBX Classes
 90
        0
280
     0
281
     0
  0
CLASS
  1
MATERIAL
  2
AcDbMaterial
  3
ObjectDBX Classes
 90
     1153
280
     0
281
     0
  0
CLASS
  1
VISUALSTYLE
  2
AcDbVisualStyle
  3
ObjectDBX Classes
 90
     4095
280
     0
281
     0
  0
CLASS
  1
TABLESTYLE
  2
AcDbTableStyle
  3
ObjectDBX Classes
 90
     4095
280
     0
281
     0
  0
CLASS
  1
SCALE
  2
AcDbScale
  3
ObjectDBX Classes
 90
     1153
280
     0
281
     0
  0
CLASS
  1
MLEADERSTYLE
  2
AcDbMLeaderStyle
  3
ACDB_MLEADERSTYLE_CLASS
 90
     4095
280
     0
281
     0
  0
CLASS
  1
AMGSETTINGSOBJ
  2
AmgSettingsObj
  3
"AcadM|Product Description: AutoCAD Mechanical|Company: Autodesk, Inc."
 90
     1024
280
     0
281
     0
  0
CLASS
  1
ACME_DOCUMENT
  2
AcMeDbDoc
  3
AcMeServices
 90
     1024
280
     0
281
     0
  0
CLASS
  1
ACMESCOPE
  2
AcMeScope
  3
AcMeServices
 90
     1024
280
     0
281
     0
  0
CLASS
  1
ACMECOMMANDHISTORY
  2
AcMeCommandHistory
  3
AcMeServices
 90
     1024
280
     0
281
     0
  0
CLASS
  1
ACIMSYSVARMAN
  2
AcImSysVarManager
  3
AcMeServices
 90
     1024
280
     0
281
     0
  0
CLASS
  1
ACIMINTSYSVAR
  2
AcImIntSysVar
  3
AcMeServices
 90
     1024
280
     0
281
     0
  0
CLASS
  1
ACMEDRAWINGMAN
  2
AcMeDrawingMan
  3
AcMeServices
 90
     1024
280
     0
281
     0
  0
CLASS
  1
ACMEVIEW
  2
AcMeView
  3
AcMeServices
 90
     1024
280
     0
281
     0
  0
CLASS
  1
ACDBENTITYCACHE
  2
AcMeEntityCache
  3
AcMeServices
 90
     1024
280
     0
281
     0
  0
CLASS
  1
ACMESTATEMGR
  2
AcMeStateMgr
  3
AcMeServices
 90
     1024
280
     0
281
     0
  0
CLASS
  1
ACGREFMASTER
  2
AcGrefMaster
  3
AcAttribServices
 90
     1024
280
     0
281
     0
  0
CLASS
  1
AM_DRAWING_MGR
  2
AcDmDwgMgr
  3
AcMechDwgViewMgmt
 90
     1024
280
     0
281
     0
  0
CLASS
  1
AM_DWG_DOCUMENT
  2
AcDmDwgDocument
  3
AcMechDwgViewMgmt
 90
     1024
280
     0
281
     0
  0
CLASS
  1
AM_DWG_SHEET
  2
AcDmSheet
  3
AcMechDwgViewMgmt
 90
     1024
280
     0
281
     0
  0
CLASS
  1
AM_VIEWDIMPARMAP
  2
AcDmViewDimParMap
  3
AcMechDwgViewMgmt
 90
     1024
280
     0
281
     0
  0
CLASS
  1
AMDTINTERNALREACTOR
  2
AmdtInternalReactor
  3
AcMeServices
 90
     1024
280
     0
281
     0
  0
CLASS
  1
ACIMREALSYSVAR
  2
AcImRealSysVar
  3
AcMeServices
 90
     1024
280
     0
281
     0
  0
CLASS
  1
AM_DWGMGR_NAME
  2
AcDmDwgMgrName
  3
AcMechDwgViewMgmt
 90
     1024
280
     0
281
     0
  0
CLASS
  1
ACME_DATABASE
  2
AcMeDbDatabase
  3
AcMeServices
 90
     1024
280
     0
281
     0
  0
CLASS
  1
ACRFINSADJUSTERMGR
  2
AcRfInsAdjusterMgr
  3
AcMeServices
 90
     1024
280
     0
281
     0
  0
CLASS
  1
ACGREFACADMASTER
  2
AcGrefacadMaster
  3
AcGrefServices
 90
     1024
280
     0
281
     0
  0
CLASS
  1
AMDTMENUSTATEMGR
  2
AmdtMenuStateMgr
  3
McadcomServices
 90
     1024
280
     0
281
     0
  0
CLASS
  1
AMDTMCOMMENUSTATE
  2
AmdtMcomMenuState
  3
McadcomServices
 90
     1024
280
     0
281
     0
  0
CLASS
  1
AMIMASTER
  2
AmiMaster
  3
AmiServices
 90
     1024
280
     0
281
     0
  0
CLASS
  1
MAPIAMMOUDLE
  2
MApiAmModule
  3
MApiAmServices
 90
     1024
280
     0
281
     0
  0
CLASS
  1
ACIMSTRSYSVAR
  2
AcImStrSysVar
  3
AcMeServices
 90
     1024
280
     0
281
     0
  0
CLASS
  1
AMDTADMENUSTATE
  2
AmdtAdMenuState
  3
DesignerServices
 90
     1024
280
     0
281
     0
  0
CLASS
  1
ADAPPL
  2
AcAdAppl
  3
DesignerServices
 90
     1024
280
     0
281
     0
  0
CLASS
  1
DEPMGR
  2
AcAdDepMgr
  3
DesignerServices
 90
     1024
280
     0
281
     0
  0
CLASS
  1
PARAMMGR
  2
AcAdParamMgr
  3
DesignerServices
 90
     1024
280
     0
281
     0
  0
CLASS
  1
PARAMSCOPE
  2
AcAdParamScope
  3
DesignerServices
 90
     1024
280
     0
281
     0
  0
CLASS
  1
NAMEDAPPL
  2
AcAdNamedAppl
  3
DesignerServices
 90
     1024
280
     0
281
     0
  0
CLASS
  1
AMDTDMMENUSTATE
  2
AmdtDmMenuState
  3
AcMechDwgViewMgmt
 90
     1024
280
     0
281
     0
  0
CLASS
  1
AMDTAMMENUSTATE
  2
AmdtAmMenuState
  3
DesignerAssemblies
 90
     1024
280
     0
281
     0
  0
CLASS
  1
ACAMPROJECT
  2
AcAmProject
  3
DesignerAssemblies
 90
     1024
280
     0
281
     0
  0
CLASS
  1
ACAMGRCOMPDEF
  2
AcAmGrCompDef
  3
DesignerAssemblies
 90
     1024
280
     0
281
     0
  0
CLASS
  1
ACAMCOMPDEF
  2
AcAmCompDef
  3
DesignerAssemblies
 90
     1024
280
     0
281
     0
  0
CLASS
  1
ACAMCOMPDEFMGR
  2
AcAmCompDefMgr
  3
DesignerAssemblies
 90
     1024
280
     0
281
     0
  0
CLASS
  1
AMCONTEXTMGR
  2
AcAmContextMgr
  3
DesignerAssemblies
 90
     1024
280
     0
281
     0
  0
CLASS
  1
ACAMCONTEXTMODELER
  2
AcAmContextModeler
  3
DesignerAssemblies
 90
     1024
280
     0
281
     0
  0
CLASS
  1
ACMDATADICTIONARY
  2
AcmDataDictionary
  3
"AcmSymBB|Product Description: AutoCAD Mechanical|Company: Autodesk, Inc."
 90
     1024
280
     0
281
     0
  0
CLASS
  1
CATALOGSTATE
  2
AcAmCatalogState
  3
DesignerAssemblies
 90
     1024
280
     0
281
     0
  0
CLASS
  1
ACAMGRCOMPDEFSET
  2
AcAmGrCompDefSet
  3
DesignerAssemblies
 90
     1024
280
     0
281
     0
  0
CLASS
  1
AMDTBROWSERDBTAB
  2
AmdtBrowserDbTab
  3
McadcomServices
 90
     1024
280
     0
281
     0
  0
CLASS
  1
CBROWSERAPPOBJECT
  2
CBrowserAppObject
  3
McadcomServices
 90
     1024
280
     0
281
     0
  0
CLASS
  1
DM_PLACEHOLDER
  2
AcDmSelsetPlaceholder
  3
AcMechDwgViewMgmt
 90
     1024
280
     0
281
     0
  0
CLASS
  1
ACMSTANDARDDIN
  2
AcmStandardDIN
  3
"Amdt_StdImp|Product Description: AutoCAD Mechanical|Company: Autodesk, Inc."
 90
     1024
280
     0
281
     0
  0
CLASS
  1
AMDTEDGESTANDARDDIN13715
  2
AmdtEdgeStdDIN13715
  3
"Amdt_StdImp|Product Description: AutoCAD Mechanical|Company: Autodesk, Inc."
 90
     1024
280
     0
281
     0
  0
CLASS
  1
ACMSURFSTANDARDDIN2002
  2
AcmSurfTextStdDIN2002
  3
"Amdt_StdImp|Product Description: AutoCAD Mechanical|Company: Autodesk, Inc."
 90
     1024
280
     0
281
     0
  0
CLASS
  1
ACMFCFSTANDARDDIN
  2
AcmFCFStdDIN
  3
"Amdt_StdImp|Product Description: AutoCAD Mechanical|Company: Autodesk, Inc."
 90
     1024
280
     0
281
     0
  0
CLASS
  1
ACMWELDSTANDARDDIN
  2
AcmWeldingStdDIN
  3
"Amdt_StdImp|Product Description: AutoCAD Mechanical|Company: Autodesk, Inc."
 90
     1024
280
     0
281
     0
  0
CLASS
  1
ACMIDSTANDARDDIN
  2
AcmIdStdDIN
  3
"Amdt_StdImp|Product Description: AutoCAD Mechanical|Company: Autodesk, Inc."
 90
     1024
280
     0
281
     0
  0
CLASS
  1
ACMDATUMSTANDARDDIN
  2
AcmDatumStdDIN
  3
"Amdt_StdImp|Product Description: AutoCAD Mechanical|Company: Autodesk, Inc."
 90
     1024
280
     0
281
     0
  0
CLASS
  1
ACMBOMSTANDARDDIN
  2
AcmBOMStdDIN
  3
"Amdt_StdImp|Product Description: AutoCAD Mechanical|Company: Autodesk, Inc."
 90
     1024
280
     0
281
     0
  0
CLASS
  1
ACMDETAILSTANDARDDIN
  2
AmdtDetailSymStdDIN
  3
"Amdt_StdImp|Product Description: AutoCAD Mechanical|Company: Autodesk, Inc."
 90
     1024
280
     0
281
     0
  0
CLASS
  1
ACMSECTIONSTANDARDDIN
  2
AmdtSectionSymStdDIN
  3
"Amdt_StdImp|Product Description: AutoCAD Mechanical|Company: Autodesk, Inc."
 90
     1024
280
     0
281
     0
  0
CLASS
  1
ACMCENTERLINESTANDARDDIN
  2
AmdtCenterLineStdDIN
  3
"Amdt_StdImp|Product Description: AutoCAD Mechanical|Company: Autodesk, Inc."
 90
     1024
280
     0
281
     0
  0
CLASS
  1
ACMTHREADLINESTANDARDDIN
  2
AmdtThreadLineStdDIN
  3
"Amdt_StdImp|Product Description: AutoCAD Mechanical|Company: Autodesk, Inc."
 90
     1024
280
     0
281
     0
  0
CLASS
  1
ACMNOTESTANDARDDIN
  2
AmdtNoteStdDIN
  3
"Amdt_StdImp|Product Description: AutoCAD Mechanical|Company: Autodesk, Inc."
 90
     1024
280
     0
281
     0
  0
CLASS
  1
ACMTAPERSTANDARDDIN
  2
AcmTaperStdDIN
  3
"Amdt_StdImp|Product Description: AutoCAD Mechanical|Company: Autodesk, Inc."
 90
     1024
280
     0
281
     0
  0
CLASS
  1
ACMANOOTATIONVIEWSTANDARDDIN
  2
AmdtAnViewStdDIN
  3
"Amdt_StdImp|Product Description: AutoCAD Mechanical|Company: Autodesk, Inc."
 90
     1024
280
     0
281
     0
  0
CLASS
  1
ACAMGLAYSTD
  2
AcAmgLayStd
  3
"AmgLay|Product Description: AutoCAD Mechanical|Company: Autodesk, Inc."
 90
     1024
280
     0
281
     0
  0
CLASS
  1
ACAMGDIMSTD
  2
AcAmgDimStd
  3
"AmgDim|Product Description: AutoCAD Mechanical|Company: Autodesk, Inc."
 90
     1024
280
     0
281
     0
  0
CLASS
  1
AMGOBJPROPCFG
  2
AmgObjPropCfg
  3
"AmgLay|Product Description: AutoCAD Mechanical|Company: Autodesk, Inc."
 90
     1025
280
     0
281
     0
  0
CLASS
  1
ACAMGHOLECHARTSTDDIN
  2
AcAmgHoleChartStdDIN
  3
AmgDim|Product Description: AutoCAD Mechanical|Company: Autodesk, Inc.
 90
     1024
280
     0
281
     0
  0
CLASS
  1
ACAMGTITLESTD
  2
AcAmgTitleStd
  3
"AmgTitle|Product Description: AutoCAD Mechanical|Company: Autodesk, Inc."
 90
     4095
280
     0
281
     0
  0
CLASS
  1
AMDTNOTETEMPLATEDB
  2
AmdtNoteTemplateDB
  3
AcmSymBB|Product Description: AutoCAD Mechanical|Company: Autodesk, Inc.
 90
     1024
280
     0
281
     0
  0
CLASS
  1
ACAMGFILTERDAT
  2
AcAmgFilterDat
  3
"AcadM|Product Description: AutoCAD Mechanical|Company: Autodesk, Inc."
 90
     1024
280
     0
281
     0
  0
CLASS
  1
DICTIONARYVAR
  2
AcDbDictionaryVar
  3
ObjectDBX Classes
 90
        0
280
     0
281
     0
  0
CLASS
  1
CELLSTYLEMAP
  2
AcDbCellStyleMap
  3
ObjectDBX Classes
 90
     1152
280
     0
281
     0
  0
ENDSEC
  0
SECTION
  2
TABLES
  0
TABLE
  2
VPORT
  5
8
330
0
100
AcDbSymbolTable
 70
     1
  0
VPORT
  5
1F4
330
8
100
AcDbSymbolTableRecord
100
AcDbViewportTableRecord
  2
*ACTIVE
 70
     0
 10
0.0
 20
0.0
 11
1.0
 21
1.0
 12
570.0073574761713
 22
418.2542896752179
 13
0.0
 23
0.0
 14
1.0
 24
1.0
 15
0.0
 25
0.0
 16
0.0
 26
0.0
 36
1.0
 17
0.0
 27
0.0
 37
0.0
 40
215.0442378906975
 41
1.850235849056603
 42
50.0
 43
0.0
 44
0.0
 50
0.0
 51
0.0
 71
     0
 72
   100
 73
     1
 74
     1
 75
     0
 76
     0
 77
     0
 78
     0
281
     0
 65
     0
110
0.0
120
0.0
130
0.0
111
1.0
121
0.0
131
0.0
112
0.0
122
1.0
132
0.0
 79
     0
146
0.0
  0
ENDTAB
  0
TABLE
  2
LTYPE
  5
5
330
0
100
AcDbSymbolTable
 70
    23
  0
LTYPE
  5
14
330
5
100
AcDbSymbolTableRecord
100
AcDbLinetypeTableRecord
  2
BYBLOCK
 70
     0
  3

 72
    65
 73
     0
 40
0.0
  0
LTYPE
  5
15
330
5
100
AcDbSymbolTableRecord
100
AcDbLinetypeTableRecord
  2
BYLAYER
 70
     0
  3

 72
    65
 73
     0
 40
0.0
  0
LTYPE
  5
16
330
5
100
AcDbSymbolTableRecord
100
AcDbLinetypeTableRecord
  2
CONTINUOUS
 70
     0
  3
Solid line
 72
    65
 73
     0
 40
0.0
  0
LTYPE
  5
1F5
330
5
100
AcDbSymbolTableRecord
100
AcDbLinetypeTableRecord
  2
CENTER
 70
     0
  3
____ _ ____ _ ____ _ ____ _ ____ _ ____ _ ____
 72
    65
 73
     4
 40
0.6
 49
0.375
 74
     0
 49
-0.075
 74
     0
 49
0.075
 74
     0
 49
-0.075
 74
     0
  0
LTYPE
  5
1F6
330
5
100
AcDbSymbolTableRecord
100
AcDbLinetypeTableRecord
  2
HIDDEN
 70
     0
  3
- - - - - - - - - - - - - - - - - - - -
 72
    65
 73
     2
 40
0.2
 49
0.1
 74
     0
 49
-0.1
 74
     0
  0
LTYPE
  5
1F7
330
5
100
AcDbSymbolTableRecord
100
AcDbLinetypeTableRecord
  2
PHANTOM
 70
     0
  3
_____ _ _ _____ _ _ _____ _ _ _____
 72
    65
 73
     6
 40
0.8
 49
0.45
 74
     0
 49
-0.05
 74
     0
 49
0.1
 74
     0
 49
-0.05
 74
     0
 49
0.1
 74
     0
 49
-0.05
 74
     0
  0
LTYPE
  5
1F8
330
5
100
AcDbSymbolTableRecord
100
AcDbLinetypeTableRecord
  2
DOT
 70
     0
  3
. . . . . . . . . . . . . . . . . . . .
 72
    65
 73
     2
 40
0.2
 49
0.1
 74
     0
 49
-0.1
 74
     0
  0
LTYPE
  5
1F9
330
5
100
AcDbSymbolTableRecord
100
AcDbLinetypeTableRecord
  2
DASHED
 70
     0
  3
- - - - - - - - - - - - - - - - - - - -
 72
    65
 73
     2
 40
0.2
 49
0.1
 74
     0
 49
-0.1
 74
     0
  0
LTYPE
  5
49B
330
5
100
AcDbSymbolTableRecord
100
AcDbLinetypeTableRecord
  2
PHANTOM2
 70
     0
  3
Phantom (.5x) ___ _ _ ___ _ _ ___ _ _ ___ _ _
 72
    65
 73
     6
 40
31.75
 49
15.875
 74
     0
 49
-3.174999999999999
 74
     0
 49
3.174999999999999
 74
     0
 49
-3.174999999999999
 74
     0
 49
3.174999999999999
 74
     0
 49
-3.174999999999999
 74
     0
  0
LTYPE
  5
4E1
330
5
100
AcDbSymbolTableRecord
100
AcDbLinetypeTableRecord
  2
AM_ISO02W050
 70
     0
  3
__ __ __ __ __ __ __ __ __ __ __ __ __ __ __
 72
    65
 73
     2
 40
7.5
 49
6.0
 74
     0
 49
-1.5
 74
     0
  0
LTYPE
  5
4E2
330
5
100
AcDbSymbolTableRecord
100
AcDbLinetypeTableRecord
  2
AM_ISO08W050
 70
     0
  3
____ . ____ . ____ . ____ . ____ . ____ . ____
 72
    65
 73
     4
 40
18.0
 49
12.0
 74
     0
 49
-1.5
 74
     0
 49
3.0
 74
     0
 49
-1.5
 74
     0
  0
LTYPE
  5
4E3
330
5
100
AcDbSymbolTableRecord
100
AcDbLinetypeTableRecord
  2
AM_ISO09W050
 70
     0
  3
_____ . . _____ . . _____ . . ____ .. ____
 72
    65
 73
     6
 40
22.5
 49
12.0
 74
     0
 49
-1.5
 74
     0
 49
3.0
 74
     0
 49
-1.5
 74
     0
 49
3.0
 74
     0
 49
-1.5
 74
     0
  0
LTYPE
  5
4E4
330
5
100
AcDbSymbolTableRecord
100
AcDbLinetypeTableRecord
  2
Amconstr
 70
     0
  3
_______________________
 72
    65
 73
     2
 40
9999.0
 49
9999.0
 74
     0
 49
0.0
 74
     0
  0
LTYPE
  5
4E5
330
5
100
AcDbSymbolTableRecord
100
AcDbLinetypeTableRecord
  2
AM_ISO08W050x2
 70
     0
  3
__ . __ . __ . __ . __ . __
 72
    65
 73
     4
 40
9.0
 49
6.0
 74
     0
 49
-0.75
 74
     0
 49
1.5
 74
     0
 49
-0.75
 74
     0
  0
LTYPE
  5
4E6
330
5
100
AcDbSymbolTableRecord
100
AcDbLinetypeTableRecord
  2
AM_ISO02W050x2
 70
     0
  3
 _ _ _ _ _ _ _ _ _ _ _ _
 72
    65
 73
     2
 40
3.75
 49
3.0
 74
     0
 49
-0.75
 74
     0
  0
LTYPE
  5
4E9
330
5
100
AcDbSymbolTableRecord
100
AcDbLinetypeTableRecord
  2
Amzigzag
 70
     0
  3
/\/-/\/-/\/-/\/-/\/-/\/
 72
    65
 73
     2
 40
11.0001
 49
0.0001
 74
     4
 75
   136
340
4E8
 46
0.04
 50
0.0
 44
0.0
 45
0.0
 49
-11.0
 74
     0
  0
LTYPE
  5
4EA
330
5
100
AcDbSymbolTableRecord
100
AcDbLinetypeTableRecord
  2
AM_DIN_F_W050
 70
     0
  3
__ __ __ __ __ __ __ __ __ __ __ __ __ __ __
 72
    65
 73
     2
 40
6.25
 49
4.75
 74
     0
 49
-1.5
 74
     0
  0
LTYPE
  5
4EB
330
5
100
AcDbSymbolTableRecord
100
AcDbLinetypeTableRecord
  2
AM_DIN_G_W050
 70
     0
  3
____ . ____ . ____ . ____ . ____ . ____ . ____
 72
    65
 73
     4
 40
13.75
 49
9.75
 74
     0
 49
-1.5
 74
     0
 49
1.0
 74
     0
 49
-1.5
 74
     0
  0
LTYPE
  5
4EC
330
5
100
AcDbSymbolTableRecord
100
AcDbLinetypeTableRecord
  2
AM_DIN_K_W050
 70
     0
  3
_____ . . _____ . . _____ . . ____ .. ____
 72
    65
 73
     6
 40
16.25
 49
9.75
 74
     0
 49
-1.5
 74
     0
 49
1.0
 74
     0
 49
-1.5
 74
     0
 49
1.0
 74
     0
 49
-1.5
 74
     0
  0
LTYPE
  5
4ED
330
5
100
AcDbSymbolTableRecord
100
AcDbLinetypeTableRecord
  2
AM_DIN_G_W050x2
 70
     0
  3
__ . __ . __ . __ . __ . __
 72
    65
 73
     4
 40
6.875
 49
4.75
 74
     0
 49
-0.875
 74
     0
 49
0.375
 74
     0
 49
-0.875
 74
     0
  0
LTYPE
  5
4EE
330
5
100
AcDbSymbolTableRecord
100
AcDbLinetypeTableRecord
  2
AM_DIN_F_W050x2
 70
     0
  3
 _ _ _ _ _ _ _ _ _ _ _ _
 72
    65
 73
     2
 40
3.125
 49
2.25
 74
     0
 49
-0.875
 74
     0
  0
LTYPE
  5
4FD
330
5
100
AcDbSymbolTableRecord
100
AcDbLinetypeTableRecord
  2
ACDINWELD
 70
     0
  3
_ _ _ _ _
 72
    65
 73
     2
 40
2.0
 49
2.0
 74
     0
 49
-1.0
 74
     0
  0
LTYPE
  5
4FE
330
5
100
AcDbSymbolTableRecord
100
AcDbLinetypeTableRecord
  2
ACDINTGB
 70
     0
  3
__ . . __ . .
 72
    65
 73
     6
 40
9.0
 49
4.0
 74
     0
 49
-1.0
 74
     0
 49
1.0
 74
     0
 49
-1.0
 74
     0
 49
1.0
 74
     0
 49
-1.0
 74
     0
  0
LTYPE
  5
4FF
330
5
100
AcDbSymbolTableRecord
100
AcDbLinetypeTableRecord
  2
ACDINTGL
 70
     0
  3
_ _ _ _ _
 72
    65
 73
     2
 40
3.0
 49
2.0
 74
     0
 49
-1.0
 74
     0
  0
ENDTAB
  0
TABLE
  2
LAYER
  5
2
330
0
100
AcDbSymbolTable
 70
    24
  0
LAYER
  5
10
330
2
100
AcDbSymbolTableRecord
100
AcDbLayerTableRecord
  2
0
 70
     0
 62
     7
  6
CONTINUOUS
370
    -3
390
F
  0
LAYER
  5
1FA
330
2
100
AcDbSymbolTableRecord
100
AcDbLayerTableRecord
  2
DEFAULT_1
 70
     0
 62
     7
  6
CENTER
370
    -3
390
F
  0
LAYER
  5
1FB
330
2
100
AcDbSymbolTableRecord
100
AcDbLayerTableRecord
  2
DEFAULT_2
 70
     0
 62
     8
  6
HIDDEN
370
    -3
390
F
  0
LAYER
  5
1FC
330
2
100
AcDbSymbolTableRecord
100
AcDbLayerTableRecord
  2
DEFAULT_3
 70
     0
 62
     7
  6
PHANTOM
370
    -3
390
F
  0
LAYER
  5
1FD
330
2
100
AcDbSymbolTableRecord
100
AcDbLayerTableRecord
  2
3D_TEIL_NOTIZ
 70
     0
 62
     7
  6
CONTINUOUS
370
    -3
390
F
  0
LAYER
  5
1FE
330
2
100
AcDbSymbolTableRecord
100
AcDbLayerTableRecord
  2
ACHSEN
 70
     0
 62
     7
  6
CONTINUOUS
370
    -3
390
F
  0
LAYER
  5
1FF
330
2
100
AcDbSymbolTableRecord
100
AcDbLayerTableRecord
  2
AUSFORMSCHRAEGEN
 70
     0
 62
     7
  6
CONTINUOUS
370
    -3
390
F
  0
LAYER
  5
200
330
2
100
AcDbSymbolTableRecord
100
AcDbLayerTableRecord
  2
BEZUG
 70
     0
 62
     7
  6
CONTINUOUS
370
    -3
390
F
  0
LAYER
  5
201
330
2
100
AcDbSymbolTableRecord
100
AcDbLayerTableRecord
  2
BEZUGSACHSEN
 70
     0
 62
     7
  6
CONTINUOUS
370
    -3
390
F
  0
LAYER
  5
202
330
2
100
AcDbSymbolTableRecord
100
AcDbLayerTableRecord
  2
BEZUGSEBENEN
 70
     0
 62
     7
  6
CONTINUOUS
370
    -3
390
F
  0
LAYER
  5
203
330
2
100
AcDbSymbolTableRecord
100
AcDbLayerTableRecord
  2
BG_STARTBEZUEGE
 70
     0
 62
     7
  6
CONTINUOUS
370
    -3
390
F
  0
LAYER
  5
204
330
2
100
AcDbSymbolTableRecord
100
AcDbLayerTableRecord
  2
BOHRUNGEN
 70
     0
 62
     7
  6
CONTINUOUS
370
    -3
390
F
  0
LAYER
  5
205
330
2
100
AcDbSymbolTableRecord
100
AcDbLayerTableRecord
  2
DATUMS
 70
     0
 62
     7
  6
CONTINUOUS
370
    -3
390
F
  0
LAYER
  5
206
330
2
100
AcDbSymbolTableRecord
100
AcDbLayerTableRecord
  2
DETAILS
 70
     0
 62
     7
  6
CONTINUOUS
370
    -3
390
F
  0
LAYER
  5
207
330
2
100
AcDbSymbolTableRecord
100
AcDbLayerTableRecord
  2
FASEN
 70
     0
 62
     7
  6
CONTINUOUS
370
    -3
390
F
  0
LAYER
  5
208
330
2
100
AcDbSymbolTableRecord
100
AcDbLayerTableRecord
  2
GEWINDE
 70
     0
 62
     7
  6
CONTINUOUS
370
    -3
390
F
  0
LAYER
  5
209
330
2
100
AcDbSymbolTableRecord
100
AcDbLayerTableRecord
  2
HILFEN
 70
     0
 62
     7
  6
CONTINUOUS
370
    -3
390
F
  0
LAYER
  5
20A
330
2
100
AcDbSymbolTableRecord
100
AcDbLayerTableRecord
  2
KURVEN
 70
     0
 62
     7
  6
CONTINUOUS
370
    -3
390
F
  0
LAYER
  5
20B
330
2
100
AcDbSymbolTableRecord
100
AcDbLayerTableRecord
  2
PLATZIERUNG
 70
     0
 62
     7
  6
CONTINUOUS
370
    -3
390
F
  0
LAYER
  5
20C
330
2
100
AcDbSymbolTableRecord
100
AcDbLayerTableRecord
  2
PLAZIERUNG
 70
     0
 62
     7
  6
CONTINUOUS
370
    -3
390
F
  0
LAYER
  5
20D
330
2
100
AcDbSymbolTableRecord
100
AcDbLayerTableRecord
  2
RUNDUNGEN
 70
     0
 62
     7
  6
CONTINUOUS
370
    -3
390
F
  0
LAYER
  5
20E
330
2
100
AcDbSymbolTableRecord
100
AcDbLayerTableRecord
  2
TEIL_STARTBEZUEGE
 70
     0
 62
     7
  6
CONTINUOUS
370
    -3
390
F
  0
LAYER
  5
20F
330
2
100
AcDbSymbolTableRecord
100
AcDbLayerTableRecord
  2
ZEICHNUNGSBEMASSUNGEN
 70
     0
 62
     7
  6
CONTINUOUS
370
    -3
390
F
  0
LAYER
  5
50D
330
2
100
AcDbSymbolTableRecord
100
AcDbLayerTableRecord
  2
Defpoints
 70
     0
 62
     7
  6
CONTINUOUS
290
     0
370
    -3
390
F
  0
ENDTAB
  0
TABLE
  2
STYLE
  5
3
330
0
100
AcDbSymbolTable
 70
     6
  0
STYLE
  5
11
330
3
100
AcDbSymbolTableRecord
100
AcDbTextStyleTableRecord
  2
STANDARD
 70
     0
 40
0.0
 41
0.7
 50
0.0
 71
     0
 42
0.2
  3
txt
  4

  0
STYLE
  5
210
330
3
100
AcDbSymbolTableRecord
100
AcDbTextStyleTableRecord
  2
TEXTSTYLE_1
 70
     0
 40
0.0
 41
0.8
 50
0.0
 71
     0
 42
0.2
  3
gdt
  4

  0
STYLE
  5
211
330
3
100
AcDbSymbolTableRecord
100
AcDbTextStyleTableRecord
  2
TEXTSTYLE_2
 70
     0
 40
0.0
 41
0.7
 50
0.0
 71
     0
 42
0.2
  3
gdt
  4

  0
STYLE
  5
4E8
330
3
100
AcDbSymbolTableRecord
100
AcDbTextStyleTableRecord
  2

 70
     1
 40
0.0
 41
1.0
 50
0.0
 71
     0
 42
0.2
  3
genltshp.shx
  4

  0
STYLE
  5
4FB
330
3
100
AcDbSymbolTableRecord
100
AcDbTextStyleTableRecord
  2
ACDINTS
 70
     0
 40
1.0
 41
1.0
 50
0.0
 71
     0
 42
0.2
  3
isocp.shx
  4

  0
STYLE
  5
4FC
330
3
100
AcDbSymbolTableRecord
100
AcDbTextStyleTableRecord
  2
ACDINGDT
 70
     0
 40
0.0
 41
1.0
 50
0.0
 71
     0
 42
0.2
  3
amgdt.shx
  4

  0
ENDTAB
  0
TABLE
  2
VIEW
  5
6
330
0
100
AcDbSymbolTable
 70
     0
  0
ENDTAB
  0
TABLE
  2
UCS
  5
7
330
0
100
AcDbSymbolTable
 70
     0
  0
ENDTAB
  0
TABLE
  2
APPID
  5
9
330
0
100
AcDbSymbolTable
 70
    21
  0
APPID
  5
212
330
9
100
AcDbSymbolTableRecord
100
AcDbRegAppTableRecord
  2
ACAD
 70
     0
  0
APPID
  5
470
330
9
100
AcDbSymbolTableRecord
100
AcDbRegAppTableRecord
  2
MCAD_NO_VIS
 70
     0
  0
APPID
  5
471
330
9
100
AcDbSymbolTableRecord
100
AcDbRegAppTableRecord
  2
ACAD_TEMP_GRAPHIC
 70
     0
  0
APPID
  5
49D
330
9
100
AcDbSymbolTableRecord
100
AcDbRegAppTableRecord
  2
AD_DRAW
 70
     0
  0
APPID
  5
4A0
330
9
100
AcDbSymbolTableRecord
100
AcDbRegAppTableRecord
  2
ACATTRIBSERVICES
 70
     0
  0
APPID
  5
4C0
330
9
100
AcDbSymbolTableRecord
100
AcDbRegAppTableRecord
  2
DESIGNERASSEMBLIES
 70
     0
  0
APPID
  5
4C6
330
9
100
AcDbSymbolTableRecord
100
AcDbRegAppTableRecord
  2
ACADM_DIM_EDIT
 70
     0
  0
APPID
  5
4C7
330
9
100
AcDbSymbolTableRecord
100
AcDbRegAppTableRecord
  2
AMDT_DM_ADJ
 70
     0
  0
APPID
  5
4DE
330
9
100
AcDbSymbolTableRecord
100
AcDbRegAppTableRecord
  2
ACAD_DSTYLE_DIMJAG
 70
     0
  0
APPID
  5
4DF
330
9
100
AcDbSymbolTableRecord
100
AcDbRegAppTableRecord
  2
ACAD_DSTYLE_DIMBREAK
 70
     0
  0
APPID
  5
50E
330
9
100
AcDbSymbolTableRecord
100
AcDbRegAppTableRecord
  2
AcAecLayerStandard
 70
     0
  0
APPID
  5
50F
330
9
100
AcDbSymbolTableRecord
100
AcDbRegAppTableRecord
  2
GENIUS_GENODEF_13
 70
     0
  0
APPID
  5
510
330
9
100
AcDbSymbolTableRecord
100
AcDbRegAppTableRecord
  2
GENIUS_GENOBJ-N-HTC_13
 70
     0
  0
APPID
  5
511
330
9
100
AcDbSymbolTableRecord
100
AcDbRegAppTableRecord
  2
GENIUS_GENHATCH_13
 70
     0
  0
APPID
  5
512
330
9
100
AcDbSymbolTableRecord
100
AcDbRegAppTableRecord
  2
ACAD_EXEMPT_FROM_CAD_STANDARDS
 70
     0
  0
APPID
  5
513
330
9
100
AcDbSymbolTableRecord
100
AcDbRegAppTableRecord
  2
ACAD_MLEADERVER
 70
     0
  0
APPID
  5
514
330
9
100
AcDbSymbolTableRecord
100
AcDbRegAppTableRecord
  2
ACAD_DSTYLE_DIMJOGGED_JOGANGLE_SYMBOL
 70
     0
  0
APPID
  5
515
330
9
100
AcDbSymbolTableRecord
100
AcDbRegAppTableRecord
  2
ACAD_DSTYLE_DIM_LINETYPE
 70
     0
  0
APPID
  5
516
330
9
100
AcDbSymbolTableRecord
100
AcDbRegAppTableRecord
  2
ACAD_DSTYLE_DIM_EXT1_LINETYPE
 70
     0
  0
APPID
  5
517
330
9
100
AcDbSymbolTableRecord
100
AcDbRegAppTableRecord
  2
ACAD_DSTYLE_DIM_EXT2_LINETYPE
 70
     0
  0
APPID
  5
518
330
9
100
AcDbSymbolTableRecord
100
AcDbRegAppTableRecord
  2
ACAD_DSTYLE_DIMINSPECT
 70
     0
  0
ENDTAB
  0
TABLE
  2
DIMSTYLE
  5
A
330
0
100
AcDbSymbolTable
 70
    13
100
AcDbDimStyleTable
 71
     2
340
21B
340
21D
  0
DIMSTYLE
105
21B
330
A
100
AcDbSymbolTableRecord
100
AcDbDimStyleTableRecord
  2
STANDARD
 70
     0
 41
3.5
 47
0.005
 48
0.005
 71
     1
 73
     0
 74
     0
 77
     1
 78
     8
140
3.5
178
     5
271
     3
272
     3
284
     8
340
11
341
215
342
215
343
215
344
215
  0
DIMSTYLE
105
21C
330
A
100
AcDbSymbolTableRecord
100
AcDbDimStyleTableRecord
  2
DIMSTYLE_1
 70
     0
 41
3.5
 47
0.5
 48
0.5
 73
     0
 74
     0
 77
     1
 78
     8
140
3.5
178
     5
271
     0
272
     0
284
     8
340
11
341
215
342
215
343
215
344
215
  0
DIMSTYLE
105
21D
102
{ACAD_REACTORS
330
256
330
254
330
253
330
257
330
255
102
}
330
A
100
AcDbSymbolTableRecord
100
AcDbDimStyleTableRecord
  2
DIMSTYLE_2
 70
     0
 41
3.5
 47
0.5
 48
0.5
 73
     0
 74
     0
 77
     1
 78
     8
140
3.5
178
     5
271
     3
272
     3
284
     8
340
11
341
215
342
215
343
215
344
215
  0
DIMSTYLE
105
21E
330
A
100
AcDbSymbolTableRecord
100
AcDbDimStyleTableRecord
  2
DIMSTYLE_3
 70
     0
 41
3.5
 47
0.5
 48
0.5
 73
     0
 74
     0
 77
     1
 78
     8
140
3.5
178
     5
271
     1
272
     1
284
     8
340
11
341
215
342
215
343
215
344
215
  0
DIMSTYLE
105
21F
330
A
100
AcDbSymbolTableRecord
100
AcDbDimStyleTableRecord
  2
DIMSTYLE_4
 70
     0
 41
3.5
 47
0.3
 48
0.3
 73
     0
 74
     0
 77
     1
 78
     8
140
3.5
178
     5
271
     0
272
     0
284
     8
340
11
341
215
342
215
343
215
344
215
  0
DIMSTYLE
105
4DD
102
{ACAD_REACTORS
330
4CC
102
}
330
A
100
AcDbSymbolTableRecord
100
AcDbDimStyleTableRecord
  2
AM_DIN
 70
     0
  4
"
 41
3.5
 42
1.0
 43
10.0
 44
1.0
 47
0.1
 48
0.1
 73
     0
 74
     0
 77
     1
 78
     8
 79
     2
140
3.5
141
0.0
143
0.0393701
146
0.71
147
1.5
172
     1
176
   256
177
   256
178
     2
271
     2
272
     3
274
     4
283
     0
284
     8
340
11
371
    -1
372
    -1
1001
ACAD_DSTYLE_DIMJAG
1070
   388
1040
1.5
1001
ACAD_DSTYLE_DIMBREAK
1070
   391
1040
3.75
1001
ACAD_DSTYLE_DIMJOGGED_JOGANGLE_SYMBOL
1070
   384
1040
1.570796326794896
1001
ACAD_DSTYLE_DIM_LINETYPE
1070
   380
1005
14
1001
ACAD_DSTYLE_DIM_EXT1_LINETYPE
1070
   381
1005
14
1001
ACAD_DSTYLE_DIM_EXT2_LINETYPE
1070
   382
1005
14
  0
DIMSTYLE
105
4EF
330
A
100
AcDbSymbolTableRecord
100
AcDbDimStyleTableRecord
  2
AM_DIN$3
 70
     0
  4
"
 41
3.5
 42
1.0
 43
10.0
 44
1.0
 47
0.1
 48
0.1
 73
     0
 77
     1
 78
     8
 79
     2
140
3.5
141
0.0
143
0.0393701
146
0.71
147
1.5
176
   256
177
   256
178
     2
271
     2
272
     3
274
     4
283
     0
284
     8
288
     1
289
     0
340
11
371
    -1
372
    -1
1001
ACAD_DSTYLE_DIMBREAK
1070
   391
1040
3.75
1001
ACAD_DSTYLE_DIMJAG
1070
   388
1040
1.5
1001
ACAD_DSTYLE_DIMJOGGED_JOGANGLE_SYMBOL
1070
   384
1040
1.570796326794896
1001
ACAD_DSTYLE_DIM_LINETYPE
1070
   380
1005
14
1001
ACAD_DSTYLE_DIM_EXT1_LINETYPE
1070
   381
1005
14
1001
ACAD_DSTYLE_DIM_EXT2_LINETYPE
1070
   382
1005
14
  0
DIMSTYLE
105
4F0
330
A
100
AcDbSymbolTableRecord
100
AcDbDimStyleTableRecord
  2
AM_DIN$4
 70
     0
  4
"
 41
3.5
 42
1.0
 43
10.0
 44
1.0
 47
0.1
 48
0.1
 73
     0
 77
     1
 78
     8
 79
     2
140
3.5
141
0.0
143
0.0393701
146
0.71
147
1.5
176
   256
177
   256
178
     2
271
     2
272
     3
274
     4
283
     0
284
     8
288
     1
289
     0
340
11
371
    -1
372
    -1
1001
ACAD_DSTYLE_DIMBREAK
1070
   391
1040
3.75
1001
ACAD_DSTYLE_DIMJAG
1070
   388
1040
1.5
1001
ACAD_DSTYLE_DIMJOGGED_JOGANGLE_SYMBOL
1070
   384
1040
1.570796326794896
1001
ACAD_DSTYLE_DIM_LINETYPE
1070
   380
1005
14
1001
ACAD_DSTYLE_DIM_EXT1_LINETYPE
1070
   381
1005
14
1001
ACAD_DSTYLE_DIM_EXT2_LINETYPE
1070
   382
1005
14
  0
DIMSTYLE
105
4F1
330
A
100
AcDbSymbolTableRecord
100
AcDbDimStyleTableRecord
  2
AM_DIN$6
 70
     0
  4
"
 41
3.5
 42
1.0
 43
10.0
 44
1.0
 47
0.1
 48
0.1
 73
     0
 74
     0
 78
     8
 79
     2
140
3.5
141
0.0
143
0.0393701
146
0.71
147
1.5
172
     1
176
   256
177
   256
178
     2
271
     2
272
     3
274
     4
283
     0
284
     8
340
11
371
    -1
372
    -1
1001
ACAD_DSTYLE_DIMBREAK
1070
   391
1040
3.75
1001
ACAD_DSTYLE_DIMJAG
1070
   388
1040
1.5
1001
ACAD_DSTYLE_DIMJOGGED_JOGANGLE_SYMBOL
1070
   384
1040
1.570796326794896
1001
ACAD_DSTYLE_DIM_LINETYPE
1070
   380
1005
14
1001
ACAD_DSTYLE_DIM_EXT1_LINETYPE
1070
   381
1005
14
1001
ACAD_DSTYLE_DIM_EXT2_LINETYPE
1070
   382
1005
14
  0
DIMSTYLE
105
4F2
330
A
100
AcDbSymbolTableRecord
100
AcDbDimStyleTableRecord
  2
AM_DIN$7
 70
     0
  4
"
 41
3.5
 42
1.0
 43
10.0
 44
1.0
 47
0.1
 48
0.1
 73
     0
 74
     0
 77
     1
 78
     8
 79
     2
140
3.5
141
0.0
143
0.0393701
146
0.71
147
1.5
172
     1
176
   256
177
   256
178
     2
271
     2
272
     3
274
     4
283
     0
284
     8
340
11
371
    -1
372
    -1
1001
ACAD_DSTYLE_DIMBREAK
1070
   391
1040
3.75
1001
ACAD_DSTYLE_DIMJAG
1070
   388
1040
1.5
1001
ACAD_DSTYLE_DIMJOGGED_JOGANGLE_SYMBOL
1070
   384
1040
1.570796326794896
1001
ACAD_DSTYLE_DIM_LINETYPE
1070
   380
1005
14
1001
ACAD_DSTYLE_DIM_EXT1_LINETYPE
1070
   381
1005
14
1001
ACAD_DSTYLE_DIM_EXT2_LINETYPE
1070
   382
1005
14
  0
DIMSTYLE
105
4F3
330
A
100
AcDbSymbolTableRecord
100
AcDbDimStyleTableRecord
  2
AM_DIN$SF
 70
     0
  4
"
 41
3.5
 42
1.0
 43
10.0
 44
1.0
 47
0.1
 48
0.1
 73
     0
 74
     0
 75
     1
 76
     1
 77
     1
 78
     8
 79
     2
140
3.5
141
0.0
143
0.0393701
146
0.71
147
1.5
172
     1
176
   256
177
   256
178
     2
271
     2
272
     3
274
     4
283
     0
284
     8
340
11
371
    -1
372
    -1
1001
ACAD_DSTYLE_DIMBREAK
1070
   391
1040
3.75
1001
ACAD_DSTYLE_DIMJAG
1070
   388
1040
1.5
1001
ACAD_DSTYLE_DIMJOGGED_JOGANGLE_SYMBOL
1070
   384
1040
1.570796326794896
1001
ACAD_DSTYLE_DIM_LINETYPE
1070
   380
1005
14
1001
ACAD_DSTYLE_DIM_EXT1_LINETYPE
1070
   381
1005
14
1001
ACAD_DSTYLE_DIM_EXT2_LINETYPE
1070
   382
1005
14
  0
DIMSTYLE
105
4F8
330
A
100
AcDbSymbolTableRecord
100
AcDbDimStyleTableRecord
  2
AM_DIN$SH
 70
     0
  4
"
 41
3.5
 42
1.0
 43
10.0
 44
1.0
 47
0.1
 48
0.1
 73
     0
 74
     0
 75
     1
 76
     1
 77
     1
 78
     8
 79
     2
140
3.5
141
0.0
143
0.0393701
144
2.0
146
0.71
147
1.5
172
     1
173
     1
176
   256
177
   256
178
     2
271
     2
272
     3
274
     4
283
     0
284
     8
340
11
343
4F4
371
    -1
372
    -1
1001
ACAD_DSTYLE_DIMBREAK
1070
   391
1040
3.75
1001
ACAD_DSTYLE_DIMJAG
1070
   388
1040
1.5
1001
ACAD_DSTYLE_DIMJOGGED_JOGANGLE_SYMBOL
1070
   384
1040
1.570796326794896
1001
ACAD_DSTYLE_DIM_LINETYPE
1070
   380
1005
14
1001
ACAD_DSTYLE_DIM_EXT1_LINETYPE
1070
   381
1005
14
1001
ACAD_DSTYLE_DIM_EXT2_LINETYPE
1070
   382
1005
14
  0
ENDTAB
  0
TABLE
  2
BLOCK_RECORD
  5
1
330
0
100
AcDbSymbolTable
 70
    15
  0
BLOCK_RECORD
  5
213
330
1
100
AcDbSymbolTableRecord
100
AcDbBlockTableRecord
  2
*Model_Space
340
420
  0
BLOCK_RECORD
  5
214
330
1
100
AcDbSymbolTableRecord
100
AcDbBlockTableRecord
  2
*Paper_Space
340
421
  0
BLOCK_RECORD
  5
215
330
1
100
AcDbSymbolTableRecord
100
AcDbBlockTableRecord
  2
_FILLED
340
0
102
{BLKREFS
331
51F
331
520
331
535
331
536
331
54B
331
54C
331
555
331
556
331
561
331
562
331
577
331
578
331
593
331
594
331
5A5
331
5A6
331
5AE
331
5AF
331
5B7
331
5B8
102
}
  0
BLOCK_RECORD
  5
216
330
1
100
AcDbSymbolTableRecord
100
AcDbBlockTableRecord
  2
*D1
340
0
  0
BLOCK_RECORD
  5
217
330
1
100
AcDbSymbolTableRecord
100
AcDbBlockTableRecord
  2
*D2
340
0
  0
BLOCK_RECORD
  5
218
330
1
100
AcDbSymbolTableRecord
100
AcDbBlockTableRecord
  2
*D3
340
0
  0
BLOCK_RECORD
  5
219
330
1
100
AcDbSymbolTableRecord
100
AcDbBlockTableRecord
  2
*D4
340
0
  0
BLOCK_RECORD
  5
21A
330
1
100
AcDbSymbolTableRecord
100
AcDbBlockTableRecord
  2
*D5
340
0
  0
BLOCK_RECORD
  5
4F4
330
1
100
AcDbSymbolTableRecord
100
AcDbBlockTableRecord
  2
GENAXEH
340
0
  0
ENDTAB
  0
ENDSEC
  0
SECTION
  2
BLOCKS
  0
BLOCK
  5
20
330
213
100
AcDbEntity
  8
0
100
AcDbBlockBegin
  2
*Model_Space
 70
     0
 10
0.0
 20
0.0
 30
0.0
  3
*Model_Space
  1

  0
ENDBLK
  5
21
330
213
100
AcDbEntity
  8
0
100
AcDbBlockEnd
  0
BLOCK
  5
1C
330
214
100
AcDbEntity
 67
     1
  8
0
100
AcDbBlockBegin
  2
*Paper_Space
 70
     0
 10
0.0
 20
0.0
 30
0.0
  3
*Paper_Space
  1

  0
ENDBLK
  5
1D
330
214
100
AcDbEntity
 67
     1
  8
0
100
AcDbBlockEnd
  0
BLOCK
  5
220
330
215
100
AcDbEntity
  8
0
100
AcDbBlockBegin
  2
_FILLED
 70
     0
 10
0.0
 20
0.0
 30
0.0
  3
_FILLED
  1

  0
SOLID
  5
221
330
215
100
AcDbEntity
  8
0
  6
ByBlock
 62
     0
100
AcDbTrace
 10
0.0
 20
0.0
 30
0.0
 11
-1.0
 21
0.125
 31
0.0
 12
-1.0
 22
-0.125
 32
0.0
 13
-1.0
 23
-0.125
 33
0.0
  0
ENDBLK
  5
222
330
215
100
AcDbEntity
  8
0
  6
ByBlock
 62
     0
100
AcDbBlockEnd
  0
BLOCK
  5
223
330
216
100
AcDbEntity
  8
ZEICHNUNGSBEMASSUNGEN
  6
Continuous
 62
     2
100
AcDbBlockBegin
  2
*D1
 70
     1
 10
0.0
 20
0.0
 30
0.0
  3
*D1
  1

  0
LINE
  5
552
330
216
100
AcDbEntity
  8
ZEICHNUNGSBEMASSUNGEN
  6
Continuous
 62
     0
370
    -2
100
AcDbLine
 10
497.3745227401
 20
466.7970297281
 30
0.0
 11
497.3745227401
 21
506.5328146914
 31
0.0
  0
LINE
  5
553
330
216
100
AcDbEntity
  8
ZEICHNUNGSBEMASSUNGEN
  6
Continuous
 62
     0
370
    -2
100
AcDbLine
 10
651.9000692635
 20
466.7970297281
 30
0.0
 11
651.9000692635
 21
506.5328146914
 31
0.0
  0
LINE
  5
554
330
216
100
AcDbEntity
  8
ZEICHNUNGSBEMASSUNGEN
  6
Continuous
 62
     0
370
    -2
100
AcDbLine
 10
502.3745227401
 20
506.3528146913999
 30
0.0
 11
646.9000692634999
 21
506.3528146913999
 31
0.0
  0
INSERT
  5
555
330
216
100
AcDbEntity
  8
ZEICHNUNGSBEMASSUNGEN
  6
Continuous
 62
     0
370
    -2
100
AcDbBlockReference
  2
_FILLED
 10
497.3745227401
 20
506.3528146913999
 30
0.0
 41
5.0
 42
5.0
 43
5.0
 50
180.0
  0
INSERT
  5
556
330
216
100
AcDbEntity
  8
ZEICHNUNGSBEMASSUNGEN
  6
Continuous
 62
     0
370
    -2
100
AcDbBlockReference
  2
_FILLED
 10
651.9000692635
 20
506.3528146913999
 30
0.0
 41
5.0
 42
5.0
 43
5.0
  0
MTEXT
  5
557
330
216
100
AcDbEntity
  8
ZEICHNUNGSBEMASSUNGEN
  6
Continuous
100
AcDbMText
 10
571.7206293351
 20
514.8528146913999
 30
0.0
 40
7.0
 41
0.0
 71
     2
 72
     1
  1
\A1;%%c155
 73
     1
 44
1.0
1001
ACAD
1000
MTEXTBEGIN
1070
    73
1070
     1
1070
    44
1040
1.0
1070
    74
1070
     0
1000
MTEXTEND
  0
POINT
  5
558
330
216
100
AcDbEntity
  8
Defpoints
  6
Continuous
 62
     0
100
AcDbPoint
 10
497.3745227401
 20
466.7345297280999
 30
0.0
  0
POINT
  5
559
330
216
100
AcDbEntity
  8
Defpoints
  6
Continuous
 62
     0
100
AcDbPoint
 10
651.9000692635
 20
466.7345297280999
 30
0.0
  0
POINT
  5
55A
330
216
100
AcDbEntity
  8
Defpoints
  6
Continuous
 62
     0
100
AcDbPoint
 10
651.9000692635
 20
506.3528146913999
 30
0.0
  0
ENDBLK
  5
22D
330
216
100
AcDbEntity
  8
0
  6
ByBlock
 62
     0
100
AcDbBlockEnd
  0
BLOCK
  5
22E
330
217
100
AcDbEntity
  8
ZEICHNUNGSBEMASSUNGEN
  6
Continuous
 62
     2
100
AcDbBlockBegin
  2
*D2
 70
     1
 10
0.0
 20
0.0
 30
0.0
  3
*D2
  1

  0
LINE
  5
5B4
330
217
100
AcDbEntity
  8
ZEICHNUNGSBEMASSUNGEN
  6
Continuous
 62
     0
370
    -2
100
AcDbLine
 10
394.6372960018
 20
471.6249201651
 30
0.0
 11
394.6372960018
 21
516.70101530518
 31
0.0
  0
LINE
  5
5B5
330
217
100
AcDbEntity
  8
ZEICHNUNGSBEMASSUNGEN
  6
Continuous
 62
     0
370
    -2
100
AcDbLine
 10
754.6372960017999
 20
471.6249201651
 30
0.0
 11
754.6372960017999
 21
516.70101530518
 31
0.0
  0
LINE
  5
5B6
330
217
100
AcDbEntity
  8
ZEICHNUNGSBEMASSUNGEN
  6
Continuous
 62
     0
370
    -2
100
AcDbLine
 10
399.6372960018
 20
516.52101530518
 30
0.0
 11
749.6372960017999
 21
516.52101530518
 31
0.0
  0
INSERT
  5
5B7
330
217
100
AcDbEntity
  8
ZEICHNUNGSBEMASSUNGEN
  6
Continuous
 62
     0
370
    -2
100
AcDbBlockReference
  2
_FILLED
 10
394.6372960018
 20
516.52101530518
 30
0.0
 41
5.0
 42
5.0
 43
5.0
 50
180.0
  0
INSERT
  5
5B8
330
217
100
AcDbEntity
  8
ZEICHNUNGSBEMASSUNGEN
  6
Continuous
 62
     0
370
    -2
100
AcDbBlockReference
  2
_FILLED
 10
754.6372960017999
 20
516.52101530518
 30
0.0
 41
5.0
 42
5.0
 43
5.0
  0
MTEXT
  5
5B9
330
217
100
AcDbEntity
  8
ZEICHNUNGSBEMASSUNGEN
  6
Continuous
100
AcDbMText
 10
573.1262958880288
 20
525.02101530518
 30
0.0
 40
7.0
 41
0.0
 71
     2
 72
     1
  1
\A1;%%c360
 73
     1
 44
1.0
1001
ACAD
1000
MTEXTBEGIN
1070
    73
1070
     1
1070
    44
1040
1.0
1070
    74
1070
     0
1000
MTEXTEND
  0
POINT
  5
5BA
330
217
100
AcDbEntity
  8
Defpoints
  6
Continuous
 62
     0
100
AcDbPoint
 10
394.6372960018
 20
471.5624201651
 30
0.0
  0
POINT
  5
5BB
330
217
100
AcDbEntity
  8
Defpoints
  6
Continuous
 62
     0
100
AcDbPoint
 10
754.6372960017999
 20
471.5624201651
 30
0.0
  0
POINT
  5
5BC
330
217
100
AcDbEntity
  8
Defpoints
  6
Continuous
 62
     0
100
AcDbPoint
 10
754.6372960017999
 20
516.52101530518
 30
0.0
  0
ENDBLK
  5
236
330
217
100
AcDbEntity
  8
0
  6
ByBlock
 62
     0
100
AcDbBlockEnd
  0
BLOCK
  5
237
330
218
100
AcDbEntity
  8
ZEICHNUNGSBEMASSUNGEN
  6
Continuous
 62
     2
100
AcDbBlockBegin
  2
*D3
 70
     1
 10
0.0
 20
0.0
 30
0.0
  3
*D3
  1

  0
LINE
  5
590
330
218
100
AcDbEntity
  8
ZEICHNUNGSBEMASSUNGEN
  6
Continuous
 62
     0
370
    -2
100
AcDbLine
 10
537.5747960034999
 20
326.5278146914
 30
0.0
 11
384.5207376986
 21
326.5278146914
 31
0.0
  0
LINE
  5
591
330
218
100
AcDbEntity
  8
ZEICHNUNGSBEMASSUNGEN
  6
Continuous
 62
     0
370
    -2
100
AcDbLine
 10
508.0540928966999
 20
474.0347857841
 30
0.0
 11
384.5207376986001
 21
474.0347857841
 31
0.0
  0
LINE
  5
592
330
218
100
AcDbEntity
  8
ZEICHNUNGSBEMASSUNGEN
  6
Continuous
 62
     0
370
    -2
100
AcDbLine
 10
384.7007376986001
 20
331.5278146914
 30
0.0
 11
384.7007376986001
 21
469.0347857841
 31
0.0
  0
INSERT
  5
593
330
218
100
AcDbEntity
  8
ZEICHNUNGSBEMASSUNGEN
  6
Continuous
 62
     0
370
    -2
100
AcDbBlockReference
  2
_FILLED
 10
384.7007376986001
 20
326.5278146914
 30
0.0
 41
5.0
 42
5.0
 43
5.0
 50
270.0
  0
INSERT
  5
594
330
218
100
AcDbEntity
  8
ZEICHNUNGSBEMASSUNGEN
  6
Continuous
 62
     0
370
    -2
100
AcDbBlockReference
  2
_FILLED
 10
384.7007376986001
 20
474.0347857841
 30
0.0
 41
5.0
 42
5.0
 43
5.0
 50
90.0
  0
MTEXT
  5
595
330
218
100
AcDbEntity
  8
ZEICHNUNGSBEMASSUNGEN
  6
Continuous
100
AcDbMText
 10
376.2007376986
 20
394.9173202561
 30
0.0
 40
7.0
 41
0.0
 71
     2
 72
     1
  1
\A1;148
 11
0.0000000000000001
 21
1.0
 31
0.0
 73
     1
 44
1.0
1001
ACAD
1000
MTEXTBEGIN
1070
    73
1070
     1
1070
    44
1040
1.0
1070
    74
1070
     0
1000
MTEXTEND
  0
POINT
  5
596
330
218
100
AcDbEntity
  8
Defpoints
  6
Continuous
 62
     0
100
AcDbPoint
 10
537.6372960034999
 20
326.5278146914
 30
0.0
  0
POINT
  5
597
330
218
100
AcDbEntity
  8
Defpoints
  6
Continuous
 62
     0
100
AcDbPoint
 10
508.1165928966999
 20
474.0347857841
 30
0.0
  0
POINT
  5
598
330
218
100
AcDbEntity
  8
Defpoints
  6
Continuous
 62
     0
100
AcDbPoint
 10
384.7007376986001
 20
474.0347857841
 30
0.0
  0
ENDBLK
  5
23F
330
218
100
AcDbEntity
  8
0
  6
ByBlock
 62
     0
100
AcDbBlockEnd
  0
BLOCK
  5
240
330
219
100
AcDbEntity
  8
ZEICHNUNGSBEMASSUNGEN
  6
Continuous
 62
     2
100
AcDbBlockBegin
  2
*D4
 70
     1
 10
0.0
 20
0.0
 30
0.0
  3
*D4
  1

  0
LINE
  5
5A2
330
219
100
AcDbEntity
  8
ZEICHNUNGSBEMASSUNGEN
  6
Continuous
 62
     0
370
    -2
100
AcDbLine
 10
714.1997960017999
 20
381.5278146914
 30
0.0
 11
763.3684892441001
 21
381.5278146914
 31
0.0
  0
LINE
  5
5A3
330
219
100
AcDbEntity
  8
ZEICHNUNGSBEMASSUNGEN
  6
Continuous
 62
     0
370
    -2
100
AcDbLine
 10
641.220499184
 20
474.0347857826999
 30
0.0
 11
763.3684892441002
 21
474.0347857826999
 31
0.0
  0
LINE
  5
5A4
330
219
100
AcDbEntity
  8
ZEICHNUNGSBEMASSUNGEN
  6
Continuous
 62
     0
370
    -2
100
AcDbLine
 10
763.1884892441002
 20
386.5278146914
 30
0.0
 11
763.1884892441002
 21
469.0347857826999
 31
0.0
  0
INSERT
  5
5A5
330
219
100
AcDbEntity
  8
ZEICHNUNGSBEMASSUNGEN
  6
Continuous
 62
     0
370
    -2
100
AcDbBlockReference
  2
_FILLED
 10
763.1884892441002
 20
381.5278146914
 30
0.0
 41
5.0
 42
5.0
 43
5.0
 50
270.0
  0
INSERT
  5
5A6
330
219
100
AcDbEntity
  8
ZEICHNUNGSBEMASSUNGEN
  6
Continuous
 62
     0
370
    -2
100
AcDbBlockReference
  2
_FILLED
 10
763.1884892441002
 20
474.0347857826999
 30
0.0
 41
5.0
 42
5.0
 43
5.0
 50
90.0
  0
MTEXT
  5
5A7
330
219
100
AcDbEntity
  8
ZEICHNUNGSBEMASSUNGEN
  6
Continuous
100
AcDbMText
 10
754.6884892441
 20
425.4345589950999
 30
0.0
 40
7.0
 41
0.0
 71
     2
 72
     1
  1
\A1;93
 11
0.0000000000000001
 21
1.0
 31
0.0
 73
     1
 44
1.0
1001
ACAD
1000
MTEXTBEGIN
1070
    73
1070
     1
1070
    44
1040
1.0
1070
    74
1070
     0
1000
MTEXTEND
  0
POINT
  5
5A8
330
219
100
AcDbEntity
  8
Defpoints
  6
Continuous
 62
     0
100
AcDbPoint
 10
714.1372960017998
 20
381.5278146914
 30
0.0
  0
POINT
  5
5A9
330
219
100
AcDbEntity
  8
Defpoints
  6
Continuous
 62
     0
100
AcDbPoint
 10
641.157999184
 20
474.0347857826999
 30
0.0
  0
POINT
  5
5AA
330
219
100
AcDbEntity
  8
Defpoints
  6
Continuous
 62
     0
100
AcDbPoint
 10
763.1884892441002
 20
474.0347857826999
 30
0.0
  0
ENDBLK
  5
248
330
219
100
AcDbEntity
  8
0
  6
ByBlock
 62
     0
100
AcDbBlockEnd
  0
BLOCK
  5
249
330
21A
100
AcDbEntity
  8
ZEICHNUNGSBEMASSUNGEN
  6
Continuous
 62
     2
100
AcDbBlockBegin
  2
*D5
 70
     1
 10
0.0
 20
0.0
 30
0.0
  3
*D5
  1

  0
LINE
  5
5AB
330
21A
100
AcDbEntity
  8
ZEICHNUNGSBEMASSUNGEN
  6
Continuous
 62
     0
370
    -2
100
AcDbLine
 10
574.6372960018
 20
321.8435042734
 30
0.0
 11
574.6372960018
 21
311.9502301654234
 31
0.0
  0
LINE
  5
5AC
330
21A
100
AcDbEntity
  8
ZEICHNUNGSBEMASSUNGEN
  6
Continuous
 62
     0
370
    -2
100
AcDbLine
 10
709.6372960017998
 20
324.9653146914
 30
0.0
 11
709.6372960017998
 21
311.9502301654234
 31
0.0
  0
LINE
  5
5AD
330
21A
100
AcDbEntity
  8
ZEICHNUNGSBEMASSUNGEN
  6
Continuous
 62
     0
370
    -2
100
AcDbLine
 10
579.6372960018
 20
312.1302301654234
 30
0.0
 11
704.6372960017999
 21
312.1302301654234
 31
0.0
  0
INSERT
  5
5AE
330
21A
100
AcDbEntity
  8
ZEICHNUNGSBEMASSUNGEN
  6
Continuous
 62
     0
370
    -2
100
AcDbBlockReference
  2
_FILLED
 10
574.6372960018
 20
312.1302301654234
 30
0.0
 41
5.0
 42
5.0
 43
5.0
 50
180.0
  0
INSERT
  5
5AF
330
21A
100
AcDbEntity
  8
ZEICHNUNGSBEMASSUNGEN
  6
Continuous
 62
     0
370
    -2
100
AcDbBlockReference
  2
_FILLED
 10
709.6372960017998
 20
312.1302301654234
 30
0.0
 41
5.0
 42
5.0
 43
5.0
  0
MTEXT
  5
5B0
330
21A
100
AcDbEntity
  8
ZEICHNUNGSBEMASSUNGEN
  6
Continuous
100
AcDbMText
 10
639.2514924980646
 20
320.6302301654234
 30
0.0
 40
7.0
 41
0.0
 71
     2
 72
     1
  1
\A1;135
 73
     1
 44
1.0
1001
ACAD
1000
MTEXTBEGIN
1070
    73
1070
     1
1070
    44
1040
1.0
1070
    74
1070
     0
1000
MTEXTEND
  0
POINT
  5
5B1
330
21A
100
AcDbEntity
  8
Defpoints
  6
Continuous
 62
     0
100
AcDbPoint
 10
574.6372960018
 20
321.9060042734
 30
0.0
  0
POINT
  5
5B2
330
21A
100
AcDbEntity
  8
Defpoints
  6
Continuous
 62
     0
100
AcDbPoint
 10
709.6372960017998
 20
325.0278146914
 30
0.0
  0
POINT
  5
5B3
330
21A
100
AcDbEntity
  8
Defpoints
  6
Continuous
 62
     0
100
AcDbPoint
 10
709.6372960017998
 20
312.1302301654234
 30
0.0
  0
ENDBLK
  5
251
330
21A
100
AcDbEntity
  8
0
  6
ByBlock
 62
     0
100
AcDbBlockEnd
  0
BLOCK
  5
4F6
330
4F4
100
AcDbEntity
  8
0
100
AcDbBlockBegin
  2
GENAXEH
 70
     0
 10
0.0
 20
0.0
 30
0.0
  3
GENAXEH
  1

  0
LINE
  5
4F5
330
4F4
100
AcDbEntity
  8
0
100
AcDbLine
 10
-1.0
 20
0.0
 30
0.0
 11
1.0
 21
0.0
 31
0.0
  0
ENDBLK
  5
4F7
330
4F4
100
AcDbEntity
  8
0
100
AcDbBlockEnd
  0
ENDSEC
  0
SECTION
  2
ENTITIES
  0
HATCH
  5
252
330
213
100
AcDbEntity
  8
0
  6
Continuous
 62
     1
100
AcDbHatch
 10
0.0
 20
0.0
 30
0.0
210
0.0
220
0.0
230
1.0
  2
DEFAULT__1
 70
     0
 71
     0
 91
        2
 92
        1
 93
       54
 72
     1
 10
539.1372960017999
 20
326.5278146914
 11
594.6372960018
 21
326.5278146914
 72
     4
 94
        3
 73
     1
 74
     0
 95
        8
 96
        4
 40
0.0
 40
0.0
 40
0.0
 40
0.0
 40
1.0
 40
1.0
 40
1.0
 40
1.0
 10
539.1372960017999
 20
326.5278146914
 42
1.0
 10
533.2794316255
 20
326.5278146914
 42
0.8047378541
 10
529.1372960018
 20
330.6699503151
 42
0.8047378541
 10
529.1372960018
 20
336.5278146914
 42
1.0
 72
     1
 10
529.1372960018
 20
336.5278146914
 11
529.1372960018
 21
360.0654749486
 72
     4
 94
        3
 73
     1
 74
     0
 95
        8
 96
        4
 40
0.0
 40
0.0
 40
0.0
 40
0.0
 40
1.0
 40
1.0
 40
1.0
 40
1.0
 10
526.2943038705
 20
363.0613635529
 42
1.0
 10
527.9772455720999
 20
362.9731643156
 42
0.8169162473
 10
529.1372960018
 20
361.7507262285
 42
0.8169162473
 10
529.1372960018
 20
360.0654749486
 42
1.0
 72
     1
 10
521.4196624229999
 20
363.3168326859
 11
526.2943038705
 21
363.0613635529
 72
     4
 94
        3
 73
     1
 74
     0
 95
        8
 96
        4
 40
0.0
 40
0.0
 40
0.0
 40
0.0
 40
1.0
 40
1.0
 40
1.0
 40
1.0
 10
518.8689144387
 20
365.0211879998
 42
1.0
 10
519.3546794286
 20
364.0027605194
 42
0.906270941
 10
520.2928639048999
 20
363.3758856940001
 42
0.906270941
 10
521.4196624229999
 20
363.3168326859
 42
1.0
 72
     1
 10
505.5649825046
 20
392.9134613389
 11
518.8689144387
 21
365.0211879998
 72
     4
 94
        3
 73
     1
 74
     0
 95
        8
 96
        4
 40
0.0
 40
0.0
 40
0.0
 40
0.0
 40
1.0
 40
1.0
 40
1.0
 40
1.0
 10
505.5649825046
 20
392.9134613389
 42
1.0
 10
505.2686088119999
 20
393.534821707
 42
0.986030315
 10
505.1049804035
 20
394.20351582
 42
0.986030315
 10
505.0809547912
 20
394.8915193394
 42
1.0
 72
     1
 10
503.6945103956999
 20
434.5940922135
 11
505.0809547912
 21
394.8915193394
 72
     4
 94
        3
 73
     1
 74
     0
 95
        8
 96
        4
 40
0.0
 40
0.0
 40
0.0
 40
0.0
 40
1.0
 40
1.0
 40
1.0
 40
1.0
 10
503.6945103707
 20
434.5940952739
 42
1.0
 10
503.6698676749999
 20
435.2997701425
 42
0.9853167981999998
 10
503.4984784678
 20
435.9847592099
 42
0.9853167981999998
 10
503.1878923760999
 20
436.6188889778999
 42
1.0
 72
     1
 10
503.1878921869
 20
436.6188891089
 11
503.0492180926999
 21
436.9020225492
 72
     4
 94
        3
 73
     1
 74
     0
 95
        8
 96
        4
 40
0.0
 40
0.0
 40
0.0
 40
0.0
 40
1.0
 40
1.0
 40
1.0
 40
1.0
 10
503.0492182523999
 20
436.9020226263
 42
1.0
 10
502.7386315358
 20
437.5361526214
 42
0.9853167785
 10
502.5672418615
 20
438.2211420656999
 42
0.9853167785
 10
502.5425988870999
 20
438.926817404
 42
1.0
 72
     1
 10
502.2555815416
 20
447.1459149871
 11
502.5425986919
 21
438.9268191735999
 72
     4
 94
        3
 73
     1
 74
     0
 95
        8
 96
        4
 40
0.0
 40
0.0
 40
0.0
 40
0.0
 40
1.0
 40
1.0
 40
1.0
 40
1.0
 10
502.2555815416
 20
447.1459149871
 42
1.0
 10
502.2078100615
 20
448.5139111907999
 42
0.8692022420999998
 10
501.3555969772
 20
449.5850921216999
 42
0.8692022420999998
 10
500.0333449709
 20
449.9391335873999
 42
1.0
 72
     4
 94
        3
 73
     1
 74
     0
 95
        8
 96
        4
 40
0.0
 40
0.0
 40
0.0
 40
0.0
 40
1.0
 40
1.0
 40
1.0
 40
1.0
 10
497.8111084001
 20
452.7323521877
 42
1.0
 10
497.8588798801999
 20
451.364355984
 42
0.8692022420999998
 10
498.7110929644999
 20
450.2931750530999
 42
0.8692022420999998
 10
500.0333449709
 20
449.9391335873999
 42
1.0
 72
     1
 10
497.8111084001
 20
452.7323521877
 11
497.4738778973999
 21
462.3893702786999
 72
     4
 94
        3
 73
     1
 74
     0
 95
        8
 96
        4
 40
0.0
 40
0.0
 40
0.0
 40
0.0
 40
1.0
 40
1.0
 40
1.0
 40
1.0
 10
494.5280626355999
 20
465.284214874
 42
1.0
 10
496.2130572436
 20
465.2548031838
 42
0.8169162473
 10
497.4150634758999
 20
464.073594949
 42
0.8169162473
 10
497.4738778973999
 20
462.3893702786999
 42
1.0
 72
     1
 10
494.5280626355999
 20
465.284214874
 11
396.6023911889
 21
466.9935138273
 72
     4
 94
        3
 73
     1
 74
     0
 95
        8
 96
        4
 40
0.0
 40
0.0
 40
0.0
 40
0.0
 40
1.0
 40
1.0
 40
1.0
 40
1.0
 10
396.6023911889
 20
466.9935138273
 42
1.0
 10
395.4471432961
 20
467.0136787542999
 42
0.8088336328
 10
394.6372960018
 20
467.8377853480999
 42
0.8088336328
 10
394.6372960018
 20
468.9932092175999
 42
1.0
 72
     1
 10
394.6372960018
 20
468.9932092175999
 11
394.6372960018
 21
470.0624201651
 72
     4
 94
        3
 73
     1
 74
     0
 95
        8
 96
        4
 40
0.0
 40
0.0
 40
0.0
 40
0.0
 40
1.0
 40
1.0
 40
1.0
 40
1.0
 10
394.6372960018
 20
470.0624201651
 42
1.0
 10
394.6372960018
 20
471.2178440346
 42
0.8088336328
 10
395.4471432961
 20
472.0419506284999
 42
0.8088336328
 10
396.6023911889
 20
472.0621155555
 42
1.0
 72
     1
 10
396.6023911889
 20
472.0621155555
 11
509.6165894941
 21
474.0347857247
 72
     4
 94
        3
 73
     1
 74
     0
 95
        8
 96
        4
 40
0.0
 40
0.0
 40
0.0
 40
0.0
 40
1.0
 40
1.0
 40
1.0
 40
1.0
 10
509.6165894941
 20
474.0347857247
 42
1.0
 10
510.2089153712999
 20
474.0451248112999
 42
0.8013725279999999
 10
510.632125621
 20
473.630576954
 42
0.8013725279999999
 10
510.6340366972999
 20
473.0381639315
 42
1.0
 72
     1
 10
510.6372960017999
 20
472.0278146914
 11
510.6340366972999
 21
473.0381639315
 72
     1
 10
510.6372960017999
 20
467.0105119545
 11
510.6372960017999
 21
472.0278146914
 72
     4
 94
        3
 73
     1
 74
     0
 95
        8
 96
        4
 40
0.0
 40
0.0
 40
0.0
 40
0.0
 40
1.0
 40
1.0
 40
1.0
 40
1.0
 10
510.6372960017999
 20
467.0105119545
 42
1.0
 10
510.6372960017999
 20
466.4328000198
 42
0.8088336328
 10
510.2323723546
 20
466.0207467228
 42
0.8088336328
 10
509.6547484082
 20
466.0106642593
 42
1.0
 72
     1
 10
504.6198435954
 20
465.9227796688999
 11
509.6547484082
 21
466.0106642593
 72
     4
 94
        3
 73
     1
 74
     0
 95
        8
 96
        4
 40
0.0
 40
0.0
 40
0.0
 40
0.0
 40
1.0
 40
1.0
 40
1.0
 40
1.0
 10
503.6372960018
 20
464.9229319737999
 42
1.0
 10
503.6372960018
 20
465.5006439084999
 42
0.8088336328
 10
504.0422196489
 20
465.9126972054
 42
0.8088336328
 10
504.6198435954
 20
465.9227796688999
 42
1.0
 72
     1
 10
503.6372960018
 20
455.8883264999999
 11
503.6372960018
 21
464.9229319737999
 72
     4
 94
        3
 73
     1
 74
     0
 95
        8
 96
        4
 40
0.0
 40
0.0
 40
0.0
 40
0.0
 40
1.0
 40
1.0
 40
1.0
 40
1.0
 10
504.6198435954
 20
454.8884788048
 42
1.0
 10
504.0422196489
 20
454.8985612682999
 42
0.8088336328
 10
503.6372960018
 20
455.3106145653
 42
0.8088336328
 10
503.6372960018
 20
455.8883264999999
 42
1.0
 72
     1
 10
509.7135455561
 20
454.7995679063999
 11
504.6198435954
 21
454.8884788048
 72
     4
 94
        3
 73
     1
 74
     0
 95
        8
 96
        4
 40
0.0
 40
0.0
 40
0.0
 40
0.0
 40
1.0
 40
1.0
 40
1.0
 40
1.0
 10
509.7135455561
 20
454.7995679063999
 42
1.0
 10
510.2896842480999
 20
454.7895113681
 42
0.8095867034000001
 10
510.6942290963999
 20
454.379169569
 42
0.8095867034000001
 10
510.6960879465
 20
453.8029461132
 42
1.0
 72
     1
 10
510.8851225635
 20
395.2042542029
 11
510.6960879465
 21
453.8029461132
 72
     4
 94
        3
 73
     1
 74
     0
 95
        8
 96
        4
 40
0.0
 40
0.0
 40
0.0
 40
0.0
 40
1.0
 40
1.0
 40
1.0
 40
1.0
 10
511.1773511006999
 20
393.9223986183
 42
1.0
 10
510.9855733222
 20
394.3244690923
 42
0.9837980176
 10
510.886559591
 20
394.7587911658
 42
0.9837980176
 10
510.8851225635
 20
395.2042542029
 42
1.0
 72
     1
 10
520.3725985880001
 20
374.6441613568
 11
511.1773511006999
 21
393.9223986183
 72
     4
 94
        3
 73
     1
 74
     0
 95
        8
 96
        4
 40
0.0
 40
0.0
 40
0.0
 40
0.0
 40
1.0
 40
1.0
 40
1.0
 40
1.0
 10
521.2228479161
 20
374.0760429189
 42
1.0
 10
520.8472484101
 20
374.0957272549
 42
0.906270941
 10
520.5345202513
 20
374.30468553
 42
0.906270941
 10
520.3725985880001
 20
374.6441613568
 42
1.0
 72
     1
 10
536.189631958
 20
373.2916670042
 11
521.2228479161
 21
374.0760429189
 72
     4
 94
        3
 73
     1
 74
     0
 95
        8
 96
        4
 40
0.0
 40
0.0
 40
0.0
 40
0.0
 40
1.0
 40
1.0
 40
1.0
 40
1.0
 10
536.189631958
 20
373.2916670042
 42
1.0
 10
536.7506125251999
 20
373.2622672585
 42
0.8169162473
 10
537.1372960018
 20
372.8547878961
 42
0.8169162473
 10
537.1372960018
 20
372.2930374695
 42
1.0
 72
     1
 10
537.1372960018
 20
362.2246992993
 11
537.1372960018
 21
372.2930374695
 72
     4
 94
        3
 73
     1
 74
     0
 95
        8
 96
        4
 40
0.0
 40
0.0
 40
0.0
 40
0.0
 40
1.0
 40
1.0
 40
1.0
 40
1.0
 10
538.1198435953999
 20
361.2248516041
 42
1.0
 10
537.5422196488999
 20
361.2349340676001
 42
0.8088336328
 10
537.1372960018
 20
361.6469873644999
 42
0.8088336328
 10
537.1372960018
 20
362.2246992993
 42
1.0
 72
     1
 10
543.6547484082
 20
361.1282394812
 11
538.1198435953999
 21
361.2248516041
 72
     4
 94
        3
 73
     1
 74
     0
 95
        8
 96
        4
 40
0.0
 40
0.0
 40
0.0
 40
0.0
 40
1.0
 40
1.0
 40
1.0
 40
1.0
 10
543.6547484082
 20
361.1282394812
 42
1.0
 10
544.2323723546
 20
361.1181570178
 42
0.8088336328
 10
544.6372960018
 20
360.7061037208
 42
0.8088336328
 10
544.6372960018
 20
360.1283917861
 42
1.0
 72
     1
 10
544.6372960018
 20
356.0112413339
 11
544.6372960018
 21
360.1283917861
 72
     2
 10
543.6372153391
 20
356.011151829
 40
1.000071826899999
 50
270.0049065209
 51
360.0051234105
 73
     1
 72
     1
 10
535.6372999067
 20
355.0110890492
 11
543.6373009127
 21
355.0110890492
 72
     2
 10
535.6373843819999
 20
354.0110182054001
 40
1.0000793393
 50
90.00484656879999
 51
180.0046645254
 73
     1
 72
     1
 10
534.6372960017999
 20
336.5278146914
 11
534.6372960017999
 21
354.0109367832
 72
     4
 94
        3
 73
     1
 74
     0
 95
        8
 96
        4
 40
0.0
 40
0.0
 40
0.0
 40
0.0
 40
1.0
 40
1.0
 40
1.0
 40
1.0
 10
539.1372960017999
 20
332.0278146914
 42
1.0
 10
536.5012570324999
 20
332.0278146914
 42
0.8047378541
 10
534.6372960017999
 20
333.891775722
 42
0.8047378541
 10
534.6372960017999
 20
336.5278146914
 42
1.0
 72
     1
 10
539.1372960017999
 20
332.0278146914
 11
627.6372960018
 21
332.0278146914
 72
     1
 10
627.6372960018
 20
332.0278146914
 11
644.6372960018
 21
332.0278146914
 72
     1
 10
644.6372960018
 20
332.0278146914
 11
709.6372960017998
 21
332.0278146914
 72
     1
 10
709.6372960017998
 20
332.0278146914
 11
709.6372960017998
 21
326.5278146914
 72
     1
 10
644.6372960018
 20
326.5278146914
 11
709.6372960017998
 21
326.5278146914
 72
     1
 10
644.6372960018
 20
326.5278146914
 11
594.6372960018
 21
326.5278146914
 97
        0
 92
        1
 93
       48
 72
     1
 10
754.6372960017999
 20
468.9932092175999
 11
754.6372960017999
 21
470.0624201651
 72
     4
 94
        3
 73
     1
 74
     0
 95
        8
 96
        4
 40
0.0
 40
0.0
 40
0.0
 40
0.0
 40
1.0
 40
1.0
 40
1.0
 40
1.0
 10
752.6722008146999
 20
466.9935138273
 42
1.0
 10
753.8274487075
 20
467.0136787542999
 42
0.8088336328
 10
754.6372960017999
 20
467.8377853480999
 42
0.8088336328
 10
754.6372960017999
 20
468.9932092175999
 42
1.0
 72
     1
 10
654.7465293679
 20
465.284214874
 11
752.6722008146999
 21
466.9935138273
 72
     4
 94
        3
 73
     1
 74
     0
 95
        8
 96
        4
 40
0.0
 40
0.0
 40
0.0
 40
0.0
 40
1.0
 40
1.0
 40
1.0
 40
1.0
 10
654.7465293679
 20
465.284214874
 42
1.0
 10
653.0615347599999
 20
465.2548031838
 42
0.8169162473
 10
651.8595285276999
 20
464.073594949
 42
0.8169162473
 10
651.8007141062001
 20
462.3893702786999
 42
1.0
 72
     1
 10
651.4634836035
 20
452.7323521877
 11
651.8007141062001
 21
462.3893702786999
 72
     4
 94
        3
 73
     1
 74
     0
 95
        8
 96
        4
 40
0.0
 40
0.0
 40
0.0
 40
0.0
 40
1.0
 40
1.0
 40
1.0
 40
1.0
 10
651.4634836035
 20
452.7323521877
 42
1.0
 10
651.4157121233999
 20
451.364355984
 42
0.8692022420999998
 10
650.5634990391
 20
450.2931750530999
 42
0.8692022420999998
 10
649.2412470327
 20
449.9391335873999
 42
1.0
 72
     4
 94
        3
 73
     1
 74
     0
 95
        8
 96
        4
 40
0.0
 40
0.0
 40
0.0
 40
0.0
 40
1.0
 40
1.0
 40
1.0
 40
1.0
 10
647.019010462
 20
447.1459149871
 42
1.0
 10
647.0667819421
 20
448.5139111907999
 42
0.8692022420999998
 10
647.9189950264
 20
449.5850921216999
 42
0.8692022420999998
 10
649.2412470327
 20
449.9391335873999
 42
1.0
 72
     1
 10
647.019010462
 20
447.1459149871
 11
646.802612294
 21
440.9490822371
 72
     4
 94
        3
 73
     1
 74
     0
 95
        8
 96
        4
 40
0.0
 40
0.0
 40
0.0
 40
0.0
 40
1.0
 40
1.0
 40
1.0
 40
1.0
 10
646.8026134017
 20
440.9491254165
 42
1.0
 10
646.7929516015
 20
440.6724482592999
 42
0.9977072806999998
 10
646.7603966399
 20
440.3975232256
 42
0.9977072806999998
 10
646.7051724351001
 20
440.1262412931999
 42
1.0
 72
     4
 94
        3
 73
     1
 74
     0
 95
        8
 96
        4
 40
0.0
 40
0.0
 40
0.0
 40
0.0
 40
1.0
 40
1.0
 40
1.0
 40
1.0
 10
646.7051700569999
 20
440.1262298592
 42
1.0
 10
646.2960202137
 20
438.1162845051
 42
0.7551088631999999
 10
647.5937220468
 20
436.5278091753
 42
0.7551088631999999
 10
649.644888525
 20
436.5278144576999
 42
1.0
 72
     1
 10
649.6448808588
 20
436.5278146914
 11
709.6372960017998
 21
436.5278146914
 72
     1
 10
709.6372960017998
 20
436.5278146914
 11
709.6372960017998
 21
431.0278146914
 72
     1
 10
646.4215380691999
 20
431.0278146914
 11
709.6372960017998
 21
431.0278146914
 72
     4
 94
        3
 73
     1
 74
     0
 95
        8
 96
        4
 40
0.0
 40
0.0
 40
0.0
 40
0.0
 40
1.0
 40
1.0
 40
1.0
 40
1.0
 10
646.4215380227999
 20
431.0278146892
 42
1.0
 10
645.8518376229
 20
431.0278146892
 42
0.8128931996999998
 10
645.4420294515
 20
430.6320675373
 42
0.8128931996999998
 10
645.4221471956999
 20
430.0627141835
 42
1.0
 72
     1
 10
645.4221472419999
 20
430.0627141818
 11
644.1939416829
 21
394.8915087071
 72
     4
 94
        3
 73
     1
 74
     0
 95
        8
 96
        4
 40
0.0
 40
0.0
 40
0.0
 40
0.0
 40
1.0
 40
1.0
 40
1.0
 40
1.0
 10
643.7098844771
 20
392.9133301811
 42
1.0
 10
644.0062762281
 20
393.5347284095
 42
0.986030315
 10
644.1699146066
 20
394.2034632668
 42
0.986030315
 10
644.1939416829
 20
394.8915087071
 42
1.0
 72
     1
 10
643.7098844771
 20
392.9133301811
 11
629.8935031083999
 21
363.9466842599
 72
     2
 10
628.9913980494
 20
364.376898762
 40
0.9994325939000001
 50
272.9964170235
 51
334.5034946769
 73
     1
 72
     1
 10
629.0436422717999
 20
363.3788254041001
 11
621.0854090346
 21
362.9617520731
 72
     2
 10
621.1378044287
 20
361.9629227063
 40
1.000200159599999
 50
93.0028011405
 51
179.9972654203
 73
     1
 72
     1
 10
620.1376006579001
 20
361.9629704423001
 11
620.1376006579001
 21
356.0103274762
 72
     2
 10
619.1382458895999
 20
356.0101380843
 40
0.9993407270999998
 50
269.9892032851
 51
360.0108584597
 73
     1
 72
     1
 10
619.1380575745999
 20
355.0107843931
 11
605.6372959883999
 21
355.0107843931
 72
     4
 94
        3
 73
     1
 74
     0
 95
        8
 96
        4
 40
0.0
 40
0.0
 40
0.0
 40
0.0
 40
1.0
 40
1.0
 40
1.0
 40
1.0
 10
605.6372959364999
 20
355.0107844037
 42
1.0
 10
605.0515095891
 20
355.0107844419
 42
0.8047379015
 10
604.637296076
 20
355.4249979258
 42
0.8047379015
 10
604.6372959963999
 20
356.0107842732
 42
1.0
 72
     1
 10
604.6372960018
 20
356.0107843931
 11
604.6372960018
 21
360.1283917861
 72
     4
 94
        3
 73
     1
 74
     0
 95
        8
 96
        4
 40
0.0
 40
0.0
 40
0.0
 40
0.0
 40
1.0
 40
1.0
 40
1.0
 40
1.0
 10
605.6198435954
 20
361.1282394812
 42
1.0
 10
605.0422196488999
 20
361.1181570178
 42
0.8088336328
 10
604.6372960018
 20
360.7061037208
 42
0.8088336328
 10
604.6372960018
 20
360.1283917861
 42
1.0
 72
     1
 10
605.6198435954
 20
361.1282394812
 11
611.1547484082
 21
361.2248516041
 72
     4
 94
        3
 73
     1
 74
     0
 95
        8
 96
        4
 40
0.0
 40
0.0
 40
0.0
 40
0.0
 40
1.0
 40
1.0
 40
1.0
 40
1.0
 10
611.1547484082
 20
361.2248516041
 42
1.0
 10
611.7323723545999
 20
361.2349340676001
 42
0.8088336328
 10
612.1372960018
 20
361.6469873644999
 42
0.8088336328
 10
612.1372960018
 20
362.2246992993
 42
1.0
 72
     1
 10
612.1372960018
 20
362.2246992993
 11
612.1372960018
 21
372.2930374695
 72
     4
 94
        3
 73
     1
 74
     0
 95
        8
 96
        4
 40
0.0
 40
0.0
 40
0.0
 40
0.0
 40
1.0
 40
1.0
 40
1.0
 40
1.0
 10
613.0849600454999
 20
373.2916670042
 42
1.0
 10
612.5239794784
 20
373.2622672585
 42
0.8169162473
 10
612.1372960018
 20
372.8547878961
 42
0.8169162473
 10
612.1372960018
 20
372.2930374695
 42
1.0
 72
     1
 10
613.0849600454999
 20
373.2916670042
 11
628.0517440875
 21
374.0760429189
 72
     4
 94
        3
 73
     1
 74
     0
 95
        8
 96
        4
 40
0.0
 40
0.0
 40
0.0
 40
0.0
 40
1.0
 40
1.0
 40
1.0
 40
1.0
 10
628.0517440875
 20
374.0760429189
 42
1.0
 10
628.4273435935
 20
374.0957272549
 42
0.906270941
 10
628.7400717523
 20
374.30468553
 42
0.906270941
 10
628.9019934156
 20
374.6441613568
 42
1.0
 72
     1
 10
628.9019934156
 20
374.6441613568
 11
638.0972409027999
 21
393.9223986183
 72
     4
 94
        3
 73
     1
 74
     0
 95
        8
 96
        4
 40
0.0
 40
0.0
 40
0.0
 40
0.0
 40
1.0
 40
1.0
 40
1.0
 40
1.0
 10
638.0972409027999
 20
393.9223986183
 42
1.0
 10
638.2890186813999
 20
394.3244690923
 42
0.9837980176
 10
638.3880324125
 20
394.7587911658
 42
0.9837980176
 10
638.3894694401
 20
395.2042542029
 42
1.0
 72
     1
 10
638.3894694401
 20
395.2042542029
 11
638.5050333344
 21
431.0278146912999
 72
     1
 10
638.5050333344
 20
431.0278146912999
 11
638.5785040571
 21
453.8029461132
 72
     4
 94
        3
 73
     1
 74
     0
 95
        8
 96
        4
 40
0.0
 40
0.0
 40
0.0
 40
0.0
 40
1.0
 40
1.0
 40
1.0
 40
1.0
 10
639.5610464474999
 20
454.7995679063999
 42
1.0
 10
638.9849077554999
 20
454.7895113681
 42
0.8095867034000001
 10
638.5803629071999
 20
454.379169569
 42
0.8095867034000001
 10
638.5785040571
 20
453.8029461132
 42
1.0
 72
     1
 10
639.5610464474999
 20
454.7995679063999
 11
644.6547484082
 21
454.8884788048
 72
     4
 94
        3
 73
     1
 74
     0
 95
        8
 96
        4
 40
0.0
 40
0.0
 40
0.0
 40
0.0
 40
1.0
 40
1.0
 40
1.0
 40
1.0
 10
644.6547484082
 20
454.8884788048
 42
1.0
 10
645.2323723545999
 20
454.8985612682999
 42
0.8088336328
 10
645.6372960018
 20
455.3106145653
 42
0.8088336328
 10
645.6372960018
 20
455.8883264999999
 42
1.0
 72
     1
 10
645.6372960018
 20
455.8883264999999
 11
645.6372960018
 21
464.9229319737999
 72
     4
 94
        3
 73
     1
 74
     0
 95
        8
 96
        4
 40
0.0
 40
0.0
 40
0.0
 40
0.0
 40
1.0
 40
1.0
 40
1.0
 40
1.0
 10
645.6372960018
 20
464.9229319737999
 42
1.0
 10
645.6372960018
 20
465.5006439084999
 42
0.8088336328
 10
645.2323723545999
 20
465.9126972054
 42
0.8088336328
 10
644.6547484082
 20
465.9227796688999
 42
1.0
 72
     1
 10
644.6547484082
 20
465.9227796688999
 11
639.6198435954
 21
466.0106642593
 72
     4
 94
        3
 73
     1
 74
     0
 95
        8
 96
        4
 40
0.0
 40
0.0
 40
0.0
 40
0.0
 40
1.0
 40
1.0
 40
1.0
 40
1.0
 10
638.6372960017999
 20
467.0105119545
 42
1.0
 10
638.6372960017999
 20
466.4328000198
 42
0.8088336328
 10
639.0422196488999
 20
466.0207467228
 42
0.8088336328
 10
639.6198435954
 20
466.0106642593
 42
1.0
 72
     1
 10
638.6372960017999
 20
467.0105119545
 11
638.6372960017999
 21
472.0278146914
 72
     1
 10
638.6372960017999
 20
472.0278146914
 11
638.6405553062999
 21
473.0381639315
 72
     4
 94
        3
 73
     1
 74
     0
 95
        8
 96
        4
 40
0.0
 40
0.0
 40
0.0
 40
0.0
 40
1.0
 40
1.0
 40
1.0
 40
1.0
 10
639.6580025095
 20
474.0347857247
 42
1.0
 10
639.0656766322999
 20
474.0451248112999
 42
0.8013725279999999
 10
638.6424663826
 20
473.630576954
 42
0.8013725279999999
 10
638.6405553062999
 20
473.0381639315
 42
1.0
 72
     1
 10
752.6722008146999
 20
472.0621155555
 11
639.6580025095
 21
474.0347857247
 72
     4
 94
        3
 73
     1
 74
     0
 95
        8
 96
        4
 40
0.0
 40
0.0
 40
0.0
 40
0.0
 40
1.0
 40
1.0
 40
1.0
 40
1.0
 10
754.6372960017999
 20
470.0624201651
 42
1.0
 10
754.6372960017999
 20
471.2178440346
 42
0.8088336328
 10
753.8274487075
 20
472.0419506284999
 42
0.8088336328
 10
752.6722008146999
 20
472.0621155555
 42
1.0
 97
        0
 75
     0
 76
     0
 52
45.0
 41
5.945
 77
     0
 78
     1
 53
45.0
 43
0.0
 44
0.0
 45
-4.2037498142
 46
4.2037498142
 79
     0
 98
        1
 10
0.0
 20
0.0
  0
DIMENSION
  5
253
330
213
100
AcDbEntity
  8
ZEICHNUNGSBEMASSUNGEN
  6
Continuous
 62
     7
100
AcDbDimension
  2
*D1
 10
651.9000692635
 20
506.3528146913999
 30
0.0
 11
571.7206293351
 21
506.3528146913999
 31
0.0
 70
   160
  1
%%c155
 71
     2
 42
154.5255465233999
  3
DIMSTYLE_2
100
AcDbAlignedDimension
 13
497.3745227401
 23
466.7345297280999
 33
0.0
 14
651.9000692635
 24
466.7345297280999
 34
0.0
100
AcDbRotatedDimension
1001
ACAD
1000
DSTYLE
1002
{
1070
    41
1040
5.0
1070
   140
1040
7.0
1070
   147
1040
1.5
1070
   178
1070
   256
1002
}
  0
DIMENSION
  5
254
330
213
100
AcDbEntity
  8
ZEICHNUNGSBEMASSUNGEN
  6
Continuous
 62
     7
100
AcDbDimension
  2
*D2
 10
754.6372960017999
 20
516.52101530518
 30
0.0
 11
573.1262958880288
 21
516.52101530518
 31
0.0
 70
   160
  1
%%c<>
 71
     2
 42
359.9999999999999
  3
DIMSTYLE_2
100
AcDbAlignedDimension
 13
394.6372960018
 23
471.5624201651
 33
0.0
 14
754.6372960017999
 24
471.5624201651
 34
0.0
100
AcDbRotatedDimension
1001
ACAD
1000
DSTYLE
1002
{
1070
    41
1040
5.0
1070
   140
1040
7.0
1070
   147
1040
1.5
1070
   178
1070
   256
1002
}
  0
DIMENSION
  5
255
330
213
100
AcDbEntity
  8
ZEICHNUNGSBEMASSUNGEN
  6
Continuous
 62
     7
100
AcDbDimension
  2
*D3
 10
384.7007376986001
 20
474.0347857841
 30
0.0
 11
384.7007376986
 21
394.9173202561
 31
0.0
 70
   160
 71
     2
 42
147.5069710927
  3
DIMSTYLE_2
100
AcDbAlignedDimension
 13
537.6372960034999
 23
326.5278146914
 33
0.0
 14
508.1165928966999
 24
474.0347857841
 34
0.0
 50
90.0
100
AcDbRotatedDimension
1001
ACAD_DSTYLE_DIMINSPECT
1070
   396
1000
100%
1070
   395
1000

1070
   394
1070
    33
1070
   393
1070
     0
1001
ACAD
1000
DSTYLE
1002
{
1070
    41
1040
5.0
1070
   140
1040
7.0
1070
   147
1040
1.5
1070
   178
1070
   256
1070
   271
1070
     0
1002
}
  0
DIMENSION
  5
256
330
213
100
AcDbEntity
  8
ZEICHNUNGSBEMASSUNGEN
  6
Continuous
 62
     7
100
AcDbDimension
  2
*D4
 10
763.1884892441002
 20
474.0347857826999
 30
0.0
 11
763.1884892441
 21
425.4345589950999
 31
0.0
 70
   160
 71
     2
 42
92.50697109129992
  3
DIMSTYLE_2
100
AcDbAlignedDimension
 13
714.1372960017998
 23
381.5278146914
 33
0.0
 14
641.157999184
 24
474.0347857826999
 34
0.0
 50
90.0
100
AcDbRotatedDimension
1001
ACAD_DSTYLE_DIMINSPECT
1070
   396
1000
100%
1070
   395
1000

1070
   394
1070
    33
1070
   393
1070
     0
1001
ACAD
1000
DSTYLE
1002
{
1070
    41
1040
5.0
1070
   140
1040
7.0
1070
   147
1040
1.5
1070
   178
1070
   256
1070
   271
1070
     0
1002
}
  0
DIMENSION
  5
257
330
213
100
AcDbEntity
  8
ZEICHNUNGSBEMASSUNGEN
  6
Continuous
 62
     7
100
AcDbDimension
  2
*D5
 10
709.6372960017998
 20
312.1302301654234
 30
0.0
 11
639.2514924980646
 21
312.1302301654234
 31
0.0
 70
   160
 71
     2
 42
134.9999999999999
  3
DIMSTYLE_2
100
AcDbAlignedDimension
 13
574.6372960018
 23
321.9060042734
 33
0.0
 14
709.6372960017998
 24
325.0278146914
 34
0.0
100
AcDbRotatedDimension
1001
ACAD
1000
DSTYLE
1002
{
1070
    41
1040
5.0
1070
   140
1040
7.0
1070
   147
1040
1.5
1070
   178
1070
   256
1002
}
  0
LINE
  5
258
330
213
100
AcDbEntity
  8
0
  6
Continuous
 62
     7
100
AcDbLine
 10
394.6372960018
 20
468.9932092175999
 30
0.0
 11
394.6372960018
 21
470.0624201651
 31
0.0
  0
LINE
  5
259
330
213
100
AcDbEntity
  8
0
  6
Continuous
 62
     7
100
AcDbLine
 10
539.1372960017999
 20
326.5278146914
 30
0.0
 11
709.6372960017998
 21
326.5278146914
 31
0.0
  0
LINE
  5
25A
330
213
100
AcDbEntity
  8
0
  6
Continuous
 62
     7
100
AcDbLine
 10
539.1372960017999
 20
332.0278146914
 30
0.0
 11
709.6372960017998
 21
332.0278146914
 31
0.0
  0
LINE
  5
25B
330
213
100
AcDbEntity
  8
0
  6
Continuous
 62
     7
100
AcDbLine
 10
497.8111084001
 20
452.7323521877
 30
0.0
 11
497.4738778973999
 21
462.3893702786999
 31
0.0
  0
LINE
  5
25C
330
213
100
AcDbEntity
  8
0
  6
Continuous
 62
     7
100
AcDbLine
 10
502.2555815416
 20
447.1459149871
 30
0.0
 11
502.5425986919
 21
438.9268191735999
 31
0.0
  0
LINE
  5
25D
330
213
100
AcDbEntity
  8
0
  6
Continuous
 62
     7
100
AcDbLine
 10
503.6945103956999
 20
434.5940922135
 30
0.0
 11
505.0809547912
 21
394.8915193394
 31
0.0
  0
LINE
  5
25E
330
213
100
AcDbEntity
  8
0
  6
Continuous
 62
     7
100
AcDbLine
 10
503.6372960018
 20
455.8883264999999
 30
0.0
 11
503.6372960018
 21
464.9229319737999
 31
0.0
  0
LINE
  5
262
330
213
100
AcDbEntity
  8
0
  6
Continuous
 62
     7
100
AcDbLine
 10
505.5649825046
 20
392.9134613389
 30
0.0
 11
518.8689144387
 21
365.0211879998
 31
0.0
  0
LINE
  5
263
330
213
100
AcDbEntity
  8
0
  6
Continuous
 62
     7
100
AcDbLine
 10
510.8851225635
 20
395.2042542029
 30
0.0
 11
510.6960879465
 21
453.8029461132
 31
0.0
  0
LINE
  5
264
330
213
100
AcDbEntity
  8
0
  6
Continuous
 62
     7
100
AcDbLine
 10
510.6372960017999
 20
472.0278146914
 30
0.0
 11
510.6340366972999
 21
473.0381639315
 31
0.0
  0
LINE
  5
265
330
213
100
AcDbEntity
  8
0
  6
Continuous
 62
     7
100
AcDbLine
 10
510.6372960017999
 20
467.0105119545
 30
0.0
 11
510.6372960017999
 21
472.0278146914
 31
0.0
  0
LINE
  5
266
330
213
100
AcDbEntity
  8
RUNDUNGEN
  6
Continuous
 62
     9
100
AcDbLine
 10
574.6372960018
 20
353.330189189
 30
0.0
 11
594.6372960018
 21
353.330189189
 31
0.0
  0
LINE
  5
267
330
213
100
AcDbEntity
  8
RUNDUNGEN
  6
Continuous
 62
     9
100
AcDbLine
 10
574.6372960018
 20
354.3300368841
 30
0.0
 11
594.6372960018
 21
354.3300368841
 31
0.0
  0
LINE
  5
268
330
213
100
AcDbEntity
  8
0
  6
Continuous
 62
     7
100
AcDbLine
 10
619.1380575745999
 20
355.0107843931
 30
0.0
 11
605.6372959883999
 21
355.0107843931
 31
0.0
  0
LINE
  5
269
330
213
100
AcDbEntity
  8
0
  6
Continuous
 62
     7
100
AcDbLine
 10
535.6372999067
 20
355.0110890492
 30
0.0
 11
543.6373009127
 21
355.0110890492
 31
0.0
  0
LINE
  5
26A
330
213
100
AcDbEntity
  8
0
  6
Continuous
 62
     9
100
AcDbLine
 10
620.1376006579001
 20
356.0103274762
 30
0.0
 11
620.1379052675999
 21
356.0103274786
 31
0.0
  0
LINE
  5
26B
330
213
100
AcDbEntity
  8
0
  6
Continuous
 62
     7
100
AcDbLine
 10
503.1878921869
 20
436.6188891089
 30
0.0
 11
503.0492180926999
 21
436.9020225492
 31
0.0
  0
LINE
  5
26C
330
213
100
AcDbEntity
  8
0
  6
Continuous
 62
     7
100
AcDbLine
 10
520.3725985880001
 20
374.6441613568
 30
0.0
 11
511.1773511006999
 21
393.9223986183
 31
0.0
  0
LINE
  5
26D
330
213
100
AcDbEntity
  8
0
  6
Continuous
 62
     7
100
AcDbLine
 10
529.1372960018
 20
336.5278146914
 30
0.0
 11
529.1372960018
 21
360.0654749486
 31
0.0
  0
LINE
  5
26E
330
213
100
AcDbEntity
  8
0
  6
Continuous
 62
     7
100
AcDbLine
 10
534.6372960017999
 20
336.5278146914
 30
0.0
 11
534.6372960017999
 21
354.0109367832
 31
0.0
  0
LINE
  5
26F
330
213
100
AcDbEntity
  8
0
  6
Continuous
 62
     7
100
AcDbLine
 10
629.0436422717999
 20
363.3788254041001
 30
0.0
 11
621.0854090346
 21
362.9617520731
 31
0.0
  0
LINE
  5
270
330
213
100
AcDbEntity
  8
0
  6
Continuous
 62
     7
100
AcDbLine
 10
613.0849600454999
 20
373.2916670042
 30
0.0
 11
628.0517440875
 21
374.0760429189
 31
0.0
  0
LINE
  5
271
330
213
100
AcDbEntity
  8
0
  6
Continuous
 62
     7
100
AcDbLine
 10
605.6198435954
 20
361.1282394812
 30
0.0
 11
611.1547484082
 21
361.2248516041
 31
0.0
  0
LINE
  5
272
330
213
100
AcDbEntity
  8
0
  6
Continuous
 62
     9
100
AcDbLine
 10
544.6372960018
 20
360.1283917861
 30
0.0
 11
604.6372960018
 21
360.1283917861
 31
0.0
  0
LINE
  5
274
330
213
100
AcDbEntity
  8
0
  6
Continuous
 62
     9
100
AcDbLine
 10
543.6547484082
 20
361.1282394812
 30
0.0
 11
605.6198435954
 21
361.1282394812
 31
0.0
  0
LINE
  5
275
330
213
100
AcDbEntity
  8
0
  6
Continuous
 62
     9
100
AcDbLine
 10
538.1198435953999
 20
361.2248516041
 30
0.0
 11
611.1547484082
 21
361.2248516041
 31
0.0
  0
LINE
  5
276
330
213
100
AcDbEntity
  8
0
  6
Continuous
 62
     9
100
AcDbLine
 10
620.1376006579001
 20
361.9629704427
 30
0.0
 11
620.1379052675999
 21
361.9629704423001
 31
0.0
  0
LINE
  5
277
330
213
100
AcDbEntity
  8
0
  6
Continuous
 62
     9
100
AcDbLine
 10
537.1372960018
 20
362.2246992993
 30
0.0
 11
612.1372960018
 21
362.2246992993
 31
0.0
  0
LINE
  5
278
330
213
100
AcDbEntity
  8
0
  6
Continuous
 62
     7
100
AcDbLine
 10
543.6547484082
 20
361.1282394812
 30
0.0
 11
538.1198435953999
 21
361.2248516041
 31
0.0
  0
LINE
  5
279
330
213
100
AcDbEntity
  8
0
  6
Continuous
 62
     7
100
AcDbLine
 10
521.4196624229999
 20
363.3168326859
 30
0.0
 11
526.2943038705
 21
363.0613635529
 31
0.0
  0
LINE
  5
27A
330
213
100
AcDbEntity
  8
0
  6
Continuous
 62
     7
100
AcDbLine
 10
536.189631958
 20
373.2916670042
 30
0.0
 11
521.2228479161
 21
374.0760429189
 31
0.0
  0
LINE
  5
27B
330
213
100
AcDbEntity
  8
0
  6
Continuous
 62
     7
100
AcDbLine
 10
537.1372960018
 20
362.2246992993
 30
0.0
 11
537.1372960018
 21
372.2930374695
 31
0.0
  0
LINE
  5
27C
330
213
100
AcDbEntity
  8
0
  6
Continuous
 62
     7
100
AcDbLine
 10
544.6372960018
 20
356.0112413339
 30
0.0
 11
544.6372960018
 21
360.1283917861
 31
0.0
  0
LINE
  5
27D
330
213
100
AcDbEntity
  8
0
  6
Continuous
 62
     9
100
AcDbLine
 10
537.1372960018
 20
372.2930374695
 30
0.0
 11
594.0302170817999
 21
372.2930374695
 31
0.0
  0
LINE
  5
27E
330
213
100
AcDbEntity
  8
RUNDUNGEN
  6
Continuous
 62
     9
100
AcDbLine
 10
594.0302170817999
 20
372.2930374695
 30
0.0
 11
601.2458220405999
 21
372.2930374695
 31
0.0
  0
LINE
  5
27F
330
213
100
AcDbEntity
  8
0
  6
Continuous
 62
     9
100
AcDbLine
 10
601.2458220405999
 20
372.2930374695
 30
0.0
 11
612.1372960018
 21
372.2930374695
 31
0.0
  0
LINE
  5
280
330
213
100
AcDbEntity
  8
0
  6
Continuous
 62
     9
100
AcDbLine
 10
536.189631958
 20
373.2916670042
 30
0.0
 11
594.5202964256
 21
373.2916670042
 31
0.0
  0
LINE
  5
281
330
213
100
AcDbEntity
  8
RUNDUNGEN
  6
Continuous
 62
     9
100
AcDbLine
 10
594.5202964256
 20
373.2916670042
 30
0.0
 11
601.9182471975
 21
373.2916670042
 31
0.0
  0
LINE
  5
282
330
213
100
AcDbEntity
  8
0
  6
Continuous
 62
     9
100
AcDbLine
 10
601.9182471975
 20
373.2916670042
 30
0.0
 11
613.0849600454999
 21
373.2916670042
 31
0.0
  0
LINE
  5
283
330
213
100
AcDbEntity
  8
RUNDUNGEN
  6
Continuous
 62
     9
100
AcDbLine
 10
563.5299234834999
 20
373.7142107384999
 30
0.0
 11
585.7446685201
 21
373.7142107384999
 31
0.0
  0
LINE
  5
284
330
213
100
AcDbEntity
  8
0
  6
Continuous
 62
     9
100
AcDbLine
 10
521.2228479161
 20
374.0760429189
 30
0.0
 11
559.8481740872
 21
374.076042919
 31
0.0
  0
LINE
  5
285
330
213
100
AcDbEntity
  8
RUNDUNGEN
  6
Continuous
 62
     9
100
AcDbLine
 10
589.4264179163999
 20
374.076042919
 30
0.0
 11
602.2847131820999
 21
374.0760429189
 31
0.0
  0
LINE
  5
286
330
213
100
AcDbEntity
  8
0
  6
Continuous
 62
     9
100
AcDbLine
 10
602.2847131820999
 20
374.0760429189
 30
0.0
 11
628.0517440875
 21
374.0760429189
 31
0.0
  0
LINE
  5
287
330
213
100
AcDbEntity
  8
RUNDUNGEN
  6
Continuous
 62
     9
100
AcDbLine
 10
563.3080103151
 20
374.5220312778
 30
0.0
 11
585.9665815908
 21
374.5220312778
 31
0.0
  0
LINE
  5
288
330
213
100
AcDbEntity
  8
0
  6
Continuous
 62
     9
100
AcDbLine
 10
520.3725985880001
 20
374.6441613568
 30
0.0
 11
559.6127613586999
 21
374.6441613566
 31
0.0
  0
LINE
  5
289
330
213
100
AcDbEntity
  8
0
  6
Continuous
 62
     9
100
AcDbLine
 10
589.6618327001999
 20
374.6441613566
 30
0.0
 11
628.9019934156
 21
374.6441613568
 31
0.0
  0
LINE
  5
28A
330
213
100
AcDbEntity
  8
0
  6
CENTER
100
AcDbLine
 10
712.6372960017999
 20
381.5278146914
 30
0.0
 11
574.6372960018
 21
381.5278146914
 31
0.0
  0
LINE
  5
28B
330
213
100
AcDbEntity
  8
RUNDUNGEN
  6
Continuous
 62
     9
100
AcDbLine
 10
557.1577961248
 20
395.2042542029
 30
0.0
 11
557.1508888358001
 21
403.4839170716999
 31
0.0
  0
LINE
  5
28C
330
213
100
AcDbEntity
  8
RUNDUNGEN
  6
Continuous
 62
     9
100
AcDbLine
 10
558.3926582453
 20
401.4840596338999
 30
0.0
 11
558.3978994101999
 21
395.2074801048
 31
0.0
  0
LINE
  5
28D
330
213
100
AcDbEntity
  8
RUNDUNGEN
  6
Continuous
 62
     9
100
AcDbLine
 10
559.7070579829
 20
467.0105119545
 30
0.0
 11
559.7070579829
 21
472.0278146914
 31
0.0
  0
LINE
  5
28E
330
213
100
AcDbEntity
  8
RUNDUNGEN
  6
Continuous
 62
     9
100
AcDbLine
 10
560.4396988401
 20
467.0105128523999
 30
0.0
 11
560.4396988401
 21
472.0262017599999
 31
0.0
  0
LINE
  5
28F
330
213
100
AcDbEntity
  8
RUNDUNGEN
  6
Continuous
 62
     9
100
AcDbLine
 10
562.1425650692999
 20
466.9083618432
 30
0.0
 11
562.1425795593999
 21
472.9328447363999
 31
0.0
  0
LINE
  5
290
330
213
100
AcDbEntity
  8
RUNDUNGEN
  6
Continuous
 62
     9
100
AcDbLine
 10
562.8638739584999
 20
396.5105119545
 30
0.0
 11
562.8638739584999
 21
400.5788501247
 31
0.0
  0
LINE
  5
291
330
213
100
AcDbEntity
  8
RUNDUNGEN
  6
Continuous
 62
     9
100
AcDbLine
 10
562.9437936798
 20
466.9083627481
 30
0.0
 11
562.9437496137999
 21
472.9128093755999
 31
0.0
  0
LINE
  5
292
330
213
100
AcDbEntity
  8
RUNDUNGEN
  6
Continuous
 62
     9
100
AcDbLine
 10
559.6870176934999
 20
450.3398124255
 30
0.0
 11
559.6902176280999
 21
453.8029461132
 31
0.0
  0
LINE
  5
293
330
213
100
AcDbEntity
  8
RUNDUNGEN
  6
Continuous
 62
     9
100
AcDbLine
 10
559.7070552789999
 20
472.0278146914
 30
0.0
 11
559.7079886164
 21
473.0381639315
 31
0.0
  0
LINE
  5
294
330
213
100
AcDbEntity
  8
RUNDUNGEN
  6
Continuous
 62
     9
100
AcDbLine
 10
560.4396988401
 20
472.0262017599999
 30
0.0
 11
560.4406571074999
 21
473.0349380295
 31
0.0
  0
LINE
  5
295
330
213
100
AcDbEntity
  8
0
  6
Continuous
 62
     9
100
AcDbLine
 10
638.0972409027999
 20
393.9223986183
 30
0.0
 11
592.0397020317999
 21
393.9223986199
 31
0.0
  0
LINE
  5
296
330
213
100
AcDbEntity
  8
0
  6
Continuous
 62
     9
100
AcDbLine
 10
557.2348899718
 20
393.9223986199
 30
0.0
 11
511.1773511006999
 21
393.9223986183
 31
0.0
  0
LINE
  5
297
330
213
100
AcDbEntity
  8
RUNDUNGEN
  6
Continuous
 62
     9
100
AcDbLine
 10
586.9206289633
 20
394.2357901242
 30
0.0
 11
562.3539630403
 21
394.2357901242
 31
0.0
  0
LINE
  5
298
330
213
100
AcDbEntity
  8
0
  6
Continuous
 62
     9
100
AcDbLine
 10
510.8851225635
 20
395.2042542029
 30
0.0
 11
557.1577961248
 21
395.2042542029
 31
0.0
  0
LINE
  5
299
330
213
100
AcDbEntity
  8
RUNDUNGEN
  6
Continuous
 62
     9
100
AcDbLine
 10
592.1167958787999
 20
395.2042542029
 30
0.0
 11
612.0627648683999
 21
395.2042542029
 31
0.0
  0
LINE
  5
29A
330
213
100
AcDbEntity
  8
0
  6
Continuous
 62
     9
100
AcDbLine
 10
612.0627648683999
 20
395.2042542028
 30
0.0
 11
638.3894694401
 21
395.2042542029
 31
0.0
  0
LINE
  5
29B
330
213
100
AcDbEntity
  8
RUNDUNGEN
  6
Continuous
 62
     9
100
AcDbLine
 10
586.6896376451999
 20
395.4264468144001
 30
0.0
 11
562.5849543583999
 21
395.4264468144001
 31
0.0
  0
LINE
  5
29C
330
213
100
AcDbEntity
  8
RUNDUNGEN
  6
Continuous
 62
     9
100
AcDbLine
 10
585.4406467943
 20
395.5106642593
 30
0.0
 11
563.8339452093
 21
395.5106642593
 31
0.0
  0
LINE
  5
29D
330
213
100
AcDbEntity
  8
RUNDUNGEN
  6
Continuous
 62
     9
100
AcDbLine
 10
586.4107180450999
 20
396.5105119545
 30
0.0
 11
562.8638739584999
 21
396.5105119545
 31
0.0
  0
LINE
  5
29E
330
213
100
AcDbEntity
  8
0
  6
Continuous
 62
     9
100
AcDbLine
 10
644.1939416829
 20
394.8915087071
 30
0.0
 11
644.194246107
 21
394.8914980764
 31
0.0
  0
LINE
  5
29F
330
213
100
AcDbEntity
  8
RUNDUNGEN
  6
Continuous
 62
     9
100
AcDbLine
 10
644.194246107
 20
394.8914980764
 30
0.0
 11
645.0075611948999
 21
394.8630964876
 31
0.0
  0
LINE
  5
2A0
330
213
100
AcDbEntity
  8
0
  6
Continuous
 62
     9
100
AcDbLine
 10
629.8935031082
 20
363.9466842596
 30
0.0
 11
629.8937780448999
 21
363.9465531226
 31
0.0
  0
LINE
  5
2A1
330
213
100
AcDbEntity
  8
RUNDUNGEN
  6
Continuous
 62
     9
100
AcDbLine
 10
564.0673271741999
 20
396.5105119545
 30
0.0
 11
564.0673271741999
 21
400.5788501247
 31
0.0
  0
LINE
  5
2A2
330
213
100
AcDbEntity
  8
0
  6
Continuous
 62
     7
100
AcDbLine
 10
566.6372960018
 20
474.8278146914
 30
0.0
 11
566.6372960018
 21
473.9128093756
 31
0.0
  0
LINE
  5
2A3
330
213
100
AcDbEntity
  8
0
  6
Continuous
 62
     7
100
AcDbLine
 10
566.6372960018
 20
475.7278146914
 30
0.0
 11
566.6372960018
 21
485.7278146914
 31
0.0
  0
LINE
  5
2A4
330
213
100
AcDbEntity
  8
0
  6
Continuous
 62
     7
100
AcDbLine
 10
567.6372960017999
 20
485.7278146914
 30
0.0
 11
567.6372960017999
 21
493.7278146914
 31
0.0
  0
LINE
  5
2A5
330
213
100
AcDbEntity
  8
0
  6
Continuous
 62
     7
100
AcDbLine
 10
568.1372960017999
 20
474.8278146914
 30
0.0
 11
568.1372960017999
 21
475.7278146914
 31
0.0
  0
LINE
  5
2A6
330
213
100
AcDbEntity
  8
0
  6
Continuous
 62
     7
100
AcDbLine
 10
574.6372960018
 20
475.7278146914
 30
0.0
 11
574.6372960018
 21
475.4333681908
 31
0.0
  0
LINE
  5
2A7
330
213
100
AcDbEntity
  8
RUNDUNGEN
  6
Continuous
 62
     9
100
AcDbLine
 10
574.6372960018
 20
336.656806341
 30
0.0
 11
574.6372960018
 21
354.3300368841
 31
0.0
  0
LINE
  5
2A8
330
213
100
AcDbEntity
  8
0
  6
CENTER
100
AcDbLine
 10
574.6372960018
 20
323.4060042734
 30
0.0
 11
574.6372960018
 21
493.7278146914
 31
0.0
  0
LINE
  5
2A9
330
213
100
AcDbEntity
  8
RUNDUNGEN
  6
Continuous
 62
     9
100
AcDbLine
 10
586.4107180450999
 20
400.5788501247
 30
0.0
 11
562.8638739584999
 21
400.5788501247
 31
0.0
  0
LINE
  5
2AA
330
213
100
AcDbEntity
  8
RUNDUNGEN
  6
Continuous
 62
     9
100
AcDbLine
 10
585.4323609957
 20
401.5774796594
 30
0.0
 11
563.8422310077999
 21
401.5774796594
 31
0.0
  0
LINE
  5
2AB
330
213
100
AcDbEntity
  8
RUNDUNGEN
  6
Continuous
 62
     9
100
AcDbLine
 10
559.3395594909
 20
402.4885134388999
 30
0.0
 11
589.9350325127
 21
402.4885134388999
 31
0.0
  0
LINE
  5
2AC
330
213
100
AcDbEntity
  8
RUNDUNGEN
  6
Continuous
 62
     9
100
AcDbLine
 10
557.1508888358001
 20
403.4839170716999
 30
0.0
 11
592.1237031677999
 21
403.4839170716999
 31
0.0
  0
LINE
  5
2AD
330
213
100
AcDbEntity
  8
RUNDUNGEN
  6
Continuous
 62
     9
100
AcDbLine
 10
620.8911042933
 20
361.2482112552
 30
0.0
 11
620.1379052675999
 21
361.9629704423001
 31
0.0
  0
LINE
  5
2AE
330
213
100
AcDbEntity
  8
RUNDUNGEN
  6
Continuous
 62
     9
100
AcDbLine
 10
621.8386240032
 20
362.2466886939
 30
0.0
 11
621.0854249775
 21
362.9614478809
 31
0.0
  0
LINE
  5
2AF
330
213
100
AcDbEntity
  8
RUNDUNGEN
  6
Continuous
 62
     9
100
AcDbLine
 10
619.8592791298
 20
354.2892582259999
 30
0.0
 11
619.1380575723999
 21
355.0104797833999
 31
0.0
  0
LINE
  5
2B0
330
213
100
AcDbEntity
  8
RUNDUNGEN
  6
Continuous
 62
     9
100
AcDbLine
 10
620.8693419258
 20
355.2788908204
 30
0.0
 11
620.1379052675999
 21
356.0103274786
 31
0.0
  0
LINE
  5
2B1
330
213
100
AcDbEntity
  8
RUNDUNGEN
  6
Continuous
 62
     9
100
AcDbLine
 10
588.8339348960999
 20
473.0349380295
 30
0.0
 11
588.8348931633999
 21
472.0262017599999
 31
0.0
  0
LINE
  5
2B2
330
213
100
AcDbEntity
  8
RUNDUNGEN
  6
Continuous
 62
     9
100
AcDbLine
 10
589.5666033871999
 20
473.0381639315
 30
0.0
 11
589.5675367244999
 21
472.0278146914
 31
0.0
  0
LINE
  5
2B3
330
213
100
AcDbEntity
  8
RUNDUNGEN
  6
Continuous
 62
     9
100
AcDbLine
 10
589.5843743755
 20
453.8029461132
 30
0.0
 11
589.5875743100999
 21
450.3398124251999
 31
0.0
  0
LINE
  5
2B4
330
213
100
AcDbEntity
  8
0
  6
Continuous
 62
     7
100
AcDbLine
 10
581.1372960017999
 20
475.7278146914
 30
0.0
 11
581.1372960017999
 21
474.8278146914
 31
0.0
  0
LINE
  5
2B5
330
213
100
AcDbEntity
  8
0
  6
Continuous
 62
     7
100
AcDbLine
 10
581.6372960017999
 20
485.7278146914
 30
0.0
 11
581.6372960017999
 21
493.7278146914
 31
0.0
  0
LINE
  5
2B6
330
213
100
AcDbEntity
  8
0
  6
Continuous
 62
     7
100
AcDbLine
 10
582.6372960018
 20
474.8278146914
 30
0.0
 11
582.6372960018
 21
473.9128093756
 31
0.0
  0
LINE
  5
2B7
330
213
100
AcDbEntity
  8
0
  6
Continuous
 62
     7
100
AcDbLine
 10
582.6372960018
 20
475.7278146914
 30
0.0
 11
582.6372960018
 21
485.7278146914
 31
0.0
  0
LINE
  5
2B8
330
213
100
AcDbEntity
  8
RUNDUNGEN
  6
Continuous
 62
     9
100
AcDbLine
 10
585.2072648294
 20
400.5788501247
 30
0.0
 11
585.2072648294
 21
396.5105119545
 31
0.0
  0
LINE
  5
2B9
330
213
100
AcDbEntity
  8
RUNDUNGEN
  6
Continuous
 62
     9
100
AcDbLine
 10
586.3308421694
 20
472.9128093755999
 30
0.0
 11
586.3307983238
 21
466.9083627501
 31
0.0
  0
LINE
  5
2BA
330
213
100
AcDbEntity
  8
RUNDUNGEN
  6
Continuous
 62
     9
100
AcDbLine
 10
586.4107180450999
 20
400.5788501247
 30
0.0
 11
586.4107180450999
 21
396.5105119545
 31
0.0
  0
LINE
  5
2BB
330
213
100
AcDbEntity
  8
RUNDUNGEN
  6
Continuous
 62
     9
100
AcDbLine
 10
587.1320119965
 20
472.9328447093999
 30
0.0
 11
587.1320269343
 21
466.9083616205
 31
0.0
  0
LINE
  5
2BC
330
213
100
AcDbEntity
  8
RUNDUNGEN
  6
Continuous
 62
     9
100
AcDbLine
 10
588.8348931633999
 20
472.0262017599999
 30
0.0
 11
588.8348931633999
 21
467.0105125108999
 31
0.0
  0
LINE
  5
2BD
330
213
100
AcDbEntity
  8
RUNDUNGEN
  6
Continuous
 62
     9
100
AcDbLine
 10
589.5675340207
 20
472.0278146914
 30
0.0
 11
589.5675340207
 21
467.0105119545
 31
0.0
  0
LINE
  5
2BE
330
213
100
AcDbEntity
  8
0
  6
Continuous
 62
     9
100
AcDbLine
 10
643.7098844771
 20
392.9133301811
 30
0.0
 11
643.7101594133
 21
392.9131990432
 31
0.0
  0
LINE
  5
2BF
330
213
100
AcDbEntity
  8
RUNDUNGEN
  6
Continuous
 62
     9
100
AcDbLine
 10
643.7101594133
 20
392.9131990432
 30
0.0
 11
644.4555159623
 21
392.5576822062
 31
0.0
  0
LINE
  5
2C1
330
213
100
AcDbEntity
  8
RUNDUNGEN
  6
Continuous
 62
     9
100
AcDbLine
 10
590.8766925933999
 20
395.2074801048
 30
0.0
 11
590.8819337583
 21
401.4840596338999
 31
0.0
  0
LINE
  5
2C2
330
213
100
AcDbEntity
  8
RUNDUNGEN
  6
Continuous
 62
     9
100
AcDbLine
 10
592.1237031677999
 20
403.4839170716999
 30
0.0
 11
592.1167958787999
 21
395.2042542029
 31
0.0
  0
LINE
  5
2C3
330
213
100
AcDbEntity
  8
0
  6
Continuous
 62
     7
100
AcDbLine
 10
646.4215380691999
 20
431.0278146914
 30
0.0
 11
709.6372960017998
 21
431.0278146914
 31
0.0
  0
LINE
  5
2C4
330
213
100
AcDbEntity
  8
0
  6
Continuous
 62
     7
100
AcDbLine
 10
649.6448808588
 20
436.5278146914
 30
0.0
 11
709.6372960017998
 21
436.5278146914
 31
0.0
  0
LINE
  5
2C5
330
213
100
AcDbEntity
  8
0
  6
Continuous
 62
     9
100
AcDbLine
 10
645.4224517423
 20
430.0627057326
 30
0.0
 11
645.4221472419999
 21
430.0627141818
 31
0.0
  0
LINE
  5
2C6
330
213
100
AcDbEntity
  8
RUNDUNGEN
  6
Continuous
 62
     9
100
AcDbLine
 10
629.0436582139
 20
363.3785212119
 30
0.0
 11
629.5411357028999
 21
362.633993535
 31
0.0
  0
LINE
  5
2C7
330
213
100
AcDbEntity
  8
RUNDUNGEN
  6
Continuous
 62
     9
100
AcDbLine
 10
629.8937780448999
 20
363.9465531226
 30
0.0
 11
630.3961169146
 21
363.1947498755
 31
0.0
  0
LINE
  5
2C8
330
213
100
AcDbEntity
  8
0
  6
Continuous
 62
     7
100
AcDbLine
 10
604.6372960018
 20
356.0107843931
 30
0.0
 11
604.6372960018
 21
360.1283917861
 31
0.0
  0
LINE
  5
2C9
330
213
100
AcDbEntity
  8
0
  6
Continuous
 62
     7
100
AcDbLine
 10
612.1372960018
 20
362.2246992993
 30
0.0
 11
612.1372960018
 21
372.2930374695
 31
0.0
  0
LINE
  5
2CA
330
213
100
AcDbEntity
  8
0
  6
Continuous
 62
     9
100
AcDbLine
 10
605.6372960017999
 20
355.0107843931
 30
0.0
 11
605.6372517876
 21
355.0104797833999
 31
0.0
  0
LINE
  5
2CB
330
213
100
AcDbEntity
  8
RUNDUNGEN
  6
Continuous
 62
     9
100
AcDbLine
 10
561.2203064873999
 20
448.5051730291
 30
0.0
 11
588.0542855172
 21
448.5051730291
 31
0.0
  0
LINE
  5
2CC
330
213
100
AcDbEntity
  8
RUNDUNGEN
  6
Continuous
 62
     9
100
AcDbLine
 10
561.1455495808
 20
449.2679915703
 30
0.0
 11
588.1290424238
 21
449.2679915703
 31
0.0
  0
LINE
  5
2CD
330
213
100
AcDbEntity
  8
0
  6
Continuous
 62
     9
100
AcDbLine
 10
621.0854090341999
 20
362.9617520731
 30
0.0
 11
621.0854249775
 21
362.9614478809
 31
0.0
  0
LINE
  5
2CE
330
213
100
AcDbEntity
  8
0
  6
Continuous
 62
     9
100
AcDbLine
 10
629.0436422722
 20
363.3788254041001
 30
0.0
 11
629.0436582139
 21
363.3785212119
 31
0.0
  0
LINE
  5
2CF
330
213
100
AcDbEntity
  8
0
  6
Continuous
 62
     9
100
AcDbLine
 10
619.1380575745999
 20
355.0107843931
 30
0.0
 11
619.1380575733999
 21
355.0104797833999
 31
0.0
  0
LINE
  5
2D0
330
213
100
AcDbEntity
  8
0
  6
Continuous
 62
     7
100
AcDbLine
 10
620.1376006579001
 20
361.9629704423001
 30
0.0
 11
620.1376006579001
 21
356.0103274762
 31
0.0
  0
LINE
  5
2D1
330
213
100
AcDbEntity
  8
0
  6
Continuous
 62
     7
100
AcDbLine
 10
627.6372960018
 20
332.0752642489
 30
0.0
 11
627.6372960018
 21
332.0278146914
 31
0.0
  0
LINE
  5
2D2
330
213
100
AcDbEntity
  8
0
  6
Continuous
 62
     7
100
AcDbLine
 10
639.5610464474999
 20
454.7995679063999
 30
0.0
 11
644.6547484082
 21
454.8884788048
 31
0.0
  0
LINE
  5
2D3
330
213
100
AcDbEntity
  8
0
  6
Continuous
 62
     7
100
AcDbLine
 10
654.7465293679
 20
465.284214874
 30
0.0
 11
752.6722008146999
 21
466.9935138273
 31
0.0
  0
LINE
  5
2D4
330
213
100
AcDbEntity
  8
0
  6
Continuous
 62
     9
100
AcDbLine
 10
638.5785040571
 20
453.8029461132
 30
0.0
 11
589.5843743755
 21
453.8029461132
 31
0.0
  0
LINE
  5
2D5
330
213
100
AcDbEntity
  8
0
  6
Continuous
 62
     9
100
AcDbLine
 10
559.6902176280999
 20
453.8029461132
 30
0.0
 11
510.6960879465
 21
453.8029461132
 31
0.0
  0
LINE
  5
2D6
330
213
100
AcDbEntity
  8
RUNDUNGEN
  6
Continuous
 62
     9
100
AcDbLine
 10
586.981149243
 20
454.6058924519
 30
0.0
 11
562.2934427616001
 21
454.6058924519
 31
0.0
  0
LINE
  5
2D7
330
213
100
AcDbEntity
  8
0
  6
Continuous
 62
     9
100
AcDbLine
 10
509.7135455561
 20
454.7995679063999
 30
0.0
 11
559.4607697905001
 21
454.7995679063999
 31
0.0
  0
LINE
  5
2D8
330
213
100
AcDbEntity
  8
0
  6
Continuous
 62
     9
100
AcDbLine
 10
589.8138222131
 20
454.7995679063999
 30
0.0
 11
639.5610464474999
 21
454.7995679063999
 31
0.0
  0
LINE
  5
2D9
330
213
100
AcDbEntity
  8
0
  6
Continuous
 62
     9
100
AcDbLine
 10
644.6547484082
 20
454.8884788048
 30
0.0
 11
588.3304016097
 21
454.8884788049
 31
0.0
  0
LINE
  5
2DA
330
213
100
AcDbEntity
  8
0
  6
Continuous
 62
     9
100
AcDbLine
 10
560.9441904132999
 20
454.8884788049
 30
0.0
 11
504.6198435954
 21
454.8884788048
 31
0.0
  0
LINE
  5
2DB
330
213
100
AcDbEntity
  8
RUNDUNGEN
  6
Continuous
 62
     9
100
AcDbLine
 10
587.0439544988999
 20
455.3719368949999
 30
0.0
 11
562.2306579823999
 21
455.3719368949999
 31
0.0
  0
LINE
  5
2DC
330
213
100
AcDbEntity
  8
0
  6
Continuous
 62
     9
100
AcDbLine
 10
503.6372960018
 20
455.8883264999999
 30
0.0
 11
560.7523442685
 21
455.8883264999999
 31
0.0
  0
LINE
  5
2DD
330
213
100
AcDbEntity
  8
0
  6
Continuous
 62
     9
100
AcDbLine
 10
588.5222477351
 20
455.8883264999999
 30
0.0
 11
645.6372960018
 21
455.8883264999999
 31
0.0
  0
LINE
  5
2DE
330
213
100
AcDbEntity
  8
0
  6
Continuous
 62
     7
100
AcDbLine
 10
509.7135455561
 20
454.7995679063999
 30
0.0
 11
504.6198435954
 21
454.8884788048
 31
0.0
  0
LINE
  5
2DF
330
213
100
AcDbEntity
  8
0
  6
Continuous
 62
     7
100
AcDbLine
 10
494.5280626355999
 20
465.284214874
 30
0.0
 11
396.6023911889
 21
466.9935138273
 31
0.0
  0
LINE
  5
2E0
330
213
100
AcDbEntity
  8
0
  6
Continuous
 62
     7
100
AcDbLine
 10
638.6372960017999
 20
467.0105119545
 30
0.0
 11
638.6372960017999
 21
472.0278146914
 31
0.0
  0
LINE
  5
2E1
330
213
100
AcDbEntity
  8
0
  6
Continuous
 62
     7
100
AcDbLine
 10
638.3894694401
 20
395.2042542029
 30
0.0
 11
638.5785040571
 21
453.8029461132
 31
0.0
  0
LINE
  5
2E2
330
213
100
AcDbEntity
  8
0
  6
Continuous
 62
     7
100
AcDbLine
 10
638.6372960017999
 20
472.0278146914
 30
0.0
 11
638.6405553062999
 21
473.0381639315
 31
0.0
  0
LINE
  5
2E3
330
213
100
AcDbEntity
  8
0
  6
Continuous
 62
     7
100
AcDbLine
 10
628.9019934156
 20
374.6441613568
 30
0.0
 11
638.0972409027999
 21
393.9223986183
 31
0.0
  0
LINE
  5
2E4
330
213
100
AcDbEntity
  8
RUNDUNGEN
  6
Continuous
 62
     7
100
AcDbLine
 10
588.0374238031
 20
473.9310046391
 30
0.0
 11
588.0377122259
 21
473.9310220816999
 31
0.0
  0
LINE
  5
2E5
330
213
100
AcDbEntity
  8
0
  6
Continuous
 62
     7
100
AcDbLine
 10
589.7406899073001
 20
474.0331859029
 30
0.0
 11
588.0374233474999
 21
473.9310120265
 31
0.0
  0
LWPOLYLINE
  5
2E6
330
213
100
AcDbEntity
  8
0
  6
Continuous
 62
     7
100
AcDbPolyline
 90
        5
 70
     0
 43
0.0
 10
588.0377122259
 20
473.9310220816999
 10
588.0354772415
 20
473.93088987
 10
588.0227998388
 20
473.9302032797
 10
588.0057116901999
 20
473.9293872034999
 10
587.9850997316999
 20
473.9285149607
  0
LINE
  5
2E7
330
213
100
AcDbEntity
  8
RUNDUNGEN
  6
Continuous
 62
     7
100
AcDbLine
 10
589.7407090445
 20
474.0331869579
 30
0.0
 11
589.7408428628
 21
474.0331948636
 31
0.0
  0
LINE
  5
2E8
330
213
100
AcDbEntity
  8
0
  6
Continuous
 62
     7
100
AcDbLine
 10
587.9850997316999
 20
473.9285149607
 30
0.0
 11
587.9329131251
 21
473.9266592481
 31
0.0
  0
LINE
  5
2E9
330
213
100
AcDbEntity
  8
0
  6
Continuous
 62
     7
100
AcDbLine
 10
589.7999088737
 20
474.0349380082
 30
0.0
 11
589.7408428628
 21
474.0331948636
 31
0.0
  0
LINE
  5
2EA
330
213
100
AcDbEntity
  8
0
  6
Continuous
 62
     7
100
AcDbLine
 10
587.9329131251
 20
473.9266592481
 30
0.0
 11
587.8668634455
 21
473.9247498308999
 31
0.0
  0
LINE
  5
2EB
330
213
100
AcDbEntity
  8
0
  6
Continuous
 62
     7
100
AcDbLine
 10
587.8668634455
 20
473.9247498308999
 30
0.0
 11
587.7874852206999
 21
473.9228719289
 31
0.0
  0
LINE
  5
2EC
330
213
100
AcDbEntity
  8
0
  6
Continuous
 62
     7
100
AcDbLine
 10
504.6198435954
 20
465.9227796688999
 30
0.0
 11
509.6547484082
 21
466.0106642593
 31
0.0
  0
LINE
  5
2ED
330
213
100
AcDbEntity
  8
0
  6
Continuous
 62
     7
100
AcDbLine
 10
396.6023911889
 20
472.0621155555
 30
0.0
 11
509.6165894941
 21
474.0347857247
 31
0.0
  0
LINE
  5
2EE
330
213
100
AcDbEntity
  8
0
  6
Continuous
 62
     7
100
AcDbLine
 10
587.7874852206999
 20
473.9228719289
 30
0.0
 11
587.6436254433
 21
473.9202008605999
 31
0.0
  0
LINE
  5
2EF
330
213
100
AcDbEntity
  8
0
  6
Continuous
 62
     7
100
AcDbLine
 10
587.6436254433
 20
473.9202008605999
 30
0.0
 11
587.4075718422
 21
473.9170930769
 31
0.0
  0
LINE
  5
2F0
330
213
100
AcDbEntity
  8
0
  6
Continuous
 62
     7
100
AcDbLine
 10
509.6165894941
 20
474.0347857247
 30
0.0
 11
509.6340419005001
 21
474.0349380295
 31
0.0
  0
LINE
  5
2F1
330
213
100
AcDbEntity
  8
0
  6
Continuous
 62
     7
100
AcDbLine
 10
587.4075718422
 20
473.9170930769
 30
0.0
 11
587.0480024424999
 21
473.9142468689999
 31
0.0
  0
LINE
  5
2F2
330
213
100
AcDbEntity
  8
0
  6
Continuous
 62
     7
100
AcDbLine
 10
587.0480024424999
 20
473.9142468689999
 30
0.0
 11
586.6307972189999
 21
473.9128905558
 31
0.0
  0
LINE
  5
2F3
330
213
100
AcDbEntity
  8
0
  6
Continuous
 62
     9
100
AcDbLine
 10
503.6372960018
 20
464.9229319737999
 30
0.0
 11
560.7523442599999
 21
464.9229319737999
 31
0.0
  0
LINE
  5
2F4
330
213
100
AcDbEntity
  8
0
  6
Continuous
 62
     9
100
AcDbLine
 10
588.5222477464
 20
464.9229319737999
 30
0.0
 11
645.6372960018
 21
464.9229319737999
 31
0.0
  0
LINE
  5
2F5
330
213
100
AcDbEntity
  8
0
  6
Continuous
 62
     9
100
AcDbLine
 10
504.6198435954
 20
465.9227796688999
 30
0.0
 11
560.9441538720999
 21
465.9227796688999
 31
0.0
  0
LINE
  5
2F6
330
213
100
AcDbEntity
  8
0
  6
Continuous
 62
     9
100
AcDbLine
 10
588.3304804458
 20
465.9227796688999
 30
0.0
 11
644.6547484082
 21
465.9227796688999
 31
0.0
  0
LINE
  5
2F7
330
213
100
AcDbEntity
  8
0
  6
Continuous
 62
     9
100
AcDbLine
 10
509.6547484082
 20
466.0106642593
 30
0.0
 11
559.4780696932999
 21
466.0106642593
 31
0.0
  0
LINE
  5
2F8
330
213
100
AcDbEntity
  8
0
  6
Continuous
 62
     9
100
AcDbLine
 10
589.796593601
 20
466.0106642593
 30
0.0
 11
639.6198435954
 21
466.0106642593
 31
0.0
  0
LINE
  5
2F9
330
213
100
AcDbEntity
  8
RUNDUNGEN
  6
Continuous
 62
     9
100
AcDbLine
 10
562.9437936798
 20
466.9083627481
 30
0.0
 11
562.1425650692999
 21
466.9083627481
 31
0.0
  0
LINE
  5
2FA
330
213
100
AcDbEntity
  8
RUNDUNGEN
  6
Continuous
 62
     9
100
AcDbLine
 10
586.3307983238
 20
466.9083627501
 30
0.0
 11
587.1320269343
 21
466.9083627501
 31
0.0
  0
LINE
  5
2FB
330
213
100
AcDbEntity
  8
0
  6
Continuous
 62
     9
100
AcDbLine
 10
510.6372960017999
 20
467.0105119545
 30
0.0
 11
559.7070579829
 21
467.0105119545
 31
0.0
  0
LINE
  5
2FC
330
213
100
AcDbEntity
  8
RUNDUNGEN
  6
Continuous
 62
     9
100
AcDbLine
 10
559.7070579829
 20
467.0105119545
 30
0.0
 11
560.4396988401
 21
467.0105119545
 31
0.0
  0
LINE
  5
2FD
330
213
100
AcDbEntity
  8
RUNDUNGEN
  6
Continuous
 62
     9
100
AcDbLine
 10
588.8348931633999
 20
467.0105119545
 30
0.0
 11
589.5675340207
 21
467.0105119545
 31
0.0
  0
LINE
  5
2FE
330
213
100
AcDbEntity
  8
0
  6
Continuous
 62
     9
100
AcDbLine
 10
589.5675340207
 20
467.0105119545
 30
0.0
 11
638.6372960017999
 21
467.0105119545
 31
0.0
  0
LINE
  5
2FF
330
213
100
AcDbEntity
  8
0
  6
Continuous
 62
     7
100
AcDbLine
 10
638.6372960017999
 20
472.0278146914
 30
0.0
 11
589.5675340207
 21
472.0278146914
 31
0.0
  0
LINE
  5
300
330
213
100
AcDbEntity
  8
RUNDUNGEN
  6
Continuous
 62
     9
100
AcDbLine
 10
589.5675340207
 20
472.0278146914
 30
0.0
 11
588.8348931633999
 21
472.0278146914
 31
0.0
  0
LINE
  5
301
330
213
100
AcDbEntity
  8
0
  6
Continuous
 62
     7
100
AcDbLine
 10
559.7070579829
 20
472.0278146914
 30
0.0
 11
510.6372960017999
 21
472.0278146914
 31
0.0
  0
LINE
  5
302
330
213
100
AcDbEntity
  8
RUNDUNGEN
  6
Continuous
 62
     9
100
AcDbLine
 10
586.3308421694
 20
472.9128093755999
 30
0.0
 11
562.9437496137999
 21
472.9128093755999
 31
0.0
  0
LINE
  5
303
330
213
100
AcDbEntity
  8
0
  6
Continuous
 62
     9
100
AcDbLine
 10
638.6405553062999
 20
473.0381639315
 30
0.0
 11
589.5666033871999
 21
473.0381639315
 31
0.0
  0
LINE
  5
304
330
213
100
AcDbEntity
  8
0
  6
Continuous
 62
     9
100
AcDbLine
 10
559.7079886164
 20
473.0381639315
 30
0.0
 11
510.6340366972999
 21
473.0381639315
 31
0.0
  0
LINE
  5
305
330
213
100
AcDbEntity
  8
0
  6
Continuous
 62
     7
100
AcDbLine
 10
586.6307972189999
 20
473.9128905558
 30
0.0
 11
562.7790964637999
 21
473.9128093756
 31
0.0
  0
LINE
  5
306
330
213
100
AcDbEntity
  8
0
  6
Continuous
 62
     7
100
AcDbLine
 10
639.5958351394999
 20
474.0349380295
 30
0.0
 11
589.7998607224
 21
474.0349380295
 31
0.0
  0
LINE
  5
307
330
213
100
AcDbEntity
  8
0
  6
Continuous
 62
     7
100
AcDbLine
 10
559.4747312812
 20
474.0349380295
 30
0.0
 11
509.6340419005001
 21
474.0349380295
 31
0.0
  0
LINE
  5
308
330
213
100
AcDbEntity
  8
0
  6
Continuous
 62
     7
100
AcDbLine
 10
582.6372960018
 20
474.8278146914
 30
0.0
 11
566.6372960018
 21
474.8278146914
 31
0.0
  0
LINE
  5
309
330
213
100
AcDbEntity
  8
0
  6
Continuous
 62
     7
100
AcDbLine
 10
566.6372960018
 20
475.7278146914
 30
0.0
 11
582.6372960018
 21
475.7278146914
 31
0.0
  0
LINE
  5
30A
330
213
100
AcDbEntity
  8
0
  6
Continuous
 62
     7
100
AcDbLine
 10
562.7790990797
 20
473.9128072789999
 30
0.0
 11
562.3627102373999
 21
473.9136090634999
 31
0.0
  0
LINE
  5
30B
330
213
100
AcDbEntity
  8
0
  6
Continuous
 62
     7
100
AcDbLine
 10
639.6580025095
 20
474.0347857247
 30
0.0
 11
639.6403533511
 21
474.0349112088999
 31
0.0
  0
LINE
  5
30C
330
213
100
AcDbEntity
  8
0
  6
Continuous
 62
     7
100
AcDbLine
 10
562.3627102373999
 20
473.9136090634999
 30
0.0
 11
561.9877546392
 21
473.9159275471999
 31
0.0
  0
LINE
  5
30D
330
213
100
AcDbEntity
  8
0
  6
Continuous
 62
     7
100
AcDbLine
 10
561.9877546392
 20
473.9159275471999
 30
0.0
 11
561.7515280687999
 21
473.9184580591
 31
0.0
  0
LINE
  5
30E
330
213
100
AcDbEntity
  8
0
  6
Continuous
 62
     7
100
AcDbLine
 10
644.6547484082
 20
465.9227796688999
 30
0.0
 11
639.6198435954
 21
466.0106642593
 31
0.0
  0
LINE
  5
30F
330
213
100
AcDbEntity
  8
0
  6
Continuous
 62
     7
100
AcDbLine
 10
752.6722008146999
 20
472.0621155555
 30
0.0
 11
639.6580025095
 21
474.0347857247
 31
0.0
  0
LINE
  5
310
330
213
100
AcDbEntity
  8
0
  6
Continuous
 62
     7
100
AcDbLine
 10
561.7515280687999
 20
473.9184580591
 30
0.0
 11
561.5571557808999
 21
473.9214798622
 31
0.0
  0
LINE
  5
311
330
213
100
AcDbEntity
  8
0
  6
Continuous
 62
     7
100
AcDbLine
 10
561.5571557808999
 20
473.9214798622
 30
0.0
 11
561.4514726933
 21
473.9236679968
 31
0.0
  0
LINE
  5
312
330
213
100
AcDbEntity
  8
0
  6
Continuous
 62
     7
100
AcDbLine
 10
561.4514726933
 20
473.9236679968
 30
0.0
 11
561.3651871734999
 21
473.9259358663999
 31
0.0
  0
LINE
  5
313
330
213
100
AcDbEntity
  8
0
  6
Continuous
 62
     7
100
AcDbLine
 10
559.4746831299
 20
474.0349380082
 30
0.0
 11
559.5337491279
 21
474.0331948644
 31
0.0
  0
LWPOLYLINE
  5
314
330
213
100
AcDbEntity
  8
0
  6
Continuous
 62
     7
100
AcDbPolyline
 90
        5
 70
     0
 43
0.0
 10
561.3651871734999
 20
473.9259358663999
 10
561.2984422342
 20
473.9281650969
 10
561.2726273508
 20
473.9292202957
 10
561.2523820783
 20
473.9301734372999
 10
561.2479760441999
 20
473.9304011247
  0
LINE
  5
315
330
213
100
AcDbEntity
  8
0
  6
Continuous
 62
     7
100
AcDbLine
 10
561.2479760441999
 20
473.9304011247
 30
0.0
 11
561.2366543775
 21
473.9310363469
 31
0.0
  0
LINE
  5
316
330
213
100
AcDbEntity
  8
RUNDUNGEN
  6
Continuous
 62
     7
100
AcDbLine
 10
559.5338829544
 20
474.0331869582
 30
0.0
 11
559.5337491279
 21
474.0331948644
 31
0.0
  0
LINE
  5
317
330
213
100
AcDbEntity
  8
RUNDUNGEN
  6
Continuous
 62
     7
100
AcDbLine
 10
561.2371686517999
 20
473.9310120267999
 30
0.0
 11
561.236654787
 21
473.9310430455
 31
0.0
  0
LINE
  5
318
330
213
100
AcDbEntity
  8
0
  6
Continuous
 62
     7
100
AcDbLine
 10
561.2371686517999
 20
473.9310120267999
 30
0.0
 11
559.5339020915999
 21
474.0331859033
 31
0.0
  0
LINE
  5
31B
330
213
100
AcDbEntity
  8
0
  6
Continuous
 62
     7
100
AcDbLine
 10
645.6372960018
 20
455.8883264999999
 30
0.0
 11
645.6372960018
 21
464.9229319737999
 31
0.0
  0
LINE
  5
31C
330
213
100
AcDbEntity
  8
0
  6
Continuous
 62
     7
100
AcDbLine
 10
645.4221472419999
 20
430.0627141818
 30
0.0
 11
644.1939416829
 21
394.8915087071
 31
0.0
  0
LINE
  5
31D
330
213
100
AcDbEntity
  8
0
  6
Continuous
 62
     7
100
AcDbLine
 10
647.019010462
 20
447.1459149871
 30
0.0
 11
646.802612294
 21
440.9490822371
 31
0.0
  0
LINE
  5
31E
330
213
100
AcDbEntity
  8
0
  6
Continuous
 62
     7
100
AcDbLine
 10
651.4634836035
 20
452.7323521877
 30
0.0
 11
651.8007141062001
 21
462.3893702786999
 31
0.0
  0
LINE
  5
31F
330
213
100
AcDbEntity
  8
0
  6
Continuous
 62
     7
100
AcDbLine
 10
643.7098844771
 20
392.9133301811
 30
0.0
 11
629.8935031083999
 21
363.9466842599
 31
0.0
  0
LINE
  5
320
330
213
100
AcDbEntity
  8
0
  6
Continuous
 62
     7
100
AcDbLine
 10
566.6372960018
 20
485.7278146914
 30
0.0
 11
582.6372960018
 21
485.7278146914
 31
0.0
  0
LINE
  5
321
330
213
100
AcDbEntity
  8
0
  6
Continuous
 62
     7
100
AcDbLine
 10
567.6372960017999
 20
493.7278146914
 30
0.0
 11
581.6372960017999
 21
493.7278146914
 31
0.0
  0
LINE
  5
322
330
213
100
AcDbEntity
  8
0
  6
Continuous
 62
     7
100
AcDbLine
 10
709.6372960017998
 20
326.5278146914
 30
0.0
 11
709.6372960017998
 21
436.5278146914
 31
0.0
  0
LINE
  5
323
330
213
100
AcDbEntity
  8
0
  6
Continuous
 62
     7
100
AcDbLine
 10
754.6372960017999
 20
468.9932092175999
 30
0.0
 11
754.6372960017999
 21
470.0624201651
 31
0.0
  0
ARC
  5
324
330
213
100
AcDbEntity
  8
RUNDUNGEN
  6
Continuous
 62
     9
100
AcDbCircle
 10
-3179.923279359
 20
2205.9652253312
 30
0.0
 40
4232.5331572038
100
AcDbArc
 50
334.19037045
 51
334.6082555995
  0
ARC
  5
325
330
213
100
AcDbEntity
  8
RUNDUNGEN
  6
Continuous
 62
     9
100
AcDbCircle
 10
-210.8328535045
 20
717.0875475699
 30
0.0
 40
816.0794398725998
100
AcDbArc
 50
340.9211597131
 51
341.1836043124
  0
ARC
  5
326
330
213
100
AcDbEntity
  8
RUNDUNGEN
  6
Continuous
 62
     9
100
AcDbCircle
 10
-113.6746077635
 20
686.9774076957
 30
0.0
 40
715.4634940183999
100
AcDbArc
 50
340.5948843577
 51
340.9204315121
  0
ARC
  5
327
330
213
100
AcDbEntity
  8
0
  6
Continuous
 62
     7
100
AcDbCircle
 10
539.1372960017999
 20
336.5278146914
 30
0.0
 40
10.0
100
AcDbArc
 50
180.0
 51
270.0
  0
ARC
  5
328
330
213
100
AcDbEntity
  8
RUNDUNGEN
  6
Continuous
 62
     9
100
AcDbCircle
 10
638.9557454769999
 20
395.3073625357
 30
0.0
 40
7.054031587499999
100
AcDbArc
 50
335.1753663269
 51
358.3352761551
  0
ARC
  5
329
330
213
100
AcDbEntity
  8
RUNDUNGEN
  6
Continuous
 62
     9
100
AcDbCircle
 10
639.2132388173999
 20
395.0317792161
 30
0.0
 40
5.796777180299999
100
AcDbArc
 50
334.7349938491
 51
358.3324918962
  0
ARC
  5
32A
330
213
100
AcDbEntity
  8
0
  6
Continuous
 62
     7
100
AcDbCircle
 10
639.1966830773
 20
395.0660168229
 30
0.0
 40
5.000304656099999
100
AcDbArc
 50
334.5
 51
358.0
  0
ARC
  5
32B
330
213
100
AcDbEntity
  8
0
  6
Continuous
 62
     7
100
AcDbCircle
 10
510.0779089262999
 20
395.0660168229
 30
0.0
 40
5.0
100
AcDbArc
 50
182.0
 51
205.5
  0
ARC
  5
32C
330
213
100
AcDbEntity
  8
0
  6
Continuous
 62
     7
100
AcDbCircle
 10
539.1372960017999
 20
336.5278146914
 30
0.0
 40
4.5
100
AcDbArc
 50
180.0
 51
270.0
  0
ARC
  5
32D
330
213
100
AcDbEntity
  8
0
  6
Continuous
 62
     7
100
AcDbCircle
 10
526.1372960017999
 20
360.0654749486
 30
0.0
 40
3.0
100
AcDbArc
 50
0.0
 51
87.0
  0
ARC
  5
32E
330
213
100
AcDbEntity
  8
0
  6
Continuous
 62
     7
100
AcDbCircle
 10
521.5766702917
 20
366.3127212902
 30
0.0
 40
3.0
100
AcDbArc
 50
205.5
 51
267.0
  0
ARC
  5
32F
330
213
100
AcDbEntity
  8
0
  6
Continuous
 62
     7
100
AcDbCircle
 10
513.8851069538
 20
395.2139319087
 30
0.0
 40
3.0
100
AcDbArc
 50
180.1848308864
 51
205.5
  0
ARC
  5
330
330
213
100
AcDbEntity
  8
0
  6
Continuous
 62
     7
100
AcDbCircle
 10
635.3894850498
 20
395.2139319087
 30
0.0
 40
3.0
100
AcDbArc
 50
334.5
 51
359.8151691136
  0
ARC
  5
331
330
213
100
AcDbEntity
  8
RUNDUNGEN
  6
Continuous
 62
     9
100
AcDbCircle
 10
562.3539676056999
 20
396.2030094554
 30
0.0
 40
1.967219331299999
100
AcDbArc
 50
268.9360355593
 51
269.9998670311
  0
ARC
  5
332
330
213
100
AcDbEntity
  8
RUNDUNGEN
  6
Continuous
 62
     9
100
AcDbCircle
 10
586.9206271678999
 20
396.2027111639
 30
0.0
 40
1.9669210397
100
AcDbArc
 50
270.0000523003
 51
271.0640451106
  0
ARC
  5
333
330
213
100
AcDbEntity
  8
RUNDUNGEN
  6
Continuous
 62
     9
100
AcDbCircle
 10
621.8913222953
 20
361.2478598471
 30
0.0
 40
1.0002207534
100
AcDbArc
 50
93.0201298142
 51
179.9798701858
  0
ARC
  5
334
330
213
100
AcDbEntity
  8
0
  6
Continuous
 62
     7
100
AcDbCircle
 10
621.1378061589
 20
361.9629210658
 30
0.0
 40
1.000200165699999
100
AcDbArc
 50
93.0028951959
 51
179.9971714466
  0
ARC
  5
335
330
213
100
AcDbEntity
  8
0
  6
Continuous
 62
     7
100
AcDbCircle
 10
535.6373810512999
 20
354.0110148126
 30
0.0
 40
1.000079370299999
100
AcDbArc
 50
90.00465572889998
 51
180.0044701662
  0
ARC
  5
336
330
213
100
AcDbEntity
  8
0
  6
Continuous
 62
     7
100
AcDbCircle
 10
543.6372189303
 20
356.0111553857
 30
0.0
 40
1.0000718092
100
AcDbArc
 50
270.0047007575
 51
0.0049196623
  0
ARC
  5
337
330
213
100
AcDbEntity
  8
0
  6
Continuous
 62
     7
100
AcDbCircle
 10
605.6372960016999
 20
356.010784409
 30
0.0
 40
1.000000005299999
100
AcDbArc
 50
180.0000077795
 51
269.9999962625
  0
ARC
  5
338
330
213
100
AcDbEntity
  8
0
  6
Continuous
 62
     7
100
AcDbCircle
 10
627.9994081312
 20
375.0746724536
 30
0.0
 40
1.0
100
AcDbArc
 50
273.0
 51
334.5
  0
ARC
  5
339
330
213
100
AcDbEntity
  8
0
  6
Continuous
 62
     7
100
AcDbCircle
 10
521.2751838724
 20
375.0746724536
 30
0.0
 40
1.0
100
AcDbArc
 50
205.5
 51
267.0
  0
ARC
  5
33A
330
213
100
AcDbEntity
  8
0
  6
Continuous
 62
     7
100
AcDbCircle
 10
613.1372960018
 20
372.2930374695
 30
0.0
 40
1.0
100
AcDbArc
 50
93.0
 51
180.0
  0
ARC
  5
33B
330
213
100
AcDbEntity
  8
0
  6
Continuous
 62
     7
100
AcDbCircle
 10
536.1372960018
 20
372.2930374695
 30
0.0
 40
1.0
100
AcDbArc
 50
0.0
 51
87.0
  0
ARC
  5
33C
330
213
100
AcDbEntity
  8
0
  6
Continuous
 62
     7
100
AcDbCircle
 10
543.6372960017999
 20
360.1283917861
 30
0.0
 40
1.0
100
AcDbArc
 50
0.0
 51
89.0
  0
ARC
  5
33D
330
213
100
AcDbEntity
  8
0
  6
Continuous
 62
     7
100
AcDbCircle
 10
605.6372960017999
 20
360.1283917861
 30
0.0
 40
1.0
100
AcDbArc
 50
91.0
 51
180.0
  0
ARC
  5
33E
330
213
100
AcDbEntity
  8
0
  6
Continuous
 62
     7
100
AcDbCircle
 10
538.1372960018
 20
362.2246992993
 30
0.0
 40
1.0
100
AcDbArc
 50
180.0
 51
269.0
  0
ARC
  5
33F
330
213
100
AcDbEntity
  8
0
  6
Continuous
 62
     7
100
AcDbCircle
 10
611.1372960018
 20
362.2246992993
 30
0.0
 40
1.0
100
AcDbArc
 50
270.9999999997001
 51
360.0
  0
ARC
  5
340
330
213
100
AcDbEntity
  8
0
  6
Continuous
 62
     7
100
AcDbCircle
 10
628.9913992266
 20
364.376897
 30
0.0
 40
0.9994323242
100
AcDbArc
 50
272.9963549082
 51
334.5035568007
  0
ARC
  5
341
330
213
100
AcDbEntity
  8
0
  6
Continuous
 62
     7
100
AcDbCircle
 10
619.1382309791
 20
356.0101529949
 30
0.0
 40
0.9993594435999998
100
AcDbArc
 50
269.990058303
 51
0.0100034369
  0
ARC
  5
342
330
213
100
AcDbEntity
  8
RUNDUNGEN
  6
Continuous
 62
     9
100
AcDbCircle
 10
562.5846191434
 20
396.3860792569
 30
0.0
 40
0.9596325004
100
AcDbArc
 50
268.944451027
 51
270.0200143291
  0
ARC
  5
343
330
213
100
AcDbEntity
  8
RUNDUNGEN
  6
Continuous
 62
     9
100
AcDbCircle
 10
586.6899740077999
 20
396.3859522643
 30
0.0
 40
0.9595055081999998
100
AcDbArc
 50
269.9799144927
 51
271.0556201516
  0
ARC
  5
344
330
213
100
AcDbEntity
  8
RUNDUNGEN
  6
Continuous
 62
     9
100
AcDbCircle
 10
572.5478043127
 20
433.0815994471
 30
0.0
 40
33.3629706141
100
AcDbArc
 50
242.5162426051
 51
244.3437914404
  0
ARC
  5
345
330
213
100
AcDbEntity
  8
RUNDUNGEN
  6
Continuous
 62
     9
100
AcDbCircle
 10
573.7096610098999
 20
411.5596625261
 30
0.0
 40
18.4230996458
100
AcDbArc
 50
205.9985817993
 51
209.3432515925
  0
ARC
  5
346
330
213
100
AcDbEntity
  8
0
  6
Continuous
 62
     7
100
AcDbCircle
 10
498.697556238
 20
434.4195978873
 30
0.0
 40
4.9999999942
100
AcDbArc
 50
1.9999988676
 51
26.0948353045
  0
ARC
  5
347
330
213
100
AcDbEntity
  8
0
  6
Continuous
 62
     7
100
AcDbCircle
 10
507.539552943
 20
439.1013166496
 30
0.0
 40
4.999999984399999
100
AcDbArc
 50
182.0000201824
 51
206.094872787
  0
ARC
  5
348
330
213
100
AcDbEntity
  8
0
  6
Continuous
 62
     7
100
AcDbCircle
 10
500.8092808812
 20
452.8370506777999
 30
0.0
 40
3.0
100
AcDbArc
 50
182.0
 51
255.0103055781
  0
ARC
  5
349
330
213
100
AcDbEntity
  8
0
  6
Continuous
 62
     7
100
AcDbCircle
 10
494.4757054162999
 20
462.2846717886
 30
0.0
 40
3.0
100
AcDbArc
 50
2.0
 51
89.0
  0
ARC
  5
34A
330
213
100
AcDbEntity
  8
0
  6
Continuous
 62
     7
100
AcDbCircle
 10
499.2574090605
 20
447.0412164968999
 30
0.0
 40
3.0
100
AcDbArc
 50
2.0
 51
75.0103055781
  0
ARC
  5
34B
330
213
100
AcDbEntity
  8
0
  6
Continuous
 62
     7
100
AcDbCircle
 10
396.6372960018
 20
470.0624201651
 30
0.0
 40
2.0
100
AcDbArc
 50
91.0
 51
180.0
  0
ARC
  5
34C
330
213
100
AcDbEntity
  8
0
  6
Continuous
 62
     7
100
AcDbCircle
 10
396.6372960018
 20
468.9932092175999
 30
0.0
 40
2.0
100
AcDbArc
 50
180.0
 51
269.0
  0
ARC
  5
34D
330
213
100
AcDbEntity
  8
0
  6
Continuous
 62
     7
100
AcDbCircle
 10
509.6340419005001
 20
473.0349380295
 30
0.0
 40
1.0
100
AcDbArc
 50
0.1848308864
 51
89.98872664530001
  0
ARC
  5
34E
330
213
100
AcDbEntity
  8
0
  6
Continuous
 62
     7
100
AcDbCircle
 10
504.6372960018
 20
464.9229319737999
 30
0.0
 40
1.0
100
AcDbArc
 50
91.0
 51
180.0
  0
ARC
  5
34F
330
213
100
AcDbEntity
  8
0
  6
Continuous
 62
     7
100
AcDbCircle
 10
509.6372960017999
 20
467.0105119545
 30
0.0
 40
1.0
100
AcDbArc
 50
271.0
 51
360.0
  0
ARC
  5
350
330
213
100
AcDbEntity
  8
0
  6
Continuous
 62
     7
100
AcDbCircle
 10
509.6960931497
 20
453.7997202112
 30
0.0
 40
1.0
100
AcDbArc
 50
0.1848308864
 51
89.0
  0
ARC
  5
351
330
213
100
AcDbEntity
  8
0
  6
Continuous
 62
     7
100
AcDbCircle
 10
504.6372960018
 20
455.8883264999999
 30
0.0
 40
1.0
100
AcDbArc
 50
180.0
 51
269.0
  0
ARC
  5
352
330
213
100
AcDbEntity
  8
RUNDUNGEN
  6
Continuous
 62
     9
100
AcDbCircle
 10
561.1802143339
 20
472.9958751556999
 30
0.0
 40
0.9368604927999999
100
AcDbArc
 50
77.09964372379999
 51
85.85302769970001
  0
ARC
  5
353
330
213
100
AcDbEntity
  8
RUNDUNGEN
  6
Continuous
 62
     9
100
AcDbCircle
 10
559.478445283
 20
473.0992285880999
 30
0.0
 40
0.9355925343999999
100
AcDbArc
 50
83.8073918343
 51
86.6035025647
  0
ARC
  5
354
330
213
100
AcDbEntity
  8
RUNDUNGEN
  6
Continuous
 62
     9
100
AcDbCircle
 10
561.1804054026
 20
472.9979120372
 30
0.0
 40
0.9348151280999999
100
AcDbArc
 50
85.8556798278
 51
86.5188171994
  0
ARC
  5
355
330
213
100
AcDbEntity
  8
RUNDUNGEN
  6
Continuous
 62
     9
100
AcDbCircle
 10
576.307499698
 20
433.9199950171
 30
0.0
 40
34.3002497498
100
AcDbArc
 50
295.6811801483
 51
297.4587858118
  0
ARC
  5
356
330
213
100
AcDbEntity
  8
RUNDUNGEN
  6
Continuous
 62
     9
100
AcDbCircle
 10
575.5280049585
 20
411.5789929683
 30
0.0
 40
18.4647624633
100
AcDbArc
 50
330.6606081431
 51
333.9977324529
  0
ARC
  5
357
330
213
100
AcDbEntity
  8
0
  6
Continuous
 62
     7
100
AcDbCircle
 10
641.8056593606999
 20
441.1236232765
 30
0.0
 40
4.9999999191
100
AcDbArc
 50
348.4936579634
 51
357.9999956852
  0
ARC
  5
358
330
213
100
AcDbEntity
  8
0
  6
Continuous
 62
     7
100
AcDbCircle
 10
649.6448807989
 20
439.5278144908
 30
0.0
 40
3.000000033299999
100
AcDbArc
 50
168.4939277034
 51
270.0001475595
  0
ARC
  5
359
330
213
100
AcDbEntity
  8
0
  6
Continuous
 62
     7
100
AcDbCircle
 10
646.4215380227999
 20
430.0278146892
 30
0.0
 40
1.0
100
AcDbArc
 50
90.0
 51
178.0000001403
  0
ARC
  5
35A
330
213
100
AcDbEntity
  8
RUNDUNGEN
  6
Continuous
 62
     9
100
AcDbCircle
 10
646.4218344462
 20
430.027967198
 30
0.0
 40
0.9998442950000001
100
AcDbArc
 50
90.0082569743
 51
95.93785143519999
  0
ARC
  5
35B
330
213
100
AcDbEntity
  8
0
  6
Continuous
 62
     7
100
AcDbCircle
 10
648.4653111223999
 20
452.8370506777999
 30
0.0
 40
3.0
100
AcDbArc
 50
284.9896944219
 51
358.0
  0
ARC
  5
35C
330
213
100
AcDbEntity
  8
0
  6
Continuous
 62
     7
100
AcDbCircle
 10
654.7988865873
 20
462.2846717886
 30
0.0
 40
3.0
100
AcDbArc
 50
91.0
 51
178.0
  0
ARC
  5
35D
330
213
100
AcDbEntity
  8
0
  6
Continuous
 62
     7
100
AcDbCircle
 10
650.0171829431
 20
447.0412164969999
 30
0.0
 40
3.0
100
AcDbArc
 50
104.9896944219
 51
178.0
  0
ARC
  5
35E
330
213
100
AcDbEntity
  8
0
  6
Continuous
 62
     7
100
AcDbCircle
 10
752.6372960017998
 20
470.0624201651
 30
0.0
 40
2.0
100
AcDbArc
 50
0.0
 51
89.0
  0
ARC
  5
35F
330
213
100
AcDbEntity
  8
0
  6
Continuous
 62
     7
100
AcDbCircle
 10
752.6372960017998
 20
468.9932092175999
 30
0.0
 40
2.0
100
AcDbArc
 50
271.0
 51
360.0
  0
ARC
  5
360
330
213
100
AcDbEntity
  8
0
  6
Continuous
 62
     7
100
AcDbCircle
 10
639.6405501030999
 20
473.0349380295
 30
0.0
 40
1.0
100
AcDbArc
 50
90.01127335840001
 51
179.8151691136
  0
ARC
  5
361
330
213
100
AcDbEntity
  8
0
  6
Continuous
 62
     7
100
AcDbCircle
 10
644.6372960018
 20
464.9229319737999
 30
0.0
 40
1.0
100
AcDbArc
 50
0.0
 51
89.0
  0
ARC
  5
362
330
213
100
AcDbEntity
  8
0
  6
Continuous
 62
     7
100
AcDbCircle
 10
639.6372960017999
 20
467.0105119545
 30
0.0
 40
1.0
100
AcDbArc
 50
180.0
 51
269.0
  0
ARC
  5
363
330
213
100
AcDbEntity
  8
0
  6
Continuous
 62
     7
100
AcDbCircle
 10
639.5784988538999
 20
453.7997202112
 30
0.0
 40
1.0
100
AcDbArc
 50
91.0
 51
179.8151691136
  0
ARC
  5
364
330
213
100
AcDbEntity
  8
0
  6
Continuous
 62
     7
100
AcDbCircle
 10
644.6372960018
 20
455.8883264999999
 30
0.0
 40
1.0
100
AcDbArc
 50
271.0
 51
360.0
  0
ARC
  5
365
330
213
100
AcDbEntity
  8
RUNDUNGEN
  6
Continuous
 62
     9
100
AcDbCircle
 10
589.7961467247
 20
473.0992285624999
 30
0.0
 40
0.9355925601
100
AcDbArc
 50
93.3964978802
 51
96.1926415839
  0
ARC
  5
366
330
213
100
AcDbEntity
  8
RUNDUNGEN
  6
Continuous
 62
     9
100
AcDbCircle
 10
2030.485088605
 20
378.7677979386
 30
0.0
 40
1408.8608595867
100
AcDbArc
 50
180.718928695
 51
180.9654469923
  0
ARC
  5
367
330
213
100
AcDbEntity
  8
RUNDUNGEN
  6
Continuous
 62
     9
100
AcDbCircle
 10
3824.8765694896
 20
-1131.3542744938
 30
0.0
 40
3525.7406515816
100
AcDbArc
 50
154.4230146617
 51
154.9319411379
  0
ARC
  5
368
330
213
100
AcDbEntity
  8
RUNDUNGEN
  6
Continuous
 62
     9
100
AcDbCircle
 10
1332.1247534982
 20
707.4809410417
 30
0.0
 40
786.4937477714999
100
AcDbArc
 50
198.8114594652
 51
199.083776513
  0
ARC
  5
369
330
213
100
AcDbEntity
  8
RUNDUNGEN
  6
Continuous
 62
     9
100
AcDbCircle
 10
1256.8511504423
 20
684.8487881137
 30
0.0
 40
709.0046328853
100
AcDbArc
 50
199.0780856696
 51
199.4065984881
  0
SPLINE
  5
36A
330
213
100
AcDbEntity
  8
0
  6
Continuous
 62
     7
100
AcDbSpline
210
0.0
220
0.0
230
1.0
 70
     8
 71
     3
 72
     9
 73
     5
 74
     0
 42
0.0000000001
 43
0.0000000001
 40
0.0
 40
0.0
 40
0.0
 40
0.0
 40
0.2515022996
 40
1.0
 40
1.0
 40
1.0
 40
1.0
 10
568.1372960017999
 20
475.4333681908
 30
0.0
 10
568.2387225966
 20
475.3748095189999
 30
0.0
 10
568.6454131722999
 20
475.1480752057
 30
0.0
 10
569.0681411673999
 20
474.9489127008999
 30
0.0
 10
569.3933712476999
 20
474.8235528529
 30
0.0
  0
SPLINE
  5
36B
330
213
100
AcDbEntity
  8
0
  6
Continuous
 62
     7
100
AcDbSpline
210
0.0
220
0.0
230
1.0
 70
     8
 71
     3
 72
     9
 73
     5
 74
     0
 42
0.0000000001
 43
0.0000000001
 40
0.0
 40
0.0
 40
0.0
 40
0.0
 40
0.2486208904
 40
1.0
 40
1.0
 40
1.0
 40
1.0
 10
579.8813254231999
 20
474.8235931366999
 30
0.0
 10
579.9893538657999
 20
474.8652344911
 30
0.0
 10
580.4198260883
 20
475.0432129633999
 30
0.0
 10
580.8342757056999
 20
475.2584193412999
 30
0.0
 10
581.1372960017999
 20
475.4333681908
 30
0.0
  0
SPLINE
  5
36C
330
213
100
AcDbEntity
  8
0
  6
Continuous
 62
     7
100
AcDbSpline
210
0.0
220
0.0
230
1.0
 70
     8
 71
     3
 72
     9
 73
     5
 74
     0
 42
0.0000000001
 43
0.0000000001
 40
0.0
 40
0.0
 40
0.0
 40
0.0
 40
0.2515022996
 40
1.0
 40
1.0
 40
1.0
 40
1.0
 10
574.6372960018
 20
475.4333681908
 30
0.0
 10
574.7387225966
 20
475.3748095189999
 30
0.0
 10
575.1454131723
 20
475.1480752057
 30
0.0
 10
575.5681411673999
 20
474.9489127008999
 30
0.0
 10
575.8933712476999
 20
474.8235528529
 30
0.0
  0
SPLINE
  5
36D
330
213
100
AcDbEntity
  8
0
  6
Continuous
 62
     7
100
AcDbSpline
210
0.0
220
0.0
230
1.0
 70
     8
 71
     3
 72
     9
 73
     5
 74
     0
 42
0.0000000001
 43
0.0000000001
 40
0.0
 40
0.0
 40
0.0
 40
0.0
 40
0.2486208904
 40
1.0
 40
1.0
 40
1.0
 40
1.0
 10
573.3813254232
 20
474.8235931366999
 30
0.0
 10
573.4893538658
 20
474.8652344911
 30
0.0
 10
573.9198260883
 20
475.0432129633999
 30
0.0
 10
574.3342757056999
 20
475.2584193412999
 30
0.0
 10
574.6372960018
 20
475.4333681908
 30
0.0
  0
SPLINE
  5
36E
330
213
100
AcDbEntity
  8
RUNDUNGEN
  6
Continuous
 62
     9
100
AcDbSpline
210
0.0
220
0.0
230
1.0
 70
     8
 71
     3
 72
    11
 73
     7
 74
     0
 42
0.0000000001
 43
0.0000000001
 40
0.0
 40
0.0
 40
0.0
 40
0.0
 40
0.2644602862
 40
0.51820273
 40
0.7610206978000001
 40
1.0
 40
1.0
 40
1.0
 40
1.0
 10
619.8592791298
 20
354.2892582259999
 30
0.0
 10
619.9966616998
 20
354.2890406622
 30
0.0
 10
620.2691581669
 20
354.3450638169001
 30
0.0
 10
620.6024450446
 20
354.575595138
 30
0.0
 10
620.8173033816
 20
354.9023882669
 30
0.0
 10
620.8682569141
 20
355.1547497691
 30
0.0
 10
620.8693419258
 20
355.2788908204
 30
0.0
  0
SPLINE
  5
36F
330
213
100
AcDbEntity
  8
RUNDUNGEN
  6
Continuous
 62
     9
100
AcDbSpline
210
0.0
220
0.0
230
1.0
 70
     8
 71
     3
 72
    13
 73
     9
 74
     0
 42
0.0000000001
 43
0.0000000001
 40
0.0
 40
0.0
 40
0.0
 40
0.0
 40
0.0466657557
 40
0.1175535814
 40
0.2171100434
 40
0.3432911321
 40
0.6549607731
 40
1.0
 40
1.0
 40
1.0
 40
1.0
 10
586.7076509817
 20
395.4266096684
 30
0.0
 10
586.7271026296
 20
395.4251440009
 30
0.0
 10
586.7715992408999
 20
395.3947173861
 30
0.0
 10
586.8168530002999
 20
395.3159164152
 30
0.0
 10
586.8608786081999
 20
395.1993843842
 30
0.0
 10
586.9142944308
 20
394.9809232016
 30
0.0
 10
586.9545859336
 20
394.6551775261
 30
0.0
 10
586.9612157238999
 20
394.3803021985
 30
0.0
 10
586.9571529050999
 20
394.2361293211
 30
0.0
  0
SPLINE
  5
370
330
213
100
AcDbEntity
  8
RUNDUNGEN
  6
Continuous
 62
     9
100
AcDbSpline
210
0.0
220
0.0
230
1.0
 70
     8
 71
     3
 72
    13
 73
     9
 74
     0
 42
0.0000000001
 43
0.0000000001
 40
0.0
 40
0.0
 40
0.0
 40
0.0
 40
0.0467998413
 40
0.1174531445
 40
0.2167247804
 40
0.3426925772
 40
0.6543374929
 40
1.0
 40
1.0
 40
1.0
 40
1.0
 10
586.6896376450999
 20
395.4264468144001
 30
0.0
 10
586.7091157922
 20
395.4250276613
 30
0.0
 10
586.753683279
 20
395.3948494889
 30
0.0
 10
586.7981691185
 20
395.3158122775
 30
0.0
 10
586.8406149057
 20
395.199282401
 30
0.0
 10
586.8907522126
 20
394.9806198126
 30
0.0
 10
586.9256193173
 20
394.6546298416
 30
0.0
 10
586.9273390316999
 20
394.3798804388
 30
0.0
 10
586.9206289633
 20
394.2357901242
 30
0.0
  0
SPLINE
  5
371
330
213
100
AcDbEntity
  8
RUNDUNGEN
  6
Continuous
 62
     9
100
AcDbSpline
210
0.0
220
0.0
230
1.0
 70
     8
 71
     3
 72
    13
 73
     9
 74
     0
 42
0.0000000001
 43
0.0000000001
 40
0.0
 40
0.0
 40
0.0
 40
0.0
 40
0.0467998419
 40
0.1174531456
 40
0.2167247817
 40
0.3426925786
 40
0.6543374938000001
 40
1.0
 40
1.0
 40
1.0
 40
1.0
 10
562.5849543584999
 20
395.4264468144001
 30
0.0
 10
562.5654762111
 20
395.4250276613
 30
0.0
 10
562.5209087237
 20
395.394849489
 30
0.0
 10
562.4764228834
 20
395.3158122772
 30
0.0
 10
562.4339770958999
 20
395.1992824004
 30
0.0
 10
562.383839789
 20
394.9806198118
 30
0.0
 10
562.3489726848999
 20
394.654629841
 30
0.0
 10
562.3472529713
 20
394.3798804385
 30
0.0
 10
562.3539630403
 20
394.2357901242
 30
0.0
  0
SPLINE
  5
372
330
213
100
AcDbEntity
  8
RUNDUNGEN
  6
Continuous
 62
     9
100
AcDbSpline
210
0.0
220
0.0
230
1.0
 70
     8
 71
     3
 72
    13
 73
     9
 74
     0
 42
0.0000000001
 43
0.0000000001
 40
0.0
 40
0.0
 40
0.0
 40
0.0
 40
0.0466652468
 40
0.1175530464
 40
0.2171099641
 40
0.3432916316
 40
0.6549616427000001
 40
1.0
 40
1.0
 40
1.0
 40
1.0
 10
562.5669410519
 20
395.4266118803
 30
0.0
 10
562.5474895945
 20
395.4251466646
 30
0.0
 10
562.5029928866
 20
395.3947201104
 30
0.0
 10
562.4577400238999
 20
395.3159187832
 30
0.0
 10
562.4137150339
 20
395.1993861451
 30
0.0
 10
562.3603003233999
 20
394.980924231
 30
0.0
 10
562.320009538
 20
394.6551786866
 30
0.0
 10
562.313379335
 20
394.3803037778
 30
0.0
 10
562.3174415783999
 20
394.2361313312
 30
0.0
  0
SPLINE
  5
373
330
213
100
AcDbEntity
  8
RUNDUNGEN
  6
Continuous
 62
     9
100
AcDbSpline
210
0.0
220
0.0
230
1.0
 70
     8
 71
     3
 72
     8
 73
     4
 74
     0
 42
0.0000000001
 43
0.0000000001
 40
0.0
 40
0.0
 40
0.0
 40
0.0
 40
1.0
 40
1.0
 40
1.0
 40
1.0
 10
644.6372960174
 20
390.7906820574
 30
0.0
 10
644.8776499434
 20
391.3089876398999
 30
0.0
 10
645.1178804462999
 20
391.8273504825
 30
0.0
 10
645.3579637785
 20
392.3457814616
 30
0.0
  0
SPLINE
  5
374
330
213
100
AcDbEntity
  8
RUNDUNGEN
  6
Continuous
 62
     9
100
AcDbSpline
210
0.0
220
0.0
230
1.0
 70
     8
 71
     3
 72
    26
 73
    22
 74
     0
 42
0.0000000001
 43
0.0000000001
 40
0.0
 40
0.0
 40
0.0
 40
0.0
 40
0.2081187319
 40
0.4009867733
 40
0.490111076
 40
0.5735749443
 40
0.6508331034000001
 40
0.7213808968000001
 40
0.7847577449
 40
0.8405503527
 40
0.8883957095999999
 40
0.9279839876
 40
0.9446001808
 40
0.9590620437
 40
0.97134697
 40
0.9814381315
 40
0.9893232221999999
 40
0.9950001731999998
 40
0.9984886296999999
 40
0.9994508257999999
 40
1.0
 40
1.0
 40
1.0
 40
1.0
 10
646.0067998099
 20
395.1024371025
 30
0.0
 10
646.0799359994999
 20
397.5955634218
 30
0.0
 10
646.2139319771999
 20
402.3993290925999
 30
0.0
 10
646.3583002791
 20
408.2713049276
 30
0.0
 10
646.4524778733999
 20
412.6501051471
 30
0.0
 10
646.5100430773999
 20
415.6438379363
 30
0.0
 10
646.5560796864999
 20
418.4151122525999
 30
0.0
 10
646.5903100276999
 20
420.9458057898
 30
0.0
 10
646.6125438249999
 20
423.2193696030999
 30
0.0
 10
646.6227223781999
 20
425.2209427451999
 30
0.0
 10
646.6208239387
 20
426.9374489945
 30
0.0
 10
646.6089200819999
 20
428.1844023869
 30
0.0
 10
646.5920367065
 20
429.0311488064999
 30
0.0
 10
646.5771741789
 20
429.5506136472
 30
0.0
 10
646.5594207876001
 20
429.9917975301999
 30
0.0
 10
646.5390086511
 20
430.3537888568
 30
0.0
 10
646.5158923851
 20
430.6366774565
 30
0.0
 10
646.4912790280999
 20
430.8388859107
 30
0.0
 10
646.4661668071999
 20
430.9592301174999
 30
0.0
 10
646.4438693261
 20
431.0139931691
 30
0.0
 10
646.4282704572
 20
431.027672009
 30
0.0
 10
646.4216903572999
 20
431.0278114866
 30
0.0
  0
SPLINE
  5
375
330
213
100
AcDbEntity
  8
RUNDUNGEN
  6
Continuous
 62
     9
100
AcDbSpline
210
0.0
220
0.0
230
1.0
 70
     8
 71
     3
 72
     9
 73
     5
 74
     0
 42
0.0000000001
 43
0.0000000001
 40
0.0
 40
0.0
 40
0.0
 40
0.0
 40
0.5636607101
 40
1.0
 40
1.0
 40
1.0
 40
1.0
 10
559.7079886164
 20
473.0381639315
 30
0.0
 10
559.7078692957
 20
473.1967352772
 30
0.0
 10
559.6920488701
 20
473.4775795398999
 30
0.0
 10
559.6433949956999
 20
473.7574589023999
 30
0.0
 10
559.6019854997
 20
473.8730162581999
 30
0.0
  0
SPLINE
  5
376
330
213
100
AcDbEntity
  8
RUNDUNGEN
  6
Continuous
 62
     9
100
AcDbSpline
210
0.0
220
0.0
230
1.0
 70
     8
 71
     3
 72
     9
 73
     5
 74
     0
 42
0.0000000001
 43
0.0000000001
 40
0.0
 40
0.0
 40
0.0
 40
0.0
 40
0.6131548779
 40
1.0
 40
1.0
 40
1.0
 40
1.0
 10
559.6019854997
 20
473.8730162581999
 30
0.0
 10
559.5884991676999
 20
473.9106512215
 30
0.0
 10
559.5639462930001
 20
473.9700982092999
 30
0.0
 10
559.5175510679
 20
474.0232495291
 30
0.0
 10
559.4937504547
 20
474.0315992193
 30
0.0
  0
SPLINE
  5
377
330
213
100
AcDbEntity
  8
RUNDUNGEN
  6
Continuous
 62
     9
100
AcDbSpline
210
0.0
220
0.0
230
1.0
 70
     8
 71
     3
 72
     8
 73
     4
 74
     0
 42
0.0000000001
 43
0.0000000001
 40
0.0
 40
0.0
 40
0.0
 40
0.0
 40
1.0
 40
1.0
 40
1.0
 40
1.0
 10
559.4937504547
 20
474.0315992193
 30
0.0
 10
559.4876767368
 20
474.0337299905999
 30
0.0
 10
559.4811678834999
 20
474.0349347675
 30
0.0
 10
559.4747312516999
 20
474.0349371875
 30
0.0
  0
SPLINE
  5
378
330
213
100
AcDbEntity
  8
RUNDUNGEN
  6
Continuous
 62
     9
100
AcDbSpline
210
0.0
220
0.0
230
1.0
 70
     8
 71
     3
 72
    11
 73
     7
 74
     0
 42
0.0000000001
 43
0.0000000001
 40
0.0
 40
0.0
 40
0.0
 40
0.0
 40
0.2538846142
 40
0.5054395666
 40
0.7538850936000001
 40
1.0
 40
1.0
 40
1.0
 40
1.0
 10
560.4406571073999
 20
473.0349380295
 30
0.0
 10
560.4410436767999
 20
473.156225278
 30
0.0
 10
560.3989479803999
 20
473.4000710266999
 30
0.0
 10
560.2128700460999
 20
473.7173924848999
 30
0.0
 10
559.9285396516001
 20
473.9453685245
 30
0.0
 10
559.6962586376999
 20
474.0166785496
 30
0.0
 10
559.5793686766
 20
474.0293618362001
 30
0.0
  0
SPLINE
  5
379
330
213
100
AcDbEntity
  8
RUNDUNGEN
  6
Continuous
 62
     9
100
AcDbSpline
210
0.0
220
0.0
230
1.0
 70
     8
 71
     3
 72
     9
 73
     5
 74
     0
 42
0.0000000001
 43
0.0000000001
 40
0.0
 40
0.0
 40
0.0
 40
0.0
 40
0.5054012783000001
 40
1.0
 40
1.0
 40
1.0
 40
1.0
 10
562.1425650692999
 20
472.932845612
 30
0.0
 10
562.1434591523999
 20
473.1529464861
 30
0.0
 10
561.9992956048
 20
473.6030361730999
 30
0.0
 10
561.5993272205001
 20
473.86096312
 30
0.0
 10
561.3893742262
 20
473.9090891078999
 30
0.0
  0
SPLINE
  5
37A
330
213
100
AcDbEntity
  8
RUNDUNGEN
  6
Continuous
 62
     9
100
AcDbSpline
210
0.0
220
0.0
230
1.0
 70
     8
 71
     3
 72
    12
 73
     8
 74
     0
 42
0.0000000001
 43
0.0000000001
 40
0.0
 40
0.0
 40
0.0
 40
0.0
 40
0.3700413008
 40
0.6854528143000001
 40
0.9012255162999998
 40
0.9638120060999998
 40
1.0
 40
1.0
 40
1.0
 40
1.0
 10
562.9437936798
 20
472.9128093755999
 30
0.0
 10
562.9437936795
 20
473.0404387584999
 30
0.0
 10
562.9364406966
 20
473.2772448369999
 30
0.0
 10
562.9060309186
 20
473.5857716316999
 30
0.0
 10
562.8634491877
 20
473.7890865674
 30
0.0
 10
562.8214586023
 20
473.8876387248
 30
0.0
 10
562.7915805238
 20
473.9127979685999
 30
0.0
 10
562.7790990798001
 20
473.9128082421999
 30
0.0
  0
SPLINE
  5
37B
330
213
100
AcDbEntity
  8
RUNDUNGEN
  6
Continuous
 62
     9
100
AcDbSpline
210
0.0
220
0.0
230
1.0
 70
     8
 71
     3
 72
    12
 73
     8
 74
     0
 42
0.0000000001
 43
0.0000000001
 40
0.0
 40
0.0
 40
0.0
 40
0.0
 40
0.3700420005
 40
0.6854538293000001
 40
0.9012261989
 40
0.9638122970999999
 40
1.0
 40
1.0
 40
1.0
 40
1.0
 10
586.3307983238
 20
472.9128093755999
 30
0.0
 10
586.3307983238
 20
473.0404390758
 30
0.0
 10
586.3381513588999
 20
473.2772456313999
 30
0.0
 10
586.3685611892
 20
473.5857728904
 30
0.0
 10
586.4111432119
 20
473.7890876747
 30
0.0
 10
586.4531338143
 20
473.8876396084999
 30
0.0
 10
586.4830122486
 20
473.912798282
 30
0.0
 10
586.4954935999
 20
473.9128082426999
 30
0.0
  0
SPLINE
  5
37C
330
213
100
AcDbEntity
  8
RUNDUNGEN
  6
Continuous
 62
     9
100
AcDbSpline
210
0.0
220
0.0
230
1.0
 70
     8
 71
     3
 72
    11
 73
     7
 74
     0
 42
0.0000000001
 43
0.0000000001
 40
0.0
 40
0.0
 40
0.0
 40
0.0
 40
0.2539860356
 40
0.5055177999
 40
0.7538488658000001
 40
1.0
 40
1.0
 40
1.0
 40
1.0
 10
587.1320227002
 20
472.932845612
 30
0.0
 10
587.1315148439999
 20
473.0578650039999
 30
0.0
 10
587.1764482648
 20
473.3093109726
 30
0.0
 10
587.3738433808999
 20
473.6334367219
 30
0.0
 10
587.673887525
 20
473.8601259862999
 30
0.0
 10
587.9164840705
 20
473.9236389622
 30
0.0
 10
588.0374243981999
 20
473.9309948516
 30
0.0
  0
SPLINE
  5
37D
330
213
100
AcDbEntity
  8
RUNDUNGEN
  6
Continuous
 62
     9
100
AcDbSpline
210
0.0
220
0.0
230
1.0
 70
     8
 71
     3
 72
    11
 73
     7
 74
     0
 42
0.0000000001
 43
0.0000000001
 40
0.0
 40
0.0
 40
0.0
 40
0.0
 40
0.2538846082
 40
0.5054395588000001
 40
0.7538850887000001
 40
1.0
 40
1.0
 40
1.0
 40
1.0
 10
588.8339348962
 20
473.0349380295
 30
0.0
 10
588.8335483220999
 20
473.1562252298999
 30
0.0
 10
588.8756439919999
 20
473.4000708817999
 30
0.0
 10
589.0617217808999
 20
473.7173922541
 30
0.0
 10
589.3460519842
 20
473.9453683098999
 30
0.0
 10
589.5783328733999
 20
474.0166784269
 30
0.0
 10
589.6952227858999
 20
474.0293617772
 30
0.0
  0
SPLINE
  5
37E
330
213
100
AcDbEntity
  8
RUNDUNGEN
  6
Continuous
 62
     9
100
AcDbSpline
210
0.0
220
0.0
230
1.0
 70
     8
 71
     3
 72
     9
 73
     5
 74
     0
 42
0.0000000001
 43
0.0000000001
 40
0.0
 40
0.0
 40
0.0
 40
0.0
 40
0.5636607103
 40
1.0
 40
1.0
 40
1.0
 40
1.0
 10
589.5666033869
 20
473.0381639315
 30
0.0
 10
589.5667227075001
 20
473.1967352773999
 30
0.0
 10
589.5825431336
 20
473.4775795403
 30
0.0
 10
589.6311970080001
 20
473.7574589030999
 30
0.0
 10
589.6726065041999
 20
473.8730162589
 30
0.0
  0
SPLINE
  5
37F
330
213
100
AcDbEntity
  8
RUNDUNGEN
  6
Continuous
 62
     9
100
AcDbSpline
210
0.0
220
0.0
230
1.0
 70
     8
 71
     3
 72
     9
 73
     5
 74
     0
 42
0.0000000001
 43
0.0000000001
 40
0.0
 40
0.0
 40
0.0
 40
0.0
 40
0.6131785441
 40
1.0
 40
1.0
 40
1.0
 40
1.0
 10
589.6726065041999
 20
473.8730162589
 30
0.0
 10
589.6860947843
 20
473.9106566587
 30
0.0
 10
589.7106487467
 20
473.9701095031
 30
0.0
 10
589.7570578329999
 20
474.0232646251999
 30
0.0
 10
589.7808623730999
 20
474.0316065208
 30
0.0
  0
SPLINE
  5
380
330
213
100
AcDbEntity
  8
RUNDUNGEN
  6
Continuous
 62
     9
100
AcDbSpline
210
0.0
220
0.0
230
1.0
 70
     8
 71
     3
 72
     8
 73
     4
 74
     0
 42
0.0000000001
 43
0.0000000001
 40
0.0
 40
0.0
 40
0.0
 40
0.0
 40
1.0
 40
1.0
 40
1.0
 40
1.0
 10
589.7808623730999
 20
474.0316065208
 30
0.0
 10
589.78693264
 20
474.0337337425
 30
0.0
 10
589.7934371589
 20
474.034935793
 30
0.0
 10
589.7998693598999
 20
474.0349371901
 30
0.0
  0
SPLINE
  5
381
330
213
100
AcDbEntity
  8
RUNDUNGEN
  6
Continuous
 62
     9
100
AcDbSpline
210
0.0
220
0.0
230
1.0
 70
     8
 71
     3
 72
    12
 73
     8
 74
     0
 42
0.0000000001
 43
0.0000000001
 40
0.0
 40
0.0
 40
0.0
 40
0.0
 40
0.3591424289
 40
0.6680649932
 40
0.7904721511
 40
0.8866299829999999
 40
1.0
 40
1.0
 40
1.0
 40
1.0
 10
589.5675340207
 20
467.0105119545
 30
0.0
 10
589.5675340207
 20
466.8841628762
 30
0.0
 10
589.5779934103
 20
466.6486382152999
 30
0.0
 10
589.615445038
 20
466.3737652514
 30
0.0
 10
589.6646271744
 20
466.19199593
 30
0.0
 10
589.7054066422
 20
466.0882696116
 30
0.0
 10
589.756974338
 20
466.0136402117999
 30
0.0
 10
589.7967476056
 20
466.0106642593
 30
0.0
  0
SPLINE
  5
382
330
213
100
AcDbEntity
  8
RUNDUNGEN
  6
Continuous
 62
     9
100
AcDbSpline
210
0.0
220
0.0
230
1.0
 70
     8
 71
     3
 72
    11
 73
     7
 74
     0
 42
0.0000000001
 43
0.0000000001
 40
0.0
 40
0.0
 40
0.0
 40
0.0
 40
0.2458850584
 40
0.4943967868
 40
0.7461819768000001
 40
1.0
 40
1.0
 40
1.0
 40
1.0
 10
589.7967476056
 20
466.0106642593
 30
0.0
 10
589.6714929877999
 20
466.0117436201999
 30
0.0
 10
589.417279246
 20
466.0661568198
 30
0.0
 10
589.0984501205
 20
466.290354973
 30
0.0
 10
588.8856846036
 20
466.6212125658
 30
0.0
 10
588.8354058776999
 20
466.8812124755
 30
0.0
 10
588.8348931633999
 20
467.0105119545
 30
0.0
  0
SPLINE
  5
383
330
213
100
AcDbEntity
  8
RUNDUNGEN
  6
Continuous
 62
     9
100
AcDbSpline
210
0.0
220
0.0
230
1.0
 70
     8
 71
     3
 72
    12
 73
     8
 74
     0
 42
0.0000000001
 43
0.0000000001
 40
0.0
 40
0.0
 40
0.0
 40
0.0
 40
0.0418856844
 40
0.1081146676
 40
0.3253297986
 40
0.6367821008
 40
1.0
 40
1.0
 40
1.0
 40
1.0
 10
588.330097958
 20
465.9227796688999
 30
0.0
 10
588.3446060845999
 20
465.9214847376
 30
0.0
 10
588.3775769869
 20
465.8961200401999
 30
0.0
 10
588.4288493725001
 20
465.7955853994
 30
0.0
 10
588.4775637436
 20
465.5917379786
 30
0.0
 10
588.5138538283
 20
465.2842446463999
 30
0.0
 10
588.5222476141999
 20
465.0492414759999
 30
0.0
 10
588.5222476147
 20
464.9229319737999
 30
0.0
  0
SPLINE
  5
384
330
213
100
AcDbEntity
  8
RUNDUNGEN
  6
Continuous
 62
     9
100
AcDbSpline
210
0.0
220
0.0
230
1.0
 70
     8
 71
     3
 72
    11
 73
     7
 74
     0
 42
0.0000000001
 43
0.0000000001
 40
0.0
 40
0.0
 40
0.0
 40
0.0
 40
0.2656675194
 40
0.5198341996
 40
0.7630623528
 40
1.0
 40
1.0
 40
1.0
 40
1.0
 10
587.132027739
 20
466.9083627501
 30
0.0
 10
587.1314108517999
 20
466.7567693758
 30
0.0
 10
587.2175377001999
 20
466.4546603455999
 30
0.0
 10
587.5312854518
 20
466.1344143814
 30
0.0
 10
587.9190232344
 20
465.9575487887999
 30
0.0
 10
588.1948998133
 20
465.9219251929
 30
0.0
 10
588.3300979597
 20
465.9227804520999
 30
0.0
  0
SPLINE
  5
385
330
213
100
AcDbEntity
  8
RUNDUNGEN
  6
Continuous
 62
     9
100
AcDbSpline
210
0.0
220
0.0
230
1.0
 70
     8
 71
     3
 72
     9
 73
     5
 74
     0
 42
0.0000000001
 43
0.0000000001
 40
0.0
 40
0.0
 40
0.0
 40
0.0
 40
0.3405671107
 40
1.0
 40
1.0
 40
1.0
 40
1.0
 10
589.5666033869
 20
473.0381639315
 30
0.0
 10
589.4834283589999
 20
473.0380141854999
 30
0.0
 10
589.2392062605
 20
473.037261019
 30
0.0
 10
588.9949690117999
 20
473.0372216886999
 30
0.0
 10
588.8339348962
 20
473.0349380295
 30
0.0
  0
SPLINE
  5
386
330
213
100
AcDbEntity
  8
0
  6
Continuous
 62
     9
100
AcDbSpline
210
0.0
220
0.0
230
1.0
 70
     8
 71
     3
 72
    27
 73
    23
 74
     0
 42
0.0000000001
 43
0.0000000001
 40
0.0
 40
0.0
 40
0.0
 40
0.0
 40
0.000514532
 40
0.0015088915
 40
0.0052112762
 40
0.0112714659
 40
0.0196959609
 40
0.0304719193
 40
0.0435769011
 40
0.0589809391
 40
0.0766485312
 40
0.0965373935
 40
0.1186006897
 40
0.169033428
 40
0.2274636553
 40
0.2933303851
 40
0.3660005439
 40
0.4447751686000001
 40
0.5288962563000001
 40
0.6175541799000001
 40
0.8050306277
 40
1.0
 40
1.0
 40
1.0
 40
1.0
 10
534.6372960017999
 20
354.0109367832
 30
0.0
 10
534.6372967183
 20
354.0040716216
 30
0.0
 10
534.6548306144999
 20
353.9880244354
 30
0.0
 10
534.7181074665
 20
353.965487365
 30
0.0
 10
534.8615762755001
 20
353.9363671082
 30
0.0
 10
535.1009118896
 20
353.9061236089
 30
0.0
 10
535.4371128243
 20
353.8740967336
 30
0.0
 10
535.8667524638999
 20
353.8424102901
 30
0.0
 10
536.3900535826998
 20
353.8107070629
 30
0.0
 10
537.0053472701
 20
353.7793968421
 30
0.0
 10
537.7113144353
 20
353.748527329
 30
0.0
 10
538.5062158733999
 20
353.7182240327
 30
0.0
 10
539.7381739474999
 20
353.6768288235
 30
0.0
 10
541.484396661
 20
353.6281528909
 30
0.0
 10
543.8151431442999
 20
353.5753551524
 30
0.0
 10
546.4427365105999
 20
353.5265338487
 30
0.0
 10
549.3418884230999
 20
353.4821960559999
 30
0.0
 10
552.4846913185
 20
353.4428185517
 30
0.0
 10
555.840885255
 20
353.4088000367
 30
0.0
 10
560.6474559342999
 20
353.3703480194999
 30
0.0
 10
566.9331092461
 20
353.338589505
 30
0.0
 10
572.0359101199
 20
353.3301895308
 30
0.0
 10
574.6372960018
 20
353.330189189
 30
0.0
  0
SPLINE
  5
387
330
213
100
AcDbEntity
  8
RUNDUNGEN
  6
Continuous
 62
     9
100
AcDbSpline
210
0.0
220
0.0
230
1.0
 70
     8
 71
     3
 72
    10
 73
     6
 74
     0
 42
0.0000000001
 43
0.0000000001
 40
0.0
 40
0.0
 40
0.0
 40
0.0
 40
0.1403030149
 40
0.3668075065
 40
1.0
 40
1.0
 40
1.0
 40
1.0
 10
587.1320119948999
 20
472.9328438797
 30
0.0
 10
587.0947954651
 20
472.9283273634999
 30
0.0
 10
586.9968110393
 20
472.9230795811
 30
0.0
 10
586.7298295557
 20
472.9141493959999
 30
0.0
 10
586.5000340005
 20
472.9128089367
 30
0.0
 10
586.3308421691999
 20
472.9128094975999
 30
0.0
  0
SPLINE
  5
388
330
213
100
AcDbEntity
  8
RUNDUNGEN
  6
Continuous
 62
     9
100
AcDbSpline
210
0.0
220
0.0
230
1.0
 70
     8
 71
     3
 72
    12
 73
     8
 74
     0
 42
0.0000000001
 43
0.0000000001
 40
0.0
 40
0.0
 40
0.0
 40
0.0
 40
0.1133705924
 40
0.2095285707
 40
0.3319359085
 40
0.6408585717000001
 40
1.0
 40
1.0
 40
1.0
 40
1.0
 10
559.4778443979
 20
466.0106642593
 30
0.0
 10
559.5176178663999
 20
466.0136402268
 30
0.0
 10
559.5691856144999
 20
466.0882700651
 30
0.0
 10
559.6099650694999
 20
466.1919966834999
 30
0.0
 10
559.6591471386
 20
466.3737661842
 30
0.0
 10
559.6965986258999
 20
466.648638895
 30
0.0
 10
559.7070579829
 20
466.8841632314999
 30
0.0
 10
559.7070579829
 20
467.0105119545
 30
0.0
  0
SPLINE
  5
389
330
213
100
AcDbEntity
  8
RUNDUNGEN
  6
Continuous
 62
     9
100
AcDbSpline
210
0.0
220
0.0
230
1.0
 70
     8
 71
     3
 72
    11
 73
     7
 74
     0
 42
0.0000000001
 43
0.0000000001
 40
0.0
 40
0.0
 40
0.0
 40
0.0
 40
0.2538176591
 40
0.505604559
 40
0.7541220337000001
 40
1.0
 40
1.0
 40
1.0
 40
1.0
 10
560.4396988401
 20
467.0105119545
 30
0.0
 10
560.4390707141
 20
466.8812131961
 30
0.0
 10
560.3889685476999
 20
466.6212110191999
 30
0.0
 10
560.1761259373001
 20
466.2903492394
 30
0.0
 10
559.8573100119999
 20
466.0661734767999
 30
0.0
 10
559.6030955582
 20
466.0117224608
 30
0.0
 10
559.4778443979
 20
466.0106642593
 30
0.0
  0
SPLINE
  5
38A
330
213
100
AcDbEntity
  8
RUNDUNGEN
  6
Continuous
 62
     9
100
AcDbSpline
210
0.0
220
0.0
230
1.0
 70
     8
 71
     3
 72
    11
 73
     7
 74
     0
 42
0.0000000001
 43
0.0000000001
 40
0.0
 40
0.0
 40
0.0
 40
0.0
 40
0.2369376469
 40
0.4801658003
 40
0.7343324806
 40
1.0
 40
1.0
 40
1.0
 40
1.0
 10
560.9444940442999
 20
465.9227804522
 30
0.0
 10
561.0796921905
 20
465.921925193
 30
0.0
 10
561.3555687694001
 20
465.9575487870999
 30
0.0
 10
561.7433065519999
 20
466.1344143796999
 30
0.0
 10
562.0570543039
 20
466.4546603432
 30
0.0
 10
562.1431811526
 20
466.7567693737999
 30
0.0
 10
562.1425642642999
 20
466.9083627481
 30
0.0
  0
SPLINE
  5
38B
330
213
100
AcDbEntity
  8
RUNDUNGEN
  6
Continuous
 62
     9
100
AcDbSpline
210
0.0
220
0.0
230
1.0
 70
     8
 71
     3
 72
    12
 73
     8
 74
     0
 42
0.0000000001
 43
0.0000000001
 40
0.0
 40
0.0
 40
0.0
 40
0.0
 40
0.3632178992
 40
0.6746702014000001
 40
0.8918853323999998
 40
0.9581143155999999
 40
1.0
 40
1.0
 40
1.0
 40
1.0
 10
560.7523443889
 20
464.9229319737999
 30
0.0
 10
560.7523443894999
 20
465.0492414759999
 30
0.0
 10
560.7607381755999
 20
465.2842446463999
 30
0.0
 10
560.7970282603999
 20
465.5917379786
 30
0.0
 10
560.8457426316999
 20
465.7955853994
 30
0.0
 10
560.8970150173
 20
465.8961200401999
 30
0.0
 10
560.9299859197
 20
465.9214847376
 30
0.0
 10
560.9444940462
 20
465.9227796688999
 30
0.0
  0
SPLINE
  5
38C
330
213
100
AcDbEntity
  8
RUNDUNGEN
  6
Continuous
 62
     9
100
AcDbSpline
210
0.0
220
0.0
230
1.0
 70
     8
 71
     3
 72
    10
 73
     6
 74
     0
 42
0.0000000001
 43
0.0000000001
 40
0.0
 40
0.0
 40
0.0
 40
0.0
 40
0.6331928891
 40
0.8596975910999999
 40
1.0
 40
1.0
 40
1.0
 40
1.0
 10
562.9437496138999
 20
472.9128094981
 30
0.0
 10
562.774557628
 20
472.9128089345
 30
0.0
 10
562.5447618851
 20
472.9141497586
 30
0.0
 10
562.2777802433001
 20
472.9230792273
 30
0.0
 10
562.1797959894999
 20
472.9283278348
 30
0.0
 10
562.1425795609
 20
472.9328439315
 30
0.0
  0
SPLINE
  5
38D
330
213
100
AcDbEntity
  8
RUNDUNGEN
  6
Continuous
 62
     9
100
AcDbSpline
210
0.0
220
0.0
230
1.0
 70
     8
 71
     3
 72
     9
 73
     5
 74
     0
 42
0.0000000001
 43
0.0000000001
 40
0.0
 40
0.0
 40
0.0
 40
0.0
 40
0.3405749487
 40
1.0
 40
1.0
 40
1.0
 40
1.0
 10
559.7070579829
 20
472.0278146914
 30
0.0
 10
559.7902316088
 20
472.0276619926999
 30
0.0
 10
560.0344438721
 20
472.0269067569
 30
0.0
 10
560.2786720092
 20
472.0269068351
 30
0.0
 10
560.4396973078999
 20
472.0245887894
 30
0.0
  0
SPLINE
  5
38E
330
213
100
AcDbEntity
  8
RUNDUNGEN
  6
Continuous
 62
     9
100
AcDbSpline
210
0.0
220
0.0
230
1.0
 70
     8
 71
     3
 72
     9
 73
     5
 74
     0
 42
0.0000000001
 43
0.0000000001
 40
0.0
 40
0.0
 40
0.0
 40
0.0
 40
0.1408879147
 40
1.0
 40
1.0
 40
1.0
 40
1.0
 10
560.4406571073999
 20
473.0349380295
 30
0.0
 10
560.4062521166
 20
473.035425934
 30
0.0
 10
560.1620306913999
 20
473.0372384655
 30
0.0
 10
559.9178055303
 20
473.037786183
 30
0.0
 10
559.7079886166999
 20
473.0381639315
 30
0.0
  0
SPLINE
  5
38F
330
213
100
AcDbEntity
  8
RUNDUNGEN
  6
Continuous
 62
     9
100
AcDbSpline
210
0.0
220
0.0
230
1.0
 70
     8
 71
     3
 72
    12
 73
     8
 74
     0
 42
0.0000000001
 43
0.0000000001
 40
0.0
 40
0.0
 40
0.0
 40
0.0
 40
0.3592502275
 40
0.6680428757
 40
0.7903807432
 40
0.8865022093
 40
1.0
 40
1.0
 40
1.0
 40
1.0
 10
559.6902176228
 20
453.8029461132
 30
0.0
 10
559.6901225858
 20
453.9289732258999
 30
0.0
 10
559.6795194961
 20
454.1638076272
 30
0.0
 10
559.6419314666999
 20
454.4378502369999
 30
0.0
 10
559.5926786797
 20
454.6189400191
 30
0.0
 10
559.5518574765
 20
454.7223614416999
 30
0.0
 10
559.5002408972
 20
454.7966031221
 30
0.0
 10
559.4605357234
 20
454.7995679063999
 30
0.0
  0
SPLINE
  5
390
330
213
100
AcDbEntity
  8
RUNDUNGEN
  6
Continuous
 62
     9
100
AcDbSpline
210
0.0
220
0.0
230
1.0
 70
     8
 71
     3
 72
    11
 73
     7
 74
     0
 42
0.0000000001
 43
0.0000000001
 40
0.0
 40
0.0
 40
0.0
 40
0.0
 40
0.1408961
 40
0.3660783299
 40
0.659413397
 40
1.0
 40
1.0
 40
1.0
 40
1.0
 10
560.4223818255999
 20
453.7997202112
 30
0.0
 10
560.3880342158999
 20
453.8013612034999
 30
0.0
 10
560.2986278813999
 20
453.7998970039
 30
0.0
 10
560.1377336962999
 20
453.8019785901
 30
0.0
 10
559.9280548957
 20
453.8030800513999
 30
0.0
 10
559.7733272562
 20
453.8014663773
 30
0.0
 10
559.6902176228
 20
453.8029461132
 30
0.0
  0
SPLINE
  5
391
330
213
100
AcDbEntity
  8
RUNDUNGEN
  6
Continuous
 62
     9
100
AcDbSpline
210
0.0
220
0.0
230
1.0
 70
     8
 71
     3
 72
    11
 73
     7
 74
     0
 42
0.0000000001
 43
0.0000000001
 40
0.0
 40
0.0
 40
0.0
 40
0.0
 40
0.245885411
 40
0.494397135
 40
0.7461821147
 40
1.0
 40
1.0
 40
1.0
 40
1.0
 10
559.4605357234
 20
454.7995679063999
 30
0.0
 10
559.585789939
 20
454.7984875891
 30
0.0
 10
559.8400022751
 20
454.7440730754
 30
0.0
 10
560.1588289592
 20
454.5198745113999
 30
0.0
 10
560.3715920778999
 20
454.1890177391
 30
0.0
 10
560.4218695087
 20
453.9290190294
 30
0.0
 10
560.4223818255999
 20
453.7997202112
 30
0.0
  0
SPLINE
  5
392
330
213
100
AcDbEntity
  8
RUNDUNGEN
  6
Continuous
 62
     9
100
AcDbSpline
210
0.0
220
0.0
230
1.0
 70
     8
 71
     3
 72
    12
 73
     8
 74
     0
 42
0.0000000001
 43
0.0000000001
 40
0.0
 40
0.0
 40
0.0
 40
0.0
 40
0.363217899
 40
0.6746702016000001
 40
0.8918853337999998
 40
0.9581143170999999
 40
1.0
 40
1.0
 40
1.0
 40
1.0
 10
560.7523443889
 20
455.8883264999999
 30
0.0
 10
560.7523443889
 20
455.762016998
 30
0.0
 10
560.7607381753999
 20
455.5270138277999
 30
0.0
 10
560.7970282630999
 20
455.2195204959999
 30
0.0
 10
560.8457426369
 20
455.0156730751
 30
0.0
 10
560.8970150216999
 20
454.9151384349999
 30
0.0
 10
560.9299859225
 20
454.8897737364
 30
0.0
 10
560.9444940484999
 20
454.8884788049
 30
0.0
  0
SPLINE
  5
393
330
213
100
AcDbEntity
  8
RUNDUNGEN
  6
Continuous
 62
     9
100
AcDbSpline
210
0.0
220
0.0
230
1.0
 70
     8
 71
     3
 72
     9
 73
     5
 74
     0
 42
0.0000000001
 43
0.0000000001
 40
0.0
 40
0.0
 40
0.0
 40
0.0
 40
0.2469335807
 40
1.0
 40
1.0
 40
1.0
 40
1.0
 10
560.9444940416
 20
454.8884768695
 30
0.0
 10
561.0150620816999
 20
454.8889233674
 30
0.0
 10
561.3001951273999
 20
454.8709685453999
 30
0.0
 10
561.5832063477999
 20
454.7643937963999
 30
0.0
 10
561.7553667685999
 20
454.6352515562
 30
0.0
  0
SPLINE
  5
394
330
213
100
AcDbEntity
  8
RUNDUNGEN
  6
Continuous
 62
     9
100
AcDbSpline
210
0.0
220
0.0
230
1.0
 70
     8
 71
     3
 72
    11
 73
     7
 74
     0
 42
0.0000000001
 43
0.0000000001
 40
0.0
 40
0.0
 40
0.0
 40
0.0
 40
0.269633971
 40
0.5111670927000001
 40
0.7521208511000001
 40
1.0
 40
1.0
 40
1.0
 40
1.0
 10
561.7553703764
 20
454.6352530569
 30
0.0
 10
561.7932146476
 20
454.5728563834999
 30
0.0
 10
561.8325478892
 20
454.4332922116
 30
0.0
 10
561.8071450992999
 20
454.2287000951
 30
0.0
 10
561.737239357
 20
454.0424885841999
 30
0.0
 10
561.6702630045999
 20
453.9277710271
 30
0.0
 10
561.6328544808999
 20
453.8720804003999
 30
0.0
  0
SPLINE
  5
395
330
213
100
AcDbEntity
  8
RUNDUNGEN
  6
Continuous
 62
     9
100
AcDbSpline
210
0.0
220
0.0
230
1.0
 70
     8
 71
     3
 72
     9
 73
     5
 74
     0
 42
0.0000000001
 43
0.0000000001
 40
0.0
 40
0.0
 40
0.0
 40
0.0
 40
0.4702936852000001
 40
1.0
 40
1.0
 40
1.0
 40
1.0
 10
561.6328544808999
 20
453.8720804003999
 30
0.0
 10
561.6688956731
 20
453.6887226642
 30
0.0
 10
561.906462095
 20
453.3315234453
 30
0.0
 10
562.2799522749
 20
453.1520342249
 30
0.0
 10
562.4853377744
 20
453.1060361960999
 30
0.0
  0
SPLINE
  5
396
330
213
100
AcDbEntity
  8
RUNDUNGEN
  6
Continuous
 62
     9
100
AcDbSpline
210
0.0
220
0.0
230
1.0
 70
     8
 71
     3
 72
     9
 73
     5
 74
     0
 42
0.0000000001
 43
0.0000000001
 40
0.0
 40
0.0
 40
0.0
 40
0.0
 40
0.4503299493
 40
1.0
 40
1.0
 40
1.0
 40
1.0
 10
562.2931564855
 20
454.6058924516999
 30
0.0
 10
562.2696091205
 20
454.7189664769
 30
0.0
 10
562.2400835712999
 20
454.9745318773999
 30
0.0
 10
562.2307370972
 20
455.230958476
 30
0.0
 10
562.2307370972
 20
455.3719368948001
 30
0.0
  0
SPLINE
  5
397
330
213
100
AcDbEntity
  8
RUNDUNGEN
  6
Continuous
 62
     9
100
AcDbSpline
210
0.0
220
0.0
230
1.0
 70
     8
 71
     3
 72
    13
 73
     9
 74
     0
 42
0.0000000001
 43
0.0000000001
 40
0.0
 40
0.0
 40
0.0
 40
0.0
 40
0.053227223
 40
0.1307303392
 40
0.2321520918
 40
0.3552128114
 40
0.6544867718000001
 40
1.0
 40
1.0
 40
1.0
 40
1.0
 10
561.7553677675999
 20
454.6352529166999
 30
0.0
 10
561.755735903
 20
454.650894726
 30
0.0
 10
561.7679895086999
 20
454.6882676191
 30
0.0
 10
561.7961544698
 20
454.7500278735999
 30
0.0
 10
561.8387396462999
 20
454.828185148
 30
0.0
 10
561.9202782996
 20
454.9587375576
 30
0.0
 10
562.049532504
 20
455.1440659255
 30
0.0
 10
562.1678458737
 20
455.2921881655999
 30
0.0
 10
562.2307370972
 20
455.3719368948001
 30
0.0
  0
SPLINE
  5
398
330
213
100
AcDbEntity
  8
RUNDUNGEN
  6
Continuous
 62
     9
100
AcDbSpline
210
0.0
220
0.0
230
1.0
 70
     8
 71
     3
 72
     9
 73
     5
 74
     0
 42
0.0000000001
 43
0.0000000001
 40
0.0
 40
0.0
 40
0.0
 40
0.0
 40
0.2831969376
 40
1.0
 40
1.0
 40
1.0
 40
1.0
 10
562.2931564855
 20
454.6058924516999
 30
0.0
 10
562.2436442081
 20
454.5917305519999
 30
0.0
 10
562.0665976164999
 20
454.5546725055999
 30
0.0
 10
561.8694950363
 20
454.5722828126999
 30
0.0
 10
561.7553677675999
 20
454.6352529166999
 30
0.0
  0
SPLINE
  5
399
330
213
100
AcDbEntity
  8
RUNDUNGEN
  6
Continuous
 62
     9
100
AcDbSpline
210
0.0
220
0.0
230
1.0
 70
     8
 71
     3
 72
    13
 73
     9
 74
     0
 42
0.0000000001
 43
0.0000000001
 40
0.0
 40
0.0
 40
0.0
 40
0.0
 40
0.2482537425
 40
0.3749264768
 40
0.5034666026
 40
0.6330643544
 40
0.7607439037999999
 40
1.0
 40
1.0
 40
1.0
 40
1.0
 10
560.4190905914999
 20
450.336586787
 30
0.0
 10
560.4074434423
 20
450.2105838083
 30
0.0
 10
560.4036851723
 20
450.0179758908999
 30
0.0
 10
560.4439428741999
 20
449.7637866290999
 30
0.0
 10
560.5065816106999
 20
449.5765834105999
 30
0.0
 10
560.6138602178999
 20
449.4082607933
 30
0.0
 10
560.821210093
 20
449.2513659041001
 30
0.0
 10
561.0259099758999
 20
449.2432836547
 30
0.0
 10
561.1453346015
 20
449.2679919582999
 30
0.0
  0
SPLINE
  5
39A
330
213
100
AcDbEntity
  8
RUNDUNGEN
  6
Continuous
 62
     9
100
AcDbSpline
210
0.0
220
0.0
230
1.0
 70
     8
 71
     3
 72
     9
 73
     5
 74
     0
 42
0.0000000001
 43
0.0000000001
 40
0.0
 40
0.0
 40
0.0
 40
0.0
 40
0.3405881198
 40
1.0
 40
1.0
 40
1.0
 40
1.0
 10
559.6870180462999
 20
450.3398126939
 30
0.0
 10
559.7701305483999
 20
450.3396628764
 30
0.0
 10
560.0141540012999
 20
450.3389101542
 30
0.0
 10
560.2581925974
 20
450.3388695402
 30
0.0
 10
560.4190905914999
 20
450.336586787
 30
0.0
  0
SPLINE
  5
39B
330
213
100
AcDbEntity
  8
RUNDUNGEN
  6
Continuous
 62
     9
100
AcDbSpline
210
0.0
220
0.0
230
1.0
 70
     8
 71
     3
 72
     9
 73
     5
 74
     0
 42
0.0000000001
 43
0.0000000001
 40
0.0
 40
0.0
 40
0.0
 40
0.0
 40
0.3405859415999999
 40
1.0
 40
1.0
 40
1.0
 40
1.0
 10
589.5843743808
 20
453.8029461132
 30
0.0
 10
589.5012520047
 20
453.8027962584999
 30
0.0
 10
589.2571979991999
 20
453.8020434505
 30
0.0
 10
589.0131288533999
 20
453.8020028789
 30
0.0
 10
588.852210178
 20
453.7997202112
 30
0.0
  0
SPLINE
  5
39C
330
213
100
AcDbEntity
  8
RUNDUNGEN
  6
Continuous
 62
     9
100
AcDbSpline
210
0.0
220
0.0
230
1.0
 70
     8
 71
     3
 72
    12
 73
     8
 74
     0
 42
0.0000000001
 43
0.0000000001
 40
0.0
 40
0.0
 40
0.0
 40
0.0
 40
0.1134985339
 40
0.2096202163
 40
0.3319582633
 40
0.6407510772000001
 40
1.0
 40
1.0
 40
1.0
 40
1.0
 10
589.8140562802
 20
454.7995679063999
 30
0.0
 10
589.7743508477
 20
454.7966031027999
 30
0.0
 10
589.7227341732
 20
454.7223608621999
 30
0.0
 10
589.681913051
 20
454.6189390351
 30
0.0
 10
589.6326602747
 20
454.4378490435
 30
0.0
 10
589.5950724823999
 20
454.1638067512
 30
0.0
 10
589.5844694175
 20
453.9289727641
 30
0.0
 10
589.5843743808
 20
453.8029461132
 30
0.0
  0
SPLINE
  5
39D
330
213
100
AcDbEntity
  8
RUNDUNGEN
  6
Continuous
 62
     9
100
AcDbSpline
210
0.0
220
0.0
230
1.0
 70
     8
 71
     3
 72
    11
 73
     7
 74
     0
 42
0.0000000001
 43
0.0000000001
 40
0.0
 40
0.0
 40
0.0
 40
0.0
 40
0.2538176474
 40
0.5056045077000001
 40
0.7541219586
 40
1.0
 40
1.0
 40
1.0
 40
1.0
 10
588.852210178
 20
453.7997202112
 30
0.0
 10
588.8528403942
 20
453.9290183191
 30
0.0
 10
588.9029382533
 20
454.1890193024999
 30
0.0
 10
589.1157800304999
 20
454.5198800651
 30
0.0
 10
589.4345928256
 20
454.7440563055999
 30
0.0
 10
589.6888057045999
 20
454.7985087202
 30
0.0
 10
589.8140562802
 20
454.7995679063999
 30
0.0
  0
SPLINE
  5
39E
330
213
100
AcDbEntity
  8
RUNDUNGEN
  6
Continuous
 62
     9
100
AcDbSpline
210
0.0
220
0.0
230
1.0
 70
     8
 71
     3
 72
     9
 73
     5
 74
     0
 42
0.0000000001
 43
0.0000000001
 40
0.0
 40
0.0
 40
0.0
 40
0.0
 40
0.5488035186
 40
1.0
 40
1.0
 40
1.0
 40
1.0
 10
588.0542835832
 20
448.5051730291
 30
0.0
 10
588.0543790201999
 20
448.6456128348
 30
0.0
 10
588.0656836548
 20
448.9014474254999
 30
0.0
 10
588.1012397426998
 20
449.1559804623999
 30
0.0
 10
588.1292573964
 20
449.2679915703
 30
0.0
  0
SPLINE
  5
39F
330
213
100
AcDbEntity
  8
RUNDUNGEN
  6
Continuous
 62
     9
100
AcDbSpline
210
0.0
220
0.0
230
1.0
 70
     8
 71
     3
 72
    13
 73
     9
 74
     0
 42
0.0000000001
 43
0.0000000001
 40
0.0
 40
0.0
 40
0.0
 40
0.0
 40
0.2392567107
 40
0.3669361412
 40
0.4965337440999999
 40
0.625073734
 40
0.7517463848000001
 40
1.0
 40
1.0
 40
1.0
 40
1.0
 10
588.1292574028
 20
449.2679919538999
 30
0.0
 10
588.2486823379
 20
449.2432836000999
 30
0.0
 10
588.4533825933
 20
449.2513660008
 30
0.0
 10
588.6607323366
 20
449.4082613517999
 30
0.0
 10
588.7680106144
 20
449.5765839096
 30
0.0
 10
588.8306492339999
 20
449.7637869644999
 30
0.0
 10
588.8709067674
 20
450.0179760697
 30
0.0
 10
588.8671485998001
 20
450.2105838775
 30
0.0
 10
588.8555014047
 20
450.3365867867
 30
0.0
  0
SPLINE
  5
3A0
330
213
100
AcDbEntity
  8
RUNDUNGEN
  6
Continuous
 62
     9
100
AcDbSpline
210
0.0
220
0.0
230
1.0
 70
     8
 71
     3
 72
    12
 73
     8
 74
     0
 42
0.0000000001
 43
0.0000000001
 40
0.0
 40
0.0
 40
0.0
 40
0.0
 40
0.0418856828
 40
0.108114666
 40
0.3253297981
 40
0.6367821007
 40
1.0
 40
1.0
 40
1.0
 40
1.0
 10
588.3300979550999
 20
454.8884788049
 30
0.0
 10
588.3446060810999
 20
454.8897737364
 30
0.0
 10
588.3775769817999
 20
454.9151384349999
 30
0.0
 10
588.4288493666999
 20
455.0156730748999
 30
0.0
 10
588.4775637405
 20
455.2195204957
 30
0.0
 10
588.5138538281999
 20
455.5270138275
 30
0.0
 10
588.5222476146
 20
455.7620169978999
 30
0.0
 10
588.5222476147
 20
455.8883264999999
 30
0.0
  0
SPLINE
  5
3A1
330
213
100
AcDbEntity
  8
RUNDUNGEN
  6
Continuous
 62
     9
100
AcDbSpline
210
0.0
220
0.0
230
1.0
 70
     8
 71
     3
 72
     9
 73
     5
 74
     0
 42
0.0000000001
 43
0.0000000001
 40
0.0
 40
0.0
 40
0.0
 40
0.0
 40
0.2576989579
 40
1.0
 40
1.0
 40
1.0
 40
1.0
 10
587.5192249583999
 20
454.6352519308999
 30
0.0
 10
587.5782108133001
 20
454.6794998284999
 30
0.0
 10
587.8238060345999
 20
454.8287741072
 30
0.0
 10
588.1177017955999
 20
454.8898210331
 30
0.0
 10
588.3300979606
 20
454.8884772545999
 30
0.0
  0
SPLINE
  5
3A2
330
213
100
AcDbEntity
  8
RUNDUNGEN
  6
Continuous
 62
     9
100
AcDbSpline
210
0.0
220
0.0
230
1.0
 70
     8
 71
     3
 72
    11
 73
     7
 74
     0
 42
0.0000000001
 43
0.0000000001
 40
0.0
 40
0.0
 40
0.0
 40
0.0
 40
0.2478791423
 40
0.4888329071000001
 40
0.7303660303
 40
1.0
 40
1.0
 40
1.0
 40
1.0
 10
587.6417375216
 20
453.8720804003999
 30
0.0
 10
587.604329003
 20
453.9277710283999
 30
0.0
 10
587.5373526459999
 20
454.0424885784999
 30
0.0
 10
587.4674468944
 20
454.2287001022
 30
0.0
 10
587.4420441557
 20
454.4332921836
 30
0.0
 10
587.4813772398
 20
454.5728564532
 30
0.0
 10
587.5192216253
 20
454.6352530571
 30
0.0
  0
SPLINE
  5
3A3
330
213
100
AcDbEntity
  8
RUNDUNGEN
  6
Continuous
 62
     9
100
AcDbSpline
210
0.0
220
0.0
230
1.0
 70
     8
 71
     3
 72
     9
 73
     5
 74
     0
 42
0.0000000001
 43
0.0000000001
 40
0.0
 40
0.0
 40
0.0
 40
0.0
 40
0.5297063148
 40
1.0
 40
1.0
 40
1.0
 40
1.0
 10
586.7892542295
 20
453.1060361934999
 30
0.0
 10
586.9946397291
 20
453.1520342229
 30
0.0
 10
587.3681299086
 20
453.3315234446
 30
0.0
 10
587.6056963295999
 20
453.6887226641
 30
0.0
 10
587.6417375216
 20
453.8720804003999
 30
0.0
  0
SPLINE
  5
3A4
330
213
100
AcDbEntity
  8
RUNDUNGEN
  6
Continuous
 62
     9
100
AcDbSpline
210
0.0
220
0.0
230
1.0
 70
     8
 71
     3
 72
    11
 73
     7
 74
     0
 42
0.0000000001
 43
0.0000000001
 40
0.0
 40
0.0
 40
0.0
 40
0.0
 40
0.3457200652
 40
0.6451371001
 40
0.8696014744999999
 40
1.0
 40
1.0
 40
1.0
 40
1.0
 10
587.0438549064
 20
455.3719368949
 30
0.0
 10
587.1090086021999
 20
455.2940214137999
 30
0.0
 10
587.2236695299
 20
455.1431121523999
 30
0.0
 10
587.371834637
 20
454.9342545146
 30
0.0
 10
587.4706484226999
 20
454.7705295137999
 30
0.0
 10
587.5143247441999
 20
454.6732472537999
 30
0.0
 10
587.5192242358999
 20
454.6352529166
 30
0.0
  0
SPLINE
  5
3A5
330
213
100
AcDbEntity
  8
RUNDUNGEN
  6
Continuous
 62
     9
100
AcDbSpline
210
0.0
220
0.0
230
1.0
 70
     8
 71
     3
 72
     9
 73
     5
 74
     0
 42
0.0000000001
 43
0.0000000001
 40
0.0
 40
0.0
 40
0.0
 40
0.0
 40
0.5496699657999999
 40
1.0
 40
1.0
 40
1.0
 40
1.0
 10
587.0438549064
 20
455.3719368949
 30
0.0
 10
587.0438549063
 20
455.2309584977999
 30
0.0
 10
587.0345084333999
 20
454.9745318993
 30
0.0
 10
587.0049828874999
 20
454.7189664982
 30
0.0
 10
586.9814355180999
 20
454.6058924516999
 30
0.0
  0
SPLINE
  5
3A6
330
213
100
AcDbEntity
  8
RUNDUNGEN
  6
Continuous
 62
     9
100
AcDbSpline
210
0.0
220
0.0
230
1.0
 70
     8
 71
     3
 72
     9
 73
     5
 74
     0
 42
0.0000000001
 43
0.0000000001
 40
0.0
 40
0.0
 40
0.0
 40
0.0
 40
0.2225740407
 40
1.0
 40
1.0
 40
1.0
 40
1.0
 10
587.5192242358999
 20
454.6352529166
 30
0.0
 10
587.4837401426
 20
454.6155966172999
 30
0.0
 10
587.3120712103
 20
454.5488555455
 30
0.0
 10
587.1178792333999
 20
454.5677017599
 30
0.0
 10
586.9814355180999
 20
454.6058924516999
 30
0.0
  0
SPLINE
  5
3A7
330
213
100
AcDbEntity
  8
RUNDUNGEN
  6
Continuous
 62
     9
100
AcDbSpline
210
0.0
220
0.0
230
1.0
 70
     8
 71
     3
 72
     9
 73
     5
 74
     0
 42
0.0000000001
 43
0.0000000001
 40
0.0
 40
0.0
 40
0.0
 40
0.0
 40
0.1408982708
 40
1.0
 40
1.0
 40
1.0
 40
1.0
 10
588.8555010305999
 20
450.3365867867
 30
0.0
 10
588.8898805963999
 20
450.3370745524
 30
0.0
 10
589.1339036259999
 20
450.3388863706
 30
0.0
 10
589.3779303878
 20
450.3394347863999
 30
0.0
 10
589.5875743298001
 20
450.3398126886
 30
0.0
  0
SPLINE
  5
3A8
330
213
100
AcDbEntity
  8
RUNDUNGEN
  6
Continuous
 62
     9
100
AcDbSpline
210
0.0
220
0.0
230
1.0
 70
     8
 71
     3
 72
     9
 73
     5
 74
     0
 42
0.0000000001
 43
0.0000000001
 40
0.0
 40
0.0
 40
0.0
 40
0.0
 40
0.4511964811000001
 40
1.0
 40
1.0
 40
1.0
 40
1.0
 10
561.1453346071
 20
449.2679915703
 30
0.0
 10
561.1733522595
 20
449.1559804622
 30
0.0
 10
561.2089083462
 20
448.9014474252999
 30
0.0
 10
561.2202129818999
 20
448.6456128348
 30
0.0
 10
561.2203084204
 20
448.5051730291
 30
0.0
  0
SPLINE
  5
3AB
330
213
100
AcDbEntity
  8
RUNDUNGEN
  6
Continuous
 62
     9
100
AcDbSpline
210
0.0
220
0.0
230
1.0
 70
     8
 71
     3
 72
    10
 73
     6
 74
     0
 42
0.0000000001
 43
0.0000000001
 40
0.0
 40
0.0
 40
0.0
 40
0.0
 40
0.5004943339
 40
0.7496028244
 40
1.0
 40
1.0
 40
1.0
 40
1.0
 10
594.6372960018
 20
353.330189189
 30
0.0
 10
598.8397309687999
 20
353.3301890676999
 30
0.0
 10
605.1339174728999
 20
353.2995376117
 30
0.0
 10
613.5297031394999
 20
353.181178141
 30
0.0
 10
617.7229703001
 20
353.0949868523001
 30
0.0
 10
619.8249626024
 20
353.0498418533
 30
0.0
  0
SPLINE
  5
3AC
330
213
100
AcDbEntity
  8
RUNDUNGEN
  6
Continuous
 62
     9
100
AcDbSpline
210
0.0
220
0.0
230
1.0
 70
     8
 71
     3
 72
    11
 73
     7
 74
     0
 42
0.0000000001
 43
0.0000000001
 40
0.0
 40
0.0
 40
0.0
 40
0.0
 40
0.2542677448
 40
0.5056063876
 40
0.7534459928000001
 40
1.0
 40
1.0
 40
1.0
 40
1.0
 10
619.8249626024
 20
353.0498418533
 30
0.0
 10
620.0898956787
 20
353.0441319176
 30
0.0
 10
620.6254272736999
 20
353.137450365
 30
0.0
 10
621.2998967226999
 20
353.5808425997
 30
0.0
 10
621.7364054839999
 20
354.2494704879
 30
0.0
 10
621.8285661041
 20
354.7723746236
 30
0.0
 10
621.8242333655
 20
355.0292935336
 30
0.0
  0
SPLINE
  5
3AD
330
213
100
AcDbEntity
  8
RUNDUNGEN
  6
Continuous
 62
     9
100
AcDbSpline
210
0.0
220
0.0
230
1.0
 70
     8
 71
     3
 72
     9
 73
     5
 74
     0
 42
0.0000000001
 43
0.0000000001
 40
0.0
 40
0.0
 40
0.0
 40
0.0
 40
0.2488849597
 40
1.0
 40
1.0
 40
1.0
 40
1.0
 10
621.7351359732999
 20
361.0903367073
 30
0.0
 10
622.3822774883
 20
361.1124845898
 30
0.0
 10
624.9824719533998
 20
361.2005422643
 30
0.0
 10
627.5826961462001
 20
361.2878397881
 30
0.0
 10
629.5356041708
 20
361.3579228678
 30
0.0
  0
SPLINE
  5
3AE
330
213
100
AcDbEntity
  8
RUNDUNGEN
  6
Continuous
 62
     9
100
AcDbSpline
210
0.0
220
0.0
230
1.0
 70
     8
 71
     3
 72
     9
 73
     5
 74
     0
 42
0.0000000001
 43
0.0000000001
 40
0.0
 40
0.0
 40
0.0
 40
0.0
 40
0.5054581695
 40
1.0
 40
1.0
 40
1.0
 40
1.0
 10
629.5356041708
 20
361.3579228678
 30
0.0
 10
629.8933071379
 20
361.3707649573
 30
0.0
 10
630.6094504423001
 20
361.5944081674
 30
0.0
 10
631.0943406074
 20
362.1654377031
 30
0.0
 10
631.2425644961999
 20
362.4827261075
 30
0.0
  0
SPLINE
  5
3B0
330
213
100
AcDbEntity
  8
RUNDUNGEN
  6
Continuous
 62
     9
100
AcDbSpline
210
0.0
220
0.0
230
1.0
 70
     8
 71
     3
 72
    12
 73
     8
 74
     0
 42
0.0000000001
 43
0.0000000001
 40
0.0
 40
0.0
 40
0.0
 40
0.0
 40
0.2816954064
 40
0.5581410144
 40
0.8153109033999999
 40
0.9235571682999999
 40
1.0
 40
1.0
 40
1.0
 40
1.0
 10
591.1719617763999
 20
403.0079439687999
 30
0.0
 10
591.0582265023999
 20
402.9533923840999
 30
0.0
 10
590.83219324
 20
402.8466494358999
 30
0.0
 10
590.4993506125999
 20
402.6968572449
 30
0.0
 10
590.2343515195
 20
402.5846375116
 30
0.0
 10
590.0485025676
 20
402.5176564703
 30
0.0
 10
589.9689170988999
 20
402.4931561012
 30
0.0
 10
589.9350032873
 20
402.4885103155999
 30
0.0
  0
SPLINE
  5
3B1
330
213
100
AcDbEntity
  8
RUNDUNGEN
  6
Continuous
 62
     9
100
AcDbSpline
210
0.0
220
0.0
230
1.0
 70
     8
 71
     3
 72
    11
 73
     7
 74
     0
 42
0.0000000001
 43
0.0000000001
 40
0.0
 40
0.0
 40
0.0
 40
0.0
 40
0.243713118
 40
0.4919373554
 40
0.744865361
 40
1.0
 40
1.0
 40
1.0
 40
1.0
 10
589.9350324739999
 20
402.4885164686
 30
0.0
 10
590.0589542072
 20
402.488030488
 30
0.0
 10
590.3116406365
 20
402.4339757937
 30
0.0
 10
590.6288601456
 20
402.210102047
 30
0.0
 10
590.8426350208999
 20
401.8797889802999
 30
0.0
 10
590.8956698708
 20
401.6197747842999
 30
0.0
 10
590.8978073135
 20
401.4900621188999
 30
0.0
  0
SPLINE
  5
3B2
330
213
100
AcDbEntity
  8
RUNDUNGEN
  6
Continuous
 62
     9
100
AcDbSpline
210
0.0
220
0.0
230
1.0
 70
     8
 71
     3
 72
    11
 73
     7
 74
     0
 42
0.0000000001
 43
0.0000000001
 40
0.0
 40
0.0
 40
0.0
 40
0.0
 40
0.2551346401
 40
0.5080626465
 40
0.7562868843000001
 40
1.0
 40
1.0
 40
1.0
 40
1.0
 10
558.3767848383001
 20
401.4900621101999
 30
0.0
 10
558.3789222983999
 20
401.6197747605999
 30
0.0
 10
558.4319571385999
 20
401.8797889217999
 30
0.0
 10
558.6457319716999
 20
402.2101019606999
 30
0.0
 10
558.962951417
 20
402.4339757137999
 30
0.0
 10
559.2156378114999
 20
402.4880304273999
 30
0.0
 10
559.3395595289999
 20
402.4885164175
 30
0.0
  0
SPLINE
  5
3B3
330
213
100
AcDbEntity
  8
RUNDUNGEN
  6
Continuous
 62
     9
100
AcDbSpline
210
0.0
220
0.0
230
1.0
 70
     8
 71
     3
 72
    12
 73
     8
 74
     0
 42
0.0000000001
 43
0.0000000001
 40
0.0
 40
0.0
 40
0.0
 40
0.0
 40
0.0764373603
 40
0.1846846986
 40
0.4418470146000001
 40
0.718298511
 40
1.0
 40
1.0
 40
1.0
 40
1.0
 10
559.3396147111
 20
402.4885075378
 30
0.0
 10
559.3057026914999
 20
402.4931531376999
 30
0.0
 10
559.2261152187999
 20
402.5176433901999
 30
0.0
 10
559.0402650903
 20
402.5846188969
 30
0.0
 10
558.7752717044
 20
402.6968657584999
 30
0.0
 10
558.4424263765
 20
402.8466719437
 30
0.0
 10
558.2163612935
 20
402.9533717604
 30
0.0
 10
558.1026302355
 20
403.0079439646
 30
0.0
  0
SPLINE
  5
3B4
330
213
100
AcDbEntity
  8
RUNDUNGEN
  6
Continuous
 62
     9
100
AcDbSpline
210
0.0
220
0.0
230
1.0
 70
     8
 71
     3
 72
    11
 73
     7
 74
     0
 42
0.0000000001
 43
0.0000000001
 40
0.0
 40
0.0
 40
0.0
 40
0.0
 40
0.2533656516
 40
0.5054043981000001
 40
0.7542865284999999
 40
1.0
 40
1.0
 40
1.0
 40
1.0
 10
558.3926570995999
 20
401.4840596338999
 30
0.0
 10
558.3944199883999
 20
401.6140430341001
 30
0.0
 10
558.4479284434999
 20
401.8752651119
 30
0.0
 10
558.6656915798
 20
402.2062428019999
 30
0.0
 10
558.9887504276999
 20
402.4294832398
 30
0.0
 10
559.2452533634999
 20
402.4825786879
 30
0.0
 10
559.3713225356
 20
402.4826870451
 30
0.0
  0
SPLINE
  5
3B5
330
213
100
AcDbEntity
  8
RUNDUNGEN
  6
Continuous
 62
     9
100
AcDbSpline
210
0.0
220
0.0
230
1.0
 70
     8
 71
     3
 72
    11
 73
     7
 74
     0
 42
0.0000000001
 43
0.0000000001
 40
0.0
 40
0.0
 40
0.0
 40
0.0
 40
0.2533645866
 40
0.5054060348000001
 40
0.7542959162000001
 40
1.0
 40
1.0
 40
1.0
 40
1.0
 10
562.8638739587001
 20
400.5788501246
 30
0.0
 10
562.8659830180001
 20
400.7088025906999
 30
0.0
 10
562.9189404158999
 20
400.9699838705
 30
0.0
 10
563.1368496727999
 20
401.3009263897
 30
0.0
 10
563.4597490935
 20
401.5241174003
 30
0.0
 10
563.7161910865
 20
401.5774176216999
 30
0.0
 10
563.8422310077999
 20
401.5774796594
 30
0.0
  0
SPLINE
  5
3B6
330
213
100
AcDbEntity
  8
RUNDUNGEN
  6
Continuous
 62
     9
100
AcDbSpline
210
0.0
220
0.0
230
1.0
 70
     8
 71
     3
 72
    11
 73
     7
 74
     0
 42
0.0000000001
 43
0.0000000001
 40
0.0
 40
0.0
 40
0.0
 40
0.0
 40
0.3534608842
 40
0.6597472782000001
 40
0.8803793973000001
 40
1.0
 40
1.0
 40
1.0
 40
1.0
 10
564.0673271734999
 20
400.5788501247
 30
0.0
 10
564.0673271734999
 20
400.7024995962
 30
0.0
 10
564.0581853291
 20
400.9323180451999
 30
0.0
 10
564.0129101141999
 20
401.2420696207
 30
0.0
 10
563.9563849537
 20
401.4513679178
 30
0.0
 10
563.8830944628999
 20
401.5684635920999
 30
0.0
 10
563.8422310077999
 20
401.5774796594
 30
0.0
  0
SPLINE
  5
3B7
330
213
100
AcDbEntity
  8
RUNDUNGEN
  6
Continuous
 62
     9
100
AcDbSpline
210
0.0
220
0.0
230
1.0
 70
     8
 71
     3
 72
    11
 73
     7
 74
     0
 42
0.0000000001
 43
0.0000000001
 40
0.0
 40
0.0
 40
0.0
 40
0.0
 40
0.353460885
 40
0.6597472796
 40
0.880379398
 40
1.0
 40
1.0
 40
1.0
 40
1.0
 10
585.2072648294
 20
400.5788501247
 30
0.0
 10
585.2072648294
 20
400.7024995964999
 30
0.0
 10
585.2164066749
 20
400.932318046
 30
0.0
 10
585.2616818895
 20
401.2420696216999
 30
0.0
 10
585.3182070501999
 20
401.4513679185999
 30
0.0
 10
585.3914975409
 20
401.5684635920999
 30
0.0
 10
585.4323609957
 20
401.5774796594
 30
0.0
  0
SPLINE
  5
3B8
330
213
100
AcDbEntity
  8
RUNDUNGEN
  6
Continuous
 62
     9
100
AcDbSpline
210
0.0
220
0.0
230
1.0
 70
     8
 71
     3
 72
    11
 73
     7
 74
     0
 42
0.0000000001
 43
0.0000000001
 40
0.0
 40
0.0
 40
0.0
 40
0.0
 40
0.2533645915
 40
0.5054060414000001
 40
0.7542959206999999
 40
1.0
 40
1.0
 40
1.0
 40
1.0
 10
586.4107180449
 20
400.5788501246
 30
0.0
 10
586.4086089753
 20
400.7088025930999
 30
0.0
 10
586.3556515921
 20
400.9699838773
 30
0.0
 10
586.1377423230999
 20
401.3009263955
 30
0.0
 10
585.8148429049999
 20
401.5241174031999
 30
0.0
 10
585.5584009148
 20
401.5774176209999
 30
0.0
 10
585.4323609957
 20
401.5774796594
 30
0.0
  0
SPLINE
  5
3B9
330
213
100
AcDbEntity
  8
RUNDUNGEN
  6
Continuous
 62
     9
100
AcDbSpline
210
0.0
220
0.0
230
1.0
 70
     8
 71
     3
 72
    11
 73
     7
 74
     0
 42
0.0000000001
 43
0.0000000001
 40
0.0
 40
0.0
 40
0.0
 40
0.0
 40
0.2533656429
 40
0.5054043891
 40
0.7542865267000001
 40
1.0
 40
1.0
 40
1.0
 40
1.0
 10
590.8819337583
 20
401.4840596338999
 30
0.0
 10
590.8801708698
 20
401.6140430569
 30
0.0
 10
590.8266625598001
 20
401.8752651735
 30
0.0
 10
590.6088999137
 20
402.2062432362999
 30
0.0
 10
590.2858415000999
 20
402.4294844163
 30
0.0
 10
590.0293386401
 20
402.4825805019999
 30
0.0
 10
589.9032694408
 20
402.4826891686
 30
0.0
  0
SPLINE
  5
3BA
330
213
100
AcDbEntity
  8
RUNDUNGEN
  6
Continuous
 62
     9
100
AcDbSpline
210
0.0
220
0.0
230
1.0
 70
     8
 71
     3
 72
    10
 73
     6
 74
     0
 42
0.0000000001
 43
0.0000000001
 40
0.0
 40
0.0
 40
0.0
 40
0.0
 40
0.3947401679
 40
0.6535922557000001
 40
1.0
 40
1.0
 40
1.0
 40
1.0
 10
588.276664014
 20
396.3846965740001
 30
0.0
 10
588.1412307351
 20
396.1759927018
 30
0.0
 10
587.8412346748
 20
395.8770432357
 30
0.0
 10
587.3037535024999
 20
395.5496947554
 30
0.0
 10
586.9259473483
 20
395.4306196493
 30
0.0
 10
586.7076509826
 20
395.4266096014
 30
0.0
  0
SPLINE
  5
3BB
330
213
100
AcDbEntity
  8
RUNDUNGEN
  6
Continuous
 62
     9
100
AcDbSpline
210
0.0
220
0.0
230
1.0
 70
     8
 71
     3
 72
    11
 73
     7
 74
     0
 42
0.0000000001
 43
0.0000000001
 40
0.0
 40
0.0
 40
0.0
 40
0.0
 40
0.245853807
 40
0.4943762024
 40
0.7461835523999999
 40
1.0
 40
1.0
 40
1.0
 40
1.0
 10
585.4406467943
 20
395.5106642593
 30
0.0
 10
585.5665266501
 20
395.5106846545
 30
0.0
 10
585.8224983494999
 20
395.5636062045
 30
0.0
 10
586.1441376133
 20
395.7873163553
 30
0.0
 10
586.3593536254
 20
396.1192255423
 30
0.0
 10
586.4098128370999
 20
396.38055829
 30
0.0
 10
586.4107180449
 20
396.5105119545
 30
0.0
  0
SPLINE
  5
3BC
330
213
100
AcDbEntity
  8
RUNDUNGEN
  6
Continuous
 62
     9
100
AcDbSpline
210
0.0
220
0.0
230
1.0
 70
     8
 71
     3
 72
    12
 73
     8
 74
     0
 42
0.0000000001
 43
0.0000000001
 40
0.0
 40
0.0
 40
0.0
 40
0.0
 40
0.1142973885
 40
0.2105611732
 40
0.3329232843
 40
0.6414546599000001
 40
1.0
 40
1.0
 40
1.0
 40
1.0
 10
585.4406467943
 20
395.5106642593
 30
0.0
 10
585.4004762485
 20
395.5136162536
 30
0.0
 10
585.3477703331999
 20
395.5878219184
 30
0.0
 10
585.3061465829999
 20
395.6919707296
 30
0.0
 10
585.2560682182
 20
395.8736292001
 30
0.0
 10
585.2179154205
 20
396.1486006463
 30
0.0
 10
585.2072648294
 20
396.3841591149
 30
0.0
 10
585.2072648294
 20
396.5105119545
 30
0.0
  0
SPLINE
  5
3BD
330
213
100
AcDbEntity
  8
RUNDUNGEN
  6
Continuous
 62
     9
100
AcDbSpline
210
0.0
220
0.0
230
1.0
 70
     8
 71
     3
 72
    12
 73
     8
 74
     0
 42
0.0000000001
 43
0.0000000001
 40
0.0
 40
0.0
 40
0.0
 40
0.0
 40
0.1142973884
 40
0.2105611732
 40
0.3329232842
 40
0.6414546599000001
 40
1.0
 40
1.0
 40
1.0
 40
1.0
 10
563.8339452093
 20
395.5106642593
 30
0.0
 10
563.8741157551
 20
395.5136162536
 30
0.0
 10
563.9268216704
 20
395.5878219184
 30
0.0
 10
563.9684454205
 20
395.6919707296
 30
0.0
 10
564.0185237854
 20
395.8736292001
 30
0.0
 10
564.0566765830999
 20
396.1486006463
 30
0.0
 10
564.0673271741999
 20
396.3841591149
 30
0.0
 10
564.0673271741999
 20
396.5105119545
 30
0.0
  0
SPLINE
  5
3BE
330
213
100
AcDbEntity
  8
RUNDUNGEN
  6
Continuous
 62
     9
100
AcDbSpline
210
0.0
220
0.0
230
1.0
 70
     8
 71
     3
 72
    11
 73
     7
 74
     0
 42
0.0000000001
 43
0.0000000001
 40
0.0
 40
0.0
 40
0.0
 40
0.0
 40
0.2458538137
 40
0.4943762122
 40
0.7461835596
 40
1.0
 40
1.0
 40
1.0
 40
1.0
 10
563.8339452093
 20
395.5106642593
 30
0.0
 10
563.7080653501
 20
395.5106846542
 30
0.0
 10
563.4520936464999
 20
395.5636062081
 30
0.0
 10
563.1304543790999
 20
395.787316364
 30
0.0
 10
562.9152383844999
 20
396.119225552
 30
0.0
 10
562.8647791516
 20
396.3805582936
 30
0.0
 10
562.8638739587001
 20
396.5105119545
 30
0.0
  0
SPLINE
  5
3BF
330
213
100
AcDbEntity
  8
RUNDUNGEN
  6
Continuous
 62
     9
100
AcDbSpline
210
0.0
220
0.0
230
1.0
 70
     8
 71
     3
 72
    10
 73
     6
 74
     0
 42
0.0000000001
 43
0.0000000001
 40
0.0
 40
0.0
 40
0.0
 40
0.0
 40
0.3464124523
 40
0.6052636321
 40
1.0
 40
1.0
 40
1.0
 40
1.0
 10
562.5669410209999
 20
395.4266096014
 30
0.0
 10
562.3486416908
 20
395.4306196238
 30
0.0
 10
561.97083312
 20
395.549697155
 30
0.0
 10
561.433353915
 20
395.8770472017
 30
0.0
 10
561.1333562641
 20
396.1759923148001
 30
0.0
 10
560.9979279896
 20
396.3846965740001
 30
0.0
  0
SPLINE
  5
3C0
330
213
100
AcDbEntity
  8
RUNDUNGEN
  6
Continuous
 62
     9
100
AcDbSpline
210
0.0
220
0.0
230
1.0
 70
     8
 71
     3
 72
    10
 73
     6
 74
     0
 42
0.0000000001
 43
0.0000000001
 40
0.0
 40
0.0
 40
0.0
 40
0.0
 40
0.1386339828
 40
0.3511942047
 40
1.0
 40
1.0
 40
1.0
 40
1.0
 10
589.4264179163
 20
374.076042919
 30
0.0
 10
589.4552716099
 20
374.0815044391001
 30
0.0
 10
589.5166938881
 20
374.1347508859
 30
0.0
 10
589.6084205613
 20
374.3251118638
 30
0.0
 10
589.6438371498
 20
374.5079115884
 30
0.0
 10
589.6618306441999
 20
374.6441613566
 30
0.0
  0
SPLINE
  5
3C1
330
213
100
AcDbEntity
  8
RUNDUNGEN
  6
Continuous
 62
     9
100
AcDbSpline
210
0.0
220
0.0
230
1.0
 70
     8
 71
     3
 72
    11
 73
     7
 74
     0
 42
0.0000000001
 43
0.0000000001
 40
0.0
 40
0.0
 40
0.0
 40
0.0
 40
0.2456969364
 40
0.4945826668000001
 40
0.7466286454000001
 40
1.0
 40
1.0
 40
1.0
 40
1.0
 10
589.4264179169
 20
374.0760429191
 30
0.0
 10
589.3002159226
 20
374.0758171539
 30
0.0
 10
589.0432985493999
 20
374.1287138682
 30
0.0
 10
588.7197429865
 20
374.3517820225
 30
0.0
 10
588.5009500441999
 20
374.6829955259
 30
0.0
 10
588.4486081221999
 20
374.9445543985
 30
0.0
 10
588.4460015762
 20
375.0746724539
 30
0.0
  0
SPLINE
  5
3C2
330
213
100
AcDbEntity
  8
RUNDUNGEN
  6
Continuous
 62
     9
100
AcDbSpline
210
0.0
220
0.0
230
1.0
 70
     8
 71
     3
 72
    11
 73
     7
 74
     0
 42
0.0000000001
 43
0.0000000001
 40
0.0
 40
0.0
 40
0.0
 40
0.0
 40
0.2457091995
 40
0.4945870052
 40
0.7466277202000001
 40
1.0
 40
1.0
 40
1.0
 40
1.0
 10
588.1720929934999
 20
373.8220870381
 30
0.0
 10
588.0458777351
 20
373.8219462741
 30
0.0
 10
587.7889653481999
 20
373.8746661638
 30
0.0
 10
587.4652444249
 20
374.0977998907
 30
0.0
 10
587.246981909
 20
374.4290374443
 30
0.0
 10
587.1933473883
 20
374.6905768488
 30
0.0
 10
587.191582531
 20
374.8207165729
 30
0.0
  0
SPLINE
  5
3C3
330
213
100
AcDbEntity
  8
RUNDUNGEN
  6
Continuous
 62
     9
100
AcDbSpline
210
0.0
220
0.0
230
1.0
 70
     8
 71
     3
 72
    11
 73
     7
 74
     0
 42
0.0000000001
 43
0.0000000001
 40
0.0
 40
0.0
 40
0.0
 40
0.0
 40
0.1220976344
 40
0.3372955677
 40
0.6390863567000001
 40
1.0
 40
1.0
 40
1.0
 40
1.0
 10
585.7446685201
 20
373.7142107384999
 30
0.0
 10
585.778861933
 20
373.721714447
 30
0.0
 10
585.8446651642999
 20
373.8097927862
 30
0.0
 10
585.8989777637999
 20
373.9793125061
 30
0.0
 10
585.9464208109
 20
374.2296947357
 30
0.0
 10
585.9617991729
 20
374.4186636824
 30
0.0
 10
585.9665976098
 20
374.5220312778
 30
0.0
  0
SPLINE
  5
3C4
330
213
100
AcDbEntity
  8
RUNDUNGEN
  6
Continuous
 62
     9
100
AcDbSpline
210
0.0
220
0.0
230
1.0
 70
     8
 71
     3
 72
    11
 73
     7
 74
     0
 42
0.0000000001
 43
0.0000000001
 40
0.0
 40
0.0
 40
0.0
 40
0.0
 40
0.1220976474
 40
0.337295579
 40
0.6390863620000001
 40
1.0
 40
1.0
 40
1.0
 40
1.0
 10
563.5299234834999
 20
373.7142107384999
 30
0.0
 10
563.4957300658999
 20
373.7217144456
 30
0.0
 10
563.4299268168
 20
373.8097927762
 30
0.0
 10
563.3756142141
 20
373.9793125047
 30
0.0
 10
563.3281711729
 20
374.2296947338
 30
0.0
 10
563.3127928228
 20
374.418663682
 30
0.0
 10
563.3079943937999
 20
374.5220312778
 30
0.0
  0
SPLINE
  5
3C5
330
213
100
AcDbEntity
  8
RUNDUNGEN
  6
Continuous
 62
     9
100
AcDbSpline
210
0.0
220
0.0
230
1.0
 70
     8
 71
     3
 72
    11
 73
     7
 74
     0
 42
0.0000000001
 43
0.0000000001
 40
0.0
 40
0.0
 40
0.0
 40
0.0
 40
0.2457091974
 40
0.4945869966
 40
0.7466277122000001
 40
1.0
 40
1.0
 40
1.0
 40
1.0
 10
561.1024990384
 20
373.8220889769
 30
0.0
 10
561.228714283
 20
373.8219478981
 30
0.0
 10
561.4856267769
 20
373.8746671646
 30
0.0
 10
561.8093481431999
 20
374.0978002173001
 30
0.0
 10
562.0276111273
 20
374.4290374632
 30
0.0
 10
562.0812457819
 20
374.6905768575
 30
0.0
 10
562.0830106383
 20
374.8207165729
 30
0.0
  0
SPLINE
  5
3C6
330
213
100
AcDbEntity
  8
RUNDUNGEN
  6
Continuous
 62
     9
100
AcDbSpline
210
0.0
220
0.0
230
1.0
 70
     8
 71
     3
 72
    11
 73
     7
 74
     0
 42
0.0000000001
 43
0.0000000001
 40
0.0
 40
0.0
 40
0.0
 40
0.0
 40
0.2456969363
 40
0.4945826667000001
 40
0.7466286453000001
 40
1.0
 40
1.0
 40
1.0
 40
1.0
 10
559.8481740866999
 20
374.0760429191
 30
0.0
 10
559.9743760809999
 20
374.0758171539
 30
0.0
 10
560.2312934541999
 20
374.1287138682
 30
0.0
 10
560.5548490169999
 20
374.3517820225
 30
0.0
 10
560.7736419594999
 20
374.6829955258001
 30
0.0
 10
560.8259838812999
 20
374.9445543985
 30
0.0
 10
560.8285904273999
 20
375.0746724539
 30
0.0
  0
SPLINE
  5
3C7
330
213
100
AcDbEntity
  8
RUNDUNGEN
  6
Continuous
 62
     9
100
AcDbSpline
210
0.0
220
0.0
230
1.0
 70
     8
 71
     3
 72
    10
 73
     6
 74
     0
 42
0.0000000001
 43
0.0000000001
 40
0.0
 40
0.0
 40
0.0
 40
0.0
 40
0.1386339833
 40
0.3511942051
 40
1.0
 40
1.0
 40
1.0
 40
1.0
 10
559.8481740866999
 20
374.0760429191
 30
0.0
 10
559.8193203931999
 20
374.0815044392
 30
0.0
 10
559.7578981148999
 20
374.1347508849
 30
0.0
 10
559.6661714412999
 20
374.3251118616
 30
0.0
 10
559.6307548583999
 20
374.5079115859
 30
0.0
 10
559.6127613641
 20
374.6441613531
 30
0.0
  0
LINE
  5
3C9
330
213
100
AcDbEntity
  8
RUNDUNGEN
  6
Continuous
 62
     9
100
AcDbLine
 10
562.0830191853
 20
374.8207146066001
 30
0.0
 11
560.9979279896
 21
396.3846965740001
 31
0.0
  0
SPLINE
  5
3CA
330
213
100
AcDbEntity
  8
RUNDUNGEN
  6
Continuous
 62
     9
100
AcDbSpline
210
0.0
220
0.0
230
1.0
 70
     8
 71
     3
 72
    11
 73
     7
 74
     0
 42
0.0000000001
 43
0.0000000001
 40
0.0
 40
0.0
 40
0.0
 40
0.0
 40
0.1545618564
 40
0.3869852911
 40
0.6815849518000002
 40
1.0
 40
1.0
 40
1.0
 40
1.0
 10
562.0830196307999
 20
374.8207057654
 30
0.0
 10
562.1280156435999
 20
374.7724945025
 30
0.0
 10
562.2778163719
 20
374.6914532982
 30
0.0
 10
562.5539814924
 20
374.6035435855
 30
0.0
 10
562.9106917319999
 20
374.5400652672
 30
0.0
 10
563.1721537217999
 20
374.5225741843
 30
0.0
 10
563.3080103524999
 20
374.5220305308
 30
0.0
  0
SPLINE
  5
3CB
330
213
100
AcDbEntity
  8
RUNDUNGEN
  6
Continuous
 62
     9
100
AcDbSpline
210
0.0
220
0.0
230
1.0
 70
     8
 71
     3
 72
    12
 73
     8
 74
     0
 42
0.0000000001
 43
0.0000000001
 40
0.0
 40
0.0
 40
0.0
 40
0.0
 40
0.1359469044
 40
0.2688998461
 40
0.3970531981
 40
0.5218869217000001
 40
1.0
 40
1.0
 40
1.0
 40
1.0
 10
562.317439067
 20
394.2361292955
 30
0.0
 10
562.1975982697001
 20
394.2411029553
 30
0.0
 10
561.9684389487999
 20
394.3492323018
 30
0.0
 10
561.7225053469
 20
394.5992196304
 30
0.0
 10
561.5267964664
 20
394.8798600487
 30
0.0
 10
561.223333723
 20
395.4495790442
 30
0.0
 10
561.0698188008
 20
395.9690355516
 30
0.0
 10
560.9979279896
 20
396.3846965740001
 30
0.0
  0
SPLINE
  5
3CC
330
213
100
AcDbEntity
  8
RUNDUNGEN
  6
Continuous
 62
     9
100
AcDbSpline
210
0.0
220
0.0
230
1.0
 70
     8
 71
     3
 72
    11
 73
     7
 74
     0
 42
0.0000000001
 43
0.0000000001
 40
0.0
 40
0.0
 40
0.0
 40
0.0
 40
0.318414735
 40
0.6130143302000001
 40
0.8454373112999999
 40
1.0
 40
1.0
 40
1.0
 40
1.0
 10
585.9665815531999
 20
374.5220305265001
 30
0.0
 10
586.1024380725999
 20
374.5225741988
 30
0.0
 10
586.3638999594999
 20
374.5400652912
 30
0.0
 10
586.7206098398001
 20
374.6035435048
 30
0.0
 10
586.9967754157999
 20
374.6914528508999
 30
0.0
 10
587.1465759768
 20
374.7724944979
 30
0.0
 10
587.1915724418999
 20
374.8207058393
 30
0.0
  0
LINE
  5
3CD
330
213
100
AcDbEntity
  8
RUNDUNGEN
  6
Continuous
 62
     9
100
AcDbLine
 10
588.276664014
 20
396.3846965740001
 30
0.0
 11
587.1915728843
 21
374.82071462
 31
0.0
  0
SPLINE
  5
3CE
330
213
100
AcDbEntity
  8
RUNDUNGEN
  6
Continuous
 62
     9
100
AcDbSpline
210
0.0
220
0.0
230
1.0
 70
     8
 71
     3
 72
    12
 73
     8
 74
     0
 42
0.0000000001
 43
0.0000000001
 40
0.0
 40
0.0
 40
0.0
 40
0.0
 40
0.4781171545000001
 40
0.6029511972
 40
0.7311047052
 40
0.8640570966
 40
1.0
 40
1.0
 40
1.0
 40
1.0
 10
588.276664014
 20
396.3846965740001
 30
0.0
 10
588.2047734279
 20
395.9690318901
 30
0.0
 10
588.0512544249
 20
395.4495727085
 30
0.0
 10
587.7477903116
 20
394.8798495105
 30
0.0
 10
587.5520780903999
 20
394.5992121776
 30
0.0
 10
587.306146346
 20
394.349225864
 30
0.0
 10
587.0769900202
 20
394.2411071224
 30
0.0
 10
586.9571529365999
 20
394.2361292955
 30
0.0
  0
SPLINE
  5
3CF
330
213
100
AcDbEntity
  8
RUNDUNGEN
  6
Continuous
 62
     9
100
AcDbSpline
210
0.0
220
0.0
230
1.0
 70
     8
 71
     3
 72
    10
 73
     6
 74
     0
 42
0.0000000001
 43
0.0000000001
 40
0.0
 40
0.0
 40
0.0
 40
0.0
 40
0.1768007876
 40
0.4195094124
 40
1.0
 40
1.0
 40
1.0
 40
1.0
 10
588.4460015762
 20
375.0746724539
 30
0.0
 10
588.4833045084
 20
375.0059151056
 30
0.0
 10
588.6306433979
 20
374.8792632036
 30
0.0
 10
589.0342923019999
 20
374.6986147851
 30
0.0
 10
589.4050030580999
 20
374.6422165768
 30
0.0
 10
589.6618306394999
 20
374.6441613531
 30
0.0
  0
SPLINE
  5
3D0
330
213
100
AcDbEntity
  8
RUNDUNGEN
  6
Continuous
 62
     9
100
AcDbSpline
210
0.0
220
0.0
230
1.0
 70
     8
 71
     3
 72
    10
 73
     6
 74
     0
 42
0.0000000001
 43
0.0000000001
 40
0.0
 40
0.0
 40
0.0
 40
0.0
 40
0.5805840020000001
 40
0.823216912
 40
1.0
 40
1.0
 40
1.0
 40
1.0
 10
592.0397019665
 20
393.9223987315001
 30
0.0
 10
591.7832908545
 20
393.9207437401
 30
0.0
 10
591.4132770674999
 20
393.9772136014
 30
0.0
 10
591.0104869786001
 20
394.1578540112999
 30
0.0
 10
590.8634971248999
 20
394.284283076
 30
0.0
 10
590.8262632958999
 20
394.3529097151
 30
0.0
  0
SPLINE
  5
3D1
330
213
100
AcDbEntity
  8
RUNDUNGEN
  6
Continuous
 62
     9
100
AcDbSpline
210
0.0
220
0.0
230
1.0
 70
     8
 71
     3
 72
     8
 73
     4
 74
     0
 42
0.0000000001
 43
0.0000000001
 40
0.0
 40
0.0
 40
0.0
 40
0.0
 40
1.0
 40
1.0
 40
1.0
 40
1.0
 10
590.8978190883
 20
401.4900587058999
 30
0.0
 10
590.8924686808999
 20
401.4882120619999
 30
0.0
 10
590.8871574952
 20
401.4862389744999
 30
0.0
 10
590.8819337583
 20
401.4840596338999
 30
0.0
  0
SPLINE
  5
3D2
330
213
100
AcDbEntity
  8
RUNDUNGEN
  6
Continuous
 62
     9
100
AcDbSpline
210
0.0
220
0.0
230
1.0
 70
     8
 71
     3
 72
     9
 73
     5
 74
     0
 42
0.0000000001
 43
0.0000000001
 40
0.0
 40
0.0
 40
0.0
 40
0.0
 40
0.3167919623
 40
1.0
 40
1.0
 40
1.0
 40
1.0
 10
592.1167958787999
 20
395.2042542029
 30
0.0
 10
591.9858437283998
 20
395.2042472019
 30
0.0
 10
591.5724781786
 20
395.204862819
 30
0.0
 10
591.159088052
 20
395.2039598829
 30
0.0
 10
590.8766925933999
 20
395.2074801048
 30
0.0
  0
SPLINE
  5
3D3
330
213
100
AcDbEntity
  8
RUNDUNGEN
  6
Continuous
 62
     9
100
AcDbSpline
210
0.0
220
0.0
230
1.0
 70
     8
 71
     3
 72
    13
 73
     9
 74
     0
 42
0.0000000001
 43
0.0000000001
 40
0.0
 40
0.0
 40
0.0
 40
0.0
 40
0.0691933294
 40
0.1724409201
 40
0.2948608057999999
 40
0.4277114461
 40
0.7090309312000001
 40
1.0
 40
1.0
 40
1.0
 40
1.0
 10
590.8978190883
 20
401.4900587058999
 30
0.0
 10
590.9256889821
 20
401.499627032
 30
0.0
 10
590.9819485312
 20
401.5517182408
 30
0.0
 10
591.0635854550999
 20
401.6451160509999
 30
0.0
 10
591.1546016916
 20
401.7685736154
 30
0.0
 10
591.2829543883
 20
401.9573772631999
 30
0.0
 10
591.4414331476
 20
402.2127237363999
 30
0.0
 10
591.5635276740999
 20
402.4236315520999
 30
0.0
 10
591.6243403922
 20
402.5315945242999
 30
0.0
  0
SPLINE
  5
3D4
330
213
100
AcDbEntity
  8
RUNDUNGEN
  6
Continuous
 62
     9
100
AcDbSpline
210
0.0
220
0.0
230
1.0
 70
     8
 71
     3
 72
     8
 73
     4
 74
     0
 42
0.0000000001
 43
0.0000000001
 40
0.0
 40
0.0
 40
0.0
 40
0.0
 40
1.0
 40
1.0
 40
1.0
 40
1.0
 10
558.3926582453
 20
401.4840596338999
 30
0.0
 10
558.3874345121
 20
401.4862389773
 30
0.0
 10
558.3821233273
 20
401.4882120612999
 30
0.0
 10
558.3767729219
 20
401.4900587037
 30
0.0
  0
SPLINE
  5
3D5
330
213
100
AcDbEntity
  8
RUNDUNGEN
  6
Continuous
 62
     9
100
AcDbSpline
210
0.0
220
0.0
230
1.0
 70
     8
 71
     3
 72
    13
 73
     9
 74
     0
 42
0.0000000001
 43
0.0000000001
 40
0.0
 40
0.0
 40
0.0
 40
0.0
 40
0.2909673023999999
 40
0.5722775464000001
 40
0.7051229123000001
 40
0.8275626901
 40
0.9308182437000001
 40
1.0
 40
1.0
 40
1.0
 40
1.0
 10
557.6502516162
 20
402.5315945162
 30
0.0
 10
557.7110574058
 20
402.4236283696
 30
0.0
 10
557.833153306
 20
402.2127256657999
 30
0.0
 10
557.9916721971
 20
401.9574126648
 30
0.0
 10
558.1200597786
 20
401.768627661
 30
0.0
 10
558.2110059629
 20
401.6451168775
 30
0.0
 10
558.2926106966
 20
401.5516533398
 30
0.0
 10
558.3489160787999
 20
401.4996499163999
 30
0.0
 10
558.3767729219
 20
401.4900587037
 30
0.0
  0
SPLINE
  5
3D6
330
213
100
AcDbEntity
  8
RUNDUNGEN
  6
Continuous
 62
     9
100
AcDbSpline
210
0.0
220
0.0
230
1.0
 70
     8
 71
     3
 72
     9
 73
     5
 74
     0
 42
0.0000000001
 43
0.0000000001
 40
0.0
 40
0.0
 40
0.0
 40
0.0
 40
0.3167919334
 40
1.0
 40
1.0
 40
1.0
 40
1.0
 10
557.1577961902
 20
395.2042542037
 30
0.0
 10
557.2887483217999
 20
395.2042472027
 30
0.0
 10
557.7021138498
 20
395.2048628194
 30
0.0
 10
558.1155039545
 20
395.2039598854
 30
0.0
 10
558.3978994101999
 20
395.2074801048
 30
0.0
  0
SPLINE
  5
3D7
330
213
100
AcDbEntity
  8
RUNDUNGEN
  6
Continuous
 62
     9
100
AcDbSpline
210
0.0
220
0.0
230
1.0
 70
     8
 71
     3
 72
    10
 73
     6
 74
     0
 42
0.0000000001
 43
0.0000000001
 40
0.0
 40
0.0
 40
0.0
 40
0.0
 40
0.5805840316
 40
0.8232169325
 40
1.0
 40
1.0
 40
1.0
 40
1.0
 10
557.2348899705999
 20
393.9223986158
 30
0.0
 10
557.4913011197
 20
393.9207436237
 30
0.0
 10
557.8613149538999
 20
393.9772135038
 30
0.0
 10
558.2641050644
 20
394.1578539654
 30
0.0
 10
558.4110949024
 20
394.2842830651
 30
0.0
 10
558.4483287076999
 20
394.3529097151
 30
0.0
  0
SPLINE
  5
3D8
330
213
100
AcDbEntity
  8
RUNDUNGEN
  6
Continuous
 62
     9
100
AcDbSpline
210
0.0
220
0.0
230
1.0
 70
     8
 71
     3
 72
    10
 73
     6
 74
     0
 42
0.0000000001
 43
0.0000000001
 40
0.0
 40
0.0
 40
0.0
 40
0.0
 40
0.5804905878
 40
0.8231992125000001
 40
1.0
 40
1.0
 40
1.0
 40
1.0
 10
559.6127613641
 20
374.6441613531
 30
0.0
 10
559.8695889463999
 20
374.6422167003
 30
0.0
 10
560.240299703
 20
374.6986147586
 30
0.0
 10
560.6439486033999
 20
374.8792632095
 30
0.0
 10
560.7912874951999
 20
375.0059151057
 30
0.0
 10
560.8285904273999
 20
375.0746724539
 30
0.0
  0
LINE
  5
3D9
330
213
100
AcDbEntity
  8
RUNDUNGEN
  6
Continuous
 62
     9
100
AcDbLine
 10
563.3080103151
 20
374.5220312778
 30
0.0
 11
562.3174390666
 21
394.2361292956
 31
0.0
  0
LINE
  5
3DA
330
213
100
AcDbEntity
  8
RUNDUNGEN
  6
Continuous
 62
     9
100
AcDbLine
 10
586.9571529369999
 20
394.2361292956
 30
0.0
 11
585.9665815908
 21
374.5220312778
 31
0.0
  0
LINE
  5
3DB
330
213
100
AcDbEntity
  8
RUNDUNGEN
  6
Continuous
 62
     9
100
AcDbLine
 10
586.6896376451999
 20
395.4264468144001
 30
0.0
 11
585.4406467943
 21
395.5106642593
 31
0.0
  0
LINE
  5
3DC
330
213
100
AcDbEntity
  8
RUNDUNGEN
  6
Continuous
 62
     9
100
AcDbLine
 10
563.8339452093
 20
395.5106642593
 30
0.0
 11
562.5849543583999
 21
395.4264468144001
 31
0.0
  0
SPLINE
  5
3DD
330
213
100
AcDbEntity
  8
RUNDUNGEN
  6
Continuous
 62
     9
100
AcDbSpline
210
0.0
220
0.0
230
1.0
 70
     8
 71
     3
 72
     8
 73
     4
 74
     0
 42
0.0000000001
 43
0.0000000001
 40
0.0
 40
0.0
 40
0.0
 40
0.0
 40
1.0
 40
1.0
 40
1.0
 40
1.0
 10
559.3713225627999
 20
402.4826891686999
 30
0.0
 10
559.3607727983999
 20
402.4848271088999
 30
0.0
 10
559.3501758326
 20
402.4867353481999
 30
0.0
 10
559.3395594909
 20
402.4885134388999
 30
0.0
  0
LINE
  5
3DE
330
213
100
AcDbEntity
  8
RUNDUNGEN
  6
Continuous
 62
     9
100
AcDbLine
 10
563.8422310077999
 20
401.5774796594
 30
0.0
 11
559.3713225627999
 21
402.4826891686999
 31
0.0
  0
LINE
  5
3DF
330
213
100
AcDbEntity
  8
RUNDUNGEN
  6
Continuous
 62
     9
100
AcDbLine
 10
589.9032694408
 20
402.4826891686999
 30
0.0
 11
585.4323609957
 21
401.5774796594
 31
0.0
  0
SPLINE
  5
3E0
330
213
100
AcDbEntity
  8
RUNDUNGEN
  6
Continuous
 62
     9
100
AcDbSpline
210
0.0
220
0.0
230
1.0
 70
     8
 71
     3
 72
     8
 73
     4
 74
     0
 42
0.0000000001
 43
0.0000000001
 40
0.0
 40
0.0
 40
0.0
 40
0.0
 40
1.0
 40
1.0
 40
1.0
 40
1.0
 10
589.9350325127
 20
402.4885134388999
 30
0.0
 10
589.9244161705
 20
402.486735351
 30
0.0
 10
589.9138192061
 20
402.4848271047
 30
0.0
 10
589.9032694408
 20
402.4826891686999
 30
0.0
  0
LINE
  5
3E1
330
213
100
AcDbEntity
  8
RUNDUNGEN
  6
Continuous
 62
     9
100
AcDbLine
 10
587.1915728843
 20
374.82071462
 30
0.0
 11
588.4460015762
 21
375.0746724539
 31
0.0
  0
LINE
  5
3E2
330
213
100
AcDbEntity
  8
RUNDUNGEN
  6
Continuous
 62
     9
100
AcDbLine
 10
588.4460015762
 20
375.0746724539
 30
0.0
 11
590.8262632958999
 21
394.3529097151
 31
0.0
  0
SPLINE
  5
3E3
330
213
100
AcDbEntity
  8
RUNDUNGEN
  6
Continuous
 62
     9
100
AcDbSpline
210
0.0
220
0.0
230
1.0
 70
     8
 71
     3
 72
     9
 73
     5
 74
     0
 42
0.0000000001
 43
0.0000000001
 40
0.0
 40
0.0
 40
0.0
 40
0.0
 40
0.2398401366
 40
1.0
 40
1.0
 40
1.0
 40
1.0
 10
590.8262632958999
 20
394.3529097151
 30
0.0
 10
590.8346525386
 20
394.4208565807
 30
0.0
 10
590.8646103576
 20
394.7047648969999
 30
0.0
 10
590.8765116966999
 20
394.9904911526001
 30
0.0
 10
590.8766925933999
 20
395.2074801048
 30
0.0
  0
LINE
  5
3E4
330
213
100
AcDbEntity
  8
RUNDUNGEN
  6
Continuous
 62
     9
100
AcDbLine
 10
590.8819337583
 20
401.4840596338999
 30
0.0
 11
586.4107180450999
 21
400.5788501247
 31
0.0
  0
LINE
  5
3E5
330
213
100
AcDbEntity
  8
RUNDUNGEN
  6
Continuous
 62
     9
100
AcDbLine
 10
588.276664014
 20
396.3846965740001
 30
0.0
 11
586.4107180450999
 21
396.5105119545
 31
0.0
  0
LINE
  5
3E6
330
213
100
AcDbEntity
  8
RUNDUNGEN
  6
Continuous
 62
     9
100
AcDbLine
 10
562.8638739584999
 20
400.5788501247
 30
0.0
 11
558.3926582453
 21
401.4840596338999
 31
0.0
  0
SPLINE
  5
3E8
330
213
100
AcDbEntity
  8
RUNDUNGEN
  6
Continuous
 62
     9
100
AcDbSpline
210
0.0
220
0.0
230
1.0
 70
     8
 71
     3
 72
     9
 73
     5
 74
     0
 42
0.0000000001
 43
0.0000000001
 40
0.0
 40
0.0
 40
0.0
 40
0.0
 40
0.2574377726
 40
1.0
 40
1.0
 40
1.0
 40
1.0
 10
558.3978994101999
 20
395.2074801048
 30
0.0
 10
558.3979606720999
 20
395.1339952317
 30
0.0
 10
558.4023057037
 20
394.8485839415
 30
0.0
 10
558.4223554312999
 20
394.5632746792
 30
0.0
 10
558.4483287076999
 20
394.3529097151
 30
0.0
  0
LINE
  5
3E9
330
213
100
AcDbEntity
  8
RUNDUNGEN
  6
Continuous
 62
     9
100
AcDbLine
 10
558.4483287076999
 20
394.3529097151
 30
0.0
 11
560.8285904273999
 21
375.0746724539
 31
0.0
  0
LINE
  5
3EA
330
213
100
AcDbEntity
  8
RUNDUNGEN
  6
Continuous
 62
     9
100
AcDbLine
 10
560.8285904273999
 20
375.0746724539
 30
0.0
 11
562.0830191853
 21
374.8207146066001
 31
0.0
  0
LINE
  5
3EB
330
213
100
AcDbEntity
  8
RUNDUNGEN
  6
Continuous
 62
     9
100
AcDbLine
 10
562.8638739584999
 20
396.5105119545
 30
0.0
 11
560.9979279896
 21
396.3846965740001
 31
0.0
  0
SPLINE
  5
3EC
330
213
100
AcDbEntity
  8
0
  6
Continuous
 62
     9
100
AcDbSpline
210
0.0
220
0.0
230
1.0
 70
     8
 71
     3
 72
    27
 73
    23
 74
     0
 42
0.0000000001
 43
0.0000000001
 40
0.0
 40
0.0
 40
0.0
 40
0.0
 40
0.0005171985
 40
0.0015066624
 40
0.0051944681
 40
0.0112391556
 40
0.0196485792
 40
0.0304103494
 40
0.0435022492
 40
0.0588944332
 40
0.076551471
 40
0.0964311231
 40
0.1184865802
 40
0.1689077855
 40
0.2273319703
 40
0.2931979776
 40
0.365872446
 40
0.4446560217
 40
0.5287902191000001
 40
0.6174648481000001
 40
0.8049829026999999
 40
1.0
 40
1.0
 40
1.0
 40
1.0
 10
535.6372999067
 20
355.0110890492
 30
0.0
 10
535.6371287687998
 20
355.0043627352
 30
0.0
 10
535.6536521488
 20
354.9881667749
 30
0.0
 10
535.7151660877999
 20
354.9656445878
 30
0.0
 10
535.8542220719
 20
354.9364544428
 30
0.0
 10
536.0870296084999
 20
354.9062436968
 30
0.0
 10
536.4141205237999
 20
354.8741932856
 30
0.0
 10
536.8324468657
 20
354.8425036703
 30
0.0
 10
537.342119365
 20
354.8107872668
 30
0.0
 10
537.9415546049
 20
354.7794661495
 30
0.0
 10
538.6294531119999
 20
354.7485841421
 30
0.0
 10
539.4041244591
 20
354.7182683334
 30
0.0
 10
540.6049238829
 20
354.6768533399
 30
0.0
 10
542.3071943277
 20
354.6281546549
 30
0.0
 10
544.5794946528
 20
354.5753323151
 30
0.0
 10
547.1414458688
 20
354.5264871411
 30
0.0
 10
549.9683781411
 20
354.4821267662001
 30
0.0
 10
553.0330643231
 20
354.442728561
 30
0.0
 10
556.3059801726999
 20
354.4086916917
 30
0.0
 10
560.9934958308
 20
354.3702180666
 30
0.0
 10
567.1236295915
 20
354.3384418593
 30
0.0
 10
572.1002222222
 20
354.3300372244
 30
0.0
 10
574.6372960018
 20
354.3300368841
 30
0.0
  0
SPLINE
  5
3ED
330
213
100
AcDbEntity
  8
RUNDUNGEN
  6
Continuous
 62
     9
100
AcDbSpline
210
0.0
220
0.0
230
1.0
 70
     8
 71
     3
 72
     9
 73
     5
 74
     0
 42
0.0000000001
 43
0.0000000001
 40
0.0
 40
0.0
 40
0.0
 40
0.0
 40
0.250928911
 40
1.0
 40
1.0
 40
1.0
 40
1.0
 10
594.6372960018
 20
354.3300368841
 30
0.0
 10
596.7469405969999
 20
354.3300366336
 30
0.0
 10
605.1542810945
 20
354.3232067159
 30
0.0
 10
613.5615852096999
 20
354.2931217167
 30
0.0
 10
619.8592791298
 20
354.2892582259999
 30
0.0
  0
SPLINE
  5
3EE
330
213
100
AcDbEntity
  8
RUNDUNGEN
  6
Continuous
 62
     9
100
AcDbSpline
210
0.0
220
0.0
230
1.0
 70
     8
 71
     3
 72
    26
 73
    22
 74
     0
 42
0.0000000001
 43
0.0000000001
 40
0.0
 40
0.0
 40
0.0
 40
0.0
 40
0.0005473755
 40
0.0015817907
 40
0.0053613425
 40
0.01149286
 40
0.0199824
 40
0.030817466
 40
0.0439751739
 40
0.0594261805
 40
0.0771343329
 40
0.1191496042
 40
0.1696217138
 40
0.2280682588
 40
0.2939293516
 40
0.3665733438
 40
0.4453031091
 40
0.5293627657
 40
0.617945045
 40
0.8052380409999999
 40
1.0
 40
1.0
 40
1.0
 40
1.0
 10
605.6372517876
 20
355.0104797833999
 30
0.0
 10
605.6367034657999
 20
355.0048462512001
 30
0.0
 10
605.6222451701
 20
354.9926581115
 30
0.0
 10
605.5717968838999
 20
354.9742162608
 30
0.0
 10
605.4587003230999
 20
354.9515640081
 30
0.0
 10
605.2710744767999
 20
354.9272178309
 30
0.0
 10
605.0085439793999
 20
354.9019072563
 30
0.0
 10
604.6737812197
 20
354.8766972017
 30
0.0
 10
604.2666116696
 20
354.8515468271
 30
0.0
 10
603.7883335662
 20
354.8266852152
 30
0.0
 10
603.011748786
 20
354.7920125279
 30
0.0
 10
601.8729854394999
 20
354.751217268
 30
0.0
 10
600.3128746323999
 20
354.7066556625
 30
0.0
 10
598.5060375634
 20
354.6647834964
 30
0.0
 10
596.4698167446999
 20
354.6260409963
 30
0.0
 10
594.2237645933
 20
354.5908674753
 30
0.0
 10
591.789455398
 20
354.5596281886
 30
0.0
 10
589.1902758931999
 20
354.5326423881
 30
0.0
 10
585.4684795548
 20
354.5021417849
 30
0.0
 10
580.6018930743999
 20
354.4769501866
 30
0.0
 10
576.6512383688
 20
354.4702866685
 30
0.0
 10
574.6372960018
 20
354.4702866693
 30
0.0
  0
SPLINE
  5
3EF
330
213
100
AcDbEntity
  8
0
  6
Continuous
 62
     9
100
AcDbSpline
210
0.0
220
0.0
230
1.0
 70
     8
 71
     3
 72
    26
 73
    22
 74
     0
 42
0.0000000001
 43
0.0000000001
 40
0.0
 40
0.0
 40
0.0
 40
0.0
 40
0.1948963783
 40
0.3823081534
 40
0.4709390461
 40
0.5550379339
 40
0.6337960520000001
 40
0.7064561107
 40
0.7723198181000001
 40
0.8307546462000001
 40
0.8812000254999999
 40
0.9231730728
 40
0.9408542223999999
 40
0.9562743379999998
 40
0.9693973150999999
 40
0.9801938754999998
 40
0.9886411481999999
 40
0.9947269843
 40
0.9984582391
 40
0.9994689521999999
 40
1.0
 40
1.0
 40
1.0
 40
1.0
 10
574.6372960018
 20
354.4702866693
 30
0.0
 10
572.6219279632999
 20
354.4702874515
 30
0.0
 10
568.6685850072
 20
354.4769590491001
 30
0.0
 10
563.7987914653
 20
354.5021859289
 30
0.0
 10
560.0747928201
 20
354.5327292284
 30
0.0
 10
557.4743660028
 20
354.5597513772
 30
0.0
 10
555.0391491151999
 20
354.5910317238
 30
0.0
 10
552.7925714248
 20
354.626250066
 30
0.0
 10
550.7562433880999
 20
354.6650401616
 30
0.0
 10
548.9497459951
 20
354.7069609763
 30
0.0
 10
547.3904434978
 20
354.7515717949
 30
0.0
 10
546.2526541562
 20
354.7924111923001
 30
0.0
 10
545.4770939876
 20
354.8271264981
 30
0.0
 10
544.9997669635999
 20
354.8520078378
 30
0.0
 10
544.5936722799
 20
354.877189861
 30
0.0
 10
544.2600964731999
 20
354.902389143
 30
0.0
 10
543.9988922528999
 20
354.9277852079
 30
0.0
 10
543.8126403107999
 20
354.9519606907
 30
0.0
 10
543.7008622047
 20
354.9748975116
 30
0.0
 10
543.6512680954
 20
354.9930581253
 30
0.0
 10
543.6374789454
 20
355.005600521
 30
0.0
 10
543.6373009162999
 20
355.0110890485
 30
0.0
  0
SPLINE
  5
3F0
330
213
100
AcDbEntity
  8
RUNDUNGEN
  6
Continuous
 62
     9
100
AcDbSpline
210
0.0
220
0.0
230
1.0
 70
     8
 71
     3
 72
    10
 73
     6
 74
     0
 42
0.0000000001
 43
0.0000000001
 40
0.0
 40
0.0
 40
0.0
 40
0.0
 40
0.2726976156
 40
0.5216039535000001
 40
1.0
 40
1.0
 40
1.0
 40
1.0
 10
562.2934427616001
 20
454.6058924519
 30
0.0
 10
562.3850860423999
 20
454.4960394353999
 30
0.0
 10
562.5245938867999
 20
454.2530270522
 30
0.0
 10
562.6329306201
 20
453.7338703892999
 30
0.0
 10
562.5673387921999
 20
453.343226767
 30
0.0
 10
562.4852834486
 20
453.1060482073
 30
0.0
  0
SPLINE
  5
3F1
330
213
100
AcDbEntity
  8
RUNDUNGEN
  6
Continuous
 62
     9
100
AcDbSpline
210
0.0
220
0.0
230
1.0
 70
     8
 71
     3
 72
    10
 73
     6
 74
     0
 42
0.0000000001
 43
0.0000000001
 40
0.0
 40
0.0
 40
0.0
 40
0.0
 40
0.4783960463000001
 40
0.7273023839000001
 40
1.0
 40
1.0
 40
1.0
 40
1.0
 10
586.789308555
 20
453.1060482073
 30
0.0
 10
586.7072532613
 20
453.3432267842999
 30
0.0
 10
586.6416613758999
 20
453.7338703841999
 30
0.0
 10
586.749998116
 20
454.2530270551999
 30
0.0
 10
586.8895059647
 20
454.4960394329
 30
0.0
 10
586.981149243
 20
454.6058924519
 30
0.0
  0
SPLINE
  5
3F2
330
213
100
AcDbEntity
  8
RUNDUNGEN
  6
Continuous
 62
     9
100
AcDbSpline
210
0.0
220
0.0
230
1.0
 70
     8
 71
     3
 72
     8
 73
     4
 74
     0
 42
0.0000000001
 43
0.0000000001
 40
0.0
 40
0.0
 40
0.0
 40
0.0
 40
1.0
 40
1.0
 40
1.0
 40
1.0
 10
588.8348931633999
 20
467.0105125108999
 30
0.0
 10
588.26724701
 20
466.9768659834
 30
0.0
 10
587.699626734
 20
466.9427812618
 30
0.0
 10
587.1320269343
 20
466.9083616205
 30
0.0
  0
SPLINE
  5
3F3
330
213
100
AcDbEntity
  8
RUNDUNGEN
  6
Continuous
 62
     9
100
AcDbSpline
210
0.0
220
0.0
230
1.0
 70
     8
 71
     3
 72
     8
 73
     4
 74
     0
 42
0.0000000001
 43
0.0000000001
 40
0.0
 40
0.0
 40
0.0
 40
0.0
 40
1.0
 40
1.0
 40
1.0
 40
1.0
 10
588.8339348960999
 20
473.0349380295
 30
0.0
 10
588.2666032473999
 20
473.0013096597
 30
0.0
 10
587.6992973474999
 20
472.9672452533
 30
0.0
 10
587.1320119965
 20
472.9328447093999
 30
0.0
  0
SPLINE
  5
3F4
330
213
100
AcDbEntity
  8
RUNDUNGEN
  6
Continuous
 62
     9
100
AcDbSpline
210
0.0
220
0.0
230
1.0
 70
     8
 71
     3
 72
     8
 73
     4
 74
     0
 42
0.0000000001
 43
0.0000000001
 40
0.0
 40
0.0
 40
0.0
 40
0.0
 40
1.0
 40
1.0
 40
1.0
 40
1.0
 10
587.6417373348999
 20
453.8720809283999
 30
0.0
 10
588.0452164982
 20
453.8477641855
 30
0.0
 10
588.4487067543
 20
453.8236304855999
 30
0.0
 10
588.8522101784999
 20
453.7997196955999
 30
0.0
  0
LINE
  5
3F5
330
213
100
AcDbEntity
  8
RUNDUNGEN
  6
Continuous
 62
     9
100
AcDbLine
 10
588.8522101784999
 20
453.7997196955999
 30
0.0
 11
588.8555010563
 21
450.3365581398
 31
0.0
  0
SPLINE
  5
3F6
330
213
100
AcDbEntity
  8
RUNDUNGEN
  6
Continuous
 62
     9
100
AcDbSpline
210
0.0
220
0.0
230
1.0
 70
     8
 71
     3
 72
     8
 73
     4
 74
     0
 42
0.0000000001
 43
0.0000000001
 40
0.0
 40
0.0
 40
0.0
 40
0.0
 40
1.0
 40
1.0
 40
1.0
 40
1.0
 10
562.1425650692999
 20
466.9083618432
 30
0.0
 10
561.5749652673001
 20
466.9427814852999
 30
0.0
 10
561.0073449958999
 20
466.9768663239
 30
0.0
 10
560.4396988401
 20
467.0105128523999
 30
0.0
  0
SPLINE
  5
3F7
330
213
100
AcDbEntity
  8
RUNDUNGEN
  6
Continuous
 62
     9
100
AcDbSpline
210
0.0
220
0.0
230
1.0
 70
     8
 71
     3
 72
     8
 73
     4
 74
     0
 42
0.0000000001
 43
0.0000000001
 40
0.0
 40
0.0
 40
0.0
 40
0.0
 40
1.0
 40
1.0
 40
1.0
 40
1.0
 10
562.1425795593999
 20
472.9328447363999
 30
0.0
 10
561.5752943576
 20
472.967245271
 30
0.0
 10
561.007988607
 20
473.0013096688
 30
0.0
 10
560.4406571074999
 20
473.0349380295
 30
0.0
  0
SPLINE
  5
3F8
330
213
100
AcDbEntity
  8
RUNDUNGEN
  6
Continuous
 62
     9
100
AcDbSpline
210
0.0
220
0.0
230
1.0
 70
     8
 71
     3
 72
     8
 73
     4
 74
     0
 42
0.0000000001
 43
0.0000000001
 40
0.0
 40
0.0
 40
0.0
 40
0.0
 40
1.0
 40
1.0
 40
1.0
 40
1.0
 10
560.4223818251
 20
453.7997196955999
 30
0.0
 10
560.8258852500999
 20
453.8236304855999
 30
0.0
 10
561.2293755066
 20
453.8477641915
 30
0.0
 10
561.6328546708
 20
453.8720809344
 30
0.0
  0
LINE
  5
3F9
330
213
100
AcDbEntity
  8
RUNDUNGEN
  6
Continuous
 62
     9
100
AcDbLine
 10
560.4190909473
 20
450.3365581394
 30
0.0
 11
560.4223818251
 21
453.7997196955999
 31
0.0
  0
SPLINE
  5
3FA
330
213
100
AcDbEntity
  8
RUNDUNGEN
  6
Continuous
 62
     9
100
AcDbSpline
210
0.0
220
0.0
230
1.0
 70
     8
 71
     3
 72
    16
 73
    12
 74
     0
 42
0.0000000001
 43
0.0000000001
 40
0.0
 40
0.0
 40
0.0
 40
0.0
 40
0.3584663818
 40
0.5297676992
 40
0.6842047512000001
 40
0.8140511287
 40
0.9128271304
 40
0.9489648843999999
 40
0.9756663833999999
 40
0.9926387991
 40
1.0
 40
1.0
 40
1.0
 40
1.0
 10
619.8249627512999
 20
353.0498428892
 30
0.0
 10
619.8237655108999
 20
353.1981689618
 30
0.0
 10
619.8237625404
 20
353.4174046242
 30
0.0
 10
619.8271430066
 20
353.7004832321
 30
0.0
 10
619.8311026194999
 20
353.8890196244
 30
0.0
 10
619.8364468198999
 20
354.0472803456
 30
0.0
 10
619.8417598289999
 20
354.1570743339
 30
0.0
 10
619.8472129004
 20
354.2232403547
 30
0.0
 10
619.8503697676999
 20
354.2569761263
 30
0.0
 10
619.8545498605999
 20
354.2761100163
 30
0.0
 10
619.8565497765001
 20
354.2879080306
 30
0.0
 10
619.85927913
 20
354.289260373
 30
0.0
  0
SPLINE
  5
3FB
330
213
100
AcDbEntity
  8
RUNDUNGEN
  6
Continuous
 62
     9
100
AcDbSpline
210
0.0
220
0.0
230
1.0
 70
     8
 71
     3
 72
    12
 73
     8
 74
     0
 42
0.0000000001
 43
0.0000000001
 40
0.0
 40
0.0
 40
0.0
 40
0.0
 40
0.3587646490999999
 40
0.6650391063000001
 40
0.7864556596
 40
0.8824670851999998
 40
1.0
 40
1.0
 40
1.0
 40
1.0
 10
621.8242333562
 20
355.0292934815
 30
0.0
 10
621.7023948181999
 20
355.0311793335
 30
0.0
 10
621.4763114688
 20
355.0451044897
 30
0.0
 10
621.212798731
 20
355.0873186673001
 30
0.0
 10
621.0406143504
 20
355.1402000268
 30
0.0
 10
620.9402958775999
 20
355.1841685359
 30
0.0
 10
620.87203317
 20
355.2390620061
 30
0.0
 10
620.8693419258
 20
355.2788908204
 30
0.0
  0
SPLINE
  5
3FC
330
213
100
AcDbEntity
  8
RUNDUNGEN
  6
Continuous
 62
     9
100
AcDbSpline
210
0.0
220
0.0
230
1.0
 70
     8
 71
     3
 72
    12
 73
     8
 74
     0
 42
0.0000000001
 43
0.0000000001
 40
0.0
 40
0.0
 40
0.0
 40
0.0
 40
0.3760593029
 40
0.6872796828
 40
0.8990244457999999
 40
0.9621094327999999
 40
1.0
 40
1.0
 40
1.0
 40
1.0
 10
621.7351359732999
 20
361.0903367073
 30
0.0
 10
621.6254068271999
 20
361.0915849649
 30
0.0
 10
621.4247860279
 20
361.1053036497001
 30
0.0
 10
621.1650954839
 20
361.1359881554
 30
0.0
 10
620.9958588906999
 20
361.1741717335
 30
0.0
 10
620.9140809804
 20
361.2126358012
 30
0.0
 10
620.8923311521
 20
361.2372228494
 30
0.0
 10
620.8911042933
 20
361.2482112552
 30
0.0
  0
SPLINE
  5
3FD
330
213
100
AcDbEntity
  8
RUNDUNGEN
  6
Continuous
 62
     9
100
AcDbSpline
210
0.0
220
0.0
230
1.0
 70
     8
 71
     3
 72
    12
 73
     8
 74
     0
 42
0.0000000001
 43
0.0000000001
 40
0.0
 40
0.0
 40
0.0
 40
0.0
 40
0.3569557789
 40
0.6740049456000001
 40
0.8972694759000001
 40
0.9630381803
 40
1.0
 40
1.0
 40
1.0
 40
1.0
 10
621.7351359732999
 20
361.0903367073
 30
0.0
 10
621.7262716916999
 20
361.2306904731
 30
0.0
 10
621.7135059001999
 20
361.4965940357
 30
0.0
 10
621.7244776994
 20
361.8485691825
 30
0.0
 10
621.7557074071
 20
362.0896301987
 30
0.0
 10
621.7945070550999
 20
362.2089669708
 30
0.0
 10
621.8242236794
 20
362.2445233337
 30
0.0
 10
621.8386240024999
 20
362.2466886938
 30
0.0
  0
SPLINE
  5
3FE
330
213
100
AcDbEntity
  8
RUNDUNGEN
  6
Continuous
 62
     9
100
AcDbSpline
210
0.0
220
0.0
230
1.0
 70
     8
 71
     3
 72
    15
 73
    11
 74
     0
 42
0.0000000001
 43
0.0000000001
 40
0.0
 40
0.0
 40
0.0
 40
0.0
 40
0.3534840454
 40
0.5239832176000001
 40
0.6784099866
 40
0.8087912901000001
 40
0.9084668869999999
 40
0.9725774629
 40
0.990584802
 40
1.0
 40
1.0
 40
1.0
 40
1.0
 10
629.5356042712
 20
361.35792335
 30
0.0
 10
629.5246771644
 20
361.5086129861
 30
0.0
 10
629.5124902293999
 20
361.7322828492
 30
0.0
 10
629.5040571595999
 20
362.0221802135
 30
0.0
 10
629.5022526454
 20
362.216679222
 30
0.0
 10
629.5048193087
 20
362.3813504884
 30
0.0
 10
629.5114548673
 20
362.5061241625
 30
0.0
 10
629.5204777630999
 20
362.5849229874
 30
0.0
 10
629.5304806726999
 20
362.6213314749
 30
0.0
 10
629.5372691387
 20
362.6328785330001
 30
0.0
 10
629.5411356795999
 20
362.6339939783
 30
0.0
  0
SPLINE
  5
3FF
330
213
100
AcDbEntity
  8
RUNDUNGEN
  6
Continuous
 62
     9
100
AcDbSpline
210
0.0
220
0.0
230
1.0
 70
     8
 71
     3
 72
    12
 73
     8
 74
     0
 42
0.0000000001
 43
0.0000000001
 40
0.0
 40
0.0
 40
0.0
 40
0.0
 40
0.3489790336
 40
0.6553105474000001
 40
0.778667325
 40
0.8771075452999999
 40
1.0
 40
1.0
 40
1.0
 40
1.0
 10
631.2425644502
 20
362.4827258761
 30
0.0
 10
631.1212978638
 20
362.5383395363
 30
0.0
 10
630.899074613
 20
362.6557249431
 30
0.0
 10
630.6526721748999
 20
362.8228231035
 30
0.0
 10
630.5025164124999
 20
362.9614035858001
 30
0.0
 10
630.4200096611
 20
363.0582911853
 30
0.0
 10
630.3784735937
 20
363.1512082212
 30
0.0
 10
630.3961169146
 20
363.1947498755
 30
0.0
  0
SPLINE
  5
400
330
213
100
AcDbEntity
  8
RUNDUNGEN
  6
Continuous
 62
     9
100
AcDbSpline
210
0.0
220
0.0
230
1.0
 70
     8
 71
     3
 72
    12
 73
     8
 74
     0
 42
0.0000000001
 43
0.0000000001
 40
0.0
 40
0.0
 40
0.0
 40
0.0
 40
0.3709409546
 40
0.6829241079
 40
0.8972224939
 40
0.9612363701000001
 40
1.0
 40
1.0
 40
1.0
 40
1.0
 10
644.6372959937
 20
390.7906820044
 30
0.0
 10
644.530011148
 20
390.8396789378
 30
0.0
 10
644.3295085498999
 20
390.9242332477
 30
0.0
 10
644.060163716
 20
391.0160969946
 30
0.0
 10
643.8746094664
 20
391.05817827
 30
0.0
 10
643.7746775342
 20
391.0590844151999
 30
0.0
 10
643.7412473824999
 20
391.0445068107
 30
0.0
 10
643.7348481625
 20
391.0339730048
 30
0.0
  0
LINE
  5
401
330
213
100
AcDbEntity
  8
RUNDUNGEN
  6
Continuous
 62
     9
100
AcDbLine
 10
557.2348899718
 20
393.9223986199
 30
0.0
 11
559.6127613586999
 21
374.6441613566
 31
0.0
  0
SPLINE
  5
402
330
213
100
AcDbEntity
  8
RUNDUNGEN
  6
Continuous
 62
     9
100
AcDbSpline
210
0.0
220
0.0
230
1.0
 70
     8
 71
     3
 72
    11
 73
     7
 74
     0
 42
0.0000000001
 43
0.0000000001
 40
0.0
 40
0.0
 40
0.0
 40
0.0
 40
0.3687642117
 40
0.6788320371
 40
0.8935464664999999
 40
1.0
 40
1.0
 40
1.0
 40
1.0
 10
645.3579637785
 20
392.345780915
 30
0.0
 10
645.251674105
 20
392.3936188677
 30
0.0
 10
645.0548479087999
 20
392.4752694548
 30
0.0
 10
644.7783954645
 20
392.5600000022
 30
0.0
 10
644.5958022485999
 20
392.5976397887
 30
0.0
 10
644.4725522105
 20
392.5866979848
 30
0.0
 10
644.4555121102999
 20
392.5576840434
 30
0.0
  0
LINE
  5
403
330
213
100
AcDbEntity
  8
RUNDUNGEN
  6
Continuous
 62
     9
100
AcDbLine
 10
589.6618327001999
 20
374.6441613566
 30
0.0
 11
592.0397020317999
 21
393.9223986199
 31
0.0
  0
SPLINE
  5
404
330
213
100
AcDbEntity
  8
RUNDUNGEN
  6
Continuous
 62
     9
100
AcDbSpline
210
0.0
220
0.0
230
1.0
 70
     8
 71
     3
 72
    12
 73
     8
 74
     0
 42
0.0000000001
 43
0.0000000001
 40
0.0
 40
0.0
 40
0.0
 40
0.0
 40
0.3535520394
 40
0.6583772472999999
 40
0.7802304134
 40
0.877406921
 40
1.0
 40
1.0
 40
1.0
 40
1.0
 10
646.0067998099
 20
395.1024368985
 30
0.0
 10
645.8813254074
 20
395.1059110951
 30
0.0
 10
645.6469764140999
 20
395.1002877979
 30
0.0
 10
645.3722410146999
 20
395.0640292609
 30
0.0
 10
645.1915137629001
 20
395.0118715053
 30
0.0
 10
645.0834291441
 20
394.9659326268
 30
0.0
 10
645.0117353408999
 20
394.9064204047
 30
0.0
 10
645.0075611948999
 20
394.8630964876
 30
0.0
  0
SPLINE
  5
405
330
213
100
AcDbEntity
  8
RUNDUNGEN
  6
Continuous
 62
     9
100
AcDbSpline
210
0.0
220
0.0
230
1.0
 70
     8
 71
     3
 72
    11
 73
     7
 74
     0
 42
0.0000000001
 43
0.0000000001
 40
0.0
 40
0.0
 40
0.0
 40
0.0
 40
0.2534217139999999
 40
0.5049922451
 40
0.7532306378
 40
1.0
 40
1.0
 40
1.0
 40
1.0
 10
559.6870176934999
 20
450.3398124255
 30
0.0
 10
559.6868307011
 20
450.1146353862999
 30
0.0
 10
559.7385907801
 20
449.6630319777999
 30
0.0
 10
560.0238541205999
 20
449.0398738502999
 30
0.0
 10
560.5518796630999
 20
448.5960440633999
 30
0.0
 10
561.0010402983999
 20
448.5051840296
 30
0.0
 10
561.2203064873999
 20
448.5051730291
 30
0.0
  0
SPLINE
  5
406
330
213
100
AcDbEntity
  8
RUNDUNGEN
  6
Continuous
 62
     9
100
AcDbSpline
210
0.0
220
0.0
230
1.0
 70
     8
 71
     3
 72
    11
 73
     7
 74
     0
 42
0.0000000001
 43
0.0000000001
 40
0.0
 40
0.0
 40
0.0
 40
0.0
 40
0.2467698172
 40
0.4950080574000001
 40
0.7465784363
 40
1.0
 40
1.0
 40
1.0
 40
1.0
 10
588.0542855172
 20
448.5051730291
 30
0.0
 10
588.2735521155
 20
448.5051838978
 30
0.0
 10
588.7227131433999
 20
448.5960441369999
 30
0.0
 10
589.250738326
 20
449.0398745584999
 30
0.0
 10
589.5360011336999
 20
449.6630323747
 30
0.0
 10
589.5877614792
 20
450.1146355144999
 30
0.0
 10
589.5875743100999
 20
450.3398124251999
 30
0.0
  0
SPLINE
  5
407
330
213
100
AcDbEntity
  8
RUNDUNGEN
  6
Continuous
 62
     9
100
AcDbSpline
210
0.0
220
0.0
230
1.0
 70
     8
 71
     3
 72
     9
 73
     5
 74
     0
 42
0.0000000001
 43
0.0000000001
 40
0.0
 40
0.0
 40
0.0
 40
0.0
 40
0.2574172974
 40
1.0
 40
1.0
 40
1.0
 40
1.0
 10
557.1577961248
 20
395.2042542029
 30
0.0
 10
557.1578898619999
 20
395.0940268492
 30
0.0
 10
557.1645316196
 20
394.6658776844
 30
0.0
 10
557.1951886076999
 20
394.2378880946
 30
0.0
 10
557.2348899718
 20
393.9223986199
 30
0.0
  0
SPLINE
  5
408
330
213
100
AcDbEntity
  8
RUNDUNGEN
  6
Continuous
 62
     9
100
AcDbSpline
210
0.0
220
0.0
230
1.0
 70
     8
 71
     3
 72
     9
 73
     5
 74
     0
 42
0.0000000001
 43
0.0000000001
 40
0.0
 40
0.0
 40
0.0
 40
0.0
 40
0.5011145371
 40
1.0
 40
1.0
 40
1.0
 40
1.0
 10
562.2306579823999
 20
455.3719368949999
 30
0.0
 10
562.0259559103
 20
455.5409741113999
 30
0.0
 10
561.5501537605
 20
455.8025044353
 30
0.0
 10
561.0166375170999
 20
455.8883372444999
 30
0.0
 10
560.7523442685
 20
455.8883264999999
 30
0.0
  0
SPLINE
  5
409
330
213
100
AcDbEntity
  8
RUNDUNGEN
  6
Continuous
 62
     9
100
AcDbSpline
210
0.0
220
0.0
230
1.0
 70
     8
 71
     3
 72
     9
 73
     5
 74
     0
 42
0.0000000001
 43
0.0000000001
 40
0.0
 40
0.0
 40
0.0
 40
0.0
 40
0.2398741485
 40
1.0
 40
1.0
 40
1.0
 40
1.0
 10
592.0397020317999
 20
393.9223986199
 30
0.0
 10
592.0525268530999
 20
394.024311897
 30
0.0
 10
592.0983218648
 20
394.4501194957
 30
0.0
 10
592.1165190780999
 20
394.8787591201
 30
0.0
 10
592.1167958787999
 20
395.2042542029
 30
0.0
  0
SPLINE
  5
40B
330
213
100
AcDbEntity
  8
RUNDUNGEN
  6
Continuous
 62
     9
100
AcDbSpline
210
0.0
220
0.0
230
1.0
 70
     8
 71
     3
 72
     9
 73
     5
 74
     0
 42
0.0000000001
 43
0.0000000001
 40
0.0
 40
0.0
 40
0.0
 40
0.0
 40
0.5011140272
 40
1.0
 40
1.0
 40
1.0
 40
1.0
 10
587.0439544988999
 20
455.3719368949999
 30
0.0
 10
587.2486538235
 20
455.5409723076
 30
0.0
 10
587.7244447299
 20
455.8025106351
 30
0.0
 10
588.2579572
 20
455.8883377063
 30
0.0
 10
588.5222477351
 20
455.8883264999999
 30
0.0
  0
SPLINE
  5
40C
330
213
100
AcDbEntity
  8
RUNDUNGEN
  6
Continuous
 62
     9
100
AcDbSpline
210
0.0
220
0.0
230
1.0
 70
     8
 71
     3
 72
    11
 73
     7
 74
     0
 42
0.0000000001
 43
0.0000000001
 40
0.0
 40
0.0
 40
0.0
 40
0.0
 40
0.2482768718
 40
0.4976944848
 40
0.7484049626
 40
1.0
 40
1.0
 40
1.0
 40
1.0
 10
588.5222477464
 20
464.9229319737999
 30
0.0
 10
588.2521781174999
 20
464.9229225616999
 30
0.0
 10
587.7062146659999
 20
465.0131082545
 30
0.0
 10
586.9814244655
 20
465.4215750341
 30
0.0
 10
586.459632454
 20
466.080774352
 30
0.0
 10
586.3307671271
 20
466.6346837017999
 30
0.0
 10
586.3307983238
 20
466.9083627501
 30
0.0
  0
SPLINE
  5
40E
330
213
100
AcDbEntity
  8
0
  6
Continuous
 62
     9
100
AcDbSpline
210
0.0
220
0.0
230
1.0
 70
     8
 71
     3
 72
    26
 73
    22
 74
     0
 42
0.0000000001
 43
0.0000000001
 40
0.0
 40
0.0
 40
0.0
 40
0.0
 40
0.1949558417
 40
0.3824193673
 40
0.4710709984000001
 40
0.5551861209000001
 40
0.6339552654000001
 40
0.7066205421
 40
0.7724831755000001
 40
0.8309102844999999
 40
0.8813410962
 40
0.9232927031999999
 40
0.9409606173999998
 40
0.9563658914000001
 40
0.9694725205999999
 40
0.9802513863999999
 40
0.9886799062999999
 40
0.9947465671999999
 40
0.9984600629
 40
0.9994650741999999
 40
1.0
 40
1.0
 40
1.0
 40
1.0
 10
574.6372960018
 20
355.4701343645
 30
0.0
 10
572.6862394575
 20
355.4701347105
 30
0.0
 10
568.8591039681999
 20
355.4768115987
 30
0.0
 10
564.1448291434
 20
355.5020559758
 30
0.0
 10
560.5398852101
 20
355.5326209261
 30
0.0
 10
558.0227361188999
 20
355.5596614333
 30
0.0
 10
555.6656355729
 20
355.5909624971
 30
0.0
 10
553.4912771163
 20
355.6262034169999
 30
0.0
 10
551.5205908778
 20
355.6650174331
 30
0.0
 10
549.7725389314
 20
355.7069627312
 30
0.0
 10
548.2639350898999
 20
355.7515981432
 30
0.0
 10
547.1633292423
 20
355.7924599215001
 30
0.0
 10
546.4132951508999
 20
355.8271958436
 30
0.0
 10
545.9518264505
 20
355.8520882195
 30
0.0
 10
545.5593586876
 20
355.8772831328
 30
0.0
 10
545.2370987586999
 20
355.9024864905
 30
0.0
 10
544.9849955662
 20
355.9279041693
 30
0.0
 10
544.8052887643
 20
355.9520522297
 30
0.0
 10
544.697890514
 20
355.9750526828
 30
0.0
 10
544.650094603
 20
355.993206553
 30
0.0
 10
544.6372964354
 20
356.005888009
 30
0.0
 10
544.6372960018
 20
356.0112413772
 30
0.0
  0
LINE
  5
410
330
213
100
AcDbEntity
  8
RUNDUNGEN
  6
Continuous
 62
     9
100
AcDbLine
 10
559.8481740872
 20
374.076042919
 30
0.0
 11
561.1024990100999
 21
373.8220870381
 31
0.0
  0
SPLINE
  5
411
330
213
100
AcDbEntity
  8
RUNDUNGEN
  6
Continuous
 62
     9
100
AcDbSpline
210
0.0
220
0.0
230
1.0
 70
     8
 71
     3
 72
    12
 73
     8
 74
     0
 42
0.0000000001
 43
0.0000000001
 40
0.0
 40
0.0
 40
0.0
 40
0.0
 40
0.056744959
 40
0.1403798807
 40
0.3770453888
 40
0.6784406464
 40
1.0
 40
1.0
 40
1.0
 40
1.0
 10
561.1024990100999
 20
373.8220870381
 30
0.0
 10
561.1475737239
 20
373.8129543964
 30
0.0
 10
561.2605185645
 20
373.7979862733999
 30
0.0
 10
561.5647140764999
 20
373.7693438418
 30
0.0
 10
562.0680468644
 20
373.7419379587
 30
0.0
 10
562.7643830483
 20
373.7197848595
 30
0.0
 10
563.2693063862999
 20
373.7142175974
 30
0.0
 10
563.5299234834999
 20
373.7142107384999
 30
0.0
  0
SPLINE
  5
412
330
213
100
AcDbEntity
  8
RUNDUNGEN
  6
Continuous
 62
     9
100
AcDbSpline
210
0.0
220
0.0
230
1.0
 70
     8
 71
     3
 72
    12
 73
     8
 74
     0
 42
0.0000000001
 43
0.0000000001
 40
0.0
 40
0.0
 40
0.0
 40
0.0
 40
0.3215590259
 40
0.6229540991000001
 40
0.859619228
 40
0.9432546393999999
 40
1.0
 40
1.0
 40
1.0
 40
1.0
 10
585.7446685201
 20
373.7142107384999
 30
0.0
 10
586.0052853516999
 20
373.7142176223001
 30
0.0
 10
586.5102082733
 20
373.7197848504
 30
0.0
 10
587.2065437402999
 20
373.7419379072
 30
0.0
 10
587.7098764591001
 20
373.7693437842
 30
0.0
 10
588.0140724055999
 20
373.7979861069
 30
0.0
 10
588.1270179488999
 20
373.8129543902
 30
0.0
 10
588.1720929934999
 20
373.8220870381
 30
0.0
  0
LINE
  5
413
330
213
100
AcDbEntity
  8
RUNDUNGEN
  6
Continuous
 62
     9
100
AcDbLine
 10
588.1720929934999
 20
373.8220870381
 30
0.0
 11
589.4264179163999
 21
374.076042919
 31
0.0
  0
SPLINE
  5
414
330
213
100
AcDbEntity
  8
RUNDUNGEN
  6
Continuous
 62
     9
100
AcDbSpline
210
0.0
220
0.0
230
1.0
 70
     8
 71
     3
 72
    25
 73
    21
 74
     0
 42
0.0000000001
 43
0.0000000001
 40
0.0
 40
0.0
 40
0.0
 40
0.0
 40
0.2081242781
 40
0.4009978352
 40
0.4901247778
 40
0.5735911397
 40
0.6508515975
 40
0.7214014520000001
 40
0.7847800952
 40
0.8405742263
 40
0.8884208645000001
 40
0.9280102676
 40
0.9446270279
 40
0.9590895029
 40
0.9713751466999999
 40
0.9814672592
 40
0.9893537420999999
 40
0.9950328943999998
 40
0.9985255163999999
 40
1.0
 40
1.0
 40
1.0
 40
1.0
 10
645.0075611948999
 20
394.8630964876
 30
0.0
 10
645.0806966572001
 20
397.3058296544
 30
0.0
 10
645.2146915077999
 20
402.0125104288999
 30
0.0
 10
645.3590594934
 20
407.7658357426
 30
0.0
 10
645.4532373475
 20
412.0561743009999
 30
0.0
 10
645.5108028911999
 20
414.9894344753
 30
0.0
 10
645.5568399837999
 20
417.7047345744
 30
0.0
 10
645.5910705587
 20
420.1843175641999
 30
0.0
 10
645.6133053428
 20
422.4119638276
 30
0.0
 10
645.6234822917999
 20
424.373121569
 30
0.0
 10
645.6215896025
 20
426.0549469794
 30
0.0
 10
645.6096719773
 20
427.2767615049
 30
0.0
 10
645.5928112679999
 20
428.1063359875
 30
0.0
 10
645.5778953212
 20
428.6154750986
 30
0.0
 10
645.560298599
 20
429.0472659941999
 30
0.0
 10
645.5394495263
 20
429.4032980801
 30
0.0
 10
645.5174589962
 20
429.6770035093
 30
0.0
 10
645.4902588556999
 20
429.8831275822999
 30
0.0
 10
645.4686384946
 20
429.9922732721999
 30
0.0
 10
645.4397615697001
 20
430.0623435401
 30
0.0
 10
645.4224517423
 20
430.0627057326
 30
0.0
  0
SPLINE
  5
415
330
213
100
AcDbEntity
  8
RUNDUNGEN
  6
Continuous
 62
     9
100
AcDbSpline
210
0.0
220
0.0
230
1.0
 70
     8
 71
     3
 72
     9
 73
     5
 74
     0
 42
0.0000000001
 43
0.0000000001
 40
0.0
 40
0.0
 40
0.0
 40
0.0
 40
0.2481165186
 40
1.0
 40
1.0
 40
1.0
 40
1.0
 10
620.8693419258
 20
355.2788908204
 30
0.0
 10
620.8715673374999
 20
355.772584787
 30
0.0
 10
620.8800813214
 20
357.762353445
 30
0.0
 10
620.8868644146
 20
359.7521294105
 30
0.0
 10
620.8911042933
 20
361.2482112552
 30
0.0
  0
SPLINE
  5
416
330
213
100
AcDbEntity
  8
RUNDUNGEN
  6
Continuous
 62
     9
100
AcDbSpline
210
0.0
220
0.0
230
1.0
 70
     8
 71
     3
 72
     9
 73
     5
 74
     0
 42
0.0000000001
 43
0.0000000001
 40
0.0
 40
0.0
 40
0.0
 40
0.0
 40
0.2488831129
 40
1.0
 40
1.0
 40
1.0
 40
1.0
 10
621.8386240032
 20
362.2466886939
 30
0.0
 10
622.4776580801999
 20
362.2783051854
 30
0.0
 10
625.0452426416
 20
362.4057963335
 30
0.0
 10
627.612719154
 20
362.5354624306
 30
0.0
 10
629.5411357028999
 20
362.633993535
 30
0.0
  0
SPLINE
  5
417
330
213
100
AcDbEntity
  8
RUNDUNGEN
  6
Continuous
 62
     9
100
AcDbSpline
210
0.0
220
0.0
230
1.0
 70
     8
 71
     3
 72
     8
 73
     4
 74
     0
 42
0.0000000001
 43
0.0000000001
 40
0.0
 40
0.0
 40
0.0
 40
0.0
 40
1.0
 40
1.0
 40
1.0
 40
1.0
 10
643.7348481622
 20
391.0339730049
 30
0.0
 10
643.9752044725
 20
391.5418128096
 30
0.0
 10
644.2154282704
 20
392.0497153536
 30
0.0
 10
644.4555159623
 20
392.5576822062
 30
0.0
  0
SPLINE
  5
418
330
213
100
AcDbEntity
  8
RUNDUNGEN
  6
Continuous
 62
     9
100
AcDbSpline
210
0.0
220
0.0
230
1.0
 70
     8
 71
     3
 72
    11
 73
     7
 74
     0
 42
0.0000000001
 43
0.0000000001
 40
0.0
 40
0.0
 40
0.0
 40
0.0
 40
0.2515950374
 40
0.5023055152
 40
0.7517231282
 40
1.0
 40
1.0
 40
1.0
 40
1.0
 10
562.9437936798
 20
466.9083627481
 30
0.0
 10
562.9438248858999
 20
466.6346837000999
 30
0.0
 10
562.814959546
 20
466.080774351
 30
0.0
 10
562.2931675405999
 20
465.4215750323
 30
0.0
 10
561.5683773393
 20
465.0131082576
 30
0.0
 10
561.0224138886
 20
464.922922554
 30
0.0
 10
560.7523442599999
 20
464.9229319737999
 30
0.0
  0
SPLINE
  5
41A
330
213
100
AcDbEntity
  8
RUNDUNGEN
  6
Continuous
 62
     9
100
AcDbSpline
210
0.0
220
0.0
230
1.0
 70
     8
 71
     3
 72
    26
 73
    22
 74
     0
 42
0.0000000001
 43
0.0000000001
 40
0.0
 40
0.0
 40
0.0
 40
0.0
 40
0.0005585084
 40
0.0015988471
 40
0.0053847943
 40
0.0115199342
 40
0.0200118045
 40
0.030848481
 40
0.0440072554
 40
0.0594588839
 40
0.0771673186
 40
0.1191823535
 40
0.1696533639
 40
0.2280981416
 40
0.2939569333
 40
0.3665982015
 40
0.4453249112
 40
0.5293812574
 40
0.6179600358
 40
0.8052456553
 40
1.0
 40
1.0
 40
1.0
 40
1.0
 10
604.6372532138999
 20
356.0103274786
 30
0.0
 10
604.6367306026999
 20
356.0047627429
 30
0.0
 10
604.6229189121
 20
355.992579078
 30
0.0
 10
604.5739277191001
 20
355.9740606169
 30
0.0
 10
604.4645765248
 20
355.9514378569001
 30
0.0
 10
604.2828987187999
 20
355.9270617040001
 30
0.0
 10
604.0288597195
 20
355.9017598504
 30
0.0
 10
603.7048801276999
 20
355.8765452627
 30
0.0
 10
603.3108493741
 20
355.8513961284
 30
0.0
 10
602.8479998752999
 20
355.8265339135
 30
0.0
 10
602.0964773359
 20
355.7918616776
 30
0.0
 10
600.9944564056
 20
355.7510662923001
 30
0.0
 10
599.4846775034999
 20
355.7065046242
 30
0.0
 10
597.7361312755999
 20
355.6646323383
 30
0.0
 10
595.7655998518999
 20
355.625889725
 30
0.0
 10
593.5920036990999
 20
355.5907160567
 30
0.0
 10
591.2362205148999
 20
355.5594766036
 30
0.0
 10
588.7208822157999
 20
355.5324906259
 30
0.0
 10
585.1191348046
 20
355.5019897867
 30
0.0
 10
580.4095155697
 20
355.4767979489
 30
0.0
 10
576.5862823444
 20
355.4701343645
 30
0.0
 10
574.6372960018
 20
355.4701343645
 30
0.0
  0
SPLINE
  5
41B
330
213
100
AcDbEntity
  8
RUNDUNGEN
  6
Continuous
 62
     9
100
AcDbSpline
210
0.0
220
0.0
230
1.0
 70
     8
 71
     3
 72
     8
 73
     4
 74
     0
 42
0.0000000001
 43
0.0000000001
 40
0.0
 40
0.0
 40
0.0
 40
0.0
 40
1.0
 40
1.0
 40
1.0
 40
1.0
 10
589.796593601
 20
466.0106642593
 30
0.0
 10
589.3078705873
 20
465.9816818357
 30
0.0
 10
588.8191686118
 20
465.9523438607
 30
0.0
 10
588.3304804458
 20
465.9227796688999
 30
0.0
  0
SPLINE
  5
41C
330
213
100
AcDbEntity
  8
RUNDUNGEN
  6
Continuous
 62
     9
100
AcDbSpline
210
0.0
220
0.0
230
1.0
 70
     8
 71
     3
 72
     8
 73
     4
 74
     0
 42
0.0000000001
 43
0.0000000001
 40
0.0
 40
0.0
 40
0.0
 40
0.0
 40
1.0
 40
1.0
 40
1.0
 40
1.0
 10
560.9441538720999
 20
465.9227796688999
 30
0.0
 10
560.4554753303999
 20
465.9523432851999
 30
0.0
 10
559.9667830819
 20
465.9816823973
 30
0.0
 10
559.4780696932999
 20
466.0106642593
 30
0.0
  0
SPLINE
  5
41D
330
213
100
AcDbEntity
  8
RUNDUNGEN
  6
Continuous
 62
     9
100
AcDbSpline
210
0.0
220
0.0
230
1.0
 70
     8
 71
     3
 72
     8
 73
     4
 74
     0
 42
0.0000000001
 43
0.0000000001
 40
0.0
 40
0.0
 40
0.0
 40
0.0
 40
1.0
 40
1.0
 40
1.0
 40
1.0
 10
588.3304016097
 20
454.8884788049
 30
0.0
 10
588.8248585096
 20
454.858565594
 30
0.0
 10
589.3193295921999
 20
454.8288846919
 30
0.0
 10
589.8138222131
 20
454.7995679063999
 30
0.0
  0
SPLINE
  5
41E
330
213
100
AcDbEntity
  8
RUNDUNGEN
  6
Continuous
 62
     9
100
AcDbSpline
210
0.0
220
0.0
230
1.0
 70
     8
 71
     3
 72
     8
 73
     4
 74
     0
 42
0.0000000001
 43
0.0000000001
 40
0.0
 40
0.0
 40
0.0
 40
0.0
 40
1.0
 40
1.0
 40
1.0
 40
1.0
 10
559.4607697905001
 20
454.7995679063999
 30
0.0
 10
559.9552624179
 20
454.8288846922
 30
0.0
 10
560.4497335068
 20
454.8585655958
 30
0.0
 10
560.9441904132999
 20
454.8884788049
 30
0.0
  0
SPLINE
  5
41F
330
213
100
AcDbEntity
  8
RUNDUNGEN
  6
Continuous
 62
     9
100
AcDbSpline
210
0.0
220
0.0
230
1.0
 70
     8
 71
     3
 72
     9
 73
     5
 74
     0
 42
0.0000000001
 43
0.0000000001
 40
0.0
 40
0.0
 40
0.0
 40
0.0
 40
0.5178018452000001
 40
1.0
 40
1.0
 40
1.0
 40
1.0
 10
629.5411357028999
 20
362.633993535
 30
0.0
 10
629.7238262866
 20
362.6430588429
 30
0.0
 10
630.0789374716999
 20
362.7606353504
 30
0.0
 10
630.3212556631999
 20
363.0417436488
 30
0.0
 10
630.3961169146
 20
363.1947498755
 30
0.0
  0
LEADER
  5
5C9
330
213
100
AcDbEntity
  8
ZEICHNUNGSBEMASSUNGEN
  6
Continuous
 62
     7
100
AcDbLeader
  3
DIMSTYLE_2
 74
     0
 76
     3
 10
581.6372955288763
 20
489.7278150300809
 30
0.0
 10
597.7758823550762
 20
499.3720591137382
 30
0.0
 10
614.8685124577824
 20
499.3393635352963
 30
0.0
213
8.546107528269942
223
6.697880158863256
233
0.0
1001
ACAD
1000
DSTYLE
1002
{
1070
    41
1040
5.0
1070
   147
1040
1.5
1070
   178
1070
   256
1002
}
  0
LINE
  5
5CA
330
213
100
AcDbEntity
  8
0
100
AcDbLine
 10
617.2262828270596
 20
496.0934617576581
 30
0.0
 11
625.8654461013941
 21
496.0934617576581
 31
0.0
  0
LINE
  5
5CB
330
213
100
AcDbEntity
  8
0
100
AcDbLine
 10
618.721503201639
 20
494.9478348521484
 30
0.0
 11
624.3541369988224
 21
494.9478348521484
 31
0.0
  0
LINE
  5
5CC
330
213
100
AcDbEntity
  8
0
100
AcDbLine
 10
620.1323146551531
 20
494.0153874233963
 30
0.0
 11
623.1363831686062
 21
494.0153874233963
 31
0.0
  0
LINE
  5
5CD
330
213
100
AcDbEntity
  8
0
100
AcDbLine
 10
621.4985158071781
 20
497.6882674579855
 30
0.0
 11
621.4985158071781
 21
503.1293730579115
 31
0.0
  0
ENDSEC
  0
SECTION
  2
OBJECTS
  0
DICTIONARY
  5
C
330
0
100
AcDbDictionary
281
     1
  3
ACAD_COLOR
350
451
  3
ACAD_GROUP
350
D
  3
ACAD_LAYOUT
350
1A
  3
ACAD_MATERIAL
350
424
  3
ACAD_MLEADERSTYLE
350
466
  3
ACAD_MLINESTYLE
350
17
  3
ACAD_PLOTSETTINGS
350
19
  3
ACAD_PLOTSTYLENAME
350
E
  3
ACAD_SCALELIST
350
454
  3
ACAD_TABLESTYLE
350
452
  3
ACAD_VISUALSTYLE
350
43D
  3
ACDB_RECOMPOSE_DATA
350
5E3
  3
AcDbVariableDictionary
350
5D4
  3
AcmDictionary
350
4C1
  3
AMG
350
46B
  3
AMGSNAPSETTINGS
350
506
  3
DWGPROPS
350
5E4
  0
DICTIONARY
  5
451
102
{ACAD_REACTORS
330
C
102
}
330
C
100
AcDbDictionary
281
     1
  0
DICTIONARY
  5
D
102
{ACAD_REACTORS
330
C
102
}
330
C
100
AcDbDictionary
281
     1
  0
DICTIONARY
  5
1A
102
{ACAD_REACTORS
330
C
102
}
330
C
100
AcDbDictionary
281
     1
  3
Layout1
350
421
  3
Model
350
420
  0
DICTIONARY
  5
424
102
{ACAD_REACTORS
330
C
102
}
330
C
100
AcDbDictionary
281
     1
  3
ByBlock
350
42D
  3
ByLayer
350
425
  3
Global
350
435
  0
DICTIONARY
  5
466
102
{ACAD_REACTORS
330
C
102
}
330
C
100
AcDbDictionary
281
     1
  3
Standard
350
467
  0
DICTIONARY
  5
17
102
{ACAD_REACTORS
330
C
102
}
330
C
100
AcDbDictionary
281
     1
  3
Standard
350
18
  0
DICTIONARY
  5
19
102
{ACAD_REACTORS
330
C
102
}
330
C
100
AcDbDictionary
281
     1
  0
ACDBDICTIONARYWDFLT
  5
E
102
{ACAD_REACTORS
330
C
102
}
330
C
100
AcDbDictionary
281
     1
  3
Normal
350
F
100
AcDbDictionaryWithDefault
340
F
  0
DICTIONARY
  5
454
102
{ACAD_REACTORS
330
C
102
}
330
C
100
AcDbDictionary
281
     1
  3
A0
350
455
  3
A1
350
456
  3
A2
350
457
  3
A3
350
458
  3
A4
350
459
  3
A5
350
45A
  3
A6
350
45B
  3
A7
350
45C
  3
A8
350
45D
  3
A9
350
45E
  3
B0
350
45F
  3
B1
350
460
  3
B2
350
461
  3
B3
350
462
  3
B4
350
463
  3
B5
350
464
  3
B6
350
465
  0
DICTIONARY
  5
452
102
{ACAD_REACTORS
330
C
102
}
330
C
100
AcDbDictionary
281
     1
  3
Standard
350
453
  0
DICTIONARY
  5
43D
102
{ACAD_REACTORS
330
C
102
}
330
C
100
AcDbDictionary
281
     1
  3
2dWireframe
350
443
  3
3D Hidden
350
445
  3
3dWireframe
350
444
  3
Basic
350
442
  3
Brighten
350
449
  3
ColorChange
350
44D
  3
Conceptual
350
446
  3
Dim
350
448
  3
EdgeColorOff
350
450
  3
Facepattern
350
44C
  3
Flat
350
43E
  3
FlatWithEdges
350
43F
  3
Gouraud
350
440
  3
GouraudWithEdges
350
441
  3
JitterOff
350
44E
  3
Linepattern
350
44B
  3
OverhangOff
350
44F
  3
Realistic
350
447
  3
Thicken
350
44A
  0
XRECORD
  5
5E3
102
{ACAD_REACTORS
330
C
102
}
330
C
100
AcDbXrecord
280
     1
 90
        1
330
453
  0
DICTIONARY
  5
5D4
102
{ACAD_REACTORS
330
C
102
}
330
C
100
AcDbDictionary
281
     1
  3
CANNOSCALE
350
5D8
  3
CMLEADERSTYLE
350
5D6
  3
CTABLESTYLE
350
5D5
  3
DIMASSOC
350
5DF
  3
HIDETEXT
350
5DE
  3
INDEXCTL
350
5DD
  3
LAYEREVAL
350
5DA
  3
LAYERNOTIFY
350
5DB
  3
LIGHTINGUNITS
350
5D9
  3
MSLTSCALE
350
5D7
  3
SORTENTS
350
5DC
  3
XCLIPFRAME
350
5E0
  0
DICTIONARY
  5
4C1
102
{ACAD_REACTORS
330
C
102
}
330
C
100
AcDbDictionary
281
     1
  3
AcmStdDictionary
350
4CB
  0
DICTIONARY
  5
46B
102
{ACAD_REACTORS
330
C
102
}
330
C
100
AcDbDictionary
281
     1
  0
DICTIONARY
  5
506
102
{ACAD_REACTORS
330
C
102
}
330
C
100
AcDbDictionary
281
     1
  0
XRECORD
  5
5E4
102
{ACAD_REACTORS
330
C
102
}
330
C
100
AcDbXrecord
280
     1
  1
DWGPROPS COOKIE
  2

  3

  4

  6

  7

  8
sheim
  9

300
=
301
=
302
=
303
=
304
=
305
=
306
=
307
=
308
=
309
=
 40
0.0032685763888889
 41
2456325.332838588
 42
2456325.336106806
  1

 90
        0
  0
LAYOUT
  5
421
102
{ACAD_XDICTIONARY
360
5E7
102
}
102
{ACAD_REACTORS
330
1A
102
}
330
1A
100
AcDbPlotSettings
  1

  2
none_device
  4
ISO_A0_(1189.00_x_841.00_MM)
  6

 40
0.0
 41
0.0
 42
0.0
 43
0.0
 44
1189.0
 45
841.0
 46
0.0
 47
0.0
 48
0.0
 49
0.0
140
0.0
141
0.0
142
1.0
143
1.0
 70
     0
 72
     1
 73
     0
 74
     0
  7

 75
     0
147
1.0
148
0.0
149
0.0
100
AcDbLayout
  1
Layout1
 70
     1
 71
     1
 10
0.0
 20
0.0
 11
12.0
 21
9.0
 12
0.0
 22
0.0
 32
0.0
 14
1.000000000000000E+20
 24
1.000000000000000E+20
 34
1.000000000000000E+20
 15
-1.000000000000000E+20
 25
-1.000000000000000E+20
 35
-1.000000000000000E+20
146
0.0
 13
0.0
 23
0.0
 33
0.0
 16
1.0
 26
0.0
 36
0.0
 17
0.0
 27
1.0
 37
0.0
 76
     0
330
214
  0
LAYOUT
  5
420
102
{ACAD_XDICTIONARY
360
5E5
102
}
102
{ACAD_REACTORS
330
1A
102
}
330
1A
100
AcDbPlotSettings
  1

  2
none_device
  4
ISO_A0_(1189.00_x_841.00_MM)
  6

 40
0.0
 41
0.0
 42
0.0
 43
0.0
 44
1189.0
 45
841.0
 46
0.0
 47
0.0
 48
0.0
 49
0.0
140
0.0
141
0.0
142
1.0
143
1.0
 70
  1024
 72
     1
 73
     0
 74
     0
  7

 75
     0
147
1.0
148
0.0
149
0.0
100
AcDbLayout
  1
Model
 70
     0
 71
     0
 10
0.0
 20
0.0
 11
1189.0
 21
841.0
 12
0.0
 22
0.0
 32
0.0
 14
0.0
 24
0.0
 34
0.0
 15
0.0
 25
0.0
 35
0.0
146
0.0
 13
0.0
 23
0.0
 33
0.0
 16
1.0
 26
0.0
 36
0.0
 17
0.0
 27
1.0
 37
0.0
 76
     0
330
213
331
1F4
  0
MATERIAL
  5
42D
102
{ACAD_XDICTIONARY
360
42E
102
}
102
{ACAD_REACTORS
330
424
102
}
330
424
100
AcDbMaterial
  1
ByBlock
 72
     0
 43
0.0008202099737533
 43
0.0
 43
0.0
 43
0.0
 43
0.0
 43
0.0008202099737533
 43
0.0
 43
0.0
 43
0.0
 43
0.0
 43
1.0
 43
0.0
 43
0.0
 43
0.0
 43
0.0
 43
1.0
 77
     0
 47
0.0008202099737533
 47
0.0
 47
0.0
 47
0.0
 47
0.0
 47
0.0008202099737533
 47
0.0
 47
0.0
 47
0.0
 47
0.0
 47
1.0
 47
0.0
 47
0.0
 47
0.0
 47
0.0
 47
1.0
171
     0
 49
0.0008202099737533
 49
0.0
 49
0.0
 49
0.0
 49
0.0
 49
0.0008202099737533
 49
0.0
 49
0.0
 49
0.0
 49
0.0
 49
1.0
 49
0.0
 49
0.0
 49
0.0
 49
0.0
 49
1.0
175
     0
142
0.0008202099737533
142
0.0
142
0.0
142
0.0
142
0.0
142
0.0008202099737533
142
0.0
142
0.0
142
0.0
142
0.0
142
1.0
142
0.0
142
0.0
142
0.0
142
0.0
142
1.0
179
     0
144
0.0008202099737533
144
0.0
144
0.0
144
0.0
144
0.0
144
0.0008202099737533
144
0.0
144
0.0
144
0.0
144
0.0
144
1.0
144
0.0
144
0.0
144
0.0
144
0.0
144
1.0
147
0.0008202099737533
147
0.0
147
0.0
147
0.0
147
0.0
147
0.0008202099737533
147
0.0
147
0.0
147
0.0
147
0.0
147
1.0
147
0.0
147
0.0
147
0.0
147
0.0
147
1.0
  0
MATERIAL
  5
425
102
{ACAD_XDICTIONARY
360
426
102
}
102
{ACAD_REACTORS
330
424
102
}
330
424
100
AcDbMaterial
  1
ByLayer
 72
     0
 43
0.0008202099737533
 43
0.0
 43
0.0
 43
0.0
 43
0.0
 43
0.0008202099737533
 43
0.0
 43
0.0
 43
0.0
 43
0.0
 43
1.0
 43
0.0
 43
0.0
 43
0.0
 43
0.0
 43
1.0
 77
     0
 47
0.0008202099737533
 47
0.0
 47
0.0
 47
0.0
 47
0.0
 47
0.0008202099737533
 47
0.0
 47
0.0
 47
0.0
 47
0.0
 47
1.0
 47
0.0
 47
0.0
 47
0.0
 47
0.0
 47
1.0
171
     0
 49
0.0008202099737533
 49
0.0
 49
0.0
 49
0.0
 49
0.0
 49
0.0008202099737533
 49
0.0
 49
0.0
 49
0.0
 49
0.0
 49
1.0
 49
0.0
 49
0.0
 49
0.0
 49
0.0
 49
1.0
175
     0
142
0.0008202099737533
142
0.0
142
0.0
142
0.0
142
0.0
142
0.0008202099737533
142
0.0
142
0.0
142
0.0
142
0.0
142
1.0
142
0.0
142
0.0
142
0.0
142
0.0
142
1.0
179
     0
144
0.0008202099737533
144
0.0
144
0.0
144
0.0
144
0.0
144
0.0008202099737533
144
0.0
144
0.0
144
0.0
144
0.0
144
1.0
144
0.0
144
0.0
144
0.0
144
0.0
144
1.0
147
0.0008202099737533
147
0.0
147
0.0
147
0.0
147
0.0
147
0.0008202099737533
147
0.0
147
0.0
147
0.0
147
0.0
147
1.0
147
0.0
147
0.0
147
0.0
147
0.0
147
1.0
  0
MATERIAL
  5
435
102
{ACAD_XDICTIONARY
360
436
102
}
102
{ACAD_REACTORS
330
424
102
}
330
424
100
AcDbMaterial
  1
Global
 72
     0
 43
0.0008202099737533
 43
0.0
 43
0.0
 43
0.0
 43
0.0
 43
0.0008202099737533
 43
0.0
 43
0.0
 43
0.0
 43
0.0
 43
1.0
 43
0.0
 43
0.0
 43
0.0
 43
0.0
 43
1.0
 77
     0
 47
0.0008202099737533
 47
0.0
 47
0.0
 47
0.0
 47
0.0
 47
0.0008202099737533
 47
0.0
 47
0.0
 47
0.0
 47
0.0
 47
1.0
 47
0.0
 47
0.0
 47
0.0
 47
0.0
 47
1.0
171
     0
 49
0.0008202099737533
 49
0.0
 49
0.0
 49
0.0
 49
0.0
 49
0.0008202099737533
 49
0.0
 49
0.0
 49
0.0
 49
0.0
 49
1.0
 49
0.0
 49
0.0
 49
0.0
 49
0.0
 49
1.0
175
     0
142
0.0008202099737533
142
0.0
142
0.0
142
0.0
142
0.0
142
0.0008202099737533
142
0.0
142
0.0
142
0.0
142
0.0
142
1.0
142
0.0
142
0.0
142
0.0
142
0.0
142
1.0
179
     0
144
0.0008202099737533
144
0.0
144
0.0
144
0.0
144
0.0
144
0.0008202099737533
144
0.0
144
0.0
144
0.0
144
0.0
144
1.0
144
0.0
144
0.0
144
0.0
144
0.0
144
1.0
147
0.0008202099737533
147
0.0
147
0.0
147
0.0
147
0.0
147
0.0008202099737533
147
0.0
147
0.0
147
0.0
147
0.0
147
1.0
147
0.0
147
0.0
147
0.0
147
0.0
147
1.0
  0
MLEADERSTYLE
  5
467
102
{ACAD_REACTORS
330
466
102
}
330
466
100
AcDbMLeaderStyle
170
     2
171
     1
172
     0
 90
        2
 40
0.0
 41
0.0
173
     1
 91
-1056964608
340
14
 92
       -2
290
     1
 42
2.0
291
     1
 43
0.36
  3
Standard
 44
4.0
300

342
11
174
     1
178
     6
175
     1
176
     0
 93
-1056964608
 45
4.0
292
     0
297
     0
 46
4.0
 94
-1056964608
 47
1.0
 49
1.0
140
1.0
293
     1
141
0.0
294
     1
177
     0
142
1.0
295
     0
296
     0
143
0.125
1001
ACAD_MLEADERVER
1070
     2
  0
MLINESTYLE
  5
18
102
{ACAD_REACTORS
330
17
102
}
330
17
100
AcDbMlineStyle
  2
STANDARD
 70
     0
  3

 62
   256
 51
90.0
 52
90.0
 71
     2
 49
0.5
 62
   256
  6
BYLAYER
 49
-0.5
 62
   256
  6
BYLAYER
  0
ACDBPLACEHOLDER
  5
F
102
{ACAD_REACTORS
330
E
102
}
330
E
  0
SCALE
  5
455
102
{ACAD_REACTORS
330
454
102
}
330
454
100
AcDbScale
 70
     0
300
1:1
140
1.0
141
1.0
290
     1
  0
SCALE
  5
456
102
{ACAD_REACTORS
330
454
102
}
330
454
100
AcDbScale
 70
     0
300
1:2
140
1.0
141
2.0
290
     0
  0
SCALE
  5
457
102
{ACAD_REACTORS
330
454
102
}
330
454
100
AcDbScale
 70
     0
300
1:4
140
1.0
141
4.0
290
     0
  0
SCALE
  5
458
102
{ACAD_REACTORS
330
454
102
}
330
454
100
AcDbScale
 70
     0
300
1:5
140
1.0
141
5.0
290
     0
  0
SCALE
  5
459
102
{ACAD_REACTORS
330
454
102
}
330
454
100
AcDbScale
 70
     0
300
1:8
140
1.0
141
8.0
290
     0
  0
SCALE
  5
45A
102
{ACAD_REACTORS
330
454
102
}
330
454
100
AcDbScale
 70
     0
300
1:10
140
1.0
141
10.0
290
     0
  0
SCALE
  5
45B
102
{ACAD_REACTORS
330
454
102
}
330
454
100
AcDbScale
 70
     0
300
1:16
140
1.0
141
16.0
290
     0
  0
SCALE
  5
45C
102
{ACAD_REACTORS
330
454
102
}
330
454
100
AcDbScale
 70
     0
300
1:20
140
1.0
141
20.0
290
     0
  0
SCALE
  5
45D
102
{ACAD_REACTORS
330
454
102
}
330
454
100
AcDbScale
 70
     0
300
1:30
140
1.0
141
30.0
290
     0
  0
SCALE
  5
45E
102
{ACAD_REACTORS
330
454
102
}
330
454
100
AcDbScale
 70
     0
300
1:40
140
1.0
141
40.0
290
     0
  0
SCALE
  5
45F
102
{ACAD_REACTORS
330
454
102
}
330
454
100
AcDbScale
 70
     0
300
1:50
140
1.0
141
50.0
290
     0
  0
SCALE
  5
460
102
{ACAD_REACTORS
330
454
102
}
330
454
100
AcDbScale
 70
     0
300
1:100
140
1.0
141
100.0
290
     0
  0
SCALE
  5
461
102
{ACAD_REACTORS
330
454
102
}
330
454
100
AcDbScale
 70
     0
300
2:1
140
2.0
141
1.0
290
     0
  0
SCALE
  5
462
102
{ACAD_REACTORS
330
454
102
}
330
454
100
AcDbScale
 70
     0
300
4:1
140
4.0
141
1.0
290
     0
  0
SCALE
  5
463
102
{ACAD_REACTORS
330
454
102
}
330
454
100
AcDbScale
 70
     0
300
8:1
140
8.0
141
1.0
290
     0
  0
SCALE
  5
464
102
{ACAD_REACTORS
330
454
102
}
330
454
100
AcDbScale
 70
     0
300
10:1
140
10.0
141
1.0
290
     0
  0
SCALE
  5
465
102
{ACAD_REACTORS
330
454
102
}
330
454
100
AcDbScale
 70
     0
300
100:1
140
100.0
141
1.0
290
     0
  0
TABLESTYLE
  5
453
102
{ACAD_XDICTIONARY
360
5E1
102
}
102
{ACAD_REACTORS
330
452
102
}
330
452
100
AcDbTableStyle
  3
Standard
 70
     0
 71
     0
 40
1.5
 41
1.5
280
     0
281
     0
  7
STANDARD
140
4.5
170
     2
 62
     0
 63
     7
283
     0
274
    -2
284
     1
 64
     0
275
    -2
285
     1
 65
     0
276
    -2
286
     1
 66
     0
277
    -2
287
     1
 67
     0
278
    -2
288
     1
 68
     0
279
    -2
289
     1
 69
     0
  7
STANDARD
140
6.0
170
     5
 62
     0
 63
     7
283
     0
274
    -2
284
     1
 64
     0
275
    -2
285
     1
 65
     0
276
    -2
286
     1
 66
     0
277
    -2
287
     1
 67
     0
278
    -2
288
     1
 68
     0
279
    -2
289
     1
 69
     0
  7
STANDARD
140
4.5
170
     5
 62
     0
 63
     7
283
     0
274
    -2
284
     1
 64
     0
275
    -2
285
     1
 65
     0
276
    -2
286
     1
 66
     0
277
    -2
287
     1
 67
     0
278
    -2
288
     1
 68
     0
279
    -2
289
     1
 69
     0
  0
VISUALSTYLE
  5
443
102
{ACAD_XDICTIONARY
360
5F6
102
}
102
{ACAD_REACTORS
330
43D
102
}
330
43D
100
AcDbVisualStyle
  2
2dWireframe
 70
     4
 71
     0
 72
     2
 73
     0
 90
        0
 40
-0.6
 41
-30.0
 62
     5
 63
     7
 74
     1
 91
        4
 64
     7
 65
   257
 75
     1
175
     1
 42
1.0
 92
        0
 66
   257
 43
1.0
 76
     1
 77
     6
 78
     2
 67
     7
 79
     5
170
     0
171
     0
290
     0
174
     0
 93
        1
 44
0.0
173
     0
291
     0
 45
0.0
1001
ACAD
1000
AcDbSavedByObjectVersion
1070
     0
  0
VISUALSTYLE
  5
445
102
{ACAD_XDICTIONARY
360
5FA
102
}
102
{ACAD_REACTORS
330
43D
102
}
330
43D
100
AcDbVisualStyle
  2
3D Hidden
 70
     6
 71
     1
 72
     2
 73
     2
 90
        0
 40
-0.6
 41
-30.0
 62
     5
 63
     7
 74
     2
 91
        2
 64
     7
 65
   257
 75
     2
175
     1
 42
179.0
 92
        0
 66
   257
 43
1.0
 76
     1
 77
     6
 78
     2
 67
     7
 79
     3
170
     0
171
     0
290
     0
174
     0
 93
        1
 44
0.0
173
     0
291
     0
 45
0.0
1001
ACAD
1000
AcDbSavedByObjectVersion
1070
     0
  0
VISUALSTYLE
  5
444
102
{ACAD_XDICTIONARY
360
5F8
102
}
102
{ACAD_REACTORS
330
43D
102
}
330
43D
100
AcDbVisualStyle
  2
3dWireframe
 70
     5
 71
     0
 72
     2
 73
     0
 90
        0
 40
-0.6
 41
-30.0
 62
     5
 63
     7
 74
     1
 91
        4
 64
     7
 65
   257
 75
     1
175
     1
 42
1.0
 92
        0
 66
   257
 43
1.0
 76
     1
 77
     6
 78
     2
 67
     7
 79
     5
170
     0
171
     0
290
     0
174
     0
 93
        1
 44
0.0
173
     0
291
     0
 45
0.0
1001
ACAD
1000
AcDbSavedByObjectVersion
1070
     0
  0
VISUALSTYLE
  5
442
102
{ACAD_XDICTIONARY
360
5F4
102
}
102
{ACAD_REACTORS
330
43D
102
}
330
43D
100
AcDbVisualStyle
  2
Basic
 70
     7
 71
     1
 72
     0
 73
     1
 90
        0
 40
-0.6
 41
-30.0
 62
     5
 63
     7
 74
     0
 91
        4
 64
     7
 65
   257
 75
     1
175
     1
 42
1.0
 92
        8
 66
     7
 43
1.0
 76
     1
 77
     6
 78
     2
 67
     7
 79
     5
170
     0
171
     0
290
     0
174
     0
 93
        1
 44
0.0
173
     0
291
     1
 45
0.0
1001
ACAD
1000
AcDbSavedByObjectVersion
1070
     0
  0
VISUALSTYLE
  5
449
102
{ACAD_XDICTIONARY
360
602
102
}
102
{ACAD_REACTORS
330
43D
102
}
330
43D
100
AcDbVisualStyle
  2
Brighten
 70
    12
 71
     2
 72
     2
 73
     0
 90
        0
 40
-0.6
 41
-30.0
 62
     5
 63
     7
 74
     1
 91
        4
 64
     7
 65
   257
 75
     1
175
     1
 42
1.0
 92
        8
 66
     7
 43
1.0
 76
     1
 77
     6
 78
     2
 67
     7
 79
     5
170
     0
171
     0
290
     0
174
     0
 93
        1
 44
50.0
173
     0
291
     1
 45
0.0
1001
ACAD
1000
AcDbSavedByObjectVersion
1070
     0
  0
VISUALSTYLE
  5
44D
102
{ACAD_XDICTIONARY
360
60A
102
}
102
{ACAD_REACTORS
330
43D
102
}
330
43D
100
AcDbVisualStyle
  2
ColorChange
 70
    16
 71
     2
 72
     2
 73
     3
 90
        0
 40
-0.6
 41
-30.0
 62
     5
 63
     8
 74
     1
 91
        4
 64
     7
 65
   257
 75
     1
175
     1
 42
1.0
 92
        8
 66
     8
 43
1.0
 76
     1
 77
     6
 78
     2
 67
     7
 79
     5
170
     0
171
     0
290
     0
174
     0
 93
        1
 44
0.0
173
     0
291
     1
 45
0.0
1001
ACAD
1000
AcDbSavedByObjectVersion
1070
     0
  0
VISUALSTYLE
  5
446
102
{ACAD_XDICTIONARY
360
5FC
102
}
102
{ACAD_REACTORS
330
43D
102
}
330
43D
100
AcDbVisualStyle
  2
Conceptual
 70
     9
 71
     3
 72
     2
 73
     0
 90
        0
 40
-0.6
 41
-30.0
 62
     5
 63
     7
 74
     2
 91
        2
 64
     7
 65
   257
 75
     1
175
     1
 42
179.0
 92
        8
 66
     7
 43
1.0
 76
     1
 77
     6
 78
     2
 67
     7
 79
     3
170
     0
171
     0
290
     0
174
     0
 93
        1
 44
0.0
173
     0
291
     0
 45
0.0
1001
ACAD
1000
AcDbSavedByObjectVersion
1070
     0
  0
VISUALSTYLE
  5
448
102
{ACAD_XDICTIONARY
360
600
102
}
102
{ACAD_REACTORS
330
43D
102
}
330
43D
100
AcDbVisualStyle
  2
Dim
 70
    11
 71
     2
 72
     2
 73
     0
 90
        0
 40
-0.6
 41
-30.0
 62
     5
 63
     7
 74
     1
 91
        4
 64
     7
 65
   257
 75
     1
175
     1
 42
1.0
 92
        8
 66
     7
 43
1.0
 76
     1
 77
     6
 78
     2
 67
     7
 79
     5
170
     0
171
     0
290
     0
174
     0
 93
        1
 44
-50.0
173
     0
291
     1
 45
0.0
1001
ACAD
1000
AcDbSavedByObjectVersion
1070
     0
  0
VISUALSTYLE
  5
450
102
{ACAD_XDICTIONARY
360
610
102
}
102
{ACAD_REACTORS
330
43D
102
}
330
43D
100
AcDbVisualStyle
  2
EdgeColorOff
 70
    22
 71
     2
 72
     2
 73
     0
 90
        0
 40
-0.6
 41
-30.0
 62
     5
 63
     7
 74
     1
 91
        4
 64
     7
 65
   257
 75
     1
175
     1
 42
1.0
 92
        8
 66
     7
 43
1.0
 76
     1
 77
     6
 78
     2
 67
     7
 79
     5
170
     0
171
     0
290
     0
174
     0
 93
        1
 44
0.0
173
     0
291
     1
 45
0.0
1001
ACAD
1000
AcDbSavedByObjectVersion
1070
     0
  0
VISUALSTYLE
  5
44C
102
{ACAD_XDICTIONARY
360
608
102
}
102
{ACAD_REACTORS
330
43D
102
}
330
43D
100
AcDbVisualStyle
  2
Facepattern
 70
    15
 71
     2
 72
     2
 73
     0
 90
        0
 40
-0.6
 41
-30.0
 62
     5
 63
     7
 74
     1
 91
        4
 64
     7
 65
   257
 75
     1
175
     1
 42
1.0
 92
        8
 66
     7
 43
1.0
 76
     1
 77
     6
 78
     2
 67
     7
 79
     5
170
     0
171
     0
290
     0
174
     0
 93
        1
 44
0.0
173
     0
291
     1
 45
0.0
1001
ACAD
1000
AcDbSavedByObjectVersion
1070
     0
  0
VISUALSTYLE
  5
43E
102
{ACAD_XDICTIONARY
360
5EC
102
}
102
{ACAD_REACTORS
330
43D
102
}
330
43D
100
AcDbVisualStyle
  2
Flat
 70
     0
 71
     2
 72
     1
 73
     1
 90
        2
 40
-0.6
 41
30.0
 62
     5
 63
     7
 74
     0
 91
        4
 64
     7
 65
   257
 75
     1
175
     1
 42
1.0
 92
        8
 66
     7
 43
1.0
 76
     1
 77
     6
 78
     2
 67
     7
 79
     5
170
     0
171
     0
290
     0
174
     0
 93
       13
 44
0.0
173
     0
291
     1
 45
0.0
1001
ACAD
1000
AcDbSavedByObjectVersion
1070
     0
  0
VISUALSTYLE
  5
43F
102
{ACAD_XDICTIONARY
360
5EE
102
}
102
{ACAD_REACTORS
330
43D
102
}
330
43D
100
AcDbVisualStyle
  2
FlatWithEdges
 70
     1
 71
     2
 72
     1
 73
     1
 90
        2
 40
-0.6
 41
30.0
 62
     5
 63
     7
 74
     1
 91
        4
 64
     7
 65
   257
 75
     1
175
     1
 42
1.0
 92
        0
 66
   257
 43
1.0
 76
     1
 77
     6
 78
     2
 67
     7
 79
     5
170
     0
171
     0
290
     0
174
     0
 93
       13
 44
0.0
173
     0
291
     1
 45
0.0
1001
ACAD
1000
AcDbSavedByObjectVersion
1070
     0
  0
VISUALSTYLE
  5
440
102
{ACAD_XDICTIONARY
360
5F0
102
}
102
{ACAD_REACTORS
330
43D
102
}
330
43D
100
AcDbVisualStyle
  2
Gouraud
 70
     2
 71
     2
 72
     2
 73
     1
 90
        2
 40
-0.6
 41
30.0
 62
     5
 63
     7
 74
     0
 91
        4
 64
     7
 65
   257
 75
     1
175
     1
 42
1.0
 92
        0
 66
     7
 43
1.0
 76
     1
 77
     6
 78
     2
 67
     7
 79
     5
170
     0
171
     0
290
     0
174
     0
 93
       13
 44
0.0
173
     0
291
     1
 45
0.0
1001
ACAD
1000
AcDbSavedByObjectVersion
1070
     0
  0
VISUALSTYLE
  5
441
102
{ACAD_XDICTIONARY
360
5F2
102
}
102
{ACAD_REACTORS
330
43D
102
}
330
43D
100
AcDbVisualStyle
  2
GouraudWithEdges
 70
     3
 71
     2
 72
     2
 73
     1
 90
        2
 40
-0.6
 41
30.0
 62
     5
 63
     7
 74
     1
 91
        4
 64
     7
 65
   257
 75
     1
175
     1
 42
1.0
 92
        0
 66
   257
 43
1.0
 76
     1
 77
     6
 78
     2
 67
     7
 79
     5
170
     0
171
     0
290
     0
174
     0
 93
       13
 44
0.0
173
     0
291
     1
 45
0.0
1001
ACAD
1000
AcDbSavedByObjectVersion
1070
     0
  0
VISUALSTYLE
  5
44E
102
{ACAD_XDICTIONARY
360
60C
102
}
102
{ACAD_REACTORS
330
43D
102
}
330
43D
100
AcDbVisualStyle
  2
JitterOff
 70
    20
 71
     2
 72
     2
 73
     0
 90
        0
 40
-0.6
 41
-30.0
 62
     5
 63
     7
 74
     1
 91
        4
 64
     7
 65
   257
 75
     1
175
     1
 42
1.0
 92
       10
 66
     7
 43
1.0
 76
     1
 77
     6
 78
     2
 67
     7
 79
     5
170
     0
171
     0
290
     0
174
     0
 93
        1
 44
0.0
173
     0
291
     1
 45
0.0
1001
ACAD
1000
AcDbSavedByObjectVersion
1070
     0
  0
VISUALSTYLE
  5
44B
102
{ACAD_XDICTIONARY
360
606
102
}
102
{ACAD_REACTORS
330
43D
102
}
330
43D
100
AcDbVisualStyle
  2
Linepattern
 70
    14
 71
     2
 72
     2
 73
     0
 90
        0
 40
-0.6
 41
-30.0
 62
     5
 63
     7
 74
     1
 91
        4
 64
     7
 65
   257
 75
     7
175
     7
 42
1.0
 92
        8
 66
     7
 43
1.0
 76
     1
 77
     6
 78
     2
 67
     7
 79
     5
170
     0
171
     0
290
     0
174
     0
 93
        1
 44
0.0
173
     0
291
     1
 45
0.0
1001
ACAD
1000
AcDbSavedByObjectVersion
1070
     0
  0
VISUALSTYLE
  5
44F
102
{ACAD_XDICTIONARY
360
60E
102
}
102
{ACAD_REACTORS
330
43D
102
}
330
43D
100
AcDbVisualStyle
  2
OverhangOff
 70
    21
 71
     2
 72
     2
 73
     0
 90
        0
 40
-0.6
 41
-30.0
 62
     5
 63
     7
 74
     1
 91
        4
 64
     7
 65
   257
 75
     1
175
     1
 42
1.0
 92
        9
 66
     7
 43
1.0
 76
     1
 77
     6
 78
     2
 67
     7
 79
     5
170
     0
171
     0
290
     0
174
     0
 93
        1
 44
0.0
173
     0
291
     1
 45
0.0
1001
ACAD
1000
AcDbSavedByObjectVersion
1070
     0
  0
VISUALSTYLE
  5
447
102
{ACAD_XDICTIONARY
360
5FE
102
}
102
{ACAD_REACTORS
330
43D
102
}
330
43D
100
AcDbVisualStyle
  2
Realistic
 70
     8
 71
     2
 72
     2
 73
     0
 90
        0
 40
-0.6
 41
-30.0
 62
     5
 63
     7
 74
     1
 91
        0
 64
     7
 65
   257
 75
     1
175
     1
 42
1.0
 92
        8
 66
     8
 43
1.0
 76
     1
 77
     6
 78
     2
 67
     7
 79
     5
170
     0
171
     0
290
     0
174
     0
 93
       13
 44
0.0
173
     0
291
     0
 45
0.0
1001
ACAD
1000
AcDbSavedByObjectVersion
1070
     0
  0
VISUALSTYLE
  5
44A
102
{ACAD_XDICTIONARY
360
604
102
}
102
{ACAD_REACTORS
330
43D
102
}
330
43D
100
AcDbVisualStyle
  2
Thicken
 70
    13
 71
     2
 72
     2
 73
     0
 90
        0
 40
-0.6
 41
-30.0
 62
     5
 63
     7
 74
     1
 91
        4
 64
     7
 65
   257
 75
     1
175
     1
 42
1.0
 92
       12
 66
     7
 43
1.0
 76
     1
 77
     6
 78
     2
 67
     7
 79
     5
170
     0
171
     0
290
     0
174
     0
 93
        1
 44
0.0
173
     0
291
     1
 45
0.0
1001
ACAD
1000
AcDbSavedByObjectVersion
1070
     0
  0
DICTIONARYVAR
  5
5D8
102
{ACAD_REACTORS
330
5D4
102
}
330
5D4
100
DictionaryVariables
280
     0
  1
1:1
  0
DICTIONARYVAR
  5
5D6
102
{ACAD_REACTORS
330
5D4
102
}
330
5D4
100
DictionaryVariables
280
     0
  1
STANDARD
  0
DICTIONARYVAR
  5
5D5
102
{ACAD_REACTORS
330
5D4
102
}
330
5D4
100
DictionaryVariables
280
     0
  1
STANDARD
  0
DICTIONARYVAR
  5
5DF
102
{ACAD_REACTORS
330
5D4
102
}
330
5D4
100
DictionaryVariables
280
     0
  1
2
  0
DICTIONARYVAR
  5
5DE
102
{ACAD_REACTORS
330
5D4
102
}
330
5D4
100
DictionaryVariables
280
     0
  1
1
  0
DICTIONARYVAR
  5
5DD
102
{ACAD_REACTORS
330
5D4
102
}
330
5D4
100
DictionaryVariables
280
     0
  1
0
  0
DICTIONARYVAR
  5
5DA
102
{ACAD_REACTORS
330
5D4
102
}
330
5D4
100
DictionaryVariables
280
     0
  1
0
  0
DICTIONARYVAR
  5
5DB
102
{ACAD_REACTORS
330
5D4
102
}
330
5D4
100
DictionaryVariables
280
     0
  1
0
  0
DICTIONARYVAR
  5
5D9
102
{ACAD_REACTORS
330
5D4
102
}
330
5D4
100
DictionaryVariables
280
     0
  1
2
  0
DICTIONARYVAR
  5
5D7
102
{ACAD_REACTORS
330
5D4
102
}
330
5D4
100
DictionaryVariables
280
     0
  1
1
  0
DICTIONARYVAR
  5
5DC
102
{ACAD_REACTORS
330
5D4
102
}
330
5D4
100
DictionaryVariables
280
     0
  1
127
  0
DICTIONARYVAR
  5
5E0
102
{ACAD_REACTORS
330
5D4
102
}
330
5D4
100
DictionaryVariables
280
     0
  1
2
  0
DICTIONARY
  5
4CB
102
{ACAD_REACTORS
330
4C1
102
}
330
4C1
100
AcDbDictionary
281
     1
  0
DICTIONARY
  5
5E7
330
421
100
AcDbDictionary
280
     1
281
     1
  3
ACAD_XREC_ROUNDTRIP
360
5E8
  0
DICTIONARY
  5
5E5
330
420
100
AcDbDictionary
280
     1
281
     1
  3
ACAD_XREC_ROUNDTRIP
360
5E6
  0
DICTIONARY
  5
42E
330
42D
100
AcDbDictionary
280
     1
281
     1
  3
ACAD_XREC_ROUNDTRIP
360
5EA
  3
BUMPTILE
360
430
  3
DIFFUSETILE
360
42F
  3
OPACITYTILE
360
433
  3
REFLECTIONTILE
360
432
  3
REFRACTIONTILE
360
434
  3
SPECULARTILE
360
431
  0
DICTIONARY
  5
426
330
425
100
AcDbDictionary
280
     1
281
     1
  3
ACAD_XREC_ROUNDTRIP
360
5E9
  3
BUMPTILE
360
428
  3
DIFFUSETILE
360
427
  3
OPACITYTILE
360
42B
  3
REFLECTIONTILE
360
42A
  3
REFRACTIONTILE
360
42C
  3
SPECULARTILE
360
429
  0
DICTIONARY
  5
436
330
435
100
AcDbDictionary
280
     1
281
     1
  3
ACAD_XREC_ROUNDTRIP
360
5EB
  3
BUMPTILE
360
438
  3
DIFFUSETILE
360
437
  3
OPACITYTILE
360
43B
  3
REFLECTIONTILE
360
43A
  3
REFRACTIONTILE
360
43C
  3
SPECULARTILE
360
439
  0
DICTIONARY
  5
5E1
330
453
100
AcDbDictionary
280
     1
281
     1
  3
ACAD_ROUNDTRIP_2008_TABLESTYLE_CELLSTYLEMAP
360
5E2
  3
ACAD_XREC_ROUNDTRIP
360
612
  0
DICTIONARY
  5
5F6
330
443
100
AcDbDictionary
280
     1
281
     1
  3
ACAD_XREC_ROUNDTRIP
360
5F7
  0
DICTIONARY
  5
5FA
330
445
100
AcDbDictionary
280
     1
281
     1
  3
ACAD_XREC_ROUNDTRIP
360
5FB
  0
DICTIONARY
  5
5F8
330
444
100
AcDbDictionary
280
     1
281
     1
  3
ACAD_XREC_ROUNDTRIP
360
5F9
  0
DICTIONARY
  5
5F4
330
442
100
AcDbDictionary
280
     1
281
     1
  3
ACAD_XREC_ROUNDTRIP
360
5F5
  0
DICTIONARY
  5
602
330
449
100
AcDbDictionary
280
     1
281
     1
  3
ACAD_XREC_ROUNDTRIP
360
603
  0
DICTIONARY
  5
60A
330
44D
100
AcDbDictionary
280
     1
281
     1
  3
ACAD_XREC_ROUNDTRIP
360
60B
  0
DICTIONARY
  5
5FC
330
446
100
AcDbDictionary
280
     1
281
     1
  3
ACAD_XREC_ROUNDTRIP
360
5FD
  0
DICTIONARY
  5
600
330
448
100
AcDbDictionary
280
     1
281
     1
  3
ACAD_XREC_ROUNDTRIP
360
601
  0
DICTIONARY
  5
610
330
450
100
AcDbDictionary
280
     1
281
     1
  3
ACAD_XREC_ROUNDTRIP
360
611
  0
DICTIONARY
  5
608
330
44C
100
AcDbDictionary
280
     1
281
     1
  3
ACAD_XREC_ROUNDTRIP
360
609
  0
DICTIONARY
  5
5EC
330
43E
100
AcDbDictionary
280
     1
281
     1
  3
ACAD_XREC_ROUNDTRIP
360
5ED
  0
DICTIONARY
  5
5EE
330
43F
100
AcDbDictionary
280
     1
281
     1
  3
ACAD_XREC_ROUNDTRIP
360
5EF
  0
DICTIONARY
  5
5F0
330
440
100
AcDbDictionary
280
     1
281
     1
  3
ACAD_XREC_ROUNDTRIP
360
5F1
  0
DICTIONARY
  5
5F2
330
441
100
AcDbDictionary
280
     1
281
     1
  3
ACAD_XREC_ROUNDTRIP
360
5F3
  0
DICTIONARY
  5
60C
330
44E
100
AcDbDictionary
280
     1
281
     1
  3
ACAD_XREC_ROUNDTRIP
360
60D
  0
DICTIONARY
  5
606
330
44B
100
AcDbDictionary
280
     1
281
     1
  3
ACAD_XREC_ROUNDTRIP
360
607
  0
DICTIONARY
  5
60E
330
44F
100
AcDbDictionary
280
     1
281
     1
  3
ACAD_XREC_ROUNDTRIP
360
60F
  0
DICTIONARY
  5
5FE
330
447
100
AcDbDictionary
280
     1
281
     1
  3
ACAD_XREC_ROUNDTRIP
360
5FF
  0
DICTIONARY
  5
604
330
44A
100
AcDbDictionary
280
     1
281
     1
  3
ACAD_XREC_ROUNDTRIP
360
605
  0
XRECORD
  5
5E8
102
{ACAD_REACTORS
330
5E7
102
}
330
5E7
100
AcDbXrecord
280
     1
102
SHADEPLOT
 70
     0
102
SHADEPLOTRESLEVEL
 70
     2
102
SHADEPLOTCUSTOMDPI
 70
   300
  0
XRECORD
  5
5E6
102
{ACAD_REACTORS
330
5E5
102
}
330
5E5
100
AcDbXrecord
280
     1
102
SHADEPLOT
 70
     0
102
SHADEPLOTRESLEVEL
 70
     2
102
SHADEPLOTCUSTOMDPI
 70
   300
  0
XRECORD
  5
5EA
102
{ACAD_REACTORS
330
42E
102
}
330
42E
100
AcDbXrecord
280
     1
102
MATERIAL
148
0.0
149
0.0
149
0.0
 93
        0
 94
      127
282
     0
 72
     0
 77
     0
171
     0
175
     0
179
     0
273
     0
  0
XRECORD
  5
430
102
{ACAD_REACTORS
330
42E
102
}
330
42E
100
AcDbXrecord
280
     1
270
     1
271
     1
  0
XRECORD
  5
42F
102
{ACAD_REACTORS
330
42E
102
}
330
42E
100
AcDbXrecord
280
     1
270
     1
271
     1
  0
XRECORD
  5
433
102
{ACAD_REACTORS
330
42E
102
}
330
42E
100
AcDbXrecord
280
     1
270
     1
271
     1
  0
XRECORD
  5
432
102
{ACAD_REACTORS
330
42E
102
}
330
42E
100
AcDbXrecord
280
     1
270
     1
271
     1
  0
XRECORD
  5
434
102
{ACAD_REACTORS
330
42E
102
}
330
42E
100
AcDbXrecord
280
     1
270
     1
271
     1
  0
XRECORD
  5
431
102
{ACAD_REACTORS
330
42E
102
}
330
42E
100
AcDbXrecord
280
     1
270
     1
271
     1
  0
XRECORD
  5
5E9
102
{ACAD_REACTORS
330
426
102
}
330
426
100
AcDbXrecord
280
     1
102
MATERIAL
148
0.0
149
0.0
149
0.0
 93
        0
 94
      127
282
     0
 72
     0
 77
     0
171
     0
175
     0
179
     0
273
     0
  0
XRECORD
  5
428
102
{ACAD_REACTORS
330
426
102
}
330
426
100
AcDbXrecord
280
     1
270
     1
271
     1
  0
XRECORD
  5
427
102
{ACAD_REACTORS
330
426
102
}
330
426
100
AcDbXrecord
280
     1
270
     1
271
     1
  0
XRECORD
  5
42B
102
{ACAD_REACTORS
330
426
102
}
330
426
100
AcDbXrecord
280
     1
270
     1
271
     1
  0
XRECORD
  5
42A
102
{ACAD_REACTORS
330
426
102
}
330
426
100
AcDbXrecord
280
     1
270
     1
271
     1
  0
XRECORD
  5
42C
102
{ACAD_REACTORS
330
426
102
}
330
426
100
AcDbXrecord
280
     1
270
     1
271
     1
  0
XRECORD
  5
429
102
{ACAD_REACTORS
330
426
102
}
330
426
100
AcDbXrecord
280
     1
270
     1
271
     1
  0
XRECORD
  5
5EB
102
{ACAD_REACTORS
330
436
102
}
330
436
100
AcDbXrecord
280
     1
102
MATERIAL
148
0.0
149
0.0
149
0.0
 93
        0
 94
      127
282
     0
 72
     0
 77
     0
171
     0
175
     0
179
     0
273
     0
  0
XRECORD
  5
438
102
{ACAD_REACTORS
330
436
102
}
330
436
100
AcDbXrecord
280
     1
270
     1
271
     1
  0
XRECORD
  5
437
102
{ACAD_REACTORS
330
436
102
}
330
436
100
AcDbXrecord
280
     1
270
     1
271
     1
  0
XRECORD
  5
43B
102
{ACAD_REACTORS
330
436
102
}
330
436
100
AcDbXrecord
280
     1
270
     1
271
     1
  0
XRECORD
  5
43A
102
{ACAD_REACTORS
330
436
102
}
330
436
100
AcDbXrecord
280
     1
270
     1
271
     1
  0
XRECORD
  5
43C
102
{ACAD_REACTORS
330
436
102
}
330
436
100
AcDbXrecord
280
     1
270
     1
271
     1
  0
XRECORD
  5
439
102
{ACAD_REACTORS
330
436
102
}
330
436
100
AcDbXrecord
280
     1
270
     1
271
     1
  0
CELLSTYLEMAP
  5
5E2
102
{ACAD_REACTORS
330
5E1
102
}
330
5E1
100
AcDbCellStyleMap
 90
        3
300
CELLSTYLE
  1
TABLEFORMAT_BEGIN
 90
        5
170
     1
 91
        0
 92
    32768
 62
   257
 93
        1
300
CONTENTFORMAT
  1
CONTENTFORMAT_BEGIN
 90
        0
 91
        0
 92
      512
 93
        0
300

 40
0.0
140
1.0
 94
        5
 62
     0
340
11
144
6.0
309
CONTENTFORMAT_END
171
     1
301
MARGIN
  1
CELLMARGIN_BEGIN
 40
1.5
 40
1.5
 40
1.5
 40
1.5
 40
4.5
 40
4.5
309
CELLMARGIN_END
 94
        6
 95
        1
302
GRIDFORMAT
  1
GRIDFORMAT_BEGIN
 90
        0
 91
        1
 62
     0
 92
       -2
340
0
 93
        0
 40
1.125
309
GRIDFORMAT_END
 95
        2
302
GRIDFORMAT
  1
GRIDFORMAT_BEGIN
 90
        0
 91
        1
 62
     0
 92
       -2
340
0
 93
        0
 40
1.125
309
GRIDFORMAT_END
 95
        4
302
GRIDFORMAT
  1
GRIDFORMAT_BEGIN
 90
        0
 91
        1
 62
     0
 92
       -2
340
0
 93
        0
 40
1.125
309
GRIDFORMAT_END
 95
        8
302
GRIDFORMAT
  1
GRIDFORMAT_BEGIN
 90
        0
 91
        1
 62
     0
 92
       -2
340
0
 93
        0
 40
1.125
309
GRIDFORMAT_END
 95
       16
302
GRIDFORMAT
  1
GRIDFORMAT_BEGIN
 90
        0
 91
        1
 62
     0
 92
       -2
340
0
 93
        0
 40
1.125
309
GRIDFORMAT_END
 95
       32
302
GRIDFORMAT
  1
GRIDFORMAT_BEGIN
 90
        0
 91
        1
 62
     0
 92
       -2
340
0
 93
        0
 40
1.125
309
GRIDFORMAT_END
309
TABLEFORMAT_END
  1
CELLSTYLE_BEGIN
 90
        1
 91
        1
300
_TITLE
309
CELLSTYLE_END
300
CELLSTYLE
  1
TABLEFORMAT_BEGIN
 90
        5
170
     1
 91
        0
 92
        0
 62
   257
 93
        1
300
CONTENTFORMAT
  1
CONTENTFORMAT_BEGIN
 90
        0
 91
        0
 92
      512
 93
        0
300

 40
0.0
140
1.0
 94
        5
 62
     0
340
11
144
4.5
309
CONTENTFORMAT_END
171
     1
301
MARGIN
  1
CELLMARGIN_BEGIN
 40
1.5
 40
1.5
 40
1.5
 40
1.5
 40
4.5
 40
4.5
309
CELLMARGIN_END
 94
        6
 95
        1
302
GRIDFORMAT
  1
GRIDFORMAT_BEGIN
 90
        0
 91
        1
 62
     0
 92
       -2
340
0
 93
        0
 40
1.125
309
GRIDFORMAT_END
 95
        2
302
GRIDFORMAT
  1
GRIDFORMAT_BEGIN
 90
        0
 91
        1
 62
     0
 92
       -2
340
0
 93
        0
 40
1.125
309
GRIDFORMAT_END
 95
        4
302
GRIDFORMAT
  1
GRIDFORMAT_BEGIN
 90
        0
 91
        1
 62
     0
 92
       -2
340
0
 93
        0
 40
1.125
309
GRIDFORMAT_END
 95
        8
302
GRIDFORMAT
  1
GRIDFORMAT_BEGIN
 90
        0
 91
        1
 62
     0
 92
       -2
340
0
 93
        0
 40
1.125
309
GRIDFORMAT_END
 95
       16
302
GRIDFORMAT
  1
GRIDFORMAT_BEGIN
 90
        0
 91
        1
 62
     0
 92
       -2
340
0
 93
        0
 40
1.125
309
GRIDFORMAT_END
 95
       32
302
GRIDFORMAT
  1
GRIDFORMAT_BEGIN
 90
        0
 91
        1
 62
     0
 92
       -2
340
0
 93
        0
 40
1.125
309
GRIDFORMAT_END
309
TABLEFORMAT_END
  1
CELLSTYLE_BEGIN
 90
        2
 91
        1
300
_HEADER
309
CELLSTYLE_END
300
CELLSTYLE
  1
TABLEFORMAT_BEGIN
 90
        5
170
     1
 91
        0
 92
        0
 62
   257
 93
        1
300
CONTENTFORMAT
  1
CONTENTFORMAT_BEGIN
 90
        0
 91
        0
 92
      512
 93
        0
300

 40
0.0
140
1.0
 94
        2
 62
     0
340
11
144
4.5
309
CONTENTFORMAT_END
171
     1
301
MARGIN
  1
CELLMARGIN_BEGIN
 40
1.5
 40
1.5
 40
1.5
 40
1.5
 40
4.5
 40
4.5
309
CELLMARGIN_END
 94
        6
 95
        1
302
GRIDFORMAT
  1
GRIDFORMAT_BEGIN
 90
        0
 91
        1
 62
     0
 92
       -2
340
0
 93
        0
 40
1.125
309
GRIDFORMAT_END
 95
        2
302
GRIDFORMAT
  1
GRIDFORMAT_BEGIN
 90
        0
 91
        1
 62
     0
 92
       -2
340
0
 93
        0
 40
1.125
309
GRIDFORMAT_END
 95
        4
302
GRIDFORMAT
  1
GRIDFORMAT_BEGIN
 90
        0
 91
        1
 62
     0
 92
       -2
340
0
 93
        0
 40
1.125
309
GRIDFORMAT_END
 95
        8
302
GRIDFORMAT
  1
GRIDFORMAT_BEGIN
 90
        0
 91
        1
 62
     0
 92
       -2
340
0
 93
        0
 40
1.125
309
GRIDFORMAT_END
 95
       16
302
GRIDFORMAT
  1
GRIDFORMAT_BEGIN
 90
        0
 91
        1
 62
     0
 92
       -2
340
0
 93
        0
 40
1.125
309
GRIDFORMAT_END
 95
       32
302
GRIDFORMAT
  1
GRIDFORMAT_BEGIN
 90
        0
 91
        1
 62
     0
 92
       -2
340
0
 93
        0
 40
1.125
309
GRIDFORMAT_END
309
TABLEFORMAT_END
  1
CELLSTYLE_BEGIN
 90
        3
 91
        2
300
_DATA
309
CELLSTYLE_END
  0
XRECORD
  5
612
102
{ACAD_REACTORS
330
5E1
102
}
330
5E1
100
AcDbXrecord
280
     1
102
ACAD_ROUNDTRIP_PRE2007_TABLESTYLE
 90
      512
 91
        0
  1

 92
      512
 93
        0
  2

 94
      512
 95
        0
  3

  0
XRECORD
  5
5F7
102
{ACAD_REACTORS
330
5F6
102
}
330
5F6
100
AcDbXrecord
280
     1
102
RTVSPropertyOp0
 70
     1
102
RTVSPropertyOp1
 70
     1
102
RTVSPropertyOp2
 70
     1
102
RTVSPropertyOp3
 70
     1
102
RTVSPropertyOp4
 70
     1
102
RTVSPropertyOp5
 70
     1
102
RTVSPropertyOp6
 70
     1
102
RTVSPropertyOp7
 70
     1
102
RTVSPropertyOp8
 70
     1
102
RTVSPropertyOp9
 70
     1
102
RTVSPropertyOp10
 70
     1
102
RTVSPropertyOp11
 70
     1
102
RTVSPropertyOp12
 70
     1
102
RTVSPropertyOp13
 70
     1
102
RTVSPropertyOp14
 70
     1
102
RTVSPropertyOp15
 70
     1
102
RTVSPropertyOp16
 70
     1
102
RTVSPropertyOp17
 70
     1
102
RTVSPropertyOp18
 70
     1
102
RTVSPropertyOp19
 70
     1
102
RTVSPropertyOp20
 70
     1
102
RTVSPropertyOp21
 70
     1
102
RTVSPropertyOp22
 70
     1
102
RTVSPropertyOp23
 70
     1
102
RTVSPropertyOp24
 70
     1
102
RTVSPropertyOp25
 70
     1
102
RTVSPropertyOp26
 70
     1
102
RTVSPropertyOp27
 70
     1
  0
XRECORD
  5
5FB
102
{ACAD_REACTORS
330
5FA
102
}
330
5FA
100
AcDbXrecord
280
     1
102
RTVSPropertyOp0
 70
     1
102
RTVSPropertyOp1
 70
     1
102
RTVSPropertyOp2
 70
     1
102
RTVSPropertyOp3
 70
     1
102
RTVSPropertyOp4
 70
     1
102
RTVSPropertyOp5
 70
     1
102
RTVSPropertyOp6
 70
     1
102
RTVSPropertyOp7
 70
     1
102
RTVSPropertyOp8
 70
     1
102
RTVSPropertyOp9
 70
     1
102
RTVSPropertyOp10
 70
     1
102
RTVSPropertyOp11
 70
     1
102
RTVSPropertyOp12
 70
     1
102
RTVSPropertyOp13
 70
     1
102
RTVSPropertyOp14
 70
     1
102
RTVSPropertyOp15
 70
     1
102
RTVSPropertyOp16
 70
     1
102
RTVSPropertyOp17
 70
     1
102
RTVSPropertyOp18
 70
     1
102
RTVSPropertyOp19
 70
     1
102
RTVSPropertyOp20
 70
     1
102
RTVSPropertyOp21
 70
     1
102
RTVSPropertyOp22
 70
     1
102
RTVSPropertyOp23
 70
     1
102
RTVSPropertyOp24
 70
     1
102
RTVSPropertyOp25
 70
     1
102
RTVSPropertyOp26
 70
     1
102
RTVSPropertyOp27
 70
     1
  0
XRECORD
  5
5F9
102
{ACAD_REACTORS
330
5F8
102
}
330
5F8
100
AcDbXrecord
280
     1
102
RTVSPropertyOp0
 70
     1
102
RTVSPropertyOp1
 70
     1
102
RTVSPropertyOp2
 70
     1
102
RTVSPropertyOp3
 70
     1
102
RTVSPropertyOp4
 70
     1
102
RTVSPropertyOp5
 70
     1
102
RTVSPropertyOp6
 70
     1
102
RTVSPropertyOp7
 70
     1
102
RTVSPropertyOp8
 70
     1
102
RTVSPropertyOp9
 70
     1
102
RTVSPropertyOp10
 70
     1
102
RTVSPropertyOp11
 70
     1
102
RTVSPropertyOp12
 70
     1
102
RTVSPropertyOp13
 70
     1
102
RTVSPropertyOp14
 70
     1
102
RTVSPropertyOp15
 70
     1
102
RTVSPropertyOp16
 70
     1
102
RTVSPropertyOp17
 70
     1
102
RTVSPropertyOp18
 70
     1
102
RTVSPropertyOp19
 70
     1
102
RTVSPropertyOp20
 70
     1
102
RTVSPropertyOp21
 70
     1
102
RTVSPropertyOp22
 70
     1
102
RTVSPropertyOp23
 70
     1
102
RTVSPropertyOp24
 70
     1
102
RTVSPropertyOp25
 70
     1
102
RTVSPropertyOp26
 70
     1
102
RTVSPropertyOp27
 70
     1
  0
XRECORD
  5
5F5
102
{ACAD_REACTORS
330
5F4
102
}
330
5F4
100
AcDbXrecord
280
     1
102
RTVSPropertyOp0
 70
     1
102
RTVSPropertyOp1
 70
     1
102
RTVSPropertyOp2
 70
     1
102
RTVSPropertyOp3
 70
     1
102
RTVSPropertyOp4
 70
     1
102
RTVSPropertyOp5
 70
     1
102
RTVSPropertyOp6
 70
     1
102
RTVSPropertyOp7
 70
     1
102
RTVSPropertyOp8
 70
     1
102
RTVSPropertyOp9
 70
     1
102
RTVSPropertyOp10
 70
     1
102
RTVSPropertyOp11
 70
     1
102
RTVSPropertyOp12
 70
     1
102
RTVSPropertyOp13
 70
     1
102
RTVSPropertyOp14
 70
     1
102
RTVSPropertyOp15
 70
     1
102
RTVSPropertyOp16
 70
     1
102
RTVSPropertyOp17
 70
     1
102
RTVSPropertyOp18
 70
     1
102
RTVSPropertyOp19
 70
     1
102
RTVSPropertyOp20
 70
     1
102
RTVSPropertyOp21
 70
     1
102
RTVSPropertyOp22
 70
     1
102
RTVSPropertyOp23
 70
     1
102
RTVSPropertyOp24
 70
     1
102
RTVSPropertyOp25
 70
     1
102
RTVSPropertyOp26
 70
     1
102
RTVSPropertyOp27
 70
     1
  0
XRECORD
  5
603
102
{ACAD_REACTORS
330
602
102
}
330
602
100
AcDbXrecord
280
     1
102
RTVSPropertyOp0
 70
     1
102
RTVSPropertyOp1
 70
     1
102
RTVSPropertyOp2
 70
     1
102
RTVSPropertyOp3
 70
     1
102
RTVSPropertyOp4
 70
     1
102
RTVSPropertyOp5
 70
     1
102
RTVSPropertyOp6
 70
     1
102
RTVSPropertyOp7
 70
     1
102
RTVSPropertyOp8
 70
     1
102
RTVSPropertyOp9
 70
     1
102
RTVSPropertyOp10
 70
     1
102
RTVSPropertyOp11
 70
     1
102
RTVSPropertyOp12
 70
     1
102
RTVSPropertyOp13
 70
     1
102
RTVSPropertyOp14
 70
     1
102
RTVSPropertyOp15
 70
     1
102
RTVSPropertyOp16
 70
     1
102
RTVSPropertyOp17
 70
     1
102
RTVSPropertyOp18
 70
     1
102
RTVSPropertyOp19
 70
     1
102
RTVSPropertyOp20
 70
     1
102
RTVSPropertyOp21
 70
     1
102
RTVSPropertyOp22
 70
     1
102
RTVSPropertyOp23
 70
     1
102
RTVSPropertyOp24
 70
     1
102
RTVSPropertyOp25
 70
     1
102
RTVSPropertyOp26
 70
     1
102
RTVSPropertyOp27
 70
     1
  0
XRECORD
  5
60B
102
{ACAD_REACTORS
330
60A
102
}
330
60A
100
AcDbXrecord
280
     1
102
RTVSPropertyOp0
 70
     1
102
RTVSPropertyOp1
 70
     1
102
RTVSPropertyOp2
 70
     1
102
RTVSPropertyOp3
 70
     1
102
RTVSPropertyOp4
 70
     1
102
RTVSPropertyOp5
 70
     1
102
RTVSPropertyOp6
 70
     1
102
RTVSPropertyOp7
 70
     1
102
RTVSPropertyOp8
 70
     1
102
RTVSPropertyOp9
 70
     1
102
RTVSPropertyOp10
 70
     1
102
RTVSPropertyOp11
 70
     1
102
RTVSPropertyOp12
 70
     1
102
RTVSPropertyOp13
 70
     1
102
RTVSPropertyOp14
 70
     1
102
RTVSPropertyOp15
 70
     1
102
RTVSPropertyOp16
 70
     1
102
RTVSPropertyOp17
 70
     1
102
RTVSPropertyOp18
 70
     1
102
RTVSPropertyOp19
 70
     1
102
RTVSPropertyOp20
 70
     1
102
RTVSPropertyOp21
 70
     1
102
RTVSPropertyOp22
 70
     1
102
RTVSPropertyOp23
 70
     1
102
RTVSPropertyOp24
 70
     1
102
RTVSPropertyOp25
 70
     1
102
RTVSPropertyOp26
 70
     1
102
RTVSPropertyOp27
 70
     1
  0
XRECORD
  5
5FD
102
{ACAD_REACTORS
330
5FC
102
}
330
5FC
100
AcDbXrecord
280
     1
102
RTVSPropertyOp0
 70
     1
102
RTVSPropertyOp1
 70
     1
102
RTVSPropertyOp2
 70
     1
102
RTVSPropertyOp3
 70
     1
102
RTVSPropertyOp4
 70
     1
102
RTVSPropertyOp5
 70
     1
102
RTVSPropertyOp6
 70
     1
102
RTVSPropertyOp7
 70
     1
102
RTVSPropertyOp8
 70
     1
102
RTVSPropertyOp9
 70
     1
102
RTVSPropertyOp10
 70
     1
102
RTVSPropertyOp11
 70
     1
102
RTVSPropertyOp12
 70
     1
102
RTVSPropertyOp13
 70
     1
102
RTVSPropertyOp14
 70
     1
102
RTVSPropertyOp15
 70
     1
102
RTVSPropertyOp16
 70
     1
102
RTVSPropertyOp17
 70
     1
102
RTVSPropertyOp18
 70
     1
102
RTVSPropertyOp19
 70
     1
102
RTVSPropertyOp20
 70
     1
102
RTVSPropertyOp21
 70
     1
102
RTVSPropertyOp22
 70
     1
102
RTVSPropertyOp23
 70
     1
102
RTVSPropertyOp24
 70
     1
102
RTVSPropertyOp25
 70
     1
102
RTVSPropertyOp26
 70
     1
102
RTVSPropertyOp27
 70
     1
  0
XRECORD
  5
601
102
{ACAD_REACTORS
330
600
102
}
330
600
100
AcDbXrecord
280
     1
102
RTVSPropertyOp0
 70
     1
102
RTVSPropertyOp1
 70
     1
102
RTVSPropertyOp2
 70
     1
102
RTVSPropertyOp3
 70
     1
102
RTVSPropertyOp4
 70
     1
102
RTVSPropertyOp5
 70
     1
102
RTVSPropertyOp6
 70
     1
102
RTVSPropertyOp7
 70
     1
102
RTVSPropertyOp8
 70
     1
102
RTVSPropertyOp9
 70
     1
102
RTVSPropertyOp10
 70
     1
102
RTVSPropertyOp11
 70
     1
102
RTVSPropertyOp12
 70
     1
102
RTVSPropertyOp13
 70
     1
102
RTVSPropertyOp14
 70
     1
102
RTVSPropertyOp15
 70
     1
102
RTVSPropertyOp16
 70
     1
102
RTVSPropertyOp17
 70
     1
102
RTVSPropertyOp18
 70
     1
102
RTVSPropertyOp19
 70
     1
102
RTVSPropertyOp20
 70
     1
102
RTVSPropertyOp21
 70
     1
102
RTVSPropertyOp22
 70
     1
102
RTVSPropertyOp23
 70
     1
102
RTVSPropertyOp24
 70
     1
102
RTVSPropertyOp25
 70
     1
102
RTVSPropertyOp26
 70
     1
102
RTVSPropertyOp27
 70
     1
  0
XRECORD
  5
611
102
{ACAD_REACTORS
330
610
102
}
330
610
100
AcDbXrecord
280
     1
102
RTVSPropertyOp0
 70
     0
102
RTVSPropertyOp1
 70
     0
102
RTVSPropertyOp2
 70
     0
102
RTVSPropertyOp3
 70
     0
102
RTVSPropertyOp4
 70
     0
102
RTVSPropertyOp5
 70
     0
102
RTVSPropertyOp6
 70
     0
102
RTVSPropertyOp7
 70
     0
102
RTVSPropertyOp8
 70
     0
102
RTVSPropertyOp9
 70
     0
102
RTVSPropertyOp10
 70
     0
102
RTVSPropertyOp11
 70
     0
102
RTVSPropertyOp12
 70
     0
102
RTVSPropertyOp13
 70
     0
102
RTVSPropertyOp14
 70
     2
102
RTVSPropertyOp15
 70
     0
102
RTVSPropertyOp16
 70
     0
102
RTVSPropertyOp17
 70
     0
102
RTVSPropertyOp18
 70
     0
102
RTVSPropertyOp19
 70
     0
102
RTVSPropertyOp20
 70
     0
102
RTVSPropertyOp21
 70
     0
102
RTVSPropertyOp22
 70
     0
102
RTVSPropertyOp23
 70
     0
102
RTVSPropertyOp24
 70
     0
102
RTVSPropertyOp25
 70
     0
102
RTVSPropertyOp26
 70
     0
102
RTVSPropertyOp27
 70
     0
  0
XRECORD
  5
609
102
{ACAD_REACTORS
330
608
102
}
330
608
100
AcDbXrecord
280
     1
102
RTVSPropertyOp0
 70
     1
102
RTVSPropertyOp1
 70
     1
102
RTVSPropertyOp2
 70
     1
102
RTVSPropertyOp3
 70
     1
102
RTVSPropertyOp4
 70
     1
102
RTVSPropertyOp5
 70
     1
102
RTVSPropertyOp6
 70
     1
102
RTVSPropertyOp7
 70
     1
102
RTVSPropertyOp8
 70
     1
102
RTVSPropertyOp9
 70
     1
102
RTVSPropertyOp10
 70
     1
102
RTVSPropertyOp11
 70
     1
102
RTVSPropertyOp12
 70
     1
102
RTVSPropertyOp13
 70
     1
102
RTVSPropertyOp14
 70
     1
102
RTVSPropertyOp15
 70
     1
102
RTVSPropertyOp16
 70
     1
102
RTVSPropertyOp17
 70
     1
102
RTVSPropertyOp18
 70
     1
102
RTVSPropertyOp19
 70
     1
102
RTVSPropertyOp20
 70
     1
102
RTVSPropertyOp21
 70
     1
102
RTVSPropertyOp22
 70
     1
102
RTVSPropertyOp23
 70
     1
102
RTVSPropertyOp24
 70
     1
102
RTVSPropertyOp25
 70
     1
102
RTVSPropertyOp26
 70
     1
102
RTVSPropertyOp27
 70
     1
  0
XRECORD
  5
5ED
102
{ACAD_REACTORS
330
5EC
102
}
330
5EC
100
AcDbXrecord
280
     1
102
RTVSPropertyOp0
 70
     1
102
RTVSPropertyOp1
 70
     1
102
RTVSPropertyOp2
 70
     1
102
RTVSPropertyOp3
 70
     1
102
RTVSPropertyOp4
 70
     1
102
RTVSPropertyOp5
 70
     1
102
RTVSPropertyOp6
 70
     1
102
RTVSPropertyOp7
 70
     1
102
RTVSPropertyOp8
 70
     1
102
RTVSPropertyOp9
 70
     1
102
RTVSPropertyOp10
 70
     1
102
RTVSPropertyOp11
 70
     1
102
RTVSPropertyOp12
 70
     1
102
RTVSPropertyOp13
 70
     1
102
RTVSPropertyOp14
 70
     1
102
RTVSPropertyOp15
 70
     1
102
RTVSPropertyOp16
 70
     1
102
RTVSPropertyOp17
 70
     1
102
RTVSPropertyOp18
 70
     1
102
RTVSPropertyOp19
 70
     1
102
RTVSPropertyOp20
 70
     1
102
RTVSPropertyOp21
 70
     1
102
RTVSPropertyOp22
 70
     1
102
RTVSPropertyOp23
 70
     1
102
RTVSPropertyOp24
 70
     1
102
RTVSPropertyOp25
 70
     1
102
RTVSPropertyOp26
 70
     1
102
RTVSPropertyOp27
 70
     1
  0
XRECORD
  5
5EF
102
{ACAD_REACTORS
330
5EE
102
}
330
5EE
100
AcDbXrecord
280
     1
102
RTVSPropertyOp0
 70
     1
102
RTVSPropertyOp1
 70
     1
102
RTVSPropertyOp2
 70
     1
102
RTVSPropertyOp3
 70
     1
102
RTVSPropertyOp4
 70
     1
102
RTVSPropertyOp5
 70
     1
102
RTVSPropertyOp6
 70
     1
102
RTVSPropertyOp7
 70
     1
102
RTVSPropertyOp8
 70
     1
102
RTVSPropertyOp9
 70
     1
102
RTVSPropertyOp10
 70
     1
102
RTVSPropertyOp11
 70
     1
102
RTVSPropertyOp12
 70
     1
102
RTVSPropertyOp13
 70
     1
102
RTVSPropertyOp14
 70
     1
102
RTVSPropertyOp15
 70
     1
102
RTVSPropertyOp16
 70
     1
102
RTVSPropertyOp17
 70
     1
102
RTVSPropertyOp18
 70
     1
102
RTVSPropertyOp19
 70
     1
102
RTVSPropertyOp20
 70
     1
102
RTVSPropertyOp21
 70
     1
102
RTVSPropertyOp22
 70
     1
102
RTVSPropertyOp23
 70
     1
102
RTVSPropertyOp24
 70
     1
102
RTVSPropertyOp25
 70
     1
102
RTVSPropertyOp26
 70
     1
102
RTVSPropertyOp27
 70
     1
  0
XRECORD
  5
5F1
102
{ACAD_REACTORS
330
5F0
102
}
330
5F0
100
AcDbXrecord
280
     1
102
RTVSPropertyOp0
 70
     1
102
RTVSPropertyOp1
 70
     1
102
RTVSPropertyOp2
 70
     1
102
RTVSPropertyOp3
 70
     1
102
RTVSPropertyOp4
 70
     1
102
RTVSPropertyOp5
 70
     1
102
RTVSPropertyOp6
 70
     1
102
RTVSPropertyOp7
 70
     1
102
RTVSPropertyOp8
 70
     1
102
RTVSPropertyOp9
 70
     1
102
RTVSPropertyOp10
 70
     1
102
RTVSPropertyOp11
 70
     1
102
RTVSPropertyOp12
 70
     1
102
RTVSPropertyOp13
 70
     1
102
RTVSPropertyOp14
 70
     1
102
RTVSPropertyOp15
 70
     1
102
RTVSPropertyOp16
 70
     1
102
RTVSPropertyOp17
 70
     1
102
RTVSPropertyOp18
 70
     1
102
RTVSPropertyOp19
 70
     1
102
RTVSPropertyOp20
 70
     1
102
RTVSPropertyOp21
 70
     1
102
RTVSPropertyOp22
 70
     1
102
RTVSPropertyOp23
 70
     1
102
RTVSPropertyOp24
 70
     1
102
RTVSPropertyOp25
 70
     1
102
RTVSPropertyOp26
 70
     1
102
RTVSPropertyOp27
 70
     1
  0
XRECORD
  5
5F3
102
{ACAD_REACTORS
330
5F2
102
}
330
5F2
100
AcDbXrecord
280
     1
102
RTVSPropertyOp0
 70
     1
102
RTVSPropertyOp1
 70
     1
102
RTVSPropertyOp2
 70
     1
102
RTVSPropertyOp3
 70
     1
102
RTVSPropertyOp4
 70
     1
102
RTVSPropertyOp5
 70
     1
102
RTVSPropertyOp6
 70
     1
102
RTVSPropertyOp7
 70
     1
102
RTVSPropertyOp8
 70
     1
102
RTVSPropertyOp9
 70
     1
102
RTVSPropertyOp10
 70
     1
102
RTVSPropertyOp11
 70
     1
102
RTVSPropertyOp12
 70
     1
102
RTVSPropertyOp13
 70
     1
102
RTVSPropertyOp14
 70
     1
102
RTVSPropertyOp15
 70
     1
102
RTVSPropertyOp16
 70
     1
102
RTVSPropertyOp17
 70
     1
102
RTVSPropertyOp18
 70
     1
102
RTVSPropertyOp19
 70
     1
102
RTVSPropertyOp20
 70
     1
102
RTVSPropertyOp21
 70
     1
102
RTVSPropertyOp22
 70
     1
102
RTVSPropertyOp23
 70
     1
102
RTVSPropertyOp24
 70
     1
102
RTVSPropertyOp25
 70
     1
102
RTVSPropertyOp26
 70
     1
102
RTVSPropertyOp27
 70
     1
  0
XRECORD
  5
60D
102
{ACAD_REACTORS
330
60C
102
}
330
60C
100
AcDbXrecord
280
     1
102
RTVSPropertyOp0
 70
     0
102
RTVSPropertyOp1
 70
     0
102
RTVSPropertyOp2
 70
     0
102
RTVSPropertyOp3
 70
     0
102
RTVSPropertyOp4
 70
     0
102
RTVSPropertyOp5
 70
     0
102
RTVSPropertyOp6
 70
     0
102
RTVSPropertyOp7
 70
     0
102
RTVSPropertyOp8
 70
     0
102
RTVSPropertyOp9
 70
     0
102
RTVSPropertyOp10
 70
     0
102
RTVSPropertyOp11
 70
     0
102
RTVSPropertyOp12
 70
     0
102
RTVSPropertyOp13
 70
     0
102
RTVSPropertyOp14
 70
     2
102
RTVSPropertyOp15
 70
     0
102
RTVSPropertyOp16
 70
     0
102
RTVSPropertyOp17
 70
     0
102
RTVSPropertyOp18
 70
     0
102
RTVSPropertyOp19
 70
     0
102
RTVSPropertyOp20
 70
     0
102
RTVSPropertyOp21
 70
     0
102
RTVSPropertyOp22
 70
     0
102
RTVSPropertyOp23
 70
     0
102
RTVSPropertyOp24
 70
     0
102
RTVSPropertyOp25
 70
     0
102
RTVSPropertyOp26
 70
     0
102
RTVSPropertyOp27
 70
     0
  0
XRECORD
  5
607
102
{ACAD_REACTORS
330
606
102
}
330
606
100
AcDbXrecord
280
     1
102
RTVSPropertyOp0
 70
     1
102
RTVSPropertyOp1
 70
     1
102
RTVSPropertyOp2
 70
     1
102
RTVSPropertyOp3
 70
     1
102
RTVSPropertyOp4
 70
     1
102
RTVSPropertyOp5
 70
     1
102
RTVSPropertyOp6
 70
     1
102
RTVSPropertyOp7
 70
     1
102
RTVSPropertyOp8
 70
     1
102
RTVSPropertyOp9
 70
     1
102
RTVSPropertyOp10
 70
     1
102
RTVSPropertyOp11
 70
     1
102
RTVSPropertyOp12
 70
     1
102
RTVSPropertyOp13
 70
     1
102
RTVSPropertyOp14
 70
     1
102
RTVSPropertyOp15
 70
     1
102
RTVSPropertyOp16
 70
     1
102
RTVSPropertyOp17
 70
     1
102
RTVSPropertyOp18
 70
     1
102
RTVSPropertyOp19
 70
     1
102
RTVSPropertyOp20
 70
     1
102
RTVSPropertyOp21
 70
     1
102
RTVSPropertyOp22
 70
     1
102
RTVSPropertyOp23
 70
     1
102
RTVSPropertyOp24
 70
     1
102
RTVSPropertyOp25
 70
     1
102
RTVSPropertyOp26
 70
     1
102
RTVSPropertyOp27
 70
     1
  0
XRECORD
  5
60F
102
{ACAD_REACTORS
330
60E
102
}
330
60E
100
AcDbXrecord
280
     1
102
RTVSPropertyOp0
 70
     0
102
RTVSPropertyOp1
 70
     0
102
RTVSPropertyOp2
 70
     0
102
RTVSPropertyOp3
 70
     0
102
RTVSPropertyOp4
 70
     0
102
RTVSPropertyOp5
 70
     0
102
RTVSPropertyOp6
 70
     0
102
RTVSPropertyOp7
 70
     0
102
RTVSPropertyOp8
 70
     0
102
RTVSPropertyOp9
 70
     0
102
RTVSPropertyOp10
 70
     0
102
RTVSPropertyOp11
 70
     0
102
RTVSPropertyOp12
 70
     0
102
RTVSPropertyOp13
 70
     0
102
RTVSPropertyOp14
 70
     2
102
RTVSPropertyOp15
 70
     0
102
RTVSPropertyOp16
 70
     0
102
RTVSPropertyOp17
 70
     0
102
RTVSPropertyOp18
 70
     0
102
RTVSPropertyOp19
 70
     0
102
RTVSPropertyOp20
 70
     0
102
RTVSPropertyOp21
 70
     0
102
RTVSPropertyOp22
 70
     0
102
RTVSPropertyOp23
 70
     0
102
RTVSPropertyOp24
 70
     0
102
RTVSPropertyOp25
 70
     0
102
RTVSPropertyOp26
 70
     0
102
RTVSPropertyOp27
 70
     0
  0
XRECORD
  5
5FF
102
{ACAD_REACTORS
330
5FE
102
}
330
5FE
100
AcDbXrecord
280
     1
102
RTVSPropertyOp0
 70
     1
102
RTVSPropertyOp1
 70
     1
102
RTVSPropertyOp2
 70
     1
102
RTVSPropertyOp3
 70
     1
102
RTVSPropertyOp4
 70
     1
102
RTVSPropertyOp5
 70
     1
102
RTVSPropertyOp6
 70
     1
102
RTVSPropertyOp7
 70
     1
102
RTVSPropertyOp8
 70
     1
102
RTVSPropertyOp9
 70
     1
102
RTVSPropertyOp10
 70
     1
102
RTVSPropertyOp11
 70
     1
102
RTVSPropertyOp12
 70
     1
102
RTVSPropertyOp13
 70
     1
102
RTVSPropertyOp14
 70
     1
102
RTVSPropertyOp15
 70
     1
102
RTVSPropertyOp16
 70
     1
102
RTVSPropertyOp17
 70
     1
102
RTVSPropertyOp18
 70
     1
102
RTVSPropertyOp19
 70
     1
102
RTVSPropertyOp20
 70
     1
102
RTVSPropertyOp21
 70
     1
102
RTVSPropertyOp22
 70
     1
102
RTVSPropertyOp23
 70
     1
102
RTVSPropertyOp24
 70
     1
102
RTVSPropertyOp25
 70
     1
102
RTVSPropertyOp26
 70
     1
102
RTVSPropertyOp27
 70
     1
  0
XRECORD
  5
605
102
{ACAD_REACTORS
330
604
102
}
330
604
100
AcDbXrecord
280
     1
102
RTVSPropertyOp0
 70
     1
102
RTVSPropertyOp1
 70
     1
102
RTVSPropertyOp2
 70
     1
102
RTVSPropertyOp3
 70
     1
102
RTVSPropertyOp4
 70
     1
102
RTVSPropertyOp5
 70
     1
102
RTVSPropertyOp6
 70
     1
102
RTVSPropertyOp7
 70
     1
102
RTVSPropertyOp8
 70
     1
102
RTVSPropertyOp9
 70
     1
102
RTVSPropertyOp10
 70
     1
102
RTVSPropertyOp11
 70
     1
102
RTVSPropertyOp12
 70
     1
102
RTVSPropertyOp13
 70
     1
102
RTVSPropertyOp14
 70
     1
102
RTVSPropertyOp15
 70
     1
102
RTVSPropertyOp16
 70
     1
102
RTVSPropertyOp17
 70
     1
102
RTVSPropertyOp18
 70
     1
102
RTVSPropertyOp19
 70
     1
102
RTVSPropertyOp20
 70
     1
102
RTVSPropertyOp21
 70
     1
102
RTVSPropertyOp22
 70
     1
102
RTVSPropertyOp23
 70
     1
102
RTVSPropertyOp24
 70
     1
102
RTVSPropertyOp25
 70
     1
102
RTVSPropertyOp26
 70
     1
102
RTVSPropertyOp27
 70
     1
  0
ENDSEC
  0
EOF
