  0
SECTION
  2
HEADER
  9
$ACADVER
  1
AC1015
  9
$ACADMAINTVER
 70
    20
  9
$DWGCODEPAGE
  3
ANSI_1252
  9
$INSBASE
 10
0.0
 20
0.0
 30
0.0
  9
$EXTMIN
 10
337.8715088989952
 20
203.1792166721764
 30
-0.0015258207003583
  9
$EXTMAX
 10
666.072954430097
 20
466.1200424152425
 30
0.0000000349246037
  9
$LIMMIN
 10
0.0
 20
0.0
  9
$LIMMAX
 10
1189.0
 20
841.0
  9
$ORTHOMODE
 70
     0
  9
$REGENMODE
 70
     1
  9
$FILLMODE
 70
     1
  9
$QTEXTMODE
 70
     0
  9
$MIRRTEXT
 70
     0
  9
$LTSCALE
 40
65.395
  9
$ATTMODE
 70
     1
  9
$TEXTSIZE
 40
0.2
  9
$TRACEWID
 40
0.05
  9
$TEXTSTYLE
  7
STANDARD
  9
$CLAYER
  8
0
  9
$CELTYPE
  6
BYLAYER
  9
$CECOLOR
 62
   256
  9
$CELTSCALE
 40
1.0
  9
$DISPSILH
 70
     0
  9
$DIMSCALE
 40
1.0
  9
$DIMASZ
 40
3.5
  9
$DIMEXO
 40
7.43125
  9
$DIMDLI
 40
45.18199999999999
  9
$DIMRND
 40
0.0
  9
$DIMDLE
 40
0.0
  9
$DIMEXE
 40
21.402
  9
$DIMTP
 40
0.005
  9
$DIMTM
 40
0.005
  9
$DIMTXT
 40
3.5
  9
$DIMCEN
 40
10.701
  9
$DIMTSZ
 40
0.0
  9
$DIMTOL
 70
     1
  9
$DIMLIM
 70
     0
  9
$DIMTIH
 70
     1
  9
$DIMTOH
 70
     1
  9
$DIMSE1
 70
     0
  9
$DIMSE2
 70
     0
  9
$DIMTAD
 70
     0
  9
$DIMZIN
 70
     0
  9
$DIMBLK
  1
_FILLED
  9
$DIMASO
 70
     1
  9
$DIMSHO
 70
     1
  9
$DIMPOST
  1

  9
$DIMAPOST
  1

  9
$DIMALT
 70
     0
  9
$DIMALTD
 70
     2
  9
$DIMALTF
 40
25.4
  9
$DIMLFAC
 40
1.0
  9
$DIMTOFL
 70
     0
  9
$DIMTVP
 40
0.0
  9
$DIMTIX
 70
     0
  9
$DIMSOXD
 70
     0
  9
$DIMSAH
 70
     0
  9
$DIMBLK1
  1

  9
$DIMBLK2
  1

  9
$DIMSTYLE
  2
STANDARD
  9
$DIMCLRD
 70
     0
  9
$DIMCLRE
 70
     0
  9
$DIMCLRT
 70
     0
  9
$DIMTFAC
 40
1.0
  9
$DIMGAP
 40
0.09
  9
$DIMJUST
 70
     0
  9
$DIMSD1
 70
     0
  9
$DIMSD2
 70
     0
  9
$DIMTOLJ
 70
     1
  9
$DIMTZIN
 70
     0
  9
$DIMALTZ
 70
     0
  9
$DIMALTTZ
 70
     0
  9
$DIMUPT
 70
     0
  9
$DIMDEC
 70
     4
  9
$DIMTDEC
 70
     4
  9
$DIMALTU
 70
     2
  9
$DIMALTTD
 70
     2
  9
$DIMTXSTY
  7
STANDARD
  9
$DIMAUNIT
 70
     0
  9
$DIMADEC
 70
     0
  9
$DIMALTRND
 40
0.0
  9
$DIMAZIN
 70
     0
  9
$DIMDSEP
 70
    46
  9
$DIMATFIT
 70
     3
  9
$DIMFRAC
 70
     0
  9
$DIMLDRBLK
  1

  9
$DIMLUNIT
 70
     2
  9
$DIMLWD
 70
    -2
  9
$DIMLWE
 70
    -2
  9
$DIMTMOVE
 70
     0
  9
$LUNITS
 70
     2
  9
$LUPREC
 70
     2
  9
$SKETCHINC
 40
0.1
  9
$FILLETRAD
 40
0.0
  9
$AUNITS
 70
     0
  9
$AUPREC
 70
     0
  9
$MENU
  1
.
  9
$ELEVATION
 40
0.0
  9
$PELEVATION
 40
0.0
  9
$THICKNESS
 40
0.0
  9
$LIMCHECK
 70
     0
  9
$CHAMFERA
 40
0.0
  9
$CHAMFERB
 40
0.0
  9
$CHAMFERC
 40
0.0
  9
$CHAMFERD
 40
0.0
  9
$SKPOLY
 70
     0
  9
$TDCREATE
 40
2456324.650667755
  9
$TDUCREATE
 40
2456324.609001088
  9
$TDUPDATE
 40
2456324.651792789
  9
$TDUUPDATE
 40
2456324.610126123
  9
$TDINDWG
 40
0.0011255787
  9
$TDUSRTIMER
 40
0.0011255787
  9
$USRTIMER
 70
     1
  9
$ANGBASE
 50
0.0
  9
$ANGDIR
 70
     0
  9
$PDMODE
 70
     3
  9
$PDSIZE
 40
0.3125
  9
$PLINEWID
 40
0.0
  9
$SPLFRAME
 70
     0
  9
$SPLINETYPE
 70
     6
  9
$SPLINESEGS
 70
     8
  9
$HANDSEED
  5
6CF
  9
$SURFTAB1
 70
     6
  9
$SURFTAB2
 70
     6
  9
$SURFTYPE
 70
     6
  9
$SURFU
 70
     6
  9
$SURFV
 70
     6
  9
$UCSBASE
  2

  9
$UCSNAME
  2

  9
$UCSORG
 10
0.0
 20
0.0
 30
0.0
  9
$UCSXDIR
 10
1.0
 20
0.0
 30
0.0
  9
$UCSYDIR
 10
0.0
 20
1.0
 30
0.0
  9
$UCSORTHOREF
  2

  9
$UCSORTHOVIEW
 70
     0
  9
$UCSORGTOP
 10
0.0
 20
0.0
 30
0.0
  9
$UCSORGBOTTOM
 10
0.0
 20
0.0
 30
0.0
  9
$UCSORGLEFT
 10
0.0
 20
0.0
 30
0.0
  9
$UCSORGRIGHT
 10
0.0
 20
0.0
 30
0.0
  9
$UCSORGFRONT
 10
0.0
 20
0.0
 30
0.0
  9
$UCSORGBACK
 10
0.0
 20
0.0
 30
0.0
  9
$PUCSBASE
  2

  9
$PUCSNAME
  2

  9
$PUCSORG
 10
0.0
 20
0.0
 30
0.0
  9
$PUCSXDIR
 10
1.0
 20
0.0
 30
0.0
  9
$PUCSYDIR
 10
0.0
 20
1.0
 30
0.0
  9
$PUCSORTHOREF
  2

  9
$PUCSORTHOVIEW
 70
     0
  9
$PUCSORGTOP
 10
0.0
 20
0.0
 30
0.0
  9
$PUCSORGBOTTOM
 10
0.0
 20
0.0
 30
0.0
  9
$PUCSORGLEFT
 10
0.0
 20
0.0
 30
0.0
  9
$PUCSORGRIGHT
 10
0.0
 20
0.0
 30
0.0
  9
$PUCSORGFRONT
 10
0.0
 20
0.0
 30
0.0
  9
$PUCSORGBACK
 10
0.0
 20
0.0
 30
0.0
  9
$USERI1
 70
     0
  9
$USERI2
 70
     0
  9
$USERI3
 70
     0
  9
$USERI4
 70
     0
  9
$USERI5
 70
     0
  9
$USERR1
 40
0.0
  9
$USERR2
 40
0.0
  9
$USERR3
 40
0.0
  9
$USERR4
 40
0.0
  9
$USERR5
 40
0.0
  9
$WORLDVIEW
 70
     1
  9
$SHADEDGE
 70
     3
  9
$SHADEDIF
 70
    70
  9
$TILEMODE
 70
     1
  9
$MAXACTVP
 70
    64
  9
$PINSBASE
 10
0.0
 20
0.0
 30
0.0
  9
$PLIMCHECK
 70
     0
  9
$PEXTMIN
 10
1.000000000000000E+20
 20
1.000000000000000E+20
 30
1.000000000000000E+20
  9
$PEXTMAX
 10
-1.000000000000000E+20
 20
-1.000000000000000E+20
 30
-1.000000000000000E+20
  9
$PLIMMIN
 10
0.0
 20
0.0
  9
$PLIMMAX
 10
12.0
 20
9.0
  9
$UNITMODE
 70
     0
  9
$VISRETAIN
 70
     1
  9
$PLINEGEN
 70
     0
  9
$PSLTSCALE
 70
     1
  9
$TREEDEPTH
 70
  3020
  9
$CMLSTYLE
  2
Standard
  9
$CMLJUST
 70
     0
  9
$CMLSCALE
 40
1.0
  9
$PROXYGRAPHICS
 70
     1
  9
$MEASUREMENT
 70
     1
  9
$CELWEIGHT
370
    -1
  9
$ENDCAPS
280
     0
  9
$JOINSTYLE
280
     0
  9
$LWDISPLAY
290
     0
  9
$INSUNITS
 70
     4
  9
$HYPERLINKBASE
  1

  9
$STYLESHEET
  1

  9
$XEDIT
290
     1
  9
$CEPSNTYPE
380
     0
  9
$PSTYLEMODE
290
     1
  9
$FINGERPRINTGUID
  2
{70A62B56-32FE-428A-BF51-613CBE2983E6}
  9
$VERSIONGUID
  2
{E45422DD-1C73-43C3-9B2F-C410D8659E47}
  9
$EXTNAMES
290
     1
  9
$PSVPSCALE
 40
0.0
  9
$OLESTARTUP
290
     0
  0
ENDSEC
  0
SECTION
  2
CLASSES
  0
CLASS
  1
ACDBDICTIONARYWDFLT
  2
AcDbDictionaryWithDefault
  3
ObjectDBX Classes
 90
        0
280
     0
281
     0
  0
CLASS
  1
ACDBPLACEHOLDER
  2
AcDbPlaceHolder
  3
ObjectDBX Classes
 90
        0
280
     0
281
     0
  0
CLASS
  1
LAYOUT
  2
AcDbLayout
  3
ObjectDBX Classes
 90
        0
280
     0
281
     0
  0
CLASS
  1
MATERIAL
  2
AcDbMaterial
  3
ObjectDBX Classes
 90
     1153
280
     0
281
     0
  0
CLASS
  1
VISUALSTYLE
  2
AcDbVisualStyle
  3
ObjectDBX Classes
 90
     4095
280
     0
281
     0
  0
CLASS
  1
TABLESTYLE
  2
AcDbTableStyle
  3
ObjectDBX Classes
 90
     4095
280
     0
281
     0
  0
CLASS
  1
SCALE
  2
AcDbScale
  3
ObjectDBX Classes
 90
     1153
280
     0
281
     0
  0
CLASS
  1
MLEADERSTYLE
  2
AcDbMLeaderStyle
  3
ACDB_MLEADERSTYLE_CLASS
 90
     4095
280
     0
281
     0
  0
CLASS
  1
AMGSETTINGSOBJ
  2
AmgSettingsObj
  3
"AcadM|Product Description: AutoCAD Mechanical|Company: Autodesk, Inc."
 90
     1024
280
     0
281
     0
  0
CLASS
  1
ACME_DOCUMENT
  2
AcMeDbDoc
  3
AcMeServices
 90
     1024
280
     0
281
     0
  0
CLASS
  1
ACMESCOPE
  2
AcMeScope
  3
AcMeServices
 90
     1024
280
     0
281
     0
  0
CLASS
  1
ACMECOMMANDHISTORY
  2
AcMeCommandHistory
  3
AcMeServices
 90
     1024
280
     0
281
     0
  0
CLASS
  1
ACIMSYSVARMAN
  2
AcImSysVarManager
  3
AcMeServices
 90
     1024
280
     0
281
     0
  0
CLASS
  1
ACIMINTSYSVAR
  2
AcImIntSysVar
  3
AcMeServices
 90
     1024
280
     0
281
     0
  0
CLASS
  1
ACMEDRAWINGMAN
  2
AcMeDrawingMan
  3
AcMeServices
 90
     1024
280
     0
281
     0
  0
CLASS
  1
ACMEVIEW
  2
AcMeView
  3
AcMeServices
 90
     1024
280
     0
281
     0
  0
CLASS
  1
ACDBENTITYCACHE
  2
AcMeEntityCache
  3
AcMeServices
 90
     1024
280
     0
281
     0
  0
CLASS
  1
ACMESTATEMGR
  2
AcMeStateMgr
  3
AcMeServices
 90
     1024
280
     0
281
     0
  0
CLASS
  1
ACGREFMASTER
  2
AcGrefMaster
  3
AcAttribServices
 90
     1024
280
     0
281
     0
  0
CLASS
  1
AM_DRAWING_MGR
  2
AcDmDwgMgr
  3
AcMechDwgViewMgmt
 90
     1024
280
     0
281
     0
  0
CLASS
  1
AM_DWG_DOCUMENT
  2
AcDmDwgDocument
  3
AcMechDwgViewMgmt
 90
     1024
280
     0
281
     0
  0
CLASS
  1
AM_DWG_SHEET
  2
AcDmSheet
  3
AcMechDwgViewMgmt
 90
     1024
280
     0
281
     0
  0
CLASS
  1
AM_VIEWDIMPARMAP
  2
AcDmViewDimParMap
  3
AcMechDwgViewMgmt
 90
     1024
280
     0
281
     0
  0
CLASS
  1
AMDTINTERNALREACTOR
  2
AmdtInternalReactor
  3
AcMeServices
 90
     1024
280
     0
281
     0
  0
CLASS
  1
ACIMREALSYSVAR
  2
AcImRealSysVar
  3
AcMeServices
 90
     1024
280
     0
281
     0
  0
CLASS
  1
AM_DWGMGR_NAME
  2
AcDmDwgMgrName
  3
AcMechDwgViewMgmt
 90
     1024
280
     0
281
     0
  0
CLASS
  1
ACME_DATABASE
  2
AcMeDbDatabase
  3
AcMeServices
 90
     1024
280
     0
281
     0
  0
CLASS
  1
ACRFINSADJUSTERMGR
  2
AcRfInsAdjusterMgr
  3
AcMeServices
 90
     1024
280
     0
281
     0
  0
CLASS
  1
ACGREFACADMASTER
  2
AcGrefacadMaster
  3
AcGrefServices
 90
     1024
280
     0
281
     0
  0
CLASS
  1
AMDTMENUSTATEMGR
  2
AmdtMenuStateMgr
  3
McadcomServices
 90
     1024
280
     0
281
     0
  0
CLASS
  1
AMDTMCOMMENUSTATE
  2
AmdtMcomMenuState
  3
McadcomServices
 90
     1024
280
     0
281
     0
  0
CLASS
  1
AMIMASTER
  2
AmiMaster
  3
AmiServices
 90
     1024
280
     0
281
     0
  0
CLASS
  1
MAPIAMMOUDLE
  2
MApiAmModule
  3
MApiAmServices
 90
     1024
280
     0
281
     0
  0
CLASS
  1
ACIMSTRSYSVAR
  2
AcImStrSysVar
  3
AcMeServices
 90
     1024
280
     0
281
     0
  0
CLASS
  1
AMDTADMENUSTATE
  2
AmdtAdMenuState
  3
DesignerServices
 90
     1024
280
     0
281
     0
  0
CLASS
  1
ADAPPL
  2
AcAdAppl
  3
DesignerServices
 90
     1024
280
     0
281
     0
  0
CLASS
  1
DEPMGR
  2
AcAdDepMgr
  3
DesignerServices
 90
     1024
280
     0
281
     0
  0
CLASS
  1
PARAMMGR
  2
AcAdParamMgr
  3
DesignerServices
 90
     1024
280
     0
281
     0
  0
CLASS
  1
PARAMSCOPE
  2
AcAdParamScope
  3
DesignerServices
 90
     1024
280
     0
281
     0
  0
CLASS
  1
NAMEDAPPL
  2
AcAdNamedAppl
  3
DesignerServices
 90
     1024
280
     0
281
     0
  0
CLASS
  1
AMDTDMMENUSTATE
  2
AmdtDmMenuState
  3
AcMechDwgViewMgmt
 90
     1024
280
     0
281
     0
  0
CLASS
  1
AMDTAMMENUSTATE
  2
AmdtAmMenuState
  3
DesignerAssemblies
 90
     1024
280
     0
281
     0
  0
CLASS
  1
ACAMPROJECT
  2
AcAmProject
  3
DesignerAssemblies
 90
     1024
280
     0
281
     0
  0
CLASS
  1
ACAMGRCOMPDEF
  2
AcAmGrCompDef
  3
DesignerAssemblies
 90
     1024
280
     0
281
     0
  0
CLASS
  1
ACAMCOMPDEF
  2
AcAmCompDef
  3
DesignerAssemblies
 90
     1024
280
     0
281
     0
  0
CLASS
  1
ACAMCOMPDEFMGR
  2
AcAmCompDefMgr
  3
DesignerAssemblies
 90
     1024
280
     0
281
     0
  0
CLASS
  1
AMCONTEXTMGR
  2
AcAmContextMgr
  3
DesignerAssemblies
 90
     1024
280
     0
281
     0
  0
CLASS
  1
ACAMCONTEXTMODELER
  2
AcAmContextModeler
  3
DesignerAssemblies
 90
     1024
280
     0
281
     0
  0
CLASS
  1
ACMDATADICTIONARY
  2
AcmDataDictionary
  3
"AcmSymBB|Product Description: AutoCAD Mechanical|Company: Autodesk, Inc."
 90
     1024
280
     0
281
     0
  0
CLASS
  1
CATALOGSTATE
  2
AcAmCatalogState
  3
DesignerAssemblies
 90
     1024
280
     0
281
     0
  0
CLASS
  1
ACAMGRCOMPDEFSET
  2
AcAmGrCompDefSet
  3
DesignerAssemblies
 90
     1024
280
     0
281
     0
  0
CLASS
  1
AMDTBROWSERDBTAB
  2
AmdtBrowserDbTab
  3
McadcomServices
 90
     1024
280
     0
281
     0
  0
CLASS
  1
CBROWSERAPPOBJECT
  2
CBrowserAppObject
  3
McadcomServices
 90
     1024
280
     0
281
     0
  0
CLASS
  1
DM_PLACEHOLDER
  2
AcDmSelsetPlaceholder
  3
AcMechDwgViewMgmt
 90
     1024
280
     0
281
     0
  0
CLASS
  1
ACMSTANDARDDIN
  2
AcmStandardDIN
  3
"Amdt_StdImp|Product Description: AutoCAD Mechanical|Company: Autodesk, Inc."
 90
     1024
280
     0
281
     0
  0
CLASS
  1
AMDTEDGESTANDARDDIN13715
  2
AmdtEdgeStdDIN13715
  3
"Amdt_StdImp|Product Description: AutoCAD Mechanical|Company: Autodesk, Inc."
 90
     1024
280
     0
281
     0
  0
CLASS
  1
ACMSURFSTANDARDDIN2002
  2
AcmSurfTextStdDIN2002
  3
"Amdt_StdImp|Product Description: AutoCAD Mechanical|Company: Autodesk, Inc."
 90
     1024
280
     0
281
     0
  0
CLASS
  1
ACMFCFSTANDARDDIN
  2
AcmFCFStdDIN
  3
"Amdt_StdImp|Product Description: AutoCAD Mechanical|Company: Autodesk, Inc."
 90
     1024
280
     0
281
     0
  0
CLASS
  1
ACMWELDSTANDARDDIN
  2
AcmWeldingStdDIN
  3
"Amdt_StdImp|Product Description: AutoCAD Mechanical|Company: Autodesk, Inc."
 90
     1024
280
     0
281
     0
  0
CLASS
  1
ACMIDSTANDARDDIN
  2
AcmIdStdDIN
  3
"Amdt_StdImp|Product Description: AutoCAD Mechanical|Company: Autodesk, Inc."
 90
     1024
280
     0
281
     0
  0
CLASS
  1
ACMDATUMSTANDARDDIN
  2
AcmDatumStdDIN
  3
"Amdt_StdImp|Product Description: AutoCAD Mechanical|Company: Autodesk, Inc."
 90
     1024
280
     0
281
     0
  0
CLASS
  1
ACMBOMSTANDARDDIN
  2
AcmBOMStdDIN
  3
"Amdt_StdImp|Product Description: AutoCAD Mechanical|Company: Autodesk, Inc."
 90
     1024
280
     0
281
     0
  0
CLASS
  1
ACMDETAILSTANDARDDIN
  2
AmdtDetailSymStdDIN
  3
"Amdt_StdImp|Product Description: AutoCAD Mechanical|Company: Autodesk, Inc."
 90
     1024
280
     0
281
     0
  0
CLASS
  1
ACMSECTIONSTANDARDDIN
  2
AmdtSectionSymStdDIN
  3
"Amdt_StdImp|Product Description: AutoCAD Mechanical|Company: Autodesk, Inc."
 90
     1024
280
     0
281
     0
  0
CLASS
  1
ACMCENTERLINESTANDARDDIN
  2
AmdtCenterLineStdDIN
  3
"Amdt_StdImp|Product Description: AutoCAD Mechanical|Company: Autodesk, Inc."
 90
     1024
280
     0
281
     0
  0
CLASS
  1
ACMTHREADLINESTANDARDDIN
  2
AmdtThreadLineStdDIN
  3
"Amdt_StdImp|Product Description: AutoCAD Mechanical|Company: Autodesk, Inc."
 90
     1024
280
     0
281
     0
  0
CLASS
  1
ACMNOTESTANDARDDIN
  2
AmdtNoteStdDIN
  3
"Amdt_StdImp|Product Description: AutoCAD Mechanical|Company: Autodesk, Inc."
 90
     1024
280
     0
281
     0
  0
CLASS
  1
ACMTAPERSTANDARDDIN
  2
AcmTaperStdDIN
  3
"Amdt_StdImp|Product Description: AutoCAD Mechanical|Company: Autodesk, Inc."
 90
     1024
280
     0
281
     0
  0
CLASS
  1
ACMANOOTATIONVIEWSTANDARDDIN
  2
AmdtAnViewStdDIN
  3
"Amdt_StdImp|Product Description: AutoCAD Mechanical|Company: Autodesk, Inc."
 90
     1024
280
     0
281
     0
  0
CLASS
  1
ACAMGLAYSTD
  2
AcAmgLayStd
  3
"AmgLay|Product Description: AutoCAD Mechanical|Company: Autodesk, Inc."
 90
     1024
280
     0
281
     0
  0
CLASS
  1
ACAMGDIMSTD
  2
AcAmgDimStd
  3
"AmgDim|Product Description: AutoCAD Mechanical|Company: Autodesk, Inc."
 90
     1024
280
     0
281
     0
  0
CLASS
  1
AMGOBJPROPCFG
  2
AmgObjPropCfg
  3
"AmgLay|Product Description: AutoCAD Mechanical|Company: Autodesk, Inc."
 90
     1025
280
     0
281
     0
  0
CLASS
  1
ACAMGHOLECHARTSTDDIN
  2
AcAmgHoleChartStdDIN
  3
AmgDim|Product Description: AutoCAD Mechanical|Company: Autodesk, Inc.
 90
     1024
280
     0
281
     0
  0
CLASS
  1
ACAMGTITLESTD
  2
AcAmgTitleStd
  3
"AmgTitle|Product Description: AutoCAD Mechanical|Company: Autodesk, Inc."
 90
     4095
280
     0
281
     0
  0
CLASS
  1
AMDTNOTETEMPLATEDB
  2
AmdtNoteTemplateDB
  3
AcmSymBB|Product Description: AutoCAD Mechanical|Company: Autodesk, Inc.
 90
     1024
280
     0
281
     0
  0
CLASS
  1
ACAMGFILTERDAT
  2
AcAmgFilterDat
  3
"AcadM|Product Description: AutoCAD Mechanical|Company: Autodesk, Inc."
 90
     1024
280
     0
281
     0
  0
CLASS
  1
DICTIONARYVAR
  2
AcDbDictionaryVar
  3
ObjectDBX Classes
 90
        0
280
     0
281
     0
  0
CLASS
  1
CELLSTYLEMAP
  2
AcDbCellStyleMap
  3
ObjectDBX Classes
 90
     1152
280
     0
281
     0
  0
ENDSEC
  0
SECTION
  2
TABLES
  0
TABLE
  2
VPORT
  5
8
330
0
100
AcDbSymbolTable
 70
     1
  0
VPORT
  5
1F4
330
8
100
AcDbSymbolTableRecord
100
AcDbViewportTableRecord
  2
*ACTIVE
 70
     0
 10
0.0
 20
0.0
 11
1.0
 21
1.0
 12
501.972231664546
 22
334.6496295437095
 13
0.0
 23
0.0
 14
1.0
 24
1.0
 15
0.0
 25
0.0
 16
0.0
 26
0.0
 36
1.0
 17
0.0
 27
0.0
 37
0.0
 40
264.7990647942539
 41
1.850235849056603
 42
50.0
 43
0.0
 44
0.0
 50
0.0
 51
0.0
 71
     0
 72
   100
 73
     1
 74
     1
 75
     0
 76
     0
 77
     0
 78
     0
281
     0
 65
     0
110
0.0
120
0.0
130
0.0
111
1.0
121
0.0
131
0.0
112
0.0
122
1.0
132
0.0
 79
     0
146
0.0
  0
ENDTAB
  0
TABLE
  2
LTYPE
  5
5
330
0
100
AcDbSymbolTable
 70
    23
  0
LTYPE
  5
14
330
5
100
AcDbSymbolTableRecord
100
AcDbLinetypeTableRecord
  2
BYBLOCK
 70
     0
  3

 72
    65
 73
     0
 40
0.0
  0
LTYPE
  5
15
330
5
100
AcDbSymbolTableRecord
100
AcDbLinetypeTableRecord
  2
BYLAYER
 70
     0
  3

 72
    65
 73
     0
 40
0.0
  0
LTYPE
  5
16
330
5
100
AcDbSymbolTableRecord
100
AcDbLinetypeTableRecord
  2
CONTINUOUS
 70
     0
  3
Solid line
 72
    65
 73
     0
 40
0.0
  0
LTYPE
  5
1F5
330
5
100
AcDbSymbolTableRecord
100
AcDbLinetypeTableRecord
  2
CENTER
 70
     0
  3
____ _ ____ _ ____ _ ____ _ ____ _ ____ _ ____
 72
    65
 73
     4
 40
0.6
 49
0.375
 74
     0
 49
-0.075
 74
     0
 49
0.075
 74
     0
 49
-0.075
 74
     0
  0
LTYPE
  5
1F6
330
5
100
AcDbSymbolTableRecord
100
AcDbLinetypeTableRecord
  2
HIDDEN
 70
     0
  3
- - - - - - - - - - - - - - - - - - - -
 72
    65
 73
     2
 40
0.2
 49
0.1
 74
     0
 49
-0.1
 74
     0
  0
LTYPE
  5
1F7
330
5
100
AcDbSymbolTableRecord
100
AcDbLinetypeTableRecord
  2
PHANTOM
 70
     0
  3
_____ _ _ _____ _ _ _____ _ _ _____
 72
    65
 73
     6
 40
0.8
 49
0.45
 74
     0
 49
-0.05
 74
     0
 49
0.1
 74
     0
 49
-0.05
 74
     0
 49
0.1
 74
     0
 49
-0.05
 74
     0
  0
LTYPE
  5
1F8
330
5
100
AcDbSymbolTableRecord
100
AcDbLinetypeTableRecord
  2
DOT
 70
     0
  3
. . . . . . . . . . . . . . . . . . . .
 72
    65
 73
     2
 40
0.2
 49
0.1
 74
     0
 49
-0.1
 74
     0
  0
LTYPE
  5
1F9
330
5
100
AcDbSymbolTableRecord
100
AcDbLinetypeTableRecord
  2
DASHED
 70
     0
  3
- - - - - - - - - - - - - - - - - - - -
 72
    65
 73
     2
 40
0.2
 49
0.1
 74
     0
 49
-0.1
 74
     0
  0
LTYPE
  5
564
330
5
100
AcDbSymbolTableRecord
100
AcDbLinetypeTableRecord
  2
PHANTOM2
 70
     0
  3
Phantom (.5x) ___ _ _ ___ _ _ ___ _ _ ___ _ _
 72
    65
 73
     6
 40
31.75
 49
15.875
 74
     0
 49
-3.174999999999999
 74
     0
 49
3.174999999999999
 74
     0
 49
-3.174999999999999
 74
     0
 49
3.174999999999999
 74
     0
 49
-3.174999999999999
 74
     0
  0
LTYPE
  5
5AA
330
5
100
AcDbSymbolTableRecord
100
AcDbLinetypeTableRecord
  2
AM_ISO02W050
 70
     0
  3
__ __ __ __ __ __ __ __ __ __ __ __ __ __ __
 72
    65
 73
     2
 40
7.5
 49
6.0
 74
     0
 49
-1.5
 74
     0
  0
LTYPE
  5
5AB
330
5
100
AcDbSymbolTableRecord
100
AcDbLinetypeTableRecord
  2
AM_ISO08W050
 70
     0
  3
____ . ____ . ____ . ____ . ____ . ____ . ____
 72
    65
 73
     4
 40
18.0
 49
12.0
 74
     0
 49
-1.5
 74
     0
 49
3.0
 74
     0
 49
-1.5
 74
     0
  0
LTYPE
  5
5AC
330
5
100
AcDbSymbolTableRecord
100
AcDbLinetypeTableRecord
  2
AM_ISO09W050
 70
     0
  3
_____ . . _____ . . _____ . . ____ .. ____
 72
    65
 73
     6
 40
22.5
 49
12.0
 74
     0
 49
-1.5
 74
     0
 49
3.0
 74
     0
 49
-1.5
 74
     0
 49
3.0
 74
     0
 49
-1.5
 74
     0
  0
LTYPE
  5
5AD
330
5
100
AcDbSymbolTableRecord
100
AcDbLinetypeTableRecord
  2
Amconstr
 70
     0
  3
_______________________
 72
    65
 73
     2
 40
9999.0
 49
9999.0
 74
     0
 49
0.0
 74
     0
  0
LTYPE
  5
5AE
330
5
100
AcDbSymbolTableRecord
100
AcDbLinetypeTableRecord
  2
AM_ISO08W050x2
 70
     0
  3
__ . __ . __ . __ . __ . __
 72
    65
 73
     4
 40
9.0
 49
6.0
 74
     0
 49
-0.75
 74
     0
 49
1.5
 74
     0
 49
-0.75
 74
     0
  0
LTYPE
  5
5AF
330
5
100
AcDbSymbolTableRecord
100
AcDbLinetypeTableRecord
  2
AM_ISO02W050x2
 70
     0
  3
 _ _ _ _ _ _ _ _ _ _ _ _
 72
    65
 73
     2
 40
3.75
 49
3.0
 74
     0
 49
-0.75
 74
     0
  0
LTYPE
  5
5B2
330
5
100
AcDbSymbolTableRecord
100
AcDbLinetypeTableRecord
  2
Amzigzag
 70
     0
  3
/\/-/\/-/\/-/\/-/\/-/\/
 72
    65
 73
     2
 40
11.0001
 49
0.0001
 74
     4
 75
   136
340
5B1
 46
0.04
 50
0.0
 44
0.0
 45
0.0
 49
-11.0
 74
     0
  0
LTYPE
  5
5B3
330
5
100
AcDbSymbolTableRecord
100
AcDbLinetypeTableRecord
  2
AM_DIN_F_W050
 70
     0
  3
__ __ __ __ __ __ __ __ __ __ __ __ __ __ __
 72
    65
 73
     2
 40
6.25
 49
4.75
 74
     0
 49
-1.5
 74
     0
  0
LTYPE
  5
5B4
330
5
100
AcDbSymbolTableRecord
100
AcDbLinetypeTableRecord
  2
AM_DIN_G_W050
 70
     0
  3
____ . ____ . ____ . ____ . ____ . ____ . ____
 72
    65
 73
     4
 40
13.75
 49
9.75
 74
     0
 49
-1.5
 74
     0
 49
1.0
 74
     0
 49
-1.5
 74
     0
  0
LTYPE
  5
5B5
330
5
100
AcDbSymbolTableRecord
100
AcDbLinetypeTableRecord
  2
AM_DIN_K_W050
 70
     0
  3
_____ . . _____ . . _____ . . ____ .. ____
 72
    65
 73
     6
 40
16.25
 49
9.75
 74
     0
 49
-1.5
 74
     0
 49
1.0
 74
     0
 49
-1.5
 74
     0
 49
1.0
 74
     0
 49
-1.5
 74
     0
  0
LTYPE
  5
5B6
330
5
100
AcDbSymbolTableRecord
100
AcDbLinetypeTableRecord
  2
AM_DIN_G_W050x2
 70
     0
  3
__ . __ . __ . __ . __ . __
 72
    65
 73
     4
 40
6.875
 49
4.75
 74
     0
 49
-0.875
 74
     0
 49
0.375
 74
     0
 49
-0.875
 74
     0
  0
LTYPE
  5
5B7
330
5
100
AcDbSymbolTableRecord
100
AcDbLinetypeTableRecord
  2
AM_DIN_F_W050x2
 70
     0
  3
 _ _ _ _ _ _ _ _ _ _ _ _
 72
    65
 73
     2
 40
3.125
 49
2.25
 74
     0
 49
-0.875
 74
     0
  0
LTYPE
  5
5C6
330
5
100
AcDbSymbolTableRecord
100
AcDbLinetypeTableRecord
  2
ACDINWELD
 70
     0
  3
_ _ _ _ _
 72
    65
 73
     2
 40
2.0
 49
2.0
 74
     0
 49
-1.0
 74
     0
  0
LTYPE
  5
5C7
330
5
100
AcDbSymbolTableRecord
100
AcDbLinetypeTableRecord
  2
ACDINTGB
 70
     0
  3
__ . . __ . .
 72
    65
 73
     6
 40
9.0
 49
4.0
 74
     0
 49
-1.0
 74
     0
 49
1.0
 74
     0
 49
-1.0
 74
     0
 49
1.0
 74
     0
 49
-1.0
 74
     0
  0
LTYPE
  5
5C8
330
5
100
AcDbSymbolTableRecord
100
AcDbLinetypeTableRecord
  2
ACDINTGL
 70
     0
  3
_ _ _ _ _
 72
    65
 73
     2
 40
3.0
 49
2.0
 74
     0
 49
-1.0
 74
     0
  0
ENDTAB
  0
TABLE
  2
LAYER
  5
2
330
0
100
AcDbSymbolTable
 70
    31
  0
LAYER
  5
10
330
2
100
AcDbSymbolTableRecord
100
AcDbLayerTableRecord
  2
0
 70
     0
 62
     7
  6
CONTINUOUS
370
    -3
390
F
  0
LAYER
  5
1FA
330
2
100
AcDbSymbolTableRecord
100
AcDbLayerTableRecord
  2
DEFAULT_1
 70
     0
 62
     7
  6
CENTER
370
    -3
390
F
  0
LAYER
  5
1FB
330
2
100
AcDbSymbolTableRecord
100
AcDbLayerTableRecord
  2
DEFAULT_2
 70
     0
 62
     8
  6
HIDDEN
370
    -3
390
F
  0
LAYER
  5
1FC
330
2
100
AcDbSymbolTableRecord
100
AcDbLayerTableRecord
  2
DEFAULT_3
 70
     0
 62
     7
  6
PHANTOM
370
    -3
390
F
  0
LAYER
  5
1FD
330
2
100
AcDbSymbolTableRecord
100
AcDbLayerTableRecord
  2
01___PRT_ALL_DTM_PLN
 70
     0
 62
     7
  6
CONTINUOUS
370
    -3
390
F
  0
LAYER
  5
1FE
330
2
100
AcDbSymbolTableRecord
100
AcDbLayerTableRecord
  2
01___PRT_DEF_DTM_PLN
 70
     0
 62
     7
  6
CONTINUOUS
370
    -3
390
F
  0
LAYER
  5
1FF
330
2
100
AcDbSymbolTableRecord
100
AcDbLayerTableRecord
  2
02___PRT_ALL_AXES
 70
     0
 62
     7
  6
CONTINUOUS
370
    -3
390
F
  0
LAYER
  5
200
330
2
100
AcDbSymbolTableRecord
100
AcDbLayerTableRecord
  2
03___PRT_ALL_CURVES
 70
     0
 62
     7
  6
CONTINUOUS
370
    -3
390
F
  0
LAYER
  5
201
330
2
100
AcDbSymbolTableRecord
100
AcDbLayerTableRecord
  2
04___PRT_ALL_DTM_PNT
 70
     0
 62
     7
  6
CONTINUOUS
370
    -3
390
F
  0
LAYER
  5
202
330
2
100
AcDbSymbolTableRecord
100
AcDbLayerTableRecord
  2
05___PRT_ALL_DTM_CSYS
 70
     0
 62
     7
  6
CONTINUOUS
370
    -3
390
F
  0
LAYER
  5
203
330
2
100
AcDbSymbolTableRecord
100
AcDbLayerTableRecord
  2
05___PRT_DEF_DTM_CSYS
 70
     0
 62
     7
  6
CONTINUOUS
370
    -3
390
F
  0
LAYER
  5
204
330
2
100
AcDbSymbolTableRecord
100
AcDbLayerTableRecord
  2
06___PRT_ALL_SURFS
 70
     0
 62
     7
  6
CONTINUOUS
370
    -3
390
F
  0
LAYER
  5
205
330
2
100
AcDbSymbolTableRecord
100
AcDbLayerTableRecord
  2
3D_TEIL_NOTIZ
 70
     0
 62
     7
  6
CONTINUOUS
370
    -3
390
F
  0
LAYER
  5
206
330
2
100
AcDbSymbolTableRecord
100
AcDbLayerTableRecord
  2
ACHSEN
 70
     0
 62
     7
  6
CONTINUOUS
370
    -3
390
F
  0
LAYER
  5
207
330
2
100
AcDbSymbolTableRecord
100
AcDbLayerTableRecord
  2
AUSFORMSCHRAEGEN
 70
     0
 62
     7
  6
CONTINUOUS
370
    -3
390
F
  0
LAYER
  5
208
330
2
100
AcDbSymbolTableRecord
100
AcDbLayerTableRecord
  2
BEZUG
 70
     0
 62
     7
  6
CONTINUOUS
370
    -3
390
F
  0
LAYER
  5
209
330
2
100
AcDbSymbolTableRecord
100
AcDbLayerTableRecord
  2
BEZUGSACHSEN
 70
     0
 62
     7
  6
CONTINUOUS
370
    -3
390
F
  0
LAYER
  5
20A
330
2
100
AcDbSymbolTableRecord
100
AcDbLayerTableRecord
  2
BEZUGSEBENEN
 70
     0
 62
     7
  6
CONTINUOUS
370
    -3
390
F
  0
LAYER
  5
20B
330
2
100
AcDbSymbolTableRecord
100
AcDbLayerTableRecord
  2
BG_STARTBEZUEGE
 70
     0
 62
     7
  6
CONTINUOUS
370
    -3
390
F
  0
LAYER
  5
20C
330
2
100
AcDbSymbolTableRecord
100
AcDbLayerTableRecord
  2
BOHRUNGEN
 70
     0
 62
     7
  6
CONTINUOUS
370
    -3
390
F
  0
LAYER
  5
20D
330
2
100
AcDbSymbolTableRecord
100
AcDbLayerTableRecord
  2
DATUMS
 70
     0
 62
     7
  6
CONTINUOUS
370
    -3
390
F
  0
LAYER
  5
20E
330
2
100
AcDbSymbolTableRecord
100
AcDbLayerTableRecord
  2
DETAILS
 70
     0
 62
     7
  6
CONTINUOUS
370
    -3
390
F
  0
LAYER
  5
20F
330
2
100
AcDbSymbolTableRecord
100
AcDbLayerTableRecord
  2
FASEN
 70
     0
 62
     7
  6
CONTINUOUS
370
    -3
390
F
  0
LAYER
  5
210
330
2
100
AcDbSymbolTableRecord
100
AcDbLayerTableRecord
  2
GEWINDE
 70
     0
 62
     7
  6
CONTINUOUS
370
    -3
390
F
  0
LAYER
  5
211
330
2
100
AcDbSymbolTableRecord
100
AcDbLayerTableRecord
  2
HILFEN
 70
     0
 62
     7
  6
CONTINUOUS
370
    -3
390
F
  0
LAYER
  5
212
330
2
100
AcDbSymbolTableRecord
100
AcDbLayerTableRecord
  2
PLATZIERUNG
 70
     0
 62
     7
  6
CONTINUOUS
370
    -3
390
F
  0
LAYER
  5
213
330
2
100
AcDbSymbolTableRecord
100
AcDbLayerTableRecord
  2
PLAZIERUNG
 70
     0
 62
     7
  6
CONTINUOUS
370
    -3
390
F
  0
LAYER
  5
214
330
2
100
AcDbSymbolTableRecord
100
AcDbLayerTableRecord
  2
RUNDUNGEN
 70
     0
 62
     7
  6
CONTINUOUS
370
    -3
390
F
  0
LAYER
  5
215
330
2
100
AcDbSymbolTableRecord
100
AcDbLayerTableRecord
  2
TEIL_STARTBEZUEGE
 70
     0
 62
     7
  6
CONTINUOUS
370
    -3
390
F
  0
LAYER
  5
216
330
2
100
AcDbSymbolTableRecord
100
AcDbLayerTableRecord
  2
ZEICHNUNGSBEMASSUNGEN
 70
     0
 62
     7
  6
CONTINUOUS
370
    -3
390
F
  0
LAYER
  5
5D6
330
2
100
AcDbSymbolTableRecord
100
AcDbLayerTableRecord
  2
Defpoints
 70
     0
 62
     7
  6
CONTINUOUS
290
     0
370
    -3
390
F
  0
ENDTAB
  0
TABLE
  2
STYLE
  5
3
330
0
100
AcDbSymbolTable
 70
     6
  0
STYLE
  5
11
330
3
100
AcDbSymbolTableRecord
100
AcDbTextStyleTableRecord
  2
STANDARD
 70
     0
 40
0.0
 41
0.7
 50
0.0
 71
     0
 42
0.2
  3
txt
  4

  0
STYLE
  5
217
330
3
100
AcDbSymbolTableRecord
100
AcDbTextStyleTableRecord
  2
TEXTSTYLE_1
 70
     0
 40
0.0
 41
0.8
 50
0.0
 71
     0
 42
0.2
  3
gdt
  4

  0
STYLE
  5
218
330
3
100
AcDbSymbolTableRecord
100
AcDbTextStyleTableRecord
  2
TEXTSTYLE_2
 70
     0
 40
0.0
 41
0.7
 50
0.0
 71
     0
 42
0.2
  3
gdt
  4

  0
STYLE
  5
5B1
330
3
100
AcDbSymbolTableRecord
100
AcDbTextStyleTableRecord
  2

 70
     1
 40
0.0
 41
1.0
 50
0.0
 71
     0
 42
0.2
  3
genltshp.shx
  4

  0
STYLE
  5
5C4
330
3
100
AcDbSymbolTableRecord
100
AcDbTextStyleTableRecord
  2
ACDINTS
 70
     0
 40
1.0
 41
1.0
 50
0.0
 71
     0
 42
0.2
  3
isocp.shx
  4

  0
STYLE
  5
5C5
330
3
100
AcDbSymbolTableRecord
100
AcDbTextStyleTableRecord
  2
ACDINGDT
 70
     0
 40
0.0
 41
1.0
 50
0.0
 71
     0
 42
0.2
  3
amgdt.shx
  4

  0
ENDTAB
  0
TABLE
  2
VIEW
  5
6
330
0
100
AcDbSymbolTable
 70
     0
  0
ENDTAB
  0
TABLE
  2
UCS
  5
7
330
0
100
AcDbSymbolTable
 70
     0
  0
ENDTAB
  0
TABLE
  2
APPID
  5
9
330
0
100
AcDbSymbolTable
 70
    21
  0
APPID
  5
219
330
9
100
AcDbSymbolTableRecord
100
AcDbRegAppTableRecord
  2
ACAD
 70
     0
  0
APPID
  5
539
330
9
100
AcDbSymbolTableRecord
100
AcDbRegAppTableRecord
  2
MCAD_NO_VIS
 70
     0
  0
APPID
  5
53A
330
9
100
AcDbSymbolTableRecord
100
AcDbRegAppTableRecord
  2
ACAD_TEMP_GRAPHIC
 70
     0
  0
APPID
  5
566
330
9
100
AcDbSymbolTableRecord
100
AcDbRegAppTableRecord
  2
AD_DRAW
 70
     0
  0
APPID
  5
569
330
9
100
AcDbSymbolTableRecord
100
AcDbRegAppTableRecord
  2
ACATTRIBSERVICES
 70
     0
  0
APPID
  5
589
330
9
100
AcDbSymbolTableRecord
100
AcDbRegAppTableRecord
  2
DESIGNERASSEMBLIES
 70
     0
  0
APPID
  5
58F
330
9
100
AcDbSymbolTableRecord
100
AcDbRegAppTableRecord
  2
ACADM_DIM_EDIT
 70
     0
  0
APPID
  5
590
330
9
100
AcDbSymbolTableRecord
100
AcDbRegAppTableRecord
  2
AMDT_DM_ADJ
 70
     0
  0
APPID
  5
5A7
330
9
100
AcDbSymbolTableRecord
100
AcDbRegAppTableRecord
  2
ACAD_DSTYLE_DIMJAG
 70
     0
  0
APPID
  5
5A8
330
9
100
AcDbSymbolTableRecord
100
AcDbRegAppTableRecord
  2
ACAD_DSTYLE_DIMBREAK
 70
     0
  0
APPID
  5
5D7
330
9
100
AcDbSymbolTableRecord
100
AcDbRegAppTableRecord
  2
AcAecLayerStandard
 70
     0
  0
APPID
  5
5D8
330
9
100
AcDbSymbolTableRecord
100
AcDbRegAppTableRecord
  2
GENIUS_GENODEF_13
 70
     0
  0
APPID
  5
5D9
330
9
100
AcDbSymbolTableRecord
100
AcDbRegAppTableRecord
  2
GENIUS_GENOBJ-N-HTC_13
 70
     0
  0
APPID
  5
5DA
330
9
100
AcDbSymbolTableRecord
100
AcDbRegAppTableRecord
  2
GENIUS_GENHATCH_13
 70
     0
  0
APPID
  5
5DB
330
9
100
AcDbSymbolTableRecord
100
AcDbRegAppTableRecord
  2
ACAD_EXEMPT_FROM_CAD_STANDARDS
 70
     0
  0
APPID
  5
5DC
330
9
100
AcDbSymbolTableRecord
100
AcDbRegAppTableRecord
  2
ACAD_MLEADERVER
 70
     0
  0
APPID
  5
5DD
330
9
100
AcDbSymbolTableRecord
100
AcDbRegAppTableRecord
  2
ACAD_DSTYLE_DIMJOGGED_JOGANGLE_SYMBOL
 70
     0
  0
APPID
  5
5DE
330
9
100
AcDbSymbolTableRecord
100
AcDbRegAppTableRecord
  2
ACAD_DSTYLE_DIM_LINETYPE
 70
     0
  0
APPID
  5
5DF
330
9
100
AcDbSymbolTableRecord
100
AcDbRegAppTableRecord
  2
ACAD_DSTYLE_DIM_EXT1_LINETYPE
 70
     0
  0
APPID
  5
5E0
330
9
100
AcDbSymbolTableRecord
100
AcDbRegAppTableRecord
  2
ACAD_DSTYLE_DIM_EXT2_LINETYPE
 70
     0
  0
APPID
  5
5E1
330
9
100
AcDbSymbolTableRecord
100
AcDbRegAppTableRecord
  2
ACAD_DSTYLE_DIMINSPECT
 70
     0
  0
ENDTAB
  0
TABLE
  2
DIMSTYLE
  5
A
330
0
100
AcDbSymbolTable
 70
    12
100
AcDbDimStyleTable
 71
     2
340
221
340
223
  0
DIMSTYLE
105
221
330
A
100
AcDbSymbolTableRecord
100
AcDbDimStyleTableRecord
  2
STANDARD
 70
     0
 41
3.5
 47
0.005
 48
0.005
 71
     1
 73
     0
 74
     0
 77
     1
 78
     8
140
3.5
178
     5
271
     3
272
     3
284
     8
340
11
341
21C
342
21C
343
21C
344
21C
  0
DIMSTYLE
105
222
330
A
100
AcDbSymbolTableRecord
100
AcDbDimStyleTableRecord
  2
DIMSTYLE_1
 70
     0
 41
3.5
 47
0.5
 48
0.5
 73
     0
 74
     0
 77
     1
 78
     8
140
3.5
178
     5
271
     0
272
     0
284
     8
340
11
341
21C
342
21C
343
21C
344
21C
  0
DIMSTYLE
105
223
102
{ACAD_REACTORS
330
253
330
251
330
250
330
252
102
}
330
A
100
AcDbSymbolTableRecord
100
AcDbDimStyleTableRecord
  2
DIMSTYLE_2
 70
     0
 41
3.5
 47
0.5
 48
0.5
 73
     0
 74
     0
 77
     1
 78
     8
140
3.5
178
     5
271
     3
272
     3
284
     8
340
11
341
21C
342
21C
343
21C
344
21C
  0
DIMSTYLE
105
224
330
A
100
AcDbSymbolTableRecord
100
AcDbDimStyleTableRecord
  2
DIMSTYLE_3
 70
     0
 41
3.5
 47
0.3
 48
0.3
 73
     0
 74
     0
 77
     1
 78
     8
140
3.5
178
     5
271
     0
272
     0
284
     8
340
11
341
21C
342
21C
343
21C
344
21C
  0
DIMSTYLE
105
5A6
102
{ACAD_REACTORS
330
595
102
}
330
A
100
AcDbSymbolTableRecord
100
AcDbDimStyleTableRecord
  2
AM_DIN
 70
     0
  4
"
 41
3.5
 42
1.0
 43
10.0
 44
1.0
 47
0.1
 48
0.1
 73
     0
 74
     0
 77
     1
 78
     8
 79
     2
140
3.5
141
0.0
143
0.0393701
146
0.71
147
1.5
172
     1
176
   256
177
   256
178
     2
271
     2
272
     3
274
     4
283
     0
284
     8
340
11
371
    -1
372
    -1
1001
ACAD_DSTYLE_DIMJAG
1070
   388
1040
1.5
1001
ACAD_DSTYLE_DIMBREAK
1070
   391
1040
3.75
1001
ACAD_DSTYLE_DIMJOGGED_JOGANGLE_SYMBOL
1070
   384
1040
1.570796326794896
1001
ACAD_DSTYLE_DIM_LINETYPE
1070
   380
1005
14
1001
ACAD_DSTYLE_DIM_EXT1_LINETYPE
1070
   381
1005
14
1001
ACAD_DSTYLE_DIM_EXT2_LINETYPE
1070
   382
1005
14
  0
DIMSTYLE
105
5B8
330
A
100
AcDbSymbolTableRecord
100
AcDbDimStyleTableRecord
  2
AM_DIN$3
 70
     0
  4
"
 41
3.5
 42
1.0
 43
10.0
 44
1.0
 47
0.1
 48
0.1
 73
     0
 77
     1
 78
     8
 79
     2
140
3.5
141
0.0
143
0.0393701
146
0.71
147
1.5
176
   256
177
   256
178
     2
271
     2
272
     3
274
     4
283
     0
284
     8
288
     1
289
     0
340
11
371
    -1
372
    -1
1001
ACAD_DSTYLE_DIMBREAK
1070
   391
1040
3.75
1001
ACAD_DSTYLE_DIMJAG
1070
   388
1040
1.5
1001
ACAD_DSTYLE_DIMJOGGED_JOGANGLE_SYMBOL
1070
   384
1040
1.570796326794896
1001
ACAD_DSTYLE_DIM_LINETYPE
1070
   380
1005
14
1001
ACAD_DSTYLE_DIM_EXT1_LINETYPE
1070
   381
1005
14
1001
ACAD_DSTYLE_DIM_EXT2_LINETYPE
1070
   382
1005
14
  0
DIMSTYLE
105
5B9
330
A
100
AcDbSymbolTableRecord
100
AcDbDimStyleTableRecord
  2
AM_DIN$4
 70
     0
  4
"
 41
3.5
 42
1.0
 43
10.0
 44
1.0
 47
0.1
 48
0.1
 73
     0
 77
     1
 78
     8
 79
     2
140
3.5
141
0.0
143
0.0393701
146
0.71
147
1.5
176
   256
177
   256
178
     2
271
     2
272
     3
274
     4
283
     0
284
     8
288
     1
289
     0
340
11
371
    -1
372
    -1
1001
ACAD_DSTYLE_DIMBREAK
1070
   391
1040
3.75
1001
ACAD_DSTYLE_DIMJAG
1070
   388
1040
1.5
1001
ACAD_DSTYLE_DIMJOGGED_JOGANGLE_SYMBOL
1070
   384
1040
1.570796326794896
1001
ACAD_DSTYLE_DIM_LINETYPE
1070
   380
1005
14
1001
ACAD_DSTYLE_DIM_EXT1_LINETYPE
1070
   381
1005
14
1001
ACAD_DSTYLE_DIM_EXT2_LINETYPE
1070
   382
1005
14
  0
DIMSTYLE
105
5BA
330
A
100
AcDbSymbolTableRecord
100
AcDbDimStyleTableRecord
  2
AM_DIN$6
 70
     0
  4
"
 41
3.5
 42
1.0
 43
10.0
 44
1.0
 47
0.1
 48
0.1
 73
     0
 74
     0
 78
     8
 79
     2
140
3.5
141
0.0
143
0.0393701
146
0.71
147
1.5
172
     1
176
   256
177
   256
178
     2
271
     2
272
     3
274
     4
283
     0
284
     8
340
11
371
    -1
372
    -1
1001
ACAD_DSTYLE_DIMBREAK
1070
   391
1040
3.75
1001
ACAD_DSTYLE_DIMJAG
1070
   388
1040
1.5
1001
ACAD_DSTYLE_DIMJOGGED_JOGANGLE_SYMBOL
1070
   384
1040
1.570796326794896
1001
ACAD_DSTYLE_DIM_LINETYPE
1070
   380
1005
14
1001
ACAD_DSTYLE_DIM_EXT1_LINETYPE
1070
   381
1005
14
1001
ACAD_DSTYLE_DIM_EXT2_LINETYPE
1070
   382
1005
14
  0
DIMSTYLE
105
5BB
330
A
100
AcDbSymbolTableRecord
100
AcDbDimStyleTableRecord
  2
AM_DIN$7
 70
     0
  4
"
 41
3.5
 42
1.0
 43
10.0
 44
1.0
 47
0.1
 48
0.1
 73
     0
 74
     0
 77
     1
 78
     8
 79
     2
140
3.5
141
0.0
143
0.0393701
146
0.71
147
1.5
172
     1
176
   256
177
   256
178
     2
271
     2
272
     3
274
     4
283
     0
284
     8
340
11
371
    -1
372
    -1
1001
ACAD_DSTYLE_DIMBREAK
1070
   391
1040
3.75
1001
ACAD_DSTYLE_DIMJAG
1070
   388
1040
1.5
1001
ACAD_DSTYLE_DIMJOGGED_JOGANGLE_SYMBOL
1070
   384
1040
1.570796326794896
1001
ACAD_DSTYLE_DIM_LINETYPE
1070
   380
1005
14
1001
ACAD_DSTYLE_DIM_EXT1_LINETYPE
1070
   381
1005
14
1001
ACAD_DSTYLE_DIM_EXT2_LINETYPE
1070
   382
1005
14
  0
DIMSTYLE
105
5BC
330
A
100
AcDbSymbolTableRecord
100
AcDbDimStyleTableRecord
  2
AM_DIN$SF
 70
     0
  4
"
 41
3.5
 42
1.0
 43
10.0
 44
1.0
 47
0.1
 48
0.1
 73
     0
 74
     0
 75
     1
 76
     1
 77
     1
 78
     8
 79
     2
140
3.5
141
0.0
143
0.0393701
146
0.71
147
1.5
172
     1
176
   256
177
   256
178
     2
271
     2
272
     3
274
     4
283
     0
284
     8
340
11
371
    -1
372
    -1
1001
ACAD_DSTYLE_DIMBREAK
1070
   391
1040
3.75
1001
ACAD_DSTYLE_DIMJAG
1070
   388
1040
1.5
1001
ACAD_DSTYLE_DIMJOGGED_JOGANGLE_SYMBOL
1070
   384
1040
1.570796326794896
1001
ACAD_DSTYLE_DIM_LINETYPE
1070
   380
1005
14
1001
ACAD_DSTYLE_DIM_EXT1_LINETYPE
1070
   381
1005
14
1001
ACAD_DSTYLE_DIM_EXT2_LINETYPE
1070
   382
1005
14
  0
DIMSTYLE
105
5C1
330
A
100
AcDbSymbolTableRecord
100
AcDbDimStyleTableRecord
  2
AM_DIN$SH
 70
     0
  4
"
 41
3.5
 42
1.0
 43
10.0
 44
1.0
 47
0.1
 48
0.1
 73
     0
 74
     0
 75
     1
 76
     1
 77
     1
 78
     8
 79
     2
140
3.5
141
0.0
143
0.0393701
144
2.0
146
0.71
147
1.5
172
     1
173
     1
176
   256
177
   256
178
     2
271
     2
272
     3
274
     4
283
     0
284
     8
340
11
343
5BD
371
    -1
372
    -1
1001
ACAD_DSTYLE_DIMBREAK
1070
   391
1040
3.75
1001
ACAD_DSTYLE_DIMJAG
1070
   388
1040
1.5
1001
ACAD_DSTYLE_DIMJOGGED_JOGANGLE_SYMBOL
1070
   384
1040
1.570796326794896
1001
ACAD_DSTYLE_DIM_LINETYPE
1070
   380
1005
14
1001
ACAD_DSTYLE_DIM_EXT1_LINETYPE
1070
   381
1005
14
1001
ACAD_DSTYLE_DIM_EXT2_LINETYPE
1070
   382
1005
14
  0
ENDTAB
  0
TABLE
  2
BLOCK_RECORD
  5
1
330
0
100
AcDbSymbolTable
 70
    13
  0
BLOCK_RECORD
  5
21A
330
1
100
AcDbSymbolTableRecord
100
AcDbBlockTableRecord
  2
*Model_Space
340
4E9
  0
BLOCK_RECORD
  5
21B
330
1
100
AcDbSymbolTableRecord
100
AcDbBlockTableRecord
  2
*Paper_Space
340
4EA
  0
BLOCK_RECORD
  5
21C
330
1
100
AcDbSymbolTableRecord
100
AcDbBlockTableRecord
  2
_FILLED
340
0
102
{BLKREFS
331
5E8
331
5E9
331
5FE
331
5FF
331
614
331
615
331
61E
331
61F
331
62A
331
62B
331
660
331
661
331
672
331
673
331
684
331
685
102
}
  0
BLOCK_RECORD
  5
21D
330
1
100
AcDbSymbolTableRecord
100
AcDbBlockTableRecord
  2
*D1
340
0
  0
BLOCK_RECORD
  5
21E
330
1
100
AcDbSymbolTableRecord
100
AcDbBlockTableRecord
  2
*D2
340
0
  0
BLOCK_RECORD
  5
21F
330
1
100
AcDbSymbolTableRecord
100
AcDbBlockTableRecord
  2
*D3
340
0
  0
BLOCK_RECORD
  5
220
330
1
100
AcDbSymbolTableRecord
100
AcDbBlockTableRecord
  2
*D4
340
0
  0
BLOCK_RECORD
  5
5BD
330
1
100
AcDbSymbolTableRecord
100
AcDbBlockTableRecord
  2
GENAXEH
340
0
  0
ENDTAB
  0
ENDSEC
  0
SECTION
  2
BLOCKS
  0
BLOCK
  5
20
330
21A
100
AcDbEntity
  8
0
100
AcDbBlockBegin
  2
*Model_Space
 70
     0
 10
0.0
 20
0.0
 30
0.0
  3
*Model_Space
  1

  0
ENDBLK
  5
21
330
21A
100
AcDbEntity
  8
0
100
AcDbBlockEnd
  0
BLOCK
  5
1C
330
21B
100
AcDbEntity
 67
     1
  8
0
100
AcDbBlockBegin
  2
*Paper_Space
 70
     0
 10
0.0
 20
0.0
 30
0.0
  3
*Paper_Space
  1

  0
ENDBLK
  5
1D
330
21B
100
AcDbEntity
 67
     1
  8
0
100
AcDbBlockEnd
  0
BLOCK
  5
225
330
21C
100
AcDbEntity
  8
0
100
AcDbBlockBegin
  2
_FILLED
 70
     0
 10
0.0
 20
0.0
 30
0.0
  3
_FILLED
  1

  0
SOLID
  5
226
330
21C
100
AcDbEntity
  8
0
  6
ByBlock
 62
     0
100
AcDbTrace
 10
0.0
 20
0.0
 30
0.0
 11
-1.0
 21
0.125
 31
0.0
 12
-1.0
 22
-0.125
 32
0.0
 13
-1.0
 23
-0.125
 33
0.0
  0
ENDBLK
  5
227
330
21C
100
AcDbEntity
  8
0
  6
ByBlock
 62
     0
100
AcDbBlockEnd
  0
BLOCK
  5
228
330
21D
100
AcDbEntity
  8
ZEICHNUNGSBEMASSUNGEN
  6
Continuous
 62
     2
100
AcDbBlockBegin
  2
*D1
 70
     1
 10
0.0
 20
0.0
 30
0.0
  3
*D1
  1

  0
LINE
  5
61B
330
21D
100
AcDbEntity
  8
ZEICHNUNGSBEMASSUNGEN
  6
Continuous
 62
     0
370
    -2
100
AcDbLine
 10
583.8176610297
 20
396.2854062724
 30
0.0
 11
583.8176610297
 21
445.7279062723999
 31
0.0
  0
LINE
  5
61C
330
21D
100
AcDbEntity
  8
ZEICHNUNGSBEMASSUNGEN
  6
Continuous
 62
     0
370
    -2
100
AcDbLine
 10
429.3763933416
 20
396.2854062724
 30
0.0
 11
429.3763933416
 21
445.7279062723999
 31
0.0
  0
LINE
  5
61D
330
21D
100
AcDbEntity
  8
ZEICHNUNGSBEMASSUNGEN
  6
Continuous
 62
     0
370
    -2
100
AcDbLine
 10
578.8176610297
 20
445.5479062723999
 30
0.0
 11
434.3763933416
 21
445.5479062723999
 31
0.0
  0
INSERT
  5
61E
330
21D
100
AcDbEntity
  8
ZEICHNUNGSBEMASSUNGEN
  6
Continuous
 62
     0
370
    -2
100
AcDbBlockReference
  2
_FILLED
 10
583.8176610297
 20
445.5479062723999
 30
0.0
 41
5.0
 42
5.0
 43
5.0
  0
INSERT
  5
61F
330
21D
100
AcDbEntity
  8
ZEICHNUNGSBEMASSUNGEN
  6
Continuous
 62
     0
370
    -2
100
AcDbBlockReference
  2
_FILLED
 10
429.3763933416
 20
445.5479062723999
 30
0.0
 41
5.0
 42
5.0
 43
5.0
 50
180.0
  0
MTEXT
  5
620
330
21D
100
AcDbEntity
  8
ZEICHNUNGSBEMASSUNGEN
  6
Continuous
100
AcDbMText
 10
503.680360519
 20
454.0479062723999
 30
0.0
 40
7.0
 41
0.0
 71
     2
 72
     1
  1
\A1;%%c155
 73
     1
 44
1.0
1001
ACAD
1000
MTEXTBEGIN
1070
    73
1070
     1
1070
    44
1040
1.0
1070
    74
1070
     0
1000
MTEXTEND
  0
POINT
  5
621
330
21D
100
AcDbEntity
  8
Defpoints
  6
Continuous
 62
     0
100
AcDbPoint
 10
583.8176610297
 20
396.2229062724
 30
0.0
  0
POINT
  5
622
330
21D
100
AcDbEntity
  8
Defpoints
  6
Continuous
 62
     0
100
AcDbPoint
 10
429.3763933416
 20
396.2229062724
 30
0.0
  0
POINT
  5
623
330
21D
100
AcDbEntity
  8
Defpoints
  6
Continuous
 62
     0
100
AcDbPoint
 10
429.3763933416
 20
445.5479062723999
 30
0.0
  0
ENDBLK
  5
232
330
21D
100
AcDbEntity
  8
0
  6
ByBlock
 62
     0
100
AcDbBlockEnd
  0
BLOCK
  5
233
330
21E
100
AcDbEntity
  8
ZEICHNUNGSBEMASSUNGEN
  6
Continuous
 62
     2
100
AcDbBlockBegin
  2
*D2
 70
     1
 10
0.0
 20
0.0
 30
0.0
  3
*D2
  1

  0
LINE
  5
65D
330
21E
100
AcDbEntity
  8
ZEICHNUNGSBEMASSUNGEN
  6
Continuous
 62
     0
370
    -2
100
AcDbLine
 10
656.8066583028
 20
402.2854062723999
 30
0.0
 11
656.8066583028
 21
457.7951291871303
 31
0.0
  0
LINE
  5
65E
330
21E
100
AcDbEntity
  8
ZEICHNUNGSBEMASSUNGEN
  6
Continuous
 62
     0
370
    -2
100
AcDbLine
 10
356.3873960685
 20
402.2854062723999
 30
0.0
 11
356.3873960685
 21
457.7951291871303
 31
0.0
  0
LINE
  5
65F
330
21E
100
AcDbEntity
  8
ZEICHNUNGSBEMASSUNGEN
  6
Continuous
 62
     0
370
    -2
100
AcDbLine
 10
651.8066583028
 20
457.6151291871304
 30
0.0
 11
361.3873960685
 21
457.6151291871304
 31
0.0
  0
INSERT
  5
660
330
21E
100
AcDbEntity
  8
ZEICHNUNGSBEMASSUNGEN
  6
Continuous
 62
     0
370
    -2
100
AcDbBlockReference
  2
_FILLED
 10
656.8066583028
 20
457.6151291871304
 30
0.0
 41
5.0
 42
5.0
 43
5.0
  0
INSERT
  5
661
330
21E
100
AcDbEntity
  8
ZEICHNUNGSBEMASSUNGEN
  6
Continuous
 62
     0
370
    -2
100
AcDbBlockReference
  2
_FILLED
 10
356.3873960685
 20
457.6151291871304
 30
0.0
 41
5.0
 42
5.0
 43
5.0
 50
180.0
  0
MTEXT
  5
662
330
21E
100
AcDbEntity
  8
ZEICHNUNGSBEMASSUNGEN
  6
Continuous
100
AcDbMText
 10
503.9802882750036
 20
466.1151291871304
 30
0.0
 40
7.0
 41
0.0
 71
     2
 72
     1
  1
\A1;%%c300
 73
     1
 44
1.0
1001
ACAD
1000
MTEXTBEGIN
1070
    73
1070
     1
1070
    44
1040
1.0
1070
    74
1070
     0
1000
MTEXTEND
  0
POINT
  5
663
330
21E
100
AcDbEntity
  8
Defpoints
  6
Continuous
 62
     0
100
AcDbPoint
 10
656.8066583028
 20
402.2229062723999
 30
0.0
  0
POINT
  5
664
330
21E
100
AcDbEntity
  8
Defpoints
  6
Continuous
 62
     0
100
AcDbPoint
 10
356.3873960685
 20
402.2229062723999
 30
0.0
  0
POINT
  5
665
330
21E
100
AcDbEntity
  8
Defpoints
  6
Continuous
 62
     0
100
AcDbPoint
 10
356.3873960685
 20
457.6151291871304
 30
0.0
  0
ENDBLK
  5
23B
330
21E
100
AcDbEntity
  8
0
  6
ByBlock
 62
     0
100
AcDbBlockEnd
  0
BLOCK
  5
23C
330
21F
100
AcDbEntity
  8
ZEICHNUNGSBEMASSUNGEN
  6
Continuous
 62
     2
100
AcDbBlockBegin
  2
*D3
 70
     1
 10
0.0
 20
0.0
 30
0.0
  3
*D3
  1

  0
LINE
  5
66F
330
21F
100
AcDbEntity
  8
ZEICHNUNGSBEMASSUNGEN
  6
Continuous
 62
     0
370
    -2
100
AcDbLine
 10
467.0172244487
 20
206.2229062724
 30
0.0
 11
346.2708377653
 21
206.2229062724
 31
0.0
  0
LINE
  5
670
330
21F
100
AcDbEntity
  8
ZEICHNUNGSBEMASSUNGEN
  6
Continuous
 62
     0
370
    -2
100
AcDbLine
 10
356.932456319
 20
402.7229062724
 30
0.0
 11
346.2708377653001
 21
402.7229062724
 31
0.0
  0
LINE
  5
671
330
21F
100
AcDbEntity
  8
ZEICHNUNGSBEMASSUNGEN
  6
Continuous
 62
     0
370
    -2
100
AcDbLine
 10
346.4508377653
 20
211.2229062724
 30
0.0
 11
346.4508377653001
 21
397.7229062724
 31
0.0
  0
INSERT
  5
672
330
21F
100
AcDbEntity
  8
ZEICHNUNGSBEMASSUNGEN
  6
Continuous
 62
     0
370
    -2
100
AcDbBlockReference
  2
_FILLED
 10
346.4508377653
 20
206.2229062724
 30
0.0
 41
5.0
 42
5.0
 43
5.0
 50
270.0
  0
INSERT
  5
673
330
21F
100
AcDbEntity
  8
ZEICHNUNGSBEMASSUNGEN
  6
Continuous
 62
     0
370
    -2
100
AcDbBlockReference
  2
_FILLED
 10
346.4508377653001
 20
402.7229062724
 30
0.0
 41
5.0
 42
5.0
 43
5.0
 50
90.0
  0
MTEXT
  5
674
330
21F
100
AcDbEntity
  8
ZEICHNUNGSBEMASSUNGEN
  6
Continuous
100
AcDbMText
 10
337.9508377653
 20
299.1089262908
 30
0.0
 40
7.0
 41
0.0
 71
     2
 72
     1
  1
\A1;197
 11
0.0000000000000001
 21
1.0
 31
0.0
 73
     1
 44
1.0
1001
ACAD
1000
MTEXTBEGIN
1070
    73
1070
     1
1070
    44
1040
1.0
1070
    74
1070
     0
1000
MTEXTEND
  0
POINT
  5
675
330
21F
100
AcDbEntity
  8
Defpoints
  6
Continuous
 62
     0
100
AcDbPoint
 10
467.0797244486999
 20
206.2229062724
 30
0.0
  0
POINT
  5
676
330
21F
100
AcDbEntity
  8
Defpoints
  6
Continuous
 62
     0
100
AcDbPoint
 10
356.9949563190001
 20
402.7229062724
 30
0.0
  0
POINT
  5
677
330
21F
100
AcDbEntity
  8
Defpoints
  6
Continuous
 62
     0
100
AcDbPoint
 10
346.4508377653001
 20
402.7229062724
 30
0.0
  0
ENDBLK
  5
244
330
21F
100
AcDbEntity
  8
0
  6
ByBlock
 62
     0
100
AcDbBlockEnd
  0
BLOCK
  5
245
330
220
100
AcDbEntity
  8
ZEICHNUNGSBEMASSUNGEN
  6
Continuous
 62
     2
100
AcDbBlockBegin
  2
*D4
 70
     1
 10
0.0
 20
0.0
 30
0.0
  3
*D4
  1

  0
LINE
  5
681
330
220
100
AcDbEntity
  8
ZEICHNUNGSBEMASSUNGEN
  6
Continuous
 62
     0
370
    -2
100
AcDbLine
 10
546.1768299225
 20
206.2229062724
 30
0.0
 11
665.5938607471
 21
206.2229062724
 31
0.0
  0
LINE
  5
682
330
220
100
AcDbEntity
  8
ZEICHNUNGSBEMASSUNGEN
  6
Continuous
 62
     0
370
    -2
100
AcDbLine
 10
549.6298453492999
 20
279.823242688
 30
0.0
 11
665.5938607471001
 21
279.8232426879999
 31
0.0
  0
LINE
  5
683
330
220
100
AcDbEntity
  8
ZEICHNUNGSBEMASSUNGEN
  6
Continuous
 62
     0
370
    -2
100
AcDbLine
 10
665.4138607471
 20
211.2229062724
 30
0.0
 11
665.4138607471001
 21
274.823242688
 31
0.0
  0
INSERT
  5
684
330
220
100
AcDbEntity
  8
ZEICHNUNGSBEMASSUNGEN
  6
Continuous
 62
     0
370
    -2
100
AcDbBlockReference
  2
_FILLED
 10
665.4138607471
 20
206.2229062724
 30
0.0
 41
5.0
 42
5.0
 43
5.0
 50
270.0
  0
INSERT
  5
685
330
220
100
AcDbEntity
  8
ZEICHNUNGSBEMASSUNGEN
  6
Continuous
 62
     0
370
    -2
100
AcDbBlockReference
  2
_FILLED
 10
665.4138607471001
 20
279.8232426879999
 30
0.0
 41
5.0
 42
5.0
 43
5.0
 50
90.0
  0
MTEXT
  5
686
330
220
100
AcDbEntity
  8
ZEICHNUNGSBEMASSUNGEN
  6
Continuous
100
AcDbMText
 10
656.9138607471
 20
240.5645836553
 30
0.0
 40
7.0
 41
0.0
 71
     2
 72
     1
  1
\A1;74
 11
0.0000000000000001
 21
1.0
 31
0.0
 73
     1
 44
1.0
1001
ACAD
1000
MTEXTBEGIN
1070
    73
1070
     1
1070
    44
1040
1.0
1070
    74
1070
     0
1000
MTEXTEND
  0
POINT
  5
687
330
220
100
AcDbEntity
  8
Defpoints
  6
Continuous
 62
     0
100
AcDbPoint
 10
546.1143299225
 20
206.2229062724
 30
0.0
  0
POINT
  5
688
330
220
100
AcDbEntity
  8
Defpoints
  6
Continuous
 62
     0
100
AcDbPoint
 10
549.5673453493
 20
279.823242688
 30
0.0
  0
POINT
  5
689
330
220
100
AcDbEntity
  8
Defpoints
  6
Continuous
 62
     0
100
AcDbPoint
 10
665.4138607471001
 20
279.8232426879999
 30
0.0
  0
ENDBLK
  5
24D
330
220
100
AcDbEntity
  8
0
  6
ByBlock
 62
     0
100
AcDbBlockEnd
  0
BLOCK
  5
5BF
330
5BD
100
AcDbEntity
  8
0
100
AcDbBlockBegin
  2
GENAXEH
 70
     0
 10
0.0
 20
0.0
 30
0.0
  3
GENAXEH
  1

  0
LINE
  5
5BE
330
5BD
100
AcDbEntity
  8
0
100
AcDbLine
 10
-1.0
 20
0.0
 30
0.0
 11
1.0
 21
0.0
 31
0.0
  0
ENDBLK
  5
5C0
330
5BD
100
AcDbEntity
  8
0
100
AcDbBlockEnd
  0
ENDSEC
  0
SECTION
  2
ENTITIES
  0
HATCH
  5
24E
330
21A
100
AcDbEntity
  8
0
  6
Continuous
 62
     1
100
AcDbHatch
 10
0.0
 20
0.0
 30
0.0
210
0.0
220
0.0
230
1.0
  2
DEFAULT__1
 70
     0
 71
     0
 91
        2
 92
        1
 93
       14
 72
     1
 10
368.5720952045
 20
409.7229062723999
 11
429.5970271855999
 21
409.7229062723999
 72
     1
 10
429.5970271855999
 20
409.7229062723999
 11
429.1333524749999
 21
403.0468910247
 72
     1
 10
429.1333524749999
 20
403.0468910247
 11
415.2216523773
 21
402.9254854572
 72
     1
 10
415.2216523773
 20
402.9254854572
 11
414.0970271856
 21
403.0238774120999
 72
     1
 10
412.7231833145
 20
402.903681648
 11
414.0970271856
 21
403.0238774120999
 72
     1
 10
412.7231833145
 20
402.903681648
 11
401.5821709449999
 21
402.8064555059999
 72
     1
 10
401.5821709449999
 20
402.8064555059999
 11
399.0970271856
 21
403.0238774120999
 72
     1
 10
396.0611717309
 20
402.7582744757999
 11
399.0970271856
 21
403.0238774120999
 72
     1
 10
396.0611717309
 20
402.7582744757999
 11
391.0606892358
 21
402.7146359261
 72
     1
 10
391.0606892358
 20
402.7146359261
 11
384.0970271856
 21
403.3238774121
 72
     1
 10
375.5902068698
 20
402.5796270718999
 11
384.0970271856
 21
403.3238774121
 72
     1
 10
375.5902068698
 20
402.5796270718999
 11
371.9749944991999
 21
402.5480775915
 72
     4
 94
        3
 73
     1
 74
     0
 95
        8
 96
        4
 40
0.0
 40
0.0
 40
0.0
 40
0.0
 40
1.0
 40
1.0
 40
1.0
 40
1.0
 10
368.9602307985
 20
405.2864961323999
 42
1.0
 10
369.1040215404
 20
403.642960431
 42
0.8228816729999998
 10
370.3252435783
 20
402.5336804332999
 42
0.8228816729999998
 10
371.9749944991999
 20
402.5480775915
 42
1.0
 72
     1
 10
368.5720952045
 20
409.7229062723999
 11
368.9602307985
 21
405.2864961323999
 97
        0
 92
        1
 93
       14
 72
     1
 10
583.5970271855999
 20
409.7229062723999
 11
644.6219591668
 21
409.7229062723999
 72
     1
 10
644.6219591668
 20
409.7229062723999
 11
644.2338235728
 21
405.2864961323999
 72
     4
 94
        3
 73
     1
 74
     0
 95
        8
 96
        4
 40
0.0
 40
0.0
 40
0.0
 40
0.0
 40
1.0
 40
1.0
 40
1.0
 40
1.0
 10
644.2338235728
 20
405.2864961323999
 42
1.0
 10
644.0900328308
 20
403.642960431
 42
0.8228816729999998
 10
642.8688107929
 20
402.5336804332999
 42
0.8228816729999998
 10
641.219059872
 20
402.5480775915
 42
1.0
 72
     1
 10
637.6038475014
 20
402.5796270718999
 11
641.219059872
 21
402.5480775915
 72
     1
 10
637.6038475014
 20
402.5796270718999
 11
629.0970271855999
 21
403.3238774121
 72
     1
 10
622.1333651354
 20
402.7146359261
 11
629.0970271855999
 21
403.3238774121
 72
     1
 10
617.1328826404
 20
402.7582744757999
 11
622.1333651354
 21
402.7146359261
 72
     1
 10
617.1328826404
 20
402.7582744757999
 11
614.0970271855999
 21
403.0238774120999
 72
     1
 10
611.6118834262
 20
402.8064555059999
 11
614.0970271855999
 21
403.0238774120999
 72
     1
 10
600.4708710566999
 20
402.903681648
 11
611.6118834262
 21
402.8064555059999
 72
     1
 10
600.4708710566999
 20
402.903681648
 11
599.0970271855999
 21
403.0238774120999
 72
     1
 10
597.972401994
 20
402.9254854572
 11
599.0970271855999
 21
403.0238774120999
 72
     1
 10
584.0607018962999
 20
403.0468910247
 11
597.972401994
 21
402.9254854572
 72
     1
 10
583.5970271855999
 20
409.7229062723999
 11
584.0607018962999
 21
403.0468910247
 97
        0
 75
     0
 76
     0
 52
135.0
 41
2.984846368799999
 77
     0
 78
     1
 53
135.0
 43
0.0
 44
0.0
 45
-2.1106051082
 46
-2.1106051082
 79
     0
 98
        1
 10
0.0
 20
0.0
  0
HATCH
  5
24F
330
21A
100
AcDbEntity
  8
0
  6
Continuous
 62
     1
100
AcDbHatch
 10
0.0
 20
0.0
 30
0.0
210
0.0
220
0.0
230
1.0
  2
DEFAULT__2
 70
     0
 71
     0
 91
        2
 92
        1
 93
       76
 72
     1
 10
544.6143299225
 20
206.2229062724
 11
531.5970271855999
 21
206.2229062724
 72
     4
 94
        3
 73
     1
 74
     0
 95
        8
 96
        4
 40
0.0
 40
0.0
 40
0.0
 40
0.0
 40
1.0
 40
1.0
 40
1.0
 40
1.0
 10
531.5970271855999
 20
206.2229062724
 42
1.0
 10
531.011240748
 20
206.2229062724
 42
0.8047378541
 10
530.5970271855999
 20
206.6371198348
 42
0.8047378541
 10
530.5970271855999
 20
207.2229062724
 42
1.0
 72
     1
 10
530.5970271855999
 20
211.2739417057
 11
530.5970271855999
 21
207.2229062724
 72
     4
 94
        3
 73
     1
 74
     0
 95
        8
 96
        4
 40
0.0
 40
0.0
 40
0.0
 40
0.0
 40
1.0
 40
1.0
 40
1.0
 40
1.0
 10
530.5970271855999
 20
211.2739417057
 42
1.0
 10
530.5970271855999
 20
211.8356921324
 42
0.8169162473
 10
530.9837106622
 20
212.2431714947
 42
0.8169162473
 10
531.5446912294
 20
212.2725712405
 42
1.0
 72
     1
 10
535.6411403504
 20
212.4872570419
 11
531.5446912294
 21
212.2725712405
 72
     4
 94
        3
 73
     1
 74
     0
 95
        8
 96
        4
 40
0.0
 40
0.0
 40
0.0
 40
0.0
 40
1.0
 40
1.0
 40
1.0
 40
1.0
 10
536.5888043941001
 20
213.4858865766
 42
1.0
 10
536.5888043941001
 20
212.92413615
 42
0.8169162473
 10
536.2021209176
 20
212.5166567876
 42
0.8169162473
 10
535.6411403504
 20
212.4872570419
 42
1.0
 72
     1
 10
536.5888043941001
 20
218.8328520538
 11
536.5888043941001
 21
213.4858865766
 72
     4
 94
        3
 73
     1
 74
     0
 95
        8
 96
        4
 40
0.0
 40
0.0
 40
0.0
 40
0.0
 40
1.0
 40
1.0
 40
1.0
 40
1.0
 10
536.5888043941001
 20
218.8328520538
 42
1.0
 10
536.5888043941001
 20
219.2681348286
 42
0.8792100115
 10
536.8386817183
 20
219.6245509013
 42
0.8792100115
 10
537.2478883292
 20
219.772945792
 42
1.0
 72
     1
 10
539.4379432506
 20
220.5671484078
 11
537.2478883291001
 21
219.772945792
 72
     4
 94
        3
 73
     1
 74
     0
 95
        8
 96
        4
 40
0.0
 40
0.0
 40
0.0
 40
0.0
 40
1.0
 40
1.0
 40
1.0
 40
1.0
 10
540.0970271855999
 20
221.507242146
 42
1.0
 10
540.0970271855999
 20
221.0719593713
 42
0.8792100115
 10
539.8471498615
 20
220.7155432985
 42
0.8792100115
 10
539.4379432506
 20
220.5671484078
 42
1.0
 72
     1
 10
540.0970271855999
 20
279.6519559082
 11
540.0970271855999
 21
221.507242146
 72
     4
 94
        3
 73
     1
 74
     0
 95
        8
 96
        4
 40
0.0
 40
0.0
 40
0.0
 40
0.0
 40
1.0
 40
1.0
 40
1.0
 40
1.0
 10
540.0970271855999
 20
279.6519559082
 42
1.0
 10
540.0970271855999
 20
280.2296678429
 42
0.8088336328
 10
539.6921035384999
 20
280.6417211398
 42
0.8088336328
 10
539.1144795920999
 20
280.6518036033001
 42
1.0
 72
     1
 10
539.1144795920999
 20
280.6518036033001
 11
537.5795747791999
 21
280.6785954665
 72
     4
 94
        3
 73
     1
 74
     0
 95
        8
 96
        4
 40
0.0
 40
0.0
 40
0.0
 40
0.0
 40
1.0
 40
1.0
 40
1.0
 40
1.0
 10
536.5970271855998
 20
281.6784431617
 42
1.0
 10
536.5970271855998
 20
281.1007312269
 42
0.8088336328
 10
537.0019508327999
 20
280.68867793
 42
0.8088336328
 10
537.5795747791999
 20
280.6785954665
 42
1.0
 72
     1
 10
536.5970271855998
 20
285.7130486354
 11
536.5970271855998
 21
281.6784431617
 72
     4
 94
        3
 73
     1
 74
     0
 95
        8
 96
        4
 40
0.0
 40
0.0
 40
0.0
 40
0.0
 40
1.0
 40
1.0
 40
1.0
 40
1.0
 10
537.5795747791999
 20
286.7128963306
 42
1.0
 10
537.0019508327999
 20
286.7028138671
 42
0.8088336328
 10
536.5970271855998
 20
286.2907605702
 42
0.8088336328
 10
536.5970271855998
 20
285.7130486354
 42
1.0
 72
     1
 10
537.5795747791999
 20
286.7128963306
 11
543.1144795920999
 21
286.8095084535
 72
     4
 94
        3
 73
     1
 74
     0
 95
        8
 96
        4
 40
0.0
 40
0.0
 40
0.0
 40
0.0
 40
1.0
 40
1.0
 40
1.0
 40
1.0
 10
543.1144795920999
 20
286.8095084535
 42
1.0
 10
543.6921035384999
 20
286.819590917
 42
0.8088336328
 10
544.0970271855999
 20
287.2316442139
 42
0.8088336328
 10
544.0970271855999
 20
287.8093561486
 42
1.0
 72
     1
 10
544.0970271855999
 20
297.7467813318
 11
544.0970271855999
 21
287.8093561486
 72
     4
 94
        3
 73
     1
 74
     0
 95
        8
 96
        4
 40
0.0
 40
0.0
 40
0.0
 40
0.0
 40
1.0
 40
1.0
 40
1.0
 40
1.0
 10
544.0970271855999
 20
297.7467813318
 42
1.0
 10
544.0970271855999
 20
298.3085317585
 42
0.8169162473
 10
544.4837106621999
 20
298.7160111208
 42
0.8169162473
 10
545.0446912293999
 20
298.7454108666
 42
1.0
 72
     1
 10
557.2732662113
 20
299.3862833252
 11
545.0446912293999
 21
298.7454108666
 72
     4
 94
        3
 73
     1
 74
     0
 95
        8
 96
        4
 40
0.0
 40
0.0
 40
0.0
 40
0.0
 40
1.0
 40
1.0
 40
1.0
 40
1.0
 10
557.2732662113
 20
299.3862833252
 42
1.0
 10
557.8215518793
 20
299.4150177595
 42
0.9106836024999999
 10
558.2820139793
 20
299.7140453435001
 42
0.9106836024999999
 10
558.5312720632
 20
300.2032418777
 42
1.0
 72
     1
 10
558.5312720632
 20
300.2032418777
 11
570.0229152247
 21
322.7568614718
 72
     4
 94
        3
 73
     1
 74
     0
 95
        8
 96
        4
 40
0.0
 40
0.0
 40
0.0
 40
0.0
 40
1.0
 40
1.0
 40
1.0
 40
1.0
 10
570.0229152247
 20
322.7568614718
 42
1.0
 10
570.2369970792999
 20
323.1770207688
 42
0.9818887202999999
 10
570.3479928929
 20
323.6353272215
 42
0.9818887202999999
 10
570.3498718368999
 20
324.106879281
 42
1.0
 72
     1
 10
570.5930584675
 20
385.1385854203
 11
570.3498718368999
 21
324.106879281
 72
     4
 94
        3
 73
     1
 74
     0
 95
        8
 96
        4
 40
0.0
 40
0.0
 40
0.0
 40
0.0
 40
1.0
 40
1.0
 40
1.0
 40
1.0
 10
571.5930505291001
 20
386.1346008569
 42
1.0
 10
571.0091131154999
 20
386.1346008569
 42
0.8056760909999999
 10
570.5953852031
 20
385.7225181983
 42
0.8056760909999999
 10
570.5930584675
 20
385.1385854203
 42
1.0
 72
     1
 10
572.5380133187
 20
386.1346008569
 11
571.5930505291001
 21
386.1346008569
 72
     1
 10
572.5380133187
 20
386.1346008569
 11
576.6144795920999
 21
386.2057558404
 72
     4
 94
        3
 73
     1
 74
     0
 95
        8
 96
        4
 40
0.0
 40
0.0
 40
0.0
 40
0.0
 40
1.0
 40
1.0
 40
1.0
 40
1.0
 10
576.6144795920999
 20
386.2057558404
 42
1.0
 10
577.1921035384999
 20
386.2158383039
 42
0.8088336328
 10
577.5970271855999
 20
386.6278916008
 42
0.8088336328
 10
577.5970271855999
 20
387.2056035355999
 42
1.0
 72
     1
 10
577.5970271855999
 20
396.2402090093
 11
577.5970271855999
 21
387.2056035355999
 72
     4
 94
        3
 73
     1
 74
     0
 95
        8
 96
        4
 40
0.0
 40
0.0
 40
0.0
 40
0.0
 40
1.0
 40
1.0
 40
1.0
 40
1.0
 10
577.5970271855999
 20
396.2402090093
 42
1.0
 10
577.5970271855999
 20
396.8179209441
 42
0.8088336328
 10
577.1921035384999
 20
397.229974241
 42
0.8088336328
 10
576.6144795920999
 20
397.2400567045
 42
1.0
 72
     1
 10
576.6144795920999
 20
397.2400567045
 11
571.5795747791999
 21
397.3279412949
 72
     4
 94
        3
 73
     1
 74
     0
 95
        8
 96
        4
 40
0.0
 40
0.0
 40
0.0
 40
0.0
 40
1.0
 40
1.0
 40
1.0
 40
1.0
 10
570.5970271855999
 20
398.3277889901001
 42
1.0
 10
570.5970271855999
 20
397.7500770553
 42
0.8088336328
 10
571.0019508327999
 20
397.3380237584
 42
0.8088336328
 10
571.5795747791999
 20
397.3279412949
 42
1.0
 72
     1
 10
570.5970271855999
 20
398.3277889901001
 11
570.5970271855999
 21
401.7229062723999
 72
     4
 94
        3
 73
     1
 74
     0
 95
        8
 96
        4
 40
0.0
 40
0.0
 40
0.0
 40
0.0
 40
1.0
 40
1.0
 40
1.0
 40
1.0
 10
571.5970271855999
 20
402.7229062724
 42
1.0
 10
571.0112407479999
 20
402.7229062724
 42
0.8047378541
 10
570.5970271855999
 20
402.3086927101
 42
0.8047378541
 10
570.5970271855999
 20
401.7229062723999
 42
1.0
 72
     1
 10
571.5970271855999
 20
402.7229062724
 11
654.6990980522
 21
402.7229062724
 72
     4
 94
        3
 73
     1
 74
     0
 95
        8
 96
        4
 40
0.0
 40
0.0
 40
0.0
 40
0.0
 40
1.0
 40
1.0
 40
1.0
 40
1.0
 10
654.6990980522
 20
402.7229062724
 42
1.0
 10
655.8225989054
 20
402.7229062723999
 42
0.8169162473
 10
656.6375576301999
 20
401.9495393192999
 42
0.8169162473
 10
656.6963571217
 20
400.8275781849
 42
1.0
 72
     1
 10
656.6963571217
 20
400.8275781849
 11
656.8066583028
 21
398.7229062724
 72
     1
 10
656.6963571217
 20
396.61823436
 11
656.8066583028
 21
398.7229062724
 72
     4
 94
        3
 73
     1
 74
     0
 95
        8
 96
        4
 40
0.0
 40
0.0
 40
0.0
 40
0.0
 40
1.0
 40
1.0
 40
1.0
 40
1.0
 10
654.6990980522
 20
394.7229062724
 42
1.0
 10
655.8225989054
 20
394.7229062723999
 42
0.8169162473
 10
656.6375576301999
 20
395.4962732256
 42
0.8169162473
 10
656.6963571217
 20
396.61823436
 42
1.0
 72
     1
 10
642.751727724
 20
394.7229062724
 11
654.6990980522
 21
394.7229062724
 72
     4
 94
        3
 73
     1
 74
     0
 95
        8
 96
        4
 40
0.0
 40
0.0
 40
0.0
 40
0.0
 40
1.0
 40
1.0
 40
1.0
 40
1.0
 10
642.751727724
 20
394.7229062724
 42
1.0
 10
642.0196769164
 20
394.7229062724
 42
0.9106836024999999
 10
641.3857023201999
 20
395.0889316762001
 42
0.9106836024999999
 10
641.0196769164
 20
395.7229062724
 42
1.0
 72
     1
 10
640.4423266472
 20
396.7229062724
 11
641.0196769164
 21
395.7229062724
 72
     4
 94
        3
 73
     1
 74
     0
 95
        8
 96
        4
 40
0.0
 40
0.0
 40
0.0
 40
0.0
 40
1.0
 40
1.0
 40
1.0
 40
1.0
 10
638.7102758396999
 20
397.7229062724
 42
1.0
 10
639.4423266472
 20
397.7229062724
 42
0.9106836024999999
 10
640.0763012435
 20
397.3568808687001
 42
0.9106836024999999
 10
640.4423266472
 20
396.7229062724
 42
1.0
 72
     1
 10
635.9930142476001
 20
397.7229062724
 11
638.7102758396999
 21
397.7229062724
 72
     1
 10
635.9405346997
 20
396.7229062724
 11
635.9930142476001
 21
397.7229062724
 72
     1
 10
635.9405346997
 20
396.7229062724
 11
634.2228559839
 21
396.7229062724
 72
     1
 10
634.1703013544
 20
397.7229062724
 11
634.2228559839
 21
396.7229062724
 72
     1
 10
626.0073262189999
 20
397.7229062724
 11
634.1703013544
 21
397.7229062724
 72
     1
 10
625.9547715894999
 20
396.7229062724
 11
626.0073262189999
 21
397.7229062724
 72
     1
 10
625.9547715894999
 20
396.7229062724
 11
624.2370928736
 21
396.7229062724
 72
     1
 10
624.1846133257999
 20
397.7229062724
 11
624.2370928736
 21
396.7229062724
 72
     1
 10
621.9837785316
 20
397.7229062724
 11
624.1846133257999
 21
397.7229062724
 72
     4
 94
        3
 73
     1
 74
     0
 95
        8
 96
        4
 40
0.0
 40
0.0
 40
0.0
 40
0.0
 40
1.0
 40
1.0
 40
1.0
 40
1.0
 10
620.251727724
 20
396.7229062724
 42
1.0
 10
620.6177531277999
 20
397.3568808687001
 42
0.9106836024999999
 10
621.251727724
 20
397.7229062724
 42
0.9106836024999999
 10
621.9837785316
 20
397.7229062724
 42
1.0
 72
     1
 10
620.251727724
 20
396.7229062724
 11
619.6743774548
 21
395.7229062724
 72
     4
 94
        3
 73
     1
 74
     0
 95
        8
 96
        4
 40
0.0
 40
0.0
 40
0.0
 40
0.0
 40
1.0
 40
1.0
 40
1.0
 40
1.0
 10
619.6743774548
 20
395.7229062724
 42
1.0
 10
619.3083520509998
 20
395.0889316762001
 42
0.9106836024999999
 10
618.6743774548
 20
394.7229062724
 42
0.9106836024999999
 10
617.9423266472
 20
394.7229062724
 42
1.0
 72
     1
 10
585.7490385792999
 20
394.7229062724
 11
617.9423266472
 21
394.7229062724
 72
     4
 94
        3
 73
     1
 74
     0
 95
        8
 96
        4
 40
0.0
 40
0.0
 40
0.0
 40
0.0
 40
1.0
 40
1.0
 40
1.0
 40
1.0
 10
583.7502569252999
 20
392.7927052658
 42
1.0
 10
583.7900214395999
 20
393.9314119712
 42
0.8128932001999999
 10
584.6096377817999
 20
394.7229062724
 42
0.8128932001999999
 10
585.7490385792999
 20
394.7229062724
 42
1.0
 72
     1
 10
583.7502569252999
 20
392.7927052658
 11
583.3954626984999
 21
382.6327279249
 72
     4
 94
        3
 73
     1
 74
     0
 95
        8
 96
        4
 40
0.0
 40
0.0
 40
0.0
 40
0.0
 40
1.0
 40
1.0
 40
1.0
 40
1.0
 10
583.3954626984999
 20
382.6327279249
 42
1.0
 10
583.3593194242999
 20
381.5977199719
 42
0.8389989303
 10
582.6574160975
 20
380.8362217651001
 42
0.8389989303
 10
581.6287742774
 20
380.7160393822
 42
1.0
 72
     4
 94
        3
 73
     1
 74
     0
 95
        8
 96
        4
 40
0.0
 40
0.0
 40
0.0
 40
0.0
 40
1.0
 40
1.0
 40
1.0
 40
1.0
 10
581.6287742774
 20
380.7160393822
 42
1.0
 10
580.0858115473
 20
380.5357658079
 42
0.8389989303
 10
579.0329565570999
 20
379.3935184977
 42
0.8389989303
 10
578.9787416458
 20
377.8410065681
 42
1.0
 72
     1
 10
578.6917246724
 20
369.6219158193
 11
578.9787416458
 21
377.8410065681
 72
     4
 94
        3
 73
     1
 74
     0
 95
        8
 96
        4
 40
0.0
 40
0.0
 40
0.0
 40
0.0
 40
1.0
 40
1.0
 40
1.0
 40
1.0
 10
578.1851032257
 20
367.5971153196
 42
1.0
 10
578.4956914298
 20
368.2312469304
 42
0.9853166926
 10
578.6670817987999
 20
368.9162383711
 42
0.9853166926
 10
578.6917246004
 20
369.6219158219999
 42
1.0
 72
     1
 10
578.0464361179
 20
367.3139971324
 11
578.1851032918
 21
367.5971152887
 72
     4
 94
        3
 73
     1
 74
     0
 95
        8
 96
        4
 40
0.0
 40
0.0
 40
0.0
 40
0.0
 40
1.0
 40
1.0
 40
1.0
 40
1.0
 10
577.5398130375
 20
365.2891933104001
 42
1.0
 10
577.5644558754
 20
365.9948720347
 42
0.9853166406999999
 10
577.7358468016
 20
366.6798646492
 42
0.9853166406999999
 10
578.0464360324999
 20
367.3139971757
 42
1.0
 72
     1
 10
576.0828503022
 20
323.5672369209
 11
577.539813124
 21
365.2891933077
 72
     4
 94
        3
 73
     1
 74
     0
 95
        8
 96
        4
 40
0.0
 40
0.0
 40
0.0
 40
0.0
 40
1.0
 40
1.0
 40
1.0
 40
1.0
 10
576.0828503022
 20
323.5672369209
 42
1.0
 10
576.0572672432
 20
322.8346339614
 42
0.9841973380999998
 10
575.873726303
 20
322.1249338047
 42
0.9841973380999998
 10
575.5409287881
 20
321.4717819057
 42
1.0
 72
     1
 10
562.3833617973
 20
295.6486027028
 11
575.5409287881
 21
321.4717819057
 72
     4
 94
        3
 73
     1
 74
     0
 95
        8
 96
        4
 40
0.0
 40
0.0
 40
0.0
 40
0.0
 40
1.0
 40
1.0
 40
1.0
 40
1.0
 10
559.8673500934999
 20
294.0146855977
 42
1.0
 10
560.9639214296
 20
294.0721544663
 42
0.9106836024999999
 10
561.8848456294
 20
294.6702096344
 42
0.9106836024999999
 10
562.3833617973
 20
295.6486027028
 42
1.0
 72
     1
 10
552.9758827719
 20
293.6535190994
 11
559.8673500934999
 21
294.0146855977
 72
     4
 94
        3
 73
     1
 74
     0
 95
        8
 96
        4
 40
0.0
 40
0.0
 40
0.0
 40
0.0
 40
1.0
 40
1.0
 40
1.0
 40
1.0
 10
552.9758827719
 20
293.6535190994
 42
1.0
 10
551.3864462383
 20
293.5702202604
 42
0.8326371471999999
 10
550.2512241344
 20
292.4546406058
 42
0.8326371471999999
 10
550.1401984898
 20
290.8668999164
 42
1.0
 72
     1
 10
550.1401984898
 20
290.8668999164
 11
549.7059659509999
 21
284.6570853008
 72
     4
 94
        3
 73
     1
 74
     0
 95
        8
 96
        4
 40
0.0
 40
0.0
 40
0.0
 40
0.0
 40
1.0
 40
1.0
 40
1.0
 40
1.0
 10
549.7059659509999
 20
284.6570853008
 42
1.0
 10
549.6374886223999
 20
283.6778138787
 42
0.9269949157999999
 10
549.1309433810999
 20
282.8369372046
 42
0.9269949157999999
 10
548.2972713610999
 20
282.3186200954999
 42
1.0
 72
     4
 94
        3
 73
     1
 74
     0
 95
        8
 96
        4
 40
0.0
 40
0.0
 40
0.0
 40
0.0
 40
1.0
 40
1.0
 40
1.0
 40
1.0
 10
546.8817258365
 20
279.8232426883
 42
1.0
 10
546.8998896353
 20
280.8638460251
 42
0.9188511737999998
 10
547.4134096934
 20
281.7690986849001
 42
0.9188511737999998
 10
548.2972713610999
 20
282.3186200954999
 42
1.0
 72
     1
 10
546.8817258365
 20
279.8232426883
 11
545.6141776176999
 21
207.205453866
 72
     4
 94
        3
 73
     1
 74
     0
 95
        8
 96
        4
 40
0.0
 40
0.0
 40
0.0
 40
0.0
 40
1.0
 40
1.0
 40
1.0
 40
1.0
 10
545.6141776176999
 20
207.205453866
 42
1.0
 10
545.6040951541999
 20
206.6278299196
 42
0.8088336328
 10
545.1920418572
 20
206.2229062724
 42
0.8088336328
 10
544.6143299225
 20
206.2229062724
 42
1.0
 97
        0
 92
        1
 93
       76
 72
     1
 10
481.5970271856
 20
206.2229062724
 11
468.5797244487
 21
206.2229062724
 72
     4
 94
        3
 73
     1
 74
     0
 95
        8
 96
        4
 40
0.0
 40
0.0
 40
0.0
 40
0.0
 40
1.0
 40
1.0
 40
1.0
 40
1.0
 10
467.5798767536
 20
207.205453866
 42
1.0
 10
467.5899592170999
 20
206.6278299196
 42
0.8088336328
 10
468.002012514
 20
206.2229062724
 42
0.8088336328
 10
468.5797244487
 20
206.2229062724
 42
1.0
 72
     1
 10
466.3123285346999
 20
279.8232426883
 11
467.5798767536
 21
207.205453866
 72
     4
 94
        3
 73
     1
 74
     0
 95
        8
 96
        4
 40
0.0
 40
0.0
 40
0.0
 40
0.0
 40
1.0
 40
1.0
 40
1.0
 40
1.0
 10
466.3123285346999
 20
279.8232426883
 42
1.0
 10
466.2941647359
 20
280.8638460251
 42
0.9188511737999998
 10
465.7806446778
 20
281.7690986849001
 42
0.9188511737999998
 10
464.8967830101
 20
282.3186200954999
 42
1.0
 72
     4
 94
        3
 73
     1
 74
     0
 95
        8
 96
        4
 40
0.0
 40
0.0
 40
0.0
 40
0.0
 40
1.0
 40
1.0
 40
1.0
 40
1.0
 10
463.4880884201999
 20
284.6570853008
 42
1.0
 10
463.5565657487999
 20
283.6778138787
 42
0.9269949157999999
 10
464.0631109901
 20
282.8369372046
 42
0.9269949157999999
 10
464.8967830101
 20
282.3186200954999
 42
1.0
 72
     1
 10
463.0538558814
 20
290.8668999164
 11
463.4880884201999
 21
284.6570853008
 72
     4
 94
        3
 73
     1
 74
     0
 95
        8
 96
        4
 40
0.0
 40
0.0
 40
0.0
 40
0.0
 40
1.0
 40
1.0
 40
1.0
 40
1.0
 10
460.2181715993999
 20
293.6535190994
 42
1.0
 10
461.8076081328999
 20
293.5702202604
 42
0.8326371471999999
 10
462.9428302367999
 20
292.4546406058
 42
0.8326371471999999
 10
463.0538558814
 20
290.8668999164
 42
1.0
 72
     1
 10
460.2181715993999
 20
293.6535190994
 11
453.3267042778
 21
294.0146855977
 72
     4
 94
        3
 73
     1
 74
     0
 95
        8
 96
        4
 40
0.0
 40
0.0
 40
0.0
 40
0.0
 40
1.0
 40
1.0
 40
1.0
 40
1.0
 10
453.3267042778
 20
294.0146855977
 42
1.0
 10
452.2301329417
 20
294.0721544663
 42
0.9106836024999999
 10
451.3092087419
 20
294.6702096344
 42
0.9106836024999999
 10
450.8106925738999
 20
295.6486027028
 42
1.0
 72
     1
 10
450.8106925738999
 20
295.6486027028
 11
437.6531255831999
 21
321.4717819057
 72
     4
 94
        3
 73
     1
 74
     0
 95
        8
 96
        4
 40
0.0
 40
0.0
 40
0.0
 40
0.0
 40
1.0
 40
1.0
 40
1.0
 40
1.0
 10
437.1112040689999
 20
323.5672369209
 42
1.0
 10
437.1367871280999
 20
322.8346339614
 42
0.9841973380999998
 10
437.3203280682
 20
322.1249338047
 42
0.9841973380999998
 10
437.6531255831999
 20
321.4717819057
 42
1.0
 72
     1
 10
437.1112040689999
 20
323.5672369209
 11
435.654240958
 21
365.2892015904
 72
     4
 94
        3
 73
     1
 74
     0
 95
        8
 96
        4
 40
0.0
 40
0.0
 40
0.0
 40
0.0
 40
1.0
 40
1.0
 40
1.0
 40
1.0
 10
435.1476206935999
 20
367.3140000998
 42
1.0
 10
435.4582096181999
 20
366.6798662948
 42
0.9853165993000001
 10
435.6295997744
 20
365.9948724428
 42
0.9853165993000001
 10
435.6542413910999
 20
365.2891926617
 42
1.0
 72
     1
 10
435.0089533598
 20
367.5971183091001
 11
435.1476205925
 21
367.3140000484
 72
     4
 94
        3
 73
     1
 74
     0
 95
        8
 96
        4
 40
0.0
 40
0.0
 40
0.0
 40
0.0
 40
1.0
 40
1.0
 40
1.0
 40
1.0
 10
434.5023298199
 20
369.6219151772
 42
1.0
 10
434.5269738407
 20
368.916238821
 42
0.9853167356
 10
434.6983649622
 20
368.2312486525
 42
0.9853167356
 10
435.0089534409999
 20
367.597118347
 42
1.0
 72
     1
 10
434.5023294103
 20
369.6219240844
 11
434.2153127253999
 21
377.8410065681
 72
     4
 94
        3
 73
     1
 74
     0
 95
        8
 96
        4
 40
0.0
 40
0.0
 40
0.0
 40
0.0
 40
1.0
 40
1.0
 40
1.0
 40
1.0
 10
431.5652800937999
 20
380.7160393822
 42
1.0
 10
433.1082428238999
 20
380.5357658079
 42
0.8389989303
 10
434.1610978141999
 20
379.3935184977
 42
0.8389989303
 10
434.2153127253999
 20
377.8410065681
 42
1.0
 72
     4
 94
        3
 73
     1
 74
     0
 95
        8
 96
        4
 40
0.0
 40
0.0
 40
0.0
 40
0.0
 40
1.0
 40
1.0
 40
1.0
 40
1.0
 10
429.7985916726999
 20
382.6327279249
 42
1.0
 10
429.8347349469
 20
381.5977199719
 42
0.8389989303
 10
430.5366382737
 20
380.8362217651001
 42
0.8389989303
 10
431.5652800937999
 20
380.7160393822
 42
1.0
 72
     1
 10
429.443797446
 20
392.7927052658
 11
429.7985916726999
 21
382.6327279249
 72
     4
 94
        3
 73
     1
 74
     0
 95
        8
 96
        4
 40
0.0
 40
0.0
 40
0.0
 40
0.0
 40
1.0
 40
1.0
 40
1.0
 40
1.0
 10
429.443797446
 20
392.7927052658
 42
1.0
 10
429.4040329316
 20
393.9314119712
 42
0.8128932001999999
 10
428.5844165893999
 20
394.7229062724
 42
0.8128932001999999
 10
427.4450157919
 20
394.7229062724
 42
1.0
 72
     1
 10
395.2517277240001
 20
394.7229062724
 11
427.4450157919
 21
394.7229062724
 72
     4
 94
        3
 73
     1
 74
     0
 95
        8
 96
        4
 40
0.0
 40
0.0
 40
0.0
 40
0.0
 40
1.0
 40
1.0
 40
1.0
 40
1.0
 10
393.5196769164
 20
395.7229062724
 42
1.0
 10
393.8857023202
 20
395.0889316762001
 42
0.9106836024999999
 10
394.5196769164
 20
394.7229062724
 42
0.9106836024999999
 10
395.2517277240001
 20
394.7229062724
 42
1.0
 72
     1
 10
392.9423266472
 20
396.7229062724
 11
393.5196769164
 21
395.7229062724
 72
     4
 94
        3
 73
     1
 74
     0
 95
        8
 96
        4
 40
0.0
 40
0.0
 40
0.0
 40
0.0
 40
1.0
 40
1.0
 40
1.0
 40
1.0
 10
392.9423266472
 20
396.7229062724
 42
1.0
 10
392.5763012435
 20
397.3568808687001
 42
0.9106836024999999
 10
391.9423266472
 20
397.7229062724
 42
0.9106836024999999
 10
391.2102758397
 20
397.7229062724
 42
1.0
 72
     1
 10
387.6865699406
 20
397.7229062724
 11
391.2102758397
 21
397.7229062724
 72
     1
 10
387.6331433009
 20
396.7229062724
 11
387.6865699406
 21
397.7229062724
 72
     1
 10
387.6331433009
 20
396.7229062724
 11
386.2359723149
 21
396.7229062724
 72
     2
 10
196.2585803629
 20
382.5895770386
 40
190.5023914897
 50
4.254670075499999
 51
4.5563233025
 73
     1
 72
     1
 10
381.3383214677
 20
397.7229062724
 11
386.1589242462
 21
397.7229062724
 72
     2
 10
511.692832582
 20
386.5398258626001
 40
130.8333251263
 50
175.0966155462
 51
175.5360137932
 73
     1
 72
     1
 10
381.2563831365
 20
396.7229062724
 11
379.8374707424
 21
396.7229062724
 72
     1
 10
379.7839581484
 20
397.7229062724
 11
379.8374707424
 21
396.7229062724
 72
     1
 10
374.4837785316
 20
397.7229062724
 11
379.7839581484
 21
397.7229062724
 72
     4
 94
        3
 73
     1
 74
     0
 95
        8
 96
        4
 40
0.0
 40
0.0
 40
0.0
 40
0.0
 40
1.0
 40
1.0
 40
1.0
 40
1.0
 10
374.4837785316
 20
397.7229062724
 42
1.0
 10
373.751727724
 20
397.7229062724
 42
0.9106836024999999
 10
373.1177531277999
 20
397.3568808687001
 42
0.9106836024999999
 10
372.751727724
 20
396.7229062724
 42
1.0
 72
     1
 10
372.751727724
 20
396.7229062724
 11
372.1743774548
 21
395.7229062724
 72
     4
 94
        3
 73
     1
 74
     0
 95
        8
 96
        4
 40
0.0
 40
0.0
 40
0.0
 40
0.0
 40
1.0
 40
1.0
 40
1.0
 40
1.0
 10
370.4423266472
 20
394.7229062724
 42
1.0
 10
371.1743774548001
 20
394.7229062724
 42
0.9106836024999999
 10
371.808352051
 20
395.0889316762001
 42
0.9106836024999999
 10
372.1743774548
 20
395.7229062724
 42
1.0
 72
     1
 10
358.494956319
 20
394.7229062724
 11
370.4423266472
 21
394.7229062724
 72
     4
 94
        3
 73
     1
 74
     0
 95
        8
 96
        4
 40
0.0
 40
0.0
 40
0.0
 40
0.0
 40
1.0
 40
1.0
 40
1.0
 40
1.0
 10
358.494956319
 20
394.7229062724
 42
1.0
 10
357.3714554658
 20
394.7229062723999
 42
0.8169162473
 10
356.5564967409999
 20
395.4962732256
 42
0.8169162473
 10
356.4976972495
 20
396.61823436
 42
1.0
 72
     1
 10
356.4976972495
 20
396.61823436
 11
356.3873960685
 21
398.7229062724
 72
     1
 10
356.4976972495
 20
400.8275781849
 11
356.3873960685
 21
398.7229062724
 72
     4
 94
        3
 73
     1
 74
     0
 95
        8
 96
        4
 40
0.0
 40
0.0
 40
0.0
 40
0.0
 40
1.0
 40
1.0
 40
1.0
 40
1.0
 10
358.494956319
 20
402.7229062724
 42
1.0
 10
357.3714554658
 20
402.7229062723999
 42
0.8169162473
 10
356.5564967409999
 20
401.9495393192999
 42
0.8169162473
 10
356.4976972495
 20
400.8275781849
 42
1.0
 72
     1
 10
358.494956319
 20
402.7229062724
 11
441.5970271855999
 21
402.7229062724
 72
     4
 94
        3
 73
     1
 74
     0
 95
        8
 96
        4
 40
0.0
 40
0.0
 40
0.0
 40
0.0
 40
1.0
 40
1.0
 40
1.0
 40
1.0
 10
441.5970271855999
 20
402.7229062724
 42
1.0
 10
442.1828136232
 20
402.7229062724
 42
0.8047378541
 10
442.5970271856
 20
402.3086927101
 42
0.8047378541
 10
442.5970271856
 20
401.7229062723999
 42
1.0
 72
     1
 10
442.5970271856
 20
398.3277889901001
 11
442.5970271856
 21
401.7229062723999
 72
     4
 94
        3
 73
     1
 74
     0
 95
        8
 96
        4
 40
0.0
 40
0.0
 40
0.0
 40
0.0
 40
1.0
 40
1.0
 40
1.0
 40
1.0
 10
442.5970271856
 20
398.3277889901001
 42
1.0
 10
442.5970271856
 20
397.7500770553
 42
0.8088336328
 10
442.1921035385
 20
397.3380237584
 42
0.8088336328
 10
441.6144795921
 20
397.3279412949
 42
1.0
 72
     1
 10
436.5795747791999
 20
397.2400567045
 11
441.6144795921
 21
397.3279412949
 72
     4
 94
        3
 73
     1
 74
     0
 95
        8
 96
        4
 40
0.0
 40
0.0
 40
0.0
 40
0.0
 40
1.0
 40
1.0
 40
1.0
 40
1.0
 10
435.5970271856
 20
396.2402090093
 42
1.0
 10
435.5970271856
 20
396.8179209441
 42
0.8088336328
 10
436.0019508328
 20
397.229974241
 42
0.8088336328
 10
436.5795747791999
 20
397.2400567045
 42
1.0
 72
     1
 10
435.5970271856
 20
396.2402090093
 11
435.5970271856
 21
387.2056035355999
 72
     4
 94
        3
 73
     1
 74
     0
 95
        8
 96
        4
 40
0.0
 40
0.0
 40
0.0
 40
0.0
 40
1.0
 40
1.0
 40
1.0
 40
1.0
 10
436.5795747791999
 20
386.2057558404
 42
1.0
 10
436.0019508328
 20
386.2158383039
 42
0.8088336328
 10
435.5970271856
 20
386.6278916008
 42
0.8088336328
 10
435.5970271856
 20
387.2056035355999
 42
1.0
 72
     1
 10
440.6560410526
 20
386.1346008569
 11
436.5795747791999
 21
386.2057558404
 72
     1
 10
441.6010038420999
 20
386.1346008569
 11
440.6560410526
 21
386.1346008569
 72
     4
 94
        3
 73
     1
 74
     0
 95
        8
 96
        4
 40
0.0
 40
0.0
 40
0.0
 40
0.0
 40
1.0
 40
1.0
 40
1.0
 40
1.0
 10
441.6010038420999
 20
386.1346008569
 42
1.0
 10
442.1849412557
 20
386.1346008569
 42
0.8056760909999999
 10
442.5986691681
 20
385.7225181983
 42
0.8056760909999999
 10
442.6009959037
 20
385.1385854203
 42
1.0
 72
     1
 10
442.6009959037
 20
385.1385854203
 11
442.8441825344
 21
324.106879281
 72
     4
 94
        3
 73
     1
 74
     0
 95
        8
 96
        4
 40
0.0
 40
0.0
 40
0.0
 40
0.0
 40
1.0
 40
1.0
 40
1.0
 40
1.0
 10
443.1711391466
 20
322.7568614718
 42
1.0
 10
442.9570572919999
 20
323.1770207688
 42
0.9818887202999999
 10
442.8460614783
 20
323.6353272215
 42
0.9818887202999999
 10
442.8441825344
 20
324.106879281
 42
1.0
 72
     1
 10
454.662782308
 20
300.2032418777
 11
443.1711391466
 21
322.7568614718
 72
     4
 94
        3
 73
     1
 74
     0
 95
        8
 96
        4
 40
0.0
 40
0.0
 40
0.0
 40
0.0
 40
1.0
 40
1.0
 40
1.0
 40
1.0
 10
455.9207881598999
 20
299.3862833252
 42
1.0
 10
455.3725024919
 20
299.4150177595
 42
0.9106836024999999
 10
454.9120403919999
 20
299.7140453435001
 42
0.9106836024999999
 10
454.662782308
 20
300.2032418777
 42
1.0
 72
     1
 10
455.9207881598999
 20
299.3862833252
 11
468.1493631419
 21
298.7454108666
 72
     4
 94
        3
 73
     1
 74
     0
 95
        8
 96
        4
 40
0.0
 40
0.0
 40
0.0
 40
0.0
 40
1.0
 40
1.0
 40
1.0
 40
1.0
 10
469.0970271856
 20
297.7467813318
 42
1.0
 10
469.0970271856
 20
298.3085317585
 42
0.8169162473
 10
468.7103437091
 20
298.7160111208
 42
0.8169162473
 10
468.1493631419
 20
298.7454108666
 42
1.0
 72
     1
 10
469.0970271856
 20
297.7467813318
 11
469.0970271856
 21
287.8093561486
 72
     4
 94
        3
 73
     1
 74
     0
 95
        8
 96
        4
 40
0.0
 40
0.0
 40
0.0
 40
0.0
 40
1.0
 40
1.0
 40
1.0
 40
1.0
 10
469.0970271856
 20
287.8093561486
 42
1.0
 10
469.0970271856
 20
287.2316442139
 42
0.8088336328
 10
469.5019508328
 20
286.819590917
 42
0.8088336328
 10
470.0795747791999
 20
286.8095084535
 42
1.0
 72
     1
 10
475.6144795921
 20
286.7128963306
 11
470.0795747791999
 21
286.8095084535
 72
     4
 94
        3
 73
     1
 74
     0
 95
        8
 96
        4
 40
0.0
 40
0.0
 40
0.0
 40
0.0
 40
1.0
 40
1.0
 40
1.0
 40
1.0
 10
476.5970271856
 20
285.7130486354
 42
1.0
 10
476.5970271856
 20
286.2907605702
 42
0.8088336328
 10
476.1921035384999
 20
286.7028138671
 42
0.8088336328
 10
475.6144795921
 20
286.7128963306
 42
1.0
 72
     1
 10
476.5970271856
 20
285.7130486354
 11
476.5970271856
 21
281.6784431617
 72
     4
 94
        3
 73
     1
 74
     0
 95
        8
 96
        4
 40
0.0
 40
0.0
 40
0.0
 40
0.0
 40
1.0
 40
1.0
 40
1.0
 40
1.0
 10
475.6144795921
 20
280.6785954665
 42
1.0
 10
476.1921035384999
 20
280.68867793
 42
0.8088336328
 10
476.5970271856
 20
281.1007312269
 42
0.8088336328
 10
476.5970271856
 20
281.6784431617
 42
1.0
 72
     1
 10
474.0795747791999
 20
280.6518036033001
 11
475.6144795921
 21
280.6785954665
 72
     4
 94
        3
 73
     1
 74
     0
 95
        8
 96
        4
 40
0.0
 40
0.0
 40
0.0
 40
0.0
 40
1.0
 40
1.0
 40
1.0
 40
1.0
 10
474.0795747791999
 20
280.6518036033001
 42
1.0
 10
473.5019508328
 20
280.6417211399
 42
0.8088336328
 10
473.0970271856
 20
280.2296678429
 42
0.8088336328
 10
473.0970271856
 20
279.6519559082
 42
1.0
 72
     1
 10
473.0970271856
 20
279.6519559082
 11
473.0970271856
 21
221.507242146
 72
     4
 94
        3
 73
     1
 74
     0
 95
        8
 96
        4
 40
0.0
 40
0.0
 40
0.0
 40
0.0
 40
1.0
 40
1.0
 40
1.0
 40
1.0
 10
473.0970271856
 20
221.507242146
 42
1.0
 10
473.0970271856
 20
221.0719593713
 42
0.8792100115
 10
473.3469045097
 20
220.7155432985
 42
0.8792100115
 10
473.7561111206
 20
220.5671484078
 42
1.0
 72
     1
 10
473.7561111206
 20
220.5671484078
 11
475.9461660421
 21
219.772945792
 72
     4
 94
        3
 73
     1
 74
     0
 95
        8
 96
        4
 40
0.0
 40
0.0
 40
0.0
 40
0.0
 40
1.0
 40
1.0
 40
1.0
 40
1.0
 10
476.6052499770999
 20
218.8328520538
 42
1.0
 10
476.6052499770999
 20
219.2681348286
 42
0.8792100115
 10
476.355372653
 20
219.6245509013
 42
0.8792100115
 10
475.9461660421
 20
219.772945792
 42
1.0
 72
     1
 10
476.6052499770999
 20
218.8328520538
 11
476.6052499770999
 21
213.4858865766
 72
     4
 94
        3
 73
     1
 74
     0
 95
        8
 96
        4
 40
0.0
 40
0.0
 40
0.0
 40
0.0
 40
1.0
 40
1.0
 40
1.0
 40
1.0
 10
476.6052499770999
 20
213.4858865766
 42
1.0
 10
476.6052499770999
 20
212.92413615
 42
0.8169162473
 10
476.9919334537
 20
212.5166567876
 42
0.8169162473
 10
477.5529140208999
 20
212.4872570419
 42
1.0
 72
     1
 10
477.5529140208
 20
212.4872570419
 11
481.6493631419
 21
212.2725712405
 72
     4
 94
        3
 73
     1
 74
     0
 95
        8
 96
        4
 40
0.0
 40
0.0
 40
0.0
 40
0.0
 40
1.0
 40
1.0
 40
1.0
 40
1.0
 10
482.5970271855999
 20
211.2739417057
 42
1.0
 10
482.5970271855999
 20
211.8356921324
 42
0.8169162473
 10
482.2103437091
 20
212.2431714947
 42
0.8169162473
 10
481.6493631419
 20
212.2725712405
 42
1.0
 72
     1
 10
482.5970271855999
 20
211.2739417057
 11
482.5970271855999
 21
207.2229062724
 72
     4
 94
        3
 73
     1
 74
     0
 95
        8
 96
        4
 40
0.0
 40
0.0
 40
0.0
 40
0.0
 40
1.0
 40
1.0
 40
1.0
 40
1.0
 10
481.5970271856
 20
206.2229062724
 42
1.0
 10
482.1828136231999
 20
206.2229062724
 42
0.8047378541
 10
482.5970271855999
 20
206.6371198348
 42
0.8047378541
 10
482.5970271855999
 20
207.2229062724
 42
1.0
 97
        0
 75
     0
 76
     0
 52
45.0
 41
4.153627580299999
 77
     0
 78
     1
 53
45.0
 43
0.0
 44
0.0
 45
-2.9370582286
 46
2.9370582286
 79
     0
 98
        1
 10
0.0
 20
0.0
  0
DIMENSION
  5
250
330
21A
100
AcDbEntity
  8
ZEICHNUNGSBEMASSUNGEN
  6
Continuous
 62
     7
100
AcDbDimension
  2
*D1
 10
429.3763933416
 20
445.5479062723999
 30
0.0
 11
503.680360519
 21
445.5479062723999
 31
0.0
 70
   160
  1
%%c155
 71
     2
 42
154.4412676881
  3
DIMSTYLE_2
100
AcDbAlignedDimension
 13
583.8176610297
 23
396.2229062724
 33
0.0
 14
429.3763933416
 24
396.2229062724
 34
0.0
 50
180.0
100
AcDbRotatedDimension
1001
ACAD
1000
DSTYLE
1002
{
1070
    41
1040
5.0
1070
   140
1040
7.0
1070
   147
1040
1.5
1070
   178
1070
   256
1002
}
  0
DIMENSION
  5
251
330
21A
100
AcDbEntity
  8
ZEICHNUNGSBEMASSUNGEN
  6
Continuous
 62
     7
100
AcDbDimension
  2
*D2
 10
356.3873960685
 20
457.6151291871304
 30
0.0
 11
503.9802882750036
 21
457.6151291871304
 31
0.0
 70
   160
  1
%%c<>
 71
     2
 42
300.4192622343
  3
DIMSTYLE_2
100
AcDbAlignedDimension
 13
656.8066583028
 23
402.2229062723999
 33
0.0
 14
356.3873960685
 24
402.2229062723999
 34
0.0
 50
180.0
100
AcDbRotatedDimension
1001
ACAD_DSTYLE_DIMINSPECT
1070
   396
1000
100%
1070
   395
1000

1070
   394
1070
    33
1070
   393
1070
     0
1001
ACAD
1000
DSTYLE
1002
{
1070
    41
1040
5.0
1070
   140
1040
7.0
1070
   147
1040
1.5
1070
   178
1070
   256
1070
   271
1070
     0
1002
}
  0
DIMENSION
  5
252
330
21A
100
AcDbEntity
  8
ZEICHNUNGSBEMASSUNGEN
  6
Continuous
 62
     7
100
AcDbDimension
  2
*D3
 10
346.4508377653001
 20
402.7229062724
 30
0.0
 11
346.4508377653
 21
299.1089262908
 31
0.0
 70
   160
 71
     2
 42
196.4999999999999
  3
DIMSTYLE_2
100
AcDbAlignedDimension
 13
467.0797244486999
 23
206.2229062724
 33
0.0
 14
356.9949563190001
 24
402.7229062724
 34
0.0
 50
90.0
100
AcDbRotatedDimension
1001
ACAD_DSTYLE_DIMINSPECT
1070
   396
1000
100%
1070
   395
1000

1070
   394
1070
    33
1070
   393
1070
     0
1001
ACAD
1000
DSTYLE
1002
{
1070
    41
1040
5.0
1070
   140
1040
7.0
1070
   147
1040
1.5
1070
   178
1070
   256
1070
   271
1070
     0
1002
}
  0
DIMENSION
  5
253
330
21A
100
AcDbEntity
  8
ZEICHNUNGSBEMASSUNGEN
  6
Continuous
 62
     7
100
AcDbDimension
  2
*D4
 10
665.4138607471001
 20
279.8232426879999
 30
0.0
 11
665.4138607471
 21
240.5645836553
 31
0.0
 70
   160
 71
     2
 42
73.60033641559997
  3
DIMSTYLE_2
100
AcDbAlignedDimension
 13
546.1143299225
 23
206.2229062724
 33
0.0
 14
549.5673453493
 24
279.823242688
 34
0.0
 50
90.0
100
AcDbRotatedDimension
1001
ACAD_DSTYLE_DIMINSPECT
1070
   396
1000
100%
1070
   395
1000

1070
   394
1070
    33
1070
   393
1070
     0
1001
ACAD
1000
DSTYLE
1002
{
1070
    41
1040
5.0
1070
   140
1040
7.0
1070
   147
1040
1.5
1070
   178
1070
   256
1070
   271
1070
     0
1002
}
  0
LINE
  5
254
330
21A
100
AcDbEntity
  8
0
  6
Continuous
 62
     7
100
AcDbLine
 10
356.4976972495
 20
400.8275781849
 30
0.0
 11
356.3873960685
 21
398.7229062724
 31
0.0
  0
LINE
  5
255
330
21A
100
AcDbEntity
  8
0
  6
Continuous
 62
     7
100
AcDbLine
 10
372.751727724
 20
396.7229062724
 30
0.0
 11
372.1743774548
 21
395.7229062724
 31
0.0
  0
LINE
  5
256
330
21A
100
AcDbEntity
  8
0
  6
Continuous
 62
     7
100
AcDbLine
 10
356.3873960685
 20
398.7229062724
 30
0.0
 11
356.4976972495
 21
396.61823436
 31
0.0
  0
LINE
  5
257
330
21A
100
AcDbEntity
  8
0
  6
Continuous
 62
     7
100
AcDbLine
 10
368.5720952045
 20
409.7229062723999
 30
0.0
 11
368.9602307985
 21
405.2864961323999
 31
0.0
  0
LINE
  5
258
330
21A
100
AcDbEntity
  8
AUSFORMSCHRAEGEN
  6
Continuous
 62
     9
100
AcDbLine
 10
381.5739453226001
 20
397.7229062724
 30
0.0
 11
381.5526605292
 21
396.7229062724
 31
0.0
  0
LINE
  5
259
330
21A
100
AcDbEntity
  8
0
  6
Continuous
 62
     7
100
AcDbLine
 10
418.6307087358
 20
413.9622394521
 30
0.0
 11
418.1413755561
 21
413.4729062724
 31
0.0
  0
LINE
  5
25A
330
21A
100
AcDbEntity
  8
AUSFORMSCHRAEGEN
  6
Continuous
 62
     7
100
AcDbLine
 10
379.5970271856
 20
397.7229062724
 30
0.0
 11
379.6494349649
 21
396.7229062724
 31
0.0
  0
LINE
  5
25B
330
21A
100
AcDbEntity
  8
AUSFORMSCHRAEGEN
  6
Continuous
 62
     9
100
AcDbLine
 10
386.0064533957
 20
397.7229062724
 30
0.0
 11
386.0337026611
 21
396.7229062724
 31
0.0
  0
LINE
  5
25C
330
21A
100
AcDbEntity
  8
AUSFORMSCHRAEGEN
  6
Continuous
 62
     9
100
AcDbLine
 10
383.8821595938
 20
397.7229062724
 30
0.0
 11
383.8821595938
 21
396.7229062724
 31
0.0
  0
LINE
  5
25D
330
21A
100
AcDbEntity
  8
0
  6
Continuous
 62
     7
100
AcDbLine
 10
384.0892506139
 20
409.7229062723999
 30
0.0
 11
384.0892506139
 21
410.7229062724
 31
0.0
  0
LINE
  5
25E
330
21A
100
AcDbEntity
  8
0
  6
Continuous
 62
     7
100
AcDbLine
 10
385.9913636465
 20
409.7229062723999
 30
0.0
 11
385.9913636465
 21
410.7229062724
 31
0.0
  0
LINE
  5
25F
330
21A
100
AcDbEntity
  8
0
  6
Continuous
 62
     7
100
AcDbLine
 10
387.1209341931
 20
409.7229062723999
 30
0.0
 11
387.1209341931
 21
410.7229062724
 31
0.0
  0
LINE
  5
260
330
21A
100
AcDbEntity
  8
0
  6
Continuous
 62
     7
100
AcDbLine
 10
389.0230472257
 20
409.7229062723999
 30
0.0
 11
389.0230472257
 21
410.7229062724
 31
0.0
  0
LINE
  5
261
330
21A
100
AcDbEntity
  8
0
  6
Continuous
 62
     7
100
AcDbLine
 10
390.1526177724
 20
409.7229062723999
 30
0.0
 11
390.1526177724
 21
410.7229062724
 31
0.0
  0
LINE
  5
262
330
21A
100
AcDbEntity
  8
0
  6
Continuous
 62
     7
100
AcDbLine
 10
392.054730805
 20
409.7229062723999
 30
0.0
 11
392.054730805
 21
410.7229062724
 31
0.0
  0
LINE
  5
263
330
21A
100
AcDbEntity
  8
0
  6
Continuous
 62
     7
100
AcDbLine
 10
394.0633412683999
 20
409.7229062723999
 30
0.0
 11
394.0633412683999
 21
410.7229062724
 31
0.0
  0
LINE
  5
264
330
21A
100
AcDbEntity
  8
0
  6
Continuous
 62
     7
100
AcDbLine
 10
544.6143299225
 20
206.2229062724
 30
0.0
 11
468.5797244487
 21
206.2229062724
 31
0.0
  0
LINE
  5
265
330
21A
100
AcDbEntity
  8
0
  6
Continuous
 62
     9
100
AcDbLine
 10
530.5970271855999
 20
207.2229062724
 30
0.0
 11
482.5970271855999
 21
207.2229062724
 31
0.0
  0
LINE
  5
266
330
21A
100
AcDbEntity
  8
0
  6
Continuous
 62
     7
100
AcDbLine
 10
399.7696803662
 20
409.7229062723999
 30
0.0
 11
399.7696803662
 21
410.7229062724
 31
0.0
  0
LINE
  5
267
330
21A
100
AcDbEntity
  8
0
  6
Continuous
 62
     7
100
AcDbLine
 10
400.3877143548999
 20
409.7229062723999
 30
0.0
 11
400.3877143548999
 21
410.7229062724
 31
0.0
  0
LINE
  5
268
330
21A
100
AcDbEntity
  8
0
  6
Continuous
 62
     7
100
AcDbLine
 10
402.0403190398
 20
410.7229062724
 30
0.0
 11
402.0403190398
 21
411.7229062724
 31
0.0
  0
LINE
  5
269
330
21A
100
AcDbEntity
  8
0
  6
Continuous
 62
     7
100
AcDbLine
 10
403.4913755560999
 20
411.7229062724
 30
0.0
 11
403.4913755560999
 21
413.3229062723999
 31
0.0
  0
LINE
  5
26A
330
21A
100
AcDbEntity
  8
0
  6
Continuous
 62
     7
100
AcDbLine
 10
403.4913755560999
 20
414.9229062724
 30
0.0
 11
403.4913755560999
 21
424.9229062723999
 31
0.0
  0
LINE
  5
26B
330
21A
100
AcDbEntity
  8
0
  6
Continuous
 62
     7
100
AcDbLine
 10
404.026938264
 20
414.3284597719
 30
0.0
 11
404.026938264
 21
414.9229062724
 31
0.0
  0
LINE
  5
26C
330
21A
100
AcDbEntity
  8
0
  6
Continuous
 62
     7
100
AcDbLine
 10
404.4913755561
 20
424.9229062723999
 30
0.0
 11
404.4913755561
 21
432.9229062723999
 31
0.0
  0
LINE
  5
26D
330
21A
100
AcDbEntity
  8
0
  6
Continuous
 62
     7
100
AcDbLine
 10
405.6913755561
 20
413.4729062724
 30
0.0
 11
405.6913755561
 21
413.3229062723999
 31
0.0
  0
LINE
  5
26E
330
21A
100
AcDbEntity
  8
0
  6
Continuous
 62
     7
100
AcDbLine
 10
407.4913755560999
 20
402.7229062724
 30
0.0
 11
407.4913755560999
 21
402.8259000307
 31
0.0
  0
LINE
  5
26F
330
21A
100
AcDbEntity
  8
0
  6
Continuous
 62
     9
100
AcDbLine
 10
407.9136745876
 20
410.7229062724
 30
0.0
 11
407.9136745876
 21
411.7229062724
 31
0.0
  0
LINE
  5
270
330
21A
100
AcDbEntity
  8
0
  6
Continuous
 62
     7
100
AcDbLine
 10
535.6411403504
 20
212.4872570419
 30
0.0
 11
531.5446912294
 21
212.2725712405
 31
0.0
  0
LINE
  5
271
330
21A
100
AcDbEntity
  8
0
  6
Continuous
 62
     9
100
AcDbLine
 10
530.5970271855999
 20
211.2739417057
 30
0.0
 11
482.5970271855999
 21
211.2739417057
 31
0.0
  0
LINE
  5
272
330
21A
100
AcDbEntity
  8
0
  6
Continuous
 62
     9
100
AcDbLine
 10
531.5446912294
 20
212.2725712405
 30
0.0
 11
481.6493631419
 21
212.2725712405
 31
0.0
  0
LINE
  5
273
330
21A
100
AcDbEntity
  8
0
  6
Continuous
 62
     9
100
AcDbLine
 10
477.5529140208
 20
212.4872570419
 30
0.0
 11
535.6411403504
 21
212.4872570419
 31
0.0
  0
LINE
  5
274
330
21A
100
AcDbEntity
  8
0
  6
Continuous
 62
     9
100
AcDbLine
 10
476.6052499770999
 20
213.4858865766
 30
0.0
 11
536.5888043941001
 21
213.4858865766
 31
0.0
  0
LINE
  5
275
330
21A
100
AcDbEntity
  8
0
  6
Continuous
 62
     9
100
AcDbLine
 10
536.5888043941001
 20
218.8328520538
 30
0.0
 11
476.6052499770999
 21
218.8328520538
 31
0.0
  0
LINE
  5
276
330
21A
100
AcDbEntity
  8
0
  6
Continuous
 62
     9
100
AcDbLine
 10
537.2478883291001
 20
219.772945792
 30
0.0
 11
475.9461660421
 21
219.772945792
 31
0.0
  0
LINE
  5
277
330
21A
100
AcDbEntity
  8
0
  6
Continuous
 62
     9
100
AcDbLine
 10
473.7561111206
 20
220.5671484078
 30
0.0
 11
539.4379432506
 21
220.5671484078
 31
0.0
  0
LINE
  5
278
330
21A
100
AcDbEntity
  8
0
  6
Continuous
 62
     7
100
AcDbLine
 10
477.5529140208
 20
212.4872570419
 30
0.0
 11
481.6493631419
 21
212.2725712405
 31
0.0
  0
LINE
  5
279
330
21A
100
AcDbEntity
  8
0
  6
Continuous
 62
     7
100
AcDbLine
 10
473.7561111206
 20
220.5671484078
 30
0.0
 11
475.9461660421
 21
219.772945792
 31
0.0
  0
LINE
  5
27A
330
21A
100
AcDbEntity
  8
0
  6
Continuous
 62
     2
100
AcDbLine
 10
408.2913755561
 20
402.8337521844999
 30
0.0
 11
408.2913755561
 21
402.7229062724
 31
0.0
  0
LINE
  5
27B
330
21A
100
AcDbEntity
  8
0
  6
Continuous
 62
     7
100
AcDbLine
 10
408.4385919213
 20
414.3284597719
 30
0.0
 11
408.4385919213
 21
414.9229062724
 31
0.0
  0
LINE
  5
27C
330
21A
100
AcDbEntity
  8
0
  6
Continuous
 62
     9
100
AcDbLine
 10
409.8157876201999
 20
410.7229062724
 30
0.0
 11
409.8157876201999
 21
411.7229062724
 31
0.0
  0
LINE
  5
27D
330
21A
100
AcDbEntity
  8
0
  6
Continuous
 62
     7
100
AcDbLine
 10
411.0913755560999
 20
394.5466888502
 30
0.0
 11
411.0913755560999
 21
394.7229062724
 31
0.0
  0
LINE
  5
27E
330
21A
100
AcDbEntity
  8
0
  6
Continuous
 62
     7
100
AcDbLine
 10
411.8913755561
 20
394.5466888502
 30
0.0
 11
411.8913755561
 21
394.7229062724
 31
0.0
  0
LINE
  5
27F
330
21A
100
AcDbEntity
  8
0
  6
Continuous
 62
     2
100
AcDbLine
 10
414.6913755561
 20
402.8890668584
 30
0.0
 11
414.6913755561
 21
402.7229062724
 31
0.0
  0
LINE
  5
280
330
21A
100
AcDbEntity
  8
0
  6
Continuous
 62
     7
100
AcDbLine
 10
415.4913755561
 20
402.7229062724
 30
0.0
 11
415.4913755561
 21
402.8945376926999
 31
0.0
  0
LINE
  5
281
330
21A
100
AcDbEntity
  8
0
  6
Continuous
 62
     7
100
AcDbLine
 10
415.9030292134
 20
414.3284597719
 30
0.0
 11
415.9030292134
 21
414.9229062724
 31
0.0
  0
LINE
  5
282
330
21A
100
AcDbEntity
  8
0
  6
Continuous
 62
     7
100
AcDbLine
 10
417.2913755560999
 20
413.4729062724
 30
0.0
 11
417.2913755560999
 21
413.3229062723999
 31
0.0
  0
LINE
  5
283
330
21A
100
AcDbEntity
  8
0
  6
Continuous
 62
     7
100
AcDbLine
 10
418.4913755561
 20
424.9229062723999
 30
0.0
 11
418.4913755561
 21
432.9229062723999
 31
0.0
  0
LINE
  5
284
330
21A
100
AcDbEntity
  8
0
  6
Continuous
 62
     7
100
AcDbLine
 10
418.9558128482
 20
414.3284597719
 30
0.0
 11
418.9558128482
 21
414.9229062724
 31
0.0
  0
LINE
  5
285
330
21A
100
AcDbEntity
  8
0
  6
Continuous
 62
     7
100
AcDbLine
 10
419.4913755561
 20
411.7229062724
 30
0.0
 11
419.4913755561
 21
413.3229062723999
 31
0.0
  0
LINE
  5
286
330
21A
100
AcDbEntity
  8
0
  6
Continuous
 62
     7
100
AcDbLine
 10
419.4913755561
 20
414.9229062724
 30
0.0
 11
419.4913755561
 21
424.9229062723999
 31
0.0
  0
LINE
  5
287
330
21A
100
AcDbEntity
  8
0
  6
Continuous
 62
     9
100
AcDbLine
 10
473.0970271856
 20
221.507242146
 30
0.0
 11
540.0970271855999
 21
221.507242146
 31
0.0
  0
LINE
  5
288
330
21A
100
AcDbEntity
  8
0
  6
Continuous
 62
     7
100
AcDbLine
 10
429.443797446
 20
392.7927052658
 30
0.0
 11
429.7985916726999
 21
382.6327279249
 31
0.0
  0
LINE
  5
289
330
21A
100
AcDbEntity
  8
0
  6
Continuous
 62
     7
100
AcDbLine
 10
420.9424320723999
 20
410.7229062724
 30
0.0
 11
420.9424320723999
 21
411.7229062724
 31
0.0
  0
LINE
  5
28A
330
21A
100
AcDbEntity
  8
0
  6
Continuous
 62
     7
100
AcDbLine
 10
429.5970271855999
 20
409.7229062723999
 30
0.0
 11
429.1333524749999
 21
403.0468910247
 31
0.0
  0
LINE
  5
28B
330
21A
100
AcDbEntity
  8
0
  6
Continuous
 62
     7
100
AcDbLine
 10
434.5023294103
 20
369.6219240844
 30
0.0
 11
434.2153127253999
 21
377.8410065681
 31
0.0
  0
LINE
  5
28C
330
21A
100
AcDbEntity
  8
0
  6
Continuous
 62
     7
100
AcDbLine
 10
435.654240958
 20
365.2892015904
 30
0.0
 11
437.1112040689999
 21
323.5672369209
 31
0.0
  0
LINE
  5
28D
330
21A
100
AcDbEntity
  8
0
  6
Continuous
 62
     7
100
AcDbLine
 10
442.6009959037
 20
385.1385854203
 30
0.0
 11
442.8441825344
 21
324.106879281
 31
0.0
  0
LINE
  5
28E
330
21A
100
AcDbEntity
  8
0
  6
Continuous
 62
     7
100
AcDbLine
 10
435.5970271856
 20
396.2402090093
 30
0.0
 11
435.5970271856
 21
387.2056035355999
 31
0.0
  0
LINE
  5
28F
330
21A
100
AcDbEntity
  8
0
  6
Continuous
 62
     7
100
AcDbLine
 10
436.2767340412
 20
409.7229062723999
 30
0.0
 11
436.2767340412
 21
410.7229062724
 31
0.0
  0
LINE
  5
290
330
21A
100
AcDbEntity
  8
0
  6
Continuous
 62
     7
100
AcDbLine
 10
436.3931816156999
 20
409.7229062723999
 30
0.0
 11
436.3931816156999
 21
410.7229062724
 31
0.0
  0
LINE
  5
291
330
21A
100
AcDbEntity
  8
0
  6
Continuous
 62
     7
100
AcDbLine
 10
436.7452969079
 20
409.7229062723999
 30
0.0
 11
436.7452969079
 21
410.7229062724
 31
0.0
  0
LINE
  5
292
330
21A
100
AcDbEntity
  8
0
  6
Continuous
 62
     7
100
AcDbLine
 10
437.5290109514
 20
409.7229062723999
 30
0.0
 11
437.5290109514
 21
410.7229062724
 31
0.0
  0
LINE
  5
293
330
21A
100
AcDbEntity
  8
0
  6
Continuous
 62
     7
100
AcDbLine
 10
438.1565373725
 20
409.7229062723999
 30
0.0
 11
438.1565373725
 21
410.7229062724
 31
0.0
  0
LINE
  5
294
330
21A
100
AcDbEntity
  8
0
  6
Continuous
 62
     7
100
AcDbLine
 10
438.8238038415
 20
409.7229062723999
 30
0.0
 11
438.8238038415
 21
410.7229062724
 31
0.0
  0
LINE
  5
295
330
21A
100
AcDbEntity
  8
0
  6
Continuous
 62
     7
100
AcDbLine
 10
439.7664803182999
 20
409.7229062723999
 30
0.0
 11
439.7664803182999
 21
410.7229062724
 31
0.0
  0
LINE
  5
296
330
21A
100
AcDbEntity
  8
0
  6
Continuous
 62
     7
100
AcDbLine
 10
440.513229125
 20
409.7229062723999
 30
0.0
 11
440.513229125
 21
410.7229062724
 31
0.0
  0
LINE
  5
297
330
21A
100
AcDbEntity
  8
0
  6
Continuous
 62
     7
100
AcDbLine
 10
440.783087829
 20
409.7229062723999
 30
0.0
 11
440.783087829
 21
410.7229062724
 31
0.0
  0
LINE
  5
298
330
21A
100
AcDbEntity
  8
0
  6
Continuous
 62
     7
100
AcDbLine
 10
440.8995348429
 20
409.7229062723999
 30
0.0
 11
440.8995348429
 21
410.7229062724
 31
0.0
  0
LINE
  5
299
330
21A
100
AcDbEntity
  8
0
  6
Continuous
 62
     7
100
AcDbLine
 10
441.2516506957
 20
409.7229062723999
 30
0.0
 11
441.2516506957
 21
410.7229062724
 31
0.0
  0
LINE
  5
29A
330
21A
100
AcDbEntity
  8
0
  6
Continuous
 62
     7
100
AcDbLine
 10
442.1333285741
 20
409.7229062723999
 30
0.0
 11
442.1333285741
 21
410.7229062724
 31
0.0
  0
LINE
  5
29B
330
21A
100
AcDbEntity
  8
0
  6
Continuous
 62
     7
100
AcDbLine
 10
442.5970271856
 20
398.3277889901001
 30
0.0
 11
442.5970271856
 21
401.7229062723999
 31
0.0
  0
LINE
  5
29C
330
21A
100
AcDbEntity
  8
0
  6
Continuous
 62
     7
100
AcDbLine
 10
442.7608549952999
 20
409.7229062723999
 30
0.0
 11
442.7608549952999
 21
410.7229062724
 31
0.0
  0
LINE
  5
29D
330
21A
100
AcDbEntity
  8
0
  6
Continuous
 62
     7
100
AcDbLine
 10
443.4281214642999
 20
409.7229062723999
 30
0.0
 11
443.4281214642999
 21
410.7229062724
 31
0.0
  0
LINE
  5
29E
330
21A
100
AcDbEntity
  8
0
  6
Continuous
 62
     7
100
AcDbLine
 10
444.3707985016001
 20
409.7229062723999
 30
0.0
 11
444.3707985016001
 21
410.7229062724
 31
0.0
  0
LINE
  5
29F
330
21A
100
AcDbEntity
  8
0
  6
Continuous
 62
     7
100
AcDbLine
 10
445.1175467477999
 20
409.7229062723999
 30
0.0
 11
445.1175467477999
 21
410.7229062724
 31
0.0
  0
LINE
  5
2A0
330
21A
100
AcDbEntity
  8
0
  6
Continuous
 62
     7
100
AcDbLine
 10
513.7364316179001
 20
413.9623107048
 30
0.0
 11
513.2470271856
 21
413.4729062724
 31
0.0
  0
LINE
  5
2A1
330
21A
100
AcDbEntity
  8
0
  6
Continuous
 62
     7
100
AcDbLine
 10
445.9040365487
 20
409.7229062723999
 30
0.0
 11
445.9040365487
 21
410.7229062724
 31
0.0
  0
LINE
  5
2A2
330
21A
100
AcDbEntity
  8
0
  6
Continuous
 62
     7
100
AcDbLine
 10
446.0518971095999
 20
409.7229062723999
 30
0.0
 11
446.0518971095999
 21
410.7229062724
 31
0.0
  0
LINE
  5
2A3
330
21A
100
AcDbEntity
  8
0
  6
Continuous
 62
     7
100
AcDbLine
 10
446.8356107326
 20
409.7229062723999
 30
0.0
 11
446.8356107326
 21
410.7229062724
 31
0.0
  0
LINE
  5
2A4
330
21A
100
AcDbEntity
  8
0
  6
Continuous
 62
     7
100
AcDbLine
 10
454.8751740738
 20
409.7229062723999
 30
0.0
 11
454.8751740738
 21
410.7229062724
 31
0.0
  0
LINE
  5
2A5
330
21A
100
AcDbEntity
  8
0
  6
Continuous
 62
     7
100
AcDbLine
 10
392.9423266472
 20
396.7229062724
 30
0.0
 11
393.5196769164
 21
395.7229062724
 31
0.0
  0
LINE
  5
2A6
330
21A
100
AcDbEntity
  8
0
  6
Continuous
 62
     7
100
AcDbLine
 10
437.6531255831999
 20
321.4717819057
 30
0.0
 11
450.8106925738999
 21
295.6486027028
 31
0.0
  0
LINE
  5
2A7
330
21A
100
AcDbEntity
  8
0
  6
Continuous
 62
     7
100
AcDbLine
 10
454.662782308
 20
300.2032418777
 30
0.0
 11
443.1711391466
 21
322.7568614718
 31
0.0
  0
LINE
  5
2A8
330
21A
100
AcDbEntity
  8
0
  6
Continuous
 62
     7
100
AcDbLine
 10
463.0538558814
 20
290.8668999164
 30
0.0
 11
463.4880884201999
 21
284.6570853008
 31
0.0
  0
LINE
  5
2A9
330
21A
100
AcDbEntity
  8
0
  6
Continuous
 62
     7
100
AcDbLine
 10
466.3123285346999
 20
279.8232426883
 30
0.0
 11
467.5798767536
 21
207.205453866
 31
0.0
  0
LINE
  5
2AA
330
21A
100
AcDbEntity
  8
0
  6
Continuous
 62
     7
100
AcDbLine
 10
469.0970271856
 20
297.7467813318
 30
0.0
 11
469.0970271856
 21
287.8093561486
 31
0.0
  0
LINE
  5
2AB
330
21A
100
AcDbEntity
  8
0
  6
Continuous
 62
     7
100
AcDbLine
 10
474.0795747791999
 20
280.6518036033001
 30
0.0
 11
475.6144795921
 21
280.6785954665
 31
0.0
  0
LINE
  5
2AC
330
21A
100
AcDbEntity
  8
0
  6
Continuous
 62
     9
100
AcDbLine
 10
473.0970271856
 20
279.6519559082
 30
0.0
 11
540.0970271855999
 21
279.6519559082
 31
0.0
  0
LINE
  5
2AD
330
21A
100
AcDbEntity
  8
0
  6
Continuous
 62
     9
100
AcDbLine
 10
537.5795747791999
 20
280.6518036033001
 30
0.0
 11
475.6144795921
 21
280.6518036033001
 31
0.0
  0
LINE
  5
2AE
330
21A
100
AcDbEntity
  8
0
  6
Continuous
 62
     9
100
AcDbLine
 10
475.6144795921
 20
280.6785954665
 30
0.0
 11
537.5795747791999
 21
280.6785954665
 31
0.0
  0
LINE
  5
2AF
330
21A
100
AcDbEntity
  8
0
  6
Continuous
 62
     9
100
AcDbLine
 10
536.5970271855998
 20
281.6784431617
 30
0.0
 11
476.5970271856
 21
281.6784431617
 31
0.0
  0
LINE
  5
2B0
330
21A
100
AcDbEntity
  8
0
  6
Continuous
 62
     7
100
AcDbLine
 10
539.1144795920999
 20
280.6518036033001
 30
0.0
 11
537.5795747791999
 21
280.6785954665
 31
0.0
  0
LINE
  5
2B1
330
21A
100
AcDbEntity
  8
0
  6
Continuous
 62
     7
100
AcDbLine
 10
435.0089533598
 20
367.5971183091001
 30
0.0
 11
435.1476205925
 21
367.3140000484
 31
0.0
  0
LINE
  5
2B2
330
21A
100
AcDbEntity
  8
0
  6
Continuous
 62
     7
100
AcDbLine
 10
473.0970271856
 20
279.6519559082
 30
0.0
 11
473.0970271856
 21
221.507242146
 31
0.0
  0
LINE
  5
2B3
330
21A
100
AcDbEntity
  8
0
  6
Continuous
 62
     7
100
AcDbLine
 10
476.5970271856
 20
285.7130486354
 30
0.0
 11
476.5970271856
 21
281.6784431617
 31
0.0
  0
LINE
  5
2B4
330
21A
100
AcDbEntity
  8
0
  6
Continuous
 62
     7
100
AcDbLine
 10
476.6052499770999
 20
218.8328520538
 30
0.0
 11
476.6052499770999
 21
213.4858865766
 31
0.0
  0
LINE
  5
2B5
330
21A
100
AcDbEntity
  8
0
  6
Continuous
 62
     7
100
AcDbLine
 10
482.5970271855999
 20
211.2739417057
 30
0.0
 11
482.5970271855999
 21
207.2229062724
 31
0.0
  0
LINE
  5
2B6
330
21A
100
AcDbEntity
  8
0
  6
Continuous
 62
     7
100
AcDbLine
 10
559.8673500934999
 20
294.0146855977
 30
0.0
 11
552.9758827719
 21
293.6535190994
 31
0.0
  0
LINE
  5
2B7
330
21A
100
AcDbEntity
  8
0
  6
Continuous
 62
     7
100
AcDbLine
 10
537.5795747791999
 20
286.7128963306
 30
0.0
 11
543.1144795920999
 21
286.8095084535
 31
0.0
  0
LINE
  5
2B8
330
21A
100
AcDbEntity
  8
0
  6
Continuous
 62
     9
100
AcDbLine
 10
476.5970271856
 20
285.7130486354
 30
0.0
 11
536.5970271855998
 21
285.7130486354
 31
0.0
  0
LINE
  5
2B9
330
21A
100
AcDbEntity
  8
0
  6
Continuous
 62
     9
100
AcDbLine
 10
475.6144795921
 20
286.7128963306
 30
0.0
 11
537.5795747791999
 21
286.7128963306
 31
0.0
  0
LINE
  5
2BA
330
21A
100
AcDbEntity
  8
0
  6
Continuous
 62
     9
100
AcDbLine
 10
475.6144795921
 20
286.8095084535
 30
0.0
 11
543.1144795920999
 21
286.8095084535
 31
0.0
  0
LINE
  5
2BB
330
21A
100
AcDbEntity
  8
0
  6
Continuous
 62
     9
100
AcDbLine
 10
544.0970271855999
 20
287.8093561486
 30
0.0
 11
469.0970271856
 21
287.8093561486
 31
0.0
  0
LINE
  5
2BC
330
21A
100
AcDbEntity
  8
0
  6
Continuous
 62
     7
100
AcDbLine
 10
475.6144795921
 20
286.7128963306
 30
0.0
 11
470.0795747791999
 21
286.8095084535
 31
0.0
  0
LINE
  5
2BD
330
21A
100
AcDbEntity
  8
0
  6
Continuous
 62
     7
100
AcDbLine
 10
460.2181715993999
 20
293.6535190994
 30
0.0
 11
453.3267042778
 21
294.0146855977
 31
0.0
  0
LINE
  5
2BE
330
21A
100
AcDbEntity
  8
RUNDUNGEN
  6
Continuous
 62
     9
100
AcDbLine
 10
489.1141917555999
 20
327.1747729503
 30
0.0
 11
489.1173537704
 21
324.106879281
 31
0.0
  0
LINE
  5
2BF
330
21A
100
AcDbEntity
  8
RUNDUNGEN
  6
Continuous
 62
     9
100
AcDbLine
 10
490.3542918471
 20
327.1787659443
 30
0.0
 11
490.3574561412
 21
324.1108638443
 31
0.0
  0
LINE
  5
2C0
330
21A
100
AcDbEntity
  8
RUNDUNGEN
  6
Continuous
 62
     9
100
AcDbLine
 10
491.6667891667
 20
398.3277889901001
 30
0.0
 11
491.6667891667
 21
401.7229062723999
 31
0.0
  0
LINE
  5
2C1
330
21A
100
AcDbEntity
  8
RUNDUNGEN
  6
Continuous
 62
     9
100
AcDbLine
 10
492.399430024
 20
398.327789888
 30
0.0
 11
492.399430024
 21
401.7229062723999
 31
0.0
  0
LINE
  5
2C2
330
21A
100
AcDbEntity
  8
RUNDUNGEN
  6
Continuous
 62
     9
100
AcDbLine
 10
494.1022962531
 20
398.2256388819
 30
0.0
 11
494.1022962531
 21
401.7229062723999
 31
0.0
  0
LINE
  5
2C3
330
21A
100
AcDbEntity
  8
RUNDUNGEN
  6
Continuous
 62
     9
100
AcDbLine
 10
494.6976826080999
 20
322.1971131993
 30
0.0
 11
494.6976826080999
 21
326.299433428
 31
0.0
  0
LINE
  5
2C4
330
21A
100
AcDbEntity
  8
RUNDUNGEN
  6
Continuous
 62
     9
100
AcDbLine
 10
494.9035248636
 20
398.2256397837001
 30
0.0
 11
494.9035248636
 21
401.7229062723999
 31
0.0
  0
LINE
  5
2C5
330
21A
100
AcDbEntity
  8
RUNDUNGEN
  6
Continuous
 62
     9
100
AcDbLine
 10
491.6617275689
 20
381.7023708331
 30
0.0
 11
491.6656485532
 21
385.1385854203
 31
0.0
  0
LINE
  5
2C6
330
21A
100
AcDbEntity
  8
0
  6
Continuous
 62
     7
100
AcDbLine
 10
557.2732662113
 20
299.3862833252
 30
0.0
 11
545.0446912293999
 21
298.7454108666
 31
0.0
  0
LINE
  5
2C7
330
21A
100
AcDbEntity
  8
0
  6
Continuous
 62
     9
100
AcDbLine
 10
544.0970271855999
 20
297.7467813318
 30
0.0
 11
469.0970271856
 21
297.7467813318
 31
0.0
  0
LINE
  5
2C8
330
21A
100
AcDbEntity
  8
0
  6
Continuous
 62
     9
100
AcDbLine
 10
545.0446912293999
 20
298.7454108666
 30
0.0
 11
468.1493631419
 21
298.7454108666
 31
0.0
  0
LINE
  5
2C9
330
21A
100
AcDbEntity
  8
RUNDUNGEN
  6
Continuous
 62
     9
100
AcDbLine
 10
496.0421449766999
 20
299.145026013
 30
0.0
 11
517.1519093946
 21
299.145026013
 31
0.0
  0
LINE
  5
2CA
330
21A
100
AcDbEntity
  8
0
  6
Continuous
 62
     9
100
AcDbLine
 10
455.9207881598999
 20
299.3862833252
 30
0.0
 11
492.0356838106999
 21
299.3862833252
 31
0.0
  0
LINE
  5
2CB
330
21A
100
AcDbEntity
  8
0
  6
Continuous
 62
     9
100
AcDbLine
 10
521.1583705605
 20
299.3862833252
 30
0.0
 11
557.2732662113
 21
299.3862833252
 31
0.0
  0
LINE
  5
2CC
330
21A
100
AcDbEntity
  8
0
  6
Continuous
 62
     9
100
AcDbLine
 10
558.5312720632
 20
300.2032418777
 30
0.0
 11
521.0846049476
 21
300.2032418777
 31
0.0
  0
LINE
  5
2CD
330
21A
100
AcDbEntity
  8
0
  6
Continuous
 62
     9
100
AcDbLine
 10
492.1094494235999
 20
300.2032418777
 30
0.0
 11
454.662782308
 21
300.2032418777
 31
0.0
  0
LINE
  5
2CE
330
21A
100
AcDbEntity
  8
RUNDUNGEN
  6
Continuous
 62
     9
100
AcDbLine
 10
495.7227680161
 20
300.3567568217
 30
0.0
 11
517.4712864325
 21
300.3567568217
 31
0.0
  0
LINE
  5
2CF
330
21A
100
AcDbEntity
  8
0
  6
Continuous
 62
     7
100
AcDbLine
 10
455.9207881598999
 20
299.3862833252
 30
0.0
 11
468.1493631419
 21
298.7454108666
 31
0.0
  0
LINE
  5
2D0
330
21A
100
AcDbEntity
  8
RUNDUNGEN
  6
Continuous
 62
     9
100
AcDbLine
 10
496.4873470814
 20
322.2056035356
 30
0.0
 11
496.4873470814
 21
326.2739417057
 31
0.0
  0
LINE
  5
2D1
330
21A
100
AcDbEntity
  8
0
  6
Continuous
 62
     7
100
AcDbLine
 10
498.0970271856
 20
410.7229062724
 30
0.0
 11
498.0970271856
 21
411.7229062724
 31
0.0
  0
LINE
  5
2D2
330
21A
100
AcDbEntity
  8
0
  6
Continuous
 62
     7
100
AcDbLine
 10
498.5970271855999
 20
411.7229062724
 30
0.0
 11
498.5970271855999
 21
413.3229062723999
 31
0.0
  0
LINE
  5
2D3
330
21A
100
AcDbEntity
  8
0
  6
Continuous
 62
     7
100
AcDbLine
 10
498.5970271855999
 20
414.9229062724
 30
0.0
 11
498.5970271855999
 21
424.9229062723999
 31
0.0
  0
LINE
  5
2D4
330
21A
100
AcDbEntity
  8
0
  6
Continuous
 62
     7
100
AcDbLine
 10
499.1325898935
 20
414.3284597719
 30
0.0
 11
499.1325898935
 21
414.9229062724
 31
0.0
  0
LINE
  5
2D5
330
21A
100
AcDbEntity
  8
0
  6
Continuous
 62
     7
100
AcDbLine
 10
499.5970271855999
 20
424.9229062723999
 30
0.0
 11
499.5970271855999
 21
432.9229062723999
 31
0.0
  0
LINE
  5
2D6
330
21A
100
AcDbEntity
  8
0
  6
Continuous
 62
     7
100
AcDbLine
 10
500.7970271856
 20
413.4729062724
 30
0.0
 11
500.7970271856
 21
413.3229062723999
 31
0.0
  0
LINE
  5
2D7
330
21A
100
AcDbEntity
  8
0
  6
Continuous
 62
     7
100
AcDbLine
 10
502.1853735283
 20
414.3284597719
 30
0.0
 11
502.1853735283
 21
414.9229062724
 31
0.0
  0
LINE
  5
2D8
330
21A
100
AcDbEntity
  8
0
  6
Continuous
 62
     7
100
AcDbLine
 10
502.5970271855999
 20
402.7229062724
 30
0.0
 11
502.5970271855999
 21
402.884326384
 31
0.0
  0
LINE
  5
2D9
330
21A
100
AcDbEntity
  8
0
  6
Continuous
 62
     2
100
AcDbLine
 10
503.3970271855999
 20
402.8918252985
 30
0.0
 11
503.3970271855999
 21
402.7229062724
 31
0.0
  0
LINE
  5
2DA
330
21A
100
AcDbEntity
  8
0
  6
CENTER
100
AcDbLine
 10
506.5970271856
 20
203.2229062724
 30
0.0
 11
506.5970271856
 21
432.9229062723999
 31
0.0
  0
LINE
  5
2DB
330
21A
100
AcDbEntity
  8
RUNDUNGEN
  6
Continuous
 62
     9
100
AcDbLine
 10
494.7407540326
 20
319.9308817048
 30
0.0
 11
518.4533003278
 21
319.9308817048
 31
0.0
  0
LINE
  5
2DC
330
21A
100
AcDbEntity
  8
RUNDUNGEN
  6
Continuous
 62
     9
100
AcDbLine
 10
494.9637447213
 20
321.1215383955
 30
0.0
 11
518.2303096498999
 21
321.1215383955
 31
0.0
  0
LINE
  5
2DD
330
21A
100
AcDbEntity
  8
RUNDUNGEN
  6
Continuous
 62
     9
100
AcDbLine
 10
516.929926208
 20
321.2057558404
 30
0.0
 11
496.2641281632
 21
321.2057558404
 31
0.0
  0
LINE
  5
2DE
330
21A
100
AcDbEntity
  8
0
  6
Continuous
 62
     7
100
AcDbLine
 10
404.3520423765
 20
413.9622394521
 30
0.0
 11
404.8413755560999
 21
413.4729062724
 31
0.0
  0
LINE
  5
2DF
330
21A
100
AcDbEntity
  8
0
  6
Continuous
 62
     7
100
AcDbLine
 10
509.6498108204
 20
414.3284597719
 30
0.0
 11
509.6498108204
 21
414.9229062724
 31
0.0
  0
LINE
  5
2E0
330
21A
100
AcDbEntity
  8
0
  6
Continuous
 62
     2
100
AcDbLine
 10
509.7970271856
 20
402.8918253081999
 30
0.0
 11
509.7970271856
 21
402.7229062724
 31
0.0
  0
LINE
  5
2E1
330
21A
100
AcDbEntity
  8
0
  6
Continuous
 62
     7
100
AcDbLine
 10
510.5970271856
 20
402.7229062724
 30
0.0
 11
510.5970271856
 21
402.8843263670999
 31
0.0
  0
LINE
  5
2E2
330
21A
100
AcDbEntity
  8
0
  6
Continuous
 62
     7
100
AcDbLine
 10
512.3970271855999
 20
413.4729062724
 30
0.0
 11
512.3970271855999
 21
413.3229062723999
 31
0.0
  0
LINE
  5
2E3
330
21A
100
AcDbEntity
  8
0
  6
Continuous
 62
     7
100
AcDbLine
 10
513.5970271855999
 20
424.9229062723999
 30
0.0
 11
513.5970271855999
 21
432.9229062723999
 31
0.0
  0
LINE
  5
2E4
330
21A
100
AcDbEntity
  8
0
  6
Continuous
 62
     7
100
AcDbLine
 10
514.0614644776999
 20
414.3284597719
 30
0.0
 11
514.0614644776999
 21
414.9229062724
 31
0.0
  0
LINE
  5
2E5
330
21A
100
AcDbEntity
  8
0
  6
Continuous
 62
     7
100
AcDbLine
 10
514.5970271855999
 20
411.7229062724
 30
0.0
 11
514.5970271855999
 21
413.3229062723999
 31
0.0
  0
LINE
  5
2E6
330
21A
100
AcDbEntity
  8
0
  6
Continuous
 62
     7
100
AcDbLine
 10
514.5970271855999
 20
414.9229062724
 30
0.0
 11
514.5970271855999
 21
424.9229062723999
 31
0.0
  0
LINE
  5
2E7
330
21A
100
AcDbEntity
  8
0
  6
Continuous
 62
     7
100
AcDbLine
 10
515.0970271855999
 20
410.7229062724
 30
0.0
 11
515.0970271855999
 21
411.7229062724
 31
0.0
  0
LINE
  5
2E8
330
21A
100
AcDbEntity
  8
RUNDUNGEN
  6
Continuous
 62
     9
100
AcDbLine
 10
516.7067072899
 20
326.2739417057
 30
0.0
 11
516.7067072899
 21
322.2056035356
 31
0.0
  0
LINE
  5
2E9
330
21A
100
AcDbEntity
  8
RUNDUNGEN
  6
Continuous
 62
     9
100
AcDbLine
 10
518.2905295075999
 20
401.7229062723999
 30
0.0
 11
518.2905295075999
 21
398.2256397857
 31
0.0
  0
LINE
  5
2EA
330
21A
100
AcDbEntity
  8
RUNDUNGEN
  6
Continuous
 62
     9
100
AcDbLine
 10
518.4963717632
 20
326.299433428
 30
0.0
 11
518.4963717632
 21
322.1971131993
 31
0.0
  0
LINE
  5
2EB
330
21A
100
AcDbEntity
  8
RUNDUNGEN
  6
Continuous
 62
     9
100
AcDbLine
 10
519.0917581180999
 20
401.7229062723999
 30
0.0
 11
519.0917581180999
 21
398.225638625
 31
0.0
  0
LINE
  5
2EC
330
21A
100
AcDbEntity
  8
RUNDUNGEN
  6
Continuous
 62
     9
100
AcDbLine
 10
520.7946243472999
 20
401.7229062723999
 30
0.0
 11
520.7946243472999
 21
398.3277895804
 31
0.0
  0
LINE
  5
2ED
330
21A
100
AcDbEntity
  8
RUNDUNGEN
  6
Continuous
 62
     9
100
AcDbLine
 10
516.7067072899
 20
322.2056035356
 30
0.0
 11
496.4873470814
 21
322.2056035356
 31
0.0
  0
LINE
  5
2EE
330
21A
100
AcDbEntity
  8
0
  6
Continuous
 62
     9
100
AcDbLine
 10
443.1711391466
 20
322.7568614718
 30
0.0
 11
489.20360994
 21
322.7568614763
 31
0.0
  0
LINE
  5
2EF
330
21A
100
AcDbEntity
  8
0
  6
Continuous
 62
     9
100
AcDbLine
 10
523.9904444311999
 20
322.7568614763
 30
0.0
 11
570.0229152247
 21
322.7568614718
 31
0.0
  0
LINE
  5
2F0
330
21A
100
AcDbEntity
  8
0
  6
Continuous
 62
     9
100
AcDbLine
 10
570.3498718368999
 20
324.106879281
 30
0.0
 11
524.0767006008999
 21
324.106879281
 31
0.0
  0
LINE
  5
2F1
330
21A
100
AcDbEntity
  8
0
  6
Continuous
 62
     9
100
AcDbLine
 10
489.1173537704
 20
324.106879281
 30
0.0
 11
442.8441825344
 21
324.106879281
 31
0.0
  0
LINE
  5
2F2
330
21A
100
AcDbEntity
  8
RUNDUNGEN
  6
Continuous
 62
     9
100
AcDbLine
 10
516.7067072899
 20
326.2739417057
 30
0.0
 11
496.4873470814
 21
326.2739417057
 31
0.0
  0
LINE
  5
2F3
330
21A
100
AcDbEntity
  8
RUNDUNGEN
  6
Continuous
 62
     9
100
AcDbLine
 10
516.9220012298999
 20
327.2725712405
 30
0.0
 11
496.2720531413999
 21
327.2725712405
 31
0.0
  0
LINE
  5
2F4
330
21A
100
AcDbEntity
  8
RUNDUNGEN
  6
Continuous
 62
     9
100
AcDbLine
 10
521.8904794668
 20
328.1832995125
 30
0.0
 11
491.3035749043999
 21
328.1832995125
 31
0.0
  0
LINE
  5
2F5
330
21A
100
AcDbEntity
  8
RUNDUNGEN
  6
Continuous
 62
     9
100
AcDbLine
 10
522.1209400310999
 20
329.1779444839
 30
0.0
 11
491.0731143401
 21
329.1779444839
 31
0.0
  0
LINE
  5
2F6
330
21A
100
AcDbEntity
  8
RUNDUNGEN
  6
Continuous
 62
     9
100
AcDbLine
 10
521.5284058179999
 20
385.1385854203
 30
0.0
 11
521.5323268023
 21
381.7023708328
 31
0.0
  0
LINE
  5
2F7
330
21A
100
AcDbEntity
  8
RUNDUNGEN
  6
Continuous
 62
     9
100
AcDbLine
 10
521.5272652044999
 20
401.7229062723999
 30
0.0
 11
521.5272652044999
 21
398.3277889901001
 31
0.0
  0
LINE
  5
2F8
330
21A
100
AcDbEntity
  8
0
  6
Continuous
 62
     7
100
AcDbLine
 10
530.5970271855999
 20
211.2739417057
 30
0.0
 11
530.5970271855999
 21
207.2229062724
 31
0.0
  0
LINE
  5
2F9
330
21A
100
AcDbEntity
  8
RUNDUNGEN
  6
Continuous
 62
     9
100
AcDbLine
 10
522.83659823
 20
324.1108638443
 30
0.0
 11
522.8397625241
 21
327.1787659443
 31
0.0
  0
LINE
  5
2FA
330
21A
100
AcDbEntity
  8
RUNDUNGEN
  6
Continuous
 62
     9
100
AcDbLine
 10
524.0767006008999
 20
324.106879281
 30
0.0
 11
524.0798626155999
 21
327.1747729498
 31
0.0
  0
LINE
  5
2FB
330
21A
100
AcDbEntity
  8
0
  6
Continuous
 62
     7
100
AcDbLine
 10
535.8885134441999
 20
409.7229062723999
 30
0.0
 11
535.8885134441999
 21
410.7229062724
 31
0.0
  0
LINE
  5
2FC
330
21A
100
AcDbEntity
  8
0
  6
Continuous
 62
     7
100
AcDbLine
 10
536.5888043941001
 20
218.8328520538
 30
0.0
 11
536.5888043941001
 21
213.4858865766
 31
0.0
  0
LINE
  5
2FD
330
21A
100
AcDbEntity
  8
0
  6
Continuous
 62
     7
100
AcDbLine
 10
536.5970271855998
 20
285.7130486354
 30
0.0
 11
536.5970271855998
 21
281.6784431617
 31
0.0
  0
LINE
  5
2FE
330
21A
100
AcDbEntity
  8
0
  6
Continuous
 62
     7
100
AcDbLine
 10
536.6659988474
 20
409.7229062723999
 30
0.0
 11
536.6659988474
 21
410.7229062724
 31
0.0
  0
LINE
  5
2FF
330
21A
100
AcDbEntity
  8
0
  6
Continuous
 62
     7
100
AcDbLine
 10
537.7506299279
 20
409.7229062723999
 30
0.0
 11
537.7506299279
 21
410.7229062724
 31
0.0
  0
LINE
  5
300
330
21A
100
AcDbEntity
  8
0
  6
Continuous
 62
     7
100
AcDbLine
 10
540.0970271855999
 20
279.6519559082
 30
0.0
 11
540.0970271855999
 21
221.507242146
 31
0.0
  0
LINE
  5
301
330
21A
100
AcDbEntity
  8
0
  6
Continuous
 62
     7
100
AcDbLine
 10
544.0970271855999
 20
297.7467813318
 30
0.0
 11
544.0970271855999
 21
287.8093561486
 31
0.0
  0
LINE
  5
302
330
21A
100
AcDbEntity
  8
0
  6
Continuous
 62
     7
100
AcDbLine
 10
544.2815081858999
 20
409.7229062723999
 30
0.0
 11
544.2815081858999
 21
410.7229062724
 31
0.0
  0
LINE
  5
303
330
21A
100
AcDbEntity
  8
0
  6
Continuous
 62
     7
100
AcDbLine
 10
544.6882448289
 20
409.7229062723999
 30
0.0
 11
544.6882448289
 21
410.7229062724
 31
0.0
  0
LINE
  5
304
330
21A
100
AcDbEntity
  8
0
  6
Continuous
 62
     7
100
AcDbLine
 10
545.3622905766
 20
409.7229062723999
 30
0.0
 11
545.3622905766
 21
410.7229062724
 31
0.0
  0
LINE
  5
305
330
21A
100
AcDbEntity
  8
0
  6
Continuous
 62
     7
100
AcDbLine
 10
545.9643606246999
 20
409.7229062723999
 30
0.0
 11
545.9643606246999
 21
410.7229062724
 31
0.0
  0
LINE
  5
306
330
21A
100
AcDbEntity
  8
0
  6
Continuous
 62
     7
100
AcDbLine
 10
546.4109339528
 20
409.7229062723999
 30
0.0
 11
546.4109339528
 21
410.7229062724
 31
0.0
  0
LINE
  5
307
330
21A
100
AcDbEntity
  8
0
  6
Continuous
 62
     7
100
AcDbLine
 10
546.7020097987999
 20
409.7229062723999
 30
0.0
 11
546.7020097987999
 21
410.7229062724
 31
0.0
  0
LINE
  5
308
330
21A
100
AcDbEntity
  8
0
  6
Continuous
 62
     7
100
AcDbLine
 10
547.1286647844
 20
409.7229062723999
 30
0.0
 11
547.1286647844
 21
410.7229062724
 31
0.0
  0
LINE
  5
309
330
21A
100
AcDbEntity
  8
0
  6
Continuous
 62
     7
100
AcDbLine
 10
547.6709801792
 20
409.7229062723999
 30
0.0
 11
547.6709801792
 21
410.7229062724
 31
0.0
  0
LINE
  5
30A
330
21A
100
AcDbEntity
  8
0
  6
Continuous
 62
     7
100
AcDbLine
 10
547.7866409763
 20
409.7229062723999
 30
0.0
 11
547.7866409763
 21
410.7229062724
 31
0.0
  0
LINE
  5
30B
330
21A
100
AcDbEntity
  8
0
  6
Continuous
 62
     7
100
AcDbLine
 10
551.5147223681
 20
409.7229062723999
 30
0.0
 11
551.5147223681
 21
410.7229062724
 31
0.0
  0
LINE
  5
30C
330
21A
100
AcDbEntity
  8
0
  6
Continuous
 62
     7
100
AcDbLine
 10
551.8536698292999
 20
409.7229062723999
 30
0.0
 11
551.8536698292999
 21
410.7229062724
 31
0.0
  0
LINE
  5
30D
330
21A
100
AcDbEntity
  8
0
  6
Continuous
 62
     7
100
AcDbLine
 10
552.0178768458
 20
409.7229062723999
 30
0.0
 11
552.0178768458
 21
410.7229062724
 31
0.0
  0
LINE
  5
30E
330
21A
100
AcDbEntity
  8
0
  6
Continuous
 62
     7
100
AcDbLine
 10
552.755525809
 20
409.7229062723999
 30
0.0
 11
552.755525809
 21
410.7229062724
 31
0.0
  0
LINE
  5
30F
330
21A
100
AcDbEntity
  8
0
  6
Continuous
 62
     7
100
AcDbLine
 10
553.7482630005
 20
409.7229062723999
 30
0.0
 11
553.7482630005
 21
410.7229062724
 31
0.0
  0
LINE
  5
310
330
21A
100
AcDbEntity
  8
0
  6
Continuous
 62
     7
100
AcDbLine
 10
554.5058305172
 20
409.7229062723999
 30
0.0
 11
554.5058305172
 21
410.7229062724
 31
0.0
  0
LINE
  5
311
330
21A
100
AcDbEntity
  8
0
  6
Continuous
 62
     7
100
AcDbLine
 10
555.0201930272
 20
409.7229062723999
 30
0.0
 11
555.0201930272
 21
410.7229062724
 31
0.0
  0
LINE
  5
312
330
21A
100
AcDbEntity
  8
0
  6
Continuous
 62
     7
100
AcDbLine
 10
555.379058443
 20
409.7229062723999
 30
0.0
 11
555.379058443
 21
410.7229062724
 31
0.0
  0
LINE
  5
313
330
21A
100
AcDbEntity
  8
0
  6
Continuous
 62
     7
100
AcDbLine
 10
555.9412921803
 20
409.7229062723999
 30
0.0
 11
555.9412921803
 21
410.7229062724
 31
0.0
  0
LINE
  5
314
330
21A
100
AcDbEntity
  8
0
  6
Continuous
 62
     7
100
AcDbLine
 10
556.3480280475999
 20
409.7229062723999
 30
0.0
 11
556.3480280475999
 21
410.7229062724
 31
0.0
  0
LINE
  5
315
330
21A
100
AcDbEntity
  8
0
  6
Continuous
 62
     7
100
AcDbLine
 10
556.5992675963999
 20
409.7229062723999
 30
0.0
 11
556.5992675963999
 21
410.7229062724
 31
0.0
  0
LINE
  5
316
330
21A
100
AcDbEntity
  8
0
  6
Continuous
 62
     7
100
AcDbLine
 10
557.7038178922
 20
409.7229062723999
 30
0.0
 11
557.7038178922
 21
410.7229062724
 31
0.0
  0
LINE
  5
317
330
21A
100
AcDbEntity
  8
0
  6
Continuous
 62
     7
100
AcDbLine
 10
558.0427645776
 20
409.7229062723999
 30
0.0
 11
558.0427645776
 21
410.7229062724
 31
0.0
  0
LINE
  5
318
330
21A
100
AcDbEntity
  8
0
  6
Continuous
 62
     7
100
AcDbLine
 10
558.4575365251001
 20
409.7229062723999
 30
0.0
 11
558.4575365251001
 21
410.7229062724
 31
0.0
  0
LINE
  5
319
330
21A
100
AcDbEntity
  8
0
  6
Continuous
 62
     7
100
AcDbLine
 10
546.8817258365
 20
279.8232426883
 30
0.0
 11
545.6141776176999
 21
207.205453866
 31
0.0
  0
LINE
  5
31A
330
21A
100
AcDbEntity
  8
0
  6
Continuous
 62
     7
100
AcDbLine
 10
550.1401984898
 20
290.8668999164
 30
0.0
 11
549.7059659509999
 21
284.6570853008
 31
0.0
  0
LINE
  5
31B
330
21A
100
AcDbEntity
  8
0
  6
Continuous
 62
     7
100
AcDbLine
 10
578.0464361179
 20
367.3139971324
 30
0.0
 11
578.1851032918
 21
367.5971152887
 31
0.0
  0
LINE
  5
31C
330
21A
100
AcDbEntity
  8
0
  6
Continuous
 62
     7
100
AcDbLine
 10
558.9718990487
 20
409.7229062723999
 30
0.0
 11
558.9718990487
 21
410.7229062724
 31
0.0
  0
LINE
  5
31D
330
21A
100
AcDbEntity
  8
0
  6
Continuous
 62
     7
100
AcDbLine
 10
559.3985528706999
 20
409.7229062723999
 30
0.0
 11
559.3985528706999
 21
410.7229062724
 31
0.0
  0
LINE
  5
31E
330
21A
100
AcDbEntity
  8
0
  6
Continuous
 62
     7
100
AcDbLine
 10
559.8052895137
 20
409.7229062723999
 30
0.0
 11
559.8052895137
 21
410.7229062724
 31
0.0
  0
LINE
  5
31F
330
21A
100
AcDbEntity
  8
0
  6
Continuous
 62
     7
100
AcDbLine
 10
559.9209506987
 20
409.7229062723999
 30
0.0
 11
559.9209506987
 21
410.7229062724
 31
0.0
  0
LINE
  5
320
330
21A
100
AcDbEntity
  8
0
  6
Continuous
 62
     7
100
AcDbLine
 10
560.4153944783
 20
409.7229062723999
 30
0.0
 11
560.4153944783
 21
410.7229062724
 31
0.0
  0
LINE
  5
321
330
21A
100
AcDbEntity
  8
0
  6
Continuous
 62
     7
100
AcDbLine
 10
560.7543427153
 20
409.7229062723999
 30
0.0
 11
560.7543427153
 21
410.7229062724
 31
0.0
  0
LINE
  5
322
330
21A
100
AcDbEntity
  8
0
  6
Continuous
 62
     7
100
AcDbLine
 10
561.0136160306
 20
409.7229062723999
 30
0.0
 11
561.0136160306
 21
410.7229062724
 31
0.0
  0
LINE
  5
323
330
21A
100
AcDbEntity
  8
0
  6
Continuous
 62
     7
100
AcDbLine
 10
561.5279785405999
 20
409.7229062723999
 30
0.0
 11
561.5279785405999
 21
410.7229062724
 31
0.0
  0
LINE
  5
324
330
21A
100
AcDbEntity
  8
0
  6
Continuous
 62
     7
100
AcDbLine
 10
561.8868439563999
 20
409.7229062723999
 30
0.0
 11
561.8868439563999
 21
410.7229062724
 31
0.0
  0
LINE
  5
325
330
21A
100
AcDbEntity
  8
0
  6
Continuous
 62
     7
100
AcDbLine
 10
562.4490776937
 20
409.7229062723999
 30
0.0
 11
562.4490776937
 21
410.7229062724
 31
0.0
  0
LINE
  5
326
330
21A
100
AcDbEntity
  8
0
  6
Continuous
 62
     7
100
AcDbLine
 10
562.7681072002999
 20
409.7229062723999
 30
0.0
 11
562.7681072002999
 21
410.7229062724
 31
0.0
  0
LINE
  5
327
330
21A
100
AcDbEntity
  8
0
  6
Continuous
 62
     7
100
AcDbLine
 10
570.5970271855999
 20
398.3277889901001
 30
0.0
 11
570.5970271855999
 21
401.7229062723999
 31
0.0
  0
LINE
  5
328
330
21A
100
AcDbEntity
  8
0
  6
Continuous
 62
     7
100
AcDbLine
 10
570.5930584675
 20
385.1385854203
 30
0.0
 11
570.3498718368999
 21
324.106879281
 31
0.0
  0
LINE
  5
329
330
21A
100
AcDbEntity
  8
0
  6
Continuous
 62
     7
100
AcDbLine
 10
558.5312720632
 20
300.2032418777
 30
0.0
 11
570.0229152247
 21
322.7568614718
 31
0.0
  0
LINE
  5
32A
330
21A
100
AcDbEntity
  8
0
  6
Continuous
 62
     7
100
AcDbLine
 10
575.5409287881
 20
321.4717819057
 30
0.0
 11
562.3833617973
 21
295.6486027028
 31
0.0
  0
LINE
  5
32B
330
21A
100
AcDbEntity
  8
0
  6
Continuous
 62
     7
100
AcDbLine
 10
620.251727724
 20
396.7229062724
 30
0.0
 11
619.6743774548
 21
395.7229062724
 31
0.0
  0
LINE
  5
32C
330
21A
100
AcDbEntity
  8
RUNDUNGEN
  6
Continuous
 62
     9
100
AcDbLine
 10
493.1949504507
 20
379.8659199380001
 30
0.0
 11
519.9991039212
 21
379.8659199380001
 31
0.0
  0
LINE
  5
32D
330
21A
100
AcDbEntity
  8
RUNDUNGEN
  6
Continuous
 62
     9
100
AcDbLine
 10
493.1203383257
 20
380.6279798177
 30
0.0
 11
520.0737160462999
 21
380.6279798177
 31
0.0
  0
LINE
  5
32E
330
21A
100
AcDbEntity
  8
0
  6
Continuous
 62
     7
100
AcDbLine
 10
499.4576227533
 20
413.9623107048
 30
0.0
 11
499.9470271855999
 21
413.4729062724
 31
0.0
  0
LINE
  5
32F
330
21A
100
AcDbEntity
  8
0
  6
Continuous
 62
     7
100
AcDbLine
 10
577.5970271855999
 20
396.2402090093
 30
0.0
 11
577.5970271855999
 21
387.2056035355999
 31
0.0
  0
LINE
  5
330
330
21A
100
AcDbEntity
  8
0
  6
Continuous
 62
     7
100
AcDbLine
 10
576.0828503022
 20
323.5672369209
 30
0.0
 11
577.539813124
 21
365.2891933077
 31
0.0
  0
LINE
  5
331
330
21A
100
AcDbEntity
  8
0
  6
Continuous
 62
     7
100
AcDbLine
 10
578.6917246724
 20
369.6219158193
 30
0.0
 11
578.9787416458
 21
377.8410065681
 31
0.0
  0
LINE
  5
332
330
21A
100
AcDbEntity
  8
0
  6
Continuous
 62
     7
100
AcDbLine
 10
583.7502569252999
 20
392.7927052658
 30
0.0
 11
583.3954626984999
 21
382.6327279249
 31
0.0
  0
LINE
  5
333
330
21A
100
AcDbEntity
  8
0
  6
Continuous
 62
     7
100
AcDbLine
 10
622.1333651354
 20
402.7146359261
 30
0.0
 11
629.0970271855999
 21
403.3238774121
 31
0.0
  0
LINE
  5
334
330
21A
100
AcDbEntity
  8
0
  6
Continuous
 62
     7
100
AcDbLine
 10
611.6118834262
 20
402.8064555059999
 30
0.0
 11
614.0970271855999
 21
403.0238774120999
 31
0.0
  0
LINE
  5
335
330
21A
100
AcDbEntity
  8
0
  6
Continuous
 62
     7
100
AcDbLine
 10
597.972401994
 20
402.9254854572
 30
0.0
 11
599.0970271855999
 21
403.0238774120999
 31
0.0
  0
LINE
  5
336
330
21A
100
AcDbEntity
  8
0
  6
Continuous
 62
     7
100
AcDbLine
 10
572.5380133187
 20
386.1346008569
 30
0.0
 11
576.6144795920999
 21
386.2057558404
 31
0.0
  0
LINE
  5
337
330
21A
100
AcDbEntity
  8
RUNDUNGEN
  6
Continuous
 62
     9
100
AcDbLine
 10
492.3982589594
 20
385.1346008569
 30
0.0
 11
492.6785127741
 21
385.1346008569
 31
0.0
  0
LINE
  5
338
330
21A
100
AcDbEntity
  8
RUNDUNGEN
  6
Continuous
 62
     9
100
AcDbLine
 10
520.5155415972
 20
385.1346008569
 30
0.0
 11
520.7957954118
 21
385.1346008569
 31
0.0
  0
LINE
  5
339
330
21A
100
AcDbEntity
  8
0
  6
Continuous
 62
     9
100
AcDbLine
 10
442.6009959037
 20
385.1385854203
 30
0.0
 11
491.6656485532
 21
385.1385854203
 31
0.0
  0
LINE
  5
33A
330
21A
100
AcDbEntity
  8
0
  6
Continuous
 62
     9
100
AcDbLine
 10
521.5284058179999
 20
385.1385854203
 30
0.0
 11
570.5930584675
 21
385.1385854203
 31
0.0
  0
LINE
  5
33B
330
21A
100
AcDbEntity
  8
RUNDUNGEN
  6
Continuous
 62
     9
100
AcDbLine
 10
518.940990359
 20
385.9231694875
 30
0.0
 11
494.2530640199
 21
385.9231694875
 31
0.0
  0
LINE
  5
33C
330
21A
100
AcDbEntity
  8
0
  6
Continuous
 62
     7
100
AcDbLine
 10
572.5380133187
 20
386.1346008569
 30
0.0
 11
521.7617350133
 21
386.1346008569
 31
0.0
  0
LINE
  5
33D
330
21A
100
AcDbEntity
  8
0
  6
Continuous
 62
     7
100
AcDbLine
 10
491.4323193328
 20
386.1346008569
 30
0.0
 11
440.6560410526
 21
386.1346008569
 31
0.0
  0
LINE
  5
33E
330
21A
100
AcDbEntity
  8
RUNDUNGEN
  6
Continuous
 62
     7
100
AcDbLine
 10
491.4323193328
 20
386.1346008569
 30
0.0
 11
491.7099743995
 21
386.1346008569
 31
0.0
  0
LINE
  5
33F
330
21A
100
AcDbEntity
  8
RUNDUNGEN
  6
Continuous
 62
     7
100
AcDbLine
 10
521.4840799672
 20
386.1346008569
 30
0.0
 11
521.7617350133
 21
386.1346008569
 31
0.0
  0
LINE
  5
340
330
21A
100
AcDbEntity
  8
0
  6
Continuous
 62
     9
100
AcDbLine
 10
440.6560410526
 20
386.2057558404
 30
0.0
 11
492.9040933845
 21
386.2057558404
 31
0.0
  0
LINE
  5
341
330
21A
100
AcDbEntity
  8
0
  6
Continuous
 62
     9
100
AcDbLine
 10
520.2899319541
 20
386.2057558403
 30
0.0
 11
576.6144795920999
 21
386.2057558404
 31
0.0
  0
LINE
  5
342
330
21A
100
AcDbEntity
  8
RUNDUNGEN
  6
Continuous
 62
     9
100
AcDbLine
 10
519.0036856905
 20
386.6892139306
 30
0.0
 11
494.1903891592
 21
386.6892139306
 31
0.0
  0
LINE
  5
343
330
21A
100
AcDbEntity
  8
0
  6
Continuous
 62
     9
100
AcDbLine
 10
435.5970271856
 20
387.2056035355999
 30
0.0
 11
492.7120754616999
 21
387.2056035355999
 31
0.0
  0
LINE
  5
344
330
21A
100
AcDbEntity
  8
0
  6
Continuous
 62
     9
100
AcDbLine
 10
520.4819789005999
 20
387.2056035355999
 30
0.0
 11
577.5970271855999
 21
387.2056035355999
 31
0.0
  0
LINE
  5
345
330
21A
100
AcDbEntity
  8
0
  6
Continuous
 62
     7
100
AcDbLine
 10
411.0914726871
 20
394.5466888502
 30
0.0
 11
411.8912784251
 21
394.5466888502
 31
0.0
  0
LINE
  5
346
330
21A
100
AcDbEntity
  8
0
  6
Continuous
 62
     7
100
AcDbLine
 10
601.3026861136999
 20
394.5466888502
 30
0.0
 11
602.1026715166
 21
394.5466888502
 31
0.0
  0
LINE
  5
347
330
21A
100
AcDbEntity
  8
RUNDUNGEN
  6
Continuous
 62
     7
100
AcDbLine
 10
395.2517277240001
 20
394.7229062724
 30
0.0
 11
381.5069370128
 21
394.7229062724
 31
0.0
  0
LINE
  5
348
330
21A
100
AcDbEntity
  8
0
  6
Continuous
 62
     7
100
AcDbLine
 10
358.494956319
 20
394.7229062724
 30
0.0
 11
427.4450157919
 21
394.7229062724
 31
0.0
  0
LINE
  5
349
330
21A
100
AcDbEntity
  8
0
  6
Continuous
 62
     7
100
AcDbLine
 10
585.7490385792999
 20
394.7229062724
 30
0.0
 11
617.9423266472
 21
394.7229062724
 31
0.0
  0
LINE
  5
34A
330
21A
100
AcDbEntity
  8
RUNDUNGEN
  6
Continuous
 62
     7
100
AcDbLine
 10
617.9423266472
 20
394.7229062724
 30
0.0
 11
631.6871173583
 21
394.7229062724
 31
0.0
  0
LINE
  5
34B
330
21A
100
AcDbEntity
  8
0
  6
Continuous
 62
     7
100
AcDbLine
 10
626.7724751194
 20
394.7229062724
 30
0.0
 11
654.6990980522
 21
394.7229062724
 31
0.0
  0
LINE
  5
34C
330
21A
100
AcDbEntity
  8
0
  6
Continuous
 62
     9
100
AcDbLine
 10
641.0196769164
 20
395.7229062724
 30
0.0
 11
630.0958216418
 21
395.7229062721
 31
0.0
  0
LINE
  5
34D
330
21A
100
AcDbEntity
  8
RUNDUNGEN
  6
Continuous
 62
     9
100
AcDbLine
 10
393.5196769164
 20
395.7229062724
 30
0.0
 11
385.5555538472001
 21
395.7229062724
 31
0.0
  0
LINE
  5
34E
330
21A
100
AcDbEntity
  8
0
  6
Continuous
 62
     9
100
AcDbLine
 10
372.1743774548
 20
395.7229062724
 30
0.0
 11
383.0982327296
 21
395.7229062736
 31
0.0
  0
LINE
  5
34F
330
21A
100
AcDbEntity
  8
RUNDUNGEN
  6
Continuous
 62
     9
100
AcDbLine
 10
619.6743774548
 20
395.7229062725
 30
0.0
 11
627.6385005220999
 21
395.7229062724
 31
0.0
  0
LINE
  5
350
330
21A
100
AcDbEntity
  8
0
  6
Continuous
 62
     9
100
AcDbLine
 10
435.5970271856
 20
396.2402090093
 30
0.0
 11
492.7120754567
 21
396.2402090093
 31
0.0
  0
LINE
  5
351
330
21A
100
AcDbEntity
  8
0
  6
Continuous
 62
     9
100
AcDbLine
 10
520.4819789173999
 20
396.2402090093
 30
0.0
 11
577.5970271855999
 21
396.2402090093
 31
0.0
  0
LINE
  5
352
330
21A
100
AcDbEntity
  8
0
  6
Continuous
 62
     7
100
AcDbLine
 10
440.6560410526
 20
386.1346008569
 30
0.0
 11
436.5795747791999
 21
386.2057558404
 31
0.0
  0
LINE
  5
353
330
21A
100
AcDbEntity
  8
0
  6
Continuous
 62
     7
100
AcDbLine
 10
391.0606892358
 20
402.7146359261
 30
0.0
 11
384.0970271856
 21
403.3238774121
 31
0.0
  0
LINE
  5
354
330
21A
100
AcDbEntity
  8
0
  6
Continuous
 62
     7
100
AcDbLine
 10
401.5821709449999
 20
402.8064555059999
 30
0.0
 11
399.0970271856
 21
403.0238774120999
 31
0.0
  0
LINE
  5
355
330
21A
100
AcDbEntity
  8
0
  6
Continuous
 62
     7
100
AcDbLine
 10
415.2216523773
 20
402.9254854572
 30
0.0
 11
414.0970271856
 21
403.0238774120999
 31
0.0
  0
LINE
  5
356
330
21A
100
AcDbEntity
  8
0
  6
Continuous
 62
     7
100
AcDbLine
 10
583.5970271855999
 20
409.7229062723999
 30
0.0
 11
584.0607018962999
 21
403.0468910247
 31
0.0
  0
LINE
  5
357
330
21A
100
AcDbEntity
  8
0
  6
Continuous
 62
     7
100
AcDbLine
 10
592.2516222987999
 20
410.7229062724
 30
0.0
 11
592.2516222987999
 21
411.7229062724
 31
0.0
  0
LINE
  5
358
330
21A
100
AcDbEntity
  8
0
  6
Continuous
 62
     7
100
AcDbLine
 10
593.7026788151
 20
411.7229062724
 30
0.0
 11
593.7026788151
 21
413.3229062723999
 31
0.0
  0
LINE
  5
359
330
21A
100
AcDbEntity
  8
0
  6
Continuous
 62
     7
100
AcDbLine
 10
593.7026788151
 20
414.9229062724
 30
0.0
 11
593.7026788151
 21
424.9229062723999
 31
0.0
  0
LINE
  5
35A
330
21A
100
AcDbEntity
  8
0
  6
Continuous
 62
     7
100
AcDbLine
 10
594.5644732511
 20
414.3284597719
 30
0.0
 11
594.5644732511
 21
414.9229062724
 31
0.0
  0
LINE
  5
35B
330
21A
100
AcDbEntity
  8
0
  6
Continuous
 62
     7
100
AcDbLine
 10
594.7026788151
 20
424.9229062723999
 30
0.0
 11
594.7026788151
 21
432.9229062723999
 31
0.0
  0
LINE
  5
35C
330
21A
100
AcDbEntity
  8
0
  6
Continuous
 62
     7
100
AcDbLine
 10
595.9026788151
 20
413.4729062724
 30
0.0
 11
595.9026788151
 21
413.3229062723999
 31
0.0
  0
LINE
  5
35D
330
21A
100
AcDbEntity
  8
0
  6
Continuous
 62
     7
100
AcDbLine
 10
436.5795747791999
 20
397.2400567045
 30
0.0
 11
441.6144795921
 21
397.3279412949
 31
0.0
  0
LINE
  5
35E
330
21A
100
AcDbEntity
  8
0
  6
Continuous
 62
     7
100
AcDbLine
 10
429.1333524749999
 20
403.0468910247
 30
0.0
 11
415.2216523773
 21
402.9254854572
 31
0.0
  0
LINE
  5
35F
330
21A
100
AcDbEntity
  8
0
  6
Continuous
 62
     7
100
AcDbLine
 10
412.7231833145
 20
402.903681648
 30
0.0
 11
401.5821709449999
 21
402.8064555059999
 31
0.0
  0
LINE
  5
360
330
21A
100
AcDbEntity
  8
0
  6
Continuous
 62
     7
100
AcDbLine
 10
396.0611717309
 20
402.7582744757999
 30
0.0
 11
391.0606892358
 21
402.7146359261
 31
0.0
  0
LINE
  5
361
330
21A
100
AcDbEntity
  8
0
  6
Continuous
 62
     7
100
AcDbLine
 10
375.5902068698
 20
402.5796270718999
 30
0.0
 11
371.9749944991999
 21
402.5480775915
 31
0.0
  0
LINE
  5
362
330
21A
100
AcDbEntity
  8
0
  6
Continuous
 62
     7
100
AcDbLine
 10
641.2459611864
 20
402.5481226343
 30
0.0
 11
641.219059872
 21
402.5480775915
 31
0.0
  0
LINE
  5
363
330
21A
100
AcDbEntity
  8
0
  6
Continuous
 62
     9
100
AcDbLine
 10
640.4423266472
 20
396.7229062724
 30
0.0
 11
635.9486200131999
 21
396.7229062724
 31
0.0
  0
LINE
  5
364
330
21A
100
AcDbEntity
  8
AUSFORMSCHRAEGEN
  6
Continuous
 62
     7
100
AcDbLine
 10
632.2712693762
 20
396.7229062724
 30
0.0
 11
627.9708534549
 21
396.7229062724
 31
0.0
  0
LINE
  5
365
330
21A
100
AcDbEntity
  8
RUNDUNGEN
  6
Continuous
 62
     9
100
AcDbLine
 10
624.2290075601999
 20
396.7229062724
 30
0.0
 11
620.251727724
 21
396.7229062724
 31
0.0
  0
LINE
  5
366
330
21A
100
AcDbEntity
  8
RUNDUNGEN
  6
Continuous
 62
     9
100
AcDbLine
 10
392.9423266472
 20
396.7229062724
 30
0.0
 11
387.6331433009
 21
396.7229062724
 31
0.0
  0
LINE
  5
367
330
21A
100
AcDbEntity
  8
AUSFORMSCHRAEGEN
  6
Continuous
 62
     7
100
AcDbLine
 10
386.0337026611
 20
396.7229062724
 30
0.0
 11
381.5526605292
 21
396.7229062724
 31
0.0
  0
LINE
  5
368
330
21A
100
AcDbEntity
  8
AUSFORMSCHRAEGEN
  6
Continuous
 62
     7
100
AcDbLine
 10
379.8374707424
 20
396.7229062724
 30
0.0
 11
379.6494349649
 21
396.7229062724
 31
0.0
  0
LINE
  5
369
330
21A
100
AcDbEntity
  8
0
  6
Continuous
 62
     9
100
AcDbLine
 10
379.6494349649
 20
396.7229062724
 30
0.0
 11
372.751727724
 21
396.7229062724
 31
0.0
  0
LINE
  5
36A
330
21A
100
AcDbEntity
  8
0
  6
Continuous
 62
     7
100
AcDbLine
 10
379.8374707424
 20
396.7229062724
 30
0.0
 11
381.5526605292
 21
396.7229062724
 31
0.0
  0
LINE
  5
36B
330
21A
100
AcDbEntity
  8
0
  6
Continuous
 62
     7
100
AcDbLine
 10
386.0337026611
 20
396.7229062724
 30
0.0
 11
387.6331433009
 21
396.7229062724
 31
0.0
  0
LINE
  5
36C
330
21A
100
AcDbEntity
  8
0
  6
Continuous
 62
     7
100
AcDbLine
 10
624.2370928736
 20
396.7229062724
 30
0.0
 11
627.9708534549
 21
396.7229062724
 31
0.0
  0
LINE
  5
36D
330
21A
100
AcDbEntity
  8
0
  6
Continuous
 62
     7
100
AcDbLine
 10
632.2712693762
 20
396.7229062724
 30
0.0
 11
635.9405346997
 21
396.7229062724
 31
0.0
  0
LINE
  5
36E
330
21A
100
AcDbEntity
  8
0
  6
Continuous
 62
     9
100
AcDbLine
 10
571.5795747791999
 20
397.2400567045
 30
0.0
 11
520.2902212487
 21
397.2400567045
 31
0.0
  0
LINE
  5
36F
330
21A
100
AcDbEntity
  8
0
  6
Continuous
 62
     9
100
AcDbLine
 10
492.9038859907
 20
397.2400567045
 30
0.0
 11
436.5795747791999
 21
397.2400567045
 31
0.0
  0
LINE
  5
370
330
21A
100
AcDbEntity
  8
0
  6
Continuous
 62
     9
100
AcDbLine
 10
571.5795747791999
 20
397.3279412949
 30
0.0
 11
521.7563181552
 21
397.3279412949
 31
0.0
  0
LINE
  5
371
330
21A
100
AcDbEntity
  8
0
  6
Continuous
 62
     9
100
AcDbLine
 10
491.4378009151
 20
397.3279412949
 30
0.0
 11
441.6144795921
 21
397.3279412949
 31
0.0
  0
LINE
  5
372
330
21A
100
AcDbEntity
  8
0
  6
Continuous
 62
     7
100
AcDbLine
 10
374.4837785316
 20
397.7229062724
 30
0.0
 11
379.7839581484
 21
397.7229062724
 31
0.0
  0
LINE
  5
373
330
21A
100
AcDbEntity
  8
0
  6
Continuous
 62
     7
100
AcDbLine
 10
381.3383214677
 20
397.7229062724
 30
0.0
 11
386.1589242462
 21
397.7229062724
 31
0.0
  0
LINE
  5
374
330
21A
100
AcDbEntity
  8
0
  6
Continuous
 62
     7
100
AcDbLine
 10
387.6865699406
 20
397.7229062724
 30
0.0
 11
391.2102758397
 21
397.7229062724
 31
0.0
  0
LINE
  5
375
330
21A
100
AcDbEntity
  8
0
  6
Continuous
 62
     7
100
AcDbLine
 10
621.9837785316
 20
397.7229062724
 30
0.0
 11
624.1846133257999
 21
397.7229062724
 31
0.0
  0
LINE
  5
376
330
21A
100
AcDbEntity
  8
0
  6
Continuous
 62
     7
100
AcDbLine
 10
626.0073262189999
 20
397.7229062724
 30
0.0
 11
634.1703013544
 21
397.7229062724
 31
0.0
  0
LINE
  5
377
330
21A
100
AcDbEntity
  8
0
  6
Continuous
 62
     7
100
AcDbLine
 10
635.9930142476001
 20
397.7229062724
 30
0.0
 11
638.7102758396999
 21
397.7229062724
 31
0.0
  0
LINE
  5
378
330
21A
100
AcDbEntity
  8
RUNDUNGEN
  6
Continuous
 62
     9
100
AcDbLine
 10
494.1022962531
 20
398.2256397834
 30
0.0
 11
494.9035248636
 21
398.2256397828
 31
0.0
  0
LINE
  5
379
330
21A
100
AcDbEntity
  8
RUNDUNGEN
  6
Continuous
 62
     9
100
AcDbLine
 10
518.2905295075999
 20
398.2256397848
 30
0.0
 11
519.0917581180999
 21
398.2256397854
 31
0.0
  0
LINE
  5
37A
330
21A
100
AcDbEntity
  8
0
  6
Continuous
 62
     9
100
AcDbLine
 10
570.5970271855999
 20
398.3277889901001
 30
0.0
 11
521.5272652044999
 21
398.3277889901001
 31
0.0
  0
LINE
  5
37B
330
21A
100
AcDbEntity
  8
0
  6
Continuous
 62
     9
100
AcDbLine
 10
491.6667891667
 20
398.3277889901001
 30
0.0
 11
442.5970271856
 21
398.3277889901001
 31
0.0
  0
LINE
  5
37C
330
21A
100
AcDbEntity
  8
RUNDUNGEN
  6
Continuous
 62
     9
100
AcDbLine
 10
491.6667891667
 20
398.3277889901001
 30
0.0
 11
492.399430024
 21
398.3277889901001
 31
0.0
  0
LINE
  5
37D
330
21A
100
AcDbEntity
  8
RUNDUNGEN
  6
Continuous
 62
     9
100
AcDbLine
 10
520.7946243472999
 20
398.3277889901001
 30
0.0
 11
521.5272652044999
 21
398.3277889901001
 31
0.0
  0
LINE
  5
37E
330
21A
100
AcDbEntity
  8
RUNDUNGEN
  6
Continuous
 62
     9
100
AcDbLine
 10
521.5272652044999
 20
401.7229062723999
 30
0.0
 11
491.6667891667
 21
401.7229062723999
 31
0.0
  0
LINE
  5
37F
330
21A
100
AcDbEntity
  8
0
  6
Continuous
 62
     9
100
AcDbLine
 10
442.5970271856
 20
401.7229062723999
 30
0.0
 11
491.6667891667
 21
401.7229062723999
 31
0.0
  0
LINE
  5
380
330
21A
100
AcDbEntity
  8
0
  6
Continuous
 62
     9
100
AcDbLine
 10
521.5272652044999
 20
401.7229062723999
 30
0.0
 11
570.5970271855999
 21
401.7229062723999
 31
0.0
  0
LINE
  5
381
330
21A
100
AcDbEntity
  8
RUNDUNGEN
  6
Continuous
 62
     7
100
AcDbLine
 10
521.7605501736
 20
402.7229062724
 30
0.0
 11
491.4335041976999
 21
402.7229062724
 31
0.0
  0
LINE
  5
382
330
21A
100
AcDbEntity
  8
0
  6
Continuous
 62
     7
100
AcDbLine
 10
358.494956319
 20
402.7229062724
 30
0.0
 11
493.1363704268
 21
402.7229062724
 31
0.0
  0
LINE
  5
383
330
21A
100
AcDbEntity
  8
0
  6
Continuous
 62
     7
100
AcDbLine
 10
521.7605501736
 20
402.7229062724
 30
0.0
 11
654.6990980522
 21
402.7229062724
 31
0.0
  0
LINE
  5
384
330
21A
100
AcDbEntity
  8
0
  6
Continuous
 62
     7
100
AcDbLine
 10
614.7920373445999
 20
402.7582744757999
 30
0.0
 11
605.7026788151
 21
402.7582744757999
 31
0.0
  0
LINE
  5
385
330
21A
100
AcDbEntity
  8
0
  6
Continuous
 62
     7
100
AcDbLine
 10
597.7026788151
 20
402.7582744757999
 30
0.0
 11
510.5970271856
 21
402.7582744757999
 31
0.0
  0
LINE
  5
386
330
21A
100
AcDbEntity
  8
0
  6
Continuous
 62
     7
100
AcDbLine
 10
502.5970271855999
 20
402.7582744757999
 30
0.0
 11
415.4913755561
 21
402.7582744757999
 31
0.0
  0
LINE
  5
387
330
21A
100
AcDbEntity
  8
0
  6
Continuous
 62
     7
100
AcDbLine
 10
407.4913755560999
 20
402.7582744757999
 30
0.0
 11
396.0611717309
 21
402.7582744757999
 31
0.0
  0
LINE
  5
388
330
21A
100
AcDbEntity
  8
0
  6
Continuous
 62
     7
100
AcDbLine
 10
415.4913755561
 20
402.8064555059999
 30
0.0
 11
501.5970271856
 21
402.8064555059999
 31
0.0
  0
LINE
  5
389
330
21A
100
AcDbEntity
  8
0
  6
Continuous
 62
     7
100
AcDbLine
 10
511.5970271855999
 20
402.8064555059999
 30
0.0
 11
597.7026788151
 21
402.8064555059999
 31
0.0
  0
LINE
  5
38A
330
21A
100
AcDbEntity
  8
0
  6
Continuous
 62
     7
100
AcDbLine
 10
413.7716798551999
 20
402.903681648
 30
0.0
 11
415.0768048525
 21
402.903681648
 31
0.0
  0
LINE
  5
38B
330
21A
100
AcDbEntity
  8
0
  6
Continuous
 62
     7
100
AcDbLine
 10
416.8937510367999
 20
402.903681648
 30
0.0
 11
596.3004030856
 21
402.903681648
 31
0.0
  0
LINE
  5
38C
330
21A
100
AcDbEntity
  8
0
  6
Continuous
 62
     7
100
AcDbLine
 10
598.1173074843
 20
402.903681648
 30
0.0
 11
599.4224010627999
 21
402.903681648
 31
0.0
  0
LINE
  5
38D
330
21A
100
AcDbEntity
  8
0
  6
Continuous
 62
     7
100
AcDbLine
 10
595.7516222987999
 20
402.9254854572
 30
0.0
 11
417.4424320723999
 21
402.9254854572
 31
0.0
  0
LINE
  5
38E
330
21A
100
AcDbEntity
  8
0
  6
Continuous
 62
     7
100
AcDbLine
 10
584.0607018962999
 20
403.0468910247
 30
0.0
 11
429.1333524749999
 21
403.0468910247
 31
0.0
  0
LINE
  5
38F
330
21A
100
AcDbEntity
  8
0
  6
Continuous
 62
     7
100
AcDbLine
 10
371.9480931832
 20
402.5481226354
 30
0.0
 11
371.9749944991999
 21
402.5480775915
 31
0.0
  0
LINE
  5
390
330
21A
100
AcDbEntity
  8
0
  6
Continuous
 62
     7
100
AcDbLine
 10
584.0607018962999
 20
403.0468910247
 30
0.0
 11
597.972401994
 21
402.9254854572
 31
0.0
  0
LINE
  5
391
330
21A
100
AcDbEntity
  8
0
  6
Continuous
 62
     7
100
AcDbLine
 10
600.4708710566999
 20
402.903681648
 30
0.0
 11
611.6118834262
 21
402.8064555059999
 31
0.0
  0
LINE
  5
392
330
21A
100
AcDbEntity
  8
0
  6
Continuous
 62
     7
100
AcDbLine
 10
617.1328826404
 20
402.7582744757999
 30
0.0
 11
622.1333651354
 21
402.7146359261
 31
0.0
  0
LINE
  5
393
330
21A
100
AcDbEntity
  8
0
  6
Continuous
 62
     7
100
AcDbLine
 10
637.6038475014
 20
402.5796270718999
 30
0.0
 11
641.219059872
 21
402.5480775915
 31
0.0
  0
LINE
  5
394
330
21A
100
AcDbEntity
  8
0
  6
Continuous
 62
     7
100
AcDbLine
 10
576.6144795920999
 20
397.2400567045
 30
0.0
 11
571.5795747791999
 21
397.3279412949
 31
0.0
  0
LINE
  5
395
330
21A
100
AcDbEntity
  8
0
  6
Continuous
 62
     7
100
AcDbLine
 10
596.1249655697001
 20
414.3284597719
 30
0.0
 11
596.1249655697001
 21
414.9229062724
 31
0.0
  0
LINE
  5
396
330
21A
100
AcDbEntity
  8
0
  6
Continuous
 62
     7
100
AcDbLine
 10
597.7026788151
 20
402.7229062724
 30
0.0
 11
597.7026788151
 21
402.8945376861
 31
0.0
  0
LINE
  5
397
330
21A
100
AcDbEntity
  8
0
  6
Continuous
 62
     2
100
AcDbLine
 10
598.5026788150999
 20
402.8890668659999
 30
0.0
 11
598.5026788150999
 21
402.7229062724
 31
0.0
  0
LINE
  5
398
330
21A
100
AcDbEntity
  8
0
  6
Continuous
 62
     7
100
AcDbLine
 10
601.3026788150999
 20
394.5466888502
 30
0.0
 11
601.3026788150999
 21
394.7229062724
 31
0.0
  0
LINE
  5
399
330
21A
100
AcDbEntity
  8
0
  6
Continuous
 62
     7
100
AcDbLine
 10
602.1026788151
 20
394.5466888502
 30
0.0
 11
602.1026788151
 21
394.7229062724
 31
0.0
  0
LINE
  5
39A
330
21A
100
AcDbEntity
  8
0
  6
Continuous
 62
     7
100
AcDbLine
 10
603.2631711337
 20
414.3284597719
 30
0.0
 11
603.2631711337
 21
414.9229062724
 31
0.0
  0
LINE
  5
39B
330
21A
100
AcDbEntity
  8
0
  6
Continuous
 62
     9
100
AcDbLine
 10
603.3782667509999
 20
410.7229062724
 30
0.0
 11
603.3782667509999
 21
411.7229062724
 31
0.0
  0
LINE
  5
39C
330
21A
100
AcDbEntity
  8
0
  6
Continuous
 62
     2
100
AcDbLine
 10
604.9026788151
 20
402.8337521841
 30
0.0
 11
604.9026788151
 21
402.7229062724
 31
0.0
  0
LINE
  5
39D
330
21A
100
AcDbEntity
  8
0
  6
Continuous
 62
     9
100
AcDbLine
 10
605.2803797835999
 20
410.7229062724
 30
0.0
 11
605.2803797835999
 21
411.7229062724
 31
0.0
  0
LINE
  5
39E
330
21A
100
AcDbEntity
  8
0
  6
Continuous
 62
     7
100
AcDbLine
 10
605.7026788151
 20
402.7229062724
 30
0.0
 11
605.7026788151
 21
402.82590003
 31
0.0
  0
LINE
  5
39F
330
21A
100
AcDbEntity
  8
0
  6
Continuous
 62
     7
100
AcDbLine
 10
607.5026788150999
 20
413.4729062724
 30
0.0
 11
607.5026788150999
 21
413.3229062723999
 31
0.0
  0
LINE
  5
3A0
330
21A
100
AcDbEntity
  8
0
  6
Continuous
 62
     7
100
AcDbLine
 10
412.7231833145
 20
402.903681648
 30
0.0
 11
414.0970271856
 21
403.0238774120999
 31
0.0
  0
LINE
  5
3A1
330
21A
100
AcDbEntity
  8
0
  6
Continuous
 62
     7
100
AcDbLine
 10
396.0611717309
 20
402.7582744757999
 30
0.0
 11
399.0970271856
 21
403.0238774120999
 31
0.0
  0
LINE
  5
3A2
330
21A
100
AcDbEntity
  8
0
  6
Continuous
 62
     7
100
AcDbLine
 10
375.5902068698
 20
402.5796270718999
 30
0.0
 11
384.0970271856
 21
403.3238774121
 31
0.0
  0
LINE
  5
3A3
330
21A
100
AcDbEntity
  8
0
  6
Continuous
 62
     7
100
AcDbLine
 10
368.5720952045
 20
409.7229062723999
 30
0.0
 11
644.6219591668
 21
409.7229062723999
 31
0.0
  0
LINE
  5
3A4
330
21A
100
AcDbEntity
  8
0
  6
Continuous
 62
     7
100
AcDbLine
 10
384.0892506139
 20
410.7229062724
 30
0.0
 11
400.3877143548999
 21
410.7229062724
 31
0.0
  0
LINE
  5
3A5
330
21A
100
AcDbEntity
  8
0
  6
Continuous
 62
     9
100
AcDbLine
 10
402.0403190398
 20
410.7229062724
 30
0.0
 11
420.9424320723999
 21
410.7229062724
 31
0.0
  0
LINE
  5
3A6
330
21A
100
AcDbEntity
  8
0
  6
Continuous
 62
     7
100
AcDbLine
 10
436.2767340412
 20
410.7229062724
 30
0.0
 11
454.8751740738
 21
410.7229062724
 31
0.0
  0
LINE
  5
3A7
330
21A
100
AcDbEntity
  8
0
  6
Continuous
 62
     9
100
AcDbLine
 10
498.0970271856
 20
410.7229062724
 30
0.0
 11
515.0970271855999
 21
410.7229062724
 31
0.0
  0
LINE
  5
3A8
330
21A
100
AcDbEntity
  8
0
  6
Continuous
 62
     7
100
AcDbLine
 10
535.8885134441999
 20
410.7229062724
 30
0.0
 11
562.7681072002999
 21
410.7229062724
 31
0.0
  0
LINE
  5
3A9
330
21A
100
AcDbEntity
  8
0
  6
Continuous
 62
     9
100
AcDbLine
 10
592.2516222988999
 20
410.7229062724
 30
0.0
 11
611.1537353313999
 21
410.7229062724
 31
0.0
  0
LINE
  5
3AA
330
21A
100
AcDbEntity
  8
02___PRT_ALL_AXES
  6
Continuous
 62
     7
100
AcDbLine
 10
402.0401359138999
 20
411.7229062724
 30
0.0
 11
420.9426151983
 21
411.7229062724
 31
0.0
  0
LINE
  5
3AB
330
21A
100
AcDbEntity
  8
02___PRT_ALL_AXES
  6
Continuous
 62
     7
100
AcDbLine
 10
498.0970271856
 20
411.7229062724
 30
0.0
 11
515.0970271855999
 21
411.7229062724
 31
0.0
  0
LINE
  5
3AC
330
21A
100
AcDbEntity
  8
02___PRT_ALL_AXES
  6
Continuous
 62
     7
100
AcDbLine
 10
592.251439173
 20
411.7229062724
 30
0.0
 11
611.1539184573
 21
411.7229062724
 31
0.0
  0
LINE
  5
3AD
330
21A
100
AcDbEntity
  8
0
  6
Continuous
 62
     7
100
AcDbLine
 10
403.4913755560999
 20
413.3229062723999
 30
0.0
 11
419.4913755561
 21
413.3229062723999
 31
0.0
  0
LINE
  5
3AE
330
21A
100
AcDbEntity
  8
0
  6
Continuous
 62
     7
100
AcDbLine
 10
498.5970271855999
 20
413.3229062723999
 30
0.0
 11
514.5970271855999
 21
413.3229062723999
 31
0.0
  0
LINE
  5
3AF
330
21A
100
AcDbEntity
  8
0
  6
Continuous
 62
     7
100
AcDbLine
 10
593.7026788151
 20
413.3229062723999
 30
0.0
 11
609.7026788151
 21
413.3229062723999
 31
0.0
  0
LINE
  5
3B0
330
21A
100
AcDbEntity
  8
0
  6
Continuous
 62
     7
100
AcDbLine
 10
404.8413749665
 20
413.4729062724
 30
0.0
 11
418.1413774848
 21
413.4729062724
 31
0.0
  0
LINE
  5
3B1
330
21A
100
AcDbEntity
  8
0
  6
Continuous
 62
     7
100
AcDbLine
 10
499.9470252569
 20
413.4729062724
 30
0.0
 11
513.2470277751999
 21
413.4729062724
 31
0.0
  0
LINE
  5
3B2
330
21A
100
AcDbEntity
  8
0
  6
Continuous
 62
     7
100
AcDbLine
 10
595.0527163412
 20
413.4729062724
 30
0.0
 11
608.3526412891
 21
413.4729062724
 31
0.0
  0
LINE
  5
3B3
330
21A
100
AcDbEntity
  8
0
  6
Continuous
 62
     7
100
AcDbLine
 10
403.4913755560999
 20
414.9229062724
 30
0.0
 11
419.4913755561
 21
414.9229062724
 31
0.0
  0
LINE
  5
3B4
330
21A
100
AcDbEntity
  8
0
  6
Continuous
 62
     7
100
AcDbLine
 10
498.5970271855999
 20
414.9229062724
 30
0.0
 11
514.5970271855999
 21
414.9229062724
 31
0.0
  0
LINE
  5
3B5
330
21A
100
AcDbEntity
  8
0
  6
Continuous
 62
     7
100
AcDbLine
 10
593.7026788151
 20
414.9229062724
 30
0.0
 11
609.7026788151
 21
414.9229062724
 31
0.0
  0
LINE
  5
3B6
330
21A
100
AcDbEntity
  8
0
  6
Continuous
 62
     7
100
AcDbLine
 10
600.4708710566999
 20
402.903681648
 30
0.0
 11
599.0970271855999
 21
403.0238774120999
 31
0.0
  0
LINE
  5
3B7
330
21A
100
AcDbEntity
  8
0
  6
Continuous
 62
     7
100
AcDbLine
 10
617.1328826404
 20
402.7582744757999
 30
0.0
 11
614.0970271855999
 21
403.0238774120999
 31
0.0
  0
LINE
  5
3B8
330
21A
100
AcDbEntity
  8
0
  6
Continuous
 62
     7
100
AcDbLine
 10
637.6038475014
 20
402.5796270718999
 30
0.0
 11
629.0970271855999
 21
403.3238774121
 31
0.0
  0
LINE
  5
3B9
330
21A
100
AcDbEntity
  8
0
  6
Continuous
 62
     7
100
AcDbLine
 10
608.7026788151
 20
424.9229062723999
 30
0.0
 11
608.7026788151
 21
432.9229062723999
 31
0.0
  0
LINE
  5
3BA
330
21A
100
AcDbEntity
  8
0
  6
Continuous
 62
     7
100
AcDbLine
 10
608.8408843792
 20
414.3284597719
 30
0.0
 11
608.8408843792
 21
414.9229062724
 31
0.0
  0
LINE
  5
3BB
330
21A
100
AcDbEntity
  8
0
  6
Continuous
 62
     7
100
AcDbLine
 10
609.7026788151
 20
411.7229062724
 30
0.0
 11
609.7026788151
 21
413.3229062723999
 31
0.0
  0
LINE
  5
3BC
330
21A
100
AcDbEntity
  8
0
  6
Continuous
 62
     7
100
AcDbLine
 10
609.7026788151
 20
414.9229062724
 30
0.0
 11
609.7026788151
 21
424.9229062723999
 31
0.0
  0
LINE
  5
3BD
330
21A
100
AcDbEntity
  8
0
  6
Continuous
 62
     7
100
AcDbLine
 10
611.1537353313999
 20
410.7229062724
 30
0.0
 11
611.1537353313999
 21
411.7229062724
 31
0.0
  0
LINE
  5
3BE
330
21A
100
AcDbEntity
  8
0
  6
Continuous
 62
     7
100
AcDbLine
 10
539.4379432506
 20
220.5671484078
 30
0.0
 11
537.2478883291001
 21
219.772945792
 31
0.0
  0
LINE
  5
3BF
330
21A
100
AcDbEntity
  8
0
  6
Continuous
 62
     7
100
AcDbLine
 10
403.4913755560999
 20
424.9229062723999
 30
0.0
 11
419.4913755561
 21
424.9229062723999
 31
0.0
  0
LINE
  5
3C0
330
21A
100
AcDbEntity
  8
0
  6
Continuous
 62
     7
100
AcDbLine
 10
498.5970271855999
 20
424.9229062723999
 30
0.0
 11
514.5970271855999
 21
424.9229062723999
 31
0.0
  0
LINE
  5
3C1
330
21A
100
AcDbEntity
  8
0
  6
Continuous
 62
     7
100
AcDbLine
 10
593.7026788151
 20
424.9229062723999
 30
0.0
 11
609.7026788151
 21
424.9229062723999
 31
0.0
  0
LINE
  5
3C2
330
21A
100
AcDbEntity
  8
0
  6
Continuous
 62
     7
100
AcDbLine
 10
404.4913755561
 20
432.9229062723999
 30
0.0
 11
418.4913755561
 21
432.9229062723999
 31
0.0
  0
LINE
  5
3C3
330
21A
100
AcDbEntity
  8
0
  6
Continuous
 62
     7
100
AcDbLine
 10
499.5970271855999
 20
432.9229062723999
 30
0.0
 11
513.5970271855999
 21
432.9229062723999
 31
0.0
  0
LINE
  5
3C4
330
21A
100
AcDbEntity
  8
0
  6
Continuous
 62
     7
100
AcDbLine
 10
594.7026788151
 20
432.9229062723999
 30
0.0
 11
608.7026788151
 21
432.9229062723999
 31
0.0
  0
LINE
  5
3C5
330
21A
100
AcDbEntity
  8
0
  6
Continuous
 62
     7
100
AcDbLine
 10
624.1846133257999
 20
397.7229062724
 30
0.0
 11
624.2370928736
 21
396.7229062724
 31
0.0
  0
LINE
  5
3C6
330
21A
100
AcDbEntity
  8
0
  6
Continuous
 62
     7
100
AcDbLine
 10
635.9405346997
 20
396.7229062724
 30
0.0
 11
635.9930142476001
 21
397.7229062724
 31
0.0
  0
LINE
  5
3C7
330
21A
100
AcDbEntity
  8
0
  6
Continuous
 62
     7
100
AcDbLine
 10
644.6219591668
 20
409.7229062723999
 30
0.0
 11
644.2338235728
 21
405.2864961323999
 31
0.0
  0
LINE
  5
3C8
330
21A
100
AcDbEntity
  8
0
  6
Continuous
 62
     7
100
AcDbLine
 10
656.6963571217
 20
396.61823436
 30
0.0
 11
656.8066583028
 21
398.7229062724
 31
0.0
  0
LINE
  5
3C9
330
21A
100
AcDbEntity
  8
0
  6
Continuous
 62
     7
100
AcDbLine
 10
656.6963571217
 20
400.8275781849
 30
0.0
 11
656.8066583028
 21
398.7229062724
 31
0.0
  0
LINE
  5
3CA
330
21A
100
AcDbEntity
  8
0
  6
Continuous
 62
     7
100
AcDbLine
 10
640.4423266472
 20
396.7229062724
 30
0.0
 11
641.0196769164
 21
395.7229062724
 31
0.0
  0
ARC
  5
3CB
330
21A
100
AcDbEntity
  8
RUNDUNGEN
  6
Continuous
 62
     9
100
AcDbCircle
 10
242.483129621
 20
290.2312469735
 30
0.0
 40
399.3408943693
100
AcDbArc
 50
15.3173089473
 51
15.4661222187
  0
ARC
  5
3CC
330
21A
100
AcDbEntity
  8
RUNDUNGEN
  6
Continuous
 62
     9
100
AcDbCircle
 10
246.6005228291
 20
291.9583424295
 30
0.0
 40
397.2854501752
100
AcDbArc
 50
15.140322258
 51
15.2897792959
  0
ARC
  5
3CD
330
21A
100
AcDbEntity
  8
0
  6
Continuous
 62
     7
100
AcDbCircle
 10
199.5264884111
 20
382.8402693332
 30
0.0
 40
187.224888805
100
AcDbArc
 50
4.2523577201
 51
4.5592916027
  0
ARC
  5
3CE
330
21A
100
AcDbEntity
  8
0
  6
Continuous
 62
     7
100
AcDbCircle
 10
460.0611637305999
 20
290.6576304951
 30
0.0
 40
3.0
100
AcDbArc
 50
4.0
 51
87.0
  0
ARC
  5
3CF
330
21A
100
AcDbEntity
  8
0
  6
Continuous
 62
     7
100
AcDbCircle
 10
453.4837121465
 20
297.010574202
 30
0.0
 40
3.0
100
AcDbArc
 50
207.0
 51
267.0
  0
ARC
  5
3D0
330
21A
100
AcDbEntity
  8
0
  6
Continuous
 62
     7
100
AcDbCircle
 10
466.4807805709999
 20
284.866354722
 30
0.0
 40
3.0
100
AcDbArc
 50
184.0
 51
238.1296326317
  0
ARC
  5
3D1
330
21A
100
AcDbEntity
  8
0
  6
Continuous
 62
     7
100
AcDbCircle
 10
463.3127854492999
 20
279.770885469
 30
0.0
 40
3.0
100
AcDbArc
 50
1.0
 51
58.1296326317
  0
ARC
  5
3D2
330
21A
100
AcDbEntity
  8
0
  6
Continuous
 62
     7
100
AcDbCircle
 10
455.9992920943
 20
300.8842276273
 30
0.0
 40
1.5
100
AcDbArc
 50
207.0
 51
267.0
  0
ARC
  5
3D3
330
21A
100
AcDbEntity
  8
0
  6
Continuous
 62
     7
100
AcDbCircle
 10
481.5970271856
 20
207.2229062724
 30
0.0
 40
1.0
100
AcDbArc
 50
270.0
 51
360.0
  0
ARC
  5
3D4
330
21A
100
AcDbEntity
  8
0
  6
Continuous
 62
     7
100
AcDbCircle
 10
470.0970271855999
 20
287.8093561486
 30
0.0
 40
1.0
100
AcDbArc
 50
180.0
 51
269.0000000003
  0
ARC
  5
3D5
330
21A
100
AcDbEntity
  8
0
  6
Continuous
 62
     7
100
AcDbCircle
 10
474.0970271855999
 20
279.6519559082
 30
0.0
 40
1.0
100
AcDbArc
 50
90.9999999997
 51
180.0
  0
ARC
  5
3D6
330
21A
100
AcDbEntity
  8
0
  6
Continuous
 62
     7
100
AcDbCircle
 10
475.5970271855999
 20
285.7130486354
 30
0.0
 40
1.0
100
AcDbArc
 50
0.0
 51
89.00000000030001
  0
ARC
  5
3D7
330
21A
100
AcDbEntity
  8
0
  6
Continuous
 62
     7
100
AcDbCircle
 10
475.5970271855999
 20
281.6784431617
 30
0.0
 40
1.0
100
AcDbArc
 50
270.9999999997001
 51
360.0
  0
ARC
  5
3D8
330
21A
100
AcDbEntity
  8
0
  6
Continuous
 62
     7
100
AcDbCircle
 10
468.0970271856
 20
297.7467813318
 30
0.0
 40
1.0
100
AcDbArc
 50
0.0
 51
87.0
  0
ARC
  5
3D9
330
21A
100
AcDbEntity
  8
0
  6
Continuous
 62
     7
100
AcDbCircle
 10
477.6052499771
 20
213.4858865766
 30
0.0
 40
1.0
100
AcDbArc
 50
180.0
 51
267.0000000003
  0
ARC
  5
3DA
330
21A
100
AcDbEntity
  8
0
  6
Continuous
 62
     7
100
AcDbCircle
 10
474.0970271855999
 20
221.507242146
 30
0.0
 40
1.0
100
AcDbArc
 50
180.0
 51
250.0673044796
  0
ARC
  5
3DB
330
21A
100
AcDbEntity
  8
0
  6
Continuous
 62
     7
100
AcDbCircle
 10
481.5970271856
 20
211.2739417057
 30
0.0
 40
1.0
100
AcDbArc
 50
0.0
 51
87.0
  0
ARC
  5
3DC
330
21A
100
AcDbEntity
  8
0
  6
Continuous
 62
     7
100
AcDbCircle
 10
475.6052499771
 20
218.8328520538
 30
0.0
 40
1.0
100
AcDbArc
 50
0.0
 51
70.06730447949999
  0
ARC
  5
3DD
330
21A
100
AcDbEntity
  8
0
  6
Continuous
 62
     7
100
AcDbCircle
 10
468.5797244487
 20
207.2229062724
 30
0.0
 40
1.0
100
AcDbArc
 50
181.0
 51
270.0
  0
ARC
  5
3DE
330
21A
100
AcDbEntity
  8
0
  6
Continuous
 62
     7
100
AcDbCircle
 10
370.4423266472
 20
396.7229062724
 30
0.0
 40
2.0
100
AcDbArc
 50
270.0
 51
330.0
  0
ARC
  5
3DF
330
21A
100
AcDbEntity
  8
0
  6
Continuous
 62
     7
100
AcDbCircle
 10
374.4837785316
 20
395.7229062724
 30
0.0
 40
2.0
100
AcDbArc
 50
90.0
 51
150.0
  0
ARC
  5
3E0
330
21A
100
AcDbEntity
  8
0
  6
Continuous
 62
     7
100
AcDbCircle
 10
358.494956319
 20
400.7229062723999
 30
0.0
 40
2.0
100
AcDbArc
 50
90.0
 51
177.0
  0
ARC
  5
3E1
330
21A
100
AcDbEntity
  8
0
  6
Continuous
 62
     7
100
AcDbCircle
 10
358.494956319
 20
396.7229062724
 30
0.0
 40
2.0
100
AcDbArc
 50
183.0
 51
270.0
  0
ARC
  5
3E2
330
21A
100
AcDbEntity
  8
0
  6
Continuous
 62
     7
100
AcDbCircle
 10
371.9488148926999
 20
405.5479633606999
 30
0.0
 40
3.0
100
AcDbArc
 50
185.0
 51
270.5
  0
ARC
  5
3E3
330
21A
100
AcDbEntity
  8
0
  6
Continuous
 62
     7
100
AcDbCircle
 10
391.2102758397
 20
395.7229062724
 30
0.0
 40
2.0
100
AcDbArc
 50
30.0
 51
90.0
  0
ARC
  5
3E4
330
21A
100
AcDbEntity
  8
0
  6
Continuous
 62
     7
100
AcDbCircle
 10
395.2517277240001
 20
396.7229062724
 30
0.0
 40
2.0
100
AcDbArc
 50
210.0
 51
270.0
  0
ARC
  5
3E5
330
21A
100
AcDbEntity
  8
0
  6
Continuous
 62
     7
100
AcDbCircle
 10
401.0403190397999
 20
410.7229062724
 30
0.0
 40
1.0
100
AcDbArc
 50
270.0011189149
 51
360.0
  0
ARC
  5
3E6
330
21A
100
AcDbEntity
  8
0
  6
Continuous
 62
     7
100
AcDbCircle
 10
442.1081582041
 20
323.7417344044
 30
0.0
 40
5.0
100
AcDbArc
 50
182.0
 51
207.0
  0
ARC
  5
3E7
330
21A
100
AcDbEntity
  8
0
  6
Continuous
 62
     7
100
AcDbCircle
 10
430.6572869523
 20
365.1147041201
 30
0.0
 40
4.9999999915
100
AcDbArc
 50
1.999897474399999
 51
26.094897679
  0
ARC
  5
3E8
330
21A
100
AcDbEntity
  8
0
  6
Continuous
 62
     7
100
AcDbCircle
 10
445.8441587191999
 20
324.1188329711
 30
0.0
 40
3.0
100
AcDbArc
 50
180.2282992679
 51
207.0
  0
ARC
  5
3E9
330
21A
100
AcDbEntity
  8
0
  6
Continuous
 62
     7
100
AcDbCircle
 10
439.4992836332
 20
369.7964215678
 30
0.0
 40
4.999999989199999
100
AcDbArc
 50
182.0001021345
 51
206.0949900877
  0
ARC
  5
3EA
330
21A
100
AcDbEntity
  8
0
  6
Continuous
 62
     7
100
AcDbCircle
 10
431.2171402444
 20
377.736308078
 30
0.0
 40
3.0
100
AcDbArc
 50
2.0
 51
83.33600404390001
  0
ARC
  5
3EB
330
21A
100
AcDbEntity
  8
0
  6
Continuous
 62
     7
100
AcDbCircle
 10
427.4450157919
 20
392.7229062724
 30
0.0
 40
2.0
100
AcDbArc
 50
2.0
 51
90.0
  0
ARC
  5
3EC
330
21A
100
AcDbEntity
  8
0
  6
Continuous
 62
     7
100
AcDbCircle
 10
431.7973733268
 20
382.7025269183999
 30
0.0
 40
2.0
100
AcDbArc
 50
182.0
 51
263.3360040439
  0
ARC
  5
3ED
330
21A
100
AcDbEntity
  8
0
  6
Continuous
 62
     7
100
AcDbCircle
 10
421.9424320724
 20
410.7229062724
 30
0.0
 40
1.0
100
AcDbArc
 50
180.0
 51
269.9988810851
  0
ARC
  5
3EE
330
21A
100
AcDbEntity
  8
0
  6
Continuous
 62
     7
100
AcDbCircle
 10
441.5970271855999
 20
398.3277889901001
 30
0.0
 40
1.0
100
AcDbArc
 50
271.0
 51
360.0
  0
ARC
  5
3EF
330
21A
100
AcDbEntity
  8
0
  6
Continuous
 62
     7
100
AcDbCircle
 10
436.5970271855999
 20
396.2402090093
 30
0.0
 40
1.0
100
AcDbArc
 50
91.0
 51
180.0
  0
ARC
  5
3F0
330
21A
100
AcDbEntity
  8
0
  6
Continuous
 62
     7
100
AcDbCircle
 10
441.5970271855999
 20
401.7229062723999
 30
0.0
 40
1.0
100
AcDbArc
 50
0.0
 51
90.0
  0
ARC
  5
3F1
330
21A
100
AcDbEntity
  8
0
  6
Continuous
 62
     7
100
AcDbCircle
 10
441.6010038420999
 20
385.1346008569
 30
0.0
 40
1.0
100
AcDbArc
 50
0.2282992679
 51
90.0
  0
ARC
  5
3F2
330
21A
100
AcDbEntity
  8
0
  6
Continuous
 62
     7
100
AcDbCircle
 10
436.5970271855999
 20
387.2056035355999
 30
0.0
 40
1.0
100
AcDbArc
 50
180.0
 51
269.0
  0
ARC
  5
3F3
330
21A
100
AcDbEntity
  8
RUNDUNGEN
  6
Continuous
 62
     9
100
AcDbCircle
 10
-279.7708864013
 20
648.7116863159999
 30
0.0
 40
817.0281988749
100
AcDbArc
 50
340.9247053945
 51
341.1835411827
  0
ARC
  5
3F4
330
21A
100
AcDbEntity
  8
RUNDUNGEN
  6
Continuous
 62
     9
100
AcDbCircle
 10
-182.2485349337
 20
618.4778814543
 30
0.0
 40
716.0277164161999
100
AcDbArc
 50
340.5988695697
 51
340.9205362943
  0
ARC
  5
3F5
330
21A
100
AcDbEntity
  8
RUNDUNGEN
  6
Continuous
 62
     9
100
AcDbCircle
 10
494.9666944086
 20
187.8030314311
 30
0.0
 40
133.318506997
100
AcDbArc
 50
90.0012676757
 51
90.18583711069998
  0
ARC
  5
3F6
330
21A
100
AcDbEntity
  8
RUNDUNGEN
  6
Continuous
 62
     9
100
AcDbCircle
 10
518.2273630062999
 20
187.805382919
 30
0.0
 40
133.316155509
100
AcDbArc
 50
89.8141609125
 51
89.99873361
  0
ARC
  5
3F7
330
21A
100
AcDbEntity
  8
0
  6
Continuous
 62
     7
100
AcDbCircle
 10
553.1328906405999
 20
290.6576304951
 30
0.0
 40
3.0
100
AcDbArc
 50
93.0
 51
176.0
  0
ARC
  5
3F8
330
21A
100
AcDbEntity
  8
0
  6
Continuous
 62
     7
100
AcDbCircle
 10
559.7103422247999
 20
297.010574202
 30
0.0
 40
3.0
100
AcDbArc
 50
273.0
 51
333.0
  0
ARC
  5
3F9
330
21A
100
AcDbEntity
  8
0
  6
Continuous
 62
     7
100
AcDbCircle
 10
546.7132738002
 20
284.866354722
 30
0.0
 40
3.0
100
AcDbArc
 50
301.8703673683
 51
356.0
  0
ARC
  5
3FA
330
21A
100
AcDbEntity
  8
0
  6
Continuous
 62
     7
100
AcDbCircle
 10
549.881268922
 20
279.770885469
 30
0.0
 40
3.0
100
AcDbArc
 50
121.8703673683
 51
179.0
  0
ARC
  5
3FB
330
21A
100
AcDbEntity
  8
0
  6
Continuous
 62
     7
100
AcDbCircle
 10
531.5970271855999
 20
207.2229062724
 30
0.0
 40
1.0
100
AcDbArc
 50
180.0
 51
270.0
  0
ARC
  5
3FC
330
21A
100
AcDbEntity
  8
0
  6
Continuous
 62
     7
100
AcDbCircle
 10
543.0970271855999
 20
287.8093561486
 30
0.0
 40
1.0
100
AcDbArc
 50
271.0
 51
360.0
  0
ARC
  5
3FD
330
21A
100
AcDbEntity
  8
0
  6
Continuous
 62
     7
100
AcDbCircle
 10
539.0970271855999
 20
279.6519559082
 30
0.0
 40
1.0
100
AcDbArc
 50
0.0
 51
89.0
  0
ARC
  5
3FE
330
21A
100
AcDbEntity
  8
0
  6
Continuous
 62
     7
100
AcDbCircle
 10
537.5970271855999
 20
285.7130486354
 30
0.0
 40
1.0
100
AcDbArc
 50
91.0
 51
180.0
  0
ARC
  5
3FF
330
21A
100
AcDbEntity
  8
0
  6
Continuous
 62
     7
100
AcDbCircle
 10
537.5970271855999
 20
281.6784431617
 30
0.0
 40
1.0
100
AcDbArc
 50
180.0
 51
269.0
  0
ARC
  5
400
330
21A
100
AcDbEntity
  8
0
  6
Continuous
 62
     7
100
AcDbCircle
 10
545.0970271855999
 20
297.7467813318
 30
0.0
 40
1.0
100
AcDbArc
 50
93.0
 51
180.0
  0
ARC
  5
401
330
21A
100
AcDbEntity
  8
0
  6
Continuous
 62
     7
100
AcDbCircle
 10
535.5888043941
 20
213.4858865766
 30
0.0
 40
1.0
100
AcDbArc
 50
272.9999999997001
 51
360.0
  0
ARC
  5
402
330
21A
100
AcDbEntity
  8
0
  6
Continuous
 62
     7
100
AcDbCircle
 10
539.0970271855999
 20
221.507242146
 30
0.0
 40
1.0
100
AcDbArc
 50
289.9326955204
 51
360.0
  0
ARC
  5
403
330
21A
100
AcDbEntity
  8
0
  6
Continuous
 62
     7
100
AcDbCircle
 10
531.5970271855999
 20
211.2739417057
 30
0.0
 40
1.0
100
AcDbArc
 50
93.0
 51
180.0
  0
ARC
  5
404
330
21A
100
AcDbEntity
  8
0
  6
Continuous
 62
     7
100
AcDbCircle
 10
537.5888043941
 20
218.8328520538
 30
0.0
 40
1.0
100
AcDbArc
 50
109.9326955205
 51
180.0
  0
ARC
  5
405
330
21A
100
AcDbEntity
  8
0
  6
Continuous
 62
     7
100
AcDbCircle
 10
544.6143299225
 20
207.2229062724
 30
0.0
 40
1.0
100
AcDbArc
 50
270.0
 51
359.0
  0
ARC
  5
406
330
21A
100
AcDbEntity
  8
0
  6
Continuous
 62
     7
100
AcDbCircle
 10
557.1947622769
 20
300.8842276273
 30
0.0
 40
1.5
100
AcDbArc
 50
273.0
 51
333.0
  0
ARC
  5
407
330
21A
100
AcDbEntity
  8
0
  6
Continuous
 62
     7
100
AcDbCircle
 10
513.9824244176999
 20
386.3509128951999
 30
0.0
 40
133.1306887265
100
AcDbArc
 50
175.0998360438
 51
175.5316518268
  0
ARC
  5
408
330
21A
100
AcDbEntity
  8
0
  6
Continuous
 62
     7
100
AcDbCircle
 10
516.0970271855999
 20
410.7229062724
 30
0.0
 40
1.0
100
AcDbArc
 50
180.0
 51
258.7504608998
  0
ARC
  5
409
330
21A
100
AcDbEntity
  8
0
  6
Continuous
 62
     7
100
AcDbCircle
 10
497.0970271856
 20
410.7229062724
 30
0.0
 40
1.0
100
AcDbArc
 50
281.2495330492
 51
360.0
  0
ARC
  5
40A
330
21A
100
AcDbEntity
  8
0
  6
Continuous
 62
     7
100
AcDbCircle
 10
571.0858961671
 20
323.7417344044
 30
0.0
 40
5.0
100
AcDbArc
 50
333.0
 51
358.0
  0
ARC
  5
40B
330
21A
100
AcDbEntity
  8
0
  6
Continuous
 62
     7
100
AcDbCircle
 10
567.3498956521
 20
324.1188329711
 30
0.0
 40
3.0
100
AcDbArc
 50
333.0
 51
359.7717007321
  0
ARC
  5
40C
330
21A
100
AcDbEntity
  8
0
  6
Continuous
 62
     7
100
AcDbCircle
 10
582.5367671679999
 20
365.1146958705
 30
0.0
 40
4.999999993899999
100
AcDbArc
 50
153.9050343772
 51
178.0000005032
  0
ARC
  5
40D
330
21A
100
AcDbEntity
  8
0
  6
Continuous
 62
     7
100
AcDbCircle
 10
573.6947704793
 20
369.7964133197
 30
0.0
 40
4.999999986899999
100
AcDbArc
 50
333.9050765082
 51
357.9999998372
  0
ARC
  5
40E
330
21A
100
AcDbEntity
  8
0
  6
Continuous
 62
     7
100
AcDbCircle
 10
581.9769141269
 20
377.736308078
 30
0.0
 40
3.0
100
AcDbArc
 50
96.66399595610002
 51
178.0
  0
ARC
  5
40F
330
21A
100
AcDbEntity
  8
0
  6
Continuous
 62
     7
100
AcDbCircle
 10
585.7490385792999
 20
392.7229062724
 30
0.0
 40
2.0
100
AcDbArc
 50
90.0
 51
178.0
  0
ARC
  5
410
330
21A
100
AcDbEntity
  8
0
  6
Continuous
 62
     7
100
AcDbCircle
 10
581.3966810444999
 20
382.7025269183999
 30
0.0
 40
2.0
100
AcDbArc
 50
276.6639959561
 51
358.0
  0
ARC
  5
411
330
21A
100
AcDbEntity
  8
0
  6
Continuous
 62
     7
100
AcDbCircle
 10
621.9837785316
 20
395.7229062724
 30
0.0
 40
2.0
100
AcDbArc
 50
90.0
 51
150.0
  0
ARC
  5
412
330
21A
100
AcDbEntity
  8
0
  6
Continuous
 62
     7
100
AcDbCircle
 10
617.9423266472
 20
396.7229062724
 30
0.0
 40
2.0
100
AcDbArc
 50
270.0
 51
330.0
  0
ARC
  5
413
330
21A
100
AcDbEntity
  8
0
  6
Continuous
 62
     7
100
AcDbCircle
 10
591.2516222987999
 20
410.7229062724
 30
0.0
 40
1.0
100
AcDbArc
 50
270.0000413079
 51
360.0
  0
ARC
  5
414
330
21A
100
AcDbEntity
  8
0
  6
Continuous
 62
     7
100
AcDbCircle
 10
612.1537353313999
 20
410.7229062724
 30
0.0
 40
1.0
100
AcDbArc
 50
180.0
 51
269.9999586921
  0
ARC
  5
415
330
21A
100
AcDbEntity
  8
0
  6
Continuous
 62
     7
100
AcDbCircle
 10
576.5970271855999
 20
396.2402090093
 30
0.0
 40
1.0
100
AcDbArc
 50
0.0
 51
89.0
  0
ARC
  5
416
330
21A
100
AcDbEntity
  8
0
  6
Continuous
 62
     7
100
AcDbCircle
 10
571.5970271855999
 20
398.3277889901001
 30
0.0
 40
1.0
100
AcDbArc
 50
180.0
 51
269.0
  0
ARC
  5
417
330
21A
100
AcDbEntity
  8
0
  6
Continuous
 62
     7
100
AcDbCircle
 10
571.5970271855999
 20
401.7229062723999
 30
0.0
 40
1.0
100
AcDbArc
 50
90.0
 51
180.0
  0
ARC
  5
418
330
21A
100
AcDbEntity
  8
0
  6
Continuous
 62
     7
100
AcDbCircle
 10
571.5930505291001
 20
385.1346008569
 30
0.0
 40
1.0
100
AcDbArc
 50
90.0
 51
179.7717007321
  0
ARC
  5
419
330
21A
100
AcDbEntity
  8
0
  6
Continuous
 62
     7
100
AcDbCircle
 10
576.5970271855999
 20
387.2056035355999
 30
0.0
 40
1.0
100
AcDbArc
 50
271.0
 51
360.0
  0
ARC
  5
41A
330
21A
100
AcDbEntity
  8
RUNDUNGEN
  6
Continuous
 62
     9
100
AcDbCircle
 10
770.7103020285001
 20
290.2256137239
 30
0.0
 40
399.3417819133
100
AcDbArc
 50
164.5330744127
 51
164.6818879277
  0
ARC
  5
41B
330
21A
100
AcDbEntity
  8
RUNDUNGEN
  6
Continuous
 62
     9
100
AcDbCircle
 10
766.5840889980001
 20
291.9659023447
 30
0.0
 40
397.274360892
100
AcDbArc
 50
164.7109138006
 51
164.8603745171
  0
ARC
  5
41C
330
21A
100
AcDbEntity
  8
0
  6
Continuous
 62
     7
100
AcDbCircle
 10
641.2452394785
 20
405.5479633606999
 30
0.0
 40
3.0
100
AcDbArc
 50
269.5
 51
355.0
  0
ARC
  5
41D
330
21A
100
AcDbEntity
  8
0
  6
Continuous
 62
     7
100
AcDbCircle
 10
642.751727724
 20
396.7229062724
 30
0.0
 40
2.0
100
AcDbArc
 50
210.0
 51
270.0
  0
ARC
  5
41E
330
21A
100
AcDbEntity
  8
0
  6
Continuous
 62
     7
100
AcDbCircle
 10
638.7102758396999
 20
395.7229062724
 30
0.0
 40
2.0
100
AcDbArc
 50
30.0
 51
90.0
  0
ARC
  5
41F
330
21A
100
AcDbEntity
  8
0
  6
Continuous
 62
     7
100
AcDbCircle
 10
654.6990980522
 20
400.7229062723999
 30
0.0
 40
2.0
100
AcDbArc
 50
3.0
 51
90.0
  0
ARC
  5
420
330
21A
100
AcDbEntity
  8
0
  6
Continuous
 62
     7
100
AcDbCircle
 10
654.6990980522
 20
396.7229062724
 30
0.0
 40
2.0
100
AcDbArc
 50
270.0
 51
357.0
  0
ARC
  5
421
330
21A
100
AcDbEntity
  8
RUNDUNGEN
  6
Continuous
 62
     9
100
AcDbCircle
 10
1265.2379470984
 20
639.1938043077999
 30
0.0
 40
787.7131565177001
100
AcDbArc
 50
198.8116424851
 51
199.0801109495
  0
ARC
  5
422
330
21A
100
AcDbEntity
  8
RUNDUNGEN
  6
Continuous
 62
     9
100
AcDbCircle
 10
1190.4557786706
 20
616.7373567887
 30
0.0
 40
710.7459094375
100
AcDbArc
 50
199.078268502
 51
199.4023256535
  0
SPLINE
  5
423
330
21A
100
AcDbEntity
  8
0
  6
Continuous
 62
     7
100
AcDbSpline
210
0.0
220
0.0
230
1.0
 70
     8
 71
     3
 72
     9
 73
     5
 74
     0
 42
0.0000000001
 43
0.0000000001
 40
0.0
 40
0.0
 40
0.0
 40
0.0
 40
0.242670281
 40
1.0
 40
1.0
 40
1.0
 40
1.0
 10
499.4770076288999
 20
413.9428728498
 30
0.0
 10
499.4474754294999
 20
413.9724994832
 30
0.0
 10
499.3276981912999
 20
414.0964988691999
 30
0.0
 10
499.2149724899999
 20
414.2271871205999
 30
0.0
 10
499.1325898935
 20
414.3284597719
 30
0.0
  0
SPLINE
  5
424
330
21A
100
AcDbEntity
  8
0
  6
Continuous
 62
     7
100
AcDbSpline
210
0.0
220
0.0
230
1.0
 70
     8
 71
     3
 72
     9
 73
     5
 74
     0
 42
0.0000000001
 43
0.0000000001
 40
0.0
 40
0.0
 40
0.0
 40
0.0
 40
0.242670281
 40
1.0
 40
1.0
 40
1.0
 40
1.0
 10
513.7170467423
 20
413.9428728498
 30
0.0
 10
513.7465789416999
 20
413.9724994832
 30
0.0
 10
513.8663561798999
 20
414.0964988691999
 30
0.0
 10
513.9790818812
 20
414.2271871205999
 30
0.0
 10
514.0614644776999
 20
414.3284597719
 30
0.0
  0
SPLINE
  5
425
330
21A
100
AcDbEntity
  8
0
  6
Continuous
 62
     7
100
AcDbSpline
210
0.0
220
0.0
230
1.0
 70
     8
 71
     3
 72
     8
 73
     4
 74
     0
 42
0.0000000001
 43
0.0000000001
 40
0.0
 40
0.0
 40
0.0
 40
0.0
 40
1.0
 40
1.0
 40
1.0
 40
1.0
 10
504.5208287473
 20
413.4729062724
 30
0.0
 10
503.7098363316999
 20
413.6451285405
 30
0.0
 10
502.9261050024
 20
413.9560539568
 30
0.0
 10
502.1853735283
 20
414.3284597719
 30
0.0
  0
SPLINE
  5
426
330
21A
100
AcDbEntity
  8
0
  6
Continuous
 62
     7
100
AcDbSpline
210
0.0
220
0.0
230
1.0
 70
     8
 71
     3
 72
     8
 73
     4
 74
     0
 42
0.0000000001
 43
0.0000000001
 40
0.0
 40
0.0
 40
0.0
 40
0.0
 40
1.0
 40
1.0
 40
1.0
 40
1.0
 10
509.6498108204
 20
414.3284597719
 30
0.0
 10
508.9090793462999
 20
413.9560539568
 30
0.0
 10
508.1253480171
 20
413.6451285405
 30
0.0
 10
507.3143556015
 20
413.4729062724
 30
0.0
  0
SPLINE
  5
427
330
21A
100
AcDbEntity
  8
0
  6
Continuous
 62
     7
100
AcDbSpline
210
0.0
220
0.0
230
1.0
 70
     8
 71
     3
 72
     9
 73
     5
 74
     0
 42
0.0000000001
 43
0.0000000001
 40
0.0
 40
0.0
 40
0.0
 40
0.0
 40
0.238525074
 40
1.0
 40
1.0
 40
1.0
 40
1.0
 10
511.0301184249999
 20
413.4729062724
 30
0.0
 10
510.9081950108
 20
413.5167144605
 30
0.0
 10
510.4094194355
 20
413.7353531069
 30
0.0
 10
509.9648440505999
 20
414.0604764999999
 30
0.0
 10
509.6498108204
 20
414.3284597719
 30
0.0
  0
SPLINE
  5
428
330
21A
100
AcDbEntity
  8
0
  6
Continuous
 62
     7
100
AcDbSpline
210
0.0
220
0.0
230
1.0
 70
     8
 71
     3
 72
     9
 73
     5
 74
     0
 42
0.0000000001
 43
0.0000000001
 40
0.0
 40
0.0
 40
0.0
 40
0.0
 40
0.2620716488
 40
1.0
 40
1.0
 40
1.0
 40
1.0
 10
514.0614644776999
 20
414.3284597719
 30
0.0
 10
513.9531292051999
 20
414.2363042848
 30
0.0
 10
513.5310885043
 20
413.8964782808
 30
0.0
 10
513.0580483816
 20
413.6083268083
 30
0.0
 10
512.6811568731
 20
413.4729062724
 30
0.0
  0
SPLINE
  5
429
330
21A
100
AcDbEntity
  8
0
  6
Continuous
 62
     7
100
AcDbSpline
210
0.0
220
0.0
230
1.0
 70
     8
 71
     3
 72
     9
 73
     5
 74
     0
 42
0.0000000001
 43
0.0000000001
 40
0.0
 40
0.0
 40
0.0
 40
0.0
 40
0.5322249032000001
 40
1.0
 40
1.0
 40
1.0
 40
1.0
 10
502.1853735283
 20
414.3284597719
 30
0.0
 10
502.0411185417
 20
414.1511275975999
 30
0.0
 10
501.7538117107
 20
413.8308853779999
 30
0.0
 10
501.408535411
 20
413.565492851
 30
0.0
 10
501.230225914
 20
413.4729062724
 30
0.0
  0
SPLINE
  5
42A
330
21A
100
AcDbEntity
  8
0
  6
Continuous
 62
     7
100
AcDbSpline
210
0.0
220
0.0
230
1.0
 70
     8
 71
     3
 72
     9
 73
     5
 74
     0
 42
0.0000000001
 43
0.0000000001
 40
0.0
 40
0.0
 40
0.0
 40
0.0
 40
0.2336916625
 40
1.0
 40
1.0
 40
1.0
 40
1.0
 10
500.0877375078999
 20
413.4729062724
 30
0.0
 10
500.0343337856
 20
413.5006359673
 30
0.0
 10
499.8123672119
 20
413.6320015716
 30
0.0
 10
499.6163101096
 20
413.8031249269999
 30
0.0
 10
499.4770076288999
 20
413.9428728498
 30
0.0
  0
SPLINE
  5
42B
330
21A
100
AcDbEntity
  8
0
  6
Continuous
 62
     7
100
AcDbSpline
210
0.0
220
0.0
230
1.0
 70
     8
 71
     3
 72
     9
 73
     5
 74
     0
 42
0.0000000001
 43
0.0000000001
 40
0.0
 40
0.0
 40
0.0
 40
0.0
 40
0.4372730511
 40
1.0
 40
1.0
 40
1.0
 40
1.0
 10
608.3526412891
 20
413.4729062724
 30
0.0
 10
608.4537415656999
 20
413.5756038723999
 30
0.0
 10
608.6331096697001
 20
413.8579866884
 30
0.0
 10
608.7696778647
 20
414.1572175626999
 30
0.0
 10
608.8408843792
 20
414.3284597719
 30
0.0
  0
SPLINE
  5
42C
330
21A
100
AcDbEntity
  8
0
  6
Continuous
 62
     7
100
AcDbSpline
210
0.0
220
0.0
230
1.0
 70
     8
 71
     3
 72
     9
 73
     5
 74
     0
 42
0.0000000001
 43
0.0000000001
 40
0.0
 40
0.0
 40
0.0
 40
0.0
 40
0.4372730511
 40
1.0
 40
1.0
 40
1.0
 40
1.0
 10
595.0527163412
 20
413.4729062724
 30
0.0
 10
594.9516160644999
 20
413.5756038723999
 30
0.0
 10
594.7722479605999
 20
413.8579866884
 30
0.0
 10
594.6356797656
 20
414.1572175626999
 30
0.0
 10
594.5644732511
 20
414.3284597719
 30
0.0
  0
SPLINE
  5
42D
330
21A
100
AcDbEntity
  8
0
  6
Continuous
 62
     7
100
AcDbSpline
210
0.0
220
0.0
230
1.0
 70
     8
 71
     3
 72
     9
 73
     5
 74
     0
 42
0.0000000001
 43
0.0000000001
 40
0.0
 40
0.0
 40
0.0
 40
0.0
 40
0.2446356607
 40
1.0
 40
1.0
 40
1.0
 40
1.0
 10
605.0083126626999
 20
413.4729062724
 30
0.0
 10
604.8554650736
 20
413.5163444898999
 30
0.0
 10
604.2404291606
 20
413.7287998076
 30
0.0
 10
603.6702474352999
 20
414.0545721745
 30
0.0
 10
603.2631711337
 20
414.3284597719
 30
0.0
  0
SPLINE
  5
42E
330
21A
100
AcDbEntity
  8
0
  6
Continuous
 62
     7
100
AcDbSpline
210
0.0
220
0.0
230
1.0
 70
     8
 71
     3
 72
     9
 73
     5
 74
     0
 42
0.0000000001
 43
0.0000000001
 40
0.0
 40
0.0
 40
0.0
 40
0.0
 40
0.2559360586
 40
1.0
 40
1.0
 40
1.0
 40
1.0
 10
608.8408843792
 20
414.3284597719
 30
0.0
 10
608.7030331428
 20
414.2357112041999
 30
0.0
 10
608.1559169641999
 20
413.8874032133999
 30
0.0
 10
607.5603746527999
 20
413.6049513861999
 30
0.0
 10
607.0957428501999
 20
413.4729062724
 30
0.0
  0
SPLINE
  5
42F
330
21A
100
AcDbEntity
  8
0
  6
Continuous
 62
     7
100
AcDbSpline
210
0.0
220
0.0
230
1.0
 70
     8
 71
     3
 72
     9
 73
     5
 74
     0
 42
0.0000000001
 43
0.0000000001
 40
0.0
 40
0.0
 40
0.0
 40
0.0
 40
0.5627263225
 40
1.0
 40
1.0
 40
1.0
 40
1.0
 10
596.1249655697001
 20
414.3284597719
 30
0.0
 10
596.0537591357999
 20
414.1572177566001
 30
0.0
 10
595.9171907705
 20
413.8579869894999
 30
0.0
 10
595.7378228989999
 20
413.5756040174999
 30
0.0
 10
595.6367224795
 20
413.4729062724
 30
0.0
  0
SPLINE
  5
430
330
21A
100
AcDbEntity
  8
0
  6
Continuous
 62
     7
100
AcDbSpline
210
0.0
220
0.0
230
1.0
 70
     8
 71
     3
 72
     9
 73
     5
 74
     0
 42
0.0000000001
 43
0.0000000001
 40
0.0
 40
0.0
 40
0.0
 40
0.0
 40
0.7489619328
 40
1.0
 40
1.0
 40
1.0
 40
1.0
 10
598.3583501887999
 20
413.4729062724
 30
0.0
 10
597.7746055623001
 20
413.6025356485999
 30
0.0
 10
597.0169264237999
 20
413.8799411158999
 30
0.0
 10
596.3023694074999
 20
414.235193055
 30
0.0
 10
596.1249655697001
 20
414.3284597719
 30
0.0
  0
SPLINE
  5
431
330
21A
100
AcDbEntity
  8
0
  6
Continuous
 62
     7
100
AcDbSpline
210
0.0
220
0.0
230
1.0
 70
     8
 71
     3
 72
     9
 73
     5
 74
     0
 42
0.0000000001
 43
0.0000000001
 40
0.0
 40
0.0
 40
0.0
 40
0.0
 40
0.2510377027
 40
1.0
 40
1.0
 40
1.0
 40
1.0
 10
603.2631711337
 20
414.3284597719
 30
0.0
 10
603.0857675543
 20
414.2351931908
 30
0.0
 10
602.371210485
 20
413.8799413725
 30
0.0
 10
601.6135314223999
 20
413.6025357109999
 30
0.0
 10
601.0297865146
 20
413.4729062724
 30
0.0
  0
SPLINE
  5
432
330
21A
100
AcDbEntity
  8
0
  6
Continuous
 62
     7
100
AcDbSpline
210
0.0
220
0.0
230
1.0
 70
     8
 71
     3
 72
     9
 73
     5
 74
     0
 42
0.0000000001
 43
0.0000000001
 40
0.0
 40
0.0
 40
0.0
 40
0.0
 40
0.2571183635
 40
1.0
 40
1.0
 40
1.0
 40
1.0
 10
404.026938264
 20
414.3284597719
 30
0.0
 10
404.0549020008
 20
414.2940840435
 30
0.0
 10
404.1649866451
 20
414.1614880983
 30
0.0
 10
404.2809071973
 20
414.0336149987
 30
0.0
 10
404.3712931433
 20
413.9429360548
 30
0.0
  0
SPLINE
  5
433
330
21A
100
AcDbEntity
  8
0
  6
Continuous
 62
     7
100
AcDbSpline
210
0.0
220
0.0
230
1.0
 70
     8
 71
     3
 72
     9
 73
     5
 74
     0
 42
0.0000000001
 43
0.0000000001
 40
0.0
 40
0.0
 40
0.0
 40
0.0
 40
0.2571183635
 40
1.0
 40
1.0
 40
1.0
 40
1.0
 10
418.9558128482
 20
414.3284597719
 30
0.0
 10
418.9278491113999
 20
414.2940840435
 30
0.0
 10
418.8177644670999
 20
414.1614880983
 30
0.0
 10
418.7018439148999
 20
414.0336149987
 30
0.0
 10
418.6114579688999
 20
413.9429360548
 30
0.0
  0
SPLINE
  5
434
330
21A
100
AcDbEntity
  8
0
  6
Continuous
 62
     7
100
AcDbSpline
210
0.0
220
0.0
230
1.0
 70
     8
 71
     3
 72
     9
 73
     5
 74
     0
 42
0.0000000001
 43
0.0000000001
 40
0.0
 40
0.0
 40
0.0
 40
0.0
 40
0.2668385566
 40
1.0
 40
1.0
 40
1.0
 40
1.0
 10
418.6114579688999
 20
413.9429360548
 30
0.0
 10
418.5629688217
 20
413.8942897237
 30
0.0
 10
418.3767639573999
 20
413.7169402869999
 30
0.0
 10
418.1681510909999
 20
413.5598727141999
 30
0.0
 10
418.0006652337999
 20
413.4729062724
 30
0.0
  0
SPLINE
  5
435
330
21A
100
AcDbEntity
  8
0
  6
Continuous
 62
     7
100
AcDbSpline
210
0.0
220
0.0
230
1.0
 70
     8
 71
     3
 72
     9
 73
     5
 74
     0
 42
0.0000000001
 43
0.0000000001
 40
0.0
 40
0.0
 40
0.0
 40
0.0
 40
0.2620716488
 40
1.0
 40
1.0
 40
1.0
 40
1.0
 10
408.4385919213
 20
414.3284597719
 30
0.0
 10
408.3302566487999
 20
414.2363042848
 30
0.0
 10
407.9082159479
 20
413.8964782808
 30
0.0
 10
407.4351758251999
 20
413.6083268083
 30
0.0
 10
407.0582843167
 20
413.4729062724
 30
0.0
  0
SPLINE
  5
436
330
21A
100
AcDbEntity
  8
0
  6
Continuous
 62
     7
100
AcDbSpline
210
0.0
220
0.0
230
1.0
 70
     8
 71
     3
 72
     9
 73
     5
 74
     0
 42
0.0000000001
 43
0.0000000001
 40
0.0
 40
0.0
 40
0.0
 40
0.0
 40
0.238525074
 40
1.0
 40
1.0
 40
1.0
 40
1.0
 10
405.4072458685999
 20
413.4729062724
 30
0.0
 10
405.2853224544
 20
413.5167144605
 30
0.0
 10
404.7865468791
 20
413.7353531069
 30
0.0
 10
404.3419714941999
 20
414.0604764999999
 30
0.0
 10
404.026938264
 20
414.3284597719
 30
0.0
  0
SPLINE
  5
437
330
21A
100
AcDbEntity
  8
0
  6
Continuous
 62
     7
100
AcDbSpline
210
0.0
220
0.0
230
1.0
 70
     8
 71
     3
 72
     8
 73
     4
 74
     0
 42
0.0000000001
 43
0.0000000001
 40
0.0
 40
0.0
 40
0.0
 40
0.0
 40
1.0
 40
1.0
 40
1.0
 40
1.0
 10
410.7740471402999
 20
413.4729062724
 30
0.0
 10
409.9630547247
 20
413.6451285405
 30
0.0
 10
409.1793233954
 20
413.9560539568
 30
0.0
 10
408.4385919213
 20
414.3284597719
 30
0.0
  0
SPLINE
  5
438
330
21A
100
AcDbEntity
  8
0
  6
Continuous
 62
     7
100
AcDbSpline
210
0.0
220
0.0
230
1.0
 70
     8
 71
     3
 72
     8
 73
     4
 74
     0
 42
0.0000000001
 43
0.0000000001
 40
0.0
 40
0.0
 40
0.0
 40
0.0
 40
1.0
 40
1.0
 40
1.0
 40
1.0
 10
415.9030292134
 20
414.3284597719
 30
0.0
 10
415.1622977393
 20
413.9560539568
 30
0.0
 10
414.37856641
 20
413.6451285405
 30
0.0
 10
413.5675739944
 20
413.4729062724
 30
0.0
  0
SPLINE
  5
439
330
21A
100
AcDbEntity
  8
0
  6
Continuous
 62
     7
100
AcDbSpline
210
0.0
220
0.0
230
1.0
 70
     8
 71
     3
 72
     9
 73
     5
 74
     0
 42
0.0000000001
 43
0.0000000001
 40
0.0
 40
0.0
 40
0.0
 40
0.0
 40
0.4677745472
 40
1.0
 40
1.0
 40
1.0
 40
1.0
 10
416.8581768277999
 20
413.4729062724
 30
0.0
 10
416.6798675358
 20
413.5654927444999
 30
0.0
 10
416.3345910003999
 20
413.8308849701999
 30
0.0
 10
416.0472843525999
 20
414.1511274099999
 30
0.0
 10
415.9030292134
 20
414.3284597719
 30
0.0
  0
LINE
  5
43A
330
21A
100
AcDbEntity
  8
0
  6
Continuous
 62
     7
100
AcDbLine
 10
412.4424669976999
 20
402.8714185507999
 30
0.0
 11
413.2246536545999
 21
402.8778616258
 31
0.0
  0
SPLINE
  5
43B
330
21A
100
AcDbEntity
  8
0
  6
Continuous
 62
     7
100
AcDbSpline
210
0.0
220
0.0
230
1.0
 70
     8
 71
     3
 72
     9
 73
     5
 74
     0
 42
0.0000000001
 43
0.0000000001
 40
0.0
 40
0.0
 40
0.0
 40
0.0
 40
0.2588056283
 40
1.0
 40
1.0
 40
1.0
 40
1.0
 10
413.2246536545999
 20
402.8778616258
 30
0.0
 10
413.3529961199999
 20
402.8788946245
 30
0.0
 10
413.8488994144
 20
402.8828384416
 30
0.0
 10
414.3448042481999
 20
402.8865906012
 30
0.0
 10
414.7123671355999
 20
402.8892287398
 30
0.0
  0
SPLINE
  5
43C
330
21A
100
AcDbEntity
  8
0
  6
Continuous
 62
     7
100
AcDbSpline
210
0.0
220
0.0
230
1.0
 70
     8
 71
     3
 72
    14
 73
    10
 74
     0
 42
0.0000000001
 43
0.0000000001
 40
0.0
 40
0.0
 40
0.0
 40
0.0
 40
0.016751118
 40
0.0659852429
 40
0.1473295606
 40
0.2602141137
 40
0.4034479005
 40
0.5755636613
 40
1.0
 40
1.0
 40
1.0
 40
1.0
 10
501.5970271856
 20
402.8578451857
 30
0.0
 10
501.5970271856
 20
402.8660274048999
 30
0.0
 10
501.6480504056
 20
402.8561723115
 30
0.0
 10
501.7019051502999
 20
402.8720849475
 30
0.0
 10
501.8309244639
 20
402.8690764913999
 30
0.0
 10
501.9912810453
 20
402.8760249854
 30
0.0
 10
502.2021099598
 20
402.8787174686
 30
0.0
 10
502.5626322566999
 20
402.8845569958999
 30
0.0
 10
502.8543618978
 20
402.8873537777999
 30
0.0
 10
503.0616727863
 20
402.8892287398
 30
0.0
  0
SPLINE
  5
43D
330
21A
100
AcDbEntity
  8
0
  6
Continuous
 62
     7
100
AcDbSpline
210
0.0
220
0.0
230
1.0
 70
     8
 71
     3
 72
    14
 73
    10
 74
     0
 42
0.0000000001
 43
0.0000000001
 40
0.0
 40
0.0
 40
0.0
 40
0.0
 40
0.4244365214
 40
0.5965522769
 40
0.7397860245000001
 40
0.8526705231999999
 40
0.9340147943000001
 40
0.9832488894
 40
1.0
 40
1.0
 40
1.0
 40
1.0
 10
510.1324028153999
 20
402.8892285479
 30
0.0
 10
510.3397107895999
 20
402.8873535900999
 30
0.0
 10
510.6314362905
 20
402.8845568148
 30
0.0
 10
510.9919534312
 20
402.8787173245
 30
0.0
 10
511.2027792411
 20
402.8760248436999
 30
0.0
 10
511.3631334346
 20
402.8690764325999
 30
0.0
 10
511.4921508023
 20
402.8720847860999
 30
0.0
 10
511.5460047462999
 20
402.8561724094
 30
0.0
 10
511.5970271855999
 20
402.8660272827999
 30
0.0
 10
511.5970271855999
 20
402.8578451857
 30
0.0
  0
SPLINE
  5
43E
330
21A
100
AcDbEntity
  8
0
  6
Continuous
 62
     7
100
AcDbSpline
210
0.0
220
0.0
230
1.0
 70
     8
 71
     3
 72
     9
 73
     5
 74
     0
 42
0.0000000001
 43
0.0000000001
 40
0.0
 40
0.0
 40
0.0
 40
0.0
 40
0.2396853364
 40
1.0
 40
1.0
 40
1.0
 40
1.0
 10
598.4817139758
 20
402.8892285479
 30
0.0
 10
598.6005742212999
 20
402.8883754404
 30
0.0
 10
599.096474959
 20
402.8847520322
 30
0.0
 10
599.5923739863
 20
402.8808962284999
 30
0.0
 10
599.9694124381
 20
402.8778615314999
 30
0.0
  0
LINE
  5
43F
330
21A
100
AcDbEntity
  8
0
  6
Continuous
 62
     7
100
AcDbLine
 10
599.9694124381
 20
402.8778615314999
 30
0.0
 11
600.7515926587999
 21
402.8714185062999
 31
0.0
  0
SPLINE
  5
440
330
21A
100
AcDbEntity
  8
0
  6
Continuous
 62
     9
100
AcDbSpline
210
0.0
220
0.0
230
1.0
 70
     8
 71
     3
 72
    10
 73
     6
 74
     0
 42
0.0000000001
 43
0.0000000001
 40
0.0
 40
0.0
 40
0.0
 40
0.0
 40
0.1287476602
 40
0.3473896203
 40
1.0
 40
1.0
 40
1.0
 40
1.0
 10
603.6872837454
 20
409.7229062723999
 30
0.0
 10
603.6404047849999
 20
409.7229062723999
 30
0.0
 10
603.5315764426
 20
409.8221880278999
 30
0.0
 10
603.4129968137
 20
410.1610026333999
 30
0.0
 10
603.3782667509999
 20
410.4852810129
 30
0.0
 10
603.3782667509999
 20
410.7229062724
 30
0.0
  0
SPLINE
  5
441
330
21A
100
AcDbEntity
  8
0
  6
Continuous
 62
     9
100
AcDbSpline
210
0.0
220
0.0
230
1.0
 70
     8
 71
     3
 72
    10
 73
     6
 74
     0
 42
0.0000000001
 43
0.0000000001
 40
0.0
 40
0.0
 40
0.0
 40
0.0
 40
0.1287476588
 40
0.3473896204
 40
1.0
 40
1.0
 40
1.0
 40
1.0
 10
605.589396778
 20
409.7229062723999
 30
0.0
 10
605.5425178181
 20
409.7229062723999
 30
0.0
 10
605.4336894751998
 20
409.8221880269999
 30
0.0
 10
605.3151098466001
 20
410.1610026331999
 30
0.0
 10
605.2803797835999
 20
410.4852810129
 30
0.0
 10
605.2803797835999
 20
410.7229062724
 30
0.0
  0
SPLINE
  5
442
330
21A
100
AcDbEntity
  8
0
  6
Continuous
 62
     9
100
AcDbSpline
210
0.0
220
0.0
230
1.0
 70
     8
 71
     3
 72
    10
 73
     6
 74
     0
 42
0.0000000001
 43
0.0000000001
 40
0.0
 40
0.0
 40
0.0
 40
0.0
 40
0.1287476588
 40
0.3473896204
 40
1.0
 40
1.0
 40
1.0
 40
1.0
 10
409.5067706257999
 20
409.7229062723999
 30
0.0
 10
409.5536495858
 20
409.7229062723999
 30
0.0
 10
409.6624779286
 20
409.8221880269999
 30
0.0
 10
409.7810575572999
 20
410.1610026331999
 30
0.0
 10
409.8157876201999
 20
410.4852810129
 30
0.0
 10
409.8157876201999
 20
410.7229062724
 30
0.0
  0
SPLINE
  5
443
330
21A
100
AcDbEntity
  8
0
  6
Continuous
 62
     7
100
AcDbSpline
210
0.0
220
0.0
230
1.0
 70
     8
 71
     3
 72
    14
 73
    10
 74
     0
 42
0.0000000001
 43
0.0000000001
 40
0.0
 40
0.0
 40
0.0
 40
0.0
 40
0.0166056115
 40
0.0651442161
 40
0.1453824901
 40
0.2569184373
 40
0.3991620086
 40
0.571123703
 40
1.0
 40
1.0
 40
1.0
 40
1.0
 10
511.5970271855999
 20
402.8404132286
 30
0.0
 10
511.5970271855999
 20
402.8349090045999
 30
0.0
 10
511.5631121448
 20
402.8401415508999
 30
0.0
 10
511.5268316201
 20
402.8298928378999
 30
0.0
 10
511.4405680198
 20
402.8308584080999
 30
0.0
 10
511.3328152146999
 20
402.8258707928999
 30
0.0
 10
511.1906106608999
 20
402.8234378736
 30
0.0
 10
510.9448738987
 20
402.8187344613999
 30
0.0
 10
510.7454918291999
 20
402.8163239709
 30
0.0
 10
510.603342307
 20
402.8147135705999
 30
0.0
  0
SPLINE
  5
444
330
21A
100
AcDbEntity
  8
0
  6
Continuous
 62
     9
100
AcDbSpline
210
0.0
220
0.0
230
1.0
 70
     8
 71
     3
 72
    10
 73
     6
 74
     0
 42
0.0000000001
 43
0.0000000001
 40
0.0
 40
0.0
 40
0.0
 40
0.0
 40
0.1287476602
 40
0.3473896203
 40
1.0
 40
1.0
 40
1.0
 40
1.0
 10
407.6046575931999
 20
409.7229062723999
 30
0.0
 10
407.6515365537
 20
409.7229062723999
 30
0.0
 10
407.760364896
 20
409.8221880278999
 30
0.0
 10
407.8789445248999
 20
410.1610026333999
 30
0.0
 10
407.9136745876
 20
410.4852810129
 30
0.0
 10
407.9136745876
 20
410.7229062724
 30
0.0
  0
LINE
  5
445
330
21A
100
AcDbEntity
  8
0
  6
Continuous
 62
     7
100
AcDbLine
 10
502.5898311444
 20
402.8147235535
 30
0.0
 11
502.5038716273
 21
402.8157290405999
 31
0.0
  0
SPLINE
  5
446
330
21A
100
AcDbEntity
  8
0
  6
Continuous
 62
     7
100
AcDbSpline
210
0.0
220
0.0
230
1.0
 70
     8
 71
     3
 72
    14
 73
    10
 74
     0
 42
0.0000000001
 43
0.0000000001
 40
0.0
 40
0.0
 40
0.0
 40
0.0
 40
0.4295380861
 40
0.6014968153
 40
0.7435868564
 40
0.8549128156
 40
0.9349780927999999
 40
0.9834051148999998
 40
1.0
 40
1.0
 40
1.0
 40
1.0
 10
502.5038716273
 20
402.8157290405999
 30
0.0
 10
502.3739364982
 20
402.8172979220999
 30
0.0
 10
502.1917691244
 20
402.8196493644
 30
0.0
 10
501.9673406982
 20
402.8241592195
 30
0.0
 10
501.8376754201999
 20
402.8265514621
 30
0.0
 10
501.7394785408
 20
402.8311939269
 30
0.0
 10
501.6609526605
 20
402.8305799057999
 30
0.0
 10
501.6278493754
 20
402.8398283415
 30
0.0
 10
501.5970271856
 20
402.8353929154
 30
0.0
 10
501.5970271856
 20
402.8404132286
 30
0.0
  0
LINE
  5
447
330
21A
100
AcDbEntity
  8
0
  6
Continuous
 62
     7
100
AcDbLine
 10
379.7839581484
 20
397.7229062724
 30
0.0
 11
379.8374707424
 21
396.7229062724
 31
0.0
  0
LINE
  5
448
330
21A
100
AcDbEntity
  8
0
  6
Continuous
 62
     7
100
AcDbLine
 10
387.6331433009
 20
396.7229062724
 30
0.0
 11
387.6865699406
 21
397.7229062724
 31
0.0
  0
LINE
  5
449
330
21A
100
AcDbEntity
  8
AUSFORMSCHRAEGEN
  6
Continuous
 62
     7
100
AcDbLine
 10
628.0422781692999
 20
397.7229062724
 30
0.0
 11
627.9708534549
 21
396.7229062724
 31
0.0
  0
LINE
  5
44A
330
21A
100
AcDbEntity
  8
AUSFORMSCHRAEGEN
  6
Continuous
 62
     7
100
AcDbLine
 10
632.2003172005
 20
397.7229062724
 30
0.0
 11
632.2712693762
 21
396.7229062724
 31
0.0
  0
SPLINE
  5
44B
330
21A
100
AcDbEntity
  8
RUNDUNGEN
  6
Continuous
 62
     9
100
AcDbSpline
210
0.0
220
0.0
230
1.0
 70
     8
 71
     3
 72
     8
 73
     4
 74
     0
 42
0.0000000001
 43
0.0000000001
 40
0.0
 40
0.0
 40
0.0
 40
0.0
 40
1.0
 40
1.0
 40
1.0
 40
1.0
 10
494.1022962531
 20
398.2256388819
 30
0.0
 10
493.5346964512
 20
398.2600585237
 30
0.0
 10
492.9670761797
 20
398.2941433595
 30
0.0
 10
492.399430024
 20
398.327789888
 30
0.0
  0
SPLINE
  5
44C
330
21A
100
AcDbEntity
  8
RUNDUNGEN
  6
Continuous
 62
     9
100
AcDbSpline
210
0.0
220
0.0
230
1.0
 70
     8
 71
     3
 72
    12
 73
     8
 74
     0
 42
0.0000000001
 43
0.0000000001
 40
0.0
 40
0.0
 40
0.0
 40
0.0
 40
0.3591516107999999
 40
0.6680627852000001
 40
0.7904684579000002
 40
0.8866262706999998
 40
1.0
 40
1.0
 40
1.0
 40
1.0
 10
521.5272652044999
 20
398.3277889901001
 30
0.0
 10
521.5272652044999
 20
398.2014367641
 30
0.0
 10
521.5377251467999
 20
397.9659132962
 30
0.0
 10
521.5751754714999
 20
397.691040917
 30
0.0
 10
521.6243621352999
 20
397.5092781468
 30
0.0
 10
521.6651348532
 20
397.4055484618
 30
0.0
 10
521.7167042455001
 20
397.3309173428
 30
0.0
 10
521.7564787894999
 20
397.3279412949
 30
0.0
  0
SPLINE
  5
44D
330
21A
100
AcDbEntity
  8
RUNDUNGEN
  6
Continuous
 62
     9
100
AcDbSpline
210
0.0
220
0.0
230
1.0
 70
     8
 71
     3
 72
    11
 73
     7
 74
     0
 42
0.0000000001
 43
0.0000000001
 40
0.0
 40
0.0
 40
0.0
 40
0.0
 40
0.2458850839
 40
0.4943968138
 40
0.7461819897
 40
1.0
 40
1.0
 40
1.0
 40
1.0
 10
521.7564787894999
 20
397.3279412949
 30
0.0
 10
521.6312241544999
 20
397.3290206545
 30
0.0
 10
521.3770103887999
 20
397.3834338437
 30
0.0
 10
521.0581812345
 20
397.6076319942
 30
0.0
 10
520.8454157259999
 20
397.9384895983999
 30
0.0
 10
520.795137041
 20
398.1984895134
 30
0.0
 10
520.7946243472999
 20
398.3277889901001
 30
0.0
  0
SPLINE
  5
44E
330
21A
100
AcDbEntity
  8
RUNDUNGEN
  6
Continuous
 62
     9
100
AcDbSpline
210
0.0
220
0.0
230
1.0
 70
     8
 71
     3
 72
    11
 73
     7
 74
     0
 42
0.0000000001
 43
0.0000000001
 40
0.0
 40
0.0
 40
0.0
 40
0.0
 40
0.2656954463
 40
0.5198706392
 40
0.7630825436
 40
1.0
 40
1.0
 40
1.0
 40
1.0
 10
519.0917609148
 20
398.2256397854
 30
0.0
 10
519.0911411083
 20
398.0740308939
 30
0.0
 10
519.1772982508999
 20
397.7719045853
 30
0.0
 10
519.4910586167
 20
397.4516610642
 30
0.0
 10
519.8787881844
 20
397.2748164657
 30
0.0
 10
520.1546428859
 20
397.2392033819001
 30
0.0
 10
520.2898291476999
 20
397.2400587177
 30
0.0
  0
SPLINE
  5
44F
330
21A
100
AcDbEntity
  8
RUNDUNGEN
  6
Continuous
 62
     9
100
AcDbSpline
210
0.0
220
0.0
230
1.0
 70
     8
 71
     3
 72
    12
 73
     8
 74
     0
 42
0.0000000001
 43
0.0000000001
 40
0.0
 40
0.0
 40
0.0
 40
0.0
 40
0.041883362
 40
0.1081172053
 40
0.325331636
 40
0.6367726156
 40
1.0
 40
1.0
 40
1.0
 40
1.0
 10
520.2898291418001
 20
397.2400567045
 30
0.0
 10
520.3043364413999
 20
397.2387618471
 30
0.0
 10
520.3373049558999
 20
397.2133922648
 30
0.0
 10
520.3885864216
 20
397.112864808
 30
0.0
 10
520.4372893996
 20
396.9090129785
 30
0.0
 10
520.4735869913999
 20
396.6015248654
 30
0.0
 10
520.4819787944
 20
396.3665216134
 30
0.0
 10
520.4819787985
 20
396.2402090093
 30
0.0
  0
LINE
  5
450
330
21A
100
AcDbEntity
  8
RUNDUNGEN
  6
Continuous
 62
     9
100
AcDbLine
 10
492.3942267094
 20
381.698361084
 30
0.0
 11
492.3982589594
 21
385.1346008569
 31
0.0
  0
SPLINE
  5
451
330
21A
100
AcDbEntity
  8
RUNDUNGEN
  6
Continuous
 62
     9
100
AcDbSpline
210
0.0
220
0.0
230
1.0
 70
     8
 71
     3
 72
    12
 73
     8
 74
     0
 42
0.0000000001
 43
0.0000000001
 40
0.0
 40
0.0
 40
0.0
 40
0.0
 40
0.3632273844
 40
0.6746683640000001
 40
0.8918827947
 40
0.958116638
 40
1.0
 40
1.0
 40
1.0
 40
1.0
 10
492.7120755726999
 20
396.2402090093
 30
0.0
 10
492.7120755769
 20
396.3665216134
 30
0.0
 10
492.7204673801
 20
396.6015248654
 30
0.0
 10
492.7567649722
 20
396.9090129785
 30
0.0
 10
492.8054679503
 20
397.112864808
 30
0.0
 10
492.8567494159999
 20
397.2133922648
 30
0.0
 10
492.8897179305
 20
397.2387618471
 30
0.0
 10
492.9042252301
 20
397.2400567045
 30
0.0
  0
SPLINE
  5
452
330
21A
100
AcDbEntity
  8
RUNDUNGEN
  6
Continuous
 62
     9
100
AcDbSpline
210
0.0
220
0.0
230
1.0
 70
     8
 71
     3
 72
    11
 73
     7
 74
     0
 42
0.0000000001
 43
0.0000000001
 40
0.0
 40
0.0
 40
0.0
 40
0.0
 40
0.236917456
 40
0.4801293608
 40
0.7343045534
 40
1.0
 40
1.0
 40
1.0
 40
1.0
 10
492.904225224
 20
397.2400587193
 30
0.0
 10
493.0394114854
 20
397.239203383
 30
0.0
 10
493.3152661871
 20
397.2748164639
 30
0.0
 10
493.7029957554
 20
397.4516610617
 30
0.0
 10
494.01675612
 20
397.771904583
 30
0.0
 10
494.1029132644
 20
398.0740308918
 30
0.0
 10
494.1022934555999
 20
398.2256397834
 30
0.0
  0
SPLINE
  5
453
330
21A
100
AcDbEntity
  8
RUNDUNGEN
  6
Continuous
 62
     9
100
AcDbSpline
210
0.0
220
0.0
230
1.0
 70
     8
 71
     3
 72
    11
 73
     7
 74
     0
 42
0.0000000001
 43
0.0000000001
 40
0.0
 40
0.0
 40
0.0
 40
0.0
 40
0.253817659
 40
0.5056045588
 40
0.7541220335
 40
1.0
 40
1.0
 40
1.0
 40
1.0
 10
492.399430024
 20
398.3277889901001
 30
0.0
 10
492.3988018980999
 20
398.1984902317
 30
0.0
 10
492.3486997319
 20
397.9384880547
 30
0.0
 10
492.1358571215
 20
397.6076262749
 30
0.0
 10
491.817041196
 20
397.3834505123
 30
0.0
 10
491.5628267420999
 20
397.3289994963
 30
0.0
 10
491.4375755817999
 20
397.3279412949
 30
0.0
  0
SPLINE
  5
454
330
21A
100
AcDbEntity
  8
RUNDUNGEN
  6
Continuous
 62
     9
100
AcDbSpline
210
0.0
220
0.0
230
1.0
 70
     8
 71
     3
 72
    12
 73
     8
 74
     0
 42
0.0000000001
 43
0.0000000001
 40
0.0
 40
0.0
 40
0.0
 40
0.0
 40
0.113374482
 40
0.2095325151
 40
0.331938371
 40
0.6408497151
 40
1.0
 40
1.0
 40
1.0
 40
1.0
 10
491.4375755817999
 20
397.3279412949
 30
0.0
 10
491.4773503884999
 20
397.3309173625
 30
0.0
 10
491.5289198761
 20
397.4055490518
 30
0.0
 10
491.5696925123
 20
397.5092791478
 30
0.0
 10
491.6188791650999
 20
397.6910421325
 30
0.0
 10
491.6563292495999
 20
397.9659141883999
 30
0.0
 10
491.6667891667
 20
398.2014372347
 30
0.0
 10
491.6667891667
 20
398.3277889901001
 30
0.0
  0
SPLINE
  5
455
330
21A
100
AcDbEntity
  8
RUNDUNGEN
  6
Continuous
 62
     9
100
AcDbSpline
210
0.0
220
0.0
230
1.0
 70
     8
 71
     3
 72
    12
 73
     8
 74
     0
 42
0.0000000001
 43
0.0000000001
 40
0.0
 40
0.0
 40
0.0
 40
0.0
 40
0.3618030839
 40
0.6718765565000001
 40
0.7939761124000001
 40
0.8891981771999999
 40
1.0
 40
1.0
 40
1.0
 40
1.0
 10
521.5272652041
 20
401.7229062723999
 30
0.0
 10
521.5272652041
 20
401.850607566
 30
0.0
 10
521.5380118850999
 20
402.0882641525
 30
0.0
 10
521.5759144516
 20
402.365182804
 30
0.0
 10
521.6264700487999
 20
402.5473846598999
 30
0.0
 10
521.6670072844
 20
402.6497418831
 30
0.0
 10
521.7214417835999
 20
402.7229062724
 30
0.0
 10
521.7605501736
 20
402.7229062724
 30
0.0
  0
SPLINE
  5
456
330
21A
100
AcDbEntity
  8
RUNDUNGEN
  6
Continuous
 62
     9
100
AcDbSpline
210
0.0
220
0.0
230
1.0
 70
     8
 71
     3
 72
    11
 73
     7
 74
     0
 42
0.0000000001
 43
0.0000000001
 40
0.0
 40
0.0
 40
0.0
 40
0.0
 40
0.253995751
 40
0.5056602350000001
 40
0.7540093307
 40
1.0
 40
1.0
 40
1.0
 40
1.0
 10
520.7946243472999
 20
401.7229062723999
 30
0.0
 10
520.7946243472999
 20
401.8528036042
 30
0.0
 10
520.8443035423999
 20
402.1141037381999
 30
0.0
 10
521.0579840213999
 20
402.4463524326999
 30
0.0
 10
521.3790389158
 20
402.6702166126999
 30
0.0
 10
521.6347467637
 20
402.7229062724
 30
0.0
 10
521.7605501736
 20
402.7229062724
 30
0.0
  0
SPLINE
  5
457
330
21A
100
AcDbEntity
  8
RUNDUNGEN
  6
Continuous
 62
     9
100
AcDbSpline
210
0.0
220
0.0
230
1.0
 70
     8
 71
     3
 72
    11
 73
     7
 74
     0
 42
0.0000000001
 43
0.0000000001
 40
0.0
 40
0.0
 40
0.0
 40
0.0
 40
0.2539963966
 40
0.5056606423
 40
0.7540095291
 40
1.0
 40
1.0
 40
1.0
 40
1.0
 10
519.0917581180999
 20
401.7229062723999
 30
0.0
 10
519.0917581180999
 20
401.8528039357
 30
0.0
 10
519.1414374498999
 20
402.1141043106999
 30
0.0
 10
519.3551182807
 20
402.4463528869
 30
0.0
 10
519.6761729991
 20
402.6702167003
 30
0.0
 10
519.9318806344999
 20
402.7229062724
 30
0.0
 10
520.0576839443
 20
402.7229062724
 30
0.0
  0
SPLINE
  5
458
330
21A
100
AcDbEntity
  8
RUNDUNGEN
  6
Continuous
 62
     9
100
AcDbSpline
210
0.0
220
0.0
230
1.0
 70
     8
 71
     3
 72
    12
 73
     8
 74
     0
 42
0.0000000001
 43
0.0000000001
 40
0.0
 40
0.0
 40
0.0
 40
0.0
 40
0.3700503259
 40
0.6854682112
 40
0.9012368143999999
 40
0.9638201553
 40
1.0
 40
1.0
 40
1.0
 40
1.0
 10
518.2905295075999
 20
401.7229062723999
 30
0.0
 10
518.2905295075999
 20
401.8505390482999
 30
0.0
 10
518.2978820983
 20
402.0873534759999
 30
0.0
 10
518.3282958806
 20
402.3958758431
 30
0.0
 10
518.3708741919
 20
402.5992081507999
 30
0.0
 10
518.4128723843
 20
402.6977344657
 30
0.0
 10
518.4427480586
 20
402.7229062724
 30
0.0
 10
518.4552267233999
 20
402.7229062724
 30
0.0
  0
SPLINE
  5
459
330
21A
100
AcDbEntity
  8
RUNDUNGEN
  6
Continuous
 62
     9
100
AcDbSpline
210
0.0
220
0.0
230
1.0
 70
     8
 71
     3
 72
    12
 73
     8
 74
     0
 42
0.0000000001
 43
0.0000000001
 40
0.0
 40
0.0
 40
0.0
 40
0.0
 40
0.3700503257999999
 40
0.6854682111
 40
0.9012368142999999
 40
0.9638201551999999
 40
1.0
 40
1.0
 40
1.0
 40
1.0
 10
494.9035248634999
 20
401.7229062723999
 30
0.0
 10
494.9035248634999
 20
401.8505390482999
 30
0.0
 10
494.896172273
 20
402.0873534758999
 30
0.0
 10
494.8657584907
 20
402.3958758431
 30
0.0
 10
494.8231801792999
 20
402.5992081507999
 30
0.0
 10
494.7811819869
 20
402.6977344658
 30
0.0
 10
494.7513063125
 20
402.7229062724
 30
0.0
 10
494.7388276476
 20
402.7229062724
 30
0.0
  0
SPLINE
  5
45A
330
21A
100
AcDbEntity
  8
RUNDUNGEN
  6
Continuous
 62
     9
100
AcDbSpline
210
0.0
220
0.0
230
1.0
 70
     8
 71
     3
 72
    11
 73
     7
 74
     0
 42
0.0000000001
 43
0.0000000001
 40
0.0
 40
0.0
 40
0.0
 40
0.0
 40
0.2539963967
 40
0.5056606423
 40
0.7540095289000001
 40
1.0
 40
1.0
 40
1.0
 40
1.0
 10
494.1022962531
 20
401.7229062723999
 30
0.0
 10
494.1022962531
 20
401.8528039357
 30
0.0
 10
494.0526169213
 20
402.1141043108
 30
0.0
 10
493.8389360905
 20
402.4463528869
 30
0.0
 10
493.5178813722
 20
402.6702167003
 30
0.0
 10
493.2621737366999
 20
402.7229062724
 30
0.0
 10
493.1363704268
 20
402.7229062724
 30
0.0
  0
SPLINE
  5
45B
330
21A
100
AcDbEntity
  8
RUNDUNGEN
  6
Continuous
 62
     9
100
AcDbSpline
210
0.0
220
0.0
230
1.0
 70
     8
 71
     3
 72
    11
 73
     7
 74
     0
 42
0.0000000001
 43
0.0000000001
 40
0.0
 40
0.0
 40
0.0
 40
0.0
 40
0.2539957511
 40
0.5056602351000001
 40
0.7540093306
 40
1.0
 40
1.0
 40
1.0
 40
1.0
 10
492.399430024
 20
401.7229062723999
 30
0.0
 10
492.399430024
 20
401.8528036042
 30
0.0
 10
492.3497508287
 20
402.1141037382999
 30
0.0
 10
492.1360703497
 20
402.4463524326
 30
0.0
 10
491.8150154553999
 20
402.6702166126999
 30
0.0
 10
491.5593076076
 20
402.7229062724
 30
0.0
 10
491.4335041976999
 20
402.7229062724
 30
0.0
  0
LINE
  5
45C
330
21A
100
AcDbEntity
  8
RUNDUNGEN
  6
Continuous
 62
     9
100
AcDbLine
 10
492.6785127741
 20
385.1346008569
 30
0.0
 11
493.592585897
 21
385.1893580943
 31
0.0
  0
SPLINE
  5
45D
330
21A
100
AcDbEntity
  8
RUNDUNGEN
  6
Continuous
 62
     9
100
AcDbSpline
210
0.0
220
0.0
230
1.0
 70
     8
 71
     3
 72
    12
 73
     8
 74
     0
 42
0.0000000001
 43
0.0000000001
 40
0.0
 40
0.0
 40
0.0
 40
0.0
 40
0.3618030839
 40
0.6718765566
 40
0.7939761124000001
 40
0.8891981773000001
 40
1.0
 40
1.0
 40
1.0
 40
1.0
 10
491.6667891667
 20
401.7229062723999
 30
0.0
 10
491.6667891667
 20
401.850607566
 30
0.0
 10
491.6560424862999
 20
402.0882641525
 30
0.0
 10
491.6181399196999
 20
402.3651828041
 30
0.0
 10
491.5675843224
 20
402.5473846598999
 30
0.0
 10
491.5270470869
 20
402.6497418831
 30
0.0
 10
491.4726125876
 20
402.7229062724
 30
0.0
 10
491.4335041976999
 20
402.7229062724
 30
0.0
  0
SPLINE
  5
45E
330
21A
100
AcDbEntity
  8
RUNDUNGEN
  6
Continuous
 62
     9
100
AcDbSpline
210
0.0
220
0.0
230
1.0
 70
     8
 71
     3
 72
     8
 73
     4
 74
     0
 42
0.0000000001
 43
0.0000000001
 40
0.0
 40
0.0
 40
0.0
 40
0.0
 40
1.0
 40
1.0
 40
1.0
 40
1.0
 10
520.7946243472999
 20
398.3277895804
 30
0.0
 10
520.2269781925999
 20
398.2941430528
 30
0.0
 10
519.6593579191
 20
398.2600582662
 30
0.0
 10
519.0917581180999
 20
398.225638625
 30
0.0
  0
LINE
  5
45F
330
21A
100
AcDbEntity
  8
RUNDUNGEN
  6
Continuous
 62
     9
100
AcDbLine
 10
519.6014685301999
 20
385.1893579304
 30
0.0
 11
520.5155415972
 21
385.1346008569
 31
0.0
  0
SPLINE
  5
460
330
21A
100
AcDbEntity
  8
RUNDUNGEN
  6
Continuous
 62
     9
100
AcDbSpline
210
0.0
220
0.0
230
1.0
 70
     8
 71
     3
 72
    11
 73
     7
 74
     0
 42
0.0000000001
 43
0.0000000001
 40
0.0
 40
0.0
 40
0.0
 40
0.0
 40
0.2538578784
 40
0.5054886049000001
 40
0.7537676594000001
 40
1.0
 40
1.0
 40
1.0
 40
1.0
 10
520.5155415972
 20
385.1346008569
 30
0.0
 10
520.5158971443999
 20
385.2645529172
 30
0.0
 10
520.5662143130999
 20
385.525863538
 30
0.0
 10
520.7804186439
 20
385.8580054347001
 30
0.0
 10
521.1018944041
 20
386.0820424672001
 30
0.0
 10
521.3579776697001
 20
386.1346008569
 30
0.0
 10
521.4840266223999
 20
386.1346008569
 30
0.0
  0
SPLINE
  5
461
330
21A
100
AcDbEntity
  8
RUNDUNGEN
  6
Continuous
 62
     9
100
AcDbSpline
210
0.0
220
0.0
230
1.0
 70
     8
 71
     3
 72
     9
 73
     5
 74
     0
 42
0.0000000001
 43
0.0000000001
 40
0.0
 40
0.0
 40
0.0
 40
0.0
 40
0.1408941789
 40
1.0
 40
1.0
 40
1.0
 40
1.0
 10
520.7998276348
 20
381.6983868194
 30
0.0
 10
520.8342245989999
 20
381.6989894385
 30
0.0
 10
521.0783888647999
 20
381.7012274818
 30
0.0
 10
521.3225588171
 20
381.7019048151
 30
0.0
 10
521.532326843
 20
381.7023713827
 30
0.0
  0
SPLINE
  5
462
330
21A
100
AcDbEntity
  8
RUNDUNGEN
  6
Continuous
 62
     9
100
AcDbSpline
210
0.0
220
0.0
230
1.0
 70
     8
 71
     3
 72
     9
 73
     5
 74
     0
 42
0.0000000001
 43
0.0000000001
 40
0.0
 40
0.0
 40
0.0
 40
0.0
 40
0.4511820923
 40
1.0
 40
1.0
 40
1.0
 40
1.0
 10
493.1201224785
 20
380.6279798177
 30
0.0
 10
493.1480606816999
 20
380.516072968
 30
0.0
 10
493.1835335541999
 20
380.2617960661
 30
0.0
 10
493.1948353256999
 20
380.0062214218
 30
0.0
 10
493.194952798
 20
379.8659199380001
 30
0.0
  0
SPLINE
  5
463
330
21A
100
AcDbEntity
  8
RUNDUNGEN
  6
Continuous
 62
     9
100
AcDbSpline
210
0.0
220
0.0
230
1.0
 70
     8
 71
     3
 72
    11
 73
     7
 74
     0
 42
0.0000000001
 43
0.0000000001
 40
0.0
 40
0.0
 40
0.0
 40
0.0
 40
0.2538018663
 40
0.5054457834
 40
0.7538064220999999
 40
1.0
 40
1.0
 40
1.0
 40
1.0
 10
492.6785127741
 20
385.1346008569
 30
0.0
 10
492.6783439739
 20
385.2645372002
 30
0.0
 10
492.6281839579
 20
385.5259395893
 30
0.0
 10
492.4137746291
 20
385.858047153
 30
0.0
 10
492.0921806044999
 20
386.0819890103
 30
0.0
 10
491.8360690608999
 20
386.1346008569
 30
0.0
 10
491.7100277488
 20
386.1346008569
 30
0.0
  0
SPLINE
  5
464
330
21A
100
AcDbEntity
  8
RUNDUNGEN
  6
Continuous
 62
     9
100
AcDbSpline
210
0.0
220
0.0
230
1.0
 70
     8
 71
     3
 72
    11
 73
     7
 74
     0
 42
0.0000000001
 43
0.0000000001
 40
0.0
 40
0.0
 40
0.0
 40
0.0
 40
0.1408914839
 40
0.366082059
 40
0.6594246977
 40
1.0
 40
1.0
 40
1.0
 40
1.0
 10
492.3982589594
 20
385.1346008569
 30
0.0
 10
492.3638959459999
 20
385.1363369385
 30
0.0
 10
492.2744292338999
 20
385.1350678452
 30
0.0
 10
492.1134377345
 20
385.1373206812001
 30
0.0
 10
491.9036285387999
 20
385.1386180123
 30
0.0
 10
491.7488055710999
 20
385.1370478131
 30
0.0
 10
491.6656485406
 20
385.1385854203
 30
0.0
  0
SPLINE
  5
465
330
21A
100
AcDbEntity
  8
RUNDUNGEN
  6
Continuous
 62
     9
100
AcDbSpline
210
0.0
220
0.0
230
1.0
 70
     8
 71
     3
 72
    10
 73
     6
 74
     0
 42
0.0000000001
 43
0.0000000001
 40
0.0
 40
0.0
 40
0.0
 40
0.0
 40
0.5827441374
 40
0.8204494443999999
 40
1.0
 40
1.0
 40
1.0
 40
1.0
 10
491.6656485406
 20
385.1385854203
 30
0.0
 10
491.6654838064999
 20
385.3157808389
 30
0.0
 10
491.6515195926
 20
385.566235099
 30
0.0
 10
491.595599298
 20
385.8651729404
 30
0.0
 10
491.5571254541999
 20
385.9871210998
 30
0.0
 10
491.5332500601
 20
386.0362199619999
 30
0.0
  0
SPLINE
  5
466
330
21A
100
AcDbEntity
  8
RUNDUNGEN
  6
Continuous
 62
     9
100
AcDbSpline
210
0.0
220
0.0
230
1.0
 70
     8
 71
     3
 72
     9
 73
     5
 74
     0
 42
0.0000000001
 43
0.0000000001
 40
0.0
 40
0.0
 40
0.0
 40
0.0
 40
0.3403442564
 40
1.0
 40
1.0
 40
1.0
 40
1.0
 10
491.5332500601
 20
386.0362199619999
 30
0.0
 10
491.5261116008999
 20
386.0508999385
 30
0.0
 10
491.5043648124999
 20
386.0915529602999
 30
0.0
 10
491.4639715227999
 20
386.1346008569
 30
0.0
 10
491.4323331330999
 20
386.1346008569
 30
0.0
  0
SPLINE
  5
467
330
21A
100
AcDbEntity
  8
RUNDUNGEN
  6
Continuous
 62
     9
100
AcDbSpline
210
0.0
220
0.0
230
1.0
 70
     8
 71
     3
 72
    11
 73
     7
 74
     0
 42
0.0000000001
 43
0.0000000001
 40
0.0
 40
0.0
 40
0.0
 40
0.0
 40
0.2459904711
 40
0.4943393577000001
 40
0.7460036033
 40
1.0
 40
1.0
 40
1.0
 40
1.0
 10
491.4323331330999
 20
386.1346008569
 30
0.0
 10
491.558136443
 20
386.1346008569
 30
0.0
 10
491.8138440784999
 20
386.0819112847
 30
0.0
 10
492.1348987968
 20
385.8580474714
 30
0.0
 10
492.3485796276
 20
385.5257988953
 30
0.0
 10
492.3982589594
 20
385.2644985202
 30
0.0
 10
492.3982589594
 20
385.1346008569
 30
0.0
  0
SPLINE
  5
468
330
21A
100
AcDbEntity
  8
RUNDUNGEN
  6
Continuous
 62
     9
100
AcDbSpline
210
0.0
220
0.0
230
1.0
 70
     8
 71
     3
 72
     9
 73
     5
 74
     0
 42
0.0000000001
 43
0.0000000001
 40
0.0
 40
0.0
 40
0.0
 40
0.0
 40
0.3405775056
 40
1.0
 40
1.0
 40
1.0
 40
1.0
 10
491.6617277973999
 20
381.7023713875
 30
0.0
 10
491.7448864855
 20
381.7021864256
 30
0.0
 10
491.9890515908999
 20
381.7012567356
 30
0.0
 10
492.2332398043
 20
381.7012072215
 30
0.0
 10
492.3942264537999
 20
381.6983868196
 30
0.0
  0
SPLINE
  5
469
330
21A
100
AcDbEntity
  8
RUNDUNGEN
  6
Continuous
 62
     9
100
AcDbSpline
210
0.0
220
0.0
230
1.0
 70
     8
 71
     3
 72
    13
 73
     9
 74
     0
 42
0.0000000001
 43
0.0000000001
 40
0.0
 40
0.0
 40
0.0
 40
0.0
 40
0.2481867048
 40
0.3748245398
 40
0.5033379346000001
 40
0.6329387670000001
 40
0.7606665165000001
 40
1.0
 40
1.0
 40
1.0
 40
1.0
 10
492.3942264537999
 20
381.6983868196
 30
0.0
 10
492.3825416194
 20
381.5723096297
 30
0.0
 10
492.3787114821
 20
381.3795926163
 30
0.0
 10
492.4187858247
 20
381.1252155073
 30
0.0
 10
492.4812323697
 20
380.9378031698999
 30
0.0
 10
492.5882836391999
 20
380.7691316814
 30
0.0
 10
492.7955122488
 20
380.6115669455
 30
0.0
 10
493.0005503063999
 20
380.6032593843
 30
0.0
 10
493.1201224720999
 20
380.6279801494
 30
0.0
  0
SPLINE
  5
46A
330
21A
100
AcDbEntity
  8
RUNDUNGEN
  6
Continuous
 62
     9
100
AcDbSpline
210
0.0
220
0.0
230
1.0
 70
     8
 71
     3
 72
     9
 73
     5
 74
     0
 42
0.0000000001
 43
0.0000000001
 40
0.0
 40
0.0
 40
0.0
 40
0.0
 40
0.2831999537
 40
1.0
 40
1.0
 40
1.0
 40
1.0
 10
494.2528876623
 20
385.9231694873
 30
0.0
 10
494.2033746105
 20
385.9090085849
 30
0.0
 10
494.02632777
 20
385.8719539039
 30
0.0
 10
493.829226332
 20
385.8895616018
 30
0.0
 10
493.7150989462999
 20
385.9525299492
 30
0.0
  0
SPLINE
  5
46B
330
21A
100
AcDbEntity
  8
RUNDUNGEN
  6
Continuous
 62
     9
100
AcDbSpline
210
0.0
220
0.0
230
1.0
 70
     8
 71
     3
 72
    13
 73
     9
 74
     0
 42
0.0000000001
 43
0.0000000001
 40
0.0
 40
0.0
 40
0.0
 40
0.0
 40
0.053227158
 40
0.1307302494
 40
0.2321519979
 40
0.3552127264
 40
0.6544867258
 40
1.0
 40
1.0
 40
1.0
 40
1.0
 10
493.7150989462999
 20
385.9525299492
 30
0.0
 10
493.7154671303999
 20
385.9681717368
 30
0.0
 10
493.7277208248999
 20
386.0055445627
 30
0.0
 10
493.7558858468
 20
386.0673047508
 30
0.0
 10
493.7984710655999
 20
386.1454619842
 30
0.0
 10
493.8800097362999
 20
386.2760143792
 30
0.0
 10
494.0092638739
 20
386.4613427962
 30
0.0
 10
494.1275771266
 20
386.6094651367
 30
0.0
 10
494.190468274
 20
386.6892139304
 30
0.0
  0
SPLINE
  5
46C
330
21A
100
AcDbEntity
  8
RUNDUNGEN
  6
Continuous
 62
     9
100
AcDbSpline
210
0.0
220
0.0
230
1.0
 70
     8
 71
     3
 72
     9
 73
     5
 74
     0
 42
0.0000000001
 43
0.0000000001
 40
0.0
 40
0.0
 40
0.0
 40
0.0
 40
0.4503299493
 40
1.0
 40
1.0
 40
1.0
 40
1.0
 10
494.2528876623
 20
385.9231694873
 30
0.0
 10
494.2293402973
 20
386.0362435125
 30
0.0
 10
494.1998147480999
 20
386.2918089129
 30
0.0
 10
494.190468274
 20
386.5482355116
 30
0.0
 10
494.190468274
 20
386.6892139304
 30
0.0
  0
SPLINE
  5
46D
330
21A
100
AcDbEntity
  8
RUNDUNGEN
  6
Continuous
 62
     9
100
AcDbSpline
210
0.0
220
0.0
230
1.0
 70
     8
 71
     3
 72
     9
 73
     5
 74
     0
 42
0.0000000001
 43
0.0000000001
 40
0.0
 40
0.0
 40
0.0
 40
0.0
 40
0.4702936746
 40
1.0
 40
1.0
 40
1.0
 40
1.0
 10
493.5925856492
 20
385.1893574423
 30
0.0
 10
493.6286268439999
 20
385.0059997116001
 30
0.0
 10
493.8661932768
 20
384.6488005008
 30
0.0
 10
494.2396834635999
 20
384.4693112959
 30
0.0
 10
494.4450689686
 20
384.4233132756
 30
0.0
  0
SPLINE
  5
46E
330
21A
100
AcDbEntity
  8
RUNDUNGEN
  6
Continuous
 62
     9
100
AcDbSpline
210
0.0
220
0.0
230
1.0
 70
     8
 71
     3
 72
    11
 73
     7
 74
     0
 42
0.0000000001
 43
0.0000000001
 40
0.0
 40
0.0
 40
0.0
 40
0.0
 40
0.2696260515
 40
0.5111623778000001
 40
0.7521140326000002
 40
1.0
 40
1.0
 40
1.0
 40
1.0
 10
493.7151023745999
 20
385.9525301563
 30
0.0
 10
493.7529500209
 20
385.8901380664
 30
0.0
 10
493.7922653954
 20
385.7505704098
 30
0.0
 10
493.7668891868
 20
385.5459795197
 30
0.0
 10
493.6969698479
 20
385.3597684154
 30
0.0
 10
493.6299955473999
 20
385.2450493409
 30
0.0
 10
493.5925856492
 20
385.1893574423
 30
0.0
  0
SPLINE
  5
46F
330
21A
100
AcDbEntity
  8
RUNDUNGEN
  6
Continuous
 62
     9
100
AcDbSpline
210
0.0
220
0.0
230
1.0
 70
     8
 71
     3
 72
     9
 73
     5
 74
     0
 42
0.0000000001
 43
0.0000000001
 40
0.0
 40
0.0
 40
0.0
 40
0.0
 40
0.2469335833
 40
1.0
 40
1.0
 40
1.0
 40
1.0
 10
492.904225225
 20
386.2057539063
 30
0.0
 10
492.9747932655
 20
386.2062004037
 30
0.0
 10
493.2599264497
 20
386.1882457654
 30
0.0
 10
493.5429366769999
 20
386.0816696939
 30
0.0
 10
493.7150979473
 20
385.9525285888
 30
0.0
  0
SPLINE
  5
470
330
21A
100
AcDbEntity
  8
RUNDUNGEN
  6
Continuous
 62
     9
100
AcDbSpline
210
0.0
220
0.0
230
1.0
 70
     8
 71
     3
 72
    12
 73
     8
 74
     0
 42
0.0000000001
 43
0.0000000001
 40
0.0
 40
0.0
 40
0.0
 40
0.0
 40
0.3632273854999999
 40
0.674668367
 40
0.8918828000000001
 40
0.9581166426999999
 40
1.0
 40
1.0
 40
1.0
 40
1.0
 10
492.7120755726999
 20
387.2056035355999
 30
0.0
 10
492.7120755726
 20
387.0792909314
 30
0.0
 10
492.7204673729
 20
386.8442876785
 30
0.0
 10
492.7567649713999
 20
386.5367995654001
 30
0.0
 10
492.8054679579999
 20
386.3329477359
 30
0.0
 10
492.8567494226999
 20
386.2324202823001
 30
0.0
 10
492.8897179333
 20
386.2070506977
 30
0.0
 10
492.9042252310999
 20
386.2057558404
 30
0.0
  0
SPLINE
  5
471
330
21A
100
AcDbEntity
  8
RUNDUNGEN
  6
Continuous
 62
     9
100
AcDbSpline
210
0.0
220
0.0
230
1.0
 70
     8
 71
     3
 72
     9
 73
     5
 74
     0
 42
0.0000000001
 43
0.0000000001
 40
0.0
 40
0.0
 40
0.0
 40
0.0
 40
0.5488179073000001
 40
1.0
 40
1.0
 40
1.0
 40
1.0
 10
519.9991015732
 20
379.8659199380001
 30
0.0
 10
519.9992190438999
 20
380.0062214217
 30
0.0
 10
520.010520814
 20
380.2617960662999
 30
0.0
 10
520.045993688
 20
380.5160729682
 30
0.0
 10
520.0739318926999
 20
380.6279798177
 30
0.0
  0
SPLINE
  5
472
330
21A
100
AcDbEntity
  8
RUNDUNGEN
  6
Continuous
 62
     9
100
AcDbSpline
210
0.0
220
0.0
230
1.0
 70
     8
 71
     3
 72
    13
 73
     9
 74
     0
 42
0.0000000001
 43
0.0000000001
 40
0.0
 40
0.0
 40
0.0
 40
0.0
 40
0.2393341027
 40
0.3670617344
 40
0.4966624156
 40
0.6251756719000001
 40
0.7518134231
 40
1.0
 40
1.0
 40
1.0
 40
1.0
 10
520.0739318998
 20
380.6279801454
 30
0.0
 10
520.1935043826999
 20
380.6032593559
 30
0.0
 10
520.39854281
 20
380.6115670414
 30
0.0
 10
520.6057712859999
 20
380.7691322508
 30
0.0
 10
520.7128222226
 20
380.9378036766
 30
0.0
 10
520.7752686474
 20
381.1252158479
 30
0.0
 10
520.8153428271999
 20
381.3795927965
 30
0.0
 10
520.8115127882999
 20
381.5723096994
 30
0.0
 10
520.7998279106999
 20
381.6983868194
 30
0.0
  0
SPLINE
  5
473
330
21A
100
AcDbEntity
  8
RUNDUNGEN
  6
Continuous
 62
     9
100
AcDbSpline
210
0.0
220
0.0
230
1.0
 70
     8
 71
     3
 72
     9
 73
     5
 74
     0
 42
0.0000000001
 43
0.0000000001
 40
0.0
 40
0.0
 40
0.0
 40
0.0
 40
0.3405749359
 40
1.0
 40
1.0
 40
1.0
 40
1.0
 10
521.5284058306999
 20
385.1385854203
 30
0.0
 10
521.4452350824
 20
385.1384004382
 30
0.0
 10
521.2010327230999
 20
385.1374706807
 30
0.0
 10
520.9568072578999
 20
385.1374212927
 30
0.0
 10
520.7957954118
 20
385.1346008569
 30
0.0
  0
SPLINE
  5
474
330
21A
100
AcDbEntity
  8
RUNDUNGEN
  6
Continuous
 62
     9
100
AcDbSpline
210
0.0
220
0.0
230
1.0
 70
     8
 71
     3
 72
    11
 73
     7
 74
     0
 42
0.0000000001
 43
0.0000000001
 40
0.0
 40
0.0
 40
0.0
 40
0.0
 40
0.253995741
 40
0.5056602269
 40
0.7540093256999999
 40
1.0
 40
1.0
 40
1.0
 40
1.0
 10
520.7957954118
 20
385.1346008569
 30
0.0
 10
520.7957954118
 20
385.2644981835
 30
0.0
 10
520.8454746045999
 20
385.525798313
 30
0.0
 10
521.0591550772
 20
385.8580470085
 30
0.0
 10
521.3802099736
 20
386.0819111951999
 30
0.0
 10
521.6359178257
 20
386.1346008569
 30
0.0
 10
521.7617212380999
 20
386.1346008569
 30
0.0
  0
SPLINE
  5
475
330
21A
100
AcDbEntity
  8
RUNDUNGEN
  6
Continuous
 62
     9
100
AcDbSpline
210
0.0
220
0.0
230
1.0
 70
     8
 71
     3
 72
     9
 73
     5
 74
     0
 42
0.0000000001
 43
0.0000000001
 40
0.0
 40
0.0
 40
0.0
 40
0.0
 40
0.1838518741
 40
1.0
 40
1.0
 40
1.0
 40
1.0
 10
521.7617212380999
 20
386.1346008569
 30
0.0
 10
521.7527921112
 20
386.1346008569
 30
0.0
 10
521.704180791
 20
386.1208119316001
 30
0.0
 10
521.6780295326
 20
386.071683324
 30
0.0
 10
521.6607114198
 20
386.0360288586
 30
0.0
  0
SPLINE
  5
476
330
21A
100
AcDbEntity
  8
RUNDUNGEN
  6
Continuous
 62
     9
100
AcDbSpline
210
0.0
220
0.0
230
1.0
 70
     8
 71
     3
 72
    10
 73
     6
 74
     0
 42
0.0000000001
 43
0.0000000001
 40
0.0
 40
0.0
 40
0.0
 40
0.0
 40
0.1796098175
 40
0.4173278465
 40
1.0
 40
1.0
 40
1.0
 40
1.0
 10
521.6607114198
 20
386.0360288586
 30
0.0
 10
521.6368555642
 20
385.9869145131
 30
0.0
 10
521.5984076530999
 20
385.8649691173
 30
0.0
 10
521.5425275324999
 20
385.5660944445
 30
0.0
 10
521.5285705062999
 20
385.3157179632
 30
0.0
 10
521.5284058306999
 20
385.1385854203
 30
0.0
  0
SPLINE
  5
477
330
21A
100
AcDbEntity
  8
RUNDUNGEN
  6
Continuous
 62
     9
100
AcDbSpline
210
0.0
220
0.0
230
1.0
 70
     8
 71
     3
 72
     9
 73
     5
 74
     0
 42
0.0000000001
 43
0.0000000001
 40
0.0
 40
0.0
 40
0.0
 40
0.0
 40
0.2225696193
 40
1.0
 40
1.0
 40
1.0
 40
1.0
 10
519.4789554258
 20
385.9525299488
 30
0.0
 10
519.4434718612999
 20
385.9328744798
 30
0.0
 10
519.2718022105
 20
385.8661360875
 30
0.0
 10
519.07761182
 20
385.8849815558
 30
0.0
 10
518.9411667097
 20
385.9231694873
 30
0.0
  0
SPLINE
  5
478
330
21A
100
AcDbEntity
  8
RUNDUNGEN
  6
Continuous
 62
     9
100
AcDbSpline
210
0.0
220
0.0
230
1.0
 70
     8
 71
     3
 72
     9
 73
     5
 74
     0
 42
0.0000000001
 43
0.0000000001
 40
0.0
 40
0.0
 40
0.0
 40
0.0
 40
0.5496699657999999
 40
1.0
 40
1.0
 40
1.0
 40
1.0
 10
519.003586098
 20
386.6892139304
 30
0.0
 10
519.003586098
 20
386.5482355334
 30
0.0
 10
518.994239625
 20
386.2918089349
 30
0.0
 10
518.9647140791
 20
386.0362435338
 30
0.0
 10
518.9411667097
 20
385.9231694873
 30
0.0
  0
SPLINE
  5
479
330
21A
100
AcDbEntity
  8
RUNDUNGEN
  6
Continuous
 62
     9
100
AcDbSpline
210
0.0
220
0.0
230
1.0
 70
     8
 71
     3
 72
    11
 73
     7
 74
     0
 42
0.0000000001
 43
0.0000000001
 40
0.0
 40
0.0
 40
0.0
 40
0.0
 40
0.345720109
 40
0.6451371811
 40
0.8696015599999999
 40
1.0
 40
1.0
 40
1.0
 40
1.0
 10
519.003586098
 20
386.6892139304
 30
0.0
 10
519.0687397179
 20
386.6112983811
 30
0.0
 10
519.1834005273999
 20
386.4603890209
 30
0.0
 10
519.3315655519999
 20
386.251531335
 30
0.0
 10
519.4303793757
 20
386.0878063742
 30
0.0
 10
519.4740557959
 20
385.9905242393
 30
0.0
 10
519.4789554258
 20
385.9525299488
 30
0.0
  0
SPLINE
  5
47A
330
21A
100
AcDbEntity
  8
RUNDUNGEN
  6
Continuous
 62
     9
100
AcDbSpline
210
0.0
220
0.0
230
1.0
 70
     8
 71
     3
 72
    11
 73
     7
 74
     0
 42
0.0000000001
 43
0.0000000001
 40
0.0
 40
0.0
 40
0.0
 40
0.0
 40
0.2478859629
 40
0.48883762
 40
0.730373947
 40
1.0
 40
1.0
 40
1.0
 40
1.0
 10
519.6014687211
 20
385.1893574428
 30
0.0
 10
519.5640588270999
 20
385.2450493428
 30
0.0
 10
519.497084523
 20
385.359768411
 30
0.0
 10
519.4271651773
 20
385.5459795256
 30
0.0
 10
519.4017890131999
 20
385.7505703865
 30
0.0
 10
519.4411042613999
 20
385.8901381253
 30
0.0
 10
519.4789520075
 20
385.9525301551999
 30
0.0
  0
SPLINE
  5
47B
330
21A
100
AcDbEntity
  8
RUNDUNGEN
  6
Continuous
 62
     9
100
AcDbSpline
210
0.0
220
0.0
230
1.0
 70
     8
 71
     3
 72
     9
 73
     5
 74
     0
 42
0.0000000001
 43
0.0000000001
 40
0.0
 40
0.0
 40
0.0
 40
0.0
 40
0.5297063254
 40
1.0
 40
1.0
 40
1.0
 40
1.0
 10
518.7489854026999
 20
384.4233132744
 30
0.0
 10
518.9543709076999
 20
384.469311295
 30
0.0
 10
519.3278610943
 20
384.6488005008
 30
0.0
 10
519.5654275263999
 20
385.0059997121
 30
0.0
 10
519.6014687211
 20
385.1893574428
 30
0.0
  0
SPLINE
  5
47C
330
21A
100
AcDbEntity
  8
RUNDUNGEN
  6
Continuous
 62
     9
100
AcDbSpline
210
0.0
220
0.0
230
1.0
 70
     8
 71
     3
 72
    12
 73
     8
 74
     0
 42
0.0000000001
 43
0.0000000001
 40
0.0
 40
0.0
 40
0.0
 40
0.0
 40
0.0418833571
 40
0.1081171997
 40
0.3253316323
 40
0.6367726139
 40
1.0
 40
1.0
 40
1.0
 40
1.0
 10
520.2898291402999
 20
386.2057558403
 30
0.0
 10
520.3043364382
 20
386.2070506976
 30
0.0
 10
520.3373049487001
 20
386.2324202821
 30
0.0
 10
520.3885864133999
 20
386.3329477355001
 30
0.0
 10
520.4372893999999
 20
386.5367995647
 30
0.0
 10
520.4735869983998
 20
386.8442876780001
 30
0.0
 10
520.4819787987
 20
387.0792909312001
 30
0.0
 10
520.4819787986
 20
387.2056035355999
 30
0.0
  0
SPLINE
  5
47D
330
21A
100
AcDbEntity
  8
RUNDUNGEN
  6
Continuous
 62
     9
100
AcDbSpline
210
0.0
220
0.0
230
1.0
 70
     8
 71
     3
 72
     9
 73
     5
 74
     0
 42
0.0000000001
 43
0.0000000001
 40
0.0
 40
0.0
 40
0.0
 40
0.0
 40
0.2576989463
 40
1.0
 40
1.0
 40
1.0
 40
1.0
 10
519.4789561482999
 20
385.9525289631
 30
0.0
 10
519.5379422937
 20
385.9967764698
 30
0.0
 10
519.7835367366
 20
386.1460518189
 30
0.0
 10
520.0774329735
 20
386.2070980695
 30
0.0
 10
520.2898291451
 20
386.2057542925
 30
0.0
  0
LINE
  5
47E
330
21A
100
AcDbEntity
  8
RUNDUNGEN
  6
Continuous
 62
     9
100
AcDbLine
 10
520.7957954118
 20
385.1346008569
 30
0.0
 11
520.7998276618
 21
381.6983610844
 31
0.0
  0
SPLINE
  5
47F
330
21A
100
AcDbEntity
  8
RUNDUNGEN
  6
Continuous
 62
     9
100
AcDbSpline
210
0.0
220
0.0
230
1.0
 70
     8
 71
     3
 72
    10
 73
     6
 74
     0
 42
0.0000000001
 43
0.0000000001
 40
0.0
 40
0.0
 40
0.0
 40
0.0
 40
0.4783992555
 40
0.7273050870000001
 40
1.0
 40
1.0
 40
1.0
 40
1.0
 10
518.7490429104
 20
384.4233259675
 30
0.0
 10
518.666982166
 20
384.6605129869
 30
0.0
 10
518.6013634156999
 20
385.0511701884
 30
0.0
 10
518.7097579523
 20
385.570344301
 30
0.0
 10
518.8493357101999
 20
385.8133218058
 30
0.0
 10
518.940990359
 20
385.9231694875
 30
0.0
  0
SPLINE
  5
480
330
21A
100
AcDbEntity
  8
RUNDUNGEN
  6
Continuous
 62
     9
100
AcDbSpline
210
0.0
220
0.0
230
1.0
 70
     8
 71
     3
 72
    10
 73
     6
 74
     0
 42
0.0000000001
 43
0.0000000001
 40
0.0
 40
0.0
 40
0.0
 40
0.0
 40
0.2726949131
 40
0.5216007446000001
 40
1.0
 40
1.0
 40
1.0
 40
1.0
 10
494.2530640199
 20
385.9231694875
 30
0.0
 10
494.3447186608
 20
385.8133217994
 30
0.0
 10
494.484296429
 20
385.5703443009
 30
0.0
 10
494.592690944
 20
385.0511701892
 30
0.0
 10
494.5270722526
 20
384.6605129696
 30
0.0
 10
494.4450114607
 20
384.423325967
 30
0.0
  0
LINE
  5
481
330
21A
100
AcDbEntity
  8
RUNDUNGEN
  6
Continuous
 62
     9
100
AcDbLine
 10
492.0356838106999
 20
299.3862833252
 30
0.0
 11
492.4281219366999
 21
299.3068404624001
 31
0.0
  0
SPLINE
  5
482
330
21A
100
AcDbEntity
  8
RUNDUNGEN
  6
Continuous
 62
     9
100
AcDbSpline
210
0.0
220
0.0
230
1.0
 70
     8
 71
     3
 72
    12
 73
     8
 74
     0
 42
0.0000000001
 43
0.0000000001
 40
0.0
 40
0.0
 40
0.0
 40
0.0
 40
0.0567540437
 40
0.1403026881
 40
0.3766312895
 40
0.6778415959000001
 40
1.0
 40
1.0
 40
1.0
 40
1.0
 10
492.4281219366999
 20
299.3068404624001
 30
0.0
 10
492.4952441203999
 20
299.2932489482
 30
0.0
 10
492.6632948486
 20
299.2708857932001
 30
0.0
 10
493.1156817131999
 20
299.2280504873
 30
0.0
 10
493.8643124891999
 20
299.1868306425
 30
0.0
 10
494.9011408926999
 20
299.1534321158
 30
0.0
 10
495.653400274
 20
299.1450146244
 30
0.0
 10
496.0421449766999
 20
299.145026013
 30
0.0
  0
SPLINE
  5
483
330
21A
100
AcDbEntity
  8
RUNDUNGEN
  6
Continuous
 62
     9
100
AcDbSpline
210
0.0
220
0.0
230
1.0
 70
     8
 71
     3
 72
    12
 73
     8
 74
     0
 42
0.0000000001
 43
0.0000000001
 40
0.0
 40
0.0
 40
0.0
 40
0.0
 40
0.322158404
 40
0.6233687104
 40
0.8596973127
 40
0.9432459544
 40
1.0
 40
1.0
 40
1.0
 40
1.0
 10
517.1519093946
 20
299.145026013
 30
0.0
 10
517.5406540972
 20
299.1450145757
 30
0.0
 10
518.2929134784999
 20
299.1534321354
 30
0.0
 10
519.3297418823999
 20
299.1868306409
 30
0.0
 10
520.0783726575999
 20
299.2280504821
 30
0.0
 10
520.5307595205
 20
299.2708857981
 30
0.0
 10
520.6988102496
 20
299.2932489431
 30
0.0
 10
520.7659324345
 20
299.3068404624001
 30
0.0
  0
LINE
  5
484
330
21A
100
AcDbEntity
  8
RUNDUNGEN
  6
Continuous
 62
     9
100
AcDbLine
 10
520.7659324345
 20
299.3068404624001
 30
0.0
 11
521.1583705605
 21
299.3862833252
 31
0.0
  0
LINE
  5
485
330
21A
100
AcDbEntity
  8
RUNDUNGEN
  6
Continuous
 62
     9
100
AcDbLine
 10
490.4138783961
 20
323.2108519716
 30
0.0
 11
493.3545875873
 21
300.9151013355
 31
0.0
  0
SPLINE
  5
486
330
21A
100
AcDbEntity
  8
RUNDUNGEN
  6
Continuous
 62
     9
100
AcDbSpline
210
0.0
220
0.0
230
1.0
 70
     8
 71
     3
 72
     9
 73
     5
 74
     0
 42
0.0000000001
 43
0.0000000001
 40
0.0
 40
0.0
 40
0.0
 40
0.0
 40
0.2583617601
 40
1.0
 40
1.0
 40
1.0
 40
1.0
 10
490.3574561412
 20
324.1108638443
 30
0.0
 10
490.3575361806
 20
324.0331729994
 30
0.0
 10
490.3624269255999
 20
323.732513352
 30
0.0
 10
490.3847167923
 20
323.4319520931
 30
0.0
 10
490.4138783961
 20
323.2108519716
 30
0.0
  0
LINE
  5
487
330
21A
100
AcDbEntity
  8
RUNDUNGEN
  6
Continuous
 62
     9
100
AcDbLine
 10
494.6976826080999
 20
326.299433428
 30
0.0
 11
490.3542918471
 21
327.1787659443
 31
0.0
  0
LINE
  5
488
330
21A
100
AcDbEntity
  8
RUNDUNGEN
  6
Continuous
 62
     9
100
AcDbLine
 10
494.6976826080999
 20
322.1971131993
 30
0.0
 11
493.5642109675
 21
322.120686979
 31
0.0
  0
SPLINE
  5
489
330
21A
100
AcDbEntity
  8
RUNDUNGEN
  6
Continuous
 62
     9
100
AcDbSpline
210
0.0
220
0.0
230
1.0
 70
     8
 71
     3
 72
    12
 73
     8
 74
     0
 42
0.0000000001
 43
0.0000000001
 40
0.0
 40
0.0
 40
0.0
 40
0.0
 40
0.1373644001
 40
0.2336133974
 40
0.350836109
 40
0.6439865378000001
 40
1.0
 40
1.0
 40
1.0
 40
1.0
 10
493.5642109675
 20
322.120686979
 30
0.0
 10
493.5102375758
 20
322.1170655144
 30
0.0
 10
493.4273145208999
 20
322.0549920748
 30
0.0
 10
493.3500501215
 20
321.9426270602
 30
0.0
 10
493.2592682976999
 20
321.7634626023
 30
0.0
 10
493.1659820252999
 20
321.4756307516
 30
0.0
 10
493.1101629971999
 20
321.2259168957
 30
0.0
 10
493.083452343
 20
321.0882850654
 30
0.0
  0
LINE
  5
48A
330
21A
100
AcDbEntity
  8
RUNDUNGEN
  6
Continuous
 62
     9
100
AcDbLine
 10
493.8996433372
 20
300.8047834662
 30
0.0
 11
492.9296271416
 21
320.0776904234
 31
0.0
  0
LINE
  5
48B
330
21A
100
AcDbEntity
  8
RUNDUNGEN
  6
Continuous
 62
     9
100
AcDbLine
 10
493.3545875873
 20
300.9151013355
 30
0.0
 11
493.8996433372
 21
300.8047834662
 31
0.0
  0
SPLINE
  5
48C
330
21A
100
AcDbEntity
  8
RUNDUNGEN
  6
Continuous
 62
     9
100
AcDbSpline
210
0.0
220
0.0
230
1.0
 70
     8
 71
     3
 72
    12
 73
     8
 74
     0
 42
0.0000000001
 43
0.0000000001
 40
0.0
 40
0.0
 40
0.0
 40
0.0
 40
0.2825732424
 40
0.6028253436
 40
0.7444370401000001
 40
0.854160077
 40
1.0
 40
1.0
 40
1.0
 40
1.0
 10
627.6385005232
 20
395.7229062724
 30
0.0
 10
627.8646104123001
 20
395.6364125963
 30
0.0
 10
628.3596356248999
 20
395.4843648515
 30
0.0
 10
628.9965627783
 20
395.3945086015
 30
0.0
 10
629.4881063663999
 20
395.4266435187999
 30
0.0
 10
629.8184536292
 20
395.5069867478
 30
0.0
 10
630.0177753325999
 20
395.6253354091001
 30
0.0
 10
630.0958216428999
 20
395.7229062734
 30
0.0
  0
LINE
  5
48D
330
21A
100
AcDbEntity
  8
RUNDUNGEN
  6
Continuous
 62
     9
100
AcDbLine
 10
519.8394667841
 20
300.9151013355
 30
0.0
 11
522.7801759752
 21
323.2108519716
 31
0.0
  0
LINE
  5
48E
330
21A
100
AcDbEntity
  8
RUNDUNGEN
  6
Continuous
 62
     9
100
AcDbLine
 10
519.2944110217999
 20
300.8047834637
 30
0.0
 11
519.8394667841
 21
300.9151013355
 31
0.0
  0
LINE
  5
48F
330
21A
100
AcDbEntity
  8
RUNDUNGEN
  6
Continuous
 62
     9
100
AcDbLine
 10
520.2644272023999
 20
320.0776906257
 30
0.0
 11
519.2944110217999
 21
300.8047834637
 31
0.0
  0
SPLINE
  5
490
330
21A
100
AcDbEntity
  8
RUNDUNGEN
  6
Continuous
 62
     9
100
AcDbSpline
210
0.0
220
0.0
230
1.0
 70
     8
 71
     3
 72
    12
 73
     8
 74
     0
 42
0.0000000001
 43
0.0000000001
 40
0.0
 40
0.0
 40
0.0
 40
0.0
 40
0.3560131515
 40
0.6491641181000001
 40
0.766386762
 40
0.8626356116
 40
1.0
 40
1.0
 40
1.0
 40
1.0
 10
520.110602029
 20
321.0882850654
 30
0.0
 10
520.0838913998999
 20
321.2259167698
 30
0.0
 10
520.0280723157
 20
321.4756307027
 30
0.0
 10
519.9347860039999
 20
321.7634625663
 30
0.0
 10
519.8440042368999
 20
321.9426272096
 30
0.0
 10
519.766739712
 20
322.054992
 30
0.0
 10
519.6838168056
 20
322.1170655245
 30
0.0
 10
519.62984342
 20
322.1206869779
 30
0.0
  0
LINE
  5
491
330
21A
100
AcDbEntity
  8
RUNDUNGEN
  6
Continuous
 62
     9
100
AcDbLine
 10
519.62984342
 20
322.1206869779
 30
0.0
 11
518.4963717632
 21
322.1971131993
 31
0.0
  0
LINE
  5
492
330
21A
100
AcDbEntity
  8
RUNDUNGEN
  6
Continuous
 62
     9
100
AcDbLine
 10
522.8397625241
 20
327.1787659443
 30
0.0
 11
518.4963717632
 21
326.299433428
 31
0.0
  0
SPLINE
  5
493
330
21A
100
AcDbEntity
  8
RUNDUNGEN
  6
Continuous
 62
     9
100
AcDbSpline
210
0.0
220
0.0
230
1.0
 70
     8
 71
     3
 72
     9
 73
     5
 74
     0
 42
0.0000000001
 43
0.0000000001
 40
0.0
 40
0.0
 40
0.0
 40
0.0
 40
0.2385960017
 40
1.0
 40
1.0
 40
1.0
 40
1.0
 10
522.7801759752
 20
323.2108519716
 30
0.0
 10
522.7895578877999
 20
323.2819846169
 30
0.0
 10
522.8231422216
 20
323.5808571037
 30
0.0
 10
522.8363623454
 20
323.8819006397
 30
0.0
 10
522.83659823
 20
324.1108638443
 30
0.0
  0
LINE
  5
494
330
21A
100
AcDbEntity
  8
RUNDUNGEN
  6
Continuous
 62
     9
100
AcDbLine
 10
521.8904794668
 20
328.1832995125
 30
0.0
 11
517.5180028930999
 21
327.2980629627
 31
0.0
  0
SPLINE
  5
495
330
21A
100
AcDbEntity
  8
RUNDUNGEN
  6
Continuous
 62
     9
100
AcDbSpline
210
0.0
220
0.0
230
1.0
 70
     8
 71
     3
 72
    10
 73
     6
 74
     0
 42
0.0000000001
 43
0.0000000001
 40
0.0
 40
0.0
 40
0.0
 40
0.0
 40
0.1410850626
 40
0.3791620922
 40
1.0
 40
1.0
 40
1.0
 40
1.0
 10
517.5180028930999
 20
327.2980629627
 30
0.0
 10
517.4904906205
 20
327.2924923176
 30
0.0
 10
517.4150236866999
 20
327.2865469895
 30
0.0
 10
517.2165929212999
 20
327.2750678572
 30
0.0
 10
517.0455244241999
 20
327.2725712493
 30
0.0
 10
516.9220012298999
 20
327.2725712405
 30
0.0
  0
SPLINE
  5
496
330
21A
100
AcDbEntity
  8
RUNDUNGEN
  6
Continuous
 62
     9
100
AcDbSpline
210
0.0
220
0.0
230
1.0
 70
     8
 71
     3
 72
    10
 73
     6
 74
     0
 42
0.0000000001
 43
0.0000000001
 40
0.0
 40
0.0
 40
0.0
 40
0.0
 40
0.6208379079000001
 40
0.8589149373999999
 40
1.0
 40
1.0
 40
1.0
 40
1.0
 10
496.2720531413999
 20
327.2725712405
 30
0.0
 10
496.1485299470999
 20
327.272571249
 30
0.0
 10
495.9774614498999
 20
327.2750678572
 30
0.0
 10
495.7790306844999
 20
327.2865469894
 30
0.0
 10
495.7035637506999
 20
327.2924923177
 30
0.0
 10
495.6760514781
 20
327.2980629627
 30
0.0
  0
LINE
  5
497
330
21A
100
AcDbEntity
  8
RUNDUNGEN
  6
Continuous
 62
     9
100
AcDbLine
 10
495.6760514781
 20
327.2980629627
 30
0.0
 11
491.3035749043999
 21
328.1832995125
 31
0.0
  0
LINE
  5
498
330
21A
100
AcDbEntity
  8
RUNDUNGEN
  6
Continuous
 62
     9
100
AcDbLine
 10
495.6677578006999
 20
321.1972655042
 30
0.0
 11
494.5342806616999
 21
321.1208371671
 31
0.0
  0
SPLINE
  5
499
330
21A
100
AcDbEntity
  8
RUNDUNGEN
  6
Continuous
 62
     9
100
AcDbSpline
210
0.0
220
0.0
230
1.0
 70
     8
 71
     3
 72
     9
 73
     5
 74
     0
 42
0.0000000001
 43
0.0000000001
 40
0.0
 40
0.0
 40
0.0
 40
0.0
 40
0.6212563774000001
 40
1.0
 40
1.0
 40
1.0
 40
1.0
 10
496.2641281632
 20
321.2057558404
 30
0.0
 10
496.1406102555
 20
321.2057561086
 30
0.0
 10
495.9418758874
 20
321.203293543
 30
0.0
 10
495.7428888328999
 20
321.202331465
 30
0.0
 10
495.6677578006999
 20
321.1972655042
 30
0.0
  0
SPLINE
  5
49A
330
21A
100
AcDbEntity
  8
RUNDUNGEN
  6
Continuous
 62
     9
100
AcDbSpline
210
0.0
220
0.0
230
1.0
 70
     8
 71
     3
 72
    12
 73
     8
 74
     0
 42
0.0000000001
 43
0.0000000001
 40
0.0
 40
0.0
 40
0.0
 40
0.0
 40
0.2825748788
 40
0.6028247379999999
 40
0.7444343854000001
 40
0.8541586482999999
 40
1.0
 40
1.0
 40
1.0
 40
1.0
 10
385.5555538478
 20
395.7229062724
 30
0.0
 10
385.329440684
 20
395.6364177552
 30
0.0
 10
384.8344243645
 20
395.4843463997
 30
0.0
 10
384.1974950871
 20
395.3945047237001
 30
0.0
 10
383.7059555094
 20
395.42665212
 30
0.0
 10
383.3756094873
 20
395.5069917463
 30
0.0
 10
383.1762765154
 20
395.6253319493
 30
0.0
 10
383.0982327289
 20
395.7229062765
 30
0.0
  0
SPLINE
  5
49B
330
21A
100
AcDbEntity
  8
RUNDUNGEN
  6
Continuous
 62
     9
100
AcDbSpline
210
0.0
220
0.0
230
1.0
 70
     8
 71
     3
 72
     9
 73
     5
 74
     0
 42
0.0000000001
 43
0.0000000001
 40
0.0
 40
0.0
 40
0.0
 40
0.0
 40
0.3787436226
 40
1.0
 40
1.0
 40
1.0
 40
1.0
 10
517.5262965705
 20
321.1972655042
 30
0.0
 10
517.4511655383001
 20
321.202331465
 30
0.0
 10
517.2521784837999
 20
321.203293543
 30
0.0
 10
517.0534441157
 20
321.2057561086
 30
0.0
 10
516.929926208
 20
321.2057558404
 30
0.0
  0
LINE
  5
49C
330
21A
100
AcDbEntity
  8
RUNDUNGEN
  6
Continuous
 62
     9
100
AcDbLine
 10
518.6597737258
 20
321.1208371645
 30
0.0
 11
517.5262965705
 21
321.1972655042
 31
0.0
  0
SPLINE
  5
49D
330
21A
100
AcDbEntity
  8
RUNDUNGEN
  6
Continuous
 62
     9
100
AcDbSpline
210
0.0
220
0.0
230
1.0
 70
     8
 71
     3
 72
    11
 73
     7
 74
     0
 42
0.0000000001
 43
0.0000000001
 40
0.0
 40
0.0
 40
0.0
 40
0.0
 40
0.3160449940999999
 40
0.5862497370000001
 40
0.8093405095999999
 40
1.0
 40
1.0
 40
1.0
 40
1.0
 10
627.6385005232
 20
395.7229062724
 30
0.0
 10
627.5974826657
 20
395.5808158217
 30
0.0
 10
627.5017024123
 20
395.3219442803
 30
0.0
 10
627.2999308248
 20
394.9976601654
 30
0.0
 10
627.0568003017
 20
394.7794802365
 30
0.0
 10
626.8616937098
 20
394.7229062725
 30
0.0
 10
626.7724751194
 20
394.7229062724
 30
0.0
  0
SPLINE
  5
49E
330
21A
100
AcDbEntity
  8
RUNDUNGEN
  6
Continuous
 62
     9
100
AcDbSpline
210
0.0
220
0.0
230
1.0
 70
     8
 71
     3
 72
    10
 73
     6
 74
     0
 42
0.0000000001
 43
0.0000000001
 40
0.0
 40
0.0
 40
0.0
 40
0.0
 40
0.507024146
 40
0.7549497267000001
 40
1.0
 40
1.0
 40
1.0
 40
1.0
 10
630.0958216411999
 20
395.7229062721
 30
0.0
 10
630.2510963976999
 20
395.430173586
 30
0.0
 10
630.6013800588999
 20
395.0414182072
 30
0.0
 10
631.2027820837
 20
394.7698536583999
 30
0.0
 10
631.5269651198
 20
394.7229062724
 30
0.0
 10
631.6871173571
 20
394.7229062724
 30
0.0
  0
LINE
  5
49F
330
21A
100
AcDbEntity
  8
RUNDUNGEN
  6
Continuous
 62
     9
100
AcDbLine
 10
495.7227680161
 20
300.3567568217
 30
0.0
 11
494.7407540326
 21
319.9308817048
 31
0.0
  0
LINE
  5
4A0
330
21A
100
AcDbEntity
  8
RUNDUNGEN
  6
Continuous
 62
     9
100
AcDbLine
 10
518.4533003278
 20
319.9308817048
 30
0.0
 11
517.4712864325
 21
300.3567568217
 31
0.0
  0
LINE
  5
4A1
330
21A
100
AcDbEntity
  8
0
  6
Continuous
 62
     7
100
AcDbLine
 10
625.9547715894999
 20
396.7229062724
 30
0.0
 11
626.0073262189999
 21
397.7229062724
 31
0.0
  0
SPLINE
  5
4A2
330
21A
100
AcDbEntity
  8
RUNDUNGEN
  6
Continuous
 62
     9
100
AcDbSpline
210
0.0
220
0.0
230
1.0
 70
     8
 71
     3
 72
    11
 73
     7
 74
     0
 42
0.0000000001
 43
0.0000000001
 40
0.0
 40
0.0
 40
0.0
 40
0.0
 40
0.2534004348
 40
0.5049740763
 40
0.7532281806000001
 40
1.0
 40
1.0
 40
1.0
 40
1.0
 10
491.6617275689
 20
381.7023708331
 30
0.0
 10
491.6614890746999
 20
381.4770831034
 30
0.0
 10
491.7131288155999
 20
381.0252338226
 30
0.0
 10
491.998103299
 20
380.4015455463
 30
0.0
 10
492.5260977594
 20
379.9569938603
 30
0.0
 10
492.975555823
 20
379.8659305774
 30
0.0
 10
493.1949504507
 20
379.8659199380001
 30
0.0
  0
LINE
  5
4A3
330
21A
100
AcDbEntity
  8
0
  6
Continuous
 62
     7
100
AcDbLine
 10
634.1703013544
 20
397.7229062724
 30
0.0
 11
634.2228559839
 21
396.7229062724
 31
0.0
  0
SPLINE
  5
4A4
330
21A
100
AcDbEntity
  8
RUNDUNGEN
  6
Continuous
 62
     9
100
AcDbSpline
210
0.0
220
0.0
230
1.0
 70
     8
 71
     3
 72
    11
 73
     7
 74
     0
 42
0.0000000001
 43
0.0000000001
 40
0.0
 40
0.0
 40
0.0
 40
0.0
 40
0.2467722805
 40
0.4950262302000001
 40
0.7465997164
 40
1.0
 40
1.0
 40
1.0
 40
1.0
 10
519.9991039212
 20
379.8659199380001
 30
0.0
 10
520.218498964
 20
379.8659304954
 30
0.0
 10
520.6679574262999
 20
379.9569939092
 30
0.0
 10
521.1959515191
 20
380.4015462708
 30
0.0
 10
521.4809254604999
 20
381.0252342223
 30
0.0
 10
521.5325654762
 20
381.4770832324
 30
0.0
 10
521.5323268023
 20
381.7023708328
 30
0.0
  0
SPLINE
  5
4A5
330
21A
100
AcDbEntity
  8
RUNDUNGEN
  6
Continuous
 62
     9
100
AcDbSpline
210
0.0
220
0.0
230
1.0
 70
     8
 71
     3
 72
    11
 73
     7
 74
     0
 42
0.0000000001
 43
0.0000000001
 40
0.0
 40
0.0
 40
0.0
 40
0.0
 40
0.2466424039
 40
0.4948197389000001
 40
0.7461218962000001
 40
1.0
 40
1.0
 40
1.0
 40
1.0
 10
522.1209400310999
 20
329.1779444839
 30
0.0
 10
522.3752640469
 20
329.1779685554
 30
0.0
 10
522.891287138
 20
329.0745334999
 30
0.0
 10
523.5431019897
 20
328.6295698489
 30
0.0
 10
523.9788425018
 20
327.963177335
 30
0.0
 10
524.0801547733
 20
327.4365578576
 30
0.0
 10
524.0798626155999
 20
327.1747729498
 30
0.0
  0
SPLINE
  5
4A6
330
21A
100
AcDbEntity
  8
RUNDUNGEN
  6
Continuous
 62
     9
100
AcDbSpline
210
0.0
220
0.0
230
1.0
 70
     8
 71
     3
 72
    11
 73
     7
 74
     0
 42
0.0000000001
 43
0.0000000001
 40
0.0
 40
0.0
 40
0.0
 40
0.0
 40
0.2538781891
 40
0.5051803846000001
 40
0.7533577615000002
 40
1.0
 40
1.0
 40
1.0
 40
1.0
 10
489.1141917555999
 20
327.1747729503
 30
0.0
 10
489.1138996369
 20
327.4365579438
 30
0.0
 10
489.2152118818
 20
327.963177534
 30
0.0
 10
489.6509525997
 20
328.6295702197
 30
0.0
 10
490.3027676051999
 20
329.074533301
 30
0.0
 10
490.8187904972
 20
329.1779687751
 30
0.0
 10
491.0731143401
 20
329.1779444839
 30
0.0
  0
SPLINE
  5
4A7
330
21A
100
AcDbEntity
  8
RUNDUNGEN
  6
Continuous
 62
     9
100
AcDbSpline
210
0.0
220
0.0
230
1.0
 70
     8
 71
     3
 72
     9
 73
     5
 74
     0
 42
0.0000000001
 43
0.0000000001
 40
0.0
 40
0.0
 40
0.0
 40
0.0
 40
0.2561125501
 40
1.0
 40
1.0
 40
1.0
 40
1.0
 10
521.0527759166
 20
300.4611113136
 30
0.0
 10
521.0498605785
 20
300.4389792934
 30
0.0
 10
521.0436038113999
 20
300.3520161923
 30
0.0
 10
521.0595959653
 20
300.2630631227
 30
0.0
 10
521.0846049476
 20
300.2032418777
 30
0.0
  0
SPLINE
  5
4A8
330
21A
100
AcDbEntity
  8
RUNDUNGEN
  6
Continuous
 62
     9
100
AcDbSpline
210
0.0
220
0.0
230
1.0
 70
     8
 71
     3
 72
     8
 73
     4
 74
     0
 42
0.0000000001
 43
0.0000000001
 40
0.0
 40
0.0
 40
0.0
 40
0.0
 40
1.0
 40
1.0
 40
1.0
 40
1.0
 10
520.2899319541
 20
386.2057558403
 30
0.0
 10
520.6849342202999
 20
386.1818593416001
 30
0.0
 10
521.0799463974999
 20
386.1581257696
 30
0.0
 10
521.4749709682999
 20
386.1346008594001
 30
0.0
  0
SPLINE
  5
4A9
330
21A
100
AcDbEntity
  8
RUNDUNGEN
  6
Continuous
 62
     9
100
AcDbSpline
210
0.0
220
0.0
230
1.0
 70
     8
 71
     3
 72
     8
 73
     4
 74
     0
 42
0.0000000001
 43
0.0000000001
 40
0.0
 40
0.0
 40
0.0
 40
0.0
 40
1.0
 40
1.0
 40
1.0
 40
1.0
 10
521.0527759166
 20
300.4611113136
 30
0.0
 10
522.0318116071999
 20
307.8930526905
 30
0.0
 10
523.0110683742999
 20
315.3249649449
 30
0.0
 10
523.9904444311999
 20
322.7568614763
 30
0.0
  0
SPLINE
  5
4AA
330
21A
100
AcDbEntity
  8
RUNDUNGEN
  6
Continuous
 62
     9
100
AcDbSpline
210
0.0
220
0.0
230
1.0
 70
     8
 71
     3
 72
     8
 73
     4
 74
     0
 42
0.0000000001
 43
0.0000000001
 40
0.0
 40
0.0
 40
0.0
 40
0.0
 40
1.0
 40
1.0
 40
1.0
 40
1.0
 10
491.7190833962999
 20
386.134600859
 30
0.0
 10
492.1140983262
 20
386.158125196
 30
0.0
 10
492.5091007585
 20
386.1818599271
 30
0.0
 10
492.9040933845
 20
386.2057558404
 30
0.0
  0
SPLINE
  5
4AB
330
21A
100
AcDbEntity
  8
RUNDUNGEN
  6
Continuous
 62
     9
100
AcDbSpline
210
0.0
220
0.0
230
1.0
 70
     8
 71
     3
 72
    10
 73
     6
 74
     0
 42
0.0000000001
 43
0.0000000001
 40
0.0
 40
0.0
 40
0.0
 40
0.0
 40
0.2450502732
 40
0.4929758539
 40
1.0
 40
1.0
 40
1.0
 40
1.0
 10
381.5069370141001
 20
394.7229062724
 30
0.0
 10
381.6670892515
 20
394.7229062724
 30
0.0
 10
381.9912722878
 20
394.7698536585
 30
0.0
 10
382.5926743129
 20
395.0414182077
 30
0.0
 10
382.9429579741
 20
395.4301735871
 30
0.0
 10
383.0982327304
 20
395.7229062736
 30
0.0
  0
SPLINE
  5
4AC
330
21A
100
AcDbEntity
  8
RUNDUNGEN
  6
Continuous
 62
     9
100
AcDbSpline
210
0.0
220
0.0
230
1.0
 70
     8
 71
     3
 72
    11
 73
     7
 74
     0
 42
0.0000000001
 43
0.0000000001
 40
0.0
 40
0.0
 40
0.0
 40
0.0
 40
0.190659327
 40
0.413750078
 40
0.6839548936
 40
1.0
 40
1.0
 40
1.0
 40
1.0
 10
386.4215792516001
 20
394.7229062724
 30
0.0
 10
386.3323607496
 20
394.7229062724
 30
0.0
 10
386.1372542886
 20
394.7794802986
 30
0.0
 10
385.8941239135
 20
394.9976602168
 30
0.0
 10
385.6923522418
 20
395.3219442946
 30
0.0
 10
385.5965718199
 20
395.5808158208
 30
0.0
 10
385.5555538478
 20
395.7229062724
 30
0.0
  0
SPLINE
  5
4AD
330
21A
100
AcDbEntity
  8
RUNDUNGEN
  6
Continuous
 62
     9
100
AcDbSpline
210
0.0
220
0.0
230
1.0
 70
     8
 71
     3
 72
     8
 73
     4
 74
     0
 42
0.0000000001
 43
0.0000000001
 40
0.0
 40
0.0
 40
0.0
 40
0.0
 40
1.0
 40
1.0
 40
1.0
 40
1.0
 10
521.7563181552
 20
397.3279412949
 30
0.0
 10
521.2676005386
 20
397.2989591905001
 30
0.0
 10
520.7789040176999
 20
397.2696205757
 30
0.0
 10
520.2902212487
 20
397.2400567045
 30
0.0
  0
SPLINE
  5
4AE
330
21A
100
AcDbEntity
  8
RUNDUNGEN
  6
Continuous
 62
     9
100
AcDbSpline
210
0.0
220
0.0
230
1.0
 70
     8
 71
     3
 72
     8
 73
     4
 74
     0
 42
0.0000000001
 43
0.0000000001
 40
0.0
 40
0.0
 40
0.0
 40
0.0
 40
1.0
 40
1.0
 40
1.0
 40
1.0
 10
489.20360994
 20
322.7568614763
 30
0.0
 10
490.1829870429
 20
315.3249570078
 30
0.0
 10
491.1622428858
 20
307.8930365566
 30
0.0
 10
492.1412796194999
 20
300.4610872422
 30
0.0
  0
SPLINE
  5
4AF
330
21A
100
AcDbEntity
  8
RUNDUNGEN
  6
Continuous
 62
     9
100
AcDbSpline
210
0.0
220
0.0
230
1.0
 70
     8
 71
     3
 72
     8
 73
     4
 74
     0
 42
0.0000000001
 43
0.0000000001
 40
0.0
 40
0.0
 40
0.0
 40
0.0
 40
1.0
 40
1.0
 40
1.0
 40
1.0
 10
492.9038859907
 20
397.2400567045
 30
0.0
 10
492.4152071516
 20
397.2696203458
 30
0.0
 10
491.9265146016
 20
397.2989594152
 30
0.0
 10
491.4378009151
 20
397.3279412949
 30
0.0
  0
SPLINE
  5
4B0
330
21A
100
AcDbEntity
  8
RUNDUNGEN
  6
Continuous
 62
     9
100
AcDbSpline
210
0.0
220
0.0
230
1.0
 70
     8
 71
     3
 72
     9
 73
     5
 74
     0
 42
0.0000000001
 43
0.0000000001
 40
0.0
 40
0.0
 40
0.0
 40
0.0
 40
0.7438876816
 40
1.0
 40
1.0
 40
1.0
 40
1.0
 10
492.1094494235999
 20
300.2032418777
 30
0.0
 10
492.134456133
 20
300.2630576882
 30
0.0
 10
492.1504494492999
 20
300.3520018408
 30
0.0
 10
492.1441946891
 20
300.4389572597
 30
0.0
 10
492.1412796194999
 20
300.4610872422
 30
0.0
  0
SPLINE
  5
4B1
330
21A
100
AcDbEntity
  8
RUNDUNGEN
  6
Continuous
 62
     9
100
AcDbSpline
210
0.0
220
0.0
230
1.0
 70
     8
 71
     3
 72
    11
 73
     7
 74
     0
 42
0.0000000001
 43
0.0000000001
 40
0.0
 40
0.0
 40
0.0
 40
0.0
 40
0.2515981165999999
 40
0.5023132279000001
 40
0.7517286259000001
 40
1.0
 40
1.0
 40
1.0
 40
1.0
 10
494.9035248636
 20
398.2256397837001
 30
0.0
 10
494.903575479
 20
397.9519578574
 30
0.0
 10
494.7746577843999
 20
397.3980470552
 30
0.0
 10
494.2528876197
 20
396.7388367991
 30
0.0
 10
493.5280913380999
 20
396.3303805664
 30
0.0
 10
492.9821386428
 20
396.240196985
 30
0.0
 10
492.7120754567
 20
396.2402090093
 30
0.0
  0
SPLINE
  5
4B2
330
21A
100
AcDbEntity
  8
RUNDUNGEN
  6
Continuous
 62
     9
100
AcDbSpline
210
0.0
220
0.0
230
1.0
 70
     8
 71
     3
 72
    11
 73
     7
 74
     0
 42
0.0000000001
 43
0.0000000001
 40
0.0
 40
0.0
 40
0.0
 40
0.0
 40
0.2482713739
 40
0.4976867717000001
 40
0.7484018833000001
 40
1.0
 40
1.0
 40
1.0
 40
1.0
 10
520.4819789173999
 20
396.2402090093
 30
0.0
 10
520.211915731
 20
396.2401969942
 30
0.0
 10
519.6659630329
 20
396.3303805588
 30
0.0
 10
518.9411667573
 20
396.7388368028
 30
0.0
 10
518.4193965693
 20
397.3980470515
 30
0.0
 10
518.2904789113999
 20
397.9519578588
 30
0.0
 10
518.2905295075999
 20
398.2256397857
 30
0.0
  0
SPLINE
  5
4B3
330
21A
100
AcDbEntity
  8
RUNDUNGEN
  6
Continuous
 62
     9
100
AcDbSpline
210
0.0
220
0.0
230
1.0
 70
     8
 71
     3
 72
     9
 73
     5
 74
     0
 42
0.0000000001
 43
0.0000000001
 40
0.0
 40
0.0
 40
0.0
 40
0.0
 40
0.5011140273
 40
1.0
 40
1.0
 40
1.0
 40
1.0
 10
519.0036856905
 20
386.6892139306
 30
0.0
 10
519.2083850121999
 20
386.85824934
 30
0.0
 10
519.6841759093
 20
387.1197876644
 30
0.0
 10
520.2176883698999
 20
387.20561474
 30
0.0
 10
520.4819789005999
 20
387.2056035355999
 30
0.0
  0
SPLINE
  5
4B4
330
21A
100
AcDbEntity
  8
RUNDUNGEN
  6
Continuous
 62
     9
100
AcDbSpline
210
0.0
220
0.0
230
1.0
 70
     8
 71
     3
 72
     9
 73
     5
 74
     0
 42
0.0000000001
 43
0.0000000001
 40
0.0
 40
0.0
 40
0.0
 40
0.0
 40
0.5011145371
 40
1.0
 40
1.0
 40
1.0
 40
1.0
 10
494.1903891592
 20
386.6892139306
 30
0.0
 10
493.9856870887999
 20
386.8582511447
 30
0.0
 10
493.5098849446999
 20
387.1197814663
 30
0.0
 10
492.9763687076
 20
387.2056142785
 30
0.0
 10
492.7120754616999
 20
387.2056035355999
 30
0.0
  0
SPLINE
  5
4B5
330
21A
100
AcDbEntity
  8
RUNDUNGEN
  6
Continuous
 62
     9
100
AcDbSpline
210
0.0
220
0.0
230
1.0
 70
     8
 71
     3
 72
    12
 73
     8
 74
     0
 42
0.0000000001
 43
0.0000000001
 40
0.0
 40
0.0
 40
0.0
 40
0.0
 40
0.3187433835
 40
0.6128814033
 40
0.8448578142
 40
0.9322057930999999
 40
1.0
 40
1.0
 40
1.0
 40
1.0
 10
517.4712865154
 20
300.3567584705
 30
0.0
 10
517.6739049075999
 20
300.3579453721
 30
0.0
 10
518.0637994564
 20
300.3846280302
 30
0.0
 10
518.5928411351
 20
300.4805225939
 30
0.0
 10
518.9672520737
 20
300.5985158187
 30
0.0
 10
519.1857175687999
 20
300.7127091504
 30
0.0
 10
519.2650275082
 20
300.7732514494
 30
0.0
 10
519.2944107266
 20
300.8047776002
 30
0.0
  0
SPLINE
  5
4B6
330
21A
100
AcDbEntity
  8
RUNDUNGEN
  6
Continuous
 62
     9
100
AcDbSpline
210
0.0
220
0.0
230
1.0
 70
     8
 71
     3
 72
    12
 73
     8
 74
     0
 42
0.0000000001
 43
0.0000000001
 40
0.0
 40
0.0
 40
0.0
 40
0.0
 40
0.3222532019
 40
0.6229245119
 40
0.8584792629
 40
0.9421978128000001
 40
1.0
 40
1.0
 40
1.0
 40
1.0
 10
518.4533003646
 20
319.9308824336
 30
0.0
 10
518.6488867616999
 20
319.9315949771
 30
0.0
 10
519.0270036177
 20
319.9400465194
 30
0.0
 10
519.5471469484999
 20
319.9702091836
 30
0.0
 10
519.9220596881999
 20
320.0071227471
 30
0.0
 10
520.1476297856999
 20
320.0453642181
 30
0.0
 10
520.2314574687999
 20
320.0655809916999
 30
0.0
 10
520.2644219249999
 20
320.0775857927
 30
0.0
  0
SPLINE
  5
4B7
330
21A
100
AcDbEntity
  8
RUNDUNGEN
  6
Continuous
 62
     9
100
AcDbSpline
210
0.0
220
0.0
230
1.0
 70
     8
 71
     3
 72
    10
 73
     6
 74
     0
 42
0.0000000001
 43
0.0000000001
 40
0.0
 40
0.0
 40
0.0
 40
0.0
 40
0.1405726856
 40
0.378795342
 40
1.0
 40
1.0
 40
1.0
 40
1.0
 10
518.4963717632
 20
326.299433428
 30
0.0
 10
518.4126903016
 20
326.2937661229
 30
0.0
 10
518.1866626531
 20
326.2879536183
 30
0.0
 10
517.590193922
 20
326.2763754738
 30
0.0
 10
517.0773510709999
 20
326.2739420109
 30
0.0
 10
516.7067072899
 20
326.2739417057
 30
0.0
  0
SPLINE
  5
4B8
330
21A
100
AcDbEntity
  8
RUNDUNGEN
  6
Continuous
 62
     9
100
AcDbSpline
210
0.0
220
0.0
230
1.0
 70
     8
 71
     3
 72
     9
 73
     5
 74
     0
 42
0.0000000001
 43
0.0000000001
 40
0.0
 40
0.0
 40
0.0
 40
0.0
 40
0.3787391645
 40
1.0
 40
1.0
 40
1.0
 40
1.0
 10
518.4963717632
 20
322.1971131993
 30
0.0
 10
518.2704868547
 20
322.2022094083
 30
0.0
 10
517.6738652615
 20
322.2031170977
 30
0.0
 10
517.0773295297
 20
322.2056044183
 30
0.0
 10
516.7067072899
 20
322.2056035356
 30
0.0
  0
SPLINE
  5
4B9
330
21A
100
AcDbEntity
  8
RUNDUNGEN
  6
Continuous
 62
     9
100
AcDbSpline
210
0.0
220
0.0
230
1.0
 70
     8
 71
     3
 72
    10
 73
     6
 74
     0
 42
0.0000000001
 43
0.0000000001
 40
0.0
 40
0.0
 40
0.0
 40
0.0
 40
0.621204658
 40
0.8594273143999998
 40
1.0
 40
1.0
 40
1.0
 40
1.0
 10
496.4873470814
 20
326.2739417057
 30
0.0
 10
496.1167033002999
 20
326.2739420106
 30
0.0
 10
495.6038604491999
 20
326.2763754736
 30
0.0
 10
495.0073917182
 20
326.2879536186
 30
0.0
 10
494.7813640696
 20
326.2937661225
 30
0.0
 10
494.6976826080999
 20
326.299433428
 30
0.0
  0
SPLINE
  5
4BA
330
21A
100
AcDbEntity
  8
RUNDUNGEN
  6
Continuous
 62
     9
100
AcDbSpline
210
0.0
220
0.0
230
1.0
 70
     8
 71
     3
 72
     9
 73
     5
 74
     0
 42
0.0000000001
 43
0.0000000001
 40
0.0
 40
0.0
 40
0.0
 40
0.0
 40
0.6212608355000001
 40
1.0
 40
1.0
 40
1.0
 40
1.0
 10
496.4873470814
 20
322.2056035356
 30
0.0
 10
496.1167248416
 20
322.2056044182
 30
0.0
 10
495.5201891098
 20
322.2031170975
 30
0.0
 10
494.9235675165
 20
322.2022094086
 30
0.0
 10
494.6976826080999
 20
322.1971131993
 30
0.0
  0
SPLINE
  5
4BB
330
21A
100
AcDbEntity
  8
RUNDUNGEN
  6
Continuous
 62
     9
100
AcDbSpline
210
0.0
220
0.0
230
1.0
 70
     8
 71
     3
 72
    12
 73
     8
 74
     0
 42
0.0000000001
 43
0.0000000001
 40
0.0
 40
0.0
 40
0.0
 40
0.0
 40
0.0677942034
 40
0.155142182
 40
0.3871185929
 40
0.6812566159000001
 40
1.0
 40
1.0
 40
1.0
 40
1.0
 10
493.8996436317999
 20
300.8047776138
 30
0.0
 10
493.9290268385
 20
300.7732514522
 30
0.0
 10
494.0083367976999
 20
300.7127091685
 30
0.0
 10
494.2268022827
 20
300.598515808
 30
0.0
 10
494.6012132558
 20
300.4805225969
 30
0.0
 10
495.1302549580999
 20
300.3846280179
 30
0.0
 10
495.5201495305999
 20
300.357945377
 30
0.0
 10
495.7227679333
 20
300.3567584671
 30
0.0
  0
SPLINE
  5
4BC
330
21A
100
AcDbEntity
  8
RUNDUNGEN
  6
Continuous
 62
     9
100
AcDbSpline
210
0.0
220
0.0
230
1.0
 70
     8
 71
     3
 72
    12
 73
     8
 74
     0
 42
0.0000000001
 43
0.0000000001
 40
0.0
 40
0.0
 40
0.0
 40
0.0
 40
0.0578021934
 40
0.1415207825
 40
0.377075404
 40
0.6777466501000001
 40
1.0
 40
1.0
 40
1.0
 40
1.0
 10
492.9296324082
 20
320.0775858064
 30
0.0
 10
492.9625968658
 20
320.0655809966999
 30
0.0
 10
493.0464245778999
 20
320.0453642151
 30
0.0
 10
493.2719946289
 20
320.0071227562
 30
0.0
 10
493.6469072826
 20
319.9702092138
 30
0.0
 10
494.1670505919999
 20
319.9400465164
 30
0.0
 10
494.5451675056999
 20
319.9315949782
 30
0.0
 10
494.7407539958
 20
319.9308824342
 30
0.0
  0
SPLINE
  5
4BD
330
21A
100
AcDbEntity
  8
RUNDUNGEN
  6
Continuous
 62
     9
100
AcDbSpline
210
0.0
220
0.0
230
1.0
 70
     8
 71
     3
 72
    11
 73
     7
 74
     0
 42
0.0000000001
 43
0.0000000001
 40
0.0
 40
0.0
 40
0.0
 40
0.0
 40
0.2458643953
 40
0.4943788712
 40
0.7461824661
 40
1.0
 40
1.0
 40
1.0
 40
1.0
 10
495.6677578006999
 20
321.1972655042
 30
0.0
 10
495.5418723231999
 20
321.197314957
 30
0.0
 10
495.2859068833999
 20
321.2501826902
 30
0.0
 10
494.9642211098
 20
321.4739224557
 30
0.0
 10
494.7492140860999
 20
321.8058315275
 30
0.0
 10
494.698269573
 20
322.0671569363
 30
0.0
 10
494.6976826080999
 20
322.1971131993
 30
0.0
  0
SPLINE
  5
4BE
330
21A
100
AcDbEntity
  8
RUNDUNGEN
  6
Continuous
 62
     9
100
AcDbSpline
210
0.0
220
0.0
230
1.0
 70
     8
 71
     3
 72
    12
 73
     8
 74
     0
 42
0.0000000001
 43
0.0000000001
 40
0.0
 40
0.0
 40
0.0
 40
0.0
 40
0.1120492444
 40
0.208058996
 40
0.3305313735
 40
0.6400025512
 40
1.0
 40
1.0
 40
1.0
 40
1.0
 10
496.2641281632
 20
321.2057558404
 30
0.0
 10
496.3033375603
 20
321.2087683893
 30
0.0
 10
496.3532470694
 20
321.2840134993
 30
0.0
 10
496.3928244437999
 20
321.3871276907
 30
0.0
 10
496.4407166705999
 20
321.5690548575
 30
0.0
 10
496.4771632399999
 20
321.8437820472
 30
0.0
 10
496.487347088
 20
322.0792583344
 30
0.0
 10
496.4873470804
 20
322.2056035356
 30
0.0
  0
SPLINE
  5
4BF
330
21A
100
AcDbEntity
  8
RUNDUNGEN
  6
Continuous
 62
     9
100
AcDbSpline
210
0.0
220
0.0
230
1.0
 70
     8
 71
     3
 72
    12
 73
     8
 74
     0
 42
0.0000000001
 43
0.0000000001
 40
0.0
 40
0.0
 40
0.0
 40
0.0
 40
0.1120492357
 40
0.2080589884
 40
0.3305313683
 40
0.6400025507000001
 40
1.0
 40
1.0
 40
1.0
 40
1.0
 10
516.929926208
 20
321.2057558404
 30
0.0
 10
516.8907168145999
 20
321.2087683899
 30
0.0
 10
516.8408073191999
 20
321.2840135077
 30
0.0
 10
516.8012299498
 20
321.3871276949
 30
0.0
 10
516.7533377255
 20
321.5690548638
 30
0.0
 10
516.7168911496999
 20
321.8437820504
 30
0.0
 10
516.7067072902999
 20
322.0792583359
 30
0.0
 10
516.7067072899
 20
322.2056035356
 30
0.0
  0
SPLINE
  5
4C0
330
21A
100
AcDbEntity
  8
RUNDUNGEN
  6
Continuous
 62
     9
100
AcDbSpline
210
0.0
220
0.0
230
1.0
 70
     8
 71
     3
 72
    11
 73
     7
 74
     0
 42
0.0000000001
 43
0.0000000001
 40
0.0
 40
0.0
 40
0.0
 40
0.0
 40
0.2458643625
 40
0.4943788569
 40
0.7461824734999999
 40
1.0
 40
1.0
 40
1.0
 40
1.0
 10
517.5262965705
 20
321.1972655054
 30
0.0
 10
517.6521812205
 20
321.1973155692
 30
0.0
 10
517.9081447733999
 20
321.2501846782
 30
0.0
 10
518.2298265833
 20
321.4739257535
 30
0.0
 10
518.4448297973999
 20
321.8058341026
 30
0.0
 10
518.4957732348
 20
322.0671577769
 30
0.0
 10
518.4963601938
 20
322.1971131993
 30
0.0
  0
SPLINE
  5
4C1
330
21A
100
AcDbEntity
  8
RUNDUNGEN
  6
Continuous
 62
     9
100
AcDbSpline
210
0.0
220
0.0
230
1.0
 70
     8
 71
     3
 72
    13
 73
     9
 74
     0
 42
0.0000000001
 43
0.0000000001
 40
0.0
 40
0.0
 40
0.0
 40
0.0
 40
0.3466424325
 40
0.6590210181
 40
0.7851077001000001
 40
0.8842313859999999
 40
0.9543353362999999
 40
1.0
 40
1.0
 40
1.0
 40
1.0
 10
494.7407849569999
 20
319.9308817048
 30
0.0
 10
494.734307727
 20
320.0749824797
 30
0.0
 10
494.7359608144999
 20
320.3496336813
 30
0.0
 10
494.7696153455
 20
320.6755372581
 30
0.0
 10
494.8179487031
 20
320.8942078544
 30
0.0
 10
494.8589524694999
 20
321.0106635692
 30
0.0
 10
494.9014771179
 20
321.0893997384
 30
0.0
 10
494.9447964578999
 20
321.1201081185
 30
0.0
 10
494.9637447213
 20
321.1215383955
 30
0.0
  0
SPLINE
  5
4C2
330
21A
100
AcDbEntity
  8
RUNDUNGEN
  6
Continuous
 62
     9
100
AcDbSpline
210
0.0
220
0.0
230
1.0
 70
     8
 71
     3
 72
    13
 73
     9
 74
     0
 42
0.0000000001
 43
0.0000000001
 40
0.0
 40
0.0
 40
0.0
 40
0.0
 40
0.3466424276
 40
0.6590210126000001
 40
0.785107696
 40
0.8842313837999999
 40
0.9543353357999999
 40
1.0
 40
1.0
 40
1.0
 40
1.0
 10
518.4532694141999
 20
319.9308817048
 30
0.0
 10
518.4597466433
 20
320.0749824775
 30
0.0
 10
518.4580935545
 20
320.3496336764
 30
0.0
 10
518.4244390237999
 20
320.675537251
 30
0.0
 10
518.3761056669999
 20
320.8942078482
 30
0.0
 10
518.3351019012999
 20
321.0106635654
 30
0.0
 10
518.2925772534999
 20
321.0893997364
 30
0.0
 10
518.2492579134999
 20
321.1201081184
 30
0.0
 10
518.2303096498999
 20
321.1215383955
 30
0.0
  0
SPLINE
  5
4C3
330
21A
100
AcDbEntity
  8
RUNDUNGEN
  6
Continuous
 62
     9
100
AcDbSpline
210
0.0
220
0.0
230
1.0
 70
     8
 71
     3
 72
    10
 73
     6
 74
     0
 42
0.0000000001
 43
0.0000000001
 40
0.0
 40
0.0
 40
0.0
 40
0.0
 40
0.5812959838000001
 40
0.8134219245999998
 40
1.0
 40
1.0
 40
1.0
 40
1.0
 10
519.5360046099999
 20
320.59957808
 30
0.0
 10
519.6849200898999
 20
320.5086352305
 30
0.0
 10
519.8976108937
 20
320.3878601966
 30
0.0
 10
520.1414910598999
 20
320.2125630178
 30
0.0
 10
520.2317755830001
 20
320.1230857128
 30
0.0
 10
520.2644403752999
 20
320.0775924379
 30
0.0
  0
SPLINE
  5
4C4
330
21A
100
AcDbEntity
  8
RUNDUNGEN
  6
Continuous
 62
     9
100
AcDbSpline
210
0.0
220
0.0
230
1.0
 70
     8
 71
     3
 72
     9
 73
     5
 74
     0
 42
0.0000000001
 43
0.0000000001
 40
0.0
 40
0.0
 40
0.0
 40
0.0
 40
0.2398007149
 40
1.0
 40
1.0
 40
1.0
 40
1.0
 10
520.110602029
 20
321.0882850654
 30
0.0
 10
520.1261682614
 20
321.0080616538
 30
0.0
 10
520.1856031349
 20
320.6724474753
 30
0.0
 10
520.2301526117
 20
320.3344752086
 30
0.0
 10
520.2644272023999
 20
320.0776906257
 30
0.0
  0
SPLINE
  5
4C5
330
21A
100
AcDbEntity
  8
RUNDUNGEN
  6
Continuous
 62
     9
100
AcDbSpline
210
0.0
220
0.0
230
1.0
 70
     8
 71
     3
 72
    11
 73
     7
 74
     0
 42
0.0000000001
 43
0.0000000001
 40
0.0
 40
0.0
 40
0.0
 40
0.0
 40
0.253817613
 40
0.5056212443
 40
0.7541356772
 40
1.0
 40
1.0
 40
1.0
 40
1.0
 10
519.6298403923999
 20
322.1206866627
 30
0.0
 10
519.6292540039999
 20
321.9907285973
 30
0.0
 10
519.5783092371
 20
321.7293992874
 30
0.0
 10
519.3632978259
 20
321.3974862701
 30
0.0
 10
519.0416050386
 20
321.1737467077
 30
0.0
 10
518.7856348630999
 20
321.1208830302
 30
0.0
 10
518.6597477174999
 20
321.1208364687
 30
0.0
  0
SPLINE
  5
4C6
330
21A
100
AcDbEntity
  8
RUNDUNGEN
  6
Continuous
 62
     9
100
AcDbSpline
210
0.0
220
0.0
230
1.0
 70
     8
 71
     3
 72
    11
 73
     7
 74
     0
 42
0.0000000001
 43
0.0000000001
 40
0.0
 40
0.0
 40
0.0
 40
0.0
 40
0.1816422445
 40
0.4257558985000001
 40
0.7087822795000001
 40
1.0
 40
1.0
 40
1.0
 40
1.0
 10
518.6597477174999
 20
321.1208364687
 30
0.0
 10
518.7217471571
 20
321.1184054883
 30
0.0
 10
518.8603722453999
 20
321.0563052656
 30
0.0
 10
519.0560083509999
 20
320.9173997095
 30
0.0
 10
519.2852272672999
 20
320.7559880156
 30
0.0
 10
519.4512605333
 20
320.6517251984
 30
0.0
 10
519.5359871733
 20
320.5995998476
 30
0.0
  0
SPLINE
  5
4C7
330
21A
100
AcDbEntity
  8
RUNDUNGEN
  6
Continuous
 62
     9
100
AcDbSpline
210
0.0
220
0.0
230
1.0
 70
     8
 71
     3
 72
    11
 73
     7
 74
     0
 42
0.0000000001
 43
0.0000000001
 40
0.0
 40
0.0
 40
0.0
 40
0.0
 40
0.2458643227
 40
0.4943787557000001
 40
0.7461823870000001
 40
1.0
 40
1.0
 40
1.0
 40
1.0
 10
494.5343066057
 20
321.1208364605
 30
0.0
 10
494.4084194634999
 20
321.120883028
 30
0.0
 10
494.1524492976999
 20
321.1737467149
 30
0.0
 10
493.8307565265
 20
321.3974862807
 30
0.0
 10
493.6157451275
 20
321.7293992922
 30
0.0
 10
493.5648003633999
 20
321.9907285948
 30
0.0
 10
493.5642139748
 20
322.1206866566
 30
0.0
  0
SPLINE
  5
4C8
330
21A
100
AcDbEntity
  8
RUNDUNGEN
  6
Continuous
 62
     9
100
AcDbSpline
210
0.0
220
0.0
230
1.0
 70
     8
 71
     3
 72
    11
 73
     7
 74
     0
 42
0.0000000001
 43
0.0000000001
 40
0.0
 40
0.0
 40
0.0
 40
0.0
 40
0.2912171895
 40
0.5742439394
 40
0.8183577845
 40
1.0
 40
1.0
 40
1.0
 40
1.0
 10
493.6580671809999
 20
320.59959967
 30
0.0
 10
493.7427955648
 20
320.6517218379
 30
0.0
 10
493.908823383
 20
320.7559932012
 30
0.0
 10
494.138046009
 20
320.9173992646
 30
0.0
 10
494.3336819739
 20
321.0563053592
 30
0.0
 10
494.4723071763999
 20
321.118405487
 30
0.0
 10
494.5343066057
 20
321.1208364605
 30
0.0
  0
SPLINE
  5
4C9
330
21A
100
AcDbEntity
  8
RUNDUNGEN
  6
Continuous
 62
     9
100
AcDbSpline
210
0.0
220
0.0
230
1.0
 70
     8
 71
     3
 72
    10
 73
     6
 74
     0
 42
0.0000000001
 43
0.0000000001
 40
0.0
 40
0.0
 40
0.0
 40
0.0
 40
0.1865775663
 40
0.4187033708
 40
1.0
 40
1.0
 40
1.0
 40
1.0
 10
492.9296139958999
 20
320.0775924379
 30
0.0
 10
492.9622787546
 20
320.1230855594
 30
0.0
 10
493.0525636319999
 20
320.2125622248
 30
0.0
 10
493.2964427461
 20
320.3878608237
 30
0.0
 10
493.5091346035
 20
320.5086346763
 30
0.0
 10
493.6580499557
 20
320.5995781583
 30
0.0
  0
SPLINE
  5
4CA
330
21A
100
AcDbEntity
  8
RUNDUNGEN
  6
Continuous
 62
     9
100
AcDbSpline
210
0.0
220
0.0
230
1.0
 70
     8
 71
     3
 72
     9
 73
     5
 74
     0
 42
0.0000000001
 43
0.0000000001
 40
0.0
 40
0.0
 40
0.0
 40
0.0
 40
0.2570031173
 40
1.0
 40
1.0
 40
1.0
 40
1.0
 10
492.9296271416
 20
320.0776904234
 30
0.0
 10
492.9412142459999
 20
320.1644975857
 30
0.0
 10
492.9862976124
 20
320.5022271201
 30
0.0
 10
493.0352249353999
 20
320.8397351136
 30
0.0
 10
493.083452343
 20
321.0882850654
 30
0.0
  0
SPLINE
  5
4CB
330
21A
100
AcDbEntity
  8
RUNDUNGEN
  6
Continuous
 62
     9
100
AcDbSpline
210
0.0
220
0.0
230
1.0
 70
     8
 71
     3
 72
    10
 73
     6
 74
     0
 42
0.0000000001
 43
0.0000000001
 40
0.0
 40
0.0
 40
0.0
 40
0.0
 40
0.1799591691
 40
0.4230431542
 40
1.0
 40
1.0
 40
1.0
 40
1.0
 10
519.8394667914
 20
300.9151013912
 30
0.0
 10
519.8757654539
 20
300.8436282773
 30
0.0
 10
520.020868823
 20
300.7100263215
 30
0.0
 10
520.4236081189
 20
300.5189620386
 30
0.0
 10
520.7957806997
 20
300.4589985304
 30
0.0
 10
521.0527758962
 20
300.4611108429
 30
0.0
  0
SPLINE
  5
4CC
330
21A
100
AcDbEntity
  8
RUNDUNGEN
  6
Continuous
 62
     9
100
AcDbSpline
210
0.0
220
0.0
230
1.0
 70
     8
 71
     3
 72
    10
 73
     6
 74
     0
 42
0.0000000001
 43
0.0000000001
 40
0.0
 40
0.0
 40
0.0
 40
0.0
 40
0.5770722203
 40
0.8200568568999999
 40
1.0
 40
1.0
 40
1.0
 40
1.0
 10
523.9904443922999
 20
322.7568615431
 30
0.0
 10
523.7339748573
 20
322.7551378284
 30
0.0
 10
523.362723531
 20
322.815259094
 30
0.0
 10
522.961024183
 20
323.0062079721
 30
0.0
 10
522.8163913152
 20
323.1395473712
 30
0.0
 10
522.7801759752
 20
323.2108519716
 30
0.0
  0
SPLINE
  5
4CD
330
21A
100
AcDbEntity
  8
RUNDUNGEN
  6
Continuous
 62
     9
100
AcDbSpline
210
0.0
220
0.0
230
1.0
 70
     8
 71
     3
 72
     9
 73
     5
 74
     0
 42
0.0000000001
 43
0.0000000001
 40
0.0
 40
0.0
 40
0.0
 40
0.0
 40
0.6187024149
 40
1.0
 40
1.0
 40
1.0
 40
1.0
 10
524.0767006008999
 20
324.106879281
 30
0.0
 10
523.8209472223998
 20
324.1068623925
 30
0.0
 10
523.4075859882
 20
324.1080458639
 30
0.0
 10
522.9941967555
 20
324.1084372608
 30
0.0
 10
522.83659823
 20
324.1108638443
 30
0.0
  0
SPLINE
  5
4CE
330
21A
100
AcDbEntity
  8
RUNDUNGEN
  6
Continuous
 62
     9
100
AcDbSpline
210
0.0
220
0.0
230
1.0
 70
     8
 71
     3
 72
     9
 73
     5
 74
     0
 42
0.0000000001
 43
0.0000000001
 40
0.0
 40
0.0
 40
0.0
 40
0.0
 40
0.6187025897
 40
1.0
 40
1.0
 40
1.0
 40
1.0
 10
524.0798619115
 20
327.1747814831
 30
0.0
 10
523.8241090763999
 20
327.1747645761
 30
0.0
 10
523.4107488373
 20
327.1759480403
 30
0.0
 10
522.9973605991999
 20
327.1763394403
 30
0.0
 10
522.8397625257001
 20
327.1787660463
 30
0.0
  0
SPLINE
  5
4CF
330
21A
100
AcDbEntity
  8
RUNDUNGEN
  6
Continuous
 62
     9
100
AcDbSpline
210
0.0
220
0.0
230
1.0
 70
     8
 71
     3
 72
    11
 73
     7
 74
     0
 42
0.0000000001
 43
0.0000000001
 40
0.0
 40
0.0
 40
0.0
 40
0.0
 40
0.352906368
 40
0.6586108959
 40
0.8791810498999998
 40
1.0
 40
1.0
 40
1.0
 40
1.0
 10
491.0731143342999
 20
329.1779444839
 30
0.0
 10
491.0732338651
 20
329.0546863493
 30
0.0
 10
491.0827562783
 20
328.8255543234
 30
0.0
 10
491.1292888373999
 20
328.5171573432
 30
0.0
 10
491.1872346091
 20
328.3078058342
 30
0.0
 10
491.2625441792999
 20
328.1921809675
 30
0.0
 10
491.3037968975999
 20
328.1832995125
 30
0.0
  0
SPLINE
  5
4D0
330
21A
100
AcDbEntity
  8
RUNDUNGEN
  6
Continuous
 62
     9
100
AcDbSpline
210
0.0
220
0.0
230
1.0
 70
     8
 71
     3
 72
    11
 73
     7
 74
     0
 42
0.0000000001
 43
0.0000000001
 40
0.0
 40
0.0
 40
0.0
 40
0.0
 40
0.2533646807999999
 40
0.5054030742000001
 40
0.7542858282
 40
1.0
 40
1.0
 40
1.0
 40
1.0
 10
494.6976826080999
 20
326.299433428
 30
0.0
 10
494.6994449661
 20
326.4293919801
 30
0.0
 10
494.7529327258999
 20
326.6905636362
 30
0.0
 10
494.9706153398999
 20
327.0215005562
 30
0.0
 10
495.2935680701
 20
327.244758845
 30
0.0
 10
495.5500056068
 20
327.2979146584
 30
0.0
 10
495.6760514781
 20
327.2980629627
 30
0.0
  0
SPLINE
  5
4D1
330
21A
100
AcDbEntity
  8
RUNDUNGEN
  6
Continuous
 62
     9
100
AcDbSpline
210
0.0
220
0.0
230
1.0
 70
     8
 71
     3
 72
    12
 73
     8
 74
     0
 42
0.0000000001
 43
0.0000000001
 40
0.0
 40
0.0
 40
0.0
 40
0.0
 40
0.3538695452
 40
0.6602375851
 40
0.8802076826999998
 40
0.9514763741999999
 40
1.0
 40
1.0
 40
1.0
 40
1.0
 10
496.4873470813
 20
326.2739417057
 30
0.0
 10
496.4873470846
 20
326.3975813598
 30
0.0
 10
496.4780178683999
 20
326.6286699094
 30
0.0
 10
496.4369295949
 20
326.9330929728
 30
0.0
 10
496.3824230672
 20
327.137496947
 30
0.0
 10
496.3236577877999
 20
327.2408716988
 30
0.0
 10
496.2885731114
 20
327.2687603404
 30
0.0
 10
496.2720531413999
 20
327.2725712405
 30
0.0
  0
SPLINE
  5
4D2
330
21A
100
AcDbEntity
  8
RUNDUNGEN
  6
Continuous
 62
     9
100
AcDbSpline
210
0.0
220
0.0
230
1.0
 70
     8
 71
     3
 72
    12
 73
     8
 74
     0
 42
0.0000000001
 43
0.0000000001
 40
0.0
 40
0.0
 40
0.0
 40
0.0
 40
0.3538695413
 40
0.6602375828
 40
0.8802076839999999
 40
0.9514763762999999
 40
1.0
 40
1.0
 40
1.0
 40
1.0
 10
516.7067072899
 20
326.2739417057
 30
0.0
 10
516.7067072898
 20
326.3975813578
 30
0.0
 10
516.7160365104999
 20
326.6286699051
 30
0.0
 10
516.7571247863
 20
326.9330929667
 30
0.0
 10
516.8116313118
 20
327.1374969425
 30
0.0
 10
516.8703965869
 20
327.240871696
 30
0.0
 10
516.9054812606999
 20
327.2687603402
 30
0.0
 10
516.9220012298999
 20
327.2725712405
 30
0.0
  0
SPLINE
  5
4D3
330
21A
100
AcDbEntity
  8
RUNDUNGEN
  6
Continuous
 62
     9
100
AcDbSpline
210
0.0
220
0.0
230
1.0
 70
     8
 71
     3
 72
    11
 73
     7
 74
     0
 42
0.0000000001
 43
0.0000000001
 40
0.0
 40
0.0
 40
0.0
 40
0.0
 40
0.2533646683
 40
0.5054030732000001
 40
0.7542858467000001
 40
1.0
 40
1.0
 40
1.0
 40
1.0
 10
518.4963614166999
 20
326.299433428
 30
0.0
 10
518.4945990726999
 20
326.429391226
 30
0.0
 10
518.4411122970999
 20
326.690561335
 30
0.0
 10
518.2234330835999
 20
327.0214976211
 30
0.0
 10
517.9004838805
 20
327.2447570694
 30
0.0
 10
517.6440480291001
 20
327.2979141088
 30
0.0
 10
517.5180028932
 20
327.2980629596
 30
0.0
  0
SPLINE
  5
4D4
330
21A
100
AcDbEntity
  8
RUNDUNGEN
  6
Continuous
 62
     9
100
AcDbSpline
210
0.0
220
0.0
230
1.0
 70
     8
 71
     3
 72
    10
 73
     6
 74
     0
 42
0.0000000001
 43
0.0000000001
 40
0.0
 40
0.0
 40
0.0
 40
0.0
 40
0.5770722379
 40
0.8200568690999999
 40
1.0
 40
1.0
 40
1.0
 40
1.0
 10
489.203609938
 20
322.7568614671
 30
0.0
 10
489.4600794964
 20
322.7551377519
 30
0.0
 10
489.8313308526
 20
322.8152590299
 30
0.0
 10
490.233030214
 20
323.0062079423
 30
0.0
 10
490.3776630709999
 20
323.1395473643
 30
0.0
 10
490.4138783961
 20
323.2108519716
 30
0.0
  0
SPLINE
  5
4D5
330
21A
100
AcDbEntity
  8
RUNDUNGEN
  6
Continuous
 62
     9
100
AcDbSpline
210
0.0
220
0.0
230
1.0
 70
     8
 71
     3
 72
    10
 73
     6
 74
     0
 42
0.0000000001
 43
0.0000000001
 40
0.0
 40
0.0
 40
0.0
 40
0.0
 40
0.1799591692
 40
0.4230431553000001
 40
1.0
 40
1.0
 40
1.0
 40
1.0
 10
493.3545875799
 20
300.9151013913
 30
0.0
 10
493.3182889165
 20
300.8436282757
 30
0.0
 10
493.1731855424
 20
300.7100263171
 30
0.0
 10
492.7704462351999
 20
300.5189620332
 30
0.0
 10
492.3982736444
 20
300.4589985265
 30
0.0
 10
492.1412784423
 20
300.4611108431
 30
0.0
  0
SPLINE
  5
4D6
330
21A
100
AcDbEntity
  8
RUNDUNGEN
  6
Continuous
 62
     9
100
AcDbSpline
210
0.0
220
0.0
230
1.0
 70
     8
 71
     3
 72
     9
 73
     5
 74
     0
 42
0.0000000001
 43
0.0000000001
 40
0.0
 40
0.0
 40
0.0
 40
0.0
 40
0.6187023896000001
 40
1.0
 40
1.0
 40
1.0
 40
1.0
 10
489.1173538072
 20
324.1068792815
 30
0.0
 10
489.3731071676
 20
324.1068623931
 30
0.0
 10
489.7864683895999
 20
324.1080458639
 30
0.0
 10
490.1998576099999
 20
324.1084372616
 30
0.0
 10
490.3574561412
 20
324.1108638443
 30
0.0
  0
SPLINE
  5
4D7
330
21A
100
AcDbEntity
  8
RUNDUNGEN
  6
Continuous
 62
     9
100
AcDbSpline
210
0.0
220
0.0
230
1.0
 70
     8
 71
     3
 72
    11
 73
     7
 74
     0
 42
0.0000000001
 43
0.0000000001
 40
0.0
 40
0.0
 40
0.0
 40
0.0
 40
0.2477684935
 40
0.4953960582
 40
0.7458799212000001
 40
1.0
 40
1.0
 40
1.0
 40
1.0
 10
491.3037968337
 20
328.1832945161
 30
0.0
 10
491.1773892169
 20
328.1834027078
 30
0.0
 10
490.9214023664
 20
328.1310485585
 30
0.0
 10
490.6028578041
 20
327.9042843701
 30
0.0
 10
490.3966024021999
 20
327.5692755398
 30
0.0
 10
490.3522812493
 20
327.3083985756
 30
0.0
 10
490.3542933567999
 20
327.1787660463
 30
0.0
  0
SPLINE
  5
4D8
330
21A
100
AcDbEntity
  8
RUNDUNGEN
  6
Continuous
 62
     9
100
AcDbSpline
210
0.0
220
0.0
230
1.0
 70
     8
 71
     3
 72
     9
 73
     5
 74
     0
 42
0.0000000001
 43
0.0000000001
 40
0.0
 40
0.0
 40
0.0
 40
0.0
 40
0.3812976993
 40
1.0
 40
1.0
 40
1.0
 40
1.0
 10
490.3542933567999
 20
327.1787660463
 30
0.0
 10
490.1966950680999
 20
327.176339438
 30
0.0
 10
489.7833065787
 20
327.1759480459
 30
0.0
 10
489.3699460883
 20
327.1747645842
 30
0.0
 10
489.1141932171
 20
327.1747814941
 30
0.0
  0
SPLINE
  5
4D9
330
21A
100
AcDbEntity
  8
RUNDUNGEN
  6
Continuous
 62
     9
100
AcDbSpline
210
0.0
220
0.0
230
1.0
 70
     8
 71
     3
 72
    11
 73
     7
 74
     0
 42
0.0000000001
 43
0.0000000001
 40
0.0
 40
0.0
 40
0.0
 40
0.0
 40
0.2541199936
 40
0.5046038167
 40
0.7522313315000001
 40
1.0
 40
1.0
 40
1.0
 40
1.0
 10
522.8397610063999
 20
327.1787660463
 30
0.0
 10
522.841773118
 20
327.3083985363
 30
0.0
 10
522.7974519764
 20
327.569275443
 30
0.0
 10
522.5911966573001
 20
327.9042842235
 30
0.0
 10
522.2726521587
 20
328.131048555
 30
0.0
 10
522.0166652455999
 20
328.183402869
 30
0.0
 10
521.8902575353999
 20
328.1832946862
 30
0.0
  0
SPLINE
  5
4DA
330
21A
100
AcDbEntity
  8
RUNDUNGEN
  6
Continuous
 62
     9
100
AcDbSpline
210
0.0
220
0.0
230
1.0
 70
     8
 71
     3
 72
    11
 73
     7
 74
     0
 42
0.0000000001
 43
0.0000000001
 40
0.0
 40
0.0
 40
0.0
 40
0.0
 40
0.1208189499
 40
0.3413891040999999
 40
0.6470936321
 40
1.0
 40
1.0
 40
1.0
 40
1.0
 10
521.8902574736
 20
328.1832995125
 30
0.0
 10
521.9315101919
 20
328.1921809676
 30
0.0
 10
522.0068197614
 20
328.3078058347
 30
0.0
 10
522.0647655328
 20
328.5171573435
 30
0.0
 10
522.1112980919
 20
328.8255543236
 30
0.0
 10
522.1208205056999
 20
329.0546863494
 30
0.0
 10
522.1209400369
 20
329.1779444839
 30
0.0
  0
SPLINE
  5
4DB
330
21A
100
AcDbEntity
  8
RUNDUNGEN
  6
Continuous
 62
     9
100
AcDbSpline
210
0.0
220
0.0
230
1.0
 70
     8
 71
     3
 72
    11
 73
     7
 74
     0
 42
0.0000000001
 43
0.0000000001
 40
0.0
 40
0.0
 40
0.0
 40
0.0
 40
0.2457014358
 40
0.4945844446
 40
0.7466325203000001
 40
1.0
 40
1.0
 40
1.0
 40
1.0
 10
492.4281220569
 20
299.3068484147
 30
0.0
 10
492.6174994143
 20
299.3065338418
 30
0.0
 10
493.0030329757
 20
299.3854583476
 30
0.0
 10
493.4889038965
 20
299.720100802
 30
0.0
 10
493.8164904917
 20
300.2170798462
 30
0.0
 10
493.8969947441999
 20
300.6095163873
 30
0.0
 10
493.8996421448
 20
300.8047847646
 30
0.0
  0
SPLINE
  5
4DC
330
21A
100
AcDbEntity
  8
RUNDUNGEN
  6
Continuous
 62
     9
100
AcDbSpline
210
0.0
220
0.0
230
1.0
 70
     8
 71
     3
 72
    11
 73
     7
 74
     0
 42
0.0000000001
 43
0.0000000001
 40
0.0
 40
0.0
 40
0.0
 40
0.0
 40
0.1199741745
 40
0.3349710043
 40
0.6376266171000001
 40
1.0
 40
1.0
 40
1.0
 40
1.0
 10
496.0421449766999
 20
299.145026013
 30
0.0
 10
495.9920653629
 20
299.1564824009
 30
0.0
 10
495.8978075699
 20
299.2903222427
 30
0.0
 10
495.8200154815
 20
299.5428640587
 30
0.0
 10
495.7518065473999
 20
299.9186172719
 30
0.0
 10
495.7297088528
 20
300.2017410609
 30
0.0
 10
495.7228058643
 20
300.3567568217
 30
0.0
  0
SPLINE
  5
4DD
330
21A
100
AcDbEntity
  8
RUNDUNGEN
  6
Continuous
 62
     9
100
AcDbSpline
210
0.0
220
0.0
230
1.0
 70
     8
 71
     3
 72
    11
 73
     7
 74
     0
 42
0.0000000001
 43
0.0000000001
 40
0.0
 40
0.0
 40
0.0
 40
0.0
 40
0.1199741778
 40
0.334971008
 40
0.6376266195
 40
1.0
 40
1.0
 40
1.0
 40
1.0
 10
517.1519093946
 20
299.145026013
 30
0.0
 10
517.20198901
 20
299.1564824006
 30
0.0
 10
517.2962468085
 20
299.2903222409
 30
0.0
 10
517.3740388976
 20
299.5428640599
 30
0.0
 10
517.4422478297
 20
299.9186172726
 30
0.0
 10
517.4643455208
 20
300.2017410614
 30
0.0
 10
517.4712485069
 20
300.3567568217
 30
0.0
  0
SPLINE
  5
4DE
330
21A
100
AcDbEntity
  8
RUNDUNGEN
  6
Continuous
 62
     9
100
AcDbSpline
210
0.0
220
0.0
230
1.0
 70
     8
 71
     3
 72
    11
 73
     7
 74
     0
 42
0.0000000001
 43
0.0000000001
 40
0.0
 40
0.0
 40
0.0
 40
0.0
 40
0.245701444
 40
0.4945844714
 40
0.7466325439000001
 40
1.0
 40
1.0
 40
1.0
 40
1.0
 10
520.7659324345
 20
299.3068404623
 30
0.0
 10
520.5765550610999
 20
299.3065272997
 30
0.0
 10
520.1910220795999
 20
299.3854545151
 30
0.0
 10
519.7051531508999
 20
299.7200997244
 30
0.0
 10
519.3775685552
 20
300.2170799101
 30
0.0
 10
519.297064858
 20
300.6095163979
 30
0.0
 10
519.2944174494
 20
300.8047847646
 30
0.0
  0
SPLINE
  5
4DF
330
21A
100
AcDbEntity
  8
RUNDUNGEN
  6
Continuous
 62
     9
100
AcDbSpline
210
0.0
220
0.0
230
1.0
 70
     8
 71
     3
 72
     9
 73
     5
 74
     0
 42
0.0000000001
 43
0.0000000001
 40
0.0
 40
0.0
 40
0.0
 40
0.0
 40
0.7468654169
 40
1.0
 40
1.0
 40
1.0
 40
1.0
 10
520.0069548844999
 20
300.1567789867
 30
0.0
 10
519.9175593249999
 20
300.3295506576
 30
0.0
 10
519.8437461981
 20
300.5886134349
 30
0.0
 10
519.8371027023
 20
300.8492121338
 30
0.0
 10
519.8394679555
 20
300.9151013483
 30
0.0
  0
SPLINE
  5
4E0
330
21A
100
AcDbEntity
  8
RUNDUNGEN
  6
Continuous
 62
     9
100
AcDbSpline
210
0.0
220
0.0
230
1.0
 70
     8
 71
     3
 72
    14
 73
    10
 74
     0
 42
0.0000000001
 43
0.0000000001
 40
0.0
 40
0.0
 40
0.0
 40
0.0
 40
0.3998741093
 40
0.5671624608000001
 40
0.70945861
 40
0.8249330504000001
 40
0.9122977598
 40
0.9706072693999999
 40
1.0
 40
1.0
 40
1.0
 40
1.0
 10
521.0846284409
 20
300.2029108919
 30
0.0
 10
521.0896644576
 20
300.0935364873
 30
0.0
 10
521.0973597705
 20
299.9383980414
 30
0.0
 10
521.1109985122
 20
299.7446581566
 30
0.0
 10
521.1205106727
 20
299.6285601221
 30
0.0
 10
521.1300162195999
 20
299.5347959652
 30
0.0
 10
521.1388172816
 20
299.463173047
 30
0.0
 10
521.1480622300999
 20
299.4173832067
 30
0.0
 10
521.152849767
 20
299.3921352299
 30
0.0
 10
521.1583748789999
 20
299.386283332
 30
0.0
  0
SPLINE
  5
4E1
330
21A
100
AcDbEntity
  8
RUNDUNGEN
  6
Continuous
 62
     9
100
AcDbSpline
210
0.0
220
0.0
230
1.0
 70
     8
 71
     3
 72
     9
 73
     5
 74
     0
 42
0.0000000001
 43
0.0000000001
 40
0.0
 40
0.0
 40
0.0
 40
0.0
 40
0.4779146916
 40
1.0
 40
1.0
 40
1.0
 40
1.0
 10
521.1583748864
 20
299.386283325
 30
0.0
 10
520.929490424
 20
299.3907742684
 30
0.0
 10
520.4465024594999
 20
299.5506627896
 30
0.0
 10
520.1218666416
 20
299.9346563601
 30
0.0
 10
520.0069626141
 20
300.1567836525
 30
0.0
  0
SPLINE
  5
4E2
330
21A
100
AcDbEntity
  8
RUNDUNGEN
  6
Continuous
 62
     9
100
AcDbSpline
210
0.0
220
0.0
230
1.0
 70
     8
 71
     3
 72
    10
 73
     6
 74
     0
 42
0.0000000001
 43
0.0000000001
 40
0.0
 40
0.0
 40
0.0
 40
0.0
 40
0.1909093954
 40
0.4290462291
 40
1.0
 40
1.0
 40
1.0
 40
1.0
 10
520.0069626141
 20
300.1567836525
 30
0.0
 10
520.0634666651
 20
300.1138352157
 30
0.0
 10
520.2175689816
 20
300.0542918352
 30
0.0
 10
520.5911631555999
 20
300.0348407634
 30
0.0
 10
520.8906033841999
 20
300.1171095243
 30
0.0
 10
521.0845997047
 20
300.2032514527
 30
0.0
  0
SPLINE
  5
4E3
330
21A
100
AcDbEntity
  8
RUNDUNGEN
  6
Continuous
 62
     9
100
AcDbSpline
210
0.0
220
0.0
230
1.0
 70
     8
 71
     3
 72
     9
 73
     5
 74
     0
 42
0.0000000001
 43
0.0000000001
 40
0.0
 40
0.0
 40
0.0
 40
0.0
 40
0.5220853149
 40
1.0
 40
1.0
 40
1.0
 40
1.0
 10
493.1870917711
 20
300.1567836441
 30
0.0
 10
493.0721876203
 20
299.9346564136
 30
0.0
 10
492.7475519194
 20
299.5506637767
 30
0.0
 10
492.2645639779999
 20
299.3907724772
 30
0.0
 10
492.0356794848999
 20
299.386283325
 30
0.0
  0
SPLINE
  5
4E4
330
21A
100
AcDbEntity
  8
RUNDUNGEN
  6
Continuous
 62
     9
100
AcDbSpline
210
0.0
220
0.0
230
1.0
 70
     8
 71
     3
 72
    14
 73
    10
 74
     0
 42
0.0000000001
 43
0.0000000001
 40
0.0
 40
0.0
 40
0.0
 40
0.0
 40
0.0293918593
 40
0.087701972
 40
0.1750665917
 40
0.290541105
 40
0.4328373287
 40
0.6001257664000001
 40
1.0
 40
1.0
 40
1.0
 40
1.0
 10
492.0356794923
 20
299.3862833321
 30
0.0
 10
492.0412011723
 20
299.3921381601
 30
0.0
 10
492.0459914051
 20
299.4173814401
 30
0.0
 10
492.0552378308
 20
299.463174025
 30
0.0
 10
492.0640377348
 20
299.534795947
 30
0.0
 10
492.0735439339
 20
299.6285607908
 30
0.0
 10
492.0830560798999
 20
299.7446588956
 30
0.0
 10
492.0966941704
 20
299.9383993364
 30
0.0
 10
492.1043905131999
 20
300.0935380207
 30
0.0
 10
492.1094260566
 20
300.202912675
 30
0.0
  0
SPLINE
  5
4E5
330
21A
100
AcDbEntity
  8
RUNDUNGEN
  6
Continuous
 62
     9
100
AcDbSpline
210
0.0
220
0.0
230
1.0
 70
     8
 71
     3
 72
     9
 73
     5
 74
     0
 42
0.0000000001
 43
0.0000000001
 40
0.0
 40
0.0
 40
0.0
 40
0.0
 40
0.2531345826
 40
1.0
 40
1.0
 40
1.0
 40
1.0
 10
493.3545864133
 20
300.9151013483
 30
0.0
 10
493.3569516683999
 20
300.8492121341
 30
0.0
 10
493.3503081780999
 20
300.588613435
 30
0.0
 10
493.276495047
 20
300.3295506586
 30
0.0
 10
493.1870994874
 20
300.1567789878
 30
0.0
  0
SPLINE
  5
4E6
330
21A
100
AcDbEntity
  8
RUNDUNGEN
  6
Continuous
 62
     9
100
AcDbSpline
210
0.0
220
0.0
230
1.0
 70
     8
 71
     3
 72
    10
 73
     6
 74
     0
 42
0.0000000001
 43
0.0000000001
 40
0.0
 40
0.0
 40
0.0
 40
0.0
 40
0.19091005
 40
0.4290462721
 40
1.0
 40
1.0
 40
1.0
 40
1.0
 10
493.1870994874
 20
300.1567789878
 30
0.0
 10
493.1305949008999
 20
300.1138293561
 30
0.0
 10
492.9764913471999
 20
300.0542833102
 30
0.0
 10
492.6028923305999
 20
300.0348292761
 30
0.0
 10
492.3034481825999
 20
300.1170988031
 30
0.0
 10
492.1094494233999
 20
300.2032418773
 30
0.0
  0
SPLINE
  5
4E7
330
21A
100
AcDbEntity
  8
RUNDUNGEN
  6
Continuous
 62
     9
100
AcDbSpline
210
0.0
220
0.0
230
1.0
 70
     8
 71
     3
 72
     9
 73
     5
 74
     0
 42
0.0000000001
 43
0.0000000001
 40
0.0
 40
0.0
 40
0.0
 40
0.0
 40
0.2386345104
 40
1.0
 40
1.0
 40
1.0
 40
1.0
 10
523.9904444311999
 20
322.7568614763
 30
0.0
 10
524.0047868376999
 20
322.8635519592
 30
0.0
 10
524.0561252344999
 20
323.3117952494
 30
0.0
 10
524.0763397594999
 20
323.7634205937
 30
0.0
 10
524.0767006008999
 20
324.106879281
 30
0.0
  0
SPLINE
  5
4E8
330
21A
100
AcDbEntity
  8
RUNDUNGEN
  6
Continuous
 62
     9
100
AcDbSpline
210
0.0
220
0.0
230
1.0
 70
     8
 71
     3
 72
     9
 73
     5
 74
     0
 42
0.0000000001
 43
0.0000000001
 40
0.0
 40
0.0
 40
0.0
 40
0.0
 40
0.2583385846
 40
1.0
 40
1.0
 40
1.0
 40
1.0
 10
489.1173537704
 20
324.106879281
 30
0.0
 10
489.1174762047
 20
323.9903429546
 30
0.0
 10
489.1249522148
 20
323.5393153526
 30
0.0
 10
489.1590355724
 20
323.0884418727
 30
0.0
 10
489.20360994
 20
322.7568614763
 30
0.0
  0
LEADER
  5
646
330
21A
100
AcDbEntity
  8
ZEICHNUNGSBEMASSUNGEN
  6
Continuous
 62
     7
100
AcDbLeader
  3
DIMSTYLE_2
 74
     0
 76
     3
 10
513.597027023573
 20
428.9229062838142
 30
0.0
 10
529.7356138497729
 20
438.5671503674715
 30
0.0
 10
546.8282439524791
 20
438.5344547890299
 30
0.0
213
8.546107528269942
223
6.697880158863256
233
0.0
1001
ACAD
1000
DSTYLE
1002
{
1070
    41
1040
5.0
1070
   147
1040
1.5
1070
   178
1070
   256
1002
}
  0
LINE
  5
647
330
21A
100
AcDbEntity
  8
0
100
AcDbLine
 10
549.1860143217563
 20
435.2885530113915
 30
0.0
 11
557.8251775960909
 21
435.2885530113915
 31
0.0
  0
LINE
  5
648
330
21A
100
AcDbEntity
  8
0
100
AcDbLine
 10
550.6812346963356
 20
434.1429261058818
 30
0.0
 11
556.313868493519
 21
434.1429261058818
 31
0.0
  0
LINE
  5
649
330
21A
100
AcDbEntity
  8
0
100
AcDbLine
 10
552.0920461498498
 20
433.2104786771297
 30
0.0
 11
555.0961146633031
 21
433.2104786771297
 31
0.0
  0
LINE
  5
64A
330
21A
100
AcDbEntity
  8
0
100
AcDbLine
 10
553.4582473018747
 20
436.8833587117189
 30
0.0
 11
553.4582473018747
 21
442.324464311645
 31
0.0
  0
ENDSEC
  0
SECTION
  2
OBJECTS
  0
DICTIONARY
  5
C
330
0
100
AcDbDictionary
281
     1
  3
ACAD_COLOR
350
51A
  3
ACAD_GROUP
350
D
  3
ACAD_LAYOUT
350
1A
  3
ACAD_MATERIAL
350
4ED
  3
ACAD_MLEADERSTYLE
350
52F
  3
ACAD_MLINESTYLE
350
17
  3
ACAD_PLOTSETTINGS
350
19
  3
ACAD_PLOTSTYLENAME
350
E
  3
ACAD_SCALELIST
350
51D
  3
ACAD_TABLESTYLE
350
51B
  3
ACAD_VISUALSTYLE
350
506
  3
ACDB_RECOMPOSE_DATA
350
69F
  3
AcDbVariableDictionary
350
690
  3
AcmDictionary
350
58A
  3
AMG
350
534
  3
AMGSNAPSETTINGS
350
5CF
  3
DWGPROPS
350
6A0
  0
DICTIONARY
  5
51A
102
{ACAD_REACTORS
330
C
102
}
330
C
100
AcDbDictionary
281
     1
  0
DICTIONARY
  5
D
102
{ACAD_REACTORS
330
C
102
}
330
C
100
AcDbDictionary
281
     1
  0
DICTIONARY
  5
1A
102
{ACAD_REACTORS
330
C
102
}
330
C
100
AcDbDictionary
281
     1
  3
Layout1
350
4EA
  3
Model
350
4E9
  0
DICTIONARY
  5
4ED
102
{ACAD_REACTORS
330
C
102
}
330
C
100
AcDbDictionary
281
     1
  3
ByBlock
350
4F6
  3
ByLayer
350
4EE
  3
Global
350
4FE
  0
DICTIONARY
  5
52F
102
{ACAD_REACTORS
330
C
102
}
330
C
100
AcDbDictionary
281
     1
  3
Standard
350
530
  0
DICTIONARY
  5
17
102
{ACAD_REACTORS
330
C
102
}
330
C
100
AcDbDictionary
281
     1
  3
Standard
350
18
  0
DICTIONARY
  5
19
102
{ACAD_REACTORS
330
C
102
}
330
C
100
AcDbDictionary
281
     1
  0
ACDBDICTIONARYWDFLT
  5
E
102
{ACAD_REACTORS
330
C
102
}
330
C
100
AcDbDictionary
281
     1
  3
Normal
350
F
100
AcDbDictionaryWithDefault
340
F
  0
DICTIONARY
  5
51D
102
{ACAD_REACTORS
330
C
102
}
330
C
100
AcDbDictionary
281
     1
  3
A0
350
51E
  3
A1
350
51F
  3
A2
350
520
  3
A3
350
521
  3
A4
350
522
  3
A5
350
523
  3
A6
350
524
  3
A7
350
525
  3
A8
350
526
  3
A9
350
527
  3
B0
350
528
  3
B1
350
529
  3
B2
350
52A
  3
B3
350
52B
  3
B4
350
52C
  3
B5
350
52D
  3
B6
350
52E
  0
DICTIONARY
  5
51B
102
{ACAD_REACTORS
330
C
102
}
330
C
100
AcDbDictionary
281
     1
  3
Standard
350
51C
  0
DICTIONARY
  5
506
102
{ACAD_REACTORS
330
C
102
}
330
C
100
AcDbDictionary
281
     1
  3
2dWireframe
350
50C
  3
3D Hidden
350
50E
  3
3dWireframe
350
50D
  3
Basic
350
50B
  3
Brighten
350
512
  3
ColorChange
350
516
  3
Conceptual
350
50F
  3
Dim
350
511
  3
EdgeColorOff
350
519
  3
Facepattern
350
515
  3
Flat
350
507
  3
FlatWithEdges
350
508
  3
Gouraud
350
509
  3
GouraudWithEdges
350
50A
  3
JitterOff
350
517
  3
Linepattern
350
514
  3
OverhangOff
350
518
  3
Realistic
350
510
  3
Thicken
350
513
  0
XRECORD
  5
69F
102
{ACAD_REACTORS
330
C
102
}
330
C
100
AcDbXrecord
280
     1
 90
        1
330
51C
  0
DICTIONARY
  5
690
102
{ACAD_REACTORS
330
C
102
}
330
C
100
AcDbDictionary
281
     1
  3
CANNOSCALE
350
694
  3
CMLEADERSTYLE
350
692
  3
CTABLESTYLE
350
691
  3
DIMASSOC
350
69B
  3
HIDETEXT
350
69A
  3
INDEXCTL
350
699
  3
LAYEREVAL
350
696
  3
LAYERNOTIFY
350
697
  3
LIGHTINGUNITS
350
695
  3
MSLTSCALE
350
693
  3
SORTENTS
350
698
  3
XCLIPFRAME
350
69C
  0
DICTIONARY
  5
58A
102
{ACAD_REACTORS
330
C
102
}
330
C
100
AcDbDictionary
281
     1
  3
AcmStdDictionary
350
594
  0
DICTIONARY
  5
534
102
{ACAD_REACTORS
330
C
102
}
330
C
100
AcDbDictionary
281
     1
  0
DICTIONARY
  5
5CF
102
{ACAD_REACTORS
330
C
102
}
330
C
100
AcDbDictionary
281
     1
  0
XRECORD
  5
6A0
102
{ACAD_REACTORS
330
C
102
}
330
C
100
AcDbXrecord
280
     1
  1
DWGPROPS COOKIE
  2

  3

  4

  6

  7

  8
sheim
  9

300
=
301
=
302
=
303
=
304
=
305
=
306
=
307
=
308
=
309
=
 40
0.0011254050925926
 41
2456324.650667755
 42
2456324.651792789
  1

 90
        0
  0
LAYOUT
  5
4EA
102
{ACAD_XDICTIONARY
360
6A3
102
}
102
{ACAD_REACTORS
330
1A
102
}
330
1A
100
AcDbPlotSettings
  1

  2
none_device
  4
ISO_A0_(1189.00_x_841.00_MM)
  6

 40
0.0
 41
0.0
 42
0.0
 43
0.0
 44
1189.0
 45
841.0
 46
0.0
 47
0.0
 48
0.0
 49
0.0
140
0.0
141
0.0
142
1.0
143
1.0
 70
     0
 72
     1
 73
     0
 74
     0
  7

 75
     0
147
1.0
148
0.0
149
0.0
100
AcDbLayout
  1
Layout1
 70
     1
 71
     1
 10
0.0
 20
0.0
 11
12.0
 21
9.0
 12
0.0
 22
0.0
 32
0.0
 14
1.000000000000000E+20
 24
1.000000000000000E+20
 34
1.000000000000000E+20
 15
-1.000000000000000E+20
 25
-1.000000000000000E+20
 35
-1.000000000000000E+20
146
0.0
 13
0.0
 23
0.0
 33
0.0
 16
1.0
 26
0.0
 36
0.0
 17
0.0
 27
1.0
 37
0.0
 76
     0
330
21B
  0
LAYOUT
  5
4E9
102
{ACAD_XDICTIONARY
360
6A1
102
}
102
{ACAD_REACTORS
330
1A
102
}
330
1A
100
AcDbPlotSettings
  1

  2
none_device
  4
ISO_A0_(1189.00_x_841.00_MM)
  6

 40
0.0
 41
0.0
 42
0.0
 43
0.0
 44
1189.0
 45
841.0
 46
0.0
 47
0.0
 48
0.0
 49
0.0
140
0.0
141
0.0
142
1.0
143
1.0
 70
  1024
 72
     1
 73
     0
 74
     0
  7

 75
     0
147
1.0
148
0.0
149
0.0
100
AcDbLayout
  1
Model
 70
     0
 71
     0
 10
0.0
 20
0.0
 11
1189.0
 21
841.0
 12
0.0
 22
0.0
 32
0.0
 14
0.0
 24
0.0
 34
0.0
 15
0.0
 25
0.0
 35
0.0
146
0.0
 13
0.0
 23
0.0
 33
0.0
 16
1.0
 26
0.0
 36
0.0
 17
0.0
 27
1.0
 37
0.0
 76
     0
330
21A
331
1F4
  0
MATERIAL
  5
4F6
102
{ACAD_XDICTIONARY
360
4F7
102
}
102
{ACAD_REACTORS
330
4ED
102
}
330
4ED
100
AcDbMaterial
  1
ByBlock
 72
     0
 43
0.0008202099737533
 43
0.0
 43
0.0
 43
0.0
 43
0.0
 43
0.0008202099737533
 43
0.0
 43
0.0
 43
0.0
 43
0.0
 43
1.0
 43
0.0
 43
0.0
 43
0.0
 43
0.0
 43
1.0
 77
     0
 47
0.0008202099737533
 47
0.0
 47
0.0
 47
0.0
 47
0.0
 47
0.0008202099737533
 47
0.0
 47
0.0
 47
0.0
 47
0.0
 47
1.0
 47
0.0
 47
0.0
 47
0.0
 47
0.0
 47
1.0
171
     0
 49
0.0008202099737533
 49
0.0
 49
0.0
 49
0.0
 49
0.0
 49
0.0008202099737533
 49
0.0
 49
0.0
 49
0.0
 49
0.0
 49
1.0
 49
0.0
 49
0.0
 49
0.0
 49
0.0
 49
1.0
175
     0
142
0.0008202099737533
142
0.0
142
0.0
142
0.0
142
0.0
142
0.0008202099737533
142
0.0
142
0.0
142
0.0
142
0.0
142
1.0
142
0.0
142
0.0
142
0.0
142
0.0
142
1.0
179
     0
144
0.0008202099737533
144
0.0
144
0.0
144
0.0
144
0.0
144
0.0008202099737533
144
0.0
144
0.0
144
0.0
144
0.0
144
1.0
144
0.0
144
0.0
144
0.0
144
0.0
144
1.0
147
0.0008202099737533
147
0.0
147
0.0
147
0.0
147
0.0
147
0.0008202099737533
147
0.0
147
0.0
147
0.0
147
0.0
147
1.0
147
0.0
147
0.0
147
0.0
147
0.0
147
1.0
  0
MATERIAL
  5
4EE
102
{ACAD_XDICTIONARY
360
4EF
102
}
102
{ACAD_REACTORS
330
4ED
102
}
330
4ED
100
AcDbMaterial
  1
ByLayer
 72
     0
 43
0.0008202099737533
 43
0.0
 43
0.0
 43
0.0
 43
0.0
 43
0.0008202099737533
 43
0.0
 43
0.0
 43
0.0
 43
0.0
 43
1.0
 43
0.0
 43
0.0
 43
0.0
 43
0.0
 43
1.0
 77
     0
 47
0.0008202099737533
 47
0.0
 47
0.0
 47
0.0
 47
0.0
 47
0.0008202099737533
 47
0.0
 47
0.0
 47
0.0
 47
0.0
 47
1.0
 47
0.0
 47
0.0
 47
0.0
 47
0.0
 47
1.0
171
     0
 49
0.0008202099737533
 49
0.0
 49
0.0
 49
0.0
 49
0.0
 49
0.0008202099737533
 49
0.0
 49
0.0
 49
0.0
 49
0.0
 49
1.0
 49
0.0
 49
0.0
 49
0.0
 49
0.0
 49
1.0
175
     0
142
0.0008202099737533
142
0.0
142
0.0
142
0.0
142
0.0
142
0.0008202099737533
142
0.0
142
0.0
142
0.0
142
0.0
142
1.0
142
0.0
142
0.0
142
0.0
142
0.0
142
1.0
179
     0
144
0.0008202099737533
144
0.0
144
0.0
144
0.0
144
0.0
144
0.0008202099737533
144
0.0
144
0.0
144
0.0
144
0.0
144
1.0
144
0.0
144
0.0
144
0.0
144
0.0
144
1.0
147
0.0008202099737533
147
0.0
147
0.0
147
0.0
147
0.0
147
0.0008202099737533
147
0.0
147
0.0
147
0.0
147
0.0
147
1.0
147
0.0
147
0.0
147
0.0
147
0.0
147
1.0
  0
MATERIAL
  5
4FE
102
{ACAD_XDICTIONARY
360
4FF
102
}
102
{ACAD_REACTORS
330
4ED
102
}
330
4ED
100
AcDbMaterial
  1
Global
 72
     0
 43
0.0008202099737533
 43
0.0
 43
0.0
 43
0.0
 43
0.0
 43
0.0008202099737533
 43
0.0
 43
0.0
 43
0.0
 43
0.0
 43
1.0
 43
0.0
 43
0.0
 43
0.0
 43
0.0
 43
1.0
 77
     0
 47
0.0008202099737533
 47
0.0
 47
0.0
 47
0.0
 47
0.0
 47
0.0008202099737533
 47
0.0
 47
0.0
 47
0.0
 47
0.0
 47
1.0
 47
0.0
 47
0.0
 47
0.0
 47
0.0
 47
1.0
171
     0
 49
0.0008202099737533
 49
0.0
 49
0.0
 49
0.0
 49
0.0
 49
0.0008202099737533
 49
0.0
 49
0.0
 49
0.0
 49
0.0
 49
1.0
 49
0.0
 49
0.0
 49
0.0
 49
0.0
 49
1.0
175
     0
142
0.0008202099737533
142
0.0
142
0.0
142
0.0
142
0.0
142
0.0008202099737533
142
0.0
142
0.0
142
0.0
142
0.0
142
1.0
142
0.0
142
0.0
142
0.0
142
0.0
142
1.0
179
     0
144
0.0008202099737533
144
0.0
144
0.0
144
0.0
144
0.0
144
0.0008202099737533
144
0.0
144
0.0
144
0.0
144
0.0
144
1.0
144
0.0
144
0.0
144
0.0
144
0.0
144
1.0
147
0.0008202099737533
147
0.0
147
0.0
147
0.0
147
0.0
147
0.0008202099737533
147
0.0
147
0.0
147
0.0
147
0.0
147
1.0
147
0.0
147
0.0
147
0.0
147
0.0
147
1.0
  0
MLEADERSTYLE
  5
530
102
{ACAD_REACTORS
330
52F
102
}
330
52F
100
AcDbMLeaderStyle
170
     2
171
     1
172
     0
 90
        2
 40
0.0
 41
0.0
173
     1
 91
-1056964608
340
14
 92
       -2
290
     1
 42
2.0
291
     1
 43
0.36
  3
Standard
 44
4.0
300

342
11
174
     1
178
     6
175
     1
176
     0
 93
-1056964608
 45
4.0
292
     0
297
     0
 46
4.0
 94
-1056964608
 47
1.0
 49
1.0
140
1.0
293
     1
141
0.0
294
     1
177
     0
142
1.0
295
     0
296
     0
143
0.125
1001
ACAD_MLEADERVER
1070
     2
  0
MLINESTYLE
  5
18
102
{ACAD_REACTORS
330
17
102
}
330
17
100
AcDbMlineStyle
  2
STANDARD
 70
     0
  3

 62
   256
 51
90.0
 52
90.0
 71
     2
 49
0.5
 62
   256
  6
BYLAYER
 49
-0.5
 62
   256
  6
BYLAYER
  0
ACDBPLACEHOLDER
  5
F
102
{ACAD_REACTORS
330
E
102
}
330
E
  0
SCALE
  5
51E
102
{ACAD_REACTORS
330
51D
102
}
330
51D
100
AcDbScale
 70
     0
300
1:1
140
1.0
141
1.0
290
     1
  0
SCALE
  5
51F
102
{ACAD_REACTORS
330
51D
102
}
330
51D
100
AcDbScale
 70
     0
300
1:2
140
1.0
141
2.0
290
     0
  0
SCALE
  5
520
102
{ACAD_REACTORS
330
51D
102
}
330
51D
100
AcDbScale
 70
     0
300
1:4
140
1.0
141
4.0
290
     0
  0
SCALE
  5
521
102
{ACAD_REACTORS
330
51D
102
}
330
51D
100
AcDbScale
 70
     0
300
1:5
140
1.0
141
5.0
290
     0
  0
SCALE
  5
522
102
{ACAD_REACTORS
330
51D
102
}
330
51D
100
AcDbScale
 70
     0
300
1:8
140
1.0
141
8.0
290
     0
  0
SCALE
  5
523
102
{ACAD_REACTORS
330
51D
102
}
330
51D
100
AcDbScale
 70
     0
300
1:10
140
1.0
141
10.0
290
     0
  0
SCALE
  5
524
102
{ACAD_REACTORS
330
51D
102
}
330
51D
100
AcDbScale
 70
     0
300
1:16
140
1.0
141
16.0
290
     0
  0
SCALE
  5
525
102
{ACAD_REACTORS
330
51D
102
}
330
51D
100
AcDbScale
 70
     0
300
1:20
140
1.0
141
20.0
290
     0
  0
SCALE
  5
526
102
{ACAD_REACTORS
330
51D
102
}
330
51D
100
AcDbScale
 70
     0
300
1:30
140
1.0
141
30.0
290
     0
  0
SCALE
  5
527
102
{ACAD_REACTORS
330
51D
102
}
330
51D
100
AcDbScale
 70
     0
300
1:40
140
1.0
141
40.0
290
     0
  0
SCALE
  5
528
102
{ACAD_REACTORS
330
51D
102
}
330
51D
100
AcDbScale
 70
     0
300
1:50
140
1.0
141
50.0
290
     0
  0
SCALE
  5
529
102
{ACAD_REACTORS
330
51D
102
}
330
51D
100
AcDbScale
 70
     0
300
1:100
140
1.0
141
100.0
290
     0
  0
SCALE
  5
52A
102
{ACAD_REACTORS
330
51D
102
}
330
51D
100
AcDbScale
 70
     0
300
2:1
140
2.0
141
1.0
290
     0
  0
SCALE
  5
52B
102
{ACAD_REACTORS
330
51D
102
}
330
51D
100
AcDbScale
 70
     0
300
4:1
140
4.0
141
1.0
290
     0
  0
SCALE
  5
52C
102
{ACAD_REACTORS
330
51D
102
}
330
51D
100
AcDbScale
 70
     0
300
8:1
140
8.0
141
1.0
290
     0
  0
SCALE
  5
52D
102
{ACAD_REACTORS
330
51D
102
}
330
51D
100
AcDbScale
 70
     0
300
10:1
140
10.0
141
1.0
290
     0
  0
SCALE
  5
52E
102
{ACAD_REACTORS
330
51D
102
}
330
51D
100
AcDbScale
 70
     0
300
100:1
140
100.0
141
1.0
290
     0
  0
TABLESTYLE
  5
51C
102
{ACAD_XDICTIONARY
360
69D
102
}
102
{ACAD_REACTORS
330
51B
102
}
330
51B
100
AcDbTableStyle
  3
Standard
 70
     0
 71
     0
 40
1.5
 41
1.5
280
     0
281
     0
  7
STANDARD
140
4.5
170
     2
 62
     0
 63
     7
283
     0
274
    -2
284
     1
 64
     0
275
    -2
285
     1
 65
     0
276
    -2
286
     1
 66
     0
277
    -2
287
     1
 67
     0
278
    -2
288
     1
 68
     0
279
    -2
289
     1
 69
     0
  7
STANDARD
140
6.0
170
     5
 62
     0
 63
     7
283
     0
274
    -2
284
     1
 64
     0
275
    -2
285
     1
 65
     0
276
    -2
286
     1
 66
     0
277
    -2
287
     1
 67
     0
278
    -2
288
     1
 68
     0
279
    -2
289
     1
 69
     0
  7
STANDARD
140
4.5
170
     5
 62
     0
 63
     7
283
     0
274
    -2
284
     1
 64
     0
275
    -2
285
     1
 65
     0
276
    -2
286
     1
 66
     0
277
    -2
287
     1
 67
     0
278
    -2
288
     1
 68
     0
279
    -2
289
     1
 69
     0
  0
VISUALSTYLE
  5
50C
102
{ACAD_XDICTIONARY
360
6B2
102
}
102
{ACAD_REACTORS
330
506
102
}
330
506
100
AcDbVisualStyle
  2
2dWireframe
 70
     4
 71
     0
 72
     2
 73
     0
 90
        0
 40
-0.6
 41
-30.0
 62
     5
 63
     7
 74
     1
 91
        4
 64
     7
 65
   257
 75
     1
175
     1
 42
1.0
 92
        0
 66
   257
 43
1.0
 76
     1
 77
     6
 78
     2
 67
     7
 79
     5
170
     0
171
     0
290
     0
174
     0
 93
        1
 44
0.0
173
     0
291
     0
 45
0.0
1001
ACAD
1000
AcDbSavedByObjectVersion
1070
     0
  0
VISUALSTYLE
  5
50E
102
{ACAD_XDICTIONARY
360
6B6
102
}
102
{ACAD_REACTORS
330
506
102
}
330
506
100
AcDbVisualStyle
  2
3D Hidden
 70
     6
 71
     1
 72
     2
 73
     2
 90
        0
 40
-0.6
 41
-30.0
 62
     5
 63
     7
 74
     2
 91
        2
 64
     7
 65
   257
 75
     2
175
     1
 42
179.0
 92
        0
 66
   257
 43
1.0
 76
     1
 77
     6
 78
     2
 67
     7
 79
     3
170
     0
171
     0
290
     0
174
     0
 93
        1
 44
0.0
173
     0
291
     0
 45
0.0
1001
ACAD
1000
AcDbSavedByObjectVersion
1070
     0
  0
VISUALSTYLE
  5
50D
102
{ACAD_XDICTIONARY
360
6B4
102
}
102
{ACAD_REACTORS
330
506
102
}
330
506
100
AcDbVisualStyle
  2
3dWireframe
 70
     5
 71
     0
 72
     2
 73
     0
 90
        0
 40
-0.6
 41
-30.0
 62
     5
 63
     7
 74
     1
 91
        4
 64
     7
 65
   257
 75
     1
175
     1
 42
1.0
 92
        0
 66
   257
 43
1.0
 76
     1
 77
     6
 78
     2
 67
     7
 79
     5
170
     0
171
     0
290
     0
174
     0
 93
        1
 44
0.0
173
     0
291
     0
 45
0.0
1001
ACAD
1000
AcDbSavedByObjectVersion
1070
     0
  0
VISUALSTYLE
  5
50B
102
{ACAD_XDICTIONARY
360
6B0
102
}
102
{ACAD_REACTORS
330
506
102
}
330
506
100
AcDbVisualStyle
  2
Basic
 70
     7
 71
     1
 72
     0
 73
     1
 90
        0
 40
-0.6
 41
-30.0
 62
     5
 63
     7
 74
     0
 91
        4
 64
     7
 65
   257
 75
     1
175
     1
 42
1.0
 92
        8
 66
     7
 43
1.0
 76
     1
 77
     6
 78
     2
 67
     7
 79
     5
170
     0
171
     0
290
     0
174
     0
 93
        1
 44
0.0
173
     0
291
     1
 45
0.0
1001
ACAD
1000
AcDbSavedByObjectVersion
1070
     0
  0
VISUALSTYLE
  5
512
102
{ACAD_XDICTIONARY
360
6BE
102
}
102
{ACAD_REACTORS
330
506
102
}
330
506
100
AcDbVisualStyle
  2
Brighten
 70
    12
 71
     2
 72
     2
 73
     0
 90
        0
 40
-0.6
 41
-30.0
 62
     5
 63
     7
 74
     1
 91
        4
 64
     7
 65
   257
 75
     1
175
     1
 42
1.0
 92
        8
 66
     7
 43
1.0
 76
     1
 77
     6
 78
     2
 67
     7
 79
     5
170
     0
171
     0
290
     0
174
     0
 93
        1
 44
50.0
173
     0
291
     1
 45
0.0
1001
ACAD
1000
AcDbSavedByObjectVersion
1070
     0
  0
VISUALSTYLE
  5
516
102
{ACAD_XDICTIONARY
360
6C6
102
}
102
{ACAD_REACTORS
330
506
102
}
330
506
100
AcDbVisualStyle
  2
ColorChange
 70
    16
 71
     2
 72
     2
 73
     3
 90
        0
 40
-0.6
 41
-30.0
 62
     5
 63
     8
 74
     1
 91
        4
 64
     7
 65
   257
 75
     1
175
     1
 42
1.0
 92
        8
 66
     8
 43
1.0
 76
     1
 77
     6
 78
     2
 67
     7
 79
     5
170
     0
171
     0
290
     0
174
     0
 93
        1
 44
0.0
173
     0
291
     1
 45
0.0
1001
ACAD
1000
AcDbSavedByObjectVersion
1070
     0
  0
VISUALSTYLE
  5
50F
102
{ACAD_XDICTIONARY
360
6B8
102
}
102
{ACAD_REACTORS
330
506
102
}
330
506
100
AcDbVisualStyle
  2
Conceptual
 70
     9
 71
     3
 72
     2
 73
     0
 90
        0
 40
-0.6
 41
-30.0
 62
     5
 63
     7
 74
     2
 91
        2
 64
     7
 65
   257
 75
     1
175
     1
 42
179.0
 92
        8
 66
     7
 43
1.0
 76
     1
 77
     6
 78
     2
 67
     7
 79
     3
170
     0
171
     0
290
     0
174
     0
 93
        1
 44
0.0
173
     0
291
     0
 45
0.0
1001
ACAD
1000
AcDbSavedByObjectVersion
1070
     0
  0
VISUALSTYLE
  5
511
102
{ACAD_XDICTIONARY
360
6BC
102
}
102
{ACAD_REACTORS
330
506
102
}
330
506
100
AcDbVisualStyle
  2
Dim
 70
    11
 71
     2
 72
     2
 73
     0
 90
        0
 40
-0.6
 41
-30.0
 62
     5
 63
     7
 74
     1
 91
        4
 64
     7
 65
   257
 75
     1
175
     1
 42
1.0
 92
        8
 66
     7
 43
1.0
 76
     1
 77
     6
 78
     2
 67
     7
 79
     5
170
     0
171
     0
290
     0
174
     0
 93
        1
 44
-50.0
173
     0
291
     1
 45
0.0
1001
ACAD
1000
AcDbSavedByObjectVersion
1070
     0
  0
VISUALSTYLE
  5
519
102
{ACAD_XDICTIONARY
360
6CC
102
}
102
{ACAD_REACTORS
330
506
102
}
330
506
100
AcDbVisualStyle
  2
EdgeColorOff
 70
    22
 71
     2
 72
     2
 73
     0
 90
        0
 40
-0.6
 41
-30.0
 62
     5
 63
     7
 74
     1
 91
        4
 64
     7
 65
   257
 75
     1
175
     1
 42
1.0
 92
        8
 66
     7
 43
1.0
 76
     1
 77
     6
 78
     2
 67
     7
 79
     5
170
     0
171
     0
290
     0
174
     0
 93
        1
 44
0.0
173
     0
291
     1
 45
0.0
1001
ACAD
1000
AcDbSavedByObjectVersion
1070
     0
  0
VISUALSTYLE
  5
515
102
{ACAD_XDICTIONARY
360
6C4
102
}
102
{ACAD_REACTORS
330
506
102
}
330
506
100
AcDbVisualStyle
  2
Facepattern
 70
    15
 71
     2
 72
     2
 73
     0
 90
        0
 40
-0.6
 41
-30.0
 62
     5
 63
     7
 74
     1
 91
        4
 64
     7
 65
   257
 75
     1
175
     1
 42
1.0
 92
        8
 66
     7
 43
1.0
 76
     1
 77
     6
 78
     2
 67
     7
 79
     5
170
     0
171
     0
290
     0
174
     0
 93
        1
 44
0.0
173
     0
291
     1
 45
0.0
1001
ACAD
1000
AcDbSavedByObjectVersion
1070
     0
  0
VISUALSTYLE
  5
507
102
{ACAD_XDICTIONARY
360
6A8
102
}
102
{ACAD_REACTORS
330
506
102
}
330
506
100
AcDbVisualStyle
  2
Flat
 70
     0
 71
     2
 72
     1
 73
     1
 90
        2
 40
-0.6
 41
30.0
 62
     5
 63
     7
 74
     0
 91
        4
 64
     7
 65
   257
 75
     1
175
     1
 42
1.0
 92
        8
 66
     7
 43
1.0
 76
     1
 77
     6
 78
     2
 67
     7
 79
     5
170
     0
171
     0
290
     0
174
     0
 93
       13
 44
0.0
173
     0
291
     1
 45
0.0
1001
ACAD
1000
AcDbSavedByObjectVersion
1070
     0
  0
VISUALSTYLE
  5
508
102
{ACAD_XDICTIONARY
360
6AA
102
}
102
{ACAD_REACTORS
330
506
102
}
330
506
100
AcDbVisualStyle
  2
FlatWithEdges
 70
     1
 71
     2
 72
     1
 73
     1
 90
        2
 40
-0.6
 41
30.0
 62
     5
 63
     7
 74
     1
 91
        4
 64
     7
 65
   257
 75
     1
175
     1
 42
1.0
 92
        0
 66
   257
 43
1.0
 76
     1
 77
     6
 78
     2
 67
     7
 79
     5
170
     0
171
     0
290
     0
174
     0
 93
       13
 44
0.0
173
     0
291
     1
 45
0.0
1001
ACAD
1000
AcDbSavedByObjectVersion
1070
     0
  0
VISUALSTYLE
  5
509
102
{ACAD_XDICTIONARY
360
6AC
102
}
102
{ACAD_REACTORS
330
506
102
}
330
506
100
AcDbVisualStyle
  2
Gouraud
 70
     2
 71
     2
 72
     2
 73
     1
 90
        2
 40
-0.6
 41
30.0
 62
     5
 63
     7
 74
     0
 91
        4
 64
     7
 65
   257
 75
     1
175
     1
 42
1.0
 92
        0
 66
     7
 43
1.0
 76
     1
 77
     6
 78
     2
 67
     7
 79
     5
170
     0
171
     0
290
     0
174
     0
 93
       13
 44
0.0
173
     0
291
     1
 45
0.0
1001
ACAD
1000
AcDbSavedByObjectVersion
1070
     0
  0
VISUALSTYLE
  5
50A
102
{ACAD_XDICTIONARY
360
6AE
102
}
102
{ACAD_REACTORS
330
506
102
}
330
506
100
AcDbVisualStyle
  2
GouraudWithEdges
 70
     3
 71
     2
 72
     2
 73
     1
 90
        2
 40
-0.6
 41
30.0
 62
     5
 63
     7
 74
     1
 91
        4
 64
     7
 65
   257
 75
     1
175
     1
 42
1.0
 92
        0
 66
   257
 43
1.0
 76
     1
 77
     6
 78
     2
 67
     7
 79
     5
170
     0
171
     0
290
     0
174
     0
 93
       13
 44
0.0
173
     0
291
     1
 45
0.0
1001
ACAD
1000
AcDbSavedByObjectVersion
1070
     0
  0
VISUALSTYLE
  5
517
102
{ACAD_XDICTIONARY
360
6C8
102
}
102
{ACAD_REACTORS
330
506
102
}
330
506
100
AcDbVisualStyle
  2
JitterOff
 70
    20
 71
     2
 72
     2
 73
     0
 90
        0
 40
-0.6
 41
-30.0
 62
     5
 63
     7
 74
     1
 91
        4
 64
     7
 65
   257
 75
     1
175
     1
 42
1.0
 92
       10
 66
     7
 43
1.0
 76
     1
 77
     6
 78
     2
 67
     7
 79
     5
170
     0
171
     0
290
     0
174
     0
 93
        1
 44
0.0
173
     0
291
     1
 45
0.0
1001
ACAD
1000
AcDbSavedByObjectVersion
1070
     0
  0
VISUALSTYLE
  5
514
102
{ACAD_XDICTIONARY
360
6C2
102
}
102
{ACAD_REACTORS
330
506
102
}
330
506
100
AcDbVisualStyle
  2
Linepattern
 70
    14
 71
     2
 72
     2
 73
     0
 90
        0
 40
-0.6
 41
-30.0
 62
     5
 63
     7
 74
     1
 91
        4
 64
     7
 65
   257
 75
     7
175
     7
 42
1.0
 92
        8
 66
     7
 43
1.0
 76
     1
 77
     6
 78
     2
 67
     7
 79
     5
170
     0
171
     0
290
     0
174
     0
 93
        1
 44
0.0
173
     0
291
     1
 45
0.0
1001
ACAD
1000
AcDbSavedByObjectVersion
1070
     0
  0
VISUALSTYLE
  5
518
102
{ACAD_XDICTIONARY
360
6CA
102
}
102
{ACAD_REACTORS
330
506
102
}
330
506
100
AcDbVisualStyle
  2
OverhangOff
 70
    21
 71
     2
 72
     2
 73
     0
 90
        0
 40
-0.6
 41
-30.0
 62
     5
 63
     7
 74
     1
 91
        4
 64
     7
 65
   257
 75
     1
175
     1
 42
1.0
 92
        9
 66
     7
 43
1.0
 76
     1
 77
     6
 78
     2
 67
     7
 79
     5
170
     0
171
     0
290
     0
174
     0
 93
        1
 44
0.0
173
     0
291
     1
 45
0.0
1001
ACAD
1000
AcDbSavedByObjectVersion
1070
     0
  0
VISUALSTYLE
  5
510
102
{ACAD_XDICTIONARY
360
6BA
102
}
102
{ACAD_REACTORS
330
506
102
}
330
506
100
AcDbVisualStyle
  2
Realistic
 70
     8
 71
     2
 72
     2
 73
     0
 90
        0
 40
-0.6
 41
-30.0
 62
     5
 63
     7
 74
     1
 91
        0
 64
     7
 65
   257
 75
     1
175
     1
 42
1.0
 92
        8
 66
     8
 43
1.0
 76
     1
 77
     6
 78
     2
 67
     7
 79
     5
170
     0
171
     0
290
     0
174
     0
 93
       13
 44
0.0
173
     0
291
     0
 45
0.0
1001
ACAD
1000
AcDbSavedByObjectVersion
1070
     0
  0
VISUALSTYLE
  5
513
102
{ACAD_XDICTIONARY
360
6C0
102
}
102
{ACAD_REACTORS
330
506
102
}
330
506
100
AcDbVisualStyle
  2
Thicken
 70
    13
 71
     2
 72
     2
 73
     0
 90
        0
 40
-0.6
 41
-30.0
 62
     5
 63
     7
 74
     1
 91
        4
 64
     7
 65
   257
 75
     1
175
     1
 42
1.0
 92
       12
 66
     7
 43
1.0
 76
     1
 77
     6
 78
     2
 67
     7
 79
     5
170
     0
171
     0
290
     0
174
     0
 93
        1
 44
0.0
173
     0
291
     1
 45
0.0
1001
ACAD
1000
AcDbSavedByObjectVersion
1070
     0
  0
DICTIONARYVAR
  5
694
102
{ACAD_REACTORS
330
690
102
}
330
690
100
DictionaryVariables
280
     0
  1
1:1
  0
DICTIONARYVAR
  5
692
102
{ACAD_REACTORS
330
690
102
}
330
690
100
DictionaryVariables
280
     0
  1
STANDARD
  0
DICTIONARYVAR
  5
691
102
{ACAD_REACTORS
330
690
102
}
330
690
100
DictionaryVariables
280
     0
  1
STANDARD
  0
DICTIONARYVAR
  5
69B
102
{ACAD_REACTORS
330
690
102
}
330
690
100
DictionaryVariables
280
     0
  1
2
  0
DICTIONARYVAR
  5
69A
102
{ACAD_REACTORS
330
690
102
}
330
690
100
DictionaryVariables
280
     0
  1
1
  0
DICTIONARYVAR
  5
699
102
{ACAD_REACTORS
330
690
102
}
330
690
100
DictionaryVariables
280
     0
  1
0
  0
DICTIONARYVAR
  5
696
102
{ACAD_REACTORS
330
690
102
}
330
690
100
DictionaryVariables
280
     0
  1
0
  0
DICTIONARYVAR
  5
697
102
{ACAD_REACTORS
330
690
102
}
330
690
100
DictionaryVariables
280
     0
  1
0
  0
DICTIONARYVAR
  5
695
102
{ACAD_REACTORS
330
690
102
}
330
690
100
DictionaryVariables
280
     0
  1
2
  0
DICTIONARYVAR
  5
693
102
{ACAD_REACTORS
330
690
102
}
330
690
100
DictionaryVariables
280
     0
  1
1
  0
DICTIONARYVAR
  5
698
102
{ACAD_REACTORS
330
690
102
}
330
690
100
DictionaryVariables
280
     0
  1
127
  0
DICTIONARYVAR
  5
69C
102
{ACAD_REACTORS
330
690
102
}
330
690
100
DictionaryVariables
280
     0
  1
2
  0
DICTIONARY
  5
594
102
{ACAD_REACTORS
330
58A
102
}
330
58A
100
AcDbDictionary
281
     1
  0
DICTIONARY
  5
6A3
330
4EA
100
AcDbDictionary
280
     1
281
     1
  3
ACAD_XREC_ROUNDTRIP
360
6A4
  0
DICTIONARY
  5
6A1
330
4E9
100
AcDbDictionary
280
     1
281
     1
  3
ACAD_XREC_ROUNDTRIP
360
6A2
  0
DICTIONARY
  5
4F7
330
4F6
100
AcDbDictionary
280
     1
281
     1
  3
ACAD_XREC_ROUNDTRIP
360
6A6
  3
BUMPTILE
360
4F9
  3
DIFFUSETILE
360
4F8
  3
OPACITYTILE
360
4FC
  3
REFLECTIONTILE
360
4FB
  3
REFRACTIONTILE
360
4FD
  3
SPECULARTILE
360
4FA
  0
DICTIONARY
  5
4EF
330
4EE
100
AcDbDictionary
280
     1
281
     1
  3
ACAD_XREC_ROUNDTRIP
360
6A5
  3
BUMPTILE
360
4F1
  3
DIFFUSETILE
360
4F0
  3
OPACITYTILE
360
4F4
  3
REFLECTIONTILE
360
4F3
  3
REFRACTIONTILE
360
4F5
  3
SPECULARTILE
360
4F2
  0
DICTIONARY
  5
4FF
330
4FE
100
AcDbDictionary
280
     1
281
     1
  3
ACAD_XREC_ROUNDTRIP
360
6A7
  3
BUMPTILE
360
501
  3
DIFFUSETILE
360
500
  3
OPACITYTILE
360
504
  3
REFLECTIONTILE
360
503
  3
REFRACTIONTILE
360
505
  3
SPECULARTILE
360
502
  0
DICTIONARY
  5
69D
330
51C
100
AcDbDictionary
280
     1
281
     1
  3
ACAD_ROUNDTRIP_2008_TABLESTYLE_CELLSTYLEMAP
360
69E
  3
ACAD_XREC_ROUNDTRIP
360
6CE
  0
DICTIONARY
  5
6B2
330
50C
100
AcDbDictionary
280
     1
281
     1
  3
ACAD_XREC_ROUNDTRIP
360
6B3
  0
DICTIONARY
  5
6B6
330
50E
100
AcDbDictionary
280
     1
281
     1
  3
ACAD_XREC_ROUNDTRIP
360
6B7
  0
DICTIONARY
  5
6B4
330
50D
100
AcDbDictionary
280
     1
281
     1
  3
ACAD_XREC_ROUNDTRIP
360
6B5
  0
DICTIONARY
  5
6B0
330
50B
100
AcDbDictionary
280
     1
281
     1
  3
ACAD_XREC_ROUNDTRIP
360
6B1
  0
DICTIONARY
  5
6BE
330
512
100
AcDbDictionary
280
     1
281
     1
  3
ACAD_XREC_ROUNDTRIP
360
6BF
  0
DICTIONARY
  5
6C6
330
516
100
AcDbDictionary
280
     1
281
     1
  3
ACAD_XREC_ROUNDTRIP
360
6C7
  0
DICTIONARY
  5
6B8
330
50F
100
AcDbDictionary
280
     1
281
     1
  3
ACAD_XREC_ROUNDTRIP
360
6B9
  0
DICTIONARY
  5
6BC
330
511
100
AcDbDictionary
280
     1
281
     1
  3
ACAD_XREC_ROUNDTRIP
360
6BD
  0
DICTIONARY
  5
6CC
330
519
100
AcDbDictionary
280
     1
281
     1
  3
ACAD_XREC_ROUNDTRIP
360
6CD
  0
DICTIONARY
  5
6C4
330
515
100
AcDbDictionary
280
     1
281
     1
  3
ACAD_XREC_ROUNDTRIP
360
6C5
  0
DICTIONARY
  5
6A8
330
507
100
AcDbDictionary
280
     1
281
     1
  3
ACAD_XREC_ROUNDTRIP
360
6A9
  0
DICTIONARY
  5
6AA
330
508
100
AcDbDictionary
280
     1
281
     1
  3
ACAD_XREC_ROUNDTRIP
360
6AB
  0
DICTIONARY
  5
6AC
330
509
100
AcDbDictionary
280
     1
281
     1
  3
ACAD_XREC_ROUNDTRIP
360
6AD
  0
DICTIONARY
  5
6AE
330
50A
100
AcDbDictionary
280
     1
281
     1
  3
ACAD_XREC_ROUNDTRIP
360
6AF
  0
DICTIONARY
  5
6C8
330
517
100
AcDbDictionary
280
     1
281
     1
  3
ACAD_XREC_ROUNDTRIP
360
6C9
  0
DICTIONARY
  5
6C2
330
514
100
AcDbDictionary
280
     1
281
     1
  3
ACAD_XREC_ROUNDTRIP
360
6C3
  0
DICTIONARY
  5
6CA
330
518
100
AcDbDictionary
280
     1
281
     1
  3
ACAD_XREC_ROUNDTRIP
360
6CB
  0
DICTIONARY
  5
6BA
330
510
100
AcDbDictionary
280
     1
281
     1
  3
ACAD_XREC_ROUNDTRIP
360
6BB
  0
DICTIONARY
  5
6C0
330
513
100
AcDbDictionary
280
     1
281
     1
  3
ACAD_XREC_ROUNDTRIP
360
6C1
  0
XRECORD
  5
6A4
102
{ACAD_REACTORS
330
6A3
102
}
330
6A3
100
AcDbXrecord
280
     1
102
SHADEPLOT
 70
     0
102
SHADEPLOTRESLEVEL
 70
     2
102
SHADEPLOTCUSTOMDPI
 70
   300
  0
XRECORD
  5
6A2
102
{ACAD_REACTORS
330
6A1
102
}
330
6A1
100
AcDbXrecord
280
     1
102
SHADEPLOT
 70
     0
102
SHADEPLOTRESLEVEL
 70
     2
102
SHADEPLOTCUSTOMDPI
 70
   300
  0
XRECORD
  5
6A6
102
{ACAD_REACTORS
330
4F7
102
}
330
4F7
100
AcDbXrecord
280
     1
102
MATERIAL
148
0.0
149
0.0
149
0.0
 93
        0
 94
      127
282
     0
 72
     0
 77
     0
171
     0
175
     0
179
     0
273
     0
  0
XRECORD
  5
4F9
102
{ACAD_REACTORS
330
4F7
102
}
330
4F7
100
AcDbXrecord
280
     1
270
     1
271
     1
  0
XRECORD
  5
4F8
102
{ACAD_REACTORS
330
4F7
102
}
330
4F7
100
AcDbXrecord
280
     1
270
     1
271
     1
  0
XRECORD
  5
4FC
102
{ACAD_REACTORS
330
4F7
102
}
330
4F7
100
AcDbXrecord
280
     1
270
     1
271
     1
  0
XRECORD
  5
4FB
102
{ACAD_REACTORS
330
4F7
102
}
330
4F7
100
AcDbXrecord
280
     1
270
     1
271
     1
  0
XRECORD
  5
4FD
102
{ACAD_REACTORS
330
4F7
102
}
330
4F7
100
AcDbXrecord
280
     1
270
     1
271
     1
  0
XRECORD
  5
4FA
102
{ACAD_REACTORS
330
4F7
102
}
330
4F7
100
AcDbXrecord
280
     1
270
     1
271
     1
  0
XRECORD
  5
6A5
102
{ACAD_REACTORS
330
4EF
102
}
330
4EF
100
AcDbXrecord
280
     1
102
MATERIAL
148
0.0
149
0.0
149
0.0
 93
        0
 94
      127
282
     0
 72
     0
 77
     0
171
     0
175
     0
179
     0
273
     0
  0
XRECORD
  5
4F1
102
{ACAD_REACTORS
330
4EF
102
}
330
4EF
100
AcDbXrecord
280
     1
270
     1
271
     1
  0
XRECORD
  5
4F0
102
{ACAD_REACTORS
330
4EF
102
}
330
4EF
100
AcDbXrecord
280
     1
270
     1
271
     1
  0
XRECORD
  5
4F4
102
{ACAD_REACTORS
330
4EF
102
}
330
4EF
100
AcDbXrecord
280
     1
270
     1
271
     1
  0
XRECORD
  5
4F3
102
{ACAD_REACTORS
330
4EF
102
}
330
4EF
100
AcDbXrecord
280
     1
270
     1
271
     1
  0
XRECORD
  5
4F5
102
{ACAD_REACTORS
330
4EF
102
}
330
4EF
100
AcDbXrecord
280
     1
270
     1
271
     1
  0
XRECORD
  5
4F2
102
{ACAD_REACTORS
330
4EF
102
}
330
4EF
100
AcDbXrecord
280
     1
270
     1
271
     1
  0
XRECORD
  5
6A7
102
{ACAD_REACTORS
330
4FF
102
}
330
4FF
100
AcDbXrecord
280
     1
102
MATERIAL
148
0.0
149
0.0
149
0.0
 93
        0
 94
      127
282
     0
 72
     0
 77
     0
171
     0
175
     0
179
     0
273
     0
  0
XRECORD
  5
501
102
{ACAD_REACTORS
330
4FF
102
}
330
4FF
100
AcDbXrecord
280
     1
270
     1
271
     1
  0
XRECORD
  5
500
102
{ACAD_REACTORS
330
4FF
102
}
330
4FF
100
AcDbXrecord
280
     1
270
     1
271
     1
  0
XRECORD
  5
504
102
{ACAD_REACTORS
330
4FF
102
}
330
4FF
100
AcDbXrecord
280
     1
270
     1
271
     1
  0
XRECORD
  5
503
102
{ACAD_REACTORS
330
4FF
102
}
330
4FF
100
AcDbXrecord
280
     1
270
     1
271
     1
  0
XRECORD
  5
505
102
{ACAD_REACTORS
330
4FF
102
}
330
4FF
100
AcDbXrecord
280
     1
270
     1
271
     1
  0
XRECORD
  5
502
102
{ACAD_REACTORS
330
4FF
102
}
330
4FF
100
AcDbXrecord
280
     1
270
     1
271
     1
  0
CELLSTYLEMAP
  5
69E
102
{ACAD_REACTORS
330
69D
102
}
330
69D
100
AcDbCellStyleMap
 90
        3
300
CELLSTYLE
  1
TABLEFORMAT_BEGIN
 90
        5
170
     1
 91
        0
 92
    32768
 62
   257
 93
        1
300
CONTENTFORMAT
  1
CONTENTFORMAT_BEGIN
 90
        0
 91
        0
 92
      512
 93
        0
300

 40
0.0
140
1.0
 94
        5
 62
     0
340
11
144
6.0
309
CONTENTFORMAT_END
171
     1
301
MARGIN
  1
CELLMARGIN_BEGIN
 40
1.5
 40
1.5
 40
1.5
 40
1.5
 40
4.5
 40
4.5
309
CELLMARGIN_END
 94
        6
 95
        1
302
GRIDFORMAT
  1
GRIDFORMAT_BEGIN
 90
        0
 91
        1
 62
     0
 92
       -2
340
0
 93
        0
 40
1.125
309
GRIDFORMAT_END
 95
        2
302
GRIDFORMAT
  1
GRIDFORMAT_BEGIN
 90
        0
 91
        1
 62
     0
 92
       -2
340
0
 93
        0
 40
1.125
309
GRIDFORMAT_END
 95
        4
302
GRIDFORMAT
  1
GRIDFORMAT_BEGIN
 90
        0
 91
        1
 62
     0
 92
       -2
340
0
 93
        0
 40
1.125
309
GRIDFORMAT_END
 95
        8
302
GRIDFORMAT
  1
GRIDFORMAT_BEGIN
 90
        0
 91
        1
 62
     0
 92
       -2
340
0
 93
        0
 40
1.125
309
GRIDFORMAT_END
 95
       16
302
GRIDFORMAT
  1
GRIDFORMAT_BEGIN
 90
        0
 91
        1
 62
     0
 92
       -2
340
0
 93
        0
 40
1.125
309
GRIDFORMAT_END
 95
       32
302
GRIDFORMAT
  1
GRIDFORMAT_BEGIN
 90
        0
 91
        1
 62
     0
 92
       -2
340
0
 93
        0
 40
1.125
309
GRIDFORMAT_END
309
TABLEFORMAT_END
  1
CELLSTYLE_BEGIN
 90
        1
 91
        1
300
_TITLE
309
CELLSTYLE_END
300
CELLSTYLE
  1
TABLEFORMAT_BEGIN
 90
        5
170
     1
 91
        0
 92
        0
 62
   257
 93
        1
300
CONTENTFORMAT
  1
CONTENTFORMAT_BEGIN
 90
        0
 91
        0
 92
      512
 93
        0
300

 40
0.0
140
1.0
 94
        5
 62
     0
340
11
144
4.5
309
CONTENTFORMAT_END
171
     1
301
MARGIN
  1
CELLMARGIN_BEGIN
 40
1.5
 40
1.5
 40
1.5
 40
1.5
 40
4.5
 40
4.5
309
CELLMARGIN_END
 94
        6
 95
        1
302
GRIDFORMAT
  1
GRIDFORMAT_BEGIN
 90
        0
 91
        1
 62
     0
 92
       -2
340
0
 93
        0
 40
1.125
309
GRIDFORMAT_END
 95
        2
302
GRIDFORMAT
  1
GRIDFORMAT_BEGIN
 90
        0
 91
        1
 62
     0
 92
       -2
340
0
 93
        0
 40
1.125
309
GRIDFORMAT_END
 95
        4
302
GRIDFORMAT
  1
GRIDFORMAT_BEGIN
 90
        0
 91
        1
 62
     0
 92
       -2
340
0
 93
        0
 40
1.125
309
GRIDFORMAT_END
 95
        8
302
GRIDFORMAT
  1
GRIDFORMAT_BEGIN
 90
        0
 91
        1
 62
     0
 92
       -2
340
0
 93
        0
 40
1.125
309
GRIDFORMAT_END
 95
       16
302
GRIDFORMAT
  1
GRIDFORMAT_BEGIN
 90
        0
 91
        1
 62
     0
 92
       -2
340
0
 93
        0
 40
1.125
309
GRIDFORMAT_END
 95
       32
302
GRIDFORMAT
  1
GRIDFORMAT_BEGIN
 90
        0
 91
        1
 62
     0
 92
       -2
340
0
 93
        0
 40
1.125
309
GRIDFORMAT_END
309
TABLEFORMAT_END
  1
CELLSTYLE_BEGIN
 90
        2
 91
        1
300
_HEADER
309
CELLSTYLE_END
300
CELLSTYLE
  1
TABLEFORMAT_BEGIN
 90
        5
170
     1
 91
        0
 92
        0
 62
   257
 93
        1
300
CONTENTFORMAT
  1
CONTENTFORMAT_BEGIN
 90
        0
 91
        0
 92
      512
 93
        0
300

 40
0.0
140
1.0
 94
        2
 62
     0
340
11
144
4.5
309
CONTENTFORMAT_END
171
     1
301
MARGIN
  1
CELLMARGIN_BEGIN
 40
1.5
 40
1.5
 40
1.5
 40
1.5
 40
4.5
 40
4.5
309
CELLMARGIN_END
 94
        6
 95
        1
302
GRIDFORMAT
  1
GRIDFORMAT_BEGIN
 90
        0
 91
        1
 62
     0
 92
       -2
340
0
 93
        0
 40
1.125
309
GRIDFORMAT_END
 95
        2
302
GRIDFORMAT
  1
GRIDFORMAT_BEGIN
 90
        0
 91
        1
 62
     0
 92
       -2
340
0
 93
        0
 40
1.125
309
GRIDFORMAT_END
 95
        4
302
GRIDFORMAT
  1
GRIDFORMAT_BEGIN
 90
        0
 91
        1
 62
     0
 92
       -2
340
0
 93
        0
 40
1.125
309
GRIDFORMAT_END
 95
        8
302
GRIDFORMAT
  1
GRIDFORMAT_BEGIN
 90
        0
 91
        1
 62
     0
 92
       -2
340
0
 93
        0
 40
1.125
309
GRIDFORMAT_END
 95
       16
302
GRIDFORMAT
  1
GRIDFORMAT_BEGIN
 90
        0
 91
        1
 62
     0
 92
       -2
340
0
 93
        0
 40
1.125
309
GRIDFORMAT_END
 95
       32
302
GRIDFORMAT
  1
GRIDFORMAT_BEGIN
 90
        0
 91
        1
 62
     0
 92
       -2
340
0
 93
        0
 40
1.125
309
GRIDFORMAT_END
309
TABLEFORMAT_END
  1
CELLSTYLE_BEGIN
 90
        3
 91
        2
300
_DATA
309
CELLSTYLE_END
  0
XRECORD
  5
6CE
102
{ACAD_REACTORS
330
69D
102
}
330
69D
100
AcDbXrecord
280
     1
102
ACAD_ROUNDTRIP_PRE2007_TABLESTYLE
 90
      512
 91
        0
  1

 92
      512
 93
        0
  2

 94
      512
 95
        0
  3

  0
XRECORD
  5
6B3
102
{ACAD_REACTORS
330
6B2
102
}
330
6B2
100
AcDbXrecord
280
     1
102
RTVSPropertyOp0
 70
     1
102
RTVSPropertyOp1
 70
     1
102
RTVSPropertyOp2
 70
     1
102
RTVSPropertyOp3
 70
     1
102
RTVSPropertyOp4
 70
     1
102
RTVSPropertyOp5
 70
     1
102
RTVSPropertyOp6
 70
     1
102
RTVSPropertyOp7
 70
     1
102
RTVSPropertyOp8
 70
     1
102
RTVSPropertyOp9
 70
     1
102
RTVSPropertyOp10
 70
     1
102
RTVSPropertyOp11
 70
     1
102
RTVSPropertyOp12
 70
     1
102
RTVSPropertyOp13
 70
     1
102
RTVSPropertyOp14
 70
     1
102
RTVSPropertyOp15
 70
     1
102
RTVSPropertyOp16
 70
     1
102
RTVSPropertyOp17
 70
     1
102
RTVSPropertyOp18
 70
     1
102
RTVSPropertyOp19
 70
     1
102
RTVSPropertyOp20
 70
     1
102
RTVSPropertyOp21
 70
     1
102
RTVSPropertyOp22
 70
     1
102
RTVSPropertyOp23
 70
     1
102
RTVSPropertyOp24
 70
     1
102
RTVSPropertyOp25
 70
     1
102
RTVSPropertyOp26
 70
     1
102
RTVSPropertyOp27
 70
     1
  0
XRECORD
  5
6B7
102
{ACAD_REACTORS
330
6B6
102
}
330
6B6
100
AcDbXrecord
280
     1
102
RTVSPropertyOp0
 70
     1
102
RTVSPropertyOp1
 70
     1
102
RTVSPropertyOp2
 70
     1
102
RTVSPropertyOp3
 70
     1
102
RTVSPropertyOp4
 70
     1
102
RTVSPropertyOp5
 70
     1
102
RTVSPropertyOp6
 70
     1
102
RTVSPropertyOp7
 70
     1
102
RTVSPropertyOp8
 70
     1
102
RTVSPropertyOp9
 70
     1
102
RTVSPropertyOp10
 70
     1
102
RTVSPropertyOp11
 70
     1
102
RTVSPropertyOp12
 70
     1
102
RTVSPropertyOp13
 70
     1
102
RTVSPropertyOp14
 70
     1
102
RTVSPropertyOp15
 70
     1
102
RTVSPropertyOp16
 70
     1
102
RTVSPropertyOp17
 70
     1
102
RTVSPropertyOp18
 70
     1
102
RTVSPropertyOp19
 70
     1
102
RTVSPropertyOp20
 70
     1
102
RTVSPropertyOp21
 70
     1
102
RTVSPropertyOp22
 70
     1
102
RTVSPropertyOp23
 70
     1
102
RTVSPropertyOp24
 70
     1
102
RTVSPropertyOp25
 70
     1
102
RTVSPropertyOp26
 70
     1
102
RTVSPropertyOp27
 70
     1
  0
XRECORD
  5
6B5
102
{ACAD_REACTORS
330
6B4
102
}
330
6B4
100
AcDbXrecord
280
     1
102
RTVSPropertyOp0
 70
     1
102
RTVSPropertyOp1
 70
     1
102
RTVSPropertyOp2
 70
     1
102
RTVSPropertyOp3
 70
     1
102
RTVSPropertyOp4
 70
     1
102
RTVSPropertyOp5
 70
     1
102
RTVSPropertyOp6
 70
     1
102
RTVSPropertyOp7
 70
     1
102
RTVSPropertyOp8
 70
     1
102
RTVSPropertyOp9
 70
     1
102
RTVSPropertyOp10
 70
     1
102
RTVSPropertyOp11
 70
     1
102
RTVSPropertyOp12
 70
     1
102
RTVSPropertyOp13
 70
     1
102
RTVSPropertyOp14
 70
     1
102
RTVSPropertyOp15
 70
     1
102
RTVSPropertyOp16
 70
     1
102
RTVSPropertyOp17
 70
     1
102
RTVSPropertyOp18
 70
     1
102
RTVSPropertyOp19
 70
     1
102
RTVSPropertyOp20
 70
     1
102
RTVSPropertyOp21
 70
     1
102
RTVSPropertyOp22
 70
     1
102
RTVSPropertyOp23
 70
     1
102
RTVSPropertyOp24
 70
     1
102
RTVSPropertyOp25
 70
     1
102
RTVSPropertyOp26
 70
     1
102
RTVSPropertyOp27
 70
     1
  0
XRECORD
  5
6B1
102
{ACAD_REACTORS
330
6B0
102
}
330
6B0
100
AcDbXrecord
280
     1
102
RTVSPropertyOp0
 70
     1
102
RTVSPropertyOp1
 70
     1
102
RTVSPropertyOp2
 70
     1
102
RTVSPropertyOp3
 70
     1
102
RTVSPropertyOp4
 70
     1
102
RTVSPropertyOp5
 70
     1
102
RTVSPropertyOp6
 70
     1
102
RTVSPropertyOp7
 70
     1
102
RTVSPropertyOp8
 70
     1
102
RTVSPropertyOp9
 70
     1
102
RTVSPropertyOp10
 70
     1
102
RTVSPropertyOp11
 70
     1
102
RTVSPropertyOp12
 70
     1
102
RTVSPropertyOp13
 70
     1
102
RTVSPropertyOp14
 70
     1
102
RTVSPropertyOp15
 70
     1
102
RTVSPropertyOp16
 70
     1
102
RTVSPropertyOp17
 70
     1
102
RTVSPropertyOp18
 70
     1
102
RTVSPropertyOp19
 70
     1
102
RTVSPropertyOp20
 70
     1
102
RTVSPropertyOp21
 70
     1
102
RTVSPropertyOp22
 70
     1
102
RTVSPropertyOp23
 70
     1
102
RTVSPropertyOp24
 70
     1
102
RTVSPropertyOp25
 70
     1
102
RTVSPropertyOp26
 70
     1
102
RTVSPropertyOp27
 70
     1
  0
XRECORD
  5
6BF
102
{ACAD_REACTORS
330
6BE
102
}
330
6BE
100
AcDbXrecord
280
     1
102
RTVSPropertyOp0
 70
     1
102
RTVSPropertyOp1
 70
     1
102
RTVSPropertyOp2
 70
     1
102
RTVSPropertyOp3
 70
     1
102
RTVSPropertyOp4
 70
     1
102
RTVSPropertyOp5
 70
     1
102
RTVSPropertyOp6
 70
     1
102
RTVSPropertyOp7
 70
     1
102
RTVSPropertyOp8
 70
     1
102
RTVSPropertyOp9
 70
     1
102
RTVSPropertyOp10
 70
     1
102
RTVSPropertyOp11
 70
     1
102
RTVSPropertyOp12
 70
     1
102
RTVSPropertyOp13
 70
     1
102
RTVSPropertyOp14
 70
     1
102
RTVSPropertyOp15
 70
     1
102
RTVSPropertyOp16
 70
     1
102
RTVSPropertyOp17
 70
     1
102
RTVSPropertyOp18
 70
     1
102
RTVSPropertyOp19
 70
     1
102
RTVSPropertyOp20
 70
     1
102
RTVSPropertyOp21
 70
     1
102
RTVSPropertyOp22
 70
     1
102
RTVSPropertyOp23
 70
     1
102
RTVSPropertyOp24
 70
     1
102
RTVSPropertyOp25
 70
     1
102
RTVSPropertyOp26
 70
     1
102
RTVSPropertyOp27
 70
     1
  0
XRECORD
  5
6C7
102
{ACAD_REACTORS
330
6C6
102
}
330
6C6
100
AcDbXrecord
280
     1
102
RTVSPropertyOp0
 70
     1
102
RTVSPropertyOp1
 70
     1
102
RTVSPropertyOp2
 70
     1
102
RTVSPropertyOp3
 70
     1
102
RTVSPropertyOp4
 70
     1
102
RTVSPropertyOp5
 70
     1
102
RTVSPropertyOp6
 70
     1
102
RTVSPropertyOp7
 70
     1
102
RTVSPropertyOp8
 70
     1
102
RTVSPropertyOp9
 70
     1
102
RTVSPropertyOp10
 70
     1
102
RTVSPropertyOp11
 70
     1
102
RTVSPropertyOp12
 70
     1
102
RTVSPropertyOp13
 70
     1
102
RTVSPropertyOp14
 70
     1
102
RTVSPropertyOp15
 70
     1
102
RTVSPropertyOp16
 70
     1
102
RTVSPropertyOp17
 70
     1
102
RTVSPropertyOp18
 70
     1
102
RTVSPropertyOp19
 70
     1
102
RTVSPropertyOp20
 70
     1
102
RTVSPropertyOp21
 70
     1
102
RTVSPropertyOp22
 70
     1
102
RTVSPropertyOp23
 70
     1
102
RTVSPropertyOp24
 70
     1
102
RTVSPropertyOp25
 70
     1
102
RTVSPropertyOp26
 70
     1
102
RTVSPropertyOp27
 70
     1
  0
XRECORD
  5
6B9
102
{ACAD_REACTORS
330
6B8
102
}
330
6B8
100
AcDbXrecord
280
     1
102
RTVSPropertyOp0
 70
     1
102
RTVSPropertyOp1
 70
     1
102
RTVSPropertyOp2
 70
     1
102
RTVSPropertyOp3
 70
     1
102
RTVSPropertyOp4
 70
     1
102
RTVSPropertyOp5
 70
     1
102
RTVSPropertyOp6
 70
     1
102
RTVSPropertyOp7
 70
     1
102
RTVSPropertyOp8
 70
     1
102
RTVSPropertyOp9
 70
     1
102
RTVSPropertyOp10
 70
     1
102
RTVSPropertyOp11
 70
     1
102
RTVSPropertyOp12
 70
     1
102
RTVSPropertyOp13
 70
     1
102
RTVSPropertyOp14
 70
     1
102
RTVSPropertyOp15
 70
     1
102
RTVSPropertyOp16
 70
     1
102
RTVSPropertyOp17
 70
     1
102
RTVSPropertyOp18
 70
     1
102
RTVSPropertyOp19
 70
     1
102
RTVSPropertyOp20
 70
     1
102
RTVSPropertyOp21
 70
     1
102
RTVSPropertyOp22
 70
     1
102
RTVSPropertyOp23
 70
     1
102
RTVSPropertyOp24
 70
     1
102
RTVSPropertyOp25
 70
     1
102
RTVSPropertyOp26
 70
     1
102
RTVSPropertyOp27
 70
     1
  0
XRECORD
  5
6BD
102
{ACAD_REACTORS
330
6BC
102
}
330
6BC
100
AcDbXrecord
280
     1
102
RTVSPropertyOp0
 70
     1
102
RTVSPropertyOp1
 70
     1
102
RTVSPropertyOp2
 70
     1
102
RTVSPropertyOp3
 70
     1
102
RTVSPropertyOp4
 70
     1
102
RTVSPropertyOp5
 70
     1
102
RTVSPropertyOp6
 70
     1
102
RTVSPropertyOp7
 70
     1
102
RTVSPropertyOp8
 70
     1
102
RTVSPropertyOp9
 70
     1
102
RTVSPropertyOp10
 70
     1
102
RTVSPropertyOp11
 70
     1
102
RTVSPropertyOp12
 70
     1
102
RTVSPropertyOp13
 70
     1
102
RTVSPropertyOp14
 70
     1
102
RTVSPropertyOp15
 70
     1
102
RTVSPropertyOp16
 70
     1
102
RTVSPropertyOp17
 70
     1
102
RTVSPropertyOp18
 70
     1
102
RTVSPropertyOp19
 70
     1
102
RTVSPropertyOp20
 70
     1
102
RTVSPropertyOp21
 70
     1
102
RTVSPropertyOp22
 70
     1
102
RTVSPropertyOp23
 70
     1
102
RTVSPropertyOp24
 70
     1
102
RTVSPropertyOp25
 70
     1
102
RTVSPropertyOp26
 70
     1
102
RTVSPropertyOp27
 70
     1
  0
XRECORD
  5
6CD
102
{ACAD_REACTORS
330
6CC
102
}
330
6CC
100
AcDbXrecord
280
     1
102
RTVSPropertyOp0
 70
     0
102
RTVSPropertyOp1
 70
     0
102
RTVSPropertyOp2
 70
     0
102
RTVSPropertyOp3
 70
     0
102
RTVSPropertyOp4
 70
     0
102
RTVSPropertyOp5
 70
     0
102
RTVSPropertyOp6
 70
     0
102
RTVSPropertyOp7
 70
     0
102
RTVSPropertyOp8
 70
     0
102
RTVSPropertyOp9
 70
     0
102
RTVSPropertyOp10
 70
     0
102
RTVSPropertyOp11
 70
     0
102
RTVSPropertyOp12
 70
     0
102
RTVSPropertyOp13
 70
     0
102
RTVSPropertyOp14
 70
     2
102
RTVSPropertyOp15
 70
     0
102
RTVSPropertyOp16
 70
     0
102
RTVSPropertyOp17
 70
     0
102
RTVSPropertyOp18
 70
     0
102
RTVSPropertyOp19
 70
     0
102
RTVSPropertyOp20
 70
     0
102
RTVSPropertyOp21
 70
     0
102
RTVSPropertyOp22
 70
     0
102
RTVSPropertyOp23
 70
     0
102
RTVSPropertyOp24
 70
     0
102
RTVSPropertyOp25
 70
     0
102
RTVSPropertyOp26
 70
     0
102
RTVSPropertyOp27
 70
     0
  0
XRECORD
  5
6C5
102
{ACAD_REACTORS
330
6C4
102
}
330
6C4
100
AcDbXrecord
280
     1
102
RTVSPropertyOp0
 70
     1
102
RTVSPropertyOp1
 70
     1
102
RTVSPropertyOp2
 70
     1
102
RTVSPropertyOp3
 70
     1
102
RTVSPropertyOp4
 70
     1
102
RTVSPropertyOp5
 70
     1
102
RTVSPropertyOp6
 70
     1
102
RTVSPropertyOp7
 70
     1
102
RTVSPropertyOp8
 70
     1
102
RTVSPropertyOp9
 70
     1
102
RTVSPropertyOp10
 70
     1
102
RTVSPropertyOp11
 70
     1
102
RTVSPropertyOp12
 70
     1
102
RTVSPropertyOp13
 70
     1
102
RTVSPropertyOp14
 70
     1
102
RTVSPropertyOp15
 70
     1
102
RTVSPropertyOp16
 70
     1
102
RTVSPropertyOp17
 70
     1
102
RTVSPropertyOp18
 70
     1
102
RTVSPropertyOp19
 70
     1
102
RTVSPropertyOp20
 70
     1
102
RTVSPropertyOp21
 70
     1
102
RTVSPropertyOp22
 70
     1
102
RTVSPropertyOp23
 70
     1
102
RTVSPropertyOp24
 70
     1
102
RTVSPropertyOp25
 70
     1
102
RTVSPropertyOp26
 70
     1
102
RTVSPropertyOp27
 70
     1
  0
XRECORD
  5
6A9
102
{ACAD_REACTORS
330
6A8
102
}
330
6A8
100
AcDbXrecord
280
     1
102
RTVSPropertyOp0
 70
     1
102
RTVSPropertyOp1
 70
     1
102
RTVSPropertyOp2
 70
     1
102
RTVSPropertyOp3
 70
     1
102
RTVSPropertyOp4
 70
     1
102
RTVSPropertyOp5
 70
     1
102
RTVSPropertyOp6
 70
     1
102
RTVSPropertyOp7
 70
     1
102
RTVSPropertyOp8
 70
     1
102
RTVSPropertyOp9
 70
     1
102
RTVSPropertyOp10
 70
     1
102
RTVSPropertyOp11
 70
     1
102
RTVSPropertyOp12
 70
     1
102
RTVSPropertyOp13
 70
     1
102
RTVSPropertyOp14
 70
     1
102
RTVSPropertyOp15
 70
     1
102
RTVSPropertyOp16
 70
     1
102
RTVSPropertyOp17
 70
     1
102
RTVSPropertyOp18
 70
     1
102
RTVSPropertyOp19
 70
     1
102
RTVSPropertyOp20
 70
     1
102
RTVSPropertyOp21
 70
     1
102
RTVSPropertyOp22
 70
     1
102
RTVSPropertyOp23
 70
     1
102
RTVSPropertyOp24
 70
     1
102
RTVSPropertyOp25
 70
     1
102
RTVSPropertyOp26
 70
     1
102
RTVSPropertyOp27
 70
     1
  0
XRECORD
  5
6AB
102
{ACAD_REACTORS
330
6AA
102
}
330
6AA
100
AcDbXrecord
280
     1
102
RTVSPropertyOp0
 70
     1
102
RTVSPropertyOp1
 70
     1
102
RTVSPropertyOp2
 70
     1
102
RTVSPropertyOp3
 70
     1
102
RTVSPropertyOp4
 70
     1
102
RTVSPropertyOp5
 70
     1
102
RTVSPropertyOp6
 70
     1
102
RTVSPropertyOp7
 70
     1
102
RTVSPropertyOp8
 70
     1
102
RTVSPropertyOp9
 70
     1
102
RTVSPropertyOp10
 70
     1
102
RTVSPropertyOp11
 70
     1
102
RTVSPropertyOp12
 70
     1
102
RTVSPropertyOp13
 70
     1
102
RTVSPropertyOp14
 70
     1
102
RTVSPropertyOp15
 70
     1
102
RTVSPropertyOp16
 70
     1
102
RTVSPropertyOp17
 70
     1
102
RTVSPropertyOp18
 70
     1
102
RTVSPropertyOp19
 70
     1
102
RTVSPropertyOp20
 70
     1
102
RTVSPropertyOp21
 70
     1
102
RTVSPropertyOp22
 70
     1
102
RTVSPropertyOp23
 70
     1
102
RTVSPropertyOp24
 70
     1
102
RTVSPropertyOp25
 70
     1
102
RTVSPropertyOp26
 70
     1
102
RTVSPropertyOp27
 70
     1
  0
XRECORD
  5
6AD
102
{ACAD_REACTORS
330
6AC
102
}
330
6AC
100
AcDbXrecord
280
     1
102
RTVSPropertyOp0
 70
     1
102
RTVSPropertyOp1
 70
     1
102
RTVSPropertyOp2
 70
     1
102
RTVSPropertyOp3
 70
     1
102
RTVSPropertyOp4
 70
     1
102
RTVSPropertyOp5
 70
     1
102
RTVSPropertyOp6
 70
     1
102
RTVSPropertyOp7
 70
     1
102
RTVSPropertyOp8
 70
     1
102
RTVSPropertyOp9
 70
     1
102
RTVSPropertyOp10
 70
     1
102
RTVSPropertyOp11
 70
     1
102
RTVSPropertyOp12
 70
     1
102
RTVSPropertyOp13
 70
     1
102
RTVSPropertyOp14
 70
     1
102
RTVSPropertyOp15
 70
     1
102
RTVSPropertyOp16
 70
     1
102
RTVSPropertyOp17
 70
     1
102
RTVSPropertyOp18
 70
     1
102
RTVSPropertyOp19
 70
     1
102
RTVSPropertyOp20
 70
     1
102
RTVSPropertyOp21
 70
     1
102
RTVSPropertyOp22
 70
     1
102
RTVSPropertyOp23
 70
     1
102
RTVSPropertyOp24
 70
     1
102
RTVSPropertyOp25
 70
     1
102
RTVSPropertyOp26
 70
     1
102
RTVSPropertyOp27
 70
     1
  0
XRECORD
  5
6AF
102
{ACAD_REACTORS
330
6AE
102
}
330
6AE
100
AcDbXrecord
280
     1
102
RTVSPropertyOp0
 70
     1
102
RTVSPropertyOp1
 70
     1
102
RTVSPropertyOp2
 70
     1
102
RTVSPropertyOp3
 70
     1
102
RTVSPropertyOp4
 70
     1
102
RTVSPropertyOp5
 70
     1
102
RTVSPropertyOp6
 70
     1
102
RTVSPropertyOp7
 70
     1
102
RTVSPropertyOp8
 70
     1
102
RTVSPropertyOp9
 70
     1
102
RTVSPropertyOp10
 70
     1
102
RTVSPropertyOp11
 70
     1
102
RTVSPropertyOp12
 70
     1
102
RTVSPropertyOp13
 70
     1
102
RTVSPropertyOp14
 70
     1
102
RTVSPropertyOp15
 70
     1
102
RTVSPropertyOp16
 70
     1
102
RTVSPropertyOp17
 70
     1
102
RTVSPropertyOp18
 70
     1
102
RTVSPropertyOp19
 70
     1
102
RTVSPropertyOp20
 70
     1
102
RTVSPropertyOp21
 70
     1
102
RTVSPropertyOp22
 70
     1
102
RTVSPropertyOp23
 70
     1
102
RTVSPropertyOp24
 70
     1
102
RTVSPropertyOp25
 70
     1
102
RTVSPropertyOp26
 70
     1
102
RTVSPropertyOp27
 70
     1
  0
XRECORD
  5
6C9
102
{ACAD_REACTORS
330
6C8
102
}
330
6C8
100
AcDbXrecord
280
     1
102
RTVSPropertyOp0
 70
     0
102
RTVSPropertyOp1
 70
     0
102
RTVSPropertyOp2
 70
     0
102
RTVSPropertyOp3
 70
     0
102
RTVSPropertyOp4
 70
     0
102
RTVSPropertyOp5
 70
     0
102
RTVSPropertyOp6
 70
     0
102
RTVSPropertyOp7
 70
     0
102
RTVSPropertyOp8
 70
     0
102
RTVSPropertyOp9
 70
     0
102
RTVSPropertyOp10
 70
     0
102
RTVSPropertyOp11
 70
     0
102
RTVSPropertyOp12
 70
     0
102
RTVSPropertyOp13
 70
     0
102
RTVSPropertyOp14
 70
     2
102
RTVSPropertyOp15
 70
     0
102
RTVSPropertyOp16
 70
     0
102
RTVSPropertyOp17
 70
     0
102
RTVSPropertyOp18
 70
     0
102
RTVSPropertyOp19
 70
     0
102
RTVSPropertyOp20
 70
     0
102
RTVSPropertyOp21
 70
     0
102
RTVSPropertyOp22
 70
     0
102
RTVSPropertyOp23
 70
     0
102
RTVSPropertyOp24
 70
     0
102
RTVSPropertyOp25
 70
     0
102
RTVSPropertyOp26
 70
     0
102
RTVSPropertyOp27
 70
     0
  0
XRECORD
  5
6C3
102
{ACAD_REACTORS
330
6C2
102
}
330
6C2
100
AcDbXrecord
280
     1
102
RTVSPropertyOp0
 70
     1
102
RTVSPropertyOp1
 70
     1
102
RTVSPropertyOp2
 70
     1
102
RTVSPropertyOp3
 70
     1
102
RTVSPropertyOp4
 70
     1
102
RTVSPropertyOp5
 70
     1
102
RTVSPropertyOp6
 70
     1
102
RTVSPropertyOp7
 70
     1
102
RTVSPropertyOp8
 70
     1
102
RTVSPropertyOp9
 70
     1
102
RTVSPropertyOp10
 70
     1
102
RTVSPropertyOp11
 70
     1
102
RTVSPropertyOp12
 70
     1
102
RTVSPropertyOp13
 70
     1
102
RTVSPropertyOp14
 70
     1
102
RTVSPropertyOp15
 70
     1
102
RTVSPropertyOp16
 70
     1
102
RTVSPropertyOp17
 70
     1
102
RTVSPropertyOp18
 70
     1
102
RTVSPropertyOp19
 70
     1
102
RTVSPropertyOp20
 70
     1
102
RTVSPropertyOp21
 70
     1
102
RTVSPropertyOp22
 70
     1
102
RTVSPropertyOp23
 70
     1
102
RTVSPropertyOp24
 70
     1
102
RTVSPropertyOp25
 70
     1
102
RTVSPropertyOp26
 70
     1
102
RTVSPropertyOp27
 70
     1
  0
XRECORD
  5
6CB
102
{ACAD_REACTORS
330
6CA
102
}
330
6CA
100
AcDbXrecord
280
     1
102
RTVSPropertyOp0
 70
     0
102
RTVSPropertyOp1
 70
     0
102
RTVSPropertyOp2
 70
     0
102
RTVSPropertyOp3
 70
     0
102
RTVSPropertyOp4
 70
     0
102
RTVSPropertyOp5
 70
     0
102
RTVSPropertyOp6
 70
     0
102
RTVSPropertyOp7
 70
     0
102
RTVSPropertyOp8
 70
     0
102
RTVSPropertyOp9
 70
     0
102
RTVSPropertyOp10
 70
     0
102
RTVSPropertyOp11
 70
     0
102
RTVSPropertyOp12
 70
     0
102
RTVSPropertyOp13
 70
     0
102
RTVSPropertyOp14
 70
     2
102
RTVSPropertyOp15
 70
     0
102
RTVSPropertyOp16
 70
     0
102
RTVSPropertyOp17
 70
     0
102
RTVSPropertyOp18
 70
     0
102
RTVSPropertyOp19
 70
     0
102
RTVSPropertyOp20
 70
     0
102
RTVSPropertyOp21
 70
     0
102
RTVSPropertyOp22
 70
     0
102
RTVSPropertyOp23
 70
     0
102
RTVSPropertyOp24
 70
     0
102
RTVSPropertyOp25
 70
     0
102
RTVSPropertyOp26
 70
     0
102
RTVSPropertyOp27
 70
     0
  0
XRECORD
  5
6BB
102
{ACAD_REACTORS
330
6BA
102
}
330
6BA
100
AcDbXrecord
280
     1
102
RTVSPropertyOp0
 70
     1
102
RTVSPropertyOp1
 70
     1
102
RTVSPropertyOp2
 70
     1
102
RTVSPropertyOp3
 70
     1
102
RTVSPropertyOp4
 70
     1
102
RTVSPropertyOp5
 70
     1
102
RTVSPropertyOp6
 70
     1
102
RTVSPropertyOp7
 70
     1
102
RTVSPropertyOp8
 70
     1
102
RTVSPropertyOp9
 70
     1
102
RTVSPropertyOp10
 70
     1
102
RTVSPropertyOp11
 70
     1
102
RTVSPropertyOp12
 70
     1
102
RTVSPropertyOp13
 70
     1
102
RTVSPropertyOp14
 70
     1
102
RTVSPropertyOp15
 70
     1
102
RTVSPropertyOp16
 70
     1
102
RTVSPropertyOp17
 70
     1
102
RTVSPropertyOp18
 70
     1
102
RTVSPropertyOp19
 70
     1
102
RTVSPropertyOp20
 70
     1
102
RTVSPropertyOp21
 70
     1
102
RTVSPropertyOp22
 70
     1
102
RTVSPropertyOp23
 70
     1
102
RTVSPropertyOp24
 70
     1
102
RTVSPropertyOp25
 70
     1
102
RTVSPropertyOp26
 70
     1
102
RTVSPropertyOp27
 70
     1
  0
XRECORD
  5
6C1
102
{ACAD_REACTORS
330
6C0
102
}
330
6C0
100
AcDbXrecord
280
     1
102
RTVSPropertyOp0
 70
     1
102
RTVSPropertyOp1
 70
     1
102
RTVSPropertyOp2
 70
     1
102
RTVSPropertyOp3
 70
     1
102
RTVSPropertyOp4
 70
     1
102
RTVSPropertyOp5
 70
     1
102
RTVSPropertyOp6
 70
     1
102
RTVSPropertyOp7
 70
     1
102
RTVSPropertyOp8
 70
     1
102
RTVSPropertyOp9
 70
     1
102
RTVSPropertyOp10
 70
     1
102
RTVSPropertyOp11
 70
     1
102
RTVSPropertyOp12
 70
     1
102
RTVSPropertyOp13
 70
     1
102
RTVSPropertyOp14
 70
     1
102
RTVSPropertyOp15
 70
     1
102
RTVSPropertyOp16
 70
     1
102
RTVSPropertyOp17
 70
     1
102
RTVSPropertyOp18
 70
     1
102
RTVSPropertyOp19
 70
     1
102
RTVSPropertyOp20
 70
     1
102
RTVSPropertyOp21
 70
     1
102
RTVSPropertyOp22
 70
     1
102
RTVSPropertyOp23
 70
     1
102
RTVSPropertyOp24
 70
     1
102
RTVSPropertyOp25
 70
     1
102
RTVSPropertyOp26
 70
     1
102
RTVSPropertyOp27
 70
     1
  0
ENDSEC
  0
EOF
