  0
SECTION
  2
HEADER
  9
$ACADVER
  1
AC1015
  9
$ACADMAINTVER
 70
    20
  9
$DWGCODEPAGE
  3
ANSI_1252
  9
$INSBASE
 10
0.0
 20
0.0
 30
0.0
  9
$EXTMIN
 10
30.84503275207828
 20
47.80206373543717
 30
-0.0015258207003583
  9
$EXTMAX
 10
364.833985288667
 20
270.5656592300693
 30
0.0000000349246037
  9
$LIMMIN
 10
0.0
 20
0.0
  9
$LIMMAX
 10
420.0
 20
297.0
  9
$ORTHOMODE
 70
     1
  9
$REGENMODE
 70
     1
  9
$FILLMODE
 70
     1
  9
$QTEXTMODE
 70
     0
  9
$MIRRTEXT
 70
     0
  9
$LTSCALE
 40
23.1
  9
$ATTMODE
 70
     1
  9
$TEXTSIZE
 40
0.2
  9
$TRACEWID
 40
0.05
  9
$TEXTSTYLE
  7
STANDARD
  9
$CLAYER
  8
0
  9
$CELTYPE
  6
BYLAYER
  9
$CECOLOR
 62
   256
  9
$CELTSCALE
 40
1.0
  9
$DISPSILH
 70
     0
  9
$DIMSCALE
 40
1.0
  9
$DIMASZ
 40
3.5
  9
$DIMEXO
 40
2.625
  9
$DIMDLI
 40
15.96
  9
$DIMRND
 40
0.0
  9
$DIMDLE
 40
0.0
  9
$DIMEXE
 40
7.559999999999999
  9
$DIMTP
 40
0.005
  9
$DIMTM
 40
0.005
  9
$DIMTXT
 40
3.5
  9
$DIMCEN
 40
3.779999999999999
  9
$DIMTSZ
 40
0.0
  9
$DIMTOL
 70
     1
  9
$DIMLIM
 70
     0
  9
$DIMTIH
 70
     1
  9
$DIMTOH
 70
     1
  9
$DIMSE1
 70
     0
  9
$DIMSE2
 70
     0
  9
$DIMTAD
 70
     0
  9
$DIMZIN
 70
     0
  9
$DIMBLK
  1
_FILLED
  9
$DIMASO
 70
     1
  9
$DIMSHO
 70
     1
  9
$DIMPOST
  1

  9
$DIMAPOST
  1

  9
$DIMALT
 70
     0
  9
$DIMALTD
 70
     2
  9
$DIMALTF
 40
25.4
  9
$DIMLFAC
 40
1.0
  9
$DIMTOFL
 70
     0
  9
$DIMTVP
 40
0.0
  9
$DIMTIX
 70
     0
  9
$DIMSOXD
 70
     0
  9
$DIMSAH
 70
     0
  9
$DIMBLK1
  1

  9
$DIMBLK2
  1

  9
$DIMSTYLE
  2
STANDARD
  9
$DIMCLRD
 70
     0
  9
$DIMCLRE
 70
     0
  9
$DIMCLRT
 70
     0
  9
$DIMTFAC
 40
1.0
  9
$DIMGAP
 40
0.09
  9
$DIMJUST
 70
     0
  9
$DIMSD1
 70
     0
  9
$DIMSD2
 70
     0
  9
$DIMTOLJ
 70
     1
  9
$DIMTZIN
 70
     0
  9
$DIMALTZ
 70
     0
  9
$DIMALTTZ
 70
     0
  9
$DIMUPT
 70
     0
  9
$DIMDEC
 70
     4
  9
$DIMTDEC
 70
     4
  9
$DIMALTU
 70
     2
  9
$DIMALTTD
 70
     2
  9
$DIMTXSTY
  7
STANDARD
  9
$DIMAUNIT
 70
     0
  9
$DIMADEC
 70
     0
  9
$DIMALTRND
 40
0.0
  9
$DIMAZIN
 70
     0
  9
$DIMDSEP
 70
    46
  9
$DIMATFIT
 70
     3
  9
$DIMFRAC
 70
     0
  9
$DIMLDRBLK
  1

  9
$DIMLUNIT
 70
     2
  9
$DIMLWD
 70
    -2
  9
$DIMLWE
 70
    -2
  9
$DIMTMOVE
 70
     0
  9
$LUNITS
 70
     2
  9
$LUPREC
 70
     2
  9
$SKETCHINC
 40
0.1
  9
$FILLETRAD
 40
0.0
  9
$AUNITS
 70
     0
  9
$AUPREC
 70
     0
  9
$MENU
  1
.
  9
$ELEVATION
 40
0.0
  9
$PELEVATION
 40
0.0
  9
$THICKNESS
 40
0.0
  9
$LIMCHECK
 70
     0
  9
$CHAMFERA
 40
0.0
  9
$CHAMFERB
 40
0.0
  9
$CHAMFERC
 40
0.0
  9
$CHAMFERD
 40
0.0
  9
$SKPOLY
 70
     0
  9
$TDCREATE
 40
2456324.627997546
  9
$TDUCREATE
 40
2456324.586330880
  9
$TDUPDATE
 40
2456324.632284028
  9
$TDUUPDATE
 40
2456324.590617361
  9
$TDINDWG
 40
0.0042868403
  9
$TDUSRTIMER
 40
0.0042868403
  9
$USRTIMER
 70
     1
  9
$ANGBASE
 50
0.0
  9
$ANGDIR
 70
     0
  9
$PDMODE
 70
     3
  9
$PDSIZE
 40
0.3125
  9
$PLINEWID
 40
0.0
  9
$SPLFRAME
 70
     0
  9
$SPLINETYPE
 70
     6
  9
$SPLINESEGS
 70
     8
  9
$HANDSEED
  5
6FE
  9
$SURFTAB1
 70
     6
  9
$SURFTAB2
 70
     6
  9
$SURFTYPE
 70
     6
  9
$SURFU
 70
     6
  9
$SURFV
 70
     6
  9
$UCSBASE
  2

  9
$UCSNAME
  2

  9
$UCSORG
 10
0.0
 20
0.0
 30
0.0
  9
$UCSXDIR
 10
1.0
 20
0.0
 30
0.0
  9
$UCSYDIR
 10
0.0
 20
1.0
 30
0.0
  9
$UCSORTHOREF
  2

  9
$UCSORTHOVIEW
 70
     0
  9
$UCSORGTOP
 10
0.0
 20
0.0
 30
0.0
  9
$UCSORGBOTTOM
 10
0.0
 20
0.0
 30
0.0
  9
$UCSORGLEFT
 10
0.0
 20
0.0
 30
0.0
  9
$UCSORGRIGHT
 10
0.0
 20
0.0
 30
0.0
  9
$UCSORGFRONT
 10
0.0
 20
0.0
 30
0.0
  9
$UCSORGBACK
 10
0.0
 20
0.0
 30
0.0
  9
$PUCSBASE
  2

  9
$PUCSNAME
  2

  9
$PUCSORG
 10
0.0
 20
0.0
 30
0.0
  9
$PUCSXDIR
 10
1.0
 20
0.0
 30
0.0
  9
$PUCSYDIR
 10
0.0
 20
1.0
 30
0.0
  9
$PUCSORTHOREF
  2

  9
$PUCSORTHOVIEW
 70
     0
  9
$PUCSORGTOP
 10
0.0
 20
0.0
 30
0.0
  9
$PUCSORGBOTTOM
 10
0.0
 20
0.0
 30
0.0
  9
$PUCSORGLEFT
 10
0.0
 20
0.0
 30
0.0
  9
$PUCSORGRIGHT
 10
0.0
 20
0.0
 30
0.0
  9
$PUCSORGFRONT
 10
0.0
 20
0.0
 30
0.0
  9
$PUCSORGBACK
 10
0.0
 20
0.0
 30
0.0
  9
$USERI1
 70
     0
  9
$USERI2
 70
     0
  9
$USERI3
 70
     0
  9
$USERI4
 70
     0
  9
$USERI5
 70
     0
  9
$USERR1
 40
0.0
  9
$USERR2
 40
0.0
  9
$USERR3
 40
0.0
  9
$USERR4
 40
0.0
  9
$USERR5
 40
0.0
  9
$WORLDVIEW
 70
     1
  9
$SHADEDGE
 70
     3
  9
$SHADEDIF
 70
    70
  9
$TILEMODE
 70
     1
  9
$MAXACTVP
 70
    64
  9
$PINSBASE
 10
0.0
 20
0.0
 30
0.0
  9
$PLIMCHECK
 70
     0
  9
$PEXTMIN
 10
1.000000000000000E+20
 20
1.000000000000000E+20
 30
1.000000000000000E+20
  9
$PEXTMAX
 10
-1.000000000000000E+20
 20
-1.000000000000000E+20
 30
-1.000000000000000E+20
  9
$PLIMMIN
 10
0.0
 20
0.0
  9
$PLIMMAX
 10
12.0
 20
9.0
  9
$UNITMODE
 70
     0
  9
$VISRETAIN
 70
     1
  9
$PLINEGEN
 70
     0
  9
$PSLTSCALE
 70
     1
  9
$TREEDEPTH
 70
  3020
  9
$CMLSTYLE
  2
Standard
  9
$CMLJUST
 70
     0
  9
$CMLSCALE
 40
1.0
  9
$PROXYGRAPHICS
 70
     1
  9
$MEASUREMENT
 70
     1
  9
$CELWEIGHT
370
    -1
  9
$ENDCAPS
280
     0
  9
$JOINSTYLE
280
     0
  9
$LWDISPLAY
290
     0
  9
$INSUNITS
 70
     4
  9
$HYPERLINKBASE
  1

  9
$STYLESHEET
  1

  9
$XEDIT
290
     1
  9
$CEPSNTYPE
380
     0
  9
$PSTYLEMODE
290
     1
  9
$FINGERPRINTGUID
  2
{28342DE5-815D-4A4E-A637-F642E78FA39F}
  9
$VERSIONGUID
  2
{60AA9EEA-D355-4FDD-9E4A-9DF8A011EA60}
  9
$EXTNAMES
290
     1
  9
$PSVPSCALE
 40
0.0
  9
$OLESTARTUP
290
     0
  0
ENDSEC
  0
SECTION
  2
CLASSES
  0
CLASS
  1
ACDBDICTIONARYWDFLT
  2
AcDbDictionaryWithDefault
  3
ObjectDBX Classes
 90
        0
280
     0
281
     0
  0
CLASS
  1
ACDBPLACEHOLDER
  2
AcDbPlaceHolder
  3
ObjectDBX Classes
 90
        0
280
     0
281
     0
  0
CLASS
  1
LAYOUT
  2
AcDbLayout
  3
ObjectDBX Classes
 90
        0
280
     0
281
     0
  0
CLASS
  1
MATERIAL
  2
AcDbMaterial
  3
ObjectDBX Classes
 90
     1153
280
     0
281
     0
  0
CLASS
  1
VISUALSTYLE
  2
AcDbVisualStyle
  3
ObjectDBX Classes
 90
     4095
280
     0
281
     0
  0
CLASS
  1
TABLESTYLE
  2
AcDbTableStyle
  3
ObjectDBX Classes
 90
     4095
280
     0
281
     0
  0
CLASS
  1
SCALE
  2
AcDbScale
  3
ObjectDBX Classes
 90
     1153
280
     0
281
     0
  0
CLASS
  1
MLEADERSTYLE
  2
AcDbMLeaderStyle
  3
ACDB_MLEADERSTYLE_CLASS
 90
     4095
280
     0
281
     0
  0
CLASS
  1
AMGSETTINGSOBJ
  2
AmgSettingsObj
  3
"AcadM|Product Description: AutoCAD Mechanical|Company: Autodesk, Inc."
 90
     1024
280
     0
281
     0
  0
CLASS
  1
ACME_DOCUMENT
  2
AcMeDbDoc
  3
AcMeServices
 90
     1024
280
     0
281
     0
  0
CLASS
  1
ACMESCOPE
  2
AcMeScope
  3
AcMeServices
 90
     1024
280
     0
281
     0
  0
CLASS
  1
ACMECOMMANDHISTORY
  2
AcMeCommandHistory
  3
AcMeServices
 90
     1024
280
     0
281
     0
  0
CLASS
  1
ACIMSYSVARMAN
  2
AcImSysVarManager
  3
AcMeServices
 90
     1024
280
     0
281
     0
  0
CLASS
  1
ACIMINTSYSVAR
  2
AcImIntSysVar
  3
AcMeServices
 90
     1024
280
     0
281
     0
  0
CLASS
  1
ACMEDRAWINGMAN
  2
AcMeDrawingMan
  3
AcMeServices
 90
     1024
280
     0
281
     0
  0
CLASS
  1
ACMEVIEW
  2
AcMeView
  3
AcMeServices
 90
     1024
280
     0
281
     0
  0
CLASS
  1
ACDBENTITYCACHE
  2
AcMeEntityCache
  3
AcMeServices
 90
     1024
280
     0
281
     0
  0
CLASS
  1
ACMESTATEMGR
  2
AcMeStateMgr
  3
AcMeServices
 90
     1024
280
     0
281
     0
  0
CLASS
  1
ACGREFMASTER
  2
AcGrefMaster
  3
AcAttribServices
 90
     1024
280
     0
281
     0
  0
CLASS
  1
AM_DRAWING_MGR
  2
AcDmDwgMgr
  3
AcMechDwgViewMgmt
 90
     1024
280
     0
281
     0
  0
CLASS
  1
AM_DWG_DOCUMENT
  2
AcDmDwgDocument
  3
AcMechDwgViewMgmt
 90
     1024
280
     0
281
     0
  0
CLASS
  1
AM_DWG_SHEET
  2
AcDmSheet
  3
AcMechDwgViewMgmt
 90
     1024
280
     0
281
     0
  0
CLASS
  1
AM_VIEWDIMPARMAP
  2
AcDmViewDimParMap
  3
AcMechDwgViewMgmt
 90
     1024
280
     0
281
     0
  0
CLASS
  1
AMDTINTERNALREACTOR
  2
AmdtInternalReactor
  3
AcMeServices
 90
     1024
280
     0
281
     0
  0
CLASS
  1
ACIMREALSYSVAR
  2
AcImRealSysVar
  3
AcMeServices
 90
     1024
280
     0
281
     0
  0
CLASS
  1
AM_DWGMGR_NAME
  2
AcDmDwgMgrName
  3
AcMechDwgViewMgmt
 90
     1024
280
     0
281
     0
  0
CLASS
  1
ACME_DATABASE
  2
AcMeDbDatabase
  3
AcMeServices
 90
     1024
280
     0
281
     0
  0
CLASS
  1
ACRFINSADJUSTERMGR
  2
AcRfInsAdjusterMgr
  3
AcMeServices
 90
     1024
280
     0
281
     0
  0
CLASS
  1
ACGREFACADMASTER
  2
AcGrefacadMaster
  3
AcGrefServices
 90
     1024
280
     0
281
     0
  0
CLASS
  1
AMDTMENUSTATEMGR
  2
AmdtMenuStateMgr
  3
McadcomServices
 90
     1024
280
     0
281
     0
  0
CLASS
  1
AMDTMCOMMENUSTATE
  2
AmdtMcomMenuState
  3
McadcomServices
 90
     1024
280
     0
281
     0
  0
CLASS
  1
AMIMASTER
  2
AmiMaster
  3
AmiServices
 90
     1024
280
     0
281
     0
  0
CLASS
  1
MAPIAMMOUDLE
  2
MApiAmModule
  3
MApiAmServices
 90
     1024
280
     0
281
     0
  0
CLASS
  1
ACIMSTRSYSVAR
  2
AcImStrSysVar
  3
AcMeServices
 90
     1024
280
     0
281
     0
  0
CLASS
  1
AMDTADMENUSTATE
  2
AmdtAdMenuState
  3
DesignerServices
 90
     1024
280
     0
281
     0
  0
CLASS
  1
ADAPPL
  2
AcAdAppl
  3
DesignerServices
 90
     1024
280
     0
281
     0
  0
CLASS
  1
DEPMGR
  2
AcAdDepMgr
  3
DesignerServices
 90
     1024
280
     0
281
     0
  0
CLASS
  1
PARAMMGR
  2
AcAdParamMgr
  3
DesignerServices
 90
     1024
280
     0
281
     0
  0
CLASS
  1
PARAMSCOPE
  2
AcAdParamScope
  3
DesignerServices
 90
     1024
280
     0
281
     0
  0
CLASS
  1
NAMEDAPPL
  2
AcAdNamedAppl
  3
DesignerServices
 90
     1024
280
     0
281
     0
  0
CLASS
  1
AMDTDMMENUSTATE
  2
AmdtDmMenuState
  3
AcMechDwgViewMgmt
 90
     1024
280
     0
281
     0
  0
CLASS
  1
AMDTAMMENUSTATE
  2
AmdtAmMenuState
  3
DesignerAssemblies
 90
     1024
280
     0
281
     0
  0
CLASS
  1
ACAMPROJECT
  2
AcAmProject
  3
DesignerAssemblies
 90
     1024
280
     0
281
     0
  0
CLASS
  1
ACAMGRCOMPDEF
  2
AcAmGrCompDef
  3
DesignerAssemblies
 90
     1024
280
     0
281
     0
  0
CLASS
  1
ACAMCOMPDEF
  2
AcAmCompDef
  3
DesignerAssemblies
 90
     1024
280
     0
281
     0
  0
CLASS
  1
ACAMCOMPDEFMGR
  2
AcAmCompDefMgr
  3
DesignerAssemblies
 90
     1024
280
     0
281
     0
  0
CLASS
  1
AMCONTEXTMGR
  2
AcAmContextMgr
  3
DesignerAssemblies
 90
     1024
280
     0
281
     0
  0
CLASS
  1
ACAMCONTEXTMODELER
  2
AcAmContextModeler
  3
DesignerAssemblies
 90
     1024
280
     0
281
     0
  0
CLASS
  1
ACMDATADICTIONARY
  2
AcmDataDictionary
  3
"AcmSymBB|Product Description: AutoCAD Mechanical|Company: Autodesk, Inc."
 90
     1024
280
     0
281
     0
  0
CLASS
  1
CATALOGSTATE
  2
AcAmCatalogState
  3
DesignerAssemblies
 90
     1024
280
     0
281
     0
  0
CLASS
  1
ACAMGRCOMPDEFSET
  2
AcAmGrCompDefSet
  3
DesignerAssemblies
 90
     1024
280
     0
281
     0
  0
CLASS
  1
AMDTBROWSERDBTAB
  2
AmdtBrowserDbTab
  3
McadcomServices
 90
     1024
280
     0
281
     0
  0
CLASS
  1
CBROWSERAPPOBJECT
  2
CBrowserAppObject
  3
McadcomServices
 90
     1024
280
     0
281
     0
  0
CLASS
  1
DM_PLACEHOLDER
  2
AcDmSelsetPlaceholder
  3
AcMechDwgViewMgmt
 90
     1024
280
     0
281
     0
  0
CLASS
  1
ACMSTANDARDDIN
  2
AcmStandardDIN
  3
"Amdt_StdImp|Product Description: AutoCAD Mechanical|Company: Autodesk, Inc."
 90
     1024
280
     0
281
     0
  0
CLASS
  1
AMDTEDGESTANDARDDIN13715
  2
AmdtEdgeStdDIN13715
  3
"Amdt_StdImp|Product Description: AutoCAD Mechanical|Company: Autodesk, Inc."
 90
     1024
280
     0
281
     0
  0
CLASS
  1
ACMSURFSTANDARDDIN2002
  2
AcmSurfTextStdDIN2002
  3
"Amdt_StdImp|Product Description: AutoCAD Mechanical|Company: Autodesk, Inc."
 90
     1024
280
     0
281
     0
  0
CLASS
  1
ACMFCFSTANDARDDIN
  2
AcmFCFStdDIN
  3
"Amdt_StdImp|Product Description: AutoCAD Mechanical|Company: Autodesk, Inc."
 90
     1024
280
     0
281
     0
  0
CLASS
  1
ACMWELDSTANDARDDIN
  2
AcmWeldingStdDIN
  3
"Amdt_StdImp|Product Description: AutoCAD Mechanical|Company: Autodesk, Inc."
 90
     1024
280
     0
281
     0
  0
CLASS
  1
ACMIDSTANDARDDIN
  2
AcmIdStdDIN
  3
"Amdt_StdImp|Product Description: AutoCAD Mechanical|Company: Autodesk, Inc."
 90
     1024
280
     0
281
     0
  0
CLASS
  1
ACMDATUMSTANDARDDIN
  2
AcmDatumStdDIN
  3
"Amdt_StdImp|Product Description: AutoCAD Mechanical|Company: Autodesk, Inc."
 90
     1024
280
     0
281
     0
  0
CLASS
  1
ACMBOMSTANDARDDIN
  2
AcmBOMStdDIN
  3
"Amdt_StdImp|Product Description: AutoCAD Mechanical|Company: Autodesk, Inc."
 90
     1024
280
     0
281
     0
  0
CLASS
  1
ACMDETAILSTANDARDDIN
  2
AmdtDetailSymStdDIN
  3
"Amdt_StdImp|Product Description: AutoCAD Mechanical|Company: Autodesk, Inc."
 90
     1024
280
     0
281
     0
  0
CLASS
  1
ACMSECTIONSTANDARDDIN
  2
AmdtSectionSymStdDIN
  3
"Amdt_StdImp|Product Description: AutoCAD Mechanical|Company: Autodesk, Inc."
 90
     1024
280
     0
281
     0
  0
CLASS
  1
ACMCENTERLINESTANDARDDIN
  2
AmdtCenterLineStdDIN
  3
"Amdt_StdImp|Product Description: AutoCAD Mechanical|Company: Autodesk, Inc."
 90
     1024
280
     0
281
     0
  0
CLASS
  1
ACMTHREADLINESTANDARDDIN
  2
AmdtThreadLineStdDIN
  3
"Amdt_StdImp|Product Description: AutoCAD Mechanical|Company: Autodesk, Inc."
 90
     1024
280
     0
281
     0
  0
CLASS
  1
ACMNOTESTANDARDDIN
  2
AmdtNoteStdDIN
  3
"Amdt_StdImp|Product Description: AutoCAD Mechanical|Company: Autodesk, Inc."
 90
     1024
280
     0
281
     0
  0
CLASS
  1
ACMTAPERSTANDARDDIN
  2
AcmTaperStdDIN
  3
"Amdt_StdImp|Product Description: AutoCAD Mechanical|Company: Autodesk, Inc."
 90
     1024
280
     0
281
     0
  0
CLASS
  1
ACMANOOTATIONVIEWSTANDARDDIN
  2
AmdtAnViewStdDIN
  3
"Amdt_StdImp|Product Description: AutoCAD Mechanical|Company: Autodesk, Inc."
 90
     1024
280
     0
281
     0
  0
CLASS
  1
ACAMGLAYSTD
  2
AcAmgLayStd
  3
"AmgLay|Product Description: AutoCAD Mechanical|Company: Autodesk, Inc."
 90
     1024
280
     0
281
     0
  0
CLASS
  1
ACAMGDIMSTD
  2
AcAmgDimStd
  3
"AmgDim|Product Description: AutoCAD Mechanical|Company: Autodesk, Inc."
 90
     1024
280
     0
281
     0
  0
CLASS
  1
AMGOBJPROPCFG
  2
AmgObjPropCfg
  3
"AmgLay|Product Description: AutoCAD Mechanical|Company: Autodesk, Inc."
 90
     1025
280
     0
281
     0
  0
CLASS
  1
ACAMGHOLECHARTSTDDIN
  2
AcAmgHoleChartStdDIN
  3
AmgDim|Product Description: AutoCAD Mechanical|Company: Autodesk, Inc.
 90
     1024
280
     0
281
     0
  0
CLASS
  1
ACAMGTITLESTD
  2
AcAmgTitleStd
  3
"AmgTitle|Product Description: AutoCAD Mechanical|Company: Autodesk, Inc."
 90
     4095
280
     0
281
     0
  0
CLASS
  1
AMDTNOTETEMPLATEDB
  2
AmdtNoteTemplateDB
  3
AcmSymBB|Product Description: AutoCAD Mechanical|Company: Autodesk, Inc.
 90
     1024
280
     0
281
     0
  0
CLASS
  1
ACAMGFILTERDAT
  2
AcAmgFilterDat
  3
"AcadM|Product Description: AutoCAD Mechanical|Company: Autodesk, Inc."
 90
     1024
280
     0
281
     0
  0
CLASS
  1
DICTIONARYVAR
  2
AcDbDictionaryVar
  3
ObjectDBX Classes
 90
        0
280
     0
281
     0
  0
CLASS
  1
CELLSTYLEMAP
  2
AcDbCellStyleMap
  3
ObjectDBX Classes
 90
     1152
280
     0
281
     0
  0
ENDSEC
  0
SECTION
  2
TABLES
  0
TABLE
  2
VPORT
  5
8
330
0
100
AcDbSymbolTable
 70
     1
  0
VPORT
  5
1F4
330
8
100
AcDbSymbolTableRecord
100
AcDbViewportTableRecord
  2
*ACTIVE
 70
     0
 10
0.0
 20
0.0
 11
1.0
 21
1.0
 12
197.8395090203726
 22
159.1838614827532
 13
0.0
 23
0.0
 14
1.0
 24
1.0
 15
0.0
 25
0.0
 16
0.0
 26
0.0
 36
1.0
 17
0.0
 27
0.0
 37
0.0
 40
224.3378965228627
 41
1.850235849056603
 42
50.0
 43
0.0
 44
0.0
 50
0.0
 51
0.0
 71
     0
 72
   100
 73
     1
 74
     1
 75
     0
 76
     0
 77
     0
 78
     0
281
     0
 65
     0
110
0.0
120
0.0
130
0.0
111
1.0
121
0.0
131
0.0
112
0.0
122
1.0
132
0.0
 79
     0
146
0.0
  0
ENDTAB
  0
TABLE
  2
LTYPE
  5
5
330
0
100
AcDbSymbolTable
 70
    23
  0
LTYPE
  5
14
330
5
100
AcDbSymbolTableRecord
100
AcDbLinetypeTableRecord
  2
BYBLOCK
 70
     0
  3

 72
    65
 73
     0
 40
0.0
  0
LTYPE
  5
15
330
5
100
AcDbSymbolTableRecord
100
AcDbLinetypeTableRecord
  2
BYLAYER
 70
     0
  3

 72
    65
 73
     0
 40
0.0
  0
LTYPE
  5
16
330
5
100
AcDbSymbolTableRecord
100
AcDbLinetypeTableRecord
  2
CONTINUOUS
 70
     0
  3
Solid line
 72
    65
 73
     0
 40
0.0
  0
LTYPE
  5
1F5
330
5
100
AcDbSymbolTableRecord
100
AcDbLinetypeTableRecord
  2
CENTER
 70
     0
  3
____ _ ____ _ ____ _ ____ _ ____ _ ____ _ ____
 72
    65
 73
     4
 40
0.6
 49
0.375
 74
     0
 49
-0.075
 74
     0
 49
0.075
 74
     0
 49
-0.075
 74
     0
  0
LTYPE
  5
1F6
330
5
100
AcDbSymbolTableRecord
100
AcDbLinetypeTableRecord
  2
HIDDEN
 70
     0
  3
- - - - - - - - - - - - - - - - - - - -
 72
    65
 73
     2
 40
0.2
 49
0.1
 74
     0
 49
-0.1
 74
     0
  0
LTYPE
  5
1F7
330
5
100
AcDbSymbolTableRecord
100
AcDbLinetypeTableRecord
  2
PHANTOM
 70
     0
  3
_____ _ _ _____ _ _ _____ _ _ _____
 72
    65
 73
     6
 40
0.8
 49
0.45
 74
     0
 49
-0.05
 74
     0
 49
0.1
 74
     0
 49
-0.05
 74
     0
 49
0.1
 74
     0
 49
-0.05
 74
     0
  0
LTYPE
  5
1F8
330
5
100
AcDbSymbolTableRecord
100
AcDbLinetypeTableRecord
  2
DOT
 70
     0
  3
. . . . . . . . . . . . . . . . . . . .
 72
    65
 73
     2
 40
0.2
 49
0.1
 74
     0
 49
-0.1
 74
     0
  0
LTYPE
  5
1F9
330
5
100
AcDbSymbolTableRecord
100
AcDbLinetypeTableRecord
  2
DASHED
 70
     0
  3
- - - - - - - - - - - - - - - - - - - -
 72
    65
 73
     2
 40
0.2
 49
0.1
 74
     0
 49
-0.1
 74
     0
  0
LTYPE
  5
574
330
5
100
AcDbSymbolTableRecord
100
AcDbLinetypeTableRecord
  2
PHANTOM2
 70
     0
  3
Phantom (.5x) ___ _ _ ___ _ _ ___ _ _ ___ _ _
 72
    65
 73
     6
 40
31.75
 49
15.875
 74
     0
 49
-3.174999999999999
 74
     0
 49
3.174999999999999
 74
     0
 49
-3.174999999999999
 74
     0
 49
3.174999999999999
 74
     0
 49
-3.174999999999999
 74
     0
  0
LTYPE
  5
5BA
330
5
100
AcDbSymbolTableRecord
100
AcDbLinetypeTableRecord
  2
AM_ISO02W050
 70
     0
  3
__ __ __ __ __ __ __ __ __ __ __ __ __ __ __
 72
    65
 73
     2
 40
7.5
 49
6.0
 74
     0
 49
-1.5
 74
     0
  0
LTYPE
  5
5BB
330
5
100
AcDbSymbolTableRecord
100
AcDbLinetypeTableRecord
  2
AM_ISO08W050
 70
     0
  3
____ . ____ . ____ . ____ . ____ . ____ . ____
 72
    65
 73
     4
 40
18.0
 49
12.0
 74
     0
 49
-1.5
 74
     0
 49
3.0
 74
     0
 49
-1.5
 74
     0
  0
LTYPE
  5
5BC
330
5
100
AcDbSymbolTableRecord
100
AcDbLinetypeTableRecord
  2
AM_ISO09W050
 70
     0
  3
_____ . . _____ . . _____ . . ____ .. ____
 72
    65
 73
     6
 40
22.5
 49
12.0
 74
     0
 49
-1.5
 74
     0
 49
3.0
 74
     0
 49
-1.5
 74
     0
 49
3.0
 74
     0
 49
-1.5
 74
     0
  0
LTYPE
  5
5BD
330
5
100
AcDbSymbolTableRecord
100
AcDbLinetypeTableRecord
  2
Amconstr
 70
     0
  3
_______________________
 72
    65
 73
     2
 40
9999.0
 49
9999.0
 74
     0
 49
0.0
 74
     0
  0
LTYPE
  5
5BE
330
5
100
AcDbSymbolTableRecord
100
AcDbLinetypeTableRecord
  2
AM_ISO08W050x2
 70
     0
  3
__ . __ . __ . __ . __ . __
 72
    65
 73
     4
 40
9.0
 49
6.0
 74
     0
 49
-0.75
 74
     0
 49
1.5
 74
     0
 49
-0.75
 74
     0
  0
LTYPE
  5
5BF
330
5
100
AcDbSymbolTableRecord
100
AcDbLinetypeTableRecord
  2
AM_ISO02W050x2
 70
     0
  3
 _ _ _ _ _ _ _ _ _ _ _ _
 72
    65
 73
     2
 40
3.75
 49
3.0
 74
     0
 49
-0.75
 74
     0
  0
LTYPE
  5
5C2
330
5
100
AcDbSymbolTableRecord
100
AcDbLinetypeTableRecord
  2
Amzigzag
 70
     0
  3
/\/-/\/-/\/-/\/-/\/-/\/
 72
    65
 73
     2
 40
11.0001
 49
0.0001
 74
     4
 75
   136
340
5C1
 46
0.04
 50
0.0
 44
0.0
 45
0.0
 49
-11.0
 74
     0
  0
LTYPE
  5
5C3
330
5
100
AcDbSymbolTableRecord
100
AcDbLinetypeTableRecord
  2
AM_DIN_F_W050
 70
     0
  3
__ __ __ __ __ __ __ __ __ __ __ __ __ __ __
 72
    65
 73
     2
 40
6.25
 49
4.75
 74
     0
 49
-1.5
 74
     0
  0
LTYPE
  5
5C4
330
5
100
AcDbSymbolTableRecord
100
AcDbLinetypeTableRecord
  2
AM_DIN_G_W050
 70
     0
  3
____ . ____ . ____ . ____ . ____ . ____ . ____
 72
    65
 73
     4
 40
13.75
 49
9.75
 74
     0
 49
-1.5
 74
     0
 49
1.0
 74
     0
 49
-1.5
 74
     0
  0
LTYPE
  5
5C5
330
5
100
AcDbSymbolTableRecord
100
AcDbLinetypeTableRecord
  2
AM_DIN_K_W050
 70
     0
  3
_____ . . _____ . . _____ . . ____ .. ____
 72
    65
 73
     6
 40
16.25
 49
9.75
 74
     0
 49
-1.5
 74
     0
 49
1.0
 74
     0
 49
-1.5
 74
     0
 49
1.0
 74
     0
 49
-1.5
 74
     0
  0
LTYPE
  5
5C6
330
5
100
AcDbSymbolTableRecord
100
AcDbLinetypeTableRecord
  2
AM_DIN_G_W050x2
 70
     0
  3
__ . __ . __ . __ . __ . __
 72
    65
 73
     4
 40
6.875
 49
4.75
 74
     0
 49
-0.875
 74
     0
 49
0.375
 74
     0
 49
-0.875
 74
     0
  0
LTYPE
  5
5C7
330
5
100
AcDbSymbolTableRecord
100
AcDbLinetypeTableRecord
  2
AM_DIN_F_W050x2
 70
     0
  3
 _ _ _ _ _ _ _ _ _ _ _ _
 72
    65
 73
     2
 40
3.125
 49
2.25
 74
     0
 49
-0.875
 74
     0
  0
LTYPE
  5
5D6
330
5
100
AcDbSymbolTableRecord
100
AcDbLinetypeTableRecord
  2
ACDINWELD
 70
     0
  3
_ _ _ _ _
 72
    65
 73
     2
 40
2.0
 49
2.0
 74
     0
 49
-1.0
 74
     0
  0
LTYPE
  5
5D7
330
5
100
AcDbSymbolTableRecord
100
AcDbLinetypeTableRecord
  2
ACDINTGB
 70
     0
  3
__ . . __ . .
 72
    65
 73
     6
 40
9.0
 49
4.0
 74
     0
 49
-1.0
 74
     0
 49
1.0
 74
     0
 49
-1.0
 74
     0
 49
1.0
 74
     0
 49
-1.0
 74
     0
  0
LTYPE
  5
5D8
330
5
100
AcDbSymbolTableRecord
100
AcDbLinetypeTableRecord
  2
ACDINTGL
 70
     0
  3
_ _ _ _ _
 72
    65
 73
     2
 40
3.0
 49
2.0
 74
     0
 49
-1.0
 74
     0
  0
ENDTAB
  0
TABLE
  2
LAYER
  5
2
330
0
100
AcDbSymbolTable
 70
    34
  0
LAYER
  5
10
330
2
100
AcDbSymbolTableRecord
100
AcDbLayerTableRecord
  2
0
 70
     0
 62
     7
  6
CONTINUOUS
370
    -3
390
F
  0
LAYER
  5
1FA
330
2
100
AcDbSymbolTableRecord
100
AcDbLayerTableRecord
  2
DEFAULT_1
 70
     0
 62
     7
  6
CENTER
370
    -3
390
F
  0
LAYER
  5
1FB
330
2
100
AcDbSymbolTableRecord
100
AcDbLayerTableRecord
  2
DEFAULT_2
 70
     0
 62
     8
  6
HIDDEN
370
    -3
390
F
  0
LAYER
  5
1FC
330
2
100
AcDbSymbolTableRecord
100
AcDbLayerTableRecord
  2
DEFAULT_3
 70
     0
 62
     7
  6
PHANTOM
370
    -3
390
F
  0
LAYER
  5
1FD
330
2
100
AcDbSymbolTableRecord
100
AcDbLayerTableRecord
  2
01___PRT_ALL_DTM_PLN
 70
     0
 62
     7
  6
CONTINUOUS
370
    -3
390
F
  0
LAYER
  5
1FE
330
2
100
AcDbSymbolTableRecord
100
AcDbLayerTableRecord
  2
01___PRT_DEF_DTM_PLN
 70
     0
 62
     7
  6
CONTINUOUS
370
    -3
390
F
  0
LAYER
  5
1FF
330
2
100
AcDbSymbolTableRecord
100
AcDbLayerTableRecord
  2
02___PRT_ALL_AXES
 70
     0
 62
     7
  6
CONTINUOUS
370
    -3
390
F
  0
LAYER
  5
200
330
2
100
AcDbSymbolTableRecord
100
AcDbLayerTableRecord
  2
03___PRT_ALL_CURVES
 70
     0
 62
     7
  6
CONTINUOUS
370
    -3
390
F
  0
LAYER
  5
201
330
2
100
AcDbSymbolTableRecord
100
AcDbLayerTableRecord
  2
04___PRT_ALL_DTM_PNT
 70
     0
 62
     7
  6
CONTINUOUS
370
    -3
390
F
  0
LAYER
  5
202
330
2
100
AcDbSymbolTableRecord
100
AcDbLayerTableRecord
  2
05___PRT_ALL_DTM_CSYS
 70
     0
 62
     7
  6
CONTINUOUS
370
    -3
390
F
  0
LAYER
  5
203
330
2
100
AcDbSymbolTableRecord
100
AcDbLayerTableRecord
  2
05___PRT_DEF_DTM_CSYS
 70
     0
 62
     7
  6
CONTINUOUS
370
    -3
390
F
  0
LAYER
  5
204
330
2
100
AcDbSymbolTableRecord
100
AcDbLayerTableRecord
  2
06___PRT_ALL_SURFS
 70
     0
 62
     7
  6
CONTINUOUS
370
    -3
390
F
  0
LAYER
  5
205
330
2
100
AcDbSymbolTableRecord
100
AcDbLayerTableRecord
  2
3D_TEIL_NOTIZ
 70
     0
 62
     7
  6
CONTINUOUS
370
    -3
390
F
  0
LAYER
  5
206
330
2
100
AcDbSymbolTableRecord
100
AcDbLayerTableRecord
  2
ACHSEN
 70
     0
 62
     7
  6
CONTINUOUS
370
    -3
390
F
  0
LAYER
  5
207
330
2
100
AcDbSymbolTableRecord
100
AcDbLayerTableRecord
  2
AUSFORMSCHRAEGEN
 70
     0
 62
     7
  6
CONTINUOUS
370
    -3
390
F
  0
LAYER
  5
208
330
2
100
AcDbSymbolTableRecord
100
AcDbLayerTableRecord
  2
BEZUG
 70
     0
 62
     7
  6
CONTINUOUS
370
    -3
390
F
  0
LAYER
  5
209
330
2
100
AcDbSymbolTableRecord
100
AcDbLayerTableRecord
  2
BEZUGSACHSEN
 70
     0
 62
     7
  6
CONTINUOUS
370
    -3
390
F
  0
LAYER
  5
20A
330
2
100
AcDbSymbolTableRecord
100
AcDbLayerTableRecord
  2
BEZUGSEBENEN
 70
     0
 62
     7
  6
CONTINUOUS
370
    -3
390
F
  0
LAYER
  5
20B
330
2
100
AcDbSymbolTableRecord
100
AcDbLayerTableRecord
  2
BG_STARTBEZUEGE
 70
     0
 62
     7
  6
CONTINUOUS
370
    -3
390
F
  0
LAYER
  5
20C
330
2
100
AcDbSymbolTableRecord
100
AcDbLayerTableRecord
  2
BOHRUNGEN
 70
     0
 62
     7
  6
CONTINUOUS
370
    -3
390
F
  0
LAYER
  5
20D
330
2
100
AcDbSymbolTableRecord
100
AcDbLayerTableRecord
  2
DATUMS
 70
     0
 62
     7
  6
CONTINUOUS
370
    -3
390
F
  0
LAYER
  5
20E
330
2
100
AcDbSymbolTableRecord
100
AcDbLayerTableRecord
  2
DETAILS
 70
     0
 62
     7
  6
CONTINUOUS
370
    -3
390
F
  0
LAYER
  5
20F
330
2
100
AcDbSymbolTableRecord
100
AcDbLayerTableRecord
  2
FASEN
 70
     0
 62
     7
  6
CONTINUOUS
370
    -3
390
F
  0
LAYER
  5
210
330
2
100
AcDbSymbolTableRecord
100
AcDbLayerTableRecord
  2
FLAECHEN
 70
     0
 62
     7
  6
CONTINUOUS
370
    -3
390
F
  0
LAYER
  5
211
330
2
100
AcDbSymbolTableRecord
100
AcDbLayerTableRecord
  2
GEWINDE
 70
     0
 62
     7
  6
CONTINUOUS
370
    -3
390
F
  0
LAYER
  5
212
330
2
100
AcDbSymbolTableRecord
100
AcDbLayerTableRecord
  2
HILFEN
 70
     0
 62
     7
  6
CONTINUOUS
370
    -3
390
F
  0
LAYER
  5
213
330
2
100
AcDbSymbolTableRecord
100
AcDbLayerTableRecord
  2
KURVEN
 70
     0
 62
     7
  6
CONTINUOUS
370
    -3
390
F
  0
LAYER
  5
214
330
2
100
AcDbSymbolTableRecord
100
AcDbLayerTableRecord
  2
PLATZIERUNG
 70
     0
 62
     7
  6
CONTINUOUS
370
    -3
390
F
  0
LAYER
  5
215
330
2
100
AcDbSymbolTableRecord
100
AcDbLayerTableRecord
  2
PLAZIERUNG
 70
     0
 62
     7
  6
CONTINUOUS
370
    -3
390
F
  0
LAYER
  5
216
330
2
100
AcDbSymbolTableRecord
100
AcDbLayerTableRecord
  2
RUNDUNGEN
 70
     0
 62
     7
  6
CONTINUOUS
370
    -3
390
F
  0
LAYER
  5
217
330
2
100
AcDbSymbolTableRecord
100
AcDbLayerTableRecord
  2
SKIZZEN
 70
     0
 62
     7
  6
CONTINUOUS
370
    -3
390
F
  0
LAYER
  5
218
330
2
100
AcDbSymbolTableRecord
100
AcDbLayerTableRecord
  2
TEIL_STARTBEZUEGE
 70
     0
 62
     7
  6
CONTINUOUS
370
    -3
390
F
  0
LAYER
  5
219
330
2
100
AcDbSymbolTableRecord
100
AcDbLayerTableRecord
  2
ZEICHNUNGSBEMASSUNGEN
 70
     0
 62
     7
  6
CONTINUOUS
370
    -3
390
F
  0
LAYER
  5
5ED
330
2
100
AcDbSymbolTableRecord
100
AcDbLayerTableRecord
  2
Defpoints
 70
     0
 62
     7
  6
CONTINUOUS
290
     0
370
    -3
390
F
  0
ENDTAB
  0
TABLE
  2
STYLE
  5
3
330
0
100
AcDbSymbolTable
 70
     6
  0
STYLE
  5
11
330
3
100
AcDbSymbolTableRecord
100
AcDbTextStyleTableRecord
  2
STANDARD
 70
     0
 40
0.0
 41
0.7
 50
0.0
 71
     0
 42
0.2
  3
txt
  4

  0
STYLE
  5
21A
330
3
100
AcDbSymbolTableRecord
100
AcDbTextStyleTableRecord
  2
TEXTSTYLE_1
 70
     0
 40
0.0
 41
0.8
 50
0.0
 71
     0
 42
0.2
  3
gdt
  4

  0
STYLE
  5
21B
330
3
100
AcDbSymbolTableRecord
100
AcDbTextStyleTableRecord
  2
TEXTSTYLE_2
 70
     0
 40
0.0
 41
0.7
 50
0.0
 71
     0
 42
0.2
  3
gdt
  4

  0
STYLE
  5
5C1
330
3
100
AcDbSymbolTableRecord
100
AcDbTextStyleTableRecord
  2

 70
     1
 40
0.0
 41
1.0
 50
0.0
 71
     0
 42
0.2
  3
genltshp.shx
  4

  0
STYLE
  5
5D4
330
3
100
AcDbSymbolTableRecord
100
AcDbTextStyleTableRecord
  2
ACDINTS
 70
     0
 40
1.0
 41
1.0
 50
0.0
 71
     0
 42
0.2
  3
isocp.shx
  4

  0
STYLE
  5
5D5
330
3
100
AcDbSymbolTableRecord
100
AcDbTextStyleTableRecord
  2
ACDINGDT
 70
     0
 40
0.0
 41
1.0
 50
0.0
 71
     0
 42
0.2
  3
amgdt.shx
  4

  0
ENDTAB
  0
TABLE
  2
VIEW
  5
6
330
0
100
AcDbSymbolTable
 70
     0
  0
ENDTAB
  0
TABLE
  2
UCS
  5
7
330
0
100
AcDbSymbolTable
 70
     0
  0
ENDTAB
  0
TABLE
  2
APPID
  5
9
330
0
100
AcDbSymbolTable
 70
    21
  0
APPID
  5
21C
330
9
100
AcDbSymbolTableRecord
100
AcDbRegAppTableRecord
  2
ACAD
 70
     0
  0
APPID
  5
549
330
9
100
AcDbSymbolTableRecord
100
AcDbRegAppTableRecord
  2
MCAD_NO_VIS
 70
     0
  0
APPID
  5
54A
330
9
100
AcDbSymbolTableRecord
100
AcDbRegAppTableRecord
  2
ACAD_TEMP_GRAPHIC
 70
     0
  0
APPID
  5
576
330
9
100
AcDbSymbolTableRecord
100
AcDbRegAppTableRecord
  2
AD_DRAW
 70
     0
  0
APPID
  5
579
330
9
100
AcDbSymbolTableRecord
100
AcDbRegAppTableRecord
  2
ACATTRIBSERVICES
 70
     0
  0
APPID
  5
599
330
9
100
AcDbSymbolTableRecord
100
AcDbRegAppTableRecord
  2
DESIGNERASSEMBLIES
 70
     0
  0
APPID
  5
59F
330
9
100
AcDbSymbolTableRecord
100
AcDbRegAppTableRecord
  2
ACADM_DIM_EDIT
 70
     0
  0
APPID
  5
5A0
330
9
100
AcDbSymbolTableRecord
100
AcDbRegAppTableRecord
  2
AMDT_DM_ADJ
 70
     0
  0
APPID
  5
5B7
330
9
100
AcDbSymbolTableRecord
100
AcDbRegAppTableRecord
  2
ACAD_DSTYLE_DIMJAG
 70
     0
  0
APPID
  5
5B8
330
9
100
AcDbSymbolTableRecord
100
AcDbRegAppTableRecord
  2
ACAD_DSTYLE_DIMBREAK
 70
     0
  0
APPID
  5
5E6
330
9
100
AcDbSymbolTableRecord
100
AcDbRegAppTableRecord
  2
ACAD_EXEMPT_FROM_CAD_STANDARDS
 70
     0
  0
APPID
  5
5EE
330
9
100
AcDbSymbolTableRecord
100
AcDbRegAppTableRecord
  2
AcAecLayerStandard
 70
     0
  0
APPID
  5
5EF
330
9
100
AcDbSymbolTableRecord
100
AcDbRegAppTableRecord
  2
GENIUS_GENODEF_13
 70
     0
  0
APPID
  5
5F0
330
9
100
AcDbSymbolTableRecord
100
AcDbRegAppTableRecord
  2
GENIUS_GENOBJ-N-HTC_13
 70
     0
  0
APPID
  5
5F1
330
9
100
AcDbSymbolTableRecord
100
AcDbRegAppTableRecord
  2
GENIUS_GENHATCH_13
 70
     0
  0
APPID
  5
5F2
330
9
100
AcDbSymbolTableRecord
100
AcDbRegAppTableRecord
  2
ACAD_MLEADERVER
 70
     0
  0
APPID
  5
5F3
330
9
100
AcDbSymbolTableRecord
100
AcDbRegAppTableRecord
  2
ACAD_DSTYLE_DIMJOGGED_JOGANGLE_SYMBOL
 70
     0
  0
APPID
  5
5F4
330
9
100
AcDbSymbolTableRecord
100
AcDbRegAppTableRecord
  2
ACAD_DSTYLE_DIM_LINETYPE
 70
     0
  0
APPID
  5
5F5
330
9
100
AcDbSymbolTableRecord
100
AcDbRegAppTableRecord
  2
ACAD_DSTYLE_DIM_EXT1_LINETYPE
 70
     0
  0
APPID
  5
5F6
330
9
100
AcDbSymbolTableRecord
100
AcDbRegAppTableRecord
  2
ACAD_DSTYLE_DIM_EXT2_LINETYPE
 70
     0
  0
APPID
  5
5F7
330
9
100
AcDbSymbolTableRecord
100
AcDbRegAppTableRecord
  2
ACAD_DSTYLE_DIMINSPECT
 70
     0
  0
ENDTAB
  0
TABLE
  2
DIMSTYLE
  5
A
330
0
100
AcDbSymbolTable
 70
    12
100
AcDbDimStyleTable
 71
     2
340
227
340
225
  0
DIMSTYLE
105
225
330
A
100
AcDbSymbolTableRecord
100
AcDbDimStyleTableRecord
  2
STANDARD
 70
     0
 41
3.5
 47
0.005
 48
0.005
 71
     1
 73
     0
 74
     0
 77
     1
 78
     8
140
3.5
178
     5
271
     3
272
     3
284
     8
340
11
341
21F
342
21F
343
21F
344
21F
  0
DIMSTYLE
105
226
330
A
100
AcDbSymbolTableRecord
100
AcDbDimStyleTableRecord
  2
DIMSTYLE_1
 70
     0
 41
3.5
 47
0.3
 48
0.3
 73
     0
 74
     0
 77
     1
 78
     8
140
3.5
178
     5
271
     0
272
     0
284
     8
340
11
341
21F
342
21F
343
21F
344
21F
  0
DIMSTYLE
105
227
102
{ACAD_REACTORS
330
25D
330
25F
330
25B
330
25C
330
25E
102
}
330
A
100
AcDbSymbolTableRecord
100
AcDbDimStyleTableRecord
  2
DIMSTYLE_2
 70
     0
 41
3.5
 47
0.5
 48
0.5
 73
     0
 74
     0
 77
     1
 78
     8
140
3.5
178
     5
271
     3
272
     3
284
     8
340
11
341
21F
342
21F
343
21F
344
21F
  0
DIMSTYLE
105
228
330
A
100
AcDbSymbolTableRecord
100
AcDbDimStyleTableRecord
  2
DIMSTYLE_3
 70
     0
 41
3.5
 47
0.5
 48
0.5
 73
     0
 74
     0
 77
     1
 78
     8
140
3.5
178
     5
271
     0
272
     0
284
     8
340
11
341
21F
342
21F
343
21F
344
21F
  0
DIMSTYLE
105
5B6
102
{ACAD_REACTORS
330
5A5
102
}
330
A
100
AcDbSymbolTableRecord
100
AcDbDimStyleTableRecord
  2
AM_DIN
 70
     0
  4
"
 41
3.5
 42
1.0
 43
10.0
 44
1.0
 47
0.1
 48
0.1
 73
     0
 74
     0
 77
     1
 78
     8
 79
     2
140
3.5
141
0.0
143
0.0393701
146
0.71
147
1.5
172
     1
176
   256
177
   256
178
     2
271
     2
272
     3
274
     4
283
     0
284
     8
340
11
371
    -1
372
    -1
1001
ACAD_DSTYLE_DIMJAG
1070
   388
1040
1.5
1001
ACAD_DSTYLE_DIMBREAK
1070
   391
1040
3.75
1001
ACAD_DSTYLE_DIMJOGGED_JOGANGLE_SYMBOL
1070
   384
1040
1.570796326794896
1001
ACAD_DSTYLE_DIM_LINETYPE
1070
   380
1005
14
1001
ACAD_DSTYLE_DIM_EXT1_LINETYPE
1070
   381
1005
14
1001
ACAD_DSTYLE_DIM_EXT2_LINETYPE
1070
   382
1005
14
  0
DIMSTYLE
105
5C8
330
A
100
AcDbSymbolTableRecord
100
AcDbDimStyleTableRecord
  2
AM_DIN$3
 70
     0
  4
"
 41
3.5
 42
1.0
 43
10.0
 44
1.0
 47
0.1
 48
0.1
 73
     0
 77
     1
 78
     8
 79
     2
140
3.5
141
0.0
143
0.0393701
146
0.71
147
1.5
176
   256
177
   256
178
     2
271
     2
272
     3
274
     4
283
     0
284
     8
288
     1
289
     0
340
11
371
    -1
372
    -1
1001
ACAD_DSTYLE_DIMBREAK
1070
   391
1040
3.75
1001
ACAD_DSTYLE_DIMJAG
1070
   388
1040
1.5
1001
ACAD_DSTYLE_DIMJOGGED_JOGANGLE_SYMBOL
1070
   384
1040
1.570796326794896
1001
ACAD_DSTYLE_DIM_LINETYPE
1070
   380
1005
14
1001
ACAD_DSTYLE_DIM_EXT1_LINETYPE
1070
   381
1005
14
1001
ACAD_DSTYLE_DIM_EXT2_LINETYPE
1070
   382
1005
14
  0
DIMSTYLE
105
5C9
330
A
100
AcDbSymbolTableRecord
100
AcDbDimStyleTableRecord
  2
AM_DIN$4
 70
     0
  4
"
 41
3.5
 42
1.0
 43
10.0
 44
1.0
 47
0.1
 48
0.1
 73
     0
 77
     1
 78
     8
 79
     2
140
3.5
141
0.0
143
0.0393701
146
0.71
147
1.5
176
   256
177
   256
178
     2
271
     2
272
     3
274
     4
283
     0
284
     8
288
     1
289
     0
340
11
371
    -1
372
    -1
1001
ACAD_DSTYLE_DIMBREAK
1070
   391
1040
3.75
1001
ACAD_DSTYLE_DIMJAG
1070
   388
1040
1.5
1001
ACAD_DSTYLE_DIMJOGGED_JOGANGLE_SYMBOL
1070
   384
1040
1.570796326794896
1001
ACAD_DSTYLE_DIM_LINETYPE
1070
   380
1005
14
1001
ACAD_DSTYLE_DIM_EXT1_LINETYPE
1070
   381
1005
14
1001
ACAD_DSTYLE_DIM_EXT2_LINETYPE
1070
   382
1005
14
  0
DIMSTYLE
105
5CA
330
A
100
AcDbSymbolTableRecord
100
AcDbDimStyleTableRecord
  2
AM_DIN$6
 70
     0
  4
"
 41
3.5
 42
1.0
 43
10.0
 44
1.0
 47
0.1
 48
0.1
 73
     0
 74
     0
 78
     8
 79
     2
140
3.5
141
0.0
143
0.0393701
146
0.71
147
1.5
172
     1
176
   256
177
   256
178
     2
271
     2
272
     3
274
     4
283
     0
284
     8
340
11
371
    -1
372
    -1
1001
ACAD_DSTYLE_DIMBREAK
1070
   391
1040
3.75
1001
ACAD_DSTYLE_DIMJAG
1070
   388
1040
1.5
1001
ACAD_DSTYLE_DIMJOGGED_JOGANGLE_SYMBOL
1070
   384
1040
1.570796326794896
1001
ACAD_DSTYLE_DIM_LINETYPE
1070
   380
1005
14
1001
ACAD_DSTYLE_DIM_EXT1_LINETYPE
1070
   381
1005
14
1001
ACAD_DSTYLE_DIM_EXT2_LINETYPE
1070
   382
1005
14
  0
DIMSTYLE
105
5CB
330
A
100
AcDbSymbolTableRecord
100
AcDbDimStyleTableRecord
  2
AM_DIN$7
 70
     0
  4
"
 41
3.5
 42
1.0
 43
10.0
 44
1.0
 47
0.1
 48
0.1
 73
     0
 74
     0
 77
     1
 78
     8
 79
     2
140
3.5
141
0.0
143
0.0393701
146
0.71
147
1.5
172
     1
176
   256
177
   256
178
     2
271
     2
272
     3
274
     4
283
     0
284
     8
340
11
371
    -1
372
    -1
1001
ACAD_DSTYLE_DIMBREAK
1070
   391
1040
3.75
1001
ACAD_DSTYLE_DIMJAG
1070
   388
1040
1.5
1001
ACAD_DSTYLE_DIMJOGGED_JOGANGLE_SYMBOL
1070
   384
1040
1.570796326794896
1001
ACAD_DSTYLE_DIM_LINETYPE
1070
   380
1005
14
1001
ACAD_DSTYLE_DIM_EXT1_LINETYPE
1070
   381
1005
14
1001
ACAD_DSTYLE_DIM_EXT2_LINETYPE
1070
   382
1005
14
  0
DIMSTYLE
105
5CC
330
A
100
AcDbSymbolTableRecord
100
AcDbDimStyleTableRecord
  2
AM_DIN$SF
 70
     0
  4
"
 41
3.5
 42
1.0
 43
10.0
 44
1.0
 47
0.1
 48
0.1
 73
     0
 74
     0
 75
     1
 76
     1
 77
     1
 78
     8
 79
     2
140
3.5
141
0.0
143
0.0393701
146
0.71
147
1.5
172
     1
176
   256
177
   256
178
     2
271
     2
272
     3
274
     4
283
     0
284
     8
340
11
371
    -1
372
    -1
1001
ACAD_DSTYLE_DIMBREAK
1070
   391
1040
3.75
1001
ACAD_DSTYLE_DIMJAG
1070
   388
1040
1.5
1001
ACAD_DSTYLE_DIMJOGGED_JOGANGLE_SYMBOL
1070
   384
1040
1.570796326794896
1001
ACAD_DSTYLE_DIM_LINETYPE
1070
   380
1005
14
1001
ACAD_DSTYLE_DIM_EXT1_LINETYPE
1070
   381
1005
14
1001
ACAD_DSTYLE_DIM_EXT2_LINETYPE
1070
   382
1005
14
  0
DIMSTYLE
105
5D1
330
A
100
AcDbSymbolTableRecord
100
AcDbDimStyleTableRecord
  2
AM_DIN$SH
 70
     0
  4
"
 41
3.5
 42
1.0
 43
10.0
 44
1.0
 47
0.1
 48
0.1
 73
     0
 74
     0
 75
     1
 76
     1
 77
     1
 78
     8
 79
     2
140
3.5
141
0.0
143
0.0393701
144
2.0
146
0.71
147
1.5
172
     1
173
     1
176
   256
177
   256
178
     2
271
     2
272
     3
274
     4
283
     0
284
     8
340
11
343
5CD
371
    -1
372
    -1
1001
ACAD_DSTYLE_DIMBREAK
1070
   391
1040
3.75
1001
ACAD_DSTYLE_DIMJAG
1070
   388
1040
1.5
1001
ACAD_DSTYLE_DIMJOGGED_JOGANGLE_SYMBOL
1070
   384
1040
1.570796326794896
1001
ACAD_DSTYLE_DIM_LINETYPE
1070
   380
1005
14
1001
ACAD_DSTYLE_DIM_EXT1_LINETYPE
1070
   381
1005
14
1001
ACAD_DSTYLE_DIM_EXT2_LINETYPE
1070
   382
1005
14
  0
ENDTAB
  0
TABLE
  2
BLOCK_RECORD
  5
1
330
0
100
AcDbSymbolTable
 70
    15
  0
BLOCK_RECORD
  5
21D
330
1
100
AcDbSymbolTableRecord
100
AcDbBlockTableRecord
  2
*Model_Space
340
4F9
  0
BLOCK_RECORD
  5
21E
330
1
100
AcDbSymbolTableRecord
100
AcDbBlockTableRecord
  2
*Paper_Space
340
4FA
  0
BLOCK_RECORD
  5
21F
330
1
100
AcDbSymbolTableRecord
100
AcDbBlockTableRecord
  2
_FILLED
340
0
102
{BLKREFS
331
5FE
331
5FF
331
614
331
615
331
62A
331
62B
331
640
331
641
331
656
331
657
331
672
331
673
331
67B
331
67C
331
68D
331
68E
331
696
331
697
331
6A8
331
6A9
102
}
  0
BLOCK_RECORD
  5
220
330
1
100
AcDbSymbolTableRecord
100
AcDbBlockTableRecord
  2
*D1
340
0
  0
BLOCK_RECORD
  5
221
330
1
100
AcDbSymbolTableRecord
100
AcDbBlockTableRecord
  2
*D2
340
0
  0
BLOCK_RECORD
  5
222
330
1
100
AcDbSymbolTableRecord
100
AcDbBlockTableRecord
  2
*D3
340
0
  0
BLOCK_RECORD
  5
223
330
1
100
AcDbSymbolTableRecord
100
AcDbBlockTableRecord
  2
*D4
340
0
  0
BLOCK_RECORD
  5
224
330
1
100
AcDbSymbolTableRecord
100
AcDbBlockTableRecord
  2
*D5
340
0
  0
BLOCK_RECORD
  5
5CD
330
1
100
AcDbSymbolTableRecord
100
AcDbBlockTableRecord
  2
GENAXEH
340
0
  0
ENDTAB
  0
ENDSEC
  0
SECTION
  2
BLOCKS
  0
BLOCK
  5
20
330
21D
100
AcDbEntity
  8
0
100
AcDbBlockBegin
  2
*Model_Space
 70
     0
 10
0.0
 20
0.0
 30
0.0
  3
*Model_Space
  1

  0
ENDBLK
  5
21
330
21D
100
AcDbEntity
  8
0
100
AcDbBlockEnd
  0
BLOCK
  5
1C
330
21E
100
AcDbEntity
 67
     1
  8
0
100
AcDbBlockBegin
  2
*Paper_Space
 70
     0
 10
0.0
 20
0.0
 30
0.0
  3
*Paper_Space
  1

  0
ENDBLK
  5
1D
330
21E
100
AcDbEntity
 67
     1
  8
0
100
AcDbBlockEnd
  0
BLOCK
  5
229
330
21F
100
AcDbEntity
  8
0
100
AcDbBlockBegin
  2
_FILLED
 70
     0
 10
0.0
 20
0.0
 30
0.0
  3
_FILLED
  1

  0
SOLID
  5
22A
330
21F
100
AcDbEntity
  8
0
  6
ByBlock
 62
     0
100
AcDbTrace
 10
0.0
 20
0.0
 30
0.0
 11
-1.0
 21
0.125
 31
0.0
 12
-1.0
 22
-0.125
 32
0.0
 13
-1.0
 23
-0.125
 33
0.0
  0
ENDBLK
  5
22B
330
21F
100
AcDbEntity
  8
0
  6
ByBlock
 62
     0
100
AcDbBlockEnd
  0
BLOCK
  5
22C
330
220
100
AcDbEntity
  8
ZEICHNUNGSBEMASSUNGEN
  6
Continuous
 62
     2
100
AcDbBlockBegin
  2
*D1
 70
     1
 10
0.0
 20
0.0
 30
0.0
  3
*D1
  1

  0
LINE
  5
6A5
330
220
100
AcDbEntity
  8
ZEICHNUNGSBEMASSUNGEN
  6
Continuous
 62
     0
370
    -2
100
AcDbLine
 10
359.8823529412001
 20
89.5435093647
 30
0.0
 11
364.3871013956
 21
89.5435093647
 31
0.0
  0
LINE
  5
6A6
330
220
100
AcDbEntity
  8
ZEICHNUNGSBEMASSUNGEN
  6
Continuous
 62
     0
370
    -2
100
AcDbLine
 10
269.7929084919
 20
207.5352390184
 30
0.0
 11
364.3871013956001
 21
207.5352390184
 31
0.0
  0
LINE
  5
6A7
330
220
100
AcDbEntity
  8
ZEICHNUNGSBEMASSUNGEN
  6
Continuous
 62
     0
370
    -2
100
AcDbLine
 10
364.2071013956
 20
94.5435093647
 30
0.0
 11
364.2071013956
 21
202.5352390184
 31
0.0
  0
INSERT
  5
6A8
330
220
100
AcDbEntity
  8
ZEICHNUNGSBEMASSUNGEN
  6
Continuous
 62
     0
370
    -2
100
AcDbBlockReference
  2
_FILLED
 10
364.2071013956
 20
89.5435093647
 30
0.0
 41
5.0
 42
5.0
 43
5.0
 50
270.0
  0
INSERT
  5
6A9
330
220
100
AcDbEntity
  8
ZEICHNUNGSBEMASSUNGEN
  6
Continuous
 62
     0
370
    -2
100
AcDbBlockReference
  2
_FILLED
 10
364.2071013956
 20
207.5352390184
 30
0.0
 41
5.0
 42
5.0
 43
5.0
 50
90.0
  0
MTEXT
  5
6AA
330
220
100
AcDbEntity
  8
ZEICHNUNGSBEMASSUNGEN
  6
Continuous
100
AcDbMText
 10
355.7071013956
 20
145.5221354519
 30
0.0
 40
7.0
 41
0.0
 71
     2
 72
     1
  1
\A1;118
 11
0.0000000000000001
 21
1.0
 31
0.0
 73
     1
 44
1.0
1001
ACAD
1000
MTEXTBEGIN
1070
    73
1070
     1
1070
    44
1040
1.0
1070
    74
1070
     0
1000
MTEXTEND
  0
POINT
  5
6AB
330
220
100
AcDbEntity
  8
Defpoints
  6
Continuous
 62
     0
100
AcDbPoint
 10
359.8198529412
 20
89.5435093647
 30
0.0
  0
POINT
  5
6AC
330
220
100
AcDbEntity
  8
Defpoints
  6
Continuous
 62
     0
100
AcDbPoint
 10
269.7304084919
 20
207.5352390184
 30
0.0
  0
POINT
  5
6AD
330
220
100
AcDbEntity
  8
Defpoints
  6
Continuous
 62
     0
100
AcDbPoint
 10
364.2071013956
 20
207.5352390184
 30
0.0
  0
ENDBLK
  5
234
330
220
100
AcDbEntity
  8
0
  6
ByBlock
 62
     0
100
AcDbBlockEnd
  0
BLOCK
  5
235
330
221
100
AcDbEntity
  8
ZEICHNUNGSBEMASSUNGEN
  6
Continuous
 62
     2
100
AcDbBlockBegin
  2
*D2
 70
     1
 10
0.0
 20
0.0
 30
0.0
  3
*D2
  1

  0
LINE
  5
693
330
221
100
AcDbEntity
  8
ZEICHNUNGSBEMASSUNGEN
  6
Continuous
 62
     0
370
    -2
100
AcDbLine
 10
200.3198529412
 20
55.8610043397
 30
0.0
 11
200.3198529412
 21
48.26074326473105
 31
0.0
  0
LINE
  5
694
330
221
100
AcDbEntity
  8
ZEICHNUNGSBEMASSUNGEN
  6
Continuous
 62
     0
370
    -2
100
AcDbLine
 10
355.3198529412
 20
58.9810093647
 30
0.0
 11
355.3198529412
 21
48.26074326473105
 31
0.0
  0
LINE
  5
695
330
221
100
AcDbEntity
  8
ZEICHNUNGSBEMASSUNGEN
  6
Continuous
 62
     0
370
    -2
100
AcDbLine
 10
205.3198529412
 20
48.44074326473105
 30
0.0
 11
350.3198529412001
 21
48.44074326473105
 31
0.0
  0
INSERT
  5
696
330
221
100
AcDbEntity
  8
ZEICHNUNGSBEMASSUNGEN
  6
Continuous
 62
     0
370
    -2
100
AcDbBlockReference
  2
_FILLED
 10
200.3198529412
 20
48.44074326473105
 30
0.0
 41
5.0
 42
5.0
 43
5.0
 50
180.0
  0
INSERT
  5
697
330
221
100
AcDbEntity
  8
ZEICHNUNGSBEMASSUNGEN
  6
Continuous
 62
     0
370
    -2
100
AcDbBlockReference
  2
_FILLED
 10
355.3198529412
 20
48.44074326473105
 30
0.0
 41
5.0
 42
5.0
 43
5.0
  0
MTEXT
  5
698
330
221
100
AcDbEntity
  8
ZEICHNUNGSBEMASSUNGEN
  6
Continuous
100
AcDbMText
 10
274.3198529412
 20
56.94074326473105
 30
0.0
 40
7.0
 41
0.0
 71
     2
 72
     1
  1
\A1;155
 73
     1
 44
1.0
1001
ACAD
1000
MTEXTBEGIN
1070
    73
1070
     1
1070
    44
1040
1.0
1070
    74
1070
     0
1000
MTEXTEND
  0
POINT
  5
699
330
221
100
AcDbEntity
  8
Defpoints
  6
Continuous
 62
     0
100
AcDbPoint
 10
200.3198529412
 20
55.9235043397
 30
0.0
  0
POINT
  5
69A
330
221
100
AcDbEntity
  8
Defpoints
  6
Continuous
 62
     0
100
AcDbPoint
 10
355.3198529412
 20
59.0435093647
 30
0.0
  0
POINT
  5
69B
330
221
100
AcDbEntity
  8
Defpoints
  6
Continuous
 62
     0
100
AcDbPoint
 10
355.3198529412
 20
48.44074326473105
 30
0.0
  0
ENDBLK
  5
23D
330
221
100
AcDbEntity
  8
0
  6
ByBlock
 62
     0
100
AcDbBlockEnd
  0
BLOCK
  5
23E
330
222
100
AcDbEntity
  8
ZEICHNUNGSBEMASSUNGEN
  6
Continuous
 62
     2
100
AcDbBlockBegin
  2
*D3
 70
     1
 10
0.0
 20
0.0
 30
0.0
  3
*D3
  1

  0
LINE
  5
678
330
222
100
AcDbEntity
  8
ZEICHNUNGSBEMASSUNGEN
  6
Continuous
 62
     0
370
    -2
100
AcDbLine
 10
50.3198529412
 20
205.6406148385
 30
0.0
 11
50.3198529412
 21
262.223021810388
 31
0.0
  0
LINE
  5
679
330
222
100
AcDbEntity
  8
ZEICHNUNGSBEMASSUNGEN
  6
Continuous
 62
     0
370
    -2
100
AcDbLine
 10
350.3198529412001
 20
205.6406148385
 30
0.0
 11
350.3198529412001
 21
262.223021810388
 31
0.0
  0
LINE
  5
67A
330
222
100
AcDbEntity
  8
ZEICHNUNGSBEMASSUNGEN
  6
Continuous
 62
     0
370
    -2
100
AcDbLine
 10
55.3198529412
 20
262.043021810388
 30
0.0
 11
345.3198529412
 21
262.043021810388
 31
0.0
  0
INSERT
  5
67B
330
222
100
AcDbEntity
  8
ZEICHNUNGSBEMASSUNGEN
  6
Continuous
 62
     0
370
    -2
100
AcDbBlockReference
  2
_FILLED
 10
50.3198529412
 20
262.043021810388
 30
0.0
 41
5.0
 42
5.0
 43
5.0
 50
180.0
  0
INSERT
  5
67C
330
222
100
AcDbEntity
  8
ZEICHNUNGSBEMASSUNGEN
  6
Continuous
 62
     0
370
    -2
100
AcDbBlockReference
  2
_FILLED
 10
350.3198529412001
 20
262.043021810388
 30
0.0
 41
5.0
 42
5.0
 43
5.0
  0
MTEXT
  5
67D
330
222
100
AcDbEntity
  8
ZEICHNUNGSBEMASSUNGEN
  6
Continuous
100
AcDbMText
 10
197.1531862745
 20
270.543021810388
 30
0.0
 40
7.0
 41
0.0
 71
     2
 72
     1
  1
\A1;%%c300
 73
     1
 44
1.0
1001
ACAD
1000
MTEXTBEGIN
1070
    73
1070
     1
1070
    44
1040
1.0
1070
    74
1070
     0
1000
MTEXTEND
  0
POINT
  5
67E
330
222
100
AcDbEntity
  8
Defpoints
  6
Continuous
 62
     0
100
AcDbPoint
 10
50.3198529412
 20
205.5781148385
 30
0.0
  0
POINT
  5
67F
330
222
100
AcDbEntity
  8
Defpoints
  6
Continuous
 62
     0
100
AcDbPoint
 10
350.3198529412001
 20
205.5781148385
 30
0.0
  0
POINT
  5
680
330
222
100
AcDbEntity
  8
Defpoints
  6
Continuous
 62
     0
100
AcDbPoint
 10
350.3198529412001
 20
262.043021810388
 30
0.0
  0
ENDBLK
  5
246
330
222
100
AcDbEntity
  8
0
  6
ByBlock
 62
     0
100
AcDbBlockEnd
  0
BLOCK
  5
247
330
223
100
AcDbEntity
  8
ZEICHNUNGSBEMASSUNGEN
  6
Continuous
 62
     2
100
AcDbBlockBegin
  2
*D4
 70
     1
 10
0.0
 20
0.0
 30
0.0
  3
*D4
  1

  0
LINE
  5
68A
330
223
100
AcDbEntity
  8
ZEICHNUNGSBEMASSUNGEN
  6
Continuous
 62
     0
370
    -2
100
AcDbLine
 10
83.2210149914
 20
207.5352390184
 30
0.0
 11
39.19512900170004
 21
207.5352390184
 31
0.0
  0
LINE
  5
68B
330
223
100
AcDbEntity
  8
ZEICHNUNGSBEMASSUNGEN
  6
Continuous
 62
     0
370
    -2
100
AcDbLine
 10
163.2573529412
 20
60.5435093647
 30
0.0
 11
39.19512900170001
 21
60.54350936470004
 31
0.0
  0
LINE
  5
68C
330
223
100
AcDbEntity
  8
ZEICHNUNGSBEMASSUNGEN
  6
Continuous
 62
     0
370
    -2
100
AcDbLine
 10
39.37512900170004
 20
202.5352390184
 30
0.0
 11
39.37512900170001
 21
65.54350936470003
 31
0.0
  0
INSERT
  5
68D
330
223
100
AcDbEntity
  8
ZEICHNUNGSBEMASSUNGEN
  6
Continuous
 62
     0
370
    -2
100
AcDbBlockReference
  2
_FILLED
 10
39.37512900170004
 20
207.5352390184
 30
0.0
 41
5.0
 42
5.0
 43
5.0
 50
90.0
  0
INSERT
  5
68E
330
223
100
AcDbEntity
  8
ZEICHNUNGSBEMASSUNGEN
  6
Continuous
 62
     0
370
    -2
100
AcDbBlockReference
  2
_FILLED
 10
39.37512900170001
 20
60.54350936470004
 30
0.0
 41
5.0
 42
5.0
 43
5.0
 50
270.0
  0
MTEXT
  5
68F
330
223
100
AcDbEntity
  8
ZEICHNUNGSBEMASSUNGEN
  6
Continuous
100
AcDbMText
 10
30.87512900170001
 20
130.686886703
 30
0.0
 40
7.0
 41
0.0
 71
     2
 72
     1
  1
\A1;147
 11
0.0000000000000001
 21
1.0
 31
0.0
 73
     1
 44
1.0
1001
ACAD
1000
MTEXTBEGIN
1070
    73
1070
     1
1070
    44
1040
1.0
1070
    74
1070
     0
1000
MTEXTEND
  0
POINT
  5
690
330
223
100
AcDbEntity
  8
Defpoints
  6
Continuous
 62
     0
100
AcDbPoint
 10
83.2835149914
 20
207.5352390184
 30
0.0
  0
POINT
  5
691
330
223
100
AcDbEntity
  8
Defpoints
  6
Continuous
 62
     0
100
AcDbPoint
 10
163.3198529412
 20
60.5435093647
 30
0.0
  0
POINT
  5
692
330
223
100
AcDbEntity
  8
Defpoints
  6
Continuous
 62
     0
100
AcDbPoint
 10
39.37512900170001
 20
60.54350936470004
 30
0.0
  0
ENDBLK
  5
24F
330
223
100
AcDbEntity
  8
0
  6
ByBlock
 62
     0
100
AcDbBlockEnd
  0
BLOCK
  5
250
330
224
100
AcDbEntity
  8
ZEICHNUNGSBEMASSUNGEN
  6
Continuous
 62
     2
100
AcDbBlockBegin
  2
*D5
 70
     1
 10
0.0
 20
0.0
 30
0.0
  3
*D5
  1

  0
LINE
  5
66F
330
224
100
AcDbEntity
  8
ZEICHNUNGSBEMASSUNGEN
  6
Continuous
 62
     0
370
    -2
100
AcDbLine
 10
123.0609736357
 20
200.7012160833
 30
0.0
 11
123.0609736357
 21
249.724726787
 31
0.0
  0
LINE
  5
670
330
224
100
AcDbEntity
  8
ZEICHNUNGSBEMASSUNGEN
  6
Continuous
 62
     0
370
    -2
100
AcDbLine
 10
277.5787322466
 20
200.7012160833
 30
0.0
 11
277.5787322466
 21
249.724726787
 31
0.0
  0
LINE
  5
671
330
224
100
AcDbEntity
  8
ZEICHNUNGSBEMASSUNGEN
  6
Continuous
 62
     0
370
    -2
100
AcDbLine
 10
128.0609736357
 20
249.544726787
 30
0.0
 11
272.5787322466
 21
249.544726787
 31
0.0
  0
INSERT
  5
672
330
224
100
AcDbEntity
  8
ZEICHNUNGSBEMASSUNGEN
  6
Continuous
 62
     0
370
    -2
100
AcDbBlockReference
  2
_FILLED
 10
123.0609736357
 20
249.544726787
 30
0.0
 41
5.0
 42
5.0
 43
5.0
 50
180.0
  0
INSERT
  5
673
330
224
100
AcDbEntity
  8
ZEICHNUNGSBEMASSUNGEN
  6
Continuous
 62
     0
370
    -2
100
AcDbBlockReference
  2
_FILLED
 10
277.5787322466
 20
249.544726787
 30
0.0
 41
5.0
 42
5.0
 43
5.0
  0
MTEXT
  5
674
330
224
100
AcDbEntity
  8
ZEICHNUNGSBEMASSUNGEN
  6
Continuous
100
AcDbMText
 10
197.4031862745
 20
258.044726787
 30
0.0
 40
7.0
 41
0.0
 71
     2
 72
     1
  1
\A1;%%c155
 73
     1
 44
1.0
1001
ACAD
1000
MTEXTBEGIN
1070
    73
1070
     1
1070
    44
1040
1.0
1070
    74
1070
     0
1000
MTEXTEND
  0
POINT
  5
675
330
224
100
AcDbEntity
  8
Defpoints
  6
Continuous
 62
     0
100
AcDbPoint
 10
123.0609736357
 20
200.6387160833
 30
0.0
  0
POINT
  5
676
330
224
100
AcDbEntity
  8
Defpoints
  6
Continuous
 62
     0
100
AcDbPoint
 10
277.5787322466
 20
200.6387160833
 30
0.0
  0
POINT
  5
677
330
224
100
AcDbEntity
  8
Defpoints
  6
Continuous
 62
     0
100
AcDbPoint
 10
277.5787322466
 20
249.544726787
 30
0.0
  0
ENDBLK
  5
258
330
224
100
AcDbEntity
  8
0
  6
ByBlock
 62
     0
100
AcDbBlockEnd
  0
BLOCK
  5
5CF
330
5CD
100
AcDbEntity
  8
0
100
AcDbBlockBegin
  2
GENAXEH
 70
     0
 10
0.0
 20
0.0
 30
0.0
  3
GENAXEH
  1

  0
LINE
  5
5CE
330
5CD
100
AcDbEntity
  8
0
100
AcDbLine
 10
-1.0
 20
0.0
 30
0.0
 11
1.0
 21
0.0
 31
0.0
  0
ENDBLK
  5
5D0
330
5CD
100
AcDbEntity
  8
0
100
AcDbBlockEnd
  0
ENDSEC
  0
SECTION
  2
ENTITIES
  0
HATCH
  5
259
330
21D
100
AcDbEntity
  8
0
  6
Continuous
 62
     1
100
AcDbHatch
 10
0.0
 20
0.0
 30
0.0
210
0.0
220
0.0
230
1.0
  2
DEFAULT__1
 70
     0
 71
     0
 91
        2
 92
        1
 93
       54
 72
     1
 10
164.8198529412
 20
60.5435093647
 11
258.3198529412
 21
60.5435093647
 72
     4
 94
        3
 73
     1
 74
     0
 95
        8
 96
        4
 40
0.0
 40
0.0
 40
0.0
 40
0.0
 40
1.0
 40
1.0
 40
1.0
 40
1.0
 10
164.8198529412
 20
60.5435093647
 42
1.0
 10
158.9619885649
 20
60.54350936470001
 42
0.8047378541
 10
154.8198529412
 20
64.6856449884
 42
0.8047378541
 10
154.8198529412
 20
70.5435093647
 42
1.0
 72
     1
 10
154.8198529412
 20
70.5435093647
 11
154.8198529412
 21
94.0811696219
 72
     4
 94
        3
 73
     1
 74
     0
 95
        8
 96
        4
 40
0.0
 40
0.0
 40
0.0
 40
0.0
 40
1.0
 40
1.0
 40
1.0
 40
1.0
 10
151.9768608099
 20
97.07705822620001
 42
1.0
 10
153.6598025115
 20
96.988858989
 42
0.8169162473
 10
154.8198529412
 20
95.76642090180001
 42
0.8169162473
 10
154.8198529412
 20
94.0811696219
 42
1.0
 72
     1
 10
147.1022193624
 20
97.33252735930001
 11
151.9768608099
 21
97.07705822620001
 72
     4
 94
        3
 73
     1
 74
     0
 95
        8
 96
        4
 40
0.0
 40
0.0
 40
0.0
 40
0.0
 40
1.0
 40
1.0
 40
1.0
 40
1.0
 10
144.551471378
 20
99.0368826731
 42
1.0
 10
145.037236368
 20
98.0184551928
 42
0.906270941
 10
145.9754208442
 20
97.3915803673
 42
0.906270941
 10
147.1022193624
 20
97.33252735930001
 42
1.0
 72
     1
 10
131.0684465701
 20
127.3046320305
 11
144.551471378
 21
99.0368826731
 72
     4
 94
        3
 73
     1
 74
     0
 95
        8
 96
        4
 40
0.0
 40
0.0
 40
0.0
 40
0.0
 40
1.0
 40
1.0
 40
1.0
 40
1.0
 10
130.7780299420999
 20
128.4914668308
 42
1.0
 10
130.7924453095
 20
128.0786647192
 42
0.986030315
 10
130.8906223546
 20
127.6774482514
 42
0.986030315
 10
131.0684465701
 20
127.3046320305
 42
1.0
 72
     1
 10
129.3770672718
 20
168.6097886967
 11
130.7780299420999
 21
128.4914668308
 72
     4
 94
        3
 73
     1
 74
     0
 95
        8
 96
        4
 40
0.0
 40
0.0
 40
0.0
 40
0.0
 40
1.0
 40
1.0
 40
1.0
 40
1.0
 10
129.3770671005
 20
168.6097959556
 42
1.0
 10
129.3524244311
 20
169.315470049
 42
0.9853168299
 10
129.1810355674
 20
170.0004584027
 42
0.9853168299
 10
128.8704501051
 20
170.634587615
 42
1.0
 72
     1
 10
128.8704499533
 20
170.6345876738
 11
128.7317754105
 21
170.9177220844
 72
     4
 94
        3
 73
     1
 74
     0
 95
        8
 96
        4
 40
0.0
 40
0.0
 40
0.0
 40
0.0
 40
1.0
 40
1.0
 40
1.0
 40
1.0
 10
128.7317755683
 20
170.9177221603
 42
1.0
 10
128.4211887839
 20
171.5518518653
 42
0.985316788
 10
128.2497989362999
 20
172.2368410284
 42
0.985316788
 10
128.2251556859
 20
172.9425161263
 42
1.0
 72
     1
 10
127.9310088535
 20
181.3657754795
 11
128.2251554197
 21
172.9425199052
 72
     4
 94
        3
 73
     1
 74
     0
 95
        8
 96
        4
 40
0.0
 40
0.0
 40
0.0
 40
0.0
 40
1.0
 40
1.0
 40
1.0
 40
1.0
 10
125.7087722827
 20
184.1589940798
 42
1.0
 10
127.0310242891
 20
183.8049526141
 42
0.8692022420999998
 10
127.8832373734
 20
182.7337716832
 42
0.8692022420999998
 10
127.9310088535
 20
181.3657754795
 42
1.0
 72
     4
 94
        3
 73
     1
 74
     0
 95
        8
 96
        4
 40
0.0
 40
0.0
 40
0.0
 40
0.0
 40
1.0
 40
1.0
 40
1.0
 40
1.0
 10
125.7087722827
 20
184.1589940798
 42
1.0
 10
124.3865202764
 20
184.5130355456
 42
0.8692022420999998
 10
123.5343071921
 20
185.5842164764
 42
0.8692022420999998
 10
123.486535712
 20
186.9522126802
 42
1.0
 72
     1
 10
123.486535712
 20
186.9522126802
 11
123.1594641406
 21
196.3183170408
 72
     4
 94
        3
 73
     1
 74
     0
 95
        8
 96
        4
 40
0.0
 40
0.0
 40
0.0
 40
0.0
 40
1.0
 40
1.0
 40
1.0
 40
1.0
 10
120.2398225044
 20
199.2125905256
 42
1.0
 10
121.9126433673
 20
199.1687861697
 42
0.8189139798999999
 10
123.101063522
 20
197.9906919474
 42
0.8189139798999999
 10
123.1594641406
 20
196.3183170408
 42
1.0
 72
     1
 10
120.2398225044
 20
199.2125905256
 11
52.2674990446
 21
200.9925084566
 72
     4
 94
        3
 73
     1
 74
     0
 95
        8
 96
        4
 40
0.0
 40
0.0
 40
0.0
 40
0.0
 40
1.0
 40
1.0
 40
1.0
 40
1.0
 10
52.2674990446
 20
200.9925084566
 42
1.0
 10
51.12049546
 20
201.0225438025
 42
0.8108679623
 10
50.3198529412
 20
201.8444263378
 42
0.8108679623
 10
50.3198529412
 20
202.9918231066
 42
1.0
 72
     1
 10
50.3198529412
 20
202.9918231066
 11
50.3198529412
 21
204.0781148385
 72
     4
 94
        3
 73
     1
 74
     0
 95
        8
 96
        4
 40
0.0
 40
0.0
 40
0.0
 40
0.0
 40
1.0
 40
1.0
 40
1.0
 40
1.0
 10
50.3198529412
 20
204.0781148385
 42
1.0
 10
50.3198529412
 20
205.2335387079
 42
0.8088336328
 10
51.1297002355
 20
206.0576453018
 42
0.8088336328
 10
52.2849481283
 20
206.0778102288
 42
1.0
 72
     1
 10
52.2849481283
 20
206.0778102288
 11
135.300835597
 21
207.5268579346
 72
     4
 94
        3
 73
     1
 74
     0
 95
        8
 96
        4
 40
0.0
 40
0.0
 40
0.0
 40
0.0
 40
1.0
 40
1.0
 40
1.0
 40
1.0
 10
135.300835597
 20
207.5268579346
 42
1.0
 10
135.8931614741
 20
207.5371970213
 42
0.8013725279999999
 10
136.3163717239
 20
207.122649164
 42
0.8013725279999999
 10
136.3182828002
 20
206.5302361414
 42
1.0
 72
     1
 10
136.3198529412
 20
206.0435093647
 11
136.3182828002
 21
206.5302361414
 72
     1
 10
136.3198529412
 20
201.0262066278
 11
136.3198529412
 21
206.0435093647
 72
     4
 94
        3
 73
     1
 74
     0
 95
        8
 96
        4
 40
0.0
 40
0.0
 40
0.0
 40
0.0
 40
1.0
 40
1.0
 40
1.0
 40
1.0
 10
136.3198529412
 20
201.0262066278
 42
1.0
 10
136.3198529412
 20
200.4484946931
 42
0.8088336328
 10
135.914929294
 20
200.0364413962
 42
0.8088336328
 10
135.3373053476
 20
200.0263589327
 42
1.0
 72
     1
 10
130.3024005347
 20
199.9384743423
 11
135.3373053476
 21
200.0263589327
 72
     4
 94
        3
 73
     1
 74
     0
 95
        8
 96
        4
 40
0.0
 40
0.0
 40
0.0
 40
0.0
 40
1.0
 40
1.0
 40
1.0
 40
1.0
 10
129.3198529412
 20
198.9386266471
 42
1.0
 10
129.3198529412
 20
199.5163385818
 42
0.8088336328
 10
129.7247765883
 20
199.9283918788
 42
0.8088336328
 10
130.3024005347
 20
199.9384743423
 42
1.0
 72
     1
 10
129.3198529412
 20
189.9040211733
 11
129.3198529412
 21
198.9386266471
 72
     4
 94
        3
 73
     1
 74
     0
 95
        8
 96
        4
 40
0.0
 40
0.0
 40
0.0
 40
0.0
 40
1.0
 40
1.0
 40
1.0
 40
1.0
 10
130.3024005347
 20
188.9041734782
 42
1.0
 10
129.7247765883
 20
188.9142559417
 42
0.8088336328
 10
129.3198529412
 20
189.3263092386
 42
0.8088336328
 10
129.3198529412
 20
189.9040211733
 42
1.0
 72
     1
 10
135.3961024955
 20
188.8152625797
 11
130.3024005347
 21
188.9041734782
 72
     4
 94
        3
 73
     1
 74
     0
 95
        8
 96
        4
 40
0.0
 40
0.0
 40
0.0
 40
0.0
 40
1.0
 40
1.0
 40
1.0
 40
1.0
 10
135.3961024955
 20
188.8152625797
 42
1.0
 10
135.9722411875
 20
188.8052060414
 42
0.8095867034000001
 10
136.3767860358
 20
188.3948642423
 42
0.8095867034000001
 10
136.3786448858
 20
187.8186407865
 42
1.0
 72
     1
 10
136.5676795029
 20
129.2199488762
 11
136.3786448858
 21
187.8186407865
 72
     4
 94
        3
 73
     1
 74
     0
 95
        8
 96
        4
 40
0.0
 40
0.0
 40
0.0
 40
0.0
 40
1.0
 40
1.0
 40
1.0
 40
1.0
 10
136.8599080401
 20
127.9380932916
 42
1.0
 10
136.6681302616
 20
128.3401637657
 42
0.9837980176
 10
136.5691165304
 20
128.7744858391
 42
0.9837980176
 10
136.5676795029
 20
129.2199488762
 42
1.0
 72
     1
 10
146.0551555274
 20
108.6598560301
 11
136.8599080401
 21
127.9380932916
 72
     4
 94
        3
 73
     1
 74
     0
 95
        8
 96
        4
 40
0.0
 40
0.0
 40
0.0
 40
0.0
 40
1.0
 40
1.0
 40
1.0
 40
1.0
 10
146.9054048555
 20
108.0917375922
 42
1.0
 10
146.5298053495
 20
108.1114219282
 42
0.906270941
 10
146.2170771907
 20
108.3203802033
 42
0.906270941
 10
146.0551555274
 20
108.6598560301
 42
1.0
 72
     1
 10
161.8721888974
 20
107.3073616775
 11
146.9054048555
 21
108.0917375922
 72
     4
 94
        3
 73
     1
 74
     0
 95
        8
 96
        4
 40
0.0
 40
0.0
 40
0.0
 40
0.0
 40
1.0
 40
1.0
 40
1.0
 40
1.0
 10
161.8721888974
 20
107.3073616775
 42
1.0
 10
162.4331694646
 20
107.2779619318
 42
0.8169162473
 10
162.8198529412
 20
106.8704825694
 42
0.8169162473
 10
162.8198529412
 20
106.3087321428
 42
1.0
 72
     1
 10
162.8198529412
 20
96.2403939726
 11
162.8198529412
 21
106.3087321428
 72
     4
 94
        3
 73
     1
 74
     0
 95
        8
 96
        4
 40
0.0
 40
0.0
 40
0.0
 40
0.0
 40
1.0
 40
1.0
 40
1.0
 40
1.0
 10
163.8024005347
 20
95.2405462775
 42
1.0
 10
163.2247765883
 20
95.25062874099999
 42
0.8088336328
 10
162.8198529412
 20
95.6626820379
 42
0.8088336328
 10
162.8198529412
 20
96.2403939726
 42
1.0
 72
     1
 10
169.3373053476
 20
95.14393415459998
 11
163.8024005347
 21
95.2405462775
 72
     4
 94
        3
 73
     1
 74
     0
 95
        8
 96
        4
 40
0.0
 40
0.0
 40
0.0
 40
0.0
 40
1.0
 40
1.0
 40
1.0
 40
1.0
 10
169.3373053476
 20
95.14393415459998
 42
1.0
 10
169.914929294
 20
95.1338516911
 42
0.8088336328
 10
170.3198529412
 20
94.72179839419998
 42
0.8088336328
 10
170.3198529412
 20
94.1440864594
 42
1.0
 72
     1
 10
170.3198529412
 20
90.02693599830001
 11
170.3198529412
 21
94.1440864594
 72
     2
 10
169.3197723729
 20
90.02684649459999
 40
1.000071813099999
 50
270.0049011124
 51
360.0051238534
 73
     1
 72
     1
 10
161.3198568461
 20
89.02678372249999
 11
169.3198578517
 21
89.02678372249999
 72
     2
 10
161.3199418024
 20
88.02671290440001
 40
1.000079314399999
 50
90.00487412309999
 51
180.0046660000999
 73
     1
 72
     1
 10
160.3198529412
 20
70.5435093647
 11
160.3198529412
 21
88.02663147169999
 72
     4
 94
        3
 73
     1
 74
     0
 95
        8
 96
        4
 40
0.0
 40
0.0
 40
0.0
 40
0.0
 40
1.0
 40
1.0
 40
1.0
 40
1.0
 10
164.8198529412
 20
66.0435093647
 42
1.0
 10
162.1838139719
 20
66.0435093647
 42
0.8047378541
 10
160.3198529411999
 20
67.9074703954
 42
0.8047378541
 10
160.3198529412
 20
70.5435093647
 42
1.0
 72
     1
 10
164.8198529412
 20
66.0435093647
 11
281.3198529412
 21
66.0435093647
 72
     1
 10
281.3198529412
 20
66.0435093647
 11
290.3198529412
 21
66.0435093647
 72
     1
 10
290.3198529412
 20
66.0435093647
 11
355.3198529412
 21
66.0435093647
 72
     1
 10
355.3198529412
 20
66.0435093647
 11
355.3198529412
 21
60.5435093647
 72
     1
 10
290.3198529412
 20
60.5435093647
 11
355.3198529412
 21
60.5435093647
 72
     1
 10
290.3198529412
 20
60.5435093647
 11
258.3198529412
 21
60.5435093647
 97
        0
 92
        1
 93
       52
 72
     1
 10
355.3198529412
 20
118.5435093647
 11
355.3198529412
 21
113.0435093647
 72
     1
 10
290.3198529412
 20
113.0435093647
 11
355.3198529412
 21
113.0435093647
 72
     4
 94
        3
 73
     0
 74
     0
 95
       14
 96
       10
 40
0.0
 40
0.0
 40
0.0
 40
0.0
 40
0.1575937386
 40
0.3152035612000001
 40
0.4728133838000001
 40
0.6304232064000001
 40
0.7880330290000001
 40
0.9456428515999999
 40
1.0
 40
1.0
 40
1.0
 40
1.0
 10
290.3194661971
 20
113.0435093639
 10
289.0563322937
 20
113.0435042298
 10
286.4713572549
 20
112.9931872799
 10
282.446375085
 20
112.8398257885
 10
278.2984728552
 20
112.6889781313
 10
274.0481528818
 20
112.6275667351
 10
269.7126383328
 20
112.7495153615
 10
266.2708056143
 20
113.0680308368
 10
264.283418306
 20
113.3702531923
 10
263.7731598469
 20
113.4564157688
 72
     4
 94
        3
 73
     1
 74
     0
 95
        8
 96
        4
 40
0.0
 40
0.0
 40
0.0
 40
0.0
 40
1.0
 40
1.0
 40
1.0
 40
1.0
 10
263.7731598423
 20
113.456415754
 42
1.0
 10
263.3156036719
 20
113.5336789879
 42
0.8654607064
 10
262.9038427172
 20
113.3197159705
 42
0.8654607064
 10
262.7040710619
 20
112.9008860016
 42
1.0
 72
     1
 10
262.7040711749
 20
112.9008859472
 11
255.5767050902
 21
97.95805220390001
 72
     2
 10
254.6782749153
 20
98.3861367431
 40
0.9951903058999999
 50
272.9765572402
 51
334.5231068094
 73
     1
 72
     1
 10
254.7299533354
 20
97.3922734383
 11
246.7715604136
 21
96.97519173860001
 72
     2
 10
246.8244409123
 20
95.97474630090001
 40
1.001846084999999
 50
93.0256650373
 51
179.9744173847
 73
     1
 72
     1
 10
245.8225976332
 20
95.97519361699999
 11
245.8225976332
 21
90.02419546570001
 72
     4
 94
        3
 73
     0
 74
     0
 95
       15
 96
       11
 40
0.0
 40
0.0
 40
0.0
 40
0.0
 40
0.125
 40
0.25
 40
0.375
 40
0.5
 40
0.625
 40
0.75
 40
0.875
 40
1.0
 40
1.0
 40
1.0
 40
1.0
 10
245.8225892796
 20
90.0241954658
 10
245.8225978399
 20
89.95810280090001
 10
245.8097468127
 20
89.82887910909999
 10
245.7526702368
 20
89.64050772280002
 10
245.6604482754
 20
89.46785803479999
 10
245.5347100859
 20
89.314464466
 10
245.3807281226
 20
89.18876329559999
 10
245.2074315131
 20
89.0965965546
 10
245.0180474591
 20
89.03940169469999
 10
244.8878645563
 20
89.02647763709998
 10
244.821224523
 20
89.0264867083
 72
     1
 10
244.821224523
 20
89.02647906650001
 11
231.3198529278
 21
89.02647906650001
 72
     4
 94
        3
 73
     1
 74
     0
 95
        8
 96
        4
 40
0.0
 40
0.0
 40
0.0
 40
0.0
 40
1.0
 40
1.0
 40
1.0
 40
1.0
 10
231.3198528759
 20
89.026479077
 42
1.0
 10
230.7340665285
 20
89.02647911519999
 42
0.8047379015
 10
230.3198530154
 20
89.44069259919999
 42
0.8047379015
 10
230.3198529358
 20
90.02647894649999
 42
1.0
 72
     1
 10
230.3198529412
 20
90.0264790665
 11
230.3198529412
 21
94.1440864594
 72
     4
 94
        3
 73
     1
 74
     0
 95
        8
 96
        4
 40
0.0
 40
0.0
 40
0.0
 40
0.0
 40
1.0
 40
1.0
 40
1.0
 40
1.0
 10
231.3024005347
 20
95.14393415459998
 42
1.0
 10
230.7247765883
 20
95.1338516911
 42
0.8088336328
 10
230.3198529412
 20
94.72179839419998
 42
0.8088336328
 10
230.3198529412
 20
94.1440864594
 42
1.0
 72
     1
 10
231.3024005347
 20
95.14393415459998
 11
236.8373053476
 21
95.2405462775
 72
     4
 94
        3
 73
     1
 74
     0
 95
        8
 96
        4
 40
0.0
 40
0.0
 40
0.0
 40
0.0
 40
1.0
 40
1.0
 40
1.0
 40
1.0
 10
236.8373053476
 20
95.2405462775
 42
1.0
 10
237.414929294
 20
95.25062874099999
 42
0.8088336328
 10
237.8198529412
 20
95.6626820379
 42
0.8088336328
 10
237.8198529412
 20
96.2403939726
 42
1.0
 72
     1
 10
237.8198529412
 20
96.2403939726
 11
237.8198529412
 21
106.3087321428
 72
     4
 94
        3
 73
     1
 74
     0
 95
        8
 96
        4
 40
0.0
 40
0.0
 40
0.0
 40
0.0
 40
1.0
 40
1.0
 40
1.0
 40
1.0
 10
238.7675169849
 20
107.3073616775
 42
1.0
 10
238.2065364177
 20
107.2779619318
 42
0.8169162473
 10
237.8198529412
 20
106.8704825694
 42
0.8169162473
 10
237.8198529412
 20
106.3087321428
 42
1.0
 72
     1
 10
238.7675169849
 20
107.3073616775
 11
253.7343010269
 21
108.0917375922
 72
     4
 94
        3
 73
     1
 74
     0
 95
        8
 96
        4
 40
0.0
 40
0.0
 40
0.0
 40
0.0
 40
1.0
 40
1.0
 40
1.0
 40
1.0
 10
253.7343010269
 20
108.0917375922
 42
1.0
 10
254.1099005329
 20
108.1114219282
 42
0.906270941
 10
254.4226286916
 20
108.3203802033
 42
0.906270941
 10
254.584550355
 20
108.6598560301
 42
1.0
 72
     1
 10
254.584550355
 20
108.6598560301
 11
263.7797978422
 21
127.9380932916
 72
     4
 94
        3
 73
     1
 74
     0
 95
        8
 96
        4
 40
0.0
 40
0.0
 40
0.0
 40
0.0
 40
1.0
 40
1.0
 40
1.0
 40
1.0
 10
263.7797978422
 20
127.9380932916
 42
1.0
 10
263.9715756208
 20
128.3401637657
 42
0.9837980176
 10
264.0705893519
 20
128.7744858391
 42
0.9837980176
 10
264.0720263795
 20
129.2199488762
 42
1.0
 72
     1
 10
264.0720263795
 20
129.2199488762
 11
264.2610609965
 21
187.8186407865
 72
     4
 94
        3
 73
     1
 74
     0
 95
        8
 96
        4
 40
0.0
 40
0.0
 40
0.0
 40
0.0
 40
1.0
 40
1.0
 40
1.0
 40
1.0
 10
265.2436033868
 20
188.8152625797
 42
1.0
 10
264.6674646948
 20
188.8052060414
 42
0.8095867034000001
 10
264.2629198465
 20
188.3948642423
 42
0.8095867034000001
 10
264.2610609965
 20
187.8186407865
 42
1.0
 72
     1
 10
265.2436033868
 20
188.8152625797
 11
270.3373053476
 21
188.9041734782
 72
     4
 94
        3
 73
     1
 74
     0
 95
        8
 96
        4
 40
0.0
 40
0.0
 40
0.0
 40
0.0
 40
1.0
 40
1.0
 40
1.0
 40
1.0
 10
270.3373053476
 20
188.9041734782
 42
1.0
 10
270.914929294
 20
188.9142559417
 42
0.8088336328
 10
271.3198529412
 20
189.3263092386
 42
0.8088336328
 10
271.3198529412
 20
189.9040211733
 42
1.0
 72
     1
 10
271.3198529412
 20
189.9040211733
 11
271.3198529412
 21
198.9386266471
 72
     4
 94
        3
 73
     1
 74
     0
 95
        8
 96
        4
 40
0.0
 40
0.0
 40
0.0
 40
0.0
 40
1.0
 40
1.0
 40
1.0
 40
1.0
 10
271.3198529412
 20
198.9386266471
 42
1.0
 10
271.3198529412
 20
199.5163385818
 42
0.8088336328
 10
270.914929294
 20
199.9283918788
 42
0.8088336328
 10
270.3373053476
 20
199.9384743423
 42
1.0
 72
     1
 10
270.3373053476
 20
199.9384743423
 11
265.3024005347
 21
200.0263589327
 72
     4
 94
        3
 73
     1
 74
     0
 95
        8
 96
        4
 40
0.0
 40
0.0
 40
0.0
 40
0.0
 40
1.0
 40
1.0
 40
1.0
 40
1.0
 10
264.3198529412
 20
201.0262066278
 42
1.0
 10
264.3198529412
 20
200.4484946931
 42
0.8088336328
 10
264.7247765883
 20
200.0364413962
 42
0.8088336328
 10
265.3024005347
 20
200.0263589327
 42
1.0
 72
     1
 10
264.3198529412
 20
201.0262066278
 11
264.3198529412
 21
206.0435093647
 72
     1
 10
264.3198529412
 20
206.0435093647
 11
264.3214230822
 21
206.5302361414
 72
     4
 94
        3
 73
     1
 74
     0
 95
        8
 96
        4
 40
0.0
 40
0.0
 40
0.0
 40
0.0
 40
1.0
 40
1.0
 40
1.0
 40
1.0
 10
265.3388702854
 20
207.5268579346
 42
1.0
 10
264.7465444082
 20
207.5371970213
 42
0.8013725279999999
 10
264.3233341585
 20
207.122649164
 42
0.8013725279999999
 10
264.3214230822
 20
206.5302361414
 42
1.0
 72
     1
 10
348.3547577541
 20
206.0778102288
 11
265.3388702854
 21
207.5268579346
 72
     4
 94
        3
 73
     1
 74
     0
 95
        8
 96
        4
 40
0.0
 40
0.0
 40
0.0
 40
0.0
 40
1.0
 40
1.0
 40
1.0
 40
1.0
 10
350.3198529412001
 20
204.0781148385
 42
1.0
 10
350.3198529412001
 20
205.2335387079
 42
0.8088336328
 10
349.5100056469
 20
206.0576453018
 42
0.8088336328
 10
348.3547577541
 20
206.0778102288
 42
1.0
 72
     1
 10
350.3198529412001
 20
202.9918231066
 11
350.3198529412001
 21
204.0781148385
 72
     4
 94
        3
 73
     1
 74
     0
 95
        8
 96
        4
 40
0.0
 40
0.0
 40
0.0
 40
0.0
 40
1.0
 40
1.0
 40
1.0
 40
1.0
 10
348.3722068378
 20
200.9925084566
 42
1.0
 10
349.5192104223001
 20
201.0225438025
 42
0.8108679623
 10
350.3198529412001
 20
201.8444263378
 42
0.8108679623
 10
350.3198529412001
 20
202.9918231066
 42
1.0
 72
     1
 10
280.3998833779
 20
199.2125905256
 11
348.3722068378
 21
200.9925084566
 72
     4
 94
        3
 73
     1
 74
     0
 95
        8
 96
        4
 40
0.0
 40
0.0
 40
0.0
 40
0.0
 40
1.0
 40
1.0
 40
1.0
 40
1.0
 10
280.3998833779
 20
199.2125905256
 42
1.0
 10
278.7270625151
 20
199.1687861697
 42
0.8189139798999999
 10
277.5386423604
 20
197.9906919474
 42
0.8189139798999999
 10
277.4802417418
 20
196.3183170408
 42
1.0
 72
     1
 10
277.1531701704
 20
186.9522126802
 11
277.4802417418
 21
196.3183170408
 72
     4
 94
        3
 73
     1
 74
     0
 95
        8
 96
        4
 40
0.0
 40
0.0
 40
0.0
 40
0.0
 40
1.0
 40
1.0
 40
1.0
 40
1.0
 10
274.9309335996
 20
184.1589940798
 42
1.0
 10
276.253185606
 20
184.5130355456
 42
0.8692022420999998
 10
277.1053986903
 20
185.5842164764
 42
0.8692022420999998
 10
277.1531701704
 20
186.9522126802
 42
1.0
 72
     4
 94
        3
 73
     1
 74
     0
 95
        8
 96
        4
 40
0.0
 40
0.0
 40
0.0
 40
0.0
 40
1.0
 40
1.0
 40
1.0
 40
1.0
 10
274.9309335996
 20
184.1589940798
 42
1.0
 10
273.6086815933
 20
183.8049526141
 42
0.8692022420999998
 10
272.756468509
 20
182.7337716832
 42
0.8692022420999998
 10
272.7086970289
 20
181.3657754795
 42
1.0
 72
     1
 10
272.7086970289
 20
181.3657754795
 11
272.4145513362
 21
172.9425449223
 72
     4
 94
        3
 73
     1
 74
     0
 95
        8
 96
        4
 40
0.0
 40
0.0
 40
0.0
 40
0.0
 40
1.0
 40
1.0
 40
1.0
 40
1.0
 10
272.4145509927
 20
172.9425415332
 42
1.0
 10
272.3899083008
 20
172.2368664688
 42
0.9853167902999999
 10
272.218519018
 20
171.5518772188
 42
0.9853167902999999
 10
271.9079327786
 20
170.9177473056
 42
1.0
 72
     1
 10
271.9079328998
 20
170.9177472477
 11
271.7692595052
 21
170.6346151306
 72
     4
 94
        3
 73
     1
 74
     0
 95
        8
 96
        4
 40
0.0
 40
0.0
 40
0.0
 40
0.0
 40
1.0
 40
1.0
 40
1.0
 40
1.0
 10
271.7692607983
 20
170.634618106
 42
1.0
 10
271.4586732474
 20
170.0004878636
 42
0.9853167544999999
 10
271.2872829270001
 20
169.3154979737
 42
0.9853167544999999
 10
271.2626395355
 20
168.6098220606
 42
1.0
 72
     1
 10
271.2626397753
 20
168.6098220532
 11
269.8616759402
 21
128.4914668308
 72
     4
 94
        3
 73
     1
 74
     0
 95
        8
 96
        4
 40
0.0
 40
0.0
 40
0.0
 40
0.0
 40
1.0
 40
1.0
 40
1.0
 40
1.0
 10
269.8616759402
 20
128.4914668308
 42
1.0
 10
269.8472605729
 20
128.0786647192
 42
0.986030315
 10
269.7490835278
 20
127.6774482514
 42
0.986030315
 10
269.5712593122
 20
127.3046320305
 42
1.0
 72
     1
 10
269.5712593122
 20
127.3046320305
 11
267.3199907066
 21
122.5847492455
 72
     4
 94
        3
 73
     1
 74
     0
 95
        8
 96
        4
 40
0.0
 40
0.0
 40
0.0
 40
0.0
 40
1.0
 40
1.0
 40
1.0
 40
1.0
 10
267.3199906609
 20
122.5847492687
 42
1.0
 10
266.3110194726
 20
120.4693991225
 42
0.7068498226000001
 10
267.4978774053
 20
118.4484841446
 42
0.7068498226000001
 10
269.8367816186
 20
118.2992990877
 42
1.0
 72
     4
 94
        3
 73
     0
 74
     0
 95
        8
 96
        4
 40
0.0
 40
0.0
 40
0.0
 40
0.0
 40
1.0
 40
1.0
 40
1.0
 40
1.0
 10
269.8367814962
 20
118.299300067
 10
276.5916415234
 20
117.8684459248
 10
283.5744837623
 20
118.5435003802
 10
290.3197182807
 20
118.5435093646
 72
     1
 10
290.3198529412
 20
118.5435093647
 11
355.3198529412
 21
118.5435093647
 97
        0
 75
     0
 76
     0
 52
45.0
 41
5.0
 77
     0
 78
     1
 53
45.0
 43
0.0
 44
0.0
 45
-3.535533905899999
 46
3.535533905899999
 79
     0
 98
        1
 10
0.0
 20
0.0
  0
HATCH
  5
25A
330
21D
100
AcDbEntity
  8
0
  6
Continuous
 62
     1
100
AcDbHatch
 10
0.0
 20
0.0
 30
0.0
210
0.0
220
0.0
230
1.0
  2
DEFAULT__2
 70
     0
 71
     0
 91
        2
 92
        1
 93
       14
 72
     1
 10
123.3198529412
 20
214.5435093647
 11
62.29492096
 21
214.5435093647
 72
     1
 10
123.3198529412
 20
214.5435093647
 11
122.8561782305
 21
207.8674941169
 72
     1
 10
122.8561782305
 20
207.8674941169
 11
108.9444781328
 21
207.7460885494
 72
     1
 10
108.9444781328
 20
207.7460885494
 11
107.8198529412
 21
207.8444805044
 72
     1
 10
106.4460090701
 20
207.7242847402
 11
107.8198529412
 21
207.8444805044
 72
     1
 10
106.4460090701
 20
207.7242847402
 11
95.30499670060001
 21
207.6270585982
 72
     1
 10
95.30499670060001
 20
207.6270585982
 11
92.81985294120001
 21
207.8444805044
 72
     1
 10
89.78399748639999
 20
207.578877568
 11
92.81985294120001
 21
207.8444805044
 72
     1
 10
89.78399748639999
 20
207.578877568
 11
84.7835149914
 21
207.5352390184
 72
     1
 10
84.7835149914
 20
207.5352390184
 11
77.8198529412
 21
208.1444805044
 72
     1
 10
69.3130326254
 20
207.4002301641
 11
77.8198529412
 21
208.1444805044
 72
     1
 10
69.3130326254
 20
207.4002301641
 11
65.69782025479999
 21
207.3686806837
 72
     4
 94
        3
 73
     1
 74
     0
 95
        8
 96
        4
 40
0.0
 40
0.0
 40
0.0
 40
0.0
 40
1.0
 40
1.0
 40
1.0
 40
1.0
 10
62.68305655399999
 20
210.1070992247
 42
1.0
 10
62.826847296
 20
208.4635635233
 42
0.8228816729999998
 10
64.0480693339
 20
207.3542835256
 42
0.8228816729999998
 10
65.69782025479999
 20
207.3686806837
 42
1.0
 72
     1
 10
62.29492096
 20
214.5435093647
 11
62.68305655399999
 21
210.1070992247
 97
        0
 92
        1
 93
       14
 72
     1
 10
338.3447849223
 20
214.5435093647
 11
277.3198529412
 21
214.5435093647
 72
     1
 10
338.3447849223
 20
214.5435093647
 11
337.9566493283001
 21
210.1070992247
 72
     4
 94
        3
 73
     1
 74
     0
 95
        8
 96
        4
 40
0.0
 40
0.0
 40
0.0
 40
0.0
 40
1.0
 40
1.0
 40
1.0
 40
1.0
 10
337.9566493283001
 20
210.1070992247
 42
1.0
 10
337.8128585864
 20
208.4635635233
 42
0.8228816729999998
 10
336.5916365485
 20
207.3542835256
 42
0.8228816729999998
 10
334.9418856275999
 20
207.3686806837
 42
1.0
 72
     1
 10
331.326673257
 20
207.4002301641
 11
334.9418856275999
 21
207.3686806837
 72
     1
 10
331.326673257
 20
207.4002301641
 11
322.8198529412
 21
208.1444805044
 72
     1
 10
315.856190891
 20
207.5352390184
 11
322.8198529412
 21
208.1444805044
 72
     1
 10
310.8557083959
 20
207.578877568
 11
315.856190891
 21
207.5352390184
 72
     1
 10
310.8557083959
 20
207.578877568
 11
307.8198529412
 21
207.8444805044
 72
     1
 10
307.8198529412
 20
207.8444805044
 11
305.3347091818
 21
207.6270585982
 72
     1
 10
294.1936968123
 20
207.7242847402
 11
305.3347091818
 21
207.6270585982
 72
     1
 10
292.8198529412
 20
207.8444805044
 11
294.1936968123
 21
207.7242847402
 72
     1
 10
291.6952277495
 20
207.7460885494
 11
292.8198529412
 21
207.8444805044
 72
     1
 10
277.7835276518
 20
207.8674941169
 11
291.6952277495
 21
207.7460885494
 72
     1
 10
277.3198529412
 20
214.5435093647
 11
277.7835276518
 21
207.8674941169
 97
        0
 75
     0
 76
     0
 52
135.0
 41
5.0
 77
     0
 78
     1
 53
135.0
 43
0.0
 44
0.0
 45
-3.535533905899999
 46
-3.535533905899999
 79
     0
 98
        1
 10
0.0
 20
0.0
  0
DIMENSION
  5
25B
330
21D
100
AcDbEntity
  8
ZEICHNUNGSBEMASSUNGEN
  6
Continuous
 62
     7
100
AcDbDimension
  2
*D1
 10
364.2071013956
 20
207.5352390184
 30
0.0
 11
364.2071013956
 21
145.5221354519
 31
0.0
 70
   160
 71
     2
 42
117.9917296536999
  3
DIMSTYLE_2
100
AcDbAlignedDimension
 13
359.8198529412
 23
89.5435093647
 33
0.0
 14
269.7304084919
 24
207.5352390184
 34
0.0
 50
90.0
100
AcDbRotatedDimension
1001
ACAD_DSTYLE_DIMINSPECT
1070
   396
1000
100%
1070
   395
1000

1070
   394
1070
    33
1070
   393
1070
     0
1001
ACAD
1000
DSTYLE
1002
{
1070
    41
1040
5.0
1070
   140
1040
7.0
1070
   147
1040
1.5
1070
   178
1070
   256
1070
   271
1070
     0
1002
}
  0
DIMENSION
  5
25C
330
21D
100
AcDbEntity
  8
ZEICHNUNGSBEMASSUNGEN
  6
Continuous
 62
     7
100
AcDbDimension
  2
*D2
 10
355.3198529412
 20
48.44074326473105
 30
0.0
 11
274.3198529412
 21
48.44074326473105
 31
0.0
 70
   160
 71
     2
 42
155.0
  3
DIMSTYLE_2
100
AcDbAlignedDimension
 13
200.3198529412
 23
55.9235043397
 33
0.0
 14
355.3198529412
 24
59.0435093647
 34
0.0
100
AcDbRotatedDimension
1001
ACAD
1000
DSTYLE
1002
{
1070
    41
1040
5.0
1070
   140
1040
7.0
1070
   147
1040
1.5
1070
   178
1070
   256
1002
}
  0
DIMENSION
  5
25D
330
21D
100
AcDbEntity
  8
ZEICHNUNGSBEMASSUNGEN
  6
Continuous
 62
     7
100
AcDbDimension
  2
*D3
 10
350.3198529412001
 20
262.043021810388
 30
0.0
 11
197.1531862745
 21
262.043021810388
 31
0.0
 70
   160
  1
%%c<>
 71
     2
 42
300.0
  3
DIMSTYLE_2
100
AcDbAlignedDimension
 13
50.3198529412
 23
205.5781148385
 33
0.0
 14
350.3198529412001
 24
205.5781148385
 34
0.0
100
AcDbRotatedDimension
1001
ACAD
1000
DSTYLE
1002
{
1070
    41
1040
5.0
1070
   140
1040
7.0
1070
   147
1040
1.5
1070
   178
1070
   256
1002
}
  0
DIMENSION
  5
25E
330
21D
100
AcDbEntity
  8
ZEICHNUNGSBEMASSUNGEN
  6
Continuous
 62
     7
100
AcDbDimension
  2
*D4
 10
39.37512900170001
 20
60.54350936470004
 30
0.0
 11
39.37512900170001
 21
130.686886703
 31
0.0
 70
   160
 71
     2
 42
146.9917296537
  3
DIMSTYLE_2
100
AcDbAlignedDimension
 13
83.2835149914
 23
207.5352390184
 33
0.0
 14
163.3198529412
 24
60.5435093647
 34
0.0
 50
270.0
100
AcDbRotatedDimension
1001
ACAD_DSTYLE_DIMINSPECT
1070
   396
1000
100%
1070
   395
1000

1070
   394
1070
    33
1070
   393
1070
     0
1001
ACAD
1000
DSTYLE
1002
{
1070
    41
1040
5.0
1070
   140
1040
7.0
1070
   147
1040
1.5
1070
   178
1070
   256
1070
   271
1070
     0
1002
}
  0
DIMENSION
  5
25F
330
21D
100
AcDbEntity
  8
ZEICHNUNGSBEMASSUNGEN
  6
Continuous
 62
     7
100
AcDbDimension
  2
*D5
 10
277.5787322466
 20
249.544726787
 30
0.0
 11
197.4031862745
 21
249.544726787
 31
0.0
 70
   160
  1
%%c<>
 71
     2
 42
154.5177586109
  3
DIMSTYLE_2
100
AcDbAlignedDimension
 13
123.0609736357
 23
200.6387160833
 33
0.0
 14
277.5787322466
 24
200.6387160833
 34
0.0
100
AcDbRotatedDimension
1001
ACAD_DSTYLE_DIMINSPECT
1070
   396
1000
100%
1070
   395
1000

1070
   394
1070
    33
1070
   393
1070
     0
1001
ACAD
1000
DSTYLE
1002
{
1070
    41
1040
5.0
1070
   140
1040
7.0
1070
   147
1040
1.5
1070
   178
1070
   256
1070
   271
1070
     0
1002
}
  0
LINE
  5
261
330
21D
100
AcDbEntity
  8
0
  6
Continuous
 62
     7
100
AcDbLine
 10
50.3198529412
 20
202.9918231066
 30
0.0
 11
50.3198529412
 21
204.0781148385
 31
0.0
  0
LINE
  5
262
330
21D
100
AcDbEntity
  8
0
  6
Continuous
 62
     7
100
AcDbLine
 10
62.29492096
 20
214.5435093647
 30
0.0
 11
62.68305655399999
 21
210.1070992247
 31
0.0
  0
LINE
  5
263
330
21D
100
AcDbEntity
  8
0
  6
Continuous
 62
     7
100
AcDbLine
 10
77.8120763695
 20
214.5435093647
 30
0.0
 11
77.8120763695
 21
215.5435093647
 31
0.0
  0
LINE
  5
264
330
21D
100
AcDbEntity
  8
0
  6
Continuous
 62
     7
100
AcDbLine
 10
79.714189402
 20
214.5435093647
 30
0.0
 11
79.714189402
 21
215.5435093647
 31
0.0
  0
LINE
  5
265
330
21D
100
AcDbEntity
  8
0
  6
Continuous
 62
     7
100
AcDbLine
 10
80.84375994869999
 20
214.5435093647
 30
0.0
 11
80.84375994869999
 21
215.5435093647
 31
0.0
  0
LINE
  5
266
330
21D
100
AcDbEntity
  8
0
  6
Continuous
 62
     7
100
AcDbLine
 10
82.74587298129999
 20
214.5435093647
 30
0.0
 11
82.74587298129999
 21
215.5435093647
 31
0.0
  0
LINE
  5
267
330
21D
100
AcDbEntity
  8
0
  6
Continuous
 62
     7
100
AcDbLine
 10
83.87544352789999
 20
214.5435093647
 30
0.0
 11
83.87544352789999
 21
215.5435093647
 31
0.0
  0
LINE
  5
268
330
21D
100
AcDbEntity
  8
0
  6
Continuous
 62
     7
100
AcDbLine
 10
85.77755656049999
 20
214.5435093647
 30
0.0
 11
85.77755656049999
 21
215.5435093647
 31
0.0
  0
LINE
  5
269
330
21D
100
AcDbEntity
  8
0
  6
Continuous
 62
     7
100
AcDbLine
 10
87.78616702399999
 20
214.5435093647
 30
0.0
 11
87.78616702399999
 21
215.5435093647
 31
0.0
  0
LINE
  5
26A
330
21D
100
AcDbEntity
  8
0
  6
Continuous
 62
     7
100
AcDbLine
 10
93.49250612170001
 20
214.5435093647
 30
0.0
 11
93.49250612170001
 21
215.5435093647
 31
0.0
  0
LINE
  5
26B
330
21D
100
AcDbEntity
  8
0
  6
Continuous
 62
     7
100
AcDbLine
 10
94.1105401105
 20
214.5435093647
 30
0.0
 11
94.1105401105
 21
215.5435093647
 31
0.0
  0
LINE
  5
26C
330
21D
100
AcDbEntity
  8
0
  6
Continuous
 62
     7
100
AcDbLine
 10
95.7631447954
 20
215.5435093647
 30
0.0
 11
95.7631447954
 21
216.5435093647
 31
0.0
  0
LINE
  5
26D
330
21D
100
AcDbEntity
  8
0
  6
Continuous
 62
     7
100
AcDbLine
 10
97.21420131169999
 20
216.5435093647
 30
0.0
 11
97.21420131169999
 21
218.1435093647
 31
0.0
  0
LINE
  5
26E
330
21D
100
AcDbEntity
  8
0
  6
Continuous
 62
     7
100
AcDbLine
 10
97.21420131169999
 20
218.919726787
 30
0.0
 11
97.21420131169999
 21
228.919726787
 31
0.0
  0
LINE
  5
26F
330
21D
100
AcDbEntity
  8
0
  6
Continuous
 62
     7
100
AcDbLine
 10
98.2142013117
 20
228.919726787
 30
0.0
 11
98.2142013117
 21
236.919726787
 31
0.0
  0
LINE
  5
270
330
21D
100
AcDbEntity
  8
0
  6
Continuous
 62
     7
100
AcDbLine
 10
98.71420131169999
 20
218.919726787
 30
0.0
 11
98.71420131169999
 21
218.2935093647
 31
0.0
  0
LINE
  5
271
330
21D
100
AcDbEntity
  8
0
  6
Continuous
 62
     7
100
AcDbLine
 10
99.4142013117
 20
218.2935093647
 30
0.0
 11
99.4142013117
 21
218.1435093647
 31
0.0
  0
LINE
  5
272
330
21D
100
AcDbEntity
  8
0
  6
Continuous
 62
     7
100
AcDbLine
 10
101.2142013117
 20
206.93187352
 30
0.0
 11
101.2142013117
 21
207.646503123
 31
0.0
  0
LINE
  5
273
330
21D
100
AcDbEntity
  8
0
  6
Continuous
 62
     9
100
AcDbLine
 10
101.6365003432
 20
215.5435093647
 30
0.0
 11
101.6365003432
 21
216.5435093647
 31
0.0
  0
LINE
  5
274
330
21D
100
AcDbEntity
  8
0
  6
Continuous
 62
     2
100
AcDbLine
 10
102.0142013117
 20
207.6543552768
 30
0.0
 11
102.0142013117
 21
206.9458375719
 31
0.0
  0
LINE
  5
275
330
21D
100
AcDbEntity
  8
0
  6
Continuous
 62
     9
100
AcDbLine
 10
103.5386133758
 20
215.5435093647
 30
0.0
 11
103.5386133758
 21
216.5435093647
 31
0.0
  0
LINE
  5
276
330
21D
100
AcDbEntity
  8
0
  6
Continuous
 62
     2
100
AcDbLine
 10
108.4142013117
 20
207.7096699507
 30
0.0
 11
108.4142013117
 21
207.0575499875
 31
0.0
  0
LINE
  5
277
330
21D
100
AcDbEntity
  8
0
  6
Continuous
 62
     7
100
AcDbLine
 10
109.2142013117
 20
207.0715140394
 30
0.0
 11
109.2142013117
 21
207.715140785
 31
0.0
  0
LINE
  5
278
330
21D
100
AcDbEntity
  8
0
  6
Continuous
 62
     7
100
AcDbLine
 10
111.0142013117
 20
218.2935093647
 30
0.0
 11
111.0142013117
 21
218.1435093647
 31
0.0
  0
LINE
  5
279
330
21D
100
AcDbEntity
  8
0
  6
Continuous
 62
     7
100
AcDbLine
 10
111.7142013117
 20
218.2935093647
 30
0.0
 11
111.7142013117
 21
218.919726787
 31
0.0
  0
LINE
  5
27A
330
21D
100
AcDbEntity
  8
0
  6
Continuous
 62
     7
100
AcDbLine
 10
112.2142013117
 20
228.919726787
 30
0.0
 11
112.2142013117
 21
236.919726787
 31
0.0
  0
LINE
  5
27B
330
21D
100
AcDbEntity
  8
0
  6
Continuous
 62
     7
100
AcDbLine
 10
113.2142013117
 20
216.5435093647
 30
0.0
 11
113.2142013117
 21
218.1435093647
 31
0.0
  0
LINE
  5
27C
330
21D
100
AcDbEntity
  8
0
  6
Continuous
 62
     7
100
AcDbLine
 10
113.2142013117
 20
218.919726787
 30
0.0
 11
113.2142013117
 21
228.919726787
 31
0.0
  0
LINE
  5
27D
330
21D
100
AcDbEntity
  8
0
  6
Continuous
 62
     7
100
AcDbLine
 10
114.665257828
 20
215.5435093647
 30
0.0
 11
114.665257828
 21
216.5435093647
 31
0.0
  0
LINE
  5
27E
330
21D
100
AcDbEntity
  8
0
  6
Continuous
 62
     7
100
AcDbLine
 10
123.3198529412
 20
214.5435093647
 30
0.0
 11
122.8561782305
 21
207.8674941169
 31
0.0
  0
LINE
  5
27F
330
21D
100
AcDbEntity
  8
0
  6
Continuous
 62
     7
100
AcDbLine
 10
164.8198529412
 20
60.5435093647
 30
0.0
 11
258.3198529412
 21
60.5435093647
 31
0.0
  0
LINE
  5
280
330
21D
100
AcDbEntity
  8
0
  6
Continuous
 62
     7
100
AcDbLine
 10
290.3198529412
 20
60.5435093647
 30
0.0
 11
355.3198529412
 21
60.5435093647
 31
0.0
  0
LINE
  5
281
330
21D
100
AcDbEntity
  8
0
  6
Continuous
 62
     7
100
AcDbLine
 10
164.8198529412
 20
66.0435093647
 30
0.0
 11
355.3198529412
 21
66.0435093647
 31
0.0
  0
LINE
  5
283
330
21D
100
AcDbEntity
  8
0
  6
Continuous
 62
     7
100
AcDbLine
 10
123.486535712
 20
186.9522126802
 30
0.0
 11
123.1594641406
 21
196.3183170408
 31
0.0
  0
LINE
  5
284
330
21D
100
AcDbEntity
  8
0
  6
Continuous
 62
     7
100
AcDbLine
 10
127.9310088535
 20
181.3657754795
 30
0.0
 11
128.2251554197
 21
172.9425199052
 31
0.0
  0
LINE
  5
285
330
21D
100
AcDbEntity
  8
0
  6
Continuous
 62
     7
100
AcDbLine
 10
129.3770672718
 20
168.6097886967
 30
0.0
 11
130.7780299420999
 21
128.4914668308
 31
0.0
  0
LINE
  5
286
330
21D
100
AcDbEntity
  8
0
  6
Continuous
 62
     7
100
AcDbLine
 10
129.3198529412
 20
189.9040211733
 30
0.0
 11
129.3198529412
 21
198.9386266471
 31
0.0
  0
LINE
  5
287
330
21D
100
AcDbEntity
  8
0
  6
Continuous
 62
     7
100
AcDbLine
 10
129.9995597968
 20
214.5435093647
 30
0.0
 11
129.9995597968
 21
215.5435093647
 31
0.0
  0
LINE
  5
288
330
21D
100
AcDbEntity
  8
0
  6
Continuous
 62
     7
100
AcDbLine
 10
130.1160073712
 20
214.5435093647
 30
0.0
 11
130.1160073712
 21
215.5435093647
 31
0.0
  0
LINE
  5
289
330
21D
100
AcDbEntity
  8
0
  6
Continuous
 62
     7
100
AcDbLine
 10
130.4681226635
 20
214.5435093647
 30
0.0
 11
130.4681226635
 21
215.5435093647
 31
0.0
  0
LINE
  5
28A
330
21D
100
AcDbEntity
  8
0
  6
Continuous
 62
     7
100
AcDbLine
 10
131.2518367069
 20
214.5435093647
 30
0.0
 11
131.2518367069
 21
215.5435093647
 31
0.0
  0
LINE
  5
28B
330
21D
100
AcDbEntity
  8
0
  6
Continuous
 62
     7
100
AcDbLine
 10
131.8793631281
 20
214.5435093647
 30
0.0
 11
131.8793631281
 21
215.5435093647
 31
0.0
  0
LINE
  5
28C
330
21D
100
AcDbEntity
  8
0
  6
Continuous
 62
     7
100
AcDbLine
 10
132.5466295970999
 20
214.5435093647
 30
0.0
 11
132.5466295970999
 21
215.5435093647
 31
0.0
  0
LINE
  5
28D
330
21D
100
AcDbEntity
  8
0
  6
Continuous
 62
     7
100
AcDbLine
 10
133.4893060738
 20
214.5435093647
 30
0.0
 11
133.4893060738
 21
215.5435093647
 31
0.0
  0
LINE
  5
290
330
21D
100
AcDbEntity
  8
0
  6
Continuous
 62
     7
100
AcDbLine
 10
131.0684465701
 20
127.3046320305
 30
0.0
 11
144.551471378
 21
99.0368826731
 31
0.0
  0
LINE
  5
291
330
21D
100
AcDbEntity
  8
0
  6
Continuous
 62
     7
100
AcDbLine
 10
136.5676795029
 20
129.2199488762
 30
0.0
 11
136.3786448858
 21
187.8186407865
 31
0.0
  0
LINE
  5
292
330
21D
100
AcDbEntity
  8
0
  6
Continuous
 62
     7
100
AcDbLine
 10
136.3198529412
 20
206.0435093647
 30
0.0
 11
136.3182828002
 21
206.5302361414
 31
0.0
  0
LINE
  5
293
330
21D
100
AcDbEntity
  8
0
  6
Continuous
 62
     7
100
AcDbLine
 10
134.2360548806
 20
214.5435093647
 30
0.0
 11
134.2360548806
 21
215.5435093647
 31
0.0
  0
LINE
  5
294
330
21D
100
AcDbEntity
  8
0
  6
Continuous
 62
     7
100
AcDbLine
 10
134.5059135845
 20
214.5435093647
 30
0.0
 11
134.5059135845
 21
215.5435093647
 31
0.0
  0
LINE
  5
295
330
21D
100
AcDbEntity
  8
0
  6
Continuous
 62
     7
100
AcDbLine
 10
134.6223605984
 20
214.5435093647
 30
0.0
 11
134.6223605984
 21
215.5435093647
 31
0.0
  0
LINE
  5
296
330
21D
100
AcDbEntity
  8
0
  6
Continuous
 62
     7
100
AcDbLine
 10
134.9744764513
 20
214.5435093647
 30
0.0
 11
134.9744764513
 21
215.5435093647
 31
0.0
  0
LINE
  5
297
330
21D
100
AcDbEntity
  8
0
  6
Continuous
 62
     7
100
AcDbLine
 10
135.8561543297
 20
214.5435093647
 30
0.0
 11
135.8561543297
 21
215.5435093647
 31
0.0
  0
LINE
  5
298
330
21D
100
AcDbEntity
  8
0
  6
Continuous
 62
     7
100
AcDbLine
 10
136.3198529412
 20
201.0262066278
 30
0.0
 11
136.3198529412
 21
206.0435093647
 31
0.0
  0
LINE
  5
299
330
21D
100
AcDbEntity
  8
0
  6
Continuous
 62
     7
100
AcDbLine
 10
136.4836807509
 20
214.5435093647
 30
0.0
 11
136.4836807509
 21
215.5435093647
 31
0.0
  0
LINE
  5
29A
330
21D
100
AcDbEntity
  8
0
  6
Continuous
 62
     7
100
AcDbLine
 10
137.1509472198
 20
214.5435093647
 30
0.0
 11
137.1509472198
 21
215.5435093647
 31
0.0
  0
LINE
  5
29B
330
21D
100
AcDbEntity
  8
0
  6
Continuous
 62
     7
100
AcDbLine
 10
138.0936242572
 20
214.5435093647
 30
0.0
 11
138.0936242572
 21
215.5435093647
 31
0.0
  0
LINE
  5
29C
330
21D
100
AcDbEntity
  8
0
  6
Continuous
 62
     7
100
AcDbLine
 10
138.8403725034
 20
214.5435093647
 30
0.0
 11
138.8403725034
 21
215.5435093647
 31
0.0
  0
LINE
  5
29D
330
21D
100
AcDbEntity
  8
0
  6
Continuous
 62
     7
100
AcDbLine
 10
139.6268623042
 20
214.5435093647
 30
0.0
 11
139.6268623042
 21
215.5435093647
 31
0.0
  0
LINE
  5
29E
330
21D
100
AcDbEntity
  8
0
  6
Continuous
 62
     7
100
AcDbLine
 10
139.7747228652
 20
214.5435093647
 30
0.0
 11
139.7747228652
 21
215.5435093647
 31
0.0
  0
LINE
  5
29F
330
21D
100
AcDbEntity
  8
0
  6
Continuous
 62
     7
100
AcDbLine
 10
140.5584364882
 20
214.5435093647
 30
0.0
 11
140.5584364882
 21
215.5435093647
 31
0.0
  0
LINE
  5
2A0
330
21D
100
AcDbEntity
  8
RUNDUNGEN
  6
Continuous
 62
     9
100
AcDbLine
 10
200.3198529412
 20
87.34588386229999
 30
0.0
 11
220.3198147765
 21
87.34588386229999
 31
0.0
  0
LINE
  5
2A1
330
21D
100
AcDbEntity
  8
RUNDUNGEN
  6
Continuous
 62
     9
100
AcDbLine
 10
200.3198529412
 20
88.3457315575
 30
0.0
 11
220.3198147765
 21
88.3457315575
 31
0.0
  0
LINE
  5
2A2
330
21D
100
AcDbEntity
  8
0
  6
Continuous
 62
     7
100
AcDbLine
 10
244.821224523
 20
89.02647906650001
 30
0.0
 11
231.3198529278
 21
89.02647906650001
 31
0.0
  0
LINE
  5
2A3
330
21D
100
AcDbEntity
  8
0
  6
Continuous
 62
     7
100
AcDbLine
 10
161.3198568461
 20
89.02678372249999
 30
0.0
 11
169.3198578517
 21
89.02678372249999
 31
0.0
  0
LINE
  5
2A4
330
21D
100
AcDbEntity
  8
0
  6
CENTER
100
AcDbLine
 10
358.3198529412001
 20
89.5435093647
 30
0.0
 11
200.3198529412
 21
89.5435093647
 31
0.0
  0
LINE
  5
2A5
330
21D
100
AcDbEntity
  8
RUNDUNGEN
  6
Continuous
 62
     9
100
AcDbLine
 10
248.8534119855
 20
89.393102293
 30
0.0
 11
247.7172287496
 21
89.39407783120001
 31
0.0
  0
LINE
  5
2A6
330
21D
100
AcDbEntity
  8
0
  6
Continuous
 62
     7
100
AcDbLine
 10
146.0551555274
 20
108.6598560301
 30
0.0
 11
136.8599080401
 21
127.9380932916
 31
0.0
  0
LINE
  5
2A7
330
21D
100
AcDbEntity
  8
0
  6
Continuous
 62
     7
100
AcDbLine
 10
148.5979998293
 20
214.5435093647
 30
0.0
 11
148.5979998293
 21
215.5435093647
 31
0.0
  0
LINE
  5
2A8
330
21D
100
AcDbEntity
  8
0
  6
Continuous
 62
     7
100
AcDbLine
 10
154.8198529412
 20
70.5435093647
 30
0.0
 11
154.8198529412
 21
94.0811696219
 31
0.0
  0
LINE
  5
2A9
330
21D
100
AcDbEntity
  8
0
  6
Continuous
 62
     7
100
AcDbLine
 10
254.7299533354
 20
97.3922734383
 30
0.0
 11
246.7715604136
 21
96.97519173860001
 31
0.0
  0
LINE
  5
2AA
330
21D
100
AcDbEntity
  8
0
  6
Continuous
 62
     7
100
AcDbLine
 10
231.3024005347
 20
95.14393415459998
 30
0.0
 11
236.8373053476
 21
95.2405462775
 31
0.0
  0
LINE
  5
2AB
330
21D
100
AcDbEntity
  8
0
  6
Continuous
 62
     9
100
AcDbLine
 10
170.3198529412
 20
94.1440864594
 30
0.0
 11
230.3198529412
 21
94.1440864594
 31
0.0
  0
LINE
  5
2AC
330
21D
100
AcDbEntity
  8
0
  6
Continuous
 62
     9
100
AcDbLine
 10
169.3373053476
 20
95.14393415459998
 30
0.0
 11
231.3024005347
 21
95.14393415459998
 31
0.0
  0
LINE
  5
2AD
330
21D
100
AcDbEntity
  8
0
  6
Continuous
 62
     9
100
AcDbLine
 10
163.8024005347
 20
95.2405462775
 30
0.0
 11
236.8373053476
 21
95.2405462775
 31
0.0
  0
LINE
  5
2AE
330
21D
100
AcDbEntity
  8
0
  6
Continuous
 62
     9
100
AcDbLine
 10
162.8198529412
 20
96.2403939726
 30
0.0
 11
237.8198529412
 21
96.2403939726
 31
0.0
  0
LINE
  5
2AF
330
21D
100
AcDbEntity
  8
RUNDUNGEN
  6
Continuous
 62
     9
100
AcDbLine
 10
248.8545332684
 20
94.1790829584
 30
0.0
 11
247.7174370696
 21
94.17965917809999
 31
0.0
  0
LINE
  5
2B0
330
21D
100
AcDbEntity
  8
0
  6
Continuous
 62
     7
100
AcDbLine
 10
169.3373053476
 20
95.14393415459998
 30
0.0
 11
163.8024005347
 21
95.2405462775
 31
0.0
  0
LINE
  5
2B1
330
21D
100
AcDbEntity
  8
0
  6
Continuous
 62
     7
100
AcDbLine
 10
147.1022193624
 20
97.33252735930001
 30
0.0
 11
151.9768608099
 21
97.07705822620001
 31
0.0
  0
LINE
  5
2B2
330
21D
100
AcDbEntity
  8
0
  6
Continuous
 62
     7
100
AcDbLine
 10
128.8704499533
 20
170.6345876738
 30
0.0
 11
128.7317754105
 21
170.9177220844
 31
0.0
  0
LINE
  5
2B3
330
21D
100
AcDbEntity
  8
0
  6
Continuous
 62
     7
100
AcDbLine
 10
160.3198529412
 20
70.5435093647
 30
0.0
 11
160.3198529412
 21
88.02663147169999
 31
0.0
  0
LINE
  5
2B4
330
21D
100
AcDbEntity
  8
0
  6
Continuous
 62
     7
100
AcDbLine
 10
162.8198529412
 20
96.2403939726
 30
0.0
 11
162.8198529412
 21
106.3087321428
 31
0.0
  0
LINE
  5
2B5
330
21D
100
AcDbEntity
  8
0
  6
Continuous
 62
     7
100
AcDbLine
 10
238.7675169849
 20
107.3073616775
 30
0.0
 11
253.7343010269
 21
108.0917375922
 31
0.0
  0
LINE
  5
2B6
330
21D
100
AcDbEntity
  8
0
  6
Continuous
 62
     9
100
AcDbLine
 10
237.8198529412
 20
106.3087321428
 30
0.0
 11
162.8198529412
 21
106.3087321428
 31
0.0
  0
LINE
  5
2B7
330
21D
100
AcDbEntity
  8
0
  6
Continuous
 62
     9
100
AcDbLine
 10
238.7675169849
 20
107.3073616775
 30
0.0
 11
161.8721888974
 21
107.3073616775
 31
0.0
  0
LINE
  5
2B8
330
21D
100
AcDbEntity
  8
RUNDUNGEN
  6
Continuous
 62
     9
100
AcDbLine
 10
189.2124804229
 20
107.7299054118
 30
0.0
 11
211.4272254594
 21
107.7299054118
 31
0.0
  0
LINE
  5
2B9
330
21D
100
AcDbEntity
  8
0
  6
Continuous
 62
     9
100
AcDbLine
 10
146.9054048555
 20
108.0917375922
 30
0.0
 11
185.5307310266
 21
108.0917375923
 31
0.0
  0
LINE
  5
2BA
330
21D
100
AcDbEntity
  8
0
  6
Continuous
 62
     9
100
AcDbLine
 10
215.1089748558
 20
108.0917375923
 30
0.0
 11
253.7343010269
 21
108.0917375922
 31
0.0
  0
LINE
  5
2BB
330
21D
100
AcDbEntity
  8
RUNDUNGEN
  6
Continuous
 62
     9
100
AcDbLine
 10
188.9905672700999
 20
108.5377259511
 30
0.0
 11
211.649138638
 21
108.5377259511
 31
0.0
  0
LINE
  5
2BC
330
21D
100
AcDbEntity
  8
0
  6
Continuous
 62
     9
100
AcDbLine
 10
146.0551555274
 20
108.6598560301
 30
0.0
 11
185.2953182981
 21
108.6598560299
 31
0.0
  0
LINE
  5
2BD
330
21D
100
AcDbEntity
  8
0
  6
Continuous
 62
     9
100
AcDbLine
 10
215.3443906155
 20
108.65985603
 30
0.0
 11
254.584550355
 21
108.6598560301
 31
0.0
  0
LINE
  5
2BE
330
21D
100
AcDbEntity
  8
0
  6
Continuous
 62
     7
100
AcDbLine
 10
290.3198529412
 20
113.0435093647
 30
0.0
 11
355.3198529412
 21
113.0435093647
 31
0.0
  0
LINE
  5
2BF
330
21D
100
AcDbEntity
  8
0
  6
Continuous
 62
     7
100
AcDbLine
 10
161.8721888974
 20
107.3073616775
 30
0.0
 11
146.9054048555
 21
108.0917375922
 31
0.0
  0
LINE
  5
2C0
330
21D
100
AcDbEntity
  8
RUNDUNGEN
  6
Continuous
 62
     9
100
AcDbLine
 10
246.7293979055
 20
88.39063349739999
 30
0.0
 11
244.8212245208
 21
89.0261744568
 31
0.0
  0
LINE
  5
2C1
330
21D
100
AcDbEntity
  8
RUNDUNGEN
  6
Continuous
 62
     9
100
AcDbLine
 10
247.7172287496
 20
89.39407783120001
 30
0.0
 11
245.8253385637
 21
90.02419546799998
 31
0.0
  0
LINE
  5
2C2
330
21D
100
AcDbEntity
  8
0
  6
Continuous
 62
     7
100
AcDbLine
 10
170.3198529412
 20
90.02693599830001
 30
0.0
 11
170.3198529412
 21
94.1440864594
 31
0.0
  0
LINE
  5
2C3
330
21D
100
AcDbEntity
  8
0
  6
Continuous
 62
     7
100
AcDbLine
 10
290.3198529412
 20
118.5435093647
 30
0.0
 11
355.3198529412
 21
118.5435093647
 31
0.0
  0
LINE
  5
2C4
330
21D
100
AcDbEntity
  8
RUNDUNGEN
  6
Continuous
 62
     9
100
AcDbLine
 10
182.8403530641
 20
129.2199488762
 30
0.0
 11
182.8334457752
 21
137.4996117451
 31
0.0
  0
LINE
  5
2C5
330
21D
100
AcDbEntity
  8
RUNDUNGEN
  6
Continuous
 62
     9
100
AcDbLine
 10
184.0752151847
 20
135.4997543072
 30
0.0
 11
184.0804563496
 21
129.2231747782
 31
0.0
  0
LINE
  5
2C6
330
21D
100
AcDbEntity
  8
RUNDUNGEN
  6
Continuous
 62
     9
100
AcDbLine
 10
187.8251220087
 20
200.9240565206
 30
0.0
 11
187.8251347643
 21
206.4248875659
 31
0.0
  0
LINE
  5
2C7
330
21D
100
AcDbEntity
  8
RUNDUNGEN
  6
Continuous
 62
     9
100
AcDbLine
 10
188.5464308979
 20
130.5262066278
 30
0.0
 11
188.5464308979
 21
134.594544798
 31
0.0
  0
LINE
  5
2C8
330
21D
100
AcDbEntity
  8
RUNDUNGEN
  6
Continuous
 62
     9
100
AcDbLine
 10
188.6263506191999
 20
200.9240574215
 30
0.0
 11
188.626305308
 21
206.4048521011
 31
0.0
  0
LINE
  5
2C9
330
21D
100
AcDbEntity
  8
RUNDUNGEN
  6
Continuous
 62
     9
100
AcDbLine
 10
189.7498841136
 20
130.5262066278
 30
0.0
 11
189.7498841136
 21
134.594544798
 31
0.0
  0
LINE
  5
2CA
330
21D
100
AcDbEntity
  8
0
  6
Continuous
 62
     7
100
AcDbLine
 10
191.8198529412
 20
215.5435093647
 30
0.0
 11
191.8198529412
 21
216.5435093647
 31
0.0
  0
LINE
  5
2CB
330
21D
100
AcDbEntity
  8
0
  6
Continuous
 62
     7
100
AcDbLine
 10
192.3198529412
 20
216.5435093647
 30
0.0
 11
192.3198529412
 21
218.1435093647
 31
0.0
  0
LINE
  5
2CC
330
21D
100
AcDbEntity
  8
0
  6
Continuous
 62
     7
100
AcDbLine
 10
192.3198529412
 20
218.919726787
 30
0.0
 11
192.3198529412
 21
228.919726787
 31
0.0
  0
LINE
  5
2CD
330
21D
100
AcDbEntity
  8
RUNDUNGEN
  6
Continuous
 62
     9
100
AcDbLine
 10
185.3695746329
 20
184.355507091
 30
0.0
 11
185.3727745675
 21
187.8186407865
 31
0.0
  0
LINE
  5
2CE
330
21D
100
AcDbEntity
  8
RUNDUNGEN
  6
Continuous
 62
     9
100
AcDbLine
 10
185.3896149223
 20
201.0262066278
 30
0.0
 11
185.3900618468
 21
206.5302361414
 31
0.0
  0
LINE
  5
2CF
330
21D
100
AcDbEntity
  8
RUNDUNGEN
  6
Continuous
 62
     9
100
AcDbLine
 10
186.1222557795
 20
201.0262075257
 30
0.0
 11
186.122716624
 21
206.5270102395
 31
0.0
  0
LINE
  5
2D0
330
21D
100
AcDbEntity
  8
0
  6
Continuous
 62
     9
100
AcDbLine
 10
263.7797978422
 20
127.9380932916
 30
0.0
 11
217.7222589712
 21
127.9380932932
 31
0.0
  0
LINE
  5
2D1
330
21D
100
AcDbEntity
  8
0
  6
Continuous
 62
     9
100
AcDbLine
 10
182.9174469111
 20
127.9380932932
 30
0.0
 11
136.8599080401
 21
127.9380932916
 31
0.0
  0
LINE
  5
2D2
330
21D
100
AcDbEntity
  8
RUNDUNGEN
  6
Continuous
 62
     9
100
AcDbLine
 10
188.0365200552
 20
128.2514847972
 30
0.0
 11
212.6031858275
 21
128.2514847972
 31
0.0
  0
LINE
  5
2D3
330
21D
100
AcDbEntity
  8
0
  6
Continuous
 62
     9
100
AcDbLine
 10
136.5676795029
 20
129.2199488762
 30
0.0
 11
182.8403530641
 21
129.2199488762
 31
0.0
  0
LINE
  5
2D4
330
21D
100
AcDbEntity
  8
0
  6
Continuous
 62
     9
100
AcDbLine
 10
217.7993528182
 20
129.2199488762
 30
0.0
 11
264.0720263795
 21
129.2199488762
 31
0.0
  0
LINE
  5
2D5
330
21D
100
AcDbEntity
  8
RUNDUNGEN
  6
Continuous
 62
     9
100
AcDbLine
 10
188.2674941658
 20
129.4421414877
 30
0.0
 11
212.3722117166
 21
129.4421414877
 31
0.0
  0
LINE
  5
2D6
330
21D
100
AcDbEntity
  8
RUNDUNGEN
  6
Continuous
 62
     9
100
AcDbLine
 10
211.1232037336
 20
129.5263589327
 30
0.0
 11
189.5165021487
 21
129.5263589327
 31
0.0
  0
LINE
  5
2D7
330
21D
100
AcDbEntity
  8
RUNDUNGEN
  6
Continuous
 62
     9
100
AcDbLine
 10
212.0932749845
 20
130.5262066278
 30
0.0
 11
188.5464308979
 21
130.5262066278
 31
0.0
  0
LINE
  5
2D8
330
21D
100
AcDbEntity
  8
RUNDUNGEN
  6
Continuous
 62
     9
100
AcDbLine
 10
212.0932749845
 20
134.594544798
 30
0.0
 11
188.5464308979
 21
134.594544798
 31
0.0
  0
LINE
  5
2D9
330
21D
100
AcDbEntity
  8
RUNDUNGEN
  6
Continuous
 62
     9
100
AcDbLine
 10
211.1149179351
 20
135.5931743327
 30
0.0
 11
189.5247879472
 21
135.5931743327
 31
0.0
  0
LINE
  5
2DA
330
21D
100
AcDbEntity
  8
RUNDUNGEN
  6
Continuous
 62
     9
100
AcDbLine
 10
185.0221164302999
 20
136.5042081122
 30
0.0
 11
215.6175894521
 21
136.5042081122
 31
0.0
  0
LINE
  5
2DB
330
21D
100
AcDbEntity
  8
RUNDUNGEN
  6
Continuous
 62
     9
100
AcDbLine
 10
182.8334457752
 20
137.4996117451
 30
0.0
 11
217.8062601072
 21
137.4996117451
 31
0.0
  0
LINE
  5
2DC
330
21D
100
AcDbEntity
  8
0
  6
Continuous
 62
     7
100
AcDbLine
 10
193.3198529412
 20
228.919726787
 30
0.0
 11
193.3198529412
 21
236.919726787
 31
0.0
  0
LINE
  5
2DD
330
21D
100
AcDbEntity
  8
0
  6
Continuous
 62
     7
100
AcDbLine
 10
193.8198529412
 20
218.919726787
 30
0.0
 11
193.8198529412
 21
218.2935093647
 31
0.0
  0
LINE
  5
2DE
330
21D
100
AcDbEntity
  8
0
  6
Continuous
 62
     7
100
AcDbLine
 10
194.5198529412
 20
218.2935093647
 30
0.0
 11
194.5198529412
 21
218.1435093647
 31
0.0
  0
LINE
  5
2DF
330
21D
100
AcDbEntity
  8
0
  6
Continuous
 62
     7
100
AcDbLine
 10
196.3198529412
 20
207.4048521011
 30
0.0
 11
196.3198529412
 21
207.7049294763
 31
0.0
  0
LINE
  5
2E0
330
21D
100
AcDbEntity
  8
0
  6
Continuous
 62
     2
100
AcDbLine
 10
197.1198529411999
 20
207.7124283908
 30
0.0
 11
197.1198529411999
 21
207.4048521011
 31
0.0
  0
LINE
  5
2E1
330
21D
100
AcDbEntity
  8
RUNDUNGEN
  6
Continuous
 62
     9
100
AcDbLine
 10
200.3198529412
 20
70.67250101429999
 30
0.0
 11
200.3198529412
 21
88.3457315575
 31
0.0
  0
LINE
  5
2E2
330
21D
100
AcDbEntity
  8
0
  6
CENTER
100
AcDbLine
 10
200.3198529412
 20
57.4235043397
 30
0.0
 11
200.3198529412
 21
239.5312557462
 31
0.0
  0
LINE
  5
2E3
330
21D
100
AcDbEntity
  8
0
  6
Continuous
 62
     2
100
AcDbLine
 10
203.5198529412
 20
207.7124284005
 30
0.0
 11
203.5198529412
 21
207.4048521011
 31
0.0
  0
LINE
  5
2E4
330
21D
100
AcDbEntity
  8
0
  6
Continuous
 62
     7
100
AcDbLine
 10
204.3198529412
 20
207.4048521011
 30
0.0
 11
204.3198529412
 21
207.7049294594
 31
0.0
  0
LINE
  5
2E5
330
21D
100
AcDbEntity
  8
RUNDUNGEN
  6
Continuous
 62
     9
100
AcDbLine
 10
247.7174370696
 20
94.17965917809999
 30
0.0
 11
245.8253385637
 21
95.97519361699999
 31
0.0
  0
LINE
  5
2E6
330
21D
100
AcDbEntity
  8
RUNDUNGEN
  6
Continuous
 62
     9
100
AcDbLine
 10
248.6638023727
 20
95.17692012579999
 30
0.0
 11
246.7717038668
 21
96.97245456459999
 31
0.0
  0
LINE
  5
2E7
330
21D
100
AcDbEntity
  8
RUNDUNGEN
  6
Continuous
 62
     9
100
AcDbLine
 10
215.2669313149
 20
187.8186407865
 30
0.0
 11
215.2701312494
 21
184.3555070907
 31
0.0
  0
LINE
  5
2E8
330
21D
100
AcDbEntity
  8
0
  6
Continuous
 62
     7
100
AcDbLine
 10
206.1198529412
 20
218.2935093647
 30
0.0
 11
206.1198529412
 21
218.1435093647
 31
0.0
  0
LINE
  5
2E9
330
21D
100
AcDbEntity
  8
0
  6
Continuous
 62
     7
100
AcDbLine
 10
206.8198529412
 20
218.2935093647
 30
0.0
 11
206.8198529412
 21
218.919726787
 31
0.0
  0
LINE
  5
2EA
330
21D
100
AcDbEntity
  8
0
  6
Continuous
 62
     7
100
AcDbLine
 10
207.3198529412
 20
228.919726787
 30
0.0
 11
207.3198529412
 21
236.919726787
 31
0.0
  0
LINE
  5
2EB
330
21D
100
AcDbEntity
  8
0
  6
Continuous
 62
     7
100
AcDbLine
 10
208.3198529412
 20
216.5435093647
 30
0.0
 11
208.3198529412
 21
218.1435093647
 31
0.0
  0
LINE
  5
2EC
330
21D
100
AcDbEntity
  8
0
  6
Continuous
 62
     7
100
AcDbLine
 10
208.3198529412
 20
218.919726787
 30
0.0
 11
208.3198529412
 21
228.919726787
 31
0.0
  0
LINE
  5
2ED
330
21D
100
AcDbEntity
  8
0
  6
Continuous
 62
     7
100
AcDbLine
 10
208.8198529412
 20
215.5435093647
 30
0.0
 11
208.8198529412
 21
216.5435093647
 31
0.0
  0
LINE
  5
2EE
330
21D
100
AcDbEntity
  8
RUNDUNGEN
  6
Continuous
 62
     9
100
AcDbLine
 10
210.8898217688
 20
134.594544798
 30
0.0
 11
210.8898217688
 21
130.5262066278
 31
0.0
  0
LINE
  5
2EF
330
21D
100
AcDbEntity
  8
RUNDUNGEN
  6
Continuous
 62
     9
100
AcDbLine
 10
212.0134005399
 20
206.4048521011
 30
0.0
 11
212.0133552632
 21
200.9240574099
 31
0.0
  0
LINE
  5
2F0
330
21D
100
AcDbEntity
  8
RUNDUNGEN
  6
Continuous
 62
     9
100
AcDbLine
 10
212.0932749845
 20
134.594544798
 30
0.0
 11
212.0932749845
 21
130.5262066278
 31
0.0
  0
LINE
  5
2F1
330
21D
100
AcDbEntity
  8
RUNDUNGEN
  6
Continuous
 62
     9
100
AcDbLine
 10
212.8145711157
 20
206.4248875657
 30
0.0
 11
212.8145838737
 21
200.9240574535
 31
0.0
  0
LINE
  5
2F2
330
21D
100
AcDbEntity
  8
RUNDUNGEN
  6
Continuous
 62
     9
100
AcDbLine
 10
214.5169892584
 20
206.5270102395
 30
0.0
 11
214.5174501028
 21
201.0262066928
 31
0.0
  0
LINE
  5
2F3
330
21D
100
AcDbEntity
  8
RUNDUNGEN
  6
Continuous
 62
     9
100
AcDbLine
 10
215.2496440355
 20
206.5302361414
 30
0.0
 11
215.2500909601
 21
201.0262066278
 31
0.0
  0
LINE
  5
2F4
330
21D
100
AcDbEntity
  8
RUNDUNGEN
  6
Continuous
 62
     9
100
AcDbLine
 10
220.3198147765
 20
87.34588386229999
 30
0.0
 11
220.3198147765
 21
88.3457315575
 31
0.0
  0
LINE
  5
2F5
330
21D
100
AcDbEntity
  8
RUNDUNGEN
  6
Continuous
 62
     9
100
AcDbLine
 10
216.5592495328
 20
129.2231747782
 30
0.0
 11
216.5644906976
 21
135.4997543072
 31
0.0
  0
LINE
  5
2F6
330
21D
100
AcDbEntity
  8
RUNDUNGEN
  6
Continuous
 62
     9
100
AcDbLine
 10
217.8062601072
 20
137.4996117451
 30
0.0
 11
217.7993528182
 21
129.2199488762
 31
0.0
  0
LINE
  5
2F7
330
21D
100
AcDbEntity
  8
RUNDUNGEN
  6
Continuous
 62
     9
100
AcDbLine
 10
254.7301023188
 20
97.38953655420001
 30
0.0
 11
255.9162051909
 21
95.62012779019999
 31
0.0
  0
LINE
  5
2F8
330
21D
100
AcDbEntity
  8
RUNDUNGEN
  6
Continuous
 62
     9
100
AcDbLine
 10
255.5791883136
 20
97.9568691106
 30
0.0
 11
256.746975626
 21
96.21478319739999
 31
0.0
  0
LINE
  5
2F9
330
21D
100
AcDbEntity
  8
0
  6
Continuous
 62
     7
100
AcDbLine
 10
229.6113391997
 20
214.5435093647
 30
0.0
 11
229.6113391997
 21
215.5435093647
 31
0.0
  0
LINE
  5
2FA
330
21D
100
AcDbEntity
  8
0
  6
Continuous
 62
     7
100
AcDbLine
 10
230.3198529412
 20
90.0264790665
 30
0.0
 11
230.3198529412
 21
94.1440864594
 31
0.0
  0
LINE
  5
2FB
330
21D
100
AcDbEntity
  8
0
  6
Continuous
 62
     7
100
AcDbLine
 10
230.3888246029
 20
214.5435093647
 30
0.0
 11
230.3888246029
 21
215.5435093647
 31
0.0
  0
LINE
  5
2FC
330
21D
100
AcDbEntity
  8
0
  6
Continuous
 62
     7
100
AcDbLine
 10
231.4734556835
 20
214.5435093647
 30
0.0
 11
231.4734556835
 21
215.5435093647
 31
0.0
  0
LINE
  5
2FD
330
21D
100
AcDbEntity
  8
0
  6
Continuous
 62
     7
100
AcDbLine
 10
237.8198529412
 20
96.2403939726
 30
0.0
 11
237.8198529412
 21
106.3087321428
 31
0.0
  0
LINE
  5
2FE
330
21D
100
AcDbEntity
  8
0
  6
Continuous
 62
     7
100
AcDbLine
 10
238.0043339414
 20
214.5435093647
 30
0.0
 11
238.0043339414
 21
215.5435093647
 31
0.0
  0
LINE
  5
2FF
330
21D
100
AcDbEntity
  8
0
  6
Continuous
 62
     7
100
AcDbLine
 10
238.4110705845
 20
214.5435093647
 30
0.0
 11
238.4110705845
 21
215.5435093647
 31
0.0
  0
LINE
  5
300
330
21D
100
AcDbEntity
  8
0
  6
Continuous
 62
     7
100
AcDbLine
 10
239.0851163321
 20
214.5435093647
 30
0.0
 11
239.0851163321
 21
215.5435093647
 31
0.0
  0
LINE
  5
301
330
21D
100
AcDbEntity
  8
0
  6
Continuous
 62
     9
100
AcDbLine
 10
231.3198529412
 20
89.02647906650001
 30
0.0
 11
231.319808727
 21
89.0261744568
 31
0.0
  0
LINE
  5
302
330
21D
100
AcDbEntity
  8
RUNDUNGEN
  6
Continuous
 62
     9
100
AcDbLine
 10
186.9028634176
 20
182.5208677024
 30
0.0
 11
213.7368424655
 21
182.5208677024
 31
0.0
  0
LINE
  5
303
330
21D
100
AcDbEntity
  8
RUNDUNGEN
  6
Continuous
 62
     9
100
AcDbLine
 10
186.8280831179
 20
183.2836862436
 30
0.0
 11
213.8116227651
 21
183.2836862436
 31
0.0
  0
LINE
  5
304
330
21D
100
AcDbEntity
  8
0
  6
Continuous
 62
     7
100
AcDbLine
 10
239.6871863802
 20
214.5435093647
 30
0.0
 11
239.6871863802
 21
215.5435093647
 31
0.0
  0
LINE
  5
305
330
21D
100
AcDbEntity
  8
0
  6
Continuous
 62
     7
100
AcDbLine
 10
240.1337597083
 20
214.5435093647
 30
0.0
 11
240.1337597083
 21
215.5435093647
 31
0.0
  0
LINE
  5
306
330
21D
100
AcDbEntity
  8
0
  6
Continuous
 62
     7
100
AcDbLine
 10
240.4248355543
 20
214.5435093647
 30
0.0
 11
240.4248355543
 21
215.5435093647
 31
0.0
  0
LINE
  5
307
330
21D
100
AcDbEntity
  8
0
  6
Continuous
 62
     7
100
AcDbLine
 10
240.8514905399
 20
214.5435093647
 30
0.0
 11
240.8514905399
 21
215.5435093647
 31
0.0
  0
LINE
  5
308
330
21D
100
AcDbEntity
  8
0
  6
Continuous
 62
     7
100
AcDbLine
 10
241.3938059347
 20
214.5435093647
 30
0.0
 11
241.3938059347
 21
215.5435093647
 31
0.0
  0
LINE
  5
309
330
21D
100
AcDbEntity
  8
0
  6
Continuous
 62
     7
100
AcDbLine
 10
241.5094667318
 20
214.5435093647
 30
0.0
 11
241.5094667318
 21
215.5435093647
 31
0.0
  0
LINE
  5
30A
330
21D
100
AcDbEntity
  8
0
  6
Continuous
 62
     9
100
AcDbLine
 10
244.821224523
 20
89.02647906650001
 30
0.0
 11
244.8212245218
 21
89.0261744568
 31
0.0
  0
LINE
  5
30B
330
21D
100
AcDbEntity
  8
0
  6
Continuous
 62
     7
100
AcDbLine
 10
245.2375481237
 20
214.5435093647
 30
0.0
 11
245.2375481237
 21
215.5435093647
 31
0.0
  0
LINE
  5
30C
330
21D
100
AcDbEntity
  8
0
  6
Continuous
 62
     7
100
AcDbLine
 10
245.5764955848
 20
214.5435093647
 30
0.0
 11
245.5764955848
 21
215.5435093647
 31
0.0
  0
LINE
  5
30D
330
21D
100
AcDbEntity
  8
0
  6
Continuous
 62
     7
100
AcDbLine
 10
245.7407026014
 20
214.5435093647
 30
0.0
 11
245.7407026014
 21
215.5435093647
 31
0.0
  0
LINE
  5
30E
330
21D
100
AcDbEntity
  8
0
  6
Continuous
 62
     7
100
AcDbLine
 10
245.8225976332
 20
95.97519361699999
 30
0.0
 11
245.8225976332
 21
90.02419546570001
 31
0.0
  0
LINE
  5
30F
330
21D
100
AcDbEntity
  8
0
  6
Continuous
 62
     7
100
AcDbLine
 10
246.4783515645
 20
214.5435093647
 30
0.0
 11
246.4783515645
 21
215.5435093647
 31
0.0
  0
LINE
  5
310
330
21D
100
AcDbEntity
  8
0
  6
Continuous
 62
     7
100
AcDbLine
 10
247.4710887561
 20
214.5435093647
 30
0.0
 11
247.4710887561
 21
215.5435093647
 31
0.0
  0
LINE
  5
311
330
21D
100
AcDbEntity
  8
0
  6
Continuous
 62
     7
100
AcDbLine
 10
248.2286562727
 20
214.5435093647
 30
0.0
 11
248.2286562727
 21
215.5435093647
 31
0.0
  0
LINE
  5
312
330
21D
100
AcDbEntity
  8
0
  6
Continuous
 62
     7
100
AcDbLine
 10
248.7430187827
 20
214.5435093647
 30
0.0
 11
248.7430187827
 21
215.5435093647
 31
0.0
  0
LINE
  5
313
330
21D
100
AcDbEntity
  8
0
  6
Continuous
 62
     7
100
AcDbLine
 10
249.1018841985
 20
214.5435093647
 30
0.0
 11
249.1018841985
 21
215.5435093647
 31
0.0
  0
LINE
  5
314
330
21D
100
AcDbEntity
  8
0
  6
Continuous
 62
     7
100
AcDbLine
 10
249.6641179359
 20
214.5435093647
 30
0.0
 11
249.6641179359
 21
215.5435093647
 31
0.0
  0
LINE
  5
315
330
21D
100
AcDbEntity
  8
0
  6
Continuous
 62
     7
100
AcDbLine
 10
250.0708538031
 20
214.5435093647
 30
0.0
 11
250.0708538031
 21
215.5435093647
 31
0.0
  0
LINE
  5
316
330
21D
100
AcDbEntity
  8
0
  6
Continuous
 62
     7
100
AcDbLine
 10
250.322093352
 20
214.5435093647
 30
0.0
 11
250.322093352
 21
215.5435093647
 31
0.0
  0
LINE
  5
317
330
21D
100
AcDbEntity
  8
0
  6
Continuous
 62
     7
100
AcDbLine
 10
280.3998833779
 20
199.2125905256
 30
0.0
 11
348.3722068378
 21
200.9925084566
 31
0.0
  0
LINE
  5
318
330
21D
100
AcDbEntity
  8
0
  6
Continuous
 62
     7
100
AcDbLine
 10
265.2436033868
 20
188.8152625797
 30
0.0
 11
270.3373053476
 21
188.9041734782
 31
0.0
  0
LINE
  5
319
330
21D
100
AcDbEntity
  8
0
  6
Continuous
 62
     9
100
AcDbLine
 10
264.2610609965
 20
187.8186407865
 30
0.0
 11
215.2669313149
 21
187.8186407865
 31
0.0
  0
LINE
  5
31A
330
21D
100
AcDbEntity
  8
0
  6
Continuous
 62
     9
100
AcDbLine
 10
185.3727745675
 20
187.8186407865
 30
0.0
 11
136.3786448858
 21
187.8186407865
 31
0.0
  0
LINE
  5
31B
330
21D
100
AcDbEntity
  8
RUNDUNGEN
  6
Continuous
 62
     9
100
AcDbLine
 10
212.6637294219
 20
188.6215871252
 30
0.0
 11
187.9759764612
 21
188.6215871252
 31
0.0
  0
LINE
  5
31C
330
21D
100
AcDbEntity
  8
0
  6
Continuous
 62
     9
100
AcDbLine
 10
135.3961024955
 20
188.8152625797
 30
0.0
 11
185.1433267359
 21
188.8152625797
 31
0.0
  0
LINE
  5
31D
330
21D
100
AcDbEntity
  8
0
  6
Continuous
 62
     9
100
AcDbLine
 10
215.4963791464
 20
188.8152625797
 30
0.0
 11
265.2436033868
 21
188.8152625797
 31
0.0
  0
LINE
  5
31E
330
21D
100
AcDbEntity
  8
0
  6
Continuous
 62
     9
100
AcDbLine
 10
270.3373053476
 20
188.9041734782
 30
0.0
 11
214.0129579629
 21
188.9041734782
 31
0.0
  0
LINE
  5
31F
330
21D
100
AcDbEntity
  8
0
  6
Continuous
 62
     9
100
AcDbLine
 10
186.6267479388
 20
188.9041734782
 30
0.0
 11
130.3024005347
 21
188.9041734782
 31
0.0
  0
LINE
  5
320
330
21D
100
AcDbEntity
  8
RUNDUNGEN
  6
Continuous
 62
     9
100
AcDbLine
 10
212.7265114383
 20
189.3876315684
 30
0.0
 11
187.9132149217
 21
189.3876315684
 31
0.0
  0
LINE
  5
321
330
21D
100
AcDbEntity
  8
0
  6
Continuous
 62
     9
100
AcDbLine
 10
129.3198529412
 20
189.9040211733
 30
0.0
 11
186.4349012079
 21
189.9040211733
 31
0.0
  0
LINE
  5
322
330
21D
100
AcDbEntity
  8
0
  6
Continuous
 62
     9
100
AcDbLine
 10
214.2048046744
 20
189.9040211733
 30
0.0
 11
271.3198529412
 21
189.9040211733
 31
0.0
  0
LINE
  5
323
330
21D
100
AcDbEntity
  8
0
  6
Continuous
 62
     7
100
AcDbLine
 10
135.3961024955
 20
188.8152625797
 30
0.0
 11
130.3024005347
 21
188.9041734782
 31
0.0
  0
LINE
  5
324
330
21D
100
AcDbEntity
  8
0
  6
Continuous
 62
     7
100
AcDbLine
 10
120.2398225044
 20
199.2125905256
 30
0.0
 11
52.2674990446
 21
200.9925084566
 31
0.0
  0
LINE
  5
325
330
21D
100
AcDbEntity
  8
0
  6
Continuous
 62
     7
100
AcDbLine
 10
84.7835149914
 20
207.5352390184
 30
0.0
 11
77.8198529412
 21
208.1444805044
 31
0.0
  0
LINE
  5
326
330
21D
100
AcDbEntity
  8
0
  6
Continuous
 62
     7
100
AcDbLine
 10
251.4266436478
 20
214.5435093647
 30
0.0
 11
251.4266436478
 21
215.5435093647
 31
0.0
  0
LINE
  5
327
330
21D
100
AcDbEntity
  8
0
  6
Continuous
 62
     7
100
AcDbLine
 10
251.7655903332
 20
214.5435093647
 30
0.0
 11
251.7655903332
 21
215.5435093647
 31
0.0
  0
LINE
  5
328
330
21D
100
AcDbEntity
  8
0
  6
Continuous
 62
     7
100
AcDbLine
 10
252.1803622806
 20
214.5435093647
 30
0.0
 11
252.1803622806
 21
215.5435093647
 31
0.0
  0
LINE
  5
329
330
21D
100
AcDbEntity
  8
0
  6
Continuous
 62
     7
100
AcDbLine
 10
252.6947248043
 20
214.5435093647
 30
0.0
 11
252.6947248043
 21
215.5435093647
 31
0.0
  0
LINE
  5
32A
330
21D
100
AcDbEntity
  8
0
  6
Continuous
 62
     7
100
AcDbLine
 10
253.1213786262
 20
214.5435093647
 30
0.0
 11
253.1213786262
 21
215.5435093647
 31
0.0
  0
LINE
  5
32B
330
21D
100
AcDbEntity
  8
0
  6
Continuous
 62
     7
100
AcDbLine
 10
253.5281152693
 20
214.5435093647
 30
0.0
 11
253.5281152693
 21
215.5435093647
 31
0.0
  0
LINE
  5
32C
330
21D
100
AcDbEntity
  8
0
  6
Continuous
 62
     7
100
AcDbLine
 10
253.6437764543
 20
214.5435093647
 30
0.0
 11
253.6437764543
 21
215.5435093647
 31
0.0
  0
LINE
  5
32D
330
21D
100
AcDbEntity
  8
0
  6
Continuous
 62
     7
100
AcDbLine
 10
254.1382202339
 20
214.5435093647
 30
0.0
 11
254.1382202339
 21
215.5435093647
 31
0.0
  0
LINE
  5
32E
330
21D
100
AcDbEntity
  8
0
  6
Continuous
 62
     7
100
AcDbLine
 10
254.4771684709
 20
214.5435093647
 30
0.0
 11
254.4771684709
 21
215.5435093647
 31
0.0
  0
LINE
  5
32F
330
21D
100
AcDbEntity
  8
0
  6
Continuous
 62
     7
100
AcDbLine
 10
254.7364417861
 20
214.5435093647
 30
0.0
 11
254.7364417861
 21
215.5435093647
 31
0.0
  0
LINE
  5
330
330
21D
100
AcDbEntity
  8
0
  6
Continuous
 62
     7
100
AcDbLine
 10
255.2508042962
 20
214.5435093647
 30
0.0
 11
255.2508042962
 21
215.5435093647
 31
0.0
  0
LINE
  5
331
330
21D
100
AcDbEntity
  8
0
  6
Continuous
 62
     7
100
AcDbLine
 10
255.609669712
 20
214.5435093647
 30
0.0
 11
255.609669712
 21
215.5435093647
 31
0.0
  0
LINE
  5
332
330
21D
100
AcDbEntity
  8
0
  6
Continuous
 62
     7
100
AcDbLine
 10
256.1719034493
 20
214.5435093647
 30
0.0
 11
256.1719034493
 21
215.5435093647
 31
0.0
  0
LINE
  5
333
330
21D
100
AcDbEntity
  8
0
  6
Continuous
 62
     7
100
AcDbLine
 10
256.4909329558
 20
214.5435093647
 30
0.0
 11
256.4909329558
 21
215.5435093647
 31
0.0
  0
LINE
  5
334
330
21D
100
AcDbEntity
  8
0
  6
Continuous
 62
     7
100
AcDbLine
 10
271.9079328998
 20
170.9177472477
 30
0.0
 11
271.7692595052
 21
170.6346151306
 31
0.0
  0
LINE
  5
335
330
21D
100
AcDbEntity
  8
0
  6
Continuous
 62
     7
100
AcDbLine
 10
315.856190891
 20
207.5352390184
 30
0.0
 11
322.8198529412
 21
208.1444805044
 31
0.0
  0
LINE
  5
336
330
21D
100
AcDbEntity
  8
0
  6
Continuous
 62
     7
100
AcDbLine
 10
307.8198529412
 20
207.8444805044
 30
0.0
 11
305.3347091818
 21
207.6270585982
 31
0.0
  0
LINE
  5
337
330
21D
100
AcDbEntity
  8
0
  6
Continuous
 62
     7
100
AcDbLine
 10
291.6952277495
 20
207.7460885494
 30
0.0
 11
292.8198529412
 21
207.8444805044
 31
0.0
  0
LINE
  5
338
330
21D
100
AcDbEntity
  8
RUNDUNGEN
  6
Continuous
 62
     7
100
AcDbLine
 10
213.7199805615
 20
207.4230503142
 30
0.0
 11
213.7202076391
 21
207.4230640553
 31
0.0
  0
LWPOLYLINE
  5
339
330
21D
100
AcDbEntity
  8
0
  6
Continuous
 62
     7
100
AcDbPolyline
 90
        5
 70
     0
 43
0.0
 10
215.4237447117
 20
207.5252581382
 10
213.7179633035
 20
207.4229311454
 10
213.7052924482
 20
207.4222430375999
 10
213.6882365451
 20
207.4214271311
 10
213.667657978
 20
207.4205563026
  0
LINE
  5
33A
330
21D
100
AcDbEntity
  8
RUNDUNGEN
  6
Continuous
 62
     7
100
AcDbLine
 10
215.4237638482
 20
207.525259194
 30
0.0
 11
215.4238976587
 21
207.5252670992
 31
0.0
  0
LINE
  5
33B
330
21D
100
AcDbEntity
  8
0
  6
Continuous
 62
     7
100
AcDbLine
 10
213.667657978
 20
207.4205563026
 30
0.0
 11
213.6154817683
 21
207.4187021908
 31
0.0
  0
LINE
  5
33C
330
21D
100
AcDbEntity
  8
0
  6
Continuous
 62
     7
100
AcDbLine
 10
215.482963238
 20
207.5270102182
 30
0.0
 11
215.4238976587
 21
207.5252670992
 31
0.0
  0
LINE
  5
33D
330
21D
100
AcDbEntity
  8
0
  6
Continuous
 62
     7
100
AcDbLine
 10
213.6154817683
 20
207.4187021908
 30
0.0
 11
213.5494422707
 21
207.4167923425
 31
0.0
  0
LINE
  5
33E
330
21D
100
AcDbEntity
  8
0
  6
Continuous
 62
     7
100
AcDbLine
 10
213.5494422707
 20
207.4167923425
 30
0.0
 11
213.4700903831
 21
207.4149165416
 31
0.0
  0
LINE
  5
33F
330
21D
100
AcDbEntity
  8
0
  6
Continuous
 62
     7
100
AcDbLine
 10
130.3024005347
 20
199.9384743423
 30
0.0
 11
135.3373053476
 21
200.0263589327
 31
0.0
  0
LINE
  5
340
330
21D
100
AcDbEntity
  8
0
  6
Continuous
 62
     7
100
AcDbLine
 10
52.2849481283
 20
206.0778102288
 30
0.0
 11
135.300835597
 21
207.5268579346
 31
0.0
  0
LINE
  5
341
330
21D
100
AcDbEntity
  8
0
  6
Continuous
 62
     7
100
AcDbLine
 10
213.4700903831
 20
207.4149165416
 30
0.0
 11
213.3262695284
 21
207.4122441448
 31
0.0
  0
LINE
  5
342
330
21D
100
AcDbEntity
  8
0
  6
Continuous
 62
     7
100
AcDbLine
 10
213.3262695284
 20
207.4122441448
 30
0.0
 11
213.0902480227
 21
207.4091367079
 31
0.0
  0
LINE
  5
343
330
21D
100
AcDbEntity
  8
0
  6
Continuous
 62
     7
100
AcDbLine
 10
135.300835597
 20
207.5268579346
 30
0.0
 11
135.3182880034
 21
207.5270102395
 31
0.0
  0
LINE
  5
344
330
21D
100
AcDbEntity
  8
0
  6
Continuous
 62
     7
100
AcDbLine
 10
122.8561782305
 20
207.8674941169
 30
0.0
 11
108.9444781328
 21
207.7460885494
 31
0.0
  0
LINE
  5
345
330
21D
100
AcDbEntity
  8
0
  6
Continuous
 62
     7
100
AcDbLine
 10
106.4460090701
 20
207.7242847402
 30
0.0
 11
95.30499670060001
 21
207.6270585982
 31
0.0
  0
LINE
  5
346
330
21D
100
AcDbEntity
  8
0
  6
Continuous
 62
     7
100
AcDbLine
 10
89.78399748639999
 20
207.578877568
 30
0.0
 11
84.7835149914
 21
207.5352390184
 31
0.0
  0
LINE
  5
347
330
21D
100
AcDbEntity
  8
0
  6
Continuous
 62
     7
100
AcDbLine
 10
69.3130326254
 20
207.4002301641
 30
0.0
 11
65.69782025479999
 21
207.3686806837
 31
0.0
  0
LINE
  5
348
330
21D
100
AcDbEntity
  8
0
  6
Continuous
 62
     7
100
AcDbLine
 10
213.0902480227
 20
207.4091367079
 30
0.0
 11
212.7306845493
 21
207.4062900491
 31
0.0
  0
LINE
  5
349
330
21D
100
AcDbEntity
  8
0
  6
Continuous
 62
     7
100
AcDbLine
 10
334.9687869419
 20
207.3687257266
 30
0.0
 11
334.9418856275999
 21
207.3686806837
 31
0.0
  0
LINE
  5
34A
330
21D
100
AcDbEntity
  8
0
  6
Continuous
 62
     7
100
AcDbLine
 10
212.7306845493
 20
207.4062900491
 30
0.0
 11
212.2247993748
 21
207.4048622456
 31
0.0
  0
LINE
  5
34B
330
21D
100
AcDbEntity
  8
0
  6
Continuous
 62
     9
100
AcDbLine
 10
129.3198529412
 20
198.9386266471
 30
0.0
 11
186.4349012123
 21
198.9386266471
 31
0.0
  0
LINE
  5
34C
330
21D
100
AcDbEntity
  8
0
  6
Continuous
 62
     9
100
AcDbLine
 10
214.2048045558
 20
198.9386266471
 30
0.0
 11
271.3198529412
 21
198.9386266471
 31
0.0
  0
LINE
  5
34D
330
21D
100
AcDbEntity
  8
0
  6
Continuous
 62
     9
100
AcDbLine
 10
135.3373053476
 20
199.9384743423
 30
0.0
 11
186.6267120309
 21
199.9384743423
 31
0.0
  0
LINE
  5
34E
330
21D
100
AcDbEntity
  8
0
  6
Continuous
 62
     9
100
AcDbLine
 10
214.0126449179
 20
199.9384743423
 30
0.0
 11
270.3373053476
 21
199.9384743423
 31
0.0
  0
LINE
  5
34F
330
21D
100
AcDbEntity
  8
0
  6
Continuous
 62
     9
100
AcDbLine
 10
135.3373053476
 20
200.0263589327
 30
0.0
 11
185.1606266819
 21
200.0263589327
 31
0.0
  0
LINE
  5
350
330
21D
100
AcDbEntity
  8
0
  6
Continuous
 62
     9
100
AcDbLine
 10
215.4792936741
 20
200.0263589327
 30
0.0
 11
265.3024005347
 21
200.0263589327
 31
0.0
  0
LINE
  5
351
330
21D
100
AcDbEntity
  8
RUNDUNGEN
  6
Continuous
 62
     9
100
AcDbLine
 10
188.6263506191999
 20
200.9240574206
 30
0.0
 11
187.8251220087
 21
200.9240574211
 31
0.0
  0
LINE
  5
352
330
21D
100
AcDbEntity
  8
RUNDUNGEN
  6
Continuous
 62
     9
100
AcDbLine
 10
212.0133552632
 20
200.9240574089
 30
0.0
 11
212.8145838737
 21
200.9240574094
 31
0.0
  0
LINE
  5
353
330
21D
100
AcDbEntity
  8
0
  6
Continuous
 62
     9
100
AcDbLine
 10
136.3198529412
 20
201.0262066278
 30
0.0
 11
185.3896149223
 21
201.0262066278
 31
0.0
  0
LINE
  5
354
330
21D
100
AcDbEntity
  8
RUNDUNGEN
  6
Continuous
 62
     9
100
AcDbLine
 10
185.3896149223
 20
201.0262066278
 30
0.0
 11
186.1222557795
 21
201.0262066278
 31
0.0
  0
LINE
  5
355
330
21D
100
AcDbEntity
  8
RUNDUNGEN
  6
Continuous
 62
     9
100
AcDbLine
 10
214.5174501028
 20
201.0262066278
 30
0.0
 11
215.2500909601
 21
201.0262066278
 31
0.0
  0
LINE
  5
356
330
21D
100
AcDbEntity
  8
0
  6
Continuous
 62
     9
100
AcDbLine
 10
215.2500909601
 20
201.0262066278
 30
0.0
 11
264.3198529412
 21
201.0262066278
 31
0.0
  0
LINE
  5
357
330
21D
100
AcDbEntity
  8
0
  6
Continuous
 62
     7
100
AcDbLine
 10
264.3198529412
 20
206.0435093647
 30
0.0
 11
215.2500909601
 21
206.0435093647
 31
0.0
  0
LINE
  5
358
330
21D
100
AcDbEntity
  8
RUNDUNGEN
  6
Continuous
 62
     9
100
AcDbLine
 10
215.2500909601
 20
206.0435093647
 30
0.0
 11
214.5174501028
 21
206.0435093647
 31
0.0
  0
LINE
  5
359
330
21D
100
AcDbEntity
  8
0
  6
Continuous
 62
     7
100
AcDbLine
 10
185.3896149223
 20
206.0435093647
 30
0.0
 11
136.3198529412
 21
206.0435093647
 31
0.0
  0
LINE
  5
35A
330
21D
100
AcDbEntity
  8
RUNDUNGEN
  6
Continuous
 62
     9
100
AcDbLine
 10
212.0134005399
 20
206.4048521011
 30
0.0
 11
188.626305308
 21
206.4048521011
 31
0.0
  0
LINE
  5
35B
330
21D
100
AcDbEntity
  8
0
  6
Continuous
 62
     9
100
AcDbLine
 10
264.3214230822
 20
206.5302361414
 30
0.0
 11
215.2496440355
 21
206.5302361414
 31
0.0
  0
LINE
  5
35C
330
21D
100
AcDbEntity
  8
0
  6
Continuous
 62
     9
100
AcDbLine
 10
185.3900618468
 20
206.5302361414
 30
0.0
 11
136.3182828002
 21
206.5302361414
 31
0.0
  0
LINE
  5
35D
330
21D
100
AcDbEntity
  8
0
  6
Continuous
 62
     7
100
AcDbLine
 10
69.3130326254
 20
207.3685664529
 30
0.0
 11
101.2142013117
 21
207.3685664529
 31
0.0
  0
LINE
  5
35E
330
21D
100
AcDbEntity
  8
0
  6
Continuous
 62
     7
100
AcDbLine
 10
109.2142013117
 20
207.3685664529
 30
0.0
 11
126.2323226836
 21
207.3685664529
 31
0.0
  0
LINE
  5
35F
330
21D
100
AcDbEntity
  8
0
  6
Continuous
 62
     7
100
AcDbLine
 10
274.4073831988
 20
207.3685664529
 30
0.0
 11
291.4255045707
 21
207.3685664529
 31
0.0
  0
LINE
  5
360
330
21D
100
AcDbEntity
  8
0
  6
Continuous
 62
     7
100
AcDbLine
 10
299.4255045707
 20
207.3685664529
 30
0.0
 11
331.326673257
 21
207.3685664529
 31
0.0
  0
LINE
  5
361
330
21D
100
AcDbEntity
  8
0
  6
Continuous
 62
     9
100
AcDbLine
 10
274.4073831988
 20
207.3685664529
 30
0.0
 11
274.4008389202
 21
207.3686806837
 31
0.0
  0
LINE
  5
362
330
21D
100
AcDbEntity
  8
0
  6
Continuous
 62
     9
100
AcDbLine
 10
126.2388669622
 20
207.3686806837
 30
0.0
 11
126.2323226836
 21
207.3685664529
 31
0.0
  0
LINE
  5
363
330
21D
100
AcDbEntity
  8
0
  6
Continuous
 62
     7
100
AcDbLine
 10
69.3130326254
 20
207.4002301641
 30
0.0
 11
101.2142013117
 21
207.4002301641
 31
0.0
  0
LINE
  5
364
330
21D
100
AcDbEntity
  8
0
  6
Continuous
 62
     7
100
AcDbLine
 10
109.2142013117
 20
207.4002301641
 30
0.0
 11
128.0463354834
 21
207.4002301641
 31
0.0
  0
LINE
  5
365
330
21D
100
AcDbEntity
  8
0
  6
Continuous
 62
     7
100
AcDbLine
 10
272.593370399
 20
207.4002301641
 30
0.0
 11
291.4255045707
 21
207.4002301641
 31
0.0
  0
LINE
  5
366
330
21D
100
AcDbEntity
  8
0
  6
Continuous
 62
     7
100
AcDbLine
 10
299.4255045707
 20
207.4002301641
 30
0.0
 11
331.326673257
 21
207.4002301641
 31
0.0
  0
LINE
  5
367
330
21D
100
AcDbEntity
  8
0
  6
Continuous
 62
     7
100
AcDbLine
 10
212.2247993748
 20
207.4048622456
 30
0.0
 11
188.4616534032
 21
207.4048521011
 31
0.0
  0
LINE
  5
368
330
21D
100
AcDbEntity
  8
0
  6
Continuous
 62
     7
100
AcDbLine
 10
265.2712906658
 20
207.5270102395
 30
0.0
 11
215.4829150847
 21
207.5270102395
 31
0.0
  0
LINE
  5
369
330
21D
100
AcDbEntity
  8
0
  6
Continuous
 62
     7
100
AcDbLine
 10
185.1567907977
 20
207.5270102395
 30
0.0
 11
135.3684152165
 21
207.5270102395
 31
0.0
  0
LINE
  5
36A
330
21D
100
AcDbEntity
  8
0
  6
Continuous
 62
     7
100
AcDbLine
 10
88.94711409680001
 20
207.5352390184
 30
0.0
 11
101.2142013117
 21
207.5352390184
 31
0.0
  0
LINE
  5
36B
330
21D
100
AcDbEntity
  8
0
  6
Continuous
 62
     7
100
AcDbLine
 10
109.2142013117
 20
207.5352390184
 30
0.0
 11
196.3198529412
 21
207.5352390184
 31
0.0
  0
LINE
  5
36C
330
21D
100
AcDbEntity
  8
0
  6
Continuous
 62
     7
100
AcDbLine
 10
204.3198529412
 20
207.5352390184
 30
0.0
 11
291.4255045707
 21
207.5352390184
 31
0.0
  0
LINE
  5
36D
330
21D
100
AcDbEntity
  8
0
  6
Continuous
 62
     7
100
AcDbLine
 10
299.4255045707
 20
207.5352390184
 30
0.0
 11
311.5184064016
 21
207.5352390184
 31
0.0
  0
LINE
  5
36E
330
21D
100
AcDbEntity
  8
0
  6
Continuous
 62
     7
100
AcDbLine
 10
92.0305947085
 20
207.578877568
 30
0.0
 11
101.2142013117
 21
207.578877568
 31
0.0
  0
LINE
  5
36F
330
21D
100
AcDbEntity
  8
0
  6
Continuous
 62
     7
100
AcDbLine
 10
109.2142013117
 20
207.578877568
 30
0.0
 11
196.3198529412
 21
207.578877568
 31
0.0
  0
LINE
  5
370
330
21D
100
AcDbEntity
  8
0
  6
Continuous
 62
     7
100
AcDbLine
 10
204.3198529412
 20
207.578877568
 30
0.0
 11
291.4255045707
 21
207.578877568
 31
0.0
  0
LINE
  5
371
330
21D
100
AcDbEntity
  8
0
  6
Continuous
 62
     7
100
AcDbLine
 10
299.4255045707
 20
207.578877568
 30
0.0
 11
310.8557083959
 21
207.578877568
 31
0.0
  0
LINE
  5
372
330
21D
100
AcDbEntity
  8
0
  6
Continuous
 62
     7
100
AcDbLine
 10
109.2142013117
 20
207.6270585982
 30
0.0
 11
195.3198529412
 21
207.6270585982
 31
0.0
  0
LINE
  5
373
330
21D
100
AcDbEntity
  8
0
  6
Continuous
 62
     7
100
AcDbLine
 10
205.3198529412
 20
207.6270585982
 30
0.0
 11
291.4255045707
 21
207.6270585982
 31
0.0
  0
LINE
  5
374
330
21D
100
AcDbEntity
  8
0
  6
Continuous
 62
     7
100
AcDbLine
 10
293.1452268183999
 20
207.7242847402
 30
0.0
 11
291.8401332398
 21
207.7242847402
 31
0.0
  0
LINE
  5
375
330
21D
100
AcDbEntity
  8
0
  6
Continuous
 62
     7
100
AcDbLine
 10
290.0232288411999
 20
207.7242847402
 30
0.0
 11
110.6165767924
 21
207.7242847402
 31
0.0
  0
LINE
  5
376
330
21D
100
AcDbEntity
  8
0
  6
Continuous
 62
     7
100
AcDbLine
 10
108.799630608
 20
207.7242847402
 30
0.0
 11
107.4945056108
 21
207.7242847402
 31
0.0
  0
LINE
  5
377
330
21D
100
AcDbEntity
  8
0
  6
Continuous
 62
     7
100
AcDbLine
 10
111.165257828
 20
207.7460885494
 30
0.0
 11
289.4744480544
 21
207.7460885494
 31
0.0
  0
LINE
  5
378
330
21D
100
AcDbEntity
  8
0
  6
Continuous
 62
     7
100
AcDbLine
 10
122.8561782305
 20
207.8674941169
 30
0.0
 11
277.7835276518
 21
207.8674941169
 31
0.0
  0
LINE
  5
379
330
21D
100
AcDbEntity
  8
0
  6
Continuous
 62
     7
100
AcDbLine
 10
65.67091893869999
 20
207.3687257277
 30
0.0
 11
65.69782025479999
 21
207.3686806837
 31
0.0
  0
LINE
  5
37A
330
21D
100
AcDbEntity
  8
0
  6
Continuous
 62
     7
100
AcDbLine
 10
188.4616560546
 20
207.4048498331
 30
0.0
 11
187.9988087252
 21
207.4058451883
 31
0.0
  0
LINE
  5
37B
330
21D
100
AcDbEntity
  8
0
  6
Continuous
 62
     7
100
AcDbLine
 10
265.3388702854
 20
207.5268579346
 30
0.0
 11
265.3211573218
 21
207.5269690731
 31
0.0
  0
LINE
  5
37C
330
21D
100
AcDbEntity
  8
0
  6
Continuous
 62
     7
100
AcDbLine
 10
277.7835276518
 20
207.8674941169
 30
0.0
 11
291.6952277495
 21
207.7460885494
 31
0.0
  0
LINE
  5
37D
330
21D
100
AcDbEntity
  8
0
  6
Continuous
 62
     7
100
AcDbLine
 10
294.1936968123
 20
207.7242847402
 30
0.0
 11
305.3347091818
 21
207.6270585982
 31
0.0
  0
LINE
  5
37E
330
21D
100
AcDbEntity
  8
0
  6
Continuous
 62
     7
100
AcDbLine
 10
310.8557083959
 20
207.578877568
 30
0.0
 11
315.856190891
 21
207.5352390184
 31
0.0
  0
LINE
  5
37F
330
21D
100
AcDbEntity
  8
0
  6
Continuous
 62
     7
100
AcDbLine
 10
331.326673257
 20
207.4002301641
 30
0.0
 11
334.9418856275999
 21
207.3686806837
 31
0.0
  0
LINE
  5
380
330
21D
100
AcDbEntity
  8
0
  6
Continuous
 62
     7
100
AcDbLine
 10
187.9988087252
 20
207.4058451883
 30
0.0
 11
187.60587977
 21
207.4085602775
 31
0.0
  0
LINE
  5
381
330
21D
100
AcDbEntity
  8
0
  6
Continuous
 62
     7
100
AcDbLine
 10
187.60587977
 20
207.4085602775
 30
0.0
 11
187.3645584614
 21
207.4114578153
 31
0.0
  0
LINE
  5
382
330
21D
100
AcDbEntity
  8
0
  6
Continuous
 62
     7
100
AcDbLine
 10
270.3373053476
 20
199.9384743423
 30
0.0
 11
265.3024005347
 21
200.0263589327
 31
0.0
  0
LINE
  5
383
330
21D
100
AcDbEntity
  8
0
  6
Continuous
 62
     7
100
AcDbLine
 10
348.3547577541
 20
206.0778102288
 30
0.0
 11
265.3388702854
 21
207.5268579346
 31
0.0
  0
LINE
  5
384
330
21D
100
AcDbEntity
  8
0
  6
Continuous
 62
     7
100
AcDbLine
 10
187.3645584614
 20
207.4114578153
 30
0.0
 11
187.1723361547
 21
207.4148585301
 31
0.0
  0
LINE
  5
385
330
21D
100
AcDbEntity
  8
0
  6
Continuous
 62
     7
100
AcDbLine
 10
187.1723361547
 20
207.4148585301
 30
0.0
 11
187.0722977635
 21
207.4172755108
 31
0.0
  0
LINE
  5
386
330
21D
100
AcDbEntity
  8
0
  6
Continuous
 62
     7
100
AcDbLine
 10
185.1567426444
 20
207.5270102182
 30
0.0
 11
185.2158081916
 21
207.5252671011
 31
0.0
  0
LWPOLYLINE
  5
387
330
21D
100
AcDbEntity
  8
0
  6
Continuous
 62
     7
100
AcDbPolyline
 90
        5
 70
     0
 43
0.0
 10
187.0722977635
 20
207.4172755108
 10
186.9945572418
 20
207.4197055328
 10
186.9644878947999
 20
207.4208642698
 10
186.9407281938
 20
207.4219287716
 10
186.9351123429
 20
207.4222074626
  0
LINE
  5
388
330
21D
100
AcDbEntity
  8
0
  6
Continuous
 62
     7
100
AcDbLine
 10
186.9351123429
 20
207.4222074626
 30
0.0
 11
186.9190802349
 21
207.4230892134
 31
0.0
  0
LINE
  5
389
330
21D
100
AcDbEntity
  8
RUNDUNGEN
  6
Continuous
 62
     7
100
AcDbLine
 10
185.2159420317
 20
207.5252591942
 30
0.0
 11
185.2158081916
 21
207.5252671011
 31
0.0
  0
LINE
  5
38A
330
21D
100
AcDbEntity
  8
RUNDUNGEN
  6
Continuous
 62
     7
100
AcDbLine
 10
186.9197255920999
 20
207.423054752
 30
0.0
 11
186.9190805052
 21
207.4230936461
 31
0.0
  0
LINE
  5
38B
330
21D
100
AcDbEntity
  8
0
  6
Continuous
 62
     7
100
AcDbLine
 10
186.9197255920999
 20
207.423054752
 30
0.0
 11
185.2159611679
 21
207.5252581384
 31
0.0
  0
LINE
  5
38C
330
21D
100
AcDbEntity
  8
0
  6
Continuous
 62
     7
100
AcDbLine
 10
95.30499670060001
 20
207.6270585982
 30
0.0
 11
92.81985294120001
 21
207.8444805044
 31
0.0
  0
LINE
  5
38D
330
21D
100
AcDbEntity
  8
0
  6
Continuous
 62
     7
100
AcDbLine
 10
108.9444781328
 20
207.7460885494
 30
0.0
 11
107.8198529412
 21
207.8444805044
 31
0.0
  0
LINE
  5
38E
330
21D
100
AcDbEntity
  8
0
  6
Continuous
 62
     7
100
AcDbLine
 10
264.3198529412
 20
201.0262066278
 30
0.0
 11
264.3198529412
 21
206.0435093647
 31
0.0
  0
LINE
  5
38F
330
21D
100
AcDbEntity
  8
0
  6
Continuous
 62
     7
100
AcDbLine
 10
271.3198529412
 20
189.9040211733
 30
0.0
 11
271.3198529412
 21
198.9386266471
 31
0.0
  0
LINE
  5
390
330
21D
100
AcDbEntity
  8
0
  6
Continuous
 62
     7
100
AcDbLine
 10
264.0720263795
 20
129.2199488762
 30
0.0
 11
264.2610609965
 21
187.8186407865
 31
0.0
  0
LINE
  5
391
330
21D
100
AcDbEntity
  8
0
  6
Continuous
 62
     7
100
AcDbLine
 10
264.3198529412
 20
206.0435093647
 30
0.0
 11
264.3214230822
 21
206.5302361414
 31
0.0
  0
LINE
  5
392
330
21D
100
AcDbEntity
  8
0
  6
Continuous
 62
     7
100
AcDbLine
 10
271.2626397753
 20
168.6098220532
 30
0.0
 11
269.8616759402
 21
128.4914668308
 31
0.0
  0
LINE
  5
393
330
21D
100
AcDbEntity
  8
0
  6
Continuous
 62
     7
100
AcDbLine
 10
272.7086970289
 20
181.3657754795
 30
0.0
 11
272.4145513362
 21
172.9425449223
 31
0.0
  0
LINE
  5
394
330
21D
100
AcDbEntity
  8
0
  6
Continuous
 62
     7
100
AcDbLine
 10
254.584550355
 20
108.6598560301
 30
0.0
 11
263.7797978422
 21
127.9380932916
 31
0.0
  0
LINE
  5
395
330
21D
100
AcDbEntity
  8
0
  6
Continuous
 62
     7
100
AcDbLine
 10
269.5712593122
 20
127.3046320305
 30
0.0
 11
267.3199907066
 21
122.5847492455
 31
0.0
  0
LINE
  5
396
330
21D
100
AcDbEntity
  8
0
  6
Continuous
 62
     7
100
AcDbLine
 10
262.7040711749
 20
112.9008859472
 30
0.0
 11
255.5767050902
 21
97.95805220390001
 31
0.0
  0
LINE
  5
397
330
21D
100
AcDbEntity
  8
0
  6
Continuous
 62
     7
100
AcDbLine
 10
106.4460090701
 20
207.7242847402
 30
0.0
 11
107.8198529412
 21
207.8444805044
 31
0.0
  0
LINE
  5
398
330
21D
100
AcDbEntity
  8
0
  6
Continuous
 62
     7
100
AcDbLine
 10
89.78399748639999
 20
207.578877568
 30
0.0
 11
92.81985294120001
 21
207.8444805044
 31
0.0
  0
LINE
  5
399
330
21D
100
AcDbEntity
  8
0
  6
Continuous
 62
     7
100
AcDbLine
 10
69.3130326254
 20
207.4002301641
 30
0.0
 11
77.8198529412
 21
208.1444805044
 31
0.0
  0
LINE
  5
39A
330
21D
100
AcDbEntity
  8
0
  6
Continuous
 62
     7
100
AcDbLine
 10
62.29492096
 20
214.5435093647
 30
0.0
 11
338.3447849223
 21
214.5435093647
 31
0.0
  0
LINE
  5
39B
330
21D
100
AcDbEntity
  8
0
  6
Continuous
 62
     7
100
AcDbLine
 10
77.8120763695
 20
215.5435093647
 30
0.0
 11
94.1105401105
 21
215.5435093647
 31
0.0
  0
LINE
  5
39C
330
21D
100
AcDbEntity
  8
0
  6
Continuous
 62
     9
100
AcDbLine
 10
95.7631447954
 20
215.5435093647
 30
0.0
 11
114.665257828
 21
215.5435093647
 31
0.0
  0
LINE
  5
39D
330
21D
100
AcDbEntity
  8
0
  6
Continuous
 62
     7
100
AcDbLine
 10
129.9995597968
 20
215.5435093647
 30
0.0
 11
148.5979998293
 21
215.5435093647
 31
0.0
  0
LINE
  5
39E
330
21D
100
AcDbEntity
  8
0
  6
Continuous
 62
     9
100
AcDbLine
 10
191.8198529412
 20
215.5435093647
 30
0.0
 11
208.8198529412
 21
215.5435093647
 31
0.0
  0
LINE
  5
39F
330
21D
100
AcDbEntity
  8
0
  6
Continuous
 62
     7
100
AcDbLine
 10
229.6113391997
 20
215.5435093647
 30
0.0
 11
256.4909329558
 21
215.5435093647
 31
0.0
  0
LINE
  5
3A0
330
21D
100
AcDbEntity
  8
0
  6
Continuous
 62
     9
100
AcDbLine
 10
285.9744480544
 20
215.5435093647
 30
0.0
 11
304.876561087
 21
215.5435093647
 31
0.0
  0
LINE
  5
3A1
330
21D
100
AcDbEntity
  8
02___PRT_ALL_AXES
  6
Continuous
 62
     7
100
AcDbLine
 10
95.76296166949999
 20
216.5435093647
 30
0.0
 11
114.6654409538
 21
216.5435093647
 31
0.0
  0
LINE
  5
3A2
330
21D
100
AcDbEntity
  8
02___PRT_ALL_AXES
  6
Continuous
 62
     7
100
AcDbLine
 10
191.8198529412
 20
216.5435093647
 30
0.0
 11
208.8198529412
 21
216.5435093647
 31
0.0
  0
LINE
  5
3A3
330
21D
100
AcDbEntity
  8
02___PRT_ALL_AXES
  6
Continuous
 62
     7
100
AcDbLine
 10
285.9742649285
 20
216.5435093647
 30
0.0
 11
304.8767442129
 21
216.5435093647
 31
0.0
  0
LINE
  5
3A4
330
21D
100
AcDbEntity
  8
0
  6
Continuous
 62
     7
100
AcDbLine
 10
97.21420131169999
 20
218.1435093647
 30
0.0
 11
113.2142013117
 21
218.1435093647
 31
0.0
  0
LINE
  5
3A5
330
21D
100
AcDbEntity
  8
0
  6
Continuous
 62
     7
100
AcDbLine
 10
192.3198529412
 20
218.1435093647
 30
0.0
 11
208.3198529412
 21
218.1435093647
 31
0.0
  0
LINE
  5
3A6
330
21D
100
AcDbEntity
  8
0
  6
Continuous
 62
     7
100
AcDbLine
 10
287.4255045707
 20
218.1435093647
 30
0.0
 11
303.4255045707
 21
218.1435093647
 31
0.0
  0
LINE
  5
3A7
330
21D
100
AcDbEntity
  8
0
  6
Continuous
 62
     7
100
AcDbLine
 10
98.71420131169999
 20
218.2935093647
 30
0.0
 11
111.7142013117
 21
218.2935093647
 31
0.0
  0
LINE
  5
3A8
330
21D
100
AcDbEntity
  8
0
  6
Continuous
 62
     7
100
AcDbLine
 10
193.8198529412
 20
218.2935093647
 30
0.0
 11
206.8198529412
 21
218.2935093647
 31
0.0
  0
LINE
  5
3A9
330
21D
100
AcDbEntity
  8
0
  6
Continuous
 62
     7
100
AcDbLine
 10
288.9255045707
 20
218.2935093647
 30
0.0
 11
301.9255045707
 21
218.2935093647
 31
0.0
  0
LINE
  5
3AA
330
21D
100
AcDbEntity
  8
0
  6
Continuous
 62
     7
100
AcDbLine
 10
97.21420131169999
 20
218.919726787
 30
0.0
 11
113.2142013117
 21
218.919726787
 31
0.0
  0
LINE
  5
3AB
330
21D
100
AcDbEntity
  8
0
  6
Continuous
 62
     7
100
AcDbLine
 10
192.3198529412
 20
218.919726787
 30
0.0
 11
208.3198529412
 21
218.919726787
 31
0.0
  0
LINE
  5
3AC
330
21D
100
AcDbEntity
  8
0
  6
Continuous
 62
     7
100
AcDbLine
 10
287.4255045707
 20
218.919726787
 30
0.0
 11
303.4255045707
 21
218.919726787
 31
0.0
  0
LINE
  5
3AD
330
21D
100
AcDbEntity
  8
0
  6
Continuous
 62
     7
100
AcDbLine
 10
292.8198529412
 20
207.8444805044
 30
0.0
 11
294.1936968123
 21
207.7242847402
 31
0.0
  0
LINE
  5
3AE
330
21D
100
AcDbEntity
  8
0
  6
Continuous
 62
     7
100
AcDbLine
 10
310.8557083959
 20
207.578877568
 30
0.0
 11
307.8198529412
 21
207.8444805044
 31
0.0
  0
LINE
  5
3AF
330
21D
100
AcDbEntity
  8
0
  6
Continuous
 62
     7
100
AcDbLine
 10
331.326673257
 20
207.4002301641
 30
0.0
 11
322.8198529412
 21
208.1444805044
 31
0.0
  0
LINE
  5
3B0
330
21D
100
AcDbEntity
  8
0
  6
Continuous
 62
     7
100
AcDbLine
 10
277.3198529412
 20
214.5435093647
 30
0.0
 11
277.7835276518
 21
207.8674941169
 31
0.0
  0
LINE
  5
3B1
330
21D
100
AcDbEntity
  8
0
  6
Continuous
 62
     7
100
AcDbLine
 10
285.9744480544
 20
215.5435093647
 30
0.0
 11
285.9744480544
 21
216.5435093647
 31
0.0
  0
LINE
  5
3B2
330
21D
100
AcDbEntity
  8
0
  6
Continuous
 62
     7
100
AcDbLine
 10
277.1531701704
 20
186.9522126802
 30
0.0
 11
277.4802417418
 21
196.3183170408
 31
0.0
  0
LINE
  5
3B3
330
21D
100
AcDbEntity
  8
0
  6
Continuous
 62
     7
100
AcDbLine
 10
97.21420131169999
 20
228.919726787
 30
0.0
 11
113.2142013117
 21
228.919726787
 31
0.0
  0
LINE
  5
3B4
330
21D
100
AcDbEntity
  8
0
  6
Continuous
 62
     7
100
AcDbLine
 10
192.3198529412
 20
228.919726787
 30
0.0
 11
208.3198529412
 21
228.919726787
 31
0.0
  0
LINE
  5
3B5
330
21D
100
AcDbEntity
  8
0
  6
Continuous
 62
     7
100
AcDbLine
 10
287.4255045707
 20
228.919726787
 30
0.0
 11
303.4255045707
 21
228.919726787
 31
0.0
  0
LINE
  5
3B6
330
21D
100
AcDbEntity
  8
0
  6
Continuous
 62
     7
100
AcDbLine
 10
287.4255045707
 20
216.5435093647
 30
0.0
 11
287.4255045707
 21
218.1435093647
 31
0.0
  0
LINE
  5
3B7
330
21D
100
AcDbEntity
  8
0
  6
Continuous
 62
     7
100
AcDbLine
 10
287.4255045707
 20
218.919726787
 30
0.0
 11
287.4255045707
 21
228.919726787
 31
0.0
  0
LINE
  5
3B8
330
21D
100
AcDbEntity
  8
0
  6
Continuous
 62
     7
100
AcDbLine
 10
288.4255045707
 20
228.919726787
 30
0.0
 11
288.4255045707
 21
236.919726787
 31
0.0
  0
LINE
  5
3B9
330
21D
100
AcDbEntity
  8
0
  6
Continuous
 62
     7
100
AcDbLine
 10
288.9255045707
 20
218.919726787
 30
0.0
 11
288.9255045707
 21
218.2935093647
 31
0.0
  0
LINE
  5
3BA
330
21D
100
AcDbEntity
  8
0
  6
Continuous
 62
     7
100
AcDbLine
 10
289.6255045707
 20
218.2935093647
 30
0.0
 11
289.6255045707
 21
218.1435093647
 31
0.0
  0
LINE
  5
3BC
330
21D
100
AcDbEntity
  8
0
  6
Continuous
 62
     7
100
AcDbLine
 10
291.4255045707
 20
207.0715140394
 30
0.0
 11
291.4255045707
 21
207.7151407784
 31
0.0
  0
LINE
  5
3BD
330
21D
100
AcDbEntity
  8
0
  6
Continuous
 62
     2
100
AcDbLine
 10
292.2255045707
 20
207.7096699583
 30
0.0
 11
292.2255045707
 21
207.0575499875
 31
0.0
  0
LINE
  5
3BE
330
21D
100
AcDbEntity
  8
0
  6
Continuous
 62
     9
100
AcDbLine
 10
297.1010925066
 20
215.5435093647
 30
0.0
 11
297.1010925066
 21
216.5435093647
 31
0.0
  0
LINE
  5
3C0
330
21D
100
AcDbEntity
  8
0
  6
Continuous
 62
     7
100
AcDbLine
 10
98.2142013117
 20
236.919726787
 30
0.0
 11
112.2142013117
 21
236.919726787
 31
0.0
  0
LINE
  5
3C1
330
21D
100
AcDbEntity
  8
0
  6
Continuous
 62
     7
100
AcDbLine
 10
193.3198529412
 20
236.919726787
 30
0.0
 11
207.3198529412
 21
236.919726787
 31
0.0
  0
LINE
  5
3C2
330
21D
100
AcDbEntity
  8
0
  6
Continuous
 62
     7
100
AcDbLine
 10
288.4255045707
 20
236.919726787
 30
0.0
 11
302.4255045707
 21
236.919726787
 31
0.0
  0
LINE
  5
3C3
330
21D
100
AcDbEntity
  8
0
  6
Continuous
 62
     2
100
AcDbLine
 10
298.6255045707
 20
207.6543552763
 30
0.0
 11
298.6255045707
 21
206.9458375719
 31
0.0
  0
LINE
  5
3C4
330
21D
100
AcDbEntity
  8
0
  6
Continuous
 62
     9
100
AcDbLine
 10
299.0032055392
 20
215.5435093647
 30
0.0
 11
299.0032055392
 21
216.5435093647
 31
0.0
  0
LINE
  5
3C5
330
21D
100
AcDbEntity
  8
0
  6
Continuous
 62
     7
100
AcDbLine
 10
299.4255045707
 20
206.93187352
 30
0.0
 11
299.4255045707
 21
207.6465031222
 31
0.0
  0
LINE
  5
3C6
330
21D
100
AcDbEntity
  8
0
  6
Continuous
 62
     7
100
AcDbLine
 10
301.2255045707
 20
218.2935093647
 30
0.0
 11
301.2255045707
 21
218.1435093647
 31
0.0
  0
LINE
  5
3C7
330
21D
100
AcDbEntity
  8
0
  6
Continuous
 62
     7
100
AcDbLine
 10
301.9255045707
 20
218.2935093647
 30
0.0
 11
301.9255045707
 21
218.919726787
 31
0.0
  0
LINE
  5
3C8
330
21D
100
AcDbEntity
  8
0
  6
Continuous
 62
     7
100
AcDbLine
 10
302.4255045707
 20
228.919726787
 30
0.0
 11
302.4255045707
 21
236.919726787
 31
0.0
  0
LINE
  5
3C9
330
21D
100
AcDbEntity
  8
0
  6
Continuous
 62
     7
100
AcDbLine
 10
303.4255045707
 20
216.5435093647
 30
0.0
 11
303.4255045707
 21
218.1435093647
 31
0.0
  0
LINE
  5
3CA
330
21D
100
AcDbEntity
  8
0
  6
Continuous
 62
     7
100
AcDbLine
 10
303.4255045707
 20
218.919726787
 30
0.0
 11
303.4255045707
 21
228.919726787
 31
0.0
  0
LINE
  5
3CB
330
21D
100
AcDbEntity
  8
0
  6
Continuous
 62
     7
100
AcDbLine
 10
304.876561087
 20
215.5435093647
 30
0.0
 11
304.876561087
 21
216.5435093647
 31
0.0
  0
LINE
  5
3CC
330
21D
100
AcDbEntity
  8
0
  6
Continuous
 62
     7
100
AcDbLine
 10
338.3447849223
 20
214.5435093647
 30
0.0
 11
337.9566493283001
 21
210.1070992247
 31
0.0
  0
LINE
  5
3CD
330
21D
100
AcDbEntity
  8
0
  6
Continuous
 62
     7
100
AcDbLine
 10
350.3198529412001
 20
202.9918231066
 30
0.0
 11
350.3198529412001
 21
204.0781148385
 31
0.0
  0
LINE
  5
3CE
330
21D
100
AcDbEntity
  8
0
  6
Continuous
 62
     7
100
AcDbLine
 10
355.3198529412
 20
60.5435093647
 30
0.0
 11
355.3198529412
 21
118.5435093647
 31
0.0
  0
ARC
  5
3CF
330
21D
100
AcDbEntity
  8
RUNDUNGEN
  6
Continuous
 62
     9
100
AcDbCircle
 10
-585.0178790885999
 20
451.0580728026
 30
0.0
 40
815.9395303863998
100
AcDbArc
 50
340.921118196
 51
341.1836075405
  0
ARC
  5
3D0
330
21D
100
AcDbEntity
  8
RUNDUNGEN
  6
Continuous
 62
     9
100
AcDbCircle
 10
-487.3954563550999
 20
420.7901857843999
 30
0.0
 40
714.8333501617998
100
AcDbArc
 50
340.5943365938
 51
340.9201714055
  0
ARC
  5
3D1
330
21D
100
AcDbEntity
  8
0
  6
Continuous
 62
     7
100
AcDbCircle
 10
65.6716406483
 20
210.3685664529
 30
0.0
 40
3.0
100
AcDbArc
 50
185.0
 51
270.5
  0
ARC
  5
3D2
330
21D
100
AcDbEntity
  8
0
  6
Continuous
 62
     7
100
AcDbCircle
 10
52.3198529412
 20
202.9918231066
 30
0.0
 40
2.0
100
AcDbArc
 50
180.0
 51
268.5
  0
ARC
  5
3D3
330
21D
100
AcDbEntity
  8
0
  6
Continuous
 62
     7
100
AcDbCircle
 10
52.3198529412
 20
204.0781148385
 30
0.0
 40
2.0
100
AcDbArc
 50
91.0
 51
180.0
  0
ARC
  5
3D4
330
21D
100
AcDbEntity
  8
0
  6
Continuous
 62
     7
100
AcDbCircle
 10
115.665257828
 20
215.5435093647
 30
0.0
 40
1.0
100
AcDbArc
 50
180.0
 51
269.9988810851
  0
ARC
  5
3D5
330
21D
100
AcDbEntity
  8
0
  6
Continuous
 62
     7
100
AcDbCircle
 10
94.7631447954
 20
215.5435093647
 30
0.0
 40
1.0
100
AcDbArc
 50
270.0011189149
 51
360.0
  0
ARC
  5
3D6
330
21D
100
AcDbEntity
  8
0
  6
Continuous
 62
     7
100
AcDbCircle
 10
164.8198529412
 20
70.5435093647
 30
0.0
 40
10.0
100
AcDbArc
 50
180.0
 51
270.0
  0
ARC
  5
3D7
330
21D
100
AcDbEntity
  8
0
  6
Continuous
 62
     7
100
AcDbCircle
 10
164.8198529412
 20
70.5435093647
 30
0.0
 40
4.5
100
AcDbArc
 50
180.0
 51
270.0
  0
ARC
  5
3D8
330
21D
100
AcDbEntity
  8
0
  6
Continuous
 62
     7
100
AcDbCircle
 10
151.8198529412
 20
94.0811696219
 30
0.0
 40
3.0
100
AcDbArc
 50
0.0
 51
87.0
  0
ARC
  5
3D9
330
21D
100
AcDbEntity
  8
0
  6
Continuous
 62
     7
100
AcDbCircle
 10
147.2592272311
 20
100.3284159635
 30
0.0
 40
3.0
100
AcDbArc
 50
205.5
 51
267.0
  0
ARC
  5
3DA
330
21D
100
AcDbEntity
  8
0
  6
Continuous
 62
     7
100
AcDbCircle
 10
133.7762024232
 20
128.5961653209
 30
0.0
 40
3.0
100
AcDbArc
 50
182.0
 51
205.5000000003
  0
ARC
  5
3DB
330
21D
100
AcDbEntity
  8
0
  6
Continuous
 62
     7
100
AcDbCircle
 10
139.5676638932
 20
129.229626582
 30
0.0
 40
3.0
100
AcDbArc
 50
180.1848308864
 51
205.5
  0
ARC
  5
3DC
330
21D
100
AcDbEntity
  8
0
  6
Continuous
 62
     7
100
AcDbCircle
 10
161.3199384713
 20
88.02670951139999
 30
0.0
 40
1.0000793453
100
AcDbArc
 50
90.00468326549999
 51
180.004471625
  0
ARC
  5
3DD
330
21D
100
AcDbEntity
  8
0
  6
Continuous
 62
     7
100
AcDbCircle
 10
169.319775964
 20
90.02685005120001
 30
0.0
 40
1.0000717954
100
AcDbArc
 50
270.0046953533
 51
0.0049201095
  0
ARC
  5
3DE
330
21D
100
AcDbEntity
  8
0
  6
Continuous
 62
     7
100
AcDbCircle
 10
146.9577408117
 20
109.0903671269
 30
0.0
 40
1.0
100
AcDbArc
 50
205.5
 51
267.0
  0
ARC
  5
3DF
330
21D
100
AcDbEntity
  8
0
  6
Continuous
 62
     7
100
AcDbCircle
 10
163.8198529412
 20
96.2403939726
 30
0.0
 40
1.0
100
AcDbArc
 50
180.0
 51
269.0
  0
ARC
  5
3E0
330
21D
100
AcDbEntity
  8
0
  6
Continuous
 62
     7
100
AcDbCircle
 10
169.3198529412
 20
94.1440864594
 30
0.0
 40
1.0
100
AcDbArc
 50
0.0
 51
89.0
  0
ARC
  5
3E1
330
21D
100
AcDbEntity
  8
0
  6
Continuous
 62
     7
100
AcDbCircle
 10
161.8198529412
 20
106.3087321428
 30
0.0
 40
1.0
100
AcDbArc
 50
0.0
 51
87.0
  0
ARC
  5
3E2
330
21D
100
AcDbEntity
  8
0
  6
Continuous
 62
     7
100
AcDbCircle
 10
124.380112968
 20
168.4352985637
 30
0.0
 40
4.9999999942
100
AcDbArc
 50
1.9999989338
 51
26.0948092794
  0
ARC
  5
3E3
330
21D
100
AcDbEntity
  8
0
  6
Continuous
 62
     7
100
AcDbCircle
 10
133.2221096732
 20
173.1170173824
 30
0.0
 40
4.999999985499999
100
AcDbArc
 50
182.0000432396
 51
206.0948880702
  0
ARC
  5
3E4
330
21D
100
AcDbEntity
  8
0
  6
Continuous
 62
     7
100
AcDbCircle
 10
124.9328363724
 20
181.2610769894
 30
0.0
 40
3.0
100
AcDbArc
 50
2.0
 51
75.0103055781
  0
ARC
  5
3E5
330
21D
100
AcDbEntity
  8
0
  6
Continuous
 62
     7
100
AcDbCircle
 10
126.4847081931
 20
187.0569111703
 30
0.0
 40
3.0
100
AcDbArc
 50
182.0
 51
255.0103055782
  0
ARC
  5
3E6
330
21D
100
AcDbEntity
  8
0
  6
Continuous
 62
     7
100
AcDbCircle
 10
120.1612916595
 20
196.2136185507
 30
0.0
 40
3.0
100
AcDbArc
 50
2.0
 51
88.49999999999999
  0
ARC
  5
3E7
330
21D
100
AcDbEntity
  8
0
  6
Continuous
 62
     7
100
AcDbCircle
 10
135.3182880034
 20
206.5270102395
 30
0.0
 40
1.0
100
AcDbArc
 50
0.1848308864
 51
89.98507056059999
  0
ARC
  5
3E8
330
21D
100
AcDbEntity
  8
0
  6
Continuous
 62
     7
100
AcDbCircle
 10
130.3198529412
 20
198.9386266471
 30
0.0
 40
1.0
100
AcDbArc
 50
91.0
 51
180.0
  0
ARC
  5
3E9
330
21D
100
AcDbEntity
  8
0
  6
Continuous
 62
     7
100
AcDbCircle
 10
135.3198529412
 20
201.0262066278
 30
0.0
 40
1.0
100
AcDbArc
 50
271.0
 51
360.0
  0
ARC
  5
3EA
330
21D
100
AcDbEntity
  8
0
  6
Continuous
 62
     7
100
AcDbCircle
 10
135.3786500891
 20
187.8154148846
 30
0.0
 40
1.0
100
AcDbArc
 50
0.1848308864
 51
89.0
  0
ARC
  5
3EB
330
21D
100
AcDbEntity
  8
0
  6
Continuous
 62
     7
100
AcDbCircle
 10
130.3198529412
 20
189.9040211733
 30
0.0
 40
1.0
100
AcDbArc
 50
180.0
 51
269.0
  0
ARC
  5
3EC
330
21D
100
AcDbEntity
  8
RUNDUNGEN
  6
Continuous
 62
     9
100
AcDbCircle
 10
185.1605047742
 20
206.5913008308
 30
0.0
 40
0.9355925034999998
100
AcDbArc
 50
83.8074529926
 51
86.60352783440002
  0
ARC
  5
3ED
330
21D
100
AcDbEntity
  8
RUNDUNGEN
  6
Continuous
 62
     9
100
AcDbCircle
 10
92.22388009099999
 20
2714.490491195
 30
0.0
 40
2623.9811656368
100
AcDbArc
 50
273.4257442517
 51
273.5766161005
  0
ARC
  5
3EE
330
21D
100
AcDbEntity
  8
0
  6
Continuous
 62
     7
100
AcDbCircle
 10
266.8635034592
 20
128.5961653209
 30
0.0
 40
3.0
100
AcDbArc
 50
334.4999999997
 51
358.0
  0
ARC
  5
3EF
330
21D
100
AcDbEntity
  8
0
  6
Continuous
 62
     7
100
AcDbCircle
 10
261.0720419892
 20
129.229626582
 30
0.0
 40
3.0
100
AcDbArc
 50
334.5
 51
359.8151691136
  0
ARC
  5
3F0
330
21D
100
AcDbEntity
  8
RUNDUNGEN
  6
Continuous
 62
     9
100
AcDbCircle
 10
255.8919685395
 20
96.94938478520001
 30
0.0
 40
2.1786711726
100
AcDbArc
 50
312.7806857454
 51
334.5150297927
  0
ARC
  5
3F1
330
21D
100
AcDbEntity
  8
RUNDUNGEN
  6
Continuous
 62
     9
100
AcDbCircle
 10
188.0365246147
 20
130.2187095976
 30
0.0
 40
1.9672248004
100
AcDbArc
 50
268.9360364919
 51
269.9998672019
  0
ARC
  5
3F2
330
21D
100
AcDbEntity
  8
RUNDUNGEN
  6
Continuous
 62
     9
100
AcDbCircle
 10
212.6031840596
 20
130.2184089388999
 30
0.0
 40
1.966924141699999
100
AcDbArc
 50
270.0000514962
 51
271.0640448181
  0
ARC
  5
3F3
330
21D
100
AcDbEntity
  8
RUNDUNGEN
  6
Continuous
 62
     9
100
AcDbCircle
 10
248.7192759635
 20
94.17661360990001
 30
0.0
 40
1.001848384999999
100
AcDbArc
 50
93.17417737049998
 51
179.8258226295
  0
ARC
  5
3F4
330
21D
100
AcDbEntity
  8
0
  6
Continuous
 62
     7
100
AcDbCircle
 10
246.8244166236
 20
95.97476935420001
 30
0.0
 40
1.001810212699999
100
AcDbArc
 50
93.02434743479999
 51
179.9757352409
  0
ARC
  5
3F5
330
21D
100
AcDbEntity
  8
RUNDUNGEN
  6
Continuous
 62
     9
100
AcDbCircle
 10
264.0533148708
 20
112.0878924444
 30
0.0
 40
1.001401269899999
100
AcDbArc
 50
77.07199779689999
 51
154.4003960297
  0
ARC
  5
3F6
330
21D
100
AcDbEntity
  8
0
  6
Continuous
 62
     7
100
AcDbCircle
 10
263.6066611598
 20
112.4703656619
 30
0.0
 40
1.000008297599999
100
AcDbArc
 50
80.41577310550001
 51
154.4996407751
  0
ARC
  5
3F7
330
21D
100
AcDbEntity
  8
0
  6
Continuous
 62
     7
100
AcDbCircle
 10
231.3198529411
 20
90.02647908230001
 30
0.0
 40
1.000000005299999
100
AcDbArc
 50
180.0000077795
 51
269.9999962625
  0
ARC
  5
3F8
330
21D
100
AcDbEntity
  8
0
  6
Continuous
 62
     7
100
AcDbCircle
 10
253.6819650706
 20
109.0903671269
 30
0.0
 40
1.0
100
AcDbArc
 50
273.0
 51
334.5
  0
ARC
  5
3F9
330
21D
100
AcDbEntity
  8
0
  6
Continuous
 62
     7
100
AcDbCircle
 10
236.8198529412
 20
96.2403939726
 30
0.0
 40
1.0
100
AcDbArc
 50
271.0
 51
360.0
  0
ARC
  5
3FA
330
21D
100
AcDbEntity
  8
0
  6
Continuous
 62
     7
100
AcDbCircle
 10
231.3198529412
 20
94.1440864594
 30
0.0
 40
1.0
100
AcDbArc
 50
91.0
 51
180.0
  0
ARC
  5
3FB
330
21D
100
AcDbEntity
  8
0
  6
Continuous
 62
     7
100
AcDbCircle
 10
238.8198529412
 20
106.3087321428
 30
0.0
 40
1.0
100
AcDbArc
 50
93.0
 51
180.0
  0
ARC
  5
3FC
330
21D
100
AcDbEntity
  8
0
  6
Continuous
 62
     7
100
AcDbCircle
 10
254.6782898175
 20
98.3861144393
 30
0.0
 40
0.9951771439999999
100
AcDbArc
 50
272.9757671082
 51
334.5238969963
  0
ARC
  5
3FD
330
21D
100
AcDbEntity
  8
RUNDUNGEN
  6
Continuous
 62
     9
100
AcDbCircle
 10
188.2671774987
 20
130.4017746619
 30
0.0
 40
0.9596333785999998
100
AcDbArc
 50
268.9443673231
 51
270.0199298134
  0
ARC
  5
3FE
330
21D
100
AcDbEntity
  8
RUNDUNGEN
  6
Continuous
 62
     9
100
AcDbCircle
 10
212.3725237463
 20
130.4016464039
 30
0.0
 40
0.9595050409999998
100
AcDbArc
 50
269.980344457
 51
271.0560506773
  0
ARC
  5
3FF
330
21D
100
AcDbEntity
  8
RUNDUNGEN
  6
Continuous
 62
     9
100
AcDbCircle
 10
201.9913942865
 20
167.9330148993
 30
0.0
 40
34.2972594892
100
AcDbArc
 50
295.6811028132
 51
297.4588633608
  0
ARC
  5
400
330
21D
100
AcDbEntity
  8
RUNDUNGEN
  6
Continuous
 62
     9
100
AcDbCircle
 10
198.229340922
 20
167.0952539032
 30
0.0
 40
33.3606897729
100
AcDbArc
 50
242.5161801289
 51
244.3438539346
  0
ARC
  5
401
330
21D
100
AcDbEntity
  8
0
  6
Continuous
 62
     7
100
AcDbCircle
 10
267.4175968352
 20
173.1170388454
 30
0.0
 40
5.000000016399999
100
AcDbArc
 50
333.9051591063
 51
358.0000019780001
  0
ARC
  5
402
330
21D
100
AcDbEntity
  8
0
  6
Continuous
 62
     7
100
AcDbCircle
 10
209.8198529412
 20
215.5435093647
 30
0.0
 40
1.0
100
AcDbArc
 50
180.0
 51
258.7504608997
  0
ARC
  5
403
330
21D
100
AcDbEntity
  8
0
  6
Continuous
 62
     7
100
AcDbCircle
 10
190.8198529412
 20
215.5435093647
 30
0.0
 40
1.0
100
AcDbArc
 50
281.2495330492
 51
360.0
  0
ARC
  5
404
330
21D
100
AcDbEntity
  8
0
  6
Continuous
 62
     7
100
AcDbCircle
 10
265.321417879
 20
206.5270102395
 30
0.0
 40
1.0
100
AcDbArc
 50
90.01492944129999
 51
179.8151691136
  0
ARC
  5
405
330
21D
100
AcDbEntity
  8
0
  6
Continuous
 62
     7
100
AcDbCircle
 10
265.3198529412
 20
201.0262066278
 30
0.0
 40
1.0
100
AcDbArc
 50
180.0
 51
269.0
  0
ARC
  5
406
330
21D
100
AcDbEntity
  8
0
  6
Continuous
 62
     7
100
AcDbCircle
 10
265.2610557933
 20
187.8154148846
 30
0.0
 40
1.0
100
AcDbArc
 50
91.0
 51
179.8151691136
  0
ARC
  5
407
330
21D
100
AcDbEntity
  8
RUNDUNGEN
  6
Continuous
 62
     9
100
AcDbCircle
 10
186.8627826201
 20
206.4880012665
 30
0.0
 40
0.9367766787
100
AcDbArc
 50
77.09918158479999
 51
85.5730036531
  0
ARC
  5
408
330
21D
100
AcDbEntity
  8
RUNDUNGEN
  6
Continuous
 62
     9
100
AcDbCircle
 10
215.4792011183
 20
206.5913007676
 30
0.0
 40
0.9355925668000001
100
AcDbArc
 50
93.3964727112
 51
96.19262978770001
  0
ARC
  5
409
330
21D
100
AcDbEntity
  8
RUNDUNGEN
  6
Continuous
 62
     9
100
AcDbCircle
 10
186.8629495716
 20
206.4897603735
 30
0.0
 40
0.9350099337999999
100
AcDbArc
 50
85.57488306239999
 51
86.51875933620001
  0
ARC
  5
40A
330
21D
100
AcDbEntity
  8
0
  6
Continuous
 62
     7
100
AcDbCircle
 10
270.0277460519
 20
121.293215014
 30
0.0
 40
2.999999998099999
100
AcDbArc
 50
154.499979578
 51
266.3503804701
  0
ARC
  5
40B
330
21D
100
AcDbEntity
  8
0
  6
Continuous
 62
     7
100
AcDbCircle
 10
276.2595934939
 20
168.4353200106
 30
0.0
 40
4.9999999831
100
AcDbArc
 50
153.9050752724
 51
177.9999476387
  0
ARC
  5
40C
330
21D
100
AcDbEntity
  8
0
  6
Continuous
 62
     7
100
AcDbCircle
 10
334.9680652341
 20
210.3685664529
 30
0.0
 40
3.0
100
AcDbArc
 50
270.0137843366
 51
355.0
  0
ARC
  5
40D
330
21D
100
AcDbEntity
  8
0
  6
Continuous
 62
     7
100
AcDbCircle
 10
275.7068695099
 20
181.2610769894
 30
0.0
 40
3.0
100
AcDbArc
 50
104.9896944219
 51
178.0
  0
ARC
  5
40E
330
21D
100
AcDbEntity
  8
0
  6
Continuous
 62
     7
100
AcDbCircle
 10
274.1549976893
 20
187.0569111703
 30
0.0
 40
3.0
100
AcDbArc
 50
284.9896944218
 51
358.0
  0
ARC
  5
40F
330
21D
100
AcDbEntity
  8
0
  6
Continuous
 62
     7
100
AcDbCircle
 10
280.4784142228
 20
196.2136185507
 30
0.0
 40
3.0
100
AcDbArc
 50
91.5
 51
178.0
  0
ARC
  5
410
330
21D
100
AcDbEntity
  8
0
  6
Continuous
 62
     7
100
AcDbCircle
 10
348.3198529412001
 20
202.9918231066
 30
0.0
 40
2.0
100
AcDbArc
 50
271.5
 51
360.0
  0
ARC
  5
411
330
21D
100
AcDbEntity
  8
0
  6
Continuous
 62
     7
100
AcDbCircle
 10
348.3198529412001
 20
204.0781148385
 30
0.0
 40
2.0
100
AcDbArc
 50
0.0
 51
89.0
  0
ARC
  5
412
330
21D
100
AcDbEntity
  8
0
  6
Continuous
 62
     7
100
AcDbCircle
 10
284.9744480544
 20
215.5435093647
 30
0.0
 40
1.0
100
AcDbArc
 50
270.0000413079
 51
360.0
  0
ARC
  5
413
330
21D
100
AcDbEntity
  8
0
  6
Continuous
 62
     7
100
AcDbCircle
 10
305.876561087
 20
215.5435093647
 30
0.0
 40
1.0
100
AcDbArc
 50
180.0
 51
269.9999586921
  0
ARC
  5
414
330
21D
100
AcDbEntity
  8
0
  6
Continuous
 62
     7
100
AcDbCircle
 10
270.3198529412
 20
198.9386266471
 30
0.0
 40
1.0
100
AcDbArc
 50
0.0
 51
89.0
  0
ARC
  5
415
330
21D
100
AcDbEntity
  8
0
  6
Continuous
 62
     7
100
AcDbCircle
 10
270.3198529412
 20
189.9040211733
 30
0.0
 40
1.0
100
AcDbArc
 50
271.0
 51
360.0
  0
ARC
  5
416
330
21D
100
AcDbEntity
  8
RUNDUNGEN
  6
Continuous
 62
     9
100
AcDbCircle
 10
957.51482096
 20
441.3965021984999
 30
0.0
 40
786.1845931266
100
AcDbArc
 50
198.8114252005
 51
199.083849067
  0
ARC
  5
417
330
21D
100
AcDbEntity
  8
RUNDUNGEN
  6
Continuous
 62
     9
100
AcDbCircle
 10
879.460429438
 20
417.7969731037999
 30
0.0
 40
705.7512419677
100
AcDbArc
 50
199.0777320605
 51
199.4077599575
  0
ARC
  5
418
330
21D
100
AcDbEntity
  8
RUNDUNGEN
  6
Continuous
 62
     9
100
AcDbCircle
 10
217.9578985065
 20
9614.524877472101
 30
0.0
 40
9527.179286385202
100
AcDbArc
 50
270.0142043968
 51
270.1738691319
  0
ARC
  5
419
330
21D
100
AcDbEntity
  8
RUNDUNGEN
  6
Continuous
 62
     9
100
AcDbCircle
 10
218.1938027384
 20
9105.3534778199
 30
0.0
 40
9017.007996895801
100
AcDbArc
 50
270.013509084
 51
270.1813208881
  0
SPLINE
  5
41A
330
21D
100
AcDbEntity
  8
0
  6
Continuous
 62
     7
100
AcDbSpline
210
0.0
220
0.0
230
1.0
 70
     8
 71
     3
 72
     9
 73
     5
 74
     0
 42
0.0000000001
 43
0.0000000001
 40
0.0
 40
0.0
 40
0.0
 40
0.0
 40
0.252146761
 40
1.0
 40
1.0
 40
1.0
 40
1.0
 10
206.3978139754
 20
218.9175915463
 30
0.0
 10
206.2686989533
 20
218.8506477508
 30
0.0
 10
205.7509681877
 20
218.5967581807
 30
0.0
 10
205.2052272721
 20
218.3957095877
 30
0.0
 10
204.7861485467
 20
218.2935093647
 30
0.0
  0
SPLINE
  5
41B
330
21D
100
AcDbEntity
  8
0
  6
Continuous
 62
     7
100
AcDbSpline
210
0.0
220
0.0
230
1.0
 70
     8
 71
     3
 72
     9
 73
     5
 74
     0
 42
0.0000000001
 43
0.0000000001
 40
0.0
 40
0.0
 40
0.0
 40
0.0
 40
0.252146761
 40
1.0
 40
1.0
 40
1.0
 40
1.0
 10
199.8978139754
 20
218.9175915463
 30
0.0
 10
199.7686989533
 20
218.8506477508
 30
0.0
 10
199.2509681877
 20
218.5967581807
 30
0.0
 10
198.7052272721
 20
218.3957095877
 30
0.0
 10
198.2861485467
 20
218.2935093647
 30
0.0
  0
SPLINE
  5
41C
330
21D
100
AcDbEntity
  8
0
  6
Continuous
 62
     7
100
AcDbSpline
210
0.0
220
0.0
230
1.0
 70
     8
 71
     3
 72
     9
 73
     5
 74
     0
 42
0.0000000001
 43
0.0000000001
 40
0.0
 40
0.0
 40
0.0
 40
0.0
 40
0.2481774778
 40
1.0
 40
1.0
 40
1.0
 40
1.0
 10
195.8535573357
 20
218.2935093647
 30
0.0
 10
195.7144622967
 20
218.327430304
 30
0.0
 10
195.1591714995
 20
218.4854362567
 30
0.0
 10
194.6270342782
 20
218.7179075968
 30
0.0
 10
194.2419894888
 20
218.917540906
 30
0.0
  0
SPLINE
  5
41D
330
21D
100
AcDbEntity
  8
0
  6
Continuous
 62
     7
100
AcDbSpline
210
0.0
220
0.0
230
1.0
 70
     8
 71
     3
 72
     9
 73
     5
 74
     0
 42
0.0000000001
 43
0.0000000001
 40
0.0
 40
0.0
 40
0.0
 40
0.0
 40
0.2481774778
 40
1.0
 40
1.0
 40
1.0
 40
1.0
 10
202.3535573357
 20
218.2935093647
 30
0.0
 10
202.2144622967
 20
218.327430304
 30
0.0
 10
201.6591714995
 20
218.4854362567
 30
0.0
 10
201.1270342782
 20
218.7179075968
 30
0.0
 10
200.7419894888
 20
218.917540906
 30
0.0
  0
SPLINE
  5
41E
330
21D
100
AcDbEntity
  8
0
  6
Continuous
 62
     7
100
AcDbSpline
210
0.0
220
0.0
230
1.0
 70
     8
 71
     3
 72
     9
 73
     5
 74
     0
 42
0.0000000001
 43
0.0000000001
 40
0.0
 40
0.0
 40
0.0
 40
0.0
 40
0.252146761
 40
1.0
 40
1.0
 40
1.0
 40
1.0
 10
301.5034656049
 20
218.9175915463
 30
0.0
 10
301.3743505828
 20
218.8506477508
 30
0.0
 10
300.8566198172
 20
218.5967581807
 30
0.0
 10
300.3108789016
 20
218.3957095877
 30
0.0
 10
299.8918001762
 20
218.2935093647
 30
0.0
  0
SPLINE
  5
41F
330
21D
100
AcDbEntity
  8
0
  6
Continuous
 62
     7
100
AcDbSpline
210
0.0
220
0.0
230
1.0
 70
     8
 71
     3
 72
     9
 73
     5
 74
     0
 42
0.0000000001
 43
0.0000000001
 40
0.0
 40
0.0
 40
0.0
 40
0.0
 40
0.252146761
 40
1.0
 40
1.0
 40
1.0
 40
1.0
 10
295.0034656049
 20
218.9175915463
 30
0.0
 10
294.8743505828
 20
218.8506477508
 30
0.0
 10
294.3566198172
 20
218.5967581807
 30
0.0
 10
293.8108789016
 20
218.3957095877
 30
0.0
 10
293.3918001762
 20
218.2935093647
 30
0.0
  0
SPLINE
  5
420
330
21D
100
AcDbEntity
  8
0
  6
Continuous
 62
     7
100
AcDbSpline
210
0.0
220
0.0
230
1.0
 70
     8
 71
     3
 72
     9
 73
     5
 74
     0
 42
0.0000000001
 43
0.0000000001
 40
0.0
 40
0.0
 40
0.0
 40
0.0
 40
0.2481774778
 40
1.0
 40
1.0
 40
1.0
 40
1.0
 10
290.9592089652
 20
218.2935093647
 30
0.0
 10
290.8201139263
 20
218.327430304
 30
0.0
 10
290.2648231290001
 20
218.4854362567
 30
0.0
 10
289.7326859077
 20
218.7179075968
 30
0.0
 10
289.3476411183
 20
218.917540906
 30
0.0
  0
SPLINE
  5
421
330
21D
100
AcDbEntity
  8
0
  6
Continuous
 62
     7
100
AcDbSpline
210
0.0
220
0.0
230
1.0
 70
     8
 71
     3
 72
     9
 73
     5
 74
     0
 42
0.0000000001
 43
0.0000000001
 40
0.0
 40
0.0
 40
0.0
 40
0.0
 40
0.2481774778
 40
1.0
 40
1.0
 40
1.0
 40
1.0
 10
297.4592089652
 20
218.2935093647
 30
0.0
 10
297.3201139263
 20
218.327430304
 30
0.0
 10
296.764823129
 20
218.4854362567
 30
0.0
 10
296.2326859077
 20
218.7179075968
 30
0.0
 10
295.8476411183
 20
218.917540906
 30
0.0
  0
SPLINE
  5
422
330
21D
100
AcDbEntity
  8
0
  6
Continuous
 62
     7
100
AcDbSpline
210
0.0
220
0.0
230
1.0
 70
     8
 71
     3
 72
     9
 73
     5
 74
     0
 42
0.0000000001
 43
0.0000000001
 40
0.0
 40
0.0
 40
0.0
 40
0.0
 40
0.252146761
 40
1.0
 40
1.0
 40
1.0
 40
1.0
 10
111.2921623459
 20
218.9175915463
 30
0.0
 10
111.1630473238
 20
218.8506477508
 30
0.0
 10
110.6453165582
 20
218.5967581807
 30
0.0
 10
110.0995756426
 20
218.3957095877
 30
0.0
 10
109.6804969172
 20
218.2935093647
 30
0.0
  0
SPLINE
  5
423
330
21D
100
AcDbEntity
  8
0
  6
Continuous
 62
     7
100
AcDbSpline
210
0.0
220
0.0
230
1.0
 70
     8
 71
     3
 72
     9
 73
     5
 74
     0
 42
0.0000000001
 43
0.0000000001
 40
0.0
 40
0.0
 40
0.0
 40
0.0
 40
0.252146761
 40
1.0
 40
1.0
 40
1.0
 40
1.0
 10
104.7921623459
 20
218.9175915463
 30
0.0
 10
104.6630473238
 20
218.8506477508
 30
0.0
 10
104.1453165582
 20
218.5967581807
 30
0.0
 10
103.5995756426
 20
218.3957095877
 30
0.0
 10
103.1804969172
 20
218.2935093647
 30
0.0
  0
SPLINE
  5
424
330
21D
100
AcDbEntity
  8
0
  6
Continuous
 62
     7
100
AcDbSpline
210
0.0
220
0.0
230
1.0
 70
     8
 71
     3
 72
     9
 73
     5
 74
     0
 42
0.0000000001
 43
0.0000000001
 40
0.0
 40
0.0
 40
0.0
 40
0.0
 40
0.2481774778
 40
1.0
 40
1.0
 40
1.0
 40
1.0
 10
100.7479057061
 20
218.2935093647
 30
0.0
 10
100.6088106672
 20
218.327430304
 30
0.0
 10
100.05351987
 20
218.4854362567
 30
0.0
 10
99.52138264870001
 20
218.7179075968
 30
0.0
 10
99.1363378593
 20
218.917540906
 30
0.0
  0
SPLINE
  5
425
330
21D
100
AcDbEntity
  8
0
  6
Continuous
 62
     7
100
AcDbSpline
210
0.0
220
0.0
230
1.0
 70
     8
 71
     3
 72
     9
 73
     5
 74
     0
 42
0.0000000001
 43
0.0000000001
 40
0.0
 40
0.0
 40
0.0
 40
0.0
 40
0.2481774778
 40
1.0
 40
1.0
 40
1.0
 40
1.0
 10
107.2479057061
 20
218.2935093647
 30
0.0
 10
107.1088106672
 20
218.327430304
 30
0.0
 10
106.55351987
 20
218.4854362567
 30
0.0
 10
106.0213826487
 20
218.7179075968
 30
0.0
 10
105.6363378593
 20
218.917540906
 30
0.0
  0
LINE
  5
426
330
21D
100
AcDbEntity
  8
0
  6
Continuous
 62
     7
100
AcDbLine
 10
106.1652927533
 20
207.6920216431
 30
0.0
 11
106.9474794101
 21
207.6984647181
 31
0.0
  0
SPLINE
  5
427
330
21D
100
AcDbEntity
  8
0
  6
Continuous
 62
     7
100
AcDbSpline
210
0.0
220
0.0
230
1.0
 70
     8
 71
     3
 72
     9
 73
     5
 74
     0
 42
0.0000000001
 43
0.0000000001
 40
0.0
 40
0.0
 40
0.0
 40
0.0
 40
0.2588056283
 40
1.0
 40
1.0
 40
1.0
 40
1.0
 10
106.9474794101
 20
207.6984647181
 30
0.0
 10
107.0758218755
 20
207.6994977167
 30
0.0
 10
107.57172517
 20
207.7034415338
 30
0.0
 10
108.0676300038
 20
207.7071936935
 30
0.0
 10
108.4351928912
 20
207.7098318321
 30
0.0
  0
SPLINE
  5
428
330
21D
100
AcDbEntity
  8
0
  6
Continuous
 62
     7
100
AcDbSpline
210
0.0
220
0.0
230
1.0
 70
     8
 71
     3
 72
    18
 73
    14
 74
     0
 42
0.0000000001
 43
0.0000000001
 40
0.0
 40
0.0
 40
0.0
 40
0.0
 40
0.0043831359
 40
0.0168289184
 40
0.0374030662
 40
0.0660614345
 40
0.10274709
 40
0.1473995897
 40
0.260274839
 40
0.4034968207
 40
0.5755983961
 40
0.7750801653
 40
1.0
 40
1.0
 40
1.0
 40
1.0
 10
195.3198529412
 20
207.6784482779
 30
0.0
 10
195.3198529412
 20
207.6805894326
 30
0.0
 10
195.3322725186
 20
207.6803387555
 30
0.0
 10
195.3464106676
 20
207.6838415347
 30
0.0
 10
195.3787527059
 20
207.6848966513
 30
0.0
 10
195.4196757601
 20
207.6873577916
 30
0.0
 10
195.4737544645
 20
207.6892631469
 30
0.0
 10
195.5683990671
 20
207.6923202221
 30
0.0
 10
195.7153932478
 20
207.6957573174
 30
0.0
 10
195.9244818633
 20
207.6996270679
 30
0.0
 10
196.1759548275
 20
207.7033091582
 30
0.0
 10
196.4673189136
 20
207.7067965034
 30
0.0
 10
196.6746300648
 20
207.7088381591
 30
0.0
 10
196.7844985419
 20
207.7098318321
 30
0.0
  0
SPLINE
  5
429
330
21D
100
AcDbEntity
  8
0
  6
Continuous
 62
     7
100
AcDbSpline
210
0.0
220
0.0
230
1.0
 70
     8
 71
     3
 72
    18
 73
    14
 74
     0
 42
0.0000000001
 43
0.0000000001
 40
0.0
 40
0.0
 40
0.0
 40
0.0
 40
0.2249199689
 40
0.4244017862
 40
0.5965033560000001
 40
0.7397252984
 40
0.8526004932999999
 40
0.8972529676999998
 40
0.9339386015999998
 40
0.9625969527
 40
0.9831710879999999
 40
0.9956168634999999
 40
1.0
 40
1.0
 40
1.0
 40
1.0
 10
203.855228571
 20
207.7098316402
 30
0.0
 10
203.9650955218
 20
207.7088379693
 30
0.0
 10
204.1724037586
 20
207.7067963196
 30
0.0
 10
204.4637637098
 20
207.703308989
 30
0.0
 10
204.715233032
 20
207.6996269181
 30
0.0
 10
204.9243185695
 20
207.6957571919
 30
0.0
 10
205.0713105617
 20
207.6923201186
 30
0.0
 10
205.1659537436
 20
207.6892630666
 30
0.0
 10
205.2200316315
 20
207.6873577222
 30
0.0
 10
205.2609540701
 20
207.6848966082
 30
0.0
 10
205.293295614
 20
207.6838414813
 30
0.0
 10
205.3074335597
 20
207.6803387606
 30
0.0
 10
205.3198529412
 20
207.6805894019
 30
0.0
 10
205.3198529412
 20
207.6784482779
 30
0.0
  0
SPLINE
  5
42A
330
21D
100
AcDbEntity
  8
0
  6
Continuous
 62
     7
100
AcDbSpline
210
0.0
220
0.0
230
1.0
 70
     8
 71
     3
 72
     9
 73
     5
 74
     0
 42
0.0000000001
 43
0.0000000001
 40
0.0
 40
0.0
 40
0.0
 40
0.0
 40
0.2396853364
 40
1.0
 40
1.0
 40
1.0
 40
1.0
 10
292.2045397313
 20
207.7098316402
 30
0.0
 10
292.3233999769
 20
207.7089785327
 30
0.0
 10
292.8193007145
 20
207.7053551245
 30
0.0
 10
293.3151997418
 20
207.7014993208
 30
0.0
 10
293.6922381937
 20
207.6984646237
 30
0.0
  0
LINE
  5
42B
330
21D
100
AcDbEntity
  8
0
  6
Continuous
 62
     7
100
AcDbLine
 10
293.6922381937
 20
207.6984646237
 30
0.0
 11
294.4744184143
 21
207.6920215985
 31
0.0
  0
SPLINE
  5
42C
330
21D
100
AcDbEntity
  8
0
  6
Continuous
 62
     9
100
AcDbSpline
210
0.0
220
0.0
230
1.0
 70
     8
 71
     3
 72
    12
 73
     8
 74
     0
 42
0.0000000001
 43
0.0000000001
 40
0.0
 40
0.0
 40
0.0
 40
0.0
 40
0.1284430688
 40
0.2260037227
 40
0.3472926329999999
 40
0.6498372100000001
 40
1.0
 40
1.0
 40
1.0
 40
1.0
 10
103.2295963814
 20
214.5435093647
 30
0.0
 10
103.2764753413
 20
214.5435093647
 30
0.0
 10
103.3493253094
 20
214.6087780454
 30
0.0
 10
103.4069020226
 20
214.7182713135
 30
0.0
 10
103.4733232076
 20
214.8986044523
 30
0.0
 10
103.5244622617
 20
215.17719814
 30
0.0
 10
103.5386133758
 20
215.4157074712
 30
0.0
 10
103.5386133758
 20
215.5435093647
 30
0.0
  0
SPLINE
  5
42D
330
21D
100
AcDbEntity
  8
0
  6
Continuous
 62
     9
100
AcDbSpline
210
0.0
220
0.0
230
1.0
 70
     8
 71
     3
 72
    12
 73
     8
 74
     0
 42
0.0000000001
 43
0.0000000001
 40
0.0
 40
0.0
 40
0.0
 40
0.0
 40
0.1284430702
 40
0.2260037237
 40
0.3472926329999999
 40
0.6498372073
 40
1.0
 40
1.0
 40
1.0
 40
1.0
 10
297.4101095009999
 20
214.5435093647
 30
0.0
 10
297.3632305405
 20
214.5435093647
 30
0.0
 10
297.2903805726
 20
214.6087780464
 30
0.0
 10
297.2328038591
 20
214.7182713142
 30
0.0
 10
297.1663826754
 20
214.8986044519
 30
0.0
 10
297.1152436207
 20
215.177198139
 30
0.0
 10
297.1010925066
 20
215.4157074702
 30
0.0
 10
297.1010925066
 20
215.5435093647
 30
0.0
  0
SPLINE
  5
42E
330
21D
100
AcDbEntity
  8
0
  6
Continuous
 62
     9
100
AcDbSpline
210
0.0
220
0.0
230
1.0
 70
     8
 71
     3
 72
    12
 73
     8
 74
     0
 42
0.0000000001
 43
0.0000000001
 40
0.0
 40
0.0
 40
0.0
 40
0.0
 40
0.1284430688
 40
0.2260037227
 40
0.3472926329999999
 40
0.6498372100000001
 40
1.0
 40
1.0
 40
1.0
 40
1.0
 10
299.3122225335
 20
214.5435093647
 30
0.0
 10
299.2653435736
 20
214.5435093647
 30
0.0
 10
299.1924936055
 20
214.6087780454
 30
0.0
 10
299.1349168924001
 20
214.7182713135
 30
0.0
 10
299.0684957074
 20
214.8986044523
 30
0.0
 10
299.0173566532
 20
215.17719814
 30
0.0
 10
299.0032055392
 20
215.4157074712
 30
0.0
 10
299.0032055392
 20
215.5435093647
 30
0.0
  0
SPLINE
  5
42F
330
21D
100
AcDbEntity
  8
0
  6
Continuous
 62
     9
100
AcDbSpline
210
0.0
220
0.0
230
1.0
 70
     8
 71
     3
 72
    12
 73
     8
 74
     0
 42
0.0000000001
 43
0.0000000001
 40
0.0
 40
0.0
 40
0.0
 40
0.0
 40
0.1284430702
 40
0.2260037237
 40
0.3472926329999999
 40
0.6498372073
 40
1.0
 40
1.0
 40
1.0
 40
1.0
 10
101.3274833488
 20
214.5435093647
 30
0.0
 10
101.3743623092
 20
214.5435093647
 30
0.0
 10
101.4472122772
 20
214.6087780464
 30
0.0
 10
101.5047889907
 20
214.7182713142
 30
0.0
 10
101.5712101744
 20
214.8986044519
 30
0.0
 10
101.6223492291
 20
215.177198139
 30
0.0
 10
101.6365003432
 20
215.4157074702
 30
0.0
 10
101.6365003432
 20
215.5435093647
 30
0.0
  0
SPLINE
  5
430
330
21D
100
AcDbEntity
  8
0
  6
Continuous
 62
     7
100
AcDbSpline
210
0.0
220
0.0
230
1.0
 70
     8
 71
     3
 72
    17
 73
    13
 74
     0
 42
0.0000000001
 43
0.0000000001
 40
0.0
 40
0.0
 40
0.0
 40
0.0
 40
0.0044272062
 40
0.0167164523
 40
0.036999812
 40
0.0652518146
 40
0.145478942
 40
0.2569997143
 40
0.3992251577000001
 40
0.5711667387000001
 40
0.7717774043000001
 40
1.0
 40
1.0
 40
1.0
 40
1.0
 10
205.3198529412
 20
207.6610163209
 30
0.0
 10
205.3198529412
 20
207.6595499739
 30
0.0
 10
205.3117258522
 20
207.6591124785
 30
0.0
 10
205.3020637634
 20
207.6568675547
 30
0.0
 10
205.2805849247
 20
207.6556737404
 30
0.0
 10
205.2388499
 20
207.6529148479
 30
0.0
 10
205.1654131517
 20
207.6502486484
 30
0.0
 10
205.0551404106
 20
207.6469601407
 30
0.0
 10
204.9140659255
 20
207.643878348
 30
0.0
 10
204.7436327364
 20
207.6408306955
 30
0.0
 10
204.5446553972
 20
207.6379226834
 30
0.0
 10
204.4026345472
 20
207.6361834847
 30
0.0
 10
204.3270491803
 20
207.6353266481
 30
0.0
  0
SPLINE
  5
431
330
21D
100
AcDbEntity
  8
0
  6
Continuous
 62
     7
100
AcDbSpline
210
0.0
220
0.0
230
1.0
 70
     8
 71
     3
 72
    17
 73
    13
 74
     0
 42
0.0000000001
 43
0.0000000001
 40
0.0
 40
0.0
 40
0.0
 40
0.0
 40
0.2282225831
 40
0.4288332439
 40
0.6007748252000001
 40
0.7430002698
 40
0.8545210438999999
 40
0.9347481768000001
 40
0.9630001826
 40
0.9832835451000001
 40
0.9955727931
 40
1.0
 40
1.0
 40
1.0
 40
1.0
 10
196.3126569
 20
207.6353266458
 30
0.0
 10
196.2370715223
 20
207.6361834824
 30
0.0
 10
196.0950506497
 20
207.6379226812
 30
0.0
 10
195.8960732765
 20
207.6408306934
 30
0.0
 10
195.7256400546
 20
207.6438783459
 30
0.0
 10
195.5845655403
 20
207.6469601389
 30
0.0
 10
195.4742927745
 20
207.6502486473
 30
0.0
 10
195.4008560079
 20
207.6529148469
 30
0.0
 10
195.3591209713
 20
207.6556737399
 30
0.0
 10
195.3376421253
 20
207.656867554
 30
0.0
 10
195.3279800335
 20
207.6591124788
 30
0.0
 10
195.3198529412
 20
207.6595499734
 30
0.0
 10
195.3198529412
 20
207.6610163209
 30
0.0
  0
SPLINE
  5
432
330
21D
100
AcDbEntity
  8
0
  6
Continuous
 62
     7
100
AcDbSpline
210
0.0
220
0.0
230
1.0
 70
     8
 71
     3
 72
    11
 73
     7
 74
     0
 42
0.0000000001
 43
0.0000000001
 40
0.0
 40
0.0
 40
0.0
 40
0.0
 40
0.2490758785
 40
0.5001467283
 40
0.7512403
 40
1.0
 40
1.0
 40
1.0
 40
1.0
 10
269.8367814962
 20
118.299300067
 30
0.0
 10
271.5345439633
 20
118.1910094454
 30
0.0
 10
274.9527847573
 20
118.1147019834
 30
0.0
 10
280.0825651308
 20
118.2464801435
 30
0.0
 10
285.2068932618
 20
118.458092319
 30
0.0
 10
288.6206652278
 20
118.5435071015
 30
0.0
 10
290.3197182807
 20
118.5435093646
 30
0.0
  0
LINE
  5
433
330
21D
100
AcDbEntity
  8
ZEICHNUNGSBEMASSUNGEN
  6
Continuous
 62
     7
100
AcDbLine
 10
290.3198529412
 20
60.5435093647
 30
0.0
 11
258.3373568647
 21
60.5435093647
 31
0.0
  0
LINE
  5
434
330
21D
100
AcDbEntity
  8
0
  6
Continuous
 62
     7
100
AcDbLine
 10
258.3373568647
 20
60.5435093647
 30
0.0
 11
258.3198529412
 21
60.5435093647
 31
0.0
  0
SPLINE
  5
435
330
21D
100
AcDbEntity
  8
0
  6
Continuous
 62
     7
100
AcDbSpline
210
0.0
220
0.0
230
1.0
 70
     8
 71
     3
 72
    11
 73
     7
 74
     0
 42
0.0000000001
 43
0.0000000001
 40
0.0
 40
0.0
 40
0.0
 40
0.0
 40
0.2337636665
 40
0.4802518802000001
 40
0.7360829523000002
 40
1.0
 40
1.0
 40
1.0
 40
1.0
 10
290.319466197
 20
113.0435093639
 30
0.0
 10
288.2476811021
 20
113.0435009429
 30
0.0
 10
283.9923141182
 20
112.9082615864
 30
0.0
 10
277.4743072554
 20
112.6401355454
 30
0.0
 10
270.6800318952
 20
112.6362817077
 30
0.0
 10
266.0795355348
 20
113.0669596645
 30
0.0
 10
263.7731598469
 20
113.4564157688
 30
0.0
  0
SPLINE
  5
436
330
21D
100
AcDbEntity
  8
0
  6
Continuous
 62
     7
100
AcDbSpline
210
0.0
220
0.0
230
1.0
 70
     8
 71
     3
 72
    11
 73
     7
 74
     0
 42
0.0000000001
 43
0.0000000001
 40
0.0
 40
0.0
 40
0.0
 40
0.0
 40
0.2499869415
 40
0.4999793893000001
 40
0.7499836396
 40
1.0
 40
1.0
 40
1.0
 40
1.0
 10
245.8225892796
 20
90.0241954658
 30
0.0
 10
245.8226061183
 20
89.8941860797
 30
0.0
 10
245.7703872282
 20
89.6312854744
 30
0.0
 10
245.5470829194
 20
89.2994942274
 30
0.0
 10
245.2141219489
 20
89.07806932799999
 30
0.0
 10
244.9512492088
 20
89.02646900909999
 30
0.0
 10
244.821224523
 20
89.0264867083
 30
0.0
  0
SPLINE
  5
437
330
21D
100
AcDbEntity
  8
RUNDUNGEN
  6
Continuous
 62
     9
100
AcDbSpline
210
0.0
220
0.0
230
1.0
 70
     8
 71
     3
 72
     9
 73
     5
 74
     0
 42
0.0000000001
 43
0.0000000001
 40
0.0
 40
0.0
 40
0.0
 40
0.0
 40
0.2550719427
 40
1.0
 40
1.0
 40
1.0
 40
1.0
 10
256.5266213999
 20
95.8949242235
 30
0.0
 10
256.550363044
 20
95.91805031739999
 30
0.0
 10
256.6388466675
 20
96.0133525087
 30
0.0
 10
256.7082772996
 20
96.12606170600001
 30
0.0
 10
256.746975626
 20
96.21478319739999
 30
0.0
  0
SPLINE
  5
438
330
21D
100
AcDbEntity
  8
0
  6
Continuous
 62
     9
100
AcDbSpline
210
0.0
220
0.0
230
1.0
 70
     8
 71
     3
 72
    29
 73
    25
 74
     0
 42
0.0000000001
 43
0.0000000001
 40
0.0
 40
0.0
 40
0.0
 40
0.0
 40
0.0005172039
 40
0.0015066625
 40
0.0030600523
 40
0.0051971586
 40
0.0112417974
 40
0.0196511682
 40
0.030412856
 40
0.0435046703
 40
0.0588967433
 40
0.0765536603
 40
0.0964331815
 40
0.1184884785
 40
0.16890934
 40
0.2273331368
 40
0.2931987207
 40
0.3658727285999999
 40
0.4446558085000001
 40
0.5287894868000001
 40
0.6174635763000001
 40
0.7098237645000001
 40
0.8049805626999999
 40
1.0
 40
1.0
 40
1.0
 40
1.0
 10
161.3198568461
 20
89.02678372249999
 30
0.0
 10
161.3196860628
 20
89.0200573109
 30
0.0
 10
161.3362243332
 20
89.0038523645
 30
0.0
 10
161.3723163829
 20
88.99067610240001
 30
0.0
 10
161.4316471162999
 20
88.97383276200001
 30
0.0
 10
161.5557272081
 20
88.95012685999999
 30
0.0
 10
161.7700809654
 20
88.9216464513
 30
0.0
 10
162.0964778546
 20
88.89000408040001
 30
0.0
 10
162.5150707544
 20
88.8581564409
 30
0.0
 10
163.0246446649
 20
88.82649694059999
 30
0.0
 10
163.6241103732
 20
88.79515645459999
 30
0.0
 10
164.3119952546
 20
88.76428088649999
 30
0.0
 10
165.0866668582
 20
88.7339631204
 30
0.0
 10
166.2874600089
 20
88.6925489613
 30
0.0
 10
167.9897244054
 20
88.6438498937
 30
0.0
 10
170.2620157506
 20
88.59102778709999
 30
0.0
 10
172.8239576816
 20
88.54218256700001
 30
0.0
 10
175.6508798774
 20
88.49782236219999
 30
0.0
 10
178.7155554493
 20
88.4584235378
 30
0.0
 10
181.9884602032
 20
88.42438904069998
 30
0.0
 10
185.4380569966
 20
88.3960658908
 30
0.0
 10
189.0311062043
 20
88.37373598620001
 30
0.0
 10
194.0076803151
 20
88.3520881371
 30
0.0
 10
197.7827416247
 20
88.34573193510001
 30
0.0
 10
200.3198529412
 20
88.3457315575
 30
0.0
  0
SPLINE
  5
439
330
21D
100
AcDbEntity
  8
RUNDUNGEN
  6
Continuous
 62
     9
100
AcDbSpline
210
0.0
220
0.0
230
1.0
 70
     8
 71
     3
 72
    29
 73
    25
 74
     0
 42
0.0000000001
 43
0.0000000001
 40
0.0
 40
0.0
 40
0.0
 40
0.0
 40
0.0005473828
 40
0.0015817994
 40
0.0031813625
 40
0.0053638304
 40
0.0114953049
 40
0.0199848138
 40
0.0308198711
 40
0.043977556
 40
0.0594285132
 40
0.077136615
 40
0.0970601599
 40
0.1191519043
 40
0.1696238862
 40
0.2280702876
 40
0.2939312101
 40
0.3665750126
 40
0.4453045699000001
 40
0.5293640003000001
 40
0.6179460375
 40
0.7101995206999999
 40
0.8052385966999999
 40
1.0
 40
1.0
 40
1.0
 40
1.0
 10
231.319808727
 20
89.0261744568
 30
0.0
 10
231.3192601349
 20
89.02054085939999
 30
0.0
 10
231.3047874024
 20
89.00834977809999
 30
0.0
 10
231.2749892172
 20
88.99743707290001
 30
0.0
 10
231.2262734042
 20
88.9842656221
 30
0.0
 10
231.1258209626
 20
88.9653348623
 30
0.0
 10
230.9531919177
 20
88.9428143121
 30
0.0
 10
230.691275144
 20
88.9176406051
 30
0.0
 10
230.3562754055
 20
88.89237794919999
 30
0.0
 10
229.9491904302
 20
88.86724576229999
 30
0.0
 10
229.4708834021
 20
88.84238117909999
 30
0.0
 10
228.9225248313
 20
88.81788391479998
 30
0.0
 10
228.3054166483
 20
88.7938337051
 30
0.0
 10
227.3496081965
 20
88.760989633
 30
0.0
 10
225.9954298002
 20
88.72236683450001
 30
0.0
 10
224.1885939489
 20
88.68047289200001
 30
0.0
 10
222.152372365
 20
88.64173736899999
 30
0.0
 10
219.90632019
 20
88.60656179770002
 30
0.0
 10
217.4720108405
 20
88.57532271389999
 30
0.0
 10
214.8728313607
 20
88.54833864499999
 30
0.0
 10
212.1337592327
 20
88.52588393959999
 30
0.0
 10
209.2811143734
 20
88.50818141799999
 30
0.0
 10
205.3304980675
 20
88.49102078479999
 30
0.0
 10
202.3337949853
 20
88.4859813431
 30
0.0
 10
200.3198529412
 20
88.4859813427
 30
0.0
  0
SPLINE
  5
43A
330
21D
100
AcDbEntity
  8
0
  6
Continuous
 62
     9
100
AcDbSpline
210
0.0
220
0.0
230
1.0
 70
     8
 71
     3
 72
    29
 73
    25
 74
     0
 42
0.0000000001
 43
0.0000000001
 40
0.0
 40
0.0
 40
0.0
 40
0.0
 40
0.1948967553
 40
0.2899981121
 40
0.3823078977
 40
0.4709384411000001
 40
0.555036961
 40
0.6337947366
 40
0.7064545028
 40
0.7723179521
 40
0.8307525262999998
 40
0.8811976729000001
 40
0.9032702199999999
 40
0.9231706766
 40
0.9408517765
 40
0.9562718543999999
 40
0.9693947951
 40
0.9801913164
 40
0.9886385553
 40
0.9947243606999998
 40
0.9968829367000001
 40
0.9984582211000001
 40
0.9994689452999999
 40
1.0
 40
1.0
 40
1.0
 40
1.0
 10
200.3198529412
 20
88.4859813427
 30
0.0
 10
198.304475352
 20
88.4859821608
 30
0.0
 10
195.3056751638
 20
88.49102754849999
 30
0.0
 10
191.3523626215
 20
88.50821281549999
 30
0.0
 10
188.4979391893
 20
88.525940035
 30
0.0
 10
185.7573304097
 20
88.54842558440001
 30
0.0
 10
183.1569072899
 20
88.57544600569999
 30
0.0
 10
180.7216938902
 20
88.6067261448
 30
0.0
 10
178.4751192901
 20
88.64194657170001
 30
0.0
 10
176.4387933576
 20
88.6807295702
 30
0.0
 10
174.632300159
 20
88.7226724761
 30
0.0
 10
173.2786973962
 20
88.76134077469998
 30
0.0
 10
172.3235884062
 20
88.79422452909999
 30
0.0
 10
171.7071872222
 20
88.81830000669999
 30
0.0
 10
171.1596579573
 20
88.84282136649998
 30
0.0
 10
170.6823028987
 20
88.8677101528
 30
0.0
 10
170.2762902424
 20
88.8928606814
 30
0.0
 10
169.9424861399
 20
88.91814970410001
 30
0.0
 10
169.6818732473
 20
88.94331321379999
 30
0.0
 10
169.5104214127
 20
88.96589372719999
 30
0.0
 10
169.4109358269
 20
88.98478115959999
 30
0.0
 10
169.3630271821
 20
88.998064748
 30
0.0
 10
169.3338388323
 20
89.0087474465
 30
0.0
 10
169.3200360237
 20
89.02129511149999
 30
0.0
 10
169.319857856
 20
89.0267837218
 30
0.0
  0
SPLINE
  5
440
330
21D
100
AcDbEntity
  8
RUNDUNGEN
  6
Continuous
 62
     9
100
AcDbSpline
210
0.0
220
0.0
230
1.0
 70
     8
 71
     3
 72
    10
 73
     6
 74
     0
 42
0.0000000001
 43
0.0000000001
 40
0.0
 40
0.0
 40
0.0
 40
0.0
 40
0.567299064
 40
0.807628017
 40
1.0
 40
1.0
 40
1.0
 40
1.0
 10
215.2496440342
 20
206.5302361414
 30
0.0
 10
215.2497664824
 20
206.6929542615
 30
0.0
 10
215.2619803386
 20
206.9252278131
 30
0.0
 10
215.3089822222
 20
207.208321884
 30
0.0
 10
215.3415636493
 20
207.3286167418
 30
0.0
 10
215.3612331682
 20
207.3801698162
 30
0.0
  0
SPLINE
  5
441
330
21D
100
AcDbEntity
  8
RUNDUNGEN
  6
Continuous
 62
     9
100
AcDbSpline
210
0.0
220
0.0
230
1.0
 70
     8
 71
     3
 72
     9
 73
     5
 74
     0
 42
0.0000000001
 43
0.0000000001
 40
0.0
 40
0.0
 40
0.0
 40
0.0
 40
0.6047111707
 40
1.0
 40
1.0
 40
1.0
 40
1.0
 10
215.3612331682
 20
207.3801698162
 30
0.0
 10
215.3739080901
 20
207.4133903131
 30
0.0
 10
215.3974833218
 20
207.4667342901
 30
0.0
 10
215.4391420455
 20
207.5135798963
 30
0.0
 10
215.4606363781
 20
207.5224235444
 30
0.0
  0
SPLINE
  5
442
330
21D
100
AcDbEntity
  8
RUNDUNGEN
  6
Continuous
 62
     9
100
AcDbSpline
210
0.0
220
0.0
230
1.0
 70
     8
 71
     3
 72
     8
 73
     4
 74
     0
 42
0.0000000001
 43
0.0000000001
 40
0.0
 40
0.0
 40
0.0
 40
0.0
 40
1.0
 40
1.0
 40
1.0
 40
1.0
 10
215.4606363781
 20
207.5224235444
 30
0.0
 10
215.4676514092
 20
207.5253098154
 30
0.0
 10
215.4753407724
 20
207.5270068249
 30
0.0
 10
215.4829263651
 20
207.5270091172
 30
0.0
  0
SPLINE
  5
443
330
21D
100
AcDbEntity
  8
RUNDUNGEN
  6
Continuous
 62
     9
100
AcDbSpline
210
0.0
220
0.0
230
1.0
 70
     8
 71
     3
 72
    11
 73
     7
 74
     0
 42
0.0000000001
 43
0.0000000001
 40
0.0
 40
0.0
 40
0.0
 40
0.0
 40
0.2538846075
 40
0.5054395586
 40
0.7538850889000001
 40
1.0
 40
1.0
 40
1.0
 40
1.0
 10
214.5169892586
 20
206.5270102395
 30
0.0
 10
214.5166026852
 20
206.6482974569
 30
0.0
 10
214.5586983793
 20
206.8921431428
 30
0.0
 10
214.7447762241
 20
207.2094645446
 30
0.0
 10
215.0291065014
 20
207.4374405961
 30
0.0
 10
215.2613874385
 20
207.5087506817
 30
0.0
 10
215.3782773703
 20
207.5214340098
 30
0.0
  0
SPLINE
  5
444
330
21D
100
AcDbEntity
  8
RUNDUNGEN
  6
Continuous
 62
     9
100
AcDbSpline
210
0.0
220
0.0
230
1.0
 70
     8
 71
     3
 72
    11
 73
     7
 74
     0
 42
0.0000000001
 43
0.0000000001
 40
0.0
 40
0.0
 40
0.0
 40
0.0
 40
0.2539860284
 40
0.5055177985000001
 40
0.7538488734000001
 40
1.0
 40
1.0
 40
1.0
 40
1.0
 10
212.8145813074
 20
206.4248883375
 30
0.0
 10
212.8140734544
 20
206.5499077534
 30
0.0
 10
212.8590066733
 20
206.8013537538
 30
0.0
 10
213.05640105
 20
207.1254799859
 30
0.0
 10
213.3564444785
 20
207.3521702841
 30
0.0
 10
213.5990408337
 20
207.4156841827
 30
0.0
 10
213.7199811568
 20
207.4230405266
 30
0.0
  0
SPLINE
  5
445
330
21D
100
AcDbEntity
  8
RUNDUNGEN
  6
Continuous
 62
     9
100
AcDbSpline
210
0.0
220
0.0
230
1.0
 70
     8
 71
     3
 72
    15
 73
    11
 74
     0
 42
0.0000000001
 43
0.0000000001
 40
0.0
 40
0.0
 40
0.0
 40
0.0
 40
0.3698463594
 40
0.5374682675
 40
0.6851764211
 40
0.8076965189
 40
0.9011039400000001
 40
0.9362576373999999
 40
0.9638313981999999
 40
1.0
 40
1.0
 40
1.0
 40
1.0
 10
212.0133552632
 20
206.4048521011
 30
0.0
 10
212.0133552632
 20
206.5324817737
 30
0.0
 10
212.0189047935
 20
206.7180655623
 30
0.0
 10
212.0391693304
 20
206.9536925296
 30
0.0
 10
212.0587670949
 20
207.103575706
 30
0.0
 10
212.0826881058
 20
207.2268904483
 30
0.0
 10
212.1062319028
 20
207.3103672149
 30
0.0
 10
212.1285219365
 20
207.3599341789
 30
0.0
 10
212.1458046464
 20
207.3884988738
 30
0.0
 10
212.1655691204
 20
207.40484098
 30
0.0
 10
212.1780504798
 20
207.4048509682
 30
0.0
  0
SPLINE
  5
446
330
21D
100
AcDbEntity
  8
RUNDUNGEN
  6
Continuous
 62
     9
100
AcDbSpline
210
0.0
220
0.0
230
1.0
 70
     8
 71
     3
 72
    15
 73
    11
 74
     0
 42
0.0000000001
 43
0.0000000001
 40
0.0
 40
0.0
 40
0.0
 40
0.0
 40
0.3698456877
 40
0.5374673786000001
 40
0.6851754479000001
 40
0.8076956209
 40
0.9011032855999999
 40
0.9362571591
 40
0.9638311170999999
 40
1.0
 40
1.0
 40
1.0
 40
1.0
 10
188.6263506191999
 20
206.4048521011
 30
0.0
 10
188.6263506189
 20
206.5324814673
 30
0.0
 10
188.6208011119
 20
206.7180648393
 30
0.0
 10
188.6005366739
 20
206.9536913394
 30
0.0
 10
188.5809389919
 20
207.1035743564
 30
0.0
 10
188.5570180843
 20
207.226889129
 30
0.0
 10
188.5334743608
 20
207.3103660309
 30
0.0
 10
188.511184443
 20
207.3599332436
 30
0.0
 10
188.4939017501
 20
207.3884981862
 30
0.0
 10
188.4741375036
 20
207.4048406776
 30
0.0
 10
188.4616560548
 20
207.4048509675999
 30
0.0
  0
SPLINE
  5
447
330
21D
100
AcDbEntity
  8
RUNDUNGEN
  6
Continuous
 62
     9
100
AcDbSpline
210
0.0
220
0.0
230
1.0
 70
     8
 71
     3
 72
    11
 73
     7
 74
     0
 42
0.0000000001
 43
0.0000000001
 40
0.0
 40
0.0
 40
0.0
 40
0.0
 40
0.2535785195
 40
0.5050982823
 40
0.7537716034000001
 40
1.0
 40
1.0
 40
1.0
 40
1.0
 10
187.8251220087
 20
206.4248883375
 30
0.0
 10
187.8255770577
 20
206.5369100229
 30
0.0
 10
187.7897062136
 20
206.7619263254
 30
0.0
 10
187.630639349
 20
207.0612822364
 30
0.0
 10
187.3841033737
 20
207.2895196724
 30
0.0
 10
187.1779569341
 20
207.3768283224
 30
0.0
 10
187.0719311655
 20
207.4011318332
 30
0.0
  0
SPLINE
  5
448
330
21D
100
AcDbEntity
  8
RUNDUNGEN
  6
Continuous
 62
     9
100
AcDbSpline
210
0.0
220
0.0
230
1.0
 70
     8
 71
     3
 72
    11
 73
     7
 74
     0
 42
0.0000000001
 43
0.0000000001
 40
0.0
 40
0.0
 40
0.0
 40
0.0
 40
0.2538846223
 40
0.5054395778
 40
0.753885101
 40
1.0
 40
1.0
 40
1.0
 40
1.0
 10
186.1227166237
 20
206.5270102395
 30
0.0
 10
186.1231031854
 20
206.6482975762
 30
0.0
 10
186.0810074257
 20
206.8921435018
 30
0.0
 10
185.8949292209
 20
207.2094651164
 30
0.0
 10
185.61059847
 20
207.4374411277
 30
0.0
 10
185.378317224
 20
207.5087509855
 30
0.0
 10
185.2614271716
 20
207.5214341558
 30
0.0
  0
SPLINE
  5
449
330
21D
100
AcDbEntity
  8
RUNDUNGEN
  6
Continuous
 62
     9
100
AcDbSpline
210
0.0
220
0.0
230
1.0
 70
     8
 71
     3
 72
    10
 73
     6
 74
     0
 42
0.0000000001
 43
0.0000000001
 40
0.0
 40
0.0
 40
0.0
 40
0.0
 40
0.5673036462
 40
0.8076318501999999
 40
1.0
 40
1.0
 40
1.0
 40
1.0
 10
185.3900618468
 20
206.5302361414
 30
0.0
 10
185.3899393951
 20
206.6929589509
 30
0.0
 10
185.3777249745
 20
206.9252384941
 30
0.0
 10
185.3307203648
 20
207.2083381389
 30
0.0
 10
185.2981370966
 20
207.328633911
 30
0.0
 10
185.2784663269
 20
207.3801865563
 30
0.0
  0
SPLINE
  5
44A
330
21D
100
AcDbEntity
  8
RUNDUNGEN
  6
Continuous
 62
     9
100
AcDbSpline
210
0.0
220
0.0
230
1.0
 70
     8
 71
     3
 72
     9
 73
     5
 74
     0
 42
0.0000000001
 43
0.0000000001
 40
0.0
 40
0.0
 40
0.0
 40
0.0
 40
0.6046709534
 40
1.0
 40
1.0
 40
1.0
 40
1.0
 10
185.2784663269
 20
207.3801865563
 30
0.0
 10
185.2657949833
 20
207.4133952862
 30
0.0
 10
185.2422234902999
 20
207.4667244559
 30
0.0
 10
185.200586274
 20
207.5135584892
 30
0.0
 10
185.1791000269
 20
207.5224109775
 30
0.0
  0
SPLINE
  5
44B
330
21D
100
AcDbEntity
  8
RUNDUNGEN
  6
Continuous
 62
     9
100
AcDbSpline
210
0.0
220
0.0
230
1.0
 70
     8
 71
     3
 72
     8
 73
     4
 74
     0
 42
0.0000000001
 43
0.0000000001
 40
0.0
 40
0.0
 40
0.0
 40
0.0
 40
1.0
 40
1.0
 40
1.0
 40
1.0
 10
185.1791000269
 20
207.5224109775
 30
0.0
 10
185.1720798046
 20
207.5253033596
 30
0.0
 10
185.1643835166
 20
207.527005236
 30
0.0
 10
185.1567907977
 20
207.5270091126
 30
0.0
  0
SPLINE
  5
44C
330
21D
100
AcDbEntity
  8
RUNDUNGEN
  6
Continuous
 62
     9
100
AcDbSpline
210
0.0
220
0.0
230
1.0
 70
     8
 71
     3
 72
    12
 73
     8
 74
     0
 42
0.0000000001
 43
0.0000000001
 40
0.0
 40
0.0
 40
0.0
 40
0.0
 40
0.2363431113
 40
0.4789654121
 40
0.7325244231
 40
0.8651796323999999
 40
1.0
 40
1.0
 40
1.0
 40
1.0
 10
186.6270509795
 20
199.9384763571
 30
0.0
 10
186.762237241
 20
199.9376210208
 30
0.0
 10
187.0380907145
 20
199.9734083459
 30
0.0
 10
187.4258260174
 20
200.1494393221
 30
0.0
 10
187.6849976204
 20
200.4166111961
 30
0.0
 10
187.8043245891
 20
200.6929945642
 30
0.0
 10
187.8254344816
 20
200.8469404116
 30
0.0
 10
187.8251192111
 20
200.9240574211
 30
0.0
  0
SPLINE
  5
44E
330
21D
100
AcDbEntity
  8
RUNDUNGEN
  6
Continuous
 62
     9
100
AcDbSpline
210
0.0
220
0.0
230
1.0
 70
     8
 71
     3
 72
    15
 73
    11
 74
     0
 42
0.0000000001
 43
0.0000000001
 40
0.0
 40
0.0
 40
0.0
 40
0.0
 40
0.3629964009
 40
0.5281070671000001
 40
0.6743519646
 40
0.7967744203000001
 40
0.8917642133999999
 40
0.9284630201999998
 40
0.9581432723999999
 40
1.0
 40
1.0
 40
1.0
 40
1.0
 10
186.4349013283
 20
198.9386266471
 30
0.0
 10
186.4349013324
 20
199.0649392512
 30
0.0
 10
186.4413849691
 20
199.2488554292
 30
0.0
 10
186.4649320039
 20
199.4823895599
 30
0.0
 10
186.4878183244
 20
199.6316851359
 30
0.0
 10
186.5157040772
 20
199.755241399
 30
0.0
 10
186.543453129
 20
199.8394384581
 30
0.0
 10
186.5691916433
 20
199.8897545522
 30
0.0
 10
186.590362719
 20
199.9203387802
 30
0.0
 10
186.6125436861
 20
199.9371794849
 30
0.0
 10
186.6270509857
 20
199.9384743423
 30
0.0
  0
LINE
  5
44F
330
21D
100
AcDbEntity
  8
RUNDUNGEN
  6
Continuous
 62
     9
100
AcDbLine
 10
248.8545332684
 20
94.1790829584
 30
0.0
 11
249.2097141329
 21
94.2004056999
 31
0.0
  0
SPLINE
  5
450
330
21D
100
AcDbEntity
  8
RUNDUNGEN
  6
Continuous
 62
     9
100
AcDbSpline
210
0.0
220
0.0
230
1.0
 70
     8
 71
     3
 72
    15
 73
    11
 74
     0
 42
0.0000000001
 43
0.0000000001
 40
0.0
 40
0.0
 40
0.0
 40
0.0
 40
0.0418567275
 40
0.0715369798
 40
0.1082357866
 40
0.2032255797
 40
0.3256480355
 40
0.471892933
 40
0.6370035992
 40
1.0
 40
1.0
 40
1.0
 40
1.0
 10
214.0126548952
 20
199.9384743423
 30
0.0
 10
214.0271621948
 20
199.9371794849
 30
0.0
 10
214.0493431618
 20
199.9203387801
 30
0.0
 10
214.0705142376
 20
199.8897545522
 30
0.0
 10
214.0962527519
 20
199.839438458
 30
0.0
 10
214.1240018039
 20
199.755241399
 30
0.0
 10
214.1518875568
 20
199.6316851359
 30
0.0
 10
214.1747738776
 20
199.4823895598
 30
0.0
 10
214.1983209129
 20
199.2488554292
 30
0.0
 10
214.2048045498
 20
199.0649392512
 30
0.0
 10
214.2048045542
 20
198.9386266471
 30
0.0
  0
SPLINE
  5
451
330
21D
100
AcDbEntity
  8
RUNDUNGEN
  6
Continuous
 62
     9
100
AcDbSpline
210
0.0
220
0.0
230
1.0
 70
     8
 71
     3
 72
    12
 73
     8
 74
     0
 42
0.0000000001
 43
0.0000000001
 40
0.0
 40
0.0
 40
0.0
 40
0.0
 40
0.1348203682
 40
0.2674755751
 40
0.5210345861
 40
0.7636568876000001
 40
1.0
 40
1.0
 40
1.0
 40
1.0
 10
212.8145866704
 20
200.9240574094
 30
0.0
 10
212.8142714015
 20
200.8469403995
 30
0.0
 10
212.8353812991
 20
200.6929945542
 30
0.0
 10
212.9547082614
 20
200.4166111847
 30
0.0
 10
213.2138798638
 20
200.1494393099
 30
0.0
 10
213.6016151646
 20
199.973408327
 30
0.0
 10
213.8774686397
 20
199.9376209996
 30
0.0
 10
214.0126549019
 20
199.9384763358
 30
0.0
  0
SPLINE
  5
452
330
21D
100
AcDbEntity
  8
RUNDUNGEN
  6
Continuous
 62
     9
100
AcDbSpline
210
0.0
220
0.0
230
1.0
 70
     8
 71
     3
 72
    14
 73
    10
 74
     0
 42
0.0000000001
 43
0.0000000001
 40
0.0
 40
0.0
 40
0.0
 40
0.0
 40
0.0473007004
 40
0.1162180975
 40
0.2120507741
 40
0.3340424624
 40
0.4789444158
 40
0.6420649217000002
 40
1.0
 40
1.0
 40
1.0
 40
1.0
 10
185.1604013373
 20
200.0263589327
 30
0.0
 10
185.1770520293
 20
200.0276047862
 30
0.0
 10
185.2150522868
 20
200.0509238531
 30
0.0
 10
185.2551102163
 20
200.1147244392
 30
0.0
 10
185.2933066535
 20
200.2088826165
 30
0.0
 10
185.3263167955
 20
200.3328043015
 30
0.0
 10
185.3537907816
 20
200.4822103168
 30
0.0
 10
185.3818364382
 20
200.7157170533
 30
0.0
 10
185.3896149223
 20
200.8998548725
 30
0.0
 10
185.3896149223
 20
201.0262066278
 30
0.0
  0
SPLINE
  5
453
330
21D
100
AcDbEntity
  8
RUNDUNGEN
  6
Continuous
 62
     9
100
AcDbSpline
210
0.0
220
0.0
230
1.0
 70
     8
 71
     3
 72
    11
 73
     7
 74
     0
 42
0.0000000001
 43
0.0000000001
 40
0.0
 40
0.0
 40
0.0
 40
0.0
 40
0.253817659
 40
0.5056045588
 40
0.7541220335
 40
1.0
 40
1.0
 40
1.0
 40
1.0
 10
186.1222557795
 20
201.0262066278
 30
0.0
 10
186.1216276537
 20
200.8969078695
 30
0.0
 10
186.0715254875
 20
200.6369056925
 30
0.0
 10
185.8586828771
 20
200.3060439126
 30
0.0
 10
185.5398669516
 20
200.0818681501
 30
0.0
 10
185.2856524977
 20
200.0274171341
 30
0.0
 10
185.1604013373
 20
200.0263589327
 30
0.0
  0
SPLINE
  5
454
330
21D
100
AcDbEntity
  8
RUNDUNGEN
  6
Continuous
 62
     9
100
AcDbSpline
210
0.0
220
0.0
230
1.0
 70
     8
 71
     3
 72
    14
 73
    10
 74
     0
 42
0.0000000001
 43
0.0000000001
 40
0.0
 40
0.0
 40
0.0
 40
0.0
 40
0.357936392
 40
0.5210567254999999
 40
0.6659586756
 40
0.7879501788
 40
0.8837826337999999
 40
0.9526997031
 40
1.0
 40
1.0
 40
1.0
 40
1.0
 10
215.2500909601
 20
201.0262066278
 30
0.0
 10
215.2500909601
 20
200.8998544018
 30
0.0
 10
215.2578694679
 20
200.7157161676
 30
0.0
 10
215.2859153063
 20
200.4822090288
 30
0.0
 10
215.3133893659
 20
200.332803162
 30
0.0
 10
215.3463994807
 20
200.2088815778
 30
0.0
 10
215.3845961052
 20
200.1147238107
 30
0.0
 10
215.4246538248
 20
200.0509233737
 30
0.0
 10
215.4626539942
 20
200.0276047757
 30
0.0
 10
215.479304545
 20
200.0263589327
 30
0.0
  0
SPLINE
  5
455
330
21D
100
AcDbEntity
  8
RUNDUNGEN
  6
Continuous
 62
     9
100
AcDbSpline
210
0.0
220
0.0
230
1.0
 70
     8
 71
     3
 72
    11
 73
     7
 74
     0
 42
0.0000000001
 43
0.0000000001
 40
0.0
 40
0.0
 40
0.0
 40
0.0
 40
0.2458842436
 40
0.4943959252
 40
0.7461815663
 40
1.0
 40
1.0
 40
1.0
 40
1.0
 10
215.479304545
 20
200.0263589327
 30
0.0
 10
215.3540504723
 20
200.0274383333
 30
0.0
 10
215.0998374953
 20
200.081851865
 30
0.0
 10
214.7810092837
 20
200.3060501058
 30
0.0
 10
214.5682434993
 20
200.6369073326
 30
0.0
 10
214.5179634714
 20
200.8969070763
 30
0.0
 10
214.5174501028
 20
201.0262066278
 30
0.0
  0
SPLINE
  5
458
330
21D
100
AcDbEntity
  8
RUNDUNGEN
  6
Continuous
 62
     9
100
AcDbSpline
210
0.0
220
0.0
230
1.0
 70
     8
 71
     3
 72
     9
 73
     5
 74
     0
 42
0.0000000001
 43
0.0000000001
 40
0.0
 40
0.0
 40
0.0
 40
0.0
 40
0.6339192545000002
 40
1.0
 40
1.0
 40
1.0
 40
1.0
 10
185.3896149223
 20
206.0435093647
 30
0.0
 10
185.5444278547
 20
206.0432251432
 30
0.0
 10
185.7886392838
 20
206.0423638667
 30
0.0
 10
186.0328607521
 20
206.0415703300999
 30
0.0
 10
186.1222542472
 20
206.0402834628
 30
0.0
  0
SPLINE
  5
459
330
21D
100
AcDbEntity
  8
RUNDUNGEN
  6
Continuous
 62
     9
100
AcDbSpline
210
0.0
220
0.0
230
1.0
 70
     8
 71
     3
 72
     9
 73
     5
 74
     0
 42
0.0000000001
 43
0.0000000001
 40
0.0
 40
0.0
 40
0.0
 40
0.0
 40
0.366079555
 40
1.0
 40
1.0
 40
1.0
 40
1.0
 10
186.1227166237
 20
206.5270102395
 30
0.0
 10
186.0333212607
 20
206.5282779839
 30
0.0
 10
185.7890951447
 20
206.529104831
 30
0.0
 10
185.5448783457
 20
206.5299574038
 30
0.0
 10
185.3900618482
 20
206.5302361414
 30
0.0
  0
SPLINE
  5
45A
330
21D
100
AcDbEntity
  8
RUNDUNGEN
  6
Continuous
 62
     9
100
AcDbSpline
210
0.0
220
0.0
230
1.0
 70
     8
 71
     3
 72
     9
 73
     5
 74
     0
 42
0.0000000001
 43
0.0000000001
 40
0.0
 40
0.0
 40
0.0
 40
0.0
 40
0.6339204450000001
 40
1.0
 40
1.0
 40
1.0
 40
1.0
 10
215.2496440342
 20
206.5302361414
 30
0.0
 10
215.0948275366
 20
206.5299574038
 30
0.0
 10
214.8506107377
 20
206.529104831
 30
0.0
 10
214.6063846216
 20
206.5282779839
 30
0.0
 10
214.5169892586
 20
206.5270102395
 30
0.0
  0
SPLINE
  5
45B
330
21D
100
AcDbEntity
  8
RUNDUNGEN
  6
Continuous
 62
     9
100
AcDbSpline
210
0.0
220
0.0
230
1.0
 70
     8
 71
     3
 72
    11
 73
     7
 74
     0
 42
0.0000000001
 43
0.0000000001
 40
0.0
 40
0.0
 40
0.0
 40
0.0
 40
0.1402956497
 40
0.3668008851
 40
0.6613159643
 40
1.0
 40
1.0
 40
1.0
 40
1.0
 10
212.8145711145
 20
206.4248868567
 30
0.0
 10
212.7773558529
 20
206.4203723984
 30
0.0
 10
212.6793715881
 20
206.4151292246
 30
0.0
 10
212.5028165464
 20
206.4091604879
 30
0.0
 10
212.273088461
 20
206.4056751281
 30
0.0
 10
212.1038995237
 20
206.4048519171
 30
0.0
 10
212.0134005397
 20
206.4048522267
 30
0.0
  0
SPLINE
  5
45C
330
21D
100
AcDbEntity
  8
RUNDUNGEN
  6
Continuous
 62
     9
100
AcDbSpline
210
0.0
220
0.0
230
1.0
 70
     8
 71
     3
 72
    11
 73
     7
 74
     0
 42
0.0000000001
 43
0.0000000001
 40
0.0
 40
0.0
 40
0.0
 40
0.0
 40
0.3386840381
 40
0.6331991176000001
 40
0.8597043518999999
 40
1.0
 40
1.0
 40
1.0
 40
1.0
 10
188.6263053082
 20
206.4048522268
 30
0.0
 10
188.5358063272
 20
206.404851917
 30
0.0
 10
188.3666173959
 20
206.4056751281
 30
0.0
 10
188.1368893196
 20
206.4091604902
 30
0.0
 10
187.9603342847
 20
206.4151292196
 30
0.0
 10
187.8623500259999
 20
206.4203724056
 30
0.0
 10
187.8251347655
 20
206.4248868569
 30
0.0
  0
SPLINE
  5
45D
330
21D
100
AcDbEntity
  8
RUNDUNGEN
  6
Continuous
 62
     9
100
AcDbSpline
210
0.0
220
0.0
230
1.0
 70
     8
 71
     3
 72
     9
 73
     5
 74
     0
 42
0.0000000001
 43
0.0000000001
 40
0.0
 40
0.0
 40
0.0
 40
0.0
 40
0.5488035217000001
 40
1.0
 40
1.0
 40
1.0
 40
1.0
 10
213.7368405223
 20
182.5208677024
 30
0.0
 10
213.7369359745
 20
182.6613075084
 30
0.0
 10
213.7482406214
 20
182.917142097
 30
0.0
 10
213.7837966956
 20
183.1716751332
 30
0.0
 10
213.8118143346
 20
183.2836862436
 30
0.0
  0
SPLINE
  5
45E
330
21D
100
AcDbEntity
  8
RUNDUNGEN
  6
Continuous
 62
     9
100
AcDbSpline
210
0.0
220
0.0
230
1.0
 70
     8
 71
     3
 72
    14
 73
    10
 74
     0
 42
0.0000000001
 43
0.0000000001
 40
0.0
 40
0.0
 40
0.0
 40
0.0
 40
0.1189456029
 40
0.2416185271
 40
0.3689057114
 40
0.4981028364000001
 40
0.6262436099000001
 40
0.7525218718000001
 40
1.0
 40
1.0
 40
1.0
 40
1.0
 10
213.8118143392
 20
183.2836866405
 30
0.0
 10
213.8713706226
 20
183.2713643928
 30
0.0
 10
213.9960327018
 20
183.2597586175999
 30
0.0
 10
214.1840284842
 20
183.304184015
 30
0.0
 10
214.3434190137
 20
183.4238505182
 30
0.0
 10
214.4505403219
 20
183.5923182319
 30
0.0
 10
214.5132181741
 20
183.7794840637
 30
0.0
 10
214.5534568807
 20
184.0336820551
 30
0.0
 10
214.5497058914
 20
184.2262814848
 30
0.0
 10
214.5380582204
 20
184.3522814553
 30
0.0
  0
SPLINE
  5
45F
330
21D
100
AcDbEntity
  8
RUNDUNGEN
  6
Continuous
 62
     9
100
AcDbSpline
210
0.0
220
0.0
230
1.0
 70
     8
 71
     3
 72
    14
 73
    10
 74
     0
 42
0.0000000001
 43
0.0000000001
 40
0.0
 40
0.0
 40
0.0
 40
0.0
 40
0.2474782457999999
 40
0.3737565863
 40
0.5018974910000001
 40
0.6310947563
 40
0.7583820486000001
 40
0.8810546155999999
 40
1.0
 40
1.0
 40
1.0
 40
1.0
 10
186.1016476555
 20
184.3522814555
 30
0.0
 10
186.0900000268
 20
184.2262814183
 30
0.0
 10
186.0862489427
 20
184.0336818841
 30
0.0
 10
186.1264878034
 20
183.7794837355
 30
0.0
 10
186.1891657739
 20
183.5923177547
 30
0.0
 10
186.2962873906
 20
183.4238499477
 30
0.0
 10
186.4556781092
 20
183.3041838679
 30
0.0
 10
186.6436735941999
 20
183.2597582899
 30
0.0
 10
186.7683353728
 20
183.2713643988
 30
0.0
 10
186.8278915438
 20
183.2836866442
 30
0.0
  0
SPLINE
  5
460
330
21D
100
AcDbEntity
  8
RUNDUNGEN
  6
Continuous
 62
     9
100
AcDbSpline
210
0.0
220
0.0
230
1.0
 70
     8
 71
     3
 72
     9
 73
     5
 74
     0
 42
0.0000000001
 43
0.0000000001
 40
0.0
 40
0.0
 40
0.0
 40
0.0
 40
0.6339223826
 40
1.0
 40
1.0
 40
1.0
 40
1.0
 10
185.369574858
 20
184.3555073607
 30
0.0
 10
185.5242688536
 20
184.3552284939
 30
0.0
 10
185.7682916662
 20
184.3543767627
 30
0.0
 10
186.0123237816
 20
184.3535487214
 30
0.0
 10
186.1016476555
 20
184.3522814555
 30
0.0
  0
SPLINE
  5
461
330
21D
100
AcDbEntity
  8
RUNDUNGEN
  6
Continuous
 62
     9
100
AcDbSpline
210
0.0
220
0.0
230
1.0
 70
     8
 71
     3
 72
    14
 73
    10
 74
     0
 42
0.0000000001
 43
0.0000000001
 40
0.0
 40
0.0
 40
0.0
 40
0.0
 40
0.3580350243999999
 40
0.5211093386
 40
0.6659401516
 40
0.7878641979000001
 40
0.8836605225999999
 40
0.9526001124
 40
1.0
 40
1.0
 40
1.0
 40
1.0
 10
185.3727745622
 20
187.8186407865
 30
0.0
 10
185.3726795252
 20
187.9446678991999
 30
0.0
 10
185.3647881643
 20
188.128295399
 30
0.0
 10
185.33661568
 20
188.3611067876
 30
0.0
 10
185.3090785779
 20
188.50999532
 30
0.0
 10
185.2760214518
 20
188.6334647583
 30
0.0
 10
185.2378032
 20
188.7272689264
 30
0.0
 10
185.1976979713
 20
188.7908369359
 30
0.0
 10
185.1597309472
 20
188.8140201995
 30
0.0
 10
185.1430926628
 20
188.8152625797
 30
0.0
  0
SPLINE
  5
462
330
21D
100
AcDbEntity
  8
RUNDUNGEN
  6
Continuous
 62
     9
100
AcDbSpline
210
0.0
220
0.0
230
1.0
 70
     8
 71
     3
 72
    11
 73
     7
 74
     0
 42
0.0000000001
 43
0.0000000001
 40
0.0
 40
0.0
 40
0.0
 40
0.0
 40
0.1408961
 40
0.3660783299
 40
0.659413397
 40
1.0
 40
1.0
 40
1.0
 40
1.0
 10
186.1049387649
 20
187.8154148846
 30
0.0
 10
186.0705911552999
 20
187.8170558768
 30
0.0
 10
185.9811848208
 20
187.8155916773
 30
0.0
 10
185.8202906357
 20
187.8176732634999
 30
0.0
 10
185.6106118350999
 20
187.8187747247
 30
0.0
 10
185.4558841956
 20
187.8171610507
 30
0.0
 10
185.3727745622
 20
187.8186407865
 30
0.0
  0
SPLINE
  5
463
330
21D
100
AcDbEntity
  8
RUNDUNGEN
  6
Continuous
 62
     9
100
AcDbSpline
210
0.0
220
0.0
230
1.0
 70
     8
 71
     3
 72
    11
 73
     7
 74
     0
 42
0.0000000001
 43
0.0000000001
 40
0.0
 40
0.0
 40
0.0
 40
0.0
 40
0.245885411
 40
0.494397135
 40
0.7461821147
 40
1.0
 40
1.0
 40
1.0
 40
1.0
 10
185.1430926628
 20
188.8152625797
 30
0.0
 10
185.2683468784
 20
188.8141822625
 30
0.0
 10
185.5225592145
 20
188.7597677487
 30
0.0
 10
185.8413858986
 20
188.5355691847
 30
0.0
 10
186.0541490173
 20
188.2047124124
 30
0.0
 10
186.1044264481
 20
187.9447137028
 30
0.0
 10
186.1049387649
 20
187.8154148846
 30
0.0
  0
SPLINE
  5
464
330
21D
100
AcDbEntity
  8
RUNDUNGEN
  6
Continuous
 62
     9
100
AcDbSpline
210
0.0
220
0.0
230
1.0
 70
     8
 71
     3
 72
     9
 73
     5
 74
     0
 42
0.0000000001
 43
0.0000000001
 40
0.0
 40
0.0
 40
0.0
 40
0.0
 40
0.6339219822
 40
1.0
 40
1.0
 40
1.0
 40
1.0
 10
215.2669313202
 20
187.8186407865
 30
0.0
 10
215.112218108
 20
187.8183618665
 30
0.0
 10
214.8681648272
 20
187.8175100697
 30
0.0
 10
214.6241022442
 20
187.8166821234
 30
0.0
 10
214.5347671174
 20
187.8154148846
 30
0.0
  0
SPLINE
  5
465
330
21D
100
AcDbEntity
  8
RUNDUNGEN
  6
Continuous
 62
     9
100
AcDbSpline
210
0.0
220
0.0
230
1.0
 70
     8
 71
     3
 72
    14
 73
    10
 74
     0
 42
0.0000000001
 43
0.0000000001
 40
0.0
 40
0.0
 40
0.0
 40
0.0
 40
0.0474002867
 40
0.1163401994
 40
0.2121367417
 40
0.3340609694999999
 40
0.4788917849
 40
0.6419662684000001
 40
1.0
 40
1.0
 40
1.0
 40
1.0
 10
215.4966132196
 20
188.8152625797
 30
0.0
 10
215.479974796
 20
188.8140201891
 30
0.0
 10
215.4420076843
 20
188.7908364641999
 30
0.0
 10
215.4019022487
 20
188.7272683085
 30
0.0
 10
215.3636841818
 20
188.6334637372
 30
0.0
 10
215.3306270289
 20
188.5099942009
 30
0.0
 10
215.3030899995
 20
188.3611055233
 30
0.0
 10
215.2749176941
 20
188.1282945297
 30
0.0
 10
215.2670263568
 20
187.9446674374
 30
0.0
 10
215.2669313202
 20
187.8186407865
 30
0.0
  0
SPLINE
  5
466
330
21D
100
AcDbEntity
  8
RUNDUNGEN
  6
Continuous
 62
     9
100
AcDbSpline
210
0.0
220
0.0
230
1.0
 70
     8
 71
     3
 72
    11
 73
     7
 74
     0
 42
0.0000000001
 43
0.0000000001
 40
0.0
 40
0.0
 40
0.0
 40
0.0
 40
0.2538176474
 40
0.5056045077000001
 40
0.7541219586
 40
1.0
 40
1.0
 40
1.0
 40
1.0
 10
214.5347671174
 20
187.8154148846
 30
0.0
 10
214.5353973336
 20
187.9447129924
 30
0.0
 10
214.5854951927
 20
188.2047139758
 30
0.0
 10
214.7983369699
 20
188.5355747384
 30
0.0
 10
215.117149765
 20
188.7597509789
 30
0.0
 10
215.371362644
 20
188.8142033935
 30
0.0
 10
215.4966132196
 20
188.8152625797
 30
0.0
  0
SPLINE
  5
467
330
21D
100
AcDbEntity
  8
RUNDUNGEN
  6
Continuous
 62
     9
100
AcDbSpline
210
0.0
220
0.0
230
1.0
 70
     8
 71
     3
 72
    12
 73
     8
 74
     0
 42
0.0000000001
 43
0.0000000001
 40
0.0
 40
0.0
 40
0.0
 40
0.0
 40
0.3455826817
 40
0.6448807331000001
 40
0.8692558905
 40
0.9470304302
 40
1.0
 40
1.0
 40
1.0
 40
1.0
 10
212.7264118457
 20
189.3876315682
 30
0.0
 10
212.7915654793
 20
189.3097160319
 30
0.0
 10
212.9064360316
 20
189.1587253909
 30
0.0
 10
213.0538287229
 20
188.9501671204
 30
0.0
 10
213.146377457
 20
188.7989524229
 30
0.0
 10
213.1893163752
 20
188.7036950969
 30
0.0
 10
213.1997900996
 20
188.6663875115999
 30
0.0
 10
213.2017811753
 20
188.65094759
 30
0.0
  0
SPLINE
  5
468
330
21D
100
AcDbEntity
  8
RUNDUNGEN
  6
Continuous
 62
     9
100
AcDbSpline
210
0.0
220
0.0
230
1.0
 70
     8
 71
     3
 72
     9
 73
     5
 74
     0
 42
0.0000000001
 43
0.0000000001
 40
0.0
 40
0.0
 40
0.0
 40
0.0
 40
0.5496699659000001
 40
1.0
 40
1.0
 40
1.0
 40
1.0
 10
212.7264118457
 20
189.3876315682
 30
0.0
 10
212.7264118457
 20
189.2466531712
 30
0.0
 10
212.7170653727
 20
188.9902265726
 30
0.0
 10
212.6875398269
 20
188.7346611715
 30
0.0
 10
212.6639924575
 20
188.621587125
 30
0.0
  0
SPLINE
  5
469
330
21D
100
AcDbEntity
  8
RUNDUNGEN
  6
Continuous
 62
     9
100
AcDbSpline
210
0.0
220
0.0
230
1.0
 70
     8
 71
     3
 72
     9
 73
     5
 74
     0
 42
0.0000000001
 43
0.0000000001
 40
0.0
 40
0.0
 40
0.0
 40
0.0
 40
0.4589976469
 40
1.0
 40
1.0
 40
1.0
 40
1.0
 10
213.2017811753
 20
188.65094759
 30
0.0
 10
213.1283555297
 20
188.6102736601
 30
0.0
 10
212.9431237972
 20
188.5670228164
 30
0.0
 10
212.7592658806
 20
188.5949199678
 30
0.0
 10
212.6639924575
 20
188.621587125
 30
0.0
  0
SPLINE
  5
46A
330
21D
100
AcDbEntity
  8
RUNDUNGEN
  6
Continuous
 62
     9
100
AcDbSpline
210
0.0
220
0.0
230
1.0
 70
     8
 71
     3
 72
    11
 73
     7
 74
     0
 42
0.0000000001
 43
0.0000000001
 40
0.0
 40
0.0
 40
0.0
 40
0.0
 40
0.2478782316
 40
0.4888319433
 40
0.7303660197000001
 40
1.0
 40
1.0
 40
1.0
 40
1.0
 10
213.3242944815
 20
187.8877750738
 30
0.0
 10
213.2868856997
 20
187.9434651626
 30
0.0
 10
213.2199098651
 20
188.0581825274
 30
0.0
 10
213.1500042327
 20
188.2443944337
 30
0.0
 10
213.1246040692
 20
188.4489853866
 30
0.0
 10
213.1639306902
 20
188.5885530677
 30
0.0
 10
213.2017781088
 20
188.6509477659999
 30
0.0
  0
SPLINE
  5
46B
330
21D
100
AcDbEntity
  8
RUNDUNGEN
  6
Continuous
 62
     9
100
AcDbSpline
210
0.0
220
0.0
230
1.0
 70
     8
 71
     3
 72
    11
 73
     7
 74
     0
 42
0.0000000001
 43
0.0000000001
 40
0.0
 40
0.0
 40
0.0
 40
0.0
 40
0.267409993
 40
0.5284973137
 40
0.7740388681999999
 40
1.0
 40
1.0
 40
1.0
 40
1.0
 10
212.4718111715
 20
187.1217308755
 30
0.0
 10
212.5765704645
 20
187.1451927094
 30
0.0
 10
212.7786888191
 20
187.2176757602
 30
0.0
 10
213.0391624896
 20
187.3931726766999
 30
0.0
 10
213.233115383
 20
187.6194263196
 30
0.0
 10
213.3067982689
 20
187.798763982
 30
0.0
 10
213.3242944815
 20
187.8877750738
 30
0.0
  0
SPLINE
  5
46C
330
21D
100
AcDbEntity
  8
RUNDUNGEN
  6
Continuous
 62
     9
100
AcDbSpline
210
0.0
220
0.0
230
1.0
 70
     8
 71
     3
 72
    15
 73
    11
 74
     0
 42
0.0000000001
 43
0.0000000001
 40
0.0
 40
0.0
 40
0.0
 40
0.0
 40
0.0418567232
 40
0.071536975
 40
0.1082357819
 40
0.2032255761
 40
0.3256480329
 40
0.4718929314000001
 40
0.6370035983
 40
1.0
 40
1.0
 40
1.0
 40
1.0
 10
214.0126548945
 20
188.9041734782
 30
0.0
 10
214.0271621925
 20
188.9054683358
 30
0.0
 10
214.0493431563
 20
188.9223090421
 30
0.0
 10
214.0705142303
 20
188.9528932687
 30
0.0
 10
214.0962527449
 20
189.0032093629
 30
0.0
 10
214.1240017993
 20
189.0874064215
 30
0.0
 10
214.1518875564
 20
189.2109626844
 30
0.0
 10
214.1747738811
 20
189.3602582604
 30
0.0
 10
214.1983209196
 20
189.593792391
 30
0.0
 10
214.204804554
 20
189.7777085693
 30
0.0
 10
214.2048045541
 20
189.9040211733
 30
0.0
  0
SPLINE
  5
46D
330
21D
100
AcDbEntity
  8
RUNDUNGEN
  6
Continuous
 62
     9
100
AcDbSpline
210
0.0
220
0.0
230
1.0
 70
     8
 71
     3
 72
     9
 73
     5
 74
     0
 42
0.0000000001
 43
0.0000000001
 40
0.0
 40
0.0
 40
0.0
 40
0.0
 40
0.5070266566
 40
1.0
 40
1.0
 40
1.0
 40
1.0
 10
213.2017818978
 20
188.6509466042
 30
0.0
 10
213.3181317226
 20
188.7382248971
 30
0.0
 10
213.5826152657
 20
188.8662519133
 30
0.0
 10
213.8712422599
 20
188.9050666111
 30
0.0
 10
214.0126549
 20
188.9041719279
 30
0.0
  0
SPLINE
  5
46E
330
21D
100
AcDbEntity
  8
RUNDUNGEN
  6
Continuous
 62
     9
100
AcDbSpline
210
0.0
220
0.0
230
1.0
 70
     8
 71
     3
 72
     9
 73
     5
 74
     0
 42
0.0000000001
 43
0.0000000001
 40
0.0
 40
0.0
 40
0.0
 40
0.0
 40
0.4503299493
 40
1.0
 40
1.0
 40
1.0
 40
1.0
 10
187.9757134249
 20
188.621587125
 30
0.0
 10
187.9521660599
 20
188.7346611502
 30
0.0
 10
187.9226405106
 20
188.9902265507
 30
0.0
 10
187.9132940366
 20
189.2466531493
 30
0.0
 10
187.9132940366
 20
189.3876315681
 30
0.0
  0
SPLINE
  5
46F
330
21D
100
AcDbEntity
  8
RUNDUNGEN
  6
Continuous
 62
     9
100
AcDbSpline
210
0.0
220
0.0
230
1.0
 70
     8
 71
     3
 72
    15
 73
    11
 74
     0
 42
0.0000000001
 43
0.0000000001
 40
0.0
 40
0.0
 40
0.0
 40
0.0
 40
0.0532246514
 40
0.1307240805
 40
0.2321410313
 40
0.3551959357999999
 40
0.4971177547
 40
0.6544877625
 40
0.8235356728000001
 40
1.0
 40
1.0
 40
1.0
 40
1.0
 10
187.437924707
 20
188.65094759
 30
0.0
 10
187.4382928829
 20
188.6665893815
 30
0.0
 10
187.4505470301
 20
188.7039619054
 30
0.0
 10
187.4787087931
 20
188.7657242844
 30
0.0
 10
187.5213117854
 20
188.8438695977
 30
0.0
 10
187.5782666563
 20
188.9352609563
 30
0.0
 10
187.6477795761
 20
189.0381748888
 30
0.0
 10
187.7278398825
 20
189.1501942592
 30
0.0
 10
187.8175703882
 20
189.2677079065
 30
0.0
 10
187.881172053
 20
189.3468994677
 30
0.0
 10
187.9132940366
 20
189.3876315681
 30
0.0
  0
SPLINE
  5
470
330
21D
100
AcDbEntity
  8
RUNDUNGEN
  6
Continuous
 62
     9
100
AcDbSpline
210
0.0
220
0.0
230
1.0
 70
     8
 71
     3
 72
     9
 73
     5
 74
     0
 42
0.0000000001
 43
0.0000000001
 40
0.0
 40
0.0
 40
0.0
 40
0.0
 40
0.5410339769000001
 40
1.0
 40
1.0
 40
1.0
 40
1.0
 10
187.9757134249
 20
188.621587125
 30
0.0
 10
187.8805884474
 20
188.5943786492
 30
0.0
 10
187.6964735581
 20
188.5672148514
 30
0.0
 10
187.5114125986
 20
188.6104003686
 30
0.0
 10
187.437924707
 20
188.65094759
 30
0.0
  0
SPLINE
  5
471
330
21D
100
AcDbEntity
  8
RUNDUNGEN
  6
Continuous
 62
     9
100
AcDbSpline
210
0.0
220
0.0
230
1.0
 70
     8
 71
     3
 72
    11
 73
     7
 74
     0
 42
0.0000000001
 43
0.0000000001
 40
0.0
 40
0.0
 40
0.0
 40
0.0
 40
0.2696339818
 40
0.5111680566
 40
0.7521217627
 40
1.0
 40
1.0
 40
1.0
 40
1.0
 10
187.4379277714
 20
188.6509477658
 30
0.0
 10
187.4757750748
 20
188.5885529973
 30
0.0
 10
187.5151018549
 20
188.4489854149
 30
0.0
 10
187.4897016395
 20
188.2443944265
 30
0.0
 10
187.4197960168
 20
188.0581825329
 30
0.0
 10
187.3528201859999
 20
187.9434651616
 30
0.0
 10
187.3154114002
 20
187.8877750738
 30
0.0
  0
SPLINE
  5
472
330
21D
100
AcDbEntity
  8
RUNDUNGEN
  6
Continuous
 62
     9
100
AcDbSpline
210
0.0
220
0.0
230
1.0
 70
     8
 71
     3
 72
    11
 73
     7
 74
     0
 42
0.0000000001
 43
0.0000000001
 40
0.0
 40
0.0
 40
0.0
 40
0.0
 40
0.2259611317
 40
0.4715026863000001
 40
0.7325900070999999
 40
1.0
 40
1.0
 40
1.0
 40
1.0
 10
187.3154114002
 20
187.8877750738
 30
0.0
 10
187.3329076128
 20
187.7987639820999
 30
0.0
 10
187.4065904989
 20
187.6194263197
 30
0.0
 10
187.6005433925999
 20
187.3931726772
 30
0.0
 10
187.8610170634
 20
187.2176757612
 30
0.0
 10
188.0631354181
 20
187.1451927108
 30
0.0
 10
188.1678947111
 20
187.1217308771
 30
0.0
  0
SPLINE
  5
473
330
21D
100
AcDbEntity
  8
RUNDUNGEN
  6
Continuous
 62
     9
100
AcDbSpline
210
0.0
220
0.0
230
1.0
 70
     8
 71
     3
 72
    15
 73
    11
 74
     0
 42
0.0000000001
 43
0.0000000001
 40
0.0
 40
0.0
 40
0.0
 40
0.0
 40
0.3629964012
 40
0.5281070681000001
 40
0.6743519666
 40
0.7967744235
 40
0.8917642179000001
 40
0.9284630248999999
 40
0.9581432768
 40
1.0
 40
1.0
 40
1.0
 40
1.0
 10
186.4349013283
 20
189.9040211733
 30
0.0
 10
186.4349013283
 20
189.7777085695
 30
0.0
 10
186.4413849627
 20
189.5937923913
 30
0.0
 10
186.4649320012
 20
189.3602582609
 30
0.0
 10
186.4878183259
 20
189.2109626849
 30
0.0
 10
186.5157040829
 20
189.0874064219
 30
0.0
 10
186.5434531374
 20
189.0032093631
 30
0.0
 10
186.569191652
 20
188.9528932689
 30
0.0
 10
186.590362726
 20
188.9223090421
 30
0.0
 10
186.6125436898
 20
188.9054683358
 30
0.0
 10
186.6270509877999
 20
188.9041734782
 30
0.0
  0
SPLINE
  5
474
330
21D
100
AcDbEntity
  8
RUNDUNGEN
  6
Continuous
 62
     9
100
AcDbSpline
210
0.0
220
0.0
230
1.0
 70
     8
 71
     3
 72
     9
 73
     5
 74
     0
 42
0.0000000001
 43
0.0000000001
 40
0.0
 40
0.0
 40
0.0
 40
0.0
 40
0.4929738921000001
 40
1.0
 40
1.0
 40
1.0
 40
1.0
 10
186.627050981
 20
188.9041715429
 30
0.0
 10
186.7684637423
 20
188.9050662892
 30
0.0
 10
187.057091197
 20
188.8662523287
 30
0.0
 10
187.3215730967
 20
188.7382231503
 30
0.0
 10
187.437923708
 20
188.6509462296
 30
0.0
  0
SPLINE
  5
476
330
21D
100
AcDbEntity
  8
RUNDUNGEN
  6
Continuous
 62
     9
100
AcDbSpline
210
0.0
220
0.0
230
1.0
 70
     8
 71
     3
 72
    11
 73
     7
 74
     0
 42
0.0000000001
 43
0.0000000001
 40
0.0
 40
0.0
 40
0.0
 40
0.0
 40
0.2488706966
 40
0.4984235453000001
 40
0.7489055568000001
 40
1.0
 40
1.0
 40
1.0
 40
1.0
 10
246.8689258772
 20
87.38945766070001
 30
0.0
 10
247.1269942551
 20
87.39011406629998
 30
0.0
 10
247.649233215
 20
87.4955933594
 30
0.0
 10
248.3085454994
 20
87.9418638932
 30
0.0
 10
248.7499821091
 20
88.6070224969
 30
0.0
 10
248.8533474811
 20
89.13272714969998
 30
0.0
 10
248.8534119839
 20
89.393102293
 30
0.0
  0
SPLINE
  5
477
330
21D
100
AcDbEntity
  8
RUNDUNGEN
  6
Continuous
 62
     9
100
AcDbSpline
210
0.0
220
0.0
230
1.0
 70
     8
 71
     3
 72
     9
 73
     5
 74
     0
 42
0.0000000001
 43
0.0000000001
 40
0.0
 40
0.0
 40
0.0
 40
0.0
 40
0.451196478
 40
1.0
 40
1.0
 40
1.0
 40
1.0
 10
186.8278915477
 20
183.2836862436
 30
0.0
 10
186.8559091852
 20
183.171675133
 30
0.0
 10
186.891465258
 20
182.9171420968
 30
0.0
 10
186.9027699062
 20
182.6613075084999
 30
0.0
 10
186.90286536
 20
182.5208677024
 30
0.0
  0
SPLINE
  5
478
330
21D
100
AcDbEntity
  8
RUNDUNGEN
  6
Continuous
 62
     9
100
AcDbSpline
210
0.0
220
0.0
230
1.0
 70
     8
 71
     3
 72
     9
 73
     5
 74
     0
 42
0.0000000001
 43
0.0000000001
 40
0.0
 40
0.0
 40
0.0
 40
0.0
 40
0.366077741
 40
1.0
 40
1.0
 40
1.0
 40
1.0
 10
214.53805797
 20
184.3522814553
 30
0.0
 10
214.6273819351
 20
184.3535487286
 30
0.0
 10
214.871414218
 20
184.3543767536
 30
0.0
 10
215.1154371977
 20
184.3552284894
 30
0.0
 10
215.2701312692
 20
184.3555073571
 30
0.0
  0
LINE
  5
479
330
21D
100
AcDbEntity
  8
RUNDUNGEN
  6
Continuous
 62
     9
100
AcDbLine
 10
248.8534119839
 20
89.393102293
 30
0.0
 11
248.8545332684
 21
94.1790829584
 31
0.0
  0
SPLINE
  5
47B
330
21D
100
AcDbEntity
  8
RUNDUNGEN
  6
Continuous
 62
     9
100
AcDbSpline
210
0.0
220
0.0
230
1.0
 70
     8
 71
     3
 72
     9
 73
     5
 74
     0
 42
0.0000000001
 43
0.0000000001
 40
0.0
 40
0.0
 40
0.0
 40
0.0
 40
0.2732941203
 40
1.0
 40
1.0
 40
1.0
 40
1.0
 10
187.0745231425999
 20
129.959619279
 30
0.0
 10
187.0334976693
 20
129.9946729873
 30
0.0
 10
186.8877504665
 20
130.1278419694
 30
0.0
 10
186.7585884719
 20
130.2800234751
 30
0.0
 10
186.680484929
 20
130.4003912473
 30
0.0
  0
SPLINE
  5
47C
330
21D
100
AcDbEntity
  8
RUNDUNGEN
  6
Continuous
 62
     9
100
AcDbSpline
210
0.0
220
0.0
230
1.0
 70
     8
 71
     3
 72
     9
 73
     5
 74
     0
 42
0.0000000001
 43
0.0000000001
 40
0.0
 40
0.0
 40
0.0
 40
0.0
 40
0.2541917832
 40
1.0
 40
1.0
 40
1.0
 40
1.0
 10
186.9597470832
 20
129.4119420683
 30
0.0
 10
186.92697961
 20
129.4926712837
 30
0.0
 10
186.8079725524
 20
129.8142260588
 30
0.0
 10
186.7240458474
 20
130.1484996011
 30
0.0
 10
186.680484929
 20
130.4003912473
 30
0.0
  0
SPLINE
  5
47D
330
21D
100
AcDbEntity
  8
RUNDUNGEN
  6
Continuous
 62
     9
100
AcDbSpline
210
0.0
220
0.0
230
1.0
 70
     8
 71
     3
 72
    15
 73
    11
 74
     0
 42
0.0000000001
 43
0.0000000001
 40
0.0
 40
0.0
 40
0.0
 40
0.0
 40
0.0466476665
 40
0.0786797841
 40
0.1177237343
 40
0.2172439346
 40
0.3433790054
 40
0.4914118805
 40
0.6550908528
 40
1.0
 40
1.0
 40
1.0
 40
1.0
 10
188.2494980125
 20
129.4423081181
 30
0.0
 10
188.2300466164
 20
129.4408432148
 30
0.0
 10
188.1998326747
 20
129.4204757677
 30
0.0
 10
188.1701599939
 20
129.3817655469
 30
0.0
 10
188.1348241736
 20
129.3193044112
 30
0.0
 10
188.0966296597
 20
129.2149897044
 30
0.0
 10
188.0589398225
 20
129.0631630223
 30
0.0
 10
188.029027663
 20
128.8823607959
 30
0.0
 10
188.0008962988
 20
128.6091350711
 30
0.0
 10
187.9959378195
 20
128.3959995215
 30
0.0
 10
188.0000002152
 20
128.2518273798
 30
0.0
  0
SPLINE
  5
47E
330
21D
100
AcDbEntity
  8
RUNDUNGEN
  6
Continuous
 62
     9
100
AcDbSpline
210
0.0
220
0.0
230
1.0
 70
     8
 71
     3
 72
    10
 73
     6
 74
     0
 42
0.0000000001
 43
0.0000000001
 40
0.0
 40
0.0
 40
0.0
 40
0.0
 40
0.3185356323
 40
0.5813054624000001
 40
1.0
 40
1.0
 40
1.0
 40
1.0
 10
188.2494980125
 20
129.4423081181
 30
0.0
 10
188.1110848962
 20
129.4448512418
 30
0.0
 10
187.859392468
 20
129.4989329646
 30
0.0
 10
187.4604385959
 20
129.6727618075
 30
0.0
 10
187.2128786099
 20
129.8414241779999
 30
0.0
 10
187.0745282111
 20
129.9596220036
 30
0.0
  0
SPLINE
  5
47F
330
21D
100
AcDbEntity
  8
RUNDUNGEN
  6
Continuous
 62
     9
100
AcDbSpline
210
0.0
220
0.0
230
1.0
 70
     8
 71
     3
 72
    15
 73
    11
 74
     0
 42
0.0000000001
 43
0.0000000001
 40
0.0
 40
0.0
 40
0.0
 40
0.0
 40
0.3455289032
 40
0.5092726767000001
 40
0.6572162357
 40
0.7831353444
 40
0.8823686105
 40
0.9212789109999999
 40
0.9532182473999998
 40
1.0
 40
1.0
 40
1.0
 40
1.0
 10
188.0365199797
 20
128.2514847972
 30
0.0
 10
188.0298099113
 20
128.3955751116
 30
0.0
 10
188.030956134
 20
128.6087079824
 30
0.0
 10
188.0544967246
 20
128.8821574377
 30
0.0
 10
188.081498557
 20
129.063013128
 30
0.0
 10
188.1168948802
 20
129.2148674562
 30
0.0
 10
188.1536740468
 20
129.3192431506
 30
0.0
 10
188.1883252465
 20
129.3817016939
 30
0.0
 10
188.2177235954
 20
129.420507401
 30
0.0
 10
188.2480331507
 20
129.4407223347
 30
0.0
 10
188.2675112978
 20
129.4421414877
 30
0.0
  0
SPLINE
  5
480
330
21D
100
AcDbEntity
  8
RUNDUNGEN
  6
Continuous
 62
     9
100
AcDbSpline
210
0.0
220
0.0
230
1.0
 70
     8
 71
     3
 72
    15
 73
    11
 74
     0
 42
0.0000000001
 43
0.0000000001
 40
0.0
 40
0.0
 40
0.0
 40
0.0
 40
0.0466483803
 40
0.0786805851
 40
0.1177243844
 40
0.2172437774
 40
0.3433778839
 40
0.4914101855000001
 40
0.6550892448
 40
1.0
 40
1.0
 40
1.0
 40
1.0
 10
212.390207921
 20
129.4423043409
 30
0.0
 10
212.409659569
 20
129.4408386733
 30
0.0
 10
212.4398733694
 20
129.4204710156
 30
0.0
 10
212.4695466198
 20
129.3817607772
 30
0.0
 10
212.5048828419
 20
129.3193002796
 30
0.0
 10
212.5430781735
 20
129.2149866503
 30
0.0
 10
212.5807689411
 20
129.0631611176
 30
0.0
 10
212.6106819926
 20
128.882359547
 30
0.0
 10
212.6388142523
 20
128.6091332914
 30
0.0
 10
212.6437726651
 20
128.3959968715
 30
0.0
 10
212.6397098449
 20
128.2518239941
 30
0.0
  0
SPLINE
  5
481
330
21D
100
AcDbEntity
  8
RUNDUNGEN
  6
Continuous
 62
     9
100
AcDbSpline
210
0.0
220
0.0
230
1.0
 70
     8
 71
     3
 72
    15
 73
    11
 74
     0
 42
0.0000000001
 43
0.0000000001
 40
0.0
 40
0.0
 40
0.0
 40
0.0
 40
0.0467817526
 40
0.078721089
 40
0.1176313895
 40
0.2168646556
 40
0.3427837643
 40
0.4907273233
 40
0.6544710968000001
 40
1.0
 40
1.0
 40
1.0
 40
1.0
 10
212.3721945845
 20
129.4421414877
 30
0.0
 10
212.3916727316
 20
129.4407223347
 30
0.0
 10
212.421982287
 20
129.420507401
 30
0.0
 10
212.4513806359
 20
129.3817016939
 30
0.0
 10
212.4860318356
 20
129.3192431506
 30
0.0
 10
212.5228110022
 20
129.2148674562
 30
0.0
 10
212.5582073254
 20
129.063013128
 30
0.0
 10
212.5852091578
 20
128.8821574377
 30
0.0
 10
212.6087497483
 20
128.6087079824
 30
0.0
 10
212.6098959711
 20
128.3955751116
 30
0.0
 10
212.6031859026
 20
128.2514847972
 30
0.0
  0
SPLINE
  5
482
330
21D
100
AcDbEntity
  8
RUNDUNGEN
  6
Continuous
 62
     9
100
AcDbSpline
210
0.0
220
0.0
230
1.0
 70
     8
 71
     3
 72
    10
 73
     6
 74
     0
 42
0.0000000001
 43
0.0000000001
 40
0.0
 40
0.0
 40
0.0
 40
0.0
 40
0.4186913669
 40
0.6814633965000001
 40
1.0
 40
1.0
 40
1.0
 40
1.0
 10
213.5651748016
 20
129.9596190478
 30
0.0
 10
213.4268291732
 20
129.8414187228
 30
0.0
 10
213.1792642122
 20
129.6727650608
 30
0.0
 10
212.7803140658
 20
129.4989336768
 30
0.0
 10
212.528620945
 20
129.4448504265
 30
0.0
 10
212.3902078764
 20
129.4423076369
 30
0.0
  0
SPLINE
  5
483
330
21D
100
AcDbEntity
  8
RUNDUNGEN
  6
Continuous
 62
     9
100
AcDbSpline
210
0.0
220
0.0
230
1.0
 70
     8
 71
     3
 72
     9
 73
     5
 74
     0
 42
0.0000000001
 43
0.0000000001
 40
0.0
 40
0.0
 40
0.0
 40
0.0
 40
0.2464447741
 40
1.0
 40
1.0
 40
1.0
 40
1.0
 10
213.9592209533
 20
130.4003912473
 30
0.0
 10
213.9448283046
 20
130.3171623189
 30
0.0
 10
213.8778102078
 20
129.9810391015
 30
0.0
 10
213.7770770602
 20
129.6512454711
 30
0.0
 10
213.6799558465
 20
129.4119358543
 30
0.0
  0
SPLINE
  5
484
330
21D
100
AcDbEntity
  8
RUNDUNGEN
  6
Continuous
 62
     9
100
AcDbSpline
210
0.0
220
0.0
230
1.0
 70
     8
 71
     3
 72
     9
 73
     5
 74
     0
 42
0.0000000001
 43
0.0000000001
 40
0.0
 40
0.0
 40
0.0
 40
0.0
 40
0.2290862786
 40
1.0
 40
1.0
 40
1.0
 40
1.0
 10
213.9592209533
 20
130.4003912473
 30
0.0
 10
213.9345979851
 20
130.3624452633
 30
0.0
 10
213.8202325275
 20
130.2013029457
 30
0.0
 10
213.6809085187
 20
130.0585044133
 30
0.0
 10
213.5651815975
 20
129.9596153951
 30
0.0
  0
SPLINE
  5
485
330
21D
100
AcDbEntity
  8
RUNDUNGEN
  6
Continuous
 62
     9
100
AcDbSpline
210
0.0
220
0.0
230
1.0
 70
     8
 71
     3
 72
    11
 73
     7
 74
     0
 42
0.0000000001
 43
0.0000000001
 40
0.0
 40
0.0
 40
0.0
 40
0.0
 40
0.245853807
 40
0.4943762024
 40
0.7461835523999999
 40
1.0
 40
1.0
 40
1.0
 40
1.0
 10
211.1232037336
 20
129.5263589327
 30
0.0
 10
211.2490835895
 20
129.5263793279
 30
0.0
 10
211.5050552889
 20
129.5793008779
 30
0.0
 10
211.8266945527
 20
129.8030110287
 30
0.0
 10
212.0419105647
 20
130.1349202156
 30
0.0
 10
212.0923697765
 20
130.3962529633
 30
0.0
 10
212.0932749843
 20
130.5262066278
 30
0.0
  0
SPLINE
  5
486
330
21D
100
AcDbEntity
  8
RUNDUNGEN
  6
Continuous
 62
     9
100
AcDbSpline
210
0.0
220
0.0
230
1.0
 70
     8
 71
     3
 72
    14
 73
    10
 74
     0
 42
0.0000000001
 43
0.0000000001
 40
0.0
 40
0.0
 40
0.0
 40
0.0
 40
0.0479119554
 40
0.1171507591
 40
0.2130873892
 40
0.3350322136
 40
0.4797780910000001
 40
0.6426653886000001
 40
1.0
 40
1.0
 40
1.0
 40
1.0
 10
211.1232037336
 20
129.5263589327
 30
0.0
 10
211.1063073441
 20
129.5276005898
 30
0.0
 10
211.0677654513
 20
129.5507152138
 30
0.0
 10
211.0268039751
 20
129.614603644
 30
0.0
 10
210.9879152993
 20
129.7088061353
 30
0.0
 10
210.9542763674
 20
129.8327612314
 30
0.0
 10
210.9263022562
 20
129.9821847187
 30
0.0
 10
210.897743661
 20
130.2156859364
 30
0.0
 10
210.8898217688
 20
130.3998509971
 30
0.0
 10
210.8898217688
 20
130.5262066278
 30
0.0
  0
SPLINE
  5
487
330
21D
100
AcDbEntity
  8
RUNDUNGEN
  6
Continuous
 62
     9
100
AcDbSpline
210
0.0
220
0.0
230
1.0
 70
     8
 71
     3
 72
    14
 73
    10
 74
     0
 42
0.0000000001
 43
0.0000000001
 40
0.0
 40
0.0
 40
0.0
 40
0.0
 40
0.0479119554
 40
0.117150759
 40
0.2130873892
 40
0.3350322135
 40
0.4797780909
 40
0.6426653886000001
 40
1.0
 40
1.0
 40
1.0
 40
1.0
 10
189.5165021487
 20
129.5263589327
 30
0.0
 10
189.5333985382
 20
129.5276005898
 30
0.0
 10
189.571940431
 20
129.5507152138
 30
0.0
 10
189.6129019072
 20
129.614603644
 30
0.0
 10
189.6517905831
 20
129.7088061352
 30
0.0
 10
189.6854295149
 20
129.8327612313
 30
0.0
 10
189.7134036261999
 20
129.9821847186
 30
0.0
 10
189.7419622213
 20
130.2156859363
 30
0.0
 10
189.7498841136
 20
130.3998509971
 30
0.0
 10
189.7498841136
 20
130.5262066278
 30
0.0
  0
SPLINE
  5
488
330
21D
100
AcDbEntity
  8
RUNDUNGEN
  6
Continuous
 62
     9
100
AcDbSpline
210
0.0
220
0.0
230
1.0
 70
     8
 71
     3
 72
    11
 73
     7
 74
     0
 42
0.0000000001
 43
0.0000000001
 40
0.0
 40
0.0
 40
0.0
 40
0.0
 40
0.2458538137
 40
0.4943762122
 40
0.7461835596
 40
1.0
 40
1.0
 40
1.0
 40
1.0
 10
189.5165021487
 20
129.5263589327
 30
0.0
 10
189.3906222895
 20
129.5263793276
 30
0.0
 10
189.1346505859
 20
129.5793008815
 30
0.0
 10
188.8130113184999
 20
129.8030110374
 30
0.0
 10
188.5977953239
 20
130.1349202253
 30
0.0
 10
188.547336091
 20
130.3962529669
 30
0.0
 10
188.5464308981
 20
130.5262066278
 30
0.0
  0
SPLINE
  5
489
330
21D
100
AcDbEntity
  8
RUNDUNGEN
  6
Continuous
 62
     9
100
AcDbSpline
210
0.0
220
0.0
230
1.0
 70
     8
 71
     3
 72
     9
 73
     5
 74
     0
 42
0.0000000001
 43
0.0000000001
 40
0.0
 40
0.0
 40
0.0
 40
0.0
 40
0.2494307942
 40
1.0
 40
1.0
 40
1.0
 40
1.0
 10
217.8062601072
 20
137.4996117451
 30
0.0
 10
217.7669976933
 20
137.4192820189
 30
0.0
 10
217.607142911
 20
137.0984365515
 30
0.0
 10
217.4389153852
 20
136.7817224456
 30
0.0
 10
217.3068974297
 20
136.5472882651
 30
0.0
  0
SPLINE
  5
48A
330
21D
100
AcDbEntity
  8
RUNDUNGEN
  6
Continuous
 62
     9
100
AcDbSpline
210
0.0
220
0.0
230
1.0
 70
     8
 71
     3
 72
    13
 73
     9
 74
     0
 42
0.0000000001
 43
0.0000000001
 40
0.0
 40
0.0
 40
0.0
 40
0.0
 40
0.2816471398
 40
0.5580603714
 40
0.6907691816
 40
0.8152629252
 40
0.9235350311999999
 40
1.0
 40
1.0
 40
1.0
 40
1.0
 10
216.8545187764
 20
137.0236386702
 30
0.0
 10
216.7408006678
 20
136.9690878986
 30
0.0
 10
216.5147774338
 20
136.8624688078
 30
0.0
 10
216.2328000477
 20
136.7351565996
 30
0.0
 10
216.0129944496
 20
136.6414917488
 30
0.0
 10
215.8611408053
 20
136.580122509
 30
0.0
 10
215.7310552462
 20
136.5333614379
 30
0.0
 10
215.651444399
 20
136.5088491457
 30
0.0
 10
215.6175193375
 20
136.5042008728
 30
0.0
  0
SPLINE
  5
48B
330
21D
100
AcDbEntity
  8
RUNDUNGEN
  6
Continuous
 62
     9
100
AcDbSpline
210
0.0
220
0.0
230
1.0
 70
     8
 71
     3
 72
    11
 73
     7
 74
     0
 42
0.0000000001
 43
0.0000000001
 40
0.0
 40
0.0
 40
0.0
 40
0.0
 40
0.243719716
 40
0.4919375529
 40
0.7448586011
 40
1.0
 40
1.0
 40
1.0
 40
1.0
 10
215.6175894188
 20
136.5042107122
 30
0.0
 10
215.7415144031
 20
136.503724621
 30
0.0
 10
215.9942024354
 20
136.4496707851
 30
0.0
 10
216.3114105923
 20
136.2257900002
 30
0.0
 10
216.5251938218
 20
135.8954885182
 30
0.0
 10
216.5782278118
 20
135.6354729255
 30
0.0
 10
216.5803654744
 20
135.5057569344
 30
0.0
  0
SPLINE
  5
48C
330
21D
100
AcDbEntity
  8
RUNDUNGEN
  6
Continuous
 62
     9
100
AcDbSpline
210
0.0
220
0.0
230
1.0
 70
     8
 71
     3
 72
    11
 73
     7
 74
     0
 42
0.0000000001
 43
0.0000000001
 40
0.0
 40
0.0
 40
0.0
 40
0.0
 40
0.2551414055
 40
0.5080624659000001
 40
0.7562803049
 40
1.0
 40
1.0
 40
1.0
 40
1.0
 10
184.0593414303
 20
135.5057569514
 30
0.0
 10
184.0614790021
 20
135.6354729239
 30
0.0
 10
184.1145127535
 20
135.8954885118
 30
0.0
 10
184.328295569
 20
136.2257901874
 30
0.0
 10
184.6455034912
 20
136.4496712285
 30
0.0
 10
184.8981915164
 20
136.5037250498
 30
0.0
 10
185.0221164679
 20
136.5042110551
 30
0.0
  0
SPLINE
  5
48D
330
21D
100
AcDbEntity
  8
RUNDUNGEN
  6
Continuous
 62
     9
100
AcDbSpline
210
0.0
220
0.0
230
1.0
 70
     8
 71
     3
 72
    13
 73
     9
 74
     0
 42
0.0000000001
 43
0.0000000001
 40
0.0
 40
0.0
 40
0.0
 40
0.0
 40
0.0764389195
 40
0.1846861001
 40
0.3091584459
 40
0.4418597224000001
 40
0.7183055170000001
 40
1.0
 40
1.0
 40
1.0
 40
1.0
 10
185.0221750368
 20
136.5042018641
 30
0.0
 10
184.9882617399
 20
136.5088477407
 30
0.0
 10
184.9086743698
 20
136.5333560844
 30
0.0
 10
184.7786175953
 20
136.5800975999
 30
0.0
 10
184.6267943265
 20
136.6414741464
 30
0.0
 10
184.4069900477
 20
136.7351402855
 30
0.0
 10
184.1249907677
 20
136.8624752221
 30
0.0
 10
183.898917543
 20
136.9690670803
 30
0.0
 10
183.7851871811
 20
137.023638635
 30
0.0
  0
SPLINE
  5
48E
330
21D
100
AcDbEntity
  8
RUNDUNGEN
  6
Continuous
 62
     9
100
AcDbSpline
210
0.0
220
0.0
230
1.0
 70
     8
 71
     3
 72
     9
 73
     5
 74
     0
 42
0.0000000001
 43
0.0000000001
 40
0.0
 40
0.0
 40
0.0
 40
0.0
 40
0.7505693536
 40
1.0
 40
1.0
 40
1.0
 40
1.0
 10
183.3328094496
 20
136.5472899846
 30
0.0
 10
183.2007788282
 20
136.7817167849
 30
0.0
 10
183.0325755914
 20
137.0984434454
 30
0.0
 10
182.8727022097
 20
137.4192792549
 30
0.0
 10
182.8334457752
 20
137.4996117451
 30
0.0
  0
SPLINE
  5
48F
330
21D
100
AcDbEntity
  8
RUNDUNGEN
  6
Continuous
 62
     9
100
AcDbSpline
210
0.0
220
0.0
230
1.0
 70
     8
 71
     3
 72
    11
 73
     7
 74
     0
 42
0.0000000001
 43
0.0000000001
 40
0.0
 40
0.0
 40
0.0
 40
0.0
 40
0.2533656674
 40
0.5054044150000001
 40
0.7542865335000001
 40
1.0
 40
1.0
 40
1.0
 40
1.0
 10
184.0752121587
 20
135.4997543073
 30
0.0
 10
184.0769750482
 20
135.6297376692
 30
0.0
 10
184.1304837439
 20
135.8909596815
 30
0.0
 10
184.348247689
 20
136.2219367529
 30
0.0
 10
184.6713072491
 20
136.4451759635
 30
0.0
 10
184.927810305
 20
136.498270362
 30
0.0
 10
185.0538794301
 20
136.4983782114
 30
0.0
  0
SPLINE
  5
490
330
21D
100
AcDbEntity
  8
RUNDUNGEN
  6
Continuous
 62
     9
100
AcDbSpline
210
0.0
220
0.0
230
1.0
 70
     8
 71
     3
 72
    11
 73
     7
 74
     0
 42
0.0000000001
 43
0.0000000001
 40
0.0
 40
0.0
 40
0.0
 40
0.0
 40
0.2533645866
 40
0.5054060348000001
 40
0.7542959162000001
 40
1.0
 40
1.0
 40
1.0
 40
1.0
 10
188.5464308979999
 20
134.594544798
 30
0.0
 10
188.5485399574
 20
134.724497264
 30
0.0
 10
188.6014973553
 20
134.9856785438
 30
0.0
 10
188.8194066122
 20
135.3166210631
 30
0.0
 10
189.1423060329
 20
135.5398120737
 30
0.0
 10
189.3987480259
 20
135.593112295
 30
0.0
 10
189.5247879472
 20
135.5931743327
 30
0.0
  0
SPLINE
  5
491
330
21D
100
AcDbEntity
  8
RUNDUNGEN
  6
Continuous
 62
     9
100
AcDbSpline
210
0.0
220
0.0
230
1.0
 70
     8
 71
     3
 72
    13
 73
     9
 74
     0
 42
0.0000000001
 43
0.0000000001
 40
0.0
 40
0.0
 40
0.0
 40
0.0
 40
0.3524184341
 40
0.6578015082000001
 40
0.7803912984
 40
0.8781838975999999
 40
0.9501265104000001
 40
1.0
 40
1.0
 40
1.0
 40
1.0
 10
189.7498841129
 20
134.594544798
 30
0.0
 10
189.7498841129
 20
134.7181942695
 30
0.0
 10
189.7399249456
 20
134.9490431456
 30
0.0
 10
189.7023231981
 20
135.2210861444
 30
0.0
 10
189.6556057914
 20
135.3997519071
 30
0.0
 10
189.6180886596
 20
135.495692249
 30
0.0
 10
189.5783321686
 20
135.5619507815
 30
0.0
 10
189.541875568
 20
135.5894041391
 30
0.0
 10
189.5247879472
 20
135.5931743327
 30
0.0
  0
SPLINE
  5
492
330
21D
100
AcDbEntity
  8
RUNDUNGEN
  6
Continuous
 62
     9
100
AcDbSpline
210
0.0
220
0.0
230
1.0
 70
     8
 71
     3
 72
    13
 73
     9
 74
     0
 42
0.0000000001
 43
0.0000000001
 40
0.0
 40
0.0
 40
0.0
 40
0.0
 40
0.3524184349
 40
0.6578015096000001
 40
0.7803912995000001
 40
0.8781838983
 40
0.9501265107
 40
1.0
 40
1.0
 40
1.0
 40
1.0
 10
210.8898217688
 20
134.594544798
 30
0.0
 10
210.8898217688
 20
134.7181942698
 30
0.0
 10
210.8997809372
 20
134.9490431464
 30
0.0
 10
210.9373826845
 20
135.2210861456
 30
0.0
 10
210.9841000913
 20
135.3997519082
 30
0.0
 10
211.0216172231
 20
135.4956922497
 30
0.0
 10
211.061373714
 20
135.5619507818
 30
0.0
 10
211.0978303145
 20
135.5894041391
 30
0.0
 10
211.1149179351
 20
135.5931743327
 30
0.0
  0
SPLINE
  5
493
330
21D
100
AcDbEntity
  8
RUNDUNGEN
  6
Continuous
 62
     9
100
AcDbSpline
210
0.0
220
0.0
230
1.0
 70
     8
 71
     3
 72
    11
 73
     7
 74
     0
 42
0.0000000001
 43
0.0000000001
 40
0.0
 40
0.0
 40
0.0
 40
0.0
 40
0.2533645915
 40
0.5054060414000001
 40
0.7542959206999999
 40
1.0
 40
1.0
 40
1.0
 40
1.0
 10
212.0932749843
 20
134.594544798
 30
0.0
 10
212.0911659147
 20
134.7244972665
 30
0.0
 10
212.0382085315
 20
134.9856785506
 30
0.0
 10
211.8202992625
 20
135.3166210689
 30
0.0
 10
211.4973998444
 20
135.5398120765
 30
0.0
 10
211.2409578542
 20
135.5931122944
 30
0.0
 10
211.1149179351
 20
135.5931743327
 30
0.0
  0
SPLINE
  5
494
330
21D
100
AcDbEntity
  8
RUNDUNGEN
  6
Continuous
 62
     9
100
AcDbSpline
210
0.0
220
0.0
230
1.0
 70
     8
 71
     3
 72
    11
 73
     7
 74
     0
 42
0.0000000001
 43
0.0000000001
 40
0.0
 40
0.0
 40
0.0
 40
0.0
 40
0.2533656429
 40
0.5054043891
 40
0.7542865266
 40
1.0
 40
1.0
 40
1.0
 40
1.0
 10
216.5644906976
 20
135.4997543072
 30
0.0
 10
216.5627278092
 20
135.6297377303
 30
0.0
 10
216.5092194992
 20
135.8909598469
 30
0.0
 10
216.291456853
 20
136.2219379096
 30
0.0
 10
215.9683984395
 20
136.4451790897
 30
0.0
 10
215.7118955795
 20
136.4982751754
 30
0.0
 10
215.5858263802
 20
136.498383842
 30
0.0
  0
SPLINE
  5
495
330
21D
100
AcDbEntity
  8
RUNDUNGEN
  6
Continuous
 62
     9
100
AcDbSpline
210
0.0
220
0.0
230
1.0
 70
     8
 71
     3
 72
    12
 73
     8
 74
     0
 42
0.0000000001
 43
0.0000000001
 40
0.0
 40
0.0
 40
0.0
 40
0.0
 40
0.1383817181
 40
0.2345829655
 40
0.3511251187
 40
0.6425759074000001
 40
1.0
 40
1.0
 40
1.0
 40
1.0
 10
215.1089748557
 20
108.0917375923
 30
0.0
 10
215.1378285493
 20
108.0971991125
 30
0.0
 10
215.1794847269
 20
108.1329754582
 30
0.0
 10
215.2194477766
 20
108.194909672
 30
0.0
 10
215.2652327819
 20
108.2923352493
 30
0.0
 10
215.3107771547
 20
108.44877686
 30
0.0
 10
215.3344569811
 20
108.5846598365
 30
0.0
 10
215.3443875836
 20
108.6598560299
 30
0.0
  0
SPLINE
  5
496
330
21D
100
AcDbEntity
  8
RUNDUNGEN
  6
Continuous
 62
     9
100
AcDbSpline
210
0.0
220
0.0
230
1.0
 70
     8
 71
     3
 72
    12
 73
     8
 74
     0
 42
0.0000000001
 43
0.0000000001
 40
0.0
 40
0.0
 40
0.0
 40
0.0
 40
0.2454189801
 40
0.4940231468
 40
0.7457839865000002
 40
0.8729046443999999
 40
1.0
 40
1.0
 40
1.0
 40
1.0
 10
215.1089748563
 20
108.0917375925
 30
0.0
 10
214.982772862
 20
108.0915118272
 30
0.0
 10
214.7258761726
 20
108.1444858371
 30
0.0
 10
214.4022261254
 20
108.3672009033
 30
0.0
 10
214.2203050516
 20
108.6441374936
 30
0.0
 10
214.1436706609
 20
108.8941155382
 30
0.0
 10
214.1298674839
 20
109.0250237878
 30
0.0
 10
214.1285585156
 20
109.0903671272
 30
0.0
  0
SPLINE
  5
497
330
21D
100
AcDbEntity
  8
RUNDUNGEN
  6
Continuous
 62
     9
100
AcDbSpline
210
0.0
220
0.0
230
1.0
 70
     8
 71
     3
 72
    11
 73
     7
 74
     0
 42
0.0000000001
 43
0.0000000001
 40
0.0
 40
0.0
 40
0.0
 40
0.0
 40
0.2457091995
 40
0.4945870052
 40
0.7466277202000001
 40
1.0
 40
1.0
 40
1.0
 40
1.0
 10
213.8546499329
 20
107.8377817114
 30
0.0
 10
213.7284346745
 20
107.8376409474
 30
0.0
 10
213.4715222876
 20
107.8903608371
 30
0.0
 10
213.1478013643
 20
108.113494564
 30
0.0
 10
212.9295388484
 20
108.4447321176
 30
0.0
 10
212.8759043277
 20
108.7062715221
 30
0.0
 10
212.8741394704
 20
108.8364112462
 30
0.0
  0
SPLINE
  5
498
330
21D
100
AcDbEntity
  8
RUNDUNGEN
  6
Continuous
 62
     9
100
AcDbSpline
210
0.0
220
0.0
230
1.0
 70
     8
 71
     3
 72
    13
 73
     9
 74
     0
 42
0.0000000001
 43
0.0000000001
 40
0.0
 40
0.0
 40
0.0
 40
0.0
 40
0.0522863276
 40
0.124130789
 40
0.2197529983
 40
0.3391562577
 40
0.6400997019
 40
1.0
 40
1.0
 40
1.0
 40
1.0
 10
211.4272254594
 20
107.7299054118
 30
0.0
 10
211.4419094614
 20
107.7331278006
 30
0.0
 10
211.473287037
 20
107.7539949501
 30
0.0
 10
211.5095153949
 20
107.8062360888
 30
0.0
 10
211.5437523799
 20
107.8816439726
 30
0.0
 10
211.5882423689
 20
108.0233870927
 30
0.0
 10
211.6282590505
 20
108.2448536555
 30
0.0
 10
211.6443561123
 20
108.4343583557
 30
0.0
 10
211.6491545492
 20
108.5377259511
 30
0.0
  0
SPLINE
  5
499
330
21D
100
AcDbEntity
  8
RUNDUNGEN
  6
Continuous
 62
     9
100
AcDbSpline
210
0.0
220
0.0
230
1.0
 70
     8
 71
     3
 72
    13
 73
     9
 74
     0
 42
0.0000000001
 43
0.0000000001
 40
0.0
 40
0.0
 40
0.0
 40
0.0
 40
0.0522863374
 40
0.1241308024
 40
0.219753012
 40
0.3391562695000001
 40
0.6400997076000001
 40
1.0
 40
1.0
 40
1.0
 40
1.0
 10
189.2124804229
 20
107.7299054118
 30
0.0
 10
189.1977964177
 20
107.7331278003
 30
0.0
 10
189.166418835
 20
107.7539949468
 30
0.0
 10
189.1301904685
 20
107.8062360865
 30
0.0
 10
189.0959534788
 20
107.8816439703
 30
0.0
 10
189.0514634876
 20
108.0233870902
 30
0.0
 10
189.0114468125
 20
108.2448536543
 30
0.0
 10
188.9953497622
 20
108.4343583553
 30
0.0
 10
188.9905513331
 20
108.5377259511
 30
0.0
  0
SPLINE
  5
49A
330
21D
100
AcDbEntity
  8
RUNDUNGEN
  6
Continuous
 62
     9
100
AcDbSpline
210
0.0
220
0.0
230
1.0
 70
     8
 71
     3
 72
    11
 73
     7
 74
     0
 42
0.0000000001
 43
0.0000000001
 40
0.0
 40
0.0
 40
0.0
 40
0.0
 40
0.2457091974
 40
0.4945869966
 40
0.7466277122000001
 40
1.0
 40
1.0
 40
1.0
 40
1.0
 10
186.7850559778
 20
107.8377836512
 30
0.0
 10
186.9112712224
 20
107.8376425723
 30
0.0
 10
187.1681837164
 20
107.8903618384
 30
0.0
 10
187.4919050829
 20
108.1134948908
 30
0.0
 10
187.7101680672
 20
108.4447321365
 30
0.0
 10
187.7638027218
 20
108.7062715308
 30
0.0
 10
187.7655675783
 20
108.8364112462
 30
0.0
  0
SPLINE
  5
49B
330
21D
100
AcDbEntity
  8
RUNDUNGEN
  6
Continuous
 62
     9
100
AcDbSpline
210
0.0
220
0.0
230
1.0
 70
     8
 71
     3
 72
    12
 73
     8
 74
     0
 42
0.0000000001
 43
0.0000000001
 40
0.0
 40
0.0
 40
0.0
 40
0.0
 40
0.2454189801
 40
0.4940231467000001
 40
0.7457839865000002
 40
0.8729046442999999
 40
1.0
 40
1.0
 40
1.0
 40
1.0
 10
185.530731026
 20
108.0917375925
 30
0.0
 10
185.6569330203
 20
108.0915118272
 30
0.0
 10
185.9138297097
 20
108.1444858371
 30
0.0
 10
186.2374797568999
 20
108.3672009033
 30
0.0
 10
186.4194008308
 20
108.6441374936
 30
0.0
 10
186.4960352214
 20
108.8941155382
 30
0.0
 10
186.5098383983
 20
109.0250237878
 30
0.0
 10
186.5111473668
 20
109.0903671272
 30
0.0
  0
SPLINE
  5
49C
330
21D
100
AcDbEntity
  8
RUNDUNGEN
  6
Continuous
 62
     9
100
AcDbSpline
210
0.0
220
0.0
230
1.0
 70
     8
 71
     3
 72
    12
 73
     8
 74
     0
 42
0.0000000001
 43
0.0000000001
 40
0.0
 40
0.0
 40
0.0
 40
0.0
 40
0.1383817186
 40
0.2345829665
 40
0.351125119
 40
0.6425759094
 40
1.0
 40
1.0
 40
1.0
 40
1.0
 10
185.530731026
 20
108.0917375925
 30
0.0
 10
185.5018773325999
 20
108.0971991126
 30
0.0
 10
185.4602211547
 20
108.1329754577
 30
0.0
 10
185.420258105
 20
108.194909671
 30
0.0
 10
185.3744731002
 20
108.2923352481
 30
0.0
 10
185.3289287235
 20
108.4487768566
 30
0.0
 10
185.3052489059
 20
108.5846598338
 30
0.0
 10
185.2953183035
 20
108.6598560264
 30
0.0
  0
SPLINE
  5
49D
330
21D
100
AcDbEntity
  8
RUNDUNGEN
  6
Continuous
 62
     9
100
AcDbSpline
210
0.0
220
0.0
230
1.0
 70
     8
 71
     3
 72
    12
 73
     8
 74
     0
 42
0.0000000001
 43
0.0000000001
 40
0.0
 40
0.0
 40
0.0
 40
0.0
 40
0.0677387019
 40
0.1551210374
 40
0.3873907572
 40
0.6817955928
 40
1.0
 40
1.0
 40
1.0
 40
1.0
 10
187.765576572
 20
108.8364004369
 30
0.0
 10
187.7853096965
 20
108.8152572499
 30
0.0
 10
187.8386038949
 20
108.7746392624
 30
0.0
 10
187.9855877777
 20
108.6981667211
 30
0.0
 10
188.2374713357
 20
108.6193907473
 30
0.0
 10
188.5929304443
 20
108.5557079079
 30
0.0
 10
188.8547106925
 20
108.5382688603
 30
0.0
 10
188.9905673075999
 20
108.5377252034
 30
0.0
  0
SPLINE
  5
49E
330
21D
100
AcDbEntity
  8
RUNDUNGEN
  6
Continuous
 62
     9
100
AcDbSpline
210
0.0
220
0.0
230
1.0
 70
     8
 71
     3
 72
    12
 73
     8
 74
     0
 42
0.0000000001
 43
0.0000000001
 40
0.0
 40
0.0
 40
0.0
 40
0.0
 40
0.261843756
 40
0.3908298062
 40
0.51671422
 40
0.7615180602000001
 40
1.0
 40
1.0
 40
1.0
 40
1.0
 10
187.9999960063999
 20
128.2518239689
 30
0.0
 10
187.858717923
 20
128.2576508602
 30
0.0
 10
187.6566976788
 20
128.3683900245
 30
0.0
 10
187.4586801163
 20
128.5620981627
 30
0.0
 10
187.288648592
 20
128.7730518371
 30
0.0
 10
187.1174489648
 20
129.0550693376
 30
0.0
 10
187.0081820236
 20
129.2926112449
 30
0.0
 10
186.959747842
 20
129.411938879
 30
0.0
  0
LINE
  5
49F
330
21D
100
AcDbEntity
  8
RUNDUNGEN
  6
Continuous
 62
     9
100
AcDbLine
 10
187.7655761264
 20
108.8364092796
 30
0.0
 11
186.680484929
 21
130.4003912473
 31
0.0
  0
SPLINE
  5
4A0
330
21D
100
AcDbEntity
  8
RUNDUNGEN
  6
Continuous
 62
     9
100
AcDbSpline
210
0.0
220
0.0
230
1.0
 70
     8
 71
     3
 72
    12
 73
     8
 74
     0
 42
0.0000000001
 43
0.0000000001
 40
0.0
 40
0.0
 40
0.0
 40
0.0
 40
0.3182044104
 40
0.6126092461
 40
0.8448789654
 40
0.9322612903999999
 40
1.0
 40
1.0
 40
1.0
 40
1.0
 10
211.6491386005
 20
108.5377252046
 30
0.0
 10
211.7849952153
 20
108.5382688572
 30
0.0
 10
212.0467754549
 20
108.5557079227
 30
0.0
 10
212.4022345855
 20
108.6193907242
 30
0.0
 10
212.6541180736
 20
108.6981667918
 30
0.0
 10
212.8011020354
 20
108.7746392168
 30
0.0
 10
212.8543961605
 20
108.8152572803
 30
0.0
 10
212.8741293158
 20
108.8364004427
 30
0.0
  0
LINE
  5
4A1
330
21D
100
AcDbEntity
  8
RUNDUNGEN
  6
Continuous
 62
     9
100
AcDbLine
 10
213.9592209533
 20
130.4003912473
 30
0.0
 11
212.8741297612
 21
108.8364092806
 31
0.0
  0
SPLINE
  5
4A2
330
21D
100
AcDbEntity
  8
RUNDUNGEN
  6
Continuous
 62
     9
100
AcDbSpline
210
0.0
220
0.0
230
1.0
 70
     8
 71
     3
 72
    12
 73
     8
 74
     0
 42
0.0000000001
 43
0.0000000001
 40
0.0
 40
0.0
 40
0.0
 40
0.0
 40
0.2384828014
 40
0.4832873663
 40
0.6091727299000001
 40
0.7381600267000001
 40
1.0
 40
1.0
 40
1.0
 40
1.0
 10
213.6799578887
 20
129.4119385187
 30
0.0
 10
213.6315267172
 20
129.2926102915
 30
0.0
 10
213.5222538697
 20
129.0550723446
 30
0.0
 10
213.3510489246
 20
128.7730586041
 30
0.0
 10
213.1810032334
 20
128.562117863
 30
0.0
 10
212.9829968379
 20
128.3684031311
 30
0.0
 10
212.7809843367
 20
128.2576611999
 30
0.0
 10
212.639709876
 20
128.2518239689
 30
0.0
  0
SPLINE
  5
4A4
330
21D
100
AcDbEntity
  8
RUNDUNGEN
  6
Continuous
 62
     9
100
AcDbSpline
210
0.0
220
0.0
230
1.0
 70
     8
 71
     3
 72
    12
 73
     8
 74
     0
 42
0.0000000001
 43
0.0000000001
 40
0.0
 40
0.0
 40
0.0
 40
0.0
 40
0.0803209334
 40
0.1774392225
 40
0.4193549121000001
 40
0.7052890492000001
 40
1.0
 40
1.0
 40
1.0
 40
1.0
 10
214.1285585156
 20
109.0903671272
 30
0.0
 10
214.1455608556
 20
109.0590281481
 30
0.0
 10
214.1958665256
 20
108.9967578556
 30
0.0
 10
214.3432033396
 20
108.8816220756
 30
0.0
 10
214.5993796115
 20
108.7665098501
 30
0.0
 10
214.9551568844
 20
108.6798173759
 30
0.0
 10
215.2135706568
 20
108.6588654112
 30
0.0
 10
215.3443875788
 20
108.6598560264
 30
0.0
  0
SPLINE
  5
4A5
330
21D
100
AcDbEntity
  8
RUNDUNGEN
  6
Continuous
 62
     9
100
AcDbSpline
210
0.0
220
0.0
230
1.0
 70
     8
 71
     3
 72
    12
 73
     8
 74
     0
 42
0.0000000001
 43
0.0000000001
 40
0.0
 40
0.0
 40
0.0
 40
0.0
 40
0.2948513955
 40
0.5807396587
 40
0.8225834318
 40
0.9197034964
 40
1.0
 40
1.0
 40
1.0
 40
1.0
 10
217.7222589059
 20
127.9380934048
 30
0.0
 10
217.5916148177
 20
127.9372501697
 30
0.0
 10
217.3336507444
 20
127.9584076141
 30
0.0
 10
216.9785612304
 20
128.0451396142
 30
0.0
 10
216.7229518799
 20
128.1601839932
 30
0.0
 10
216.5760229213
 20
128.2752077644
 30
0.0
 10
216.5257873664
 20
128.3373318275
 30
0.0
 10
216.5088202353
 20
128.3686043884
 30
0.0
  0
SPLINE
  5
4A6
330
21D
100
AcDbEntity
  8
RUNDUNGEN
  6
Continuous
 62
     9
100
AcDbSpline
210
0.0
220
0.0
230
1.0
 70
     8
 71
     3
 72
     8
 73
     4
 74
     0
 42
0.0000000001
 43
0.0000000001
 40
0.0
 40
0.0
 40
0.0
 40
0.0
 40
1.0
 40
1.0
 40
1.0
 40
1.0
 10
216.5803761853
 20
135.505753166
 30
0.0
 10
216.5750253768
 20
135.5039076109
 30
0.0
 10
216.5697139228
 20
135.5019349366
 30
0.0
 10
216.5644906976
 20
135.4997543072
 30
0.0
  0
SPLINE
  5
4A7
330
21D
100
AcDbEntity
  8
RUNDUNGEN
  6
Continuous
 62
     9
100
AcDbSpline
210
0.0
220
0.0
230
1.0
 70
     8
 71
     3
 72
     9
 73
     5
 74
     0
 42
0.0000000001
 43
0.0000000001
 40
0.0
 40
0.0
 40
0.0
 40
0.0
 40
0.6187035897
 40
1.0
 40
1.0
 40
1.0
 40
1.0
 10
217.7993528182
 20
129.2199488762
 30
0.0
 10
217.543599432
 20
129.2199352031
 30
0.0
 10
217.1302357495
 20
129.2208933912
 30
0.0
 10
216.7168537136
 20
129.2212101513
 30
0.0
 10
216.5592495328
 20
129.2231747782
 30
0.0
  0
SPLINE
  5
4A8
330
21D
100
AcDbEntity
  8
RUNDUNGEN
  6
Continuous
 62
     9
100
AcDbSpline
210
0.0
220
0.0
230
1.0
 70
     8
 71
     3
 72
    15
 73
    11
 74
     0
 42
0.0000000001
 43
0.0000000001
 40
0.0
 40
0.0
 40
0.0
 40
0.0
 40
0.0295590461
 40
0.0695299062
 40
0.1727601695
 40
0.295165016
 40
0.4279773419
 40
0.5667714308000001
 40
0.7091844209999999
 40
1.0
 40
1.0
 40
1.0
 40
1.0
 10
216.5803761853
 20
135.505753166
 30
0.0
 10
216.5922788909
 20
135.5098634725
 30
0.0
 10
216.6177116045
 20
135.5260774784
 30
0.0
 10
216.6726238973
 20
135.5749736953
 30
0.0
 10
216.7462208301
 20
135.6615751951
 30
0.0
 10
216.8372162273
 20
135.7841029036
 30
0.0
 10
216.9315140248
 20
135.9230561235
 30
0.0
 10
217.0265655581
 20
136.0716307321
 30
0.0
 10
217.1536763099
 20
136.279558518
 30
0.0
 10
217.2460934115
 20
136.4393465683
 30
0.0
 10
217.3068973631
 20
136.5472892558
 30
0.0
  0
SPLINE
  5
4A9
330
21D
100
AcDbEntity
  8
RUNDUNGEN
  6
Continuous
 62
     9
100
AcDbSpline
210
0.0
220
0.0
230
1.0
 70
     8
 71
     3
 72
     8
 73
     4
 74
     0
 42
0.0000000001
 43
0.0000000001
 40
0.0
 40
0.0
 40
0.0
 40
0.0
 40
1.0
 40
1.0
 40
1.0
 40
1.0
 10
184.0752151847
 20
135.4997543072
 30
0.0
 10
184.0699919362
 20
135.5019348186
 30
0.0
 10
184.0646804741999
 20
135.5039073824
 30
0.0
 10
184.0593297297
 20
135.5057530499
 30
0.0
  0
SPLINE
  5
4AA
330
21D
100
AcDbEntity
  8
RUNDUNGEN
  6
Continuous
 62
     9
100
AcDbSpline
210
0.0
220
0.0
230
1.0
 70
     8
 71
     3
 72
    15
 73
    11
 74
     0
 42
0.0000000001
 43
0.0000000001
 40
0.0
 40
0.0
 40
0.0
 40
0.0
 40
0.2908633883
 40
0.4332964851
 40
0.5720899214000001
 40
0.7048880864
 40
0.8272863273
 40
0.930510224
 40
0.9704569655
 40
1.0
 40
1.0
 40
1.0
 40
1.0
 10
183.3328085589
 20
136.5472891835
 30
0.0
 10
183.3936139368
 20
136.4393244548
 30
0.0
 10
183.4860562115
 20
136.2795178868
 30
0.0
 10
183.6132084498
 20
136.0715829141
 30
0.0
 10
183.7082944412
 20
135.9230282302
 30
0.0
 10
183.8026201244
 20
135.7841061363
 30
0.0
 10
183.8935526443
 20
135.6615506123
 30
0.0
 10
183.9670979684
 20
135.5749205375
 30
0.0
 10
184.0220071752
 20
135.5260517015
 30
0.0
 10
184.0474304617
 20
135.5098522593
 30
0.0
 10
184.0593297297
 20
135.5057530499
 30
0.0
  0
SPLINE
  5
4AB
330
21D
100
AcDbEntity
  8
RUNDUNGEN
  6
Continuous
 62
     9
100
AcDbSpline
210
0.0
220
0.0
230
1.0
 70
     8
 71
     3
 72
     9
 73
     5
 74
     0
 42
0.0000000001
 43
0.0000000001
 40
0.0
 40
0.0
 40
0.0
 40
0.0
 40
0.6187035448
 40
1.0
 40
1.0
 40
1.0
 40
1.0
 10
182.8403531296
 20
129.219948877
 30
0.0
 10
183.0961064836
 20
129.219935204
 30
0.0
 10
183.5094701443999
 20
129.2208933912
 30
0.0
 10
183.9228521584999
 20
129.2212101526
 30
0.0
 10
184.0804563496
 20
129.2231747782
 30
0.0
  0
SPLINE
  5
4AC
330
21D
100
AcDbEntity
  8
RUNDUNGEN
  6
Continuous
 62
     9
100
AcDbSpline
210
0.0
220
0.0
230
1.0
 70
     8
 71
     3
 72
    12
 73
     8
 74
     0
 42
0.0000000001
 43
0.0000000001
 40
0.0
 40
0.0
 40
0.0
 40
0.0
 40
0.2948514152
 40
0.5807396882
 40
0.8225834518
 40
0.9197035063999999
 40
1.0
 40
1.0
 40
1.0
 40
1.0
 10
182.9174469099
 20
127.9380932892
 30
0.0
 10
183.0480910194
 20
127.9372500537
 30
0.0
 10
183.3060551308
 20
127.958407506
 30
0.0
 10
183.6611446833
 20
128.0451395344
 30
0.0
 10
183.9167540456
 20
128.1601839468
 30
0.0
 10
184.0636829886
 20
128.2752077467
 30
0.0
 10
184.1139185269
 20
128.3373318228
 30
0.0
 10
184.1308856471
 20
128.3686043884
 30
0.0
  0
SPLINE
  5
4AD
330
21D
100
AcDbEntity
  8
RUNDUNGEN
  6
Continuous
 62
     9
100
AcDbSpline
210
0.0
220
0.0
230
1.0
 70
     8
 71
     3
 72
    12
 73
     8
 74
     0
 42
0.0000000001
 43
0.0000000001
 40
0.0
 40
0.0
 40
0.0
 40
0.0
 40
0.2947109513
 40
0.5806450875
 40
0.8225607766999999
 40
0.919679063
 40
1.0
 40
1.0
 40
1.0
 40
1.0
 10
185.2953183035
 20
108.6598560264
 30
0.0
 10
185.4261352265
 20
108.6588655039
 30
0.0
 10
185.6845489967
 20
108.6798173367
 30
0.0
 10
186.0403262742
 20
108.7665098554
 30
0.0
 10
186.2965025344
 20
108.8816220827
 30
0.0
 10
186.4438393625
 20
108.9967578481
 30
0.0
 10
186.494145026
 20
109.0590281467
 30
0.0
 10
186.5111473668
 20
109.0903671272
 30
0.0
  0
LINE
  5
4AE
330
21D
100
AcDbEntity
  8
RUNDUNGEN
  6
Continuous
 62
     9
100
AcDbLine
 10
188.9905672700999
 20
108.5377259511
 30
0.0
 11
187.9999960059999
 21
128.251823969
 31
0.0
  0
LINE
  5
4AF
330
21D
100
AcDbEntity
  8
RUNDUNGEN
  6
Continuous
 62
     9
100
AcDbLine
 10
212.6397098763
 20
128.251823969
 30
0.0
 11
211.649138638
 21
108.5377259511
 31
0.0
  0
LINE
  5
4B0
330
21D
100
AcDbEntity
  8
RUNDUNGEN
  6
Continuous
 62
     9
100
AcDbLine
 10
212.3722117166
 20
129.4421414877
 30
0.0
 11
211.1232037336
 21
129.5263589327
 31
0.0
  0
LINE
  5
4B1
330
21D
100
AcDbEntity
  8
RUNDUNGEN
  6
Continuous
 62
     9
100
AcDbLine
 10
189.5165021487
 20
129.5263589327
 30
0.0
 11
188.2674941658
 21
129.4421414877
 31
0.0
  0
SPLINE
  5
4B2
330
21D
100
AcDbEntity
  8
RUNDUNGEN
  6
Continuous
 62
     9
100
AcDbSpline
210
0.0
220
0.0
230
1.0
 70
     8
 71
     3
 72
     9
 73
     5
 74
     0
 42
0.0000000001
 43
0.0000000001
 40
0.0
 40
0.0
 40
0.0
 40
0.0
 40
0.2330738159
 40
1.0
 40
1.0
 40
1.0
 40
1.0
 10
185.0538795022
 20
136.498383842
 30
0.0
 10
185.0514205906
 20
136.4988823058
 30
0.0
 10
185.0408589863
 20
136.5009632934
 30
0.0
 10
185.0302585648
 20
136.5028441551
 30
0.0
 10
185.0221164302999
 20
136.5042081122
 30
0.0
  0
LINE
  5
4B3
330
21D
100
AcDbEntity
  8
RUNDUNGEN
  6
Continuous
 62
     9
100
AcDbLine
 10
189.5247879472
 20
135.5931743327
 30
0.0
 11
185.0538795022
 21
136.498383842
 31
0.0
  0
LINE
  5
4B4
330
21D
100
AcDbEntity
  8
RUNDUNGEN
  6
Continuous
 62
     9
100
AcDbLine
 10
215.5858263802
 20
136.498383842
 30
0.0
 11
211.1149179351
 21
135.5931743327
 31
0.0
  0
SPLINE
  5
4B5
330
21D
100
AcDbEntity
  8
RUNDUNGEN
  6
Continuous
 62
     9
100
AcDbSpline
210
0.0
220
0.0
230
1.0
 70
     8
 71
     3
 72
     9
 73
     5
 74
     0
 42
0.0000000001
 43
0.0000000001
 40
0.0
 40
0.0
 40
0.0
 40
0.0
 40
0.2668708055
 40
1.0
 40
1.0
 40
1.0
 40
1.0
 10
215.6175894521
 20
136.5042081122
 30
0.0
 10
215.6147562067
 20
136.5037334756
 30
0.0
 10
215.6041461233
 20
136.5019172032
 30
0.0
 10
215.5935608107
 20
136.4999517813
 30
0.0
 10
215.5858263802
 20
136.498383842
 30
0.0
  0
LINE
  5
4B6
330
21D
100
AcDbEntity
  8
RUNDUNGEN
  6
Continuous
 62
     9
100
AcDbLine
 10
213.9592209533
 20
130.4003912473
 30
0.0
 11
212.0932749845
 21
130.5262066278
 31
0.0
  0
LINE
  5
4B7
330
21D
100
AcDbEntity
  8
RUNDUNGEN
  6
Continuous
 62
     9
100
AcDbLine
 10
212.8741297612
 20
108.8364092806
 30
0.0
 11
214.1285585156
 21
109.0903671272
 31
0.0
  0
LINE
  5
4B8
330
21D
100
AcDbEntity
  8
RUNDUNGEN
  6
Continuous
 62
     9
100
AcDbLine
 10
214.1285585156
 20
109.0903671272
 30
0.0
 11
216.5088202353
 21
128.3686043884
 31
0.0
  0
SPLINE
  5
4B9
330
21D
100
AcDbEntity
  8
RUNDUNGEN
  6
Continuous
 62
     9
100
AcDbSpline
210
0.0
220
0.0
230
1.0
 70
     8
 71
     3
 72
     9
 73
     5
 74
     0
 42
0.0000000001
 43
0.0000000001
 40
0.0
 40
0.0
 40
0.0
 40
0.0
 40
0.2398401366
 40
1.0
 40
1.0
 40
1.0
 40
1.0
 10
216.5088202353
 20
128.3686043884
 30
0.0
 10
216.5172094779
 20
128.4365512541
 30
0.0
 10
216.547167297
 20
128.7204595703
 30
0.0
 10
216.5590686361
 20
129.0061858259
 30
0.0
 10
216.5592495328
 20
129.2231747782
 30
0.0
  0
LINE
  5
4BA
330
21D
100
AcDbEntity
  8
RUNDUNGEN
  6
Continuous
 62
     9
100
AcDbLine
 10
216.5644906976
 20
135.4997543072
 30
0.0
 11
212.0932749845
 21
134.594544798
 31
0.0
  0
SPLINE
  5
4BB
330
21D
100
AcDbEntity
  8
RUNDUNGEN
  6
Continuous
 62
     9
100
AcDbSpline
210
0.0
220
0.0
230
1.0
 70
     8
 71
     3
 72
     9
 73
     5
 74
     0
 42
0.0000000001
 43
0.0000000001
 40
0.0
 40
0.0
 40
0.0
 40
0.0
 40
0.2574377726
 40
1.0
 40
1.0
 40
1.0
 40
1.0
 10
184.0804563496
 20
129.2231747782
 30
0.0
 10
184.0805176115
 20
129.149689905
 30
0.0
 10
184.084862643
 20
128.8642786148
 30
0.0
 10
184.1049123706
 20
128.5789693526
 30
0.0
 10
184.1308856471
 20
128.3686043884
 30
0.0
  0
LINE
  5
4BC
330
21D
100
AcDbEntity
  8
RUNDUNGEN
  6
Continuous
 62
     9
100
AcDbLine
 10
184.1308856471
 20
128.3686043884
 30
0.0
 11
186.5111473668
 21
109.0903671272
 31
0.0
  0
LINE
  5
4BD
330
21D
100
AcDbEntity
  8
RUNDUNGEN
  6
Continuous
 62
     9
100
AcDbLine
 10
186.5111473668
 20
109.0903671272
 30
0.0
 11
187.7655761264
 21
108.8364092796
 31
0.0
  0
LINE
  5
4BE
330
21D
100
AcDbEntity
  8
RUNDUNGEN
  6
Continuous
 62
     9
100
AcDbLine
 10
188.5464308979
 20
130.5262066278
 30
0.0
 11
186.680484929
 21
130.4003912473
 31
0.0
  0
LINE
  5
4BF
330
21D
100
AcDbEntity
  8
RUNDUNGEN
  6
Continuous
 62
     9
100
AcDbLine
 10
188.5464308979
 20
134.594544798
 30
0.0
 11
184.0752151847
 21
135.4997543072
 31
0.0
  0
LINE
  5
4C0
330
21D
100
AcDbEntity
  8
RUNDUNGEN
  6
Continuous
 62
     9
100
AcDbLine
 10
182.9174469111
 20
127.9380932932
 30
0.0
 11
185.2953182981
 21
108.6598560299
 31
0.0
  0
LINE
  5
4C2
330
21D
100
AcDbEntity
  8
RUNDUNGEN
  6
Continuous
 62
     9
100
AcDbLine
 10
215.3443906155
 20
108.65985603
 30
0.0
 11
217.7222589712
 21
127.9380932932
 31
0.0
  0
SPLINE
  5
4C4
330
21D
100
AcDbEntity
  8
RUNDUNGEN
  6
Continuous
 62
     9
100
AcDbSpline
210
0.0
220
0.0
230
1.0
 70
     8
 71
     3
 72
    13
 73
     9
 74
     0
 42
0.0000000001
 43
0.0000000001
 40
0.0
 40
0.0
 40
0.0
 40
0.0
 40
0.2525750438
 40
0.5033106568
 40
0.6282497151
 40
0.7524882943000001
 40
0.8762859295
 40
1.0
 40
1.0
 40
1.0
 40
1.0
 10
185.3695746329
 20
184.355507091
 30
0.0
 10
185.3693844427
 20
184.13033519
 30
0.0
 10
185.4205612493
 20
183.6789010979
 30
0.0
 10
185.6614696286
 20
183.156799807
 30
0.0
 10
185.9713325149
 20
182.8311123733
 30
0.0
 10
186.2542029049
 20
182.6499217155
 30
0.0
 10
186.5710660027
 20
182.542903305
 30
0.0
 10
186.7925716726
 20
182.5208728068
 30
0.0
 10
186.9028634176
 20
182.5208677024
 30
0.0
  0
SPLINE
  5
4C5
330
21D
100
AcDbEntity
  8
RUNDUNGEN
  6
Continuous
 62
     9
100
AcDbSpline
210
0.0
220
0.0
230
1.0
 70
     8
 71
     3
 72
    13
 73
     9
 74
     0
 42
0.0000000001
 43
0.0000000001
 40
0.0
 40
0.0
 40
0.0
 40
0.0
 40
0.123714164
 40
0.2475121425
 40
0.3717505975
 40
0.4966896239
 40
0.7474250943000001
 40
1.0
 40
1.0
 40
1.0
 40
1.0
 10
213.7368424655
 20
182.5208677024
 30
0.0
 10
213.8471342941
 20
182.5208727711
 30
0.0
 10
214.0686402929
 20
182.5429036647
 30
0.0
 10
214.3855038306
 20
182.6499217263
 30
0.0
 10
214.6683739991
 20
182.8311130887
 30
0.0
 10
214.978236673
 20
183.1568003022
 30
0.0
 10
215.219144506
 20
183.6789015187
 30
0.0
 10
215.2703216164
 20
184.1303353127
 30
0.0
 10
215.2701312494
 20
184.3555070907
 30
0.0
  0
LINE
  5
4C6
330
21D
100
AcDbEntity
  8
0
  6
Continuous
 62
     9
100
AcDbLine
 10
281.3198529412
 20
66.0435093647
 30
0.0
 11
281.3198529412
 21
66.0674706616
 31
0.0
  0
SPLINE
  5
4C9
330
21D
100
AcDbEntity
  8
0
  6
Continuous
 62
     9
100
AcDbSpline
210
0.0
220
0.0
230
1.0
 70
     8
 71
     3
 72
    30
 73
    26
 74
     0
 42
0.0000000001
 43
0.0000000001
 40
0.0
 40
0.0
 40
0.0
 40
0.0
 40
0.0005145326
 40
0.0015088835
 40
0.0030691477
 40
0.0052137898
 40
0.0112739327
 40
0.0196983769
 40
0.0304742544
 40
0.0435791526
 40
0.058983082
 40
0.0766505558
 40
0.0965392898
 40
0.1186024288
 40
0.1427868604
 40
0.1690348929
 40
0.2274647394
 40
0.2933310536
 40
0.3660007605
 40
0.4447748986
 40
0.5288954768
 40
0.6175528709
 40
0.7098934020000001
 40
0.8050282673999999
 40
1.0
 40
1.0
 40
1.0
 40
1.0
 10
160.3198529412
 20
88.02663147169999
 30
0.0
 10
160.3198538334
 20
88.0197662838
 30
0.0
 10
160.3374046721
 20
88.00371042260001
 30
0.0
 10
160.3745018234
 20
87.9905247203
 30
0.0
 10
160.4358271928
 20
87.9737102906
 30
0.0
 10
160.5635475993
 20
87.95000401340001
 30
0.0
 10
160.7840316667
 20
87.92154095189999
 30
0.0
 10
161.1194424959
 20
87.88990166579999
 30
0.0
 10
161.5493856839
 20
87.85806522600001
 30
0.0
 10
162.0725749347
 20
87.82641596700001
 30
0.0
 10
162.6879035692
 20
87.79508750159999
 30
0.0
 10
163.3938555662
 20
87.7642235305
 30
0.0
 10
164.1887577495
 20
87.73392090639999
 30
0.0
 10
165.070690217
 20
87.70427635809999
 30
0.0
 10
166.0375379051
 20
87.67536833580001
 30
0.0
 10
167.4895232617
 20
87.63651492760001
 30
0.0
 10
169.4976640956
 20
87.59106070940001
 30
0.0
 10
172.1252467183
 20
87.54222612099999
 30
0.0
 10
175.0243887234
 20
87.49789261350001
 30
0.0
 10
178.1671806493
 20
87.4585132442
 30
0.0
 10
181.5233632712
 20
87.42449746700001
 30
0.0
 10
185.0606151002
 20
87.3961897955
 30
0.0
 10
188.7448714498
 20
87.3738724072
 30
0.0
 10
193.8476558016
 20
87.3522368879
 30
0.0
 10
197.7184285664
 20
87.3458842416
 30
0.0
 10
200.3198529412
 20
87.34588386229999
 30
0.0
  0
SPLINE
  5
4CA
330
21D
100
AcDbEntity
  8
RUNDUNGEN
  6
Continuous
 62
     9
100
AcDbSpline
210
0.0
220
0.0
230
1.0
 70
     8
 71
     3
 72
    11
 73
     7
 74
     0
 42
0.0000000001
 43
0.0000000001
 40
0.0
 40
0.0
 40
0.0
 40
0.0
 40
0.2720174353
 40
0.5202978536
 40
0.7602177218000001
 40
1.0
 40
1.0
 40
1.0
 40
1.0
 10
187.9759764612
 20
188.6215871252
 30
0.0
 10
188.0676287154
 20
188.5117372665
 30
0.0
 10
188.2071969239
 20
188.2688698491
 30
0.0
 10
188.289564389
 20
187.8726040688
 30
0.0
 10
188.2718239567
 20
187.4869688657
 30
0.0
 10
188.2090798754
 20
187.2409199229999
 30
0.0
 10
188.1678468333
 20
187.1217414263
 30
0.0
  0
SPLINE
  5
4CC
330
21D
100
AcDbEntity
  8
RUNDUNGEN
  6
Continuous
 62
     9
100
AcDbSpline
210
0.0
220
0.0
230
1.0
 70
     8
 71
     3
 72
     9
 73
     5
 74
     0
 42
0.0000000001
 43
0.0000000001
 40
0.0
 40
0.0
 40
0.0
 40
0.0
 40
0.2574172974
 40
1.0
 40
1.0
 40
1.0
 40
1.0
 10
182.8403530641
 20
129.2199488762
 30
0.0
 10
182.8404468014
 20
129.1097215225
 30
0.0
 10
182.847088559
 20
128.6815723577
 30
0.0
 10
182.8777455471
 20
128.2535827679
 30
0.0
 10
182.9174469111
 20
127.9380932932
 30
0.0
  0
SPLINE
  5
4CD
330
21D
100
AcDbEntity
  8
RUNDUNGEN
  6
Continuous
 62
     9
100
AcDbSpline
210
0.0
220
0.0
230
1.0
 70
     8
 71
     3
 72
    10
 73
     6
 74
     0
 42
0.0000000001
 43
0.0000000001
 40
0.0
 40
0.0
 40
0.0
 40
0.0
 40
0.5420664001
 40
0.7787786051000002
 40
1.0
 40
1.0
 40
1.0
 40
1.0
 10
264.2773512277
 20
113.0638940572
 30
0.0
 10
264.2041349198
 20
113.1561023334
 30
0.0
 10
264.0978056209
 20
113.2904184348
 30
0.0
 10
263.9177307653
 20
113.4154995587
 30
0.0
 10
263.8218730023
 20
113.447901378
 30
0.0
 10
263.7745395096
 20
113.4561746346
 30
0.0
  0
SPLINE
  5
4CE
330
21D
100
AcDbEntity
  8
RUNDUNGEN
  6
Continuous
 62
     9
100
AcDbSpline
210
0.0
220
0.0
230
1.0
 70
     8
 71
     3
 72
     9
 73
     5
 74
     0
 42
0.0000000001
 43
0.0000000001
 40
0.0
 40
0.0
 40
0.0
 40
0.0
 40
0.2398741485
 40
1.0
 40
1.0
 40
1.0
 40
1.0
 10
217.7222589712
 20
127.9380932932
 30
0.0
 10
217.7350837925
 20
128.0400065703
 30
0.0
 10
217.7808788041
 20
128.4658141691
 30
0.0
 10
217.7990760175
 20
128.8944537935
 30
0.0
 10
217.7993528182
 20
129.2199488762
 30
0.0
  0
SPLINE
  5
4CF
330
21D
100
AcDbEntity
  8
RUNDUNGEN
  6
Continuous
 62
     9
100
AcDbSpline
210
0.0
220
0.0
230
1.0
 70
     8
 71
     3
 72
     9
 73
     5
 74
     0
 42
0.0000000001
 43
0.0000000001
 40
0.0
 40
0.0
 40
0.0
 40
0.0
 40
0.5020729956000001
 40
1.0
 40
1.0
 40
1.0
 40
1.0
 10
256.136875713
 20
94.7733160017
 30
0.0
 10
256.3677717441
 20
94.7920232811
 30
0.0
 10
256.8242724593
 20
94.91597914969998
 30
0.0
 10
257.2084119676
 20
95.18887225010001
 30
0.0
 10
257.3717373936
 20
95.35044308329998
 30
0.0
  0
SPLINE
  5
4D0
330
21D
100
AcDbEntity
  8
0
  6
Continuous
 62
     9
100
AcDbSpline
210
0.0
220
0.0
230
1.0
 70
     8
 71
     3
 72
    29
 73
    25
 74
     0
 42
0.0000000001
 43
0.0000000001
 40
0.0
 40
0.0
 40
0.0
 40
0.0
 40
0.1949561727
 40
0.2900848066
 40
0.3824190256
 40
0.4710702859000001
 40
0.5551850202000001
 40
0.6339538033
 40
0.7066187705
 40
0.7724811302
 40
0.8309079716999999
 40
0.8813385390999998
 40
0.9034012169
 40
0.9232901015999999
 40
0.940957962
 40
0.9563631949999999
 40
0.9694697856000001
 40
0.9802486108
 40
0.9886770940999999
 40
0.9947437226000001
 40
0.9968930737
 40
0.9984600477999999
 40
0.9994650695
 40
1.0
 40
1.0
 40
1.0
 40
1.0
 10
200.3198529412
 20
89.4858290378
 30
0.0
 10
198.368787148
 20
89.4858294007
 30
0.0
 10
195.4656972318
 20
89.49087888479999
 30
0.0
 10
191.638593713
 20
89.50807640569999
 30
0.0
 10
188.8753773893999
 20
89.52581613479999
 30
0.0
 10
186.2224234375999
 20
89.54831728
 30
0.0
 10
183.7052779337
 20
89.57535606330001
 30
0.0
 10
181.3481807575
 20
89.606656915
 30
0.0
 10
179.1738253127999
 20
89.6418999319
 30
0.0
 10
177.2031410308
 20
89.68070681209999
 30
0.0
 10
175.4550933697
 20
89.72267431790001
 30
0.0
 10
174.1454424984
 20
89.76136539149999
 30
0.0
 10
173.2214916282
 20
89.79426887549999
 30
0.0
 10
172.6253205526
 20
89.81835696690001
 30
0.0
 10
172.0958581158
 20
89.8428905109
 30
0.0
 10
171.634365338
 20
89.8677911749
 30
0.0
 10
171.2419678446
 20
89.89295209780001
 30
0.0
 10
170.9195124281
 20
89.91825209719999
 30
0.0
 10
170.6679152161
 20
89.94341957340001
 30
0.0
 10
170.5025878641
 20
89.96601639359999
 30
0.0
 10
170.4067488979
 20
89.9849053017
 30
0.0
 10
170.3608230281
 20
89.99821550940001
 30
0.0
 10
170.3326631747
 20
90.00889535069999
 30
0.0
 10
170.3198534414999
 20
90.0215826183
 30
0.0
 10
170.3198529412
 20
90.02693605060001
 30
0.0
  0
LINE
  5
4D3
330
21D
100
AcDbEntity
  8
RUNDUNGEN
  6
Continuous
 62
     9
100
AcDbLine
 10
185.5307310266
 20
108.0917375923
 30
0.0
 11
186.7850559495
 21
107.8377817115
 31
0.0
  0
SPLINE
  5
4D4
330
21D
100
AcDbEntity
  8
RUNDUNGEN
  6
Continuous
 62
     9
100
AcDbSpline
210
0.0
220
0.0
230
1.0
 70
     8
 71
     3
 72
    13
 73
     9
 74
     0
 42
0.0000000001
 43
0.0000000001
 40
0.0
 40
0.0
 40
0.0
 40
0.0
 40
0.0567444145
 40
0.1403785333
 40
0.2483171896
 40
0.3770513965
 40
0.6784437772000001
 40
1.0
 40
1.0
 40
1.0
 40
1.0
 10
186.7850559495
 20
107.8377817115
 30
0.0
 10
186.8301306643
 20
107.8286490684
 30
0.0
 10
186.9430776736
 20
107.8136943187
 30
0.0
 10
187.1434036854
 20
107.7947372256
 30
0.0
 10
187.4024482983
 20
107.7770141199
 30
0.0
 10
187.8379655886
 20
107.7545434294
 30
0.0
 10
188.4469672214
 20
107.7356041982
 30
0.0
 10
188.9518633556
 20
107.7299122752
 30
0.0
 10
189.2124804229
 20
107.7299054118
 30
0.0
  0
SPLINE
  5
4D5
330
21D
100
AcDbEntity
  8
RUNDUNGEN
  6
Continuous
 62
     9
100
AcDbSpline
210
0.0
220
0.0
230
1.0
 70
     8
 71
     3
 72
    13
 73
     9
 74
     0
 42
0.0000000001
 43
0.0000000001
 40
0.0
 40
0.0
 40
0.0
 40
0.0
 40
0.321556223
 40
0.6229486038000001
 40
0.7516828098000001
 40
0.8596214679
 40
0.9432555831999998
 40
1.0
 40
1.0
 40
1.0
 40
1.0
 10
211.4272254594
 20
107.7299054118
 30
0.0
 10
211.687842527
 20
107.7299122647
 30
0.0
 10
212.1927386615
 20
107.7356042019
 30
0.0
 10
212.8017402934
 20
107.75454343
 30
0.0
 10
213.2372575851
 20
107.7770141185
 30
0.0
 10
213.4963021947
 20
107.7947372299
 30
0.0
 10
213.69662821
 20
107.8136943079
 30
0.0
 10
213.8095752131
 20
107.8286490837
 30
0.0
 10
213.8546499329
 20
107.8377817115
 30
0.0
  0
LINE
  5
4D6
330
21D
100
AcDbEntity
  8
RUNDUNGEN
  6
Continuous
 62
     9
100
AcDbLine
 10
213.8546499329
 20
107.8377817115
 30
0.0
 11
215.1089748558
 21
108.0917375923
 31
0.0
  0
LINE
  5
4D7
330
21D
100
AcDbEntity
  8
RUNDUNGEN
  6
Continuous
 62
     9
100
AcDbLine
 10
247.7172287496
 20
89.39407783120001
 30
0.0
 11
247.7174370696
 21
94.17965917809999
 31
0.0
  0
LINE
  5
4D8
330
21D
100
AcDbEntity
  8
RUNDUNGEN
  6
Continuous
 62
     9
100
AcDbLine
 10
248.6638023727
 20
95.17692012579999
 30
0.0
 11
249.0196086924
 21
95.19817129080001
 31
0.0
  0
SPLINE
  5
4D9
330
21D
100
AcDbEntity
  8
RUNDUNGEN
  6
Continuous
 62
     9
100
AcDbSpline
210
0.0
220
0.0
230
1.0
 70
     8
 71
     3
 72
    11
 73
     7
 74
     0
 42
0.0000000001
 43
0.0000000001
 40
0.0
 40
0.0
 40
0.0
 40
0.0
 40
0.2719865948
 40
0.5265015492
 40
0.7641971099
 40
1.0
 40
1.0
 40
1.0
 40
1.0
 10
263.1502113635
 20
112.52057947
 30
0.0
 10
263.1204929376
 20
112.5663831994
 30
0.0
 10
263.0642941506
 20
112.6560101724
 30
0.0
 10
262.9642908424
 20
112.7734661277
 30
0.0
 10
262.8454692888
 20
112.8617048553
 30
0.0
 10
262.7533496765
 20
112.8919043459
 30
0.0
 10
262.7067191444
 20
112.9000482511
 30
0.0
  0
SPLINE
  5
4DA
330
21D
100
AcDbEntity
  8
RUNDUNGEN
  6
Continuous
 62
     9
100
AcDbSpline
210
0.0
220
0.0
230
1.0
 70
     8
 71
     3
 72
    22
 73
    18
 74
     0
 42
0.0000000001
 43
0.0000000001
 40
0.0
 40
0.0
 40
0.0
 40
0.0
 40
0.2040071932
 40
0.3897796413
 40
0.5553372859000002
 40
0.6300658579000001
 40
0.6990525751000001
 40
0.7620482148000001
 40
0.8186777601999999
 40
0.8684776867
 40
0.9109709183999999
 40
0.9456074369999999
 40
0.9721271193999999
 40
0.9822228355
 40
0.9901076304
 40
0.9959027148
 40
1.0
 40
1.0
 40
1.0
 40
1.0
 10
256.746975626
 20
96.21478319739999
 30
0.0
 10
257.2438581499
 20
97.30158330489999
 30
0.0
 10
258.180910213
 20
99.38369447639999
 30
0.0
 10
259.4811236415
 20
102.3655839085
 30
0.0
 10
260.4505636216
 20
104.6653912823
 30
0.0
 10
261.135585766
 20
106.3425121077
 30
0.0
 10
261.5839088215
 20
107.467313501
 30
0.0
 10
261.9828969209
 20
108.4975942879
 30
0.0
 10
262.3301449862
 20
109.4273324443
 30
0.0
 10
262.6224714081
 20
110.2492567403
 30
0.0
 10
262.8570248067
 20
110.9549380222
 30
0.0
 10
263.0298999393
 20
111.5369543524
 30
0.0
 10
263.130052935
 20
111.9426773123
 30
0.0
 10
263.1729675063
 20
112.1997984592
 30
0.0
 10
263.1850140706
 20
112.3390509123
 30
0.0
 10
263.179367998
 20
112.4429395221
 30
0.0
 10
263.1632771924
 20
112.500447297
 30
0.0
 10
263.1502113635
 20
112.52057947
 30
0.0
  0
SPLINE
  5
4DB
330
21D
100
AcDbEntity
  8
RUNDUNGEN
  6
Continuous
 62
     9
100
AcDbSpline
210
0.0
220
0.0
230
1.0
 70
     8
 71
     3
 72
    10
 73
     6
 74
     0
 42
0.0000000001
 43
0.0000000001
 40
0.0
 40
0.0
 40
0.0
 40
0.0
 40
0.2507913999
 40
0.5009425919
 40
1.0
 40
1.0
 40
1.0
 40
1.0
 10
249.209714087
 20
94.20040577729999
 30
0.0
 10
249.788817209
 20
94.24815288479999
 30
0.0
 10
250.9453698227
 20
94.3456376776
 30
0.0
 10
253.2542878711
 20
94.53825020129999
 30
0.0
 10
254.984367275
 20
94.67993690459998
 30
0.0
 10
256.136875713
 20
94.7733160017
 30
0.0
  0
SPLINE
  5
4DC
330
21D
100
AcDbEntity
  8
RUNDUNGEN
  6
Continuous
 62
     9
100
AcDbSpline
210
0.0
220
0.0
230
1.0
 70
     8
 71
     3
 72
    11
 73
     7
 74
     0
 42
0.0000000001
 43
0.0000000001
 40
0.0
 40
0.0
 40
0.0
 40
0.0
 40
0.2397822777
 40
0.4797021464000001
 40
0.7279825643000001
 40
1.0
 40
1.0
 40
1.0
 40
1.0
 10
212.471859049
 20
187.1217414263
 30
0.0
 10
212.4306260307
 20
187.2409199309
 30
0.0
 10
212.3678819139
 20
187.4869688617
 30
0.0
 10
212.350141499
 20
187.8726040692
 30
0.0
 10
212.4325089542
 20
188.2688698504
 30
0.0
 10
212.5720771694
 20
188.5117372647
 30
0.0
 10
212.6637294219
 20
188.6215871252
 30
0.0
  0
SPLINE
  5
4DD
330
21D
100
AcDbEntity
  8
RUNDUNGEN
  6
Continuous
 62
     9
100
AcDbSpline
210
0.0
220
0.0
230
1.0
 70
     8
 71
     3
 72
     8
 73
     4
 74
     0
 42
0.0000000001
 43
0.0000000001
 40
0.0
 40
0.0
 40
0.0
 40
0.0
 40
1.0
 40
1.0
 40
1.0
 40
1.0
 10
214.5174501028
 20
201.0262066928
 30
0.0
 10
213.9498039825
 20
200.9925601639
 30
0.0
 10
213.3821836431
 20
200.9584770492
 30
0.0
 10
212.8145838737
 20
200.9240574535
 30
0.0
  0
SPLINE
  5
4DE
330
21D
100
AcDbEntity
  8
RUNDUNGEN
  6
Continuous
 62
     9
100
AcDbSpline
210
0.0
220
0.0
230
1.0
 70
     8
 71
     3
 72
     8
 73
     4
 74
     0
 42
0.0000000001
 43
0.0000000001
 40
0.0
 40
0.0
 40
0.0
 40
0.0
 40
1.0
 40
1.0
 40
1.0
 40
1.0
 10
214.5169892584
 20
206.5270102395
 30
0.0
 10
213.9494925144
 20
206.4933723258
 30
0.0
 10
213.3820215346
 20
206.4592981127
 30
0.0
 10
212.8145711157
 20
206.4248875657
 30
0.0
  0
SPLINE
  5
4DF
330
21D
100
AcDbEntity
  8
RUNDUNGEN
  6
Continuous
 62
     9
100
AcDbSpline
210
0.0
220
0.0
230
1.0
 70
     8
 71
     3
 72
     8
 73
     4
 74
     0
 42
0.0000000001
 43
0.0000000001
 40
0.0
 40
0.0
 40
0.0
 40
0.0
 40
1.0
 40
1.0
 40
1.0
 40
1.0
 10
213.3242942741
 20
187.8877756022
 30
0.0
 10
213.7277734374
 20
187.8634588575
 30
0.0
 10
214.1312636936
 20
187.8393251588
 30
0.0
 10
214.5347671179
 20
187.8154143689
 30
0.0
  0
LINE
  5
4E0
330
21D
100
AcDbEntity
  8
RUNDUNGEN
  6
Continuous
 62
     9
100
AcDbLine
 10
214.5347671179
 20
187.8154143689
 30
0.0
 11
214.538057992
 21
184.3522566705
 31
0.0
  0
SPLINE
  5
4E1
330
21D
100
AcDbEntity
  8
RUNDUNGEN
  6
Continuous
 62
     9
100
AcDbSpline
210
0.0
220
0.0
230
1.0
 70
     8
 71
     3
 72
     8
 73
     4
 74
     0
 42
0.0000000001
 43
0.0000000001
 40
0.0
 40
0.0
 40
0.0
 40
0.0
 40
1.0
 40
1.0
 40
1.0
 40
1.0
 10
187.8251220087
 20
200.9240565206
 30
0.0
 10
187.2575222066999
 20
200.9584761624
 30
0.0
 10
186.6899019352
 20
200.9925609973
 30
0.0
 10
186.1222557795
 20
201.0262075257
 30
0.0
  0
SPLINE
  5
4E2
330
21D
100
AcDbEntity
  8
RUNDUNGEN
  6
Continuous
 62
     9
100
AcDbSpline
210
0.0
220
0.0
230
1.0
 70
     8
 71
     3
 72
     8
 73
     4
 74
     0
 42
0.0000000001
 43
0.0000000001
 40
0.0
 40
0.0
 40
0.0
 40
0.0
 40
1.0
 40
1.0
 40
1.0
 40
1.0
 10
187.8251347643
 20
206.4248875659
 30
0.0
 10
187.2576843462
 20
206.4592981127
 30
0.0
 10
186.6902133672
 20
206.4933723258
 30
0.0
 10
186.122716624
 20
206.5270102395
 30
0.0
  0
SPLINE
  5
4E3
330
21D
100
AcDbEntity
  8
RUNDUNGEN
  6
Continuous
 62
     9
100
AcDbSpline
210
0.0
220
0.0
230
1.0
 70
     8
 71
     3
 72
    29
 73
    25
 74
     0
 42
0.0000000001
 43
0.0000000001
 40
0.0
 40
0.0
 40
0.0
 40
0.0
 40
0.0005585104
 40
0.0015988459
 40
0.0032022251
 40
0.0053874335
 40
0.0115225553
 40
0.020014403
 40
0.0308510488
 40
0.0440097853
 40
0.0594613696
 40
0.0771697529
 40
0.0970932916
 40
0.1191847874
 40
0.1696556547
 40
0.2281002662
 40
0.2939588679
 40
0.3665999276
 40
0.4453264126
 40
0.5293825181000001
 40
0.6179610425
 40
0.7102108774
 40
0.8052462131
 40
1.0
 40
1.0
 40
1.0
 40
1.0
 10
230.3198101532
 20
90.0260221519
 30
0.0
 10
230.3192874138
 20
90.02045739209998
 30
0.0
 10
230.3054627319
 20
90.0082709541
 30
0.0
 10
230.2764515216
 20
89.99728553790001
 30
0.0
 10
230.229338768
 20
89.98412632690001
 30
0.0
 10
230.1321032067
 20
89.96518314940001
 30
0.0
 10
229.9650597809
 20
89.94266839119999
 30
0.0
 10
229.711572834
 20
89.9174892071
 30
0.0
 10
229.3873802784
 20
89.8922274411
 30
0.0
 10
228.9934258324
 20
89.86709452719999
 30
0.0
 10
228.5305503213
 20
89.84223003249999
 30
0.0
 10
227.9998836312
 20
89.81773268209998
 30
0.0
 10
227.4026859951
 20
89.79368248829999
 30
0.0
 10
226.4777195543
 20
89.7608385498
 30
0.0
 10
225.1672331932
 20
89.72221575889999
 30
0.0
 10
223.4186886158
 20
89.68032171590001
 30
0.0
 10
221.4481566629
 20
89.64158607579999
 30
0.0
 10
219.274560686
 20
89.60641036170001
 30
0.0
 10
216.9187774432
 20
89.5751711145
 30
0.0
 10
214.4034391723
 20
89.54818687209998
 30
0.0
 10
211.7527175576
 20
89.5257319975
 30
0.0
 10
208.9920837033
 20
89.5080293252
 30
0.0
 10
205.1688896684
 20
89.49086853129999
 30
0.0
 10
202.2688392835
 20
89.4858290378
 30
0.0
 10
200.3198529412
 20
89.4858290378
 30
0.0
  0
SPLINE
  5
4E4
330
21D
100
AcDbEntity
  8
RUNDUNGEN
  6
Continuous
 62
     9
100
AcDbSpline
210
0.0
220
0.0
230
1.0
 70
     8
 71
     3
 72
     8
 73
     4
 74
     0
 42
0.0000000001
 43
0.0000000001
 40
0.0
 40
0.0
 40
0.0
 40
0.0
 40
1.0
 40
1.0
 40
1.0
 40
1.0
 10
186.1049387645
 20
187.8154143689
 30
0.0
 10
186.5084421896
 20
187.8393251589
 30
0.0
 10
186.9119324462
 20
187.8634588635
 30
0.0
 10
187.3154116103
 20
187.8877756082
 30
0.0
  0
LINE
  5
4E5
330
21D
100
AcDbEntity
  8
RUNDUNGEN
  6
Continuous
 62
     9
100
AcDbLine
 10
186.1016478904
 20
184.3522566701
 30
0.0
 11
186.1049387645
 21
187.8154143689
 31
0.0
  0
SPLINE
  5
4E6
330
21D
100
AcDbEntity
  8
RUNDUNGEN
  6
Continuous
 62
     9
100
AcDbSpline
210
0.0
220
0.0
230
1.0
 70
     8
 71
     3
 72
    13
 73
     9
 74
     0
 42
0.0000000001
 43
0.0000000001
 40
0.0
 40
0.0
 40
0.0
 40
0.0
 40
0.3697544439
 40
0.6857679419
 40
0.8090026707999999
 40
0.9031674440999999
 40
0.9659834775
 40
1.0
 40
1.0
 40
1.0
 40
1.0
 10
246.8689252698
 20
87.38945766649999
 30
0.0
 10
246.8686439013
 20
87.5158805424
 30
0.0
 10
246.8621258109
 20
87.75025482229999
 30
0.0
 10
246.8384372615
 20
88.0264971262
 30
0.0
 10
246.8098868499
 20
88.2061838489
 30
0.0
 10
246.7864561607
 20
88.30034632379998
 30
0.0
 10
246.765249423
 20
88.35983341469999
 30
0.0
 10
246.7409403595
 20
88.3892064872
 30
0.0
 10
246.7293979057
 20
88.39063593549999
 30
0.0
  0
SPLINE
  5
4E7
330
21D
100
AcDbEntity
  8
RUNDUNGEN
  6
Continuous
 62
     9
100
AcDbSpline
210
0.0
220
0.0
230
1.0
 70
     8
 71
     3
 72
    14
 73
    10
 74
     0
 42
0.0000000001
 43
0.0000000001
 40
0.0
 40
0.0
 40
0.0
 40
0.0
 40
0.1846879698
 40
0.3631572308
 40
0.6763125115000001
 40
0.8001727527999999
 40
0.8964529112999999
 40
0.9627213430999999
 40
1.0
 40
1.0
 40
1.0
 40
1.0
 10
248.8545332684
 20
94.1790829584
 30
0.0
 10
248.8516458854
 20
94.24229594450002
 30
0.0
 10
248.8418357582
 20
94.3663955184
 30
0.0
 10
248.8191080037
 20
94.59692823000001
 30
0.0
 10
248.7899818977
 20
94.80626274409999
 30
0.0
 10
248.7521331613
 20
94.98468780839999
 30
0.0
 10
248.7247714741
 20
95.0798849933
 30
0.0
 10
248.69928252
 20
95.1417781473
 30
0.0
 10
248.6759241117
 20
95.17289474889999
 30
0.0
 10
248.663802372
 20
95.17692012579999
 30
0.0
  0
SPLINE
  5
4E8
330
21D
100
AcDbEntity
  8
RUNDUNGEN
  6
Continuous
 62
     9
100
AcDbSpline
210
0.0
220
0.0
230
1.0
 70
     8
 71
     3
 72
    14
 73
    10
 74
     0
 42
0.0000000001
 43
0.0000000001
 40
0.0
 40
0.0
 40
0.0
 40
0.0
 40
0.3631726813
 40
0.5290096645000001
 40
0.6764152617
 40
0.8002757551
 40
0.8965521215999999
 40
0.962760807
 40
1.0
 40
1.0
 40
1.0
 40
1.0
 10
249.2097140749
 20
94.2004057769
 30
0.0
 10
249.2024482184
 20
94.32459556229998
 30
0.0
 10
249.1874191088
 20
94.5053210658
 30
0.0
 10
249.1579707012
 20
94.7351269235
 30
0.0
 10
249.1336028624
 20
94.8830156224
 30
0.0
 10
249.1076151875
 20
95.00591968049999
 30
0.0
 10
249.0802722253
 20
95.10115627469998
 30
0.0
 10
249.0549703698
 20
95.1628888585
 30
0.0
 10
249.0317662302
 20
95.1943099228
 30
0.0
 10
249.0196086924
 20
95.19817129080001
 30
0.0
  0
SPLINE
  5
4E9
330
21D
100
AcDbEntity
  8
RUNDUNGEN
  6
Continuous
 62
     9
100
AcDbSpline
210
0.0
220
0.0
230
1.0
 70
     8
 71
     3
 72
    12
 73
     8
 74
     0
 42
0.0000000001
 43
0.0000000001
 40
0.0
 40
0.0
 40
0.0
 40
0.0
 40
0.3663680668
 40
0.6736317088
 40
0.8888911212
 40
0.9565504795
 40
1.0
 40
1.0
 40
1.0
 40
1.0
 10
256.1368754276
 20
94.77331574670001
 30
0.0
 10
256.1273957661
 20
94.88177764339999
 30
0.0
 10
256.1042039774
 20
95.0810242692
 30
0.0
 10
256.0544363862
 20
95.33991960580001
 30
0.0
 10
256.0030946349
 20
95.50988058260001
 30
0.0
 10
255.9555910851
 20
95.59391402850001
 30
0.0
 10
255.9287856174
 20
95.61722126940001
 30
0.0
 10
255.9162051362
 20
95.62012883459999
 30
0.0
  0
SPLINE
  5
4EA
330
21D
100
AcDbEntity
  8
RUNDUNGEN
  6
Continuous
 62
     9
100
AcDbSpline
210
0.0
220
0.0
230
1.0
 70
     8
 71
     3
 72
    13
 73
     9
 74
     0
 42
0.0000000001
 43
0.0000000001
 40
0.0
 40
0.0
 40
0.0
 40
0.0
 40
0.3493895016
 40
0.6519169141
 40
0.7740856104000001
 40
0.8725613789
 40
0.9466243367
 40
1.0
 40
1.0
 40
1.0
 40
1.0
 10
257.3717929934
 20
95.3504168795
 30
0.0
 10
257.2885531698
 20
95.43777650459999
 30
0.0
 10
257.1257182536
 20
95.59370490899999
 30
0.0
 10
256.9141983488
 20
95.75868736990001
 30
0.0
 10
256.758586018
 20
95.85100112200001
 30
0.0
 10
256.6649884525
 20
95.8920745068
 30
0.0
 10
256.5887320981
 20
95.91040270319998
 30
0.0
 10
256.5426389457
 20
95.90404782280002
 30
0.0
 10
256.5266201265
 20
95.8949256194
 30
0.0
  0
SPLINE
  5
4EB
330
21D
100
AcDbEntity
  8
RUNDUNGEN
  6
Continuous
 62
     9
100
AcDbSpline
210
0.0
220
0.0
230
1.0
 70
     8
 71
     3
 72
    14
 73
    10
 74
     0
 42
0.0000000001
 43
0.0000000001
 40
0.0
 40
0.0
 40
0.0
 40
0.0
 40
0.339745512
 40
0.4985745629000001
 40
0.6423059492000001
 40
0.7661509063
 40
0.8667741875
 40
0.9433057584
 40
1.0
 40
1.0
 40
1.0
 40
1.0
 10
257.8586594463
 20
96.01196760010001
 30
0.0
 10
257.7394822612
 20
96.070648761
 30
0.0
 10
257.5593716549
 20
96.1468904684
 30
0.0
 10
257.3196827502
 20
96.22235374490001
 30
0.0
 10
257.1571853447
 20
96.2605053621
 30
0.0
 10
257.0143175151
 20
96.2803657977
 30
0.0
 10
256.8961105376
 20
96.28091366280001
 30
0.0
 10
256.8055609026
 20
96.2635150168
 30
0.0
 10
256.7597238558
 20
96.2329182663
 30
0.0
 10
256.7469756263
 20
96.2147831973
 30
0.0
  0
SPLINE
  5
4EC
330
21D
100
AcDbEntity
  8
RUNDUNGEN
  6
Continuous
 62
     9
100
AcDbSpline
210
0.0
220
0.0
230
1.0
 70
     8
 71
     3
 72
     9
 73
     5
 74
     0
 42
0.0000000001
 43
0.0000000001
 40
0.0
 40
0.0
 40
0.0
 40
0.0
 40
0.5011145371
 40
1.0
 40
1.0
 40
1.0
 40
1.0
 10
187.9132149217
 20
189.3876315684
 30
0.0
 10
187.7085128497
 20
189.5566687848
 30
0.0
 10
187.2327106999
 20
189.8181991086
 30
0.0
 10
186.6991944565
 20
189.9040319178
 30
0.0
 10
186.4349012079
 20
189.9040211733
 30
0.0
  0
SPLINE
  5
4ED
330
21D
100
AcDbEntity
  8
RUNDUNGEN
  6
Continuous
 62
     9
100
AcDbSpline
210
0.0
220
0.0
230
1.0
 70
     8
 71
     3
 72
     9
 73
     5
 74
     0
 42
0.0000000001
 43
0.0000000001
 40
0.0
 40
0.0
 40
0.0
 40
0.0
 40
0.5011140272
 40
1.0
 40
1.0
 40
1.0
 40
1.0
 10
212.7265114383
 20
189.3876315684
 30
0.0
 10
212.9312107628
 20
189.5566669809999
 30
0.0
 10
213.4070016693
 20
189.8182053084999
 30
0.0
 10
213.9405141394
 20
189.9040323796
 30
0.0
 10
214.2048046744
 20
189.9040211733
 30
0.0
  0
SPLINE
  5
4EE
330
21D
100
AcDbEntity
  8
RUNDUNGEN
  6
Continuous
 62
     9
100
AcDbSpline
210
0.0
220
0.0
230
1.0
 70
     8
 71
     3
 72
    21
 73
    17
 74
     0
 42
0.0000000001
 43
0.0000000001
 40
0.0
 40
0.0
 40
0.0
 40
0.0
 40
0.2035842656
 40
0.3891919745
 40
0.5547297797000001
 40
0.6984666818000001
 40
0.7614546536
 40
0.8180600588
 40
0.8678177362999999
 40
0.9102639127999999
 40
0.9448747630999999
 40
0.9714240326
 40
0.9815815131999999
 40
0.9895849176
 40
0.9955756925999999
 40
1.0
 40
1.0
 40
1.0
 40
1.0
 10
257.8586510521
 20
96.01195853570001
 30
0.0
 10
258.3923872523
 20
97.1339105184
 30
0.0
 10
259.3826833652
 20
99.29309938620001
 30
0.0
 10
260.7302977374
 20
102.3989403911
 30
0.0
 10
261.8773899143
 20
105.1930198514
 30
0.0
 10
262.6942064913
 20
107.313216231
 30
0.0
 10
263.241210556
 20
108.8243696402
 30
0.0
 10
263.5765749685
 20
109.8020339685
 30
0.0
 10
263.8540081838
 20
110.6668283379
 30
0.0
 10
264.0709691814
 20
111.409925414
 30
0.0
 10
264.2244836438
 20
112.023335976
 30
0.0
 10
264.3070761913
 20
112.4513867669
 30
0.0
 10
264.334256227
 20
112.7230074444
 30
0.0
 10
264.3353197523
 20
112.8709317826
 30
0.0
 10
264.3192745591
 20
112.9823034862
 30
0.0
 10
264.2943933211
 20
113.0429517106
 30
0.0
 10
264.2773584351
 20
113.0639005139
 30
0.0
  0
SPLINE
  5
4EF
330
21D
100
AcDbEntity
  8
RUNDUNGEN
  6
Continuous
 62
     9
100
AcDbSpline
210
0.0
220
0.0
230
1.0
 70
     8
 71
     3
 72
    13
 73
     9
 74
     0
 42
0.0000000001
 43
0.0000000001
 40
0.0
 40
0.0
 40
0.0
 40
0.0
 40
0.2475399651
 40
0.4962205845
 40
0.6216927862000001
 40
0.7475446985
 40
0.873683319
 40
1.0
 40
1.0
 40
1.0
 40
1.0
 10
214.2048045558
 20
198.9386266471
 30
0.0
 10
213.9347413793
 20
198.9386146309
 30
0.0
 10
213.3890659714
 20
199.0284509923
 30
0.0
 10
212.7841579259
 20
199.3700646411
 30
0.0
 10
212.4038386746
 20
199.765721911
 30
0.0
 10
212.1838403934
 20
200.1176667359
 30
0.0
 10
212.0450155816
 20
200.5097991609
 30
0.0
 10
212.0133297859
 20
200.7862474059
 30
0.0
 10
212.0133552632
 20
200.9240574099
 30
0.0
  0
SPLINE
  5
4F0
330
21D
100
AcDbEntity
  8
RUNDUNGEN
  6
Continuous
 62
     9
100
AcDbSpline
210
0.0
220
0.0
230
1.0
 70
     8
 71
     3
 72
    13
 73
     9
 74
     0
 42
0.0000000001
 43
0.0000000001
 40
0.0
 40
0.0
 40
0.0
 40
0.0
 40
0.1263166805
 40
0.252455302
 40
0.3783072135
 40
0.5037794155
 40
0.7524600345999999
 40
1.0
 40
1.0
 40
1.0
 40
1.0
 10
188.6263506191999
 20
200.9240574215
 30
0.0
 10
188.6263761061
 20
200.7862474134
 30
0.0
 10
188.594690318
 20
200.5097991537
 30
0.0
 10
188.4558654647
 20
200.1176667293
 30
0.0
 10
188.2358671863
 20
199.7657218872
 30
0.0
 10
187.8555479035
 20
199.3700646187
 30
0.0
 10
187.2506398244
 20
199.028450989
 30
0.0
 10
186.7049643983
 20
198.9386146228
 30
0.0
 10
186.4349012123
 20
198.9386266471
 30
0.0
  0
SPLINE
  5
4F1
330
21D
100
AcDbEntity
  8
RUNDUNGEN
  6
Continuous
 62
     9
100
AcDbSpline
210
0.0
220
0.0
230
1.0
 70
     8
 71
     3
 72
     8
 73
     4
 74
     0
 42
0.0000000001
 43
0.0000000001
 40
0.0
 40
0.0
 40
0.0
 40
0.0
 40
1.0
 40
1.0
 40
1.0
 40
1.0
 10
214.0129579629
 20
188.9041734782
 30
0.0
 10
214.5074150555
 20
188.8742602556
 30
0.0
 10
215.0018863328
 20
188.8445793766
 30
0.0
 10
215.4963791464
 20
188.8152625797
 30
0.0
  0
SPLINE
  5
4F2
330
21D
100
AcDbEntity
  8
RUNDUNGEN
  6
Continuous
 62
     9
100
AcDbSpline
210
0.0
220
0.0
230
1.0
 70
     8
 71
     3
 72
     8
 73
     4
 74
     0
 42
0.0000000001
 43
0.0000000001
 40
0.0
 40
0.0
 40
0.0
 40
0.0
 40
1.0
 40
1.0
 40
1.0
 40
1.0
 10
185.1433267359
 20
188.8152625797
 30
0.0
 10
185.6378195559999
 20
188.844579377
 30
0.0
 10
186.1322908397
 20
188.8742602575
 30
0.0
 10
186.6267479388
 20
188.9041734782
 30
0.0
  0
SPLINE
  5
4F5
330
21D
100
AcDbEntity
  8
RUNDUNGEN
  6
Continuous
 62
     9
100
AcDbSpline
210
0.0
220
0.0
230
1.0
 70
     8
 71
     3
 72
     8
 73
     4
 74
     0
 42
0.0000000001
 43
0.0000000001
 40
0.0
 40
0.0
 40
0.0
 40
0.0
 40
1.0
 40
1.0
 40
1.0
 40
1.0
 10
215.4792936741
 20
200.0263589327
 30
0.0
 10
214.9903927581
 20
199.9973659753
 30
0.0
 10
214.5015109692
 20
199.9680493515
 30
0.0
 10
214.0126449179
 20
199.9384743423
 30
0.0
  0
SPLINE
  5
4F6
330
21D
100
AcDbEntity
  8
RUNDUNGEN
  6
Continuous
 62
     9
100
AcDbSpline
210
0.0
220
0.0
230
1.0
 70
     8
 71
     3
 72
    11
 73
     7
 74
     0
 42
0.0000000001
 43
0.0000000001
 40
0.0
 40
0.0
 40
0.0
 40
0.0
 40
0.2472071309
 40
0.4959229704000001
 40
0.7470206040999999
 40
1.0
 40
1.0
 40
1.0
 40
1.0
 10
246.7293979055
 20
88.39063349739999
 30
0.0
 10
246.857379275
 20
88.39114113379999
 30
0.0
 10
247.1167083282
 20
88.44389492739999
 30
0.0
 10
247.4448266225
 20
88.66639025599999
 30
0.0
 10
247.6656162515
 20
88.9992581223
 30
0.0
 10
247.7173340246
 20
89.2631071199
 30
0.0
 10
247.7172287496
 20
89.39407783120001
 30
0.0
  0
SPLINE
  5
4F7
330
21D
100
AcDbEntity
  8
RUNDUNGEN
  6
Continuous
 62
     9
100
AcDbSpline
210
0.0
220
0.0
230
1.0
 70
     8
 71
     3
 72
     9
 73
     5
 74
     0
 42
0.0000000001
 43
0.0000000001
 40
0.0
 40
0.0
 40
0.0
 40
0.0
 40
0.5094642671000001
 40
1.0
 40
1.0
 40
1.0
 40
1.0
 10
255.9162051909
 20
95.62012779019999
 30
0.0
 10
256.0313832415
 20
95.62819129000001
 30
0.0
 10
256.256491156
 20
95.6856738289
 30
0.0
 10
256.446978093
 20
95.8173629296
 30
0.0
 10
256.5266213999
 20
95.8949242235
 30
0.0
  0
SPLINE
  5
4F8
330
21D
100
AcDbEntity
  8
RUNDUNGEN
  6
Continuous
 62
     9
100
AcDbSpline
210
0.0
220
0.0
230
1.0
 70
     8
 71
     3
 72
     8
 73
     4
 74
     0
 42
0.0000000001
 43
0.0000000001
 40
0.0
 40
0.0
 40
0.0
 40
0.0
 40
1.0
 40
1.0
 40
1.0
 40
1.0
 10
186.6267120309
 20
199.9384743423
 30
0.0
 10
186.138033101
 20
199.9680379891
 30
0.0
 10
185.6493404592
 20
199.9973770476
 30
0.0
 10
185.1606266819
 20
200.0263589327
 30
0.0
  0
LEADER
  5
6BA
330
21D
100
AcDbEntity
  8
ZEICHNUNGSBEMASSUNGEN
  6
Continuous
 62
     7
100
AcDbLeader
  3
DIMSTYLE_2
 74
     0
 76
     3
 10
207.3198527791731
 20
232.9197267984143
 30
0.0
 10
223.458439605373
 20
242.5639708820716
 30
0.0
 10
240.5510697080792
 20
242.5312753036299
 30
0.0
213
8.546107528269942
223
6.697880158863256
233
0.0
1001
ACAD
1000
DSTYLE
1002
{
1070
    41
1040
5.0
1070
   147
1040
1.5
1070
   178
1070
   256
1002
}
  0
LINE
  5
6BB
330
21D
100
AcDbEntity
  8
0
100
AcDbLine
 10
242.9088400773565
 20
239.2853735259917
 30
0.0
 11
251.548003351691
 21
239.2853735259917
 31
0.0
  0
LINE
  5
6BC
330
21D
100
AcDbEntity
  8
0
100
AcDbLine
 10
244.4040604519358
 20
238.1397466204818
 30
0.0
 11
250.0366942491191
 21
238.1397466204818
 31
0.0
  0
LINE
  5
6BD
330
21D
100
AcDbEntity
  8
0
100
AcDbLine
 10
245.8148719054499
 20
237.2072991917298
 30
0.0
 11
248.8189404189031
 21
237.2072991917298
 31
0.0
  0
LINE
  5
6BE
330
21D
100
AcDbEntity
  8
0
100
AcDbLine
 10
247.1810730574747
 20
240.8801792263189
 30
0.0
 11
247.1810730574747
 21
246.321284826245
 31
0.0
  0
ENDSEC
  0
SECTION
  2
OBJECTS
  0
DICTIONARY
  5
C
330
0
100
AcDbDictionary
281
     1
  3
ACAD_COLOR
350
52A
  3
ACAD_GROUP
350
D
  3
ACAD_LAYOUT
350
1A
  3
ACAD_MATERIAL
350
4FD
  3
ACAD_MLEADERSTYLE
350
53F
  3
ACAD_MLINESTYLE
350
17
  3
ACAD_PLOTSETTINGS
350
19
  3
ACAD_PLOTSTYLENAME
350
E
  3
ACAD_SCALELIST
350
52D
  3
ACAD_TABLESTYLE
350
52B
  3
ACAD_VISUALSTYLE
350
516
  3
ACDB_RECOMPOSE_DATA
350
6CE
  3
AcDbVariableDictionary
350
6BF
  3
AcmDictionary
350
59A
  3
AMG
350
544
  3
AMGSNAPSETTINGS
350
5DF
  3
DWGPROPS
350
6CF
  0
DICTIONARY
  5
52A
102
{ACAD_REACTORS
330
C
102
}
330
C
100
AcDbDictionary
281
     1
  0
DICTIONARY
  5
D
102
{ACAD_REACTORS
330
C
102
}
330
C
100
AcDbDictionary
281
     1
  0
DICTIONARY
  5
1A
102
{ACAD_REACTORS
330
C
102
}
330
C
100
AcDbDictionary
281
     1
  3
Layout1
350
4FA
  3
Model
350
4F9
  0
DICTIONARY
  5
4FD
102
{ACAD_REACTORS
330
C
102
}
330
C
100
AcDbDictionary
281
     1
  3
ByBlock
350
506
  3
ByLayer
350
4FE
  3
Global
350
50E
  0
DICTIONARY
  5
53F
102
{ACAD_REACTORS
330
C
102
}
330
C
100
AcDbDictionary
281
     1
  3
Standard
350
540
  0
DICTIONARY
  5
17
102
{ACAD_REACTORS
330
C
102
}
330
C
100
AcDbDictionary
281
     1
  3
Standard
350
18
  0
DICTIONARY
  5
19
102
{ACAD_REACTORS
330
C
102
}
330
C
100
AcDbDictionary
281
     1
  0
ACDBDICTIONARYWDFLT
  5
E
102
{ACAD_REACTORS
330
C
102
}
330
C
100
AcDbDictionary
281
     1
  3
Normal
350
F
100
AcDbDictionaryWithDefault
340
F
  0
DICTIONARY
  5
52D
102
{ACAD_REACTORS
330
C
102
}
330
C
100
AcDbDictionary
281
     1
  3
A0
350
52E
  3
A1
350
52F
  3
A2
350
530
  3
A3
350
531
  3
A4
350
532
  3
A5
350
533
  3
A6
350
534
  3
A7
350
535
  3
A8
350
536
  3
A9
350
537
  3
B0
350
538
  3
B1
350
539
  3
B2
350
53A
  3
B3
350
53B
  3
B4
350
53C
  3
B5
350
53D
  3
B6
350
53E
  0
DICTIONARY
  5
52B
102
{ACAD_REACTORS
330
C
102
}
330
C
100
AcDbDictionary
281
     1
  3
Standard
350
52C
  0
DICTIONARY
  5
516
102
{ACAD_REACTORS
330
C
102
}
330
C
100
AcDbDictionary
281
     1
  3
2dWireframe
350
51C
  3
3D Hidden
350
51E
  3
3dWireframe
350
51D
  3
Basic
350
51B
  3
Brighten
350
522
  3
ColorChange
350
526
  3
Conceptual
350
51F
  3
Dim
350
521
  3
EdgeColorOff
350
529
  3
Facepattern
350
525
  3
Flat
350
517
  3
FlatWithEdges
350
518
  3
Gouraud
350
519
  3
GouraudWithEdges
350
51A
  3
JitterOff
350
527
  3
Linepattern
350
524
  3
OverhangOff
350
528
  3
Realistic
350
520
  3
Thicken
350
523
  0
XRECORD
  5
6CE
102
{ACAD_REACTORS
330
C
102
}
330
C
100
AcDbXrecord
280
     1
 90
        1
330
52C
  0
DICTIONARY
  5
6BF
102
{ACAD_REACTORS
330
C
102
}
330
C
100
AcDbDictionary
281
     1
  3
CANNOSCALE
350
6C3
  3
CMLEADERSTYLE
350
6C1
  3
CTABLESTYLE
350
6C0
  3
DIMASSOC
350
6CA
  3
HIDETEXT
350
6C9
  3
INDEXCTL
350
6C8
  3
LAYEREVAL
350
6C5
  3
LAYERNOTIFY
350
6C6
  3
LIGHTINGUNITS
350
6C4
  3
MSLTSCALE
350
6C2
  3
SORTENTS
350
6C7
  3
XCLIPFRAME
350
6CB
  0
DICTIONARY
  5
59A
102
{ACAD_REACTORS
330
C
102
}
330
C
100
AcDbDictionary
281
     1
  3
AcmStdDictionary
350
5A4
  0
DICTIONARY
  5
544
102
{ACAD_REACTORS
330
C
102
}
330
C
100
AcDbDictionary
281
     1
  0
DICTIONARY
  5
5DF
102
{ACAD_REACTORS
330
C
102
}
330
C
100
AcDbDictionary
281
     1
  0
XRECORD
  5
6CF
102
{ACAD_REACTORS
330
C
102
}
330
C
100
AcDbXrecord
280
     1
  1
DWGPROPS COOKIE
  2

  3

  4

  6

  7

  8
sheim
  9

300
=
301
=
302
=
303
=
304
=
305
=
306
=
307
=
308
=
309
=
 40
0.0042866666666667
 41
2456324.627997546
 42
2456324.632284028
  1

 90
        0
  0
LAYOUT
  5
4FA
102
{ACAD_XDICTIONARY
360
6D2
102
}
102
{ACAD_REACTORS
330
1A
102
}
330
1A
100
AcDbPlotSettings
  1

  2
none_device
  4
ISO_A3_(420.00_x_297.00_MM)
  6

 40
0.0
 41
0.0
 42
0.0
 43
0.0
 44
420.0
 45
297.0
 46
0.0
 47
0.0
 48
0.0
 49
0.0
140
0.0
141
0.0
142
1.0
143
1.0
 70
     0
 72
     1
 73
     0
 74
     0
  7

 75
     0
147
1.0
148
0.0
149
0.0
100
AcDbLayout
  1
Layout1
 70
     1
 71
     1
 10
0.0
 20
0.0
 11
12.0
 21
9.0
 12
0.0
 22
0.0
 32
0.0
 14
1.000000000000000E+20
 24
1.000000000000000E+20
 34
1.000000000000000E+20
 15
-1.000000000000000E+20
 25
-1.000000000000000E+20
 35
-1.000000000000000E+20
146
0.0
 13
0.0
 23
0.0
 33
0.0
 16
1.0
 26
0.0
 36
0.0
 17
0.0
 27
1.0
 37
0.0
 76
     0
330
21E
  0
LAYOUT
  5
4F9
102
{ACAD_XDICTIONARY
360
6D0
102
}
102
{ACAD_REACTORS
330
1A
102
}
330
1A
100
AcDbPlotSettings
  1

  2
none_device
  4
ISO_A3_(420.00_x_297.00_MM)
  6

 40
0.0
 41
0.0
 42
0.0
 43
0.0
 44
420.0
 45
297.0
 46
0.0
 47
0.0
 48
0.0
 49
0.0
140
0.0
141
0.0
142
1.0
143
1.0
 70
  1024
 72
     1
 73
     0
 74
     0
  7

 75
     0
147
1.0
148
0.0
149
0.0
100
AcDbLayout
  1
Model
 70
     0
 71
     0
 10
0.0
 20
0.0
 11
420.0
 21
297.0
 12
0.0
 22
0.0
 32
0.0
 14
0.0
 24
0.0
 34
0.0
 15
0.0
 25
0.0
 35
0.0
146
0.0
 13
0.0
 23
0.0
 33
0.0
 16
1.0
 26
0.0
 36
0.0
 17
0.0
 27
1.0
 37
0.0
 76
     0
330
21D
331
1F4
  0
MATERIAL
  5
506
102
{ACAD_XDICTIONARY
360
507
102
}
102
{ACAD_REACTORS
330
4FD
102
}
330
4FD
100
AcDbMaterial
  1
ByBlock
 72
     0
 43
0.0008202099737533
 43
0.0
 43
0.0
 43
0.0
 43
0.0
 43
0.0008202099737533
 43
0.0
 43
0.0
 43
0.0
 43
0.0
 43
1.0
 43
0.0
 43
0.0
 43
0.0
 43
0.0
 43
1.0
 77
     0
 47
0.0008202099737533
 47
0.0
 47
0.0
 47
0.0
 47
0.0
 47
0.0008202099737533
 47
0.0
 47
0.0
 47
0.0
 47
0.0
 47
1.0
 47
0.0
 47
0.0
 47
0.0
 47
0.0
 47
1.0
171
     0
 49
0.0008202099737533
 49
0.0
 49
0.0
 49
0.0
 49
0.0
 49
0.0008202099737533
 49
0.0
 49
0.0
 49
0.0
 49
0.0
 49
1.0
 49
0.0
 49
0.0
 49
0.0
 49
0.0
 49
1.0
175
     0
142
0.0008202099737533
142
0.0
142
0.0
142
0.0
142
0.0
142
0.0008202099737533
142
0.0
142
0.0
142
0.0
142
0.0
142
1.0
142
0.0
142
0.0
142
0.0
142
0.0
142
1.0
179
     0
144
0.0008202099737533
144
0.0
144
0.0
144
0.0
144
0.0
144
0.0008202099737533
144
0.0
144
0.0
144
0.0
144
0.0
144
1.0
144
0.0
144
0.0
144
0.0
144
0.0
144
1.0
147
0.0008202099737533
147
0.0
147
0.0
147
0.0
147
0.0
147
0.0008202099737533
147
0.0
147
0.0
147
0.0
147
0.0
147
1.0
147
0.0
147
0.0
147
0.0
147
0.0
147
1.0
  0
MATERIAL
  5
4FE
102
{ACAD_XDICTIONARY
360
4FF
102
}
102
{ACAD_REACTORS
330
4FD
102
}
330
4FD
100
AcDbMaterial
  1
ByLayer
 72
     0
 43
0.0008202099737533
 43
0.0
 43
0.0
 43
0.0
 43
0.0
 43
0.0008202099737533
 43
0.0
 43
0.0
 43
0.0
 43
0.0
 43
1.0
 43
0.0
 43
0.0
 43
0.0
 43
0.0
 43
1.0
 77
     0
 47
0.0008202099737533
 47
0.0
 47
0.0
 47
0.0
 47
0.0
 47
0.0008202099737533
 47
0.0
 47
0.0
 47
0.0
 47
0.0
 47
1.0
 47
0.0
 47
0.0
 47
0.0
 47
0.0
 47
1.0
171
     0
 49
0.0008202099737533
 49
0.0
 49
0.0
 49
0.0
 49
0.0
 49
0.0008202099737533
 49
0.0
 49
0.0
 49
0.0
 49
0.0
 49
1.0
 49
0.0
 49
0.0
 49
0.0
 49
0.0
 49
1.0
175
     0
142
0.0008202099737533
142
0.0
142
0.0
142
0.0
142
0.0
142
0.0008202099737533
142
0.0
142
0.0
142
0.0
142
0.0
142
1.0
142
0.0
142
0.0
142
0.0
142
0.0
142
1.0
179
     0
144
0.0008202099737533
144
0.0
144
0.0
144
0.0
144
0.0
144
0.0008202099737533
144
0.0
144
0.0
144
0.0
144
0.0
144
1.0
144
0.0
144
0.0
144
0.0
144
0.0
144
1.0
147
0.0008202099737533
147
0.0
147
0.0
147
0.0
147
0.0
147
0.0008202099737533
147
0.0
147
0.0
147
0.0
147
0.0
147
1.0
147
0.0
147
0.0
147
0.0
147
0.0
147
1.0
  0
MATERIAL
  5
50E
102
{ACAD_XDICTIONARY
360
50F
102
}
102
{ACAD_REACTORS
330
4FD
102
}
330
4FD
100
AcDbMaterial
  1
Global
 72
     0
 43
0.0008202099737533
 43
0.0
 43
0.0
 43
0.0
 43
0.0
 43
0.0008202099737533
 43
0.0
 43
0.0
 43
0.0
 43
0.0
 43
1.0
 43
0.0
 43
0.0
 43
0.0
 43
0.0
 43
1.0
 77
     0
 47
0.0008202099737533
 47
0.0
 47
0.0
 47
0.0
 47
0.0
 47
0.0008202099737533
 47
0.0
 47
0.0
 47
0.0
 47
0.0
 47
1.0
 47
0.0
 47
0.0
 47
0.0
 47
0.0
 47
1.0
171
     0
 49
0.0008202099737533
 49
0.0
 49
0.0
 49
0.0
 49
0.0
 49
0.0008202099737533
 49
0.0
 49
0.0
 49
0.0
 49
0.0
 49
1.0
 49
0.0
 49
0.0
 49
0.0
 49
0.0
 49
1.0
175
     0
142
0.0008202099737533
142
0.0
142
0.0
142
0.0
142
0.0
142
0.0008202099737533
142
0.0
142
0.0
142
0.0
142
0.0
142
1.0
142
0.0
142
0.0
142
0.0
142
0.0
142
1.0
179
     0
144
0.0008202099737533
144
0.0
144
0.0
144
0.0
144
0.0
144
0.0008202099737533
144
0.0
144
0.0
144
0.0
144
0.0
144
1.0
144
0.0
144
0.0
144
0.0
144
0.0
144
1.0
147
0.0008202099737533
147
0.0
147
0.0
147
0.0
147
0.0
147
0.0008202099737533
147
0.0
147
0.0
147
0.0
147
0.0
147
1.0
147
0.0
147
0.0
147
0.0
147
0.0
147
1.0
  0
MLEADERSTYLE
  5
540
102
{ACAD_REACTORS
330
53F
102
}
330
53F
100
AcDbMLeaderStyle
170
     2
171
     1
172
     0
 90
        2
 40
0.0
 41
0.0
173
     1
 91
-1056964608
340
14
 92
       -2
290
     1
 42
2.0
291
     1
 43
0.36
  3
Standard
 44
4.0
300

342
11
174
     1
178
     6
175
     1
176
     0
 93
-1056964608
 45
4.0
292
     0
297
     0
 46
4.0
 94
-1056964608
 47
1.0
 49
1.0
140
1.0
293
     1
141
0.0
294
     1
177
     0
142
1.0
295
     0
296
     0
143
0.125
1001
ACAD_MLEADERVER
1070
     2
  0
MLINESTYLE
  5
18
102
{ACAD_REACTORS
330
17
102
}
330
17
100
AcDbMlineStyle
  2
STANDARD
 70
     0
  3

 62
   256
 51
90.0
 52
90.0
 71
     2
 49
0.5
 62
   256
  6
BYLAYER
 49
-0.5
 62
   256
  6
BYLAYER
  0
ACDBPLACEHOLDER
  5
F
102
{ACAD_REACTORS
330
E
102
}
330
E
  0
SCALE
  5
52E
102
{ACAD_REACTORS
330
52D
102
}
330
52D
100
AcDbScale
 70
     0
300
1:1
140
1.0
141
1.0
290
     1
  0
SCALE
  5
52F
102
{ACAD_REACTORS
330
52D
102
}
330
52D
100
AcDbScale
 70
     0
300
1:2
140
1.0
141
2.0
290
     0
  0
SCALE
  5
530
102
{ACAD_REACTORS
330
52D
102
}
330
52D
100
AcDbScale
 70
     0
300
1:4
140
1.0
141
4.0
290
     0
  0
SCALE
  5
531
102
{ACAD_REACTORS
330
52D
102
}
330
52D
100
AcDbScale
 70
     0
300
1:5
140
1.0
141
5.0
290
     0
  0
SCALE
  5
532
102
{ACAD_REACTORS
330
52D
102
}
330
52D
100
AcDbScale
 70
     0
300
1:8
140
1.0
141
8.0
290
     0
  0
SCALE
  5
533
102
{ACAD_REACTORS
330
52D
102
}
330
52D
100
AcDbScale
 70
     0
300
1:10
140
1.0
141
10.0
290
     0
  0
SCALE
  5
534
102
{ACAD_REACTORS
330
52D
102
}
330
52D
100
AcDbScale
 70
     0
300
1:16
140
1.0
141
16.0
290
     0
  0
SCALE
  5
535
102
{ACAD_REACTORS
330
52D
102
}
330
52D
100
AcDbScale
 70
     0
300
1:20
140
1.0
141
20.0
290
     0
  0
SCALE
  5
536
102
{ACAD_REACTORS
330
52D
102
}
330
52D
100
AcDbScale
 70
     0
300
1:30
140
1.0
141
30.0
290
     0
  0
SCALE
  5
537
102
{ACAD_REACTORS
330
52D
102
}
330
52D
100
AcDbScale
 70
     0
300
1:40
140
1.0
141
40.0
290
     0
  0
SCALE
  5
538
102
{ACAD_REACTORS
330
52D
102
}
330
52D
100
AcDbScale
 70
     0
300
1:50
140
1.0
141
50.0
290
     0
  0
SCALE
  5
539
102
{ACAD_REACTORS
330
52D
102
}
330
52D
100
AcDbScale
 70
     0
300
1:100
140
1.0
141
100.0
290
     0
  0
SCALE
  5
53A
102
{ACAD_REACTORS
330
52D
102
}
330
52D
100
AcDbScale
 70
     0
300
2:1
140
2.0
141
1.0
290
     0
  0
SCALE
  5
53B
102
{ACAD_REACTORS
330
52D
102
}
330
52D
100
AcDbScale
 70
     0
300
4:1
140
4.0
141
1.0
290
     0
  0
SCALE
  5
53C
102
{ACAD_REACTORS
330
52D
102
}
330
52D
100
AcDbScale
 70
     0
300
8:1
140
8.0
141
1.0
290
     0
  0
SCALE
  5
53D
102
{ACAD_REACTORS
330
52D
102
}
330
52D
100
AcDbScale
 70
     0
300
10:1
140
10.0
141
1.0
290
     0
  0
SCALE
  5
53E
102
{ACAD_REACTORS
330
52D
102
}
330
52D
100
AcDbScale
 70
     0
300
100:1
140
100.0
141
1.0
290
     0
  0
TABLESTYLE
  5
52C
102
{ACAD_XDICTIONARY
360
6CC
102
}
102
{ACAD_REACTORS
330
52B
102
}
330
52B
100
AcDbTableStyle
  3
Standard
 70
     0
 71
     0
 40
1.5
 41
1.5
280
     0
281
     0
  7
STANDARD
140
4.5
170
     2
 62
     0
 63
     7
283
     0
274
    -2
284
     1
 64
     0
275
    -2
285
     1
 65
     0
276
    -2
286
     1
 66
     0
277
    -2
287
     1
 67
     0
278
    -2
288
     1
 68
     0
279
    -2
289
     1
 69
     0
  7
STANDARD
140
6.0
170
     5
 62
     0
 63
     7
283
     0
274
    -2
284
     1
 64
     0
275
    -2
285
     1
 65
     0
276
    -2
286
     1
 66
     0
277
    -2
287
     1
 67
     0
278
    -2
288
     1
 68
     0
279
    -2
289
     1
 69
     0
  7
STANDARD
140
4.5
170
     5
 62
     0
 63
     7
283
     0
274
    -2
284
     1
 64
     0
275
    -2
285
     1
 65
     0
276
    -2
286
     1
 66
     0
277
    -2
287
     1
 67
     0
278
    -2
288
     1
 68
     0
279
    -2
289
     1
 69
     0
  0
VISUALSTYLE
  5
51C
102
{ACAD_XDICTIONARY
360
6E1
102
}
102
{ACAD_REACTORS
330
516
102
}
330
516
100
AcDbVisualStyle
  2
2dWireframe
 70
     4
 71
     0
 72
     2
 73
     0
 90
        0
 40
-0.6
 41
-30.0
 62
     5
 63
     7
 74
     1
 91
        4
 64
     7
 65
   257
 75
     1
175
     1
 42
1.0
 92
        0
 66
   257
 43
1.0
 76
     1
 77
     6
 78
     2
 67
     7
 79
     5
170
     0
171
     0
290
     0
174
     0
 93
        1
 44
0.0
173
     0
291
     0
 45
0.0
1001
ACAD
1000
AcDbSavedByObjectVersion
1070
     0
  0
VISUALSTYLE
  5
51E
102
{ACAD_XDICTIONARY
360
6E5
102
}
102
{ACAD_REACTORS
330
516
102
}
330
516
100
AcDbVisualStyle
  2
3D Hidden
 70
     6
 71
     1
 72
     2
 73
     2
 90
        0
 40
-0.6
 41
-30.0
 62
     5
 63
     7
 74
     2
 91
        2
 64
     7
 65
   257
 75
     2
175
     1
 42
179.0
 92
        0
 66
   257
 43
1.0
 76
     1
 77
     6
 78
     2
 67
     7
 79
     3
170
     0
171
     0
290
     0
174
     0
 93
        1
 44
0.0
173
     0
291
     0
 45
0.0
1001
ACAD
1000
AcDbSavedByObjectVersion
1070
     0
  0
VISUALSTYLE
  5
51D
102
{ACAD_XDICTIONARY
360
6E3
102
}
102
{ACAD_REACTORS
330
516
102
}
330
516
100
AcDbVisualStyle
  2
3dWireframe
 70
     5
 71
     0
 72
     2
 73
     0
 90
        0
 40
-0.6
 41
-30.0
 62
     5
 63
     7
 74
     1
 91
        4
 64
     7
 65
   257
 75
     1
175
     1
 42
1.0
 92
        0
 66
   257
 43
1.0
 76
     1
 77
     6
 78
     2
 67
     7
 79
     5
170
     0
171
     0
290
     0
174
     0
 93
        1
 44
0.0
173
     0
291
     0
 45
0.0
1001
ACAD
1000
AcDbSavedByObjectVersion
1070
     0
  0
VISUALSTYLE
  5
51B
102
{ACAD_XDICTIONARY
360
6DF
102
}
102
{ACAD_REACTORS
330
516
102
}
330
516
100
AcDbVisualStyle
  2
Basic
 70
     7
 71
     1
 72
     0
 73
     1
 90
        0
 40
-0.6
 41
-30.0
 62
     5
 63
     7
 74
     0
 91
        4
 64
     7
 65
   257
 75
     1
175
     1
 42
1.0
 92
        8
 66
     7
 43
1.0
 76
     1
 77
     6
 78
     2
 67
     7
 79
     5
170
     0
171
     0
290
     0
174
     0
 93
        1
 44
0.0
173
     0
291
     1
 45
0.0
1001
ACAD
1000
AcDbSavedByObjectVersion
1070
     0
  0
VISUALSTYLE
  5
522
102
{ACAD_XDICTIONARY
360
6ED
102
}
102
{ACAD_REACTORS
330
516
102
}
330
516
100
AcDbVisualStyle
  2
Brighten
 70
    12
 71
     2
 72
     2
 73
     0
 90
        0
 40
-0.6
 41
-30.0
 62
     5
 63
     7
 74
     1
 91
        4
 64
     7
 65
   257
 75
     1
175
     1
 42
1.0
 92
        8
 66
     7
 43
1.0
 76
     1
 77
     6
 78
     2
 67
     7
 79
     5
170
     0
171
     0
290
     0
174
     0
 93
        1
 44
50.0
173
     0
291
     1
 45
0.0
1001
ACAD
1000
AcDbSavedByObjectVersion
1070
     0
  0
VISUALSTYLE
  5
526
102
{ACAD_XDICTIONARY
360
6F5
102
}
102
{ACAD_REACTORS
330
516
102
}
330
516
100
AcDbVisualStyle
  2
ColorChange
 70
    16
 71
     2
 72
     2
 73
     3
 90
        0
 40
-0.6
 41
-30.0
 62
     5
 63
     8
 74
     1
 91
        4
 64
     7
 65
   257
 75
     1
175
     1
 42
1.0
 92
        8
 66
     8
 43
1.0
 76
     1
 77
     6
 78
     2
 67
     7
 79
     5
170
     0
171
     0
290
     0
174
     0
 93
        1
 44
0.0
173
     0
291
     1
 45
0.0
1001
ACAD
1000
AcDbSavedByObjectVersion
1070
     0
  0
VISUALSTYLE
  5
51F
102
{ACAD_XDICTIONARY
360
6E7
102
}
102
{ACAD_REACTORS
330
516
102
}
330
516
100
AcDbVisualStyle
  2
Conceptual
 70
     9
 71
     3
 72
     2
 73
     0
 90
        0
 40
-0.6
 41
-30.0
 62
     5
 63
     7
 74
     2
 91
        2
 64
     7
 65
   257
 75
     1
175
     1
 42
179.0
 92
        8
 66
     7
 43
1.0
 76
     1
 77
     6
 78
     2
 67
     7
 79
     3
170
     0
171
     0
290
     0
174
     0
 93
        1
 44
0.0
173
     0
291
     0
 45
0.0
1001
ACAD
1000
AcDbSavedByObjectVersion
1070
     0
  0
VISUALSTYLE
  5
521
102
{ACAD_XDICTIONARY
360
6EB
102
}
102
{ACAD_REACTORS
330
516
102
}
330
516
100
AcDbVisualStyle
  2
Dim
 70
    11
 71
     2
 72
     2
 73
     0
 90
        0
 40
-0.6
 41
-30.0
 62
     5
 63
     7
 74
     1
 91
        4
 64
     7
 65
   257
 75
     1
175
     1
 42
1.0
 92
        8
 66
     7
 43
1.0
 76
     1
 77
     6
 78
     2
 67
     7
 79
     5
170
     0
171
     0
290
     0
174
     0
 93
        1
 44
-50.0
173
     0
291
     1
 45
0.0
1001
ACAD
1000
AcDbSavedByObjectVersion
1070
     0
  0
VISUALSTYLE
  5
529
102
{ACAD_XDICTIONARY
360
6FB
102
}
102
{ACAD_REACTORS
330
516
102
}
330
516
100
AcDbVisualStyle
  2
EdgeColorOff
 70
    22
 71
     2
 72
     2
 73
     0
 90
        0
 40
-0.6
 41
-30.0
 62
     5
 63
     7
 74
     1
 91
        4
 64
     7
 65
   257
 75
     1
175
     1
 42
1.0
 92
        8
 66
     7
 43
1.0
 76
     1
 77
     6
 78
     2
 67
     7
 79
     5
170
     0
171
     0
290
     0
174
     0
 93
        1
 44
0.0
173
     0
291
     1
 45
0.0
1001
ACAD
1000
AcDbSavedByObjectVersion
1070
     0
  0
VISUALSTYLE
  5
525
102
{ACAD_XDICTIONARY
360
6F3
102
}
102
{ACAD_REACTORS
330
516
102
}
330
516
100
AcDbVisualStyle
  2
Facepattern
 70
    15
 71
     2
 72
     2
 73
     0
 90
        0
 40
-0.6
 41
-30.0
 62
     5
 63
     7
 74
     1
 91
        4
 64
     7
 65
   257
 75
     1
175
     1
 42
1.0
 92
        8
 66
     7
 43
1.0
 76
     1
 77
     6
 78
     2
 67
     7
 79
     5
170
     0
171
     0
290
     0
174
     0
 93
        1
 44
0.0
173
     0
291
     1
 45
0.0
1001
ACAD
1000
AcDbSavedByObjectVersion
1070
     0
  0
VISUALSTYLE
  5
517
102
{ACAD_XDICTIONARY
360
6D7
102
}
102
{ACAD_REACTORS
330
516
102
}
330
516
100
AcDbVisualStyle
  2
Flat
 70
     0
 71
     2
 72
     1
 73
     1
 90
        2
 40
-0.6
 41
30.0
 62
     5
 63
     7
 74
     0
 91
        4
 64
     7
 65
   257
 75
     1
175
     1
 42
1.0
 92
        8
 66
     7
 43
1.0
 76
     1
 77
     6
 78
     2
 67
     7
 79
     5
170
     0
171
     0
290
     0
174
     0
 93
       13
 44
0.0
173
     0
291
     1
 45
0.0
1001
ACAD
1000
AcDbSavedByObjectVersion
1070
     0
  0
VISUALSTYLE
  5
518
102
{ACAD_XDICTIONARY
360
6D9
102
}
102
{ACAD_REACTORS
330
516
102
}
330
516
100
AcDbVisualStyle
  2
FlatWithEdges
 70
     1
 71
     2
 72
     1
 73
     1
 90
        2
 40
-0.6
 41
30.0
 62
     5
 63
     7
 74
     1
 91
        4
 64
     7
 65
   257
 75
     1
175
     1
 42
1.0
 92
        0
 66
   257
 43
1.0
 76
     1
 77
     6
 78
     2
 67
     7
 79
     5
170
     0
171
     0
290
     0
174
     0
 93
       13
 44
0.0
173
     0
291
     1
 45
0.0
1001
ACAD
1000
AcDbSavedByObjectVersion
1070
     0
  0
VISUALSTYLE
  5
519
102
{ACAD_XDICTIONARY
360
6DB
102
}
102
{ACAD_REACTORS
330
516
102
}
330
516
100
AcDbVisualStyle
  2
Gouraud
 70
     2
 71
     2
 72
     2
 73
     1
 90
        2
 40
-0.6
 41
30.0
 62
     5
 63
     7
 74
     0
 91
        4
 64
     7
 65
   257
 75
     1
175
     1
 42
1.0
 92
        0
 66
     7
 43
1.0
 76
     1
 77
     6
 78
     2
 67
     7
 79
     5
170
     0
171
     0
290
     0
174
     0
 93
       13
 44
0.0
173
     0
291
     1
 45
0.0
1001
ACAD
1000
AcDbSavedByObjectVersion
1070
     0
  0
VISUALSTYLE
  5
51A
102
{ACAD_XDICTIONARY
360
6DD
102
}
102
{ACAD_REACTORS
330
516
102
}
330
516
100
AcDbVisualStyle
  2
GouraudWithEdges
 70
     3
 71
     2
 72
     2
 73
     1
 90
        2
 40
-0.6
 41
30.0
 62
     5
 63
     7
 74
     1
 91
        4
 64
     7
 65
   257
 75
     1
175
     1
 42
1.0
 92
        0
 66
   257
 43
1.0
 76
     1
 77
     6
 78
     2
 67
     7
 79
     5
170
     0
171
     0
290
     0
174
     0
 93
       13
 44
0.0
173
     0
291
     1
 45
0.0
1001
ACAD
1000
AcDbSavedByObjectVersion
1070
     0
  0
VISUALSTYLE
  5
527
102
{ACAD_XDICTIONARY
360
6F7
102
}
102
{ACAD_REACTORS
330
516
102
}
330
516
100
AcDbVisualStyle
  2
JitterOff
 70
    20
 71
     2
 72
     2
 73
     0
 90
        0
 40
-0.6
 41
-30.0
 62
     5
 63
     7
 74
     1
 91
        4
 64
     7
 65
   257
 75
     1
175
     1
 42
1.0
 92
       10
 66
     7
 43
1.0
 76
     1
 77
     6
 78
     2
 67
     7
 79
     5
170
     0
171
     0
290
     0
174
     0
 93
        1
 44
0.0
173
     0
291
     1
 45
0.0
1001
ACAD
1000
AcDbSavedByObjectVersion
1070
     0
  0
VISUALSTYLE
  5
524
102
{ACAD_XDICTIONARY
360
6F1
102
}
102
{ACAD_REACTORS
330
516
102
}
330
516
100
AcDbVisualStyle
  2
Linepattern
 70
    14
 71
     2
 72
     2
 73
     0
 90
        0
 40
-0.6
 41
-30.0
 62
     5
 63
     7
 74
     1
 91
        4
 64
     7
 65
   257
 75
     7
175
     7
 42
1.0
 92
        8
 66
     7
 43
1.0
 76
     1
 77
     6
 78
     2
 67
     7
 79
     5
170
     0
171
     0
290
     0
174
     0
 93
        1
 44
0.0
173
     0
291
     1
 45
0.0
1001
ACAD
1000
AcDbSavedByObjectVersion
1070
     0
  0
VISUALSTYLE
  5
528
102
{ACAD_XDICTIONARY
360
6F9
102
}
102
{ACAD_REACTORS
330
516
102
}
330
516
100
AcDbVisualStyle
  2
OverhangOff
 70
    21
 71
     2
 72
     2
 73
     0
 90
        0
 40
-0.6
 41
-30.0
 62
     5
 63
     7
 74
     1
 91
        4
 64
     7
 65
   257
 75
     1
175
     1
 42
1.0
 92
        9
 66
     7
 43
1.0
 76
     1
 77
     6
 78
     2
 67
     7
 79
     5
170
     0
171
     0
290
     0
174
     0
 93
        1
 44
0.0
173
     0
291
     1
 45
0.0
1001
ACAD
1000
AcDbSavedByObjectVersion
1070
     0
  0
VISUALSTYLE
  5
520
102
{ACAD_XDICTIONARY
360
6E9
102
}
102
{ACAD_REACTORS
330
516
102
}
330
516
100
AcDbVisualStyle
  2
Realistic
 70
     8
 71
     2
 72
     2
 73
     0
 90
        0
 40
-0.6
 41
-30.0
 62
     5
 63
     7
 74
     1
 91
        0
 64
     7
 65
   257
 75
     1
175
     1
 42
1.0
 92
        8
 66
     8
 43
1.0
 76
     1
 77
     6
 78
     2
 67
     7
 79
     5
170
     0
171
     0
290
     0
174
     0
 93
       13
 44
0.0
173
     0
291
     0
 45
0.0
1001
ACAD
1000
AcDbSavedByObjectVersion
1070
     0
  0
VISUALSTYLE
  5
523
102
{ACAD_XDICTIONARY
360
6EF
102
}
102
{ACAD_REACTORS
330
516
102
}
330
516
100
AcDbVisualStyle
  2
Thicken
 70
    13
 71
     2
 72
     2
 73
     0
 90
        0
 40
-0.6
 41
-30.0
 62
     5
 63
     7
 74
     1
 91
        4
 64
     7
 65
   257
 75
     1
175
     1
 42
1.0
 92
       12
 66
     7
 43
1.0
 76
     1
 77
     6
 78
     2
 67
     7
 79
     5
170
     0
171
     0
290
     0
174
     0
 93
        1
 44
0.0
173
     0
291
     1
 45
0.0
1001
ACAD
1000
AcDbSavedByObjectVersion
1070
     0
  0
DICTIONARYVAR
  5
6C3
102
{ACAD_REACTORS
330
6BF
102
}
330
6BF
100
DictionaryVariables
280
     0
  1
1:1
  0
DICTIONARYVAR
  5
6C1
102
{ACAD_REACTORS
330
6BF
102
}
330
6BF
100
DictionaryVariables
280
     0
  1
STANDARD
  0
DICTIONARYVAR
  5
6C0
102
{ACAD_REACTORS
330
6BF
102
}
330
6BF
100
DictionaryVariables
280
     0
  1
STANDARD
  0
DICTIONARYVAR
  5
6CA
102
{ACAD_REACTORS
330
6BF
102
}
330
6BF
100
DictionaryVariables
280
     0
  1
2
  0
DICTIONARYVAR
  5
6C9
102
{ACAD_REACTORS
330
6BF
102
}
330
6BF
100
DictionaryVariables
280
     0
  1
1
  0
DICTIONARYVAR
  5
6C8
102
{ACAD_REACTORS
330
6BF
102
}
330
6BF
100
DictionaryVariables
280
     0
  1
0
  0
DICTIONARYVAR
  5
6C5
102
{ACAD_REACTORS
330
6BF
102
}
330
6BF
100
DictionaryVariables
280
     0
  1
0
  0
DICTIONARYVAR
  5
6C6
102
{ACAD_REACTORS
330
6BF
102
}
330
6BF
100
DictionaryVariables
280
     0
  1
0
  0
DICTIONARYVAR
  5
6C4
102
{ACAD_REACTORS
330
6BF
102
}
330
6BF
100
DictionaryVariables
280
     0
  1
2
  0
DICTIONARYVAR
  5
6C2
102
{ACAD_REACTORS
330
6BF
102
}
330
6BF
100
DictionaryVariables
280
     0
  1
1
  0
DICTIONARYVAR
  5
6C7
102
{ACAD_REACTORS
330
6BF
102
}
330
6BF
100
DictionaryVariables
280
     0
  1
127
  0
DICTIONARYVAR
  5
6CB
102
{ACAD_REACTORS
330
6BF
102
}
330
6BF
100
DictionaryVariables
280
     0
  1
2
  0
DICTIONARY
  5
5A4
102
{ACAD_REACTORS
330
59A
102
}
330
59A
100
AcDbDictionary
281
     1
  0
DICTIONARY
  5
6D2
330
4FA
100
AcDbDictionary
280
     1
281
     1
  3
ACAD_XREC_ROUNDTRIP
360
6D3
  0
DICTIONARY
  5
6D0
330
4F9
100
AcDbDictionary
280
     1
281
     1
  3
ACAD_XREC_ROUNDTRIP
360
6D1
  0
DICTIONARY
  5
507
330
506
100
AcDbDictionary
280
     1
281
     1
  3
ACAD_XREC_ROUNDTRIP
360
6D5
  3
BUMPTILE
360
509
  3
DIFFUSETILE
360
508
  3
OPACITYTILE
360
50C
  3
REFLECTIONTILE
360
50B
  3
REFRACTIONTILE
360
50D
  3
SPECULARTILE
360
50A
  0
DICTIONARY
  5
4FF
330
4FE
100
AcDbDictionary
280
     1
281
     1
  3
ACAD_XREC_ROUNDTRIP
360
6D4
  3
BUMPTILE
360
501
  3
DIFFUSETILE
360
500
  3
OPACITYTILE
360
504
  3
REFLECTIONTILE
360
503
  3
REFRACTIONTILE
360
505
  3
SPECULARTILE
360
502
  0
DICTIONARY
  5
50F
330
50E
100
AcDbDictionary
280
     1
281
     1
  3
ACAD_XREC_ROUNDTRIP
360
6D6
  3
BUMPTILE
360
511
  3
DIFFUSETILE
360
510
  3
OPACITYTILE
360
514
  3
REFLECTIONTILE
360
513
  3
REFRACTIONTILE
360
515
  3
SPECULARTILE
360
512
  0
DICTIONARY
  5
6CC
330
52C
100
AcDbDictionary
280
     1
281
     1
  3
ACAD_ROUNDTRIP_2008_TABLESTYLE_CELLSTYLEMAP
360
6CD
  3
ACAD_XREC_ROUNDTRIP
360
6FD
  0
DICTIONARY
  5
6E1
330
51C
100
AcDbDictionary
280
     1
281
     1
  3
ACAD_XREC_ROUNDTRIP
360
6E2
  0
DICTIONARY
  5
6E5
330
51E
100
AcDbDictionary
280
     1
281
     1
  3
ACAD_XREC_ROUNDTRIP
360
6E6
  0
DICTIONARY
  5
6E3
330
51D
100
AcDbDictionary
280
     1
281
     1
  3
ACAD_XREC_ROUNDTRIP
360
6E4
  0
DICTIONARY
  5
6DF
330
51B
100
AcDbDictionary
280
     1
281
     1
  3
ACAD_XREC_ROUNDTRIP
360
6E0
  0
DICTIONARY
  5
6ED
330
522
100
AcDbDictionary
280
     1
281
     1
  3
ACAD_XREC_ROUNDTRIP
360
6EE
  0
DICTIONARY
  5
6F5
330
526
100
AcDbDictionary
280
     1
281
     1
  3
ACAD_XREC_ROUNDTRIP
360
6F6
  0
DICTIONARY
  5
6E7
330
51F
100
AcDbDictionary
280
     1
281
     1
  3
ACAD_XREC_ROUNDTRIP
360
6E8
  0
DICTIONARY
  5
6EB
330
521
100
AcDbDictionary
280
     1
281
     1
  3
ACAD_XREC_ROUNDTRIP
360
6EC
  0
DICTIONARY
  5
6FB
330
529
100
AcDbDictionary
280
     1
281
     1
  3
ACAD_XREC_ROUNDTRIP
360
6FC
  0
DICTIONARY
  5
6F3
330
525
100
AcDbDictionary
280
     1
281
     1
  3
ACAD_XREC_ROUNDTRIP
360
6F4
  0
DICTIONARY
  5
6D7
330
517
100
AcDbDictionary
280
     1
281
     1
  3
ACAD_XREC_ROUNDTRIP
360
6D8
  0
DICTIONARY
  5
6D9
330
518
100
AcDbDictionary
280
     1
281
     1
  3
ACAD_XREC_ROUNDTRIP
360
6DA
  0
DICTIONARY
  5
6DB
330
519
100
AcDbDictionary
280
     1
281
     1
  3
ACAD_XREC_ROUNDTRIP
360
6DC
  0
DICTIONARY
  5
6DD
330
51A
100
AcDbDictionary
280
     1
281
     1
  3
ACAD_XREC_ROUNDTRIP
360
6DE
  0
DICTIONARY
  5
6F7
330
527
100
AcDbDictionary
280
     1
281
     1
  3
ACAD_XREC_ROUNDTRIP
360
6F8
  0
DICTIONARY
  5
6F1
330
524
100
AcDbDictionary
280
     1
281
     1
  3
ACAD_XREC_ROUNDTRIP
360
6F2
  0
DICTIONARY
  5
6F9
330
528
100
AcDbDictionary
280
     1
281
     1
  3
ACAD_XREC_ROUNDTRIP
360
6FA
  0
DICTIONARY
  5
6E9
330
520
100
AcDbDictionary
280
     1
281
     1
  3
ACAD_XREC_ROUNDTRIP
360
6EA
  0
DICTIONARY
  5
6EF
330
523
100
AcDbDictionary
280
     1
281
     1
  3
ACAD_XREC_ROUNDTRIP
360
6F0
  0
XRECORD
  5
6D3
102
{ACAD_REACTORS
330
6D2
102
}
330
6D2
100
AcDbXrecord
280
     1
102
SHADEPLOT
 70
     0
102
SHADEPLOTRESLEVEL
 70
     2
102
SHADEPLOTCUSTOMDPI
 70
   300
  0
XRECORD
  5
6D1
102
{ACAD_REACTORS
330
6D0
102
}
330
6D0
100
AcDbXrecord
280
     1
102
SHADEPLOT
 70
     0
102
SHADEPLOTRESLEVEL
 70
     2
102
SHADEPLOTCUSTOMDPI
 70
   300
  0
XRECORD
  5
6D5
102
{ACAD_REACTORS
330
507
102
}
330
507
100
AcDbXrecord
280
     1
102
MATERIAL
148
0.0
149
0.0
149
0.0
 93
        0
 94
      127
282
     0
 72
     0
 77
     0
171
     0
175
     0
179
     0
273
     0
  0
XRECORD
  5
509
102
{ACAD_REACTORS
330
507
102
}
330
507
100
AcDbXrecord
280
     1
270
     1
271
     1
  0
XRECORD
  5
508
102
{ACAD_REACTORS
330
507
102
}
330
507
100
AcDbXrecord
280
     1
270
     1
271
     1
  0
XRECORD
  5
50C
102
{ACAD_REACTORS
330
507
102
}
330
507
100
AcDbXrecord
280
     1
270
     1
271
     1
  0
XRECORD
  5
50B
102
{ACAD_REACTORS
330
507
102
}
330
507
100
AcDbXrecord
280
     1
270
     1
271
     1
  0
XRECORD
  5
50D
102
{ACAD_REACTORS
330
507
102
}
330
507
100
AcDbXrecord
280
     1
270
     1
271
     1
  0
XRECORD
  5
50A
102
{ACAD_REACTORS
330
507
102
}
330
507
100
AcDbXrecord
280
     1
270
     1
271
     1
  0
XRECORD
  5
6D4
102
{ACAD_REACTORS
330
4FF
102
}
330
4FF
100
AcDbXrecord
280
     1
102
MATERIAL
148
0.0
149
0.0
149
0.0
 93
        0
 94
      127
282
     0
 72
     0
 77
     0
171
     0
175
     0
179
     0
273
     0
  0
XRECORD
  5
501
102
{ACAD_REACTORS
330
4FF
102
}
330
4FF
100
AcDbXrecord
280
     1
270
     1
271
     1
  0
XRECORD
  5
500
102
{ACAD_REACTORS
330
4FF
102
}
330
4FF
100
AcDbXrecord
280
     1
270
     1
271
     1
  0
XRECORD
  5
504
102
{ACAD_REACTORS
330
4FF
102
}
330
4FF
100
AcDbXrecord
280
     1
270
     1
271
     1
  0
XRECORD
  5
503
102
{ACAD_REACTORS
330
4FF
102
}
330
4FF
100
AcDbXrecord
280
     1
270
     1
271
     1
  0
XRECORD
  5
505
102
{ACAD_REACTORS
330
4FF
102
}
330
4FF
100
AcDbXrecord
280
     1
270
     1
271
     1
  0
XRECORD
  5
502
102
{ACAD_REACTORS
330
4FF
102
}
330
4FF
100
AcDbXrecord
280
     1
270
     1
271
     1
  0
XRECORD
  5
6D6
102
{ACAD_REACTORS
330
50F
102
}
330
50F
100
AcDbXrecord
280
     1
102
MATERIAL
148
0.0
149
0.0
149
0.0
 93
        0
 94
      127
282
     0
 72
     0
 77
     0
171
     0
175
     0
179
     0
273
     0
  0
XRECORD
  5
511
102
{ACAD_REACTORS
330
50F
102
}
330
50F
100
AcDbXrecord
280
     1
270
     1
271
     1
  0
XRECORD
  5
510
102
{ACAD_REACTORS
330
50F
102
}
330
50F
100
AcDbXrecord
280
     1
270
     1
271
     1
  0
XRECORD
  5
514
102
{ACAD_REACTORS
330
50F
102
}
330
50F
100
AcDbXrecord
280
     1
270
     1
271
     1
  0
XRECORD
  5
513
102
{ACAD_REACTORS
330
50F
102
}
330
50F
100
AcDbXrecord
280
     1
270
     1
271
     1
  0
XRECORD
  5
515
102
{ACAD_REACTORS
330
50F
102
}
330
50F
100
AcDbXrecord
280
     1
270
     1
271
     1
  0
XRECORD
  5
512
102
{ACAD_REACTORS
330
50F
102
}
330
50F
100
AcDbXrecord
280
     1
270
     1
271
     1
  0
CELLSTYLEMAP
  5
6CD
102
{ACAD_REACTORS
330
6CC
102
}
330
6CC
100
AcDbCellStyleMap
 90
        3
300
CELLSTYLE
  1
TABLEFORMAT_BEGIN
 90
        5
170
     1
 91
        0
 92
    32768
 62
   257
 93
        1
300
CONTENTFORMAT
  1
CONTENTFORMAT_BEGIN
 90
        0
 91
        0
 92
      512
 93
        0
300

 40
0.0
140
1.0
 94
        5
 62
     0
340
11
144
6.0
309
CONTENTFORMAT_END
171
     1
301
MARGIN
  1
CELLMARGIN_BEGIN
 40
1.5
 40
1.5
 40
1.5
 40
1.5
 40
4.5
 40
4.5
309
CELLMARGIN_END
 94
        6
 95
        1
302
GRIDFORMAT
  1
GRIDFORMAT_BEGIN
 90
        0
 91
        1
 62
     0
 92
       -2
340
0
 93
        0
 40
1.125
309
GRIDFORMAT_END
 95
        2
302
GRIDFORMAT
  1
GRIDFORMAT_BEGIN
 90
        0
 91
        1
 62
     0
 92
       -2
340
0
 93
        0
 40
1.125
309
GRIDFORMAT_END
 95
        4
302
GRIDFORMAT
  1
GRIDFORMAT_BEGIN
 90
        0
 91
        1
 62
     0
 92
       -2
340
0
 93
        0
 40
1.125
309
GRIDFORMAT_END
 95
        8
302
GRIDFORMAT
  1
GRIDFORMAT_BEGIN
 90
        0
 91
        1
 62
     0
 92
       -2
340
0
 93
        0
 40
1.125
309
GRIDFORMAT_END
 95
       16
302
GRIDFORMAT
  1
GRIDFORMAT_BEGIN
 90
        0
 91
        1
 62
     0
 92
       -2
340
0
 93
        0
 40
1.125
309
GRIDFORMAT_END
 95
       32
302
GRIDFORMAT
  1
GRIDFORMAT_BEGIN
 90
        0
 91
        1
 62
     0
 92
       -2
340
0
 93
        0
 40
1.125
309
GRIDFORMAT_END
309
TABLEFORMAT_END
  1
CELLSTYLE_BEGIN
 90
        1
 91
        1
300
_TITLE
309
CELLSTYLE_END
300
CELLSTYLE
  1
TABLEFORMAT_BEGIN
 90
        5
170
     1
 91
        0
 92
        0
 62
   257
 93
        1
300
CONTENTFORMAT
  1
CONTENTFORMAT_BEGIN
 90
        0
 91
        0
 92
      512
 93
        0
300

 40
0.0
140
1.0
 94
        5
 62
     0
340
11
144
4.5
309
CONTENTFORMAT_END
171
     1
301
MARGIN
  1
CELLMARGIN_BEGIN
 40
1.5
 40
1.5
 40
1.5
 40
1.5
 40
4.5
 40
4.5
309
CELLMARGIN_END
 94
        6
 95
        1
302
GRIDFORMAT
  1
GRIDFORMAT_BEGIN
 90
        0
 91
        1
 62
     0
 92
       -2
340
0
 93
        0
 40
1.125
309
GRIDFORMAT_END
 95
        2
302
GRIDFORMAT
  1
GRIDFORMAT_BEGIN
 90
        0
 91
        1
 62
     0
 92
       -2
340
0
 93
        0
 40
1.125
309
GRIDFORMAT_END
 95
        4
302
GRIDFORMAT
  1
GRIDFORMAT_BEGIN
 90
        0
 91
        1
 62
     0
 92
       -2
340
0
 93
        0
 40
1.125
309
GRIDFORMAT_END
 95
        8
302
GRIDFORMAT
  1
GRIDFORMAT_BEGIN
 90
        0
 91
        1
 62
     0
 92
       -2
340
0
 93
        0
 40
1.125
309
GRIDFORMAT_END
 95
       16
302
GRIDFORMAT
  1
GRIDFORMAT_BEGIN
 90
        0
 91
        1
 62
     0
 92
       -2
340
0
 93
        0
 40
1.125
309
GRIDFORMAT_END
 95
       32
302
GRIDFORMAT
  1
GRIDFORMAT_BEGIN
 90
        0
 91
        1
 62
     0
 92
       -2
340
0
 93
        0
 40
1.125
309
GRIDFORMAT_END
309
TABLEFORMAT_END
  1
CELLSTYLE_BEGIN
 90
        2
 91
        1
300
_HEADER
309
CELLSTYLE_END
300
CELLSTYLE
  1
TABLEFORMAT_BEGIN
 90
        5
170
     1
 91
        0
 92
        0
 62
   257
 93
        1
300
CONTENTFORMAT
  1
CONTENTFORMAT_BEGIN
 90
        0
 91
        0
 92
      512
 93
        0
300

 40
0.0
140
1.0
 94
        2
 62
     0
340
11
144
4.5
309
CONTENTFORMAT_END
171
     1
301
MARGIN
  1
CELLMARGIN_BEGIN
 40
1.5
 40
1.5
 40
1.5
 40
1.5
 40
4.5
 40
4.5
309
CELLMARGIN_END
 94
        6
 95
        1
302
GRIDFORMAT
  1
GRIDFORMAT_BEGIN
 90
        0
 91
        1
 62
     0
 92
       -2
340
0
 93
        0
 40
1.125
309
GRIDFORMAT_END
 95
        2
302
GRIDFORMAT
  1
GRIDFORMAT_BEGIN
 90
        0
 91
        1
 62
     0
 92
       -2
340
0
 93
        0
 40
1.125
309
GRIDFORMAT_END
 95
        4
302
GRIDFORMAT
  1
GRIDFORMAT_BEGIN
 90
        0
 91
        1
 62
     0
 92
       -2
340
0
 93
        0
 40
1.125
309
GRIDFORMAT_END
 95
        8
302
GRIDFORMAT
  1
GRIDFORMAT_BEGIN
 90
        0
 91
        1
 62
     0
 92
       -2
340
0
 93
        0
 40
1.125
309
GRIDFORMAT_END
 95
       16
302
GRIDFORMAT
  1
GRIDFORMAT_BEGIN
 90
        0
 91
        1
 62
     0
 92
       -2
340
0
 93
        0
 40
1.125
309
GRIDFORMAT_END
 95
       32
302
GRIDFORMAT
  1
GRIDFORMAT_BEGIN
 90
        0
 91
        1
 62
     0
 92
       -2
340
0
 93
        0
 40
1.125
309
GRIDFORMAT_END
309
TABLEFORMAT_END
  1
CELLSTYLE_BEGIN
 90
        3
 91
        2
300
_DATA
309
CELLSTYLE_END
  0
XRECORD
  5
6FD
102
{ACAD_REACTORS
330
6CC
102
}
330
6CC
100
AcDbXrecord
280
     1
102
ACAD_ROUNDTRIP_PRE2007_TABLESTYLE
 90
      512
 91
        0
  1

 92
      512
 93
        0
  2

 94
      512
 95
        0
  3

  0
XRECORD
  5
6E2
102
{ACAD_REACTORS
330
6E1
102
}
330
6E1
100
AcDbXrecord
280
     1
102
RTVSPropertyOp0
 70
     1
102
RTVSPropertyOp1
 70
     1
102
RTVSPropertyOp2
 70
     1
102
RTVSPropertyOp3
 70
     1
102
RTVSPropertyOp4
 70
     1
102
RTVSPropertyOp5
 70
     1
102
RTVSPropertyOp6
 70
     1
102
RTVSPropertyOp7
 70
     1
102
RTVSPropertyOp8
 70
     1
102
RTVSPropertyOp9
 70
     1
102
RTVSPropertyOp10
 70
     1
102
RTVSPropertyOp11
 70
     1
102
RTVSPropertyOp12
 70
     1
102
RTVSPropertyOp13
 70
     1
102
RTVSPropertyOp14
 70
     1
102
RTVSPropertyOp15
 70
     1
102
RTVSPropertyOp16
 70
     1
102
RTVSPropertyOp17
 70
     1
102
RTVSPropertyOp18
 70
     1
102
RTVSPropertyOp19
 70
     1
102
RTVSPropertyOp20
 70
     1
102
RTVSPropertyOp21
 70
     1
102
RTVSPropertyOp22
 70
     1
102
RTVSPropertyOp23
 70
     1
102
RTVSPropertyOp24
 70
     1
102
RTVSPropertyOp25
 70
     1
102
RTVSPropertyOp26
 70
     1
102
RTVSPropertyOp27
 70
     1
  0
XRECORD
  5
6E6
102
{ACAD_REACTORS
330
6E5
102
}
330
6E5
100
AcDbXrecord
280
     1
102
RTVSPropertyOp0
 70
     1
102
RTVSPropertyOp1
 70
     1
102
RTVSPropertyOp2
 70
     1
102
RTVSPropertyOp3
 70
     1
102
RTVSPropertyOp4
 70
     1
102
RTVSPropertyOp5
 70
     1
102
RTVSPropertyOp6
 70
     1
102
RTVSPropertyOp7
 70
     1
102
RTVSPropertyOp8
 70
     1
102
RTVSPropertyOp9
 70
     1
102
RTVSPropertyOp10
 70
     1
102
RTVSPropertyOp11
 70
     1
102
RTVSPropertyOp12
 70
     1
102
RTVSPropertyOp13
 70
     1
102
RTVSPropertyOp14
 70
     1
102
RTVSPropertyOp15
 70
     1
102
RTVSPropertyOp16
 70
     1
102
RTVSPropertyOp17
 70
     1
102
RTVSPropertyOp18
 70
     1
102
RTVSPropertyOp19
 70
     1
102
RTVSPropertyOp20
 70
     1
102
RTVSPropertyOp21
 70
     1
102
RTVSPropertyOp22
 70
     1
102
RTVSPropertyOp23
 70
     1
102
RTVSPropertyOp24
 70
     1
102
RTVSPropertyOp25
 70
     1
102
RTVSPropertyOp26
 70
     1
102
RTVSPropertyOp27
 70
     1
  0
XRECORD
  5
6E4
102
{ACAD_REACTORS
330
6E3
102
}
330
6E3
100
AcDbXrecord
280
     1
102
RTVSPropertyOp0
 70
     1
102
RTVSPropertyOp1
 70
     1
102
RTVSPropertyOp2
 70
     1
102
RTVSPropertyOp3
 70
     1
102
RTVSPropertyOp4
 70
     1
102
RTVSPropertyOp5
 70
     1
102
RTVSPropertyOp6
 70
     1
102
RTVSPropertyOp7
 70
     1
102
RTVSPropertyOp8
 70
     1
102
RTVSPropertyOp9
 70
     1
102
RTVSPropertyOp10
 70
     1
102
RTVSPropertyOp11
 70
     1
102
RTVSPropertyOp12
 70
     1
102
RTVSPropertyOp13
 70
     1
102
RTVSPropertyOp14
 70
     1
102
RTVSPropertyOp15
 70
     1
102
RTVSPropertyOp16
 70
     1
102
RTVSPropertyOp17
 70
     1
102
RTVSPropertyOp18
 70
     1
102
RTVSPropertyOp19
 70
     1
102
RTVSPropertyOp20
 70
     1
102
RTVSPropertyOp21
 70
     1
102
RTVSPropertyOp22
 70
     1
102
RTVSPropertyOp23
 70
     1
102
RTVSPropertyOp24
 70
     1
102
RTVSPropertyOp25
 70
     1
102
RTVSPropertyOp26
 70
     1
102
RTVSPropertyOp27
 70
     1
  0
XRECORD
  5
6E0
102
{ACAD_REACTORS
330
6DF
102
}
330
6DF
100
AcDbXrecord
280
     1
102
RTVSPropertyOp0
 70
     1
102
RTVSPropertyOp1
 70
     1
102
RTVSPropertyOp2
 70
     1
102
RTVSPropertyOp3
 70
     1
102
RTVSPropertyOp4
 70
     1
102
RTVSPropertyOp5
 70
     1
102
RTVSPropertyOp6
 70
     1
102
RTVSPropertyOp7
 70
     1
102
RTVSPropertyOp8
 70
     1
102
RTVSPropertyOp9
 70
     1
102
RTVSPropertyOp10
 70
     1
102
RTVSPropertyOp11
 70
     1
102
RTVSPropertyOp12
 70
     1
102
RTVSPropertyOp13
 70
     1
102
RTVSPropertyOp14
 70
     1
102
RTVSPropertyOp15
 70
     1
102
RTVSPropertyOp16
 70
     1
102
RTVSPropertyOp17
 70
     1
102
RTVSPropertyOp18
 70
     1
102
RTVSPropertyOp19
 70
     1
102
RTVSPropertyOp20
 70
     1
102
RTVSPropertyOp21
 70
     1
102
RTVSPropertyOp22
 70
     1
102
RTVSPropertyOp23
 70
     1
102
RTVSPropertyOp24
 70
     1
102
RTVSPropertyOp25
 70
     1
102
RTVSPropertyOp26
 70
     1
102
RTVSPropertyOp27
 70
     1
  0
XRECORD
  5
6EE
102
{ACAD_REACTORS
330
6ED
102
}
330
6ED
100
AcDbXrecord
280
     1
102
RTVSPropertyOp0
 70
     1
102
RTVSPropertyOp1
 70
     1
102
RTVSPropertyOp2
 70
     1
102
RTVSPropertyOp3
 70
     1
102
RTVSPropertyOp4
 70
     1
102
RTVSPropertyOp5
 70
     1
102
RTVSPropertyOp6
 70
     1
102
RTVSPropertyOp7
 70
     1
102
RTVSPropertyOp8
 70
     1
102
RTVSPropertyOp9
 70
     1
102
RTVSPropertyOp10
 70
     1
102
RTVSPropertyOp11
 70
     1
102
RTVSPropertyOp12
 70
     1
102
RTVSPropertyOp13
 70
     1
102
RTVSPropertyOp14
 70
     1
102
RTVSPropertyOp15
 70
     1
102
RTVSPropertyOp16
 70
     1
102
RTVSPropertyOp17
 70
     1
102
RTVSPropertyOp18
 70
     1
102
RTVSPropertyOp19
 70
     1
102
RTVSPropertyOp20
 70
     1
102
RTVSPropertyOp21
 70
     1
102
RTVSPropertyOp22
 70
     1
102
RTVSPropertyOp23
 70
     1
102
RTVSPropertyOp24
 70
     1
102
RTVSPropertyOp25
 70
     1
102
RTVSPropertyOp26
 70
     1
102
RTVSPropertyOp27
 70
     1
  0
XRECORD
  5
6F6
102
{ACAD_REACTORS
330
6F5
102
}
330
6F5
100
AcDbXrecord
280
     1
102
RTVSPropertyOp0
 70
     1
102
RTVSPropertyOp1
 70
     1
102
RTVSPropertyOp2
 70
     1
102
RTVSPropertyOp3
 70
     1
102
RTVSPropertyOp4
 70
     1
102
RTVSPropertyOp5
 70
     1
102
RTVSPropertyOp6
 70
     1
102
RTVSPropertyOp7
 70
     1
102
RTVSPropertyOp8
 70
     1
102
RTVSPropertyOp9
 70
     1
102
RTVSPropertyOp10
 70
     1
102
RTVSPropertyOp11
 70
     1
102
RTVSPropertyOp12
 70
     1
102
RTVSPropertyOp13
 70
     1
102
RTVSPropertyOp14
 70
     1
102
RTVSPropertyOp15
 70
     1
102
RTVSPropertyOp16
 70
     1
102
RTVSPropertyOp17
 70
     1
102
RTVSPropertyOp18
 70
     1
102
RTVSPropertyOp19
 70
     1
102
RTVSPropertyOp20
 70
     1
102
RTVSPropertyOp21
 70
     1
102
RTVSPropertyOp22
 70
     1
102
RTVSPropertyOp23
 70
     1
102
RTVSPropertyOp24
 70
     1
102
RTVSPropertyOp25
 70
     1
102
RTVSPropertyOp26
 70
     1
102
RTVSPropertyOp27
 70
     1
  0
XRECORD
  5
6E8
102
{ACAD_REACTORS
330
6E7
102
}
330
6E7
100
AcDbXrecord
280
     1
102
RTVSPropertyOp0
 70
     1
102
RTVSPropertyOp1
 70
     1
102
RTVSPropertyOp2
 70
     1
102
RTVSPropertyOp3
 70
     1
102
RTVSPropertyOp4
 70
     1
102
RTVSPropertyOp5
 70
     1
102
RTVSPropertyOp6
 70
     1
102
RTVSPropertyOp7
 70
     1
102
RTVSPropertyOp8
 70
     1
102
RTVSPropertyOp9
 70
     1
102
RTVSPropertyOp10
 70
     1
102
RTVSPropertyOp11
 70
     1
102
RTVSPropertyOp12
 70
     1
102
RTVSPropertyOp13
 70
     1
102
RTVSPropertyOp14
 70
     1
102
RTVSPropertyOp15
 70
     1
102
RTVSPropertyOp16
 70
     1
102
RTVSPropertyOp17
 70
     1
102
RTVSPropertyOp18
 70
     1
102
RTVSPropertyOp19
 70
     1
102
RTVSPropertyOp20
 70
     1
102
RTVSPropertyOp21
 70
     1
102
RTVSPropertyOp22
 70
     1
102
RTVSPropertyOp23
 70
     1
102
RTVSPropertyOp24
 70
     1
102
RTVSPropertyOp25
 70
     1
102
RTVSPropertyOp26
 70
     1
102
RTVSPropertyOp27
 70
     1
  0
XRECORD
  5
6EC
102
{ACAD_REACTORS
330
6EB
102
}
330
6EB
100
AcDbXrecord
280
     1
102
RTVSPropertyOp0
 70
     1
102
RTVSPropertyOp1
 70
     1
102
RTVSPropertyOp2
 70
     1
102
RTVSPropertyOp3
 70
     1
102
RTVSPropertyOp4
 70
     1
102
RTVSPropertyOp5
 70
     1
102
RTVSPropertyOp6
 70
     1
102
RTVSPropertyOp7
 70
     1
102
RTVSPropertyOp8
 70
     1
102
RTVSPropertyOp9
 70
     1
102
RTVSPropertyOp10
 70
     1
102
RTVSPropertyOp11
 70
     1
102
RTVSPropertyOp12
 70
     1
102
RTVSPropertyOp13
 70
     1
102
RTVSPropertyOp14
 70
     1
102
RTVSPropertyOp15
 70
     1
102
RTVSPropertyOp16
 70
     1
102
RTVSPropertyOp17
 70
     1
102
RTVSPropertyOp18
 70
     1
102
RTVSPropertyOp19
 70
     1
102
RTVSPropertyOp20
 70
     1
102
RTVSPropertyOp21
 70
     1
102
RTVSPropertyOp22
 70
     1
102
RTVSPropertyOp23
 70
     1
102
RTVSPropertyOp24
 70
     1
102
RTVSPropertyOp25
 70
     1
102
RTVSPropertyOp26
 70
     1
102
RTVSPropertyOp27
 70
     1
  0
XRECORD
  5
6FC
102
{ACAD_REACTORS
330
6FB
102
}
330
6FB
100
AcDbXrecord
280
     1
102
RTVSPropertyOp0
 70
     0
102
RTVSPropertyOp1
 70
     0
102
RTVSPropertyOp2
 70
     0
102
RTVSPropertyOp3
 70
     0
102
RTVSPropertyOp4
 70
     0
102
RTVSPropertyOp5
 70
     0
102
RTVSPropertyOp6
 70
     0
102
RTVSPropertyOp7
 70
     0
102
RTVSPropertyOp8
 70
     0
102
RTVSPropertyOp9
 70
     0
102
RTVSPropertyOp10
 70
     0
102
RTVSPropertyOp11
 70
     0
102
RTVSPropertyOp12
 70
     0
102
RTVSPropertyOp13
 70
     0
102
RTVSPropertyOp14
 70
     2
102
RTVSPropertyOp15
 70
     0
102
RTVSPropertyOp16
 70
     0
102
RTVSPropertyOp17
 70
     0
102
RTVSPropertyOp18
 70
     0
102
RTVSPropertyOp19
 70
     0
102
RTVSPropertyOp20
 70
     0
102
RTVSPropertyOp21
 70
     0
102
RTVSPropertyOp22
 70
     0
102
RTVSPropertyOp23
 70
     0
102
RTVSPropertyOp24
 70
     0
102
RTVSPropertyOp25
 70
     0
102
RTVSPropertyOp26
 70
     0
102
RTVSPropertyOp27
 70
     0
  0
XRECORD
  5
6F4
102
{ACAD_REACTORS
330
6F3
102
}
330
6F3
100
AcDbXrecord
280
     1
102
RTVSPropertyOp0
 70
     1
102
RTVSPropertyOp1
 70
     1
102
RTVSPropertyOp2
 70
     1
102
RTVSPropertyOp3
 70
     1
102
RTVSPropertyOp4
 70
     1
102
RTVSPropertyOp5
 70
     1
102
RTVSPropertyOp6
 70
     1
102
RTVSPropertyOp7
 70
     1
102
RTVSPropertyOp8
 70
     1
102
RTVSPropertyOp9
 70
     1
102
RTVSPropertyOp10
 70
     1
102
RTVSPropertyOp11
 70
     1
102
RTVSPropertyOp12
 70
     1
102
RTVSPropertyOp13
 70
     1
102
RTVSPropertyOp14
 70
     1
102
RTVSPropertyOp15
 70
     1
102
RTVSPropertyOp16
 70
     1
102
RTVSPropertyOp17
 70
     1
102
RTVSPropertyOp18
 70
     1
102
RTVSPropertyOp19
 70
     1
102
RTVSPropertyOp20
 70
     1
102
RTVSPropertyOp21
 70
     1
102
RTVSPropertyOp22
 70
     1
102
RTVSPropertyOp23
 70
     1
102
RTVSPropertyOp24
 70
     1
102
RTVSPropertyOp25
 70
     1
102
RTVSPropertyOp26
 70
     1
102
RTVSPropertyOp27
 70
     1
  0
XRECORD
  5
6D8
102
{ACAD_REACTORS
330
6D7
102
}
330
6D7
100
AcDbXrecord
280
     1
102
RTVSPropertyOp0
 70
     1
102
RTVSPropertyOp1
 70
     1
102
RTVSPropertyOp2
 70
     1
102
RTVSPropertyOp3
 70
     1
102
RTVSPropertyOp4
 70
     1
102
RTVSPropertyOp5
 70
     1
102
RTVSPropertyOp6
 70
     1
102
RTVSPropertyOp7
 70
     1
102
RTVSPropertyOp8
 70
     1
102
RTVSPropertyOp9
 70
     1
102
RTVSPropertyOp10
 70
     1
102
RTVSPropertyOp11
 70
     1
102
RTVSPropertyOp12
 70
     1
102
RTVSPropertyOp13
 70
     1
102
RTVSPropertyOp14
 70
     1
102
RTVSPropertyOp15
 70
     1
102
RTVSPropertyOp16
 70
     1
102
RTVSPropertyOp17
 70
     1
102
RTVSPropertyOp18
 70
     1
102
RTVSPropertyOp19
 70
     1
102
RTVSPropertyOp20
 70
     1
102
RTVSPropertyOp21
 70
     1
102
RTVSPropertyOp22
 70
     1
102
RTVSPropertyOp23
 70
     1
102
RTVSPropertyOp24
 70
     1
102
RTVSPropertyOp25
 70
     1
102
RTVSPropertyOp26
 70
     1
102
RTVSPropertyOp27
 70
     1
  0
XRECORD
  5
6DA
102
{ACAD_REACTORS
330
6D9
102
}
330
6D9
100
AcDbXrecord
280
     1
102
RTVSPropertyOp0
 70
     1
102
RTVSPropertyOp1
 70
     1
102
RTVSPropertyOp2
 70
     1
102
RTVSPropertyOp3
 70
     1
102
RTVSPropertyOp4
 70
     1
102
RTVSPropertyOp5
 70
     1
102
RTVSPropertyOp6
 70
     1
102
RTVSPropertyOp7
 70
     1
102
RTVSPropertyOp8
 70
     1
102
RTVSPropertyOp9
 70
     1
102
RTVSPropertyOp10
 70
     1
102
RTVSPropertyOp11
 70
     1
102
RTVSPropertyOp12
 70
     1
102
RTVSPropertyOp13
 70
     1
102
RTVSPropertyOp14
 70
     1
102
RTVSPropertyOp15
 70
     1
102
RTVSPropertyOp16
 70
     1
102
RTVSPropertyOp17
 70
     1
102
RTVSPropertyOp18
 70
     1
102
RTVSPropertyOp19
 70
     1
102
RTVSPropertyOp20
 70
     1
102
RTVSPropertyOp21
 70
     1
102
RTVSPropertyOp22
 70
     1
102
RTVSPropertyOp23
 70
     1
102
RTVSPropertyOp24
 70
     1
102
RTVSPropertyOp25
 70
     1
102
RTVSPropertyOp26
 70
     1
102
RTVSPropertyOp27
 70
     1
  0
XRECORD
  5
6DC
102
{ACAD_REACTORS
330
6DB
102
}
330
6DB
100
AcDbXrecord
280
     1
102
RTVSPropertyOp0
 70
     1
102
RTVSPropertyOp1
 70
     1
102
RTVSPropertyOp2
 70
     1
102
RTVSPropertyOp3
 70
     1
102
RTVSPropertyOp4
 70
     1
102
RTVSPropertyOp5
 70
     1
102
RTVSPropertyOp6
 70
     1
102
RTVSPropertyOp7
 70
     1
102
RTVSPropertyOp8
 70
     1
102
RTVSPropertyOp9
 70
     1
102
RTVSPropertyOp10
 70
     1
102
RTVSPropertyOp11
 70
     1
102
RTVSPropertyOp12
 70
     1
102
RTVSPropertyOp13
 70
     1
102
RTVSPropertyOp14
 70
     1
102
RTVSPropertyOp15
 70
     1
102
RTVSPropertyOp16
 70
     1
102
RTVSPropertyOp17
 70
     1
102
RTVSPropertyOp18
 70
     1
102
RTVSPropertyOp19
 70
     1
102
RTVSPropertyOp20
 70
     1
102
RTVSPropertyOp21
 70
     1
102
RTVSPropertyOp22
 70
     1
102
RTVSPropertyOp23
 70
     1
102
RTVSPropertyOp24
 70
     1
102
RTVSPropertyOp25
 70
     1
102
RTVSPropertyOp26
 70
     1
102
RTVSPropertyOp27
 70
     1
  0
XRECORD
  5
6DE
102
{ACAD_REACTORS
330
6DD
102
}
330
6DD
100
AcDbXrecord
280
     1
102
RTVSPropertyOp0
 70
     1
102
RTVSPropertyOp1
 70
     1
102
RTVSPropertyOp2
 70
     1
102
RTVSPropertyOp3
 70
     1
102
RTVSPropertyOp4
 70
     1
102
RTVSPropertyOp5
 70
     1
102
RTVSPropertyOp6
 70
     1
102
RTVSPropertyOp7
 70
     1
102
RTVSPropertyOp8
 70
     1
102
RTVSPropertyOp9
 70
     1
102
RTVSPropertyOp10
 70
     1
102
RTVSPropertyOp11
 70
     1
102
RTVSPropertyOp12
 70
     1
102
RTVSPropertyOp13
 70
     1
102
RTVSPropertyOp14
 70
     1
102
RTVSPropertyOp15
 70
     1
102
RTVSPropertyOp16
 70
     1
102
RTVSPropertyOp17
 70
     1
102
RTVSPropertyOp18
 70
     1
102
RTVSPropertyOp19
 70
     1
102
RTVSPropertyOp20
 70
     1
102
RTVSPropertyOp21
 70
     1
102
RTVSPropertyOp22
 70
     1
102
RTVSPropertyOp23
 70
     1
102
RTVSPropertyOp24
 70
     1
102
RTVSPropertyOp25
 70
     1
102
RTVSPropertyOp26
 70
     1
102
RTVSPropertyOp27
 70
     1
  0
XRECORD
  5
6F8
102
{ACAD_REACTORS
330
6F7
102
}
330
6F7
100
AcDbXrecord
280
     1
102
RTVSPropertyOp0
 70
     0
102
RTVSPropertyOp1
 70
     0
102
RTVSPropertyOp2
 70
     0
102
RTVSPropertyOp3
 70
     0
102
RTVSPropertyOp4
 70
     0
102
RTVSPropertyOp5
 70
     0
102
RTVSPropertyOp6
 70
     0
102
RTVSPropertyOp7
 70
     0
102
RTVSPropertyOp8
 70
     0
102
RTVSPropertyOp9
 70
     0
102
RTVSPropertyOp10
 70
     0
102
RTVSPropertyOp11
 70
     0
102
RTVSPropertyOp12
 70
     0
102
RTVSPropertyOp13
 70
     0
102
RTVSPropertyOp14
 70
     2
102
RTVSPropertyOp15
 70
     0
102
RTVSPropertyOp16
 70
     0
102
RTVSPropertyOp17
 70
     0
102
RTVSPropertyOp18
 70
     0
102
RTVSPropertyOp19
 70
     0
102
RTVSPropertyOp20
 70
     0
102
RTVSPropertyOp21
 70
     0
102
RTVSPropertyOp22
 70
     0
102
RTVSPropertyOp23
 70
     0
102
RTVSPropertyOp24
 70
     0
102
RTVSPropertyOp25
 70
     0
102
RTVSPropertyOp26
 70
     0
102
RTVSPropertyOp27
 70
     0
  0
XRECORD
  5
6F2
102
{ACAD_REACTORS
330
6F1
102
}
330
6F1
100
AcDbXrecord
280
     1
102
RTVSPropertyOp0
 70
     1
102
RTVSPropertyOp1
 70
     1
102
RTVSPropertyOp2
 70
     1
102
RTVSPropertyOp3
 70
     1
102
RTVSPropertyOp4
 70
     1
102
RTVSPropertyOp5
 70
     1
102
RTVSPropertyOp6
 70
     1
102
RTVSPropertyOp7
 70
     1
102
RTVSPropertyOp8
 70
     1
102
RTVSPropertyOp9
 70
     1
102
RTVSPropertyOp10
 70
     1
102
RTVSPropertyOp11
 70
     1
102
RTVSPropertyOp12
 70
     1
102
RTVSPropertyOp13
 70
     1
102
RTVSPropertyOp14
 70
     1
102
RTVSPropertyOp15
 70
     1
102
RTVSPropertyOp16
 70
     1
102
RTVSPropertyOp17
 70
     1
102
RTVSPropertyOp18
 70
     1
102
RTVSPropertyOp19
 70
     1
102
RTVSPropertyOp20
 70
     1
102
RTVSPropertyOp21
 70
     1
102
RTVSPropertyOp22
 70
     1
102
RTVSPropertyOp23
 70
     1
102
RTVSPropertyOp24
 70
     1
102
RTVSPropertyOp25
 70
     1
102
RTVSPropertyOp26
 70
     1
102
RTVSPropertyOp27
 70
     1
  0
XRECORD
  5
6FA
102
{ACAD_REACTORS
330
6F9
102
}
330
6F9
100
AcDbXrecord
280
     1
102
RTVSPropertyOp0
 70
     0
102
RTVSPropertyOp1
 70
     0
102
RTVSPropertyOp2
 70
     0
102
RTVSPropertyOp3
 70
     0
102
RTVSPropertyOp4
 70
     0
102
RTVSPropertyOp5
 70
     0
102
RTVSPropertyOp6
 70
     0
102
RTVSPropertyOp7
 70
     0
102
RTVSPropertyOp8
 70
     0
102
RTVSPropertyOp9
 70
     0
102
RTVSPropertyOp10
 70
     0
102
RTVSPropertyOp11
 70
     0
102
RTVSPropertyOp12
 70
     0
102
RTVSPropertyOp13
 70
     0
102
RTVSPropertyOp14
 70
     2
102
RTVSPropertyOp15
 70
     0
102
RTVSPropertyOp16
 70
     0
102
RTVSPropertyOp17
 70
     0
102
RTVSPropertyOp18
 70
     0
102
RTVSPropertyOp19
 70
     0
102
RTVSPropertyOp20
 70
     0
102
RTVSPropertyOp21
 70
     0
102
RTVSPropertyOp22
 70
     0
102
RTVSPropertyOp23
 70
     0
102
RTVSPropertyOp24
 70
     0
102
RTVSPropertyOp25
 70
     0
102
RTVSPropertyOp26
 70
     0
102
RTVSPropertyOp27
 70
     0
  0
XRECORD
  5
6EA
102
{ACAD_REACTORS
330
6E9
102
}
330
6E9
100
AcDbXrecord
280
     1
102
RTVSPropertyOp0
 70
     1
102
RTVSPropertyOp1
 70
     1
102
RTVSPropertyOp2
 70
     1
102
RTVSPropertyOp3
 70
     1
102
RTVSPropertyOp4
 70
     1
102
RTVSPropertyOp5
 70
     1
102
RTVSPropertyOp6
 70
     1
102
RTVSPropertyOp7
 70
     1
102
RTVSPropertyOp8
 70
     1
102
RTVSPropertyOp9
 70
     1
102
RTVSPropertyOp10
 70
     1
102
RTVSPropertyOp11
 70
     1
102
RTVSPropertyOp12
 70
     1
102
RTVSPropertyOp13
 70
     1
102
RTVSPropertyOp14
 70
     1
102
RTVSPropertyOp15
 70
     1
102
RTVSPropertyOp16
 70
     1
102
RTVSPropertyOp17
 70
     1
102
RTVSPropertyOp18
 70
     1
102
RTVSPropertyOp19
 70
     1
102
RTVSPropertyOp20
 70
     1
102
RTVSPropertyOp21
 70
     1
102
RTVSPropertyOp22
 70
     1
102
RTVSPropertyOp23
 70
     1
102
RTVSPropertyOp24
 70
     1
102
RTVSPropertyOp25
 70
     1
102
RTVSPropertyOp26
 70
     1
102
RTVSPropertyOp27
 70
     1
  0
XRECORD
  5
6F0
102
{ACAD_REACTORS
330
6EF
102
}
330
6EF
100
AcDbXrecord
280
     1
102
RTVSPropertyOp0
 70
     1
102
RTVSPropertyOp1
 70
     1
102
RTVSPropertyOp2
 70
     1
102
RTVSPropertyOp3
 70
     1
102
RTVSPropertyOp4
 70
     1
102
RTVSPropertyOp5
 70
     1
102
RTVSPropertyOp6
 70
     1
102
RTVSPropertyOp7
 70
     1
102
RTVSPropertyOp8
 70
     1
102
RTVSPropertyOp9
 70
     1
102
RTVSPropertyOp10
 70
     1
102
RTVSPropertyOp11
 70
     1
102
RTVSPropertyOp12
 70
     1
102
RTVSPropertyOp13
 70
     1
102
RTVSPropertyOp14
 70
     1
102
RTVSPropertyOp15
 70
     1
102
RTVSPropertyOp16
 70
     1
102
RTVSPropertyOp17
 70
     1
102
RTVSPropertyOp18
 70
     1
102
RTVSPropertyOp19
 70
     1
102
RTVSPropertyOp20
 70
     1
102
RTVSPropertyOp21
 70
     1
102
RTVSPropertyOp22
 70
     1
102
RTVSPropertyOp23
 70
     1
102
RTVSPropertyOp24
 70
     1
102
RTVSPropertyOp25
 70
     1
102
RTVSPropertyOp26
 70
     1
102
RTVSPropertyOp27
 70
     1
  0
ENDSEC
  0
EOF
