  0
SECTION
  2
HEADER
  9
$ACADVER
  1
AC1015
  9
$ACADMAINTVER
 70
    20
  9
$DWGCODEPAGE
  3
ANSI_1252
  9
$INSBASE
 10
0.0
 20
0.0
 30
0.0
  9
$EXTMIN
 10
97.14294542691551
 20
35.79263378981579
 30
-0.0015258207003583
  9
$EXTMAX
 10
304.8486336563349
 20
287.809387887839
 30
0.0000000349246037
  9
$LIMMIN
 10
0.0
 20
0.0
  9
$LIMMAX
 10
420.0
 20
297.0
  9
$ORTHOMODE
 70
     0
  9
$REGENMODE
 70
     1
  9
$FILLMODE
 70
     1
  9
$QTEXTMODE
 70
     0
  9
$MIRRTEXT
 70
     0
  9
$LTSCALE
 40
23.1
  9
$ATTMODE
 70
     1
  9
$TEXTSIZE
 40
0.2
  9
$TRACEWID
 40
0.05
  9
$TEXTSTYLE
  7
STANDARD
  9
$CLAYER
  8
0
  9
$CELTYPE
  6
BYLAYER
  9
$CECOLOR
 62
   256
  9
$CELTSCALE
 40
1.0
  9
$DISPSILH
 70
     0
  9
$DIMSCALE
 40
1.0
  9
$DIMASZ
 40
3.5
  9
$DIMEXO
 40
2.625
  9
$DIMDLI
 40
15.96
  9
$DIMRND
 40
0.0
  9
$DIMDLE
 40
0.0
  9
$DIMEXE
 40
7.559999999999999
  9
$DIMTP
 40
0.005
  9
$DIMTM
 40
0.005
  9
$DIMTXT
 40
3.5
  9
$DIMCEN
 40
3.779999999999999
  9
$DIMTSZ
 40
0.0
  9
$DIMTOL
 70
     1
  9
$DIMLIM
 70
     0
  9
$DIMTIH
 70
     1
  9
$DIMTOH
 70
     1
  9
$DIMSE1
 70
     0
  9
$DIMSE2
 70
     0
  9
$DIMTAD
 70
     0
  9
$DIMZIN
 70
     0
  9
$DIMBLK
  1
_FILLED
  9
$DIMASO
 70
     1
  9
$DIMSHO
 70
     1
  9
$DIMPOST
  1

  9
$DIMAPOST
  1

  9
$DIMALT
 70
     0
  9
$DIMALTD
 70
     2
  9
$DIMALTF
 40
25.4
  9
$DIMLFAC
 40
1.0
  9
$DIMTOFL
 70
     0
  9
$DIMTVP
 40
0.0
  9
$DIMTIX
 70
     0
  9
$DIMSOXD
 70
     0
  9
$DIMSAH
 70
     0
  9
$DIMBLK1
  1

  9
$DIMBLK2
  1

  9
$DIMSTYLE
  2
STANDARD
  9
$DIMCLRD
 70
     0
  9
$DIMCLRE
 70
     0
  9
$DIMCLRT
 70
     0
  9
$DIMTFAC
 40
1.0
  9
$DIMGAP
 40
0.09
  9
$DIMJUST
 70
     0
  9
$DIMSD1
 70
     0
  9
$DIMSD2
 70
     0
  9
$DIMTOLJ
 70
     1
  9
$DIMTZIN
 70
     0
  9
$DIMALTZ
 70
     0
  9
$DIMALTTZ
 70
     0
  9
$DIMUPT
 70
     0
  9
$DIMDEC
 70
     4
  9
$DIMTDEC
 70
     4
  9
$DIMALTU
 70
     2
  9
$DIMALTTD
 70
     2
  9
$DIMTXSTY
  7
STANDARD
  9
$DIMAUNIT
 70
     0
  9
$DIMADEC
 70
     0
  9
$DIMALTRND
 40
0.0
  9
$DIMAZIN
 70
     0
  9
$DIMDSEP
 70
    46
  9
$DIMATFIT
 70
     3
  9
$DIMFRAC
 70
     0
  9
$DIMLDRBLK
  1

  9
$DIMLUNIT
 70
     2
  9
$DIMLWD
 70
    -2
  9
$DIMLWE
 70
    -2
  9
$DIMTMOVE
 70
     0
  9
$LUNITS
 70
     2
  9
$LUPREC
 70
     2
  9
$SKETCHINC
 40
0.1
  9
$FILLETRAD
 40
0.0
  9
$AUNITS
 70
     0
  9
$AUPREC
 70
     0
  9
$MENU
  1
.
  9
$ELEVATION
 40
0.0
  9
$PELEVATION
 40
0.0
  9
$THICKNESS
 40
0.0
  9
$LIMCHECK
 70
     0
  9
$CHAMFERA
 40
0.0
  9
$CHAMFERB
 40
0.0
  9
$CHAMFERC
 40
0.0
  9
$CHAMFERD
 40
0.0
  9
$SKPOLY
 70
     0
  9
$TDCREATE
 40
2456324.614182535
  9
$TDUCREATE
 40
2456324.572515868
  9
$TDUPDATE
 40
2456324.616793113
  9
$TDUUPDATE
 40
2456324.575126447
  9
$TDINDWG
 40
0.0026109375
  9
$TDUSRTIMER
 40
0.0026109375
  9
$USRTIMER
 70
     1
  9
$ANGBASE
 50
0.0
  9
$ANGDIR
 70
     0
  9
$PDMODE
 70
     3
  9
$PDSIZE
 40
0.3125
  9
$PLINEWID
 40
0.0
  9
$SPLFRAME
 70
     0
  9
$SPLINETYPE
 70
     6
  9
$SPLINESEGS
 70
     8
  9
$HANDSEED
  5
5B6
  9
$SURFTAB1
 70
     6
  9
$SURFTAB2
 70
     6
  9
$SURFTYPE
 70
     6
  9
$SURFU
 70
     6
  9
$SURFV
 70
     6
  9
$UCSBASE
  2

  9
$UCSNAME
  2

  9
$UCSORG
 10
0.0
 20
0.0
 30
0.0
  9
$UCSXDIR
 10
1.0
 20
0.0
 30
0.0
  9
$UCSYDIR
 10
0.0
 20
1.0
 30
0.0
  9
$UCSORTHOREF
  2

  9
$UCSORTHOVIEW
 70
     0
  9
$UCSORGTOP
 10
0.0
 20
0.0
 30
0.0
  9
$UCSORGBOTTOM
 10
0.0
 20
0.0
 30
0.0
  9
$UCSORGLEFT
 10
0.0
 20
0.0
 30
0.0
  9
$UCSORGRIGHT
 10
0.0
 20
0.0
 30
0.0
  9
$UCSORGFRONT
 10
0.0
 20
0.0
 30
0.0
  9
$UCSORGBACK
 10
0.0
 20
0.0
 30
0.0
  9
$PUCSBASE
  2

  9
$PUCSNAME
  2

  9
$PUCSORG
 10
0.0
 20
0.0
 30
0.0
  9
$PUCSXDIR
 10
1.0
 20
0.0
 30
0.0
  9
$PUCSYDIR
 10
0.0
 20
1.0
 30
0.0
  9
$PUCSORTHOREF
  2

  9
$PUCSORTHOVIEW
 70
     0
  9
$PUCSORGTOP
 10
0.0
 20
0.0
 30
0.0
  9
$PUCSORGBOTTOM
 10
0.0
 20
0.0
 30
0.0
  9
$PUCSORGLEFT
 10
0.0
 20
0.0
 30
0.0
  9
$PUCSORGRIGHT
 10
0.0
 20
0.0
 30
0.0
  9
$PUCSORGFRONT
 10
0.0
 20
0.0
 30
0.0
  9
$PUCSORGBACK
 10
0.0
 20
0.0
 30
0.0
  9
$USERI1
 70
     0
  9
$USERI2
 70
     0
  9
$USERI3
 70
     0
  9
$USERI4
 70
     0
  9
$USERI5
 70
     0
  9
$USERR1
 40
0.0
  9
$USERR2
 40
0.0
  9
$USERR3
 40
0.0
  9
$USERR4
 40
0.0
  9
$USERR5
 40
0.0
  9
$WORLDVIEW
 70
     1
  9
$SHADEDGE
 70
     3
  9
$SHADEDIF
 70
    70
  9
$TILEMODE
 70
     1
  9
$MAXACTVP
 70
    64
  9
$PINSBASE
 10
0.0
 20
0.0
 30
0.0
  9
$PLIMCHECK
 70
     0
  9
$PEXTMIN
 10
1.000000000000000E+20
 20
1.000000000000000E+20
 30
1.000000000000000E+20
  9
$PEXTMAX
 10
-1.000000000000000E+20
 20
-1.000000000000000E+20
 30
-1.000000000000000E+20
  9
$PLIMMIN
 10
0.0
 20
0.0
  9
$PLIMMAX
 10
12.0
 20
9.0
  9
$UNITMODE
 70
     0
  9
$VISRETAIN
 70
     1
  9
$PLINEGEN
 70
     0
  9
$PSLTSCALE
 70
     1
  9
$TREEDEPTH
 70
  3020
  9
$CMLSTYLE
  2
Standard
  9
$CMLJUST
 70
     0
  9
$CMLSCALE
 40
1.0
  9
$PROXYGRAPHICS
 70
     1
  9
$MEASUREMENT
 70
     1
  9
$CELWEIGHT
370
    -1
  9
$ENDCAPS
280
     0
  9
$JOINSTYLE
280
     0
  9
$LWDISPLAY
290
     0
  9
$INSUNITS
 70
     4
  9
$HYPERLINKBASE
  1

  9
$STYLESHEET
  1

  9
$XEDIT
290
     1
  9
$CEPSNTYPE
380
     0
  9
$PSTYLEMODE
290
     1
  9
$FINGERPRINTGUID
  2
{2771FD83-DD88-48C1-83A1-972B74ACA23C}
  9
$VERSIONGUID
  2
{731F7CA5-D84E-4320-9ED3-A334E95BD2E9}
  9
$EXTNAMES
290
     1
  9
$PSVPSCALE
 40
0.0
  9
$OLESTARTUP
290
     0
  0
ENDSEC
  0
SECTION
  2
CLASSES
  0
CLASS
  1
ACDBDICTIONARYWDFLT
  2
AcDbDictionaryWithDefault
  3
ObjectDBX Classes
 90
        0
280
     0
281
     0
  0
CLASS
  1
ACDBPLACEHOLDER
  2
AcDbPlaceHolder
  3
ObjectDBX Classes
 90
        0
280
     0
281
     0
  0
CLASS
  1
LAYOUT
  2
AcDbLayout
  3
ObjectDBX Classes
 90
        0
280
     0
281
     0
  0
CLASS
  1
MATERIAL
  2
AcDbMaterial
  3
ObjectDBX Classes
 90
     1153
280
     0
281
     0
  0
CLASS
  1
VISUALSTYLE
  2
AcDbVisualStyle
  3
ObjectDBX Classes
 90
     4095
280
     0
281
     0
  0
CLASS
  1
TABLESTYLE
  2
AcDbTableStyle
  3
ObjectDBX Classes
 90
     4095
280
     0
281
     0
  0
CLASS
  1
SCALE
  2
AcDbScale
  3
ObjectDBX Classes
 90
     1153
280
     0
281
     0
  0
CLASS
  1
MLEADERSTYLE
  2
AcDbMLeaderStyle
  3
ACDB_MLEADERSTYLE_CLASS
 90
     4095
280
     0
281
     0
  0
CLASS
  1
AMGSETTINGSOBJ
  2
AmgSettingsObj
  3
"AcadM|Product Description: AutoCAD Mechanical|Company: Autodesk, Inc."
 90
     1024
280
     0
281
     0
  0
CLASS
  1
ACME_DOCUMENT
  2
AcMeDbDoc
  3
AcMeServices
 90
     1024
280
     0
281
     0
  0
CLASS
  1
ACMESCOPE
  2
AcMeScope
  3
AcMeServices
 90
     1024
280
     0
281
     0
  0
CLASS
  1
ACMECOMMANDHISTORY
  2
AcMeCommandHistory
  3
AcMeServices
 90
     1024
280
     0
281
     0
  0
CLASS
  1
ACIMSYSVARMAN
  2
AcImSysVarManager
  3
AcMeServices
 90
     1024
280
     0
281
     0
  0
CLASS
  1
ACIMINTSYSVAR
  2
AcImIntSysVar
  3
AcMeServices
 90
     1024
280
     0
281
     0
  0
CLASS
  1
ACMEDRAWINGMAN
  2
AcMeDrawingMan
  3
AcMeServices
 90
     1024
280
     0
281
     0
  0
CLASS
  1
ACMEVIEW
  2
AcMeView
  3
AcMeServices
 90
     1024
280
     0
281
     0
  0
CLASS
  1
ACDBENTITYCACHE
  2
AcMeEntityCache
  3
AcMeServices
 90
     1024
280
     0
281
     0
  0
CLASS
  1
ACMESTATEMGR
  2
AcMeStateMgr
  3
AcMeServices
 90
     1024
280
     0
281
     0
  0
CLASS
  1
ACGREFMASTER
  2
AcGrefMaster
  3
AcAttribServices
 90
     1024
280
     0
281
     0
  0
CLASS
  1
AM_DRAWING_MGR
  2
AcDmDwgMgr
  3
AcMechDwgViewMgmt
 90
     1024
280
     0
281
     0
  0
CLASS
  1
AM_DWG_DOCUMENT
  2
AcDmDwgDocument
  3
AcMechDwgViewMgmt
 90
     1024
280
     0
281
     0
  0
CLASS
  1
AM_DWG_SHEET
  2
AcDmSheet
  3
AcMechDwgViewMgmt
 90
     1024
280
     0
281
     0
  0
CLASS
  1
AM_VIEWDIMPARMAP
  2
AcDmViewDimParMap
  3
AcMechDwgViewMgmt
 90
     1024
280
     0
281
     0
  0
CLASS
  1
AMDTINTERNALREACTOR
  2
AmdtInternalReactor
  3
AcMeServices
 90
     1024
280
     0
281
     0
  0
CLASS
  1
ACIMREALSYSVAR
  2
AcImRealSysVar
  3
AcMeServices
 90
     1024
280
     0
281
     0
  0
CLASS
  1
AM_DWGMGR_NAME
  2
AcDmDwgMgrName
  3
AcMechDwgViewMgmt
 90
     1024
280
     0
281
     0
  0
CLASS
  1
ACME_DATABASE
  2
AcMeDbDatabase
  3
AcMeServices
 90
     1024
280
     0
281
     0
  0
CLASS
  1
ACRFINSADJUSTERMGR
  2
AcRfInsAdjusterMgr
  3
AcMeServices
 90
     1024
280
     0
281
     0
  0
CLASS
  1
ACGREFACADMASTER
  2
AcGrefacadMaster
  3
AcGrefServices
 90
     1024
280
     0
281
     0
  0
CLASS
  1
AMDTMENUSTATEMGR
  2
AmdtMenuStateMgr
  3
McadcomServices
 90
     1024
280
     0
281
     0
  0
CLASS
  1
AMDTMCOMMENUSTATE
  2
AmdtMcomMenuState
  3
McadcomServices
 90
     1024
280
     0
281
     0
  0
CLASS
  1
AMIMASTER
  2
AmiMaster
  3
AmiServices
 90
     1024
280
     0
281
     0
  0
CLASS
  1
MAPIAMMOUDLE
  2
MApiAmModule
  3
MApiAmServices
 90
     1024
280
     0
281
     0
  0
CLASS
  1
ACIMSTRSYSVAR
  2
AcImStrSysVar
  3
AcMeServices
 90
     1024
280
     0
281
     0
  0
CLASS
  1
AMDTADMENUSTATE
  2
AmdtAdMenuState
  3
DesignerServices
 90
     1024
280
     0
281
     0
  0
CLASS
  1
ADAPPL
  2
AcAdAppl
  3
DesignerServices
 90
     1024
280
     0
281
     0
  0
CLASS
  1
DEPMGR
  2
AcAdDepMgr
  3
DesignerServices
 90
     1024
280
     0
281
     0
  0
CLASS
  1
PARAMMGR
  2
AcAdParamMgr
  3
DesignerServices
 90
     1024
280
     0
281
     0
  0
CLASS
  1
PARAMSCOPE
  2
AcAdParamScope
  3
DesignerServices
 90
     1024
280
     0
281
     0
  0
CLASS
  1
NAMEDAPPL
  2
AcAdNamedAppl
  3
DesignerServices
 90
     1024
280
     0
281
     0
  0
CLASS
  1
AMDTDMMENUSTATE
  2
AmdtDmMenuState
  3
AcMechDwgViewMgmt
 90
     1024
280
     0
281
     0
  0
CLASS
  1
AMDTAMMENUSTATE
  2
AmdtAmMenuState
  3
DesignerAssemblies
 90
     1024
280
     0
281
     0
  0
CLASS
  1
ACAMPROJECT
  2
AcAmProject
  3
DesignerAssemblies
 90
     1024
280
     0
281
     0
  0
CLASS
  1
ACAMGRCOMPDEF
  2
AcAmGrCompDef
  3
DesignerAssemblies
 90
     1024
280
     0
281
     0
  0
CLASS
  1
ACAMCOMPDEF
  2
AcAmCompDef
  3
DesignerAssemblies
 90
     1024
280
     0
281
     0
  0
CLASS
  1
ACAMCOMPDEFMGR
  2
AcAmCompDefMgr
  3
DesignerAssemblies
 90
     1024
280
     0
281
     0
  0
CLASS
  1
AMCONTEXTMGR
  2
AcAmContextMgr
  3
DesignerAssemblies
 90
     1024
280
     0
281
     0
  0
CLASS
  1
ACAMCONTEXTMODELER
  2
AcAmContextModeler
  3
DesignerAssemblies
 90
     1024
280
     0
281
     0
  0
CLASS
  1
ACMDATADICTIONARY
  2
AcmDataDictionary
  3
"AcmSymBB|Product Description: AutoCAD Mechanical|Company: Autodesk, Inc."
 90
     1024
280
     0
281
     0
  0
CLASS
  1
CATALOGSTATE
  2
AcAmCatalogState
  3
DesignerAssemblies
 90
     1024
280
     0
281
     0
  0
CLASS
  1
ACAMGRCOMPDEFSET
  2
AcAmGrCompDefSet
  3
DesignerAssemblies
 90
     1024
280
     0
281
     0
  0
CLASS
  1
AMDTBROWSERDBTAB
  2
AmdtBrowserDbTab
  3
McadcomServices
 90
     1024
280
     0
281
     0
  0
CLASS
  1
CBROWSERAPPOBJECT
  2
CBrowserAppObject
  3
McadcomServices
 90
     1024
280
     0
281
     0
  0
CLASS
  1
DM_PLACEHOLDER
  2
AcDmSelsetPlaceholder
  3
AcMechDwgViewMgmt
 90
     1024
280
     0
281
     0
  0
CLASS
  1
ACMSTANDARDDIN
  2
AcmStandardDIN
  3
"Amdt_StdImp|Product Description: AutoCAD Mechanical|Company: Autodesk, Inc."
 90
     1024
280
     0
281
     0
  0
CLASS
  1
AMDTEDGESTANDARDDIN13715
  2
AmdtEdgeStdDIN13715
  3
"Amdt_StdImp|Product Description: AutoCAD Mechanical|Company: Autodesk, Inc."
 90
     1024
280
     0
281
     0
  0
CLASS
  1
ACMSURFSTANDARDDIN2002
  2
AcmSurfTextStdDIN2002
  3
"Amdt_StdImp|Product Description: AutoCAD Mechanical|Company: Autodesk, Inc."
 90
     1024
280
     0
281
     0
  0
CLASS
  1
ACMFCFSTANDARDDIN
  2
AcmFCFStdDIN
  3
"Amdt_StdImp|Product Description: AutoCAD Mechanical|Company: Autodesk, Inc."
 90
     1024
280
     0
281
     0
  0
CLASS
  1
ACMWELDSTANDARDDIN
  2
AcmWeldingStdDIN
  3
"Amdt_StdImp|Product Description: AutoCAD Mechanical|Company: Autodesk, Inc."
 90
     1024
280
     0
281
     0
  0
CLASS
  1
ACMIDSTANDARDDIN
  2
AcmIdStdDIN
  3
"Amdt_StdImp|Product Description: AutoCAD Mechanical|Company: Autodesk, Inc."
 90
     1024
280
     0
281
     0
  0
CLASS
  1
ACMDATUMSTANDARDDIN
  2
AcmDatumStdDIN
  3
"Amdt_StdImp|Product Description: AutoCAD Mechanical|Company: Autodesk, Inc."
 90
     1024
280
     0
281
     0
  0
CLASS
  1
ACMBOMSTANDARDDIN
  2
AcmBOMStdDIN
  3
"Amdt_StdImp|Product Description: AutoCAD Mechanical|Company: Autodesk, Inc."
 90
     1024
280
     0
281
     0
  0
CLASS
  1
ACMDETAILSTANDARDDIN
  2
AmdtDetailSymStdDIN
  3
"Amdt_StdImp|Product Description: AutoCAD Mechanical|Company: Autodesk, Inc."
 90
     1024
280
     0
281
     0
  0
CLASS
  1
ACMSECTIONSTANDARDDIN
  2
AmdtSectionSymStdDIN
  3
"Amdt_StdImp|Product Description: AutoCAD Mechanical|Company: Autodesk, Inc."
 90
     1024
280
     0
281
     0
  0
CLASS
  1
ACMCENTERLINESTANDARDDIN
  2
AmdtCenterLineStdDIN
  3
"Amdt_StdImp|Product Description: AutoCAD Mechanical|Company: Autodesk, Inc."
 90
     1024
280
     0
281
     0
  0
CLASS
  1
ACMTHREADLINESTANDARDDIN
  2
AmdtThreadLineStdDIN
  3
"Amdt_StdImp|Product Description: AutoCAD Mechanical|Company: Autodesk, Inc."
 90
     1024
280
     0
281
     0
  0
CLASS
  1
ACMNOTESTANDARDDIN
  2
AmdtNoteStdDIN
  3
"Amdt_StdImp|Product Description: AutoCAD Mechanical|Company: Autodesk, Inc."
 90
     1024
280
     0
281
     0
  0
CLASS
  1
ACMTAPERSTANDARDDIN
  2
AcmTaperStdDIN
  3
"Amdt_StdImp|Product Description: AutoCAD Mechanical|Company: Autodesk, Inc."
 90
     1024
280
     0
281
     0
  0
CLASS
  1
ACMANOOTATIONVIEWSTANDARDDIN
  2
AmdtAnViewStdDIN
  3
"Amdt_StdImp|Product Description: AutoCAD Mechanical|Company: Autodesk, Inc."
 90
     1024
280
     0
281
     0
  0
CLASS
  1
ACAMGLAYSTD
  2
AcAmgLayStd
  3
"AmgLay|Product Description: AutoCAD Mechanical|Company: Autodesk, Inc."
 90
     1024
280
     0
281
     0
  0
CLASS
  1
ACAMGDIMSTD
  2
AcAmgDimStd
  3
"AmgDim|Product Description: AutoCAD Mechanical|Company: Autodesk, Inc."
 90
     1024
280
     0
281
     0
  0
CLASS
  1
AMGOBJPROPCFG
  2
AmgObjPropCfg
  3
"AmgLay|Product Description: AutoCAD Mechanical|Company: Autodesk, Inc."
 90
     1025
280
     0
281
     0
  0
CLASS
  1
ACAMGHOLECHARTSTDDIN
  2
AcAmgHoleChartStdDIN
  3
AmgDim|Product Description: AutoCAD Mechanical|Company: Autodesk, Inc.
 90
     1024
280
     0
281
     0
  0
CLASS
  1
ACAMGTITLESTD
  2
AcAmgTitleStd
  3
"AmgTitle|Product Description: AutoCAD Mechanical|Company: Autodesk, Inc."
 90
     4095
280
     0
281
     0
  0
CLASS
  1
AMDTNOTETEMPLATEDB
  2
AmdtNoteTemplateDB
  3
AcmSymBB|Product Description: AutoCAD Mechanical|Company: Autodesk, Inc.
 90
     1024
280
     0
281
     0
  0
CLASS
  1
ACAMGFILTERDAT
  2
AcAmgFilterDat
  3
"AcadM|Product Description: AutoCAD Mechanical|Company: Autodesk, Inc."
 90
     1024
280
     0
281
     0
  0
CLASS
  1
DICTIONARYVAR
  2
AcDbDictionaryVar
  3
ObjectDBX Classes
 90
        0
280
     0
281
     0
  0
CLASS
  1
CELLSTYLEMAP
  2
AcDbCellStyleMap
  3
ObjectDBX Classes
 90
     1152
280
     0
281
     0
  0
ENDSEC
  0
SECTION
  2
TABLES
  0
TABLE
  2
VPORT
  5
8
330
0
100
AcDbSymbolTable
 70
     1
  0
VPORT
  5
1F4
330
8
100
AcDbSymbolTableRecord
100
AcDbViewportTableRecord
  2
*ACTIVE
 70
     0
 10
0.0
 20
0.0
 11
1.0
 21
1.0
 12
200.9957895416252
 22
161.8010108388274
 13
0.0
 23
0.0
 14
1.0
 24
1.0
 15
0.0
 25
0.0
 16
0.0
 26
0.0
 36
1.0
 17
0.0
 27
0.0
 37
0.0
 40
253.797791229458
 41
1.850235849056603
 42
50.0
 43
0.0
 44
0.0
 50
0.0
 51
0.0
 71
     0
 72
   100
 73
     1
 74
     1
 75
     0
 76
     0
 77
     0
 78
     0
281
     0
 65
     0
110
0.0
120
0.0
130
0.0
111
1.0
121
0.0
131
0.0
112
0.0
122
1.0
132
0.0
 79
     0
146
0.0
  0
ENDTAB
  0
TABLE
  2
LTYPE
  5
5
330
0
100
AcDbSymbolTable
 70
    23
  0
LTYPE
  5
14
330
5
100
AcDbSymbolTableRecord
100
AcDbLinetypeTableRecord
  2
BYBLOCK
 70
     0
  3

 72
    65
 73
     0
 40
0.0
  0
LTYPE
  5
15
330
5
100
AcDbSymbolTableRecord
100
AcDbLinetypeTableRecord
  2
BYLAYER
 70
     0
  3

 72
    65
 73
     0
 40
0.0
  0
LTYPE
  5
16
330
5
100
AcDbSymbolTableRecord
100
AcDbLinetypeTableRecord
  2
CONTINUOUS
 70
     0
  3
Solid line
 72
    65
 73
     0
 40
0.0
  0
LTYPE
  5
1F5
330
5
100
AcDbSymbolTableRecord
100
AcDbLinetypeTableRecord
  2
CENTER
 70
     0
  3
____ _ ____ _ ____ _ ____ _ ____ _ ____ _ ____
 72
    65
 73
     4
 40
0.6
 49
0.375
 74
     0
 49
-0.075
 74
     0
 49
0.075
 74
     0
 49
-0.075
 74
     0
  0
LTYPE
  5
1F6
330
5
100
AcDbSymbolTableRecord
100
AcDbLinetypeTableRecord
  2
HIDDEN
 70
     0
  3
- - - - - - - - - - - - - - - - - - - -
 72
    65
 73
     2
 40
0.2
 49
0.1
 74
     0
 49
-0.1
 74
     0
  0
LTYPE
  5
1F7
330
5
100
AcDbSymbolTableRecord
100
AcDbLinetypeTableRecord
  2
PHANTOM
 70
     0
  3
_____ _ _ _____ _ _ _____ _ _ _____
 72
    65
 73
     6
 40
0.8
 49
0.45
 74
     0
 49
-0.05
 74
     0
 49
0.1
 74
     0
 49
-0.05
 74
     0
 49
0.1
 74
     0
 49
-0.05
 74
     0
  0
LTYPE
  5
1F8
330
5
100
AcDbSymbolTableRecord
100
AcDbLinetypeTableRecord
  2
DOT
 70
     0
  3
. . . . . . . . . . . . . . . . . . . .
 72
    65
 73
     2
 40
0.2
 49
0.1
 74
     0
 49
-0.1
 74
     0
  0
LTYPE
  5
1F9
330
5
100
AcDbSymbolTableRecord
100
AcDbLinetypeTableRecord
  2
DASHED
 70
     0
  3
- - - - - - - - - - - - - - - - - - - -
 72
    65
 73
     2
 40
0.2
 49
0.1
 74
     0
 49
-0.1
 74
     0
  0
LTYPE
  5
486
330
5
100
AcDbSymbolTableRecord
100
AcDbLinetypeTableRecord
  2
PHANTOM2
 70
     0
  3
Phantom (.5x) ___ _ _ ___ _ _ ___ _ _ ___ _ _
 72
    65
 73
     6
 40
31.75
 49
15.875
 74
     0
 49
-3.174999999999999
 74
     0
 49
3.174999999999999
 74
     0
 49
-3.174999999999999
 74
     0
 49
3.174999999999999
 74
     0
 49
-3.174999999999999
 74
     0
  0
LTYPE
  5
4CC
330
5
100
AcDbSymbolTableRecord
100
AcDbLinetypeTableRecord
  2
AM_ISO02W050
 70
     0
  3
__ __ __ __ __ __ __ __ __ __ __ __ __ __ __
 72
    65
 73
     2
 40
7.5
 49
6.0
 74
     0
 49
-1.5
 74
     0
  0
LTYPE
  5
4CD
330
5
100
AcDbSymbolTableRecord
100
AcDbLinetypeTableRecord
  2
AM_ISO08W050
 70
     0
  3
____ . ____ . ____ . ____ . ____ . ____ . ____
 72
    65
 73
     4
 40
18.0
 49
12.0
 74
     0
 49
-1.5
 74
     0
 49
3.0
 74
     0
 49
-1.5
 74
     0
  0
LTYPE
  5
4CE
330
5
100
AcDbSymbolTableRecord
100
AcDbLinetypeTableRecord
  2
AM_ISO09W050
 70
     0
  3
_____ . . _____ . . _____ . . ____ .. ____
 72
    65
 73
     6
 40
22.5
 49
12.0
 74
     0
 49
-1.5
 74
     0
 49
3.0
 74
     0
 49
-1.5
 74
     0
 49
3.0
 74
     0
 49
-1.5
 74
     0
  0
LTYPE
  5
4CF
330
5
100
AcDbSymbolTableRecord
100
AcDbLinetypeTableRecord
  2
Amconstr
 70
     0
  3
_______________________
 72
    65
 73
     2
 40
9999.0
 49
9999.0
 74
     0
 49
0.0
 74
     0
  0
LTYPE
  5
4D0
330
5
100
AcDbSymbolTableRecord
100
AcDbLinetypeTableRecord
  2
AM_ISO08W050x2
 70
     0
  3
__ . __ . __ . __ . __ . __
 72
    65
 73
     4
 40
9.0
 49
6.0
 74
     0
 49
-0.75
 74
     0
 49
1.5
 74
     0
 49
-0.75
 74
     0
  0
LTYPE
  5
4D1
330
5
100
AcDbSymbolTableRecord
100
AcDbLinetypeTableRecord
  2
AM_ISO02W050x2
 70
     0
  3
 _ _ _ _ _ _ _ _ _ _ _ _
 72
    65
 73
     2
 40
3.75
 49
3.0
 74
     0
 49
-0.75
 74
     0
  0
LTYPE
  5
4D4
330
5
100
AcDbSymbolTableRecord
100
AcDbLinetypeTableRecord
  2
Amzigzag
 70
     0
  3
/\/-/\/-/\/-/\/-/\/-/\/
 72
    65
 73
     2
 40
11.0001
 49
0.0001
 74
     4
 75
   136
340
4D3
 46
0.04
 50
0.0
 44
0.0
 45
0.0
 49
-11.0
 74
     0
  0
LTYPE
  5
4D5
330
5
100
AcDbSymbolTableRecord
100
AcDbLinetypeTableRecord
  2
AM_DIN_F_W050
 70
     0
  3
__ __ __ __ __ __ __ __ __ __ __ __ __ __ __
 72
    65
 73
     2
 40
6.25
 49
4.75
 74
     0
 49
-1.5
 74
     0
  0
LTYPE
  5
4D6
330
5
100
AcDbSymbolTableRecord
100
AcDbLinetypeTableRecord
  2
AM_DIN_G_W050
 70
     0
  3
____ . ____ . ____ . ____ . ____ . ____ . ____
 72
    65
 73
     4
 40
13.75
 49
9.75
 74
     0
 49
-1.5
 74
     0
 49
1.0
 74
     0
 49
-1.5
 74
     0
  0
LTYPE
  5
4D7
330
5
100
AcDbSymbolTableRecord
100
AcDbLinetypeTableRecord
  2
AM_DIN_K_W050
 70
     0
  3
_____ . . _____ . . _____ . . ____ .. ____
 72
    65
 73
     6
 40
16.25
 49
9.75
 74
     0
 49
-1.5
 74
     0
 49
1.0
 74
     0
 49
-1.5
 74
     0
 49
1.0
 74
     0
 49
-1.5
 74
     0
  0
LTYPE
  5
4D8
330
5
100
AcDbSymbolTableRecord
100
AcDbLinetypeTableRecord
  2
AM_DIN_G_W050x2
 70
     0
  3
__ . __ . __ . __ . __ . __
 72
    65
 73
     4
 40
6.875
 49
4.75
 74
     0
 49
-0.875
 74
     0
 49
0.375
 74
     0
 49
-0.875
 74
     0
  0
LTYPE
  5
4D9
330
5
100
AcDbSymbolTableRecord
100
AcDbLinetypeTableRecord
  2
AM_DIN_F_W050x2
 70
     0
  3
 _ _ _ _ _ _ _ _ _ _ _ _
 72
    65
 73
     2
 40
3.125
 49
2.25
 74
     0
 49
-0.875
 74
     0
  0
LTYPE
  5
4E8
330
5
100
AcDbSymbolTableRecord
100
AcDbLinetypeTableRecord
  2
ACDINWELD
 70
     0
  3
_ _ _ _ _
 72
    65
 73
     2
 40
2.0
 49
2.0
 74
     0
 49
-1.0
 74
     0
  0
LTYPE
  5
4E9
330
5
100
AcDbSymbolTableRecord
100
AcDbLinetypeTableRecord
  2
ACDINTGB
 70
     0
  3
__ . . __ . .
 72
    65
 73
     6
 40
9.0
 49
4.0
 74
     0
 49
-1.0
 74
     0
 49
1.0
 74
     0
 49
-1.0
 74
     0
 49
1.0
 74
     0
 49
-1.0
 74
     0
  0
LTYPE
  5
4EA
330
5
100
AcDbSymbolTableRecord
100
AcDbLinetypeTableRecord
  2
ACDINTGL
 70
     0
  3
_ _ _ _ _
 72
    65
 73
     2
 40
3.0
 49
2.0
 74
     0
 49
-1.0
 74
     0
  0
ENDTAB
  0
TABLE
  2
LAYER
  5
2
330
0
100
AcDbSymbolTable
 70
    23
  0
LAYER
  5
10
330
2
100
AcDbSymbolTableRecord
100
AcDbLayerTableRecord
  2
0
 70
     0
 62
     7
  6
CONTINUOUS
370
    -3
390
F
  0
LAYER
  5
1FA
330
2
100
AcDbSymbolTableRecord
100
AcDbLayerTableRecord
  2
DEFAULT_1
 70
     0
 62
     7
  6
CENTER
370
    -3
390
F
  0
LAYER
  5
1FB
330
2
100
AcDbSymbolTableRecord
100
AcDbLayerTableRecord
  2
DEFAULT_2
 70
     0
 62
     8
  6
HIDDEN
370
    -3
390
F
  0
LAYER
  5
1FC
330
2
100
AcDbSymbolTableRecord
100
AcDbLayerTableRecord
  2
DEFAULT_3
 70
     0
 62
     7
  6
PHANTOM
370
    -3
390
F
  0
LAYER
  5
1FD
330
2
100
AcDbSymbolTableRecord
100
AcDbLayerTableRecord
  2
3D_TEIL_NOTIZ
 70
     0
 62
     7
  6
CONTINUOUS
370
    -3
390
F
  0
LAYER
  5
1FE
330
2
100
AcDbSymbolTableRecord
100
AcDbLayerTableRecord
  2
ACHSEN
 70
     0
 62
     7
  6
CONTINUOUS
370
    -3
390
F
  0
LAYER
  5
1FF
330
2
100
AcDbSymbolTableRecord
100
AcDbLayerTableRecord
  2
AUSFORMSCHRAEGEN
 70
     0
 62
     7
  6
CONTINUOUS
370
    -3
390
F
  0
LAYER
  5
200
330
2
100
AcDbSymbolTableRecord
100
AcDbLayerTableRecord
  2
BEZUG
 70
     0
 62
     7
  6
CONTINUOUS
370
    -3
390
F
  0
LAYER
  5
201
330
2
100
AcDbSymbolTableRecord
100
AcDbLayerTableRecord
  2
BEZUGSACHSEN
 70
     0
 62
     7
  6
CONTINUOUS
370
    -3
390
F
  0
LAYER
  5
202
330
2
100
AcDbSymbolTableRecord
100
AcDbLayerTableRecord
  2
BEZUGSEBENEN
 70
     0
 62
     7
  6
CONTINUOUS
370
    -3
390
F
  0
LAYER
  5
203
330
2
100
AcDbSymbolTableRecord
100
AcDbLayerTableRecord
  2
BG_STARTBEZUEGE
 70
     0
 62
     7
  6
CONTINUOUS
370
    -3
390
F
  0
LAYER
  5
204
330
2
100
AcDbSymbolTableRecord
100
AcDbLayerTableRecord
  2
BOHRUNGEN
 70
     0
 62
     7
  6
CONTINUOUS
370
    -3
390
F
  0
LAYER
  5
205
330
2
100
AcDbSymbolTableRecord
100
AcDbLayerTableRecord
  2
DATUMS
 70
     0
 62
     7
  6
CONTINUOUS
370
    -3
390
F
  0
LAYER
  5
206
330
2
100
AcDbSymbolTableRecord
100
AcDbLayerTableRecord
  2
DETAILS
 70
     0
 62
     7
  6
CONTINUOUS
370
    -3
390
F
  0
LAYER
  5
207
330
2
100
AcDbSymbolTableRecord
100
AcDbLayerTableRecord
  2
FASEN
 70
     0
 62
     7
  6
CONTINUOUS
370
    -3
390
F
  0
LAYER
  5
208
330
2
100
AcDbSymbolTableRecord
100
AcDbLayerTableRecord
  2
GEWINDE
 70
     0
 62
     7
  6
CONTINUOUS
370
    -3
390
F
  0
LAYER
  5
209
330
2
100
AcDbSymbolTableRecord
100
AcDbLayerTableRecord
  2
HILFEN
 70
     0
 62
     7
  6
CONTINUOUS
370
    -3
390
F
  0
LAYER
  5
20A
330
2
100
AcDbSymbolTableRecord
100
AcDbLayerTableRecord
  2
PLATZIERUNG
 70
     0
 62
     7
  6
CONTINUOUS
370
    -3
390
F
  0
LAYER
  5
20B
330
2
100
AcDbSymbolTableRecord
100
AcDbLayerTableRecord
  2
PLAZIERUNG
 70
     0
 62
     7
  6
CONTINUOUS
370
    -3
390
F
  0
LAYER
  5
20C
330
2
100
AcDbSymbolTableRecord
100
AcDbLayerTableRecord
  2
RUNDUNGEN
 70
     0
 62
     7
  6
CONTINUOUS
370
    -3
390
F
  0
LAYER
  5
20D
330
2
100
AcDbSymbolTableRecord
100
AcDbLayerTableRecord
  2
TEIL_STARTBEZUEGE
 70
     0
 62
     7
  6
CONTINUOUS
370
    -3
390
F
  0
LAYER
  5
20E
330
2
100
AcDbSymbolTableRecord
100
AcDbLayerTableRecord
  2
ZEICHNUNGSBEMASSUNGEN
 70
     0
 62
     7
  6
CONTINUOUS
370
    -3
390
F
  0
LAYER
  5
4FB
330
2
100
AcDbSymbolTableRecord
100
AcDbLayerTableRecord
  2
Defpoints
 70
     0
 62
     7
  6
CONTINUOUS
290
     0
370
    -3
390
F
  0
ENDTAB
  0
TABLE
  2
STYLE
  5
3
330
0
100
AcDbSymbolTable
 70
     6
  0
STYLE
  5
11
330
3
100
AcDbSymbolTableRecord
100
AcDbTextStyleTableRecord
  2
STANDARD
 70
     0
 40
0.0
 41
0.7
 50
0.0
 71
     0
 42
0.2
  3
txt
  4

  0
STYLE
  5
20F
330
3
100
AcDbSymbolTableRecord
100
AcDbTextStyleTableRecord
  2
TEXTSTYLE_1
 70
     0
 40
0.0
 41
0.8
 50
0.0
 71
     0
 42
0.2
  3
gdt
  4

  0
STYLE
  5
210
330
3
100
AcDbSymbolTableRecord
100
AcDbTextStyleTableRecord
  2
TEXTSTYLE_2
 70
     0
 40
0.0
 41
0.7
 50
0.0
 71
     0
 42
0.2
  3
gdt
  4

  0
STYLE
  5
4D3
330
3
100
AcDbSymbolTableRecord
100
AcDbTextStyleTableRecord
  2

 70
     1
 40
0.0
 41
1.0
 50
0.0
 71
     0
 42
0.2
  3
genltshp.shx
  4

  0
STYLE
  5
4E6
330
3
100
AcDbSymbolTableRecord
100
AcDbTextStyleTableRecord
  2
ACDINTS
 70
     0
 40
1.0
 41
1.0
 50
0.0
 71
     0
 42
0.2
  3
isocp.shx
  4

  0
STYLE
  5
4E7
330
3
100
AcDbSymbolTableRecord
100
AcDbTextStyleTableRecord
  2
ACDINGDT
 70
     0
 40
0.0
 41
1.0
 50
0.0
 71
     0
 42
0.2
  3
amgdt.shx
  4

  0
ENDTAB
  0
TABLE
  2
VIEW
  5
6
330
0
100
AcDbSymbolTable
 70
     0
  0
ENDTAB
  0
TABLE
  2
UCS
  5
7
330
0
100
AcDbSymbolTable
 70
     0
  0
ENDTAB
  0
TABLE
  2
APPID
  5
9
330
0
100
AcDbSymbolTable
 70
    21
  0
APPID
  5
211
330
9
100
AcDbSymbolTableRecord
100
AcDbRegAppTableRecord
  2
ACAD
 70
     0
  0
APPID
  5
45B
330
9
100
AcDbSymbolTableRecord
100
AcDbRegAppTableRecord
  2
MCAD_NO_VIS
 70
     0
  0
APPID
  5
45C
330
9
100
AcDbSymbolTableRecord
100
AcDbRegAppTableRecord
  2
ACAD_TEMP_GRAPHIC
 70
     0
  0
APPID
  5
488
330
9
100
AcDbSymbolTableRecord
100
AcDbRegAppTableRecord
  2
AD_DRAW
 70
     0
  0
APPID
  5
48B
330
9
100
AcDbSymbolTableRecord
100
AcDbRegAppTableRecord
  2
ACATTRIBSERVICES
 70
     0
  0
APPID
  5
4AB
330
9
100
AcDbSymbolTableRecord
100
AcDbRegAppTableRecord
  2
DESIGNERASSEMBLIES
 70
     0
  0
APPID
  5
4B1
330
9
100
AcDbSymbolTableRecord
100
AcDbRegAppTableRecord
  2
ACADM_DIM_EDIT
 70
     0
  0
APPID
  5
4B2
330
9
100
AcDbSymbolTableRecord
100
AcDbRegAppTableRecord
  2
AMDT_DM_ADJ
 70
     0
  0
APPID
  5
4C9
330
9
100
AcDbSymbolTableRecord
100
AcDbRegAppTableRecord
  2
ACAD_DSTYLE_DIMJAG
 70
     0
  0
APPID
  5
4CA
330
9
100
AcDbSymbolTableRecord
100
AcDbRegAppTableRecord
  2
ACAD_DSTYLE_DIMBREAK
 70
     0
  0
APPID
  5
4F2
330
9
100
AcDbSymbolTableRecord
100
AcDbRegAppTableRecord
  2
ACAD_EXEMPT_FROM_CAD_STANDARDS
 70
     0
  0
APPID
  5
4FC
330
9
100
AcDbSymbolTableRecord
100
AcDbRegAppTableRecord
  2
AcAecLayerStandard
 70
     0
  0
APPID
  5
4FD
330
9
100
AcDbSymbolTableRecord
100
AcDbRegAppTableRecord
  2
GENIUS_GENODEF_13
 70
     0
  0
APPID
  5
4FE
330
9
100
AcDbSymbolTableRecord
100
AcDbRegAppTableRecord
  2
GENIUS_GENOBJ-N-HTC_13
 70
     0
  0
APPID
  5
4FF
330
9
100
AcDbSymbolTableRecord
100
AcDbRegAppTableRecord
  2
GENIUS_GENHATCH_13
 70
     0
  0
APPID
  5
500
330
9
100
AcDbSymbolTableRecord
100
AcDbRegAppTableRecord
  2
ACAD_MLEADERVER
 70
     0
  0
APPID
  5
501
330
9
100
AcDbSymbolTableRecord
100
AcDbRegAppTableRecord
  2
ACAD_DSTYLE_DIMJOGGED_JOGANGLE_SYMBOL
 70
     0
  0
APPID
  5
502
330
9
100
AcDbSymbolTableRecord
100
AcDbRegAppTableRecord
  2
ACAD_DSTYLE_DIM_LINETYPE
 70
     0
  0
APPID
  5
503
330
9
100
AcDbSymbolTableRecord
100
AcDbRegAppTableRecord
  2
ACAD_DSTYLE_DIM_EXT1_LINETYPE
 70
     0
  0
APPID
  5
504
330
9
100
AcDbSymbolTableRecord
100
AcDbRegAppTableRecord
  2
ACAD_DSTYLE_DIM_EXT2_LINETYPE
 70
     0
  0
APPID
  5
505
330
9
100
AcDbSymbolTableRecord
100
AcDbRegAppTableRecord
  2
ACAD_DSTYLE_DIMINSPECT
 70
     0
  0
ENDTAB
  0
TABLE
  2
DIMSTYLE
  5
A
330
0
100
AcDbSymbolTable
 70
    11
100
AcDbDimStyleTable
 71
     1
340
21B
  0
DIMSTYLE
105
219
330
A
100
AcDbSymbolTableRecord
100
AcDbDimStyleTableRecord
  2
STANDARD
 70
     0
 41
3.5
 47
0.005
 48
0.005
 71
     1
 73
     0
 74
     0
 77
     1
 78
     8
140
3.5
178
     5
271
     3
272
     3
284
     8
340
11
341
214
342
214
343
214
344
214
  0
DIMSTYLE
105
21A
330
A
100
AcDbSymbolTableRecord
100
AcDbDimStyleTableRecord
  2
DIMSTYLE_1
 70
     0
 41
3.5
 47
0.5
 48
0.5
 73
     0
 74
     0
 77
     1
 78
     8
140
3.5
178
     5
271
     3
272
     3
284
     8
340
11
341
214
342
214
343
214
344
214
  0
DIMSTYLE
105
21B
102
{ACAD_REACTORS
330
246
330
245
330
248
330
247
102
}
330
A
100
AcDbSymbolTableRecord
100
AcDbDimStyleTableRecord
  2
DIMSTYLE_2
 70
     0
 41
3.5
 47
0.5
 48
0.5
 73
     0
 74
     0
 77
     1
 78
     8
140
3.5
178
     5
271
     0
272
     0
284
     8
340
11
341
214
342
214
343
214
344
214
  0
DIMSTYLE
105
21C
330
A
100
AcDbSymbolTableRecord
100
AcDbDimStyleTableRecord
  2
DIMSTYLE_3
 70
     0
 41
3.5
 47
0.3
 48
0.3
 73
     0
 74
     0
 77
     1
 78
     8
140
3.5
178
     5
271
     0
272
     0
284
     8
340
11
341
214
342
214
343
214
344
214
  0
DIMSTYLE
105
4C8
102
{ACAD_REACTORS
330
4B7
102
}
330
A
100
AcDbSymbolTableRecord
100
AcDbDimStyleTableRecord
  2
AM_DIN
 70
     0
  4
"
 41
3.5
 42
1.0
 43
10.0
 44
1.0
 47
0.1
 48
0.1
 73
     0
 74
     0
 77
     1
 78
     8
 79
     2
140
3.5
141
0.0
143
0.0393701
146
0.71
147
1.5
172
     1
176
   256
177
   256
178
     2
271
     2
272
     3
274
     4
283
     0
284
     8
340
11
371
    -1
372
    -1
1001
ACAD_DSTYLE_DIMJAG
1070
   388
1040
1.5
1001
ACAD_DSTYLE_DIMBREAK
1070
   391
1040
3.75
1001
ACAD_DSTYLE_DIMJOGGED_JOGANGLE_SYMBOL
1070
   384
1040
1.570796326794896
1001
ACAD_DSTYLE_DIM_LINETYPE
1070
   380
1005
14
1001
ACAD_DSTYLE_DIM_EXT1_LINETYPE
1070
   381
1005
14
1001
ACAD_DSTYLE_DIM_EXT2_LINETYPE
1070
   382
1005
14
  0
DIMSTYLE
105
4DA
330
A
100
AcDbSymbolTableRecord
100
AcDbDimStyleTableRecord
  2
AM_DIN$3
 70
     0
  4
"
 41
3.5
 42
1.0
 43
10.0
 44
1.0
 47
0.1
 48
0.1
 73
     0
 77
     1
 78
     8
 79
     2
140
3.5
141
0.0
143
0.0393701
146
0.71
147
1.5
176
   256
177
   256
178
     2
271
     2
272
     3
274
     4
283
     0
284
     8
288
     1
289
     0
340
11
371
    -1
372
    -1
1001
ACAD_DSTYLE_DIMBREAK
1070
   391
1040
3.75
1001
ACAD_DSTYLE_DIMJAG
1070
   388
1040
1.5
1001
ACAD_DSTYLE_DIMJOGGED_JOGANGLE_SYMBOL
1070
   384
1040
1.570796326794896
1001
ACAD_DSTYLE_DIM_LINETYPE
1070
   380
1005
14
1001
ACAD_DSTYLE_DIM_EXT1_LINETYPE
1070
   381
1005
14
1001
ACAD_DSTYLE_DIM_EXT2_LINETYPE
1070
   382
1005
14
  0
DIMSTYLE
105
4DB
330
A
100
AcDbSymbolTableRecord
100
AcDbDimStyleTableRecord
  2
AM_DIN$4
 70
     0
  4
"
 41
3.5
 42
1.0
 43
10.0
 44
1.0
 47
0.1
 48
0.1
 73
     0
 77
     1
 78
     8
 79
     2
140
3.5
141
0.0
143
0.0393701
146
0.71
147
1.5
176
   256
177
   256
178
     2
271
     2
272
     3
274
     4
283
     0
284
     8
288
     1
289
     0
340
11
371
    -1
372
    -1
1001
ACAD_DSTYLE_DIMBREAK
1070
   391
1040
3.75
1001
ACAD_DSTYLE_DIMJAG
1070
   388
1040
1.5
1001
ACAD_DSTYLE_DIMJOGGED_JOGANGLE_SYMBOL
1070
   384
1040
1.570796326794896
1001
ACAD_DSTYLE_DIM_LINETYPE
1070
   380
1005
14
1001
ACAD_DSTYLE_DIM_EXT1_LINETYPE
1070
   381
1005
14
1001
ACAD_DSTYLE_DIM_EXT2_LINETYPE
1070
   382
1005
14
  0
DIMSTYLE
105
4DC
330
A
100
AcDbSymbolTableRecord
100
AcDbDimStyleTableRecord
  2
AM_DIN$6
 70
     0
  4
"
 41
3.5
 42
1.0
 43
10.0
 44
1.0
 47
0.1
 48
0.1
 73
     0
 74
     0
 78
     8
 79
     2
140
3.5
141
0.0
143
0.0393701
146
0.71
147
1.5
172
     1
176
   256
177
   256
178
     2
271
     2
272
     3
274
     4
283
     0
284
     8
340
11
371
    -1
372
    -1
1001
ACAD_DSTYLE_DIMBREAK
1070
   391
1040
3.75
1001
ACAD_DSTYLE_DIMJAG
1070
   388
1040
1.5
1001
ACAD_DSTYLE_DIMJOGGED_JOGANGLE_SYMBOL
1070
   384
1040
1.570796326794896
1001
ACAD_DSTYLE_DIM_LINETYPE
1070
   380
1005
14
1001
ACAD_DSTYLE_DIM_EXT1_LINETYPE
1070
   381
1005
14
1001
ACAD_DSTYLE_DIM_EXT2_LINETYPE
1070
   382
1005
14
  0
DIMSTYLE
105
4DD
330
A
100
AcDbSymbolTableRecord
100
AcDbDimStyleTableRecord
  2
AM_DIN$7
 70
     0
  4
"
 41
3.5
 42
1.0
 43
10.0
 44
1.0
 47
0.1
 48
0.1
 73
     0
 74
     0
 77
     1
 78
     8
 79
     2
140
3.5
141
0.0
143
0.0393701
146
0.71
147
1.5
172
     1
176
   256
177
   256
178
     2
271
     2
272
     3
274
     4
283
     0
284
     8
340
11
371
    -1
372
    -1
1001
ACAD_DSTYLE_DIMBREAK
1070
   391
1040
3.75
1001
ACAD_DSTYLE_DIMJAG
1070
   388
1040
1.5
1001
ACAD_DSTYLE_DIMJOGGED_JOGANGLE_SYMBOL
1070
   384
1040
1.570796326794896
1001
ACAD_DSTYLE_DIM_LINETYPE
1070
   380
1005
14
1001
ACAD_DSTYLE_DIM_EXT1_LINETYPE
1070
   381
1005
14
1001
ACAD_DSTYLE_DIM_EXT2_LINETYPE
1070
   382
1005
14
  0
DIMSTYLE
105
4DE
330
A
100
AcDbSymbolTableRecord
100
AcDbDimStyleTableRecord
  2
AM_DIN$SF
 70
     0
  4
"
 41
3.5
 42
1.0
 43
10.0
 44
1.0
 47
0.1
 48
0.1
 73
     0
 74
     0
 75
     1
 76
     1
 77
     1
 78
     8
 79
     2
140
3.5
141
0.0
143
0.0393701
146
0.71
147
1.5
172
     1
176
   256
177
   256
178
     2
271
     2
272
     3
274
     4
283
     0
284
     8
340
11
371
    -1
372
    -1
1001
ACAD_DSTYLE_DIMBREAK
1070
   391
1040
3.75
1001
ACAD_DSTYLE_DIMJAG
1070
   388
1040
1.5
1001
ACAD_DSTYLE_DIMJOGGED_JOGANGLE_SYMBOL
1070
   384
1040
1.570796326794896
1001
ACAD_DSTYLE_DIM_LINETYPE
1070
   380
1005
14
1001
ACAD_DSTYLE_DIM_EXT1_LINETYPE
1070
   381
1005
14
1001
ACAD_DSTYLE_DIM_EXT2_LINETYPE
1070
   382
1005
14
  0
DIMSTYLE
105
4E3
330
A
100
AcDbSymbolTableRecord
100
AcDbDimStyleTableRecord
  2
AM_DIN$SH
 70
     0
  4
"
 41
3.5
 42
1.0
 43
10.0
 44
1.0
 47
0.1
 48
0.1
 73
     0
 74
     0
 75
     1
 76
     1
 77
     1
 78
     8
 79
     2
140
3.5
141
0.0
143
0.0393701
144
2.0
146
0.71
147
1.5
172
     1
173
     1
176
   256
177
   256
178
     2
271
     2
272
     3
274
     4
283
     0
284
     8
340
11
343
4DF
371
    -1
372
    -1
1001
ACAD_DSTYLE_DIMBREAK
1070
   391
1040
3.75
1001
ACAD_DSTYLE_DIMJAG
1070
   388
1040
1.5
1001
ACAD_DSTYLE_DIMJOGGED_JOGANGLE_SYMBOL
1070
   384
1040
1.570796326794896
1001
ACAD_DSTYLE_DIM_LINETYPE
1070
   380
1005
14
1001
ACAD_DSTYLE_DIM_EXT1_LINETYPE
1070
   381
1005
14
1001
ACAD_DSTYLE_DIM_EXT2_LINETYPE
1070
   382
1005
14
  0
ENDTAB
  0
TABLE
  2
BLOCK_RECORD
  5
1
330
0
100
AcDbSymbolTable
 70
    12
  0
BLOCK_RECORD
  5
212
330
1
100
AcDbSymbolTableRecord
100
AcDbBlockTableRecord
  2
*Model_Space
340
40B
  0
BLOCK_RECORD
  5
213
330
1
100
AcDbSymbolTableRecord
100
AcDbBlockTableRecord
  2
*Paper_Space
340
40C
  0
BLOCK_RECORD
  5
214
330
1
100
AcDbSymbolTableRecord
100
AcDbBlockTableRecord
  2
_FILLED
340
0
102
{BLKREFS
331
50C
331
50D
331
516
331
517
331
522
331
523
331
538
331
539
331
542
331
543
331
54E
331
54F
331
558
331
559
331
561
331
562
102
}
  0
BLOCK_RECORD
  5
215
330
1
100
AcDbSymbolTableRecord
100
AcDbBlockTableRecord
  2
*D1
340
0
  0
BLOCK_RECORD
  5
216
330
1
100
AcDbSymbolTableRecord
100
AcDbBlockTableRecord
  2
*D2
340
0
  0
BLOCK_RECORD
  5
217
330
1
100
AcDbSymbolTableRecord
100
AcDbBlockTableRecord
  2
*D3
340
0
  0
BLOCK_RECORD
  5
218
330
1
100
AcDbSymbolTableRecord
100
AcDbBlockTableRecord
  2
*D4
340
0
  0
BLOCK_RECORD
  5
4DF
330
1
100
AcDbSymbolTableRecord
100
AcDbBlockTableRecord
  2
GENAXEH
340
0
  0
ENDTAB
  0
ENDSEC
  0
SECTION
  2
BLOCKS
  0
BLOCK
  5
20
330
212
100
AcDbEntity
  8
0
100
AcDbBlockBegin
  2
*Model_Space
 70
     0
 10
0.0
 20
0.0
 30
0.0
  3
*Model_Space
  1

  0
ENDBLK
  5
21
330
212
100
AcDbEntity
  8
0
100
AcDbBlockEnd
  0
BLOCK
  5
1C
330
213
100
AcDbEntity
 67
     1
  8
0
100
AcDbBlockBegin
  2
*Paper_Space
 70
     0
 10
0.0
 20
0.0
 30
0.0
  3
*Paper_Space
  1

  0
ENDBLK
  5
1D
330
213
100
AcDbEntity
 67
     1
  8
0
100
AcDbBlockEnd
  0
BLOCK
  5
21D
330
214
100
AcDbEntity
  8
0
100
AcDbBlockBegin
  2
_FILLED
 70
     0
 10
0.0
 20
0.0
 30
0.0
  3
_FILLED
  1

  0
SOLID
  5
21E
330
214
100
AcDbEntity
  8
0
  6
ByBlock
 62
     0
100
AcDbTrace
 10
0.0
 20
0.0
 30
0.0
 11
-1.0
 21
0.125
 31
0.0
 12
-1.0
 22
-0.125
 32
0.0
 13
-1.0
 23
-0.125
 33
0.0
  0
ENDBLK
  5
21F
330
214
100
AcDbEntity
  8
0
  6
ByBlock
 62
     0
100
AcDbBlockEnd
  0
BLOCK
  5
220
330
215
100
AcDbEntity
  8
ZEICHNUNGSBEMASSUNGEN
  6
Continuous
 62
     2
100
AcDbBlockBegin
  2
*D1
 70
     1
 10
0.0
 20
0.0
 30
0.0
  3
*D1
  1

  0
LINE
  5
55E
330
215
100
AcDbEntity
  8
ZEICHNUNGSBEMASSUNGEN
  6
Continuous
 62
     0
370
    -2
100
AcDbLine
 10
115.5954850055
 20
234.8757073784
 30
0.0
 11
115.5954850055
 21
279.4839371796197
 31
0.0
  0
LINE
  5
55F
330
215
100
AcDbEntity
  8
ZEICHNUNGSBEMASSUNGEN
  6
Continuous
 62
     0
370
    -2
100
AcDbLine
 10
295.5954850055
 20
234.8757073784
 30
0.0
 11
295.5954850055
 21
279.4839371796197
 31
0.0
  0
LINE
  5
560
330
215
100
AcDbEntity
  8
ZEICHNUNGSBEMASSUNGEN
  6
Continuous
 62
     0
370
    -2
100
AcDbLine
 10
120.5954850055
 20
279.3039371796197
 30
0.0
 11
290.5954850055
 21
279.3039371796197
 31
0.0
  0
INSERT
  5
561
330
215
100
AcDbEntity
  8
ZEICHNUNGSBEMASSUNGEN
  6
Continuous
 62
     0
370
    -2
100
AcDbBlockReference
  2
_FILLED
 10
115.5954850055
 20
279.3039371796197
 30
0.0
 41
5.0
 42
5.0
 43
5.0
 50
180.0
  0
INSERT
  5
562
330
215
100
AcDbEntity
  8
ZEICHNUNGSBEMASSUNGEN
  6
Continuous
 62
     0
370
    -2
100
AcDbBlockReference
  2
_FILLED
 10
295.5954850055
 20
279.3039371796197
 30
0.0
 41
5.0
 42
5.0
 43
5.0
  0
MTEXT
  5
563
330
215
100
AcDbEntity
  8
ZEICHNUNGSBEMASSUNGEN
  6
Continuous
100
AcDbMText
 10
203.8394913484901
 20
287.8039371796197
 30
0.0
 40
7.0
 41
0.0
 71
     2
 72
     1
  1
\A1;%%c180
 73
     1
 44
1.0
1001
ACAD
1000
MTEXTBEGIN
1070
    73
1070
     1
1070
    44
1040
1.0
1070
    74
1070
     0
1000
MTEXTEND
  0
POINT
  5
564
330
215
100
AcDbEntity
  8
Defpoints
  6
Continuous
 62
     0
100
AcDbPoint
 10
115.5954850055
 20
234.8132073784
 30
0.0
  0
POINT
  5
565
330
215
100
AcDbEntity
  8
Defpoints
  6
Continuous
 62
     0
100
AcDbPoint
 10
295.5954850055
 20
234.8132073784
 30
0.0
  0
POINT
  5
566
330
215
100
AcDbEntity
  8
Defpoints
  6
Continuous
 62
     0
100
AcDbPoint
 10
295.5954850055
 20
279.3039371796197
 30
0.0
  0
ENDBLK
  5
228
330
215
100
AcDbEntity
  8
0
  6
ByBlock
 62
     0
100
AcDbBlockEnd
  0
BLOCK
  5
229
330
216
100
AcDbEntity
  8
ZEICHNUNGSBEMASSUNGEN
  6
Continuous
 62
     2
100
AcDbBlockBegin
  2
*D2
 70
     1
 10
0.0
 20
0.0
 30
0.0
  3
*D2
  1

  0
LINE
  5
513
330
216
100
AcDbEntity
  8
ZEICHNUNGSBEMASSUNGEN
  6
Continuous
 62
     0
370
    -2
100
AcDbLine
 10
128.270088853
 20
231.8757073784
 30
0.0
 11
128.270088853
 21
268.4944248007
 31
0.0
  0
LINE
  5
514
330
216
100
AcDbEntity
  8
ZEICHNUNGSBEMASSUNGEN
  6
Continuous
 62
     0
370
    -2
100
AcDbLine
 10
282.920881158
 20
231.8757073784
 30
0.0
 11
282.920881158
 21
268.4944248007
 31
0.0
  0
LINE
  5
515
330
216
100
AcDbEntity
  8
ZEICHNUNGSBEMASSUNGEN
  6
Continuous
 62
     0
370
    -2
100
AcDbLine
 10
133.270088853
 20
268.3144248007
 30
0.0
 11
277.920881158
 21
268.3144248007
 31
0.0
  0
INSERT
  5
516
330
216
100
AcDbEntity
  8
ZEICHNUNGSBEMASSUNGEN
  6
Continuous
 62
     0
370
    -2
100
AcDbBlockReference
  2
_FILLED
 10
128.270088853
 20
268.3144248007
 30
0.0
 41
5.0
 42
5.0
 43
5.0
 50
180.0
  0
INSERT
  5
517
330
216
100
AcDbEntity
  8
ZEICHNUNGSBEMASSUNGEN
  6
Continuous
 62
     0
370
    -2
100
AcDbBlockReference
  2
_FILLED
 10
282.920881158
 20
268.3144248007
 30
0.0
 41
5.0
 42
5.0
 43
5.0
  0
MTEXT
  5
518
330
216
100
AcDbEntity
  8
ZEICHNUNGSBEMASSUNGEN
  6
Continuous
100
AcDbMText
 10
202.6788183388
 20
276.8144248007
 30
0.0
 40
7.0
 41
0.0
 71
     2
 72
     1
  1
\A1;%%c155
 73
     1
 44
1.0
1001
ACAD
1000
MTEXTBEGIN
1070
    73
1070
     1
1070
    44
1040
1.0
1070
    74
1070
     0
1000
MTEXTEND
  0
POINT
  5
519
330
216
100
AcDbEntity
  8
Defpoints
  6
Continuous
 62
     0
100
AcDbPoint
 10
128.270088853
 20
231.8132073784
 30
0.0
  0
POINT
  5
51A
330
216
100
AcDbEntity
  8
Defpoints
  6
Continuous
 62
     0
100
AcDbPoint
 10
282.920881158
 20
231.8132073784
 30
0.0
  0
POINT
  5
51B
330
216
100
AcDbEntity
  8
Defpoints
  6
Continuous
 62
     0
100
AcDbPoint
 10
282.920881158
 20
268.3144248007
 30
0.0
  0
ENDBLK
  5
231
330
216
100
AcDbEntity
  8
0
  6
ByBlock
 62
     0
100
AcDbBlockEnd
  0
BLOCK
  5
232
330
217
100
AcDbEntity
  8
ZEICHNUNGSBEMASSUNGEN
  6
Continuous
 62
     2
100
AcDbBlockBegin
  2
*D3
 70
     1
 10
0.0
 20
0.0
 30
0.0
  3
*D3
  1

  0
LINE
  5
555
330
217
100
AcDbEntity
  8
ZEICHNUNGSBEMASSUNGEN
  6
Continuous
 62
     0
370
    -2
100
AcDbLine
 10
176.0156822686
 20
38.8132073784
 30
0.0
 11
105.4857775786
 21
38.81320737840003
 31
0.0
  0
LINE
  5
556
330
217
100
AcDbEntity
  8
ZEICHNUNGSBEMASSUNGEN
  6
Continuous
 62
     0
370
    -2
100
AcDbLine
 10
116.0329850241
 20
235.3132073784
 30
0.0
 11
105.4857775786
 21
235.3132073784
 31
0.0
  0
LINE
  5
557
330
217
100
AcDbEntity
  8
ZEICHNUNGSBEMASSUNGEN
  6
Continuous
 62
     0
370
    -2
100
AcDbLine
 10
105.6657775786
 20
43.81320737840002
 30
0.0
 11
105.6657775786
 21
230.3132073784
 31
0.0
  0
INSERT
  5
558
330
217
100
AcDbEntity
  8
ZEICHNUNGSBEMASSUNGEN
  6
Continuous
 62
     0
370
    -2
100
AcDbBlockReference
  2
_FILLED
 10
105.6657775786
 20
38.81320737840003
 30
0.0
 41
5.0
 42
5.0
 43
5.0
 50
270.0
  0
INSERT
  5
559
330
217
100
AcDbEntity
  8
ZEICHNUNGSBEMASSUNGEN
  6
Continuous
 62
     0
370
    -2
100
AcDbBlockReference
  2
_FILLED
 10
105.6657775786
 20
235.3132073784
 30
0.0
 41
5.0
 42
5.0
 43
5.0
 50
90.0
  0
MTEXT
  5
55A
330
217
100
AcDbEntity
  8
ZEICHNUNGSBEMASSUNGEN
  6
Continuous
100
AcDbMText
 10
97.16577757860001
 20
131.6992273968
 30
0.0
 40
7.0
 41
0.0
 71
     2
 72
     1
  1
\A1;197
 11
0.0000000000000001
 21
1.0
 31
0.0
 73
     1
 44
1.0
1001
ACAD
1000
MTEXTBEGIN
1070
    73
1070
     1
1070
    44
1040
1.0
1070
    74
1070
     0
1000
MTEXTEND
  0
POINT
  5
55B
330
217
100
AcDbEntity
  8
Defpoints
  6
Continuous
 62
     0
100
AcDbPoint
 10
176.0781822686
 20
38.8132073784
 30
0.0
  0
POINT
  5
55C
330
217
100
AcDbEntity
  8
Defpoints
  6
Continuous
 62
     0
100
AcDbPoint
 10
116.0954850241
 20
235.3132073784
 30
0.0
  0
POINT
  5
55D
330
217
100
AcDbEntity
  8
Defpoints
  6
Continuous
 62
     0
100
AcDbPoint
 10
105.6657775786
 20
235.3132073784
 30
0.0
  0
ENDBLK
  5
23A
330
217
100
AcDbEntity
  8
0
  6
ByBlock
 62
     0
100
AcDbBlockEnd
  0
BLOCK
  5
23B
330
218
100
AcDbEntity
  8
ZEICHNUNGSBEMASSUNGEN
  6
Continuous
 62
     2
100
AcDbBlockBegin
  2
*D4
 70
     1
 10
0.0
 20
0.0
 30
0.0
  3
*D4
  1

  0
LINE
  5
53F
330
218
100
AcDbEntity
  8
ZEICHNUNGSBEMASSUNGEN
  6
Continuous
 62
     0
370
    -2
100
AcDbLine
 10
235.1752877424
 20
38.8132073784
 30
0.0
 11
304.3758295949
 21
38.81320737839998
 31
0.0
  0
LINE
  5
540
330
218
100
AcDbEntity
  8
ZEICHNUNGSBEMASSUNGEN
  6
Continuous
 62
     0
370
    -2
100
AcDbLine
 10
237.4546242114
 20
113.0976177333
 30
0.0
 11
304.3758295949
 21
113.0976177333
 31
0.0
  0
LINE
  5
541
330
218
100
AcDbEntity
  8
ZEICHNUNGSBEMASSUNGEN
  6
Continuous
 62
     0
370
    -2
100
AcDbLine
 10
304.1958295949001
 20
43.81320737839997
 30
0.0
 11
304.1958295949001
 21
108.0976177332999
 31
0.0
  0
INSERT
  5
542
330
218
100
AcDbEntity
  8
ZEICHNUNGSBEMASSUNGEN
  6
Continuous
 62
     0
370
    -2
100
AcDbBlockReference
  2
_FILLED
 10
304.1958295949001
 20
38.81320737839998
 30
0.0
 41
5.0
 42
5.0
 43
5.0
 50
270.0
  0
INSERT
  5
543
330
218
100
AcDbEntity
  8
ZEICHNUNGSBEMASSUNGEN
  6
Continuous
 62
     0
370
    -2
100
AcDbBlockReference
  2
_FILLED
 10
304.1958295949001
 20
113.0976177333
 30
0.0
 41
5.0
 42
5.0
 43
5.0
 50
90.0
  0
MTEXT
  5
544
330
218
100
AcDbEntity
  8
ZEICHNUNGSBEMASSUNGEN
  6
Continuous
100
AcDbMText
 10
295.6958295949
 20
73.496921731
 30
0.0
 40
7.0
 41
0.0
 71
     2
 72
     1
  1
\A1;74
 11
0.0000000000000001
 21
1.0
 31
0.0
 73
     1
 44
1.0
1001
ACAD
1000
MTEXTBEGIN
1070
    73
1070
     1
1070
    44
1040
1.0
1070
    74
1070
     0
1000
MTEXTEND
  0
POINT
  5
545
330
218
100
AcDbEntity
  8
Defpoints
  6
Continuous
 62
     0
100
AcDbPoint
 10
235.1127877424
 20
38.8132073784
 30
0.0
  0
POINT
  5
546
330
218
100
AcDbEntity
  8
Defpoints
  6
Continuous
 62
     0
100
AcDbPoint
 10
237.3921242114
 20
113.0976177333
 30
0.0
  0
POINT
  5
547
330
218
100
AcDbEntity
  8
Defpoints
  6
Continuous
 62
     0
100
AcDbPoint
 10
304.1958295949001
 20
113.0976177333
 30
0.0
  0
ENDBLK
  5
243
330
218
100
AcDbEntity
  8
0
  6
ByBlock
 62
     0
100
AcDbBlockEnd
  0
BLOCK
  5
4E1
330
4DF
100
AcDbEntity
  8
0
100
AcDbBlockBegin
  2
GENAXEH
 70
     0
 10
0.0
 20
0.0
 30
0.0
  3
GENAXEH
  1

  0
LINE
  5
4E0
330
4DF
100
AcDbEntity
  8
0
100
AcDbLine
 10
-1.0
 20
0.0
 30
0.0
 11
1.0
 21
0.0
 31
0.0
  0
ENDBLK
  5
4E2
330
4DF
100
AcDbEntity
  8
0
100
AcDbBlockEnd
  0
ENDSEC
  0
SECTION
  2
ENTITIES
  0
HATCH
  5
244
330
212
100
AcDbEntity
  8
0
  6
Continuous
 62
     1
100
AcDbHatch
 10
0.0
 20
0.0
 30
0.0
210
0.0
220
0.0
230
1.0
  2
A
 70
     0
 71
     0
 91
        2
 92
        1
 93
       57
 72
     1
 10
177.5781822686
 20
38.8132073784
 11
187.0954850055
 21
38.8132073784
 72
     4
 94
        3
 73
     1
 74
     0
 95
        8
 96
        4
 40
0.0
 40
0.0
 40
0.0
 40
0.0
 40
1.0
 40
1.0
 40
1.0
 40
1.0
 10
177.5781822686
 20
38.8132073784
 42
1.0
 10
177.0004703339
 20
38.8132073784
 42
0.8088336328
 10
176.5884170369
 20
39.2181310255
 42
0.8088336328
 10
176.5783345735
 20
39.7957549719
 42
1.0
 72
     1
 10
176.5783345735
 20
39.7957549719
 11
175.3485309454999
 21
110.2511576289
 72
     4
 94
        3
 73
     1
 74
     0
 95
        8
 96
        4
 40
0.0
 40
0.0
 40
0.0
 40
0.0
 40
1.0
 40
1.0
 40
1.0
 40
1.0
 10
172.4536863502
 20
113.1969728906
 42
1.0
 10
174.1379110205
 20
113.1381584691
 42
0.8169162473
 10
175.3191192552
 20
111.9361522368
 42
0.8169162473
 10
175.3485309454999
 20
110.2511576289
 42
1.0
 72
     1
 10
172.4536863502
 20
113.1969728906
 11
168.0465923009
 21
113.3508720061
 72
     4
 94
        3
 73
     1
 74
     0
 95
        8
 96
        4
 40
0.0
 40
0.0
 40
0.0
 40
0.0
 40
1.0
 40
1.0
 40
1.0
 40
1.0
 10
168.0465923009
 20
113.3508720061
 42
1.0
 10
167.4264111491
 20
113.3725292091
 42
0.9691446337999998
 10
166.8414463186
 20
113.5796761199
 42
0.9691446337999998
 10
166.3458457216
 20
113.953137957
 42
1.0
 72
     1
 10
166.3458457216
 20
113.953137957
 11
162.8273613288
 21
116.6045061214
 72
     4
 94
        3
 73
     1
 74
     0
 95
        8
 96
        4
 40
0.0
 40
0.0
 40
0.0
 40
0.0
 40
1.0
 40
1.0
 40
1.0
 40
1.0
 10
162.8273613288
 20
116.6045061214
 42
1.0
 10
162.1834348493
 20
117.089739528
 42
0.9492530217
 10
161.77421514
 20
117.7844567362
 42
0.9492530217
 10
161.662002192
 20
118.5828933486
 42
1.0
 72
     1
 10
161.662002192
 20
118.5828933486
 11
160.9396613586
 21
123.7226154438
 72
     4
 94
        3
 73
     1
 74
     0
 95
        8
 96
        4
 40
0.0
 40
0.0
 40
0.0
 40
0.0
 40
1.0
 40
1.0
 40
1.0
 40
1.0
 10
160.9396613586
 20
123.7226154438
 42
1.0
 10
160.7308143934
 20
125.2086388165
 42
0.8477497223
 10
159.6244358387
 20
126.2224479765
 42
0.8477497223
 10
158.1258650211
 20
126.3009847452
 42
1.0
 72
     1
 10
152.3251620976
 20
126.6049867037
 11
158.1258650211
 21
126.3009847452
 72
     4
 94
        3
 73
     1
 74
     0
 95
        8
 96
        4
 40
0.0
 40
0.0
 40
0.0
 40
0.0
 40
1.0
 40
1.0
 40
1.0
 40
1.0
 10
149.8091503938
 20
128.2389038087
 42
1.0
 10
150.3076665616999
 20
127.2605107403
 42
0.9106836024999999
 10
151.2285907616
 20
126.6624555722
 42
0.9106836024999999
 10
152.3251620976
 20
126.6049867037
 42
1.0
 72
     1
 10
136.651583403
 20
154.0620830116
 11
149.8091503938
 21
128.2389038087
 72
     4
 94
        3
 73
     1
 74
     0
 95
        8
 96
        4
 40
0.0
 40
0.0
 40
0.0
 40
0.0
 40
1.0
 40
1.0
 40
1.0
 40
1.0
 10
136.1096618889
 20
156.1575380268
 42
1.0
 10
136.135244948
 20
155.4249350674
 42
0.9841973380999998
 10
136.3187858881
 20
154.7152349107
 42
0.9841973380999998
 10
136.651583403
 20
154.0620830116
 42
1.0
 72
     1
 10
134.6526990672
 20
197.8794944137
 11
136.1096618889
 21
156.1575380268
 72
     4
 94
        3
 73
     1
 74
     0
 95
        8
 96
        4
 40
0.0
 40
0.0
 40
0.0
 40
0.0
 40
1.0
 40
1.0
 40
1.0
 40
1.0
 10
134.6526991903
 20
197.8794943856
 42
1.0
 10
134.6280569201
 20
198.5851732775
 42
0.9853166346
 10
134.4566664844
 20
199.2701661669
 42
0.9853166346
 10
134.1460776484
 20
199.9042990511
 42
1.0
 72
     1
 10
134.1460775531
 20
199.9042989632
 11
134.0074103642
 21
200.1874171121
 72
     4
 94
        3
 73
     1
 74
     0
 95
        8
 96
        4
 40
0.0
 40
0.0
 40
0.0
 40
0.0
 40
1.0
 40
1.0
 40
1.0
 40
1.0
 10
134.0074105015
 20
200.1874171376
 42
1.0
 10
133.6968218765
 20
200.8215484261
 42
0.9853166969
 10
133.5254310075
 20
201.5065396342
 42
0.9853166969
 10
133.5007876469
 20
202.2122169613
 42
1.0
 72
     1
 10
133.2137705453
 20
210.4313076741
 11
133.5007875188
 21
202.2122169253
 72
     4
 94
        3
 73
     1
 74
     0
 95
        8
 96
        4
 40
0.0
 40
0.0
 40
0.0
 40
0.0
 40
1.0
 40
1.0
 40
1.0
 40
1.0
 10
133.2137705453
 20
210.4313076741
 42
1.0
 10
133.1659990652
 20
211.7993038778
 42
0.8692022420999998
 10
132.3137859809
 20
212.8704848087
 42
0.8692022420999998
 10
130.9915339746
 20
213.2245262744
 42
1.0
 72
     4
 94
        3
 73
     1
 74
     0
 95
        8
 96
        4
 40
0.0
 40
0.0
 40
0.0
 40
0.0
 40
1.0
 40
1.0
 40
1.0
 40
1.0
 10
130.9915339746
 20
213.2245262744
 42
1.0
 10
129.6692819682
 20
213.5785677401
 42
0.8692022420999998
 10
128.8170688839
 20
214.649748671
 42
0.8692022420999998
 10
128.7692974038
 20
216.0177448747
 42
1.0
 72
     1
 10
128.7692974038
 20
216.0177448747
 11
128.3711950096
 21
227.4179058685
 72
     4
 94
        3
 73
     1
 74
     0
 95
        8
 96
        4
 40
0.0
 40
0.0
 40
0.0
 40
0.0
 40
1.0
 40
1.0
 40
1.0
 40
1.0
 10
125.3730225285
 20
230.3132073784
 42
1.0
 10
127.0821237248
 20
230.3132073784
 42
0.8128932001999999
 10
128.311548238
 20
229.1259659264
 42
0.8128932001999999
 10
128.3711950096
 20
227.4179058685
 42
1.0
 72
     1
 10
117.5954850055
 20
230.3132073784
 11
125.3730225285
 21
230.3132073784
 72
     4
 94
        3
 73
     1
 74
     0
 95
        8
 96
        4
 40
0.0
 40
0.0
 40
0.0
 40
0.0
 40
1.0
 40
1.0
 40
1.0
 40
1.0
 10
117.5954850055
 20
230.3132073784
 42
1.0
 10
116.4239121302
 20
230.3132073784
 42
0.8047378541
 10
115.5954850055
 20
231.1416345031
 42
0.8047378541
 10
115.5954850055
 20
232.3132073784
 42
1.0
 72
     1
 10
115.5954850055
 20
232.3132073784
 11
115.5954850055
 21
233.3132073784
 72
     4
 94
        3
 73
     1
 74
     0
 95
        8
 96
        4
 40
0.0
 40
0.0
 40
0.0
 40
0.0
 40
1.0
 40
1.0
 40
1.0
 40
1.0
 10
115.5954850055
 20
233.3132073784
 42
1.0
 10
115.5954850055
 20
234.4847802536
 42
0.8047378541
 10
116.4239121302
 20
235.3132073784
 42
0.8047378541
 10
117.5954850055
 20
235.3132073784
 42
1.0
 72
     1
 10
140.5954850055
 20
235.3132073784
 11
117.5954850055
 21
235.3132073784
 72
     4
 94
        3
 73
     1
 74
     0
 95
        8
 96
        4
 40
0.0
 40
0.0
 40
0.0
 40
0.0
 40
1.0
 40
1.0
 40
1.0
 40
1.0
 10
140.5954850055
 20
235.3132073784
 42
1.0
 10
141.1812714431
 20
235.3132073784
 42
0.8047378541
 10
141.5954850055
 20
234.898993816
 42
0.8047378541
 10
141.5954850055
 20
234.3132073784
 42
1.0
 72
     1
 10
141.5954850055
 20
230.918090096
 11
141.5954850055
 21
234.3132073784
 72
     4
 94
        3
 73
     1
 74
     0
 95
        8
 96
        4
 40
0.0
 40
0.0
 40
0.0
 40
0.0
 40
1.0
 40
1.0
 40
1.0
 40
1.0
 10
141.5954850055
 20
230.918090096
 42
1.0
 10
141.5954850055
 20
230.3403781612
 42
0.8088336328
 10
141.1905613583
 20
229.9283248643
 42
0.8088336328
 10
140.6129374119
 20
229.9182424008
 42
1.0
 72
     1
 10
135.5780325991
 20
229.8303578104
 11
140.6129374119
 21
229.9182424008
 72
     4
 94
        3
 73
     1
 74
     0
 95
        8
 96
        4
 40
0.0
 40
0.0
 40
0.0
 40
0.0
 40
1.0
 40
1.0
 40
1.0
 40
1.0
 10
134.5954850055
 20
228.8305101153
 42
1.0
 10
134.5954850055
 20
229.40822205
 42
0.8088336328
 10
135.0004086526
 20
229.8202753469
 42
0.8088336328
 10
135.5780325991
 20
229.8303578104
 42
1.0
 72
     1
 10
134.5954850055
 20
219.7959046415
 11
134.5954850055
 21
228.8305101153
 72
     4
 94
        3
 73
     1
 74
     0
 95
        8
 96
        4
 40
0.0
 40
0.0
 40
0.0
 40
0.0
 40
1.0
 40
1.0
 40
1.0
 40
1.0
 10
135.5780325991
 20
218.7960569463
 42
1.0
 10
135.0004086526
 20
218.8061394098
 42
0.8088336328
 10
134.5954850055
 20
219.2181927067
 42
0.8088336328
 10
134.5954850055
 20
219.7959046415
 42
1.0
 72
     1
 10
139.6544988724
 20
218.7249019628
 11
135.5780325991
 21
218.7960569463
 72
     1
 10
140.6128768528
 20
218.7119946509
 11
139.6544988724
 21
218.7249019628
 72
     4
 94
        3
 73
     1
 74
     0
 95
        8
 96
        4
 40
0.0
 40
0.0
 40
0.0
 40
0.0
 40
1.0
 40
1.0
 40
1.0
 40
1.0
 10
140.6128768528
 20
218.7119946509
 42
1.0
 10
141.190536401
 20
218.704214806
 42
0.8088336328
 10
141.5970993678
 20
218.2937788993
 42
0.8088336328
 10
141.5994022571
 20
217.7160715545
 42
1.0
 72
     1
 10
141.842639179
 20
156.6971777499
 11
141.5994022571
 21
217.7160715545
 72
     4
 94
        3
 73
     1
 74
     0
 95
        8
 96
        4
 40
0.0
 40
0.0
 40
0.0
 40
0.0
 40
1.0
 40
1.0
 40
1.0
 40
1.0
 10
142.1695957714
 20
155.3471649231999
 42
1.0
 10
141.9555146918
 20
155.7673226991
 42
0.9818888484999998
 10
141.8445188994
 20
156.2256274005
 42
0.9818888484999998
 10
141.842639179
 20
156.6971777499
 42
1.0
 72
     1
 10
153.7922958965
 20
132.5363315553
 11
142.1695957714
 21
155.3471649231999
 72
     4
 94
        3
 73
     1
 74
     0
 95
        8
 96
        4
 40
0.0
 40
0.0
 40
0.0
 40
0.0
 40
1.0
 40
1.0
 40
1.0
 40
1.0
 10
154.6309664645
 20
131.9916925203
 42
1.0
 10
154.2654426858
 20
132.0108488098
 42
0.9106836024999999
 10
153.9584679525
 20
132.2102005325
 42
0.9106836024999999
 10
153.7922958965
 20
132.5363315553
 42
1.0
 72
     1
 10
167.1478209617
 20
131.3357119725
 11
154.6309664645
 21
131.9916925203
 72
     4
 94
        3
 73
     1
 74
     0
 95
        8
 96
        4
 40
0.0
 40
0.0
 40
0.0
 40
0.0
 40
1.0
 40
1.0
 40
1.0
 40
1.0
 10
167.1478209617
 20
131.3357119725
 42
1.0
 10
167.7088015288999
 20
131.3063122268
 42
0.8169162473
 10
168.0954850055
 20
130.8988328644
 42
0.8169162473
 10
168.0954850055
 20
130.3370824378
 42
1.0
 72
     1
 10
168.0954850055
 20
120.5131151766
 11
168.0954850055
 21
130.3370824378
 72
     4
 94
        3
 73
     1
 74
     0
 95
        8
 96
        4
 40
0.0
 40
0.0
 40
0.0
 40
0.0
 40
1.0
 40
1.0
 40
1.0
 40
1.0
 10
169.0780325991
 20
119.5132674814
 42
1.0
 10
168.5004086527
 20
119.5233499449
 42
0.8088336328
 10
168.0954850055
 20
119.9354032418
 42
0.8088336328
 10
168.0954850055
 20
120.5131151766
 42
1.0
 72
     1
 10
174.6129374119
 20
119.4166553585
 11
169.0780325991
 21
119.5132674814
 72
     4
 94
        3
 73
     1
 74
     0
 95
        8
 96
        4
 40
0.0
 40
0.0
 40
0.0
 40
0.0
 40
1.0
 40
1.0
 40
1.0
 40
1.0
 10
174.6129374119
 20
119.4166553585
 42
1.0
 10
174.9788733088
 20
119.4102679237
 42
0.9106982579
 10
175.2925976619
 20
119.221782088
 42
0.9106982579
 10
175.4700620772999
 20
118.9016941919
 42
1.0
 72
     4
 94
        3
 73
     1
 74
     0
 95
        8
 96
        4
 40
0.0
 40
0.0
 40
0.0
 40
0.0
 40
1.0
 40
1.0
 40
1.0
 40
1.0
 10
176.3271867426
 20
118.3867330252
 42
1.0
 10
175.9612508457
 20
118.39312046
 42
0.9106982579
 10
175.6475264927
 20
118.5816062957
 42
0.9106982579
 10
175.4700620772999
 20
118.9016941919
 42
1.0
 72
     1
 10
181.1129374119
 20
118.3031974365
 11
176.3271867426
 21
118.3867330252
 72
     4
 94
        3
 73
     1
 74
     0
 95
        8
 96
        4
 40
0.0
 40
0.0
 40
0.0
 40
0.0
 40
1.0
 40
1.0
 40
1.0
 40
1.0
 10
181.1129374119
 20
118.3031974365
 42
1.0
 10
181.6905613583
 20
118.293114973
 42
0.8088336328
 10
182.0954850055
 20
117.8810616761
 42
0.8088336328
 10
182.0954850055
 20
117.3033497414
 42
1.0
 72
     1
 10
182.0954850055
 20
46.07661862079999
 11
182.0954850055
 21
117.3033497413999
 72
     4
 94
        3
 73
     1
 74
     0
 95
        8
 96
        4
 40
0.0
 40
0.0
 40
0.0
 40
0.0
 40
1.0
 40
1.0
 40
1.0
 40
1.0
 10
183.0431490492
 20
45.077989086
 42
1.0
 10
182.4821684821
 20
45.1073888318
 42
0.8169162473
 10
182.0954850055
 20
45.51486819419999
 42
0.8169162473
 10
182.0954850055
 20
46.07661862079999
 42
1.0
 72
     1
 10
187.1478209616999
 20
44.8628723464
 11
183.0431490492
 21
45.077989086
 72
     4
 94
        3
 73
     1
 74
     0
 95
        8
 96
        4
 40
0.0
 40
0.0
 40
0.0
 40
0.0
 40
1.0
 40
1.0
 40
1.0
 40
1.0
 10
187.1478209616999
 20
44.8628723464
 42
1.0
 10
187.7088015289
 20
44.8334726007
 42
0.8169162473
 10
188.0954850055
 20
44.4259932383
 42
0.8169162473
 10
188.0954850055
 20
43.8642428117
 42
1.0
 72
     1
 10
188.0954850055
 20
39.8132073784
 11
188.0954850055
 21
43.8642428117
 72
     4
 94
        3
 73
     1
 74
     0
 95
        8
 96
        4
 40
0.0
 40
0.0
 40
0.0
 40
0.0
 40
1.0
 40
1.0
 40
1.0
 40
1.0
 10
188.0954850055
 20
39.8132073784
 42
1.0
 10
188.0954850055
 20
39.2274209407
 42
0.8047378541
 10
187.6812714431
 20
38.8132073784
 42
0.8047378541
 10
187.0954850055
 20
38.8132073784
 42
1.0
 97
        0
 92
        1
 93
       57
 72
     1
 10
224.0954850055
 20
38.8132073784
 11
233.6127877424
 21
38.8132073784
 72
     4
 94
        3
 73
     1
 74
     0
 95
        8
 96
        4
 40
0.0
 40
0.0
 40
0.0
 40
0.0
 40
1.0
 40
1.0
 40
1.0
 40
1.0
 10
223.0954850055
 20
39.8132073784
 42
1.0
 10
223.0954850055
 20
39.2274209407
 42
0.8047378541
 10
223.5096985679
 20
38.8132073784
 42
0.8047378541
 10
224.0954850055
 20
38.8132073784
 42
1.0
 72
     1
 10
223.0954850055
 20
39.8132073784
 11
223.0954850055
 21
43.8642428117
 72
     4
 94
        3
 73
     1
 74
     0
 95
        8
 96
        4
 40
0.0
 40
0.0
 40
0.0
 40
0.0
 40
1.0
 40
1.0
 40
1.0
 40
1.0
 10
224.0431490491999
 20
44.8628723464
 42
1.0
 10
223.4821684821
 20
44.8334726007
 42
0.8169162473
 10
223.0954850055
 20
44.4259932383
 42
0.8169162473
 10
223.0954850055
 20
43.8642428117
 42
1.0
 72
     1
 10
224.0431490491999
 20
44.8628723464
 11
228.1478209617
 21
45.077989086
 72
     4
 94
        3
 73
     1
 74
     0
 95
        8
 96
        4
 40
0.0
 40
0.0
 40
0.0
 40
0.0
 40
1.0
 40
1.0
 40
1.0
 40
1.0
 10
228.1478209617
 20
45.077989086
 42
1.0
 10
228.7088015289
 20
45.1073888318
 42
0.8169162473
 10
229.0954850055
 20
45.51486819419999
 42
0.8169162473
 10
229.0954850055
 20
46.07661862079999
 42
1.0
 72
     1
 10
229.0954850055
 20
46.07661862079999
 11
229.0954850055
 21
117.3033497413999
 72
     4
 94
        3
 73
     1
 74
     0
 95
        8
 96
        4
 40
0.0
 40
0.0
 40
0.0
 40
0.0
 40
1.0
 40
1.0
 40
1.0
 40
1.0
 10
230.0780325991
 20
118.3031974365
 42
1.0
 10
229.5004086526
 20
118.293114973
 42
0.8088336328
 10
229.0954850055
 20
117.8810616761
 42
0.8088336328
 10
229.0954850055
 20
117.3033497414
 42
1.0
 72
     1
 10
230.0780325991
 20
118.3031974365
 11
234.8637832683
 21
118.3867330252
 72
     4
 94
        3
 73
     1
 74
     0
 95
        8
 96
        4
 40
0.0
 40
0.0
 40
0.0
 40
0.0
 40
1.0
 40
1.0
 40
1.0
 40
1.0
 10
234.8637832683
 20
118.3867330252
 42
1.0
 10
235.2297191653
 20
118.39312046
 42
0.9106982579
 10
235.5434435183
 20
118.5816062957
 42
0.9106982579
 10
235.7209079337
 20
118.9016941919
 42
1.0
 72
     4
 94
        3
 73
     1
 74
     0
 95
        8
 96
        4
 40
0.0
 40
0.0
 40
0.0
 40
0.0
 40
1.0
 40
1.0
 40
1.0
 40
1.0
 10
236.5780325991
 20
119.4166553585
 42
1.0
 10
236.2120967021
 20
119.4102679237
 42
0.9106982579
 10
235.8983723491
 20
119.221782088
 42
0.9106982579
 10
235.7209079337
 20
118.9016941919
 42
1.0
 72
     1
 10
236.5780325991
 20
119.4166553585
 11
242.1129374119
 21
119.5132674814
 72
     4
 94
        3
 73
     1
 74
     0
 95
        8
 96
        4
 40
0.0
 40
0.0
 40
0.0
 40
0.0
 40
1.0
 40
1.0
 40
1.0
 40
1.0
 10
242.1129374119
 20
119.5132674814
 42
1.0
 10
242.6905613583
 20
119.5233499449
 42
0.8088336328
 10
243.0954850055
 20
119.9354032418
 42
0.8088336328
 10
243.0954850055
 20
120.5131151766
 42
1.0
 72
     1
 10
243.0954850055
 20
120.5131151766
 11
243.0954850055
 21
130.3370824378
 72
     4
 94
        3
 73
     1
 74
     0
 95
        8
 96
        4
 40
0.0
 40
0.0
 40
0.0
 40
0.0
 40
1.0
 40
1.0
 40
1.0
 40
1.0
 10
244.0431490493
 20
131.3357119725
 42
1.0
 10
243.4821684821
 20
131.3063122268
 42
0.8169162473
 10
243.0954850055
 20
130.8988328644
 42
0.8169162473
 10
243.0954850055
 20
130.3370824378
 42
1.0
 72
     1
 10
244.0431490492
 20
131.3357119725
 11
256.5600035465
 21
131.9916925203
 72
     4
 94
        3
 73
     1
 74
     0
 95
        8
 96
        4
 40
0.0
 40
0.0
 40
0.0
 40
0.0
 40
1.0
 40
1.0
 40
1.0
 40
1.0
 10
256.5600035465
 20
131.9916925203
 42
1.0
 10
256.9255273252
 20
132.0108488098
 42
0.9106836024999999
 10
257.2325020585
 20
132.2102005325
 42
0.9106836024999999
 10
257.3986741145
 20
132.5363315553
 42
1.0
 72
     1
 10
257.3986741145
 20
132.5363315553
 11
269.0213742396
 21
155.3471649231999
 72
     4
 94
        3
 73
     1
 74
     0
 95
        8
 96
        4
 40
0.0
 40
0.0
 40
0.0
 40
0.0
 40
1.0
 40
1.0
 40
1.0
 40
1.0
 10
269.0213742396
 20
155.3471649231999
 42
1.0
 10
269.2354553192
 20
155.7673226991
 42
0.9818888484999998
 10
269.3464511116
 20
156.2256274005
 42
0.9818888484999998
 10
269.3483308319
 20
156.6971777499
 42
1.0
 72
     1
 10
269.3483308319
 20
156.6971777499
 11
269.5915677539
 21
217.7160715545
 72
     4
 94
        3
 73
     1
 74
     0
 95
        8
 96
        4
 40
0.0
 40
0.0
 40
0.0
 40
0.0
 40
1.0
 40
1.0
 40
1.0
 40
1.0
 10
270.5780931582
 20
218.7119946509
 42
1.0
 10
270.00043361
 20
218.704214806
 42
0.8088336328
 10
269.5938706432
 20
218.2937788993
 42
0.8088336328
 10
269.5915677539
 20
217.7160715545
 42
1.0
 72
     1
 10
270.5780931582
 20
218.7119946509
 11
271.5364711384999
 21
218.7249019628
 72
     1
 10
271.5364711384999
 20
218.7249019628
 11
275.6129374119
 21
218.7960569463
 72
     4
 94
        3
 73
     1
 74
     0
 95
        8
 96
        4
 40
0.0
 40
0.0
 40
0.0
 40
0.0
 40
1.0
 40
1.0
 40
1.0
 40
1.0
 10
275.6129374119
 20
218.7960569463
 42
1.0
 10
276.1905613583
 20
218.8061394098
 42
0.8088336328
 10
276.5954850055
 20
219.2181927067
 42
0.8088336328
 10
276.5954850055
 20
219.7959046415
 42
1.0
 72
     1
 10
276.5954850055
 20
219.7959046415
 11
276.5954850055
 21
228.8305101153
 72
     4
 94
        3
 73
     1
 74
     0
 95
        8
 96
        4
 40
0.0
 40
0.0
 40
0.0
 40
0.0
 40
1.0
 40
1.0
 40
1.0
 40
1.0
 10
276.5954850055
 20
228.8305101153
 42
1.0
 10
276.5954850055
 20
229.40822205
 42
0.8088336328
 10
276.1905613583
 20
229.8202753469
 42
0.8088336328
 10
275.6129374119
 20
229.8303578104
 42
1.0
 72
     1
 10
275.6129374119
 20
229.8303578104
 11
270.5780325991
 21
229.9182424008
 72
     4
 94
        3
 73
     1
 74
     0
 95
        8
 96
        4
 40
0.0
 40
0.0
 40
0.0
 40
0.0
 40
1.0
 40
1.0
 40
1.0
 40
1.0
 10
269.5954850055
 20
230.918090096
 42
1.0
 10
269.5954850055
 20
230.3403781612
 42
0.8088336328
 10
270.0004086525999
 20
229.9283248643
 42
0.8088336328
 10
270.5780325991
 20
229.9182424008
 42
1.0
 72
     1
 10
269.5954850055
 20
230.918090096
 11
269.5954850055
 21
234.3132073784
 72
     4
 94
        3
 73
     1
 74
     0
 95
        8
 96
        4
 40
0.0
 40
0.0
 40
0.0
 40
0.0
 40
1.0
 40
1.0
 40
1.0
 40
1.0
 10
270.5954850055
 20
235.3132073784
 42
1.0
 10
270.0096985679
 20
235.3132073784
 42
0.8047378541
 10
269.5954850055
 20
234.898993816
 42
0.8047378541
 10
269.5954850055
 20
234.3132073784
 42
1.0
 72
     1
 10
293.5954850055
 20
235.3132073784
 11
270.5954850055
 21
235.3132073784
 72
     4
 94
        3
 73
     1
 74
     0
 95
        8
 96
        4
 40
0.0
 40
0.0
 40
0.0
 40
0.0
 40
1.0
 40
1.0
 40
1.0
 40
1.0
 10
295.5954850055
 20
233.3132073784
 42
1.0
 10
295.5954850055
 20
234.4847802536
 42
0.8047378541
 10
294.7670578807
 20
235.3132073784
 42
0.8047378541
 10
293.5954850055
 20
235.3132073784
 42
1.0
 72
     1
 10
295.5954850055
 20
232.3132073784
 11
295.5954850055
 21
233.3132073784
 72
     4
 94
        3
 73
     1
 74
     0
 95
        8
 96
        4
 40
0.0
 40
0.0
 40
0.0
 40
0.0
 40
1.0
 40
1.0
 40
1.0
 40
1.0
 10
293.5954850055
 20
230.3132073784
 42
1.0
 10
294.7670578807
 20
230.3132073784
 42
0.8047378541
 10
295.5954850055
 20
231.1416345031
 42
0.8047378541
 10
295.5954850055
 20
232.3132073784
 42
1.0
 72
     1
 10
285.8179474825
 20
230.3132073784
 11
293.5954850055
 21
230.3132073784
 72
     4
 94
        3
 73
     1
 74
     0
 95
        8
 96
        4
 40
0.0
 40
0.0
 40
0.0
 40
0.0
 40
1.0
 40
1.0
 40
1.0
 40
1.0
 10
285.8179474825
 20
230.3132073784
 42
1.0
 10
284.1088462862
 20
230.3132073784
 42
0.8128932001999999
 10
282.879421773
 20
229.1259659264
 42
0.8128932001999999
 10
282.8197750014
 20
227.4179058685
 42
1.0
 72
     1
 10
282.4216726072
 20
216.0177448747
 11
282.8197750014
 21
227.4179058685
 72
     4
 94
        3
 73
     1
 74
     0
 95
        8
 96
        4
 40
0.0
 40
0.0
 40
0.0
 40
0.0
 40
1.0
 40
1.0
 40
1.0
 40
1.0
 10
280.1994360364
 20
213.2245262744
 42
1.0
 10
281.5216880428
 20
213.5785677401
 42
0.8692022420999998
 10
282.3739011271
 20
214.649748671
 42
0.8692022420999998
 10
282.4216726072
 20
216.0177448747
 42
1.0
 72
     4
 94
        3
 73
     1
 74
     0
 95
        8
 96
        4
 40
0.0
 40
0.0
 40
0.0
 40
0.0
 40
1.0
 40
1.0
 40
1.0
 40
1.0
 10
277.9771994657
 20
210.4313076741
 42
1.0
 10
278.0249709458
 20
211.7993038778
 42
0.8692022420999998
 10
278.8771840301
 20
212.8704848087
 42
0.8692022420999998
 10
280.1994360364
 20
213.2245262744
 42
1.0
 72
     1
 10
277.9771994657
 20
210.4313076741
 11
277.6901827809
 21
202.2122251903
 72
     4
 94
        3
 73
     1
 74
     0
 95
        8
 96
        4
 40
0.0
 40
0.0
 40
0.0
 40
0.0
 40
1.0
 40
1.0
 40
1.0
 40
1.0
 10
277.6901823786
 20
202.2122163133
 42
1.0
 10
277.6655396029
 20
201.506539627
 42
0.9853167239000001
 10
277.4941495725
 20
200.8215488902
 42
0.9853167239000001
 10
277.1835619888
 20
200.1874178273
 42
1.0
 72
     1
 10
277.1835621007
 20
200.1874178137
 11
277.0448948753
 21
199.9042995495
 72
     4
 94
        3
 73
     1
 74
     0
 95
        8
 96
        4
 40
0.0
 40
0.0
 40
0.0
 40
0.0
 40
1.0
 40
1.0
 40
1.0
 40
1.0
 10
277.0448948046
 20
199.904299625
 42
1.0
 10
276.7343049556
 20
199.2701665473
 42
0.9853166094
 10
276.562913694
 20
198.5851732263
 42
0.9853166094
 10
276.5382708344
 20
197.8794937353
 42
1.0
 72
     1
 10
276.5382712331
 20
197.8795026963999
 11
275.0813081221
 21
156.1575380268
 72
     4
 94
        3
 73
     1
 74
     0
 95
        8
 96
        4
 40
0.0
 40
0.0
 40
0.0
 40
0.0
 40
1.0
 40
1.0
 40
1.0
 40
1.0
 10
275.0813081221
 20
156.1575380268
 42
1.0
 10
275.055725063
 20
155.4249350674
 42
0.9841973380999998
 10
274.8721841229001
 20
154.7152349107
 42
0.9841973380999998
 10
274.5393866079
 20
154.0620830116
 42
1.0
 72
     1
 10
274.5393866079
 20
154.0620830116
 11
261.3818196172
 21
128.2389038087
 72
     4
 94
        3
 73
     1
 74
     0
 95
        8
 96
        4
 40
0.0
 40
0.0
 40
0.0
 40
0.0
 40
1.0
 40
1.0
 40
1.0
 40
1.0
 10
261.3818196172
 20
128.2389038087
 42
1.0
 10
260.8833034493
 20
127.2605107403
 42
0.9106836024999999
 10
259.9623792494
 20
126.6624555722
 42
0.9106836024999999
 10
258.8658079134
 20
126.6049867037
 42
1.0
 72
     1
 10
258.8658079134
 20
126.6049867037
 11
253.0651049898
 21
126.3009847452
 72
     4
 94
        3
 73
     1
 74
     0
 95
        8
 96
        4
 40
0.0
 40
0.0
 40
0.0
 40
0.0
 40
1.0
 40
1.0
 40
1.0
 40
1.0
 10
250.2513086523
 20
123.7226154438
 42
1.0
 10
250.4601556175
 20
125.2086388165
 42
0.8477497223
 10
251.5665341723
 20
126.2224479765
 42
0.8477497223
 10
253.0651049898
 20
126.3009847452
 42
1.0
 72
     1
 10
249.528967819
 20
118.5828933486
 11
250.2513086523
 21
123.7226154438
 72
     4
 94
        3
 73
     1
 74
     0
 95
        8
 96
        4
 40
0.0
 40
0.0
 40
0.0
 40
0.0
 40
1.0
 40
1.0
 40
1.0
 40
1.0
 10
248.3636086822
 20
116.6045061214
 42
1.0
 10
249.0075351617
 20
117.089739528
 42
0.9492530217
 10
249.416754871
 20
117.7844567362
 42
0.9492530217
 10
249.528967819
 20
118.5828933486
 42
1.0
 72
     1
 10
244.8451242894
 20
113.953137957
 11
248.3636086822
 21
116.6045061214
 72
     4
 94
        3
 73
     1
 74
     0
 95
        8
 96
        4
 40
0.0
 40
0.0
 40
0.0
 40
0.0
 40
1.0
 40
1.0
 40
1.0
 40
1.0
 10
243.14437771
 20
113.3508720061
 42
1.0
 10
243.7645588619
 20
113.3725292091
 42
0.9691446337999998
 10
244.3495236924
 20
113.5796761199
 42
0.9691446337999998
 10
244.8451242894
 20
113.953137957
 42
1.0
 72
     1
 10
238.7372836608
 20
113.1969728906
 11
243.14437771
 21
113.3508720061
 72
     4
 94
        3
 73
     1
 74
     0
 95
        8
 96
        4
 40
0.0
 40
0.0
 40
0.0
 40
0.0
 40
1.0
 40
1.0
 40
1.0
 40
1.0
 10
238.7372836608
 20
113.1969728906
 42
1.0
 10
237.0530589905
 20
113.1381584691
 42
0.8169162473
 10
235.8718507557
 20
111.9361522368
 42
0.8169162473
 10
235.8424390655
 20
110.2511576289
 42
1.0
 72
     1
 10
234.6126354375
 20
39.7957549719
 11
235.8424390655
 21
110.2511576289
 72
     4
 94
        3
 73
     1
 74
     0
 95
        8
 96
        4
 40
0.0
 40
0.0
 40
0.0
 40
0.0
 40
1.0
 40
1.0
 40
1.0
 40
1.0
 10
233.6127877424
 20
38.8132073784
 42
1.0
 10
234.1904996771
 20
38.8132073784
 42
0.8088336328
 10
234.602552974
 20
39.2181310255
 42
0.8088336328
 10
234.6126354375
 20
39.7957549719
 42
1.0
 97
        0
 75
     0
 76
     0
 52
45.0
 41
5.0
 77
     0
 78
     1
 53
45.0
 43
0.0
 44
0.0
 45
-3.535533905899999
 46
3.535533905899999
 79
     0
 98
        1
 10
0.0
 20
0.0
  0
DIMENSION
  5
245
330
212
100
AcDbEntity
  8
ZEICHNUNGSBEMASSUNGEN
  6
Continuous
 62
     7
100
AcDbDimension
  2
*D1
 10
295.5954850055
 20
279.3039371796197
 30
0.0
 11
203.8394913484901
 21
279.3039371796197
 31
0.0
 70
   160
  1
%%c<>
 71
     2
 42
180.0
  3
DIMSTYLE_2
100
AcDbAlignedDimension
 13
115.5954850055
 23
234.8132073784
 33
0.0
 14
295.5954850055
 24
234.8132073784
 34
0.0
100
AcDbRotatedDimension
1001
ACAD
1000
DSTYLE
1002
{
1070
    41
1040
5.0
1070
   140
1040
7.0
1070
   147
1040
1.5
1070
   178
1070
   256
1002
}
  0
DIMENSION
  5
246
330
212
100
AcDbEntity
  8
ZEICHNUNGSBEMASSUNGEN
  6
Continuous
 62
     7
100
AcDbDimension
  2
*D2
 10
282.920881158
 20
268.3144248007
 30
0.0
 11
202.6788183388
 21
268.3144248007
 31
0.0
 70
   160
  1
%%c<>
 71
     2
 42
154.650792305
  3
DIMSTYLE_2
100
AcDbAlignedDimension
 13
128.270088853
 23
231.8132073784
 33
0.0
 14
282.920881158
 24
231.8132073784
 34
0.0
100
AcDbRotatedDimension
1001
ACAD
1000
DSTYLE
1002
{
1070
    41
1040
5.0
1070
   140
1040
7.0
1070
   147
1040
1.5
1070
   178
1070
   256
1002
}
  0
DIMENSION
  5
247
330
212
100
AcDbEntity
  8
ZEICHNUNGSBEMASSUNGEN
  6
Continuous
 62
     7
100
AcDbDimension
  2
*D3
 10
105.6657775786
 20
235.3132073784
 30
0.0
 11
105.6657775786
 21
131.6992273968
 31
0.0
 70
   160
 71
     2
 42
196.5
  3
DIMSTYLE_2
100
AcDbAlignedDimension
 13
176.0781822686
 23
38.8132073784
 33
0.0
 14
116.0954850241
 24
235.3132073784
 34
0.0
 50
90.0
100
AcDbRotatedDimension
1001
ACAD
1000
DSTYLE
1002
{
1070
    41
1040
5.0
1070
   140
1040
7.0
1070
   147
1040
1.5
1070
   178
1070
   256
1002
}
  0
DIMENSION
  5
248
330
212
100
AcDbEntity
  8
ZEICHNUNGSBEMASSUNGEN
  6
Continuous
 62
     7
100
AcDbDimension
  2
*D4
 10
304.1958295949001
 20
113.0976177333
 30
0.0
 11
304.1958295949001
 21
73.496921731
 31
0.0
 70
   160
 71
     2
 42
74.2844103549
  3
DIMSTYLE_2
100
AcDbAlignedDimension
 13
235.1127877424
 23
38.8132073784
 33
0.0
 14
237.3921242114
 24
113.0976177333
 34
0.0
 50
90.0
100
AcDbRotatedDimension
1001
ACAD
1000
DSTYLE
1002
{
1070
    41
1040
5.0
1070
   140
1040
7.0
1070
   147
1040
1.5
1070
   178
1070
   256
1002
}
  0
LINE
  5
24A
330
212
100
AcDbEntity
  8
0
  6
Continuous
 62
     7
100
AcDbLine
 10
224.0431490491999
 20
44.8628723464
 30
0.0
 11
228.1478209617
 21
45.077989086
 31
0.0
  0
LINE
  5
24B
330
212
100
AcDbEntity
  8
0
  6
Continuous
 62
     7
100
AcDbLine
 10
177.5781822686
 20
38.8132073784
 30
0.0
 11
233.6127877424
 21
38.8132073784
 31
0.0
  0
LINE
  5
24C
330
212
100
AcDbEntity
  8
0
  6
Continuous
 62
     9
100
AcDbLine
 10
188.0954850055
 20
39.8132073784
 30
0.0
 11
223.0954850055
 21
39.8132073784
 31
0.0
  0
LINE
  5
24D
330
212
100
AcDbEntity
  8
0
  6
Continuous
 62
     9
100
AcDbLine
 10
188.0954850055
 20
43.8642428117
 30
0.0
 11
223.0954850055
 21
43.8642428117
 31
0.0
  0
LINE
  5
24E
330
212
100
AcDbEntity
  8
0
  6
Continuous
 62
     9
100
AcDbLine
 10
187.1478209616999
 20
44.8628723464
 30
0.0
 11
224.0431490491999
 21
44.8628723464
 31
0.0
  0
LINE
  5
24F
330
212
100
AcDbEntity
  8
0
  6
Continuous
 62
     9
100
AcDbLine
 10
228.1478209617
 20
45.077989086
 30
0.0
 11
183.0431490492
 21
45.077989086
 31
0.0
  0
LINE
  5
250
330
212
100
AcDbEntity
  8
0
  6
Continuous
 62
     7
100
AcDbLine
 10
187.1478209616999
 20
44.8628723464
 30
0.0
 11
183.0431490492
 21
45.077989086
 31
0.0
  0
LINE
  5
251
330
212
100
AcDbEntity
  8
0
  6
Continuous
 62
     9
100
AcDbLine
 10
229.0954850055
 20
46.07661862079999
 30
0.0
 11
182.0954850055
 21
46.07661862079999
 31
0.0
  0
LINE
  5
252
330
212
100
AcDbEntity
  8
0
  6
Continuous
 62
     7
100
AcDbLine
 10
115.5954850055
 20
232.3132073784
 30
0.0
 11
115.5954850055
 21
233.3132073784
 31
0.0
  0
LINE
  5
253
330
212
100
AcDbEntity
  8
0
  6
Continuous
 62
     7
100
AcDbLine
 10
128.7692974038
 20
216.0177448747
 30
0.0
 11
128.3711950096
 21
227.4179058685
 31
0.0
  0
LINE
  5
254
330
212
100
AcDbEntity
  8
AUSFORMSCHRAEGEN
  6
Continuous
 62
     7
100
AcDbLine
 10
132.4870258033
 20
235.3132073784
 30
0.0
 11
132.5611415956
 21
236.3132073784
 31
0.0
  0
LINE
  5
255
330
212
100
AcDbEntity
  8
AUSFORMSCHRAEGEN
  6
Continuous
 62
     7
100
AcDbLine
 10
132.7836936979
 20
235.3132073784
 30
0.0
 11
132.8578094901
 21
236.3132073784
 31
0.0
  0
LINE
  5
256
330
212
100
AcDbEntity
  8
0
  6
Continuous
 62
     7
100
AcDbLine
 10
133.2137705453
 20
210.4313076741
 30
0.0
 11
133.5007875188
 21
202.2122169253
 31
0.0
  0
LINE
  5
257
330
212
100
AcDbEntity
  8
0
  6
Continuous
 62
     7
100
AcDbLine
 10
134.6526990672
 20
197.8794944137
 30
0.0
 11
136.1096618889
 21
156.1575380268
 31
0.0
  0
LINE
  5
258
330
212
100
AcDbEntity
  8
AUSFORMSCHRAEGEN
  6
Continuous
 62
     9
100
AcDbLine
 10
137.1674676980999
 20
235.3132073784
 30
0.0
 11
137.164265055
 21
236.3132073784
 31
0.0
  0
LINE
  5
259
330
212
100
AcDbEntity
  8
0
  6
Continuous
 62
     7
100
AcDbLine
 10
134.5954850055
 20
219.7959046415
 30
0.0
 11
134.5954850055
 21
228.8305101153
 31
0.0
  0
LINE
  5
25A
330
212
100
AcDbEntity
  8
AUSFORMSCHRAEGEN
  6
Continuous
 62
     7
100
AcDbLine
 10
139.866282414
 20
235.3132073784
 30
0.0
 11
139.866282414
 21
236.3132073784
 31
0.0
  0
LINE
  5
25B
330
212
100
AcDbEntity
  8
AUSFORMSCHRAEGEN
  6
Continuous
 62
     9
100
AcDbLine
 10
135.6898881644
 20
235.3132073784
 30
0.0
 11
135.7269460604999
 21
236.3132073784
 31
0.0
  0
LINE
  5
25C
330
212
100
AcDbEntity
  8
AUSFORMSCHRAEGEN
  6
Continuous
 62
     7
100
AcDbLine
 10
141.4389109755999
 20
235.3132073784
 30
0.0
 11
141.3647951834
 21
236.3132073784
 31
0.0
  0
LINE
  5
25D
330
212
100
AcDbEntity
  8
0
  6
Continuous
 62
     7
100
AcDbLine
 10
145.693906039
 20
235.3132073784
 30
0.0
 11
145.6415368977
 21
236.3132073784
 31
0.0
  0
LINE
  5
25E
330
212
100
AcDbEntity
  8
AUSFORMSCHRAEGEN
  6
Continuous
 62
     9
100
AcDbLine
 10
139.5868962677
 20
235.3132073784
 30
0.0
 11
139.5345999592
 21
236.3132073784
 31
0.0
  0
LINE
  5
25F
330
212
100
AcDbEntity
  8
0
  6
Continuous
 62
     7
100
AcDbLine
 10
139.5913441146
 20
235.3132073784
 30
0.0
 11
139.5389847457
 21
236.3132073784
 31
0.0
  0
LINE
  5
260
330
212
100
AcDbEntity
  8
AUSFORMSCHRAEGEN
  6
Continuous
 62
     9
100
AcDbLine
 10
145.6095452466
 20
235.3132073784
 30
0.0
 11
145.5591181623
 21
236.3132073784
 31
0.0
  0
LINE
  5
261
330
212
100
AcDbEntity
  8
AUSFORMSCHRAEGEN
  6
Continuous
 62
     9
100
AcDbLine
 10
138.7977016666
 20
235.3132073784
 30
0.0
 11
138.7606437705
 21
236.3132073784
 31
0.0
  0
LINE
  5
262
330
212
100
AcDbEntity
  8
AUSFORMSCHRAEGEN
  6
Continuous
 62
     9
100
AcDbLine
 10
144.762745139
 20
235.3132073784
 30
0.0
 11
144.7256872429
 21
236.3132073784
 31
0.0
  0
LINE
  5
263
330
212
100
AcDbEntity
  8
0
  6
Continuous
 62
     7
100
AcDbLine
 10
141.842639179
 20
156.6971777499
 30
0.0
 11
141.5994022571
 21
217.7160715545
 31
0.0
  0
LINE
  5
264
330
212
100
AcDbEntity
  8
0
  6
Continuous
 62
     7
100
AcDbLine
 10
141.5954850055
 20
230.918090096
 30
0.0
 11
141.5954850055
 21
234.3132073784
 31
0.0
  0
LINE
  5
265
330
212
100
AcDbEntity
  8
AUSFORMSCHRAEGEN
  6
Continuous
 62
     7
100
AcDbLine
 10
143.1987575242
 20
235.3132073784
 30
0.0
 11
143.1987575242
 21
236.3132073784
 31
0.0
  0
LINE
  5
266
330
212
100
AcDbEntity
  8
AUSFORMSCHRAEGEN
  6
Continuous
 62
     7
100
AcDbLine
 10
147.4644402306
 20
235.3132073784
 30
0.0
 11
147.4644402306
 21
236.3132073784
 31
0.0
  0
LINE
  5
267
330
212
100
AcDbEntity
  8
AUSFORMSCHRAEGEN
  6
Continuous
 62
     7
100
AcDbLine
 10
149.1695607823
 20
235.3132073784
 30
0.0
 11
149.1695607823
 21
236.3132073784
 31
0.0
  0
LINE
  5
268
330
212
100
AcDbEntity
  8
0
  6
Continuous
 62
     7
100
AcDbLine
 10
136.651583403
 20
154.0620830116
 30
0.0
 11
149.8091503938
 21
128.2389038087
 31
0.0
  0
LINE
  5
269
330
212
100
AcDbEntity
  8
AUSFORMSCHRAEGEN
  6
Continuous
 62
     7
100
AcDbLine
 10
148.328521769
 20
235.3132073784
 30
0.0
 11
148.2544059767
 21
236.3132073784
 31
0.0
  0
LINE
  5
26A
330
212
100
AcDbEntity
  8
AUSFORMSCHRAEGEN
  6
Continuous
 62
     7
100
AcDbLine
 10
150.0336433322
 20
235.3132073784
 30
0.0
 11
149.9595275399
 21
236.3132073784
 31
0.0
  0
LINE
  5
26B
330
212
100
AcDbEntity
  8
AUSFORMSCHRAEGEN
  6
Continuous
 62
     7
100
AcDbLine
 10
152.5855635285
 20
235.3132073784
 30
0.0
 11
152.5114477362
 21
236.3132073784
 31
0.0
  0
LINE
  5
26C
330
212
100
AcDbEntity
  8
AUSFORMSCHRAEGEN
  6
Continuous
 62
     7
100
AcDbLine
 10
151.6955596552
 20
235.3132073784
 30
0.0
 11
151.6800204938
 21
236.3132073784
 31
0.0
  0
LINE
  5
26D
330
212
100
AcDbEntity
  8
AUSFORMSCHRAEGEN
  6
Continuous
 62
     7
100
AcDbLine
 10
155.3736665716
 20
235.3132073784
 30
0.0
 11
155.3736665716
 21
236.3132073784
 31
0.0
  0
LINE
  5
26E
330
212
100
AcDbEntity
  8
AUSFORMSCHRAEGEN
  6
Continuous
 62
     7
100
AcDbLine
 10
159.1785073756
 20
235.3132073784
 30
0.0
 11
159.1785073756
 21
236.3132073784
 31
0.0
  0
LINE
  5
26F
330
212
100
AcDbEntity
  8
0
  6
Continuous
 62
     7
100
AcDbLine
 10
166.3458457216
 20
113.953137957
 30
0.0
 11
162.8273613288
 21
116.6045061214
 31
0.0
  0
LINE
  5
270
330
212
100
AcDbEntity
  8
0
  6
Continuous
 62
     7
100
AcDbLine
 10
153.7922958965
 20
132.5363315553
 30
0.0
 11
142.1695957714
 21
155.3471649231999
 31
0.0
  0
LINE
  5
271
330
212
100
AcDbEntity
  8
0
  6
Continuous
 62
     7
100
AcDbLine
 10
161.662002192
 20
118.5828933486
 30
0.0
 11
160.9396613586
 21
123.7226154438
 31
0.0
  0
LINE
  5
272
330
212
100
AcDbEntity
  8
AUSFORMSCHRAEGEN
  6
Continuous
 62
     7
100
AcDbLine
 10
158.5506076726
 20
235.3132073784
 30
0.0
 11
158.4764918803
 21
236.3132073784
 31
0.0
  0
LINE
  5
273
330
212
100
AcDbEntity
  8
AUSFORMSCHRAEGEN
  6
Continuous
 62
     7
100
AcDbLine
 10
160.0425879023999
 20
235.3132073784
 30
0.0
 11
159.9684721102
 21
236.3132073784
 31
0.0
  0
LINE
  5
274
330
212
100
AcDbEntity
  8
AUSFORMSCHRAEGEN
  6
Continuous
 62
     7
100
AcDbLine
 10
162.5945101217
 20
235.3132073784
 30
0.0
 11
162.5203943295
 21
236.3132073784
 31
0.0
  0
LINE
  5
275
330
212
100
AcDbEntity
  8
AUSFORMSCHRAEGEN
  6
Continuous
 62
     7
100
AcDbLine
 10
161.7045042254
 20
235.3132073784
 30
0.0
 11
161.688965064
 21
236.3132073784
 31
0.0
  0
LINE
  5
276
330
212
100
AcDbEntity
  8
AUSFORMSCHRAEGEN
  6
Continuous
 62
     7
100
AcDbLine
 10
162.6837966187
 20
235.3132073784
 30
0.0
 11
162.6837966187
 21
236.3132073784
 31
0.0
  0
LINE
  5
277
330
212
100
AcDbEntity
  8
AUSFORMSCHRAEGEN
  6
Continuous
 62
     7
100
AcDbLine
 10
163.6342876259
 20
235.3132073784
 30
0.0
 11
163.6342876259
 21
236.3132073784
 31
0.0
  0
LINE
  5
278
330
212
100
AcDbEntity
  8
AUSFORMSCHRAEGEN
  6
Continuous
 62
     7
100
AcDbLine
 10
166.4627148349
 20
235.3132073784
 30
0.0
 11
166.4627148349
 21
236.3132073784
 31
0.0
  0
LINE
  5
279
330
212
100
AcDbEntity
  8
0
  6
Continuous
 62
     7
100
AcDbLine
 10
168.0954850055
 20
120.5131151766
 30
0.0
 11
168.0954850055
 21
130.3370824378
 31
0.0
  0
LINE
  5
27A
330
212
100
AcDbEntity
  8
AUSFORMSCHRAEGEN
  6
Continuous
 62
     7
100
AcDbLine
 10
168.5710735053
 20
235.3132073784
 30
0.0
 11
168.5710735053
 21
236.3132073784
 31
0.0
  0
LINE
  5
27B
330
212
100
AcDbEntity
  8
AUSFORMSCHRAEGEN
  6
Continuous
 62
     9
100
AcDbLine
 10
167.6263446467
 20
235.3132073784
 30
0.0
 11
167.6634025428
 21
236.3132073784
 31
0.0
  0
LINE
  5
27C
330
212
100
AcDbEntity
  8
AUSFORMSCHRAEGEN
  6
Continuous
 62
     9
100
AcDbLine
 10
168.4357007255
 20
235.3132073784
 30
0.0
 11
168.4727586216
 21
236.3132073784
 31
0.0
  0
LINE
  5
27D
330
212
100
AcDbEntity
  8
AUSFORMSCHRAEGEN
  6
Continuous
 62
     9
100
AcDbLine
 10
168.0007792496
 20
235.3132073784
 30
0.0
 11
168.0491556793
 21
236.3132073784
 31
0.0
  0
LINE
  5
27E
330
212
100
AcDbEntity
  8
AUSFORMSCHRAEGEN
  6
Continuous
 62
     9
100
AcDbLine
 10
167.7976373842
 20
235.3132073784
 30
0.0
 11
167.8499459871
 21
236.3132073784
 31
0.0
  0
LINE
  5
27F
330
212
100
AcDbEntity
  8
0
  6
Continuous
 62
     7
100
AcDbLine
 10
167.8460666134
 20
236.3132073784
 30
0.0
 11
167.7936069241
 21
235.3132073784
 31
0.0
  0
LINE
  5
280
330
212
100
AcDbEntity
  8
AUSFORMSCHRAEGEN
  6
Continuous
 62
     7
100
AcDbLine
 10
174.0257197668999
 20
236.2767876827
 30
0.0
 11
174.0284190415
 21
236.3132073784
 31
0.0
  0
LINE
  5
281
330
212
100
AcDbEntity
  8
0
  6
Continuous
 62
     7
100
AcDbLine
 10
134.1460775531
 20
199.9042989632
 30
0.0
 11
134.0074103642
 21
200.1874171121
 31
0.0
  0
LINE
  5
282
330
212
100
AcDbEntity
  8
AUSFORMSCHRAEGEN
  6
Continuous
 62
     7
100
AcDbLine
 10
167.2778315134
 20
235.3132073784
 30
0.0
 11
167.2037157211
 21
236.3132073784
 31
0.0
  0
LINE
  5
283
330
212
100
AcDbEntity
  8
AUSFORMSCHRAEGEN
  6
Continuous
 62
     7
100
AcDbLine
 10
171.3620573698
 20
235.3132073784
 30
0.0
 11
171.2879415776
 21
236.3132073784
 31
0.0
  0
LINE
  5
284
330
212
100
AcDbEntity
  8
AUSFORMSCHRAEGEN
  6
Continuous
 62
     9
100
AcDbLine
 10
173.4214513462
 20
235.3132073784
 30
0.0
 11
173.3843934501
 21
236.3132073784
 31
0.0
  0
LINE
  5
285
330
212
100
AcDbEntity
  8
AUSFORMSCHRAEGEN
  6
Continuous
 62
     9
100
AcDbLine
 10
175.9589721011
 20
235.3132073784
 30
0.0
 11
175.9399098362
 21
236.3132073784
 31
0.0
  0
LINE
  5
286
330
212
100
AcDbEntity
  8
0
  6
Continuous
 62
     7
100
AcDbLine
 10
176.5783345735
 20
39.7957549719
 30
0.0
 11
175.3485309454999
 21
110.2511576289
 31
0.0
  0
LINE
  5
287
330
212
100
AcDbEntity
  8
AUSFORMSCHRAEGEN
  6
Continuous
 62
     9
100
AcDbLine
 10
172.229017254
 20
235.3132073784
 30
0.0
 11
172.2226047304
 21
236.3132073784
 31
0.0
  0
LINE
  5
288
330
212
100
AcDbEntity
  8
AUSFORMSCHRAEGEN
  6
Continuous
 62
     9
100
AcDbLine
 10
175.0344033251
 20
235.3132073784
 30
0.0
 11
175.0457720117
 21
236.3132073784
 31
0.0
  0
LINE
  5
289
330
212
100
AcDbEntity
  8
0
  6
Continuous
 62
     7
100
AcDbLine
 10
238.7372836608
 20
113.1969728906
 30
0.0
 11
243.14437771
 21
113.3508720061
 31
0.0
  0
LINE
  5
28A
330
212
100
AcDbEntity
  8
0
  6
Continuous
 62
     7
100
AcDbLine
 10
230.0780325991
 20
118.3031974365
 30
0.0
 11
234.8637832683
 21
118.3867330252
 31
0.0
  0
LINE
  5
28B
330
212
100
AcDbEntity
  8
0
  6
Continuous
 62
     7
100
AcDbLine
 10
236.5780325991
 20
119.4166553585
 30
0.0
 11
242.1129374119
 21
119.5132674814
 31
0.0
  0
LINE
  5
28C
330
212
100
AcDbEntity
  8
0
  6
Continuous
 62
     9
100
AcDbLine
 10
229.0954850055
 20
117.3033497414
 30
0.0
 11
182.0954850055
 21
117.3033497414
 31
0.0
  0
LINE
  5
28D
330
212
100
AcDbEntity
  8
0
  6
Continuous
 62
     9
100
AcDbLine
 10
181.1129374119
 20
118.3031974365
 30
0.0
 11
230.0780325991
 21
118.3031974365
 31
0.0
  0
LINE
  5
28E
330
212
100
AcDbEntity
  8
0
  6
Continuous
 62
     9
100
AcDbLine
 10
176.3271867426
 20
118.3867330252
 30
0.0
 11
234.8637832683
 21
118.3867330252
 31
0.0
  0
LINE
  5
28F
330
212
100
AcDbEntity
  8
0
  6
Continuous
 62
     9
100
AcDbLine
 10
175.4700620772999
 20
118.9016941919
 30
0.0
 11
235.7209079337
 21
118.9016941919
 31
0.0
  0
LINE
  5
290
330
212
100
AcDbEntity
  8
0
  6
Continuous
 62
     9
100
AcDbLine
 10
174.6129374119
 20
119.4166553585
 30
0.0
 11
236.5780325991
 21
119.4166553585
 31
0.0
  0
LINE
  5
291
330
212
100
AcDbEntity
  8
0
  6
Continuous
 62
     9
100
AcDbLine
 10
236.5780325991
 20
119.5132674814
 30
0.0
 11
169.0780325991
 21
119.5132674814
 31
0.0
  0
LINE
  5
292
330
212
100
AcDbEntity
  8
0
  6
Continuous
 62
     7
100
AcDbLine
 10
181.1129374119
 20
118.3031974365
 30
0.0
 11
176.3271867426
 21
118.3867330252
 31
0.0
  0
LINE
  5
293
330
212
100
AcDbEntity
  8
0
  6
Continuous
 62
     7
100
AcDbLine
 10
174.6129374119
 20
119.4166553585
 30
0.0
 11
169.0780325991
 21
119.5132674814
 31
0.0
  0
LINE
  5
294
330
212
100
AcDbEntity
  8
0
  6
Continuous
 62
     7
100
AcDbLine
 10
172.4536863502
 20
113.1969728906
 30
0.0
 11
168.0465923009
 21
113.3508720061
 31
0.0
  0
LINE
  5
295
330
212
100
AcDbEntity
  8
0
  6
Continuous
 62
     7
100
AcDbLine
 10
174.0762112445
 20
235.3132073784
 30
0.0
 11
174.0238113798
 21
236.3132073784
 31
0.0
  0
LINE
  5
296
330
212
100
AcDbEntity
  8
AUSFORMSCHRAEGEN
  6
Continuous
 62
     9
100
AcDbLine
 10
177.4668130585
 20
235.3132073784
 30
0.0
 11
177.414410475
 21
236.3132073784
 31
0.0
  0
LINE
  5
297
330
212
100
AcDbEntity
  8
0
  6
Continuous
 62
     7
100
AcDbLine
 10
177.4670090154
 20
235.3132073784
 30
0.0
 11
177.4146035116
 21
236.3132073784
 31
0.0
  0
LINE
  5
298
330
212
100
AcDbEntity
  8
AUSFORMSCHRAEGEN
  6
Continuous
 62
     9
100
AcDbLine
 10
176.8057731493
 20
235.3132073784
 30
0.0
 11
176.7687152532
 21
236.3132073784
 31
0.0
  0
LINE
  5
299
330
212
100
AcDbEntity
  8
0
  6
Continuous
 62
     7
100
AcDbLine
 10
182.0954850055
 20
46.07661862079999
 30
0.0
 11
182.0954850055
 21
117.3033497414
 31
0.0
  0
LINE
  5
29A
330
212
100
AcDbEntity
  8
0
  6
Continuous
 62
     7
100
AcDbLine
 10
258.8658079134
 20
126.6049867037
 30
0.0
 11
253.0651049898
 21
126.3009847452
 31
0.0
  0
LINE
  5
29B
330
212
100
AcDbEntity
  8
0
  6
Continuous
 62
     7
100
AcDbLine
 10
244.0431490492
 20
131.3357119725
 30
0.0
 11
256.5600035465
 21
131.9916925203
 31
0.0
  0
LINE
  5
29C
330
212
100
AcDbEntity
  8
0
  6
Continuous
 62
     9
100
AcDbLine
 10
243.0954850055
 20
120.5131151766
 30
0.0
 11
168.0954850055
 21
120.5131151766
 31
0.0
  0
LINE
  5
29D
330
212
100
AcDbEntity
  8
0
  6
Continuous
 62
     7
100
AcDbLine
 10
152.3251620976
 20
126.6049867037
 30
0.0
 11
158.1258650211
 21
126.3009847452
 31
0.0
  0
LINE
  5
29E
330
212
100
AcDbEntity
  8
0
  6
Continuous
 62
     7
100
AcDbLine
 10
167.1478209617
 20
131.3357119725
 30
0.0
 11
154.6309664645
 21
131.9916925203
 31
0.0
  0
LINE
  5
29F
330
212
100
AcDbEntity
  8
RUNDUNGEN
  6
Continuous
 62
     9
100
AcDbLine
 10
188.1126479523
 20
159.7650728297
 30
0.0
 11
188.1158112864
 21
156.6971777499
 31
0.0
  0
LINE
  5
2A0
330
212
100
AcDbEntity
  8
RUNDUNGEN
  6
Continuous
 62
     9
100
AcDbLine
 10
189.3527480408
 20
159.7690673794
 30
0.0
 11
189.3559136552
 21
156.7011639741
 31
0.0
  0
LINE
  5
2A1
330
212
100
AcDbEntity
  8
0
  6
Continuous
 62
     7
100
AcDbLine
 10
188.0954850055
 20
39.8132073784
 30
0.0
 11
188.0954850055
 21
43.8642428117
 31
0.0
  0
LINE
  5
2A2
330
212
100
AcDbEntity
  8
RUNDUNGEN
  6
Continuous
 62
     9
100
AcDbLine
 10
190.6652469866
 20
230.918090096
 30
0.0
 11
190.6652469866
 21
234.3132073784
 31
0.0
  0
LINE
  5
2A3
330
212
100
AcDbEntity
  8
RUNDUNGEN
  6
Continuous
 62
     9
100
AcDbLine
 10
191.3978878438
 20
230.9180909939
 30
0.0
 11
191.3978878438
 21
234.3132073784
 31
0.0
  0
LINE
  5
2A4
330
212
100
AcDbEntity
  8
RUNDUNGEN
  6
Continuous
 62
     9
100
AcDbLine
 10
193.100754073
 20
230.8159399971
 30
0.0
 11
193.100754073
 21
234.3132073784
 31
0.0
  0
LINE
  5
2A5
330
212
100
AcDbEntity
  8
RUNDUNGEN
  6
Continuous
 62
     9
100
AcDbLine
 10
193.6961404279
 20
154.7874143053
 30
0.0
 11
193.6961404279
 21
158.8897345339
 31
0.0
  0
LINE
  5
2A6
330
212
100
AcDbEntity
  8
RUNDUNGEN
  6
Continuous
 62
     9
100
AcDbLine
 10
193.9019826835
 20
230.8159408896
 30
0.0
 11
193.9019826835
 21
234.3132073784
 31
0.0
  0
LINE
  5
2A7
330
212
100
AcDbEntity
  8
RUNDUNGEN
  6
Continuous
 62
     9
100
AcDbLine
 10
195.4858049012
 20
154.7959046415
 30
0.0
 11
195.4858049012
 21
158.8642428117
 31
0.0
  0
LINE
  5
2A8
330
212
100
AcDbEntity
  8
RUNDUNGEN
  6
Continuous
 62
     9
100
AcDbLine
 10
190.6591380404
 20
213.3840621072
 30
0.0
 11
190.6641210952999
 21
217.7160715545
 31
0.0
  0
LINE
  5
2A9
330
212
100
AcDbEntity
  8
0
  6
Continuous
 62
     9
100
AcDbLine
 10
168.0954850055
 20
130.3370824378
 30
0.0
 11
243.0954850055
 21
130.3370824378
 31
0.0
  0
LINE
  5
2AA
330
212
100
AcDbEntity
  8
0
  6
Continuous
 62
     9
100
AcDbLine
 10
167.1478209617
 20
131.3357119725
 30
0.0
 11
244.0431490492
 21
131.3357119725
 31
0.0
  0
LINE
  5
2AB
330
212
100
AcDbEntity
  8
RUNDUNGEN
  6
Continuous
 62
     9
100
AcDbLine
 10
216.2376219634
 20
131.7557717841
 30
0.0
 11
194.9533480476
 21
131.7557717841
 31
0.0
  0
LINE
  5
2AC
330
212
100
AcDbEntity
  8
0
  6
Continuous
 62
     9
100
AcDbLine
 10
256.5600035465
 20
131.9916925203
 30
0.0
 11
219.7504471172
 21
131.9916925205
 31
0.0
  0
LINE
  5
2AD
330
212
100
AcDbEntity
  8
0
  6
Continuous
 62
     9
100
AcDbLine
 10
191.4405228938
 20
131.9916925205
 30
0.0
 11
154.6309664645
 21
131.9916925203
 31
0.0
  0
LINE
  5
2AE
330
212
100
AcDbEntity
  8
0
  6
Continuous
 62
     9
100
AcDbLine
 10
153.7922958965
 20
132.5363315553
 30
0.0
 11
191.2075861446
 21
132.5363315546
 31
0.0
  0
LINE
  5
2AF
330
212
100
AcDbEntity
  8
0
  6
Continuous
 62
     9
100
AcDbLine
 10
219.9833807433
 20
132.5363315546
 30
0.0
 11
257.3986741145
 21
132.5363315553
 31
0.0
  0
LINE
  5
2B0
330
212
100
AcDbEntity
  8
RUNDUNGEN
  6
Continuous
 62
     9
100
AcDbLine
 10
216.4504995994
 20
132.5635923232
 30
0.0
 11
194.7404704981
 21
132.5635923232
 31
0.0
  0
LINE
  5
2B1
330
212
100
AcDbEntity
  8
0
  6
Continuous
 62
     7
100
AcDbLine
 10
197.5954850055
 20
235.3132073784
 30
0.0
 11
197.5954850055
 21
236.9132073784
 31
0.0
  0
LINE
  5
2B2
330
212
100
AcDbEntity
  8
0
  6
Continuous
 62
     7
100
AcDbLine
 10
197.5954850055
 20
237.6894248007
 30
0.0
 11
197.5954850055
 21
247.6894248007
 31
0.0
  0
LINE
  5
2B3
330
212
100
AcDbEntity
  8
0
  6
Continuous
 62
     7
100
AcDbLine
 10
198.5954850055
 20
247.6894248007
 30
0.0
 11
198.5954850055
 21
255.6894248007
 31
0.0
  0
LINE
  5
2B4
330
212
100
AcDbEntity
  8
0
  6
Continuous
 62
     7
100
AcDbLine
 10
199.0954850055
 20
237.6894248007
 30
0.0
 11
199.0954850055
 21
237.0632073784
 31
0.0
  0
LINE
  5
2B5
330
212
100
AcDbEntity
  8
0
  6
Continuous
 62
     7
100
AcDbLine
 10
199.7954850055
 20
237.0632073784
 30
0.0
 11
199.7954850055
 21
236.9132073784
 31
0.0
  0
LINE
  5
2B6
330
212
100
AcDbEntity
  8
0
  6
CENTER
100
AcDbLine
 10
205.5954850055
 20
35.8132073784
 30
0.0
 11
205.5954850055
 21
257.6151465757
 31
0.0
  0
LINE
  5
2B7
330
212
100
AcDbEntity
  8
0
  6
Continuous
 62
     7
100
AcDbLine
 10
211.3954850055
 20
237.0632073784
 30
0.0
 11
211.3954850055
 21
236.9132073784
 31
0.0
  0
LINE
  5
2B8
330
212
100
AcDbEntity
  8
0
  6
Continuous
 62
     7
100
AcDbLine
 10
212.0954850055
 20
237.0632073784
 30
0.0
 11
212.0954850055
 21
237.6894248007
 31
0.0
  0
LINE
  5
2B9
330
212
100
AcDbEntity
  8
0
  6
Continuous
 62
     7
100
AcDbLine
 10
212.5954850055
 20
247.6894248007
 30
0.0
 11
212.5954850055
 21
255.6894248007
 31
0.0
  0
LINE
  5
2BA
330
212
100
AcDbEntity
  8
0
  6
Continuous
 62
     7
100
AcDbLine
 10
213.5954850055
 20
235.3132073784
 30
0.0
 11
213.5954850055
 21
236.9132073784
 31
0.0
  0
LINE
  5
2BB
330
212
100
AcDbEntity
  8
0
  6
Continuous
 62
     7
100
AcDbLine
 10
213.5954850055
 20
237.6894248007
 30
0.0
 11
213.5954850055
 21
247.6894248007
 31
0.0
  0
LINE
  5
2BC
330
212
100
AcDbEntity
  8
RUNDUNGEN
  6
Continuous
 62
     9
100
AcDbLine
 10
215.7051651098
 20
158.8642428117
 30
0.0
 11
215.7051651098
 21
154.7959046415
 31
0.0
  0
LINE
  5
2BD
330
212
100
AcDbEntity
  8
RUNDUNGEN
  6
Continuous
 62
     9
100
AcDbLine
 10
193.7392166665
 20
152.5211828107
 30
0.0
 11
217.451753225
 21
152.5211828107
 31
0.0
  0
LINE
  5
2BE
330
212
100
AcDbEntity
  8
RUNDUNGEN
  6
Continuous
 62
     9
100
AcDbLine
 10
193.9622025411999
 20
153.7118395014
 30
0.0
 11
217.2287674698
 21
153.7118395014
 31
0.0
  0
LINE
  5
2BF
330
212
100
AcDbEntity
  8
RUNDUNGEN
  6
Continuous
 62
     9
100
AcDbLine
 10
215.9283840279
 20
153.7960569463
 30
0.0
 11
195.2625859831
 21
153.7960569463
 31
0.0
  0
LINE
  5
2C0
330
212
100
AcDbEntity
  8
RUNDUNGEN
  6
Continuous
 62
     9
100
AcDbLine
 10
215.7051651098
 20
154.7959046415
 30
0.0
 11
195.4858049012
 21
154.7959046415
 31
0.0
  0
LINE
  5
2C1
330
212
100
AcDbEntity
  8
0
  6
Continuous
 62
     9
100
AcDbLine
 10
269.0213742396
 20
155.3471649231999
 30
0.0
 11
222.9889025602
 21
155.3471649276
 31
0.0
  0
LINE
  5
2C2
330
212
100
AcDbEntity
  8
0
  6
Continuous
 62
     9
100
AcDbLine
 10
188.2020674508
 20
155.3471649276
 30
0.0
 11
142.1695957714
 21
155.3471649231999
 31
0.0
  0
LINE
  5
2C3
330
212
100
AcDbEntity
  8
0
  6
Continuous
 62
     9
100
AcDbLine
 10
141.842639179
 20
156.6971777499
 30
0.0
 11
188.1158112864
 21
156.6971777499
 31
0.0
  0
LINE
  5
2C4
330
212
100
AcDbEntity
  8
0
  6
Continuous
 62
     9
100
AcDbLine
 10
223.0751587246
 20
156.6971777499
 30
0.0
 11
269.3483308319
 21
156.6971777499
 31
0.0
  0
LINE
  5
2C5
330
212
100
AcDbEntity
  8
RUNDUNGEN
  6
Continuous
 62
     9
100
AcDbLine
 10
220.5268489157
 20
217.7160715545
 30
0.0
 11
220.5318319795
 21
213.3840621069
 31
0.0
  0
LINE
  5
2C6
330
212
100
AcDbEntity
  8
RUNDUNGEN
  6
Continuous
 62
     9
100
AcDbLine
 10
217.2889873275
 20
234.3132073784
 30
0.0
 11
217.2889873275
 21
230.8159408916
 31
0.0
  0
LINE
  5
2C7
330
212
100
AcDbEntity
  8
RUNDUNGEN
  6
Continuous
 62
     9
100
AcDbLine
 10
217.494829583
 20
158.8897345339
 30
0.0
 11
217.494829583
 21
154.7874143053
 31
0.0
  0
LINE
  5
2C8
330
212
100
AcDbEntity
  8
RUNDUNGEN
  6
Continuous
 62
     9
100
AcDbLine
 10
218.090215938
 20
234.3132073784
 30
0.0
 11
218.090215938
 21
230.815939809
 31
0.0
  0
LINE
  5
2C9
330
212
100
AcDbEntity
  8
RUNDUNGEN
  6
Continuous
 62
     9
100
AcDbLine
 10
219.7930821671
 20
234.3132073784
 30
0.0
 11
219.7930821671
 21
230.9180906824
 31
0.0
  0
LINE
  5
2CA
330
212
100
AcDbEntity
  8
RUNDUNGEN
  6
Continuous
 62
     9
100
AcDbLine
 10
220.5257230244
 20
234.3132073784
 30
0.0
 11
220.5257230244
 21
230.918090096
 31
0.0
  0
LINE
  5
2CB
330
212
100
AcDbEntity
  8
0
  6
Continuous
 62
     7
100
AcDbLine
 10
223.0954850055
 20
39.8132073784
 30
0.0
 11
223.0954850055
 21
43.8642428117
 31
0.0
  0
LINE
  5
2CC
330
212
100
AcDbEntity
  8
RUNDUNGEN
  6
Continuous
 62
     9
100
AcDbLine
 10
221.8350563558
 20
156.7011639741
 30
0.0
 11
221.8382219702
 21
159.7690673794
 31
0.0
  0
LINE
  5
2CD
330
212
100
AcDbEntity
  8
RUNDUNGEN
  6
Continuous
 62
     9
100
AcDbLine
 10
223.0751587246
 20
156.6971777499
 30
0.0
 11
223.0783220587
 21
159.765072823
 31
0.0
  0
LINE
  5
2CE
330
212
100
AcDbEntity
  8
RUNDUNGEN
  6
Continuous
 62
     9
100
AcDbLine
 10
215.7051651098
 20
158.8642428117
 30
0.0
 11
195.4858049012
 21
158.8642428117
 31
0.0
  0
LINE
  5
2CF
330
212
100
AcDbEntity
  8
RUNDUNGEN
  6
Continuous
 62
     9
100
AcDbLine
 10
215.9204590497
 20
159.8628723464
 30
0.0
 11
195.2705109613
 21
159.8628723464
 31
0.0
  0
LINE
  5
2D0
330
212
100
AcDbEntity
  8
RUNDUNGEN
  6
Continuous
 62
     9
100
AcDbLine
 10
220.8889397739
 20
160.773601122
 30
0.0
 11
190.3020302371
 21
160.773601122
 31
0.0
  0
LINE
  5
2D1
330
212
100
AcDbEntity
  8
RUNDUNGEN
  6
Continuous
 62
     9
100
AcDbLine
 10
221.119400339
 20
161.7682444326
 30
0.0
 11
190.071569672
 21
161.7682444326
 31
0.0
  0
LINE
  5
2D2
330
212
100
AcDbEntity
  8
0
  6
Continuous
 62
     7
100
AcDbLine
 10
229.0954850055
 20
46.07661862079999
 30
0.0
 11
229.0954850055
 21
117.3033497414
 31
0.0
  0
LINE
  5
2D3
330
212
100
AcDbEntity
  8
0
  6
Continuous
 62
     7
100
AcDbLine
 10
243.0954850055
 20
120.5131151766
 30
0.0
 11
243.0954850055
 21
130.3370824378
 31
0.0
  0
LINE
  5
2D4
330
212
100
AcDbEntity
  8
0
  6
Continuous
 62
     7
100
AcDbLine
 10
234.6126354375
 20
39.7957549719
 30
0.0
 11
235.8424390655
 21
110.2511576289
 31
0.0
  0
LINE
  5
2D5
330
212
100
AcDbEntity
  8
AUSFORMSCHRAEGEN
  6
Continuous
 62
     7
100
AcDbLine
 10
250.4104785582
 20
235.3132073784
 30
0.0
 11
250.4845943504
 21
236.3132073784
 31
0.0
  0
LINE
  5
2D6
330
212
100
AcDbEntity
  8
AUSFORMSCHRAEGEN
  6
Continuous
 62
     7
100
AcDbLine
 10
251.2255956159
 20
235.3132073784
 30
0.0
 11
251.2255956159
 21
236.3132073784
 31
0.0
  0
LINE
  5
2D7
330
212
100
AcDbEntity
  8
AUSFORMSCHRAEGEN
  6
Continuous
 62
     9
100
AcDbLine
 10
255.7505030225
 20
235.3132073784
 30
0.0
 11
255.7875609186
 21
236.3132073784
 31
0.0
  0
LINE
  5
2D8
330
212
100
AcDbEntity
  8
0
  6
Continuous
 62
     7
100
AcDbLine
 10
255.19620752
 20
236.3132073784
 30
0.0
 11
255.1438321402
 21
235.3132073784
 31
0.0
  0
LINE
  5
2D9
330
212
100
AcDbEntity
  8
AUSFORMSCHRAEGEN
  6
Continuous
 62
     9
100
AcDbLine
 10
255.147188588
 20
235.3132073784
 30
0.0
 11
255.1994786515
 21
236.3132073784
 31
0.0
  0
LINE
  5
2DA
330
212
100
AcDbEntity
  8
AUSFORMSCHRAEGEN
  6
Continuous
 62
     7
100
AcDbLine
 10
253.6133411089
 20
235.3132073784
 30
0.0
 11
253.6874569012
 21
236.3132073784
 31
0.0
  0
LINE
  5
2DB
330
212
100
AcDbEntity
  8
AUSFORMSCHRAEGEN
  6
Continuous
 62
     7
100
AcDbLine
 10
257.8502214177
 20
235.3132073784
 30
0.0
 11
257.9243372099
 21
236.3132073784
 31
0.0
  0
LINE
  5
2DC
330
212
100
AcDbEntity
  8
0
  6
Continuous
 62
     7
100
AcDbLine
 10
249.528967819
 20
118.5828933486
 30
0.0
 11
250.2513086523
 21
123.7226154438
 31
0.0
  0
LINE
  5
2DD
330
212
100
AcDbEntity
  8
0
  6
Continuous
 62
     7
100
AcDbLine
 10
277.1835621007
 20
200.1874178137
 30
0.0
 11
277.0448948753
 21
199.9042995495
 31
0.0
  0
LINE
  5
2DE
330
212
100
AcDbEntity
  8
AUSFORMSCHRAEGEN
  6
Continuous
 62
     7
100
AcDbLine
 10
255.1859694177
 20
236.1177311693
 30
0.0
 11
255.1859694177
 21
236.3132073784
 31
0.0
  0
LINE
  5
2DF
330
212
100
AcDbEntity
  8
AUSFORMSCHRAEGEN
  6
Continuous
 62
     7
100
AcDbLine
 10
260.6412042707
 20
235.3132073784
 30
0.0
 11
260.6412042707
 21
236.3132073784
 31
0.0
  0
LINE
  5
2E0
330
212
100
AcDbEntity
  8
AUSFORMSCHRAEGEN
  6
Continuous
 62
     9
100
AcDbLine
 10
265.868898575
 20
235.3132073784
 30
0.0
 11
265.9059564711
 21
236.3132073784
 31
0.0
  0
LINE
  5
2E1
330
212
100
AcDbEntity
  8
0
  6
Continuous
 62
     7
100
AcDbLine
 10
265.3146031097
 20
236.3132073784
 30
0.0
 11
265.2622277299
 21
235.3132073784
 31
0.0
  0
LINE
  5
2E2
330
212
100
AcDbEntity
  8
AUSFORMSCHRAEGEN
  6
Continuous
 62
     9
100
AcDbLine
 10
265.2655841765
 20
235.3132073784
 30
0.0
 11
265.31787424
 21
236.3132073784
 31
0.0
  0
LINE
  5
2E3
330
212
100
AcDbEntity
  8
AUSFORMSCHRAEGEN
  6
Continuous
 62
     7
100
AcDbLine
 10
262.0957421675
 20
235.3132073784
 30
0.0
 11
262.1698579598
 21
236.3132073784
 31
0.0
  0
LINE
  5
2E4
330
212
100
AcDbEntity
  8
AUSFORMSCHRAEGEN
  6
Continuous
 62
     7
100
AcDbLine
 10
262.8273309572
 20
235.3132073784
 30
0.0
 11
262.9014467494
 21
236.3132073784
 31
0.0
  0
LINE
  5
2E5
330
212
100
AcDbEntity
  8
0
  6
Continuous
 62
     7
100
AcDbLine
 10
257.3986741145
 20
132.5363315553
 30
0.0
 11
269.0213742396
 21
155.3471649231999
 31
0.0
  0
LINE
  5
2E6
330
212
100
AcDbEntity
  8
0
  6
Continuous
 62
     7
100
AcDbLine
 10
244.8451242894
 20
113.953137957
 30
0.0
 11
248.3636086822
 21
116.6045061214
 31
0.0
  0
LINE
  5
2E7
330
212
100
AcDbEntity
  8
AUSFORMSCHRAEGEN
  6
Continuous
 62
     7
100
AcDbLine
 10
261.3612723036
 20
235.3132073784
 30
0.0
 11
261.2871565114
 21
236.3132073784
 31
0.0
  0
LINE
  5
2E8
330
212
100
AcDbEntity
  8
AUSFORMSCHRAEGEN
  6
Continuous
 62
     7
100
AcDbLine
 10
263.6424486472
 20
235.3132073784
 30
0.0
 11
263.6424486472
 21
236.3132073784
 31
0.0
  0
LINE
  5
2E9
330
212
100
AcDbEntity
  8
AUSFORMSCHRAEGEN
  6
Continuous
 62
     7
100
AcDbLine
 10
264.526692142
 20
235.3132073784
 30
0.0
 11
264.526692142
 21
236.3132073784
 31
0.0
  0
LINE
  5
2EA
330
212
100
AcDbEntity
  8
AUSFORMSCHRAEGEN
  6
Continuous
 62
     7
100
AcDbLine
 10
264.9846547403
 20
235.3132073784
 30
0.0
 11
264.9846547403
 21
236.3132073784
 31
0.0
  0
LINE
  5
2EB
330
212
100
AcDbEntity
  8
0
  6
Continuous
 62
     7
100
AcDbLine
 10
269.5954850055
 20
230.918090096
 30
0.0
 11
269.5954850055
 21
234.3132073784
 31
0.0
  0
LINE
  5
2EC
330
212
100
AcDbEntity
  8
0
  6
Continuous
 62
     7
100
AcDbLine
 10
269.3483308319
 20
156.6971777499
 30
0.0
 11
269.5915677539
 21
217.7160715545
 31
0.0
  0
LINE
  5
2ED
330
212
100
AcDbEntity
  8
0
  6
Continuous
 62
     7
100
AcDbLine
 10
274.5393866079
 20
154.0620830116
 30
0.0
 11
261.3818196172
 21
128.2389038087
 31
0.0
  0
LINE
  5
2EE
330
212
100
AcDbEntity
  8
RUNDUNGEN
  6
Continuous
 62
     9
100
AcDbLine
 10
192.1416650858
 20
212.4563016707
 30
0.0
 11
219.0493085516
 21
212.4563016707
 31
0.0
  0
LINE
  5
2EF
330
212
100
AcDbEntity
  8
RUNDUNGEN
  6
Continuous
 62
     9
100
AcDbLine
 10
192.0666302348
 20
213.2183324282
 30
0.0
 11
219.1243397843
 21
213.2183323984
 31
0.0
  0
LINE
  5
2F0
330
212
100
AcDbEntity
  8
0
  6
Continuous
 62
     7
100
AcDbLine
 10
270.7792436748
 20
235.3132073784
 30
0.0
 11
270.7269938269
 21
236.3132073784
 31
0.0
  0
LINE
  5
2F1
330
212
100
AcDbEntity
  8
AUSFORMSCHRAEGEN
  6
Continuous
 62
     9
100
AcDbLine
 10
270.764117608
 20
235.3132073784
 30
0.0
 11
270.7121087099
 21
236.3132073784
 31
0.0
  0
LINE
  5
2F2
330
212
100
AcDbEntity
  8
AUSFORMSCHRAEGEN
  6
Continuous
 62
     9
100
AcDbLine
 10
269.6190122836
 20
235.3132073784
 30
0.0
 11
269.5819543875
 21
236.3132073784
 31
0.0
  0
LINE
  5
2F3
330
212
100
AcDbEntity
  8
0
  6
Continuous
 62
     7
100
AcDbLine
 10
276.5954850055
 20
219.7959046415
 30
0.0
 11
276.5954850055
 21
228.8305101153
 31
0.0
  0
LINE
  5
2F4
330
212
100
AcDbEntity
  8
0
  6
Continuous
 62
     7
100
AcDbLine
 10
276.5382712331
 20
197.8795026963999
 30
0.0
 11
275.0813081221
 21
156.1575380268
 31
0.0
  0
LINE
  5
2F5
330
212
100
AcDbEntity
  8
0
  6
Continuous
 62
     7
100
AcDbLine
 10
277.9771994657
 20
210.4313076741
 30
0.0
 11
277.6901827809
 21
202.2122251903
 31
0.0
  0
LINE
  5
2F6
330
212
100
AcDbEntity
  8
0
  6
Continuous
 62
     7
100
AcDbLine
 10
282.4216726072
 20
216.0177448747
 30
0.0
 11
282.8197750014
 21
227.4179058685
 31
0.0
  0
LINE
  5
2F7
330
212
100
AcDbEntity
  8
0
  6
Continuous
 62
     7
100
AcDbLine
 10
271.5364711384999
 20
218.7249019628
 30
0.0
 11
275.6129374119
 21
218.7960569463
 31
0.0
  0
LINE
  5
2F8
330
212
100
AcDbEntity
  8
0
  6
Continuous
 62
     7
100
AcDbLine
 10
270.5780931582
 20
218.7119946509
 30
0.0
 11
271.5364711384999
 21
218.7249019628
 31
0.0
  0
LINE
  5
2F9
330
212
100
AcDbEntity
  8
0
  6
Continuous
 62
     9
100
AcDbLine
 10
141.5994022571
 20
217.7160715545
 30
0.0
 11
190.6641210952999
 21
217.7160715545
 31
0.0
  0
LINE
  5
2FA
330
212
100
AcDbEntity
  8
0
  6
Continuous
 62
     9
100
AcDbLine
 10
220.5268489157
 20
217.7160715545
 30
0.0
 11
269.5915677539
 21
217.7160715545
 31
0.0
  0
LINE
  5
2FB
330
212
100
AcDbEntity
  8
RUNDUNGEN
  6
Continuous
 62
     9
100
AcDbLine
 10
217.93940744
 20
218.5134705934
 30
0.0
 11
193.2515739147
 21
218.5134705934
 31
0.0
  0
LINE
  5
2FC
330
212
100
AcDbEntity
  8
0
  6
Continuous
 62
     9
100
AcDbLine
 10
140.6128768528
 20
218.7119946509
 30
0.0
 11
190.4339481036999
 21
218.7119946509
 31
0.0
  0
LINE
  5
2FD
330
212
100
AcDbEntity
  8
0
  6
Continuous
 62
     9
100
AcDbLine
 10
220.7570219073
 20
218.7119946509
 30
0.0
 11
270.5780931582
 21
218.7119946509
 31
0.0
  0
LINE
  5
2FE
330
212
100
AcDbEntity
  8
0
  6
Continuous
 62
     7
100
AcDbLine
 10
140.6128768528
 20
218.7249019628
 30
0.0
 11
190.715473538
 21
218.7249019632
 31
0.0
  0
LINE
  5
2FF
330
212
100
AcDbEntity
  8
0
  6
Continuous
 62
     7
100
AcDbLine
 10
220.475496473
 20
218.7249019632
 30
0.0
 11
270.5780931582
 21
218.7249019628
 31
0.0
  0
LINE
  5
300
330
212
100
AcDbEntity
  8
0
  6
Continuous
 62
     9
100
AcDbLine
 10
275.6129374119
 20
218.7960569463
 30
0.0
 11
219.2883823673
 21
218.7960569463
 31
0.0
  0
LINE
  5
301
330
212
100
AcDbEntity
  8
0
  6
Continuous
 62
     9
100
AcDbLine
 10
191.9025877131
 20
218.7960569463
 30
0.0
 11
135.5780325991
 21
218.7960569463
 31
0.0
  0
LINE
  5
302
330
212
100
AcDbEntity
  8
RUNDUNGEN
  6
Continuous
 62
     9
100
AcDbLine
 10
218.0021900344
 20
219.2795150365
 30
0.0
 11
193.1889229555
 21
219.2795150365
 31
0.0
  0
LINE
  5
303
330
212
100
AcDbEntity
  8
0
  6
Continuous
 62
     9
100
AcDbLine
 10
276.5954850055
 20
219.7959046415
 30
0.0
 11
219.4804366413
 21
219.7959046415
 31
0.0
  0
LINE
  5
304
330
212
100
AcDbEntity
  8
0
  6
Continuous
 62
     9
100
AcDbLine
 10
191.7105333636
 20
219.7959046415
 30
0.0
 11
134.5954850055
 21
219.7959046415
 31
0.0
  0
LINE
  5
305
330
212
100
AcDbEntity
  8
0
  6
Continuous
 62
     7
100
AcDbLine
 10
140.6128768528
 20
218.7119946509
 30
0.0
 11
139.6544988724
 21
218.7249019628
 31
0.0
  0
LINE
  5
306
330
212
100
AcDbEntity
  8
0
  6
Continuous
 62
     7
100
AcDbLine
 10
139.6544988724
 20
218.7249019628
 30
0.0
 11
135.5780325991
 21
218.7960569463
 31
0.0
  0
LINE
  5
307
330
212
100
AcDbEntity
  8
0
  6
Continuous
 62
     7
100
AcDbLine
 10
135.5780325991
 20
229.8303578104
 30
0.0
 11
140.6129374119
 21
229.9182424008
 31
0.0
  0
LINE
  5
308
330
212
100
AcDbEntity
  8
0
  6
Continuous
 62
     9
100
AcDbLine
 10
276.5954850055
 20
228.8305101153
 30
0.0
 11
219.480436735
 21
228.8305101153
 31
0.0
  0
LINE
  5
309
330
212
100
AcDbEntity
  8
0
  6
Continuous
 62
     9
100
AcDbLine
 10
191.7105332784
 20
228.8305101153
 30
0.0
 11
134.5954850055
 21
228.8305101153
 31
0.0
  0
LINE
  5
30A
330
212
100
AcDbEntity
  8
0
  6
Continuous
 62
     9
100
AcDbLine
 10
135.5780325991
 20
229.8303578104
 30
0.0
 11
191.9023467223
 21
229.8303578104
 31
0.0
  0
LINE
  5
30B
330
212
100
AcDbEntity
  8
0
  6
Continuous
 62
     9
100
AcDbLine
 10
219.2886560744
 20
229.8303578104
 30
0.0
 11
275.6129374119
 21
229.8303578104
 31
0.0
  0
LINE
  5
30C
330
212
100
AcDbEntity
  8
0
  6
Continuous
 62
     9
100
AcDbLine
 10
140.6129374119
 20
229.9182424008
 30
0.0
 11
190.4362588484
 21
229.9182424008
 31
0.0
  0
LINE
  5
30D
330
212
100
AcDbEntity
  8
0
  6
Continuous
 62
     9
100
AcDbLine
 10
220.7547759876
 20
229.9182424008
 30
0.0
 11
270.5780325991
 21
229.9182424008
 31
0.0
  0
LINE
  5
30E
330
212
100
AcDbEntity
  8
0
  6
Continuous
 62
     7
100
AcDbLine
 10
117.5954850055
 20
230.3132073784
 30
0.0
 11
125.3730225285
 21
230.3132073784
 31
0.0
  0
LINE
  5
30F
330
212
100
AcDbEntity
  8
0
  6
Continuous
 62
     7
100
AcDbLine
 10
285.8179474825
 20
230.3132073784
 30
0.0
 11
293.5954850055
 21
230.3132073784
 31
0.0
  0
LINE
  5
310
330
212
100
AcDbEntity
  8
RUNDUNGEN
  6
Continuous
 62
     9
100
AcDbLine
 10
193.100754073
 20
230.8159408893
 30
0.0
 11
193.9019826835
 21
230.8159408888
 31
0.0
  0
LINE
  5
311
330
212
100
AcDbEntity
  8
RUNDUNGEN
  6
Continuous
 62
     9
100
AcDbLine
 10
217.2889873275
 20
230.8159408907
 30
0.0
 11
218.090215938
 21
230.8159408913
 31
0.0
  0
LINE
  5
312
330
212
100
AcDbEntity
  8
0
  6
Continuous
 62
     9
100
AcDbLine
 10
141.5954850055
 20
230.918090096
 30
0.0
 11
190.6652469866
 21
230.918090096
 31
0.0
  0
LINE
  5
313
330
212
100
AcDbEntity
  8
RUNDUNGEN
  6
Continuous
 62
     9
100
AcDbLine
 10
190.6652469866
 20
230.918090096
 30
0.0
 11
191.3978878438
 21
230.918090096
 31
0.0
  0
LINE
  5
314
330
212
100
AcDbEntity
  8
RUNDUNGEN
  6
Continuous
 62
     9
100
AcDbLine
 10
219.7930821671
 20
230.918090096
 30
0.0
 11
220.5257230244
 21
230.918090096
 31
0.0
  0
LINE
  5
315
330
212
100
AcDbEntity
  8
0
  6
Continuous
 62
     9
100
AcDbLine
 10
220.5257230244
 20
230.918090096
 30
0.0
 11
269.5954850055
 21
230.918090096
 31
0.0
  0
LINE
  5
316
330
212
100
AcDbEntity
  8
0
  6
Continuous
 62
     7
100
AcDbLine
 10
275.6129374119
 20
229.8303578104
 30
0.0
 11
270.5780325991
 21
229.9182424008
 31
0.0
  0
LINE
  5
317
330
212
100
AcDbEntity
  8
0
  6
Continuous
 62
     7
100
AcDbLine
 10
295.5954850055
 20
232.3132073784
 30
0.0
 11
295.5954850055
 21
233.3132073784
 31
0.0
  0
LINE
  5
318
330
212
100
AcDbEntity
  8
0
  6
Continuous
 62
     9
100
AcDbLine
 10
269.5954850055
 20
234.3132073784
 30
0.0
 11
220.5257230244
 21
234.3132073784
 31
0.0
  0
LINE
  5
319
330
212
100
AcDbEntity
  8
RUNDUNGEN
  6
Continuous
 62
     9
100
AcDbLine
 10
220.5257230244
 20
234.3132073784
 30
0.0
 11
190.6652469866
 21
234.3132073784
 31
0.0
  0
LINE
  5
31A
330
212
100
AcDbEntity
  8
0
  6
Continuous
 62
     9
100
AcDbLine
 10
190.6652469866
 20
234.3132073784
 30
0.0
 11
141.5954850055
 21
234.3132073784
 31
0.0
  0
LINE
  5
31B
330
212
100
AcDbEntity
  8
0
  6
Continuous
 62
     7
100
AcDbLine
 10
293.5954850055
 20
235.3132073784
 30
0.0
 11
220.7590079934
 21
235.3132073784
 31
0.0
  0
LINE
  5
31C
330
212
100
AcDbEntity
  8
RUNDUNGEN
  6
Continuous
 62
     7
100
AcDbLine
 10
220.7590079934
 20
235.3132073784
 30
0.0
 11
190.4319620176
 21
235.3132073784
 31
0.0
  0
LINE
  5
31D
330
212
100
AcDbEntity
  8
0
  6
Continuous
 62
     7
100
AcDbLine
 10
190.4319620176
 20
235.3132073784
 30
0.0
 11
117.5954850055
 21
235.3132073784
 31
0.0
  0
LINE
  5
31E
330
212
100
AcDbEntity
  8
AUSFORMSCHRAEGEN
  6
Continuous
 62
     7
100
AcDbLine
 10
132.5611415956
 20
236.3132073784
 30
0.0
 11
167.2037157211
 21
236.3132073784
 31
0.0
  0
LINE
  5
31F
330
212
100
AcDbEntity
  8
AUSFORMSCHRAEGEN
  6
Continuous
 62
     7
100
AcDbLine
 10
167.2634761184
 20
236.3132073784
 30
0.0
 11
171.2879415776
 21
236.3132073784
 31
0.0
  0
LINE
  5
320
330
212
100
AcDbEntity
  8
AUSFORMSCHRAEGEN
  6
Continuous
 62
     7
100
AcDbLine
 10
171.4098936638
 20
236.3132073784
 30
0.0
 11
174.024415875
 21
236.3132073784
 31
0.0
  0
LINE
  5
321
330
212
100
AcDbEntity
  8
AUSFORMSCHRAEGEN
  6
Continuous
 62
     7
100
AcDbLine
 10
174.0284190415
 20
236.3132073784
 30
0.0
 11
177.414410475
 21
236.3132073784
 31
0.0
  0
LINE
  5
322
330
212
100
AcDbEntity
  8
AUSFORMSCHRAEGEN
  6
Continuous
 62
     7
100
AcDbLine
 10
250.4845943504
 20
236.3132073784
 30
0.0
 11
257.8305614877
 21
236.3132073784
 31
0.0
  0
LINE
  5
323
330
212
100
AcDbEntity
  8
AUSFORMSCHRAEGEN
  6
Continuous
 62
     7
100
AcDbLine
 10
257.9243372099
 20
236.3132073784
 30
0.0
 11
270.7273891623
 21
236.3132073784
 31
0.0
  0
LINE
  5
324
330
212
100
AcDbEntity
  8
0
  6
Continuous
 62
     7
100
AcDbLine
 10
197.5954850055
 20
236.9132073784
 30
0.0
 11
213.5954850055
 21
236.9132073784
 31
0.0
  0
LINE
  5
325
330
212
100
AcDbEntity
  8
0
  6
Continuous
 62
     7
100
AcDbLine
 10
199.0954850055
 20
237.0632073784
 30
0.0
 11
212.0954850055
 21
237.0632073784
 31
0.0
  0
LINE
  5
326
330
212
100
AcDbEntity
  8
0
  6
Continuous
 62
     7
100
AcDbLine
 10
197.5954850055
 20
237.6894248007
 30
0.0
 11
213.5954850055
 21
237.6894248007
 31
0.0
  0
LINE
  5
327
330
212
100
AcDbEntity
  8
0
  6
Continuous
 62
     7
100
AcDbLine
 10
197.5954850055
 20
247.6894248007
 30
0.0
 11
213.5954850055
 21
247.6894248007
 31
0.0
  0
LINE
  5
328
330
212
100
AcDbEntity
  8
0
  6
Continuous
 62
     7
100
AcDbLine
 10
198.5954850055
 20
255.6894248007
 30
0.0
 11
212.5954850055
 21
255.6894248007
 31
0.0
  0
ARC
  5
329
330
212
100
AcDbEntity
  8
0
  6
Continuous
 62
     7
100
AcDbCircle
 10
141.106616024
 20
156.3320355103
 30
0.0
 40
5.0
100
AcDbArc
 50
182.0
 51
207.0
  0
ARC
  5
32A
330
212
100
AcDbEntity
  8
0
  6
Continuous
 62
     7
100
AcDbCircle
 10
129.6557449206
 20
197.7050010023
 30
0.0
 40
4.9999999914
100
AcDbArc
 50
1.9999529889
 51
26.0949240824
  0
ARC
  5
32B
330
212
100
AcDbEntity
  8
0
  6
Continuous
 62
     7
100
AcDbCircle
 10
138.4977416301
 20
202.3867184434
 30
0.0
 40
4.999999987899999
100
AcDbArc
 50
182.0000458516
 51
206.0949656606
  0
ARC
  5
32C
330
212
100
AcDbEntity
  8
0
  6
Continuous
 62
     7
100
AcDbCircle
 10
125.3730225285
 20
227.3132073784
 30
0.0
 40
3.0
100
AcDbArc
 50
2.0
 51
90.0
  0
ARC
  5
32D
330
212
100
AcDbEntity
  8
0
  6
Continuous
 62
     7
100
AcDbCircle
 10
144.842615344
 20
156.7091364224
 30
0.0
 40
3.0
100
AcDbArc
 50
180.2283944261
 51
207.0
  0
ARC
  5
32E
330
212
100
AcDbEntity
  8
0
  6
Continuous
 62
     7
100
AcDbCircle
 10
130.2155980642
 20
210.326609184
 30
0.0
 40
3.0
100
AcDbArc
 50
2.0
 51
75.01030557819999
  0
ARC
  5
32F
330
212
100
AcDbEntity
  8
0
  6
Continuous
 62
     7
100
AcDbCircle
 10
157.9688571524
 20
123.3050961409
 30
0.0
 40
3.0
100
AcDbArc
 50
8.0
 51
87.0
  0
ARC
  5
330
330
212
100
AcDbEntity
  8
0
  6
Continuous
 62
     7
100
AcDbCircle
 10
152.4821699664
 20
129.6008753079
 30
0.0
 40
3.0
100
AcDbArc
 50
207.0
 51
267.0
  0
ARC
  5
331
330
212
100
AcDbEntity
  8
0
  6
Continuous
 62
     7
100
AcDbCircle
 10
164.6328063983
 20
119.0004126515
 30
0.0
 40
3.0
100
AcDbArc
 50
188.0
 51
233.0
  0
ARC
  5
332
330
212
100
AcDbEntity
  8
0
  6
Continuous
 62
     7
100
AcDbCircle
 10
168.151290791
 20
116.3490444871
 30
0.0
 40
3.0
100
AcDbArc
 50
233.0
 51
268.0
  0
ARC
  5
333
330
212
100
AcDbEntity
  8
0
  6
Continuous
 62
     7
100
AcDbCircle
 10
131.7674698849
 20
216.1224433648
 30
0.0
 40
3.0
100
AcDbArc
 50
182.0
 51
255.0103055782
  0
ARC
  5
334
330
212
100
AcDbEntity
  8
0
  6
Continuous
 62
     7
100
AcDbCircle
 10
172.3489878600999
 20
110.1988004096
 30
0.0
 40
3.0
100
AcDbArc
 50
1.0
 51
88.0
  0
ARC
  5
335
330
212
100
AcDbEntity
  8
0
  6
Continuous
 62
     7
100
AcDbCircle
 10
117.5954850055
 20
232.3132073784
 30
0.0
 40
2.0
100
AcDbArc
 50
180.0
 51
270.0
  0
ARC
  5
336
330
212
100
AcDbEntity
  8
0
  6
Continuous
 62
     7
100
AcDbCircle
 10
117.5954850055
 20
233.3132073784
 30
0.0
 40
2.0
100
AcDbArc
 50
90.0
 51
180.0
  0
ARC
  5
337
330
212
100
AcDbEntity
  8
0
  6
Continuous
 62
     7
100
AcDbCircle
 10
177.5781822686
 20
39.8132073784
 30
0.0
 40
1.0
100
AcDbArc
 50
181.0
 51
270.0
  0
ARC
  5
338
330
212
100
AcDbEntity
  8
0
  6
Continuous
 62
     7
100
AcDbCircle
 10
169.0954850055
 20
120.5131151766
 30
0.0
 40
1.0
100
AcDbArc
 50
180.0
 51
269.0000000006
  0
ARC
  5
339
330
212
100
AcDbEntity
  8
0
  6
Continuous
 62
     7
100
AcDbCircle
 10
174.5954850055
 20
118.4168076634
 30
0.0
 40
1.0
100
AcDbArc
 50
29.0050383316
 51
89.0
  0
ARC
  5
33A
330
212
100
AcDbEntity
  8
0
  6
Continuous
 62
     7
100
AcDbCircle
 10
154.6833024207
 20
132.9903220551
 30
0.0
 40
1.0
100
AcDbArc
 50
207.0
 51
267.0
  0
ARC
  5
33B
330
212
100
AcDbEntity
  8
0
  6
Continuous
 62
     7
100
AcDbCircle
 10
167.0954850055
 20
130.3370824378
 30
0.0
 40
1.0
100
AcDbArc
 50
0.0
 51
87.0
  0
ARC
  5
33C
330
212
100
AcDbEntity
  8
0
  6
Continuous
 62
     7
100
AcDbCircle
 10
140.5954850055
 20
230.918090096
 30
0.0
 40
1.0
100
AcDbArc
 50
271.0
 51
360.0
  0
ARC
  5
33D
330
212
100
AcDbEntity
  8
0
  6
Continuous
 62
     7
100
AcDbCircle
 10
135.5954850055
 20
228.8305101153
 30
0.0
 40
1.0
100
AcDbArc
 50
91.0
 51
180.0
  0
ARC
  5
33E
330
212
100
AcDbEntity
  8
0
  6
Continuous
 62
     7
100
AcDbCircle
 10
140.5954850055
 20
234.3132073784
 30
0.0
 40
1.0
100
AcDbArc
 50
0.0
 51
90.0
  0
ARC
  5
33F
330
212
100
AcDbEntity
  8
0
  6
Continuous
 62
     7
100
AcDbCircle
 10
135.5954850055
 20
219.7959046415
 30
0.0
 40
1.0
100
AcDbArc
 50
180.0
 51
269.0
  0
ARC
  5
340
330
212
100
AcDbEntity
  8
0
  6
Continuous
 62
     7
100
AcDbCircle
 10
140.5994102021
 20
217.7120853303
 30
0.0
 40
1.0
100
AcDbArc
 50
0.2283944261
 51
89.22839442610001
  0
ARC
  5
341
330
212
100
AcDbEntity
  8
0
  6
Continuous
 62
     7
100
AcDbCircle
 10
176.3446391491
 20
119.3865807203
 30
0.0
 40
1.0
100
AcDbArc
 50
209.0050383316
 51
269.0
  0
ARC
  5
342
330
212
100
AcDbEntity
  8
0
  6
Continuous
 62
     7
100
AcDbCircle
 10
181.0954850055
 20
117.3033497414
 30
0.0
 40
1.0
100
AcDbArc
 50
0.0
 51
89.0
  0
ARC
  5
343
330
212
100
AcDbEntity
  8
0
  6
Continuous
 62
     7
100
AcDbCircle
 10
183.0954850055
 20
46.07661862079999
 30
0.0
 40
1.0
100
AcDbArc
 50
180.0
 51
267.0
  0
ARC
  5
344
330
212
100
AcDbEntity
  8
0
  6
Continuous
 62
     7
100
AcDbCircle
 10
187.0954850055
 20
39.8132073784
 30
0.0
 40
1.0
100
AcDbArc
 50
270.0
 51
360.0
  0
ARC
  5
345
330
212
100
AcDbEntity
  8
0
  6
Continuous
 62
     7
100
AcDbCircle
 10
187.0954850055
 20
43.8642428117
 30
0.0
 40
1.0
100
AcDbArc
 50
0.0
 51
87.0
  0
ARC
  5
346
330
212
100
AcDbEntity
  8
RUNDUNGEN
  6
Continuous
 62
     9
100
AcDbCircle
 10
-579.8679148319999
 20
480.9935038230999
 30
0.0
 40
816.0725278080999
100
AcDbArc
 50
340.9244268489
 51
341.1835592209
  0
ARC
  5
347
330
212
100
AcDbEntity
  8
RUNDUNGEN
  6
Continuous
 62
     9
100
AcDbCircle
 10
-483.1076691626999
 20
451.0567741828999
 30
0.0
 40
715.8894617841999
100
AcDbArc
 50
340.6217721542
 51
340.9176740381
  0
ARC
  5
348
330
212
100
AcDbEntity
  8
RUNDUNGEN
  6
Continuous
 62
     9
100
AcDbCircle
 10
193.9675455235
 20
18.9288781469
 30
0.0
 40
134.7829614603
100
AcDbArc
 50
90.0022712836
 51
90.18483468860001
  0
ARC
  5
349
330
212
100
AcDbEntity
  8
RUNDUNGEN
  6
Continuous
 62
     9
100
AcDbCircle
 10
217.2283268088
 20
21.9317553439
 30
0.0
 40
131.7800841582
100
AcDbArc
 50
89.81308493
 51
89.99980840799999
  0
ARC
  5
34A
330
212
100
AcDbEntity
  8
0
  6
Continuous
 62
     7
100
AcDbCircle
 10
243.0396792199
 20
116.3490444871
 30
0.0
 40
3.0
100
AcDbArc
 50
272.0
 51
307.0
  0
ARC
  5
34B
330
212
100
AcDbEntity
  8
0
  6
Continuous
 62
     7
100
AcDbCircle
 10
238.8419821509
 20
110.1988004096
 30
0.0
 40
3.0
100
AcDbArc
 50
92.0
 51
179.0
  0
ARC
  5
34C
330
212
100
AcDbEntity
  8
0
  6
Continuous
 62
     7
100
AcDbCircle
 10
233.6127877424
 20
39.8132073784
 30
0.0
 40
1.0
100
AcDbArc
 50
270.0
 51
359.0
  0
ARC
  5
34D
330
212
100
AcDbEntity
  8
0
  6
Continuous
 62
     7
100
AcDbCircle
 10
242.0954850055
 20
120.5131151766
 30
0.0
 40
1.0
100
AcDbArc
 50
270.9999999994
 51
360.0
  0
ARC
  5
34E
330
212
100
AcDbEntity
  8
0
  6
Continuous
 62
     7
100
AcDbCircle
 10
236.5954850055
 20
118.4168076634
 30
0.0
 40
1.0
100
AcDbArc
 50
90.99999999959999
 51
150.9949616684
  0
ARC
  5
34F
330
212
100
AcDbEntity
  8
0
  6
Continuous
 62
     7
100
AcDbCircle
 10
234.8463308619
 20
119.3865807203
 30
0.0
 40
1.0
100
AcDbArc
 50
271.0
 51
330.9949616684
  0
ARC
  5
350
330
212
100
AcDbEntity
  8
0
  6
Continuous
 62
     7
100
AcDbCircle
 10
230.0954850055
 20
117.3033497414
 30
0.0
 40
1.0
100
AcDbArc
 50
91.0
 51
180.0
  0
ARC
  5
351
330
212
100
AcDbEntity
  8
0
  6
Continuous
 62
     7
100
AcDbCircle
 10
228.0954850055
 20
46.07661862079999
 30
0.0
 40
1.0
100
AcDbArc
 50
273.0
 51
360.0
  0
ARC
  5
352
330
212
100
AcDbEntity
  8
0
  6
Continuous
 62
     7
100
AcDbCircle
 10
224.0954850055
 20
39.8132073784
 30
0.0
 40
1.0
100
AcDbArc
 50
180.0
 51
270.0
  0
ARC
  5
353
330
212
100
AcDbEntity
  8
0
  6
Continuous
 62
     7
100
AcDbCircle
 10
224.0954850055
 20
43.8642428117
 30
0.0
 40
1.0
100
AcDbArc
 50
93.0
 51
180.0
  0
ARC
  5
354
330
212
100
AcDbEntity
  8
RUNDUNGEN
  6
Continuous
 62
     9
100
AcDbCircle
 10
220.1007061807
 20
213.9227022508
 30
0.0
 40
1.203922019399999
100
AcDbArc
 50
199.4039954566
 51
215.8074187273
  0
ARC
  5
355
330
212
100
AcDbEntity
  8
0
  6
Continuous
 62
     7
100
AcDbCircle
 10
253.2221128586
 20
123.3050961409
 30
0.0
 40
3.0
100
AcDbArc
 50
93.0
 51
172.0
  0
ARC
  5
356
330
212
100
AcDbEntity
  8
0
  6
Continuous
 62
     7
100
AcDbCircle
 10
246.5581636127
 20
119.0004126515
 30
0.0
 40
3.0
100
AcDbArc
 50
307.0
 51
352.0
  0
ARC
  5
357
330
212
100
AcDbEntity
  8
0
  6
Continuous
 62
     7
100
AcDbCircle
 10
270.084353987
 20
156.3320355103
 30
0.0
 40
5.0
100
AcDbArc
 50
333.0
 51
358.0
  0
ARC
  5
358
330
212
100
AcDbEntity
  8
0
  6
Continuous
 62
     7
100
AcDbCircle
 10
281.5352249658
 20
197.7049963306
 30
0.0
 40
4.999999993899999
100
AcDbArc
 50
153.9050089946
 51
178.0000009064
  0
ARC
  5
359
330
212
100
AcDbEntity
  8
0
  6
Continuous
 62
     7
100
AcDbCircle
 10
272.6932282572
 20
202.386713816
 30
0.0
 40
4.999999986999999
100
AcDbArc
 50
333.9051021735
 51
357.9999997816
  0
ARC
  5
35A
330
212
100
AcDbEntity
  8
0
  6
Continuous
 62
     7
100
AcDbCircle
 10
285.8179474825
 20
227.3132073784
 30
0.0
 40
3.0
100
AcDbArc
 50
90.0
 51
178.0
  0
ARC
  5
35B
330
212
100
AcDbEntity
  8
0
  6
Continuous
 62
     7
100
AcDbCircle
 10
266.348354667
 20
156.7091364224
 30
0.0
 40
3.0
100
AcDbArc
 50
333.0
 51
359.7716055739
  0
ARC
  5
35C
330
212
100
AcDbEntity
  8
0
  6
Continuous
 62
     7
100
AcDbCircle
 10
280.9753719468
 20
210.326609184
 30
0.0
 40
3.0
100
AcDbArc
 50
104.9896944218
 51
178.0
  0
ARC
  5
35D
330
212
100
AcDbEntity
  8
0
  6
Continuous
 62
     7
100
AcDbCircle
 10
258.7088000446
 20
129.6008753079
 30
0.0
 40
3.0
100
AcDbArc
 50
273.0
 51
333.0
  0
ARC
  5
35E
330
212
100
AcDbEntity
  8
0
  6
Continuous
 62
     7
100
AcDbCircle
 10
279.4235001261
 20
216.1224433648
 30
0.0
 40
3.0
100
AcDbArc
 50
284.9896944218
 51
358.0
  0
ARC
  5
35F
330
212
100
AcDbEntity
  8
0
  6
Continuous
 62
     7
100
AcDbCircle
 10
293.5954850055
 20
232.3132073784
 30
0.0
 40
2.0
100
AcDbArc
 50
270.0
 51
360.0
  0
ARC
  5
360
330
212
100
AcDbEntity
  8
0
  6
Continuous
 62
     7
100
AcDbCircle
 10
293.5954850055
 20
233.3132073784
 30
0.0
 40
2.0
100
AcDbArc
 50
0.0
 51
90.0
  0
ARC
  5
361
330
212
100
AcDbEntity
  8
0
  6
Continuous
 62
     7
100
AcDbCircle
 10
256.5076675903
 20
132.9903220551
 30
0.0
 40
1.0
100
AcDbArc
 50
273.0
 51
333.0
  0
ARC
  5
362
330
212
100
AcDbEntity
  8
0
  6
Continuous
 62
     7
100
AcDbCircle
 10
244.0954850055
 20
130.3370824378
 30
0.0
 40
1.0
100
AcDbArc
 50
93.0
 51
180.0
  0
ARC
  5
363
330
212
100
AcDbEntity
  8
0
  6
Continuous
 62
     7
100
AcDbCircle
 10
275.5954850055
 20
228.8305101153
 30
0.0
 40
1.0
100
AcDbArc
 50
0.0
 51
89.0
  0
ARC
  5
364
330
212
100
AcDbEntity
  8
0
  6
Continuous
 62
     7
100
AcDbCircle
 10
270.5954850055
 20
230.918090096
 30
0.0
 40
1.0
100
AcDbArc
 50
180.0
 51
269.0
  0
ARC
  5
365
330
212
100
AcDbEntity
  8
0
  6
Continuous
 62
     7
100
AcDbCircle
 10
270.5954850055
 20
234.3132073784
 30
0.0
 40
1.0
100
AcDbArc
 50
90.0
 51
180.0
  0
ARC
  5
366
330
212
100
AcDbEntity
  8
0
  6
Continuous
 62
     7
100
AcDbCircle
 10
275.5954850055
 20
219.7959046415
 30
0.0
 40
1.0
100
AcDbArc
 50
271.0
 51
360.0
  0
ARC
  5
367
330
212
100
AcDbEntity
  8
0
  6
Continuous
 62
     7
100
AcDbCircle
 10
270.5915598089
 20
217.7120853303
 30
0.0
 40
1.0
100
AcDbArc
 50
90.7716055739
 51
179.7716055739
  0
ARC
  5
368
330
212
100
AcDbEntity
  8
RUNDUNGEN
  6
Continuous
 62
     9
100
AcDbCircle
 10
962.1278685291999
 20
471.0622419208
 30
0.0
 40
785.4844795369
100
AcDbArc
 50
198.8113952563
 51
199.0806186637
  0
ARC
  5
369
330
212
100
AcDbEntity
  8
RUNDUNGEN
  6
Continuous
 62
     9
100
AcDbCircle
 10
869.4973162364
 20
442.4054056878
 30
0.0
 40
689.6226193391001
100
AcDbArc
 50
199.076696092
 51
199.3838681235
  0
SPLINE
  5
36A
330
212
100
AcDbEntity
  8
0
  6
Continuous
 62
     7
100
AcDbSpline
210
0.0
220
0.0
230
1.0
 70
     8
 71
     3
 72
     9
 73
     5
 74
     0
 42
0.0000000001
 43
0.0000000001
 40
0.0
 40
0.0
 40
0.0
 40
0.0
 40
0.252146761
 40
1.0
 40
1.0
 40
1.0
 40
1.0
 10
211.6734460397
 20
237.68728956
 30
0.0
 10
211.5443310176
 20
237.6203457645
 30
0.0
 10
211.026600252
 20
237.3664561943
 30
0.0
 10
210.4808593364
 20
237.1654076014
 30
0.0
 10
210.061780611
 20
237.0632073784
 30
0.0
  0
SPLINE
  5
36B
330
212
100
AcDbEntity
  8
0
  6
Continuous
 62
     7
100
AcDbSpline
210
0.0
220
0.0
230
1.0
 70
     8
 71
     3
 72
     9
 73
     5
 74
     0
 42
0.0000000001
 43
0.0000000001
 40
0.0
 40
0.0
 40
0.0
 40
0.0
 40
0.252146761
 40
1.0
 40
1.0
 40
1.0
 40
1.0
 10
205.1734460397
 20
237.68728956
 30
0.0
 10
205.0443310176
 20
237.6203457645
 30
0.0
 10
204.526600252
 20
237.3664561943
 30
0.0
 10
203.9808593364
 20
237.1654076014
 30
0.0
 10
203.561780611
 20
237.0632073784
 30
0.0
  0
SPLINE
  5
36C
330
212
100
AcDbEntity
  8
0
  6
Continuous
 62
     7
100
AcDbSpline
210
0.0
220
0.0
230
1.0
 70
     8
 71
     3
 72
     9
 73
     5
 74
     0
 42
0.0000000001
 43
0.0000000001
 40
0.0
 40
0.0
 40
0.0
 40
0.0
 40
0.2481774778
 40
1.0
 40
1.0
 40
1.0
 40
1.0
 10
201.1291894
 20
237.0632073784
 30
0.0
 10
200.9900943611
 20
237.0971283176
 30
0.0
 10
200.4348035638
 20
237.2551342703
 30
0.0
 10
199.9026663425
 20
237.4876056104
 30
0.0
 10
199.5176215531
 20
237.6872389196
 30
0.0
  0
SPLINE
  5
36D
330
212
100
AcDbEntity
  8
0
  6
Continuous
 62
     7
100
AcDbSpline
210
0.0
220
0.0
230
1.0
 70
     8
 71
     3
 72
     9
 73
     5
 74
     0
 42
0.0000000001
 43
0.0000000001
 40
0.0
 40
0.0
 40
0.0
 40
0.0
 40
0.2481774778
 40
1.0
 40
1.0
 40
1.0
 40
1.0
 10
207.6291894
 20
237.0632073784
 30
0.0
 10
207.4900943611
 20
237.0971283176
 30
0.0
 10
206.9348035638
 20
237.2551342703
 30
0.0
 10
206.4026663425
 20
237.4876056104
 30
0.0
 10
206.0176215531
 20
237.6872389196
 30
0.0
  0
LINE
  5
36E
330
212
100
AcDbEntity
  8
AUSFORMSCHRAEGEN
  6
Continuous
 62
     7
100
AcDbLine
 10
174.0407101893
 20
235.3132073784
 30
0.0
 11
174.0531112893
 21
235.4804388562
 31
0.0
  0
LINE
  5
36F
330
212
100
AcDbEntity
  8
AUSFORMSCHRAEGEN
  6
Continuous
 62
     7
100
AcDbLine
 10
174.0531112893
 20
235.4804388562
 30
0.0
 11
174.0615144156
 21
235.5936546959
 31
0.0
  0
LINE
  5
370
330
212
100
AcDbEntity
  8
AUSFORMSCHRAEGEN
  6
Continuous
 62
     7
100
AcDbLine
 10
174.0615144156
 20
235.5936546959
 30
0.0
 11
174.1026833762
 21
236.1471072311
 31
0.0
  0
LINE
  5
371
330
212
100
AcDbEntity
  8
AUSFORMSCHRAEGEN
  6
Continuous
 62
     7
100
AcDbLine
 10
174.1026833762
 20
236.1471072311
 30
0.0
 11
174.1150690123
 21
236.3132073784
 31
0.0
  0
SPLINE
  5
372
330
212
100
AcDbEntity
  8
RUNDUNGEN
  6
Continuous
 62
     9
100
AcDbSpline
210
0.0
220
0.0
230
1.0
 70
     8
 71
     3
 72
    13
 73
     9
 74
     0
 42
0.0000000001
 43
0.0000000001
 40
0.0
 40
0.0
 40
0.0
 40
0.0
 40
0.3208485417
 40
0.6181763459000001
 40
0.744623571
 40
0.851574019
 40
0.9369672396999998
 40
1.0
 40
1.0
 40
1.0
 40
1.0
 10
194.7404704456
 20
132.5635933689
 30
0.0
 10
194.5412150622999
 20
132.5643763177
 30
0.0
 10
194.1572945734
 20
132.5831754413
 30
0.0
 10
193.6979246314
 20
132.6421708503
 30
0.0
 10
193.3752420461999
 20
132.7099513244
 30
0.0
 10
193.1842726527
 20
132.7632239486
 30
0.0
 10
193.0359459727
 20
132.8195126376
 30
0.0
 10
192.9542918933
 20
132.8642725197
 30
0.0
 10
192.9235963779
 20
132.8885653207
 30
0.0
  0
SPLINE
  5
373
330
212
100
AcDbEntity
  8
RUNDUNGEN
  6
Continuous
 62
     9
100
AcDbSpline
210
0.0
220
0.0
230
1.0
 70
     8
 71
     3
 72
    13
 73
     9
 74
     0
 42
0.0000000001
 43
0.0000000001
 40
0.0
 40
0.0
 40
0.0
 40
0.0
 40
0.0578012306
 40
0.1415179509
 40
0.2489991978
 40
0.3770935701
 40
0.6777564679000001
 40
1.0
 40
1.0
 40
1.0
 40
1.0
 10
191.9280875003
 20
152.6678879095
 30
0.0
 10
191.96105018
 20
152.6558764002
 30
0.0
 10
192.0448881873
 20
152.6356885833
 30
0.0
 10
192.193812649
 20
152.6103143464
 30
0.0
 10
192.3862444461
 20
152.5865477016
 30
0.0
 10
192.7103263166
 20
152.5563633966
 30
0.0
 10
193.1655696109
 20
152.5304984897999
 30
0.0
 10
193.5436293751
 20
152.521896722
 30
0.0
 10
193.7392166328
 20
152.5211834782
 30
0.0
  0
SPLINE
  5
374
330
212
100
AcDbEntity
  8
RUNDUNGEN
  6
Continuous
 62
     9
100
AcDbSpline
210
0.0
220
0.0
230
1.0
 70
     8
 71
     3
 72
    13
 73
     9
 74
     0
 42
0.0000000001
 43
0.0000000001
 40
0.0
 40
0.0
 40
0.0
 40
0.0
 40
0.3222435881
 40
0.6229064913000001
 40
0.7510008717000001
 40
0.8584821599999999
 40
0.9421989027999998
 40
1.0
 40
1.0
 40
1.0
 40
1.0
 10
217.4517532585
 20
152.5211834753
 30
0.0
 10
217.6473405429
 20
152.521896733
 30
0.0
 10
218.0254003351
 20
152.5304984362
 30
0.0
 10
218.4806436383
 20
152.5563634862
 30
0.0
 10
218.8047255505
 20
152.5865476834
 30
0.0
 10
218.9971573535
 20
152.6103144089
 30
0.0
 10
219.1460818563
 20
152.635688371
 30
0.0
 10
219.2299196501
 20
152.6558765806
 30
0.0
 10
219.2628823315
 20
152.6678878449
 30
0.0
  0
SPLINE
  5
375
330
212
100
AcDbEntity
  8
RUNDUNGEN
  6
Continuous
 62
     9
100
AcDbSpline
210
0.0
220
0.0
230
1.0
 70
     8
 71
     3
 72
    13
 73
     9
 74
     0
 42
0.0000000001
 43
0.0000000001
 40
0.0
 40
0.0
 40
0.0
 40
0.0
 40
0.0630327565
 40
0.1484259749
 40
0.2553764204
 40
0.3818236443
 40
0.6791514501
 40
1.0
 40
1.0
 40
1.0
 40
1.0
 10
218.2673736497
 20
132.8885653338
 30
0.0
 10
218.2366781435
 20
132.8642725271
 30
0.0
 10
218.1550240626
 20
132.819512658
 30
0.0
 10
218.0066974014
 20
132.7632239566
 30
0.0
 10
217.8157280156
 20
132.7099513399
 30
0.0
 10
217.493045446
 20
132.6421708579
 30
0.0
 10
217.0336755149
 20
132.5831754487
 30
0.0
 10
216.6497550335
 20
132.5643763084
 30
0.0
 10
216.450499652
 20
132.5635933723
 30
0.0
  0
SPLINE
  5
376
330
212
100
AcDbEntity
  8
RUNDUNGEN
  6
Continuous
 62
     9
100
AcDbSpline
210
0.0
220
0.0
230
1.0
 70
     8
 71
     3
 72
    11
 73
     7
 74
     0
 42
0.0000000001
 43
0.0000000001
 40
0.0
 40
0.0
 40
0.0
 40
0.0
 40
0.3200743526
 40
0.6212061741000001
 40
0.8594279201
 40
1.0
 40
1.0
 40
1.0
 40
1.0
 10
195.4858049012
 20
158.8642428117
 30
0.0
 10
195.2948308092
 20
158.8642435971
 30
0.0
 10
194.9241911931
 20
158.8655920168
 30
0.0
 10
194.4114003475
 20
158.8702872787
 30
0.0
 10
194.0058506081
 20
158.8782790223
 30
0.0
 10
193.7798215101
 20
158.8840625064
 30
0.0
 10
193.6961404279
 20
158.8897345339
 30
0.0
  0
SPLINE
  5
377
330
212
100
AcDbEntity
  8
RUNDUNGEN
  6
Continuous
 62
     9
100
AcDbSpline
210
0.0
220
0.0
230
1.0
 70
     8
 71
     3
 72
    10
 73
     6
 74
     0
 42
0.0000000001
 43
0.0000000001
 40
0.0
 40
0.0
 40
0.0
 40
0.0
 40
0.6212577962000001
 40
0.8594848645999999
 40
1.0
 40
1.0
 40
1.0
 40
1.0
 10
195.4858049012
 20
154.7959046415
 30
0.0
 10
195.1151837821
 20
154.7959054778
 30
0.0
 10
194.6024375226
 20
154.7950972354
 30
0.0
 10
194.0058923950999
 20
154.7912340619
 30
0.0
 10
193.7799455893
 20
154.7893063263
 30
0.0
 10
193.6961404279
 20
154.7874143053
 30
0.0
  0
SPLINE
  5
378
330
212
100
AcDbEntity
  8
RUNDUNGEN
  6
Continuous
 62
     9
100
AcDbSpline
210
0.0
220
0.0
230
1.0
 70
     8
 71
     3
 72
    11
 73
     7
 74
     0
 42
0.0000000001
 43
0.0000000001
 40
0.0
 40
0.0
 40
0.0
 40
0.0
 40
0.1405720799
 40
0.3787938259000001
 40
0.6799256474
 40
1.0
 40
1.0
 40
1.0
 40
1.0
 10
217.494829583
 20
158.8897345339
 30
0.0
 10
217.4111485009
 20
158.8840625067
 30
0.0
 10
217.1851194029
 20
158.878279022
 30
0.0
 10
216.7795696635
 20
158.8702872788
 30
0.0
 10
216.2667788179
 20
158.8655920167
 30
0.0
 10
215.8961392018
 20
158.8642435971
 30
0.0
 10
215.7051651098
 20
158.8642428117
 30
0.0
  0
SPLINE
  5
379
330
212
100
AcDbEntity
  8
RUNDUNGEN
  6
Continuous
 62
     9
100
AcDbSpline
210
0.0
220
0.0
230
1.0
 70
     8
 71
     3
 72
    10
 73
     6
 74
     0
 42
0.0000000001
 43
0.0000000001
 40
0.0
 40
0.0
 40
0.0
 40
0.0
 40
0.1405151354
 40
0.3787422038
 40
1.0
 40
1.0
 40
1.0
 40
1.0
 10
217.494829583
 20
154.7874143053
 30
0.0
 10
217.4110244216
 20
154.7893063262
 30
0.0
 10
217.1850776158
 20
154.7912340619
 30
0.0
 10
216.5885324884
 20
154.7950972354
 30
0.0
 10
216.0757862289
 20
154.7959054778
 30
0.0
 10
215.7051651098
 20
154.7959046415
 30
0.0
  0
SPLINE
  5
37A
330
212
100
AcDbEntity
  8
RUNDUNGEN
  6
Continuous
 62
     9
100
AcDbSpline
210
0.0
220
0.0
230
1.0
 70
     8
 71
     3
 72
    11
 73
     7
 74
     0
 42
0.0000000001
 43
0.0000000001
 40
0.0
 40
0.0
 40
0.0
 40
0.0
 40
0.2932205564
 40
0.5780283836
 40
0.8204523116
 40
1.0
 40
1.0
 40
1.0
 40
1.0
 10
188.2020674488
 20
155.3471649184
 30
0.0
 10
188.3326789823
 20
155.3462870869
 30
0.0
 10
188.5906053045
 20
155.3685206787
 30
0.0
 10
188.9466988887
 20
155.4608016663
 30
0.0
 10
189.2315263054
 20
155.5965960664
 30
0.0
 10
189.3761184118
 20
155.7298465437
 30
0.0
 10
189.4123359066
 20
155.8011554229
 30
0.0
  0
SPLINE
  5
37B
330
212
100
AcDbEntity
  8
RUNDUNGEN
  6
Continuous
 62
     9
100
AcDbSpline
210
0.0
220
0.0
230
1.0
 70
     8
 71
     3
 72
    11
 73
     7
 74
     0
 42
0.0000000001
 43
0.0000000001
 40
0.0
 40
0.0
 40
0.0
 40
0.0
 40
0.1795525299
 40
0.4220815422000001
 40
0.7069568301000002
 40
1.0
 40
1.0
 40
1.0
 40
1.0
 10
192.4209845862
 20
132.9903220555
 30
0.0
 10
192.3846834305
 20
132.918843807
 30
0.0
 10
192.2396203151
 20
132.7853085912999
 30
0.0
 10
191.9539246955
 20
132.6494653676
 30
0.0
 10
191.596951914
 20
132.5571413508
 30
0.0
 10
191.3384250479
 20
132.535250411
 30
0.0
 10
191.2075892795
 20
132.5363315478
 30
0.0
  0
SPLINE
  5
37C
330
212
100
AcDbEntity
  8
RUNDUNGEN
  6
Continuous
 62
     9
100
AcDbSpline
210
0.0
220
0.0
230
1.0
 70
     8
 71
     3
 72
     9
 73
     5
 74
     0
 42
0.0000000001
 43
0.0000000001
 40
0.0
 40
0.0
 40
0.0
 40
0.0
 40
0.6187043234000001
 40
1.0
 40
1.0
 40
1.0
 40
1.0
 10
188.1158113233
 20
156.6971777504
 30
0.0
 10
188.3715654843
 20
156.6971608549
 30
0.0
 10
188.7849267005
 20
156.6983447739
 30
0.0
 10
189.198315938
 20
156.6987363924
 30
0.0
 10
189.3559136552
 20
156.7011639741
 30
0.0
  0
SPLINE
  5
37D
330
212
100
AcDbEntity
  8
RUNDUNGEN
  6
Continuous
 62
     9
100
AcDbSpline
210
0.0
220
0.0
230
1.0
 70
     8
 71
     3
 72
    11
 73
     7
 74
     0
 42
0.0000000001
 43
0.0000000001
 40
0.0
 40
0.0
 40
0.0
 40
0.0
 40
0.2533765103999999
 40
0.5054031803
 40
0.7542742727
 40
1.0
 40
1.0
 40
1.0
 40
1.0
 10
193.6961404279
 20
158.8897345339
 30
0.0
 10
193.6979028691
 20
159.0196992151
 30
0.0
 10
193.7513973612
 20
159.2808691928
 30
0.0
 10
193.9690686594
 20
159.611806413
 30
0.0
 10
194.292021674
 20
159.8350530548
 30
0.0
 10
194.5484574395
 20
159.8882157573
 30
0.0
 10
194.674509298
 20
159.8883640686
 30
0.0
  0
SPLINE
  5
37E
330
212
100
AcDbEntity
  8
RUNDUNGEN
  6
Continuous
 62
     9
100
AcDbSpline
210
0.0
220
0.0
230
1.0
 70
     8
 71
     3
 72
    13
 73
     9
 74
     0
 42
0.0000000001
 43
0.0000000001
 40
0.0
 40
0.0
 40
0.0
 40
0.0
 40
0.3537537783
 40
0.6599960658000001
 40
0.7826901759
 40
0.8802468418000001
 40
0.9515002358
 40
1.0
 40
1.0
 40
1.0
 40
1.0
 10
195.4858049012
 20
158.8642428117
 30
0.0
 10
195.4858049064
 20
158.9878877217
 30
0.0
 10
195.4762853028
 20
159.21861392
 30
0.0
 10
195.4403490165
 20
159.4905868179
 30
0.0
 10
195.3956904169
 20
159.6692739196
 30
0.0
 10
195.3598317289
 20
159.7651420843
 30
0.0
 10
195.3220881603
 20
159.8311423407
 30
0.0
 10
195.2870289134
 20
159.859061912
 30
0.0
 10
195.2705109613
 20
159.8628723464
 30
0.0
  0
SPLINE
  5
37F
330
212
100
AcDbEntity
  8
RUNDUNGEN
  6
Continuous
 62
     9
100
AcDbSpline
210
0.0
220
0.0
230
1.0
 70
     8
 71
     3
 72
    13
 73
     9
 74
     0
 42
0.0000000001
 43
0.0000000001
 40
0.0
 40
0.0
 40
0.0
 40
0.0
 40
0.3537537686999999
 40
0.6599960583
 40
0.7826901722000001
 40
0.8802468413999999
 40
0.9515002379
 40
1.0
 40
1.0
 40
1.0
 40
1.0
 10
215.7051651098
 20
158.8642428117
 30
0.0
 10
215.7051651094
 20
158.9878877173999
 30
0.0
 10
215.7146847192
 20
159.2186139108
 30
0.0
 10
215.7506210072
 20
159.4905868049
 30
0.0
 10
215.7952796044
 20
159.6692739087
 30
0.0
 10
215.8311382895
 20
159.7651420778
 30
0.0
 10
215.8688818552
 20
159.8311423354
 30
0.0
 10
215.9039410986
 20
159.8590619116
 30
0.0
 10
215.9204590497
 20
159.8628723464
 30
0.0
  0
SPLINE
  5
380
330
212
100
AcDbEntity
  8
RUNDUNGEN
  6
Continuous
 62
     9
100
AcDbSpline
210
0.0
220
0.0
230
1.0
 70
     8
 71
     3
 72
    11
 73
     7
 74
     0
 42
0.0000000001
 43
0.0000000001
 40
0.0
 40
0.0
 40
0.0
 40
0.0
 40
0.2533764869
 40
0.5054031731000001
 40
0.7542742990000001
 40
1.0
 40
1.0
 40
1.0
 40
1.0
 10
217.4948130275
 20
158.8897345339
 30
0.0
 10
217.4930506085
 20
159.019698005
 30
0.0
 10
217.4395576887
 20
159.2808655014
 30
0.0
 10
217.2218918261
 20
159.6118016956
 30
0.0
 10
216.898944458
 20
159.8350501883
 30
0.0
 10
216.6425113949
 20
159.8882148663
 30
0.0
 10
216.516460713
 20
159.8883640635
 30
0.0
  0
SPLINE
  5
381
330
212
100
AcDbEntity
  8
RUNDUNGEN
  6
Continuous
 62
     9
100
AcDbSpline
210
0.0
220
0.0
230
1.0
 70
     8
 71
     3
 72
    13
 73
     9
 74
     0
 42
0.0000000001
 43
0.0000000001
 40
0.0
 40
0.0
 40
0.0
 40
0.0
 40
0.3518527536
 40
0.6566444854000001
 40
0.7791025373
 40
0.8769734893999999
 40
0.9493081626
 40
1.0
 40
1.0
 40
1.0
 40
1.0
 10
190.0715696664
 20
161.7682444326
 30
0.0
 10
190.0716892499
 20
161.6449864652
 30
0.0
 10
190.0820560757
 20
161.414908771
 30
0.0
 10
190.1206778481
 20
161.1438661785
 30
0.0
 10
190.1685338546
 20
160.9660128774
 30
0.0
 10
190.2069259458
 20
160.870473037
 30
0.0
 10
190.2477675231
 20
160.8043961207
 30
0.0
 10
190.2848920791999
 20
160.7773386553
 30
0.0
 10
190.3022522302
 20
160.773601122
 30
0.0
  0
SPLINE
  5
382
330
212
100
AcDbEntity
  8
RUNDUNGEN
  6
Continuous
 62
     9
100
AcDbSpline
210
0.0
220
0.0
230
1.0
 70
     8
 71
     3
 72
    11
 73
     7
 74
     0
 42
0.0000000001
 43
0.0000000001
 40
0.0
 40
0.0
 40
0.0
 40
0.0
 40
0.293043168
 40
0.5779184576
 40
0.8204474701
 40
1.0
 40
1.0
 40
1.0
 40
1.0
 10
219.9833807314
 20
132.5363315477
 30
0.0
 10
219.852544963
 20
132.5352505118
 30
0.0
 10
219.5940180974
 20
132.5571412988
 30
0.0
 10
219.2370453165
 20
132.6494653782
 30
0.0
 10
218.951349696
 20
132.785308589
 30
0.0
 10
218.8062865805
 20
132.918843807
 30
0.0
 10
218.7699854247
 20
132.9903220555
 30
0.0
  0
SPLINE
  5
383
330
212
100
AcDbEntity
  8
RUNDUNGEN
  6
Continuous
 62
     9
100
AcDbSpline
210
0.0
220
0.0
230
1.0
 70
     8
 71
     3
 72
    11
 73
     7
 74
     0
 42
0.0000000001
 43
0.0000000001
 40
0.0
 40
0.0
 40
0.0
 40
0.0
 40
0.2932205446
 40
0.5780283657
 40
0.8204522993000001
 40
1.0
 40
1.0
 40
1.0
 40
1.0
 10
222.9889025213
 20
155.3471649944
 30
0.0
 10
222.858291001
 20
155.3462871631
 30
0.0
 10
222.6003647027
 20
155.3685207499
 30
0.0
 10
222.2442711431
 20
155.4608017182
 30
0.0
 10
221.9594437313
 20
155.5965960962
 30
0.0
 10
221.8148516141
 20
155.7298465507
 30
0.0
 10
221.7786341044
 20
155.8011554229
 30
0.0
  0
SPLINE
  5
384
330
212
100
AcDbEntity
  8
RUNDUNGEN
  6
Continuous
 62
     9
100
AcDbSpline
210
0.0
220
0.0
230
1.0
 70
     8
 71
     3
 72
     9
 73
     5
 74
     0
 42
0.0000000001
 43
0.0000000001
 40
0.0
 40
0.0
 40
0.0
 40
0.0
 40
0.6187043487000001
 40
1.0
 40
1.0
 40
1.0
 40
1.0
 10
223.0751587246
 20
156.6971777499
 30
0.0
 10
222.8194045455
 20
156.6971608543
 30
0.0
 10
222.406043317
 20
156.6983447739
 30
0.0
 10
221.9926540671
 20
156.6987363916
 30
0.0
 10
221.8350563558
 20
156.7011639741
 30
0.0
  0
SPLINE
  5
385
330
212
100
AcDbEntity
  8
RUNDUNGEN
  6
Continuous
 62
     9
100
AcDbSpline
210
0.0
220
0.0
230
1.0
 70
     8
 71
     3
 72
     9
 73
     5
 74
     0
 42
0.0000000001
 43
0.0000000001
 40
0.0
 40
0.0
 40
0.0
 40
0.0
 40
0.618702589
 40
1.0
 40
1.0
 40
1.0
 40
1.0
 10
223.0783213543
 20
159.7650812576
 30
0.0
 10
222.8225685184
 20
159.7650643355
 30
0.0
 10
222.4092082857
 20
159.7662482903
 30
0.0
 10
221.9958200304
 20
159.766639854
 30
0.0
 10
221.8382219718
 20
159.7690674816
 30
0.0
  0
SPLINE
  5
386
330
212
100
AcDbEntity
  8
RUNDUNGEN
  6
Continuous
 62
     9
100
AcDbSpline
210
0.0
220
0.0
230
1.0
 70
     8
 71
     3
 72
    11
 73
     7
 74
     0
 42
0.0000000001
 43
0.0000000001
 40
0.0
 40
0.0
 40
0.0
 40
0.0
 40
0.2541217601
 40
0.5046036256000001
 40
0.7522327644
 40
1.0
 40
1.0
 40
1.0
 40
1.0
 10
221.8382196366
 20
159.7690674816
 30
0.0
 10
221.8402327549
 20
159.8987008318
 30
0.0
 10
221.7959110971
 20
160.1595779142
 30
0.0
 10
221.5896552291
 20
160.4945866939
 30
0.0
 10
221.2711116545
 20
160.721350836
 30
0.0
 10
221.0151247854
 20
160.7737053291
 30
0.0
 10
220.8887178311
 20
160.7735971962
 30
0.0
  0
SPLINE
  5
387
330
212
100
AcDbEntity
  8
RUNDUNGEN
  6
Continuous
 62
     9
100
AcDbSpline
210
0.0
220
0.0
230
1.0
 70
     8
 71
     3
 72
    13
 73
     9
 74
     0
 42
0.0000000001
 43
0.0000000001
 40
0.0
 40
0.0
 40
0.0
 40
0.0
 40
0.0506918374
 40
0.1230265106
 40
0.2208974627
 40
0.3433555146
 40
0.6481472464
 40
1.0
 40
1.0
 40
1.0
 40
1.0
 10
220.8887177808
 20
160.773601122
 30
0.0
 10
220.9060779318
 20
160.7773386553
 30
0.0
 10
220.9432024879
 20
160.8043961207
 30
0.0
 10
220.9840440651
 20
160.870473037
 30
0.0
 10
221.0224361562
 20
160.9660128774
 30
0.0
 10
221.0702921628
 20
161.1438661786
 30
0.0
 10
221.1089139352
 20
161.4149087711
 30
0.0
 10
221.119280761
 20
161.6449864652
 30
0.0
 10
221.1194003445
 20
161.7682444326
 30
0.0
  0
SPLINE
  5
388
330
212
100
AcDbEntity
  8
RUNDUNGEN
  6
Continuous
 62
     9
100
AcDbSpline
210
0.0
220
0.0
230
1.0
 70
     8
 71
     3
 72
    11
 73
     7
 74
     0
 42
0.0000000001
 43
0.0000000001
 40
0.0
 40
0.0
 40
0.0
 40
0.0
 40
0.2477671244
 40
0.4953961324
 40
0.7458778288
 40
1.0
 40
1.0
 40
1.0
 40
1.0
 10
190.3022521796
 20
160.7735971683
 30
0.0
 10
190.1758452744
 20
160.7737053024
 30
0.0
 10
189.9198585109999
 20
160.7213508296
 30
0.0
 10
189.6013150864
 20
160.4945869167
 30
0.0
 10
189.3950587256
 20
160.159578275
 30
0.0
 10
189.3507372723
 20
159.898701054
 30
0.0
 10
189.3527500813
 20
159.7690674816
 30
0.0
  0
SPLINE
  5
389
330
212
100
AcDbEntity
  8
RUNDUNGEN
  6
Continuous
 62
     9
100
AcDbSpline
210
0.0
220
0.0
230
1.0
 70
     8
 71
     3
 72
     9
 73
     5
 74
     0
 42
0.0000000001
 43
0.0000000001
 40
0.0
 40
0.0
 40
0.0
 40
0.0
 40
0.3812978002
 40
1.0
 40
1.0
 40
1.0
 40
1.0
 10
189.3527500813
 20
159.7690674816
 30
0.0
 10
189.1951517322
 20
159.7666398532
 30
0.0
 10
188.7817631368
 20
159.7662483005
 30
0.0
 10
188.3684025641
 20
159.7650643484
 30
0.0
 10
188.1126496789
 20
159.7650812724
 30
0.0
  0
SPLINE
  5
38A
330
212
100
AcDbEntity
  8
RUNDUNGEN
  6
Continuous
 62
     9
100
AcDbSpline
210
0.0
220
0.0
230
1.0
 70
     8
 71
     3
 72
    11
 73
     7
 74
     0
 42
0.0000000001
 43
0.0000000001
 40
0.0
 40
0.0
 40
0.0
 40
0.0
 40
0.2458759384
 40
0.4943787605
 40
0.7461706370000001
 40
1.0
 40
1.0
 40
1.0
 40
1.0
 10
194.6662156206
 20
153.7875666101
 30
0.0
 10
194.5403241718
 20
153.7876160653
 30
0.0
 10
194.2843605137
 20
153.8404907131
 30
0.0
 10
193.9626743908
 20
154.0642188027
 30
0.0
 10
193.7476786996
 20
154.3961281403
 30
0.0
 10
193.6967274202
 20
154.6574519227
 30
0.0
 10
193.6961404277
 20
154.7874143052
 30
0.0
  0
SPLINE
  5
38B
330
212
100
AcDbEntity
  8
RUNDUNGEN
  6
Continuous
 62
     9
100
AcDbSpline
210
0.0
220
0.0
230
1.0
 70
     8
 71
     3
 72
    14
 73
    10
 74
     0
 42
0.0000000001
 43
0.0000000001
 40
0.0
 40
0.0
 40
0.0
 40
0.0
 40
0.0464149718
 40
0.1148865007
 40
0.2105638448
 40
0.3326245157
 40
0.4777593086
 40
0.6411938421
 40
1.0
 40
1.0
 40
1.0
 40
1.0
 10
195.2625859831
 20
153.7960569463
 30
0.0
 10
195.2788826199
 20
153.7973090544
 30
0.0
 10
195.3160888955
 20
153.8209471222
 30
0.0
 10
195.3548640134
 20
153.8845902185
 30
0.0
 10
195.3920598041
 20
153.9786952602
 30
0.0
 10
195.4241731027
 20
154.1025633448
 30
0.0
 10
195.4509221781
 20
154.2519428488
 30
0.0
 10
195.4782328816
 20
154.4854565651
 30
0.0
 10
195.4858049139
 20
154.6695538754
 30
0.0
 10
195.4858048994
 20
154.7959046415
 30
0.0
  0
SPLINE
  5
38C
330
212
100
AcDbEntity
  8
RUNDUNGEN
  6
Continuous
 62
     9
100
AcDbSpline
210
0.0
220
0.0
230
1.0
 70
     8
 71
     3
 72
    14
 73
    10
 74
     0
 42
0.0000000001
 43
0.0000000001
 40
0.0
 40
0.0
 40
0.0
 40
0.0
 40
0.0464149582
 40
0.1148864852
 40
0.2105638324
 40
0.3326245091
 40
0.4777593075000001
 40
0.6411938446000001
 40
1.0
 40
1.0
 40
1.0
 40
1.0
 10
215.9283840279
 20
153.7960569463
 30
0.0
 10
215.9120873964
 20
153.7973090547
 30
0.0
 10
215.8748811331
 20
153.8209471323
 30
0.0
 10
215.8361060307
 20
153.884590227
 30
0.0
 10
215.7989102484
 20
153.9786952727
 30
0.0
 10
215.766796953
 20
154.1025633593
 30
0.0
 10
215.740047875
 20
154.2519428641
 30
0.0
 10
215.7127371596
 20
154.4854565749
 30
0.0
 10
215.7051651104
 20
154.6695538796
 30
0.0
 10
215.7051651098
 20
154.7959046415
 30
0.0
  0
SPLINE
  5
38D
330
212
100
AcDbEntity
  8
RUNDUNGEN
  6
Continuous
 62
     9
100
AcDbSpline
210
0.0
220
0.0
230
1.0
 70
     8
 71
     3
 72
    11
 73
     7
 74
     0
 42
0.0000000001
 43
0.0000000001
 40
0.0
 40
0.0
 40
0.0
 40
0.0
 40
0.2458758909
 40
0.4943787443
 40
0.7461706524
 40
1.0
 40
1.0
 40
1.0
 40
1.0
 10
216.5247543904
 20
153.787566612
 30
0.0
 10
216.6506445529
 20
153.78761703
 30
0.0
 10
216.9066052712
 20
153.8404938318
 30
0.0
 10
217.2282852302
 20
154.064223952
 30
0.0
 10
217.443275007
 20
154.3961321531
 30
0.0
 10
217.494224617
 20
154.6574532328
 30
0.0
 10
217.4948116007
 20
154.7874143052
 30
0.0
  0
SPLINE
  5
38E
330
212
100
AcDbEntity
  8
RUNDUNGEN
  6
Continuous
 62
     9
100
AcDbSpline
210
0.0
220
0.0
230
1.0
 70
     8
 71
     3
 72
    15
 73
    11
 74
     0
 42
0.0000000001
 43
0.0000000001
 40
0.0
 40
0.0
 40
0.0
 40
0.0
 40
0.346526449
 40
0.5106763903
 40
0.6589285737
 40
0.7849667923000001
 40
0.8840543181000001
 40
0.9227527292000001
 40
0.9543554905
 40
1.0
 40
1.0
 40
1.0
 40
1.0
 10
193.7392427769
 20
152.5211828107
 30
0.0
 10
193.7327653431
 20
152.6652881183
 30
0.0
 10
193.7338663705
 20
152.8783637695999
 30
0.0
 10
193.7565961049
 20
153.1518067627
 30
0.0
 10
193.7826378791
 20
153.3326143345
 30
0.0
 10
193.816799215
 20
153.4844127109
 30
0.0
 10
193.8522397064
 20
153.5887646849
 30
0.0
 10
193.8857213414
 20
153.6513175382
 30
0.0
 10
193.9139044948
 20
153.6899038481
 30
0.0
 10
193.9432557054999
 20
153.7104093321
 30
0.0
 10
193.9622025411999
 20
153.7118395014
 30
0.0
  0
SPLINE
  5
38F
330
212
100
AcDbEntity
  8
RUNDUNGEN
  6
Continuous
 62
     9
100
AcDbSpline
210
0.0
220
0.0
230
1.0
 70
     8
 71
     3
 72
    15
 73
    11
 74
     0
 42
0.0000000001
 43
0.0000000001
 40
0.0
 40
0.0
 40
0.0
 40
0.0
 40
0.3465264424
 40
0.5106763829
 40
0.6589285664000001
 40
0.7849667866
 40
0.8840543148
 40
0.9227527273999999
 40
0.9543554898
 40
1.0
 40
1.0
 40
1.0
 40
1.0
 10
217.4517272341
 20
152.5211828107
 30
0.0
 10
217.4582046669
 20
152.6652881154
 30
0.0
 10
217.4571036386
 20
152.8783637632
 30
0.0
 10
217.4343739045
 20
153.1518067528
 30
0.0
 10
217.4083321307
 20
153.3326143248
 30
0.0
 10
217.3741707953
 20
153.4844127028
 30
0.0
 10
217.3387303044
 20
153.5887646791
 30
0.0
 10
217.3052486702
 20
153.6513175351
 30
0.0
 10
217.2770655162
 20
153.689903846
 30
0.0
 10
217.2477143058
 20
153.7104093321
 30
0.0
 10
217.2287674698
 20
153.7118395014
 30
0.0
  0
SPLINE
  5
390
330
212
100
AcDbEntity
  8
RUNDUNGEN
  6
Continuous
 62
     9
100
AcDbSpline
210
0.0
220
0.0
230
1.0
 70
     8
 71
     3
 72
    11
 73
     7
 74
     0
 42
0.0000000001
 43
0.0000000001
 40
0.0
 40
0.0
 40
0.0
 40
0.0
 40
0.3066198707
 40
0.5813042471000001
 40
0.8134226968000001
 40
1.0
 40
1.0
 40
1.0
 40
1.0
 10
218.5344204031
 20
153.1898767804
 30
0.0
 10
218.6129613955
 20
153.1418810323
 30
0.0
 10
218.762877656
 20
153.0526244176
 30
0.0
 10
218.9709689667
 20
152.9245991336
 30
0.0
 10
219.1399207435
 20
152.8028430225
 30
0.0
 10
219.2302388733
 20
152.7133950686
 30
0.0
 10
219.2628981952
 20
152.6678935439
 30
0.0
  0
SPLINE
  5
391
330
212
100
AcDbEntity
  8
RUNDUNGEN
  6
Continuous
 62
     9
100
AcDbSpline
210
0.0
220
0.0
230
1.0
 70
     8
 71
     3
 72
     9
 73
     5
 74
     0
 42
0.0000000001
 43
0.0000000001
 40
0.0
 40
0.0
 40
0.0
 40
0.0
 40
0.2397994473
 40
1.0
 40
1.0
 40
1.0
 40
1.0
 10
219.1090604798
 20
153.6785861288
 30
0.0
 10
219.1246269334
 20
153.5983620787
 30
0.0
 10
219.1840632615
 20
153.2627435056
 30
0.0
 10
219.2286145455
 20
152.9247668084
 30
0.0
 10
219.2628868682
 20
152.667977966
 30
0.0
  0
SPLINE
  5
392
330
212
100
AcDbEntity
  8
RUNDUNGEN
  6
Continuous
 62
     9
100
AcDbSpline
210
0.0
220
0.0
230
1.0
 70
     8
 71
     3
 72
    11
 73
     7
 74
     0
 42
0.0000000001
 43
0.0000000001
 40
0.0
 40
0.0
 40
0.0
 40
0.0
 40
0.1817049125
 40
0.4258379872999999
 40
0.7089067188
 40
1.0
 40
1.0
 40
1.0
 40
1.0
 10
217.658202683
 20
153.7111321316
 30
0.0
 10
217.7202242936
 20
153.7087023032
 30
0.0
 10
217.858897945
 20
153.6466213796
 30
0.0
 10
218.054467881
 20
153.5075312615
 30
0.0
 10
218.2842944709
 20
153.3470848203
 30
0.0
 10
218.4493731445
 20
153.2413428321
 30
0.0
 10
218.5344392576
 20
153.189853215
 30
0.0
  0
SPLINE
  5
393
330
212
100
AcDbEntity
  8
RUNDUNGEN
  6
Continuous
 62
     9
100
AcDbSpline
210
0.0
220
0.0
230
1.0
 70
     8
 71
     3
 72
    11
 73
     7
 74
     0
 42
0.0000000001
 43
0.0000000001
 40
0.0
 40
0.0
 40
0.0
 40
0.0
 40
0.2538176084
 40
0.5056212702
 40
0.7541357075000001
 40
1.0
 40
1.0
 40
1.0
 40
1.0
 10
218.6282912736
 20
154.7109869501
 30
0.0
 10
218.6277059316
 20
154.5810286544
 30
0.0
 10
218.5767630954
 20
154.3196984513
 30
0.0
 10
218.3617534717
 20
153.9877833274
 30
0.0
 10
218.0400608803
 20
153.7640419549
 30
0.0
 10
217.7840900341
 20
153.7111782861
 30
0.0
 10
217.658202683
 20
153.7111321316
 30
0.0
  0
SPLINE
  5
394
330
212
100
AcDbEntity
  8
RUNDUNGEN
  6
Continuous
 62
     9
100
AcDbSpline
210
0.0
220
0.0
230
1.0
 70
     8
 71
     3
 72
    11
 73
     7
 74
     0
 42
0.0000000001
 43
0.0000000001
 40
0.0
 40
0.0
 40
0.0
 40
0.0
 40
0.2458642922
 40
0.4943787298000001
 40
0.7461823916000001
 40
1.0
 40
1.0
 40
1.0
 40
1.0
 10
193.5327672059
 20
153.7111321227
 30
0.0
 10
193.4068798647
 20
153.7111782929
 30
0.0
 10
193.1509090453
 20
153.7640419863
 30
0.0
 10
192.829216499
 20
153.9877833681
 30
0.0
 10
192.6142069108
 20
154.3196984768
 30
0.0
 10
192.5632640841
 20
154.5810286595
 30
0.0
 10
192.5626787424
 20
154.7109869451
 30
0.0
  0
SPLINE
  5
395
330
212
100
AcDbEntity
  8
RUNDUNGEN
  6
Continuous
 62
     9
100
AcDbSpline
210
0.0
220
0.0
230
1.0
 70
     8
 71
     3
 72
    11
 73
     7
 74
     0
 42
0.0000000001
 43
0.0000000001
 40
0.0
 40
0.0
 40
0.0
 40
0.0
 40
0.2910952425
 40
0.5741617791
 40
0.8182952085
 40
1.0
 40
1.0
 40
1.0
 40
1.0
 10
192.6565305742
 20
153.1898526754
 30
0.0
 10
192.7416009449
 20
153.2413366241
 30
0.0
 10
192.9066761617
 20
153.3470845215
 30
0.0
 10
193.1365024752
 20
153.5075312698
 30
0.0
 10
193.3320718683
 20
153.6466212107
 30
0.0
 10
193.470745613
 20
153.7087023026
 30
0.0
 10
193.5327672059
 20
153.7111321227
 30
0.0
  0
SPLINE
  5
396
330
212
100
AcDbEntity
  8
RUNDUNGEN
  6
Continuous
 62
     9
100
AcDbSpline
210
0.0
220
0.0
230
1.0
 70
     8
 71
     3
 72
    11
 73
     7
 74
     0
 42
0.0000000001
 43
0.0000000001
 40
0.0
 40
0.0
 40
0.0
 40
0.0
 40
0.1865776744
 40
0.4186951827000001
 40
0.6933799000000001
 40
1.0
 40
1.0
 40
1.0
 40
1.0
 10
191.9280718158
 20
152.6678935439
 30
0.0
 10
191.9607309136
 20
152.7133953798
 30
0.0
 10
192.051048415
 20
152.8028439456
 30
0.0
 10
192.2200017743
 20
152.9245978278
 30
0.0
 10
192.4280914131
 20
153.0526255291
 30
0.0
 10
192.5780081784
 20
153.1418817488
 30
0.0
 10
192.6565497767
 20
153.1898766713
 30
0.0
  0
SPLINE
  5
397
330
212
100
AcDbEntity
  8
RUNDUNGEN
  6
Continuous
 62
     9
100
AcDbSpline
210
0.0
220
0.0
230
1.0
 70
     8
 71
     3
 72
     9
 73
     5
 74
     0
 42
0.0000000001
 43
0.0000000001
 40
0.0
 40
0.0
 40
0.0
 40
0.0
 40
0.2570007082
 40
1.0
 40
1.0
 40
1.0
 40
1.0
 10
191.9280830148
 20
152.6679770131
 30
0.0
 10
191.9396684065
 20
152.754784826
 30
0.0
 10
191.9847611101
 20
153.092517961
 30
0.0
 10
192.0336810363
 20
153.4300319035
 30
0.0
 10
192.0819095354
 20
153.678586129
 30
0.0
  0
SPLINE
  5
398
330
212
100
AcDbEntity
  8
RUNDUNGEN
  6
Continuous
 62
     9
100
AcDbSpline
210
0.0
220
0.0
230
1.0
 70
     8
 71
     3
 72
    13
 73
     9
 74
     0
 42
0.0000000001
 43
0.0000000001
 40
0.0
 40
0.0
 40
0.0
 40
0.0
 40
0.2475453836
 40
0.4962240623
 40
0.6216950223
 40
0.7475459375
 40
0.8736837298999999
 40
1.0
 40
1.0
 40
1.0
 40
1.0
 10
219.480436735
 20
228.8305101153
 30
0.0
 10
219.2103676171
 20
228.8304976218
 30
0.0
 10
218.6646878954
 20
228.9203371598
 30
0.0
 10
218.059780519
 20
229.26195608
 30
0.0
 10
217.6794655031
 20
229.6576111483
 30
0.0
 10
217.4594706057
 20
230.0095541538
 30
0.0
 10
217.3206470325
 20
230.4016843215
 30
0.0
 10
217.288961425
 20
230.6781313209
 30
0.0
 10
217.2889873275
 20
230.8159408916
 30
0.0
  0
SPLINE
  5
399
330
212
100
AcDbEntity
  8
RUNDUNGEN
  6
Continuous
 62
     9
100
AcDbSpline
210
0.0
220
0.0
230
1.0
 70
     8
 71
     3
 72
    12
 73
     8
 74
     0
 42
0.0000000001
 43
0.0000000001
 40
0.0
 40
0.0
 40
0.0
 40
0.0
 40
0.3570685563
 40
0.6476766316
 40
0.7639929682
 40
0.8602697696999999
 40
1.0
 40
1.0
 40
1.0
 40
1.0
 10
219.9833807314
 20
132.5363315477
 30
0.0
 10
219.9731505208
 20
132.464041599
 30
0.0
 10
219.9491726934
 20
132.3335754488
 30
0.0
 10
219.9038130507
 20
132.1835506271
 30
0.0
 10
219.858698192
 20
132.090404331
 30
0.0
 10
219.8192628435
 20
132.0309672053
 30
0.0
 10
219.778522485
 20
131.9969901362
 30
0.0
 10
219.7504471181
 20
131.9916925208
 30
0.0
  0
SPLINE
  5
39A
330
212
100
AcDbEntity
  8
RUNDUNGEN
  6
Continuous
 62
     9
100
AcDbSpline
210
0.0
220
0.0
230
1.0
 70
     8
 71
     3
 72
    11
 73
     7
 74
     0
 42
0.0000000001
 43
0.0000000001
 40
0.0
 40
0.0
 40
0.0
 40
0.0
 40
0.253383665
 40
0.5054294357
 40
0.7543171742000001
 40
1.0
 40
1.0
 40
1.0
 40
1.0
 10
218.7699854247
 20
132.9903220555
 30
0.0
 10
218.7729068129
 20
132.860199145
 30
0.0
 10
218.8246817384
 20
132.598584798
 30
0.0
 10
219.0438011722
 20
132.2674094739
 30
0.0
 10
219.3673172521
 20
132.0443987678
 30
0.0
 10
219.6242473926
 20
131.9914259958
 30
0.0
 10
219.7504471181
 20
131.9916925208
 30
0.0
  0
SPLINE
  5
39B
330
212
100
AcDbEntity
  8
RUNDUNGEN
  6
Continuous
 62
     9
100
AcDbSpline
210
0.0
220
0.0
230
1.0
 70
     8
 71
     3
 72
    11
 73
     7
 74
     0
 42
0.0000000001
 43
0.0000000001
 40
0.0
 40
0.0
 40
0.0
 40
0.0
 40
0.2533841409
 40
0.5054131034
 40
0.7542792143000002
 40
1.0
 40
1.0
 40
1.0
 40
1.0
 10
218.2673739077
 20
132.8885710304
 30
0.0
 10
218.2691388397
 20
132.7584257633
 30
0.0
 10
218.3227801394
 20
132.4968892584
 30
0.0
 10
218.5410310987
 20
132.1656534311
 30
0.0
 10
218.8647514656
 20
131.9425334474
 30
0.0
 10
219.1216609848
 20
131.8898075528
 30
0.0
 10
219.2478816618
 20
131.8899485943
 30
0.0
  0
SPLINE
  5
39C
330
212
100
AcDbEntity
  8
RUNDUNGEN
  6
Continuous
 62
     9
100
AcDbSpline
210
0.0
220
0.0
230
1.0
 70
     8
 71
     3
 72
    13
 73
     9
 74
     0
 42
0.0000000001
 43
0.0000000001
 40
0.0
 40
0.0
 40
0.0
 40
0.0
 40
0.3613959714
 40
0.6631907797
 40
0.7826801836000001
 40
0.8780191863999998
 40
0.9491055576999999
 40
1.0
 40
1.0
 40
1.0
 40
1.0
 10
216.4504723922
 20
132.5635923232
 30
0.0
 10
216.4458711591
 20
132.4602449898
 30
0.0
 10
216.4304568032
 20
132.2708684065
 30
0.0
 10
216.3920772001
 20
132.049461281
 30
0.0
 10
216.3494458396
 20
131.9076654392
 30
0.0
 10
216.3166439715
 20
131.832313492
 30
0.0
 10
216.2820884769
 20
131.7802225295
 30
0.0
 10
216.2518235053
 20
131.7590212244
 30
0.0
 10
216.2376219634
 20
131.7557717841
 30
0.0
  0
SPLINE
  5
39D
330
212
100
AcDbEntity
  8
RUNDUNGEN
  6
Continuous
 62
     9
100
AcDbSpline
210
0.0
220
0.0
230
1.0
 70
     8
 71
     3
 72
    13
 73
     9
 74
     0
 42
0.0000000001
 43
0.0000000001
 40
0.0
 40
0.0
 40
0.0
 40
0.0
 40
0.3613959528
 40
0.6631907562000001
 40
0.7826801615000001
 40
0.8780191701000001
 40
0.9491055488
 40
1.0
 40
1.0
 40
1.0
 40
1.0
 10
194.7404976188
 20
132.5635923232
 30
0.0
 10
194.7450988467
 20
132.4602449939
 30
0.0
 10
194.760513195
 20
132.2708684149
 30
0.0
 10
194.798892792
 20
132.0494612922
 30
0.0
 10
194.8415241531
 20
131.9076654486
 30
0.0
 10
194.8743260232
 20
131.8323134964
 30
0.0
 10
194.9088815263
 20
131.7802225313
 30
0.0
 10
194.939146503
 20
131.7590212243
 30
0.0
 10
194.9533480476
 20
131.7557717841
 30
0.0
  0
SPLINE
  5
39E
330
212
100
AcDbEntity
  8
RUNDUNGEN
  6
Continuous
 62
     9
100
AcDbSpline
210
0.0
220
0.0
230
1.0
 70
     8
 71
     3
 72
    11
 73
     7
 74
     0
 42
0.0000000001
 43
0.0000000001
 40
0.0
 40
0.0
 40
0.0
 40
0.0
 40
0.2533840995
 40
0.5054130549
 40
0.754279197
 40
1.0
 40
1.0
 40
1.0
 40
1.0
 10
192.9235890944
 20
132.8885710304
 30
0.0
 10
192.9218241579
 20
132.7584259724
 30
0.0
 10
192.8681835147
 20
132.4968899198
 30
0.0
 10
192.6499349761
 20
132.1656534048
 30
0.0
 10
192.3262172308
 20
131.9425308253
 30
0.0
 10
192.069308751
 20
131.8898020317
 30
0.0
 10
191.9430882454
 20
131.8899414956
 30
0.0
  0
SPLINE
  5
39F
330
212
100
AcDbEntity
  8
RUNDUNGEN
  6
Continuous
 62
     9
100
AcDbSpline
210
0.0
220
0.0
230
1.0
 70
     8
 71
     3
 72
    11
 73
     7
 74
     0
 42
0.0000000001
 43
0.0000000001
 40
0.0
 40
0.0
 40
0.0
 40
0.0
 40
0.2533836625
 40
0.5054294322999999
 40
0.7543171720000001
 40
1.0
 40
1.0
 40
1.0
 40
1.0
 10
192.4209845862
 20
132.9903220555
 30
0.0
 10
192.4180632044
 20
132.8601991461
 30
0.0
 10
192.3662882688
 20
132.5985848018
 30
0.0
 10
192.1471688432
 20
132.2674094762
 30
0.0
 10
191.8236527612
 20
132.0443987693
 30
0.0
 10
191.5667226195
 20
131.9914259952
 30
0.0
 10
191.4405228929
 20
131.9916925208
 30
0.0
  0
SPLINE
  5
3A0
330
212
100
AcDbEntity
  8
RUNDUNGEN
  6
Continuous
 62
     9
100
AcDbSpline
210
0.0
220
0.0
230
1.0
 70
     8
 71
     3
 72
    12
 73
     8
 74
     0
 42
0.0000000001
 43
0.0000000001
 40
0.0
 40
0.0
 40
0.0
 40
0.0
 40
0.3570685625
 40
0.6476766335000001
 40
0.7639929689000001
 40
0.8602697695999999
 40
1.0
 40
1.0
 40
1.0
 40
1.0
 10
191.2075892689
 20
132.5363315546
 30
0.0
 10
191.2178194798
 20
132.4640416036
 30
0.0
 10
191.241797326
 20
132.3335754551
 30
0.0
 10
191.2871569602
 20
132.1835506289
 30
0.0
 10
191.3322718200999
 20
132.0904043331
 30
0.0
 10
191.3717071683
 20
132.0309672068
 30
0.0
 10
191.4124475265
 20
131.9969901361
 30
0.0
 10
191.4405228938
 20
131.9916925205
 30
0.0
  0
SPLINE
  5
3A1
330
212
100
AcDbEntity
  8
RUNDUNGEN
  6
Continuous
 62
     9
100
AcDbSpline
210
0.0
220
0.0
230
1.0
 70
     8
 71
     3
 72
     8
 73
     4
 74
     0
 42
0.0000000001
 43
0.0000000001
 40
0.0
 40
0.0
 40
0.0
 40
0.0
 40
1.0
 40
1.0
 40
1.0
 40
1.0
 10
191.9023467223
 20
229.8303578104
 30
0.0
 10
191.4136669539
 20
229.8599215096
 30
0.0
 10
190.9249734643
 20
229.889260466
 30
0.0
 10
190.4362588484
 20
229.9182424008
 30
0.0
  0
SPLINE
  5
3A2
330
212
100
AcDbEntity
  8
RUNDUNGEN
  6
Continuous
 62
     9
100
AcDbSpline
210
0.0
220
0.0
230
1.0
 70
     8
 71
     3
 72
     8
 73
     4
 74
     0
 42
0.0000000001
 43
0.0000000001
 40
0.0
 40
0.0
 40
0.0
 40
0.0
 40
1.0
 40
1.0
 40
1.0
 40
1.0
 10
220.7547759876
 20
229.9182424008
 30
0.0
 10
220.2660507292
 20
229.8892598433
 30
0.0
 10
219.7773464843
 20
229.8599221476
 30
0.0
 10
219.2886560744
 20
229.8303578104
 30
0.0
  0
SPLINE
  5
3A3
330
212
100
AcDbEntity
  8
RUNDUNGEN
  6
Continuous
 62
     9
100
AcDbSpline
210
0.0
220
0.0
230
1.0
 70
     8
 71
     3
 72
     9
 73
     5
 74
     0
 42
0.0000000001
 43
0.0000000001
 40
0.0
 40
0.0
 40
0.0
 40
0.0
 40
0.6339184136
 40
1.0
 40
1.0
 40
1.0
 40
1.0
 10
190.6641210968
 20
217.7160715545
 30
0.0
 10
190.8189286304
 20
217.7157271002
 30
0.0
 10
191.0631300113
 20
217.7146730506
 30
0.0
 10
191.3073456235
 20
217.7136517578
 30
0.0
 10
191.3967319334
 20
217.7120853303
 30
0.0
  0
SPLINE
  5
3A4
330
212
100
AcDbEntity
  8
RUNDUNGEN
  6
Continuous
 62
     9
100
AcDbSpline
210
0.0
220
0.0
230
1.0
 70
     8
 71
     3
 72
    13
 73
     9
 74
     0
 42
0.0000000001
 43
0.0000000001
 40
0.0
 40
0.0
 40
0.0
 40
0.0
 40
0.2428774692
 40
0.4855195219
 40
0.6083046131000001
 40
0.7335142088
 40
0.8633277379
 40
1.0
 40
1.0
 40
1.0
 40
1.0
 10
191.3927065824
 20
214.2887350788
 30
0.0
 10
191.3753095513
 20
214.1881697422
 30
0.0
 10
191.3264069855
 20
213.9892543737
 30
0.0
 10
191.2192818778
 20
213.7543049115
 30
0.0
 10
191.0953135032
 20
213.5884672614
 30
0.0
 10
190.976957281
 20
213.4807448605
 30
0.0
 10
190.8294318041999
 20
213.4029306001
 30
0.0
 10
190.7165308348
 20
213.3841696305
 30
0.0
 10
190.6591002357
 20
213.3840345038
 30
0.0
  0
SPLINE
  5
3A5
330
212
100
AcDbEntity
  8
RUNDUNGEN
  6
Continuous
 62
     9
100
AcDbSpline
210
0.0
220
0.0
230
1.0
 70
     8
 71
     3
 72
    13
 73
     9
 74
     0
 42
0.0000000001
 43
0.0000000001
 40
0.0
 40
0.0
 40
0.0
 40
0.0
 40
0.1366723351
 40
0.2664857786
 40
0.3916954132
 40
0.5144804829
 40
0.7571225212999999
 40
1.0
 40
1.0
 40
1.0
 40
1.0
 10
220.5318697948
 20
213.3840330897
 30
0.0
 10
220.4744391324
 20
213.3841682218
 30
0.0
 10
220.3615385411
 20
213.4029315755
 30
0.0
 10
220.2140125734
 20
213.4807445445
 30
0.0
 10
220.0956564888
 20
213.5884674204
 30
0.0
 10
219.9716879983
 20
213.7543050365
 30
0.0
 10
219.8645628514
 20
213.9892546952
 30
0.0
 10
219.8156603941
 20
214.188170189
 30
0.0
 10
219.7982633369
 20
214.2887355839
 30
0.0
  0
SPLINE
  5
3A6
330
212
100
AcDbEntity
  8
RUNDUNGEN
  6
Continuous
 62
     9
100
AcDbSpline
210
0.0
220
0.0
230
1.0
 70
     8
 71
     3
 72
     9
 73
     5
 74
     0
 42
0.0000000001
 43
0.0000000001
 40
0.0
 40
0.0
 40
0.0
 40
0.0
 40
0.3660815864
 40
1.0
 40
1.0
 40
1.0
 40
1.0
 10
219.7942380776
 20
217.7120853303
 30
0.0
 10
219.8836243873
 20
217.7136517578
 30
0.0
 10
220.1278399989
 20
217.7146730505
 30
0.0
 10
220.3720413793
 20
217.7157271002
 30
0.0
 10
220.5268489126
 20
217.7160715545
 30
0.0
  0
SPLINE
  5
3A7
330
212
100
AcDbEntity
  8
RUNDUNGEN
  6
Continuous
 62
     9
100
AcDbSpline
210
0.0
220
0.0
230
1.0
 70
     8
 71
     3
 72
    14
 73
    10
 74
     0
 42
0.0000000001
 43
0.0000000001
 40
0.0
 40
0.0
 40
0.0
 40
0.0
 40
0.3579366793999999
 40
0.5210571228000001
 40
0.6659590870000001
 40
0.7879505618000002
 40
0.8837830515999998
 40
0.9526998622
 40
1.0
 40
1.0
 40
1.0
 40
1.0
 10
220.5257230244
 20
230.918090096
 30
0.0
 10
220.5257230244
 20
230.7917377658
 30
0.0
 10
220.5335015289
 20
230.6075993848
 30
0.0
 10
220.5615474463
 20
230.3740921041
 30
0.0
 10
220.5890215068
 20
230.224686201
 30
0.0
 10
220.6220316891
 20
230.1007646171
 30
0.0
 10
220.6602283345
 20
230.0066069672
 30
0.0
 10
220.7002860281
 20
229.9428066351
 30
0.0
 10
220.7382861141
 20
229.9194882397
 30
0.0
 10
220.7549366093
 20
229.9182424008
 30
0.0
  0
SPLINE
  5
3A8
330
212
100
AcDbEntity
  8
RUNDUNGEN
  6
Continuous
 62
     9
100
AcDbSpline
210
0.0
220
0.0
230
1.0
 70
     8
 71
     3
 72
    11
 73
     7
 74
     0
 42
0.0000000001
 43
0.0000000001
 40
0.0
 40
0.0
 40
0.0
 40
0.0
 40
0.245896534
 40
0.4943967043
 40
0.7461702605000001
 40
1.0
 40
1.0
 40
1.0
 40
1.0
 10
220.7549366093
 20
229.9182424008
 30
0.0
 10
220.6296760819
 20
229.9193218123
 30
0.0
 10
220.3754641054
 20
229.9737417604
 30
0.0
 10
220.0566345966
 20
230.1979284653
 30
0.0
 10
219.8438801891
 20
230.5287862452
 30
0.0
 10
219.7935949005
 20
230.7887845826
 30
0.0
 10
219.7930821671
 20
230.918090096
 30
0.0
  0
SPLINE
  5
3A9
330
212
100
AcDbEntity
  8
RUNDUNGEN
  6
Continuous
 62
     9
100
AcDbSpline
210
0.0
220
0.0
230
1.0
 70
     8
 71
     3
 72
    12
 73
     8
 74
     0
 42
0.0000000001
 43
0.0000000001
 40
0.0
 40
0.0
 40
0.0
 40
0.0
 40
0.1348198864
 40
0.2674742436
 40
0.5210309467
 40
0.7636523826000001
 40
1.0
 40
1.0
 40
1.0
 40
1.0
 10
218.0902188404
 20
230.8159408913
 30
0.0
 10
218.0899035077
 20
230.7388241482
 30
0.0
 10
218.111012811
 20
230.5848789877
 30
0.0
 10
218.2303387396
 20
230.3084973811
 30
0.0
 10
218.4895074709
 20
230.041326482
 30
0.0
 10
218.877242239
 20
229.8652920859
 30
0.0
 10
219.153098114
 20
229.8295047528
 30
0.0
 10
219.2882869686
 20
229.8303601319
 30
0.0
  0
SPLINE
  5
3AA
330
212
100
AcDbEntity
  8
RUNDUNGEN
  6
Continuous
 62
     9
100
AcDbSpline
210
0.0
220
0.0
230
1.0
 70
     8
 71
     3
 72
    15
 73
    11
 74
     0
 42
0.0000000001
 43
0.0000000001
 40
0.0
 40
0.0
 40
0.0
 40
0.0
 40
0.3629964007
 40
0.5281070668
 40
0.6743519641
 40
0.7967744197
 40
0.8917642126999998
 40
0.9284630194
 40
0.9581432718
 40
1.0
 40
1.0
 40
1.0
 40
1.0
 10
219.4804366184
 20
228.8305101153
 30
0.0
 10
219.4804366131
 20
228.9568227193
 30
0.0
 10
219.4739529756
 20
229.1407388971
 30
0.0
 10
219.4504059414
 20
229.3742730276
 30
0.0
 10
219.4275196217
 20
229.5235686037
 30
0.0
 10
219.39963387
 20
229.6471248668
 30
0.0
 10
219.3718848189
 20
229.7313219261
 30
0.0
 10
219.3461463049
 20
229.7816380203
 30
0.0
 10
219.324975229
 20
229.8122222485
 30
0.0
 10
219.3027942615
 20
229.8290629531
 30
0.0
 10
219.2882869617
 20
229.8303578104
 30
0.0
  0
SPLINE
  5
3AB
330
212
100
AcDbEntity
  8
RUNDUNGEN
  6
Continuous
 62
     9
100
AcDbSpline
210
0.0
220
0.0
230
1.0
 70
     8
 71
     3
 72
    15
 73
    11
 74
     0
 42
0.0000000001
 43
0.0000000001
 40
0.0
 40
0.0
 40
0.0
 40
0.0
 40
0.0418567282
 40
0.0715369806
 40
0.1082357873
 40
0.2032255803
 40
0.3256480359
 40
0.4718929332
 40
0.6370035993
 40
1.0
 40
1.0
 40
1.0
 40
1.0
 10
191.90268305
 20
229.8303578104
 30
0.0
 10
191.8881757501999
 20
229.829062953
 30
0.0
 10
191.8659947825999
 20
229.8122222485
 30
0.0
 10
191.8448237067
 20
229.7816380203
 30
0.0
 10
191.8190851927
 20
229.7313219261
 30
0.0
 10
191.7913361416
 20
229.6471248669
 30
0.0
 10
191.7634503897
 20
229.5235686037
 30
0.0
 10
191.74056407
 20
229.3742730276
 30
0.0
 10
191.7170170356
 20
229.1407388971
 30
0.0
 10
191.710533398
 20
228.9568227193
 30
0.0
 10
191.7105333926
 20
228.8305101153
 30
0.0
  0
SPLINE
  5
3AC
330
212
100
AcDbEntity
  8
RUNDUNGEN
  6
Continuous
 62
     9
100
AcDbSpline
210
0.0
220
0.0
230
1.0
 70
     8
 71
     3
 72
    11
 73
     7
 74
     0
 42
0.0000000001
 43
0.0000000001
 40
0.0
 40
0.0
 40
0.0
 40
0.0
 40
0.2538284636
 40
0.5056069811000001
 40
0.7541255825
 40
1.0
 40
1.0
 40
1.0
 40
1.0
 10
191.3978878438
 20
230.918090096
 30
0.0
 10
191.3971987972
 20
230.7887860733
 30
0.0
 10
191.3471967981
 20
230.528780517
 30
0.0
 10
191.1343093726
 20
230.1979145259
 30
0.0
 10
190.8154914382
 20
229.9737766737
 30
0.0
 10
190.5612828869
 20
229.9192929154
 30
0.0
 10
190.4360334016
 20
229.9182424008
 30
0.0
  0
SPLINE
  5
3AD
330
212
100
AcDbEntity
  8
RUNDUNGEN
  6
Continuous
 62
     9
100
AcDbSpline
210
0.0
220
0.0
230
1.0
 70
     8
 71
     3
 72
    14
 73
    10
 74
     0
 42
0.0000000001
 43
0.0000000001
 40
0.0
 40
0.0
 40
0.0
 40
0.0
 40
0.0473007336
 40
0.1162182138
 40
0.2120510394
 40
0.3340428584
 40
0.4789450045000001
 40
0.6420657742
 40
1.0
 40
1.0
 40
1.0
 40
1.0
 10
190.4360334016
 20
229.9182424008
 30
0.0
 10
190.4526841052
 20
229.9194882553
 30
0.0
 10
190.490684388
 20
229.9428073717
 30
0.0
 10
190.5307423601
 20
230.0066080354
 30
0.0
 10
190.5689387907
 20
230.1007663574
 30
0.0
 10
190.6019489684
 20
230.2246882018
 30
0.0
 10
190.6294229425
 20
230.3740944312
 30
0.0
 10
190.6574685314
 20
230.6076010329
 30
0.0
 10
190.6652469866
 20
230.7917386422
 30
0.0
 10
190.6652469866
 20
230.918090096
 30
0.0
  0
SPLINE
  5
3AE
330
212
100
AcDbEntity
  8
RUNDUNGEN
  6
Continuous
 62
     9
100
AcDbSpline
210
0.0
220
0.0
230
1.0
 70
     8
 71
     3
 72
    12
 73
     8
 74
     0
 42
0.0000000001
 43
0.0000000001
 40
0.0
 40
0.0
 40
0.0
 40
0.0
 40
0.2363476826
 40
0.4789693913000001
 40
0.7325261797
 40
0.8651803205
 40
1.0
 40
1.0
 40
1.0
 40
1.0
 10
191.9026830428
 20
229.8303601402
 30
0.0
 10
192.0378719333
 20
229.8295047594
 30
0.0
 10
192.3137279992
 20
229.8652921167
 30
0.0
 10
192.7014629663
 20
230.0413267655
 30
0.0
 10
192.9606314944
 20
230.3084979374
 30
0.0
 10
193.0799573577
 20
230.5848793543
 30
0.0
 10
193.1010665615
 20
230.738824265
 30
0.0
 10
193.1007513084999
 20
230.8159408893
 30
0.0
  0
SPLINE
  5
3AF
330
212
100
AcDbEntity
  8
RUNDUNGEN
  6
Continuous
 62
     9
100
AcDbSpline
210
0.0
220
0.0
230
1.0
 70
     8
 71
     3
 72
    13
 73
     9
 74
     0
 42
0.0000000001
 43
0.0000000001
 40
0.0
 40
0.0
 40
0.0
 40
0.0
 40
0.3617429651
 40
0.5262395290000001
 40
0.6719298281999999
 40
0.7940095435
 40
0.8892161874999999
 40
1.0
 40
1.0
 40
1.0
 40
1.0
 10
220.525723023
 20
234.3132073784
 30
0.0
 10
220.525723023
 20
234.4409083486
 30
0.0
 10
220.5335706806
 20
234.6267914358
 30
0.0
 10
220.5624229071
 20
234.8626068499
 30
0.0
 10
220.5899494229
 20
235.0121420475
 30
0.0
 10
220.624961164
 20
235.1377086299
 30
0.0
 10
220.6654549914
 20
235.2400358974
 30
0.0
 10
220.7198995609
 20
235.3132073784
 30
0.0
 10
220.7590079934
 20
235.3132073784
 30
0.0
  0
SPLINE
  5
3B0
330
212
100
AcDbEntity
  8
RUNDUNGEN
  6
Continuous
 62
     9
100
AcDbSpline
210
0.0
220
0.0
230
1.0
 70
     8
 71
     3
 72
    11
 73
     7
 74
     0
 42
0.0000000001
 43
0.0000000001
 40
0.0
 40
0.0
 40
0.0
 40
0.0
 40
0.253995084
 40
0.5056598393999999
 40
0.754009138
 40
1.0
 40
1.0
 40
1.0
 40
1.0
 10
219.7930821671
 20
234.3132073784
 30
0.0
 10
219.7930821671
 20
234.4431043693
 30
0.0
 10
219.8427611806
 20
234.7044042793
 30
0.0
 10
220.0564413354
 20
235.0366530974
 30
0.0
 10
220.3774964281
 20
235.2605176326
 30
0.0
 10
220.6332044847
 20
235.3132073784
 30
0.0
 10
220.7590079934
 20
235.3132073784
 30
0.0
  0
SPLINE
  5
3B1
330
212
100
AcDbEntity
  8
RUNDUNGEN
  6
Continuous
 62
     9
100
AcDbSpline
210
0.0
220
0.0
230
1.0
 70
     8
 71
     3
 72
    11
 73
     7
 74
     0
 42
0.0000000001
 43
0.0000000001
 40
0.0
 40
0.0
 40
0.0
 40
0.0
 40
0.2539963965
 40
0.5056606423
 40
0.7540095291
 40
1.0
 40
1.0
 40
1.0
 40
1.0
 10
218.090215938
 20
234.3132073784
 30
0.0
 10
218.090215938
 20
234.4431050416
 30
0.0
 10
218.1398952698
 20
234.7044054166
 30
0.0
 10
218.3535761006
 20
235.0366539928
 30
0.0
 10
218.674630819
 20
235.2605178062
 30
0.0
 10
218.9303384544
 20
235.3132073784
 30
0.0
 10
219.0561417642
 20
235.3132073784
 30
0.0
  0
SPLINE
  5
3B2
330
212
100
AcDbEntity
  8
RUNDUNGEN
  6
Continuous
 62
     9
100
AcDbSpline
210
0.0
220
0.0
230
1.0
 70
     8
 71
     3
 72
    15
 73
    11
 74
     0
 42
0.0000000001
 43
0.0000000001
 40
0.0
 40
0.0
 40
0.0
 40
0.0
 40
0.3698546245
 40
0.5374815721
 40
0.6851906851999999
 40
0.8077101934999999
 40
0.9011143776
 40
0.9362681092
 40
0.9638392890999998
 40
1.0
 40
1.0
 40
1.0
 40
1.0
 10
217.2889873275
 20
234.3132073784
 30
0.0
 10
217.2889873275
 20
234.4408401542
 30
0.0
 10
217.2945373061
 20
234.6264288364
 30
0.0
 10
217.3148024542
 20
234.8620613013
 30
0.0
 10
217.3344016424
 20
235.0119461754
 30
0.0
 10
217.3583232321
 20
235.1352609093
 30
0.0
 10
217.3818695331
 20
235.2187340316
 30
0.0
 10
217.404158254
 20
235.2683018247
 30
0.0
 10
217.4214452134
 20
235.2968554012
 30
0.0
 10
217.4412058784
 20
235.3132073784
 30
0.0
 10
217.4536845433
 20
235.3132073784
 30
0.0
  0
SPLINE
  5
3B3
330
212
100
AcDbEntity
  8
RUNDUNGEN
  6
Continuous
 62
     9
100
AcDbSpline
210
0.0
220
0.0
230
1.0
 70
     8
 71
     3
 72
    15
 73
    11
 74
     0
 42
0.0000000001
 43
0.0000000001
 40
0.0
 40
0.0
 40
0.0
 40
0.0
 40
0.3698546244
 40
0.537481572
 40
0.6851906851000001
 40
0.8077101933999999
 40
0.9011143775
 40
0.936268109
 40
0.963839289
 40
1.0
 40
1.0
 40
1.0
 40
1.0
 10
193.9019826834
 20
234.3132073784
 30
0.0
 10
193.9019826834
 20
234.4408401542
 30
0.0
 10
193.896432705
 20
234.6264288363
 30
0.0
 10
193.8761675568
 20
234.8620613012
 30
0.0
 10
193.8565683686
 20
235.0119461754
 30
0.0
 10
193.8326467788
 20
235.1352609093
 30
0.0
 10
193.8091004778
 20
235.2187340316
 30
0.0
 10
193.786811757
 20
235.2683018247
 30
0.0
 10
193.7695247975
 20
235.2968554013
 30
0.0
 10
193.7497641324
 20
235.3132073784
 30
0.0
 10
193.7372854675
 20
235.3132073784
 30
0.0
  0
SPLINE
  5
3B4
330
212
100
AcDbEntity
  8
RUNDUNGEN
  6
Continuous
 62
     9
100
AcDbSpline
210
0.0
220
0.0
230
1.0
 70
     8
 71
     3
 72
    11
 73
     7
 74
     0
 42
0.0000000001
 43
0.0000000001
 40
0.0
 40
0.0
 40
0.0
 40
0.0
 40
0.2539963967
 40
0.5056606423
 40
0.7540095289000001
 40
1.0
 40
1.0
 40
1.0
 40
1.0
 10
193.100754073
 20
234.3132073784
 30
0.0
 10
193.100754073
 20
234.4431050417
 30
0.0
 10
193.0510747411999
 20
234.7044054167
 30
0.0
 10
192.8373939103
 20
235.0366539928
 30
0.0
 10
192.516339192
 20
235.2605178062
 30
0.0
 10
192.2606315566
 20
235.3132073784
 30
0.0
 10
192.1348282467
 20
235.3132073784
 30
0.0
  0
SPLINE
  5
3B5
330
212
100
AcDbEntity
  8
RUNDUNGEN
  6
Continuous
 62
     9
100
AcDbSpline
210
0.0
220
0.0
230
1.0
 70
     8
 71
     3
 72
    11
 73
     7
 74
     0
 42
0.0000000001
 43
0.0000000001
 40
0.0
 40
0.0
 40
0.0
 40
0.0
 40
0.2539950837
 40
0.5056598382000001
 40
0.7540091378
 40
1.0
 40
1.0
 40
1.0
 40
1.0
 10
191.3978878438
 20
234.3132073784
 30
0.0
 10
191.3978878438
 20
234.4431043692
 30
0.0
 10
191.3482088305
 20
234.7044042785
 30
0.0
 10
191.1345286763
 20
235.0366530968
 30
0.0
 10
190.8134735836
 20
235.2605176323
 30
0.0
 10
190.5577655264
 20
235.3132073784
 30
0.0
 10
190.4319620176
 20
235.3132073784
 30
0.0
  0
SPLINE
  5
3B6
330
212
100
AcDbEntity
  8
RUNDUNGEN
  6
Continuous
 62
     9
100
AcDbSpline
210
0.0
220
0.0
230
1.0
 70
     8
 71
     3
 72
    13
 73
     9
 74
     0
 42
0.0000000001
 43
0.0000000001
 40
0.0
 40
0.0
 40
0.0
 40
0.0
 40
0.3617429656
 40
0.5262395298
 40
0.6719298295
 40
0.7940095445999999
 40
0.8892161877999999
 40
1.0
 40
1.0
 40
1.0
 40
1.0
 10
190.6652469866
 20
234.3132073784
 30
0.0
 10
190.6652469866
 20
234.4409083487
 30
0.0
 10
190.6573993309
 20
234.6267914364
 30
0.0
 10
190.6285471036
 20
234.8626068508
 30
0.0
 10
190.6010205878
 20
235.0121420487
 30
0.0
 10
190.5660088467
 20
235.1377086308
 30
0.0
 10
190.5255150193
 20
235.2400358979
 30
0.0
 10
190.47107045
 20
235.3132073784
 30
0.0
 10
190.4319620176
 20
235.3132073784
 30
0.0
  0
LINE
  5
3B7
330
212
100
AcDbEntity
  8
RUNDUNGEN
  6
Continuous
 62
     9
100
AcDbLine
 10
190.4339481036999
 20
218.7119946509
 30
0.0
 11
190.715473538
 21
218.7249019632
 31
0.0
  0
SPLINE
  5
3B8
330
212
100
AcDbEntity
  8
RUNDUNGEN
  6
Continuous
 62
     9
100
AcDbSpline
210
0.0
220
0.0
230
1.0
 70
     8
 71
     3
 72
    14
 73
    10
 74
     0
 42
0.0000000001
 43
0.0000000001
 40
0.0
 40
0.0
 40
0.0
 40
0.0
 40
0.0471436529
 40
0.1157335386
 40
0.2112885491
 40
0.3331243153
 40
0.478019941
 40
0.6412935104000001
 40
1.0
 40
1.0
 40
1.0
 40
1.0
 10
220.7570219073
 20
218.7119946509
 30
0.0
 10
220.7404559154
 20
218.7110384033
 30
0.0
 10
220.7023264435
 20
218.6884033617
 30
0.0
 10
220.6621855451
 20
218.6251589381
 30
0.0
 10
220.6238999083
 20
218.5316615101
 30
0.0
 10
220.5907825814
 20
218.4083008248
 30
0.0
 10
220.5631716363
 20
218.2593733208
 30
0.0
 10
220.5349002427
 20
218.0262522408
 30
0.0
 10
220.5269663422
 20
217.8423285915
 30
0.0
 10
220.5268489155
 20
217.7160715545
 30
0.0
  0
SPLINE
  5
3B9
330
212
100
AcDbEntity
  8
RUNDUNGEN
  6
Continuous
 62
     9
100
AcDbSpline
210
0.0
220
0.0
230
1.0
 70
     8
 71
     3
 72
    11
 73
     7
 74
     0
 42
0.0000000001
 43
0.0000000001
 40
0.0
 40
0.0
 40
0.0
 40
0.0
 40
0.2458941587
 40
0.4943748433
 40
0.7461278773000001
 40
1.0
 40
1.0
 40
1.0
 40
1.0
 10
220.7570219073
 20
218.7119946509
 30
0.0
 10
220.6316475201
 20
218.7111831507
 30
0.0
 10
220.3770968925
 20
218.6570988116
 30
0.0
 10
220.0577742234
 20
218.4330248698
 30
0.0
 10
219.844677396
 20
218.1018359245
 30
0.0
 10
219.7948128989
 20
217.841528888
 30
0.0
 10
219.7942380776
 20
217.7120853303
 30
0.0
  0
SPLINE
  5
3BA
330
212
100
AcDbEntity
  8
RUNDUNGEN
  6
Continuous
 62
     9
100
AcDbSpline
210
0.0
220
0.0
230
1.0
 70
     8
 71
     3
 72
    11
 73
     7
 74
     0
 42
0.0000000001
 43
0.0000000001
 40
0.0
 40
0.0
 40
0.0
 40
0.0
 40
0.2459163019
 40
0.4943786314
 40
0.7461268354000001
 40
1.0
 40
1.0
 40
1.0
 40
1.0
 10
220.4754964807
 20
218.7249019628
 30
0.0
 10
220.3501030823
 20
218.7240801746
 30
0.0
 10
220.095528185
 20
218.6700673428
 30
0.0
 10
219.7761582615
 20
218.4459548848
 30
0.0
 10
219.5631675
 20
218.1147609066
 30
0.0
 10
219.5130077584
 20
217.8544454342
 30
0.0
 10
219.5126094915
 20
217.7249926423
 30
0.0
  0
SPLINE
  5
3BB
330
212
100
AcDbEntity
  8
RUNDUNGEN
  6
Continuous
 62
     9
100
AcDbSpline
210
0.0
220
0.0
230
1.0
 70
     8
 71
     3
 72
    11
 73
     7
 74
     0
 42
0.0000000001
 43
0.0000000001
 40
0.0
 40
0.0
 40
0.0
 40
0.0
 40
0.2265897109
 40
0.4721159111000001
 40
0.7328172792000001
 40
1.0
 40
1.0
 40
1.0
 40
1.0
 10
219.7982568358
 20
214.2887714068
 30
0.0
 10
219.781196717
 20
214.2006648744
 30
0.0
 10
219.7096571909
 20
214.0231529461
 30
0.0
 10
219.5206462654
 20
213.7979350058
 30
0.0
 10
219.2661479287
 20
213.6217093312
 30
0.0
 10
219.0680546966
 20
213.547468859
 30
0.0
 10
218.9651675459
 20
213.5227269445
 30
0.0
  0
SPLINE
  5
3BC
330
212
100
AcDbEntity
  8
RUNDUNGEN
  6
Continuous
 62
     9
100
AcDbSpline
210
0.0
220
0.0
230
1.0
 70
     8
 71
     3
 72
    11
 73
     7
 74
     0
 42
0.0000000001
 43
0.0000000001
 40
0.0
 40
0.0
 40
0.0
 40
0.0
 40
0.2265897135
 40
0.4721158765000001
 40
0.7328172289000001
 40
1.0
 40
1.0
 40
1.0
 40
1.0
 10
191.3927136094
 20
214.2887714068
 30
0.0
 10
191.4097737048
 20
214.2006648361
 30
0.0
 10
191.4813130779
 20
214.0231528123
 30
0.0
 10
191.670323704
 20
213.797934521
 30
0.0
 10
191.9248218333
 20
213.6217083546
 30
0.0
 10
192.1229150368
 20
213.5474675385
 30
0.0
 10
192.225802208
 20
213.5227254619
 30
0.0
  0
LINE
  5
3BD
330
212
100
AcDbEntity
  8
RUNDUNGEN
  6
Continuous
 62
     9
100
AcDbLine
 10
220.475496473
 20
218.7249019632
 30
0.0
 11
220.7570219073
 21
218.7119946509
 31
0.0
  0
SPLINE
  5
3BE
330
212
100
AcDbEntity
  8
RUNDUNGEN
  6
Continuous
 62
     9
100
AcDbSpline
210
0.0
220
0.0
230
1.0
 70
     8
 71
     3
 72
    14
 73
    10
 74
     0
 42
0.0000000001
 43
0.0000000001
 40
0.0
 40
0.0
 40
0.0
 40
0.0
 40
0.0471436527
 40
0.1157335391
 40
0.2112885506
 40
0.3331243171
 40
0.4780199421
 40
0.6412935111
 40
1.0
 40
1.0
 40
1.0
 40
1.0
 10
190.4339481036999
 20
218.7119946509
 30
0.0
 10
190.4505140955
 20
218.7110384034
 30
0.0
 10
190.4886435677
 20
218.6884033618
 30
0.0
 10
190.5287844661
 20
218.6251589375
 30
0.0
 10
190.5670701031
 20
218.5316615088
 30
0.0
 10
190.6001874299
 20
218.4083008233
 30
0.0
 10
190.627798375
 20
218.2593733195
 30
0.0
 10
190.6560697677999
 20
218.0262522401
 30
0.0
 10
190.6640036701
 20
217.8423285912
 30
0.0
 10
190.6641210968
 20
217.7160715545
 30
0.0
  0
SPLINE
  5
3BF
330
212
100
AcDbEntity
  8
RUNDUNGEN
  6
Continuous
 62
     9
100
AcDbSpline
210
0.0
220
0.0
230
1.0
 70
     8
 71
     3
 72
    11
 73
     7
 74
     0
 42
0.0000000001
 43
0.0000000001
 40
0.0
 40
0.0
 40
0.0
 40
0.0
 40
0.2458941629
 40
0.4943748494
 40
0.7461278818000002
 40
1.0
 40
1.0
 40
1.0
 40
1.0
 10
190.4339481036999
 20
218.7119946509
 30
0.0
 10
190.5593224931
 20
218.7111831508
 30
0.0
 10
190.8138731234999
 20
218.6570988097
 30
0.0
 10
191.1331957942
 20
218.4330248645
 30
0.0
 10
191.3462926129
 20
218.1018359186
 30
0.0
 10
191.3961571176
 20
217.8415288857
 30
0.0
 10
191.3967319334
 20
217.7120853303
 30
0.0
  0
SPLINE
  5
3C0
330
212
100
AcDbEntity
  8
RUNDUNGEN
  6
Continuous
 62
     9
100
AcDbSpline
210
0.0
220
0.0
230
1.0
 70
     8
 71
     3
 72
    11
 73
     7
 74
     0
 42
0.0000000001
 43
0.0000000001
 40
0.0
 40
0.0
 40
0.0
 40
0.0
 40
0.2458951559
 40
0.4943956396
 40
0.7461701948
 40
1.0
 40
1.0
 40
1.0
 40
1.0
 10
190.7175411823
 20
218.7249019624
 30
0.0
 10
190.8428110216
 20
218.7238381125
 30
0.0
 10
191.0970495584
 20
218.6694409974
 30
0.0
 10
191.4159230298
 20
218.4452613531
 30
0.0
 10
191.6287144471
 20
218.1143884662
 30
0.0
 10
191.6790136699
 20
217.8543700024
 30
0.0
 10
191.6795293071
 20
217.7250542677
 30
0.0
  0
SPLINE
  5
3C1
330
212
100
AcDbEntity
  8
RUNDUNGEN
  6
Continuous
 62
     9
100
AcDbSpline
210
0.0
220
0.0
230
1.0
 70
     8
 71
     3
 72
     9
 73
     5
 74
     0
 42
0.0000000001
 43
0.0000000001
 40
0.0
 40
0.0
 40
0.0
 40
0.0
 40
0.5410344066000001
 40
1.0
 40
1.0
 40
1.0
 40
1.0
 10
193.2513454951
 20
218.5134705934
 30
0.0
 10
193.1562204009999
 20
218.4862622975
 30
0.0
 10
192.9721055794
 20
218.4590986821
 30
0.0
 10
192.7870446219
 20
218.5022839534
 30
0.0
 10
192.7135567723
 20
218.5428310604
 30
0.0
  0
SPLINE
  5
3C2
330
212
100
AcDbEntity
  8
RUNDUNGEN
  6
Continuous
 62
     9
100
AcDbSpline
210
0.0
220
0.0
230
1.0
 70
     8
 71
     3
 72
    14
 73
    10
 74
     0
 42
0.0000000001
 43
0.0000000001
 40
0.0
 40
0.0
 40
0.0
 40
0.0
 40
0.0534462
 40
0.1307805114
 40
0.2321870478
 40
0.3552655567
 40
0.4971554975
 40
0.6545166895000002
 40
1.0
 40
1.0
 40
1.0
 40
1.0
 10
192.7135567723
 20
218.5428310604
 30
0.0
 10
192.7135955900999
 20
218.558543313
 30
0.0
 10
192.7256279211
 20
218.5961376669
 30
0.0
 10
192.7546785788999
 20
218.6574682408
 30
0.0
 10
192.7969635969
 20
218.7357281895
 30
0.0
 10
192.8538952201
 20
218.827149147
 30
0.0
 10
192.9233594031
 20
218.9300901283
 30
0.0
 10
193.0333722861
 20
219.0844885066
 30
0.0
 10
193.1264819041
 20
219.1994122698
 30
0.0
 10
193.1889261069
 20
219.2795150364
 30
0.0
  0
SPLINE
  5
3C3
330
212
100
AcDbEntity
  8
RUNDUNGEN
  6
Continuous
 62
     9
100
AcDbSpline
210
0.0
220
0.0
230
1.0
 70
     8
 71
     3
 72
     9
 73
     5
 74
     0
 42
0.0000000001
 43
0.0000000001
 40
0.0
 40
0.0
 40
0.0
 40
0.0
 40
0.4503299493
 40
1.0
 40
1.0
 40
1.0
 40
1.0
 10
193.2513454951
 20
218.5134705934
 30
0.0
 10
193.2277981301
 20
218.6265446186
 30
0.0
 10
193.1982725809
 20
218.882110019
 30
0.0
 10
193.1889261069
 20
219.1385366176
 30
0.0
 10
193.1889261069
 20
219.2795150364
 30
0.0
  0
SPLINE
  5
3C4
330
212
100
AcDbEntity
  8
RUNDUNGEN
  6
Continuous
 62
     9
100
AcDbSpline
210
0.0
220
0.0
230
1.0
 70
     8
 71
     3
 72
    11
 73
     7
 74
     0
 42
0.0000000001
 43
0.0000000001
 40
0.0
 40
0.0
 40
0.0
 40
0.0
 40
0.2259612197
 40
0.4715028473
 40
0.7325902836
 40
1.0
 40
1.0
 40
1.0
 40
1.0
 10
192.5910436231
 20
217.7796585479
 30
0.0
 10
192.6085398263
 20
217.6906474122
 30
0.0
 10
192.6822226951
 20
217.51130966
 30
0.0
 10
192.8761756042
 20
217.2850558533
 30
0.0
 10
193.1366492349
 20
217.1095589012
 30
0.0
 10
193.3387675006
 20
217.037075776
 30
0.0
 10
193.4435266811
 20
217.013613915
 30
0.0
  0
SPLINE
  5
3C5
330
212
100
AcDbEntity
  8
RUNDUNGEN
  6
Continuous
 62
     9
100
AcDbSpline
210
0.0
220
0.0
230
1.0
 70
     8
 71
     3
 72
    11
 73
     7
 74
     0
 42
0.0000000001
 43
0.0000000001
 40
0.0
 40
0.0
 40
0.0
 40
0.0
 40
0.2696513437
 40
0.5111747392
 40
0.7521222737000001
 40
1.0
 40
1.0
 40
1.0
 40
1.0
 10
192.7135567968
 20
218.5428310631
 30
0.0
 10
192.7513865184
 20
218.480419605
 30
0.0
 10
192.7907563177999
 20
218.3408698148
 30
0.0
 10
192.7653337793
 20
218.1362703163
 30
0.0
 10
192.6954292499
 20
217.9500654014
 30
0.0
 10
192.6284510728
 20
217.8353498717
 30
0.0
 10
192.5910436231
 20
217.7796585479
 30
0.0
  0
SPLINE
  5
3C6
330
212
100
AcDbEntity
  8
RUNDUNGEN
  6
Continuous
 62
     9
100
AcDbSpline
210
0.0
220
0.0
230
1.0
 70
     8
 71
     3
 72
     9
 73
     5
 74
     0
 42
0.0000000001
 43
0.0000000001
 40
0.0
 40
0.0
 40
0.0
 40
0.0
 40
0.4929715675
 40
1.0
 40
1.0
 40
1.0
 40
1.0
 10
191.9026830465
 20
218.7960554654
 30
0.0
 10
192.0440951665
 20
218.7969501543
 30
0.0
 10
192.3327229636
 20
218.7581365782
 30
0.0
 10
192.5972039275
 20
218.6301061319
 30
0.0
 10
192.7135559072
 20
218.5428298809
 30
0.0
  0
SPLINE
  5
3C7
330
212
100
AcDbEntity
  8
RUNDUNGEN
  6
Continuous
 62
     9
100
AcDbSpline
210
0.0
220
0.0
230
1.0
 70
     8
 71
     3
 72
    15
 73
    11
 74
     0
 42
0.0000000001
 43
0.0000000001
 40
0.0
 40
0.0
 40
0.0
 40
0.0
 40
0.362996402
 40
0.5281070691
 40
0.6743519676
 40
0.7967744245000001
 40
0.8917642186
 40
0.9284630253999999
 40
0.9581432770999999
 40
1.0
 40
1.0
 40
1.0
 40
1.0
 10
191.7105333925
 20
219.7959046415
 30
0.0
 10
191.7105333925
 20
219.6695920374
 30
0.0
 10
191.7170170268
 20
219.4856758588
 30
0.0
 10
191.7405640651
 20
219.252141728
 30
0.0
 10
191.7634503897
 20
219.1028461519
 30
0.0
 10
191.7913361467
 20
218.9792898889
 30
0.0
 10
191.8190852011
 20
218.8950928303
 30
0.0
 10
191.8448237156
 20
218.8447767363
 30
0.0
 10
191.8659947895
 20
218.8141925098
 30
0.0
 10
191.8881757534
 20
218.7973518037
 30
0.0
 10
191.9026830513
 20
218.7960569463
 30
0.0
  0
SPLINE
  5
3C8
330
212
100
AcDbEntity
  8
RUNDUNGEN
  6
Continuous
 62
     9
100
AcDbSpline
210
0.0
220
0.0
230
1.0
 70
     8
 71
     3
 72
    17
 73
    13
 74
     0
 42
0.0000000001
 43
0.0000000001
 40
0.0
 40
0.0
 40
0.0
 40
0.0
 40
0.2487289339
 40
0.498166533
 40
0.623286829
 40
0.7485072729000001
 40
0.8114149601000001
 40
0.8742863043999999
 40
0.905429642
 40
0.9366680335999999
 40
0.9685743333999999
 40
1.0
 40
1.0
 40
1.0
 40
1.0
 10
190.9243327214
 20
212.9201813867
 30
0.0
 10
190.8924171926
 20
212.951989509
 30
0.0
 10
190.8317326391
 20
213.0190566983
 30
0.0
 10
190.7660860009
 20
213.111325473
 30
0.0
 10
190.7214139815
 20
213.1901652708
 30
0.0
 10
190.6976937105
 20
213.2418135343
 30
0.0
 10
190.6814035639
 20
213.284261476
 30
0.0
 10
190.6724633493
 20
213.3113032514
 30
0.0
 10
190.6673816616
 20
213.3334114917
 30
0.0
 10
190.6642930575
 20
213.3502766358
 30
0.0
 10
190.6607570623
 20
213.3667940969
 30
0.0
 10
190.6578499011
 20
213.3785167095
 30
0.0
 10
190.6591380404
 20
213.3840621072
 30
0.0
  0
SPLINE
  5
3C9
330
212
100
AcDbEntity
  8
RUNDUNGEN
  6
Continuous
 62
     9
100
AcDbSpline
210
0.0
220
0.0
230
1.0
 70
     8
 71
     3
 72
    13
 73
     9
 74
     0
 42
0.0000000001
 43
0.0000000001
 40
0.0
 40
0.0
 40
0.0
 40
0.0
 40
0.2437919683
 40
0.4901532301
 40
0.6147951159
 40
0.7410448501000002
 40
0.8692352206999998
 40
1.0
 40
1.0
 40
1.0
 40
1.0
 10
191.1992403542
 20
213.2412132192
 30
0.0
 10
191.155343362
 20
213.2534104372
 30
0.0
 10
191.0677392578
 20
213.2803187911
 30
0.0
 10
190.9594381324
 20
213.3187523026
 30
0.0
 10
190.8708614345
 20
213.3468009951
 30
0.0
 10
190.8030858413
 20
213.3676617854
 30
0.0
 10
190.7319350684
 20
213.3799939511
 30
0.0
 10
190.6835840857
 20
213.3828676968
 30
0.0
 10
190.6591758108
 20
213.3840611028
 30
0.0
  0
SPLINE
  5
3CA
330
212
100
AcDbEntity
  8
RUNDUNGEN
  6
Continuous
 62
     9
100
AcDbSpline
210
0.0
220
0.0
230
1.0
 70
     8
 71
     3
 72
     9
 73
     5
 74
     0
 42
0.0000000001
 43
0.0000000001
 40
0.0
 40
0.0
 40
0.0
 40
0.0
 40
0.5001079844
 40
1.0
 40
1.0
 40
1.0
 40
1.0
 10
192.066801372
 20
213.2183012854
 30
0.0
 10
191.9250364161
 20
213.1837642226
 30
0.0
 10
191.6305754606
 20
213.1528972586
 30
0.0
 10
191.3397646999
 20
213.202166637
 30
0.0
 10
191.1992403541
 20
213.2412132191
 30
0.0
  0
SPLINE
  5
3CB
330
212
100
AcDbEntity
  8
RUNDUNGEN
  6
Continuous
 62
     9
100
AcDbSpline
210
0.0
220
0.0
230
1.0
 70
     8
 71
     3
 72
     9
 73
     5
 74
     0
 42
0.0000000001
 43
0.0000000001
 40
0.0
 40
0.0
 40
0.0
 40
0.0
 40
0.5487897973
 40
1.0
 40
1.0
 40
1.0
 40
1.0
 10
192.1419319907
 20
212.4563016707
 30
0.0
 10
192.1418109179
 20
212.596597736
 30
0.0
 10
192.1304605968
 20
212.8521751826
 30
0.0
 10
192.0948429658
 20
213.1064429971
 30
0.0
 10
192.0667995163999
 20
213.2183324284
 30
0.0
  0
SPLINE
  5
3CC
330
212
100
AcDbEntity
  8
RUNDUNGEN
  6
Continuous
 62
     9
100
AcDbSpline
210
0.0
220
0.0
230
1.0
 70
     8
 71
     3
 72
     9
 73
     5
 74
     0
 42
0.0000000001
 43
0.0000000001
 40
0.0
 40
0.0
 40
0.0
 40
0.0
 40
0.451210209
 40
1.0
 40
1.0
 40
1.0
 40
1.0
 10
219.1241704393
 20
213.2183323986
 30
0.0
 10
219.0961269899
 20
213.1064429701
 30
0.0
 10
219.0605093562
 20
212.8521751659
 30
0.0
 10
219.0491590311
 20
212.5965977291
 30
0.0
 10
219.0490379555
 20
212.4563016707
 30
0.0
  0
SPLINE
  5
3CD
330
212
100
AcDbEntity
  8
RUNDUNGEN
  6
Continuous
 62
     9
100
AcDbSpline
210
0.0
220
0.0
230
1.0
 70
     8
 71
     3
 72
     9
 73
     5
 74
     0
 42
0.0000000001
 43
0.0000000001
 40
0.0
 40
0.0
 40
0.0
 40
0.0
 40
0.4998927615000001
 40
1.0
 40
1.0
 40
1.0
 40
1.0
 10
219.9917296618
 20
213.2412132126
 30
0.0
 10
219.8512085033
 20
213.202154324
 30
0.0
 10
219.5603926505
 20
213.1529037224
 30
0.0
 10
219.2659332257
 20
213.1837637449
 30
0.0
 10
219.1241685851
 20
213.2183012102
 30
0.0
  0
SPLINE
  5
3CE
330
212
100
AcDbEntity
  8
RUNDUNGEN
  6
Continuous
 62
     9
100
AcDbSpline
210
0.0
220
0.0
230
1.0
 70
     8
 71
     3
 72
    13
 73
     9
 74
     0
 42
0.0000000001
 43
0.0000000001
 40
0.0
 40
0.0
 40
0.0
 40
0.0
 40
0.130765269
 40
0.2589578882
 40
0.3852043561
 40
0.5098462727000001
 40
0.7562077613
 40
1.0
 40
1.0
 40
1.0
 40
1.0
 10
220.5317942002
 20
213.3840611028
 30
0.0
 10
220.5073827986
 20
213.3829388194
 30
0.0
 10
220.4590408568
 20
213.3799028427
 30
0.0
 10
220.3878896939
 20
213.3676315571
 30
0.0
 10
220.3201017333
 20
213.3468037864
 30
0.0
 10
220.2315309457
 20
213.3187457631
 30
0.0
 10
220.1232290211
 20
213.2803177972
 30
0.0
 10
220.03562526
 20
213.2534132789
 30
0.0
 10
219.9917296611
 20
213.2412132131
 30
0.0
  0
SPLINE
  5
3CF
330
212
100
AcDbEntity
  8
RUNDUNGEN
  6
Continuous
 62
     9
100
AcDbSpline
210
0.0
220
0.0
230
1.0
 70
     8
 71
     3
 72
    17
 73
    13
 74
     0
 42
0.0000000001
 43
0.0000000001
 40
0.0
 40
0.0
 40
0.0
 40
0.0
 40
0.0314261712
 40
0.0633337971
 40
0.0945703168
 40
0.1257123543
 40
0.1885846119
 40
0.2514929546
 40
0.3767129784
 40
0.5018333814
 40
0.7512710416
 40
1.0
 40
1.0
 40
1.0
 40
1.0
 10
220.5318319795
 20
213.3840621069
 30
0.0
 10
220.5331262045
 20
213.3785180323
 30
0.0
 10
220.5302081245
 20
213.3667931224
 30
0.0
 10
220.5266748749
 20
213.3502767937
 30
0.0
 10
220.5235894884
 20
213.3334109512
 30
0.0
 10
220.5185093819
 20
213.311302839
 30
0.0
 10
220.5095664654
 20
213.284261743
 30
0.0
 10
220.4932755878
 20
213.2418139825
 30
0.0
 10
220.4695564162
 20
213.190165104
 30
0.0
 10
220.4248838725
 20
213.1113256161
 30
0.0
 10
220.3592374252
 20
213.0190567112
 30
0.0
 10
220.2985528118
 20
212.9519895238
 30
0.0
 10
220.266637288
 20
212.9201813867
 30
0.0
  0
SPLINE
  5
3D0
330
212
100
AcDbEntity
  8
RUNDUNGEN
  6
Continuous
 62
     9
100
AcDbSpline
210
0.0
220
0.0
230
1.0
 70
     8
 71
     3
 72
     9
 73
     5
 74
     0
 42
0.0000000001
 43
0.0000000001
 40
0.0
 40
0.0
 40
0.0
 40
0.0
 40
0.4589969174000001
 40
1.0
 40
1.0
 40
1.0
 40
1.0
 10
218.4774132386
 20
218.5428310603
 30
0.0
 10
218.4039876629
 20
218.5021573283
 30
0.0
 10
218.2187559434
 20
218.4589069184
 30
0.0
 10
218.0348981231
 20
218.4868037022
 30
0.0
 10
217.9396245159
 20
218.5134705934
 30
0.0
  0
SPLINE
  5
3D1
330
212
100
AcDbEntity
  8
RUNDUNGEN
  6
Continuous
 62
     9
100
AcDbSpline
210
0.0
220
0.0
230
1.0
 70
     8
 71
     3
 72
     9
 73
     5
 74
     0
 42
0.0000000001
 43
0.0000000001
 40
0.0
 40
0.0
 40
0.0
 40
0.0
 40
0.5496674432000001
 40
1.0
 40
1.0
 40
1.0
 40
1.0
 10
218.0020439041
 20
219.2795150365
 30
0.0
 10
218.0020439041
 20
219.1385372867
 30
0.0
 10
217.9926974607
 20
218.8821106933
 30
0.0
 10
217.9631720172
 20
218.6265452732
 30
0.0
 10
217.9396245159
 20
218.5134705934
 30
0.0
  0
SPLINE
  5
3D2
330
212
100
AcDbEntity
  8
RUNDUNGEN
  6
Continuous
 62
     9
100
AcDbSpline
210
0.0
220
0.0
230
1.0
 70
     8
 71
     3
 72
    14
 73
    10
 74
     0
 42
0.0000000001
 43
0.0000000001
 40
0.0
 40
0.0
 40
0.0
 40
0.0
 40
0.3455766477
 40
0.5029461791
 40
0.6448575522
 40
0.7679473629000002
 40
0.8693026589
 40
0.9472096262
 40
1.0
 40
1.0
 40
1.0
 40
1.0
 10
218.0020439041
 20
219.2795150365
 30
0.0
 10
218.0676461687
 20
219.2019707989
 30
0.0
 10
218.1563710711
 20
219.0835204034
 30
0.0
 10
218.2676790809
 20
218.9301358574
 30
0.0
 10
218.3371061668
 20
218.8271690264
 30
0.0
 10
218.3937821379
 20
218.7356045363
 30
0.0
 10
218.4372360632
 20
218.6579766558
 30
0.0
 10
218.4645412239
 20
218.5953665051
 30
0.0
 10
218.4751274317
 20
218.5581778505
 30
0.0
 10
218.4774132386
 20
218.5428310603
 30
0.0
  0
SPLINE
  5
3D3
330
212
100
AcDbEntity
  8
RUNDUNGEN
  6
Continuous
 62
     9
100
AcDbSpline
210
0.0
220
0.0
230
1.0
 70
     8
 71
     3
 72
    11
 73
     7
 74
     0
 42
0.0000000001
 43
0.0000000001
 40
0.0
 40
0.0
 40
0.0
 40
0.0
 40
0.2478774355
 40
0.4888250715
 40
0.7303485188
 40
1.0
 40
1.0
 40
1.0
 40
1.0
 10
218.5999264026
 20
217.7796585479
 30
0.0
 10
218.5625189203
 20
217.8353497346
 30
0.0
 10
218.4955409301
 20
217.9500652776
 30
0.0
 10
218.4256365399
 20
218.1362702001
 30
0.0
 10
218.4002142977
 20
218.3408695757
 30
0.0
 10
218.4395832836
 20
218.4804197651
 30
0.0
 10
218.4774133214
 20
218.5428310535
 30
0.0
  0
SPLINE
  5
3D4
330
212
100
AcDbEntity
  8
RUNDUNGEN
  6
Continuous
 62
     9
100
AcDbSpline
210
0.0
220
0.0
230
1.0
 70
     8
 71
     3
 72
    11
 73
     7
 74
     0
 42
0.0000000001
 43
0.0000000001
 40
0.0
 40
0.0
 40
0.0
 40
0.0
 40
0.2674097142
 40
0.5284971513000001
 40
0.7740387798999999
 40
1.0
 40
1.0
 40
1.0
 40
1.0
 10
217.7474433265
 20
217.0136139389
 30
0.0
 10
217.8522025068
 20
217.0370757964
 30
0.0
 10
218.0543207741
 20
217.1095589152
 30
0.0
 10
218.31479441
 20
217.2850558588
 30
0.0
 10
218.508747326
 20
217.5113096608
 30
0.0
 10
218.5824301985
 20
217.6906474122
 30
0.0
 10
218.5999264026
 20
217.7796585479
 30
0.0
  0
SPLINE
  5
3D5
330
212
100
AcDbEntity
  8
RUNDUNGEN
  6
Continuous
 62
     9
100
AcDbSpline
210
0.0
220
0.0
230
1.0
 70
     8
 71
     3
 72
    15
 73
    11
 74
     0
 42
0.0000000001
 43
0.0000000001
 40
0.0
 40
0.0
 40
0.0
 40
0.0
 40
0.0418567232
 40
0.0715369753
 40
0.1082357827
 40
0.2032255777
 40
0.3256480352
 40
0.4718929337
 40
0.6370036003
 40
1.0
 40
1.0
 40
1.0
 40
1.0
 10
219.2882869597
 20
218.7960569463
 30
0.0
 10
219.3027942577
 20
218.7973518037
 30
0.0
 10
219.3249752216
 20
218.8141925102
 30
0.0
 10
219.3461462958
 20
218.844776737
 30
0.0
 10
219.3718848104
 20
218.8950928318
 30
0.0
 10
219.3996338648
 20
218.9792898911
 30
0.0
 10
219.4275196217
 20
219.1028461546
 30
0.0
 10
219.4504059462
 20
219.2521417308
 30
0.0
 10
219.4739529843
 20
219.4856758606
 30
0.0
 10
219.4804366185
 20
219.6695920382
 30
0.0
 10
219.4804366185
 20
219.7959046415
 30
0.0
  0
SPLINE
  5
3D6
330
212
100
AcDbEntity
  8
RUNDUNGEN
  6
Continuous
 62
     9
100
AcDbSpline
210
0.0
220
0.0
230
1.0
 70
     8
 71
     3
 72
     9
 73
     5
 74
     0
 42
0.0000000001
 43
0.0000000001
 40
0.0
 40
0.0
 40
0.0
 40
0.0
 40
0.5070430343
 40
1.0
 40
1.0
 40
1.0
 40
1.0
 10
218.4774131752
 20
218.5428311335
 30
0.0
 10
218.5937666391
 20
218.6301124453
 30
0.0
 10
218.8582516197
 20
218.7581391126
 30
0.0
 10
219.1468790092
 20
218.796947633
 30
0.0
 10
219.2882869736
 20
218.7960527644
 30
0.0
  0
SPLINE
  5
3D7
330
212
100
AcDbEntity
  8
RUNDUNGEN
  6
Continuous
 62
     9
100
AcDbSpline
210
0.0
220
0.0
230
1.0
 70
     8
 71
     3
 72
    11
 73
     7
 74
     0
 42
0.0000000001
 43
0.0000000001
 40
0.0
 40
0.0
 40
0.0
 40
0.0
 40
0.2466409847
 40
0.4948199148
 40
0.7461201624
 40
1.0
 40
1.0
 40
1.0
 40
1.0
 10
221.119400339
 20
161.7682444326
 30
0.0
 10
221.3737228538
 20
161.7682671238
 30
0.0
 10
221.8897462404
 20
161.6648359378
 30
0.0
 10
222.5415595947
 20
161.219870972
 30
0.0
 10
222.9772996414
 20
160.5534790374
 30
0.0
 10
223.0786181479
 20
160.0268594753
 30
0.0
 10
223.0783220587
 20
159.765072823
 30
0.0
  0
SPLINE
  5
3D8
330
212
100
AcDbEntity
  8
RUNDUNGEN
  6
Continuous
 62
     9
100
AcDbSpline
210
0.0
220
0.0
230
1.0
 70
     8
 71
     3
 72
    11
 73
     7
 74
     0
 42
0.0000000001
 43
0.0000000001
 40
0.0
 40
0.0
 40
0.0
 40
0.0
 40
0.253880255
 40
0.505180339
 40
0.7533591257
 40
1.0
 40
1.0
 40
1.0
 40
1.0
 10
188.1126479523
 20
159.7650728297
 30
0.0
 10
188.1123532157
 20
160.0268599205
 30
0.0
 10
188.2136694751
 20
160.5534799147
 30
0.0
 10
188.649411274
 20
161.2198714496
 30
0.0
 10
189.3012240884
 20
161.664835897
 30
0.0
 10
189.8172472646
 20
161.7682671865
 30
0.0
 10
190.071569672
 20
161.7682444326
 30
0.0
  0
LINE
  5
3D9
330
212
100
AcDbEntity
  8
RUNDUNGEN
  6
Continuous
 62
     9
100
AcDbLine
 10
191.9430882454
 20
131.8899414956
 30
0.0
 11
191.4405228938
 21
131.9916925205
 31
0.0
  0
SPLINE
  5
3DA
330
212
100
AcDbEntity
  8
RUNDUNGEN
  6
Continuous
 62
     9
100
AcDbSpline
210
0.0
220
0.0
230
1.0
 70
     8
 71
     3
 72
     9
 73
     5
 74
     0
 42
0.0000000001
 43
0.0000000001
 40
0.0
 40
0.0
 40
0.0
 40
0.0
 40
0.5004269999000001
 40
1.0
 40
1.0
 40
1.0
 40
1.0
 10
190.9243327214
 20
212.9201813867
 30
0.0
 10
191.0811503858
 20
212.7638914475
 30
0.0
 10
191.4749824037
 20
212.5288020934
 30
0.0
 10
191.9206420922
 20
212.4562833672
 30
0.0
 10
192.1416650858
 20
212.4563016707
 30
0.0
  0
SPLINE
  5
3DB
330
212
100
AcDbEntity
  8
RUNDUNGEN
  6
Continuous
 62
     9
100
AcDbSpline
210
0.0
220
0.0
230
1.0
 70
     8
 71
     3
 72
     9
 73
     5
 74
     0
 42
0.0000000001
 43
0.0000000001
 40
0.0
 40
0.0
 40
0.0
 40
0.0
 40
0.4995712747
 40
1.0
 40
1.0
 40
1.0
 40
1.0
 10
219.0493085516
 20
212.4563016707
 30
0.0
 10
219.2703301852
 20
212.4562832615
 30
0.0
 10
219.7159884229
 20
212.5288029751
 30
0.0
 10
220.1098195732
 20
212.7638912634
 30
0.0
 10
220.266637288
 20
212.9201813867
 30
0.0
  0
LINE
  5
3DC
330
212
100
AcDbEntity
  8
RUNDUNGEN
  6
Continuous
 62
     9
100
AcDbLine
 10
189.4123359066
 20
155.8011554229
 30
0.0
 11
192.4209845863
 21
132.9903220555
 31
0.0
  0
SPLINE
  5
3DD
330
212
100
AcDbEntity
  8
RUNDUNGEN
  6
Continuous
 62
     9
100
AcDbSpline
210
0.0
220
0.0
230
1.0
 70
     8
 71
     3
 72
     9
 73
     5
 74
     0
 42
0.0000000001
 43
0.0000000001
 40
0.0
 40
0.0
 40
0.0
 40
0.0
 40
0.2583617714
 40
1.0
 40
1.0
 40
1.0
 40
1.0
 10
189.3559136552
 20
156.7011639741
 30
0.0
 10
189.3559937277
 20
156.6234734115
 30
0.0
 10
189.3608845671
 20
156.3228148721
 30
0.0
 10
189.3831744106
 20
156.0222547277
 30
0.0
 10
189.4123359066
 20
155.8011554229
 30
0.0
  0
LINE
  5
3DE
330
212
100
AcDbEntity
  8
RUNDUNGEN
  6
Continuous
 62
     9
100
AcDbLine
 10
193.6961404279
 20
158.8897345339
 30
0.0
 11
189.3527480408
 21
159.7690673794
 31
0.0
  0
LINE
  5
3DF
330
212
100
AcDbEntity
  8
RUNDUNGEN
  6
Continuous
 62
     9
100
AcDbLine
 10
193.6961404279
 20
154.7874143053
 30
0.0
 11
192.5626705042
 21
154.7109882007
 31
0.0
  0
SPLINE
  5
3E0
330
212
100
AcDbEntity
  8
RUNDUNGEN
  6
Continuous
 62
     9
100
AcDbSpline
210
0.0
220
0.0
230
1.0
 70
     8
 71
     3
 72
    14
 73
    10
 74
     0
 42
0.0000000001
 43
0.0000000001
 40
0.0
 40
0.0
 40
0.0
 40
0.0
 40
0.0629394944
 40
0.1395448677
 40
0.2355328475
 40
0.3524454072999999
 40
0.4895599748
 40
0.6449972217000001
 40
1.0
 40
1.0
 40
1.0
 40
1.0
 10
192.5626705042
 20
154.7109882007
 30
0.0
 10
192.5378721375
 20
154.7093267596
 30
0.0
 10
192.4838319263
 20
154.6899030197
 30
0.0
 10
192.4139702565
 20
154.6266592191
 30
0.0
 10
192.347962491
 20
154.5326332875
 30
0.0
 10
192.2856580277
 20
154.4088953498
 30
0.0
 10
192.2273164683
 20
154.2579065886
 30
0.0
 10
192.1522332423
 20
154.0133161037999
 30
0.0
 10
192.1085903057
 20
153.8162095395
 30
0.0
 10
192.0819095354
 20
153.678586129
 30
0.0
  0
LINE
  5
3E1
330
212
100
AcDbEntity
  8
RUNDUNGEN
  6
Continuous
 62
     9
100
AcDbLine
 10
192.9235961624
 20
132.8885695995
 30
0.0
 11
191.9280830148
 21
152.6679770131
 31
0.0
  0
LINE
  5
3E2
330
212
100
AcDbEntity
  8
RUNDUNGEN
  6
Continuous
 62
     9
100
AcDbLine
 10
192.9235961624
 20
132.8885695995
 30
0.0
 11
192.4209845863
 21
132.9903220555
 31
0.0
  0
LINE
  5
3E3
330
212
100
AcDbEntity
  8
RUNDUNGEN
  6
Continuous
 62
     9
100
AcDbLine
 10
218.7699854247
 20
132.9903220555
 30
0.0
 11
221.7786341044
 21
155.8011554229
 31
0.0
  0
LINE
  5
3E4
330
212
100
AcDbEntity
  8
RUNDUNGEN
  6
Continuous
 62
     9
100
AcDbLine
 10
218.7699854247
 20
132.9903220555
 30
0.0
 11
218.2673738647
 21
132.8885696028
 31
0.0
  0
LINE
  5
3E5
330
212
100
AcDbEntity
  8
RUNDUNGEN
  6
Continuous
 62
     9
100
AcDbLine
 10
219.2628868682
 20
152.667977966
 30
0.0
 11
218.2673738647
 21
132.8885696028
 31
0.0
  0
SPLINE
  5
3E6
330
212
100
AcDbEntity
  8
RUNDUNGEN
  6
Continuous
 62
     9
100
AcDbSpline
210
0.0
220
0.0
230
1.0
 70
     8
 71
     3
 72
    14
 73
    10
 74
     0
 42
0.0000000001
 43
0.0000000001
 40
0.0
 40
0.0
 40
0.0
 40
0.0
 40
0.3550017065
 40
0.5104402857000001
 40
0.6475554793000001
 40
0.7644674326000001
 40
0.8604552415
 40
0.9370605762
 40
1.0
 40
1.0
 40
1.0
 40
1.0
 10
219.1090604798
 20
153.6785861288
 30
0.0
 10
219.0823796573
 20
153.8162090904
 30
0.0
 10
219.0387362413
 20
154.0133156358
 30
0.0
 10
218.9636531979
 20
154.2579064975
 30
0.0
 10
218.9053120862
 20
154.4088960188999
 30
0.0
 10
218.8430071348
 20
154.5326336602
 30
0.0
 10
218.7769995177
 20
154.6266592338
 30
0.0
 10
218.7071380646
 20
154.6899031432
 30
0.0
 10
218.6530978531
 20
154.7093267614
 30
0.0
 10
218.6282995156
 20
154.7109882001
 30
0.0
  0
LINE
  5
3E7
330
212
100
AcDbEntity
  8
RUNDUNGEN
  6
Continuous
 62
     9
100
AcDbLine
 10
218.6282995156
 20
154.7109882001
 30
0.0
 11
217.494829583
 21
154.7874143053
 31
0.0
  0
LINE
  5
3E8
330
212
100
AcDbEntity
  8
RUNDUNGEN
  6
Continuous
 62
     9
100
AcDbLine
 10
221.8382219702
 20
159.7690673794
 30
0.0
 11
217.494829583
 21
158.8897345339
 31
0.0
  0
SPLINE
  5
3E9
330
212
100
AcDbEntity
  8
RUNDUNGEN
  6
Continuous
 62
     9
100
AcDbSpline
210
0.0
220
0.0
230
1.0
 70
     8
 71
     3
 72
     9
 73
     5
 74
     0
 42
0.0000000001
 43
0.0000000001
 40
0.0
 40
0.0
 40
0.0
 40
0.0
 40
0.2385960124
 40
1.0
 40
1.0
 40
1.0
 40
1.0
 10
221.7786341044
 20
155.8011554229
 30
0.0
 10
221.7880159829
 20
155.8722878098
 30
0.0
 10
221.8216002141
 20
156.1711591944
 30
0.0
 10
221.8348203736
 20
156.4722016151
 30
0.0
 10
221.8350563558
 20
156.7011639741
 30
0.0
  0
LINE
  5
3EA
330
212
100
AcDbEntity
  8
RUNDUNGEN
  6
Continuous
 62
     9
100
AcDbLine
 10
220.8889397739
 20
160.773601122
 30
0.0
 11
216.516460713
 21
159.8883640686
 31
0.0
  0
SPLINE
  5
3EB
330
212
100
AcDbEntity
  8
RUNDUNGEN
  6
Continuous
 62
     9
100
AcDbSpline
210
0.0
220
0.0
230
1.0
 70
     8
 71
     3
 72
    11
 73
     7
 74
     0
 42
0.0000000001
 43
0.0000000001
 40
0.0
 40
0.0
 40
0.0
 40
0.0
 40
0.1410803513
 40
0.3791478504
 40
0.6800607581
 40
1.0
 40
1.0
 40
1.0
 40
1.0
 10
216.516460713
 20
159.8883640686
 30
0.0
 10
216.488948294
 20
159.882794227
 30
0.0
 10
216.4134800883
 20
159.8768600194
 30
0.0
 10
216.2785455484
 20
159.8689559729
 30
0.0
 10
216.1076296595
 20
159.8642167818
 30
0.0
 10
215.9841169126
 20
159.8628725132
 30
0.0
 10
215.9204590497
 20
159.8628723464
 30
0.0
  0
SPLINE
  5
3EC
330
212
100
AcDbEntity
  8
RUNDUNGEN
  6
Continuous
 62
     9
100
AcDbSpline
210
0.0
220
0.0
230
1.0
 70
     8
 71
     3
 72
    11
 73
     7
 74
     0
 42
0.0000000001
 43
0.0000000001
 40
0.0
 40
0.0
 40
0.0
 40
0.0
 40
0.3199392419
 40
0.6208521496000001
 40
0.8589196487
 40
1.0
 40
1.0
 40
1.0
 40
1.0
 10
195.2705109613
 20
159.8628723464
 30
0.0
 10
195.2068530984
 20
159.8628725132
 30
0.0
 10
195.0833403515
 20
159.8642167818
 30
0.0
 10
194.9124244625999
 20
159.8689559729
 30
0.0
 10
194.7774899226
 20
159.8768600194
 30
0.0
 10
194.702021717
 20
159.882794227
 30
0.0
 10
194.674509298
 20
159.8883640686
 30
0.0
  0
LINE
  5
3ED
330
212
100
AcDbEntity
  8
RUNDUNGEN
  6
Continuous
 62
     9
100
AcDbLine
 10
194.674509298
 20
159.8883640686
 30
0.0
 11
190.3020302371
 21
160.773601122
 31
0.0
  0
LINE
  5
3EE
330
212
100
AcDbEntity
  8
RUNDUNGEN
  6
Continuous
 62
     9
100
AcDbLine
 10
194.6662156206
 20
153.7875666101
 30
0.0
 11
193.5327399633
 21
153.711138271
 31
0.0
  0
SPLINE
  5
3EF
330
212
100
AcDbEntity
  8
RUNDUNGEN
  6
Continuous
 62
     9
100
AcDbSpline
210
0.0
220
0.0
230
1.0
 70
     8
 71
     3
 72
    10
 73
     6
 74
     0
 42
0.0000000001
 43
0.0000000001
 40
0.0
 40
0.0
 40
0.0
 40
0.0
 40
0.6212440882
 40
0.8594351821
 40
1.0
 40
1.0
 40
1.0
 40
1.0
 10
195.2625859831
 20
153.7960569463
 30
0.0
 10
195.1390684421
 20
153.7960572162
 30
0.0
 10
194.9681725364
 20
153.7952409634
 30
0.0
 10
194.7694103341
 20
153.7913949405
 30
0.0
 10
194.6940998293
 20
153.7894464499
 30
0.0
 10
194.6662156206
 20
153.7875666101
 30
0.0
  0
SPLINE
  5
3F0
330
212
100
AcDbEntity
  8
RUNDUNGEN
  6
Continuous
 62
     9
100
AcDbSpline
210
0.0
220
0.0
230
1.0
 70
     8
 71
     3
 72
    10
 73
     6
 74
     0
 42
0.0000000001
 43
0.0000000001
 40
0.0
 40
0.0
 40
0.0
 40
0.0
 40
0.1405648179
 40
0.3787559118
 40
1.0
 40
1.0
 40
1.0
 40
1.0
 10
216.5247543904
 20
153.7875666101
 30
0.0
 10
216.4968701817
 20
153.7894464499
 30
0.0
 10
216.4215596769
 20
153.7913949405
 30
0.0
 10
216.2227974746
 20
153.7952409634
 30
0.0
 10
216.0519015689
 20
153.7960572161
 30
0.0
 10
215.9283840279
 20
153.7960569463
 30
0.0
  0
LINE
  5
3F1
330
212
100
AcDbEntity
  8
RUNDUNGEN
  6
Continuous
 62
     9
100
AcDbLine
 10
217.6582300263
 20
153.7111382684
 30
0.0
 11
216.5247543904
 21
153.7875666101
 31
0.0
  0
LINE
  5
3F2
330
212
100
AcDbEntity
  8
RUNDUNGEN
  6
Continuous
 62
     9
100
AcDbLine
 10
194.7404704981
 20
132.5635923232
 30
0.0
 11
193.7392166665
 21
152.5211828107
 31
0.0
  0
LINE
  5
3F3
330
212
100
AcDbEntity
  8
RUNDUNGEN
  6
Continuous
 62
     9
100
AcDbLine
 10
217.451753225
 20
152.5211828107
 30
0.0
 11
216.4504995994
 21
132.5635923232
 31
0.0
  0
SPLINE
  5
3F4
330
212
100
AcDbEntity
  8
RUNDUNGEN
  6
Continuous
 62
     9
100
AcDbSpline
210
0.0
220
0.0
230
1.0
 70
     8
 71
     3
 72
    13
 73
     9
 74
     0
 42
0.0000000001
 43
0.0000000001
 40
0.0
 40
0.0
 40
0.0
 40
0.0
 40
0.3222026685
 40
0.6234162703
 40
0.7519518220999999
 40
0.8597133531999999
 40
0.9432469481
 40
1.0
 40
1.0
 40
1.0
 40
1.0
 10
194.9533480476
 20
131.7557717841
 30
0.0
 10
194.6295030282
 20
131.7557662674
 30
0.0
 10
194.002902954
 20
131.7628546112
 30
0.0
 10
193.2474031364
 20
131.7864555441
 30
0.0
 10
192.707874295
 20
131.8144248378
 30
0.0
 10
192.3871142193
 20
131.836470373
 30
0.0
 10
192.1389610401
 20
131.8600252216
 30
0.0
 10
191.998995603
 20
131.8786191468
 30
0.0
 10
191.9430882454
 20
131.8899414956
 30
0.0
  0
SPLINE
  5
3F5
330
212
100
AcDbEntity
  8
RUNDUNGEN
  6
Continuous
 62
     9
100
AcDbSpline
210
0.0
220
0.0
230
1.0
 70
     8
 71
     3
 72
    13
 73
     9
 74
     0
 42
0.0000000001
 43
0.0000000001
 40
0.0
 40
0.0
 40
0.0
 40
0.0
 40
0.0567530493
 40
0.140286648
 40
0.248048177
 40
0.3765837293
 40
0.6777973306
 40
1.0
 40
1.0
 40
1.0
 40
1.0
 10
219.2478817656
 20
131.8899414956
 30
0.0
 10
219.1919744095
 20
131.8786191524
 30
0.0
 10
219.0520089733
 20
131.860025216
 30
0.0
 10
218.8038557937
 20
131.8364703764
 30
0.0
 10
218.4830957164
 20
131.8144248365
 30
0.0
 10
217.9435668768
 20
131.7864555451
 30
0.0
 10
217.1880670584
 20
131.7628546116
 30
0.0
 10
216.5614669837
 20
131.7557662625
 30
0.0
 10
216.2376219634
 20
131.7557717841
 30
0.0
  0
LINE
  5
3F6
330
212
100
AcDbEntity
  8
RUNDUNGEN
  6
Continuous
 62
     9
100
AcDbLine
 10
219.7504471172
 20
131.9916925205
 30
0.0
 11
219.2478817656
 21
131.8899414956
 31
0.0
  0
SPLINE
  5
3F7
330
212
100
AcDbEntity
  8
RUNDUNGEN
  6
Continuous
 62
     9
100
AcDbSpline
210
0.0
220
0.0
230
1.0
 70
     8
 71
     3
 72
     8
 73
     4
 74
     0
 42
0.0000000001
 43
0.0000000001
 40
0.0
 40
0.0
 40
0.0
 40
0.0
 40
1.0
 40
1.0
 40
1.0
 40
1.0
 10
188.2020674508
 20
155.3471649276
 30
0.0
 10
189.2040692565
 20
147.7435751817
 30
0.0
 10
190.205943575
 20
140.1399686321
 30
0.0
 10
191.2075861446
 20
132.5363315546
 30
0.0
  0
SPLINE
  5
3F8
330
212
100
AcDbEntity
  8
RUNDUNGEN
  6
Continuous
 62
     9
100
AcDbSpline
210
0.0
220
0.0
230
1.0
 70
     8
 71
     3
 72
     8
 73
     4
 74
     0
 42
0.0000000001
 43
0.0000000001
 40
0.0
 40
0.0
 40
0.0
 40
0.0
 40
1.0
 40
1.0
 40
1.0
 40
1.0
 10
219.9833807433
 20
132.5363315546
 30
0.0
 10
220.9850234481
 20
140.1399687514
 30
0.0
 10
221.9869007367
 20
147.7435750468
 30
0.0
 10
222.9889025602
 20
155.3471649276
 30
0.0
  0
SPLINE
  5
3F9
330
212
100
AcDbEntity
  8
RUNDUNGEN
  6
Continuous
 62
     9
100
AcDbSpline
210
0.0
220
0.0
230
1.0
 70
     8
 71
     3
 72
     8
 73
     4
 74
     0
 42
0.0000000001
 43
0.0000000001
 40
0.0
 40
0.0
 40
0.0
 40
0.0
 40
1.0
 40
1.0
 40
1.0
 40
1.0
 10
190.7175411896
 20
218.7249019633
 30
0.0
 10
191.1125682555
 20
218.7484270067
 30
0.0
 10
191.5075829529
 20
218.7721602949
 30
0.0
 10
191.9025877131
 20
218.7960569463
 30
0.0
  0
SPLINE
  5
3FA
330
212
100
AcDbEntity
  8
RUNDUNGEN
  6
Continuous
 62
     9
100
AcDbSpline
210
0.0
220
0.0
230
1.0
 70
     8
 71
     3
 72
     9
 73
     5
 74
     0
 42
0.0000000001
 43
0.0000000001
 40
0.0
 40
0.0
 40
0.0
 40
0.0
 40
0.2583385959
 40
1.0
 40
1.0
 40
1.0
 40
1.0
 10
188.1158112864
 20
156.6971777499
 30
0.0
 10
188.1159337714
 20
156.5806418472
 30
0.0
 10
188.1234099259
 20
156.129615907
 30
0.0
 10
188.1574932478
 20
155.6787440993
 30
0.0
 10
188.2020674508
 20
155.3471649276
 30
0.0
  0
SPLINE
  5
3FB
330
212
100
AcDbEntity
  8
RUNDUNGEN
  6
Continuous
 62
     9
100
AcDbSpline
210
0.0
220
0.0
230
1.0
 70
     8
 71
     3
 72
     9
 73
     5
 74
     0
 42
0.0000000001
 43
0.0000000001
 40
0.0
 40
0.0
 40
0.0
 40
0.0
 40
0.2386345211
 40
1.0
 40
1.0
 40
1.0
 40
1.0
 10
222.9889025602
 20
155.3471649276
 30
0.0
 10
223.0032449145
 20
155.4538550228
 30
0.0
 10
223.0545831543
 20
155.9020966601
 30
0.0
 10
223.074797734
 20
156.353720331
 30
0.0
 10
223.0751587246
 20
156.6971777499
 30
0.0
  0
SPLINE
  5
3FC
330
212
100
AcDbEntity
  8
RUNDUNGEN
  6
Continuous
 62
     9
100
AcDbSpline
210
0.0
220
0.0
230
1.0
 70
     8
 71
     3
 72
     8
 73
     4
 74
     0
 42
0.0000000001
 43
0.0000000001
 40
0.0
 40
0.0
 40
0.0
 40
0.0
 40
1.0
 40
1.0
 40
1.0
 40
1.0
 10
193.100754073
 20
230.8159399971
 30
0.0
 10
192.5331542712
 20
230.8503596389
 30
0.0
 10
191.9655339992999
 20
230.8844444655
 30
0.0
 10
191.3978878438
 20
230.9180909939
 30
0.0
  0
LINE
  5
3FD
330
212
100
AcDbEntity
  8
RUNDUNGEN
  6
Continuous
 62
     9
100
AcDbLine
 10
191.3967319336
 20
217.7120853303
 30
0.0
 11
191.6789516953
 21
217.7250197747
 31
0.0
  0
LINE
  5
3FE
330
212
100
AcDbEntity
  8
RUNDUNGEN
  6
Continuous
 62
     9
100
AcDbLine
 10
191.6789516953
 20
217.7250197747
 30
0.0
 11
192.5910435323
 21
217.7796586596
 31
0.0
  0
LINE
  5
3FF
330
212
100
AcDbEntity
  8
RUNDUNGEN
  6
Continuous
 62
     9
100
AcDbLine
 10
191.392706603
 20
214.2887523344
 30
0.0
 11
191.3967319336
 21
217.7120853303
 31
0.0
  0
SPLINE
  5
400
330
212
100
AcDbEntity
  8
RUNDUNGEN
  6
Continuous
 62
     9
100
AcDbSpline
210
0.0
220
0.0
230
1.0
 70
     8
 71
     3
 72
     8
 73
     4
 74
     0
 42
0.0000000001
 43
0.0000000001
 40
0.0
 40
0.0
 40
0.0
 40
0.0
 40
1.0
 40
1.0
 40
1.0
 40
1.0
 10
219.7930821671
 20
230.9180906824
 30
0.0
 10
219.2254360141
 20
230.8844441549
 30
0.0
 10
218.6578157374
 20
230.8503594498
 30
0.0
 10
218.090215938
 20
230.815939809
 30
0.0
  0
LINE
  5
401
330
212
100
AcDbEntity
  8
RUNDUNGEN
  6
Continuous
 62
     9
100
AcDbLine
 10
218.5999264787
 20
217.7796586597
 30
0.0
 11
219.5120183157
 21
217.7250197747
 31
0.0
  0
LINE
  5
402
330
212
100
AcDbEntity
  8
RUNDUNGEN
  6
Continuous
 62
     9
100
AcDbLine
 10
219.5120183157
 20
217.7250197747
 30
0.0
 11
219.7942380774
 21
217.7120853303
 31
0.0
  0
LINE
  5
403
330
212
100
AcDbEntity
  8
RUNDUNGEN
  6
Continuous
 62
     9
100
AcDbLine
 10
219.7942380774
 20
217.7120853303
 30
0.0
 11
219.7982633166
 21
214.2887525996
 31
0.0
  0
SPLINE
  5
404
330
212
100
AcDbEntity
  8
RUNDUNGEN
  6
Continuous
 62
     9
100
AcDbSpline
210
0.0
220
0.0
230
1.0
 70
     8
 71
     3
 72
    11
 73
     7
 74
     0
 42
0.0000000001
 43
0.0000000001
 40
0.0
 40
0.0
 40
0.0
 40
0.0
 40
0.2397755015
 40
0.4796913885000001
 40
0.7279698268000001
 40
1.0
 40
1.0
 40
1.0
 40
1.0
 10
217.7474447976
 20
217.0136086239
 30
0.0
 10
217.7062164022
 20
217.1327877749
 30
0.0
 10
217.6435392936
 20
217.3788514396
 30
0.0
 10
217.6257469426
 20
217.7644796766
 30
0.0
 10
217.7081293902
 20
218.1607648814
 30
0.0
 10
217.847741779
 20
218.4036192609
 30
0.0
 10
217.93940744
 20
218.5134705934
 30
0.0
  0
SPLINE
  5
405
330
212
100
AcDbEntity
  8
RUNDUNGEN
  6
Continuous
 62
     9
100
AcDbSpline
210
0.0
220
0.0
230
1.0
 70
     8
 71
     3
 72
     9
 73
     5
 74
     0
 42
0.0000000001
 43
0.0000000001
 40
0.0
 40
0.0
 40
0.0
 40
0.0
 40
0.2458368624
 40
1.0
 40
1.0
 40
1.0
 40
1.0
 10
192.2258024684
 20
213.5227269636
 30
0.0
 10
192.2164441087
 20
213.4961225147
 30
0.0
 10
192.174670879
 20
213.3892347558
 30
0.0
 10
192.1171705919
 20
213.288553267
 30
0.0
 10
192.0666302348
 20
213.2183324282
 30
0.0
  0
SPLINE
  5
406
330
212
100
AcDbEntity
  8
RUNDUNGEN
  6
Continuous
 62
     9
100
AcDbSpline
210
0.0
220
0.0
230
1.0
 70
     8
 71
     3
 72
    11
 73
     7
 74
     0
 42
0.0000000001
 43
0.0000000001
 40
0.0
 40
0.0
 40
0.0
 40
0.0
 40
0.2720277198
 40
0.5203069745000001
 40
0.7602235495000001
 40
1.0
 40
1.0
 40
1.0
 40
1.0
 10
193.2515739147
 20
218.5134705934
 30
0.0
 10
193.3432417619
 20
218.4036239766
 30
0.0
 10
193.4828360387
 20
218.1607609416
 30
0.0
 10
193.5652240381
 20
217.7644829841
 30
0.0
 10
193.5474317895
 20
217.3788547819
 30
0.0
 10
193.4847545291
 20
217.1327922488
 30
0.0
 10
193.4435264931
 20
217.0136133123
 30
0.0
  0
SPLINE
  5
407
330
212
100
AcDbEntity
  8
RUNDUNGEN
  6
Continuous
 62
     9
100
AcDbSpline
210
0.0
220
0.0
230
1.0
 70
     8
 71
     3
 72
     8
 73
     4
 74
     0
 42
0.0000000001
 43
0.0000000001
 40
0.0
 40
0.0
 40
0.0
 40
0.0
 40
1.0
 40
1.0
 40
1.0
 40
1.0
 10
219.2883823673
 20
218.7960569463
 30
0.0
 10
219.6833871038
 20
218.7721602863
 30
0.0
 10
220.0784017758
 20
218.748426961
 30
0.0
 10
220.4734288213
 20
218.7249019633
 30
0.0
  0
SPLINE
  5
408
330
212
100
AcDbEntity
  8
RUNDUNGEN
  6
Continuous
 62
     9
100
AcDbSpline
210
0.0
220
0.0
230
1.0
 70
     8
 71
     3
 72
     9
 73
     5
 74
     0
 42
0.0000000001
 43
0.0000000001
 40
0.0
 40
0.0
 40
0.0
 40
0.0
 40
0.5011154808000001
 40
1.0
 40
1.0
 40
1.0
 40
1.0
 10
218.0021900344
 20
219.2795150365
 30
0.0
 10
218.2068778056
 20
219.4485553618
 30
0.0
 10
218.6826500122
 20
219.7101074392
 30
0.0
 10
219.2161533975
 20
219.7959188749
 30
0.0
 10
219.4804366413
 20
219.7959046415
 30
0.0
  0
SPLINE
  5
409
330
212
100
AcDbEntity
  8
RUNDUNGEN
  6
Continuous
 62
     9
100
AcDbSpline
210
0.0
220
0.0
230
1.0
 70
     8
 71
     3
 72
     9
 73
     5
 74
     0
 42
0.0000000001
 43
0.0000000001
 40
0.0
 40
0.0
 40
0.0
 40
0.0
 40
0.5011187334000001
 40
1.0
 40
1.0
 40
1.0
 40
1.0
 10
193.1889229555
 20
219.2795150365
 30
0.0
 10
192.9842106885
 20
219.4485609563
 30
0.0
 10
192.508365965
 20
219.710061482
 30
0.0
 10
191.9748355191
 20
219.7959145339
 30
0.0
 10
191.7105333636
 20
219.7959046415
 30
0.0
  0
SPLINE
  5
40A
330
212
100
AcDbEntity
  8
RUNDUNGEN
  6
Continuous
 62
     9
100
AcDbSpline
210
0.0
220
0.0
230
1.0
 70
     8
 71
     3
 72
    13
 73
     9
 74
     0
 42
0.0000000001
 43
0.0000000001
 40
0.0
 40
0.0
 40
0.0
 40
0.0
 40
0.1263161376
 40
0.2524537057
 40
0.3783046539
 40
0.5037756172
 40
0.7524545609000001
 40
1.0
 40
1.0
 40
1.0
 40
1.0
 10
193.9019826835
 20
230.8159408896
 30
0.0
 10
193.9020080803
 20
230.6781314629
 30
0.0
 10
193.8703235007
 20
230.4016848235
 30
0.0
 10
193.731499735
 20
230.0095549979
 30
0.0
 10
193.5115053177
 20
229.6576119844
 30
0.0
 10
193.1311900558
 20
229.2619566572
 30
0.0
 10
192.526282567
 20
228.920337233
 30
0.0
 10
191.9806024575
 20
228.8304976024
 30
0.0
 10
191.7105332784
 20
228.8305101153
 30
0.0
  0
LEADER
  5
572
330
212
100
AcDbEntity
  8
ZEICHNUNGSBEMASSUNGEN
  6
Continuous
 62
     7
100
AcDbLeader
  3
DIMSTYLE_2
 74
     0
 76
     3
 10
212.5954848434731
 20
251.6894248121143
 30
0.0
 10
228.7340716696729
 20
261.3336688957716
 30
0.0
 10
245.8267017723792
 20
261.3009733173299
 30
0.0
213
8.546107528269942
223
6.697880158863256
233
0.0
1001
ACAD
1000
DSTYLE
1002
{
1070
    41
1040
5.0
1070
   147
1040
1.5
1070
   178
1070
   256
1002
}
  0
LINE
  5
573
330
212
100
AcDbEntity
  8
0
100
AcDbLine
 10
248.1844721416564
 20
258.0550715396916
 30
0.0
 11
256.823635415991
 21
258.0550715396916
 31
0.0
  0
LINE
  5
574
330
212
100
AcDbEntity
  8
0
100
AcDbLine
 10
249.6796925162358
 20
256.9094446341818
 30
0.0
 11
255.3123263134192
 21
256.9094446341818
 31
0.0
  0
LINE
  5
575
330
212
100
AcDbEntity
  8
0
100
AcDbLine
 10
251.0905039697499
 20
255.9769972054298
 30
0.0
 11
254.0945724832031
 21
255.9769972054298
 31
0.0
  0
LINE
  5
576
330
212
100
AcDbEntity
  8
0
100
AcDbLine
 10
252.4567051217748
 20
259.6498772400189
 30
0.0
 11
252.4567051217748
 21
265.090982839945
 31
0.0
  0
ENDSEC
  0
SECTION
  2
OBJECTS
  0
DICTIONARY
  5
C
330
0
100
AcDbDictionary
281
     1
  3
ACAD_COLOR
350
43C
  3
ACAD_GROUP
350
D
  3
ACAD_LAYOUT
350
1A
  3
ACAD_MATERIAL
350
40F
  3
ACAD_MLEADERSTYLE
350
451
  3
ACAD_MLINESTYLE
350
17
  3
ACAD_PLOTSETTINGS
350
19
  3
ACAD_PLOTSTYLENAME
350
E
  3
ACAD_SCALELIST
350
43F
  3
ACAD_TABLESTYLE
350
43D
  3
ACAD_VISUALSTYLE
350
428
  3
ACDB_RECOMPOSE_DATA
350
586
  3
AcDbVariableDictionary
350
577
  3
AcmDictionary
350
4AC
  3
AMG
350
456
  3
AMGSNAPSETTINGS
350
4F4
  3
DWGPROPS
350
587
  0
DICTIONARY
  5
43C
102
{ACAD_REACTORS
330
C
102
}
330
C
100
AcDbDictionary
281
     1
  0
DICTIONARY
  5
D
102
{ACAD_REACTORS
330
C
102
}
330
C
100
AcDbDictionary
281
     1
  0
DICTIONARY
  5
1A
102
{ACAD_REACTORS
330
C
102
}
330
C
100
AcDbDictionary
281
     1
  3
Layout1
350
40C
  3
Model
350
40B
  0
DICTIONARY
  5
40F
102
{ACAD_REACTORS
330
C
102
}
330
C
100
AcDbDictionary
281
     1
  3
ByBlock
350
418
  3
ByLayer
350
410
  3
Global
350
420
  0
DICTIONARY
  5
451
102
{ACAD_REACTORS
330
C
102
}
330
C
100
AcDbDictionary
281
     1
  3
Standard
350
452
  0
DICTIONARY
  5
17
102
{ACAD_REACTORS
330
C
102
}
330
C
100
AcDbDictionary
281
     1
  3
Standard
350
18
  0
DICTIONARY
  5
19
102
{ACAD_REACTORS
330
C
102
}
330
C
100
AcDbDictionary
281
     1
  0
ACDBDICTIONARYWDFLT
  5
E
102
{ACAD_REACTORS
330
C
102
}
330
C
100
AcDbDictionary
281
     1
  3
Normal
350
F
100
AcDbDictionaryWithDefault
340
F
  0
DICTIONARY
  5
43F
102
{ACAD_REACTORS
330
C
102
}
330
C
100
AcDbDictionary
281
     1
  3
A0
350
440
  3
A1
350
441
  3
A2
350
442
  3
A3
350
443
  3
A4
350
444
  3
A5
350
445
  3
A6
350
446
  3
A7
350
447
  3
A8
350
448
  3
A9
350
449
  3
B0
350
44A
  3
B1
350
44B
  3
B2
350
44C
  3
B3
350
44D
  3
B4
350
44E
  3
B5
350
44F
  3
B6
350
450
  0
DICTIONARY
  5
43D
102
{ACAD_REACTORS
330
C
102
}
330
C
100
AcDbDictionary
281
     1
  3
Standard
350
43E
  0
DICTIONARY
  5
428
102
{ACAD_REACTORS
330
C
102
}
330
C
100
AcDbDictionary
281
     1
  3
2dWireframe
350
42E
  3
3D Hidden
350
430
  3
3dWireframe
350
42F
  3
Basic
350
42D
  3
Brighten
350
434
  3
ColorChange
350
438
  3
Conceptual
350
431
  3
Dim
350
433
  3
EdgeColorOff
350
43B
  3
Facepattern
350
437
  3
Flat
350
429
  3
FlatWithEdges
350
42A
  3
Gouraud
350
42B
  3
GouraudWithEdges
350
42C
  3
JitterOff
350
439
  3
Linepattern
350
436
  3
OverhangOff
350
43A
  3
Realistic
350
432
  3
Thicken
350
435
  0
XRECORD
  5
586
102
{ACAD_REACTORS
330
C
102
}
330
C
100
AcDbXrecord
280
     1
 90
        1
330
43E
  0
DICTIONARY
  5
577
102
{ACAD_REACTORS
330
C
102
}
330
C
100
AcDbDictionary
281
     1
  3
CANNOSCALE
350
57B
  3
CMLEADERSTYLE
350
579
  3
CTABLESTYLE
350
578
  3
DIMASSOC
350
582
  3
HIDETEXT
350
581
  3
INDEXCTL
350
580
  3
LAYEREVAL
350
57D
  3
LAYERNOTIFY
350
57E
  3
LIGHTINGUNITS
350
57C
  3
MSLTSCALE
350
57A
  3
SORTENTS
350
57F
  3
XCLIPFRAME
350
583
  0
DICTIONARY
  5
4AC
102
{ACAD_REACTORS
330
C
102
}
330
C
100
AcDbDictionary
281
     1
  3
AcmStdDictionary
350
4B6
  0
DICTIONARY
  5
456
102
{ACAD_REACTORS
330
C
102
}
330
C
100
AcDbDictionary
281
     1
  0
DICTIONARY
  5
4F4
102
{ACAD_REACTORS
330
C
102
}
330
C
100
AcDbDictionary
281
     1
  0
XRECORD
  5
587
102
{ACAD_REACTORS
330
C
102
}
330
C
100
AcDbXrecord
280
     1
  1
DWGPROPS COOKIE
  2

  3

  4

  6

  7

  8
sheim
  9

300
=
301
=
302
=
303
=
304
=
305
=
306
=
307
=
308
=
309
=
 40
0.0026107523148148
 41
2456324.614182535
 42
2456324.616793113
  1

 90
        0
  0
LAYOUT
  5
40C
102
{ACAD_XDICTIONARY
360
58A
102
}
102
{ACAD_REACTORS
330
1A
102
}
330
1A
100
AcDbPlotSettings
  1

  2
none_device
  4
ISO_A3_(420.00_x_297.00_MM)
  6

 40
0.0
 41
0.0
 42
0.0
 43
0.0
 44
420.0
 45
297.0
 46
0.0
 47
0.0
 48
0.0
 49
0.0
140
0.0
141
0.0
142
1.0
143
1.0
 70
     0
 72
     1
 73
     0
 74
     0
  7

 75
     0
147
1.0
148
0.0
149
0.0
100
AcDbLayout
  1
Layout1
 70
     1
 71
     1
 10
0.0
 20
0.0
 11
12.0
 21
9.0
 12
0.0
 22
0.0
 32
0.0
 14
1.000000000000000E+20
 24
1.000000000000000E+20
 34
1.000000000000000E+20
 15
-1.000000000000000E+20
 25
-1.000000000000000E+20
 35
-1.000000000000000E+20
146
0.0
 13
0.0
 23
0.0
 33
0.0
 16
1.0
 26
0.0
 36
0.0
 17
0.0
 27
1.0
 37
0.0
 76
     0
330
213
  0
LAYOUT
  5
40B
102
{ACAD_XDICTIONARY
360
588
102
}
102
{ACAD_REACTORS
330
1A
102
}
330
1A
100
AcDbPlotSettings
  1

  2
none_device
  4
ISO_A3_(420.00_x_297.00_MM)
  6

 40
0.0
 41
0.0
 42
0.0
 43
0.0
 44
420.0
 45
297.0
 46
0.0
 47
0.0
 48
0.0
 49
0.0
140
0.0
141
0.0
142
1.0
143
1.0
 70
  1024
 72
     1
 73
     0
 74
     0
  7

 75
     0
147
1.0
148
0.0
149
0.0
100
AcDbLayout
  1
Model
 70
     0
 71
     0
 10
0.0
 20
0.0
 11
420.0
 21
297.0
 12
0.0
 22
0.0
 32
0.0
 14
0.0
 24
0.0
 34
0.0
 15
0.0
 25
0.0
 35
0.0
146
0.0
 13
0.0
 23
0.0
 33
0.0
 16
1.0
 26
0.0
 36
0.0
 17
0.0
 27
1.0
 37
0.0
 76
     0
330
212
331
1F4
  0
MATERIAL
  5
418
102
{ACAD_XDICTIONARY
360
419
102
}
102
{ACAD_REACTORS
330
40F
102
}
330
40F
100
AcDbMaterial
  1
ByBlock
 72
     0
 43
0.0008202099737533
 43
0.0
 43
0.0
 43
0.0
 43
0.0
 43
0.0008202099737533
 43
0.0
 43
0.0
 43
0.0
 43
0.0
 43
1.0
 43
0.0
 43
0.0
 43
0.0
 43
0.0
 43
1.0
 77
     0
 47
0.0008202099737533
 47
0.0
 47
0.0
 47
0.0
 47
0.0
 47
0.0008202099737533
 47
0.0
 47
0.0
 47
0.0
 47
0.0
 47
1.0
 47
0.0
 47
0.0
 47
0.0
 47
0.0
 47
1.0
171
     0
 49
0.0008202099737533
 49
0.0
 49
0.0
 49
0.0
 49
0.0
 49
0.0008202099737533
 49
0.0
 49
0.0
 49
0.0
 49
0.0
 49
1.0
 49
0.0
 49
0.0
 49
0.0
 49
0.0
 49
1.0
175
     0
142
0.0008202099737533
142
0.0
142
0.0
142
0.0
142
0.0
142
0.0008202099737533
142
0.0
142
0.0
142
0.0
142
0.0
142
1.0
142
0.0
142
0.0
142
0.0
142
0.0
142
1.0
179
     0
144
0.0008202099737533
144
0.0
144
0.0
144
0.0
144
0.0
144
0.0008202099737533
144
0.0
144
0.0
144
0.0
144
0.0
144
1.0
144
0.0
144
0.0
144
0.0
144
0.0
144
1.0
147
0.0008202099737533
147
0.0
147
0.0
147
0.0
147
0.0
147
0.0008202099737533
147
0.0
147
0.0
147
0.0
147
0.0
147
1.0
147
0.0
147
0.0
147
0.0
147
0.0
147
1.0
  0
MATERIAL
  5
410
102
{ACAD_XDICTIONARY
360
411
102
}
102
{ACAD_REACTORS
330
40F
102
}
330
40F
100
AcDbMaterial
  1
ByLayer
 72
     0
 43
0.0008202099737533
 43
0.0
 43
0.0
 43
0.0
 43
0.0
 43
0.0008202099737533
 43
0.0
 43
0.0
 43
0.0
 43
0.0
 43
1.0
 43
0.0
 43
0.0
 43
0.0
 43
0.0
 43
1.0
 77
     0
 47
0.0008202099737533
 47
0.0
 47
0.0
 47
0.0
 47
0.0
 47
0.0008202099737533
 47
0.0
 47
0.0
 47
0.0
 47
0.0
 47
1.0
 47
0.0
 47
0.0
 47
0.0
 47
0.0
 47
1.0
171
     0
 49
0.0008202099737533
 49
0.0
 49
0.0
 49
0.0
 49
0.0
 49
0.0008202099737533
 49
0.0
 49
0.0
 49
0.0
 49
0.0
 49
1.0
 49
0.0
 49
0.0
 49
0.0
 49
0.0
 49
1.0
175
     0
142
0.0008202099737533
142
0.0
142
0.0
142
0.0
142
0.0
142
0.0008202099737533
142
0.0
142
0.0
142
0.0
142
0.0
142
1.0
142
0.0
142
0.0
142
0.0
142
0.0
142
1.0
179
     0
144
0.0008202099737533
144
0.0
144
0.0
144
0.0
144
0.0
144
0.0008202099737533
144
0.0
144
0.0
144
0.0
144
0.0
144
1.0
144
0.0
144
0.0
144
0.0
144
0.0
144
1.0
147
0.0008202099737533
147
0.0
147
0.0
147
0.0
147
0.0
147
0.0008202099737533
147
0.0
147
0.0
147
0.0
147
0.0
147
1.0
147
0.0
147
0.0
147
0.0
147
0.0
147
1.0
  0
MATERIAL
  5
420
102
{ACAD_XDICTIONARY
360
421
102
}
102
{ACAD_REACTORS
330
40F
102
}
330
40F
100
AcDbMaterial
  1
Global
 72
     0
 43
0.0008202099737533
 43
0.0
 43
0.0
 43
0.0
 43
0.0
 43
0.0008202099737533
 43
0.0
 43
0.0
 43
0.0
 43
0.0
 43
1.0
 43
0.0
 43
0.0
 43
0.0
 43
0.0
 43
1.0
 77
     0
 47
0.0008202099737533
 47
0.0
 47
0.0
 47
0.0
 47
0.0
 47
0.0008202099737533
 47
0.0
 47
0.0
 47
0.0
 47
0.0
 47
1.0
 47
0.0
 47
0.0
 47
0.0
 47
0.0
 47
1.0
171
     0
 49
0.0008202099737533
 49
0.0
 49
0.0
 49
0.0
 49
0.0
 49
0.0008202099737533
 49
0.0
 49
0.0
 49
0.0
 49
0.0
 49
1.0
 49
0.0
 49
0.0
 49
0.0
 49
0.0
 49
1.0
175
     0
142
0.0008202099737533
142
0.0
142
0.0
142
0.0
142
0.0
142
0.0008202099737533
142
0.0
142
0.0
142
0.0
142
0.0
142
1.0
142
0.0
142
0.0
142
0.0
142
0.0
142
1.0
179
     0
144
0.0008202099737533
144
0.0
144
0.0
144
0.0
144
0.0
144
0.0008202099737533
144
0.0
144
0.0
144
0.0
144
0.0
144
1.0
144
0.0
144
0.0
144
0.0
144
0.0
144
1.0
147
0.0008202099737533
147
0.0
147
0.0
147
0.0
147
0.0
147
0.0008202099737533
147
0.0
147
0.0
147
0.0
147
0.0
147
1.0
147
0.0
147
0.0
147
0.0
147
0.0
147
1.0
  0
MLEADERSTYLE
  5
452
102
{ACAD_REACTORS
330
451
102
}
330
451
100
AcDbMLeaderStyle
170
     2
171
     1
172
     0
 90
        2
 40
0.0
 41
0.0
173
     1
 91
-1056964608
340
14
 92
       -2
290
     1
 42
2.0
291
     1
 43
0.36
  3
Standard
 44
4.0
300

342
11
174
     1
178
     6
175
     1
176
     0
 93
-1056964608
 45
4.0
292
     0
297
     0
 46
4.0
 94
-1056964608
 47
1.0
 49
1.0
140
1.0
293
     1
141
0.0
294
     1
177
     0
142
1.0
295
     0
296
     0
143
0.125
1001
ACAD_MLEADERVER
1070
     2
  0
MLINESTYLE
  5
18
102
{ACAD_REACTORS
330
17
102
}
330
17
100
AcDbMlineStyle
  2
STANDARD
 70
     0
  3

 62
   256
 51
90.0
 52
90.0
 71
     2
 49
0.5
 62
   256
  6
BYLAYER
 49
-0.5
 62
   256
  6
BYLAYER
  0
ACDBPLACEHOLDER
  5
F
102
{ACAD_REACTORS
330
E
102
}
330
E
  0
SCALE
  5
440
102
{ACAD_REACTORS
330
43F
102
}
330
43F
100
AcDbScale
 70
     0
300
1:1
140
1.0
141
1.0
290
     1
  0
SCALE
  5
441
102
{ACAD_REACTORS
330
43F
102
}
330
43F
100
AcDbScale
 70
     0
300
1:2
140
1.0
141
2.0
290
     0
  0
SCALE
  5
442
102
{ACAD_REACTORS
330
43F
102
}
330
43F
100
AcDbScale
 70
     0
300
1:4
140
1.0
141
4.0
290
     0
  0
SCALE
  5
443
102
{ACAD_REACTORS
330
43F
102
}
330
43F
100
AcDbScale
 70
     0
300
1:5
140
1.0
141
5.0
290
     0
  0
SCALE
  5
444
102
{ACAD_REACTORS
330
43F
102
}
330
43F
100
AcDbScale
 70
     0
300
1:8
140
1.0
141
8.0
290
     0
  0
SCALE
  5
445
102
{ACAD_REACTORS
330
43F
102
}
330
43F
100
AcDbScale
 70
     0
300
1:10
140
1.0
141
10.0
290
     0
  0
SCALE
  5
446
102
{ACAD_REACTORS
330
43F
102
}
330
43F
100
AcDbScale
 70
     0
300
1:16
140
1.0
141
16.0
290
     0
  0
SCALE
  5
447
102
{ACAD_REACTORS
330
43F
102
}
330
43F
100
AcDbScale
 70
     0
300
1:20
140
1.0
141
20.0
290
     0
  0
SCALE
  5
448
102
{ACAD_REACTORS
330
43F
102
}
330
43F
100
AcDbScale
 70
     0
300
1:30
140
1.0
141
30.0
290
     0
  0
SCALE
  5
449
102
{ACAD_REACTORS
330
43F
102
}
330
43F
100
AcDbScale
 70
     0
300
1:40
140
1.0
141
40.0
290
     0
  0
SCALE
  5
44A
102
{ACAD_REACTORS
330
43F
102
}
330
43F
100
AcDbScale
 70
     0
300
1:50
140
1.0
141
50.0
290
     0
  0
SCALE
  5
44B
102
{ACAD_REACTORS
330
43F
102
}
330
43F
100
AcDbScale
 70
     0
300
1:100
140
1.0
141
100.0
290
     0
  0
SCALE
  5
44C
102
{ACAD_REACTORS
330
43F
102
}
330
43F
100
AcDbScale
 70
     0
300
2:1
140
2.0
141
1.0
290
     0
  0
SCALE
  5
44D
102
{ACAD_REACTORS
330
43F
102
}
330
43F
100
AcDbScale
 70
     0
300
4:1
140
4.0
141
1.0
290
     0
  0
SCALE
  5
44E
102
{ACAD_REACTORS
330
43F
102
}
330
43F
100
AcDbScale
 70
     0
300
8:1
140
8.0
141
1.0
290
     0
  0
SCALE
  5
44F
102
{ACAD_REACTORS
330
43F
102
}
330
43F
100
AcDbScale
 70
     0
300
10:1
140
10.0
141
1.0
290
     0
  0
SCALE
  5
450
102
{ACAD_REACTORS
330
43F
102
}
330
43F
100
AcDbScale
 70
     0
300
100:1
140
100.0
141
1.0
290
     0
  0
TABLESTYLE
  5
43E
102
{ACAD_XDICTIONARY
360
584
102
}
102
{ACAD_REACTORS
330
43D
102
}
330
43D
100
AcDbTableStyle
  3
Standard
 70
     0
 71
     0
 40
1.5
 41
1.5
280
     0
281
     0
  7
STANDARD
140
4.5
170
     2
 62
     0
 63
     7
283
     0
274
    -2
284
     1
 64
     0
275
    -2
285
     1
 65
     0
276
    -2
286
     1
 66
     0
277
    -2
287
     1
 67
     0
278
    -2
288
     1
 68
     0
279
    -2
289
     1
 69
     0
  7
STANDARD
140
6.0
170
     5
 62
     0
 63
     7
283
     0
274
    -2
284
     1
 64
     0
275
    -2
285
     1
 65
     0
276
    -2
286
     1
 66
     0
277
    -2
287
     1
 67
     0
278
    -2
288
     1
 68
     0
279
    -2
289
     1
 69
     0
  7
STANDARD
140
4.5
170
     5
 62
     0
 63
     7
283
     0
274
    -2
284
     1
 64
     0
275
    -2
285
     1
 65
     0
276
    -2
286
     1
 66
     0
277
    -2
287
     1
 67
     0
278
    -2
288
     1
 68
     0
279
    -2
289
     1
 69
     0
  0
VISUALSTYLE
  5
42E
102
{ACAD_XDICTIONARY
360
599
102
}
102
{ACAD_REACTORS
330
428
102
}
330
428
100
AcDbVisualStyle
  2
2dWireframe
 70
     4
 71
     0
 72
     2
 73
     0
 90
        0
 40
-0.6
 41
-30.0
 62
     5
 63
     7
 74
     1
 91
        4
 64
     7
 65
   257
 75
     1
175
     1
 42
1.0
 92
        0
 66
   257
 43
1.0
 76
     1
 77
     6
 78
     2
 67
     7
 79
     5
170
     0
171
     0
290
     0
174
     0
 93
        1
 44
0.0
173
     0
291
     0
 45
0.0
1001
ACAD
1000
AcDbSavedByObjectVersion
1070
     0
  0
VISUALSTYLE
  5
430
102
{ACAD_XDICTIONARY
360
59D
102
}
102
{ACAD_REACTORS
330
428
102
}
330
428
100
AcDbVisualStyle
  2
3D Hidden
 70
     6
 71
     1
 72
     2
 73
     2
 90
        0
 40
-0.6
 41
-30.0
 62
     5
 63
     7
 74
     2
 91
        2
 64
     7
 65
   257
 75
     2
175
     1
 42
179.0
 92
        0
 66
   257
 43
1.0
 76
     1
 77
     6
 78
     2
 67
     7
 79
     3
170
     0
171
     0
290
     0
174
     0
 93
        1
 44
0.0
173
     0
291
     0
 45
0.0
1001
ACAD
1000
AcDbSavedByObjectVersion
1070
     0
  0
VISUALSTYLE
  5
42F
102
{ACAD_XDICTIONARY
360
59B
102
}
102
{ACAD_REACTORS
330
428
102
}
330
428
100
AcDbVisualStyle
  2
3dWireframe
 70
     5
 71
     0
 72
     2
 73
     0
 90
        0
 40
-0.6
 41
-30.0
 62
     5
 63
     7
 74
     1
 91
        4
 64
     7
 65
   257
 75
     1
175
     1
 42
1.0
 92
        0
 66
   257
 43
1.0
 76
     1
 77
     6
 78
     2
 67
     7
 79
     5
170
     0
171
     0
290
     0
174
     0
 93
        1
 44
0.0
173
     0
291
     0
 45
0.0
1001
ACAD
1000
AcDbSavedByObjectVersion
1070
     0
  0
VISUALSTYLE
  5
42D
102
{ACAD_XDICTIONARY
360
597
102
}
102
{ACAD_REACTORS
330
428
102
}
330
428
100
AcDbVisualStyle
  2
Basic
 70
     7
 71
     1
 72
     0
 73
     1
 90
        0
 40
-0.6
 41
-30.0
 62
     5
 63
     7
 74
     0
 91
        4
 64
     7
 65
   257
 75
     1
175
     1
 42
1.0
 92
        8
 66
     7
 43
1.0
 76
     1
 77
     6
 78
     2
 67
     7
 79
     5
170
     0
171
     0
290
     0
174
     0
 93
        1
 44
0.0
173
     0
291
     1
 45
0.0
1001
ACAD
1000
AcDbSavedByObjectVersion
1070
     0
  0
VISUALSTYLE
  5
434
102
{ACAD_XDICTIONARY
360
5A5
102
}
102
{ACAD_REACTORS
330
428
102
}
330
428
100
AcDbVisualStyle
  2
Brighten
 70
    12
 71
     2
 72
     2
 73
     0
 90
        0
 40
-0.6
 41
-30.0
 62
     5
 63
     7
 74
     1
 91
        4
 64
     7
 65
   257
 75
     1
175
     1
 42
1.0
 92
        8
 66
     7
 43
1.0
 76
     1
 77
     6
 78
     2
 67
     7
 79
     5
170
     0
171
     0
290
     0
174
     0
 93
        1
 44
50.0
173
     0
291
     1
 45
0.0
1001
ACAD
1000
AcDbSavedByObjectVersion
1070
     0
  0
VISUALSTYLE
  5
438
102
{ACAD_XDICTIONARY
360
5AD
102
}
102
{ACAD_REACTORS
330
428
102
}
330
428
100
AcDbVisualStyle
  2
ColorChange
 70
    16
 71
     2
 72
     2
 73
     3
 90
        0
 40
-0.6
 41
-30.0
 62
     5
 63
     8
 74
     1
 91
        4
 64
     7
 65
   257
 75
     1
175
     1
 42
1.0
 92
        8
 66
     8
 43
1.0
 76
     1
 77
     6
 78
     2
 67
     7
 79
     5
170
     0
171
     0
290
     0
174
     0
 93
        1
 44
0.0
173
     0
291
     1
 45
0.0
1001
ACAD
1000
AcDbSavedByObjectVersion
1070
     0
  0
VISUALSTYLE
  5
431
102
{ACAD_XDICTIONARY
360
59F
102
}
102
{ACAD_REACTORS
330
428
102
}
330
428
100
AcDbVisualStyle
  2
Conceptual
 70
     9
 71
     3
 72
     2
 73
     0
 90
        0
 40
-0.6
 41
-30.0
 62
     5
 63
     7
 74
     2
 91
        2
 64
     7
 65
   257
 75
     1
175
     1
 42
179.0
 92
        8
 66
     7
 43
1.0
 76
     1
 77
     6
 78
     2
 67
     7
 79
     3
170
     0
171
     0
290
     0
174
     0
 93
        1
 44
0.0
173
     0
291
     0
 45
0.0
1001
ACAD
1000
AcDbSavedByObjectVersion
1070
     0
  0
VISUALSTYLE
  5
433
102
{ACAD_XDICTIONARY
360
5A3
102
}
102
{ACAD_REACTORS
330
428
102
}
330
428
100
AcDbVisualStyle
  2
Dim
 70
    11
 71
     2
 72
     2
 73
     0
 90
        0
 40
-0.6
 41
-30.0
 62
     5
 63
     7
 74
     1
 91
        4
 64
     7
 65
   257
 75
     1
175
     1
 42
1.0
 92
        8
 66
     7
 43
1.0
 76
     1
 77
     6
 78
     2
 67
     7
 79
     5
170
     0
171
     0
290
     0
174
     0
 93
        1
 44
-50.0
173
     0
291
     1
 45
0.0
1001
ACAD
1000
AcDbSavedByObjectVersion
1070
     0
  0
VISUALSTYLE
  5
43B
102
{ACAD_XDICTIONARY
360
5B3
102
}
102
{ACAD_REACTORS
330
428
102
}
330
428
100
AcDbVisualStyle
  2
EdgeColorOff
 70
    22
 71
     2
 72
     2
 73
     0
 90
        0
 40
-0.6
 41
-30.0
 62
     5
 63
     7
 74
     1
 91
        4
 64
     7
 65
   257
 75
     1
175
     1
 42
1.0
 92
        8
 66
     7
 43
1.0
 76
     1
 77
     6
 78
     2
 67
     7
 79
     5
170
     0
171
     0
290
     0
174
     0
 93
        1
 44
0.0
173
     0
291
     1
 45
0.0
1001
ACAD
1000
AcDbSavedByObjectVersion
1070
     0
  0
VISUALSTYLE
  5
437
102
{ACAD_XDICTIONARY
360
5AB
102
}
102
{ACAD_REACTORS
330
428
102
}
330
428
100
AcDbVisualStyle
  2
Facepattern
 70
    15
 71
     2
 72
     2
 73
     0
 90
        0
 40
-0.6
 41
-30.0
 62
     5
 63
     7
 74
     1
 91
        4
 64
     7
 65
   257
 75
     1
175
     1
 42
1.0
 92
        8
 66
     7
 43
1.0
 76
     1
 77
     6
 78
     2
 67
     7
 79
     5
170
     0
171
     0
290
     0
174
     0
 93
        1
 44
0.0
173
     0
291
     1
 45
0.0
1001
ACAD
1000
AcDbSavedByObjectVersion
1070
     0
  0
VISUALSTYLE
  5
429
102
{ACAD_XDICTIONARY
360
58F
102
}
102
{ACAD_REACTORS
330
428
102
}
330
428
100
AcDbVisualStyle
  2
Flat
 70
     0
 71
     2
 72
     1
 73
     1
 90
        2
 40
-0.6
 41
30.0
 62
     5
 63
     7
 74
     0
 91
        4
 64
     7
 65
   257
 75
     1
175
     1
 42
1.0
 92
        8
 66
     7
 43
1.0
 76
     1
 77
     6
 78
     2
 67
     7
 79
     5
170
     0
171
     0
290
     0
174
     0
 93
       13
 44
0.0
173
     0
291
     1
 45
0.0
1001
ACAD
1000
AcDbSavedByObjectVersion
1070
     0
  0
VISUALSTYLE
  5
42A
102
{ACAD_XDICTIONARY
360
591
102
}
102
{ACAD_REACTORS
330
428
102
}
330
428
100
AcDbVisualStyle
  2
FlatWithEdges
 70
     1
 71
     2
 72
     1
 73
     1
 90
        2
 40
-0.6
 41
30.0
 62
     5
 63
     7
 74
     1
 91
        4
 64
     7
 65
   257
 75
     1
175
     1
 42
1.0
 92
        0
 66
   257
 43
1.0
 76
     1
 77
     6
 78
     2
 67
     7
 79
     5
170
     0
171
     0
290
     0
174
     0
 93
       13
 44
0.0
173
     0
291
     1
 45
0.0
1001
ACAD
1000
AcDbSavedByObjectVersion
1070
     0
  0
VISUALSTYLE
  5
42B
102
{ACAD_XDICTIONARY
360
593
102
}
102
{ACAD_REACTORS
330
428
102
}
330
428
100
AcDbVisualStyle
  2
Gouraud
 70
     2
 71
     2
 72
     2
 73
     1
 90
        2
 40
-0.6
 41
30.0
 62
     5
 63
     7
 74
     0
 91
        4
 64
     7
 65
   257
 75
     1
175
     1
 42
1.0
 92
        0
 66
     7
 43
1.0
 76
     1
 77
     6
 78
     2
 67
     7
 79
     5
170
     0
171
     0
290
     0
174
     0
 93
       13
 44
0.0
173
     0
291
     1
 45
0.0
1001
ACAD
1000
AcDbSavedByObjectVersion
1070
     0
  0
VISUALSTYLE
  5
42C
102
{ACAD_XDICTIONARY
360
595
102
}
102
{ACAD_REACTORS
330
428
102
}
330
428
100
AcDbVisualStyle
  2
GouraudWithEdges
 70
     3
 71
     2
 72
     2
 73
     1
 90
        2
 40
-0.6
 41
30.0
 62
     5
 63
     7
 74
     1
 91
        4
 64
     7
 65
   257
 75
     1
175
     1
 42
1.0
 92
        0
 66
   257
 43
1.0
 76
     1
 77
     6
 78
     2
 67
     7
 79
     5
170
     0
171
     0
290
     0
174
     0
 93
       13
 44
0.0
173
     0
291
     1
 45
0.0
1001
ACAD
1000
AcDbSavedByObjectVersion
1070
     0
  0
VISUALSTYLE
  5
439
102
{ACAD_XDICTIONARY
360
5AF
102
}
102
{ACAD_REACTORS
330
428
102
}
330
428
100
AcDbVisualStyle
  2
JitterOff
 70
    20
 71
     2
 72
     2
 73
     0
 90
        0
 40
-0.6
 41
-30.0
 62
     5
 63
     7
 74
     1
 91
        4
 64
     7
 65
   257
 75
     1
175
     1
 42
1.0
 92
       10
 66
     7
 43
1.0
 76
     1
 77
     6
 78
     2
 67
     7
 79
     5
170
     0
171
     0
290
     0
174
     0
 93
        1
 44
0.0
173
     0
291
     1
 45
0.0
1001
ACAD
1000
AcDbSavedByObjectVersion
1070
     0
  0
VISUALSTYLE
  5
436
102
{ACAD_XDICTIONARY
360
5A9
102
}
102
{ACAD_REACTORS
330
428
102
}
330
428
100
AcDbVisualStyle
  2
Linepattern
 70
    14
 71
     2
 72
     2
 73
     0
 90
        0
 40
-0.6
 41
-30.0
 62
     5
 63
     7
 74
     1
 91
        4
 64
     7
 65
   257
 75
     7
175
     7
 42
1.0
 92
        8
 66
     7
 43
1.0
 76
     1
 77
     6
 78
     2
 67
     7
 79
     5
170
     0
171
     0
290
     0
174
     0
 93
        1
 44
0.0
173
     0
291
     1
 45
0.0
1001
ACAD
1000
AcDbSavedByObjectVersion
1070
     0
  0
VISUALSTYLE
  5
43A
102
{ACAD_XDICTIONARY
360
5B1
102
}
102
{ACAD_REACTORS
330
428
102
}
330
428
100
AcDbVisualStyle
  2
OverhangOff
 70
    21
 71
     2
 72
     2
 73
     0
 90
        0
 40
-0.6
 41
-30.0
 62
     5
 63
     7
 74
     1
 91
        4
 64
     7
 65
   257
 75
     1
175
     1
 42
1.0
 92
        9
 66
     7
 43
1.0
 76
     1
 77
     6
 78
     2
 67
     7
 79
     5
170
     0
171
     0
290
     0
174
     0
 93
        1
 44
0.0
173
     0
291
     1
 45
0.0
1001
ACAD
1000
AcDbSavedByObjectVersion
1070
     0
  0
VISUALSTYLE
  5
432
102
{ACAD_XDICTIONARY
360
5A1
102
}
102
{ACAD_REACTORS
330
428
102
}
330
428
100
AcDbVisualStyle
  2
Realistic
 70
     8
 71
     2
 72
     2
 73
     0
 90
        0
 40
-0.6
 41
-30.0
 62
     5
 63
     7
 74
     1
 91
        0
 64
     7
 65
   257
 75
     1
175
     1
 42
1.0
 92
        8
 66
     8
 43
1.0
 76
     1
 77
     6
 78
     2
 67
     7
 79
     5
170
     0
171
     0
290
     0
174
     0
 93
       13
 44
0.0
173
     0
291
     0
 45
0.0
1001
ACAD
1000
AcDbSavedByObjectVersion
1070
     0
  0
VISUALSTYLE
  5
435
102
{ACAD_XDICTIONARY
360
5A7
102
}
102
{ACAD_REACTORS
330
428
102
}
330
428
100
AcDbVisualStyle
  2
Thicken
 70
    13
 71
     2
 72
     2
 73
     0
 90
        0
 40
-0.6
 41
-30.0
 62
     5
 63
     7
 74
     1
 91
        4
 64
     7
 65
   257
 75
     1
175
     1
 42
1.0
 92
       12
 66
     7
 43
1.0
 76
     1
 77
     6
 78
     2
 67
     7
 79
     5
170
     0
171
     0
290
     0
174
     0
 93
        1
 44
0.0
173
     0
291
     1
 45
0.0
1001
ACAD
1000
AcDbSavedByObjectVersion
1070
     0
  0
DICTIONARYVAR
  5
57B
102
{ACAD_REACTORS
330
577
102
}
330
577
100
DictionaryVariables
280
     0
  1
1:1
  0
DICTIONARYVAR
  5
579
102
{ACAD_REACTORS
330
577
102
}
330
577
100
DictionaryVariables
280
     0
  1
STANDARD
  0
DICTIONARYVAR
  5
578
102
{ACAD_REACTORS
330
577
102
}
330
577
100
DictionaryVariables
280
     0
  1
STANDARD
  0
DICTIONARYVAR
  5
582
102
{ACAD_REACTORS
330
577
102
}
330
577
100
DictionaryVariables
280
     0
  1
2
  0
DICTIONARYVAR
  5
581
102
{ACAD_REACTORS
330
577
102
}
330
577
100
DictionaryVariables
280
     0
  1
1
  0
DICTIONARYVAR
  5
580
102
{ACAD_REACTORS
330
577
102
}
330
577
100
DictionaryVariables
280
     0
  1
0
  0
DICTIONARYVAR
  5
57D
102
{ACAD_REACTORS
330
577
102
}
330
577
100
DictionaryVariables
280
     0
  1
0
  0
DICTIONARYVAR
  5
57E
102
{ACAD_REACTORS
330
577
102
}
330
577
100
DictionaryVariables
280
     0
  1
0
  0
DICTIONARYVAR
  5
57C
102
{ACAD_REACTORS
330
577
102
}
330
577
100
DictionaryVariables
280
     0
  1
2
  0
DICTIONARYVAR
  5
57A
102
{ACAD_REACTORS
330
577
102
}
330
577
100
DictionaryVariables
280
     0
  1
1
  0
DICTIONARYVAR
  5
57F
102
{ACAD_REACTORS
330
577
102
}
330
577
100
DictionaryVariables
280
     0
  1
127
  0
DICTIONARYVAR
  5
583
102
{ACAD_REACTORS
330
577
102
}
330
577
100
DictionaryVariables
280
     0
  1
2
  0
DICTIONARY
  5
4B6
102
{ACAD_REACTORS
330
4AC
102
}
330
4AC
100
AcDbDictionary
281
     1
  0
DICTIONARY
  5
58A
330
40C
100
AcDbDictionary
280
     1
281
     1
  3
ACAD_XREC_ROUNDTRIP
360
58B
  0
DICTIONARY
  5
588
330
40B
100
AcDbDictionary
280
     1
281
     1
  3
ACAD_XREC_ROUNDTRIP
360
589
  0
DICTIONARY
  5
419
330
418
100
AcDbDictionary
280
     1
281
     1
  3
ACAD_XREC_ROUNDTRIP
360
58D
  3
BUMPTILE
360
41B
  3
DIFFUSETILE
360
41A
  3
OPACITYTILE
360
41E
  3
REFLECTIONTILE
360
41D
  3
REFRACTIONTILE
360
41F
  3
SPECULARTILE
360
41C
  0
DICTIONARY
  5
411
330
410
100
AcDbDictionary
280
     1
281
     1
  3
ACAD_XREC_ROUNDTRIP
360
58C
  3
BUMPTILE
360
413
  3
DIFFUSETILE
360
412
  3
OPACITYTILE
360
416
  3
REFLECTIONTILE
360
415
  3
REFRACTIONTILE
360
417
  3
SPECULARTILE
360
414
  0
DICTIONARY
  5
421
330
420
100
AcDbDictionary
280
     1
281
     1
  3
ACAD_XREC_ROUNDTRIP
360
58E
  3
BUMPTILE
360
423
  3
DIFFUSETILE
360
422
  3
OPACITYTILE
360
426
  3
REFLECTIONTILE
360
425
  3
REFRACTIONTILE
360
427
  3
SPECULARTILE
360
424
  0
DICTIONARY
  5
584
330
43E
100
AcDbDictionary
280
     1
281
     1
  3
ACAD_ROUNDTRIP_2008_TABLESTYLE_CELLSTYLEMAP
360
585
  3
ACAD_XREC_ROUNDTRIP
360
5B5
  0
DICTIONARY
  5
599
330
42E
100
AcDbDictionary
280
     1
281
     1
  3
ACAD_XREC_ROUNDTRIP
360
59A
  0
DICTIONARY
  5
59D
330
430
100
AcDbDictionary
280
     1
281
     1
  3
ACAD_XREC_ROUNDTRIP
360
59E
  0
DICTIONARY
  5
59B
330
42F
100
AcDbDictionary
280
     1
281
     1
  3
ACAD_XREC_ROUNDTRIP
360
59C
  0
DICTIONARY
  5
597
330
42D
100
AcDbDictionary
280
     1
281
     1
  3
ACAD_XREC_ROUNDTRIP
360
598
  0
DICTIONARY
  5
5A5
330
434
100
AcDbDictionary
280
     1
281
     1
  3
ACAD_XREC_ROUNDTRIP
360
5A6
  0
DICTIONARY
  5
5AD
330
438
100
AcDbDictionary
280
     1
281
     1
  3
ACAD_XREC_ROUNDTRIP
360
5AE
  0
DICTIONARY
  5
59F
330
431
100
AcDbDictionary
280
     1
281
     1
  3
ACAD_XREC_ROUNDTRIP
360
5A0
  0
DICTIONARY
  5
5A3
330
433
100
AcDbDictionary
280
     1
281
     1
  3
ACAD_XREC_ROUNDTRIP
360
5A4
  0
DICTIONARY
  5
5B3
330
43B
100
AcDbDictionary
280
     1
281
     1
  3
ACAD_XREC_ROUNDTRIP
360
5B4
  0
DICTIONARY
  5
5AB
330
437
100
AcDbDictionary
280
     1
281
     1
  3
ACAD_XREC_ROUNDTRIP
360
5AC
  0
DICTIONARY
  5
58F
330
429
100
AcDbDictionary
280
     1
281
     1
  3
ACAD_XREC_ROUNDTRIP
360
590
  0
DICTIONARY
  5
591
330
42A
100
AcDbDictionary
280
     1
281
     1
  3
ACAD_XREC_ROUNDTRIP
360
592
  0
DICTIONARY
  5
593
330
42B
100
AcDbDictionary
280
     1
281
     1
  3
ACAD_XREC_ROUNDTRIP
360
594
  0
DICTIONARY
  5
595
330
42C
100
AcDbDictionary
280
     1
281
     1
  3
ACAD_XREC_ROUNDTRIP
360
596
  0
DICTIONARY
  5
5AF
330
439
100
AcDbDictionary
280
     1
281
     1
  3
ACAD_XREC_ROUNDTRIP
360
5B0
  0
DICTIONARY
  5
5A9
330
436
100
AcDbDictionary
280
     1
281
     1
  3
ACAD_XREC_ROUNDTRIP
360
5AA
  0
DICTIONARY
  5
5B1
330
43A
100
AcDbDictionary
280
     1
281
     1
  3
ACAD_XREC_ROUNDTRIP
360
5B2
  0
DICTIONARY
  5
5A1
330
432
100
AcDbDictionary
280
     1
281
     1
  3
ACAD_XREC_ROUNDTRIP
360
5A2
  0
DICTIONARY
  5
5A7
330
435
100
AcDbDictionary
280
     1
281
     1
  3
ACAD_XREC_ROUNDTRIP
360
5A8
  0
XRECORD
  5
58B
102
{ACAD_REACTORS
330
58A
102
}
330
58A
100
AcDbXrecord
280
     1
102
SHADEPLOT
 70
     0
102
SHADEPLOTRESLEVEL
 70
     2
102
SHADEPLOTCUSTOMDPI
 70
   300
  0
XRECORD
  5
589
102
{ACAD_REACTORS
330
588
102
}
330
588
100
AcDbXrecord
280
     1
102
SHADEPLOT
 70
     0
102
SHADEPLOTRESLEVEL
 70
     2
102
SHADEPLOTCUSTOMDPI
 70
   300
  0
XRECORD
  5
58D
102
{ACAD_REACTORS
330
419
102
}
330
419
100
AcDbXrecord
280
     1
102
MATERIAL
148
0.0
149
0.0
149
0.0
 93
        0
 94
      127
282
     0
 72
     0
 77
     0
171
     0
175
     0
179
     0
273
     0
  0
XRECORD
  5
41B
102
{ACAD_REACTORS
330
419
102
}
330
419
100
AcDbXrecord
280
     1
270
     1
271
     1
  0
XRECORD
  5
41A
102
{ACAD_REACTORS
330
419
102
}
330
419
100
AcDbXrecord
280
     1
270
     1
271
     1
  0
XRECORD
  5
41E
102
{ACAD_REACTORS
330
419
102
}
330
419
100
AcDbXrecord
280
     1
270
     1
271
     1
  0
XRECORD
  5
41D
102
{ACAD_REACTORS
330
419
102
}
330
419
100
AcDbXrecord
280
     1
270
     1
271
     1
  0
XRECORD
  5
41F
102
{ACAD_REACTORS
330
419
102
}
330
419
100
AcDbXrecord
280
     1
270
     1
271
     1
  0
XRECORD
  5
41C
102
{ACAD_REACTORS
330
419
102
}
330
419
100
AcDbXrecord
280
     1
270
     1
271
     1
  0
XRECORD
  5
58C
102
{ACAD_REACTORS
330
411
102
}
330
411
100
AcDbXrecord
280
     1
102
MATERIAL
148
0.0
149
0.0
149
0.0
 93
        0
 94
      127
282
     0
 72
     0
 77
     0
171
     0
175
     0
179
     0
273
     0
  0
XRECORD
  5
413
102
{ACAD_REACTORS
330
411
102
}
330
411
100
AcDbXrecord
280
     1
270
     1
271
     1
  0
XRECORD
  5
412
102
{ACAD_REACTORS
330
411
102
}
330
411
100
AcDbXrecord
280
     1
270
     1
271
     1
  0
XRECORD
  5
416
102
{ACAD_REACTORS
330
411
102
}
330
411
100
AcDbXrecord
280
     1
270
     1
271
     1
  0
XRECORD
  5
415
102
{ACAD_REACTORS
330
411
102
}
330
411
100
AcDbXrecord
280
     1
270
     1
271
     1
  0
XRECORD
  5
417
102
{ACAD_REACTORS
330
411
102
}
330
411
100
AcDbXrecord
280
     1
270
     1
271
     1
  0
XRECORD
  5
414
102
{ACAD_REACTORS
330
411
102
}
330
411
100
AcDbXrecord
280
     1
270
     1
271
     1
  0
XRECORD
  5
58E
102
{ACAD_REACTORS
330
421
102
}
330
421
100
AcDbXrecord
280
     1
102
MATERIAL
148
0.0
149
0.0
149
0.0
 93
        0
 94
      127
282
     0
 72
     0
 77
     0
171
     0
175
     0
179
     0
273
     0
  0
XRECORD
  5
423
102
{ACAD_REACTORS
330
421
102
}
330
421
100
AcDbXrecord
280
     1
270
     1
271
     1
  0
XRECORD
  5
422
102
{ACAD_REACTORS
330
421
102
}
330
421
100
AcDbXrecord
280
     1
270
     1
271
     1
  0
XRECORD
  5
426
102
{ACAD_REACTORS
330
421
102
}
330
421
100
AcDbXrecord
280
     1
270
     1
271
     1
  0
XRECORD
  5
425
102
{ACAD_REACTORS
330
421
102
}
330
421
100
AcDbXrecord
280
     1
270
     1
271
     1
  0
XRECORD
  5
427
102
{ACAD_REACTORS
330
421
102
}
330
421
100
AcDbXrecord
280
     1
270
     1
271
     1
  0
XRECORD
  5
424
102
{ACAD_REACTORS
330
421
102
}
330
421
100
AcDbXrecord
280
     1
270
     1
271
     1
  0
CELLSTYLEMAP
  5
585
102
{ACAD_REACTORS
330
584
102
}
330
584
100
AcDbCellStyleMap
 90
        3
300
CELLSTYLE
  1
TABLEFORMAT_BEGIN
 90
        5
170
     1
 91
        0
 92
    32768
 62
   257
 93
        1
300
CONTENTFORMAT
  1
CONTENTFORMAT_BEGIN
 90
        0
 91
        0
 92
      512
 93
        0
300

 40
0.0
140
1.0
 94
        5
 62
     0
340
11
144
6.0
309
CONTENTFORMAT_END
171
     1
301
MARGIN
  1
CELLMARGIN_BEGIN
 40
1.5
 40
1.5
 40
1.5
 40
1.5
 40
4.5
 40
4.5
309
CELLMARGIN_END
 94
        6
 95
        1
302
GRIDFORMAT
  1
GRIDFORMAT_BEGIN
 90
        0
 91
        1
 62
     0
 92
       -2
340
0
 93
        0
 40
1.125
309
GRIDFORMAT_END
 95
        2
302
GRIDFORMAT
  1
GRIDFORMAT_BEGIN
 90
        0
 91
        1
 62
     0
 92
       -2
340
0
 93
        0
 40
1.125
309
GRIDFORMAT_END
 95
        4
302
GRIDFORMAT
  1
GRIDFORMAT_BEGIN
 90
        0
 91
        1
 62
     0
 92
       -2
340
0
 93
        0
 40
1.125
309
GRIDFORMAT_END
 95
        8
302
GRIDFORMAT
  1
GRIDFORMAT_BEGIN
 90
        0
 91
        1
 62
     0
 92
       -2
340
0
 93
        0
 40
1.125
309
GRIDFORMAT_END
 95
       16
302
GRIDFORMAT
  1
GRIDFORMAT_BEGIN
 90
        0
 91
        1
 62
     0
 92
       -2
340
0
 93
        0
 40
1.125
309
GRIDFORMAT_END
 95
       32
302
GRIDFORMAT
  1
GRIDFORMAT_BEGIN
 90
        0
 91
        1
 62
     0
 92
       -2
340
0
 93
        0
 40
1.125
309
GRIDFORMAT_END
309
TABLEFORMAT_END
  1
CELLSTYLE_BEGIN
 90
        1
 91
        1
300
_TITLE
309
CELLSTYLE_END
300
CELLSTYLE
  1
TABLEFORMAT_BEGIN
 90
        5
170
     1
 91
        0
 92
        0
 62
   257
 93
        1
300
CONTENTFORMAT
  1
CONTENTFORMAT_BEGIN
 90
        0
 91
        0
 92
      512
 93
        0
300

 40
0.0
140
1.0
 94
        5
 62
     0
340
11
144
4.5
309
CONTENTFORMAT_END
171
     1
301
MARGIN
  1
CELLMARGIN_BEGIN
 40
1.5
 40
1.5
 40
1.5
 40
1.5
 40
4.5
 40
4.5
309
CELLMARGIN_END
 94
        6
 95
        1
302
GRIDFORMAT
  1
GRIDFORMAT_BEGIN
 90
        0
 91
        1
 62
     0
 92
       -2
340
0
 93
        0
 40
1.125
309
GRIDFORMAT_END
 95
        2
302
GRIDFORMAT
  1
GRIDFORMAT_BEGIN
 90
        0
 91
        1
 62
     0
 92
       -2
340
0
 93
        0
 40
1.125
309
GRIDFORMAT_END
 95
        4
302
GRIDFORMAT
  1
GRIDFORMAT_BEGIN
 90
        0
 91
        1
 62
     0
 92
       -2
340
0
 93
        0
 40
1.125
309
GRIDFORMAT_END
 95
        8
302
GRIDFORMAT
  1
GRIDFORMAT_BEGIN
 90
        0
 91
        1
 62
     0
 92
       -2
340
0
 93
        0
 40
1.125
309
GRIDFORMAT_END
 95
       16
302
GRIDFORMAT
  1
GRIDFORMAT_BEGIN
 90
        0
 91
        1
 62
     0
 92
       -2
340
0
 93
        0
 40
1.125
309
GRIDFORMAT_END
 95
       32
302
GRIDFORMAT
  1
GRIDFORMAT_BEGIN
 90
        0
 91
        1
 62
     0
 92
       -2
340
0
 93
        0
 40
1.125
309
GRIDFORMAT_END
309
TABLEFORMAT_END
  1
CELLSTYLE_BEGIN
 90
        2
 91
        1
300
_HEADER
309
CELLSTYLE_END
300
CELLSTYLE
  1
TABLEFORMAT_BEGIN
 90
        5
170
     1
 91
        0
 92
        0
 62
   257
 93
        1
300
CONTENTFORMAT
  1
CONTENTFORMAT_BEGIN
 90
        0
 91
        0
 92
      512
 93
        0
300

 40
0.0
140
1.0
 94
        2
 62
     0
340
11
144
4.5
309
CONTENTFORMAT_END
171
     1
301
MARGIN
  1
CELLMARGIN_BEGIN
 40
1.5
 40
1.5
 40
1.5
 40
1.5
 40
4.5
 40
4.5
309
CELLMARGIN_END
 94
        6
 95
        1
302
GRIDFORMAT
  1
GRIDFORMAT_BEGIN
 90
        0
 91
        1
 62
     0
 92
       -2
340
0
 93
        0
 40
1.125
309
GRIDFORMAT_END
 95
        2
302
GRIDFORMAT
  1
GRIDFORMAT_BEGIN
 90
        0
 91
        1
 62
     0
 92
       -2
340
0
 93
        0
 40
1.125
309
GRIDFORMAT_END
 95
        4
302
GRIDFORMAT
  1
GRIDFORMAT_BEGIN
 90
        0
 91
        1
 62
     0
 92
       -2
340
0
 93
        0
 40
1.125
309
GRIDFORMAT_END
 95
        8
302
GRIDFORMAT
  1
GRIDFORMAT_BEGIN
 90
        0
 91
        1
 62
     0
 92
       -2
340
0
 93
        0
 40
1.125
309
GRIDFORMAT_END
 95
       16
302
GRIDFORMAT
  1
GRIDFORMAT_BEGIN
 90
        0
 91
        1
 62
     0
 92
       -2
340
0
 93
        0
 40
1.125
309
GRIDFORMAT_END
 95
       32
302
GRIDFORMAT
  1
GRIDFORMAT_BEGIN
 90
        0
 91
        1
 62
     0
 92
       -2
340
0
 93
        0
 40
1.125
309
GRIDFORMAT_END
309
TABLEFORMAT_END
  1
CELLSTYLE_BEGIN
 90
        3
 91
        2
300
_DATA
309
CELLSTYLE_END
  0
XRECORD
  5
5B5
102
{ACAD_REACTORS
330
584
102
}
330
584
100
AcDbXrecord
280
     1
102
ACAD_ROUNDTRIP_PRE2007_TABLESTYLE
 90
      512
 91
        0
  1

 92
      512
 93
        0
  2

 94
      512
 95
        0
  3

  0
XRECORD
  5
59A
102
{ACAD_REACTORS
330
599
102
}
330
599
100
AcDbXrecord
280
     1
102
RTVSPropertyOp0
 70
     1
102
RTVSPropertyOp1
 70
     1
102
RTVSPropertyOp2
 70
     1
102
RTVSPropertyOp3
 70
     1
102
RTVSPropertyOp4
 70
     1
102
RTVSPropertyOp5
 70
     1
102
RTVSPropertyOp6
 70
     1
102
RTVSPropertyOp7
 70
     1
102
RTVSPropertyOp8
 70
     1
102
RTVSPropertyOp9
 70
     1
102
RTVSPropertyOp10
 70
     1
102
RTVSPropertyOp11
 70
     1
102
RTVSPropertyOp12
 70
     1
102
RTVSPropertyOp13
 70
     1
102
RTVSPropertyOp14
 70
     1
102
RTVSPropertyOp15
 70
     1
102
RTVSPropertyOp16
 70
     1
102
RTVSPropertyOp17
 70
     1
102
RTVSPropertyOp18
 70
     1
102
RTVSPropertyOp19
 70
     1
102
RTVSPropertyOp20
 70
     1
102
RTVSPropertyOp21
 70
     1
102
RTVSPropertyOp22
 70
     1
102
RTVSPropertyOp23
 70
     1
102
RTVSPropertyOp24
 70
     1
102
RTVSPropertyOp25
 70
     1
102
RTVSPropertyOp26
 70
     1
102
RTVSPropertyOp27
 70
     1
  0
XRECORD
  5
59E
102
{ACAD_REACTORS
330
59D
102
}
330
59D
100
AcDbXrecord
280
     1
102
RTVSPropertyOp0
 70
     1
102
RTVSPropertyOp1
 70
     1
102
RTVSPropertyOp2
 70
     1
102
RTVSPropertyOp3
 70
     1
102
RTVSPropertyOp4
 70
     1
102
RTVSPropertyOp5
 70
     1
102
RTVSPropertyOp6
 70
     1
102
RTVSPropertyOp7
 70
     1
102
RTVSPropertyOp8
 70
     1
102
RTVSPropertyOp9
 70
     1
102
RTVSPropertyOp10
 70
     1
102
RTVSPropertyOp11
 70
     1
102
RTVSPropertyOp12
 70
     1
102
RTVSPropertyOp13
 70
     1
102
RTVSPropertyOp14
 70
     1
102
RTVSPropertyOp15
 70
     1
102
RTVSPropertyOp16
 70
     1
102
RTVSPropertyOp17
 70
     1
102
RTVSPropertyOp18
 70
     1
102
RTVSPropertyOp19
 70
     1
102
RTVSPropertyOp20
 70
     1
102
RTVSPropertyOp21
 70
     1
102
RTVSPropertyOp22
 70
     1
102
RTVSPropertyOp23
 70
     1
102
RTVSPropertyOp24
 70
     1
102
RTVSPropertyOp25
 70
     1
102
RTVSPropertyOp26
 70
     1
102
RTVSPropertyOp27
 70
     1
  0
XRECORD
  5
59C
102
{ACAD_REACTORS
330
59B
102
}
330
59B
100
AcDbXrecord
280
     1
102
RTVSPropertyOp0
 70
     1
102
RTVSPropertyOp1
 70
     1
102
RTVSPropertyOp2
 70
     1
102
RTVSPropertyOp3
 70
     1
102
RTVSPropertyOp4
 70
     1
102
RTVSPropertyOp5
 70
     1
102
RTVSPropertyOp6
 70
     1
102
RTVSPropertyOp7
 70
     1
102
RTVSPropertyOp8
 70
     1
102
RTVSPropertyOp9
 70
     1
102
RTVSPropertyOp10
 70
     1
102
RTVSPropertyOp11
 70
     1
102
RTVSPropertyOp12
 70
     1
102
RTVSPropertyOp13
 70
     1
102
RTVSPropertyOp14
 70
     1
102
RTVSPropertyOp15
 70
     1
102
RTVSPropertyOp16
 70
     1
102
RTVSPropertyOp17
 70
     1
102
RTVSPropertyOp18
 70
     1
102
RTVSPropertyOp19
 70
     1
102
RTVSPropertyOp20
 70
     1
102
RTVSPropertyOp21
 70
     1
102
RTVSPropertyOp22
 70
     1
102
RTVSPropertyOp23
 70
     1
102
RTVSPropertyOp24
 70
     1
102
RTVSPropertyOp25
 70
     1
102
RTVSPropertyOp26
 70
     1
102
RTVSPropertyOp27
 70
     1
  0
XRECORD
  5
598
102
{ACAD_REACTORS
330
597
102
}
330
597
100
AcDbXrecord
280
     1
102
RTVSPropertyOp0
 70
     1
102
RTVSPropertyOp1
 70
     1
102
RTVSPropertyOp2
 70
     1
102
RTVSPropertyOp3
 70
     1
102
RTVSPropertyOp4
 70
     1
102
RTVSPropertyOp5
 70
     1
102
RTVSPropertyOp6
 70
     1
102
RTVSPropertyOp7
 70
     1
102
RTVSPropertyOp8
 70
     1
102
RTVSPropertyOp9
 70
     1
102
RTVSPropertyOp10
 70
     1
102
RTVSPropertyOp11
 70
     1
102
RTVSPropertyOp12
 70
     1
102
RTVSPropertyOp13
 70
     1
102
RTVSPropertyOp14
 70
     1
102
RTVSPropertyOp15
 70
     1
102
RTVSPropertyOp16
 70
     1
102
RTVSPropertyOp17
 70
     1
102
RTVSPropertyOp18
 70
     1
102
RTVSPropertyOp19
 70
     1
102
RTVSPropertyOp20
 70
     1
102
RTVSPropertyOp21
 70
     1
102
RTVSPropertyOp22
 70
     1
102
RTVSPropertyOp23
 70
     1
102
RTVSPropertyOp24
 70
     1
102
RTVSPropertyOp25
 70
     1
102
RTVSPropertyOp26
 70
     1
102
RTVSPropertyOp27
 70
     1
  0
XRECORD
  5
5A6
102
{ACAD_REACTORS
330
5A5
102
}
330
5A5
100
AcDbXrecord
280
     1
102
RTVSPropertyOp0
 70
     1
102
RTVSPropertyOp1
 70
     1
102
RTVSPropertyOp2
 70
     1
102
RTVSPropertyOp3
 70
     1
102
RTVSPropertyOp4
 70
     1
102
RTVSPropertyOp5
 70
     1
102
RTVSPropertyOp6
 70
     1
102
RTVSPropertyOp7
 70
     1
102
RTVSPropertyOp8
 70
     1
102
RTVSPropertyOp9
 70
     1
102
RTVSPropertyOp10
 70
     1
102
RTVSPropertyOp11
 70
     1
102
RTVSPropertyOp12
 70
     1
102
RTVSPropertyOp13
 70
     1
102
RTVSPropertyOp14
 70
     1
102
RTVSPropertyOp15
 70
     1
102
RTVSPropertyOp16
 70
     1
102
RTVSPropertyOp17
 70
     1
102
RTVSPropertyOp18
 70
     1
102
RTVSPropertyOp19
 70
     1
102
RTVSPropertyOp20
 70
     1
102
RTVSPropertyOp21
 70
     1
102
RTVSPropertyOp22
 70
     1
102
RTVSPropertyOp23
 70
     1
102
RTVSPropertyOp24
 70
     1
102
RTVSPropertyOp25
 70
     1
102
RTVSPropertyOp26
 70
     1
102
RTVSPropertyOp27
 70
     1
  0
XRECORD
  5
5AE
102
{ACAD_REACTORS
330
5AD
102
}
330
5AD
100
AcDbXrecord
280
     1
102
RTVSPropertyOp0
 70
     1
102
RTVSPropertyOp1
 70
     1
102
RTVSPropertyOp2
 70
     1
102
RTVSPropertyOp3
 70
     1
102
RTVSPropertyOp4
 70
     1
102
RTVSPropertyOp5
 70
     1
102
RTVSPropertyOp6
 70
     1
102
RTVSPropertyOp7
 70
     1
102
RTVSPropertyOp8
 70
     1
102
RTVSPropertyOp9
 70
     1
102
RTVSPropertyOp10
 70
     1
102
RTVSPropertyOp11
 70
     1
102
RTVSPropertyOp12
 70
     1
102
RTVSPropertyOp13
 70
     1
102
RTVSPropertyOp14
 70
     1
102
RTVSPropertyOp15
 70
     1
102
RTVSPropertyOp16
 70
     1
102
RTVSPropertyOp17
 70
     1
102
RTVSPropertyOp18
 70
     1
102
RTVSPropertyOp19
 70
     1
102
RTVSPropertyOp20
 70
     1
102
RTVSPropertyOp21
 70
     1
102
RTVSPropertyOp22
 70
     1
102
RTVSPropertyOp23
 70
     1
102
RTVSPropertyOp24
 70
     1
102
RTVSPropertyOp25
 70
     1
102
RTVSPropertyOp26
 70
     1
102
RTVSPropertyOp27
 70
     1
  0
XRECORD
  5
5A0
102
{ACAD_REACTORS
330
59F
102
}
330
59F
100
AcDbXrecord
280
     1
102
RTVSPropertyOp0
 70
     1
102
RTVSPropertyOp1
 70
     1
102
RTVSPropertyOp2
 70
     1
102
RTVSPropertyOp3
 70
     1
102
RTVSPropertyOp4
 70
     1
102
RTVSPropertyOp5
 70
     1
102
RTVSPropertyOp6
 70
     1
102
RTVSPropertyOp7
 70
     1
102
RTVSPropertyOp8
 70
     1
102
RTVSPropertyOp9
 70
     1
102
RTVSPropertyOp10
 70
     1
102
RTVSPropertyOp11
 70
     1
102
RTVSPropertyOp12
 70
     1
102
RTVSPropertyOp13
 70
     1
102
RTVSPropertyOp14
 70
     1
102
RTVSPropertyOp15
 70
     1
102
RTVSPropertyOp16
 70
     1
102
RTVSPropertyOp17
 70
     1
102
RTVSPropertyOp18
 70
     1
102
RTVSPropertyOp19
 70
     1
102
RTVSPropertyOp20
 70
     1
102
RTVSPropertyOp21
 70
     1
102
RTVSPropertyOp22
 70
     1
102
RTVSPropertyOp23
 70
     1
102
RTVSPropertyOp24
 70
     1
102
RTVSPropertyOp25
 70
     1
102
RTVSPropertyOp26
 70
     1
102
RTVSPropertyOp27
 70
     1
  0
XRECORD
  5
5A4
102
{ACAD_REACTORS
330
5A3
102
}
330
5A3
100
AcDbXrecord
280
     1
102
RTVSPropertyOp0
 70
     1
102
RTVSPropertyOp1
 70
     1
102
RTVSPropertyOp2
 70
     1
102
RTVSPropertyOp3
 70
     1
102
RTVSPropertyOp4
 70
     1
102
RTVSPropertyOp5
 70
     1
102
RTVSPropertyOp6
 70
     1
102
RTVSPropertyOp7
 70
     1
102
RTVSPropertyOp8
 70
     1
102
RTVSPropertyOp9
 70
     1
102
RTVSPropertyOp10
 70
     1
102
RTVSPropertyOp11
 70
     1
102
RTVSPropertyOp12
 70
     1
102
RTVSPropertyOp13
 70
     1
102
RTVSPropertyOp14
 70
     1
102
RTVSPropertyOp15
 70
     1
102
RTVSPropertyOp16
 70
     1
102
RTVSPropertyOp17
 70
     1
102
RTVSPropertyOp18
 70
     1
102
RTVSPropertyOp19
 70
     1
102
RTVSPropertyOp20
 70
     1
102
RTVSPropertyOp21
 70
     1
102
RTVSPropertyOp22
 70
     1
102
RTVSPropertyOp23
 70
     1
102
RTVSPropertyOp24
 70
     1
102
RTVSPropertyOp25
 70
     1
102
RTVSPropertyOp26
 70
     1
102
RTVSPropertyOp27
 70
     1
  0
XRECORD
  5
5B4
102
{ACAD_REACTORS
330
5B3
102
}
330
5B3
100
AcDbXrecord
280
     1
102
RTVSPropertyOp0
 70
     0
102
RTVSPropertyOp1
 70
     0
102
RTVSPropertyOp2
 70
     0
102
RTVSPropertyOp3
 70
     0
102
RTVSPropertyOp4
 70
     0
102
RTVSPropertyOp5
 70
     0
102
RTVSPropertyOp6
 70
     0
102
RTVSPropertyOp7
 70
     0
102
RTVSPropertyOp8
 70
     0
102
RTVSPropertyOp9
 70
     0
102
RTVSPropertyOp10
 70
     0
102
RTVSPropertyOp11
 70
     0
102
RTVSPropertyOp12
 70
     0
102
RTVSPropertyOp13
 70
     0
102
RTVSPropertyOp14
 70
     2
102
RTVSPropertyOp15
 70
     0
102
RTVSPropertyOp16
 70
     0
102
RTVSPropertyOp17
 70
     0
102
RTVSPropertyOp18
 70
     0
102
RTVSPropertyOp19
 70
     0
102
RTVSPropertyOp20
 70
     0
102
RTVSPropertyOp21
 70
     0
102
RTVSPropertyOp22
 70
     0
102
RTVSPropertyOp23
 70
     0
102
RTVSPropertyOp24
 70
     0
102
RTVSPropertyOp25
 70
     0
102
RTVSPropertyOp26
 70
     0
102
RTVSPropertyOp27
 70
     0
  0
XRECORD
  5
5AC
102
{ACAD_REACTORS
330
5AB
102
}
330
5AB
100
AcDbXrecord
280
     1
102
RTVSPropertyOp0
 70
     1
102
RTVSPropertyOp1
 70
     1
102
RTVSPropertyOp2
 70
     1
102
RTVSPropertyOp3
 70
     1
102
RTVSPropertyOp4
 70
     1
102
RTVSPropertyOp5
 70
     1
102
RTVSPropertyOp6
 70
     1
102
RTVSPropertyOp7
 70
     1
102
RTVSPropertyOp8
 70
     1
102
RTVSPropertyOp9
 70
     1
102
RTVSPropertyOp10
 70
     1
102
RTVSPropertyOp11
 70
     1
102
RTVSPropertyOp12
 70
     1
102
RTVSPropertyOp13
 70
     1
102
RTVSPropertyOp14
 70
     1
102
RTVSPropertyOp15
 70
     1
102
RTVSPropertyOp16
 70
     1
102
RTVSPropertyOp17
 70
     1
102
RTVSPropertyOp18
 70
     1
102
RTVSPropertyOp19
 70
     1
102
RTVSPropertyOp20
 70
     1
102
RTVSPropertyOp21
 70
     1
102
RTVSPropertyOp22
 70
     1
102
RTVSPropertyOp23
 70
     1
102
RTVSPropertyOp24
 70
     1
102
RTVSPropertyOp25
 70
     1
102
RTVSPropertyOp26
 70
     1
102
RTVSPropertyOp27
 70
     1
  0
XRECORD
  5
590
102
{ACAD_REACTORS
330
58F
102
}
330
58F
100
AcDbXrecord
280
     1
102
RTVSPropertyOp0
 70
     1
102
RTVSPropertyOp1
 70
     1
102
RTVSPropertyOp2
 70
     1
102
RTVSPropertyOp3
 70
     1
102
RTVSPropertyOp4
 70
     1
102
RTVSPropertyOp5
 70
     1
102
RTVSPropertyOp6
 70
     1
102
RTVSPropertyOp7
 70
     1
102
RTVSPropertyOp8
 70
     1
102
RTVSPropertyOp9
 70
     1
102
RTVSPropertyOp10
 70
     1
102
RTVSPropertyOp11
 70
     1
102
RTVSPropertyOp12
 70
     1
102
RTVSPropertyOp13
 70
     1
102
RTVSPropertyOp14
 70
     1
102
RTVSPropertyOp15
 70
     1
102
RTVSPropertyOp16
 70
     1
102
RTVSPropertyOp17
 70
     1
102
RTVSPropertyOp18
 70
     1
102
RTVSPropertyOp19
 70
     1
102
RTVSPropertyOp20
 70
     1
102
RTVSPropertyOp21
 70
     1
102
RTVSPropertyOp22
 70
     1
102
RTVSPropertyOp23
 70
     1
102
RTVSPropertyOp24
 70
     1
102
RTVSPropertyOp25
 70
     1
102
RTVSPropertyOp26
 70
     1
102
RTVSPropertyOp27
 70
     1
  0
XRECORD
  5
592
102
{ACAD_REACTORS
330
591
102
}
330
591
100
AcDbXrecord
280
     1
102
RTVSPropertyOp0
 70
     1
102
RTVSPropertyOp1
 70
     1
102
RTVSPropertyOp2
 70
     1
102
RTVSPropertyOp3
 70
     1
102
RTVSPropertyOp4
 70
     1
102
RTVSPropertyOp5
 70
     1
102
RTVSPropertyOp6
 70
     1
102
RTVSPropertyOp7
 70
     1
102
RTVSPropertyOp8
 70
     1
102
RTVSPropertyOp9
 70
     1
102
RTVSPropertyOp10
 70
     1
102
RTVSPropertyOp11
 70
     1
102
RTVSPropertyOp12
 70
     1
102
RTVSPropertyOp13
 70
     1
102
RTVSPropertyOp14
 70
     1
102
RTVSPropertyOp15
 70
     1
102
RTVSPropertyOp16
 70
     1
102
RTVSPropertyOp17
 70
     1
102
RTVSPropertyOp18
 70
     1
102
RTVSPropertyOp19
 70
     1
102
RTVSPropertyOp20
 70
     1
102
RTVSPropertyOp21
 70
     1
102
RTVSPropertyOp22
 70
     1
102
RTVSPropertyOp23
 70
     1
102
RTVSPropertyOp24
 70
     1
102
RTVSPropertyOp25
 70
     1
102
RTVSPropertyOp26
 70
     1
102
RTVSPropertyOp27
 70
     1
  0
XRECORD
  5
594
102
{ACAD_REACTORS
330
593
102
}
330
593
100
AcDbXrecord
280
     1
102
RTVSPropertyOp0
 70
     1
102
RTVSPropertyOp1
 70
     1
102
RTVSPropertyOp2
 70
     1
102
RTVSPropertyOp3
 70
     1
102
RTVSPropertyOp4
 70
     1
102
RTVSPropertyOp5
 70
     1
102
RTVSPropertyOp6
 70
     1
102
RTVSPropertyOp7
 70
     1
102
RTVSPropertyOp8
 70
     1
102
RTVSPropertyOp9
 70
     1
102
RTVSPropertyOp10
 70
     1
102
RTVSPropertyOp11
 70
     1
102
RTVSPropertyOp12
 70
     1
102
RTVSPropertyOp13
 70
     1
102
RTVSPropertyOp14
 70
     1
102
RTVSPropertyOp15
 70
     1
102
RTVSPropertyOp16
 70
     1
102
RTVSPropertyOp17
 70
     1
102
RTVSPropertyOp18
 70
     1
102
RTVSPropertyOp19
 70
     1
102
RTVSPropertyOp20
 70
     1
102
RTVSPropertyOp21
 70
     1
102
RTVSPropertyOp22
 70
     1
102
RTVSPropertyOp23
 70
     1
102
RTVSPropertyOp24
 70
     1
102
RTVSPropertyOp25
 70
     1
102
RTVSPropertyOp26
 70
     1
102
RTVSPropertyOp27
 70
     1
  0
XRECORD
  5
596
102
{ACAD_REACTORS
330
595
102
}
330
595
100
AcDbXrecord
280
     1
102
RTVSPropertyOp0
 70
     1
102
RTVSPropertyOp1
 70
     1
102
RTVSPropertyOp2
 70
     1
102
RTVSPropertyOp3
 70
     1
102
RTVSPropertyOp4
 70
     1
102
RTVSPropertyOp5
 70
     1
102
RTVSPropertyOp6
 70
     1
102
RTVSPropertyOp7
 70
     1
102
RTVSPropertyOp8
 70
     1
102
RTVSPropertyOp9
 70
     1
102
RTVSPropertyOp10
 70
     1
102
RTVSPropertyOp11
 70
     1
102
RTVSPropertyOp12
 70
     1
102
RTVSPropertyOp13
 70
     1
102
RTVSPropertyOp14
 70
     1
102
RTVSPropertyOp15
 70
     1
102
RTVSPropertyOp16
 70
     1
102
RTVSPropertyOp17
 70
     1
102
RTVSPropertyOp18
 70
     1
102
RTVSPropertyOp19
 70
     1
102
RTVSPropertyOp20
 70
     1
102
RTVSPropertyOp21
 70
     1
102
RTVSPropertyOp22
 70
     1
102
RTVSPropertyOp23
 70
     1
102
RTVSPropertyOp24
 70
     1
102
RTVSPropertyOp25
 70
     1
102
RTVSPropertyOp26
 70
     1
102
RTVSPropertyOp27
 70
     1
  0
XRECORD
  5
5B0
102
{ACAD_REACTORS
330
5AF
102
}
330
5AF
100
AcDbXrecord
280
     1
102
RTVSPropertyOp0
 70
     0
102
RTVSPropertyOp1
 70
     0
102
RTVSPropertyOp2
 70
     0
102
RTVSPropertyOp3
 70
     0
102
RTVSPropertyOp4
 70
     0
102
RTVSPropertyOp5
 70
     0
102
RTVSPropertyOp6
 70
     0
102
RTVSPropertyOp7
 70
     0
102
RTVSPropertyOp8
 70
     0
102
RTVSPropertyOp9
 70
     0
102
RTVSPropertyOp10
 70
     0
102
RTVSPropertyOp11
 70
     0
102
RTVSPropertyOp12
 70
     0
102
RTVSPropertyOp13
 70
     0
102
RTVSPropertyOp14
 70
     2
102
RTVSPropertyOp15
 70
     0
102
RTVSPropertyOp16
 70
     0
102
RTVSPropertyOp17
 70
     0
102
RTVSPropertyOp18
 70
     0
102
RTVSPropertyOp19
 70
     0
102
RTVSPropertyOp20
 70
     0
102
RTVSPropertyOp21
 70
     0
102
RTVSPropertyOp22
 70
     0
102
RTVSPropertyOp23
 70
     0
102
RTVSPropertyOp24
 70
     0
102
RTVSPropertyOp25
 70
     0
102
RTVSPropertyOp26
 70
     0
102
RTVSPropertyOp27
 70
     0
  0
XRECORD
  5
5AA
102
{ACAD_REACTORS
330
5A9
102
}
330
5A9
100
AcDbXrecord
280
     1
102
RTVSPropertyOp0
 70
     1
102
RTVSPropertyOp1
 70
     1
102
RTVSPropertyOp2
 70
     1
102
RTVSPropertyOp3
 70
     1
102
RTVSPropertyOp4
 70
     1
102
RTVSPropertyOp5
 70
     1
102
RTVSPropertyOp6
 70
     1
102
RTVSPropertyOp7
 70
     1
102
RTVSPropertyOp8
 70
     1
102
RTVSPropertyOp9
 70
     1
102
RTVSPropertyOp10
 70
     1
102
RTVSPropertyOp11
 70
     1
102
RTVSPropertyOp12
 70
     1
102
RTVSPropertyOp13
 70
     1
102
RTVSPropertyOp14
 70
     1
102
RTVSPropertyOp15
 70
     1
102
RTVSPropertyOp16
 70
     1
102
RTVSPropertyOp17
 70
     1
102
RTVSPropertyOp18
 70
     1
102
RTVSPropertyOp19
 70
     1
102
RTVSPropertyOp20
 70
     1
102
RTVSPropertyOp21
 70
     1
102
RTVSPropertyOp22
 70
     1
102
RTVSPropertyOp23
 70
     1
102
RTVSPropertyOp24
 70
     1
102
RTVSPropertyOp25
 70
     1
102
RTVSPropertyOp26
 70
     1
102
RTVSPropertyOp27
 70
     1
  0
XRECORD
  5
5B2
102
{ACAD_REACTORS
330
5B1
102
}
330
5B1
100
AcDbXrecord
280
     1
102
RTVSPropertyOp0
 70
     0
102
RTVSPropertyOp1
 70
     0
102
RTVSPropertyOp2
 70
     0
102
RTVSPropertyOp3
 70
     0
102
RTVSPropertyOp4
 70
     0
102
RTVSPropertyOp5
 70
     0
102
RTVSPropertyOp6
 70
     0
102
RTVSPropertyOp7
 70
     0
102
RTVSPropertyOp8
 70
     0
102
RTVSPropertyOp9
 70
     0
102
RTVSPropertyOp10
 70
     0
102
RTVSPropertyOp11
 70
     0
102
RTVSPropertyOp12
 70
     0
102
RTVSPropertyOp13
 70
     0
102
RTVSPropertyOp14
 70
     2
102
RTVSPropertyOp15
 70
     0
102
RTVSPropertyOp16
 70
     0
102
RTVSPropertyOp17
 70
     0
102
RTVSPropertyOp18
 70
     0
102
RTVSPropertyOp19
 70
     0
102
RTVSPropertyOp20
 70
     0
102
RTVSPropertyOp21
 70
     0
102
RTVSPropertyOp22
 70
     0
102
RTVSPropertyOp23
 70
     0
102
RTVSPropertyOp24
 70
     0
102
RTVSPropertyOp25
 70
     0
102
RTVSPropertyOp26
 70
     0
102
RTVSPropertyOp27
 70
     0
  0
XRECORD
  5
5A2
102
{ACAD_REACTORS
330
5A1
102
}
330
5A1
100
AcDbXrecord
280
     1
102
RTVSPropertyOp0
 70
     1
102
RTVSPropertyOp1
 70
     1
102
RTVSPropertyOp2
 70
     1
102
RTVSPropertyOp3
 70
     1
102
RTVSPropertyOp4
 70
     1
102
RTVSPropertyOp5
 70
     1
102
RTVSPropertyOp6
 70
     1
102
RTVSPropertyOp7
 70
     1
102
RTVSPropertyOp8
 70
     1
102
RTVSPropertyOp9
 70
     1
102
RTVSPropertyOp10
 70
     1
102
RTVSPropertyOp11
 70
     1
102
RTVSPropertyOp12
 70
     1
102
RTVSPropertyOp13
 70
     1
102
RTVSPropertyOp14
 70
     1
102
RTVSPropertyOp15
 70
     1
102
RTVSPropertyOp16
 70
     1
102
RTVSPropertyOp17
 70
     1
102
RTVSPropertyOp18
 70
     1
102
RTVSPropertyOp19
 70
     1
102
RTVSPropertyOp20
 70
     1
102
RTVSPropertyOp21
 70
     1
102
RTVSPropertyOp22
 70
     1
102
RTVSPropertyOp23
 70
     1
102
RTVSPropertyOp24
 70
     1
102
RTVSPropertyOp25
 70
     1
102
RTVSPropertyOp26
 70
     1
102
RTVSPropertyOp27
 70
     1
  0
XRECORD
  5
5A8
102
{ACAD_REACTORS
330
5A7
102
}
330
5A7
100
AcDbXrecord
280
     1
102
RTVSPropertyOp0
 70
     1
102
RTVSPropertyOp1
 70
     1
102
RTVSPropertyOp2
 70
     1
102
RTVSPropertyOp3
 70
     1
102
RTVSPropertyOp4
 70
     1
102
RTVSPropertyOp5
 70
     1
102
RTVSPropertyOp6
 70
     1
102
RTVSPropertyOp7
 70
     1
102
RTVSPropertyOp8
 70
     1
102
RTVSPropertyOp9
 70
     1
102
RTVSPropertyOp10
 70
     1
102
RTVSPropertyOp11
 70
     1
102
RTVSPropertyOp12
 70
     1
102
RTVSPropertyOp13
 70
     1
102
RTVSPropertyOp14
 70
     1
102
RTVSPropertyOp15
 70
     1
102
RTVSPropertyOp16
 70
     1
102
RTVSPropertyOp17
 70
     1
102
RTVSPropertyOp18
 70
     1
102
RTVSPropertyOp19
 70
     1
102
RTVSPropertyOp20
 70
     1
102
RTVSPropertyOp21
 70
     1
102
RTVSPropertyOp22
 70
     1
102
RTVSPropertyOp23
 70
     1
102
RTVSPropertyOp24
 70
     1
102
RTVSPropertyOp25
 70
     1
102
RTVSPropertyOp26
 70
     1
102
RTVSPropertyOp27
 70
     1
  0
ENDSEC
  0
EOF
