  0
SECTION
  2
HEADER
  9
$ACADVER
  1
AC1018
  9
$ACADMAINTVER
 70
   104
  9
$DWGCODEPAGE
  3
ANSI_1252
  9
$LASTSAVEDBY
  1
kbaersch
  9
$INSBASE
 10
0.0
 20
0.0
 30
0.0
  9
$EXTMIN
 10
22.59559021259842
 20
64.90488480200326
 30
0.0
  9
$EXTMAX
 10
828.470022999701
 20
552.1100629999998
 30
0.0
  9
$LIMMIN
 10
0.0
 20
0.0
  9
$LIMMAX
 10
420.0
 20
297.0
  9
$ORTHOMODE
 70
     0
  9
$REGENMODE
 70
     1
  9
$FILLMODE
 70
     1
  9
$QTEXTMODE
 70
     0
  9
$MIRRTEXT
 70
     1
  9
$LTSCALE
 40
5.0
  9
$ATTMODE
 70
     1
  9
$TEXTSIZE
 40
22.103781
  9
$TRACEWID
 40
1.0
  9
$TEXTSTYLE
  7
STANDARD
  9
$CLAYER
  8
0
  9
$CELTYPE
  6
BYLAYER
  9
$CECOLOR
 62
   256
  9
$CELTSCALE
 40
1.0
  9
$DISPSILH
 70
     0
  9
$DIMSCALE
 40
4.5
  9
$DIMASZ
 40
2.5
  9
$DIMEXO
 40
1.0
  9
$DIMDLI
 40
7.0
  9
$DIMRND
 40
0.0
  9
$DIMDLE
 40
0.0
  9
$DIMEXE
 40
1.0
  9
$DIMTP
 40
0.1
  9
$DIMTM
 40
0.1
  9
$DIMTXT
 40
3.5
  9
$DIMCEN
 40
0.0
  9
$DIMTSZ
 40
0.0
  9
$DIMTOL
 70
     0
  9
$DIMLIM
 70
     0
  9
$DIMTIH
 70
     0
  9
$DIMTOH
 70
     0
  9
$DIMSE1
 70
     0
  9
$DIMSE2
 70
     0
  9
$DIMTAD
 70
     1
  9
$DIMZIN
 70
     8
  9
$DIMBLK
  1

  9
$DIMASO
 70
     1
  9
$DIMSHO
 70
     1
  9
$DIMPOST
  1
<>
  9
$DIMAPOST
  1

  9
$DIMALT
 70
     0
  9
$DIMALTD
 70
     2
  9
$DIMALTF
 40
0.03937
  9
$DIMLFAC
 40
1.0
  9
$DIMTOFL
 70
     1
  9
$DIMTVP
 40
0.0
  9
$DIMTIX
 70
     0
  9
$DIMSOXD
 70
     0
  9
$DIMSAH
 70
     0
  9
$DIMBLK1
  1

  9
$DIMBLK2
  1

  9
$DIMSTYLE
  2
GEN-ISO
  9
$DIMCLRD
 70
   256
  9
$DIMCLRE
 70
   256
  9
$DIMCLRT
 70
     2
  9
$DIMTFAC
 40
0.71
  9
$DIMGAP
 40
0.6
  9
$DIMJUST
 70
     0
  9
$DIMSD1
 70
     0
  9
$DIMSD2
 70
     0
  9
$DIMTOLJ
 70
     1
  9
$DIMTZIN
 70
     8
  9
$DIMALTZ
 70
     8
  9
$DIMALTTZ
 70
     8
  9
$DIMUPT
 70
     0
  9
$DIMDEC
 70
     2
  9
$DIMTDEC
 70
     2
  9
$DIMALTU
 70
     2
  9
$DIMALTTD
 70
     2
  9
$DIMTXSTY
  7
STANDARD
  9
$DIMAUNIT
 70
     0
  9
$DIMADEC
 70
     0
  9
$DIMALTRND
 40
0.0
  9
$DIMAZIN
 70
     0
  9
$DIMDSEP
 70
    46
  9
$DIMATFIT
 70
     3
  9
$DIMFRAC
 70
     0
  9
$DIMLDRBLK
  1

  9
$DIMLUNIT
 70
     2
  9
$DIMLWD
 70
    -2
  9
$DIMLWE
 70
    -2
  9
$DIMTMOVE
 70
     0
  9
$LUNITS
 70
     2
  9
$LUPREC
 70
     2
  9
$SKETCHINC
 40
1.0
  9
$FILLETRAD
 40
15.0
  9
$AUNITS
 70
     0
  9
$AUPREC
 70
     0
  9
$MENU
  1
D:\GENIUS\genius
  9
$ELEVATION
 40
0.0
  9
$PELEVATION
 40
0.0
  9
$THICKNESS
 40
0.0
  9
$LIMCHECK
 70
     0
  9
$CHAMFERA
 40
2.5
  9
$CHAMFERB
 40
2.5
  9
$CHAMFERC
 40
0.0
  9
$CHAMFERD
 40
0.0
  9
$SKPOLY
 70
     0
  9
$TDCREATE
 40
2450400.619070833
  9
$TDUCREATE
 40
2450400.535737500
  9
$TDUPDATE
 40
2456177.662008634
  9
$TDUUPDATE
 40
2456177.578675301
  9
$TDINDWG
 40
0.1616491551
  9
$TDUSRTIMER
 40
0.1616491551
  9
$USRTIMER
 70
     1
  9
$ANGBASE
 50
0.0
  9
$ANGDIR
 70
     0
  9
$PDMODE
 70
     0
  9
$PDSIZE
 40
0.0
  9
$PLINEWID
 40
0.0
  9
$SPLFRAME
 70
     0
  9
$SPLINETYPE
 70
     6
  9
$SPLINESEGS
 70
     8
  9
$HANDSEED
  5
1D9E
  9
$SURFTAB1
 70
     6
  9
$SURFTAB2
 70
     6
  9
$SURFTYPE
 70
     6
  9
$SURFU
 70
     6
  9
$SURFV
 70
     6
  9
$UCSBASE
  2

  9
$UCSNAME
  2

  9
$UCSORG
 10
0.0
 20
0.0
 30
0.0
  9
$UCSXDIR
 10
1.0
 20
0.0
 30
0.0
  9
$UCSYDIR
 10
0.0
 20
1.0
 30
0.0
  9
$UCSORTHOREF
  2

  9
$UCSORTHOVIEW
 70
     0
  9
$UCSORGTOP
 10
0.0
 20
0.0
 30
0.0
  9
$UCSORGBOTTOM
 10
0.0
 20
0.0
 30
0.0
  9
$UCSORGLEFT
 10
0.0
 20
0.0
 30
0.0
  9
$UCSORGRIGHT
 10
0.0
 20
0.0
 30
0.0
  9
$UCSORGFRONT
 10
0.0
 20
0.0
 30
0.0
  9
$UCSORGBACK
 10
0.0
 20
0.0
 30
0.0
  9
$PUCSBASE
  2

  9
$PUCSNAME
  2

  9
$PUCSORG
 10
0.0
 20
0.0
 30
0.0
  9
$PUCSXDIR
 10
1.0
 20
0.0
 30
0.0
  9
$PUCSYDIR
 10
0.0
 20
1.0
 30
0.0
  9
$PUCSORTHOREF
  2

  9
$PUCSORTHOVIEW
 70
     0
  9
$PUCSORGTOP
 10
0.0
 20
0.0
 30
0.0
  9
$PUCSORGBOTTOM
 10
0.0
 20
0.0
 30
0.0
  9
$PUCSORGLEFT
 10
0.0
 20
0.0
 30
0.0
  9
$PUCSORGRIGHT
 10
0.0
 20
0.0
 30
0.0
  9
$PUCSORGFRONT
 10
0.0
 20
0.0
 30
0.0
  9
$PUCSORGBACK
 10
0.0
 20
0.0
 30
0.0
  9
$USERI1
 70
     0
  9
$USERI2
 70
     0
  9
$USERI3
 70
     0
  9
$USERI4
 70
     0
  9
$USERI5
 70
     0
  9
$USERR1
 40
0.0
  9
$USERR2
 40
0.0
  9
$USERR3
 40
0.0
  9
$USERR4
 40
0.0
  9
$USERR5
 40
0.0
  9
$WORLDVIEW
 70
     1
  9
$SHADEDGE
 70
     3
  9
$SHADEDIF
 70
    70
  9
$TILEMODE
 70
     1
  9
$MAXACTVP
 70
    16
  9
$PINSBASE
 10
0.0
 20
0.0
 30
0.0
  9
$PLIMCHECK
 70
     0
  9
$PEXTMIN
 10
1.000000000000000E+20
 20
1.000000000000000E+20
 30
1.000000000000000E+20
  9
$PEXTMAX
 10
-1.000000000000000E+20
 20
-1.000000000000000E+20
 30
-1.000000000000000E+20
  9
$PLIMMIN
 10
0.0
 20
0.0
  9
$PLIMMAX
 10
420.0
 20
297.0
  9
$UNITMODE
 70
     0
  9
$VISRETAIN
 70
     0
  9
$PLINEGEN
 70
     0
  9
$PSLTSCALE
 70
     1
  9
$TREEDEPTH
 70
  3020
  9
$CMLSTYLE
  2
STANDARD
  9
$CMLJUST
 70
     0
  9
$CMLSCALE
 40
1.0
  9
$PROXYGRAPHICS
 70
     1
  9
$MEASUREMENT
 70
     1
  9
$CELWEIGHT
370
    -1
  9
$ENDCAPS
280
     0
  9
$JOINSTYLE
280
     0
  9
$LWDISPLAY
290
     0
  9
$INSUNITS
 70
     0
  9
$HYPERLINKBASE
  1

  9
$STYLESHEET
  1

  9
$XEDIT
290
     1
  9
$CEPSNTYPE
380
     0
  9
$PSTYLEMODE
290
     1
  9
$FINGERPRINTGUID
  2
{FE75E0AA-CBD0-40B5-903A-D203B04EAF00}
  9
$VERSIONGUID
  2
{13D657A4-89B6-4592-89DD-E84C24628590}
  9
$EXTNAMES
290
     1
  9
$PSVPSCALE
 40
0.0
  9
$OLESTARTUP
290
     0
  9
$SORTENTS
280
   127
  9
$INDEXCTL
280
     0
  9
$HIDETEXT
280
     0
  9
$XCLIPFRAME
290
     0
  9
$HALOGAP
280
     0
  9
$OBSCOLOR
 70
   257
  9
$OBSLTYPE
280
     0
  9
$INTERSECTIONDISPLAY
280
     0
  9
$INTERSECTIONCOLOR
 70
   257
  9
$DIMASSOC
280
     1
  9
$PROJECTNAME
  1

  0
ENDSEC
  0
SECTION
  2
CLASSES
  0
CLASS
  1
DICTIONARYVAR
  2
AcDbDictionaryVar
  3
ObjectDBX Classes
 90
        0
 91
       10
280
     0
281
     0
  0
CLASS
  1
ACDBDICTIONARYWDFLT
  2
AcDbDictionaryWithDefault
  3
ObjectDBX Classes
 90
        0
 91
        1
280
     0
281
     0
  0
CLASS
  1
TABLESTYLE
  2
AcDbTableStyle
  3
ObjectDBX Classes
 90
     4095
 91
        1
280
     0
281
     0
  0
CLASS
  1
AMGSETTINGSOBJ
  2
AmgSettingsObj
  3
"AcadM|Product Description: AutoCAD Mechanical|Company: Autodesk, Inc."
 90
     1024
 91
        2
280
     0
281
     0
  0
CLASS
  1
ACME_DOCUMENT
  2
AcMeDbDoc
  3
AcMeServices
 90
     1024
 91
        2
280
     0
281
     0
  0
CLASS
  1
ACMESCOPE
  2
AcMeScope
  3
AcMeServices
 90
     1024
 91
        1
280
     0
281
     0
  0
CLASS
  1
ACMECOMMANDHISTORY
  2
AcMeCommandHistory
  3
AcMeServices
 90
     1024
 91
        1
280
     0
281
     0
  0
CLASS
  1
ACIMSYSVARMAN
  2
AcImSysVarManager
  3
AcMeServices
 90
     1024
 91
        5
280
     0
281
     0
  0
CLASS
  1
ACIMINTSYSVAR
  2
AcImIntSysVar
  3
AcMeServices
 90
     1024
 91
       28
280
     0
281
     0
  0
CLASS
  1
ACMEDRAWINGMAN
  2
AcMeDrawingMan
  3
AcMeServices
 90
     1024
 91
        1
280
     0
281
     0
  0
CLASS
  1
ACMEVIEW
  2
AcMeView
  3
AcMeServices
 90
     1024
 91
        1
280
     0
281
     0
  0
CLASS
  1
ACDBENTITYCACHE
  2
AcMeEntityCache
  3
AcMeServices
 90
     1024
 91
        1
280
     0
281
     0
  0
CLASS
  1
GSMANAGER
  2
AcMeGSManager
  3
AcMeServices
 90
     1024
 91
        1
280
     0
281
     0
  0
CLASS
  1
AMDTINTERNALREACTOR
  2
AmdtInternalReactor
  3
AcMeServices
 90
     1024
 91
        2
280
     0
281
     0
  0
CLASS
  1
ACMESTATEMGR
  2
AcMeStateMgr
  3
AcMeServices
 90
     1024
 91
        1
280
     0
281
     0
  0
CLASS
  1
ACGREFMASTER
  2
AcGrefMaster
  3
AcAttribServices
 90
     1024
 91
        1
280
     0
281
     0
  0
CLASS
  1
AM_DRAWING_MGR
  2
AcDmDwgMgr
  3
AcMechDwgViewMgmt
 90
     1024
 91
        1
280
     0
281
     0
  0
CLASS
  1
AM_DWG_DOCUMENT
  2
AcDmDwgDocument
  3
AcMechDwgViewMgmt
 90
     1024
 91
        1
280
     0
281
     0
  0
CLASS
  1
AM_DWG_SHEET
  2
AcDmSheet
  3
AcMechDwgViewMgmt
 90
     1024
 91
        1
280
     0
281
     0
  0
CLASS
  1
AM_VIEWDIMPARMAP
  2
AcDmViewDimParMap
  3
AcMechDwgViewMgmt
 90
     1024
 91
        1
280
     0
281
     0
  0
CLASS
  1
ACIMREALSYSVAR
  2
AcImRealSysVar
  3
AcMeServices
 90
     1024
 91
        1
280
     0
281
     0
  0
CLASS
  1
AM_DWGMGR_NAME
  2
AcDmDwgMgrName
  3
AcMechDwgViewMgmt
 90
     1024
 91
        1
280
     0
281
     0
  0
CLASS
  1
ACME_DATABASE
  2
AcMeDbDatabase
  3
AcMeServices
 90
     1024
 91
        1
280
     0
281
     0
  0
CLASS
  1
ACRFINSADJUSTERMGR
  2
AcRfInsAdjusterMgr
  3
AcMeServices
 90
     1024
 91
        1
280
     0
281
     0
  0
CLASS
  1
ACGREFACADMASTER
  2
AcGrefacadMaster
  3
AcGrefServices
 90
     1024
 91
        1
280
     0
281
     0
  0
CLASS
  1
AMDTMENUSTATEMGR
  2
AmdtMenuStateMgr
  3
McadcomServices
 90
     1024
 91
        1
280
     0
281
     0
  0
CLASS
  1
AMDTMCOMMENUSTATE
  2
AmdtMcomMenuState
  3
McadcomServices
 90
     1024
 91
        1
280
     0
281
     0
  0
CLASS
  1
AMIMASTER
  2
AmiMaster
  3
AmiServices
 90
     1024
 91
        1
280
     0
281
     0
  0
CLASS
  1
MAPIAMMOUDLE
  2
MApiAmModule
  3
MApiAmServices
 90
     1024
 91
        1
280
     0
281
     0
  0
CLASS
  1
ACIMSTRSYSVAR
  2
AcImStrSysVar
  3
AcMeServices
 90
     1024
 91
        5
280
     0
281
     0
  0
CLASS
  1
AMDTADMENUSTATE
  2
AmdtAdMenuState
  3
DesignerServices
 90
     1024
 91
        1
280
     0
281
     0
  0
CLASS
  1
ADAPPL
  2
AcAdAppl
  3
DesignerServices
 90
     1024
 91
        1
280
     0
281
     0
  0
CLASS
  1
DEPMGR
  2
AcAdDepMgr
  3
DesignerServices
 90
     1024
 91
        1
280
     0
281
     0
  0
CLASS
  1
PARAMMGR
  2
AcAdParamMgr
  3
DesignerServices
 90
     1024
 91
        1
280
     0
281
     0
  0
CLASS
  1
PARAMSCOPE
  2
AcAdParamScope
  3
DesignerServices
 90
     1024
 91
        1
280
     0
281
     0
  0
CLASS
  1
NAMEDAPPL
  2
AcAdNamedAppl
  3
DesignerServices
 90
     1024
 91
        1
280
     0
281
     0
  0
CLASS
  1
AMDTDMMENUSTATE
  2
AmdtDmMenuState
  3
AcMechDwgViewMgmt
 90
     1024
 91
        1
280
     0
281
     0
  0
CLASS
  1
AMDTAMMENUSTATE
  2
AmdtAmMenuState
  3
DesignerAssemblies
 90
     1024
 91
        1
280
     0
281
     0
  0
CLASS
  1
ACAMPROJECT
  2
AcAmProject
  3
DesignerAssemblies
 90
     1024
 91
        1
280
     0
281
     0
  0
CLASS
  1
ACAMGRCOMPDEF
  2
AcAmGrCompDef
  3
DesignerAssemblies
 90
     1024
 91
        1
280
     0
281
     0
  0
CLASS
  1
ACCMCONTEXT
  2
AcCmContext
  3
DesignerAssemblies
 90
     1024
 91
        1
280
     0
281
     0
  0
CLASS
  1
ACAMCOMPDEF
  2
AcAmCompDef
  3
DesignerAssemblies
 90
     1024
 91
        1
280
     0
281
     0
  0
CLASS
  1
ACAMCOMPDEFMGR
  2
AcAmCompDefMgr
  3
DesignerAssemblies
 90
     1024
 91
        1
280
     0
281
     0
  0
CLASS
  1
AMCONTEXTMGR
  2
AcAmContextMgr
  3
DesignerAssemblies
 90
     1024
 91
        1
280
     0
281
     0
  0
CLASS
  1
ACAMCONTEXTMODELER
  2
AcAmContextModeler
  3
DesignerAssemblies
 90
     1024
 91
        1
280
     0
281
     0
  0
CLASS
  1
ACMDATADICTIONARY
  2
AcmDataDictionary
  3
"AcmSymBB|Product Description: AutoCAD Mechanical|Company: Autodesk, Inc."
 90
     1024
 91
        1
280
     0
281
     0
  0
CLASS
  1
CATALOGSTATE
  2
AcAmCatalogState
  3
DesignerAssemblies
 90
     1024
 91
        1
280
     0
281
     0
  0
CLASS
  1
ACAMGRCOMPDEFSET
  2
AcAmGrCompDefSet
  3
DesignerAssemblies
 90
     1024
 91
        1
280
     0
281
     0
  0
CLASS
  1
AMDTBROWSERDBTAB
  2
AmdtBrowserDbTab
  3
McadcomServices
 90
     1024
 91
        1
280
     0
281
     0
  0
CLASS
  1
CBROWSERAPPOBJECT
  2
CBrowserAppObject
  3
McadcomServices
 90
     1024
 91
        3
280
     0
281
     0
  0
CLASS
  1
DM_PLACEHOLDER
  2
AcDmSelsetPlaceholder
  3
AcMechDwgViewMgmt
 90
     1024
 91
        1
280
     0
281
     0
  0
CLASS
  1
ACMSTANDARDDIN
  2
AcmStandardDIN
  3
"Amdt_StdImp|Product Description: AutoCAD Mechanical|Company: Autodesk, Inc."
 90
     1024
 91
        1
280
     0
281
     0
  0
CLASS
  1
AMGOBJPROPCFG
  2
AmgObjPropCfg
  3
"AmgLay|Product Description: AutoCAD Mechanical|Company: Autodesk, Inc."
 90
     1025
 91
        1
280
     0
281
     0
  0
CLASS
  1
AMDTEDGESTANDARDDIN13715
  2
AmdtEdgeStdDIN13715
  3
"Amdt_StdImp|Product Description: AutoCAD Mechanical|Company: Autodesk, Inc."
 90
     1024
 91
        1
280
     0
281
     0
  0
CLASS
  1
ACMSURFSTANDARDDIN
  2
AcmSurfTextStdDIN
  3
"Amdt_StdImp|Product Description: AutoCAD Mechanical|Company: Autodesk, Inc."
 90
     1024
 91
        0
280
     0
281
     0
  0
CLASS
  1
ACMFCFSTANDARDDIN
  2
AcmFCFStdDIN
  3
"Amdt_StdImp|Product Description: AutoCAD Mechanical|Company: Autodesk, Inc."
 90
     1024
 91
        1
280
     0
281
     0
  0
CLASS
  1
ACMWELDSTANDARDDIN
  2
AcmWeldingStdDIN
  3
"Amdt_StdImp|Product Description: AutoCAD Mechanical|Company: Autodesk, Inc."
 90
     1024
 91
        1
280
     0
281
     0
  0
CLASS
  1
ACMIDSTANDARDDIN
  2
AcmIdStdDIN
  3
"Amdt_StdImp|Product Description: AutoCAD Mechanical|Company: Autodesk, Inc."
 90
     1024
 91
        1
280
     0
281
     0
  0
CLASS
  1
ACMDATUMSTANDARDDIN
  2
AcmDatumStdDIN
  3
"Amdt_StdImp|Product Description: AutoCAD Mechanical|Company: Autodesk, Inc."
 90
     1024
 91
        1
280
     0
281
     0
  0
CLASS
  1
ACMBOMSTANDARDDIN
  2
AcmBOMStdDIN
  3
"Amdt_StdImp|Product Description: AutoCAD Mechanical|Company: Autodesk, Inc."
 90
     1024
 91
        1
280
     0
281
     0
  0
CLASS
  1
ACMDETAILSTANDARDDIN
  2
AmdtDetailSymStdDIN
  3
"Amdt_StdImp|Product Description: AutoCAD Mechanical|Company: Autodesk, Inc."
 90
     1024
 91
        1
280
     0
281
     0
  0
CLASS
  1
ACMSECTIONSTANDARDDIN
  2
AmdtSectionSymStdDIN
  3
"Amdt_StdImp|Product Description: AutoCAD Mechanical|Company: Autodesk, Inc."
 90
     1024
 91
        1
280
     0
281
     0
  0
CLASS
  1
ACMCENTERLINESTANDARDDIN
  2
AmdtCenterLineStdDIN
  3
"Amdt_StdImp|Product Description: AutoCAD Mechanical|Company: Autodesk, Inc."
 90
     1024
 91
        1
280
     0
281
     0
  0
CLASS
  1
ACMTHREADLINESTANDARDDIN
  2
AmdtThreadLineStdDIN
  3
"Amdt_StdImp|Product Description: AutoCAD Mechanical|Company: Autodesk, Inc."
 90
     1024
 91
        1
280
     0
281
     0
  0
CLASS
  1
ACMNOTESTANDARDDIN
  2
AmdtNoteStdDIN
  3
"Amdt_StdImp|Product Description: AutoCAD Mechanical|Company: Autodesk, Inc."
 90
     1024
 91
        1
280
     0
281
     0
  0
CLASS
  1
AMDTNOTETEMPLATEDB
  2
AmdtNoteTemplateDB
  3
AcmSymBB|Product Description: AutoCAD Mechanical|Company: Autodesk, Inc.
 90
     1024
 91
        6
280
     0
281
     0
  0
CLASS
  1
ACAMGLAYSTD
  2
AcAmgLayStd
  3
"AmgLay|Product Description: AutoCAD Mechanical|Company: Autodesk, Inc."
 90
     1024
 91
        1
280
     0
281
     0
  0
CLASS
  1
ACAMGDIMSTD
  2
AcAmgDimStd
  3
"AmgDim|Product Description: AutoCAD Mechanical|Company: Autodesk, Inc."
 90
     1024
 91
        1
280
     0
281
     0
  0
CLASS
  1
ACAMGHOLECHARTSTDDIN
  2
AcAmgHoleChartStdDIN
  3
AmgDim|Product Description: AutoCAD Mechanical|Company: Autodesk, Inc.
 90
     1024
 91
        1
280
     0
281
     0
  0
CLASS
  1
ACAMGTITLESTD
  2
AcAmgTitleStd
  3
"AmgTitle|Product Description: AutoCAD Mechanical|Company: Autodesk, Inc."
 90
     4095
 91
        1
280
     0
281
     0
  0
CLASS
  1
ACAMGFILTERDAT
  2
AcAmgFilterDat
  3
"AcadM|Product Description: AutoCAD Mechanical|Company: Autodesk, Inc."
 90
     1024
 91
        0
280
     0
281
     0
  0
CLASS
  1
MATERIAL
  2
AcDbMaterial
  3
ObjectDBX Classes
 90
     1153
 91
        3
280
     0
281
     0
  0
CLASS
  1
VISUALSTYLE
  2
AcDbVisualStyle
  3
ObjectDBX Classes
 90
     4095
 91
       16
280
     0
281
     0
  0
CLASS
  1
SCALE
  2
AcDbScale
  3
ObjectDBX Classes
 90
     1153
 91
       17
280
     0
281
     0
  0
CLASS
  1
MLEADERSTYLE
  2
AcDbMLeaderStyle
  3
ACDB_MLEADERSTYLE_CLASS
 90
     4095
 91
        1
280
     0
281
     0
  0
CLASS
  1
ACMSURFSTANDARDDIN2002
  2
AcmSurfTextStdDIN2002
  3
"Amdt_StdImp|Product Description: AutoCAD Mechanical|Company: Autodesk, Inc."
 90
     1024
 91
        1
280
     0
281
     0
  0
CLASS
  1
ACMTAPERSTANDARDDIN
  2
AcmTaperStdDIN
  3
"Amdt_StdImp|Product Description: AutoCAD Mechanical|Company: Autodesk, Inc."
 90
     1024
 91
        1
280
     0
281
     0
  0
CLASS
  1
ACMANOOTATIONVIEWSTANDARDDIN
  2
AmdtAnViewStdDIN
  3
"Amdt_StdImp|Product Description: AutoCAD Mechanical|Company: Autodesk, Inc."
 90
     1024
 91
        1
280
     0
281
     0
  0
CLASS
  1
EXACXREFPANELOBJECT
  2
ExAcXREFPanelObject
  3
EXAC_ESW
 90
     1025
 91
        1
280
     0
281
     0
  0
CLASS
  1
NPOCOLLECTION
  2
AcDbImpNonPersistentObjectsCollection
  3
ObjectDBX Classes
 90
     1153
 91
        1
280
     0
281
     0
  0
CLASS
  1
CAMSSTRUCTBTNSTATE
  2
StructBtnState
  3
DesignerAssemblies
 90
     1024
 91
        1
280
     0
281
     0
  0
CLASS
  1
CELLSTYLEMAP
  2
AcDbCellStyleMap
  3
ObjectDBX Classes
 90
     1152
 91
        5
280
     0
281
     0
  0
CLASS
  1
SORTENTSTABLE
  2
AcDbSortentsTable
  3
ObjectDBX Classes
 90
        0
 91
        1
280
     0
281
     0
  0
ENDSEC
  0
SECTION
  2
TABLES
  0
TABLE
  2
VPORT
  5
E00
330
0
100
AcDbSymbolTable
 70
     1
  0
VPORT
  5
1725
330
E00
100
AcDbSymbolTableRecord
100
AcDbViewportTableRecord
  2
*Active
 70
     0
 10
0.0
 20
0.0
 11
1.0
 21
1.0
 12
479.9850518118644
 22
367.3790367313375
 13
0.0
 23
0.0
 14
1.0
 24
1.0
 15
10.0
 25
10.0
 16
0.0
 26
0.0
 36
1.0
 17
0.0
 27
0.0
 37
0.0
 40
790.475217222154
 41
2.018369690011481
 42
50.0
 43
0.0
 44
0.0
 50
0.0
 51
0.0
 71
     0
 72
   100
 73
     1
 74
     1
 75
     0
 76
     0
 77
     0
 78
     0
281
     0
 65
     0
110
0.0
120
0.0
130
0.0
111
1.0
121
0.0
131
0.0
112
0.0
122
1.0
132
0.0
 79
     0
146
0.0
  0
ENDTAB
  0
TABLE
  2
LTYPE
  5
DFD
330
0
100
AcDbSymbolTable
 70
    22
  0
LTYPE
  5
E09
330
DFD
100
AcDbSymbolTableRecord
100
AcDbLinetypeTableRecord
  2
BYBLOCK
 70
     0
  3

 72
    65
 73
     0
 40
0.0
  0
LTYPE
  5
E0A
330
DFD
100
AcDbSymbolTableRecord
100
AcDbLinetypeTableRecord
  2
BYLAYER
 70
     0
  3

 72
    65
 73
     0
 40
0.0
  0
LTYPE
  5
E0B
330
DFD
100
AcDbSymbolTableRecord
100
AcDbLinetypeTableRecord
  2
CONTINUOUS
 70
     0
  3
Solid line
 72
    65
 73
     0
 40
0.0
  0
LTYPE
  5
E2D
330
DFD
100
AcDbSymbolTableRecord
100
AcDbLinetypeTableRecord
  2
GEN7
 70
     0
  3
____ . ____ . ____ . ____ . ____ . ____ . ____
 72
    65
 73
     4
 40
13.75
 49
10.0
 74
     0
 49
-1.25
 74
     0
 49
1.25
 74
     0
 49
-1.25
 74
     0
  0
LTYPE
  5
E2E
330
DFD
100
AcDbSymbolTableRecord
100
AcDbLinetypeTableRecord
  2
GEN7A
 70
     0
  3
__ . __ . __
 72
    65
 73
     4
 40
6.875
 49
5.0
 74
     0
 49
-0.625
 74
     0
 49
0.625
 74
     0
 49
-0.625
 74
     0
  0
LTYPE
  5
1684
330
DFD
100
AcDbSymbolTableRecord
100
AcDbLinetypeTableRecord
  2
HIDDEN
 70
     0
  3
Verdeckt
 72
    65
 73
     2
 40
9.525
 49
6.349999999999998
 74
     0
 49
-3.174999999999998
 74
     0
  0
LTYPE
  5
1685
330
DFD
100
AcDbSymbolTableRecord
100
AcDbLinetypeTableRecord
  2
PHANTOM2
 70
     0
  3
Phantom (.5x) ___ _ _ ___ _ _ ___ _ _ ___ _ _
 72
    65
 73
     6
 40
31.75
 49
15.875
 74
     0
 49
-3.174999999999998
 74
     0
 49
3.174999999999998
 74
     0
 49
-3.174999999999998
 74
     0
 49
3.174999999999998
 74
     0
 49
-3.174999999999998
 74
     0
  0
LTYPE
  5
1686
330
DFD
100
AcDbSymbolTableRecord
100
AcDbLinetypeTableRecord
  2
CENTER
 70
     0
  3
Mitte ____ _ ____ _ ____ _ ____ _ ____ _ ____
 72
    65
 73
     4
 40
50.8
 49
31.75
 74
     0
 49
-6.349999999999998
 74
     0
 49
6.349999999999998
 74
     0
 49
-6.349999999999998
 74
     0
  0
LTYPE
  5
16BD
330
DFD
100
AcDbSymbolTableRecord
100
AcDbLinetypeTableRecord
  2
Amconstr
 70
     0
  3
_______________________
 72
    65
 73
     2
 40
9999.0
 49
9999.0
 74
     0
 49
0.0
 74
     0
  0
LTYPE
  5
16C2
330
DFD
100
AcDbSymbolTableRecord
100
AcDbLinetypeTableRecord
  2
Amzigzag
 70
     0
  3
/\/-/\/-/\/-/\/-/\/-/\/
 72
    65
 73
     2
 40
11.0001
 49
0.0001
 74
     4
 75
   136
340
16C1
 46
0.04
 50
0.0
 44
0.0
 45
0.0
 49
-11.0
 74
     0
  0
LTYPE
  5
16C3
330
DFD
100
AcDbSymbolTableRecord
100
AcDbLinetypeTableRecord
  2
AM_DIN_F_W050
 70
     0
  3
__ __ __ __ __ __ __ __ __ __ __ __ __ __ __
 72
    65
 73
     2
 40
6.25
 49
4.75
 74
     0
 49
-1.5
 74
     0
  0
LTYPE
  5
16C4
330
DFD
100
AcDbSymbolTableRecord
100
AcDbLinetypeTableRecord
  2
AM_DIN_G_W050
 70
     0
  3
____ . ____ . ____ . ____ . ____ . ____ . ____
 72
    65
 73
     4
 40
13.75
 49
9.75
 74
     0
 49
-1.5
 74
     0
 49
1.0
 74
     0
 49
-1.5
 74
     0
  0
LTYPE
  5
16C5
330
DFD
100
AcDbSymbolTableRecord
100
AcDbLinetypeTableRecord
  2
AM_DIN_K_W050
 70
     0
  3
_____ . . _____ . . _____ . . ____ .. ____
 72
    65
 73
     6
 40
16.25
 49
9.75
 74
     0
 49
-1.5
 74
     0
 49
1.0
 74
     0
 49
-1.5
 74
     0
 49
1.0
 74
     0
 49
-1.5
 74
     0
  0
LTYPE
  5
16C6
330
DFD
100
AcDbSymbolTableRecord
100
AcDbLinetypeTableRecord
  2
AM_DIN_G_W050x2
 70
     0
  3
__ . __ . __ . __ . __ . __
 72
    65
 73
     4
 40
6.875
 49
4.75
 74
     0
 49
-0.875
 74
     0
 49
0.375
 74
     0
 49
-0.875
 74
     0
  0
LTYPE
  5
16C7
330
DFD
100
AcDbSymbolTableRecord
100
AcDbLinetypeTableRecord
  2
AM_DIN_F_W050x2
 70
     0
  3
 _ _ _ _ _ _ _ _ _ _ _ _
 72
    65
 73
     2
 40
3.125
 49
2.25
 74
     0
 49
-0.875
 74
     0
  0
LTYPE
  5
16D6
330
DFD
100
AcDbSymbolTableRecord
100
AcDbLinetypeTableRecord
  2
ACDINWELD
 70
     0
  3
_ _ _ _ _
 72
    65
 73
     2
 40
2.0
 49
2.0
 74
     0
 49
-1.0
 74
     0
  0
LTYPE
  5
16D7
330
DFD
100
AcDbSymbolTableRecord
100
AcDbLinetypeTableRecord
  2
ACDINTGB
 70
     0
  3
__ . . __ . .
 72
    65
 73
     6
 40
9.0
 49
4.0
 74
     0
 49
-1.0
 74
     0
 49
1.0
 74
     0
 49
-1.0
 74
     0
 49
1.0
 74
     0
 49
-1.0
 74
     0
  0
LTYPE
  5
16D8
330
DFD
100
AcDbSymbolTableRecord
100
AcDbLinetypeTableRecord
  2
ACDINTGL
 70
     0
  3
_ _ _ _ _
 72
    65
 73
     2
 40
3.0
 49
2.0
 74
     0
 49
-1.0
 74
     0
  0
ENDTAB
  0
TABLE
  2
LAYER
  5
DFA
102
{ACAD_XDICTIONARY
360
1A85
102
}
330
0
100
AcDbSymbolTable
 70
    26
  0
LAYER
  5
E06
102
{ACAD_XDICTIONARY
360
1937
102
}
330
DFA
100
AcDbSymbolTableRecord
100
AcDbLayerTableRecord
  2
0
 70
     0
 62
     7
  6
CONTINUOUS
370
    -3
390
1648
  0
LAYER
  5
E6D
102
{ACAD_XDICTIONARY
360
1939
102
}
330
DFA
100
AcDbSymbolTableRecord
100
AcDbLayerTableRecord
  2
7
 70
     0
 62
     4
  6
GEN7
370
    -3
390
1648
  0
LAYER
  5
E70
102
{ACAD_XDICTIONARY
360
193F
102
}
330
DFA
100
AcDbSymbolTableRecord
100
AcDbLayerTableRecord
  2
GEV_FROZEN
 70
     1
 62
     7
  6
CONTINUOUS
370
    -3
390
1648
  0
LAYER
  5
E71
102
{ACAD_XDICTIONARY
360
1941
102
}
330
DFA
100
AcDbSymbolTableRecord
100
AcDbLayerTableRecord
  2
CENN
 70
     0
 62
     7
  6
CONTINUOUS
370
    -3
390
1648
  0
LAYER
  5
E74
102
{ACAD_XDICTIONARY
360
1943
102
}
330
DFA
100
AcDbSymbolTableRecord
100
AcDbLayerTableRecord
  2
THLI
 70
     0
 62
     7
  6
CONTINUOUS
370
    -3
390
1648
  0
LAYER
  5
E76
102
{ACAD_XDICTIONARY
360
1945
102
}
330
DFA
100
AcDbSymbolTableRecord
100
AcDbLayerTableRecord
  2
7AN
 70
     0
 62
     4
  6
GEN7A
370
    -3
390
1648
  0
LAYER
  5
E79
102
{ACAD_XDICTIONARY
360
1947
102
}
330
DFA
100
AcDbSymbolTableRecord
100
AcDbLayerTableRecord
  2
7A
 70
     0
 62
     4
  6
GEN7A
370
    -3
390
1648
  0
LAYER
  5
E7A
102
{ACAD_XDICTIONARY
360
1949
102
}
330
DFA
100
AcDbSymbolTableRecord
100
AcDbLayerTableRecord
  2
5
 70
     0
 62
     3
  6
CONTINUOUS
370
    -3
390
1648
  0
LAYER
  5
E7B
330
DFA
100
AcDbSymbolTableRecord
100
AcDbLayerTableRecord
  2
DEFPOINTS
 70
     0
 62
     7
  6
CONTINUOUS
290
     0
370
    -3
390
1648
  0
LAYER
  5
E7C
102
{ACAD_XDICTIONARY
360
194B
102
}
330
DFA
100
AcDbSymbolTableRecord
100
AcDbLayerTableRecord
  2
6
 70
     0
 62
     2
  6
CONTINUOUS
370
    -3
390
1648
  0
LAYER
  5
E7D
102
{ACAD_XDICTIONARY
360
194D
102
}
330
DFA
100
AcDbSymbolTableRecord
100
AcDbLayerTableRecord
  2
8
 70
     0
 62
     1
  6
CONTINUOUS
370
    -3
390
1648
  0
LAYER
  5
E7E
102
{ACAD_XDICTIONARY
360
194F
102
}
330
DFA
100
AcDbSymbolTableRecord
100
AcDbLayerTableRecord
  2
4
 70
     0
 62
     3
  6
CONTINUOUS
370
    -3
390
1648
  0
LAYER
  5
E81
102
{ACAD_XDICTIONARY
360
1951
102
}
330
DFA
100
AcDbSymbolTableRecord
100
AcDbLayerTableRecord
  2
-BHMU
 70
     0
 62
     7
  6
CONTINUOUS
370
    -3
390
1648
  0
LAYER
  5
E82
102
{ACAD_XDICTIONARY
360
1953
102
}
330
DFA
100
AcDbSymbolTableRecord
100
AcDbLayerTableRecord
  2
BHMM
 70
     0
 62
     7
  6
CONTINUOUS
370
    -3
390
1648
  0
LAYER
  5
1300
102
{ACAD_XDICTIONARY
360
1959
102
}
330
DFA
100
AcDbSymbolTableRecord
100
AcDbLayerTableRecord
  2
0N
 70
     0
 62
     7
  6
CONTINUOUS
370
    -3
390
1648
  0
LAYER
  5
1301
102
{ACAD_XDICTIONARY
360
195B
102
}
330
DFA
100
AcDbSymbolTableRecord
100
AcDbLayerTableRecord
  2
4N
 70
     0
 62
     3
  6
CONTINUOUS
370
    -3
390
1648
  0
LAYER
  5
1302
102
{ACAD_XDICTIONARY
360
195D
102
}
330
DFA
100
AcDbSymbolTableRecord
100
AcDbLayerTableRecord
  2
9
 70
     0
 62
  -253
  6
CONTINUOUS
370
    -3
390
1648
  0
LAYER
  5
17F2
102
{ACAD_XDICTIONARY
360
195F
102
}
330
DFA
100
AcDbSymbolTableRecord
100
AcDbLayerTableRecord
  2
AM_5
 70
     0
 62
    92
  6
CONTINUOUS
370
    25
390
1648
1001
AcAecLayerStandard
1000

1000

  0
LAYER
  5
1A8A
330
DFA
100
AcDbSymbolTableRecord
100
AcDbLayerTableRecord
  2
AM_8
 70
     0
 62
     1
  6
CONTINUOUS
370
    25
390
1648
1001
AcAecLayerStandard
1000

1000

  0
ENDTAB
  0
TABLE
  2
STYLE
  5
DFB
330
0
100
AcDbSymbolTable
 70
     4
  0
STYLE
  5
E07
330
DFB
100
AcDbSymbolTableRecord
100
AcDbTextStyleTableRecord
  2
STANDARD
 70
     0
 40
0.0
 41
1.0
 50
0.0
 71
     0
 42
22.103781
  3
ISOCP.SHX
  4

  0
STYLE
  5
16C1
330
DFB
100
AcDbSymbolTableRecord
100
AcDbTextStyleTableRecord
  2

 70
     1
 40
0.0
 41
1.0
 50
0.0
 71
     0
 42
22.103781
  3
genltshp.shx
  4

  0
STYLE
  5
16D5
330
DFB
100
AcDbSymbolTableRecord
100
AcDbTextStyleTableRecord
  2
ACDINGDT
 70
     0
 40
0.0
 41
1.0
 50
0.0
 71
     0
 42
22.103781
  3
amgdt.shx
  4

  0
ENDTAB
  0
TABLE
  2
VIEW
  5
DFE
330
0
100
AcDbSymbolTable
 70
     6
  0
VIEW
  5
E2F
330
DFE
100
AcDbSymbolTableRecord
100
AcDbViewTableRecord
  2
GEN1
 70
     0
 40
148.5
 10
120.890794
 20
222.75
 41
241.781588
 11
0.0
 21
0.0
 31
1.0
 12
0.0
 22
0.0
 32
0.0
 42
50.0
 43
0.0
 44
0.0
 50
0.0
 71
     0
281
     0
 72
     0
  0
VIEW
  5
E30
330
DFE
100
AcDbSymbolTableRecord
100
AcDbViewTableRecord
  2
GEN2
 70
     0
 40
148.5
 10
299.109206
 20
222.75
 41
241.781588
 11
0.0
 21
0.0
 31
1.0
 12
0.0
 22
0.0
 32
0.0
 42
50.0
 43
0.0
 44
0.0
 50
0.0
 71
     0
281
     0
 72
     0
  0
VIEW
  5
E31
330
DFE
100
AcDbSymbolTableRecord
100
AcDbViewTableRecord
  2
GEN3
 70
     0
 40
148.5
 10
120.890794
 20
74.25
 41
241.781588
 11
0.0
 21
0.0
 31
1.0
 12
0.0
 22
0.0
 32
0.0
 42
50.0
 43
0.0
 44
0.0
 50
0.0
 71
     0
281
     0
 72
     0
  0
VIEW
  5
E32
330
DFE
100
AcDbSymbolTableRecord
100
AcDbViewTableRecord
  2
GEN4
 70
     0
 40
148.5
 10
299.109206
 20
74.25
 41
241.781588
 11
0.0
 21
0.0
 31
1.0
 12
0.0
 22
0.0
 32
0.0
 42
50.0
 43
0.0
 44
0.0
 50
0.0
 71
     0
281
     0
 72
     0
  0
VIEW
  5
E33
330
DFE
100
AcDbSymbolTableRecord
100
AcDbViewTableRecord
  2
GEN5
 70
     0
 40
148.5
 10
210.0
 20
148.5
 41
241.781588
 11
0.0
 21
0.0
 31
1.0
 12
0.0
 22
0.0
 32
0.0
 42
50.0
 43
0.0
 44
0.0
 50
0.0
 71
     0
281
     0
 72
     0
  0
VIEW
  5
E34
330
DFE
100
AcDbSymbolTableRecord
100
AcDbViewTableRecord
  2
GEN6
 70
     0
 40
296.99703
 10
210.0
 20
148.5
 41
483.558341
 11
0.0
 21
0.0
 31
1.0
 12
0.0
 22
0.0
 32
0.0
 42
50.0
 43
0.0
 44
0.0
 50
0.0
 71
     0
281
     0
 72
     0
  0
ENDTAB
  0
TABLE
  2
UCS
  5
DFF
330
0
100
AcDbSymbolTable
 70
     0
  0
ENDTAB
  0
TABLE
  2
APPID
  5
E01
330
0
100
AcDbSymbolTable
 70
    69
  0
APPID
  5
E08
330
E01
100
AcDbSymbolTableRecord
100
AcDbRegAppTableRecord
  2
ACAD
 70
     0
  0
APPID
  5
E36
330
E01
100
AcDbSymbolTableRecord
100
AcDbRegAppTableRecord
  2
GENIUS_GENCFG_13
 70
     0
1001
GENIUS_GENCFG0_13
1000
GEN@INFO_POS@XLATE
1001
GENIUS_GENCFG1_13
1000
GEN@INFO_POS
1001
GENIUS_GENCFG2_13
1000
GEN@LAYER@DEFS
1001
GENIUS_GENCFG3_13
1000
GEN@LAYER@ENTSORT
1001
GENIUS_GENCFG4_13
1000
GEN
1001
GENIUS_GEVCFG0_13
1000
GEV
1001
GENIUS_GEFCFG0_13
1000
GEF
  0
APPID
  5
E37
330
E01
100
AcDbSymbolTableRecord
100
AcDbRegAppTableRecord
  2
GENIUS_GEVCFG0_13
 70
     0
1001
GENIUS_GENCFG_13
1071
1043418057
1000
E37
1000
GEV
1070
     2
1000
GenCfgObject
1000
GenCfgShort
1000
VED
1070
     0
1002
{
1002
}
1000
PartProto
1070
     1
1070
     1
1002
{
1002
}
  0
APPID
  5
E38
330
E01
100
AcDbSymbolTableRecord
100
AcDbRegAppTableRecord
  2
GENIUS_GENCFG0_13
 70
     0
1001
GENIUS_GENCFG_13
1071
1043418057
1000
E38
1000
GEN@INFO_POS@XLATE
1070
     7
1000
GenCfgObject
1000
GenCfgShort
1000
GenCfgReal
1000
GenCfgBool
1000
GenCfgString
1000
GenCfgDim
1000
GenCfgAttrInf
1000
INFOPOINTS
1070
     0
1002
{
1000
GENINF14
1070
     0
1002
{
1000
2GENINF
1070
     4
1000
2
1002
{
1002
}
1000
5GENINF
1070
     4
1000
5
1002
{
1002
}
1000
7GENINF
1070
     4
1000
7
1002
{
1002
}
1000
9GENINF
1070
     4
1000
9
1002
{
1002
}
1000
11GENINF
1070
     4
1000
11
1002
{
1002
}
1000
14GENINF
1070
     4
1000
14
1002
{
1002
}
1002
}
1000
GENINF13
1070
     0
1002
{
1000
2GENINF
1070
     4
1000
2
1002
{
1002
}
1000
3GENINF
1070
     4
1000
3
1002
{
1002
}
1000
4GENINF
1070
     4
1000
4
1002
{
1002
}
1000
5GENINF
1070
     4
1000
5
1002
{
1002
}
1000
6GENINF
1070
     4
1000
6
1002
{
1002
}
1000
7GENINF
1070
     4
1000
7
1002
{
1002
}
1000
8GENINF
1070
     4
1000
8
1002
{
1002
}
1000
9GENINF
1070
     4
1000
9
1002
{
1002
}
1000
10GENINF
1070
     4
1000
10
1002
{
1002
}
1000
11GENINF
1070
     4
1000
11
1002
{
1002
}
1000
12GENINF
1070
     4
1000
12
1002
{
1002
}
1000
13GENINF
1070
     4
1000
13
1002
{
1002
}
1000
14GENINF
1070
     4
1000
14
1002
{
1002
}
1000
15GENINF
1070
     4
1000
15
1002
{
1002
}
1000
16GENINF
1070
     4
1000
16
1002
{
1002
}
1000
17GENINF
1070
     4
1000
17
1002
{
1002
}
1000
18GENINF
1070
     4
1000
18
1002
{
1002
}
1000
19GENINF
1070
     4
1000
19
1002
{
1002
}
1000
20GENINF
1070
     4
1000
20
1002
{
1002
}
1000
21GENINF
1070
     4
1000
21
1002
{
1002
}
1000
22GENINF
1070
     4
1000
22
1002
{
1002
}
1000
23GENINF
1070
     4
1000
23
1002
{
1002
}
1000
24GENINF
1070
     4
1000
24
1002
{
1002
}
1000
0GENINF
1070
     4
1000
0
1002
{
1002
}
1002
}
1000
GENINFO
1070
     0
1002
{
1000
3GENINF
1070
     4
1000
3
1002
{
1002
}
1000
4GENINF
1070
     4
1000
4
1002
{
1002
}
1000
5GENINF
1070
     4
1000
5
1002
{
1002
}
1000
6GENINF
1070
     4
1000
6
1002
{
1002
}
1000
7GENINF
1070
     4
1000
7
1002
{
1002
}
1000
8GENINF
1070
     4
1000
8
1002
{
1002
}
1000
9GENINF
1070
     4
1000
9
1002
{
1002
}
1000
10GENINF
1070
     4
1000
10
1002
{
1002
}
1000
11GENINF
1070
     4
1000
11
1002
{
1002
}
1000
12GENINF
1070
     4
1000
12
1002
{
1002
}
1000
13GENINF
1070
     4
1000
13
1002
{
1002
}
1000
14GENINF
1070
     4
1000
14
1002
{
1002
}
1000
15GENINF
1070
     4
1000
15
1002
{
1002
}
1000
16GENINF
1070
     4
1000
16
1002
{
1002
}
1000
17GENINF
1070
     4
1000
17
1002
{
1002
}
1000
18GENINF
1070
     4
1000
18
1002
{
1002
}
1000
19GENINF
1070
     4
1000
19
1002
{
1002
}
1000
20GENINF
1070
     4
1000
20
1002
{
1002
}
1000
21GENINF
1070
     4
1000
21
1002
{
1002
}
1000
22GENINF
1070
     4
1000
22
1002
{
1002
}
1002
}
1000
DININFO
1070
     0
1002
{
1000
ST-NAME1
1070
     4
1000
5
1002
{
1002
}
1000
ST-NAME2
1070
     4
1000
6
1002
{
1002
}
1000
ST-NORM1
1070
     4
1000
7
1002
{
1002
}
1000
ST-NORM2
1070
     4
1000
8
1002
{
1002
}
1000
ST-MAT1
1070
     4
1000
9
1002
{
1002
}
1000
ST-MAT2
1070
     4
1000
10
1002
{
1002
}
1002
}
1002
}
1000
POS_NUMBERS
1070
     0
1002
{
1000
GENPOS14
1070
     0
1002
{
1000
1GENPOS
1070
     4
1000
1
1002
{
1002
}
1000
2GENPOS
1070
     4
1000
2
1002
{
1002
}
1000
5GENPOS
1070
     4
1000
5
1002
{
1002
}
1000
7GENPOS
1070
     4
1000
7
1002
{
1002
}
1000
9GENPOS
1070
     4
1000
9
1002
{
1002
}
1000
11GENPOS
1070
     4
1000
11
1002
{
1002
}
1000
14GENPOS
1070
     4
1000
14
1002
{
1002
}
1002
}
1000
GENPOS13
1070
     0
1002
{
1000
1GENPOS
1070
     4
1000
1
1002
{
1002
}
1000
2GENPOS
1070
     4
1000
2
1002
{
1002
}
1000
3GENPOS
1070
     4
1000
3
1002
{
1002
}
1000
4GENPOS
1070
     4
1000
4
1002
{
1002
}
1000
5GENPOS
1070
     4
1000
5
1002
{
1002
}
1000
6GENPOS
1070
     4
1000
6
1002
{
1002
}
1000
7GENPOS
1070
     4
1000
7
1002
{
1002
}
1000
8GENPOS
1070
     4
1000
8
1002
{
1002
}
1000
9GENPOS
1070
     4
1000
9
1002
{
1002
}
1000
10GENPOS
1070
     4
1000
10
1002
{
1002
}
1000
11GENPOS
1070
     4
1000
11
1002
{
1002
}
1000
12GENPOS
1070
     4
1000
12
1002
{
1002
}
1000
13GENPOS
1070
     4
1000
13
1002
{
1002
}
1000
14GENPOS
1070
     4
1000
14
1002
{
1002
}
1000
15GENPOS
1070
     4
1000
15
1002
{
1002
}
1000
16GENPOS
1070
     4
1000
16
1002
{
1002
}
1000
17GENPOS
1070
     4
1000
17
1002
{
1002
}
1000
18GENPOS
1070
     4
1000
18
1002
{
1002
}
1000
19GENPOS
1070
     4
1000
19
1002
{
1002
}
1000
20GENPOS
1070
     4
1000
20
1002
{
1002
}
1000
21GENPOS
1070
     4
1000
21
1002
{
1002
}
1000
22GENPOS
1070
     4
1000
22
1002
{
1002
}
1000
23GENPOS
1070
     4
1000
23
1002
{
1002
}
1000
24GENPOS
1070
     4
1000
24
1002
{
1002
}
1000
0GENPOS
1070
     4
1000
0
1002
{
1002
}
1002
}
1000
GENPOS
1070
     0
1002
{
1000
1GENPOS
1070
     4
1000
1
1002
{
1002
}
1000
2GENPOS
1070
     4
1000
2
1002
{
1002
}
1000
3GENPOS
1070
     4
1000
3
1002
{
1002
}
1000
4GENPOS
1070
     4
1000
4
1002
{
1002
}
1000
5GENPOS
1070
     4
1000
5
1002
{
1002
}
1000
6GENPOS
1070
     4
1000
6
1002
{
1002
}
1000
7GENPOS
1070
     4
1000
7
1002
{
1002
}
1000
8GENPOS
1070
     4
1000
8
1002
{
1002
}
1000
9GENPOS
1070
     4
1000
9
1002
{
1002
}
1000
10GENPOS
1070
     4
1000
10
1002
{
1002
}
1000
11GENPOS
1070
     4
1000
11
1002
{
1002
}
1000
12GENPOS
1070
     4
1000
12
1002
{
1002
}
1000
13GENPOS
1070
     4
1000
13
1002
{
1002
}
1000
14GENPOS
1070
     4
1000
14
1002
{
1002
}
1000
15GENPOS
1070
     4
1000
15
1002
{
1002
}
1000
16GENPOS
1070
     4
1000
16
1002
{
1002
}
1000
17GENPOS
1070
     4
1000
17
1002
{
1002
}
1000
18GENPOS
1070
     4
1000
18
1002
{
1002
}
1000
19GENPOS
1070
     4
1000
19
1002
{
1002
}
1000
20GENPOS
1070
     4
1000
20
1002
{
1002
}
1000
21GENPOS
1070
     4
1000
21
1002
{
1002
}
1000
22GENPOS
1070
     4
1000
22
1002
{
1002
}
1000
23GENPOS
1070
     4
1000
23
1002
{
1002
}
1002
}
1000
DIN985
1070
     0
1002
{
1000
POSITION
1070
     4
1000
1
1002
{
1002
}
1000
MENGE
1070
     4
1000
2
1002
{
1002
}
1000
BLATT
1070
     4
1000
3
1002
{
1002
}
1000
BENENN
1070
     4
1000
5
1002
{
1002
}
1000
BENENN2
1070
     4
1000
6
1002
{
1002
}
1000
NORM
1070
     4
1000
7
1002
{
1002
}
1000
NORM2
1070
     4
1000
8
1002
{
1002
}
1000
WERKSTOFF
1070
     4
1000
9
1002
{
1002
}
1000
WERKSTOFF2
1070
     4
1000
10
1002
{
1002
}
1002
}
1000
DIN986
1070
     0
1002
{
1000
POSITION
1070
     4
1000
1
1002
{
1002
}
1000
MENGE
1070
     4
1000
2
1002
{
1002
}
1000
BLATT
1070
     4
1000
3
1002
{
1002
}
1000
BENENN
1070
     4
1000
5
1002
{
1002
}
1000
BENENN2
1070
     4
1000
6
1002
{
1002
}
1000
NORM
1070
     4
1000
7
1002
{
1002
}
1000
NORM2
1070
     4
1000
8
1002
{
1002
}
1000
WERKSTOFF
1070
     4
1000
9
1002
{
1002
}
1000
WERKSTOFF2
1070
     4
1000
10
1002
{
1002
}
1002
}
1000
DIN987
1070
     0
1002
{
1000
POSITION
1070
     4
1000
1
1002
{
1002
}
1000
MENGE
1070
     4
1000
2
1002
{
1002
}
1000
BLATT
1070
     4
1000
3
1002
{
1002
}
1000
BENENN
1070
     4
1000
5
1002
{
1002
}
1000
BENENN2
1070
     4
1000
6
1002
{
1002
}
1000
NORM
1070
     4
1000
7
1002
{
1002
}
1000
NORM2
1070
     4
1000
8
1002
{
1002
}
1000
WERKSTOFF
1070
     4
1000
9
1002
{
1002
}
1000
WERKSTOFF2
1070
     4
1000
10
1002
{
1002
}
1002
}
1002
}
  0
APPID
  5
E39
330
E01
100
AcDbSymbolTableRecord
100
AcDbRegAppTableRecord
  2
GENIUS_GENCFG1_13
 70
     0
1001
GENIUS_GENCFG_13
1071
1043418057
1000
E39
1000
GEN@INFO_POS
1070
     7
1000
GenCfgObject
1000
GenCfgShort
1000
GenCfgReal
1000
GenCfgBool
1000
GenCfgString
1000
GenCfgDim
1000
GenCfgAttrInf
1000
DescrText
1070
     4
1000
5, ,6, ,7, ,8
1002
{
1002
}
1000
DescrText2
1070
     4
1000
26
1002
{
1002
}
1000
VisibleAttr1
1070
     4
1000
1
1002
{
1002
}
1000
VisibleAttr2
1070
     4
1000
26
1002
{
1002
}
1000
UpdateBlock
1070
     3
1070
     1
1002
{
1002
}
1000
Attrib
1070
     0
1002
{
1000
0
1070
     6
1002
{
1000
Prompt
1070
     4
1000
(genmsg gendwg 103)
1002
{
1002
}
1000
Value
1070
     4
1000

1002
{
1002
}
1000
EditFlag
1070
     1
1070
     0
1002
{
1002
}
1000
PosInDDATTE
1070
     1
1070
    27
1002
{
1002
}
1000
FieldLen
1070
     1
1070
    -1
1002
{
1002
}
1002
}
1000
1
1070
     6
1002
{
1000
Prompt
1070
     4
1000
(genmsg gendwg 31)
1002
{
1002
}
1000
Value
1070
     4
1000
1
1002
{
1002
}
1000
EditFlag
1070
     1
1070
     1
1002
{
1002
}
1000
PosInDDATTE
1070
     1
1070
     1
1002
{
1002
}
1000
FieldLen
1070
     1
1070
    -1
1002
{
1002
}
1002
}
1000
2
1070
     6
1002
{
1000
Prompt
1070
     4
1000
(genmsg gendwg 32)
1002
{
1002
}
1000
Value
1070
     4
1000
1
1002
{
1002
}
1000
EditFlag
1070
     1
1070
     1
1002
{
1002
}
1000
PosInDDATTE
1070
     1
1070
     2
1002
{
1002
}
1000
FieldLen
1070
     1
1070
    -1
1002
{
1002
}
1002
}
1000
3
1070
     6
1002
{
1000
Prompt
1070
     4
1000
(genmsg gendwg 33)
1002
{
1002
}
1000
Value
1070
     4
1000

1002
{
1002
}
1000
EditFlag
1070
     1
1070
     1
1002
{
1002
}
1000
PosInDDATTE
1070
     1
1070
     3
1002
{
1002
}
1000
FieldLen
1070
     1
1070
    -1
1002
{
1002
}
1002
}
1000
4
1070
     6
1002
{
1000
Prompt
1070
     4
1000
(genmsg gendwg 34)
1002
{
1002
}
1000
Value
1070
     4
1000

1002
{
1002
}
1000
EditFlag
1070
     1
1070
     1
1002
{
1002
}
1000
PosInDDATTE
1070
     1
1070
     4
1002
{
1002
}
1000
FieldLen
1070
     1
1070
    -1
1002
{
1002
}
1002
}
1000
5
1070
     6
1002
{
1000
Prompt
1070
     4
1000
(genmsg gendwg 35)
1002
{
1002
}
1000
Value
1070
     4
1000

1002
{
1002
}
1000
EditFlag
1070
     1
1070
     1
1002
{
1002
}
1000
PosInDDATTE
1070
     1
1070
     5
1002
{
1002
}
1000
FieldLen
1070
     1
1070
    -1
1002
{
1002
}
1002
}
1000
6
1070
     6
1002
{
1000
Prompt
1070
     4
1000
(genmsg gendwg 36)
1002
{
1002
}
1000
Value
1070
     4
1000

1002
{
1002
}
1000
EditFlag
1070
     1
1070
     1
1002
{
1002
}
1000
PosInDDATTE
1070
     1
1070
     6
1002
{
1002
}
1000
FieldLen
1070
     1
1070
    -1
1002
{
1002
}
1002
}
1000
7
1070
     6
1002
{
1000
Prompt
1070
     4
1000
(genmsg gendwg 37)
1002
{
1002
}
1000
Value
1070
     4
1000

1002
{
1002
}
1000
EditFlag
1070
     1
1070
     1
1002
{
1002
}
1000
PosInDDATTE
1070
     1
1070
     7
1002
{
1002
}
1000
FieldLen
1070
     1
1070
    -1
1002
{
1002
}
1002
}
1000
8
1070
     6
1002
{
1000
Prompt
1070
     4
1000
(genmsg gendwg 38)
1002
{
1002
}
1000
Value
1070
     4
1000

1002
{
1002
}
1000
EditFlag
1070
     1
1070
     1
1002
{
1002
}
1000
PosInDDATTE
1070
     1
1070
     8
1002
{
1002
}
1000
FieldLen
1070
     1
1070
    -1
1002
{
1002
}
1002
}
1000
9
1070
     6
1002
{
1000
Prompt
1070
     4
1000
(genmsg gendwg 39)
1002
{
1002
}
1000
Value
1070
     4
1000

1002
{
1002
}
1000
EditFlag
1070
     1
1070
     1
1002
{
1002
}
1000
PosInDDATTE
1070
     1
1070
     9
1002
{
1002
}
1000
FieldLen
1070
     1
1070
    -1
1002
{
1002
}
1002
}
1000
10
1070
     6
1002
{
1000
Prompt
1070
     4
1000
(genmsg gendwg 40)
1002
{
1002
}
1000
Value
1070
     4
1000

1002
{
1002
}
1000
EditFlag
1070
     1
1070
     1
1002
{
1002
}
1000
PosInDDATTE
1070
     1
1070
    10
1002
{
1002
}
1000
FieldLen
1070
     1
1070
    -1
1002
{
1002
}
1002
}
1000
11
1070
     6
1002
{
1000
Prompt
1070
     4
1000
(genmsg gendwg 41)
1002
{
1002
}
1000
Value
1070
     4
1000

1002
{
1002
}
1000
EditFlag
1070
     1
1070
     1
1002
{
1002
}
1000
PosInDDATTE
1070
     1
1070
    11
1002
{
1002
}
1000
FieldLen
1070
     1
1070
    -1
1002
{
1002
}
1002
}
1000
12
1070
     6
1002
{
1000
Prompt
1070
     4
1000
(genmsg gendwg 42)
1002
{
1002
}
1000
Value
1070
     4
1000

1002
{
1002
}
1000
EditFlag
1070
     1
1070
     1
1002
{
1002
}
1000
PosInDDATTE
1070
     1
1070
    12
1002
{
1002
}
1000
FieldLen
1070
     1
1070
    -1
1002
{
1002
}
1002
}
1000
13
1070
     6
1002
{
1000
Prompt
1070
     4
1000
(genmsg gendwg 43)
1002
{
1002
}
1000
Value
1070
     4
1000

1002
{
1002
}
1000
EditFlag
1070
     1
1070
     1
1002
{
1002
}
1000
PosInDDATTE
1070
     1
1070
    13
1002
{
1002
}
1000
FieldLen
1070
     1
1070
    -1
1002
{
1002
}
1002
}
1000
14
1070
     6
1002
{
1000
Prompt
1070
     4
1000
(genmsg gendwg 44)
1002
{
1002
}
1000
Value
1070
     4
1000

1002
{
1002
}
1000
EditFlag
1070
     1
1070
     1
1002
{
1002
}
1000
PosInDDATTE
1070
     1
1070
    14
1002
{
1002
}
1000
FieldLen
1070
     1
1070
    -1
1002
{
1002
}
1002
}
1000
15
1070
     6
1002
{
1000
Prompt
1070
     4
1000
(genmsg gendwg 45)
1002
{
1002
}
1000
Value
1070
     4
1000

1002
{
1002
}
1000
EditFlag
1070
     1
1070
     1
1002
{
1002
}
1000
PosInDDATTE
1070
     1
1070
    15
1002
{
1002
}
1000
FieldLen
1070
     1
1070
    -1
1002
{
1002
}
1002
}
1000
16
1070
     6
1002
{
1000
Prompt
1070
     4
1000
(genmsg gendwg 46)
1002
{
1002
}
1000
Value
1070
     4
1000

1002
{
1002
}
1000
EditFlag
1070
     1
1070
     1
1002
{
1002
}
1000
PosInDDATTE
1070
     1
1070
    16
1002
{
1002
}
1000
FieldLen
1070
     1
1070
    -1
1002
{
1002
}
1002
}
1000
17
1070
     6
1002
{
1000
Prompt
1070
     4
1000
(genmsg gendwg 47)
1002
{
1002
}
1000
Value
1070
     4
1000

1002
{
1002
}
1000
EditFlag
1070
     1
1070
     1
1002
{
1002
}
1000
PosInDDATTE
1070
     1
1070
    17
1002
{
1002
}
1000
FieldLen
1070
     1
1070
    -1
1002
{
1002
}
1002
}
1000
18
1070
     6
1002
{
1000
Prompt
1070
     4
1000
(genmsg gendwg 48)
1002
{
1002
}
1000
Value
1070
     4
1000

1002
{
1002
}
1000
EditFlag
1070
     1
1070
     1
1002
{
1002
}
1000
PosInDDATTE
1070
     1
1070
    18
1002
{
1002
}
1000
FieldLen
1070
     1
1070
    -1
1002
{
1002
}
1002
}
1000
19
1070
     6
1002
{
1000
Prompt
1070
     4
1000
(genmsg gendwg 99)
1002
{
1002
}
1000
Value
1070
     4
1000

1002
{
1002
}
1000
EditFlag
1070
     1
1070
     1
1002
{
1002
}
1000
PosInDDATTE
1070
     1
1070
    19
1002
{
1002
}
1000
FieldLen
1070
     1
1070
    -1
1002
{
1002
}
1002
}
1000
20
1070
     6
1002
{
1000
Prompt
1070
     4
1000
(genmsg gendwg 100)
1002
{
1002
}
1000
Value
1070
     4
1000

1002
{
1002
}
1000
EditFlag
1070
     1
1070
     1
1002
{
1002
}
1000
PosInDDATTE
1070
     1
1070
    20
1002
{
1002
}
1000
FieldLen
1070
     1
1070
    -1
1002
{
1002
}
1002
}
1000
21
1070
     6
1002
{
1000
Prompt
1070
     4
1000
(genmsg gendwg 101)
1002
{
1002
}
1000
Value
1070
     4
1000

1002
{
1002
}
1000
EditFlag
1070
     1
1070
     1
1002
{
1002
}
1000
PosInDDATTE
1070
     1
1070
    21
1002
{
1002
}
1000
FieldLen
1070
     1
1070
    -1
1002
{
1002
}
1002
}
1000
22
1070
     6
1002
{
1000
Prompt
1070
     4
1000
(genmsg gendwg 102)
1002
{
1002
}
1000
Value
1070
     4
1000

1002
{
1002
}
1000
EditFlag
1070
     1
1070
     1
1002
{
1002
}
1000
PosInDDATTE
1070
     1
1070
    22
1002
{
1002
}
1000
FieldLen
1070
     1
1070
    -1
1002
{
1002
}
1002
}
1000
23
1070
     6
1002
{
1000
Prompt
1070
     4
1000
(genmsg gendwg 30)
1002
{
1002
}
1000
Value
1070
     4
1000

1002
{
1002
}
1000
EditFlag
1070
     1
1070
     1
1002
{
1002
}
1000
PosInDDATTE
1070
     1
1070
    23
1002
{
1002
}
1000
FieldLen
1070
     1
1070
    -1
1002
{
1002
}
1002
}
1000
24
1070
     6
1002
{
1000
Prompt
1070
     4
1000
(genmsg gendwg 104)
1002
{
1002
}
1000
Value
1070
     4
1000

1002
{
1002
}
1000
EditFlag
1070
     1
1070
     1
1002
{
1002
}
1000
PosInDDATTE
1070
     1
1070
    24
1002
{
1002
}
1000
FieldLen
1070
     1
1070
    -1
1002
{
1002
}
1002
}
1000
25
1070
     6
1002
{
1000
Prompt
1070
     4
1000
(genmsg gendwg 105)
1002
{
1002
}
1000
Value
1070
     4
1000

1002
{
1002
}
1000
EditFlag
1070
     1
1070
     1
1002
{
1002
}
1000
PosInDDATTE
1070
     1
1070
    25
1002
{
1002
}
1000
FieldLen
1070
     1
1070
    -1
1002
{
1002
}
1002
}
1000
26
1070
     6
1002
{
1000
Prompt
1070
     4
1000
(genmsg gendwg 106)
1002
{
1002
}
1000
Value
1070
     4
1000

1002
{
1002
}
1000
EditFlag
1070
     1
1070
     1
1002
{
1002
}
1000
PosInDDATTE
1070
     1
1070
    26
1002
{
1002
}
1000
FieldLen
1070
     1
1070
    -1
1002
{
1002
}
1002
}
1000
27
1070
     6
1002
{
1000
Prompt
1070
     4
1000
(genmsg gendwg 109)
1002
{
1002
}
1000
Value
1070
     4
1000

1002
{
1002
}
1000
EditFlag
1070
     1
1070
     2
1002
{
1002
}
1000
PosInDDATTE
1070
     1
1070
    27
1002
{
1002
}
1000
FieldLen
1070
     1
1070
    -1
1002
{
1002
}
1002
}
1002
}
1000
Xlate
1070
     0
1002
{
1000
>
1002
}
  0
APPID
  5
E3A
330
E01
100
AcDbSymbolTableRecord
100
AcDbRegAppTableRecord
  2
GENIUS_GENCFG2_13
 70
     0
1001
GENIUS_GENCFG_13
1071
1043418057
1000
E3A
1000
GEN@LAYER@DEFS
1070
     9
1000
GenCfgObject
1000
GenCfgShort
1000
GenCfgReal
1000
GenCfgBool
1000
GenCfgString
1000
GenCfgDim
1000
GenCfgAttrInf
1000
GenCfgLaySection
1000
GenCfgLayer
1000
Basic
1070
     0
1002
{
1000
0
1070
     8
1000
0
1002
{
1000
Color
1070
     1
1070
     7
1002
{
1002
}
1000
LType
1070
     4
1000
CONTINUOUS
1002
{
1002
}
1000
Base
1070
     3
1070
     0
1002
{
1002
}
1002
}
1000
1
1070
     8
1000
1
1002
{
1000
Color
1070
     1
1070
    14
1002
{
1002
}
1000
LType
1070
     4
1000
CONTINUOUS
1002
{
1002
}
1000
Base
1070
     3
1070
     0
1002
{
1002
}
1002
}
1000
2
1070
     8
1000
2
1002
{
1000
Color
1070
     1
1070
     5
1002
{
1002
}
1000
LType
1070
     4
1000
CONTINUOUS
1002
{
1002
}
1000
Base
1070
     3
1070
     0
1002
{
1002
}
1002
}
1000
3
1070
     8
1000
3
1002
{
1000
Color
1070
     1
1070
     6
1002
{
1002
}
1000
LType
1070
     4
1000
GEN3
1002
{
1002
}
1000
Base
1070
     3
1070
     0
1002
{
1002
}
1002
}
1000
4
1070
     8
1000
4
1002
{
1000
Color
1070
     1
1070
     3
1002
{
1002
}
1000
LType
1070
     4
1000
CONTINUOUS
1002
{
1002
}
1000
Base
1070
     3
1070
     0
1002
{
1002
}
1002
}
1000
5
1070
     8
1000
5
1002
{
1000
Color
1070
     1
1070
     3
1002
{
1002
}
1000
LType
1070
     4
1000
CONTINUOUS
1002
{
1002
}
1000
Base
1070
     3
1070
     0
1002
{
1002
}
1002
}
1000
6
1070
     8
1000
6
1002
{
1000
Color
1070
     1
1070
     2
1002
{
1002
}
1000
LType
1070
     4
1000
CONTINUOUS
1002
{
1002
}
1000
Base
1070
     3
1070
     0
1002
{
1002
}
1002
}
1000
7
1070
     8
1000
7
1002
{
1000
Color
1070
     1
1070
     4
1002
{
1002
}
1000
LType
1070
     4
1000
GEN7
1002
{
1002
}
1000
Base
1070
     3
1070
     0
1002
{
1002
}
1002
}
1000
8
1070
     8
1000
8
1002
{
1000
Color
1070
     1
1070
     1
1002
{
1002
}
1000
LType
1070
     4
1000
CONTINUOUS
1002
{
1002
}
1000
Base
1070
     3
1070
     0
1002
{
1002
}
1002
}
1000
3A
1070
     8
1000
3A
1002
{
1000
Color
1070
     1
1070
     6
1002
{
1002
}
1000
LType
1070
     4
1000
GEN3A
1002
{
1002
}
1000
Base
1070
     3
1070
     0
1002
{
1002
}
1002
}
1000
7A
1070
     8
1000
7A
1002
{
1000
Color
1070
     1
1070
     4
1002
{
1002
}
1000
LType
1070
     4
1000
GEN7A
1002
{
1002
}
1000
Base
1070
     3
1070
     0
1002
{
1002
}
1002
}
1000
2A
1070
     8
1000
2A
1002
{
1000
Color
1070
     1
1070
     7
1002
{
1002
}
1000
LType
1070
     4
1000
GEN7
1002
{
1002
}
1000
Base
1070
     3
1070
     0
1002
{
1002
}
1002
}
1000
4A
1070
     8
1000
4A
1002
{
1000
Color
1070
     1
1070
     3
1002
{
1002
}
1000
LType
1070
     4
1000
GEN4A
1002
{
1002
}
1000
Base
1070
     3
1070
     0
1002
{
1002
}
1002
}
1000
9
1070
     8
1000
9
1002
{
1000
Color
1070
     1
1070
   253
1002
{
1002
}
1000
LType
1070
     4
1000
CONTINUOUS
1002
{
1002
}
1000
Base
1070
     3
1070
     0
1002
{
1002
}
1002
}
1000
IP
1070
     8
1000
IP
1002
{
1000
Color
1070
     1
1070
     7
1002
{
1002
}
1000
LType
1070
     4
1000
CONTINUOUS
1002
{
1002
}
1000
Base
1070
     3
1070
     0
1002
{
1002
}
1002
}
1002
}
1000
Standard
1070
     0
1002
{
1000
0N
1070
     8
1000
0N
1002
{
1000
Color
1070
     1
1070
     7
1002
{
1002
}
1000
LType
1070
     4
1000
CONTINUOUS
1002
{
1002
}
1000
Base
1070
     3
1070
     0
1002
{
1002
}
1002
}
1000
1N
1070
     8
1000
1N
1002
{
1000
Color
1070
     1
1070
    14
1002
{
1002
}
1000
LType
1070
     4
1000
CONTINUOUS
1002
{
1002
}
1000
Base
1070
     3
1070
     0
1002
{
1002
}
1002
}
1000
2N
1070
     8
1000
2N
1002
{
1000
Color
1070
     1
1070
     5
1002
{
1002
}
1000
LType
1070
     4
1000
CONTINUOUS
1002
{
1002
}
1000
Base
1070
     3
1070
     0
1002
{
1002
}
1002
}
1000
3N
1070
     8
1000
3N
1002
{
1000
Color
1070
     1
1070
     6
1002
{
1002
}
1000
LType
1070
     4
1000
GEN3
1002
{
1002
}
1000
Base
1070
     3
1070
     0
1002
{
1002
}
1002
}
1000
4N
1070
     8
1000
4N
1002
{
1000
Color
1070
     1
1070
     3
1002
{
1002
}
1000
LType
1070
     4
1000
CONTINUOUS
1002
{
1002
}
1000
Base
1070
     3
1070
     0
1002
{
1002
}
1002
}
1000
5N
1070
     8
1000
5N
1002
{
1000
Color
1070
     1
1070
     3
1002
{
1002
}
1000
LType
1070
     4
1000
CONTINUOUS
1002
{
1002
}
1000
Base
1070
     3
1070
     0
1002
{
1002
}
1002
}
1000
6N
1070
     8
1000
6N
1002
{
1000
Color
1070
     1
1070
     2
1002
{
1002
}
1000
LType
1070
     4
1000
CONTINUOUS
1002
{
1002
}
1000
Base
1070
     3
1070
     0
1002
{
1002
}
1002
}
1000
7N
1070
     8
1000
7N
1002
{
1000
Color
1070
     1
1070
     4
1002
{
1002
}
1000
LType
1070
     4
1000
GEN7
1002
{
1002
}
1000
Base
1070
     3
1070
     0
1002
{
1002
}
1002
}
1000
8N
1070
     8
1000
8N
1002
{
1000
Color
1070
     1
1070
     1
1002
{
1002
}
1000
LType
1070
     4
1000
CONTINUOUS
1002
{
1002
}
1000
Base
1070
     3
1070
     0
1002
{
1002
}
1002
}
1000
3AN
1070
     8
1000
3AN
1002
{
1000
Color
1070
     1
1070
     6
1002
{
1002
}
1000
LType
1070
     4
1000
GEN3A
1002
{
1002
}
1000
Base
1070
     3
1070
     0
1002
{
1002
}
1002
}
1000
7AN
1070
     8
1000
7AN
1002
{
1000
Color
1070
     1
1070
     4
1002
{
1002
}
1000
LType
1070
     4
1000
GEN7A
1002
{
1002
}
1000
Base
1070
     3
1070
     0
1002
{
1002
}
1002
}
1000
2AN
1070
     8
1000
2AN
1002
{
1000
Color
1070
     1
1070
     7
1002
{
1002
}
1000
LType
1070
     4
1000
GEN7
1002
{
1002
}
1000
Base
1070
     3
1070
     0
1002
{
1002
}
1002
}
1000
4AN
1070
     8
1000
4AN
1002
{
1000
Color
1070
     1
1070
     3
1002
{
1002
}
1000
LType
1070
     4
1000
GEN4A
1002
{
1002
}
1000
Base
1070
     3
1070
     0
1002
{
1002
}
1002
}
1000
9N
1070
     8
1000
9N
1002
{
1000
Color
1070
     1
1070
   253
1002
{
1002
}
1000
LType
1070
     4
1000
CONTINUOUS
1002
{
1002
}
1000
Base
1070
     3
1070
     0
1002
{
1002
}
1002
}
1000
IPN
1070
     8
1000
IPN
1002
{
1000
Color
1070
     1
1070
     7
1002
{
1002
}
1000
LType
1070
     4
1000
CONTINUOUS
1002
{
1002
}
1000
Base
1070
     3
1070
     0
1002
{
1002
}
1002
}
1002
}
1000
Extra
1070
     0
1002
{
1000
Klin
1070
     8
1000
KLIN
1002
{
1000
Color
1070
     1
1070
     1
1002
{
1002
}
1000
LType
1070
     4
1000
CONTINUOUS
1002
{
1002
}
1000
Base
1070
     3
1070
     1
1002
{
1002
}
1002
}
1000
Info
1070
     8
1000
INFO
1002
{
1000
Color
1070
     1
1070
     4
1002
{
1002
}
1000
LType
1070
     4
1000
CONTINUOUS
1002
{
1002
}
1000
Base
1070
     3
1070
     1
1002
{
1002
}
1002
}
1000
Rahm2
1070
     8
1000
RAHM2
1002
{
1000
Color
1070
     1
1070
     1
1002
{
1002
}
1000
LType
1070
     4
1000
CONTINUOUS
1002
{
1002
}
1000
Base
1070
     3
1070
     1
1002
{
1002
}
1002
}
1000
Rahm3
1070
     8
1000
RAHM3
1002
{
1000
Color
1070
     1
1070
     2
1002
{
1002
}
1000
LType
1070
     4
1000
CONTINUOUS
1002
{
1002
}
1000
Base
1070
     3
1070
     1
1002
{
1002
}
1002
}
1000
Rahm5
1070
     8
1000
RAHM5
1002
{
1000
Color
1070
     1
1070
     7
1002
{
1002
}
1000
LType
1070
     4
1000
CONTINUOUS
1002
{
1002
}
1000
Base
1070
     3
1070
     1
1002
{
1002
}
1002
}
1000
View
1070
     8
1000
VIEW
1002
{
1000
Color
1070
     1
1070
     1
1002
{
1002
}
1000
LType
1070
     4
1000
CONTINUOUS
1002
{
1002
}
1000
Base
1070
     3
1070
     1
1002
{
1002
}
1002
}
1000
Behind
1070
     8
1000
BEHIND
1002
{
1000
Color
1070
     1
1070
   253
1002
{
1002
}
1000
LType
1070
     4
1000
CONTINUOUS
1002
{
1002
}
1000
Base
1070
     3
1070
     1
1002
{
1002
}
1002
}
1002
}
  0
APPID
  5
E3B
330
E01
100
AcDbSymbolTableRecord
100
AcDbRegAppTableRecord
  2
GENIUS_GENCFG3_13
 70
     0
1001
GENIUS_GENCFG_13
1071
1043418057
1000
E3B
1000
GEN@LAYER@ENTSORT
1070
    10
1000
GenCfgObject
1000
GenCfgShort
1000
GenCfgReal
1000
GenCfgBool
1000
GenCfgString
1000
GenCfgDim
1000
GenCfgAttrInf
1000
GenCfgLaySection
1000
GenCfgLayer
1000
GenCfgEntSort
1000
ADDL
1070
     9
1000
5
1002
{
1000
Class
1070
     4
1000
SYM
1002
{
1002
}
1000
Color
1070
     1
1070
     1
1002
{
1002
}
1000
LType
1070
     4
1000
BYLAYER
1002
{
1002
}
1002
}
1000
ALTR
1070
     9
1000
4
1002
{
1000
Class
1070
     4
1000

1002
{
1002
}
1000
Color
1070
     1
1070
     7
1002
{
1002
}
1000
LType
1070
     4
1000
GEN3A
1002
{
1002
}
1002
}
1000
BELI
1070
     9
1000
4
1002
{
1000
Class
1070
     4
1000

1002
{
1002
}
1000
Color
1070
     1
1070
   256
1002
{
1002
}
1000
LType
1070
     4
1000
BYLAYER
1002
{
1002
}
1002
}
1000
BHNV
1070
     9
1000
9
1002
{
1000
Class
1070
     4
1000
INV
1002
{
1002
}
1000
Color
1070
     1
1070
   256
1002
{
1002
}
1000
LType
1070
     4
1000
BYLAYER
1002
{
1002
}
1002
}
1000
BHNVS
1070
     9
1000
BEHIND
1002
{
1000
Class
1070
     4
1000
INV
1002
{
1002
}
1000
Color
1070
     1
1070
   256
1002
{
1002
}
1000
LType
1070
     4
1000
BYLAYER
1002
{
1002
}
1002
}
1000
BLID
1070
     9
1000
4A
1002
{
1000
Class
1070
     4
1000

1002
{
1002
}
1000
Color
1070
     1
1070
   256
1002
{
1002
}
1000
LType
1070
     4
1000
BYLAYER
1002
{
1002
}
1002
}
1000
BOAP
1070
     9
1000
4A
1002
{
1000
Class
1070
     4
1000

1002
{
1002
}
1000
Color
1070
     1
1070
   256
1002
{
1002
}
1000
LType
1070
     4
1000
BYLAYER
1002
{
1002
}
1002
}
1000
BOR2
1070
     9
1000
RAHM2
1002
{
1000
Class
1070
     4
1000
SPZ,SYM
1002
{
1002
}
1000
Color
1070
     1
1070
   256
1002
{
1002
}
1000
LType
1070
     4
1000
BYLAYER
1002
{
1002
}
1002
}
1000
BOR3
1070
     9
1000
RAHM3
1002
{
1000
Class
1070
     4
1000
SPZ,SYM
1002
{
1002
}
1000
Color
1070
     1
1070
   256
1002
{
1002
}
1000
LType
1070
     4
1000
BYLAYER
1002
{
1002
}
1002
}
1000
BOR5
1070
     9
1000
RAHM5
1002
{
1000
Class
1070
     4
1000
SPZ,SYM
1002
{
1002
}
1000
Color
1070
     1
1070
   256
1002
{
1002
}
1000
LType
1070
     4
1000
BYLAYER
1002
{
1002
}
1002
}
1000
BOR7
1070
     9
1000
RAHM5
1002
{
1000
Class
1070
     4
1000
SPZ,SYM
1002
{
1002
}
1000
Color
1070
     1
1070
     7
1002
{
1002
}
1000
LType
1070
     4
1000
CONTINUOUS
1002
{
1002
}
1002
}
1000
BPAP
1070
     9
1000
4A
1002
{
1000
Class
1070
     4
1000

1002
{
1002
}
1000
Color
1070
     1
1070
   256
1002
{
1002
}
1000
LType
1070
     4
1000
BYLAYER
1002
{
1002
}
1002
}
1000
BPEX
1070
     9
1000
4A
1002
{
1000
Class
1070
     4
1000

1002
{
1002
}
1000
Color
1070
     1
1070
   256
1002
{
1002
}
1000
LType
1070
     4
1000
BYLAYER
1002
{
1002
}
1002
}
1000
BTDI
1070
     9
1000
5
1002
{
1000
Class
1070
     4
1000
DIM,SYM
1002
{
1002
}
1000
Color
1070
     1
1070
   256
1002
{
1002
}
1000
LType
1070
     4
1000
BYLAYER
1002
{
1002
}
1002
}
1000
CAL2
1070
     9
1000
4
1002
{
1000
Class
1070
     4
1000
SYM
1002
{
1002
}
1000
Color
1070
     1
1070
   256
1002
{
1002
}
1000
LType
1070
     4
1000
BYLAYER
1002
{
1002
}
1002
}
1000
CAL3
1070
     9
1000
4
1002
{
1000
Class
1070
     4
1000
SYM
1002
{
1002
}
1000
Color
1070
     1
1070
     2
1002
{
1002
}
1000
LType
1070
     4
1000
BYLAYER
1002
{
1002
}
1002
}
1000
CAL5
1070
     9
1000
4
1002
{
1000
Class
1070
     4
1000
SYM
1002
{
1002
}
1000
Color
1070
     1
1070
     7
1002
{
1002
}
1000
LType
1070
     4
1000
BYLAYER
1002
{
1002
}
1002
}
1000
CAL7
1070
     9
1000
4
1002
{
1000
Class
1070
     4
1000
SYM
1002
{
1002
}
1000
Color
1070
     1
1070
     5
1002
{
1002
}
1000
LType
1070
     4
1000
BYLAYER
1002
{
1002
}
1002
}
1000
CENN
1070
     9
1000
7A
1002
{
1000
Class
1070
     4
1000
CEN
1002
{
1002
}
1000
Color
1070
     1
1070
   256
1002
{
1002
}
1000
LType
1070
     4
1000
BYLAYER
1002
{
1002
}
1002
}
1000
CENW
1070
     9
1000
7
1002
{
1000
Class
1070
     4
1000
CEN
1002
{
1002
}
1000
Color
1070
     1
1070
   256
1002
{
1002
}
1000
LType
1070
     4
1000
BYLAYER
1002
{
1002
}
1002
}
1000
CLIN
1070
     9
1000
KLIN
1002
{
1000
Class
1070
     4
1000
SPZ
1002
{
1002
}
1000
Color
1070
     1
1070
   256
1002
{
1002
}
1000
LType
1070
     4
1000
BYLAYER
1002
{
1002
}
1002
}
1000
CON1
1070
     9
1000
0
1002
{
1000
Class
1070
     4
1000
CON,BGD
1002
{
1002
}
1000
Color
1070
     1
1070
   256
1002
{
1002
}
1000
LType
1070
     4
1000
BYLAYER
1002
{
1002
}
1002
}
1000
CON2
1070
     9
1000
1
1002
{
1000
Class
1070
     4
1000
CON,BGD
1002
{
1002
}
1000
Color
1070
     1
1070
   256
1002
{
1002
}
1000
LType
1070
     4
1000
BYLAYER
1002
{
1002
}
1002
}
1000
CON3
1070
     9
1000
2
1002
{
1000
Class
1070
     4
1000
CON,BGD
1002
{
1002
}
1000
Color
1070
     1
1070
   256
1002
{
1002
}
1000
LType
1070
     4
1000
BYLAYER
1002
{
1002
}
1002
}
1000
CON4
1070
     9
1000
2
1002
{
1000
Class
1070
     4
1000
CON,BGD
1002
{
1002
}
1000
Color
1070
     1
1070
   256
1002
{
1002
}
1000
LType
1070
     4
1000
BYLAYER
1002
{
1002
}
1002
}
1000
DERP
1070
     9
1000
4
1002
{
1000
Class
1070
     4
1000

1002
{
1002
}
1000
Color
1070
     1
1070
   256
1002
{
1002
}
1000
LType
1070
     4
1000
BYLAYER
1002
{
1002
}
1002
}
1000
DETA
1070
     9
1000
4
1002
{
1000
Class
1070
     4
1000

1002
{
1002
}
1000
Color
1070
     1
1070
   256
1002
{
1002
}
1000
LType
1070
     4
1000
BYLAYER
1002
{
1002
}
1002
}
1000
DIAG
1070
     9
1000
5
1002
{
1000
Class
1070
     4
1000
SYM
1002
{
1002
}
1000
Color
1070
     1
1070
   256
1002
{
1002
}
1000
LType
1070
     4
1000
BYLAYER
1002
{
1002
}
1002
}
1000
DILI
1070
     9
1000
5
1002
{
1000
Class
1070
     4
1000
DIM,SYM
1002
{
1002
}
1000
Color
1070
     1
1070
   256
1002
{
1002
}
1000
LType
1070
     4
1000
BYLAYER
1002
{
1002
}
1002
}
1000
DITO2
1070
     9
1000
5
1002
{
1000
Class
1070
     4
1000
DIM,SYM
1002
{
1002
}
1000
Color
1070
     1
1070
     3
1002
{
1002
}
1000
LType
1070
     4
1000
BYLAYER
1002
{
1002
}
1002
}
1000
DITO3
1070
     9
1000
5
1002
{
1000
Class
1070
     4
1000
DIM,SYM
1002
{
1002
}
1000
Color
1070
     1
1070
     2
1002
{
1002
}
1000
LType
1070
     4
1000
BYLAYER
1002
{
1002
}
1002
}
1000
DITX
1070
     9
1000
5
1002
{
1000
Class
1070
     4
1000
DIM,SYM
1002
{
1002
}
1000
Color
1070
     1
1070
     2
1002
{
1002
}
1000
LType
1070
     4
1000
CONTINUOUS
1002
{
1002
}
1002
}
1000
DIXL
1070
     9
1000
5
1002
{
1000
Class
1070
     4
1000
DIM,SYM
1002
{
1002
}
1000
Color
1070
     1
1070
   256
1002
{
1002
}
1000
LType
1070
     4
1000
BYLAYER
1002
{
1002
}
1002
}
1000
EXMP
1070
     9
1000
4A
1002
{
1000
Class
1070
     4
1000

1002
{
1002
}
1000
Color
1070
     1
1070
   256
1002
{
1002
}
1000
LType
1070
     4
1000
BYLAYER
1002
{
1002
}
1002
}
1000
FEMN
1070
     9
1000
8
1002
{
1000
Class
1070
     4
1000

1002
{
1002
}
1000
Color
1070
     1
1070
   256
1002
{
1002
}
1000
LType
1070
     4
1000
BYLAYER
1002
{
1002
}
1002
}
1000
FEMPN
1070
     9
1000
8
1002
{
1000
Class
1070
     4
1000
SYM
1002
{
1002
}
1000
Color
1070
     1
1070
     3
1002
{
1002
}
1000
LType
1070
     4
1000
BYLAYER
1002
{
1002
}
1002
}
1000
FEMSP
1070
     9
1000
4A
1002
{
1000
Class
1070
     4
1000

1002
{
1002
}
1000
Color
1070
     1
1070
   256
1002
{
1002
}
1000
LType
1070
     4
1000
CONTINUOUS
1002
{
1002
}
1002
}
1000
FEMST
1070
     9
1000
4A
1002
{
1000
Class
1070
     4
1000
SYM
1002
{
1002
}
1000
Color
1070
     1
1070
     3
1002
{
1002
}
1000
LType
1070
     4
1000
BYLAYER
1002
{
1002
}
1002
}
1000
FEMVN
1070
     9
1000
2
1002
{
1000
Class
1070
     4
1000
CON
1002
{
1002
}
1000
Color
1070
     1
1070
   256
1002
{
1002
}
1000
LType
1070
     4
1000
BYLAYER
1002
{
1002
}
1002
}
1000
FEMVT
1070
     9
1000
2
1002
{
1000
Class
1070
     4
1000
SYM
1002
{
1002
}
1000
Color
1070
     1
1070
     3
1002
{
1002
}
1000
LType
1070
     4
1000
BYLAYER
1002
{
1002
}
1002
}
1000
FLAT
1070
     9
1000
0
1002
{
1000
Class
1070
     4
1000

1002
{
1002
}
1000
Color
1070
     1
1070
   256
1002
{
1002
}
1000
LType
1070
     4
1000
BYLAYER
1002
{
1002
}
1002
}
1000
FRAR
1070
     9
1000
4A
1002
{
1000
Class
1070
     4
1000

1002
{
1002
}
1000
Color
1070
     1
1070
   256
1002
{
1002
}
1000
LType
1070
     4
1000
BYLAYER
1002
{
1002
}
1002
}
1000
GRLI
1070
     9
1000
5
1002
{
1000
Class
1070
     4
1000
SYM
1002
{
1002
}
1000
Color
1070
     1
1070
   256
1002
{
1002
}
1000
LType
1070
     4
1000
BYLAYER
1002
{
1002
}
1002
}
1000
GVLI
1070
     9
1000
4A
1002
{
1000
Class
1070
     4
1000

1002
{
1002
}
1000
Color
1070
     1
1070
   256
1002
{
1002
}
1000
LType
1070
     4
1000
BYLAYER
1002
{
1002
}
1002
}
1000
HATC
1070
     9
1000
8
1002
{
1000
Class
1070
     4
1000
HTC,BGD
1002
{
1002
}
1000
Color
1070
     1
1070
   256
1002
{
1002
}
1000
LType
1070
     4
1000
BYLAYER
1002
{
1002
}
1002
}
1000
HIDN
1070
     9
1000
3A
1002
{
1000
Class
1070
     4
1000
HID,BGD
1002
{
1002
}
1000
Color
1070
     1
1070
   256
1002
{
1002
}
1000
LType
1070
     4
1000
BYLAYER
1002
{
1002
}
1002
}
1000
HIDW
1070
     9
1000
3
1002
{
1000
Class
1070
     4
1000
HID,BGD
1002
{
1002
}
1000
Color
1070
     1
1070
   256
1002
{
1002
}
1000
LType
1070
     4
1000
BYLAYER
1002
{
1002
}
1002
}
1000
HLIN
1070
     9
1000
4
1002
{
1000
Class
1070
     4
1000
BGD
1002
{
1002
}
1000
Color
1070
     1
1070
   256
1002
{
1002
}
1000
LType
1070
     4
1000
BYLAYER
1002
{
1002
}
1002
}
1000
HOCN
1070
     9
1000
7A
1002
{
1000
Class
1070
     4
1000
CEN
1002
{
1002
}
1000
Color
1070
     1
1070
   256
1002
{
1002
}
1000
LType
1070
     4
1000
BYLAYER
1002
{
1002
}
1002
}
1000
HOCW
1070
     9
1000
7
1002
{
1000
Class
1070
     4
1000
CEN
1002
{
1002
}
1000
Color
1070
     1
1070
   256
1002
{
1002
}
1000
LType
1070
     4
1000
BYLAYER
1002
{
1002
}
1002
}
1000
INFO
1070
     9
1000
INFO
1002
{
1000
Class
1070
     4
1000
SPZ,SYM
1002
{
1002
}
1000
Color
1070
     1
1070
   256
1002
{
1002
}
1000
LType
1070
     4
1000
BYLAYER
1002
{
1002
}
1002
}
1000
LADI
1070
     9
1000
4
1002
{
1000
Class
1070
     4
1000
BGD
1002
{
1002
}
1000
Color
1070
     1
1070
   256
1002
{
1002
}
1000
LType
1070
     4
1000
BYLAYER
1002
{
1002
}
1002
}
1000
LEAD
1070
     9
1000
5
1002
{
1000
Class
1070
     4
1000
SYM
1002
{
1002
}
1000
Color
1070
     1
1070
   256
1002
{
1002
}
1000
LType
1070
     4
1000
BYLAYER
1002
{
1002
}
1002
}
1000
N_ADDL
1070
     9
1000
5N
1002
{
1000
Class
1070
     4
1000
SYM
1002
{
1002
}
1000
Color
1070
     1
1070
     1
1002
{
1002
}
1000
LType
1070
     4
1000
BYLAYER
1002
{
1002
}
1002
}
1000
N_BHNV
1070
     9
1000
9N
1002
{
1000
Class
1070
     4
1000
INV
1002
{
1002
}
1000
Color
1070
     1
1070
   256
1002
{
1002
}
1000
LType
1070
     4
1000
BYLAYER
1002
{
1002
}
1002
}
1000
N_CON1
1070
     9
1000
0N
1002
{
1000
Class
1070
     4
1000
CON,BGD
1002
{
1002
}
1000
Color
1070
     1
1070
   256
1002
{
1002
}
1000
LType
1070
     4
1000
BYLAYER
1002
{
1002
}
1002
}
1000
N_CON2
1070
     9
1000
1N
1002
{
1000
Class
1070
     4
1000
CON,BGD
1002
{
1002
}
1000
Color
1070
     1
1070
   256
1002
{
1002
}
1000
LType
1070
     4
1000
BYLAYER
1002
{
1002
}
1002
}
1000
N_CON3
1070
     9
1000
2N
1002
{
1000
Class
1070
     4
1000
CON,BGD
1002
{
1002
}
1000
Color
1070
     1
1070
   256
1002
{
1002
}
1000
LType
1070
     4
1000
BYLAYER
1002
{
1002
}
1002
}
1000
N_CON4
1070
     9
1000
2N
1002
{
1000
Class
1070
     4
1000
CON,BGD
1002
{
1002
}
1000
Color
1070
     1
1070
   256
1002
{
1002
}
1000
LType
1070
     4
1000
BYLAYER
1002
{
1002
}
1002
}
1000
N_CENN
1070
     9
1000
7AN
1002
{
1000
Class
1070
     4
1000
CEN
1002
{
1002
}
1000
Color
1070
     1
1070
   256
1002
{
1002
}
1000
LType
1070
     4
1000
BYLAYER
1002
{
1002
}
1002
}
1000
N_CENW
1070
     9
1000
7N
1002
{
1000
Class
1070
     4
1000
CEN
1002
{
1002
}
1000
Color
1070
     1
1070
   256
1002
{
1002
}
1000
LType
1070
     4
1000
BYLAYER
1002
{
1002
}
1002
}
1000
N_DILI
1070
     9
1000
5N
1002
{
1000
Class
1070
     4
1000
DIM,SYM
1002
{
1002
}
1000
Color
1070
     1
1070
   256
1002
{
1002
}
1000
LType
1070
     4
1000
BYLAYER
1002
{
1002
}
1002
}
1000
N_DITX
1070
     9
1000
5N
1002
{
1000
Class
1070
     4
1000
DIM,SYM
1002
{
1002
}
1000
Color
1070
     1
1070
     2
1002
{
1002
}
1000
LType
1070
     4
1000
CONTINUOUS
1002
{
1002
}
1002
}
1000
N_DIXL
1070
     9
1000
5N
1002
{
1000
Class
1070
     4
1000
DIM,SYM
1002
{
1002
}
1000
Color
1070
     1
1070
   256
1002
{
1002
}
1000
LType
1070
     4
1000
BYLAYER
1002
{
1002
}
1002
}
1000
N_HATC
1070
     9
1000
8N
1002
{
1000
Class
1070
     4
1000
HTC,BGD
1002
{
1002
}
1000
Color
1070
     1
1070
   256
1002
{
1002
}
1000
LType
1070
     4
1000
BYLAYER
1002
{
1002
}
1002
}
1000
N_HIDN
1070
     9
1000
3AN
1002
{
1000
Class
1070
     4
1000
HID,BGD
1002
{
1002
}
1000
Color
1070
     1
1070
   256
1002
{
1002
}
1000
LType
1070
     4
1000
BYLAYER
1002
{
1002
}
1002
}
1000
N_HIDW
1070
     9
1000
3N
1002
{
1000
Class
1070
     4
1000
HID,BGD
1002
{
1002
}
1000
Color
1070
     1
1070
   256
1002
{
1002
}
1000
LType
1070
     4
1000
BYLAYER
1002
{
1002
}
1002
}
1000
N_NGIP
1070
     9
1000
IPN
1002
{
1000
Class
1070
     4
1000

1002
{
1002
}
1000
Color
1070
     1
1070
   256
1002
{
1002
}
1000
LType
1070
     4
1000
BYLAYER
1002
{
1002
}
1002
}
1000
N_PHAN
1070
     9
1000
4AN
1002
{
1000
Class
1070
     4
1000

1002
{
1002
}
1000
Color
1070
     1
1070
   256
1002
{
1002
}
1000
LType
1070
     4
1000
BYLAYER
1002
{
1002
}
1002
}
1000
N_POSL
1070
     9
1000
5N
1002
{
1000
Class
1070
     4
1000
SYM
1002
{
1002
}
1000
Color
1070
     1
1070
   256
1002
{
1002
}
1000
LType
1070
     4
1000
BYLAYER
1002
{
1002
}
1002
}
1000
N_TCON
1070
     9
1000
0N
1002
{
1000
Class
1070
     4
1000
CON,BGD
1002
{
1002
}
1000
Color
1070
     1
1070
   256
1002
{
1002
}
1000
LType
1070
     4
1000
BYLAYER
1002
{
1002
}
1002
}
1000
N_THLI
1070
     9
1000
4N
1002
{
1000
Class
1070
     4
1000
BGD
1002
{
1002
}
1000
Color
1070
     1
1070
   256
1002
{
1002
}
1000
LType
1070
     4
1000
BYLAYER
1002
{
1002
}
1002
}
1000
N_TLEN
1070
     9
1000
0N
1002
{
1000
Class
1070
     4
1000
CON,BGD
1002
{
1002
}
1000
Color
1070
     1
1070
   256
1002
{
1002
}
1000
LType
1070
     4
1000
BYLAYER
1002
{
1002
}
1002
}
1000
N_TXT3
1070
     9
1000
6N
1002
{
1000
Class
1070
     4
1000
SYM
1002
{
1002
}
1000
Color
1070
     1
1070
   256
1002
{
1002
}
1000
LType
1070
     4
1000
BYLAYER
1002
{
1002
}
1002
}
1000
N_VPLI
1070
     9
1000
2AN
1002
{
1000
Class
1070
     4
1000

1002
{
1002
}
1000
Color
1070
     1
1070
   256
1002
{
1002
}
1000
LType
1070
     4
1000
BYLAYER
1002
{
1002
}
1002
}
1000
NGIP
1070
     9
1000
IP
1002
{
1000
Class
1070
     4
1000

1002
{
1002
}
1000
Color
1070
     1
1070
   256
1002
{
1002
}
1000
LType
1070
     4
1000
BYLAYER
1002
{
1002
}
1002
}
1000
PAL2
1070
     9
1000
RAHM2
1002
{
1000
Class
1070
     4
1000
SPZ,SYM
1002
{
1002
}
1000
Color
1070
     1
1070
   256
1002
{
1002
}
1000
LType
1070
     4
1000
BYLAYER
1002
{
1002
}
1002
}
1000
PAL3
1070
     9
1000
RAHM3
1002
{
1000
Class
1070
     4
1000
SPZ,SYM
1002
{
1002
}
1000
Color
1070
     1
1070
   256
1002
{
1002
}
1000
LType
1070
     4
1000
BYLAYER
1002
{
1002
}
1002
}
1000
PAL5
1070
     9
1000
RAHM5
1002
{
1000
Class
1070
     4
1000
SPZ,SYM
1002
{
1002
}
1000
Color
1070
     1
1070
   256
1002
{
1002
}
1000
LType
1070
     4
1000
BYLAYER
1002
{
1002
}
1002
}
1000
PAL7
1070
     9
1000
RAHM5
1002
{
1000
Class
1070
     4
1000
SPZ,SYM
1002
{
1002
}
1000
Color
1070
     1
1070
     7
1002
{
1002
}
1000
LType
1070
     4
1000
CONTINUOUS
1002
{
1002
}
1002
}
1000
PHAN
1070
     9
1000
4A
1002
{
1000
Class
1070
     4
1000

1002
{
1002
}
1000
Color
1070
     1
1070
   256
1002
{
1002
}
1000
LType
1070
     4
1000
BYLAYER
1002
{
1002
}
1002
}
1000
POSL
1070
     9
1000
5
1002
{
1000
Class
1070
     4
1000
SYM
1002
{
1002
}
1000
Color
1070
     1
1070
   256
1002
{
1002
}
1000
LType
1070
     4
1000
BYLAYER
1002
{
1002
}
1002
}
1000
POSN
1070
     9
1000
6
1002
{
1000
Class
1070
     4
1000
SYM
1002
{
1002
}
1000
Color
1070
     1
1070
     7
1002
{
1002
}
1000
LType
1070
     4
1000
BYLAYER
1002
{
1002
}
1002
}
1000
POSREF
1070
     9
1000
6
1002
{
1000
Class
1070
     4
1000
SYM
1002
{
1002
}
1000
Color
1070
     1
1070
     5
1002
{
1002
}
1000
LType
1070
     4
1000
BYLAYER
1002
{
1002
}
1002
}
1000
POSX
1070
     9
1000
5
1002
{
1000
Class
1070
     4
1000
SYM
1002
{
1002
}
1000
Color
1070
     1
1070
     2
1002
{
1002
}
1000
LType
1070
     4
1000
CONTINUOUS
1002
{
1002
}
1002
}
1000
PSEC
1070
     9
1000
4A
1002
{
1000
Class
1070
     4
1000

1002
{
1002
}
1000
Color
1070
     1
1070
   256
1002
{
1002
}
1000
LType
1070
     4
1000
BYLAYER
1002
{
1002
}
1002
}
1000
RCGN
1070
     9
1000
7A
1002
{
1000
Class
1070
     4
1000
CEN
1002
{
1002
}
1000
Color
1070
     1
1070
   256
1002
{
1002
}
1000
LType
1070
     4
1000
BYLAYER
1002
{
1002
}
1002
}
1000
RCGW
1070
     9
1000
7
1002
{
1000
Class
1070
     4
1000
CEN
1002
{
1002
}
1000
Color
1070
     1
1070
   256
1002
{
1002
}
1000
LType
1070
     4
1000
BYLAYER
1002
{
1002
}
1002
}
1000
RFDI
1070
     9
1000
4
1002
{
1000
Class
1070
     4
1000
BGD
1002
{
1002
}
1000
Color
1070
     1
1070
   256
1002
{
1002
}
1000
LType
1070
     4
1000
BYLAYER
1002
{
1002
}
1002
}
1000
RQTR
1070
     9
1000
4
1002
{
1000
Class
1070
     4
1000

1002
{
1002
}
1000
Color
1070
     1
1070
     7
1002
{
1002
}
1000
LType
1070
     4
1000
GEN7A
1002
{
1002
}
1002
}
1000
RSBO
1070
     9
1000
4
1002
{
1000
Class
1070
     4
1000
BGD
1002
{
1002
}
1000
Color
1070
     1
1070
   256
1002
{
1002
}
1000
LType
1070
     4
1000
BYLAYER
1002
{
1002
}
1002
}
1000
SBRK
1070
     9
1000
4
1002
{
1000
Class
1070
     4
1000
BGD
1002
{
1002
}
1000
Color
1070
     1
1070
   256
1002
{
1002
}
1000
LType
1070
     4
1000
BYLAYER
1002
{
1002
}
1002
}
1000
SCEN
1070
     9
1000
7
1002
{
1000
Class
1070
     4
1000

1002
{
1002
}
1000
Color
1070
     1
1070
   256
1002
{
1002
}
1000
LType
1070
     4
1000
CONTINUOUS
1002
{
1002
}
1002
}
1000
SECT
1070
     9
1000
4
1002
{
1000
Class
1070
     4
1000
BGD
1002
{
1002
}
1000
Color
1070
     1
1070
   256
1002
{
1002
}
1000
LType
1070
     4
1000
BYLAYER
1002
{
1002
}
1002
}
1000
SELN
1070
     9
1000
7A
1002
{
1000
Class
1070
     4
1000

1002
{
1002
}
1000
Color
1070
     1
1070
   256
1002
{
1002
}
1000
LType
1070
     4
1000
BYLAYER
1002
{
1002
}
1002
}
1000
SELW
1070
     9
1000
7
1002
{
1000
Class
1070
     4
1000

1002
{
1002
}
1000
Color
1070
     1
1070
   256
1002
{
1002
}
1000
LType
1070
     4
1000
BYLAYER
1002
{
1002
}
1002
}
1000
SSYS
1070
     9
1000
0
1002
{
1000
Class
1070
     4
1000

1002
{
1002
}
1000
Color
1070
     1
1070
   256
1002
{
1002
}
1000
LType
1070
     4
1000
BYLAYER
1002
{
1002
}
1002
}
1000
STLI
1070
     9
1000
4
1002
{
1000
Class
1070
     4
1000

1002
{
1002
}
1000
Color
1070
     1
1070
     7
1002
{
1002
}
1000
LType
1070
     4
1000
GEN3A
1002
{
1002
}
1002
}
1000
SYB1
1070
     9
1000
5
1002
{
1000
Class
1070
     4
1000
SYM
1002
{
1002
}
1000
Color
1070
     1
1070
   256
1002
{
1002
}
1000
LType
1070
     4
1000
BYLAYER
1002
{
1002
}
1002
}
1000
SYB2
1070
     9
1000
5
1002
{
1000
Class
1070
     4
1000
SYM
1002
{
1002
}
1000
Color
1070
     1
1070
   256
1002
{
1002
}
1000
LType
1070
     4
1000
BYLAYER
1002
{
1002
}
1002
}
1000
SYB3
1070
     9
1000
6
1002
{
1000
Class
1070
     4
1000
SYM
1002
{
1002
}
1000
Color
1070
     1
1070
   256
1002
{
1002
}
1000
LType
1070
     4
1000
CONTINUOUS
1002
{
1002
}
1002
}
1000
SYB5
1070
     9
1000
5
1002
{
1000
Class
1070
     4
1000
SYM
1002
{
1002
}
1000
Color
1070
     1
1070
     7
1002
{
1002
}
1000
LType
1070
     4
1000
BYLAYER
1002
{
1002
}
1002
}
1000
SYMN
1070
     9
1000
7A
1002
{
1000
Class
1070
     4
1000
CEN
1002
{
1002
}
1000
Color
1070
     1
1070
   256
1002
{
1002
}
1000
LType
1070
     4
1000
BYLAYER
1002
{
1002
}
1002
}
1000
SYMW
1070
     9
1000
7
1002
{
1000
Class
1070
     4
1000
CEN
1002
{
1002
}
1000
Color
1070
     1
1070
   256
1002
{
1002
}
1000
LType
1070
     4
1000
BYLAYER
1002
{
1002
}
1002
}
1000
TCON
1070
     9
1000
0
1002
{
1000
Class
1070
     4
1000
CON,BGD
1002
{
1002
}
1000
Color
1070
     1
1070
   256
1002
{
1002
}
1000
LType
1070
     4
1000
BYLAYER
1002
{
1002
}
1002
}
1000
THLI
1070
     9
1000
4
1002
{
1000
Class
1070
     4
1000
BGD
1002
{
1002
}
1000
Color
1070
     1
1070
   256
1002
{
1002
}
1000
LType
1070
     4
1000
BYLAYER
1002
{
1002
}
1002
}
1000
TIT2
1070
     9
1000
RAHM2
1002
{
1000
Class
1070
     4
1000
SPZ,SYM
1002
{
1002
}
1000
Color
1070
     1
1070
   256
1002
{
1002
}
1000
LType
1070
     4
1000
BYLAYER
1002
{
1002
}
1002
}
1000
TIT3
1070
     9
1000
RAHM3
1002
{
1000
Class
1070
     4
1000
SPZ,SYM
1002
{
1002
}
1000
Color
1070
     1
1070
   256
1002
{
1002
}
1000
LType
1070
     4
1000
BYLAYER
1002
{
1002
}
1002
}
1000
TIT5
1070
     9
1000
RAHM5
1002
{
1000
Class
1070
     4
1000
SPZ,SYM
1002
{
1002
}
1000
Color
1070
     1
1070
   256
1002
{
1002
}
1000
LType
1070
     4
1000
BYLAYER
1002
{
1002
}
1002
}
1000
TIT7
1070
     9
1000
RAHM5
1002
{
1000
Class
1070
     4
1000
SPZ,SYM
1002
{
1002
}
1000
Color
1070
     1
1070
     7
1002
{
1002
}
1000
LType
1070
     4
1000
CONTINUOUS
1002
{
1002
}
1002
}
1000
TLEN
1070
     9
1000
0
1002
{
1000
Class
1070
     4
1000
CON,BGD
1002
{
1002
}
1000
Color
1070
     1
1070
   256
1002
{
1002
}
1000
LType
1070
     4
1000
BYLAYER
1002
{
1002
}
1002
}
1000
TRKN
1070
     9
1000
7A
1002
{
1000
Class
1070
     4
1000

1002
{
1002
}
1000
Color
1070
     1
1070
   256
1002
{
1002
}
1000
LType
1070
     4
1000
BYLAYER
1002
{
1002
}
1002
}
1000
TRKW
1070
     9
1000
7
1002
{
1000
Class
1070
     4
1000

1002
{
1002
}
1000
Color
1070
     1
1070
   256
1002
{
1002
}
1000
LType
1070
     4
1000
BYLAYER
1002
{
1002
}
1002
}
1000
TRLI
1070
     9
1000
4
1002
{
1000
Class
1070
     4
1000
BGD
1002
{
1002
}
1000
Color
1070
     1
1070
   256
1002
{
1002
}
1000
LType
1070
     4
1000
BYLAYER
1002
{
1002
}
1002
}
1000
TXT1
1070
     9
1000
6
1002
{
1000
Class
1070
     4
1000
SYM
1002
{
1002
}
1000
Color
1070
     1
1070
     2
1002
{
1002
}
1000
LType
1070
     4
1000
BYLAYER
1002
{
1002
}
1002
}
1000
TXT2
1070
     9
1000
6
1002
{
1000
Class
1070
     4
1000
SYM
1002
{
1002
}
1000
Color
1070
     1
1070
     2
1002
{
1002
}
1000
LType
1070
     4
1000
BYLAYER
1002
{
1002
}
1002
}
1000
TXT3
1070
     9
1000
6
1002
{
1000
Class
1070
     4
1000
SYM
1002
{
1002
}
1000
Color
1070
     1
1070
   256
1002
{
1002
}
1000
LType
1070
     4
1000
BYLAYER
1002
{
1002
}
1002
}
1000
TXT5
1070
     9
1000
6
1002
{
1000
Class
1070
     4
1000
SYM
1002
{
1002
}
1000
Color
1070
     1
1070
     7
1002
{
1002
}
1000
LType
1070
     4
1000
BYLAYER
1002
{
1002
}
1002
}
1000
TXT7
1070
     9
1000
6
1002
{
1000
Class
1070
     4
1000
SYM
1002
{
1002
}
1000
Color
1070
     1
1070
     7
1002
{
1002
}
1000
LType
1070
     4
1000
BYLAYER
1002
{
1002
}
1002
}
1000
VIEW
1070
     9
1000
VIEW
1002
{
1000
Class
1070
     4
1000
SPZ
1002
{
1002
}
1000
Color
1070
     1
1070
   256
1002
{
1002
}
1000
LType
1070
     4
1000
BYLAYER
1002
{
1002
}
1002
}
1000
VPLI
1070
     9
1000
2A
1002
{
1000
Class
1070
     4
1000

1002
{
1002
}
1000
Color
1070
     1
1070
   256
1002
{
1002
}
1000
LType
1070
     4
1000
BYLAYER
1002
{
1002
}
1002
}
1000
ZIZA
1070
     9
1000
4
1002
{
1000
Class
1070
     4
1000
BGD
1002
{
1002
}
1000
Color
1070
     1
1070
   256
1002
{
1002
}
1000
LType
1070
     4
1000
GENZIGZAG
1002
{
1002
}
1002
}
  0
APPID
  5
E3C
330
E01
100
AcDbSymbolTableRecord
100
AcDbRegAppTableRecord
  2
GENIUS_GENCFG4_13
 70
     0
1001
GENIUS_GENCFG_13
1071
1043419351
1000
E3C
1000
GEN
1070
     9
1000
GenCfgObject
1000
GenCfgShort
1000
GenCfgReal
1000
GenCfgBool
1000
GenCfgString
1000
GenCfgDim
1000
GenCfgLaySection
1000
GenCfgLType
1000
GenCfgFilter
1000
Balloon
1070
     0
1002
{
1000
GenIF
1070
     1
1070
     0
1002
{
1002
}
1000
GenPosInc
1070
     1
1070
     1
1002
{
1002
}
1000
GenPosBlk
1070
     1
1070
     8
1002
{
1002
}
1000
GenPosVar
1070
     1
1070
     0
1002
{
1002
}
1000
GenZiCir
1070
     2
1040
1.5
1002
{
1002
}
1000
MaxCharForCenteredText
1070
     1
1070
    30
1002
{
1002
}
1000
Snap
1070
     0
1002
{
1000
ActivationRadius
1070
     2
1040
1.0
1002
{
1002
}
1000
M
1070
     0
1002
{
1000
SnapStepX
1070
     2
1040
20.0
1002
{
1002
}
1000
SnapStepY
1070
     2
1040
10.0
1002
{
1002
}
1002
}
1000
I
1070
     0
1002
{
1000
SnapStepX
1070
     2
1040
1.0
1002
{
1002
}
1000
SnapStepY
1070
     2
1040
0.5
1002
{
1002
}
1002
}
1002
}
1002
}
1000
Centerline
1070
     0
1002
{
1000
ScaleNot
1070
     3
1070
     0
1002
{
1002
}
1000
M
1070
     0
1002
{
1000
GenCenAng
1070
     4
1000
45|90|135
1002
{
1002
}
1000
GenCenDia
1070
     2
1040
10.0
1002
{
1002
}
1000
GenCenDias
1070
     4
1000
10|20|30
1002
{
1002
}
1000
GenCenDist
1070
     2
1040
3.0
1002
{
1002
}
1000
GenCenLen
1070
     2
1040
10.0
1002
{
1002
}
1000
GenCenOff
1070
     2
1040
10.0
1002
{
1002
}
1002
}
1000
I
1070
     0
1002
{
1000
GenCenAng
1070
     4
1000
45|90|135
1002
{
1002
}
1000
GenCenDia
1070
     2
1040
0.5
1002
{
1002
}
1000
GenCenDias
1070
     4
1000
0.5|1.0|1.5
1002
{
1002
}
1000
GenCenDist
1070
     2
1040
0.125
1002
{
1002
}
1000
GenCenLen
1070
     2
1040
0.5
1002
{
1002
}
1000
GenCenOff
1070
     2
1040
0.5
1002
{
1002
}
1002
}
1002
}
1000
CLine
1070
     0
1002
{
1000
CAngArray
1070
     4
1000
30|45|60
1002
{
1002
}
1000
Typ
1070
     4
1000
XLINE
1002
{
1002
}
1000
M
1070
     0
1002
{
1000
CLinArray
1070
     4
1000
10|20|30
1002
{
1002
}
1002
}
1000
I
1070
     0
1002
{
1000
CLinArray
1070
     4
1000
0.125|0.25|0.5
1002
{
1002
}
1002
}
1002
}
1000
Detail
1070
     0
1002
{
1002
}
1000
Dimension
1070
     5
1002
{
1000
DIMALT
1070
     1
1070
     0
1002
{
1002
}
1000
DIMALTD
1070
     1
1070
     2
1002
{
1002
}
1000
DIMALTTD
1070
     1
1070
     4
1002
{
1002
}
1000
DIMALTTZ
1070
     1
1070
     0
1002
{
1002
}
1000
DIMALTU
1070
     1
1070
     2
1002
{
1002
}
1000
DIMALTZ
1070
     1
1070
     0
1002
{
1002
}
1000
DIMAUNIT
1070
     1
1070
     0
1002
{
1002
}
1000
DIMBLK
1070
     4
1000

1002
{
1002
}
1000
DIMBLK1
1070
     4
1000

1002
{
1002
}
1000
DIMBLK2
1070
     4
1000

1002
{
1002
}
1000
DIMCLRD
1070
     1
1070
   256
1002
{
1002
}
1000
DIMCLRE
1070
     1
1070
   256
1002
{
1002
}
1000
DIMCLRT
1070
     1
1070
     2
1002
{
1002
}
1000
DIMDLE
1070
     2
1040
0.0
1002
{
1002
}
1000
DIMFIT
1070
     1
1070
     3
1002
{
1002
}
1000
DIMJUST
1070
     1
1070
     0
1002
{
1002
}
1000
DIMLFAC
1070
     2
1040
1.0
1002
{
1002
}
1000
DIMLIM
1070
     1
1070
     0
1002
{
1002
}
1000
DIMPOST
1070
     4
1000

1002
{
1002
}
1000
DIMRND
1070
     2
1040
0.0
1002
{
1002
}
1000
DIMSAH
1070
     1
1070
     0
1002
{
1002
}
1000
DIMSCALE
1070
     2
1040
1.0
1002
{
1002
}
1000
DIMSD1
1070
     1
1070
     0
1002
{
1002
}
1000
DIMSD2
1070
     1
1070
     0
1002
{
1002
}
1000
DIMSE1
1070
     1
1070
     0
1002
{
1002
}
1000
DIMSE2
1070
     1
1070
     0
1002
{
1002
}
1000
DIMSOXD
1070
     1
1070
     0
1002
{
1002
}
1000
DIMTAD
1070
     1
1070
     0
1002
{
1002
}
1000
DIMTFAC
1070
     2
1040
0.71
1002
{
1002
}
1000
DIMTIH
1070
     1
1070
     0
1002
{
1002
}
1000
DIMTIX
1070
     1
1070
     0
1002
{
1002
}
1000
DIMTM
1070
     2
1040
0.1
1002
{
1002
}
1000
DIMTOFL
1070
     1
1070
     0
1002
{
1002
}
1000
DIMTOH
1070
     1
1070
     0
1002
{
1002
}
1000
DIMTOL
1070
     1
1070
     0
1002
{
1002
}
1000
DIMTOLJ
1070
     1
1070
     1
1002
{
1002
}
1000
DIMTP
1070
     2
1040
0.1
1002
{
1002
}
1000
DIMTSZ
1070
     2
1040
0.0
1002
{
1002
}
1000
DIMTVP
1070
     2
1040
0.0
1002
{
1002
}
1000
DIMTXSTY
1070
     4
1000
STANDARD
1002
{
1002
}
1000
DIMTZIN
1070
     1
1070
     0
1002
{
1002
}
1000
DIMUNIT
1070
     1
1070
     2
1002
{
1002
}
1000
DIMUPT
1070
     1
1070
     0
1002
{
1002
}
1000
M
1070
     0
1002
{
1000
DIMALTF
1070
     2
1040
0.03937
1002
{
1002
}
1000
DIMAPOST
1070
     4
1000
"
1002
{
1002
}
1000
DIMASZ
1070
     2
1040
2.5
1002
{
1002
}
1000
DIMCEN
1070
     2
1040
0.0
1002
{
1002
}
1000
DIMDEC
1070
     1
1070
     2
1002
{
1002
}
1000
DIMDLI
1070
     2
1040
7.0
1002
{
1002
}
1000
DIMEXE
1070
     2
1040
1.0
1002
{
1002
}
1000
DIMEXO
1070
     2
1040
1.0
1002
{
1002
}
1000
DIMGAP
1070
     2
1040
0.6
1002
{
1002
}
1000
DIMTDEC
1070
     1
1070
     3
1002
{
1002
}
1000
DIMTXT
1070
     2
1040
3.5
1002
{
1002
}
1000
DIMZIN
1070
     1
1070
     8
1002
{
1002
}
1002
}
1000
I
1070
     0
1002
{
1000
DIMALTF
1070
     2
1040
25.4
1002
{
1002
}
1000
DIMAPOST
1070
     4
1000
mm
1002
{
1002
}
1000
DIMASZ
1070
     2
1040
0.1
1002
{
1002
}
1000
DIMCEN
1070
     2
1040
0.0
1002
{
1002
}
1000
DIMDEC
1070
     1
1070
     4
1002
{
1002
}
1000
DIMDLI
1070
     2
1040
0.5
1002
{
1002
}
1000
DIMEXE
1070
     2
1040
0.1
1002
{
1002
}
1000
DIMEXO
1070
     2
1040
0.05
1002
{
1002
}
1000
DIMGAP
1070
     2
1040
0.06
1002
{
1002
}
1000
DIMTDEC
1070
     1
1070
     4
1002
{
1002
}
1000
DIMTXT
1070
     2
1040
0.12
1002
{
1002
}
1000
DIMZIN
1070
     1
1070
     7
1002
{
1002
}
1002
}
1000
GEN-ISO
1070
     5
1002
{
1000
NAME
1070
     4
1000
GEN-ISO
1002
{
1002
}
1000
DIMTAD
1070
     1
1070
     1
1002
{
1002
}
1000
DIMTOLJ
1070
     1
1070
     0
1002
{
1002
}
1000
DIMTOFL
1070
     1
1070
     1
1002
{
1002
}
1000
M
1070
     0
1002
{
1002
}
1000
I
1070
     0
1002
{
1002
}
1002
}
1000
GEN-ISO-POS
1070
     5
1002
{
1000
NAME
1070
     4
1000
GEN-ISO-POS
1002
{
1002
}
1000
DIMTOLJ
1070
     1
1070
     0
1002
{
1002
}
1000
DIMTXSTY
1070
     4
1000
STANDARD
1002
{
1002
}
1000
M
1070
     0
1002
{
1000
DIMASZ
1070
     2
1040
2.5
1002
{
1002
}
1000
DIMGAP
1070
     2
1040
1.5
1002
{
1002
}
1000
DIMTXT
1070
     2
1040
5.0
1002
{
1002
}
1002
}
1000
I
1070
     0
1002
{
1000
DIMASZ
1070
     2
1040
0.1
1002
{
1002
}
1000
DIMGAP
1070
     2
1040
0.06
1002
{
1002
}
1000
DIMTXT
1070
     2
1040
0.2
1002
{
1002
}
1002
}
1002
}
1000
GEN-ISO-CIR
1070
     5
1002
{
1000
NAME
1070
     4
1000
GEN-ISO$3
1002
{
1002
}
1000
DIMFIT
1070
     1
1070
     0
1002
{
1002
}
1000
DIMTAD
1070
     1
1070
     1
1002
{
1002
}
1000
DIMTOH
1070
     1
1070
     1
1002
{
1002
}
1000
DIMTOLJ
1070
     1
1070
     0
1002
{
1002
}
1000
DIMUPT
1070
     1
1070
     1
1002
{
1002
}
1000
M
1070
     0
1002
{
1002
}
1000
I
1070
     0
1002
{
1002
}
1002
}
1000
GEN-ISO-RAD
1070
     5
1002
{
1000
NAME
1070
     4
1000
GEN-ISO$4
1002
{
1002
}
1000
DIMFIT
1070
     1
1070
     0
1002
{
1002
}
1000
DIMTAD
1070
     1
1070
     1
1002
{
1002
}
1000
DIMTIH
1070
     1
1070
     0
1002
{
1002
}
1000
DIMTIX
1070
     1
1070
     0
1002
{
1002
}
1000
DIMTOH
1070
     1
1070
     1
1002
{
1002
}
1000
DIMTOLJ
1070
     1
1070
     0
1002
{
1002
}
1000
DIMTOFL
1070
     1
1070
     0
1002
{
1002
}
1000
DIMUPT
1070
     1
1070
     1
1002
{
1002
}
1000
M
1070
     0
1002
{
1002
}
1000
I
1070
     0
1002
{
1002
}
1002
}
1000
GEN-ISO-ORD
1070
     5
1002
{
1000
NAME
1070
     4
1000
GEN-ISO$6
1002
{
1002
}
1000
DIMTOLJ
1070
     1
1070
     0
1002
{
1002
}
1000
M
1070
     0
1002
{
1002
}
1000
I
1070
     0
1002
{
1002
}
1002
}
1000
GEN-ISO-AXE-F
1070
     5
1002
{
1000
NAME
1070
     4
1000
GEN-ISO-AXE-F
1002
{
1002
}
1000
DIMSE1
1070
     1
1070
     1
1002
{
1002
}
1000
DIMSE2
1070
     1
1070
     1
1002
{
1002
}
1000
DIMTAD
1070
     1
1070
     1
1002
{
1002
}
1000
DIMTOLJ
1070
     1
1070
     0
1002
{
1002
}
1000
DIMTOFL
1070
     1
1070
     1
1002
{
1002
}
1000
M
1070
     0
1002
{
1002
}
1000
I
1070
     0
1002
{
1002
}
1002
}
1000
GEN-ISO-AXE-H
1070
     5
1002
{
1000
NAME
1070
     4
1000
GEN-ISO-AXE-H
1002
{
1002
}
1000
DIMBLK1
1070
     4
1000
GENAXEH
1002
{
1002
}
1000
DIMLFAC
1070
     2
1040
2.0
1002
{
1002
}
1000
DIMSAH
1070
     1
1070
     1
1002
{
1002
}
1000
DIMSE1
1070
     1
1070
     1
1002
{
1002
}
1000
DIMSE2
1070
     1
1070
     1
1002
{
1002
}
1000
DIMTAD
1070
     1
1070
     1
1002
{
1002
}
1000
DIMTOLJ
1070
     1
1070
     0
1002
{
1002
}
1000
DIMTOFL
1070
     1
1070
     1
1002
{
1002
}
1000
M
1070
     0
1002
{
1002
}
1000
I
1070
     0
1002
{
1002
}
1002
}
1000
GEN-ANSI
1070
     5
1002
{
1000
NAME
1070
     4
1000
GEN-ANSI
1002
{
1002
}
1000
DIMTIH
1070
     1
1070
     1
1002
{
1002
}
1000
DIMTOH
1070
     1
1070
     1
1002
{
1002
}
1000
DIMTAD
1070
     1
1070
     0
1002
{
1002
}
1000
DIMTOLJ
1070
     1
1070
     1
1002
{
1002
}
1000
M
1070
     0
1002
{
1002
}
1000
I
1070
     0
1002
{
1002
}
1002
}
1000
GEN-ANSI-POS
1070
     5
1002
{
1000
NAME
1070
     4
1000
GEN-ANSI-POS
1002
{
1002
}
1000
DIMTOLJ
1070
     1
1070
     1
1002
{
1002
}
1000
DIMTXSTY
1070
     4
1000
STANDARD
1002
{
1002
}
1000
M
1070
     0
1002
{
1000
DIMASZ
1070
     2
1040
2.5
1002
{
1002
}
1000
DIMGAP
1070
     2
1040
1.5
1002
{
1002
}
1000
DIMTXT
1070
     2
1040
5.0
1002
{
1002
}
1002
}
1000
I
1070
     0
1002
{
1000
DIMASZ
1070
     2
1040
0.1
1002
{
1002
}
1000
DIMGAP
1070
     2
1040
0.06
1002
{
1002
}
1000
DIMTXT
1070
     2
1040
0.2
1002
{
1002
}
1002
}
1002
}
1000
GEN-ANSI-CIR
1070
     5
1002
{
1000
NAME
1070
     4
1000
GEN-ANSI$3
1002
{
1002
}
1000
DIMFIT
1070
     1
1070
     0
1002
{
1002
}
1000
DIMTAD
1070
     1
1070
     0
1002
{
1002
}
1000
DIMTIH
1070
     1
1070
     1
1002
{
1002
}
1000
DIMTIX
1070
     1
1070
     0
1002
{
1002
}
1000
DIMTOFL
1070
     1
1070
     0
1002
{
1002
}
1000
DIMTOH
1070
     1
1070
     1
1002
{
1002
}
1000
DIMTOLJ
1070
     1
1070
     1
1002
{
1002
}
1000
DIMUPT
1070
     1
1070
     1
1002
{
1002
}
1000
M
1070
     0
1002
{
1002
}
1000
I
1070
     0
1002
{
1002
}
1002
}
1000
GEN-ANSI-RAD
1070
     5
1002
{
1000
NAME
1070
     4
1000
GEN-ANSI$4
1002
{
1002
}
1000
DIMFIT
1070
     1
1070
     0
1002
{
1002
}
1000
DIMTAD
1070
     1
1070
     0
1002
{
1002
}
1000
DIMTIH
1070
     1
1070
     1
1002
{
1002
}
1000
DIMTIX
1070
     1
1070
     0
1002
{
1002
}
1000
DIMTOFL
1070
     1
1070
     0
1002
{
1002
}
1000
DIMTOH
1070
     1
1070
     1
1002
{
1002
}
1000
DIMTOLJ
1070
     1
1070
     1
1002
{
1002
}
1000
DIMUPT
1070
     1
1070
     1
1002
{
1002
}
1000
M
1070
     0
1002
{
1002
}
1000
I
1070
     0
1002
{
1002
}
1002
}
1000
GEN-ANSI-ORD
1070
     5
1002
{
1000
NAME
1070
     4
1000
GEN-ANSI$6
1002
{
1002
}
1000
DIMTAD
1070
     1
1070
     0
1002
{
1002
}
1000
DIMTIH
1070
     1
1070
     1
1002
{
1002
}
1000
DIMTOH
1070
     1
1070
     1
1002
{
1002
}
1000
DIMTOLJ
1070
     1
1070
     1
1002
{
1002
}
1000
M
1070
     0
1002
{
1002
}
1000
I
1070
     0
1002
{
1002
}
1002
}
1000
GEN-ANSI-AXE-F
1070
     5
1002
{
1000
NAME
1070
     4
1000
GEN-ANSI-AXE-F
1002
{
1002
}
1000
DIMBLK1
1070
     4
1000
GENAXEH
1002
{
1002
}
1000
DIMSAH
1070
     1
1070
     1
1002
{
1002
}
1000
DIMSE1
1070
     1
1070
     1
1002
{
1002
}
1000
DIMSE2
1070
     1
1070
     1
1002
{
1002
}
1000
DIMTAD
1070
     1
1070
     0
1002
{
1002
}
1000
DIMTIH
1070
     1
1070
     1
1002
{
1002
}
1000
DIMTOH
1070
     1
1070
     1
1002
{
1002
}
1000
DIMTOLJ
1070
     1
1070
     1
1002
{
1002
}
1000
M
1070
     0
1002
{
1002
}
1000
I
1070
     0
1002
{
1002
}
1002
}
1000
GEN-ANSI-AXE-H
1070
     5
1002
{
1000
NAME
1070
     4
1000
GEN-ANSI-AXE-H
1002
{
1002
}
1000
DIMBLK1
1070
     4
1000
GENAXEH
1002
{
1002
}
1000
DIMLFAC
1070
     2
1040
2.0
1002
{
1002
}
1000
DIMSAH
1070
     1
1070
     1
1002
{
1002
}
1000
DIMSE1
1070
     1
1070
     1
1002
{
1002
}
1000
DIMSE2
1070
     1
1070
     1
1002
{
1002
}
1000
DIMTAD
1070
     1
1070
     0
1002
{
1002
}
1000
DIMTOFL
1070
     1
1070
     1
1002
{
1002
}
1000
DIMTOLJ
1070
     1
1070
     1
1002
{
1002
}
1000
M
1070
     0
1002
{
1002
}
1000
I
1070
     0
1002
{
1002
}
1002
}
1002
}
1000
DimSet
1070
     0
1002
{
1000
ChainSum
1070
     3
1070
     0
1002
{
1002
}
1000
DimDclTyp0
1070
     4
1000
dim23
1002
{
1002
}
1000
HorBra
1070
     3
1070
     0
1002
{
1002
}
1000
StrDia
1070
     4
1000
%%c<>
1002
{
1002
}
1000
StrRad
1070
     4
1000
R<>
1002
{
1002
}
1000
TextMinus
1070
     4
1000
<>
1002
{
1002
}
1000
TextPlus
1070
     4
1000
<>
1002
{
1002
}
1000
M
1070
     0
1002
{
1000
DimdliFirst
1070
     2
1040
10.0
1002
{
1002
}
1000
PointMakeDist
1070
     2
1040
10.0
1002
{
1002
}
1002
}
1000
I
1070
     0
1002
{
1000
DimdliFirst
1070
     2
1040
0.5
1002
{
1002
}
1000
PointMakeDist
1070
     2
1040
0.5
1002
{
1002
}
1002
}
1000
FitGrade
1070
     4
1000
h7
1002
{
1002
}
1002
}
1000
Drawing
1070
     0
1002
{
1000
ChamferDimMode
1070
     1
1070
     2
1002
{
1002
}
1000
filletdim
1070
     3
1070
     0
1002
{
1002
}
1000
fillettrim
1070
     3
1070
     1
1002
{
1002
}
1000
Gen_Fiso
1070
    -3
1040
1.0
1002
{
1002
}
1000
GenDimStil
1070
     4
1000
ISO
1002
{
1002
}
1000
GenDwgUScale
1070
     2
1040
1.0
1002
{
1002
}
1000
GenInch
1070
     4
1000
M
1002
{
1002
}
1000
GenPlotScale
1070
     4
1000
1:4.5
1002
{
1002
}
1000
Revisi
1070
     4
1000
0
1002
{
1002
}
1000
Version
1070
    -5
1000
14.01/Apr  1 1998
1002
{
1002
}
1000
Platform
1070
    -5
1000
WINNT
1002
{
1002
}
1002
}
1000
DwgVar
1070
     0
1002
{
1000
M
1070
     0
1002
{
1002
}
1000
I
1070
     0
1002
{
1002
}
1002
}
1000
Hatch
1070
     0
1002
{
1000
GenHtcFlag
1070
     3
1070
     0
1002
{
1002
}
1002
}
1000
Info_Pos
1070
     0
1002
{
1000
>
1002
}
1000
Layer
1070
     6
1002
{
1000
Defs
1070
     0
1002
{
1000
>
1002
}
1000
EntSort
1070
     0
1002
{
1000
>
1002
}
1000
Match
1070
     0
1002
{
1002
}
1000
Settings
1070
     0
1002
{
1000
FocGrNC
1070
     3
1070
     0
1002
{
1002
}
1000
FocGrLo
1070
     3
1070
     0
1002
{
1002
}
1000
FocLoNC
1070
     3
1070
     0
1002
{
1002
}
1000
FocusCol
1070
     1
1070
   253
1002
{
1002
}
1000
GenStdLG
1070
     4
1000

1002
{
1002
}
1000
LayMatch
1070
     3
1070
     0
1002
{
1002
}
1000
LgOff
1070
     3
1070
     0
1002
{
1002
}
1000
CurLG
1070
    -5
1000

1002
{
1002
}
1002
}
1002
}
1000
LType
1070
     0
1002
{
1000
GEN3
1070
     7
1000
genius.lin
1002
{
1002
}
1000
GEN7
1070
     7
1000
genius.lin
1002
{
1002
}
1000
GEN4A
1070
     7
1000
genius.lin
1002
{
1002
}
1000
GEN3A
1070
     7
1000
genius.lin
1002
{
1002
}
1000
GEN7A
1070
     7
1000
genius.lin
1002
{
1002
}
1000
GENZIGZAG
1070
     7
1000
genius.lin
1002
{
1002
}
1002
}
1000
Objecter
1070
     0
1002
{
1000
CreateGroups
1070
     3
1070
     0
1002
{
1002
}
1000
LaySwitch
1070
     3
1070
     1
1002
{
1002
}
1000
LastObj
1070
    -5
1000
1463
1002
{
1002
}
1000
TimeStamp
1070
    -5
1000
20030124.15204701
1002
{
1002
}
1002
}
1000
OSWiz
1070
     0
1002
{
1000
Filter
1070
     0
1002
{
1000
HATCH
1070
     8
1002
{
1000
EntityType
1070
     4
1000
LINE
1002
{
1002
}
1000
Layer
1070
     4
1000
8,8N,*-8,*-8N
1002
{
1002
}
1000
Linetype
1070
     4
1000
*
1002
{
1002
}
1000
Color
1070
     4
1000
*
1002
{
1002
}
1000
ApplyInDims
1070
     3
1070
     1
1002
{
1002
}
1002
}
1000
SYMBOLS
1070
     8
1002
{
1000
EntityType
1070
     4
1000
*
1002
{
1002
}
1000
Layer
1070
     4
1000
[5-6],[5-6]N,*-[5-6],*-[5-6]N
1002
{
1002
}
1000
Linetype
1070
     4
1000
*
1002
{
1002
}
1000
Color
1070
     4
1000
*
1002
{
1002
}
1000
ApplyInDims
1070
     3
1070
     1
1002
{
1002
}
1002
}
1000
FEM
1070
     8
1002
{
1000
EntityType
1070
     4
1000
*
1002
{
1002
}
1000
Layer
1070
     4
1000
4A,4AN,*-4A,*-4AN
1002
{
1002
}
1000
Linetype
1070
     4
1000
*
1002
{
1002
}
1000
Color
1070
     4
1000
*
1002
{
1002
}
1000
ApplyInDims
1070
     3
1070
     1
1002
{
1002
}
1002
}
1002
}
1002
}
1000
PaList
1070
     0
1002
{
1000
AutoUpdatePartList
1070
     1
1070
     0
1002
{
1002
}
1000
ReadInfoPoint
1070
     3
1070
     0
1002
{
1002
}
1000
ReadPosNr
1070
     3
1070
     1
1002
{
1002
}
1000
RevStr
1070
     4
1000
0
1002
{
1002
}
1002
}
1000
Paper
1070
     0
1002
{
1002
}
1000
PartDB
1070
     0
1002
{
1000
GenDbOwner
1070
     4
1000

1002
{
1002
}
1002
}
1000
System
1070
     0
1002
{
1002
}
1000
Title
1070
     0
1002
{
1000
MakeView
1070
     1
1070
     2
1002
{
1002
}
1002
}
1000
Tools
1070
     0
1002
{
1000
Trans
1070
     0
1002
{
1000
Drawingtranslation
1070
    -4
1070
     1
1002
{
1002
}
1000
upreserve
1070
     3
1070
     0
1002
{
1002
}
1000
originally_on
1070
    -4
1070
     0
1002
{
1002
}
1000
sourcelang
1070
    -5
1000
D
1002
{
1002
}
1002
}
1002
}
  0
APPID
  5
E3D
330
E01
100
AcDbSymbolTableRecord
100
AcDbRegAppTableRecord
  2
GENIUS_GENOENT_13
 70
     0
  0
APPID
  5
E3E
330
E01
100
AcDbSymbolTableRecord
100
AcDbRegAppTableRecord
  2
GENIUS_GEFCFG0_13
 70
     0
1001
GENIUS_GENCFG_13
1071
1043419306
1000
E3E
1000
GEF
1070
     5
1000
GenCfgObject
1000
GenCfgString
1000
GenCfgReal
1000
GenCfgShort
1000
GenCfgBool
1000
System
1070
     0
1002
{
1002
}
1000
Prese
1070
     0
1002
{
1000
Funk
1070
     1
1000

1002
{
1002
}
1000
FunkDef
1070
     1
1000

1002
{
1002
}
1000
GefIso
1070
     1
1000
DIN
1002
{
1002
}
1002
}
1000
FEM
1070
     0
1002
{
1000
LayGroup
1070
     1
1000
FEM
1002
{
1002
}
1000
IncrCoef
1070
     2
1040
0.0
1002
{
1002
}
1002
}
1000
Shaft
1070
     0
1002
{
1000
Interrupt
1070
     3
1070
     0
1002
{
1002
}
1002
}
1000
PartDb
1070
     0
1002
{
1000
PartCreate
1070
     0
1002
{
1002
}
1000
SCP
1070
     0
1002
{
1002
}
1000
Symbol
1070
     0
1002
{
1002
}
1002
}
1000
Symbol
1070
     0
1002
{
1000
WeldStyle
1070
     1
1000
ISO
1002
{
1002
}
1000
WeldSize
1070
     2
1040
1.0
1002
{
1002
}
1000
WeldFlag
1070
     4
1070
     1
1002
{
1002
}
1000
WeldOffset
1070
     4
1070
     1
1002
{
1002
}
1000
TolCType
1070
     1
1000
ISO
1002
{
1002
}
1000
TolCSize
1070
     2
1040
1.0
1002
{
1002
}
1000
STextureSize
1070
     2
1040
1.0
1002
{
1002
}
1000
SurfaceType
1070
     1
1000

1002
{
1002
}
1000
M
1070
     0
1002
{
1000
WeldWidth
1070
     2
1040
3.0
1002
{
1002
}
1002
}
1000
I
1070
     0
1002
{
1000
WeldWidth
1070
     2
1040
0.0
1002
{
1002
}
1002
}
1002
}
  0
APPID
  5
E3F
330
E01
100
AcDbSymbolTableRecord
100
AcDbRegAppTableRecord
  2
GENIUS_GENOBJ_13
 70
     0
  0
APPID
  5
E40
330
E01
100
AcDbSymbolTableRecord
100
AcDbRegAppTableRecord
  2
GENIUS_GENODEF_13
 70
     0
  0
APPID
  5
E41
330
E01
100
AcDbSymbolTableRecord
100
AcDbRegAppTableRecord
  2
GENIUS_GENOLIS_13
 70
     0
  0
APPID
  5
E42
330
E01
100
AcDbSymbolTableRecord
100
AcDbRegAppTableRecord
  2
GENIUS_GENOREF_13
 70
     0
  0
APPID
  5
E43
330
E01
100
AcDbSymbolTableRecord
100
AcDbRegAppTableRecord
  2
GENIUS_GENOBJ-N-TIT_13
 70
     0
  0
APPID
  5
E44
330
E01
100
AcDbSymbolTableRecord
100
AcDbRegAppTableRecord
  2
GENIUS_GENTITLE_13
 70
     0
  0
APPID
  5
E45
330
E01
100
AcDbSymbolTableRecord
100
AcDbRegAppTableRecord
  2
GENIUS_GENZVEED_13
 70
     0
  0
APPID
  5
E46
330
E01
100
AcDbSymbolTableRecord
100
AcDbRegAppTableRecord
  2
GENIUS_GENOBJ-N-SDF_13
 70
     0
  0
APPID
  5
E47
330
E01
100
AcDbSymbolTableRecord
100
AcDbRegAppTableRecord
  2
GENIUS_GENSCREG_13
 70
     0
  0
APPID
  5
E48
330
E01
100
AcDbSymbolTableRecord
100
AcDbRegAppTableRecord
  2
GENIUS_GENREC_13
 70
     0
  0
APPID
  5
E49
330
E01
100
AcDbSymbolTableRecord
100
AcDbRegAppTableRecord
  2
GENIUS_GENOBJ-N-REC_13
 70
     0
  0
APPID
  5
E4A
330
E01
100
AcDbSymbolTableRecord
100
AcDbRegAppTableRecord
  2
GEV_VCCNULL_SWITCH_OFF
 70
     0
  0
APPID
  5
E4B
330
E01
100
AcDbSymbolTableRecord
100
AcDbRegAppTableRecord
  2
GENIUS_GENOBJ-N-CEN_13
 70
     0
  0
APPID
  5
E4C
330
E01
100
AcDbSymbolTableRecord
100
AcDbRegAppTableRecord
  2
GENIUS_GENOBJ-N-FIL_13
 70
     0
  0
APPID
  5
E4D
330
E01
100
AcDbSymbolTableRecord
100
AcDbRegAppTableRecord
  2
GENIUS_GENFIL_13
 70
     0
  0
APPID
  5
E4E
330
E01
100
AcDbSymbolTableRecord
100
AcDbRegAppTableRecord
  2
GENIUS_GENOBJ-N-CHA_13
 70
     0
  0
APPID
  5
E4F
330
E01
100
AcDbSymbolTableRecord
100
AcDbRegAppTableRecord
  2
GEVID847791353
 70
     0
  0
APPID
  5
E50
330
E01
100
AcDbSymbolTableRecord
100
AcDbRegAppTableRecord
  2
GEVDC
 70
     0
  0
APPID
  5
E51
330
E01
100
AcDbSymbolTableRecord
100
AcDbRegAppTableRecord
  2
GEVCON
 70
     0
  0
APPID
  5
E52
330
E01
100
AcDbSymbolTableRecord
100
AcDbRegAppTableRecord
  2
GEVRADREF
 70
     0
  0
APPID
  5
E53
330
E01
100
AcDbSymbolTableRecord
100
AcDbRegAppTableRecord
  2
VCC
 70
     0
  0
APPID
  5
E54
330
E01
100
AcDbSymbolTableRecord
100
AcDbRegAppTableRecord
  2
GEVPT
 70
     0
  0
APPID
  5
E55
330
E01
100
AcDbSymbolTableRecord
100
AcDbRegAppTableRecord
  2
GEVIT
 70
     0
  0
APPID
  5
E56
330
E01
100
AcDbSymbolTableRecord
100
AcDbRegAppTableRecord
  2
GENBH
 70
     0
  0
APPID
  5
E57
330
E01
100
AcDbSymbolTableRecord
100
AcDbRegAppTableRecord
  2
GEVMK
 70
     0
  0
APPID
  5
E58
330
E01
100
AcDbSymbolTableRecord
100
AcDbRegAppTableRecord
  2
GENIUS_GENBH_13
 70
     0
  0
APPID
  5
E59
330
E01
100
AcDbSymbolTableRecord
100
AcDbRegAppTableRecord
  2
GENIUS_GENOBJ-NBEHI-BHF_13
 70
     0
  0
APPID
  5
E5A
330
E01
100
AcDbSymbolTableRecord
100
AcDbRegAppTableRecord
  2
GENIUS_GENOBJ-NBEHI-BHB_13
 70
     0
  0
APPID
  5
E5B
330
E01
100
AcDbSymbolTableRecord
100
AcDbRegAppTableRecord
  2
GENIUS_GENOBJ-F-PART_13
 70
     0
  0
APPID
  5
E5C
330
E01
100
AcDbSymbolTableRecord
100
AcDbRegAppTableRecord
  2
GENIUS_GEFSTDP_13
 70
     0
  0
APPID
  5
E5D
330
E01
100
AcDbSymbolTableRecord
100
AcDbRegAppTableRecord
  2
GENIUS_GEFPARTINS_13
 70
     0
  0
APPID
  5
E5E
330
E01
100
AcDbSymbolTableRecord
100
AcDbRegAppTableRecord
  2
GENIUS_GENINF13_13
 70
     0
  0
APPID
  5
E5F
330
E01
100
AcDbSymbolTableRecord
100
AcDbRegAppTableRecord
  2
GENIUS_GENOBJ-N-INFOPT_13
 70
     0
  0
APPID
  5
E60
330
E01
100
AcDbSymbolTableRecord
100
AcDbRegAppTableRecord
  2
GENIUS_GENOBJ-N-RSSYM_13
 70
     0
  0
APPID
  5
E61
330
E01
100
AcDbSymbolTableRecord
100
AcDbRegAppTableRecord
  2
GENIUS_GENSYMENT_13
 70
     0
  0
APPID
  5
E62
330
E01
100
AcDbSymbolTableRecord
100
AcDbRegAppTableRecord
  2
GENIUS_GENSCSYM_13
 70
     0
  0
APPID
  5
E63
330
E01
100
AcDbSymbolTableRecord
100
AcDbRegAppTableRecord
  2
GENIUS_GEFINFNAM_13
 70
     0
  0
APPID
  5
E64
330
E01
100
AcDbSymbolTableRecord
100
AcDbRegAppTableRecord
  2
GENIUS_GENDTOL_13
 70
     0
  0
APPID
  5
E65
330
E01
100
AcDbSymbolTableRecord
100
AcDbRegAppTableRecord
  2
GENIUS_GENOBJ-N-HTC_13
 70
     0
  0
APPID
  5
E66
330
E01
100
AcDbSymbolTableRecord
100
AcDbRegAppTableRecord
  2
GENIUS_GENHATCH_13
 70
     0
  0
APPID
  5
E67
330
E01
100
AcDbSymbolTableRecord
100
AcDbRegAppTableRecord
  2
GEVID847791358
 70
     0
  0
APPID
  5
1303
330
E01
100
AcDbSymbolTableRecord
100
AcDbRegAppTableRecord
  2
GEVID847791361
 70
     0
  0
APPID
  5
15D7
330
E01
100
AcDbSymbolTableRecord
100
AcDbRegAppTableRecord
  2
GEVID1043419249
 70
     0
  0
APPID
  5
1657
330
E01
100
AcDbSymbolTableRecord
100
AcDbRegAppTableRecord
  2
MCAD_NO_VIS
 70
     0
  0
APPID
  5
1658
330
E01
100
AcDbSymbolTableRecord
100
AcDbRegAppTableRecord
  2
ACAD_TEMP_GRAPHIC
 70
     0
  0
APPID
  5
1688
330
E01
100
AcDbSymbolTableRecord
100
AcDbRegAppTableRecord
  2
AD_DRAW
 70
     0
  0
APPID
  5
168B
330
E01
100
AcDbSymbolTableRecord
100
AcDbRegAppTableRecord
  2
ACATTRIBSERVICES
 70
     0
  0
APPID
  5
16AB
330
E01
100
AcDbSymbolTableRecord
100
AcDbRegAppTableRecord
  2
DESIGNERASSEMBLIES
 70
     0
  0
APPID
  5
16B1
330
E01
100
AcDbSymbolTableRecord
100
AcDbRegAppTableRecord
  2
ACADM_DIM_EDIT
 70
     0
  0
APPID
  5
16B2
330
E01
100
AcDbSymbolTableRecord
100
AcDbRegAppTableRecord
  2
AMDT_DM_ADJ
 70
     0
  0
APPID
  5
16E4
330
E01
100
AcDbSymbolTableRecord
100
AcDbRegAppTableRecord
  2
ACAD_DSTYLE_DIMARC_LENGTH_SYMBOL
 70
     0
  0
APPID
  5
16E5
330
E01
100
AcDbSymbolTableRecord
100
AcDbRegAppTableRecord
  2
ACAD_DSTYLE_DIMJOGGED_JOGANGLE_SYMBOL
 70
     0
  0
APPID
  5
1718
330
E01
100
AcDbSymbolTableRecord
100
AcDbRegAppTableRecord
  2
GENIUS_GENSCREG_15
 70
     0
  0
APPID
  5
176F
330
E01
100
AcDbSymbolTableRecord
100
AcDbRegAppTableRecord
  2
ACAD_MLEADERVER
 70
     0
  0
APPID
  5
17EB
330
E01
100
AcDbSymbolTableRecord
100
AcDbRegAppTableRecord
  2
ACAD_EXEMPT_FROM_CAD_STANDARDS
 70
     0
  0
APPID
  5
17F3
330
E01
100
AcDbSymbolTableRecord
100
AcDbRegAppTableRecord
  2
AcAecLayerStandard
 70
     0
  0
APPID
  5
180C
330
E01
100
AcDbSymbolTableRecord
100
AcDbRegAppTableRecord
  2
ACAD_DSTYLE_DIMINSPECT
 70
     0
  0
APPID
  5
1913
330
E01
100
AcDbSymbolTableRecord
100
AcDbRegAppTableRecord
  2
GENIUS_GENDIMSH_14
 70
     0
  0
APPID
  5
1B45
330
E01
100
AcDbSymbolTableRecord
100
AcDbRegAppTableRecord
  2
ACAD_DSTYLE_DIMRADIAL_EXTENSION
 70
     0
  0
ENDTAB
  0
TABLE
  2
DIMSTYLE
  5
E02
330
0
100
AcDbSymbolTable
 70
    12
100
AcDbDimStyleTable
 71
     1
340
E69
  0
DIMSTYLE
105
E68
330
E02
100
AcDbSymbolTableRecord
100
AcDbDimStyleTableRecord
  2
STANDARD
 70
     0
271
     2
272
     2
284
     8
285
     8
286
     8
340
E07
  0
DIMSTYLE
105
E69
102
{ACAD_REACTORS
330
6EF
330
799
330
7B7
330
7D5
330
805
330
82D
102
}
330
E02
100
AcDbSymbolTableRecord
100
AcDbDimStyleTableRecord
  2
GEN-ISO
 70
     0
  3
<>
 40
4.5
 41
2.5
 42
1.0
 43
7.0
 44
1.0
 47
0.1
 48
0.1
 73
     0
 74
     0
 77
     1
 78
     8
140
3.5
141
0.0
143
0.03937
146
0.71
147
0.6
172
     1
176
   256
177
   256
178
     2
271
     2
272
     2
284
     8
285
     8
286
     8
340
E07
  0
DIMSTYLE
105
16E3
102
{ACAD_REACTORS
330
17CE
102
}
330
E02
100
AcDbSymbolTableRecord
100
AcDbDimStyleTableRecord
  2
AM_DIN
 70
     0
  4
"
 41
2.5
 42
1.0
 43
10.0
 44
1.0
 47
0.1
 48
0.1
 73
     0
 74
     0
 77
     1
 78
     8
 79
     2
140
3.5
141
0.0
143
0.0393701
146
0.71
147
1.5
172
     1
176
   256
177
   256
178
     2
271
     2
272
     3
274
     4
283
     0
284
     8
340
E07
371
    -1
372
    -1
1001
ACAD_DSTYLE_DIMJOGGED_JOGANGLE_SYMBOL
1070
   384
1040
1.570796326794896
  0
DIMSTYLE
105
16F4
330
E02
100
AcDbSymbolTableRecord
100
AcDbDimStyleTableRecord
  2
AM_DIN$3
 70
     0
  4
"
 41
2.5
 42
1.0
 43
10.0
 44
1.0
 47
0.1
 48
0.1
 73
     0
 77
     1
 78
     8
 79
     2
140
3.5
141
0.0
143
0.0393701
146
0.71
147
1.5
176
   256
177
   256
178
     2
271
     2
272
     3
274
     4
283
     0
284
     8
288
     1
289
     0
340
E07
371
    -1
372
    -1
1001
ACAD_DSTYLE_DIMJOGGED_JOGANGLE_SYMBOL
1070
   384
1040
1.570796326794896
  0
DIMSTYLE
105
16F9
330
E02
100
AcDbSymbolTableRecord
100
AcDbDimStyleTableRecord
  2
AM_DIN$4
 70
     0
  4
"
 41
2.5
 42
1.0
 43
10.0
 44
1.0
 47
0.1
 48
0.1
 73
     0
 77
     1
 78
     8
 79
     2
140
3.5
141
0.0
143
0.0393701
146
0.71
147
1.5
176
   256
177
   256
178
     2
271
     2
272
     3
274
     4
283
     0
284
     8
288
     1
289
     0
340
E07
371
    -1
372
    -1
1001
ACAD_DSTYLE_DIMJOGGED_JOGANGLE_SYMBOL
1070
   384
1040
1.570796326794896
  0
DIMSTYLE
105
16FE
330
E02
100
AcDbSymbolTableRecord
100
AcDbDimStyleTableRecord
  2
AM_DIN$6
 70
     0
  4
"
 41
2.5
 42
1.0
 43
10.0
 44
1.0
 47
0.1
 48
0.1
 73
     0
 74
     0
 78
     8
 79
     2
140
3.5
141
0.0
143
0.0393701
146
0.71
147
1.5
172
     1
176
   256
177
   256
178
     2
271
     2
272
     3
274
     4
283
     0
284
     8
340
E07
371
    -1
372
    -1
1001
ACAD_DSTYLE_DIMJOGGED_JOGANGLE_SYMBOL
1070
   384
1040
1.570796326794896
  0
DIMSTYLE
105
1703
330
E02
100
AcDbSymbolTableRecord
100
AcDbDimStyleTableRecord
  2
AM_DIN$7
 70
     0
  4
"
 41
2.5
 42
1.0
 43
10.0
 44
1.0
 47
0.1
 48
0.1
 73
     0
 74
     0
 77
     1
 78
     8
 79
     2
140
5.0
141
0.0
143
0.0393701
146
0.71
147
1.5
172
     1
176
   256
177
   256
178
     2
271
     2
272
     3
274
     4
283
     0
284
     8
340
E07
371
    -1
372
    -1
1001
ACAD_DSTYLE_DIMJOGGED_JOGANGLE_SYMBOL
1070
   384
1040
1.570796326794896
  0
DIMSTYLE
105
1708
330
E02
100
AcDbSymbolTableRecord
100
AcDbDimStyleTableRecord
  2
AM_DIN$SF
 70
     0
  4
"
 41
2.5
 42
1.0
 43
10.0
 44
1.0
 47
0.1
 48
0.1
 73
     0
 74
     0
 75
     1
 76
     1
 77
     1
 78
     8
 79
     2
140
3.5
141
0.0
143
0.0393701
146
0.71
147
1.5
172
     1
176
   256
177
   256
178
     2
271
     2
272
     3
274
     4
283
     0
284
     8
340
E07
371
    -1
372
    -1
1001
ACAD_DSTYLE_DIMJOGGED_JOGANGLE_SYMBOL
1070
   384
1040
1.570796326794896
  0
DIMSTYLE
105
1711
330
E02
100
AcDbSymbolTableRecord
100
AcDbDimStyleTableRecord
  2
AM_DIN$SH
 70
     0
  4
"
 41
2.5
 42
1.0
 43
10.0
 44
1.0
 47
0.1
 48
0.1
 73
     0
 74
     0
 75
     1
 76
     1
 77
     1
 78
     8
 79
     2
140
3.5
141
0.0
143
0.0393701
144
2.0
146
0.71
147
1.5
172
     1
173
     1
176
   256
177
   256
178
     2
271
     2
272
     3
274
     4
283
     0
284
     8
340
E07
343
1709
371
    -1
372
    -1
1001
ACAD_DSTYLE_DIMJOGGED_JOGANGLE_SYMBOL
1070
   384
1040
1.570796326794896
  0
DIMSTYLE
105
17F4
102
{ACAD_REACTORS
330
6EF
330
799
330
7B7
330
7D5
330
805
330
82D
330
13AD
330
13AE
330
13B1
330
13B3
330
13B4
330
13B5
330
13B6
330
13BD
330
13BE
330
13CC
330
17F6
330
1BB9
102
}
330
E02
100
AcDbSymbolTableRecord
100
AcDbDimStyleTableRecord
  2
GEN-ISO$0
 70
     0
  3
<>
 40
4.5
 41
2.5
 42
1.0
 43
7.0
 44
1.0
 47
0.1
 48
0.1
 73
     0
 74
     0
 77
     1
 78
     8
140
3.5
141
0.0
143
0.03937
146
0.71
147
0.6
172
     1
176
   256
177
   256
178
     2
271
     2
272
     2
284
     8
285
     8
286
     8
340
E07
  0
ENDTAB
  0
TABLE
  2
BLOCK_RECORD
  5
DF9
330
0
100
AcDbSymbolTable
 70
    48
  0
BLOCK_RECORD
  5
E0F
102
{ACAD_XDICTIONARY
360
1A38
102
}
330
DF9
100
AcDbSymbolTableRecord
100
AcDbBlockTableRecord
  2
*MODEL_SPACE
340
164F
  0
BLOCK_RECORD
  5
E0C
330
DF9
100
AcDbSymbolTableRecord
100
AcDbBlockTableRecord
  2
*PAPER_SPACE
340
1650
  0
BLOCK_RECORD
  5
E1A
330
DF9
100
AcDbSymbolTableRecord
100
AcDbBlockTableRecord
  2
*D2
340
0
  0
BLOCK_RECORD
  5
E28
330
DF9
100
AcDbSymbolTableRecord
100
AcDbBlockTableRecord
  2
*U4
340
0
102
{BLKREFS
331
B39
102
}
  0
BLOCK_RECORD
  5
E29
330
DF9
100
AcDbSymbolTableRecord
100
AcDbBlockTableRecord
  2
*U5
340
0
102
{BLKREFS
331
B40
102
}
  0
BLOCK_RECORD
  5
128B
330
DF9
100
AcDbSymbolTableRecord
100
AcDbBlockTableRecord
  2
*X23
340
0
102
{BLKREFS
331
14BB
102
}
  0
BLOCK_RECORD
  5
1709
330
DF9
100
AcDbSymbolTableRecord
100
AcDbBlockTableRecord
  2
GENAXEH
340
0
  0
BLOCK_RECORD
  5
17F7
330
DF9
100
AcDbSymbolTableRecord
100
AcDbBlockTableRecord
  2
*D34
340
0
  0
BLOCK_RECORD
  5
1914
330
DF9
100
AcDbSymbolTableRecord
100
AcDbBlockTableRecord
  2
*D39
340
0
  0
BLOCK_RECORD
  5
1920
330
DF9
100
AcDbSymbolTableRecord
100
AcDbBlockTableRecord
  2
*D40
340
0
  0
BLOCK_RECORD
  5
1BBA
330
DF9
100
AcDbSymbolTableRecord
100
AcDbBlockTableRecord
  2
*D43
340
0
  0
BLOCK_RECORD
  5
1D21
330
DF9
100
AcDbSymbolTableRecord
100
AcDbBlockTableRecord
  2
*D45
340
0
  0
BLOCK_RECORD
  5
1D36
330
DF9
100
AcDbSymbolTableRecord
100
AcDbBlockTableRecord
  2
*D46
340
0
  0
BLOCK_RECORD
  5
1D78
330
DF9
100
AcDbSymbolTableRecord
100
AcDbBlockTableRecord
  2
*D47
340
0
  0
ENDTAB
  0
ENDSEC
  0
SECTION
  2
BLOCKS
  0
BLOCK
  5
E85
330
E0F
100
AcDbEntity
  8
0
100
AcDbBlockBegin
  2
*MODEL_SPACE
 70
     0
 10
0.0
 20
0.0
 30
0.0
  3
*MODEL_SPACE
  1

  0
ENDBLK
  5
E86
330
E0F
100
AcDbEntity
  8
0
100
AcDbBlockEnd
  0
BLOCK
  5
E83
330
E0C
100
AcDbEntity
 67
     1
  8
0
100
AcDbBlockBegin
  2
*PAPER_SPACE
 70
     0
 10
0.0
 20
0.0
 30
0.0
  3
*PAPER_SPACE
  1

  0
ENDBLK
  5
E84
330
E0C
100
AcDbEntity
 67
     1
  8
0
100
AcDbBlockEnd
  0
BLOCK
  5
7B8
330
E1A
100
AcDbEntity
  8
0
100
AcDbBlockBegin
  2
*D2
 70
     1
 10
0.0
 20
0.0
 30
0.0
  3
*D2
  1
GEVFRAME
  0
LINE
  5
7B9
330
E1A
100
AcDbEntity
  8
0
  6
ByBlock
100
AcDbLine
 10
212.529843
 20
422.8095599999998
 30
0.0
 11
71.238242
 21
422.8095599999998
 31
0.0
  0
LINE
  5
7BA
330
E1A
100
AcDbEntity
  8
0
  6
ByBlock
100
AcDbLine
 10
116.238242
 20
377.80956
 30
0.0
 11
71.238242
 21
377.80956
 31
0.0
  0
LINE
  5
7BB
330
E1A
100
AcDbEntity
  8
0
  6
ByBlock
100
AcDbLine
 10
75.738242
 20
434.0595599999998
 30
0.0
 11
75.738242
 21
445.30956
 31
0.0
  0
LINE
  5
7BC
330
E1A
100
AcDbEntity
  8
0
  6
ByBlock
100
AcDbLine
 10
75.738242
 20
366.55956
 30
0.0
 11
75.738242
 21
355.30956
 31
0.0
  0
LINE
  5
7BD
330
E1A
100
AcDbEntity
  8
0
  6
ByBlock
100
AcDbLine
 10
75.738242
 20
422.8095599999998
 30
0.0
 11
75.738242
 21
377.80956
 31
0.0
  0
SOLID
  5
7BE
330
E1A
100
AcDbEntity
  8
0
  6
ByBlock
100
AcDbTrace
 10
73.863242
 20
434.0595599999998
 30
0.0
 11
77.613242
 21
434.0595599999998
 31
0.0
 12
75.738242
 22
422.8095599999998
 32
0.0
 13
75.738242
 23
422.8095599999998
 33
0.0
  0
SOLID
  5
7BF
330
E1A
100
AcDbEntity
  8
0
  6
ByBlock
100
AcDbTrace
 10
73.863242
 20
366.55956
 30
0.0
 11
77.613242
 21
366.55956
 31
0.0
 12
75.738242
 22
377.80956
 32
0.0
 13
75.738242
 23
377.80956
 33
0.0
  0
TEXT
  5
7C0
330
E1A
100
AcDbEntity
  8
0
  6
ByBlock
 62
     2
100
AcDbText
 10
73.03824200000002
 20
388.170867
 30
0.0
 40
15.75
  1
45
 50
90.0
100
AcDbText
  0
POINT
  5
7C1
330
E1A
100
AcDbEntity
  8
DEFPOINTS
  6
ByBlock
 62
     0
100
AcDbPoint
 10
217.029843
 20
422.8095599999998
 30
0.0
  0
POINT
  5
7C2
330
E1A
100
AcDbEntity
  8
DEFPOINTS
  6
ByBlock
 62
     0
100
AcDbPoint
 10
120.738242
 20
377.80956
 30
0.0
  0
POINT
  5
7C3
330
E1A
100
AcDbEntity
  8
DEFPOINTS
  6
ByBlock
 62
     0
100
AcDbPoint
 10
75.738242
 20
377.80956
 30
0.0
  0
ENDBLK
  5
7C4
330
E1A
100
AcDbEntity
  8
0
100
AcDbBlockEnd
  0
BLOCK
  5
B2E
330
E28
100
AcDbEntity
  8
0
100
AcDbBlockBegin
  2
*U4
 70
     1
 10
0.0
 20
0.0
 30
0.0
  3
*U4
  1
*U
  0
LINE
  5
B2F
330
E28
100
AcDbEntity
  8
-BHMU
100
AcDbLine
 10
9.686332
 20
19.476485
 30
0.0
 11
9.686332
 21
-19.476485
 31
0.0
  0
LINE
  5
B30
330
E28
100
AcDbEntity
  8
-BHMU
100
AcDbLine
 10
0.0
 20
19.476485
 30
0.0
 11
0.0
 21
-19.476485
 31
0.0
  0
LINE
  5
B31
330
E28
100
AcDbEntity
  8
BHMM
100
AcDbLine
 10
0.0
 20
-19.476485
 30
0.0
 11
9.686332
 21
-19.476485
 31
0.0
  0
LINE
  5
B32
330
E28
100
AcDbEntity
  8
THLI
100
AcDbLine
 10
0.0
 20
-20.955
 30
0.0
 11
9.686332
 21
-20.955
 31
0.0
  0
LINE
  5
B33
330
E28
100
AcDbEntity
  8
CENN
100
AcDbLine
 10
-3.0
 20
0.0
 30
0.0
 11
12.686332
 21
0.0
 31
0.0
  0
LINE
  5
B34
330
E28
100
AcDbEntity
  8
BHMM
100
AcDbLine
 10
0.0
 20
19.476485
 30
0.0
 11
9.686332
 21
19.476485
 31
0.0
  0
LINE
  5
B35
330
E28
100
AcDbEntity
  8
THLI
100
AcDbLine
 10
0.0
 20
20.955
 30
0.0
 11
9.686332
 21
20.955
 31
0.0
  0
ENDBLK
  5
B36
330
E28
100
AcDbEntity
  8
0
100
AcDbBlockEnd
  0
BLOCK
  5
B38
330
E29
100
AcDbEntity
  8
0
100
AcDbBlockBegin
  2
*U5
 70
     1
 10
0.0
 20
0.0
 30
0.0
  3
*U5
  1
*U
  0
INSERT
  5
B39
330
E29
100
AcDbEntity
  8
GEV_FROZEN
100
AcDbBlockReference
  2
*U4
 10
0.0
 20
0.0
 30
0.0
 41
0.1
 42
0.1
 43
0.1
1001
GENBH
1002
{
1000
-NOBRK
1002
}
  0
LINE
  5
B3A
330
E29
100
AcDbEntity
  8
0
100
AcDbLine
 10
0.0
 20
-19.476485
 30
0.0
 11
9.686332
 21
-19.476485
 31
0.0
  0
LINE
  5
B3B
330
E29
100
AcDbEntity
  8
4
100
AcDbLine
 10
0.0
 20
-20.955
 30
0.0
 11
9.686332
 21
-20.955
 31
0.0
  0
LINE
  5
B3C
330
E29
100
AcDbEntity
  8
7A
100
AcDbLine
 10
-3.0
 20
0.0
 30
0.0
 11
12.686332
 21
0.0
 31
0.0
  0
LINE
  5
B3D
330
E29
100
AcDbEntity
  8
0
100
AcDbLine
 10
0.0
 20
19.476485
 30
0.0
 11
9.686332
 21
19.476485
 31
0.0
  0
LINE
  5
B3E
330
E29
100
AcDbEntity
  8
4
100
AcDbLine
 10
0.0
 20
20.955
 30
0.0
 11
9.686332
 21
20.955
 31
0.0
  0
ENDBLK
  5
B3F
330
E29
100
AcDbEntity
  8
0
100
AcDbBlockEnd
  0
BLOCK
  5
1292
330
128B
100
AcDbEntity
  8
0
100
AcDbBlockBegin
  2
*X23
 70
     1
 10
0.0
 20
0.0
 30
0.0
  3
*X23
  1
GEVFRAME
  0
LINE
  5
128C
330
128B
100
AcDbEntity
  8
0
 62
     0
100
AcDbLine
 10
160.5815429999999
 20
377.80956
 30
0.0
 11
146.321077
 21
392.070026
 31
0.0
  0
LINE
  5
128D
330
128B
100
AcDbEntity
  8
0
 62
     0
100
AcDbLine
 10
153.934739
 20
377.80956
 30
0.0
 11
143.094276
 21
388.650023
 31
0.0
  0
LINE
  5
128E
330
128B
100
AcDbEntity
  8
0
 62
     0
100
AcDbLine
 10
147.287936
 20
377.80956
 30
0.0
 11
143.094276
 21
382.003219
 31
0.0
  0
LINE
  5
128F
330
128B
100
AcDbEntity
  8
0
 62
     0
100
AcDbLine
 10
167.228347
 20
377.80956
 30
0.0
 11
152.967881
 21
392.070026
 31
0.0
  0
LINE
  5
1290
330
128B
100
AcDbEntity
  8
0
 62
     0
100
AcDbLine
 10
168.534637
 20
383.150074
 30
0.0
 11
159.614685
 21
392.070026
 31
0.0
  0
LINE
  5
1291
330
128B
100
AcDbEntity
  8
0
 62
     0
100
AcDbLine
 10
168.534637
 20
389.796877
 30
0.0
 11
166.261488
 21
392.070026
 31
0.0
  0
ENDBLK
  5
1293
330
128B
100
AcDbEntity
  8
0
100
AcDbBlockEnd
  0
BLOCK
  5
170B
330
1709
100
AcDbEntity
  8
0
100
AcDbBlockBegin
  2
GENAXEH
 70
     0
 10
0.0
 20
0.0
 30
0.0
  3
GENAXEH
  1

  0
LINE
  5
170A
330
1709
100
AcDbEntity
  8
0
100
AcDbLine
 10
-1.0
 20
0.0
 30
0.0
 11
1.0
 21
0.0
 31
0.0
  0
ENDBLK
  5
170C
330
1709
100
AcDbEntity
  8
0
100
AcDbBlockEnd
  0
BLOCK
  5
17F8
330
17F7
100
AcDbEntity
  8
0
100
AcDbBlockBegin
  2
*D34
 70
     1
 10
0.0
 20
0.0
 30
0.0
  3
*D34
  1

  0
LINE
  5
1D6F
330
17F7
100
AcDbEntity
  8
AM_5
370
    -2
100
AcDbLine
 10
487.7382419999999
 20
378.605096
 30
0.0
 11
594.2501086518969
 21
378.605096
 31
0.0
  0
LINE
  5
1D70
330
17F7
100
AcDbEntity
  8
AM_5
370
    -2
100
AcDbLine
 10
489.406886
 20
142.80956
 30
0.0
 11
594.2501086518968
 21
142.8095599999999
 31
0.0
  0
LINE
  5
1D71
330
17F7
100
AcDbEntity
  8
AM_5
370
    -2
100
AcDbLine
 10
589.7501086518969
 20
367.355096
 30
0.0
 11
589.7501086518968
 21
154.05956
 31
0.0
  0
SOLID
  5
1D72
330
17F7
100
AcDbEntity
  8
AM_5
100
AcDbTrace
 10
587.875108651897
 20
367.355096
 30
0.0
 11
591.6251086518969
 21
367.355096
 31
0.0
 12
589.7501086518969
 22
378.605096
 32
0.0
 13
589.7501086518969
 23
378.605096
 33
0.0
  0
SOLID
  5
1D73
330
17F7
100
AcDbEntity
  8
AM_5
100
AcDbTrace
 10
587.8751086518969
 20
154.05956
 30
0.0
 11
591.6251086518968
 21
154.05956
 31
0.0
 12
589.7501086518968
 22
142.8095599999999
 32
0.0
 13
589.7501086518968
 23
142.8095599999999
 33
0.0
  0
MTEXT
  5
1D74
330
17F7
100
AcDbEntity
  8
AM_5
 62
     2
100
AcDbMText
 10
579.1735584550464
 20
284.4491616864453
 30
0.0
 40
15.75
 41
0.0
 71
     5
 72
     1
  1
\A1;235
 11
0.0000000000000001
 21
1.0
 31
0.0
 73
     1
 44
1.0
  0
POINT
  5
1D75
330
17F7
100
AcDbEntity
  8
DEFPOINTS
 62
     0
100
AcDbPoint
 10
483.238242
 20
378.605096
 30
0.0
  0
POINT
  5
1D76
330
17F7
100
AcDbEntity
  8
DEFPOINTS
 62
     0
100
AcDbPoint
 10
484.906886
 20
142.80956
 30
0.0
  0
POINT
  5
1D77
330
17F7
100
AcDbEntity
  8
DEFPOINTS
 62
     0
100
AcDbPoint
 10
589.7501086518968
 20
142.8095599999999
 30
0.0
  0
ENDBLK
  5
17F9
330
17F7
100
AcDbEntity
  8
0
100
AcDbBlockEnd
  0
BLOCK
  5
1915
330
1914
100
AcDbEntity
  8
0
100
AcDbBlockBegin
  2
*D39
 70
     1
 10
0.0
 20
0.0
 30
0.0
  3
*D39
  1

  0
LINE
  5
1917
330
1914
100
AcDbEntity
  8
5
370
    -2
100
AcDbLine
 10
214.739283
 20
425.026612
 30
0.0
 11
214.739283
 21
503.809561
 31
0.0
  0
LINE
  5
1918
330
1914
100
AcDbEntity
  8
5
370
    -2
100
AcDbLine
 10
411.7372009999998
 20
425.026612
 30
0.0
 11
411.7372009999998
 21
503.809561
 31
0.0
  0
LINE
  5
1919
330
1914
100
AcDbEntity
  8
5
370
    -2
100
AcDbLine
 10
225.989283
 20
499.309561
 30
0.0
 11
400.4872009999998
 21
499.309561
 31
0.0
  0
SOLID
  5
191A
330
1914
100
AcDbEntity
  8
5
100
AcDbTrace
 10
225.989283
 20
501.184561
 30
0.0
 11
225.989283
 21
497.434561
 31
0.0
 12
214.739283
 22
499.309561
 32
0.0
 13
214.739283
 23
499.309561
 33
0.0
  0
SOLID
  5
191B
330
1914
100
AcDbEntity
  8
5
100
AcDbTrace
 10
400.4872009999998
 20
501.184561
 30
0.0
 11
400.4872009999998
 21
497.434561
 31
0.0
 12
411.7372009999998
 22
499.309561
 32
0.0
 13
411.7372009999998
 23
499.309561
 33
0.0
  0
MTEXT
  5
191C
330
1914
100
AcDbEntity
  8
5
 62
     2
100
AcDbMText
 10
313.2382419999999
 20
509.884561
 30
0.0
 40
15.75
 41
0.0
 71
     5
 72
     1
  1
\A1;197
 73
     1
 44
1.0
  0
POINT
  5
191D
330
1914
100
AcDbEntity
  8
DEFPOINTS
 62
     0
100
AcDbPoint
 10
214.739283
 20
420.526612
 30
0.0
  0
POINT
  5
191E
330
1914
100
AcDbEntity
  8
DEFPOINTS
 62
     0
100
AcDbPoint
 10
411.7372009999998
 20
420.526612
 30
0.0
  0
POINT
  5
191F
330
1914
100
AcDbEntity
  8
DEFPOINTS
 62
     0
100
AcDbPoint
 10
411.7372009999998
 20
499.309561
 30
0.0
  0
ENDBLK
  5
1916
330
1914
100
AcDbEntity
  8
0
100
AcDbBlockEnd
  0
BLOCK
  5
1921
330
1920
100
AcDbEntity
  8
0
100
AcDbBlockBegin
  2
*D40
 70
     1
 10
0.0
 20
0.0
 30
0.0
  3
*D40
  1

  0
LINE
  5
1D4B
330
1920
100
AcDbEntity
  8
5
370
    -2
100
AcDbLine
 10
110.738242
 20
372.3095600000001
 30
0.0
 11
110.738242
 21
538.1600629999998
 31
0.0
  0
LINE
  5
1D4C
330
1920
100
AcDbEntity
  8
5
370
    -2
100
AcDbLine
 10
515.7355899999998
 20
372.3095600000001
 30
0.0
 11
515.7355899999998
 21
538.1600629999998
 31
0.0
  0
LINE
  5
1D4D
330
1920
100
AcDbEntity
  8
5
370
    -2
100
AcDbLine
 10
121.988242
 20
533.6600629999998
 30
0.0
 11
504.4855899999999
 21
533.6600629999998
 31
0.0
  0
SOLID
  5
1D4E
330
1920
100
AcDbEntity
  8
5
100
AcDbTrace
 10
121.988242
 20
535.5350629999998
 30
0.0
 11
121.988242
 21
531.7850629999997
 31
0.0
 12
110.738242
 22
533.6600629999998
 32
0.0
 13
110.738242
 23
533.6600629999998
 33
0.0
  0
SOLID
  5
1D4F
330
1920
100
AcDbEntity
  8
5
100
AcDbTrace
 10
504.4855899999999
 20
535.5350629999998
 30
0.0
 11
504.4855899999999
 21
531.7850629999997
 31
0.0
 12
515.7355899999998
 22
533.6600629999998
 32
0.0
 13
515.7355899999998
 23
533.6600629999998
 33
0.0
  0
MTEXT
  5
1D50
330
1920
100
AcDbEntity
  8
5
 62
     2
100
AcDbMText
 10
313.231916
 20
544.2350629999999
 30
0.0
 40
15.75
 41
0.0
 71
     5
 72
     1
  1
\A1;{\Famgdt;o}405
 73
     1
 44
1.0
  0
POINT
  5
1D51
330
1920
100
AcDbEntity
  8
DEFPOINTS
 62
     0
100
AcDbPoint
 10
110.738242
 20
367.80956
 30
0.0
  0
POINT
  5
1D52
330
1920
100
AcDbEntity
  8
DEFPOINTS
 62
     0
100
AcDbPoint
 10
515.7355899999998
 20
367.80956
 30
0.0
  0
POINT
  5
1D53
330
1920
100
AcDbEntity
  8
DEFPOINTS
 62
     0
100
AcDbPoint
 10
515.7355899999998
 20
533.6600629999998
 30
0.0
  0
ENDBLK
  5
1922
330
1920
100
AcDbEntity
  8
0
100
AcDbBlockEnd
  0
BLOCK
  5
1BBB
330
1BBA
100
AcDbEntity
  8
0
100
AcDbBlockBegin
  2
*D43
 70
     1
 10
0.0
 20
0.0
 30
0.0
  3
*D43
  1

  0
LINE
  5
1D18
330
1BBA
100
AcDbEntity
  8
AM_5
370
    -2
100
AcDbLine
 10
373.238242
 20
138.30956
 30
0.0
 11
373.238242
 21
64.90488480200326
 31
0.0
  0
LINE
  5
1D19
330
1BBA
100
AcDbEntity
  8
AM_5
370
    -2
100
AcDbLine
 10
483.238242
 20
138.30956
 30
0.0
 11
483.238242
 21
64.90488480200326
 31
0.0
  0
LINE
  5
1D1A
330
1BBA
100
AcDbEntity
  8
AM_5
370
    -2
100
AcDbLine
 10
384.488242
 20
69.40488480200326
 30
0.0
 11
471.988242
 21
69.40488480200326
 31
0.0
  0
SOLID
  5
1D1B
330
1BBA
100
AcDbEntity
  8
AM_5
100
AcDbTrace
 10
384.488242
 20
71.27988480200326
 30
0.0
 11
384.488242
 21
67.52988480200326
 31
0.0
 12
373.238242
 22
69.40488480200326
 32
0.0
 13
373.238242
 23
69.40488480200326
 33
0.0
  0
SOLID
  5
1D1C
330
1BBA
100
AcDbEntity
  8
AM_5
100
AcDbTrace
 10
471.988242
 20
71.27988480200326
 30
0.0
 11
471.988242
 21
67.52988480200326
 31
0.0
 12
483.238242
 22
69.40488480200326
 32
0.0
 13
483.238242
 23
69.40488480200326
 33
0.0
  0
MTEXT
  5
1D1D
330
1BBA
100
AcDbEntity
  8
AM_5
 62
     2
100
AcDbMText
 10
428.238242
 20
79.97988480200326
 30
0.0
 40
15.75
 41
0.0
 71
     5
 72
     1
  1
\A1;%%c110
 73
     1
 44
1.0
  0
POINT
  5
1D1E
330
1BBA
100
AcDbEntity
  8
DEFPOINTS
 62
     0
100
AcDbPoint
 10
373.238242
 20
142.80956
 30
0.0
  0
POINT
  5
1D1F
330
1BBA
100
AcDbEntity
  8
DEFPOINTS
 62
     0
100
AcDbPoint
 10
483.238242
 20
142.80956
 30
0.0
  0
POINT
  5
1D20
330
1BBA
100
AcDbEntity
  8
DEFPOINTS
 62
     0
100
AcDbPoint
 10
483.238242
 20
69.40488480200326
 30
0.0
  0
ENDBLK
  5
1BBC
330
1BBA
100
AcDbEntity
  8
0
100
AcDbBlockEnd
  0
BLOCK
  5
1D22
330
1D21
100
AcDbEntity
  8
0
100
AcDbBlockBegin
  2
*D45
 70
     1
 10
0.0
 20
0.0
 30
0.0
  3
*D45
  1

  0
LINE
  5
1D2D
330
1D21
100
AcDbEntity
  8
5
370
    -2
100
AcDbLine
 10
313.238242
 20
232.649514
 30
0.0
 11
313.238242
 21
102.114804
 31
0.0
  0
LINE
  5
1D2E
330
1D21
100
AcDbEntity
  8
5
370
    -2
100
AcDbLine
 10
428.238242
 20
138.30956
 30
0.0
 11
428.238242
 21
102.114804
 31
0.0
  0
LINE
  5
1D2F
330
1D21
100
AcDbEntity
  8
5
370
    -2
100
AcDbLine
 10
324.488242
 20
106.614804
 30
0.0
 11
416.988242
 21
106.614804
 31
0.0
  0
MTEXT
  5
1D30
330
1D21
100
AcDbEntity
  8
5
 62
     2
100
AcDbMText
 10
346.5269068174894
 20
119.5100152613771
 30
0.0
 40
15.75
 41
0.0
 71
     5
 72
     1
  1
\A1;115
 73
     1
 44
1.0
  0
SOLID
  5
1D31
330
1D21
100
AcDbEntity
  8
5
100
AcDbTrace
 10
324.488242
 20
108.489804
 30
0.0
 11
324.488242
 21
104.739804
 31
0.0
 12
313.238242
 22
106.614804
 32
0.0
 13
313.238242
 23
106.614804
 33
0.0
  0
SOLID
  5
1D32
330
1D21
100
AcDbEntity
  8
5
100
AcDbTrace
 10
416.988242
 20
108.489804
 30
0.0
 11
416.988242
 21
104.739804
 31
0.0
 12
428.238242
 22
106.614804
 32
0.0
 13
428.238242
 23
106.614804
 33
0.0
  0
POINT
  5
1D33
330
1D21
100
AcDbEntity
  8
DEFPOINTS
 62
     0
100
AcDbPoint
 10
313.238242
 20
237.149514
 30
0.0
  0
POINT
  5
1D34
330
1D21
100
AcDbEntity
  8
DEFPOINTS
 62
     0
100
AcDbPoint
 10
428.238242
 20
142.80956
 30
0.0
  0
POINT
  5
1D35
330
1D21
100
AcDbEntity
  8
DEFPOINTS
 62
     0
100
AcDbPoint
 10
428.238242
 20
106.614804
 30
0.0
  0
ENDBLK
  5
1D23
330
1D21
100
AcDbEntity
  8
0
100
AcDbBlockEnd
  0
BLOCK
  5
1D37
330
1D36
100
AcDbEntity
  8
0
100
AcDbBlockBegin
  2
*D46
 70
     1
 10
0.0
 20
0.0
 30
0.0
  3
*D46
  1

  0
LINE
  5
1D39
330
1D36
100
AcDbEntity
  8
5
370
    -2
100
AcDbLine
 10
116.238242
 20
377.80956
 30
0.0
 11
35.76429100000003
 21
377.80956
 31
0.0
  0
LINE
  5
1D3A
330
1D36
100
AcDbEntity
  8
5
370
    -2
100
AcDbLine
 10
236.62549
 20
242.80956
 30
0.0
 11
35.76429099999999
 21
242.8095600000001
 31
0.0
  0
LINE
  5
1D3B
330
1D36
100
AcDbEntity
  8
5
370
    -2
100
AcDbLine
 10
40.26429100000002
 20
366.55956
 30
0.0
 11
40.264291
 21
254.05956
 31
0.0
  0
SOLID
  5
1D3C
330
1D36
100
AcDbEntity
  8
5
100
AcDbTrace
 10
38.38929100000002
 20
366.55956
 30
0.0
 11
42.13929100000002
 21
366.55956
 31
0.0
 12
40.26429100000003
 22
377.80956
 32
0.0
 13
40.26429100000003
 23
377.80956
 33
0.0
  0
SOLID
  5
1D3D
330
1D36
100
AcDbEntity
  8
5
100
AcDbTrace
 10
38.389291
 20
254.05956
 30
0.0
 11
42.139291
 21
254.05956
 31
0.0
 12
40.264291
 22
242.8095600000001
 32
0.0
 13
40.264291
 23
242.8095600000001
 33
0.0
  0
MTEXT
  5
1D3E
330
1D36
100
AcDbEntity
  8
5
 62
     2
100
AcDbMText
 10
29.68929099999996
 20
310.30956
 30
0.0
 40
15.75
 41
0.0
 71
     5
 72
     1
  1
\A1;135
 11
0.0000000000000001
 21
1.0
 31
0.0
 73
     1
 44
1.0
  0
POINT
  5
1D3F
330
1D36
100
AcDbEntity
  8
DEFPOINTS
 62
     0
100
AcDbPoint
 10
120.738242
 20
377.80956
 30
0.0
  0
POINT
  5
1D40
330
1D36
100
AcDbEntity
  8
DEFPOINTS
 62
     0
100
AcDbPoint
 10
241.12549
 20
242.80956
 30
0.0
  0
POINT
  5
1D41
330
1D36
100
AcDbEntity
  8
DEFPOINTS
 62
     0
100
AcDbPoint
 10
40.264291
 20
242.8095600000001
 30
0.0
  0
ENDBLK
  5
1D38
330
1D36
100
AcDbEntity
  8
0
100
AcDbBlockEnd
  0
BLOCK
  5
1D79
330
1D78
100
AcDbEntity
  8
0
100
AcDbBlockBegin
  2
*D47
 70
     1
 10
0.0
 20
0.0
 30
0.0
  3
*D47
  1

  0
LINE
  5
1D7B
330
1D78
100
AcDbEntity
  8
5
370
    -2
100
AcDbLine
 10
413.9466409999998
 20
422.8095599999998
 30
0.0
 11
656.6887256767996
 21
422.8095599999997
 31
0.0
  0
LINE
  5
1D7C
330
1D78
100
AcDbEntity
  8
5
370
    -2
100
AcDbLine
 10
489.406886
 20
142.80956
 30
0.0
 11
656.6887256767995
 21
142.8095599999999
 31
0.0
  0
LINE
  5
1D7D
330
1D78
100
AcDbEntity
  8
5
370
    -2
100
AcDbLine
 10
652.1887256767996
 20
411.5595599999998
 30
0.0
 11
652.1887256767995
 21
154.05956
 31
0.0
  0
SOLID
  5
1D7E
330
1D78
100
AcDbEntity
  8
5
100
AcDbTrace
 10
650.3137256767996
 20
411.5595599999998
 30
0.0
 11
654.0637256767996
 21
411.5595599999998
 31
0.0
 12
652.1887256767996
 22
422.8095599999997
 32
0.0
 13
652.1887256767996
 23
422.8095599999997
 33
0.0
  0
SOLID
  5
1D7F
330
1D78
100
AcDbEntity
  8
5
100
AcDbTrace
 10
650.3137256767995
 20
154.05956
 30
0.0
 11
654.0637256767995
 21
154.05956
 31
0.0
 12
652.1887256767995
 22
142.8095599999999
 32
0.0
 13
652.1887256767995
 23
142.8095599999999
 33
0.0
  0
MTEXT
  5
1D80
330
1D78
100
AcDbEntity
  8
5
 62
     2
100
AcDbMText
 10
641.6121754799491
 20
282.8095600000001
 30
0.0
 40
15.75
 41
0.0
 71
     5
 72
     1
  1
\A1;280
 11
0.0000000000000001
 21
1.0
 31
0.0
 73
     1
 44
1.0
  0
POINT
  5
1D81
330
1D78
100
AcDbEntity
  8
DEFPOINTS
 62
     0
100
AcDbPoint
 10
409.4466409999998
 20
422.8095599999998
 30
0.0
  0
POINT
  5
1D82
330
1D78
100
AcDbEntity
  8
DEFPOINTS
 62
     0
100
AcDbPoint
 10
484.906886
 20
142.80956
 30
0.0
  0
POINT
  5
1D83
330
1D78
100
AcDbEntity
  8
DEFPOINTS
 62
     0
100
AcDbPoint
 10
652.1887256767995
 20
142.8095599999999
 30
0.0
  0
ENDBLK
  5
1D7A
330
1D78
100
AcDbEntity
  8
0
100
AcDbBlockEnd
  0
ENDSEC
  0
SECTION
  2
ENTITIES
  0
LINE
  5
29B
330
E0F
100
AcDbEntity
  8
0
100
AcDbLine
 10
221.12549
 20
262.80956
 30
0.0
 11
221.12549
 21
367.80956
 31
0.0
  0
LINE
  5
29D
330
E0F
100
AcDbEntity
  8
0
100
AcDbLine
 10
151.716586
 20
366.234719
 30
0.0
 11
151.716586
 21
361.604486
 31
0.0
  0
LINE
  5
29E
330
E0F
100
AcDbEntity
  8
0
100
AcDbLine
 10
151.716586
 20
361.604486
 30
0.0
 11
110.738242
 21
361.604486
 31
0.0
  0
LINE
  5
2A0
330
E0F
100
AcDbEntity
  8
0
100
AcDbLine
 10
120.738242
 20
377.80956
 30
0.0
 11
231.12549
 21
377.80956
 31
0.0
1001
GENIUS_GENOREF_13
1005
582
  0
LINE
  5
2A3
330
E0F
100
AcDbEntity
  8
0
100
AcDbLine
 10
211.214409
 20
382.375455
 30
0.0
 11
214.539283
 21
420.526612
 31
0.0
  0
LINE
  5
2A6
330
E0F
100
AcDbEntity
  8
7
100
AcDbLine
 10
313.238242
 20
411.794566
 30
0.0
 11
313.238242
 21
237.149514
 31
0.0
1001
GENIUS_GENODEF_13
1002
{
1000
HIER
1070
     0
1002
}
1002
{
1000
MANEDIT
1070
     0
1002
}
1002
{
1000
NOSEL
1070
     0
1002
}
1002
{
1000
BEHIND
1070
     0
1002
}
1002
{
1000
REACTOR
1002
}
1001
GENIUS_GENOBJ-N-CEN_13
1002
{
1000
OWNER
1000
GEN
1002
}
  0
LINE
  5
2A8
330
E0F
100
AcDbEntity
  8
0
100
AcDbLine
 10
110.738242
 20
367.80956
 30
0.0
 11
110.738242
 21
361.604486
 31
0.0
1001
GENIUS_GENODEF_13
1002
{
1000
HIER
1070
     0
1002
}
1002
{
1000
MANEDIT
1070
     0
1002
}
1002
{
1000
NOSEL
1070
     0
1002
}
1002
{
1000
BEHIND
1070
     0
1002
}
1002
{
1000
REACTOR
1002
}
1001
GENIUS_GENOBJ-N-CEN_13
1002
{
1000
OWNER
1000
GEN
1002
}
  0
LINE
  5
2AC
330
E0F
100
AcDbEntity
  8
0
100
AcDbLine
 10
404.7618418340993
 20
258.0364802951299
 30
0.0
 11
425.5258167844479
 21
330.6567981415444
 31
0.0
  0
LINE
  5
2B7
330
E0F
100
AcDbEntity
  8
0
100
AcDbLine
 10
217.029843
 20
422.8095599999998
 30
0.0
 11
231.12549
 21
422.8095599999998
 31
0.0
  0
LINE
  5
2BA
330
E0F
100
AcDbEntity
  8
0
100
AcDbLine
 10
231.12549
 20
266.80956
 30
0.0
 11
231.12549
 21
377.80956
 31
0.0
  0
LINE
  5
2BE
330
E0F
100
AcDbEntity
  8
0
100
AcDbLine
 10
395.4045751608342
 20
261.6859316795157
 30
0.0
 11
415.9111127417335
 21
333.4058839668462
 31
0.0
  0
LINE
  5
2C8
330
E0F
100
AcDbEntity
  8
0
100
AcDbLine
 10
472.2598979999999
 20
368.605096
 30
0.0
 11
405.4039969999998
 21
368.605096
 31
0.0
  0
ARC
  5
2D4
330
E0F
100
AcDbEntity
  8
0
100
AcDbCircle
 10
120.738242
 20
367.80956
 30
0.0
 40
10.0
100
AcDbArc
 50
90.0
 51
180.0
1001
GENIUS_GENODEF_13
1002
{
1000
HIER
1070
     0
1002
}
1002
{
1000
MANEDIT
1070
     0
1002
}
1002
{
1000
NOSEL
1070
     0
1002
}
1002
{
1000
BEHIND
1070
     0
1002
}
1002
{
1000
REACTOR
1002
}
1001
GENIUS_GENOBJ-N-FIL_13
1002
{
1000
OWNER
1000
GEN
1002
}
  0
ARC
  5
2D5
330
E0F
100
AcDbEntity
  8
0
100
AcDbCircle
 10
120.738242
 20
367.80956
 30
0.0
 40
10.0
100
AcDbArc
 50
90.0
 51
180.0
1001
GENIUS_GENODEF_13
1002
{
1000
HIER
1070
     0
1002
}
1002
{
1000
MANEDIT
1070
     0
1002
}
1002
{
1000
NOSEL
1070
     0
1002
}
1002
{
1000
BEHIND
1070
     0
1002
}
1002
{
1000
REACTOR
1002
}
1001
GENIUS_GENOBJ-N-FIL_13
1002
{
1000
OWNER
1000
GEN
1002
}
1001
GENIUS_GENOBJ-N-CEN_13
1002
{
1000
OWNER
1000
GEN
1002
}
  0
ARC
  5
2D7
330
E0F
100
AcDbEntity
  8
0
100
AcDbCircle
 10
173.806052
 20
362.7716888710083
 30
0.0
 40
12.96497014924641
100
AcDbArc
 50
211.258405952422
 51
328.741594047578
1001
GENIUS_GENOREF_13
1005
582
  0
LINE
  5
2D8
330
E0F
100
AcDbEntity
  8
0
100
AcDbLine
 10
162.723132
 20
356.044183
 30
0.0
 11
162.723132
 21
364.734719
 31
0.0
  0
LINE
  5
2D9
330
E0F
100
AcDbEntity
  8
0
100
AcDbLine
 10
184.888973
 20
356.044183
 30
0.0
 11
184.888973
 21
364.734719
 31
0.0
  0
ARC
  5
2DF
330
E0F
100
AcDbEntity
  8
0
100
AcDbCircle
 10
158.723132
 20
364.734719
 30
0.0
 40
4.0
100
AcDbArc
 50
0.0
 51
50.23821128353856
1001
GENIUS_GENODEF_13
1002
{
1000
HIER
1070
     0
1002
}
1002
{
1000
MANEDIT
1070
     0
1002
}
1002
{
1000
NOSEL
1070
     0
1002
}
1002
{
1000
BEHIND
1070
     0
1002
}
1002
{
1000
REACTOR
1002
}
1001
GENIUS_GENOBJ-N-FIL_13
1002
{
1000
OWNER
1000
GEN
1002
}
  0
ARC
  5
2E0
330
E0F
100
AcDbEntity
  8
0
100
AcDbCircle
 10
188.888973
 20
364.734719
 30
0.0
 40
4.0
100
AcDbArc
 50
129.7617887164614
 51
180.0
1001
GENIUS_GENODEF_13
1002
{
1000
HIER
1070
     0
1002
}
1002
{
1000
MANEDIT
1070
     0
1002
}
1002
{
1000
NOSEL
1070
     0
1002
}
1002
{
1000
BEHIND
1070
     0
1002
}
1002
{
1000
REACTOR
1002
}
1001
GENIUS_GENOBJ-N-FIL_13
1002
{
1000
OWNER
1000
GEN
1002
}
  0
LINE
  5
2E1
330
E0F
100
AcDbEntity
  8
0
100
AcDbLine
 10
243.969022
 20
371.288602
 30
0.0
 11
256.992799
 21
262.169772
 31
0.0
  0
LINE
  5
2E2
330
E0F
100
AcDbEntity
  8
0
100
AcDbLine
 10
256.992799
 20
262.169772
 30
0.0
 11
325.44613
 21
262.169772
 31
0.0
  0
LINE
  5
2E3
330
E0F
100
AcDbEntity
  8
0
100
AcDbLine
 10
232.587086
 20
378.780343
 30
0.0
 11
317.622892
 21
378.780343
 31
0.0
  0
LINE
  5
2E4
330
E0F
100
AcDbEntity
  8
0
100
AcDbLine
 10
243.969022
 20
371.288602
 30
0.0
 11
363.569461
 21
371.288602
 31
0.0
  0
LINE
  5
2E5
330
E0F
100
AcDbEntity
  8
0
100
AcDbLine
 10
283.722195
 20
378.780343
 30
0.0
 11
283.722195
 21
383.991988
 31
0.0
  0
LINE
  5
2E6
330
E0F
100
AcDbEntity
  8
0
100
AcDbLine
 10
283.722195
 20
383.991988
 30
0.0
 11
296.760925
 21
383.991988
 31
0.0
  0
LINE
  5
2E7
330
E0F
100
AcDbEntity
  8
0
100
AcDbLine
 10
296.760925
 20
383.991988
 30
0.0
 11
296.760925
 21
378.780343
 31
0.0
  0
LINE
  5
2E8
330
E0F
100
AcDbEntity
  8
0
100
AcDbLine
 10
303.606257
 20
378.780343
 30
0.0
 11
303.606257
 21
387.249266
 31
0.0
  0
LINE
  5
2E9
330
E0F
100
AcDbEntity
  8
0
100
AcDbLine
 10
303.606257
 20
387.249266
 30
0.0
 11
313.238242
 21
387.249266
 31
0.0
  0
LINE
  5
2EA
330
E0F
100
AcDbEntity
  8
0
100
AcDbLine
 10
268.07572
 20
353.699298
 30
0.0
 11
268.07572
 21
291.159551
 31
0.0
  0
LINE
  5
2EB
330
E0F
100
AcDbEntity
  8
0
100
AcDbLine
 10
275.898957
 20
353.699298
 30
0.0
 11
275.898957
 21
291.485279
 31
0.0
  0
LINE
  5
2EC
330
E0F
100
AcDbEntity
  8
0
100
AcDbLine
 10
300.020607
 20
342.950279
 30
0.0
 11
300.020607
 21
291.159551
 31
0.0
  0
LINE
  5
2ED
330
E0F
100
AcDbEntity
  8
0
100
AcDbLine
 10
307.517876
 20
343.276007
 30
0.0
 11
307.517876
 21
292.78819
 31
0.0
  0
ARC
  5
2EE
330
E0F
100
AcDbEntity
  8
0
100
AcDbCircle
 10
303.769241
 20
343.1131430000001
 30
0.0
 40
3.752170999999998
100
AcDbArc
 50
357.512284
 51
182.4877159999999
  0
ARC
  5
2EF
330
E0F
100
AcDbEntity
  8
0
100
AcDbCircle
 10
271.987338
 20
353.699298
 30
0.0
 40
3.911617999999998
100
AcDbArc
 50
0.0
 51
180.0
  0
ARC
  5
2F0
330
E0F
100
AcDbEntity
  8
0
100
AcDbCircle
 10
271.987338
 20
291.322415
 30
0.0
 40
3.915007
100
AcDbArc
 50
177.615811
 51
2.384189
  0
ARC
  5
2F1
330
E0F
100
AcDbEntity
  8
0
100
AcDbCircle
 10
303.769241
 20
291.97387
 30
0.0
 40
3.836062999999998
100
AcDbArc
 50
167.743997
 51
12.256003
  0
ARC
  5
2F2
330
E0F
100
AcDbEntity
  8
0
100
AcDbCircle
 10
287.982829
 20
291.322415
 30
0.0
 40
3.915007
100
AcDbArc
 50
177.615811
 51
2.384189
  0
LINE
  5
2F3
330
E0F
100
AcDbEntity
  8
0
100
AcDbLine
 10
291.894448
 20
353.699298
 30
0.0
 11
291.894448
 21
291.485279
 31
0.0
  0
LINE
  5
2F4
330
E0F
100
AcDbEntity
  8
0
100
AcDbLine
 10
284.071211
 20
353.699298
 30
0.0
 11
284.071211
 21
291.159551
 31
0.0
  0
ARC
  5
2F5
330
E0F
100
AcDbEntity
  8
0
100
AcDbCircle
 10
287.982829
 20
353.699298
 30
0.0
 40
3.911617999999998
100
AcDbArc
 50
0.0
 51
180.0
  0
LINE
  5
2F7
330
E0F
100
AcDbEntity
  8
0
100
AcDbLine
 10
232.587086
 20
378.780343
 30
0.0
 11
243.969022
 21
371.288602
 31
0.0
  0
LINE
  5
2F8
330
E0F
100
AcDbEntity
  8
0
100
AcDbLine
 10
261.461074
 20
262.169772
 30
0.0
 11
262.072606
 21
253.170223
 31
0.0
  0
LINE
  5
2F9
330
E0F
100
AcDbEntity
  8
0
100
AcDbLine
 10
268.293548
 20
262.169772
 30
0.0
 11
266.965484
 21
253.341776
 31
0.0
  0
ARC
  5
2FA
330
E0F
100
AcDbEntity
  8
0
100
AcDbCircle
 10
264.519045
 20
253.255999
 30
0.0
 40
2.447942999999999
100
AcDbArc
 50
182.008068
 51
2.008068
  0
LINE
  5
2FB
330
E0F
100
AcDbEntity
  8
0
100
AcDbLine
 10
231.12549
 20
385.621087
 30
0.0
 11
253.089279
 21
385.621087
 31
0.0
  0
LINE
  5
2FC
330
E0F
100
AcDbEntity
  8
0
100
AcDbLine
 10
253.089279
 20
385.621087
 30
0.0
 11
253.089279
 21
378.780343
 31
0.0
  0
LINE
  5
2FD
330
E0F
100
AcDbEntity
  8
0
100
AcDbLine
 10
244.436329
 20
371.344073
 30
0.0
 11
231.12549
 21
371.344073
 31
0.0
  0
LINE
  5
2FF
330
E0F
100
AcDbEntity
  8
0
100
AcDbLine
 10
350.545684
 20
262.169772
 30
0.0
 11
282.092353
 21
262.169772
 31
0.0
  0
LINE
  5
300
330
E0F
100
AcDbEntity
  8
0
100
AcDbLine
 10
363.569461
 20
371.288602
 30
0.0
 11
350.545684
 21
262.169772
 31
0.0
  0
ARC
  5
301
330
E0F
100
AcDbEntity
  8
0
100
AcDbCircle
 10
319.555653
 20
291.322415
 30
0.0
 40
3.915007
100
AcDbArc
 50
177.615811
 51
2.384189
  0
ARC
  5
302
330
E0F
100
AcDbEntity
  8
0
100
AcDbCircle
 10
335.551145
 20
291.322415
 30
0.0
 40
3.915007
100
AcDbArc
 50
177.615811
 51
2.384189
  0
LINE
  5
303
330
E0F
100
AcDbEntity
  8
0
100
AcDbLine
 10
346.077409
 20
262.169772
 30
0.0
 11
345.465877
 21
253.170223
 31
0.0
  0
LINE
  5
304
330
E0F
100
AcDbEntity
  8
0
100
AcDbLine
 10
339.244935
 20
262.169772
 30
0.0
 11
340.5729990000001
 21
253.341776
 31
0.0
  0
LINE
  5
305
330
E0F
100
AcDbEntity
  8
0
100
AcDbLine
 10
323.467272
 20
353.699298
 30
0.0
 11
323.467272
 21
291.159551
 31
0.0
  0
LINE
  5
306
330
E0F
100
AcDbEntity
  8
0
100
AcDbLine
 10
315.644035
 20
353.699298
 30
0.0
 11
315.644035
 21
291.485279
 31
0.0
  0
LINE
  5
307
330
E0F
100
AcDbEntity
  8
0
100
AcDbLine
 10
331.639526
 20
353.699298
 30
0.0
 11
331.639526
 21
291.485279
 31
0.0
  0
LINE
  5
308
330
E0F
100
AcDbEntity
  8
0
100
AcDbLine
 10
339.462763
 20
353.699298
 30
0.0
 11
339.462763
 21
291.159551
 31
0.0
  0
ARC
  5
309
330
E0F
100
AcDbEntity
  8
0
100
AcDbCircle
 10
319.555653
 20
353.699298
 30
0.0
 40
3.911617999999998
100
AcDbArc
 50
0.0
 51
180.0
  0
ARC
  5
30A
330
E0F
100
AcDbEntity
  8
0
100
AcDbCircle
 10
335.551145
 20
353.699298
 30
0.0
 40
3.911617999999998
100
AcDbArc
 50
0.0
 51
180.0
  0
LINE
  5
30B
330
E0F
100
AcDbEntity
  8
0
100
AcDbLine
 10
375.626637
 20
378.780343
 30
0.0
 11
289.915591
 21
378.780343
 31
0.0
  0
LINE
  5
30C
330
E0F
100
AcDbEntity
  8
0
100
AcDbLine
 10
375.626637
 20
378.780343
 30
0.0
 11
363.569461
 21
371.288602
 31
0.0
  0
ARC
  5
30D
330
E0F
100
AcDbEntity
  8
0
100
AcDbCircle
 10
343.019438
 20
253.255999
 30
0.0
 40
2.447942999999999
100
AcDbArc
 50
177.991932
 51
357.991932
  0
LINE
  5
30E
330
E0F
100
AcDbEntity
  8
0
100
AcDbLine
 10
322.870227
 20
387.249266
 30
0.0
 11
313.238242
 21
387.249266
 31
0.0
  0
LINE
  5
30F
330
E0F
100
AcDbEntity
  8
0
100
AcDbLine
 10
342.754289
 20
383.991988
 30
0.0
 11
329.715559
 21
383.991988
 31
0.0
  0
LINE
  5
310
330
E0F
100
AcDbEntity
  8
0
100
AcDbLine
 10
342.754289
 20
378.780343
 30
0.0
 11
342.754289
 21
383.991988
 31
0.0
  0
LINE
  5
311
330
E0F
100
AcDbEntity
  8
0
100
AcDbLine
 10
329.715559
 20
383.991988
 30
0.0
 11
329.715559
 21
378.780343
 31
0.0
  0
LINE
  5
312
330
E0F
100
AcDbEntity
  8
0
100
AcDbLine
 10
322.870227
 20
378.780343
 30
0.0
 11
322.870227
 21
387.249266
 31
0.0
  0
LINE
  5
313
330
E0F
100
AcDbEntity
  8
0
100
AcDbLine
 10
363.102154
 20
371.344073
 30
0.0
 11
363.63151
 21
371.344073
 31
0.0
  0
LINE
  5
314
330
E0F
100
AcDbEntity
  8
0
100
AcDbLine
 10
395.350994
 20
385.621087
 30
0.0
 11
362.545746
 21
385.621087
 31
0.0
  0
LINE
  5
315
330
E0F
100
AcDbEntity
  8
0
100
AcDbLine
 10
362.545746
 20
385.621087
 30
0.0
 11
362.545746
 21
378.780343
 31
0.0
  0
LINE
  5
316
330
E0F
100
AcDbEntity
  8
0
100
AcDbLine
 10
395.350994
 20
370.019016
 30
0.0
 11
395.350994
 21
378.605096
 31
0.0
  0
LINE
  5
317
330
E0F
100
AcDbEntity
  8
0
100
AcDbLine
 10
415.1927439999998
 20
383.170991
 30
0.0
 11
411.9372009999998
 21
420.526612
 31
0.0
  0
LINE
  5
318
330
E0F
100
AcDbEntity
  8
0
100
AcDbLine
 10
409.4466409999998
 20
422.8095599999998
 30
0.0
 11
395.350994
 21
422.8095599999998
 31
0.0
  0
LINE
  5
319
330
E0F
100
AcDbEntity
  8
0
100
AcDbLine
 10
366.916297
 20
322.700302
 30
0.0
 11
366.916297
 21
278.30956
 31
0.0
  0
LINE
  5
31B
330
E0F
100
AcDbEntity
  8
0
100
AcDbLine
 10
376.348124
 20
278.30956
 30
0.0
 11
376.348124
 21
320.091846
 31
0.0
  0
LINE
  5
31D
330
E0F
100
AcDbEntity
  8
0
100
AcDbLine
 10
366.916297
 20
322.700302
 30
0.0
 11
395.350994
 21
370.176402
 31
0.0
1001
GENIUS_GENOREF_13
1005
B7C
  0
LINE
  5
324
330
E0F
100
AcDbEntity
  8
0
100
AcDbLine
 10
474.906886
 20
378.605096
 30
0.0
 11
395.350994
 21
378.605096
 31
0.0
  0
LINE
  5
325
330
E0F
100
AcDbEntity
  8
0
100
AcDbLine
 10
403.3856616902174
 20
391.953412
 30
0.0
 11
414.427356
 21
391.953412
 31
0.0
  0
LINE
  5
329
330
E0F
100
AcDbEntity
  8
0
100
AcDbLine
 10
370.603721
 20
342.480511
 30
0.0
 11
387.2420410000001
 21
370.260747
 31
0.0
1001
GENIUS_GENOREF_13
1005
B7C
  0
LINE
  5
32B
330
E0F
100
AcDbEntity
  8
0
100
AcDbLine
 10
365.100394
 20
349.237285
 30
0.0
 11
378.687744
 21
371.923456
 31
0.0
1001
GENIUS_GENOREF_13
1005
B7C
  0
LINE
  5
32D
330
E0F
100
AcDbEntity
  8
0
100
AcDbLine
 10
365.100394
 20
349.237285
 30
0.0
 11
372.129206
 21
345.027544
 31
0.0
  0
LINE
  5
32E
330
E0F
100
AcDbEntity
  8
0
100
AcDbLine
 10
378.687744
 20
371.923456
 30
0.0
 11
385.716556
 21
367.713715
 31
0.0
1001
GENIUS_GENOREF_13
1005
B7C
  0
LINE
  5
32F
330
E0F
100
AcDbEntity
  8
0
100
AcDbLine
 10
390.671335
 20
371.120948
 30
0.0
 11
394.53188
 21
368.808765
 31
0.0
1001
GENIUS_GENOREF_13
1005
B7C
  0
LINE
  5
331
330
E0F
100
AcDbEntity
  8
7A
100
AcDbLine
 10
367.770195
 20
363.050269
 30
0.0
 11
395.593425
 21
346.386198
 31
0.0
1001
GENIUS_GENODEF_13
1002
{
1000
HIER
1070
     0
1002
}
1002
{
1000
MANEDIT
1070
     0
1002
}
1002
{
1000
NOSEL
1070
     0
1002
}
1002
{
1000
BEHIND
1070
     0
1002
}
1002
{
1000
REACTOR
1002
}
1001
GENIUS_GENOBJ-N-CEN_13
1002
{
1000
OWNER
1000
GEN
1002
}
1001
GENIUS_GENOREF_13
1005
B7C
  0
LINE
  5
332
330
E0F
100
AcDbEntity
  8
0
100
AcDbLine
 10
371.463922
 20
339.051218
 30
0.0
 11
375.324467
 21
336.739035
 31
0.0
1001
GENIUS_GENOREF_13
1005
B7C
  0
LINE
  5
334
330
E0F
100
AcDbEntity
  8
0
100
AcDbLine
 10
370.603721
 20
342.480511
 30
0.0
 11
371.463922
 21
339.051218
 31
0.0
1001
GENIUS_GENODEF_13
1002
{
1000
HIER
1070
     0
1002
}
1002
{
1000
MANEDIT
1070
     0
1002
}
1002
{
1000
NOSEL
1070
     0
1002
}
1002
{
1000
BEHIND
1070
     0
1002
}
1002
{
1000
REACTOR
1002
}
1001
GENIUS_GENOBJ-N-CHA_13
1002
{
1000
OWNER
1000
GEN
1002
}
1001
GENIUS_GENFIL_13
1070
     0
1040
2.5
1040
2.5
1040
0.0
1040
0.0
1002
{
1002
}
  0
LINE
  5
337
330
E0F
100
AcDbEntity
  8
0
100
AcDbLine
 10
370.603721
 20
342.480511
 30
0.0
 11
371.463922
 21
339.051218
 31
0.0
1001
GENIUS_GENODEF_13
1002
{
1000
HIER
1070
     0
1002
}
1002
{
1000
MANEDIT
1070
     0
1002
}
1002
{
1000
NOSEL
1070
     0
1002
}
1002
{
1000
BEHIND
1070
     0
1002
}
1002
{
1000
REACTOR
1002
}
1001
GENIUS_GENOBJ-N-CHA_13
1002
{
1000
OWNER
1000
GEN
1002
}
1001
GENIUS_GENFIL_13
1070
     0
1040
2.5
1040
2.5
1040
0.0
1040
0.0
1002
{
1002
}
  0
LINE
  5
338
330
E0F
100
AcDbEntity
  8
0
100
AcDbLine
 10
387.2420410000001
 20
370.260747
 30
0.0
 11
390.671335
 21
371.120948
 31
0.0
1001
GENIUS_GENODEF_13
1002
{
1000
HIER
1070
     0
1002
}
1002
{
1000
MANEDIT
1070
     0
1002
}
1002
{
1000
NOSEL
1070
     0
1002
}
1002
{
1000
BEHIND
1070
     0
1002
}
1002
{
1000
REACTOR
1002
}
1001
GENIUS_GENOBJ-N-CHA_13
1002
{
1000
OWNER
1000
GEN
1002
}
1001
GENIUS_GENFIL_13
1070
     0
1040
2.5
1040
2.5
1040
0.0
1040
0.0
1002
{
1002
}
  0
LINE
  5
339
330
E0F
100
AcDbEntity
  8
0
100
AcDbLine
 10
378.687744
 20
371.923456
 30
0.0
 11
372.129206
 21
345.027544
 31
0.0
1001
GENIUS_GENOREF_13
1005
B7C
  0
LINE
  5
33A
330
E0F
100
AcDbEntity
  8
0
100
AcDbLine
 10
365.100394
 20
349.237285
 30
0.0
 11
385.716556
 21
367.713715
 31
0.0
1001
GENIUS_GENOREF_13
1005
B7C
  0
LINE
  5
33B
330
E0F
100
AcDbEntity
  8
0
100
AcDbLine
 10
373.848124
 20
275.80956
 30
0.0
 11
369.4162970000001
 21
275.80956
 31
0.0
  0
LINE
  5
57C
330
E0F
100
AcDbEntity
  8
0
100
AcDbLine
 10
212.059291
 20
392.070026
 30
0.0
 11
223.1009852044134
 21
392.070026
 31
0.0
1001
GENIUS_GENOREF_13
1005
582
  0
POINT
  5
582
330
E0F
100
AcDbEntity
  8
0
 60
     1
100
AcDbPoint
 10
0.0
 20
0.0
 30
0.0
1001
GENIUS_GENBH_13
1002
{
1000
FGO
1005
580
1002
}
1001
GENIUS_GENODEF_13
1002
{
1000
HIER
1070
     1
1002
}
1002
{
1000
MANEDIT
1070
     1
1002
}
1002
{
1000
NOSEL
1070
     1
1002
}
1002
{
1000
BEHIND
1070
     0
1002
}
1002
{
1000
REACTOR
1002
}
1001
GENIUS_GENOBJ-NBEHI-BHB_13
1002
{
1000
OWNER
1000
GENBEHI
1002
}
1001
GENIUS_GENOENT_13
1002
{
1000
MYREF
1005
582
1002
}
1002
{
1000
GRP
1005
0
1002
}
1001
GENIUS_GENOLIS_13
1002
{
1000
ENT
1005
57E
1005
57C
1005
2A0
1005
2D7
1002
}
  0
LINE
  5
653
330
E0F
100
AcDbEntity
  8
7AN
100
AcDbLine
 10
173.534637
 20
347.565875
 30
0.0
 11
173.534637
 21
414.9658749999998
 31
0.0
  0
LINE
  5
681
330
E0F
100
AcDbEntity
  8
7AN
100
AcDbLine
 10
173.534637
 20
396.984289
 30
0.0
 11
173.534637
 21
411.3842889999999
 31
0.0
  0
LINE
  5
69C
330
E0F
100
AcDbEntity
  8
7
100
AcDbLine
 10
428.238242
 20
279.950422
 30
0.0
 11
428.238242
 21
130.722385
 31
0.0
1001
GENIUS_GENODEF_13
1002
{
1000
HIER
1070
     0
1002
}
1002
{
1000
MANEDIT
1070
     0
1002
}
1002
{
1000
NOSEL
1070
     0
1002
}
1002
{
1000
BEHIND
1070
     0
1002
}
1002
{
1000
REACTOR
1002
}
1001
GENIUS_GENOBJ-N-CEN_13
1002
{
1000
OWNER
1000
GEN
1002
}
  0
LINE
  5
6A6
330
E0F
100
AcDbEntity
  8
0
100
AcDbLine
 10
477.941221
 20
361.604486
 30
0.0
 11
477.941221
 21
142.80956
 31
0.0
  0
LINE
  5
6A8
330
E0F
100
AcDbEntity
  8
0
100
AcDbLine
 10
483.238242
 20
142.80956
 30
0.0
 11
373.238242
 21
142.80956
 31
0.0
  0
LINE
  5
6AD
330
E0F
100
AcDbEntity
  8
0
100
AcDbLine
 10
378.535263
 20
239.80956
 30
0.0
 11
378.535263
 21
142.80956
 31
0.0
  0
LINE
  5
6BA
330
E0F
100
AcDbEntity
  8
0
100
AcDbLine
 10
375.626637
 20
378.780343
 30
0.0
 11
375.626637
 21
372.261512
 31
0.0
  0
LINE
  5
6BB
330
E0F
100
AcDbEntity
  8
0
100
AcDbLine
 10
365.135258
 20
372.261512
 30
0.0
 11
395.350994
 21
372.261512
 31
0.0
  0
DIMENSION
  5
6EF
330
E0F
100
AcDbEntity
  8
5
100
AcDbDimension
  2
*D45
 10
428.238242
 20
106.614804
 30
0.0
 11
346.5269068174894
 21
119.5100152613771
 31
0.0
 70
   160
  1
<>
 71
     5
 42
115.0
  3
GEN-ISO
100
AcDbAlignedDimension
 13
313.238242
 23
237.149514
 33
0.0
 14
428.238242
 24
142.80956
 34
0.0
100
AcDbRotatedDimension
1001
GENIUS_GENDTOL_13
1000

1000
h7
1000

1040
0.0
1001
ACAD
1000
DSTYLE
1002
{
1070
   279
1070
     2
1002
}
  0
ARC
  5
6FB
330
E0F
100
AcDbEntity
  8
0
100
AcDbCircle
 10
217.029843
 20
420.30956
 30
0.0
 40
2.5
100
AcDbArc
 50
90.0
 51
175.019256
1001
GENIUS_GENODEF_13
1002
{
1000
HIER
1070
     0
1002
}
1002
{
1000
MANEDIT
1070
     0
1002
}
1002
{
1000
NOSEL
1070
     0
1002
}
1002
{
1000
BEHIND
1070
     0
1002
}
1002
{
1000
REACTOR
1002
}
1001
GENIUS_GENOBJ-N-FIL_13
1002
{
1000
OWNER
1000
GEN
1002
}
  0
ARC
  5
6FC
330
E0F
100
AcDbEntity
  8
0
100
AcDbCircle
 10
409.4466409999998
 20
420.30956
 30
0.0
 40
2.5
100
AcDbArc
 50
4.980744
 51
90.0
1001
GENIUS_GENODEF_13
1002
{
1000
HIER
1070
     0
1002
}
1002
{
1000
MANEDIT
1070
     0
1002
}
1002
{
1000
NOSEL
1070
     0
1002
}
1002
{
1000
BEHIND
1070
     0
1002
}
1002
{
1000
REACTOR
1002
}
1001
GENIUS_GENOBJ-N-FIL_13
1002
{
1000
OWNER
1000
GEN
1002
}
  0
DIMENSION
  5
799
330
E0F
100
AcDbEntity
  8
5
100
AcDbDimension
  2
*D47
 10
652.1887256767995
 20
142.8095599999999
 30
0.0
 11
652.1887256767995
 21
282.8095600000001
 31
0.0
 70
   160
  1
<>
 71
     5
 42
279.9999999999999
  3
GEN-ISO
100
AcDbAlignedDimension
 13
409.4466409999998
 23
422.8095599999998
 33
0.0
 14
484.906886
 24
142.80956
 34
0.0
 50
90.0
100
AcDbRotatedDimension
1001
GENIUS_GENDTOL_13
1000

1000
h7
1000

1040
0.0
  0
DIMENSION
  5
7B7
330
E0F
100
AcDbEntity
  8
5
100
AcDbDimension
  2
*D2
 10
75.738242
 20
377.80956
 30
0.0
 11
65.16324200000001
 21
400.3095599999999
 31
0.0
  1
<>
 71
     5
 42
-1.0
  3
GEN-ISO
100
AcDbAlignedDimension
 13
217.029843
 23
422.8095599999998
 33
0.0
 14
120.738242
 24
377.80956
 34
0.0
 50
90.0
100
AcDbRotatedDimension
1001
GENIUS_GENDTOL_13
1000

1000
h7
1000

1040
0.0
  0
DIMENSION
  5
7D5
330
E0F
100
AcDbEntity
  8
5
100
AcDbDimension
  2
*D46
 10
40.264291
 20
242.8095600000001
 30
0.0
 11
29.68929099999996
 21
310.30956
 31
0.0
 70
    32
  1
<>
 71
     5
 42
134.9999999999999
  3
GEN-ISO
100
AcDbAlignedDimension
 13
120.738242
 23
377.80956
 33
0.0
 14
241.12549
 24
242.80956
 34
0.0
 50
90.0
100
AcDbRotatedDimension
1001
GENIUS_GENDTOL_13
1000

1000
h7
1000

1040
0.0
  0
LINE
  5
7E2
330
E0F
100
AcDbEntity
  8
0
100
AcDbLine
 10
381.535263
 20
242.80956
 30
0.0
 11
384.570963925469
 21
242.80956
 31
0.0
  0
ARC
  5
7E4
330
E0F
100
AcDbEntity
  8
0
100
AcDbCircle
 10
241.12549
 20
262.80956
 30
0.0
 40
20.0
100
AcDbArc
 50
180.0
 51
270.0
1001
GENIUS_GENODEF_13
1002
{
1000
HIER
1070
     0
1002
}
1002
{
1000
MANEDIT
1070
     0
1002
}
1002
{
1000
NOSEL
1070
     0
1002
}
1002
{
1000
BEHIND
1070
     0
1002
}
1002
{
1000
REACTOR
1002
}
1001
GENIUS_GENOBJ-N-FIL_13
1002
{
1000
OWNER
1000
GEN
1002
}
  0
LINE
  5
7E6
330
E0F
100
AcDbEntity
  8
0
100
AcDbLine
 10
247.12549
 20
250.80956
 30
0.0
 11
380.9825195003363
 21
250.80956
 31
0.0
  0
ARC
  5
7E8
330
E0F
100
AcDbEntity
  8
0
100
AcDbCircle
 10
247.12549
 20
266.80956
 30
0.0
 40
16.0
100
AcDbArc
 50
180.0
 51
270.0
1001
GENIUS_GENODEF_13
1002
{
1000
HIER
1070
     0
1002
}
1002
{
1000
MANEDIT
1070
     0
1002
}
1002
{
1000
NOSEL
1070
     0
1002
}
1002
{
1000
BEHIND
1070
     0
1002
}
1002
{
1000
REACTOR
1002
}
1001
GENIUS_GENOBJ-N-FIL_13
1002
{
1000
OWNER
1000
GEN
1002
}
  0
DIMENSION
  5
805
330
E0F
100
AcDbEntity
  8
5
100
AcDbDimension
  2
*D40
 10
515.7355899999998
 20
533.6600629999998
 30
0.0
 11
313.231916
 21
533.6600629999998
 31
0.0
 70
   160
  1
{\Famgdt;o}<>
 71
     5
 42
404.9973479999998
  3
GEN-ISO
100
AcDbAlignedDimension
 13
110.738242
 23
367.80956
 33
0.0
 14
515.7355899999998
 24
367.80956
 34
0.0
100
AcDbRotatedDimension
1001
GENIUS_GENDTOL_13
1000

1000
h7
1000

1040
0.0
1001
ACAD_DSTYLE_DIMINSPECT
1070
   396
1000
100%
1070
   395
1000

1070
   394
1070
    33
1070
   393
1070
     0
  0
DIMENSION
  5
82D
330
E0F
100
AcDbEntity
  8
5
100
AcDbDimension
  2
*D39
 10
411.7372009999998
 20
499.309561
 30
0.0
 11
313.2382419999999
 21
509.884561
 31
0.0
 70
    32
  1
<>
 71
     5
 42
196.9979179999998
  3
GEN-ISO
100
AcDbAlignedDimension
 13
214.739283
 23
420.526612
 33
0.0
 14
411.7372009999998
 24
420.526612
 34
0.0
100
AcDbRotatedDimension
1001
GENIUS_GENDTOL_13
1000

1000
h7
1000

1040
0.0
  0
POLYLINE
  5
863
330
E0F
100
AcDbEntity
  8
6
100
AcDb2dPolyline
 66
     1
 10
0.0
 20
0.0
 30
0.0
 70
     1
1001
GENIUS_GENODEF_13
1002
{
1000
HIER
1070
     0
1002
}
1002
{
1000
MANEDIT
1070
     0
1002
}
1002
{
1000
NOSEL
1070
     0
1002
}
1002
{
1000
BEHIND
1070
     0
1002
}
1002
{
1000
REACTOR
1002
}
1001
GENIUS_GENOBJ-N-REC_13
1002
{
1000
OWNER
1000
GEN
1002
}
1001
GENIUS_GENREC_13
1070
     4
1070
     2
1070
     1
  0
VERTEX
  5
DF4
330
863
100
AcDbEntity
  8
6
100
AcDbVertex
100
AcDb2dVertex
 10
280.975177
 20
508.1789699999998
 30
0.0
  0
VERTEX
  5
DF5
330
863
100
AcDbEntity
  8
6
100
AcDbVertex
100
AcDb2dVertex
 10
292.545423
 20
508.1789699999998
 30
0.0
  0
VERTEX
  5
DF6
330
863
100
AcDbEntity
  8
6
100
AcDbVertex
100
AcDb2dVertex
 10
292.545423
 20
519.749216
 30
0.0
  0
VERTEX
  5
DF7
330
863
100
AcDbEntity
  8
6
100
AcDbVertex
100
AcDb2dVertex
 10
280.975177
 20
519.749216
 30
0.0
  0
SEQEND
  5
DF8
330
863
100
AcDbEntity
  8
6
  0
TEXT
  5
869
330
E0F
100
AcDbEntity
  8
6
100
AcDbText
 10
410.801234
 20
329.625908
 30
0.0
 40
17.683025
  1
G 1¼
100
AcDbText
  0
LINE
  5
892
330
E0F
100
AcDbEntity
  8
0
100
AcDbLine
 10
173.806052
 20
349.80956
 30
0.0
 11
221.12549
 21
349.80956
 31
0.0
  0
LINE
  5
9DC
330
E0F
100
AcDbEntity
  8
5
100
AcDbLine
 10
378.699979
 20
333.314985
 30
0.0
 11
405.343572
 21
337.949884
 31
0.0
1001
GENIUS_GENOREF_13
1005
B7C
  0
ARC
  5
9E1
330
E0F
100
AcDbEntity
  8
0
100
AcDbCircle
 10
441.536499
 20
362.7775966943222
 30
0.0
 40
12.96803669432213
100
AcDbArc
 50
211.2807189844175
 51
328.7192810155825
1001
GENIUS_GENOREF_13
1005
582
  0
LINE
  5
9E2
330
E0F
100
AcDbEntity
  8
0
100
AcDbLine
 10
430.453579
 20
356.044183
 30
0.0
 11
430.453579
 21
364.734719
 31
0.0
  0
ARC
  5
9E3
330
E0F
100
AcDbEntity
  8
0
100
AcDbCircle
 10
426.453579
 20
364.734719
 30
0.0
 40
4.0
100
AcDbArc
 50
0.0
 51
90.0
1001
GENIUS_GENODEF_13
1002
{
1000
HIER
1070
     0
1002
}
1002
{
1000
MANEDIT
1070
     0
1002
}
1002
{
1000
NOSEL
1070
     0
1002
}
1002
{
1000
BEHIND
1070
     0
1002
}
1002
{
1000
REACTOR
1002
}
1001
GENIUS_GENOBJ-N-FIL_13
1002
{
1000
OWNER
1000
GEN
1002
}
  0
LINE
  5
9E4
330
E0F
100
AcDbEntity
  8
0
100
AcDbLine
 10
452.619419
 20
356.044183
 30
0.0
 11
452.619419
 21
364.734719
 31
0.0
  0
ARC
  5
9E6
330
E0F
100
AcDbEntity
  8
0
100
AcDbCircle
 10
456.619419
 20
364.734719
 30
0.0
 40
4.0
100
AcDbArc
 50
90.0
 51
180.0
1001
GENIUS_GENODEF_13
1002
{
1000
HIER
1070
     0
1002
}
1002
{
1000
MANEDIT
1070
     0
1002
}
1002
{
1000
NOSEL
1070
     0
1002
}
1002
{
1000
BEHIND
1070
     0
1002
}
1002
{
1000
REACTOR
1002
}
1001
GENIUS_GENOBJ-N-FIL_13
1002
{
1000
OWNER
1000
GEN
1002
}
  0
ARC
  5
9E9
330
E0F
100
AcDbEntity
  8
0
100
AcDbCircle
 10
154.216586
 20
366.234719
 30
0.0
 40
2.5
100
AcDbArc
 50
140.9545696005681
 51
180.0
1001
GENIUS_GENODEF_13
1002
{
1000
HIER
1070
     0
1002
}
1002
{
1000
MANEDIT
1070
     0
1002
}
1002
{
1000
NOSEL
1070
     0
1002
}
1002
{
1000
BEHIND
1070
     0
1002
}
1002
{
1000
REACTOR
1002
}
1001
GENIUS_GENOBJ-N-FIL_13
1002
{
1000
OWNER
1000
GEN
1002
}
  0
ARC
  5
9F1
330
E0F
100
AcDbEntity
  8
0
100
AcDbCircle
 10
206.233289
 20
382.8095600000001
 30
0.0
 40
5.0
100
AcDbArc
 50
270.0
 51
355.019256
1001
GENIUS_GENODEF_13
1002
{
1000
HIER
1070
     0
1002
}
1002
{
1000
MANEDIT
1070
     0
1002
}
1002
{
1000
NOSEL
1070
     0
1002
}
1002
{
1000
BEHIND
1070
     0
1002
}
1002
{
1000
REACTOR
1002
}
1001
GENIUS_GENOBJ-N-FIL_13
1002
{
1000
OWNER
1000
GEN
1002
}
1001
GENIUS_GENOREF_13
1005
582
  0
ARC
  5
9F2
330
E0F
100
AcDbEntity
  8
0
100
AcDbCircle
 10
420.173864
 20
383.605096
 30
0.0
 40
5.0
100
AcDbArc
 50
184.980744
 51
270.0
1001
GENIUS_GENODEF_13
1002
{
1000
HIER
1070
     0
1002
}
1002
{
1000
MANEDIT
1070
     0
1002
}
1002
{
1000
NOSEL
1070
     0
1002
}
1002
{
1000
BEHIND
1070
     0
1002
}
1002
{
1000
REACTOR
1002
}
1001
GENIUS_GENOBJ-N-FIL_13
1002
{
1000
OWNER
1000
GEN
1002
}
  0
INSERT
  5
B40
330
E0F
100
AcDbEntity
  8
0
100
AcDbBlockReference
  2
*U5
 10
384.928173
 20
352.7739
 30
0.0
 50
329.081489
1001
GENIUS_GEFPARTINS_13
1002
{
1011
384.928173
1021
352.7739
1031
0.0
1013
0.8578989999999999
1023
-0.5138180000000001
1033
0.0
1002
}
1001
VCC
1002
{
1000
-ID1
1000
-IE1
1000
-IK1
1000
-V$PV_GENSYSTEM"GEF\VAL\IS\0405\IS1627_V.DXF"
1002
}
1001
GEVIT
1002
{
1000
-BEHI1.00000001
1000
-BVCCT0
1000
-GRP00
1000
-BAML2
1000
-BASK1
1000
-NT0
1000
-DOC
1005
B2E
1000
-MYREF
1005
B40
1002
}
1001
GEVPT
1002
{
1000
-V$PV_GENSYSTEM"GEF\VAL\IS\0405\IS1627_V.DXF"
1000
-FIXPLOTI=9.686331554585365E+00
1000
-GPGEF_PROCALC=1
1000
-GPGEF_FLIPY=1
1000
-GPGEF_FLIPX=1
1000
-GPGEF_SNK_ADD=0
1000
-GPGEVPROMPTX=Länge:
1000
-GPGEF_OANG=70
1000
-GPGEF_STANG=210
1000
-GPGEF_DRAG=1
1000
-GPGEF_CDIST=3
1000
-GPVCC_TABLE=D:\GENIUS\gef\val\is\0405\is1627.val
1000
-GPNM1=1 1/4
1000
-GPPRE=G
1002
}
1001
GEVID847791358
1002
{
1002
}
1001
GENIUS_GENOREF_13
1005
B7B
1005
B7D
  0
LINE
  5
B41
330
E0F
100
AcDbEntity
  8
0
100
AcDbLine
 10
376.348124
 20
320.091846
 30
0.0
 11
403.027105
 21
364.636509
 31
0.0
1001
GENIUS_GENBH_13
1002
{
1000
ML
1040
1.0
1002
}
1002
{
1000
OE
1000
CON1
1002
}
1001
GENIUS_GENOREF_13
1005
B7C
  0
LINE
  5
B42
330
E0F
100
AcDbEntity
  8
0
100
AcDbLine
 10
403.027105
 20
364.636509
 30
0.0
 11
405.4039969999998
 21
368.605096
 31
0.0
1001
GENIUS_GENOREF_13
1005
B7C
  0
POINT
  5
B7B
330
E0F
100
AcDbEntity
  8
0
 60
     1
100
AcDbPoint
 10
0.0
 20
0.0
 30
0.0
1001
GENIUS_GENBH_13
1002
{
1000
BGO
1005
B7C
1002
}
1002
{
1000
FGLEVEL
1040
1.0
1002
}
1002
{
1000
FLAGS
1070
    36
1002
}
1002
{
1000
OIUMAP
1000
OIU
1002
}
1002
{
1000
MODIFY
1070
     0
1002
}
1001
GENIUS_GENODEF_13
1002
{
1000
HIER
1070
     1
1002
}
1002
{
1000
MANEDIT
1070
     0
1002
}
1002
{
1000
NOSEL
1070
     1
1002
}
1002
{
1000
BEHIND
1070
     0
1002
}
1002
{
1000
REACTOR
1002
}
1001
GENIUS_GENOBJ-NBEHI-BHF_13
1002
{
1000
OWNER
1000
GENBEHI
1002
}
1001
GENIUS_GENOENT_13
1002
{
1000
MYREF
1005
B7B
1002
}
1002
{
1000
GRP
1005
0
1002
}
1001
GENIUS_GENOLIS_13
1002
{
1000
ENT
1005
B40
1002
}
  0
POINT
  5
B7C
330
E0F
100
AcDbEntity
  8
0
 60
     1
100
AcDbPoint
 10
0.0
 20
0.0
 30
0.0
1001
GENIUS_GENBH_13
1002
{
1000
FGO
1005
B7B
1002
}
1001
GENIUS_GENODEF_13
1002
{
1000
HIER
1070
     1
1002
}
1002
{
1000
MANEDIT
1070
     1
1002
}
1002
{
1000
NOSEL
1070
     1
1002
}
1002
{
1000
BEHIND
1070
     0
1002
}
1002
{
1000
REACTOR
1002
}
1001
GENIUS_GENOBJ-NBEHI-BHB_13
1002
{
1000
OWNER
1000
GENBEHI
1002
}
1001
GENIUS_GENOENT_13
1002
{
1000
MYREF
1005
B7C
1002
}
1002
{
1000
GRP
1005
0
1002
}
1001
GENIUS_GENOLIS_13
1002
{
1000
ENT
1005
B42
1005
B41
1005
32F
1005
32E
1005
329
1005
339
1005
332
1005
9DC
1005
31D
1005
32B
1005
331
1005
33A
1002
}
  0
POINT
  5
B7D
330
E0F
100
AcDbEntity
  8
0
 60
     1
100
AcDbPoint
 10
0.0
 20
0.0
 30
0.0
1001
GENIUS_GENODEF_13
1002
{
1000
HIER
1070
   200
1002
}
1002
{
1000
MANEDIT
1070
     0
1002
}
1002
{
1000
NOSEL
1070
     0
1002
}
1002
{
1000
BEHIND
1070
     0
1002
}
1002
{
1000
REACTOR
1002
}
1001
GENIUS_GENOBJ-F-PART_13
1002
{
1000
OWNER
1000
GEF
1002
}
1001
GENIUS_GEFSTDP_13
1002
{
1000
DSC
1000
DSC
1002
{
1000
~DESCR
1000
 
1000
~STDRT
1000
(gefmsg "gefcall" 409)
1000
~LOTI
1002
}
1002
}
1002
{
1000
SUG
1000
G
1000
1 1/4
1002
}
1002
{
1000
KEY
1000
THPF
1002
}
1002
{
1000
INS
1002
{
1040
384.928173
1040
352.7739
1040
0.0
1002
}
1002
}
1002
{
1000
ANG
1040
5.743555
1002
}
1002
{
1000
VCC
1002
{
1000
-LPLOTI=9.686331554585365E+00
1000
$PRE=G
1000
$NM1=1 1/4
1000
-GRPNAME00
1000
-RBDESCR
1000
-RBSTDRT
1000
-RBLOTI
1000
-RBGD1
1000
-V$PV_GENSYSTEM"gef\val\is\0405\is1627_v.dxf"
1000
$VCC_TABLE=$PV_GENSYSTEM"gef\val\is\0405\is1627.val"
1000
$GEF_CDIST=3.000000000000000E+00
1000
$GEF_DRAG=1
1000
$GEF_STANG=2.100000000000000E+02
1000
$GEF_OANG=7.000000000000000E+01
1000
$GEVPROMPTX= Länge: 
1000
$GEF_SNK_ADD=0.000000000000000E+00
1000
$GEF_FLIPX=1
1000
$GEF_FLIPY=1
1000
-GRPNAME1?
1000
-BAML2
1000
$GEF_PROCALC=1
1002
}
1002
}
1002
{
1000
LST
1002
{
1002
{
1000
GROUP
1000
0405
1002
}
1002
{
1000
VIEW
1000
V
1002
}
1002
{
1000
SFILE
1000
$PV_GENSYSTEM"gef\val\is\0405\is1627_v.dxf"
1002
}
1002
{
1000
ST1
1000
$PV_GENSYSTEM"gef\val\is\0405\is1627.val"
1002
}
1002
{
1000
GENASSO
1000
 
1002
}
1002
}
1002
}
1002
{
1000
RET
1002
{
1002
{
1000
GD1
1000
38.95297
1002
}
1002
{
1000
LOTI
1000
9.686331554585365E+00
1002
}
1002
{
1000
STDRT
1000
ISO 228 - G 1 1/4
1002
}
1002
{
1000
DESCR
1000
Rohrgewinde
1002
}
1002
}
1002
}
1002
{
1000
SYSTEM
1040
1.0
1002
}
1002
{
1000
INFEL
1002
{
1002
}
1002
}
1001
GENIUS_GENOENT_13
1002
{
1000
MYREF
1005
B7D
1002
}
1002
{
1000
GRP
1005
0
1002
}
1001
GENIUS_GENOLIS_13
1002
{
1000
ENT
1005
B40
1002
}
  0
LINE
  5
EC2
330
E0F
100
AcDbEntity
  8
0
100
AcDbLine
 10
419.0020601616348
 20
335.1222884978569
 30
0.0
 11
423.8094123194292
 21
333.7477454527394
 31
0.0
  0
LINE
  5
F21
330
E0F
100
AcDbEntity
  8
0
100
AcDbLine
 10
515.738242
 20
367.80956
 30
0.0
 11
515.738242
 21
361.604486
 31
0.0
1001
GENIUS_GENODEF_13
1002
{
1000
HIER
1070
     0
1002
}
1002
{
1000
MANEDIT
1070
     0
1002
}
1002
{
1000
NOSEL
1070
     0
1002
}
1002
{
1000
BEHIND
1070
     0
1002
}
1002
{
1000
REACTOR
1002
}
1001
GENIUS_GENOBJ-N-CEN_13
1002
{
1000
OWNER
1000
GEN
1002
}
  0
LINE
  5
F24
330
E0F
100
AcDbEntity
  8
0
100
AcDbLine
 10
474.759898
 20
361.604486
 30
0.0
 11
477.941221
 21
361.604486
 31
0.0
  0
LINE
  5
F25
330
E0F
100
AcDbEntity
  8
0
100
AcDbLine
 10
515.738242
 20
368.605096
 30
0.0
 11
515.738242
 21
361.604486
 31
0.0
1001
GENIUS_GENODEF_13
1002
{
1000
HIER
1070
     0
1002
}
1002
{
1000
MANEDIT
1070
     0
1002
}
1002
{
1000
NOSEL
1070
     0
1002
}
1002
{
1000
BEHIND
1070
     0
1002
}
1002
{
1000
REACTOR
1002
}
1001
GENIUS_GENOBJ-N-CEN_13
1002
{
1000
OWNER
1000
GEN
1002
}
  0
LINE
  5
F32
330
E0F
100
AcDbEntity
  8
0
100
AcDbLine
 10
474.906886
 20
378.605096
 30
0.0
 11
505.738242
 21
378.605096
 31
0.0
  0
ARC
  5
F3A
330
E0F
100
AcDbEntity
  8
0
100
AcDbCircle
 10
505.738242
 20
368.605096
 30
0.0
 40
10.0
100
AcDbArc
 50
0.0
 51
90.0
1001
GENIUS_GENODEF_13
1002
{
1000
HIER
1070
     0
1002
}
1002
{
1000
MANEDIT
1070
     0
1002
}
1002
{
1000
NOSEL
1070
     0
1002
}
1002
{
1000
BEHIND
1070
     0
1002
}
1002
{
1000
REACTOR
1002
}
1001
GENIUS_GENOBJ-N-FIL_13
1002
{
1000
OWNER
1000
GEN
1002
}
  0
LINE
  5
F4B
330
E0F
100
AcDbEntity
  8
0
100
AcDbLine
 10
474.759898
 20
366.105096
 30
0.0
 11
474.759898
 21
361.604486
 31
0.0
  0
LINE
  5
F4E
330
E0F
100
AcDbEntity
  8
0
100
AcDbLine
 10
483.238242
 20
361.604486
 30
0.0
 11
515.738242
 21
361.604486
 31
0.0
  0
ARC
  5
1050
330
E0F
100
AcDbEntity
  8
0
100
AcDbCircle
 10
472.2598979999999
 20
366.105096
 30
0.0
 40
2.5
100
AcDbArc
 50
0.0
 51
90.0
1001
GENIUS_GENODEF_13
1002
{
1000
HIER
1070
     0
1002
}
1002
{
1000
MANEDIT
1070
     0
1002
}
1002
{
1000
NOSEL
1070
     0
1002
}
1002
{
1000
BEHIND
1070
     0
1002
}
1002
{
1000
REACTOR
1002
}
1001
GENIUS_GENOBJ-N-FIL_13
1002
{
1000
OWNER
1000
GEN
1002
}
  0
LINE
  5
13F2
330
E0F
100
AcDbEntity
  8
0
100
AcDbLine
 10
120.738242
 20
377.80956
 30
0.0
 11
168.534637
 21
377.80956
 31
0.0
1001
GENIUS_GENOREF_13
1005
1461
  0
LINE
  5
13F3
330
E0F
100
AcDbEntity
  8
0
100
AcDbLine
 10
145.594276
 20
392.070026
 30
0.0
 11
168.534637
 21
392.070026
 31
0.0
1001
GENIUS_GENOREF_13
1005
1461
  0
LINE
  5
1449
330
E0F
100
AcDbEntity
  8
0
100
AcDbLine
 10
478.084299
 20
389.453412
 30
0.0
 11
478.084299
 21
378.605096
 31
0.0
  0
LINE
  5
144B
330
E0F
100
AcDbEntity
  8
0
100
AcDbLine
 10
485.101952
 20
378.605096
 30
0.0
 11
395.350994
 21
378.605096
 31
0.0
  0
LINE
  5
144C
330
E0F
100
AcDbEntity
  8
0
100
AcDbLine
 10
403.3856616902174
 20
391.953412
 30
0.0
 11
475.584299
 21
391.953412
 31
0.0
  0
LINE
  5
145C
330
E0F
100
AcDbEntity
  8
0
100
AcDbLine
 10
168.534637
 20
392.070026
 30
0.0
 11
178.534637
 21
392.070026
 31
0.0
1001
GENIUS_GENBH_13
1002
{
1000
OE
1000
CON1
1002
}
1001
GENIUS_GENOREF_13
1005
1461
  0
LINE
  5
145D
330
E0F
100
AcDbEntity
  8
0
100
AcDbLine
 10
178.534637
 20
392.070026
 30
0.0
 11
223.1009852044134
 21
392.070026
 31
0.0
1001
GENIUS_GENOREF_13
1005
1461
  0
LINE
  5
145E
330
E0F
100
AcDbEntity
  8
9
100
AcDbLine
 10
168.534637
 20
377.80956
 30
0.0
 11
178.534637
 21
377.80956
 31
0.0
1001
GENIUS_GENBH_13
1002
{
1000
OE
1000
CON1
1002
}
1001
GENIUS_GENOREF_13
1005
1461
  0
LINE
  5
145F
330
E0F
100
AcDbEntity
  8
0
100
AcDbLine
 10
178.534637
 20
377.80956
 30
0.0
 11
231.12549
 21
377.80956
 31
0.0
1001
GENIUS_GENOREF_13
1005
1461
  0
POINT
  5
1461
330
E0F
100
AcDbEntity
  8
0
 60
     1
100
AcDbPoint
 10
-852.9415640000001
 20
61.68914100000001
 30
0.0
1001
GENIUS_GENBH_13
1002
{
1000
FGO
1005
1460
1002
}
1001
GENIUS_GENODEF_13
1002
{
1000
HIER
1070
     1
1002
}
1002
{
1000
MANEDIT
1070
     1
1002
}
1002
{
1000
NOSEL
1070
     1
1002
}
1002
{
1000
BEHIND
1070
     0
1002
}
1002
{
1000
REACTOR
1002
}
1001
GENIUS_GENOBJ-NBEHI-BHB_13
1002
{
1000
OWNER
1000
GENBEHI
1002
}
1001
GENIUS_GENOENT_13
1002
{
1000
MYREF
1005
1461
1002
}
1002
{
1000
GRP
1005
0
1002
}
1001
GENIUS_GENOLIS_13
1002
{
1000
ENT
1005
145F
1005
145E
1005
145D
1005
145C
1005
13F2
1005
13F3
1002
}
  0
LINE
  5
1464
330
E0F
100
AcDbEntity
  8
7AN
100
AcDbLine
 10
173.534637
 20
347.565875
 30
0.0
 11
173.534637
 21
414.9658749999998
 31
0.0
1001
GENIUS_GEFPARTINS_13
1002
{
1011
173.534637
1021
356.965875
1031
0.0
1013
0.0
1023
1.0
1033
0.0
1002
}
  0
LINE
  5
1465
330
E0F
100
AcDbEntity
  8
7AN
100
AcDbLine
 10
173.534637
 20
347.565875
 30
0.0
 11
173.534637
 21
414.9658749999998
 31
0.0
  0
LINE
  5
1466
330
E0F
100
AcDbEntity
  8
0N
100
AcDbLine
 10
178.534637
 20
368.734719
 30
0.0
 11
178.534637
 21
392.070026
 31
0.0
  0
LINE
  5
1467
330
E0F
100
AcDbEntity
  8
0N
100
AcDbLine
 10
178.534637
 20
400.4700259999998
 30
0.0
 11
178.534637
 21
403.131612
 31
0.0
  0
LINE
  5
1468
330
E0F
100
AcDbEntity
  8
0N
100
AcDbLine
 10
168.534637
 20
368.734719
 30
0.0
 11
168.534637
 21
392.070026
 31
0.0
  0
LINE
  5
1469
330
E0F
100
AcDbEntity
  8
0N
100
AcDbLine
 10
168.534637
 20
400.4700259999998
 30
0.0
 11
168.534637
 21
403.131612
 31
0.0
  0
LINE
  5
146A
330
E0F
100
AcDbEntity
  8
4N
100
AcDbLine
 10
177.614637
 20
368.734719
 30
0.0
 11
177.614637
 21
392.070026
 31
0.0
  0
LINE
  5
146B
330
E0F
100
AcDbEntity
  8
4N
100
AcDbLine
 10
177.614637
 20
400.4700259999998
 30
0.0
 11
177.614637
 21
404.051612
 31
0.0
  0
LINE
  5
146C
330
E0F
100
AcDbEntity
  8
4N
100
AcDbLine
 10
169.454637
 20
368.734719
 30
0.0
 11
169.454637
 21
392.070026
 31
0.0
  0
LINE
  5
146D
330
E0F
100
AcDbEntity
  8
4N
100
AcDbLine
 10
169.454637
 20
400.4700259999998
 30
0.0
 11
169.454637
 21
404.051612
 31
0.0
  0
LINE
  5
146E
330
E0F
100
AcDbEntity
  8
0N
100
AcDbLine
 10
177.614637
 20
404.051612
 30
0.0
 11
169.454637
 21
404.051612
 31
0.0
  0
LINE
  5
146F
330
E0F
100
AcDbEntity
  8
0N
100
AcDbLine
 10
178.534637
 20
403.131612
 30
0.0
 11
168.534637
 21
403.131612
 31
0.0
  0
LINE
  5
1470
330
E0F
100
AcDbEntity
  8
0N
100
AcDbLine
 10
177.614637
 20
404.051612
 30
0.0
 11
178.534637
 21
403.131612
 31
0.0
  0
LINE
  5
1471
330
E0F
100
AcDbEntity
  8
0N
100
AcDbLine
 10
168.534637
 20
403.131612
 30
0.0
 11
169.454637
 21
404.051612
 31
0.0
  0
LINE
  5
1472
330
E0F
100
AcDbEntity
  8
7AN
100
AcDbLine
 10
173.534637
 20
396.984289
 30
0.0
 11
173.534637
 21
411.3842889999999
 31
0.0
  0
LINE
  5
1473
330
E0F
100
AcDbEntity
  8
0N
100
AcDbLine
 10
166.604637
 20
400.4700259999998
 30
0.0
 11
180.464637
 21
400.4700259999998
 31
0.0
  0
LINE
  5
1474
330
E0F
100
AcDbEntity
  8
0N
100
AcDbLine
 10
166.604637
 20
392.070026
 30
0.0
 11
180.464637
 21
392.070026
 31
0.0
  0
ARC
  5
1475
330
E0F
100
AcDbEntity
  8
0N
100
AcDbCircle
 10
180.464637
 20
396.707776
 30
0.0
 40
3.762249999999998
100
AcDbArc
 50
90.0
 51
127.878879
  0
ARC
  5
1476
330
E0F
100
AcDbEntity
  8
0N
100
AcDbCircle
 10
180.464637
 20
395.832276
 30
0.0
 40
3.762249999999998
100
AcDbArc
 50
232.121121
 51
270.0
  0
LINE
  5
1477
330
E0F
100
AcDbEntity
  8
0N
100
AcDbLine
 10
182.774637
 20
399.677359
 30
0.0
 11
182.774637
 21
392.862693
 31
0.0
  0
ARC
  5
1478
330
E0F
100
AcDbEntity
  8
0N
100
AcDbCircle
 10
180.464637
 20
395.832276
 30
0.0
 40
3.762249999999998
100
AcDbArc
 50
270.0
 51
307.878879
  0
ARC
  5
1479
330
E0F
100
AcDbEntity
  8
0N
100
AcDbCircle
 10
180.464637
 20
396.707776
 30
0.0
 40
3.762249999999998
100
AcDbArc
 50
52.121121
 51
90.0
  0
ARC
  5
147A
330
E0F
100
AcDbEntity
  8
0N
100
AcDbCircle
 10
166.604637
 20
395.832276
 30
0.0
 40
3.762249999999998
100
AcDbArc
 50
232.121121
 51
270.0
  0
ARC
  5
147B
330
E0F
100
AcDbEntity
  8
0N
100
AcDbCircle
 10
166.604637
 20
396.707776
 30
0.0
 40
3.762249999999998
100
AcDbArc
 50
90.0
 51
127.878879
  0
LINE
  5
147C
330
E0F
100
AcDbEntity
  8
0N
100
AcDbLine
 10
168.914637
 20
399.677359
 30
0.0
 11
168.914637
 21
392.862693
 31
0.0
  0
LINE
  5
147D
330
E0F
100
AcDbEntity
  8
0N
100
AcDbLine
 10
178.154637
 20
399.677359
 30
0.0
 11
178.154637
 21
392.862693
 31
0.0
  0
ARC
  5
147E
330
E0F
100
AcDbEntity
  8
0N
100
AcDbCircle
 10
166.604637
 20
395.832276
 30
0.0
 40
3.762249999999998
100
AcDbArc
 50
270.0
 51
307.878879
  0
ARC
  5
147F
330
E0F
100
AcDbEntity
  8
0N
100
AcDbCircle
 10
173.534637
 20
405.9300259999998
 30
0.0
 40
13.86
100
AcDbArc
 50
250.528779
 51
289.471221
  0
ARC
  5
1480
330
E0F
100
AcDbEntity
  8
0N
100
AcDbCircle
 10
166.604637
 20
396.707776
 30
0.0
 40
3.762249999999998
100
AcDbArc
 50
52.121121
 51
90.0
  0
ARC
  5
1481
330
E0F
100
AcDbEntity
  8
0N
100
AcDbCircle
 10
173.534637
 20
386.610026
 30
0.0
 40
13.86
100
AcDbArc
 50
70.528779
 51
109.471221
  0
LINE
  5
1482
330
E0F
100
AcDbEntity
  8
0N
100
AcDbLine
 10
164.294637
 20
399.677359
 30
0.0
 11
164.294637
 21
392.862693
 31
0.0
  0
LINE
  5
1492
330
E0F
100
AcDbEntity
  8
0
100
AcDbLine
 10
143.094276
 20
389.570026
 30
0.0
 11
143.094276
 21
377.80956
 31
0.0
  0
ARC
  5
1493
330
E0F
100
AcDbEntity
  8
0
100
AcDbCircle
 10
145.594276
 20
389.570026
 30
0.0
 40
2.5
100
AcDbArc
 50
90.0
 51
180.0
1001
GENIUS_GENODEF_13
1002
{
1000
HIER
1070
     0
1002
}
1002
{
1000
MANEDIT
1070
     0
1002
}
1002
{
1000
NOSEL
1070
     0
1002
}
1002
{
1000
BEHIND
1070
     0
1002
}
1002
{
1000
REACTOR
1002
}
1001
GENIUS_GENOBJ-N-FIL_13
1002
{
1000
OWNER
1000
GEN
1002
}
1001
GENIUS_GENOREF_13
1005
1461
  0
INSERT
  5
14BB
330
E0F
100
AcDbEntity
  8
8
100
AcDbBlockReference
  2
*X23
 10
0.0
 20
0.0
 30
0.0
1001
GENIUS_GENODEF_13
1002
{
1000
HIER
1070
     0
1002
}
1002
{
1000
MANEDIT
1070
     0
1002
}
1002
{
1000
NOSEL
1070
     0
1002
}
1002
{
1000
BEHIND
1070
     0
1002
}
1002
{
1000
REACTOR
1002
}
1001
GENIUS_GENOBJ-N-HTC_13
1002
{
1000
OWNER
1000
GEN
1002
}
1001
GENIUS_GENHATCH_13
1002
{
1000
DATA
1040
135.0
1042
4.7
1000
_U
1070
     0
1011
155.814626
1021
384.280237
1031
0.0
1002
}
1002
{
1000
UCS
1010
0.0
1020
0.0
1030
0.0
1010
1.0
1020
0.0
1030
0.0
1010
0.0
1020
1.0
1030
0.0
1002
}
1001
ACAD
1000
HATCH
1002
{
1070
    19
1000
_U
1040
4.7
1040
2.356193999999999
1070
     0
1002
}
  0
ARC
  5
14C7
330
E0F
100
AcDbEntity
  8
0
100
AcDbCircle
 10
475.584299
 20
389.453412
 30
0.0
 40
2.5
100
AcDbArc
 50
360.0
 51
90.0
1001
GENIUS_GENODEF_13
1002
{
1000
HIER
1070
     0
1002
}
1002
{
1000
MANEDIT
1070
     0
1002
}
1002
{
1000
NOSEL
1070
     0
1002
}
1002
{
1000
BEHIND
1070
     0
1002
}
1002
{
1000
REACTOR
1002
}
1001
GENIUS_GENOBJ-N-FIL_13
1002
{
1000
OWNER
1000
GEN
1002
}
  0
HATCH
  5
15F2
330
E0F
100
AcDbEntity
  8
AM_8
100
AcDbHatch
 10
0.0
 20
0.0
 30
0.0
210
0.0
220
0.0
230
1.0
  2
_U
 70
     0
 71
     0
 91
        1
 92
        1
 93
        8
 72
     2
 10
154.216586
 20
366.234719
 40
2.5
 50
180.0
 51
270.0
 73
     0
 72
     1
 10
154.216586
 20
368.734719
 11
168.534637
 21
368.734719
 72
     1
 10
168.534637
 20
368.734719
 11
168.534637
 21
377.80956
 72
     1
 10
168.534637
 20
377.80956
 11
120.738242
 21
377.80956
 72
     2
 10
120.738242
 20
367.80956
 40
10.0
 50
90.0
 51
180.0
 73
     1
 72
     1
 10
110.738242
 20
367.80956
 11
110.738242
 21
361.604486
 72
     1
 10
110.738242
 20
361.604486
 11
151.716586
 21
361.604486
 72
     1
 10
151.716586
 20
361.604486
 11
151.716586
 21
366.234719
 97
        0
 75
     0
 76
     0
 52
45.0
 41
4.5
 77
     0
 78
     1
 53
45.0
 43
0.0
 44
0.0
 45
-3.181980515339463
 46
3.181980515339464
 79
     0
 98
        1
 10
0.0
 20
0.0
1001
GENIUS_GENODEF_13
1002
{
1000
HIER
1070
     0
1002
}
1002
{
1000
MANEDIT
1070
     0
1002
}
1002
{
1000
NOSEL
1070
     0
1002
}
1002
{
1000
BEHIND
1070
     0
1002
}
1002
{
1000
REACTOR
1002
}
1001
GENIUS_GENOBJ-N-HTC_13
1002
{
1000
OWNER
1000
GEN
1002
}
1001
GENIUS_GENHATCH_13
1002
{
1000
DATA
1040
135.0
1042
2.7
1000
_U
1070
     0
1011
130.308556
1021
367.81579
1031
0.0
1002
}
1002
{
1000
UCS
1010
0.0
1020
0.0
1030
0.0
1010
1.0
1020
0.0
1030
0.0
1010
0.0
1020
1.0
1030
0.0
1002
}
1001
ACAD
1010
0.0
1020
0.0
1030
0.0
  0
LINE
  5
17F1
330
E0F
100
AcDbEntity
  8
0
100
AcDbLine
 10
231.12549
 20
422.8095599999998
 30
0.0
 11
395.350994
 21
422.8095599999998
 31
0.0
  0
DIMENSION
  5
17F6
330
E0F
100
AcDbEntity
  8
AM_5
100
AcDbDimension
  2
*D34
 10
589.7501086518968
 20
142.8095599999999
 30
0.0
 11
589.7501086518968
 21
284.4491616864453
 31
0.0
 70
   160
  1
235
 71
     5
 42
235.795536
  3
GEN-ISO$0
100
AcDbAlignedDimension
 13
483.238242
 23
378.605096
 33
0.0
 14
484.906886
 24
142.80956
 34
0.0
 50
90.00000000000003
100
AcDbRotatedDimension
1001
ACAD
1000
DSTYLE
1002
{
1070
    50
1040
1.570796326794896
1002
}
1001
ACAD_DSTYLE_DIMINSPECT
1070
   396
1000
100%
1070
   395
1000

1070
   394
1070
    33
1070
   393
1070
     0
  0
LINE
  5
1A52
330
E0F
100
AcDbEntity
  8
0
100
AcDbLine
 10
370.238242
 20
242.80956
 30
0.0
 11
241.12549
 21
242.80956
 31
0.0
  0
LINE
  5
1A81
330
E0F
100
AcDbEntity
  8
0
100
AcDbLine
 10
225.7799361302982
 20
422.8095599999998
 30
0.0
 11
222.5389600577399
 21
385.621087
 31
0.0
  0
LINE
  5
1A82
330
E0F
100
AcDbEntity
  8
0
100
AcDbLine
 10
222.5389600577399
 20
385.621087
 30
0.0
 11
231.12549
 21
385.621087
 31
0.0
  0
LINE
  5
1A83
330
E0F
100
AcDbEntity
  8
0
100
AcDbLine
 10
222.5389600577399
 20
385.621087
 30
0.0
 11
231.12549
 21
377.80956
 31
0.0
  0
HATCH
  5
1A89
330
E0F
100
AcDbEntity
  8
AM_8
100
AcDbHatch
 10
0.0
 20
0.0
 30
0.0
210
0.0
220
0.0
230
1.0
  2
_U
 70
     0
 71
     0
 91
        1
 92
        1
 93
        5
 72
     2
 10
217.0298429999999
 20
420.3095599999999
 40
2.499999999999943
 50
89.99999999999806
 51
175.0192559999988
 73
     1
 72
     1
 10
214.5392831670365
 20
420.526612340298
 11
212.0592910322554
 21
392.070026
 72
     1
 10
212.0592910322554
 20
392.070026
 11
223.1009852044134
 21
392.070026
 72
     1
 10
223.1009852044134
 20
392.070026
 11
225.7799361302982
 21
422.8095599999998
 72
     1
 10
225.7799361302982
 20
422.8095599999998
 11
217.029843
 21
422.8095599999998
 97
        0
 75
     0
 76
     0
 52
45.0
 41
4.5
 77
     0
 78
     1
 53
45.0
 43
0.0
 44
0.0
 45
-3.181980515339463
 46
3.181980515339464
 79
     0
 98
        1
 10
0.0
 20
0.0
1001
GENIUS_GENODEF_13
1002
{
1000
HIER
1070
     0
1002
}
1002
{
1000
MANEDIT
1070
     0
1002
}
1002
{
1000
NOSEL
1070
     0
1002
}
1002
{
1000
BEHIND
1070
     0
1002
}
1002
{
1000
OTHER
1070
     0
1002
}
1002
{
1000
REACTOR
1002
}
1001
GENIUS_GENOBJ-N-HTC_13
1002
{
1000
OWNER
1000
GEN
1002
}
1001
GENIUS_GENHATCH_13
1002
{
1000
DATA
1040
45.0
1042
2.5
1000
_U
1070
     0
1011
221.6133467478571
1021
410.0284199045472
1031
0.0
1002
}
1002
{
1000
UCS
1010
0.0
1020
0.0
1030
0.0
1010
1.0
1020
0.0
1030
0.0
1010
0.0
1020
1.0
1030
0.0
1002
}
  0
LINE
  5
1A8E
330
E0F
100
AcDbEntity
  8
0
100
AcDbLine
 10
400.6965478717543
 20
422.8095599999998
 30
0.0
 11
404.5489676546824
 21
378.605096
 31
0.0
  0
LINE
  5
1A8F
330
E0F
100
AcDbEntity
  8
0
100
AcDbLine
 10
395.350994
 20
385.621087
 30
0.0
 11
403.9375239207363
 21
385.621087
 31
0.0
  0
LINE
  5
1A90
330
E0F
100
AcDbEntity
  8
0
100
AcDbLine
 10
395.350994
 20
378.605096
 30
0.0
 11
403.9375239207363
 21
385.621087
 31
0.0
  0
HATCH
  5
1A96
330
E0F
100
AcDbEntity
  8
AM_8
100
AcDbHatch
 10
0.0
 20
0.0
 30
0.0
210
0.0
220
0.0
230
1.0
  2
_U
 70
     0
 71
     0
 91
        1
 92
        1
 93
        5
 72
     1
 10
409.4466409999998
 20
422.8095599999999
 11
400.6965478717543
 21
422.8095599999998
 72
     1
 10
400.6965478717543
 20
422.8095599999998
 11
403.3856616902174
 21
391.953412
 72
     1
 10
403.3856616902174
 20
391.953412
 11
414.4273558617702
 21
391.953412
 72
     1
 10
414.4273558617702
 20
391.953412
 11
411.9372009999998
 21
420.526612
 72
     2
 10
409.4466410746533
 20
420.3095599315695
 40
2.500000068430406
 50
4.980737608957642
 51
90.0000017109318
 73
     1
 97
        0
 75
     0
 76
     0
 52
45.0
 41
6.75
 77
     0
 78
     1
 53
45.0
 43
0.0
 44
0.0
 45
-4.772970773009195
 46
4.772970773009196
 79
     0
 98
        1
 10
0.0
 20
0.0
1001
GENIUS_GENOBJ-N-HTC_13
1002
{
1000
OWNER
1000
GEN
1002
}
1001
GENIUS_GENODEF_13
1002
{
1000
HIER
1070
     0
1002
}
1002
{
1000
MANEDIT
1070
     0
1002
}
1002
{
1000
NOSEL
1070
     0
1002
}
1002
{
1000
BEHIND
1070
     0
1002
}
1002
{
1000
OTHER
1070
     0
1002
}
1002
{
1000
REACTOR
1002
}
1001
GENIUS_GENHATCH_13
1002
{
1000
DATA
1040
45.0
1042
2.5
1000
_U
1070
     0
1011
408.5101758898881
1021
401.8075983613618
1031
0.0
1002
}
1002
{
1000
UCS
1010
0.0
1020
0.0
1030
0.0
1010
1.0
1020
0.0
1030
0.0
1010
0.0
1020
1.0
1030
0.0
1002
}
  0
LINE
  5
1AEA
330
E0F
100
AcDbEntity
  8
0
100
AcDbLine
 10
152.2749691931303
 20
367.80956
 30
0.0
 11
186.3305842834991
 21
367.80956
 31
0.0
  0
LINE
  5
1AEB
330
E0F
100
AcDbEntity
  8
0
100
AcDbLine
 10
186.3305842834991
 20
367.80956
 30
0.0
 11
221.12549
 21
367.80956
 31
0.0
  0
LINE
  5
1B15
330
E0F
100
AcDbEntity
  8
0
100
AcDbLine
 10
483.238242
 20
142.80956
 30
0.0
 11
483.238242
 21
361.604486
 31
0.0
  0
LINE
  5
1B16
330
E0F
100
AcDbEntity
  8
0
100
AcDbLine
 10
373.238242
 20
142.80956
 30
0.0
 11
373.238242
 21
239.80956
 31
0.0
  0
HATCH
  5
1B2D
330
E0F
100
AcDbEntity
  8
AM_8
100
AcDbHatch
 10
0.0
 20
0.0
 30
0.0
210
0.0
220
0.0
230
1.0
  2
_U
 70
     0
 71
     0
 91
        1
 92
        1
 93
       15
 72
     1
 10
483.238242
 20
361.604486
 11
483.238242
 21
142.80956
 72
     1
 10
483.238242
 20
142.80956
 11
477.941221
 21
142.80956
 72
     1
 10
477.941221
 20
142.80956
 11
477.941221
 21
361.604486
 72
     1
 10
477.941221
 20
361.604486
 11
474.759898
 21
361.604486
 72
     1
 10
474.759898
 20
361.604486
 11
474.7598979999998
 21
366.105096
 72
     2
 10
472.2598979999999
 20
366.1050960000001
 40
2.499999999999943
 50
359.9999999999987
 51
450.0000000000013
 73
     1
 72
     1
 10
472.2598979999999
 20
368.605096
 11
405.4039969999998
 21
368.605096
 72
     1
 10
405.4039969999998
 20
368.605096
 11
403.0271050489178
 21
364.6365090816758
 72
     1
 10
403.0271050489178
 20
364.6365090816758
 11
394.9355507915141
 21
369.4827556667756
 72
     1
 10
394.9355507915141
 20
369.4827556667756
 11
395.350994
 21
370.176402
 72
     1
 10
395.350994
 20
370.176402
 11
395.350994
 21
378.605096
 72
     1
 10
395.350994
 20
378.605096
 11
505.738242
 21
378.605096
 72
     2
 10
505.7382419999998
 20
368.6050959999999
 40
10.00000000000011
 50
270.0000000000007
 51
359.9999999999993
 73
     0
 72
     1
 10
515.738242
 20
368.605096
 11
515.738242
 21
361.604486
 72
     1
 10
515.738242
 20
361.604486
 11
483.238242
 21
361.604486
 97
        0
 75
     0
 76
     0
 52
45.0
 41
4.5
 77
     0
 78
     1
 53
45.0
 43
0.0
 44
0.0
 45
-3.181980515339463
 46
3.181980515339464
 79
     0
 98
        1
 10
0.0
 20
0.0
1001
GENIUS_GENODEF_13
1002
{
1000
HIER
1070
     0
1002
}
1002
{
1000
MANEDIT
1070
     0
1002
}
1002
{
1000
NOSEL
1070
     0
1002
}
1002
{
1000
BEHIND
1070
     0
1002
}
1002
{
1000
OTHER
1070
     0
1002
}
1002
{
1000
REACTOR
1002
}
1001
GENIUS_GENOBJ-N-HTC_13
1002
{
1000
OWNER
1000
GEN
1002
}
1001
GENIUS_GENHATCH_13
1002
{
1000
DATA
1040
45.0
1042
2.5
1000
_U
1070
     0
1011
456.8788610896328
1021
373.6450936961295
1031
0.0
1002
}
1002
{
1000
UCS
1010
0.0
1020
0.0
1030
0.0
1010
1.0
1020
0.0
1030
0.0
1010
0.0
1020
1.0
1030
0.0
1002
}
1001
ACAD
1010
0.0
1020
0.0
1030
0.0
  0
HATCH
  5
1B48
330
E0F
100
AcDbEntity
  8
AM_8
100
AcDbHatch
 10
0.0
 20
0.0
 30
0.0
210
0.0
220
0.0
230
1.0
  2
_U
 70
     0
 71
     0
 91
        1
 92
        1
 93
       13
 72
     1
 10
173.534637
 20
367.80956
 11
221.12549
 21
367.80956
 72
     1
 10
221.12549
 20
367.80956
 11
221.12549
 21
262.80956
 72
     2
 10
241.12549
 20
262.80956
 40
20.00000000000003
 50
180.0
 51
269.9999999999999
 73
     1
 72
     1
 10
241.12549
 20
242.80956
 11
244.6101813289617
 21
242.80956
 72
     1
 10
244.6101813289617
 20
242.80956
 11
313.238242
 21
242.80956
 72
     1
 10
313.238242
 20
242.80956
 11
313.238242
 21
250.80956
 72
     1
 10
313.238242
 20
250.80956
 11
264.6048421475509
 21
250.80956
 72
     2
 10
264.519045
 20
253.255999
 40
2.447942999999998
 50
87.99144774025554
 51
92.00855225974445
 73
     0
 72
     1
 10
264.4332478524491
 20
250.80956
 11
247.12549
 21
250.80956
 72
     2
 10
247.12549
 20
266.80956
 40
16.00000000000003
 50
90.0000000000001
 51
180.0
 73
     0
 72
     1
 10
231.12549
 20
266.80956
 11
231.12549
 21
377.80956
 72
     1
 10
231.12549
 20
377.80956
 11
173.534637
 21
377.80956
 72
     1
 10
173.534637
 20
377.80956
 11
173.534637
 21
367.80956
 97
        0
 75
     0
 76
     0
 52
45.0
 41
4.5
 77
     0
 78
     1
 53
45.0
 43
0.0
 44
0.0
 45
-3.181980515339463
 46
3.181980515339464
 79
     0
 98
        1
 10
0.0
 20
0.0
1001
GENIUS_GENODEF_13
1002
{
1000
HIER
1070
     0
1002
}
1002
{
1000
MANEDIT
1070
     0
1002
}
1002
{
1000
NOSEL
1070
     0
1002
}
1002
{
1000
BEHIND
1070
     0
1002
}
1002
{
1000
OTHER
1070
     0
1002
}
1002
{
1000
REACTOR
1002
}
1001
GENIUS_GENOBJ-N-HTC_13
1002
{
1000
OWNER
1000
GEN
1002
}
1001
GENIUS_GENHATCH_13
1002
{
1000
DATA
1040
45.0
1042
2.5
1000
_U
1070
     0
1011
244.6101813289617
1021
246.397635357623
1031
0.0
1002
}
1002
{
1000
UCS
1010
0.0
1020
0.0
1030
0.0
1010
1.0
1020
0.0
1030
0.0
1010
0.0
1020
1.0
1030
0.0
1002
}
1001
ACAD
1010
0.0
1020
0.0
1030
0.0
  0
DIMENSION
  5
1BB9
330
E0F
100
AcDbEntity
  8
AM_5
100
AcDbDimension
  2
*D43
 10
483.238242
 20
69.40488480200326
 30
0.0
 11
428.238242
 21
69.40488480200326
 31
0.0
 70
   160
  1
%%c<>
 71
     5
 42
110.0
  3
GEN-ISO$0
100
AcDbAlignedDimension
 13
373.238242
 23
142.80956
 33
0.0
 14
483.238242
 24
142.80956
 34
0.0
 50
0.0000000000001132
100
AcDbRotatedDimension
1001
ACAD
1000
DSTYLE
1002
{
1070
    50
1040
1.570796326794896
1002
}
1001
ACAD_DSTYLE_DIMINSPECT
1070
   396
1000
100%
1070
   395
1000

1070
   394
1070
    33
1070
   393
1070
     0
  0
ARC
  5
1C56
330
E0F
100
AcDbEntity
  8
0
100
AcDbCircle
 10
369.4162970000001
 20
278.30956
 30
0.0
 40
2.5
100
AcDbArc
 50
180.0
 51
270.0
1001
GENIUS_GENODEF_13
1002
{
1000
HIER
1070
     0
1002
}
1002
{
1000
MANEDIT
1070
     0
1002
}
1002
{
1000
NOSEL
1070
     0
1002
}
1002
{
1000
BEHIND
1070
     0
1002
}
1002
{
1000
OTHER
1070
     0
1002
}
1002
{
1000
REACTOR
1002
}
1001
GENIUS_GENOBJ-N-FIL_13
1002
{
1000
OWNER
1000
GEN
1002
}
  0
ARC
  5
1C57
330
E0F
100
AcDbEntity
  8
0
100
AcDbCircle
 10
373.848124
 20
278.30956
 30
0.0
 40
2.5
100
AcDbArc
 50
270.0
 51
0.0
1001
GENIUS_GENOBJ-N-FIL_13
1002
{
1000
OWNER
1000
GEN
1002
}
1001
GENIUS_GENODEF_13
1002
{
1000
HIER
1070
     0
1002
}
1002
{
1000
MANEDIT
1070
     0
1002
}
1002
{
1000
NOSEL
1070
     0
1002
}
1002
{
1000
BEHIND
1070
     0
1002
}
1002
{
1000
OTHER
1070
     0
1002
}
1002
{
1000
REACTOR
1002
}
  0
HATCH
  5
1C59
330
E0F
100
AcDbEntity
  8
AM_8
100
AcDbHatch
 10
0.0
 20
0.0
 30
0.0
210
0.0
220
0.0
230
1.0
  2
_U
 70
     0
 71
     0
 91
        1
 92
        1
 93
        8
 72
     1
 10
369.4162970000001
 20
275.80956
 11
373.848124
 21
275.80956
 72
     2
 10
373.848124
 20
278.30956
 40
2.5
 50
270.0
 51
360.0
 73
     1
 72
     1
 10
376.348124
 20
278.30956
 11
376.348124
 21
320.091846
 72
     1
 10
376.348124
 20
320.091846
 11
382.2526621186756
 21
329.9503807269094
 72
     1
 10
382.2526621186756
 20
329.9503807269094
 11
374.1611075532339
 21
334.7966274965012
 72
     1
 10
374.1611075532339
 20
334.7966274965012
 11
366.916297
 21
322.700302
 72
     1
 10
366.916297
 20
322.700302
 11
366.916297
 21
278.30956
 72
     2
 10
369.4162970000001
 20
278.30956
 40
2.5
 50
180.0
 51
270.0
 73
     1
 97
        0
 75
     0
 76
     0
 52
45.0
 41
4.5
 77
     0
 78
     1
 53
45.0
 43
0.0
 44
0.0
 45
-3.181980515339463
 46
3.181980515339464
 79
     0
 98
        1
 10
0.0
 20
0.0
1001
GENIUS_GENODEF_13
1002
{
1000
HIER
1070
     0
1002
}
1002
{
1000
MANEDIT
1070
     0
1002
}
1002
{
1000
NOSEL
1070
     0
1002
}
1002
{
1000
BEHIND
1070
     0
1002
}
1002
{
1000
OTHER
1070
     0
1002
}
1002
{
1000
REACTOR
1002
}
1001
GENIUS_GENOBJ-N-HTC_13
1002
{
1000
OWNER
1000
GEN
1002
}
1001
GENIUS_GENHATCH_13
1002
{
1000
DATA
1040
135.0
1042
11.0
1000
_U
1070
     0
1011
371.0737830119037
1021
300.3295126907677
1031
0.0
1002
}
1002
{
1000
UCS
1010
0.0
1020
0.0
1030
0.0
1010
1.0
1020
0.0
1030
0.0
1010
0.0
1020
1.0
1030
0.0
1002
}
1001
ACAD
1010
0.0
1020
0.0
1030
0.0
  0
ARC
  5
1C73
330
E0F
100
AcDbEntity
  8
0
100
AcDbCircle
 10
418.3147886851498
 20
332.7186125800988
 30
0.0
 40
2.5
100
AcDbArc
 50
74.04343316506521
 51
164.0434353041156
1001
GENIUS_GENODEF_13
1002
{
1000
HIER
1070
     0
1002
}
1002
{
1000
MANEDIT
1070
     0
1002
}
1002
{
1000
NOSEL
1070
     0
1002
}
1002
{
1000
BEHIND
1070
     0
1002
}
1002
{
1000
OTHER
1070
     0
1002
}
1002
{
1000
REACTOR
1002
}
1001
GENIUS_GENOBJ-N-FIL_13
1002
{
1000
OWNER
1000
GEN
1002
}
  0
ARC
  5
1C74
330
E0F
100
AcDbEntity
  8
0
100
AcDbCircle
 10
423.1221408429442
 20
331.3440695349813
 30
0.0
 40
2.5
100
AcDbArc
 50
344.0434351446594
 51
74.04343316506505
1001
GENIUS_GENOBJ-N-FIL_13
1002
{
1000
OWNER
1000
GEN
1002
}
1001
GENIUS_GENODEF_13
1002
{
1000
HIER
1070
     0
1002
}
1002
{
1000
MANEDIT
1070
     0
1002
}
1002
{
1000
NOSEL
1070
     0
1002
}
1002
{
1000
BEHIND
1070
     0
1002
}
1002
{
1000
OTHER
1070
     0
1002
}
1002
{
1000
REACTOR
1002
}
  0
ARC
  5
1CA0
330
E0F
100
AcDbEntity
  8
0
100
AcDbCircle
 10
370.238242
 20
239.80956
 30
0.0
 40
3.0
100
AcDbArc
 50
0.0
 51
90.0
1001
GENIUS_GENODEF_13
1002
{
1000
HIER
1070
     0
1002
}
1002
{
1000
MANEDIT
1070
     0
1002
}
1002
{
1000
NOSEL
1070
     0
1002
}
1002
{
1000
BEHIND
1070
     0
1002
}
1002
{
1000
OTHER
1070
     0
1002
}
1002
{
1000
REACTOR
1002
}
1001
GENIUS_GENOBJ-N-FIL_13
1002
{
1000
OWNER
1000
GEN
1002
}
  0
ARC
  5
1CA1
330
E0F
100
AcDbEntity
  8
0
100
AcDbCircle
 10
381.535263
 20
239.80956
 30
0.0
 40
3.0
100
AcDbArc
 50
90.0
 51
180.0
1001
GENIUS_GENODEF_13
1002
{
1000
HIER
1070
     0
1002
}
1002
{
1000
MANEDIT
1070
     0
1002
}
1002
{
1000
NOSEL
1070
     0
1002
}
1002
{
1000
BEHIND
1070
     0
1002
}
1002
{
1000
OTHER
1070
     0
1002
}
1002
{
1000
REACTOR
1002
}
1001
GENIUS_GENOBJ-N-FIL_13
1002
{
1000
OWNER
1000
GEN
1002
}
  0
LINE
  5
1CB5
330
E0F
100
AcDbEntity
  8
0
100
AcDbLine
 10
313.238242
 20
262.169772
 30
0.0
 11
313.238242
 21
242.80956
 31
0.0
  0
ARC
  5
1D06
330
E0F
100
AcDbEntity
  8
0
100
AcDbCircle
 10
384.570963925469
 20
263.80956
 30
0.0
 40
21.0
100
AcDbArc
 50
270.0
 51
344.0434351446594
1001
GENIUS_GENODEF_13
1002
{
1000
HIER
1070
     0
1002
}
1002
{
1000
MANEDIT
1070
     0
1002
}
1002
{
1000
NOSEL
1070
     0
1002
}
1002
{
1000
BEHIND
1070
     0
1002
}
1002
{
1000
OTHER
1070
     0
1002
}
1002
{
1000
REACTOR
1002
}
1001
GENIUS_GENOBJ-N-FIL_13
1002
{
1000
OWNER
1000
GEN
1002
}
  0
ARC
  5
1D07
330
E0F
100
AcDbEntity
  8
0
100
AcDbCircle
 10
380.9825195003363
 20
265.80956
 30
0.0
 40
15.0
100
AcDbArc
 50
270.0
 51
344.0434353041156
1001
GENIUS_GENODEF_13
1002
{
1000
HIER
1070
     0
1002
}
1002
{
1000
MANEDIT
1070
     0
1002
}
1002
{
1000
NOSEL
1070
     0
1002
}
1002
{
1000
BEHIND
1070
     0
1002
}
1002
{
1000
OTHER
1070
     0
1002
}
1002
{
1000
REACTOR
1002
}
1001
GENIUS_GENOBJ-N-FIL_13
1002
{
1000
OWNER
1000
GEN
1002
}
  0
HATCH
  5
1D17
330
E0F
100
AcDbEntity
  8
AM_8
100
AcDbHatch
 10
0.0
 20
0.0
 30
0.0
210
0.0
220
0.0
230
1.0
  2
_U
 70
     0
 71
     0
 91
        1
 92
        1
 93
       16
 72
     2
 10
384.570963925469
 20
263.8095599999999
 40
20.99999999999996
 50
15.95656485534049
 51
90.0
 73
     0
 72
     1
 10
384.570963925469
 20
242.80956
 11
381.535263
 21
242.80956
 72
     2
 10
381.535263
 20
239.80956
 40
3.0
 50
90.0
 51
180.0
 73
     1
 72
     1
 10
378.535263
 20
239.80956
 11
378.535263
 21
142.80956
 72
     1
 10
378.535263
 20
142.80956
 11
373.238242
 21
142.80956
 72
     1
 10
373.238242
 20
142.80956
 11
373.238242
 21
239.80956
 72
     2
 10
370.238242
 20
239.80956
 40
3.0
 50
0.0
 51
90.0
 73
     1
 72
     1
 10
370.238242
 20
242.80956
 11
313.238242
 21
242.80956
 72
     1
 10
313.238242
 20
242.80956
 11
313.238242
 21
250.80956
 72
     1
 10
313.238242
 20
250.80956
 11
342.9336408524491
 21
250.80956
 72
     2
 10
343.019438
 20
253.2559989999813
 40
2.44794299998128
 50
267.9914477402402
 51
272.0085522597598
 73
     1
 72
     1
 10
343.1052351475508
 20
250.80956
 11
380.9825195003363
 21
250.80956
 72
     2
 10
380.9825195003364
 20
265.8095599999999
 40
14.99999999999983
 50
269.9999999999995
 51
344.0434353041163
 73
     1
 72
     1
 10
395.4045751608342
 20
261.6859316795157
 11
413.1871156054004
 21
323.878924875
 72
     1
 10
413.1871156054004
 20
323.878924875
 11
423.5878523841707
 21
323.878924875
 72
     1
 10
423.5878523841707
 20
323.878924875
 11
404.7618418340993
 21
258.0364802951299
 97
        0
 75
     0
 76
     0
 52
45.0
 41
4.5
 77
     0
 78
     1
 53
45.0
 43
0.0
 44
0.0
 45
-3.181980515339463
 46
3.181980515339464
 79
     0
 98
        1
 10
0.0
 20
0.0
1001
GENIUS_GENODEF_13
1002
{
1000
HIER
1070
     0
1002
}
1002
{
1000
MANEDIT
1070
     0
1002
}
1002
{
1000
NOSEL
1070
     0
1002
}
1002
{
1000
BEHIND
1070
     0
1002
}
1002
{
1000
OTHER
1070
     0
1002
}
1002
{
1000
REACTOR
1002
}
1001
GENIUS_GENOBJ-N-HTC_13
1002
{
1000
OWNER
1000
GEN
1002
}
1001
GENIUS_GENHATCH_13
1002
{
1000
DATA
1040
45.0
1042
2.5
1000
_U
1070
     0
1011
358.2138398465418
1021
245.5844110649124
1031
0.0
1002
}
1002
{
1000
UCS
1010
0.0
1020
0.0
1030
0.0
1010
1.0
1020
0.0
1030
0.0
1010
0.0
1020
1.0
1030
0.0
1002
}
1001
ACAD
1010
0.0
1020
0.0
1030
0.0
  0
LINE
  5
1D86
330
E0F
100
AcDbEntity
  8
0
100
AcDbLine
 10
207.109169
 20
392.070026
 30
0.0
 11
207.109169
 21
377.8868743279711
 31
0.0
  0
LINE
  5
1D87
330
E0F
100
AcDbEntity
  8
0
100
AcDbLine
 10
420.173864
 20
391.953412
 30
0.0
 11
420.173864
 21
378.605096
 31
0.0
  0
HATCH
  5
1D8B
330
E0F
100
AcDbEntity
  8
AM_8
100
AcDbHatch
 10
0.0
 20
0.0
 30
0.0
210
0.0
220
0.0
230
1.0
  2
_U
 70
     0
 71
     0
 91
        1
 92
        1
 93
        5
 72
     1
 10
420.173864
 20
378.605096
 11
478.084299
 21
378.605096
 72
     1
 10
478.084299
 20
378.605096
 11
478.084299
 21
389.453412
 72
     2
 10
475.584299
 20
389.453412
 40
2.5
 50
0.0
 51
90.0
 73
     1
 72
     1
 10
475.584299
 20
391.953412
 11
420.173864
 21
391.953412
 72
     1
 10
420.173864
 20
391.953412
 11
420.173864
 21
378.605096
 97
        0
 75
     0
 76
     0
 52
135.0
 41
5.4144
 77
     0
 78
     1
 53
135.0
 43
0.0
 44
0.0
 45
-3.828558956056443
 46
-3.828558956056443
 79
     0
 98
        1
 10
0.0
 20
0.0
1001
GENIUS_GENODEF_13
1002
{
1000
HIER
1070
     0
1002
}
1002
{
1000
MANEDIT
1070
     0
1002
}
1002
{
1000
NOSEL
1070
     0
1002
}
1002
{
1000
BEHIND
1070
     0
1002
}
1002
{
1000
OTHER
1070
     0
1002
}
1002
{
1000
REACTOR
1002
}
1001
GENIUS_GENOBJ-N-HTC_13
1002
{
1000
OWNER
1000
GEN
1002
}
1001
GENIUS_GENHATCH_13
1002
{
1000
DATA
1040
135.0
1042
4.7
1000
_U
1070
     0
1011
438.7383998045447
1021
387.0260363778967
1031
0.0
1002
}
1002
{
1000
UCS
1010
0.0
1020
0.0
1030
0.0
1010
1.0
1020
0.0
1030
0.0
1010
0.0
1020
1.0
1030
0.0
1002
}
1001
ACAD
1010
0.0
1020
0.0
1030
0.0
  0
HATCH
  5
1D8E
330
E0F
100
AcDbEntity
  8
AM_8
100
AcDbHatch
 10
0.0
 20
0.0
 30
0.0
210
0.0
220
0.0
230
1.0
  2
_U
 70
     0
 71
     0
 91
        1
 92
        1
 93
        5
 72
     1
 10
178.534637
 20
377.80956
 11
206.233289
 21
377.8095600000002
 72
     2
 10
206.233289
 20
382.8095600000001
 40
5.0
 50
269.9999999999994
 51
280.08890037954
 73
     1
 72
     1
 10
207.109169
 20
377.8868743279711
 11
207.109169
 21
392.070026
 72
     1
 10
207.109169
 20
392.070026
 11
178.534637
 21
392.070026
 72
     1
 10
178.534637
 20
392.070026
 11
178.534637
 21
377.80956
 97
        0
 75
     0
 76
     0
 52
135.0
 41
5.4144
 77
     0
 78
     1
 53
135.0
 43
0.0
 44
0.0
 45
-3.828558956056443
 46
-3.828558956056443
 79
     0
 98
        1
 10
0.0
 20
0.0
1001
GENIUS_GENOBJ-N-HTC_13
1002
{
1000
OWNER
1000
GEN
1002
}
1001
GENIUS_GENODEF_13
1002
{
1000
HIER
1070
     0
1002
}
1002
{
1000
MANEDIT
1070
     0
1002
}
1002
{
1000
NOSEL
1070
     0
1002
}
1002
{
1000
BEHIND
1070
     0
1002
}
1002
{
1000
OTHER
1070
     0
1002
}
1002
{
1000
REACTOR
1002
}
1001
GENIUS_GENHATCH_13
1002
{
1000
DATA
1040
135.0
1042
4.7
1000
_U
1070
     0
1011
197.2489986354198
1021
386.9312979213029
1031
0.0
1002
}
1002
{
1000
UCS
1010
0.0
1020
0.0
1030
0.0
1010
1.0
1020
0.0
1030
0.0
1010
0.0
1020
1.0
1030
0.0
1002
}
  0
VIEWPORT
  5
22
330
E0C
100
AcDbEntity
 67
     1
  8
0
100
AcDbViewport
 10
261.5176990000001
 20
148.5
 30
0.0
 40
523.0353980000001
 41
297.0
 68
     1
 69
     1
 12
261.5176990000001
 22
148.5
 13
0.0
 23
0.0
 14
1.0
 24
1.0
 15
10.0
 25
10.0
 16
0.0
 26
0.0
 36
1.0
 17
0.0
 27
0.0
 37
0.0
 42
50.0
 43
0.0
 44
0.0
 45
297.0
 50
0.0
 51
0.0
 72
   100
 90
    32800
  1

281
     0
 71
     1
 74
     0
110
0.0
120
0.0
130
0.0
111
1.0
121
0.0
131
0.0
112
0.0
122
1.0
132
0.0
 79
     0
146
0.0
170
     0
1001
GENIUS_GENOBJ-N-SDF_13
1002
{
1000
OWNER
1000
GEN
1002
}
1001
GENIUS_GENODEF_13
1002
{
1000
HIER
1070
     0
1002
}
1002
{
1000
MANEDIT
1070
     0
1002
}
1002
{
1000
NOSEL
1070
     0
1002
}
1002
{
1000
BEHIND
1070
     0
1002
}
1002
{
1000
OTHER
1070
     0
1002
}
1002
{
1000
REACTOR
1002
}
1001
GENIUS_GENSCREG_15
1000
PF
1040
1.0
1000
DF
1040
1.0
1000
MIN
1011
0.0
1021
0.0
1031
0.0
1000
MAX
1011
523.0353980000001
1021
297.0
1031
0.0
1000
FLAGS
1070
     4
  0
ENDSEC
  0
SECTION
  2
OBJECTS
  0
DICTIONARY
  5
E04
330
0
100
AcDbDictionary
281
     1
  3
ACAD_2007HEADERVARS_RT
350
1D98
  3
ACAD_COLOR
350
164A
  3
ACAD_GROUP
350
E05
  3
ACAD_LAYOUT
350
164D
  3
ACAD_MATERIAL
350
1649
  3
ACAD_MLEADERSTYLE
350
176D
  3
ACAD_MLINESTYLE
350
E12
  3
ACAD_PLOTSETTINGS
350
164E
  3
ACAD_PLOTSTYLENAME
350
1647
  3
ACAD_SCALELIST
350
175B
  3
ACAD_TABLESTYLE
350
164B
  3
ACAD_VISUALSTYLE
350
174A
  3
ACDB_RECOMPOSE_DATA
350
1970
  3
ACDBVARIABLEDICTIONARY
350
E87
  3
AcmDictionary
350
16AC
  3
AMG
350
1652
  3
AMGSNAPSETTINGS
350
171C
  0
DICTIONARY
  5
1A85
330
DFA
100
AcDbDictionary
280
     1
281
     1
  3
AMLAYER_GROUPCOLORS
360
1A86
  0
DICTIONARY
  5
1937
330
E06
100
AcDbDictionary
280
     1
281
     1
  3
ADSK_XREC_LAYER_RECONCILED
360
1938
  0
DICTIONARY
  5
1939
330
E6D
100
AcDbDictionary
280
     1
281
     1
  3
ADSK_XREC_LAYER_RECONCILED
360
193A
  0
DICTIONARY
  5
193F
330
E70
100
AcDbDictionary
280
     1
281
     1
  3
ADSK_XREC_LAYER_RECONCILED
360
1940
  0
DICTIONARY
  5
1941
330
E71
100
AcDbDictionary
280
     1
281
     1
  3
ADSK_XREC_LAYER_RECONCILED
360
1942
  0
DICTIONARY
  5
1943
330
E74
100
AcDbDictionary
280
     1
281
     1
  3
ADSK_XREC_LAYER_RECONCILED
360
1944
  0
DICTIONARY
  5
1945
330
E76
100
AcDbDictionary
280
     1
281
     1
  3
ADSK_XREC_LAYER_RECONCILED
360
1946
  0
DICTIONARY
  5
1947
330
E79
100
AcDbDictionary
280
     1
281
     1
  3
ADSK_XREC_LAYER_RECONCILED
360
1948
  0
DICTIONARY
  5
1949
330
E7A
100
AcDbDictionary
280
     1
281
     1
  3
ADSK_XREC_LAYER_RECONCILED
360
194A
  0
DICTIONARY
  5
194B
330
E7C
100
AcDbDictionary
280
     1
281
     1
  3
ADSK_XREC_LAYER_RECONCILED
360
194C
  0
DICTIONARY
  5
194D
330
E7D
100
AcDbDictionary
280
     1
281
     1
  3
ADSK_XREC_LAYER_RECONCILED
360
194E
  0
DICTIONARY
  5
194F
330
E7E
100
AcDbDictionary
280
     1
281
     1
  3
ADSK_XREC_LAYER_RECONCILED
360
1950
  0
DICTIONARY
  5
1951
330
E81
100
AcDbDictionary
280
     1
281
     1
  3
ADSK_XREC_LAYER_RECONCILED
360
1952
  0
DICTIONARY
  5
1953
330
E82
100
AcDbDictionary
280
     1
281
     1
  3
ADSK_XREC_LAYER_RECONCILED
360
1954
  0
DICTIONARY
  5
1959
330
1300
100
AcDbDictionary
280
     1
281
     1
  3
ADSK_XREC_LAYER_RECONCILED
360
195A
  0
DICTIONARY
  5
195B
330
1301
100
AcDbDictionary
280
     1
281
     1
  3
ADSK_XREC_LAYER_RECONCILED
360
195C
  0
DICTIONARY
  5
195D
330
1302
100
AcDbDictionary
280
     1
281
     1
  3
ADSK_XREC_LAYER_RECONCILED
360
195E
  0
DICTIONARY
  5
195F
330
17F2
100
AcDbDictionary
280
     1
281
     1
  3
ADSK_XREC_LAYER_RECONCILED
360
1960
  0
DICTIONARY
  5
1A38
330
E0F
100
AcDbDictionary
280
     1
281
     1
  3
ACAD_SORTENTS
360
1A39
  0
DICTIONARY
  5
1D98
102
{ACAD_REACTORS
330
E04
102
}
330
E04
100
AcDbDictionary
281
     1
  3
DIMJOGANG
350
1D99
  0
DICTIONARY
  5
164A
102
{ACAD_REACTORS
330
E04
102
}
330
E04
100
AcDbDictionary
281
     1
  0
DICTIONARY
  5
E05
102
{ACAD_REACTORS
330
E04
102
}
330
E04
100
AcDbDictionary
281
     1
  0
DICTIONARY
  5
164D
102
{ACAD_REACTORS
330
E04
102
}
330
E04
100
AcDbDictionary
281
     1
  3
Layout1
350
1650
  3
Model
350
164F
  0
DICTIONARY
  5
1649
102
{ACAD_REACTORS
330
E04
102
}
330
E04
100
AcDbDictionary
281
     1
  3
ByBlock
350
173A
  3
ByLayer
350
1732
  3
Global
350
1742
  0
DICTIONARY
  5
176D
102
{ACAD_REACTORS
330
E04
102
}
330
E04
100
AcDbDictionary
281
     1
  3
Standard
350
176E
  0
DICTIONARY
  5
E12
102
{ACAD_REACTORS
330
E04
102
}
330
E04
100
AcDbDictionary
281
     1
  3
STANDARD
350
E13
  0
DICTIONARY
  5
164E
102
{ACAD_REACTORS
330
E04
102
}
330
E04
100
AcDbDictionary
281
     1
  0
ACDBDICTIONARYWDFLT
  5
1647
102
{ACAD_REACTORS
330
E04
102
}
330
E04
100
AcDbDictionary
281
     1
  3
Normal
350
1648
100
AcDbDictionaryWithDefault
340
1648
  0
DICTIONARY
  5
175B
102
{ACAD_REACTORS
330
E04
102
}
330
E04
100
AcDbDictionary
281
     1
  3
A0
350
175C
  3
A1
350
175D
  3
A2
350
175E
  3
A3
350
175F
  3
A4
350
1760
  3
A5
350
1761
  3
A6
350
1762
  3
A7
350
1763
  3
A8
350
1764
  3
A9
350
1765
  3
B0
350
1766
  3
B1
350
1767
  3
B2
350
1768
  3
B3
350
1769
  3
B4
350
176A
  3
B5
350
176B
  3
B6
350
176C
  0
DICTIONARY
  5
164B
102
{ACAD_REACTORS
330
E04
102
}
330
E04
100
AcDbDictionary
281
     1
  3
Standard
350
164C
  0
DICTIONARY
  5
174A
102
{ACAD_REACTORS
330
E04
102
}
330
E04
100
AcDbDictionary
281
     1
  3
2dWireframe
350
1750
  3
3D Hidden
350
1752
  3
3dWireframe
350
1751
  3
Basic
350
174F
  3
Brighten
350
1756
  3
ColorChange
350
175A
  3
Conceptual
350
1753
  3
Dim
350
1755
  3
Facepattern
350
1759
  3
Flat
350
174B
  3
FlatWithEdges
350
174C
  3
Gouraud
350
174D
  3
GouraudWithEdges
350
174E
  3
Linepattern
350
1758
  3
Realistic
350
1754
  3
Thicken
350
1757
  0
XRECORD
  5
1970
102
{ACAD_REACTORS
330
E04
102
}
330
E04
100
AcDbXrecord
280
     1
 90
        1
330
164C
  0
DICTIONARY
  5
E87
102
{ACAD_REACTORS
330
E04
102
}
330
E04
100
AcDbDictionary
281
     1
  3
CANNOSCALE
350
1973
  3
CMLEADERSTYLE
350
1971
  3
CTABLESTYLE
350
171B
  3
DIMADEC
350
E88
  3
DIMASSOC
350
1723
  3
LAYEREVAL
350
1975
  3
LAYERNOTIFY
350
1976
  3
LIGHTINGUNITS
350
1974
  3
MSLTSCALE
350
1972
  3
PROJECTNAME
350
1724
  0
DICTIONARY
  5
16AC
102
{ACAD_REACTORS
330
E04
102
}
330
E04
100
AcDbDictionary
281
     1
  3
AcmStdDictionary
350
16B7
  3
AMDTSECTSYM_ARROWCOLOR
350
16DA
  0
DICTIONARY
  5
1652
102
{ACAD_REACTORS
330
E04
102
}
330
E04
100
AcDbDictionary
281
     1
  0
DICTIONARY
  5
171C
102
{ACAD_REACTORS
330
E04
102
}
330
E04
100
AcDbDictionary
281
     1
  0
DICTIONARY
  5
1A86
102
{ACAD_REACTORS
330
1A85
102
}
330
1A85
100
AcDbDictionary
280
     1
281
     1
  0
XRECORD
  5
1938
102
{ACAD_REACTORS
330
1937
102
}
330
1937
100
AcDbXrecord
280
     1
290
     1
  0
XRECORD
  5
193A
102
{ACAD_REACTORS
330
1939
102
}
330
1939
100
AcDbXrecord
280
     1
290
     1
  0
XRECORD
  5
1940
102
{ACAD_REACTORS
330
193F
102
}
330
193F
100
AcDbXrecord
280
     1
290
     1
  0
XRECORD
  5
1942
102
{ACAD_REACTORS
330
1941
102
}
330
1941
100
AcDbXrecord
280
     1
290
     1
  0
XRECORD
  5
1944
102
{ACAD_REACTORS
330
1943
102
}
330
1943
100
AcDbXrecord
280
     1
290
     1
  0
XRECORD
  5
1946
102
{ACAD_REACTORS
330
1945
102
}
330
1945
100
AcDbXrecord
280
     1
290
     1
  0
XRECORD
  5
1948
102
{ACAD_REACTORS
330
1947
102
}
330
1947
100
AcDbXrecord
280
     1
290
     1
  0
XRECORD
  5
194A
102
{ACAD_REACTORS
330
1949
102
}
330
1949
100
AcDbXrecord
280
     1
290
     1
  0
XRECORD
  5
194C
102
{ACAD_REACTORS
330
194B
102
}
330
194B
100
AcDbXrecord
280
     1
290
     1
  0
XRECORD
  5
194E
102
{ACAD_REACTORS
330
194D
102
}
330
194D
100
AcDbXrecord
280
     1
290
     1
  0
XRECORD
  5
1950
102
{ACAD_REACTORS
330
194F
102
}
330
194F
100
AcDbXrecord
280
     1
290
     1
  0
XRECORD
  5
1952
102
{ACAD_REACTORS
330
1951
102
}
330
1951
100
AcDbXrecord
280
     1
290
     1
  0
XRECORD
  5
1954
102
{ACAD_REACTORS
330
1953
102
}
330
1953
100
AcDbXrecord
280
     1
290
     1
  0
XRECORD
  5
195A
102
{ACAD_REACTORS
330
1959
102
}
330
1959
100
AcDbXrecord
280
     1
290
     1
  0
XRECORD
  5
195C
102
{ACAD_REACTORS
330
195B
102
}
330
195B
100
AcDbXrecord
280
     1
290
     1
  0
XRECORD
  5
195E
102
{ACAD_REACTORS
330
195D
102
}
330
195D
100
AcDbXrecord
280
     1
290
     1
  0
XRECORD
  5
1960
102
{ACAD_REACTORS
330
195F
102
}
330
195F
100
AcDbXrecord
280
     1
290
     1
  0
SORTENTSTABLE
  5
1A39
102
{ACAD_REACTORS
330
1A38
102
}
330
1A38
100
AcDbSortentsTable
330
E0F
331
1476
  5
1480
331
1472
  5
147C
331
146E
  5
1478
331
146A
  5
1474
331
1A52
  5
1A95
331
1C73
  5
1106
331
2D7
  5
2DF
331
30E
  5
311
331
30A
  5
30D
331
1466
  5
1470
331
145E
  5
146C
331
1B15
  5
1C73
331
306
  5
309
331
1D8B
  5
1D8A
331
302
  5
305
331
7B7
  5
7E9
331
2B7
  5
2BE
331
6A8
  5
799
331
2FA
  5
2FD
331
339
  5
681
331
9F1
  5
F32
331
331
  5
339
331
F25
  5
144A
331
9E9
  5
F25
331
F21
  5
13F3
331
13F2
  5
1465
331
1C57
  5
6A8
331
1D87
  5
1D87
331
1A89
  5
1B2C
331
1B48
  5
1C76
331
2F2
  5
2F5
331
69C
  5
6FB
331
2EE
  5
2F1
331
32D
  5
334
331
2EA
  5
2ED
331
329
  5
331
331
2A3
  5
2A3
331
9E1
  5
B41
331
325
  5
32F
331
6FB
  5
7E5
331
1481
  5
181F
331
147D
  5
14BC
331
1479
  5
1492
331
1A81
  5
1AEB
331
17F6
  5
1A8F
331
2E6
  5
2E9
331
2E2
  5
2E5
331
29B
  5
29B
331
7E6
  5
9E1
331
31D
  5
32D
331
7E2
  5
863
331
319
  5
325
331
B40
  5
F4B
331
6EF
  5
7E4
331
315
  5
318
331
311
  5
314
331
869
  5
9F1
331
1050
  5
1464
331
1475
  5
147F
331
1471
  5
147B
331
146D
  5
1477
331
1469
  5
1473
331
30D
  5
310
331
309
  5
30C
331
6BB
  5
7E2
331
57C
  5
6AD
331
1465
  5
146F
331
145D
  5
146B
331
1D8E
  5
1D8D
331
305
  5
308
331
2BE
  5
2D4
331
301
  5
304
331
2BA
  5
2C8
331
82D
  5
9E6
331
2FD
  5
301
331
338
  5
653
331
2F9
  5
2FC
331
805
  5
9E4
331
334
  5
33B
331
F24
  5
1449
331
1449
  5
1467
331
1A90
  5
1B8D
331
1C56
  5
329
331
1D86
  5
1D86
331
2F5
  5
2F9
331
2F1
  5
2F4
331
2ED
  5
2F0
331
2A6
  5
2A6
331
9E4
  5
F21
331
2E9
  5
2EC
331
324
  5
32E
331
9DC
  5
B40
331
1480
  5
17F1
331
147C
  5
14BB
331
1478
  5
1482
331
17F1
  5
1A8E
331
2E5
  5
2E8
331
29E
  5
29E
331
2E1
  5
2E4
331
653
  5
6BB
331
318
  5
324
331
2D9
  5
2E1
331
7D5
  5
82D
331
314
  5
317
331
310
  5
313
331
1CB5
  5
1D07
331
1474
  5
147E
331
1470
  5
147A
331
146C
  5
1476
331
1468
  5
1472
331
2D5
  5
2D9
331
30C
  5
30F
331
308
  5
30B
331
F4B
  5
145E
331
6BA
  5
7D5
331
1CA1
  5
892
331
1D17
  5
1D16
331
1464
  5
146E
331
14C7
  5
1A83
331
145C
  5
146A
331
1AEB
  5
1C58
331
304
  5
307
331
300
  5
303
331
33B
  5
6A6
331
2FC
  5
300
331
6A6
  5
6FC
331
2F8
  5
2FB
331
337
  5
57C
331
1D07
  5
2D5
331
14BB
  5
1A82
331
144C
  5
1469
331
1493
  5
1A53
331
1C59
  5
1D06
331
1A8F
  5
1B47
331
2F4
  5
2F8
331
32F
  5
338
331
2F0
  5
2F3
331
32B
  5
332
331
2EC
  5
2EF
331
9E3
  5
EC2
331
799
  5
7E8
331
2E8
  5
2EB
331
7E8
  5
9E3
331
147F
  5
163D
331
147B
  5
14BA
331
1A83
  5
1B16
331
2E4
  5
2E7
331
29D
  5
29D
331
2E0
  5
2E3
331
7E4
  5
9DC
331
31B
  5
32B
331
B42
  5
1050
331
317
  5
31B
331
2D8
  5
2E0
331
313
  5
316
331
1477
  5
1481
331
1473
  5
147D
331
146F
  5
1479
331
15F2
  5
1A87
331
146B
  5
1475
331
1C74
  5
2BA
331
2D4
  5
2D8
331
30F
  5
312
331
30B
  5
30E
331
F4E
  5
145F
331
2C8
  5
2D7
331
863
  5
9E9
331
F3A
  5
145D
331
1CA0
  5
1AEA
331
1467
  5
1471
331
145F
  5
146D
331
1B16
  5
1C74
331
1AEA
  5
1C57
331
1BB9
  5
1CB5
331
307
  5
30A
331
303
  5
306
331
6AD
  5
7B7
331
2FF
  5
302
331
33A
  5
69C
331
2FB
  5
2FF
331
9F2
  5
F3A
331
F32
  5
145C
331
332
  5
33A
331
1D06
  5
2B7
331
144B
  5
1468
331
1492
  5
1A0E
331
1A96
  5
1BB9
331
13F3
  5
1466
331
1A8E
  5
1B46
331
2F7
  5
2FA
331
2F3
  5
2F7
331
2AC
  5
2AC
331
2EF
  5
2F2
331
32E
  5
337
331
2A8
  5
2A8
331
9E6
  5
F24
331
2EB
  5
2EE
331
9E2
  5
B42
331
2A0
  5
2A0
331
EC2
  5
10FC
331
6FC
  5
7E6
331
681
  5
6EF
331
1482
  5
183E
331
147E
  5
14C7
331
147A
  5
1493
331
1A82
  5
1B15
331
1B2D
  5
1C75
331
2E7
  5
2EA
331
2E3
  5
2E6
331
2DF
  5
2E2
331
B41
  5
F4E
331
316
  5
319
331
892
  5
9F2
331
312
  5
315
  0
XRECORD
  5
1D99
102
{ACAD_REACTORS
330
1D98
102
}
330
1D98
100
AcDbXrecord
280
     1
 40
1.570796326794896
  0
LAYOUT
  5
1650
102
{ACAD_REACTORS
330
164D
102
}
330
164D
100
AcDbPlotSettings
  1

  2
Xerox Document Centre CS50 PS
  4

  6

 40
0.0
 41
0.0
 42
0.0
 43
0.0
 44
0.0
 45
0.0
 46
0.0
 47
0.0
 48
0.0
 49
0.0
140
0.0
141
0.0
142
1.0
143
1.0
 70
   688
 72
     0
 73
     0
 74
     5
  7

 75
    16
147
1.0
 76
     0
 77
     2
 78
   300
148
0.0
149
0.0
100
AcDbLayout
  1
Layout1
 70
     1
 71
     1
 10
0.0
 20
0.0
 11
420.0
 21
297.0
 12
0.0
 22
0.0
 32
0.0
 14
1.000000000000000E+20
 24
1.000000000000000E+20
 34
1.000000000000000E+20
 15
-1.000000000000000E+20
 25
-1.000000000000000E+20
 35
-1.000000000000000E+20
146
0.0
 13
0.0
 23
0.0
 33
0.0
 16
1.0
 26
0.0
 36
0.0
 17
0.0
 27
1.0
 37
0.0
 76
     0
330
E0C
331
22
  0
LAYOUT
  5
164F
102
{ACAD_REACTORS
330
164D
102
}
330
164D
100
AcDbPlotSettings
  1

  2
Xerox Document Centre CS50 PS
  4

  6

 40
0.0
 41
0.0
 42
0.0
 43
0.0
 44
0.0
 45
0.0
 46
0.0
 47
0.0
 48
0.0
 49
0.0
140
0.0
141
0.0
142
1.0
143
1.0
 70
  1712
 72
     0
 73
     0
 74
     0
  7

 75
     0
147
1.0
 76
     0
 77
     2
 78
   300
148
0.0
149
0.0
100
AcDbLayout
  1
Model
 70
     1
 71
     0
 10
0.0
 20
0.0
 11
12.0
 21
9.0
 12
0.0
 22
0.0
 32
0.0
 14
0.0
 24
0.0
 34
0.0
 15
0.0
 25
0.0
 35
0.0
146
0.0
 13
0.0
 23
0.0
 33
0.0
 16
1.0
 26
0.0
 36
0.0
 17
0.0
 27
1.0
 37
0.0
 76
     0
330
E0F
331
1725
  0
MATERIAL
  5
173A
102
{ACAD_XDICTIONARY
360
173B
102
}
102
{ACAD_REACTORS
330
1649
102
}
330
1649
100
AcDbMaterial
  1
ByBlock
 72
     0
 43
0.0208333333333333
 43
0.0
 43
0.0
 43
0.0
 43
0.0
 43
0.0208333333333333
 43
0.0
 43
0.0
 43
0.0
 43
0.0
 43
1.0
 43
0.0
 43
0.0
 43
0.0
 43
0.0
 43
1.0
 77
     0
 47
0.0208333333333333
 47
0.0
 47
0.0
 47
0.0
 47
0.0
 47
0.0208333333333333
 47
0.0
 47
0.0
 47
0.0
 47
0.0
 47
1.0
 47
0.0
 47
0.0
 47
0.0
 47
0.0
 47
1.0
171
     0
 49
0.0208333333333333
 49
0.0
 49
0.0
 49
0.0
 49
0.0
 49
0.0208333333333333
 49
0.0
 49
0.0
 49
0.0
 49
0.0
 49
1.0
 49
0.0
 49
0.0
 49
0.0
 49
0.0
 49
1.0
175
     0
142
0.0208333333333333
142
0.0
142
0.0
142
0.0
142
0.0
142
0.0208333333333333
142
0.0
142
0.0
142
0.0
142
0.0
142
1.0
142
0.0
142
0.0
142
0.0
142
0.0
142
1.0
179
     0
144
0.0208333333333333
144
0.0
144
0.0
144
0.0
144
0.0
144
0.0208333333333333
144
0.0
144
0.0
144
0.0
144
0.0
144
1.0
144
0.0
144
0.0
144
0.0
144
0.0
144
1.0
147
0.0208333333333333
147
0.0
147
0.0
147
0.0
147
0.0
147
0.0208333333333333
147
0.0
147
0.0
147
0.0
147
0.0
147
1.0
147
0.0
147
0.0
147
0.0
147
0.0
147
1.0
  0
MATERIAL
  5
1732
102
{ACAD_XDICTIONARY
360
1733
102
}
102
{ACAD_REACTORS
330
1649
102
}
330
1649
100
AcDbMaterial
  1
ByLayer
 72
     0
 43
0.0208333333333333
 43
0.0
 43
0.0
 43
0.0
 43
0.0
 43
0.0208333333333333
 43
0.0
 43
0.0
 43
0.0
 43
0.0
 43
1.0
 43
0.0
 43
0.0
 43
0.0
 43
0.0
 43
1.0
 77
     0
 47
0.0208333333333333
 47
0.0
 47
0.0
 47
0.0
 47
0.0
 47
0.0208333333333333
 47
0.0
 47
0.0
 47
0.0
 47
0.0
 47
1.0
 47
0.0
 47
0.0
 47
0.0
 47
0.0
 47
1.0
171
     0
 49
0.0208333333333333
 49
0.0
 49
0.0
 49
0.0
 49
0.0
 49
0.0208333333333333
 49
0.0
 49
0.0
 49
0.0
 49
0.0
 49
1.0
 49
0.0
 49
0.0
 49
0.0
 49
0.0
 49
1.0
175
     0
142
0.0208333333333333
142
0.0
142
0.0
142
0.0
142
0.0
142
0.0208333333333333
142
0.0
142
0.0
142
0.0
142
0.0
142
1.0
142
0.0
142
0.0
142
0.0
142
0.0
142
1.0
179
     0
144
0.0208333333333333
144
0.0
144
0.0
144
0.0
144
0.0
144
0.0208333333333333
144
0.0
144
0.0
144
0.0
144
0.0
144
1.0
144
0.0
144
0.0
144
0.0
144
0.0
144
1.0
147
0.0208333333333333
147
0.0
147
0.0
147
0.0
147
0.0
147
0.0208333333333333
147
0.0
147
0.0
147
0.0
147
0.0
147
1.0
147
0.0
147
0.0
147
0.0
147
0.0
147
1.0
  0
MATERIAL
  5
1742
102
{ACAD_XDICTIONARY
360
1743
102
}
102
{ACAD_REACTORS
330
1649
102
}
330
1649
100
AcDbMaterial
  1
Global
 72
     0
 43
0.0208333333333333
 43
0.0
 43
0.0
 43
0.0
 43
0.0
 43
0.0208333333333333
 43
0.0
 43
0.0
 43
0.0
 43
0.0
 43
1.0
 43
0.0
 43
0.0
 43
0.0
 43
0.0
 43
1.0
 77
     0
 47
0.0208333333333333
 47
0.0
 47
0.0
 47
0.0
 47
0.0
 47
0.0208333333333333
 47
0.0
 47
0.0
 47
0.0
 47
0.0
 47
1.0
 47
0.0
 47
0.0
 47
0.0
 47
0.0
 47
1.0
171
     0
 49
0.0208333333333333
 49
0.0
 49
0.0
 49
0.0
 49
0.0
 49
0.0208333333333333
 49
0.0
 49
0.0
 49
0.0
 49
0.0
 49
1.0
 49
0.0
 49
0.0
 49
0.0
 49
0.0
 49
1.0
175
     0
142
0.0208333333333333
142
0.0
142
0.0
142
0.0
142
0.0
142
0.0208333333333333
142
0.0
142
0.0
142
0.0
142
0.0
142
1.0
142
0.0
142
0.0
142
0.0
142
0.0
142
1.0
179
     0
144
0.0208333333333333
144
0.0
144
0.0
144
0.0
144
0.0
144
0.0208333333333333
144
0.0
144
0.0
144
0.0
144
0.0
144
1.0
144
0.0
144
0.0
144
0.0
144
0.0
144
1.0
147
0.0208333333333333
147
0.0
147
0.0
147
0.0
147
0.0
147
0.0208333333333333
147
0.0
147
0.0
147
0.0
147
0.0
147
1.0
147
0.0
147
0.0
147
0.0
147
0.0
147
1.0
  0
MLEADERSTYLE
  5
176E
102
{ACAD_REACTORS
330
176D
102
}
330
176D
100
AcDbMLeaderStyle
170
     2
171
     1
172
     0
 90
        2
 40
0.0
 41
0.0
173
     1
 91
-1056964608
340
E09
 92
       -2
290
     1
 42
2.0
291
     1
 43
0.36
  3
Standard
 44
4.0
300

342
E07
174
     1
178
     6
175
     1
176
     0
 93
-1056964608
 45
4.0
292
     0
297
     0
 46
4.0
 94
-1056964608
 47
1.0
 49
1.0
140
1.0
293
     1
141
0.0
294
     1
177
     0
142
1.0
295
     0
296
     0
143
0.125
1001
ACAD_MLEADERVER
1070
     2
  0
MLINESTYLE
  5
E13
102
{ACAD_REACTORS
330
E12
102
}
330
E12
100
AcDbMlineStyle
  2
STANDARD
 70
     0
  3

 62
   256
 51
90.0
 52
90.0
 71
     2
 49
0.5
 62
   256
  6
BYLAYER
 49
-0.5
 62
   256
  6
BYLAYER
  0
ACDBPLACEHOLDER
  5
1648
102
{ACAD_REACTORS
330
1647
102
}
330
1647
  0
SCALE
  5
175C
102
{ACAD_REACTORS
330
175B
102
}
330
175B
100
AcDbScale
 70
     0
300
1:1
140
1.0
141
1.0
290
     1
  0
SCALE
  5
175D
102
{ACAD_REACTORS
330
175B
102
}
330
175B
100
AcDbScale
 70
     0
300
1:2
140
1.0
141
2.0
290
     0
  0
SCALE
  5
175E
102
{ACAD_REACTORS
330
175B
102
}
330
175B
100
AcDbScale
 70
     0
300
1:4
140
1.0
141
4.0
290
     0
  0
SCALE
  5
175F
102
{ACAD_REACTORS
330
175B
102
}
330
175B
100
AcDbScale
 70
     0
300
1:5
140
1.0
141
5.0
290
     0
  0
SCALE
  5
1760
102
{ACAD_REACTORS
330
175B
102
}
330
175B
100
AcDbScale
 70
     0
300
1:8
140
1.0
141
8.0
290
     0
  0
SCALE
  5
1761
102
{ACAD_REACTORS
330
175B
102
}
330
175B
100
AcDbScale
 70
     0
300
1:10
140
1.0
141
10.0
290
     0
  0
SCALE
  5
1762
102
{ACAD_REACTORS
330
175B
102
}
330
175B
100
AcDbScale
 70
     0
300
1:16
140
1.0
141
16.0
290
     0
  0
SCALE
  5
1763
102
{ACAD_REACTORS
330
175B
102
}
330
175B
100
AcDbScale
 70
     0
300
1:20
140
1.0
141
20.0
290
     0
  0
SCALE
  5
1764
102
{ACAD_REACTORS
330
175B
102
}
330
175B
100
AcDbScale
 70
     0
300
1:30
140
1.0
141
30.0
290
     0
  0
SCALE
  5
1765
102
{ACAD_REACTORS
330
175B
102
}
330
175B
100
AcDbScale
 70
     0
300
1:40
140
1.0
141
40.0
290
     0
  0
SCALE
  5
1766
102
{ACAD_REACTORS
330
175B
102
}
330
175B
100
AcDbScale
 70
     0
300
1:50
140
1.0
141
50.0
290
     0
  0
SCALE
  5
1767
102
{ACAD_REACTORS
330
175B
102
}
330
175B
100
AcDbScale
 70
     0
300
1:100
140
1.0
141
100.0
290
     0
  0
SCALE
  5
1768
102
{ACAD_REACTORS
330
175B
102
}
330
175B
100
AcDbScale
 70
     0
300
2:1
140
2.0
141
1.0
290
     0
  0
SCALE
  5
1769
102
{ACAD_REACTORS
330
175B
102
}
330
175B
100
AcDbScale
 70
     0
300
4:1
140
4.0
141
1.0
290
     0
  0
SCALE
  5
176A
102
{ACAD_REACTORS
330
175B
102
}
330
175B
100
AcDbScale
 70
     0
300
8:1
140
8.0
141
1.0
290
     0
  0
SCALE
  5
176B
102
{ACAD_REACTORS
330
175B
102
}
330
175B
100
AcDbScale
 70
     0
300
10:1
140
10.0
141
1.0
290
     0
  0
SCALE
  5
176C
102
{ACAD_REACTORS
330
175B
102
}
330
175B
100
AcDbScale
 70
     0
300
100:1
140
100.0
141
1.0
290
     0
  0
TABLESTYLE
  5
164C
102
{ACAD_XDICTIONARY
360
196E
102
}
102
{ACAD_REACTORS
330
164B
102
}
330
164B
100
AcDbTableStyle
  3
Standard
 70
     0
 71
     0
 40
1.5
 41
1.5
280
     0
281
     0
  7
STANDARD
140
4.5
170
     2
 62
     0
 63
     7
283
     0
274
    -2
284
     1
 64
     0
275
    -2
285
     1
 65
     0
276
    -2
286
     1
 66
     0
277
    -2
287
     1
 67
     0
278
    -2
288
     1
 68
     0
279
    -2
289
     1
 69
     0
  7
STANDARD
140
6.0
170
     5
 62
     0
 63
     7
283
     0
274
    -2
284
     1
 64
     0
275
    -2
285
     1
 65
     0
276
    -2
286
     1
 66
     0
277
    -2
287
     1
 67
     0
278
    -2
288
     1
 68
     0
279
    -2
289
     1
 69
     0
  7
STANDARD
140
4.5
170
     5
 62
     0
 63
     7
283
     0
274
    -2
284
     1
 64
     0
275
    -2
285
     1
 65
     0
276
    -2
286
     1
 66
     0
277
    -2
287
     1
 67
     0
278
    -2
288
     1
 68
     0
279
    -2
289
     1
 69
     0
  0
VISUALSTYLE
  5
1750
102
{ACAD_REACTORS
330
174A
102
}
330
174A
100
AcDbVisualStyle
  2
2dWireframe
 70
     4
 71
     0
 72
     2
 73
     0
 90
        0
 40
-0.6
 41
-30.0
 62
     5
 63
     7
421
 16777215
 74
     1
 91
        4
 64
     7
 65
   257
 75
     1
175
     1
 42
1.0
 92
        0
 66
   257
 43
1.0
 76
     1
 77
     6
 78
     2
 67
     7
 79
     5
170
     0
171
     0
290
     0
174
     0
 93
        1
 44
0.0
173
     0
291
     0
 45
0.0
1001
ACAD
1000
AcDbSavedByObjectVersion
1070
     0
  0
VISUALSTYLE
  5
1752
102
{ACAD_REACTORS
330
174A
102
}
330
174A
100
AcDbVisualStyle
  2
3D Hidden
 70
     6
 71
     1
 72
     2
 73
     2
 90
        0
 40
-0.6
 41
-30.0
 62
     5
 63
     7
421
 16777215
 74
     2
 91
        2
 64
     7
 65
   257
 75
     2
175
     1
 42
40.0
 92
        0
 66
   257
 43
1.0
 76
     1
 77
     6
 78
     2
 67
     7
 79
     3
170
     0
171
     0
290
     0
174
     0
 93
        1
 44
0.0
173
     0
291
     0
 45
0.0
1001
ACAD
1000
AcDbSavedByObjectVersion
1070
     0
  0
VISUALSTYLE
  5
1751
102
{ACAD_REACTORS
330
174A
102
}
330
174A
100
AcDbVisualStyle
  2
3dWireframe
 70
     5
 71
     0
 72
     2
 73
     0
 90
        0
 40
-0.6
 41
-30.0
 62
     5
 63
     7
421
 16777215
 74
     1
 91
        4
 64
     7
 65
   257
 75
     1
175
     1
 42
1.0
 92
        0
 66
   257
 43
1.0
 76
     1
 77
     6
 78
     2
 67
     7
 79
     5
170
     0
171
     0
290
     0
174
     0
 93
        1
 44
0.0
173
     0
291
     0
 45
0.0
1001
ACAD
1000
AcDbSavedByObjectVersion
1070
     0
  0
VISUALSTYLE
  5
174F
102
{ACAD_REACTORS
330
174A
102
}
330
174A
100
AcDbVisualStyle
  2
Basic
 70
     7
 71
     1
 72
     0
 73
     1
 90
        0
 40
-0.6
 41
-30.0
 62
     5
 63
     7
421
 16777215
 74
     0
 91
        4
 64
     7
 65
   257
 75
     1
175
     1
 42
1.0
 92
        8
 66
     7
 43
1.0
 76
     1
 77
     6
 78
     2
 67
     7
 79
     5
170
     0
171
     0
290
     0
174
     0
 93
        1
 44
0.0
173
     0
291
     1
 45
0.0
1001
ACAD
1000
AcDbSavedByObjectVersion
1070
     0
  0
VISUALSTYLE
  5
1756
102
{ACAD_REACTORS
330
174A
102
}
330
174A
100
AcDbVisualStyle
  2
Brighten
 70
    12
 71
     2
 72
     2
 73
     0
 90
        0
 40
-0.6
 41
-30.0
 62
     5
 63
     7
421
 16777215
 74
     1
 91
        4
 64
     7
 65
   257
 75
     1
175
     1
 42
1.0
 92
        8
 66
     7
 43
1.0
 76
     1
 77
     6
 78
     2
 67
     7
 79
     5
170
     0
171
     0
290
     0
174
     0
 93
        1
 44
50.0
173
     0
291
     1
 45
0.0
1001
ACAD
1000
AcDbSavedByObjectVersion
1070
     0
  0
VISUALSTYLE
  5
175A
102
{ACAD_REACTORS
330
174A
102
}
330
174A
100
AcDbVisualStyle
  2
ColorChange
 70
    16
 71
     2
 72
     2
 73
     3
 90
        0
 40
-0.6
 41
-30.0
 62
     5
 63
     8
421
  8421504
 74
     1
 91
        4
 64
     7
 65
   257
 75
     1
175
     1
 42
1.0
 92
        8
 66
     8
424
  8421504
 43
1.0
 76
     1
 77
     6
 78
     2
 67
     7
 79
     5
170
     0
171
     0
290
     0
174
     0
 93
        1
 44
0.0
173
     0
291
     1
 45
0.0
1001
ACAD
1000
AcDbSavedByObjectVersion
1070
     0
  0
VISUALSTYLE
  5
1753
102
{ACAD_REACTORS
330
174A
102
}
330
174A
100
AcDbVisualStyle
  2
Conceptual
 70
     9
 71
     3
 72
     2
 73
     0
 90
        0
 40
-0.6
 41
-30.0
 62
     5
 63
     7
421
 16777215
 74
     2
 91
        2
 64
     7
 65
   257
 75
     1
175
     1
 42
40.0
 92
        8
 66
     7
 43
1.0
 76
     1
 77
     6
 78
     2
 67
     7
 79
     3
170
     0
171
     0
290
     0
174
     0
 93
        1
 44
0.0
173
     0
291
     0
 45
0.0
1001
ACAD
1000
AcDbSavedByObjectVersion
1070
     0
  0
VISUALSTYLE
  5
1755
102
{ACAD_REACTORS
330
174A
102
}
330
174A
100
AcDbVisualStyle
  2
Dim
 70
    11
 71
     2
 72
     2
 73
     0
 90
        0
 40
-0.6
 41
-30.0
 62
     5
 63
     7
421
 16777215
 74
     1
 91
        4
 64
     7
 65
   257
 75
     1
175
     1
 42
1.0
 92
        8
 66
     7
 43
1.0
 76
     1
 77
     6
 78
     2
 67
     7
 79
     5
170
     0
171
     0
290
     0
174
     0
 93
        1
 44
-50.0
173
     0
291
     1
 45
0.0
1001
ACAD
1000
AcDbSavedByObjectVersion
1070
     0
  0
VISUALSTYLE
  5
1759
102
{ACAD_REACTORS
330
174A
102
}
330
174A
100
AcDbVisualStyle
  2
Facepattern
 70
    15
 71
     2
 72
     2
 73
     0
 90
        0
 40
-0.6
 41
-30.0
 62
     5
 63
     7
421
 16777215
 74
     1
 91
        4
 64
     7
 65
   257
 75
     1
175
     1
 42
1.0
 92
        8
 66
     7
 43
1.0
 76
     1
 77
     6
 78
     2
 67
     7
 79
     5
170
     0
171
     0
290
     0
174
     0
 93
        1
 44
0.0
173
     0
291
     1
 45
0.0
1001
ACAD
1000
AcDbSavedByObjectVersion
1070
     0
  0
VISUALSTYLE
  5
174B
102
{ACAD_REACTORS
330
174A
102
}
330
174A
100
AcDbVisualStyle
  2
Flat
 70
     0
 71
     2
 72
     1
 73
     1
 90
        2
 40
-0.6
 41
30.0
 62
     5
 63
     7
421
 16777215
 74
     0
 91
        4
 64
     7
 65
   257
 75
     1
175
     1
 42
1.0
 92
        8
 66
     7
 43
1.0
 76
     1
 77
     6
 78
     2
 67
     7
 79
     5
170
     0
171
     0
290
     0
174
     0
 93
       13
 44
0.0
173
     0
291
     1
 45
0.0
1001
ACAD
1000
AcDbSavedByObjectVersion
1070
     0
  0
VISUALSTYLE
  5
174C
102
{ACAD_REACTORS
330
174A
102
}
330
174A
100
AcDbVisualStyle
  2
FlatWithEdges
 70
     1
 71
     2
 72
     1
 73
     1
 90
        2
 40
-0.6
 41
30.0
 62
     5
 63
     7
421
 16777215
 74
     1
 91
        4
 64
     7
 65
   257
 75
     1
175
     1
 42
1.0
 92
        0
 66
   257
 43
1.0
 76
     1
 77
     6
 78
     2
 67
     7
 79
     5
170
     0
171
     0
290
     0
174
     0
 93
       13
 44
0.0
173
     0
291
     1
 45
0.0
1001
ACAD
1000
AcDbSavedByObjectVersion
1070
     0
  0
VISUALSTYLE
  5
174D
102
{ACAD_REACTORS
330
174A
102
}
330
174A
100
AcDbVisualStyle
  2
Gouraud
 70
     2
 71
     2
 72
     2
 73
     1
 90
        2
 40
-0.6
 41
30.0
 62
     5
 63
     7
421
 16777215
 74
     0
 91
        4
 64
     7
 65
   257
 75
     1
175
     1
 42
1.0
 92
        0
 66
     7
 43
1.0
 76
     1
 77
     6
 78
     2
 67
     7
 79
     5
170
     0
171
     0
290
     0
174
     0
 93
       13
 44
0.0
173
     0
291
     1
 45
0.0
1001
ACAD
1000
AcDbSavedByObjectVersion
1070
     0
  0
VISUALSTYLE
  5
174E
102
{ACAD_REACTORS
330
174A
102
}
330
174A
100
AcDbVisualStyle
  2
GouraudWithEdges
 70
     3
 71
     2
 72
     2
 73
     1
 90
        2
 40
-0.6
 41
30.0
 62
     5
 63
     7
421
 16777215
 74
     1
 91
        4
 64
     7
 65
   257
 75
     1
175
     1
 42
1.0
 92
        0
 66
   257
 43
1.0
 76
     1
 77
     6
 78
     2
 67
     7
 79
     5
170
     0
171
     0
290
     0
174
     0
 93
       13
 44
0.0
173
     0
291
     1
 45
0.0
1001
ACAD
1000
AcDbSavedByObjectVersion
1070
     0
  0
VISUALSTYLE
  5
1758
102
{ACAD_REACTORS
330
174A
102
}
330
174A
100
AcDbVisualStyle
  2
Linepattern
 70
    14
 71
     2
 72
     2
 73
     0
 90
        0
 40
-0.6
 41
-30.0
 62
     5
 63
     7
421
 16777215
 74
     1
 91
        4
 64
     7
 65
   257
 75
     7
175
     7
 42
1.0
 92
        8
 66
     7
 43
1.0
 76
     1
 77
     6
 78
     2
 67
     7
 79
     5
170
     0
171
     0
290
     0
174
     0
 93
        1
 44
0.0
173
     0
291
     1
 45
0.0
1001
ACAD
1000
AcDbSavedByObjectVersion
1070
     0
  0
VISUALSTYLE
  5
1754
102
{ACAD_REACTORS
330
174A
102
}
330
174A
100
AcDbVisualStyle
  2
Realistic
 70
     8
 71
     2
 72
     2
 73
     0
 90
        0
 40
-0.6
 41
-30.0
 62
     5
 63
     7
421
 16777215
 74
     1
 91
        0
 64
     7
 65
   257
 75
     1
175
     1
 42
1.0
 92
        8
 66
     8
424
  7895160
 43
1.0
 76
     1
 77
     6
 78
     2
 67
     7
 79
     5
170
     0
171
     0
290
     0
174
     0
 93
       13
 44
0.0
173
     0
291
     0
 45
0.0
1001
ACAD
1000
AcDbSavedByObjectVersion
1070
     0
  0
VISUALSTYLE
  5
1757
102
{ACAD_REACTORS
330
174A
102
}
330
174A
100
AcDbVisualStyle
  2
Thicken
 70
    13
 71
     2
 72
     2
 73
     0
 90
        0
 40
-0.6
 41
-30.0
 62
     5
 63
     7
421
 16777215
 74
     1
 91
        4
 64
     7
 65
   257
 75
     1
175
     1
 42
1.0
 92
       12
 66
     7
 43
1.0
 76
     1
 77
     6
 78
     2
 67
     7
 79
     5
170
     0
171
     0
290
     0
174
     0
 93
        1
 44
0.0
173
     0
291
     1
 45
0.0
1001
ACAD
1000
AcDbSavedByObjectVersion
1070
     0
  0
DICTIONARYVAR
  5
1973
102
{ACAD_REACTORS
330
E87
102
}
330
E87
100
DictionaryVariables
280
     0
  1
1:1
  0
DICTIONARYVAR
  5
1971
102
{ACAD_REACTORS
330
E87
102
}
330
E87
100
DictionaryVariables
280
     0
  1
STANDARD
  0
DICTIONARYVAR
  5
171B
102
{ACAD_REACTORS
330
E87
102
}
330
E87
100
DictionaryVariables
280
     0
  1
STANDARD
  0
DICTIONARYVAR
  5
E88
102
{ACAD_REACTORS
330
E87
102
}
330
E87
100
DictionaryVariables
280
     0
  1
0
  0
DICTIONARYVAR
  5
1723
102
{ACAD_REACTORS
330
E87
102
}
330
E87
100
DictionaryVariables
280
     0
  1
1
  0
DICTIONARYVAR
  5
1975
102
{ACAD_REACTORS
330
E87
102
}
330
E87
100
DictionaryVariables
280
     0
  1
1
  0
DICTIONARYVAR
  5
1976
102
{ACAD_REACTORS
330
E87
102
}
330
E87
100
DictionaryVariables
280
     0
  1
15
  0
DICTIONARYVAR
  5
1974
102
{ACAD_REACTORS
330
E87
102
}
330
E87
100
DictionaryVariables
280
     0
  1
0
  0
DICTIONARYVAR
  5
1972
102
{ACAD_REACTORS
330
E87
102
}
330
E87
100
DictionaryVariables
280
     0
  1
0
  0
DICTIONARYVAR
  5
1724
102
{ACAD_REACTORS
330
E87
102
}
330
E87
100
DictionaryVariables
280
     0
  1

  0
DICTIONARY
  5
16B7
102
{ACAD_REACTORS
330
16AC
102
}
330
16AC
100
AcDbDictionary
281
     1
  0
XRECORD
  5
16DA
102
{ACAD_REACTORS
330
16AC
102
}
330
16AC
100
AcDbXrecord
280
     1
 90
-1023410169
  0
DICTIONARY
  5
173B
330
173A
100
AcDbDictionary
280
     1
281
     1
  3
ACAD_XREC_ROUNDTRIP
360
1D9C
  3
BUMPTILE
360
173D
  3
DIFFUSETILE
360
173C
  3
OPACITYTILE
360
1740
  3
REFLECTIONTILE
360
173F
  3
REFRACTIONTILE
360
1741
  3
SPECULARTILE
360
173E
  0
DICTIONARY
  5
1733
330
1732
100
AcDbDictionary
280
     1
281
     1
  3
ACAD_XREC_ROUNDTRIP
360
1D9B
  3
BUMPTILE
360
1735
  3
DIFFUSETILE
360
1734
  3
OPACITYTILE
360
1738
  3
REFLECTIONTILE
360
1737
  3
REFRACTIONTILE
360
1739
  3
SPECULARTILE
360
1736
  0
DICTIONARY
  5
1743
330
1742
100
AcDbDictionary
280
     1
281
     1
  3
ACAD_XREC_ROUNDTRIP
360
1D9D
  3
BUMPTILE
360
1745
  3
DIFFUSETILE
360
1744
  3
OPACITYTILE
360
1748
  3
REFLECTIONTILE
360
1747
  3
REFRACTIONTILE
360
1749
  3
SPECULARTILE
360
1746
  0
DICTIONARY
  5
196E
330
164C
100
AcDbDictionary
280
     1
281
     1
  3
ACAD_ROUNDTRIP_2008_TABLESTYLE_CELLSTYLEMAP
360
1D97
  3
ACAD_XREC_ROUNDTRIP
360
1D9A
  0
XRECORD
  5
1D9C
102
{ACAD_REACTORS
330
173B
102
}
330
173B
100
AcDbXrecord
280
     1
102
MATERIAL
148
0.0
149
0.0
149
0.0
 93
        0
 94
      127
282
     0
 72
     0
 77
     0
171
     0
175
     0
179
     0
273
     0
  0
XRECORD
  5
173D
102
{ACAD_REACTORS
330
173B
102
}
330
173B
100
AcDbXrecord
280
     1
270
     1
271
     1
  0
XRECORD
  5
173C
102
{ACAD_REACTORS
330
173B
102
}
330
173B
100
AcDbXrecord
280
     1
270
     1
271
     1
  0
XRECORD
  5
1740
102
{ACAD_REACTORS
330
173B
102
}
330
173B
100
AcDbXrecord
280
     1
270
     1
271
     1
  0
XRECORD
  5
173F
102
{ACAD_REACTORS
330
173B
102
}
330
173B
100
AcDbXrecord
280
     1
270
     1
271
     1
  0
XRECORD
  5
1741
102
{ACAD_REACTORS
330
173B
102
}
330
173B
100
AcDbXrecord
280
     1
270
     1
271
     1
  0
XRECORD
  5
173E
102
{ACAD_REACTORS
330
173B
102
}
330
173B
100
AcDbXrecord
280
     1
270
     1
271
     1
  0
XRECORD
  5
1D9B
102
{ACAD_REACTORS
330
1733
102
}
330
1733
100
AcDbXrecord
280
     1
102
MATERIAL
148
0.0
149
0.0
149
0.0
 93
        0
 94
      127
282
     0
 72
     0
 77
     0
171
     0
175
     0
179
     0
273
     0
  0
XRECORD
  5
1735
102
{ACAD_REACTORS
330
1733
102
}
330
1733
100
AcDbXrecord
280
     1
270
     1
271
     1
  0
XRECORD
  5
1734
102
{ACAD_REACTORS
330
1733
102
}
330
1733
100
AcDbXrecord
280
     1
270
     1
271
     1
  0
XRECORD
  5
1738
102
{ACAD_REACTORS
330
1733
102
}
330
1733
100
AcDbXrecord
280
     1
270
     1
271
     1
  0
XRECORD
  5
1737
102
{ACAD_REACTORS
330
1733
102
}
330
1733
100
AcDbXrecord
280
     1
270
     1
271
     1
  0
XRECORD
  5
1739
102
{ACAD_REACTORS
330
1733
102
}
330
1733
100
AcDbXrecord
280
     1
270
     1
271
     1
  0
XRECORD
  5
1736
102
{ACAD_REACTORS
330
1733
102
}
330
1733
100
AcDbXrecord
280
     1
270
     1
271
     1
  0
XRECORD
  5
1D9D
102
{ACAD_REACTORS
330
1743
102
}
330
1743
100
AcDbXrecord
280
     1
102
MATERIAL
148
0.0
149
0.0
149
0.0
 93
        0
 94
      127
282
     0
 72
     0
 77
     0
171
     0
175
     0
179
     0
273
     0
  0
XRECORD
  5
1745
102
{ACAD_REACTORS
330
1743
102
}
330
1743
100
AcDbXrecord
280
     1
270
     1
271
     1
  0
XRECORD
  5
1744
102
{ACAD_REACTORS
330
1743
102
}
330
1743
100
AcDbXrecord
280
     1
270
     1
271
     1
  0
XRECORD
  5
1748
102
{ACAD_REACTORS
330
1743
102
}
330
1743
100
AcDbXrecord
280
     1
270
     1
271
     1
  0
XRECORD
  5
1747
102
{ACAD_REACTORS
330
1743
102
}
330
1743
100
AcDbXrecord
280
     1
270
     1
271
     1
  0
XRECORD
  5
1749
102
{ACAD_REACTORS
330
1743
102
}
330
1743
100
AcDbXrecord
280
     1
270
     1
271
     1
  0
XRECORD
  5
1746
102
{ACAD_REACTORS
330
1743
102
}
330
1743
100
AcDbXrecord
280
     1
270
     1
271
     1
  0
CELLSTYLEMAP
  5
1D97
102
{ACAD_REACTORS
330
196E
102
}
330
196E
100
AcDbCellStyleMap
 90
        3
300
CELLSTYLE
  1
TABLEFORMAT_BEGIN
 90
        5
170
     1
 91
        0
 92
    32768
 62
   257
 93
        1
300
CONTENTFORMAT
  1
CONTENTFORMAT_BEGIN
 90
        0
 91
        0
 92
        4
 93
        0
300

 40
0.0
140
1.0
 94
        5
 62
     0
340
E07
144
6.0
309
CONTENTFORMAT_END
171
     1
301
MARGIN
  1
CELLMARGIN_BEGIN
 40
1.5
 40
1.5
 40
1.5
 40
1.5
 40
0.18
 40
0.18
309
CELLMARGIN_END
 94
        6
 95
        1
302
GRIDFORMAT
  1
GRIDFORMAT_BEGIN
 90
        0
 91
        1
 62
     0
 92
       -2
340
0
 93
        0
 40
0.045
309
GRIDFORMAT_END
 95
        2
302
GRIDFORMAT
  1
GRIDFORMAT_BEGIN
 90
        0
 91
        1
 62
     0
 92
       -2
340
0
 93
        0
 40
0.045
309
GRIDFORMAT_END
 95
        4
302
GRIDFORMAT
  1
GRIDFORMAT_BEGIN
 90
        0
 91
        1
 62
     0
 92
       -2
340
0
 93
        0
 40
0.045
309
GRIDFORMAT_END
 95
        8
302
GRIDFORMAT
  1
GRIDFORMAT_BEGIN
 90
        0
 91
        1
 62
     0
 92
       -2
340
0
 93
        0
 40
0.045
309
GRIDFORMAT_END
 95
       16
302
GRIDFORMAT
  1
GRIDFORMAT_BEGIN
 90
        0
 91
        1
 62
     0
 92
       -2
340
0
 93
        0
 40
0.045
309
GRIDFORMAT_END
 95
       32
302
GRIDFORMAT
  1
GRIDFORMAT_BEGIN
 90
        0
 91
        1
 62
     0
 92
       -2
340
0
 93
        0
 40
0.045
309
GRIDFORMAT_END
309
TABLEFORMAT_END
  1
CELLSTYLE_BEGIN
 90
        1
 91
        1
300
_TITLE
309
CELLSTYLE_END
300
CELLSTYLE
  1
TABLEFORMAT_BEGIN
 90
        5
170
     1
 91
        0
 92
        0
 62
   257
 93
        1
300
CONTENTFORMAT
  1
CONTENTFORMAT_BEGIN
 90
        0
 91
        0
 92
        4
 93
        0
300

 40
0.0
140
1.0
 94
        5
 62
     0
340
E07
144
4.5
309
CONTENTFORMAT_END
171
     1
301
MARGIN
  1
CELLMARGIN_BEGIN
 40
1.5
 40
1.5
 40
1.5
 40
1.5
 40
0.18
 40
0.18
309
CELLMARGIN_END
 94
        6
 95
        1
302
GRIDFORMAT
  1
GRIDFORMAT_BEGIN
 90
        0
 91
        1
 62
     0
 92
       -2
340
0
 93
        0
 40
0.045
309
GRIDFORMAT_END
 95
        2
302
GRIDFORMAT
  1
GRIDFORMAT_BEGIN
 90
        0
 91
        1
 62
     0
 92
       -2
340
0
 93
        0
 40
0.045
309
GRIDFORMAT_END
 95
        4
302
GRIDFORMAT
  1
GRIDFORMAT_BEGIN
 90
        0
 91
        1
 62
     0
 92
       -2
340
0
 93
        0
 40
0.045
309
GRIDFORMAT_END
 95
        8
302
GRIDFORMAT
  1
GRIDFORMAT_BEGIN
 90
        0
 91
        1
 62
     0
 92
       -2
340
0
 93
        0
 40
0.045
309
GRIDFORMAT_END
 95
       16
302
GRIDFORMAT
  1
GRIDFORMAT_BEGIN
 90
        0
 91
        1
 62
     0
 92
       -2
340
0
 93
        0
 40
0.045
309
GRIDFORMAT_END
 95
       32
302
GRIDFORMAT
  1
GRIDFORMAT_BEGIN
 90
        0
 91
        1
 62
     0
 92
       -2
340
0
 93
        0
 40
0.045
309
GRIDFORMAT_END
309
TABLEFORMAT_END
  1
CELLSTYLE_BEGIN
 90
        2
 91
        1
300
_HEADER
309
CELLSTYLE_END
300
CELLSTYLE
  1
TABLEFORMAT_BEGIN
 90
        5
170
     1
 91
        0
 92
        0
 62
   257
 93
        1
300
CONTENTFORMAT
  1
CONTENTFORMAT_BEGIN
 90
        0
 91
        0
 92
        4
 93
        0
300

 40
0.0
140
1.0
 94
        2
 62
     0
340
E07
144
4.5
309
CONTENTFORMAT_END
171
     1
301
MARGIN
  1
CELLMARGIN_BEGIN
 40
1.5
 40
1.5
 40
1.5
 40
1.5
 40
0.18
 40
0.18
309
CELLMARGIN_END
 94
        6
 95
        1
302
GRIDFORMAT
  1
GRIDFORMAT_BEGIN
 90
        0
 91
        1
 62
     0
 92
       -2
340
0
 93
        0
 40
0.045
309
GRIDFORMAT_END
 95
        2
302
GRIDFORMAT
  1
GRIDFORMAT_BEGIN
 90
        0
 91
        1
 62
     0
 92
       -2
340
0
 93
        0
 40
0.045
309
GRIDFORMAT_END
 95
        4
302
GRIDFORMAT
  1
GRIDFORMAT_BEGIN
 90
        0
 91
        1
 62
     0
 92
       -2
340
0
 93
        0
 40
0.045
309
GRIDFORMAT_END
 95
        8
302
GRIDFORMAT
  1
GRIDFORMAT_BEGIN
 90
        0
 91
        1
 62
     0
 92
       -2
340
0
 93
        0
 40
0.045
309
GRIDFORMAT_END
 95
       16
302
GRIDFORMAT
  1
GRIDFORMAT_BEGIN
 90
        0
 91
        1
 62
     0
 92
       -2
340
0
 93
        0
 40
0.045
309
GRIDFORMAT_END
 95
       32
302
GRIDFORMAT
  1
GRIDFORMAT_BEGIN
 90
        0
 91
        1
 62
     0
 92
       -2
340
0
 93
        0
 40
0.045
309
GRIDFORMAT_END
309
TABLEFORMAT_END
  1
CELLSTYLE_BEGIN
 90
        3
 91
        2
300
_DATA
309
CELLSTYLE_END
  0
XRECORD
  5
1D9A
102
{ACAD_REACTORS
330
196E
102
}
330
196E
100
AcDbXrecord
280
     1
102
ACAD_ROUNDTRIP_PRE2007_TABLESTYLE
 90
        4
 91
        0
  1

 92
        4
 93
        0
  2

 94
        4
 95
        0
  3

  0
ENDSEC
  0
EOF
