  0
SECTION
  2
HEADER
  9
$ACADVER
  1
AC1015
  9
$ACADMAINTVER
 70
    20
  9
$DWGCODEPAGE
  3
ANSI_1252
  9
$INSBASE
 10
0.0
 20
0.0
 30
0.0
  9
$EXTMIN
 10
148.0762291337563
 20
184.8087824680963
 30
-0.0000000349181948
  9
$EXTMAX
 10
366.0325070875915
 20
505.762398627053
 30
0.0000000814935746
  9
$LIMMIN
 10
0.0
 20
0.0
  9
$LIMMAX
 10
12.0
 20
9.0
  9
$ORTHOMODE
 70
     0
  9
$REGENMODE
 70
     1
  9
$FILLMODE
 70
     1
  9
$QTEXTMODE
 70
     0
  9
$MIRRTEXT
 70
     0
  9
$LTSCALE
 40
2.0
  9
$ATTMODE
 70
     1
  9
$TEXTSIZE
 40
7.0
  9
$TRACEWID
 40
0.05
  9
$TEXTSTYLE
  7
STANDARD
  9
$CLAYER
  8
0
  9
$CELTYPE
  6
BYLAYER
  9
$CECOLOR
 62
   256
  9
$CELTSCALE
 40
1.0
  9
$DISPSILH
 70
     0
  9
$DIMSCALE
 40
2.0
  9
$DIMASZ
 40
3.5
  9
$DIMEXO
 40
0.0
  9
$DIMDLI
 40
0.38
  9
$DIMRND
 40
0.0
  9
$DIMDLE
 40
0.0
  9
$DIMEXE
 40
3.5
  9
$DIMTP
 40
0.0
  9
$DIMTM
 40
0.0
  9
$DIMTXT
 40
3.5
  9
$DIMCEN
 40
1.75
  9
$DIMTSZ
 40
0.0
  9
$DIMTOL
 70
     0
  9
$DIMLIM
 70
     0
  9
$DIMTIH
 70
     0
  9
$DIMTOH
 70
     0
  9
$DIMSE1
 70
     0
  9
$DIMSE2
 70
     0
  9
$DIMTAD
 70
     1
  9
$DIMZIN
 70
    12
  9
$DIMBLK
  1

  9
$DIMASO
 70
     1
  9
$DIMSHO
 70
     1
  9
$DIMPOST
  1

  9
$DIMAPOST
  1

  9
$DIMALT
 70
     0
  9
$DIMALTD
 70
     2
  9
$DIMALTF
 40
25.4
  9
$DIMLFAC
 40
1.0
  9
$DIMTOFL
 70
     0
  9
$DIMTVP
 40
0.0
  9
$DIMTIX
 70
     0
  9
$DIMSOXD
 70
     0
  9
$DIMSAH
 70
     0
  9
$DIMBLK1
  1

  9
$DIMBLK2
  1

  9
$DIMSTYLE
  2
GEN-ISO
  9
$DIMCLRD
 70
   256
  9
$DIMCLRE
 70
   256
  9
$DIMCLRT
 70
   256
  9
$DIMTFAC
 40
1.0
  9
$DIMGAP
 40
0.0
  9
$DIMJUST
 70
     0
  9
$DIMSD1
 70
     0
  9
$DIMSD2
 70
     0
  9
$DIMTOLJ
 70
     1
  9
$DIMTZIN
 70
     0
  9
$DIMALTZ
 70
     0
  9
$DIMALTTZ
 70
     0
  9
$DIMUPT
 70
     0
  9
$DIMDEC
 70
     2
  9
$DIMTDEC
 70
     2
  9
$DIMALTU
 70
     2
  9
$DIMALTTD
 70
     2
  9
$DIMTXSTY
  7
STANDARD
  9
$DIMAUNIT
 70
     0
  9
$DIMADEC
 70
     0
  9
$DIMALTRND
 40
0.0
  9
$DIMAZIN
 70
     0
  9
$DIMDSEP
 70
    46
  9
$DIMATFIT
 70
     3
  9
$DIMFRAC
 70
     0
  9
$DIMLDRBLK
  1

  9
$DIMLUNIT
 70
     2
  9
$DIMLWD
 70
    -2
  9
$DIMLWE
 70
    -2
  9
$DIMTMOVE
 70
     0
  9
$LUNITS
 70
     2
  9
$LUPREC
 70
     2
  9
$SKETCHINC
 40
0.1
  9
$FILLETRAD
 40
0.0
  9
$AUNITS
 70
     0
  9
$AUPREC
 70
     2
  9
$MENU
  1
.
  9
$ELEVATION
 40
0.0
  9
$PELEVATION
 40
0.0
  9
$THICKNESS
 40
0.0
  9
$LIMCHECK
 70
     0
  9
$CHAMFERA
 40
0.0
  9
$CHAMFERB
 40
0.0
  9
$CHAMFERC
 40
0.0
  9
$CHAMFERD
 40
0.0
  9
$SKPOLY
 70
     0
  9
$TDCREATE
 40
2444972.041666667
  9
$TDUCREATE
 40
2444972.000000000
  9
$TDUPDATE
 40
2454088.800485822
  9
$TDUUPDATE
 40
2454088.758819155
  9
$TDINDWG
 40
0.0138495370
  9
$TDUSRTIMER
 40
0.0138495370
  9
$USRTIMER
 70
     1
  9
$ANGBASE
 50
0.0
  9
$ANGDIR
 70
     0
  9
$PDMODE
 70
     0
  9
$PDSIZE
 40
0.0
  9
$PLINEWID
 40
0.0
  9
$SPLFRAME
 70
     0
  9
$SPLINETYPE
 70
     6
  9
$SPLINESEGS
 70
     8
  9
$HANDSEED
  5
142D
  9
$SURFTAB1
 70
     6
  9
$SURFTAB2
 70
     6
  9
$SURFTYPE
 70
     6
  9
$SURFU
 70
     6
  9
$SURFV
 70
     6
  9
$UCSBASE
  2

  9
$UCSNAME
  2

  9
$UCSORG
 10
0.0
 20
0.0
 30
0.0
  9
$UCSXDIR
 10
1.0
 20
0.0
 30
0.0
  9
$UCSYDIR
 10
0.0
 20
1.0
 30
0.0
  9
$UCSORTHOREF
  2

  9
$UCSORTHOVIEW
 70
     0
  9
$UCSORGTOP
 10
0.0
 20
0.0
 30
0.0
  9
$UCSORGBOTTOM
 10
0.0
 20
0.0
 30
0.0
  9
$UCSORGLEFT
 10
0.0
 20
0.0
 30
0.0
  9
$UCSORGRIGHT
 10
0.0
 20
0.0
 30
0.0
  9
$UCSORGFRONT
 10
0.0
 20
0.0
 30
0.0
  9
$UCSORGBACK
 10
0.0
 20
0.0
 30
0.0
  9
$PUCSBASE
  2

  9
$PUCSNAME
  2

  9
$PUCSORG
 10
0.0
 20
0.0
 30
0.0
  9
$PUCSXDIR
 10
1.0
 20
0.0
 30
0.0
  9
$PUCSYDIR
 10
0.0
 20
1.0
 30
0.0
  9
$PUCSORTHOREF
  2

  9
$PUCSORTHOVIEW
 70
     0
  9
$PUCSORGTOP
 10
0.0
 20
0.0
 30
0.0
  9
$PUCSORGBOTTOM
 10
0.0
 20
0.0
 30
0.0
  9
$PUCSORGLEFT
 10
0.0
 20
0.0
 30
0.0
  9
$PUCSORGRIGHT
 10
0.0
 20
0.0
 30
0.0
  9
$PUCSORGFRONT
 10
0.0
 20
0.0
 30
0.0
  9
$PUCSORGBACK
 10
0.0
 20
0.0
 30
0.0
  9
$USERI1
 70
     0
  9
$USERI2
 70
     0
  9
$USERI3
 70
     0
  9
$USERI4
 70
     0
  9
$USERI5
 70
     0
  9
$USERR1
 40
0.0
  9
$USERR2
 40
0.0
  9
$USERR3
 40
0.0
  9
$USERR4
 40
0.0
  9
$USERR5
 40
0.0
  9
$WORLDVIEW
 70
     1
  9
$SHADEDGE
 70
     3
  9
$SHADEDIF
 70
    70
  9
$TILEMODE
 70
     1
  9
$MAXACTVP
 70
    48
  9
$PINSBASE
 10
0.0
 20
0.0
 30
0.0
  9
$PLIMCHECK
 70
     0
  9
$PEXTMIN
 10
0.0
 20
0.0
 30
0.0
  9
$PEXTMAX
 10
210.001
 20
297.001
 30
0.0
  9
$PLIMMIN
 10
0.0
 20
0.0
  9
$PLIMMAX
 10
210.001
 20
297.001
  9
$UNITMODE
 70
     0
  9
$VISRETAIN
 70
     1
  9
$PLINEGEN
 70
     1
  9
$PSLTSCALE
 70
     1
  9
$TREEDEPTH
 70
 -3020
  9
$CMLSTYLE
  2
STANDARD
  9
$CMLJUST
 70
     0
  9
$CMLSCALE
 40
1.0
  9
$PROXYGRAPHICS
 70
     1
  9
$MEASUREMENT
 70
     0
  9
$CELWEIGHT
370
    -1
  9
$ENDCAPS
280
     0
  9
$JOINSTYLE
280
     0
  9
$LWDISPLAY
290
     0
  9
$INSUNITS
 70
     0
  9
$HYPERLINKBASE
  1

  9
$STYLESHEET
  1

  9
$XEDIT
290
     1
  9
$CEPSNTYPE
380
     0
  9
$PSTYLEMODE
290
     1
  9
$FINGERPRINTGUID
  2
{694BF375-CD5F-476B-BCBD-94417341F8E9}
  9
$VERSIONGUID
  2
{97F0A2A2-EFF8-4A73-8C98-DEAAB602F36E}
  9
$EXTNAMES
290
     1
  9
$PSVPSCALE
 40
0.0
  9
$OLESTARTUP
290
     0
  0
ENDSEC
  0
SECTION
  2
CLASSES
  0
CLASS
  1
ACDBDICTIONARYWDFLT
  2
AcDbDictionaryWithDefault
  3
ObjectDBX Classes
 90
        0
280
     0
281
     0
  0
CLASS
  1
TABLESTYLE
  2
AcDbTableStyle
  3
ObjectDBX Classes
 90
     2047
280
     0
281
     0
  0
CLASS
  1
ACME_DOCUMENT
  2
AcMeDbDoc
  3
AcMeServices
 90
        0
280
     0
281
     0
  0
CLASS
  1
AMGSETTINGSOBJ
  2
AmgSettingsObj
  3
"AcadM|Product Description: AutoCAD Mechanical 2000|Company: Autodesk"
 90
        0
280
     0
281
     0
  0
CLASS
  1
ACMESCOPE
  2
AcMeScope
  3
AcMeServices
 90
        0
280
     0
281
     0
  0
CLASS
  1
ACMECOMMANDHISTORY
  2
AcMeCommandHistory
  3
AcMeServices
 90
        0
280
     0
281
     0
  0
CLASS
  1
ACIMSYSVARMAN
  2
AcImSysVarManager
  3
AcMeServices
 90
        0
280
     0
281
     0
  0
CLASS
  1
ACIMINTSYSVAR
  2
AcImIntSysVar
  3
AcMeServices
 90
        0
280
     0
281
     0
  0
CLASS
  1
ACMEDRAWINGMAN
  2
AcMeDrawingMan
  3
AcMeServices
 90
        0
280
     0
281
     0
  0
CLASS
  1
ACMEVIEW
  2
AcMeView
  3
AcMeServices
 90
        0
280
     0
281
     0
  0
CLASS
  1
ACDBENTITYCACHE
  2
AcMeEntityCache
  3
AcMeServices
 90
        0
280
     0
281
     0
  0
CLASS
  1
GSMANAGER
  2
AcMeGSManager
  3
AcMeServices
 90
        0
280
     0
281
     0
  0
CLASS
  1
AMDTINTERNALREACTOR
  2
AmdtInternalReactor
  3
AcMeServices
 90
        0
280
     0
281
     0
  0
CLASS
  1
ACMESTATEMGR
  2
AcMeStateMgr
  3
AcMeServices
 90
        0
280
     0
281
     0
  0
CLASS
  1
ACGREFMASTER
  2
AcGrefMaster
  3
AcAttribServices
 90
        0
280
     0
281
     0
  0
CLASS
  1
AM_DRAWING_MGR
  2
AcDmDwgMgr
  3
AcMechDwgViewMgmt
 90
        0
280
     0
281
     0
  0
CLASS
  1
AM_DWG_DOCUMENT
  2
AcDmDwgDocument
  3
AcMechDwgViewMgmt
 90
        0
280
     0
281
     0
  0
CLASS
  1
AM_DWG_SHEET
  2
AcDmSheet
  3
AcMechDwgViewMgmt
 90
        0
280
     0
281
     0
  0
CLASS
  1
AM_VIEWDIMPARMAP
  2
AcDmViewDimParMap
  3
AcMechDwgViewMgmt
 90
        0
280
     0
281
     0
  0
CLASS
  1
ACIMREALSYSVAR
  2
AcImRealSysVar
  3
AcMeServices
 90
        0
280
     0
281
     0
  0
CLASS
  1
AM_DWGMGR_NAME
  2
AcDmDwgMgrName
  3
AcMechDwgViewMgmt
 90
        0
280
     0
281
     0
  0
CLASS
  1
ACME_DATABASE
  2
AcMeDbDatabase
  3
AcMeServices
 90
        0
280
     0
281
     0
  0
CLASS
  1
ACRFINSADJUSTERMGR
  2
AcRfInsAdjusterMgr
  3
AcMeServices
 90
        0
280
     0
281
     0
  0
CLASS
  1
ACGREFACADMASTER
  2
AcGrefacadMaster
  3
AcGrefServices
 90
        0
280
     0
281
     0
  0
CLASS
  1
AMDTMENUSTATEMGR
  2
AmdtMenuStateMgr
  3
McadcomServices
 90
        0
280
     0
281
     0
  0
CLASS
  1
AMDTMCOMMENUSTATE
  2
AmdtMcomMenuState
  3
McadcomServices
 90
        0
280
     0
281
     0
  0
CLASS
  1
AMIMASTER
  2
AmiMaster
  3
AmiServices
 90
        0
280
     0
281
     0
  0
CLASS
  1
MAPIAMMOUDLE
  2
MApiAmModule
  3
MApiAmServices
 90
        0
280
     0
281
     0
  0
CLASS
  1
ACIMSTRSYSVAR
  2
AcImStrSysVar
  3
AcMeServices
 90
        0
280
     0
281
     0
  0
CLASS
  1
AMDTADMENUSTATE
  2
AmdtAdMenuState
  3
DesignerServices
 90
        0
280
     0
281
     0
  0
CLASS
  1
ADAPPL
  2
AcAdAppl
  3
DesignerServices
 90
        0
280
     0
281
     0
  0
CLASS
  1
DEPMGR
  2
AcAdDepMgr
  3
DesignerServices
 90
        0
280
     0
281
     0
  0
CLASS
  1
PARAMMGR
  2
AcAdParamMgr
  3
DesignerServices
 90
        0
280
     0
281
     0
  0
CLASS
  1
PARAMSCOPE
  2
AcAdParamScope
  3
DesignerServices
 90
        0
280
     0
281
     0
  0
CLASS
  1
NAMEDAPPL
  2
AcAdNamedAppl
  3
DesignerServices
 90
        0
280
     0
281
     0
  0
CLASS
  1
AMDTDMMENUSTATE
  2
AmdtDmMenuState
  3
AcMechDwgViewMgmt
 90
        0
280
     0
281
     0
  0
CLASS
  1
AMDTAMMENUSTATE
  2
AmdtAmMenuState
  3
DesignerAssemblies
 90
        0
280
     0
281
     0
  0
CLASS
  1
ACAMPROJECT
  2
AcAmProject
  3
DesignerAssemblies
 90
        0
280
     0
281
     0
  0
CLASS
  1
ACAMGRCOMPDEF
  2
AcAmGrCompDef
  3
DesignerAssemblies
 90
        0
280
     0
281
     0
  0
CLASS
  1
ACCMCONTEXT
  2
AcCmContext
  3
DesignerAssemblies
 90
        0
280
     0
281
     0
  0
CLASS
  1
ACAMCOMPDEF
  2
AcAmCompDef
  3
DesignerAssemblies
 90
        0
280
     0
281
     0
  0
CLASS
  1
ACAMCOMPDEFMGR
  2
AcAmCompDefMgr
  3
DesignerAssemblies
 90
        0
280
     0
281
     0
  0
CLASS
  1
AMCONTEXTMGR
  2
AcAmContextMgr
  3
DesignerAssemblies
 90
        0
280
     0
281
     0
  0
CLASS
  1
ACAMCONTEXTMODELER
  2
AcAmContextModeler
  3
DesignerAssemblies
 90
        0
280
     0
281
     0
  0
CLASS
  1
ACMDATADICTIONARY
  2
AcmDataDictionary
  3
"AcmSymBB|Product Description: AutoCAD Mechanical 2004 DX|Company: Autodesk"
 90
        0
280
     0
281
     0
  0
CLASS
  1
CATALOGSTATE
  2
AcAmCatalogState
  3
DesignerAssemblies
 90
        0
280
     0
281
     0
  0
CLASS
  1
ACAMGRCOMPDEFSET
  2
AcAmGrCompDefSet
  3
DesignerAssemblies
 90
        0
280
     0
281
     0
  0
CLASS
  1
AMDTBROWSERDBTAB
  2
AmdtBrowserDbTab
  3
McadcomServices
 90
        0
280
     0
281
     0
  0
CLASS
  1
CBROWSERAPPOBJECT
  2
CBrowserAppObject
  3
McadcomServices
 90
        0
280
     0
281
     0
  0
CLASS
  1
DM_PLACEHOLDER
  2
AcDmSelsetPlaceholder
  3
AcMechDwgViewMgmt
 90
        0
280
     0
281
     0
  0
CLASS
  1
ACMSTANDARDANSI
  2
AcmStandardANSI
  3
"Amdt_StdImp|Product Description: AutoCAD Mechanical 2004 DX|Company: Autodesk"
 90
        0
280
     0
281
     0
  0
CLASS
  1
AMGOBJPROPCFG
  2
AmgObjPropCfg
  3
"AmgLay|Product Description: AutoCAD Mechanical 2000|Company: Autodesk"
 90
        1
280
     0
281
     0
  0
CLASS
  1
ACMSURFSTANDARDANSI
  2
AcmSurfTextStdANSI
  3
"Amdt_StdImp|Product Description: AutoCAD Mechanical 2004 DX|Company: Autodesk"
 90
        0
280
     0
281
     0
  0
CLASS
  1
ACMFCFSTANDARDANSI
  2
AcmFCFStdANSI
  3
"Amdt_StdImp|Product Description: AutoCAD Mechanical 2004 DX|Company: Autodesk"
 90
        0
280
     0
281
     0
  0
CLASS
  1
ACMWELDSTANDARDANSI
  2
AcmWeldingStdANSI
  3
"Amdt_StdImp|Product Description: AutoCAD Mechanical 2004 DX|Company: Autodesk"
 90
        0
280
     0
281
     0
  0
CLASS
  1
ACMIDSTANDARDANSI
  2
AcmIdStdANSI
  3
"Amdt_StdImp|Product Description: AutoCAD Mechanical 2004 DX|Company: Autodesk"
 90
        0
280
     0
281
     0
  0
CLASS
  1
ACMDATUMSTANDARDANSI
  2
AcmDatumStdANSI
  3
"Amdt_StdImp|Product Description: AutoCAD Mechanical 2004 DX|Company: Autodesk"
 90
        0
280
     0
281
     0
  0
CLASS
  1
ACMBOMSTANDARDANSI
  2
AcmBOMStdANSI
  3
"Amdt_StdImp|Product Description: AutoCAD Mechanical 2004 DX|Company: Autodesk"
 90
        0
280
     0
281
     0
  0
CLASS
  1
ACMDETAILSTANDARDANSI
  2
AmdtDetailSymStdANSI
  3
"Amdt_StdImp|Product Description: AutoCAD Mechanical 2004 DX|Company: Autodesk"
 90
        0
280
     0
281
     0
  0
CLASS
  1
ACMSECTIONSTANDARDANSI
  2
AmdtSectionSymStdANSI
  3
"Amdt_StdImp|Product Description: AutoCAD Mechanical 2004 DX|Company: Autodesk"
 90
        0
280
     0
281
     0
  0
CLASS
  1
ACMCENTERLINESTANDARDANSI
  2
AmdtCenterLineStdANSI
  3
"Amdt_StdImp|Product Description: AutoCAD Mechanical 2004 DX|Company: Autodesk"
 90
        0
280
     0
281
     0
  0
CLASS
  1
ACMTHREADLINESTANDARDANSI
  2
AmdtThreadLineStdANSI
  3
"Amdt_StdImp|Product Description: AutoCAD Mechanical 2004 DX|Company: Autodesk"
 90
        0
280
     0
281
     0
  0
CLASS
  1
ACMNOTESTANDARDANSI
  2
AmdtNoteStdANSI
  3
"Amdt_StdImp|Product Description: AutoCAD Mechanical 2004 DX|Company: Autodesk"
 90
        0
280
     0
281
     0
  0
CLASS
  1
AMDTNOTETEMPLATEDB
  2
AmdtNoteTemplateDB
  3
AMDT_STDIMP_MODULE_NAME
 90
        0
280
     0
281
     0
  0
CLASS
  1
ACAMGLAYSTD
  2
AcAmgLayStd
  3
"AcAmgLayStd|Product Description: AutoCAD Mechanical 2000|Company: Autodesk"
 90
        0
280
     0
281
     0
  0
CLASS
  1
ACAMGDIMSTD
  2
AcAmgDimStd
  3
"AcAmgDimStd|Product Description: AutoCAD Mechanical 2000|Company: Autodesk"
 90
        0
280
     0
281
     0
  0
CLASS
  1
ACAMGHOLECHARTSTDANSI
  2
AcAmgHoleChartStdANSI
  3
ACMSYMBB_MODULE_NAME
 90
        0
280
     0
281
     0
  0
CLASS
  1
ACAMGTITLESTD
  2
AcAmgTitleStd
  3
"TITLEAPP"
 90
        0
280
     0
281
     0
  0
CLASS
  1
DICTIONARYVAR
  2
AcDbDictionaryVar
  3
ObjectDBX Classes
 90
        0
280
     0
281
     0
  0
CLASS
  1
ACAMGFILTERDAT
  2
AcAmgFilterDat
  3
"AcadM|Product Description: AutoCAD Mechanical 2000|Company: Autodesk"
 90
        0
280
     0
281
     0
  0
CLASS
  1
ACDBPLACEHOLDER
  2
AcDbPlaceHolder
  3
ObjectDBX Classes
 90
        0
280
     0
281
     0
  0
CLASS
  1
LAYOUT
  2
AcDbLayout
  3
ObjectDBX Classes
 90
        0
280
     0
281
     0
  0
ENDSEC
  0
SECTION
  2
TABLES
  0
TABLE
  2
VPORT
  5
12C8
330
0
100
AcDbSymbolTable
 70
     4
  0
VPORT
  5
1427
330
12C8
100
AcDbSymbolTableRecord
100
AcDbViewportTableRecord
  2
*Active
 70
     0
 10
0.0
 20
0.0
 11
1.0
 21
1.0
 12
257.054368110674
 22
345.2855905475747
 13
0.0
 23
0.0
 14
1.0
 24
1.0
 15
0.0
 25
0.0
 16
0.0
 26
0.0
 36
1.0
 17
0.0
 27
0.0
 37
0.0
 40
323.2849983586586
 41
1.494545454545454
 42
50.0
 43
0.0
 44
0.0
 50
0.0
 51
0.0
 71
     0
 72
  1000
 73
     1
 74
     1
 75
     0
 76
     0
 77
     0
 78
     0
281
     0
 65
     1
110
0.0
120
0.0
130
0.0
111
1.0
121
0.0
131
0.0
112
0.0
122
1.0
132
0.0
 79
     0
146
0.0
  0
ENDTAB
  0
TABLE
  2
LTYPE
  5
12C5
330
0
100
AcDbSymbolTable
 70
    11
  0
LTYPE
  5
12D2
330
12C5
100
AcDbSymbolTableRecord
100
AcDbLinetypeTableRecord
  2
BYBLOCK
 70
     0
  3

 72
    65
 73
     0
 40
0.0
  0
LTYPE
  5
12D3
330
12C5
100
AcDbSymbolTableRecord
100
AcDbLinetypeTableRecord
  2
BYLAYER
 70
     0
  3

 72
    65
 73
     0
 40
0.0
  0
LTYPE
  5
12D4
330
12C5
100
AcDbSymbolTableRecord
100
AcDbLinetypeTableRecord
  2
CONTINUOUS
 70
     0
  3
Solid line
 72
    65
 73
     0
 40
0.0
  0
LTYPE
  5
12E3
330
12C5
100
AcDbSymbolTableRecord
100
AcDbLinetypeTableRecord
  2
GEN7
 70
     0
  3
____ _ ____ _ ____ _ ____ _ ____ _ ____ _ ____ _ ____ _ ____ _
 72
    65
 73
     4
 40
22.0
 49
10.75
 74
     0
 49
-3.75
 74
     0
 49
3.75
 74
     0
 49
-3.75
 74
     0
  0
LTYPE
  5
1357
330
12C5
100
AcDbSymbolTableRecord
100
AcDbLinetypeTableRecord
  2
HIDDEN
 70
     0
  3
Verdeckt
 72
    65
 73
     2
 40
0.375
 49
0.25
 74
     0
 49
-0.125
 74
     0
  0
LTYPE
  5
1358
330
12C5
100
AcDbSymbolTableRecord
100
AcDbLinetypeTableRecord
  2
PHANTOM2
 70
     0
  3
Phantom (.5x) ___ _ _ ___ _ _ ___ _ _ ___ _ _
 72
    65
 73
     6
 40
1.25
 49
0.625
 74
     0
 49
-0.125
 74
     0
 49
0.125
 74
     0
 49
-0.125
 74
     0
 49
0.125
 74
     0
 49
-0.125
 74
     0
  0
LTYPE
  5
1359
330
12C5
100
AcDbSymbolTableRecord
100
AcDbLinetypeTableRecord
  2
CENTER
 70
     0
  3
Mitte ____ _ ____ _ ____ _ ____ _ ____ _ ____
 72
    65
 73
     4
 40
2.0
 49
1.25
 74
     0
 49
-0.25
 74
     0
 49
0.25
 74
     0
 49
-0.25
 74
     0
  0
LTYPE
  5
1390
330
12C5
100
AcDbSymbolTableRecord
100
AcDbLinetypeTableRecord
  2
Amconstr
 70
     0
  3
_______________________
 72
    65
 73
     2
 40
9999.0
 49
9999.0
 74
     0
 49
0.0
 74
     0
  0
LTYPE
  5
1396
330
12C5
100
AcDbSymbolTableRecord
100
AcDbLinetypeTableRecord
  2
CENTER2
 70
     0
  3
Center (.5x) ___ _ ___ _ ___ _ ___ _ ___ _ ___
 72
    65
 73
     4
 40
1.125
 49
0.75
 74
     0
 49
-0.125
 74
     0
 49
0.125
 74
     0
 49
-0.125
 74
     0
  0
LTYPE
  5
1397
330
12C5
100
AcDbSymbolTableRecord
100
AcDbLinetypeTableRecord
  2
HIDDEN2
 70
     0
  3
Hidden (.5x) _ _ _ _ _ _ _ _ _ _ _ _ _ _ _ _ _
 72
    65
 73
     2
 40
0.1875
 49
0.125
 74
     0
 49
-0.0625
 74
     0
  0
LTYPE
  5
1398
330
12C5
100
AcDbSymbolTableRecord
100
AcDbLinetypeTableRecord
  2
Amzigzag2
 70
     0
  3
/\/-/\/-/\/-/\/-/\/-/\/
 72
    65
 73
     2
 40
0.4401
 49
0.0001
 74
     4
 75
   136
340
1394
 46
0.0016
 50
0.0
 44
0.0
 45
0.0
 49
-0.4400000000000001
 74
     0
  0
LTYPE
  5
13A6
330
12C5
100
AcDbSymbolTableRecord
100
AcDbLinetypeTableRecord
  2
ACANSTGB
 70
     0
  3
__ . . __ . .
 72
    65
 73
     6
 40
0.35433070866
 49
0.15748031496
 74
     0
 49
-0.03937007874
 74
     0
 49
0.03937007874
 74
     0
 49
-0.03937007874
 74
     0
 49
0.03937007874
 74
     0
 49
-0.03937007874
 74
     0
  0
LTYPE
  5
13A7
330
12C5
100
AcDbSymbolTableRecord
100
AcDbLinetypeTableRecord
  2
ACANSTGL
 70
     0
  3
_ _ _ _ _
 72
    65
 73
     2
 40
0.11811023622
 49
0.07874015748
 74
     0
 49
-0.03937007874
 74
     0
  0
ENDTAB
  0
TABLE
  2
LAYER
  5
12C2
330
0
100
AcDbSymbolTable
 70
     7
  0
LAYER
  5
12CE
330
12C2
100
AcDbSymbolTableRecord
100
AcDbLayerTableRecord
  2
0
 70
     0
 62
     7
  6
CONTINUOUS
370
    -3
390
1319
  0
LAYER
  5
12EB
330
12C2
100
AcDbSymbolTableRecord
100
AcDbLayerTableRecord
  2
5
 70
     0
 62
     3
  6
CONTINUOUS
370
    -3
390
1319
  0
LAYER
  5
12EC
330
12C2
100
AcDbSymbolTableRecord
100
AcDbLayerTableRecord
  2
6
 70
     0
 62
     2
  6
CONTINUOUS
370
    -3
390
1319
  0
LAYER
  5
12ED
330
12C2
100
AcDbSymbolTableRecord
100
AcDbLayerTableRecord
  2
7
 70
     0
 62
     4
  6
GEN7
370
    -3
390
1319
  0
LAYER
  5
12EE
330
12C2
100
AcDbSymbolTableRecord
100
AcDbLayerTableRecord
  2
8
 70
     0
 62
     1
  6
CONTINUOUS
370
    -3
390
1319
  0
LAYER
  5
12F2
330
12C2
100
AcDbSymbolTableRecord
100
AcDbLayerTableRecord
  2
SCHRAFFUR_RAND
 70
     1
 62
    -1
  6
CONTINUOUS
370
    -3
390
1319
  0
LAYER
  5
13DF
330
12C2
100
AcDbSymbolTableRecord
100
AcDbLayerTableRecord
  2
Defpoints
 70
     0
 62
     7
  6
CONTINUOUS
290
     0
370
    -3
390
1319
  0
ENDTAB
  0
TABLE
  2
STYLE
  5
12C3
330
0
100
AcDbSymbolTable
 70
     4
  0
STYLE
  5
12CF
330
12C3
100
AcDbSymbolTableRecord
100
AcDbTextStyleTableRecord
  2
STANDARD
 70
     0
 40
0.0
 41
1.0
 50
0.0
 71
     0
 42
7.0
  3
isocp
  4

  0
STYLE
  5
1394
330
12C3
100
AcDbSymbolTableRecord
100
AcDbTextStyleTableRecord
  2

 70
     1
 40
0.0
 41
1.0
 50
0.0
 71
     0
 42
0.2
  3
genltshp.shx
  4

  0
STYLE
  5
1399
330
12C3
100
AcDbSymbolTableRecord
100
AcDbTextStyleTableRecord
  2
ACANSTS
 70
     0
 40
1.0
 41
1.0
 50
0.0
 71
     0
 42
0.2
  3
romans.shx
  4

  0
STYLE
  5
13A5
330
12C3
100
AcDbSymbolTableRecord
100
AcDbTextStyleTableRecord
  2
ACANSGDT
 70
     0
 40
0.0
 41
1.0
 50
0.0
 71
     0
 42
0.2
  3
AMGDT
  4

  0
ENDTAB
  0
TABLE
  2
VIEW
  5
12C6
330
0
100
AcDbSymbolTable
 70
     0
  0
ENDTAB
  0
TABLE
  2
UCS
  5
12C7
330
0
100
AcDbSymbolTable
 70
     0
  0
ENDTAB
  0
TABLE
  2
APPID
  5
12C9
330
0
100
AcDbSymbolTable
 70
    11
  0
APPID
  5
12D0
330
12C9
100
AcDbSymbolTableRecord
100
AcDbRegAppTableRecord
  2
ACAD
 70
     0
  0
APPID
  5
132A
330
12C9
100
AcDbSymbolTableRecord
100
AcDbRegAppTableRecord
  2
MCAD_NO_VIS
 70
     0
  0
APPID
  5
132B
330
12C9
100
AcDbSymbolTableRecord
100
AcDbRegAppTableRecord
  2
ACAD_TEMP_GRAPHIC
 70
     0
  0
APPID
  5
135B
330
12C9
100
AcDbSymbolTableRecord
100
AcDbRegAppTableRecord
  2
AD_DRAW
 70
     0
  0
APPID
  5
135E
330
12C9
100
AcDbSymbolTableRecord
100
AcDbRegAppTableRecord
  2
ACATTRIBSERVICES
 70
     0
  0
APPID
  5
137E
330
12C9
100
AcDbSymbolTableRecord
100
AcDbRegAppTableRecord
  2
DESIGNERASSEMBLIES
 70
     0
  0
APPID
  5
1384
330
12C9
100
AcDbSymbolTableRecord
100
AcDbRegAppTableRecord
  2
ACADM_DIM_EDIT
 70
     0
  0
APPID
  5
1385
330
12C9
100
AcDbSymbolTableRecord
100
AcDbRegAppTableRecord
  2
AMDT_DM_ADJ
 70
     0
  0
APPID
  5
13B3
330
12C9
100
AcDbSymbolTableRecord
100
AcDbRegAppTableRecord
  2
ACAD_DSTYLE_DIMARC_LENGTH_SYMBOL
 70
     0
  0
APPID
  5
13B4
330
12C9
100
AcDbSymbolTableRecord
100
AcDbRegAppTableRecord
  2
ACAD_DSTYLE_DIMJOGGED_JOGANGLE_SYMBOL
 70
     0
  0
APPID
  5
13DE
330
12C9
100
AcDbSymbolTableRecord
100
AcDbRegAppTableRecord
  2
GENIUS_GENDTOL_13
 70
     0
  0
ENDTAB
  0
TABLE
  2
DIMSTYLE
  5
12CA
330
0
100
AcDbSymbolTable
 70
     7
100
AcDbDimStyleTable
 71
     0
  0
DIMSTYLE
105
12F3
102
{ACAD_REACTORS
330
10AD
330
11E6
330
11FD
330
1213
330
128F
102
}
330
12CA
100
AcDbSymbolTableRecord
100
AcDbDimStyleTableRecord
  2
GEN-ISO
 70
     0
 40
2.0
 41
3.5
 42
1.0
 43
8.0
 44
2.0
 47
0.1
 48
0.1
 73
     0
 74
     0
 77
     1
 78
     8
140
3.5
141
2.0
146
0.71
147
1.5
172
     1
176
   256
177
   256
178
     2
271
     2
272
     2
340
12CF
  0
DIMSTYLE
105
13B2
330
12CA
100
AcDbSymbolTableRecord
100
AcDbDimStyleTableRecord
  2
AM_ANSI
 70
     0
  4
mm
 41
0.1
 42
0.05
 43
0.5
 44
0.1
 47
0.1
 48
0.1
 78
     7
 79
     2
140
0.12
141
0.0
146
0.71
147
0.06
176
   256
177
   256
178
     2
274
     4
284
     7
340
12CF
371
    -1
372
    -1
1001
ACAD_DSTYLE_DIMARC_LENGTH_SYMBOL
1070
   379
1070
     1
1001
ACAD_DSTYLE_DIMJOGGED_JOGANGLE_SYMBOL
1070
   384
1040
0.7853981633974483
  0
DIMSTYLE
105
13BB
330
12CA
100
AcDbSymbolTableRecord
100
AcDbDimStyleTableRecord
  2
AM_ANSI$3
 70
     0
  4
mm
 41
0.1
 42
0.05
 43
0.5
 44
0.1
 47
0.1
 48
0.1
 78
     7
 79
     2
140
0.12
141
0.0
146
0.71
147
0.06
176
   256
177
   256
178
     2
274
     4
284
     7
288
     1
289
     0
340
12CF
371
    -1
372
    -1
1001
ACAD_DSTYLE_DIMARC_LENGTH_SYMBOL
1070
   379
1070
     1
1001
ACAD_DSTYLE_DIMJOGGED_JOGANGLE_SYMBOL
1070
   384
1040
0.7853981633974483
  0
DIMSTYLE
105
13BE
330
12CA
100
AcDbSymbolTableRecord
100
AcDbDimStyleTableRecord
  2
AM_ANSI$4
 70
     0
  4
mm
 41
0.1
 42
0.05
 43
0.5
 44
0.1
 47
0.1
 48
0.1
 78
     7
 79
     2
140
0.12
141
0.0
146
0.71
147
0.06
176
   256
177
   256
178
     2
274
     4
284
     7
288
     1
289
     0
340
12CF
371
    -1
372
    -1
1001
ACAD_DSTYLE_DIMARC_LENGTH_SYMBOL
1070
   379
1070
     1
1001
ACAD_DSTYLE_DIMJOGGED_JOGANGLE_SYMBOL
1070
   384
1040
0.7853981633974483
  0
DIMSTYLE
105
13C3
330
12CA
100
AcDbSymbolTableRecord
100
AcDbDimStyleTableRecord
  2
AM_ANSI$7
 70
     0
  4
mm
 41
0.1
 42
0.05
 43
0.5
 44
0.1
 47
0.1
 48
0.1
 78
     7
 79
     2
140
0.24
141
0.0
146
0.71
147
0.06
176
   256
177
   256
178
     2
274
     4
284
     7
340
12CF
371
    -1
372
    -1
1001
ACAD_DSTYLE_DIMARC_LENGTH_SYMBOL
1070
   379
1070
     1
1001
ACAD_DSTYLE_DIMJOGGED_JOGANGLE_SYMBOL
1070
   384
1040
0.7853981633974483
  0
DIMSTYLE
105
13C6
330
12CA
100
AcDbSymbolTableRecord
100
AcDbDimStyleTableRecord
  2
AM_ANSI$SF
 70
     0
  4
mm
 41
0.1
 42
0.05
 43
0.5
 44
0.1
 47
0.1
 48
0.1
 75
     1
 76
     1
 78
     7
 79
     2
140
0.12
141
0.0
146
0.71
147
0.06
176
   256
177
   256
178
     2
274
     4
284
     7
340
12CF
371
    -1
372
    -1
1001
ACAD_DSTYLE_DIMARC_LENGTH_SYMBOL
1070
   379
1070
     1
1001
ACAD_DSTYLE_DIMJOGGED_JOGANGLE_SYMBOL
1070
   384
1040
0.7853981633974483
  0
DIMSTYLE
105
13CD
330
12CA
100
AcDbSymbolTableRecord
100
AcDbDimStyleTableRecord
  2
AM_ANSI$SH
 70
     0
  4
mm
 41
0.1
 42
0.05
 43
0.5
 44
0.1
 47
0.1
 48
0.1
 75
     1
 76
     1
 78
     7
 79
     2
140
0.12
141
0.0
146
0.71
147
0.06
173
     1
176
   256
177
   256
178
     2
274
     4
284
     7
340
12CF
343
13C7
371
    -1
372
    -1
1001
ACAD_DSTYLE_DIMARC_LENGTH_SYMBOL
1070
   379
1070
     1
1001
ACAD_DSTYLE_DIMJOGGED_JOGANGLE_SYMBOL
1070
   384
1040
0.7853981633974483
  0
ENDTAB
  0
TABLE
  2
BLOCK_RECORD
  5
12C1
330
0
100
AcDbSymbolTable
 70
    19
  0
BLOCK_RECORD
  5
12D8
330
12C1
100
AcDbSymbolTableRecord
100
AcDbBlockTableRecord
  2
*MODEL_SPACE
340
1320
  0
BLOCK_RECORD
  5
12D5
330
12C1
100
AcDbSymbolTableRecord
100
AcDbBlockTableRecord
  2
*PAPER_SPACE
340
1321
  0
BLOCK_RECORD
  5
12F9
330
12C1
100
AcDbSymbolTableRecord
100
AcDbBlockTableRecord
  2
*X0
340
0
102
{BLKREFS
331
105C
102
}
  0
BLOCK_RECORD
  5
12FA
330
12C1
100
AcDbSymbolTableRecord
100
AcDbBlockTableRecord
  2
*X1
340
0
102
{BLKREFS
331
1069
102
}
  0
BLOCK_RECORD
  5
12FB
330
12C1
100
AcDbSymbolTableRecord
100
AcDbBlockTableRecord
  2
*X2
340
0
102
{BLKREFS
331
1077
102
}
  0
BLOCK_RECORD
  5
12FC
330
12C1
100
AcDbSymbolTableRecord
100
AcDbBlockTableRecord
  2
*X3
340
0
102
{BLKREFS
331
1084
102
}
  0
BLOCK_RECORD
  5
12FD
330
12C1
100
AcDbSymbolTableRecord
100
AcDbBlockTableRecord
  2
*X4
340
0
102
{BLKREFS
331
1092
102
}
  0
BLOCK_RECORD
  5
12FE
330
12C1
100
AcDbSymbolTableRecord
100
AcDbBlockTableRecord
  2
*X5
340
0
102
{BLKREFS
331
10A0
102
}
  0
BLOCK_RECORD
  5
1300
330
12C1
100
AcDbSymbolTableRecord
100
AcDbBlockTableRecord
  2
*X6
340
0
102
{BLKREFS
331
10BB
102
}
  0
BLOCK_RECORD
  5
1301
330
12C1
100
AcDbSymbolTableRecord
100
AcDbBlockTableRecord
  2
*X7
340
0
102
{BLKREFS
331
10C9
102
}
  0
BLOCK_RECORD
  5
130A
330
12C1
100
AcDbSymbolTableRecord
100
AcDbBlockTableRecord
  2
*D8
340
0
  0
BLOCK_RECORD
  5
130E
330
12C1
100
AcDbSymbolTableRecord
100
AcDbBlockTableRecord
  2
*X9
340
0
102
{BLKREFS
331
1247
102
}
  0
BLOCK_RECORD
  5
130F
330
12C1
100
AcDbSymbolTableRecord
100
AcDbBlockTableRecord
  2
*X10
340
0
102
{BLKREFS
331
1258
102
}
  0
BLOCK_RECORD
  5
1310
330
12C1
100
AcDbSymbolTableRecord
100
AcDbBlockTableRecord
  2
*X11
340
0
102
{BLKREFS
331
1269
102
}
  0
BLOCK_RECORD
  5
1311
330
12C1
100
AcDbSymbolTableRecord
100
AcDbBlockTableRecord
  2
*X12
340
0
102
{BLKREFS
331
127A
102
}
  0
BLOCK_RECORD
  5
1313
330
12C1
100
AcDbSymbolTableRecord
100
AcDbBlockTableRecord
  2
*D13
340
0
  0
BLOCK_RECORD
  5
13C7
330
12C1
100
AcDbSymbolTableRecord
100
AcDbBlockTableRecord
  2
GENAXEH
340
0
  0
BLOCK_RECORD
  5
13E0
330
12C1
100
AcDbSymbolTableRecord
100
AcDbBlockTableRecord
  2
*D16
340
0
  0
BLOCK_RECORD
  5
13ED
330
12C1
100
AcDbSymbolTableRecord
100
AcDbBlockTableRecord
  2
*D17
340
0
  0
BLOCK_RECORD
  5
13FA
330
12C1
100
AcDbSymbolTableRecord
100
AcDbBlockTableRecord
  2
*D18
340
0
  0
ENDTAB
  0
ENDSEC
  0
SECTION
  2
BLOCKS
  0
BLOCK
  5
12D9
330
12D8
100
AcDbEntity
  8
0
100
AcDbBlockBegin
  2
*MODEL_SPACE
 70
     0
 10
0.0
 20
0.0
 30
0.0
  3
*MODEL_SPACE
  1

  0
ENDBLK
  5
12DA
330
12D8
100
AcDbEntity
  8
0
100
AcDbBlockEnd
  0
BLOCK
  5
12D6
330
12D5
100
AcDbEntity
 67
     1
  8
0
100
AcDbBlockBegin
  2
*PAPER_SPACE
 70
     0
 10
0.0
 20
0.0
 30
0.0
  3
*PAPER_SPACE
  1

  0
ENDBLK
  5
12D7
330
12D5
100
AcDbEntity
 67
     1
  8
0
100
AcDbBlockEnd
  0
BLOCK
  5
1056
330
12F9
100
AcDbEntity
  8
0
100
AcDbBlockBegin
  2
*X0
 70
     1
 10
0.0
 20
0.0
 30
0.0
  3
*X0
  1

  0
LINE
  5
1057
330
12F9
100
AcDbEntity
  8
8
100
AcDbLine
 10
176.526
 20
470.9649999999999
 30
0.0
 11
181.513
 21
475.9509999999999
 31
0.0
  0
LINE
  5
1058
330
12F9
100
AcDbEntity
  8
8
100
AcDbLine
 10
175.513
 20
478.9309999999999
 30
0.0
 11
181.513
 21
484.931
 31
0.0
  0
LINE
  5
1059
330
12F9
100
AcDbEntity
  8
8
100
AcDbLine
 10
175.513
 20
487.9119999999999
 30
0.0
 11
181.513
 21
493.9119999999999
 31
0.0
  0
LINE
  5
105A
330
12F9
100
AcDbEntity
  8
8
100
AcDbLine
 10
175.513
 20
496.8919999999999
 30
0.0
 11
179.586
 21
500.9649999999999
 31
0.0
  0
ENDBLK
  5
105B
330
12F9
100
AcDbEntity
  8
0
100
AcDbBlockEnd
  0
BLOCK
  5
1064
330
12FA
100
AcDbEntity
  8
0
100
AcDbBlockBegin
  2
*X1
 70
     1
 10
0.0
 20
0.0
 30
0.0
  3
*X1
  1

  0
LINE
  5
1065
330
12FA
100
AcDbEntity
  8
8
100
AcDbLine
 10
199.013
 20
475.4909999999999
 30
0.0
 11
205.013
 21
481.491
 31
0.0
  0
LINE
  5
1066
330
12FA
100
AcDbEntity
  8
8
100
AcDbLine
 10
199.013
 20
484.471
 30
0.0
 11
205.013
 21
490.471
 31
0.0
  0
LINE
  5
1067
330
12FA
100
AcDbEntity
  8
8
100
AcDbLine
 10
199.013
 20
493.4509999999999
 30
0.0
 11
205.013
 21
499.451
 31
0.0
  0
ENDBLK
  5
1068
330
12FA
100
AcDbEntity
  8
0
100
AcDbBlockEnd
  0
BLOCK
  5
1071
330
12FB
100
AcDbEntity
  8
0
100
AcDbBlockBegin
  2
*X2
 70
     1
 10
0.0
 20
0.0
 30
0.0
  3
*X2
  1

  0
LINE
  5
1072
330
12FB
100
AcDbEntity
  8
8
100
AcDbLine
 10
222.513
 20
472.05
 30
0.0
 11
228.513
 21
478.0499999999999
 31
0.0
  0
LINE
  5
1073
330
12FB
100
AcDbEntity
  8
8
100
AcDbLine
 10
222.513
 20
481.0299999999999
 30
0.0
 11
228.513
 21
487.0299999999999
 31
0.0
  0
LINE
  5
1074
330
12FB
100
AcDbEntity
  8
8
100
AcDbLine
 10
222.513
 20
490.01
 30
0.0
 11
228.513
 21
496.0099999999999
 31
0.0
  0
LINE
  5
1075
330
12FB
100
AcDbEntity
  8
8
100
AcDbLine
 10
222.513
 20
498.991
 30
0.0
 11
224.487
 21
500.9649999999999
 31
0.0
  0
ENDBLK
  5
1076
330
12FB
100
AcDbEntity
  8
0
100
AcDbBlockEnd
  0
BLOCK
  5
107F
330
12FC
100
AcDbEntity
  8
0
100
AcDbBlockBegin
  2
*X3
 70
     1
 10
0.0
 20
0.0
 30
0.0
  3
*X3
  1

  0
LINE
  5
1080
330
12FC
100
AcDbEntity
  8
8
100
AcDbLine
 10
245.513
 20
477.089
 30
0.0
 11
251.513
 21
483.089
 31
0.0
  0
LINE
  5
1081
330
12FC
100
AcDbEntity
  8
8
100
AcDbLine
 10
245.513
 20
486.07
 30
0.0
 11
251.513
 21
492.07
 31
0.0
  0
LINE
  5
1082
330
12FC
100
AcDbEntity
  8
8
100
AcDbLine
 10
245.513
 20
495.0499999999999
 30
0.0
 11
251.428
 21
500.9649999999999
 31
0.0
  0
ENDBLK
  5
1083
330
12FC
100
AcDbEntity
  8
0
100
AcDbBlockEnd
  0
BLOCK
  5
108C
330
12FD
100
AcDbEntity
  8
0
100
AcDbBlockBegin
  2
*X4
 70
     1
 10
0.0
 20
0.0
 30
0.0
  3
*X4
  1

  0
LINE
  5
108D
330
12FD
100
AcDbEntity
  8
8
100
AcDbLine
 10
269.013
 20
473.6489999999999
 30
0.0
 11
275.013
 21
479.649
 31
0.0
  0
LINE
  5
108E
330
12FD
100
AcDbEntity
  8
8
100
AcDbLine
 10
269.013
 20
482.629
 30
0.0
 11
275.013
 21
488.629
 31
0.0
  0
LINE
  5
108F
330
12FD
100
AcDbEntity
  8
8
100
AcDbLine
 10
269.013
 20
491.609
 30
0.0
 11
275.013
 21
497.609
 31
0.0
  0
LINE
  5
1090
330
12FD
100
AcDbEntity
  8
8
100
AcDbLine
 10
269.013
 20
500.5889999999999
 30
0.0
 11
269.388
 21
500.9649999999999
 31
0.0
  0
ENDBLK
  5
1091
330
12FD
100
AcDbEntity
  8
0
100
AcDbBlockEnd
  0
BLOCK
  5
109A
330
12FE
100
AcDbEntity
  8
0
100
AcDbBlockBegin
  2
*X5
 70
     1
 10
0.0
 20
0.0
 30
0.0
  3
*X5
  1

  0
LINE
  5
109B
330
12FE
100
AcDbEntity
  8
8
100
AcDbLine
 10
293.27
 20
470.9649999999999
 30
0.0
 11
298.713
 21
476.4079999999999
 31
0.0
  0
LINE
  5
109C
330
12FE
100
AcDbEntity
  8
8
100
AcDbLine
 10
292.713
 20
479.388
 30
0.0
 11
298.713
 21
485.388
 31
0.0
  0
LINE
  5
109D
330
12FE
100
AcDbEntity
  8
8
100
AcDbLine
 10
292.713
 20
488.368
 30
0.0
 11
298.713
 21
494.368
 31
0.0
  0
LINE
  5
109E
330
12FE
100
AcDbEntity
  8
8
100
AcDbLine
 10
292.713
 20
497.3489999999999
 30
0.0
 11
296.329
 21
500.9649999999999
 31
0.0
  0
ENDBLK
  5
109F
330
12FE
100
AcDbEntity
  8
0
100
AcDbBlockEnd
  0
BLOCK
  5
10B5
330
1300
100
AcDbEntity
  8
0
100
AcDbBlockBegin
  2
*X6
 70
     1
 10
0.0
 20
0.0
 30
0.0
  3
*X6
  1

  0
LINE
  5
10B6
330
1300
100
AcDbEntity
  8
8
100
AcDbLine
 10
152.013
 20
474.634
 30
0.0
 11
158.013
 21
468.634
 31
0.0
  0
LINE
  5
10B7
330
1300
100
AcDbEntity
  8
8
100
AcDbLine
 10
152.013
 20
483.614
 30
0.0
 11
158.013
 21
477.614
 31
0.0
  0
LINE
  5
10B8
330
1300
100
AcDbEntity
  8
8
100
AcDbLine
 10
152.013
 20
492.5939999999999
 30
0.0
 11
158.013
 21
486.594
 31
0.0
  0
LINE
  5
10B9
330
1300
100
AcDbEntity
  8
8
100
AcDbLine
 10
152.623
 20
500.9649999999999
 30
0.0
 11
158.013
 21
495.574
 31
0.0
  0
ENDBLK
  5
10BA
330
1300
100
AcDbEntity
  8
0
100
AcDbBlockEnd
  0
BLOCK
  5
10C3
330
1301
100
AcDbEntity
  8
0
100
AcDbBlockBegin
  2
*X7
 70
     1
 10
0.0
 20
0.0
 30
0.0
  3
*X7
  1

  0
LINE
  5
10C4
330
1301
100
AcDbEntity
  8
8
100
AcDbLine
 10
316.013
 20
472.278
 30
0.0
 11
322.013
 21
466.278
 31
0.0
  0
LINE
  5
10C5
330
1301
100
AcDbEntity
  8
8
100
AcDbLine
 10
316.013
 20
481.258
 30
0.0
 11
322.013
 21
475.258
 31
0.0
  0
LINE
  5
10C6
330
1301
100
AcDbEntity
  8
8
100
AcDbLine
 10
316.013
 20
490.239
 30
0.0
 11
322.013
 21
484.239
 31
0.0
  0
LINE
  5
10C7
330
1301
100
AcDbEntity
  8
8
100
AcDbLine
 10
316.013
 20
499.2189999999999
 30
0.0
 11
322.013
 21
493.219
 31
0.0
  0
ENDBLK
  5
10C8
330
1301
100
AcDbEntity
  8
0
100
AcDbBlockEnd
  0
BLOCK
  5
11F3
330
130A
100
AcDbEntity
  8
0
100
AcDbBlockBegin
  2
*D8
 70
     1
 10
0.0
 20
0.0
 30
0.0
  3
*D8
  1

  0
LINE
  5
11F4
330
130A
100
AcDbEntity
  8
5
100
AcDbLine
 10
205.013
 20
254.841
 30
0.0
 11
205.013
 21
204.269
 31
0.0
  0
LINE
  5
11F5
330
130A
100
AcDbEntity
  8
5
100
AcDbLine
 10
222.513
 20
254.841
 30
0.0
 11
222.513
 21
204.269
 31
0.0
  0
TEXT
  5
11F6
330
130A
100
AcDbEntity
  8
6
100
AcDbText
 10
160.439
 20
214.091
 30
0.0
 40
7.0
  1
 17.5 
 41
1.904761904761906
 72
     5
 11
200.439
 21
214.091
 31
0.0
100
AcDbText
  0
LINE
  5
11F7
330
130A
100
AcDbEntity
  8
5
100
AcDbLine
 10
198.155
 20
208.841
 30
0.0
 11
165.189
 21
208.841
 31
0.0
  0
SOLID
  5
11F8
330
130A
100
AcDbEntity
  8
5
100
AcDbTrace
 10
205.013
 20
208.841
 30
0.0
 11
198.155
 21
210.111
 31
0.0
 12
198.155
 22
207.571
 32
0.0
 13
198.155
 23
207.571
 33
0.0
  0
LINE
  5
11F9
330
130A
100
AcDbEntity
  8
5
100
AcDbLine
 10
229.371
 20
208.841
 30
0.0
 11
235.213
 21
208.841
 31
0.0
  0
LINE
  5
11FA
330
130A
100
AcDbEntity
  8
5
100
AcDbLine
 10
235.213
 20
208.841
 30
0.0
 11
205.013
 21
208.841
 31
0.0
  0
SOLID
  5
11FB
330
130A
100
AcDbEntity
  8
5
100
AcDbTrace
 10
222.513
 20
208.841
 30
0.0
 11
229.371
 21
207.571
 31
0.0
 12
229.371
 22
210.111
 32
0.0
 13
229.371
 23
210.111
 33
0.0
  0
ENDBLK
  5
11FC
330
130A
100
AcDbEntity
  8
0
100
AcDbBlockEnd
  0
BLOCK
  5
123D
330
130E
100
AcDbEntity
  8
0
100
AcDbBlockBegin
  2
*X9
 70
     1
 10
0.0
 20
0.0
 30
0.0
  3
*X9
  1

  0
LINE
  5
123E
330
130E
100
AcDbEntity
  8
8
100
AcDbLine
 10
154.221
 20
416.1599999999999
 30
0.0
 11
158.013
 21
416.1599999999999
 31
0.0
  0
LINE
  5
123F
330
130E
100
AcDbEntity
  8
8
100
AcDbLine
 10
154.73
 20
416.5199999999999
 30
0.0
 11
158.013
 21
416.5199999999999
 31
0.0
  0
LINE
  5
1240
330
130E
100
AcDbEntity
  8
8
100
AcDbLine
 10
155.239
 20
416.88
 30
0.0
 11
158.013
 21
416.88
 31
0.0
  0
LINE
  5
1241
330
130E
100
AcDbEntity
  8
8
100
AcDbLine
 10
155.748
 20
417.24
 30
0.0
 11
158.013
 21
417.24
 31
0.0
  0
LINE
  5
1242
330
130E
100
AcDbEntity
  8
8
100
AcDbLine
 10
156.257
 20
417.6
 30
0.0
 11
158.013
 21
417.6
 31
0.0
  0
LINE
  5
1243
330
130E
100
AcDbEntity
  8
8
100
AcDbLine
 10
156.767
 20
417.9599999999999
 30
0.0
 11
158.013
 21
417.9599999999999
 31
0.0
  0
LINE
  5
1244
330
130E
100
AcDbEntity
  8
8
100
AcDbLine
 10
157.276
 20
418.32
 30
0.0
 11
158.013
 21
418.32
 31
0.0
  0
LINE
  5
1245
330
130E
100
AcDbEntity
  8
8
100
AcDbLine
 10
157.785
 20
418.6799999999999
 30
0.0
 11
158.013
 21
418.6799999999999
 31
0.0
  0
ENDBLK
  5
1246
330
130E
100
AcDbEntity
  8
0
100
AcDbBlockEnd
  0
BLOCK
  5
124E
330
130F
100
AcDbEntity
  8
0
100
AcDbBlockBegin
  2
*X10
 70
     1
 10
0.0
 20
0.0
 30
0.0
  3
*X10
  1

  0
LINE
  5
124F
330
130F
100
AcDbEntity
  8
8
100
AcDbLine
 10
316.013
 20
249.12
 30
0.0
 11
316.407
 21
249.12
 31
0.0
  0
LINE
  5
1250
330
130F
100
AcDbEntity
  8
8
100
AcDbLine
 10
316.013
 20
249.48
 30
0.0
 11
316.916
 21
249.48
 31
0.0
  0
LINE
  5
1251
330
130F
100
AcDbEntity
  8
8
100
AcDbLine
 10
316.013
 20
249.84
 30
0.0
 11
317.425
 21
249.84
 31
0.0
  0
LINE
  5
1252
330
130F
100
AcDbEntity
  8
8
100
AcDbLine
 10
316.013
 20
250.2
 30
0.0
 11
317.934
 21
250.2
 31
0.0
  0
LINE
  5
1253
330
130F
100
AcDbEntity
  8
8
100
AcDbLine
 10
316.013
 20
250.56
 30
0.0
 11
318.444
 21
250.56
 31
0.0
  0
LINE
  5
1254
330
130F
100
AcDbEntity
  8
8
100
AcDbLine
 10
316.013
 20
250.92
 30
0.0
 11
318.953
 21
250.92
 31
0.0
  0
LINE
  5
1255
330
130F
100
AcDbEntity
  8
8
100
AcDbLine
 10
316.013
 20
251.28
 30
0.0
 11
319.462
 21
251.28
 31
0.0
  0
LINE
  5
1256
330
130F
100
AcDbEntity
  8
8
100
AcDbLine
 10
316.013
 20
251.64
 30
0.0
 11
319.971
 21
251.64
 31
0.0
  0
ENDBLK
  5
1257
330
130F
100
AcDbEntity
  8
0
100
AcDbBlockEnd
  0
BLOCK
  5
125F
330
1310
100
AcDbEntity
  8
0
100
AcDbBlockBegin
  2
*X11
 70
     1
 10
0.0
 20
0.0
 30
0.0
  3
*X11
  1

  0
LINE
  5
1260
330
1310
100
AcDbEntity
  8
8
100
AcDbLine
 10
157.619
 20
249.12
 30
0.0
 11
158.013
 21
249.12
 31
0.0
  0
LINE
  5
1261
330
1310
100
AcDbEntity
  8
8
100
AcDbLine
 10
157.11
 20
249.48
 30
0.0
 11
158.013
 21
249.48
 31
0.0
  0
LINE
  5
1262
330
1310
100
AcDbEntity
  8
8
100
AcDbLine
 10
156.601
 20
249.84
 30
0.0
 11
158.013
 21
249.84
 31
0.0
  0
LINE
  5
1263
330
1310
100
AcDbEntity
  8
8
100
AcDbLine
 10
156.091
 20
250.2
 30
0.0
 11
158.013
 21
250.2
 31
0.0
  0
LINE
  5
1264
330
1310
100
AcDbEntity
  8
8
100
AcDbLine
 10
155.582
 20
250.56
 30
0.0
 11
158.013
 21
250.56
 31
0.0
  0
LINE
  5
1265
330
1310
100
AcDbEntity
  8
8
100
AcDbLine
 10
155.0729999999999
 20
250.92
 30
0.0
 11
158.013
 21
250.92
 31
0.0
  0
LINE
  5
1266
330
1310
100
AcDbEntity
  8
8
100
AcDbLine
 10
154.564
 20
251.28
 30
0.0
 11
158.013
 21
251.28
 31
0.0
  0
LINE
  5
1267
330
1310
100
AcDbEntity
  8
8
100
AcDbLine
 10
154.055
 20
251.64
 30
0.0
 11
158.013
 21
251.64
 31
0.0
  0
ENDBLK
  5
1268
330
1310
100
AcDbEntity
  8
0
100
AcDbBlockEnd
  0
BLOCK
  5
1270
330
1311
100
AcDbEntity
  8
0
100
AcDbBlockBegin
  2
*X12
 70
     1
 10
0.0
 20
0.0
 30
0.0
  3
*X12
  1

  0
LINE
  5
1271
330
1311
100
AcDbEntity
  8
8
100
AcDbLine
 10
316.013
 20
416.1599999999999
 30
0.0
 11
319.805
 21
416.1599999999999
 31
0.0
  0
LINE
  5
1272
330
1311
100
AcDbEntity
  8
8
100
AcDbLine
 10
316.013
 20
416.5199999999999
 30
0.0
 11
319.296
 21
416.5199999999999
 31
0.0
  0
LINE
  5
1273
330
1311
100
AcDbEntity
  8
8
100
AcDbLine
 10
316.013
 20
416.88
 30
0.0
 11
318.787
 21
416.88
 31
0.0
  0
LINE
  5
1274
330
1311
100
AcDbEntity
  8
8
100
AcDbLine
 10
316.013
 20
417.24
 30
0.0
 11
318.278
 21
417.24
 31
0.0
  0
LINE
  5
1275
330
1311
100
AcDbEntity
  8
8
100
AcDbLine
 10
316.013
 20
417.6
 30
0.0
 11
317.768
 21
417.6
 31
0.0
  0
LINE
  5
1276
330
1311
100
AcDbEntity
  8
8
100
AcDbLine
 10
316.013
 20
417.9599999999999
 30
0.0
 11
317.259
 21
417.9599999999999
 31
0.0
  0
LINE
  5
1277
330
1311
100
AcDbEntity
  8
8
100
AcDbLine
 10
316.013
 20
418.32
 30
0.0
 11
316.75
 21
418.32
 31
0.0
  0
LINE
  5
1278
330
1311
100
AcDbEntity
  8
8
100
AcDbLine
 10
316.013
 20
418.6799999999999
 30
0.0
 11
316.241
 21
418.6799999999999
 31
0.0
  0
ENDBLK
  5
1279
330
1311
100
AcDbEntity
  8
0
100
AcDbBlockEnd
  0
BLOCK
  5
1285
330
1313
100
AcDbEntity
  8
0
100
AcDbBlockBegin
  2
*D13
 70
     1
 10
0.0
 20
0.0
 30
0.0
  3
*D13
  1

  0
LINE
  5
1286
330
1313
100
AcDbEntity
  8
5
100
AcDbLine
 10
292.713
 20
254.841
 30
0.0
 11
292.713
 21
224.269
 31
0.0
  0
LINE
  5
1287
330
1313
100
AcDbEntity
  8
5
100
AcDbLine
 10
298.713
 20
254.841
 30
0.0
 11
298.713
 21
224.269
 31
0.0
  0
TEXT
  5
1288
330
1313
100
AcDbEntity
  8
6
100
AcDbText
 10
305.043
 20
234.091
 30
0.0
 40
7.0
  1
 6 
 41
1.809523809523809
 72
     5
 11
324.043
 21
234.091
 31
0.0
100
AcDbText
  0
LINE
  5
1289
330
1313
100
AcDbEntity
  8
5
100
AcDbLine
 10
285.855
 20
228.841
 30
0.0
 11
280.013
 21
228.841
 31
0.0
  0
LINE
  5
128A
330
1313
100
AcDbEntity
  8
5
100
AcDbLine
 10
280.013
 20
228.841
 30
0.0
 11
298.713
 21
228.841
 31
0.0
  0
SOLID
  5
128B
330
1313
100
AcDbEntity
  8
5
100
AcDbTrace
 10
292.713
 20
228.841
 30
0.0
 11
285.855
 21
230.111
 31
0.0
 12
285.855
 22
227.571
 32
0.0
 13
285.855
 23
227.571
 33
0.0
  0
LINE
  5
128C
330
1313
100
AcDbEntity
  8
5
100
AcDbLine
 10
305.571
 20
228.841
 30
0.0
 11
319.293
 21
228.841
 31
0.0
  0
SOLID
  5
128D
330
1313
100
AcDbEntity
  8
5
100
AcDbTrace
 10
298.713
 20
228.841
 30
0.0
 11
305.571
 21
227.571
 31
0.0
 12
305.571
 22
230.111
 32
0.0
 13
305.571
 23
230.111
 33
0.0
  0
ENDBLK
  5
128E
330
1313
100
AcDbEntity
  8
0
100
AcDbBlockEnd
  0
BLOCK
  5
13C9
330
13C7
100
AcDbEntity
  8
0
100
AcDbBlockBegin
  2
GENAXEH
 70
     0
 10
0.0
 20
0.0
 30
0.0
  3
GENAXEH
  1

  0
LINE
  5
13C8
330
13C7
100
AcDbEntity
  8
0
100
AcDbLine
 10
-1.0
 20
0.0
 30
0.0
 11
1.0
 21
0.0
 31
0.0
  0
ENDBLK
  5
13CA
330
13C7
100
AcDbEntity
  8
0
100
AcDbBlockEnd
  0
BLOCK
  5
13EA
330
13E0
100
AcDbEntity
  8
0
100
AcDbBlockBegin
  2
*D16
 70
     1
 10
0.0
 20
0.0
 30
0.0
  3
*D16
  1

  0
LINE
  5
13E1
330
13E0
100
AcDbEntity
  8
5
370
    -2
100
AcDbLine
 10
324.013
 20
500.9649999999999
 30
0.0
 11
366.0130000000001
 21
500.9649999999999
 31
0.0
  0
LINE
  5
13E2
330
13E0
100
AcDbEntity
  8
5
370
    -2
100
AcDbLine
 10
324.013
 20
465.965
 30
0.0
 11
366.0130000000001
 21
465.965
 31
0.0
  0
LINE
  5
13E3
330
13E0
100
AcDbEntity
  8
5
370
    -2
100
AcDbLine
 10
362.0130000000001
 20
493.9649999999999
 30
0.0
 11
362.0130000000001
 21
472.9649999999999
 31
0.0
  0
SOLID
  5
13E4
330
13E0
100
AcDbEntity
  8
5
100
AcDbTrace
 10
360.8463333333334
 20
493.9649999999999
 30
0.0
 11
363.1796666666668
 21
493.9649999999999
 31
0.0
 12
362.0130000000001
 22
500.9649999999999
 32
0.0
 13
362.0130000000001
 23
500.9649999999999
 33
0.0
  0
SOLID
  5
13E5
330
13E0
100
AcDbEntity
  8
5
100
AcDbTrace
 10
360.8463333333334
 20
472.9649999999999
 30
0.0
 11
363.1796666666668
 21
472.9649999999999
 31
0.0
 12
362.0130000000001
 22
465.965
 32
0.0
 13
362.0130000000001
 23
465.965
 33
0.0
  0
MTEXT
  5
13E6
330
13E0
100
AcDbEntity
  8
5
 62
     2
100
AcDbMText
 10
355.5130000000001
 20
484.033
 30
0.0
 40
7.0
 41
0.0
 71
     5
 72
     1
  1
\A1; 35 
 11
0.0000000000000001
 21
1.0
 31
0.0
 73
     1
 44
1.0
1001
ACAD
1000
MTEXTBEGIN
1070
    73
1070
     1
1070
    44
1040
1.0
1070
    74
1070
     0
1000
MTEXTEND
  0
POINT
  5
13E7
330
13E0
100
AcDbEntity
  8
Defpoints
 62
     0
100
AcDbPoint
 10
322.013
 20
500.9649999999999
 30
0.0
  0
POINT
  5
13E8
330
13E0
100
AcDbEntity
  8
Defpoints
 62
     0
100
AcDbPoint
 10
322.013
 20
465.965
 30
0.0
  0
POINT
  5
13E9
330
13E0
100
AcDbEntity
  8
Defpoints
 62
     0
100
AcDbPoint
 10
362.0130000000001
 20
465.965
 30
0.0
  0
ENDBLK
  5
13EB
330
13E0
100
AcDbEntity
  8
0
100
AcDbBlockEnd
  0
BLOCK
  5
13F7
330
13ED
100
AcDbEntity
  8
0
100
AcDbBlockBegin
  2
*D17
 70
     1
 10
0.0
 20
0.0
 30
0.0
  3
*D17
  1

  0
LINE
  5
13EE
330
13ED
100
AcDbEntity
  8
5
370
    -2
100
AcDbLine
 10
152.013
 20
249.841
 30
0.0
 11
152.013
 21
184.841
 31
0.0
  0
LINE
  5
13EF
330
13ED
100
AcDbEntity
  8
5
370
    -2
100
AcDbLine
 10
322.013
 20
249.841
 30
0.0
 11
322.013
 21
184.841
 31
0.0
  0
LINE
  5
13F0
330
13ED
100
AcDbEntity
  8
5
370
    -2
100
AcDbLine
 10
159.013
 20
188.841
 30
0.0
 11
315.013
 21
188.841
 31
0.0
  0
SOLID
  5
13F1
330
13ED
100
AcDbEntity
  8
5
100
AcDbTrace
 10
159.013
 20
190.0076666666666
 30
0.0
 11
159.013
 21
187.6743333333333
 31
0.0
 12
152.013
 22
188.841
 32
0.0
 13
152.013
 23
188.841
 33
0.0
  0
SOLID
  5
13F2
330
13ED
100
AcDbEntity
  8
5
100
AcDbTrace
 10
315.013
 20
190.0076666666666
 30
0.0
 11
315.013
 21
187.6743333333333
 31
0.0
 12
322.013
 22
188.841
 32
0.0
 13
322.013
 23
188.841
 33
0.0
  0
MTEXT
  5
13F3
330
13ED
100
AcDbEntity
  8
5
 62
     2
100
AcDbMText
 10
237.263
 20
195.341
 30
0.0
 40
7.0
 41
0.0
 71
     5
 72
     1
  1
\A1; 170 
 73
     1
 44
1.0
1001
ACAD
1000
MTEXTBEGIN
1070
    73
1070
     1
1070
    44
1040
1.0
1070
    74
1070
     0
1000
MTEXTEND
  0
POINT
  5
13F4
330
13ED
100
AcDbEntity
  8
Defpoints
 62
     0
100
AcDbPoint
 10
152.013
 20
251.841
 30
0.0
  0
POINT
  5
13F5
330
13ED
100
AcDbEntity
  8
Defpoints
 62
     0
100
AcDbPoint
 10
322.013
 20
251.841
 30
0.0
  0
POINT
  5
13F6
330
13ED
100
AcDbEntity
  8
Defpoints
 62
     0
100
AcDbPoint
 10
322.013
 20
188.841
 30
0.0
  0
ENDBLK
  5
13F8
330
13ED
100
AcDbEntity
  8
0
100
AcDbBlockEnd
  0
BLOCK
  5
1404
330
13FA
100
AcDbEntity
  8
0
100
AcDbBlockBegin
  2
*D18
 70
     1
 10
0.0
 20
0.0
 30
0.0
  3
*D18
  1

  0
LINE
  5
13FB
330
13FA
100
AcDbEntity
  8
5
370
    -2
100
AcDbLine
 10
318.013
 20
418.841
 30
0.0
 11
366.0130000000001
 21
418.841
 31
0.0
  0
LINE
  5
13FC
330
13FA
100
AcDbEntity
  8
5
370
    -2
100
AcDbLine
 10
318.013
 20
248.841
 30
0.0
 11
366.0130000000001
 21
248.841
 31
0.0
  0
LINE
  5
13FD
330
13FA
100
AcDbEntity
  8
5
370
    -2
100
AcDbLine
 10
362.0130000000001
 20
411.8409999999999
 30
0.0
 11
362.0130000000001
 21
255.8409999999999
 31
0.0
  0
SOLID
  5
13FE
330
13FA
100
AcDbEntity
  8
5
100
AcDbTrace
 10
360.8463333333335
 20
411.8409999999999
 30
0.0
 11
363.1796666666669
 21
411.8409999999999
 31
0.0
 12
362.0130000000001
 22
418.841
 32
0.0
 13
362.0130000000001
 23
418.841
 33
0.0
  0
SOLID
  5
13FF
330
13FA
100
AcDbEntity
  8
5
100
AcDbTrace
 10
360.8463333333334
 20
255.8409999999999
 30
0.0
 11
363.1796666666668
 21
255.8409999999999
 31
0.0
 12
362.0130000000001
 22
248.841
 32
0.0
 13
362.0130000000001
 23
248.841
 33
0.0
  0
MTEXT
  5
1400
330
13FA
100
AcDbEntity
  8
5
 62
     2
100
AcDbMText
 10
355.5130000000001
 20
340.119
 30
0.0
 40
7.0
 41
0.0
 71
     5
 72
     1
  1
\A1; 170 
 11
0.0000000000000001
 21
1.0
 31
0.0
 73
     1
 44
1.0
1001
ACAD
1000
MTEXTBEGIN
1070
    73
1070
     1
1070
    44
1040
1.0
1070
    74
1070
     0
1000
MTEXTEND
  0
POINT
  5
1401
330
13FA
100
AcDbEntity
  8
Defpoints
 62
     0
100
AcDbPoint
 10
316.013
 20
418.841
 30
0.0
  0
POINT
  5
1402
330
13FA
100
AcDbEntity
  8
Defpoints
 62
     0
100
AcDbPoint
 10
316.013
 20
248.841
 30
0.0
  0
POINT
  5
1403
330
13FA
100
AcDbEntity
  8
Defpoints
 62
     0
100
AcDbPoint
 10
362.0130000000001
 20
248.841
 30
0.0
  0
ENDBLK
  5
1405
330
13FA
100
AcDbEntity
  8
0
100
AcDbBlockEnd
  0
ENDSEC
  0
SECTION
  2
ENTITIES
  0
LINE
  5
1030
330
12D8
100
AcDbEntity
  8
0
100
AcDbLine
 10
152.013
 20
465.965
 30
0.0
 11
322.013
 21
465.965
 31
0.0
  0
LINE
  5
1031
330
12D8
100
AcDbEntity
  8
0
100
AcDbLine
 10
322.013
 20
465.965
 30
0.0
 11
322.013
 21
500.9649999999999
 31
0.0
  0
LINE
  5
1032
330
12D8
100
AcDbEntity
  8
0
100
AcDbLine
 10
322.013
 20
500.9649999999999
 30
0.0
 11
152.013
 21
500.9649999999999
 31
0.0
  0
LINE
  5
1033
330
12D8
100
AcDbEntity
  8
0
100
AcDbLine
 10
152.013
 20
500.9649999999999
 30
0.0
 11
152.013
 21
465.965
 31
0.0
  0
LINE
  5
1034
330
12D8
100
AcDbEntity
  8
7
 48
0.505
100
AcDbLine
 10
237.013
 20
461.283
 30
0.0
 11
237.013
 21
505.7459999999999
 31
0.0
  0
LINE
  5
1035
330
12D8
100
AcDbEntity
  8
0
100
AcDbLine
 10
158.013
 20
500.9649999999999
 30
0.0
 11
158.013
 21
465.965
 31
0.0
  0
LINE
  5
1036
330
12D8
100
AcDbEntity
  8
0
100
AcDbLine
 10
316.013
 20
500.9649999999999
 30
0.0
 11
316.013
 21
465.965
 31
0.0
  0
LINE
  5
1037
330
12D8
100
AcDbEntity
  8
0
100
AcDbLine
 10
175.513
 20
500.9649999999999
 30
0.0
 11
175.513
 21
470.9649999999999
 31
0.0
  0
LINE
  5
1038
330
12D8
100
AcDbEntity
  8
0
100
AcDbLine
 10
181.513
 20
470.9649999999999
 30
0.0
 11
181.513
 21
500.9649999999999
 31
0.0
  0
LINE
  5
1039
330
12D8
100
AcDbEntity
  8
0
100
AcDbLine
 10
181.513
 20
470.9649999999999
 30
0.0
 11
175.513
 21
470.9649999999999
 31
0.0
  0
LINE
  5
103A
330
12D8
100
AcDbEntity
  8
0
100
AcDbLine
 10
199.013
 20
500.9649999999999
 30
0.0
 11
199.013
 21
470.9649999999999
 31
0.0
  0
LINE
  5
103B
330
12D8
100
AcDbEntity
  8
0
100
AcDbLine
 10
199.013
 20
470.9649999999999
 30
0.0
 11
205.013
 21
470.9649999999999
 31
0.0
  0
LINE
  5
103C
330
12D8
100
AcDbEntity
  8
0
100
AcDbLine
 10
205.013
 20
470.9649999999999
 30
0.0
 11
205.013
 21
500.9649999999999
 31
0.0
  0
LINE
  5
103D
330
12D8
100
AcDbEntity
  8
0
100
AcDbLine
 10
222.513
 20
500.9649999999999
 30
0.0
 11
222.513
 21
470.9649999999999
 31
0.0
  0
LINE
  5
103E
330
12D8
100
AcDbEntity
  8
0
100
AcDbLine
 10
222.513
 20
470.9649999999999
 30
0.0
 11
228.513
 21
470.9649999999999
 31
0.0
  0
LINE
  5
103F
330
12D8
100
AcDbEntity
  8
0
100
AcDbLine
 10
228.513
 20
470.9649999999999
 30
0.0
 11
228.513
 21
500.9649999999999
 31
0.0
  0
LINE
  5
1040
330
12D8
100
AcDbEntity
  8
0
100
AcDbLine
 10
245.513
 20
500.9649999999999
 30
0.0
 11
245.513
 21
470.9649999999999
 31
0.0
  0
LINE
  5
1041
330
12D8
100
AcDbEntity
  8
0
100
AcDbLine
 10
245.513
 20
470.9649999999999
 30
0.0
 11
251.513
 21
470.9649999999999
 31
0.0
  0
LINE
  5
1042
330
12D8
100
AcDbEntity
  8
0
100
AcDbLine
 10
251.513
 20
470.9649999999999
 30
0.0
 11
251.513
 21
500.9649999999999
 31
0.0
  0
LINE
  5
1043
330
12D8
100
AcDbEntity
  8
0
100
AcDbLine
 10
269.013
 20
470.9649999999999
 30
0.0
 11
275.013
 21
470.9649999999999
 31
0.0
  0
LINE
  5
1044
330
12D8
100
AcDbEntity
  8
0
100
AcDbLine
 10
275.013
 20
470.9649999999999
 30
0.0
 11
275.013
 21
500.9649999999999
 31
0.0
  0
LINE
  5
1045
330
12D8
100
AcDbEntity
  8
0
100
AcDbLine
 10
269.013
 20
500.9649999999999
 30
0.0
 11
269.013
 21
470.9649999999999
 31
0.0
  0
LINE
  5
1046
330
12D8
100
AcDbEntity
  8
0
100
AcDbLine
 10
292.713
 20
500.9649999999999
 30
0.0
 11
292.713
 21
470.9649999999999
 31
0.0
  0
LINE
  5
1047
330
12D8
100
AcDbEntity
  8
0
100
AcDbLine
 10
292.713
 20
470.9649999999999
 30
0.0
 11
298.713
 21
470.9649999999999
 31
0.0
  0
LINE
  5
1048
330
12D8
100
AcDbEntity
  8
0
100
AcDbLine
 10
298.713
 20
470.9649999999999
 30
0.0
 11
298.713
 21
500.9649999999999
 31
0.0
  0
POLYLINE
  5
104F
330
12D8
100
AcDbEntity
  8
SCHRAFFUR_RAND
100
AcDb2dPolyline
 66
     1
 10
0.0
 20
0.0
 30
0.0
 70
     1
  0
VERTEX
  5
1050
330
104F
100
AcDbEntity
  8
SCHRAFFUR_RAND
100
AcDbVertex
100
AcDb2dVertex
 10
175.513
 20
500.9649999999999
 30
0.0
  0
VERTEX
  5
1051
330
104F
100
AcDbEntity
  8
SCHRAFFUR_RAND
100
AcDbVertex
100
AcDb2dVertex
 10
175.513
 20
470.9649999999999
 30
0.0
  0
VERTEX
  5
1052
330
104F
100
AcDbEntity
  8
SCHRAFFUR_RAND
100
AcDbVertex
100
AcDb2dVertex
 10
181.513
 20
470.9649999999999
 30
0.0
  0
VERTEX
  5
1053
330
104F
100
AcDbEntity
  8
SCHRAFFUR_RAND
100
AcDbVertex
100
AcDb2dVertex
 10
181.513
 20
500.9649999999999
 30
0.0
  0
VERTEX
  5
1054
330
104F
100
AcDbEntity
  8
SCHRAFFUR_RAND
100
AcDbVertex
100
AcDb2dVertex
 10
175.513
 20
500.9649999999999
 30
0.0
  0
SEQEND
  5
1055
330
104F
100
AcDbEntity
  8
SCHRAFFUR_RAND
  0
INSERT
  5
105C
330
12D8
100
AcDbEntity
  8
8
100
AcDbBlockReference
  2
*X0
 10
0.0
 20
0.0
 30
0.0
1001
ACAD
1000
HATCH
1002
{
1070
    19
1000
ANSI31,_I
1040
6.349999999999999
1040
0.7850000000000001
1002
}
  0
POLYLINE
  5
105D
330
12D8
100
AcDbEntity
  8
SCHRAFFUR_RAND
100
AcDb2dPolyline
 66
     1
 10
0.0
 20
0.0
 30
0.0
 70
     1
  0
VERTEX
  5
105E
330
105D
100
AcDbEntity
  8
SCHRAFFUR_RAND
100
AcDbVertex
100
AcDb2dVertex
 10
199.013
 20
500.9649999999999
 30
0.0
  0
VERTEX
  5
105F
330
105D
100
AcDbEntity
  8
SCHRAFFUR_RAND
100
AcDbVertex
100
AcDb2dVertex
 10
199.013
 20
470.9649999999999
 30
0.0
  0
VERTEX
  5
1060
330
105D
100
AcDbEntity
  8
SCHRAFFUR_RAND
100
AcDbVertex
100
AcDb2dVertex
 10
205.013
 20
470.9649999999999
 30
0.0
  0
VERTEX
  5
1061
330
105D
100
AcDbEntity
  8
SCHRAFFUR_RAND
100
AcDbVertex
100
AcDb2dVertex
 10
205.013
 20
500.9649999999999
 30
0.0
  0
VERTEX
  5
1062
330
105D
100
AcDbEntity
  8
SCHRAFFUR_RAND
100
AcDbVertex
100
AcDb2dVertex
 10
199.013
 20
500.9649999999999
 30
0.0
  0
SEQEND
  5
1063
330
105D
100
AcDbEntity
  8
SCHRAFFUR_RAND
  0
INSERT
  5
1069
330
12D8
100
AcDbEntity
  8
8
100
AcDbBlockReference
  2
*X1
 10
0.0
 20
0.0
 30
0.0
1001
ACAD
1000
HATCH
1002
{
1070
    19
1000
ANSI31,_I
1040
6.349999999999999
1040
0.7850000000000001
1002
}
  0
POLYLINE
  5
106A
330
12D8
100
AcDbEntity
  8
SCHRAFFUR_RAND
100
AcDb2dPolyline
 66
     1
 10
0.0
 20
0.0
 30
0.0
 70
     1
  0
VERTEX
  5
106B
330
106A
100
AcDbEntity
  8
SCHRAFFUR_RAND
100
AcDbVertex
100
AcDb2dVertex
 10
222.513
 20
500.9649999999999
 30
0.0
  0
VERTEX
  5
106C
330
106A
100
AcDbEntity
  8
SCHRAFFUR_RAND
100
AcDbVertex
100
AcDb2dVertex
 10
222.513
 20
470.9649999999999
 30
0.0
  0
VERTEX
  5
106D
330
106A
100
AcDbEntity
  8
SCHRAFFUR_RAND
100
AcDbVertex
100
AcDb2dVertex
 10
228.513
 20
470.9649999999999
 30
0.0
  0
VERTEX
  5
106E
330
106A
100
AcDbEntity
  8
SCHRAFFUR_RAND
100
AcDbVertex
100
AcDb2dVertex
 10
228.513
 20
500.9649999999999
 30
0.0
  0
VERTEX
  5
106F
330
106A
100
AcDbEntity
  8
SCHRAFFUR_RAND
100
AcDbVertex
100
AcDb2dVertex
 10
222.513
 20
500.9649999999999
 30
0.0
  0
SEQEND
  5
1070
330
106A
100
AcDbEntity
  8
SCHRAFFUR_RAND
  0
INSERT
  5
1077
330
12D8
100
AcDbEntity
  8
8
100
AcDbBlockReference
  2
*X2
 10
0.0
 20
0.0
 30
0.0
1001
ACAD
1000
HATCH
1002
{
1070
    19
1000
ANSI31,_I
1040
6.349999999999999
1040
0.7850000000000001
1002
}
  0
POLYLINE
  5
1078
330
12D8
100
AcDbEntity
  8
SCHRAFFUR_RAND
100
AcDb2dPolyline
 66
     1
 10
0.0
 20
0.0
 30
0.0
 70
     1
  0
VERTEX
  5
1079
330
1078
100
AcDbEntity
  8
SCHRAFFUR_RAND
100
AcDbVertex
100
AcDb2dVertex
 10
251.513
 20
500.9649999999999
 30
0.0
  0
VERTEX
  5
107A
330
1078
100
AcDbEntity
  8
SCHRAFFUR_RAND
100
AcDbVertex
100
AcDb2dVertex
 10
245.513
 20
500.9649999999999
 30
0.0
  0
VERTEX
  5
107B
330
1078
100
AcDbEntity
  8
SCHRAFFUR_RAND
100
AcDbVertex
100
AcDb2dVertex
 10
245.513
 20
470.9649999999999
 30
0.0
  0
VERTEX
  5
107C
330
1078
100
AcDbEntity
  8
SCHRAFFUR_RAND
100
AcDbVertex
100
AcDb2dVertex
 10
251.513
 20
470.9649999999999
 30
0.0
  0
VERTEX
  5
107D
330
1078
100
AcDbEntity
  8
SCHRAFFUR_RAND
100
AcDbVertex
100
AcDb2dVertex
 10
251.513
 20
500.9649999999999
 30
0.0
  0
SEQEND
  5
107E
330
1078
100
AcDbEntity
  8
SCHRAFFUR_RAND
  0
INSERT
  5
1084
330
12D8
100
AcDbEntity
  8
8
100
AcDbBlockReference
  2
*X3
 10
0.0
 20
0.0
 30
0.0
1001
ACAD
1000
HATCH
1002
{
1070
    19
1000
ANSI31,_I
1040
6.349999999999999
1040
0.7850000000000001
1002
}
  0
POLYLINE
  5
1085
330
12D8
100
AcDbEntity
  8
SCHRAFFUR_RAND
100
AcDb2dPolyline
 66
     1
 10
0.0
 20
0.0
 30
0.0
 70
     1
  0
VERTEX
  5
1086
330
1085
100
AcDbEntity
  8
SCHRAFFUR_RAND
100
AcDbVertex
100
AcDb2dVertex
 10
275.013
 20
500.9649999999999
 30
0.0
  0
VERTEX
  5
1087
330
1085
100
AcDbEntity
  8
SCHRAFFUR_RAND
100
AcDbVertex
100
AcDb2dVertex
 10
269.013
 20
500.9649999999999
 30
0.0
  0
VERTEX
  5
1088
330
1085
100
AcDbEntity
  8
SCHRAFFUR_RAND
100
AcDbVertex
100
AcDb2dVertex
 10
269.013
 20
470.9649999999999
 30
0.0
  0
VERTEX
  5
1089
330
1085
100
AcDbEntity
  8
SCHRAFFUR_RAND
100
AcDbVertex
100
AcDb2dVertex
 10
275.013
 20
470.9649999999999
 30
0.0
  0
VERTEX
  5
108A
330
1085
100
AcDbEntity
  8
SCHRAFFUR_RAND
100
AcDbVertex
100
AcDb2dVertex
 10
275.013
 20
500.9649999999999
 30
0.0
  0
SEQEND
  5
108B
330
1085
100
AcDbEntity
  8
SCHRAFFUR_RAND
  0
INSERT
  5
1092
330
12D8
100
AcDbEntity
  8
8
100
AcDbBlockReference
  2
*X4
 10
0.0
 20
0.0
 30
0.0
1001
ACAD
1000
HATCH
1002
{
1070
    19
1000
ANSI31,_I
1040
6.349999999999999
1040
0.7850000000000001
1002
}
  0
POLYLINE
  5
1093
330
12D8
100
AcDbEntity
  8
SCHRAFFUR_RAND
100
AcDb2dPolyline
 66
     1
 10
0.0
 20
0.0
 30
0.0
 70
     1
  0
VERTEX
  5
1094
330
1093
100
AcDbEntity
  8
SCHRAFFUR_RAND
100
AcDbVertex
100
AcDb2dVertex
 10
298.713
 20
500.9649999999999
 30
0.0
  0
VERTEX
  5
1095
330
1093
100
AcDbEntity
  8
SCHRAFFUR_RAND
100
AcDbVertex
100
AcDb2dVertex
 10
292.713
 20
500.9649999999999
 30
0.0
  0
VERTEX
  5
1096
330
1093
100
AcDbEntity
  8
SCHRAFFUR_RAND
100
AcDbVertex
100
AcDb2dVertex
 10
292.713
 20
470.9649999999999
 30
0.0
  0
VERTEX
  5
1097
330
1093
100
AcDbEntity
  8
SCHRAFFUR_RAND
100
AcDbVertex
100
AcDb2dVertex
 10
298.713
 20
470.9649999999999
 30
0.0
  0
VERTEX
  5
1098
330
1093
100
AcDbEntity
  8
SCHRAFFUR_RAND
100
AcDbVertex
100
AcDb2dVertex
 10
298.713
 20
500.9649999999999
 30
0.0
  0
SEQEND
  5
1099
330
1093
100
AcDbEntity
  8
SCHRAFFUR_RAND
  0
INSERT
  5
10A0
330
12D8
100
AcDbEntity
  8
8
100
AcDbBlockReference
  2
*X5
 10
0.0
 20
0.0
 30
0.0
1001
ACAD
1000
HATCH
1002
{
1070
    19
1000
ANSI31,_I
1040
6.349999999999999
1040
0.7850000000000001
1002
}
  0
DIMENSION
  5
10AD
330
12D8
100
AcDbEntity
  8
5
100
AcDbDimension
  2
*D16
 10
362.0130000000001
 20
465.965
 30
0.0
 11
362.013
 21
484.033
 31
0.0
 70
   160
  1
 35 
 71
     5
 42
35.0
  3
GEN-ISO
100
AcDbAlignedDimension
 13
322.013
 23
500.9649999999999
 33
0.0
 14
322.013
 24
465.965
 34
0.0
 50
270.0
100
AcDbRotatedDimension
  0
POLYLINE
  5
10AE
330
12D8
100
AcDbEntity
  8
SCHRAFFUR_RAND
100
AcDb2dPolyline
 66
     1
 10
0.0
 20
0.0
 30
0.0
 70
     1
  0
VERTEX
  5
10AF
330
10AE
100
AcDbEntity
  8
SCHRAFFUR_RAND
100
AcDbVertex
100
AcDb2dVertex
 10
158.013
 20
465.965
 30
0.0
  0
VERTEX
  5
10B0
330
10AE
100
AcDbEntity
  8
SCHRAFFUR_RAND
100
AcDbVertex
100
AcDb2dVertex
 10
158.013
 20
500.9649999999999
 30
0.0
  0
VERTEX
  5
10B1
330
10AE
100
AcDbEntity
  8
SCHRAFFUR_RAND
100
AcDbVertex
100
AcDb2dVertex
 10
152.013
 20
500.9649999999999
 30
0.0
  0
VERTEX
  5
10B2
330
10AE
100
AcDbEntity
  8
SCHRAFFUR_RAND
100
AcDbVertex
100
AcDb2dVertex
 10
152.013
 20
465.965
 30
0.0
  0
VERTEX
  5
10B3
330
10AE
100
AcDbEntity
  8
SCHRAFFUR_RAND
100
AcDbVertex
100
AcDb2dVertex
 10
158.013
 20
465.965
 30
0.0
  0
SEQEND
  5
10B4
330
10AE
100
AcDbEntity
  8
SCHRAFFUR_RAND
  0
INSERT
  5
10BB
330
12D8
100
AcDbEntity
  8
8
100
AcDbBlockReference
  2
*X6
 10
0.0
 20
0.0
 30
0.0
1001
ACAD
1000
HATCH
1002
{
1070
    19
1000
ANSI31,_I
1040
6.349999999999999
1040
-0.7850000000000001
1002
}
  0
POLYLINE
  5
10BC
330
12D8
100
AcDbEntity
  8
SCHRAFFUR_RAND
100
AcDb2dPolyline
 66
     1
 10
0.0
 20
0.0
 30
0.0
 70
     1
  0
VERTEX
  5
10BD
330
10BC
100
AcDbEntity
  8
SCHRAFFUR_RAND
100
AcDbVertex
100
AcDb2dVertex
 10
316.013
 20
465.965
 30
0.0
  0
VERTEX
  5
10BE
330
10BC
100
AcDbEntity
  8
SCHRAFFUR_RAND
100
AcDbVertex
100
AcDb2dVertex
 10
322.013
 20
465.965
 30
0.0
  0
VERTEX
  5
10BF
330
10BC
100
AcDbEntity
  8
SCHRAFFUR_RAND
100
AcDbVertex
100
AcDb2dVertex
 10
322.013
 20
500.9649999999999
 30
0.0
  0
VERTEX
  5
10C0
330
10BC
100
AcDbEntity
  8
SCHRAFFUR_RAND
100
AcDbVertex
100
AcDb2dVertex
 10
316.013
 20
500.9649999999999
 30
0.0
  0
VERTEX
  5
10C1
330
10BC
100
AcDbEntity
  8
SCHRAFFUR_RAND
100
AcDbVertex
100
AcDb2dVertex
 10
316.013
 20
465.965
 30
0.0
  0
SEQEND
  5
10C2
330
10BC
100
AcDbEntity
  8
SCHRAFFUR_RAND
  0
INSERT
  5
10C9
330
12D8
100
AcDbEntity
  8
8
100
AcDbBlockReference
  2
*X7
 10
0.0
 20
0.0
 30
0.0
1001
ACAD
1000
HATCH
1002
{
1070
    19
1000
ANSI31,_I
1040
6.349999999999999
1040
-0.7850000000000001
1002
}
  0
LINE
  5
119A
330
12D8
100
AcDbEntity
  8
0
100
AcDbLine
 10
152.013
 20
251.841
 30
0.0
 11
152.013
 21
415.8409999999999
 31
0.0
  0
LINE
  5
119B
330
12D8
100
AcDbEntity
  8
0
100
AcDbLine
 10
322.013
 20
251.841
 30
0.0
 11
322.013
 21
415.8409999999999
 31
0.0
  0
LINE
  5
119C
330
12D8
100
AcDbEntity
  8
0
100
AcDbLine
 10
316.013
 20
248.841
 30
0.0
 11
316.013
 21
418.841
 31
0.0
  0
LINE
  5
119D
330
12D8
100
AcDbEntity
  8
0
100
AcDbLine
 10
298.713
 20
254.841
 30
0.0
 11
298.713
 21
412.841
 31
0.0
  0
LINE
  5
119E
330
12D8
100
AcDbEntity
  8
0
100
AcDbLine
 10
292.713
 20
254.841
 30
0.0
 11
292.713
 21
412.841
 31
0.0
  0
LINE
  5
119F
330
12D8
100
AcDbEntity
  8
0
100
AcDbLine
 10
275.013
 20
254.841
 30
0.0
 11
275.013
 21
412.841
 31
0.0
  0
LINE
  5
11A0
330
12D8
100
AcDbEntity
  8
0
100
AcDbLine
 10
269.013
 20
254.841
 30
0.0
 11
269.013
 21
412.841
 31
0.0
  0
LINE
  5
11A1
330
12D8
100
AcDbEntity
  8
0
100
AcDbLine
 10
251.513
 20
254.841
 30
0.0
 11
251.513
 21
412.841
 31
0.0
  0
LINE
  5
11A2
330
12D8
100
AcDbEntity
  8
0
100
AcDbLine
 10
245.513
 20
254.841
 30
0.0
 11
245.513
 21
412.841
 31
0.0
  0
LINE
  5
11A3
330
12D8
100
AcDbEntity
  8
0
100
AcDbLine
 10
228.513
 20
254.841
 30
0.0
 11
228.513
 21
412.841
 31
0.0
  0
LINE
  5
11A4
330
12D8
100
AcDbEntity
  8
0
100
AcDbLine
 10
222.513
 20
254.841
 30
0.0
 11
222.513
 21
412.841
 31
0.0
  0
LINE
  5
11A5
330
12D8
100
AcDbEntity
  8
0
100
AcDbLine
 10
205.013
 20
254.841
 30
0.0
 11
205.013
 21
412.841
 31
0.0
  0
LINE
  5
11A6
330
12D8
100
AcDbEntity
  8
0
100
AcDbLine
 10
199.013
 20
254.841
 30
0.0
 11
199.013
 21
412.841
 31
0.0
  0
LINE
  5
11A7
330
12D8
100
AcDbEntity
  8
0
100
AcDbLine
 10
175.513
 20
254.841
 30
0.0
 11
175.513
 21
412.841
 31
0.0
  0
LINE
  5
11A8
330
12D8
100
AcDbEntity
  8
0
100
AcDbLine
 10
181.513
 20
254.841
 30
0.0
 11
181.513
 21
412.841
 31
0.0
  0
LINE
  5
11A9
330
12D8
100
AcDbEntity
  8
0
100
AcDbLine
 10
158.013
 20
248.841
 30
0.0
 11
158.013
 21
418.841
 31
0.0
  0
LINE
  5
11AA
330
12D8
100
AcDbEntity
  8
0
100
AcDbLine
 10
158.013
 20
418.841
 30
0.0
 11
316.013
 21
418.841
 31
0.0
  0
LINE
  5
11AB
330
12D8
100
AcDbEntity
  8
0
100
AcDbLine
 10
158.013
 20
248.841
 30
0.0
 11
316.013
 21
248.841
 31
0.0
  0
LINE
  5
11AC
330
12D8
100
AcDbEntity
  8
0
100
AcDbLine
 10
316.013
 20
412.841
 30
0.0
 11
158.013
 21
412.841
 31
0.0
  0
LINE
  5
11AD
330
12D8
100
AcDbEntity
  8
0
100
AcDbLine
 10
316.013
 20
254.841
 30
0.0
 11
158.013
 21
254.841
 31
0.0
  0
LINE
  5
11AE
330
12D8
100
AcDbEntity
  8
0
100
AcDbLine
 10
158.013
 20
415.8409999999999
 30
0.0
 11
152.013
 21
415.8409999999999
 31
0.0
  0
LINE
  5
11AF
330
12D8
100
AcDbEntity
  8
0
100
AcDbLine
 10
158.013
 20
251.841
 30
0.0
 11
152.013
 21
251.841
 31
0.0
  0
LINE
  5
11B0
330
12D8
100
AcDbEntity
  8
0
100
AcDbLine
 10
316.013
 20
251.841
 30
0.0
 11
322.013
 21
251.841
 31
0.0
  0
LINE
  5
11B1
330
12D8
100
AcDbEntity
  8
0
100
AcDbLine
 10
316.013
 20
415.8409999999999
 30
0.0
 11
322.013
 21
415.8409999999999
 31
0.0
  0
LINE
  5
11B2
330
12D8
100
AcDbEntity
  8
7
100
AcDbLine
 10
148.089
 20
332.786
 30
0.0
 11
326.575
 21
332.786
 31
0.0
  0
LINE
  5
11B3
330
12D8
100
AcDbEntity
  8
7
100
AcDbLine
 10
237.013
 20
423.303
 30
0.0
 11
237.013
 21
245.614
 31
0.0
  0
LINE
  5
11B4
330
12D8
100
AcDbEntity
  8
0
100
AcDbLine
 10
153.77
 20
415.8409999999999
 30
0.0
 11
158.013
 21
418.841
 31
0.0
  0
LINE
  5
11B5
330
12D8
100
AcDbEntity
  8
0
100
AcDbLine
 10
153.77
 20
251.841
 30
0.0
 11
158.013
 21
248.841
 31
0.0
  0
LINE
  5
11B6
330
12D8
100
AcDbEntity
  8
0
100
AcDbLine
 10
320.256
 20
251.841
 30
0.0
 11
316.013
 21
248.841
 31
0.0
  0
LINE
  5
11B7
330
12D8
100
AcDbEntity
  8
0
100
AcDbLine
 10
320.256
 20
415.8409999999999
 30
0.0
 11
316.013
 21
418.841
 31
0.0
  0
DIMENSION
  5
11E6
330
12D8
100
AcDbEntity
  8
5
100
AcDbDimension
  2
*D18
 10
362.0130000000001
 20
248.841
 30
0.0
 11
362.013
 21
340.119
 31
0.0
 70
   160
  1
 170 
 71
     5
 42
170.0
  3
GEN-ISO
100
AcDbAlignedDimension
 13
316.013
 23
418.841
 33
0.0
 14
316.013
 24
248.841
 34
0.0
 50
270.0
100
AcDbRotatedDimension
  0
DIMENSION
  5
11FD
330
12D8
100
AcDbEntity
  8
5
100
AcDbDimension
  2
*D8
 10
222.513
 20
208.841
 30
0.0
 11
180.439
 21
208.841
 31
0.0
 70
   128
  1
 17.5 
 71
     5
 42
-1.0
  3
GEN-ISO
100
AcDbAlignedDimension
 13
205.013
 23
254.841
 33
0.0
 14
222.513
 24
254.841
 34
0.0
100
AcDbRotatedDimension
  0
DIMENSION
  5
1213
330
12D8
100
AcDbEntity
  8
5
100
AcDbDimension
  2
*D17
 10
322.013
 20
188.841
 30
0.0
 11
237.263
 21
188.841
 31
0.0
 70
   160
  1
 170 
 71
     5
 42
170.0
  3
GEN-ISO
100
AcDbAlignedDimension
 13
152.013
 23
251.841
 33
0.0
 14
322.013
 24
251.841
 34
0.0
100
AcDbRotatedDimension
  0
POLYLINE
  5
1214
330
12D8
100
AcDbEntity
  8
SCHRAFFUR_RAND
100
AcDb2dPolyline
 66
     1
 10
0.0
 20
0.0
 30
0.0
 70
     1
  0
VERTEX
  5
1215
330
1214
100
AcDbEntity
  8
SCHRAFFUR_RAND
100
AcDbVertex
100
AcDb2dVertex
 10
301.853
 20
420.8429999999999
 30
0.0
  0
VERTEX
  5
1216
330
1214
100
AcDbEntity
  8
SCHRAFFUR_RAND
100
AcDbVertex
100
AcDb2dVertex
 10
295.713
 20
412.841
 30
0.0
  0
VERTEX
  5
1217
330
1214
100
AcDbEntity
  8
SCHRAFFUR_RAND
100
AcDbVertex
100
AcDb2dVertex
 10
303.715
 20
418.9809999999999
 30
0.0
  0
VERTEX
  5
1218
330
1214
100
AcDbEntity
  8
SCHRAFFUR_RAND
100
AcDbVertex
100
AcDb2dVertex
 10
302.784
 20
419.9119999999999
 30
0.0
  0
VERTEX
  5
1219
330
1214
100
AcDbEntity
  8
SCHRAFFUR_RAND
100
AcDbVertex
100
AcDb2dVertex
 10
301.853
 20
420.8429999999999
 30
0.0
  0
SEQEND
  5
121A
330
1214
100
AcDbEntity
  8
SCHRAFFUR_RAND
  0
POLYLINE
  5
1237
330
12D8
100
AcDbEntity
  8
SCHRAFFUR_RAND
100
AcDb2dPolyline
 66
     1
 10
0.0
 20
0.0
 30
0.0
 70
     1
  0
VERTEX
  5
1238
330
1237
100
AcDbEntity
  8
SCHRAFFUR_RAND
100
AcDbVertex
100
AcDb2dVertex
 10
158.013
 20
418.841
 30
0.0
  0
VERTEX
  5
1239
330
1237
100
AcDbEntity
  8
SCHRAFFUR_RAND
100
AcDbVertex
100
AcDb2dVertex
 10
153.77
 20
415.8409999999999
 30
0.0
  0
VERTEX
  5
123A
330
1237
100
AcDbEntity
  8
SCHRAFFUR_RAND
100
AcDbVertex
100
AcDb2dVertex
 10
158.013
 20
415.8409999999999
 30
0.0
  0
VERTEX
  5
123B
330
1237
100
AcDbEntity
  8
SCHRAFFUR_RAND
100
AcDbVertex
100
AcDb2dVertex
 10
158.013
 20
418.841
 30
0.0
  0
SEQEND
  5
123C
330
1237
100
AcDbEntity
  8
SCHRAFFUR_RAND
  0
INSERT
  5
1247
330
12D8
100
AcDbEntity
  8
8
100
AcDbBlockReference
  2
*X9
 10
0.0
 20
0.0
 30
0.0
1001
ACAD
1000
HATCH
1002
{
1070
    19
1000
ANSI31,_I
1040
0.36
1040
3.141999999999999
1002
}
  0
POLYLINE
  5
1248
330
12D8
100
AcDbEntity
  8
SCHRAFFUR_RAND
100
AcDb2dPolyline
 66
     1
 10
0.0
 20
0.0
 30
0.0
 70
     1
  0
VERTEX
  5
1249
330
1248
100
AcDbEntity
  8
SCHRAFFUR_RAND
100
AcDbVertex
100
AcDb2dVertex
 10
316.013
 20
248.841
 30
0.0
  0
VERTEX
  5
124A
330
1248
100
AcDbEntity
  8
SCHRAFFUR_RAND
100
AcDbVertex
100
AcDb2dVertex
 10
320.256
 20
251.841
 30
0.0
  0
VERTEX
  5
124B
330
1248
100
AcDbEntity
  8
SCHRAFFUR_RAND
100
AcDbVertex
100
AcDb2dVertex
 10
316.013
 20
251.841
 30
0.0
  0
VERTEX
  5
124C
330
1248
100
AcDbEntity
  8
SCHRAFFUR_RAND
100
AcDbVertex
100
AcDb2dVertex
 10
316.013
 20
248.841
 30
0.0
  0
SEQEND
  5
124D
330
1248
100
AcDbEntity
  8
SCHRAFFUR_RAND
  0
INSERT
  5
1258
330
12D8
100
AcDbEntity
  8
8
100
AcDbBlockReference
  2
*X10
 10
0.0
 20
0.0
 30
0.0
1001
ACAD
1000
HATCH
1002
{
1070
    19
1000
ANSI31,_I
1040
0.36
1040
3.141999999999999
1002
}
  0
POLYLINE
  5
1259
330
12D8
100
AcDbEntity
  8
SCHRAFFUR_RAND
100
AcDb2dPolyline
 66
     1
 10
0.0
 20
0.0
 30
0.0
 70
     1
  0
VERTEX
  5
125A
330
1259
100
AcDbEntity
  8
SCHRAFFUR_RAND
100
AcDbVertex
100
AcDb2dVertex
 10
153.77
 20
251.841
 30
0.0
  0
VERTEX
  5
125B
330
1259
100
AcDbEntity
  8
SCHRAFFUR_RAND
100
AcDbVertex
100
AcDb2dVertex
 10
158.013
 20
248.841
 30
0.0
  0
VERTEX
  5
125C
330
1259
100
AcDbEntity
  8
SCHRAFFUR_RAND
100
AcDbVertex
100
AcDb2dVertex
 10
158.013
 20
251.841
 30
0.0
  0
VERTEX
  5
125D
330
1259
100
AcDbEntity
  8
SCHRAFFUR_RAND
100
AcDbVertex
100
AcDb2dVertex
 10
153.77
 20
251.841
 30
0.0
  0
SEQEND
  5
125E
330
1259
100
AcDbEntity
  8
SCHRAFFUR_RAND
  0
INSERT
  5
1269
330
12D8
100
AcDbEntity
  8
8
100
AcDbBlockReference
  2
*X11
 10
0.0
 20
0.0
 30
0.0
1001
ACAD
1000
HATCH
1002
{
1070
    19
1000
ANSI31,_I
1040
0.36
1040
3.141999999999999
1002
}
  0
POLYLINE
  5
126A
330
12D8
100
AcDbEntity
  8
SCHRAFFUR_RAND
100
AcDb2dPolyline
 66
     1
 10
0.0
 20
0.0
 30
0.0
 70
     1
  0
VERTEX
  5
126B
330
126A
100
AcDbEntity
  8
SCHRAFFUR_RAND
100
AcDbVertex
100
AcDb2dVertex
 10
320.256
 20
415.8409999999999
 30
0.0
  0
VERTEX
  5
126C
330
126A
100
AcDbEntity
  8
SCHRAFFUR_RAND
100
AcDbVertex
100
AcDb2dVertex
 10
316.013
 20
418.841
 30
0.0
  0
VERTEX
  5
126D
330
126A
100
AcDbEntity
  8
SCHRAFFUR_RAND
100
AcDbVertex
100
AcDb2dVertex
 10
316.013
 20
415.8409999999999
 30
0.0
  0
VERTEX
  5
126E
330
126A
100
AcDbEntity
  8
SCHRAFFUR_RAND
100
AcDbVertex
100
AcDb2dVertex
 10
320.256
 20
415.8409999999999
 30
0.0
  0
SEQEND
  5
126F
330
126A
100
AcDbEntity
  8
SCHRAFFUR_RAND
  0
INSERT
  5
127A
330
12D8
100
AcDbEntity
  8
8
100
AcDbBlockReference
  2
*X12
 10
0.0
 20
0.0
 30
0.0
1001
ACAD
1000
HATCH
1002
{
1070
    19
1000
ANSI31,_I
1040
0.36
1040
3.141999999999999
1002
}
  0
DIMENSION
  5
128F
330
12D8
100
AcDbEntity
  8
5
100
AcDbDimension
  2
*D13
 10
298.713
 20
228.841
 30
0.0
 11
314.543
 21
228.841
 31
0.0
 70
   128
  1
 6 
 71
     5
 42
-1.0
  3
GEN-ISO
100
AcDbAlignedDimension
 13
292.713
 23
254.841
 33
0.0
 14
298.713
 24
254.841
 34
0.0
100
AcDbRotatedDimension
  0
ENDSEC
  0
SECTION
  2
OBJECTS
  0
DICTIONARY
  5
12CC
330
0
100
AcDbDictionary
281
     1
  3
ACAD_COLOR
350
131B
  3
ACAD_GROUP
350
12CD
  3
ACAD_LAYOUT
350
131E
  3
ACAD_MATERIAL
350
131A
  3
ACAD_MLINESTYLE
350
12DB
  3
ACAD_PLOTSETTINGS
350
131F
  3
ACAD_PLOTSTYLENAME
350
1318
  3
ACAD_TABLESTYLE
350
131C
  3
ACDBHEADERROUNDTRIPXREC
350
1428
  3
AcDbVariableDictionary
350
13D4
  3
AcmDictionary
350
137F
  3
AMG
350
1325
  3
AMGSNAPSETTINGS
350
13D6
  0
DICTIONARY
  5
131B
102
{ACAD_REACTORS
330
12CC
102
}
330
12CC
100
AcDbDictionary
281
     1
  0
DICTIONARY
  5
12CD
102
{ACAD_REACTORS
330
12CC
102
}
330
12CC
100
AcDbDictionary
281
     1
  0
DICTIONARY
  5
131E
102
{ACAD_REACTORS
330
12CC
102
}
330
12CC
100
AcDbDictionary
281
     1
  3
Layout1
350
1321
  3
Model
350
1320
  0
DICTIONARY
  5
131A
102
{ACAD_REACTORS
330
12CC
102
}
330
12CC
100
AcDbDictionary
281
     1
  0
DICTIONARY
  5
12DB
102
{ACAD_REACTORS
330
12CC
102
}
330
12CC
100
AcDbDictionary
281
     1
  3
STANDARD
350
12DC
  0
DICTIONARY
  5
131F
102
{ACAD_REACTORS
330
12CC
102
}
330
12CC
100
AcDbDictionary
281
     1
  0
ACDBDICTIONARYWDFLT
  5
1318
102
{ACAD_REACTORS
330
12CC
102
}
330
12CC
100
AcDbDictionary
281
     1
  3
Normal
350
1319
100
AcDbDictionaryWithDefault
340
1319
  0
DICTIONARY
  5
131C
102
{ACAD_REACTORS
330
12CC
102
}
330
12CC
100
AcDbDictionary
281
     1
  3
Standard
350
131D
  0
DICTIONARY
  5
1428
102
{ACAD_REACTORS
330
12CC
102
}
330
12CC
100
AcDbDictionary
281
     1
  0
DICTIONARY
  5
13D4
102
{ACAD_REACTORS
330
12CC
102
}
330
12CC
100
AcDbDictionary
281
     1
  3
CTABLESTYLE
350
13D5
  3
DIMASSOC
350
1425
  3
PROJECTNAME
350
1426
  0
DICTIONARY
  5
137F
102
{ACAD_REACTORS
330
12CC
102
}
330
12CC
100
AcDbDictionary
281
     1
  3
AcmStdDictionary
350
138A
  3
AMDTSECTSYM_ARROWCOLOR
350
13A9
  0
DICTIONARY
  5
1325
102
{ACAD_REACTORS
330
12CC
102
}
330
12CC
100
AcDbDictionary
281
     1
  0
DICTIONARY
  5
13D6
102
{ACAD_REACTORS
330
12CC
102
}
330
12CC
100
AcDbDictionary
281
     1
  0
LAYOUT
  5
1321
102
{ACAD_XDICTIONARY
360
142B
102
}
102
{ACAD_REACTORS
330
131E
102
}
330
131E
100
AcDbPlotSettings
  1

  2
\\RD-SR-210\PH-PR-011
  4

  6

 40
0.0
 41
0.0
 42
0.0
 43
0.0
 44
0.0
 45
0.0
 46
0.0
 47
0.0
 48
0.0
 49
0.0
140
0.0
141
0.0
142
1.0
143
1.0
 70
   688
 72
     0
 73
     0
 74
     5
  7

 75
    16
147
1.0
148
0.0
149
0.0
100
AcDbLayout
  1
Layout1
 70
     1
 71
     1
 10
0.0
 20
0.0
 11
210.001
 21
297.001
 12
0.0
 22
0.0
 32
0.0
 14
0.0
 24
0.0
 34
0.0
 15
210.001
 25
297.001
 35
0.0
146
0.0
 13
0.0
 23
0.0
 33
0.0
 16
1.0
 26
0.0
 36
0.0
 17
0.0
 27
1.0
 37
0.0
 76
     0
330
12D5
  0
LAYOUT
  5
1320
102
{ACAD_XDICTIONARY
360
1429
102
}
102
{ACAD_REACTORS
330
131E
102
}
330
131E
100
AcDbPlotSettings
  1

  2
\\RD-SR-210\PH-PR-011
  4

  6

 40
0.0
 41
0.0
 42
0.0
 43
0.0
 44
0.0
 45
0.0
 46
0.0
 47
0.0
 48
0.0
 49
0.0
140
0.0
141
0.0
142
1.0
143
1.0
 70
  1712
 72
     0
 73
     0
 74
     0
  7

 75
     0
147
1.0
148
0.0
149
0.0
100
AcDbLayout
  1
Model
 70
     1
 71
     0
 10
0.0
 20
0.0
 11
12.0
 21
9.0
 12
0.0
 22
0.0
 32
0.0
 14
0.0
 24
0.0
 34
0.0
 15
0.0
 25
0.0
 35
0.0
146
0.0
 13
0.0
 23
0.0
 33
0.0
 16
1.0
 26
0.0
 36
0.0
 17
0.0
 27
1.0
 37
0.0
 76
     0
330
12D8
  0
MLINESTYLE
  5
12DC
102
{ACAD_REACTORS
330
12DB
102
}
330
12DB
100
AcDbMlineStyle
  2
STANDARD
 70
     0
  3

 62
   256
 51
90.0
 52
90.0
 71
     2
 49
0.5
 62
   256
  6
BYLAYER
 49
-0.5
 62
   256
  6
BYLAYER
  0
ACDBPLACEHOLDER
  5
1319
102
{ACAD_REACTORS
330
1318
102
}
330
1318
  0
TABLESTYLE
  5
131D
102
{ACAD_REACTORS
330
131C
102
}
330
131C
100
AcDbTableStyle
  3
Standard
 70
     0
 71
     0
 40
0.06
 41
0.06
280
     0
281
     0
  7
STANDARD
140
0.18
170
     2
 62
     0
 63
     7
283
     0
274
    -2
284
     1
 64
     0
275
    -2
285
     1
 65
     0
276
    -2
286
     1
 66
     0
277
    -2
287
     1
 67
     0
278
    -2
288
     1
 68
     0
279
    -2
289
     1
 69
     0
  7
STANDARD
140
0.25
170
     5
 62
     0
 63
     7
283
     0
274
    -2
284
     1
 64
     0
275
    -2
285
     1
 65
     0
276
    -2
286
     1
 66
     0
277
    -2
287
     1
 67
     0
278
    -2
288
     1
 68
     0
279
    -2
289
     1
 69
     0
  7
STANDARD
140
0.18
170
     5
 62
     0
 63
     7
283
     0
274
    -2
284
     1
 64
     0
275
    -2
285
     1
 65
     0
276
    -2
286
     1
 66
     0
277
    -2
287
     1
 67
     0
278
    -2
288
     1
 68
     0
279
    -2
289
     1
 69
     0
  0
DICTIONARYVAR
  5
13D5
102
{ACAD_REACTORS
330
13D4
102
}
330
13D4
100
DictionaryVariables
280
     0
  1
STANDARD
  0
DICTIONARYVAR
  5
1425
102
{ACAD_REACTORS
330
13D4
102
}
330
13D4
100
DictionaryVariables
280
     0
  1
1
  0
DICTIONARYVAR
  5
1426
102
{ACAD_REACTORS
330
13D4
102
}
330
13D4
100
DictionaryVariables
280
     0
  1

  0
DICTIONARY
  5
138A
102
{ACAD_REACTORS
330
137F
102
}
330
137F
100
AcDbDictionary
281
     1
  0
XRECORD
  5
13A9
102
{ACAD_REACTORS
330
137F
102
}
330
137F
100
AcDbXrecord
280
     1
 90
-1023410169
  0
DICTIONARY
  5
142B
330
1321
100
AcDbDictionary
280
     1
281
     1
  3
ACAD_XREC_ROUNDTRIP
360
142C
  0
DICTIONARY
  5
1429
330
1320
100
AcDbDictionary
280
     1
281
     1
  3
ACAD_XREC_ROUNDTRIP
360
142A
  0
XRECORD
  5
142C
102
{ACAD_REACTORS
330
142B
102
}
330
142B
100
AcDbXrecord
280
     1
102
SHADEPLOT
 70
     0
102
SHADEPLOTRESLEVEL
 70
     2
102
SHADEPLOTCUSTOMDPI
 70
   300
  0
XRECORD
  5
142A
102
{ACAD_REACTORS
330
1429
102
}
330
1429
100
AcDbXrecord
280
     1
102
SHADEPLOT
 70
     0
102
SHADEPLOTRESLEVEL
 70
     2
102
SHADEPLOTCUSTOMDPI
 70
   300
  0
ENDSEC
  0
EOF
