  0
SECTION
  2
HEADER
  9
$ACADVER
  1
AC1015
  9
$ACADMAINTVER
 70
    20
  9
$DWGCODEPAGE
  3
ANSI_1252
  9
$INSBASE
 10
0.0
 20
0.0
 30
0.0
  9
$EXTMIN
 10
-0.025633200973175
 20
1.355905303887311
 30
-0.0000000349181948
  9
$EXTMAX
 10
387.7761172599236
 20
694.2438748157042
 30
0.0000000814935746
  9
$LIMMIN
 10
0.0
 20
0.0
  9
$LIMMAX
 10
420.0
 20
297.0
  9
$ORTHOMODE
 70
     1
  9
$REGENMODE
 70
     1
  9
$FILLMODE
 70
     1
  9
$QTEXTMODE
 70
     0
  9
$MIRRTEXT
 70
     1
  9
$LTSCALE
 40
5.0
  9
$ATTMODE
 70
     1
  9
$TEXTSIZE
 40
2.5
  9
$TRACEWID
 40
1.0
  9
$TEXTSTYLE
  7
STANDARD
  9
$CLAYER
  8
DEFPOINTS
  9
$CELTYPE
  6
BYLAYER
  9
$CECOLOR
 62
   256
  9
$CELTSCALE
 40
1.0
  9
$DISPSILH
 70
     0
  9
$DIMSCALE
 40
4.5
  9
$DIMASZ
 40
2.5
  9
$DIMEXO
 40
1.0
  9
$DIMDLI
 40
7.0
  9
$DIMRND
 40
0.0
  9
$DIMDLE
 40
0.0
  9
$DIMEXE
 40
1.0
  9
$DIMTP
 40
0.1
  9
$DIMTM
 40
0.1
  9
$DIMTXT
 40
3.5
  9
$DIMCEN
 40
0.0
  9
$DIMTSZ
 40
0.0
  9
$DIMTOL
 70
     0
  9
$DIMLIM
 70
     0
  9
$DIMTIH
 70
     0
  9
$DIMTOH
 70
     0
  9
$DIMSE1
 70
     0
  9
$DIMSE2
 70
     0
  9
$DIMTAD
 70
     1
  9
$DIMZIN
 70
     8
  9
$DIMBLK
  1

  9
$DIMASO
 70
     1
  9
$DIMSHO
 70
     1
  9
$DIMPOST
  1
<>
  9
$DIMAPOST
  1

  9
$DIMALT
 70
     0
  9
$DIMALTD
 70
     2
  9
$DIMALTF
 40
0.03937
  9
$DIMLFAC
 40
1.0
  9
$DIMTOFL
 70
     1
  9
$DIMTVP
 40
0.0
  9
$DIMTIX
 70
     0
  9
$DIMSOXD
 70
     0
  9
$DIMSAH
 70
     0
  9
$DIMBLK1
  1

  9
$DIMBLK2
  1

  9
$DIMSTYLE
  2
GEN-ISO
  9
$DIMCLRD
 70
   256
  9
$DIMCLRE
 70
   256
  9
$DIMCLRT
 70
     2
  9
$DIMTFAC
 40
0.71
  9
$DIMGAP
 40
0.6
  9
$DIMJUST
 70
     0
  9
$DIMSD1
 70
     0
  9
$DIMSD2
 70
     0
  9
$DIMTOLJ
 70
     1
  9
$DIMTZIN
 70
     8
  9
$DIMALTZ
 70
     8
  9
$DIMALTTZ
 70
     8
  9
$DIMUPT
 70
     0
  9
$DIMDEC
 70
     0
  9
$DIMTDEC
 70
     2
  9
$DIMALTU
 70
     2
  9
$DIMALTTD
 70
     2
  9
$DIMTXSTY
  7
STANDARD
  9
$DIMAUNIT
 70
     0
  9
$DIMADEC
 70
     0
  9
$DIMALTRND
 40
0.0
  9
$DIMAZIN
 70
     0
  9
$DIMDSEP
 70
    46
  9
$DIMATFIT
 70
     3
  9
$DIMFRAC
 70
     0
  9
$DIMLDRBLK
  1

  9
$DIMLUNIT
 70
     2
  9
$DIMLWD
 70
    -2
  9
$DIMLWE
 70
    -2
  9
$DIMTMOVE
 70
     0
  9
$LUNITS
 70
     2
  9
$LUPREC
 70
     2
  9
$SKETCHINC
 40
1.0
  9
$FILLETRAD
 40
2.0
  9
$AUNITS
 70
     0
  9
$AUPREC
 70
     0
  9
$MENU
  1
D:\GENIUS\genius
  9
$ELEVATION
 40
0.0
  9
$PELEVATION
 40
0.0
  9
$THICKNESS
 40
0.0
  9
$LIMCHECK
 70
     0
  9
$CHAMFERA
 40
2.5
  9
$CHAMFERB
 40
2.5
  9
$CHAMFERC
 40
0.0
  9
$CHAMFERD
 40
0.0
  9
$SKPOLY
 70
     0
  9
$TDCREATE
 40
2450400.494733681
  9
$TDUCREATE
 40
2450400.453067014
  9
$TDUPDATE
 40
2454081.786186517
  9
$TDUUPDATE
 40
2454081.744519849
  9
$TDINDWG
 40
0.1003787384
  9
$TDUSRTIMER
 40
0.1003787384
  9
$USRTIMER
 70
     1
  9
$ANGBASE
 50
0.0
  9
$ANGDIR
 70
     0
  9
$PDMODE
 70
     0
  9
$PDSIZE
 40
0.0
  9
$PLINEWID
 40
0.0
  9
$SPLFRAME
 70
     0
  9
$SPLINETYPE
 70
     6
  9
$SPLINESEGS
 70
     8
  9
$HANDSEED
  5
D8C
  9
$SURFTAB1
 70
     6
  9
$SURFTAB2
 70
     6
  9
$SURFTYPE
 70
     6
  9
$SURFU
 70
     6
  9
$SURFV
 70
     6
  9
$UCSBASE
  2

  9
$UCSNAME
  2

  9
$UCSORG
 10
0.0
 20
0.0
 30
0.0
  9
$UCSXDIR
 10
1.0
 20
0.0
 30
0.0
  9
$UCSYDIR
 10
0.0
 20
1.0
 30
0.0
  9
$UCSORTHOREF
  2

  9
$UCSORTHOVIEW
 70
     0
  9
$UCSORGTOP
 10
0.0
 20
0.0
 30
0.0
  9
$UCSORGBOTTOM
 10
0.0
 20
0.0
 30
0.0
  9
$UCSORGLEFT
 10
0.0
 20
0.0
 30
0.0
  9
$UCSORGRIGHT
 10
0.0
 20
0.0
 30
0.0
  9
$UCSORGFRONT
 10
0.0
 20
0.0
 30
0.0
  9
$UCSORGBACK
 10
0.0
 20
0.0
 30
0.0
  9
$PUCSBASE
  2

  9
$PUCSNAME
  2

  9
$PUCSORG
 10
0.0
 20
0.0
 30
0.0
  9
$PUCSXDIR
 10
1.0
 20
0.0
 30
0.0
  9
$PUCSYDIR
 10
0.0
 20
1.0
 30
0.0
  9
$PUCSORTHOREF
  2

  9
$PUCSORTHOVIEW
 70
     0
  9
$PUCSORGTOP
 10
0.0
 20
0.0
 30
0.0
  9
$PUCSORGBOTTOM
 10
0.0
 20
0.0
 30
0.0
  9
$PUCSORGLEFT
 10
0.0
 20
0.0
 30
0.0
  9
$PUCSORGRIGHT
 10
0.0
 20
0.0
 30
0.0
  9
$PUCSORGFRONT
 10
0.0
 20
0.0
 30
0.0
  9
$PUCSORGBACK
 10
0.0
 20
0.0
 30
0.0
  9
$USERI1
 70
     0
  9
$USERI2
 70
     0
  9
$USERI3
 70
     0
  9
$USERI4
 70
     0
  9
$USERI5
 70
     0
  9
$USERR1
 40
0.0
  9
$USERR2
 40
0.0
  9
$USERR3
 40
0.0
  9
$USERR4
 40
0.0
  9
$USERR5
 40
0.0
  9
$WORLDVIEW
 70
     1
  9
$SHADEDGE
 70
     3
  9
$SHADEDIF
 70
    70
  9
$TILEMODE
 70
     1
  9
$MAXACTVP
 70
    16
  9
$PINSBASE
 10
0.0
 20
0.0
 30
0.0
  9
$PLIMCHECK
 70
     0
  9
$PEXTMIN
 10
1.000000000000000E+20
 20
1.000000000000000E+20
 30
1.000000000000000E+20
  9
$PEXTMAX
 10
-1.000000000000000E+20
 20
-1.000000000000000E+20
 30
-1.000000000000000E+20
  9
$PLIMMIN
 10
0.0
 20
0.0
  9
$PLIMMAX
 10
420.0
 20
297.0
  9
$UNITMODE
 70
     0
  9
$VISRETAIN
 70
     0
  9
$PLINEGEN
 70
     0
  9
$PSLTSCALE
 70
     1
  9
$TREEDEPTH
 70
  3020
  9
$CMLSTYLE
  2
STANDARD
  9
$CMLJUST
 70
     0
  9
$CMLSCALE
 40
1.0
  9
$PROXYGRAPHICS
 70
     1
  9
$MEASUREMENT
 70
     1
  9
$CELWEIGHT
370
    -1
  9
$ENDCAPS
280
     0
  9
$JOINSTYLE
280
     0
  9
$LWDISPLAY
290
     0
  9
$INSUNITS
 70
     0
  9
$HYPERLINKBASE
  1

  9
$STYLESHEET
  1

  9
$XEDIT
290
     1
  9
$CEPSNTYPE
380
     0
  9
$PSTYLEMODE
290
     1
  9
$FINGERPRINTGUID
  2
{99A2F628-5939-401B-844F-F223F852187F}
  9
$VERSIONGUID
  2
{9FC1A530-3277-40B8-B2F0-CA5DD7BE79B4}
  9
$EXTNAMES
290
     1
  9
$PSVPSCALE
 40
0.0
  9
$OLESTARTUP
290
     0
  0
ENDSEC
  0
SECTION
  2
CLASSES
  0
CLASS
  1
DICTIONARYVAR
  2
AcDbDictionaryVar
  3
ObjectDBX Classes
 90
        0
280
     0
281
     0
  0
CLASS
  1
ACDBDICTIONARYWDFLT
  2
AcDbDictionaryWithDefault
  3
ObjectDBX Classes
 90
        0
280
     0
281
     0
  0
CLASS
  1
TABLESTYLE
  2
AcDbTableStyle
  3
ObjectDBX Classes
 90
     2047
280
     0
281
     0
  0
CLASS
  1
AMGSETTINGSOBJ
  2
AmgSettingsObj
  3
"AcadM|Product Description: AutoCAD Mechanical 2000|Company: Autodesk"
 90
        0
280
     0
281
     0
  0
CLASS
  1
ACME_DOCUMENT
  2
AcMeDbDoc
  3
AcMeServices
 90
        0
280
     0
281
     0
  0
CLASS
  1
ACMESCOPE
  2
AcMeScope
  3
AcMeServices
 90
        0
280
     0
281
     0
  0
CLASS
  1
ACMECOMMANDHISTORY
  2
AcMeCommandHistory
  3
AcMeServices
 90
        0
280
     0
281
     0
  0
CLASS
  1
ACIMSYSVARMAN
  2
AcImSysVarManager
  3
AcMeServices
 90
        0
280
     0
281
     0
  0
CLASS
  1
ACIMINTSYSVAR
  2
AcImIntSysVar
  3
AcMeServices
 90
        0
280
     0
281
     0
  0
CLASS
  1
ACMEDRAWINGMAN
  2
AcMeDrawingMan
  3
AcMeServices
 90
        0
280
     0
281
     0
  0
CLASS
  1
ACMEVIEW
  2
AcMeView
  3
AcMeServices
 90
        0
280
     0
281
     0
  0
CLASS
  1
ACDBENTITYCACHE
  2
AcMeEntityCache
  3
AcMeServices
 90
        0
280
     0
281
     0
  0
CLASS
  1
GSMANAGER
  2
AcMeGSManager
  3
AcMeServices
 90
        0
280
     0
281
     0
  0
CLASS
  1
AMDTINTERNALREACTOR
  2
AmdtInternalReactor
  3
AcMeServices
 90
        0
280
     0
281
     0
  0
CLASS
  1
ACMESTATEMGR
  2
AcMeStateMgr
  3
AcMeServices
 90
        0
280
     0
281
     0
  0
CLASS
  1
ACGREFMASTER
  2
AcGrefMaster
  3
AcAttribServices
 90
        0
280
     0
281
     0
  0
CLASS
  1
AM_DRAWING_MGR
  2
AcDmDwgMgr
  3
AcMechDwgViewMgmt
 90
        0
280
     0
281
     0
  0
CLASS
  1
AM_DWG_DOCUMENT
  2
AcDmDwgDocument
  3
AcMechDwgViewMgmt
 90
        0
280
     0
281
     0
  0
CLASS
  1
AM_DWG_SHEET
  2
AcDmSheet
  3
AcMechDwgViewMgmt
 90
        0
280
     0
281
     0
  0
CLASS
  1
AM_VIEWDIMPARMAP
  2
AcDmViewDimParMap
  3
AcMechDwgViewMgmt
 90
        0
280
     0
281
     0
  0
CLASS
  1
ACIMREALSYSVAR
  2
AcImRealSysVar
  3
AcMeServices
 90
        0
280
     0
281
     0
  0
CLASS
  1
AM_DWGMGR_NAME
  2
AcDmDwgMgrName
  3
AcMechDwgViewMgmt
 90
        0
280
     0
281
     0
  0
CLASS
  1
ACME_DATABASE
  2
AcMeDbDatabase
  3
AcMeServices
 90
        0
280
     0
281
     0
  0
CLASS
  1
ACRFINSADJUSTERMGR
  2
AcRfInsAdjusterMgr
  3
AcMeServices
 90
        0
280
     0
281
     0
  0
CLASS
  1
ACGREFACADMASTER
  2
AcGrefacadMaster
  3
AcGrefServices
 90
        0
280
     0
281
     0
  0
CLASS
  1
AMDTMENUSTATEMGR
  2
AmdtMenuStateMgr
  3
McadcomServices
 90
        0
280
     0
281
     0
  0
CLASS
  1
AMDTMCOMMENUSTATE
  2
AmdtMcomMenuState
  3
McadcomServices
 90
        0
280
     0
281
     0
  0
CLASS
  1
AMIMASTER
  2
AmiMaster
  3
AmiServices
 90
        0
280
     0
281
     0
  0
CLASS
  1
MAPIAMMOUDLE
  2
MApiAmModule
  3
MApiAmServices
 90
        0
280
     0
281
     0
  0
CLASS
  1
ACIMSTRSYSVAR
  2
AcImStrSysVar
  3
AcMeServices
 90
        0
280
     0
281
     0
  0
CLASS
  1
AMDTADMENUSTATE
  2
AmdtAdMenuState
  3
DesignerServices
 90
        0
280
     0
281
     0
  0
CLASS
  1
ADAPPL
  2
AcAdAppl
  3
DesignerServices
 90
        0
280
     0
281
     0
  0
CLASS
  1
DEPMGR
  2
AcAdDepMgr
  3
DesignerServices
 90
        0
280
     0
281
     0
  0
CLASS
  1
PARAMMGR
  2
AcAdParamMgr
  3
DesignerServices
 90
        0
280
     0
281
     0
  0
CLASS
  1
PARAMSCOPE
  2
AcAdParamScope
  3
DesignerServices
 90
        0
280
     0
281
     0
  0
CLASS
  1
NAMEDAPPL
  2
AcAdNamedAppl
  3
DesignerServices
 90
        0
280
     0
281
     0
  0
CLASS
  1
AMDTDMMENUSTATE
  2
AmdtDmMenuState
  3
AcMechDwgViewMgmt
 90
        0
280
     0
281
     0
  0
CLASS
  1
AMDTAMMENUSTATE
  2
AmdtAmMenuState
  3
DesignerAssemblies
 90
        0
280
     0
281
     0
  0
CLASS
  1
ACAMPROJECT
  2
AcAmProject
  3
DesignerAssemblies
 90
        0
280
     0
281
     0
  0
CLASS
  1
ACAMGRCOMPDEF
  2
AcAmGrCompDef
  3
DesignerAssemblies
 90
        0
280
     0
281
     0
  0
CLASS
  1
ACCMCONTEXT
  2
AcCmContext
  3
DesignerAssemblies
 90
        0
280
     0
281
     0
  0
CLASS
  1
ACAMCOMPDEF
  2
AcAmCompDef
  3
DesignerAssemblies
 90
        0
280
     0
281
     0
  0
CLASS
  1
ACAMCOMPDEFMGR
  2
AcAmCompDefMgr
  3
DesignerAssemblies
 90
        0
280
     0
281
     0
  0
CLASS
  1
AMCONTEXTMGR
  2
AcAmContextMgr
  3
DesignerAssemblies
 90
        0
280
     0
281
     0
  0
CLASS
  1
ACAMCONTEXTMODELER
  2
AcAmContextModeler
  3
DesignerAssemblies
 90
        0
280
     0
281
     0
  0
CLASS
  1
ACMDATADICTIONARY
  2
AcmDataDictionary
  3
"AcmSymBB|Product Description: AutoCAD Mechanical 2004 DX|Company: Autodesk"
 90
        0
280
     0
281
     0
  0
CLASS
  1
CATALOGSTATE
  2
AcAmCatalogState
  3
DesignerAssemblies
 90
        0
280
     0
281
     0
  0
CLASS
  1
ACAMGRCOMPDEFSET
  2
AcAmGrCompDefSet
  3
DesignerAssemblies
 90
        0
280
     0
281
     0
  0
CLASS
  1
AMDTBROWSERDBTAB
  2
AmdtBrowserDbTab
  3
McadcomServices
 90
        0
280
     0
281
     0
  0
CLASS
  1
CBROWSERAPPOBJECT
  2
CBrowserAppObject
  3
McadcomServices
 90
        0
280
     0
281
     0
  0
CLASS
  1
DM_PLACEHOLDER
  2
AcDmSelsetPlaceholder
  3
AcMechDwgViewMgmt
 90
        0
280
     0
281
     0
  0
CLASS
  1
ACMSTANDARDDIN
  2
AcmStandardDIN
  3
"Amdt_StdImp|Product Description: AutoCAD Mechanical 2004 DX|Company: Autodesk"
 90
        0
280
     0
281
     0
  0
CLASS
  1
AMGOBJPROPCFG
  2
AmgObjPropCfg
  3
"AmgLay|Product Description: AutoCAD Mechanical 2000|Company: Autodesk"
 90
        1
280
     0
281
     0
  0
CLASS
  1
AMDTEDGESTANDARDDIN13715
  2
AmdtEdgeStdDIN13715
  3
"Amdt_StdImp|Product Description: AutoCAD Mechanical 2004 DX|Company: Autodesk"
 90
        0
280
     0
281
     0
  0
CLASS
  1
ACMSURFSTANDARDDIN
  2
AcmSurfTextStdDIN
  3
"Amdt_StdImp|Product Description: AutoCAD Mechanical 2004 DX|Company: Autodesk"
 90
        0
280
     0
281
     0
  0
CLASS
  1
ACMFCFSTANDARDDIN
  2
AcmFCFStdDIN
  3
"Amdt_StdImp|Product Description: AutoCAD Mechanical 2004 DX|Company: Autodesk"
 90
        0
280
     0
281
     0
  0
CLASS
  1
ACMWELDSTANDARDDIN
  2
AcmWeldingStdDIN
  3
"Amdt_StdImp|Product Description: AutoCAD Mechanical 2004 DX|Company: Autodesk"
 90
        0
280
     0
281
     0
  0
CLASS
  1
ACMIDSTANDARDDIN
  2
AcmIdStdDIN
  3
"Amdt_StdImp|Product Description: AutoCAD Mechanical 2004 DX|Company: Autodesk"
 90
        0
280
     0
281
     0
  0
CLASS
  1
ACMDATUMSTANDARDDIN
  2
AcmDatumStdDIN
  3
"Amdt_StdImp|Product Description: AutoCAD Mechanical 2004 DX|Company: Autodesk"
 90
        0
280
     0
281
     0
  0
CLASS
  1
ACMBOMSTANDARDDIN
  2
AcmBOMStdDIN
  3
"Amdt_StdImp|Product Description: AutoCAD Mechanical 2004 DX|Company: Autodesk"
 90
        0
280
     0
281
     0
  0
CLASS
  1
ACMDETAILSTANDARDDIN
  2
AmdtDetailSymStdDIN
  3
"Amdt_StdImp|Product Description: AutoCAD Mechanical 2004 DX|Company: Autodesk"
 90
        0
280
     0
281
     0
  0
CLASS
  1
ACMSECTIONSTANDARDDIN
  2
AmdtSectionSymStdDIN
  3
"Amdt_StdImp|Product Description: AutoCAD Mechanical 2004 DX|Company: Autodesk"
 90
        0
280
     0
281
     0
  0
CLASS
  1
ACMCENTERLINESTANDARDDIN
  2
AmdtCenterLineStdDIN
  3
"Amdt_StdImp|Product Description: AutoCAD Mechanical 2004 DX|Company: Autodesk"
 90
        0
280
     0
281
     0
  0
CLASS
  1
ACMTHREADLINESTANDARDDIN
  2
AmdtThreadLineStdDIN
  3
"Amdt_StdImp|Product Description: AutoCAD Mechanical 2004 DX|Company: Autodesk"
 90
        0
280
     0
281
     0
  0
CLASS
  1
ACMNOTESTANDARDDIN
  2
AmdtNoteStdDIN
  3
"Amdt_StdImp|Product Description: AutoCAD Mechanical 2004 DX|Company: Autodesk"
 90
        0
280
     0
281
     0
  0
CLASS
  1
AMDTNOTETEMPLATEDB
  2
AmdtNoteTemplateDB
  3
AMDT_STDIMP_MODULE_NAME
 90
        0
280
     0
281
     0
  0
CLASS
  1
ACAMGLAYSTD
  2
AcAmgLayStd
  3
"AcAmgLayStd|Product Description: AutoCAD Mechanical 2000|Company: Autodesk"
 90
        0
280
     0
281
     0
  0
CLASS
  1
ACAMGDIMSTD
  2
AcAmgDimStd
  3
"AcAmgDimStd|Product Description: AutoCAD Mechanical 2000|Company: Autodesk"
 90
        0
280
     0
281
     0
  0
CLASS
  1
ACAMGHOLECHARTSTDDIN
  2
AcAmgHoleChartStdDIN
  3
ACMSYMBB_MODULE_NAME
 90
        0
280
     0
281
     0
  0
CLASS
  1
ACAMGTITLESTD
  2
AcAmgTitleStd
  3
"TITLEAPP"
 90
        0
280
     0
281
     0
  0
CLASS
  1
ACAMGFILTERDAT
  2
AcAmgFilterDat
  3
"AcadM|Product Description: AutoCAD Mechanical 2000|Company: Autodesk"
 90
        0
280
     0
281
     0
  0
CLASS
  1
SORTENTSTABLE
  2
AcDbSortentsTable
  3
ObjectDBX Classes
 90
        0
280
     0
281
     0
  0
CLASS
  1
ACDBPLACEHOLDER
  2
AcDbPlaceHolder
  3
ObjectDBX Classes
 90
        0
280
     0
281
     0
  0
CLASS
  1
LAYOUT
  2
AcDbLayout
  3
ObjectDBX Classes
 90
        0
280
     0
281
     0
  0
ENDSEC
  0
SECTION
  2
TABLES
  0
TABLE
  2
VPORT
  5
99E
330
0
100
AcDbSymbolTable
 70
     4
  0
VPORT
  5
D84
330
99E
100
AcDbSymbolTableRecord
100
AcDbViewportTableRecord
  2
*Active
 70
     0
 10
0.0
 20
0.0
 11
1.0
 21
1.0
 12
193.8752420294752
 22
347.7998900597957
 13
0.0
 23
0.0
 14
1.0
 24
1.0
 15
10.0
 25
10.0
 16
0.0
 26
0.0
 36
1.0
 17
0.0
 27
0.0
 37
0.0
 40
697.9210540361157
 41
1.494545454545454
 42
50.0
 43
0.0
 44
0.0
 50
0.0
 51
0.0
 71
     0
 72
 20000
 73
     1
 74
     1
 75
     0
 76
     0
 77
     0
 78
     0
281
     0
 65
     0
110
0.0
120
0.0
130
0.0
111
1.0
121
0.0
131
0.0
112
0.0
122
1.0
132
0.0
 79
     0
146
0.0
  0
ENDTAB
  0
TABLE
  2
LTYPE
  5
99B
330
0
100
AcDbSymbolTable
 70
    15
  0
LTYPE
  5
9A7
330
99B
100
AcDbSymbolTableRecord
100
AcDbLinetypeTableRecord
  2
BYBLOCK
 70
     0
  3

 72
    65
 73
     0
 40
0.0
  0
LTYPE
  5
9A8
330
99B
100
AcDbSymbolTableRecord
100
AcDbLinetypeTableRecord
  2
BYLAYER
 70
     0
  3

 72
    65
 73
     0
 40
0.0
  0
LTYPE
  5
9A9
330
99B
100
AcDbSymbolTableRecord
100
AcDbLinetypeTableRecord
  2
CONTINUOUS
 70
     0
  3
Solid line
 72
    65
 73
     0
 40
0.0
  0
LTYPE
  5
9C6
330
99B
100
AcDbSymbolTableRecord
100
AcDbLinetypeTableRecord
  2
GEN7
 70
     0
  3
____ . ____ . ____ . ____ . ____ . ____ . ____
 72
    65
 73
     4
 40
13.75
 49
10.0
 74
     0
 49
-1.25
 74
     0
 49
1.25
 74
     0
 49
-1.25
 74
     0
  0
LTYPE
  5
A5C
330
99B
100
AcDbSymbolTableRecord
100
AcDbLinetypeTableRecord
  2
HIDDEN
 70
     0
  3
Verdeckt
 72
    65
 73
     2
 40
9.525
 49
6.349999999999999
 74
     0
 49
-3.174999999999999
 74
     0
  0
LTYPE
  5
A5D
330
99B
100
AcDbSymbolTableRecord
100
AcDbLinetypeTableRecord
  2
PHANTOM2
 70
     0
  3
Phantom (.5x) ___ _ _ ___ _ _ ___ _ _ ___ _ _
 72
    65
 73
     6
 40
31.75
 49
15.875
 74
     0
 49
-3.174999999999999
 74
     0
 49
3.174999999999999
 74
     0
 49
-3.174999999999999
 74
     0
 49
3.174999999999999
 74
     0
 49
-3.174999999999999
 74
     0
  0
LTYPE
  5
A5E
330
99B
100
AcDbSymbolTableRecord
100
AcDbLinetypeTableRecord
  2
CENTER
 70
     0
  3
Mitte ____ _ ____ _ ____ _ ____ _ ____ _ ____
 72
    65
 73
     4
 40
50.8
 49
31.75
 74
     0
 49
-6.349999999999999
 74
     0
 49
6.349999999999999
 74
     0
 49
-6.349999999999999
 74
     0
  0
LTYPE
  5
A95
330
99B
100
AcDbSymbolTableRecord
100
AcDbLinetypeTableRecord
  2
Amconstr
 70
     0
  3
_______________________
 72
    65
 73
     2
 40
9999.0
 49
9999.0
 74
     0
 49
0.0
 74
     0
  0
LTYPE
  5
A9A
330
99B
100
AcDbSymbolTableRecord
100
AcDbLinetypeTableRecord
  2
Amzigzag
 70
     0
  3
/\/-/\/-/\/-/\/-/\/-/\/
 72
    65
 73
     2
 40
11.0001
 49
0.0001
 74
     4
 75
   136
340
A99
 46
0.04
 50
0.0
 44
0.0
 45
0.0
 49
-11.0
 74
     0
  0
LTYPE
  5
A9B
330
99B
100
AcDbSymbolTableRecord
100
AcDbLinetypeTableRecord
  2
AM_DIN_F_W050
 70
     0
  3
__ __ __ __ __ __ __ __ __ __ __ __ __ __ __
 72
    65
 73
     2
 40
6.25
 49
4.75
 74
     0
 49
-1.5
 74
     0
  0
LTYPE
  5
A9C
330
99B
100
AcDbSymbolTableRecord
100
AcDbLinetypeTableRecord
  2
AM_DIN_G_W050
 70
     0
  3
____ . ____ . ____ . ____ . ____ . ____ . ____
 72
    65
 73
     4
 40
13.75
 49
9.75
 74
     0
 49
-1.5
 74
     0
 49
1.0
 74
     0
 49
-1.5
 74
     0
  0
LTYPE
  5
A9D
330
99B
100
AcDbSymbolTableRecord
100
AcDbLinetypeTableRecord
  2
AM_DIN_K_W050
 70
     0
  3
_____ . . _____ . . _____ . . ____ .. ____
 72
    65
 73
     6
 40
16.25
 49
9.75
 74
     0
 49
-1.5
 74
     0
 49
1.0
 74
     0
 49
-1.5
 74
     0
 49
1.0
 74
     0
 49
-1.5
 74
     0
  0
LTYPE
  5
A9E
330
99B
100
AcDbSymbolTableRecord
100
AcDbLinetypeTableRecord
  2
AM_DIN_G_W050x2
 70
     0
  3
__ . __ . __ . __ . __ . __
 72
    65
 73
     4
 40
6.875
 49
4.75
 74
     0
 49
-0.875
 74
     0
 49
0.375
 74
     0
 49
-0.875
 74
     0
  0
LTYPE
  5
A9F
330
99B
100
AcDbSymbolTableRecord
100
AcDbLinetypeTableRecord
  2
AM_DIN_F_W050x2
 70
     0
  3
 _ _ _ _ _ _ _ _ _ _ _ _
 72
    65
 73
     2
 40
3.125
 49
2.25
 74
     0
 49
-0.875
 74
     0
  0
LTYPE
  5
AAE
330
99B
100
AcDbSymbolTableRecord
100
AcDbLinetypeTableRecord
  2
ACDINWELD
 70
     0
  3
_ _ _ _ _
 72
    65
 73
     2
 40
2.0
 49
2.0
 74
     0
 49
-1.0
 74
     0
  0
LTYPE
  5
AAF
330
99B
100
AcDbSymbolTableRecord
100
AcDbLinetypeTableRecord
  2
ACDINTGB
 70
     0
  3
__ . . __ . .
 72
    65
 73
     6
 40
9.0
 49
4.0
 74
     0
 49
-1.0
 74
     0
 49
1.0
 74
     0
 49
-1.0
 74
     0
 49
1.0
 74
     0
 49
-1.0
 74
     0
  0
LTYPE
  5
AB0
330
99B
100
AcDbSymbolTableRecord
100
AcDbLinetypeTableRecord
  2
ACDINTGL
 70
     0
  3
_ _ _ _ _
 72
    65
 73
     2
 40
3.0
 49
2.0
 74
     0
 49
-1.0
 74
     0
  0
ENDTAB
  0
TABLE
  2
LAYER
  5
998
102
{ACAD_XDICTIONARY
360
CC4
102
}
330
0
100
AcDbSymbolTable
 70
     7
  0
LAYER
  5
9A4
330
998
100
AcDbSymbolTableRecord
100
AcDbLayerTableRecord
  2
0
 70
     0
 62
     7
  6
CONTINUOUS
370
    -3
390
A20
  0
LAYER
  5
9EE
330
998
100
AcDbSymbolTableRecord
100
AcDbLayerTableRecord
  2
5
 70
     0
 62
     3
  6
CONTINUOUS
370
    -3
390
A20
  0
LAYER
  5
9EF
330
998
100
AcDbSymbolTableRecord
100
AcDbLayerTableRecord
  2
DEFPOINTS
 70
     0
 62
     7
  6
CONTINUOUS
290
     0
370
    -3
390
A20
  0
LAYER
  5
9F0
330
998
100
AcDbSymbolTableRecord
100
AcDbLayerTableRecord
  2
7
 70
     0
 62
     4
  6
GEN7
370
    -3
390
A20
  0
LAYER
  5
9F1
330
998
100
AcDbSymbolTableRecord
100
AcDbLayerTableRecord
  2
8
 70
     0
 62
     1
  6
CONTINUOUS
370
    -3
390
A20
  0
LAYER
  5
B48
330
998
100
AcDbSymbolTableRecord
100
AcDbLayerTableRecord
  2
AM_5
 70
     0
 62
     3
  6
CONTINUOUS
370
    25
390
A20
1001
AcAecLayerStandard
1000

1000

  0
LAYER
  5
CC9
330
998
100
AcDbSymbolTableRecord
100
AcDbLayerTableRecord
  2
AM_8
 70
     0
 62
     1
  6
CONTINUOUS
370
    25
390
A20
1001
AcAecLayerStandard
1000

1000

  0
ENDTAB
  0
TABLE
  2
STYLE
  5
999
330
0
100
AcDbSymbolTable
 70
     4
  0
STYLE
  5
9A5
330
999
100
AcDbSymbolTableRecord
100
AcDbTextStyleTableRecord
  2
STANDARD
 70
     0
 40
0.0
 41
1.0
 50
0.0
 71
     0
 42
2.5
  3
ISOCP.SHX
  4

  0
STYLE
  5
A99
330
999
100
AcDbSymbolTableRecord
100
AcDbTextStyleTableRecord
  2

 70
     1
 40
0.0
 41
1.0
 50
0.0
 71
     0
 42
2.5
  3
genltshp.shx
  4

  0
STYLE
  5
AA0
330
999
100
AcDbSymbolTableRecord
100
AcDbTextStyleTableRecord
  2
ACDINTS
 70
     0
 40
1.0
 41
1.0
 50
0.0
 71
     0
 42
2.5
  3
isocp.shx
  4

  0
STYLE
  5
AAD
330
999
100
AcDbSymbolTableRecord
100
AcDbTextStyleTableRecord
  2
ACDINGDT
 70
     0
 40
0.0
 41
1.0
 50
0.0
 71
     0
 42
2.5
  3
amgdt.shx
  4

  0
ENDTAB
  0
TABLE
  2
VIEW
  5
99C
330
0
100
AcDbSymbolTable
 70
     6
  0
VIEW
  5
9C7
330
99C
100
AcDbSymbolTableRecord
100
AcDbViewTableRecord
  2
GEN1
 70
     0
 40
148.5
 10
120.890794
 20
222.75
 41
241.781588
 11
0.0
 21
0.0
 31
1.0
 12
0.0
 22
0.0
 32
0.0
 42
50.0
 43
0.0
 44
0.0
 50
0.0
 71
     0
281
     0
 72
     0
  0
VIEW
  5
9C8
330
99C
100
AcDbSymbolTableRecord
100
AcDbViewTableRecord
  2
GEN2
 70
     0
 40
148.5
 10
299.109206
 20
222.75
 41
241.781588
 11
0.0
 21
0.0
 31
1.0
 12
0.0
 22
0.0
 32
0.0
 42
50.0
 43
0.0
 44
0.0
 50
0.0
 71
     0
281
     0
 72
     0
  0
VIEW
  5
9C9
330
99C
100
AcDbSymbolTableRecord
100
AcDbViewTableRecord
  2
GEN3
 70
     0
 40
148.5
 10
120.890794
 20
74.25
 41
241.781588
 11
0.0
 21
0.0
 31
1.0
 12
0.0
 22
0.0
 32
0.0
 42
50.0
 43
0.0
 44
0.0
 50
0.0
 71
     0
281
     0
 72
     0
  0
VIEW
  5
9CA
330
99C
100
AcDbSymbolTableRecord
100
AcDbViewTableRecord
  2
GEN4
 70
     0
 40
148.5
 10
299.109206
 20
74.25
 41
241.781588
 11
0.0
 21
0.0
 31
1.0
 12
0.0
 22
0.0
 32
0.0
 42
50.0
 43
0.0
 44
0.0
 50
0.0
 71
     0
281
     0
 72
     0
  0
VIEW
  5
9CB
330
99C
100
AcDbSymbolTableRecord
100
AcDbViewTableRecord
  2
GEN5
 70
     0
 40
148.5
 10
210.0
 20
148.5
 41
241.781588
 11
0.0
 21
0.0
 31
1.0
 12
0.0
 22
0.0
 32
0.0
 42
50.0
 43
0.0
 44
0.0
 50
0.0
 71
     0
281
     0
 72
     0
  0
VIEW
  5
9CC
330
99C
100
AcDbSymbolTableRecord
100
AcDbViewTableRecord
  2
GEN6
 70
     0
 40
296.99703
 10
210.0
 20
148.5
 41
483.558341
 11
0.0
 21
0.0
 31
1.0
 12
0.0
 22
0.0
 32
0.0
 42
50.0
 43
0.0
 44
0.0
 50
0.0
 71
     0
281
     0
 72
     0
  0
ENDTAB
  0
TABLE
  2
UCS
  5
99D
330
0
100
AcDbSymbolTable
 70
     0
  0
ENDTAB
  0
TABLE
  2
APPID
  5
99F
330
0
100
AcDbSymbolTable
 70
    41
  0
APPID
  5
9A6
330
99F
100
AcDbSymbolTableRecord
100
AcDbRegAppTableRecord
  2
ACAD
 70
     0
  0
APPID
  5
9CE
330
99F
100
AcDbSymbolTableRecord
100
AcDbRegAppTableRecord
  2
GENIUS_GENCFG_13
 70
     0
1001
GENIUS_GENCFG0_13
1000
GEN@INFO_POS@XLATE
1001
GENIUS_GENCFG1_13
1000
GEN@INFO_POS
1001
GENIUS_GENCFG2_13
1000
GEN@LAYER@DEFS
1001
GENIUS_GENCFG3_13
1000
GEN@LAYER@ENTSORT
1001
GENIUS_GENCFG4_13
1000
GEN
1001
GENIUS_GEVCFG0_13
1000
GEV
  0
APPID
  5
9CF
330
99F
100
AcDbSymbolTableRecord
100
AcDbRegAppTableRecord
  2
GENIUS_GEVCFG0_13
 70
     0
1001
GENIUS_GENCFG_13
1071
1043421390
1000
9CF
1000
GEV
1070
     2
1000
GenCfgObject
1000
GenCfgShort
1000
VED
1070
     0
1002
{
1002
}
1000
PartProto
1070
     1
1070
     1
1002
{
1002
}
  0
APPID
  5
9D0
330
99F
100
AcDbSymbolTableRecord
100
AcDbRegAppTableRecord
  2
GENIUS_GENCFG0_13
 70
     0
1001
GENIUS_GENCFG_13
1071
1043421390
1000
9D0
1000
GEN@INFO_POS@XLATE
1070
     7
1000
GenCfgObject
1000
GenCfgShort
1000
GenCfgReal
1000
GenCfgBool
1000
GenCfgString
1000
GenCfgDim
1000
GenCfgAttrInf
1000
INFOPOINTS
1070
     0
1002
{
1000
GENINF14
1070
     0
1002
{
1000
2GENINF
1070
     4
1000
2
1002
{
1002
}
1000
5GENINF
1070
     4
1000
5
1002
{
1002
}
1000
7GENINF
1070
     4
1000
7
1002
{
1002
}
1000
9GENINF
1070
     4
1000
9
1002
{
1002
}
1000
11GENINF
1070
     4
1000
11
1002
{
1002
}
1000
14GENINF
1070
     4
1000
14
1002
{
1002
}
1002
}
1000
GENINF13
1070
     0
1002
{
1000
2GENINF
1070
     4
1000
2
1002
{
1002
}
1000
3GENINF
1070
     4
1000
3
1002
{
1002
}
1000
4GENINF
1070
     4
1000
4
1002
{
1002
}
1000
5GENINF
1070
     4
1000
5
1002
{
1002
}
1000
6GENINF
1070
     4
1000
6
1002
{
1002
}
1000
7GENINF
1070
     4
1000
7
1002
{
1002
}
1000
8GENINF
1070
     4
1000
8
1002
{
1002
}
1000
9GENINF
1070
     4
1000
9
1002
{
1002
}
1000
10GENINF
1070
     4
1000
10
1002
{
1002
}
1000
11GENINF
1070
     4
1000
11
1002
{
1002
}
1000
12GENINF
1070
     4
1000
12
1002
{
1002
}
1000
13GENINF
1070
     4
1000
13
1002
{
1002
}
1000
14GENINF
1070
     4
1000
14
1002
{
1002
}
1000
15GENINF
1070
     4
1000
15
1002
{
1002
}
1000
16GENINF
1070
     4
1000
16
1002
{
1002
}
1000
17GENINF
1070
     4
1000
17
1002
{
1002
}
1000
18GENINF
1070
     4
1000
18
1002
{
1002
}
1000
19GENINF
1070
     4
1000
19
1002
{
1002
}
1000
20GENINF
1070
     4
1000
20
1002
{
1002
}
1000
21GENINF
1070
     4
1000
21
1002
{
1002
}
1000
22GENINF
1070
     4
1000
22
1002
{
1002
}
1000
23GENINF
1070
     4
1000
23
1002
{
1002
}
1000
24GENINF
1070
     4
1000
24
1002
{
1002
}
1000
0GENINF
1070
     4
1000
0
1002
{
1002
}
1002
}
1000
GENINFO
1070
     0
1002
{
1000
3GENINF
1070
     4
1000
3
1002
{
1002
}
1000
4GENINF
1070
     4
1000
4
1002
{
1002
}
1000
5GENINF
1070
     4
1000
5
1002
{
1002
}
1000
6GENINF
1070
     4
1000
6
1002
{
1002
}
1000
7GENINF
1070
     4
1000
7
1002
{
1002
}
1000
8GENINF
1070
     4
1000
8
1002
{
1002
}
1000
9GENINF
1070
     4
1000
9
1002
{
1002
}
1000
10GENINF
1070
     4
1000
10
1002
{
1002
}
1000
11GENINF
1070
     4
1000
11
1002
{
1002
}
1000
12GENINF
1070
     4
1000
12
1002
{
1002
}
1000
13GENINF
1070
     4
1000
13
1002
{
1002
}
1000
14GENINF
1070
     4
1000
14
1002
{
1002
}
1000
15GENINF
1070
     4
1000
15
1002
{
1002
}
1000
16GENINF
1070
     4
1000
16
1002
{
1002
}
1000
17GENINF
1070
     4
1000
17
1002
{
1002
}
1000
18GENINF
1070
     4
1000
18
1002
{
1002
}
1000
19GENINF
1070
     4
1000
19
1002
{
1002
}
1000
20GENINF
1070
     4
1000
20
1002
{
1002
}
1000
21GENINF
1070
     4
1000
21
1002
{
1002
}
1000
22GENINF
1070
     4
1000
22
1002
{
1002
}
1002
}
1000
DININFO
1070
     0
1002
{
1000
ST-NAME1
1070
     4
1000
5
1002
{
1002
}
1000
ST-NAME2
1070
     4
1000
6
1002
{
1002
}
1000
ST-NORM1
1070
     4
1000
7
1002
{
1002
}
1000
ST-NORM2
1070
     4
1000
8
1002
{
1002
}
1000
ST-MAT1
1070
     4
1000
9
1002
{
1002
}
1000
ST-MAT2
1070
     4
1000
10
1002
{
1002
}
1002
}
1002
}
1000
POS_NUMBERS
1070
     0
1002
{
1000
GENPOS14
1070
     0
1002
{
1000
1GENPOS
1070
     4
1000
1
1002
{
1002
}
1000
2GENPOS
1070
     4
1000
2
1002
{
1002
}
1000
5GENPOS
1070
     4
1000
5
1002
{
1002
}
1000
7GENPOS
1070
     4
1000
7
1002
{
1002
}
1000
9GENPOS
1070
     4
1000
9
1002
{
1002
}
1000
11GENPOS
1070
     4
1000
11
1002
{
1002
}
1000
14GENPOS
1070
     4
1000
14
1002
{
1002
}
1002
}
1000
GENPOS13
1070
     0
1002
{
1000
1GENPOS
1070
     4
1000
1
1002
{
1002
}
1000
2GENPOS
1070
     4
1000
2
1002
{
1002
}
1000
3GENPOS
1070
     4
1000
3
1002
{
1002
}
1000
4GENPOS
1070
     4
1000
4
1002
{
1002
}
1000
5GENPOS
1070
     4
1000
5
1002
{
1002
}
1000
6GENPOS
1070
     4
1000
6
1002
{
1002
}
1000
7GENPOS
1070
     4
1000
7
1002
{
1002
}
1000
8GENPOS
1070
     4
1000
8
1002
{
1002
}
1000
9GENPOS
1070
     4
1000
9
1002
{
1002
}
1000
10GENPOS
1070
     4
1000
10
1002
{
1002
}
1000
11GENPOS
1070
     4
1000
11
1002
{
1002
}
1000
12GENPOS
1070
     4
1000
12
1002
{
1002
}
1000
13GENPOS
1070
     4
1000
13
1002
{
1002
}
1000
14GENPOS
1070
     4
1000
14
1002
{
1002
}
1000
15GENPOS
1070
     4
1000
15
1002
{
1002
}
1000
16GENPOS
1070
     4
1000
16
1002
{
1002
}
1000
17GENPOS
1070
     4
1000
17
1002
{
1002
}
1000
18GENPOS
1070
     4
1000
18
1002
{
1002
}
1000
19GENPOS
1070
     4
1000
19
1002
{
1002
}
1000
20GENPOS
1070
     4
1000
20
1002
{
1002
}
1000
21GENPOS
1070
     4
1000
21
1002
{
1002
}
1000
22GENPOS
1070
     4
1000
22
1002
{
1002
}
1000
23GENPOS
1070
     4
1000
23
1002
{
1002
}
1000
24GENPOS
1070
     4
1000
24
1002
{
1002
}
1000
0GENPOS
1070
     4
1000
0
1002
{
1002
}
1002
}
1000
GENPOS
1070
     0
1002
{
1000
1GENPOS
1070
     4
1000
1
1002
{
1002
}
1000
2GENPOS
1070
     4
1000
2
1002
{
1002
}
1000
3GENPOS
1070
     4
1000
3
1002
{
1002
}
1000
4GENPOS
1070
     4
1000
4
1002
{
1002
}
1000
5GENPOS
1070
     4
1000
5
1002
{
1002
}
1000
6GENPOS
1070
     4
1000
6
1002
{
1002
}
1000
7GENPOS
1070
     4
1000
7
1002
{
1002
}
1000
8GENPOS
1070
     4
1000
8
1002
{
1002
}
1000
9GENPOS
1070
     4
1000
9
1002
{
1002
}
1000
10GENPOS
1070
     4
1000
10
1002
{
1002
}
1000
11GENPOS
1070
     4
1000
11
1002
{
1002
}
1000
12GENPOS
1070
     4
1000
12
1002
{
1002
}
1000
13GENPOS
1070
     4
1000
13
1002
{
1002
}
1000
14GENPOS
1070
     4
1000
14
1002
{
1002
}
1000
15GENPOS
1070
     4
1000
15
1002
{
1002
}
1000
16GENPOS
1070
     4
1000
16
1002
{
1002
}
1000
17GENPOS
1070
     4
1000
17
1002
{
1002
}
1000
18GENPOS
1070
     4
1000
18
1002
{
1002
}
1000
19GENPOS
1070
     4
1000
19
1002
{
1002
}
1000
20GENPOS
1070
     4
1000
20
1002
{
1002
}
1000
21GENPOS
1070
     4
1000
21
1002
{
1002
}
1000
22GENPOS
1070
     4
1000
22
1002
{
1002
}
1000
23GENPOS
1070
     4
1000
23
1002
{
1002
}
1002
}
1000
DIN985
1070
     0
1002
{
1000
POSITION
1070
     4
1000
1
1002
{
1002
}
1000
MENGE
1070
     4
1000
2
1002
{
1002
}
1000
BLATT
1070
     4
1000
3
1002
{
1002
}
1000
BENENN
1070
     4
1000
5
1002
{
1002
}
1000
BENENN2
1070
     4
1000
6
1002
{
1002
}
1000
NORM
1070
     4
1000
7
1002
{
1002
}
1000
NORM2
1070
     4
1000
8
1002
{
1002
}
1000
WERKSTOFF
1070
     4
1000
9
1002
{
1002
}
1000
WERKSTOFF2
1070
     4
1000
10
1002
{
1002
}
1002
}
1000
DIN986
1070
     0
1002
{
1000
POSITION
1070
     4
1000
1
1002
{
1002
}
1000
MENGE
1070
     4
1000
2
1002
{
1002
}
1000
BLATT
1070
     4
1000
3
1002
{
1002
}
1000
BENENN
1070
     4
1000
5
1002
{
1002
}
1000
BENENN2
1070
     4
1000
6
1002
{
1002
}
1000
NORM
1070
     4
1000
7
1002
{
1002
}
1000
NORM2
1070
     4
1000
8
1002
{
1002
}
1000
WERKSTOFF
1070
     4
1000
9
1002
{
1002
}
1000
WERKSTOFF2
1070
     4
1000
10
1002
{
1002
}
1002
}
1000
DIN987
1070
     0
1002
{
1000
POSITION
1070
     4
1000
1
1002
{
1002
}
1000
MENGE
1070
     4
1000
2
1002
{
1002
}
1000
BLATT
1070
     4
1000
3
1002
{
1002
}
1000
BENENN
1070
     4
1000
5
1002
{
1002
}
1000
BENENN2
1070
     4
1000
6
1002
{
1002
}
1000
NORM
1070
     4
1000
7
1002
{
1002
}
1000
NORM2
1070
     4
1000
8
1002
{
1002
}
1000
WERKSTOFF
1070
     4
1000
9
1002
{
1002
}
1000
WERKSTOFF2
1070
     4
1000
10
1002
{
1002
}
1002
}
1002
}
  0
APPID
  5
9D1
330
99F
100
AcDbSymbolTableRecord
100
AcDbRegAppTableRecord
  2
GENIUS_GENCFG1_13
 70
     0
1001
GENIUS_GENCFG_13
1071
1043421390
1000
9D1
1000
GEN@INFO_POS
1070
     7
1000
GenCfgObject
1000
GenCfgShort
1000
GenCfgReal
1000
GenCfgBool
1000
GenCfgString
1000
GenCfgDim
1000
GenCfgAttrInf
1000
DescrText
1070
     4
1000
5, ,6, ,7, ,8
1002
{
1002
}
1000
DescrText2
1070
     4
1000
26
1002
{
1002
}
1000
VisibleAttr1
1070
     4
1000
1
1002
{
1002
}
1000
VisibleAttr2
1070
     4
1000
26
1002
{
1002
}
1000
UpdateBlock
1070
     3
1070
     1
1002
{
1002
}
1000
Attrib
1070
     0
1002
{
1000
0
1070
     6
1002
{
1000
Prompt
1070
     4
1000
(genmsg gendwg 103)
1002
{
1002
}
1000
Value
1070
     4
1000

1002
{
1002
}
1000
EditFlag
1070
     1
1070
     0
1002
{
1002
}
1000
PosInDDATTE
1070
     1
1070
    27
1002
{
1002
}
1000
FieldLen
1070
     1
1070
    -1
1002
{
1002
}
1002
}
1000
1
1070
     6
1002
{
1000
Prompt
1070
     4
1000
(genmsg gendwg 31)
1002
{
1002
}
1000
Value
1070
     4
1000
1
1002
{
1002
}
1000
EditFlag
1070
     1
1070
     1
1002
{
1002
}
1000
PosInDDATTE
1070
     1
1070
     1
1002
{
1002
}
1000
FieldLen
1070
     1
1070
    -1
1002
{
1002
}
1002
}
1000
2
1070
     6
1002
{
1000
Prompt
1070
     4
1000
(genmsg gendwg 32)
1002
{
1002
}
1000
Value
1070
     4
1000
1
1002
{
1002
}
1000
EditFlag
1070
     1
1070
     1
1002
{
1002
}
1000
PosInDDATTE
1070
     1
1070
     2
1002
{
1002
}
1000
FieldLen
1070
     1
1070
    -1
1002
{
1002
}
1002
}
1000
3
1070
     6
1002
{
1000
Prompt
1070
     4
1000
(genmsg gendwg 33)
1002
{
1002
}
1000
Value
1070
     4
1000

1002
{
1002
}
1000
EditFlag
1070
     1
1070
     1
1002
{
1002
}
1000
PosInDDATTE
1070
     1
1070
     3
1002
{
1002
}
1000
FieldLen
1070
     1
1070
    -1
1002
{
1002
}
1002
}
1000
4
1070
     6
1002
{
1000
Prompt
1070
     4
1000
(genmsg gendwg 34)
1002
{
1002
}
1000
Value
1070
     4
1000

1002
{
1002
}
1000
EditFlag
1070
     1
1070
     1
1002
{
1002
}
1000
PosInDDATTE
1070
     1
1070
     4
1002
{
1002
}
1000
FieldLen
1070
     1
1070
    -1
1002
{
1002
}
1002
}
1000
5
1070
     6
1002
{
1000
Prompt
1070
     4
1000
(genmsg gendwg 35)
1002
{
1002
}
1000
Value
1070
     4
1000

1002
{
1002
}
1000
EditFlag
1070
     1
1070
     1
1002
{
1002
}
1000
PosInDDATTE
1070
     1
1070
     5
1002
{
1002
}
1000
FieldLen
1070
     1
1070
    -1
1002
{
1002
}
1002
}
1000
6
1070
     6
1002
{
1000
Prompt
1070
     4
1000
(genmsg gendwg 36)
1002
{
1002
}
1000
Value
1070
     4
1000

1002
{
1002
}
1000
EditFlag
1070
     1
1070
     1
1002
{
1002
}
1000
PosInDDATTE
1070
     1
1070
     6
1002
{
1002
}
1000
FieldLen
1070
     1
1070
    -1
1002
{
1002
}
1002
}
1000
7
1070
     6
1002
{
1000
Prompt
1070
     4
1000
(genmsg gendwg 37)
1002
{
1002
}
1000
Value
1070
     4
1000

1002
{
1002
}
1000
EditFlag
1070
     1
1070
     1
1002
{
1002
}
1000
PosInDDATTE
1070
     1
1070
     7
1002
{
1002
}
1000
FieldLen
1070
     1
1070
    -1
1002
{
1002
}
1002
}
1000
8
1070
     6
1002
{
1000
Prompt
1070
     4
1000
(genmsg gendwg 38)
1002
{
1002
}
1000
Value
1070
     4
1000

1002
{
1002
}
1000
EditFlag
1070
     1
1070
     1
1002
{
1002
}
1000
PosInDDATTE
1070
     1
1070
     8
1002
{
1002
}
1000
FieldLen
1070
     1
1070
    -1
1002
{
1002
}
1002
}
1000
9
1070
     6
1002
{
1000
Prompt
1070
     4
1000
(genmsg gendwg 39)
1002
{
1002
}
1000
Value
1070
     4
1000

1002
{
1002
}
1000
EditFlag
1070
     1
1070
     1
1002
{
1002
}
1000
PosInDDATTE
1070
     1
1070
     9
1002
{
1002
}
1000
FieldLen
1070
     1
1070
    -1
1002
{
1002
}
1002
}
1000
10
1070
     6
1002
{
1000
Prompt
1070
     4
1000
(genmsg gendwg 40)
1002
{
1002
}
1000
Value
1070
     4
1000

1002
{
1002
}
1000
EditFlag
1070
     1
1070
     1
1002
{
1002
}
1000
PosInDDATTE
1070
     1
1070
    10
1002
{
1002
}
1000
FieldLen
1070
     1
1070
    -1
1002
{
1002
}
1002
}
1000
11
1070
     6
1002
{
1000
Prompt
1070
     4
1000
(genmsg gendwg 41)
1002
{
1002
}
1000
Value
1070
     4
1000

1002
{
1002
}
1000
EditFlag
1070
     1
1070
     1
1002
{
1002
}
1000
PosInDDATTE
1070
     1
1070
    11
1002
{
1002
}
1000
FieldLen
1070
     1
1070
    -1
1002
{
1002
}
1002
}
1000
12
1070
     6
1002
{
1000
Prompt
1070
     4
1000
(genmsg gendwg 42)
1002
{
1002
}
1000
Value
1070
     4
1000

1002
{
1002
}
1000
EditFlag
1070
     1
1070
     1
1002
{
1002
}
1000
PosInDDATTE
1070
     1
1070
    12
1002
{
1002
}
1000
FieldLen
1070
     1
1070
    -1
1002
{
1002
}
1002
}
1000
13
1070
     6
1002
{
1000
Prompt
1070
     4
1000
(genmsg gendwg 43)
1002
{
1002
}
1000
Value
1070
     4
1000

1002
{
1002
}
1000
EditFlag
1070
     1
1070
     1
1002
{
1002
}
1000
PosInDDATTE
1070
     1
1070
    13
1002
{
1002
}
1000
FieldLen
1070
     1
1070
    -1
1002
{
1002
}
1002
}
1000
14
1070
     6
1002
{
1000
Prompt
1070
     4
1000
(genmsg gendwg 44)
1002
{
1002
}
1000
Value
1070
     4
1000

1002
{
1002
}
1000
EditFlag
1070
     1
1070
     1
1002
{
1002
}
1000
PosInDDATTE
1070
     1
1070
    14
1002
{
1002
}
1000
FieldLen
1070
     1
1070
    -1
1002
{
1002
}
1002
}
1000
15
1070
     6
1002
{
1000
Prompt
1070
     4
1000
(genmsg gendwg 45)
1002
{
1002
}
1000
Value
1070
     4
1000

1002
{
1002
}
1000
EditFlag
1070
     1
1070
     1
1002
{
1002
}
1000
PosInDDATTE
1070
     1
1070
    15
1002
{
1002
}
1000
FieldLen
1070
     1
1070
    -1
1002
{
1002
}
1002
}
1000
16
1070
     6
1002
{
1000
Prompt
1070
     4
1000
(genmsg gendwg 46)
1002
{
1002
}
1000
Value
1070
     4
1000

1002
{
1002
}
1000
EditFlag
1070
     1
1070
     1
1002
{
1002
}
1000
PosInDDATTE
1070
     1
1070
    16
1002
{
1002
}
1000
FieldLen
1070
     1
1070
    -1
1002
{
1002
}
1002
}
1000
17
1070
     6
1002
{
1000
Prompt
1070
     4
1000
(genmsg gendwg 47)
1002
{
1002
}
1000
Value
1070
     4
1000

1002
{
1002
}
1000
EditFlag
1070
     1
1070
     1
1002
{
1002
}
1000
PosInDDATTE
1070
     1
1070
    17
1002
{
1002
}
1000
FieldLen
1070
     1
1070
    -1
1002
{
1002
}
1002
}
1000
18
1070
     6
1002
{
1000
Prompt
1070
     4
1000
(genmsg gendwg 48)
1002
{
1002
}
1000
Value
1070
     4
1000

1002
{
1002
}
1000
EditFlag
1070
     1
1070
     1
1002
{
1002
}
1000
PosInDDATTE
1070
     1
1070
    18
1002
{
1002
}
1000
FieldLen
1070
     1
1070
    -1
1002
{
1002
}
1002
}
1000
19
1070
     6
1002
{
1000
Prompt
1070
     4
1000
(genmsg gendwg 99)
1002
{
1002
}
1000
Value
1070
     4
1000

1002
{
1002
}
1000
EditFlag
1070
     1
1070
     1
1002
{
1002
}
1000
PosInDDATTE
1070
     1
1070
    19
1002
{
1002
}
1000
FieldLen
1070
     1
1070
    -1
1002
{
1002
}
1002
}
1000
20
1070
     6
1002
{
1000
Prompt
1070
     4
1000
(genmsg gendwg 100)
1002
{
1002
}
1000
Value
1070
     4
1000

1002
{
1002
}
1000
EditFlag
1070
     1
1070
     1
1002
{
1002
}
1000
PosInDDATTE
1070
     1
1070
    20
1002
{
1002
}
1000
FieldLen
1070
     1
1070
    -1
1002
{
1002
}
1002
}
1000
21
1070
     6
1002
{
1000
Prompt
1070
     4
1000
(genmsg gendwg 101)
1002
{
1002
}
1000
Value
1070
     4
1000

1002
{
1002
}
1000
EditFlag
1070
     1
1070
     1
1002
{
1002
}
1000
PosInDDATTE
1070
     1
1070
    21
1002
{
1002
}
1000
FieldLen
1070
     1
1070
    -1
1002
{
1002
}
1002
}
1000
22
1070
     6
1002
{
1000
Prompt
1070
     4
1000
(genmsg gendwg 102)
1002
{
1002
}
1000
Value
1070
     4
1000

1002
{
1002
}
1000
EditFlag
1070
     1
1070
     1
1002
{
1002
}
1000
PosInDDATTE
1070
     1
1070
    22
1002
{
1002
}
1000
FieldLen
1070
     1
1070
    -1
1002
{
1002
}
1002
}
1000
23
1070
     6
1002
{
1000
Prompt
1070
     4
1000
(genmsg gendwg 30)
1002
{
1002
}
1000
Value
1070
     4
1000

1002
{
1002
}
1000
EditFlag
1070
     1
1070
     1
1002
{
1002
}
1000
PosInDDATTE
1070
     1
1070
    23
1002
{
1002
}
1000
FieldLen
1070
     1
1070
    -1
1002
{
1002
}
1002
}
1000
24
1070
     6
1002
{
1000
Prompt
1070
     4
1000
(genmsg gendwg 104)
1002
{
1002
}
1000
Value
1070
     4
1000

1002
{
1002
}
1000
EditFlag
1070
     1
1070
     1
1002
{
1002
}
1000
PosInDDATTE
1070
     1
1070
    24
1002
{
1002
}
1000
FieldLen
1070
     1
1070
    -1
1002
{
1002
}
1002
}
1000
25
1070
     6
1002
{
1000
Prompt
1070
     4
1000
(genmsg gendwg 105)
1002
{
1002
}
1000
Value
1070
     4
1000

1002
{
1002
}
1000
EditFlag
1070
     1
1070
     1
1002
{
1002
}
1000
PosInDDATTE
1070
     1
1070
    25
1002
{
1002
}
1000
FieldLen
1070
     1
1070
    -1
1002
{
1002
}
1002
}
1000
26
1070
     6
1002
{
1000
Prompt
1070
     4
1000
(genmsg gendwg 106)
1002
{
1002
}
1000
Value
1070
     4
1000

1002
{
1002
}
1000
EditFlag
1070
     1
1070
     1
1002
{
1002
}
1000
PosInDDATTE
1070
     1
1070
    26
1002
{
1002
}
1000
FieldLen
1070
     1
1070
    -1
1002
{
1002
}
1002
}
1000
27
1070
     6
1002
{
1000
Prompt
1070
     4
1000
(genmsg gendwg 109)
1002
{
1002
}
1000
Value
1070
     4
1000

1002
{
1002
}
1000
EditFlag
1070
     1
1070
     2
1002
{
1002
}
1000
PosInDDATTE
1070
     1
1070
    27
1002
{
1002
}
1000
FieldLen
1070
     1
1070
    -1
1002
{
1002
}
1002
}
1002
}
1000
Xlate
1070
     0
1002
{
1000
>
1002
}
  0
APPID
  5
9D2
330
99F
100
AcDbSymbolTableRecord
100
AcDbRegAppTableRecord
  2
GENIUS_GENCFG2_13
 70
     0
1001
GENIUS_GENCFG_13
1071
1043421390
1000
9D2
1000
GEN@LAYER@DEFS
1070
     9
1000
GenCfgObject
1000
GenCfgShort
1000
GenCfgReal
1000
GenCfgBool
1000
GenCfgString
1000
GenCfgDim
1000
GenCfgAttrInf
1000
GenCfgLaySection
1000
GenCfgLayer
1000
Basic
1070
     0
1002
{
1000
0
1070
     8
1000
0
1002
{
1000
Color
1070
     1
1070
     7
1002
{
1002
}
1000
LType
1070
     4
1000
CONTINUOUS
1002
{
1002
}
1000
Base
1070
     3
1070
     0
1002
{
1002
}
1002
}
1000
1
1070
     8
1000
1
1002
{
1000
Color
1070
     1
1070
    14
1002
{
1002
}
1000
LType
1070
     4
1000
CONTINUOUS
1002
{
1002
}
1000
Base
1070
     3
1070
     0
1002
{
1002
}
1002
}
1000
2
1070
     8
1000
2
1002
{
1000
Color
1070
     1
1070
     5
1002
{
1002
}
1000
LType
1070
     4
1000
CONTINUOUS
1002
{
1002
}
1000
Base
1070
     3
1070
     0
1002
{
1002
}
1002
}
1000
3
1070
     8
1000
3
1002
{
1000
Color
1070
     1
1070
     6
1002
{
1002
}
1000
LType
1070
     4
1000
GEN3
1002
{
1002
}
1000
Base
1070
     3
1070
     0
1002
{
1002
}
1002
}
1000
4
1070
     8
1000
4
1002
{
1000
Color
1070
     1
1070
     3
1002
{
1002
}
1000
LType
1070
     4
1000
CONTINUOUS
1002
{
1002
}
1000
Base
1070
     3
1070
     0
1002
{
1002
}
1002
}
1000
5
1070
     8
1000
5
1002
{
1000
Color
1070
     1
1070
     3
1002
{
1002
}
1000
LType
1070
     4
1000
CONTINUOUS
1002
{
1002
}
1000
Base
1070
     3
1070
     0
1002
{
1002
}
1002
}
1000
6
1070
     8
1000
6
1002
{
1000
Color
1070
     1
1070
     2
1002
{
1002
}
1000
LType
1070
     4
1000
CONTINUOUS
1002
{
1002
}
1000
Base
1070
     3
1070
     0
1002
{
1002
}
1002
}
1000
7
1070
     8
1000
7
1002
{
1000
Color
1070
     1
1070
     4
1002
{
1002
}
1000
LType
1070
     4
1000
GEN7
1002
{
1002
}
1000
Base
1070
     3
1070
     0
1002
{
1002
}
1002
}
1000
8
1070
     8
1000
8
1002
{
1000
Color
1070
     1
1070
     1
1002
{
1002
}
1000
LType
1070
     4
1000
CONTINUOUS
1002
{
1002
}
1000
Base
1070
     3
1070
     0
1002
{
1002
}
1002
}
1000
3A
1070
     8
1000
3A
1002
{
1000
Color
1070
     1
1070
     6
1002
{
1002
}
1000
LType
1070
     4
1000
GEN3A
1002
{
1002
}
1000
Base
1070
     3
1070
     0
1002
{
1002
}
1002
}
1000
7A
1070
     8
1000
7A
1002
{
1000
Color
1070
     1
1070
     4
1002
{
1002
}
1000
LType
1070
     4
1000
GEN7A
1002
{
1002
}
1000
Base
1070
     3
1070
     0
1002
{
1002
}
1002
}
1000
2A
1070
     8
1000
2A
1002
{
1000
Color
1070
     1
1070
     7
1002
{
1002
}
1000
LType
1070
     4
1000
GEN7
1002
{
1002
}
1000
Base
1070
     3
1070
     0
1002
{
1002
}
1002
}
1000
4A
1070
     8
1000
4A
1002
{
1000
Color
1070
     1
1070
     3
1002
{
1002
}
1000
LType
1070
     4
1000
GEN4A
1002
{
1002
}
1000
Base
1070
     3
1070
     0
1002
{
1002
}
1002
}
1000
9
1070
     8
1000
9
1002
{
1000
Color
1070
     1
1070
   253
1002
{
1002
}
1000
LType
1070
     4
1000
CONTINUOUS
1002
{
1002
}
1000
Base
1070
     3
1070
     0
1002
{
1002
}
1002
}
1000
IP
1070
     8
1000
IP
1002
{
1000
Color
1070
     1
1070
     7
1002
{
1002
}
1000
LType
1070
     4
1000
CONTINUOUS
1002
{
1002
}
1000
Base
1070
     3
1070
     0
1002
{
1002
}
1002
}
1002
}
1000
Standard
1070
     0
1002
{
1000
0N
1070
     8
1000
0N
1002
{
1000
Color
1070
     1
1070
     7
1002
{
1002
}
1000
LType
1070
     4
1000
CONTINUOUS
1002
{
1002
}
1000
Base
1070
     3
1070
     0
1002
{
1002
}
1002
}
1000
1N
1070
     8
1000
1N
1002
{
1000
Color
1070
     1
1070
    14
1002
{
1002
}
1000
LType
1070
     4
1000
CONTINUOUS
1002
{
1002
}
1000
Base
1070
     3
1070
     0
1002
{
1002
}
1002
}
1000
2N
1070
     8
1000
2N
1002
{
1000
Color
1070
     1
1070
     5
1002
{
1002
}
1000
LType
1070
     4
1000
CONTINUOUS
1002
{
1002
}
1000
Base
1070
     3
1070
     0
1002
{
1002
}
1002
}
1000
3N
1070
     8
1000
3N
1002
{
1000
Color
1070
     1
1070
     6
1002
{
1002
}
1000
LType
1070
     4
1000
GEN3
1002
{
1002
}
1000
Base
1070
     3
1070
     0
1002
{
1002
}
1002
}
1000
4N
1070
     8
1000
4N
1002
{
1000
Color
1070
     1
1070
     3
1002
{
1002
}
1000
LType
1070
     4
1000
CONTINUOUS
1002
{
1002
}
1000
Base
1070
     3
1070
     0
1002
{
1002
}
1002
}
1000
5N
1070
     8
1000
5N
1002
{
1000
Color
1070
     1
1070
     3
1002
{
1002
}
1000
LType
1070
     4
1000
CONTINUOUS
1002
{
1002
}
1000
Base
1070
     3
1070
     0
1002
{
1002
}
1002
}
1000
6N
1070
     8
1000
6N
1002
{
1000
Color
1070
     1
1070
     2
1002
{
1002
}
1000
LType
1070
     4
1000
CONTINUOUS
1002
{
1002
}
1000
Base
1070
     3
1070
     0
1002
{
1002
}
1002
}
1000
7N
1070
     8
1000
7N
1002
{
1000
Color
1070
     1
1070
     4
1002
{
1002
}
1000
LType
1070
     4
1000
GEN7
1002
{
1002
}
1000
Base
1070
     3
1070
     0
1002
{
1002
}
1002
}
1000
8N
1070
     8
1000
8N
1002
{
1000
Color
1070
     1
1070
     1
1002
{
1002
}
1000
LType
1070
     4
1000
CONTINUOUS
1002
{
1002
}
1000
Base
1070
     3
1070
     0
1002
{
1002
}
1002
}
1000
3AN
1070
     8
1000
3AN
1002
{
1000
Color
1070
     1
1070
     6
1002
{
1002
}
1000
LType
1070
     4
1000
GEN3A
1002
{
1002
}
1000
Base
1070
     3
1070
     0
1002
{
1002
}
1002
}
1000
7AN
1070
     8
1000
7AN
1002
{
1000
Color
1070
     1
1070
     4
1002
{
1002
}
1000
LType
1070
     4
1000
GEN7A
1002
{
1002
}
1000
Base
1070
     3
1070
     0
1002
{
1002
}
1002
}
1000
2AN
1070
     8
1000
2AN
1002
{
1000
Color
1070
     1
1070
     7
1002
{
1002
}
1000
LType
1070
     4
1000
GEN7
1002
{
1002
}
1000
Base
1070
     3
1070
     0
1002
{
1002
}
1002
}
1000
4AN
1070
     8
1000
4AN
1002
{
1000
Color
1070
     1
1070
     3
1002
{
1002
}
1000
LType
1070
     4
1000
GEN4A
1002
{
1002
}
1000
Base
1070
     3
1070
     0
1002
{
1002
}
1002
}
1000
9N
1070
     8
1000
9N
1002
{
1000
Color
1070
     1
1070
   253
1002
{
1002
}
1000
LType
1070
     4
1000
CONTINUOUS
1002
{
1002
}
1000
Base
1070
     3
1070
     0
1002
{
1002
}
1002
}
1000
IPN
1070
     8
1000
IPN
1002
{
1000
Color
1070
     1
1070
     7
1002
{
1002
}
1000
LType
1070
     4
1000
CONTINUOUS
1002
{
1002
}
1000
Base
1070
     3
1070
     0
1002
{
1002
}
1002
}
1002
}
1000
Extra
1070
     0
1002
{
1000
Klin
1070
     8
1000
KLIN
1002
{
1000
Color
1070
     1
1070
     1
1002
{
1002
}
1000
LType
1070
     4
1000
CONTINUOUS
1002
{
1002
}
1000
Base
1070
     3
1070
     1
1002
{
1002
}
1002
}
1000
Info
1070
     8
1000
INFO
1002
{
1000
Color
1070
     1
1070
     4
1002
{
1002
}
1000
LType
1070
     4
1000
CONTINUOUS
1002
{
1002
}
1000
Base
1070
     3
1070
     1
1002
{
1002
}
1002
}
1000
Rahm2
1070
     8
1000
RAHM2
1002
{
1000
Color
1070
     1
1070
     1
1002
{
1002
}
1000
LType
1070
     4
1000
CONTINUOUS
1002
{
1002
}
1000
Base
1070
     3
1070
     1
1002
{
1002
}
1002
}
1000
Rahm3
1070
     8
1000
RAHM3
1002
{
1000
Color
1070
     1
1070
     2
1002
{
1002
}
1000
LType
1070
     4
1000
CONTINUOUS
1002
{
1002
}
1000
Base
1070
     3
1070
     1
1002
{
1002
}
1002
}
1000
Rahm5
1070
     8
1000
RAHM5
1002
{
1000
Color
1070
     1
1070
     7
1002
{
1002
}
1000
LType
1070
     4
1000
CONTINUOUS
1002
{
1002
}
1000
Base
1070
     3
1070
     1
1002
{
1002
}
1002
}
1000
View
1070
     8
1000
VIEW
1002
{
1000
Color
1070
     1
1070
     1
1002
{
1002
}
1000
LType
1070
     4
1000
CONTINUOUS
1002
{
1002
}
1000
Base
1070
     3
1070
     1
1002
{
1002
}
1002
}
1000
Behind
1070
     8
1000
BEHIND
1002
{
1000
Color
1070
     1
1070
   253
1002
{
1002
}
1000
LType
1070
     4
1000
CONTINUOUS
1002
{
1002
}
1000
Base
1070
     3
1070
     1
1002
{
1002
}
1002
}
1002
}
  0
APPID
  5
9D3
330
99F
100
AcDbSymbolTableRecord
100
AcDbRegAppTableRecord
  2
GENIUS_GENCFG3_13
 70
     0
1001
GENIUS_GENCFG_13
1071
1043421390
1000
9D3
1000
GEN@LAYER@ENTSORT
1070
    10
1000
GenCfgObject
1000
GenCfgShort
1000
GenCfgReal
1000
GenCfgBool
1000
GenCfgString
1000
GenCfgDim
1000
GenCfgAttrInf
1000
GenCfgLaySection
1000
GenCfgLayer
1000
GenCfgEntSort
1000
ADDL
1070
     9
1000
5
1002
{
1000
Class
1070
     4
1000
SYM
1002
{
1002
}
1000
Color
1070
     1
1070
     1
1002
{
1002
}
1000
LType
1070
     4
1000
BYLAYER
1002
{
1002
}
1002
}
1000
ALTR
1070
     9
1000
4
1002
{
1000
Class
1070
     4
1000

1002
{
1002
}
1000
Color
1070
     1
1070
     7
1002
{
1002
}
1000
LType
1070
     4
1000
GEN3A
1002
{
1002
}
1002
}
1000
BELI
1070
     9
1000
4
1002
{
1000
Class
1070
     4
1000

1002
{
1002
}
1000
Color
1070
     1
1070
   256
1002
{
1002
}
1000
LType
1070
     4
1000
BYLAYER
1002
{
1002
}
1002
}
1000
BHNV
1070
     9
1000
9
1002
{
1000
Class
1070
     4
1000
INV
1002
{
1002
}
1000
Color
1070
     1
1070
   256
1002
{
1002
}
1000
LType
1070
     4
1000
BYLAYER
1002
{
1002
}
1002
}
1000
BHNVS
1070
     9
1000
BEHIND
1002
{
1000
Class
1070
     4
1000
INV
1002
{
1002
}
1000
Color
1070
     1
1070
   256
1002
{
1002
}
1000
LType
1070
     4
1000
BYLAYER
1002
{
1002
}
1002
}
1000
BLID
1070
     9
1000
4A
1002
{
1000
Class
1070
     4
1000

1002
{
1002
}
1000
Color
1070
     1
1070
   256
1002
{
1002
}
1000
LType
1070
     4
1000
BYLAYER
1002
{
1002
}
1002
}
1000
BOAP
1070
     9
1000
4A
1002
{
1000
Class
1070
     4
1000

1002
{
1002
}
1000
Color
1070
     1
1070
   256
1002
{
1002
}
1000
LType
1070
     4
1000
BYLAYER
1002
{
1002
}
1002
}
1000
BOR2
1070
     9
1000
RAHM2
1002
{
1000
Class
1070
     4
1000
SPZ,SYM
1002
{
1002
}
1000
Color
1070
     1
1070
   256
1002
{
1002
}
1000
LType
1070
     4
1000
BYLAYER
1002
{
1002
}
1002
}
1000
BOR3
1070
     9
1000
RAHM3
1002
{
1000
Class
1070
     4
1000
SPZ,SYM
1002
{
1002
}
1000
Color
1070
     1
1070
   256
1002
{
1002
}
1000
LType
1070
     4
1000
BYLAYER
1002
{
1002
}
1002
}
1000
BOR5
1070
     9
1000
RAHM5
1002
{
1000
Class
1070
     4
1000
SPZ,SYM
1002
{
1002
}
1000
Color
1070
     1
1070
   256
1002
{
1002
}
1000
LType
1070
     4
1000
BYLAYER
1002
{
1002
}
1002
}
1000
BOR7
1070
     9
1000
RAHM5
1002
{
1000
Class
1070
     4
1000
SPZ,SYM
1002
{
1002
}
1000
Color
1070
     1
1070
     7
1002
{
1002
}
1000
LType
1070
     4
1000
CONTINUOUS
1002
{
1002
}
1002
}
1000
BPAP
1070
     9
1000
4A
1002
{
1000
Class
1070
     4
1000

1002
{
1002
}
1000
Color
1070
     1
1070
   256
1002
{
1002
}
1000
LType
1070
     4
1000
BYLAYER
1002
{
1002
}
1002
}
1000
BPEX
1070
     9
1000
4A
1002
{
1000
Class
1070
     4
1000

1002
{
1002
}
1000
Color
1070
     1
1070
   256
1002
{
1002
}
1000
LType
1070
     4
1000
BYLAYER
1002
{
1002
}
1002
}
1000
BTDI
1070
     9
1000
5
1002
{
1000
Class
1070
     4
1000
DIM,SYM
1002
{
1002
}
1000
Color
1070
     1
1070
   256
1002
{
1002
}
1000
LType
1070
     4
1000
BYLAYER
1002
{
1002
}
1002
}
1000
CAL2
1070
     9
1000
4
1002
{
1000
Class
1070
     4
1000
SYM
1002
{
1002
}
1000
Color
1070
     1
1070
   256
1002
{
1002
}
1000
LType
1070
     4
1000
BYLAYER
1002
{
1002
}
1002
}
1000
CAL3
1070
     9
1000
4
1002
{
1000
Class
1070
     4
1000
SYM
1002
{
1002
}
1000
Color
1070
     1
1070
     2
1002
{
1002
}
1000
LType
1070
     4
1000
BYLAYER
1002
{
1002
}
1002
}
1000
CAL5
1070
     9
1000
4
1002
{
1000
Class
1070
     4
1000
SYM
1002
{
1002
}
1000
Color
1070
     1
1070
     7
1002
{
1002
}
1000
LType
1070
     4
1000
BYLAYER
1002
{
1002
}
1002
}
1000
CAL7
1070
     9
1000
4
1002
{
1000
Class
1070
     4
1000
SYM
1002
{
1002
}
1000
Color
1070
     1
1070
     5
1002
{
1002
}
1000
LType
1070
     4
1000
BYLAYER
1002
{
1002
}
1002
}
1000
CENN
1070
     9
1000
7A
1002
{
1000
Class
1070
     4
1000
CEN
1002
{
1002
}
1000
Color
1070
     1
1070
   256
1002
{
1002
}
1000
LType
1070
     4
1000
BYLAYER
1002
{
1002
}
1002
}
1000
CENW
1070
     9
1000
7
1002
{
1000
Class
1070
     4
1000
CEN
1002
{
1002
}
1000
Color
1070
     1
1070
   256
1002
{
1002
}
1000
LType
1070
     4
1000
BYLAYER
1002
{
1002
}
1002
}
1000
CLIN
1070
     9
1000
KLIN
1002
{
1000
Class
1070
     4
1000
SPZ
1002
{
1002
}
1000
Color
1070
     1
1070
   256
1002
{
1002
}
1000
LType
1070
     4
1000
BYLAYER
1002
{
1002
}
1002
}
1000
CON1
1070
     9
1000
0
1002
{
1000
Class
1070
     4
1000
CON,BGD
1002
{
1002
}
1000
Color
1070
     1
1070
   256
1002
{
1002
}
1000
LType
1070
     4
1000
BYLAYER
1002
{
1002
}
1002
}
1000
CON2
1070
     9
1000
1
1002
{
1000
Class
1070
     4
1000
CON,BGD
1002
{
1002
}
1000
Color
1070
     1
1070
   256
1002
{
1002
}
1000
LType
1070
     4
1000
BYLAYER
1002
{
1002
}
1002
}
1000
CON3
1070
     9
1000
2
1002
{
1000
Class
1070
     4
1000
CON,BGD
1002
{
1002
}
1000
Color
1070
     1
1070
   256
1002
{
1002
}
1000
LType
1070
     4
1000
BYLAYER
1002
{
1002
}
1002
}
1000
CON4
1070
     9
1000
2
1002
{
1000
Class
1070
     4
1000
CON,BGD
1002
{
1002
}
1000
Color
1070
     1
1070
   256
1002
{
1002
}
1000
LType
1070
     4
1000
BYLAYER
1002
{
1002
}
1002
}
1000
DERP
1070
     9
1000
4
1002
{
1000
Class
1070
     4
1000

1002
{
1002
}
1000
Color
1070
     1
1070
   256
1002
{
1002
}
1000
LType
1070
     4
1000
BYLAYER
1002
{
1002
}
1002
}
1000
DETA
1070
     9
1000
4
1002
{
1000
Class
1070
     4
1000

1002
{
1002
}
1000
Color
1070
     1
1070
   256
1002
{
1002
}
1000
LType
1070
     4
1000
BYLAYER
1002
{
1002
}
1002
}
1000
DIAG
1070
     9
1000
5
1002
{
1000
Class
1070
     4
1000
SYM
1002
{
1002
}
1000
Color
1070
     1
1070
   256
1002
{
1002
}
1000
LType
1070
     4
1000
BYLAYER
1002
{
1002
}
1002
}
1000
DILI
1070
     9
1000
5
1002
{
1000
Class
1070
     4
1000
DIM,SYM
1002
{
1002
}
1000
Color
1070
     1
1070
   256
1002
{
1002
}
1000
LType
1070
     4
1000
BYLAYER
1002
{
1002
}
1002
}
1000
DITO2
1070
     9
1000
5
1002
{
1000
Class
1070
     4
1000
DIM,SYM
1002
{
1002
}
1000
Color
1070
     1
1070
     3
1002
{
1002
}
1000
LType
1070
     4
1000
BYLAYER
1002
{
1002
}
1002
}
1000
DITO3
1070
     9
1000
5
1002
{
1000
Class
1070
     4
1000
DIM,SYM
1002
{
1002
}
1000
Color
1070
     1
1070
     2
1002
{
1002
}
1000
LType
1070
     4
1000
BYLAYER
1002
{
1002
}
1002
}
1000
DITX
1070
     9
1000
5
1002
{
1000
Class
1070
     4
1000
DIM,SYM
1002
{
1002
}
1000
Color
1070
     1
1070
     2
1002
{
1002
}
1000
LType
1070
     4
1000
CONTINUOUS
1002
{
1002
}
1002
}
1000
DIXL
1070
     9
1000
5
1002
{
1000
Class
1070
     4
1000
DIM,SYM
1002
{
1002
}
1000
Color
1070
     1
1070
   256
1002
{
1002
}
1000
LType
1070
     4
1000
BYLAYER
1002
{
1002
}
1002
}
1000
EXMP
1070
     9
1000
4A
1002
{
1000
Class
1070
     4
1000

1002
{
1002
}
1000
Color
1070
     1
1070
   256
1002
{
1002
}
1000
LType
1070
     4
1000
BYLAYER
1002
{
1002
}
1002
}
1000
FEMN
1070
     9
1000
8
1002
{
1000
Class
1070
     4
1000

1002
{
1002
}
1000
Color
1070
     1
1070
   256
1002
{
1002
}
1000
LType
1070
     4
1000
BYLAYER
1002
{
1002
}
1002
}
1000
FEMPN
1070
     9
1000
8
1002
{
1000
Class
1070
     4
1000
SYM
1002
{
1002
}
1000
Color
1070
     1
1070
     3
1002
{
1002
}
1000
LType
1070
     4
1000
BYLAYER
1002
{
1002
}
1002
}
1000
FEMSP
1070
     9
1000
4A
1002
{
1000
Class
1070
     4
1000

1002
{
1002
}
1000
Color
1070
     1
1070
   256
1002
{
1002
}
1000
LType
1070
     4
1000
CONTINUOUS
1002
{
1002
}
1002
}
1000
FEMST
1070
     9
1000
4A
1002
{
1000
Class
1070
     4
1000
SYM
1002
{
1002
}
1000
Color
1070
     1
1070
     3
1002
{
1002
}
1000
LType
1070
     4
1000
BYLAYER
1002
{
1002
}
1002
}
1000
FEMVN
1070
     9
1000
2
1002
{
1000
Class
1070
     4
1000
CON
1002
{
1002
}
1000
Color
1070
     1
1070
   256
1002
{
1002
}
1000
LType
1070
     4
1000
BYLAYER
1002
{
1002
}
1002
}
1000
FEMVT
1070
     9
1000
2
1002
{
1000
Class
1070
     4
1000
SYM
1002
{
1002
}
1000
Color
1070
     1
1070
     3
1002
{
1002
}
1000
LType
1070
     4
1000
BYLAYER
1002
{
1002
}
1002
}
1000
FLAT
1070
     9
1000
0
1002
{
1000
Class
1070
     4
1000

1002
{
1002
}
1000
Color
1070
     1
1070
   256
1002
{
1002
}
1000
LType
1070
     4
1000
BYLAYER
1002
{
1002
}
1002
}
1000
FRAR
1070
     9
1000
4A
1002
{
1000
Class
1070
     4
1000

1002
{
1002
}
1000
Color
1070
     1
1070
   256
1002
{
1002
}
1000
LType
1070
     4
1000
BYLAYER
1002
{
1002
}
1002
}
1000
GRLI
1070
     9
1000
5
1002
{
1000
Class
1070
     4
1000
SYM
1002
{
1002
}
1000
Color
1070
     1
1070
   256
1002
{
1002
}
1000
LType
1070
     4
1000
BYLAYER
1002
{
1002
}
1002
}
1000
GVLI
1070
     9
1000
4A
1002
{
1000
Class
1070
     4
1000

1002
{
1002
}
1000
Color
1070
     1
1070
   256
1002
{
1002
}
1000
LType
1070
     4
1000
BYLAYER
1002
{
1002
}
1002
}
1000
HATC
1070
     9
1000
8
1002
{
1000
Class
1070
     4
1000
HTC,BGD
1002
{
1002
}
1000
Color
1070
     1
1070
   256
1002
{
1002
}
1000
LType
1070
     4
1000
BYLAYER
1002
{
1002
}
1002
}
1000
HIDN
1070
     9
1000
3A
1002
{
1000
Class
1070
     4
1000
HID,BGD
1002
{
1002
}
1000
Color
1070
     1
1070
   256
1002
{
1002
}
1000
LType
1070
     4
1000
BYLAYER
1002
{
1002
}
1002
}
1000
HIDW
1070
     9
1000
3
1002
{
1000
Class
1070
     4
1000
HID,BGD
1002
{
1002
}
1000
Color
1070
     1
1070
   256
1002
{
1002
}
1000
LType
1070
     4
1000
BYLAYER
1002
{
1002
}
1002
}
1000
HLIN
1070
     9
1000
4
1002
{
1000
Class
1070
     4
1000
BGD
1002
{
1002
}
1000
Color
1070
     1
1070
   256
1002
{
1002
}
1000
LType
1070
     4
1000
BYLAYER
1002
{
1002
}
1002
}
1000
HOCN
1070
     9
1000
7A
1002
{
1000
Class
1070
     4
1000
CEN
1002
{
1002
}
1000
Color
1070
     1
1070
   256
1002
{
1002
}
1000
LType
1070
     4
1000
BYLAYER
1002
{
1002
}
1002
}
1000
HOCW
1070
     9
1000
7
1002
{
1000
Class
1070
     4
1000
CEN
1002
{
1002
}
1000
Color
1070
     1
1070
   256
1002
{
1002
}
1000
LType
1070
     4
1000
BYLAYER
1002
{
1002
}
1002
}
1000
INFO
1070
     9
1000
INFO
1002
{
1000
Class
1070
     4
1000
SPZ,SYM
1002
{
1002
}
1000
Color
1070
     1
1070
   256
1002
{
1002
}
1000
LType
1070
     4
1000
BYLAYER
1002
{
1002
}
1002
}
1000
LADI
1070
     9
1000
4
1002
{
1000
Class
1070
     4
1000
BGD
1002
{
1002
}
1000
Color
1070
     1
1070
   256
1002
{
1002
}
1000
LType
1070
     4
1000
BYLAYER
1002
{
1002
}
1002
}
1000
LEAD
1070
     9
1000
5
1002
{
1000
Class
1070
     4
1000
SYM
1002
{
1002
}
1000
Color
1070
     1
1070
   256
1002
{
1002
}
1000
LType
1070
     4
1000
BYLAYER
1002
{
1002
}
1002
}
1000
N_ADDL
1070
     9
1000
5N
1002
{
1000
Class
1070
     4
1000
SYM
1002
{
1002
}
1000
Color
1070
     1
1070
     1
1002
{
1002
}
1000
LType
1070
     4
1000
BYLAYER
1002
{
1002
}
1002
}
1000
N_BHNV
1070
     9
1000
9N
1002
{
1000
Class
1070
     4
1000
INV
1002
{
1002
}
1000
Color
1070
     1
1070
   256
1002
{
1002
}
1000
LType
1070
     4
1000
BYLAYER
1002
{
1002
}
1002
}
1000
N_CON1
1070
     9
1000
0N
1002
{
1000
Class
1070
     4
1000
CON,BGD
1002
{
1002
}
1000
Color
1070
     1
1070
   256
1002
{
1002
}
1000
LType
1070
     4
1000
BYLAYER
1002
{
1002
}
1002
}
1000
N_CON2
1070
     9
1000
1N
1002
{
1000
Class
1070
     4
1000
CON,BGD
1002
{
1002
}
1000
Color
1070
     1
1070
   256
1002
{
1002
}
1000
LType
1070
     4
1000
BYLAYER
1002
{
1002
}
1002
}
1000
N_CON3
1070
     9
1000
2N
1002
{
1000
Class
1070
     4
1000
CON,BGD
1002
{
1002
}
1000
Color
1070
     1
1070
   256
1002
{
1002
}
1000
LType
1070
     4
1000
BYLAYER
1002
{
1002
}
1002
}
1000
N_CON4
1070
     9
1000
2N
1002
{
1000
Class
1070
     4
1000
CON,BGD
1002
{
1002
}
1000
Color
1070
     1
1070
   256
1002
{
1002
}
1000
LType
1070
     4
1000
BYLAYER
1002
{
1002
}
1002
}
1000
N_CENN
1070
     9
1000
7AN
1002
{
1000
Class
1070
     4
1000
CEN
1002
{
1002
}
1000
Color
1070
     1
1070
   256
1002
{
1002
}
1000
LType
1070
     4
1000
BYLAYER
1002
{
1002
}
1002
}
1000
N_CENW
1070
     9
1000
7N
1002
{
1000
Class
1070
     4
1000
CEN
1002
{
1002
}
1000
Color
1070
     1
1070
   256
1002
{
1002
}
1000
LType
1070
     4
1000
BYLAYER
1002
{
1002
}
1002
}
1000
N_DILI
1070
     9
1000
5N
1002
{
1000
Class
1070
     4
1000
DIM,SYM
1002
{
1002
}
1000
Color
1070
     1
1070
   256
1002
{
1002
}
1000
LType
1070
     4
1000
BYLAYER
1002
{
1002
}
1002
}
1000
N_DITX
1070
     9
1000
5N
1002
{
1000
Class
1070
     4
1000
DIM,SYM
1002
{
1002
}
1000
Color
1070
     1
1070
     2
1002
{
1002
}
1000
LType
1070
     4
1000
CONTINUOUS
1002
{
1002
}
1002
}
1000
N_DIXL
1070
     9
1000
5N
1002
{
1000
Class
1070
     4
1000
DIM,SYM
1002
{
1002
}
1000
Color
1070
     1
1070
   256
1002
{
1002
}
1000
LType
1070
     4
1000
BYLAYER
1002
{
1002
}
1002
}
1000
N_HATC
1070
     9
1000
8N
1002
{
1000
Class
1070
     4
1000
HTC,BGD
1002
{
1002
}
1000
Color
1070
     1
1070
   256
1002
{
1002
}
1000
LType
1070
     4
1000
BYLAYER
1002
{
1002
}
1002
}
1000
N_HIDN
1070
     9
1000
3AN
1002
{
1000
Class
1070
     4
1000
HID,BGD
1002
{
1002
}
1000
Color
1070
     1
1070
   256
1002
{
1002
}
1000
LType
1070
     4
1000
BYLAYER
1002
{
1002
}
1002
}
1000
N_HIDW
1070
     9
1000
3N
1002
{
1000
Class
1070
     4
1000
HID,BGD
1002
{
1002
}
1000
Color
1070
     1
1070
   256
1002
{
1002
}
1000
LType
1070
     4
1000
BYLAYER
1002
{
1002
}
1002
}
1000
N_NGIP
1070
     9
1000
IPN
1002
{
1000
Class
1070
     4
1000

1002
{
1002
}
1000
Color
1070
     1
1070
   256
1002
{
1002
}
1000
LType
1070
     4
1000
BYLAYER
1002
{
1002
}
1002
}
1000
N_PHAN
1070
     9
1000
4AN
1002
{
1000
Class
1070
     4
1000

1002
{
1002
}
1000
Color
1070
     1
1070
   256
1002
{
1002
}
1000
LType
1070
     4
1000
BYLAYER
1002
{
1002
}
1002
}
1000
N_POSL
1070
     9
1000
5N
1002
{
1000
Class
1070
     4
1000
SYM
1002
{
1002
}
1000
Color
1070
     1
1070
   256
1002
{
1002
}
1000
LType
1070
     4
1000
BYLAYER
1002
{
1002
}
1002
}
1000
N_TCON
1070
     9
1000
0N
1002
{
1000
Class
1070
     4
1000
CON,BGD
1002
{
1002
}
1000
Color
1070
     1
1070
   256
1002
{
1002
}
1000
LType
1070
     4
1000
BYLAYER
1002
{
1002
}
1002
}
1000
N_THLI
1070
     9
1000
4N
1002
{
1000
Class
1070
     4
1000
BGD
1002
{
1002
}
1000
Color
1070
     1
1070
   256
1002
{
1002
}
1000
LType
1070
     4
1000
BYLAYER
1002
{
1002
}
1002
}
1000
N_TLEN
1070
     9
1000
0N
1002
{
1000
Class
1070
     4
1000
CON,BGD
1002
{
1002
}
1000
Color
1070
     1
1070
   256
1002
{
1002
}
1000
LType
1070
     4
1000
BYLAYER
1002
{
1002
}
1002
}
1000
N_TXT3
1070
     9
1000
6N
1002
{
1000
Class
1070
     4
1000
SYM
1002
{
1002
}
1000
Color
1070
     1
1070
   256
1002
{
1002
}
1000
LType
1070
     4
1000
BYLAYER
1002
{
1002
}
1002
}
1000
N_VPLI
1070
     9
1000
2AN
1002
{
1000
Class
1070
     4
1000

1002
{
1002
}
1000
Color
1070
     1
1070
   256
1002
{
1002
}
1000
LType
1070
     4
1000
BYLAYER
1002
{
1002
}
1002
}
1000
NGIP
1070
     9
1000
IP
1002
{
1000
Class
1070
     4
1000

1002
{
1002
}
1000
Color
1070
     1
1070
   256
1002
{
1002
}
1000
LType
1070
     4
1000
BYLAYER
1002
{
1002
}
1002
}
1000
PAL2
1070
     9
1000
RAHM2
1002
{
1000
Class
1070
     4
1000
SPZ,SYM
1002
{
1002
}
1000
Color
1070
     1
1070
   256
1002
{
1002
}
1000
LType
1070
     4
1000
BYLAYER
1002
{
1002
}
1002
}
1000
PAL3
1070
     9
1000
RAHM3
1002
{
1000
Class
1070
     4
1000
SPZ,SYM
1002
{
1002
}
1000
Color
1070
     1
1070
   256
1002
{
1002
}
1000
LType
1070
     4
1000
BYLAYER
1002
{
1002
}
1002
}
1000
PAL5
1070
     9
1000
RAHM5
1002
{
1000
Class
1070
     4
1000
SPZ,SYM
1002
{
1002
}
1000
Color
1070
     1
1070
   256
1002
{
1002
}
1000
LType
1070
     4
1000
BYLAYER
1002
{
1002
}
1002
}
1000
PAL7
1070
     9
1000
RAHM5
1002
{
1000
Class
1070
     4
1000
SPZ,SYM
1002
{
1002
}
1000
Color
1070
     1
1070
     7
1002
{
1002
}
1000
LType
1070
     4
1000
CONTINUOUS
1002
{
1002
}
1002
}
1000
PHAN
1070
     9
1000
4A
1002
{
1000
Class
1070
     4
1000

1002
{
1002
}
1000
Color
1070
     1
1070
   256
1002
{
1002
}
1000
LType
1070
     4
1000
BYLAYER
1002
{
1002
}
1002
}
1000
POSL
1070
     9
1000
5
1002
{
1000
Class
1070
     4
1000
SYM
1002
{
1002
}
1000
Color
1070
     1
1070
   256
1002
{
1002
}
1000
LType
1070
     4
1000
BYLAYER
1002
{
1002
}
1002
}
1000
POSN
1070
     9
1000
6
1002
{
1000
Class
1070
     4
1000
SYM
1002
{
1002
}
1000
Color
1070
     1
1070
     7
1002
{
1002
}
1000
LType
1070
     4
1000
BYLAYER
1002
{
1002
}
1002
}
1000
POSREF
1070
     9
1000
6
1002
{
1000
Class
1070
     4
1000
SYM
1002
{
1002
}
1000
Color
1070
     1
1070
     5
1002
{
1002
}
1000
LType
1070
     4
1000
BYLAYER
1002
{
1002
}
1002
}
1000
POSX
1070
     9
1000
5
1002
{
1000
Class
1070
     4
1000
SYM
1002
{
1002
}
1000
Color
1070
     1
1070
     2
1002
{
1002
}
1000
LType
1070
     4
1000
CONTINUOUS
1002
{
1002
}
1002
}
1000
PSEC
1070
     9
1000
4A
1002
{
1000
Class
1070
     4
1000

1002
{
1002
}
1000
Color
1070
     1
1070
   256
1002
{
1002
}
1000
LType
1070
     4
1000
BYLAYER
1002
{
1002
}
1002
}
1000
RCGN
1070
     9
1000
7A
1002
{
1000
Class
1070
     4
1000
CEN
1002
{
1002
}
1000
Color
1070
     1
1070
   256
1002
{
1002
}
1000
LType
1070
     4
1000
BYLAYER
1002
{
1002
}
1002
}
1000
RCGW
1070
     9
1000
7
1002
{
1000
Class
1070
     4
1000
CEN
1002
{
1002
}
1000
Color
1070
     1
1070
   256
1002
{
1002
}
1000
LType
1070
     4
1000
BYLAYER
1002
{
1002
}
1002
}
1000
RFDI
1070
     9
1000
4
1002
{
1000
Class
1070
     4
1000
BGD
1002
{
1002
}
1000
Color
1070
     1
1070
   256
1002
{
1002
}
1000
LType
1070
     4
1000
BYLAYER
1002
{
1002
}
1002
}
1000
RQTR
1070
     9
1000
4
1002
{
1000
Class
1070
     4
1000

1002
{
1002
}
1000
Color
1070
     1
1070
     7
1002
{
1002
}
1000
LType
1070
     4
1000
GEN7A
1002
{
1002
}
1002
}
1000
RSBO
1070
     9
1000
4
1002
{
1000
Class
1070
     4
1000
BGD
1002
{
1002
}
1000
Color
1070
     1
1070
   256
1002
{
1002
}
1000
LType
1070
     4
1000
BYLAYER
1002
{
1002
}
1002
}
1000
SBRK
1070
     9
1000
4
1002
{
1000
Class
1070
     4
1000
BGD
1002
{
1002
}
1000
Color
1070
     1
1070
   256
1002
{
1002
}
1000
LType
1070
     4
1000
BYLAYER
1002
{
1002
}
1002
}
1000
SCEN
1070
     9
1000
7
1002
{
1000
Class
1070
     4
1000

1002
{
1002
}
1000
Color
1070
     1
1070
   256
1002
{
1002
}
1000
LType
1070
     4
1000
CONTINUOUS
1002
{
1002
}
1002
}
1000
SECT
1070
     9
1000
4
1002
{
1000
Class
1070
     4
1000
BGD
1002
{
1002
}
1000
Color
1070
     1
1070
   256
1002
{
1002
}
1000
LType
1070
     4
1000
BYLAYER
1002
{
1002
}
1002
}
1000
SELN
1070
     9
1000
7A
1002
{
1000
Class
1070
     4
1000

1002
{
1002
}
1000
Color
1070
     1
1070
   256
1002
{
1002
}
1000
LType
1070
     4
1000
BYLAYER
1002
{
1002
}
1002
}
1000
SELW
1070
     9
1000
7
1002
{
1000
Class
1070
     4
1000

1002
{
1002
}
1000
Color
1070
     1
1070
   256
1002
{
1002
}
1000
LType
1070
     4
1000
BYLAYER
1002
{
1002
}
1002
}
1000
SSYS
1070
     9
1000
0
1002
{
1000
Class
1070
     4
1000

1002
{
1002
}
1000
Color
1070
     1
1070
   256
1002
{
1002
}
1000
LType
1070
     4
1000
BYLAYER
1002
{
1002
}
1002
}
1000
STLI
1070
     9
1000
4
1002
{
1000
Class
1070
     4
1000

1002
{
1002
}
1000
Color
1070
     1
1070
     7
1002
{
1002
}
1000
LType
1070
     4
1000
GEN3A
1002
{
1002
}
1002
}
1000
SYB1
1070
     9
1000
5
1002
{
1000
Class
1070
     4
1000
SYM
1002
{
1002
}
1000
Color
1070
     1
1070
   256
1002
{
1002
}
1000
LType
1070
     4
1000
BYLAYER
1002
{
1002
}
1002
}
1000
SYB2
1070
     9
1000
5
1002
{
1000
Class
1070
     4
1000
SYM
1002
{
1002
}
1000
Color
1070
     1
1070
   256
1002
{
1002
}
1000
LType
1070
     4
1000
BYLAYER
1002
{
1002
}
1002
}
1000
SYB3
1070
     9
1000
6
1002
{
1000
Class
1070
     4
1000
SYM
1002
{
1002
}
1000
Color
1070
     1
1070
   256
1002
{
1002
}
1000
LType
1070
     4
1000
CONTINUOUS
1002
{
1002
}
1002
}
1000
SYB5
1070
     9
1000
5
1002
{
1000
Class
1070
     4
1000
SYM
1002
{
1002
}
1000
Color
1070
     1
1070
     7
1002
{
1002
}
1000
LType
1070
     4
1000
BYLAYER
1002
{
1002
}
1002
}
1000
SYMN
1070
     9
1000
7A
1002
{
1000
Class
1070
     4
1000
CEN
1002
{
1002
}
1000
Color
1070
     1
1070
   256
1002
{
1002
}
1000
LType
1070
     4
1000
BYLAYER
1002
{
1002
}
1002
}
1000
SYMW
1070
     9
1000
7
1002
{
1000
Class
1070
     4
1000
CEN
1002
{
1002
}
1000
Color
1070
     1
1070
   256
1002
{
1002
}
1000
LType
1070
     4
1000
BYLAYER
1002
{
1002
}
1002
}
1000
TCON
1070
     9
1000
0
1002
{
1000
Class
1070
     4
1000
CON,BGD
1002
{
1002
}
1000
Color
1070
     1
1070
   256
1002
{
1002
}
1000
LType
1070
     4
1000
BYLAYER
1002
{
1002
}
1002
}
1000
THLI
1070
     9
1000
4
1002
{
1000
Class
1070
     4
1000
BGD
1002
{
1002
}
1000
Color
1070
     1
1070
   256
1002
{
1002
}
1000
LType
1070
     4
1000
BYLAYER
1002
{
1002
}
1002
}
1000
TIT2
1070
     9
1000
RAHM2
1002
{
1000
Class
1070
     4
1000
SPZ,SYM
1002
{
1002
}
1000
Color
1070
     1
1070
   256
1002
{
1002
}
1000
LType
1070
     4
1000
BYLAYER
1002
{
1002
}
1002
}
1000
TIT3
1070
     9
1000
RAHM3
1002
{
1000
Class
1070
     4
1000
SPZ,SYM
1002
{
1002
}
1000
Color
1070
     1
1070
   256
1002
{
1002
}
1000
LType
1070
     4
1000
BYLAYER
1002
{
1002
}
1002
}
1000
TIT5
1070
     9
1000
RAHM5
1002
{
1000
Class
1070
     4
1000
SPZ,SYM
1002
{
1002
}
1000
Color
1070
     1
1070
   256
1002
{
1002
}
1000
LType
1070
     4
1000
BYLAYER
1002
{
1002
}
1002
}
1000
TIT7
1070
     9
1000
RAHM5
1002
{
1000
Class
1070
     4
1000
SPZ,SYM
1002
{
1002
}
1000
Color
1070
     1
1070
     7
1002
{
1002
}
1000
LType
1070
     4
1000
CONTINUOUS
1002
{
1002
}
1002
}
1000
TLEN
1070
     9
1000
0
1002
{
1000
Class
1070
     4
1000
CON,BGD
1002
{
1002
}
1000
Color
1070
     1
1070
   256
1002
{
1002
}
1000
LType
1070
     4
1000
BYLAYER
1002
{
1002
}
1002
}
1000
TRKN
1070
     9
1000
7A
1002
{
1000
Class
1070
     4
1000

1002
{
1002
}
1000
Color
1070
     1
1070
   256
1002
{
1002
}
1000
LType
1070
     4
1000
BYLAYER
1002
{
1002
}
1002
}
1000
TRKW
1070
     9
1000
7
1002
{
1000
Class
1070
     4
1000

1002
{
1002
}
1000
Color
1070
     1
1070
   256
1002
{
1002
}
1000
LType
1070
     4
1000
BYLAYER
1002
{
1002
}
1002
}
1000
TRLI
1070
     9
1000
4
1002
{
1000
Class
1070
     4
1000
BGD
1002
{
1002
}
1000
Color
1070
     1
1070
   256
1002
{
1002
}
1000
LType
1070
     4
1000
BYLAYER
1002
{
1002
}
1002
}
1000
TXT1
1070
     9
1000
6
1002
{
1000
Class
1070
     4
1000
SYM
1002
{
1002
}
1000
Color
1070
     1
1070
     2
1002
{
1002
}
1000
LType
1070
     4
1000
BYLAYER
1002
{
1002
}
1002
}
1000
TXT2
1070
     9
1000
6
1002
{
1000
Class
1070
     4
1000
SYM
1002
{
1002
}
1000
Color
1070
     1
1070
     2
1002
{
1002
}
1000
LType
1070
     4
1000
BYLAYER
1002
{
1002
}
1002
}
1000
TXT3
1070
     9
1000
6
1002
{
1000
Class
1070
     4
1000
SYM
1002
{
1002
}
1000
Color
1070
     1
1070
   256
1002
{
1002
}
1000
LType
1070
     4
1000
BYLAYER
1002
{
1002
}
1002
}
1000
TXT5
1070
     9
1000
6
1002
{
1000
Class
1070
     4
1000
SYM
1002
{
1002
}
1000
Color
1070
     1
1070
     7
1002
{
1002
}
1000
LType
1070
     4
1000
BYLAYER
1002
{
1002
}
1002
}
1000
TXT7
1070
     9
1000
6
1002
{
1000
Class
1070
     4
1000
SYM
1002
{
1002
}
1000
Color
1070
     1
1070
     7
1002
{
1002
}
1000
LType
1070
     4
1000
BYLAYER
1002
{
1002
}
1002
}
1000
VIEW
1070
     9
1000
VIEW
1002
{
1000
Class
1070
     4
1000
SPZ
1002
{
1002
}
1000
Color
1070
     1
1070
   256
1002
{
1002
}
1000
LType
1070
     4
1000
BYLAYER
1002
{
1002
}
1002
}
1000
VPLI
1070
     9
1000
2A
1002
{
1000
Class
1070
     4
1000

1002
{
1002
}
1000
Color
1070
     1
1070
   256
1002
{
1002
}
1000
LType
1070
     4
1000
BYLAYER
1002
{
1002
}
1002
}
1000
ZIZA
1070
     9
1000
4
1002
{
1000
Class
1070
     4
1000
BGD
1002
{
1002
}
1000
Color
1070
     1
1070
   256
1002
{
1002
}
1000
LType
1070
     4
1000
GENZIGZAG
1002
{
1002
}
1002
}
  0
APPID
  5
9D4
330
99F
100
AcDbSymbolTableRecord
100
AcDbRegAppTableRecord
  2
GENIUS_GENCFG4_13
 70
     0
1001
GENIUS_GENCFG_13
1071
1043421390
1000
9D4
1000
GEN
1070
    12
1000
GenCfgObject
1000
GenCfgShort
1000
GenCfgReal
1000
GenCfgBool
1000
GenCfgString
1000
GenCfgDim
1000
GenCfgAttrInf
1000
GenCfgLaySection
1000
GenCfgLayer
1000
GenCfgEntSort
1000
GenCfgLType
1000
GenCfgFilter
1000
Balloon
1070
     0
1002
{
1000
GenIF
1070
     1
1070
     0
1002
{
1002
}
1000
GenPosInc
1070
     1
1070
     1
1002
{
1002
}
1000
GenPosBlk
1070
     1
1070
     8
1002
{
1002
}
1000
GenPosVar
1070
     1
1070
     0
1002
{
1002
}
1000
GenZiCir
1070
     2
1040
1.5
1002
{
1002
}
1000
MaxCharForCenteredText
1070
     1
1070
    30
1002
{
1002
}
1000
Snap
1070
     0
1002
{
1000
ActivationRadius
1070
     2
1040
1.0
1002
{
1002
}
1000
M
1070
     0
1002
{
1000
SnapStepX
1070
     2
1040
20.0
1002
{
1002
}
1000
SnapStepY
1070
     2
1040
10.0
1002
{
1002
}
1002
}
1000
I
1070
     0
1002
{
1000
SnapStepX
1070
     2
1040
1.0
1002
{
1002
}
1000
SnapStepY
1070
     2
1040
0.5
1002
{
1002
}
1002
}
1002
}
1002
}
1000
Centerline
1070
     0
1002
{
1000
ScaleNot
1070
     3
1070
     0
1002
{
1002
}
1000
M
1070
     0
1002
{
1000
GenCenAng
1070
     4
1000
45|90|135
1002
{
1002
}
1000
GenCenDia
1070
     2
1040
10.0
1002
{
1002
}
1000
GenCenDias
1070
     4
1000
10|20|30
1002
{
1002
}
1000
GenCenDist
1070
     2
1040
3.0
1002
{
1002
}
1000
GenCenLen
1070
     2
1040
10.0
1002
{
1002
}
1000
GenCenOff
1070
     2
1040
10.0
1002
{
1002
}
1002
}
1000
I
1070
     0
1002
{
1000
GenCenAng
1070
     4
1000
45|90|135
1002
{
1002
}
1000
GenCenDia
1070
     2
1040
0.5
1002
{
1002
}
1000
GenCenDias
1070
     4
1000
0.5|1.0|1.5
1002
{
1002
}
1000
GenCenDist
1070
     2
1040
0.125
1002
{
1002
}
1000
GenCenLen
1070
     2
1040
0.5
1002
{
1002
}
1000
GenCenOff
1070
     2
1040
0.5
1002
{
1002
}
1002
}
1002
}
1000
CLine
1070
     0
1002
{
1000
CAngArray
1070
     4
1000
30|45|60
1002
{
1002
}
1000
Typ
1070
     4
1000
XLINE
1002
{
1002
}
1000
M
1070
     0
1002
{
1000
CLinArray
1070
     4
1000
10|20|30
1002
{
1002
}
1002
}
1000
I
1070
     0
1002
{
1000
CLinArray
1070
     4
1000
0.125|0.25|0.5
1002
{
1002
}
1002
}
1002
}
1000
Detail
1070
     0
1002
{
1002
}
1000
Dimension
1070
     5
1002
{
1000
DIMALT
1070
     1
1070
     0
1002
{
1002
}
1000
DIMALTD
1070
     1
1070
     2
1002
{
1002
}
1000
DIMALTTD
1070
     1
1070
     4
1002
{
1002
}
1000
DIMALTTZ
1070
     1
1070
     0
1002
{
1002
}
1000
DIMALTU
1070
     1
1070
     2
1002
{
1002
}
1000
DIMALTZ
1070
     1
1070
     0
1002
{
1002
}
1000
DIMAUNIT
1070
     1
1070
     0
1002
{
1002
}
1000
DIMBLK
1070
     4
1000

1002
{
1002
}
1000
DIMBLK1
1070
     4
1000

1002
{
1002
}
1000
DIMBLK2
1070
     4
1000

1002
{
1002
}
1000
DIMCLRD
1070
     1
1070
   256
1002
{
1002
}
1000
DIMCLRE
1070
     1
1070
   256
1002
{
1002
}
1000
DIMCLRT
1070
     1
1070
     2
1002
{
1002
}
1000
DIMDLE
1070
     2
1040
0.0
1002
{
1002
}
1000
DIMFIT
1070
     1
1070
     3
1002
{
1002
}
1000
DIMJUST
1070
     1
1070
     0
1002
{
1002
}
1000
DIMLFAC
1070
     2
1040
1.0
1002
{
1002
}
1000
DIMLIM
1070
     1
1070
     0
1002
{
1002
}
1000
DIMPOST
1070
     4
1000

1002
{
1002
}
1000
DIMRND
1070
     2
1040
0.0
1002
{
1002
}
1000
DIMSAH
1070
     1
1070
     0
1002
{
1002
}
1000
DIMSCALE
1070
     2
1040
1.0
1002
{
1002
}
1000
DIMSD1
1070
     1
1070
     0
1002
{
1002
}
1000
DIMSD2
1070
     1
1070
     0
1002
{
1002
}
1000
DIMSE1
1070
     1
1070
     0
1002
{
1002
}
1000
DIMSE2
1070
     1
1070
     0
1002
{
1002
}
1000
DIMSOXD
1070
     1
1070
     0
1002
{
1002
}
1000
DIMTAD
1070
     1
1070
     0
1002
{
1002
}
1000
DIMTFAC
1070
     2
1040
0.71
1002
{
1002
}
1000
DIMTIH
1070
     1
1070
     0
1002
{
1002
}
1000
DIMTIX
1070
     1
1070
     0
1002
{
1002
}
1000
DIMTM
1070
     2
1040
0.1
1002
{
1002
}
1000
DIMTOFL
1070
     1
1070
     0
1002
{
1002
}
1000
DIMTOH
1070
     1
1070
     0
1002
{
1002
}
1000
DIMTOL
1070
     1
1070
     0
1002
{
1002
}
1000
DIMTOLJ
1070
     1
1070
     1
1002
{
1002
}
1000
DIMTP
1070
     2
1040
0.1
1002
{
1002
}
1000
DIMTSZ
1070
     2
1040
0.0
1002
{
1002
}
1000
DIMTVP
1070
     2
1040
0.0
1002
{
1002
}
1000
DIMTXSTY
1070
     4
1000
STANDARD
1002
{
1002
}
1000
DIMTZIN
1070
     1
1070
     0
1002
{
1002
}
1000
DIMUNIT
1070
     1
1070
     2
1002
{
1002
}
1000
DIMUPT
1070
     1
1070
     0
1002
{
1002
}
1000
M
1070
     0
1002
{
1000
DIMALTF
1070
     2
1040
0.03937
1002
{
1002
}
1000
DIMAPOST
1070
     4
1000
"
1002
{
1002
}
1000
DIMASZ
1070
     2
1040
2.5
1002
{
1002
}
1000
DIMCEN
1070
     2
1040
0.0
1002
{
1002
}
1000
DIMDEC
1070
     1
1070
     2
1002
{
1002
}
1000
DIMDLI
1070
     2
1040
7.0
1002
{
1002
}
1000
DIMEXE
1070
     2
1040
1.0
1002
{
1002
}
1000
DIMEXO
1070
     2
1040
1.0
1002
{
1002
}
1000
DIMGAP
1070
     2
1040
0.6
1002
{
1002
}
1000
DIMTDEC
1070
     1
1070
     3
1002
{
1002
}
1000
DIMTXT
1070
     2
1040
3.5
1002
{
1002
}
1000
DIMZIN
1070
     1
1070
     8
1002
{
1002
}
1002
}
1000
I
1070
     0
1002
{
1000
DIMALTF
1070
     2
1040
25.4
1002
{
1002
}
1000
DIMAPOST
1070
     4
1000
mm
1002
{
1002
}
1000
DIMASZ
1070
     2
1040
0.1
1002
{
1002
}
1000
DIMCEN
1070
     2
1040
0.0
1002
{
1002
}
1000
DIMDEC
1070
     1
1070
     4
1002
{
1002
}
1000
DIMDLI
1070
     2
1040
0.5
1002
{
1002
}
1000
DIMEXE
1070
     2
1040
0.1
1002
{
1002
}
1000
DIMEXO
1070
     2
1040
0.05
1002
{
1002
}
1000
DIMGAP
1070
     2
1040
0.06
1002
{
1002
}
1000
DIMTDEC
1070
     1
1070
     4
1002
{
1002
}
1000
DIMTXT
1070
     2
1040
0.12
1002
{
1002
}
1000
DIMZIN
1070
     1
1070
     7
1002
{
1002
}
1002
}
1000
GEN-ISO
1070
     5
1002
{
1000
NAME
1070
     4
1000
GEN-ISO
1002
{
1002
}
1000
DIMTAD
1070
     1
1070
     1
1002
{
1002
}
1000
DIMTOLJ
1070
     1
1070
     0
1002
{
1002
}
1000
DIMTOFL
1070
     1
1070
     1
1002
{
1002
}
1000
M
1070
     0
1002
{
1002
}
1000
I
1070
     0
1002
{
1002
}
1002
}
1000
GEN-ISO-POS
1070
     5
1002
{
1000
NAME
1070
     4
1000
GEN-ISO-POS
1002
{
1002
}
1000
DIMTOLJ
1070
     1
1070
     0
1002
{
1002
}
1000
DIMTXSTY
1070
     4
1000
STANDARD
1002
{
1002
}
1000
M
1070
     0
1002
{
1000
DIMASZ
1070
     2
1040
2.5
1002
{
1002
}
1000
DIMGAP
1070
     2
1040
1.5
1002
{
1002
}
1000
DIMTXT
1070
     2
1040
5.0
1002
{
1002
}
1002
}
1000
I
1070
     0
1002
{
1000
DIMASZ
1070
     2
1040
0.1
1002
{
1002
}
1000
DIMGAP
1070
     2
1040
0.06
1002
{
1002
}
1000
DIMTXT
1070
     2
1040
0.2
1002
{
1002
}
1002
}
1002
}
1000
GEN-ISO-CIR
1070
     5
1002
{
1000
NAME
1070
     4
1000
GEN-ISO$3
1002
{
1002
}
1000
DIMFIT
1070
     1
1070
     0
1002
{
1002
}
1000
DIMTAD
1070
     1
1070
     1
1002
{
1002
}
1000
DIMTOH
1070
     1
1070
     1
1002
{
1002
}
1000
DIMTOLJ
1070
     1
1070
     0
1002
{
1002
}
1000
DIMUPT
1070
     1
1070
     1
1002
{
1002
}
1000
M
1070
     0
1002
{
1002
}
1000
I
1070
     0
1002
{
1002
}
1002
}
1000
GEN-ISO-RAD
1070
     5
1002
{
1000
NAME
1070
     4
1000
GEN-ISO$4
1002
{
1002
}
1000
DIMFIT
1070
     1
1070
     0
1002
{
1002
}
1000
DIMTAD
1070
     1
1070
     1
1002
{
1002
}
1000
DIMTIH
1070
     1
1070
     0
1002
{
1002
}
1000
DIMTIX
1070
     1
1070
     0
1002
{
1002
}
1000
DIMTOH
1070
     1
1070
     1
1002
{
1002
}
1000
DIMTOLJ
1070
     1
1070
     0
1002
{
1002
}
1000
DIMTOFL
1070
     1
1070
     0
1002
{
1002
}
1000
DIMUPT
1070
     1
1070
     1
1002
{
1002
}
1000
M
1070
     0
1002
{
1002
}
1000
I
1070
     0
1002
{
1002
}
1002
}
1000
GEN-ISO-ORD
1070
     5
1002
{
1000
NAME
1070
     4
1000
GEN-ISO$6
1002
{
1002
}
1000
DIMTOLJ
1070
     1
1070
     0
1002
{
1002
}
1000
M
1070
     0
1002
{
1002
}
1000
I
1070
     0
1002
{
1002
}
1002
}
1000
GEN-ISO-AXE-F
1070
     5
1002
{
1000
NAME
1070
     4
1000
GEN-ISO-AXE-F
1002
{
1002
}
1000
DIMSE1
1070
     1
1070
     1
1002
{
1002
}
1000
DIMSE2
1070
     1
1070
     1
1002
{
1002
}
1000
DIMTAD
1070
     1
1070
     1
1002
{
1002
}
1000
DIMTOLJ
1070
     1
1070
     0
1002
{
1002
}
1000
DIMTOFL
1070
     1
1070
     1
1002
{
1002
}
1000
M
1070
     0
1002
{
1002
}
1000
I
1070
     0
1002
{
1002
}
1002
}
1000
GEN-ISO-AXE-H
1070
     5
1002
{
1000
NAME
1070
     4
1000
GEN-ISO-AXE-H
1002
{
1002
}
1000
DIMBLK1
1070
     4
1000
GENAXEH
1002
{
1002
}
1000
DIMLFAC
1070
     2
1040
2.0
1002
{
1002
}
1000
DIMSAH
1070
     1
1070
     1
1002
{
1002
}
1000
DIMSE1
1070
     1
1070
     1
1002
{
1002
}
1000
DIMSE2
1070
     1
1070
     1
1002
{
1002
}
1000
DIMTAD
1070
     1
1070
     1
1002
{
1002
}
1000
DIMTOLJ
1070
     1
1070
     0
1002
{
1002
}
1000
DIMTOFL
1070
     1
1070
     1
1002
{
1002
}
1000
M
1070
     0
1002
{
1002
}
1000
I
1070
     0
1002
{
1002
}
1002
}
1000
GEN-ANSI
1070
     5
1002
{
1000
NAME
1070
     4
1000
GEN-ANSI
1002
{
1002
}
1000
DIMTIH
1070
     1
1070
     1
1002
{
1002
}
1000
DIMTOH
1070
     1
1070
     1
1002
{
1002
}
1000
DIMTAD
1070
     1
1070
     0
1002
{
1002
}
1000
DIMTOLJ
1070
     1
1070
     1
1002
{
1002
}
1000
M
1070
     0
1002
{
1002
}
1000
I
1070
     0
1002
{
1002
}
1002
}
1000
GEN-ANSI-POS
1070
     5
1002
{
1000
NAME
1070
     4
1000
GEN-ANSI-POS
1002
{
1002
}
1000
DIMTOLJ
1070
     1
1070
     1
1002
{
1002
}
1000
DIMTXSTY
1070
     4
1000
STANDARD
1002
{
1002
}
1000
M
1070
     0
1002
{
1000
DIMASZ
1070
     2
1040
2.5
1002
{
1002
}
1000
DIMGAP
1070
     2
1040
1.5
1002
{
1002
}
1000
DIMTXT
1070
     2
1040
5.0
1002
{
1002
}
1002
}
1000
I
1070
     0
1002
{
1000
DIMASZ
1070
     2
1040
0.1
1002
{
1002
}
1000
DIMGAP
1070
     2
1040
0.06
1002
{
1002
}
1000
DIMTXT
1070
     2
1040
0.2
1002
{
1002
}
1002
}
1002
}
1000
GEN-ANSI-CIR
1070
     5
1002
{
1000
NAME
1070
     4
1000
GEN-ANSI$3
1002
{
1002
}
1000
DIMFIT
1070
     1
1070
     0
1002
{
1002
}
1000
DIMTAD
1070
     1
1070
     0
1002
{
1002
}
1000
DIMTIH
1070
     1
1070
     1
1002
{
1002
}
1000
DIMTIX
1070
     1
1070
     0
1002
{
1002
}
1000
DIMTOFL
1070
     1
1070
     0
1002
{
1002
}
1000
DIMTOH
1070
     1
1070
     1
1002
{
1002
}
1000
DIMTOLJ
1070
     1
1070
     1
1002
{
1002
}
1000
DIMUPT
1070
     1
1070
     1
1002
{
1002
}
1000
M
1070
     0
1002
{
1002
}
1000
I
1070
     0
1002
{
1002
}
1002
}
1000
GEN-ANSI-RAD
1070
     5
1002
{
1000
NAME
1070
     4
1000
GEN-ANSI$4
1002
{
1002
}
1000
DIMFIT
1070
     1
1070
     0
1002
{
1002
}
1000
DIMTAD
1070
     1
1070
     0
1002
{
1002
}
1000
DIMTIH
1070
     1
1070
     1
1002
{
1002
}
1000
DIMTIX
1070
     1
1070
     0
1002
{
1002
}
1000
DIMTOFL
1070
     1
1070
     0
1002
{
1002
}
1000
DIMTOH
1070
     1
1070
     1
1002
{
1002
}
1000
DIMTOLJ
1070
     1
1070
     1
1002
{
1002
}
1000
DIMUPT
1070
     1
1070
     1
1002
{
1002
}
1000
M
1070
     0
1002
{
1002
}
1000
I
1070
     0
1002
{
1002
}
1002
}
1000
GEN-ANSI-ORD
1070
     5
1002
{
1000
NAME
1070
     4
1000
GEN-ANSI$6
1002
{
1002
}
1000
DIMTAD
1070
     1
1070
     0
1002
{
1002
}
1000
DIMTIH
1070
     1
1070
     1
1002
{
1002
}
1000
DIMTOH
1070
     1
1070
     1
1002
{
1002
}
1000
DIMTOLJ
1070
     1
1070
     1
1002
{
1002
}
1000
M
1070
     0
1002
{
1002
}
1000
I
1070
     0
1002
{
1002
}
1002
}
1000
GEN-ANSI-AXE-F
1070
     5
1002
{
1000
NAME
1070
     4
1000
GEN-ANSI-AXE-F
1002
{
1002
}
1000
DIMBLK1
1070
     4
1000
GENAXEH
1002
{
1002
}
1000
DIMSAH
1070
     1
1070
     1
1002
{
1002
}
1000
DIMSE1
1070
     1
1070
     1
1002
{
1002
}
1000
DIMSE2
1070
     1
1070
     1
1002
{
1002
}
1000
DIMTAD
1070
     1
1070
     0
1002
{
1002
}
1000
DIMTIH
1070
     1
1070
     1
1002
{
1002
}
1000
DIMTOH
1070
     1
1070
     1
1002
{
1002
}
1000
DIMTOLJ
1070
     1
1070
     1
1002
{
1002
}
1000
M
1070
     0
1002
{
1002
}
1000
I
1070
     0
1002
{
1002
}
1002
}
1000
GEN-ANSI-AXE-H
1070
     5
1002
{
1000
NAME
1070
     4
1000
GEN-ANSI-AXE-H
1002
{
1002
}
1000
DIMBLK1
1070
     4
1000
GENAXEH
1002
{
1002
}
1000
DIMLFAC
1070
     2
1040
2.0
1002
{
1002
}
1000
DIMSAH
1070
     1
1070
     1
1002
{
1002
}
1000
DIMSE1
1070
     1
1070
     1
1002
{
1002
}
1000
DIMSE2
1070
     1
1070
     1
1002
{
1002
}
1000
DIMTAD
1070
     1
1070
     0
1002
{
1002
}
1000
DIMTOFL
1070
     1
1070
     1
1002
{
1002
}
1000
DIMTOLJ
1070
     1
1070
     1
1002
{
1002
}
1000
M
1070
     0
1002
{
1002
}
1000
I
1070
     0
1002
{
1002
}
1002
}
1002
}
1000
DimSet
1070
     0
1002
{
1000
ChainSum
1070
     3
1070
     0
1002
{
1002
}
1000
DimDclTyp0
1070
     4
1000
dim23
1002
{
1002
}
1000
HorBra
1070
     3
1070
     0
1002
{
1002
}
1000
StrDia
1070
     4
1000
%%c<>
1002
{
1002
}
1000
StrRad
1070
     4
1000
R<>
1002
{
1002
}
1000
TextMinus
1070
     4
1000
<>
1002
{
1002
}
1000
TextPlus
1070
     4
1000
<>
1002
{
1002
}
1000
M
1070
     0
1002
{
1000
DimdliFirst
1070
     2
1040
10.0
1002
{
1002
}
1000
PointMakeDist
1070
     2
1040
10.0
1002
{
1002
}
1002
}
1000
I
1070
     0
1002
{
1000
DimdliFirst
1070
     2
1040
0.5
1002
{
1002
}
1000
PointMakeDist
1070
     2
1040
0.5
1002
{
1002
}
1002
}
1000
FitGrade
1070
     4
1000
h7
1002
{
1002
}
1002
}
1000
Drawing
1070
     0
1002
{
1000
ChamferDimMode
1070
     1
1070
     2
1002
{
1002
}
1000
Gen_Fiso
1070
    -3
1040
1.0
1002
{
1002
}
1000
GenDimStil
1070
     4
1000
ISO
1002
{
1002
}
1000
GenDwgUScale
1070
     2
1040
1.0
1002
{
1002
}
1000
GenInch
1070
     4
1000
M
1002
{
1002
}
1000
GenPlotScale
1070
     4
1000
1:4.5
1002
{
1002
}
1000
Revisi
1070
     4
1000
0
1002
{
1002
}
1002
}
1000
DwgVar
1070
     0
1002
{
1000
M
1070
     0
1002
{
1002
}
1000
I
1070
     0
1002
{
1002
}
1002
}
1000
Hatch
1070
     0
1002
{
1000
GenHtcFlag
1070
     3
1070
     0
1002
{
1002
}
1002
}
1000
Info_Pos
1070
     0
1002
{
1000
>
1002
}
1000
Layer
1070
     7
1002
{
1000
Defs
1070
     0
1002
{
1000
>
1002
}
1000
EntSort
1070
     0
1002
{
1000
>
1002
}
1000
Match
1070
     0
1002
{
1002
}
1000
Settings
1070
     0
1002
{
1000
FocGrNC
1070
     3
1070
     0
1002
{
1002
}
1000
FocGrLo
1070
     3
1070
     0
1002
{
1002
}
1000
FocLoNC
1070
     3
1070
     0
1002
{
1002
}
1000
FocusCol
1070
     1
1070
   253
1002
{
1002
}
1000
GenStdLG
1070
     4
1000

1002
{
1002
}
1000
LayMatch
1070
     3
1070
     0
1002
{
1002
}
1000
LgOff
1070
     3
1070
     0
1002
{
1002
}
1000
CurLG
1070
    -5
1000

1002
{
1002
}
1002
}
1002
}
1000
LType
1070
     0
1002
{
1000
GEN3
1070
    10
1000
genius.lin
1002
{
1002
}
1000
GEN7
1070
    10
1000
genius.lin
1002
{
1002
}
1000
GEN4A
1070
    10
1000
genius.lin
1002
{
1002
}
1000
GEN3A
1070
    10
1000
genius.lin
1002
{
1002
}
1000
GEN7A
1070
    10
1000
genius.lin
1002
{
1002
}
1000
GENZIGZAG
1070
    10
1000
genius.lin
1002
{
1002
}
1002
}
1000
Objecter
1070
     0
1002
{
1000
CreateGroups
1070
     3
1070
     0
1002
{
1002
}
1000
LaySwitch
1070
     3
1070
     1
1002
{
1002
}
1000
LastObj
1070
    -5
1000
0
1002
{
1002
}
1000
TimeStamp
1070
    -5
1000
20030124.16161517
1002
{
1002
}
1002
}
1000
OSWiz
1070
     0
1002
{
1000
Filter
1070
     0
1002
{
1000
HATCH
1070
    11
1002
{
1000
EntityType
1070
     4
1000
LINE
1002
{
1002
}
1000
Layer
1070
     4
1000
8,8N,*-8,*-8N
1002
{
1002
}
1000
Linetype
1070
     4
1000
*
1002
{
1002
}
1000
Color
1070
     4
1000
*
1002
{
1002
}
1000
ApplyInDims
1070
     3
1070
     1
1002
{
1002
}
1002
}
1000
SYMBOLS
1070
    11
1002
{
1000
EntityType
1070
     4
1000
*
1002
{
1002
}
1000
Layer
1070
     4
1000
[5-6],[5-6]N,*-[5-6],*-[5-6]N
1002
{
1002
}
1000
Linetype
1070
     4
1000
*
1002
{
1002
}
1000
Color
1070
     4
1000
*
1002
{
1002
}
1000
ApplyInDims
1070
     3
1070
     1
1002
{
1002
}
1002
}
1000
FEM
1070
    11
1002
{
1000
EntityType
1070
     4
1000
*
1002
{
1002
}
1000
Layer
1070
     4
1000
4A,4AN,*-4A,*-4AN
1002
{
1002
}
1000
Linetype
1070
     4
1000
*
1002
{
1002
}
1000
Color
1070
     4
1000
*
1002
{
1002
}
1000
ApplyInDims
1070
     3
1070
     1
1002
{
1002
}
1002
}
1002
}
1002
}
1000
PaList
1070
     0
1002
{
1000
AutoUpdatePartList
1070
     1
1070
     0
1002
{
1002
}
1000
ReadInfoPoint
1070
     3
1070
     0
1002
{
1002
}
1000
ReadPosNr
1070
     3
1070
     1
1002
{
1002
}
1000
RevStr
1070
     4
1000
0
1002
{
1002
}
1002
}
1000
Paper
1070
     0
1002
{
1002
}
1000
PartDB
1070
     0
1002
{
1000
GenDbOwner
1070
     4
1000

1002
{
1002
}
1002
}
1000
System
1070
     0
1002
{
1002
}
1000
Title
1070
     0
1002
{
1000
MakeView
1070
     1
1070
     2
1002
{
1002
}
1002
}
1000
Tools
1070
     0
1002
{
1000
Trans
1070
     0
1002
{
1000
Drawingtranslation
1070
    -4
1070
     1
1002
{
1002
}
1000
upreserve
1070
     3
1070
     0
1002
{
1002
}
1000
originally_on
1070
    -4
1070
     0
1002
{
1002
}
1000
sourcelang
1070
    -5
1000
D
1002
{
1002
}
1002
}
1002
}
  0
APPID
  5
9D5
330
99F
100
AcDbSymbolTableRecord
100
AcDbRegAppTableRecord
  2
GENIUS_GENOENT_13
 70
     0
  0
APPID
  5
9D6
330
99F
100
AcDbSymbolTableRecord
100
AcDbRegAppTableRecord
  2
GENIUS_GEFCFG0_13
 70
     0
  0
APPID
  5
9D7
330
99F
100
AcDbSymbolTableRecord
100
AcDbRegAppTableRecord
  2
GENIUS_GENOBJ_13
 70
     0
  0
APPID
  5
9D8
330
99F
100
AcDbSymbolTableRecord
100
AcDbRegAppTableRecord
  2
GENIUS_GENODEF_13
 70
     0
  0
APPID
  5
9D9
330
99F
100
AcDbSymbolTableRecord
100
AcDbRegAppTableRecord
  2
GENIUS_GENOLIS_13
 70
     0
  0
APPID
  5
9DA
330
99F
100
AcDbSymbolTableRecord
100
AcDbRegAppTableRecord
  2
GENIUS_GENOREF_13
 70
     0
  0
APPID
  5
9DB
330
99F
100
AcDbSymbolTableRecord
100
AcDbRegAppTableRecord
  2
GENIUS_GENOBJ-N-TIT_13
 70
     0
  0
APPID
  5
9DC
330
99F
100
AcDbSymbolTableRecord
100
AcDbRegAppTableRecord
  2
GENIUS_GENTITLE_13
 70
     0
  0
APPID
  5
9DD
330
99F
100
AcDbSymbolTableRecord
100
AcDbRegAppTableRecord
  2
GENIUS_GENZVEED_13
 70
     0
  0
APPID
  5
9DE
330
99F
100
AcDbSymbolTableRecord
100
AcDbRegAppTableRecord
  2
GENIUS_GENOBJ-N-SDF_13
 70
     0
  0
APPID
  5
9DF
330
99F
100
AcDbSymbolTableRecord
100
AcDbRegAppTableRecord
  2
GENIUS_GENSCREG_13
 70
     0
  0
APPID
  5
9E0
330
99F
100
AcDbSymbolTableRecord
100
AcDbRegAppTableRecord
  2
GENIUS_GENREC_13
 70
     0
  0
APPID
  5
9E1
330
99F
100
AcDbSymbolTableRecord
100
AcDbRegAppTableRecord
  2
GENIUS_GENOBJ-N-REC_13
 70
     0
  0
APPID
  5
9E2
330
99F
100
AcDbSymbolTableRecord
100
AcDbRegAppTableRecord
  2
GEV_VCCNULL_SWITCH_OFF
 70
     0
  0
APPID
  5
9E3
330
99F
100
AcDbSymbolTableRecord
100
AcDbRegAppTableRecord
  2
GENIUS_GENDTOL_13
 70
     0
  0
APPID
  5
9E4
330
99F
100
AcDbSymbolTableRecord
100
AcDbRegAppTableRecord
  2
GENIUS_GENOBJ-N-CEN_13
 70
     0
  0
APPID
  5
9E5
330
99F
100
AcDbSymbolTableRecord
100
AcDbRegAppTableRecord
  2
GENIUS_GENOBJ-N-HTC_13
 70
     0
  0
APPID
  5
9E6
330
99F
100
AcDbSymbolTableRecord
100
AcDbRegAppTableRecord
  2
GENIUS_GENHATCH_13
 70
     0
  0
APPID
  5
9E7
330
99F
100
AcDbSymbolTableRecord
100
AcDbRegAppTableRecord
  2
GENIUS_GENFIL_13
 70
     0
  0
APPID
  5
9E8
330
99F
100
AcDbSymbolTableRecord
100
AcDbRegAppTableRecord
  2
GENIUS_GENOBJ-N-CHA_13
 70
     0
  0
APPID
  5
9E9
330
99F
100
AcDbSymbolTableRecord
100
AcDbRegAppTableRecord
  2
GENIUS_GENOBJ-N-FIL_13
 70
     0
  0
APPID
  5
A2F
330
99F
100
AcDbSymbolTableRecord
100
AcDbRegAppTableRecord
  2
MCAD_NO_VIS
 70
     0
  0
APPID
  5
A30
330
99F
100
AcDbSymbolTableRecord
100
AcDbRegAppTableRecord
  2
ACAD_TEMP_GRAPHIC
 70
     0
  0
APPID
  5
A60
330
99F
100
AcDbSymbolTableRecord
100
AcDbRegAppTableRecord
  2
AD_DRAW
 70
     0
  0
APPID
  5
A63
330
99F
100
AcDbSymbolTableRecord
100
AcDbRegAppTableRecord
  2
ACATTRIBSERVICES
 70
     0
  0
APPID
  5
A83
330
99F
100
AcDbSymbolTableRecord
100
AcDbRegAppTableRecord
  2
DESIGNERASSEMBLIES
 70
     0
  0
APPID
  5
A89
330
99F
100
AcDbSymbolTableRecord
100
AcDbRegAppTableRecord
  2
ACADM_DIM_EDIT
 70
     0
  0
APPID
  5
A8A
330
99F
100
AcDbSymbolTableRecord
100
AcDbRegAppTableRecord
  2
AMDT_DM_ADJ
 70
     0
  0
APPID
  5
ABC
330
99F
100
AcDbSymbolTableRecord
100
AcDbRegAppTableRecord
  2
ACAD_DSTYLE_DIMARC_LENGTH_SYMBOL
 70
     0
  0
APPID
  5
ABD
330
99F
100
AcDbSymbolTableRecord
100
AcDbRegAppTableRecord
  2
ACAD_DSTYLE_DIMJOGGED_JOGANGLE_SYMBOL
 70
     0
  0
APPID
  5
AF0
330
99F
100
AcDbSymbolTableRecord
100
AcDbRegAppTableRecord
  2
GENIUS_GENSCREG_15
 70
     0
  0
APPID
  5
B2F
330
99F
100
AcDbSymbolTableRecord
100
AcDbRegAppTableRecord
  2
AcAecLayerStandard
 70
     0
  0
APPID
  5
B3C
330
99F
100
AcDbSymbolTableRecord
100
AcDbRegAppTableRecord
  2
ACAD_EXEMPT_FROM_CAD_STANDARDS
 70
     0
  0
ENDTAB
  0
TABLE
  2
DIMSTYLE
  5
9A0
330
0
100
AcDbSymbolTable
 70
    10
100
AcDbDimStyleTable
 71
     1
340
9EB
  0
DIMSTYLE
105
9EA
330
9A0
100
AcDbSymbolTableRecord
100
AcDbDimStyleTableRecord
  2
STANDARD
 70
     0
271
     2
272
     2
284
     8
285
     8
286
     8
340
9A5
  0
DIMSTYLE
105
9EB
102
{ACAD_REACTORS
330
355
330
38B
330
3B1
330
76C
102
}
330
9A0
100
AcDbSymbolTableRecord
100
AcDbDimStyleTableRecord
  2
GEN-ISO
 70
     0
  3
<>
 40
4.5
 41
2.5
 42
1.0
 43
7.0
 44
1.0
 47
0.1
 48
0.1
 73
     0
 74
     0
 77
     1
 78
     8
140
3.5
141
0.0
143
0.03937
146
0.71
147
0.6
172
     1
176
   256
177
   256
178
     2
271
     2
272
     2
284
     8
285
     8
286
     8
340
9A5
  0
DIMSTYLE
105
ABB
330
9A0
100
AcDbSymbolTableRecord
100
AcDbDimStyleTableRecord
  2
AM_DIN
 70
     0
  4
"
 41
2.5
 42
1.0
 43
10.0
 44
1.0
 47
0.1
 48
0.1
 73
     0
 74
     0
 77
     1
 78
     8
 79
     2
140
3.5
141
0.0
143
0.0393701
146
0.71
147
1.5
172
     1
176
   256
177
   256
178
     2
271
     2
272
     3
274
     4
283
     0
284
     8
340
9A5
371
    -1
372
    -1
1001
ACAD_DSTYLE_DIMARC_LENGTH_SYMBOL
1070
   379
1070
     0
1001
ACAD_DSTYLE_DIMJOGGED_JOGANGLE_SYMBOL
1070
   384
1040
1.570796326794896
  0
DIMSTYLE
105
ACC
330
9A0
100
AcDbSymbolTableRecord
100
AcDbDimStyleTableRecord
  2
AM_DIN$3
 70
     0
  4
"
 41
2.5
 42
1.0
 43
10.0
 44
1.0
 47
0.1
 48
0.1
 73
     0
 77
     1
 78
     8
 79
     2
140
3.5
141
0.0
143
0.0393701
146
0.71
147
1.5
176
   256
177
   256
178
     2
271
     2
272
     3
274
     4
283
     0
284
     8
288
     1
289
     0
340
9A5
371
    -1
372
    -1
1001
ACAD_DSTYLE_DIMARC_LENGTH_SYMBOL
1070
   379
1070
     0
1001
ACAD_DSTYLE_DIMJOGGED_JOGANGLE_SYMBOL
1070
   384
1040
1.570796326794896
  0
DIMSTYLE
105
AD1
330
9A0
100
AcDbSymbolTableRecord
100
AcDbDimStyleTableRecord
  2
AM_DIN$4
 70
     0
  4
"
 41
2.5
 42
1.0
 43
10.0
 44
1.0
 47
0.1
 48
0.1
 73
     0
 77
     1
 78
     8
 79
     2
140
3.5
141
0.0
143
0.0393701
146
0.71
147
1.5
176
   256
177
   256
178
     2
271
     2
272
     3
274
     4
283
     0
284
     8
288
     1
289
     0
340
9A5
371
    -1
372
    -1
1001
ACAD_DSTYLE_DIMARC_LENGTH_SYMBOL
1070
   379
1070
     0
1001
ACAD_DSTYLE_DIMJOGGED_JOGANGLE_SYMBOL
1070
   384
1040
1.570796326794896
  0
DIMSTYLE
105
AD6
330
9A0
100
AcDbSymbolTableRecord
100
AcDbDimStyleTableRecord
  2
AM_DIN$6
 70
     0
  4
"
 41
2.5
 42
1.0
 43
10.0
 44
1.0
 47
0.1
 48
0.1
 73
     0
 74
     0
 78
     8
 79
     2
140
3.5
141
0.0
143
0.0393701
146
0.71
147
1.5
172
     1
176
   256
177
   256
178
     2
271
     2
272
     3
274
     4
283
     0
284
     8
340
9A5
371
    -1
372
    -1
1001
ACAD_DSTYLE_DIMARC_LENGTH_SYMBOL
1070
   379
1070
     0
1001
ACAD_DSTYLE_DIMJOGGED_JOGANGLE_SYMBOL
1070
   384
1040
1.570796326794896
  0
DIMSTYLE
105
ADB
330
9A0
100
AcDbSymbolTableRecord
100
AcDbDimStyleTableRecord
  2
AM_DIN$7
 70
     0
  4
"
 41
2.5
 42
1.0
 43
10.0
 44
1.0
 47
0.1
 48
0.1
 73
     0
 74
     0
 77
     1
 78
     8
 79
     2
140
5.0
141
0.0
143
0.0393701
146
0.71
147
1.5
172
     1
176
   256
177
   256
178
     2
271
     2
272
     3
274
     4
283
     0
284
     8
340
9A5
371
    -1
372
    -1
1001
ACAD_DSTYLE_DIMARC_LENGTH_SYMBOL
1070
   379
1070
     0
1001
ACAD_DSTYLE_DIMJOGGED_JOGANGLE_SYMBOL
1070
   384
1040
1.570796326794896
  0
DIMSTYLE
105
AE0
330
9A0
100
AcDbSymbolTableRecord
100
AcDbDimStyleTableRecord
  2
AM_DIN$SF
 70
     0
  4
"
 41
2.5
 42
1.0
 43
10.0
 44
1.0
 47
0.1
 48
0.1
 73
     0
 74
     0
 75
     1
 76
     1
 77
     1
 78
     8
 79
     2
140
3.5
141
0.0
143
0.0393701
146
0.71
147
1.5
172
     1
176
   256
177
   256
178
     2
271
     2
272
     3
274
     4
283
     0
284
     8
340
9A5
371
    -1
372
    -1
1001
ACAD_DSTYLE_DIMARC_LENGTH_SYMBOL
1070
   379
1070
     0
1001
ACAD_DSTYLE_DIMJOGGED_JOGANGLE_SYMBOL
1070
   384
1040
1.570796326794896
  0
DIMSTYLE
105
AE9
330
9A0
100
AcDbSymbolTableRecord
100
AcDbDimStyleTableRecord
  2
AM_DIN$SH
 70
     0
  4
"
 41
2.5
 42
1.0
 43
10.0
 44
1.0
 47
0.1
 48
0.1
 73
     0
 74
     0
 75
     1
 76
     1
 77
     1
 78
     8
 79
     2
140
3.5
141
0.0
143
0.0393701
144
2.0
146
0.71
147
1.5
172
     1
173
     1
176
   256
177
   256
178
     2
271
     2
272
     3
274
     4
283
     0
284
     8
340
9A5
343
AE1
371
    -1
372
    -1
1001
ACAD_DSTYLE_DIMARC_LENGTH_SYMBOL
1070
   379
1070
     0
1001
ACAD_DSTYLE_DIMJOGGED_JOGANGLE_SYMBOL
1070
   384
1040
1.570796326794896
  0
DIMSTYLE
105
B54
102
{ACAD_REACTORS
330
355
330
38B
330
3B1
330
76C
330
B89
330
D0A
330
D47
102
}
330
9A0
100
AcDbSymbolTableRecord
100
AcDbDimStyleTableRecord
  2
GEN-ISO$0
 70
     0
  3
<>
 40
4.5
 41
2.5
 42
1.0
 43
7.0
 44
1.0
 47
0.1
 48
0.1
 73
     0
 74
     0
 77
     1
 78
     8
140
3.5
141
0.0
143
0.03937
146
0.71
147
0.6
172
     1
176
   256
177
   256
178
     2
271
     2
272
     2
284
     8
285
     8
286
     8
340
9A5
  0
ENDTAB
  0
TABLE
  2
BLOCK_RECORD
  5
997
330
0
100
AcDbSymbolTable
 70
    20
  0
BLOCK_RECORD
  5
9AD
102
{ACAD_XDICTIONARY
360
BEF
102
}
330
997
100
AcDbSymbolTableRecord
100
AcDbBlockTableRecord
  2
*MODEL_SPACE
340
A27
  0
BLOCK_RECORD
  5
9AA
330
997
100
AcDbSymbolTableRecord
100
AcDbBlockTableRecord
  2
*PAPER_SPACE
340
A28
  0
BLOCK_RECORD
  5
9B5
330
997
100
AcDbSymbolTableRecord
100
AcDbBlockTableRecord
  2
*X0
340
0
102
{BLKREFS
331
498
102
}
  0
BLOCK_RECORD
  5
9B6
330
997
100
AcDbSymbolTableRecord
100
AcDbBlockTableRecord
  2
*X1
340
0
102
{BLKREFS
331
4A9
102
}
  0
BLOCK_RECORD
  5
9B7
330
997
100
AcDbSymbolTableRecord
100
AcDbBlockTableRecord
  2
*X2
340
0
102
{BLKREFS
331
4B8
102
}
  0
BLOCK_RECORD
  5
9B8
330
997
100
AcDbSymbolTableRecord
100
AcDbBlockTableRecord
  2
*X3
340
0
102
{BLKREFS
331
4C7
102
}
  0
BLOCK_RECORD
  5
9B9
330
997
100
AcDbSymbolTableRecord
100
AcDbBlockTableRecord
  2
*X4
340
0
102
{BLKREFS
331
4D6
102
}
  0
BLOCK_RECORD
  5
9BA
330
997
100
AcDbSymbolTableRecord
100
AcDbBlockTableRecord
  2
*X5
340
0
102
{BLKREFS
331
4E4
102
}
  0
BLOCK_RECORD
  5
9BB
330
997
100
AcDbSymbolTableRecord
100
AcDbBlockTableRecord
  2
*X6
340
0
102
{BLKREFS
331
4F2
102
}
  0
BLOCK_RECORD
  5
9BC
330
997
100
AcDbSymbolTableRecord
100
AcDbBlockTableRecord
  2
*X7
340
0
102
{BLKREFS
331
500
102
}
  0
BLOCK_RECORD
  5
9BD
330
997
100
AcDbSymbolTableRecord
100
AcDbBlockTableRecord
  2
*X8
340
0
102
{BLKREFS
331
50F
102
}
  0
BLOCK_RECORD
  5
9BF
330
997
100
AcDbSymbolTableRecord
100
AcDbBlockTableRecord
  2
*X9
340
0
102
{BLKREFS
331
6BA
102
}
  0
BLOCK_RECORD
  5
9C5
330
997
100
AcDbSymbolTableRecord
100
AcDbBlockTableRecord
  2
*X10
340
0
102
{BLKREFS
331
90E
102
}
  0
BLOCK_RECORD
  5
AE1
330
997
100
AcDbSymbolTableRecord
100
AcDbBlockTableRecord
  2
GENAXEH
340
0
  0
BLOCK_RECORD
  5
AFE
330
997
100
AcDbSymbolTableRecord
100
AcDbBlockTableRecord
  2
*D13
340
0
  0
BLOCK_RECORD
  5
B0C
330
997
100
AcDbSymbolTableRecord
100
AcDbBlockTableRecord
  2
*D14
340
0
  0
BLOCK_RECORD
  5
B18
330
997
100
AcDbSymbolTableRecord
100
AcDbBlockTableRecord
  2
*D15
340
0
  0
BLOCK_RECORD
  5
B8A
330
997
100
AcDbSymbolTableRecord
100
AcDbBlockTableRecord
  2
*D16
340
0
  0
BLOCK_RECORD
  5
D0B
330
997
100
AcDbSymbolTableRecord
100
AcDbBlockTableRecord
  2
*D17
340
0
  0
BLOCK_RECORD
  5
D23
330
997
100
AcDbSymbolTableRecord
100
AcDbBlockTableRecord
  2
*D18
340
0
  0
BLOCK_RECORD
  5
D48
330
997
100
AcDbSymbolTableRecord
100
AcDbBlockTableRecord
  2
*D19
340
0
  0
ENDTAB
  0
ENDSEC
  0
SECTION
  2
BLOCKS
  0
BLOCK
  5
9F4
330
9AD
100
AcDbEntity
  8
0
100
AcDbBlockBegin
  2
*MODEL_SPACE
 70
     0
 10
0.0
 20
0.0
 30
0.0
  3
*MODEL_SPACE
  1

  0
ENDBLK
  5
9F5
330
9AD
100
AcDbEntity
  8
0
100
AcDbBlockEnd
  0
BLOCK
  5
9F2
330
9AA
100
AcDbEntity
 67
     1
  8
0
100
AcDbBlockBegin
  2
*PAPER_SPACE
 70
     0
 10
0.0
 20
0.0
 30
0.0
  3
*PAPER_SPACE
  1

  0
ENDBLK
  5
9F3
330
9AA
100
AcDbEntity
 67
     1
  8
0
100
AcDbBlockEnd
  0
BLOCK
  5
497
330
9B5
100
AcDbEntity
  8
0
100
AcDbBlockBegin
  2
*X0
 70
     1
 10
0.0
 20
0.0
 30
0.0
  3
*X0
  1
D:\Integra\Scan_2\50094000.dwg
  0
LINE
  5
499
330
9B5
100
AcDbEntity
  8
0
 62
     0
100
AcDbLine
 10
118.368393
 20
652.660841
 30
0.0
 11
108.072414
 21
662.95682
 31
0.0
  0
LINE
  5
49A
330
9B5
100
AcDbEntity
  8
0
 62
     0
100
AcDbLine
 10
111.721589
 20
652.660841
 30
0.0
 11
108.072414
 21
656.310017
 31
0.0
  0
LINE
  5
49B
330
9B5
100
AcDbEntity
  8
0
 62
     0
100
AcDbLine
 10
119.103478
 20
658.572559
 30
0.0
 11
108.072414
 21
669.6036239999999
 31
0.0
  0
LINE
  5
49C
330
9B5
100
AcDbEntity
  8
0
 62
     0
100
AcDbLine
 10
119.103478
 20
665.219363
 30
0.0
 11
112.629769
 21
671.693072
 31
0.0
  0
ENDBLK
  5
49D
330
9B5
100
AcDbEntity
  8
0
100
AcDbBlockEnd
  0
BLOCK
  5
4A8
330
9B6
100
AcDbEntity
  8
0
100
AcDbBlockBegin
  2
*X1
 70
     1
 10
0.0
 20
0.0
 30
0.0
  3
*X1
  1
D:\Integra\Scan_2\50094000.dwg
  0
LINE
  5
4AA
330
9B6
100
AcDbEntity
  8
0
 62
     0
100
AcDbLine
 10
138.308804
 20
652.660841
 30
0.0
 11
129.103478
 21
661.866167
 31
0.0
  0
LINE
  5
4AB
330
9B6
100
AcDbEntity
  8
0
 62
     0
100
AcDbLine
 10
131.662001
 20
652.660841
 30
0.0
 11
129.103478
 21
655.219363
 31
0.0
  0
LINE
  5
4AC
330
9B6
100
AcDbEntity
  8
0
 62
     0
100
AcDbLine
 10
139.651045
 20
657.965404
 30
0.0
 11
129.103478
 21
668.512971
 31
0.0
  0
LINE
  5
4AD
330
9B6
100
AcDbEntity
  8
0
 62
     0
100
AcDbLine
 10
139.651045
 20
664.612208
 30
0.0
 11
132.570181
 21
671.693072
 31
0.0
  0
LINE
  5
4AE
330
9B6
100
AcDbEntity
  8
0
 62
     0
100
AcDbLine
 10
139.651045
 20
671.2590119999999
 30
0.0
 11
139.216984
 21
671.693072
 31
0.0
  0
ENDBLK
  5
4AF
330
9B6
100
AcDbEntity
  8
0
100
AcDbBlockEnd
  0
BLOCK
  5
4B7
330
9B7
100
AcDbEntity
  8
0
100
AcDbBlockBegin
  2
*X2
 70
     1
 10
0.0
 20
0.0
 30
0.0
  3
*X2
  1
D:\Integra\Scan_2\50094000.dwg
  0
LINE
  5
4B9
330
9B7
100
AcDbEntity
  8
0
 62
     0
100
AcDbLine
 10
158.249216
 20
652.660841
 30
0.0
 11
149.651045
 21
661.259012
 31
0.0
  0
LINE
  5
4BA
330
9B7
100
AcDbEntity
  8
0
 62
     0
100
AcDbLine
 10
151.602412
 20
652.660841
 30
0.0
 11
149.651045
 21
654.6122079999999
 31
0.0
  0
LINE
  5
4BB
330
9B7
100
AcDbEntity
  8
0
 62
     0
100
AcDbLine
 10
160.298936
 20
657.257924
 30
0.0
 11
149.651045
 21
667.9058159999999
 31
0.0
  0
LINE
  5
4BC
330
9B7
100
AcDbEntity
  8
0
 62
     0
100
AcDbLine
 10
160.298936
 20
663.9047279999999
 30
0.0
 11
152.510592
 21
671.693072
 31
0.0
  0
LINE
  5
4BD
330
9B7
100
AcDbEntity
  8
0
 62
     0
100
AcDbLine
 10
160.298936
 20
670.551531
 30
0.0
 11
159.157396
 21
671.693072
 31
0.0
  0
ENDBLK
  5
4BE
330
9B7
100
AcDbEntity
  8
0
100
AcDbBlockEnd
  0
BLOCK
  5
4C6
330
9B8
100
AcDbEntity
  8
0
100
AcDbBlockBegin
  2
*X3
 70
     1
 10
0.0
 20
0.0
 30
0.0
  3
*X3
  1
D:\Integra\Scan_2\50094000.dwg
  0
LINE
  5
4C8
330
9B8
100
AcDbEntity
  8
0
 62
     0
100
AcDbLine
 10
181.5125229999999
 20
655.9847480000001
 30
0.0
 11
170.298936
 21
667.1983349999999
 31
0.0
  0
LINE
  5
4C9
330
9B8
100
AcDbEntity
  8
0
 62
     0
100
AcDbLine
 10
178.189627
 20
652.660841
 30
0.0
 11
170.298936
 21
660.5515309999999
 31
0.0
  0
LINE
  5
4CA
330
9B8
100
AcDbEntity
  8
0
 62
     0
100
AcDbLine
 10
171.542823
 20
652.660841
 30
0.0
 11
170.298936
 21
653.904728
 31
0.0
  0
LINE
  5
4CB
330
9B8
100
AcDbEntity
  8
0
 62
     0
100
AcDbLine
 10
181.5125229999999
 20
662.6315519999999
 30
0.0
 11
172.451003
 21
671.693072
 31
0.0
  0
LINE
  5
4CC
330
9B8
100
AcDbEntity
  8
0
 62
     0
100
AcDbLine
 10
181.5125229999999
 20
669.2783559999999
 30
0.0
 11
179.097807
 21
671.693072
 31
0.0
  0
ENDBLK
  5
4CD
330
9B8
100
AcDbEntity
  8
0
100
AcDbBlockEnd
  0
BLOCK
  5
4D5
330
9B9
100
AcDbEntity
  8
0
100
AcDbBlockBegin
  2
*X4
 70
     1
 10
0.0
 20
0.0
 30
0.0
  3
*X4
  1
D:\Integra\Scan_2\50094000.dwg
  0
LINE
  5
4D7
330
9B9
100
AcDbEntity
  8
0
 62
     0
100
AcDbLine
 10
203.363485
 20
654.0741979999999
 30
0.0
 11
191.512523
 21
665.92516
 31
0.0
  0
LINE
  5
4D8
330
9B9
100
AcDbEntity
  8
0
 62
     0
100
AcDbLine
 10
198.130038
 20
652.660841
 30
0.0
 11
191.512523
 21
659.2783559999999
 31
0.0
  0
LINE
  5
4D9
330
9B9
100
AcDbEntity
  8
0
 62
     0
100
AcDbLine
 10
203.363485
 20
660.721002
 30
0.0
 11
192.391414
 21
671.693072
 31
0.0
  0
LINE
  5
4DA
330
9B9
100
AcDbEntity
  8
0
 62
     0
100
AcDbLine
 10
203.363485
 20
667.367806
 30
0.0
 11
199.038218
 21
671.693072
 31
0.0
  0
ENDBLK
  5
4DB
330
9B9
100
AcDbEntity
  8
0
100
AcDbBlockEnd
  0
BLOCK
  5
4E3
330
9BA
100
AcDbEntity
  8
0
100
AcDbBlockBegin
  2
*X5
 70
     1
 10
0.0
 20
0.0
 30
0.0
  3
*X5
  1
D:\Integra\Scan_2\50094000.dwg
  0
LINE
  5
4E5
330
9BA
100
AcDbEntity
  8
0
 62
     0
100
AcDbLine
 10
224.577072
 20
652.8010230000001
 30
0.0
 11
213.363485
 21
664.014609
 31
0.0
  0
LINE
  5
4E6
330
9BA
100
AcDbEntity
  8
0
 62
     0
100
AcDbLine
 10
218.070449
 20
652.660841
 30
0.0
 11
213.363485
 21
657.3678059999999
 31
0.0
  0
LINE
  5
4E7
330
9BA
100
AcDbEntity
  8
0
 62
     0
100
AcDbLine
 10
224.577072
 20
659.4478259999999
 30
0.0
 11
213.363485
 21
670.661413
 31
0.0
  0
LINE
  5
4E8
330
9BA
100
AcDbEntity
  8
0
 62
     0
100
AcDbLine
 10
224.577072
 20
666.0946299999999
 30
0.0
 11
218.978629
 21
671.693072
 31
0.0
  0
ENDBLK
  5
4E9
330
9BA
100
AcDbEntity
  8
0
100
AcDbBlockEnd
  0
BLOCK
  5
4F1
330
9BB
100
AcDbEntity
  8
0
100
AcDbBlockBegin
  2
*X6
 70
     1
 10
0.0
 20
0.0
 30
0.0
  3
*X6
  1
D:\Integra\Scan_2\50094000.dwg
  0
LINE
  5
4F3
330
9BB
100
AcDbEntity
  8
0
 62
     0
100
AcDbLine
 10
244.657664
 20
652.660841
 30
0.0
 11
234.577072
 21
662.741434
 31
0.0
  0
LINE
  5
4F4
330
9BB
100
AcDbEntity
  8
0
 62
     0
100
AcDbLine
 10
238.01086
 20
652.660841
 30
0.0
 11
234.577072
 21
656.0946299999999
 31
0.0
  0
LINE
  5
4F5
330
9BB
100
AcDbEntity
  8
0
 62
     0
100
AcDbLine
 10
245.224963
 20
658.740346
 30
0.0
 11
234.577072
 21
669.3882379999999
 31
0.0
  0
LINE
  5
4F6
330
9BB
100
AcDbEntity
  8
0
 62
     0
100
AcDbLine
 10
245.224963
 20
665.38715
 30
0.0
 11
238.91904
 21
671.693072
 31
0.0
  0
ENDBLK
  5
4F7
330
9BB
100
AcDbEntity
  8
0
100
AcDbBlockEnd
  0
BLOCK
  5
4FF
330
9BC
100
AcDbEntity
  8
0
100
AcDbBlockBegin
  2
*X7
 70
     1
 10
0.0
 20
0.0
 30
0.0
  3
*X7
  1
D:\Integra\Scan_2\50094000.dwg
  0
LINE
  5
501
330
9BC
100
AcDbEntity
  8
0
 62
     0
100
AcDbLine
 10
264.598075
 20
652.660841
 30
0.0
 11
255.224963
 21
662.0339529999999
 31
0.0
  0
LINE
  5
502
330
9BC
100
AcDbEntity
  8
0
 62
     0
100
AcDbLine
 10
257.951272
 20
652.660841
 30
0.0
 11
255.224963
 21
655.38715
 31
0.0
  0
LINE
  5
503
330
9BC
100
AcDbEntity
  8
0
 62
     0
100
AcDbLine
 10
265.77253
 20
658.133191
 30
0.0
 11
255.224963
 21
668.680757
 31
0.0
  0
LINE
  5
504
330
9BC
100
AcDbEntity
  8
0
 62
     0
100
AcDbLine
 10
265.77253
 20
664.7799949999999
 30
0.0
 11
258.859452
 21
671.693072
 31
0.0
  0
LINE
  5
505
330
9BC
100
AcDbEntity
  8
0
 62
     0
100
AcDbLine
 10
265.77253
 20
671.426798
 30
0.0
 11
265.506255
 21
671.693072
 31
0.0
  0
ENDBLK
  5
506
330
9BC
100
AcDbEntity
  8
0
100
AcDbBlockEnd
  0
BLOCK
  5
50E
330
9BD
100
AcDbEntity
  8
0
100
AcDbBlockBegin
  2
*X8
 70
     1
 10
0.0
 20
0.0
 30
0.0
  3
*X8
  1
D:\Integra\Scan_2\50094000.dwg
  0
LINE
  5
510
330
9BD
100
AcDbEntity
  8
0
 62
     0
100
AcDbLine
 10
284.538487
 20
652.660841
 30
0.0
 11
275.77253
 21
661.4267980000001
 31
0.0
  0
LINE
  5
511
330
9BD
100
AcDbEntity
  8
0
 62
     0
100
AcDbLine
 10
277.891683
 20
652.660841
 30
0.0
 11
275.77253
 21
654.7799949999999
 31
0.0
  0
LINE
  5
512
330
9BD
100
AcDbEntity
  8
0
 62
     0
100
AcDbLine
 10
286.803594
 20
657.042537
 30
0.0
 11
275.77253
 21
668.0736019999999
 31
0.0
  0
LINE
  5
513
330
9BD
100
AcDbEntity
  8
0
 62
     0
100
AcDbLine
 10
286.803594
 20
663.6893409999999
 30
0.0
 11
278.799863
 21
671.693072
 31
0.0
  0
LINE
  5
514
330
9BD
100
AcDbEntity
  8
0
 62
     0
100
AcDbLine
 10
286.803594
 20
670.336145
 30
0.0
 11
285.446667
 21
671.693072
 31
0.0
  0
ENDBLK
  5
515
330
9BD
100
AcDbEntity
  8
0
100
AcDbBlockEnd
  0
BLOCK
  5
6B9
330
9BF
100
AcDbEntity
  8
0
100
AcDbBlockBegin
  2
*X9
 70
     1
 10
0.0
 20
0.0
 30
0.0
  3
*X9
  1
D:\Integra\Scan_2\50094000.dwg
  0
LINE
  5
6BB
330
9BF
100
AcDbEntity
  8
0
 62
     0
100
AcDbLine
 10
219.761134
 20
573.3145249999999
 30
0.0
 11
226.761134
 21
580.314525
 31
0.0
  0
LINE
  5
6BC
330
9BF
100
AcDbEntity
  8
0
 62
     0
100
AcDbLine
 10
219.761134
 20
580.385592
 30
0.0
 11
226.761134
 21
587.3855919999999
 31
0.0
  0
LINE
  5
6BD
330
9BF
100
AcDbEntity
  8
0
 62
     0
100
AcDbLine
 10
219.761134
 20
587.4566599999999
 30
0.0
 11
226.761134
 21
594.4566599999999
 31
0.0
  0
LINE
  5
6BE
330
9BF
100
AcDbEntity
  8
0
 62
     0
100
AcDbLine
 10
219.761134
 20
594.5277279999999
 30
0.0
 11
226.761134
 21
601.527728
 31
0.0
  0
LINE
  5
6BF
330
9BF
100
AcDbEntity
  8
0
 62
     0
100
AcDbLine
 10
219.761134
 20
601.598796
 30
0.0
 11
226.828416
 21
608.6660779999999
 31
0.0
  0
LINE
  5
6C0
330
9BF
100
AcDbEntity
  8
0
 62
     0
100
AcDbLine
 10
235.97202
 20
617.809682
 30
0.0
 11
239.213932
 21
621.051593
 31
0.0
  0
LINE
  5
6C1
330
9BF
100
AcDbEntity
  8
0
 62
     0
100
AcDbLine
 10
219.761134
 20
608.6698639999999
 30
0.0
 11
236.473936
 21
625.3826659999999
 31
0.0
  0
LINE
  5
6C2
330
9BF
100
AcDbEntity
  8
0
 62
     0
100
AcDbLine
 10
220.651455
 20
616.6312529999999
 30
0.0
 11
225.636361
 21
621.616159
 31
0.0
  0
LINE
  5
6C3
330
9BF
100
AcDbEntity
  8
0
 62
     0
100
AcDbLine
 10
219.761134
 20
566.243457
 30
0.0
 11
226.761134
 21
573.243457
 31
0.0
  0
LINE
  5
6C4
330
9BF
100
AcDbEntity
  8
0
 62
     0
100
AcDbLine
 10
219.761134
 20
559.1723889999999
 30
0.0
 11
226.761134
 21
566.1723889999999
 31
0.0
  0
LINE
  5
6C5
330
9BF
100
AcDbEntity
  8
0
 62
     0
100
AcDbLine
 10
219.761134
 20
552.1013209999999
 30
0.0
 11
226.761134
 21
559.1013209999999
 31
0.0
  0
LINE
  5
6C6
330
9BF
100
AcDbEntity
  8
0
 62
     0
100
AcDbLine
 10
222.617459
 20
547.8865789999999
 30
0.0
 11
226.761134
 21
552.030253
 31
0.0
  0
ENDBLK
  5
6C7
330
9BF
100
AcDbEntity
  8
0
100
AcDbBlockEnd
  0
BLOCK
  5
90D
330
9C5
100
AcDbEntity
  8
0
100
AcDbBlockBegin
  2
*X10
 70
     1
 10
0.0
 20
0.0
 30
0.0
  3
*X10
  1
GEVFRAME
  0
LINE
  5
90F
330
9C5
100
AcDbEntity
  8
0
 62
     0
100
AcDbLine
 10
142.305857
 20
549.599363
 30
0.0
 11
146.21681
 21
553.510316
 31
0.0
  0
LINE
  5
910
330
9C5
100
AcDbEntity
  8
0
 62
     0
100
AcDbLine
 10
196.380718
 20
603.6742239999999
 30
0.0
 11
200.546381
 21
607.839887
 31
0.0
  0
LINE
  5
911
330
9C5
100
AcDbEntity
  8
0
 62
     0
100
AcDbLine
 10
142.025776
 20
553.561923
 30
0.0
 11
145.96135
 21
557.4974969999999
 31
0.0
  0
LINE
  5
912
330
9C5
100
AcDbEntity
  8
0
 62
     0
100
AcDbLine
 10
195.782288
 20
607.318434
 30
0.0
 11
200.546381
 21
612.0825269999999
 31
0.0
  0
LINE
  5
913
330
9C5
100
AcDbEntity
  8
0
 62
     0
100
AcDbLine
 10
141.745696
 20
557.524483
 30
0.0
 11
145.7058909999999
 21
561.484678
 31
0.0
  0
LINE
  5
914
330
9C5
100
AcDbEntity
  8
0
 62
     0
100
AcDbLine
 10
195.782288
 20
611.561075
 30
0.0
 11
200.546381
 21
616.325168
 31
0.0
  0
LINE
  5
915
330
9C5
100
AcDbEntity
  8
0
 62
     0
100
AcDbLine
 10
141.465615
 20
561.4870429999999
 30
0.0
 11
145.450431
 21
565.4718589999999
 31
0.0
  0
LINE
  5
916
330
9C5
100
AcDbEntity
  8
0
 62
     0
100
AcDbLine
 10
195.782288
 20
615.803716
 30
0.0
 11
200.060034
 21
620.081462
 31
0.0
  0
LINE
  5
917
330
9C5
100
AcDbEntity
  8
0
 62
     0
100
AcDbLine
 10
141.185535
 20
565.449603
 30
0.0
 11
145.194971
 21
569.45904
 31
0.0
  0
LINE
  5
918
330
9C5
100
AcDbEntity
  8
0
 62
     0
100
AcDbLine
 10
195.782288
 20
620.0463570000001
 30
0.0
 11
195.817393
 21
620.081462
 31
0.0
  0
LINE
  5
919
330
9C5
100
AcDbEntity
  8
0
 62
     0
100
AcDbLine
 10
140.905454
 20
569.4121629999999
 30
0.0
 11
144.939511
 21
573.446221
 31
0.0
  0
LINE
  5
91A
330
9C5
100
AcDbEntity
  8
0
 62
     0
100
AcDbLine
 10
140.625374
 20
573.374724
 30
0.0
 11
144.684051
 21
577.433402
 31
0.0
  0
LINE
  5
91B
330
9C5
100
AcDbEntity
  8
0
 62
     0
100
AcDbLine
 10
140.345293
 20
577.3372839999999
 30
0.0
 11
144.428592
 21
581.420582
 31
0.0
  0
LINE
  5
91C
330
9C5
100
AcDbEntity
  8
0
 62
     0
100
AcDbLine
 10
140.065212
 20
581.299844
 30
0.0
 11
144.173132
 21
585.407763
 31
0.0
  0
LINE
  5
91D
330
9C5
100
AcDbEntity
  8
0
 62
     0
100
AcDbLine
 10
139.785132
 20
585.2624040000001
 30
0.0
 11
143.917672
 21
589.394944
 31
0.0
  0
LINE
  5
91E
330
9C5
100
AcDbEntity
  8
0
 62
     0
100
AcDbLine
 10
139.505051
 20
589.224964
 30
0.0
 11
143.662212
 21
593.382125
 31
0.0
  0
LINE
  5
91F
330
9C5
100
AcDbEntity
  8
0
 62
     0
100
AcDbLine
 10
139.2249709999999
 20
593.187524
 30
0.0
 11
143.406753
 21
597.3693059999999
 31
0.0
  0
LINE
  5
920
330
9C5
100
AcDbEntity
  8
0
 62
     0
100
AcDbLine
 10
138.257412
 20
596.462607
 30
0.0
 11
143.151293
 21
601.356487
 31
0.0
  0
LINE
  5
921
330
9C5
100
AcDbEntity
  8
0
 62
     0
100
AcDbLine
 10
137.000922
 20
599.448757
 30
0.0
 11
139.086314
 21
601.534149
 31
0.0
  0
LINE
  5
922
330
9C5
100
AcDbEntity
  8
0
 62
     0
100
AcDbLine
 10
141.226389
 20
603.6742239999999
 30
0.0
 11
141.765015
 21
604.21285
 31
0.0
  0
LINE
  5
923
330
9C5
100
AcDbEntity
  8
0
 62
     0
100
AcDbLine
 10
132.928865
 20
599.619341
 30
0.0
 11
134.843673
 21
601.534149
 31
0.0
  0
LINE
  5
924
330
9C5
100
AcDbEntity
  8
0
 62
     0
100
AcDbLine
 10
136.983748
 20
603.6742239999999
 30
0.0
 11
141.765015
 21
608.45549
 31
0.0
  0
LINE
  5
925
330
9C5
100
AcDbEntity
  8
0
 62
     0
100
AcDbLine
 10
129.840707
 20
600.773824
 30
0.0
 11
131.771081
 21
602.7041969999999
 31
0.0
  0
LINE
  5
926
330
9C5
100
AcDbEntity
  8
0
 62
     0
100
AcDbLine
 10
137.000922
 20
607.9340379999999
 30
0.0
 11
141.765015
 21
612.6981309999999
 31
0.0
  0
LINE
  5
927
330
9C5
100
AcDbEntity
  8
0
 62
     0
100
AcDbLine
 10
132.740658
 20
603.6737739999999
 30
0.0
 11
133.592447
 21
604.525563
 31
0.0
  0
LINE
  5
928
330
9C5
100
AcDbEntity
  8
0
 62
     0
100
AcDbLine
 10
137.000922
 20
612.176679
 30
0.0
 11
141.765015
 21
616.9407719999999
 31
0.0
  0
LINE
  5
929
330
9C5
100
AcDbEntity
  8
0
 62
     0
100
AcDbLine
 10
137.000922
 20
616.419319
 30
0.0
 11
140.663064
 21
620.081462
 31
0.0
  0
LINE
  5
92A
330
9C5
100
AcDbEntity
  8
0
 62
     0
100
AcDbLine
 10
142.585938
 20
545.636803
 30
0.0
 11
146.47227
 21
549.5231349999999
 31
0.0
  0
LINE
  5
92B
330
9C5
100
AcDbEntity
  8
0
 62
     0
100
AcDbLine
 10
200.623358
 20
603.6742239999999
 30
0.0
 11
201.474698
 21
604.525563
 31
0.0
  0
LINE
  5
92C
330
9C5
100
AcDbEntity
  8
0
 62
     0
100
AcDbLine
 10
194.128372
 20
597.1792370000001
 30
0.0
 11
198.483283
 21
601.534149
 31
0.0
  0
LINE
  5
92D
330
9C5
100
AcDbEntity
  8
0
 62
     0
100
AcDbLine
 10
142.866018
 20
541.6742429999999
 30
0.0
 11
146.72773
 21
545.5359539999999
 31
0.0
  0
LINE
  5
92E
330
9C5
100
AcDbEntity
  8
0
 62
     0
100
AcDbLine
 10
204.862324
 20
603.6705490000001
 30
0.0
 11
205.717338
 21
604.525563
 31
0.0
  0
LINE
  5
92F
330
9C5
100
AcDbEntity
  8
0
 62
     0
100
AcDbLine
 10
193.837937
 20
592.646161
 30
0.0
 11
200.546381
 21
599.3546049999999
 31
0.0
  0
LINE
  5
930
330
9C5
100
AcDbEntity
  8
0
 62
     0
100
AcDbLine
 10
200.811116
 20
599.619341
 30
0.0
 11
202.725924
 21
601.534149
 31
0.0
  0
LINE
  5
931
330
9C5
100
AcDbEntity
  8
0
 62
     0
100
AcDbLine
 10
143.146099
 20
537.711683
 30
0.0
 11
146.983189
 21
541.5487730000001
 31
0.0
  0
LINE
  5
932
330
9C5
100
AcDbEntity
  8
0
 62
     0
100
AcDbLine
 10
205.053757
 20
599.619341
 30
0.0
 11
207.894111
 21
602.459695
 31
0.0
  0
LINE
  5
933
330
9C5
100
AcDbEntity
  8
0
 62
     0
100
AcDbLine
 10
193.547501
 20
588.1130849999999
 30
0.0
 11
198.299544
 21
592.865128
 31
0.0
  0
LINE
  5
934
330
9C5
100
AcDbEntity
  8
0
 62
     0
100
AcDbLine
 10
143.426179
 20
533.749123
 30
0.0
 11
147.246755
 21
537.5696979999999
 31
0.0
  0
LINE
  5
935
330
9C5
100
AcDbEntity
  8
0
 62
     0
100
AcDbLine
 10
193.257066
 20
583.580009
 30
0.0
 11
197.976859
 21
588.299803
 31
0.0
  0
LINE
  5
936
330
9C5
100
AcDbEntity
  8
0
 62
     0
100
AcDbLine
 10
147.489396
 20
533.569698
 30
0.0
 11
151.489396
 21
537.5696979999999
 31
0.0
  0
LINE
  5
937
330
9C5
100
AcDbEntity
  8
0
 62
     0
100
AcDbLine
 10
192.96663
 20
579.0469329999999
 30
0.0
 11
197.654174
 21
583.7344769999999
 31
0.0
  0
LINE
  5
938
330
9C5
100
AcDbEntity
  8
0
 62
     0
100
AcDbLine
 10
151.732036
 20
533.569698
 30
0.0
 11
155.732036
 21
537.5696979999999
 31
0.0
  0
LINE
  5
939
330
9C5
100
AcDbEntity
  8
0
 62
     0
100
AcDbLine
 10
192.676195
 20
574.513857
 30
0.0
 11
197.3314889999999
 21
579.1691509999999
 31
0.0
  0
LINE
  5
93A
330
9C5
100
AcDbEntity
  8
0
 62
     0
100
AcDbLine
 10
155.974677
 20
533.569698
 30
0.0
 11
159.974677
 21
537.5696979999999
 31
0.0
  0
LINE
  5
93B
330
9C5
100
AcDbEntity
  8
0
 62
     0
100
AcDbLine
 10
192.38576
 20
569.980781
 30
0.0
 11
197.008804
 21
574.603825
 31
0.0
  0
LINE
  5
93C
330
9C5
100
AcDbEntity
  8
0
 62
     0
100
AcDbLine
 10
160.217318
 20
533.569698
 30
0.0
 11
164.217318
 21
537.5696979999999
 31
0.0
  0
LINE
  5
93D
330
9C5
100
AcDbEntity
  8
0
 62
     0
100
AcDbLine
 10
192.095324
 20
565.4477049999999
 30
0.0
 11
196.686119
 21
570.0384989999999
 31
0.0
  0
LINE
  5
93E
330
9C5
100
AcDbEntity
  8
0
 62
     0
100
AcDbLine
 10
164.459958
 20
533.569698
 30
0.0
 11
168.459958
 21
537.5696979999999
 31
0.0
  0
LINE
  5
93F
330
9C5
100
AcDbEntity
  8
0
 62
     0
100
AcDbLine
 10
191.804889
 20
560.9146289999999
 30
0.0
 11
196.363434
 21
565.4731739999999
 31
0.0
  0
LINE
  5
940
330
9C5
100
AcDbEntity
  8
0
 62
     0
100
AcDbLine
 10
168.702599
 20
533.569698
 30
0.0
 11
172.702599
 21
537.5696979999999
 31
0.0
  0
LINE
  5
941
330
9C5
100
AcDbEntity
  8
0
 62
     0
100
AcDbLine
 10
191.514453
 20
556.3815519999999
 30
0.0
 11
196.040749
 21
560.907848
 31
0.0
  0
LINE
  5
942
330
9C5
100
AcDbEntity
  8
0
 62
     0
100
AcDbLine
 10
172.94524
 20
533.569698
 30
0.0
 11
176.94524
 21
537.5696979999999
 31
0.0
  0
LINE
  5
943
330
9C5
100
AcDbEntity
  8
0
 62
     0
100
AcDbLine
 10
191.224018
 20
551.8484759999999
 30
0.0
 11
195.718064
 21
556.3425219999999
 31
0.0
  0
LINE
  5
944
330
9C5
100
AcDbEntity
  8
0
 62
     0
100
AcDbLine
 10
177.18788
 20
533.569698
 30
0.0
 11
181.18788
 21
537.5696979999999
 31
0.0
  0
LINE
  5
945
330
9C5
100
AcDbEntity
  8
0
 62
     0
100
AcDbLine
 10
190.933582
 20
547.3154
 30
0.0
 11
195.395379
 21
551.777196
 31
0.0
  0
LINE
  5
946
330
9C5
100
AcDbEntity
  8
0
 62
     0
100
AcDbLine
 10
181.430521
 20
533.569698
 30
0.0
 11
185.430521
 21
537.5696979999999
 31
0.0
  0
LINE
  5
947
330
9C5
100
AcDbEntity
  8
0
 62
     0
100
AcDbLine
 10
190.643147
 20
542.782324
 30
0.0
 11
195.072693
 21
547.21187
 31
0.0
  0
LINE
  5
948
330
9C5
100
AcDbEntity
  8
0
 62
     0
100
AcDbLine
 10
185.673162
 20
533.569698
 30
0.0
 11
189.673162
 21
537.5696979999999
 31
0.0
  0
LINE
  5
949
330
9C5
100
AcDbEntity
  8
0
 62
     0
100
AcDbLine
 10
190.352712
 20
538.249248
 30
0.0
 11
194.750008
 21
542.6465450000001
 31
0.0
  0
LINE
  5
94A
330
9C5
100
AcDbEntity
  8
0
 62
     0
100
AcDbLine
 10
189.915802
 20
533.569698
 30
0.0
 11
194.427323
 21
538.081219
 31
0.0
  0
LINE
  5
94B
330
9C5
100
AcDbEntity
  8
0
 62
     0
100
AcDbLine
 10
195.0844149999999
 20
547.3777049999999
 30
0.0
 11
191.187266
 21
551.274854
 31
0.0
  0
LINE
  5
94C
330
9C5
100
AcDbEntity
  8
0
 62
     0
100
AcDbLine
 10
138.787897
 20
603.6742239999999
 30
0.0
 11
137.000922
 21
605.461198
 31
0.0
  0
LINE
  5
94D
330
9C5
100
AcDbEntity
  8
0
 62
     0
100
AcDbLine
 10
143.291331
 20
599.170789
 30
0.0
 11
140.927972
 21
601.534149
 31
0.0
  0
LINE
  5
94E
330
9C5
100
AcDbEntity
  8
0
 62
     0
100
AcDbLine
 10
194.804334
 20
543.415145
 30
0.0
 11
190.931806
 21
547.287674
 31
0.0
  0
LINE
  5
94F
330
9C5
100
AcDbEntity
  8
0
 62
     0
100
AcDbLine
 10
134.545256
 20
603.6742239999999
 30
0.0
 11
133.693917
 21
604.525563
 31
0.0
  0
LINE
  5
950
330
9C5
100
AcDbEntity
  8
0
 62
     0
100
AcDbLine
 10
143.581767
 20
594.637713
 30
0.0
 11
136.685331
 21
601.534149
 31
0.0
  0
LINE
  5
951
330
9C5
100
AcDbEntity
  8
0
 62
     0
100
AcDbLine
 10
194.524254
 20
539.4525849999999
 30
0.0
 11
190.676346
 21
543.300493
 31
0.0
  0
LINE
  5
952
330
9C5
100
AcDbEntity
  8
0
 62
     0
100
AcDbLine
 10
131.770631
 20
602.206208
 30
0.0
 11
130.141629
 21
603.83521
 31
0.0
  0
LINE
  5
953
330
9C5
100
AcDbEntity
  8
0
 62
     0
100
AcDbLine
 10
143.872202
 20
590.104637
 30
0.0
 11
139.10599
 21
594.870849
 31
0.0
  0
LINE
  5
954
330
9C5
100
AcDbEntity
  8
0
 62
     0
100
AcDbLine
 10
134.357498
 20
599.619341
 30
0.0
 11
132.44269
 21
601.534149
 31
0.0
  0
LINE
  5
955
330
9C5
100
AcDbEntity
  8
0
 62
     0
100
AcDbLine
 10
137.148619
 20
596.8282199999999
 30
0.0
 11
137.000922
 21
596.9759169999999
 31
0.0
  0
LINE
  5
956
330
9C5
100
AcDbEntity
  8
0
 62
     0
100
AcDbLine
 10
194.244173
 20
535.4900249999999
 30
0.0
 11
190.420886
 21
539.3133119999999
 31
0.0
  0
LINE
  5
957
330
9C5
100
AcDbEntity
  8
0
 62
     0
100
AcDbLine
 10
144.162637
 20
585.571561
 30
0.0
 11
139.428675
 21
590.3055229999999
 31
0.0
  0
LINE
  5
958
330
9C5
100
AcDbEntity
  8
0
 62
     0
100
AcDbLine
 10
191.921859
 20
533.569698
 30
0.0
 11
187.921859
 21
537.5696979999999
 31
0.0
  0
LINE
  5
959
330
9C5
100
AcDbEntity
  8
0
 62
     0
100
AcDbLine
 10
144.453073
 20
581.0384849999999
 30
0.0
 11
139.751361
 21
585.7401969999999
 31
0.0
  0
LINE
  5
95A
330
9C5
100
AcDbEntity
  8
0
 62
     0
100
AcDbLine
 10
187.679219
 20
533.569698
 30
0.0
 11
183.679219
 21
537.5696979999999
 31
0.0
  0
LINE
  5
95B
330
9C5
100
AcDbEntity
  8
0
 62
     0
100
AcDbLine
 10
144.743508
 20
576.5054089999999
 30
0.0
 11
140.074046
 21
581.174871
 31
0.0
  0
LINE
  5
95C
330
9C5
100
AcDbEntity
  8
0
 62
     0
100
AcDbLine
 10
183.436578
 20
533.569698
 30
0.0
 11
179.436578
 21
537.5696979999999
 31
0.0
  0
LINE
  5
95D
330
9C5
100
AcDbEntity
  8
0
 62
     0
100
AcDbLine
 10
145.033944
 20
571.972332
 30
0.0
 11
140.396731
 21
576.609545
 31
0.0
  0
LINE
  5
95E
330
9C5
100
AcDbEntity
  8
0
 62
     0
100
AcDbLine
 10
179.193937
 20
533.569698
 30
0.0
 11
175.193937
 21
537.5696979999999
 31
0.0
  0
LINE
  5
95F
330
9C5
100
AcDbEntity
  8
0
 62
     0
100
AcDbLine
 10
145.324379
 20
567.439256
 30
0.0
 11
140.719416
 21
572.0442199999999
 31
0.0
  0
LINE
  5
960
330
9C5
100
AcDbEntity
  8
0
 62
     0
100
AcDbLine
 10
174.951297
 20
533.569698
 30
0.0
 11
170.951297
 21
537.5696979999999
 31
0.0
  0
LINE
  5
961
330
9C5
100
AcDbEntity
  8
0
 62
     0
100
AcDbLine
 10
145.614815
 20
562.9061799999999
 30
0.0
 11
141.042101
 21
567.478894
 31
0.0
  0
LINE
  5
962
330
9C5
100
AcDbEntity
  8
0
 62
     0
100
AcDbLine
 10
170.708656
 20
533.569698
 30
0.0
 11
166.708656
 21
537.5696979999999
 31
0.0
  0
LINE
  5
963
330
9C5
100
AcDbEntity
  8
0
 62
     0
100
AcDbLine
 10
145.90525
 20
558.3731039999999
 30
0.0
 11
141.364786
 21
562.9135679999999
 31
0.0
  0
LINE
  5
964
330
9C5
100
AcDbEntity
  8
0
 62
     0
100
AcDbLine
 10
166.466015
 20
533.569698
 30
0.0
 11
162.466015
 21
537.5696979999999
 31
0.0
  0
LINE
  5
965
330
9C5
100
AcDbEntity
  8
0
 62
     0
100
AcDbLine
 10
146.195685
 20
553.8400280000001
 30
0.0
 11
141.687471
 21
558.348242
 31
0.0
  0
LINE
  5
966
330
9C5
100
AcDbEntity
  8
0
 62
     0
100
AcDbLine
 10
162.223375
 20
533.569698
 30
0.0
 11
158.223375
 21
537.5696979999999
 31
0.0
  0
LINE
  5
967
330
9C5
100
AcDbEntity
  8
0
 62
     0
100
AcDbLine
 10
146.486121
 20
549.3069519999998
 30
0.0
 11
142.010156
 21
553.782916
 31
0.0
  0
LINE
  5
968
330
9C5
100
AcDbEntity
  8
0
 62
     0
100
AcDbLine
 10
157.980734
 20
533.569698
 30
0.0
 11
153.980734
 21
537.5696979999999
 31
0.0
  0
LINE
  5
969
330
9C5
100
AcDbEntity
  8
0
 62
     0
100
AcDbLine
 10
146.776556
 20
544.773876
 30
0.0
 11
142.332841
 21
549.2175909999999
 31
0.0
  0
LINE
  5
96A
330
9C5
100
AcDbEntity
  8
0
 62
     0
100
AcDbLine
 10
153.738093
 20
533.569698
 30
0.0
 11
149.738093
 21
537.5696979999999
 31
0.0
  0
LINE
  5
96B
330
9C5
100
AcDbEntity
  8
0
 62
     0
100
AcDbLine
 10
147.066992
 20
540.2408
 30
0.0
 11
142.655526
 21
544.652265
 31
0.0
  0
LINE
  5
96C
330
9C5
100
AcDbEntity
  8
0
 62
     0
100
AcDbLine
 10
149.495452
 20
533.569698
 30
0.0
 11
142.978212
 21
540.0869389999999
 31
0.0
  0
LINE
  5
96D
330
9C5
100
AcDbEntity
  8
0
 62
     0
100
AcDbLine
 10
145.252812
 20
533.569698
 30
0.0
 11
143.300897
 21
535.521613
 31
0.0
  0
LINE
  5
96E
330
9C5
100
AcDbEntity
  8
0
 62
     0
100
AcDbLine
 10
195.364495
 20
551.340265
 30
0.0
 11
191.442726
 21
555.2620349999999
 31
0.0
  0
LINE
  5
96F
330
9C5
100
AcDbEntity
  8
0
 62
     0
100
AcDbLine
 10
141.765015
 20
604.939746
 30
0.0
 11
137.000922
 21
609.703839
 31
0.0
  0
LINE
  5
970
330
9C5
100
AcDbEntity
  8
0
 62
     0
100
AcDbLine
 10
195.644576
 20
555.3028259999999
 30
0.0
 11
191.698185
 21
559.249216
 31
0.0
  0
LINE
  5
971
330
9C5
100
AcDbEntity
  8
0
 62
     0
100
AcDbLine
 10
141.765015
 20
609.182387
 30
0.0
 11
137.000922
 21
613.9464799999999
 31
0.0
  0
LINE
  5
972
330
9C5
100
AcDbEntity
  8
0
 62
     0
100
AcDbLine
 10
195.924657
 20
559.265386
 30
0.0
 11
191.953645
 21
563.236397
 31
0.0
  0
LINE
  5
973
330
9C5
100
AcDbEntity
  8
0
 62
     0
100
AcDbLine
 10
141.765015
 20
613.4250279999999
 30
0.0
 11
137.000922
 21
618.1891209999999
 31
0.0
  0
LINE
  5
974
330
9C5
100
AcDbEntity
  8
0
 62
     0
100
AcDbLine
 10
196.204737
 20
563.2279459999999
 30
0.0
 11
192.209105
 21
567.223578
 31
0.0
  0
LINE
  5
975
330
9C5
100
AcDbEntity
  8
0
 62
     0
100
AcDbLine
 10
141.765015
 20
617.6676679999999
 30
0.0
 11
139.351221
 21
620.081462
 31
0.0
  0
LINE
  5
976
330
9C5
100
AcDbEntity
  8
0
 62
     0
100
AcDbLine
 10
196.484818
 20
567.1905059999999
 30
0.0
 11
192.464565
 21
571.2107589999999
 31
0.0
  0
LINE
  5
977
330
9C5
100
AcDbEntity
  8
0
 62
     0
100
AcDbLine
 10
196.764898
 20
571.153066
 30
0.0
 11
192.720024
 21
575.19794
 31
0.0
  0
LINE
  5
978
330
9C5
100
AcDbEntity
  8
0
 62
     0
100
AcDbLine
 10
197.044979
 20
575.115626
 30
0.0
 11
192.975484
 21
579.1851209999999
 31
0.0
  0
LINE
  5
979
330
9C5
100
AcDbEntity
  8
0
 62
     0
100
AcDbLine
 10
197.32506
 20
579.078186
 30
0.0
 11
193.230944
 21
583.1723019999999
 31
0.0
  0
LINE
  5
97A
330
9C5
100
AcDbEntity
  8
0
 62
     0
100
AcDbLine
 10
197.60514
 20
583.0407459999999
 30
0.0
 11
193.486404
 21
587.159483
 31
0.0
  0
LINE
  5
97B
330
9C5
100
AcDbEntity
  8
0
 62
     0
100
AcDbLine
 10
197.885221
 20
587.0033059999999
 30
0.0
 11
193.741863
 21
591.1466639999999
 31
0.0
  0
LINE
  5
97C
330
9C5
100
AcDbEntity
  8
0
 62
     0
100
AcDbLine
 10
198.165301
 20
590.9658659999999
 30
0.0
 11
193.997323
 21
595.133845
 31
0.0
  0
LINE
  5
97D
330
9C5
100
AcDbEntity
  8
0
 62
     0
100
AcDbLine
 10
198.445382
 20
594.9284269999999
 30
0.0
 11
194.252783
 21
599.121025
 31
0.0
  0
LINE
  5
97E
330
9C5
100
AcDbEntity
  8
0
 62
     0
100
AcDbLine
 10
200.546381
 20
597.070068
 30
0.0
 11
196.082301
 21
601.534149
 31
0.0
  0
LINE
  5
97F
330
9C5
100
AcDbEntity
  8
0
 62
     0
100
AcDbLine
 10
202.239749
 20
599.619341
 30
0.0
 11
200.324941
 21
601.534149
 31
0.0
  0
LINE
  5
980
330
9C5
100
AcDbEntity
  8
0
 62
     0
100
AcDbLine
 10
198.184866
 20
603.6742239999999
 30
0.0
 11
195.782288
 21
606.0768019999999
 31
0.0
  0
LINE
  5
981
330
9C5
100
AcDbEntity
  8
0
 62
     0
100
AcDbLine
 10
206.413714
 20
599.6880169999999
 30
0.0
 11
204.567582
 21
601.534149
 31
0.0
  0
LINE
  5
982
330
9C5
100
AcDbEntity
  8
0
 62
     0
100
AcDbLine
 10
200.546381
 20
605.55535
 30
0.0
 11
195.782288
 21
610.319443
 31
0.0
  0
LINE
  5
983
330
9C5
100
AcDbEntity
  8
0
 62
     0
100
AcDbLine
 10
202.427507
 20
603.6742239999999
 30
0.0
 11
201.576168
 21
604.525563
 31
0.0
  0
LINE
  5
984
330
9C5
100
AcDbEntity
  8
0
 62
     0
100
AcDbLine
 10
207.894111
 20
602.450261
 30
0.0
 11
205.818808
 21
604.525563
 31
0.0
  0
LINE
  5
985
330
9C5
100
AcDbEntity
  8
0
 62
     0
100
AcDbLine
 10
200.546381
 20
609.797991
 30
0.0
 11
195.782288
 21
614.562083
 31
0.0
  0
LINE
  5
986
330
9C5
100
AcDbEntity
  8
0
 62
     0
100
AcDbLine
 10
200.546381
 20
614.0406309999999
 30
0.0
 11
195.782288
 21
618.8047240000001
 31
0.0
  0
LINE
  5
987
330
9C5
100
AcDbEntity
  8
0
 62
     0
100
AcDbLine
 10
200.546381
 20
618.283272
 30
0.0
 11
198.7481909999999
 21
620.081462
 31
0.0
  0
ENDBLK
  5
988
330
9C5
100
AcDbEntity
  8
0
100
AcDbBlockEnd
  0
BLOCK
  5
AE3
330
AE1
100
AcDbEntity
  8
0
100
AcDbBlockBegin
  2
GENAXEH
 70
     0
 10
0.0
 20
0.0
 30
0.0
  3
GENAXEH
  1

  0
LINE
  5
AE2
330
AE1
100
AcDbEntity
  8
0
100
AcDbLine
 10
-1.0
 20
0.0
 30
0.0
 11
1.0
 21
0.0
 31
0.0
  0
ENDBLK
  5
AE4
330
AE1
100
AcDbEntity
  8
0
100
AcDbBlockEnd
  0
BLOCK
  5
B0A
330
AFE
100
AcDbEntity
  8
0
100
AcDbBlockBegin
  2
*D13
 70
     1
 10
0.0
 20
0.0
 30
0.0
  3
*D13
  1

  0
LINE
  5
BAD
330
AFE
100
AcDbEntity
  8
5
370
    -2
100
AcDbLine
 10
218.5764209999999
 20
97.02010013148694
 30
0.0
 11
218.5764209999999
 21
40.34838613148695
 31
0.0
  0
LINE
  5
BAE
330
AFE
100
AcDbEntity
  8
5
370
    -2
100
AcDbLine
 10
228.5764209999999
 20
97.02010013148694
 30
0.0
 11
228.5764209999999
 21
40.34838613148695
 31
0.0
  0
LINE
  5
BAF
330
AFE
100
AcDbEntity
  8
5
370
    -2
100
AcDbLine
 10
207.3264209999999
 20
44.84838613148696
 30
0.0
 11
196.0764209999999
 21
44.84838613148696
 31
0.0
  0
LINE
  5
BB0
330
AFE
100
AcDbEntity
  8
5
370
    -2
100
AcDbLine
 10
239.8264209999999
 20
44.84838613148696
 30
0.0
 11
270.6638225748031
 21
44.84838613148696
 31
0.0
  0
LINE
  5
BB1
330
AFE
100
AcDbEntity
  8
5
370
    -2
100
AcDbLine
 10
218.5764209999999
 20
44.84838613148696
 30
0.0
 11
228.5764209999999
 21
44.84838613148696
 31
0.0
  0
SOLID
  5
BB2
330
AFE
100
AcDbEntity
  8
5
100
AcDbTrace
 10
207.3264209999999
 20
46.72338613148696
 30
0.0
 11
207.3264209999999
 21
42.97338613148696
 31
0.0
 12
218.5764209999999
 22
44.84838613148696
 32
0.0
 13
218.5764209999999
 23
44.84838613148696
 33
0.0
  0
SOLID
  5
BB3
330
AFE
100
AcDbEntity
  8
5
100
AcDbTrace
 10
239.8264209999999
 20
46.72338613148696
 30
0.0
 11
239.8264209999999
 21
42.97338613148696
 31
0.0
 12
228.5764209999999
 22
44.84838613148696
 32
0.0
 13
228.5764209999999
 23
44.84838613148696
 33
0.0
  0
MTEXT
  5
BB4
330
AFE
100
AcDbEntity
  8
5
 62
     2
100
AcDbMText
 10
260.8701217874015
 20
55.42338613148697
 30
0.0
 40
15.75
 41
0.0
 71
     5
 72
     1
  1
\A1;10
 73
     1
 44
1.0
1001
ACAD
1000
MTEXTBEGIN
1070
    73
1070
     1
1070
    44
1040
1.0
1070
    74
1070
     0
1000
MTEXTEND
  0
POINT
  5
BB5
330
AFE
100
AcDbEntity
  8
DEFPOINTS
 62
     0
100
AcDbPoint
 10
218.5764209999999
 20
101.5201001314869
 30
0.0
  0
POINT
  5
BB6
330
AFE
100
AcDbEntity
  8
DEFPOINTS
 62
     0
100
AcDbPoint
 10
228.5764209999999
 20
101.5201001314869
 30
0.0
  0
POINT
  5
BB7
330
AFE
100
AcDbEntity
  8
DEFPOINTS
 62
     0
100
AcDbPoint
 10
228.5764209999999
 20
44.84838613148696
 30
0.0
  0
ENDBLK
  5
B0B
330
AFE
100
AcDbEntity
  8
0
100
AcDbBlockEnd
  0
BLOCK
  5
B16
330
B0C
100
AcDbEntity
  8
0
100
AcDbBlockBegin
  2
*D14
 70
     1
 10
0.0
 20
0.0
 30
0.0
  3
*D14
  1

  0
LINE
  5
BB8
330
B0C
100
AcDbEntity
  8
5
370
    -2
100
AcDbLine
 10
91.25863699999994
 20
63.78229913148692
 30
0.0
 11
91.25863699999994
 21
1.386571131486931
 31
0.0
  0
LINE
  5
BB9
330
B0C
100
AcDbEntity
  8
5
370
    -2
100
AcDbLine
 10
296.258637
 20
63.78229913148692
 30
0.0
 11
296.258637
 21
1.386571131486931
 31
0.0
  0
LINE
  5
BBA
330
B0C
100
AcDbEntity
  8
5
370
    -2
100
AcDbLine
 10
102.5086369999999
 20
5.886571131486931
 30
0.0
 11
285.008637
 21
5.886571131486931
 31
0.0
  0
SOLID
  5
BBB
330
B0C
100
AcDbEntity
  8
5
100
AcDbTrace
 10
102.5086369999999
 20
7.761571131486931
 30
0.0
 11
102.5086369999999
 21
4.011571131486931
 31
0.0
 12
91.25863699999994
 22
5.886571131486931
 32
0.0
 13
91.25863699999994
 23
5.886571131486931
 33
0.0
  0
SOLID
  5
BBC
330
B0C
100
AcDbEntity
  8
5
100
AcDbTrace
 10
285.008637
 20
7.761571131486931
 30
0.0
 11
285.008637
 21
4.011571131486931
 31
0.0
 12
296.258637
 22
5.886571131486931
 32
0.0
 13
296.258637
 23
5.886571131486931
 33
0.0
  0
MTEXT
  5
BBD
330
B0C
100
AcDbEntity
  8
5
 62
     2
100
AcDbMText
 10
193.758637
 20
16.46312132833732
 30
0.0
 40
15.75
 41
0.0
 71
     5
 72
     1
  1
\A1;205
 73
     1
 44
1.0
1001
ACAD
1000
MTEXTBEGIN
1070
    73
1070
     1
1070
    44
1040
1.0
1070
    74
1070
     0
1000
MTEXTEND
  0
POINT
  5
BBE
330
B0C
100
AcDbEntity
  8
DEFPOINTS
 62
     0
100
AcDbPoint
 10
91.25863699999994
 20
68.28229913148692
 30
0.0
  0
POINT
  5
BBF
330
B0C
100
AcDbEntity
  8
DEFPOINTS
 62
     0
100
AcDbPoint
 10
296.258637
 20
68.28229913148692
 30
0.0
  0
POINT
  5
BC0
330
B0C
100
AcDbEntity
  8
DEFPOINTS
 62
     0
100
AcDbPoint
 10
296.258637
 20
5.886571131486931
 30
0.0
  0
ENDBLK
  5
B17
330
B0C
100
AcDbEntity
  8
0
100
AcDbBlockEnd
  0
BLOCK
  5
B22
330
B18
100
AcDbEntity
  8
0
100
AcDbBlockBegin
  2
*D15
 70
     1
 10
0.0
 20
0.0
 30
0.0
  3
*D15
  1

  0
LINE
  5
BC1
330
B18
100
AcDbEntity
  8
5
370
    -2
100
AcDbLine
 10
86.75863699999993
 20
68.28229913148692
 30
0.0
 11
41.75863599999988
 21
68.28229913148692
 31
0.0
  0
LINE
  5
BC2
330
B18
100
AcDbEntity
  8
5
370
    -2
100
AcDbLine
 10
86.75863699999993
 20
273.282299131487
 30
0.0
 11
41.75863599999994
 21
273.282299131487
 31
0.0
  0
LINE
  5
BC3
330
B18
100
AcDbEntity
  8
5
370
    -2
100
AcDbLine
 10
46.25863599999989
 20
79.53229913148692
 30
0.0
 11
46.25863599999993
 21
262.032299131487
 31
0.0
  0
SOLID
  5
BC4
330
B18
100
AcDbEntity
  8
5
100
AcDbTrace
 10
44.38363599999989
 20
79.53229913148692
 30
0.0
 11
48.13363599999989
 21
79.53229913148692
 31
0.0
 12
46.25863599999989
 22
68.28229913148692
 32
0.0
 13
46.25863599999989
 23
68.28229913148692
 33
0.0
  0
SOLID
  5
BC5
330
B18
100
AcDbEntity
  8
5
100
AcDbTrace
 10
44.38363599999993
 20
262.032299131487
 30
0.0
 11
48.13363599999993
 21
262.032299131487
 31
0.0
 12
46.25863599999994
 22
273.282299131487
 32
0.0
 13
46.25863599999994
 23
273.282299131487
 33
0.0
  0
MTEXT
  5
BC6
330
B18
100
AcDbEntity
  8
5
 62
     2
100
AcDbMText
 10
35.68208580314949
 20
170.7822991314869
 30
0.0
 40
15.75
 41
0.0
 71
     5
 72
     1
  1
\A1;205
 11
0.0000000000000001
 21
1.0
 31
0.0
 73
     1
 44
1.0
1001
ACAD
1000
MTEXTBEGIN
1070
    73
1070
     1
1070
    44
1040
1.0
1070
    74
1070
     0
1000
MTEXTEND
  0
POINT
  5
BC7
330
B18
100
AcDbEntity
  8
DEFPOINTS
 62
     0
100
AcDbPoint
 10
91.25863699999994
 20
68.28229913148692
 30
0.0
  0
POINT
  5
BC8
330
B18
100
AcDbEntity
  8
DEFPOINTS
 62
     0
100
AcDbPoint
 10
91.25863699999994
 20
273.282299131487
 30
0.0
  0
POINT
  5
BC9
330
B18
100
AcDbEntity
  8
DEFPOINTS
 62
     0
100
AcDbPoint
 10
46.25863599999994
 20
273.282299131487
 30
0.0
  0
ENDBLK
  5
B23
330
B18
100
AcDbEntity
  8
0
100
AcDbBlockEnd
  0
BLOCK
  5
B94
330
B8A
100
AcDbEntity
  8
0
100
AcDbBlockBegin
  2
*D16
 70
     1
 10
0.0
 20
0.0
 30
0.0
  3
*D16
  1

  0
LINE
  5
B96
330
B8A
100
AcDbEntity
  8
AM_5
370
    -2
100
AcDbLine
 10
197.438004
 20
533.2665429999999
 30
0.0
 11
197.438004
 21
363.193072
 31
0.0
  0
LINE
  5
B97
330
B8A
100
AcDbEntity
  8
AM_5
370
    -2
100
AcDbLine
 10
243.438004
 20
417.193072
 30
0.0
 11
243.438004
 21
363.193072
 31
0.0
  0
LINE
  5
B98
330
B8A
100
AcDbEntity
  8
AM_5
370
    -2
100
AcDbLine
 10
208.688004
 20
367.693072
 30
0.0
 11
232.188004
 21
367.693072
 31
0.0
  0
SOLID
  5
B99
330
B8A
100
AcDbEntity
  8
AM_5
100
AcDbTrace
 10
208.688004
 20
369.568072
 30
0.0
 11
208.688004
 21
365.818072
 31
0.0
 12
197.438004
 22
367.693072
 32
0.0
 13
197.438004
 23
367.693072
 33
0.0
  0
SOLID
  5
B9A
330
B8A
100
AcDbEntity
  8
AM_5
100
AcDbTrace
 10
232.188004
 20
369.568072
 30
0.0
 11
232.188004
 21
365.818072
 31
0.0
 12
243.438004
 22
367.693072
 32
0.0
 13
243.438004
 23
367.693072
 33
0.0
  0
MTEXT
  5
B9B
330
B8A
100
AcDbEntity
  8
AM_5
 62
     2
100
AcDbMText
 10
220.438004
 20
378.268072
 30
0.0
 40
15.75
 41
0.0
 71
     5
 72
     1
  1
\A1;46
 73
     1
 44
1.0
1001
ACAD
1000
MTEXTBEGIN
1070
    73
1070
     1
1070
    44
1040
1.0
1070
    74
1070
     0
1000
MTEXTEND
  0
POINT
  5
B9C
330
B8A
100
AcDbEntity
  8
DEFPOINTS
 62
     0
100
AcDbPoint
 10
197.438004
 20
537.7665429999999
 30
0.0
  0
POINT
  5
B9D
330
B8A
100
AcDbEntity
  8
DEFPOINTS
 62
     0
100
AcDbPoint
 10
243.438004
 20
421.693072
 30
0.0
  0
POINT
  5
B9E
330
B8A
100
AcDbEntity
  8
DEFPOINTS
 62
     0
100
AcDbPoint
 10
243.438004
 20
367.693072
 30
0.0
  0
ENDBLK
  5
B95
330
B8A
100
AcDbEntity
  8
0
100
AcDbBlockEnd
  0
BLOCK
  5
D15
330
D0B
100
AcDbEntity
  8
0
100
AcDbBlockBegin
  2
*D17
 70
     1
 10
0.0
 20
0.0
 30
0.0
  3
*D17
  1

  0
LINE
  5
D17
330
D0B
100
AcDbEntity
  8
AM_5
370
    -2
100
AcDbLine
 10
304.438004
 20
671.693072
 30
0.0
 11
387.7643504819994
 21
671.693072
 31
0.0
  0
LINE
  5
D18
330
D0B
100
AcDbEntity
  8
AM_5
370
    -2
100
AcDbLine
 10
301.348865
 20
421.6930719999999
 30
0.0
 11
387.7643504819994
 21
421.6930719999998
 31
0.0
  0
LINE
  5
D19
330
D0B
100
AcDbEntity
  8
AM_5
370
    -2
100
AcDbLine
 10
383.2643504819994
 20
660.443072
 30
0.0
 11
383.2643504819994
 21
432.9430719999999
 31
0.0
  0
SOLID
  5
D1A
330
D0B
100
AcDbEntity
  8
AM_5
100
AcDbTrace
 10
381.3893504819994
 20
660.443072
 30
0.0
 11
385.1393504819995
 21
660.443072
 31
0.0
 12
383.2643504819994
 22
671.693072
 32
0.0
 13
383.2643504819994
 23
671.693072
 33
0.0
  0
SOLID
  5
D1B
330
D0B
100
AcDbEntity
  8
AM_5
100
AcDbTrace
 10
381.3893504819994
 20
432.9430719999999
 30
0.0
 11
385.1393504819994
 21
432.9430719999999
 31
0.0
 12
383.2643504819994
 22
421.6930719999999
 32
0.0
 13
383.2643504819994
 23
421.6930719999999
 33
0.0
  0
MTEXT
  5
D1C
330
D0B
100
AcDbEntity
  8
AM_5
 62
     2
100
AcDbMText
 10
372.6878002851489
 20
546.693072
 30
0.0
 40
15.75
 41
0.0
 71
     5
 72
     1
  1
\A1;250
 11
0.0000000000000001
 21
1.0
 31
0.0
 73
     1
 44
1.0
1001
ACAD
1000
MTEXTBEGIN
1070
    73
1070
     1
1070
    44
1040
1.0
1070
    74
1070
     0
1000
MTEXTEND
  0
POINT
  5
D1D
330
D0B
100
AcDbEntity
  8
DEFPOINTS
 62
     0
100
AcDbPoint
 10
299.938004
 20
671.693072
 30
0.0
  0
POINT
  5
D1E
330
D0B
100
AcDbEntity
  8
DEFPOINTS
 62
     0
100
AcDbPoint
 10
296.848865
 20
421.6930719999999
 30
0.0
  0
POINT
  5
D1F
330
D0B
100
AcDbEntity
  8
DEFPOINTS
 62
     0
100
AcDbPoint
 10
383.2643504819994
 20
421.6930719999999
 30
0.0
  0
ENDBLK
  5
D16
330
D0B
100
AcDbEntity
  8
0
100
AcDbBlockEnd
  0
BLOCK
  5
D2D
330
D23
100
AcDbEntity
  8
0
100
AcDbBlockBegin
  2
*D18
 70
     1
 10
0.0
 20
0.0
 30
0.0
  3
*D18
  1

  0
LINE
  5
D2F
330
D23
100
AcDbEntity
  8
5
370
    -2
100
AcDbLine
 10
90.438004
 20
671.693072
 30
0.0
 11
13.94872055581221
 21
671.693072
 31
0.0
  0
LINE
  5
D30
330
D23
100
AcDbEntity
  8
5
370
    -2
100
AcDbLine
 10
132.314145
 20
521.693072
 30
0.0
 11
13.94872055581217
 21
521.693072
 31
0.0
  0
LINE
  5
D31
330
D23
100
AcDbEntity
  8
5
370
    -2
100
AcDbLine
 10
18.4487205558122
 20
660.443072
 30
0.0
 11
18.44872055581217
 21
532.943072
 31
0.0
  0
SOLID
  5
D32
330
D23
100
AcDbEntity
  8
5
100
AcDbTrace
 10
16.5737205558122
 20
660.443072
 30
0.0
 11
20.3237205558122
 21
660.443072
 31
0.0
 12
18.4487205558122
 22
671.693072
 32
0.0
 13
18.4487205558122
 23
671.693072
 33
0.0
  0
SOLID
  5
D33
330
D23
100
AcDbEntity
  8
5
100
AcDbTrace
 10
16.57372055581217
 20
532.943072
 30
0.0
 11
20.32372055581217
 21
532.943072
 31
0.0
 12
18.44872055581217
 22
521.693072
 32
0.0
 13
18.44872055581217
 23
521.693072
 33
0.0
  0
MTEXT
  5
D34
330
D23
100
AcDbEntity
  8
5
 62
     2
100
AcDbMText
 10
7.873720555812089
 20
597.8573550639342
 30
0.0
 40
15.75
 41
0.0
 71
     5
 72
     1
  1
\A1;150
 11
0.0000000000000001
 21
1.0
 31
0.0
 73
     1
 44
1.0
1001
ACAD
1000
MTEXTBEGIN
1070
    73
1070
     1
1070
    44
1040
1.0
1070
    74
1070
     0
1000
MTEXTEND
  0
POINT
  5
D35
330
D23
100
AcDbEntity
  8
DEFPOINTS
 62
     0
100
AcDbPoint
 10
94.93800400000001
 20
671.693072
 30
0.0
  0
POINT
  5
D36
330
D23
100
AcDbEntity
  8
DEFPOINTS
 62
     0
100
AcDbPoint
 10
136.814145
 20
521.693072
 30
0.0
  0
POINT
  5
D37
330
D23
100
AcDbEntity
  8
DEFPOINTS
 62
     0
100
AcDbPoint
 10
18.44872055581217
 20
521.693072
 30
0.0
  0
ENDBLK
  5
D2E
330
D23
100
AcDbEntity
  8
0
100
AcDbBlockEnd
  0
BLOCK
  5
D54
330
D48
100
AcDbEntity
  8
0
100
AcDbBlockBegin
  2
*D19
 70
     1
 10
0.0
 20
0.0
 30
0.0
  3
*D19
  1

  0
LINE
  5
D56
330
D48
100
AcDbEntity
  8
AM_5
370
    -2
100
AcDbLine
 10
90.438004
 20
671.693072
 30
0.0
 11
69.17003205053697
 21
671.693072
 31
0.0
  0
LINE
  5
D57
330
D48
100
AcDbEntity
  8
AM_5
370
    -2
100
AcDbLine
 10
97.43800400000001
 20
652.660841
 30
0.0
 11
69.17003205053697
 21
652.660841
 31
0.0
  0
LINE
  5
D58
330
D48
100
AcDbEntity
  8
AM_5
370
    -2
100
AcDbLine
 10
73.67003205053698
 20
682.943072
 30
0.0
 11
73.67003205053698
 21
694.193072
 31
0.0
  0
LINE
  5
D59
330
D48
100
AcDbEntity
  8
AM_5
370
    -2
100
AcDbLine
 10
73.67003205053697
 20
641.4108409999999
 30
0.0
 11
73.67003205053697
 21
609.4582437057223
 31
0.0
  0
LINE
  5
D5A
330
D48
100
AcDbEntity
  8
AM_5
370
    -2
100
AcDbLine
 10
73.67003205053697
 20
671.693072
 30
0.0
 11
73.67003205053697
 21
652.660841
 31
0.0
  0
SOLID
  5
D5B
330
D48
100
AcDbEntity
  8
AM_5
100
AcDbTrace
 10
71.79503205053698
 20
682.943072
 30
0.0
 11
75.54503205053698
 21
682.943072
 31
0.0
 12
73.67003205053697
 22
671.693072
 32
0.0
 13
73.67003205053697
 23
671.693072
 33
0.0
  0
SOLID
  5
D5C
330
D48
100
AcDbEntity
  8
AM_5
100
AcDbTrace
 10
71.79503205053697
 20
641.4108409999999
 30
0.0
 11
75.54503205053697
 21
641.4108409999999
 31
0.0
 12
73.67003205053697
 22
652.660841
 32
0.0
 13
73.67003205053697
 23
652.660841
 33
0.0
  0
MTEXT
  5
D5D
330
D48
100
AcDbEntity
  8
AM_5
 62
     2
100
AcDbMText
 10
63.09503205053687
 20
619.8095423528611
 30
0.0
 40
15.75
 41
0.0
 71
     5
 72
     1
  1
\A1;19
 11
0.0000000000000001
 21
1.0
 31
0.0
 73
     1
 44
1.0
1001
ACAD
1000
MTEXTBEGIN
1070
    73
1070
     1
1070
    44
1040
1.0
1070
    74
1070
     0
1000
MTEXTEND
  0
POINT
  5
D5E
330
D48
100
AcDbEntity
  8
DEFPOINTS
 62
     0
100
AcDbPoint
 10
94.93800400000001
 20
671.693072
 30
0.0
  0
POINT
  5
D5F
330
D48
100
AcDbEntity
  8
DEFPOINTS
 62
     0
100
AcDbPoint
 10
101.938004
 20
652.660841
 30
0.0
  0
POINT
  5
D60
330
D48
100
AcDbEntity
  8
DEFPOINTS
 62
     0
100
AcDbPoint
 10
73.67003205053697
 20
652.660841
 30
0.0
  0
ENDBLK
  5
D55
330
D48
100
AcDbEntity
  8
0
100
AcDbBlockEnd
  0
ENDSEC
  0
SECTION
  2
ENTITIES
  0
POLYLINE
  5
2A3
330
9AD
100
AcDbEntity
  8
0
100
AcDb2dPolyline
 66
     1
 10
0.0
 20
0.0
 30
0.0
 70
     1
1001
GENIUS_GENODEF_13
1002
{
1000
HIER
1070
     0
1002
}
1002
{
1000
MANEDIT
1070
     0
1002
}
1002
{
1000
NOSEL
1070
     0
1002
}
1002
{
1000
BEHIND
1070
     0
1002
}
1002
{
1000
REACTOR
1002
}
1001
GENIUS_GENOBJ-N-REC_13
1002
{
1000
OWNER
1000
GEN
1002
}
1001
GENIUS_GENREC_13
1070
     4
1070
     2
1070
     1
  0
VERTEX
  5
992
330
2A3
100
AcDbEntity
  8
0
100
AcDbVertex
100
AcDb2dVertex
 10
91.25863699999994
 20
68.28229913148692
 30
0.0
  0
VERTEX
  5
993
330
2A3
100
AcDbEntity
  8
0
100
AcDbVertex
100
AcDb2dVertex
 10
296.258637
 20
68.28229913148692
 30
0.0
  0
VERTEX
  5
994
330
2A3
100
AcDbEntity
  8
0
100
AcDbVertex
100
AcDb2dVertex
 10
296.258637
 20
273.282299131487
 30
0.0
  0
VERTEX
  5
995
330
2A3
100
AcDbEntity
  8
0
100
AcDbVertex
100
AcDb2dVertex
 10
91.25863699999994
 20
273.282299131487
 30
0.0
  0
SEQEND
  5
996
330
2A3
100
AcDbEntity
  8
0
  0
POLYLINE
  5
2E3
330
9AD
100
AcDbEntity
  8
0
100
AcDb2dPolyline
 66
     1
 10
0.0
 20
0.0
 30
0.0
 70
     1
1001
GENIUS_GENODEF_13
1002
{
1000
HIER
1070
     0
1002
}
1002
{
1000
MANEDIT
1070
     0
1002
}
1002
{
1000
NOSEL
1070
     0
1002
}
1002
{
1000
BEHIND
1070
     0
1002
}
1002
{
1000
REACTOR
1002
}
1001
GENIUS_GENOBJ-N-REC_13
1002
{
1000
OWNER
1000
GEN
1002
}
1001
GENIUS_GENREC_13
1070
     4
1070
     2
1070
     1
  0
VERTEX
  5
2E4
330
2E3
100
AcDbEntity
  8
0
100
AcDbVertex
100
AcDb2dVertex
 10
99.25863699999993
 20
76.28229913148692
 30
0.0
1001
GENIUS_GENODEF_13
1002
{
1000
HIER
1070
     0
1002
}
1002
{
1000
MANEDIT
1070
     0
1002
}
1002
{
1000
NOSEL
1070
     0
1002
}
1002
{
1000
BEHIND
1070
     0
1002
}
1002
{
1000
REACTOR
1002
}
1001
GENIUS_GENOBJ-N-REC_13
1002
{
1000
OWNER
1000
GEN
1002
}
1001
GENIUS_GENREC_13
1070
     4
1070
     2
1070
     1
  0
VERTEX
  5
2E5
330
2E3
100
AcDbEntity
  8
0
100
AcDbVertex
100
AcDb2dVertex
 10
288.258637
 20
76.28229913148692
 30
0.0
1001
GENIUS_GENODEF_13
1002
{
1000
HIER
1070
     0
1002
}
1002
{
1000
MANEDIT
1070
     0
1002
}
1002
{
1000
NOSEL
1070
     0
1002
}
1002
{
1000
BEHIND
1070
     0
1002
}
1002
{
1000
REACTOR
1002
}
1001
GENIUS_GENOBJ-N-REC_13
1002
{
1000
OWNER
1000
GEN
1002
}
1001
GENIUS_GENREC_13
1070
     4
1070
     2
1070
     1
  0
VERTEX
  5
2E6
330
2E3
100
AcDbEntity
  8
0
100
AcDbVertex
100
AcDb2dVertex
 10
288.258637
 20
265.282299131487
 30
0.0
1001
GENIUS_GENODEF_13
1002
{
1000
HIER
1070
     0
1002
}
1002
{
1000
MANEDIT
1070
     0
1002
}
1002
{
1000
NOSEL
1070
     0
1002
}
1002
{
1000
BEHIND
1070
     0
1002
}
1002
{
1000
REACTOR
1002
}
1001
GENIUS_GENOBJ-N-REC_13
1002
{
1000
OWNER
1000
GEN
1002
}
1001
GENIUS_GENREC_13
1070
     4
1070
     2
1070
     1
  0
VERTEX
  5
2E7
330
2E3
100
AcDbEntity
  8
0
100
AcDbVertex
100
AcDb2dVertex
 10
99.25863699999993
 20
265.282299131487
 30
0.0
1001
GENIUS_GENODEF_13
1002
{
1000
HIER
1070
     0
1002
}
1002
{
1000
MANEDIT
1070
     0
1002
}
1002
{
1000
NOSEL
1070
     0
1002
}
1002
{
1000
BEHIND
1070
     0
1002
}
1002
{
1000
REACTOR
1002
}
1001
GENIUS_GENOBJ-N-REC_13
1002
{
1000
OWNER
1000
GEN
1002
}
1001
GENIUS_GENREC_13
1070
     4
1070
     2
1070
     1
  0
SEQEND
  5
2E8
330
2E3
100
AcDbEntity
  8
0
  0
POLYLINE
  5
2F2
330
9AD
100
AcDbEntity
  8
0
100
AcDb2dPolyline
 66
     1
 10
0.0
 20
0.0
 30
0.0
 70
     1
1001
GENIUS_GENODEF_13
1002
{
1000
HIER
1070
     0
1002
}
1002
{
1000
MANEDIT
1070
     0
1002
}
1002
{
1000
NOSEL
1070
     0
1002
}
1002
{
1000
BEHIND
1070
     0
1002
}
1002
{
1000
REACTOR
1002
}
1001
GENIUS_GENOBJ-N-REC_13
1002
{
1000
OWNER
1000
GEN
1002
}
1001
GENIUS_GENREC_13
1070
     4
1070
     2
1070
     1
  0
VERTEX
  5
2F3
330
2F2
100
AcDbEntity
  8
0
100
AcDbVertex
100
AcDb2dVertex
 10
100.2586369999999
 20
77.28229913148692
 30
0.0
1001
GENIUS_GENODEF_13
1002
{
1000
HIER
1070
     0
1002
}
1002
{
1000
MANEDIT
1070
     0
1002
}
1002
{
1000
NOSEL
1070
     0
1002
}
1002
{
1000
BEHIND
1070
     0
1002
}
1002
{
1000
REACTOR
1002
}
1001
GENIUS_GENOBJ-N-REC_13
1002
{
1000
OWNER
1000
GEN
1002
}
1001
GENIUS_GENREC_13
1070
     4
1070
     2
1070
     1
  0
VERTEX
  5
2F4
330
2F2
100
AcDbEntity
  8
0
100
AcDbVertex
100
AcDb2dVertex
 10
287.258637
 20
77.28229913148692
 30
0.0
1001
GENIUS_GENODEF_13
1002
{
1000
HIER
1070
     0
1002
}
1002
{
1000
MANEDIT
1070
     0
1002
}
1002
{
1000
NOSEL
1070
     0
1002
}
1002
{
1000
BEHIND
1070
     0
1002
}
1002
{
1000
REACTOR
1002
}
1001
GENIUS_GENOBJ-N-REC_13
1002
{
1000
OWNER
1000
GEN
1002
}
1001
GENIUS_GENREC_13
1070
     4
1070
     2
1070
     1
  0
VERTEX
  5
2F5
330
2F2
100
AcDbEntity
  8
0
100
AcDbVertex
100
AcDb2dVertex
 10
287.258637
 20
264.282299131487
 30
0.0
1001
GENIUS_GENODEF_13
1002
{
1000
HIER
1070
     0
1002
}
1002
{
1000
MANEDIT
1070
     0
1002
}
1002
{
1000
NOSEL
1070
     0
1002
}
1002
{
1000
BEHIND
1070
     0
1002
}
1002
{
1000
REACTOR
1002
}
1001
GENIUS_GENOBJ-N-REC_13
1002
{
1000
OWNER
1000
GEN
1002
}
1001
GENIUS_GENREC_13
1070
     4
1070
     2
1070
     1
  0
VERTEX
  5
2F6
330
2F2
100
AcDbEntity
  8
0
100
AcDbVertex
100
AcDb2dVertex
 10
100.2586369999999
 20
264.282299131487
 30
0.0
1001
GENIUS_GENODEF_13
1002
{
1000
HIER
1070
     0
1002
}
1002
{
1000
MANEDIT
1070
     0
1002
}
1002
{
1000
NOSEL
1070
     0
1002
}
1002
{
1000
BEHIND
1070
     0
1002
}
1002
{
1000
REACTOR
1002
}
1001
GENIUS_GENOBJ-N-REC_13
1002
{
1000
OWNER
1000
GEN
1002
}
1001
GENIUS_GENREC_13
1070
     4
1070
     2
1070
     1
  0
SEQEND
  5
2F7
330
2F2
100
AcDbEntity
  8
0
  0
LINE
  5
2F9
330
9AD
100
AcDbEntity
  8
0
100
AcDbLine
 10
114.5061009999999
 20
232.7160161314869
 30
0.0
 11
114.5061009999999
 21
170.7822991314869
 31
0.0
  0
LINE
  5
2FA
330
9AD
100
AcDbEntity
  8
0
100
AcDbLine
 10
158.9408519999999
 20
240.0444981314869
 30
0.0
 11
158.9408519999999
 21
170.7822991314869
 31
0.0
  0
LINE
  5
2FB
330
9AD
100
AcDbEntity
  8
0
100
AcDbLine
 10
179.2169039999999
 20
241.7688461314869
 30
0.0
 11
179.2169039999999
 21
170.7822991314869
 31
0.0
  0
LINE
  5
2FC
330
9AD
100
AcDbEntity
  8
0
100
AcDbLine
 10
189.2169039999999
 20
217.853741131487
 30
0.0
 11
179.2169039999999
 21
217.853741131487
 31
0.0
  0
LINE
  5
301
330
9AD
100
AcDbEntity
  8
0
100
AcDbLine
 10
124.5061009999999
 20
232.7160161314869
 30
0.0
 11
124.5061009999999
 21
170.7822991314869
 31
0.0
  0
LINE
  5
303
330
9AD
100
AcDbEntity
  8
0
100
AcDbLine
 10
168.9408519999999
 20
240.0444981314869
 30
0.0
 11
168.9408519999999
 21
170.7822991314869
 31
0.0
  0
LINE
  5
305
330
9AD
100
AcDbEntity
  8
0
100
AcDbLine
 10
189.2169039999999
 20
241.7688461314869
 30
0.0
 11
189.2169039999999
 21
170.7822991314869
 31
0.0
  0
ARC
  5
308
330
9AD
100
AcDbEntity
  8
0
100
AcDbCircle
 10
119.5061009999999
 20
232.7160161314869
 30
0.0
 40
5.0
100
AcDbArc
 50
0.0
 51
180.0
  0
ARC
  5
309
330
9AD
100
AcDbEntity
  8
0
100
AcDbCircle
 10
163.9408519999999
 20
240.0444981314869
 30
0.0
 40
5.0
100
AcDbArc
 50
0.0
 51
180.0
  0
ARC
  5
30A
330
9AD
100
AcDbEntity
  8
0
100
AcDbCircle
 10
184.2169039999999
 20
241.7688461314869
 30
0.0
 40
5.0
100
AcDbArc
 50
0.0
 51
180.0
  0
LINE
  5
30B
330
9AD
100
AcDbEntity
  8
0
100
AcDbLine
 10
168.9408519999999
 20
217.853741131487
 30
0.0
 11
158.9408519999999
 21
217.853741131487
 31
0.0
  0
LINE
  5
30C
330
9AD
100
AcDbEntity
  8
0
100
AcDbLine
 10
136.8615039999999
 20
232.7160161314869
 30
0.0
 11
136.8615039999999
 21
170.7822991314869
 31
0.0
  0
LINE
  5
30D
330
9AD
100
AcDbEntity
  8
0
100
AcDbLine
 10
146.8615039999999
 20
232.7160161314869
 30
0.0
 11
146.8615039999999
 21
170.7822991314869
 31
0.0
  0
ARC
  5
30E
330
9AD
100
AcDbEntity
  8
0
100
AcDbCircle
 10
141.8615039999999
 20
232.7160161314869
 30
0.0
 40
5.0
100
AcDbArc
 50
0.0
 51
180.0
  0
ARC
  5
310
330
9AD
100
AcDbEntity
  8
0
100
AcDbCircle
 10
245.6557689999999
 20
232.7160161314869
 30
0.0
 40
5.0
100
AcDbArc
 50
0.0
 51
180.0
  0
LINE
  5
311
330
9AD
100
AcDbEntity
  8
0
100
AcDbLine
 10
250.6557689999999
 20
232.7160161314869
 30
0.0
 11
250.6557689999999
 21
170.7822991314869
 31
0.0
  0
LINE
  5
312
330
9AD
100
AcDbEntity
  8
0
100
AcDbLine
 10
273.0111729999999
 20
232.7160161314869
 30
0.0
 11
273.0111729999999
 21
170.7822991314869
 31
0.0
  0
LINE
  5
313
330
9AD
100
AcDbEntity
  8
0
100
AcDbLine
 10
263.0111729999999
 20
232.7160161314869
 30
0.0
 11
263.0111729999999
 21
170.7822991314869
 31
0.0
  0
ARC
  5
314
330
9AD
100
AcDbEntity
  8
0
100
AcDbCircle
 10
268.0111729999999
 20
232.7160161314869
 30
0.0
 40
5.0
100
AcDbArc
 50
0.0
 51
180.0
  0
LINE
  5
315
330
9AD
100
AcDbEntity
  8
0
100
AcDbLine
 10
240.6557689999999
 20
232.7160161314869
 30
0.0
 11
240.6557689999999
 21
170.7822991314869
 31
0.0
  0
LINE
  5
316
330
9AD
100
AcDbEntity
  8
0
100
AcDbLine
 10
228.5764209999999
 20
240.0444981314869
 30
0.0
 11
228.5764209999999
 21
170.7822991314869
 31
0.0
  0
LINE
  5
317
330
9AD
100
AcDbEntity
  8
0
100
AcDbLine
 10
218.5764209999999
 20
240.0444981314869
 30
0.0
 11
218.5764209999999
 21
170.7822991314869
 31
0.0
  0
ARC
  5
319
330
9AD
100
AcDbEntity
  8
0
100
AcDbCircle
 10
223.5764209999999
 20
240.0444981314869
 30
0.0
 40
5.0
100
AcDbArc
 50
0.0
 51
180.0
  0
LINE
  5
31A
330
9AD
100
AcDbEntity
  8
0
100
AcDbLine
 10
208.3003689999999
 20
241.7688461314869
 30
0.0
 11
208.3003689999999
 21
170.7822991314869
 31
0.0
  0
LINE
  5
31B
330
9AD
100
AcDbEntity
  8
0
100
AcDbLine
 10
198.3003689999999
 20
241.7688461314869
 30
0.0
 11
198.3003689999999
 21
170.7822991314869
 31
0.0
  0
ARC
  5
31D
330
9AD
100
AcDbEntity
  8
0
100
AcDbCircle
 10
203.3003689999999
 20
241.7688461314869
 30
0.0
 40
5.0
100
AcDbArc
 50
0.0
 51
180.0
  0
LINE
  5
31E
330
9AD
100
AcDbEntity
  8
0
100
AcDbLine
 10
250.6557689999999
 20
190.5136841314869
 30
0.0
 11
240.6557689999999
 21
190.5136841314869
 31
0.0
  0
LINE
  5
31F
330
9AD
100
AcDbEntity
  8
0
100
AcDbLine
 10
119.5061009999999
 20
237.7160161314869
 30
0.0
 11
119.5061009999999
 21
170.7822991314869
 31
0.0
  0
LINE
  5
320
330
9AD
100
AcDbEntity
  8
0
100
AcDbLine
 10
141.9759289999999
 20
215.742314131487
 30
0.0
 11
141.9759289999999
 21
170.7822991314869
 31
0.0
  0
LINE
  5
321
330
9AD
100
AcDbEntity
  8
0
100
AcDbLine
 10
136.8615039999999
 20
220.994931131487
 30
0.0
 11
142.4036459999999
 21
215.3030411314869
 31
0.0
  0
LINE
  5
322
330
9AD
100
AcDbEntity
  8
0
100
AcDbLine
 10
142.4036459999999
 20
215.3030411314869
 30
0.0
 11
146.8615039999999
 21
217.827297131487
 31
0.0
  0
LINE
  5
323
330
9AD
100
AcDbEntity
  8
0
100
AcDbLine
 10
142.4036459999999
 20
126.2615571314869
 30
0.0
 11
146.8615039999999
 21
123.7373011314869
 31
0.0
  0
ARC
  5
324
330
9AD
100
AcDbEntity
  8
0
100
AcDbCircle
 10
141.8615039999999
 20
108.8485811314869
 30
0.0
 40
5.0
100
AcDbArc
 50
180.0
 51
0.0
  0
LINE
  5
325
330
9AD
100
AcDbEntity
  8
0
100
AcDbLine
 10
136.8615039999999
 20
120.5696661314869
 30
0.0
 11
142.4036459999999
 21
126.2615571314869
 31
0.0
  0
LINE
  5
326
330
9AD
100
AcDbEntity
  8
0
100
AcDbLine
 10
119.5061009999999
 20
103.8485811314869
 30
0.0
 11
119.5061009999999
 21
170.7822991314869
 31
0.0
  0
LINE
  5
327
330
9AD
100
AcDbEntity
  8
0
100
AcDbLine
 10
136.8615039999999
 20
108.8485811314869
 30
0.0
 11
136.8615039999999
 21
170.7822991314869
 31
0.0
  0
LINE
  5
328
330
9AD
100
AcDbEntity
  8
0
100
AcDbLine
 10
114.5061009999999
 20
108.8485811314869
 30
0.0
 11
114.5061009999999
 21
170.7822991314869
 31
0.0
  0
LINE
  5
329
330
9AD
100
AcDbEntity
  8
0
100
AcDbLine
 10
124.5061009999999
 20
108.8485811314869
 30
0.0
 11
124.5061009999999
 21
170.7822991314869
 31
0.0
  0
LINE
  5
32A
330
9AD
100
AcDbEntity
  8
0
100
AcDbLine
 10
141.9759289999999
 20
125.8222831314869
 30
0.0
 11
141.9759289999999
 21
170.7822991314869
 31
0.0
  0
ARC
  5
32B
330
9AD
100
AcDbEntity
  8
0
100
AcDbCircle
 10
119.5061009999999
 20
108.8485811314869
 30
0.0
 40
5.0
100
AcDbArc
 50
180.0
 51
0.0
  0
LINE
  5
32C
330
9AD
100
AcDbEntity
  8
0
100
AcDbLine
 10
146.8615039999999
 20
108.8485811314869
 30
0.0
 11
146.8615039999999
 21
170.7822991314869
 31
0.0
  0
LINE
  5
32D
330
9AD
100
AcDbEntity
  8
0
100
AcDbLine
 10
158.9408519999999
 20
101.5201001314869
 30
0.0
 11
158.9408519999999
 21
170.7822991314869
 31
0.0
  0
LINE
  5
32E
330
9AD
100
AcDbEntity
  8
0
100
AcDbLine
 10
168.9408519999999
 20
101.5201001314869
 30
0.0
 11
168.9408519999999
 21
170.7822991314869
 31
0.0
  0
LINE
  5
32F
330
9AD
100
AcDbEntity
  8
0
100
AcDbLine
 10
168.9408519999999
 20
123.7108561314869
 30
0.0
 11
158.9408519999999
 21
123.7108561314869
 31
0.0
  0
ARC
  5
330
330
9AD
100
AcDbEntity
  8
0
100
AcDbCircle
 10
163.9408519999999
 20
101.5201001314869
 30
0.0
 40
5.0
100
AcDbArc
 50
180.0
 51
0.0
  0
LINE
  5
331
330
9AD
100
AcDbEntity
  8
0
100
AcDbLine
 10
198.3003689999999
 20
99.79575113148696
 30
0.0
 11
198.3003689999999
 21
170.7822991314869
 31
0.0
  0
LINE
  5
332
330
9AD
100
AcDbEntity
  8
0
100
AcDbLine
 10
208.3003689999999
 20
99.79575113148696
 30
0.0
 11
208.3003689999999
 21
170.7822991314869
 31
0.0
  0
LINE
  5
333
330
9AD
100
AcDbEntity
  8
0
100
AcDbLine
 10
179.2169039999999
 20
99.79575113148696
 30
0.0
 11
179.2169039999999
 21
170.7822991314869
 31
0.0
  0
LINE
  5
334
330
9AD
100
AcDbEntity
  8
0
100
AcDbLine
 10
189.2169039999999
 20
99.79575113148696
 30
0.0
 11
189.2169039999999
 21
170.7822991314869
 31
0.0
  0
LINE
  5
335
330
9AD
100
AcDbEntity
  8
0
100
AcDbLine
 10
189.2169039999999
 20
123.7108561314869
 30
0.0
 11
179.2169039999999
 21
123.7108561314869
 31
0.0
  0
ARC
  5
336
330
9AD
100
AcDbEntity
  8
0
100
AcDbCircle
 10
184.2169039999999
 20
99.79575113148696
 30
0.0
 40
5.0
100
AcDbArc
 50
180.0
 51
0.0
  0
ARC
  5
337
330
9AD
100
AcDbEntity
  8
0
100
AcDbCircle
 10
203.3003689999999
 20
99.79575113148696
 30
0.0
 40
5.0
100
AcDbArc
 50
180.0
 51
0.0
  0
LINE
  5
338
330
9AD
100
AcDbEntity
  8
0
100
AcDbLine
 10
250.6557689999999
 20
151.0509141314869
 30
0.0
 11
240.6557689999999
 21
151.0509141314869
 31
0.0
  0
ARC
  5
339
330
9AD
100
AcDbEntity
  8
0
100
AcDbCircle
 10
245.6557689999999
 20
108.8485811314869
 30
0.0
 40
5.0
100
AcDbArc
 50
180.0
 51
0.0
  0
LINE
  5
33A
330
9AD
100
AcDbEntity
  8
0
100
AcDbLine
 10
218.5764209999999
 20
101.5201001314869
 30
0.0
 11
218.5764209999999
 21
170.7822991314869
 31
0.0
  0
LINE
  5
33B
330
9AD
100
AcDbEntity
  8
0
100
AcDbLine
 10
228.5764209999999
 20
101.5201001314869
 30
0.0
 11
228.5764209999999
 21
170.7822991314869
 31
0.0
  0
LINE
  5
33C
330
9AD
100
AcDbEntity
  8
0
100
AcDbLine
 10
240.6557689999999
 20
108.8485811314869
 30
0.0
 11
240.6557689999999
 21
170.7822991314869
 31
0.0
  0
ARC
  5
33D
330
9AD
100
AcDbEntity
  8
0
100
AcDbCircle
 10
223.5764209999999
 20
101.5201001314869
 30
0.0
 40
5.0
100
AcDbArc
 50
180.0
 51
0.0
  0
LINE
  5
33E
330
9AD
100
AcDbEntity
  8
0
100
AcDbLine
 10
263.0111729999999
 20
108.8485811314869
 30
0.0
 11
263.0111729999999
 21
170.7822991314869
 31
0.0
  0
LINE
  5
33F
330
9AD
100
AcDbEntity
  8
0
100
AcDbLine
 10
273.0111729999999
 20
108.8485811314869
 30
0.0
 11
273.0111729999999
 21
170.7822991314869
 31
0.0
  0
LINE
  5
340
330
9AD
100
AcDbEntity
  8
0
100
AcDbLine
 10
250.6557689999999
 20
108.8485811314869
 30
0.0
 11
250.6557689999999
 21
170.7822991314869
 31
0.0
  0
ARC
  5
341
330
9AD
100
AcDbEntity
  8
0
100
AcDbCircle
 10
268.0111729999999
 20
108.8485811314869
 30
0.0
 40
5.0
100
AcDbArc
 50
180.0
 51
0.0
  0
DIMENSION
  5
355
330
9AD
100
AcDbEntity
  8
5
100
AcDbDimension
  2
*D13
 10
228.5764209999999
 20
44.84838613148696
 30
0.0
 11
260.8701217874015
 21
55.42338613148697
 31
0.0
 70
    32
  1
<>
 71
     5
 42
10.0
  3
GEN-ISO
100
AcDbAlignedDimension
 13
218.5764209999999
 23
101.5201001314869
 33
0.0
 14
228.5764209999999
 24
101.5201001314869
 34
0.0
100
AcDbRotatedDimension
1001
GENIUS_GENDTOL_13
1000

1000
h7
1000

1040
0.0
  0
DIMENSION
  5
38B
330
9AD
100
AcDbEntity
  8
5
100
AcDbDimension
  2
*D14
 10
296.258637
 20
5.886571131486931
 30
0.0
 11
193.758637
 21
16.46312132833732
 31
0.0
 70
    32
  1
<>
 71
     5
 42
205.0
  3
GEN-ISO
100
AcDbAlignedDimension
 13
91.25863699999994
 23
68.28229913148692
 33
0.0
 14
296.258637
 24
68.28229913148692
 34
0.0
100
AcDbRotatedDimension
1001
GENIUS_GENDTOL_13
1000

1000
h7
1000

1040
0.0
  0
DIMENSION
  5
3B1
330
9AD
100
AcDbEntity
  8
5
100
AcDbDimension
  2
*D15
 10
46.25863599999994
 20
273.282299131487
 30
0.0
 11
35.68208580314949
 21
170.7822991314869
 31
0.0
 70
    32
  1
<>
 71
     5
 42
205.0000000000001
  3
GEN-ISO
100
AcDbAlignedDimension
 13
91.25863699999994
 23
68.28229913148692
 33
0.0
 14
91.25863699999994
 24
273.282299131487
 34
0.0
 50
90.0
100
AcDbRotatedDimension
1001
GENIUS_GENDTOL_13
1000

1000
h7
1000

1040
0.0
  0
LINE
  5
3C8
330
9AD
100
AcDbEntity
  8
0
100
AcDbLine
 10
94.93800400000001
 20
671.693072
 30
0.0
 11
299.938004
 21
671.693072
 31
0.0
  0
LINE
  5
3C9
330
9AD
100
AcDbEntity
  8
0
100
AcDbLine
 10
107.031995
 20
642.322744
 30
0.0
 11
97.44077500000001
 21
647.8520599999999
 31
0.0
  0
LINE
  5
3CB
330
9AD
100
AcDbEntity
  8
0
100
AcDbLine
 10
109.529585
 20
638.218566
 30
0.0
 11
113.837975
 21
543.6463559999999
 31
0.0
  0
LINE
  5
3CD
330
9AD
100
AcDbEntity
  8
0
100
AcDbLine
 10
187.099085
 20
516.693072
 30
0.0
 11
187.099085
 21
421.6930719999999
 31
0.0
  0
LINE
  5
3CE
330
9AD
100
AcDbEntity
  8
0
100
AcDbLine
 10
187.099085
 20
421.6930719999999
 30
0.0
 11
296.848865
 21
421.6930719999999
 31
0.0
  0
LINE
  5
3D0
330
9AD
100
AcDbEntity
  8
0
100
AcDbLine
 10
94.93800400000001
 20
671.693072
 30
0.0
 11
94.93800400000001
 21
652.1837849999999
 31
0.0
  0
LINE
  5
3D1
330
9AD
100
AcDbEntity
  8
0
100
AcDbLine
 10
136.814145
 20
521.693072
 30
0.0
 11
182.099085
 21
521.693072
 31
0.0
  0
LINE
  5
3D5
330
9AD
100
AcDbEntity
  8
0
100
AcDbLine
 10
299.005657
 20
648.6285719999999
 30
0.0
 11
297.781212
 21
646.915613
 31
0.0
  0
LINE
  5
3D6
330
9AD
100
AcDbEntity
  8
0
100
AcDbLine
 10
296.848865
 20
644.0080019999999
 30
0.0
 11
296.848865
 21
421.6930719999999
 31
0.0
  0
LINE
  5
3D8
330
9AD
100
AcDbEntity
  8
0
100
AcDbLine
 10
261.533342
 20
607.886579
 30
0.0
 11
261.533342
 21
544.8266559999999
 31
0.0
  0
LINE
  5
3D9
330
9AD
100
AcDbEntity
  8
0
100
AcDbLine
 10
238.533342
 20
521.8266559999999
 30
0.0
 11
199.099085
 21
521.8266559999999
 31
0.0
  0
LINE
  5
3DA
330
9AD
100
AcDbEntity
  8
0
100
AcDbLine
 10
283.225873
 20
634.0263089999999
 30
0.0
 11
233.515149
 21
616.9665309999999
 31
0.0
  0
LINE
  5
3DB
330
9AD
100
AcDbEntity
  8
0
100
AcDbLine
 10
226.761134
 20
607.5080119999999
 30
0.0
 11
226.761134
 21
547.8865789999999
 31
0.0
  0
LINE
  5
3DC
330
9AD
100
AcDbEntity
  8
0
100
AcDbLine
 10
115.878904
 20
652.660841
 30
0.0
 11
120.87355
 21
543.024832
 31
0.0
  0
LINE
  5
3DE
330
9AD
100
AcDbEntity
  8
0
100
AcDbLine
 10
135.873073
 20
528.7074809999999
 30
0.0
 11
239.548407
 21
528.811606
 31
0.0
  0
LINE
  5
3E0
330
9AD
100
AcDbEntity
  8
0
100
AcDbLine
 10
194.099085
 20
516.8266559999999
 30
0.0
 11
194.099085
 21
452.47347
 31
0.0
  0
LINE
  5
3E8
330
9AD
100
AcDbEntity
  8
0
100
AcDbLine
 10
101.938004
 20
671.693072
 30
0.0
 11
101.938004
 21
652.660841
 31
0.0
  0
LINE
  5
3EC
330
9AD
100
AcDbEntity
  8
0
100
AcDbLine
 10
254.533342
 20
607.886579
 30
0.0
 11
254.533342
 21
543.811598
 31
0.0
  0
LINE
  5
3F2
330
9AD
100
AcDbEntity
  8
0
100
AcDbLine
 10
219.761134
 20
612.50648
 30
0.0
 11
219.761134
 21
547.8865789999999
 31
0.0
  0
LINE
  5
3F4
330
9AD
100
AcDbEntity
  8
0
100
AcDbLine
 10
299.938004
 20
671.693072
 30
0.0
 11
299.938004
 21
651.536182
 31
0.0
  0
LINE
  5
3F5
330
9AD
100
AcDbEntity
  8
0
100
AcDbLine
 10
292.938004
 20
671.693072
 30
0.0
 11
292.9380039999999
 21
652.660841
 31
0.0
  0
LINE
  5
3F7
330
9AD
100
AcDbEntity
  8
0
100
AcDbLine
 10
219.761134
 20
547.8865789999999
 30
0.0
 11
226.761134
 21
547.8865789999999
 31
0.0
  0
LINE
  5
3F8
330
9AD
100
AcDbEntity
  8
0
100
AcDbLine
 10
237.595499
 20
625.767565
 30
0.0
 11
239.867689
 21
619.1466019999999
 31
0.0
  0
LINE
  5
3FB
330
9AD
100
AcDbEntity
  8
0
100
AcDbLine
 10
264.542946
 20
635.015419
 30
0.0
 11
266.883381
 21
628.4178759999999
 31
0.0
  0
LINE
  5
3FF
330
9AD
100
AcDbEntity
  8
0
100
AcDbLine
 10
119.103478
 20
652.660841
 30
0.0
 11
119.103478
 21
671.693072
 31
0.0
  0
LINE
  5
400
330
9AD
100
AcDbEntity
  8
0
100
AcDbLine
 10
129.103478
 20
652.660841
 30
0.0
 11
129.103478
 21
671.693072
 31
0.0
  0
LINE
  5
402
330
9AD
100
AcDbEntity
  8
0
100
AcDbLine
 10
149.651045
 20
652.660841
 30
0.0
 11
149.651045
 21
671.693072
 31
0.0
  0
LINE
  5
403
330
9AD
100
AcDbEntity
  8
0
100
AcDbLine
 10
139.651045
 20
652.660841
 30
0.0
 11
139.651045
 21
671.693072
 31
0.0
  0
LINE
  5
404
330
9AD
100
AcDbEntity
  8
0
100
AcDbLine
 10
170.298936
 20
652.660841
 30
0.0
 11
170.298936
 21
671.693072
 31
0.0
  0
LINE
  5
405
330
9AD
100
AcDbEntity
  8
0
100
AcDbLine
 10
160.298936
 20
652.660841
 30
0.0
 11
160.298936
 21
671.693072
 31
0.0
  0
LINE
  5
406
330
9AD
100
AcDbEntity
  8
0
100
AcDbLine
 10
191.512523
 20
652.660841
 30
0.0
 11
191.512523
 21
671.693072
 31
0.0
  0
LINE
  5
407
330
9AD
100
AcDbEntity
  8
0
100
AcDbLine
 10
181.5125229999999
 20
652.660841
 30
0.0
 11
181.5125229999999
 21
671.693072
 31
0.0
  0
LINE
  5
408
330
9AD
100
AcDbEntity
  8
0
100
AcDbLine
 10
101.938004
 20
652.660841
 30
0.0
 11
292.938004
 21
652.660841
 31
0.0
  0
LINE
  5
409
330
9AD
100
AcDbEntity
  8
0
100
AcDbLine
 10
108.072414
 20
671.693072
 30
0.0
 11
108.072414
 21
652.660841
 31
0.0
  0
LINE
  5
40C
330
9AD
100
AcDbEntity
  8
7
100
AcDbLine
 10
197.438004
 20
674.693072
 30
0.0
 11
197.438004
 21
537.7665429999999
 31
0.0
1001
GENIUS_GENODEF_13
1002
{
1000
HIER
1070
     0
1002
}
1002
{
1000
MANEDIT
1070
     0
1002
}
1002
{
1000
NOSEL
1070
     0
1002
}
1002
{
1000
BEHIND
1070
     0
1002
}
1002
{
1000
REACTOR
1002
}
1001
GENIUS_GENOBJ-N-CEN_13
1002
{
1000
OWNER
1000
GEN
1002
}
  0
LINE
  5
40E
330
9AD
100
AcDbEntity
  8
0
100
AcDbLine
 10
203.363485
 20
652.660841
 30
0.0
 11
203.363485
 21
671.693072
 31
0.0
  0
LINE
  5
40F
330
9AD
100
AcDbEntity
  8
0
100
AcDbLine
 10
286.803594
 20
671.693072
 30
0.0
 11
286.803594
 21
652.660841
 31
0.0
  0
LINE
  5
410
330
9AD
100
AcDbEntity
  8
0
100
AcDbLine
 10
275.77253
 20
652.660841
 30
0.0
 11
275.77253
 21
671.693072
 31
0.0
  0
LINE
  5
411
330
9AD
100
AcDbEntity
  8
0
100
AcDbLine
 10
265.77253
 20
652.660841
 30
0.0
 11
265.77253
 21
671.693072
 31
0.0
  0
LINE
  5
412
330
9AD
100
AcDbEntity
  8
0
100
AcDbLine
 10
255.224963
 20
652.660841
 30
0.0
 11
255.224963
 21
671.693072
 31
0.0
  0
LINE
  5
413
330
9AD
100
AcDbEntity
  8
0
100
AcDbLine
 10
245.224963
 20
652.660841
 30
0.0
 11
245.224963
 21
671.693072
 31
0.0
  0
LINE
  5
414
330
9AD
100
AcDbEntity
  8
0
100
AcDbLine
 10
234.577072
 20
652.660841
 30
0.0
 11
234.577072
 21
671.693072
 31
0.0
  0
LINE
  5
415
330
9AD
100
AcDbEntity
  8
0
100
AcDbLine
 10
224.577072
 20
652.660841
 30
0.0
 11
224.577072
 21
671.693072
 31
0.0
  0
LINE
  5
416
330
9AD
100
AcDbEntity
  8
0
100
AcDbLine
 10
213.363485
 20
652.660841
 30
0.0
 11
213.363485
 21
671.693072
 31
0.0
  0
LINE
  5
417
330
9AD
100
AcDbEntity
  8
0
100
AcDbLine
 10
292.938004
 20
671.693072
 30
0.0
 11
292.938004
 21
652.660841
 31
0.0
  0
INSERT
  5
498
330
9AD
100
AcDbEntity
  8
8
100
AcDbBlockReference
  2
*X0
 10
0.0
 20
0.0
 30
0.0
1001
GENIUS_GENODEF_13
1002
{
1000
HIER
1070
     0
1002
}
1002
{
1000
MANEDIT
1070
     0
1002
}
1002
{
1000
NOSEL
1070
     0
1002
}
1002
{
1000
BEHIND
1070
     0
1002
}
1002
{
1000
REACTOR
1002
}
1001
GENIUS_GENOBJ-N-HTC_13
1002
{
1000
OWNER
1000
GEN
1002
}
1001
GENIUS_GENHATCH_13
1002
{
1000
DATA
1040
135.0
1042
4.7
1000
_U
1070
     0
1011
116.275
1021
663.683771
1031
0.0
1002
}
1002
{
1000
UCS
1010
0.0
1020
0.0
1030
0.0
1010
1.0
1020
0.0
1030
0.0
1010
0.0
1020
1.0
1030
0.0
1002
}
1001
ACAD
1000
HATCH
1002
{
1070
    19
1000
_U
1040
4.7
1040
2.356193999999999
1070
     0
1002
}
  0
INSERT
  5
4A9
330
9AD
100
AcDbEntity
  8
8
100
AcDbBlockReference
  2
*X1
 10
0.0
 20
0.0
 30
0.0
1001
GENIUS_GENODEF_13
1002
{
1000
HIER
1070
     0
1002
}
1002
{
1000
MANEDIT
1070
     0
1002
}
1002
{
1000
NOSEL
1070
     0
1002
}
1002
{
1000
BEHIND
1070
     0
1002
}
1002
{
1000
REACTOR
1002
}
1001
GENIUS_GENOBJ-N-HTC_13
1002
{
1000
OWNER
1000
GEN
1002
}
1001
GENIUS_GENHATCH_13
1002
{
1000
DATA
1040
135.0
1042
4.7
1000
_U
1070
     0
1011
133.245871
1021
662.5532139999998
1031
0.0
1002
}
1002
{
1000
UCS
1010
0.0
1020
0.0
1030
0.0
1010
1.0
1020
0.0
1030
0.0
1010
0.0
1020
1.0
1030
0.0
1002
}
1001
ACAD
1000
HATCH
1002
{
1070
    19
1000
_U
1040
4.7
1040
2.356193999999999
1070
     0
1002
}
  0
INSERT
  5
4B8
330
9AD
100
AcDbEntity
  8
8
100
AcDbBlockReference
  2
*X2
 10
0.0
 20
0.0
 30
0.0
1001
GENIUS_GENODEF_13
1002
{
1000
HIER
1070
     0
1002
}
1002
{
1000
MANEDIT
1070
     0
1002
}
1002
{
1000
NOSEL
1070
     0
1002
}
1002
{
1000
BEHIND
1070
     0
1002
}
1002
{
1000
REACTOR
1002
}
1001
GENIUS_GENOBJ-N-HTC_13
1002
{
1000
OWNER
1000
GEN
1002
}
1001
GENIUS_GENHATCH_13
1002
{
1000
DATA
1040
135.0
1042
4.7
1000
_U
1070
     0
1011
156.156543
1021
663.401132
1031
0.0
1002
}
1002
{
1000
UCS
1010
0.0
1020
0.0
1030
0.0
1010
1.0
1020
0.0
1030
0.0
1010
0.0
1020
1.0
1030
0.0
1002
}
1001
ACAD
1000
HATCH
1002
{
1070
    19
1000
_U
1040
4.7
1040
2.356193999999999
1070
     0
1002
}
  0
INSERT
  5
4C7
330
9AD
100
AcDbEntity
  8
8
100
AcDbBlockReference
  2
*X3
 10
0.0
 20
0.0
 30
0.0
1001
GENIUS_GENODEF_13
1002
{
1000
HIER
1070
     0
1002
}
1002
{
1000
MANEDIT
1070
     0
1002
}
1002
{
1000
NOSEL
1070
     0
1002
}
1002
{
1000
BEHIND
1070
     0
1002
}
1002
{
1000
REACTOR
1002
}
1001
GENIUS_GENOBJ-N-HTC_13
1002
{
1000
OWNER
1000
GEN
1002
}
1001
GENIUS_GENHATCH_13
1002
{
1000
DATA
1040
135.0
1042
4.7
1000
_U
1070
     0
1011
177.935827
1021
661.9879349999999
1031
0.0
1002
}
1002
{
1000
UCS
1010
0.0
1020
0.0
1030
0.0
1010
1.0
1020
0.0
1030
0.0
1010
0.0
1020
1.0
1030
0.0
1002
}
1001
ACAD
1000
HATCH
1002
{
1070
    19
1000
_U
1040
4.7
1040
2.356193999999999
1070
     0
1002
}
  0
INSERT
  5
4D6
330
9AD
100
AcDbEntity
  8
8
100
AcDbBlockReference
  2
*X4
 10
0.0
 20
0.0
 30
0.0
1001
GENIUS_GENODEF_13
1002
{
1000
HIER
1070
     0
1002
}
1002
{
1000
MANEDIT
1070
     0
1002
}
1002
{
1000
NOSEL
1070
     0
1002
}
1002
{
1000
BEHIND
1070
     0
1002
}
1002
{
1000
REACTOR
1002
}
1001
GENIUS_GENOBJ-N-HTC_13
1002
{
1000
OWNER
1000
GEN
1002
}
1001
GENIUS_GENHATCH_13
1002
{
1000
DATA
1040
135.0
1042
4.7
1000
_U
1070
     0
1011
194.623848
1021
663.1184929999999
1031
0.0
1002
}
1002
{
1000
UCS
1010
0.0
1020
0.0
1030
0.0
1010
1.0
1020
0.0
1030
0.0
1010
0.0
1020
1.0
1030
0.0
1002
}
1001
ACAD
1000
HATCH
1002
{
1070
    19
1000
_U
1040
4.7
1040
2.356193999999999
1070
     0
1002
}
  0
INSERT
  5
4E4
330
9AD
100
AcDbEntity
  8
8
100
AcDbBlockReference
  2
*X5
 10
0.0
 20
0.0
 30
0.0
1001
GENIUS_GENODEF_13
1002
{
1000
HIER
1070
     0
1002
}
1002
{
1000
MANEDIT
1070
     0
1002
}
1002
{
1000
NOSEL
1070
     0
1002
}
1002
{
1000
BEHIND
1070
     0
1002
}
1002
{
1000
REACTOR
1002
}
1001
GENIUS_GENOBJ-N-HTC_13
1002
{
1000
OWNER
1000
GEN
1002
}
1001
GENIUS_GENHATCH_13
1002
{
1000
DATA
1040
135.0
1042
4.7
1000
_U
1070
     0
1011
221.494391
1021
662.270576
1031
0.0
1002
}
1002
{
1000
UCS
1010
0.0
1020
0.0
1030
0.0
1010
1.0
1020
0.0
1030
0.0
1010
0.0
1020
1.0
1030
0.0
1002
}
1001
ACAD
1000
HATCH
1002
{
1070
    19
1000
_U
1040
4.7
1040
2.356193999999999
1070
     0
1002
}
  0
INSERT
  5
4F2
330
9AD
100
AcDbEntity
  8
8
100
AcDbBlockReference
  2
*X6
 10
0.0
 20
0.0
 30
0.0
1001
GENIUS_GENODEF_13
1002
{
1000
HIER
1070
     0
1002
}
1002
{
1000
MANEDIT
1070
     0
1002
}
1002
{
1000
NOSEL
1070
     0
1002
}
1002
{
1000
BEHIND
1070
     0
1002
}
1002
{
1000
REACTOR
1002
}
1001
GENIUS_GENOBJ-N-HTC_13
1002
{
1000
OWNER
1000
GEN
1002
}
1001
GENIUS_GENHATCH_13
1002
{
1000
DATA
1040
135.0
1042
4.7
1000
_U
1070
     0
1011
241.293738
1021
661.9879349999999
1031
0.0
1002
}
1002
{
1000
UCS
1010
0.0
1020
0.0
1030
0.0
1010
1.0
1020
0.0
1030
0.0
1010
0.0
1020
1.0
1030
0.0
1002
}
1001
ACAD
1000
HATCH
1002
{
1070
    19
1000
_U
1040
4.7
1040
2.356193999999999
1070
     0
1002
}
  0
INSERT
  5
500
330
9AD
100
AcDbEntity
  8
8
100
AcDbBlockReference
  2
*X7
 10
0.0
 20
0.0
 30
0.0
1001
GENIUS_GENODEF_13
1002
{
1000
HIER
1070
     0
1002
}
1002
{
1000
MANEDIT
1070
     0
1002
}
1002
{
1000
NOSEL
1070
     0
1002
}
1002
{
1000
BEHIND
1070
     0
1002
}
1002
{
1000
REACTOR
1002
}
1001
GENIUS_GENOBJ-N-HTC_13
1002
{
1000
OWNER
1000
GEN
1002
}
1001
GENIUS_GENHATCH_13
1002
{
1000
DATA
1040
135.0
1042
4.7
1000
_U
1070
     0
1011
259.678847
1021
662.270576
1031
0.0
1002
}
1002
{
1000
UCS
1010
0.0
1020
0.0
1030
0.0
1010
1.0
1020
0.0
1030
0.0
1010
0.0
1020
1.0
1030
0.0
1002
}
1001
ACAD
1000
HATCH
1002
{
1070
    19
1000
_U
1040
4.7
1040
2.356193999999999
1070
     0
1002
}
  0
INSERT
  5
50F
330
9AD
100
AcDbEntity
  8
8
100
AcDbBlockReference
  2
*X8
 10
0.0
 20
0.0
 30
0.0
1001
GENIUS_GENODEF_13
1002
{
1000
HIER
1070
     0
1002
}
1002
{
1000
MANEDIT
1070
     0
1002
}
1002
{
1000
NOSEL
1070
     0
1002
}
1002
{
1000
BEHIND
1070
     0
1002
}
1002
{
1000
REACTOR
1002
}
1001
GENIUS_GENOBJ-N-HTC_13
1002
{
1000
OWNER
1000
GEN
1002
}
1001
GENIUS_GENHATCH_13
1002
{
1000
DATA
1040
135.0
1042
4.7
1000
_U
1070
     0
1011
281.458129
1021
662.835853
1031
0.0
1002
}
1002
{
1000
UCS
1010
0.0
1020
0.0
1030
0.0
1010
1.0
1020
0.0
1030
0.0
1010
0.0
1020
1.0
1030
0.0
1002
}
1001
ACAD
1000
HATCH
1002
{
1070
    19
1000
_U
1040
4.7
1040
2.356193999999999
1070
     0
1002
}
  0
LINE
  5
516
330
9AD
100
AcDbEntity
  8
0
100
AcDbLine
 10
277.781108
 20
652.660841
 30
0.0
 11
277.781108
 21
643.12884
 31
0.0
  0
LINE
  5
517
330
9AD
100
AcDbEntity
  8
0
100
AcDbLine
 10
231.212385
 20
629.4499809999999
 30
0.0
 11
266.570552
 21
641.617325
 31
0.0
  0
LINE
  5
519
330
9AD
100
AcDbEntity
  8
0
100
AcDbLine
 10
274.404101
 20
638.39958
 30
0.0
 11
226.515149
 21
621.964999
 31
0.0
  0
LINE
  5
51A
330
9AD
100
AcDbEntity
  8
0
100
AcDbLine
 10
289.848865
 20
629.29705
 30
0.0
 11
289.848865
 21
452.47347
 31
0.0
  0
LINE
  5
51B
330
9AD
100
AcDbEntity
  8
0
100
AcDbLine
 10
229.659931
 20
626.271876
 30
0.0
 11
230.650891
 21
623.384307
 31
0.0
  0
LINE
  5
51D
330
9AD
100
AcDbEntity
  8
0
100
AcDbLine
 10
269.745998
 20
640.06617
 30
0.0
 11
270.748475
 21
637.1450389999999
 31
0.0
  0
LINE
  5
51E
330
9AD
100
AcDbEntity
  8
0
100
AcDbLine
 10
266.570552
 20
641.617325
 30
0.0
 11
269.745998
 21
640.06617
 31
0.0
1001
GENIUS_GENODEF_13
1002
{
1000
HIER
1070
     0
1002
}
1002
{
1000
MANEDIT
1070
     0
1002
}
1002
{
1000
NOSEL
1070
     0
1002
}
1002
{
1000
BEHIND
1070
     0
1002
}
1002
{
1000
REACTOR
1002
}
1001
GENIUS_GENOBJ-N-CHA_13
1002
{
1000
OWNER
1000
GEN
1002
}
1001
GENIUS_GENFIL_13
1070
     0
1040
2.5
1040
2.5
1040
0.0
1040
0.0
1002
{
1002
}
  0
LINE
  5
521
330
9AD
100
AcDbEntity
  8
0
100
AcDbLine
 10
231.212385
 20
629.4499809999999
 30
0.0
 11
229.659931
 21
626.271876
 31
0.0
1001
GENIUS_GENODEF_13
1002
{
1000
HIER
1070
     0
1002
}
1002
{
1000
MANEDIT
1070
     0
1002
}
1002
{
1000
NOSEL
1070
     0
1002
}
1002
{
1000
BEHIND
1070
     0
1002
}
1002
{
1000
REACTOR
1002
}
1001
GENIUS_GENOBJ-N-CHA_13
1002
{
1000
OWNER
1000
GEN
1002
}
1001
GENIUS_GENFIL_13
1070
     0
1040
2.5
1040
2.5
1040
0.0
1040
0.0
1002
{
1002
}
  0
LINE
  5
522
330
9AD
100
AcDbEntity
  8
0
100
AcDbLine
 10
269.745998
 20
640.06617
 30
0.0
 11
266.570552
 21
641.617325
 31
0.0
1001
GENIUS_GENODEF_13
1002
{
1000
HIER
1070
     0
1002
}
1002
{
1000
MANEDIT
1070
     0
1002
}
1002
{
1000
NOSEL
1070
     0
1002
}
1002
{
1000
BEHIND
1070
     0
1002
}
1002
{
1000
REACTOR
1002
}
1001
GENIUS_GENOBJ-N-CHA_13
1002
{
1000
OWNER
1000
GEN
1002
}
1001
GENIUS_GENFIL_13
1070
     0
1040
2.5
1040
2.5
1040
0.0
1040
0.0
1002
{
1002
}
  0
LINE
  5
524
330
9AD
100
AcDbEntity
  8
0
100
AcDbLine
 10
254.533342
 20
607.886579
 30
0.0
 11
261.533342
 21
607.886579
 31
0.0
  0
LINE
  5
526
330
9AD
100
AcDbEntity
  8
7
100
AcDbLine
 10
243.438004
 20
541.00418
 30
0.0
 11
243.438004
 21
421.693072
 31
0.0
1001
GENIUS_GENODEF_13
1002
{
1000
HIER
1070
     0
1002
}
1002
{
1000
MANEDIT
1070
     0
1002
}
1002
{
1000
NOSEL
1070
     0
1002
}
1002
{
1000
BEHIND
1070
     0
1002
}
1002
{
1000
REACTOR
1002
}
1001
GENIUS_GENOBJ-N-CEN_13
1002
{
1000
OWNER
1000
GEN
1002
}
  0
ARC
  5
52A
330
9AD
100
AcDbEntity
  8
0
100
AcDbCircle
 10
135.858008
 20
543.707474
 30
0.0
 40
15.0
100
AcDbArc
 50
182.608398
 51
270.057544
1001
GENIUS_GENODEF_13
1002
{
1000
HIER
1070
     0
1002
}
1002
{
1000
MANEDIT
1070
     0
1002
}
1002
{
1000
NOSEL
1070
     0
1002
}
1002
{
1000
BEHIND
1070
     0
1002
}
1002
{
1000
REACTOR
1002
}
1001
GENIUS_GENOBJ-N-FIL_13
1002
{
1000
OWNER
1000
GEN
1002
}
  0
ARC
  5
52B
330
9AD
100
AcDbEntity
  8
0
100
AcDbCircle
 10
239.533342
 20
543.811598
 30
0.0
 40
15.0
100
AcDbArc
 50
270.057544
 51
0.0
1001
GENIUS_GENODEF_13
1002
{
1000
HIER
1070
     0
1002
}
1002
{
1000
MANEDIT
1070
     0
1002
}
1002
{
1000
NOSEL
1070
     0
1002
}
1002
{
1000
BEHIND
1070
     0
1002
}
1002
{
1000
REACTOR
1002
}
1001
GENIUS_GENOBJ-N-FIL_13
1002
{
1000
OWNER
1000
GEN
1002
}
  0
ARC
  5
530
330
9AD
100
AcDbEntity
  8
0
100
AcDbCircle
 10
238.533342
 20
544.8266559999999
 30
0.0
 40
23.0
100
AcDbArc
 50
270.0
 51
0.0
1001
GENIUS_GENODEF_13
1002
{
1000
HIER
1070
     0
1002
}
1002
{
1000
MANEDIT
1070
     0
1002
}
1002
{
1000
NOSEL
1070
     0
1002
}
1002
{
1000
BEHIND
1070
     0
1002
}
1002
{
1000
REACTOR
1002
}
1001
GENIUS_GENOBJ-N-FIL_13
1002
{
1000
OWNER
1000
GEN
1002
}
  0
ARC
  5
531
330
9AD
100
AcDbEntity
  8
0
100
AcDbCircle
 10
136.814145
 20
544.693072
 30
0.0
 40
23.0
100
AcDbArc
 50
182.608398
 51
270.0
1001
GENIUS_GENODEF_13
1002
{
1000
HIER
1070
     0
1002
}
1002
{
1000
MANEDIT
1070
     0
1002
}
1002
{
1000
NOSEL
1070
     0
1002
}
1002
{
1000
BEHIND
1070
     0
1002
}
1002
{
1000
REACTOR
1002
}
1001
GENIUS_GENOBJ-N-FIL_13
1002
{
1000
OWNER
1000
GEN
1002
}
  0
ARC
  5
532
330
9AD
100
AcDbEntity
  8
0
100
AcDbCircle
 10
236.761134
 20
607.5080119999999
 30
0.0
 40
10.0
100
AcDbArc
 50
108.94125
 51
180.0
1001
GENIUS_GENODEF_13
1002
{
1000
HIER
1070
     0
1002
}
1002
{
1000
MANEDIT
1070
     0
1002
}
1002
{
1000
NOSEL
1070
     0
1002
}
1002
{
1000
BEHIND
1070
     0
1002
}
1002
{
1000
REACTOR
1002
}
1001
GENIUS_GENOBJ-N-FIL_13
1002
{
1000
OWNER
1000
GEN
1002
}
  0
ARC
  5
533
330
9AD
100
AcDbEntity
  8
0
100
AcDbCircle
 10
229.761134
 20
612.50648
 30
0.0
 40
10.0
100
AcDbArc
 50
108.94125
 51
180.0
1001
GENIUS_GENODEF_13
1002
{
1000
HIER
1070
     0
1002
}
1002
{
1000
MANEDIT
1070
     0
1002
}
1002
{
1000
NOSEL
1070
     0
1002
}
1002
{
1000
BEHIND
1070
     0
1002
}
1002
{
1000
REACTOR
1002
}
1001
GENIUS_GENOBJ-N-FIL_13
1002
{
1000
OWNER
1000
GEN
1002
}
  0
ARC
  5
535
330
9AD
100
AcDbEntity
  8
0
100
AcDbCircle
 10
182.099085
 20
516.693072
 30
0.0
 40
5.0
100
AcDbArc
 50
0.0
 51
90.0
1001
GENIUS_GENODEF_13
1002
{
1000
HIER
1070
     0
1002
}
1002
{
1000
MANEDIT
1070
     0
1002
}
1002
{
1000
NOSEL
1070
     0
1002
}
1002
{
1000
BEHIND
1070
     0
1002
}
1002
{
1000
REACTOR
1002
}
1001
GENIUS_GENOBJ-N-FIL_13
1002
{
1000
OWNER
1000
GEN
1002
}
  0
ARC
  5
536
330
9AD
100
AcDbEntity
  8
0
100
AcDbCircle
 10
199.099085
 20
516.8266559999999
 30
0.0
 40
5.0
100
AcDbArc
 50
90.0
 51
180.0
1001
GENIUS_GENODEF_13
1002
{
1000
HIER
1070
     0
1002
}
1002
{
1000
MANEDIT
1070
     0
1002
}
1002
{
1000
NOSEL
1070
     0
1002
}
1002
{
1000
BEHIND
1070
     0
1002
}
1002
{
1000
REACTOR
1002
}
1001
GENIUS_GENOBJ-N-FIL_13
1002
{
1000
OWNER
1000
GEN
1002
}
  0
ARC
  5
537
330
9AD
100
AcDbEntity
  8
0
100
AcDbCircle
 10
284.848865
 20
629.29705
 30
0.0
 40
5.0
100
AcDbArc
 50
0.0
 51
108.94125
1001
GENIUS_GENODEF_13
1002
{
1000
HIER
1070
     0
1002
}
1002
{
1000
MANEDIT
1070
     0
1002
}
1002
{
1000
NOSEL
1070
     0
1002
}
1002
{
1000
BEHIND
1070
     0
1002
}
1002
{
1000
REACTOR
1002
}
1001
GENIUS_GENOBJ-N-FIL_13
1002
{
1000
OWNER
1000
GEN
1002
}
  0
ARC
  5
538
330
9AD
100
AcDbEntity
  8
0
100
AcDbCircle
 10
104.534766
 20
637.991019
 30
0.0
 40
5.0
100
AcDbArc
 50
2.608397999999999
 51
60.036654
1001
GENIUS_GENODEF_13
1002
{
1000
HIER
1070
     0
1002
}
1002
{
1000
MANEDIT
1070
     0
1002
}
1002
{
1000
NOSEL
1070
     0
1002
}
1002
{
1000
BEHIND
1070
     0
1002
}
1002
{
1000
REACTOR
1002
}
1001
GENIUS_GENOBJ-N-FIL_13
1002
{
1000
OWNER
1000
GEN
1002
}
  0
ARC
  5
539
330
9AD
100
AcDbEntity
  8
0
100
AcDbCircle
 10
99.93800400000001
 20
652.1837849999999
 30
0.0
 40
5.0
100
AcDbArc
 50
180.0
 51
240.036654
1001
GENIUS_GENODEF_13
1002
{
1000
HIER
1070
     0
1002
}
1002
{
1000
MANEDIT
1070
     0
1002
}
1002
{
1000
NOSEL
1070
     0
1002
}
1002
{
1000
BEHIND
1070
     0
1002
}
1002
{
1000
REACTOR
1002
}
1001
GENIUS_GENOBJ-N-FIL_13
1002
{
1000
OWNER
1000
GEN
1002
}
  0
ARC
  5
53A
330
9AD
100
AcDbEntity
  8
0
100
AcDbCircle
 10
301.848865
 20
644.0080019999999
 30
0.0
 40
5.0
100
AcDbArc
 50
144.442326
 51
180.0
1001
GENIUS_GENODEF_13
1002
{
1000
HIER
1070
     0
1002
}
1002
{
1000
MANEDIT
1070
     0
1002
}
1002
{
1000
NOSEL
1070
     0
1002
}
1002
{
1000
BEHIND
1070
     0
1002
}
1002
{
1000
REACTOR
1002
}
1001
GENIUS_GENOBJ-N-FIL_13
1002
{
1000
OWNER
1000
GEN
1002
}
  0
ARC
  5
53B
330
9AD
100
AcDbEntity
  8
0
100
AcDbCircle
 10
294.938004
 20
651.536182
 30
0.0
 40
5.0
100
AcDbArc
 50
324.442326
 51
0.0
1001
GENIUS_GENODEF_13
1002
{
1000
HIER
1070
     0
1002
}
1002
{
1000
MANEDIT
1070
     0
1002
}
1002
{
1000
NOSEL
1070
     0
1002
}
1002
{
1000
BEHIND
1070
     0
1002
}
1002
{
1000
REACTOR
1002
}
1001
GENIUS_GENOBJ-N-FIL_13
1002
{
1000
OWNER
1000
GEN
1002
}
  0
ARC
  5
53C
330
9AD
100
AcDbEntity
  8
0
100
AcDbCircle
 10
272.781108
 20
643.12884
 30
0.0
 40
5.0
100
AcDbArc
 50
288.94125
 51
0.0
1001
GENIUS_GENODEF_13
1002
{
1000
HIER
1070
     0
1002
}
1002
{
1000
MANEDIT
1070
     0
1002
}
1002
{
1000
NOSEL
1070
     0
1002
}
1002
{
1000
BEHIND
1070
     0
1002
}
1002
{
1000
REACTOR
1002
}
1001
GENIUS_GENOBJ-N-FIL_13
1002
{
1000
OWNER
1000
GEN
1002
}
  0
LINE
  5
540
330
9AD
100
AcDbEntity
  8
0
100
AcDbLine
 10
194.099085
 20
452.47347
 30
0.0
 11
289.848865
 21
452.47347
 31
0.0
  0
LINE
  5
541
330
9AD
100
AcDbEntity
  8
0
100
AcDbLine
 10
199.111477
 20
432.229841
 30
0.0
 11
287.125593
 21
432.229841
 31
0.0
  0
LINE
  5
542
330
9AD
100
AcDbEntity
  8
0
100
AcDbLine
 10
287.125593
 20
432.229841
 30
0.0
 11
287.125593
 21
421.6930719999999
 31
0.0
  0
LINE
  5
543
330
9AD
100
AcDbEntity
  8
0
100
AcDbLine
 10
199.111477
 20
432.229841
 30
0.0
 11
199.111477
 21
421.6930719999999
 31
0.0
  0
LINE
  5
544
330
9AD
100
AcDbEntity
  8
0
100
AcDbLine
 10
289.848865
 20
452.47347
 30
0.0
 11
287.125593
 21
432.229841
 31
0.0
  0
LINE
  5
545
330
9AD
100
AcDbEntity
  8
0
100
AcDbLine
 10
194.099085
 20
452.47347
 30
0.0
 11
199.111477
 21
432.229841
 31
0.0
  0
LINE
  5
552
330
9AD
100
AcDbEntity
  8
0
100
AcDbLine
 10
156.3558149999999
 20
620.081462
 30
0.0
 11
153.425131
 21
582.986836
 31
0.0
  0
LINE
  5
553
330
9AD
100
AcDbEntity
  8
0
100
AcDbLine
 10
153.425131
 20
582.986836
 30
0.0
 11
144.328241
 21
582.986836
 31
0.0
  0
LINE
  5
554
330
9AD
100
AcDbEntity
  8
0
100
AcDbLine
 10
162.51201
 20
620.081462
 30
0.0
 11
164.847287
 21
582.5112650000001
 31
0.0
  0
LINE
  5
555
330
9AD
100
AcDbEntity
  8
0
100
AcDbLine
 10
164.847287
 20
582.5112650000001
 30
0.0
 11
172.700016
 21
582.5112650000001
 31
0.0
  0
LINE
  5
556
330
9AD
100
AcDbEntity
  8
0
100
AcDbLine
 10
172.700016
 20
582.5112650000001
 30
0.0
 11
175.626801
 21
620.081462
 31
0.0
  0
LINE
  5
559
330
9AD
100
AcDbEntity
  8
0
100
AcDbLine
 10
144.382592
 20
620.081462
 30
0.0
 11
193.16471
 21
620.081462
 31
0.0
  0
LINE
  5
55A
330
9AD
100
AcDbEntity
  8
0
100
AcDbLine
 10
143.13061
 20
601.6792989999999
 30
0.0
 11
147.23813
 21
537.5696979999999
 31
0.0
  0
LINE
  5
55B
330
9AD
100
AcDbEntity
  8
0
100
AcDbLine
 10
147.23813
 20
537.5696979999999
 30
0.0
 11
190.309173
 21
537.5696979999999
 31
0.0
  0
LINE
  5
55D
330
9AD
100
AcDbEntity
  8
0
100
AcDbLine
 10
168.773651
 20
625.7883269999999
 30
0.0
 11
146.882592
 21
625.7883269999999
 31
0.0
  0
LINE
  5
55E
330
9AD
100
AcDbEntity
  8
0
100
AcDbLine
 10
144.382592
 20
623.288327
 30
0.0
 11
144.382592
 21
603.534149
 31
0.0
  0
LINE
  5
55F
330
9AD
100
AcDbEntity
  8
0
100
AcDbLine
 10
142.382592
 20
601.534149
 30
0.0
 11
131.770631
 21
601.534149
 31
0.0
  0
LINE
  5
560
330
9AD
100
AcDbEntity
  8
0
100
AcDbLine
 10
131.770631
 20
601.534149
 30
0.0
 11
131.770631
 21
602.6742239999999
 31
0.0
  0
LINE
  5
561
330
9AD
100
AcDbEntity
  8
0
100
AcDbLine
 10
132.770631
 20
603.6742239999999
 30
0.0
 11
141.765015
 21
603.6742239999999
 31
0.0
  0
LINE
  5
562
330
9AD
100
AcDbEntity
  8
0
100
AcDbLine
 10
141.765015
 20
603.6742239999999
 30
0.0
 11
141.765015
 21
626.3795459999999
 31
0.0
  0
LINE
  5
563
330
9AD
100
AcDbEntity
  8
0
100
AcDbLine
 10
144.2650149999999
 20
628.879546
 30
0.0
 11
168.773651
 21
628.879546
 31
0.0
  0
LINE
  5
564
330
9AD
100
AcDbEntity
  8
0
100
AcDbLine
 10
139.099001
 20
594.96973
 30
0.0
 11
143.438861
 21
533.569698
 31
0.0
  0
LINE
  5
566
330
9AD
100
AcDbEntity
  8
0
100
AcDbLine
 10
143.438861
 20
533.569698
 30
0.0
 11
194.108441
 21
533.569698
 31
0.0
  0
ARC
  5
56F
330
9AD
100
AcDbEntity
  8
0
100
AcDbCircle
 10
144.2650149999999
 20
626.3795459999999
 30
0.0
 40
2.5
100
AcDbArc
 50
90.0
 51
180.0
1001
GENIUS_GENODEF_13
1002
{
1000
HIER
1070
     0
1002
}
1002
{
1000
MANEDIT
1070
     0
1002
}
1002
{
1000
NOSEL
1070
     0
1002
}
1002
{
1000
BEHIND
1070
     0
1002
}
1002
{
1000
REACTOR
1002
}
1001
GENIUS_GENOBJ-N-FIL_13
1002
{
1000
OWNER
1000
GEN
1002
}
  0
ARC
  5
570
330
9AD
100
AcDbEntity
  8
0
100
AcDbCircle
 10
146.882592
 20
623.288327
 30
0.0
 40
2.5
100
AcDbArc
 50
90.0
 51
180.0
1001
GENIUS_GENODEF_13
1002
{
1000
HIER
1070
     0
1002
}
1002
{
1000
MANEDIT
1070
     0
1002
}
1002
{
1000
NOSEL
1070
     0
1002
}
1002
{
1000
BEHIND
1070
     0
1002
}
1002
{
1000
REACTOR
1002
}
1001
GENIUS_GENOBJ-N-FIL_13
1002
{
1000
OWNER
1000
GEN
1002
}
  0
ARC
  5
572
330
9AD
100
AcDbEntity
  8
0
100
AcDbCircle
 10
132.770631
 20
602.6742239999999
 30
0.0
 40
1.0
100
AcDbArc
 50
90.0
 51
180.0
1001
GENIUS_GENODEF_13
1002
{
1000
HIER
1070
     0
1002
}
1002
{
1000
MANEDIT
1070
     0
1002
}
1002
{
1000
NOSEL
1070
     0
1002
}
1002
{
1000
BEHIND
1070
     0
1002
}
1002
{
1000
REACTOR
1002
}
1001
GENIUS_GENOBJ-N-FIL_13
1002
{
1000
OWNER
1000
GEN
1002
}
  0
LINE
  5
573
330
9AD
100
AcDbEntity
  8
0
100
AcDbLine
 10
141.765015
 20
620.081462
 30
0.0
 11
129.064011
 21
620.081462
 31
0.0
  0
LINE
  5
574
330
9AD
100
AcDbEntity
  8
0
100
AcDbLine
 10
129.064011
 20
620.081462
 30
0.0
 11
129.064011
 21
615.7117469999999
 31
0.0
  0
LINE
  5
575
330
9AD
100
AcDbEntity
  8
0
100
AcDbLine
 10
129.064011
 20
615.7117469999999
 30
0.0
 11
137.000922
 21
614.2246719999999
 31
0.0
  0
LINE
  5
576
330
9AD
100
AcDbEntity
  8
0
100
AcDbLine
 10
137.000922
 20
620.081462
 30
0.0
 11
137.000922
 21
604.525563
 31
0.0
  0
LINE
  5
577
330
9AD
100
AcDbEntity
  8
0
100
AcDbLine
 10
137.000922
 20
604.525563
 30
0.0
 11
131.653192
 21
604.525563
 31
0.0
  0
LINE
  5
578
330
9AD
100
AcDbEntity
  8
0
100
AcDbLine
 10
129.653192
 20
602.525563
 30
0.0
 11
129.653192
 21
601.6193409999999
 31
0.0
  0
LINE
  5
579
330
9AD
100
AcDbEntity
  8
0
100
AcDbLine
 10
131.653192
 20
599.619341
 30
0.0
 11
137.000922
 21
599.619341
 31
0.0
  0
LINE
  5
57A
330
9AD
100
AcDbEntity
  8
0
100
AcDbLine
 10
137.000922
 20
599.619341
 30
0.0
 11
137.000922
 21
596.8287179999999
 31
0.0
  0
LINE
  5
57B
330
9AD
100
AcDbEntity
  8
0
100
AcDbLine
 10
137.000922
 20
596.8287179999999
 30
0.0
 11
137.103978
 21
596.8287179999999
 31
0.0
  0
ARC
  5
57F
330
9AD
100
AcDbEntity
  8
0
100
AcDbCircle
 10
137.103978
 20
594.828718
 30
0.0
 40
2.0
100
AcDbArc
 50
4.043041
 51
90.0
1001
GENIUS_GENODEF_13
1002
{
1000
HIER
1070
     0
1002
}
1002
{
1000
MANEDIT
1070
     0
1002
}
1002
{
1000
NOSEL
1070
     0
1002
}
1002
{
1000
BEHIND
1070
     0
1002
}
1002
{
1000
REACTOR
1002
}
1001
GENIUS_GENOBJ-N-FIL_13
1002
{
1000
OWNER
1000
GEN
1002
}
  0
ARC
  5
580
330
9AD
100
AcDbEntity
  8
0
100
AcDbCircle
 10
131.653192
 20
602.525563
 30
0.0
 40
2.0
100
AcDbArc
 50
90.0
 51
180.0
1001
GENIUS_GENODEF_13
1002
{
1000
HIER
1070
     0
1002
}
1002
{
1000
MANEDIT
1070
     0
1002
}
1002
{
1000
NOSEL
1070
     0
1002
}
1002
{
1000
BEHIND
1070
     0
1002
}
1002
{
1000
REACTOR
1002
}
1001
GENIUS_GENOBJ-N-FIL_13
1002
{
1000
OWNER
1000
GEN
1002
}
  0
ARC
  5
581
330
9AD
100
AcDbEntity
  8
0
100
AcDbCircle
 10
131.653192
 20
601.6193409999999
 30
0.0
 40
2.0
100
AcDbArc
 50
180.0
 51
270.0
1001
GENIUS_GENODEF_13
1002
{
1000
HIER
1070
     0
1002
}
1002
{
1000
MANEDIT
1070
     0
1002
}
1002
{
1000
NOSEL
1070
     0
1002
}
1002
{
1000
BEHIND
1070
     0
1002
}
1002
{
1000
REACTOR
1002
}
1001
GENIUS_GENOBJ-N-FIL_13
1002
{
1000
OWNER
1000
GEN
1002
}
  0
ARC
  5
582
330
9AD
100
AcDbEntity
  8
0
100
AcDbCircle
 10
142.382592
 20
603.534149
 30
0.0
 40
2.0
100
AcDbArc
 50
270.0
 51
0.0
1001
GENIUS_GENODEF_13
1002
{
1000
HIER
1070
     0
1002
}
1002
{
1000
MANEDIT
1070
     0
1002
}
1002
{
1000
NOSEL
1070
     0
1002
}
1002
{
1000
BEHIND
1070
     0
1002
}
1002
{
1000
REACTOR
1002
}
1001
GENIUS_GENOBJ-N-FIL_13
1002
{
1000
OWNER
1000
GEN
1002
}
  0
LINE
  5
583
330
9AD
100
AcDbEntity
  8
0
100
AcDbLine
 10
194.4166919999999
 20
601.6792989999999
 30
0.0
 11
190.309173
 21
537.5696979999999
 31
0.0
  0
LINE
  5
584
330
9AD
100
AcDbEntity
  8
0
100
AcDbLine
 10
198.448301
 20
594.96973
 30
0.0
 11
194.108441
 21
533.569698
 31
0.0
  0
LINE
  5
585
330
9AD
100
AcDbEntity
  8
0
100
AcDbLine
 10
193.282288
 20
628.879546
 30
0.0
 11
168.773651
 21
628.879546
 31
0.0
  0
ARC
  5
586
330
9AD
100
AcDbEntity
  8
0
100
AcDbCircle
 10
195.16471
 20
603.534149
 30
0.0
 40
2.0
100
AcDbArc
 50
180.0
 51
270.0
1001
GENIUS_GENODEF_13
1002
{
1000
HIER
1070
     0
1002
}
1002
{
1000
MANEDIT
1070
     0
1002
}
1002
{
1000
NOSEL
1070
     0
1002
}
1002
{
1000
BEHIND
1070
     0
1002
}
1002
{
1000
REACTOR
1002
}
1001
GENIUS_GENOBJ-N-FIL_13
1002
{
1000
OWNER
1000
GEN
1002
}
  0
ARC
  5
587
330
9AD
100
AcDbEntity
  8
0
100
AcDbCircle
 10
190.66471
 20
623.288327
 30
0.0
 40
2.5
100
AcDbArc
 50
0.0
 51
90.0
1001
GENIUS_GENODEF_13
1002
{
1000
HIER
1070
     0
1002
}
1002
{
1000
MANEDIT
1070
     0
1002
}
1002
{
1000
NOSEL
1070
     0
1002
}
1002
{
1000
BEHIND
1070
     0
1002
}
1002
{
1000
REACTOR
1002
}
1001
GENIUS_GENOBJ-N-FIL_13
1002
{
1000
OWNER
1000
GEN
1002
}
  0
LINE
  5
588
330
9AD
100
AcDbEntity
  8
0
100
AcDbLine
 10
184.122171
 20
582.986836
 30
0.0
 11
193.219061
 21
582.986836
 31
0.0
  0
LINE
  5
589
330
9AD
100
AcDbEntity
  8
0
100
AcDbLine
 10
207.894111
 20
602.525563
 30
0.0
 11
207.894111
 21
601.6193409999999
 31
0.0
  0
LINE
  5
58A
330
9AD
100
AcDbEntity
  8
0
100
AcDbLine
 10
205.776671
 20
601.534149
 30
0.0
 11
205.776671
 21
602.6742239999999
 31
0.0
  0
LINE
  5
58B
330
9AD
100
AcDbEntity
  8
0
100
AcDbLine
 10
195.16471
 20
601.534149
 30
0.0
 11
205.776671
 21
601.534149
 31
0.0
  0
LINE
  5
58C
330
9AD
100
AcDbEntity
  8
0
100
AcDbLine
 10
205.894111
 20
599.619341
 30
0.0
 11
200.546381
 21
599.619341
 31
0.0
  0
ARC
  5
58D
330
9AD
100
AcDbEntity
  8
0
100
AcDbCircle
 10
205.894111
 20
601.6193409999999
 30
0.0
 40
2.0
100
AcDbArc
 50
270.0
 51
0.0
1001
GENIUS_GENODEF_13
1002
{
1000
HIER
1070
     0
1002
}
1002
{
1000
MANEDIT
1070
     0
1002
}
1002
{
1000
NOSEL
1070
     0
1002
}
1002
{
1000
BEHIND
1070
     0
1002
}
1002
{
1000
REACTOR
1002
}
1001
GENIUS_GENOBJ-N-FIL_13
1002
{
1000
OWNER
1000
GEN
1002
}
  0
ARC
  5
58E
330
9AD
100
AcDbEntity
  8
0
100
AcDbCircle
 10
200.443324
 20
594.828718
 30
0.0
 40
2.0
100
AcDbArc
 50
90.0
 51
175.956959
1001
GENIUS_GENODEF_13
1002
{
1000
HIER
1070
     0
1002
}
1002
{
1000
MANEDIT
1070
     0
1002
}
1002
{
1000
NOSEL
1070
     0
1002
}
1002
{
1000
BEHIND
1070
     0
1002
}
1002
{
1000
REACTOR
1002
}
1001
GENIUS_GENOBJ-N-FIL_13
1002
{
1000
OWNER
1000
GEN
1002
}
  0
LINE
  5
58F
330
9AD
100
AcDbEntity
  8
0
100
AcDbLine
 10
200.546381
 20
596.8287179999999
 30
0.0
 11
200.443324
 21
596.8287179999999
 31
0.0
  0
LINE
  5
590
330
9AD
100
AcDbEntity
  8
0
100
AcDbLine
 10
200.546381
 20
599.619341
 30
0.0
 11
200.546381
 21
596.8287179999999
 31
0.0
  0
ARC
  5
591
330
9AD
100
AcDbEntity
  8
0
100
AcDbCircle
 10
193.282288
 20
626.3795459999999
 30
0.0
 40
2.5
100
AcDbArc
 50
0.0
 51
90.0
1001
GENIUS_GENODEF_13
1002
{
1000
HIER
1070
     0
1002
}
1002
{
1000
MANEDIT
1070
     0
1002
}
1002
{
1000
NOSEL
1070
     0
1002
}
1002
{
1000
BEHIND
1070
     0
1002
}
1002
{
1000
REACTOR
1002
}
1001
GENIUS_GENOBJ-N-FIL_13
1002
{
1000
OWNER
1000
GEN
1002
}
  0
LINE
  5
592
330
9AD
100
AcDbEntity
  8
0
100
AcDbLine
 10
200.546381
 20
604.525563
 30
0.0
 11
205.894111
 21
604.525563
 31
0.0
  0
LINE
  5
593
330
9AD
100
AcDbEntity
  8
0
100
AcDbLine
 10
208.483292
 20
615.7117469999999
 30
0.0
 11
200.546381
 21
614.2246719999999
 31
0.0
  0
LINE
  5
594
330
9AD
100
AcDbEntity
  8
0
100
AcDbLine
 10
195.782288
 20
620.081462
 30
0.0
 11
208.483292
 21
620.081462
 31
0.0
  0
LINE
  5
595
330
9AD
100
AcDbEntity
  8
0
100
AcDbLine
 10
204.776671
 20
603.6742239999999
 30
0.0
 11
195.782288
 21
603.6742239999999
 31
0.0
  0
ARC
  5
596
330
9AD
100
AcDbEntity
  8
0
100
AcDbCircle
 10
204.776671
 20
602.6742239999999
 30
0.0
 40
1.0
100
AcDbArc
 50
0.0
 51
90.0
1001
GENIUS_GENODEF_13
1002
{
1000
HIER
1070
     0
1002
}
1002
{
1000
MANEDIT
1070
     0
1002
}
1002
{
1000
NOSEL
1070
     0
1002
}
1002
{
1000
BEHIND
1070
     0
1002
}
1002
{
1000
REACTOR
1002
}
1001
GENIUS_GENOBJ-N-FIL_13
1002
{
1000
OWNER
1000
GEN
1002
}
  0
ARC
  5
597
330
9AD
100
AcDbEntity
  8
0
100
AcDbCircle
 10
205.894111
 20
602.525563
 30
0.0
 40
2.0
100
AcDbArc
 50
0.0
 51
90.0
1001
GENIUS_GENODEF_13
1002
{
1000
HIER
1070
     0
1002
}
1002
{
1000
MANEDIT
1070
     0
1002
}
1002
{
1000
NOSEL
1070
     0
1002
}
1002
{
1000
BEHIND
1070
     0
1002
}
1002
{
1000
REACTOR
1002
}
1001
GENIUS_GENOBJ-N-FIL_13
1002
{
1000
OWNER
1000
GEN
1002
}
  0
LINE
  5
598
330
9AD
100
AcDbEntity
  8
0
100
AcDbLine
 10
208.483292
 20
620.081462
 30
0.0
 11
208.483292
 21
615.7117469999999
 31
0.0
  0
LINE
  5
599
330
9AD
100
AcDbEntity
  8
0
100
AcDbLine
 10
200.546381
 20
620.081462
 30
0.0
 11
200.546381
 21
604.525563
 31
0.0
  0
LINE
  5
59A
330
9AD
100
AcDbEntity
  8
0
100
AcDbLine
 10
195.782288
 20
603.6742239999999
 30
0.0
 11
195.782288
 21
626.3795459999999
 31
0.0
  0
LINE
  5
59B
330
9AD
100
AcDbEntity
  8
0
100
AcDbLine
 10
193.16471
 20
620.081462
 30
0.0
 11
144.382592
 21
620.081462
 31
0.0
  0
LINE
  5
59C
330
9AD
100
AcDbEntity
  8
0
100
AcDbLine
 10
181.191488
 20
620.081462
 30
0.0
 11
184.122171
 21
582.986836
 31
0.0
  0
LINE
  5
59D
330
9AD
100
AcDbEntity
  8
0
100
AcDbLine
 10
168.773651
 20
625.7883269999999
 30
0.0
 11
190.66471
 21
625.7883269999999
 31
0.0
  0
LINE
  5
59E
330
9AD
100
AcDbEntity
  8
0
100
AcDbLine
 10
193.16471
 20
623.288327
 30
0.0
 11
193.16471
 21
603.534149
 31
0.0
  0
INSERT
  5
6BA
330
9AD
100
AcDbEntity
  8
8
100
AcDbBlockReference
  2
*X9
 10
0.0
 20
0.0
 30
0.0
1001
GENIUS_GENODEF_13
1002
{
1000
HIER
1070
     0
1002
}
1002
{
1000
MANEDIT
1070
     0
1002
}
1002
{
1000
NOSEL
1070
     0
1002
}
1002
{
1000
BEHIND
1070
     0
1002
}
1002
{
1000
REACTOR
1002
}
1001
GENIUS_GENOBJ-N-HTC_13
1002
{
1000
OWNER
1000
GEN
1002
}
1001
GENIUS_GENHATCH_13
1002
{
1000
DATA
1040
45.0
1042
5.0
1000
_U
1070
     0
1011
223.579323
1021
567.8143209999999
1031
0.0
1002
}
1002
{
1000
UCS
1010
0.0
1020
0.0
1030
0.0
1010
1.0
1020
0.0
1030
0.0
1010
0.0
1020
1.0
1030
0.0
1002
}
1001
ACAD
1000
HATCH
1002
{
1070
    19
1000
_U
1040
5.0
1040
0.7853979999999999
1070
     0
1002
}
  0
DIMENSION
  5
76C
330
9AD
100
AcDbEntity
  8
5
100
AcDbDimension
  2
*D18
 10
18.44872055581217
 20
521.693072
 30
0.0
 11
18.44872055581209
 21
597.8573550639342
 31
0.0
 70
   160
  1
<>
 71
     5
 42
150.0
  3
GEN-ISO
100
AcDbAlignedDimension
 13
94.93800400000001
 23
671.693072
 33
0.0
 14
136.814145
 24
521.693072
 34
0.0
 50
90.0
100
AcDbRotatedDimension
1001
GENIUS_GENDTOL_13
1000

1000
h7
1000

1040
0.0
  0
INSERT
  5
90E
330
9AD
100
AcDbEntity
  8
8
100
AcDbBlockReference
  2
*X10
 10
0.0
 20
0.0
 30
0.0
1001
GENIUS_GENODEF_13
1002
{
1000
HIER
1070
     0
1002
}
1002
{
1000
MANEDIT
1070
     0
1002
}
1002
{
1000
NOSEL
1070
     0
1002
}
1002
{
1000
BEHIND
1070
     0
1002
}
1002
{
1000
REACTOR
1002
}
1001
GENIUS_GENOBJ-N-HTC_13
1002
{
1000
OWNER
1000
GEN
1002
}
1001
GENIUS_GENHATCH_13
1002
{
1000
DATA
1040
45.0
1042
3.0
1000
_U
1070
     1
1011
192.832571
1021
539.017361
1031
0.0
1002
}
1002
{
1000
UCS
1010
0.0
1020
0.0
1030
0.0
1010
1.0
1020
0.0
1030
0.0
1010
0.0
1020
1.0
1030
0.0
1002
}
1001
ACAD
1000
HATCH
1002
{
1070
    19
1000
_U
1040
3.0
1040
0.7853979999999999
1070
     1
1002
}
  0
DIMENSION
  5
B89
330
9AD
100
AcDbEntity
  8
AM_5
100
AcDbDimension
  2
*D16
 10
243.438004
 20
367.693072
 30
0.0
 11
220.438004
 21
378.268072
 31
0.0
 70
    32
 71
     5
 42
46.00000000000003
  3
GEN-ISO$0
100
AcDbAlignedDimension
 13
197.438004
 23
537.7665429999999
 33
0.0
 14
243.438004
 24
421.693072
 34
0.0
 50
0.0000000000001132
100
AcDbRotatedDimension
1001
ACAD
1000
DSTYLE
1002
{
1070
   271
1070
     0
1002
}
  0
HATCH
  5
CC8
330
9AD
100
AcDbEntity
  8
AM_8
100
AcDbHatch
 10
0.0
 20
0.0
 30
0.0
210
0.0
220
0.0
230
1.0
  2
_U
 70
     0
 71
     0
 91
        1
 92
        1
 93
       19
 72
     1
 10
287.125593
 20
432.229841
 11
287.125593
 21
421.6930719999999
 72
     1
 10
287.125593
 20
421.6930719999999
 11
296.848865
 21
421.6930719999999
 72
     1
 10
296.848865
 20
421.6930719999999
 11
296.848865
 21
644.0080019999999
 72
     2
 10
301.848865
 20
644.0080019999998
 40
5.0
 50
180.0000000000013
 51
215.5576740000008
 73
     0
 72
     1
 10
297.7812121514122
 20
646.9156127551347
 11
299.005657
 21
648.6285719999999
 72
     2
 10
294.9380041579745
 20
651.5361824926583
 40
4.999999842025461
 50
324.4423284031737
 51
359.9999943545518
 73
     1
 72
     1
 10
299.938004
 20
651.536182
 11
299.938004
 21
671.693072
 72
     1
 10
299.938004
 20
671.693072
 11
292.938004
 21
671.693072
 72
     1
 10
292.938004
 20
671.693072
 11
292.9380039999999
 21
652.660841
 72
     1
 10
292.9380039999999
 20
652.660841
 11
277.781108
 21
652.660841
 72
     1
 10
277.781108
 20
652.660841
 11
277.781108
 21
643.12884
 72
     2
 10
272.7811080000001
 20
643.12884
 40
4.999999999999943
 50
360.0
 51
431.0587500000004
 73
     0
 72
     1
 10
274.4041003337664
 20
638.3995804507117
 11
270.748475
 21
637.1450389999999
 72
     1
 10
270.748475
 20
637.1450389999999
 11
264.5429461777169
 21
635.0154184990268
 72
     1
 10
264.5429461777169
 20
635.0154184990268
 11
266.883381
 21
628.4178759999999
 72
     1
 10
266.883381
 20
628.4178759999999
 11
283.225873
 21
634.0263089999999
 72
     2
 10
284.8488653139428
 20
629.2970497758237
 40
4.999999686057289
 50
251.0587490055656
 51
359.9999974311294
 73
     0
 72
     1
 10
289.848865
 20
629.29705
 11
289.848865
 21
452.47347
 72
     1
 10
289.848865
 20
452.47347
 11
287.125593
 21
432.229841
 97
        0
 75
     0
 76
     0
 52
45.0
 41
11.25
 77
     0
 78
     1
 53
45.0
 43
0.0
 44
0.0
 45
-7.954951288348659
 46
7.954951288348659
 79
     0
 98
        1
 10
0.0
 20
0.0
1001
GENIUS_GENOBJ-N-HTC_13
1002
{
1000
OWNER
1000
GEN
1002
}
1001
GENIUS_GENODEF_13
1002
{
1000
HIER
1070
     0
1002
}
1002
{
1000
MANEDIT
1070
     0
1002
}
1002
{
1000
NOSEL
1070
     0
1002
}
1002
{
1000
BEHIND
1070
     0
1002
}
1002
{
1000
OTHER
1070
     0
1002
}
1002
{
1000
REACTOR
1002
}
1001
GENIUS_GENHATCH_13
1002
{
1000
DATA
1040
45.0
1042
2.5
1000
_U
1070
     0
1011
292.235094977038
1021
571.2601705442693
1031
0.0
1002
}
1002
{
1000
UCS
1010
0.0
1020
0.0
1030
0.0
1010
1.0
1020
0.0
1030
0.0
1010
0.0
1020
1.0
1030
0.0
1002
}
  0
HATCH
  5
CDB
330
9AD
100
AcDbEntity
  8
AM_8
100
AcDbHatch
 10
0.0
 20
0.0
 30
0.0
210
0.0
220
0.0
230
1.0
  2
_U
 70
     0
 71
     0
 91
        1
 92
        1
 93
       24
 72
     1
 10
199.111477
 20
421.6930719999999
 11
199.111477
 21
432.229841
 72
     1
 10
199.111477
 20
432.229841
 11
194.099085
 21
452.47347
 72
     1
 10
194.099085
 20
452.47347
 11
194.099085
 21
516.8266559999999
 72
     2
 10
199.099085
 20
516.8266559999999
 40
5.0
 50
180.0
 51
270.0
 73
     0
 72
     1
 10
199.099085
 20
521.8266559999999
 11
238.533342
 21
521.8266559999999
 72
     2
 10
238.533342
 20
544.8266559999999
 40
23.0
 50
269.9999999999999
 51
282.3126544954055
 73
     1
 72
     1
 10
243.438004
 20
522.3556904963604
 11
243.438004
 21
529.3287248504568
 72
     2
 10
239.5333420000001
 20
543.811598
 40
15.00000000000003
 50
74.91149528945419
 51
89.94245600000034
 73
     0
 72
     1
 10
239.5484069814389
 20
528.811605565124
 11
135.873073
 21
528.7074809999999
 72
     2
 10
135.8580082957238
 20
543.7074737177256
 40
15.00000028257131
 50
89.94245705976819
 51
177.3916031284984
 73
     0
 72
     1
 10
120.873549348769
 20
543.0248328574158
 11
115.878904
 21
652.660841
 72
     1
 10
115.878904
 20
652.660841
 11
101.938004
 21
652.660841
 72
     1
 10
101.938004
 20
652.660841
 11
101.938004
 21
671.693072
 72
     1
 10
101.938004
 20
671.693072
 11
94.93800400000001
 21
671.693072
 72
     1
 10
94.93800400000001
 20
671.693072
 11
94.93800400000001
 21
652.1837849999999
 72
     2
 10
99.93800400000001
 20
652.1837849999999
 40
5.0
 50
180.0
 51
240.0366540000001
 73
     1
 72
     1
 10
97.44077463646293
 20
647.8520595347969
 11
107.031995
 21
642.322744
 72
     2
 10
104.5347663162767
 20
637.9910184802767
 40
4.999999707703286
 50
299.9633389390589
 51
357.3915958856408
 73
     0
 72
     1
 10
109.5295855504103
 20
638.2185660475281
 11
113.837975
 21
543.6463559999999
 72
     2
 10
136.8141449743635
 20
544.6930720244952
 40
23.00000002449518
 50
182.6083970143666
 51
270.0000000638636
 73
     1
 72
     1
 10
136.814145
 20
521.693072
 11
182.099085
 21
521.693072
 72
     2
 10
182.099085
 20
516.693072
 40
5.0
 50
270.0
 51
360.0
 73
     0
 72
     1
 10
187.099085
 20
516.693072
 11
187.099085
 21
421.6930719999999
 72
     1
 10
187.099085
 20
421.6930719999999
 11
199.111477
 21
421.6930719999999
 97
        0
 75
     0
 76
     0
 52
45.0
 41
11.25
 77
     0
 78
     1
 53
45.0
 43
0.0
 44
0.0
 45
-7.954951288348659
 46
7.954951288348659
 79
     0
 98
        1
 10
0.0
 20
0.0
1001
GENIUS_GENOBJ-N-HTC_13
1002
{
1000
OWNER
1000
GEN
1002
}
1001
GENIUS_GENODEF_13
1002
{
1000
HIER
1070
     0
1002
}
1002
{
1000
MANEDIT
1070
     0
1002
}
1002
{
1000
NOSEL
1070
     0
1002
}
1002
{
1000
BEHIND
1070
     0
1002
}
1002
{
1000
OTHER
1070
     0
1002
}
1002
{
1000
REACTOR
1002
}
1001
GENIUS_GENHATCH_13
1002
{
1000
DATA
1040
45.0
1042
2.5
1000
_U
1070
     0
1011
190.3988139697617
1021
512.1812776565918
1031
0.0
1002
}
1002
{
1000
UCS
1010
0.0
1020
0.0
1030
0.0
1010
1.0
1020
0.0
1030
0.0
1010
0.0
1020
1.0
1030
0.0
1002
}
  0
DIMENSION
  5
D0A
330
9AD
100
AcDbEntity
  8
AM_5
100
AcDbDimension
  2
*D17
 10
383.2643504819994
 20
421.6930719999999
 30
0.0
 11
372.6878002851489
 21
546.693072
 31
0.0
 70
    32
 71
     5
 42
250.0000000000001
  3
GEN-ISO$0
100
AcDbAlignedDimension
 13
299.938004
 23
671.693072
 33
0.0
 14
296.848865
 24
421.6930719999999
 34
0.0
 50
90.0
100
AcDbRotatedDimension
1001
ACAD
1000
DSTYLE
1002
{
1070
   271
1070
     0
1002
}
  0
DIMENSION
  5
D47
330
9AD
100
AcDbEntity
  8
AM_5
100
AcDbDimension
  2
*D19
 10
73.67003205053697
 20
652.660841
 30
0.0
 11
63.09503205053687
 21
619.8095423528611
 31
0.0
 70
    32
 71
     5
 42
19.03223100000002
  3
GEN-ISO$0
100
AcDbAlignedDimension
 13
94.93800400000001
 23
671.693072
 33
0.0
 14
101.938004
 24
652.660841
 34
0.0
 50
90.0
100
AcDbRotatedDimension
1001
ACAD
1000
DSTYLE
1002
{
1070
   271
1070
     0
1002
}
  0
VIEWPORT
  5
22
102
{ACAD_XDICTIONARY
360
D86
102
}
330
9AA
100
AcDbEntity
 67
     1
  8
0
100
AcDbViewport
 10
261.5176990000001
 20
148.5
 30
0.0
 40
523.0353980000001
 41
297.0
 68
    -1
 69
     1
 12
261.5176990000001
 22
148.5
 13
0.0
 23
0.0
 14
1.0
 24
1.0
 15
10.0
 25
10.0
 16
0.0
 26
0.0
 36
1.0
 17
0.0
 27
0.0
 37
0.0
 42
50.0
 43
0.0
 44
0.0
 45
297.0
 50
0.0
 51
0.0
 72
   100
 90
    32800
  1

281
     0
 71
     1
 74
     0
110
0.0
120
0.0
130
0.0
111
1.0
121
0.0
131
0.0
112
0.0
122
1.0
132
0.0
 79
     0
146
0.0
1001
GENIUS_GENSCREG_15
1000
PF
1040
1.0
1000
DF
1040
1.0
1000
MIN
1011
0.0
1021
0.0
1031
0.0
1000
MAX
1011
523.0353980000001
1021
297.0
1031
0.0
1000
FLAGS
1070
     4
1001
GENIUS_GENOBJ-N-SDF_13
1002
{
1000
OWNER
1000
GEN
1002
}
1001
GENIUS_GENODEF_13
1002
{
1000
HIER
1070
     0
1002
}
1002
{
1000
MANEDIT
1070
     0
1002
}
1002
{
1000
NOSEL
1070
     0
1002
}
1002
{
1000
BEHIND
1070
     0
1002
}
1002
{
1000
OTHER
1070
     0
1002
}
1002
{
1000
REACTOR
1002
}
  0
ENDSEC
  0
SECTION
  2
OBJECTS
  0
DICTIONARY
  5
9A2
330
0
100
AcDbDictionary
281
     1
  3
ACAD_COLOR
350
A22
  3
ACAD_GROUP
350
9A3
  3
ACAD_LAYOUT
350
A25
  3
ACAD_MATERIAL
350
A21
  3
ACAD_MLINESTYLE
350
9B0
  3
ACAD_PLOTSETTINGS
350
A26
  3
ACAD_PLOTSTYLENAME
350
A1F
  3
ACAD_TABLESTYLE
350
A23
  3
ACDBHEADERROUNDTRIPXREC
350
D85
  3
ACDBVARIABLEDICTIONARY
350
9F6
  3
AcmDictionary
350
A84
  3
AMG
350
A2A
  3
AMGSNAPSETTINGS
350
AF4
  0
DICTIONARY
  5
CC4
330
998
100
AcDbDictionary
280
     1
281
     1
  3
AMLAYER_GROUPCOLORS
360
CC5
  0
DICTIONARY
  5
BEF
330
9AD
100
AcDbDictionary
280
     1
281
     1
  3
ACAD_SORTENTS
360
BF0
  0
DICTIONARY
  5
D86
330
22
100
AcDbDictionary
280
     1
281
     1
  3
ACAD_XREC_ROUNDTRIP
360
D87
  0
DICTIONARY
  5
A22
102
{ACAD_REACTORS
330
9A2
102
}
330
9A2
100
AcDbDictionary
281
     1
  0
DICTIONARY
  5
9A3
102
{ACAD_REACTORS
330
9A2
102
}
330
9A2
100
AcDbDictionary
281
     1
  0
DICTIONARY
  5
A25
102
{ACAD_REACTORS
330
9A2
102
}
330
9A2
100
AcDbDictionary
281
     1
  3
Layout1
350
A28
  3
Model
350
A27
  0
DICTIONARY
  5
A21
102
{ACAD_REACTORS
330
9A2
102
}
330
9A2
100
AcDbDictionary
281
     1
  0
DICTIONARY
  5
9B0
102
{ACAD_REACTORS
330
9A2
102
}
330
9A2
100
AcDbDictionary
281
     1
  3
STANDARD
350
9B1
  0
DICTIONARY
  5
A26
102
{ACAD_REACTORS
330
9A2
102
}
330
9A2
100
AcDbDictionary
281
     1
  0
ACDBDICTIONARYWDFLT
  5
A1F
102
{ACAD_REACTORS
330
9A2
102
}
330
9A2
100
AcDbDictionary
281
     1
  3
Normal
350
A20
100
AcDbDictionaryWithDefault
340
A20
  0
DICTIONARY
  5
A23
102
{ACAD_REACTORS
330
9A2
102
}
330
9A2
100
AcDbDictionary
281
     1
  3
Standard
350
A24
  0
DICTIONARY
  5
D85
102
{ACAD_REACTORS
330
9A2
102
}
330
9A2
100
AcDbDictionary
281
     1
  0
DICTIONARY
  5
9F6
102
{ACAD_REACTORS
330
9A2
102
}
330
9A2
100
AcDbDictionary
281
     1
  3
CTABLESTYLE
350
AF3
  3
DIMADEC
350
9F7
  3
DIMASSOC
350
D82
  3
PROJECTNAME
350
D83
  0
DICTIONARY
  5
A84
102
{ACAD_REACTORS
330
9A2
102
}
330
9A2
100
AcDbDictionary
281
     1
  3
AcmStdDictionary
350
A8F
  3
AMDTSECTSYM_ARROWCOLOR
350
AB2
  0
DICTIONARY
  5
A2A
102
{ACAD_REACTORS
330
9A2
102
}
330
9A2
100
AcDbDictionary
281
     1
  0
DICTIONARY
  5
AF4
102
{ACAD_REACTORS
330
9A2
102
}
330
9A2
100
AcDbDictionary
281
     1
  0
DICTIONARY
  5
CC5
102
{ACAD_REACTORS
330
CC4
102
}
330
CC4
100
AcDbDictionary
280
     1
281
     1
  0
SORTENTSTABLE
  5
BF0
102
{ACAD_REACTORS
330
BEF
102
}
330
BEF
100
AcDbSortentsTable
330
9AD
331
316
  5
316
331
521
  5
52A
331
31E
  5
31E
331
355
  5
355
331
3F4
  5
3FB
331
326
  5
326
331
4F2
  5
517
331
570
  5
575
331
531
  5
536
331
32E
  5
32E
331
404
  5
408
331
578
  5
57F
331
539
  5
540
331
3CD
  5
3CE
331
40C
  5
411
331
580
  5
584
331
336
  5
336
331
541
  5
545
331
33E
  5
33E
331
3D5
  5
3DA
331
414
  5
498
331
588
  5
58C
331
590
  5
594
331
559
  5
55E
331
51A
  5
521
331
598
  5
59C
331
561
  5
566
331
317
  5
317
331
522
  5
52B
331
31F
  5
31F
331
3F5
  5
3FF
331
327
  5
327
331
52A
  5
532
331
532
  5
537
331
32F
  5
32F
331
405
  5
409
331
579
  5
580
331
3CE
  5
3D0
331
53A
  5
541
331
581
  5
585
331
337
  5
337
331
542
  5
552
331
33F
  5
33F
331
3D6
  5
3DB
331
415
  5
4A9
331
589
  5
58D
331
308
  5
308
331
3DE
  5
3F2
331
552
  5
556
331
591
  5
595
331
55A
  5
55F
331
51B
  5
522
331
599
  5
59D
331
562
  5
56F
331
4E4
  5
516
331
310
  5
310
331
320
  5
320
331
52B
  5
533
331
572
  5
576
331
328
  5
328
331
533
  5
538
331
406
  5
40C
331
57A
  5
581
331
53B
  5
542
331
40E
  5
412
331
582
  5
586
331
330
  5
330
331
2F9
  5
2F9
331
338
  5
338
331
543
  5
553
331
416
  5
4B8
331
58A
  5
58E
331
301
  5
301
331
340
  5
340
331
553
  5
559
331
592
  5
596
331
309
  5
309
331
55B
  5
560
331
59A
  5
59E
331
563
  5
570
331
311
  5
311
331
319
  5
319
331
524
  5
530
331
3F7
  5
400
331
6BA
  5
B44
331
321
  5
321
331
3FF
  5
404
331
573
  5
577
331
329
  5
329
331
B89
  5
BF3
331
3C8
  5
3C9
331
407
  5
40E
331
57B
  5
582
331
53C
  5
543
331
40F
  5
413
331
583
  5
587
331
2F2
  5
2F2
331
331
  5
331
331
3D0
  5
3D1
331
2FA
  5
2FA
331
339
  5
339
331
544
  5
554
331
3D8
  5
3DC
331
417
  5
4C7
331
58B
  5
58F
331
341
  5
341
331
554
  5
55A
331
4D6
  5
50F
331
3E0
  5
3F4
331
593
  5
597
331
30A
  5
30A
331
CC8
  5
CC6
331
59B
  5
6BA
331
51D
  5
524
331
3E8
  5
3F5
331
564
  5
572
331
312
  5
312
331
2A3
  5
2A3
331
31A
  5
31A
331
3F8
  5
402
331
2E3
  5
2E3
331
322
  5
322
331
3B1
  5
3B1
331
400
  5
405
331
574
  5
578
331
32A
  5
32A
331
535
  5
539
331
3C9
  5
3CB
331
408
  5
40F
331
4C7
  5
500
331
584
  5
588
331
332
  5
332
331
3D1
  5
3D5
331
410
  5
414
331
2FB
  5
2FB
331
33A
  5
33A
331
545
  5
555
331
3D9
  5
3DE
331
58C
  5
590
331
303
  5
303
331
555
  5
55B
331
516
  5
51B
331
498
  5
4D6
331
594
  5
598
331
30B
  5
30B
331
55D
  5
561
331
51E
  5
526
331
59C
  5
76C
331
313
  5
313
331
31B
  5
31B
331
526
  5
531
331
323
  5
323
331
4B8
  5
4F2
331
575
  5
579
331
32B
  5
32B
331
76C
  5
B45
331
536
  5
53A
331
409
  5
410
331
585
  5
589
331
333
  5
333
331
411
  5
415
331
2FC
  5
2FC
331
33B
  5
33B
331
58D
  5
591
331
3DA
  5
3E0
331
50F
  5
51A
331
556
  5
55D
331
517
  5
51D
331
595
  5
599
331
30C
  5
30C
331
55E
  5
562
331
59D
  5
90E
331
566
  5
573
331
314
  5
314
331
4A9
  5
4E4
331
3F2
  5
3F8
331
38B
  5
38B
331
324
  5
324
331
576
  5
57A
331
402
  5
406
331
32C
  5
32C
331
537
  5
53B
331
3CB
  5
3CD
331
500
  5
519
331
586
  5
58A
331
334
  5
334
331
412
  5
416
331
33C
  5
33C
331
3DB
  5
3E8
331
58E
  5
592
331
305
  5
305
331
596
  5
59A
331
30D
  5
30D
331
55F
  5
563
331
59E
  5
B43
331
CDB
  5
CDA
331
315
  5
315
331
31D
  5
31D
331
56F
  5
574
331
3FB
  5
403
331
325
  5
325
331
530
  5
535
331
403
  5
407
331
577
  5
57B
331
32D
  5
32D
331
538
  5
53C
331
57F
  5
583
331
90E
  5
B46
331
587
  5
58B
331
335
  5
335
331
540
  5
544
331
413
  5
417
331
33D
  5
33D
331
3DC
  5
3EC
331
58F
  5
593
331
597
  5
59B
331
519
  5
51E
331
30E
  5
30E
331
560
  5
564
331
3EC
  5
3F7
  0
XRECORD
  5
D87
102
{ACAD_REACTORS
330
D86
102
}
330
D86
100
AcDbXrecord
280
     1
102
SHADEPLOT
 70
     0
  0
LAYOUT
  5
A28
102
{ACAD_XDICTIONARY
360
D8A
102
}
102
{ACAD_REACTORS
330
A25
102
}
330
A25
100
AcDbPlotSettings
  1

  2
Microsoft Office Document Image Writer
  4

  6

 40
0.0
 41
0.0
 42
0.0
 43
0.0
 44
0.0
 45
0.0
 46
0.0
 47
0.0
 48
0.0
 49
0.0
140
0.0
141
0.0
142
1.0
143
1.0
 70
   688
 72
     0
 73
     0
 74
     5
  7

 75
    16
147
1.0
148
0.0
149
0.0
100
AcDbLayout
  1
Layout1
 70
     1
 71
     1
 10
0.0
 20
0.0
 11
420.0
 21
297.0
 12
0.0
 22
0.0
 32
0.0
 14
1.000000000000000E+20
 24
1.000000000000000E+20
 34
1.000000000000000E+20
 15
-1.000000000000000E+20
 25
-1.000000000000000E+20
 35
-1.000000000000000E+20
146
0.0
 13
0.0
 23
0.0
 33
0.0
 16
1.0
 26
0.0
 36
0.0
 17
0.0
 27
1.0
 37
0.0
 76
     0
330
9AA
  0
LAYOUT
  5
A27
102
{ACAD_XDICTIONARY
360
D88
102
}
102
{ACAD_REACTORS
330
A25
102
}
330
A25
100
AcDbPlotSettings
  1

  2
Microsoft Office Document Image Writer
  4

  6

 40
0.0
 41
0.0
 42
0.0
 43
0.0
 44
0.0
 45
0.0
 46
0.0
 47
0.0
 48
0.0
 49
0.0
140
0.0
141
0.0
142
1.0
143
1.0
 70
  1712
 72
     0
 73
     0
 74
     0
  7

 75
     0
147
1.0
148
0.0
149
0.0
100
AcDbLayout
  1
Model
 70
     1
 71
     0
 10
0.0
 20
0.0
 11
12.0
 21
9.0
 12
0.0
 22
0.0
 32
0.0
 14
0.0
 24
0.0
 34
0.0
 15
0.0
 25
0.0
 35
0.0
146
0.0
 13
0.0
 23
0.0
 33
0.0
 16
1.0
 26
0.0
 36
0.0
 17
0.0
 27
1.0
 37
0.0
 76
     0
330
9AD
  0
MLINESTYLE
  5
9B1
102
{ACAD_REACTORS
330
9B0
102
}
330
9B0
100
AcDbMlineStyle
  2
STANDARD
 70
     0
  3

 62
   256
 51
90.0
 52
90.0
 71
     2
 49
0.5
 62
   256
  6
BYLAYER
 49
-0.5
 62
   256
  6
BYLAYER
  0
ACDBPLACEHOLDER
  5
A20
102
{ACAD_REACTORS
330
A1F
102
}
330
A1F
  0
TABLESTYLE
  5
A24
102
{ACAD_REACTORS
330
A23
102
}
330
A23
100
AcDbTableStyle
  3
Standard
 70
     0
 71
     0
 40
1.5
 41
1.5
280
     0
281
     0
  7
STANDARD
140
4.5
170
     2
 62
     0
 63
     7
283
     0
274
    -2
284
     1
 64
     0
275
    -2
285
     1
 65
     0
276
    -2
286
     1
 66
     0
277
    -2
287
     1
 67
     0
278
    -2
288
     1
 68
     0
279
    -2
289
     1
 69
     0
  7
STANDARD
140
6.0
170
     5
 62
     0
 63
     7
283
     0
274
    -2
284
     1
 64
     0
275
    -2
285
     1
 65
     0
276
    -2
286
     1
 66
     0
277
    -2
287
     1
 67
     0
278
    -2
288
     1
 68
     0
279
    -2
289
     1
 69
     0
  7
STANDARD
140
4.5
170
     5
 62
     0
 63
     7
283
     0
274
    -2
284
     1
 64
     0
275
    -2
285
     1
 65
     0
276
    -2
286
     1
 66
     0
277
    -2
287
     1
 67
     0
278
    -2
288
     1
 68
     0
279
    -2
289
     1
 69
     0
  0
DICTIONARYVAR
  5
AF3
102
{ACAD_REACTORS
330
9F6
102
}
330
9F6
100
DictionaryVariables
280
     0
  1
STANDARD
  0
DICTIONARYVAR
  5
9F7
102
{ACAD_REACTORS
330
9F6
102
}
330
9F6
100
DictionaryVariables
280
     0
  1
0
  0
DICTIONARYVAR
  5
D82
102
{ACAD_REACTORS
330
9F6
102
}
330
9F6
100
DictionaryVariables
280
     0
  1
1
  0
DICTIONARYVAR
  5
D83
102
{ACAD_REACTORS
330
9F6
102
}
330
9F6
100
DictionaryVariables
280
     0
  1

  0
DICTIONARY
  5
A8F
102
{ACAD_REACTORS
330
A84
102
}
330
A84
100
AcDbDictionary
281
     1
  0
XRECORD
  5
AB2
102
{ACAD_REACTORS
330
A84
102
}
330
A84
100
AcDbXrecord
280
     1
 90
-1023410169
  0
DICTIONARY
  5
D8A
330
A28
100
AcDbDictionary
280
     1
281
     1
  3
ACAD_XREC_ROUNDTRIP
360
D8B
  0
DICTIONARY
  5
D88
330
A27
100
AcDbDictionary
280
     1
281
     1
  3
ACAD_XREC_ROUNDTRIP
360
D89
  0
XRECORD
  5
D8B
102
{ACAD_REACTORS
330
D8A
102
}
330
D8A
100
AcDbXrecord
280
     1
102
SHADEPLOT
 70
     0
102
SHADEPLOTRESLEVEL
 70
     2
102
SHADEPLOTCUSTOMDPI
 70
   300
  0
XRECORD
  5
D89
102
{ACAD_REACTORS
330
D88
102
}
330
D88
100
AcDbXrecord
280
     1
102
SHADEPLOT
 70
     0
102
SHADEPLOTRESLEVEL
 70
     2
102
SHADEPLOTCUSTOMDPI
 70
   300
  0
ENDSEC
  0
EOF
