  0
SECTION
  2
HEADER
  9
$ACADVER
  1
AC1015
  9
$ACADMAINTVER
 70
    20
  9
$DWGCODEPAGE
  3
ANSI_1252
  9
$INSBASE
 10
0.0
 20
0.0
 30
0.0
  9
$EXTMIN
 10
78.80562500000003
 20
52.092202
 30
0.0
  9
$EXTMAX
 10
550.1805039999998
 20
599.271608
 30
0.0
  9
$LIMMIN
 10
0.0
 20
0.0
  9
$LIMMAX
 10
420.0
 20
297.0
  9
$ORTHOMODE
 70
     0
  9
$REGENMODE
 70
     1
  9
$FILLMODE
 70
     1
  9
$QTEXTMODE
 70
     0
  9
$MIRRTEXT
 70
     1
  9
$LTSCALE
 40
5.0
  9
$ATTMODE
 70
     1
  9
$TEXTSIZE
 40
20.171606
  9
$TRACEWID
 40
1.0
  9
$TEXTSTYLE
  7
STANDARD
  9
$CLAYER
  8
0
  9
$CELTYPE
  6
BYLAYER
  9
$CECOLOR
 62
   256
  9
$CELTSCALE
 40
1.0
  9
$DISPSILH
 70
     0
  9
$DIMSCALE
 40
4.5
  9
$DIMASZ
 40
2.5
  9
$DIMEXO
 40
1.0
  9
$DIMDLI
 40
7.0
  9
$DIMRND
 40
0.0
  9
$DIMDLE
 40
0.0
  9
$DIMEXE
 40
1.0
  9
$DIMTP
 40
0.1
  9
$DIMTM
 40
0.1
  9
$DIMTXT
 40
3.5
  9
$DIMCEN
 40
0.0
  9
$DIMTSZ
 40
0.0
  9
$DIMTOL
 70
     0
  9
$DIMLIM
 70
     0
  9
$DIMTIH
 70
     0
  9
$DIMTOH
 70
     0
  9
$DIMSE1
 70
     0
  9
$DIMSE2
 70
     0
  9
$DIMTAD
 70
     1
  9
$DIMZIN
 70
     8
  9
$DIMBLK
  1

  9
$DIMASO
 70
     1
  9
$DIMSHO
 70
     1
  9
$DIMPOST
  1
<>
  9
$DIMAPOST
  1

  9
$DIMALT
 70
     0
  9
$DIMALTD
 70
     2
  9
$DIMALTF
 40
0.03937
  9
$DIMLFAC
 40
1.0
  9
$DIMTOFL
 70
     1
  9
$DIMTVP
 40
0.0
  9
$DIMTIX
 70
     0
  9
$DIMSOXD
 70
     0
  9
$DIMSAH
 70
     0
  9
$DIMBLK1
  1

  9
$DIMBLK2
  1

  9
$DIMSTYLE
  2
GEN-ISO
  9
$DIMCLRD
 70
   256
  9
$DIMCLRE
 70
   256
  9
$DIMCLRT
 70
     2
  9
$DIMTFAC
 40
0.71
  9
$DIMGAP
 40
0.6
  9
$DIMJUST
 70
     0
  9
$DIMSD1
 70
     0
  9
$DIMSD2
 70
     0
  9
$DIMTOLJ
 70
     1
  9
$DIMTZIN
 70
     8
  9
$DIMALTZ
 70
     8
  9
$DIMALTTZ
 70
     8
  9
$DIMUPT
 70
     0
  9
$DIMDEC
 70
     2
  9
$DIMTDEC
 70
     2
  9
$DIMALTU
 70
     2
  9
$DIMALTTD
 70
     2
  9
$DIMTXSTY
  7
STANDARD
  9
$DIMAUNIT
 70
     0
  9
$DIMADEC
 70
     0
  9
$DIMALTRND
 40
0.0
  9
$DIMAZIN
 70
     0
  9
$DIMDSEP
 70
    46
  9
$DIMATFIT
 70
     3
  9
$DIMFRAC
 70
     0
  9
$DIMLDRBLK
  1

  9
$DIMLUNIT
 70
     2
  9
$DIMLWD
 70
    -2
  9
$DIMLWE
 70
    -2
  9
$DIMTMOVE
 70
     0
  9
$LUNITS
 70
     2
  9
$LUPREC
 70
     2
  9
$SKETCHINC
 40
1.0
  9
$FILLETRAD
 40
5.0
  9
$AUNITS
 70
     0
  9
$AUPREC
 70
     0
  9
$MENU
  1
D:\GENIUS\genius
  9
$ELEVATION
 40
0.0
  9
$PELEVATION
 40
0.0
  9
$THICKNESS
 40
0.0
  9
$LIMCHECK
 70
     0
  9
$CHAMFERA
 40
2.5
  9
$CHAMFERB
 40
2.5
  9
$CHAMFERC
 40
0.0
  9
$CHAMFERD
 40
0.0
  9
$SKPOLY
 70
     0
  9
$TDCREATE
 40
2450400.319376389
  9
$TDUCREATE
 40
2450400.277709722
  9
$TDUPDATE
 40
2454081.837982766
  9
$TDUUPDATE
 40
2454081.796316100
  9
$TDINDWG
 40
0.0716196181
  9
$TDUSRTIMER
 40
0.0716196181
  9
$USRTIMER
 70
     1
  9
$ANGBASE
 50
0.0
  9
$ANGDIR
 70
     0
  9
$PDMODE
 70
     0
  9
$PDSIZE
 40
0.0
  9
$PLINEWID
 40
0.0
  9
$SPLFRAME
 70
     0
  9
$SPLINETYPE
 70
     6
  9
$SPLINESEGS
 70
     8
  9
$HANDSEED
  5
1115
  9
$SURFTAB1
 70
     6
  9
$SURFTAB2
 70
     6
  9
$SURFTYPE
 70
     6
  9
$SURFU
 70
     6
  9
$SURFV
 70
     6
  9
$UCSBASE
  2

  9
$UCSNAME
  2

  9
$UCSORG
 10
0.0
 20
0.0
 30
0.0
  9
$UCSXDIR
 10
1.0
 20
0.0
 30
0.0
  9
$UCSYDIR
 10
0.0
 20
1.0
 30
0.0
  9
$UCSORTHOREF
  2

  9
$UCSORTHOVIEW
 70
     0
  9
$UCSORGTOP
 10
0.0
 20
0.0
 30
0.0
  9
$UCSORGBOTTOM
 10
0.0
 20
0.0
 30
0.0
  9
$UCSORGLEFT
 10
0.0
 20
0.0
 30
0.0
  9
$UCSORGRIGHT
 10
0.0
 20
0.0
 30
0.0
  9
$UCSORGFRONT
 10
0.0
 20
0.0
 30
0.0
  9
$UCSORGBACK
 10
0.0
 20
0.0
 30
0.0
  9
$PUCSBASE
  2

  9
$PUCSNAME
  2

  9
$PUCSORG
 10
0.0
 20
0.0
 30
0.0
  9
$PUCSXDIR
 10
1.0
 20
0.0
 30
0.0
  9
$PUCSYDIR
 10
0.0
 20
1.0
 30
0.0
  9
$PUCSORTHOREF
  2

  9
$PUCSORTHOVIEW
 70
     0
  9
$PUCSORGTOP
 10
0.0
 20
0.0
 30
0.0
  9
$PUCSORGBOTTOM
 10
0.0
 20
0.0
 30
0.0
  9
$PUCSORGLEFT
 10
0.0
 20
0.0
 30
0.0
  9
$PUCSORGRIGHT
 10
0.0
 20
0.0
 30
0.0
  9
$PUCSORGFRONT
 10
0.0
 20
0.0
 30
0.0
  9
$PUCSORGBACK
 10
0.0
 20
0.0
 30
0.0
  9
$USERI1
 70
     0
  9
$USERI2
 70
     0
  9
$USERI3
 70
     0
  9
$USERI4
 70
     0
  9
$USERI5
 70
     0
  9
$USERR1
 40
0.0
  9
$USERR2
 40
0.0
  9
$USERR3
 40
0.0
  9
$USERR4
 40
0.0
  9
$USERR5
 40
0.0
  9
$WORLDVIEW
 70
     1
  9
$SHADEDGE
 70
     3
  9
$SHADEDIF
 70
    70
  9
$TILEMODE
 70
     1
  9
$MAXACTVP
 70
    16
  9
$PINSBASE
 10
0.0
 20
0.0
 30
0.0
  9
$PLIMCHECK
 70
     0
  9
$PEXTMIN
 10
1.000000000000000E+20
 20
1.000000000000000E+20
 30
1.000000000000000E+20
  9
$PEXTMAX
 10
-1.000000000000000E+20
 20
-1.000000000000000E+20
 30
-1.000000000000000E+20
  9
$PLIMMIN
 10
0.0
 20
0.0
  9
$PLIMMAX
 10
420.0
 20
297.0
  9
$UNITMODE
 70
     0
  9
$VISRETAIN
 70
     0
  9
$PLINEGEN
 70
     0
  9
$PSLTSCALE
 70
     1
  9
$TREEDEPTH
 70
  3020
  9
$CMLSTYLE
  2
STANDARD
  9
$CMLJUST
 70
     0
  9
$CMLSCALE
 40
1.0
  9
$PROXYGRAPHICS
 70
     1
  9
$MEASUREMENT
 70
     1
  9
$CELWEIGHT
370
    -1
  9
$ENDCAPS
280
     0
  9
$JOINSTYLE
280
     0
  9
$LWDISPLAY
290
     0
  9
$INSUNITS
 70
     0
  9
$HYPERLINKBASE
  1

  9
$STYLESHEET
  1

  9
$XEDIT
290
     1
  9
$CEPSNTYPE
380
     0
  9
$PSTYLEMODE
290
     1
  9
$FINGERPRINTGUID
  2
{E3A39B76-2156-4B5C-B789-D9267FB7252A}
  9
$VERSIONGUID
  2
{E34BB7E7-085F-45E2-8327-156C8439627D}
  9
$EXTNAMES
290
     1
  9
$PSVPSCALE
 40
0.0
  9
$OLESTARTUP
290
     0
  0
ENDSEC
  0
SECTION
  2
CLASSES
  0
CLASS
  1
DICTIONARYVAR
  2
AcDbDictionaryVar
  3
ObjectDBX Classes
 90
        0
280
     0
281
     0
  0
CLASS
  1
ACDBDICTIONARYWDFLT
  2
AcDbDictionaryWithDefault
  3
ObjectDBX Classes
 90
        0
280
     0
281
     0
  0
CLASS
  1
TABLESTYLE
  2
AcDbTableStyle
  3
ObjectDBX Classes
 90
     2047
280
     0
281
     0
  0
CLASS
  1
AMGSETTINGSOBJ
  2
AmgSettingsObj
  3
"AcadM|Product Description: AutoCAD Mechanical 2000|Company: Autodesk"
 90
        0
280
     0
281
     0
  0
CLASS
  1
ACME_DOCUMENT
  2
AcMeDbDoc
  3
AcMeServices
 90
        0
280
     0
281
     0
  0
CLASS
  1
ACMESCOPE
  2
AcMeScope
  3
AcMeServices
 90
        0
280
     0
281
     0
  0
CLASS
  1
ACMECOMMANDHISTORY
  2
AcMeCommandHistory
  3
AcMeServices
 90
        0
280
     0
281
     0
  0
CLASS
  1
ACIMSYSVARMAN
  2
AcImSysVarManager
  3
AcMeServices
 90
        0
280
     0
281
     0
  0
CLASS
  1
ACIMINTSYSVAR
  2
AcImIntSysVar
  3
AcMeServices
 90
        0
280
     0
281
     0
  0
CLASS
  1
ACMEDRAWINGMAN
  2
AcMeDrawingMan
  3
AcMeServices
 90
        0
280
     0
281
     0
  0
CLASS
  1
ACMEVIEW
  2
AcMeView
  3
AcMeServices
 90
        0
280
     0
281
     0
  0
CLASS
  1
ACDBENTITYCACHE
  2
AcMeEntityCache
  3
AcMeServices
 90
        0
280
     0
281
     0
  0
CLASS
  1
GSMANAGER
  2
AcMeGSManager
  3
AcMeServices
 90
        0
280
     0
281
     0
  0
CLASS
  1
AMDTINTERNALREACTOR
  2
AmdtInternalReactor
  3
AcMeServices
 90
        0
280
     0
281
     0
  0
CLASS
  1
ACMESTATEMGR
  2
AcMeStateMgr
  3
AcMeServices
 90
        0
280
     0
281
     0
  0
CLASS
  1
ACGREFMASTER
  2
AcGrefMaster
  3
AcAttribServices
 90
        0
280
     0
281
     0
  0
CLASS
  1
AM_DRAWING_MGR
  2
AcDmDwgMgr
  3
AcMechDwgViewMgmt
 90
        0
280
     0
281
     0
  0
CLASS
  1
AM_DWG_DOCUMENT
  2
AcDmDwgDocument
  3
AcMechDwgViewMgmt
 90
        0
280
     0
281
     0
  0
CLASS
  1
AM_DWG_SHEET
  2
AcDmSheet
  3
AcMechDwgViewMgmt
 90
        0
280
     0
281
     0
  0
CLASS
  1
AM_VIEWDIMPARMAP
  2
AcDmViewDimParMap
  3
AcMechDwgViewMgmt
 90
        0
280
     0
281
     0
  0
CLASS
  1
ACIMREALSYSVAR
  2
AcImRealSysVar
  3
AcMeServices
 90
        0
280
     0
281
     0
  0
CLASS
  1
AM_DWGMGR_NAME
  2
AcDmDwgMgrName
  3
AcMechDwgViewMgmt
 90
        0
280
     0
281
     0
  0
CLASS
  1
ACME_DATABASE
  2
AcMeDbDatabase
  3
AcMeServices
 90
        0
280
     0
281
     0
  0
CLASS
  1
ACRFINSADJUSTERMGR
  2
AcRfInsAdjusterMgr
  3
AcMeServices
 90
        0
280
     0
281
     0
  0
CLASS
  1
ACGREFACADMASTER
  2
AcGrefacadMaster
  3
AcGrefServices
 90
        0
280
     0
281
     0
  0
CLASS
  1
AMDTMENUSTATEMGR
  2
AmdtMenuStateMgr
  3
McadcomServices
 90
        0
280
     0
281
     0
  0
CLASS
  1
AMDTMCOMMENUSTATE
  2
AmdtMcomMenuState
  3
McadcomServices
 90
        0
280
     0
281
     0
  0
CLASS
  1
AMIMASTER
  2
AmiMaster
  3
AmiServices
 90
        0
280
     0
281
     0
  0
CLASS
  1
MAPIAMMOUDLE
  2
MApiAmModule
  3
MApiAmServices
 90
        0
280
     0
281
     0
  0
CLASS
  1
ACIMSTRSYSVAR
  2
AcImStrSysVar
  3
AcMeServices
 90
        0
280
     0
281
     0
  0
CLASS
  1
AMDTADMENUSTATE
  2
AmdtAdMenuState
  3
DesignerServices
 90
        0
280
     0
281
     0
  0
CLASS
  1
ADAPPL
  2
AcAdAppl
  3
DesignerServices
 90
        0
280
     0
281
     0
  0
CLASS
  1
DEPMGR
  2
AcAdDepMgr
  3
DesignerServices
 90
        0
280
     0
281
     0
  0
CLASS
  1
PARAMMGR
  2
AcAdParamMgr
  3
DesignerServices
 90
        0
280
     0
281
     0
  0
CLASS
  1
PARAMSCOPE
  2
AcAdParamScope
  3
DesignerServices
 90
        0
280
     0
281
     0
  0
CLASS
  1
NAMEDAPPL
  2
AcAdNamedAppl
  3
DesignerServices
 90
        0
280
     0
281
     0
  0
CLASS
  1
AMDTDMMENUSTATE
  2
AmdtDmMenuState
  3
AcMechDwgViewMgmt
 90
        0
280
     0
281
     0
  0
CLASS
  1
AMDTAMMENUSTATE
  2
AmdtAmMenuState
  3
DesignerAssemblies
 90
        0
280
     0
281
     0
  0
CLASS
  1
ACAMPROJECT
  2
AcAmProject
  3
DesignerAssemblies
 90
        0
280
     0
281
     0
  0
CLASS
  1
ACAMGRCOMPDEF
  2
AcAmGrCompDef
  3
DesignerAssemblies
 90
        0
280
     0
281
     0
  0
CLASS
  1
ACCMCONTEXT
  2
AcCmContext
  3
DesignerAssemblies
 90
        0
280
     0
281
     0
  0
CLASS
  1
ACAMCOMPDEF
  2
AcAmCompDef
  3
DesignerAssemblies
 90
        0
280
     0
281
     0
  0
CLASS
  1
ACAMCOMPDEFMGR
  2
AcAmCompDefMgr
  3
DesignerAssemblies
 90
        0
280
     0
281
     0
  0
CLASS
  1
AMCONTEXTMGR
  2
AcAmContextMgr
  3
DesignerAssemblies
 90
        0
280
     0
281
     0
  0
CLASS
  1
ACAMCONTEXTMODELER
  2
AcAmContextModeler
  3
DesignerAssemblies
 90
        0
280
     0
281
     0
  0
CLASS
  1
ACMDATADICTIONARY
  2
AcmDataDictionary
  3
"AcmSymBB|Product Description: AutoCAD Mechanical 2004 DX|Company: Autodesk"
 90
        0
280
     0
281
     0
  0
CLASS
  1
CATALOGSTATE
  2
AcAmCatalogState
  3
DesignerAssemblies
 90
        0
280
     0
281
     0
  0
CLASS
  1
ACAMGRCOMPDEFSET
  2
AcAmGrCompDefSet
  3
DesignerAssemblies
 90
        0
280
     0
281
     0
  0
CLASS
  1
AMDTBROWSERDBTAB
  2
AmdtBrowserDbTab
  3
McadcomServices
 90
        0
280
     0
281
     0
  0
CLASS
  1
CBROWSERAPPOBJECT
  2
CBrowserAppObject
  3
McadcomServices
 90
        0
280
     0
281
     0
  0
CLASS
  1
DM_PLACEHOLDER
  2
AcDmSelsetPlaceholder
  3
AcMechDwgViewMgmt
 90
        0
280
     0
281
     0
  0
CLASS
  1
ACMSTANDARDDIN
  2
AcmStandardDIN
  3
"Amdt_StdImp|Product Description: AutoCAD Mechanical 2004 DX|Company: Autodesk"
 90
        0
280
     0
281
     0
  0
CLASS
  1
AMGOBJPROPCFG
  2
AmgObjPropCfg
  3
"AmgLay|Product Description: AutoCAD Mechanical 2000|Company: Autodesk"
 90
        1
280
     0
281
     0
  0
CLASS
  1
AMDTEDGESTANDARDDIN13715
  2
AmdtEdgeStdDIN13715
  3
"Amdt_StdImp|Product Description: AutoCAD Mechanical 2004 DX|Company: Autodesk"
 90
        0
280
     0
281
     0
  0
CLASS
  1
ACMSURFSTANDARDDIN
  2
AcmSurfTextStdDIN
  3
"Amdt_StdImp|Product Description: AutoCAD Mechanical 2004 DX|Company: Autodesk"
 90
        0
280
     0
281
     0
  0
CLASS
  1
ACMFCFSTANDARDDIN
  2
AcmFCFStdDIN
  3
"Amdt_StdImp|Product Description: AutoCAD Mechanical 2004 DX|Company: Autodesk"
 90
        0
280
     0
281
     0
  0
CLASS
  1
ACMWELDSTANDARDDIN
  2
AcmWeldingStdDIN
  3
"Amdt_StdImp|Product Description: AutoCAD Mechanical 2004 DX|Company: Autodesk"
 90
        0
280
     0
281
     0
  0
CLASS
  1
ACMIDSTANDARDDIN
  2
AcmIdStdDIN
  3
"Amdt_StdImp|Product Description: AutoCAD Mechanical 2004 DX|Company: Autodesk"
 90
        0
280
     0
281
     0
  0
CLASS
  1
ACMDATUMSTANDARDDIN
  2
AcmDatumStdDIN
  3
"Amdt_StdImp|Product Description: AutoCAD Mechanical 2004 DX|Company: Autodesk"
 90
        0
280
     0
281
     0
  0
CLASS
  1
ACMBOMSTANDARDDIN
  2
AcmBOMStdDIN
  3
"Amdt_StdImp|Product Description: AutoCAD Mechanical 2004 DX|Company: Autodesk"
 90
        0
280
     0
281
     0
  0
CLASS
  1
ACMDETAILSTANDARDDIN
  2
AmdtDetailSymStdDIN
  3
"Amdt_StdImp|Product Description: AutoCAD Mechanical 2004 DX|Company: Autodesk"
 90
        0
280
     0
281
     0
  0
CLASS
  1
ACMSECTIONSTANDARDDIN
  2
AmdtSectionSymStdDIN
  3
"Amdt_StdImp|Product Description: AutoCAD Mechanical 2004 DX|Company: Autodesk"
 90
        0
280
     0
281
     0
  0
CLASS
  1
ACMCENTERLINESTANDARDDIN
  2
AmdtCenterLineStdDIN
  3
"Amdt_StdImp|Product Description: AutoCAD Mechanical 2004 DX|Company: Autodesk"
 90
        0
280
     0
281
     0
  0
CLASS
  1
ACMTHREADLINESTANDARDDIN
  2
AmdtThreadLineStdDIN
  3
"Amdt_StdImp|Product Description: AutoCAD Mechanical 2004 DX|Company: Autodesk"
 90
        0
280
     0
281
     0
  0
CLASS
  1
ACMNOTESTANDARDDIN
  2
AmdtNoteStdDIN
  3
"Amdt_StdImp|Product Description: AutoCAD Mechanical 2004 DX|Company: Autodesk"
 90
        0
280
     0
281
     0
  0
CLASS
  1
AMDTNOTETEMPLATEDB
  2
AmdtNoteTemplateDB
  3
AMDT_STDIMP_MODULE_NAME
 90
        0
280
     0
281
     0
  0
CLASS
  1
ACAMGLAYSTD
  2
AcAmgLayStd
  3
"AcAmgLayStd|Product Description: AutoCAD Mechanical 2000|Company: Autodesk"
 90
        0
280
     0
281
     0
  0
CLASS
  1
ACAMGDIMSTD
  2
AcAmgDimStd
  3
"AcAmgDimStd|Product Description: AutoCAD Mechanical 2000|Company: Autodesk"
 90
        0
280
     0
281
     0
  0
CLASS
  1
ACAMGHOLECHARTSTDDIN
  2
AcAmgHoleChartStdDIN
  3
ACMSYMBB_MODULE_NAME
 90
        0
280
     0
281
     0
  0
CLASS
  1
ACAMGTITLESTD
  2
AcAmgTitleStd
  3
"TITLEAPP"
 90
        0
280
     0
281
     0
  0
CLASS
  1
ACAMGFILTERDAT
  2
AcAmgFilterDat
  3
"AcadM|Product Description: AutoCAD Mechanical 2000|Company: Autodesk"
 90
        0
280
     0
281
     0
  0
CLASS
  1
ACDBPLACEHOLDER
  2
AcDbPlaceHolder
  3
ObjectDBX Classes
 90
        0
280
     0
281
     0
  0
CLASS
  1
LAYOUT
  2
AcDbLayout
  3
ObjectDBX Classes
 90
        0
280
     0
281
     0
  0
ENDSEC
  0
SECTION
  2
TABLES
  0
TABLE
  2
VPORT
  5
F42
330
0
100
AcDbSymbolTable
 70
     4
  0
VPORT
  5
110D
330
F42
100
AcDbSymbolTableRecord
100
AcDbViewportTableRecord
  2
*Active
 70
     0
 10
0.0
 20
0.0
 11
1.0
 21
1.0
 12
314.828675
 22
337.6389344802007
 13
0.0
 23
0.0
 14
1.0
 24
1.0
 15
10.0
 25
10.0
 16
0.0
 26
0.0
 36
1.0
 17
0.0
 27
0.0
 37
0.0
 40
647.3643679604013
 41
1.494545454545454
 42
50.0
 43
0.0
 44
0.0
 50
0.0
 51
0.0
 71
     0
 72
   100
 73
     1
 74
     1
 75
     0
 76
     0
 77
     0
 78
     0
281
     0
 65
     0
110
0.0
120
0.0
130
0.0
111
1.0
121
0.0
131
0.0
112
0.0
122
1.0
132
0.0
 79
     0
146
0.0
  0
ENDTAB
  0
TABLE
  2
LTYPE
  5
F3F
330
0
100
AcDbSymbolTable
 70
    22
  0
LTYPE
  5
F4B
330
F3F
100
AcDbSymbolTableRecord
100
AcDbLinetypeTableRecord
  2
BYBLOCK
 70
     0
  3

 72
    65
 73
     0
 40
0.0
  0
LTYPE
  5
F4C
330
F3F
100
AcDbSymbolTableRecord
100
AcDbLinetypeTableRecord
  2
BYLAYER
 70
     0
  3

 72
    65
 73
     0
 40
0.0
  0
LTYPE
  5
F4D
330
F3F
100
AcDbSymbolTableRecord
100
AcDbLinetypeTableRecord
  2
CONTINUOUS
 70
     0
  3
Solid line
 72
    65
 73
     0
 40
0.0
  0
LTYPE
  5
F75
330
F3F
100
AcDbSymbolTableRecord
100
AcDbLinetypeTableRecord
  2
GEN7
 70
     0
  3
____ . ____ . ____ . ____ . ____ . ____ . ____
 72
    65
 73
     4
 40
13.75
 49
10.0
 74
     0
 49
-1.25
 74
     0
 49
1.25
 74
     0
 49
-1.25
 74
     0
  0
LTYPE
  5
F76
330
F3F
100
AcDbSymbolTableRecord
100
AcDbLinetypeTableRecord
  2
GEN7A
 70
     0
  3
__ . __ . __
 72
    65
 73
     4
 40
6.875
 49
5.0
 74
     0
 49
-0.625
 74
     0
 49
0.625
 74
     0
 49
-0.625
 74
     0
  0
LTYPE
  5
F77
330
F3F
100
AcDbSymbolTableRecord
100
AcDbLinetypeTableRecord
  2
GEN4A
 70
     0
  3
_____ . . _____ . . _____ . . ____ .. ____
 72
    65
 73
     6
 40
16.25
 49
10.0
 74
     0
 49
-1.25
 74
     0
 49
1.25
 74
     0
 49
-1.25
 74
     0
 49
1.25
 74
     0
 49
-1.25
 74
     0
  0
LTYPE
  5
106C
330
F3F
100
AcDbSymbolTableRecord
100
AcDbLinetypeTableRecord
  2
HIDDEN
 70
     0
  3
Verdeckt
 72
    65
 73
     2
 40
9.525
 49
6.349999999999999
 74
     0
 49
-3.174999999999999
 74
     0
  0
LTYPE
  5
106D
330
F3F
100
AcDbSymbolTableRecord
100
AcDbLinetypeTableRecord
  2
PHANTOM2
 70
     0
  3
Phantom (.5x) ___ _ _ ___ _ _ ___ _ _ ___ _ _
 72
    65
 73
     6
 40
31.75
 49
15.875
 74
     0
 49
-3.174999999999999
 74
     0
 49
3.174999999999999
 74
     0
 49
-3.174999999999999
 74
     0
 49
3.174999999999999
 74
     0
 49
-3.174999999999999
 74
     0
  0
LTYPE
  5
106E
330
F3F
100
AcDbSymbolTableRecord
100
AcDbLinetypeTableRecord
  2
CENTER
 70
     0
  3
Mitte ____ _ ____ _ ____ _ ____ _ ____ _ ____
 72
    65
 73
     4
 40
50.8
 49
31.75
 74
     0
 49
-6.349999999999999
 74
     0
 49
6.349999999999999
 74
     0
 49
-6.349999999999999
 74
     0
  0
LTYPE
  5
10A2
330
F3F
100
AcDbSymbolTableRecord
100
AcDbLinetypeTableRecord
  2
AM_ISO02W050
 70
     0
  3
__ __ __ __ __ __ __ __ __ __ __ __ __ __ __
 72
    65
 73
     2
 40
7.5
 49
6.0
 74
     0
 49
-1.5
 74
     0
  0
LTYPE
  5
10A3
330
F3F
100
AcDbSymbolTableRecord
100
AcDbLinetypeTableRecord
  2
AM_ISO08W050
 70
     0
  3
____ . ____ . ____ . ____ . ____ . ____ . ____
 72
    65
 73
     4
 40
18.0
 49
12.0
 74
     0
 49
-1.5
 74
     0
 49
3.0
 74
     0
 49
-1.5
 74
     0
  0
LTYPE
  5
10A4
330
F3F
100
AcDbSymbolTableRecord
100
AcDbLinetypeTableRecord
  2
AM_ISO09W050
 70
     0
  3
_____ . . _____ . . _____ . . ____ .. ____
 72
    65
 73
     6
 40
22.5
 49
12.0
 74
     0
 49
-1.5
 74
     0
 49
3.0
 74
     0
 49
-1.5
 74
     0
 49
3.0
 74
     0
 49
-1.5
 74
     0
  0
LTYPE
  5
10A5
330
F3F
100
AcDbSymbolTableRecord
100
AcDbLinetypeTableRecord
  2
Amconstr
 70
     0
  3
_______________________
 72
    65
 73
     2
 40
9999.0
 49
9999.0
 74
     0
 49
0.0
 74
     0
  0
LTYPE
  5
10A6
330
F3F
100
AcDbSymbolTableRecord
100
AcDbLinetypeTableRecord
  2
AM_ISO08W050x2
 70
     0
  3
__ . __ . __ . __ . __ . __
 72
    65
 73
     4
 40
9.0
 49
6.0
 74
     0
 49
-0.75
 74
     0
 49
1.5
 74
     0
 49
-0.75
 74
     0
  0
LTYPE
  5
10A7
330
F3F
100
AcDbSymbolTableRecord
100
AcDbLinetypeTableRecord
  2
AM_ISO02W050x2
 70
     0
  3
 _ _ _ _ _ _ _ _ _ _ _ _
 72
    65
 73
     2
 40
3.75
 49
3.0
 74
     0
 49
-0.75
 74
     0
  0
LTYPE
  5
10AA
330
F3F
100
AcDbSymbolTableRecord
100
AcDbLinetypeTableRecord
  2
Amzigzag
 70
     0
  3
/\/-/\/-/\/-/\/-/\/-/\/
 72
    65
 73
     2
 40
11.0001
 49
0.0001
 74
     4
 75
   136
340
10A9
 46
0.04
 50
0.0
 44
0.0
 45
0.0
 49
-11.0
 74
     0
  0
LTYPE
  5
10AB
330
F3F
100
AcDbSymbolTableRecord
100
AcDbLinetypeTableRecord
  2
AM_DIN_F_W050
 70
     0
  3
__ __ __ __ __ __ __ __ __ __ __ __ __ __ __
 72
    65
 73
     2
 40
6.25
 49
4.75
 74
     0
 49
-1.5
 74
     0
  0
LTYPE
  5
10AC
330
F3F
100
AcDbSymbolTableRecord
100
AcDbLinetypeTableRecord
  2
AM_DIN_G_W050
 70
     0
  3
____ . ____ . ____ . ____ . ____ . ____ . ____
 72
    65
 73
     4
 40
13.75
 49
9.75
 74
     0
 49
-1.5
 74
     0
 49
1.0
 74
     0
 49
-1.5
 74
     0
  0
LTYPE
  5
10AD
330
F3F
100
AcDbSymbolTableRecord
100
AcDbLinetypeTableRecord
  2
AM_DIN_K_W050
 70
     0
  3
_____ . . _____ . . _____ . . ____ .. ____
 72
    65
 73
     6
 40
16.25
 49
9.75
 74
     0
 49
-1.5
 74
     0
 49
1.0
 74
     0
 49
-1.5
 74
     0
 49
1.0
 74
     0
 49
-1.5
 74
     0
  0
LTYPE
  5
10AE
330
F3F
100
AcDbSymbolTableRecord
100
AcDbLinetypeTableRecord
  2
AM_DIN_G_W050x2
 70
     0
  3
__ . __ . __ . __ . __ . __
 72
    65
 73
     4
 40
6.875
 49
4.75
 74
     0
 49
-0.875
 74
     0
 49
0.375
 74
     0
 49
-0.875
 74
     0
  0
LTYPE
  5
10AF
330
F3F
100
AcDbSymbolTableRecord
100
AcDbLinetypeTableRecord
  2
AM_DIN_F_W050x2
 70
     0
  3
 _ _ _ _ _ _ _ _ _ _ _ _
 72
    65
 73
     2
 40
3.125
 49
2.25
 74
     0
 49
-0.875
 74
     0
  0
LTYPE
  5
10BE
330
F3F
100
AcDbSymbolTableRecord
100
AcDbLinetypeTableRecord
  2
ACDINWELD
 70
     0
  3
_ _ _ _ _
 72
    65
 73
     2
 40
2.0
 49
2.0
 74
     0
 49
-1.0
 74
     0
  0
LTYPE
  5
10BF
330
F3F
100
AcDbSymbolTableRecord
100
AcDbLinetypeTableRecord
  2
ACDINTGB
 70
     0
  3
__ . . __ . .
 72
    65
 73
     6
 40
9.0
 49
4.0
 74
     0
 49
-1.0
 74
     0
 49
1.0
 74
     0
 49
-1.0
 74
     0
 49
1.0
 74
     0
 49
-1.0
 74
     0
  0
LTYPE
  5
10C0
330
F3F
100
AcDbSymbolTableRecord
100
AcDbLinetypeTableRecord
  2
ACDINTGL
 70
     0
  3
_ _ _ _ _
 72
    65
 73
     2
 40
3.0
 49
2.0
 74
     0
 49
-1.0
 74
     0
  0
ENDTAB
  0
TABLE
  2
LAYER
  5
F3C
330
0
100
AcDbSymbolTable
 70
    21
  0
LAYER
  5
F48
330
F3C
100
AcDbSymbolTableRecord
100
AcDbLayerTableRecord
  2
0
 70
     0
 62
     7
  6
CONTINUOUS
370
    -3
390
1030
  0
LAYER
  5
FB5
330
F3C
100
AcDbSymbolTableRecord
100
AcDbLayerTableRecord
  2
7
 70
     0
 62
     4
  6
GEN7
370
    -3
390
1030
  0
LAYER
  5
FB6
330
F3C
100
AcDbSymbolTableRecord
100
AcDbLayerTableRecord
  2
KPKT
 70
     0
 62
   162
  6
CONTINUOUS
370
    -3
390
1030
  0
LAYER
  5
FB7
330
F3C
100
AcDbSymbolTableRecord
100
AcDbLayerTableRecord
  2
VCCNULL
 70
     0
 62
    -5
  6
CONTINUOUS
370
    -3
390
1030
  0
LAYER
  5
FB8
330
F3C
100
AcDbSymbolTableRecord
100
AcDbLayerTableRecord
  2
GEV_FROZEN
 70
     1
 62
     7
  6
CONTINUOUS
370
    -3
390
1030
  0
LAYER
  5
FB9
330
F3C
100
AcDbSymbolTableRecord
100
AcDbLayerTableRecord
  2
CENN
 70
     0
 62
     7
  6
CONTINUOUS
370
    -3
390
1030
  0
LAYER
  5
FBC
330
F3C
100
AcDbSymbolTableRecord
100
AcDbLayerTableRecord
  2
THLI
 70
     0
 62
     7
  6
CONTINUOUS
370
    -3
390
1030
  0
LAYER
  5
FBD
330
F3C
100
AcDbSymbolTableRecord
100
AcDbLayerTableRecord
  2
0N
 70
     0
 62
     7
  6
CONTINUOUS
370
    -3
390
1030
  0
LAYER
  5
FBE
330
F3C
100
AcDbSymbolTableRecord
100
AcDbLayerTableRecord
  2
7AN
 70
     0
 62
     4
  6
GEN7A
370
    -3
390
1030
  0
LAYER
  5
FC2
330
F3C
100
AcDbSymbolTableRecord
100
AcDbLayerTableRecord
  2
4A
 70
     0
 62
     3
  6
GEN4A
370
    -3
390
1030
  0
LAYER
  5
FC3
330
F3C
100
AcDbSymbolTableRecord
100
AcDbLayerTableRecord
  2
5
 70
     0
 62
     3
  6
CONTINUOUS
370
    -3
390
1030
  0
LAYER
  5
FC4
330
F3C
100
AcDbSymbolTableRecord
100
AcDbLayerTableRecord
  2
DEFPOINTS
 70
     0
 62
     7
  6
CONTINUOUS
290
     0
370
    -3
390
1030
  0
LAYER
  5
FC5
330
F3C
100
AcDbSymbolTableRecord
100
AcDbLayerTableRecord
  2
8
 70
     0
 62
     1
  6
CONTINUOUS
370
    -3
390
1030
  0
LAYER
  5
FC6
330
F3C
100
AcDbSymbolTableRecord
100
AcDbLayerTableRecord
  2
6
 70
     0
 62
     2
  6
CONTINUOUS
370
    -3
390
1030
  0
LAYER
  5
FC7
330
F3C
100
AcDbSymbolTableRecord
100
AcDbLayerTableRecord
  2
4
 70
     0
 62
     3
  6
CONTINUOUS
370
    -3
390
1030
  0
LAYER
  5
FCA
330
F3C
100
AcDbSymbolTableRecord
100
AcDbLayerTableRecord
  2
-BHMU
 70
     0
 62
     7
  6
CONTINUOUS
370
    -3
390
1030
  0
LAYER
  5
FCB
330
F3C
100
AcDbSymbolTableRecord
100
AcDbLayerTableRecord
  2
BHMM
 70
     0
 62
     7
  6
CONTINUOUS
370
    -3
390
1030
  0
LAYER
  5
FCC
330
F3C
100
AcDbSymbolTableRecord
100
AcDbLayerTableRecord
  2
7A
 70
     0
 62
     4
  6
GEN7A
370
    -3
390
1030
  0
LAYER
  5
FCD
330
F3C
100
AcDbSymbolTableRecord
100
AcDbLayerTableRecord
  2
9
 70
     0
 62
  -253
  6
CONTINUOUS
370
    -3
390
1030
  0
LAYER
  5
FED
330
F3C
100
AcDbSymbolTableRecord
100
AcDbLayerTableRecord
  2
GEVACTIVE
 70
     0
 62
     2
  6
CONTINUOUS
370
    -3
390
1030
  0
LAYER
  5
FEE
330
F3C
100
AcDbSymbolTableRecord
100
AcDbLayerTableRecord
  2
GEVINACTIVE
 70
     0
 62
     8
  6
CONTINUOUS
370
    -3
390
1030
  0
ENDTAB
  0
TABLE
  2
STYLE
  5
F3D
330
0
100
AcDbSymbolTable
 70
     4
  0
STYLE
  5
F49
330
F3D
100
AcDbSymbolTableRecord
100
AcDbTextStyleTableRecord
  2
STANDARD
 70
     0
 40
0.0
 41
1.0
 50
0.0
 71
     0
 42
20.171606
  3
ISOCP.SHX
  4

  0
STYLE
  5
10A9
330
F3D
100
AcDbSymbolTableRecord
100
AcDbTextStyleTableRecord
  2

 70
     1
 40
0.0
 41
1.0
 50
0.0
 71
     0
 42
20.171606
  3
genltshp.shx
  4

  0
STYLE
  5
10B0
330
F3D
100
AcDbSymbolTableRecord
100
AcDbTextStyleTableRecord
  2
ACDINTS
 70
     0
 40
1.0
 41
1.0
 50
0.0
 71
     0
 42
20.171606
  3
isocp.shx
  4

  0
STYLE
  5
10BD
330
F3D
100
AcDbSymbolTableRecord
100
AcDbTextStyleTableRecord
  2
ACDINGDT
 70
     0
 40
0.0
 41
1.0
 50
0.0
 71
     0
 42
20.171606
  3
AMGDT
  4

  0
ENDTAB
  0
TABLE
  2
VIEW
  5
F40
330
0
100
AcDbSymbolTable
 70
     6
  0
VIEW
  5
F78
330
F40
100
AcDbSymbolTableRecord
100
AcDbViewTableRecord
  2
GEN1
 70
     0
 40
148.5
 10
120.890794
 20
222.75
 41
241.781588
 11
0.0
 21
0.0
 31
1.0
 12
0.0
 22
0.0
 32
0.0
 42
50.0
 43
0.0
 44
0.0
 50
0.0
 71
     0
281
     0
 72
     0
  0
VIEW
  5
F79
330
F40
100
AcDbSymbolTableRecord
100
AcDbViewTableRecord
  2
GEN2
 70
     0
 40
148.5
 10
299.109206
 20
222.75
 41
241.781588
 11
0.0
 21
0.0
 31
1.0
 12
0.0
 22
0.0
 32
0.0
 42
50.0
 43
0.0
 44
0.0
 50
0.0
 71
     0
281
     0
 72
     0
  0
VIEW
  5
F7A
330
F40
100
AcDbSymbolTableRecord
100
AcDbViewTableRecord
  2
GEN3
 70
     0
 40
148.5
 10
120.890794
 20
74.25
 41
241.781588
 11
0.0
 21
0.0
 31
1.0
 12
0.0
 22
0.0
 32
0.0
 42
50.0
 43
0.0
 44
0.0
 50
0.0
 71
     0
281
     0
 72
     0
  0
VIEW
  5
F7B
330
F40
100
AcDbSymbolTableRecord
100
AcDbViewTableRecord
  2
GEN4
 70
     0
 40
148.5
 10
299.109206
 20
74.25
 41
241.781588
 11
0.0
 21
0.0
 31
1.0
 12
0.0
 22
0.0
 32
0.0
 42
50.0
 43
0.0
 44
0.0
 50
0.0
 71
     0
281
     0
 72
     0
  0
VIEW
  5
F7C
330
F40
100
AcDbSymbolTableRecord
100
AcDbViewTableRecord
  2
GEN5
 70
     0
 40
148.5
 10
210.0
 20
148.5
 41
241.781588
 11
0.0
 21
0.0
 31
1.0
 12
0.0
 22
0.0
 32
0.0
 42
50.0
 43
0.0
 44
0.0
 50
0.0
 71
     0
281
     0
 72
     0
  0
VIEW
  5
F7D
330
F40
100
AcDbSymbolTableRecord
100
AcDbViewTableRecord
  2
GEN6
 70
     0
 40
296.99703
 10
210.0
 20
148.5
 41
483.558341
 11
0.0
 21
0.0
 31
1.0
 12
0.0
 22
0.0
 32
0.0
 42
50.0
 43
0.0
 44
0.0
 50
0.0
 71
     0
281
     0
 72
     0
  0
ENDTAB
  0
TABLE
  2
UCS
  5
F41
330
0
100
AcDbSymbolTable
 70
     0
  0
ENDTAB
  0
TABLE
  2
APPID
  5
F43
330
0
100
AcDbSymbolTable
 70
    60
  0
APPID
  5
F4A
330
F43
100
AcDbSymbolTableRecord
100
AcDbRegAppTableRecord
  2
ACAD
 70
     0
  0
APPID
  5
F7F
330
F43
100
AcDbSymbolTableRecord
100
AcDbRegAppTableRecord
  2
GENIUS_GENCFG_13
 70
     0
1001
GENIUS_GENCFG0_13
1000
GEN@INFO_POS@XLATE
1001
GENIUS_GENCFG1_13
1000
GEN@INFO_POS
1001
GENIUS_GENCFG2_13
1000
GEN@LAYER@DEFS
1001
GENIUS_GENCFG3_13
1000
GEN@LAYER@ENTSORT
1001
GENIUS_GENCFG4_13
1000
GEN
1001
GENIUS_GEVCFG0_13
1000
GEV
  0
APPID
  5
F80
330
F43
100
AcDbSymbolTableRecord
100
AcDbRegAppTableRecord
  2
GENIUS_GEVCFG0_13
 70
     0
1001
GENIUS_GENCFG_13
1071
1043420488
1000
F80
1000
GEV
1070
     2
1000
GenCfgObject
1000
GenCfgShort
1000
VED
1070
     0
1002
{
1002
}
1000
PartProto
1070
     1
1070
     1
1002
{
1002
}
  0
APPID
  5
F81
330
F43
100
AcDbSymbolTableRecord
100
AcDbRegAppTableRecord
  2
GENIUS_GENCFG0_13
 70
     0
1001
GENIUS_GENCFG_13
1071
1043420488
1000
F81
1000
GEN@INFO_POS@XLATE
1070
     7
1000
GenCfgObject
1000
GenCfgShort
1000
GenCfgReal
1000
GenCfgBool
1000
GenCfgString
1000
GenCfgDim
1000
GenCfgAttrInf
1000
INFOPOINTS
1070
     0
1002
{
1000
GENINF14
1070
     0
1002
{
1000
2GENINF
1070
     4
1000
2
1002
{
1002
}
1000
5GENINF
1070
     4
1000
5
1002
{
1002
}
1000
7GENINF
1070
     4
1000
7
1002
{
1002
}
1000
9GENINF
1070
     4
1000
9
1002
{
1002
}
1000
11GENINF
1070
     4
1000
11
1002
{
1002
}
1000
14GENINF
1070
     4
1000
14
1002
{
1002
}
1002
}
1000
GENINF13
1070
     0
1002
{
1000
2GENINF
1070
     4
1000
2
1002
{
1002
}
1000
3GENINF
1070
     4
1000
3
1002
{
1002
}
1000
4GENINF
1070
     4
1000
4
1002
{
1002
}
1000
5GENINF
1070
     4
1000
5
1002
{
1002
}
1000
6GENINF
1070
     4
1000
6
1002
{
1002
}
1000
7GENINF
1070
     4
1000
7
1002
{
1002
}
1000
8GENINF
1070
     4
1000
8
1002
{
1002
}
1000
9GENINF
1070
     4
1000
9
1002
{
1002
}
1000
10GENINF
1070
     4
1000
10
1002
{
1002
}
1000
11GENINF
1070
     4
1000
11
1002
{
1002
}
1000
12GENINF
1070
     4
1000
12
1002
{
1002
}
1000
13GENINF
1070
     4
1000
13
1002
{
1002
}
1000
14GENINF
1070
     4
1000
14
1002
{
1002
}
1000
15GENINF
1070
     4
1000
15
1002
{
1002
}
1000
16GENINF
1070
     4
1000
16
1002
{
1002
}
1000
17GENINF
1070
     4
1000
17
1002
{
1002
}
1000
18GENINF
1070
     4
1000
18
1002
{
1002
}
1000
19GENINF
1070
     4
1000
19
1002
{
1002
}
1000
20GENINF
1070
     4
1000
20
1002
{
1002
}
1000
21GENINF
1070
     4
1000
21
1002
{
1002
}
1000
22GENINF
1070
     4
1000
22
1002
{
1002
}
1000
23GENINF
1070
     4
1000
23
1002
{
1002
}
1000
24GENINF
1070
     4
1000
24
1002
{
1002
}
1000
0GENINF
1070
     4
1000
0
1002
{
1002
}
1002
}
1000
GENINFO
1070
     0
1002
{
1000
3GENINF
1070
     4
1000
3
1002
{
1002
}
1000
4GENINF
1070
     4
1000
4
1002
{
1002
}
1000
5GENINF
1070
     4
1000
5
1002
{
1002
}
1000
6GENINF
1070
     4
1000
6
1002
{
1002
}
1000
7GENINF
1070
     4
1000
7
1002
{
1002
}
1000
8GENINF
1070
     4
1000
8
1002
{
1002
}
1000
9GENINF
1070
     4
1000
9
1002
{
1002
}
1000
10GENINF
1070
     4
1000
10
1002
{
1002
}
1000
11GENINF
1070
     4
1000
11
1002
{
1002
}
1000
12GENINF
1070
     4
1000
12
1002
{
1002
}
1000
13GENINF
1070
     4
1000
13
1002
{
1002
}
1000
14GENINF
1070
     4
1000
14
1002
{
1002
}
1000
15GENINF
1070
     4
1000
15
1002
{
1002
}
1000
16GENINF
1070
     4
1000
16
1002
{
1002
}
1000
17GENINF
1070
     4
1000
17
1002
{
1002
}
1000
18GENINF
1070
     4
1000
18
1002
{
1002
}
1000
19GENINF
1070
     4
1000
19
1002
{
1002
}
1000
20GENINF
1070
     4
1000
20
1002
{
1002
}
1000
21GENINF
1070
     4
1000
21
1002
{
1002
}
1000
22GENINF
1070
     4
1000
22
1002
{
1002
}
1002
}
1000
DININFO
1070
     0
1002
{
1000
ST-NAME1
1070
     4
1000
5
1002
{
1002
}
1000
ST-NAME2
1070
     4
1000
6
1002
{
1002
}
1000
ST-NORM1
1070
     4
1000
7
1002
{
1002
}
1000
ST-NORM2
1070
     4
1000
8
1002
{
1002
}
1000
ST-MAT1
1070
     4
1000
9
1002
{
1002
}
1000
ST-MAT2
1070
     4
1000
10
1002
{
1002
}
1002
}
1002
}
1000
POS_NUMBERS
1070
     0
1002
{
1000
GENPOS14
1070
     0
1002
{
1000
1GENPOS
1070
     4
1000
1
1002
{
1002
}
1000
2GENPOS
1070
     4
1000
2
1002
{
1002
}
1000
5GENPOS
1070
     4
1000
5
1002
{
1002
}
1000
7GENPOS
1070
     4
1000
7
1002
{
1002
}
1000
9GENPOS
1070
     4
1000
9
1002
{
1002
}
1000
11GENPOS
1070
     4
1000
11
1002
{
1002
}
1000
14GENPOS
1070
     4
1000
14
1002
{
1002
}
1002
}
1000
GENPOS13
1070
     0
1002
{
1000
1GENPOS
1070
     4
1000
1
1002
{
1002
}
1000
2GENPOS
1070
     4
1000
2
1002
{
1002
}
1000
3GENPOS
1070
     4
1000
3
1002
{
1002
}
1000
4GENPOS
1070
     4
1000
4
1002
{
1002
}
1000
5GENPOS
1070
     4
1000
5
1002
{
1002
}
1000
6GENPOS
1070
     4
1000
6
1002
{
1002
}
1000
7GENPOS
1070
     4
1000
7
1002
{
1002
}
1000
8GENPOS
1070
     4
1000
8
1002
{
1002
}
1000
9GENPOS
1070
     4
1000
9
1002
{
1002
}
1000
10GENPOS
1070
     4
1000
10
1002
{
1002
}
1000
11GENPOS
1070
     4
1000
11
1002
{
1002
}
1000
12GENPOS
1070
     4
1000
12
1002
{
1002
}
1000
13GENPOS
1070
     4
1000
13
1002
{
1002
}
1000
14GENPOS
1070
     4
1000
14
1002
{
1002
}
1000
15GENPOS
1070
     4
1000
15
1002
{
1002
}
1000
16GENPOS
1070
     4
1000
16
1002
{
1002
}
1000
17GENPOS
1070
     4
1000
17
1002
{
1002
}
1000
18GENPOS
1070
     4
1000
18
1002
{
1002
}
1000
19GENPOS
1070
     4
1000
19
1002
{
1002
}
1000
20GENPOS
1070
     4
1000
20
1002
{
1002
}
1000
21GENPOS
1070
     4
1000
21
1002
{
1002
}
1000
22GENPOS
1070
     4
1000
22
1002
{
1002
}
1000
23GENPOS
1070
     4
1000
23
1002
{
1002
}
1000
24GENPOS
1070
     4
1000
24
1002
{
1002
}
1000
0GENPOS
1070
     4
1000
0
1002
{
1002
}
1002
}
1000
GENPOS
1070
     0
1002
{
1000
1GENPOS
1070
     4
1000
1
1002
{
1002
}
1000
2GENPOS
1070
     4
1000
2
1002
{
1002
}
1000
3GENPOS
1070
     4
1000
3
1002
{
1002
}
1000
4GENPOS
1070
     4
1000
4
1002
{
1002
}
1000
5GENPOS
1070
     4
1000
5
1002
{
1002
}
1000
6GENPOS
1070
     4
1000
6
1002
{
1002
}
1000
7GENPOS
1070
     4
1000
7
1002
{
1002
}
1000
8GENPOS
1070
     4
1000
8
1002
{
1002
}
1000
9GENPOS
1070
     4
1000
9
1002
{
1002
}
1000
10GENPOS
1070
     4
1000
10
1002
{
1002
}
1000
11GENPOS
1070
     4
1000
11
1002
{
1002
}
1000
12GENPOS
1070
     4
1000
12
1002
{
1002
}
1000
13GENPOS
1070
     4
1000
13
1002
{
1002
}
1000
14GENPOS
1070
     4
1000
14
1002
{
1002
}
1000
15GENPOS
1070
     4
1000
15
1002
{
1002
}
1000
16GENPOS
1070
     4
1000
16
1002
{
1002
}
1000
17GENPOS
1070
     4
1000
17
1002
{
1002
}
1000
18GENPOS
1070
     4
1000
18
1002
{
1002
}
1000
19GENPOS
1070
     4
1000
19
1002
{
1002
}
1000
20GENPOS
1070
     4
1000
20
1002
{
1002
}
1000
21GENPOS
1070
     4
1000
21
1002
{
1002
}
1000
22GENPOS
1070
     4
1000
22
1002
{
1002
}
1000
23GENPOS
1070
     4
1000
23
1002
{
1002
}
1002
}
1000
DIN985
1070
     0
1002
{
1000
POSITION
1070
     4
1000
1
1002
{
1002
}
1000
MENGE
1070
     4
1000
2
1002
{
1002
}
1000
BLATT
1070
     4
1000
3
1002
{
1002
}
1000
BENENN
1070
     4
1000
5
1002
{
1002
}
1000
BENENN2
1070
     4
1000
6
1002
{
1002
}
1000
NORM
1070
     4
1000
7
1002
{
1002
}
1000
NORM2
1070
     4
1000
8
1002
{
1002
}
1000
WERKSTOFF
1070
     4
1000
9
1002
{
1002
}
1000
WERKSTOFF2
1070
     4
1000
10
1002
{
1002
}
1002
}
1000
DIN986
1070
     0
1002
{
1000
POSITION
1070
     4
1000
1
1002
{
1002
}
1000
MENGE
1070
     4
1000
2
1002
{
1002
}
1000
BLATT
1070
     4
1000
3
1002
{
1002
}
1000
BENENN
1070
     4
1000
5
1002
{
1002
}
1000
BENENN2
1070
     4
1000
6
1002
{
1002
}
1000
NORM
1070
     4
1000
7
1002
{
1002
}
1000
NORM2
1070
     4
1000
8
1002
{
1002
}
1000
WERKSTOFF
1070
     4
1000
9
1002
{
1002
}
1000
WERKSTOFF2
1070
     4
1000
10
1002
{
1002
}
1002
}
1000
DIN987
1070
     0
1002
{
1000
POSITION
1070
     4
1000
1
1002
{
1002
}
1000
MENGE
1070
     4
1000
2
1002
{
1002
}
1000
BLATT
1070
     4
1000
3
1002
{
1002
}
1000
BENENN
1070
     4
1000
5
1002
{
1002
}
1000
BENENN2
1070
     4
1000
6
1002
{
1002
}
1000
NORM
1070
     4
1000
7
1002
{
1002
}
1000
NORM2
1070
     4
1000
8
1002
{
1002
}
1000
WERKSTOFF
1070
     4
1000
9
1002
{
1002
}
1000
WERKSTOFF2
1070
     4
1000
10
1002
{
1002
}
1002
}
1002
}
  0
APPID
  5
F82
330
F43
100
AcDbSymbolTableRecord
100
AcDbRegAppTableRecord
  2
GENIUS_GENCFG1_13
 70
     0
1001
GENIUS_GENCFG_13
1071
1043420488
1000
F82
1000
GEN@INFO_POS
1070
     7
1000
GenCfgObject
1000
GenCfgShort
1000
GenCfgReal
1000
GenCfgBool
1000
GenCfgString
1000
GenCfgDim
1000
GenCfgAttrInf
1000
DescrText
1070
     4
1000
5, ,6, ,7, ,8
1002
{
1002
}
1000
DescrText2
1070
     4
1000
26
1002
{
1002
}
1000
VisibleAttr1
1070
     4
1000
1
1002
{
1002
}
1000
VisibleAttr2
1070
     4
1000
26
1002
{
1002
}
1000
UpdateBlock
1070
     3
1070
     1
1002
{
1002
}
1000
Attrib
1070
     0
1002
{
1000
0
1070
     6
1002
{
1000
Prompt
1070
     4
1000
(genmsg gendwg 103)
1002
{
1002
}
1000
Value
1070
     4
1000

1002
{
1002
}
1000
EditFlag
1070
     1
1070
     0
1002
{
1002
}
1000
PosInDDATTE
1070
     1
1070
    27
1002
{
1002
}
1000
FieldLen
1070
     1
1070
    -1
1002
{
1002
}
1002
}
1000
1
1070
     6
1002
{
1000
Prompt
1070
     4
1000
(genmsg gendwg 31)
1002
{
1002
}
1000
Value
1070
     4
1000
1
1002
{
1002
}
1000
EditFlag
1070
     1
1070
     1
1002
{
1002
}
1000
PosInDDATTE
1070
     1
1070
     1
1002
{
1002
}
1000
FieldLen
1070
     1
1070
    -1
1002
{
1002
}
1002
}
1000
2
1070
     6
1002
{
1000
Prompt
1070
     4
1000
(genmsg gendwg 32)
1002
{
1002
}
1000
Value
1070
     4
1000
1
1002
{
1002
}
1000
EditFlag
1070
     1
1070
     1
1002
{
1002
}
1000
PosInDDATTE
1070
     1
1070
     2
1002
{
1002
}
1000
FieldLen
1070
     1
1070
    -1
1002
{
1002
}
1002
}
1000
3
1070
     6
1002
{
1000
Prompt
1070
     4
1000
(genmsg gendwg 33)
1002
{
1002
}
1000
Value
1070
     4
1000

1002
{
1002
}
1000
EditFlag
1070
     1
1070
     1
1002
{
1002
}
1000
PosInDDATTE
1070
     1
1070
     3
1002
{
1002
}
1000
FieldLen
1070
     1
1070
    -1
1002
{
1002
}
1002
}
1000
4
1070
     6
1002
{
1000
Prompt
1070
     4
1000
(genmsg gendwg 34)
1002
{
1002
}
1000
Value
1070
     4
1000

1002
{
1002
}
1000
EditFlag
1070
     1
1070
     1
1002
{
1002
}
1000
PosInDDATTE
1070
     1
1070
     4
1002
{
1002
}
1000
FieldLen
1070
     1
1070
    -1
1002
{
1002
}
1002
}
1000
5
1070
     6
1002
{
1000
Prompt
1070
     4
1000
(genmsg gendwg 35)
1002
{
1002
}
1000
Value
1070
     4
1000

1002
{
1002
}
1000
EditFlag
1070
     1
1070
     1
1002
{
1002
}
1000
PosInDDATTE
1070
     1
1070
     5
1002
{
1002
}
1000
FieldLen
1070
     1
1070
    -1
1002
{
1002
}
1002
}
1000
6
1070
     6
1002
{
1000
Prompt
1070
     4
1000
(genmsg gendwg 36)
1002
{
1002
}
1000
Value
1070
     4
1000

1002
{
1002
}
1000
EditFlag
1070
     1
1070
     1
1002
{
1002
}
1000
PosInDDATTE
1070
     1
1070
     6
1002
{
1002
}
1000
FieldLen
1070
     1
1070
    -1
1002
{
1002
}
1002
}
1000
7
1070
     6
1002
{
1000
Prompt
1070
     4
1000
(genmsg gendwg 37)
1002
{
1002
}
1000
Value
1070
     4
1000

1002
{
1002
}
1000
EditFlag
1070
     1
1070
     1
1002
{
1002
}
1000
PosInDDATTE
1070
     1
1070
     7
1002
{
1002
}
1000
FieldLen
1070
     1
1070
    -1
1002
{
1002
}
1002
}
1000
8
1070
     6
1002
{
1000
Prompt
1070
     4
1000
(genmsg gendwg 38)
1002
{
1002
}
1000
Value
1070
     4
1000

1002
{
1002
}
1000
EditFlag
1070
     1
1070
     1
1002
{
1002
}
1000
PosInDDATTE
1070
     1
1070
     8
1002
{
1002
}
1000
FieldLen
1070
     1
1070
    -1
1002
{
1002
}
1002
}
1000
9
1070
     6
1002
{
1000
Prompt
1070
     4
1000
(genmsg gendwg 39)
1002
{
1002
}
1000
Value
1070
     4
1000

1002
{
1002
}
1000
EditFlag
1070
     1
1070
     1
1002
{
1002
}
1000
PosInDDATTE
1070
     1
1070
     9
1002
{
1002
}
1000
FieldLen
1070
     1
1070
    -1
1002
{
1002
}
1002
}
1000
10
1070
     6
1002
{
1000
Prompt
1070
     4
1000
(genmsg gendwg 40)
1002
{
1002
}
1000
Value
1070
     4
1000

1002
{
1002
}
1000
EditFlag
1070
     1
1070
     1
1002
{
1002
}
1000
PosInDDATTE
1070
     1
1070
    10
1002
{
1002
}
1000
FieldLen
1070
     1
1070
    -1
1002
{
1002
}
1002
}
1000
11
1070
     6
1002
{
1000
Prompt
1070
     4
1000
(genmsg gendwg 41)
1002
{
1002
}
1000
Value
1070
     4
1000

1002
{
1002
}
1000
EditFlag
1070
     1
1070
     1
1002
{
1002
}
1000
PosInDDATTE
1070
     1
1070
    11
1002
{
1002
}
1000
FieldLen
1070
     1
1070
    -1
1002
{
1002
}
1002
}
1000
12
1070
     6
1002
{
1000
Prompt
1070
     4
1000
(genmsg gendwg 42)
1002
{
1002
}
1000
Value
1070
     4
1000

1002
{
1002
}
1000
EditFlag
1070
     1
1070
     1
1002
{
1002
}
1000
PosInDDATTE
1070
     1
1070
    12
1002
{
1002
}
1000
FieldLen
1070
     1
1070
    -1
1002
{
1002
}
1002
}
1000
13
1070
     6
1002
{
1000
Prompt
1070
     4
1000
(genmsg gendwg 43)
1002
{
1002
}
1000
Value
1070
     4
1000

1002
{
1002
}
1000
EditFlag
1070
     1
1070
     1
1002
{
1002
}
1000
PosInDDATTE
1070
     1
1070
    13
1002
{
1002
}
1000
FieldLen
1070
     1
1070
    -1
1002
{
1002
}
1002
}
1000
14
1070
     6
1002
{
1000
Prompt
1070
     4
1000
(genmsg gendwg 44)
1002
{
1002
}
1000
Value
1070
     4
1000

1002
{
1002
}
1000
EditFlag
1070
     1
1070
     1
1002
{
1002
}
1000
PosInDDATTE
1070
     1
1070
    14
1002
{
1002
}
1000
FieldLen
1070
     1
1070
    -1
1002
{
1002
}
1002
}
1000
15
1070
     6
1002
{
1000
Prompt
1070
     4
1000
(genmsg gendwg 45)
1002
{
1002
}
1000
Value
1070
     4
1000

1002
{
1002
}
1000
EditFlag
1070
     1
1070
     1
1002
{
1002
}
1000
PosInDDATTE
1070
     1
1070
    15
1002
{
1002
}
1000
FieldLen
1070
     1
1070
    -1
1002
{
1002
}
1002
}
1000
16
1070
     6
1002
{
1000
Prompt
1070
     4
1000
(genmsg gendwg 46)
1002
{
1002
}
1000
Value
1070
     4
1000

1002
{
1002
}
1000
EditFlag
1070
     1
1070
     1
1002
{
1002
}
1000
PosInDDATTE
1070
     1
1070
    16
1002
{
1002
}
1000
FieldLen
1070
     1
1070
    -1
1002
{
1002
}
1002
}
1000
17
1070
     6
1002
{
1000
Prompt
1070
     4
1000
(genmsg gendwg 47)
1002
{
1002
}
1000
Value
1070
     4
1000

1002
{
1002
}
1000
EditFlag
1070
     1
1070
     1
1002
{
1002
}
1000
PosInDDATTE
1070
     1
1070
    17
1002
{
1002
}
1000
FieldLen
1070
     1
1070
    -1
1002
{
1002
}
1002
}
1000
18
1070
     6
1002
{
1000
Prompt
1070
     4
1000
(genmsg gendwg 48)
1002
{
1002
}
1000
Value
1070
     4
1000

1002
{
1002
}
1000
EditFlag
1070
     1
1070
     1
1002
{
1002
}
1000
PosInDDATTE
1070
     1
1070
    18
1002
{
1002
}
1000
FieldLen
1070
     1
1070
    -1
1002
{
1002
}
1002
}
1000
19
1070
     6
1002
{
1000
Prompt
1070
     4
1000
(genmsg gendwg 99)
1002
{
1002
}
1000
Value
1070
     4
1000

1002
{
1002
}
1000
EditFlag
1070
     1
1070
     1
1002
{
1002
}
1000
PosInDDATTE
1070
     1
1070
    19
1002
{
1002
}
1000
FieldLen
1070
     1
1070
    -1
1002
{
1002
}
1002
}
1000
20
1070
     6
1002
{
1000
Prompt
1070
     4
1000
(genmsg gendwg 100)
1002
{
1002
}
1000
Value
1070
     4
1000

1002
{
1002
}
1000
EditFlag
1070
     1
1070
     1
1002
{
1002
}
1000
PosInDDATTE
1070
     1
1070
    20
1002
{
1002
}
1000
FieldLen
1070
     1
1070
    -1
1002
{
1002
}
1002
}
1000
21
1070
     6
1002
{
1000
Prompt
1070
     4
1000
(genmsg gendwg 101)
1002
{
1002
}
1000
Value
1070
     4
1000

1002
{
1002
}
1000
EditFlag
1070
     1
1070
     1
1002
{
1002
}
1000
PosInDDATTE
1070
     1
1070
    21
1002
{
1002
}
1000
FieldLen
1070
     1
1070
    -1
1002
{
1002
}
1002
}
1000
22
1070
     6
1002
{
1000
Prompt
1070
     4
1000
(genmsg gendwg 102)
1002
{
1002
}
1000
Value
1070
     4
1000

1002
{
1002
}
1000
EditFlag
1070
     1
1070
     1
1002
{
1002
}
1000
PosInDDATTE
1070
     1
1070
    22
1002
{
1002
}
1000
FieldLen
1070
     1
1070
    -1
1002
{
1002
}
1002
}
1000
23
1070
     6
1002
{
1000
Prompt
1070
     4
1000
(genmsg gendwg 30)
1002
{
1002
}
1000
Value
1070
     4
1000

1002
{
1002
}
1000
EditFlag
1070
     1
1070
     1
1002
{
1002
}
1000
PosInDDATTE
1070
     1
1070
    23
1002
{
1002
}
1000
FieldLen
1070
     1
1070
    -1
1002
{
1002
}
1002
}
1000
24
1070
     6
1002
{
1000
Prompt
1070
     4
1000
(genmsg gendwg 104)
1002
{
1002
}
1000
Value
1070
     4
1000

1002
{
1002
}
1000
EditFlag
1070
     1
1070
     1
1002
{
1002
}
1000
PosInDDATTE
1070
     1
1070
    24
1002
{
1002
}
1000
FieldLen
1070
     1
1070
    -1
1002
{
1002
}
1002
}
1000
25
1070
     6
1002
{
1000
Prompt
1070
     4
1000
(genmsg gendwg 105)
1002
{
1002
}
1000
Value
1070
     4
1000

1002
{
1002
}
1000
EditFlag
1070
     1
1070
     1
1002
{
1002
}
1000
PosInDDATTE
1070
     1
1070
    25
1002
{
1002
}
1000
FieldLen
1070
     1
1070
    -1
1002
{
1002
}
1002
}
1000
26
1070
     6
1002
{
1000
Prompt
1070
     4
1000
(genmsg gendwg 106)
1002
{
1002
}
1000
Value
1070
     4
1000

1002
{
1002
}
1000
EditFlag
1070
     1
1070
     1
1002
{
1002
}
1000
PosInDDATTE
1070
     1
1070
    26
1002
{
1002
}
1000
FieldLen
1070
     1
1070
    -1
1002
{
1002
}
1002
}
1000
27
1070
     6
1002
{
1000
Prompt
1070
     4
1000
(genmsg gendwg 109)
1002
{
1002
}
1000
Value
1070
     4
1000

1002
{
1002
}
1000
EditFlag
1070
     1
1070
     2
1002
{
1002
}
1000
PosInDDATTE
1070
     1
1070
    27
1002
{
1002
}
1000
FieldLen
1070
     1
1070
    -1
1002
{
1002
}
1002
}
1002
}
1000
Xlate
1070
     0
1002
{
1000
>
1002
}
  0
APPID
  5
F83
330
F43
100
AcDbSymbolTableRecord
100
AcDbRegAppTableRecord
  2
GENIUS_GENCFG2_13
 70
     0
1001
GENIUS_GENCFG_13
1071
1043420488
1000
F83
1000
GEN@LAYER@DEFS
1070
     9
1000
GenCfgObject
1000
GenCfgShort
1000
GenCfgReal
1000
GenCfgBool
1000
GenCfgString
1000
GenCfgDim
1000
GenCfgAttrInf
1000
GenCfgLaySection
1000
GenCfgLayer
1000
Basic
1070
     0
1002
{
1000
0
1070
     8
1000
0
1002
{
1000
Color
1070
     1
1070
     7
1002
{
1002
}
1000
LType
1070
     4
1000
CONTINUOUS
1002
{
1002
}
1000
Base
1070
     3
1070
     0
1002
{
1002
}
1002
}
1000
1
1070
     8
1000
1
1002
{
1000
Color
1070
     1
1070
    14
1002
{
1002
}
1000
LType
1070
     4
1000
CONTINUOUS
1002
{
1002
}
1000
Base
1070
     3
1070
     0
1002
{
1002
}
1002
}
1000
2
1070
     8
1000
2
1002
{
1000
Color
1070
     1
1070
     5
1002
{
1002
}
1000
LType
1070
     4
1000
CONTINUOUS
1002
{
1002
}
1000
Base
1070
     3
1070
     0
1002
{
1002
}
1002
}
1000
3
1070
     8
1000
3
1002
{
1000
Color
1070
     1
1070
     6
1002
{
1002
}
1000
LType
1070
     4
1000
GEN3
1002
{
1002
}
1000
Base
1070
     3
1070
     0
1002
{
1002
}
1002
}
1000
4
1070
     8
1000
4
1002
{
1000
Color
1070
     1
1070
     3
1002
{
1002
}
1000
LType
1070
     4
1000
CONTINUOUS
1002
{
1002
}
1000
Base
1070
     3
1070
     0
1002
{
1002
}
1002
}
1000
5
1070
     8
1000
5
1002
{
1000
Color
1070
     1
1070
     3
1002
{
1002
}
1000
LType
1070
     4
1000
CONTINUOUS
1002
{
1002
}
1000
Base
1070
     3
1070
     0
1002
{
1002
}
1002
}
1000
6
1070
     8
1000
6
1002
{
1000
Color
1070
     1
1070
     2
1002
{
1002
}
1000
LType
1070
     4
1000
CONTINUOUS
1002
{
1002
}
1000
Base
1070
     3
1070
     0
1002
{
1002
}
1002
}
1000
7
1070
     8
1000
7
1002
{
1000
Color
1070
     1
1070
     4
1002
{
1002
}
1000
LType
1070
     4
1000
GEN7
1002
{
1002
}
1000
Base
1070
     3
1070
     0
1002
{
1002
}
1002
}
1000
8
1070
     8
1000
8
1002
{
1000
Color
1070
     1
1070
     1
1002
{
1002
}
1000
LType
1070
     4
1000
CONTINUOUS
1002
{
1002
}
1000
Base
1070
     3
1070
     0
1002
{
1002
}
1002
}
1000
3A
1070
     8
1000
3A
1002
{
1000
Color
1070
     1
1070
     6
1002
{
1002
}
1000
LType
1070
     4
1000
GEN3A
1002
{
1002
}
1000
Base
1070
     3
1070
     0
1002
{
1002
}
1002
}
1000
7A
1070
     8
1000
7A
1002
{
1000
Color
1070
     1
1070
     4
1002
{
1002
}
1000
LType
1070
     4
1000
GEN7A
1002
{
1002
}
1000
Base
1070
     3
1070
     0
1002
{
1002
}
1002
}
1000
2A
1070
     8
1000
2A
1002
{
1000
Color
1070
     1
1070
     7
1002
{
1002
}
1000
LType
1070
     4
1000
GEN7
1002
{
1002
}
1000
Base
1070
     3
1070
     0
1002
{
1002
}
1002
}
1000
4A
1070
     8
1000
4A
1002
{
1000
Color
1070
     1
1070
     3
1002
{
1002
}
1000
LType
1070
     4
1000
GEN4A
1002
{
1002
}
1000
Base
1070
     3
1070
     0
1002
{
1002
}
1002
}
1000
9
1070
     8
1000
9
1002
{
1000
Color
1070
     1
1070
   253
1002
{
1002
}
1000
LType
1070
     4
1000
CONTINUOUS
1002
{
1002
}
1000
Base
1070
     3
1070
     0
1002
{
1002
}
1002
}
1000
IP
1070
     8
1000
IP
1002
{
1000
Color
1070
     1
1070
     7
1002
{
1002
}
1000
LType
1070
     4
1000
CONTINUOUS
1002
{
1002
}
1000
Base
1070
     3
1070
     0
1002
{
1002
}
1002
}
1002
}
1000
Standard
1070
     0
1002
{
1000
0N
1070
     8
1000
0N
1002
{
1000
Color
1070
     1
1070
     7
1002
{
1002
}
1000
LType
1070
     4
1000
CONTINUOUS
1002
{
1002
}
1000
Base
1070
     3
1070
     0
1002
{
1002
}
1002
}
1000
1N
1070
     8
1000
1N
1002
{
1000
Color
1070
     1
1070
    14
1002
{
1002
}
1000
LType
1070
     4
1000
CONTINUOUS
1002
{
1002
}
1000
Base
1070
     3
1070
     0
1002
{
1002
}
1002
}
1000
2N
1070
     8
1000
2N
1002
{
1000
Color
1070
     1
1070
     5
1002
{
1002
}
1000
LType
1070
     4
1000
CONTINUOUS
1002
{
1002
}
1000
Base
1070
     3
1070
     0
1002
{
1002
}
1002
}
1000
3N
1070
     8
1000
3N
1002
{
1000
Color
1070
     1
1070
     6
1002
{
1002
}
1000
LType
1070
     4
1000
GEN3
1002
{
1002
}
1000
Base
1070
     3
1070
     0
1002
{
1002
}
1002
}
1000
4N
1070
     8
1000
4N
1002
{
1000
Color
1070
     1
1070
     3
1002
{
1002
}
1000
LType
1070
     4
1000
CONTINUOUS
1002
{
1002
}
1000
Base
1070
     3
1070
     0
1002
{
1002
}
1002
}
1000
5N
1070
     8
1000
5N
1002
{
1000
Color
1070
     1
1070
     3
1002
{
1002
}
1000
LType
1070
     4
1000
CONTINUOUS
1002
{
1002
}
1000
Base
1070
     3
1070
     0
1002
{
1002
}
1002
}
1000
6N
1070
     8
1000
6N
1002
{
1000
Color
1070
     1
1070
     2
1002
{
1002
}
1000
LType
1070
     4
1000
CONTINUOUS
1002
{
1002
}
1000
Base
1070
     3
1070
     0
1002
{
1002
}
1002
}
1000
7N
1070
     8
1000
7N
1002
{
1000
Color
1070
     1
1070
     4
1002
{
1002
}
1000
LType
1070
     4
1000
GEN7
1002
{
1002
}
1000
Base
1070
     3
1070
     0
1002
{
1002
}
1002
}
1000
8N
1070
     8
1000
8N
1002
{
1000
Color
1070
     1
1070
     1
1002
{
1002
}
1000
LType
1070
     4
1000
CONTINUOUS
1002
{
1002
}
1000
Base
1070
     3
1070
     0
1002
{
1002
}
1002
}
1000
3AN
1070
     8
1000
3AN
1002
{
1000
Color
1070
     1
1070
     6
1002
{
1002
}
1000
LType
1070
     4
1000
GEN3A
1002
{
1002
}
1000
Base
1070
     3
1070
     0
1002
{
1002
}
1002
}
1000
7AN
1070
     8
1000
7AN
1002
{
1000
Color
1070
     1
1070
     4
1002
{
1002
}
1000
LType
1070
     4
1000
GEN7A
1002
{
1002
}
1000
Base
1070
     3
1070
     0
1002
{
1002
}
1002
}
1000
2AN
1070
     8
1000
2AN
1002
{
1000
Color
1070
     1
1070
     7
1002
{
1002
}
1000
LType
1070
     4
1000
GEN7
1002
{
1002
}
1000
Base
1070
     3
1070
     0
1002
{
1002
}
1002
}
1000
4AN
1070
     8
1000
4AN
1002
{
1000
Color
1070
     1
1070
     3
1002
{
1002
}
1000
LType
1070
     4
1000
GEN4A
1002
{
1002
}
1000
Base
1070
     3
1070
     0
1002
{
1002
}
1002
}
1000
9N
1070
     8
1000
9N
1002
{
1000
Color
1070
     1
1070
   253
1002
{
1002
}
1000
LType
1070
     4
1000
CONTINUOUS
1002
{
1002
}
1000
Base
1070
     3
1070
     0
1002
{
1002
}
1002
}
1000
IPN
1070
     8
1000
IPN
1002
{
1000
Color
1070
     1
1070
     7
1002
{
1002
}
1000
LType
1070
     4
1000
CONTINUOUS
1002
{
1002
}
1000
Base
1070
     3
1070
     0
1002
{
1002
}
1002
}
1002
}
1000
Extra
1070
     0
1002
{
1000
Klin
1070
     8
1000
KLIN
1002
{
1000
Color
1070
     1
1070
     1
1002
{
1002
}
1000
LType
1070
     4
1000
CONTINUOUS
1002
{
1002
}
1000
Base
1070
     3
1070
     1
1002
{
1002
}
1002
}
1000
Info
1070
     8
1000
INFO
1002
{
1000
Color
1070
     1
1070
     4
1002
{
1002
}
1000
LType
1070
     4
1000
CONTINUOUS
1002
{
1002
}
1000
Base
1070
     3
1070
     1
1002
{
1002
}
1002
}
1000
Rahm2
1070
     8
1000
RAHM2
1002
{
1000
Color
1070
     1
1070
     1
1002
{
1002
}
1000
LType
1070
     4
1000
CONTINUOUS
1002
{
1002
}
1000
Base
1070
     3
1070
     1
1002
{
1002
}
1002
}
1000
Rahm3
1070
     8
1000
RAHM3
1002
{
1000
Color
1070
     1
1070
     2
1002
{
1002
}
1000
LType
1070
     4
1000
CONTINUOUS
1002
{
1002
}
1000
Base
1070
     3
1070
     1
1002
{
1002
}
1002
}
1000
Rahm5
1070
     8
1000
RAHM5
1002
{
1000
Color
1070
     1
1070
     7
1002
{
1002
}
1000
LType
1070
     4
1000
CONTINUOUS
1002
{
1002
}
1000
Base
1070
     3
1070
     1
1002
{
1002
}
1002
}
1000
View
1070
     8
1000
VIEW
1002
{
1000
Color
1070
     1
1070
     1
1002
{
1002
}
1000
LType
1070
     4
1000
CONTINUOUS
1002
{
1002
}
1000
Base
1070
     3
1070
     1
1002
{
1002
}
1002
}
1000
Behind
1070
     8
1000
BEHIND
1002
{
1000
Color
1070
     1
1070
   253
1002
{
1002
}
1000
LType
1070
     4
1000
CONTINUOUS
1002
{
1002
}
1000
Base
1070
     3
1070
     1
1002
{
1002
}
1002
}
1002
}
  0
APPID
  5
F84
330
F43
100
AcDbSymbolTableRecord
100
AcDbRegAppTableRecord
  2
GENIUS_GENCFG3_13
 70
     0
1001
GENIUS_GENCFG_13
1071
1043420488
1000
F84
1000
GEN@LAYER@ENTSORT
1070
    10
1000
GenCfgObject
1000
GenCfgShort
1000
GenCfgReal
1000
GenCfgBool
1000
GenCfgString
1000
GenCfgDim
1000
GenCfgAttrInf
1000
GenCfgLaySection
1000
GenCfgLayer
1000
GenCfgEntSort
1000
ADDL
1070
     9
1000
5
1002
{
1000
Class
1070
     4
1000
SYM
1002
{
1002
}
1000
Color
1070
     1
1070
     1
1002
{
1002
}
1000
LType
1070
     4
1000
BYLAYER
1002
{
1002
}
1002
}
1000
ALTR
1070
     9
1000
4
1002
{
1000
Class
1070
     4
1000

1002
{
1002
}
1000
Color
1070
     1
1070
     7
1002
{
1002
}
1000
LType
1070
     4
1000
GEN3A
1002
{
1002
}
1002
}
1000
BELI
1070
     9
1000
4
1002
{
1000
Class
1070
     4
1000

1002
{
1002
}
1000
Color
1070
     1
1070
   256
1002
{
1002
}
1000
LType
1070
     4
1000
BYLAYER
1002
{
1002
}
1002
}
1000
BHNV
1070
     9
1000
9
1002
{
1000
Class
1070
     4
1000
INV
1002
{
1002
}
1000
Color
1070
     1
1070
   256
1002
{
1002
}
1000
LType
1070
     4
1000
BYLAYER
1002
{
1002
}
1002
}
1000
BHNVS
1070
     9
1000
BEHIND
1002
{
1000
Class
1070
     4
1000
INV
1002
{
1002
}
1000
Color
1070
     1
1070
   256
1002
{
1002
}
1000
LType
1070
     4
1000
BYLAYER
1002
{
1002
}
1002
}
1000
BLID
1070
     9
1000
4A
1002
{
1000
Class
1070
     4
1000

1002
{
1002
}
1000
Color
1070
     1
1070
   256
1002
{
1002
}
1000
LType
1070
     4
1000
BYLAYER
1002
{
1002
}
1002
}
1000
BOAP
1070
     9
1000
4A
1002
{
1000
Class
1070
     4
1000

1002
{
1002
}
1000
Color
1070
     1
1070
   256
1002
{
1002
}
1000
LType
1070
     4
1000
BYLAYER
1002
{
1002
}
1002
}
1000
BOR2
1070
     9
1000
RAHM2
1002
{
1000
Class
1070
     4
1000
SPZ,SYM
1002
{
1002
}
1000
Color
1070
     1
1070
   256
1002
{
1002
}
1000
LType
1070
     4
1000
BYLAYER
1002
{
1002
}
1002
}
1000
BOR3
1070
     9
1000
RAHM3
1002
{
1000
Class
1070
     4
1000
SPZ,SYM
1002
{
1002
}
1000
Color
1070
     1
1070
   256
1002
{
1002
}
1000
LType
1070
     4
1000
BYLAYER
1002
{
1002
}
1002
}
1000
BOR5
1070
     9
1000
RAHM5
1002
{
1000
Class
1070
     4
1000
SPZ,SYM
1002
{
1002
}
1000
Color
1070
     1
1070
   256
1002
{
1002
}
1000
LType
1070
     4
1000
BYLAYER
1002
{
1002
}
1002
}
1000
BOR7
1070
     9
1000
RAHM5
1002
{
1000
Class
1070
     4
1000
SPZ,SYM
1002
{
1002
}
1000
Color
1070
     1
1070
     7
1002
{
1002
}
1000
LType
1070
     4
1000
CONTINUOUS
1002
{
1002
}
1002
}
1000
BPAP
1070
     9
1000
4A
1002
{
1000
Class
1070
     4
1000

1002
{
1002
}
1000
Color
1070
     1
1070
   256
1002
{
1002
}
1000
LType
1070
     4
1000
BYLAYER
1002
{
1002
}
1002
}
1000
BPEX
1070
     9
1000
4A
1002
{
1000
Class
1070
     4
1000

1002
{
1002
}
1000
Color
1070
     1
1070
   256
1002
{
1002
}
1000
LType
1070
     4
1000
BYLAYER
1002
{
1002
}
1002
}
1000
BTDI
1070
     9
1000
5
1002
{
1000
Class
1070
     4
1000
DIM,SYM
1002
{
1002
}
1000
Color
1070
     1
1070
   256
1002
{
1002
}
1000
LType
1070
     4
1000
BYLAYER
1002
{
1002
}
1002
}
1000
CAL2
1070
     9
1000
4
1002
{
1000
Class
1070
     4
1000
SYM
1002
{
1002
}
1000
Color
1070
     1
1070
   256
1002
{
1002
}
1000
LType
1070
     4
1000
BYLAYER
1002
{
1002
}
1002
}
1000
CAL3
1070
     9
1000
4
1002
{
1000
Class
1070
     4
1000
SYM
1002
{
1002
}
1000
Color
1070
     1
1070
     2
1002
{
1002
}
1000
LType
1070
     4
1000
BYLAYER
1002
{
1002
}
1002
}
1000
CAL5
1070
     9
1000
4
1002
{
1000
Class
1070
     4
1000
SYM
1002
{
1002
}
1000
Color
1070
     1
1070
     7
1002
{
1002
}
1000
LType
1070
     4
1000
BYLAYER
1002
{
1002
}
1002
}
1000
CAL7
1070
     9
1000
4
1002
{
1000
Class
1070
     4
1000
SYM
1002
{
1002
}
1000
Color
1070
     1
1070
     5
1002
{
1002
}
1000
LType
1070
     4
1000
BYLAYER
1002
{
1002
}
1002
}
1000
CENN
1070
     9
1000
7A
1002
{
1000
Class
1070
     4
1000
CEN
1002
{
1002
}
1000
Color
1070
     1
1070
   256
1002
{
1002
}
1000
LType
1070
     4
1000
BYLAYER
1002
{
1002
}
1002
}
1000
CENW
1070
     9
1000
7
1002
{
1000
Class
1070
     4
1000
CEN
1002
{
1002
}
1000
Color
1070
     1
1070
   256
1002
{
1002
}
1000
LType
1070
     4
1000
BYLAYER
1002
{
1002
}
1002
}
1000
CLIN
1070
     9
1000
KLIN
1002
{
1000
Class
1070
     4
1000
SPZ
1002
{
1002
}
1000
Color
1070
     1
1070
   256
1002
{
1002
}
1000
LType
1070
     4
1000
BYLAYER
1002
{
1002
}
1002
}
1000
CON1
1070
     9
1000
0
1002
{
1000
Class
1070
     4
1000
CON,BGD
1002
{
1002
}
1000
Color
1070
     1
1070
   256
1002
{
1002
}
1000
LType
1070
     4
1000
BYLAYER
1002
{
1002
}
1002
}
1000
CON2
1070
     9
1000
1
1002
{
1000
Class
1070
     4
1000
CON,BGD
1002
{
1002
}
1000
Color
1070
     1
1070
   256
1002
{
1002
}
1000
LType
1070
     4
1000
BYLAYER
1002
{
1002
}
1002
}
1000
CON3
1070
     9
1000
2
1002
{
1000
Class
1070
     4
1000
CON,BGD
1002
{
1002
}
1000
Color
1070
     1
1070
   256
1002
{
1002
}
1000
LType
1070
     4
1000
BYLAYER
1002
{
1002
}
1002
}
1000
CON4
1070
     9
1000
2
1002
{
1000
Class
1070
     4
1000
CON,BGD
1002
{
1002
}
1000
Color
1070
     1
1070
   256
1002
{
1002
}
1000
LType
1070
     4
1000
BYLAYER
1002
{
1002
}
1002
}
1000
DERP
1070
     9
1000
4
1002
{
1000
Class
1070
     4
1000

1002
{
1002
}
1000
Color
1070
     1
1070
   256
1002
{
1002
}
1000
LType
1070
     4
1000
BYLAYER
1002
{
1002
}
1002
}
1000
DETA
1070
     9
1000
4
1002
{
1000
Class
1070
     4
1000

1002
{
1002
}
1000
Color
1070
     1
1070
   256
1002
{
1002
}
1000
LType
1070
     4
1000
BYLAYER
1002
{
1002
}
1002
}
1000
DIAG
1070
     9
1000
5
1002
{
1000
Class
1070
     4
1000
SYM
1002
{
1002
}
1000
Color
1070
     1
1070
   256
1002
{
1002
}
1000
LType
1070
     4
1000
BYLAYER
1002
{
1002
}
1002
}
1000
DILI
1070
     9
1000
5
1002
{
1000
Class
1070
     4
1000
DIM,SYM
1002
{
1002
}
1000
Color
1070
     1
1070
   256
1002
{
1002
}
1000
LType
1070
     4
1000
BYLAYER
1002
{
1002
}
1002
}
1000
DITO2
1070
     9
1000
5
1002
{
1000
Class
1070
     4
1000
DIM,SYM
1002
{
1002
}
1000
Color
1070
     1
1070
     3
1002
{
1002
}
1000
LType
1070
     4
1000
BYLAYER
1002
{
1002
}
1002
}
1000
DITO3
1070
     9
1000
5
1002
{
1000
Class
1070
     4
1000
DIM,SYM
1002
{
1002
}
1000
Color
1070
     1
1070
     2
1002
{
1002
}
1000
LType
1070
     4
1000
BYLAYER
1002
{
1002
}
1002
}
1000
DITX
1070
     9
1000
5
1002
{
1000
Class
1070
     4
1000
DIM,SYM
1002
{
1002
}
1000
Color
1070
     1
1070
     2
1002
{
1002
}
1000
LType
1070
     4
1000
CONTINUOUS
1002
{
1002
}
1002
}
1000
DIXL
1070
     9
1000
5
1002
{
1000
Class
1070
     4
1000
DIM,SYM
1002
{
1002
}
1000
Color
1070
     1
1070
   256
1002
{
1002
}
1000
LType
1070
     4
1000
BYLAYER
1002
{
1002
}
1002
}
1000
EXMP
1070
     9
1000
4A
1002
{
1000
Class
1070
     4
1000

1002
{
1002
}
1000
Color
1070
     1
1070
   256
1002
{
1002
}
1000
LType
1070
     4
1000
BYLAYER
1002
{
1002
}
1002
}
1000
FEMN
1070
     9
1000
8
1002
{
1000
Class
1070
     4
1000

1002
{
1002
}
1000
Color
1070
     1
1070
   256
1002
{
1002
}
1000
LType
1070
     4
1000
BYLAYER
1002
{
1002
}
1002
}
1000
FEMPN
1070
     9
1000
8
1002
{
1000
Class
1070
     4
1000
SYM
1002
{
1002
}
1000
Color
1070
     1
1070
     3
1002
{
1002
}
1000
LType
1070
     4
1000
BYLAYER
1002
{
1002
}
1002
}
1000
FEMSP
1070
     9
1000
4A
1002
{
1000
Class
1070
     4
1000

1002
{
1002
}
1000
Color
1070
     1
1070
   256
1002
{
1002
}
1000
LType
1070
     4
1000
CONTINUOUS
1002
{
1002
}
1002
}
1000
FEMST
1070
     9
1000
4A
1002
{
1000
Class
1070
     4
1000
SYM
1002
{
1002
}
1000
Color
1070
     1
1070
     3
1002
{
1002
}
1000
LType
1070
     4
1000
BYLAYER
1002
{
1002
}
1002
}
1000
FEMVN
1070
     9
1000
2
1002
{
1000
Class
1070
     4
1000
CON
1002
{
1002
}
1000
Color
1070
     1
1070
   256
1002
{
1002
}
1000
LType
1070
     4
1000
BYLAYER
1002
{
1002
}
1002
}
1000
FEMVT
1070
     9
1000
2
1002
{
1000
Class
1070
     4
1000
SYM
1002
{
1002
}
1000
Color
1070
     1
1070
     3
1002
{
1002
}
1000
LType
1070
     4
1000
BYLAYER
1002
{
1002
}
1002
}
1000
FLAT
1070
     9
1000
0
1002
{
1000
Class
1070
     4
1000

1002
{
1002
}
1000
Color
1070
     1
1070
   256
1002
{
1002
}
1000
LType
1070
     4
1000
BYLAYER
1002
{
1002
}
1002
}
1000
FRAR
1070
     9
1000
4A
1002
{
1000
Class
1070
     4
1000

1002
{
1002
}
1000
Color
1070
     1
1070
   256
1002
{
1002
}
1000
LType
1070
     4
1000
BYLAYER
1002
{
1002
}
1002
}
1000
GRLI
1070
     9
1000
5
1002
{
1000
Class
1070
     4
1000
SYM
1002
{
1002
}
1000
Color
1070
     1
1070
   256
1002
{
1002
}
1000
LType
1070
     4
1000
BYLAYER
1002
{
1002
}
1002
}
1000
GVLI
1070
     9
1000
4A
1002
{
1000
Class
1070
     4
1000

1002
{
1002
}
1000
Color
1070
     1
1070
   256
1002
{
1002
}
1000
LType
1070
     4
1000
BYLAYER
1002
{
1002
}
1002
}
1000
HATC
1070
     9
1000
8
1002
{
1000
Class
1070
     4
1000
HTC,BGD
1002
{
1002
}
1000
Color
1070
     1
1070
   256
1002
{
1002
}
1000
LType
1070
     4
1000
BYLAYER
1002
{
1002
}
1002
}
1000
HIDN
1070
     9
1000
3A
1002
{
1000
Class
1070
     4
1000
HID,BGD
1002
{
1002
}
1000
Color
1070
     1
1070
   256
1002
{
1002
}
1000
LType
1070
     4
1000
BYLAYER
1002
{
1002
}
1002
}
1000
HIDW
1070
     9
1000
3
1002
{
1000
Class
1070
     4
1000
HID,BGD
1002
{
1002
}
1000
Color
1070
     1
1070
   256
1002
{
1002
}
1000
LType
1070
     4
1000
BYLAYER
1002
{
1002
}
1002
}
1000
HLIN
1070
     9
1000
4
1002
{
1000
Class
1070
     4
1000
BGD
1002
{
1002
}
1000
Color
1070
     1
1070
   256
1002
{
1002
}
1000
LType
1070
     4
1000
BYLAYER
1002
{
1002
}
1002
}
1000
HOCN
1070
     9
1000
7A
1002
{
1000
Class
1070
     4
1000
CEN
1002
{
1002
}
1000
Color
1070
     1
1070
   256
1002
{
1002
}
1000
LType
1070
     4
1000
BYLAYER
1002
{
1002
}
1002
}
1000
HOCW
1070
     9
1000
7
1002
{
1000
Class
1070
     4
1000
CEN
1002
{
1002
}
1000
Color
1070
     1
1070
   256
1002
{
1002
}
1000
LType
1070
     4
1000
BYLAYER
1002
{
1002
}
1002
}
1000
INFO
1070
     9
1000
INFO
1002
{
1000
Class
1070
     4
1000
SPZ,SYM
1002
{
1002
}
1000
Color
1070
     1
1070
   256
1002
{
1002
}
1000
LType
1070
     4
1000
BYLAYER
1002
{
1002
}
1002
}
1000
LADI
1070
     9
1000
4
1002
{
1000
Class
1070
     4
1000
BGD
1002
{
1002
}
1000
Color
1070
     1
1070
   256
1002
{
1002
}
1000
LType
1070
     4
1000
BYLAYER
1002
{
1002
}
1002
}
1000
LEAD
1070
     9
1000
5
1002
{
1000
Class
1070
     4
1000
SYM
1002
{
1002
}
1000
Color
1070
     1
1070
   256
1002
{
1002
}
1000
LType
1070
     4
1000
BYLAYER
1002
{
1002
}
1002
}
1000
N_ADDL
1070
     9
1000
5N
1002
{
1000
Class
1070
     4
1000
SYM
1002
{
1002
}
1000
Color
1070
     1
1070
     1
1002
{
1002
}
1000
LType
1070
     4
1000
BYLAYER
1002
{
1002
}
1002
}
1000
N_BHNV
1070
     9
1000
9N
1002
{
1000
Class
1070
     4
1000
INV
1002
{
1002
}
1000
Color
1070
     1
1070
   256
1002
{
1002
}
1000
LType
1070
     4
1000
BYLAYER
1002
{
1002
}
1002
}
1000
N_CON1
1070
     9
1000
0N
1002
{
1000
Class
1070
     4
1000
CON,BGD
1002
{
1002
}
1000
Color
1070
     1
1070
   256
1002
{
1002
}
1000
LType
1070
     4
1000
BYLAYER
1002
{
1002
}
1002
}
1000
N_CON2
1070
     9
1000
1N
1002
{
1000
Class
1070
     4
1000
CON,BGD
1002
{
1002
}
1000
Color
1070
     1
1070
   256
1002
{
1002
}
1000
LType
1070
     4
1000
BYLAYER
1002
{
1002
}
1002
}
1000
N_CON3
1070
     9
1000
2N
1002
{
1000
Class
1070
     4
1000
CON,BGD
1002
{
1002
}
1000
Color
1070
     1
1070
   256
1002
{
1002
}
1000
LType
1070
     4
1000
BYLAYER
1002
{
1002
}
1002
}
1000
N_CON4
1070
     9
1000
2N
1002
{
1000
Class
1070
     4
1000
CON,BGD
1002
{
1002
}
1000
Color
1070
     1
1070
   256
1002
{
1002
}
1000
LType
1070
     4
1000
BYLAYER
1002
{
1002
}
1002
}
1000
N_CENN
1070
     9
1000
7AN
1002
{
1000
Class
1070
     4
1000
CEN
1002
{
1002
}
1000
Color
1070
     1
1070
   256
1002
{
1002
}
1000
LType
1070
     4
1000
BYLAYER
1002
{
1002
}
1002
}
1000
N_CENW
1070
     9
1000
7N
1002
{
1000
Class
1070
     4
1000
CEN
1002
{
1002
}
1000
Color
1070
     1
1070
   256
1002
{
1002
}
1000
LType
1070
     4
1000
BYLAYER
1002
{
1002
}
1002
}
1000
N_DILI
1070
     9
1000
5N
1002
{
1000
Class
1070
     4
1000
DIM,SYM
1002
{
1002
}
1000
Color
1070
     1
1070
   256
1002
{
1002
}
1000
LType
1070
     4
1000
BYLAYER
1002
{
1002
}
1002
}
1000
N_DITX
1070
     9
1000
5N
1002
{
1000
Class
1070
     4
1000
DIM,SYM
1002
{
1002
}
1000
Color
1070
     1
1070
     2
1002
{
1002
}
1000
LType
1070
     4
1000
CONTINUOUS
1002
{
1002
}
1002
}
1000
N_DIXL
1070
     9
1000
5N
1002
{
1000
Class
1070
     4
1000
DIM,SYM
1002
{
1002
}
1000
Color
1070
     1
1070
   256
1002
{
1002
}
1000
LType
1070
     4
1000
BYLAYER
1002
{
1002
}
1002
}
1000
N_HATC
1070
     9
1000
8N
1002
{
1000
Class
1070
     4
1000
HTC,BGD
1002
{
1002
}
1000
Color
1070
     1
1070
   256
1002
{
1002
}
1000
LType
1070
     4
1000
BYLAYER
1002
{
1002
}
1002
}
1000
N_HIDN
1070
     9
1000
3AN
1002
{
1000
Class
1070
     4
1000
HID,BGD
1002
{
1002
}
1000
Color
1070
     1
1070
   256
1002
{
1002
}
1000
LType
1070
     4
1000
BYLAYER
1002
{
1002
}
1002
}
1000
N_HIDW
1070
     9
1000
3N
1002
{
1000
Class
1070
     4
1000
HID,BGD
1002
{
1002
}
1000
Color
1070
     1
1070
   256
1002
{
1002
}
1000
LType
1070
     4
1000
BYLAYER
1002
{
1002
}
1002
}
1000
N_NGIP
1070
     9
1000
IPN
1002
{
1000
Class
1070
     4
1000

1002
{
1002
}
1000
Color
1070
     1
1070
   256
1002
{
1002
}
1000
LType
1070
     4
1000
BYLAYER
1002
{
1002
}
1002
}
1000
N_PHAN
1070
     9
1000
4AN
1002
{
1000
Class
1070
     4
1000

1002
{
1002
}
1000
Color
1070
     1
1070
   256
1002
{
1002
}
1000
LType
1070
     4
1000
BYLAYER
1002
{
1002
}
1002
}
1000
N_POSL
1070
     9
1000
5N
1002
{
1000
Class
1070
     4
1000
SYM
1002
{
1002
}
1000
Color
1070
     1
1070
   256
1002
{
1002
}
1000
LType
1070
     4
1000
BYLAYER
1002
{
1002
}
1002
}
1000
N_TCON
1070
     9
1000
0N
1002
{
1000
Class
1070
     4
1000
CON,BGD
1002
{
1002
}
1000
Color
1070
     1
1070
   256
1002
{
1002
}
1000
LType
1070
     4
1000
BYLAYER
1002
{
1002
}
1002
}
1000
N_THLI
1070
     9
1000
4N
1002
{
1000
Class
1070
     4
1000
BGD
1002
{
1002
}
1000
Color
1070
     1
1070
   256
1002
{
1002
}
1000
LType
1070
     4
1000
BYLAYER
1002
{
1002
}
1002
}
1000
N_TLEN
1070
     9
1000
0N
1002
{
1000
Class
1070
     4
1000
CON,BGD
1002
{
1002
}
1000
Color
1070
     1
1070
   256
1002
{
1002
}
1000
LType
1070
     4
1000
BYLAYER
1002
{
1002
}
1002
}
1000
N_TXT3
1070
     9
1000
6N
1002
{
1000
Class
1070
     4
1000
SYM
1002
{
1002
}
1000
Color
1070
     1
1070
   256
1002
{
1002
}
1000
LType
1070
     4
1000
BYLAYER
1002
{
1002
}
1002
}
1000
N_VPLI
1070
     9
1000
2AN
1002
{
1000
Class
1070
     4
1000

1002
{
1002
}
1000
Color
1070
     1
1070
   256
1002
{
1002
}
1000
LType
1070
     4
1000
BYLAYER
1002
{
1002
}
1002
}
1000
NGIP
1070
     9
1000
IP
1002
{
1000
Class
1070
     4
1000

1002
{
1002
}
1000
Color
1070
     1
1070
   256
1002
{
1002
}
1000
LType
1070
     4
1000
BYLAYER
1002
{
1002
}
1002
}
1000
PAL2
1070
     9
1000
RAHM2
1002
{
1000
Class
1070
     4
1000
SPZ,SYM
1002
{
1002
}
1000
Color
1070
     1
1070
   256
1002
{
1002
}
1000
LType
1070
     4
1000
BYLAYER
1002
{
1002
}
1002
}
1000
PAL3
1070
     9
1000
RAHM3
1002
{
1000
Class
1070
     4
1000
SPZ,SYM
1002
{
1002
}
1000
Color
1070
     1
1070
   256
1002
{
1002
}
1000
LType
1070
     4
1000
BYLAYER
1002
{
1002
}
1002
}
1000
PAL5
1070
     9
1000
RAHM5
1002
{
1000
Class
1070
     4
1000
SPZ,SYM
1002
{
1002
}
1000
Color
1070
     1
1070
   256
1002
{
1002
}
1000
LType
1070
     4
1000
BYLAYER
1002
{
1002
}
1002
}
1000
PAL7
1070
     9
1000
RAHM5
1002
{
1000
Class
1070
     4
1000
SPZ,SYM
1002
{
1002
}
1000
Color
1070
     1
1070
     7
1002
{
1002
}
1000
LType
1070
     4
1000
CONTINUOUS
1002
{
1002
}
1002
}
1000
PHAN
1070
     9
1000
4A
1002
{
1000
Class
1070
     4
1000

1002
{
1002
}
1000
Color
1070
     1
1070
   256
1002
{
1002
}
1000
LType
1070
     4
1000
BYLAYER
1002
{
1002
}
1002
}
1000
POSL
1070
     9
1000
5
1002
{
1000
Class
1070
     4
1000
SYM
1002
{
1002
}
1000
Color
1070
     1
1070
   256
1002
{
1002
}
1000
LType
1070
     4
1000
BYLAYER
1002
{
1002
}
1002
}
1000
POSN
1070
     9
1000
6
1002
{
1000
Class
1070
     4
1000
SYM
1002
{
1002
}
1000
Color
1070
     1
1070
     7
1002
{
1002
}
1000
LType
1070
     4
1000
BYLAYER
1002
{
1002
}
1002
}
1000
POSREF
1070
     9
1000
6
1002
{
1000
Class
1070
     4
1000
SYM
1002
{
1002
}
1000
Color
1070
     1
1070
     5
1002
{
1002
}
1000
LType
1070
     4
1000
BYLAYER
1002
{
1002
}
1002
}
1000
POSX
1070
     9
1000
5
1002
{
1000
Class
1070
     4
1000
SYM
1002
{
1002
}
1000
Color
1070
     1
1070
     2
1002
{
1002
}
1000
LType
1070
     4
1000
CONTINUOUS
1002
{
1002
}
1002
}
1000
PSEC
1070
     9
1000
4A
1002
{
1000
Class
1070
     4
1000

1002
{
1002
}
1000
Color
1070
     1
1070
   256
1002
{
1002
}
1000
LType
1070
     4
1000
BYLAYER
1002
{
1002
}
1002
}
1000
RCGN
1070
     9
1000
7A
1002
{
1000
Class
1070
     4
1000
CEN
1002
{
1002
}
1000
Color
1070
     1
1070
   256
1002
{
1002
}
1000
LType
1070
     4
1000
BYLAYER
1002
{
1002
}
1002
}
1000
RCGW
1070
     9
1000
7
1002
{
1000
Class
1070
     4
1000
CEN
1002
{
1002
}
1000
Color
1070
     1
1070
   256
1002
{
1002
}
1000
LType
1070
     4
1000
BYLAYER
1002
{
1002
}
1002
}
1000
RFDI
1070
     9
1000
4
1002
{
1000
Class
1070
     4
1000
BGD
1002
{
1002
}
1000
Color
1070
     1
1070
   256
1002
{
1002
}
1000
LType
1070
     4
1000
BYLAYER
1002
{
1002
}
1002
}
1000
RQTR
1070
     9
1000
4
1002
{
1000
Class
1070
     4
1000

1002
{
1002
}
1000
Color
1070
     1
1070
     7
1002
{
1002
}
1000
LType
1070
     4
1000
GEN7A
1002
{
1002
}
1002
}
1000
RSBO
1070
     9
1000
4
1002
{
1000
Class
1070
     4
1000
BGD
1002
{
1002
}
1000
Color
1070
     1
1070
   256
1002
{
1002
}
1000
LType
1070
     4
1000
BYLAYER
1002
{
1002
}
1002
}
1000
SBRK
1070
     9
1000
4
1002
{
1000
Class
1070
     4
1000
BGD
1002
{
1002
}
1000
Color
1070
     1
1070
   256
1002
{
1002
}
1000
LType
1070
     4
1000
BYLAYER
1002
{
1002
}
1002
}
1000
SCEN
1070
     9
1000
7
1002
{
1000
Class
1070
     4
1000

1002
{
1002
}
1000
Color
1070
     1
1070
   256
1002
{
1002
}
1000
LType
1070
     4
1000
CONTINUOUS
1002
{
1002
}
1002
}
1000
SECT
1070
     9
1000
4
1002
{
1000
Class
1070
     4
1000
BGD
1002
{
1002
}
1000
Color
1070
     1
1070
   256
1002
{
1002
}
1000
LType
1070
     4
1000
BYLAYER
1002
{
1002
}
1002
}
1000
SELN
1070
     9
1000
7A
1002
{
1000
Class
1070
     4
1000

1002
{
1002
}
1000
Color
1070
     1
1070
   256
1002
{
1002
}
1000
LType
1070
     4
1000
BYLAYER
1002
{
1002
}
1002
}
1000
SELW
1070
     9
1000
7
1002
{
1000
Class
1070
     4
1000

1002
{
1002
}
1000
Color
1070
     1
1070
   256
1002
{
1002
}
1000
LType
1070
     4
1000
BYLAYER
1002
{
1002
}
1002
}
1000
SSYS
1070
     9
1000
0
1002
{
1000
Class
1070
     4
1000

1002
{
1002
}
1000
Color
1070
     1
1070
   256
1002
{
1002
}
1000
LType
1070
     4
1000
BYLAYER
1002
{
1002
}
1002
}
1000
STLI
1070
     9
1000
4
1002
{
1000
Class
1070
     4
1000

1002
{
1002
}
1000
Color
1070
     1
1070
     7
1002
{
1002
}
1000
LType
1070
     4
1000
GEN3A
1002
{
1002
}
1002
}
1000
SYB1
1070
     9
1000
5
1002
{
1000
Class
1070
     4
1000
SYM
1002
{
1002
}
1000
Color
1070
     1
1070
   256
1002
{
1002
}
1000
LType
1070
     4
1000
BYLAYER
1002
{
1002
}
1002
}
1000
SYB2
1070
     9
1000
5
1002
{
1000
Class
1070
     4
1000
SYM
1002
{
1002
}
1000
Color
1070
     1
1070
   256
1002
{
1002
}
1000
LType
1070
     4
1000
BYLAYER
1002
{
1002
}
1002
}
1000
SYB3
1070
     9
1000
6
1002
{
1000
Class
1070
     4
1000
SYM
1002
{
1002
}
1000
Color
1070
     1
1070
   256
1002
{
1002
}
1000
LType
1070
     4
1000
CONTINUOUS
1002
{
1002
}
1002
}
1000
SYB5
1070
     9
1000
5
1002
{
1000
Class
1070
     4
1000
SYM
1002
{
1002
}
1000
Color
1070
     1
1070
     7
1002
{
1002
}
1000
LType
1070
     4
1000
BYLAYER
1002
{
1002
}
1002
}
1000
SYMN
1070
     9
1000
7A
1002
{
1000
Class
1070
     4
1000
CEN
1002
{
1002
}
1000
Color
1070
     1
1070
   256
1002
{
1002
}
1000
LType
1070
     4
1000
BYLAYER
1002
{
1002
}
1002
}
1000
SYMW
1070
     9
1000
7
1002
{
1000
Class
1070
     4
1000
CEN
1002
{
1002
}
1000
Color
1070
     1
1070
   256
1002
{
1002
}
1000
LType
1070
     4
1000
BYLAYER
1002
{
1002
}
1002
}
1000
TCON
1070
     9
1000
0
1002
{
1000
Class
1070
     4
1000
CON,BGD
1002
{
1002
}
1000
Color
1070
     1
1070
   256
1002
{
1002
}
1000
LType
1070
     4
1000
BYLAYER
1002
{
1002
}
1002
}
1000
THLI
1070
     9
1000
4
1002
{
1000
Class
1070
     4
1000
BGD
1002
{
1002
}
1000
Color
1070
     1
1070
   256
1002
{
1002
}
1000
LType
1070
     4
1000
BYLAYER
1002
{
1002
}
1002
}
1000
TIT2
1070
     9
1000
RAHM2
1002
{
1000
Class
1070
     4
1000
SPZ,SYM
1002
{
1002
}
1000
Color
1070
     1
1070
   256
1002
{
1002
}
1000
LType
1070
     4
1000
BYLAYER
1002
{
1002
}
1002
}
1000
TIT3
1070
     9
1000
RAHM3
1002
{
1000
Class
1070
     4
1000
SPZ,SYM
1002
{
1002
}
1000
Color
1070
     1
1070
   256
1002
{
1002
}
1000
LType
1070
     4
1000
BYLAYER
1002
{
1002
}
1002
}
1000
TIT5
1070
     9
1000
RAHM5
1002
{
1000
Class
1070
     4
1000
SPZ,SYM
1002
{
1002
}
1000
Color
1070
     1
1070
   256
1002
{
1002
}
1000
LType
1070
     4
1000
BYLAYER
1002
{
1002
}
1002
}
1000
TIT7
1070
     9
1000
RAHM5
1002
{
1000
Class
1070
     4
1000
SPZ,SYM
1002
{
1002
}
1000
Color
1070
     1
1070
     7
1002
{
1002
}
1000
LType
1070
     4
1000
CONTINUOUS
1002
{
1002
}
1002
}
1000
TLEN
1070
     9
1000
0
1002
{
1000
Class
1070
     4
1000
CON,BGD
1002
{
1002
}
1000
Color
1070
     1
1070
   256
1002
{
1002
}
1000
LType
1070
     4
1000
BYLAYER
1002
{
1002
}
1002
}
1000
TRKN
1070
     9
1000
7A
1002
{
1000
Class
1070
     4
1000

1002
{
1002
}
1000
Color
1070
     1
1070
   256
1002
{
1002
}
1000
LType
1070
     4
1000
BYLAYER
1002
{
1002
}
1002
}
1000
TRKW
1070
     9
1000
7
1002
{
1000
Class
1070
     4
1000

1002
{
1002
}
1000
Color
1070
     1
1070
   256
1002
{
1002
}
1000
LType
1070
     4
1000
BYLAYER
1002
{
1002
}
1002
}
1000
TRLI
1070
     9
1000
4
1002
{
1000
Class
1070
     4
1000
BGD
1002
{
1002
}
1000
Color
1070
     1
1070
   256
1002
{
1002
}
1000
LType
1070
     4
1000
BYLAYER
1002
{
1002
}
1002
}
1000
TXT1
1070
     9
1000
6
1002
{
1000
Class
1070
     4
1000
SYM
1002
{
1002
}
1000
Color
1070
     1
1070
     2
1002
{
1002
}
1000
LType
1070
     4
1000
BYLAYER
1002
{
1002
}
1002
}
1000
TXT2
1070
     9
1000
6
1002
{
1000
Class
1070
     4
1000
SYM
1002
{
1002
}
1000
Color
1070
     1
1070
     2
1002
{
1002
}
1000
LType
1070
     4
1000
BYLAYER
1002
{
1002
}
1002
}
1000
TXT3
1070
     9
1000
6
1002
{
1000
Class
1070
     4
1000
SYM
1002
{
1002
}
1000
Color
1070
     1
1070
   256
1002
{
1002
}
1000
LType
1070
     4
1000
BYLAYER
1002
{
1002
}
1002
}
1000
TXT5
1070
     9
1000
6
1002
{
1000
Class
1070
     4
1000
SYM
1002
{
1002
}
1000
Color
1070
     1
1070
     7
1002
{
1002
}
1000
LType
1070
     4
1000
BYLAYER
1002
{
1002
}
1002
}
1000
TXT7
1070
     9
1000
6
1002
{
1000
Class
1070
     4
1000
SYM
1002
{
1002
}
1000
Color
1070
     1
1070
     7
1002
{
1002
}
1000
LType
1070
     4
1000
BYLAYER
1002
{
1002
}
1002
}
1000
VIEW
1070
     9
1000
VIEW
1002
{
1000
Class
1070
     4
1000
SPZ
1002
{
1002
}
1000
Color
1070
     1
1070
   256
1002
{
1002
}
1000
LType
1070
     4
1000
BYLAYER
1002
{
1002
}
1002
}
1000
VPLI
1070
     9
1000
2A
1002
{
1000
Class
1070
     4
1000

1002
{
1002
}
1000
Color
1070
     1
1070
   256
1002
{
1002
}
1000
LType
1070
     4
1000
BYLAYER
1002
{
1002
}
1002
}
1000
ZIZA
1070
     9
1000
4
1002
{
1000
Class
1070
     4
1000
BGD
1002
{
1002
}
1000
Color
1070
     1
1070
   256
1002
{
1002
}
1000
LType
1070
     4
1000
GENZIGZAG
1002
{
1002
}
1002
}
  0
APPID
  5
F85
330
F43
100
AcDbSymbolTableRecord
100
AcDbRegAppTableRecord
  2
GENIUS_GENCFG4_13
 70
     0
1001
GENIUS_GENCFG_13
1071
1043420583
1000
F85
1000
GEN
1070
     9
1000
GenCfgObject
1000
GenCfgShort
1000
GenCfgReal
1000
GenCfgBool
1000
GenCfgString
1000
GenCfgDim
1000
GenCfgLaySection
1000
GenCfgLType
1000
GenCfgFilter
1000
Balloon
1070
     0
1002
{
1000
GenIF
1070
     1
1070
     0
1002
{
1002
}
1000
GenPosInc
1070
     1
1070
     1
1002
{
1002
}
1000
GenPosBlk
1070
     1
1070
     8
1002
{
1002
}
1000
GenPosVar
1070
     1
1070
     0
1002
{
1002
}
1000
GenZiCir
1070
     2
1040
1.5
1002
{
1002
}
1000
MaxCharForCenteredText
1070
     1
1070
    30
1002
{
1002
}
1000
Snap
1070
     0
1002
{
1000
ActivationRadius
1070
     2
1040
1.0
1002
{
1002
}
1000
M
1070
     0
1002
{
1000
SnapStepX
1070
     2
1040
20.0
1002
{
1002
}
1000
SnapStepY
1070
     2
1040
10.0
1002
{
1002
}
1002
}
1000
I
1070
     0
1002
{
1000
SnapStepX
1070
     2
1040
1.0
1002
{
1002
}
1000
SnapStepY
1070
     2
1040
0.5
1002
{
1002
}
1002
}
1002
}
1002
}
1000
Centerline
1070
     0
1002
{
1000
ScaleNot
1070
     3
1070
     0
1002
{
1002
}
1000
M
1070
     0
1002
{
1000
GenCenAng
1070
     4
1000
45|90|135
1002
{
1002
}
1000
GenCenDia
1070
     2
1040
10.0
1002
{
1002
}
1000
GenCenDias
1070
     4
1000
10|20|30
1002
{
1002
}
1000
GenCenDist
1070
     2
1040
3.0
1002
{
1002
}
1000
GenCenLen
1070
     2
1040
10.0
1002
{
1002
}
1000
GenCenOff
1070
     2
1040
10.0
1002
{
1002
}
1002
}
1000
I
1070
     0
1002
{
1000
GenCenAng
1070
     4
1000
45|90|135
1002
{
1002
}
1000
GenCenDia
1070
     2
1040
0.5
1002
{
1002
}
1000
GenCenDias
1070
     4
1000
0.5|1.0|1.5
1002
{
1002
}
1000
GenCenDist
1070
     2
1040
0.125
1002
{
1002
}
1000
GenCenLen
1070
     2
1040
0.5
1002
{
1002
}
1000
GenCenOff
1070
     2
1040
0.5
1002
{
1002
}
1002
}
1002
}
1000
CLine
1070
     0
1002
{
1000
CAngArray
1070
     4
1000
30|45|60
1002
{
1002
}
1000
Typ
1070
     4
1000
XLINE
1002
{
1002
}
1000
M
1070
     0
1002
{
1000
CLinArray
1070
     4
1000
10|20|30
1002
{
1002
}
1002
}
1000
I
1070
     0
1002
{
1000
CLinArray
1070
     4
1000
0.125|0.25|0.5
1002
{
1002
}
1002
}
1002
}
1000
Detail
1070
     0
1002
{
1002
}
1000
Dimension
1070
     5
1002
{
1000
DIMALT
1070
     1
1070
     0
1002
{
1002
}
1000
DIMALTD
1070
     1
1070
     2
1002
{
1002
}
1000
DIMALTTD
1070
     1
1070
     4
1002
{
1002
}
1000
DIMALTTZ
1070
     1
1070
     0
1002
{
1002
}
1000
DIMALTU
1070
     1
1070
     2
1002
{
1002
}
1000
DIMALTZ
1070
     1
1070
     0
1002
{
1002
}
1000
DIMAUNIT
1070
     1
1070
     0
1002
{
1002
}
1000
DIMBLK
1070
     4
1000

1002
{
1002
}
1000
DIMBLK1
1070
     4
1000

1002
{
1002
}
1000
DIMBLK2
1070
     4
1000

1002
{
1002
}
1000
DIMCLRD
1070
     1
1070
   256
1002
{
1002
}
1000
DIMCLRE
1070
     1
1070
   256
1002
{
1002
}
1000
DIMCLRT
1070
     1
1070
     2
1002
{
1002
}
1000
DIMDLE
1070
     2
1040
0.0
1002
{
1002
}
1000
DIMFIT
1070
     1
1070
     3
1002
{
1002
}
1000
DIMJUST
1070
     1
1070
     0
1002
{
1002
}
1000
DIMLFAC
1070
     2
1040
1.0
1002
{
1002
}
1000
DIMLIM
1070
     1
1070
     0
1002
{
1002
}
1000
DIMPOST
1070
     4
1000

1002
{
1002
}
1000
DIMRND
1070
     2
1040
0.0
1002
{
1002
}
1000
DIMSAH
1070
     1
1070
     0
1002
{
1002
}
1000
DIMSCALE
1070
     2
1040
1.0
1002
{
1002
}
1000
DIMSD1
1070
     1
1070
     0
1002
{
1002
}
1000
DIMSD2
1070
     1
1070
     0
1002
{
1002
}
1000
DIMSE1
1070
     1
1070
     0
1002
{
1002
}
1000
DIMSE2
1070
     1
1070
     0
1002
{
1002
}
1000
DIMSOXD
1070
     1
1070
     0
1002
{
1002
}
1000
DIMTAD
1070
     1
1070
     0
1002
{
1002
}
1000
DIMTFAC
1070
     2
1040
0.71
1002
{
1002
}
1000
DIMTIH
1070
     1
1070
     0
1002
{
1002
}
1000
DIMTIX
1070
     1
1070
     0
1002
{
1002
}
1000
DIMTM
1070
     2
1040
0.1
1002
{
1002
}
1000
DIMTOFL
1070
     1
1070
     0
1002
{
1002
}
1000
DIMTOH
1070
     1
1070
     0
1002
{
1002
}
1000
DIMTOL
1070
     1
1070
     0
1002
{
1002
}
1000
DIMTOLJ
1070
     1
1070
     1
1002
{
1002
}
1000
DIMTP
1070
     2
1040
0.1
1002
{
1002
}
1000
DIMTSZ
1070
     2
1040
0.0
1002
{
1002
}
1000
DIMTVP
1070
     2
1040
0.0
1002
{
1002
}
1000
DIMTXSTY
1070
     4
1000
STANDARD
1002
{
1002
}
1000
DIMTZIN
1070
     1
1070
     0
1002
{
1002
}
1000
DIMUNIT
1070
     1
1070
     2
1002
{
1002
}
1000
DIMUPT
1070
     1
1070
     0
1002
{
1002
}
1000
M
1070
     0
1002
{
1000
DIMALTF
1070
     2
1040
0.03937
1002
{
1002
}
1000
DIMAPOST
1070
     4
1000
"
1002
{
1002
}
1000
DIMASZ
1070
     2
1040
2.5
1002
{
1002
}
1000
DIMCEN
1070
     2
1040
0.0
1002
{
1002
}
1000
DIMDEC
1070
     1
1070
     2
1002
{
1002
}
1000
DIMDLI
1070
     2
1040
7.0
1002
{
1002
}
1000
DIMEXE
1070
     2
1040
1.0
1002
{
1002
}
1000
DIMEXO
1070
     2
1040
1.0
1002
{
1002
}
1000
DIMGAP
1070
     2
1040
0.6
1002
{
1002
}
1000
DIMTDEC
1070
     1
1070
     3
1002
{
1002
}
1000
DIMTXT
1070
     2
1040
3.5
1002
{
1002
}
1000
DIMZIN
1070
     1
1070
     8
1002
{
1002
}
1002
}
1000
I
1070
     0
1002
{
1000
DIMALTF
1070
     2
1040
25.4
1002
{
1002
}
1000
DIMAPOST
1070
     4
1000
mm
1002
{
1002
}
1000
DIMASZ
1070
     2
1040
0.1
1002
{
1002
}
1000
DIMCEN
1070
     2
1040
0.0
1002
{
1002
}
1000
DIMDEC
1070
     1
1070
     4
1002
{
1002
}
1000
DIMDLI
1070
     2
1040
0.5
1002
{
1002
}
1000
DIMEXE
1070
     2
1040
0.1
1002
{
1002
}
1000
DIMEXO
1070
     2
1040
0.05
1002
{
1002
}
1000
DIMGAP
1070
     2
1040
0.06
1002
{
1002
}
1000
DIMTDEC
1070
     1
1070
     4
1002
{
1002
}
1000
DIMTXT
1070
     2
1040
0.12
1002
{
1002
}
1000
DIMZIN
1070
     1
1070
     7
1002
{
1002
}
1002
}
1000
GEN-ISO
1070
     5
1002
{
1000
NAME
1070
     4
1000
GEN-ISO
1002
{
1002
}
1000
DIMTAD
1070
     1
1070
     1
1002
{
1002
}
1000
DIMTOLJ
1070
     1
1070
     0
1002
{
1002
}
1000
DIMTOFL
1070
     1
1070
     1
1002
{
1002
}
1000
M
1070
     0
1002
{
1002
}
1000
I
1070
     0
1002
{
1002
}
1002
}
1000
GEN-ISO-POS
1070
     5
1002
{
1000
NAME
1070
     4
1000
GEN-ISO-POS
1002
{
1002
}
1000
DIMTOLJ
1070
     1
1070
     0
1002
{
1002
}
1000
DIMTXSTY
1070
     4
1000
STANDARD
1002
{
1002
}
1000
M
1070
     0
1002
{
1000
DIMASZ
1070
     2
1040
2.5
1002
{
1002
}
1000
DIMGAP
1070
     2
1040
1.5
1002
{
1002
}
1000
DIMTXT
1070
     2
1040
5.0
1002
{
1002
}
1002
}
1000
I
1070
     0
1002
{
1000
DIMASZ
1070
     2
1040
0.1
1002
{
1002
}
1000
DIMGAP
1070
     2
1040
0.06
1002
{
1002
}
1000
DIMTXT
1070
     2
1040
0.2
1002
{
1002
}
1002
}
1002
}
1000
GEN-ISO-CIR
1070
     5
1002
{
1000
NAME
1070
     4
1000
GEN-ISO$3
1002
{
1002
}
1000
DIMFIT
1070
     1
1070
     0
1002
{
1002
}
1000
DIMTAD
1070
     1
1070
     1
1002
{
1002
}
1000
DIMTOH
1070
     1
1070
     1
1002
{
1002
}
1000
DIMTOLJ
1070
     1
1070
     0
1002
{
1002
}
1000
DIMUPT
1070
     1
1070
     1
1002
{
1002
}
1000
M
1070
     0
1002
{
1002
}
1000
I
1070
     0
1002
{
1002
}
1002
}
1000
GEN-ISO-RAD
1070
     5
1002
{
1000
NAME
1070
     4
1000
GEN-ISO$4
1002
{
1002
}
1000
DIMFIT
1070
     1
1070
     0
1002
{
1002
}
1000
DIMTAD
1070
     1
1070
     1
1002
{
1002
}
1000
DIMTIH
1070
     1
1070
     0
1002
{
1002
}
1000
DIMTIX
1070
     1
1070
     0
1002
{
1002
}
1000
DIMTOH
1070
     1
1070
     1
1002
{
1002
}
1000
DIMTOLJ
1070
     1
1070
     0
1002
{
1002
}
1000
DIMTOFL
1070
     1
1070
     0
1002
{
1002
}
1000
DIMUPT
1070
     1
1070
     1
1002
{
1002
}
1000
M
1070
     0
1002
{
1002
}
1000
I
1070
     0
1002
{
1002
}
1002
}
1000
GEN-ISO-ORD
1070
     5
1002
{
1000
NAME
1070
     4
1000
GEN-ISO$6
1002
{
1002
}
1000
DIMTOLJ
1070
     1
1070
     0
1002
{
1002
}
1000
M
1070
     0
1002
{
1002
}
1000
I
1070
     0
1002
{
1002
}
1002
}
1000
GEN-ISO-AXE-F
1070
     5
1002
{
1000
NAME
1070
     4
1000
GEN-ISO-AXE-F
1002
{
1002
}
1000
DIMSE1
1070
     1
1070
     1
1002
{
1002
}
1000
DIMSE2
1070
     1
1070
     1
1002
{
1002
}
1000
DIMTAD
1070
     1
1070
     1
1002
{
1002
}
1000
DIMTOLJ
1070
     1
1070
     0
1002
{
1002
}
1000
DIMTOFL
1070
     1
1070
     1
1002
{
1002
}
1000
M
1070
     0
1002
{
1002
}
1000
I
1070
     0
1002
{
1002
}
1002
}
1000
GEN-ISO-AXE-H
1070
     5
1002
{
1000
NAME
1070
     4
1000
GEN-ISO-AXE-H
1002
{
1002
}
1000
DIMBLK1
1070
     4
1000
GENAXEH
1002
{
1002
}
1000
DIMLFAC
1070
     2
1040
2.0
1002
{
1002
}
1000
DIMSAH
1070
     1
1070
     1
1002
{
1002
}
1000
DIMSE1
1070
     1
1070
     1
1002
{
1002
}
1000
DIMSE2
1070
     1
1070
     1
1002
{
1002
}
1000
DIMTAD
1070
     1
1070
     1
1002
{
1002
}
1000
DIMTOLJ
1070
     1
1070
     0
1002
{
1002
}
1000
DIMTOFL
1070
     1
1070
     1
1002
{
1002
}
1000
M
1070
     0
1002
{
1002
}
1000
I
1070
     0
1002
{
1002
}
1002
}
1000
GEN-ANSI
1070
     5
1002
{
1000
NAME
1070
     4
1000
GEN-ANSI
1002
{
1002
}
1000
DIMTIH
1070
     1
1070
     1
1002
{
1002
}
1000
DIMTOH
1070
     1
1070
     1
1002
{
1002
}
1000
DIMTAD
1070
     1
1070
     0
1002
{
1002
}
1000
DIMTOLJ
1070
     1
1070
     1
1002
{
1002
}
1000
M
1070
     0
1002
{
1002
}
1000
I
1070
     0
1002
{
1002
}
1002
}
1000
GEN-ANSI-POS
1070
     5
1002
{
1000
NAME
1070
     4
1000
GEN-ANSI-POS
1002
{
1002
}
1000
DIMTOLJ
1070
     1
1070
     1
1002
{
1002
}
1000
DIMTXSTY
1070
     4
1000
STANDARD
1002
{
1002
}
1000
M
1070
     0
1002
{
1000
DIMASZ
1070
     2
1040
2.5
1002
{
1002
}
1000
DIMGAP
1070
     2
1040
1.5
1002
{
1002
}
1000
DIMTXT
1070
     2
1040
5.0
1002
{
1002
}
1002
}
1000
I
1070
     0
1002
{
1000
DIMASZ
1070
     2
1040
0.1
1002
{
1002
}
1000
DIMGAP
1070
     2
1040
0.06
1002
{
1002
}
1000
DIMTXT
1070
     2
1040
0.2
1002
{
1002
}
1002
}
1002
}
1000
GEN-ANSI-CIR
1070
     5
1002
{
1000
NAME
1070
     4
1000
GEN-ANSI$3
1002
{
1002
}
1000
DIMFIT
1070
     1
1070
     0
1002
{
1002
}
1000
DIMTAD
1070
     1
1070
     0
1002
{
1002
}
1000
DIMTIH
1070
     1
1070
     1
1002
{
1002
}
1000
DIMTIX
1070
     1
1070
     0
1002
{
1002
}
1000
DIMTOFL
1070
     1
1070
     0
1002
{
1002
}
1000
DIMTOH
1070
     1
1070
     1
1002
{
1002
}
1000
DIMTOLJ
1070
     1
1070
     1
1002
{
1002
}
1000
DIMUPT
1070
     1
1070
     1
1002
{
1002
}
1000
M
1070
     0
1002
{
1002
}
1000
I
1070
     0
1002
{
1002
}
1002
}
1000
GEN-ANSI-RAD
1070
     5
1002
{
1000
NAME
1070
     4
1000
GEN-ANSI$4
1002
{
1002
}
1000
DIMFIT
1070
     1
1070
     0
1002
{
1002
}
1000
DIMTAD
1070
     1
1070
     0
1002
{
1002
}
1000
DIMTIH
1070
     1
1070
     1
1002
{
1002
}
1000
DIMTIX
1070
     1
1070
     0
1002
{
1002
}
1000
DIMTOFL
1070
     1
1070
     0
1002
{
1002
}
1000
DIMTOH
1070
     1
1070
     1
1002
{
1002
}
1000
DIMTOLJ
1070
     1
1070
     1
1002
{
1002
}
1000
DIMUPT
1070
     1
1070
     1
1002
{
1002
}
1000
M
1070
     0
1002
{
1002
}
1000
I
1070
     0
1002
{
1002
}
1002
}
1000
GEN-ANSI-ORD
1070
     5
1002
{
1000
NAME
1070
     4
1000
GEN-ANSI$6
1002
{
1002
}
1000
DIMTAD
1070
     1
1070
     0
1002
{
1002
}
1000
DIMTIH
1070
     1
1070
     1
1002
{
1002
}
1000
DIMTOH
1070
     1
1070
     1
1002
{
1002
}
1000
DIMTOLJ
1070
     1
1070
     1
1002
{
1002
}
1000
M
1070
     0
1002
{
1002
}
1000
I
1070
     0
1002
{
1002
}
1002
}
1000
GEN-ANSI-AXE-F
1070
     5
1002
{
1000
NAME
1070
     4
1000
GEN-ANSI-AXE-F
1002
{
1002
}
1000
DIMBLK1
1070
     4
1000
GENAXEH
1002
{
1002
}
1000
DIMSAH
1070
     1
1070
     1
1002
{
1002
}
1000
DIMSE1
1070
     1
1070
     1
1002
{
1002
}
1000
DIMSE2
1070
     1
1070
     1
1002
{
1002
}
1000
DIMTAD
1070
     1
1070
     0
1002
{
1002
}
1000
DIMTIH
1070
     1
1070
     1
1002
{
1002
}
1000
DIMTOH
1070
     1
1070
     1
1002
{
1002
}
1000
DIMTOLJ
1070
     1
1070
     1
1002
{
1002
}
1000
M
1070
     0
1002
{
1002
}
1000
I
1070
     0
1002
{
1002
}
1002
}
1000
GEN-ANSI-AXE-H
1070
     5
1002
{
1000
NAME
1070
     4
1000
GEN-ANSI-AXE-H
1002
{
1002
}
1000
DIMBLK1
1070
     4
1000
GENAXEH
1002
{
1002
}
1000
DIMLFAC
1070
     2
1040
2.0
1002
{
1002
}
1000
DIMSAH
1070
     1
1070
     1
1002
{
1002
}
1000
DIMSE1
1070
     1
1070
     1
1002
{
1002
}
1000
DIMSE2
1070
     1
1070
     1
1002
{
1002
}
1000
DIMTAD
1070
     1
1070
     0
1002
{
1002
}
1000
DIMTOFL
1070
     1
1070
     1
1002
{
1002
}
1000
DIMTOLJ
1070
     1
1070
     1
1002
{
1002
}
1000
M
1070
     0
1002
{
1002
}
1000
I
1070
     0
1002
{
1002
}
1002
}
1002
}
1000
DimSet
1070
     0
1002
{
1000
ChainSum
1070
     3
1070
     0
1002
{
1002
}
1000
DimDclTyp0
1070
     4
1000
dim23
1002
{
1002
}
1000
HorBra
1070
     3
1070
     0
1002
{
1002
}
1000
StrDia
1070
     4
1000
%%c<>
1002
{
1002
}
1000
StrRad
1070
     4
1000
R<>
1002
{
1002
}
1000
TextMinus
1070
     4
1000
<>
1002
{
1002
}
1000
TextPlus
1070
     4
1000
<>
1002
{
1002
}
1000
M
1070
     0
1002
{
1000
DimdliFirst
1070
     2
1040
10.0
1002
{
1002
}
1000
PointMakeDist
1070
     2
1040
10.0
1002
{
1002
}
1002
}
1000
I
1070
     0
1002
{
1000
DimdliFirst
1070
     2
1040
0.5
1002
{
1002
}
1000
PointMakeDist
1070
     2
1040
0.5
1002
{
1002
}
1002
}
1000
FitGrade
1070
     4
1000
h7
1002
{
1002
}
1002
}
1000
Drawing
1070
     0
1002
{
1000
ChamferDimMode
1070
     1
1070
     2
1002
{
1002
}
1000
Gen_Fiso
1070
    -3
1040
1.0
1002
{
1002
}
1000
GenDimStil
1070
     4
1000
ISO
1002
{
1002
}
1000
GenDwgUScale
1070
     2
1040
1.0
1002
{
1002
}
1000
GenInch
1070
     4
1000
M
1002
{
1002
}
1000
GenPlotScale
1070
     4
1000
1:4.5
1002
{
1002
}
1000
Revisi
1070
     4
1000
0
1002
{
1002
}
1002
}
1000
DwgVar
1070
     0
1002
{
1000
M
1070
     0
1002
{
1002
}
1000
I
1070
     0
1002
{
1002
}
1002
}
1000
Hatch
1070
     0
1002
{
1000
GenHtcFlag
1070
     3
1070
     0
1002
{
1002
}
1002
}
1000
Info_Pos
1070
     0
1002
{
1000
>
1002
}
1000
Layer
1070
     6
1002
{
1000
Defs
1070
     0
1002
{
1000
>
1002
}
1000
EntSort
1070
     0
1002
{
1000
>
1002
}
1000
Match
1070
     0
1002
{
1002
}
1000
Settings
1070
     0
1002
{
1000
FocGrNC
1070
     3
1070
     0
1002
{
1002
}
1000
FocGrLo
1070
     3
1070
     0
1002
{
1002
}
1000
FocLoNC
1070
     3
1070
     0
1002
{
1002
}
1000
FocusCol
1070
     1
1070
   253
1002
{
1002
}
1000
GenStdLG
1070
     4
1000

1002
{
1002
}
1000
LayMatch
1070
     3
1070
     0
1002
{
1002
}
1000
LgOff
1070
     3
1070
     0
1002
{
1002
}
1000
CurLG
1070
    -5
1000

1002
{
1002
}
1002
}
1002
}
1000
LType
1070
     0
1002
{
1000
GEN3
1070
     7
1000
genius.lin
1002
{
1002
}
1000
GEN7
1070
     7
1000
genius.lin
1002
{
1002
}
1000
GEN4A
1070
     7
1000
genius.lin
1002
{
1002
}
1000
GEN3A
1070
     7
1000
genius.lin
1002
{
1002
}
1000
GEN7A
1070
     7
1000
genius.lin
1002
{
1002
}
1000
GENZIGZAG
1070
     7
1000
genius.lin
1002
{
1002
}
1002
}
1000
Objecter
1070
     0
1002
{
1000
CreateGroups
1070
     3
1070
     0
1002
{
1002
}
1000
LaySwitch
1070
     3
1070
     1
1002
{
1002
}
1000
LastObj
1070
    -5
1000
56F
1002
{
1002
}
1000
TimeStamp
1070
    -5
1000
20030124.16011306
1002
{
1002
}
1002
}
1000
OSWiz
1070
     0
1002
{
1000
Filter
1070
     0
1002
{
1000
HATCH
1070
     8
1002
{
1000
EntityType
1070
     4
1000
LINE
1002
{
1002
}
1000
Layer
1070
     4
1000
8,8N,*-8,*-8N
1002
{
1002
}
1000
Linetype
1070
     4
1000
*
1002
{
1002
}
1000
Color
1070
     4
1000
*
1002
{
1002
}
1000
ApplyInDims
1070
     3
1070
     1
1002
{
1002
}
1002
}
1000
SYMBOLS
1070
     8
1002
{
1000
EntityType
1070
     4
1000
*
1002
{
1002
}
1000
Layer
1070
     4
1000
[5-6],[5-6]N,*-[5-6],*-[5-6]N
1002
{
1002
}
1000
Linetype
1070
     4
1000
*
1002
{
1002
}
1000
Color
1070
     4
1000
*
1002
{
1002
}
1000
ApplyInDims
1070
     3
1070
     1
1002
{
1002
}
1002
}
1000
FEM
1070
     8
1002
{
1000
EntityType
1070
     4
1000
*
1002
{
1002
}
1000
Layer
1070
     4
1000
4A,4AN,*-4A,*-4AN
1002
{
1002
}
1000
Linetype
1070
     4
1000
*
1002
{
1002
}
1000
Color
1070
     4
1000
*
1002
{
1002
}
1000
ApplyInDims
1070
     3
1070
     1
1002
{
1002
}
1002
}
1002
}
1002
}
1000
PaList
1070
     0
1002
{
1000
AutoUpdatePartList
1070
     1
1070
     0
1002
{
1002
}
1000
ReadInfoPoint
1070
     3
1070
     0
1002
{
1002
}
1000
ReadPosNr
1070
     3
1070
     1
1002
{
1002
}
1000
RevStr
1070
     4
1000
0
1002
{
1002
}
1002
}
1000
Paper
1070
     0
1002
{
1002
}
1000
PartDB
1070
     0
1002
{
1000
GenDbOwner
1070
     4
1000

1002
{
1002
}
1002
}
1000
System
1070
     0
1002
{
1002
}
1000
Title
1070
     0
1002
{
1000
MakeView
1070
     1
1070
     2
1002
{
1002
}
1002
}
1000
Tools
1070
     0
1002
{
1000
Trans
1070
     0
1002
{
1000
Drawingtranslation
1070
    -4
1070
     1
1002
{
1002
}
1000
upreserve
1070
     3
1070
     0
1002
{
1002
}
1000
originally_on
1070
    -4
1070
     0
1002
{
1002
}
1000
sourcelang
1070
    -5
1000
D
1002
{
1002
}
1002
}
1002
}
  0
APPID
  5
F86
330
F43
100
AcDbSymbolTableRecord
100
AcDbRegAppTableRecord
  2
GENIUS_GENOENT_13
 70
     0
  0
APPID
  5
F87
330
F43
100
AcDbSymbolTableRecord
100
AcDbRegAppTableRecord
  2
GENIUS_GEFCFG0_13
 70
     0
  0
APPID
  5
F88
330
F43
100
AcDbSymbolTableRecord
100
AcDbRegAppTableRecord
  2
GENIUS_GENOBJ_13
 70
     0
  0
APPID
  5
F89
330
F43
100
AcDbSymbolTableRecord
100
AcDbRegAppTableRecord
  2
GENIUS_GENODEF_13
 70
     0
  0
APPID
  5
F8A
330
F43
100
AcDbSymbolTableRecord
100
AcDbRegAppTableRecord
  2
GENIUS_GENOLIS_13
 70
     0
  0
APPID
  5
F8B
330
F43
100
AcDbSymbolTableRecord
100
AcDbRegAppTableRecord
  2
GENIUS_GENOREF_13
 70
     0
  0
APPID
  5
F8C
330
F43
100
AcDbSymbolTableRecord
100
AcDbRegAppTableRecord
  2
GENIUS_GENOBJ-N-TIT_13
 70
     0
  0
APPID
  5
F8D
330
F43
100
AcDbSymbolTableRecord
100
AcDbRegAppTableRecord
  2
GENIUS_GENTITLE_13
 70
     0
  0
APPID
  5
F8E
330
F43
100
AcDbSymbolTableRecord
100
AcDbRegAppTableRecord
  2
GENIUS_GENZVEED_13
 70
     0
  0
APPID
  5
F8F
330
F43
100
AcDbSymbolTableRecord
100
AcDbRegAppTableRecord
  2
GENIUS_GENOBJ-N-SDF_13
 70
     0
  0
APPID
  5
F90
330
F43
100
AcDbSymbolTableRecord
100
AcDbRegAppTableRecord
  2
GENIUS_GENSCREG_13
 70
     0
  0
APPID
  5
F91
330
F43
100
AcDbSymbolTableRecord
100
AcDbRegAppTableRecord
  2
GENIUS_GENREC_13
 70
     0
  0
APPID
  5
F92
330
F43
100
AcDbSymbolTableRecord
100
AcDbRegAppTableRecord
  2
GENIUS_GENOBJ-N-REC_13
 70
     0
  0
APPID
  5
F93
330
F43
100
AcDbSymbolTableRecord
100
AcDbRegAppTableRecord
  2
GEV_VCCNULL_SWITCH_OFF
 70
     0
  0
APPID
  5
F94
330
F43
100
AcDbSymbolTableRecord
100
AcDbRegAppTableRecord
  2
GENIUS_GENOBJ-N-FIL_13
 70
     0
  0
APPID
  5
F95
330
F43
100
AcDbSymbolTableRecord
100
AcDbRegAppTableRecord
  2
GENIUS_GENOBJ-N-CEN_13
 70
     0
  0
APPID
  5
F96
330
F43
100
AcDbSymbolTableRecord
100
AcDbRegAppTableRecord
  2
GEVID847783224
 70
     0
  0
APPID
  5
F97
330
F43
100
AcDbSymbolTableRecord
100
AcDbRegAppTableRecord
  2
GEVDC
 70
     0
  0
APPID
  5
F98
330
F43
100
AcDbSymbolTableRecord
100
AcDbRegAppTableRecord
  2
GEVCON
 70
     0
  0
APPID
  5
F99
330
F43
100
AcDbSymbolTableRecord
100
AcDbRegAppTableRecord
  2
GEVRADREF
 70
     0
  0
APPID
  5
F9A
330
F43
100
AcDbSymbolTableRecord
100
AcDbRegAppTableRecord
  2
VCC
 70
     0
  0
APPID
  5
F9B
330
F43
100
AcDbSymbolTableRecord
100
AcDbRegAppTableRecord
  2
GEVPT
 70
     0
  0
APPID
  5
F9C
330
F43
100
AcDbSymbolTableRecord
100
AcDbRegAppTableRecord
  2
GEVIT
 70
     0
  0
APPID
  5
F9D
330
F43
100
AcDbSymbolTableRecord
100
AcDbRegAppTableRecord
  2
GENBH
 70
     0
  0
APPID
  5
F9E
330
F43
100
AcDbSymbolTableRecord
100
AcDbRegAppTableRecord
  2
GEVMK
 70
     0
  0
APPID
  5
F9F
330
F43
100
AcDbSymbolTableRecord
100
AcDbRegAppTableRecord
  2
GENIUS_GENBH_13
 70
     0
  0
APPID
  5
FA0
330
F43
100
AcDbSymbolTableRecord
100
AcDbRegAppTableRecord
  2
GENIUS_GENOBJ-NBEHI-BHF_13
 70
     0
  0
APPID
  5
FA1
330
F43
100
AcDbSymbolTableRecord
100
AcDbRegAppTableRecord
  2
GENIUS_GENOBJ-NBEHI-BHB_13
 70
     0
  0
APPID
  5
FA2
330
F43
100
AcDbSymbolTableRecord
100
AcDbRegAppTableRecord
  2
GENIUS_GENOBJ-F-PART_13
 70
     0
  0
APPID
  5
FA3
330
F43
100
AcDbSymbolTableRecord
100
AcDbRegAppTableRecord
  2
GENIUS_GEFSTDP_13
 70
     0
  0
APPID
  5
FA4
330
F43
100
AcDbSymbolTableRecord
100
AcDbRegAppTableRecord
  2
GENIUS_GEFPARTINS_13
 70
     0
  0
APPID
  5
FA5
330
F43
100
AcDbSymbolTableRecord
100
AcDbRegAppTableRecord
  2
GENIUS_GENINF13_13
 70
     0
  0
APPID
  5
FA6
330
F43
100
AcDbSymbolTableRecord
100
AcDbRegAppTableRecord
  2
GENIUS_GENOBJ-N-INFOPT_13
 70
     0
  0
APPID
  5
FA7
330
F43
100
AcDbSymbolTableRecord
100
AcDbRegAppTableRecord
  2
GENIUS_GENOBJ-N-RSSYM_13
 70
     0
  0
APPID
  5
FA8
330
F43
100
AcDbSymbolTableRecord
100
AcDbRegAppTableRecord
  2
GENIUS_GENSYMENT_13
 70
     0
  0
APPID
  5
FA9
330
F43
100
AcDbSymbolTableRecord
100
AcDbRegAppTableRecord
  2
GENIUS_GENSCSYM_13
 70
     0
  0
APPID
  5
FAA
330
F43
100
AcDbSymbolTableRecord
100
AcDbRegAppTableRecord
  2
GENIUS_GEFINFNAM_13
 70
     0
  0
APPID
  5
FAB
330
F43
100
AcDbSymbolTableRecord
100
AcDbRegAppTableRecord
  2
GEVID847783225
 70
     0
  0
APPID
  5
FAC
330
F43
100
AcDbSymbolTableRecord
100
AcDbRegAppTableRecord
  2
GENIUS_GENDTOL_13
 70
     0
  0
APPID
  5
FAD
330
F43
100
AcDbSymbolTableRecord
100
AcDbRegAppTableRecord
  2
GENIUS_GENOBJ-N-HTC_13
 70
     0
  0
APPID
  5
FAE
330
F43
100
AcDbSymbolTableRecord
100
AcDbRegAppTableRecord
  2
GENIUS_GENHATCH_13
 70
     0
  0
APPID
  5
FAF
330
F43
100
AcDbSymbolTableRecord
100
AcDbRegAppTableRecord
  2
GEVID847791359
 70
     0
  0
APPID
  5
103F
330
F43
100
AcDbSymbolTableRecord
100
AcDbRegAppTableRecord
  2
MCAD_NO_VIS
 70
     0
  0
APPID
  5
1040
330
F43
100
AcDbSymbolTableRecord
100
AcDbRegAppTableRecord
  2
ACAD_TEMP_GRAPHIC
 70
     0
  0
APPID
  5
1070
330
F43
100
AcDbSymbolTableRecord
100
AcDbRegAppTableRecord
  2
AD_DRAW
 70
     0
  0
APPID
  5
1073
330
F43
100
AcDbSymbolTableRecord
100
AcDbRegAppTableRecord
  2
ACATTRIBSERVICES
 70
     0
  0
APPID
  5
1093
330
F43
100
AcDbSymbolTableRecord
100
AcDbRegAppTableRecord
  2
DESIGNERASSEMBLIES
 70
     0
  0
APPID
  5
1099
330
F43
100
AcDbSymbolTableRecord
100
AcDbRegAppTableRecord
  2
ACADM_DIM_EDIT
 70
     0
  0
APPID
  5
109A
330
F43
100
AcDbSymbolTableRecord
100
AcDbRegAppTableRecord
  2
AMDT_DM_ADJ
 70
     0
  0
APPID
  5
10CC
330
F43
100
AcDbSymbolTableRecord
100
AcDbRegAppTableRecord
  2
ACAD_DSTYLE_DIMARC_LENGTH_SYMBOL
 70
     0
  0
APPID
  5
10CD
330
F43
100
AcDbSymbolTableRecord
100
AcDbRegAppTableRecord
  2
ACAD_DSTYLE_DIMJOGGED_JOGANGLE_SYMBOL
 70
     0
  0
APPID
  5
1100
330
F43
100
AcDbSymbolTableRecord
100
AcDbRegAppTableRecord
  2
GENIUS_GENSCREG_15
 70
     0
  0
ENDTAB
  0
TABLE
  2
DIMSTYLE
  5
F44
330
0
100
AcDbSymbolTable
 70
    10
100
AcDbDimStyleTable
 71
     0
  0
DIMSTYLE
105
FB0
330
F44
100
AcDbSymbolTableRecord
100
AcDbDimStyleTableRecord
  2
STANDARD
 70
     0
271
     2
272
     2
284
     8
285
     8
286
     8
340
F49
  0
DIMSTYLE
105
FB1
102
{ACAD_REACTORS
330
667
330
6B1
330
6E3
330
754
330
855
330
897
330
8CA
102
}
330
F44
100
AcDbSymbolTableRecord
100
AcDbDimStyleTableRecord
  2
GEN-ISO
 70
     0
  3
<>
 40
4.5
 41
2.5
 42
1.0
 43
7.0
 44
1.0
 47
0.1
 48
0.1
 73
     0
 74
     0
 77
     1
 78
     8
140
3.5
141
0.0
143
0.03937
146
0.71
147
0.6
172
     1
176
   256
177
   256
178
     2
271
     2
272
     2
284
     8
285
     8
286
     8
340
F49
  0
DIMSTYLE
105
FDC
330
F44
100
AcDbSymbolTableRecord
100
AcDbDimStyleTableRecord
  2
ISO-25
 70
     0
 41
2.5
 42
0.625
 43
3.75
 44
1.25
 74
     0
 77
     1
 78
     8
140
2.5
141
2.5
143
0.0394
145
1.0
147
0.625
172
     1
340
F49
  0
DIMSTYLE
105
10CB
330
F44
100
AcDbSymbolTableRecord
100
AcDbDimStyleTableRecord
  2
AM_DIN
 70
     0
  4
"
 41
2.5
 42
1.0
 43
10.0
 44
1.0
 47
0.1
 48
0.1
 73
     0
 74
     0
 77
     1
 78
     8
 79
     2
140
3.5
141
0.0
143
0.0393701
146
0.71
147
1.5
172
     1
176
   256
177
   256
178
     2
271
     2
272
     3
274
     4
283
     0
284
     8
340
F49
371
    -1
372
    -1
1001
ACAD_DSTYLE_DIMARC_LENGTH_SYMBOL
1070
   379
1070
     0
1001
ACAD_DSTYLE_DIMJOGGED_JOGANGLE_SYMBOL
1070
   384
1040
1.570796326794896
  0
DIMSTYLE
105
10DC
330
F44
100
AcDbSymbolTableRecord
100
AcDbDimStyleTableRecord
  2
AM_DIN$3
 70
     0
  4
"
 41
2.5
 42
1.0
 43
10.0
 44
1.0
 47
0.1
 48
0.1
 73
     0
 77
     1
 78
     8
 79
     2
140
3.5
141
0.0
143
0.0393701
146
0.71
147
1.5
176
   256
177
   256
178
     2
271
     2
272
     3
274
     4
283
     0
284
     8
288
     1
289
     0
340
F49
371
    -1
372
    -1
1001
ACAD_DSTYLE_DIMARC_LENGTH_SYMBOL
1070
   379
1070
     0
1001
ACAD_DSTYLE_DIMJOGGED_JOGANGLE_SYMBOL
1070
   384
1040
1.570796326794896
  0
DIMSTYLE
105
10E1
330
F44
100
AcDbSymbolTableRecord
100
AcDbDimStyleTableRecord
  2
AM_DIN$4
 70
     0
  4
"
 41
2.5
 42
1.0
 43
10.0
 44
1.0
 47
0.1
 48
0.1
 73
     0
 77
     1
 78
     8
 79
     2
140
3.5
141
0.0
143
0.0393701
146
0.71
147
1.5
176
   256
177
   256
178
     2
271
     2
272
     3
274
     4
283
     0
284
     8
288
     1
289
     0
340
F49
371
    -1
372
    -1
1001
ACAD_DSTYLE_DIMARC_LENGTH_SYMBOL
1070
   379
1070
     0
1001
ACAD_DSTYLE_DIMJOGGED_JOGANGLE_SYMBOL
1070
   384
1040
1.570796326794896
  0
DIMSTYLE
105
10E6
330
F44
100
AcDbSymbolTableRecord
100
AcDbDimStyleTableRecord
  2
AM_DIN$6
 70
     0
  4
"
 41
2.5
 42
1.0
 43
10.0
 44
1.0
 47
0.1
 48
0.1
 73
     0
 74
     0
 78
     8
 79
     2
140
3.5
141
0.0
143
0.0393701
146
0.71
147
1.5
172
     1
176
   256
177
   256
178
     2
271
     2
272
     3
274
     4
283
     0
284
     8
340
F49
371
    -1
372
    -1
1001
ACAD_DSTYLE_DIMARC_LENGTH_SYMBOL
1070
   379
1070
     0
1001
ACAD_DSTYLE_DIMJOGGED_JOGANGLE_SYMBOL
1070
   384
1040
1.570796326794896
  0
DIMSTYLE
105
10EB
330
F44
100
AcDbSymbolTableRecord
100
AcDbDimStyleTableRecord
  2
AM_DIN$7
 70
     0
  4
"
 41
2.5
 42
1.0
 43
10.0
 44
1.0
 47
0.1
 48
0.1
 73
     0
 74
     0
 77
     1
 78
     8
 79
     2
140
5.0
141
0.0
143
0.0393701
146
0.71
147
1.5
172
     1
176
   256
177
   256
178
     2
271
     2
272
     3
274
     4
283
     0
284
     8
340
F49
371
    -1
372
    -1
1001
ACAD_DSTYLE_DIMARC_LENGTH_SYMBOL
1070
   379
1070
     0
1001
ACAD_DSTYLE_DIMJOGGED_JOGANGLE_SYMBOL
1070
   384
1040
1.570796326794896
  0
DIMSTYLE
105
10F0
330
F44
100
AcDbSymbolTableRecord
100
AcDbDimStyleTableRecord
  2
AM_DIN$SF
 70
     0
  4
"
 41
2.5
 42
1.0
 43
10.0
 44
1.0
 47
0.1
 48
0.1
 73
     0
 74
     0
 75
     1
 76
     1
 77
     1
 78
     8
 79
     2
140
3.5
141
0.0
143
0.0393701
146
0.71
147
1.5
172
     1
176
   256
177
   256
178
     2
271
     2
272
     3
274
     4
283
     0
284
     8
340
F49
371
    -1
372
    -1
1001
ACAD_DSTYLE_DIMARC_LENGTH_SYMBOL
1070
   379
1070
     0
1001
ACAD_DSTYLE_DIMJOGGED_JOGANGLE_SYMBOL
1070
   384
1040
1.570796326794896
  0
DIMSTYLE
105
10F9
330
F44
100
AcDbSymbolTableRecord
100
AcDbDimStyleTableRecord
  2
AM_DIN$SH
 70
     0
  4
"
 41
2.5
 42
1.0
 43
10.0
 44
1.0
 47
0.1
 48
0.1
 73
     0
 74
     0
 75
     1
 76
     1
 77
     1
 78
     8
 79
     2
140
3.5
141
0.0
143
0.0393701
144
2.0
146
0.71
147
1.5
172
     1
173
     1
176
   256
177
   256
178
     2
271
     2
272
     3
274
     4
283
     0
284
     8
340
F49
343
10F1
371
    -1
372
    -1
1001
ACAD_DSTYLE_DIMARC_LENGTH_SYMBOL
1070
   379
1070
     0
1001
ACAD_DSTYLE_DIMJOGGED_JOGANGLE_SYMBOL
1070
   384
1040
1.570796326794896
  0
ENDTAB
  0
TABLE
  2
BLOCK_RECORD
  5
F3B
330
0
100
AcDbSymbolTable
 70
    33
  0
BLOCK_RECORD
  5
F51
330
F3B
100
AcDbSymbolTableRecord
100
AcDbBlockTableRecord
  2
*MODEL_SPACE
340
1037
  0
BLOCK_RECORD
  5
F4E
330
F3B
100
AcDbSymbolTableRecord
100
AcDbBlockTableRecord
  2
*PAPER_SPACE
340
1038
  0
BLOCK_RECORD
  5
F58
330
F3B
100
AcDbSymbolTableRecord
100
AcDbBlockTableRecord
  2
*D0
340
0
  0
BLOCK_RECORD
  5
F59
330
F3B
100
AcDbSymbolTableRecord
100
AcDbBlockTableRecord
  2
*D1
340
0
  0
BLOCK_RECORD
  5
F5A
330
F3B
100
AcDbSymbolTableRecord
100
AcDbBlockTableRecord
  2
*D2
340
0
  0
BLOCK_RECORD
  5
F5B
330
F3B
100
AcDbSymbolTableRecord
100
AcDbBlockTableRecord
  2
*D3
340
0
  0
BLOCK_RECORD
  5
F5C
330
F3B
100
AcDbSymbolTableRecord
100
AcDbBlockTableRecord
  2
*D4
340
0
  0
BLOCK_RECORD
  5
F5D
330
F3B
100
AcDbSymbolTableRecord
100
AcDbBlockTableRecord
  2
*D5
340
0
  0
BLOCK_RECORD
  5
F5E
330
F3B
100
AcDbSymbolTableRecord
100
AcDbBlockTableRecord
  2
*D6
340
0
  0
BLOCK_RECORD
  5
F5F
330
F3B
100
AcDbSymbolTableRecord
100
AcDbBlockTableRecord
  2
*D7
340
0
  0
BLOCK_RECORD
  5
F60
330
F3B
100
AcDbSymbolTableRecord
100
AcDbBlockTableRecord
  2
*X8
340
0
102
{BLKREFS
331
9C6
102
}
  0
BLOCK_RECORD
  5
F61
330
F3B
100
AcDbSymbolTableRecord
100
AcDbBlockTableRecord
  2
*X9
340
0
102
{BLKREFS
331
A33
102
}
  0
BLOCK_RECORD
  5
F62
330
F3B
100
AcDbSymbolTableRecord
100
AcDbBlockTableRecord
  2
*X10
340
0
102
{BLKREFS
331
A78
102
}
  0
BLOCK_RECORD
  5
F63
330
F3B
100
AcDbSymbolTableRecord
100
AcDbBlockTableRecord
  2
*X11
340
0
102
{BLKREFS
331
F27
102
}
  0
BLOCK_RECORD
  5
F64
330
F3B
100
AcDbSymbolTableRecord
100
AcDbBlockTableRecord
  2
*X12
340
0
102
{BLKREFS
331
F1F
102
}
  0
BLOCK_RECORD
  5
F65
330
F3B
100
AcDbSymbolTableRecord
100
AcDbBlockTableRecord
  2
*X13
340
0
102
{BLKREFS
331
C31
102
}
  0
BLOCK_RECORD
  5
F66
330
F3B
100
AcDbSymbolTableRecord
100
AcDbBlockTableRecord
  2
*X14
340
0
102
{BLKREFS
331
CCA
102
}
  0
BLOCK_RECORD
  5
F67
330
F3B
100
AcDbSymbolTableRecord
100
AcDbBlockTableRecord
  2
*X15
340
0
102
{BLKREFS
331
D16
102
}
  0
BLOCK_RECORD
  5
F68
330
F3B
100
AcDbSymbolTableRecord
100
AcDbBlockTableRecord
  2
*X16
340
0
102
{BLKREFS
331
D62
102
}
  0
BLOCK_RECORD
  5
F69
330
F3B
100
AcDbSymbolTableRecord
100
AcDbBlockTableRecord
  2
*X17
340
0
102
{BLKREFS
331
DAF
102
}
  0
BLOCK_RECORD
  5
F6A
330
F3B
100
AcDbSymbolTableRecord
100
AcDbBlockTableRecord
  2
*X18
340
0
102
{BLKREFS
331
DFB
102
}
  0
BLOCK_RECORD
  5
F6B
330
F3B
100
AcDbSymbolTableRecord
100
AcDbBlockTableRecord
  2
*X19
340
0
102
{BLKREFS
331
E47
102
}
  0
BLOCK_RECORD
  5
F6C
330
F3B
100
AcDbSymbolTableRecord
100
AcDbBlockTableRecord
  2
*X20
340
0
102
{BLKREFS
331
E94
102
}
  0
BLOCK_RECORD
  5
F6D
330
F3B
100
AcDbSymbolTableRecord
100
AcDbBlockTableRecord
  2
*X21
340
0
102
{BLKREFS
331
EE0
102
}
  0
BLOCK_RECORD
  5
F71
330
F3B
100
AcDbSymbolTableRecord
100
AcDbBlockTableRecord
  2
*U22
340
0
102
{BLKREFS
331
F0E
102
}
  0
BLOCK_RECORD
  5
F72
330
F3B
100
AcDbSymbolTableRecord
100
AcDbBlockTableRecord
  2
*U23
340
0
102
{BLKREFS
331
F15
102
}
  0
BLOCK_RECORD
  5
F73
330
F3B
100
AcDbSymbolTableRecord
100
AcDbBlockTableRecord
  2
*U24
340
0
102
{BLKREFS
331
B56
102
}
  0
BLOCK_RECORD
  5
F74
330
F3B
100
AcDbSymbolTableRecord
100
AcDbBlockTableRecord
  2
*U25
340
0
102
{BLKREFS
331
A92
102
}
  0
BLOCK_RECORD
  5
FD9
330
F3B
100
AcDbSymbolTableRecord
100
AcDbBlockTableRecord
  2
GEVCON
340
0
  0
BLOCK_RECORD
  5
FDD
330
F3B
100
AcDbSymbolTableRecord
100
AcDbBlockTableRecord
  2
GEVEP
340
0
  0
BLOCK_RECORD
  5
FE6
330
F3B
100
AcDbSymbolTableRecord
100
AcDbBlockTableRecord
  2
GEVFRAME
340
0
  0
BLOCK_RECORD
  5
FF4
330
F3B
100
AcDbSymbolTableRecord
100
AcDbBlockTableRecord
  2
*D29
340
0
  0
BLOCK_RECORD
  5
100F
330
F3B
100
AcDbSymbolTableRecord
100
AcDbBlockTableRecord
  2
*D30
340
0
  0
BLOCK_RECORD
  5
10F1
330
F3B
100
AcDbSymbolTableRecord
100
AcDbBlockTableRecord
  2
GENAXEH
340
0
  0
ENDTAB
  0
ENDSEC
  0
SECTION
  2
BLOCKS
  0
BLOCK
  5
FD0
330
F51
100
AcDbEntity
  8
0
100
AcDbBlockBegin
  2
*MODEL_SPACE
 70
     0
 10
0.0
 20
0.0
 30
0.0
  3
*MODEL_SPACE
  1

  0
ENDBLK
  5
FD1
330
F51
100
AcDbEntity
  8
0
100
AcDbBlockEnd
  0
BLOCK
  5
FCE
330
F4E
100
AcDbEntity
 67
     1
  8
0
100
AcDbBlockBegin
  2
*PAPER_SPACE
 70
     0
 10
0.0
 20
0.0
 30
0.0
  3
*PAPER_SPACE
  1

  0
ENDBLK
  5
FCF
330
F4E
100
AcDbEntity
 67
     1
  8
0
100
AcDbBlockEnd
  0
BLOCK
  5
AD0
330
F58
100
AcDbEntity
  8
0
100
AcDbBlockBegin
  2
*D0
 70
     1
 10
0.0
 20
0.0
 30
0.0
  3
*D0
  1
GEVFRAME
  0
LINE
  5
AD1
330
F58
100
AcDbEntity
  8
0
  6
ByBlock
100
AcDbLine
 10
301.076656
 20
469.8563309999999
 30
0.0
 11
318.273153
 21
469.8563309999999
 31
0.0
  0
LINE
  5
AD2
330
F58
100
AcDbEntity
  8
0
  6
ByBlock
100
AcDbLine
 10
340.547952
 20
529.856994
 30
0.0
 11
309.273153
 21
529.856994
 31
0.0
  0
LINE
  5
AD3
330
F58
100
AcDbEntity
  8
0
  6
ByBlock
100
AcDbLine
 10
313.773153
 20
518.606994
 30
0.0
 11
313.773153
 21
481.1063309999999
 31
0.0
  0
LINE
  5
AD4
330
F58
100
AcDbEntity
  8
0
  6
ByBlock
100
AcDbLine
 10
313.773153
 20
469.8563309999999
 30
0.0
 11
313.773153
 21
443.2493749999999
 31
0.0
  0
SOLID
  5
AD5
330
F58
100
AcDbEntity
  8
0
  6
ByBlock
100
AcDbTrace
 10
311.898153
 20
518.606994
 30
0.0
 11
315.648153
 21
518.606994
 31
0.0
 12
313.773153
 22
529.856994
 32
0.0
 13
313.773153
 23
529.856994
 33
0.0
  0
SOLID
  5
AD6
330
F58
100
AcDbEntity
  8
0
  6
ByBlock
100
AcDbTrace
 10
311.898153
 20
481.1063309999999
 30
0.0
 11
315.648153
 21
481.1063309999999
 31
0.0
 12
313.773153
 22
469.8563309999999
 32
0.0
 13
313.773153
 23
469.8563309999999
 33
0.0
  0
TEXT
  5
AD7
330
F58
100
AcDbEntity
  8
0
  6
ByBlock
 62
     2
100
AcDbText
 10
311.073153
 20
444.064336
 30
0.0
 40
15.75
  1
60
 50
90.0
100
AcDbText
  0
POINT
  5
AD8
330
F58
100
AcDbEntity
  8
DEFPOINTS
  6
ByBlock
 62
     0
100
AcDbPoint
 10
296.576656
 20
469.8563309999999
 30
0.0
  0
POINT
  5
AD9
330
F58
100
AcDbEntity
  8
DEFPOINTS
  6
ByBlock
 62
     0
100
AcDbPoint
 10
345.047952
 20
529.856994
 30
0.0
  0
POINT
  5
ADA
330
F58
100
AcDbEntity
  8
DEFPOINTS
  6
ByBlock
 62
     0
100
AcDbPoint
 10
313.773153
 20
529.856994
 30
0.0
  0
ENDBLK
  5
ADB
330
F58
100
AcDbEntity
  8
0
100
AcDbBlockEnd
  0
BLOCK
  5
668
330
F59
100
AcDbEntity
  8
0
100
AcDbBlockBegin
  2
*D1
 70
     1
 10
0.0
 20
0.0
 30
0.0
  3
*D1
  1
GEVFRAME
  0
LINE
  5
669
330
F59
100
AcDbEntity
  8
0
  6
ByBlock
100
AcDbLine
 10
149.59102
 20
599.271608
 30
0.0
 11
92.75562499999999
 21
599.271608
 31
0.0
  0
LINE
  5
66A
330
F59
100
AcDbEntity
  8
0
  6
ByBlock
100
AcDbLine
 10
177.198023
 20
429.2716079999999
 30
0.0
 11
92.75562499999999
 21
429.2716079999999
 31
0.0
  0
LINE
  5
66B
330
F59
100
AcDbEntity
  8
0
  6
ByBlock
100
AcDbLine
 10
97.255625
 20
588.021608
 30
0.0
 11
97.255625
 21
440.521608
 31
0.0
  0
SOLID
  5
66C
330
F59
100
AcDbEntity
  8
0
  6
ByBlock
100
AcDbTrace
 10
95.380625
 20
588.021608
 30
0.0
 11
99.130625
 21
588.021608
 31
0.0
 12
97.255625
 22
599.271608
 32
0.0
 13
97.255625
 23
599.271608
 33
0.0
  0
SOLID
  5
66D
330
F59
100
AcDbEntity
  8
0
  6
ByBlock
100
AcDbTrace
 10
95.380625
 20
440.521608
 30
0.0
 11
99.130625
 21
440.521608
 31
0.0
 12
97.255625
 22
429.2716079999999
 32
0.0
 13
97.255625
 23
429.2716079999999
 33
0.0
  0
TEXT
  5
66E
330
F59
100
AcDbEntity
  8
0
  6
ByBlock
 62
     2
100
AcDbText
 10
94.555625
 20
499.302907
 30
0.0
 40
15.75
  1
170
 50
90.0
100
AcDbText
  0
POINT
  5
66F
330
F59
100
AcDbEntity
  8
DEFPOINTS
  6
ByBlock
 62
     0
100
AcDbPoint
 10
154.09102
 20
599.271608
 30
0.0
  0
POINT
  5
670
330
F59
100
AcDbEntity
  8
DEFPOINTS
  6
ByBlock
 62
     0
100
AcDbPoint
 10
181.698023
 20
429.2716079999999
 30
0.0
  0
POINT
  5
671
330
F59
100
AcDbEntity
  8
DEFPOINTS
  6
ByBlock
 62
     0
100
AcDbPoint
 10
97.255625
 20
429.2716079999999
 30
0.0
  0
ENDBLK
  5
672
330
F59
100
AcDbEntity
  8
0
100
AcDbBlockEnd
  0
BLOCK
  5
798
330
F5A
100
AcDbEntity
  8
0
100
AcDbBlockBegin
  2
*D2
 70
     1
 10
0.0
 20
0.0
 30
0.0
  3
*D2
  1
GEVFRAME
  0
LINE
  5
799
330
F5A
100
AcDbEntity
  8
0
  6
ByBlock
100
AcDbLine
 10
349.302594
 20
599.271608
 30
0.0
 11
546.805504
 21
599.271608
 31
0.0
  0
LINE
  5
79A
330
F5A
100
AcDbEntity
  8
0
  6
ByBlock
100
AcDbLine
 10
495.2468219999999
 20
494.253811
 30
0.0
 11
546.805504
 21
494.253811
 31
0.0
  0
LINE
  5
79B
330
F5A
100
AcDbEntity
  8
0
  6
ByBlock
100
AcDbLine
 10
542.305504
 20
588.021608
 30
0.0
 11
542.305504
 21
505.503811
 31
0.0
  0
SOLID
  5
79C
330
F5A
100
AcDbEntity
  8
0
  6
ByBlock
100
AcDbTrace
 10
540.430504
 20
588.021608
 30
0.0
 11
544.180504
 21
588.021608
 31
0.0
 12
542.305504
 22
599.271608
 32
0.0
 13
542.305504
 23
599.271608
 33
0.0
  0
SOLID
  5
79D
330
F5A
100
AcDbEntity
  8
0
  6
ByBlock
100
AcDbTrace
 10
540.430504
 20
505.503811
 30
0.0
 11
544.180504
 21
505.503811
 31
0.0
 12
542.305504
 22
494.253811
 32
0.0
 13
542.305504
 23
494.253811
 33
0.0
  0
TEXT
  5
79E
330
F5A
100
AcDbEntity
  8
0
  6
ByBlock
 62
     2
100
AcDbText
 10
539.605504
 20
542.0377099999999
 30
0.0
 40
15.75
  1
f
 50
90.0
100
AcDbText
  0
POINT
  5
79F
330
F5A
100
AcDbEntity
  8
DEFPOINTS
  6
ByBlock
 62
     0
100
AcDbPoint
 10
344.802594
 20
599.271608
 30
0.0
  0
POINT
  5
7A0
330
F5A
100
AcDbEntity
  8
DEFPOINTS
  6
ByBlock
 62
     0
100
AcDbPoint
 10
490.7468219999999
 20
494.253811
 30
0.0
  0
POINT
  5
7A1
330
F5A
100
AcDbEntity
  8
DEFPOINTS
  6
ByBlock
 62
     0
100
AcDbPoint
 10
542.305504
 20
494.253811
 30
0.0
  0
ENDBLK
  5
7A2
330
F5A
100
AcDbEntity
  8
0
100
AcDbBlockEnd
  0
BLOCK
  5
6FA
330
F5B
100
AcDbEntity
  8
0
100
AcDbBlockBegin
  2
*D3
 70
     1
 10
0.0
 20
0.0
 30
0.0
  3
*D3
  1
GEVFRAME
  0
LINE
  5
6FB
330
F5B
100
AcDbEntity
  8
0
  6
ByBlock
100
AcDbLine
 10
249.446807
 20
424.771608
 30
0.0
 11
249.446807
 21
379.771608
 31
0.0
  0
LINE
  5
6FC
330
F5B
100
AcDbEntity
  8
0
  6
ByBlock
100
AcDbLine
 10
490.7468219999999
 20
489.753811
 30
0.0
 11
490.7468219999999
 21
379.771608
 31
0.0
  0
LINE
  5
6FD
330
F5B
100
AcDbEntity
  8
0
  6
ByBlock
100
AcDbLine
 10
260.696807
 20
384.271608
 30
0.0
 11
479.4968219999999
 21
384.271608
 31
0.0
  0
SOLID
  5
6FE
330
F5B
100
AcDbEntity
  8
0
  6
ByBlock
100
AcDbTrace
 10
260.696807
 20
386.146608
 30
0.0
 11
260.696807
 21
382.396608
 31
0.0
 12
249.446807
 22
384.271608
 32
0.0
 13
249.446807
 23
384.271608
 33
0.0
  0
SOLID
  5
6FF
330
F5B
100
AcDbEntity
  8
0
  6
ByBlock
100
AcDbTrace
 10
479.4968219999999
 20
386.146608
 30
0.0
 11
479.4968219999999
 21
382.396608
 31
0.0
 12
490.7468219999999
 22
384.271608
 32
0.0
 13
490.7468219999999
 23
384.271608
 33
0.0
  0
TEXT
  5
700
330
F5B
100
AcDbEntity
  8
0
  6
ByBlock
 62
     2
100
AcDbText
 10
364.584314
 20
386.971608
 30
0.0
 40
15.75
  1
L
100
AcDbText
  0
POINT
  5
701
330
F5B
100
AcDbEntity
  8
DEFPOINTS
  6
ByBlock
 62
     0
100
AcDbPoint
 10
249.446807
 20
429.2716079999999
 30
0.0
  0
POINT
  5
702
330
F5B
100
AcDbEntity
  8
DEFPOINTS
  6
ByBlock
 62
     0
100
AcDbPoint
 10
490.7468219999999
 20
494.253811
 30
0.0
  0
POINT
  5
703
330
F5B
100
AcDbEntity
  8
DEFPOINTS
  6
ByBlock
 62
     0
100
AcDbPoint
 10
490.7468219999999
 20
384.271608
 30
0.0
  0
ENDBLK
  5
704
330
F5B
100
AcDbEntity
  8
0
100
AcDbBlockEnd
  0
BLOCK
  5
773
330
F5C
100
AcDbEntity
  8
0
100
AcDbBlockBegin
  2
*D4
 70
     1
 10
0.0
 20
0.0
 30
0.0
  3
*D4
  1
GEVFRAME
  0
LINE
  5
774
330
F5C
100
AcDbEntity
  8
0
  6
ByBlock
100
AcDbLine
 10
518.651381
 20
492.247032
 30
0.0
 11
535.9807319999999
 21
491.7932469999999
 31
0.0
  0
LINE
  5
775
330
F5C
100
AcDbEntity
  8
0
  6
ByBlock
100
AcDbLine
 10
521.994894
 20
494.2746019999999
 30
0.0
 11
536.012508
 21
494.283929
 31
0.0
  0
ARC
  5
776
330
F5C
100
AcDbEntity
  8
0
  6
ByBlock
100
AcDbCircle
 10
443.2231159999999
 20
494.2221899999999
 30
0.0
 40
88.289413
100
AcDbArc
 50
343.888636
 51
351.194318
  0
ARC
  5
777
330
F5C
100
AcDbEntity
  8
0
  6
ByBlock
100
AcDbCircle
 10
443.2231159999999
 20
494.2221899999999
 30
0.0
 40
88.289413
100
AcDbArc
 50
7.343805
 51
14.649487
  0
ARC
  5
778
330
F5C
100
AcDbEntity
  8
0
  6
ByBlock
100
AcDbCircle
 10
443.2231159999999
 20
494.2221899999999
 30
0.0
 40
88.289413
100
AcDbArc
 50
358.5
 51
0.038123
  0
SOLID
  5
779
330
F5C
100
AcDbEntity
  8
0
  6
ByBlock
100
AcDbTrace
 10
528.604457
 20
480.874907
 30
0.0
 11
532.339302
 21
480.538109
 31
0.0
 12
531.4822740000001
 22
491.9110429999999
 32
0.0
 13
531.4822740000001
 23
491.9110429999999
 33
0.0
  0
SOLID
  5
77A
330
F5C
100
AcDbEntity
  8
0
  6
ByBlock
100
AcDbTrace
 10
532.6594019999999
 20
505.628303
 30
0.0
 11
528.91718
 21
505.3868969999999
 31
0.0
 12
531.512509
 22
494.2809349999999
 32
0.0
 13
531.512509
 23
494.2809349999999
 33
0.0
  0
TEXT
  5
77B
330
F5C
100
AcDbEntity
  8
0
  6
ByBlock
 62
     2
100
AcDbText
 10
519.0661159999999
 20
452.740449
 30
0.0
 40
15.75
  1
1.5
 50
69.39601
100
AcDbText
  0
POINT
  5
77C
330
F5C
100
AcDbEntity
  8
DEFPOINTS
  6
ByBlock
 62
     0
100
AcDbPoint
 10
531.5095
 20
493.490891
 30
0.0
  0
POINT
  5
77D
330
F5C
100
AcDbEntity
  8
DEFPOINTS
  6
ByBlock
 62
     0
100
AcDbPoint
 10
517.494895
 20
494.271608
 30
0.0
  0
POINT
  5
77E
330
F5C
100
AcDbEntity
  8
DEFPOINTS
  6
ByBlock
 62
     0
100
AcDbPoint
 10
444.17691
 20
494.1972139999999
 30
0.0
  0
POINT
  5
77F
330
F5C
100
AcDbEntity
  8
DEFPOINTS
  6
ByBlock
 62
     0
100
AcDbPoint
 10
514.1529230000001
 20
492.364828
 30
0.0
  0
POINT
  5
780
330
F5C
100
AcDbEntity
  8
DEFPOINTS
  6
ByBlock
 62
     0
100
AcDbPoint
 10
414.923526
 20
494.203361
 30
0.0
  0
ENDBLK
  5
781
330
F5C
100
AcDbEntity
  8
0
100
AcDbBlockEnd
  0
BLOCK
  5
8AD
330
F5D
100
AcDbEntity
  8
0
100
AcDbBlockBegin
  2
*D5
 70
     1
 10
0.0
 20
0.0
 30
0.0
  3
*D5
  1
GEVFRAME
  0
LINE
  5
8AE
330
F5D
100
AcDbEntity
  8
0
  6
ByBlock
100
AcDbLine
 10
353.08067
 20
126.077945
 30
0.0
 11
353.08067
 21
52.092202
 31
0.0
  0
LINE
  5
8AF
330
F5D
100
AcDbEntity
  8
0
  6
ByBlock
100
AcDbLine
 10
153.08067
 20
126.077945
 30
0.0
 11
153.08067
 21
52.092202
 31
0.0
  0
LINE
  5
8B0
330
F5D
100
AcDbEntity
  8
0
  6
ByBlock
100
AcDbLine
 10
341.83067
 20
56.592202
 30
0.0
 11
164.33067
 21
56.592202
 31
0.0
  0
SOLID
  5
8B1
330
F5D
100
AcDbEntity
  8
0
  6
ByBlock
100
AcDbTrace
 10
341.83067
 20
58.467202
 30
0.0
 11
341.83067
 21
54.717202
 31
0.0
 12
353.08067
 22
56.592202
 32
0.0
 13
353.08067
 23
56.592202
 33
0.0
  0
SOLID
  5
8B2
330
F5D
100
AcDbEntity
  8
0
  6
ByBlock
100
AcDbTrace
 10
164.33067
 20
58.467202
 30
0.0
 11
164.33067
 21
54.717202
 31
0.0
 12
153.08067
 22
56.592202
 32
0.0
 13
153.08067
 23
56.592202
 33
0.0
  0
TEXT
  5
8B3
330
F5D
100
AcDbEntity
  8
0
  6
ByBlock
 62
     2
100
AcDbText
 10
236.736944
 20
59.290652
 30
0.0
 40
15.75
  1
200
100
AcDbText
  0
POINT
  5
8B4
330
F5D
100
AcDbEntity
  8
DEFPOINTS
  6
ByBlock
 62
     0
100
AcDbPoint
 10
353.08067
 20
130.577945
 30
0.0
  0
POINT
  5
8B5
330
F5D
100
AcDbEntity
  8
DEFPOINTS
  6
ByBlock
 62
     0
100
AcDbPoint
 10
153.08067
 20
130.577945
 30
0.0
  0
POINT
  5
8B6
330
F5D
100
AcDbEntity
  8
DEFPOINTS
  6
ByBlock
 62
     0
100
AcDbPoint
 10
153.08067
 20
56.592202
 30
0.0
  0
ENDBLK
  5
8B7
330
F5D
100
AcDbEntity
  8
0
100
AcDbBlockEnd
  0
BLOCK
  5
898
330
F5E
100
AcDbEntity
  8
0
100
AcDbBlockBegin
  2
*D6
 70
     1
 10
0.0
 20
0.0
 30
0.0
  3
*D6
  1
GEVFRAME
  0
LINE
  5
899
330
F5E
100
AcDbEntity
  8
0
  6
ByBlock
100
AcDbLine
 10
148.58067
 20
130.577945
 30
0.0
 11
109.911679
 21
130.577945
 31
0.0
  0
LINE
  5
89A
330
F5E
100
AcDbEntity
  8
0
  6
ByBlock
100
AcDbLine
 10
148.58067
 20
330.577945
 30
0.0
 11
109.911679
 21
330.577945
 31
0.0
  0
LINE
  5
89B
330
F5E
100
AcDbEntity
  8
0
  6
ByBlock
100
AcDbLine
 10
114.411679
 20
141.827945
 30
0.0
 11
114.411679
 21
319.327945
 31
0.0
  0
SOLID
  5
89C
330
F5E
100
AcDbEntity
  8
0
  6
ByBlock
100
AcDbTrace
 10
112.536679
 20
141.827945
 30
0.0
 11
116.286679
 21
141.827945
 31
0.0
 12
114.411679
 22
130.577945
 32
0.0
 13
114.411679
 23
130.577945
 33
0.0
  0
SOLID
  5
89D
330
F5E
100
AcDbEntity
  8
0
  6
ByBlock
100
AcDbTrace
 10
112.536679
 20
319.327945
 30
0.0
 11
116.286679
 21
319.327945
 31
0.0
 12
114.411679
 22
330.577945
 32
0.0
 13
114.411679
 23
330.577945
 33
0.0
  0
TEXT
  5
89E
330
F5E
100
AcDbEntity
  8
0
  6
ByBlock
 62
     2
100
AcDbText
 10
111.713229
 20
214.23422
 30
0.0
 40
15.75
  1
200
 50
90.0
100
AcDbText
  0
POINT
  5
89F
330
F5E
100
AcDbEntity
  8
DEFPOINTS
  6
ByBlock
 62
     0
100
AcDbPoint
 10
153.08067
 20
130.577945
 30
0.0
  0
POINT
  5
8A0
330
F5E
100
AcDbEntity
  8
DEFPOINTS
  6
ByBlock
 62
     0
100
AcDbPoint
 10
153.08067
 20
330.577945
 30
0.0
  0
POINT
  5
8A1
330
F5E
100
AcDbEntity
  8
DEFPOINTS
  6
ByBlock
 62
     0
100
AcDbPoint
 10
114.411679
 20
330.577945
 30
0.0
  0
ENDBLK
  5
8A2
330
F5E
100
AcDbEntity
  8
0
100
AcDbBlockEnd
  0
BLOCK
  5
8E6
330
F5F
100
AcDbEntity
  8
0
100
AcDbBlockBegin
  2
*D7
 70
     1
 10
0.0
 20
0.0
 30
0.0
  3
*D7
  1
GEVFRAME
  0
LINE
  5
8E7
330
F5F
100
AcDbEntity
  8
0
  6
ByBlock
100
AcDbLine
 10
298.598252
 20
151.423815
 30
0.0
 11
298.598252
 21
86.31754800000001
 31
0.0
  0
LINE
  5
8E8
330
F5F
100
AcDbEntity
  8
0
  6
ByBlock
100
AcDbLine
 10
308.598252
 20
151.423815
 30
0.0
 11
308.598252
 21
86.31754800000001
 31
0.0
  0
LINE
  5
8E9
330
F5F
100
AcDbEntity
  8
0
  6
ByBlock
100
AcDbLine
 10
319.848252
 20
90.817548
 30
0.0
 11
331.098252
 21
90.817548
 31
0.0
  0
LINE
  5
8EA
330
F5F
100
AcDbEntity
  8
0
  6
ByBlock
100
AcDbLine
 10
287.348252
 20
90.817548
 30
0.0
 11
265.048449
 21
90.817548
 31
0.0
  0
LINE
  5
8EB
330
F5F
100
AcDbEntity
  8
0
  6
ByBlock
100
AcDbLine
 10
308.598252
 20
90.817548
 30
0.0
 11
298.598252
 21
90.817548
 31
0.0
  0
SOLID
  5
8EC
330
F5F
100
AcDbEntity
  8
0
  6
ByBlock
100
AcDbTrace
 10
319.848252
 20
92.692548
 30
0.0
 11
319.848252
 21
88.942548
 31
0.0
 12
308.598252
 22
90.817548
 32
0.0
 13
308.598252
 23
90.817548
 33
0.0
  0
SOLID
  5
8ED
330
F5F
100
AcDbEntity
  8
0
  6
ByBlock
100
AcDbTrace
 10
287.348252
 20
92.692548
 30
0.0
 11
287.348252
 21
88.942548
 31
0.0
 12
298.598252
 22
90.817548
 32
0.0
 13
298.598252
 23
90.817548
 33
0.0
  0
TEXT
  5
8EE
330
F5F
100
AcDbEntity
  8
0
  6
ByBlock
 62
     2
100
AcDbText
 10
265.392149
 20
93.517548
 30
0.0
 40
15.75
  1
10
100
AcDbText
  0
POINT
  5
8EF
330
F5F
100
AcDbEntity
  8
DEFPOINTS
  6
ByBlock
 62
     0
100
AcDbPoint
 10
298.598252
 20
155.923815
 30
0.0
  0
POINT
  5
8F0
330
F5F
100
AcDbEntity
  8
DEFPOINTS
  6
ByBlock
 62
     0
100
AcDbPoint
 10
308.598252
 20
155.923815
 30
0.0
  0
POINT
  5
8F1
330
F5F
100
AcDbEntity
  8
DEFPOINTS
  6
ByBlock
 62
     0
100
AcDbPoint
 10
308.598252
 20
90.817548
 30
0.0
  0
ENDBLK
  5
8F2
330
F5F
100
AcDbEntity
  8
0
100
AcDbBlockEnd
  0
BLOCK
  5
9C5
330
F60
100
AcDbEntity
  8
0
100
AcDbBlockBegin
  2
*X8
 70
     1
 10
0.0
 20
0.0
 30
0.0
  3
*X8
  1
GEVFRAME
  0
LINE
  5
9C7
330
F60
100
AcDbEntity
  8
0
 62
     0
100
AcDbLine
 10
238.352777
 20
429.2716079999999
 30
0.0
 11
245.352777
 21
436.271608
 31
0.0
  0
LINE
  5
9C8
330
F60
100
AcDbEntity
  8
0
 62
     0
100
AcDbLine
 10
231.28171
 20
429.2716079999999
 30
0.0
 11
238.28171
 21
436.271608
 31
0.0
  0
LINE
  5
9C9
330
F60
100
AcDbEntity
  8
0
 62
     0
100
AcDbLine
 10
224.210642
 20
429.2716079999999
 30
0.0
 11
231.210642
 21
436.271608
 31
0.0
  0
LINE
  5
9CA
330
F60
100
AcDbEntity
  8
0
 62
     0
100
AcDbLine
 10
217.139574
 20
429.2716079999999
 30
0.0
 11
224.139574
 21
436.271608
 31
0.0
  0
LINE
  5
9CB
330
F60
100
AcDbEntity
  8
0
 62
     0
100
AcDbLine
 10
210.068506
 20
429.2716079999999
 30
0.0
 11
217.068506
 21
436.271608
 31
0.0
  0
LINE
  5
9CC
330
F60
100
AcDbEntity
  8
0
 62
     0
100
AcDbLine
 10
202.997438
 20
429.2716079999999
 30
0.0
 11
209.997438
 21
436.271608
 31
0.0
  0
LINE
  5
9CD
330
F60
100
AcDbEntity
  8
0
 62
     0
100
AcDbLine
 10
195.92637
 20
429.2716079999999
 30
0.0
 11
202.92637
 21
436.271608
 31
0.0
  0
LINE
  5
9CE
330
F60
100
AcDbEntity
  8
0
 62
     0
100
AcDbLine
 10
188.855303
 20
429.2716079999999
 30
0.0
 11
195.855303
 21
436.271608
 31
0.0
  0
LINE
  5
9CF
330
F60
100
AcDbEntity
  8
0
 62
     0
100
AcDbLine
 10
181.784235
 20
429.2716079999999
 30
0.0
 11
188.784235
 21
436.271608
 31
0.0
  0
LINE
  5
9D0
330
F60
100
AcDbEntity
  8
0
 62
     0
100
AcDbLine
 10
176.297106
 20
430.8555469999999
 30
0.0
 11
183.178904
 21
437.737345
 31
0.0
  0
LINE
  5
9D1
330
F60
100
AcDbEntity
  8
0
 62
     0
100
AcDbLine
 10
172.89604
 20
434.525549
 30
0.0
 11
179.698478
 21
441.327987
 31
0.0
  0
LINE
  5
9D2
330
F60
100
AcDbEntity
  8
0
 62
     0
100
AcDbLine
 10
171.640011
 20
440.340588
 30
0.0
 11
178.346206
 21
447.046783
 31
0.0
  0
LINE
  5
9D3
330
F60
100
AcDbEntity
  8
0
 62
     0
100
AcDbLine
 10
171.336417
 20
447.108062
 30
0.0
 11
178.042613
 21
453.8142579999999
 31
0.0
  0
LINE
  5
9D4
330
F60
100
AcDbEntity
  8
0
 62
     0
100
AcDbLine
 10
171.032824
 20
453.875536
 30
0.0
 11
177.73902
 21
460.581732
 31
0.0
  0
LINE
  5
9D5
330
F60
100
AcDbEntity
  8
0
 62
     0
100
AcDbLine
 10
170.72923
 20
460.643011
 30
0.0
 11
177.435426
 21
467.349206
 31
0.0
  0
LINE
  5
9D6
330
F60
100
AcDbEntity
  8
0
 62
     0
100
AcDbLine
 10
170.425637
 20
467.4104849999999
 30
0.0
 11
177.131833
 21
474.116681
 31
0.0
  0
LINE
  5
9D7
330
F60
100
AcDbEntity
  8
0
 62
     0
100
AcDbLine
 10
170.122043
 20
474.177959
 30
0.0
 11
176.828239
 21
480.8841549999999
 31
0.0
  0
LINE
  5
9D8
330
F60
100
AcDbEntity
  8
0
 62
     0
100
AcDbLine
 10
169.81845
 20
480.945434
 30
0.0
 11
176.524646
 21
487.651629
 31
0.0
  0
LINE
  5
9D9
330
F60
100
AcDbEntity
  8
0
 62
     0
100
AcDbLine
 10
169.514856
 20
487.712908
 30
0.0
 11
176.221052
 21
494.4191039999999
 31
0.0
  0
LINE
  5
9DA
330
F60
100
AcDbEntity
  8
0
 62
     0
100
AcDbLine
 10
169.211263
 20
494.480382
 30
0.0
 11
175.917459
 21
501.186578
 31
0.0
  0
LINE
  5
9DB
330
F60
100
AcDbEntity
  8
0
 62
     0
100
AcDbLine
 10
168.90767
 20
501.2478569999999
 30
0.0
 11
175.613865
 21
507.9540519999999
 31
0.0
  0
LINE
  5
9DC
330
F60
100
AcDbEntity
  8
0
 62
     0
100
AcDbLine
 10
168.604076
 20
508.0153309999999
 30
0.0
 11
175.310272
 21
514.7215269999999
 31
0.0
  0
LINE
  5
9DD
330
F60
100
AcDbEntity
  8
0
 62
     0
100
AcDbLine
 10
168.300483
 20
514.7828049999999
 30
0.0
 11
175.006678
 21
521.489001
 31
0.0
  0
LINE
  5
9DE
330
F60
100
AcDbEntity
  8
0
 62
     0
100
AcDbLine
 10
167.996889
 20
521.5502799999999
 30
0.0
 11
174.703085
 21
528.256475
 31
0.0
  0
LINE
  5
9DF
330
F60
100
AcDbEntity
  8
0
 62
     0
100
AcDbLine
 10
167.693296
 20
528.317754
 30
0.0
 11
174.399491
 21
535.0239499999999
 31
0.0
  0
LINE
  5
9E0
330
F60
100
AcDbEntity
  8
0
 62
     0
100
AcDbLine
 10
167.389702
 20
535.085228
 30
0.0
 11
174.095898
 21
541.7914239999999
 31
0.0
  0
LINE
  5
9E1
330
F60
100
AcDbEntity
  8
0
 62
     0
100
AcDbLine
 10
167.086109
 20
541.8527029999999
 30
0.0
 11
173.792304
 21
548.558898
 31
0.0
  0
LINE
  5
9E2
330
F60
100
AcDbEntity
  8
0
 62
     0
100
AcDbLine
 10
166.782515
 20
548.6201769999999
 30
0.0
 11
173.488711
 21
555.326373
 31
0.0
  0
LINE
  5
9E3
330
F60
100
AcDbEntity
  8
0
 62
     0
100
AcDbLine
 10
166.478922
 20
555.387651
 30
0.0
 11
173.185117
 21
562.0938469999999
 31
0.0
  0
LINE
  5
9E4
330
F60
100
AcDbEntity
  8
0
 62
     0
100
AcDbLine
 10
166.175328
 20
562.155126
 30
0.0
 11
172.871973
 21
568.851771
 31
0.0
  0
LINE
  5
9E5
330
F60
100
AcDbEntity
  8
0
 62
     0
100
AcDbLine
 10
164.58907
 20
567.639936
 30
0.0
 11
170.042058
 21
573.092924
 31
0.0
  0
LINE
  5
9E6
330
F60
100
AcDbEntity
  8
0
 62
     0
100
AcDbLine
 10
160.008025
 20
570.1299579999999
 30
0.0
 11
165.257547
 21
575.3794809999999
 31
0.0
  0
LINE
  5
9E7
330
F60
100
AcDbEntity
  8
0
 62
     0
100
AcDbLine
 10
155.2237899999999
 20
572.41679
 30
0.0
 11
160.853705
 21
578.0467059999999
 31
0.0
  0
LINE
  5
9E8
330
F60
100
AcDbEntity
  8
0
 62
     0
100
AcDbLine
 10
152.43828
 20
576.702349
 30
0.0
 11
159.988891
 21
584.252959
 31
0.0
  0
LINE
  5
9E9
330
F60
100
AcDbEntity
  8
0
 62
     0
100
AcDbLine
 10
152.97356
 20
584.3086959999999
 30
0.0
 11
160.559593
 21
591.89473
 31
0.0
  0
LINE
  5
9EA
330
F60
100
AcDbEntity
  8
0
 62
     0
100
AcDbLine
 10
153.544262
 20
591.950466
 30
0.0
 11
160.865404
 21
599.271608
 31
0.0
  0
LINE
  5
9EB
330
F60
100
AcDbEntity
  8
0
 62
     0
100
AcDbLine
 10
245.423845
 20
429.2716079999999
 30
0.0
 11
252.423845
 21
436.271608
 31
0.0
  0
LINE
  5
9EC
330
F60
100
AcDbEntity
  8
0
 62
     0
100
AcDbLine
 10
333.018951
 20
516.866714
 30
0.0
 11
345.97242
 21
529.820183
 31
0.0
  0
LINE
  5
9ED
330
F60
100
AcDbEntity
  8
0
 62
     0
100
AcDbLine
 10
252.494913
 20
429.2716079999999
 30
0.0
 11
259.494913
 21
436.271608
 31
0.0
  0
LINE
  5
9EE
330
F60
100
AcDbEntity
  8
0
 62
     0
100
AcDbLine
 10
344.382254
 20
521.15895
 30
0.0
 11
351.273276
 21
528.0499709999999
 31
0.0
  0
LINE
  5
9EF
330
F60
100
AcDbEntity
  8
0
 62
     0
100
AcDbLine
 10
330.135152
 20
506.9118469999999
 30
0.0
 11
340.18919
 21
516.9658849999999
 31
0.0
  0
LINE
  5
9F0
330
F60
100
AcDbEntity
  8
0
 62
     0
100
AcDbLine
 10
259.565981
 20
429.2716079999999
 30
0.0
 11
266.565981
 21
436.271608
 31
0.0
  0
LINE
  5
9F1
330
F60
100
AcDbEntity
  8
0
 62
     0
100
AcDbLine
 10
349.1942509999999
 20
518.899878
 30
0.0
 11
354.821793
 21
524.5274209999999
 31
0.0
  0
LINE
  5
9F2
330
F60
100
AcDbEntity
  8
0
 62
     0
100
AcDbLine
 10
327.251354
 20
496.956981
 30
0.0
 11
337.511341
 21
507.216969
 31
0.0
  0
LINE
  5
9F3
330
F60
100
AcDbEntity
  8
0
 62
     0
100
AcDbLine
 10
266.6370490000001
 20
429.2716079999999
 30
0.0
 11
273.637049
 21
436.271608
 31
0.0
  0
LINE
  5
9F4
330
F60
100
AcDbEntity
  8
0
 62
     0
100
AcDbLine
 10
350.758033
 20
513.3925929999999
 30
0.0
 11
356.628804
 21
519.2633639999999
 31
0.0
  0
LINE
  5
9F5
330
F60
100
AcDbEntity
  8
0
 62
     0
100
AcDbLine
 10
324.367555
 20
487.002115
 30
0.0
 11
334.627543
 21
497.262102
 31
0.0
  0
LINE
  5
9F6
330
F60
100
AcDbEntity
  8
0
 62
     0
100
AcDbLine
 10
273.708116
 20
429.2716079999999
 30
0.0
 11
280.708116
 21
436.271608
 31
0.0
  0
LINE
  5
9F7
330
F60
100
AcDbEntity
  8
0
 62
     0
100
AcDbLine
 10
352.31211
 20
507.8756019999999
 30
0.0
 11
357.9862
 21
513.5496919999999
 31
0.0
  0
LINE
  5
9F8
330
F60
100
AcDbEntity
  8
0
 62
     0
100
AcDbLine
 10
321.483757
 20
477.047249
 30
0.0
 11
331.743744
 21
487.307236
 31
0.0
  0
LINE
  5
9F9
330
F60
100
AcDbEntity
  8
0
 62
     0
100
AcDbLine
 10
280.779184
 20
429.2716079999999
 30
0.0
 11
287.779184
 21
436.271608
 31
0.0
  0
LINE
  5
9FA
330
F60
100
AcDbEntity
  8
0
 62
     0
100
AcDbLine
 10
353.866187
 20
502.358611
 30
0.0
 11
359.540277
 21
508.0327009999999
 31
0.0
  0
LINE
  5
9FB
330
F60
100
AcDbEntity
  8
0
 62
     0
100
AcDbLine
 10
318.599959
 20
467.0923829999999
 30
0.0
 11
328.859946
 21
477.35237
 31
0.0
  0
LINE
  5
9FC
330
F60
100
AcDbEntity
  8
0
 62
     0
100
AcDbLine
 10
287.850252
 20
429.2716079999999
 30
0.0
 11
294.850252
 21
436.271608
 31
0.0
  0
LINE
  5
9FD
330
F60
100
AcDbEntity
  8
0
 62
     0
100
AcDbLine
 10
355.420263
 20
496.84162
 30
0.0
 11
361.094353
 21
502.5157099999999
 31
0.0
  0
LINE
  5
9FE
330
F60
100
AcDbEntity
  8
0
 62
     0
100
AcDbLine
 10
315.71616
 20
457.137516
 30
0.0
 11
325.976148
 21
467.397504
 31
0.0
  0
LINE
  5
9FF
330
F60
100
AcDbEntity
  8
0
 62
     0
100
AcDbLine
 10
294.92132
 20
429.2716079999999
 30
0.0
 11
301.92132
 21
436.271608
 31
0.0
  0
LINE
  5
A00
330
F60
100
AcDbEntity
  8
0
 62
     0
100
AcDbLine
 10
356.97434
 20
491.324629
 30
0.0
 11
362.6484299999999
 21
496.998719
 31
0.0
  0
LINE
  5
A01
330
F60
100
AcDbEntity
  8
0
 62
     0
100
AcDbLine
 10
312.832362
 20
447.18265
 30
0.0
 11
323.092349
 21
457.442638
 31
0.0
  0
LINE
  5
A02
330
F60
100
AcDbEntity
  8
0
 62
     0
100
AcDbLine
 10
301.992388
 20
429.2716079999999
 30
0.0
 11
320.208551
 21
447.487771
 31
0.0
  0
LINE
  5
A03
330
F60
100
AcDbEntity
  8
0
 62
     0
100
AcDbLine
 10
358.528417
 20
485.8076379999999
 30
0.0
 11
364.202507
 21
491.481728
 31
0.0
  0
LINE
  5
A04
330
F60
100
AcDbEntity
  8
0
 62
     0
100
AcDbLine
 10
309.228925
 20
429.437078
 30
0.0
 11
317.324752
 21
437.5329049999999
 31
0.0
  0
LINE
  5
A05
330
F60
100
AcDbEntity
  8
0
 62
     0
100
AcDbLine
 10
360.082494
 20
480.2906469999999
 30
0.0
 11
365.756584
 21
485.964737
 31
0.0
  0
LINE
  5
A06
330
F60
100
AcDbEntity
  8
0
 62
     0
100
AcDbLine
 10
361.636571
 20
474.7736559999999
 30
0.0
 11
367.310661
 21
480.447746
 31
0.0
  0
LINE
  5
A07
330
F60
100
AcDbEntity
  8
0
 62
     0
100
AcDbLine
 10
363.190648
 20
469.256665
 30
0.0
 11
368.864738
 21
474.930755
 31
0.0
  0
LINE
  5
A08
330
F60
100
AcDbEntity
  8
0
 62
     0
100
AcDbLine
 10
364.744725
 20
463.739674
 30
0.0
 11
370.418815
 21
469.413764
 31
0.0
  0
LINE
  5
A09
330
F60
100
AcDbEntity
  8
0
 62
     0
100
AcDbLine
 10
366.298801
 20
458.222683
 30
0.0
 11
371.972891
 21
463.896773
 31
0.0
  0
LINE
  5
A0A
330
F60
100
AcDbEntity
  8
0
 62
     0
100
AcDbLine
 10
367.852878
 20
452.7056919999999
 30
0.0
 11
373.526968
 21
458.379782
 31
0.0
  0
LINE
  5
A0B
330
F60
100
AcDbEntity
  8
0
 62
     0
100
AcDbLine
 10
370.041009
 20
447.8227549999999
 30
0.0
 11
376.171161
 21
453.952907
 31
0.0
  0
LINE
  5
A0C
330
F60
100
AcDbEntity
  8
0
 62
     0
100
AcDbLine
 10
375.686073
 20
446.3967519999999
 30
0.0
 11
382.287431
 21
452.9981089999999
 31
0.0
  0
LINE
  5
A0D
330
F60
100
AcDbEntity
  8
0
 62
     0
100
AcDbLine
 10
382.341485
 20
445.981095
 30
0.0
 11
388.942843
 21
452.582453
 31
0.0
  0
LINE
  5
A0E
330
F60
100
AcDbEntity
  8
0
 62
     0
100
AcDbLine
 10
388.996896
 20
445.5654389999999
 30
0.0
 11
395.598254
 21
452.166796
 31
0.0
  0
LINE
  5
A0F
330
F60
100
AcDbEntity
  8
0
 62
     0
100
AcDbLine
 10
395.652308
 20
445.149782
 30
0.0
 11
402.253665
 21
451.75114
 31
0.0
  0
LINE
  5
A10
330
F60
100
AcDbEntity
  8
0
 62
     0
100
AcDbLine
 10
402.307719
 20
444.7341259999999
 30
0.0
 11
408.909077
 21
451.3354839999999
 31
0.0
  0
LINE
  5
A11
330
F60
100
AcDbEntity
  8
0
 62
     0
100
AcDbLine
 10
408.9631299999999
 20
444.318469
 30
0.0
 11
415.5644879999999
 21
450.9198269999999
 31
0.0
  0
LINE
  5
A12
330
F60
100
AcDbEntity
  8
0
 62
     0
100
AcDbLine
 10
415.6185419999999
 20
443.9028129999999
 30
0.0
 11
422.2198989999999
 21
450.5041709999999
 31
0.0
  0
LINE
  5
A13
330
F60
100
AcDbEntity
  8
0
 62
     0
100
AcDbLine
 10
422.273953
 20
443.4871559999999
 30
0.0
 11
428.875311
 21
450.088514
 31
0.0
  0
LINE
  5
A14
330
F60
100
AcDbEntity
  8
0
 62
     0
100
AcDbLine
 10
428.9293639999999
 20
443.0715
 30
0.0
 11
435.5307219999999
 21
449.672858
 31
0.0
  0
LINE
  5
A15
330
F60
100
AcDbEntity
  8
0
 62
     0
100
AcDbLine
 10
435.5847759999999
 20
442.6558429999999
 30
0.0
 11
442.1861329999999
 21
449.2572009999999
 31
0.0
  0
LINE
  5
A16
330
F60
100
AcDbEntity
  8
0
 62
     0
100
AcDbLine
 10
442.2401869999999
 20
442.2401869999999
 30
0.0
 11
448.8415449999999
 21
448.8415449999999
 31
0.0
  0
LINE
  5
A17
330
F60
100
AcDbEntity
  8
0
 62
     0
100
AcDbLine
 10
448.895598
 20
441.8245299999999
 30
0.0
 11
455.4969559999999
 21
448.4258879999999
 31
0.0
  0
LINE
  5
A18
330
F60
100
AcDbEntity
  8
0
 62
     0
100
AcDbLine
 10
455.5510099999999
 20
441.408874
 30
0.0
 11
462.152367
 21
448.010232
 31
0.0
  0
LINE
  5
A19
330
F60
100
AcDbEntity
  8
0
 62
     0
100
AcDbLine
 10
462.2064209999999
 20
440.993217
 30
0.0
 11
468.807779
 21
447.594575
 31
0.0
  0
LINE
  5
A1A
330
F60
100
AcDbEntity
  8
0
 62
     0
100
AcDbLine
 10
468.861832
 20
440.577561
 30
0.0
 11
475.46319
 21
447.178919
 31
0.0
  0
LINE
  5
A1B
330
F60
100
AcDbEntity
  8
0
 62
     0
100
AcDbLine
 10
475.517244
 20
440.1619039999999
 30
0.0
 11
482.1186009999999
 21
446.7632619999999
 31
0.0
  0
LINE
  5
A1C
330
F60
100
AcDbEntity
  8
0
 62
     0
100
AcDbLine
 10
482.172655
 20
439.746248
 30
0.0
 11
488.774013
 21
446.3476059999999
 31
0.0
  0
LINE
  5
A1D
330
F60
100
AcDbEntity
  8
0
 62
     0
100
AcDbLine
 10
488.828066
 20
439.3305919999999
 30
0.0
 11
489.9511599999999
 21
440.4536849999999
 31
0.0
  0
ENDBLK
  5
A1E
330
F60
100
AcDbEntity
  8
0
100
AcDbBlockEnd
  0
BLOCK
  5
A32
330
F61
100
AcDbEntity
  8
0
100
AcDbBlockBegin
  2
*X9
 70
     1
 10
0.0
 20
0.0
 30
0.0
  3
*X9
  1
GEVFRAME
  0
LINE
  5
A34
330
F61
100
AcDbEntity
  8
0
 62
     0
100
AcDbLine
 10
394.831183
 20
543.323607
 30
0.0
 11
401.08456
 21
549.576984
 31
0.0
  0
LINE
  5
A35
330
F61
100
AcDbEntity
  8
0
 62
     0
100
AcDbLine
 10
391.092973
 20
546.6564639999999
 30
0.0
 11
396.04272
 21
551.6062119999999
 31
0.0
  0
LINE
  5
A36
330
F61
100
AcDbEntity
  8
0
 62
     0
100
AcDbLine
 10
387.556134
 20
550.190694
 30
0.0
 11
392.505882
 21
555.1404419999999
 31
0.0
  0
LINE
  5
A37
330
F61
100
AcDbEntity
  8
0
 62
     0
100
AcDbLine
 10
384.019296
 20
553.724924
 30
0.0
 11
388.969044
 21
558.6746719999999
 31
0.0
  0
LINE
  5
A38
330
F61
100
AcDbEntity
  8
0
 62
     0
100
AcDbLine
 10
380.482458
 20
557.2591529999999
 30
0.0
 11
385.432206
 21
562.2089009999999
 31
0.0
  0
LINE
  5
A39
330
F61
100
AcDbEntity
  8
0
 62
     0
100
AcDbLine
 10
376.94562
 20
560.793383
 30
0.0
 11
381.895368
 21
565.7431309999999
 31
0.0
  0
LINE
  5
A3A
330
F61
100
AcDbEntity
  8
0
 62
     0
100
AcDbLine
 10
373.301738
 20
564.220569
 30
0.0
 11
378.35853
 21
569.2773599999999
 31
0.0
  0
LINE
  5
A3B
330
F61
100
AcDbEntity
  8
0
 62
     0
100
AcDbLine
 10
366.937836
 20
564.927735
 30
0.0
 11
373.929242
 21
571.9191409999999
 31
0.0
  0
LINE
  5
A3C
330
F61
100
AcDbEntity
  8
0
 62
     0
100
AcDbLine
 10
359.8667680000001
 20
564.927735
 30
0.0
 11
366.866768
 21
571.9277349999999
 31
0.0
  0
LINE
  5
A3D
330
F61
100
AcDbEntity
  8
0
 62
     0
100
AcDbLine
 10
352.795701
 20
564.927735
 30
0.0
 11
359.795701
 21
571.9277349999999
 31
0.0
  0
LINE
  5
A3E
330
F61
100
AcDbEntity
  8
0
 62
     0
100
AcDbLine
 10
345.724633
 20
564.927735
 30
0.0
 11
352.724633
 21
571.9277349999999
 31
0.0
  0
LINE
  5
A3F
330
F61
100
AcDbEntity
  8
0
 62
     0
100
AcDbLine
 10
340.849065
 20
567.1232349999999
 30
0.0
 11
347.558388
 21
573.832558
 31
0.0
  0
LINE
  5
A40
330
F61
100
AcDbEntity
  8
0
 62
     0
100
AcDbLine
 10
339.738837
 20
573.0840749999999
 30
0.0
 11
346.270531
 21
579.615769
 31
0.0
  0
LINE
  5
A41
330
F61
100
AcDbEntity
  8
0
 62
     0
100
AcDbLine
 10
339.247453
 20
579.663759
 30
0.0
 11
345.779147
 21
586.195453
 31
0.0
  0
LINE
  5
A42
330
F61
100
AcDbEntity
  8
0
 62
     0
100
AcDbLine
 10
338.756069
 20
586.2434429999999
 30
0.0
 11
345.287763
 21
592.7751360000001
 31
0.0
  0
LINE
  5
A43
330
F61
100
AcDbEntity
  8
0
 62
     0
100
AcDbLine
 10
338.264685
 20
592.823127
 30
0.0
 11
344.713167
 21
599.271608
 31
0.0
  0
LINE
  5
A44
330
F61
100
AcDbEntity
  8
0
 62
     0
100
AcDbLine
 10
401.137937
 20
542.559293
 30
0.0
 11
407.7308849999999
 21
549.1522419999999
 31
0.0
  0
LINE
  5
A45
330
F61
100
AcDbEntity
  8
0
 62
     0
100
AcDbLine
 10
407.784262
 20
542.134551
 30
0.0
 11
414.3772109999999
 21
548.7274989999999
 31
0.0
  0
LINE
  5
A46
330
F61
100
AcDbEntity
  8
0
 62
     0
100
AcDbLine
 10
414.430588
 20
541.7098089999999
 30
0.0
 11
421.023536
 21
548.302757
 31
0.0
  0
LINE
  5
A47
330
F61
100
AcDbEntity
  8
0
 62
     0
100
AcDbLine
 10
421.076914
 20
541.285066
 30
0.0
 11
427.669862
 21
547.878015
 31
0.0
  0
LINE
  5
A48
330
F61
100
AcDbEntity
  8
0
 62
     0
100
AcDbLine
 10
427.7232389999999
 20
540.8603239999999
 30
0.0
 11
434.316188
 21
547.453273
 31
0.0
  0
LINE
  5
A49
330
F61
100
AcDbEntity
  8
0
 62
     0
100
AcDbLine
 10
434.3695649999999
 20
540.4355820000001
 30
0.0
 11
440.962513
 21
547.0285299999999
 31
0.0
  0
LINE
  5
A4A
330
F61
100
AcDbEntity
  8
0
 62
     0
100
AcDbLine
 10
441.0158899999999
 20
540.01084
 30
0.0
 11
447.608839
 21
546.603788
 31
0.0
  0
LINE
  5
A4B
330
F61
100
AcDbEntity
  8
0
 62
     0
100
AcDbLine
 10
447.6622159999999
 20
539.586098
 30
0.0
 11
454.255164
 21
546.1790459999999
 31
0.0
  0
LINE
  5
A4C
330
F61
100
AcDbEntity
  8
0
 62
     0
100
AcDbLine
 10
454.3085419999999
 20
539.1613549999999
 30
0.0
 11
460.90149
 21
545.754304
 31
0.0
  0
LINE
  5
A4D
330
F61
100
AcDbEntity
  8
0
 62
     0
100
AcDbLine
 10
460.9548669999999
 20
538.736613
 30
0.0
 11
467.5478159999999
 21
545.329561
 31
0.0
  0
LINE
  5
A4E
330
F61
100
AcDbEntity
  8
0
 62
     0
100
AcDbLine
 10
467.6011929999999
 20
538.3118709999999
 30
0.0
 11
474.1941409999999
 21
544.904819
 31
0.0
  0
LINE
  5
A4F
330
F61
100
AcDbEntity
  8
0
 62
     0
100
AcDbLine
 10
474.2475179999999
 20
537.8871289999999
 30
0.0
 11
480.8404669999999
 21
544.4800769999999
 31
0.0
  0
LINE
  5
A50
330
F61
100
AcDbEntity
  8
0
 62
     0
100
AcDbLine
 10
480.893844
 20
537.462386
 30
0.0
 11
487.4867919999999
 21
544.055335
 31
0.0
  0
LINE
  5
A51
330
F61
100
AcDbEntity
  8
0
 62
     0
100
AcDbLine
 10
487.540169
 20
537.037644
 30
0.0
 11
491.4371959999999
 21
540.934671
 31
0.0
  0
ENDBLK
  5
A52
330
F61
100
AcDbEntity
  8
0
100
AcDbBlockEnd
  0
BLOCK
  5
A77
330
F62
100
AcDbEntity
  8
0
100
AcDbBlockBegin
  2
*X10
 70
     1
 10
0.0
 20
0.0
 30
0.0
  3
*X10
  1
GEVFRAME
  0
LINE
  5
A79
330
F62
100
AcDbEntity
  8
0
 62
     0
100
AcDbLine
 10
303.627818
 20
493.9886309999999
 30
0.0
 11
295.5937009999999
 21
502.022748
 31
0.0
  0
LINE
  5
A7A
330
F62
100
AcDbEntity
  8
0
 62
     0
100
AcDbLine
 10
302.867025
 20
488.1026199999999
 30
0.0
 11
294.83247
 21
496.1371759999999
 31
0.0
  0
LINE
  5
A7B
330
F62
100
AcDbEntity
  8
0
 62
     0
100
AcDbLine
 10
302.106232
 20
482.2166099999999
 30
0.0
 11
294.071238
 21
490.251603
 31
0.0
  0
LINE
  5
A7C
330
F62
100
AcDbEntity
  8
0
 62
     0
100
AcDbLine
 10
301.345439
 20
476.330599
 30
0.0
 11
293.310007
 21
484.3660309999999
 31
0.0
  0
LINE
  5
A7D
330
F62
100
AcDbEntity
  8
0
 62
     0
100
AcDbLine
 10
299.8102859999999
 20
471.2189480000001
 30
0.0
 11
292.548775
 21
478.480459
 31
0.0
  0
LINE
  5
A7E
330
F62
100
AcDbEntity
  8
0
 62
     0
100
AcDbLine
 10
304.388612
 20
499.8746409999999
 30
0.0
 11
296.354933
 21
507.90832
 31
0.0
  0
LINE
  5
A7F
330
F62
100
AcDbEntity
  8
0
 62
     0
100
AcDbLine
 10
305.149405
 20
505.7606519999999
 30
0.0
 11
297.116164
 21
513.793893
 31
0.0
  0
LINE
  5
A80
330
F62
100
AcDbEntity
  8
0
 62
     0
100
AcDbLine
 10
305.910198
 20
511.6466619999999
 30
0.0
 11
297.877396
 21
519.679465
 31
0.0
  0
LINE
  5
A81
330
F62
100
AcDbEntity
  8
0
 62
     0
100
AcDbLine
 10
306.670991
 20
517.532673
 30
0.0
 11
298.638627
 21
525.5650369999999
 31
0.0
  0
LINE
  5
A82
330
F62
100
AcDbEntity
  8
0
 62
     0
100
AcDbLine
 10
307.431784
 20
523.4186839999999
 30
0.0
 11
300.9934740000001
 21
529.856994
 31
0.0
  0
LINE
  5
A83
330
F62
100
AcDbEntity
  8
0
 62
     0
100
AcDbLine
 10
308.653123
 20
528.844149
 30
0.0
 11
307.640277
 21
529.856994
 31
0.0
  0
ENDBLK
  5
A84
330
F62
100
AcDbEntity
  8
0
100
AcDbBlockEnd
  0
BLOCK
  5
A91
330
F63
100
AcDbEntity
  8
0
100
AcDbBlockBegin
  2
*X11
 70
     1
 10
0.0
 20
0.0
 30
0.0
  3
*X11
  1
GEVFRAME
  0
LINE
  5
A93
330
F63
100
AcDbEntity
  8
0
 62
     0
100
AcDbLine
 10
331.734761
 20
565.5837449999999
 30
0.0
 11
325.182764
 21
572.135741
 31
0.0
  0
LINE
  5
A94
330
F63
100
AcDbEntity
  8
0
 62
     0
100
AcDbLine
 10
336.499427
 20
567.4658820000001
 30
0.0
 11
328.167635
 21
575.797674
 31
0.0
  0
LINE
  5
A95
330
F63
100
AcDbEntity
  8
0
 62
     0
100
AcDbLine
 10
339.91727
 20
570.6948429999999
 30
0.0
 11
334.146231
 21
576.4658820000001
 31
0.0
  0
ENDBLK
  5
A96
330
F63
100
AcDbEntity
  8
0
100
AcDbBlockEnd
  0
BLOCK
  5
B55
330
F64
100
AcDbEntity
  8
0
100
AcDbBlockBegin
  2
*X12
 70
     1
 10
0.0
 20
0.0
 30
0.0
  3
*X12
  1
GEVFRAME
  0
LINE
  5
B57
330
F64
100
AcDbEntity
  8
0
 62
     0
100
AcDbLine
 10
307.640277
 20
529.856994
 30
0.0
 11
302.124303
 21
535.3729679999999
 31
0.0
  0
LINE
  5
B58
330
F64
100
AcDbEntity
  8
0
 62
     0
100
AcDbLine
 10
300.9934740000001
 20
529.856994
 30
0.0
 11
299.595117
 21
531.2553509999999
 31
0.0
  0
LINE
  5
B59
330
F64
100
AcDbEntity
  8
0
 62
     0
100
AcDbLine
 10
311.2151740000001
 20
532.928901
 30
0.0
 11
304.686354
 21
539.457721
 31
0.0
  0
LINE
  5
B5A
330
F64
100
AcDbEntity
  8
0
 62
     0
100
AcDbLine
 10
313.777226
 20
537.0136539999999
 30
0.0
 11
311.239545
 21
539.5513339999999
 31
0.0
  0
ENDBLK
  5
B5B
330
F64
100
AcDbEntity
  8
0
100
AcDbBlockEnd
  0
BLOCK
  5
C30
330
F65
100
AcDbEntity
  8
0
100
AcDbBlockBegin
  2
*X13
 70
     1
 10
0.0
 20
0.0
 30
0.0
  3
*X13
  1
GEVFRAME
  0
LINE
  5
C32
330
F65
100
AcDbEntity
  8
0
 62
     0
100
AcDbLine
 10
172.53049
 20
585.205136
 30
0.0
 11
163.883318
 21
593.852309
 31
0.0
  0
LINE
  5
C33
330
F65
100
AcDbEntity
  8
0
 62
     0
100
AcDbLine
 10
170.390542
 20
580.698281
 30
0.0
 11
163.883318
 21
587.205505
 31
0.0
  0
LINE
  5
C34
330
F65
100
AcDbEntity
  8
0
 62
     0
100
AcDbLine
 10
172.53049
 20
591.85194
 30
0.0
 11
165.110822
 21
599.271608
 31
0.0
  0
LINE
  5
C35
330
F65
100
AcDbEntity
  8
0
 62
     0
100
AcDbLine
 10
172.53049
 20
598.498744
 30
0.0
 11
171.757626
 21
599.271608
 31
0.0
  0
ENDBLK
  5
C36
330
F65
100
AcDbEntity
  8
0
100
AcDbBlockEnd
  0
BLOCK
  5
CC9
330
F66
100
AcDbEntity
  8
0
100
AcDbBlockBegin
  2
*X14
 70
     1
 10
0.0
 20
0.0
 30
0.0
  3
*X14
  1
GEVFRAME
  0
LINE
  5
CCB
330
F66
100
AcDbEntity
  8
0
 62
     0
100
AcDbLine
 10
193.667829
 20
584.008209
 30
0.0
 11
182.53049
 21
595.145548
 31
0.0
  0
LINE
  5
CCC
330
F66
100
AcDbEntity
  8
0
 62
     0
100
AcDbLine
 10
190.357016
 20
580.6722179999999
 30
0.0
 11
182.53049
 21
588.4987439999999
 31
0.0
  0
LINE
  5
CCD
330
F66
100
AcDbEntity
  8
0
 62
     0
100
AcDbLine
 10
193.667829
 20
590.6550129999999
 30
0.0
 11
185.051233
 21
599.271608
 31
0.0
  0
LINE
  5
CCE
330
F66
100
AcDbEntity
  8
0
 62
     0
100
AcDbLine
 10
193.667829
 20
597.301817
 30
0.0
 11
191.698037
 21
599.271608
 31
0.0
  0
ENDBLK
  5
CCF
330
F66
100
AcDbEntity
  8
0
100
AcDbBlockEnd
  0
BLOCK
  5
D15
330
F67
100
AcDbEntity
  8
0
100
AcDbBlockBegin
  2
*X15
 70
     1
 10
0.0
 20
0.0
 30
0.0
  3
*X15
  1
GEVFRAME
  0
LINE
  5
D17
330
F67
100
AcDbEntity
  8
0
 62
     0
100
AcDbLine
 10
213.706455
 20
583.9099940000001
 30
0.0
 11
203.667829
 21
593.94862
 31
0.0
  0
LINE
  5
D18
330
F67
100
AcDbEntity
  8
0
 62
     0
100
AcDbLine
 10
210.297427
 20
580.6722179999999
 30
0.0
 11
203.667829
 21
587.301817
 31
0.0
  0
LINE
  5
D19
330
F67
100
AcDbEntity
  8
0
 62
     0
100
AcDbLine
 10
213.706455
 20
590.556798
 30
0.0
 11
204.991645
 21
599.271608
 31
0.0
  0
LINE
  5
D1A
330
F67
100
AcDbEntity
  8
0
 62
     0
100
AcDbLine
 10
213.706455
 20
597.2036019999999
 30
0.0
 11
211.638448
 21
599.271608
 31
0.0
  0
ENDBLK
  5
D1B
330
F67
100
AcDbEntity
  8
0
100
AcDbBlockEnd
  0
BLOCK
  5
D61
330
F68
100
AcDbEntity
  8
0
100
AcDbBlockBegin
  2
*X16
 70
     1
 10
0.0
 20
0.0
 30
0.0
  3
*X16
  1
GEVFRAME
  0
LINE
  5
D63
330
F68
100
AcDbEntity
  8
0
 62
     0
100
AcDbLine
 10
232.873838
 20
584.6830219999999
 30
0.0
 11
223.706455
 21
593.8504059999998
 31
0.0
  0
LINE
  5
D64
330
F68
100
AcDbEntity
  8
0
 62
     0
100
AcDbLine
 10
230.237839
 20
580.6722179999999
 30
0.0
 11
223.706455
 21
587.2036019999999
 31
0.0
  0
LINE
  5
D65
330
F68
100
AcDbEntity
  8
0
 62
     0
100
AcDbLine
 10
232.873838
 20
591.329826
 30
0.0
 11
224.932056
 21
599.271608
 31
0.0
  0
LINE
  5
D66
330
F68
100
AcDbEntity
  8
0
 62
     0
100
AcDbLine
 10
232.873838
 20
597.97663
 30
0.0
 11
231.57886
 21
599.271608
 31
0.0
  0
ENDBLK
  5
D67
330
F68
100
AcDbEntity
  8
0
100
AcDbBlockEnd
  0
BLOCK
  5
DAE
330
F69
100
AcDbEntity
  8
0
100
AcDbBlockBegin
  2
*X17
 70
     1
 10
0.0
 20
0.0
 30
0.0
  3
*X17
  1
GEVFRAME
  0
LINE
  5
DB0
330
F69
100
AcDbEntity
  8
0
 62
     0
100
AcDbLine
 10
255.643717
 20
581.853555
 30
0.0
 11
242.873838
 21
594.623434
 31
0.0
  0
LINE
  5
DB1
330
F69
100
AcDbEntity
  8
0
 62
     0
100
AcDbLine
 10
250.17825
 20
580.6722179999999
 30
0.0
 11
242.873838
 21
587.97663
 31
0.0
  0
LINE
  5
DB2
330
F69
100
AcDbEntity
  8
0
 62
     0
100
AcDbLine
 10
256.019775
 20
588.1242999999999
 30
0.0
 11
244.872467
 21
599.271608
 31
0.0
  0
LINE
  5
DB3
330
F69
100
AcDbEntity
  8
0
 62
     0
100
AcDbLine
 10
256.019775
 20
594.771104
 30
0.0
 11
251.519271
 21
599.271608
 31
0.0
  0
ENDBLK
  5
DB4
330
F69
100
AcDbEntity
  8
0
100
AcDbBlockEnd
  0
BLOCK
  5
DFA
330
F6A
100
AcDbEntity
  8
0
100
AcDbBlockBegin
  2
*X18
 70
     1
 10
0.0
 20
0.0
 30
0.0
  3
*X18
  1
GEVFRAME
  0
LINE
  5
DFC
330
F6A
100
AcDbEntity
  8
0
 62
     0
100
AcDbLine
 10
275.058158
 20
582.3795249999999
 30
0.0
 11
266.019775
 21
591.417908
 31
0.0
  0
LINE
  5
DFD
330
F6A
100
AcDbEntity
  8
0
 62
     0
100
AcDbLine
 10
270.118661
 20
580.6722179999999
 30
0.0
 11
266.019775
 21
584.771104
 31
0.0
  0
LINE
  5
DFE
330
F6A
100
AcDbEntity
  8
0
 62
     0
100
AcDbLine
 10
275.187158
 20
588.897328
 30
0.0
 11
266.019775
 21
598.0647109999999
 31
0.0
  0
LINE
  5
DFF
330
F6A
100
AcDbEntity
  8
0
 62
     0
100
AcDbLine
 10
275.187158
 20
595.544132
 30
0.0
 11
271.459682
 21
599.271608
 31
0.0
  0
ENDBLK
  5
E00
330
F6A
100
AcDbEntity
  8
0
100
AcDbBlockEnd
  0
BLOCK
  5
E46
330
F6B
100
AcDbEntity
  8
0
100
AcDbBlockBegin
  2
*X19
 70
     1
 10
0.0
 20
0.0
 30
0.0
  3
*X19
  1
GEVFRAME
  0
LINE
  5
E48
330
F6B
100
AcDbEntity
  8
0
 62
     0
100
AcDbLine
 10
295.071237
 20
582.306857
 30
0.0
 11
285.187158
 21
592.190936
 31
0.0
  0
LINE
  5
E49
330
F6B
100
AcDbEntity
  8
0
 62
     0
100
AcDbLine
 10
290.059072
 20
580.6722179999999
 30
0.0
 11
285.187158
 21
585.5441319999999
 31
0.0
  0
LINE
  5
E4A
330
F6B
100
AcDbEntity
  8
0
 62
     0
100
AcDbLine
 10
295.225785
 20
588.799113
 30
0.0
 11
285.187158
 21
598.83774
 31
0.0
  0
LINE
  5
E4B
330
F6B
100
AcDbEntity
  8
0
 62
     0
100
AcDbLine
 10
295.225785
 20
595.4459169999999
 30
0.0
 11
291.400093
 21
599.271608
 31
0.0
  0
ENDBLK
  5
E4C
330
F6B
100
AcDbEntity
  8
0
100
AcDbBlockEnd
  0
BLOCK
  5
E93
330
F6C
100
AcDbEntity
  8
0
100
AcDbBlockBegin
  2
*X20
 70
     1
 10
0.0
 20
0.0
 30
0.0
  3
*X20
  1
GEVFRAME
  0
LINE
  5
E95
330
F6C
100
AcDbEntity
  8
0
 62
     0
100
AcDbLine
 10
315.766793
 20
581.551712
 30
0.0
 11
305.225785
 21
592.092721
 31
0.0
  0
LINE
  5
E96
330
F6C
100
AcDbEntity
  8
0
 62
     0
100
AcDbLine
 10
309.999484
 20
580.6722179999999
 30
0.0
 11
305.225785
 21
585.445917
 31
0.0
  0
LINE
  5
E97
330
F6C
100
AcDbEntity
  8
0
 62
     0
100
AcDbLine
 10
316.363123
 20
587.602186
 30
0.0
 11
305.225785
 21
598.7395249999999
 31
0.0
  0
LINE
  5
E98
330
F6C
100
AcDbEntity
  8
0
 62
     0
100
AcDbLine
 10
316.363123
 20
594.24899
 30
0.0
 11
311.340505
 21
599.271608
 31
0.0
  0
ENDBLK
  5
E99
330
F6C
100
AcDbEntity
  8
0
100
AcDbBlockEnd
  0
BLOCK
  5
EDF
330
F6D
100
AcDbEntity
  8
0
100
AcDbBlockBegin
  2
*X21
 70
     1
 10
0.0
 20
0.0
 30
0.0
  3
*X21
  1
GEVFRAME
  0
LINE
  5
EE1
330
F6D
100
AcDbEntity
  8
0
 62
     0
100
AcDbLine
 10
334.880817
 20
582.378099
 30
0.0
 11
326.363123
 21
590.895794
 31
0.0
  0
LINE
  5
EE2
330
F6D
100
AcDbEntity
  8
0
 62
     0
100
AcDbLine
 10
329.939895
 20
580.6722179999999
 30
0.0
 11
326.363123
 21
584.24899
 31
0.0
  0
LINE
  5
EE3
330
F6D
100
AcDbEntity
  8
0
 62
     0
100
AcDbLine
 10
335.0102950000001
 20
588.895425
 30
0.0
 11
326.363123
 21
597.5425969999999
 31
0.0
  0
LINE
  5
EE4
330
F6D
100
AcDbEntity
  8
0
 62
     0
100
AcDbLine
 10
335.0102950000001
 20
595.542229
 30
0.0
 11
331.280916
 21
599.271608
 31
0.0
  0
ENDBLK
  5
EE5
330
F6D
100
AcDbEntity
  8
0
100
AcDbBlockEnd
  0
BLOCK
  5
F02
330
F71
100
AcDbEntity
  8
0
100
AcDbBlockBegin
  2
*U22
 70
     1
 10
0.0
 20
0.0
 30
0.0
  3
*U22
  1
*U
  0
LINE
  5
F03
330
F71
100
AcDbEntity
  8
-BHMU
100
AcDbLine
 10
9.274727999999999
 20
19.476485
 30
0.0
 11
9.274727999999999
 21
-19.476485
 31
0.0
  0
LINE
  5
F04
330
F71
100
AcDbEntity
  8
-BHMU
100
AcDbLine
 10
0.0
 20
19.476485
 30
0.0
 11
0.0
 21
-19.476485
 31
0.0
  0
LINE
  5
F05
330
F71
100
AcDbEntity
  8
BHMM
100
AcDbLine
 10
0.0
 20
-19.476485
 30
0.0
 11
9.274727999999999
 21
-19.476485
 31
0.0
  0
LINE
  5
F06
330
F71
100
AcDbEntity
  8
THLI
100
AcDbLine
 10
0.0
 20
-20.955
 30
0.0
 11
9.274727999999999
 21
-20.955
 31
0.0
  0
LINE
  5
F07
330
F71
100
AcDbEntity
  8
CENN
100
AcDbLine
 10
-3.0
 20
0.0
 30
0.0
 11
12.274728
 21
0.0
 31
0.0
  0
LINE
  5
F08
330
F71
100
AcDbEntity
  8
BHMM
100
AcDbLine
 10
0.0
 20
19.476485
 30
0.0
 11
9.274727999999999
 21
19.476485
 31
0.0
  0
LINE
  5
F09
330
F71
100
AcDbEntity
  8
THLI
100
AcDbLine
 10
0.0
 20
20.955
 30
0.0
 11
9.274727999999999
 21
20.955
 31
0.0
  0
ENDBLK
  5
F0A
330
F71
100
AcDbEntity
  8
0
100
AcDbBlockEnd
  0
BLOCK
  5
F0D
330
F72
100
AcDbEntity
  8
0
100
AcDbBlockBegin
  2
*U23
 70
     1
 10
0.0
 20
0.0
 30
0.0
  3
*U23
  1
*U
  0
INSERT
  5
F0E
330
F72
100
AcDbEntity
  8
GEV_FROZEN
100
AcDbBlockReference
  2
*U22
 10
0.0
 20
0.0
 30
0.0
 41
0.1
 42
0.1
 43
0.1
1001
GENBH
1002
{
1000
-NOBRK
1002
}
  0
LINE
  5
F0F
330
F72
100
AcDbEntity
  8
0
100
AcDbLine
 10
0.0
 20
-19.476485
 30
0.0
 11
9.274727999999999
 21
-19.476485
 31
0.0
  0
LINE
  5
F10
330
F72
100
AcDbEntity
  8
4
100
AcDbLine
 10
0.0
 20
-20.955
 30
0.0
 11
9.274727999999999
 21
-20.955
 31
0.0
  0
LINE
  5
F11
330
F72
100
AcDbEntity
  8
7A
100
AcDbLine
 10
-3.0
 20
0.0
 30
0.0
 11
12.274728
 21
0.0
 31
0.0
  0
LINE
  5
F12
330
F72
100
AcDbEntity
  8
0
100
AcDbLine
 10
0.0
 20
19.476485
 30
0.0
 11
9.274727999999999
 21
19.476485
 31
0.0
  0
LINE
  5
F13
330
F72
100
AcDbEntity
  8
4
100
AcDbLine
 10
0.0
 20
20.955
 30
0.0
 11
9.274727999999999
 21
20.955
 31
0.0
  0
ENDBLK
  5
F14
330
F72
100
AcDbEntity
  8
0
100
AcDbBlockEnd
  0
BLOCK
  5
F1A
330
F73
100
AcDbEntity
  8
0
100
AcDbBlockBegin
  2
*U24
 70
     1
 10
0.0
 20
0.0
 30
0.0
  3
*U24
  1
*U
1001
GENIUS_GENBH_13
1002
{
1000
BMBH
1070
     1
1002
}
  0
LINE
  5
F1B
330
F73
100
AcDbEntity
  8
0
 62
     0
100
AcDbLine
 10
307.640277
 20
529.856994
 30
0.0
 11
302.124303
 21
535.3729679999999
 31
0.0
  0
LINE
  5
F1C
330
F73
100
AcDbEntity
  8
0
 62
     0
100
AcDbLine
 10
300.9934740000001
 20
529.856994
 30
0.0
 11
299.595117
 21
531.2553509999999
 31
0.0
  0
LINE
  5
F1D
330
F73
100
AcDbEntity
  8
9
100
AcDbLine
 10
311.2151740000001
 20
532.928901
 30
0.0
 11
304.686354
 21
539.457721
 31
0.0
1001
GENIUS_GENBH_13
1002
{
1000
ML
1040
1.0
1002
}
1002
{
1000
OA
1000
0
1070
     0
1000
BYLAYER
1005
F
1005
15
1002
}
  0
LINE
  5
F1E
330
F73
100
AcDbEntity
  8
9
100
AcDbLine
 10
313.777226
 20
537.0136539999999
 30
0.0
 11
311.239545
 21
539.5513339999999
 31
0.0
1001
GENIUS_GENBH_13
1002
{
1000
ML
1040
1.0
1002
}
1002
{
1000
OA
1000
0
1070
     0
1000
BYLAYER
1005
F
1005
15
1002
}
  0
INSERT
  5
F1F
330
F73
100
AcDbEntity
  8
0
100
AcDbBlockReference
  2
*X12
 10
0.0
 20
0.0
 30
0.0
1001
GENIUS_GENOLIS_13
1002
{
1000
ENT
1002
}
1001
GENIUS_GENOENT_13
1002
{
1000
MYREF
1005
0
1002
}
  0
ENDBLK
  5
F20
330
F73
100
AcDbEntity
  8
0
100
AcDbBlockEnd
  0
BLOCK
  5
F22
330
F74
100
AcDbEntity
  8
0
100
AcDbBlockBegin
  2
*U25
 70
     1
 10
0.0
 20
0.0
 30
0.0
  3
*U25
  1
*U
1001
GENIUS_GENBH_13
1002
{
1000
BMBH
1070
     1
1002
}
  0
LINE
  5
F23
330
F74
100
AcDbEntity
  8
9
100
AcDbLine
 10
331.734761
 20
565.5837449999999
 30
0.0
 11
330.64747
 21
566.6710349999999
 31
0.0
1001
GENIUS_GENBH_13
1002
{
1000
ML
1040
1.0
1002
}
1002
{
1000
OA
1000
0
1070
     0
1000
BYLAYER
1005
F
1005
15
1002
}
  0
LINE
  5
F24
330
F74
100
AcDbEntity
  8
0
 62
     0
100
AcDbLine
 10
330.64747
 20
566.6710349999999
 30
0.0
 11
325.182764
 21
572.135741
 31
0.0
  0
LINE
  5
F25
330
F74
100
AcDbEntity
  8
0
 62
     0
100
AcDbLine
 10
336.499427
 20
567.4658820000001
 30
0.0
 11
328.167635
 21
575.797674
 31
0.0
  0
LINE
  5
F26
330
F74
100
AcDbEntity
  8
0
 62
     0
100
AcDbLine
 10
339.91727
 20
570.6948429999999
 30
0.0
 11
334.146231
 21
576.4658820000001
 31
0.0
  0
INSERT
  5
F27
330
F74
100
AcDbEntity
  8
0
100
AcDbBlockReference
  2
*X11
 10
0.0
 20
0.0
 30
0.0
1001
GENIUS_GENOLIS_13
1002
{
1000
ENT
1002
}
1001
GENIUS_GENOENT_13
1002
{
1000
MYREF
1005
0
1002
}
  0
ENDBLK
  5
F28
330
F74
100
AcDbEntity
  8
0
100
AcDbBlockEnd
  0
BLOCK
  5
FDA
330
FD9
100
AcDbEntity
  8
0
100
AcDbBlockBegin
  2
GEVCON
 70
     0
 10
0.0
 20
0.0
 30
0.0
  3
GEVCON
  1
GEVCON
  0
ENDBLK
  5
FDB
330
FD9
100
AcDbEntity
  8
0
100
AcDbBlockEnd
  0
BLOCK
  5
FE4
330
FDD
100
AcDbEntity
  8
0
100
AcDbBlockBegin
  2
GEVEP
 70
     0
 10
0.0
 20
0.0
 30
0.0
  3
GEVEP
  1

  0
LINE
  5
FDE
330
FDD
100
AcDbEntity
  8
0
100
AcDbLine
 10
2.0
 20
-2.0
 30
0.0
 11
-2.0
 21
-2.0
 31
0.0
  0
LINE
  5
FDF
330
FDD
100
AcDbEntity
  8
0
100
AcDbLine
 10
-2.0
 20
2.0
 30
0.0
 11
2.0
 21
2.0
 31
0.0
  0
LINE
  5
FE0
330
FDD
100
AcDbEntity
  8
0
100
AcDbLine
 10
2.0
 20
-2.0
 30
0.0
 11
-2.0
 21
2.0
 31
0.0
  0
LINE
  5
FE1
330
FDD
100
AcDbEntity
  8
0
100
AcDbLine
 10
-2.0
 20
-2.0
 30
0.0
 11
2.0
 21
2.0
 31
0.0
  0
LINE
  5
FE2
330
FDD
100
AcDbEntity
  8
0
100
AcDbLine
 10
-2.0
 20
-2.0
 30
0.0
 11
-2.0
 21
2.0
 31
0.0
  0
LINE
  5
FE3
330
FDD
100
AcDbEntity
  8
0
100
AcDbLine
 10
2.0
 20
2.0
 30
0.0
 11
2.0
 21
-2.0
 31
0.0
  0
ENDBLK
  5
FE5
330
FDD
100
AcDbEntity
  8
0
100
AcDbBlockEnd
  0
BLOCK
  5
FE7
330
FE6
100
AcDbEntity
  8
0
100
AcDbBlockBegin
  2
GEVFRAME
 70
     0
 10
0.0
 20
0.0
 30
0.0
  3
GEVFRAME
  1
GEVFRAME
  0
LINE
  5
FE8
330
FE6
100
AcDbEntity
  8
0
100
AcDbLine
 10
0.0
 20
0.0
 30
0.0
 11
1.0
 21
0.0
 31
0.0
  0
LINE
  5
FE9
330
FE6
100
AcDbEntity
  8
0
100
AcDbLine
 10
1.0
 20
0.0
 30
0.0
 11
1.0
 21
1.0
 31
0.0
  0
LINE
  5
FEA
330
FE6
100
AcDbEntity
  8
0
100
AcDbLine
 10
1.0
 20
1.0
 30
0.0
 11
0.0
 21
1.0
 31
0.0
  0
LINE
  5
FEB
330
FE6
100
AcDbEntity
  8
0
100
AcDbLine
 10
0.0
 20
1.0
 30
0.0
 11
0.0
 21
0.0
 31
0.0
  0
ENDBLK
  5
FEC
330
FE6
100
AcDbEntity
  8
0
100
AcDbBlockEnd
  0
BLOCK
  5
1000
330
FF4
100
AcDbEntity
  8
0
100
AcDbBlockBegin
  2
*D29
 70
     1
 10
0.0
 20
0.0
 30
0.0
  3
*D29
  1
GEVFRAME
  0
LINE
  5
1001
330
FF4
100
AcDbEntity
  8
0
  6
ByBlock
100
AcDbLine
 10
249.446807
 20
424.771608
 30
0.0
 11
249.446807
 21
379.771608
 31
0.0
  0
LINE
  5
1002
330
FF4
100
AcDbEntity
  8
0
  6
ByBlock
100
AcDbLine
 10
490.7468219999999
 20
489.753811
 30
0.0
 11
490.7468219999999
 21
379.771608
 31
0.0
  0
LINE
  5
1003
330
FF4
100
AcDbEntity
  8
0
  6
ByBlock
100
AcDbLine
 10
260.696807
 20
384.271608
 30
0.0
 11
479.4968219999999
 21
384.271608
 31
0.0
  0
SOLID
  5
1004
330
FF4
100
AcDbEntity
  8
0
  6
ByBlock
100
AcDbTrace
 10
260.696807
 20
386.146608
 30
0.0
 11
260.696807
 21
382.396608
 31
0.0
 12
249.446807
 22
384.271608
 32
0.0
 13
249.446807
 23
384.271608
 33
0.0
  0
SOLID
  5
1005
330
FF4
100
AcDbEntity
  8
0
  6
ByBlock
100
AcDbTrace
 10
479.4968219999999
 20
386.146608
 30
0.0
 11
479.4968219999999
 21
382.396608
 31
0.0
 12
490.7468219999999
 22
384.271608
 32
0.0
 13
490.7468219999999
 23
384.271608
 33
0.0
  0
MTEXT
  5
1006
330
FF4
100
AcDbEntity
  8
0
  6
ByBlock
 62
     2
100
AcDbMText
 10
370.096814
 20
394.848158
 30
0.0
 40
15.75
 41
0.0
 71
     5
 72
     1
  1
255
 73
     1
 44
1.0
1001
ACAD
1000
MTEXTBEGIN
1070
    73
1070
     1
1070
    44
1040
1.0
1070
    74
1070
     0
1000
MTEXTEND
  0
POINT
  5
1007
330
FF4
100
AcDbEntity
  8
DEFPOINTS
  6
ByBlock
 62
     0
100
AcDbPoint
 10
249.446807
 20
429.2716079999999
 30
0.0
  0
POINT
  5
1008
330
FF4
100
AcDbEntity
  8
DEFPOINTS
  6
ByBlock
 62
     0
100
AcDbPoint
 10
490.7468219999999
 20
494.253811
 30
0.0
  0
POINT
  5
1009
330
FF4
100
AcDbEntity
  8
DEFPOINTS
  6
ByBlock
 62
     0
100
AcDbPoint
 10
490.7468219999999
 20
384.271608
 30
0.0
  0
ENDBLK
  5
100A
330
FF4
100
AcDbEntity
  8
0
100
AcDbBlockEnd
  0
BLOCK
  5
101C
330
100F
100
AcDbEntity
  8
0
100
AcDbBlockBegin
  2
*D30
 70
     1
 10
0.0
 20
0.0
 30
0.0
  3
*D30
  1
GEVFRAME
  0
LINE
  5
101D
330
100F
100
AcDbEntity
  8
0
  6
ByBlock
100
AcDbLine
 10
349.302594
 20
599.271608
 30
0.0
 11
546.805504
 21
599.271608
 31
0.0
  0
LINE
  5
101E
330
100F
100
AcDbEntity
  8
0
  6
ByBlock
100
AcDbLine
 10
495.2468219999999
 20
494.253811
 30
0.0
 11
546.805504
 21
494.253811
 31
0.0
  0
LINE
  5
101F
330
100F
100
AcDbEntity
  8
0
  6
ByBlock
100
AcDbLine
 10
542.305504
 20
588.021608
 30
0.0
 11
542.305504
 21
562.3889029999999
 31
0.0
  0
LINE
  5
1020
330
100F
100
AcDbEntity
  8
0
  6
ByBlock
100
AcDbLine
 10
542.305504
 20
505.503811
 30
0.0
 11
542.305504
 21
531.136516
 31
0.0
  0
MTEXT
  5
1021
330
100F
100
AcDbEntity
  8
0
  6
ByBlock
 62
     2
100
AcDbMText
 10
542.305504
 20
546.7627099999999
 30
0.0
 40
15.75
 41
0.0
 71
     5
 72
     1
  1
105
 11
0.0
 21
1.0
 31
0.0
 73
     1
 44
1.0
1001
ACAD
1000
MTEXTBEGIN
1070
    73
1070
     1
1070
    44
1040
1.0
1070
    74
1070
     0
1000
MTEXTEND
  0
SOLID
  5
1022
330
100F
100
AcDbEntity
  8
0
  6
ByBlock
100
AcDbTrace
 10
540.430504
 20
588.021608
 30
0.0
 11
544.180504
 21
588.021608
 31
0.0
 12
542.305504
 22
599.271608
 32
0.0
 13
542.305504
 23
599.271608
 33
0.0
  0
SOLID
  5
1023
330
100F
100
AcDbEntity
  8
0
  6
ByBlock
100
AcDbTrace
 10
540.430504
 20
505.503811
 30
0.0
 11
544.180504
 21
505.503811
 31
0.0
 12
542.305504
 22
494.253811
 32
0.0
 13
542.305504
 23
494.253811
 33
0.0
  0
POINT
  5
1024
330
100F
100
AcDbEntity
  8
DEFPOINTS
  6
ByBlock
 62
     0
100
AcDbPoint
 10
344.802594
 20
599.271608
 30
0.0
  0
POINT
  5
1025
330
100F
100
AcDbEntity
  8
DEFPOINTS
  6
ByBlock
 62
     0
100
AcDbPoint
 10
490.7468219999999
 20
494.253811
 30
0.0
  0
POINT
  5
1026
330
100F
100
AcDbEntity
  8
DEFPOINTS
  6
ByBlock
 62
     0
100
AcDbPoint
 10
542.305504
 20
494.253811
 30
0.0
  0
ENDBLK
  5
1027
330
100F
100
AcDbEntity
  8
0
100
AcDbBlockEnd
  0
BLOCK
  5
10F3
330
10F1
100
AcDbEntity
  8
0
100
AcDbBlockBegin
  2
GENAXEH
 70
     0
 10
0.0
 20
0.0
 30
0.0
  3
GENAXEH
  1

  0
LINE
  5
10F2
330
10F1
100
AcDbEntity
  8
0
100
AcDbLine
 10
-1.0
 20
0.0
 30
0.0
 11
1.0
 21
0.0
 31
0.0
  0
ENDBLK
  5
10F4
330
10F1
100
AcDbEntity
  8
0
100
AcDbBlockEnd
  0
ENDSEC
  0
SECTION
  2
ENTITIES
  0
LINE
  5
2AA
330
F51
100
AcDbEntity
  8
0
100
AcDbLine
 10
176.425749
 20
305.232076
 30
0.0
 11
176.425749
 21
155.923815
 31
0.0
  0
LINE
  5
2AB
330
F51
100
AcDbEntity
  8
0
100
AcDbLine
 10
186.425749
 20
305.232076
 30
0.0
 11
186.425749
 21
155.923815
 31
0.0
  0
ARC
  5
2AD
330
F51
100
AcDbEntity
  8
0
100
AcDbCircle
 10
181.425749
 20
305.232076
 30
0.0
 40
5.0
100
AcDbArc
 50
0.0
 51
180.0
  0
ARC
  5
2AE
330
F51
100
AcDbEntity
  8
0
100
AcDbCircle
 10
181.425749
 20
155.923815
 30
0.0
 40
5.0
100
AcDbArc
 50
180.0
 51
0.0
  0
LINE
  5
2AF
330
F51
100
AcDbEntity
  8
0
100
AcDbLine
 10
207.563087
 20
305.232076
 30
0.0
 11
207.563087
 21
155.923815
 31
0.0
  0
LINE
  5
2B0
330
F51
100
AcDbEntity
  8
0
100
AcDbLine
 10
197.563087
 20
305.232076
 30
0.0
 11
197.563087
 21
155.923815
 31
0.0
  0
ARC
  5
2B1
330
F51
100
AcDbEntity
  8
0
100
AcDbCircle
 10
202.563087
 20
155.923815
 30
0.0
 40
5.0
100
AcDbArc
 50
180.0
 51
0.0
  0
ARC
  5
2B2
330
F51
100
AcDbEntity
  8
0
100
AcDbCircle
 10
202.563087
 20
305.232076
 30
0.0
 40
5.0
100
AcDbArc
 50
0.0
 51
180.0
  0
LINE
  5
2B3
330
F51
100
AcDbEntity
  8
0
100
AcDbLine
 10
227.601713
 20
305.232076
 30
0.0
 11
227.601713
 21
155.923815
 31
0.0
  0
LINE
  5
2B4
330
F51
100
AcDbEntity
  8
0
100
AcDbLine
 10
217.601713
 20
305.232076
 30
0.0
 11
217.601713
 21
155.923815
 31
0.0
  0
ARC
  5
2B5
330
F51
100
AcDbEntity
  8
0
100
AcDbCircle
 10
222.601713
 20
155.923815
 30
0.0
 40
5.0
100
AcDbArc
 50
180.0
 51
0.0
  0
ARC
  5
2B6
330
F51
100
AcDbEntity
  8
0
100
AcDbCircle
 10
222.601713
 20
305.232076
 30
0.0
 40
5.0
100
AcDbArc
 50
0.0
 51
180.0
  0
LINE
  5
2B7
330
F51
100
AcDbEntity
  8
0
100
AcDbLine
 10
246.769097
 20
305.232076
 30
0.0
 11
246.769097
 21
155.923815
 31
0.0
  0
LINE
  5
2B8
330
F51
100
AcDbEntity
  8
0
100
AcDbLine
 10
236.769097
 20
305.232076
 30
0.0
 11
236.769097
 21
155.923815
 31
0.0
  0
ARC
  5
2B9
330
F51
100
AcDbEntity
  8
0
100
AcDbCircle
 10
241.769097
 20
155.923815
 30
0.0
 40
5.0
100
AcDbArc
 50
180.0
 51
0.0
  0
ARC
  5
2BA
330
F51
100
AcDbEntity
  8
0
100
AcDbCircle
 10
241.769097
 20
305.232076
 30
0.0
 40
5.0
100
AcDbArc
 50
0.0
 51
180.0
  0
LINE
  5
2F0
330
F51
100
AcDbEntity
  8
0
100
AcDbLine
 10
169.09102
 20
140.75092
 30
0.0
 11
337.07032
 21
140.75092
 31
0.0
1001
GENIUS_GENODEF_13
1002
{
1000
HIER
1070
     0
1002
}
1002
{
1000
MANEDIT
1070
     0
1002
}
1002
{
1000
NOSEL
1070
     0
1002
}
1002
{
1000
BEHIND
1070
     0
1002
}
1002
{
1000
REACTOR
1002
}
1001
GENIUS_GENOBJ-N-REC_13
1002
{
1000
OWNER
1000
GEN
1002
}
  0
LINE
  5
2F1
330
F51
100
AcDbEntity
  8
0
100
AcDbLine
 10
342.0703200000001
 20
145.75092
 30
0.0
 11
342.0703200000001
 21
315.40497
 31
0.0
1001
GENIUS_GENODEF_13
1002
{
1000
HIER
1070
     0
1002
}
1002
{
1000
MANEDIT
1070
     0
1002
}
1002
{
1000
NOSEL
1070
     0
1002
}
1002
{
1000
BEHIND
1070
     0
1002
}
1002
{
1000
REACTOR
1002
}
1001
GENIUS_GENOBJ-N-REC_13
1002
{
1000
OWNER
1000
GEN
1002
}
  0
LINE
  5
2F2
330
F51
100
AcDbEntity
  8
0
100
AcDbLine
 10
337.07032
 20
320.40497
 30
0.0
 11
169.09102
 21
320.40497
 31
0.0
1001
GENIUS_GENODEF_13
1002
{
1000
HIER
1070
     0
1002
}
1002
{
1000
MANEDIT
1070
     0
1002
}
1002
{
1000
NOSEL
1070
     0
1002
}
1002
{
1000
BEHIND
1070
     0
1002
}
1002
{
1000
REACTOR
1002
}
1001
GENIUS_GENOBJ-N-REC_13
1002
{
1000
OWNER
1000
GEN
1002
}
  0
LINE
  5
2F3
330
F51
100
AcDbEntity
  8
0
100
AcDbLine
 10
164.09102
 20
315.40497
 30
0.0
 11
164.09102
 21
145.75092
 31
0.0
1001
GENIUS_GENODEF_13
1002
{
1000
HIER
1070
     0
1002
}
1002
{
1000
MANEDIT
1070
     0
1002
}
1002
{
1000
NOSEL
1070
     0
1002
}
1002
{
1000
BEHIND
1070
     0
1002
}
1002
{
1000
REACTOR
1002
}
1001
GENIUS_GENOBJ-N-REC_13
1002
{
1000
OWNER
1000
GEN
1002
}
  0
LINE
  5
2F4
330
F51
100
AcDbEntity
  8
0
100
AcDbLine
 10
172.09102
 20
143.75092
 30
0.0
 11
334.07032
 21
143.75092
 31
0.0
1001
GENIUS_GENODEF_13
1002
{
1000
HIER
1070
     0
1002
}
1002
{
1000
MANEDIT
1070
     0
1002
}
1002
{
1000
NOSEL
1070
     0
1002
}
1002
{
1000
BEHIND
1070
     0
1002
}
1002
{
1000
REACTOR
1002
}
1001
GENIUS_GENOBJ-N-REC_13
1002
{
1000
OWNER
1000
GEN
1002
}
  0
LINE
  5
2F5
330
F51
100
AcDbEntity
  8
0
100
AcDbLine
 10
339.07032
 20
148.75092
 30
0.0
 11
339.07032
 21
312.40497
 31
0.0
  0
ARC
  5
2F6
330
F51
100
AcDbEntity
  8
0
100
AcDbCircle
 10
334.07032
 20
312.40497
 30
0.0
 40
5.0
100
AcDbArc
 50
0.0
 51
90.0
1001
GENIUS_GENODEF_13
1002
{
1000
HIER
1070
     0
1002
}
1002
{
1000
MANEDIT
1070
     0
1002
}
1002
{
1000
NOSEL
1070
     0
1002
}
1002
{
1000
BEHIND
1070
     0
1002
}
1002
{
1000
REACTOR
1002
}
1001
GENIUS_GENOBJ-N-REC_13
1002
{
1000
OWNER
1000
GEN
1002
}
  0
LINE
  5
2F7
330
F51
100
AcDbEntity
  8
0
100
AcDbLine
 10
334.07032
 20
317.40497
 30
0.0
 11
172.09102
 21
317.40497
 31
0.0
1001
GENIUS_GENODEF_13
1002
{
1000
HIER
1070
     0
1002
}
1002
{
1000
MANEDIT
1070
     0
1002
}
1002
{
1000
NOSEL
1070
     0
1002
}
1002
{
1000
BEHIND
1070
     0
1002
}
1002
{
1000
REACTOR
1002
}
1001
GENIUS_GENOBJ-N-REC_13
1002
{
1000
OWNER
1000
GEN
1002
}
  0
LINE
  5
2F8
330
F51
100
AcDbEntity
  8
0
100
AcDbLine
 10
167.0910199999999
 20
312.40497
 30
0.0
 11
167.0910199999999
 21
148.75092
 31
0.0
1001
GENIUS_GENODEF_13
1002
{
1000
HIER
1070
     0
1002
}
1002
{
1000
MANEDIT
1070
     0
1002
}
1002
{
1000
NOSEL
1070
     0
1002
}
1002
{
1000
BEHIND
1070
     0
1002
}
1002
{
1000
REACTOR
1002
}
1001
GENIUS_GENOBJ-N-REC_13
1002
{
1000
OWNER
1000
GEN
1002
}
  0
ARC
  5
2F9
330
F51
100
AcDbEntity
  8
0
100
AcDbCircle
 10
337.07032
 20
315.40497
 30
0.0
 40
5.0
100
AcDbArc
 50
0.0
 51
90.0
1001
GENIUS_GENODEF_13
1002
{
1000
HIER
1070
     0
1002
}
1002
{
1000
MANEDIT
1070
     0
1002
}
1002
{
1000
NOSEL
1070
     0
1002
}
1002
{
1000
BEHIND
1070
     0
1002
}
1002
{
1000
REACTOR
1002
}
1001
GENIUS_GENOBJ-N-FIL_13
1002
{
1000
OWNER
1000
GEN
1002
}
1001
GENIUS_GENOBJ-N-REC_13
1002
{
1000
OWNER
1000
GEN
1002
}
  0
ARC
  5
2FB
330
F51
100
AcDbEntity
  8
0
100
AcDbCircle
 10
169.09102
 20
315.40497
 30
0.0
 40
5.0
100
AcDbArc
 50
90.0
 51
180.0
1001
GENIUS_GENODEF_13
1002
{
1000
HIER
1070
     0
1002
}
1002
{
1000
MANEDIT
1070
     0
1002
}
1002
{
1000
NOSEL
1070
     0
1002
}
1002
{
1000
BEHIND
1070
     0
1002
}
1002
{
1000
REACTOR
1002
}
1001
GENIUS_GENOBJ-N-FIL_13
1002
{
1000
OWNER
1000
GEN
1002
}
1001
GENIUS_GENOBJ-N-REC_13
1002
{
1000
OWNER
1000
GEN
1002
}
  0
ARC
  5
2FC
330
F51
100
AcDbEntity
  8
0
100
AcDbCircle
 10
169.09102
 20
145.75092
 30
0.0
 40
5.0
100
AcDbArc
 50
180.0
 51
270.0
1001
GENIUS_GENODEF_13
1002
{
1000
HIER
1070
     0
1002
}
1002
{
1000
MANEDIT
1070
     0
1002
}
1002
{
1000
NOSEL
1070
     0
1002
}
1002
{
1000
BEHIND
1070
     0
1002
}
1002
{
1000
REACTOR
1002
}
1001
GENIUS_GENOBJ-N-FIL_13
1002
{
1000
OWNER
1000
GEN
1002
}
1001
GENIUS_GENOBJ-N-REC_13
1002
{
1000
OWNER
1000
GEN
1002
}
  0
ARC
  5
2FD
330
F51
100
AcDbEntity
  8
0
100
AcDbCircle
 10
337.07032
 20
145.75092
 30
0.0
 40
5.0
100
AcDbArc
 50
270.0
 51
0.0
1001
GENIUS_GENODEF_13
1002
{
1000
HIER
1070
     0
1002
}
1002
{
1000
MANEDIT
1070
     0
1002
}
1002
{
1000
NOSEL
1070
     0
1002
}
1002
{
1000
BEHIND
1070
     0
1002
}
1002
{
1000
REACTOR
1002
}
1001
GENIUS_GENOBJ-N-FIL_13
1002
{
1000
OWNER
1000
GEN
1002
}
1001
GENIUS_GENOBJ-N-REC_13
1002
{
1000
OWNER
1000
GEN
1002
}
  0
ARC
  5
2FE
330
F51
100
AcDbEntity
  8
0
100
AcDbCircle
 10
172.09102
 20
312.40497
 30
0.0
 40
5.0
100
AcDbArc
 50
90.0
 51
180.0
1001
GENIUS_GENODEF_13
1002
{
1000
HIER
1070
     0
1002
}
1002
{
1000
MANEDIT
1070
     0
1002
}
1002
{
1000
NOSEL
1070
     0
1002
}
1002
{
1000
BEHIND
1070
     0
1002
}
1002
{
1000
REACTOR
1002
}
1001
GENIUS_GENOBJ-N-FIL_13
1002
{
1000
OWNER
1000
GEN
1002
}
1001
GENIUS_GENOBJ-N-REC_13
1002
{
1000
OWNER
1000
GEN
1002
}
  0
ARC
  5
2FF
330
F51
100
AcDbEntity
  8
0
100
AcDbCircle
 10
172.09102
 20
148.75092
 30
0.0
 40
5.0
100
AcDbArc
 50
180.0
 51
270.0
1001
GENIUS_GENODEF_13
1002
{
1000
HIER
1070
     0
1002
}
1002
{
1000
MANEDIT
1070
     0
1002
}
1002
{
1000
NOSEL
1070
     0
1002
}
1002
{
1000
BEHIND
1070
     0
1002
}
1002
{
1000
REACTOR
1002
}
1001
GENIUS_GENOBJ-N-FIL_13
1002
{
1000
OWNER
1000
GEN
1002
}
1001
GENIUS_GENOBJ-N-REC_13
1002
{
1000
OWNER
1000
GEN
1002
}
  0
ARC
  5
300
330
F51
100
AcDbEntity
  8
0
100
AcDbCircle
 10
334.07032
 20
148.75092
 30
0.0
 40
5.0
100
AcDbArc
 50
270.0
 51
0.0
1001
GENIUS_GENODEF_13
1002
{
1000
HIER
1070
     0
1002
}
1002
{
1000
MANEDIT
1070
     0
1002
}
1002
{
1000
NOSEL
1070
     0
1002
}
1002
{
1000
BEHIND
1070
     0
1002
}
1002
{
1000
REACTOR
1002
}
1001
GENIUS_GENOBJ-N-FIL_13
1002
{
1000
OWNER
1000
GEN
1002
}
  0
LINE
  5
302
330
F51
100
AcDbEntity
  8
0
100
AcDbLine
 10
383.715038
 20
280.577945
 30
0.0
 11
484.4338839999999
 21
280.577945
 31
0.0
  0
LINE
  5
304
330
F51
100
AcDbEntity
  8
0
100
AcDbLine
 10
383.774692
 20
180.577945
 30
0.0
 11
484.243946
 21
180.577945
 31
0.0
  0
ARC
  5
306
330
F51
100
AcDbEntity
  8
0
100
AcDbCircle
 10
292.46846
 20
230.942379
 30
0.0
 40
198.278626
100
AcDbArc
 50
345.285165
 51
14.49718299999999
  0
LINE
  5
307
330
F51
100
AcDbEntity
  8
0
100
AcDbLine
 10
377.076742
 20
284.387913
 30
0.0
 11
377.076742
 21
176.767978
 31
0.0
  0
ARC
  5
308
330
F51
100
AcDbEntity
  8
0
100
AcDbCircle
 10
563.128995
 20
230.684955
 30
0.0
 40
186.222122
100
AcDbArc
 50
164.390995
 51
195.609005
  0
LINE
  5
309
330
F51
100
AcDbEntity
  8
0
100
AcDbLine
 10
353.08067
 20
298.16016
 30
0.0
 11
383.715038
 21
280.577945
 31
0.0
  0
LINE
  5
30A
330
F51
100
AcDbEntity
  8
0
100
AcDbLine
 10
353.08067
 20
162.995731
 30
0.0
 11
383.715038
 21
180.577945
 31
0.0
  0
LINE
  5
30B
330
F51
100
AcDbEntity
  8
0
100
AcDbLine
 10
307.4172910000001
 20
429.2716079999999
 30
0.0
 11
181.698023
 21
429.2716079999999
 31
0.0
  0
LINE
  5
30C
330
F51
100
AcDbEntity
  8
0
100
AcDbLine
 10
344.802594
 20
599.271608
 30
0.0
 11
154.09102
 21
599.271608
 31
0.0
  0
LINE
  5
30E
330
F51
100
AcDbEntity
  8
7
100
AcDbLine
 10
517.494895
 20
494.271608
 30
0.0
 11
414.923526
 21
494.203361
 31
0.0
  0
LINE
  5
311
330
F51
100
AcDbEntity
  8
0
100
AcDbLine
 10
155.278325
 20
572.3903199999999
 30
0.0
 11
163.240201
 21
568.585274
 31
0.0
  0
LINE
  5
312
330
F51
100
AcDbEntity
  8
0
100
AcDbLine
 10
166.079195
 20
564.2980619999999
 30
0.0
 11
171.708071
 21
438.823452
 31
0.0
  0
LINE
  5
313
330
F51
100
AcDbEntity
  8
0
100
AcDbLine
 10
340.144694
 20
516.307296
 30
0.0
 11
317.022385
 21
436.4891339999999
 31
0.0
  0
LINE
  5
314
330
F51
100
AcDbEntity
  8
0
100
AcDbLine
 10
349.936992
 20
516.307296
 30
0.0
 11
368.560033
 21
450.1952839999999
 31
0.0
  0
LINE
  5
315
330
F51
100
AcDbEntity
  8
0
100
AcDbLine
 10
373.061074
 20
446.5606929999999
 30
0.0
 11
489.933529
 21
439.2615509999999
 31
0.0
  0
LINE
  5
316
330
F51
100
AcDbEntity
  8
0
100
AcDbLine
 10
489.933529
 20
439.2615509999999
 30
0.0
 11
491.479575
 21
543.8001709999999
 31
0.0
  0
LINE
  5
317
330
F51
100
AcDbEntity
  8
0
100
AcDbLine
 10
491.479575
 20
543.8001709999999
 30
0.0
 11
399.749348
 21
549.662312
 31
0.0
  0
LINE
  5
318
330
F51
100
AcDbEntity
  8
0
100
AcDbLine
 10
396.534
 20
551.115295
 30
0.0
 11
377.170441
 21
570.4645730000001
 31
0.0
  0
LINE
  5
319
330
F51
100
AcDbEntity
  8
0
100
AcDbLine
 10
373.636211
 20
571.9277349999999
 30
0.0
 11
351.485203
 21
571.9277349999999
 31
0.0
  0
LINE
  5
31A
330
F51
100
AcDbEntity
  8
0
100
AcDbLine
 10
346.499088
 20
576.555362
 30
0.0
 11
344.802594
 21
599.271608
 31
0.0
  0
LINE
  5
31C
330
F51
100
AcDbEntity
  8
0
100
AcDbLine
 10
152.448193
 20
577.273983
 30
0.0
 11
154.09102
 21
599.271608
 31
0.0
  0
LINE
  5
31F
330
F51
100
AcDbEntity
  8
0
100
AcDbLine
 10
172.884084
 20
568.804262
 30
0.0
 11
178.401086
 21
445.8234519999999
 31
0.0
  0
LINE
  5
321
330
F51
100
AcDbEntity
  8
0
100
AcDbLine
 10
302.1573029999999
 20
436.271608
 30
0.0
 11
188.391039
 21
436.271608
 31
0.0
  0
LINE
  5
323
330
F51
100
AcDbEntity
  8
0
100
AcDbLine
 10
333.4211279999999
 20
518.255028
 30
0.0
 11
311.762397
 21
443.489134
 31
0.0
  0
LINE
  5
325
330
F51
100
AcDbEntity
  8
0
100
AcDbLine
 10
162.615358
 20
576.642205
 30
0.0
 11
170.04509
 21
573.0914749999999
 31
0.0
  0
LINE
  5
327
330
F51
100
AcDbEntity
  8
0
100
AcDbLine
 10
356.674777
 20
518.2052579999999
 30
0.0
 11
373.951639
 21
456.872195
 31
0.0
  0
LINE
  5
329
330
F51
100
AcDbEntity
  8
0
100
AcDbLine
 10
378.45268
 20
453.2376049999999
 30
0.0
 11
490.0371599999999
 21
446.2687169999999
 31
0.0
  0
ARC
  5
32B
330
F51
100
AcDbEntity
  8
0
100
AcDbCircle
 10
345.040843
 20
516.307296
 30
0.0
 40
4.896148999999999
100
AcDbArc
 50
0.0
 51
180.0
  0
ARC
  5
32C
330
F51
100
AcDbEntity
  8
0
100
AcDbCircle
 10
345.047952
 20
518.2301429999999
 30
0.0
 40
11.626851
100
AcDbArc
 50
359.877368
 51
179.877368
  0
LINE
  5
32D
330
F51
100
AcDbEntity
  8
0
100
AcDbLine
 10
159.785226
 20
581.5258679999999
 30
0.0
 11
161.110513
 21
599.271608
 31
0.0
  0
LINE
  5
32F
330
F51
100
AcDbEntity
  8
0
100
AcDbLine
 10
491.375937
 20
536.7925139999999
 30
0.0
 11
396.668633
 21
542.8449099999999
 31
0.0
  0
LINE
  5
331
330
F51
100
AcDbEntity
  8
0
100
AcDbLine
 10
393.453285
 20
544.2978929999999
 30
0.0
 11
374.272459
 21
563.464573
 31
0.0
  0
LINE
  5
333
330
F51
100
AcDbEntity
  8
0
100
AcDbLine
 10
370.738229
 20
564.927735
 30
0.0
 11
344.988483
 21
564.927735
 31
0.0
1001
GENIUS_GENOREF_13
1005
56F
  0
LINE
  5
337
330
F51
100
AcDbEntity
  8
0
100
AcDbLine
 10
340.002368
 20
569.555362
 30
0.0
 11
337.7831
 21
599.271608
 31
0.0
1001
GENIUS_GENOREF_13
1005
56F
  0
LINE
  5
33A
330
F51
100
AcDbEntity
  8
0
100
AcDbLine
 10
163.883318
 20
599.271608
 30
0.0
 11
163.883318
 21
583.1722179999998
 31
0.0
  0
LINE
  5
342
330
F51
100
AcDbEntity
  8
0
100
AcDbLine
 10
329.73559
 20
305.232076
 30
0.0
 11
329.73559
 21
155.923815
 31
0.0
  0
LINE
  5
343
330
F51
100
AcDbEntity
  8
0
100
AcDbLine
 10
319.73559
 20
305.232076
 30
0.0
 11
319.73559
 21
155.923815
 31
0.0
  0
LINE
  5
344
330
F51
100
AcDbEntity
  8
0
100
AcDbLine
 10
298.598252
 20
305.232076
 30
0.0
 11
298.598252
 21
155.923815
 31
0.0
  0
LINE
  5
345
330
F51
100
AcDbEntity
  8
0
100
AcDbLine
 10
308.598252
 20
305.232076
 30
0.0
 11
308.598252
 21
155.923815
 31
0.0
  0
LINE
  5
346
330
F51
100
AcDbEntity
  8
0
100
AcDbLine
 10
278.559626
 20
305.232076
 30
0.0
 11
278.559626
 21
155.923815
 31
0.0
  0
LINE
  5
347
330
F51
100
AcDbEntity
  8
0
100
AcDbLine
 10
288.559626
 20
305.232076
 30
0.0
 11
288.559626
 21
155.923815
 31
0.0
  0
LINE
  5
348
330
F51
100
AcDbEntity
  8
0
100
AcDbLine
 10
259.392243
 20
305.232076
 30
0.0
 11
259.392243
 21
155.923815
 31
0.0
  0
LINE
  5
349
330
F51
100
AcDbEntity
  8
0
100
AcDbLine
 10
269.392243
 20
305.232076
 30
0.0
 11
269.392243
 21
155.923815
 31
0.0
  0
ARC
  5
34A
330
F51
100
AcDbEntity
  8
0
100
AcDbCircle
 10
324.73559
 20
155.923815
 30
0.0
 40
5.0
100
AcDbArc
 50
180.0
 51
0.0
  0
ARC
  5
34B
330
F51
100
AcDbEntity
  8
0
100
AcDbCircle
 10
283.559626
 20
155.923815
 30
0.0
 40
5.0
100
AcDbArc
 50
180.0
 51
0.0
  0
ARC
  5
34C
330
F51
100
AcDbEntity
  8
0
100
AcDbCircle
 10
303.598252
 20
155.923815
 30
0.0
 40
5.0
100
AcDbArc
 50
180.0
 51
0.0
  0
ARC
  5
34D
330
F51
100
AcDbEntity
  8
0
100
AcDbCircle
 10
264.392243
 20
155.923815
 30
0.0
 40
5.0
100
AcDbArc
 50
180.0
 51
0.0
  0
ARC
  5
34E
330
F51
100
AcDbEntity
  8
0
100
AcDbCircle
 10
324.73559
 20
305.232076
 30
0.0
 40
5.0
100
AcDbArc
 50
0.0
 51
180.0
  0
ARC
  5
34F
330
F51
100
AcDbEntity
  8
0
100
AcDbCircle
 10
283.559626
 20
305.232076
 30
0.0
 40
5.0
100
AcDbArc
 50
0.0
 51
180.0
  0
ARC
  5
350
330
F51
100
AcDbEntity
  8
0
100
AcDbCircle
 10
303.598252
 20
305.232076
 30
0.0
 40
5.0
100
AcDbArc
 50
0.0
 51
180.0
  0
ARC
  5
351
330
F51
100
AcDbEntity
  8
0
100
AcDbCircle
 10
264.392243
 20
305.232076
 30
0.0
 40
5.0
100
AcDbArc
 50
0.0
 51
180.0
  0
LINE
  5
354
330
F51
100
AcDbEntity
  8
0
100
AcDbLine
 10
172.53049
 20
599.271608
 30
0.0
 11
172.53049
 21
583.1722179999998
 31
0.0
  0
LINE
  5
356
330
F51
100
AcDbEntity
  8
0
100
AcDbLine
 10
182.53049
 20
599.271608
 30
0.0
 11
182.53049
 21
583.1722179999998
 31
0.0
  0
LINE
  5
358
330
F51
100
AcDbEntity
  8
0
100
AcDbLine
 10
193.667829
 20
599.271608
 30
0.0
 11
193.667829
 21
583.1722179999998
 31
0.0
  0
LINE
  5
35A
330
F51
100
AcDbEntity
  8
0
100
AcDbLine
 10
203.667829
 20
599.271608
 30
0.0
 11
203.667829
 21
583.1722179999998
 31
0.0
  0
LINE
  5
35C
330
F51
100
AcDbEntity
  8
0
100
AcDbLine
 10
213.706455
 20
599.271608
 30
0.0
 11
213.706455
 21
583.1722179999998
 31
0.0
  0
LINE
  5
35E
330
F51
100
AcDbEntity
  8
0
100
AcDbLine
 10
223.706455
 20
599.271608
 30
0.0
 11
223.706455
 21
583.1722179999998
 31
0.0
  0
LINE
  5
360
330
F51
100
AcDbEntity
  8
0
100
AcDbLine
 10
232.873838
 20
599.271608
 30
0.0
 11
232.873838
 21
583.1722179999998
 31
0.0
  0
LINE
  5
362
330
F51
100
AcDbEntity
  8
0
100
AcDbLine
 10
242.873838
 20
599.271608
 30
0.0
 11
242.873838
 21
583.1722179999998
 31
0.0
  0
LINE
  5
369
330
F51
100
AcDbEntity
  8
0
100
AcDbLine
 10
166.383318
 20
580.6722179999999
 30
0.0
 11
170.03049
 21
580.6722179999999
 31
0.0
  0
LINE
  5
36A
330
F51
100
AcDbEntity
  8
0
100
AcDbLine
 10
188.583109
 20
580.6722179999999
 30
0.0
 11
197.405353
 21
570.161147
 31
0.0
  0
LINE
  5
36B
330
F51
100
AcDbEntity
  8
0
100
AcDbLine
 10
197.405353
 20
570.161147
 30
0.0
 11
249.446807
 21
570.161147
 31
0.0
  0
LINE
  5
36C
330
F51
100
AcDbEntity
  8
0
100
AcDbLine
 10
188.583109
 20
580.6722179999999
 30
0.0
 11
191.167829
 21
580.6722179999999
 31
0.0
  0
LINE
  5
371
330
F51
100
AcDbEntity
  8
0
100
AcDbLine
 10
185.03049
 20
580.6722179999999
 30
0.0
 11
188.583109
 21
580.6722179999999
 31
0.0
  0
LINE
  5
372
330
F51
100
AcDbEntity
  8
0
100
AcDbLine
 10
206.167829
 20
580.6722179999999
 30
0.0
 11
211.206455
 21
580.6722179999999
 31
0.0
  0
LINE
  5
373
330
F51
100
AcDbEntity
  8
0
100
AcDbLine
 10
226.206455
 20
580.6722179999999
 30
0.0
 11
230.373838
 21
580.6722179999999
 31
0.0
  0
LINE
  5
374
330
F51
100
AcDbEntity
  8
0
100
AcDbLine
 10
245.373838
 20
580.6722179999999
 30
0.0
 11
249.446807
 21
580.6722179999999
 31
0.0
  0
ARC
  5
377
330
F51
100
AcDbEntity
  8
0
100
AcDbCircle
 10
206.167829
 20
583.1722179999998
 30
0.0
 40
2.5
100
AcDbArc
 50
180.0
 51
270.0
1001
GENIUS_GENODEF_13
1002
{
1000
HIER
1070
     0
1002
}
1002
{
1000
MANEDIT
1070
     0
1002
}
1002
{
1000
NOSEL
1070
     0
1002
}
1002
{
1000
BEHIND
1070
     0
1002
}
1002
{
1000
REACTOR
1002
}
1001
GENIUS_GENOBJ-N-FIL_13
1002
{
1000
OWNER
1000
GEN
1002
}
  0
ARC
  5
378
330
F51
100
AcDbEntity
  8
0
100
AcDbCircle
 10
211.206455
 20
583.1722179999998
 30
0.0
 40
2.5
100
AcDbArc
 50
270.0
 51
0.0
1001
GENIUS_GENODEF_13
1002
{
1000
HIER
1070
     0
1002
}
1002
{
1000
MANEDIT
1070
     0
1002
}
1002
{
1000
NOSEL
1070
     0
1002
}
1002
{
1000
BEHIND
1070
     0
1002
}
1002
{
1000
REACTOR
1002
}
1001
GENIUS_GENOBJ-N-FIL_13
1002
{
1000
OWNER
1000
GEN
1002
}
  0
ARC
  5
379
330
F51
100
AcDbEntity
  8
0
100
AcDbCircle
 10
226.206455
 20
583.1722179999998
 30
0.0
 40
2.5
100
AcDbArc
 50
180.0
 51
270.0
1001
GENIUS_GENODEF_13
1002
{
1000
HIER
1070
     0
1002
}
1002
{
1000
MANEDIT
1070
     0
1002
}
1002
{
1000
NOSEL
1070
     0
1002
}
1002
{
1000
BEHIND
1070
     0
1002
}
1002
{
1000
REACTOR
1002
}
1001
GENIUS_GENOBJ-N-FIL_13
1002
{
1000
OWNER
1000
GEN
1002
}
  0
ARC
  5
37A
330
F51
100
AcDbEntity
  8
0
100
AcDbCircle
 10
230.373838
 20
583.1722179999998
 30
0.0
 40
2.5
100
AcDbArc
 50
270.0
 51
0.0
1001
GENIUS_GENODEF_13
1002
{
1000
HIER
1070
     0
1002
}
1002
{
1000
MANEDIT
1070
     0
1002
}
1002
{
1000
NOSEL
1070
     0
1002
}
1002
{
1000
BEHIND
1070
     0
1002
}
1002
{
1000
REACTOR
1002
}
1001
GENIUS_GENOBJ-N-FIL_13
1002
{
1000
OWNER
1000
GEN
1002
}
  0
ARC
  5
37B
330
F51
100
AcDbEntity
  8
0
100
AcDbCircle
 10
245.373838
 20
583.1722179999998
 30
0.0
 40
2.5
100
AcDbArc
 50
180.0
 51
270.0
1001
GENIUS_GENODEF_13
1002
{
1000
HIER
1070
     0
1002
}
1002
{
1000
MANEDIT
1070
     0
1002
}
1002
{
1000
NOSEL
1070
     0
1002
}
1002
{
1000
BEHIND
1070
     0
1002
}
1002
{
1000
REACTOR
1002
}
1001
GENIUS_GENOBJ-N-FIL_13
1002
{
1000
OWNER
1000
GEN
1002
}
  0
ARC
  5
37C
330
F51
100
AcDbEntity
  8
0
100
AcDbCircle
 10
191.167829
 20
583.1722179999998
 30
0.0
 40
2.5
100
AcDbArc
 50
270.0
 51
0.0
1001
GENIUS_GENODEF_13
1002
{
1000
HIER
1070
     0
1002
}
1002
{
1000
MANEDIT
1070
     0
1002
}
1002
{
1000
NOSEL
1070
     0
1002
}
1002
{
1000
BEHIND
1070
     0
1002
}
1002
{
1000
REACTOR
1002
}
1001
GENIUS_GENOBJ-N-FIL_13
1002
{
1000
OWNER
1000
GEN
1002
}
  0
ARC
  5
37D
330
F51
100
AcDbEntity
  8
0
100
AcDbCircle
 10
185.03049
 20
583.1722179999998
 30
0.0
 40
2.5
100
AcDbArc
 50
180.0
 51
270.0
1001
GENIUS_GENODEF_13
1002
{
1000
HIER
1070
     0
1002
}
1002
{
1000
MANEDIT
1070
     0
1002
}
1002
{
1000
NOSEL
1070
     0
1002
}
1002
{
1000
BEHIND
1070
     0
1002
}
1002
{
1000
REACTOR
1002
}
1001
GENIUS_GENOBJ-N-FIL_13
1002
{
1000
OWNER
1000
GEN
1002
}
  0
ARC
  5
37E
330
F51
100
AcDbEntity
  8
0
100
AcDbCircle
 10
170.03049
 20
583.1722179999998
 30
0.0
 40
2.5
100
AcDbArc
 50
270.0
 51
0.0
1001
GENIUS_GENODEF_13
1002
{
1000
HIER
1070
     0
1002
}
1002
{
1000
MANEDIT
1070
     0
1002
}
1002
{
1000
NOSEL
1070
     0
1002
}
1002
{
1000
BEHIND
1070
     0
1002
}
1002
{
1000
REACTOR
1002
}
1001
GENIUS_GENOBJ-N-FIL_13
1002
{
1000
OWNER
1000
GEN
1002
}
  0
ARC
  5
37F
330
F51
100
AcDbEntity
  8
0
100
AcDbCircle
 10
166.383318
 20
583.1722179999998
 30
0.0
 40
2.5
100
AcDbArc
 50
180.0
 51
270.0
1001
GENIUS_GENODEF_13
1002
{
1000
HIER
1070
     0
1002
}
1002
{
1000
MANEDIT
1070
     0
1002
}
1002
{
1000
NOSEL
1070
     0
1002
}
1002
{
1000
BEHIND
1070
     0
1002
}
1002
{
1000
REACTOR
1002
}
1001
GENIUS_GENOBJ-N-FIL_13
1002
{
1000
OWNER
1000
GEN
1002
}
  0
LINE
  5
380
330
F51
100
AcDbEntity
  8
0
100
AcDbLine
 10
188.583109
 20
580.6722179999999
 30
0.0
 11
165.812977
 21
580.6722179999999
 31
0.0
  0
LINE
  5
381
330
F51
100
AcDbEntity
  8
0
100
AcDbLine
 10
193.568948
 20
582.4760679999999
 30
0.0
 11
196.137626
 21
583.405401
 31
0.0
  0
LINE
  5
382
330
F51
100
AcDbEntity
  8
0
100
AcDbLine
 10
196.137626
 20
583.405401
 30
0.0
 11
203.667829
 21
583.405401
 31
0.0
  0
LINE
  5
383
330
F51
100
AcDbEntity
  8
0
100
AcDbLine
 10
172.884084
 20
568.804262
 30
0.0
 11
169.873182
 21
580.616069
 31
0.0
  0
LINE
  5
384
330
F51
100
AcDbEntity
  8
0
100
AcDbLine
 10
213.706455
 20
583.405401
 30
0.0
 11
223.706455
 21
583.405401
 31
0.0
  0
LINE
  5
385
330
F51
100
AcDbEntity
  8
0
100
AcDbLine
 10
232.873838
 20
583.405401
 30
0.0
 11
242.873838
 21
583.405401
 31
0.0
  0
LINE
  5
387
330
F51
100
AcDbEntity
  8
0
100
AcDbLine
 10
301.48826
 20
570.161147
 30
0.0
 11
249.446807
 21
570.161147
 31
0.0
1001
GENIUS_GENOREF_13
1005
56F
  0
LINE
  5
388
330
F51
100
AcDbEntity
  8
0
100
AcDbLine
 10
302.755988
 20
583.405401
 30
0.0
 11
295.225785
 21
583.405401
 31
0.0
  0
LINE
  5
389
330
F51
100
AcDbEntity
  8
0
100
AcDbLine
 10
335.0102950000001
 20
599.271608
 30
0.0
 11
335.0102950000001
 21
583.1722179999998
 31
0.0
  0
LINE
  5
38A
330
F51
100
AcDbEntity
  8
0
100
AcDbLine
 10
326.363123
 20
599.271608
 30
0.0
 11
326.363123
 21
583.1722179999998
 31
0.0
  0
LINE
  5
38B
330
F51
100
AcDbEntity
  8
0
100
AcDbLine
 10
316.363123
 20
599.271608
 30
0.0
 11
316.363123
 21
583.1722179999998
 31
0.0
  0
LINE
  5
38C
330
F51
100
AcDbEntity
  8
0
100
AcDbLine
 10
305.225785
 20
599.271608
 30
0.0
 11
305.225785
 21
583.1722179999998
 31
0.0
  0
LINE
  5
38D
330
F51
100
AcDbEntity
  8
0
100
AcDbLine
 10
310.310504
 20
580.6722179999999
 30
0.0
 11
339.172139
 21
580.6722179999999
 31
0.0
  0
LINE
  5
38E
330
F51
100
AcDbEntity
  8
0
100
AcDbLine
 10
332.5102950000001
 20
580.6722179999999
 30
0.0
 11
328.863123
 21
580.6722179999999
 31
0.0
  0
ARC
  5
38F
330
F51
100
AcDbEntity
  8
0
100
AcDbCircle
 10
332.5102950000001
 20
583.1722179999998
 30
0.0
 40
2.5
100
AcDbArc
 50
270.0
 51
0.0
1001
GENIUS_GENODEF_13
1002
{
1000
HIER
1070
     0
1002
}
1002
{
1000
MANEDIT
1070
     0
1002
}
1002
{
1000
NOSEL
1070
     0
1002
}
1002
{
1000
BEHIND
1070
     0
1002
}
1002
{
1000
REACTOR
1002
}
1001
GENIUS_GENOBJ-N-FIL_13
1002
{
1000
OWNER
1000
GEN
1002
}
  0
ARC
  5
391
330
F51
100
AcDbEntity
  8
0
100
AcDbCircle
 10
328.863123
 20
583.1722179999998
 30
0.0
 40
2.5
100
AcDbArc
 50
180.0
 51
270.0
1001
GENIUS_GENODEF_13
1002
{
1000
HIER
1070
     0
1002
}
1002
{
1000
MANEDIT
1070
     0
1002
}
1002
{
1000
NOSEL
1070
     0
1002
}
1002
{
1000
BEHIND
1070
     0
1002
}
1002
{
1000
REACTOR
1002
}
1001
GENIUS_GENOBJ-N-FIL_13
1002
{
1000
OWNER
1000
GEN
1002
}
  0
LINE
  5
392
330
F51
100
AcDbEntity
  8
0
100
AcDbLine
 10
310.310504
 20
580.6722179999999
 30
0.0
 11
307.725785
 21
580.6722179999999
 31
0.0
  0
LINE
  5
393
330
F51
100
AcDbEntity
  8
0
100
AcDbLine
 10
310.310504
 20
580.6722179999999
 30
0.0
 11
301.48826
 21
570.161147
 31
0.0
1001
GENIUS_GENOREF_13
1005
56F
  0
ARC
  5
394
330
F51
100
AcDbEntity
  8
0
100
AcDbCircle
 10
313.863123
 20
583.1722179999998
 30
0.0
 40
2.5
100
AcDbArc
 50
270.0
 51
0.0
1001
GENIUS_GENODEF_13
1002
{
1000
HIER
1070
     0
1002
}
1002
{
1000
MANEDIT
1070
     0
1002
}
1002
{
1000
NOSEL
1070
     0
1002
}
1002
{
1000
BEHIND
1070
     0
1002
}
1002
{
1000
REACTOR
1002
}
1001
GENIUS_GENOBJ-N-FIL_13
1002
{
1000
OWNER
1000
GEN
1002
}
  0
LINE
  5
395
330
F51
100
AcDbEntity
  8
0
100
AcDbLine
 10
313.863123
 20
580.6722179999999
 30
0.0
 11
310.310504
 21
580.6722179999999
 31
0.0
  0
LINE
  5
396
330
F51
100
AcDbEntity
  8
0
100
AcDbLine
 10
305.324665
 20
582.4760679999999
 30
0.0
 11
302.755988
 21
583.405401
 31
0.0
  0
ARC
  5
397
330
F51
100
AcDbEntity
  8
0
100
AcDbCircle
 10
307.725785
 20
583.1722179999998
 30
0.0
 40
2.5
100
AcDbArc
 50
180.0
 51
270.0
1001
GENIUS_GENODEF_13
1002
{
1000
HIER
1070
     0
1002
}
1002
{
1000
MANEDIT
1070
     0
1002
}
1002
{
1000
NOSEL
1070
     0
1002
}
1002
{
1000
BEHIND
1070
     0
1002
}
1002
{
1000
REACTOR
1002
}
1001
GENIUS_GENOBJ-N-FIL_13
1002
{
1000
OWNER
1000
GEN
1002
}
  0
LINE
  5
398
330
F51
100
AcDbEntity
  8
0
100
AcDbLine
 10
256.019775
 20
599.271608
 30
0.0
 11
256.019775
 21
583.1722179999998
 31
0.0
  0
LINE
  5
399
330
F51
100
AcDbEntity
  8
0
100
AcDbLine
 10
266.019775
 20
599.271608
 30
0.0
 11
266.019775
 21
583.1722179999998
 31
0.0
  0
LINE
  5
39A
330
F51
100
AcDbEntity
  8
0
100
AcDbLine
 10
275.187158
 20
599.271608
 30
0.0
 11
275.187158
 21
583.1722179999998
 31
0.0
  0
LINE
  5
39B
330
F51
100
AcDbEntity
  8
0
100
AcDbLine
 10
285.187158
 20
599.271608
 30
0.0
 11
285.187158
 21
583.1722179999998
 31
0.0
  0
LINE
  5
39C
330
F51
100
AcDbEntity
  8
0
100
AcDbLine
 10
295.225785
 20
599.271608
 30
0.0
 11
295.225785
 21
583.1722179999998
 31
0.0
  0
LINE
  5
39D
330
F51
100
AcDbEntity
  8
0
100
AcDbLine
 10
253.519775
 20
580.6722179999999
 30
0.0
 11
249.446807
 21
580.6722179999999
 31
0.0
  0
ARC
  5
39E
330
F51
100
AcDbEntity
  8
0
100
AcDbCircle
 10
272.687158
 20
583.1722179999998
 30
0.0
 40
2.5
100
AcDbArc
 50
270.0
 51
0.0
1001
GENIUS_GENODEF_13
1002
{
1000
HIER
1070
     0
1002
}
1002
{
1000
MANEDIT
1070
     0
1002
}
1002
{
1000
NOSEL
1070
     0
1002
}
1002
{
1000
BEHIND
1070
     0
1002
}
1002
{
1000
REACTOR
1002
}
1001
GENIUS_GENOBJ-N-FIL_13
1002
{
1000
OWNER
1000
GEN
1002
}
  0
ARC
  5
39F
330
F51
100
AcDbEntity
  8
0
100
AcDbCircle
 10
287.687158
 20
583.1722179999998
 30
0.0
 40
2.5
100
AcDbArc
 50
180.0
 51
270.0
1001
GENIUS_GENODEF_13
1002
{
1000
HIER
1070
     0
1002
}
1002
{
1000
MANEDIT
1070
     0
1002
}
1002
{
1000
NOSEL
1070
     0
1002
}
1002
{
1000
BEHIND
1070
     0
1002
}
1002
{
1000
REACTOR
1002
}
1001
GENIUS_GENOBJ-N-FIL_13
1002
{
1000
OWNER
1000
GEN
1002
}
  0
LINE
  5
3A0
330
F51
100
AcDbEntity
  8
0
100
AcDbLine
 10
292.725785
 20
580.6722179999999
 30
0.0
 11
287.687158
 21
580.6722179999999
 31
0.0
  0
ARC
  5
3A1
330
F51
100
AcDbEntity
  8
0
100
AcDbCircle
 10
292.725785
 20
583.1722179999998
 30
0.0
 40
2.5
100
AcDbArc
 50
270.0
 51
0.0
1001
GENIUS_GENODEF_13
1002
{
1000
HIER
1070
     0
1002
}
1002
{
1000
MANEDIT
1070
     0
1002
}
1002
{
1000
NOSEL
1070
     0
1002
}
1002
{
1000
BEHIND
1070
     0
1002
}
1002
{
1000
REACTOR
1002
}
1001
GENIUS_GENOBJ-N-FIL_13
1002
{
1000
OWNER
1000
GEN
1002
}
  0
LINE
  5
3A2
330
F51
100
AcDbEntity
  8
0
100
AcDbLine
 10
285.187158
 20
583.405401
 30
0.0
 11
275.187158
 21
583.405401
 31
0.0
  0
LINE
  5
3A3
330
F51
100
AcDbEntity
  8
0
100
AcDbLine
 10
266.019775
 20
583.405401
 30
0.0
 11
256.019775
 21
583.405401
 31
0.0
  0
ARC
  5
3A4
330
F51
100
AcDbEntity
  8
0
100
AcDbCircle
 10
268.519775
 20
583.1722179999998
 30
0.0
 40
2.5
100
AcDbArc
 50
180.0
 51
270.0
1001
GENIUS_GENODEF_13
1002
{
1000
HIER
1070
     0
1002
}
1002
{
1000
MANEDIT
1070
     0
1002
}
1002
{
1000
NOSEL
1070
     0
1002
}
1002
{
1000
BEHIND
1070
     0
1002
}
1002
{
1000
REACTOR
1002
}
1001
GENIUS_GENOBJ-N-FIL_13
1002
{
1000
OWNER
1000
GEN
1002
}
  0
LINE
  5
3A5
330
F51
100
AcDbEntity
  8
0
100
AcDbLine
 10
272.687158
 20
580.6722179999999
 30
0.0
 11
268.519775
 21
580.6722179999999
 31
0.0
  0
ARC
  5
3A6
330
F51
100
AcDbEntity
  8
0
100
AcDbCircle
 10
253.519775
 20
583.1722179999998
 30
0.0
 40
2.5
100
AcDbArc
 50
270.0
 51
0.0
1001
GENIUS_GENODEF_13
1002
{
1000
HIER
1070
     0
1002
}
1002
{
1000
MANEDIT
1070
     0
1002
}
1002
{
1000
NOSEL
1070
     0
1002
}
1002
{
1000
BEHIND
1070
     0
1002
}
1002
{
1000
REACTOR
1002
}
1001
GENIUS_GENOBJ-N-FIL_13
1002
{
1000
OWNER
1000
GEN
1002
}
  0
LINE
  5
3A7
330
F51
100
AcDbEntity
  8
0
100
AcDbLine
 10
340.636555
 20
567.4658820000001
 30
0.0
 11
335.643588
 21
567.4658820000001
 31
0.0
1001
GENIUS_GENOREF_13
1005
56F
  0
LINE
  5
3A9
330
F51
100
AcDbEntity
  8
0
100
AcDbLine
 10
307.857537
 20
526.7125919999999
 30
0.0
 11
301.009431
 21
473.731011
 31
0.0
  0
LINE
  5
3AA
330
F51
100
AcDbEntity
  8
0
100
AcDbLine
 10
299.190629
 20
529.832923
 30
0.0
 11
292.086454
 21
474.905954
 31
0.0
1001
GENIUS_GENOREF_13
1005
56F
  0
ARC
  5
3AE
330
F51
100
AcDbEntity
  8
0
100
AcDbCircle
 10
296.547942
 20
474.318483
 30
0.0
 40
4.5
100
AcDbArc
 50
172.498672
 51
352.498672
  0
LINE
  5
3AF
330
F51
100
AcDbEntity
  8
0
100
AcDbLine
 10
339.486277
 20
576.4658820000001
 30
0.0
 11
330.66475
 21
576.4658820000001
 31
0.0
  0
LINE
  5
3B1
330
F51
100
AcDbEntity
  8
0
100
AcDbLine
 10
302.564642
 20
536.075013
 30
0.0
 11
298.280385
 21
538.929079
 31
0.0
1001
GENIUS_GENOREF_13
1005
56F
  0
LINE
  5
3B5
330
F51
100
AcDbEntity
  8
9
100
AcDbLine
 10
322.724457
 20
568.216392
 30
0.0
 11
330.504017
 21
563.6816619999999
 31
0.0
1001
GENIUS_GENBH_13
1002
{
1000
ML
1040
1.0
1002
}
1002
{
1000
OE
1000
CON1
1002
}
1001
GENIUS_GENOREF_13
1005
56F
1005
F2A
  0
LINE
  5
3B6
330
F51
100
AcDbEntity
  8
9
100
AcDbLine
 10
306.483815
 20
542.3234639999999
 30
0.0
 11
314.263374
 21
537.7887349999999
 31
0.0
1001
GENIUS_GENBH_13
1002
{
1000
ML
1040
1.0
1002
}
1002
{
1000
OE
1000
CON1
1002
}
1001
GENIUS_GENOREF_13
1005
56F
1005
F2A
  0
LINE
  5
46C
330
F51
100
AcDbEntity
  8
0
100
AcDbLine
 10
299.913572
 20
531.8483349999999
 30
0.0
 11
326.428996
 21
574.122645
 31
0.0
1001
GENIUS_GENOREF_13
1005
56F
1005
F2A
  0
LINE
  5
46E
330
F51
100
AcDbEntity
  8
0
100
AcDbLine
 10
308.580532
 20
528.728415
 30
0.0
 11
311.192382
 21
532.8925629999999
 31
0.0
1001
GENIUS_GENOREF_13
1005
56F
1005
F2A
  0
POINT
  5
56E
330
F51
100
AcDbEntity
  8
0
 60
     1
100
AcDbPoint
 10
0.0
 20
0.0
 30
0.0
1001
GENIUS_GENBH_13
1002
{
1000
BGO
1005
56F
1002
}
1002
{
1000
FGLEVEL
1040
2.0
1002
}
1002
{
1000
FLAGS
1070
    36
1002
}
1002
{
1000
OIUMAP
1000
OIU
1002
}
1002
{
1000
MODIFY
1070
     0
1002
}
1001
GENIUS_GENODEF_13
1002
{
1000
HIER
1070
     1
1002
}
1002
{
1000
MANEDIT
1070
     0
1002
}
1002
{
1000
NOSEL
1070
     1
1002
}
1002
{
1000
BEHIND
1070
     0
1002
}
1002
{
1000
REACTOR
1002
}
1001
GENIUS_GENOBJ-NBEHI-BHF_13
1002
{
1000
OWNER
1000
GENBEHI
1002
}
1001
GENIUS_GENOENT_13
1002
{
1000
MYREF
1005
56E
1002
}
1002
{
1000
GRP
1005
0
1002
}
1001
GENIUS_GENOLIS_13
1002
{
1000
ENT
1005
566
1002
}
  0
POINT
  5
56F
330
F51
100
AcDbEntity
  8
0
 60
     1
100
AcDbPoint
 10
0.0
 20
0.0
 30
0.0
1001
GENIUS_GENBH_13
1002
{
1000
FGO
1005
56E
1002
}
1001
GENIUS_GENODEF_13
1002
{
1000
HIER
1070
     1
1002
}
1002
{
1000
MANEDIT
1070
     1
1002
}
1002
{
1000
NOSEL
1070
     1
1002
}
1002
{
1000
BEHIND
1070
     1
1002
}
1002
{
1000
REACTOR
1002
}
1001
GENIUS_GENOBJ-NBEHI-BHB_13
1002
{
1000
OWNER
1000
GENBEHI
1002
}
1001
GENIUS_GENOENT_13
1002
{
1000
MYREF
1005
56F
1002
}
1002
{
1000
GRP
1005
0
1002
}
1001
GENIUS_GENOLIS_13
1002
{
1000
ENT
1005
F17
1005
333
1005
3B5
1005
0
1005
0
1005
393
1005
3B6
1005
46E
1005
46C
1005
3B1
1005
3A7
1005
337
1005
3AA
1005
387
1002
}
  0
LINE
  5
58C
330
F51
100
AcDbEntity
  8
7AN
100
AcDbLine
 10
300.775987
 20
562.4165429999999
 30
0.0
 11
338.050622
 21
539.0370309999999
 31
0.0
1001
GENIUS_GENOREF_13
1005
F2A
  0
ARC
  5
591
330
F51
100
AcDbEntity
  8
0N
100
AcDbCircle
 10
319.462015
 20
550.696234
 30
0.0
 40
19.0575
100
AcDbArc
 50
128.431892
 51
167.374333
1001
GENIUS_GENOREF_13
1005
F2A
  0
LINE
  5
592
330
F51
100
AcDbEntity
  8
0N
100
AcDbLine
 10
304.44226
 20
548.312698
 30
0.0
 11
315.069311
 21
565.2557139999999
 31
0.0
1001
GENIUS_GENOREF_13
1005
F2A
  0
LINE
  5
593
330
F51
100
AcDbEntity
  8
0N
100
AcDbLine
 10
298.254314
 20
552.7501980000001
 30
0.0
 11
308.380565
 21
568.8947739999999
 31
0.0
1001
GENIUS_GENOREF_13
1005
F2A
  0
ARC
  5
595
330
F51
100
AcDbEntity
  8
0N
100
AcDbCircle
 10
302.636704
 20
550.001461
 30
0.0
 40
5.173093999999999
100
AcDbArc
 50
147.903113
 51
185.781992
  0
ARC
  5
596
330
F51
100
AcDbEntity
  8
0N
100
AcDbCircle
 10
302.636704
 20
550.001461
 30
0.0
 40
5.173093999999999
100
AcDbArc
 50
110.024233
 51
147.903113
  0
LINE
  5
597
330
F51
100
AcDbEntity
  8
0N
100
AcDbLine
 10
303.004951
 20
546.0211559999999
 30
0.0
 11
304.44226
 21
548.312698
 31
0.0
1001
GENIUS_GENOREF_13
1005
F2A
  0
LINE
  5
59A
330
F51
100
AcDbEntity
  8
0N
100
AcDbLine
 10
297.489929
 20
549.4803049999999
 30
0.0
 11
303.004951
 21
546.0211559999999
 31
0.0
  0
LINE
  5
59B
330
F51
100
AcDbEntity
  8
0N
100
AcDbLine
 10
300.865346
 20
554.8618299999999
 30
0.0
 11
306.380368
 21
551.4026809999998
 31
0.0
1001
GENIUS_GENOREF_13
1005
F2A
  0
ARC
  5
59C
330
F51
100
AcDbEntity
  8
0N
100
AcDbCircle
 10
312.762955
 20
566.1460369999999
 30
0.0
 40
5.173093999999999
100
AcDbArc
 50
110.024233
 51
147.903113
1001
GENIUS_GENOREF_13
1005
F2A
  0
ARC
  5
59D
330
F51
100
AcDbEntity
  8
0N
100
AcDbCircle
 10
312.762955
 20
566.1460369999999
 30
0.0
 40
5.173093999999999
100
AcDbArc
 50
147.903113
 51
185.781992
1001
GENIUS_GENOREF_13
1005
F2A
  0
LINE
  5
5A0
330
F51
100
AcDbEntity
  8
0N
100
AcDbLine
 10
315.069311
 20
565.2557139999999
 30
0.0
 11
316.50662
 21
567.5472570000001
 31
0.0
1001
GENIUS_GENOREF_13
1005
F2A
  0
LINE
  5
5A1
330
F51
100
AcDbEntity
  8
0N
100
AcDbLine
 10
310.991597
 20
571.006407
 30
0.0
 11
316.50662
 21
567.5472570000001
 31
0.0
1001
GENIUS_GENOREF_13
1005
F2A
  0
LINE
  5
5A2
330
F51
100
AcDbEntity
  8
0N
100
AcDbLine
 10
307.61618
 20
565.624881
 30
0.0
 11
313.131202
 21
562.165732
 31
0.0
1001
GENIUS_GENOREF_13
1005
F2A
  0
LINE
  5
5AA
330
F51
100
AcDbEntity
  8
0
100
AcDbLine
 10
303.004951
 20
546.0211559999999
 30
0.0
 11
298.280385
 21
538.929079
 31
0.0
  0
LINE
  5
5AB
330
F51
100
AcDbEntity
  8
0
100
AcDbLine
 10
316.50662
 20
567.5472570000001
 30
0.0
 11
320.834674
 21
574.888036
 31
0.0
1001
GENIUS_GENOREF_13
1005
F2A
  0
LINE
  5
5AC
330
F51
100
AcDbEntity
  8
0
100
AcDbLine
 10
325.269169
 20
572.273499
 30
0.0
 11
320.834674
 21
574.888036
 31
0.0
1001
GENIUS_GENOREF_13
1005
56F
  0
LINE
  5
5AF
330
F51
100
AcDbEntity
  8
0
100
AcDbLine
 10
239.059203
 20
445.492971
 30
0.0
 11
198.958433
 21
445.492971
 31
0.0
  0
LINE
  5
5B0
330
F51
100
AcDbEntity
  8
0
100
AcDbLine
 10
193.966094
 20
450.216303
 30
0.0
 11
191.423059
 21
496.104057
 31
0.0
  0
LINE
  5
5B1
330
F51
100
AcDbEntity
  8
0
100
AcDbLine
 10
191.423059
 20
496.104057
 30
0.0
 11
178.567588
 21
532.634846
 31
0.0
  0
LINE
  5
5B2
330
F51
100
AcDbEntity
  8
0
100
AcDbLine
 10
178.567588
 20
532.634846
 30
0.0
 11
291.719081
 21
532.634846
 31
0.0
  0
LINE
  5
5B6
330
F51
100
AcDbEntity
  8
0
100
AcDbLine
 10
189.398574
 20
532.634846
 30
0.0
 11
192.420437
 21
536.3255099999999
 31
0.0
  0
LINE
  5
5B7
330
F51
100
AcDbEntity
  8
0
100
AcDbLine
 10
196.289078
 20
538.1579219999999
 30
0.0
 11
273.997591
 21
538.1579219999999
 31
0.0
  0
LINE
  5
5B8
330
F51
100
AcDbEntity
  8
0
100
AcDbLine
 10
191.813214
 20
489.063908
 30
0.0
 11
278.473455
 21
489.063908
 31
0.0
  0
LINE
  5
5B9
330
F51
100
AcDbEntity
  8
0
100
AcDbLine
 10
211.159217
 20
529.856994
 30
0.0
 11
212.317749
 21
496.128063
 31
0.0
  0
LINE
  5
5BA
330
F51
100
AcDbEntity
  8
0
100
AcDbLine
 10
219.661464
 20
529.856994
 30
0.0
 11
218.236215
 21
496.128063
 31
0.0
  0
ARC
  5
5BC
330
F51
100
AcDbEntity
  8
0
100
AcDbCircle
 10
215.276982
 20
496.128063
 30
0.0
 40
2.959233
100
AcDbArc
 50
180.0
 51
360.0
  0
LINE
  5
5BD
330
F51
100
AcDbEntity
  8
0
100
AcDbLine
 10
200.192828
 20
529.856994
 30
0.0
 11
198.767579
 21
496.128063
 31
0.0
  0
LINE
  5
5BE
330
F51
100
AcDbEntity
  8
0
100
AcDbLine
 10
191.690581
 20
529.856994
 30
0.0
 11
192.849112
 21
496.128063
 31
0.0
  0
ARC
  5
5BF
330
F51
100
AcDbEntity
  8
0
100
AcDbCircle
 10
195.808346
 20
496.128063
 30
0.0
 40
2.959233
100
AcDbArc
 50
180.0
 51
360.0
  0
LINE
  5
5C0
330
F51
100
AcDbEntity
  8
0
100
AcDbLine
 10
239.441598
 20
529.856994
 30
0.0
 11
238.016349
 21
496.128063
 31
0.0
  0
LINE
  5
5C1
330
F51
100
AcDbEntity
  8
0
100
AcDbLine
 10
230.939351
 20
529.856994
 30
0.0
 11
232.097883
 21
496.128063
 31
0.0
  0
ARC
  5
5C2
330
F51
100
AcDbEntity
  8
0
100
AcDbCircle
 10
235.057116
 20
496.128063
 30
0.0
 40
2.959233
100
AcDbArc
 50
180.0
 51
360.0
  0
LINE
  5
5C3
330
F51
100
AcDbEntity
  8
0
100
AcDbLine
 10
257.352743
 20
529.856994
 30
0.0
 11
255.927494
 21
496.128063
 31
0.0
  0
LINE
  5
5C4
330
F51
100
AcDbEntity
  8
0
100
AcDbLine
 10
248.850497
 20
529.856994
 30
0.0
 11
250.009028
 21
496.128063
 31
0.0
  0
ARC
  5
5C5
330
F51
100
AcDbEntity
  8
0
100
AcDbCircle
 10
252.968261
 20
496.128063
 30
0.0
 40
2.959233
100
AcDbArc
 50
180.0
 51
360.0
  0
LINE
  5
5C6
330
F51
100
AcDbEntity
  8
0
100
AcDbLine
 10
277.132877
 20
529.856994
 30
0.0
 11
275.707628
 21
496.128063
 31
0.0
  0
LINE
  5
5C7
330
F51
100
AcDbEntity
  8
0
100
AcDbLine
 10
268.63063
 20
529.856994
 30
0.0
 11
269.789162
 21
496.128063
 31
0.0
  0
ARC
  5
5C8
330
F51
100
AcDbEntity
  8
0
100
AcDbCircle
 10
272.748395
 20
496.128063
 30
0.0
 40
2.959233
100
AcDbArc
 50
180.0
 51
360.0
  0
LINE
  5
5CA
330
F51
100
AcDbEntity
  8
0
100
AcDbLine
 10
276.320575
 20
450.216303
 30
0.0
 11
278.86361
 21
496.104057
 31
0.0
  0
LINE
  5
5CB
330
F51
100
AcDbEntity
  8
0
100
AcDbLine
 10
231.227466
 20
445.492971
 30
0.0
 11
271.328236
 21
445.492971
 31
0.0
  0
LINE
  5
5CC
330
F51
100
AcDbEntity
  8
0
100
AcDbLine
 10
278.86361
 20
496.104057
 30
0.0
 11
291.719081
 21
532.634846
 31
0.0
  0
LINE
  5
5CD
330
F51
100
AcDbEntity
  8
0
100
AcDbLine
 10
280.888095
 20
532.634846
 30
0.0
 11
277.866232
 21
536.3255099999999
 31
0.0
  0
ARC
  5
5CF
330
F51
100
AcDbEntity
  8
0
100
AcDbCircle
 10
198.958433
 20
450.4929709999999
 30
0.0
 40
5.0
100
AcDbArc
 50
183.172007
 51
270.0
1001
GENIUS_GENODEF_13
1002
{
1000
HIER
1070
     0
1002
}
1002
{
1000
MANEDIT
1070
     0
1002
}
1002
{
1000
NOSEL
1070
     0
1002
}
1002
{
1000
BEHIND
1070
     0
1002
}
1002
{
1000
REACTOR
1002
}
1001
GENIUS_GENOBJ-N-FIL_13
1002
{
1000
OWNER
1000
GEN
1002
}
  0
ARC
  5
5D0
330
F51
100
AcDbEntity
  8
0
100
AcDbCircle
 10
271.328236
 20
450.4929709999999
 30
0.0
 40
5.0
100
AcDbArc
 50
270.0
 51
356.827993
1001
GENIUS_GENODEF_13
1002
{
1000
HIER
1070
     0
1002
}
1002
{
1000
MANEDIT
1070
     0
1002
}
1002
{
1000
NOSEL
1070
     0
1002
}
1002
{
1000
BEHIND
1070
     0
1002
}
1002
{
1000
REACTOR
1002
}
1001
GENIUS_GENOBJ-N-FIL_13
1002
{
1000
OWNER
1000
GEN
1002
}
  0
ARC
  5
5D1
330
F51
100
AcDbEntity
  8
0
100
AcDbCircle
 10
196.289078
 20
533.157922
 30
0.0
 40
5.0
100
AcDbArc
 50
90.0
 51
140.68987
1001
GENIUS_GENODEF_13
1002
{
1000
HIER
1070
     0
1002
}
1002
{
1000
MANEDIT
1070
     0
1002
}
1002
{
1000
NOSEL
1070
     0
1002
}
1002
{
1000
BEHIND
1070
     0
1002
}
1002
{
1000
REACTOR
1002
}
1001
GENIUS_GENOBJ-N-FIL_13
1002
{
1000
OWNER
1000
GEN
1002
}
  0
ARC
  5
5D2
330
F51
100
AcDbEntity
  8
0
100
AcDbCircle
 10
273.997591
 20
533.157922
 30
0.0
 40
5.0
100
AcDbArc
 50
39.31013
 51
90.0
1001
GENIUS_GENODEF_13
1002
{
1000
HIER
1070
     0
1002
}
1002
{
1000
MANEDIT
1070
     0
1002
}
1002
{
1000
NOSEL
1070
     0
1002
}
1002
{
1000
BEHIND
1070
     0
1002
}
1002
{
1000
REACTOR
1002
}
1001
GENIUS_GENOBJ-N-FIL_13
1002
{
1000
OWNER
1000
GEN
1002
}
  0
LINE
  5
5D3
330
F51
100
AcDbEntity
  8
0
100
AcDbLine
 10
191.813214
 20
488.437092
 30
0.0
 11
278.473455
 21
488.437092
 31
0.0
  0
LINE
  5
5D5
330
F51
100
AcDbEntity
  8
0
100
AcDbLine
 10
200.750831
 20
445.492971
 30
0.0
 11
200.750831
 21
436.271608
 31
0.0
  0
LINE
  5
5D6
330
F51
100
AcDbEntity
  8
0
100
AcDbLine
 10
208.357066
 20
445.492971
 30
0.0
 11
208.357066
 21
436.271608
 31
0.0
  0
LINE
  5
5D9
330
F51
100
AcDbEntity
  8
0
100
AcDbLine
 10
267.084271
 20
445.492971
 30
0.0
 11
267.084271
 21
436.271608
 31
0.0
  0
LINE
  5
5DA
330
F51
100
AcDbEntity
  8
0
100
AcDbLine
 10
259.478036
 20
445.492971
 30
0.0
 11
259.478036
 21
436.271608
 31
0.0
  0
ARC
  5
5DF
330
F51
100
AcDbEntity
  8
0
100
AcDbCircle
 10
396.987514
 20
547.8347309999999
 30
0.0
 40
5.0
100
AcDbArc
 50
225.021136
 51
266.34341
1001
GENIUS_GENODEF_13
1002
{
1000
HIER
1070
     0
1002
}
1002
{
1000
MANEDIT
1070
     0
1002
}
1002
{
1000
NOSEL
1070
     0
1002
}
1002
{
1000
BEHIND
1070
     0
1002
}
1002
{
1000
REACTOR
1002
}
1001
GENIUS_GENOBJ-N-FIL_13
1002
{
1000
OWNER
1000
GEN
1002
}
  0
ARC
  5
5E0
330
F51
100
AcDbEntity
  8
0
100
AcDbCircle
 10
400.068229
 20
554.652133
 30
0.0
 40
5.0
100
AcDbArc
 50
225.021136
 51
266.34341
1001
GENIUS_GENODEF_13
1002
{
1000
HIER
1070
     0
1002
}
1002
{
1000
MANEDIT
1070
     0
1002
}
1002
{
1000
NOSEL
1070
     0
1002
}
1002
{
1000
BEHIND
1070
     0
1002
}
1002
{
1000
REACTOR
1002
}
1001
GENIUS_GENOBJ-N-FIL_13
1002
{
1000
OWNER
1000
GEN
1002
}
  0
ARC
  5
5E1
330
F51
100
AcDbEntity
  8
0
100
AcDbCircle
 10
373.636211
 20
566.9277349999999
 30
0.0
 40
5.0
100
AcDbArc
 50
45.021136
 51
90.0
1001
GENIUS_GENODEF_13
1002
{
1000
HIER
1070
     0
1002
}
1002
{
1000
MANEDIT
1070
     0
1002
}
1002
{
1000
NOSEL
1070
     0
1002
}
1002
{
1000
BEHIND
1070
     0
1002
}
1002
{
1000
REACTOR
1002
}
1001
GENIUS_GENOBJ-N-FIL_13
1002
{
1000
OWNER
1000
GEN
1002
}
  0
ARC
  5
5E2
330
F51
100
AcDbEntity
  8
0
100
AcDbCircle
 10
370.738229
 20
559.927735
 30
0.0
 40
5.0
100
AcDbArc
 50
45.021136
 51
90.0
1001
GENIUS_GENODEF_13
1002
{
1000
HIER
1070
     0
1002
}
1002
{
1000
MANEDIT
1070
     0
1002
}
1002
{
1000
NOSEL
1070
     0
1002
}
1002
{
1000
BEHIND
1070
     0
1002
}
1002
{
1000
REACTOR
1002
}
1001
GENIUS_GENOBJ-N-FIL_13
1002
{
1000
OWNER
1000
GEN
1002
}
  0
ARC
  5
5E3
330
F51
100
AcDbEntity
  8
0
100
AcDbCircle
 10
378.764343
 20
458.2278819999999
 30
0.0
 40
5.0
100
AcDbArc
 50
195.731956
 51
266.426296
1001
GENIUS_GENODEF_13
1002
{
1000
HIER
1070
     0
1002
}
1002
{
1000
MANEDIT
1070
     0
1002
}
1002
{
1000
NOSEL
1070
     0
1002
}
1002
{
1000
BEHIND
1070
     0
1002
}
1002
{
1000
REACTOR
1002
}
1001
GENIUS_GENOBJ-N-FIL_13
1002
{
1000
OWNER
1000
GEN
1002
}
  0
ARC
  5
5E4
330
F51
100
AcDbEntity
  8
0
100
AcDbCircle
 10
373.372737
 20
451.5509699999999
 30
0.0
 40
5.0
100
AcDbArc
 50
195.731956
 51
266.426296
1001
GENIUS_GENODEF_13
1002
{
1000
HIER
1070
     0
1002
}
1002
{
1000
MANEDIT
1070
     0
1002
}
1002
{
1000
NOSEL
1070
     0
1002
}
1002
{
1000
BEHIND
1070
     0
1002
}
1002
{
1000
REACTOR
1002
}
1001
GENIUS_GENOBJ-N-FIL_13
1002
{
1000
OWNER
1000
GEN
1002
}
  0
ARC
  5
5E5
330
F51
100
AcDbEntity
  8
0
100
AcDbCircle
 10
351.485203
 20
576.927735
 30
0.0
 40
5.0
100
AcDbArc
 50
184.271034
 51
270.0
1001
GENIUS_GENODEF_13
1002
{
1000
HIER
1070
     0
1002
}
1002
{
1000
MANEDIT
1070
     0
1002
}
1002
{
1000
NOSEL
1070
     0
1002
}
1002
{
1000
BEHIND
1070
     0
1002
}
1002
{
1000
REACTOR
1002
}
1001
GENIUS_GENOBJ-N-FIL_13
1002
{
1000
OWNER
1000
GEN
1002
}
  0
ARC
  5
5E6
330
F51
100
AcDbEntity
  8
0
100
AcDbCircle
 10
344.988483
 20
569.927735
 30
0.0
 40
5.0
100
AcDbArc
 50
184.271034
 51
270.0
1001
GENIUS_GENODEF_13
1002
{
1000
HIER
1070
     0
1002
}
1002
{
1000
MANEDIT
1070
     0
1002
}
1002
{
1000
NOSEL
1070
     0
1002
}
1002
{
1000
BEHIND
1070
     0
1002
}
1002
{
1000
REACTOR
1002
}
1001
GENIUS_GENOBJ-N-FIL_13
1002
{
1000
OWNER
1000
GEN
1002
}
1001
GENIUS_GENOREF_13
1005
56F
  0
ARC
  5
5E7
330
F51
100
AcDbEntity
  8
0
100
AcDbCircle
 10
157.434308
 20
576.9016099999999
 30
0.0
 40
5.0
100
AcDbArc
 50
175.728966
 51
244.456481
1001
GENIUS_GENODEF_13
1002
{
1000
HIER
1070
     0
1002
}
1002
{
1000
MANEDIT
1070
     0
1002
}
1002
{
1000
NOSEL
1070
     0
1002
}
1002
{
1000
BEHIND
1070
     0
1002
}
1002
{
1000
REACTOR
1002
}
1001
GENIUS_GENOBJ-N-FIL_13
1002
{
1000
OWNER
1000
GEN
1002
}
  0
ARC
  5
5E8
330
F51
100
AcDbEntity
  8
0
100
AcDbCircle
 10
164.7713409999999
 20
581.153495
 30
0.0
 40
5.0
100
AcDbArc
 50
175.728966
 51
244.456481
1001
GENIUS_GENODEF_13
1002
{
1000
HIER
1070
     0
1002
}
1002
{
1000
MANEDIT
1070
     0
1002
}
1002
{
1000
NOSEL
1070
     0
1002
}
1002
{
1000
BEHIND
1070
     0
1002
}
1002
{
1000
REACTOR
1002
}
1001
GENIUS_GENOBJ-N-FIL_13
1002
{
1000
OWNER
1000
GEN
1002
}
  0
ARC
  5
5E9
330
F51
100
AcDbEntity
  8
0
100
AcDbCircle
 10
161.084218
 20
564.073984
 30
0.0
 40
5.0
100
AcDbArc
 50
2.568604999999999
 51
64.45648100000001
1001
GENIUS_GENODEF_13
1002
{
1000
HIER
1070
     0
1002
}
1002
{
1000
MANEDIT
1070
     0
1002
}
1002
{
1000
NOSEL
1070
     0
1002
}
1002
{
1000
BEHIND
1070
     0
1002
}
1002
{
1000
REACTOR
1002
}
1001
GENIUS_GENOBJ-N-FIL_13
1002
{
1000
OWNER
1000
GEN
1002
}
  0
ARC
  5
5EA
330
F51
100
AcDbEntity
  8
0
100
AcDbCircle
 10
167.889107
 20
568.580184
 30
0.0
 40
5.0
100
AcDbArc
 50
2.568604999999999
 51
64.45648100000001
1001
GENIUS_GENODEF_13
1002
{
1000
HIER
1070
     0
1002
}
1002
{
1000
MANEDIT
1070
     0
1002
}
1002
{
1000
NOSEL
1070
     0
1002
}
1002
{
1000
BEHIND
1070
     0
1002
}
1002
{
1000
REACTOR
1002
}
1001
GENIUS_GENOBJ-N-FIL_13
1002
{
1000
OWNER
1000
GEN
1002
}
  0
ARC
  5
5EB
330
F51
100
AcDbEntity
  8
0
100
AcDbCircle
 10
181.698023
 20
439.271608
 30
0.0
 40
10.0
100
AcDbArc
 50
182.568605
 51
270.0
1001
GENIUS_GENODEF_13
1002
{
1000
HIER
1070
     0
1002
}
1002
{
1000
MANEDIT
1070
     0
1002
}
1002
{
1000
NOSEL
1070
     0
1002
}
1002
{
1000
BEHIND
1070
     0
1002
}
1002
{
1000
REACTOR
1002
}
1001
GENIUS_GENOBJ-N-FIL_13
1002
{
1000
OWNER
1000
GEN
1002
}
  0
ARC
  5
5EC
330
F51
100
AcDbEntity
  8
0
100
AcDbCircle
 10
307.4172910000001
 20
439.271608
 30
0.0
 40
10.0
100
AcDbArc
 50
270.0
 51
343.844368
1001
GENIUS_GENODEF_13
1002
{
1000
HIER
1070
     0
1002
}
1002
{
1000
MANEDIT
1070
     0
1002
}
1002
{
1000
NOSEL
1070
     0
1002
}
1002
{
1000
BEHIND
1070
     0
1002
}
1002
{
1000
REACTOR
1002
}
1001
GENIUS_GENOBJ-N-FIL_13
1002
{
1000
OWNER
1000
GEN
1002
}
  0
ARC
  5
5ED
330
F51
100
AcDbEntity
  8
0
100
AcDbCircle
 10
302.1573029999999
 20
446.2716079999999
 30
0.0
 40
10.0
100
AcDbArc
 50
270.0
 51
343.844368
1001
GENIUS_GENODEF_13
1002
{
1000
HIER
1070
     0
1002
}
1002
{
1000
MANEDIT
1070
     0
1002
}
1002
{
1000
NOSEL
1070
     0
1002
}
1002
{
1000
BEHIND
1070
     0
1002
}
1002
{
1000
REACTOR
1002
}
1001
GENIUS_GENOBJ-N-FIL_13
1002
{
1000
OWNER
1000
GEN
1002
}
  0
ARC
  5
5EE
330
F51
100
AcDbEntity
  8
0
100
AcDbCircle
 10
188.391039
 20
446.2716079999999
 30
0.0
 40
10.0
100
AcDbArc
 50
182.568605
 51
270.0
1001
GENIUS_GENODEF_13
1002
{
1000
HIER
1070
     0
1002
}
1002
{
1000
MANEDIT
1070
     0
1002
}
1002
{
1000
NOSEL
1070
     0
1002
}
1002
{
1000
BEHIND
1070
     0
1002
}
1002
{
1000
REACTOR
1002
}
1001
GENIUS_GENOBJ-N-FIL_13
1002
{
1000
OWNER
1000
GEN
1002
}
  0
ARC
  5
5EF
330
F51
100
AcDbEntity
  8
0
100
AcDbCircle
 10
330.66475
 20
571.4658820000001
 30
0.0
 40
5.0
100
AcDbArc
 50
90.0
 51
147.903113
1001
GENIUS_GENODEF_13
1002
{
1000
HIER
1070
     0
1002
}
1002
{
1000
MANEDIT
1070
     0
1002
}
1002
{
1000
NOSEL
1070
     0
1002
}
1002
{
1000
BEHIND
1070
     0
1002
}
1002
{
1000
REACTOR
1002
}
1001
GENIUS_GENOBJ-N-FIL_13
1002
{
1000
OWNER
1000
GEN
1002
}
1001
GENIUS_GENOREF_13
1005
56F
  0
ARC
  5
5F0
330
F51
100
AcDbEntity
  8
0
100
AcDbCircle
 10
335.643588
 20
562.465882
 30
0.0
 40
5.0
100
AcDbArc
 50
90.0
 51
137.443652
1001
GENIUS_GENODEF_13
1002
{
1000
HIER
1070
     0
1002
}
1002
{
1000
MANEDIT
1070
     0
1002
}
1002
{
1000
NOSEL
1070
     0
1002
}
1002
{
1000
BEHIND
1070
     0
1002
}
1002
{
1000
REACTOR
1002
}
1001
GENIUS_GENOBJ-N-FIL_13
1002
{
1000
OWNER
1000
GEN
1002
}
1001
GENIUS_GENOREF_13
1005
56F
1005
F2A
  0
ARC
  5
5F1
330
F51
100
AcDbEntity
  8
0
100
AcDbCircle
 10
304.149326
 20
529.1915719999999
 30
0.0
 40
5.0
100
AcDbArc
 50
147.903113
 51
172.630359
1001
GENIUS_GENODEF_13
1002
{
1000
HIER
1070
     0
1002
}
1002
{
1000
MANEDIT
1070
     0
1002
}
1002
{
1000
NOSEL
1070
     0
1002
}
1002
{
1000
BEHIND
1070
     0
1002
}
1002
{
1000
REACTOR
1002
}
1001
GENIUS_GENOBJ-N-FIL_13
1002
{
1000
OWNER
1000
GEN
1002
}
1001
GENIUS_GENOREF_13
1005
56F
  0
ARC
  5
5F2
330
F51
100
AcDbEntity
  8
0
100
AcDbCircle
 10
312.816286
 20
526.0716519999999
 30
0.0
 40
5.0
100
AcDbArc
 50
147.903113
 51
172.635098
1001
GENIUS_GENODEF_13
1002
{
1000
HIER
1070
     0
1002
}
1002
{
1000
MANEDIT
1070
     0
1002
}
1002
{
1000
NOSEL
1070
     0
1002
}
1002
{
1000
BEHIND
1070
     0
1002
}
1002
{
1000
REACTOR
1002
}
1001
GENIUS_GENOBJ-N-FIL_13
1002
{
1000
OWNER
1000
GEN
1002
}
  0
LINE
  5
5F9
330
F51
100
AcDbEntity
  8
7
100
AcDbLine
 10
444.17691
 20
494.1972139999999
 30
0.0
 11
514.1529230000001
 21
492.364828
 31
0.0
  0
DIMENSION
  5
667
330
F51
100
AcDbEntity
  8
5
100
AcDbDimension
  2
*D1
 10
97.255625
 20
429.2716079999999
 30
0.0
 11
86.68062500000001
 21
514.271608
 31
0.0
  1
<>
 71
     5
 42
-1.0
  3
GEN-ISO
100
AcDbAlignedDimension
 13
154.09102
 23
599.271608
 33
0.0
 14
181.698023
 24
429.2716079999999
 34
0.0
 50
90.0
100
AcDbRotatedDimension
1001
GENIUS_GENDTOL_13
1000

1000
h7
1000

1040
0.0
  0
DIMENSION
  5
6B1
330
F51
100
AcDbEntity
  8
5
100
AcDbDimension
  2
*D30
 10
542.305504
 20
494.253811
 30
0.0
 11
542.305504
 21
546.7627099999999
 31
0.0
 70
   160
  1
105
 71
     5
 42
-1.0
  3
GEN-ISO
100
AcDbAlignedDimension
 13
344.802594
 23
599.271608
 33
0.0
 14
490.7468219999999
 24
494.253811
 34
0.0
 50
90.0
100
AcDbRotatedDimension
1001
ACAD
1000
DSTYLE
1002
{
1070
   283
1070
     0
1002
}
1001
GENIUS_GENDTOL_13
1000

1000
h7
1000

1040
0.0
1000

  0
DIMENSION
  5
6E3
330
F51
100
AcDbEntity
  8
5
100
AcDbDimension
  2
*D29
 10
490.7468219999999
 20
384.271608
 30
0.0
 11
370.096814
 21
394.848158
 31
0.0
 70
    32
  1
255
 71
     5
 42
-1.0
  3
GEN-ISO
100
AcDbAlignedDimension
 13
249.446807
 23
429.2716079999999
 33
0.0
 14
490.7468219999999
 24
494.253811
 34
0.0
100
AcDbRotatedDimension
1001
ACAD
1000
DSTYLE
1002
{
1070
   283
1070
     0
1002
}
1001
GENIUS_GENDTOL_13
1000

1000
h7
1000

1040
0.0
1000

  0
DIMENSION
  5
754
330
F51
100
AcDbEntity
  8
5
100
AcDbDimension
  2
*D4
 10
414.923526
 20
494.203361
 30
0.0
 11
515.966529
 21
466.873957
 31
0.0
 70
     2
  1
1.5
 71
     5
 42
-1.0
  3
GEN-ISO
100
AcDb2LineAngularDimension
 13
444.17691
 23
494.1972139999999
 33
0.0
 14
514.1529230000001
 24
492.364828
 34
0.0
 15
517.494895
 25
494.271608
 35
0.0
 16
531.48495
 26
492.015601
 36
0.0
1001
GENIUS_GENDTOL_13
1000

1000
h7
1000

1040
0.0
  0
POLYLINE
  5
83C
330
F51
100
AcDbEntity
  8
0
100
AcDb2dPolyline
 66
     1
 10
0.0
 20
0.0
 30
0.0
 70
     1
1001
GENIUS_GENODEF_13
1002
{
1000
HIER
1070
     0
1002
}
1002
{
1000
MANEDIT
1070
     0
1002
}
1002
{
1000
NOSEL
1070
     0
1002
}
1002
{
1000
BEHIND
1070
     0
1002
}
1002
{
1000
REACTOR
1002
}
1001
GENIUS_GENOBJ-N-REC_13
1002
{
1000
OWNER
1000
GEN
1002
}
  0
VERTEX
  5
F36
330
83C
100
AcDbEntity
  8
0
100
AcDbVertex
100
AcDb2dVertex
 10
153.08067
 20
130.577945
 30
0.0
  0
VERTEX
  5
F37
330
83C
100
AcDbEntity
  8
0
100
AcDbVertex
100
AcDb2dVertex
 10
353.08067
 20
130.577945
 30
0.0
  0
VERTEX
  5
F38
330
83C
100
AcDbEntity
  8
0
100
AcDbVertex
100
AcDb2dVertex
 10
353.08067
 20
330.577945
 30
0.0
  0
VERTEX
  5
F39
330
83C
100
AcDbEntity
  8
0
100
AcDbVertex
100
AcDb2dVertex
 10
153.08067
 20
330.577945
 30
0.0
  0
SEQEND
  5
F3A
330
83C
100
AcDbEntity
  8
0
  0
DIMENSION
  5
855
330
F51
100
AcDbEntity
  8
5
100
AcDbDimension
  2
*D5
 10
153.08067
 20
56.592202
 30
0.0
 11
253.08067
 21
56.592202
 31
0.0
 70
   128
  1
<>
 71
     5
 42
-1.0
  3
GEN-ISO
100
AcDbAlignedDimension
 13
353.08067
 23
130.577945
 33
0.0
 14
153.08067
 24
130.577945
 34
0.0
100
AcDbRotatedDimension
1001
GENIUS_GENDTOL_13
1000

1000
h7
1000

1040
0.0
  0
DIMENSION
  5
897
330
F51
100
AcDbEntity
  8
5
100
AcDbDimension
  2
*D6
 10
114.411679
 20
330.577945
 30
0.0
 11
103.836679
 21
230.577945
 31
0.0
  1
<>
 71
     5
 42
-1.0
  3
GEN-ISO
100
AcDbAlignedDimension
 13
153.08067
 23
130.577945
 33
0.0
 14
153.08067
 24
330.577945
 34
0.0
 50
90.0
100
AcDbRotatedDimension
1001
GENIUS_GENDTOL_13
1000

1000
h7
1000

1040
0.0
  0
POLYLINE
  5
8A6
330
F51
100
AcDbEntity
  8
0
100
AcDb2dPolyline
 66
     1
 10
0.0
 20
0.0
 30
0.0
 70
     1
1001
GENIUS_GENODEF_13
1002
{
1000
HIER
1070
     0
1002
}
1002
{
1000
MANEDIT
1070
     0
1002
}
1002
{
1000
NOSEL
1070
     0
1002
}
1002
{
1000
BEHIND
1070
     0
1002
}
1002
{
1000
REACTOR
1002
}
1001
GENIUS_GENOBJ-N-REC_13
1002
{
1000
OWNER
1000
GEN
1002
}
  0
VERTEX
  5
8A7
330
8A6
100
AcDbEntity
  8
0
100
AcDbVertex
100
AcDb2dVertex
 10
156.08067
 20
133.577945
 30
0.0
1001
GENIUS_GENODEF_13
1002
{
1000
HIER
1070
     0
1002
}
1002
{
1000
MANEDIT
1070
     0
1002
}
1002
{
1000
NOSEL
1070
     0
1002
}
1002
{
1000
BEHIND
1070
     0
1002
}
1002
{
1000
REACTOR
1002
}
1001
GENIUS_GENOBJ-N-REC_13
1002
{
1000
OWNER
1000
GEN
1002
}
  0
VERTEX
  5
8A8
330
8A6
100
AcDbEntity
  8
0
100
AcDbVertex
100
AcDb2dVertex
 10
350.08067
 20
133.577945
 30
0.0
1001
GENIUS_GENODEF_13
1002
{
1000
HIER
1070
     0
1002
}
1002
{
1000
MANEDIT
1070
     0
1002
}
1002
{
1000
NOSEL
1070
     0
1002
}
1002
{
1000
BEHIND
1070
     0
1002
}
1002
{
1000
REACTOR
1002
}
1001
GENIUS_GENOBJ-N-REC_13
1002
{
1000
OWNER
1000
GEN
1002
}
  0
VERTEX
  5
8A9
330
8A6
100
AcDbEntity
  8
0
100
AcDbVertex
100
AcDb2dVertex
 10
350.08067
 20
327.577945
 30
0.0
1001
GENIUS_GENODEF_13
1002
{
1000
HIER
1070
     0
1002
}
1002
{
1000
MANEDIT
1070
     0
1002
}
1002
{
1000
NOSEL
1070
     0
1002
}
1002
{
1000
BEHIND
1070
     0
1002
}
1002
{
1000
REACTOR
1002
}
1001
GENIUS_GENOBJ-N-REC_13
1002
{
1000
OWNER
1000
GEN
1002
}
  0
VERTEX
  5
8AA
330
8A6
100
AcDbEntity
  8
0
100
AcDbVertex
100
AcDb2dVertex
 10
156.08067
 20
327.577945
 30
0.0
1001
GENIUS_GENODEF_13
1002
{
1000
HIER
1070
     0
1002
}
1002
{
1000
MANEDIT
1070
     0
1002
}
1002
{
1000
NOSEL
1070
     0
1002
}
1002
{
1000
BEHIND
1070
     0
1002
}
1002
{
1000
REACTOR
1002
}
1001
GENIUS_GENOBJ-N-REC_13
1002
{
1000
OWNER
1000
GEN
1002
}
  0
SEQEND
  5
8AB
330
8A6
100
AcDbEntity
  8
0
  0
DIMENSION
  5
8CA
330
F51
100
AcDbEntity
  8
5
100
AcDbDimension
  2
*D7
 10
308.598252
 20
90.817548
 30
0.0
 11
274.84835
 21
90.817548
 31
0.0
 70
   128
  1
<>
 71
     5
 42
-1.0
  3
GEN-ISO
100
AcDbAlignedDimension
 13
298.598252
 23
155.923815
 33
0.0
 14
308.598252
 24
155.923815
 34
0.0
100
AcDbRotatedDimension
1001
GENIUS_GENDTOL_13
1000

1000
h7
1000

1040
0.0
  0
INSERT
  5
9C6
330
F51
100
AcDbEntity
  8
8
100
AcDbBlockReference
  2
*X8
 10
0.0
 20
0.0
 30
0.0
1001
GENIUS_GENODEF_13
1002
{
1000
HIER
1070
     0
1002
}
1002
{
1000
MANEDIT
1070
     0
1002
}
1002
{
1000
NOSEL
1070
     0
1002
}
1002
{
1000
BEHIND
1070
     0
1002
}
1002
{
1000
REACTOR
1002
}
1001
GENIUS_GENOBJ-N-HTC_13
1002
{
1000
OWNER
1000
GEN
1002
}
1001
GENIUS_GENHATCH_13
1002
{
1000
DATA
1040
45.0
1042
5.0
1000
_U
1070
     0
1011
167.559768
1021
567.019724
1031
0.0
1002
}
1002
{
1000
UCS
1010
0.0
1020
0.0
1030
0.0
1010
1.0
1020
0.0
1030
0.0
1010
0.0
1020
1.0
1030
0.0
1002
}
1001
ACAD
1000
HATCH
1002
{
1070
    19
1000
_U
1040
5.0
1040
0.7853979999999999
1070
     0
1002
}
  0
INSERT
  5
A33
330
F51
100
AcDbEntity
  8
8
100
AcDbBlockReference
  2
*X9
 10
0.0
 20
0.0
 30
0.0
1001
GENIUS_GENODEF_13
1002
{
1000
HIER
1070
     0
1002
}
1002
{
1000
MANEDIT
1070
     0
1002
}
1002
{
1000
NOSEL
1070
     0
1002
}
1002
{
1000
BEHIND
1070
     0
1002
}
1002
{
1000
REACTOR
1002
}
1001
GENIUS_GENOBJ-N-HTC_13
1002
{
1000
OWNER
1000
GEN
1002
}
1001
GENIUS_GENHATCH_13
1002
{
1000
DATA
1040
45.0
1042
5.0
1000
_U
1070
     0
1011
356.342292
1021
569.261031
1031
0.0
1002
}
1002
{
1000
UCS
1010
0.0
1020
0.0
1030
0.0
1010
1.0
1020
0.0
1030
0.0
1010
0.0
1020
1.0
1030
0.0
1002
}
1001
ACAD
1000
HATCH
1002
{
1070
    19
1000
_U
1040
5.0
1040
0.7853979999999999
1070
     0
1002
}
  0
INSERT
  5
A78
330
F51
100
AcDbEntity
  8
8
100
AcDbBlockReference
  2
*X10
 10
0.0
 20
0.0
 30
0.0
1001
GENIUS_GENODEF_13
1002
{
1000
HIER
1070
     0
1002
}
1002
{
1000
MANEDIT
1070
     0
1002
}
1002
{
1000
NOSEL
1070
     0
1002
}
1002
{
1000
BEHIND
1070
     0
1002
}
1002
{
1000
REACTOR
1002
}
1001
GENIUS_GENOBJ-N-HTC_13
1002
{
1000
OWNER
1000
GEN
1002
}
1001
GENIUS_GENHATCH_13
1002
{
1000
DATA
1040
135.0
1042
4.7
1000
_U
1070
     0
1011
301.389756
1021
516.590326
1031
0.0
1002
}
1002
{
1000
UCS
1010
0.0
1020
0.0
1030
0.0
1010
1.0
1020
0.0
1030
0.0
1010
0.0
1020
1.0
1030
0.0
1002
}
1001
ACAD
1000
HATCH
1002
{
1070
    19
1000
_U
1040
4.7
1040
2.356193999999999
1070
     0
1002
}
  0
INSERT
  5
A92
330
F51
100
AcDbEntity
  8
8
100
AcDbBlockReference
  2
*U25
 10
0.0
 20
0.0
 30
0.0
1001
GENIUS_GENBH_13
1002
{
1000
MYFD
1070
     1
1002
}
1002
{
1000
REFI
1005
F27
1002
}
1001
GENIUS_GENODEF_13
1002
{
1000
HIER
1070
     0
1002
}
1002
{
1000
MANEDIT
1070
     0
1002
}
1002
{
1000
NOSEL
1070
     0
1002
}
1002
{
1000
BEHIND
1070
     0
1002
}
1002
{
1000
REACTOR
1002
}
1001
GENIUS_GENOBJ-N-HTC_13
1002
{
1000
OWNER
1000
GEN
1002
}
1001
GENIUS_GENHATCH_13
1002
{
1000
DATA
1040
135.0
1042
4.7
1000
_U
1070
     0
1011
331.293104
1021
570.403634
1031
0.0
1002
}
1002
{
1000
UCS
1010
0.0
1020
0.0
1030
0.0
1010
1.0
1020
0.0
1030
0.0
1010
0.0
1020
1.0
1030
0.0
1002
}
1001
GENIUS_GENOREF_13
1005
F2A
  0
TEXT
  5
A98
330
F51
100
AcDbEntity
  8
6
100
AcDbText
 10
341.554836
 20
534.3886939999999
 30
0.0
 40
16.137285
  1
G 1¼
 50
359.122507
100
AcDbText
  0
INSERT
  5
B56
330
F51
100
AcDbEntity
  8
8
100
AcDbBlockReference
  2
*U24
 10
0.0
 20
0.0
 30
0.0
1001
GENIUS_GENBH_13
1002
{
1000
MYFD
1070
     1
1002
}
1002
{
1000
REFI
1005
F1F
1002
}
1001
GENIUS_GENODEF_13
1002
{
1000
HIER
1070
     0
1002
}
1002
{
1000
MANEDIT
1070
     0
1002
}
1002
{
1000
NOSEL
1070
     0
1002
}
1002
{
1000
BEHIND
1070
     0
1002
}
1002
{
1000
REACTOR
1002
}
1001
GENIUS_GENOBJ-N-HTC_13
1002
{
1000
OWNER
1000
GEN
1002
}
1001
GENIUS_GENHATCH_13
1002
{
1000
DATA
1040
135.0
1042
4.7
1000
_U
1070
     0
1011
308.456397
1021
535.910682
1031
0.0
1002
}
1002
{
1000
UCS
1010
0.0
1020
0.0
1030
0.0
1010
1.0
1020
0.0
1030
0.0
1010
0.0
1020
1.0
1030
0.0
1002
}
1001
GENIUS_GENOREF_13
1005
F2A
  0
LINE
  5
B5C
330
F51
100
AcDbEntity
  8
0
100
AcDbLine
 10
185.921607
 20
511.737275
 30
0.0
 11
180.854207
 21
511.737275
 31
0.0
  0
LINE
  5
B5D
330
F51
100
AcDbEntity
  8
0
100
AcDbLine
 10
180.854207
 20
511.737275
 30
0.0
 11
180.854207
 21
517.581395
 31
0.0
  0
LINE
  5
B5E
330
F51
100
AcDbEntity
  8
0
100
AcDbLine
 10
180.854207
 20
517.581395
 30
0.0
 11
183.865015
 21
517.581395
 31
0.0
  0
LINE
  5
B60
330
F51
100
AcDbEntity
  8
0
100
AcDbLine
 10
284.365062
 20
511.737275
 30
0.0
 11
289.432462
 21
511.737275
 31
0.0
  0
LINE
  5
B61
330
F51
100
AcDbEntity
  8
0
100
AcDbLine
 10
289.432462
 20
511.737275
 30
0.0
 11
289.432462
 21
517.581395
 31
0.0
  0
LINE
  5
B62
330
F51
100
AcDbEntity
  8
0
100
AcDbLine
 10
289.432462
 20
517.581395
 30
0.0
 11
286.421654
 21
517.581395
 31
0.0
  0
LINE
  5
B63
330
F51
100
AcDbEntity
  8
0
100
AcDbLine
 10
174.631284
 20
520.2378129999999
 30
0.0
 11
175.062807
 21
520.2378129999999
 31
0.0
  0
LINE
  5
B6D
330
F51
100
AcDbEntity
  8
0
100
AcDbLine
 10
181.425749
 20
310.232076
 30
0.0
 11
181.425749
 21
150.923815
 31
0.0
  0
LINE
  5
B6E
330
F51
100
AcDbEntity
  8
0
100
AcDbLine
 10
178.80026
 20
309.487286
 30
0.0
 11
178.80026
 21
151.668605
 31
0.0
  0
LINE
  5
B6F
330
F51
100
AcDbEntity
  8
0
100
AcDbLine
 10
183.883374
 20
309.586394
 30
0.0
 11
183.883374
 21
151.569497
 31
0.0
  0
LINE
  5
B70
330
F51
100
AcDbEntity
  8
0
100
AcDbLine
 10
205.020712
 20
309.586394
 30
0.0
 11
205.020712
 21
151.569497
 31
0.0
  0
LINE
  5
B71
330
F51
100
AcDbEntity
  8
0
100
AcDbLine
 10
202.563087
 20
310.232076
 30
0.0
 11
202.563087
 21
150.923815
 31
0.0
  0
LINE
  5
B72
330
F51
100
AcDbEntity
  8
0
100
AcDbLine
 10
199.937599
 20
309.487286
 30
0.0
 11
199.937599
 21
151.668605
 31
0.0
  0
LINE
  5
B73
330
F51
100
AcDbEntity
  8
0
100
AcDbLine
 10
225.059338
 20
309.586394
 30
0.0
 11
225.059338
 21
151.569497
 31
0.0
  0
LINE
  5
B74
330
F51
100
AcDbEntity
  8
0
100
AcDbLine
 10
222.601713
 20
310.232076
 30
0.0
 11
222.601713
 21
150.923815
 31
0.0
  0
LINE
  5
B75
330
F51
100
AcDbEntity
  8
0
100
AcDbLine
 10
219.976225
 20
309.487286
 30
0.0
 11
219.976225
 21
151.668605
 31
0.0
  0
LINE
  5
B76
330
F51
100
AcDbEntity
  8
0
100
AcDbLine
 10
244.226721
 20
309.586394
 30
0.0
 11
244.226721
 21
151.569497
 31
0.0
  0
LINE
  5
B77
330
F51
100
AcDbEntity
  8
0
100
AcDbLine
 10
241.769097
 20
310.232076
 30
0.0
 11
241.769097
 21
150.923815
 31
0.0
  0
LINE
  5
B78
330
F51
100
AcDbEntity
  8
0
100
AcDbLine
 10
239.143608
 20
309.487286
 30
0.0
 11
239.143608
 21
151.668605
 31
0.0
  0
LINE
  5
B79
330
F51
100
AcDbEntity
  8
0
100
AcDbLine
 10
266.849867
 20
309.586394
 30
0.0
 11
266.849867
 21
151.569497
 31
0.0
  0
LINE
  5
B7A
330
F51
100
AcDbEntity
  8
0
100
AcDbLine
 10
264.392243
 20
310.232076
 30
0.0
 11
264.392243
 21
150.923815
 31
0.0
  0
LINE
  5
B7B
330
F51
100
AcDbEntity
  8
0
100
AcDbLine
 10
261.766754
 20
309.487286
 30
0.0
 11
261.766754
 21
151.668605
 31
0.0
  0
LINE
  5
B7C
330
F51
100
AcDbEntity
  8
0
100
AcDbLine
 10
286.01725
 20
309.586394
 30
0.0
 11
286.01725
 21
151.569497
 31
0.0
  0
LINE
  5
B7D
330
F51
100
AcDbEntity
  8
0
100
AcDbLine
 10
283.559626
 20
310.232076
 30
0.0
 11
283.559626
 21
150.923815
 31
0.0
  0
LINE
  5
B7E
330
F51
100
AcDbEntity
  8
0
100
AcDbLine
 10
280.934137
 20
309.487286
 30
0.0
 11
280.934137
 21
151.668605
 31
0.0
  0
LINE
  5
B7F
330
F51
100
AcDbEntity
  8
0
100
AcDbLine
 10
306.055877
 20
309.586394
 30
0.0
 11
306.055877
 21
151.569497
 31
0.0
  0
LINE
  5
B80
330
F51
100
AcDbEntity
  8
0
100
AcDbLine
 10
303.598252
 20
310.232076
 30
0.0
 11
303.598252
 21
150.923815
 31
0.0
  0
LINE
  5
B81
330
F51
100
AcDbEntity
  8
0
100
AcDbLine
 10
300.972763
 20
309.487286
 30
0.0
 11
300.972763
 21
151.668605
 31
0.0
  0
LINE
  5
B82
330
F51
100
AcDbEntity
  8
0
100
AcDbLine
 10
327.193215
 20
309.586394
 30
0.0
 11
327.193215
 21
151.569497
 31
0.0
  0
LINE
  5
B83
330
F51
100
AcDbEntity
  8
0
100
AcDbLine
 10
324.73559
 20
310.232076
 30
0.0
 11
324.73559
 21
150.923815
 31
0.0
  0
LINE
  5
B84
330
F51
100
AcDbEntity
  8
0
100
AcDbLine
 10
322.110102
 20
309.487286
 30
0.0
 11
322.110102
 21
151.668605
 31
0.0
  0
LINE
  5
B91
330
F51
100
AcDbEntity
  8
5
100
AcDbLine
 10
328.885016
 20
567.7509619999999
 30
0.0
 11
341.257918
 21
542.1028629999999
 31
0.0
1001
GENIUS_GENOREF_13
1005
F2A
  0
INSERT
  5
C31
330
F51
100
AcDbEntity
  8
8
100
AcDbBlockReference
  2
*X13
 10
0.0
 20
0.0
 30
0.0
1001
GENIUS_GENODEF_13
1002
{
1000
HIER
1070
     0
1002
}
1002
{
1000
MANEDIT
1070
     0
1002
}
1002
{
1000
NOSEL
1070
     0
1002
}
1002
{
1000
BEHIND
1070
     0
1002
}
1002
{
1000
REACTOR
1002
}
1001
GENIUS_GENOBJ-N-HTC_13
1002
{
1000
OWNER
1000
GEN
1002
}
1001
GENIUS_GENHATCH_13
1002
{
1000
DATA
1040
135.0
1042
4.7
1000
_U
1070
     0
1011
170.781429
1021
591.2052079999999
1031
0.0
1002
}
1002
{
1000
UCS
1010
0.0
1020
0.0
1030
0.0
1010
1.0
1020
0.0
1030
0.0
1010
0.0
1020
1.0
1030
0.0
1002
}
1001
ACAD
1000
HATCH
1002
{
1070
    19
1000
_U
1040
4.7
1040
2.356193999999999
1070
     0
1002
}
  0
INSERT
  5
CCA
330
F51
100
AcDbEntity
  8
8
100
AcDbBlockReference
  2
*X14
 10
0.0
 20
0.0
 30
0.0
1001
GENIUS_GENODEF_13
1002
{
1000
HIER
1070
     0
1002
}
1002
{
1000
MANEDIT
1070
     0
1002
}
1002
{
1000
NOSEL
1070
     0
1002
}
1002
{
1000
BEHIND
1070
     0
1002
}
1002
{
1000
REACTOR
1002
}
1001
GENIUS_GENOBJ-N-HTC_13
1002
{
1000
OWNER
1000
GEN
1002
}
1001
GENIUS_GENHATCH_13
1002
{
1000
DATA
1040
135.0
1042
4.7
1000
_U
1070
     0
1011
187.582874
1021
586.770364
1031
0.0
1002
}
1002
{
1000
UCS
1010
0.0
1020
0.0
1030
0.0
1010
1.0
1020
0.0
1030
0.0
1010
0.0
1020
1.0
1030
0.0
1002
}
1001
ACAD
1000
HATCH
1002
{
1070
    19
1000
_U
1040
4.7
1040
2.356193999999999
1070
     0
1002
}
  0
INSERT
  5
D16
330
F51
100
AcDbEntity
  8
8
100
AcDbBlockReference
  2
*X15
 10
0.0
 20
0.0
 30
0.0
1001
GENIUS_GENODEF_13
1002
{
1000
HIER
1070
     0
1002
}
1002
{
1000
MANEDIT
1070
     0
1002
}
1002
{
1000
NOSEL
1070
     0
1002
}
1002
{
1000
BEHIND
1070
     0
1002
}
1002
{
1000
REACTOR
1002
}
1001
GENIUS_GENOBJ-N-HTC_13
1002
{
1000
OWNER
1000
GEN
1002
}
1001
GENIUS_GENHATCH_13
1002
{
1000
DATA
1040
135.0
1042
4.7
1000
_U
1070
     0
1011
208.188417
1021
590.2548849999999
1031
0.0
1002
}
1002
{
1000
UCS
1010
0.0
1020
0.0
1030
0.0
1010
1.0
1020
0.0
1030
0.0
1010
0.0
1020
1.0
1030
0.0
1002
}
1001
ACAD
1000
HATCH
1002
{
1070
    19
1000
_U
1040
4.7
1040
2.356193999999999
1070
     0
1002
}
  0
INSERT
  5
D62
330
F51
100
AcDbEntity
  8
8
100
AcDbBlockReference
  2
*X16
 10
0.0
 20
0.0
 30
0.0
1001
GENIUS_GENODEF_13
1002
{
1000
HIER
1070
     0
1002
}
1002
{
1000
MANEDIT
1070
     0
1002
}
1002
{
1000
NOSEL
1070
     0
1002
}
1002
{
1000
BEHIND
1070
     0
1002
}
1002
{
1000
REACTOR
1002
}
1001
GENIUS_GENOBJ-N-HTC_13
1002
{
1000
OWNER
1000
GEN
1002
}
1001
GENIUS_GENHATCH_13
1002
{
1000
DATA
1040
135.0
1042
4.7
1000
_U
1070
     0
1011
226.574903
1021
590.5716589999999
1031
0.0
1002
}
1002
{
1000
UCS
1010
0.0
1020
0.0
1030
0.0
1010
1.0
1020
0.0
1030
0.0
1010
0.0
1020
1.0
1030
0.0
1002
}
1001
ACAD
1000
HATCH
1002
{
1070
    19
1000
_U
1040
4.7
1040
2.356193999999999
1070
     0
1002
}
  0
INSERT
  5
DAF
330
F51
100
AcDbEntity
  8
8
100
AcDbBlockReference
  2
*X17
 10
0.0
 20
0.0
 30
0.0
1001
GENIUS_GENODEF_13
1002
{
1000
HIER
1070
     0
1002
}
1002
{
1000
MANEDIT
1070
     0
1002
}
1002
{
1000
NOSEL
1070
     0
1002
}
1002
{
1000
BEHIND
1070
     0
1002
}
1002
{
1000
REACTOR
1002
}
1001
GENIUS_GENOBJ-N-HTC_13
1002
{
1000
OWNER
1000
GEN
1002
}
1001
GENIUS_GENHATCH_13
1002
{
1000
DATA
1040
135.0
1042
4.7
1000
_U
1070
     0
1011
251.301556
1021
589.6213349999999
1031
0.0
1002
}
1002
{
1000
UCS
1010
0.0
1020
0.0
1030
0.0
1010
1.0
1020
0.0
1030
0.0
1010
0.0
1020
1.0
1030
0.0
1002
}
1001
ACAD
1000
HATCH
1002
{
1070
    19
1000
_U
1040
4.7
1040
2.356193999999999
1070
     0
1002
}
  0
INSERT
  5
DFB
330
F51
100
AcDbEntity
  8
8
100
AcDbBlockReference
  2
*X18
 10
0.0
 20
0.0
 30
0.0
1001
GENIUS_GENODEF_13
1002
{
1000
HIER
1070
     0
1002
}
1002
{
1000
MANEDIT
1070
     0
1002
}
1002
{
1000
NOSEL
1070
     0
1002
}
1002
{
1000
BEHIND
1070
     0
1002
}
1002
{
1000
REACTOR
1002
}
1001
GENIUS_GENOBJ-N-HTC_13
1002
{
1000
OWNER
1000
GEN
1002
}
1001
GENIUS_GENHATCH_13
1002
{
1000
DATA
1040
135.0
1042
4.7
1000
_U
1070
     0
1011
272.858127
1021
589.938111
1031
0.0
1002
}
1002
{
1000
UCS
1010
0.0
1020
0.0
1030
0.0
1010
1.0
1020
0.0
1030
0.0
1010
0.0
1020
1.0
1030
0.0
1002
}
1001
ACAD
1000
HATCH
1002
{
1070
    19
1000
_U
1040
4.7
1040
2.356193999999999
1070
     0
1002
}
  0
INSERT
  5
E47
330
F51
100
AcDbEntity
  8
8
100
AcDbBlockReference
  2
*X19
 10
0.0
 20
0.0
 30
0.0
1001
GENIUS_GENODEF_13
1002
{
1000
HIER
1070
     0
1002
}
1002
{
1000
MANEDIT
1070
     0
1002
}
1002
{
1000
NOSEL
1070
     0
1002
}
1002
{
1000
BEHIND
1070
     0
1002
}
1002
{
1000
REACTOR
1002
}
1001
GENIUS_GENOBJ-N-HTC_13
1002
{
1000
OWNER
1000
GEN
1002
}
1001
GENIUS_GENHATCH_13
1002
{
1000
DATA
1040
135.0
1042
4.7
1000
_U
1070
     0
1011
293.463671
1021
590.2548849999999
1031
0.0
1002
}
1002
{
1000
UCS
1010
0.0
1020
0.0
1030
0.0
1010
1.0
1020
0.0
1030
0.0
1010
0.0
1020
1.0
1030
0.0
1002
}
1001
ACAD
1000
HATCH
1002
{
1070
    19
1000
_U
1040
4.7
1040
2.356193999999999
1070
     0
1002
}
  0
INSERT
  5
E94
330
F51
100
AcDbEntity
  8
8
100
AcDbBlockReference
  2
*X20
 10
0.0
 20
0.0
 30
0.0
1001
GENIUS_GENODEF_13
1002
{
1000
HIER
1070
     0
1002
}
1002
{
1000
MANEDIT
1070
     0
1002
}
1002
{
1000
NOSEL
1070
     0
1002
}
1002
{
1000
BEHIND
1070
     0
1002
}
1002
{
1000
REACTOR
1002
}
1001
GENIUS_GENOBJ-N-HTC_13
1002
{
1000
OWNER
1000
GEN
1002
}
1001
GENIUS_GENHATCH_13
1002
{
1000
DATA
1040
135.0
1042
4.7
1000
_U
1070
     0
1011
310.265115
1021
590.8884339999999
1031
0.0
1002
}
1002
{
1000
UCS
1010
0.0
1020
0.0
1030
0.0
1010
1.0
1020
0.0
1030
0.0
1010
0.0
1020
1.0
1030
0.0
1002
}
1001
ACAD
1000
HATCH
1002
{
1070
    19
1000
_U
1040
4.7
1040
2.356193999999999
1070
     0
1002
}
  0
INSERT
  5
EE0
330
F51
100
AcDbEntity
  8
8
100
AcDbBlockReference
  2
*X21
 10
0.0
 20
0.0
 30
0.0
1001
GENIUS_GENODEF_13
1002
{
1000
HIER
1070
     0
1002
}
1002
{
1000
MANEDIT
1070
     0
1002
}
1002
{
1000
NOSEL
1070
     0
1002
}
1002
{
1000
BEHIND
1070
     0
1002
}
1002
{
1000
REACTOR
1002
}
1001
GENIUS_GENOBJ-N-HTC_13
1002
{
1000
OWNER
1000
GEN
1002
}
1001
GENIUS_GENHATCH_13
1002
{
1000
DATA
1040
135.0
1042
4.7
1000
_U
1070
     0
1011
328.968609
1021
590.8884339999999
1031
0.0
1002
}
1002
{
1000
UCS
1010
0.0
1020
0.0
1030
0.0
1010
1.0
1020
0.0
1030
0.0
1010
0.0
1020
1.0
1030
0.0
1002
}
1001
ACAD
1000
HATCH
1002
{
1070
    19
1000
_U
1040
4.7
1040
2.356193999999999
1070
     0
1002
}
  0
INSERT
  5
F15
330
F51
100
AcDbEntity
  8
0
100
AcDbBlockReference
  2
*U23
 10
313.916905
 20
554.174256
 30
0.0
 50
327.903113
1001
GENIUS_GEFPARTINS_13
1002
{
1011
313.916905
1021
554.174256
1031
0.0
1013
0.847151
1023
-0.531353
1033
0.0
1002
}
1001
VCC
1002
{
1000
-ID1
1000
-IE1
1000
-IK1
1000
-V$PV_GENSYSTEM"GEF\VAL\IS\0405\IS1627_V.DXF"
1002
}
1001
GEVIT
1002
{
1000
-BEHI1.00000001
1000
-BVCCT0
1000
-GRP00
1000
-BAML2
1000
-BASK1
1000
-NT0
1000
-DOC
1005
F02
1000
-MYREF
1005
F15
1002
}
1001
GEVPT
1002
{
1000
-V$PV_GENSYSTEM"GEF\VAL\IS\0405\IS1627_V.DXF"
1000
-FIXPLOTI=9.274727643002496E+00
1000
-GPGEF_PROCALC=1
1000
-GPGEF_FLIPY=1
1000
-GPGEF_FLIPX=1
1000
-GPGEF_SNK_ADD=0
1000
-GPGEVPROMPTX=Länge:
1000
-GPGEF_OANG=70
1000
-GPGEF_STANG=210
1000
-GPGEF_DRAG=1
1000
-GPGEF_CDIST=3
1000
-GPVCC_TABLE=D:\GENIUS\gef\val\is\0405\is1627.val
1000
-GPNM1=1 1/4
1000
-GPPRE=G
1002
}
1001
GEVID847791359
1002
{
1002
}
1001
GENIUS_GENOREF_13
1005
F29
1005
F2B
  0
LINE
  5
F17
330
F51
100
AcDbEntity
  8
9
100
AcDbLine
 10
311.192382
 20
532.8925629999999
 30
0.0
 11
331.407834
 21
565.122645
 31
0.0
1001
GENIUS_GENBH_13
1002
{
1000
ML
1040
1.0
1002
}
1002
{
1000
OE
1000
CON1
1002
}
1001
GENIUS_GENOREF_13
1005
56F
1005
F2A
  0
ARC
  5
F18
330
F51
100
AcDbEntity
  8
9
100
AcDbCircle
 10
335.643588
 20
562.465882
 30
0.0
 40
5.0
100
AcDbArc
 50
137.443652
 51
147.903113
1001
GENIUS_GENODEF_13
1002
{
1000
HIER
1070
     0
1002
}
1002
{
1000
MANEDIT
1070
     0
1002
}
1002
{
1000
NOSEL
1070
     0
1002
}
1002
{
1000
BEHIND
1070
     0
1002
}
1002
{
1000
REACTOR
1002
}
1001
GENIUS_GENOBJ-N-FIL_13
1002
{
1000
OWNER
1000
GEN
1002
}
1001
GENIUS_GENBH_13
1002
{
1000
ML
1040
1.0
1002
}
1002
{
1000
OE
1000
CON1
1002
}
1001
GENIUS_GENOREF_13
1005
56F
1005
F2A
  0
POINT
  5
F29
330
F51
100
AcDbEntity
  8
0
 60
     1
100
AcDbPoint
 10
0.0
 20
0.0
 30
0.0
1001
GENIUS_GENBH_13
1002
{
1000
BGO
1005
F2A
1002
}
1002
{
1000
FGLEVEL
1040
1.0
1002
}
1002
{
1000
FLAGS
1070
    36
1002
}
1002
{
1000
OIUMAP
1000
OIU
1002
}
1002
{
1000
MODIFY
1070
     0
1002
}
1001
GENIUS_GENODEF_13
1002
{
1000
HIER
1070
     1
1002
}
1002
{
1000
MANEDIT
1070
     0
1002
}
1002
{
1000
NOSEL
1070
     1
1002
}
1002
{
1000
BEHIND
1070
     0
1002
}
1002
{
1000
REACTOR
1002
}
1001
GENIUS_GENOBJ-NBEHI-BHF_13
1002
{
1000
OWNER
1000
GENBEHI
1002
}
1001
GENIUS_GENOENT_13
1002
{
1000
MYREF
1005
F29
1002
}
1002
{
1000
GRP
1005
0
1002
}
1001
GENIUS_GENOLIS_13
1002
{
1000
ENT
1005
F15
1002
}
  0
POINT
  5
F2A
330
F51
100
AcDbEntity
  8
0
 60
     1
100
AcDbPoint
 10
0.0
 20
0.0
 30
0.0
1001
GENIUS_GENBH_13
1002
{
1000
FGO
1005
F29
1002
}
1001
GENIUS_GENODEF_13
1002
{
1000
HIER
1070
     1
1002
}
1002
{
1000
MANEDIT
1070
     0
1002
}
1002
{
1000
NOSEL
1070
     1
1002
}
1002
{
1000
BEHIND
1070
     0
1002
}
1002
{
1000
REACTOR
1002
}
1001
GENIUS_GENOBJ-NBEHI-BHB_13
1002
{
1000
OWNER
1000
GENBEHI
1002
}
1001
GENIUS_GENOENT_13
1002
{
1000
MYREF
1005
F2A
1002
}
1002
{
1000
GRP
1005
0
1002
}
1001
GENIUS_GENOLIS_13
1002
{
1000
ENT
1005
F18
1005
F17
1005
5F0
1005
5AB
1005
3B5
1005
A92
1005
B91
1005
59C
1005
5A2
1005
59D
1005
3B6
1005
597
1005
59B
1005
591
1005
592
1005
593
1005
B56
1005
46C
1005
46E
1005
58C
1005
5A0
1005
5A1
1002
}
  0
POINT
  5
F2B
330
F51
100
AcDbEntity
  8
0
 60
     1
100
AcDbPoint
 10
0.0
 20
0.0
 30
0.0
1001
GENIUS_GENODEF_13
1002
{
1000
HIER
1070
   200
1002
}
1002
{
1000
MANEDIT
1070
     0
1002
}
1002
{
1000
NOSEL
1070
     0
1002
}
1002
{
1000
BEHIND
1070
     0
1002
}
1002
{
1000
REACTOR
1002
}
1001
GENIUS_GENOBJ-F-PART_13
1002
{
1000
OWNER
1000
GEF
1002
}
1001
GENIUS_GEFSTDP_13
1002
{
1000
DSC
1000
DSC
1002
{
1000
~DESCR
1000
 
1000
~STDRT
1000
(gefmsg "gefcall" 409)
1000
~LOTI
1002
}
1002
}
1002
{
1000
SUG
1000
G
1000
1 1/4
1002
}
1002
{
1000
KEY
1000
THPF
1002
}
1002
{
1000
INS
1002
{
1040
313.916905
1040
554.174256
1040
0.0
1002
}
1002
}
1002
{
1000
ANG
1040
5.722989
1002
}
1002
{
1000
VCC
1002
{
1000
-LPLOTI=9.274727643002496E+00
1000
$PRE=G
1000
$NM1=1 1/4
1000
-GRPNAME00
1000
-RBDESCR
1000
-RBSTDRT
1000
-RBLOTI
1000
-RBGD1
1000
-V$PV_GENSYSTEM"gef\val\is\0405\is1627_v.dxf"
1000
$VCC_TABLE=$PV_GENSYSTEM"gef\val\is\0405\is1627.val"
1000
$GEF_CDIST=3.000000000000000E+00
1000
$GEF_DRAG=1
1000
$GEF_STANG=2.100000000000000E+02
1000
$GEF_OANG=7.000000000000000E+01
1000
$GEVPROMPTX= Länge: 
1000
$GEF_SNK_ADD=0.000000000000000E+00
1000
$GEF_FLIPX=1
1000
$GEF_FLIPY=1
1000
-GRPNAME1?
1000
-BAML2
1000
$GEF_PROCALC=1
1002
}
1002
}
1002
{
1000
LST
1002
{
1002
{
1000
GROUP
1000
0405
1002
}
1002
{
1000
VIEW
1000
V
1002
}
1002
{
1000
SFILE
1000
$PV_GENSYSTEM"gef\val\is\0405\is1627_v.dxf"
1002
}
1002
{
1000
ST1
1000
$PV_GENSYSTEM"gef\val\is\0405\is1627.val"
1002
}
1002
{
1000
GENASSO
1000
 
1002
}
1002
}
1002
}
1002
{
1000
RET
1002
{
1002
{
1000
GD1
1000
38.95297
1002
}
1002
{
1000
LOTI
1000
9.274727643002496E+00
1002
}
1002
{
1000
STDRT
1000
ISO 228 - G 1 1/4
1002
}
1002
{
1000
DESCR
1000
Rohrgewinde
1002
}
1002
}
1002
}
1002
{
1000
SYSTEM
1040
1.0
1002
}
1002
{
1000
INFEL
1002
{
1002
}
1002
}
1001
GENIUS_GENOENT_13
1002
{
1000
MYREF
1005
F2B
1002
}
1002
{
1000
GRP
1005
0
1002
}
1001
GENIUS_GENOLIS_13
1002
{
1000
ENT
1005
F15
1002
}
  0
LINE
  5
F2C
330
F51
100
AcDbEntity
  8
0
100
AcDbLine
 10
331.960525
 20
565.847457
 30
0.0
 11
311.192382
 21
532.8925629999999
 31
0.0
  0
VIEWPORT
  5
22
102
{ACAD_XDICTIONARY
360
110F
102
}
330
F4E
100
AcDbEntity
 67
     1
  8
0
100
AcDbViewport
 10
261.5176990000001
 20
148.5
 30
0.0
 40
523.0353980000001
 41
297.0
 68
    -1
 69
     1
 12
261.5176990000001
 22
148.5
 13
0.0
 23
0.0
 14
1.0
 24
1.0
 15
10.0
 25
10.0
 16
0.0
 26
0.0
 36
1.0
 17
0.0
 27
0.0
 37
0.0
 42
50.0
 43
0.0
 44
0.0
 45
297.0
 50
0.0
 51
0.0
 72
   100
 90
    32800
  1

281
     0
 71
     1
 74
     0
110
0.0
120
0.0
130
0.0
111
1.0
121
0.0
131
0.0
112
0.0
122
1.0
132
0.0
 79
     0
146
0.0
1001
GENIUS_GENSCREG_15
1000
PF
1040
1.0
1000
DF
1040
1.0
1000
MIN
1011
0.0
1021
0.0
1031
0.0
1000
MAX
1011
523.0353980000001
1021
297.0
1031
0.0
1000
FLAGS
1070
     4
1001
GENIUS_GENOBJ-N-SDF_13
1002
{
1000
OWNER
1000
GEN
1002
}
1001
GENIUS_GENODEF_13
1002
{
1000
HIER
1070
     0
1002
}
1002
{
1000
MANEDIT
1070
     0
1002
}
1002
{
1000
NOSEL
1070
     0
1002
}
1002
{
1000
BEHIND
1070
     0
1002
}
1002
{
1000
OTHER
1070
     0
1002
}
1002
{
1000
REACTOR
1002
}
  0
ENDSEC
  0
SECTION
  2
OBJECTS
  0
DICTIONARY
  5
F46
330
0
100
AcDbDictionary
281
     1
  3
ACAD_COLOR
350
1032
  3
ACAD_GROUP
350
F47
  3
ACAD_LAYOUT
350
1035
  3
ACAD_MATERIAL
350
1031
  3
ACAD_MLINESTYLE
350
F54
  3
ACAD_PLOTSETTINGS
350
1036
  3
ACAD_PLOTSTYLENAME
350
102F
  3
ACAD_TABLESTYLE
350
1033
  3
ACDBHEADERROUNDTRIPXREC
350
110E
  3
ACDBVARIABLEDICTIONARY
350
FD2
  3
AcmDictionary
350
1094
  3
AMG
350
103A
  3
AMGSNAPSETTINGS
350
1104
  0
DICTIONARY
  5
110F
330
22
100
AcDbDictionary
280
     1
281
     1
  3
ACAD_XREC_ROUNDTRIP
360
1110
  0
DICTIONARY
  5
1032
102
{ACAD_REACTORS
330
F46
102
}
330
F46
100
AcDbDictionary
281
     1
  0
DICTIONARY
  5
F47
102
{ACAD_REACTORS
330
F46
102
}
330
F46
100
AcDbDictionary
281
     1
  0
DICTIONARY
  5
1035
102
{ACAD_REACTORS
330
F46
102
}
330
F46
100
AcDbDictionary
281
     1
  3
Layout1
350
1038
  3
Model
350
1037
  0
DICTIONARY
  5
1031
102
{ACAD_REACTORS
330
F46
102
}
330
F46
100
AcDbDictionary
281
     1
  0
DICTIONARY
  5
F54
102
{ACAD_REACTORS
330
F46
102
}
330
F46
100
AcDbDictionary
281
     1
  3
STANDARD
350
F55
  0
DICTIONARY
  5
1036
102
{ACAD_REACTORS
330
F46
102
}
330
F46
100
AcDbDictionary
281
     1
  0
ACDBDICTIONARYWDFLT
  5
102F
102
{ACAD_REACTORS
330
F46
102
}
330
F46
100
AcDbDictionary
281
     1
  3
Normal
350
1030
100
AcDbDictionaryWithDefault
340
1030
  0
DICTIONARY
  5
1033
102
{ACAD_REACTORS
330
F46
102
}
330
F46
100
AcDbDictionary
281
     1
  3
Standard
350
1034
  0
DICTIONARY
  5
110E
102
{ACAD_REACTORS
330
F46
102
}
330
F46
100
AcDbDictionary
281
     1
  0
DICTIONARY
  5
FD2
102
{ACAD_REACTORS
330
F46
102
}
330
F46
100
AcDbDictionary
281
     1
  3
CTABLESTYLE
350
1103
  3
DIMADEC
350
FD3
  3
DIMASSOC
350
110B
  3
PROJECTNAME
350
110C
  0
DICTIONARY
  5
1094
102
{ACAD_REACTORS
330
F46
102
}
330
F46
100
AcDbDictionary
281
     1
  3
AcmStdDictionary
350
109F
  3
AMDTSECTSYM_ARROWCOLOR
350
10C2
  0
DICTIONARY
  5
103A
102
{ACAD_REACTORS
330
F46
102
}
330
F46
100
AcDbDictionary
281
     1
  0
DICTIONARY
  5
1104
102
{ACAD_REACTORS
330
F46
102
}
330
F46
100
AcDbDictionary
281
     1
  0
XRECORD
  5
1110
102
{ACAD_REACTORS
330
110F
102
}
330
110F
100
AcDbXrecord
280
     1
102
SHADEPLOT
 70
     0
  0
LAYOUT
  5
1038
102
{ACAD_XDICTIONARY
360
1113
102
}
102
{ACAD_REACTORS
330
1035
102
}
330
1035
100
AcDbPlotSettings
  1

  2
Xerox Document Centre CS50 PS
  4

  6

 40
0.0
 41
0.0
 42
0.0
 43
0.0
 44
0.0
 45
0.0
 46
0.0
 47
0.0
 48
0.0
 49
0.0
140
0.0
141
0.0
142
1.0
143
1.0
 70
   688
 72
     0
 73
     0
 74
     5
  7

 75
    16
147
1.0
148
0.0
149
0.0
100
AcDbLayout
  1
Layout1
 70
     1
 71
     1
 10
0.0
 20
0.0
 11
420.0
 21
297.0
 12
0.0
 22
0.0
 32
0.0
 14
1.000000000000000E+20
 24
1.000000000000000E+20
 34
1.000000000000000E+20
 15
-1.000000000000000E+20
 25
-1.000000000000000E+20
 35
-1.000000000000000E+20
146
0.0
 13
0.0
 23
0.0
 33
0.0
 16
1.0
 26
0.0
 36
0.0
 17
0.0
 27
1.0
 37
0.0
 76
     0
330
F4E
  0
LAYOUT
  5
1037
102
{ACAD_XDICTIONARY
360
1111
102
}
102
{ACAD_REACTORS
330
1035
102
}
330
1035
100
AcDbPlotSettings
  1

  2
Xerox Document Centre CS50 PS
  4

  6

 40
0.0
 41
0.0
 42
0.0
 43
0.0
 44
0.0
 45
0.0
 46
0.0
 47
0.0
 48
0.0
 49
0.0
140
0.0
141
0.0
142
1.0
143
1.0
 70
  1712
 72
     0
 73
     0
 74
     0
  7

 75
     0
147
1.0
148
0.0
149
0.0
100
AcDbLayout
  1
Model
 70
     1
 71
     0
 10
0.0
 20
0.0
 11
12.0
 21
9.0
 12
0.0
 22
0.0
 32
0.0
 14
0.0
 24
0.0
 34
0.0
 15
0.0
 25
0.0
 35
0.0
146
0.0
 13
0.0
 23
0.0
 33
0.0
 16
1.0
 26
0.0
 36
0.0
 17
0.0
 27
1.0
 37
0.0
 76
     0
330
F51
  0
MLINESTYLE
  5
F55
102
{ACAD_REACTORS
330
F54
102
}
330
F54
100
AcDbMlineStyle
  2
STANDARD
 70
     0
  3

 62
   256
 51
90.0
 52
90.0
 71
     2
 49
0.5
 62
   256
  6
BYLAYER
 49
-0.5
 62
   256
  6
BYLAYER
  0
ACDBPLACEHOLDER
  5
1030
102
{ACAD_REACTORS
330
102F
102
}
330
102F
  0
TABLESTYLE
  5
1034
102
{ACAD_REACTORS
330
1033
102
}
330
1033
100
AcDbTableStyle
  3
Standard
 70
     0
 71
     0
 40
1.5
 41
1.5
280
     0
281
     0
  7
STANDARD
140
4.5
170
     2
 62
     0
 63
     7
283
     0
274
    -2
284
     1
 64
     0
275
    -2
285
     1
 65
     0
276
    -2
286
     1
 66
     0
277
    -2
287
     1
 67
     0
278
    -2
288
     1
 68
     0
279
    -2
289
     1
 69
     0
  7
STANDARD
140
6.0
170
     5
 62
     0
 63
     7
283
     0
274
    -2
284
     1
 64
     0
275
    -2
285
     1
 65
     0
276
    -2
286
     1
 66
     0
277
    -2
287
     1
 67
     0
278
    -2
288
     1
 68
     0
279
    -2
289
     1
 69
     0
  7
STANDARD
140
4.5
170
     5
 62
     0
 63
     7
283
     0
274
    -2
284
     1
 64
     0
275
    -2
285
     1
 65
     0
276
    -2
286
     1
 66
     0
277
    -2
287
     1
 67
     0
278
    -2
288
     1
 68
     0
279
    -2
289
     1
 69
     0
  0
DICTIONARYVAR
  5
1103
102
{ACAD_REACTORS
330
FD2
102
}
330
FD2
100
DictionaryVariables
280
     0
  1
STANDARD
  0
DICTIONARYVAR
  5
FD3
102
{ACAD_REACTORS
330
FD2
102
}
330
FD2
100
DictionaryVariables
280
     0
  1
0
  0
DICTIONARYVAR
  5
110B
102
{ACAD_REACTORS
330
FD2
102
}
330
FD2
100
DictionaryVariables
280
     0
  1
1
  0
DICTIONARYVAR
  5
110C
102
{ACAD_REACTORS
330
FD2
102
}
330
FD2
100
DictionaryVariables
280
     0
  1

  0
DICTIONARY
  5
109F
102
{ACAD_REACTORS
330
1094
102
}
330
1094
100
AcDbDictionary
281
     1
  0
XRECORD
  5
10C2
102
{ACAD_REACTORS
330
1094
102
}
330
1094
100
AcDbXrecord
280
     1
 90
-1023410169
  0
DICTIONARY
  5
1113
330
1038
100
AcDbDictionary
280
     1
281
     1
  3
ACAD_XREC_ROUNDTRIP
360
1114
  0
DICTIONARY
  5
1111
330
1037
100
AcDbDictionary
280
     1
281
     1
  3
ACAD_XREC_ROUNDTRIP
360
1112
  0
XRECORD
  5
1114
102
{ACAD_REACTORS
330
1113
102
}
330
1113
100
AcDbXrecord
280
     1
102
SHADEPLOT
 70
     0
102
SHADEPLOTRESLEVEL
 70
     2
102
SHADEPLOTCUSTOMDPI
 70
   300
  0
XRECORD
  5
1112
102
{ACAD_REACTORS
330
1111
102
}
330
1111
100
AcDbXrecord
280
     1
102
SHADEPLOT
 70
     0
102
SHADEPLOTRESLEVEL
 70
     2
102
SHADEPLOTCUSTOMDPI
 70
   300
  0
ENDSEC
  0
EOF
