  0
SECTION
  2
HEADER
  9
$ACADVER
  1
AC1015
  9
$ACADMAINTVER
 70
    20
  9
$DWGCODEPAGE
  3
ANSI_1252
  9
$INSBASE
 10
0.0
 20
0.0
 30
0.0
  9
$EXTMIN
 10
-5.131102168553297
 20
43.72453062024805
 30
-0.0015258207003583
  9
$EXTMAX
 10
1045.142800346746
 20
668.9140722558963
 30
0.0000000349246037
  9
$LIMMIN
 10
0.0
 20
0.0
  9
$LIMMAX
 10
1050.0
 20
1050.0
  9
$ORTHOMODE
 70
     0
  9
$REGENMODE
 70
     1
  9
$FILLMODE
 70
     1
  9
$QTEXTMODE
 70
     0
  9
$MIRRTEXT
 70
     0
  9
$LTSCALE
 40
5.0
  9
$ATTMODE
 70
     1
  9
$TEXTSIZE
 40
3.5
  9
$TRACEWID
 40
0.05
  9
$TEXTSTYLE
  7
STANDARD
  9
$CLAYER
  8
0
  9
$CELTYPE
  6
BYLAYER
  9
$CECOLOR
 62
   256
  9
$CELTSCALE
 40
1.0
  9
$DISPSILH
 70
     0
  9
$DIMSCALE
 40
5.0
  9
$DIMASZ
 40
2.5
  9
$DIMEXO
 40
1.0
  9
$DIMDLI
 40
7.0
  9
$DIMRND
 40
0.0
  9
$DIMDLE
 40
0.0
  9
$DIMEXE
 40
1.0
  9
$DIMTP
 40
0.1
  9
$DIMTM
 40
0.1
  9
$DIMTXT
 40
3.5
  9
$DIMCEN
 40
0.0
  9
$DIMTSZ
 40
0.0
  9
$DIMTOL
 70
     0
  9
$DIMLIM
 70
     0
  9
$DIMTIH
 70
     0
  9
$DIMTOH
 70
     0
  9
$DIMSE1
 70
     0
  9
$DIMSE2
 70
     0
  9
$DIMTAD
 70
     1
  9
$DIMZIN
 70
    12
  9
$DIMBLK
  1

  9
$DIMASO
 70
     1
  9
$DIMSHO
 70
     1
  9
$DIMPOST
  1

  9
$DIMAPOST
  1
"
  9
$DIMALT
 70
     0
  9
$DIMALTD
 70
     2
  9
$DIMALTF
 40
0.03937
  9
$DIMLFAC
 40
1.0
  9
$DIMTOFL
 70
     1
  9
$DIMTVP
 40
0.0
  9
$DIMTIX
 70
     0
  9
$DIMSOXD
 70
     0
  9
$DIMSAH
 70
     0
  9
$DIMBLK1
  1

  9
$DIMBLK2
  1

  9
$DIMSTYLE
  2
GEN-ISO
  9
$DIMCLRD
 70
   256
  9
$DIMCLRE
 70
   256
  9
$DIMCLRT
 70
     2
  9
$DIMTFAC
 40
0.71
  9
$DIMGAP
 40
0.6
  9
$DIMJUST
 70
     0
  9
$DIMSD1
 70
     0
  9
$DIMSD2
 70
     0
  9
$DIMTOLJ
 70
     0
  9
$DIMTZIN
 70
     0
  9
$DIMALTZ
 70
     0
  9
$DIMALTTZ
 70
     0
  9
$DIMUPT
 70
     0
  9
$DIMDEC
 70
     2
  9
$DIMTDEC
 70
     3
  9
$DIMALTU
 70
     2
  9
$DIMALTTD
 70
     4
  9
$DIMTXSTY
  7
STANDARD
  9
$DIMAUNIT
 70
     0
  9
$DIMADEC
 70
     0
  9
$DIMALTRND
 40
0.0
  9
$DIMAZIN
 70
     0
  9
$DIMDSEP
 70
    46
  9
$DIMATFIT
 70
     3
  9
$DIMFRAC
 70
     0
  9
$DIMLDRBLK
  1

  9
$DIMLUNIT
 70
     2
  9
$DIMLWD
 70
    -2
  9
$DIMLWE
 70
    -2
  9
$DIMTMOVE
 70
     0
  9
$LUNITS
 70
     2
  9
$LUPREC
 70
     2
  9
$SKETCHINC
 40
0.1
  9
$FILLETRAD
 40
12.5
  9
$AUNITS
 70
     0
  9
$AUPREC
 70
     2
  9
$MENU
  1
.
  9
$ELEVATION
 40
0.0
  9
$PELEVATION
 40
0.0
  9
$THICKNESS
 40
0.0
  9
$LIMCHECK
 70
     0
  9
$CHAMFERA
 40
12.5
  9
$CHAMFERB
 40
12.5
  9
$CHAMFERC
 40
0.0
  9
$CHAMFERD
 40
0.0
  9
$SKPOLY
 70
     0
  9
$TDCREATE
 40
2451261.613157743
  9
$TDUCREATE
 40
2451261.571491077
  9
$TDUPDATE
 40
2454081.835967141
  9
$TDUUPDATE
 40
2454081.794300475
  9
$TDINDWG
 40
0.0679508218
  9
$TDUSRTIMER
 40
0.0679508218
  9
$USRTIMER
 70
     1
  9
$ANGBASE
 50
0.0
  9
$ANGDIR
 70
     0
  9
$PDMODE
 70
     0
  9
$PDSIZE
 40
0.0
  9
$PLINEWID
 40
0.0
  9
$SPLFRAME
 70
     0
  9
$SPLINETYPE
 70
     6
  9
$SPLINESEGS
 70
     8
  9
$HANDSEED
  5
2176
  9
$SURFTAB1
 70
     6
  9
$SURFTAB2
 70
     6
  9
$SURFTYPE
 70
     6
  9
$SURFU
 70
     6
  9
$SURFV
 70
     6
  9
$UCSBASE
  2

  9
$UCSNAME
  2

  9
$UCSORG
 10
0.0
 20
0.0
 30
0.0
  9
$UCSXDIR
 10
1.0
 20
0.0
 30
0.0
  9
$UCSYDIR
 10
0.0
 20
1.0
 30
0.0
  9
$UCSORTHOREF
  2

  9
$UCSORTHOVIEW
 70
     0
  9
$UCSORGTOP
 10
0.0
 20
0.0
 30
0.0
  9
$UCSORGBOTTOM
 10
0.0
 20
0.0
 30
0.0
  9
$UCSORGLEFT
 10
0.0
 20
0.0
 30
0.0
  9
$UCSORGRIGHT
 10
0.0
 20
0.0
 30
0.0
  9
$UCSORGFRONT
 10
0.0
 20
0.0
 30
0.0
  9
$UCSORGBACK
 10
0.0
 20
0.0
 30
0.0
  9
$PUCSBASE
  2

  9
$PUCSNAME
  2

  9
$PUCSORG
 10
0.0
 20
0.0
 30
0.0
  9
$PUCSXDIR
 10
1.0
 20
0.0
 30
0.0
  9
$PUCSYDIR
 10
0.0
 20
1.0
 30
0.0
  9
$PUCSORTHOREF
  2

  9
$PUCSORTHOVIEW
 70
     0
  9
$PUCSORGTOP
 10
0.0
 20
0.0
 30
0.0
  9
$PUCSORGBOTTOM
 10
0.0
 20
0.0
 30
0.0
  9
$PUCSORGLEFT
 10
0.0
 20
0.0
 30
0.0
  9
$PUCSORGRIGHT
 10
0.0
 20
0.0
 30
0.0
  9
$PUCSORGFRONT
 10
0.0
 20
0.0
 30
0.0
  9
$PUCSORGBACK
 10
0.0
 20
0.0
 30
0.0
  9
$USERI1
 70
     0
  9
$USERI2
 70
     0
  9
$USERI3
 70
     0
  9
$USERI4
 70
     0
  9
$USERI5
 70
     0
  9
$USERR1
 40
0.0
  9
$USERR2
 40
0.0
  9
$USERR3
 40
0.0
  9
$USERR4
 40
0.0
  9
$USERR5
 40
0.0
  9
$WORLDVIEW
 70
     1
  9
$SHADEDGE
 70
     3
  9
$SHADEDIF
 70
    70
  9
$TILEMODE
 70
     1
  9
$MAXACTVP
 70
    48
  9
$PINSBASE
 10
0.0
 20
0.0
 30
0.0
  9
$PLIMCHECK
 70
     0
  9
$PEXTMIN
 10
0.0
 20
0.0
 30
0.0
  9
$PEXTMAX
 10
840.8989999999999
 20
593.899
 30
0.0
  9
$PLIMMIN
 10
0.0
 20
0.0
  9
$PLIMMAX
 10
840.8989999999999
 20
593.899
  9
$UNITMODE
 70
     0
  9
$VISRETAIN
 70
     1
  9
$PLINEGEN
 70
     1
  9
$PSLTSCALE
 70
     1
  9
$TREEDEPTH
 70
 -3020
  9
$CMLSTYLE
  2
STANDARD
  9
$CMLJUST
 70
     0
  9
$CMLSCALE
 40
1.0
  9
$PROXYGRAPHICS
 70
     1
  9
$MEASUREMENT
 70
     1
  9
$CELWEIGHT
370
    -1
  9
$ENDCAPS
280
     0
  9
$JOINSTYLE
280
     0
  9
$LWDISPLAY
290
     0
  9
$INSUNITS
 70
     0
  9
$HYPERLINKBASE
  1

  9
$STYLESHEET
  1

  9
$XEDIT
290
     1
  9
$CEPSNTYPE
380
     0
  9
$PSTYLEMODE
290
     1
  9
$FINGERPRINTGUID
  2
{6FEA5E1F-05C5-471D-BCF0-7F27965CA8DB}
  9
$VERSIONGUID
  2
{6BDB83BC-55AF-4873-9B5E-6EAF712A210B}
  9
$EXTNAMES
290
     1
  9
$PSVPSCALE
 40
0.0
  9
$OLESTARTUP
290
     0
  0
ENDSEC
  0
SECTION
  2
CLASSES
  0
CLASS
  1
HATCH
  2
AcDbHatch
  3
ObjectDBX Classes
 90
        0
280
     0
281
     1
  0
CLASS
  1
DICTIONARYVAR
  2
AcDbDictionaryVar
  3
ObjectDBX Classes
 90
        0
280
     0
281
     0
  0
CLASS
  1
ARCALIGNEDTEXT
  2
AcDbArcAlignedText
  3
ATEXT
 90
        0
280
     0
281
     1
  0
CLASS
  1
ACDBDICTIONARYWDFLT
  2
AcDbDictionaryWithDefault
  3
ObjectDBX Classes
 90
        0
280
     0
281
     0
  0
CLASS
  1
TABLESTYLE
  2
AcDbTableStyle
  3
ObjectDBX Classes
 90
     2047
280
     0
281
     0
  0
CLASS
  1
AMGSETTINGSOBJ
  2
AmgSettingsObj
  3
"AcadM|Product Description: AutoCAD Mechanical 2000|Company: Autodesk"
 90
        0
280
     0
281
     0
  0
CLASS
  1
ACME_DOCUMENT
  2
AcMeDbDoc
  3
AcMeServices
 90
        0
280
     0
281
     0
  0
CLASS
  1
ACMESCOPE
  2
AcMeScope
  3
AcMeServices
 90
        0
280
     0
281
     0
  0
CLASS
  1
ACMECOMMANDHISTORY
  2
AcMeCommandHistory
  3
AcMeServices
 90
        0
280
     0
281
     0
  0
CLASS
  1
ACIMSYSVARMAN
  2
AcImSysVarManager
  3
AcMeServices
 90
        0
280
     0
281
     0
  0
CLASS
  1
ACIMINTSYSVAR
  2
AcImIntSysVar
  3
AcMeServices
 90
        0
280
     0
281
     0
  0
CLASS
  1
ACMEDRAWINGMAN
  2
AcMeDrawingMan
  3
AcMeServices
 90
        0
280
     0
281
     0
  0
CLASS
  1
ACMEVIEW
  2
AcMeView
  3
AcMeServices
 90
        0
280
     0
281
     0
  0
CLASS
  1
ACDBENTITYCACHE
  2
AcMeEntityCache
  3
AcMeServices
 90
        0
280
     0
281
     0
  0
CLASS
  1
GSMANAGER
  2
AcMeGSManager
  3
AcMeServices
 90
        0
280
     0
281
     0
  0
CLASS
  1
AMDTINTERNALREACTOR
  2
AmdtInternalReactor
  3
AcMeServices
 90
        0
280
     0
281
     0
  0
CLASS
  1
ACMESTATEMGR
  2
AcMeStateMgr
  3
AcMeServices
 90
        0
280
     0
281
     0
  0
CLASS
  1
ACGREFMASTER
  2
AcGrefMaster
  3
AcAttribServices
 90
        0
280
     0
281
     0
  0
CLASS
  1
AM_DRAWING_MGR
  2
AcDmDwgMgr
  3
AcMechDwgViewMgmt
 90
        0
280
     0
281
     0
  0
CLASS
  1
AM_DWG_DOCUMENT
  2
AcDmDwgDocument
  3
AcMechDwgViewMgmt
 90
        0
280
     0
281
     0
  0
CLASS
  1
AM_DWG_SHEET
  2
AcDmSheet
  3
AcMechDwgViewMgmt
 90
        0
280
     0
281
     0
  0
CLASS
  1
AM_VIEWDIMPARMAP
  2
AcDmViewDimParMap
  3
AcMechDwgViewMgmt
 90
        0
280
     0
281
     0
  0
CLASS
  1
ACIMREALSYSVAR
  2
AcImRealSysVar
  3
AcMeServices
 90
        0
280
     0
281
     0
  0
CLASS
  1
AM_DWGMGR_NAME
  2
AcDmDwgMgrName
  3
AcMechDwgViewMgmt
 90
        0
280
     0
281
     0
  0
CLASS
  1
ACME_DATABASE
  2
AcMeDbDatabase
  3
AcMeServices
 90
        0
280
     0
281
     0
  0
CLASS
  1
ACRFINSADJUSTERMGR
  2
AcRfInsAdjusterMgr
  3
AcMeServices
 90
        0
280
     0
281
     0
  0
CLASS
  1
ACGREFACADMASTER
  2
AcGrefacadMaster
  3
AcGrefServices
 90
        0
280
     0
281
     0
  0
CLASS
  1
AMDTMENUSTATEMGR
  2
AmdtMenuStateMgr
  3
McadcomServices
 90
        0
280
     0
281
     0
  0
CLASS
  1
AMDTMCOMMENUSTATE
  2
AmdtMcomMenuState
  3
McadcomServices
 90
        0
280
     0
281
     0
  0
CLASS
  1
AMIMASTER
  2
AmiMaster
  3
AmiServices
 90
        0
280
     0
281
     0
  0
CLASS
  1
MAPIAMMOUDLE
  2
MApiAmModule
  3
MApiAmServices
 90
        0
280
     0
281
     0
  0
CLASS
  1
ACIMSTRSYSVAR
  2
AcImStrSysVar
  3
AcMeServices
 90
        0
280
     0
281
     0
  0
CLASS
  1
AMDTADMENUSTATE
  2
AmdtAdMenuState
  3
DesignerServices
 90
        0
280
     0
281
     0
  0
CLASS
  1
ADAPPL
  2
AcAdAppl
  3
DesignerServices
 90
        0
280
     0
281
     0
  0
CLASS
  1
DEPMGR
  2
AcAdDepMgr
  3
DesignerServices
 90
        0
280
     0
281
     0
  0
CLASS
  1
PARAMMGR
  2
AcAdParamMgr
  3
DesignerServices
 90
        0
280
     0
281
     0
  0
CLASS
  1
PARAMSCOPE
  2
AcAdParamScope
  3
DesignerServices
 90
        0
280
     0
281
     0
  0
CLASS
  1
NAMEDAPPL
  2
AcAdNamedAppl
  3
DesignerServices
 90
        0
280
     0
281
     0
  0
CLASS
  1
AMDTDMMENUSTATE
  2
AmdtDmMenuState
  3
AcMechDwgViewMgmt
 90
        0
280
     0
281
     0
  0
CLASS
  1
AMDTAMMENUSTATE
  2
AmdtAmMenuState
  3
DesignerAssemblies
 90
        0
280
     0
281
     0
  0
CLASS
  1
ACAMPROJECT
  2
AcAmProject
  3
DesignerAssemblies
 90
        0
280
     0
281
     0
  0
CLASS
  1
ACAMGRCOMPDEF
  2
AcAmGrCompDef
  3
DesignerAssemblies
 90
        0
280
     0
281
     0
  0
CLASS
  1
ACCMCONTEXT
  2
AcCmContext
  3
DesignerAssemblies
 90
        0
280
     0
281
     0
  0
CLASS
  1
ACAMCOMPDEF
  2
AcAmCompDef
  3
DesignerAssemblies
 90
        0
280
     0
281
     0
  0
CLASS
  1
ACAMCOMPDEFMGR
  2
AcAmCompDefMgr
  3
DesignerAssemblies
 90
        0
280
     0
281
     0
  0
CLASS
  1
AMCONTEXTMGR
  2
AcAmContextMgr
  3
DesignerAssemblies
 90
        0
280
     0
281
     0
  0
CLASS
  1
ACAMCONTEXTMODELER
  2
AcAmContextModeler
  3
DesignerAssemblies
 90
        0
280
     0
281
     0
  0
CLASS
  1
ACMDATADICTIONARY
  2
AcmDataDictionary
  3
"AcmSymBB|Product Description: AutoCAD Mechanical 2004 DX|Company: Autodesk"
 90
        0
280
     0
281
     0
  0
CLASS
  1
CATALOGSTATE
  2
AcAmCatalogState
  3
DesignerAssemblies
 90
        0
280
     0
281
     0
  0
CLASS
  1
ACAMGRCOMPDEFSET
  2
AcAmGrCompDefSet
  3
DesignerAssemblies
 90
        0
280
     0
281
     0
  0
CLASS
  1
AMDTBROWSERDBTAB
  2
AmdtBrowserDbTab
  3
McadcomServices
 90
        0
280
     0
281
     0
  0
CLASS
  1
CBROWSERAPPOBJECT
  2
CBrowserAppObject
  3
McadcomServices
 90
        0
280
     0
281
     0
  0
CLASS
  1
DM_PLACEHOLDER
  2
AcDmSelsetPlaceholder
  3
AcMechDwgViewMgmt
 90
        0
280
     0
281
     0
  0
CLASS
  1
ACMSTANDARDDIN
  2
AcmStandardDIN
  3
"Amdt_StdImp|Product Description: AutoCAD Mechanical 2004 DX|Company: Autodesk"
 90
        0
280
     0
281
     0
  0
CLASS
  1
AMGOBJPROPCFG
  2
AmgObjPropCfg
  3
"AmgLay|Product Description: AutoCAD Mechanical 2000|Company: Autodesk"
 90
        1
280
     0
281
     0
  0
CLASS
  1
AMDTEDGESTANDARDDIN13715
  2
AmdtEdgeStdDIN13715
  3
"Amdt_StdImp|Product Description: AutoCAD Mechanical 2004 DX|Company: Autodesk"
 90
        0
280
     0
281
     0
  0
CLASS
  1
ACMSURFSTANDARDDIN
  2
AcmSurfTextStdDIN
  3
"Amdt_StdImp|Product Description: AutoCAD Mechanical 2004 DX|Company: Autodesk"
 90
        0
280
     0
281
     0
  0
CLASS
  1
ACMFCFSTANDARDDIN
  2
AcmFCFStdDIN
  3
"Amdt_StdImp|Product Description: AutoCAD Mechanical 2004 DX|Company: Autodesk"
 90
        0
280
     0
281
     0
  0
CLASS
  1
ACMWELDSTANDARDDIN
  2
AcmWeldingStdDIN
  3
"Amdt_StdImp|Product Description: AutoCAD Mechanical 2004 DX|Company: Autodesk"
 90
        0
280
     0
281
     0
  0
CLASS
  1
ACMIDSTANDARDDIN
  2
AcmIdStdDIN
  3
"Amdt_StdImp|Product Description: AutoCAD Mechanical 2004 DX|Company: Autodesk"
 90
        0
280
     0
281
     0
  0
CLASS
  1
ACMDATUMSTANDARDDIN
  2
AcmDatumStdDIN
  3
"Amdt_StdImp|Product Description: AutoCAD Mechanical 2004 DX|Company: Autodesk"
 90
        0
280
     0
281
     0
  0
CLASS
  1
ACMBOMSTANDARDDIN
  2
AcmBOMStdDIN
  3
"Amdt_StdImp|Product Description: AutoCAD Mechanical 2004 DX|Company: Autodesk"
 90
        0
280
     0
281
     0
  0
CLASS
  1
ACMDETAILSTANDARDDIN
  2
AmdtDetailSymStdDIN
  3
"Amdt_StdImp|Product Description: AutoCAD Mechanical 2004 DX|Company: Autodesk"
 90
        0
280
     0
281
     0
  0
CLASS
  1
ACMSECTIONSTANDARDDIN
  2
AmdtSectionSymStdDIN
  3
"Amdt_StdImp|Product Description: AutoCAD Mechanical 2004 DX|Company: Autodesk"
 90
        0
280
     0
281
     0
  0
CLASS
  1
ACMCENTERLINESTANDARDDIN
  2
AmdtCenterLineStdDIN
  3
"Amdt_StdImp|Product Description: AutoCAD Mechanical 2004 DX|Company: Autodesk"
 90
        0
280
     0
281
     0
  0
CLASS
  1
ACMTHREADLINESTANDARDDIN
  2
AmdtThreadLineStdDIN
  3
"Amdt_StdImp|Product Description: AutoCAD Mechanical 2004 DX|Company: Autodesk"
 90
        0
280
     0
281
     0
  0
CLASS
  1
ACMNOTESTANDARDDIN
  2
AmdtNoteStdDIN
  3
"Amdt_StdImp|Product Description: AutoCAD Mechanical 2004 DX|Company: Autodesk"
 90
        0
280
     0
281
     0
  0
CLASS
  1
AMDTNOTETEMPLATEDB
  2
AmdtNoteTemplateDB
  3
AMDT_STDIMP_MODULE_NAME
 90
        0
280
     0
281
     0
  0
CLASS
  1
ACAMGLAYSTD
  2
AcAmgLayStd
  3
"AcAmgLayStd|Product Description: AutoCAD Mechanical 2000|Company: Autodesk"
 90
        0
280
     0
281
     0
  0
CLASS
  1
ACAMGDIMSTD
  2
AcAmgDimStd
  3
"AcAmgDimStd|Product Description: AutoCAD Mechanical 2000|Company: Autodesk"
 90
        0
280
     0
281
     0
  0
CLASS
  1
ACAMGHOLECHARTSTDDIN
  2
AcAmgHoleChartStdDIN
  3
ACMSYMBB_MODULE_NAME
 90
        0
280
     0
281
     0
  0
CLASS
  1
ACAMGTITLESTD
  2
AcAmgTitleStd
  3
"TITLEAPP"
 90
        0
280
     0
281
     0
  0
CLASS
  1
ACAMGFILTERDAT
  2
AcAmgFilterDat
  3
"AcadM|Product Description: AutoCAD Mechanical 2000|Company: Autodesk"
 90
        0
280
     0
281
     0
  0
CLASS
  1
SORTENTSTABLE
  2
AcDbSortentsTable
  3
ObjectDBX Classes
 90
        0
280
     0
281
     0
  0
CLASS
  1
ACDBPLACEHOLDER
  2
AcDbPlaceHolder
  3
ObjectDBX Classes
 90
        0
280
     0
281
     0
  0
CLASS
  1
LAYOUT
  2
AcDbLayout
  3
ObjectDBX Classes
 90
        0
280
     0
281
     0
  0
ENDSEC
  0
SECTION
  2
TABLES
  0
TABLE
  2
VPORT
  5
17AA
330
0
100
AcDbSymbolTable
 70
     4
  0
VPORT
  5
2170
330
17AA
100
AcDbSymbolTableRecord
100
AcDbViewportTableRecord
  2
*Active
 70
     0
 10
0.0
 20
0.0
 11
1.0
 21
1.0
 12
258.9430361847817
 22
350.3276981533772
 13
0.0
 23
0.0
 14
5.0
 24
5.0
 15
50.0
 25
50.0
 16
0.0
 26
0.0
 36
1.0
 17
0.0
 27
0.0
 37
0.0
 40
706.1535215590428
 41
1.494545454545454
 42
50.0
 43
0.0
 44
0.0
 50
0.0
 51
0.0
 71
     0
 72
  1000
 73
     1
 74
     1
 75
     0
 76
     0
 77
     0
 78
     0
281
     0
 65
     0
110
0.0
120
0.0
130
0.0
111
1.0
121
0.0
131
0.0
112
0.0
122
1.0
132
0.0
 79
     0
146
0.0
  0
ENDTAB
  0
TABLE
  2
LTYPE
  5
17A7
330
0
100
AcDbSymbolTable
 70
    21
  0
LTYPE
  5
17B4
330
17A7
100
AcDbSymbolTableRecord
100
AcDbLinetypeTableRecord
  2
BYBLOCK
 70
     0
  3

 72
    65
 73
     0
 40
0.0
  0
LTYPE
  5
17B5
330
17A7
100
AcDbSymbolTableRecord
100
AcDbLinetypeTableRecord
  2
BYLAYER
 70
     0
  3

 72
    65
 73
     0
 40
0.0
  0
LTYPE
  5
17B6
330
17A7
100
AcDbSymbolTableRecord
100
AcDbLinetypeTableRecord
  2
CONTINUOUS
 70
     0
  3
Solid line
 72
    65
 73
     0
 40
0.0
  0
LTYPE
  5
17C5
330
17A7
100
AcDbSymbolTableRecord
100
AcDbLinetypeTableRecord
  2
GEN7
 70
     0
  3
____ _ ____ _ ____ _ ____ _ ____ _ ____ _ ____ _ ____ _ ____ _
 72
    65
 73
     4
 40
22.0
 49
10.75
 74
     0
 49
-3.75
 74
     0
 49
3.75
 74
     0
 49
-3.75
 74
     0
  0
LTYPE
  5
1F62
330
17A7
100
AcDbSymbolTableRecord
100
AcDbLinetypeTableRecord
  2
HIDDEN
 70
     0
  3
Verdeckt
 72
    65
 73
     2
 40
9.525
 49
6.349999999999999
 74
     0
 49
-3.174999999999999
 74
     0
  0
LTYPE
  5
1F63
330
17A7
100
AcDbSymbolTableRecord
100
AcDbLinetypeTableRecord
  2
PHANTOM2
 70
     0
  3
Phantom (.5x) ___ _ _ ___ _ _ ___ _ _ ___ _ _
 72
    65
 73
     6
 40
31.75
 49
15.875
 74
     0
 49
-3.174999999999999
 74
     0
 49
3.174999999999999
 74
     0
 49
-3.174999999999999
 74
     0
 49
3.174999999999999
 74
     0
 49
-3.174999999999999
 74
     0
  0
LTYPE
  5
1F64
330
17A7
100
AcDbSymbolTableRecord
100
AcDbLinetypeTableRecord
  2
CENTER
 70
     0
  3
Mitte ____ _ ____ _ ____ _ ____ _ ____ _ ____
 72
    65
 73
     4
 40
50.8
 49
31.75
 74
     0
 49
-6.349999999999999
 74
     0
 49
6.349999999999999
 74
     0
 49
-6.349999999999999
 74
     0
  0
LTYPE
  5
1F9B
330
17A7
100
AcDbSymbolTableRecord
100
AcDbLinetypeTableRecord
  2
Amconstr
 70
     0
  3
_______________________
 72
    65
 73
     2
 40
9999.0
 49
9999.0
 74
     0
 49
0.0
 74
     0
  0
LTYPE
  5
1FA0
330
17A7
100
AcDbSymbolTableRecord
100
AcDbLinetypeTableRecord
  2
Amzigzag
 70
     0
  3
/\/-/\/-/\/-/\/-/\/-/\/
 72
    65
 73
     2
 40
11.0001
 49
0.0001
 74
     4
 75
   136
340
1F9F
 46
0.04
 50
0.0
 44
0.0
 45
0.0
 49
-11.0
 74
     0
  0
LTYPE
  5
1FA1
330
17A7
100
AcDbSymbolTableRecord
100
AcDbLinetypeTableRecord
  2
AM_DIN_F_W050
 70
     0
  3
__ __ __ __ __ __ __ __ __ __ __ __ __ __ __
 72
    65
 73
     2
 40
6.25
 49
4.75
 74
     0
 49
-1.5
 74
     0
  0
LTYPE
  5
1FA2
330
17A7
100
AcDbSymbolTableRecord
100
AcDbLinetypeTableRecord
  2
AM_DIN_G_W050
 70
     0
  3
____ . ____ . ____ . ____ . ____ . ____ . ____
 72
    65
 73
     4
 40
13.75
 49
9.75
 74
     0
 49
-1.5
 74
     0
 49
1.0
 74
     0
 49
-1.5
 74
     0
  0
LTYPE
  5
1FA3
330
17A7
100
AcDbSymbolTableRecord
100
AcDbLinetypeTableRecord
  2
AM_DIN_K_W050
 70
     0
  3
_____ . . _____ . . _____ . . ____ .. ____
 72
    65
 73
     6
 40
16.25
 49
9.75
 74
     0
 49
-1.5
 74
     0
 49
1.0
 74
     0
 49
-1.5
 74
     0
 49
1.0
 74
     0
 49
-1.5
 74
     0
  0
LTYPE
  5
1FA4
330
17A7
100
AcDbSymbolTableRecord
100
AcDbLinetypeTableRecord
  2
AM_DIN_G_W050x2
 70
     0
  3
__ . __ . __ . __ . __ . __
 72
    65
 73
     4
 40
6.875
 49
4.75
 74
     0
 49
-0.875
 74
     0
 49
0.375
 74
     0
 49
-0.875
 74
     0
  0
LTYPE
  5
1FA5
330
17A7
100
AcDbSymbolTableRecord
100
AcDbLinetypeTableRecord
  2
AM_DIN_F_W050x2
 70
     0
  3
 _ _ _ _ _ _ _ _ _ _ _ _
 72
    65
 73
     2
 40
3.125
 49
2.25
 74
     0
 49
-0.875
 74
     0
  0
LTYPE
  5
1FB4
330
17A7
100
AcDbSymbolTableRecord
100
AcDbLinetypeTableRecord
  2
ACDINWELD
 70
     0
  3
_ _ _ _ _
 72
    65
 73
     2
 40
2.0
 49
2.0
 74
     0
 49
-1.0
 74
     0
  0
LTYPE
  5
1FB5
330
17A7
100
AcDbSymbolTableRecord
100
AcDbLinetypeTableRecord
  2
ACDINTGB
 70
     0
  3
__ . . __ . .
 72
    65
 73
     6
 40
9.0
 49
4.0
 74
     0
 49
-1.0
 74
     0
 49
1.0
 74
     0
 49
-1.0
 74
     0
 49
1.0
 74
     0
 49
-1.0
 74
     0
  0
LTYPE
  5
1FB6
330
17A7
100
AcDbSymbolTableRecord
100
AcDbLinetypeTableRecord
  2
ACDINTGL
 70
     0
  3
_ _ _ _ _
 72
    65
 73
     2
 40
3.0
 49
2.0
 74
     0
 49
-1.0
 74
     0
  0
ENDTAB
  0
TABLE
  2
LAYER
  5
17A4
330
0
100
AcDbSymbolTable
 70
    11
  0
LAYER
  5
17B0
330
17A4
100
AcDbSymbolTableRecord
100
AcDbLayerTableRecord
  2
0
 70
     0
 62
     7
  6
CONTINUOUS
370
    -3
390
1F26
  0
LAYER
  5
17CB
330
17A4
100
AcDbSymbolTableRecord
100
AcDbLayerTableRecord
  2
4
 70
     0
 62
     3
  6
CONTINUOUS
370
    -3
390
1F26
  0
LAYER
  5
17CF
330
17A4
100
AcDbSymbolTableRecord
100
AcDbLayerTableRecord
  2
7
 70
     0
 62
     4
  6
GEN7
370
    -3
390
1F26
  0
LAYER
  5
17D0
330
17A4
100
AcDbSymbolTableRecord
100
AcDbLayerTableRecord
  2
8
 70
     0
 62
     1
  6
CONTINUOUS
370
    -3
390
1F26
  0
LAYER
  5
17D3
330
17A4
100
AcDbSymbolTableRecord
100
AcDbLayerTableRecord
  2
SCHRAFFUR_RAND
 70
     0
 62
    36
  6
CONTINUOUS
370
    -3
390
1F26
  0
LAYER
  5
1C84
330
17A4
100
AcDbSymbolTableRecord
100
AcDbLayerTableRecord
  2
5
 70
     0
 62
     3
  6
CONTINUOUS
370
    -3
390
1F26
  0
LAYER
  5
1C96
330
17A4
100
AcDbSymbolTableRecord
100
AcDbLayerTableRecord
  2
DEFPOINTS
 70
     0
 62
     7
  6
CONTINUOUS
290
     0
370
    -3
390
1F26
  0
ENDTAB
  0
TABLE
  2
STYLE
  5
17A5
330
0
100
AcDbSymbolTable
 70
     4
  0
STYLE
  5
17B1
330
17A5
100
AcDbSymbolTableRecord
100
AcDbTextStyleTableRecord
  2
STANDARD
 70
     0
 40
0.0
 41
1.0
 50
0.0
 71
     0
 42
3.5
  3
ISOCP.SHX
  4

  0
STYLE
  5
1F9F
330
17A5
100
AcDbSymbolTableRecord
100
AcDbTextStyleTableRecord
  2

 70
     1
 40
0.0
 41
1.0
 50
0.0
 71
     0
 42
0.2
  3
genltshp.shx
  4

  0
STYLE
  5
1FA6
330
17A5
100
AcDbSymbolTableRecord
100
AcDbTextStyleTableRecord
  2
ACDINTS
 70
     0
 40
1.0
 41
1.0
 50
0.0
 71
     0
 42
0.2
  3
isocp.shx
  4

  0
STYLE
  5
1FB3
330
17A5
100
AcDbSymbolTableRecord
100
AcDbTextStyleTableRecord
  2
ACDINGDT
 70
     0
 40
0.0
 41
1.0
 50
0.0
 71
     0
 42
0.2
  3
AMGDT
  4

  0
ENDTAB
  0
TABLE
  2
VIEW
  5
17A8
330
0
100
AcDbSymbolTable
 70
     6
  0
VIEW
  5
1C76
330
17A8
100
AcDbSymbolTableRecord
100
AcDbViewTableRecord
  2
GEN1
 70
     0
 40
525.0
 10
403.491903
 20
787.5
 41
806.983806
 11
0.0
 21
0.0
 31
1.0
 12
0.0
 22
0.0
 32
0.0
 42
50.0
 43
0.0
 44
0.0
 50
0.0
 71
     0
281
     0
 72
     0
  0
VIEW
  5
1C77
330
17A8
100
AcDbSymbolTableRecord
100
AcDbViewTableRecord
  2
GEN2
 70
     0
 40
525.0
 10
646.508097
 20
787.5
 41
806.983806
 11
0.0
 21
0.0
 31
1.0
 12
0.0
 22
0.0
 32
0.0
 42
50.0
 43
0.0
 44
0.0
 50
0.0
 71
     0
281
     0
 72
     0
  0
VIEW
  5
1C78
330
17A8
100
AcDbSymbolTableRecord
100
AcDbViewTableRecord
  2
GEN3
 70
     0
 40
525.0
 10
403.491903
 20
262.5
 41
806.983806
 11
0.0
 21
0.0
 31
1.0
 12
0.0
 22
0.0
 32
0.0
 42
50.0
 43
0.0
 44
0.0
 50
0.0
 71
     0
281
     0
 72
     0
  0
VIEW
  5
1C79
330
17A8
100
AcDbSymbolTableRecord
100
AcDbViewTableRecord
  2
GEN4
 70
     0
 40
525.0
 10
646.508097
 20
262.5
 41
806.983806
 11
0.0
 21
0.0
 31
1.0
 12
0.0
 22
0.0
 32
0.0
 42
50.0
 43
0.0
 44
0.0
 50
0.0
 71
     0
281
     0
 72
     0
  0
VIEW
  5
1C7A
330
17A8
100
AcDbSymbolTableRecord
100
AcDbViewTableRecord
  2
GEN5
 70
     0
 40
525.0
 10
525.0
 20
525.0
 41
806.983806
 11
0.0
 21
0.0
 31
1.0
 12
0.0
 22
0.0
 32
0.0
 42
50.0
 43
0.0
 44
0.0
 50
0.0
 71
     0
281
     0
 72
     0
  0
VIEW
  5
1C7B
330
17A8
100
AcDbSymbolTableRecord
100
AcDbViewTableRecord
  2
GEN6
 70
     0
 40
1049.9895
 10
525.0
 20
525.0
 41
1613.951472
 11
0.0
 21
0.0
 31
1.0
 12
0.0
 22
0.0
 32
0.0
 42
50.0
 43
0.0
 44
0.0
 50
0.0
 71
     0
281
     0
 72
     0
  0
ENDTAB
  0
TABLE
  2
UCS
  5
17A9
330
0
100
AcDbSymbolTable
 70
     0
  0
ENDTAB
  0
TABLE
  2
APPID
  5
17AB
330
0
100
AcDbSymbolTable
 70
    40
  0
APPID
  5
17B2
330
17AB
100
AcDbSymbolTableRecord
100
AcDbRegAppTableRecord
  2
ACAD
 70
     0
  0
APPID
  5
181C
330
17AB
100
AcDbSymbolTableRecord
100
AcDbRegAppTableRecord
  2
GEV_VCCNULL_SWITCH_OFF
 70
     0
  0
APPID
  5
181E
330
17AB
100
AcDbSymbolTableRecord
100
AcDbRegAppTableRecord
  2
GENIUS_GENOENT_13
 70
     0
  0
APPID
  5
181F
330
17AB
100
AcDbSymbolTableRecord
100
AcDbRegAppTableRecord
  2
GENIUS_GENCFG_13
 70
     0
1001
GENIUS_GENCFG0_13
1000
GEN@INFO_POS@XLATE
1001
GENIUS_GENCFG1_13
1000
GEN@INFO_POS
1001
GENIUS_GENCFG2_13
1000
GEN@LAYER@DEFS
1001
GENIUS_GENCFG3_13
1000
GEN@LAYER@ENTSORT
1001
GENIUS_GENCFG4_13
1000
GEN
1001
GENIUS_GEVCFG0_13
1000
GEV
1001
GENIUS_GEFCFG0_13
1000
GEF
1001
GENIUS_DUMCFG0_13
1000
DUM
  0
APPID
  5
1820
330
17AB
100
AcDbSymbolTableRecord
100
AcDbRegAppTableRecord
  2
GENIUS_DUMCFG0_13
 70
     0
1001
GENIUS_GENCFG_13
1071
922259459
1000
1820
1000
DUM
1070
     0
  0
APPID
  5
1821
330
17AB
100
AcDbSymbolTableRecord
100
AcDbRegAppTableRecord
  2
GENIUS_GEFCFG0_13
 70
     0
1001
GENIUS_GENCFG_13
1071
922197029
1000
1821
1000
GEF
1070
     5
1000
GenCfgObject
1000
GenCfgString
1000
GenCfgReal
1000
GenCfgShort
1000
GenCfgBool
1000
System
1070
     0
1002
{
1002
}
1000
Prese
1070
     0
1002
{
1000
Funk
1070
     1
1000

1002
{
1002
}
1000
FunkDef
1070
     1
1000

1002
{
1002
}
1000
GefIso
1070
     1
1000
DIN
1002
{
1002
}
1002
}
1000
FEM
1070
     0
1002
{
1000
LayGroup
1070
     1
1000
FEM
1002
{
1002
}
1000
IncrCoef
1070
     2
1040
0.0
1002
{
1002
}
1002
}
1000
Shaft
1070
     0
1002
{
1000
Interrupt
1070
     3
1070
     0
1002
{
1002
}
1002
}
1000
PartDb
1070
     0
1002
{
1000
PartCreate
1070
     0
1002
{
1002
}
1000
SCP
1070
     0
1002
{
1002
}
1000
Symbol
1070
     0
1002
{
1002
}
1002
}
1000
Symbol
1070
     0
1002
{
1000
WeldStyle
1070
     1
1000
ISO
1002
{
1002
}
1000
WeldSize
1070
     2
1040
1.0
1002
{
1002
}
1000
WeldFlag
1070
     4
1070
     1
1002
{
1002
}
1000
WeldOffset
1070
     4
1070
     1
1002
{
1002
}
1000
TolCType
1070
     1
1000
ISO
1002
{
1002
}
1000
TolCSize
1070
     2
1040
1.0
1002
{
1002
}
1000
STextureSize
1070
     2
1040
1.0
1002
{
1002
}
1000
SurfaceType
1070
     1
1000

1002
{
1002
}
1000
M
1070
     0
1002
{
1000
WeldWidth
1070
     2
1040
3.0
1002
{
1002
}
1002
}
1000
I
1070
     0
1002
{
1000
WeldWidth
1070
     2
1040
0.125
1002
{
1002
}
1002
}
1002
}
  0
APPID
  5
1822
330
17AB
100
AcDbSymbolTableRecord
100
AcDbRegAppTableRecord
  2
GENIUS_GENCFG0_13
 70
     0
1001
GENIUS_GENCFG_13
1071
1043072713
1000
1822
1000
GEN@INFO_POS@XLATE
1070
     8
1000
GenCfgObject
1000
GenCfgShort
1000
GenCfgReal
1000
GenCfgBool
1000
GenCfgString
1000
GenCfgDim
1000
GenCfgPoint
1000
GenCfgAttrInf
1000
INFOPOINTS
1070
     0
1002
{
1000
GENINF14
1070
     0
1002
{
1000
2GENINF
1070
     4
1000
2
1002
{
1002
}
1000
5GENINF
1070
     4
1000
5
1002
{
1002
}
1000
7GENINF
1070
     4
1000
7
1002
{
1002
}
1000
9GENINF
1070
     4
1000
9
1002
{
1002
}
1000
11GENINF
1070
     4
1000
11
1002
{
1002
}
1000
14GENINF
1070
     4
1000
14
1002
{
1002
}
1002
}
1000
GENINF13
1070
     0
1002
{
1000
2GENINF
1070
     4
1000
2
1002
{
1002
}
1000
3GENINF
1070
     4
1000
3
1002
{
1002
}
1000
4GENINF
1070
     4
1000
4
1002
{
1002
}
1000
5GENINF
1070
     4
1000
5
1002
{
1002
}
1000
6GENINF
1070
     4
1000
6
1002
{
1002
}
1000
7GENINF
1070
     4
1000
7
1002
{
1002
}
1000
8GENINF
1070
     4
1000
8
1002
{
1002
}
1000
9GENINF
1070
     4
1000
9
1002
{
1002
}
1000
10GENINF
1070
     4
1000
10
1002
{
1002
}
1000
11GENINF
1070
     4
1000
11
1002
{
1002
}
1000
12GENINF
1070
     4
1000
12
1002
{
1002
}
1000
13GENINF
1070
     4
1000
13
1002
{
1002
}
1000
14GENINF
1070
     4
1000
14
1002
{
1002
}
1000
15GENINF
1070
     4
1000
15
1002
{
1002
}
1000
16GENINF
1070
     4
1000
16
1002
{
1002
}
1000
17GENINF
1070
     4
1000
17
1002
{
1002
}
1000
18GENINF
1070
     4
1000
18
1002
{
1002
}
1000
19GENINF
1070
     4
1000
19
1002
{
1002
}
1000
20GENINF
1070
     4
1000
20
1002
{
1002
}
1000
21GENINF
1070
     4
1000
21
1002
{
1002
}
1000
22GENINF
1070
     4
1000
22
1002
{
1002
}
1000
23GENINF
1070
     4
1000
23
1002
{
1002
}
1000
24GENINF
1070
     4
1000
24
1002
{
1002
}
1000
0GENINF
1070
     4
1000
0
1002
{
1002
}
1002
}
1000
GENINFO
1070
     0
1002
{
1000
3GENINF
1070
     4
1000
3
1002
{
1002
}
1000
4GENINF
1070
     4
1000
4
1002
{
1002
}
1000
5GENINF
1070
     4
1000
5
1002
{
1002
}
1000
6GENINF
1070
     4
1000
6
1002
{
1002
}
1000
7GENINF
1070
     4
1000
7
1002
{
1002
}
1000
8GENINF
1070
     4
1000
8
1002
{
1002
}
1000
9GENINF
1070
     4
1000
9
1002
{
1002
}
1000
10GENINF
1070
     4
1000
10
1002
{
1002
}
1000
11GENINF
1070
     4
1000
11
1002
{
1002
}
1000
12GENINF
1070
     4
1000
12
1002
{
1002
}
1000
13GENINF
1070
     4
1000
13
1002
{
1002
}
1000
14GENINF
1070
     4
1000
14
1002
{
1002
}
1000
15GENINF
1070
     4
1000
15
1002
{
1002
}
1000
16GENINF
1070
     4
1000
16
1002
{
1002
}
1000
17GENINF
1070
     4
1000
17
1002
{
1002
}
1000
18GENINF
1070
     4
1000
18
1002
{
1002
}
1000
19GENINF
1070
     4
1000
19
1002
{
1002
}
1000
20GENINF
1070
     4
1000
20
1002
{
1002
}
1000
21GENINF
1070
     4
1000
21
1002
{
1002
}
1000
22GENINF
1070
     4
1000
22
1002
{
1002
}
1002
}
1000
DININFO
1070
     0
1002
{
1000
ST-NAME1
1070
     4
1000
5
1002
{
1002
}
1000
ST-NAME2
1070
     4
1000
6
1002
{
1002
}
1000
ST-NORM1
1070
     4
1000
7
1002
{
1002
}
1000
ST-NORM2
1070
     4
1000
8
1002
{
1002
}
1000
ST-MAT1
1070
     4
1000
9
1002
{
1002
}
1000
ST-MAT2
1070
     4
1000
10
1002
{
1002
}
1002
}
1002
}
1000
POS_NUMBERS
1070
     0
1002
{
1000
GENPOS14
1070
     0
1002
{
1000
1GENPOS
1070
     4
1000
1
1002
{
1002
}
1000
2GENPOS
1070
     4
1000
2
1002
{
1002
}
1000
5GENPOS
1070
     4
1000
5
1002
{
1002
}
1000
7GENPOS
1070
     4
1000
7
1002
{
1002
}
1000
9GENPOS
1070
     4
1000
9
1002
{
1002
}
1000
11GENPOS
1070
     4
1000
11
1002
{
1002
}
1000
14GENPOS
1070
     4
1000
14
1002
{
1002
}
1002
}
1000
GENPOS13
1070
     0
1002
{
1000
1GENPOS
1070
     4
1000
1
1002
{
1002
}
1000
2GENPOS
1070
     4
1000
2
1002
{
1002
}
1000
3GENPOS
1070
     4
1000
3
1002
{
1002
}
1000
4GENPOS
1070
     4
1000
4
1002
{
1002
}
1000
5GENPOS
1070
     4
1000
5
1002
{
1002
}
1000
6GENPOS
1070
     4
1000
6
1002
{
1002
}
1000
7GENPOS
1070
     4
1000
7
1002
{
1002
}
1000
8GENPOS
1070
     4
1000
8
1002
{
1002
}
1000
9GENPOS
1070
     4
1000
9
1002
{
1002
}
1000
10GENPOS
1070
     4
1000
10
1002
{
1002
}
1000
11GENPOS
1070
     4
1000
11
1002
{
1002
}
1000
12GENPOS
1070
     4
1000
12
1002
{
1002
}
1000
13GENPOS
1070
     4
1000
13
1002
{
1002
}
1000
14GENPOS
1070
     4
1000
14
1002
{
1002
}
1000
15GENPOS
1070
     4
1000
15
1002
{
1002
}
1000
16GENPOS
1070
     4
1000
16
1002
{
1002
}
1000
17GENPOS
1070
     4
1000
17
1002
{
1002
}
1000
18GENPOS
1070
     4
1000
18
1002
{
1002
}
1000
19GENPOS
1070
     4
1000
19
1002
{
1002
}
1000
20GENPOS
1070
     4
1000
20
1002
{
1002
}
1000
21GENPOS
1070
     4
1000
21
1002
{
1002
}
1000
22GENPOS
1070
     4
1000
22
1002
{
1002
}
1000
23GENPOS
1070
     4
1000
23
1002
{
1002
}
1000
24GENPOS
1070
     4
1000
24
1002
{
1002
}
1000
0GENPOS
1070
     4
1000
0
1002
{
1002
}
1002
}
1000
GENPOS
1070
     0
1002
{
1000
1GENPOS
1070
     4
1000
1
1002
{
1002
}
1000
2GENPOS
1070
     4
1000
2
1002
{
1002
}
1000
3GENPOS
1070
     4
1000
3
1002
{
1002
}
1000
4GENPOS
1070
     4
1000
4
1002
{
1002
}
1000
5GENPOS
1070
     4
1000
5
1002
{
1002
}
1000
6GENPOS
1070
     4
1000
6
1002
{
1002
}
1000
7GENPOS
1070
     4
1000
7
1002
{
1002
}
1000
8GENPOS
1070
     4
1000
8
1002
{
1002
}
1000
9GENPOS
1070
     4
1000
9
1002
{
1002
}
1000
10GENPOS
1070
     4
1000
10
1002
{
1002
}
1000
11GENPOS
1070
     4
1000
11
1002
{
1002
}
1000
12GENPOS
1070
     4
1000
12
1002
{
1002
}
1000
13GENPOS
1070
     4
1000
13
1002
{
1002
}
1000
14GENPOS
1070
     4
1000
14
1002
{
1002
}
1000
15GENPOS
1070
     4
1000
15
1002
{
1002
}
1000
16GENPOS
1070
     4
1000
16
1002
{
1002
}
1000
17GENPOS
1070
     4
1000
17
1002
{
1002
}
1000
18GENPOS
1070
     4
1000
18
1002
{
1002
}
1000
19GENPOS
1070
     4
1000
19
1002
{
1002
}
1000
20GENPOS
1070
     4
1000
20
1002
{
1002
}
1000
21GENPOS
1070
     4
1000
21
1002
{
1002
}
1000
22GENPOS
1070
     4
1000
22
1002
{
1002
}
1000
23GENPOS
1070
     4
1000
23
1002
{
1002
}
1002
}
1000
DIN985
1070
     0
1002
{
1000
POSITION
1070
     4
1000
1
1002
{
1002
}
1000
MENGE
1070
     4
1000
2
1002
{
1002
}
1000
BLATT
1070
     4
1000
3
1002
{
1002
}
1000
BENENN
1070
     4
1000
5
1002
{
1002
}
1000
BENENN2
1070
     4
1000
6
1002
{
1002
}
1000
NORM
1070
     4
1000
7
1002
{
1002
}
1000
NORM2
1070
     4
1000
8
1002
{
1002
}
1000
WERKSTOFF
1070
     4
1000
9
1002
{
1002
}
1000
WERKSTOFF2
1070
     4
1000
10
1002
{
1002
}
1002
}
1000
DIN986
1070
     0
1002
{
1000
POSITION
1070
     4
1000
1
1002
{
1002
}
1000
MENGE
1070
     4
1000
2
1002
{
1002
}
1000
BLATT
1070
     4
1000
3
1002
{
1002
}
1000
BENENN
1070
     4
1000
5
1002
{
1002
}
1000
BENENN2
1070
     4
1000
6
1002
{
1002
}
1000
NORM
1070
     4
1000
7
1002
{
1002
}
1000
NORM2
1070
     4
1000
8
1002
{
1002
}
1000
WERKSTOFF
1070
     4
1000
9
1002
{
1002
}
1000
WERKSTOFF2
1070
     4
1000
10
1002
{
1002
}
1002
}
1000
DIN987
1070
     0
1002
{
1000
POSITION
1070
     4
1000
1
1002
{
1002
}
1000
MENGE
1070
     4
1000
2
1002
{
1002
}
1000
BLATT
1070
     4
1000
3
1002
{
1002
}
1000
BENENN
1070
     4
1000
5
1002
{
1002
}
1000
BENENN2
1070
     4
1000
6
1002
{
1002
}
1000
NORM
1070
     4
1000
7
1002
{
1002
}
1000
NORM2
1070
     4
1000
8
1002
{
1002
}
1000
WERKSTOFF
1070
     4
1000
9
1002
{
1002
}
1000
WERKSTOFF2
1070
     4
1000
10
1002
{
1002
}
1002
}
1002
}
  0
APPID
  5
1823
330
17AB
100
AcDbSymbolTableRecord
100
AcDbRegAppTableRecord
  2
GENIUS_GENCFG1_13
 70
     0
1001
GENIUS_GENCFG_13
1071
1043072713
1000
1823
1000
GEN@INFO_POS
1070
     8
1000
GenCfgObject
1000
GenCfgShort
1000
GenCfgReal
1000
GenCfgBool
1000
GenCfgString
1000
GenCfgDim
1000
GenCfgPoint
1000
GenCfgAttrInf
1000
DescrText
1070
     4
1000
5, ,6, ,7, ,8
1002
{
1002
}
1000
DescrText2
1070
     4
1000
26
1002
{
1002
}
1000
VisibleAttr1
1070
     4
1000
1
1002
{
1002
}
1000
VisibleAttr2
1070
     4
1000
26
1002
{
1002
}
1000
UpdateBlock
1070
     3
1070
     1
1002
{
1002
}
1000
Attrib
1070
     0
1002
{
1000
0
1070
     7
1002
{
1000
Prompt
1070
     4
1000
(genmsg gendwg 103)
1002
{
1002
}
1000
Value
1070
     4
1000

1002
{
1002
}
1000
EditFlag
1070
     1
1070
     0
1002
{
1002
}
1000
PosInDDATTE
1070
     1
1070
    27
1002
{
1002
}
1000
FieldLen
1070
     1
1070
    -1
1002
{
1002
}
1002
}
1000
1
1070
     7
1002
{
1000
Prompt
1070
     4
1000
(genmsg gendwg 31)
1002
{
1002
}
1000
Value
1070
     4
1000
1
1002
{
1002
}
1000
EditFlag
1070
     1
1070
     1
1002
{
1002
}
1000
PosInDDATTE
1070
     1
1070
     1
1002
{
1002
}
1000
FieldLen
1070
     1
1070
    -1
1002
{
1002
}
1002
}
1000
2
1070
     7
1002
{
1000
Prompt
1070
     4
1000
(genmsg gendwg 32)
1002
{
1002
}
1000
Value
1070
     4
1000
1
1002
{
1002
}
1000
EditFlag
1070
     1
1070
     1
1002
{
1002
}
1000
PosInDDATTE
1070
     1
1070
     2
1002
{
1002
}
1000
FieldLen
1070
     1
1070
    -1
1002
{
1002
}
1002
}
1000
3
1070
     7
1002
{
1000
Prompt
1070
     4
1000
(genmsg gendwg 33)
1002
{
1002
}
1000
Value
1070
     4
1000

1002
{
1002
}
1000
EditFlag
1070
     1
1070
     1
1002
{
1002
}
1000
PosInDDATTE
1070
     1
1070
     3
1002
{
1002
}
1000
FieldLen
1070
     1
1070
    -1
1002
{
1002
}
1002
}
1000
4
1070
     7
1002
{
1000
Prompt
1070
     4
1000
(genmsg gendwg 34)
1002
{
1002
}
1000
Value
1070
     4
1000

1002
{
1002
}
1000
EditFlag
1070
     1
1070
     1
1002
{
1002
}
1000
PosInDDATTE
1070
     1
1070
     4
1002
{
1002
}
1000
FieldLen
1070
     1
1070
    -1
1002
{
1002
}
1002
}
1000
5
1070
     7
1002
{
1000
Prompt
1070
     4
1000
(genmsg gendwg 35)
1002
{
1002
}
1000
Value
1070
     4
1000

1002
{
1002
}
1000
EditFlag
1070
     1
1070
     1
1002
{
1002
}
1000
PosInDDATTE
1070
     1
1070
     5
1002
{
1002
}
1000
FieldLen
1070
     1
1070
    -1
1002
{
1002
}
1002
}
1000
6
1070
     7
1002
{
1000
Prompt
1070
     4
1000
(genmsg gendwg 36)
1002
{
1002
}
1000
Value
1070
     4
1000

1002
{
1002
}
1000
EditFlag
1070
     1
1070
     1
1002
{
1002
}
1000
PosInDDATTE
1070
     1
1070
     6
1002
{
1002
}
1000
FieldLen
1070
     1
1070
    -1
1002
{
1002
}
1002
}
1000
7
1070
     7
1002
{
1000
Prompt
1070
     4
1000
(genmsg gendwg 37)
1002
{
1002
}
1000
Value
1070
     4
1000

1002
{
1002
}
1000
EditFlag
1070
     1
1070
     1
1002
{
1002
}
1000
PosInDDATTE
1070
     1
1070
     7
1002
{
1002
}
1000
FieldLen
1070
     1
1070
    -1
1002
{
1002
}
1002
}
1000
8
1070
     7
1002
{
1000
Prompt
1070
     4
1000
(genmsg gendwg 38)
1002
{
1002
}
1000
Value
1070
     4
1000

1002
{
1002
}
1000
EditFlag
1070
     1
1070
     1
1002
{
1002
}
1000
PosInDDATTE
1070
     1
1070
     8
1002
{
1002
}
1000
FieldLen
1070
     1
1070
    -1
1002
{
1002
}
1002
}
1000
9
1070
     7
1002
{
1000
Prompt
1070
     4
1000
(genmsg gendwg 39)
1002
{
1002
}
1000
Value
1070
     4
1000

1002
{
1002
}
1000
EditFlag
1070
     1
1070
     1
1002
{
1002
}
1000
PosInDDATTE
1070
     1
1070
     9
1002
{
1002
}
1000
FieldLen
1070
     1
1070
    -1
1002
{
1002
}
1002
}
1000
10
1070
     7
1002
{
1000
Prompt
1070
     4
1000
(genmsg gendwg 40)
1002
{
1002
}
1000
Value
1070
     4
1000

1002
{
1002
}
1000
EditFlag
1070
     1
1070
     1
1002
{
1002
}
1000
PosInDDATTE
1070
     1
1070
    10
1002
{
1002
}
1000
FieldLen
1070
     1
1070
    -1
1002
{
1002
}
1002
}
1000
11
1070
     7
1002
{
1000
Prompt
1070
     4
1000
(genmsg gendwg 41)
1002
{
1002
}
1000
Value
1070
     4
1000

1002
{
1002
}
1000
EditFlag
1070
     1
1070
     1
1002
{
1002
}
1000
PosInDDATTE
1070
     1
1070
    11
1002
{
1002
}
1000
FieldLen
1070
     1
1070
    -1
1002
{
1002
}
1002
}
1000
12
1070
     7
1002
{
1000
Prompt
1070
     4
1000
(genmsg gendwg 42)
1002
{
1002
}
1000
Value
1070
     4
1000

1002
{
1002
}
1000
EditFlag
1070
     1
1070
     1
1002
{
1002
}
1000
PosInDDATTE
1070
     1
1070
    12
1002
{
1002
}
1000
FieldLen
1070
     1
1070
    -1
1002
{
1002
}
1002
}
1000
13
1070
     7
1002
{
1000
Prompt
1070
     4
1000
(genmsg gendwg 43)
1002
{
1002
}
1000
Value
1070
     4
1000

1002
{
1002
}
1000
EditFlag
1070
     1
1070
     1
1002
{
1002
}
1000
PosInDDATTE
1070
     1
1070
    13
1002
{
1002
}
1000
FieldLen
1070
     1
1070
    -1
1002
{
1002
}
1002
}
1000
14
1070
     7
1002
{
1000
Prompt
1070
     4
1000
(genmsg gendwg 44)
1002
{
1002
}
1000
Value
1070
     4
1000

1002
{
1002
}
1000
EditFlag
1070
     1
1070
     1
1002
{
1002
}
1000
PosInDDATTE
1070
     1
1070
    14
1002
{
1002
}
1000
FieldLen
1070
     1
1070
    -1
1002
{
1002
}
1002
}
1000
15
1070
     7
1002
{
1000
Prompt
1070
     4
1000
(genmsg gendwg 45)
1002
{
1002
}
1000
Value
1070
     4
1000

1002
{
1002
}
1000
EditFlag
1070
     1
1070
     1
1002
{
1002
}
1000
PosInDDATTE
1070
     1
1070
    15
1002
{
1002
}
1000
FieldLen
1070
     1
1070
    -1
1002
{
1002
}
1002
}
1000
16
1070
     7
1002
{
1000
Prompt
1070
     4
1000
(genmsg gendwg 46)
1002
{
1002
}
1000
Value
1070
     4
1000

1002
{
1002
}
1000
EditFlag
1070
     1
1070
     1
1002
{
1002
}
1000
PosInDDATTE
1070
     1
1070
    16
1002
{
1002
}
1000
FieldLen
1070
     1
1070
    -1
1002
{
1002
}
1002
}
1000
17
1070
     7
1002
{
1000
Prompt
1070
     4
1000
(genmsg gendwg 47)
1002
{
1002
}
1000
Value
1070
     4
1000

1002
{
1002
}
1000
EditFlag
1070
     1
1070
     1
1002
{
1002
}
1000
PosInDDATTE
1070
     1
1070
    17
1002
{
1002
}
1000
FieldLen
1070
     1
1070
    -1
1002
{
1002
}
1002
}
1000
18
1070
     7
1002
{
1000
Prompt
1070
     4
1000
(genmsg gendwg 48)
1002
{
1002
}
1000
Value
1070
     4
1000

1002
{
1002
}
1000
EditFlag
1070
     1
1070
     1
1002
{
1002
}
1000
PosInDDATTE
1070
     1
1070
    18
1002
{
1002
}
1000
FieldLen
1070
     1
1070
    -1
1002
{
1002
}
1002
}
1000
19
1070
     7
1002
{
1000
Prompt
1070
     4
1000
(genmsg gendwg 99)
1002
{
1002
}
1000
Value
1070
     4
1000

1002
{
1002
}
1000
EditFlag
1070
     1
1070
     1
1002
{
1002
}
1000
PosInDDATTE
1070
     1
1070
    19
1002
{
1002
}
1000
FieldLen
1070
     1
1070
    -1
1002
{
1002
}
1002
}
1000
20
1070
     7
1002
{
1000
Prompt
1070
     4
1000
(genmsg gendwg 100)
1002
{
1002
}
1000
Value
1070
     4
1000

1002
{
1002
}
1000
EditFlag
1070
     1
1070
     1
1002
{
1002
}
1000
PosInDDATTE
1070
     1
1070
    20
1002
{
1002
}
1000
FieldLen
1070
     1
1070
    -1
1002
{
1002
}
1002
}
1000
21
1070
     7
1002
{
1000
Prompt
1070
     4
1000
(genmsg gendwg 101)
1002
{
1002
}
1000
Value
1070
     4
1000

1002
{
1002
}
1000
EditFlag
1070
     1
1070
     1
1002
{
1002
}
1000
PosInDDATTE
1070
     1
1070
    21
1002
{
1002
}
1000
FieldLen
1070
     1
1070
    -1
1002
{
1002
}
1002
}
1000
22
1070
     7
1002
{
1000
Prompt
1070
     4
1000
(genmsg gendwg 102)
1002
{
1002
}
1000
Value
1070
     4
1000

1002
{
1002
}
1000
EditFlag
1070
     1
1070
     1
1002
{
1002
}
1000
PosInDDATTE
1070
     1
1070
    22
1002
{
1002
}
1000
FieldLen
1070
     1
1070
    -1
1002
{
1002
}
1002
}
1000
23
1070
     7
1002
{
1000
Prompt
1070
     4
1000
(genmsg gendwg 30)
1002
{
1002
}
1000
Value
1070
     4
1000

1002
{
1002
}
1000
EditFlag
1070
     1
1070
     1
1002
{
1002
}
1000
PosInDDATTE
1070
     1
1070
    23
1002
{
1002
}
1000
FieldLen
1070
     1
1070
    -1
1002
{
1002
}
1002
}
1000
24
1070
     7
1002
{
1000
Prompt
1070
     4
1000
(genmsg gendwg 104)
1002
{
1002
}
1000
Value
1070
     4
1000

1002
{
1002
}
1000
EditFlag
1070
     1
1070
     1
1002
{
1002
}
1000
PosInDDATTE
1070
     1
1070
    24
1002
{
1002
}
1000
FieldLen
1070
     1
1070
    -1
1002
{
1002
}
1002
}
1000
25
1070
     7
1002
{
1000
Prompt
1070
     4
1000
(genmsg gendwg 105)
1002
{
1002
}
1000
Value
1070
     4
1000

1002
{
1002
}
1000
EditFlag
1070
     1
1070
     1
1002
{
1002
}
1000
PosInDDATTE
1070
     1
1070
    25
1002
{
1002
}
1000
FieldLen
1070
     1
1070
    -1
1002
{
1002
}
1002
}
1000
26
1070
     7
1002
{
1000
Prompt
1070
     4
1000
(genmsg gendwg 106)
1002
{
1002
}
1000
Value
1070
     4
1000

1002
{
1002
}
1000
EditFlag
1070
     1
1070
     1
1002
{
1002
}
1000
PosInDDATTE
1070
     1
1070
    26
1002
{
1002
}
1000
FieldLen
1070
     1
1070
    -1
1002
{
1002
}
1002
}
1000
27
1070
     7
1002
{
1000
Prompt
1070
     4
1000
(genmsg gendwg 109)
1002
{
1002
}
1000
Value
1070
     4
1000

1002
{
1002
}
1000
EditFlag
1070
     1
1070
     2
1002
{
1002
}
1000
PosInDDATTE
1070
     1
1070
    27
1002
{
1002
}
1000
FieldLen
1070
     1
1070
    -1
1002
{
1002
}
1002
}
1002
}
1000
Xlate
1070
     0
1002
{
1000
>
1002
}
  0
APPID
  5
1824
330
17AB
100
AcDbSymbolTableRecord
100
AcDbRegAppTableRecord
  2
GENIUS_GENCFG2_13
 70
     0
1001
GENIUS_GENCFG_13
1071
1043072713
1000
1824
1000
GEN@LAYER@DEFS
1070
    10
1000
GenCfgObject
1000
GenCfgShort
1000
GenCfgReal
1000
GenCfgBool
1000
GenCfgString
1000
GenCfgDim
1000
GenCfgPoint
1000
GenCfgAttrInf
1000
GenCfgLaySection
1000
GenCfgLayer
1000
Basic
1070
     0
1002
{
1000
0
1070
     9
1000
0
1002
{
1000
Color
1070
     1
1070
     7
1002
{
1002
}
1000
LType
1070
     4
1000
CONTINUOUS
1002
{
1002
}
1000
Base
1070
     3
1070
     0
1002
{
1002
}
1002
}
1000
1
1070
     9
1000
1
1002
{
1000
Color
1070
     1
1070
    14
1002
{
1002
}
1000
LType
1070
     4
1000
CONTINUOUS
1002
{
1002
}
1000
Base
1070
     3
1070
     0
1002
{
1002
}
1002
}
1000
2
1070
     9
1000
2
1002
{
1000
Color
1070
     1
1070
     5
1002
{
1002
}
1000
LType
1070
     4
1000
CONTINUOUS
1002
{
1002
}
1000
Base
1070
     3
1070
     0
1002
{
1002
}
1002
}
1000
3
1070
     9
1000
3
1002
{
1000
Color
1070
     1
1070
     6
1002
{
1002
}
1000
LType
1070
     4
1000
GEN3
1002
{
1002
}
1000
Base
1070
     3
1070
     0
1002
{
1002
}
1002
}
1000
4
1070
     9
1000
4
1002
{
1000
Color
1070
     1
1070
     3
1002
{
1002
}
1000
LType
1070
     4
1000
CONTINUOUS
1002
{
1002
}
1000
Base
1070
     3
1070
     0
1002
{
1002
}
1002
}
1000
5
1070
     9
1000
5
1002
{
1000
Color
1070
     1
1070
     3
1002
{
1002
}
1000
LType
1070
     4
1000
CONTINUOUS
1002
{
1002
}
1000
Base
1070
     3
1070
     0
1002
{
1002
}
1002
}
1000
6
1070
     9
1000
6
1002
{
1000
Color
1070
     1
1070
     2
1002
{
1002
}
1000
LType
1070
     4
1000
CONTINUOUS
1002
{
1002
}
1000
Base
1070
     3
1070
     0
1002
{
1002
}
1002
}
1000
7
1070
     9
1000
7
1002
{
1000
Color
1070
     1
1070
     4
1002
{
1002
}
1000
LType
1070
     4
1000
GEN7
1002
{
1002
}
1000
Base
1070
     3
1070
     0
1002
{
1002
}
1002
}
1000
8
1070
     9
1000
8
1002
{
1000
Color
1070
     1
1070
     1
1002
{
1002
}
1000
LType
1070
     4
1000
CONTINUOUS
1002
{
1002
}
1000
Base
1070
     3
1070
     0
1002
{
1002
}
1002
}
1000
3A
1070
     9
1000
3A
1002
{
1000
Color
1070
     1
1070
     6
1002
{
1002
}
1000
LType
1070
     4
1000
GEN3A
1002
{
1002
}
1000
Base
1070
     3
1070
     0
1002
{
1002
}
1002
}
1000
7A
1070
     9
1000
7A
1002
{
1000
Color
1070
     1
1070
     4
1002
{
1002
}
1000
LType
1070
     4
1000
GEN7A
1002
{
1002
}
1000
Base
1070
     3
1070
     0
1002
{
1002
}
1002
}
1000
2A
1070
     9
1000
2A
1002
{
1000
Color
1070
     1
1070
     7
1002
{
1002
}
1000
LType
1070
     4
1000
GEN7
1002
{
1002
}
1000
Base
1070
     3
1070
     0
1002
{
1002
}
1002
}
1000
4A
1070
     9
1000
4A
1002
{
1000
Color
1070
     1
1070
     3
1002
{
1002
}
1000
LType
1070
     4
1000
GEN4A
1002
{
1002
}
1000
Base
1070
     3
1070
     0
1002
{
1002
}
1002
}
1000
9
1070
     9
1000
9
1002
{
1000
Color
1070
     1
1070
   253
1002
{
1002
}
1000
LType
1070
     4
1000
CONTINUOUS
1002
{
1002
}
1000
Base
1070
     3
1070
     0
1002
{
1002
}
1002
}
1000
IP
1070
     9
1000
IP
1002
{
1000
Color
1070
     1
1070
     7
1002
{
1002
}
1000
LType
1070
     4
1000
CONTINUOUS
1002
{
1002
}
1000
Base
1070
     3
1070
     0
1002
{
1002
}
1002
}
1002
}
1000
Standard
1070
     0
1002
{
1000
0N
1070
     9
1000
0N
1002
{
1000
Color
1070
     1
1070
     7
1002
{
1002
}
1000
LType
1070
     4
1000
CONTINUOUS
1002
{
1002
}
1000
Base
1070
     3
1070
     0
1002
{
1002
}
1002
}
1000
1N
1070
     9
1000
1N
1002
{
1000
Color
1070
     1
1070
    14
1002
{
1002
}
1000
LType
1070
     4
1000
CONTINUOUS
1002
{
1002
}
1000
Base
1070
     3
1070
     0
1002
{
1002
}
1002
}
1000
2N
1070
     9
1000
2N
1002
{
1000
Color
1070
     1
1070
     5
1002
{
1002
}
1000
LType
1070
     4
1000
CONTINUOUS
1002
{
1002
}
1000
Base
1070
     3
1070
     0
1002
{
1002
}
1002
}
1000
3N
1070
     9
1000
3N
1002
{
1000
Color
1070
     1
1070
     6
1002
{
1002
}
1000
LType
1070
     4
1000
GEN3
1002
{
1002
}
1000
Base
1070
     3
1070
     0
1002
{
1002
}
1002
}
1000
4N
1070
     9
1000
4N
1002
{
1000
Color
1070
     1
1070
     3
1002
{
1002
}
1000
LType
1070
     4
1000
CONTINUOUS
1002
{
1002
}
1000
Base
1070
     3
1070
     0
1002
{
1002
}
1002
}
1000
5N
1070
     9
1000
5N
1002
{
1000
Color
1070
     1
1070
     3
1002
{
1002
}
1000
LType
1070
     4
1000
CONTINUOUS
1002
{
1002
}
1000
Base
1070
     3
1070
     0
1002
{
1002
}
1002
}
1000
6N
1070
     9
1000
6N
1002
{
1000
Color
1070
     1
1070
     2
1002
{
1002
}
1000
LType
1070
     4
1000
CONTINUOUS
1002
{
1002
}
1000
Base
1070
     3
1070
     0
1002
{
1002
}
1002
}
1000
7N
1070
     9
1000
7N
1002
{
1000
Color
1070
     1
1070
     4
1002
{
1002
}
1000
LType
1070
     4
1000
GEN7
1002
{
1002
}
1000
Base
1070
     3
1070
     0
1002
{
1002
}
1002
}
1000
8N
1070
     9
1000
8N
1002
{
1000
Color
1070
     1
1070
     1
1002
{
1002
}
1000
LType
1070
     4
1000
CONTINUOUS
1002
{
1002
}
1000
Base
1070
     3
1070
     0
1002
{
1002
}
1002
}
1000
3AN
1070
     9
1000
3AN
1002
{
1000
Color
1070
     1
1070
     6
1002
{
1002
}
1000
LType
1070
     4
1000
GEN3A
1002
{
1002
}
1000
Base
1070
     3
1070
     0
1002
{
1002
}
1002
}
1000
7AN
1070
     9
1000
7AN
1002
{
1000
Color
1070
     1
1070
     4
1002
{
1002
}
1000
LType
1070
     4
1000
GEN7A
1002
{
1002
}
1000
Base
1070
     3
1070
     0
1002
{
1002
}
1002
}
1000
2AN
1070
     9
1000
2AN
1002
{
1000
Color
1070
     1
1070
     7
1002
{
1002
}
1000
LType
1070
     4
1000
GEN7
1002
{
1002
}
1000
Base
1070
     3
1070
     0
1002
{
1002
}
1002
}
1000
4AN
1070
     9
1000
4AN
1002
{
1000
Color
1070
     1
1070
     3
1002
{
1002
}
1000
LType
1070
     4
1000
GEN4A
1002
{
1002
}
1000
Base
1070
     3
1070
     0
1002
{
1002
}
1002
}
1000
9N
1070
     9
1000
9N
1002
{
1000
Color
1070
     1
1070
   253
1002
{
1002
}
1000
LType
1070
     4
1000
CONTINUOUS
1002
{
1002
}
1000
Base
1070
     3
1070
     0
1002
{
1002
}
1002
}
1000
IPN
1070
     9
1000
IPN
1002
{
1000
Color
1070
     1
1070
     7
1002
{
1002
}
1000
LType
1070
     4
1000
CONTINUOUS
1002
{
1002
}
1000
Base
1070
     3
1070
     0
1002
{
1002
}
1002
}
1002
}
1000
Extra
1070
     0
1002
{
1000
Klin
1070
     9
1000
KLIN
1002
{
1000
Color
1070
     1
1070
     1
1002
{
1002
}
1000
LType
1070
     4
1000
CONTINUOUS
1002
{
1002
}
1000
Base
1070
     3
1070
     1
1002
{
1002
}
1002
}
1000
Info
1070
     9
1000
INFO
1002
{
1000
Color
1070
     1
1070
     4
1002
{
1002
}
1000
LType
1070
     4
1000
CONTINUOUS
1002
{
1002
}
1000
Base
1070
     3
1070
     1
1002
{
1002
}
1002
}
1000
Rahm2
1070
     9
1000
RAHM2
1002
{
1000
Color
1070
     1
1070
     1
1002
{
1002
}
1000
LType
1070
     4
1000
CONTINUOUS
1002
{
1002
}
1000
Base
1070
     3
1070
     1
1002
{
1002
}
1002
}
1000
Rahm3
1070
     9
1000
RAHM3
1002
{
1000
Color
1070
     1
1070
     2
1002
{
1002
}
1000
LType
1070
     4
1000
CONTINUOUS
1002
{
1002
}
1000
Base
1070
     3
1070
     1
1002
{
1002
}
1002
}
1000
Rahm5
1070
     9
1000
RAHM5
1002
{
1000
Color
1070
     1
1070
     7
1002
{
1002
}
1000
LType
1070
     4
1000
CONTINUOUS
1002
{
1002
}
1000
Base
1070
     3
1070
     1
1002
{
1002
}
1002
}
1000
View
1070
     9
1000
VIEW
1002
{
1000
Color
1070
     1
1070
     1
1002
{
1002
}
1000
LType
1070
     4
1000
CONTINUOUS
1002
{
1002
}
1000
Base
1070
     3
1070
     1
1002
{
1002
}
1002
}
1000
Behind
1070
     9
1000
BEHIND
1002
{
1000
Color
1070
     1
1070
   253
1002
{
1002
}
1000
LType
1070
     4
1000
CONTINUOUS
1002
{
1002
}
1000
Base
1070
     3
1070
     1
1002
{
1002
}
1002
}
1002
}
  0
APPID
  5
1825
330
17AB
100
AcDbSymbolTableRecord
100
AcDbRegAppTableRecord
  2
GENIUS_GENCFG3_13
 70
     0
1001
GENIUS_GENCFG_13
1071
1043072713
1000
1825
1000
GEN@LAYER@ENTSORT
1070
    11
1000
GenCfgObject
1000
GenCfgShort
1000
GenCfgReal
1000
GenCfgBool
1000
GenCfgString
1000
GenCfgDim
1000
GenCfgPoint
1000
GenCfgAttrInf
1000
GenCfgLaySection
1000
GenCfgLayer
1000
GenCfgEntSort
1000
ADDL
1070
    10
1000
5
1002
{
1000
Class
1070
     4
1000
SYM
1002
{
1002
}
1000
Color
1070
     1
1070
     1
1002
{
1002
}
1000
LType
1070
     4
1000
BYLAYER
1002
{
1002
}
1002
}
1000
ALTR
1070
    10
1000
4
1002
{
1000
Class
1070
     4
1000

1002
{
1002
}
1000
Color
1070
     1
1070
     7
1002
{
1002
}
1000
LType
1070
     4
1000
GEN3A
1002
{
1002
}
1002
}
1000
BELI
1070
    10
1000
4
1002
{
1000
Class
1070
     4
1000

1002
{
1002
}
1000
Color
1070
     1
1070
   256
1002
{
1002
}
1000
LType
1070
     4
1000
BYLAYER
1002
{
1002
}
1002
}
1000
BHNV
1070
    10
1000
9
1002
{
1000
Class
1070
     4
1000
INV
1002
{
1002
}
1000
Color
1070
     1
1070
   256
1002
{
1002
}
1000
LType
1070
     4
1000
BYLAYER
1002
{
1002
}
1002
}
1000
BHNVS
1070
    10
1000
BEHIND
1002
{
1000
Class
1070
     4
1000
INV
1002
{
1002
}
1000
Color
1070
     1
1070
   256
1002
{
1002
}
1000
LType
1070
     4
1000
BYLAYER
1002
{
1002
}
1002
}
1000
BLID
1070
    10
1000
4A
1002
{
1000
Class
1070
     4
1000

1002
{
1002
}
1000
Color
1070
     1
1070
   256
1002
{
1002
}
1000
LType
1070
     4
1000
BYLAYER
1002
{
1002
}
1002
}
1000
BOAP
1070
    10
1000
4A
1002
{
1000
Class
1070
     4
1000

1002
{
1002
}
1000
Color
1070
     1
1070
   256
1002
{
1002
}
1000
LType
1070
     4
1000
BYLAYER
1002
{
1002
}
1002
}
1000
BOR2
1070
    10
1000
RAHM2
1002
{
1000
Class
1070
     4
1000
SPZ,SYM
1002
{
1002
}
1000
Color
1070
     1
1070
   256
1002
{
1002
}
1000
LType
1070
     4
1000
BYLAYER
1002
{
1002
}
1002
}
1000
BOR3
1070
    10
1000
RAHM3
1002
{
1000
Class
1070
     4
1000
SPZ,SYM
1002
{
1002
}
1000
Color
1070
     1
1070
   256
1002
{
1002
}
1000
LType
1070
     4
1000
BYLAYER
1002
{
1002
}
1002
}
1000
BOR5
1070
    10
1000
RAHM5
1002
{
1000
Class
1070
     4
1000
SPZ,SYM
1002
{
1002
}
1000
Color
1070
     1
1070
   256
1002
{
1002
}
1000
LType
1070
     4
1000
BYLAYER
1002
{
1002
}
1002
}
1000
BOR7
1070
    10
1000
RAHM5
1002
{
1000
Class
1070
     4
1000
SPZ,SYM
1002
{
1002
}
1000
Color
1070
     1
1070
     7
1002
{
1002
}
1000
LType
1070
     4
1000
CONTINUOUS
1002
{
1002
}
1002
}
1000
BPAP
1070
    10
1000
4A
1002
{
1000
Class
1070
     4
1000

1002
{
1002
}
1000
Color
1070
     1
1070
   256
1002
{
1002
}
1000
LType
1070
     4
1000
BYLAYER
1002
{
1002
}
1002
}
1000
BPEX
1070
    10
1000
4A
1002
{
1000
Class
1070
     4
1000

1002
{
1002
}
1000
Color
1070
     1
1070
   256
1002
{
1002
}
1000
LType
1070
     4
1000
BYLAYER
1002
{
1002
}
1002
}
1000
BTDI
1070
    10
1000
5
1002
{
1000
Class
1070
     4
1000
DIM,SYM
1002
{
1002
}
1000
Color
1070
     1
1070
   256
1002
{
1002
}
1000
LType
1070
     4
1000
BYLAYER
1002
{
1002
}
1002
}
1000
CAL2
1070
    10
1000
4
1002
{
1000
Class
1070
     4
1000
SYM
1002
{
1002
}
1000
Color
1070
     1
1070
   256
1002
{
1002
}
1000
LType
1070
     4
1000
BYLAYER
1002
{
1002
}
1002
}
1000
CAL3
1070
    10
1000
4
1002
{
1000
Class
1070
     4
1000
SYM
1002
{
1002
}
1000
Color
1070
     1
1070
     2
1002
{
1002
}
1000
LType
1070
     4
1000
BYLAYER
1002
{
1002
}
1002
}
1000
CAL5
1070
    10
1000
4
1002
{
1000
Class
1070
     4
1000
SYM
1002
{
1002
}
1000
Color
1070
     1
1070
     7
1002
{
1002
}
1000
LType
1070
     4
1000
BYLAYER
1002
{
1002
}
1002
}
1000
CAL7
1070
    10
1000
4
1002
{
1000
Class
1070
     4
1000
SYM
1002
{
1002
}
1000
Color
1070
     1
1070
     5
1002
{
1002
}
1000
LType
1070
     4
1000
BYLAYER
1002
{
1002
}
1002
}
1000
CENN
1070
    10
1000
7A
1002
{
1000
Class
1070
     4
1000
CEN
1002
{
1002
}
1000
Color
1070
     1
1070
   256
1002
{
1002
}
1000
LType
1070
     4
1000
BYLAYER
1002
{
1002
}
1002
}
1000
CENW
1070
    10
1000
7
1002
{
1000
Class
1070
     4
1000
CEN
1002
{
1002
}
1000
Color
1070
     1
1070
   256
1002
{
1002
}
1000
LType
1070
     4
1000
BYLAYER
1002
{
1002
}
1002
}
1000
CLIN
1070
    10
1000
KLIN
1002
{
1000
Class
1070
     4
1000
SPZ
1002
{
1002
}
1000
Color
1070
     1
1070
   256
1002
{
1002
}
1000
LType
1070
     4
1000
BYLAYER
1002
{
1002
}
1002
}
1000
CON1
1070
    10
1000
0
1002
{
1000
Class
1070
     4
1000
CON,BGD
1002
{
1002
}
1000
Color
1070
     1
1070
   256
1002
{
1002
}
1000
LType
1070
     4
1000
BYLAYER
1002
{
1002
}
1002
}
1000
CON2
1070
    10
1000
1
1002
{
1000
Class
1070
     4
1000
CON,BGD
1002
{
1002
}
1000
Color
1070
     1
1070
   256
1002
{
1002
}
1000
LType
1070
     4
1000
BYLAYER
1002
{
1002
}
1002
}
1000
CON3
1070
    10
1000
2
1002
{
1000
Class
1070
     4
1000
CON,BGD
1002
{
1002
}
1000
Color
1070
     1
1070
   256
1002
{
1002
}
1000
LType
1070
     4
1000
BYLAYER
1002
{
1002
}
1002
}
1000
CON4
1070
    10
1000
2
1002
{
1000
Class
1070
     4
1000
CON,BGD
1002
{
1002
}
1000
Color
1070
     1
1070
   256
1002
{
1002
}
1000
LType
1070
     4
1000
BYLAYER
1002
{
1002
}
1002
}
1000
DERP
1070
    10
1000
4
1002
{
1000
Class
1070
     4
1000

1002
{
1002
}
1000
Color
1070
     1
1070
   256
1002
{
1002
}
1000
LType
1070
     4
1000
BYLAYER
1002
{
1002
}
1002
}
1000
DETA
1070
    10
1000
4
1002
{
1000
Class
1070
     4
1000

1002
{
1002
}
1000
Color
1070
     1
1070
   256
1002
{
1002
}
1000
LType
1070
     4
1000
BYLAYER
1002
{
1002
}
1002
}
1000
DIAG
1070
    10
1000
5
1002
{
1000
Class
1070
     4
1000
SYM
1002
{
1002
}
1000
Color
1070
     1
1070
   256
1002
{
1002
}
1000
LType
1070
     4
1000
BYLAYER
1002
{
1002
}
1002
}
1000
DILI
1070
    10
1000
5
1002
{
1000
Class
1070
     4
1000
DIM,SYM
1002
{
1002
}
1000
Color
1070
     1
1070
   256
1002
{
1002
}
1000
LType
1070
     4
1000
BYLAYER
1002
{
1002
}
1002
}
1000
DITO2
1070
    10
1000
5
1002
{
1000
Class
1070
     4
1000
DIM,SYM
1002
{
1002
}
1000
Color
1070
     1
1070
     3
1002
{
1002
}
1000
LType
1070
     4
1000
BYLAYER
1002
{
1002
}
1002
}
1000
DITO3
1070
    10
1000
5
1002
{
1000
Class
1070
     4
1000
DIM,SYM
1002
{
1002
}
1000
Color
1070
     1
1070
     2
1002
{
1002
}
1000
LType
1070
     4
1000
BYLAYER
1002
{
1002
}
1002
}
1000
DITX
1070
    10
1000
5
1002
{
1000
Class
1070
     4
1000
DIM,SYM
1002
{
1002
}
1000
Color
1070
     1
1070
     2
1002
{
1002
}
1000
LType
1070
     4
1000
CONTINUOUS
1002
{
1002
}
1002
}
1000
DIXL
1070
    10
1000
5
1002
{
1000
Class
1070
     4
1000
DIM,SYM
1002
{
1002
}
1000
Color
1070
     1
1070
   256
1002
{
1002
}
1000
LType
1070
     4
1000
BYLAYER
1002
{
1002
}
1002
}
1000
EXMP
1070
    10
1000
4A
1002
{
1000
Class
1070
     4
1000

1002
{
1002
}
1000
Color
1070
     1
1070
   256
1002
{
1002
}
1000
LType
1070
     4
1000
BYLAYER
1002
{
1002
}
1002
}
1000
FEMN
1070
    10
1000
8
1002
{
1000
Class
1070
     4
1000

1002
{
1002
}
1000
Color
1070
     1
1070
   256
1002
{
1002
}
1000
LType
1070
     4
1000
BYLAYER
1002
{
1002
}
1002
}
1000
FEMPN
1070
    10
1000
8
1002
{
1000
Class
1070
     4
1000
SYM
1002
{
1002
}
1000
Color
1070
     1
1070
     3
1002
{
1002
}
1000
LType
1070
     4
1000
BYLAYER
1002
{
1002
}
1002
}
1000
FEMSP
1070
    10
1000
4A
1002
{
1000
Class
1070
     4
1000

1002
{
1002
}
1000
Color
1070
     1
1070
   256
1002
{
1002
}
1000
LType
1070
     4
1000
CONTINUOUS
1002
{
1002
}
1002
}
1000
FEMST
1070
    10
1000
4A
1002
{
1000
Class
1070
     4
1000
SYM
1002
{
1002
}
1000
Color
1070
     1
1070
     3
1002
{
1002
}
1000
LType
1070
     4
1000
BYLAYER
1002
{
1002
}
1002
}
1000
FEMVN
1070
    10
1000
2
1002
{
1000
Class
1070
     4
1000
CON
1002
{
1002
}
1000
Color
1070
     1
1070
   256
1002
{
1002
}
1000
LType
1070
     4
1000
BYLAYER
1002
{
1002
}
1002
}
1000
FEMVT
1070
    10
1000
2
1002
{
1000
Class
1070
     4
1000
SYM
1002
{
1002
}
1000
Color
1070
     1
1070
     3
1002
{
1002
}
1000
LType
1070
     4
1000
BYLAYER
1002
{
1002
}
1002
}
1000
FLAT
1070
    10
1000
0
1002
{
1000
Class
1070
     4
1000

1002
{
1002
}
1000
Color
1070
     1
1070
   256
1002
{
1002
}
1000
LType
1070
     4
1000
BYLAYER
1002
{
1002
}
1002
}
1000
FRAR
1070
    10
1000
4A
1002
{
1000
Class
1070
     4
1000

1002
{
1002
}
1000
Color
1070
     1
1070
   256
1002
{
1002
}
1000
LType
1070
     4
1000
BYLAYER
1002
{
1002
}
1002
}
1000
GRLI
1070
    10
1000
5
1002
{
1000
Class
1070
     4
1000
SYM
1002
{
1002
}
1000
Color
1070
     1
1070
   256
1002
{
1002
}
1000
LType
1070
     4
1000
BYLAYER
1002
{
1002
}
1002
}
1000
GVLI
1070
    10
1000
4A
1002
{
1000
Class
1070
     4
1000

1002
{
1002
}
1000
Color
1070
     1
1070
   256
1002
{
1002
}
1000
LType
1070
     4
1000
BYLAYER
1002
{
1002
}
1002
}
1000
HATC
1070
    10
1000
8
1002
{
1000
Class
1070
     4
1000
HTC,BGD
1002
{
1002
}
1000
Color
1070
     1
1070
   256
1002
{
1002
}
1000
LType
1070
     4
1000
BYLAYER
1002
{
1002
}
1002
}
1000
HIDN
1070
    10
1000
3A
1002
{
1000
Class
1070
     4
1000
HID,BGD
1002
{
1002
}
1000
Color
1070
     1
1070
   256
1002
{
1002
}
1000
LType
1070
     4
1000
BYLAYER
1002
{
1002
}
1002
}
1000
HIDW
1070
    10
1000
3
1002
{
1000
Class
1070
     4
1000
HID,BGD
1002
{
1002
}
1000
Color
1070
     1
1070
   256
1002
{
1002
}
1000
LType
1070
     4
1000
BYLAYER
1002
{
1002
}
1002
}
1000
HLIN
1070
    10
1000
4
1002
{
1000
Class
1070
     4
1000
BGD
1002
{
1002
}
1000
Color
1070
     1
1070
   256
1002
{
1002
}
1000
LType
1070
     4
1000
BYLAYER
1002
{
1002
}
1002
}
1000
HOCN
1070
    10
1000
7A
1002
{
1000
Class
1070
     4
1000
CEN
1002
{
1002
}
1000
Color
1070
     1
1070
   256
1002
{
1002
}
1000
LType
1070
     4
1000
BYLAYER
1002
{
1002
}
1002
}
1000
HOCW
1070
    10
1000
7
1002
{
1000
Class
1070
     4
1000
CEN
1002
{
1002
}
1000
Color
1070
     1
1070
   256
1002
{
1002
}
1000
LType
1070
     4
1000
BYLAYER
1002
{
1002
}
1002
}
1000
INFO
1070
    10
1000
INFO
1002
{
1000
Class
1070
     4
1000
SPZ,SYM
1002
{
1002
}
1000
Color
1070
     1
1070
   256
1002
{
1002
}
1000
LType
1070
     4
1000
BYLAYER
1002
{
1002
}
1002
}
1000
LADI
1070
    10
1000
4
1002
{
1000
Class
1070
     4
1000
BGD
1002
{
1002
}
1000
Color
1070
     1
1070
   256
1002
{
1002
}
1000
LType
1070
     4
1000
BYLAYER
1002
{
1002
}
1002
}
1000
LEAD
1070
    10
1000
5
1002
{
1000
Class
1070
     4
1000
SYM
1002
{
1002
}
1000
Color
1070
     1
1070
   256
1002
{
1002
}
1000
LType
1070
     4
1000
BYLAYER
1002
{
1002
}
1002
}
1000
N_ADDL
1070
    10
1000
5N
1002
{
1000
Class
1070
     4
1000
SYM
1002
{
1002
}
1000
Color
1070
     1
1070
     1
1002
{
1002
}
1000
LType
1070
     4
1000
BYLAYER
1002
{
1002
}
1002
}
1000
N_BHNV
1070
    10
1000
9N
1002
{
1000
Class
1070
     4
1000
INV
1002
{
1002
}
1000
Color
1070
     1
1070
   256
1002
{
1002
}
1000
LType
1070
     4
1000
BYLAYER
1002
{
1002
}
1002
}
1000
N_CON1
1070
    10
1000
0N
1002
{
1000
Class
1070
     4
1000
CON,BGD
1002
{
1002
}
1000
Color
1070
     1
1070
   256
1002
{
1002
}
1000
LType
1070
     4
1000
BYLAYER
1002
{
1002
}
1002
}
1000
N_CON2
1070
    10
1000
1N
1002
{
1000
Class
1070
     4
1000
CON,BGD
1002
{
1002
}
1000
Color
1070
     1
1070
   256
1002
{
1002
}
1000
LType
1070
     4
1000
BYLAYER
1002
{
1002
}
1002
}
1000
N_CON3
1070
    10
1000
2N
1002
{
1000
Class
1070
     4
1000
CON,BGD
1002
{
1002
}
1000
Color
1070
     1
1070
   256
1002
{
1002
}
1000
LType
1070
     4
1000
BYLAYER
1002
{
1002
}
1002
}
1000
N_CON4
1070
    10
1000
2N
1002
{
1000
Class
1070
     4
1000
CON,BGD
1002
{
1002
}
1000
Color
1070
     1
1070
   256
1002
{
1002
}
1000
LType
1070
     4
1000
BYLAYER
1002
{
1002
}
1002
}
1000
N_CENN
1070
    10
1000
7AN
1002
{
1000
Class
1070
     4
1000
CEN
1002
{
1002
}
1000
Color
1070
     1
1070
   256
1002
{
1002
}
1000
LType
1070
     4
1000
BYLAYER
1002
{
1002
}
1002
}
1000
N_CENW
1070
    10
1000
7N
1002
{
1000
Class
1070
     4
1000
CEN
1002
{
1002
}
1000
Color
1070
     1
1070
   256
1002
{
1002
}
1000
LType
1070
     4
1000
BYLAYER
1002
{
1002
}
1002
}
1000
N_DILI
1070
    10
1000
5N
1002
{
1000
Class
1070
     4
1000
DIM,SYM
1002
{
1002
}
1000
Color
1070
     1
1070
   256
1002
{
1002
}
1000
LType
1070
     4
1000
BYLAYER
1002
{
1002
}
1002
}
1000
N_DITX
1070
    10
1000
5N
1002
{
1000
Class
1070
     4
1000
DIM,SYM
1002
{
1002
}
1000
Color
1070
     1
1070
     2
1002
{
1002
}
1000
LType
1070
     4
1000
CONTINUOUS
1002
{
1002
}
1002
}
1000
N_DIXL
1070
    10
1000
5N
1002
{
1000
Class
1070
     4
1000
DIM,SYM
1002
{
1002
}
1000
Color
1070
     1
1070
   256
1002
{
1002
}
1000
LType
1070
     4
1000
BYLAYER
1002
{
1002
}
1002
}
1000
N_HATC
1070
    10
1000
8N
1002
{
1000
Class
1070
     4
1000
HTC,BGD
1002
{
1002
}
1000
Color
1070
     1
1070
   256
1002
{
1002
}
1000
LType
1070
     4
1000
BYLAYER
1002
{
1002
}
1002
}
1000
N_HIDN
1070
    10
1000
3AN
1002
{
1000
Class
1070
     4
1000
HID,BGD
1002
{
1002
}
1000
Color
1070
     1
1070
   256
1002
{
1002
}
1000
LType
1070
     4
1000
BYLAYER
1002
{
1002
}
1002
}
1000
N_HIDW
1070
    10
1000
3N
1002
{
1000
Class
1070
     4
1000
HID,BGD
1002
{
1002
}
1000
Color
1070
     1
1070
   256
1002
{
1002
}
1000
LType
1070
     4
1000
BYLAYER
1002
{
1002
}
1002
}
1000
N_NGIP
1070
    10
1000
IPN
1002
{
1000
Class
1070
     4
1000

1002
{
1002
}
1000
Color
1070
     1
1070
   256
1002
{
1002
}
1000
LType
1070
     4
1000
BYLAYER
1002
{
1002
}
1002
}
1000
N_PHAN
1070
    10
1000
4AN
1002
{
1000
Class
1070
     4
1000

1002
{
1002
}
1000
Color
1070
     1
1070
   256
1002
{
1002
}
1000
LType
1070
     4
1000
BYLAYER
1002
{
1002
}
1002
}
1000
N_POSL
1070
    10
1000
5N
1002
{
1000
Class
1070
     4
1000
SYM
1002
{
1002
}
1000
Color
1070
     1
1070
   256
1002
{
1002
}
1000
LType
1070
     4
1000
BYLAYER
1002
{
1002
}
1002
}
1000
N_TCON
1070
    10
1000
0N
1002
{
1000
Class
1070
     4
1000
CON,BGD
1002
{
1002
}
1000
Color
1070
     1
1070
   256
1002
{
1002
}
1000
LType
1070
     4
1000
BYLAYER
1002
{
1002
}
1002
}
1000
N_THLI
1070
    10
1000
4N
1002
{
1000
Class
1070
     4
1000
BGD
1002
{
1002
}
1000
Color
1070
     1
1070
   256
1002
{
1002
}
1000
LType
1070
     4
1000
BYLAYER
1002
{
1002
}
1002
}
1000
N_TLEN
1070
    10
1000
0N
1002
{
1000
Class
1070
     4
1000
CON,BGD
1002
{
1002
}
1000
Color
1070
     1
1070
   256
1002
{
1002
}
1000
LType
1070
     4
1000
BYLAYER
1002
{
1002
}
1002
}
1000
N_TXT3
1070
    10
1000
6N
1002
{
1000
Class
1070
     4
1000
SYM
1002
{
1002
}
1000
Color
1070
     1
1070
   256
1002
{
1002
}
1000
LType
1070
     4
1000
BYLAYER
1002
{
1002
}
1002
}
1000
N_VPLI
1070
    10
1000
2AN
1002
{
1000
Class
1070
     4
1000

1002
{
1002
}
1000
Color
1070
     1
1070
   256
1002
{
1002
}
1000
LType
1070
     4
1000
BYLAYER
1002
{
1002
}
1002
}
1000
NGIP
1070
    10
1000
IP
1002
{
1000
Class
1070
     4
1000

1002
{
1002
}
1000
Color
1070
     1
1070
   256
1002
{
1002
}
1000
LType
1070
     4
1000
BYLAYER
1002
{
1002
}
1002
}
1000
PAL2
1070
    10
1000
RAHM2
1002
{
1000
Class
1070
     4
1000
SPZ,SYM
1002
{
1002
}
1000
Color
1070
     1
1070
   256
1002
{
1002
}
1000
LType
1070
     4
1000
BYLAYER
1002
{
1002
}
1002
}
1000
PAL3
1070
    10
1000
RAHM3
1002
{
1000
Class
1070
     4
1000
SPZ,SYM
1002
{
1002
}
1000
Color
1070
     1
1070
   256
1002
{
1002
}
1000
LType
1070
     4
1000
BYLAYER
1002
{
1002
}
1002
}
1000
PAL5
1070
    10
1000
RAHM5
1002
{
1000
Class
1070
     4
1000
SPZ,SYM
1002
{
1002
}
1000
Color
1070
     1
1070
   256
1002
{
1002
}
1000
LType
1070
     4
1000
BYLAYER
1002
{
1002
}
1002
}
1000
PAL7
1070
    10
1000
RAHM5
1002
{
1000
Class
1070
     4
1000
SPZ,SYM
1002
{
1002
}
1000
Color
1070
     1
1070
     7
1002
{
1002
}
1000
LType
1070
     4
1000
CONTINUOUS
1002
{
1002
}
1002
}
1000
PHAN
1070
    10
1000
4A
1002
{
1000
Class
1070
     4
1000

1002
{
1002
}
1000
Color
1070
     1
1070
   256
1002
{
1002
}
1000
LType
1070
     4
1000
BYLAYER
1002
{
1002
}
1002
}
1000
POSL
1070
    10
1000
5
1002
{
1000
Class
1070
     4
1000
SYM
1002
{
1002
}
1000
Color
1070
     1
1070
   256
1002
{
1002
}
1000
LType
1070
     4
1000
BYLAYER
1002
{
1002
}
1002
}
1000
POSN
1070
    10
1000
6
1002
{
1000
Class
1070
     4
1000
SYM
1002
{
1002
}
1000
Color
1070
     1
1070
     7
1002
{
1002
}
1000
LType
1070
     4
1000
BYLAYER
1002
{
1002
}
1002
}
1000
POSREF
1070
    10
1000
6
1002
{
1000
Class
1070
     4
1000
SYM
1002
{
1002
}
1000
Color
1070
     1
1070
     5
1002
{
1002
}
1000
LType
1070
     4
1000
BYLAYER
1002
{
1002
}
1002
}
1000
POSX
1070
    10
1000
5
1002
{
1000
Class
1070
     4
1000
SYM
1002
{
1002
}
1000
Color
1070
     1
1070
     2
1002
{
1002
}
1000
LType
1070
     4
1000
CONTINUOUS
1002
{
1002
}
1002
}
1000
PSEC
1070
    10
1000
4A
1002
{
1000
Class
1070
     4
1000

1002
{
1002
}
1000
Color
1070
     1
1070
   256
1002
{
1002
}
1000
LType
1070
     4
1000
BYLAYER
1002
{
1002
}
1002
}
1000
RCGN
1070
    10
1000
7A
1002
{
1000
Class
1070
     4
1000
CEN
1002
{
1002
}
1000
Color
1070
     1
1070
   256
1002
{
1002
}
1000
LType
1070
     4
1000
BYLAYER
1002
{
1002
}
1002
}
1000
RCGW
1070
    10
1000
7
1002
{
1000
Class
1070
     4
1000
CEN
1002
{
1002
}
1000
Color
1070
     1
1070
   256
1002
{
1002
}
1000
LType
1070
     4
1000
BYLAYER
1002
{
1002
}
1002
}
1000
RFDI
1070
    10
1000
4
1002
{
1000
Class
1070
     4
1000
BGD
1002
{
1002
}
1000
Color
1070
     1
1070
   256
1002
{
1002
}
1000
LType
1070
     4
1000
BYLAYER
1002
{
1002
}
1002
}
1000
RQTR
1070
    10
1000
4
1002
{
1000
Class
1070
     4
1000

1002
{
1002
}
1000
Color
1070
     1
1070
     7
1002
{
1002
}
1000
LType
1070
     4
1000
GEN7A
1002
{
1002
}
1002
}
1000
RSBO
1070
    10
1000
4
1002
{
1000
Class
1070
     4
1000
BGD
1002
{
1002
}
1000
Color
1070
     1
1070
   256
1002
{
1002
}
1000
LType
1070
     4
1000
BYLAYER
1002
{
1002
}
1002
}
1000
SBRK
1070
    10
1000
4
1002
{
1000
Class
1070
     4
1000
BGD
1002
{
1002
}
1000
Color
1070
     1
1070
   256
1002
{
1002
}
1000
LType
1070
     4
1000
BYLAYER
1002
{
1002
}
1002
}
1000
SCEN
1070
    10
1000
7
1002
{
1000
Class
1070
     4
1000

1002
{
1002
}
1000
Color
1070
     1
1070
   256
1002
{
1002
}
1000
LType
1070
     4
1000
CONTINUOUS
1002
{
1002
}
1002
}
1000
SECT
1070
    10
1000
4
1002
{
1000
Class
1070
     4
1000
BGD
1002
{
1002
}
1000
Color
1070
     1
1070
   256
1002
{
1002
}
1000
LType
1070
     4
1000
BYLAYER
1002
{
1002
}
1002
}
1000
SELN
1070
    10
1000
7A
1002
{
1000
Class
1070
     4
1000

1002
{
1002
}
1000
Color
1070
     1
1070
   256
1002
{
1002
}
1000
LType
1070
     4
1000
BYLAYER
1002
{
1002
}
1002
}
1000
SELW
1070
    10
1000
7
1002
{
1000
Class
1070
     4
1000

1002
{
1002
}
1000
Color
1070
     1
1070
   256
1002
{
1002
}
1000
LType
1070
     4
1000
BYLAYER
1002
{
1002
}
1002
}
1000
SSYS
1070
    10
1000
0
1002
{
1000
Class
1070
     4
1000

1002
{
1002
}
1000
Color
1070
     1
1070
   256
1002
{
1002
}
1000
LType
1070
     4
1000
BYLAYER
1002
{
1002
}
1002
}
1000
STLI
1070
    10
1000
4
1002
{
1000
Class
1070
     4
1000

1002
{
1002
}
1000
Color
1070
     1
1070
     7
1002
{
1002
}
1000
LType
1070
     4
1000
GEN3A
1002
{
1002
}
1002
}
1000
SYB1
1070
    10
1000
5
1002
{
1000
Class
1070
     4
1000
SYM
1002
{
1002
}
1000
Color
1070
     1
1070
   256
1002
{
1002
}
1000
LType
1070
     4
1000
BYLAYER
1002
{
1002
}
1002
}
1000
SYB2
1070
    10
1000
5
1002
{
1000
Class
1070
     4
1000
SYM
1002
{
1002
}
1000
Color
1070
     1
1070
   256
1002
{
1002
}
1000
LType
1070
     4
1000
BYLAYER
1002
{
1002
}
1002
}
1000
SYB3
1070
    10
1000
6
1002
{
1000
Class
1070
     4
1000
SYM
1002
{
1002
}
1000
Color
1070
     1
1070
   256
1002
{
1002
}
1000
LType
1070
     4
1000
CONTINUOUS
1002
{
1002
}
1002
}
1000
SYB5
1070
    10
1000
5
1002
{
1000
Class
1070
     4
1000
SYM
1002
{
1002
}
1000
Color
1070
     1
1070
     7
1002
{
1002
}
1000
LType
1070
     4
1000
BYLAYER
1002
{
1002
}
1002
}
1000
SYMN
1070
    10
1000
7A
1002
{
1000
Class
1070
     4
1000
CEN
1002
{
1002
}
1000
Color
1070
     1
1070
   256
1002
{
1002
}
1000
LType
1070
     4
1000
BYLAYER
1002
{
1002
}
1002
}
1000
SYMW
1070
    10
1000
7
1002
{
1000
Class
1070
     4
1000
CEN
1002
{
1002
}
1000
Color
1070
     1
1070
   256
1002
{
1002
}
1000
LType
1070
     4
1000
BYLAYER
1002
{
1002
}
1002
}
1000
TCON
1070
    10
1000
0
1002
{
1000
Class
1070
     4
1000
CON,BGD
1002
{
1002
}
1000
Color
1070
     1
1070
   256
1002
{
1002
}
1000
LType
1070
     4
1000
BYLAYER
1002
{
1002
}
1002
}
1000
THLI
1070
    10
1000
4
1002
{
1000
Class
1070
     4
1000
BGD
1002
{
1002
}
1000
Color
1070
     1
1070
   256
1002
{
1002
}
1000
LType
1070
     4
1000
BYLAYER
1002
{
1002
}
1002
}
1000
TIT2
1070
    10
1000
RAHM2
1002
{
1000
Class
1070
     4
1000
SPZ,SYM
1002
{
1002
}
1000
Color
1070
     1
1070
   256
1002
{
1002
}
1000
LType
1070
     4
1000
BYLAYER
1002
{
1002
}
1002
}
1000
TIT3
1070
    10
1000
RAHM3
1002
{
1000
Class
1070
     4
1000
SPZ,SYM
1002
{
1002
}
1000
Color
1070
     1
1070
   256
1002
{
1002
}
1000
LType
1070
     4
1000
BYLAYER
1002
{
1002
}
1002
}
1000
TIT5
1070
    10
1000
RAHM5
1002
{
1000
Class
1070
     4
1000
SPZ,SYM
1002
{
1002
}
1000
Color
1070
     1
1070
   256
1002
{
1002
}
1000
LType
1070
     4
1000
BYLAYER
1002
{
1002
}
1002
}
1000
TIT7
1070
    10
1000
RAHM5
1002
{
1000
Class
1070
     4
1000
SPZ,SYM
1002
{
1002
}
1000
Color
1070
     1
1070
     7
1002
{
1002
}
1000
LType
1070
     4
1000
CONTINUOUS
1002
{
1002
}
1002
}
1000
TLEN
1070
    10
1000
0
1002
{
1000
Class
1070
     4
1000
CON,BGD
1002
{
1002
}
1000
Color
1070
     1
1070
   256
1002
{
1002
}
1000
LType
1070
     4
1000
BYLAYER
1002
{
1002
}
1002
}
1000
TRKN
1070
    10
1000
7A
1002
{
1000
Class
1070
     4
1000

1002
{
1002
}
1000
Color
1070
     1
1070
   256
1002
{
1002
}
1000
LType
1070
     4
1000
BYLAYER
1002
{
1002
}
1002
}
1000
TRKW
1070
    10
1000
7
1002
{
1000
Class
1070
     4
1000

1002
{
1002
}
1000
Color
1070
     1
1070
   256
1002
{
1002
}
1000
LType
1070
     4
1000
BYLAYER
1002
{
1002
}
1002
}
1000
TRLI
1070
    10
1000
4
1002
{
1000
Class
1070
     4
1000
BGD
1002
{
1002
}
1000
Color
1070
     1
1070
   256
1002
{
1002
}
1000
LType
1070
     4
1000
BYLAYER
1002
{
1002
}
1002
}
1000
TXT1
1070
    10
1000
6
1002
{
1000
Class
1070
     4
1000
SYM
1002
{
1002
}
1000
Color
1070
     1
1070
     2
1002
{
1002
}
1000
LType
1070
     4
1000
BYLAYER
1002
{
1002
}
1002
}
1000
TXT2
1070
    10
1000
6
1002
{
1000
Class
1070
     4
1000
SYM
1002
{
1002
}
1000
Color
1070
     1
1070
     2
1002
{
1002
}
1000
LType
1070
     4
1000
BYLAYER
1002
{
1002
}
1002
}
1000
TXT3
1070
    10
1000
6
1002
{
1000
Class
1070
     4
1000
SYM
1002
{
1002
}
1000
Color
1070
     1
1070
   256
1002
{
1002
}
1000
LType
1070
     4
1000
BYLAYER
1002
{
1002
}
1002
}
1000
TXT5
1070
    10
1000
6
1002
{
1000
Class
1070
     4
1000
SYM
1002
{
1002
}
1000
Color
1070
     1
1070
     7
1002
{
1002
}
1000
LType
1070
     4
1000
BYLAYER
1002
{
1002
}
1002
}
1000
TXT7
1070
    10
1000
6
1002
{
1000
Class
1070
     4
1000
SYM
1002
{
1002
}
1000
Color
1070
     1
1070
     7
1002
{
1002
}
1000
LType
1070
     4
1000
BYLAYER
1002
{
1002
}
1002
}
1000
VIEW
1070
    10
1000
VIEW
1002
{
1000
Class
1070
     4
1000
SPZ
1002
{
1002
}
1000
Color
1070
     1
1070
   256
1002
{
1002
}
1000
LType
1070
     4
1000
BYLAYER
1002
{
1002
}
1002
}
1000
VPLI
1070
    10
1000
2A
1002
{
1000
Class
1070
     4
1000

1002
{
1002
}
1000
Color
1070
     1
1070
   256
1002
{
1002
}
1000
LType
1070
     4
1000
BYLAYER
1002
{
1002
}
1002
}
1000
ZIZA
1070
    10
1000
4
1002
{
1000
Class
1070
     4
1000
BGD
1002
{
1002
}
1000
Color
1070
     1
1070
   256
1002
{
1002
}
1000
LType
1070
     4
1000
GENZIGZAG
1002
{
1002
}
1002
}
  0
APPID
  5
1826
330
17AB
100
AcDbSymbolTableRecord
100
AcDbRegAppTableRecord
  2
GENIUS_GENCFG4_13
 70
     0
1001
GENIUS_GENCFG_13
1071
1043072795
1000
1826
1000
GEN
1070
    10
1000
GenCfgObject
1000
GenCfgShort
1000
GenCfgReal
1000
GenCfgBool
1000
GenCfgString
1000
GenCfgDim
1000
GenCfgPoint
1000
GenCfgLaySection
1000
GenCfgLType
1000
GenCfgFilter
1000
Balloon
1070
     0
1002
{
1000
GenIF
1070
     1
1070
     0
1002
{
1002
}
1000
GenPosInc
1070
     1
1070
     1
1002
{
1002
}
1000
GenPosBlk
1070
     1
1070
     8
1002
{
1002
}
1000
GenPosVar
1070
     1
1070
     0
1002
{
1002
}
1000
GenZiCir
1070
     2
1040
1.5
1002
{
1002
}
1000
MaxCharForCenteredText
1070
     1
1070
    30
1002
{
1002
}
1000
Snap
1070
     0
1002
{
1000
ActivationRadius
1070
     2
1040
1.0
1002
{
1002
}
1000
M
1070
     0
1002
{
1000
SnapStepX
1070
     2
1040
20.0
1002
{
1002
}
1000
SnapStepY
1070
     2
1040
10.0
1002
{
1002
}
1002
}
1000
I
1070
     0
1002
{
1000
SnapStepX
1070
     2
1040
1.0
1002
{
1002
}
1000
SnapStepY
1070
     2
1040
0.5
1002
{
1002
}
1002
}
1002
}
1002
}
1000
Centerline
1070
     0
1002
{
1000
ScaleNot
1070
     3
1070
     0
1002
{
1002
}
1000
M
1070
     0
1002
{
1000
GenCenAng
1070
     4
1000
45|90|135
1002
{
1002
}
1000
GenCenDia
1070
     2
1040
10.0
1002
{
1002
}
1000
GenCenDias
1070
     4
1000
10|20|30
1002
{
1002
}
1000
GenCenDist
1070
     2
1040
3.0
1002
{
1002
}
1000
GenCenLen
1070
     2
1040
10.0
1002
{
1002
}
1000
GenCenOff
1070
     2
1040
10.0
1002
{
1002
}
1000
GENCENOFF1
1070
     2
1040
10.0
1002
{
1002
}
1000
GENCENOFF2
1070
     2
1040
10.0
1002
{
1002
}
1002
}
1000
I
1070
     0
1002
{
1000
GenCenAng
1070
     4
1000
45|90|135
1002
{
1002
}
1000
GenCenDia
1070
     2
1040
0.5
1002
{
1002
}
1000
GenCenDias
1070
     4
1000
0.5|1.0|1.5
1002
{
1002
}
1000
GenCenDist
1070
     2
1040
0.125
1002
{
1002
}
1000
GenCenLen
1070
     2
1040
0.5
1002
{
1002
}
1000
GenCenOff
1070
     2
1040
0.5
1002
{
1002
}
1002
}
1002
}
1000
CLine
1070
     0
1002
{
1000
CAngArray
1070
     4
1000
88
1002
{
1002
}
1000
Typ
1070
     4
1000
XLINE
1002
{
1002
}
1000
M
1070
     0
1002
{
1000
CLinArray
1070
     4
1000
18
1002
{
1002
}
1002
}
1000
I
1070
     0
1002
{
1000
CLinArray
1070
     4
1000
0.125|0.25|0.5
1002
{
1002
}
1002
}
1002
}
1000
Detail
1070
     0
1002
{
1002
}
1000
Dimension
1070
     5
1002
{
1000
DIMALT
1070
     1
1070
     0
1002
{
1002
}
1000
DIMALTD
1070
     1
1070
     2
1002
{
1002
}
1000
DIMALTTD
1070
     1
1070
     4
1002
{
1002
}
1000
DIMALTTZ
1070
     1
1070
     0
1002
{
1002
}
1000
DIMALTU
1070
     1
1070
     2
1002
{
1002
}
1000
DIMALTZ
1070
     1
1070
     0
1002
{
1002
}
1000
DIMAUNIT
1070
     1
1070
     0
1002
{
1002
}
1000
DIMBLK
1070
     4
1000

1002
{
1002
}
1000
DIMBLK1
1070
     4
1000

1002
{
1002
}
1000
DIMBLK2
1070
     4
1000

1002
{
1002
}
1000
DIMCLRD
1070
     1
1070
   256
1002
{
1002
}
1000
DIMCLRE
1070
     1
1070
   256
1002
{
1002
}
1000
DIMCLRT
1070
     1
1070
     2
1002
{
1002
}
1000
DIMDLE
1070
     2
1040
0.0
1002
{
1002
}
1000
DIMFIT
1070
     1
1070
     3
1002
{
1002
}
1000
DIMJUST
1070
     1
1070
     0
1002
{
1002
}
1000
DIMLFAC
1070
     2
1040
1.0
1002
{
1002
}
1000
DIMLIM
1070
     1
1070
     0
1002
{
1002
}
1000
DIMPOST
1070
     4
1000

1002
{
1002
}
1000
DIMRND
1070
     2
1040
0.0
1002
{
1002
}
1000
DIMSAH
1070
     1
1070
     0
1002
{
1002
}
1000
DIMSCALE
1070
     2
1040
1.0
1002
{
1002
}
1000
DIMSD1
1070
     1
1070
     0
1002
{
1002
}
1000
DIMSD2
1070
     1
1070
     0
1002
{
1002
}
1000
DIMSE1
1070
     1
1070
     0
1002
{
1002
}
1000
DIMSE2
1070
     1
1070
     0
1002
{
1002
}
1000
DIMSOXD
1070
     1
1070
     0
1002
{
1002
}
1000
DIMTAD
1070
     1
1070
     0
1002
{
1002
}
1000
DIMTFAC
1070
     2
1040
0.71
1002
{
1002
}
1000
DIMTIH
1070
     1
1070
     0
1002
{
1002
}
1000
DIMTIX
1070
     1
1070
     0
1002
{
1002
}
1000
DIMTM
1070
     2
1040
0.1
1002
{
1002
}
1000
DIMTOFL
1070
     1
1070
     0
1002
{
1002
}
1000
DIMTOH
1070
     1
1070
     0
1002
{
1002
}
1000
DIMTOL
1070
     1
1070
     0
1002
{
1002
}
1000
DIMTOLJ
1070
     1
1070
     1
1002
{
1002
}
1000
DIMTP
1070
     2
1040
0.1
1002
{
1002
}
1000
DIMTSZ
1070
     2
1040
0.0
1002
{
1002
}
1000
DIMTVP
1070
     2
1040
0.0
1002
{
1002
}
1000
DIMTXSTY
1070
     4
1000
STANDARD
1002
{
1002
}
1000
DIMTZIN
1070
     1
1070
     0
1002
{
1002
}
1000
DIMUNIT
1070
     1
1070
     2
1002
{
1002
}
1000
DIMUPT
1070
     1
1070
     0
1002
{
1002
}
1000
M
1070
     0
1002
{
1000
DIMALTF
1070
     2
1040
0.03937
1002
{
1002
}
1000
DIMAPOST
1070
     4
1000
"
1002
{
1002
}
1000
DIMASZ
1070
     2
1040
2.5
1002
{
1002
}
1000
DIMCEN
1070
     2
1040
0.0
1002
{
1002
}
1000
DIMDEC
1070
     1
1070
     2
1002
{
1002
}
1000
DIMDLI
1070
     2
1040
7.0
1002
{
1002
}
1000
DIMEXE
1070
     2
1040
1.0
1002
{
1002
}
1000
DIMEXO
1070
     2
1040
1.0
1002
{
1002
}
1000
DIMGAP
1070
     2
1040
0.6
1002
{
1002
}
1000
DIMTDEC
1070
     1
1070
     3
1002
{
1002
}
1000
DIMTXT
1070
     2
1040
3.5
1002
{
1002
}
1000
DIMZIN
1070
     1
1070
     8
1002
{
1002
}
1002
}
1000
I
1070
     0
1002
{
1000
DIMALTF
1070
     2
1040
25.4
1002
{
1002
}
1000
DIMAPOST
1070
     4
1000
mm
1002
{
1002
}
1000
DIMASZ
1070
     2
1040
0.1
1002
{
1002
}
1000
DIMCEN
1070
     2
1040
0.0
1002
{
1002
}
1000
DIMDEC
1070
     1
1070
     4
1002
{
1002
}
1000
DIMDLI
1070
     2
1040
0.5
1002
{
1002
}
1000
DIMEXE
1070
     2
1040
0.1
1002
{
1002
}
1000
DIMEXO
1070
     2
1040
0.05
1002
{
1002
}
1000
DIMGAP
1070
     2
1040
0.06
1002
{
1002
}
1000
DIMTDEC
1070
     1
1070
     4
1002
{
1002
}
1000
DIMTXT
1070
     2
1040
0.12
1002
{
1002
}
1000
DIMZIN
1070
     1
1070
     7
1002
{
1002
}
1002
}
1000
GEN-ISO
1070
     5
1002
{
1000
NAME
1070
     4
1000
GEN-ISO
1002
{
1002
}
1000
DIMTAD
1070
     1
1070
     1
1002
{
1002
}
1000
DIMTOLJ
1070
     1
1070
     0
1002
{
1002
}
1000
DIMTOFL
1070
     1
1070
     1
1002
{
1002
}
1000
M
1070
     0
1002
{
1002
}
1000
I
1070
     0
1002
{
1002
}
1002
}
1000
GEN-ISO-POS
1070
     5
1002
{
1000
NAME
1070
     4
1000
GEN-ISO-POS
1002
{
1002
}
1000
DIMTOLJ
1070
     1
1070
     0
1002
{
1002
}
1000
DIMTXSTY
1070
     4
1000
STANDARD
1002
{
1002
}
1000
M
1070
     0
1002
{
1000
DIMASZ
1070
     2
1040
2.5
1002
{
1002
}
1000
DIMGAP
1070
     2
1040
1.5
1002
{
1002
}
1000
DIMTXT
1070
     2
1040
5.0
1002
{
1002
}
1002
}
1000
I
1070
     0
1002
{
1000
DIMASZ
1070
     2
1040
0.1
1002
{
1002
}
1000
DIMGAP
1070
     2
1040
0.06
1002
{
1002
}
1000
DIMTXT
1070
     2
1040
0.2
1002
{
1002
}
1002
}
1002
}
1000
GEN-ISO-CIR
1070
     5
1002
{
1000
NAME
1070
     4
1000
GEN-ISO$3
1002
{
1002
}
1000
DIMFIT
1070
     1
1070
     0
1002
{
1002
}
1000
DIMTAD
1070
     1
1070
     1
1002
{
1002
}
1000
DIMTOH
1070
     1
1070
     1
1002
{
1002
}
1000
DIMTOLJ
1070
     1
1070
     0
1002
{
1002
}
1000
DIMUPT
1070
     1
1070
     1
1002
{
1002
}
1000
M
1070
     0
1002
{
1002
}
1000
I
1070
     0
1002
{
1002
}
1002
}
1000
GEN-ISO-RAD
1070
     5
1002
{
1000
NAME
1070
     4
1000
GEN-ISO$4
1002
{
1002
}
1000
DIMFIT
1070
     1
1070
     0
1002
{
1002
}
1000
DIMTAD
1070
     1
1070
     1
1002
{
1002
}
1000
DIMTIH
1070
     1
1070
     0
1002
{
1002
}
1000
DIMTIX
1070
     1
1070
     0
1002
{
1002
}
1000
DIMTOH
1070
     1
1070
     1
1002
{
1002
}
1000
DIMTOLJ
1070
     1
1070
     0
1002
{
1002
}
1000
DIMTOFL
1070
     1
1070
     0
1002
{
1002
}
1000
DIMUPT
1070
     1
1070
     1
1002
{
1002
}
1000
M
1070
     0
1002
{
1002
}
1000
I
1070
     0
1002
{
1002
}
1002
}
1000
GEN-ISO-ORD
1070
     5
1002
{
1000
NAME
1070
     4
1000
GEN-ISO$6
1002
{
1002
}
1000
DIMTOLJ
1070
     1
1070
     0
1002
{
1002
}
1000
M
1070
     0
1002
{
1002
}
1000
I
1070
     0
1002
{
1002
}
1002
}
1000
GEN-ISO-AXE-F
1070
     5
1002
{
1000
NAME
1070
     4
1000
GEN-ISO-AXE-F
1002
{
1002
}
1000
DIMSE1
1070
     1
1070
     1
1002
{
1002
}
1000
DIMSE2
1070
     1
1070
     1
1002
{
1002
}
1000
DIMTAD
1070
     1
1070
     1
1002
{
1002
}
1000
DIMTOLJ
1070
     1
1070
     0
1002
{
1002
}
1000
DIMTOFL
1070
     1
1070
     1
1002
{
1002
}
1000
M
1070
     0
1002
{
1002
}
1000
I
1070
     0
1002
{
1002
}
1002
}
1000
GEN-ISO-AXE-H
1070
     5
1002
{
1000
NAME
1070
     4
1000
GEN-ISO-AXE-H
1002
{
1002
}
1000
DIMBLK1
1070
     4
1000
GENAXEH
1002
{
1002
}
1000
DIMLFAC
1070
     2
1040
2.0
1002
{
1002
}
1000
DIMSAH
1070
     1
1070
     1
1002
{
1002
}
1000
DIMSE1
1070
     1
1070
     1
1002
{
1002
}
1000
DIMSE2
1070
     1
1070
     1
1002
{
1002
}
1000
DIMTAD
1070
     1
1070
     1
1002
{
1002
}
1000
DIMTOLJ
1070
     1
1070
     0
1002
{
1002
}
1000
DIMTOFL
1070
     1
1070
     1
1002
{
1002
}
1000
M
1070
     0
1002
{
1002
}
1000
I
1070
     0
1002
{
1002
}
1002
}
1000
GEN-ANSI
1070
     5
1002
{
1000
NAME
1070
     4
1000
GEN-ANSI
1002
{
1002
}
1000
DIMTIH
1070
     1
1070
     1
1002
{
1002
}
1000
DIMTOH
1070
     1
1070
     1
1002
{
1002
}
1000
DIMTAD
1070
     1
1070
     0
1002
{
1002
}
1000
DIMTOLJ
1070
     1
1070
     1
1002
{
1002
}
1000
M
1070
     0
1002
{
1002
}
1000
I
1070
     0
1002
{
1002
}
1002
}
1000
GEN-ANSI-POS
1070
     5
1002
{
1000
NAME
1070
     4
1000
GEN-ANSI-POS
1002
{
1002
}
1000
DIMTOLJ
1070
     1
1070
     1
1002
{
1002
}
1000
DIMTXSTY
1070
     4
1000
STANDARD
1002
{
1002
}
1000
M
1070
     0
1002
{
1000
DIMASZ
1070
     2
1040
2.5
1002
{
1002
}
1000
DIMGAP
1070
     2
1040
1.5
1002
{
1002
}
1000
DIMTXT
1070
     2
1040
5.0
1002
{
1002
}
1002
}
1000
I
1070
     0
1002
{
1000
DIMASZ
1070
     2
1040
0.1
1002
{
1002
}
1000
DIMGAP
1070
     2
1040
0.06
1002
{
1002
}
1000
DIMTXT
1070
     2
1040
0.2
1002
{
1002
}
1002
}
1002
}
1000
GEN-ANSI-CIR
1070
     5
1002
{
1000
NAME
1070
     4
1000
GEN-ANSI$3
1002
{
1002
}
1000
DIMFIT
1070
     1
1070
     0
1002
{
1002
}
1000
DIMTAD
1070
     1
1070
     0
1002
{
1002
}
1000
DIMTIH
1070
     1
1070
     1
1002
{
1002
}
1000
DIMTIX
1070
     1
1070
     0
1002
{
1002
}
1000
DIMTOFL
1070
     1
1070
     0
1002
{
1002
}
1000
DIMTOH
1070
     1
1070
     1
1002
{
1002
}
1000
DIMTOLJ
1070
     1
1070
     1
1002
{
1002
}
1000
DIMUPT
1070
     1
1070
     1
1002
{
1002
}
1000
M
1070
     0
1002
{
1002
}
1000
I
1070
     0
1002
{
1002
}
1002
}
1000
GEN-ANSI-RAD
1070
     5
1002
{
1000
NAME
1070
     4
1000
GEN-ANSI$4
1002
{
1002
}
1000
DIMFIT
1070
     1
1070
     0
1002
{
1002
}
1000
DIMTAD
1070
     1
1070
     0
1002
{
1002
}
1000
DIMTIH
1070
     1
1070
     1
1002
{
1002
}
1000
DIMTIX
1070
     1
1070
     0
1002
{
1002
}
1000
DIMTOFL
1070
     1
1070
     0
1002
{
1002
}
1000
DIMTOH
1070
     1
1070
     1
1002
{
1002
}
1000
DIMTOLJ
1070
     1
1070
     1
1002
{
1002
}
1000
DIMUPT
1070
     1
1070
     1
1002
{
1002
}
1000
M
1070
     0
1002
{
1002
}
1000
I
1070
     0
1002
{
1002
}
1002
}
1000
GEN-ANSI-ORD
1070
     5
1002
{
1000
NAME
1070
     4
1000
GEN-ANSI$6
1002
{
1002
}
1000
DIMTAD
1070
     1
1070
     0
1002
{
1002
}
1000
DIMTIH
1070
     1
1070
     1
1002
{
1002
}
1000
DIMTOH
1070
     1
1070
     1
1002
{
1002
}
1000
DIMTOLJ
1070
     1
1070
     1
1002
{
1002
}
1000
M
1070
     0
1002
{
1002
}
1000
I
1070
     0
1002
{
1002
}
1002
}
1000
GEN-ANSI-AXE-F
1070
     5
1002
{
1000
NAME
1070
     4
1000
GEN-ANSI-AXE-F
1002
{
1002
}
1000
DIMBLK1
1070
     4
1000
GENAXEH
1002
{
1002
}
1000
DIMSAH
1070
     1
1070
     1
1002
{
1002
}
1000
DIMSE1
1070
     1
1070
     1
1002
{
1002
}
1000
DIMSE2
1070
     1
1070
     1
1002
{
1002
}
1000
DIMTAD
1070
     1
1070
     0
1002
{
1002
}
1000
DIMTIH
1070
     1
1070
     1
1002
{
1002
}
1000
DIMTOH
1070
     1
1070
     1
1002
{
1002
}
1000
DIMTOLJ
1070
     1
1070
     1
1002
{
1002
}
1000
M
1070
     0
1002
{
1002
}
1000
I
1070
     0
1002
{
1002
}
1002
}
1000
GEN-ANSI-AXE-H
1070
     5
1002
{
1000
NAME
1070
     4
1000
GEN-ANSI-AXE-H
1002
{
1002
}
1000
DIMBLK1
1070
     4
1000
GENAXEH
1002
{
1002
}
1000
DIMLFAC
1070
     2
1040
2.0
1002
{
1002
}
1000
DIMSAH
1070
     1
1070
     1
1002
{
1002
}
1000
DIMSE1
1070
     1
1070
     1
1002
{
1002
}
1000
DIMSE2
1070
     1
1070
     1
1002
{
1002
}
1000
DIMTAD
1070
     1
1070
     0
1002
{
1002
}
1000
DIMTOFL
1070
     1
1070
     1
1002
{
1002
}
1000
DIMTOLJ
1070
     1
1070
     1
1002
{
1002
}
1000
M
1070
     0
1002
{
1002
}
1000
I
1070
     0
1002
{
1002
}
1002
}
1002
}
1000
DimSet
1070
     0
1002
{
1000
ChainSum
1070
     3
1070
     0
1002
{
1002
}
1000
DimDclTyp0
1070
     4
1000
dim23
1002
{
1002
}
1000
HorBra
1070
     3
1070
     0
1002
{
1002
}
1000
StrDia
1070
     4
1000
%%c<>
1002
{
1002
}
1000
StrRad
1070
     4
1000
R<>
1002
{
1002
}
1000
TextMinus
1070
     4
1000
<>
1002
{
1002
}
1000
TextPlus
1070
     4
1000
<>
1002
{
1002
}
1000
M
1070
     0
1002
{
1000
DimdliFirst
1070
     2
1040
10.0
1002
{
1002
}
1000
PointMakeDist
1070
     2
1040
10.0
1002
{
1002
}
1002
}
1000
I
1070
     0
1002
{
1000
DimdliFirst
1070
     2
1040
0.5
1002
{
1002
}
1000
PointMakeDist
1070
     2
1040
0.5
1002
{
1002
}
1002
}
1000
FitGrade
1070
     4
1000
h7
1002
{
1002
}
1002
}
1000
Drawing
1070
     0
1002
{
1000
ChamferDimMode
1070
     1
1070
     2
1002
{
1002
}
1000
Gen_Fiso
1070
    -3
1040
1.0
1002
{
1002
}
1000
GenDimStil
1070
     4
1000
ISO
1002
{
1002
}
1000
GenDwgUScale
1070
     2
1040
1.0
1002
{
1002
}
1000
GenInch
1070
     4
1000
M
1002
{
1002
}
1000
GenPlotScale
1070
     4
1000
1:5
1002
{
1002
}
1000
Revisi
1070
     4
1000
0
1002
{
1002
}
1000
Version
1070
    -5
1000
14.01/Apr  1 1998
1002
{
1002
}
1000
Platform
1070
    -5
1000
WINNT
1002
{
1002
}
1002
}
1000
DwgVar
1070
     0
1002
{
1000
M
1070
     0
1002
{
1000
CHAMFERA
1070
     2
1040
0.00001
1002
{
1002
}
1000
CHAMFERB
1070
     2
1040
0.000001
1002
{
1002
}
1000
FILLETRAD
1070
     2
1040
0.000001
1002
{
1002
}
1000
LIMMAX
1070
     6
1010
-1.000000000000000E+20
1020
0.0
1030
0.0
1002
{
1002
}
1000
LTSCALE
1070
     2
1040
0.000001
1002
{
1002
}
1002
}
1000
I
1070
     0
1002
{
1000
CHAMFERA
1070
     2
1040
0.0
1002
{
1002
}
1000
CHAMFERB
1070
     2
1040
0.0
1002
{
1002
}
1000
FILLETRAD
1070
     2
1040
0.0
1002
{
1002
}
1000
LIMMAX
1070
     6
1010
-1.000000000000000E+20
1020
0.0
1030
0.0
1002
{
1002
}
1002
}
1002
}
1000
Hatch
1070
     0
1002
{
1000
GenHtcFlag
1070
     3
1070
     0
1002
{
1002
}
1002
}
1000
Info_Pos
1070
     0
1002
{
1000
>
1002
}
1000
Layer
1070
     7
1002
{
1000
Defs
1070
     0
1002
{
1000
>
1002
}
1000
EntSort
1070
     0
1002
{
1000
>
1002
}
1000
Match
1070
     0
1002
{
1002
}
1000
Settings
1070
     0
1002
{
1000
FocGrNC
1070
     3
1070
     0
1002
{
1002
}
1000
FocGrLo
1070
     3
1070
     0
1002
{
1002
}
1000
FocLoNC
1070
     3
1070
     0
1002
{
1002
}
1000
FocusCol
1070
     1
1070
   253
1002
{
1002
}
1000
GenStdLG
1070
     4
1000

1002
{
1002
}
1000
LayMatch
1070
     3
1070
     0
1002
{
1002
}
1000
LgOff
1070
     3
1070
     0
1002
{
1002
}
1000
CurLG
1070
    -5
1000

1002
{
1002
}
1002
}
1002
}
1000
LType
1070
     0
1002
{
1000
GEN3
1070
     8
1000
genius.lin
1002
{
1002
}
1000
GEN7
1070
     8
1000
genius.lin
1002
{
1002
}
1000
GEN4A
1070
     8
1000
genius.lin
1002
{
1002
}
1000
GEN3A
1070
     8
1000
genius.lin
1002
{
1002
}
1000
GEN7A
1070
     8
1000
genius.lin
1002
{
1002
}
1000
GENZIGZAG
1070
     8
1000
genius.lin
1002
{
1002
}
1002
}
1000
Objecter
1070
     0
1002
{
1000
CreateGroups
1070
     3
1070
     0
1002
{
1002
}
1000
LaySwitch
1070
     3
1070
     1
1002
{
1002
}
1000
LastObj
1070
    -5
1000
1C7D
1002
{
1002
}
1000
TimeStamp
1070
    -5
1000
20030120.15245976
1002
{
1002
}
1002
}
1000
OSWiz
1070
     0
1002
{
1000
Filter
1070
     0
1002
{
1000
HATCH
1070
     9
1002
{
1000
EntityType
1070
     4
1000
LINE
1002
{
1002
}
1000
Layer
1070
     4
1000
8,8N,*-8,*-8N
1002
{
1002
}
1000
Linetype
1070
     4
1000
*
1002
{
1002
}
1000
Color
1070
     4
1000
*
1002
{
1002
}
1000
ApplyInDims
1070
     3
1070
     1
1002
{
1002
}
1002
}
1000
SYMBOLS
1070
     9
1002
{
1000
EntityType
1070
     4
1000
*
1002
{
1002
}
1000
Layer
1070
     4
1000
[5-6],[5-6]N,*-[5-6],*-[5-6]N
1002
{
1002
}
1000
Linetype
1070
     4
1000
*
1002
{
1002
}
1000
Color
1070
     4
1000
*
1002
{
1002
}
1000
ApplyInDims
1070
     3
1070
     1
1002
{
1002
}
1002
}
1000
FEM
1070
     9
1002
{
1000
EntityType
1070
     4
1000
*
1002
{
1002
}
1000
Layer
1070
     4
1000
4A,4AN,*-4A,*-4AN
1002
{
1002
}
1000
Linetype
1070
     4
1000
*
1002
{
1002
}
1000
Color
1070
     4
1000
*
1002
{
1002
}
1000
ApplyInDims
1070
     3
1070
     1
1002
{
1002
}
1002
}
1002
}
1002
}
1000
PaList
1070
     0
1002
{
1000
AutoUpdatePartList
1070
     1
1070
     0
1002
{
1002
}
1000
ReadInfoPoint
1070
     3
1070
     0
1002
{
1002
}
1000
ReadPosNr
1070
     3
1070
     1
1002
{
1002
}
1000
RevStr
1070
     4
1000
0
1002
{
1002
}
1002
}
1000
Paper
1070
     0
1002
{
1000
Layer
1070
    -5
1000
KLIN,KLIN,5,KLIN
1002
{
1002
}
1002
}
1000
PartDB
1070
     0
1002
{
1000
GenDbOwner
1070
     4
1000

1002
{
1002
}
1002
}
1000
System
1070
     0
1002
{
1000
Menu
1070
     4
1000
GEV
1002
{
1002
}
1002
}
1000
Title
1070
     0
1002
{
1000
MakeView
1070
     1
1070
     2
1002
{
1002
}
1002
}
1000
Tools
1070
     0
1002
{
1000
Trans
1070
     0
1002
{
1000
Drawingtranslation
1070
    -4
1070
     1
1002
{
1002
}
1000
upreserve
1070
     3
1070
     0
1002
{
1002
}
1000
originally_on
1070
    -4
1070
     0
1002
{
1002
}
1000
sourcelang
1070
    -5
1000
D
1002
{
1002
}
1002
}
1002
}
  0
APPID
  5
1827
330
17AB
100
AcDbSymbolTableRecord
100
AcDbRegAppTableRecord
  2
GENIUS_GEVCFG0_13
 70
     0
1001
GENIUS_GENCFG_13
1071
1043072713
1000
1827
1000
GEV
1070
     1
1000
GenCfgObject
1000
VED
1070
     0
1002
{
1002
}
  0
APPID
  5
18EB
330
17AB
100
AcDbSymbolTableRecord
100
AcDbRegAppTableRecord
  2
GENIUS_GENODEF_13
 70
     0
  0
APPID
  5
18EC
330
17AB
100
AcDbSymbolTableRecord
100
AcDbRegAppTableRecord
  2
GENIUS_GENOBJ-N-CEN_13
 70
     0
  0
APPID
  5
18F1
330
17AB
100
AcDbSymbolTableRecord
100
AcDbRegAppTableRecord
  2
GENIUS_GENOBJ-N-FIL_13
 70
     0
  0
APPID
  5
19B1
330
17AB
100
AcDbSymbolTableRecord
100
AcDbRegAppTableRecord
  2
GENIUS_GENOBJ-N-HTC_13
 70
     0
  0
APPID
  5
19B2
330
17AB
100
AcDbSymbolTableRecord
100
AcDbRegAppTableRecord
  2
GENIUS_GENHATCH_13
 70
     0
  0
APPID
  5
1C50
330
17AB
100
AcDbSymbolTableRecord
100
AcDbRegAppTableRecord
  2
GENIUS_GENDTOL_13
 70
     0
  0
APPID
  5
1C51
330
17AB
100
AcDbSymbolTableRecord
100
AcDbRegAppTableRecord
  2
GENIUS_GENBLLY_14
 70
     0
  0
APPID
  5
1C52
330
17AB
100
AcDbSymbolTableRecord
100
AcDbRegAppTableRecord
  2
GENIUS_GENOBJ-N-CRS_13
 70
     0
  0
APPID
  5
1C53
330
17AB
100
AcDbSymbolTableRecord
100
AcDbRegAppTableRecord
  2
GENIUS_GENOREF_13
 70
     0
  0
APPID
  5
1C54
330
17AB
100
AcDbSymbolTableRecord
100
AcDbRegAppTableRecord
  2
GENIUS_GENOLIS_13
 70
     0
  0
APPID
  5
1C55
330
17AB
100
AcDbSymbolTableRecord
100
AcDbRegAppTableRecord
  2
GENIUS_VERSION2
 70
     0
  0
APPID
  5
1C56
330
17AB
100
AcDbSymbolTableRecord
100
AcDbRegAppTableRecord
  2
GENIUS_GENREC_14
 70
     0
  0
APPID
  5
1C57
330
17AB
100
AcDbSymbolTableRecord
100
AcDbRegAppTableRecord
  2
GENIUS_GENOBJ-N-REC_13
 70
     0
  0
APPID
  5
1C58
330
17AB
100
AcDbSymbolTableRecord
100
AcDbRegAppTableRecord
  2
GENIUS_GENOBJ-N-TIT_13
 70
     0
  0
APPID
  5
1C59
330
17AB
100
AcDbSymbolTableRecord
100
AcDbRegAppTableRecord
  2
GENIUS_GENTITLE_13
 70
     0
  0
APPID
  5
1C5A
330
17AB
100
AcDbSymbolTableRecord
100
AcDbRegAppTableRecord
  2
GENIUS_GENZVEED_13
 70
     0
  0
APPID
  5
1C5B
330
17AB
100
AcDbSymbolTableRecord
100
AcDbRegAppTableRecord
  2
GENIUS_GENOBJ-N-SDF_13
 70
     0
  0
APPID
  5
1C5C
330
17AB
100
AcDbSymbolTableRecord
100
AcDbRegAppTableRecord
  2
GENIUS_GENSCREG_13
 70
     0
  0
APPID
  5
1C5D
330
17AB
100
AcDbSymbolTableRecord
100
AcDbRegAppTableRecord
  2
GENIUS_GENBLKED_14
 70
     0
  0
APPID
  5
1F35
330
17AB
100
AcDbSymbolTableRecord
100
AcDbRegAppTableRecord
  2
MCAD_NO_VIS
 70
     0
  0
APPID
  5
1F36
330
17AB
100
AcDbSymbolTableRecord
100
AcDbRegAppTableRecord
  2
ACAD_TEMP_GRAPHIC
 70
     0
  0
APPID
  5
1F66
330
17AB
100
AcDbSymbolTableRecord
100
AcDbRegAppTableRecord
  2
AD_DRAW
 70
     0
  0
APPID
  5
1F69
330
17AB
100
AcDbSymbolTableRecord
100
AcDbRegAppTableRecord
  2
ACATTRIBSERVICES
 70
     0
  0
APPID
  5
1F89
330
17AB
100
AcDbSymbolTableRecord
100
AcDbRegAppTableRecord
  2
DESIGNERASSEMBLIES
 70
     0
  0
APPID
  5
1F8F
330
17AB
100
AcDbSymbolTableRecord
100
AcDbRegAppTableRecord
  2
ACADM_DIM_EDIT
 70
     0
  0
APPID
  5
1F90
330
17AB
100
AcDbSymbolTableRecord
100
AcDbRegAppTableRecord
  2
AMDT_DM_ADJ
 70
     0
  0
APPID
  5
1FC2
330
17AB
100
AcDbSymbolTableRecord
100
AcDbRegAppTableRecord
  2
ACAD_DSTYLE_DIMARC_LENGTH_SYMBOL
 70
     0
  0
APPID
  5
1FC3
330
17AB
100
AcDbSymbolTableRecord
100
AcDbRegAppTableRecord
  2
ACAD_DSTYLE_DIMJOGGED_JOGANGLE_SYMBOL
 70
     0
  0
ENDTAB
  0
TABLE
  2
DIMSTYLE
  5
17AC
330
0
100
AcDbSymbolTable
 70
     8
100
AcDbDimStyleTable
 71
     0
  0
DIMSTYLE
105
17D4
102
{ACAD_REACTORS
330
1C9B
330
1CF0
330
1D16
330
1D58
330
1DAB
330
1E3E
330
1EAE
102
}
330
17AC
100
AcDbSymbolTableRecord
100
AcDbDimStyleTableRecord
  2
GEN-ISO
 70
     0
  4
"
 40
5.0
 41
2.5
 42
1.0
 43
7.0
 44
1.0
 47
0.1
 48
0.1
 73
     0
 74
     0
 77
     1
 78
     8
140
3.5
141
0.0
143
0.03937
146
0.71
147
0.6
172
     1
176
   256
177
   256
178
     2
271
     2
272
     3
274
     4
283
     0
340
17B1
  0
DIMSTYLE
105
1FC1
330
17AC
100
AcDbSymbolTableRecord
100
AcDbDimStyleTableRecord
  2
AM_DIN
 70
     0
  4
"
 41
2.5
 42
1.0
 43
10.0
 44
1.0
 47
0.1
 48
0.1
 73
     0
 74
     0
 77
     1
 78
     8
 79
     2
140
3.5
141
0.0
143
0.0393701
146
0.71
147
1.5
172
     1
176
   256
177
   256
178
     2
271
     2
272
     3
274
     4
283
     0
284
     8
340
17B1
371
    -1
372
    -1
1001
ACAD_DSTYLE_DIMARC_LENGTH_SYMBOL
1070
   379
1070
     0
1001
ACAD_DSTYLE_DIMJOGGED_JOGANGLE_SYMBOL
1070
   384
1040
1.570796326794896
  0
DIMSTYLE
105
1FD2
330
17AC
100
AcDbSymbolTableRecord
100
AcDbDimStyleTableRecord
  2
AM_DIN$3
 70
     0
  4
"
 41
2.5
 42
1.0
 43
10.0
 44
1.0
 47
0.1
 48
0.1
 73
     0
 77
     1
 78
     8
 79
     2
140
3.5
141
0.0
143
0.0393701
146
0.71
147
1.5
176
   256
177
   256
178
     2
271
     2
272
     3
274
     4
283
     0
284
     8
288
     1
289
     0
340
17B1
371
    -1
372
    -1
1001
ACAD_DSTYLE_DIMARC_LENGTH_SYMBOL
1070
   379
1070
     0
1001
ACAD_DSTYLE_DIMJOGGED_JOGANGLE_SYMBOL
1070
   384
1040
1.570796326794896
  0
DIMSTYLE
105
1FD7
330
17AC
100
AcDbSymbolTableRecord
100
AcDbDimStyleTableRecord
  2
AM_DIN$4
 70
     0
  4
"
 41
2.5
 42
1.0
 43
10.0
 44
1.0
 47
0.1
 48
0.1
 73
     0
 77
     1
 78
     8
 79
     2
140
3.5
141
0.0
143
0.0393701
146
0.71
147
1.5
176
   256
177
   256
178
     2
271
     2
272
     3
274
     4
283
     0
284
     8
288
     1
289
     0
340
17B1
371
    -1
372
    -1
1001
ACAD_DSTYLE_DIMARC_LENGTH_SYMBOL
1070
   379
1070
     0
1001
ACAD_DSTYLE_DIMJOGGED_JOGANGLE_SYMBOL
1070
   384
1040
1.570796326794896
  0
DIMSTYLE
105
1FDC
330
17AC
100
AcDbSymbolTableRecord
100
AcDbDimStyleTableRecord
  2
AM_DIN$6
 70
     0
  4
"
 41
2.5
 42
1.0
 43
10.0
 44
1.0
 47
0.1
 48
0.1
 73
     0
 74
     0
 78
     8
 79
     2
140
3.5
141
0.0
143
0.0393701
146
0.71
147
1.5
172
     1
176
   256
177
   256
178
     2
271
     2
272
     3
274
     4
283
     0
284
     8
340
17B1
371
    -1
372
    -1
1001
ACAD_DSTYLE_DIMARC_LENGTH_SYMBOL
1070
   379
1070
     0
1001
ACAD_DSTYLE_DIMJOGGED_JOGANGLE_SYMBOL
1070
   384
1040
1.570796326794896
  0
DIMSTYLE
105
1FE1
330
17AC
100
AcDbSymbolTableRecord
100
AcDbDimStyleTableRecord
  2
AM_DIN$7
 70
     0
  4
"
 41
2.5
 42
1.0
 43
10.0
 44
1.0
 47
0.1
 48
0.1
 73
     0
 74
     0
 77
     1
 78
     8
 79
     2
140
5.0
141
0.0
143
0.0393701
146
0.71
147
1.5
172
     1
176
   256
177
   256
178
     2
271
     2
272
     3
274
     4
283
     0
284
     8
340
17B1
371
    -1
372
    -1
1001
ACAD_DSTYLE_DIMARC_LENGTH_SYMBOL
1070
   379
1070
     0
1001
ACAD_DSTYLE_DIMJOGGED_JOGANGLE_SYMBOL
1070
   384
1040
1.570796326794896
  0
DIMSTYLE
105
1FE6
330
17AC
100
AcDbSymbolTableRecord
100
AcDbDimStyleTableRecord
  2
AM_DIN$SF
 70
     0
  4
"
 41
2.5
 42
1.0
 43
10.0
 44
1.0
 47
0.1
 48
0.1
 73
     0
 74
     0
 75
     1
 76
     1
 77
     1
 78
     8
 79
     2
140
3.5
141
0.0
143
0.0393701
146
0.71
147
1.5
172
     1
176
   256
177
   256
178
     2
271
     2
272
     3
274
     4
283
     0
284
     8
340
17B1
371
    -1
372
    -1
1001
ACAD_DSTYLE_DIMARC_LENGTH_SYMBOL
1070
   379
1070
     0
1001
ACAD_DSTYLE_DIMJOGGED_JOGANGLE_SYMBOL
1070
   384
1040
1.570796326794896
  0
DIMSTYLE
105
1FEF
330
17AC
100
AcDbSymbolTableRecord
100
AcDbDimStyleTableRecord
  2
AM_DIN$SH
 70
     0
  4
"
 41
2.5
 42
1.0
 43
10.0
 44
1.0
 47
0.1
 48
0.1
 73
     0
 74
     0
 75
     1
 76
     1
 77
     1
 78
     8
 79
     2
140
3.5
141
0.0
143
0.0393701
144
2.0
146
0.71
147
1.5
172
     1
173
     1
176
   256
177
   256
178
     2
271
     2
272
     3
274
     4
283
     0
284
     8
340
17B1
343
1FE7
371
    -1
372
    -1
1001
ACAD_DSTYLE_DIMARC_LENGTH_SYMBOL
1070
   379
1070
     0
1001
ACAD_DSTYLE_DIMJOGGED_JOGANGLE_SYMBOL
1070
   384
1040
1.570796326794896
  0
ENDTAB
  0
TABLE
  2
BLOCK_RECORD
  5
17A3
330
0
100
AcDbSymbolTable
 70
    13
  0
BLOCK_RECORD
  5
17BA
330
17A3
100
AcDbSymbolTableRecord
100
AcDbBlockTableRecord
  2
*MODEL_SPACE
340
1F2D
  0
BLOCK_RECORD
  5
17B7
330
17A3
100
AcDbSymbolTableRecord
100
AcDbBlockTableRecord
  2
*PAPER_SPACE
340
1F2E
  0
BLOCK_RECORD
  5
17E9
330
17A3
100
AcDbSymbolTableRecord
100
AcDbBlockTableRecord
  2
*X0
340
0
102
{BLKREFS
331
1213
102
}
  0
BLOCK_RECORD
  5
17F1
330
17A3
100
AcDbSymbolTableRecord
100
AcDbBlockTableRecord
  2
*X1
340
0
102
{BLKREFS
331
1302
102
}
  0
BLOCK_RECORD
  5
1C22
330
17A3
100
AcDbSymbolTableRecord
100
AcDbBlockTableRecord
  2
KATALOG_LEER
340
0
102
{BLKREFS
331
1C5F
331
1C7C
102
}
  0
BLOCK_RECORD
  5
1C8E
330
17A3
100
AcDbSymbolTableRecord
100
AcDbBlockTableRecord
  2
*D4
340
0
  0
BLOCK_RECORD
  5
1CE4
330
17A3
100
AcDbSymbolTableRecord
100
AcDbBlockTableRecord
  2
*D5
340
0
  0
BLOCK_RECORD
  5
1D0A
330
17A3
100
AcDbSymbolTableRecord
100
AcDbBlockTableRecord
  2
*D6
340
0
  0
BLOCK_RECORD
  5
1D4A
330
17A3
100
AcDbSymbolTableRecord
100
AcDbBlockTableRecord
  2
*D7
340
0
  0
BLOCK_RECORD
  5
1D9F
330
17A3
100
AcDbSymbolTableRecord
100
AcDbBlockTableRecord
  2
*D8
340
0
  0
BLOCK_RECORD
  5
1E30
330
17A3
100
AcDbSymbolTableRecord
100
AcDbBlockTableRecord
  2
*D9
340
0
  0
BLOCK_RECORD
  5
1E9D
330
17A3
100
AcDbSymbolTableRecord
100
AcDbBlockTableRecord
  2
*D10
340
0
  0
BLOCK_RECORD
  5
1FE7
330
17A3
100
AcDbSymbolTableRecord
100
AcDbBlockTableRecord
  2
GENAXEH
340
0
  0
ENDTAB
  0
ENDSEC
  0
SECTION
  2
BLOCKS
  0
BLOCK
  5
17BB
330
17BA
100
AcDbEntity
  8
0
100
AcDbBlockBegin
  2
*MODEL_SPACE
 70
     0
 10
0.0
 20
0.0
 30
0.0
  3
*MODEL_SPACE
  1

  0
ENDBLK
  5
17BC
330
17BA
100
AcDbEntity
  8
0
100
AcDbBlockEnd
  0
BLOCK
  5
17B8
330
17B7
100
AcDbEntity
 67
     1
  8
0
100
AcDbBlockBegin
  2
*PAPER_SPACE
 70
     0
 10
0.0
 20
0.0
 30
0.0
  3
*PAPER_SPACE
  1

  0
ENDBLK
  5
17B9
330
17B7
100
AcDbEntity
 67
     1
  8
0
100
AcDbBlockEnd
  0
BLOCK
  5
11A8
330
17E9
100
AcDbEntity
  8
0
100
AcDbBlockBegin
  2
*X0
 70
     1
 10
0.0
 20
0.0
 30
0.0
  3
*X0
  1

  0
LINE
  5
11A9
330
17E9
100
AcDbEntity
  8
8
100
AcDbLine
 10
397.3780000000001
 20
191.714
 30
0.0
 11
400.4109999999999
 21
194.747
 31
0.0
  0
LINE
  5
11AA
330
17E9
100
AcDbEntity
  8
8
100
AcDbLine
 10
393.0019999999999
 20
191.828
 30
0.0
 11
398.852
 21
197.677
 31
0.0
  0
LINE
  5
11AB
330
17E9
100
AcDbEntity
  8
8
100
AcDbLine
 10
388.627
 20
191.942
 30
0.0
 11
394.314
 21
197.63
 31
0.0
  0
LINE
  5
11AC
330
17E9
100
AcDbEntity
  8
8
100
AcDbLine
 10
384.251
 20
192.057
 30
0.0
 11
389.777
 21
197.583
 31
0.0
  0
LINE
  5
11AD
330
17E9
100
AcDbEntity
  8
8
100
AcDbLine
 10
379.875
 20
192.171
 30
0.0
 11
385.24
 21
197.535
 31
0.0
  0
LINE
  5
11AE
330
17E9
100
AcDbEntity
  8
8
100
AcDbLine
 10
375.5
 20
192.286
 30
0.0
 11
380.702
 21
197.488
 31
0.0
  0
LINE
  5
11AF
330
17E9
100
AcDbEntity
  8
8
100
AcDbLine
 10
371.124
 20
192.4
 30
0.0
 11
376.165
 21
197.4409999999999
 31
0.0
  0
LINE
  5
11B0
330
17E9
100
AcDbEntity
  8
8
100
AcDbLine
 10
366.7480000000001
 20
192.514
 30
0.0
 11
371.6280000000001
 21
197.394
 31
0.0
  0
LINE
  5
11B1
330
17E9
100
AcDbEntity
  8
8
100
AcDbLine
 10
362.372
 20
192.629
 30
0.0
 11
367.246
 21
197.503
 31
0.0
  0
LINE
  5
11B2
330
17E9
100
AcDbEntity
  8
8
100
AcDbLine
 10
357.9969999999999
 20
192.743
 30
0.0
 11
362.871
 21
197.617
 31
0.0
  0
LINE
  5
11B3
330
17E9
100
AcDbEntity
  8
8
100
AcDbLine
 10
353.621
 20
192.857
 30
0.0
 11
358.495
 21
197.732
 31
0.0
  0
LINE
  5
11B4
330
17E9
100
AcDbEntity
  8
8
100
AcDbLine
 10
349.245
 20
192.972
 30
0.0
 11
354.12
 21
197.847
 31
0.0
  0
LINE
  5
11B5
330
17E9
100
AcDbEntity
  8
8
100
AcDbLine
 10
344.869
 20
193.086
 30
0.0
 11
349.744
 21
197.961
 31
0.0
  0
LINE
  5
11B6
330
17E9
100
AcDbEntity
  8
8
100
AcDbLine
 10
340.494
 20
193.201
 30
0.0
 11
345.369
 21
198.076
 31
0.0
  0
LINE
  5
11B7
330
17E9
100
AcDbEntity
  8
8
100
AcDbLine
 10
336.118
 20
193.315
 30
0.0
 11
340.9930000000001
 21
198.19
 31
0.0
  0
LINE
  5
11B8
330
17E9
100
AcDbEntity
  8
8
100
AcDbLine
 10
331.742
 20
193.429
 30
0.0
 11
336.618
 21
198.305
 31
0.0
  0
LINE
  5
11B9
330
17E9
100
AcDbEntity
  8
8
100
AcDbLine
 10
327.366
 20
193.544
 30
0.0
 11
332.242
 21
198.419
 31
0.0
  0
LINE
  5
11BA
330
17E9
100
AcDbEntity
  8
8
100
AcDbLine
 10
322.991
 20
193.658
 30
0.0
 11
327.8669999999999
 21
198.534
 31
0.0
  0
LINE
  5
11BB
330
17E9
100
AcDbEntity
  8
8
100
AcDbLine
 10
318.615
 20
193.772
 30
0.0
 11
323.491
 21
198.649
 31
0.0
  0
LINE
  5
11BC
330
17E9
100
AcDbEntity
  8
8
100
AcDbLine
 10
314.239
 20
193.887
 30
0.0
 11
319.115
 21
198.763
 31
0.0
  0
LINE
  5
11BD
330
17E9
100
AcDbEntity
  8
8
100
AcDbLine
 10
309.863
 20
194.001
 30
0.0
 11
314.74
 21
198.878
 31
0.0
  0
LINE
  5
11BE
330
17E9
100
AcDbEntity
  8
8
100
AcDbLine
 10
305.488
 20
194.116
 30
0.0
 11
310.364
 21
198.992
 31
0.0
  0
LINE
  5
11BF
330
17E9
100
AcDbEntity
  8
8
100
AcDbLine
 10
301.112
 20
194.23
 30
0.0
 11
305.989
 21
199.107
 31
0.0
  0
LINE
  5
11C0
330
17E9
100
AcDbEntity
  8
8
100
AcDbLine
 10
296.736
 20
194.344
 30
0.0
 11
301.613
 21
199.222
 31
0.0
  0
LINE
  5
11C1
330
17E9
100
AcDbEntity
  8
8
100
AcDbLine
 10
292.36
 20
194.459
 30
0.0
 11
297.238
 21
199.336
 31
0.0
  0
LINE
  5
11C2
330
17E9
100
AcDbEntity
  8
8
100
AcDbLine
 10
287.985
 20
194.573
 30
0.0
 11
292.862
 21
199.451
 31
0.0
  0
LINE
  5
11C3
330
17E9
100
AcDbEntity
  8
8
100
AcDbLine
 10
283.609
 20
194.688
 30
0.0
 11
288.487
 21
199.565
 31
0.0
  0
LINE
  5
11C4
330
17E9
100
AcDbEntity
  8
8
100
AcDbLine
 10
279.233
 20
194.802
 30
0.0
 11
284.111
 21
199.68
 31
0.0
  0
LINE
  5
11C5
330
17E9
100
AcDbEntity
  8
8
100
AcDbLine
 10
274.857
 20
194.916
 30
0.0
 11
279.735
 21
199.794
 31
0.0
  0
LINE
  5
11C6
330
17E9
100
AcDbEntity
  8
8
100
AcDbLine
 10
270.482
 20
195.0309999999999
 30
0.0
 11
275.36
 21
199.909
 31
0.0
  0
LINE
  5
11C7
330
17E9
100
AcDbEntity
  8
8
100
AcDbLine
 10
266.106
 20
195.145
 30
0.0
 11
270.984
 21
200.024
 31
0.0
  0
LINE
  5
11C8
330
17E9
100
AcDbEntity
  8
8
100
AcDbLine
 10
261.73
 20
195.259
 30
0.0
 11
266.609
 21
200.138
 31
0.0
  0
LINE
  5
11C9
330
17E9
100
AcDbEntity
  8
8
100
AcDbLine
 10
257.354
 20
195.374
 30
0.0
 11
262.233
 21
200.253
 31
0.0
  0
LINE
  5
11CA
330
17E9
100
AcDbEntity
  8
8
100
AcDbLine
 10
252.979
 20
195.488
 30
0.0
 11
257.858
 21
200.367
 31
0.0
  0
LINE
  5
11CB
330
17E9
100
AcDbEntity
  8
8
100
AcDbLine
 10
248.603
 20
195.603
 30
0.0
 11
253.482
 21
200.482
 31
0.0
  0
LINE
  5
11CC
330
17E9
100
AcDbEntity
  8
8
100
AcDbLine
 10
244.227
 20
195.717
 30
0.0
 11
249.107
 21
200.596
 31
0.0
  0
LINE
  5
11CD
330
17E9
100
AcDbEntity
  8
8
100
AcDbLine
 10
239.851
 20
195.831
 30
0.0
 11
244.731
 21
200.711
 31
0.0
  0
LINE
  5
11CE
330
17E9
100
AcDbEntity
  8
8
100
AcDbLine
 10
235.476
 20
195.946
 30
0.0
 11
240.356
 21
200.826
 31
0.0
  0
LINE
  5
11CF
330
17E9
100
AcDbEntity
  8
8
100
AcDbLine
 10
231.1
 20
196.06
 30
0.0
 11
235.98
 21
200.94
 31
0.0
  0
LINE
  5
11D0
330
17E9
100
AcDbEntity
  8
8
100
AcDbLine
 10
226.724
 20
196.175
 30
0.0
 11
231.604
 21
201.055
 31
0.0
  0
LINE
  5
11D1
330
17E9
100
AcDbEntity
  8
8
100
AcDbLine
 10
222.348
 20
196.289
 30
0.0
 11
227.229
 21
201.169
 31
0.0
  0
LINE
  5
11D2
330
17E9
100
AcDbEntity
  8
8
100
AcDbLine
 10
217.973
 20
196.403
 30
0.0
 11
222.853
 21
201.284
 31
0.0
  0
LINE
  5
11D3
330
17E9
100
AcDbEntity
  8
8
100
AcDbLine
 10
213.597
 20
196.518
 30
0.0
 11
218.478
 21
201.399
 31
0.0
  0
LINE
  5
11D4
330
17E9
100
AcDbEntity
  8
8
100
AcDbLine
 10
209.221
 20
196.632
 30
0.0
 11
214.102
 21
201.513
 31
0.0
  0
LINE
  5
11D5
330
17E9
100
AcDbEntity
  8
8
100
AcDbLine
 10
204.848
 20
196.749
 30
0.0
 11
209.727
 21
201.628
 31
0.0
  0
LINE
  5
11D6
330
17E9
100
AcDbEntity
  8
8
100
AcDbLine
 10
200.517
 20
196.909
 30
0.0
 11
205.351
 21
201.742
 31
0.0
  0
LINE
  5
11D7
330
17E9
100
AcDbEntity
  8
8
100
AcDbLine
 10
196.309
 20
197.19
 30
0.0
 11
201.012
 21
201.893
 31
0.0
  0
LINE
  5
11D8
330
17E9
100
AcDbEntity
  8
8
100
AcDbLine
 10
192.3529999999999
 20
197.724
 30
0.0
 11
196.841
 21
202.212
 31
0.0
  0
LINE
  5
11D9
330
17E9
100
AcDbEntity
  8
8
100
AcDbLine
 10
188.543
 20
198.405
 30
0.0
 11
192.811
 21
202.673
 31
0.0
  0
LINE
  5
11DA
330
17E9
100
AcDbEntity
  8
8
100
AcDbLine
 10
184.734
 20
199.085
 30
0.0
 11
189.077
 21
203.429
 31
0.0
  0
LINE
  5
11DB
330
17E9
100
AcDbEntity
  8
8
100
AcDbLine
 10
181.146
 20
199.988
 30
0.0
 11
185.343
 21
204.184
 31
0.0
  0
LINE
  5
11DC
330
17E9
100
AcDbEntity
  8
8
100
AcDbLine
 10
177.694
 20
201.026
 30
0.0
 11
181.609
 21
204.94
 31
0.0
  0
LINE
  5
11DD
330
17E9
100
AcDbEntity
  8
8
100
AcDbLine
 10
174.242
 20
202.064
 30
0.0
 11
178.259
 21
206.081
 31
0.0
  0
LINE
  5
11DE
330
17E9
100
AcDbEntity
  8
8
100
AcDbLine
 10
170.923
 20
203.235
 30
0.0
 11
174.922
 21
207.234
 31
0.0
  0
LINE
  5
11DF
330
17E9
100
AcDbEntity
  8
8
100
AcDbLine
 10
167.815
 20
204.617
 30
0.0
 11
171.586
 21
208.388
 31
0.0
  0
LINE
  5
11E0
330
17E9
100
AcDbEntity
  8
8
100
AcDbLine
 10
164.707
 20
206.0
 30
0.0
 11
168.369
 21
209.662
 31
0.0
  0
LINE
  5
11E1
330
17E9
100
AcDbEntity
  8
8
100
AcDbLine
 10
150.922
 20
196.705
 30
0.0
 11
154.337
 21
200.12
 31
0.0
  0
LINE
  5
11E2
330
17E9
100
AcDbEntity
  8
8
100
AcDbLine
 10
161.599
 20
207.382
 30
0.0
 11
165.382
 21
211.164
 31
0.0
  0
LINE
  5
11E3
330
17E9
100
AcDbEntity
  8
8
100
AcDbLine
 10
146.432
 20
196.705
 30
0.0
 11
156.342
 21
206.614
 31
0.0
  0
LINE
  5
11E4
330
17E9
100
AcDbEntity
  8
8
100
AcDbLine
 10
158.661
 20
208.934
 30
0.0
 11
162.394
 21
212.667
 31
0.0
  0
LINE
  5
11E5
330
17E9
100
AcDbEntity
  8
8
100
AcDbLine
 10
145.916
 20
200.679
 30
0.0
 11
159.407
 21
214.17
 31
0.0
  0
LINE
  5
11E6
330
17E9
100
AcDbEntity
  8
8
100
AcDbLine
 10
145.537
 20
204.79
 30
0.0
 11
156.585
 21
215.838
 31
0.0
  0
LINE
  5
11E7
330
17E9
100
AcDbEntity
  8
8
100
AcDbLine
 10
145.157
 20
208.9
 30
0.0
 11
153.917
 21
217.66
 31
0.0
  0
LINE
  5
11E8
330
17E9
100
AcDbEntity
  8
8
100
AcDbLine
 10
144.778
 20
213.011
 30
0.0
 11
151.249
 21
219.483
 31
0.0
  0
LINE
  5
11E9
330
17E9
100
AcDbEntity
  8
8
100
AcDbLine
 10
144.398
 20
217.122
 30
0.0
 11
148.581
 21
221.305
 31
0.0
  0
LINE
  5
11EA
330
17E9
100
AcDbEntity
  8
8
100
AcDbLine
 10
142.563
 20
219.776
 30
0.0
 11
146.083
 21
223.297
 31
0.0
  0
LINE
  5
11EB
330
17E9
100
AcDbEntity
  8
8
100
AcDbLine
 10
140.177
 20
221.881
 30
0.0
 11
143.719
 21
225.423
 31
0.0
  0
LINE
  5
11EC
330
17E9
100
AcDbEntity
  8
8
100
AcDbLine
 10
137.792
 20
223.985
 30
0.0
 11
141.355
 21
227.549
 31
0.0
  0
LINE
  5
11ED
330
17E9
100
AcDbEntity
  8
8
100
AcDbLine
 10
135.406
 20
226.09
 30
0.0
 11
138.991
 21
229.675
 31
0.0
  0
LINE
  5
11EE
330
17E9
100
AcDbEntity
  8
8
100
AcDbLine
 10
133.27
 20
228.444
 30
0.0
 11
136.787
 21
231.961
 31
0.0
  0
LINE
  5
11EF
330
17E9
100
AcDbEntity
  8
8
100
AcDbLine
 10
131.158
 20
230.822
 30
0.0
 11
134.722
 21
234.386
 31
0.0
  0
LINE
  5
11F0
330
17E9
100
AcDbEntity
  8
8
100
AcDbLine
 10
129.046
 20
233.2
 30
0.0
 11
132.658
 21
236.812
 31
0.0
  0
LINE
  5
11F1
330
17E9
100
AcDbEntity
  8
8
100
AcDbLine
 10
126.992
 20
235.637
 30
0.0
 11
130.593
 21
239.237
 31
0.0
  0
LINE
  5
11F2
330
17E9
100
AcDbEntity
  8
8
100
AcDbLine
 10
125.145
 20
238.279
 30
0.0
 11
128.687
 21
241.822
 31
0.0
  0
LINE
  5
11F3
330
17E9
100
AcDbEntity
  8
8
100
AcDbLine
 10
123.298
 20
240.922
 30
0.0
 11
126.929
 21
244.553
 31
0.0
  0
LINE
  5
11F4
330
17E9
100
AcDbEntity
  8
8
100
AcDbLine
 10
121.45
 20
243.565
 30
0.0
 11
125.17
 21
247.285
 31
0.0
  0
LINE
  5
11F5
330
17E9
100
AcDbEntity
  8
8
100
AcDbLine
 10
119.763
 20
246.368
 30
0.0
 11
123.411
 21
250.016
 31
0.0
  0
LINE
  5
11F6
330
17E9
100
AcDbEntity
  8
8
100
AcDbLine
 10
118.191
 20
249.286
 30
0.0
 11
121.841
 21
252.936
 31
0.0
  0
LINE
  5
11F7
330
17E9
100
AcDbEntity
  8
8
100
AcDbLine
 10
116.62
 20
252.205
 30
0.0
 11
120.407
 21
255.992
 31
0.0
  0
LINE
  5
11F8
330
17E9
100
AcDbEntity
  8
8
100
AcDbLine
 10
115.06
 20
255.135
 30
0.0
 11
118.972
 21
259.048
 31
0.0
  0
LINE
  5
11F9
330
17E9
100
AcDbEntity
  8
8
100
AcDbLine
 10
113.784
 20
258.35
 30
0.0
 11
117.538
 21
262.103
 31
0.0
  0
LINE
  5
11FA
330
17E9
100
AcDbEntity
  8
8
100
AcDbLine
 10
112.509
 20
261.564
 30
0.0
 11
116.387
 21
265.442
 31
0.0
  0
LINE
  5
11FB
330
17E9
100
AcDbEntity
  8
8
100
AcDbLine
 10
111.233
 20
264.779
 30
0.0
 11
115.31
 21
268.855
 31
0.0
  0
LINE
  5
11FC
330
17E9
100
AcDbEntity
  8
8
100
AcDbLine
 10
110.168
 20
268.204
 30
0.0
 11
114.232
 21
272.268
 31
0.0
  0
LINE
  5
11FD
330
17E9
100
AcDbEntity
  8
8
100
AcDbLine
 10
109.22
 20
271.746
 30
0.0
 11
113.253
 21
275.779
 31
0.0
  0
LINE
  5
11FE
330
17E9
100
AcDbEntity
  8
8
100
AcDbLine
 10
108.272
 20
275.288
 30
0.0
 11
112.62
 21
279.6359999999999
 31
0.0
  0
LINE
  5
11FF
330
17E9
100
AcDbEntity
  8
8
100
AcDbLine
 10
107.505
 20
279.011
 30
0.0
 11
111.987
 21
283.493
 31
0.0
  0
LINE
  5
1200
330
17E9
100
AcDbEntity
  8
8
100
AcDbLine
 10
106.97
 20
282.967
 30
0.0
 11
111.354
 21
287.351
 31
0.0
  0
LINE
  5
1201
330
17E9
100
AcDbEntity
  8
8
100
AcDbLine
 10
106.436
 20
286.922
 30
0.0
 11
110.912
 21
291.399
 31
0.0
  0
LINE
  5
1202
330
17E9
100
AcDbEntity
  8
8
100
AcDbLine
 10
105.987
 20
290.964
 30
0.0
 11
110.48
 21
295.457
 31
0.0
  0
LINE
  5
1203
330
17E9
100
AcDbEntity
  8
8
100
AcDbLine
 10
105.626
 20
295.093
 30
0.0
 11
110.049
 21
299.515
 31
0.0
  0
LINE
  5
1204
330
17E9
100
AcDbEntity
  8
8
100
AcDbLine
 10
105.044
 20
299.001
 30
0.0
 11
109.617
 21
303.573
 31
0.0
  0
LINE
  5
1205
330
17E9
100
AcDbEntity
  8
8
100
AcDbLine
 10
102.669
 20
301.115
 30
0.0
 11
108.257
 21
306.704
 31
0.0
  0
LINE
  5
1206
330
17E9
100
AcDbEntity
  8
8
100
AcDbLine
 10
98.49700000000002
 20
301.434
 30
0.0
 11
103.767
 21
306.704
 31
0.0
  0
LINE
  5
1207
330
17E9
100
AcDbEntity
  8
8
100
AcDbLine
 10
94.12200000000002
 20
301.549
 30
0.0
 11
99.27799999999999
 21
306.705
 31
0.0
  0
LINE
  5
1208
330
17E9
100
AcDbEntity
  8
8
100
AcDbLine
 10
90.07700000000001
 20
301.995
 30
0.0
 11
94.78799999999999
 21
306.705
 31
0.0
  0
LINE
  5
1209
330
17E9
100
AcDbEntity
  8
8
100
AcDbLine
 10
88.175
 20
304.583
 30
0.0
 11
93.72799999999999
 21
310.135
 31
0.0
  0
LINE
  5
120A
330
17E9
100
AcDbEntity
  8
8
100
AcDbLine
 10
87.804
 20
308.701
 30
0.0
 11
93.50399999999998
 21
314.402
 31
0.0
  0
LINE
  5
120B
330
17E9
100
AcDbEntity
  8
8
100
AcDbLine
 10
87.58
 20
312.968
 30
0.0
 11
93.281
 21
318.669
 31
0.0
  0
LINE
  5
120C
330
17E9
100
AcDbEntity
  8
8
100
AcDbLine
 10
87.35600000000001
 20
317.2340000000001
 30
0.0
 11
93.05699999999999
 21
322.935
 31
0.0
  0
LINE
  5
120D
330
17E9
100
AcDbEntity
  8
8
100
AcDbLine
 10
87.133
 20
321.501
 30
0.0
 11
92.834
 21
327.202
 31
0.0
  0
LINE
  5
120E
330
17E9
100
AcDbEntity
  8
8
100
AcDbLine
 10
86.78
 20
325.638
 30
0.0
 11
92.61000000000001
 21
331.468
 31
0.0
  0
LINE
  5
120F
330
17E9
100
AcDbEntity
  8
8
100
AcDbLine
 10
85.22
 20
328.5680000000001
 30
0.0
 11
92.38699999999999
 21
335.735
 31
0.0
  0
LINE
  5
1210
330
17E9
100
AcDbEntity
  8
8
100
AcDbLine
 10
83.74799999999998
 20
331.586
 30
0.0
 11
89.86600000000001
 21
337.705
 31
0.0
  0
LINE
  5
1211
330
17E9
100
AcDbEntity
  8
8
100
AcDbLine
 10
84.17799999999999
 20
336.5069999999999
 30
0.0
 11
85.37600000000001
 21
337.705
 31
0.0
  0
ENDBLK
  5
1212
330
17E9
100
AcDbEntity
  8
0
100
AcDbBlockEnd
  0
BLOCK
  5
12E2
330
17F1
100
AcDbEntity
  8
0
100
AcDbBlockBegin
  2
*X1
 70
     1
 10
0.0
 20
0.0
 30
0.0
  3
*X1
  1

  0
LINE
  5
12E3
330
17F1
100
AcDbEntity
  8
8
100
AcDbLine
 10
398.415
 20
296.023
 30
0.0
 11
404.0069999999999
 21
301.616
 31
0.0
  0
LINE
  5
12E4
330
17F1
100
AcDbEntity
  8
8
100
AcDbLine
 10
394.164
 20
296.262
 30
0.0
 11
399.6319999999999
 21
301.73
 31
0.0
  0
LINE
  5
12E5
330
17F1
100
AcDbEntity
  8
8
100
AcDbLine
 10
389.913
 20
296.502
 30
0.0
 11
395.256
 21
301.845
 31
0.0
  0
LINE
  5
12E6
330
17F1
100
AcDbEntity
  8
8
100
AcDbLine
 10
385.662
 20
296.741
 30
0.0
 11
390.881
 21
301.959
 31
0.0
  0
LINE
  5
12E7
330
17F1
100
AcDbEntity
  8
8
100
AcDbLine
 10
381.411
 20
296.98
 30
0.0
 11
386.505
 21
302.074
 31
0.0
  0
LINE
  5
12E8
330
17F1
100
AcDbEntity
  8
8
100
AcDbLine
 10
377.16
 20
297.219
 30
0.0
 11
382.13
 21
302.189
 31
0.0
  0
LINE
  5
12E9
330
17F1
100
AcDbEntity
  8
8
100
AcDbLine
 10
372.875
 20
297.424
 30
0.0
 11
377.754
 21
302.303
 31
0.0
  0
LINE
  5
12EA
330
17F1
100
AcDbEntity
  8
8
100
AcDbLine
 10
368.499
 20
297.539
 30
0.0
 11
373.379
 21
302.418
 31
0.0
  0
LINE
  5
12EB
330
17F1
100
AcDbEntity
  8
8
100
AcDbLine
 10
364.124
 20
297.653
 30
0.0
 11
369.0030000000001
 21
302.532
 31
0.0
  0
LINE
  5
12EC
330
17F1
100
AcDbEntity
  8
8
100
AcDbLine
 10
359.748
 20
297.768
 30
0.0
 11
364.6269999999999
 21
302.647
 31
0.0
  0
LINE
  5
12ED
330
17F1
100
AcDbEntity
  8
8
100
AcDbLine
 10
355.3730000000001
 20
297.882
 30
0.0
 11
360.252
 21
302.761
 31
0.0
  0
LINE
  5
12EE
330
17F1
100
AcDbEntity
  8
8
100
AcDbLine
 10
350.997
 20
297.997
 30
0.0
 11
355.876
 21
302.876
 31
0.0
  0
LINE
  5
12EF
330
17F1
100
AcDbEntity
  8
8
100
AcDbLine
 10
346.622
 20
298.111
 30
0.0
 11
351.501
 21
302.991
 31
0.0
  0
LINE
  5
12F0
330
17F1
100
AcDbEntity
  8
8
100
AcDbLine
 10
342.246
 20
298.226
 30
0.0
 11
347.125
 21
303.105
 31
0.0
  0
LINE
  5
12F1
330
17F1
100
AcDbEntity
  8
8
100
AcDbLine
 10
337.871
 20
298.341
 30
0.0
 11
342.75
 21
303.22
 31
0.0
  0
LINE
  5
12F2
330
17F1
100
AcDbEntity
  8
8
100
AcDbLine
 10
333.495
 20
298.455
 30
0.0
 11
338.374
 21
303.334
 31
0.0
  0
LINE
  5
12F3
330
17F1
100
AcDbEntity
  8
8
100
AcDbLine
 10
329.119
 20
298.57
 30
0.0
 11
333.999
 21
303.449
 31
0.0
  0
LINE
  5
12F4
330
17F1
100
AcDbEntity
  8
8
100
AcDbLine
 10
324.671
 20
298.611
 30
0.0
 11
329.623
 21
303.563
 31
0.0
  0
LINE
  5
12F5
330
17F1
100
AcDbEntity
  8
8
100
AcDbLine
 10
320.312
 20
298.743
 30
0.0
 11
326.611
 21
305.042
 31
0.0
  0
LINE
  5
12F6
330
17F1
100
AcDbEntity
  8
8
100
AcDbLine
 10
315.953
 20
298.874
 30
0.0
 11
325.7709999999999
 21
308.692
 31
0.0
  0
LINE
  5
12F7
330
17F1
100
AcDbEntity
  8
8
100
AcDbLine
 10
311.595
 20
299.005
 30
0.0
 11
326.022
 21
313.433
 31
0.0
  0
LINE
  5
12F8
330
17F1
100
AcDbEntity
  8
8
100
AcDbLine
 10
307.236
 20
299.137
 30
0.0
 11
314.804
 21
306.705
 31
0.0
  0
LINE
  5
12F9
330
17F1
100
AcDbEntity
  8
8
100
AcDbLine
 10
319.927
 20
311.828
 30
0.0
 11
326.273
 21
318.174
 31
0.0
  0
LINE
  5
12FA
330
17F1
100
AcDbEntity
  8
8
100
AcDbLine
 10
304.405
 20
300.796
 30
0.0
 11
310.314
 21
306.705
 31
0.0
  0
LINE
  5
12FB
330
17F1
100
AcDbEntity
  8
8
100
AcDbLine
 10
320.175
 20
316.566
 30
0.0
 11
326.523
 21
322.915
 31
0.0
  0
LINE
  5
12FC
330
17F1
100
AcDbEntity
  8
8
100
AcDbLine
 10
304.283
 20
305.165
 30
0.0
 11
305.824
 21
306.705
 31
0.0
  0
LINE
  5
12FD
330
17F1
100
AcDbEntity
  8
8
100
AcDbLine
 10
320.423
 20
321.305
 30
0.0
 11
329.89
 21
330.771
 31
0.0
  0
LINE
  5
12FE
330
17F1
100
AcDbEntity
  8
8
100
AcDbLine
 10
320.672
 20
326.043
 30
0.0
 11
329.529
 21
334.9
 31
0.0
  0
LINE
  5
12FF
330
17F1
100
AcDbEntity
  8
8
100
AcDbLine
 10
320.92
 20
330.781
 30
0.0
 11
327.843
 21
337.705
 31
0.0
  0
LINE
  5
1300
330
17F1
100
AcDbEntity
  8
8
100
AcDbLine
 10
321.168
 20
335.52
 30
0.0
 11
323.353
 21
337.705
 31
0.0
  0
ENDBLK
  5
1301
330
17F1
100
AcDbEntity
  8
0
100
AcDbBlockEnd
  0
BLOCK
  5
1C23
330
1C22
100
AcDbEntity
  8
0
100
AcDbBlockBegin
  2
KATALOG_LEER
 70
     0
 10
0.0
 20
0.0
 30
0.0
  3
KATALOG_LEER
  1

  0
ENDBLK
  5
1C24
330
1C22
100
AcDbEntity
  8
0
100
AcDbBlockEnd
  0
BLOCK
  5
1EF2
330
1C8E
100
AcDbEntity
  8
0
100
AcDbBlockBegin
  2
*D4
 70
     1
 10
0.0
 20
0.0
 30
0.0
  3
*D4
  1
GEVFRAME
  0
LINE
  5
2123
330
1C8E
100
AcDbEntity
  8
5
370
    -2
100
AcDbLine
 10
238.0975687569155
 20
345.2430357968664
 30
0.0
 11
64.88756775691562
 21
345.2430357968664
 31
0.0
  0
LINE
  5
2124
330
1C8E
100
AcDbEntity
  8
5
370
    -2
100
AcDbLine
 10
238.0975687569155
 20
98.82303579686618
 30
0.0
 11
64.88756775691559
 21
98.82303579686624
 31
0.0
  0
LINE
  5
2125
330
1C8E
100
AcDbEntity
  8
5
370
    -2
100
AcDbLine
 10
69.88756775691562
 20
332.7430357968664
 30
0.0
 11
69.88756775691559
 21
111.3230357968662
 31
0.0
  0
SOLID
  5
2126
330
1C8E
100
AcDbEntity
  8
5
100
AcDbTrace
 10
67.8042344235823
 20
332.7430357968664
 30
0.0
 11
71.97090109024895
 21
332.7430357968664
 31
0.0
 12
69.88756775691562
 22
345.2430357968664
 32
0.0
 13
69.88756775691562
 23
345.2430357968664
 33
0.0
  0
SOLID
  5
2127
330
1C8E
100
AcDbEntity
  8
5
100
AcDbTrace
 10
67.80423442358226
 20
111.3230357968662
 30
0.0
 11
71.97090109024891
 21
111.3230357968662
 31
0.0
 12
69.88756775691559
 22
98.82303579686624
 32
0.0
 13
69.88756775691559
 23
98.82303579686624
 33
0.0
  0
MTEXT
  5
2128
330
1C8E
100
AcDbEntity
  8
5
 62
     2
100
AcDbMText
 10
58.13584531597069
 20
222.0330357968663
 30
0.0
 40
17.5
 41
0.0
 71
     5
 72
     1
  1
245
 11
0.0000000000000001
 21
1.0
 31
0.0
 73
     1
 44
1.0
1001
ACAD
1000
MTEXTBEGIN
1070
    73
1070
     1
1070
    44
1040
1.0
1070
    74
1070
     0
1000
MTEXTEND
  0
POINT
  5
2129
330
1C8E
100
AcDbEntity
  8
DEFPOINTS
 62
     0
100
AcDbPoint
 10
243.0975687569155
 20
345.2430357968664
 30
0.0
  0
POINT
  5
212A
330
1C8E
100
AcDbEntity
  8
DEFPOINTS
 62
     0
100
AcDbPoint
 10
243.0975687569155
 20
98.82303579686618
 30
0.0
  0
POINT
  5
212B
330
1C8E
100
AcDbEntity
  8
DEFPOINTS
 62
     0
100
AcDbPoint
 10
69.88756775691559
 20
98.82303579686624
 30
0.0
  0
ENDBLK
  5
1EFC
330
1C8E
100
AcDbEntity
  8
0
100
AcDbBlockEnd
  0
BLOCK
  5
1CFC
330
1CE4
100
AcDbEntity
  8
0
100
AcDbBlockBegin
  2
*D5
 70
     1
 10
0.0
 20
0.0
 30
0.0
  3
*D5
  1
GEVFRAME
  0
LINE
  5
212C
330
1CE4
100
AcDbEntity
  8
5
370
    -2
100
AcDbLine
 10
115.5975687569155
 20
621.0288177968663
 30
0.0
 11
64.88956775691557
 21
621.0288177968663
 31
0.0
  0
LINE
  5
212D
330
1CE4
100
AcDbEntity
  8
5
370
    -2
100
AcDbLine
 10
177.5975687569155
 20
480.0288177968663
 30
0.0
 11
64.88956775691554
 21
480.0288177968663
 31
0.0
  0
LINE
  5
212E
330
1CE4
100
AcDbEntity
  8
5
370
    -2
100
AcDbLine
 10
69.88956775691557
 20
608.5288177968663
 30
0.0
 11
69.88956775691554
 21
492.5288177968663
 31
0.0
  0
SOLID
  5
212F
330
1CE4
100
AcDbEntity
  8
5
100
AcDbTrace
 10
67.80623442358224
 20
608.5288177968663
 30
0.0
 11
71.9729010902489
 21
608.5288177968663
 31
0.0
 12
69.88956775691557
 22
621.0288177968663
 32
0.0
 13
69.88956775691557
 23
621.0288177968663
 33
0.0
  0
SOLID
  5
2130
330
1CE4
100
AcDbEntity
  8
5
100
AcDbTrace
 10
67.80623442358221
 20
492.5288177968663
 30
0.0
 11
71.97290109024887
 21
492.5288177968663
 31
0.0
 12
69.88956775691554
 22
480.0288177968663
 32
0.0
 13
69.88956775691554
 23
480.0288177968663
 33
0.0
  0
MTEXT
  5
2131
330
1CE4
100
AcDbEntity
  8
5
 62
     2
100
AcDbMText
 10
58.13956775691546
 20
550.5288177968663
 30
0.0
 40
17.5
 41
0.0
 71
     5
 72
     1
  1
141
 11
0.0000000000000001
 21
1.0
 31
0.0
 73
     1
 44
1.0
1001
ACAD
1000
MTEXTBEGIN
1070
    73
1070
     1
1070
    44
1040
1.0
1070
    74
1070
     0
1000
MTEXTEND
  0
POINT
  5
2132
330
1CE4
100
AcDbEntity
  8
DEFPOINTS
 62
     0
100
AcDbPoint
 10
120.5975687569155
 20
621.0288177968663
 30
0.0
  0
POINT
  5
2133
330
1CE4
100
AcDbEntity
  8
DEFPOINTS
 62
     0
100
AcDbPoint
 10
182.5975687569155
 20
480.0288177968663
 30
0.0
  0
POINT
  5
2134
330
1CE4
100
AcDbEntity
  8
DEFPOINTS
 62
     0
100
AcDbPoint
 10
69.88956775691554
 20
480.0288177968663
 30
0.0
  0
ENDBLK
  5
1D06
330
1CE4
100
AcDbEntity
  8
0
100
AcDbBlockEnd
  0
BLOCK
  5
1D38
330
1D0A
100
AcDbEntity
  8
0
100
AcDbBlockBegin
  2
*D6
 70
     1
 10
0.0
 20
0.0
 30
0.0
  3
*D6
  1
GEVFRAME
  0
LINE
  5
2135
330
1D0A
100
AcDbEntity
  8
5
370
    -2
100
AcDbLine
 10
243.0975687569155
 20
475.0288177968663
 30
0.0
 11
243.0975687569155
 21
425.0288177968663
 31
0.0
  0
LINE
  5
2136
330
1D0A
100
AcDbEntity
  8
5
370
    -2
100
AcDbLine
 10
439.1445687569155
 20
525.0288177968663
 30
0.0
 11
439.1445687569155
 21
425.0288177968663
 31
0.0
  0
LINE
  5
2137
330
1D0A
100
AcDbEntity
  8
5
370
    -2
100
AcDbLine
 10
255.5975687569155
 20
430.0288177968663
 30
0.0
 11
426.6445687569155
 21
430.0288177968663
 31
0.0
  0
SOLID
  5
2138
330
1D0A
100
AcDbEntity
  8
5
100
AcDbTrace
 10
255.5975687569155
 20
432.1121511301996
 30
0.0
 11
255.5975687569155
 21
427.9454844635329
 31
0.0
 12
243.0975687569155
 22
430.0288177968663
 32
0.0
 13
243.0975687569155
 23
430.0288177968663
 33
0.0
  0
SOLID
  5
2139
330
1D0A
100
AcDbEntity
  8
5
100
AcDbTrace
 10
426.6445687569155
 20
432.1121511301996
 30
0.0
 11
426.6445687569155
 21
427.9454844635329
 31
0.0
 12
439.1445687569155
 22
430.0288177968663
 32
0.0
 13
439.1445687569155
 23
430.0288177968663
 33
0.0
  0
MTEXT
  5
213A
330
1D0A
100
AcDbEntity
  8
5
 62
     2
100
AcDbMText
 10
341.1210687569155
 20
441.7788177968662
 30
0.0
 40
17.5
 41
0.0
 71
     5
 72
     1
  1
196
 73
     1
 44
1.0
1001
ACAD
1000
MTEXTBEGIN
1070
    73
1070
     1
1070
    44
1040
1.0
1070
    74
1070
     0
1000
MTEXTEND
  0
POINT
  5
213B
330
1D0A
100
AcDbEntity
  8
DEFPOINTS
 62
     0
100
AcDbPoint
 10
243.0975687569155
 20
480.0288177968663
 30
0.0
  0
POINT
  5
213C
330
1D0A
100
AcDbEntity
  8
DEFPOINTS
 62
     0
100
AcDbPoint
 10
439.1445687569155
 20
530.0288177968663
 30
0.0
  0
POINT
  5
213D
330
1D0A
100
AcDbEntity
  8
DEFPOINTS
 62
     0
100
AcDbPoint
 10
439.1445687569155
 20
430.0288177968663
 30
0.0
  0
ENDBLK
  5
1D42
330
1D0A
100
AcDbEntity
  8
0
100
AcDbBlockEnd
  0
BLOCK
  5
1D8E
330
1D4A
100
AcDbEntity
  8
0
100
AcDbBlockBegin
  2
*D7
 70
     1
 10
0.0
 20
0.0
 30
0.0
  3
*D7
  1
GEVFRAME
  0
LINE
  5
213E
330
1D4A
100
AcDbEntity
  8
5
370
    -2
100
AcDbLine
 10
370.5975687569155
 20
621.0288177968663
 30
0.0
 11
408.8475687569156
 21
621.0288177968663
 31
0.0
  0
LINE
  5
213F
330
1D4A
100
AcDbEntity
  8
5
370
    -2
100
AcDbLine
 10
248.0975687569155
 20
610.163183796866
 30
0.0
 11
408.8475687569156
 21
610.163183796866
 31
0.0
  0
LINE
  5
2140
330
1D4A
100
AcDbEntity
  8
5
370
    -2
100
AcDbLine
 10
403.8475687569155
 20
597.663183796866
 30
0.0
 11
403.8475687569155
 21
585.163183796866
 31
0.0
  0
LINE
  5
2141
330
1D4A
100
AcDbEntity
  8
5
370
    -2
100
AcDbLine
 10
403.8475687569155
 20
633.5288177968663
 30
0.0
 11
403.8475687569156
 21
667.7925973244254
 31
0.0
  0
LINE
  5
2142
330
1D4A
100
AcDbEntity
  8
5
370
    -2
100
AcDbLine
 10
403.8475687569155
 20
610.163183796866
 30
0.0
 11
403.8475687569155
 21
621.0288177968663
 31
0.0
  0
SOLID
  5
2143
330
1D4A
100
AcDbEntity
  8
5
100
AcDbTrace
 10
401.7642354235822
 20
597.663183796866
 30
0.0
 11
405.9309020902488
 21
597.663183796866
 31
0.0
 12
403.8475687569155
 22
610.163183796866
 32
0.0
 13
403.8475687569155
 23
610.163183796866
 33
0.0
  0
SOLID
  5
2144
330
1D4A
100
AcDbEntity
  8
5
100
AcDbTrace
 10
401.7642354235822
 20
633.5288177968663
 30
0.0
 11
405.9309020902488
 21
633.5288177968663
 31
0.0
 12
403.8475687569155
 22
621.0288177968663
 32
0.0
 13
403.8475687569155
 23
621.0288177968663
 33
0.0
  0
MTEXT
  5
2145
330
1D4A
100
AcDbEntity
  8
5
 62
     2
100
AcDbMText
 10
392.0975687569155
 20
656.9107075606459
 30
0.0
 40
17.5
 41
0.0
 71
     5
 72
     1
  1
10
 11
0.0000000000000001
 21
1.0
 31
0.0
 73
     1
 44
1.0
1001
ACAD
1000
MTEXTBEGIN
1070
    73
1070
     1
1070
    44
1040
1.0
1070
    74
1070
     0
1000
MTEXTEND
  0
POINT
  5
2146
330
1D4A
100
AcDbEntity
  8
DEFPOINTS
 62
     0
100
AcDbPoint
 10
365.5975687569155
 20
621.0288177968663
 30
0.0
  0
POINT
  5
2147
330
1D4A
100
AcDbEntity
  8
DEFPOINTS
 62
     0
100
AcDbPoint
 10
243.0975687569155
 20
610.163183796866
 30
0.0
  0
POINT
  5
2148
330
1D4A
100
AcDbEntity
  8
DEFPOINTS
 62
     0
100
AcDbPoint
 10
403.8475687569155
 20
610.163183796866
 30
0.0
  0
ENDBLK
  5
1D9A
330
1D4A
100
AcDbEntity
  8
0
100
AcDbBlockEnd
  0
BLOCK
  5
1E21
330
1D9F
100
AcDbEntity
  8
0
100
AcDbBlockBegin
  2
*D8
 70
     1
 10
0.0
 20
0.0
 30
0.0
  3
*D8
  1
GEVFRAME
  0
LINE
  5
2149
330
1D9F
100
AcDbEntity
  8
5
370
    -2
100
AcDbLine
 10
370.5975687569155
 20
621.0288177968663
 30
0.0
 11
521.6601497569157
 21
621.0288177968663
 31
0.0
  0
LINE
  5
214A
330
1D9F
100
AcDbEntity
  8
5
370
    -2
100
AcDbLine
 10
444.1445687569155
 20
530.0288177968663
 30
0.0
 11
521.6601497569157
 21
530.0288177968663
 31
0.0
  0
LINE
  5
214B
330
1D9F
100
AcDbEntity
  8
5
370
    -2
100
AcDbLine
 10
516.6601497569157
 20
608.5288177968663
 30
0.0
 11
516.6601497569157
 21
542.5288177968663
 31
0.0
  0
SOLID
  5
214C
330
1D9F
100
AcDbEntity
  8
5
100
AcDbTrace
 10
514.5768164235824
 20
608.5288177968663
 30
0.0
 11
518.7434830902491
 21
608.5288177968663
 31
0.0
 12
516.6601497569157
 22
621.0288177968663
 32
0.0
 13
516.6601497569157
 23
621.0288177968663
 33
0.0
  0
SOLID
  5
214D
330
1D9F
100
AcDbEntity
  8
5
100
AcDbTrace
 10
514.5768164235824
 20
542.5288177968663
 30
0.0
 11
518.7434830902491
 21
542.5288177968663
 31
0.0
 12
516.6601497569157
 22
530.0288177968663
 32
0.0
 13
516.6601497569157
 23
530.0288177968663
 33
0.0
  0
MTEXT
  5
214E
330
1D9F
100
AcDbEntity
  8
5
 62
     2
100
AcDbMText
 10
504.9101497569156
 20
575.5288177968663
 30
0.0
 40
17.5
 41
0.0
 71
     5
 72
     1
  1
91
 11
0.0000000000000001
 21
1.0
 31
0.0
 73
     1
 44
1.0
1001
ACAD
1000
MTEXTBEGIN
1070
    73
1070
     1
1070
    44
1040
1.0
1070
    74
1070
     0
1000
MTEXTEND
  0
POINT
  5
214F
330
1D9F
100
AcDbEntity
  8
DEFPOINTS
 62
     0
100
AcDbPoint
 10
365.5975687569155
 20
621.0288177968663
 30
0.0
  0
POINT
  5
2150
330
1D9F
100
AcDbEntity
  8
DEFPOINTS
 62
     0
100
AcDbPoint
 10
439.1445687569155
 20
530.0288177968663
 30
0.0
  0
POINT
  5
2151
330
1D9F
100
AcDbEntity
  8
DEFPOINTS
 62
     0
100
AcDbPoint
 10
516.6601497569157
 20
530.0288177968663
 30
0.0
  0
ENDBLK
  5
1E2B
330
1D9F
100
AcDbEntity
  8
0
100
AcDbBlockEnd
  0
BLOCK
  5
1E66
330
1E30
100
AcDbEntity
  8
0
100
AcDbBlockBegin
  2
*D9
 70
     1
 10
0.0
 20
0.0
 30
0.0
  3
*D9
  1
GEVFRAME
  0
LINE
  5
2152
330
1E30
100
AcDbEntity
  8
5
370
    -2
100
AcDbLine
 10
287.8387177569157
 20
152.0566147968662
 30
0.0
 11
287.8387177569157
 21
43.82303479686618
 31
0.0
  0
LINE
  5
2153
330
1E30
100
AcDbEntity
  8
5
370
    -2
100
AcDbLine
 10
304.9558297569156
 20
173.8559097968663
 30
0.0
 11
304.9558297569156
 21
43.82303479686618
 31
0.0
  0
LINE
  5
2154
330
1E30
100
AcDbEntity
  8
5
370
    -2
100
AcDbLine
 10
275.3387177569157
 20
48.82303479686618
 30
0.0
 11
262.8387177569157
 21
48.82303479686618
 31
0.0
  0
LINE
  5
2155
330
1E30
100
AcDbEntity
  8
5
370
    -2
100
AcDbLine
 10
317.4558297569156
 20
48.82303479686618
 30
0.0
 11
351.7058297569156
 21
48.82303479686618
 31
0.0
  0
LINE
  5
2156
330
1E30
100
AcDbEntity
  8
5
370
    -2
100
AcDbLine
 10
287.8387177569157
 20
48.82303479686618
 30
0.0
 11
304.9558297569156
 21
48.82303479686618
 31
0.0
  0
SOLID
  5
2157
330
1E30
100
AcDbEntity
  8
5
100
AcDbTrace
 10
275.3387177569157
 20
50.90636813019951
 30
0.0
 11
275.3387177569157
 21
46.73970146353284
 31
0.0
 12
287.8387177569157
 22
48.82303479686618
 32
0.0
 13
287.8387177569157
 23
48.82303479686618
 33
0.0
  0
SOLID
  5
2158
330
1E30
100
AcDbEntity
  8
5
100
AcDbTrace
 10
317.4558297569156
 20
50.90636813019951
 30
0.0
 11
317.4558297569156
 21
46.73970146353284
 31
0.0
 12
304.9558297569156
 22
48.82303479686618
 32
0.0
 13
304.9558297569156
 23
48.82303479686618
 33
0.0
  0
MTEXT
  5
2159
330
1E30
100
AcDbEntity
  8
5
 62
     2
100
AcDbMText
 10
340.8308297569156
 20
60.57303479686618
 30
0.0
 40
17.5
 41
0.0
 71
     5
 72
     1
  1
18
 73
     1
 44
1.0
1001
ACAD
1000
MTEXTBEGIN
1070
    73
1070
     1
1070
    44
1040
1.0
1070
    74
1070
     0
1000
MTEXTEND
  0
POINT
  5
215A
330
1E30
100
AcDbEntity
  8
DEFPOINTS
 62
     0
100
AcDbPoint
 10
287.8387177569157
 20
157.0566147968662
 30
0.0
  0
POINT
  5
215B
330
1E30
100
AcDbEntity
  8
DEFPOINTS
 62
     0
100
AcDbPoint
 10
304.9558297569156
 20
178.8559097968663
 30
0.0
  0
POINT
  5
215C
330
1E30
100
AcDbEntity
  8
DEFPOINTS
 62
     0
100
AcDbPoint
 10
304.9558297569156
 20
48.82303479686618
 30
0.0
  0
ENDBLK
  5
1E72
330
1E30
100
AcDbEntity
  8
0
100
AcDbBlockEnd
  0
BLOCK
  5
1EDF
330
1E9D
100
AcDbEntity
  8
0
100
AcDbBlockBegin
  2
*D10
 70
     1
 10
0.0
 20
0.0
 30
0.0
  3
*D10
  1
GEVFRAME
  0
LINE
  5
215D
330
1E9D
100
AcDbEntity
  8
5
370
    -2
100
AcDbLine
 10
462.3328552701564
 20
529.4199287921549
 30
0.0
 11
497.8693802529558
 21
528.4893418052802
 31
0.0
  0
ARC
  5
215E
330
1E9D
100
AcDbEntity
  8
5
370
    -2
100
AcDbCircle
 10
439.0810801724397
 20
530.0288177968662
 30
0.0
 40
53.80845358182345
100
AcDbArc
 50
331.6342619714328
 51
358.4999511309025
  0
LINE
  5
215F
330
1E9D
100
AcDbEntity
  8
5
370
    -2
100
AcDbLine
 10
486.4289050828196
 20
504.4645232999853
 30
0.0
 11
475.0529708062742
 21
483.3950686203902
 31
0.0
  0
ARC
  5
2160
330
1E9D
100
AcDbEntity
  8
5
370
    -2
100
AcDbCircle
 10
439.0810801724397
 20
530.0288177968662
 30
0.0
 40
53.80845358182345
100
AcDbArc
 50
331.8194770729256
 51
345.1597141019141
  0
ARC
  5
2161
330
1E9D
100
AcDbEntity
  8
5
370
    -2
100
AcDbCircle
 10
439.0810801724397
 20
530.0288177968662
 30
0.0
 40
53.80845358182345
100
AcDbArc
 50
13.34023702898846
 51
26.68047405797692
  0
ARC
  5
2162
330
1E9D
100
AcDbEntity
  8
5
370
    -2
100
AcDbCircle
 10
439.0810801724397
 20
530.0288177968662
 30
0.0
 40
53.80845358182345
100
AcDbArc
 50
358.4999511309025
 51
0.0
  0
SOLID
  5
2163
330
1E9D
100
AcDbEntity
  8
5
100
AcDbTrace
 10
489.0324859851419
 20
516.543171222314
 30
0.0
 11
493.1568624867979
 21
515.9510313877324
 31
0.0
 12
492.8710937397148
 22
528.6202308099914
 32
0.0
 13
492.8710937397148
 23
528.6202308099914
 33
0.0
  0
SOLID
  5
2164
330
1E9D
100
AcDbEntity
  8
5
100
AcDbTrace
 10
493.5068563497267
 20
542.6861947206569
 30
0.0
 11
489.3683923422561
 21
542.2022249178996
 31
0.0
 12
492.889533754263
 22
530.0288177968663
 32
0.0
 13
492.889533754263
 23
530.0288177968663
 33
0.0
  0
MTEXT
  5
2165
330
1E9D
100
AcDbEntity
  8
5
 62
     2
100
AcDbMText
 10
470.4002115439428
 20
499.5130170588778
 30
0.0
 40
17.5
 41
0.0
 71
     5
 72
     1
  1
2°
 11
0.4750981081068756
 21
0.8799328313418403
 31
0.0
 73
     1
 44
1.0
1001
ACAD
1000
MTEXTBEGIN
1070
    73
1070
     1
1070
    44
1040
1.0
1070
    74
1070
     0
1000
MTEXTEND
  0
POINT
  5
2166
330
1E9D
100
AcDbEntity
  8
DEFPOINTS
 62
     0
100
AcDbPoint
 10
492.8874847597263
 20
529.559241118933
 30
0.0
  0
POINT
  5
2167
330
1E9D
100
AcDbEntity
  8
DEFPOINTS
 62
     0
100
AcDbPoint
 10
298.4375687569157
 20
533.7118177968663
 30
0.0
  0
POINT
  5
2168
330
1E9D
100
AcDbEntity
  8
DEFPOINTS
 62
     0
100
AcDbPoint
 10
-5.060724243084451
 20
530.0288177968663
 30
0.0
  0
POINT
  5
2169
330
1E9D
100
AcDbEntity
  8
DEFPOINTS
 62
     0
100
AcDbPoint
 10
1044.939275756915
 20
530.0288177968663
 30
0.0
  0
POINT
  5
216A
330
1E9D
100
AcDbEntity
  8
DEFPOINTS
 62
     0
100
AcDbPoint
 10
457.3345687569156
 20
529.5508177968662
 30
0.0
  0
ENDBLK
  5
1EEE
330
1E9D
100
AcDbEntity
  8
0
100
AcDbBlockEnd
  0
BLOCK
  5
1FE9
330
1FE7
100
AcDbEntity
  8
0
100
AcDbBlockBegin
  2
GENAXEH
 70
     0
 10
0.0
 20
0.0
 30
0.0
  3
GENAXEH
  1

  0
LINE
  5
1FE8
330
1FE7
100
AcDbEntity
  8
0
100
AcDbLine
 10
-1.0
 20
0.0
 30
0.0
 11
1.0
 21
0.0
 31
0.0
  0
ENDBLK
  5
1FEA
330
1FE7
100
AcDbEntity
  8
0
100
AcDbBlockEnd
  0
ENDSEC
  0
SECTION
  2
ENTITIES
  0
LINE
  5
1015
330
17BA
100
AcDbEntity
  8
0
100
AcDbLine
 10
120.5975687569155
 20
621.0288177968663
 30
0.0
 11
365.5975687569155
 21
621.0288177968663
 31
0.0
  0
LINE
  5
1016
330
17BA
100
AcDbEntity
  8
7
100
AcDbLine
 10
243.0975687569155
 20
629.0188177968663
 30
0.0
 11
243.0975687569155
 21
480.0288177968663
 31
0.0
  0
ARC
  5
1017
330
17BA
100
AcDbEntity
  8
0
100
AcDbCircle
 10
243.0975687569155
 20
581.0288177968662
 30
0.0
 40
101.0
100
AcDbArc
 50
184.9999999999994
 51
231.5930000000035
  0
LINE
  5
101A
330
17BA
100
AcDbEntity
  8
0
100
AcDbLine
 10
340.5975687569155
 20
590.0288177968662
 30
0.0
 11
340.5975687569155
 21
584.9788177968663
 31
0.0
  0
LINE
  5
101B
330
17BA
100
AcDbEntity
  8
0
100
AcDbLine
 10
356.0525687569157
 20
591.5448177968663
 30
0.0
 11
357.5975687569155
 21
621.0288177968663
 31
0.0
  0
LINE
  5
101C
330
17BA
100
AcDbEntity
  8
0
100
AcDbLine
 10
130.1425687569156
 20
591.5448177968663
 30
0.0
 11
128.5975687569155
 21
621.0288177968663
 31
0.0
  0
LINE
  5
101D
330
17BA
100
AcDbEntity
  8
0
100
AcDbLine
 10
119.8895687569156
 20
612.9388177968664
 30
0.0
 11
120.5975687569155
 21
621.0288177968663
 31
0.0
  0
LINE
  5
101E
330
17BA
100
AcDbEntity
  8
0
100
AcDbLine
 10
147.6365687569155
 20
570.8688177968664
 30
0.0
 11
145.5975687569155
 21
590.0288177968662
 31
0.0
  0
LINE
  5
101F
330
17BA
100
AcDbEntity
  8
0
100
AcDbLine
 10
124.2915687569157
 20
588.7208177968663
 30
0.0
 11
123.2885687569155
 21
607.8428177968663
 31
0.0
  0
LINE
  5
1020
330
17BA
100
AcDbEntity
  8
0
100
AcDbLine
 10
237.8125687569156
 20
480.1668177968664
 30
0.0
 11
437.6555687569155
 21
474.9338177968662
 31
0.0
  0
LINE
  5
1021
330
17BA
100
AcDbEntity
  8
0
100
AcDbLine
 10
238.0735687569156
 20
485.1598177968663
 30
0.0
 11
407.7855687569155
 21
480.7158177968664
 31
0.0
  0
ARC
  5
1022
330
17BA
100
AcDbEntity
  8
0
100
AcDbCircle
 10
117.2965687569156
 20
607.5288177968663
 30
0.0
 40
6.0
100
AcDbArc
 50
2.999999999998919
 51
64.39399999999816
  0
LINE
  5
1023
330
17BA
100
AcDbEntity
  8
0
100
AcDbLine
 10
182.5975687569155
 20
480.0288177968663
 30
0.0
 11
189.5975687569155
 21
480.0288177968663
 31
0.0
  0
LINE
  5
1024
330
17BA
100
AcDbEntity
  8
0
100
AcDbLine
 10
192.1705687569156
 20
488.3668177968663
 30
0.0
 11
189.5975687569155
 21
480.0288177968663
 31
0.0
  0
LINE
  5
1025
330
17BA
100
AcDbEntity
  8
0
100
AcDbLine
 10
180.7545687569156
 20
499.9978177968663
 30
0.0
 11
182.5985687569157
 21
480.0288177968663
 31
0.0
  0
ARC
  5
1026
330
17BA
100
AcDbEntity
  8
0
100
AcDbCircle
 10
243.0975687569155
 20
581.0288177968662
 30
0.0
 40
101.0
100
AcDbArc
 50
243.3450000000004
 51
269.7889999999993
  0
ARC
  5
1027
330
17BA
100
AcDbEntity
  8
0
100
AcDbCircle
 10
195.9935687569157
 20
487.1878177968664
 30
0.0
 40
4.0
100
AcDbArc
 50
63.34399999999887
 51
162.8490000000039
  0
ARC
  5
1028
330
17BA
100
AcDbEntity
  8
0
100
AcDbCircle
 10
176.7715687569157
 20
499.6298177968664
 30
0.0
 40
4.0
100
AcDbArc
 50
5.274999999997605
 51
50.82399999999629
  0
LINE
  5
1029
330
17BA
100
AcDbEntity
  8
0
100
AcDbLine
 10
362.9345687569155
 20
581.9588177968663
 30
0.0
 11
410.4045687569155
 21
580.7158177968664
 31
0.0
  0
LINE
  5
102A
330
17BA
100
AcDbEntity
  8
0
100
AcDbLine
 10
365.9265687569157
 20
586.8878177968664
 30
0.0
 11
440.5355687569156
 21
584.9338177968662
 31
0.0
  0
LINE
  5
102B
330
17BA
100
AcDbEntity
  8
0
100
AcDbLine
 10
437.6555687569155
 20
474.9338177968662
 30
0.0
 11
440.5355687569156
 21
584.9338177968662
 31
0.0
  0
LINE
  5
102C
330
17BA
100
AcDbEntity
  8
0
100
AcDbLine
 10
407.7855687569155
 20
480.7158177968664
 30
0.0
 11
410.4045687569155
 21
580.7158177968664
 31
0.0
  0
LINE
  5
102D
330
17BA
100
AcDbEntity
  8
0
100
AcDbLine
 10
407.7855687569155
 20
480.7158177968664
 30
0.0
 11
435.8555687569155
 21
481.0078177968663
 31
0.0
  0
LINE
  5
102E
330
17BA
100
AcDbEntity
  8
0
100
AcDbLine
 10
410.4045687569155
 20
580.7158177968664
 30
0.0
 11
438.8125687569156
 21
579.1168177968662
 31
0.0
  0
ARC
  5
102F
330
17BA
100
AcDbEntity
  8
0
100
AcDbCircle
 10
343.0975687569155
 20
584.9788177968663
 30
0.0
 40
2.5
100
AcDbArc
 50
180.0
 51
232.0190000000027
  0
LINE
  5
1030
330
17BA
100
AcDbEntity
  8
0
100
AcDbLine
 10
438.8125687569156
 20
579.1168177968662
 30
0.0
 11
440.5355687569156
 21
584.9338177968662
 31
0.0
  0
LINE
  5
1031
330
17BA
100
AcDbEntity
  8
0
100
AcDbLine
 10
437.6545687569155
 20
474.9338177968662
 30
0.0
 11
435.8555687569155
 21
481.0078177968663
 31
0.0
  0
LINE
  5
1032
330
17BA
100
AcDbEntity
  8
0
100
AcDbLine
 10
435.8555687569155
 20
481.0078177968663
 30
0.0
 11
438.8125687569156
 21
579.1168177968662
 31
0.0
  0
LINE
  5
1034
330
17BA
100
AcDbEntity
  8
4
100
AcDbLine
 10
192.1715687569156
 20
488.3668177968663
 30
0.0
 11
193.5975687569155
 21
492.9898177968663
 31
0.0
  0
LINE
  5
1035
330
17BA
100
AcDbEntity
  8
4
100
AcDbLine
 10
197.7995687569155
 20
490.7568177968663
 30
0.0
 11
193.5985687569157
 21
492.9898177968663
 31
0.0
  0
LINE
  5
1036
330
17BA
100
AcDbEntity
  8
4
100
AcDbLine
 10
180.5975687569155
 20
501.6898177968663
 30
0.0
 11
179.2795687569155
 21
502.7448177968664
 31
0.0
  0
LINE
  5
1037
330
17BA
100
AcDbEntity
  8
4
100
AcDbLine
 10
180.7545687569156
 20
499.9978177968663
 30
0.0
 11
180.5985687569157
 21
501.6888177968663
 31
0.0
  0
ARC
  5
1040
330
17BA
100
AcDbEntity
  8
0
100
AcDbCircle
 10
243.0975687569155
 20
581.0288177968662
 30
0.0
 40
96.0
100
AcDbArc
 50
186.0749999999991
 51
270.0
  0
LINE
  5
1041
330
17BA
100
AcDbEntity
  8
0
100
AcDbLine
 10
142.4815687569155
 20
572.2258177968663
 30
0.0
 11
141.7125687569155
 21
581.0288177968662
 31
0.0
  0
LINE
  5
1042
330
17BA
100
AcDbEntity
  8
7
 48
0.7490000000000001
100
AcDbLine
 10
186.0975687569155
 20
510.0018177968662
 30
0.0
 11
186.0975687569155
 21
477.0298177968662
 31
0.0
  0
LINE
  5
1043
330
17BA
100
AcDbEntity
  8
0
100
AcDbLine
 10
128.1805687569156
 20
584.9318177968663
 30
0.0
 11
137.8325687569156
 21
584.6788177968663
 31
0.0
  0
ARC
  5
1044
330
17BA
100
AcDbEntity
  8
0
100
AcDbCircle
 10
128.2855687569156
 20
588.9308177968663
 30
0.0
 40
4.0
100
AcDbArc
 50
182.9999999999989
 51
268.4989999999956
  0
ARC
  5
1045
330
17BA
100
AcDbEntity
  8
0
100
AcDbCircle
 10
137.7275687569156
 20
580.6808177968663
 30
0.0
 40
4.0
100
AcDbArc
 50
4.998000000001777
 51
88.49999999999734
  0
LINE
  5
1046
330
17BA
100
AcDbEntity
  8
7
100
AcDbLine
 10
298.4375687569157
 20
533.7118177968663
 30
0.0
 11
457.3345687569156
 21
529.5508177968662
 31
0.0
  0
LINE
  5
1047
330
17BA
100
AcDbEntity
  8
0
100
AcDbLine
 10
343.0975687569155
 20
579.8558177968662
 30
0.0
 11
343.0975687569155
 21
532.5428177968664
 31
0.0
  0
POLYLINE
  5
1048
330
17BA
100
AcDbEntity
  8
4
100
AcDb2dPolyline
 66
     1
 10
0.0
 20
0.0
 30
0.0
 70
   132
 75
     6
  0
VERTEX
  5
1049
330
1048
100
AcDbEntity
  8
4
100
AcDbVertex
100
AcDb2dVertex
 10
360.2135687569155
 20
580.9858177968663
 30
0.0
 70
     8
  0
VERTEX
  5
104A
330
1048
100
AcDbEntity
  8
4
100
AcDbVertex
100
AcDb2dVertex
 10
360.2135687569155
 20
580.9858177968663
 30
0.0
 70
    16
  0
VERTEX
  5
104B
330
1048
100
AcDbEntity
  8
4
100
AcDbVertex
100
AcDb2dVertex
 10
360.0695687569155
 20
580.8618177968663
 30
0.0
 70
     8
  0
VERTEX
  5
104C
330
1048
100
AcDbEntity
  8
4
100
AcDbVertex
100
AcDb2dVertex
 10
359.9255687569157
 20
580.7368177968664
 30
0.0
 70
     8
  0
VERTEX
  5
104D
330
1048
100
AcDbEntity
  8
4
100
AcDbVertex
100
AcDb2dVertex
 10
359.9255687569157
 20
580.7368177968664
 30
0.0
 70
    16
  0
VERTEX
  5
104E
330
1048
100
AcDbEntity
  8
4
100
AcDbVertex
100
AcDb2dVertex
 10
359.9255687569157
 20
580.7368177968664
 30
0.0
 70
     8
  0
VERTEX
  5
104F
330
1048
100
AcDbEntity
  8
4
100
AcDbVertex
100
AcDb2dVertex
 10
359.9255687569157
 20
580.7368177968664
 30
0.0
 70
    16
  0
VERTEX
  5
1050
330
1048
100
AcDbEntity
  8
4
100
AcDbVertex
100
AcDb2dVertex
 10
357.5575687569156
 20
578.6038177968663
 30
0.0
 70
     8
  0
VERTEX
  5
1051
330
1048
100
AcDbEntity
  8
4
100
AcDbVertex
100
AcDb2dVertex
 10
355.6065687569155
 20
576.1788177968663
 30
0.0
 70
     8
  0
VERTEX
  5
1052
330
1048
100
AcDbEntity
  8
4
100
AcDbVertex
100
AcDb2dVertex
 10
355.6065687569155
 20
576.1788177968663
 30
0.0
 70
    16
  0
VERTEX
  5
1053
330
1048
100
AcDbEntity
  8
4
100
AcDbVertex
100
AcDb2dVertex
 10
355.6065687569155
 20
576.1788177968663
 30
0.0
 70
     8
  0
VERTEX
  5
1054
330
1048
100
AcDbEntity
  8
4
100
AcDbVertex
100
AcDb2dVertex
 10
355.6065687569155
 20
576.1788177968663
 30
0.0
 70
    16
  0
VERTEX
  5
1055
330
1048
100
AcDbEntity
  8
4
100
AcDbVertex
100
AcDb2dVertex
 10
354.3535687569156
 20
572.9298177968663
 30
0.0
 70
     8
  0
VERTEX
  5
1056
330
1048
100
AcDbEntity
  8
4
100
AcDbVertex
100
AcDb2dVertex
 10
353.6285687569157
 20
569.4038177968662
 30
0.0
 70
     8
  0
VERTEX
  5
1057
330
1048
100
AcDbEntity
  8
4
100
AcDbVertex
100
AcDb2dVertex
 10
353.6285687569157
 20
569.4038177968662
 30
0.0
 70
    16
  0
VERTEX
  5
1058
330
1048
100
AcDbEntity
  8
4
100
AcDbVertex
100
AcDb2dVertex
 10
353.6285687569157
 20
569.4038177968662
 30
0.0
 70
     8
  0
VERTEX
  5
1059
330
1048
100
AcDbEntity
  8
4
100
AcDbVertex
100
AcDb2dVertex
 10
353.6285687569157
 20
569.4038177968662
 30
0.0
 70
    16
  0
VERTEX
  5
105A
330
1048
100
AcDbEntity
  8
4
100
AcDbVertex
100
AcDb2dVertex
 10
352.3355687569156
 20
563.8778177968662
 30
0.0
 70
     8
  0
VERTEX
  5
105B
330
1048
100
AcDbEntity
  8
4
100
AcDbVertex
100
AcDb2dVertex
 10
350.8425687569156
 20
558.4738177968662
 30
0.0
 70
     8
  0
VERTEX
  5
105C
330
1048
100
AcDbEntity
  8
4
100
AcDbVertex
100
AcDb2dVertex
 10
350.8425687569156
 20
558.4738177968662
 30
0.0
 70
    16
  0
VERTEX
  5
105D
330
1048
100
AcDbEntity
  8
4
100
AcDbVertex
100
AcDb2dVertex
 10
350.8425687569156
 20
558.4738177968662
 30
0.0
 70
     8
  0
VERTEX
  5
105E
330
1048
100
AcDbEntity
  8
4
100
AcDbVertex
100
AcDb2dVertex
 10
350.8425687569156
 20
558.4738177968662
 30
0.0
 70
    16
  0
VERTEX
  5
105F
330
1048
100
AcDbEntity
  8
4
100
AcDbVertex
100
AcDb2dVertex
 10
349.2055687569157
 20
552.5578177968663
 30
0.0
 70
     8
  0
VERTEX
  5
1060
330
1048
100
AcDbEntity
  8
4
100
AcDbVertex
100
AcDb2dVertex
 10
347.5325687569157
 20
546.6318177968664
 30
0.0
 70
     8
  0
VERTEX
  5
1061
330
1048
100
AcDbEntity
  8
4
100
AcDbVertex
100
AcDb2dVertex
 10
347.5325687569157
 20
546.6318177968664
 30
0.0
 70
    16
  0
VERTEX
  5
1062
330
1048
100
AcDbEntity
  8
4
100
AcDbVertex
100
AcDb2dVertex
 10
347.5325687569157
 20
546.6318177968664
 30
0.0
 70
     8
  0
VERTEX
  5
1063
330
1048
100
AcDbEntity
  8
4
100
AcDbVertex
100
AcDb2dVertex
 10
347.5325687569157
 20
546.6318177968664
 30
0.0
 70
    16
  0
VERTEX
  5
1064
330
1048
100
AcDbEntity
  8
4
100
AcDbVertex
100
AcDb2dVertex
 10
345.3835687569156
 20
539.5628177968664
 30
0.0
 70
     8
  0
VERTEX
  5
1065
330
1048
100
AcDbEntity
  8
4
100
AcDbVertex
100
AcDb2dVertex
 10
343.0975687569155
 20
532.5428177968664
 30
0.0
 70
     8
  0
VERTEX
  5
1066
330
1048
100
AcDbEntity
  8
4
100
AcDbVertex
100
AcDb2dVertex
 10
343.0975687569155
 20
532.5428177968664
 30
0.0
 70
    16
  0
SEQEND
  5
1067
330
1048
100
AcDbEntity
  8
4
  0
ARC
  5
1068
330
17BA
100
AcDbEntity
  8
0
100
AcDbCircle
 10
339.0975687569155
 20
579.8558177968662
 30
0.0
 40
4.0
100
AcDbArc
 50
0.0
 51
52.01900000000264
  0
ARC
  5
1069
330
17BA
100
AcDbEntity
  8
4
100
AcDbCircle
 10
362.8295687569157
 20
577.9608177968663
 30
0.0
 40
4.0
100
AcDbArc
 50
88.49999999999734
 51
130.8519999999979
  0
LINE
  5
106A
330
17BA
100
AcDbEntity
  8
0
100
AcDbLine
 10
362.9345687569155
 20
581.9588177968663
 30
0.0
 11
339.2025687569155
 21
582.5808177968664
 31
0.0
  0
LINE
  5
106B
330
17BA
100
AcDbEntity
  8
4
100
AcDbLine
 10
439.1445687569155
 20
530.0288177968663
 30
0.0
 11
457.7445687569157
 21
530.0288177968663
 31
0.0
  0
LINE
  5
1076
330
17BA
100
AcDbEntity
  8
0
100
AcDbLine
 10
326.8015687569157
 20
582.5808177968664
 30
0.0
 11
339.0975687569155
 21
582.5808177968664
 31
0.0
  0
POLYLINE
  5
1077
330
17BA
100
AcDbEntity
  8
0
100
AcDb2dPolyline
 66
     1
 10
0.0
 20
0.0
 30
0.0
 70
   132
 75
     6
  0
VERTEX
  5
1078
330
1077
100
AcDbEntity
  8
0
100
AcDbVertex
100
AcDb2dVertex
 10
243.0975687569155
 20
485.0288177968662
 30
0.0
 70
     8
  0
VERTEX
  5
1079
330
1077
100
AcDbEntity
  8
0
100
AcDbVertex
100
AcDb2dVertex
 10
243.0975687569155
 20
485.0288177968662
 30
0.0
 70
    16
  0
VERTEX
  5
107A
330
1077
100
AcDbEntity
  8
0
100
AcDbVertex
100
AcDb2dVertex
 10
248.4075687569157
 20
485.3948177968662
 30
0.0
 70
     8
  0
VERTEX
  5
107B
330
1077
100
AcDbEntity
  8
0
100
AcDbVertex
100
AcDb2dVertex
 10
253.6835687569155
 20
486.1688177968663
 30
0.0
 70
     8
  0
VERTEX
  5
107C
330
1077
100
AcDbEntity
  8
0
100
AcDbVertex
100
AcDb2dVertex
 10
253.6835687569155
 20
486.1688177968663
 30
0.0
 70
    16
  0
VERTEX
  5
107D
330
1077
100
AcDbEntity
  8
0
100
AcDbVertex
100
AcDb2dVertex
 10
253.6835687569155
 20
486.1688177968663
 30
0.0
 70
     8
  0
VERTEX
  5
107E
330
1077
100
AcDbEntity
  8
0
100
AcDbVertex
100
AcDb2dVertex
 10
253.6835687569155
 20
486.1688177968663
 30
0.0
 70
    16
  0
VERTEX
  5
107F
330
1077
100
AcDbEntity
  8
0
100
AcDbVertex
100
AcDb2dVertex
 10
265.7295687569156
 20
489.5728177968663
 30
0.0
 70
     8
  0
VERTEX
  5
1080
330
1077
100
AcDbEntity
  8
0
100
AcDbVertex
100
AcDb2dVertex
 10
276.8965687569157
 20
495.1588177968663
 30
0.0
 70
     8
  0
VERTEX
  5
1081
330
1077
100
AcDbEntity
  8
0
100
AcDbVertex
100
AcDb2dVertex
 10
276.8965687569157
 20
495.1588177968663
 30
0.0
 70
    16
  0
VERTEX
  5
1082
330
1077
100
AcDbEntity
  8
0
100
AcDbVertex
100
AcDb2dVertex
 10
276.8965687569157
 20
495.1588177968663
 30
0.0
 70
     8
  0
VERTEX
  5
1083
330
1077
100
AcDbEntity
  8
0
100
AcDbVertex
100
AcDb2dVertex
 10
276.8965687569157
 20
495.1588177968663
 30
0.0
 70
    16
  0
VERTEX
  5
1084
330
1077
100
AcDbEntity
  8
0
100
AcDbVertex
100
AcDb2dVertex
 10
287.4235687569155
 20
503.4228177968663
 30
0.0
 70
     8
  0
VERTEX
  5
1085
330
1077
100
AcDbEntity
  8
0
100
AcDbVertex
100
AcDb2dVertex
 10
296.5705687569157
 20
513.3648177968662
 30
0.0
 70
     8
  0
VERTEX
  5
1086
330
1077
100
AcDbEntity
  8
0
100
AcDbVertex
100
AcDb2dVertex
 10
296.5705687569157
 20
513.3648177968662
 30
0.0
 70
    16
  0
VERTEX
  5
1087
330
1077
100
AcDbEntity
  8
0
100
AcDbVertex
100
AcDb2dVertex
 10
296.5705687569157
 20
513.3648177968662
 30
0.0
 70
     8
  0
VERTEX
  5
1088
330
1077
100
AcDbEntity
  8
0
100
AcDbVertex
100
AcDb2dVertex
 10
296.5705687569157
 20
513.3648177968662
 30
0.0
 70
    16
  0
VERTEX
  5
1089
330
1077
100
AcDbEntity
  8
0
100
AcDbVertex
100
AcDb2dVertex
 10
316.4045687569155
 20
546.0348177968663
 30
0.0
 70
     8
  0
VERTEX
  5
108A
330
1077
100
AcDbEntity
  8
0
100
AcDbVertex
100
AcDb2dVertex
 10
326.8015687569157
 20
582.5808177968664
 30
0.0
 70
     8
  0
VERTEX
  5
108B
330
1077
100
AcDbEntity
  8
0
100
AcDbVertex
100
AcDb2dVertex
 10
326.8015687569157
 20
582.5808177968664
 30
0.0
 70
    16
  0
SEQEND
  5
108C
330
1077
100
AcDbEntity
  8
0
  0
ARC
  5
108D
330
17BA
100
AcDbEntity
  8
0
100
AcDbCircle
 10
131.7405687569155
 20
591.6288177968664
 30
0.0
 40
1.6
100
AcDbArc
 50
182.9999999999989
 51
269.9969999999963
  0
ARC
  5
108E
330
17BA
100
AcDbEntity
  8
0
100
AcDbCircle
 10
354.4545687569157
 20
591.6288177968664
 30
0.0
 40
1.6
100
AcDbArc
 50
270.0
 51
357.0000000000011
  0
LINE
  5
108F
330
17BA
100
AcDbEntity
  8
0
100
AcDbLine
 10
365.5975687569155
 20
621.0288177968663
 30
0.0
 11
366.2975687569156
 21
613.0288177968663
 31
0.0
  0
LINE
  5
1090
330
17BA
100
AcDbEntity
  8
0
100
AcDbLine
 10
362.0365687569156
 20
591.0958177968662
 30
0.0
 11
362.9195687569156
 21
607.9328177968663
 31
0.0
  0
ARC
  5
1091
330
17BA
100
AcDbEntity
  8
0
100
AcDbCircle
 10
366.0315687569157
 20
590.8858177968662
 30
0.0
 40
4.0
100
AcDbArc
 50
177.0000000000011
 51
268.4999999999973
  0
ARC
  5
1092
330
17BA
100
AcDbEntity
  8
0
100
AcDbCircle
 10
368.9105687569156
 20
607.6188177968664
 30
0.0
 40
6.0
100
AcDbArc
 50
115.8110000000036
 51
180.0
  0
POLYLINE
  5
1171
330
17BA
100
AcDbEntity
  8
SCHRAFFUR_RAND
100
AcDb2dPolyline
 66
     1
 10
0.0
 20
0.0
 30
0.0
 70
     1
  0
VERTEX
  5
1172
330
1171
100
AcDbEntity
  8
SCHRAFFUR_RAND
100
AcDbVertex
100
AcDb2dVertex
 10
128.5975687569155
 20
621.0288177968663
 30
0.0
  0
VERTEX
  5
1173
330
1171
100
AcDbEntity
  8
SCHRAFFUR_RAND
100
AcDbVertex
100
AcDb2dVertex
 10
120.5975687569155
 20
621.0288177968663
 30
0.0
  0
VERTEX
  5
1174
330
1171
100
AcDbEntity
  8
SCHRAFFUR_RAND
100
AcDbVertex
100
AcDb2dVertex
 10
119.8905687569156
 20
612.9388177968664
 30
0.0
  0
VERTEX
  5
1175
330
1171
100
AcDbEntity
  8
SCHRAFFUR_RAND
100
AcDbVertex
100
AcDb2dVertex
 10
121.7105687569155
 20
611.7798177968662
 30
0.0
  0
VERTEX
  5
1176
330
1171
100
AcDbEntity
  8
SCHRAFFUR_RAND
100
AcDbVertex
100
AcDb2dVertex
 10
122.9185687569156
 20
609.9688177968663
 30
0.0
  0
VERTEX
  5
1177
330
1171
100
AcDbEntity
  8
SCHRAFFUR_RAND
100
AcDbVertex
100
AcDb2dVertex
 10
123.2895687569155
 20
607.8428177968663
 30
0.0
  0
VERTEX
  5
1178
330
1171
100
AcDbEntity
  8
SCHRAFFUR_RAND
100
AcDbVertex
100
AcDb2dVertex
 10
124.2915687569157
 20
588.7208177968663
 30
0.0
  0
VERTEX
  5
1179
330
1171
100
AcDbEntity
  8
SCHRAFFUR_RAND
100
AcDbVertex
100
AcDb2dVertex
 10
124.7655687569156
 20
586.7738177968663
 30
0.0
  0
VERTEX
  5
117A
330
1171
100
AcDbEntity
  8
SCHRAFFUR_RAND
100
AcDbVertex
100
AcDb2dVertex
 10
126.2215687569155
 20
585.3548177968662
 30
0.0
  0
VERTEX
  5
117B
330
1171
100
AcDbEntity
  8
SCHRAFFUR_RAND
100
AcDbVertex
100
AcDb2dVertex
 10
128.1815687569155
 20
584.9318177968663
 30
0.0
  0
VERTEX
  5
117C
330
1171
100
AcDbEntity
  8
SCHRAFFUR_RAND
100
AcDbVertex
100
AcDb2dVertex
 10
137.8325687569156
 20
584.6788177968663
 30
0.0
  0
VERTEX
  5
117D
330
1171
100
AcDbEntity
  8
SCHRAFFUR_RAND
100
AcDbVertex
100
AcDb2dVertex
 10
139.7495687569155
 20
584.2798177968663
 30
0.0
  0
VERTEX
  5
117E
330
1171
100
AcDbEntity
  8
SCHRAFFUR_RAND
100
AcDbVertex
100
AcDb2dVertex
 10
141.1965687569156
 20
582.9188177968664
 30
0.0
  0
VERTEX
  5
117F
330
1171
100
AcDbEntity
  8
SCHRAFFUR_RAND
100
AcDbVertex
100
AcDb2dVertex
 10
141.7125687569155
 20
581.0288177968662
 30
0.0
  0
VERTEX
  5
1180
330
1171
100
AcDbEntity
  8
SCHRAFFUR_RAND
100
AcDbVertex
100
AcDb2dVertex
 10
142.4825687569155
 20
572.2258177968663
 30
0.0
  0
VERTEX
  5
1181
330
1171
100
AcDbEntity
  8
SCHRAFFUR_RAND
100
AcDbVertex
100
AcDb2dVertex
 10
144.0545687569156
 20
560.5968177968662
 30
0.0
  0
VERTEX
  5
1182
330
1171
100
AcDbEntity
  8
SCHRAFFUR_RAND
100
AcDbVertex
100
AcDb2dVertex
 10
147.0905687569157
 20
549.2548177968664
 30
0.0
  0
VERTEX
  5
1183
330
1171
100
AcDbEntity
  8
SCHRAFFUR_RAND
100
AcDbVertex
100
AcDb2dVertex
 10
151.4205687569156
 20
538.3408177968663
 30
0.0
  0
VERTEX
  5
1184
330
1171
100
AcDbEntity
  8
SCHRAFFUR_RAND
100
AcDbVertex
100
AcDb2dVertex
 10
156.9865687569156
 20
528.0018177968663
 30
0.0
  0
VERTEX
  5
1185
330
1171
100
AcDbEntity
  8
SCHRAFFUR_RAND
100
AcDbVertex
100
AcDb2dVertex
 10
163.7135687569155
 20
518.3788177968664
 30
0.0
  0
VERTEX
  5
1186
330
1171
100
AcDbEntity
  8
SCHRAFFUR_RAND
100
AcDbVertex
100
AcDb2dVertex
 10
171.5105687569155
 20
509.5988177968662
 30
0.0
  0
VERTEX
  5
1187
330
1171
100
AcDbEntity
  8
SCHRAFFUR_RAND
100
AcDbVertex
100
AcDb2dVertex
 10
179.2805687569155
 20
502.7448177968664
 30
0.0
  0
VERTEX
  5
1188
330
1171
100
AcDbEntity
  8
SCHRAFFUR_RAND
100
AcDbVertex
100
AcDb2dVertex
 10
180.5975687569155
 20
501.6888177968663
 30
0.0
  0
VERTEX
  5
1189
330
1171
100
AcDbEntity
  8
SCHRAFFUR_RAND
100
AcDbVertex
100
AcDb2dVertex
 10
180.7545687569156
 20
499.9978177968663
 30
0.0
  0
VERTEX
  5
118A
330
1171
100
AcDbEntity
  8
SCHRAFFUR_RAND
100
AcDbVertex
100
AcDb2dVertex
 10
182.5975687569155
 20
480.0288177968663
 30
0.0
  0
VERTEX
  5
118B
330
1171
100
AcDbEntity
  8
SCHRAFFUR_RAND
100
AcDbVertex
100
AcDb2dVertex
 10
189.5975687569155
 20
480.0288177968663
 30
0.0
  0
VERTEX
  5
118C
330
1171
100
AcDbEntity
  8
SCHRAFFUR_RAND
100
AcDbVertex
100
AcDb2dVertex
 10
192.1715687569156
 20
488.3668177968663
 30
0.0
  0
VERTEX
  5
118D
330
1171
100
AcDbEntity
  8
SCHRAFFUR_RAND
100
AcDbVertex
100
AcDb2dVertex
 10
193.5975687569155
 20
492.9898177968663
 30
0.0
  0
VERTEX
  5
118E
330
1171
100
AcDbEntity
  8
SCHRAFFUR_RAND
100
AcDbVertex
100
AcDb2dVertex
 10
197.7995687569155
 20
490.7568177968663
 30
0.0
  0
VERTEX
  5
118F
330
1171
100
AcDbEntity
  8
SCHRAFFUR_RAND
100
AcDbVertex
100
AcDb2dVertex
 10
208.4375687569156
 20
486.0258177968663
 30
0.0
  0
VERTEX
  5
1190
330
1171
100
AcDbEntity
  8
SCHRAFFUR_RAND
100
AcDbVertex
100
AcDb2dVertex
 10
219.6055687569156
 20
482.6668177968664
 30
0.0
  0
VERTEX
  5
1191
330
1171
100
AcDbEntity
  8
SCHRAFFUR_RAND
100
AcDbVertex
100
AcDb2dVertex
 10
231.0855687569155
 20
480.6168177968662
 30
0.0
  0
VERTEX
  5
1192
330
1171
100
AcDbEntity
  8
SCHRAFFUR_RAND
100
AcDbVertex
100
AcDb2dVertex
 10
237.8125687569156
 20
480.1668177968664
 30
0.0
  0
VERTEX
  5
1193
330
1171
100
AcDbEntity
  8
SCHRAFFUR_RAND
100
AcDbVertex
100
AcDb2dVertex
 10
242.7255687569157
 20
480.0288177968663
 30
0.0
  0
VERTEX
  5
1194
330
1171
100
AcDbEntity
  8
SCHRAFFUR_RAND
100
AcDbVertex
100
AcDb2dVertex
 10
437.6555687569155
 20
474.9338177968662
 30
0.0
  0
VERTEX
  5
1195
330
1171
100
AcDbEntity
  8
SCHRAFFUR_RAND
100
AcDbVertex
100
AcDb2dVertex
 10
435.8555687569155
 20
481.0078177968663
 30
0.0
  0
VERTEX
  5
1196
330
1171
100
AcDbEntity
  8
SCHRAFFUR_RAND
100
AcDbVertex
100
AcDb2dVertex
 10
407.7855687569155
 20
480.7158177968664
 30
0.0
  0
VERTEX
  5
1197
330
1171
100
AcDbEntity
  8
SCHRAFFUR_RAND
100
AcDbVertex
100
AcDb2dVertex
 10
243.0975687569155
 20
485.0288177968662
 30
0.0
  0
VERTEX
  5
1198
330
1171
100
AcDbEntity
  8
SCHRAFFUR_RAND
100
AcDbVertex
100
AcDb2dVertex
 10
238.0745687569156
 20
485.1598177968663
 30
0.0
  0
VERTEX
  5
1199
330
1171
100
AcDbEntity
  8
SCHRAFFUR_RAND
100
AcDbVertex
100
AcDb2dVertex
 10
230.3355687569156
 20
485.7518177968662
 30
0.0
  0
VERTEX
  5
119A
330
1171
100
AcDbEntity
  8
SCHRAFFUR_RAND
100
AcDbVertex
100
AcDb2dVertex
 10
217.7985687569155
 20
488.2898177968662
 30
0.0
  0
VERTEX
  5
119B
330
1171
100
AcDbEntity
  8
SCHRAFFUR_RAND
100
AcDbVertex
100
AcDb2dVertex
 10
205.7095687569156
 20
492.4698177968663
 30
0.0
  0
VERTEX
  5
119C
330
1171
100
AcDbEntity
  8
SCHRAFFUR_RAND
100
AcDbVertex
100
AcDb2dVertex
 10
194.2825687569157
 20
498.2178177968664
 30
0.0
  0
VERTEX
  5
119D
330
1171
100
AcDbEntity
  8
SCHRAFFUR_RAND
100
AcDbVertex
100
AcDb2dVertex
 10
183.7205687569155
 20
505.4318177968663
 30
0.0
  0
VERTEX
  5
119E
330
1171
100
AcDbEntity
  8
SCHRAFFUR_RAND
100
AcDbVertex
100
AcDb2dVertex
 10
174.2095687569156
 20
513.9838177968662
 30
0.0
  0
VERTEX
  5
119F
330
1171
100
AcDbEntity
  8
SCHRAFFUR_RAND
100
AcDbVertex
100
AcDb2dVertex
 10
165.9175687569157
 20
523.7238177968662
 30
0.0
  0
VERTEX
  5
11A0
330
1171
100
AcDbEntity
  8
SCHRAFFUR_RAND
100
AcDbVertex
100
AcDb2dVertex
 10
158.9925687569155
 20
534.4778177968663
 30
0.0
  0
VERTEX
  5
11A1
330
1171
100
AcDbEntity
  8
SCHRAFFUR_RAND
100
AcDbVertex
100
AcDb2dVertex
 10
153.5565687569155
 20
546.0568177968663
 30
0.0
  0
VERTEX
  5
11A2
330
1171
100
AcDbEntity
  8
SCHRAFFUR_RAND
100
AcDbVertex
100
AcDb2dVertex
 10
149.7065687569156
 20
558.2548177968663
 30
0.0
  0
VERTEX
  5
11A3
330
1171
100
AcDbEntity
  8
SCHRAFFUR_RAND
100
AcDbVertex
100
AcDb2dVertex
 10
147.6375687569157
 20
570.8688177968664
 30
0.0
  0
VERTEX
  5
11A4
330
1171
100
AcDbEntity
  8
SCHRAFFUR_RAND
100
AcDbVertex
100
AcDb2dVertex
 10
145.5975687569155
 20
590.0278177968663
 30
0.0
  0
VERTEX
  5
11A5
330
1171
100
AcDbEntity
  8
SCHRAFFUR_RAND
100
AcDbVertex
100
AcDb2dVertex
 10
130.2225687569155
 20
590.0288177968662
 30
0.0
  0
VERTEX
  5
11A6
330
1171
100
AcDbEntity
  8
SCHRAFFUR_RAND
100
AcDbVertex
100
AcDb2dVertex
 10
128.5975687569155
 20
621.0288177968663
 30
0.0
  0
SEQEND
  5
11A7
330
1171
100
AcDbEntity
  8
SCHRAFFUR_RAND
  0
INSERT
  5
1213
330
17BA
100
AcDbEntity
  8
8
100
AcDbBlockReference
  2
*X0
 10
36.31456875691561
 20
283.3238177968663
 30
0.0
1001
ACAD
1000
HATCH
1002
{
1070
    19
1000
ANSI31,_I
1040
3.174999999999999
1040
0.7850000000000001
1002
}
  0
POLYLINE
  5
12C2
330
17BA
100
AcDbEntity
  8
SCHRAFFUR_RAND
100
AcDb2dPolyline
 66
     1
 10
0.0
 20
0.0
 30
0.0
 70
     1
  0
VERTEX
  5
12C3
330
12C2
100
AcDbEntity
  8
SCHRAFFUR_RAND
100
AcDbVertex
100
AcDb2dVertex
 10
440.5355687569156
 20
584.9338177968662
 30
0.0
  0
VERTEX
  5
12C4
330
12C2
100
AcDbEntity
  8
SCHRAFFUR_RAND
100
AcDbVertex
100
AcDb2dVertex
 10
365.9265687569157
 20
586.8878177968664
 30
0.0
  0
VERTEX
  5
12C5
330
12C2
100
AcDbEntity
  8
SCHRAFFUR_RAND
100
AcDbVertex
100
AcDb2dVertex
 10
364.6615687569156
 20
587.0818177968664
 30
0.0
  0
VERTEX
  5
12C6
330
12C2
100
AcDbEntity
  8
SCHRAFFUR_RAND
100
AcDbVertex
100
AcDb2dVertex
 10
363.5365687569156
 20
587.7048177968662
 30
0.0
  0
VERTEX
  5
12C7
330
12C2
100
AcDbEntity
  8
SCHRAFFUR_RAND
100
AcDbVertex
100
AcDb2dVertex
 10
362.6635687569156
 20
588.6488177968664
 30
0.0
  0
VERTEX
  5
12C8
330
12C2
100
AcDbEntity
  8
SCHRAFFUR_RAND
100
AcDbVertex
100
AcDb2dVertex
 10
362.1315687569156
 20
589.8198177968662
 30
0.0
  0
VERTEX
  5
12C9
330
12C2
100
AcDbEntity
  8
SCHRAFFUR_RAND
100
AcDbVertex
100
AcDb2dVertex
 10
362.0365687569156
 20
591.0958177968662
 30
0.0
  0
VERTEX
  5
12CA
330
12C2
100
AcDbEntity
  8
SCHRAFFUR_RAND
100
AcDbVertex
100
AcDb2dVertex
 10
362.9105687569156
 20
607.6188177968664
 30
0.0
  0
VERTEX
  5
12CB
330
12C2
100
AcDbEntity
  8
SCHRAFFUR_RAND
100
AcDbVertex
100
AcDb2dVertex
 10
362.9195687569156
 20
607.9328177968663
 30
0.0
  0
VERTEX
  5
12CC
330
12C2
100
AcDbEntity
  8
SCHRAFFUR_RAND
100
AcDbVertex
100
AcDb2dVertex
 10
363.1035687569156
 20
609.2888177968663
 30
0.0
  0
VERTEX
  5
12CD
330
12C2
100
AcDbEntity
  8
SCHRAFFUR_RAND
100
AcDbVertex
100
AcDb2dVertex
 10
363.7915687569157
 20
610.8298177968662
 30
0.0
  0
VERTEX
  5
12CE
330
12C2
100
AcDbEntity
  8
SCHRAFFUR_RAND
100
AcDbVertex
100
AcDb2dVertex
 10
364.8785687569157
 20
612.1198177968664
 30
0.0
  0
VERTEX
  5
12CF
330
12C2
100
AcDbEntity
  8
SCHRAFFUR_RAND
100
AcDbVertex
100
AcDb2dVertex
 10
366.2975687569156
 20
613.0288177968663
 30
0.0
  0
VERTEX
  5
12D0
330
12C2
100
AcDbEntity
  8
SCHRAFFUR_RAND
100
AcDbVertex
100
AcDb2dVertex
 10
365.5975687569155
 20
621.0288177968663
 30
0.0
  0
VERTEX
  5
12D1
330
12C2
100
AcDbEntity
  8
SCHRAFFUR_RAND
100
AcDbVertex
100
AcDb2dVertex
 10
357.5975687569155
 20
621.0288177968663
 30
0.0
  0
VERTEX
  5
12D2
330
12C2
100
AcDbEntity
  8
SCHRAFFUR_RAND
100
AcDbVertex
100
AcDb2dVertex
 10
356.0525687569157
 20
591.5448177968663
 30
0.0
  0
VERTEX
  5
12D3
330
12C2
100
AcDbEntity
  8
SCHRAFFUR_RAND
100
AcDbVertex
100
AcDb2dVertex
 10
355.8475687569155
 20
590.7578177968663
 30
0.0
  0
VERTEX
  5
12D4
330
12C2
100
AcDbEntity
  8
SCHRAFFUR_RAND
100
AcDbVertex
100
AcDb2dVertex
 10
355.2505687569155
 20
590.1918177968663
 30
0.0
  0
VERTEX
  5
12D5
330
12C2
100
AcDbEntity
  8
SCHRAFFUR_RAND
100
AcDbVertex
100
AcDb2dVertex
 10
354.4545687569157
 20
590.0288177968662
 30
0.0
  0
VERTEX
  5
12D6
330
12C2
100
AcDbEntity
  8
SCHRAFFUR_RAND
100
AcDbVertex
100
AcDb2dVertex
 10
340.5975687569155
 20
590.0288177968662
 30
0.0
  0
VERTEX
  5
12D7
330
12C2
100
AcDbEntity
  8
SCHRAFFUR_RAND
100
AcDbVertex
100
AcDb2dVertex
 10
340.5975687569155
 20
584.9788177968663
 30
0.0
  0
VERTEX
  5
12D8
330
12C2
100
AcDbEntity
  8
SCHRAFFUR_RAND
100
AcDbVertex
100
AcDb2dVertex
 10
340.6705687569156
 20
584.2218177968662
 30
0.0
  0
VERTEX
  5
12D9
330
12C2
100
AcDbEntity
  8
SCHRAFFUR_RAND
100
AcDbVertex
100
AcDb2dVertex
 10
341.0065687569156
 20
583.5328177968664
 30
0.0
  0
VERTEX
  5
12DA
330
12C2
100
AcDbEntity
  8
SCHRAFFUR_RAND
100
AcDbVertex
100
AcDb2dVertex
 10
341.5595687569155
 20
583.0088177968662
 30
0.0
  0
VERTEX
  5
12DB
330
12C2
100
AcDbEntity
  8
SCHRAFFUR_RAND
100
AcDbVertex
100
AcDb2dVertex
 10
342.0685687569155
 20
582.5058177968664
 30
0.0
  0
VERTEX
  5
12DC
330
12C2
100
AcDbEntity
  8
SCHRAFFUR_RAND
100
AcDbVertex
100
AcDb2dVertex
 10
361.9465687569157
 20
581.9058177968662
 30
0.0
  0
VERTEX
  5
12DD
330
12C2
100
AcDbEntity
  8
SCHRAFFUR_RAND
100
AcDbVertex
100
AcDb2dVertex
 10
362.9345687569155
 20
581.9588177968663
 30
0.0
  0
VERTEX
  5
12DE
330
12C2
100
AcDbEntity
  8
SCHRAFFUR_RAND
100
AcDbVertex
100
AcDb2dVertex
 10
410.4045687569155
 20
580.7158177968664
 30
0.0
  0
VERTEX
  5
12DF
330
12C2
100
AcDbEntity
  8
SCHRAFFUR_RAND
100
AcDbVertex
100
AcDb2dVertex
 10
438.8125687569156
 20
579.1168177968662
 30
0.0
  0
VERTEX
  5
12E0
330
12C2
100
AcDbEntity
  8
SCHRAFFUR_RAND
100
AcDbVertex
100
AcDb2dVertex
 10
440.5355687569156
 20
584.9338177968662
 30
0.0
  0
SEQEND
  5
12E1
330
12C2
100
AcDbEntity
  8
SCHRAFFUR_RAND
  0
INSERT
  5
1302
330
17BA
100
AcDbEntity
  8
8
100
AcDbBlockReference
  2
*X1
 10
36.31456875691561
 20
283.3238177968663
 30
0.0
1001
ACAD
1000
HATCH
1002
{
1070
    19
1000
ANSI31,_I
1040
3.174999999999999
1040
0.7850000000000001
1002
}
  0
LINE
  5
1354
330
17BA
100
AcDbEntity
  8
7
100
AcDbLine
 10
450.9786727569156
 20
222.0330357968663
 30
0.0
 11
111.6759757569157
 21
222.0330357968663
 31
0.0
  0
LINE
  5
1355
330
17BA
100
AcDbEntity
  8
7
100
AcDbLine
 10
243.0975687569155
 20
96.3990357968662
 30
0.0
 11
243.0975687569155
 21
351.8389667968662
 31
0.0
  0
ARC
  5
1356
330
17BA
100
AcDbEntity
  8
0
100
AcDbCircle
 10
243.0975687569155
 20
222.0330357968663
 30
0.0
 40
114.5
100
AcDbArc
 50
180.0
 51
359.9579999999975
  0
ARC
  5
1357
330
17BA
100
AcDbEntity
  8
0
100
AcDbCircle
 10
243.0975687569155
 20
222.0330357968663
 30
0.0
 40
112.875
100
AcDbArc
 50
180.0
 51
0.0
  0
ARC
  5
1358
330
17BA
100
AcDbEntity
  8
0
100
AcDbCircle
 10
243.0975687569155
 20
222.0330357968663
 30
0.0
 40
122.5
100
AcDbArc
 50
180.0
 51
359.9949999999985
  0
LINE
  5
1362
330
17BA
100
AcDbEntity
  8
0
100
AcDbLine
 10
439.0975687569155
 20
166.7830357968663
 30
0.0
 11
353.2255687569157
 21
166.7830357968663
 31
0.0
  0
ARC
  5
13A8
330
17BA
100
AcDbEntity
  8
0
100
AcDbCircle
 10
243.0975687569155
 20
222.0330357968663
 30
0.0
 40
123.21
100
AcDbArc
 50
180.0
 51
0.0
  0
POLYLINE
  5
13B1
330
17BA
100
AcDbEntity
  8
0
100
AcDb2dPolyline
 66
     1
 10
0.0
 20
0.0
 30
0.0
 70
   132
 75
     6
  0
VERTEX
  5
13B2
330
13B1
100
AcDbEntity
  8
0
100
AcDbVertex
100
AcDb2dVertex
 10
440.5355687569156
 20
222.0330357968663
 30
0.0
 70
     8
  0
VERTEX
  5
13B3
330
13B1
100
AcDbEntity
  8
0
100
AcDbVertex
100
AcDb2dVertex
 10
440.5355687569156
 20
222.0330357968663
 30
0.0
 70
    16
  0
VERTEX
  5
13B4
330
13B1
100
AcDbEntity
  8
0
100
AcDbVertex
100
AcDb2dVertex
 10
440.1755687569156
 20
194.3970357968662
 30
0.0
 70
     8
  0
VERTEX
  5
13B5
330
13B1
100
AcDbEntity
  8
0
100
AcDbVertex
100
AcDb2dVertex
 10
439.0975687569155
 20
166.7830357968663
 30
0.0
 70
     8
  0
VERTEX
  5
13B6
330
13B1
100
AcDbEntity
  8
0
100
AcDbVertex
100
AcDb2dVertex
 10
439.0975687569155
 20
166.7830357968663
 30
0.0
 70
    16
  0
SEQEND
  5
13B7
330
13B1
100
AcDbEntity
  8
0
  0
LINE
  5
1831
330
17BA
100
AcDbEntity
  8
0
100
AcDbLine
 10
439.0975687569155
 20
277.2830357968663
 30
0.0
 11
353.2255687569157
 21
277.2830357968663
 31
0.0
  0
ARC
  5
183B
330
17BA
100
AcDbEntity
  8
0
100
AcDbCircle
 10
243.0975687569155
 20
222.0330357968663
 30
0.0
 40
123.21
100
AcDbArc
 50
0.0
 51
180.0
  0
ARC
  5
187E
330
17BA
100
AcDbEntity
  8
0
100
AcDbCircle
 10
243.0975687569155
 20
222.0330357968663
 30
0.0
 40
122.5
100
AcDbArc
 50
0.0050000000014865
 51
180.0
  0
ARC
  5
187F
102
{ACAD_REACTORS
330
1C12
102
}
330
17BA
100
AcDbEntity
  8
0
100
AcDbCircle
 10
243.0975687569155
 20
222.0330357968663
 30
0.0
 40
112.875
100
AcDbArc
 50
0.0
 51
180.0
  0
ARC
  5
1880
330
17BA
100
AcDbEntity
  8
0
100
AcDbCircle
 10
243.0975687569155
 20
222.0330357968663
 30
0.0
 40
114.5
100
AcDbArc
 50
0.0420000000025232
 51
180.0
  0
POLYLINE
  5
1896
330
17BA
100
AcDbEntity
  8
0
100
AcDb2dPolyline
 66
     1
 10
0.0
 20
0.0
 30
0.0
 70
   132
 75
     6
  0
VERTEX
  5
1897
330
1896
100
AcDbEntity
  8
0
100
AcDbVertex
100
AcDb2dVertex
 10
440.5355687569156
 20
222.0330357968663
 30
0.0
 70
     8
  0
VERTEX
  5
1898
330
1896
100
AcDbEntity
  8
0
100
AcDbVertex
100
AcDb2dVertex
 10
440.5355687569156
 20
222.0330357968663
 30
0.0
 70
    16
  0
VERTEX
  5
1899
330
1896
100
AcDbEntity
  8
0
100
AcDbVertex
100
AcDb2dVertex
 10
440.1755687569156
 20
249.6690357968663
 30
0.0
 70
     8
  0
VERTEX
  5
189A
330
1896
100
AcDbEntity
  8
0
100
AcDbVertex
100
AcDb2dVertex
 10
439.0975687569155
 20
277.2830357968663
 30
0.0
 70
     8
  0
VERTEX
  5
189B
330
1896
100
AcDbEntity
  8
0
100
AcDbVertex
100
AcDb2dVertex
 10
439.0975687569155
 20
277.2830357968663
 30
0.0
 70
    16
  0
SEQEND
  5
189C
330
1896
100
AcDbEntity
  8
0
  0
LINE
  5
18CC
330
17BA
100
AcDbEntity
  8
0
100
AcDbLine
 10
132.6953727569155
 20
590.0288177968662
 30
0.0
 11
130.5975687569155
 21
620.0288177968663
 31
0.0
  0
LINE
  5
18D9
330
17BA
100
AcDbEntity
  8
0
100
AcDbLine
 10
132.6953727569155
 20
590.0288177968662
 30
0.0
 11
147.6055437569155
 21
590.0288177968662
 31
0.0
  0
LINE
  5
18DB
330
17BA
100
AcDbEntity
  8
0
100
AcDbLine
 10
149.2016467569156
 20
588.5404277968663
 30
0.0
 11
149.6927577569156
 21
581.5172067968661
 31
0.0
  0
LINE
  5
18E0
330
17BA
100
AcDbEntity
  8
0
100
AcDbLine
 10
163.0975687569155
 20
620.0288177968663
 30
0.0
 11
160.4045737569154
 21
581.5172067968661
 31
0.0
  0
LINE
  5
18E5
330
17BA
100
AcDbEntity
  8
0
100
AcDbLine
 10
151.2888607569155
 20
580.0288177968663
 30
0.0
 11
182.4943987569154
 21
580.0288177968663
 31
0.0
  0
ARC
  5
18F0
330
17BA
100
AcDbEntity
  8
0
100
AcDbCircle
 10
158.8084717569154
 20
581.6288177968664
 30
0.0
 40
1.6
100
AcDbArc
 50
270.0
 51
355.999999999997
1001
GENIUS_GENODEF_13
1002
{
1000
HIER
1070
     0
1002
}
1002
{
1000
MANEDIT
1070
     0
1002
}
1002
{
1000
NOSEL
1070
     0
1002
}
1002
{
1000
BEHIND
1070
     0
1002
}
1002
{
1000
REACTOR
1002
}
1001
GENIUS_GENOBJ-N-FIL_13
1002
{
1000
OWNER
1000
GEN
1002
}
  0
ARC
  5
18F3
330
17BA
100
AcDbEntity
  8
0
100
AcDbCircle
 10
151.2888607569155
 20
581.6288177968664
 30
0.0
 40
1.6
100
AcDbArc
 50
184.000000000003
 51
270.0
1001
GENIUS_GENODEF_13
1002
{
1000
HIER
1070
     0
1002
}
1002
{
1000
MANEDIT
1070
     0
1002
}
1002
{
1000
NOSEL
1070
     0
1002
}
1002
{
1000
BEHIND
1070
     0
1002
}
1002
{
1000
REACTOR
1002
}
1001
GENIUS_GENOBJ-N-FIL_13
1002
{
1000
OWNER
1000
GEN
1002
}
  0
ARC
  5
18F5
330
17BA
100
AcDbEntity
  8
0
100
AcDbCircle
 10
147.6055437569155
 20
588.4288177968663
 30
0.0
 40
1.6
100
AcDbArc
 50
4.00000000000301
 51
90.0
1001
GENIUS_GENODEF_13
1002
{
1000
HIER
1070
     0
1002
}
1002
{
1000
MANEDIT
1070
     0
1002
}
1002
{
1000
NOSEL
1070
     0
1002
}
1002
{
1000
BEHIND
1070
     0
1002
}
1002
{
1000
REACTOR
1002
}
1001
GENIUS_GENOBJ-N-FIL_13
1002
{
1000
OWNER
1000
GEN
1002
}
  0
LINE
  5
18FC
330
17BA
100
AcDbEntity
  8
0
100
AcDbLine
 10
355.5975687569155
 20
620.0288177968663
 30
0.0
 11
130.5975687569155
 21
620.0288177968663
 31
0.0
  0
LINE
  5
18FD
330
17BA
100
AcDbEntity
  8
0
100
AcDbLine
 10
336.9934897569156
 20
588.5404277968663
 30
0.0
 11
336.5023787569155
 21
581.5172067968661
 31
0.0
  0
LINE
  5
18FE
330
17BA
100
AcDbEntity
  8
0
100
AcDbLine
 10
323.0975687569155
 20
620.0288177968663
 30
0.0
 11
325.7905627569155
 21
581.5172067968661
 31
0.0
  0
ARC
  5
1900
330
17BA
100
AcDbEntity
  8
0
100
AcDbCircle
 10
334.9062757569157
 20
581.6288177968664
 30
0.0
 40
1.6
100
AcDbArc
 50
270.0
 51
355.999999999997
1001
GENIUS_GENODEF_13
1002
{
1000
HIER
1070
     0
1002
}
1002
{
1000
MANEDIT
1070
     0
1002
}
1002
{
1000
NOSEL
1070
     0
1002
}
1002
{
1000
BEHIND
1070
     0
1002
}
1002
{
1000
REACTOR
1002
}
1001
GENIUS_GENOBJ-N-FIL_13
1002
{
1000
OWNER
1000
GEN
1002
}
  0
ARC
  5
1901
330
17BA
100
AcDbEntity
  8
0
100
AcDbCircle
 10
327.3866647569155
 20
581.6288177968664
 30
0.0
 40
1.6
100
AcDbArc
 50
184.000000000003
 51
270.0
1001
GENIUS_GENODEF_13
1002
{
1000
HIER
1070
     0
1002
}
1002
{
1000
MANEDIT
1070
     0
1002
}
1002
{
1000
NOSEL
1070
     0
1002
}
1002
{
1000
BEHIND
1070
     0
1002
}
1002
{
1000
REACTOR
1002
}
1001
GENIUS_GENOBJ-N-FIL_13
1002
{
1000
OWNER
1000
GEN
1002
}
  0
LINE
  5
1902
330
17BA
100
AcDbEntity
  8
0
100
AcDbLine
 10
353.4997637569156
 20
590.0288177968662
 30
0.0
 11
338.5895927569156
 21
590.0288177968662
 31
0.0
  0
LINE
  5
1903
330
17BA
100
AcDbEntity
  8
0
100
AcDbLine
 10
353.4997637569156
 20
590.0288177968662
 30
0.0
 11
355.5975687569155
 21
620.0288177968663
 31
0.0
  0
ARC
  5
1904
330
17BA
100
AcDbEntity
  8
0
100
AcDbCircle
 10
338.5895927569156
 20
588.4288177968663
 30
0.0
 40
1.6
100
AcDbArc
 50
90.0
 51
175.999999999997
1001
GENIUS_GENODEF_13
1002
{
1000
HIER
1070
     0
1002
}
1002
{
1000
MANEDIT
1070
     0
1002
}
1002
{
1000
NOSEL
1070
     0
1002
}
1002
{
1000
BEHIND
1070
     0
1002
}
1002
{
1000
REACTOR
1002
}
1001
GENIUS_GENOBJ-N-FIL_13
1002
{
1000
OWNER
1000
GEN
1002
}
  0
ARC
  5
1925
330
17BA
100
AcDbEntity
  8
0
100
AcDbCircle
 10
243.0975687569155
 20
935.0288177968662
 30
0.0
 40
325.0
100
AcDbArc
 50
259.027774999996
 51
262.0872430000061
  0
LINE
  5
1928
330
17BA
100
AcDbEntity
  8
0
100
AcDbLine
 10
185.4324327569156
 20
565.0288177968662
 30
0.0
 11
194.2627037569154
 21
565.0288177968662
 31
0.0
  0
LINE
  5
192C
330
17BA
100
AcDbEntity
  8
0
100
AcDbLine
 10
221.2816397569154
 20
555.0288177968663
 30
0.0
 11
229.4134967569155
 21
555.0288177968663
 31
0.0
  0
LINE
  5
194D
330
17BA
100
AcDbEntity
  8
0
100
AcDbLine
 10
182.9339557569156
 20
567.4415687968664
 30
0.0
 11
181.1818237569155
 21
617.6160657968661
 31
0.0
  0
LINE
  5
1952
330
17BA
100
AcDbEntity
  8
0
100
AcDbLine
 10
196.7611807569156
 20
567.4415687968664
 30
0.0
 11
198.5133127569156
 21
617.6160657968661
 31
0.0
  0
LINE
  5
1957
330
17BA
100
AcDbEntity
  8
0
100
AcDbLine
 10
218.7831627569155
 20
557.4415687968663
 30
0.0
 11
216.6818237569155
 21
617.6160657968661
 31
0.0
  0
LINE
  5
1958
330
17BA
100
AcDbEntity
  8
0
100
AcDbLine
 10
231.9119737569156
 20
557.4415687968663
 30
0.0
 11
234.0133127569156
 21
617.6160657968661
 31
0.0
  0
ARC
  5
1960
330
17BA
100
AcDbEntity
  8
0
100
AcDbCircle
 10
185.4324327569156
 20
567.5288177968663
 30
0.0
 40
2.5
100
AcDbArc
 50
181.999999999997
 51
270.0
1001
GENIUS_GENODEF_13
1002
{
1000
HIER
1070
     0
1002
}
1002
{
1000
MANEDIT
1070
     0
1002
}
1002
{
1000
NOSEL
1070
     0
1002
}
1002
{
1000
BEHIND
1070
     0
1002
}
1002
{
1000
REACTOR
1002
}
1001
GENIUS_GENOBJ-N-FIL_13
1002
{
1000
OWNER
1000
GEN
1002
}
  0
ARC
  5
1962
330
17BA
100
AcDbEntity
  8
0
100
AcDbCircle
 10
194.2627037569154
 20
567.5288177968663
 30
0.0
 40
2.5
100
AcDbArc
 50
270.0
 51
358.000000000003
1001
GENIUS_GENODEF_13
1002
{
1000
HIER
1070
     0
1002
}
1002
{
1000
MANEDIT
1070
     0
1002
}
1002
{
1000
NOSEL
1070
     0
1002
}
1002
{
1000
BEHIND
1070
     0
1002
}
1002
{
1000
REACTOR
1002
}
1001
GENIUS_GENOBJ-N-FIL_13
1002
{
1000
OWNER
1000
GEN
1002
}
  0
ARC
  5
1964
330
17BA
100
AcDbEntity
  8
0
100
AcDbCircle
 10
221.2816397569154
 20
557.5288177968663
 30
0.0
 40
2.5
100
AcDbArc
 50
181.999999999997
 51
270.0
1001
GENIUS_GENODEF_13
1002
{
1000
HIER
1070
     0
1002
}
1002
{
1000
MANEDIT
1070
     0
1002
}
1002
{
1000
NOSEL
1070
     0
1002
}
1002
{
1000
BEHIND
1070
     0
1002
}
1002
{
1000
REACTOR
1002
}
1001
GENIUS_GENOBJ-N-FIL_13
1002
{
1000
OWNER
1000
GEN
1002
}
  0
ARC
  5
1966
330
17BA
100
AcDbEntity
  8
0
100
AcDbCircle
 10
229.4134967569155
 20
557.5288177968663
 30
0.0
 40
2.5
100
AcDbArc
 50
270.0
 51
358.000000000003
1001
GENIUS_GENODEF_13
1002
{
1000
HIER
1070
     0
1002
}
1002
{
1000
MANEDIT
1070
     0
1002
}
1002
{
1000
NOSEL
1070
     0
1002
}
1002
{
1000
BEHIND
1070
     0
1002
}
1002
{
1000
REACTOR
1002
}
1001
GENIUS_GENOBJ-N-FIL_13
1002
{
1000
OWNER
1000
GEN
1002
}
  0
ARC
  5
1968
330
17BA
100
AcDbEntity
  8
0
100
AcDbCircle
 10
178.6833467569156
 20
617.5288177968663
 30
0.0
 40
2.5
100
AcDbArc
 50
1.999999999996988
 51
90.0
1001
GENIUS_GENODEF_13
1002
{
1000
HIER
1070
     0
1002
}
1002
{
1000
MANEDIT
1070
     0
1002
}
1002
{
1000
NOSEL
1070
     0
1002
}
1002
{
1000
BEHIND
1070
     0
1002
}
1002
{
1000
REACTOR
1002
}
1001
GENIUS_GENOBJ-N-FIL_13
1002
{
1000
OWNER
1000
GEN
1002
}
  0
ARC
  5
196F
330
17BA
100
AcDbEntity
  8
0
100
AcDbCircle
 10
201.0117897569155
 20
617.5288177968663
 30
0.0
 40
2.5
100
AcDbArc
 50
90.0
 51
178.000000000003
1001
GENIUS_GENODEF_13
1002
{
1000
HIER
1070
     0
1002
}
1002
{
1000
MANEDIT
1070
     0
1002
}
1002
{
1000
NOSEL
1070
     0
1002
}
1002
{
1000
BEHIND
1070
     0
1002
}
1002
{
1000
REACTOR
1002
}
1001
GENIUS_GENOBJ-N-FIL_13
1002
{
1000
OWNER
1000
GEN
1002
}
  0
ARC
  5
1971
330
17BA
100
AcDbEntity
  8
0
100
AcDbCircle
 10
214.1833467569156
 20
617.5288177968663
 30
0.0
 40
2.5
100
AcDbArc
 50
1.999999999996988
 51
90.0
1001
GENIUS_GENODEF_13
1002
{
1000
HIER
1070
     0
1002
}
1002
{
1000
MANEDIT
1070
     0
1002
}
1002
{
1000
NOSEL
1070
     0
1002
}
1002
{
1000
BEHIND
1070
     0
1002
}
1002
{
1000
REACTOR
1002
}
1001
GENIUS_GENOBJ-N-FIL_13
1002
{
1000
OWNER
1000
GEN
1002
}
  0
ARC
  5
1973
330
17BA
100
AcDbEntity
  8
0
100
AcDbCircle
 10
236.5117897569155
 20
617.5288177968663
 30
0.0
 40
2.5
100
AcDbArc
 50
90.0
 51
178.000000000003
1001
GENIUS_GENODEF_13
1002
{
1000
HIER
1070
     0
1002
}
1002
{
1000
MANEDIT
1070
     0
1002
}
1002
{
1000
NOSEL
1070
     0
1002
}
1002
{
1000
BEHIND
1070
     0
1002
}
1002
{
1000
REACTOR
1002
}
1001
GENIUS_GENOBJ-N-FIL_13
1002
{
1000
OWNER
1000
GEN
1002
}
  0
LINE
  5
1978
330
17BA
100
AcDbEntity
  8
0
100
AcDbLine
 10
232.7007377569155
 20
580.0288177968663
 30
0.0
 11
243.0975687569155
 21
580.0288177968663
 31
0.0
  0
LINE
  5
1979
330
17BA
100
AcDbEntity
  8
0
100
AcDbLine
 10
197.2007377569155
 20
580.0288177968663
 30
0.0
 11
217.9943987569154
 21
580.0288177968663
 31
0.0
  0
ARC
  5
1988
330
17BA
100
AcDbEntity
  8
0
100
AcDbCircle
 10
243.0975687569155
 20
935.0288177968662
 30
0.0
 40
325.0
100
AcDbArc
 50
265.3782369999961
 51
268.3523839999957
  0
ARC
  5
198D
330
17BA
100
AcDbEntity
  8
0
100
AcDbCircle
 10
243.0975687569155
 20
935.0288177968662
 30
0.0
 40
325.0
100
AcDbArc
 50
277.9127569999939
 51
280.972225000004
  0
ARC
  5
198F
330
17BA
100
AcDbEntity
  8
0
100
AcDbCircle
 10
300.7627037569155
 20
567.5288177968663
 30
0.0
 40
2.5
100
AcDbArc
 50
270.0
 51
358.000000000003
1001
GENIUS_GENODEF_13
1002
{
1000
HIER
1070
     0
1002
}
1002
{
1000
MANEDIT
1070
     0
1002
}
1002
{
1000
NOSEL
1070
     0
1002
}
1002
{
1000
BEHIND
1070
     0
1002
}
1002
{
1000
REACTOR
1002
}
1001
GENIUS_GENOBJ-N-FIL_13
1002
{
1000
OWNER
1000
GEN
1002
}
  0
LINE
  5
1990
330
17BA
100
AcDbEntity
  8
0
100
AcDbLine
 10
303.2611807569156
 20
567.4415687968664
 30
0.0
 11
305.0133127569156
 21
617.6160657968661
 31
0.0
  0
ARC
  5
1991
330
17BA
100
AcDbEntity
  8
0
100
AcDbCircle
 10
327.3866647569155
 20
581.6288177968664
 30
0.0
 40
1.6
100
AcDbArc
 50
184.000000000003
 51
270.0
1001
GENIUS_GENODEF_13
1002
{
1000
HIER
1070
     0
1002
}
1002
{
1000
MANEDIT
1070
     0
1002
}
1002
{
1000
NOSEL
1070
     0
1002
}
1002
{
1000
BEHIND
1070
     0
1002
}
1002
{
1000
REACTOR
1002
}
1001
GENIUS_GENOBJ-N-FIL_13
1002
{
1000
OWNER
1000
GEN
1002
}
  0
LINE
  5
1992
330
17BA
100
AcDbEntity
  8
0
100
AcDbLine
 10
254.2831627569155
 20
557.4415687968663
 30
0.0
 11
252.1818237569155
 21
617.6160657968661
 31
0.0
  0
LINE
  5
1993
330
17BA
100
AcDbEntity
  8
0
100
AcDbLine
 10
267.4119737569156
 20
557.4415687968663
 30
0.0
 11
269.5133127569156
 21
617.6160657968661
 31
0.0
  0
LINE
  5
1994
330
17BA
100
AcDbEntity
  8
0
100
AcDbLine
 10
289.4339557569156
 20
567.4415687968664
 30
0.0
 11
287.6818237569155
 21
617.6160657968661
 31
0.0
  0
LINE
  5
1996
330
17BA
100
AcDbEntity
  8
0
100
AcDbLine
 10
264.9134967569155
 20
555.0288177968663
 30
0.0
 11
256.7816397569154
 21
555.0288177968663
 31
0.0
  0
ARC
  5
1997
330
17BA
100
AcDbEntity
  8
0
100
AcDbCircle
 10
291.9324327569157
 20
567.5288177968663
 30
0.0
 40
2.5
100
AcDbArc
 50
181.999999999997
 51
270.0
1001
GENIUS_GENODEF_13
1002
{
1000
HIER
1070
     0
1002
}
1002
{
1000
MANEDIT
1070
     0
1002
}
1002
{
1000
NOSEL
1070
     0
1002
}
1002
{
1000
BEHIND
1070
     0
1002
}
1002
{
1000
REACTOR
1002
}
1001
GENIUS_GENOBJ-N-FIL_13
1002
{
1000
OWNER
1000
GEN
1002
}
  0
ARC
  5
1998
330
17BA
100
AcDbEntity
  8
0
100
AcDbCircle
 10
264.9134967569155
 20
557.5288177968663
 30
0.0
 40
2.5
100
AcDbArc
 50
270.0
 51
358.000000000003
1001
GENIUS_GENODEF_13
1002
{
1000
HIER
1070
     0
1002
}
1002
{
1000
MANEDIT
1070
     0
1002
}
1002
{
1000
NOSEL
1070
     0
1002
}
1002
{
1000
BEHIND
1070
     0
1002
}
1002
{
1000
REACTOR
1002
}
1001
GENIUS_GENOBJ-N-FIL_13
1002
{
1000
OWNER
1000
GEN
1002
}
  0
LINE
  5
1999
330
17BA
100
AcDbEntity
  8
0
100
AcDbLine
 10
288.9943987569154
 20
580.0288177968663
 30
0.0
 11
268.2007377569155
 21
580.0288177968663
 31
0.0
  0
LINE
  5
199A
330
17BA
100
AcDbEntity
  8
0
100
AcDbLine
 10
300.7627037569155
 20
565.0288177968662
 30
0.0
 11
291.9324327569157
 21
565.0288177968662
 31
0.0
  0
ARC
  5
199B
330
17BA
100
AcDbEntity
  8
0
100
AcDbCircle
 10
256.7816397569154
 20
557.5288177968663
 30
0.0
 40
2.5
100
AcDbArc
 50
181.999999999997
 51
270.0
1001
GENIUS_GENODEF_13
1002
{
1000
HIER
1070
     0
1002
}
1002
{
1000
MANEDIT
1070
     0
1002
}
1002
{
1000
NOSEL
1070
     0
1002
}
1002
{
1000
BEHIND
1070
     0
1002
}
1002
{
1000
REACTOR
1002
}
1001
GENIUS_GENOBJ-N-FIL_13
1002
{
1000
OWNER
1000
GEN
1002
}
  0
ARC
  5
199C
330
17BA
100
AcDbEntity
  8
0
100
AcDbCircle
 10
243.0975687569155
 20
935.0288177968662
 30
0.0
 40
325.0
100
AcDbArc
 50
271.6476160000043
 51
274.6217630000039
  0
ARC
  5
199D
330
17BA
100
AcDbEntity
  8
0
100
AcDbCircle
 10
249.6833467569156
 20
617.5288177968663
 30
0.0
 40
2.5
100
AcDbArc
 50
1.999999999996988
 51
90.0
1001
GENIUS_GENODEF_13
1002
{
1000
HIER
1070
     0
1002
}
1002
{
1000
MANEDIT
1070
     0
1002
}
1002
{
1000
NOSEL
1070
     0
1002
}
1002
{
1000
BEHIND
1070
     0
1002
}
1002
{
1000
REACTOR
1002
}
1001
GENIUS_GENOBJ-N-FIL_13
1002
{
1000
OWNER
1000
GEN
1002
}
  0
ARC
  5
199E
330
17BA
100
AcDbEntity
  8
0
100
AcDbCircle
 10
272.0117897569155
 20
617.5288177968663
 30
0.0
 40
2.5
100
AcDbArc
 50
90.0
 51
178.000000000003
1001
GENIUS_GENODEF_13
1002
{
1000
HIER
1070
     0
1002
}
1002
{
1000
MANEDIT
1070
     0
1002
}
1002
{
1000
NOSEL
1070
     0
1002
}
1002
{
1000
BEHIND
1070
     0
1002
}
1002
{
1000
REACTOR
1002
}
1001
GENIUS_GENOBJ-N-FIL_13
1002
{
1000
OWNER
1000
GEN
1002
}
  0
ARC
  5
199F
330
17BA
100
AcDbEntity
  8
0
100
AcDbCircle
 10
285.1833467569156
 20
617.5288177968663
 30
0.0
 40
2.5
100
AcDbArc
 50
1.999999999996988
 51
90.0
1001
GENIUS_GENODEF_13
1002
{
1000
HIER
1070
     0
1002
}
1002
{
1000
MANEDIT
1070
     0
1002
}
1002
{
1000
NOSEL
1070
     0
1002
}
1002
{
1000
BEHIND
1070
     0
1002
}
1002
{
1000
REACTOR
1002
}
1001
GENIUS_GENOBJ-N-FIL_13
1002
{
1000
OWNER
1000
GEN
1002
}
  0
ARC
  5
19A0
330
17BA
100
AcDbEntity
  8
0
100
AcDbCircle
 10
307.5117897569155
 20
617.5288177968663
 30
0.0
 40
2.5
100
AcDbArc
 50
90.0
 51
178.000000000003
1001
GENIUS_GENODEF_13
1002
{
1000
HIER
1070
     0
1002
}
1002
{
1000
MANEDIT
1070
     0
1002
}
1002
{
1000
NOSEL
1070
     0
1002
}
1002
{
1000
BEHIND
1070
     0
1002
}
1002
{
1000
REACTOR
1002
}
1001
GENIUS_GENOBJ-N-FIL_13
1002
{
1000
OWNER
1000
GEN
1002
}
  0
LINE
  5
19A1
330
17BA
100
AcDbEntity
  8
0
100
AcDbLine
 10
334.9062757569157
 20
580.0288177968663
 30
0.0
 11
303.7007377569155
 21
580.0288177968663
 31
0.0
  0
LINE
  5
19A2
330
17BA
100
AcDbEntity
  8
0
100
AcDbLine
 10
253.4943987569154
 20
580.0288177968663
 30
0.0
 11
243.0975687569155
 21
580.0288177968663
 31
0.0
  0
HATCH
  5
19B0
330
17BA
100
AcDbEntity
  8
8
100
AcDbHatch
 10
0.0
 20
0.0
 30
0.0
210
0.0
220
0.0
230
1.0
  2
_U
 70
     0
 71
     0
 91
        1
 92
        1
 93
        9
 72
     1
 10
132.6953727569155
 20
590.0288177968662
 11
147.6055437569155
 21
590.0288177968662
 72
     2
 10
147.6055437569155
 20
588.4288177968663
 40
1.6
 50
270.0
 51
356.0
 73
     0
 72
     1
 10
149.2016467569156
 20
588.5404277968663
 11
149.6927577569156
 21
581.5172067968661
 72
     2
 10
151.2888607569155
 20
581.6288177968664
 40
1.6
 50
184.0
 51
270.0
 73
     1
 72
     1
 10
151.2888607569155
 20
580.0288177968663
 11
158.8084717569154
 21
580.0288177968663
 72
     2
 10
158.8084717569154
 20
581.6288177968664
 40
1.6
 50
270.0
 51
356.0
 73
     1
 72
     1
 10
160.4045737569154
 20
581.5172067968661
 11
163.0975687569155
 21
620.0288177968663
 72
     1
 10
163.0975687569155
 20
620.0288177968663
 11
130.5975687569155
 21
620.0288177968663
 72
     1
 10
130.5975687569155
 20
620.0288177968663
 11
132.6953727569155
 21
590.0288177968662
 97
        0
 75
     0
 76
     0
 52
45.0
 41
8.0
 77
     0
 78
     1
 53
45.0
 43
-5.06072424308445
 44
75.39703579686625
 45
-5.656854249492379
 46
5.656854249492379
 79
     0
 98
        1
 10
36.31456875691561
 20
-23.95425820313369
1001
GENIUS_GENODEF_13
1002
{
1000
HIER
1070
     0
1002
}
1002
{
1000
MANEDIT
1070
     0
1002
}
1002
{
1000
NOSEL
1070
     0
1002
}
1002
{
1000
BEHIND
1070
     0
1002
}
1002
{
1000
REACTOR
1002
}
1001
GENIUS_GENOBJ-N-HTC_13
1002
{
1000
OWNER
1000
GEN
1002
}
1001
GENIUS_GENHATCH_13
1002
{
1000
DATA
1040
45.0
1042
2.5
1000
_U
1070
     0
1011
146.5005197569155
1021
611.7615037968663
1031
0.0
1002
}
1002
{
1000
UCS
1010
0.0
1020
0.0
1030
0.0
1010
1.0
1020
0.0
1030
0.0
1010
0.0
1020
1.0
1030
0.0
1002
}
  0
HATCH
  5
19BD
330
17BA
100
AcDbEntity
  8
8
100
AcDbHatch
 10
0.0
 20
0.0
 30
0.0
210
0.0
220
0.0
230
1.0
  2
_U
 70
     0
 71
     0
 91
        1
 92
        1
 93
        6
 72
     1
 10
185.4324327569156
 20
565.0288177968662
 11
194.2627037569154
 21
565.0288177968662
 72
     2
 10
194.2627037569154
 20
567.5288177968663
 40
2.5
 50
270.0
 51
358.0
 73
     1
 72
     1
 10
196.7611807569156
 20
567.4415687968664
 11
198.3564187569156
 21
613.1231947968662
 72
     2
 10
243.0975687569155
 20
935.0288177968662
 40
325.0
 50
97.91275699999999
 51
100.972225
 73
     0
 72
     1
 10
181.2393067569155
 20
615.9699587968661
 11
182.9339557569156
 21
567.4415687968664
 72
     2
 10
185.4324327569156
 20
567.5288177968663
 40
2.5
 50
182.0
 51
270.0
 73
     1
 97
        0
 75
     0
 76
     0
 52
45.0
 41
10.0
 77
     0
 78
     1
 53
45.0
 43
-5.06072424308445
 44
75.39703579686625
 45
-7.071067811865473
 46
7.071067811865475
 79
     0
 98
        1
 10
36.31456875691561
 20
-23.95425820313369
1001
GENIUS_GENODEF_13
1002
{
1000
HIER
1070
     0
1002
}
1002
{
1000
MANEDIT
1070
     0
1002
}
1002
{
1000
NOSEL
1070
     0
1002
}
1002
{
1000
BEHIND
1070
     0
1002
}
1002
{
1000
REACTOR
1002
}
1001
GENIUS_GENOBJ-N-HTC_13
1002
{
1000
OWNER
1000
GEN
1002
}
1001
GENIUS_GENHATCH_13
1002
{
1000
DATA
1040
45.0
1042
2.5
1000
_U
1070
     0
1011
188.6586357569156
1021
601.5116667968662
1031
0.0
1002
}
1002
{
1000
UCS
1010
0.0
1020
0.0
1030
0.0
1010
1.0
1020
0.0
1030
0.0
1010
0.0
1020
1.0
1030
0.0
1002
}
  0
HATCH
  5
19C8
330
17BA
100
AcDbEntity
  8
8
100
AcDbHatch
 10
0.0
 20
0.0
 30
0.0
210
0.0
220
0.0
230
1.0
  2
_U
 70
     0
 71
     0
 91
        1
 92
        1
 93
        6
 72
     1
 10
221.2816397569154
 20
555.0288177968663
 11
229.4134967569155
 21
555.0288177968663
 72
     2
 10
229.4134967569155
 20
557.5288177968663
 40
2.5
 50
270.0
 51
358.0
 73
     1
 72
     1
 10
231.9119737569156
 20
557.4415687968663
 11
233.7530527569156
 21
610.163183796866
 72
     2
 10
243.0975687569155
 20
935.0288177968662
 40
325.0
 50
91.647616
 51
94.62176300000001
 73
     0
 72
     1
 10
216.9098717569154
 20
611.0856057968661
 11
218.7831627569155
 21
557.4415687968663
 72
     2
 10
221.2816397569154
 20
557.5288177968663
 40
2.5
 50
182.0
 51
270.0
 73
     1
 97
        0
 75
     0
 76
     0
 52
45.0
 41
10.0
 77
     0
 78
     1
 53
45.0
 43
-5.06072424308445
 44
75.39703579686625
 45
-7.071067811865473
 46
7.071067811865475
 79
     0
 98
        1
 10
36.31456875691561
 20
-23.95425820313369
1001
GENIUS_GENODEF_13
1002
{
1000
HIER
1070
     0
1002
}
1002
{
1000
MANEDIT
1070
     0
1002
}
1002
{
1000
NOSEL
1070
     0
1002
}
1002
{
1000
BEHIND
1070
     0
1002
}
1002
{
1000
REACTOR
1002
}
1001
GENIUS_GENOBJ-N-HTC_13
1002
{
1000
OWNER
1000
GEN
1002
}
1001
GENIUS_GENHATCH_13
1002
{
1000
DATA
1040
45.0
1042
2.5
1000
_U
1070
     0
1011
223.9803027569156
1021
601.2269497968662
1031
0.0
1002
}
1002
{
1000
UCS
1010
0.0
1020
0.0
1030
0.0
1010
1.0
1020
0.0
1030
0.0
1010
0.0
1020
1.0
1030
0.0
1002
}
  0
HATCH
  5
19D3
330
17BA
100
AcDbEntity
  8
8
100
AcDbHatch
 10
0.0
 20
0.0
 30
0.0
210
0.0
220
0.0
230
1.0
  2
_U
 70
     0
 71
     0
 91
        1
 92
        1
 93
        6
 72
     1
 10
252.4420837569157
 20
610.163183796866
 11
254.2831627569155
 21
557.4415687968663
 72
     2
 10
256.7816397569154
 20
557.5288177968663
 40
2.5
 50
182.0
 51
270.0
 73
     1
 72
     1
 10
256.7816397569154
 20
555.0288177968663
 11
264.9134967569155
 21
555.0288177968663
 72
     2
 10
264.9134967569155
 20
557.5288177968663
 40
2.5
 50
270.0
 51
358.0
 73
     1
 72
     1
 10
267.4119737569156
 20
557.4415687968663
 11
269.2852647569154
 21
611.0856057968661
 72
     2
 10
243.0975687569155
 20
935.0288177968662
 40
325.0
 50
85.378237
 51
88.35238399999999
 73
     0
 97
        0
 75
     0
 76
     0
 52
45.0
 41
10.0
 77
     0
 78
     1
 53
45.0
 43
-5.06072424308445
 44
75.39703579686625
 45
-7.071067811865473
 46
7.071067811865475
 79
     0
 98
        1
 10
36.31456875691561
 20
-23.95425820313369
1001
GENIUS_GENODEF_13
1002
{
1000
HIER
1070
     0
1002
}
1002
{
1000
MANEDIT
1070
     0
1002
}
1002
{
1000
NOSEL
1070
     0
1002
}
1002
{
1000
BEHIND
1070
     0
1002
}
1002
{
1000
REACTOR
1002
}
1001
GENIUS_GENOBJ-N-HTC_13
1002
{
1000
OWNER
1000
GEN
1002
}
1001
GENIUS_GENHATCH_13
1002
{
1000
DATA
1040
45.0
1042
2.5
1000
_U
1070
     0
1011
263.0050467569156
1021
600.3727957968662
1031
0.0
1002
}
1002
{
1000
UCS
1010
0.0
1020
0.0
1030
0.0
1010
1.0
1020
0.0
1030
0.0
1010
0.0
1020
1.0
1030
0.0
1002
}
  0
HATCH
  5
19DE
330
17BA
100
AcDbEntity
  8
8
100
AcDbHatch
 10
0.0
 20
0.0
 30
0.0
210
0.0
220
0.0
230
1.0
  2
_U
 70
     0
 71
     0
 91
        1
 92
        1
 93
        6
 72
     1
 10
287.8387177569157
 20
613.1231947968662
 11
289.4339557569156
 21
567.4415687968664
 72
     2
 10
291.9324327569157
 20
567.5288177968663
 40
2.5
 50
182.0
 51
270.0
 73
     1
 72
     1
 10
291.9324327569157
 20
565.0288177968662
 11
300.7627037569155
 21
565.0288177968662
 72
     2
 10
300.7627037569155
 20
567.5288177968663
 40
2.5
 50
270.0
 51
358.0
 73
     1
 72
     1
 10
303.2611807569156
 20
567.4415687968664
 11
304.9558297569156
 21
615.9699587968661
 72
     2
 10
243.0975687569155
 20
935.0288177968662
 40
325.0
 50
79.027775
 51
82.087243
 73
     0
 97
        0
 75
     0
 76
     0
 52
45.0
 41
7.5
 77
     0
 78
     1
 53
45.0
 43
-5.06072424308445
 44
75.39703579686625
 45
-5.303300858899106
 46
5.303300858899106
 79
     0
 98
        1
 10
36.31456875691561
 20
-23.95425820313369
1001
GENIUS_GENODEF_13
1002
{
1000
HIER
1070
     0
1002
}
1002
{
1000
MANEDIT
1070
     0
1002
}
1002
{
1000
NOSEL
1070
     0
1002
}
1002
{
1000
BEHIND
1070
     0
1002
}
1002
{
1000
REACTOR
1002
}
1001
GENIUS_GENOBJ-N-HTC_13
1002
{
1000
OWNER
1000
GEN
1002
}
1001
GENIUS_GENHATCH_13
1002
{
1000
DATA
1040
45.0
1042
2.5
1000
_U
1070
     0
1011
298.0418607569156
1021
601.2269497968662
1031
0.0
1002
}
1002
{
1000
UCS
1010
0.0
1020
0.0
1030
0.0
1010
1.0
1020
0.0
1030
0.0
1010
0.0
1020
1.0
1030
0.0
1002
}
  0
HATCH
  5
19EC
330
17BA
100
AcDbEntity
  8
8
100
AcDbHatch
 10
0.0
 20
0.0
 30
0.0
210
0.0
220
0.0
230
1.0
  2
_U
 70
     0
 71
     0
 91
        1
 92
        1
 93
        9
 72
     2
 10
327.3866647569155
 20
581.6288177968664
 40
1.6
 50
184.0
 51
270.0
 73
     1
 72
     1
 10
327.3866647569155
 20
580.0288177968663
 11
334.9062757569157
 21
580.0288177968663
 72
     2
 10
334.9062757569157
 20
581.6288177968664
 40
1.6
 50
270.0
 51
356.0
 73
     1
 72
     1
 10
336.5023787569155
 20
581.5172067968661
 11
336.9934897569156
 21
588.5404277968663
 72
     2
 10
338.5895927569156
 20
588.4288177968663
 40
1.6
 50
184.0
 51
270.0
 73
     0
 72
     1
 10
338.5895927569156
 20
590.0288177968662
 11
353.4997637569156
 21
590.0288177968662
 72
     1
 10
353.4997637569156
 20
590.0288177968662
 11
355.5975687569155
 21
620.0288177968663
 72
     1
 10
355.5975687569155
 20
620.0288177968663
 11
323.0975687569155
 21
620.0288177968663
 72
     1
 10
323.0975687569155
 20
620.0288177968663
 11
325.7905627569155
 21
581.5172067968661
 97
        0
 75
     0
 76
     0
 52
45.0
 41
10.0
 77
     0
 78
     1
 53
45.0
 43
-5.06072424308445
 44
75.39703579686625
 45
-7.071067811865473
 46
7.071067811865475
 79
     0
 98
        1
 10
36.31456875691561
 20
-23.95425820313369
1001
GENIUS_GENODEF_13
1002
{
1000
HIER
1070
     0
1002
}
1002
{
1000
MANEDIT
1070
     0
1002
}
1002
{
1000
NOSEL
1070
     0
1002
}
1002
{
1000
BEHIND
1070
     0
1002
}
1002
{
1000
REACTOR
1002
}
1001
GENIUS_GENOBJ-N-HTC_13
1002
{
1000
OWNER
1000
GEN
1002
}
1001
GENIUS_GENHATCH_13
1002
{
1000
DATA
1040
45.0
1042
2.5
1000
_U
1070
     0
1011
341.3393847569157
1021
607.7754567968662
1031
0.0
1002
}
1002
{
1000
UCS
1010
0.0
1020
0.0
1030
0.0
1010
1.0
1020
0.0
1030
0.0
1010
0.0
1020
1.0
1030
0.0
1002
}
  0
POLYLINE
  5
1A3C
330
17BA
100
AcDbEntity
  8
SCHRAFFUR_RAND
100
AcDb2dPolyline
 66
     1
 10
0.0
 20
0.0
 30
0.0
 70
   129
  0
VERTEX
  5
1A3D
330
1A3C
100
AcDbEntity
  8
SCHRAFFUR_RAND
100
AcDbVertex
100
AcDb2dVertex
 10
355.5975687569155
 20
620.0288177968663
 30
0.0
  0
VERTEX
  5
1A3E
330
1A3C
100
AcDbEntity
  8
SCHRAFFUR_RAND
100
AcDbVertex
100
AcDb2dVertex
 10
323.0975687569155
 20
620.0288177968663
 30
0.0
  0
VERTEX
  5
1A3F
330
1A3C
100
AcDbEntity
  8
SCHRAFFUR_RAND
100
AcDbVertex
100
AcDb2dVertex
 10
325.7905627569155
 20
581.5172067968661
 30
0.0
 42
0.39391
  0
VERTEX
  5
1A40
330
1A3C
100
AcDbEntity
  8
SCHRAFFUR_RAND
100
AcDbVertex
100
AcDb2dVertex
 10
327.3866647569155
 20
580.0288177968663
 30
0.0
  0
VERTEX
  5
1A41
330
1A3C
100
AcDbEntity
  8
SCHRAFFUR_RAND
100
AcDbVertex
100
AcDb2dVertex
 10
334.9062757569157
 20
580.0288177968663
 30
0.0
 42
0.39391
  0
VERTEX
  5
1A42
330
1A3C
100
AcDbEntity
  8
SCHRAFFUR_RAND
100
AcDbVertex
100
AcDb2dVertex
 10
336.5023787569155
 20
581.5172067968661
 30
0.0
  0
VERTEX
  5
1A43
330
1A3C
100
AcDbEntity
  8
SCHRAFFUR_RAND
100
AcDbVertex
100
AcDb2dVertex
 10
336.9934897569156
 20
588.5404277968663
 30
0.0
 42
-0.39391
  0
VERTEX
  5
1A44
330
1A3C
100
AcDbEntity
  8
SCHRAFFUR_RAND
100
AcDbVertex
100
AcDb2dVertex
 10
338.5895927569156
 20
590.0288177968662
 30
0.0
  0
VERTEX
  5
1A45
330
1A3C
100
AcDbEntity
  8
SCHRAFFUR_RAND
100
AcDbVertex
100
AcDb2dVertex
 10
353.4997637569156
 20
590.0288177968662
 30
0.0
  0
SEQEND
  5
1A46
330
1A3C
100
AcDbEntity
  8
SCHRAFFUR_RAND
  0
POLYLINE
  5
1A47
330
17BA
100
AcDbEntity
  8
SCHRAFFUR_RAND
100
AcDb2dPolyline
 66
     1
 10
0.0
 20
0.0
 30
0.0
 70
   129
  0
VERTEX
  5
1A48
330
1A47
100
AcDbEntity
  8
SCHRAFFUR_RAND
100
AcDbVertex
100
AcDb2dVertex
 10
304.9558297569156
 20
615.9699587968661
 30
0.0
 42
-0.01335
  0
VERTEX
  5
1A49
330
1A47
100
AcDbEntity
  8
SCHRAFFUR_RAND
100
AcDbVertex
100
AcDb2dVertex
 10
287.8387177569157
 20
613.1231947968662
 30
0.0
  0
VERTEX
  5
1A4A
330
1A47
100
AcDbEntity
  8
SCHRAFFUR_RAND
100
AcDbVertex
100
AcDb2dVertex
 10
289.4339557569156
 20
567.4415687968664
 30
0.0
 42
0.404026
  0
VERTEX
  5
1A4B
330
1A47
100
AcDbEntity
  8
SCHRAFFUR_RAND
100
AcDbVertex
100
AcDb2dVertex
 10
291.9324327569157
 20
565.0288177968662
 30
0.0
  0
VERTEX
  5
1A4C
330
1A47
100
AcDbEntity
  8
SCHRAFFUR_RAND
100
AcDbVertex
100
AcDb2dVertex
 10
300.7627037569155
 20
565.0288177968662
 30
0.0
 42
0.404026
  0
VERTEX
  5
1A4D
330
1A47
100
AcDbEntity
  8
SCHRAFFUR_RAND
100
AcDbVertex
100
AcDb2dVertex
 10
303.2611807569156
 20
567.4415687968664
 30
0.0
  0
SEQEND
  5
1A4E
330
1A47
100
AcDbEntity
  8
SCHRAFFUR_RAND
  0
POLYLINE
  5
1A4F
330
17BA
100
AcDbEntity
  8
SCHRAFFUR_RAND
100
AcDb2dPolyline
 66
     1
 10
0.0
 20
0.0
 30
0.0
 70
   129
  0
VERTEX
  5
1A50
330
1A4F
100
AcDbEntity
  8
SCHRAFFUR_RAND
100
AcDbVertex
100
AcDb2dVertex
 10
269.2852647569154
 20
611.0856057968661
 30
0.0
 42
-0.012978
  0
VERTEX
  5
1A51
330
1A4F
100
AcDbEntity
  8
SCHRAFFUR_RAND
100
AcDbVertex
100
AcDb2dVertex
 10
252.4420837569157
 20
610.163183796866
 30
0.0
  0
VERTEX
  5
1A52
330
1A4F
100
AcDbEntity
  8
SCHRAFFUR_RAND
100
AcDbVertex
100
AcDb2dVertex
 10
254.2831627569155
 20
557.4415687968663
 30
0.0
 42
0.404026
  0
VERTEX
  5
1A53
330
1A4F
100
AcDbEntity
  8
SCHRAFFUR_RAND
100
AcDbVertex
100
AcDb2dVertex
 10
256.7816397569154
 20
555.0288177968663
 30
0.0
  0
VERTEX
  5
1A54
330
1A4F
100
AcDbEntity
  8
SCHRAFFUR_RAND
100
AcDbVertex
100
AcDb2dVertex
 10
264.9134967569155
 20
555.0288177968663
 30
0.0
 42
0.404026
  0
VERTEX
  5
1A55
330
1A4F
100
AcDbEntity
  8
SCHRAFFUR_RAND
100
AcDbVertex
100
AcDb2dVertex
 10
267.4119737569156
 20
557.4415687968663
 30
0.0
  0
SEQEND
  5
1A56
330
1A4F
100
AcDbEntity
  8
SCHRAFFUR_RAND
  0
POLYLINE
  5
1A57
330
17BA
100
AcDbEntity
  8
SCHRAFFUR_RAND
100
AcDb2dPolyline
 66
     1
 10
0.0
 20
0.0
 30
0.0
 70
   129
  0
VERTEX
  5
1A58
330
1A57
100
AcDbEntity
  8
SCHRAFFUR_RAND
100
AcDbVertex
100
AcDb2dVertex
 10
233.7530527569156
 20
610.163183796866
 30
0.0
 42
-0.012978
  0
VERTEX
  5
1A59
330
1A57
100
AcDbEntity
  8
SCHRAFFUR_RAND
100
AcDbVertex
100
AcDb2dVertex
 10
216.9098717569154
 20
611.0856057968661
 30
0.0
  0
VERTEX
  5
1A5A
330
1A57
100
AcDbEntity
  8
SCHRAFFUR_RAND
100
AcDbVertex
100
AcDb2dVertex
 10
218.7831627569155
 20
557.4415687968663
 30
0.0
 42
0.404026
  0
VERTEX
  5
1A5B
330
1A57
100
AcDbEntity
  8
SCHRAFFUR_RAND
100
AcDbVertex
100
AcDb2dVertex
 10
221.2816397569154
 20
555.0288177968663
 30
0.0
  0
VERTEX
  5
1A5C
330
1A57
100
AcDbEntity
  8
SCHRAFFUR_RAND
100
AcDbVertex
100
AcDb2dVertex
 10
229.4134967569155
 20
555.0288177968663
 30
0.0
 42
0.404026
  0
VERTEX
  5
1A5D
330
1A57
100
AcDbEntity
  8
SCHRAFFUR_RAND
100
AcDbVertex
100
AcDb2dVertex
 10
231.9119737569156
 20
557.4415687968663
 30
0.0
  0
SEQEND
  5
1A5E
330
1A57
100
AcDbEntity
  8
SCHRAFFUR_RAND
  0
POLYLINE
  5
1A5F
330
17BA
100
AcDbEntity
  8
SCHRAFFUR_RAND
100
AcDb2dPolyline
 66
     1
 10
0.0
 20
0.0
 30
0.0
 70
   129
  0
VERTEX
  5
1A60
330
1A5F
100
AcDbEntity
  8
SCHRAFFUR_RAND
100
AcDbVertex
100
AcDb2dVertex
 10
198.3564187569156
 20
613.1231947968662
 30
0.0
 42
-0.01335
  0
VERTEX
  5
1A61
330
1A5F
100
AcDbEntity
  8
SCHRAFFUR_RAND
100
AcDbVertex
100
AcDb2dVertex
 10
181.2393067569155
 20
615.9699587968661
 30
0.0
  0
VERTEX
  5
1A62
330
1A5F
100
AcDbEntity
  8
SCHRAFFUR_RAND
100
AcDbVertex
100
AcDb2dVertex
 10
182.9339557569156
 20
567.4415687968664
 30
0.0
 42
0.404026
  0
VERTEX
  5
1A63
330
1A5F
100
AcDbEntity
  8
SCHRAFFUR_RAND
100
AcDbVertex
100
AcDb2dVertex
 10
185.4324327569156
 20
565.0288177968662
 30
0.0
  0
VERTEX
  5
1A64
330
1A5F
100
AcDbEntity
  8
SCHRAFFUR_RAND
100
AcDbVertex
100
AcDb2dVertex
 10
194.2627037569154
 20
565.0288177968662
 30
0.0
 42
0.404026
  0
VERTEX
  5
1A65
330
1A5F
100
AcDbEntity
  8
SCHRAFFUR_RAND
100
AcDbVertex
100
AcDb2dVertex
 10
196.7611807569156
 20
567.4415687968664
 30
0.0
  0
SEQEND
  5
1A66
330
1A5F
100
AcDbEntity
  8
SCHRAFFUR_RAND
  0
POLYLINE
  5
1A67
330
17BA
100
AcDbEntity
  8
SCHRAFFUR_RAND
100
AcDb2dPolyline
 66
     1
 10
0.0
 20
0.0
 30
0.0
 70
   129
  0
VERTEX
  5
1A68
330
1A67
100
AcDbEntity
  8
SCHRAFFUR_RAND
100
AcDbVertex
100
AcDb2dVertex
 10
163.0975687569155
 20
620.0288177968663
 30
0.0
  0
VERTEX
  5
1A69
330
1A67
100
AcDbEntity
  8
SCHRAFFUR_RAND
100
AcDbVertex
100
AcDb2dVertex
 10
130.5975687569155
 20
620.0288177968663
 30
0.0
  0
VERTEX
  5
1A6A
330
1A67
100
AcDbEntity
  8
SCHRAFFUR_RAND
100
AcDbVertex
100
AcDb2dVertex
 10
132.6953727569155
 20
590.0288177968662
 30
0.0
  0
VERTEX
  5
1A6B
330
1A67
100
AcDbEntity
  8
SCHRAFFUR_RAND
100
AcDbVertex
100
AcDb2dVertex
 10
147.6055437569155
 20
590.0288177968662
 30
0.0
 42
-0.39391
  0
VERTEX
  5
1A6C
330
1A67
100
AcDbEntity
  8
SCHRAFFUR_RAND
100
AcDbVertex
100
AcDb2dVertex
 10
149.2016467569156
 20
588.5404277968663
 30
0.0
  0
VERTEX
  5
1A6D
330
1A67
100
AcDbEntity
  8
SCHRAFFUR_RAND
100
AcDbVertex
100
AcDb2dVertex
 10
149.6927577569156
 20
581.5172067968661
 30
0.0
 42
0.39391
  0
VERTEX
  5
1A6E
330
1A67
100
AcDbEntity
  8
SCHRAFFUR_RAND
100
AcDbVertex
100
AcDb2dVertex
 10
151.2888607569155
 20
580.0288177968663
 30
0.0
  0
VERTEX
  5
1A6F
330
1A67
100
AcDbEntity
  8
SCHRAFFUR_RAND
100
AcDbVertex
100
AcDb2dVertex
 10
158.8084717569154
 20
580.0288177968663
 30
0.0
 42
0.39391
  0
VERTEX
  5
1A70
330
1A67
100
AcDbEntity
  8
SCHRAFFUR_RAND
100
AcDbVertex
100
AcDb2dVertex
 10
160.4045737569154
 20
581.5172067968661
 30
0.0
  0
SEQEND
  5
1A71
330
1A67
100
AcDbEntity
  8
SCHRAFFUR_RAND
  0
ARC
  5
1AA4
330
17BA
100
AcDbEntity
  8
0
100
AcDbCircle
 10
243.0975687569155
 20
222.0330357968663
 30
0.0
 40
80.0
100
AcDbArc
 50
90.0
 51
270.0
  0
LINE
  5
1AAA
330
17BA
100
AcDbEntity
  8
0
100
AcDbLine
 10
181.2393067569155
 20
265.2101607968663
 30
0.0
 11
181.2393067569155
 21
178.8559097968663
 31
0.0
  0
LINE
  5
1AAF
330
17BA
100
AcDbEntity
  8
0
100
AcDbLine
 10
198.3564187569156
 20
288.3521847968664
 30
0.0
 11
198.3564187569156
 21
157.0566147968662
 31
0.0
  0
LINE
  5
1AB4
330
17BA
100
AcDbEntity
  8
0
100
AcDbLine
 10
216.9098717569154
 20
294.0279387968662
 30
0.0
 11
216.9098717569154
 21
150.0381317968662
 31
0.0
  0
LINE
  5
1AB9
330
17BA
100
AcDbEntity
  8
0
100
AcDbLine
 10
233.7530527569156
 20
299.2302027968662
 30
0.0
 11
233.7530527569156
 21
144.8358677968663
 31
0.0
  0
LINE
  5
1ABE
330
17BA
100
AcDbEntity
  8
0
100
AcDbLine
 10
252.4420837569157
 20
299.2302027968662
 30
0.0
 11
252.4420837569157
 21
144.8358677968663
 31
0.0
  0
LINE
  5
1AC3
330
17BA
100
AcDbEntity
  8
0
100
AcDbLine
 10
269.2852647569154
 20
294.0279387968662
 30
0.0
 11
269.2852647569154
 21
150.0381317968662
 31
0.0
  0
LINE
  5
1AC8
330
17BA
100
AcDbEntity
  8
0
100
AcDbLine
 10
287.8387177569157
 20
287.0094557968662
 30
0.0
 11
287.8387177569157
 21
157.0566147968662
 31
0.0
  0
LINE
  5
1ACD
330
17BA
100
AcDbEntity
  8
0
100
AcDbLine
 10
304.9558297569156
 20
265.2101607968663
 30
0.0
 11
304.9558297569156
 21
178.8559097968663
 31
0.0
  0
ARC
  5
1AD5
330
17BA
100
AcDbEntity
  8
0
100
AcDbCircle
 10
243.0975687569155
 20
222.0330357968663
 30
0.0
 40
80.0
100
AcDbArc
 50
270.0
 51
90.0
  0
ARC
  5
1ADA
330
17BA
100
AcDbEntity
  8
0
100
AcDbCircle
 10
178.7393067569155
 20
265.2101607968663
 30
0.0
 40
2.5
100
AcDbArc
 50
0.0
 51
146.1428510000004
1001
GENIUS_GENODEF_13
1002
{
1000
HIER
1070
     0
1002
}
1002
{
1000
MANEDIT
1070
     0
1002
}
1002
{
1000
NOSEL
1070
     0
1002
}
1002
{
1000
BEHIND
1070
     0
1002
}
1002
{
1000
REACTOR
1002
}
1001
GENIUS_GENOBJ-N-FIL_13
1002
{
1000
OWNER
1000
GEN
1002
}
  0
ARC
  5
1ADC
330
17BA
100
AcDbEntity
  8
0
100
AcDbCircle
 10
178.7393067569155
 20
178.8559097968663
 30
0.0
 40
2.5
100
AcDbArc
 50
213.8571489999996
 51
0.0
1001
GENIUS_GENODEF_13
1002
{
1000
HIER
1070
     0
1002
}
1002
{
1000
MANEDIT
1070
     0
1002
}
1002
{
1000
NOSEL
1070
     0
1002
}
1002
{
1000
BEHIND
1070
     0
1002
}
1002
{
1000
REACTOR
1002
}
1001
GENIUS_GENOBJ-N-FIL_13
1002
{
1000
OWNER
1000
GEN
1002
}
  0
ARC
  5
1ADE
330
17BA
100
AcDbEntity
  8
0
100
AcDbCircle
 10
200.8564187569157
 20
157.0566147968662
 30
0.0
 40
2.5
100
AcDbArc
 50
180.0
 51
236.9721179999963
1001
GENIUS_GENODEF_13
1002
{
1000
HIER
1070
     0
1002
}
1002
{
1000
MANEDIT
1070
     0
1002
}
1002
{
1000
NOSEL
1070
     0
1002
}
1002
{
1000
BEHIND
1070
     0
1002
}
1002
{
1000
REACTOR
1002
}
1001
GENIUS_GENOBJ-N-FIL_13
1002
{
1000
OWNER
1000
GEN
1002
}
  0
ARC
  5
1AE0
330
17BA
100
AcDbEntity
  8
0
100
AcDbCircle
 10
214.4098717569154
 20
150.0381317968662
 30
0.0
 40
2.5
100
AcDbArc
 50
248.2742790000013
 51
0.0
1001
GENIUS_GENODEF_13
1002
{
1000
HIER
1070
     0
1002
}
1002
{
1000
MANEDIT
1070
     0
1002
}
1002
{
1000
NOSEL
1070
     0
1002
}
1002
{
1000
BEHIND
1070
     0
1002
}
1002
{
1000
REACTOR
1002
}
1001
GENIUS_GENOBJ-N-FIL_13
1002
{
1000
OWNER
1000
GEN
1002
}
  0
ARC
  5
1AE2
330
17BA
100
AcDbEntity
  8
0
100
AcDbCircle
 10
214.4098717569154
 20
294.0279387968662
 30
0.0
 40
2.5
100
AcDbArc
 50
0.0
 51
111.7257209999986
1001
GENIUS_GENODEF_13
1002
{
1000
HIER
1070
     0
1002
}
1002
{
1000
MANEDIT
1070
     0
1002
}
1002
{
1000
NOSEL
1070
     0
1002
}
1002
{
1000
BEHIND
1070
     0
1002
}
1002
{
1000
REACTOR
1002
}
1001
GENIUS_GENOBJ-N-FIL_13
1002
{
1000
OWNER
1000
GEN
1002
}
  0
ARC
  5
1AE4
330
17BA
100
AcDbEntity
  8
0
100
AcDbCircle
 10
249.9420837569157
 20
299.2302027968662
 30
0.0
 40
2.5
100
AcDbArc
 50
0.0
 51
84.93324599999683
1001
GENIUS_GENODEF_13
1002
{
1000
HIER
1070
     0
1002
}
1002
{
1000
MANEDIT
1070
     0
1002
}
1002
{
1000
NOSEL
1070
     0
1002
}
1002
{
1000
BEHIND
1070
     0
1002
}
1002
{
1000
REACTOR
1002
}
1001
GENIUS_GENOBJ-N-FIL_13
1002
{
1000
OWNER
1000
GEN
1002
}
  0
ARC
  5
1AE6
330
17BA
100
AcDbEntity
  8
0
100
AcDbCircle
 10
236.2530527569156
 20
299.2302027968662
 30
0.0
 40
2.5
100
AcDbArc
 50
95.06675400000316
 51
180.0
1001
GENIUS_GENODEF_13
1002
{
1000
HIER
1070
     0
1002
}
1002
{
1000
MANEDIT
1070
     0
1002
}
1002
{
1000
NOSEL
1070
     0
1002
}
1002
{
1000
BEHIND
1070
     0
1002
}
1002
{
1000
REACTOR
1002
}
1001
GENIUS_GENOBJ-N-FIL_13
1002
{
1000
OWNER
1000
GEN
1002
}
  0
ARC
  5
1AE8
330
17BA
100
AcDbEntity
  8
0
100
AcDbCircle
 10
236.2530527569156
 20
144.8358677968663
 30
0.0
 40
2.5
100
AcDbArc
 50
180.0
 51
264.9332459999968
1001
GENIUS_GENODEF_13
1002
{
1000
HIER
1070
     0
1002
}
1002
{
1000
MANEDIT
1070
     0
1002
}
1002
{
1000
NOSEL
1070
     0
1002
}
1002
{
1000
BEHIND
1070
     0
1002
}
1002
{
1000
REACTOR
1002
}
1001
GENIUS_GENOBJ-N-FIL_13
1002
{
1000
OWNER
1000
GEN
1002
}
  0
ARC
  5
1AEA
330
17BA
100
AcDbEntity
  8
0
100
AcDbCircle
 10
249.9420837569157
 20
144.8358677968663
 30
0.0
 40
2.5
100
AcDbArc
 50
275.0667540000032
 51
0.0
1001
GENIUS_GENODEF_13
1002
{
1000
HIER
1070
     0
1002
}
1002
{
1000
MANEDIT
1070
     0
1002
}
1002
{
1000
NOSEL
1070
     0
1002
}
1002
{
1000
BEHIND
1070
     0
1002
}
1002
{
1000
REACTOR
1002
}
1001
GENIUS_GENOBJ-N-FIL_13
1002
{
1000
OWNER
1000
GEN
1002
}
  0
ARC
  5
1AF3
330
17BA
100
AcDbEntity
  8
0
100
AcDbCircle
 10
285.3387177569157
 20
287.0094557968662
 30
0.0
 40
2.5
100
AcDbArc
 50
0.0
 51
56.97211799999631
1001
GENIUS_GENODEF_13
1002
{
1000
HIER
1070
     0
1002
}
1002
{
1000
MANEDIT
1070
     0
1002
}
1002
{
1000
NOSEL
1070
     0
1002
}
1002
{
1000
BEHIND
1070
     0
1002
}
1002
{
1000
REACTOR
1002
}
1001
GENIUS_GENOBJ-N-FIL_13
1002
{
1000
OWNER
1000
GEN
1002
}
  0
ARC
  5
1AF5
330
17BA
100
AcDbEntity
  8
0
100
AcDbCircle
 10
271.7852647569155
 20
294.0279387968662
 30
0.0
 40
2.5
100
AcDbArc
 50
68.27427900000134
 51
180.0
1001
GENIUS_GENODEF_13
1002
{
1000
HIER
1070
     0
1002
}
1002
{
1000
MANEDIT
1070
     0
1002
}
1002
{
1000
NOSEL
1070
     0
1002
}
1002
{
1000
BEHIND
1070
     0
1002
}
1002
{
1000
REACTOR
1002
}
1001
GENIUS_GENOBJ-N-FIL_13
1002
{
1000
OWNER
1000
GEN
1002
}
  0
ARC
  5
1AF7
330
17BA
100
AcDbEntity
  8
0
100
AcDbCircle
 10
307.4558297569156
 20
265.2101607968663
 30
0.0
 40
2.5
100
AcDbArc
 50
33.8571489999996
 51
180.0
1001
GENIUS_GENODEF_13
1002
{
1000
HIER
1070
     0
1002
}
1002
{
1000
MANEDIT
1070
     0
1002
}
1002
{
1000
NOSEL
1070
     0
1002
}
1002
{
1000
BEHIND
1070
     0
1002
}
1002
{
1000
REACTOR
1002
}
1001
GENIUS_GENOBJ-N-FIL_13
1002
{
1000
OWNER
1000
GEN
1002
}
  0
ARC
  5
1AF9
330
17BA
100
AcDbEntity
  8
0
100
AcDbCircle
 10
307.4558297569156
 20
178.8559097968663
 30
0.0
 40
2.5
100
AcDbArc
 50
180.0
 51
326.1428510000003
1001
GENIUS_GENODEF_13
1002
{
1000
HIER
1070
     0
1002
}
1002
{
1000
MANEDIT
1070
     0
1002
}
1002
{
1000
NOSEL
1070
     0
1002
}
1002
{
1000
BEHIND
1070
     0
1002
}
1002
{
1000
REACTOR
1002
}
1001
GENIUS_GENOBJ-N-FIL_13
1002
{
1000
OWNER
1000
GEN
1002
}
  0
ARC
  5
1B00
330
17BA
100
AcDbEntity
  8
0
100
AcDbCircle
 10
271.7852647569155
 20
150.0381317968662
 30
0.0
 40
2.5
100
AcDbArc
 50
180.0
 51
291.7257209999986
1001
GENIUS_GENODEF_13
1002
{
1000
HIER
1070
     0
1002
}
1002
{
1000
MANEDIT
1070
     0
1002
}
1002
{
1000
NOSEL
1070
     0
1002
}
1002
{
1000
BEHIND
1070
     0
1002
}
1002
{
1000
REACTOR
1002
}
1001
GENIUS_GENOBJ-N-FIL_13
1002
{
1000
OWNER
1000
GEN
1002
}
  0
ARC
  5
1B02
330
17BA
100
AcDbEntity
  8
0
100
AcDbCircle
 10
285.3387177569157
 20
157.0566147968662
 30
0.0
 40
2.5
100
AcDbArc
 50
303.0278820000037
 51
0.0
1001
GENIUS_GENODEF_13
1002
{
1000
HIER
1070
     0
1002
}
1002
{
1000
MANEDIT
1070
     0
1002
}
1002
{
1000
NOSEL
1070
     0
1002
}
1002
{
1000
BEHIND
1070
     0
1002
}
1002
{
1000
REACTOR
1002
}
1001
GENIUS_GENOBJ-N-FIL_13
1002
{
1000
OWNER
1000
GEN
1002
}
  0
ACAD_PROXY_ENTITY
  5
1C12
330
17BA
100
AcDbEntity
  8
0
100
AcDbProxyEntity
 90
      498
 91
      502
 95
       21
 70
     0
 92
     1376
310
6005000009000000980000000B00000087AF5391D833634012730E4D67BF6F40000000000000000000000000000000000000000000000000000000000000F03F782FB2871BE84140581FBAEEEB4E574000000000000000805400000001000000000000000000000000002040333333333333F33F0000000000000000000000
310
000000F03F00000000000000000000000000000000000000000031580D00010000980000000B00000021865D7B73E2624070E2D459FBAA6E40000000000000000000000000000000000000000000000000000000000000F03F78A27E748E873B40E6752F636100584000000000000000804E00000001000000000000000000
310
000000002040333333333333F33F0000000000000000000000000000F03F00000000000000000000000000000000000000000000000000D17409980000000B0000008E49801D3AA86240B3E9FB806E826D40000000000000000000000000000000000000000000000000000000000000F03F288C16AEB18F3240A276441FA5
310
88584000000000000000804100580D01000000000000000000000000002040333333333333F33F0000000000000000000000000000F03F00000000000000000000000000000000000000000000000000000000980000000B000000348CCBFEDC8B62402BCDB3FCAD676C400000000000000000000000000000000000000000
310
00000000000000000000F03F2057A6B7A6FE2240702D35C508DB584000000000000000805600740901000000000000000000000000002040333333333333F33F0000000000000000000000000000F03F00000000000000000000000000000000000000000000000000000000980000000B0000003003614A9E886240C55A32
310
1C7D396B40000000000000000000000000000000000000000000000000000000000000F03F00303F8AD5A1D63F58592BBEF5F7584000000000000000804100740901000000000000000000000000002040333333333333F33F0000000000000000000000000000F03F000000000000000000000000000000000000000000D0
310
740900D07409980000000B000000B6852A1E369E62401DD97C4A10326A40000000000000000000000000000000000000000000000000000000000000F03F305C5123D9F720C09C35E75CE5E0584000000000000000005300539101000000000000000000000000002040333333333333F33F00000000000000000000000000
310
00F03F00000000000000000000000000000000000000000000000000000080980000000B000000FB1A439AC2C86240C80948D53B2D6940000000000000000000000000000000000000000000000000000000000000F03FB8083B84F9AB30C0141E6CED509E584000000000000000005300E2D4010000000000000000000000
310
00002040333333333333F33F0000000000000000000000000000F03F0000000000000000000000000000000000000000004E00F000010000980000000B000000483FD819E8126340CF9CB59347086840000000000000000000000000000000000000000000000000000000000000F03F508A48549C5139C038281A23332758
310
40000000000000000041008E4901000000000000000000000000002040333333333333F33F0000000000000000000000000000F03F00000000000000000000000000000000000000000000000000000000980000000B000000353B346E986D6340B90C8F209E09674000000000000000000000000000000000000000000000
310
0000000000000000F03F084244CF86ED40C06486842A8D7D574000000000000000005000000001000000000000000000000000002040333333333333F33F0000000000000000000000000000F03F00000000000000000000000000000000000000000000000000000000
 93
      846
310
404E103312E3240CC4B8C9085354414E444152444393995DDCC811DBDD1A1A58C81355242541054D4D05590539510135414C8DCCCB8D503302E302608E2AEC4015BD003484F34B16B26B4080000000000385C408172D4454FB210940A400010000922901A40E40502404
330
187F
 94
        0
1001
ACAD
1000
AcRTDxfName
1000
ARCALIGNEDTEXT
  0
INSERT
  5
1C7C
330
17BA
100
AcDbEntity
  8
0
100
AcDbBlockReference
  2
KATALOG_LEER
 10
251.839706
 20
11.304483
 30
0.0
 41
5.0
 42
5.0
 43
5.0
1001
GENIUS_GENOREF_13
1005
1C7D
  0
POINT
  5
1C7D
330
17BA
100
AcDbEntity
  8
0
 60
     1
100
AcDbPoint
 10
0.0
 20
0.0
 30
0.0
1001
GENIUS_GENOBJ-N-TIT_13
1002
{
1000
OWNER
1000
GEN
1002
}
1001
GENIUS_GENOENT_13
1002
{
1000
MYREF
1005
1C7D
1002
}
1002
{
1000
GRP
1005
0
1002
}
1001
GENIUS_GENOLIS_13
1002
{
1000
ENT
1005
1C7C
1002
}
1001
GENIUS_GENTITLE_13
1002
{
1000
SCALE
1000
1:5
1002
}
1002
{
1000
BORDER
1000
KATALOG
1002
}
1002
{
1000
TITLE
1000
KATALOG_LEER
1002
}
1002
{
1000
UNCHG
1002
{
1000
GEN-TITLE-SCA
1000
GEN-TITLE-SIZ
1002
}
1002
}
1002
{
1000
HRA
1005
1C75
1002
}
1002
{
1000
HTIT
1005
1C7C
1002
}
1002
{
1000
GENIUSID
1005
1C7D
1002
}
1001
GENIUS_GENODEF_13
1002
{
1000
HIER
1070
     1
1002
}
1002
{
1000
MANEDIT
1070
     1
1002
}
1002
{
1000
NOSEL
1070
     0
1002
}
1002
{
1000
BEHIND
1070
     0
1002
}
1002
{
1000
REACTOR
1002
}
  0
DIMENSION
  5
1C9B
330
17BA
100
AcDbEntity
  8
5
100
AcDbDimension
  2
*D4
 10
69.88756775691559
 20
98.82303579686624
 30
0.0
 11
58.13584531597069
 21
222.0330357968663
 31
0.0
 70
    32
  1
245
 71
     5
 42
246.4200000000002
  3
GEN-ISO
100
AcDbAlignedDimension
 13
243.0975687569155
 23
345.2430357968664
 33
0.0
 14
243.0975687569155
 24
98.82303579686618
 34
0.0
 50
90.0
100
AcDbRotatedDimension
1001
ACAD
1000
DSTYLE
1002
{
1070
    40
1040
5.0
1002
}
1001
GENIUS_GENDTOL_13
1000

1000
h7
1000

1040
0.0
1000

  0
DIMENSION
  5
1CF0
330
17BA
100
AcDbEntity
  8
5
100
AcDbDimension
  2
*D5
 10
69.88956775691554
 20
480.0288177968663
 30
0.0
 11
58.13956775691546
 21
550.5288177968663
 31
0.0
 70
    32
  1
<>
 71
     5
 42
140.9999999999999
  3
GEN-ISO
100
AcDbAlignedDimension
 13
120.5975687569155
 23
621.0288177968663
 33
0.0
 14
182.5975687569155
 24
480.0288177968663
 34
0.0
 50
90.0
100
AcDbRotatedDimension
1001
ACAD
1000
DSTYLE
1002
{
1070
    40
1040
5.0
1002
}
1001
GENIUS_GENDTOL_13
1000

1000
h7
1000

1040
0.0
1000
<>
  0
DIMENSION
  5
1D16
330
17BA
100
AcDbEntity
  8
5
100
AcDbDimension
  2
*D6
 10
439.1445687569155
 20
430.0288177968663
 30
0.0
 11
341.1210687569155
 21
441.7788177968662
 31
0.0
 70
    32
  1
<>
 71
     5
 42
196.047
  3
GEN-ISO
100
AcDbAlignedDimension
 13
243.0975687569155
 23
480.0288177968663
 33
0.0
 14
439.1445687569155
 24
530.0288177968663
 34
0.0
100
AcDbRotatedDimension
1001
ACAD
1000
DSTYLE
1002
{
1070
    40
1040
5.0
1070
   271
1070
     0
1070
   171
1070
     0
1002
}
1001
GENIUS_GENDTOL_13
1000

1000
h7
1000

1040
0.0
1000
<>
  0
DIMENSION
  5
1D58
330
17BA
100
AcDbEntity
  8
5
100
AcDbDimension
  2
*D7
 10
403.8475687569155
 20
610.163183796866
 30
0.0
 11
403.8475687569155
 21
656.9107075606459
 31
0.0
 70
   160
  1
10
 71
     5
 42
10.86563400000034
  3
GEN-ISO
100
AcDbAlignedDimension
 13
365.5975687569155
 23
621.0288177968663
 33
0.0
 14
243.0975687569155
 24
610.163183796866
 34
0.0
 50
90.0
100
AcDbRotatedDimension
1001
ACAD
1000
DSTYLE
1002
{
1070
    40
1040
5.0
1070
   271
1070
     0
1070
   171
1070
     0
1002
}
1001
GENIUS_GENDTOL_13
1000

1000
h7
1000

1040
0.0
1000

  0
DIMENSION
  5
1DAB
330
17BA
100
AcDbEntity
  8
5
100
AcDbDimension
  2
*D8
 10
516.6601497569157
 20
530.0288177968663
 30
0.0
 11
516.6601497569156
 21
575.5288177968663
 31
0.0
 70
   160
  1
<>
 71
     5
 42
91.0
  3
GEN-ISO
100
AcDbAlignedDimension
 13
365.5975687569155
 23
621.0288177968663
 33
0.0
 14
439.1445687569155
 24
530.0288177968663
 34
0.0
 50
90.0
100
AcDbRotatedDimension
1001
ACAD
1000
DSTYLE
1002
{
1070
    40
1040
5.0
1070
   271
1070
     0
1070
   171
1070
     0
1002
}
1001
GENIUS_GENDTOL_13
1000

1000
h7
1000

1040
0.0
1000
<>
  0
DIMENSION
  5
1E3E
330
17BA
100
AcDbEntity
  8
5
100
AcDbDimension
  2
*D9
 10
304.9558297569156
 20
48.82303479686618
 30
0.0
 11
340.8308297569156
 21
60.57303479686618
 31
0.0
 70
    32
  1
18
 71
     5
 42
17.1171119999999
  3
GEN-ISO
100
AcDbAlignedDimension
 13
287.8387177569157
 23
157.0566147968662
 33
0.0
 14
304.9558297569156
 24
178.8559097968663
 34
0.0
100
AcDbRotatedDimension
1001
ACAD
1000
DSTYLE
1002
{
1070
    40
1040
5.0
1070
   271
1070
     0
1070
   171
1070
     0
1002
}
1001
GENIUS_GENDTOL_13
1000

1000
h7
1000

1040
0.0
1000

  0
DIMENSION
  5
1EAE
330
17BA
100
AcDbEntity
  8
5
100
AcDbDimension
  2
*D10
 10
457.3345687569156
 20
529.5508177968662
 30
0.0
 11
470.4002115439428
 21
499.5130170588778
 31
0.0
 70
    34
  1
<>
 71
     5
 42
0.0261807917065688
  3
GEN-ISO
100
AcDb2LineAngularDimension
 13
-5.06072424308445
 23
530.0288177968663
 33
0.0
 14
1044.939275756915
 24
530.0288177968663
 34
0.0
 15
298.4375687569157
 25
533.7118177968663
 35
0.0
 16
492.8874847597263
 26
529.559241118933
 36
0.0
1001
ACAD
1000
DSTYLE
1002
{
1070
    40
1040
5.0
1070
   271
1070
     1
1070
   171
1070
     1
1002
}
1001
GENIUS_GENDTOL_13
1000

1000
h7
1000

1040
0.0
1000
<>
  0
ENDSEC
  0
SECTION
  2
OBJECTS
  0
DICTIONARY
  5
17AE
330
0
100
AcDbDictionary
281
     1
  3
ACAD_COLOR
350
1F28
  3
ACAD_GROUP
350
17AF
  3
ACAD_LAYOUT
350
1F2B
  3
ACAD_MATERIAL
350
1F27
  3
ACAD_MLINESTYLE
350
17BD
  3
ACAD_PLOTSETTINGS
350
1F2C
  3
ACAD_PLOTSTYLENAME
350
1F25
  3
ACAD_TABLESTYLE
350
1F29
  3
ACDBHEADERROUNDTRIPXREC
350
2171
  3
ACDBVARIABLEDICTIONARY
350
1A03
  3
AcmDictionary
350
1F8A
  3
AMG
350
1F30
  3
AMGSNAPSETTINGS
350
20E2
  0
DICTIONARY
  5
1F28
102
{ACAD_REACTORS
330
17AE
102
}
330
17AE
100
AcDbDictionary
281
     1
  0
DICTIONARY
  5
17AF
102
{ACAD_REACTORS
330
17AE
102
}
330
17AE
100
AcDbDictionary
281
     1
  0
DICTIONARY
  5
1F2B
102
{ACAD_REACTORS
330
17AE
102
}
330
17AE
100
AcDbDictionary
281
     1
  3
Layout1
350
1F2E
  3
Model
350
1F2D
  0
DICTIONARY
  5
1F27
102
{ACAD_REACTORS
330
17AE
102
}
330
17AE
100
AcDbDictionary
281
     1
  0
DICTIONARY
  5
17BD
102
{ACAD_REACTORS
330
17AE
102
}
330
17AE
100
AcDbDictionary
281
     1
  3
STANDARD
350
17BE
  0
DICTIONARY
  5
1F2C
102
{ACAD_REACTORS
330
17AE
102
}
330
17AE
100
AcDbDictionary
281
     1
  0
ACDBDICTIONARYWDFLT
  5
1F25
102
{ACAD_REACTORS
330
17AE
102
}
330
17AE
100
AcDbDictionary
281
     1
  3
Normal
350
1F26
100
AcDbDictionaryWithDefault
340
1F26
  0
DICTIONARY
  5
1F29
102
{ACAD_REACTORS
330
17AE
102
}
330
17AE
100
AcDbDictionary
281
     1
  3
Standard
350
1F2A
  0
DICTIONARY
  5
2171
102
{ACAD_REACTORS
330
17AE
102
}
330
17AE
100
AcDbDictionary
281
     1
  0
DICTIONARY
  5
1A03
102
{ACAD_REACTORS
330
17AE
102
}
330
17AE
100
AcDbDictionary
281
     1
  3
CTABLESTYLE
350
216D
  3
DIMASSOC
350
216E
  3
PROJECTNAME
350
216F
  3
SORTENTS
350
1A04
  0
DICTIONARY
  5
1F8A
102
{ACAD_REACTORS
330
17AE
102
}
330
17AE
100
AcDbDictionary
281
     1
  3
AcmStdDictionary
350
1F95
  3
AMDTSECTSYM_ARROWCOLOR
350
1FB8
  0
DICTIONARY
  5
1F30
102
{ACAD_REACTORS
330
17AE
102
}
330
17AE
100
AcDbDictionary
281
     1
  0
DICTIONARY
  5
20E2
102
{ACAD_REACTORS
330
17AE
102
}
330
17AE
100
AcDbDictionary
281
     1
  0
LAYOUT
  5
1F2E
102
{ACAD_XDICTIONARY
360
2174
102
}
102
{ACAD_REACTORS
330
1F2B
102
}
330
1F2B
100
AcDbPlotSettings
  1

  2
Xerox Document Centre CS50 PS
  4

  6

 40
0.0
 41
0.0
 42
0.0
 43
0.0
 44
0.0
 45
0.0
 46
0.0
 47
0.0
 48
0.0
 49
0.0
140
0.0
141
0.0
142
1.0
143
1.0
 70
   688
 72
     0
 73
     0
 74
     5
  7

 75
    16
147
1.0
148
0.0
149
0.0
100
AcDbLayout
  1
Layout1
 70
     1
 71
     1
 10
0.0
 20
0.0
 11
840.8989999999999
 21
593.899
 12
0.0
 22
0.0
 32
0.0
 14
0.0
 24
0.0
 34
0.0
 15
840.8989999999999
 25
593.899
 35
0.0
146
0.0
 13
0.0
 23
0.0
 33
0.0
 16
1.0
 26
0.0
 36
0.0
 17
0.0
 27
1.0
 37
0.0
 76
     0
330
17B7
  0
LAYOUT
  5
1F2D
102
{ACAD_XDICTIONARY
360
2172
102
}
102
{ACAD_REACTORS
330
1F2B
102
}
330
1F2B
100
AcDbPlotSettings
  1

  2
Xerox Document Centre CS50 PS
  4

  6

 40
0.0
 41
0.0
 42
0.0
 43
0.0
 44
0.0
 45
0.0
 46
0.0
 47
0.0
 48
0.0
 49
0.0
140
0.0
141
0.0
142
1.0
143
1.0
 70
  1712
 72
     0
 73
     0
 74
     0
  7

 75
     0
147
1.0
148
0.0
149
0.0
100
AcDbLayout
  1
Model
 70
     1
 71
     0
 10
0.0
 20
0.0
 11
12.0
 21
9.0
 12
0.0
 22
0.0
 32
0.0
 14
0.0
 24
0.0
 34
0.0
 15
0.0
 25
0.0
 35
0.0
146
0.0
 13
0.0
 23
0.0
 33
0.0
 16
1.0
 26
0.0
 36
0.0
 17
0.0
 27
1.0
 37
0.0
 76
     0
330
17BA
  0
MLINESTYLE
  5
17BE
102
{ACAD_REACTORS
330
17BD
102
}
330
17BD
100
AcDbMlineStyle
  2
STANDARD
 70
     0
  3

 62
   256
 51
90.0
 52
90.0
 71
     2
 49
0.5
 62
   256
  6
BYLAYER
 49
-0.5
 62
   256
  6
BYLAYER
  0
ACDBPLACEHOLDER
  5
1F26
102
{ACAD_REACTORS
330
1F25
102
}
330
1F25
  0
TABLESTYLE
  5
1F2A
102
{ACAD_REACTORS
330
1F29
102
}
330
1F29
100
AcDbTableStyle
  3
Standard
 70
     0
 71
     0
 40
1.5
 41
1.5
280
     0
281
     0
  7
STANDARD
140
4.5
170
     2
 62
     0
 63
     7
283
     0
274
    -2
284
     1
 64
     0
275
    -2
285
     1
 65
     0
276
    -2
286
     1
 66
     0
277
    -2
287
     1
 67
     0
278
    -2
288
     1
 68
     0
279
    -2
289
     1
 69
     0
  7
STANDARD
140
6.0
170
     5
 62
     0
 63
     7
283
     0
274
    -2
284
     1
 64
     0
275
    -2
285
     1
 65
     0
276
    -2
286
     1
 66
     0
277
    -2
287
     1
 67
     0
278
    -2
288
     1
 68
     0
279
    -2
289
     1
 69
     0
  7
STANDARD
140
4.5
170
     5
 62
     0
 63
     7
283
     0
274
    -2
284
     1
 64
     0
275
    -2
285
     1
 65
     0
276
    -2
286
     1
 66
     0
277
    -2
287
     1
 67
     0
278
    -2
288
     1
 68
     0
279
    -2
289
     1
 69
     0
  0
DICTIONARYVAR
  5
216D
102
{ACAD_REACTORS
330
1A03
102
}
330
1A03
100
DictionaryVariables
280
     0
  1
STANDARD
  0
DICTIONARYVAR
  5
216E
102
{ACAD_REACTORS
330
1A03
102
}
330
1A03
100
DictionaryVariables
280
     0
  1
1
  0
DICTIONARYVAR
  5
216F
102
{ACAD_REACTORS
330
1A03
102
}
330
1A03
100
DictionaryVariables
280
     0
  1

  0
DICTIONARYVAR
  5
1A04
102
{ACAD_REACTORS
330
1A03
102
}
330
1A03
100
DictionaryVariables
280
     0
  1
96
  0
DICTIONARY
  5
1F95
102
{ACAD_REACTORS
330
1F8A
102
}
330
1F8A
100
AcDbDictionary
281
     1
  0
XRECORD
  5
1FB8
102
{ACAD_REACTORS
330
1F8A
102
}
330
1F8A
100
AcDbXrecord
280
     1
 90
-1023410169
  0
DICTIONARY
  5
2174
330
1F2E
100
AcDbDictionary
280
     1
281
     1
  3
ACAD_XREC_ROUNDTRIP
360
2175
  0
DICTIONARY
  5
2172
330
1F2D
100
AcDbDictionary
280
     1
281
     1
  3
ACAD_XREC_ROUNDTRIP
360
2173
  0
XRECORD
  5
2175
102
{ACAD_REACTORS
330
2174
102
}
330
2174
100
AcDbXrecord
280
     1
102
SHADEPLOT
 70
     0
102
SHADEPLOTRESLEVEL
 70
     2
102
SHADEPLOTCUSTOMDPI
 70
   300
  0
XRECORD
  5
2173
102
{ACAD_REACTORS
330
2172
102
}
330
2172
100
AcDbXrecord
280
     1
102
SHADEPLOT
 70
     0
102
SHADEPLOTRESLEVEL
 70
     2
102
SHADEPLOTCUSTOMDPI
 70
   300
  0
ENDSEC
  0
EOF
