  0
SECTION
  2
HEADER
  9
$ACADVER
  1
AC1018
  9
$ACADMAINTVER
 70
   104
  9
$DWGCODEPAGE
  3
ANSI_1252
  9
$LASTSAVEDBY
  1
kbaersch
  9
$CUSTOMPROPERTYTAG
  1
AmdtFileType
  9
$CUSTOMPROPERTY
  1
84
  9
$INSBASE
 10
0.0
 20
0.0
 30
0.0
  9
$EXTMIN
 10
82.46730270882641
 20
-18.63423308433163
 30
0.0
  9
$EXTMAX
 10
446.8653411636057
 20
553.8926524778515
 30
0.0
  9
$LIMMIN
 10
-0.0000000000001137
 20
0.0
  9
$LIMMAX
 10
594.0
 20
420.0
  9
$ORTHOMODE
 70
     1
  9
$REGENMODE
 70
     1
  9
$FILLMODE
 70
     1
  9
$QTEXTMODE
 70
     0
  9
$MIRRTEXT
 70
     1
  9
$LTSCALE
 40
1.0
  9
$ATTMODE
 70
     1
  9
$TEXTSIZE
 40
2.5
  9
$TRACEWID
 40
1.0
  9
$TEXTSTYLE
  7
STANDARD
  9
$CLAYER
  8
0
  9
$CELTYPE
  6
ByLayer
  9
$CECOLOR
 62
   256
  9
$CELTSCALE
 40
1.0
  9
$DISPSILH
 70
     0
  9
$DIMSCALE
 40
1.0
  9
$DIMASZ
 40
2.5
  9
$DIMEXO
 40
1.0
  9
$DIMDLI
 40
10.0
  9
$DIMRND
 40
0.0
  9
$DIMDLE
 40
0.0
  9
$DIMEXE
 40
1.0
  9
$DIMTP
 40
0.1
  9
$DIMTM
 40
0.1
  9
$DIMTXT
 40
3.5
  9
$DIMCEN
 40
0.0
  9
$DIMTSZ
 40
0.0
  9
$DIMTOL
 70
     0
  9
$DIMLIM
 70
     0
  9
$DIMTIH
 70
     0
  9
$DIMTOH
 70
     0
  9
$DIMSE1
 70
     0
  9
$DIMSE2
 70
     0
  9
$DIMTAD
 70
     1
  9
$DIMZIN
 70
     8
  9
$DIMBLK
  1

  9
$DIMASO
 70
     1
  9
$DIMSHO
 70
     1
  9
$DIMPOST
  1

  9
$DIMAPOST
  1
"
  9
$DIMALT
 70
     0
  9
$DIMALTD
 70
     2
  9
$DIMALTF
 40
0.0393701
  9
$DIMLFAC
 40
1.0
  9
$DIMTOFL
 70
     1
  9
$DIMTVP
 40
0.0
  9
$DIMTIX
 70
     0
  9
$DIMSOXD
 70
     0
  9
$DIMSAH
 70
     0
  9
$DIMBLK1
  1

  9
$DIMBLK2
  1

  9
$DIMSTYLE
  2
AM_DIN
  9
$DIMCLRD
 70
   256
  9
$DIMCLRE
 70
   256
  9
$DIMCLRT
 70
     2
  9
$DIMTFAC
 40
0.71
  9
$DIMGAP
 40
1.5
  9
$DIMJUST
 70
     0
  9
$DIMSD1
 70
     0
  9
$DIMSD2
 70
     0
  9
$DIMTOLJ
 70
     0
  9
$DIMTZIN
 70
     8
  9
$DIMALTZ
 70
     0
  9
$DIMALTTZ
 70
     0
  9
$DIMUPT
 70
     0
  9
$DIMDEC
 70
     2
  9
$DIMTDEC
 70
     3
  9
$DIMALTU
 70
     2
  9
$DIMALTTD
 70
     4
  9
$DIMTXSTY
  7
STANDARD
  9
$DIMAUNIT
 70
     0
  9
$DIMADEC
 70
     0
  9
$DIMALTRND
 40
0.0
  9
$DIMAZIN
 70
     2
  9
$DIMDSEP
 70
    46
  9
$DIMATFIT
 70
     3
  9
$DIMFRAC
 70
     0
  9
$DIMLDRBLK
  1

  9
$DIMLUNIT
 70
     2
  9
$DIMLWD
 70
    -1
  9
$DIMLWE
 70
    -1
  9
$DIMTMOVE
 70
     0
  9
$LUNITS
 70
     2
  9
$LUPREC
 70
     2
  9
$SKETCHINC
 40
1.0
  9
$FILLETRAD
 40
0.0
  9
$AUNITS
 70
     0
  9
$AUPREC
 70
     0
  9
$MENU
  1
.
  9
$ELEVATION
 40
0.0
  9
$PELEVATION
 40
0.0
  9
$THICKNESS
 40
0.0
  9
$LIMCHECK
 70
     0
  9
$CHAMFERA
 40
2.5
  9
$CHAMFERB
 40
2.5
  9
$CHAMFERC
 40
20.0
  9
$CHAMFERD
 40
0.0
  9
$SKPOLY
 70
     0
  9
$TDCREATE
 40
2452702.557501690
  9
$TDUCREATE
 40
2452702.474168357
  9
$TDUPDATE
 40
2456150.600499548
  9
$TDUUPDATE
 40
2456150.517166216
  9
$TDINDWG
 40
0.2882138194
  9
$TDUSRTIMER
 40
0.2882138194
  9
$USRTIMER
 70
     1
  9
$ANGBASE
 50
0.0
  9
$ANGDIR
 70
     0
  9
$PDMODE
 70
     0
  9
$PDSIZE
 40
0.0
  9
$PLINEWID
 40
0.0
  9
$SPLFRAME
 70
     0
  9
$SPLINETYPE
 70
     6
  9
$SPLINESEGS
 70
     8
  9
$HANDSEED
  5
27E5
  9
$SURFTAB1
 70
     6
  9
$SURFTAB2
 70
     6
  9
$SURFTYPE
 70
     6
  9
$SURFU
 70
     6
  9
$SURFV
 70
     6
  9
$UCSBASE
  2

  9
$UCSNAME
  2

  9
$UCSORG
 10
0.0
 20
0.0
 30
0.0
  9
$UCSXDIR
 10
1.0
 20
0.0
 30
0.0
  9
$UCSYDIR
 10
0.0
 20
1.0
 30
0.0
  9
$UCSORTHOREF
  2

  9
$UCSORTHOVIEW
 70
     0
  9
$UCSORGTOP
 10
0.0
 20
0.0
 30
0.0
  9
$UCSORGBOTTOM
 10
0.0
 20
0.0
 30
0.0
  9
$UCSORGLEFT
 10
0.0
 20
0.0
 30
0.0
  9
$UCSORGRIGHT
 10
0.0
 20
0.0
 30
0.0
  9
$UCSORGFRONT
 10
0.0
 20
0.0
 30
0.0
  9
$UCSORGBACK
 10
0.0
 20
0.0
 30
0.0
  9
$PUCSBASE
  2

  9
$PUCSNAME
  2

  9
$PUCSORG
 10
0.0
 20
0.0
 30
0.0
  9
$PUCSXDIR
 10
1.0
 20
0.0
 30
0.0
  9
$PUCSYDIR
 10
0.0
 20
1.0
 30
0.0
  9
$PUCSORTHOREF
  2

  9
$PUCSORTHOVIEW
 70
     0
  9
$PUCSORGTOP
 10
0.0
 20
0.0
 30
0.0
  9
$PUCSORGBOTTOM
 10
0.0
 20
0.0
 30
0.0
  9
$PUCSORGLEFT
 10
0.0
 20
0.0
 30
0.0
  9
$PUCSORGRIGHT
 10
0.0
 20
0.0
 30
0.0
  9
$PUCSORGFRONT
 10
0.0
 20
0.0
 30
0.0
  9
$PUCSORGBACK
 10
0.0
 20
0.0
 30
0.0
  9
$USERI1
 70
     0
  9
$USERI2
 70
     0
  9
$USERI3
 70
     0
  9
$USERI4
 70
     0
  9
$USERI5
 70
     0
  9
$USERR1
 40
0.0
  9
$USERR2
 40
0.0
  9
$USERR3
 40
0.0
  9
$USERR4
 40
0.0
  9
$USERR5
 40
0.0
  9
$WORLDVIEW
 70
     1
  9
$SHADEDGE
 70
     3
  9
$SHADEDIF
 70
    70
  9
$TILEMODE
 70
     1
  9
$MAXACTVP
 70
    64
  9
$PINSBASE
 10
0.0
 20
0.0
 30
0.0
  9
$PLIMCHECK
 70
     0
  9
$PEXTMIN
 10
1.000000000000000E+20
 20
1.000000000000000E+20
 30
1.000000000000000E+20
  9
$PEXTMAX
 10
-1.000000000000000E+20
 20
-1.000000000000000E+20
 30
-1.000000000000000E+20
  9
$PLIMMIN
 10
0.0
 20
0.0
  9
$PLIMMAX
 10
420.0
 20
297.0
  9
$UNITMODE
 70
     0
  9
$VISRETAIN
 70
     1
  9
$PLINEGEN
 70
     0
  9
$PSLTSCALE
 70
     1
  9
$TREEDEPTH
 70
  3020
  9
$CMLSTYLE
  2
Standard
  9
$CMLJUST
 70
     0
  9
$CMLSCALE
 40
20.0
  9
$PROXYGRAPHICS
 70
     1
  9
$MEASUREMENT
 70
     1
  9
$CELWEIGHT
370
    -1
  9
$ENDCAPS
280
     0
  9
$JOINSTYLE
280
     0
  9
$LWDISPLAY
290
     0
  9
$INSUNITS
 70
     4
  9
$HYPERLINKBASE
  1

  9
$STYLESHEET
  1
monochrome.ctb
  9
$XEDIT
290
     1
  9
$CEPSNTYPE
380
     0
  9
$PSTYLEMODE
290
     1
  9
$FINGERPRINTGUID
  2
{D5091DE6-A8E7-4749-B1FA-F4240FAEB0F0}
  9
$VERSIONGUID
  2
{FF6A1EBA-AF94-4858-B599-5F1BA0253696}
  9
$EXTNAMES
290
     1
  9
$PSVPSCALE
 40
0.0
  9
$OLESTARTUP
290
     0
  9
$SORTENTS
280
   127
  9
$INDEXCTL
280
     0
  9
$HIDETEXT
280
     0
  9
$XCLIPFRAME
290
     0
  9
$HALOGAP
280
     0
  9
$OBSCOLOR
 70
   257
  9
$OBSLTYPE
280
     0
  9
$INTERSECTIONDISPLAY
280
     0
  9
$INTERSECTIONCOLOR
 70
   257
  9
$DIMASSOC
280
     1
  9
$PROJECTNAME
  1

  0
ENDSEC
  0
SECTION
  2
CLASSES
  0
CLASS
  1
ACDBDICTIONARYWDFLT
  2
AcDbDictionaryWithDefault
  3
ObjectDBX Classes
 90
        0
 91
        1
280
     0
281
     0
  0
CLASS
  1
AMGSETTINGSOBJ
  2
AmgSettingsObj
  3
"AcadM|Product Description: AutoCAD Mechanical|Company: Autodesk, Inc."
 90
     1024
 91
        3
280
     0
281
     0
  0
CLASS
  1
ACME_DOCUMENT
  2
AcMeDbDoc
  3
AcMeServices
 90
     1024
 91
        2
280
     0
281
     0
  0
CLASS
  1
ACMESCOPE
  2
AcMeScope
  3
AcMeServices
 90
     1024
 91
        1
280
     0
281
     0
  0
CLASS
  1
ACMECOMMANDHISTORY
  2
AcMeCommandHistory
  3
AcMeServices
 90
     1024
 91
        1
280
     0
281
     0
  0
CLASS
  1
DICTIONARYVAR
  2
AcDbDictionaryVar
  3
ObjectDBX Classes
 90
        0
 91
        8
280
     0
281
     0
  0
CLASS
  1
ACIMSYSVARMAN
  2
AcImSysVarManager
  3
AcMeServices
 90
     1024
 91
        5
280
     0
281
     0
  0
CLASS
  1
ACIMREALSYSVAR
  2
AcImRealSysVar
  3
AcMeServices
 90
     1024
 91
        3
280
     0
281
     0
  0
CLASS
  1
ACIMINTSYSVAR
  2
AcImIntSysVar
  3
AcMeServices
 90
     1024
 91
       28
280
     0
281
     0
  0
CLASS
  1
ACMEDRAWINGMAN
  2
AcMeDrawingMan
  3
AcMeServices
 90
     1024
 91
        1
280
     0
281
     0
  0
CLASS
  1
ACMEVIEW
  2
AcMeView
  3
AcMeServices
 90
     1024
 91
        1
280
     0
281
     0
  0
CLASS
  1
ACDBENTITYCACHE
  2
AcMeEntityCache
  3
AcMeServices
 90
     1024
 91
        1
280
     0
281
     0
  0
CLASS
  1
GSMANAGER
  2
AcMeGSManager
  3
AcMeServices
 90
     1024
 91
        1
280
     0
281
     0
  0
CLASS
  1
AMDTINTERNALREACTOR
  2
AmdtInternalReactor
  3
AcMeServices
 90
     1024
 91
        4
280
     0
281
     0
  0
CLASS
  1
ACMESTATEMGR
  2
AcMeStateMgr
  3
AcMeServices
 90
     1024
 91
        1
280
     0
281
     0
  0
CLASS
  1
ACGREFMASTER
  2
AcGrefMaster
  3
AcAttribServices
 90
     1024
 91
        1
280
     0
281
     0
  0
CLASS
  1
ACME_DATABASE
  2
AcMeDbDatabase
  3
AcMeServices
 90
     1024
 91
        1
280
     0
281
     0
  0
CLASS
  1
ACRFINSADJUSTERMGR
  2
AcRfInsAdjusterMgr
  3
AcMeServices
 90
     1024
 91
        1
280
     0
281
     0
  0
CLASS
  1
ACGREFACADMASTER
  2
AcGrefacadMaster
  3
AcGrefServices
 90
     1024
 91
        1
280
     0
281
     0
  0
CLASS
  1
AMIMASTER
  2
AmiMaster
  3
AmiServices
 90
     1024
 91
        1
280
     0
281
     0
  0
CLASS
  1
ACMDATADICTIONARY
  2
AcmDataDictionary
  3
"AcmSymBB|Product Description: AutoCAD Mechanical|Company: Autodesk, Inc."
 90
     1024
 91
        1
280
     0
281
     0
  0
CLASS
  1
ACMDATAENTRYBLOCK
  2
AcmDataEntryBlock
  3
AcmSymBB|Product Description: AutoCAD Mechanical|Company: Autodesk, Inc.
 90
     1024
 91
        1
280
     0
281
     0
  0
CLASS
  1
ACIMSTRSYSVAR
  2
AcImStrSysVar
  3
AcMeServices
 90
     1024
 91
        5
280
     0
281
     0
  0
CLASS
  1
ACMSTANDARDDIN
  2
AcmStandardDIN
  3
"Amdt_StdImp|Product Description: AutoCAD Mechanical|Company: Autodesk, Inc."
 90
     1024
 91
        1
280
     0
281
     0
  0
CLASS
  1
AMGOBJPROPCFG
  2
AmgObjPropCfg
  3
"AmgLay|Product Description: AutoCAD Mechanical|Company: Autodesk, Inc."
 90
     1025
 91
        1
280
     0
281
     0
  0
CLASS
  1
AMDTEDGESTANDARDDIN
  2
AmdtEdgeStdDIN
  3
"Amdt_StdImp|Product Description: AutoCAD Mechanical|Company: Autodesk, Inc."
 90
     1024
 91
        1
280
     0
281
     0
  0
CLASS
  1
ACMSURFSTANDARDDIN
  2
AcmSurfTextStdDIN
  3
"Amdt_StdImp|Product Description: AutoCAD Mechanical|Company: Autodesk, Inc."
 90
     1024
 91
        1
280
     0
281
     0
  0
CLASS
  1
ACMFCFSTANDARDDIN
  2
AcmFCFStdDIN
  3
"Amdt_StdImp|Product Description: AutoCAD Mechanical|Company: Autodesk, Inc."
 90
     1024
 91
        1
280
     0
281
     0
  0
CLASS
  1
ACMWELDSTANDARDDIN
  2
AcmWeldingStdDIN
  3
"Amdt_StdImp|Product Description: AutoCAD Mechanical|Company: Autodesk, Inc."
 90
     1024
 91
        1
280
     0
281
     0
  0
CLASS
  1
ACMIDSTANDARDDIN
  2
AcmIdStdDIN
  3
"Amdt_StdImp|Product Description: AutoCAD Mechanical|Company: Autodesk, Inc."
 90
     1024
 91
        1
280
     0
281
     0
  0
CLASS
  1
ACMDATUMSTANDARDDIN
  2
AcmDatumStdDIN
  3
"Amdt_StdImp|Product Description: AutoCAD Mechanical|Company: Autodesk, Inc."
 90
     1024
 91
        1
280
     0
281
     0
  0
CLASS
  1
ACMBOMSTANDARDDIN
  2
AcmBOMStdDIN
  3
"Amdt_StdImp|Product Description: AutoCAD Mechanical|Company: Autodesk, Inc."
 90
     1024
 91
        1
280
     0
281
     0
  0
CLASS
  1
ACMDETAILSTANDARDDIN
  2
AmdtDetailSymStdDIN
  3
"Amdt_StdImp|Product Description: AutoCAD Mechanical|Company: Autodesk, Inc."
 90
     1024
 91
        1
280
     0
281
     0
  0
CLASS
  1
ACMSECTIONSTANDARDDIN
  2
AmdtSectionSymStdDIN
  3
"Amdt_StdImp|Product Description: AutoCAD Mechanical|Company: Autodesk, Inc."
 90
     1024
 91
        1
280
     0
281
     0
  0
CLASS
  1
ACMCENTERLINESTANDARDDIN
  2
AmdtCenterLineStdDIN
  3
"Amdt_StdImp|Product Description: AutoCAD Mechanical|Company: Autodesk, Inc."
 90
     1024
 91
        1
280
     0
281
     0
  0
CLASS
  1
ACAMGLAYSTD
  2
AcAmgLayStd
  3
"AmgLay|Product Description: AutoCAD Mechanical|Company: Autodesk, Inc."
 90
     1024
 91
        1
280
     0
281
     0
  0
CLASS
  1
ACAMGDIMSTD
  2
AcAmgDimStd
  3
"AmgDim|Product Description: AutoCAD Mechanical|Company: Autodesk, Inc."
 90
     1024
 91
        1
280
     0
281
     0
  0
CLASS
  1
ACAMGTITLESTD
  2
AcAmgTitleStd
  3
"AmgTitle|Product Description: AutoCAD Mechanical|Company: Autodesk, Inc."
 90
     4095
 91
        1
280
     0
281
     0
  0
CLASS
  1
LAYER_INDEX
  2
AcDbLayerIndex
  3
ObjectDBX Classes
 90
        0
 91
        0
280
     0
281
     0
  0
CLASS
  1
IDBUFFER
  2
AcDbIdBuffer
  3
ObjectDBX Classes
 90
        0
 91
        0
280
     0
281
     0
  0
CLASS
  1
TABLESTYLE
  2
AcDbTableStyle
  3
ObjectDBX Classes
 90
     4095
 91
        1
280
     0
281
     0
  0
CLASS
  1
AM_DRAWING_MGR
  2
AcDmDwgMgr
  3
AcMechDwgViewMgmt
 90
     1024
 91
        1
280
     0
281
     0
  0
CLASS
  1
AM_DWG_DOCUMENT
  2
AcDmDwgDocument
  3
AcMechDwgViewMgmt
 90
     1024
 91
        1
280
     0
281
     0
  0
CLASS
  1
AM_DWG_SHEET
  2
AcDmSheet
  3
AcMechDwgViewMgmt
 90
     1024
 91
        2
280
     0
281
     0
  0
CLASS
  1
AM_VIEWDIMPARMAP
  2
AcDmViewDimParMap
  3
AcMechDwgViewMgmt
 90
     1024
 91
        2
280
     0
281
     0
  0
CLASS
  1
AM_DWGMGR_NAME
  2
AcDmDwgMgrName
  3
AcMechDwgViewMgmt
 90
     1024
 91
        1
280
     0
281
     0
  0
CLASS
  1
AMDTMENUSTATEMGR
  2
AmdtMenuStateMgr
  3
McadcomServices
 90
     1024
 91
        1
280
     0
281
     0
  0
CLASS
  1
AMDTMCOMMENUSTATE
  2
AmdtMcomMenuState
  3
McadcomServices
 90
     1024
 91
        1
280
     0
281
     0
  0
CLASS
  1
MAPIAMMOUDLE
  2
MApiAmModule
  3
MApiAmServices
 90
     1024
 91
        1
280
     0
281
     0
  0
CLASS
  1
AMDTADMENUSTATE
  2
AmdtAdMenuState
  3
DesignerServices
 90
     1024
 91
        1
280
     0
281
     0
  0
CLASS
  1
ADAPPL
  2
AcAdAppl
  3
DesignerServices
 90
     1024
 91
        1
280
     0
281
     0
  0
CLASS
  1
DEPMGR
  2
AcAdDepMgr
  3
DesignerServices
 90
     1024
 91
        1
280
     0
281
     0
  0
CLASS
  1
PARAMMGR
  2
AcAdParamMgr
  3
DesignerServices
 90
     1024
 91
        1
280
     0
281
     0
  0
CLASS
  1
PARAMSCOPE
  2
AcAdParamScope
  3
DesignerServices
 90
     1024
 91
        1
280
     0
281
     0
  0
CLASS
  1
NAMEDAPPL
  2
AcAdNamedAppl
  3
DesignerServices
 90
     1024
 91
        1
280
     0
281
     0
  0
CLASS
  1
AMDTDMMENUSTATE
  2
AmdtDmMenuState
  3
AcMechDwgViewMgmt
 90
     1024
 91
        1
280
     0
281
     0
  0
CLASS
  1
AMDTAMMENUSTATE
  2
AmdtAmMenuState
  3
DesignerAssemblies
 90
     1024
 91
        1
280
     0
281
     0
  0
CLASS
  1
ACAMPROJECT
  2
AcAmProject
  3
DesignerAssemblies
 90
     1024
 91
        1
280
     0
281
     0
  0
CLASS
  1
ACAMGRCOMPDEF
  2
AcAmGrCompDef
  3
DesignerAssemblies
 90
     1024
 91
        1
280
     0
281
     0
  0
CLASS
  1
ACCMCONTEXT
  2
AcCmContext
  3
DesignerAssemblies
 90
     1024
 91
        1
280
     0
281
     0
  0
CLASS
  1
ACAMCOMPDEF
  2
AcAmCompDef
  3
DesignerAssemblies
 90
     1024
 91
        1
280
     0
281
     0
  0
CLASS
  1
ACAMCOMPDEFMGR
  2
AcAmCompDefMgr
  3
DesignerAssemblies
 90
     1024
 91
        1
280
     0
281
     0
  0
CLASS
  1
AMCONTEXTMGR
  2
AcAmContextMgr
  3
DesignerAssemblies
 90
     1024
 91
        1
280
     0
281
     0
  0
CLASS
  1
ACAMCONTEXTMODELER
  2
AcAmContextModeler
  3
DesignerAssemblies
 90
     1024
 91
        1
280
     0
281
     0
  0
CLASS
  1
ACMTHREADLINESTANDARDDIN
  2
AmdtThreadLineStdDIN
  3
"Amdt_StdImp|Product Description: AutoCAD Mechanical|Company: Autodesk, Inc."
 90
     1024
 91
        1
280
     0
281
     0
  0
CLASS
  1
ACMNOTESTANDARDDIN
  2
AmdtNoteStdDIN
  3
"Amdt_StdImp|Product Description: AutoCAD Mechanical|Company: Autodesk, Inc."
 90
     1024
 91
        1
280
     0
281
     0
  0
CLASS
  1
AMDTNOTETEMPLATEDB
  2
AmdtNoteTemplateDB
  3
AcmSymBB|Product Description: AutoCAD Mechanical|Company: Autodesk, Inc.
 90
     1024
 91
        6
280
     0
281
     0
  0
CLASS
  1
CATALOGSTATE
  2
AcAmCatalogState
  3
DesignerAssemblies
 90
     1024
 91
        1
280
     0
281
     0
  0
CLASS
  1
ACAMGRCOMPDEFSET
  2
AcAmGrCompDefSet
  3
DesignerAssemblies
 90
     1024
 91
        1
280
     0
281
     0
  0
CLASS
  1
AMDTBROWSERDBTAB
  2
AmdtBrowserDbTab
  3
McadcomServices
 90
     1024
 91
        1
280
     0
281
     0
  0
CLASS
  1
CBROWSERAPPOBJECT
  2
CBrowserAppObject
  3
McadcomServices
 90
     1024
 91
        3
280
     0
281
     0
  0
CLASS
  1
DM_PLACEHOLDER
  2
AcDmSelsetPlaceholder
  3
AcMechDwgViewMgmt
 90
     1024
 91
        1
280
     0
281
     0
  0
CLASS
  1
MATERIAL
  2
AcDbMaterial
  3
ObjectDBX Classes
 90
     1153
 91
        3
280
     0
281
     0
  0
CLASS
  1
VISUALSTYLE
  2
AcDbVisualStyle
  3
ObjectDBX Classes
 90
     4095
 91
       16
280
     0
281
     0
  0
CLASS
  1
SCALE
  2
AcDbScale
  3
ObjectDBX Classes
 90
     1153
 91
       33
280
     0
281
     0
  0
CLASS
  1
MLEADERSTYLE
  2
AcDbMLeaderStyle
  3
ACDB_MLEADERSTYLE_CLASS
 90
     4095
 91
        1
280
     0
281
     0
  0
CLASS
  1
CELLSTYLEMAP
  2
AcDbCellStyleMap
  3
ObjectDBX Classes
 90
     1152
 91
        2
280
     0
281
     0
  0
CLASS
  1
ACRFATTGENMGR
  2
AcRfAttGeneralMgr
  3
AcAttribServices
 90
     1024
 91
        1
280
     0
281
     0
  0
CLASS
  1
ACRFOBJATTMGR
  2
AcRfObjAttGroupMgr
  3
AcAttribServices
 90
     1024
 91
        1
280
     0
281
     0
  0
CLASS
  1
ACRFMCADAPIATTHOLDER
  2
AcRfMCADAPIAttHolder
  3
AcAttribServices
 90
     1024
 91
        1
280
     0
281
     0
  0
CLASS
  1
AMDTSYSATTR
  2
AmdtSystemAttribute
  3
AcAttribServices
 90
     1024
 91
        1
280
     0
281
     0
  0
CLASS
  1
ACMTAPERSTANDARDDIN
  2
AcmTaperStdDIN
  3
"Amdt_StdImp|Product Description: AutoCAD Mechanical|Company: Autodesk, Inc."
 90
     1024
 91
        1
280
     0
281
     0
  0
CLASS
  1
ACMANOOTATIONVIEWSTANDARDDIN
  2
AmdtAnViewStdDIN
  3
"Amdt_StdImp|Product Description: AutoCAD Mechanical|Company: Autodesk, Inc."
 90
     1024
 91
        1
280
     0
281
     0
  0
CLASS
  1
EXACXREFPANELOBJECT
  2
ExAcXREFPanelObject
  3
EXAC_ESW
 90
     1025
 91
        1
280
     0
281
     0
  0
CLASS
  1
NPOCOLLECTION
  2
AcDbImpNonPersistentObjectsCollection
  3
ObjectDBX Classes
 90
     1153
 91
        1
280
     0
281
     0
  0
CLASS
  1
IMAGE
  2
AcDbRasterImage
  3
ISM
 90
     2175
 91
        0
280
     0
281
     1
  0
CLASS
  1
IMAGEDEF_REACTOR
  2
AcDbRasterImageDefReactor
  3
ISM
 90
        1
 91
        0
280
     0
281
     0
  0
CLASS
  1
AMDTDETAILSYM
  2
AmdtDetailSym
  3
"AcmSymBB|Product Description: AutoCAD Mechanical|Company: Autodesk, Inc."
 90
     4095
 91
        0
280
     0
281
     1
  0
CLASS
  1
AMDTDETAILSYMLABEL
  2
AmdtDetailSymLabel
  3
"AcmSymBB|Product Description: AutoCAD Mechanical|Company: Autodesk, Inc."
 90
     4095
 91
        0
280
     0
281
     1
  0
CLASS
  1
SORTENTSTABLE
  2
AcDbSortentsTable
  3
ObjectDBX Classes
 90
        0
 91
        1
280
     0
281
     0
  0
CLASS
  1
IMAGEDEF
  2
AcDbRasterImageDef
  3
ISM
 90
        0
 91
        1
280
     0
281
     0
  0
CLASS
  1
ACAMGFILTERDAT
  2
AcAmgFilterDat
  3
"AcadM|Product Description: AutoCAD Mechanical|Company: Autodesk, Inc."
 90
     1024
 91
        6
280
     0
281
     0
  0
CLASS
  1
RASTERVARIABLES
  2
AcDbRasterVariables
  3
ISM
 90
        0
 91
        1
280
     0
281
     0
  0
CLASS
  1
CAMSSTRUCTBTNSTATE
  2
StructBtnState
  3
DesignerAssemblies
 90
     1024
 91
        1
280
     0
281
     0
  0
CLASS
  1
STDPART2D
  2
AmgStdPart
  3
AmgStdPart|Product Description: AutoCAD Mechanical|Company: Autodesk, Inc.
 90
     4095
 91
        2
280
     0
281
     1
  0
CLASS
  1
ACMDATAENTRYPART
  2
AcmDataEntryPart
  3
AcmSymBB|Product Description: AutoCAD Mechanical|Company: Autodesk, Inc.
 90
     1024
 91
        1
280
     0
281
     0
  0
CLASS
  1
ACMPARTREF
  2
AcmPartRef
  3
"AcmSymBB|Product Description: AutoCAD Mechanical|Company: Autodesk, Inc."
 90
     4095
 91
        2
280
     0
281
     1
  0
CLASS
  1
ACDBSTDPARTRES_LINE
  2
AcDbStdPartRes_Line
  3
AmgStdPart|Product Description: AutoCAD Mechanical|Company: Autodesk, Inc.
 90
     1024
 91
        2
280
     0
281
     0
  0
CLASS
  1
AEC_REFEDIT_STATUS_TRACKER
  2
AecDbRefEditStatusTracker
  3
AecArchBase50|Product Desc: Autodesk Architectural Desktop 2007 |Company: Autodesk,Inc. |WEB Address: www.autodesk.com
 90
      129
 91
        1
280
     0
281
     0
  0
CLASS
  1
SOLID_BACKGROUND
  2
AcDbSolidBackground
  3
SCENEOE
 90
     4095
 91
        0
280
     0
281
     0
  0
ENDSEC
  0
SECTION
  2
TABLES
  0
TABLE
  2
VPORT
  5
8
330
0
100
AcDbSymbolTable
 70
     1
  0
VPORT
  5
110
330
8
100
AcDbSymbolTableRecord
100
AcDbViewportTableRecord
  2
*Active
 70
     0
 10
0.0
 20
0.0
 11
1.0
 21
1.0
 12
147.359769691624
 22
-86.12207515350247
 13
0.0
 23
0.0
 14
2.5
 24
2.5
 15
10.0
 25
10.0
 16
0.0
 26
0.0
 36
1535.851292257524
 17
525.2398199331099
 27
193.1204276230323
 37
0.0
 40
1161.772780583917
 41
2.782918149466192
 42
50.0
 43
0.0
 44
0.0
 50
0.0
 51
0.0
 71
     0
 72
   100
 73
     1
 74
     3
 75
     0
 76
     0
 77
     0
 78
     0
281
     0
 65
     1
110
0.0
120
0.0
130
0.0
111
1.0
121
0.0
131
0.0
112
0.0
122
1.0
132
0.0
 79
     0
146
0.0
  0
ENDTAB
  0
TABLE
  2
LTYPE
  5
5
330
0
100
AcDbSymbolTable
 70
    16
  0
LTYPE
  5
14
330
5
100
AcDbSymbolTableRecord
100
AcDbLinetypeTableRecord
  2
ByBlock
 70
     0
  3

 72
    65
 73
     0
 40
0.0
  0
LTYPE
  5
15
330
5
100
AcDbSymbolTableRecord
100
AcDbLinetypeTableRecord
  2
ByLayer
 70
     0
  3

 72
    65
 73
     0
 40
0.0
  0
LTYPE
  5
16
330
5
100
AcDbSymbolTableRecord
100
AcDbLinetypeTableRecord
  2
Continuous
 70
     0
  3
Solid line
 72
    65
 73
     0
 40
0.0
  0
LTYPE
  5
52
330
5
100
AcDbSymbolTableRecord
100
AcDbLinetypeTableRecord
  2
Amconstr
 70
     0
  3
_______________________
 72
    65
 73
     2
 40
9999.0
 49
9999.0
 74
     0
 49
0.0
 74
     0
  0
LTYPE
  5
57
330
5
100
AcDbSymbolTableRecord
100
AcDbLinetypeTableRecord
  2
Amzigzag
 70
     0
  3
/\/-/\/-/\/-/\/-/\/-/\/
 72
    65
 73
     2
 40
11.0001
 49
0.0001
 74
     4
 75
   135
340
56
 46
0.04
 50
0.0
 44
0.0
 45
0.0
 49
-11.0
 74
     0
  0
LTYPE
  5
58
330
5
100
AcDbSymbolTableRecord
100
AcDbLinetypeTableRecord
  2
AM_DIN_F_W050
 70
     0
  3
__ __ __ __ __ __ __ __ __ __ __ __ __ __ __
 72
    65
 73
     2
 40
6.25
 49
4.75
 74
     0
 49
-1.5
 74
     0
  0
LTYPE
  5
59
330
5
100
AcDbSymbolTableRecord
100
AcDbLinetypeTableRecord
  2
AM_DIN_G_W050
 70
     0
  3
____ . ____ . ____ . ____ . ____ . ____ . ____
 72
    65
 73
     4
 40
13.75
 49
9.75
 74
     0
 49
-1.5
 74
     0
 49
1.0
 74
     0
 49
-1.5
 74
     0
  0
LTYPE
  5
5A
330
5
100
AcDbSymbolTableRecord
100
AcDbLinetypeTableRecord
  2
AM_DIN_K_W050
 70
     0
  3
_____ . . _____ . . _____ . . ____ .. ____
 72
    65
 73
     6
 40
16.25
 49
9.75
 74
     0
 49
-1.5
 74
     0
 49
1.0
 74
     0
 49
-1.5
 74
     0
 49
1.0
 74
     0
 49
-1.5
 74
     0
  0
LTYPE
  5
5B
330
5
100
AcDbSymbolTableRecord
100
AcDbLinetypeTableRecord
  2
AM_DIN_G_W050x2
 70
     0
  3
__ . __ . __ . __ . __ . __
 72
    65
 73
     4
 40
6.875
 49
4.75
 74
     0
 49
-0.875
 74
     0
 49
0.375
 74
     0
 49
-0.875
 74
     0
  0
LTYPE
  5
5C
330
5
100
AcDbSymbolTableRecord
100
AcDbLinetypeTableRecord
  2
AM_DIN_F_W050x2
 70
     0
  3
 _ _ _ _ _ _ _ _ _ _ _ _
 72
    65
 73
     2
 40
3.125
 49
2.25
 74
     0
 49
-0.875
 74
     0
  0
LTYPE
  5
69
330
5
100
AcDbSymbolTableRecord
100
AcDbLinetypeTableRecord
  2
ACDINWELD
 70
     0
  3
_ _ _ _ _
 72
    65
 73
     2
 40
2.0
 49
2.0
 74
     0
 49
-1.0
 74
     0
  0
LTYPE
  5
6A
330
5
100
AcDbSymbolTableRecord
100
AcDbLinetypeTableRecord
  2
ACDINTGB
 70
     0
  3
__ . . __ . .
 72
    65
 73
     6
 40
9.0
 49
4.0
 74
     0
 49
-1.0
 74
     0
 49
1.0
 74
     0
 49
-1.0
 74
     0
 49
1.0
 74
     0
 49
-1.0
 74
     0
  0
LTYPE
  5
6B
330
5
100
AcDbSymbolTableRecord
100
AcDbLinetypeTableRecord
  2
ACDINTGL
 70
     0
  3
_ _ _ _ _
 72
    65
 73
     2
 40
3.0
 49
2.0
 74
     0
 49
-1.0
 74
     0
  0
LTYPE
  5
6D
330
5
100
AcDbSymbolTableRecord
100
AcDbLinetypeTableRecord
  2
CENTER
 70
     0
  3
__ . __
 72
    65
 73
     4
 40
7.0
 49
4.0
 74
     0
 49
-1.0
 74
     0
 49
1.0
 74
     0
 49
-1.0
 74
     0
  0
LTYPE
  5
18A
330
5
100
AcDbSymbolTableRecord
100
AcDbLinetypeTableRecord
  2
HIDDEN
 70
     0
  3
Verdeckt
 72
    65
 73
     2
 40
9.525
 49
6.349999999999999
 74
     0
 49
-3.174999999999999
 74
     0
  0
LTYPE
  5
18B
330
5
100
AcDbSymbolTableRecord
100
AcDbLinetypeTableRecord
  2
PHANTOM2
 70
     0
  3
Phantom (.5x) ___ _ _ ___ _ _ ___ _ _ ___ _ _
 72
    65
 73
     6
 40
31.75
 49
15.875
 74
     0
 49
-3.174999999999999
 74
     0
 49
3.174999999999999
 74
     0
 49
-3.174999999999999
 74
     0
 49
3.174999999999999
 74
     0
 49
-3.174999999999999
 74
     0
  0
LTYPE
  5
516
330
5
100
AcDbSymbolTableRecord
100
AcDbLinetypeTableRecord
  2
STRICHPUNKT
 70
     0
  3
__ . __ . __ . __ . __ . __ . __ . __ . __ . __
 72
    65
 73
     4
 40
1.0
 49
0.5
 74
     0
 49
-0.25
 74
     0
 49
0.0
 74
     0
 49
-0.25
 74
     0
  0
LTYPE
  5
51D
330
5
100
AcDbSymbolTableRecord
100
AcDbLinetypeTableRecord
  2
gen7a
 70
     0
  3
__ . __ . __
 72
    65
 73
     4
 40
6.875
 49
4.75
 74
     0
 49
-0.875
 74
     0
 49
0.375
 74
     0
 49
-0.875
 74
     0
  0
ENDTAB
  0
TABLE
  2
LAYER
  5
2
102
{ACAD_XDICTIONARY
360
55B
102
}
330
0
100
AcDbSymbolTable
 70
    16
  0
LAYER
  5
10
102
{ACAD_XDICTIONARY
360
165
102
}
330
2
100
AcDbSymbolTableRecord
100
AcDbLayerTableRecord
  2
0
 70
     0
 62
     7
  6
Continuous
370
    -3
390
F
  0
LAYER
  5
523
330
2
100
AcDbSymbolTableRecord
100
AcDbLayerTableRecord
  2
DEFPOINTS
 70
     0
 62
     7
  6
Continuous
290
     0
370
    -3
390
F
  0
LAYER
  5
528
102
{ACAD_XDICTIONARY
360
529
102
}
330
2
100
AcDbSymbolTableRecord
100
AcDbLayerTableRecord
  2
BEMASS
 70
     0
 62
     3
  6
Continuous
370
    -3
390
F
  0
LAYER
  5
52A
102
{ACAD_XDICTIONARY
360
52B
102
}
330
2
100
AcDbSymbolTableRecord
100
AcDbLayerTableRecord
  2
MITTE
 70
     0
 62
     1
  6
STRICHPUNKT
370
    -3
390
F
  0
LAYER
  5
532
102
{ACAD_XDICTIONARY
360
533
102
}
330
2
100
AcDbSymbolTableRecord
100
AcDbLayerTableRecord
  2
Kontur
 70
     0
 62
     7
  6
Continuous
370
    -3
390
F
  0
LAYER
  5
10AC
102
{ACAD_XDICTIONARY
360
10AD
102
}
330
2
100
AcDbSymbolTableRecord
100
AcDbLayerTableRecord
  2
7A
 70
     0
 62
     4
  6
gen7a
370
    -3
390
F
  0
LAYER
  5
10AE
102
{ACAD_XDICTIONARY
360
10AF
102
}
330
2
100
AcDbSymbolTableRecord
100
AcDbLayerTableRecord
  2
8
 70
     0
 62
     1
  6
Continuous
370
    -3
390
F
  0
LAYER
  5
1CCC
330
2
100
AcDbSymbolTableRecord
100
AcDbLayerTableRecord
  2
AM_5
 70
     0
 62
     3
  6
Continuous
370
    25
390
F
1001
AcAecLayerStandard
1000

1000

  0
LAYER
  5
1DA9
330
2
100
AcDbSymbolTableRecord
100
AcDbLayerTableRecord
  2
AM_0N
 70
     0
 62
     7
  6
Continuous
370
    50
390
F
1001
AcAecLayerStandard
1000

1000

  0
LAYER
  5
1DAF
330
2
100
AcDbSymbolTableRecord
100
AcDbLayerTableRecord
  2
AM_7N
 70
     0
 62
     4
  6
AM_DIN_G_W050
370
    25
390
F
1001
AcAecLayerStandard
1000

1000

  0
LAYER
  5
1DB0
330
2
100
AcDbSymbolTableRecord
100
AcDbLayerTableRecord
  2
AM_9
 70
     0
 62
  -253
  6
Continuous
370
     0
390
F
1001
AcAecLayerStandard
1000

1000

  0
LAYER
  5
1DB3
330
2
100
AcDbSymbolTableRecord
100
AcDbLayerTableRecord
  2
AM_PAREF
 70
     0
 62
     4
  6
Continuous
290
     0
370
    25
390
F
1001
AcAecLayerStandard
1000

1000

  0
LAYER
  5
1DB4
330
2
100
AcDbSymbolTableRecord
100
AcDbLayerTableRecord
  2
AM_12N
 70
     0
 62
     7
  6
Continuous
290
     0
370
    50
390
F
1001
AcAecLayerStandard
1000

1000

  0
LAYER
  5
1E1F
330
2
100
AcDbSymbolTableRecord
100
AcDbLayerTableRecord
  2
AM_INV
 70
     0
 62
  -253
  6
Continuous
370
     0
390
F
1001
AcAecLayerStandard
1000

1000

  0
LAYER
  5
2194
330
2
100
AcDbSymbolTableRecord
100
AcDbLayerTableRecord
  2
AM_7
 70
     0
 62
     4
  6
AM_DIN_G_W050
370
    25
390
F
1001
AcAecLayerStandard
1000

1000

  0
LAYER
  5
267C
330
2
100
AcDbSymbolTableRecord
100
AcDbLayerTableRecord
  2
AM_8
 70
     0
 62
     1
  6
Continuous
370
    25
390
F
1001
AcAecLayerStandard
1000

1000

  0
ENDTAB
  0
TABLE
  2
STYLE
  5
3
330
0
100
AcDbSymbolTable
 70
     4
  0
STYLE
  5
11
330
3
100
AcDbSymbolTableRecord
100
AcDbTextStyleTableRecord
  2
STANDARD
 70
     0
 40
0.0
 41
1.0
 50
0.0
 71
     0
 42
2.5
  3
ISOCP.SHX
  4

  0
STYLE
  5
56
330
3
100
AcDbSymbolTableRecord
100
AcDbTextStyleTableRecord
  2

 70
     1
 40
0.0
 41
1.0
 50
0.0
 71
     0
 42
2.5
  3
ltypeshp.shx
  4

  0
STYLE
  5
5D
330
3
100
AcDbSymbolTableRecord
100
AcDbTextStyleTableRecord
  2
ACDINTS
 70
     0
 40
1.0
 41
1.0
 50
0.0
 71
     0
 42
2.5
  3
isocp.shx
  4

  0
STYLE
  5
68
330
3
100
AcDbSymbolTableRecord
100
AcDbTextStyleTableRecord
  2
ACDINGDT
 70
     0
 40
0.0
 41
1.0
 50
0.0
 71
     0
 42
2.5
  3
amgdt.shx
  4

  0
ENDTAB
  0
TABLE
  2
VIEW
  5
6
330
0
100
AcDbSymbolTable
 70
     6
  0
VIEW
  5
1F71
330
6
100
AcDbSymbolTableRecord
100
AcDbViewTableRecord
  2
AM_VIEW1
 70
     0
 40
210.0
 10
192.4168646080758
 20
315.0
 41
384.833729216152
 11
0.0
 21
0.0
 31
1.0
 12
0.0
 22
0.0
 32
0.0
 42
50.0
 43
0.0
 44
0.0
 50
0.0
 71
     0
281
     0
 72
     0
  0
VIEW
  5
1F72
330
6
100
AcDbSymbolTableRecord
100
AcDbViewTableRecord
  2
AM_VIEW2
 70
     0
 40
210.0
 10
401.583135391924
 20
315.0
 41
384.833729216152
 11
0.0
 21
0.0
 31
1.0
 12
0.0
 22
0.0
 32
0.0
 42
50.0
 43
0.0
 44
0.0
 50
0.0
 71
     0
281
     0
 72
     0
  0
VIEW
  5
1F73
330
6
100
AcDbSymbolTableRecord
100
AcDbViewTableRecord
  2
AM_VIEW3
 70
     0
 40
210.0
 10
192.4168646080758
 20
105.0
 41
384.833729216152
 11
0.0
 21
0.0
 31
1.0
 12
0.0
 22
0.0
 32
0.0
 42
50.0
 43
0.0
 44
0.0
 50
0.0
 71
     0
281
     0
 72
     0
  0
VIEW
  5
1F74
330
6
100
AcDbSymbolTableRecord
100
AcDbViewTableRecord
  2
AM_VIEW4
 70
     0
 40
210.0
 10
401.583135391924
 20
105.0
 41
384.833729216152
 11
0.0
 21
0.0
 31
1.0
 12
0.0
 22
0.0
 32
0.0
 42
50.0
 43
0.0
 44
0.0
 50
0.0
 71
     0
281
     0
 72
     0
  0
VIEW
  5
1F75
330
6
100
AcDbSymbolTableRecord
100
AcDbViewTableRecord
  2
AM_VIEW5
 70
     0
 40
210.0
 10
296.9999999999999
 20
210.0
 41
384.8337292161519
 11
0.0
 21
0.0
 31
1.0
 12
0.0
 22
0.0
 32
0.0
 42
50.0
 43
0.0
 44
0.0
 50
0.0
 71
     0
281
     0
 72
     0
  0
VIEW
  5
1F76
330
6
100
AcDbSymbolTableRecord
100
AcDbViewTableRecord
  2
AM_VIEW6
 70
     0
 40
419.9958
 10
296.9999999999999
 20
210.0
 41
769.6597617577197
 11
0.0
 21
0.0
 31
1.0
 12
0.0
 22
0.0
 32
0.0
 42
50.0
 43
0.0
 44
0.0
 50
0.0
 71
     0
281
     0
 72
     0
  0
ENDTAB
  0
TABLE
  2
UCS
  5
7
330
0
100
AcDbSymbolTable
 70
     0
  0
ENDTAB
  0
TABLE
  2
APPID
  5
9
330
0
100
AcDbSymbolTable
 70
    59
  0
APPID
  5
12
330
9
100
AcDbSymbolTableRecord
100
AcDbRegAppTableRecord
  2
ACAD
 70
     0
  0
APPID
  5
30
330
9
100
AcDbSymbolTableRecord
100
AcDbRegAppTableRecord
  2
MCAD_NO_VIS
 70
     0
  0
APPID
  5
31
330
9
100
AcDbSymbolTableRecord
100
AcDbRegAppTableRecord
  2
ACAD_TEMP_GRAPHIC
 70
     0
  0
APPID
  5
44
330
9
100
AcDbSymbolTableRecord
100
AcDbRegAppTableRecord
  2
ACATTRIBSERVICES
 70
     0
  0
APPID
  5
CE
330
9
100
AcDbSymbolTableRecord
100
AcDbRegAppTableRecord
  2
AD_DRAW
 70
     0
  0
APPID
  5
EC
330
9
100
AcDbSymbolTableRecord
100
AcDbRegAppTableRecord
  2
DESIGNERASSEMBLIES
 70
     0
  0
APPID
  5
F6
330
9
100
AcDbSymbolTableRecord
100
AcDbRegAppTableRecord
  2
ACAD_DSTYLE_DIMARC_LENGTH_SYMBOL
 70
     0
  0
APPID
  5
F7
330
9
100
AcDbSymbolTableRecord
100
AcDbRegAppTableRecord
  2
ACAD_DSTYLE_DIMJOGGED_JOGANGLE_SYMBOL
 70
     0
  0
APPID
  5
107
330
9
100
AcDbSymbolTableRecord
100
AcDbRegAppTableRecord
  2
ACADM_DIM_EDIT
 70
     0
  0
APPID
  5
108
330
9
100
AcDbSymbolTableRecord
100
AcDbRegAppTableRecord
  2
AMDT_DM_ADJ
 70
     0
  0
APPID
  5
15F
330
9
100
AcDbSymbolTableRecord
100
AcDbRegAppTableRecord
  2
ACAD_MLEADERVER
 70
     0
  0
APPID
  5
54D
330
9
100
AcDbSymbolTableRecord
100
AcDbRegAppTableRecord
  2
GENIUS_GENBLLY_14
 70
     0
  0
APPID
  5
54E
330
9
100
AcDbSymbolTableRecord
100
AcDbRegAppTableRecord
  2
GENIUS_VERSION2
 70
     0
  0
APPID
  5
54F
330
9
100
AcDbSymbolTableRecord
100
AcDbRegAppTableRecord
  2
GENIUS_GENREC_14
 70
     0
  0
APPID
  5
550
330
9
100
AcDbSymbolTableRecord
100
AcDbRegAppTableRecord
  2
GENIUS_GENODEF_13
 70
     0
  0
APPID
  5
551
330
9
100
AcDbSymbolTableRecord
100
AcDbRegAppTableRecord
  2
GENIUS_GENOBJ-N-REC_13
 70
     0
  0
APPID
  5
552
330
9
100
AcDbSymbolTableRecord
100
AcDbRegAppTableRecord
  2
GENIUS_GENOBJ-N-SDF_13
 70
     0
  0
APPID
  5
553
330
9
100
AcDbSymbolTableRecord
100
AcDbRegAppTableRecord
  2
AcAecLayerStandard
 70
     0
  0
APPID
  5
554
330
9
100
AcDbSymbolTableRecord
100
AcDbRegAppTableRecord
  2
ACAD_DSTYLE_DIMINSPECT
 70
     0
  0
APPID
  5
555
330
9
100
AcDbSymbolTableRecord
100
AcDbRegAppTableRecord
  2
ACAD_DSTYLE_DIMRADIAL_EXTENSION
 70
     0
  0
APPID
  5
556
330
9
100
AcDbSymbolTableRecord
100
AcDbRegAppTableRecord
  2
GENIUS_GENOBJ-N-FIL_13
 70
     0
  0
APPID
  5
557
330
9
100
AcDbSymbolTableRecord
100
AcDbRegAppTableRecord
  2
GENIUS_GENSCREG_15
 70
     0
  0
APPID
  5
558
330
9
100
AcDbSymbolTableRecord
100
AcDbRegAppTableRecord
  2
GENIUS_GENOBJ-N-ZOO_13
 70
     0
  0
APPID
  5
559
330
9
100
AcDbSymbolTableRecord
100
AcDbRegAppTableRecord
  2
GENIUS_GENZOO_17
 70
     0
  0
APPID
  5
55A
330
9
100
AcDbSymbolTableRecord
100
AcDbRegAppTableRecord
  2
ACAD_PSEXT
 70
     0
  0
APPID
  5
10B2
330
9
100
AcDbSymbolTableRecord
100
AcDbRegAppTableRecord
  2
GENIUS_GENOENT_13
 70
     0
  0
APPID
  5
10B3
330
9
100
AcDbSymbolTableRecord
100
AcDbRegAppTableRecord
  2
GENIUS_GENDTOL_13
 70
     0
  0
APPID
  5
10B4
330
9
100
AcDbSymbolTableRecord
100
AcDbRegAppTableRecord
  2
GENIUS_GENTRA_14
 70
     0
  0
APPID
  5
10B5
330
9
100
AcDbSymbolTableRecord
100
AcDbRegAppTableRecord
  2
GENIUS_GENOBJ-N-TIT_13
 70
     0
  0
APPID
  5
10B6
330
9
100
AcDbSymbolTableRecord
100
AcDbRegAppTableRecord
  2
GENIUS_GENTITLE_13
 70
     0
  0
APPID
  5
10B7
330
9
100
AcDbSymbolTableRecord
100
AcDbRegAppTableRecord
  2
GENIUS_GENOREF_13
 70
     0
  0
APPID
  5
10B8
330
9
100
AcDbSymbolTableRecord
100
AcDbRegAppTableRecord
  2
GENIUS_GENOLIS_13
 70
     0
  0
APPID
  5
10B9
330
9
100
AcDbSymbolTableRecord
100
AcDbRegAppTableRecord
  2
GENIUS_GENOBJ-N-HTC_13
 70
     0
  0
APPID
  5
10BA
330
9
100
AcDbSymbolTableRecord
100
AcDbRegAppTableRecord
  2
GENIUS_GENHATCH_13
 70
     0
  0
APPID
  5
10BB
330
9
100
AcDbSymbolTableRecord
100
AcDbRegAppTableRecord
  2
GENIUS_GENHINW_13
 70
     0
  0
APPID
  5
10BC
330
9
100
AcDbSymbolTableRecord
100
AcDbRegAppTableRecord
  2
GENIUS_FIRSTVISTXT_14
 70
     0
  0
APPID
  5
10BD
330
9
100
AcDbSymbolTableRecord
100
AcDbRegAppTableRecord
  2
GENIUS_GENOBJ-N-LEADER_13
 70
     0
  0
APPID
  5
1DA5
330
9
100
AcDbSymbolTableRecord
100
AcDbRegAppTableRecord
  2
GEVID1266308564
 70
     0
  0
APPID
  5
1DA6
330
9
100
AcDbSymbolTableRecord
100
AcDbRegAppTableRecord
  2
GEVMK
 70
     0
  0
APPID
  5
1DA7
330
9
100
AcDbSymbolTableRecord
100
AcDbRegAppTableRecord
  2
GEVDC
 70
     0
  0
APPID
  5
1DAA
330
9
100
AcDbSymbolTableRecord
100
AcDbRegAppTableRecord
  2
GENIUS_GENBH_13
 70
     0
  0
APPID
  5
1DAC
330
9
100
AcDbSymbolTableRecord
100
AcDbRegAppTableRecord
  2
GENIUS_GENOBJ-NBEHI-BHF_13
 70
     0
  0
APPID
  5
1DAE
330
9
100
AcDbSymbolTableRecord
100
AcDbRegAppTableRecord
  2
GENIUS_GENOBJ-NBEHI-BHB_13
 70
     0
  0
APPID
  5
1E1D
330
9
100
AcDbSymbolTableRecord
100
AcDbRegAppTableRecord
  2
GEVID1266308565
 70
     0
  0
APPID
  5
1EAD
330
9
100
AcDbSymbolTableRecord
100
AcDbRegAppTableRecord
  2
ACAD_EXEMPT_FROM_CAD_STANDARDS
 70
     0
  0
APPID
  5
1F1D
330
9
100
AcDbSymbolTableRecord
100
AcDbRegAppTableRecord
  2
GENIUS_GENCFG_13
 70
     0
  0
APPID
  5
1F1E
330
9
100
AcDbSymbolTableRecord
100
AcDbRegAppTableRecord
  2
GENIUS_GENCFG0_13
 70
     0
  0
APPID
  5
1F1F
330
9
100
AcDbSymbolTableRecord
100
AcDbRegAppTableRecord
  2
GENIUS_GENCFG1_13
 70
     0
  0
APPID
  5
1F20
330
9
100
AcDbSymbolTableRecord
100
AcDbRegAppTableRecord
  2
GENIUS_GENCFG2_13
 70
     0
  0
APPID
  5
1F21
330
9
100
AcDbSymbolTableRecord
100
AcDbRegAppTableRecord
  2
GENIUS_GENCFG3_13
 70
     0
  0
APPID
  5
1F22
330
9
100
AcDbSymbolTableRecord
100
AcDbRegAppTableRecord
  2
GENIUS_GENCFG4_13
 70
     0
  0
APPID
  5
1F23
330
9
100
AcDbSymbolTableRecord
100
AcDbRegAppTableRecord
  2
GENIUS_GENCFG5_13
 70
     0
  0
APPID
  5
1F24
330
9
100
AcDbSymbolTableRecord
100
AcDbRegAppTableRecord
  2
GENIUS_GEVCFG0_13
 70
     0
  0
APPID
  5
2197
330
9
100
AcDbSymbolTableRecord
100
AcDbRegAppTableRecord
  2
GENIUS_GENOBJ-N-CEN_13
 70
     0
  0
APPID
  5
2198
330
9
100
AcDbSymbolTableRecord
100
AcDbRegAppTableRecord
  2
GENIUS_GENCEN_19
 70
     0
  0
APPID
  5
21B2
330
9
100
AcDbSymbolTableRecord
100
AcDbRegAppTableRecord
  2
GENIUS_GENOBJ-N-CRS_13
 70
     0
  0
APPID
  5
27E2
330
9
100
AcDbSymbolTableRecord
100
AcDbRegAppTableRecord
  2
ACAD_DSTYLE_DIM_LINETYPE
 70
     0
  0
APPID
  5
27E3
330
9
100
AcDbSymbolTableRecord
100
AcDbRegAppTableRecord
  2
ACAD_DSTYLE_DIM_EXT1_LINETYPE
 70
     0
  0
APPID
  5
27E4
330
9
100
AcDbSymbolTableRecord
100
AcDbRegAppTableRecord
  2
ACAD_DSTYLE_DIM_EXT2_LINETYPE
 70
     0
  0
ENDTAB
  0
TABLE
  2
DIMSTYLE
  5
A
330
0
100
AcDbSymbolTable
 70
     8
100
AcDbDimStyleTable
 71
     1
340
70
  0
DIMSTYLE
105
70
330
A
100
AcDbSymbolTableRecord
100
AcDbDimStyleTableRecord
  2
AM_DIN
 70
     0
  4
"
 41
2.5
 42
1.0
 43
10.0
 44
1.0
 47
0.1
 48
0.1
 73
     0
 74
     0
 77
     1
 78
     8
 79
     2
140
3.5
141
0.0
143
0.0393701
146
0.71
147
1.5
172
     1
176
   256
177
   256
178
     2
271
     2
272
     3
274
     4
283
     0
284
     8
340
11
371
    -1
372
    -1
1001
ACAD_DSTYLE_DIMJOGGED_JOGANGLE_SYMBOL
1070
   384
1040
1.570796326794896
  0
DIMSTYLE
105
71
330
A
100
AcDbSymbolTableRecord
100
AcDbDimStyleTableRecord
  2
AM_DIN$3
 70
     0
  4
"
 41
2.5
 42
1.0
 43
10.0
 44
1.0
 47
0.1
 48
0.1
 73
     0
 77
     1
 78
     8
 79
     2
140
3.5
141
0.0
143
0.0393701
146
0.71
147
1.5
176
   256
177
   256
178
     2
271
     2
272
     3
274
     4
283
     0
284
     8
288
     1
289
     0
340
11
371
    -1
372
    -1
1001
ACAD_DSTYLE_DIMJOGGED_JOGANGLE_SYMBOL
1070
   384
1040
1.570796326794896
  0
DIMSTYLE
105
72
330
A
100
AcDbSymbolTableRecord
100
AcDbDimStyleTableRecord
  2
AM_DIN$4
 70
     0
  4
"
 41
2.5
 42
1.0
 43
10.0
 44
1.0
 47
0.1
 48
0.1
 73
     0
 77
     1
 78
     8
 79
     2
140
3.5
141
0.0
143
0.0393701
146
0.71
147
1.5
176
   256
177
   256
178
     2
271
     2
272
     3
274
     4
283
     0
284
     8
288
     1
289
     0
340
11
371
    -1
372
    -1
1001
ACAD_DSTYLE_DIMJOGGED_JOGANGLE_SYMBOL
1070
   384
1040
1.570796326794896
  0
DIMSTYLE
105
73
330
A
100
AcDbSymbolTableRecord
100
AcDbDimStyleTableRecord
  2
AM_DIN$6
 70
     0
  4
"
 41
2.5
 42
1.0
 43
10.0
 44
1.0
 47
0.1
 48
0.1
 73
     0
 74
     0
 78
     8
 79
     2
140
3.5
141
0.0
143
0.0393701
146
0.71
147
1.5
172
     1
176
   256
177
   256
178
     2
271
     2
272
     3
274
     4
283
     0
284
     8
340
11
371
    -1
372
    -1
1001
ACAD_DSTYLE_DIMJOGGED_JOGANGLE_SYMBOL
1070
   384
1040
1.570796326794896
  0
DIMSTYLE
105
74
330
A
100
AcDbSymbolTableRecord
100
AcDbDimStyleTableRecord
  2
AM_DIN$7
 70
     0
  4
"
 41
2.5
 42
1.0
 43
10.0
 44
1.0
 47
0.1
 48
0.1
 73
     0
 74
     0
 77
     1
 78
     8
 79
     2
140
5.0
141
0.0
143
0.0393701
146
0.71
147
1.5
172
     1
176
   256
177
   256
178
     2
271
     2
272
     3
274
     4
283
     0
284
     8
340
11
371
    -1
372
    -1
1001
ACAD_DSTYLE_DIMJOGGED_JOGANGLE_SYMBOL
1070
   384
1040
1.570796326794896
  0
DIMSTYLE
105
75
330
A
100
AcDbSymbolTableRecord
100
AcDbDimStyleTableRecord
  2
AM_DIN$SF
 70
     0
  4
"
 41
2.5
 42
1.0
 43
10.0
 44
1.0
 47
0.1
 48
0.1
 73
     0
 74
     0
 75
     1
 76
     1
 77
     1
 78
     8
 79
     2
140
3.5
141
0.0
143
0.0393701
146
0.71
147
1.5
172
     1
176
   256
177
   256
178
     2
271
     2
272
     3
274
     4
283
     0
284
     8
340
11
371
    -1
372
    -1
1001
ACAD_DSTYLE_DIMJOGGED_JOGANGLE_SYMBOL
1070
   384
1040
1.570796326794896
  0
DIMSTYLE
105
7A
330
A
100
AcDbSymbolTableRecord
100
AcDbDimStyleTableRecord
  2
AM_DIN$SH
 70
     0
  4
"
 41
2.5
 42
1.0
 43
10.0
 44
1.0
 47
0.1
 48
0.1
 73
     0
 74
     0
 75
     1
 76
     1
 77
     1
 78
     8
 79
     2
140
3.5
141
0.0
143
0.0393701
144
2.0
146
0.71
147
1.5
172
     1
173
     1
176
   256
177
   256
178
     2
271
     2
272
     3
274
     4
283
     0
284
     8
340
11
343
76
371
    -1
372
    -1
1001
ACAD_DSTYLE_DIMJOGGED_JOGANGLE_SYMBOL
1070
   384
1040
1.570796326794896
  0
DIMSTYLE
105
54C
102
{ACAD_REACTORS
330
4D
330
204B
330
2494
330
20F4
330
20AD
330
22AB
102
}
330
A
100
AcDbSymbolTableRecord
100
AcDbDimStyleTableRecord
  2
AM_DIN$0
 70
     0
  4
"
 41
3.5
 42
1.0
 43
10.0
 44
1.0
 47
0.1
 48
0.1
 73
     0
 74
     0
 77
     1
 78
     8
 79
     2
140
3.5
141
0.0
143
0.0393701
146
0.71
147
1.5
172
     1
176
   256
177
   256
178
     2
271
     2
272
     3
274
     4
283
     0
284
     8
340
11
371
    -1
372
    -1
1001
ACAD_DSTYLE_DIMJOGGED_JOGANGLE_SYMBOL
1070
   384
1040
1.570796326794896
1001
ACAD_DSTYLE_DIM_LINETYPE
1070
   380
1005
14
1001
ACAD_DSTYLE_DIM_EXT1_LINETYPE
1070
   381
1005
14
1001
ACAD_DSTYLE_DIM_EXT2_LINETYPE
1070
   382
1005
14
  0
ENDTAB
  0
TABLE
  2
BLOCK_RECORD
  5
1
330
0
100
AcDbSymbolTable
 70
    12
  0
BLOCK_RECORD
  5
1F
102
{ACAD_XDICTIONARY
360
81
102
}
330
1
100
AcDbSymbolTableRecord
100
AcDbBlockTableRecord
  2
*Model_Space
340
22
  0
BLOCK_RECORD
  5
1B
330
1
100
AcDbSymbolTableRecord
100
AcDbBlockTableRecord
  2
*Paper_Space
340
1E
  0
BLOCK_RECORD
  5
23
330
1
100
AcDbSymbolTableRecord
100
AcDbBlockTableRecord
  2
*Paper_Space0
340
26
  0
BLOCK_RECORD
  5
76
330
1
100
AcDbSymbolTableRecord
100
AcDbBlockTableRecord
  2
GENAXEH
340
0
  0
BLOCK_RECORD
  5
204C
330
1
100
AcDbSymbolTableRecord
100
AcDbBlockTableRecord
  2
*D3
340
0
  0
BLOCK_RECORD
  5
20AE
330
1
100
AcDbSymbolTableRecord
100
AcDbBlockTableRecord
  2
*D4
340
0
  0
BLOCK_RECORD
  5
20F5
330
1
100
AcDbSymbolTableRecord
100
AcDbBlockTableRecord
  2
*D5
340
0
  0
BLOCK_RECORD
  5
22AC
330
1
100
AcDbSymbolTableRecord
100
AcDbBlockTableRecord
  2
*D6
340
0
  0
BLOCK_RECORD
  5
2495
330
1
100
AcDbSymbolTableRecord
100
AcDbBlockTableRecord
  2
*D7
340
0
  0
BLOCK_RECORD
  5
27B2
330
1
100
AcDbSymbolTableRecord
100
AcDbBlockTableRecord
  2
*U8
340
0
  0
BLOCK_RECORD
  5
27C0
330
1
100
AcDbSymbolTableRecord
100
AcDbBlockTableRecord
  2
*U9
340
0
  0
BLOCK_RECORD
  5
27CD
330
1
100
AcDbSymbolTableRecord
100
AcDbBlockTableRecord
  2
*S10
340
0
  0
BLOCK_RECORD
  5
27D4
330
1
100
AcDbSymbolTableRecord
100
AcDbBlockTableRecord
  2
*S11
340
0
  0
ENDTAB
  0
ENDSEC
  0
SECTION
  2
BLOCKS
  0
BLOCK
  5
20
330
1F
100
AcDbEntity
  8
0
100
AcDbBlockBegin
  2
*Model_Space
 70
     0
 10
0.0
 20
0.0
 30
0.0
  3
*Model_Space
  1

  0
ENDBLK
  5
21
330
1F
100
AcDbEntity
  8
0
100
AcDbBlockEnd
  0
BLOCK
  5
1C
330
1B
100
AcDbEntity
 67
     1
  8
0
100
AcDbBlockBegin
  2
*Paper_Space
 70
     0
 10
0.0
 20
0.0
 30
0.0
  3
*Paper_Space
  1

  0
ENDBLK
  5
1D
330
1B
100
AcDbEntity
 67
     1
  8
0
100
AcDbBlockEnd
  0
BLOCK
  5
24
330
23
100
AcDbEntity
 67
     1
  8
0
100
AcDbBlockBegin
  2
*Paper_Space0
 70
     0
 10
0.0
 20
0.0
 30
0.0
  3
*Paper_Space0
  1

  0
ENDBLK
  5
25
330
23
100
AcDbEntity
 67
     1
  8
0
100
AcDbBlockEnd
  0
BLOCK
  5
78
330
76
100
AcDbEntity
  8
0
100
AcDbBlockBegin
  2
GENAXEH
 70
     0
 10
0.0
 20
0.0
 30
0.0
  3
GENAXEH
  1

  0
LINE
  5
77
330
76
100
AcDbEntity
  8
0
100
AcDbLine
 10
-1.0
 20
0.0
 30
0.0
 11
1.0
 21
0.0
 31
0.0
  0
ENDBLK
  5
79
330
76
100
AcDbEntity
  8
0
100
AcDbBlockEnd
  0
BLOCK
  5
204D
330
204C
100
AcDbEntity
  8
0
100
AcDbBlockBegin
  2
*D3
 70
     1
 10
0.0
 20
0.0
 30
0.0
  3
*D3
  1

  0
LINE
  5
2765
330
204C
100
AcDbEntity
  8
AM_5
  6
ByBlock
100
AcDbLine
 10
130.1229879145578
 20
484.6276091239247
 30
0.0
 11
130.1229879145578
 21
504.3918287715968
 31
0.0
  0
LINE
  5
2766
330
204C
100
AcDbEntity
  8
AM_5
  6
ByBlock
100
AcDbLine
 10
327.1229879145578
 20
484.6276091239247
 30
0.0
 11
327.1229879145578
 21
504.3918287715968
 31
0.0
  0
LINE
  5
2767
330
204C
100
AcDbEntity
  8
AM_5
  6
ByBlock
100
AcDbLine
 10
133.6229879145578
 20
503.3918287715969
 30
0.0
 11
323.6229879145578
 21
503.3918287715969
 31
0.0
  0
SOLID
  5
2768
330
204C
100
AcDbEntity
  8
AM_5
100
AcDbTrace
 10
133.6229879145578
 20
503.9751621049302
 30
0.0
 11
133.6229879145578
 21
502.8084954382635
 31
0.0
 12
130.1229879145578
 22
503.3918287715969
 32
0.0
 13
130.1229879145578
 23
503.3918287715969
 33
0.0
  0
SOLID
  5
2769
330
204C
100
AcDbEntity
  8
AM_5
100
AcDbTrace
 10
323.6229879145578
 20
503.9751621049302
 30
0.0
 11
323.6229879145578
 21
502.8084954382635
 31
0.0
 12
327.1229879145578
 22
503.3918287715969
 32
0.0
 13
327.1229879145578
 23
503.3918287715969
 33
0.0
  0
MTEXT
  5
276A
330
204C
100
AcDbEntity
  8
AM_5
 62
     2
100
AcDbMText
 10
228.6229879145578
 20
512.3918287715969
 30
0.0
 40
15.0
 41
0.0
 71
     5
 72
     1
  1
{\Famgdt;o}197
 73
     1
 44
1.0
  0
POINT
  5
276B
330
204C
100
AcDbEntity
  8
DEFPOINTS
 62
     0
100
AcDbPoint
 10
130.1229879145578
 20
483.6276091239247
 30
0.0
  0
POINT
  5
276C
330
204C
100
AcDbEntity
  8
DEFPOINTS
 62
     0
100
AcDbPoint
 10
327.1229879145578
 20
483.6276091239247
 30
0.0
  0
POINT
  5
276D
330
204C
100
AcDbEntity
  8
DEFPOINTS
 62
     0
100
AcDbPoint
 10
327.1229879145578
 20
503.3918287715969
 30
0.0
  0
ENDBLK
  5
204E
330
204C
100
AcDbEntity
  8
0
100
AcDbBlockEnd
  0
BLOCK
  5
20AF
330
20AE
100
AcDbEntity
  8
0
100
AcDbBlockBegin
  2
*D4
 70
     1
 10
0.0
 20
0.0
 30
0.0
  3
*D4
  1

  0
LINE
  5
276E
330
20AE
100
AcDbEntity
  8
AM_5
  6
ByBlock
100
AcDbLine
 10
328.1229879145578
 20
483.6276091239247
 30
0.0
 11
407.4625083695807
 21
483.6276091239247
 31
0.0
  0
LINE
  5
276F
330
20AE
100
AcDbEntity
  8
AM_5
  6
ByBlock
100
AcDbLine
 10
359.6229879145578
 20
433.6276091239247
 30
0.0
 11
407.4625083695807
 21
433.6276091239247
 31
0.0
  0
LINE
  5
2770
330
20AE
100
AcDbEntity
  8
AM_5
  6
ByBlock
100
AcDbLine
 10
406.4625083695807
 20
480.1276091239247
 30
0.0
 11
406.4625083695807
 21
437.1276091239247
 31
0.0
  0
SOLID
  5
2771
330
20AE
100
AcDbEntity
  8
AM_5
100
AcDbTrace
 10
405.8791750362474
 20
480.1276091239247
 30
0.0
 11
407.045841702914
 21
480.1276091239247
 31
0.0
 12
406.4625083695807
 22
483.6276091239247
 32
0.0
 13
406.4625083695807
 23
483.6276091239247
 33
0.0
  0
SOLID
  5
2772
330
20AE
100
AcDbEntity
  8
AM_5
100
AcDbTrace
 10
405.8791750362474
 20
437.1276091239247
 30
0.0
 11
407.045841702914
 21
437.1276091239247
 31
0.0
 12
406.4625083695807
 22
433.6276091239247
 32
0.0
 13
406.4625083695807
 23
433.6276091239247
 33
0.0
  0
MTEXT
  5
2773
330
20AE
100
AcDbEntity
  8
AM_5
 62
     2
100
AcDbMText
 10
397.4625083695806
 20
458.6276091239248
 30
0.0
 40
15.0
 41
0.0
 71
     5
 72
     1
  1
50
 11
0.0000000000000001
 21
1.0
 31
0.0
 73
     1
 44
1.0
  0
POINT
  5
2774
330
20AE
100
AcDbEntity
  8
DEFPOINTS
 62
     0
100
AcDbPoint
 10
327.1229879145578
 20
483.6276091239247
 30
0.0
  0
POINT
  5
2775
330
20AE
100
AcDbEntity
  8
DEFPOINTS
 62
     0
100
AcDbPoint
 10
358.6229879145578
 20
433.6276091239247
 30
0.0
  0
POINT
  5
2776
330
20AE
100
AcDbEntity
  8
DEFPOINTS
 62
     0
100
AcDbPoint
 10
406.4625083695807
 20
433.6276091239247
 30
0.0
  0
ENDBLK
  5
20B0
330
20AE
100
AcDbEntity
  8
0
100
AcDbBlockEnd
  0
BLOCK
  5
20F6
330
20F5
100
AcDbEntity
  8
0
100
AcDbBlockBegin
  2
*D5
 70
     1
 10
0.0
 20
0.0
 30
0.0
  3
*D5
  1

  0
LINE
  5
2777
330
20F5
100
AcDbEntity
  8
AM_5
  6
ByBlock
100
AcDbLine
 10
328.1229879145578
 20
483.6276091239247
 30
0.0
 11
446.8653411636057
 21
483.6276091239247
 31
0.0
  0
LINE
  5
2778
330
20F5
100
AcDbEntity
  8
AM_5
  6
ByBlock
100
AcDbLine
 10
296.5556969696042
 20
308.6276091239248
 30
0.0
 11
446.8653411636057
 21
308.6276091239247
 31
0.0
  0
LINE
  5
2779
330
20F5
100
AcDbEntity
  8
AM_5
  6
ByBlock
100
AcDbLine
 10
445.8653411636057
 20
480.1276091239247
 30
0.0
 11
445.8653411636056
 21
312.1276091239248
 31
0.0
  0
SOLID
  5
277A
330
20F5
100
AcDbEntity
  8
AM_5
100
AcDbTrace
 10
445.2820078302724
 20
480.1276091239247
 30
0.0
 11
446.4486744969391
 21
480.1276091239247
 31
0.0
 12
445.8653411636057
 22
483.6276091239247
 32
0.0
 13
445.8653411636057
 23
483.6276091239247
 33
0.0
  0
SOLID
  5
277B
330
20F5
100
AcDbEntity
  8
AM_5
100
AcDbTrace
 10
445.2820078302724
 20
312.1276091239248
 30
0.0
 11
446.448674496939
 21
312.1276091239248
 31
0.0
 12
445.8653411636056
 22
308.6276091239247
 32
0.0
 13
445.8653411636056
 23
308.6276091239247
 33
0.0
  0
MTEXT
  5
277C
330
20F5
100
AcDbEntity
  8
AM_5
 62
     2
100
AcDbMText
 10
436.8653411636056
 20
396.1276091239249
 30
0.0
 40
15.0
 41
0.0
 71
     5
 72
     1
  1
175
 11
0.0000000000000001
 21
1.0
 31
0.0
 73
     1
 44
1.0
  0
POINT
  5
277D
330
20F5
100
AcDbEntity
  8
DEFPOINTS
 62
     0
100
AcDbPoint
 10
327.1229879145578
 20
483.6276091239247
 30
0.0
  0
POINT
  5
277E
330
20F5
100
AcDbEntity
  8
DEFPOINTS
 62
     0
100
AcDbPoint
 10
295.5556969696043
 20
308.6276091239248
 30
0.0
  0
POINT
  5
277F
330
20F5
100
AcDbEntity
  8
DEFPOINTS
 62
     0
100
AcDbPoint
 10
445.8653411636056
 20
308.6276091239247
 30
0.0
  0
ENDBLK
  5
20F7
330
20F5
100
AcDbEntity
  8
0
100
AcDbBlockEnd
  0
BLOCK
  5
22AD
330
22AC
100
AcDbEntity
  8
0
100
AcDbBlockBegin
  2
*D6
 70
     1
 10
0.0
 20
0.0
 30
0.0
  3
*D6
  1

  0
LINE
  5
2780
330
22AC
100
AcDbEntity
  8
AM_5
  6
ByBlock
100
AcDbLine
 10
109.1229879145578
 20
432.6276091239248
 30
0.0
 11
109.1229879145578
 21
396.266904229871
 31
0.0
  0
LINE
  5
2781
330
22AC
100
AcDbEntity
  8
AM_5
  6
ByBlock
100
AcDbLine
 10
118.1229879145578
 20
432.6276091239248
 30
0.0
 11
118.1229879145578
 21
396.266904229871
 31
0.0
  0
LINE
  5
2782
330
22AC
100
AcDbEntity
  8
AM_5
  6
ByBlock
100
AcDbLine
 10
105.6229879145578
 20
397.266904229871
 30
0.0
 11
102.1229879145578
 21
397.266904229871
 31
0.0
  0
LINE
  5
2783
330
22AC
100
AcDbEntity
  8
AM_5
  6
ByBlock
100
AcDbLine
 10
121.6229879145578
 20
397.266904229871
 30
0.0
 11
125.1229879145578
 21
397.266904229871
 31
0.0
  0
MTEXT
  5
2784
330
22AC
100
AcDbEntity
  8
AM_5
 62
     2
100
AcDbMText
 10
92.75425380133958
 20
409.7379027246663
 30
0.0
 40
15.0
 41
0.0
 71
     5
 72
     1
  1
%%c9
 73
     1
 44
1.0
  0
LINE
  5
2785
330
22AC
100
AcDbEntity
  8
AM_5
  6
ByBlock
100
AcDbLine
 10
109.1229879145578
 20
397.266904229871
 30
0.0
 11
118.1229879145578
 21
397.266904229871
 31
0.0
  0
SOLID
  5
2786
330
22AC
100
AcDbEntity
  8
AM_5
100
AcDbTrace
 10
105.6229879145578
 20
397.8502375632043
 30
0.0
 11
105.6229879145578
 21
396.6835708965377
 31
0.0
 12
109.1229879145578
 22
397.266904229871
 32
0.0
 13
109.1229879145578
 23
397.266904229871
 33
0.0
  0
SOLID
  5
2787
330
22AC
100
AcDbEntity
  8
AM_5
100
AcDbTrace
 10
121.6229879145578
 20
397.8502375632043
 30
0.0
 11
121.6229879145578
 21
396.6835708965377
 31
0.0
 12
118.1229879145578
 22
397.266904229871
 32
0.0
 13
118.1229879145578
 23
397.266904229871
 33
0.0
  0
POINT
  5
2788
330
22AC
100
AcDbEntity
  8
DEFPOINTS
 62
     0
100
AcDbPoint
 10
109.1229879145578
 20
433.6276091239247
 30
0.0
  0
POINT
  5
2789
330
22AC
100
AcDbEntity
  8
DEFPOINTS
 62
     0
100
AcDbPoint
 10
118.1229879145578
 20
433.6276091239247
 30
0.0
  0
POINT
  5
278A
330
22AC
100
AcDbEntity
  8
DEFPOINTS
 62
     0
100
AcDbPoint
 10
118.1229879145578
 20
397.266904229871
 30
0.0
  0
ENDBLK
  5
22AE
330
22AC
100
AcDbEntity
  8
0
100
AcDbBlockEnd
  0
BLOCK
  5
2496
330
2495
100
AcDbEntity
  8
0
100
AcDbBlockBegin
  2
*D7
 70
     1
 10
0.0
 20
0.0
 30
0.0
  3
*D7
  1

  0
LINE
  5
278B
330
2495
100
AcDbEntity
  8
AM_5
  6
ByBlock
100
AcDbLine
 10
98.62298791455783
 20
434.6276091239247
 30
0.0
 11
98.62298791455783
 21
539.1367469660403
 31
0.0
  0
LINE
  5
278C
330
2495
100
AcDbEntity
  8
AM_5
  6
ByBlock
100
AcDbLine
 10
358.6229879145578
 20
434.6276091239247
 30
0.0
 11
358.6229879145578
 21
539.1367469660403
 31
0.0
  0
LINE
  5
278D
330
2495
100
AcDbEntity
  8
AM_5
  6
ByBlock
100
AcDbLine
 10
102.1229879145578
 20
538.1367469660403
 30
0.0
 11
355.1229879145578
 21
538.1367469660403
 31
0.0
  0
SOLID
  5
278E
330
2495
100
AcDbEntity
  8
AM_5
100
AcDbTrace
 10
102.1229879145578
 20
538.7200802993738
 30
0.0
 11
102.1229879145578
 21
537.553413632707
 31
0.0
 12
98.62298791455783
 22
538.1367469660403
 32
0.0
 13
98.62298791455783
 23
538.1367469660403
 33
0.0
  0
SOLID
  5
278F
330
2495
100
AcDbEntity
  8
AM_5
100
AcDbTrace
 10
355.1229879145578
 20
538.7200802993738
 30
0.0
 11
355.1229879145578
 21
537.553413632707
 31
0.0
 12
358.6229879145578
 22
538.1367469660403
 32
0.0
 13
358.6229879145578
 23
538.1367469660403
 33
0.0
  0
MTEXT
  5
2790
330
2495
100
AcDbEntity
  8
AM_5
 62
     2
100
AcDbMText
 10
236.7753407011485
 20
547.1382233439931
 30
0.0
 40
15.0
 41
0.0
 71
     5
 72
     1
  1
260
 73
     1
 44
1.0
  0
POINT
  5
2791
330
2495
100
AcDbEntity
  8
DEFPOINTS
 62
     0
100
AcDbPoint
 10
98.62298791455783
 20
433.6276091239247
 30
0.0
  0
POINT
  5
2792
330
2495
100
AcDbEntity
  8
DEFPOINTS
 62
     0
100
AcDbPoint
 10
358.6229879145578
 20
433.6276091239247
 30
0.0
  0
POINT
  5
2793
330
2495
100
AcDbEntity
  8
DEFPOINTS
 62
     0
100
AcDbPoint
 10
358.6229879145578
 20
538.1367469660403
 30
0.0
  0
ENDBLK
  5
2497
330
2495
100
AcDbEntity
  8
0
100
AcDbBlockEnd
  0
BLOCK
  5
27BC
330
27B2
100
AcDbEntity
  8
0
100
AcDbBlockBegin
  2
*U8
 70
     1
 10
0.0
 20
0.0
 30
0.0
  3
*U8
  1

  0
LINE
  5
27B3
330
27B2
100
AcDbEntity
  8
AM_7N
  6
AM_DIN_G_W050x2
100
AcDbLine
 10
153.1707620755931
 20
241.4789840947287
 30
0.0
 11
168.0278583147748
 21
226.6218878555507
 31
0.0
  0
LINE
  5
27B4
330
27B2
100
AcDbEntity
  8
AM_0N
100
AcDbLine
 10
158.6567300054873
 20
226.8006280094118
 30
0.0
 11
165.9065379712149
 21
228.7432081991101
 31
0.0
  0
LINE
  5
27B5
330
27B2
100
AcDbEntity
  8
AM_0N
100
AcDbLine
 10
165.9065379712149
 20
228.7432081991101
 30
0.0
 11
167.8491181609115
 21
235.9930161648381
 31
0.0
  0
LINE
  5
27B6
330
27B2
100
AcDbEntity
  8
AM_0N
100
AcDbLine
 10
167.8491181609115
 20
235.9930161648381
 30
0.0
 11
162.5418903848806
 21
241.3002439408676
 31
0.0
  0
LINE
  5
27B7
330
27B2
100
AcDbEntity
  8
AM_0N
100
AcDbLine
 10
162.5418903848806
 20
241.3002439408676
 30
0.0
 11
155.2920824191531
 21
239.3576637511693
 31
0.0
  0
LINE
  5
27B8
330
27B2
100
AcDbEntity
  8
AM_0N
100
AcDbLine
 10
155.2920824191531
 20
239.3576637511693
 30
0.0
 11
153.3495022294564
 21
232.1078557854414
 31
0.0
  0
LINE
  5
27B9
330
27B2
100
AcDbEntity
  8
AM_0N
100
AcDbLine
 10
153.3495022294564
 20
232.1078557854414
 30
0.0
 11
158.6567300054873
 21
226.8006280094118
 31
0.0
  0
CIRCLE
  5
27BA
330
27B2
100
AcDbEntity
  8
AM_0N
100
AcDbCircle
 10
160.599310195184
 20
234.0504359751397
 30
0.0
 40
6.5
  0
LINE
  5
27BB
330
27B2
100
AcDbEntity
  8
AM_7N
  6
AM_DIN_G_W050x2
100
AcDbLine
 10
153.1707620755951
 20
226.621887855549
 30
0.0
 11
168.0278583147728
 21
241.4789840947304
 31
0.0
  0
ENDBLK
  5
27BD
330
27B2
100
AcDbEntity
  8
0
100
AcDbBlockEnd
  0
BLOCK
  5
27CA
330
27C0
100
AcDbEntity
  8
0
100
AcDbBlockBegin
  2
*U9
 70
     1
 10
0.0
 20
0.0
 30
0.0
  3
*U9
  1

  0
LINE
  5
27C1
330
27C0
100
AcDbEntity
  8
AM_7N
  6
AM_DIN_G_W050x2
100
AcDbLine
 10
304.0752137535225
 20
93.96866644340711
 30
0.0
 11
289.2181175143408
 21
108.8257626825851
 31
0.0
  0
LINE
  5
27C2
330
27C0
100
AcDbEntity
  8
AM_0N
100
AcDbLine
 10
298.5892458236283
 20
108.647022528724
 30
0.0
 11
291.3394378579008
 21
106.7044423390257
 31
0.0
  0
LINE
  5
27C3
330
27C0
100
AcDbEntity
  8
AM_0N
100
AcDbLine
 10
291.3394378579008
 20
106.7044423390257
 30
0.0
 11
289.3968576682041
 21
99.45463437329777
 31
0.0
  0
LINE
  5
27C4
330
27C0
100
AcDbEntity
  8
AM_0N
100
AcDbLine
 10
289.3968576682041
 20
99.45463437329777
 30
0.0
 11
294.704085444235
 21
94.14740659726822
 31
0.0
  0
LINE
  5
27C5
330
27C0
100
AcDbEntity
  8
AM_0N
100
AcDbLine
 10
294.704085444235
 20
94.14740659726822
 30
0.0
 11
301.9538934099626
 21
96.0899867869665
 31
0.0
  0
LINE
  5
27C6
330
27C0
100
AcDbEntity
  8
AM_0N
100
AcDbLine
 10
301.9538934099626
 20
96.0899867869665
 30
0.0
 11
303.8964735996592
 21
103.3397947526944
 31
0.0
  0
LINE
  5
27C7
330
27C0
100
AcDbEntity
  8
AM_0N
100
AcDbLine
 10
303.8964735996592
 20
103.3397947526944
 30
0.0
 11
298.5892458236283
 21
108.647022528724
 31
0.0
  0
CIRCLE
  5
27C8
330
27C0
100
AcDbEntity
  8
AM_0N
100
AcDbCircle
 10
296.6466656339317
 20
101.3972145629961
 30
0.0
 40
6.5
  0
LINE
  5
27C9
330
27C0
100
AcDbEntity
  8
AM_7N
  6
AM_DIN_G_W050x2
100
AcDbLine
 10
304.0752137535205
 20
108.8257626825868
 30
0.0
 11
289.2181175143428
 21
93.96866644340535
 31
0.0
  0
ENDBLK
  5
27CB
330
27C0
100
AcDbEntity
  8
0
100
AcDbBlockEnd
  0
BLOCK
  5
27D1
330
27CD
100
AcDbEntity
  8
0
100
AcDbBlockBegin
  2
*S10
 70
     1
 10
0.0
 20
0.0
 30
0.0
  3
*S10
  1

  0
CIRCLE
  5
27CE
330
27CD
100
AcDbEntity
  8
AM_12N
 62
     4
100
AcDbCircle
 10
160.599310195184
 20
234.0504359751397
 30
0.0
 40
1.75
  0
LINE
  5
27CF
330
27CD
100
AcDbEntity
  8
AM_12N
 62
     4
100
AcDbLine
 10
158.849310195184
 20
232.3004359751397
 30
0.0
 11
162.349310195184
 21
235.8004359751397
 31
0.0
  0
LINE
  5
27D0
330
27CD
100
AcDbEntity
  8
AM_12N
 62
     4
100
AcDbLine
 10
158.849310195184
 20
235.8004359751397
 30
0.0
 11
162.349310195184
 21
232.3004359751397
 31
0.0
  0
ENDBLK
  5
27D2
330
27CD
100
AcDbEntity
  8
0
100
AcDbBlockEnd
  0
BLOCK
  5
27D8
330
27D4
100
AcDbEntity
  8
0
100
AcDbBlockBegin
  2
*S11
 70
     1
 10
0.0
 20
0.0
 30
0.0
  3
*S11
  1

  0
CIRCLE
  5
27D5
330
27D4
100
AcDbEntity
  8
AM_12N
 62
     4
100
AcDbCircle
 10
296.6466656339317
 20
101.3972145629961
 30
0.0
 40
1.75
  0
LINE
  5
27D6
330
27D4
100
AcDbEntity
  8
AM_12N
 62
     4
100
AcDbLine
 10
298.3966656339317
 20
103.1472145629961
 30
0.0
 11
294.8966656339317
 21
99.6472145629961
 31
0.0
  0
LINE
  5
27D7
330
27D4
100
AcDbEntity
  8
AM_12N
 62
     4
100
AcDbLine
 10
298.3966656339317
 20
99.6472145629961
 30
0.0
 11
294.8966656339317
 21
103.1472145629961
 31
0.0
  0
ENDBLK
  5
27D9
330
27D4
100
AcDbEntity
  8
0
100
AcDbBlockEnd
  0
ENDSEC
  0
SECTION
  2
ENTITIES
  0
ARC
  5
13D8
330
1F
100
AcDbEntity
  8
Kontur
100
AcDbCircle
 10
321.6056103435406
 20
423.6276091239249
 30
0.0
 40
10.0
100
AcDbArc
 50
90.0
 51
176.9999999999993
  0
LINE
  5
13D9
330
1F
100
AcDbEntity
  8
Kontur
100
AcDbLine
 10
132.2229879145579
 20
264.1238252690679
 30
0.0
 11
325.0229879145579
 21
264.1238252690679
 31
0.0
  0
LINE
  5
13DB
330
1F
100
AcDbEntity
  8
Kontur
100
AcDbLine
 10
130.1229879145578
 20
266.2238252690679
 30
0.0
 11
327.1229879145578
 21
266.2238252690679
 31
0.0
  0
LINE
  5
13DC
330
1F
100
AcDbEntity
  8
0
100
AcDbLine
 10
319.1229879145578
 20
483.6276091239247
 30
0.0
 11
315.9718684271061
 21
474.9699794861474
 31
0.0
  0
LINE
  5
13DD
330
1F
100
AcDbEntity
  8
0
100
AcDbLine
 10
228.6229879145578
 20
483.6276091239247
 30
0.0
 11
327.1229879145578
 21
483.6276091239247
 31
0.0
  0
CIRCLE
  5
13F0
330
1F
100
AcDbEntity
  8
Kontur
100
AcDbCircle
 10
113.6229879145578
 20
167.7238252690679
 30
0.0
 40
4.5
  0
CIRCLE
  5
13F1
330
1F
100
AcDbEntity
  8
Kontur
100
AcDbCircle
 10
113.6229879145578
 20
167.7238252690679
 30
0.0
 40
6.75
  0
LINE
  5
13F2
330
1F
100
AcDbEntity
  8
Kontur
100
AcDbLine
 10
130.1229879145578
 20
207.7238252690679
 30
0.0
 11
103.0700736439428
 21
200.4750187373482
 31
0.0
  0
LINE
  5
13F3
330
1F
100
AcDbEntity
  8
Kontur
100
AcDbLine
 10
130.2523974371093
 20
207.2408623559234
 30
0.0
 11
103.199483166494
 21
199.9920558242037
 31
0.0
  0
LINE
  5
13FB
330
1F
100
AcDbEntity
  8
Kontur
100
AcDbLine
 10
99.12298791455805
 20
194.6794637796138
 30
0.0
 11
99.12298791455782
 21
159.9665314078928
 31
0.0
  0
LINE
  5
13FC
330
1F
100
AcDbEntity
  8
Kontur
100
AcDbLine
 10
98.62298791455806
 20
194.6794637796138
 30
0.0
 11
98.62298791455783
 21
159.8430515266304
 31
0.0
  0
LINE
  5
13FD
330
1F
100
AcDbEntity
  8
Kontur
100
AcDbLine
 10
98.62298791455806
 20
194.6794637796138
 30
0.0
 11
98.62298791455783
 21
167.7238252690679
 31
0.0
  0
LINE
  5
13FE
330
1F
100
AcDbEntity
  8
Kontur
100
AcDbLine
 10
99.12298791455805
 20
194.6794637796138
 30
0.0
 11
99.12298791455782
 21
167.7238252690679
 31
0.0
  0
ARC
  5
1401
330
1F
100
AcDbEntity
  8
Kontur
100
AcDbCircle
 10
104.622987914558
 20
194.6794637796138
 30
0.0
 40
6.0
100
AcDbArc
 50
105.0000000000011
 51
180.0
  0
ARC
  5
1402
330
1F
100
AcDbEntity
  8
Kontur
100
AcDbCircle
 10
104.622987914558
 20
194.6794637796138
 30
0.0
 40
5.5
100
AcDbArc
 50
105.0000000000011
 51
180.0
  0
LINE
  5
1406
330
1F
100
AcDbEntity
  8
Kontur
100
AcDbLine
 10
132.2229879145579
 20
264.1238252690679
 30
0.0
 11
132.2229879145579
 21
158.3201362888036
 31
0.0
  0
LINE
  5
1407
330
1F
100
AcDbEntity
  8
Kontur
100
AcDbLine
 10
141.123020901256
 20
252.7238252690679
 30
0.0
 11
141.123020901256
 21
167.7238252690679
 31
0.0
  0
LINE
  5
1408
330
1F
100
AcDbEntity
  8
Kontur
100
AcDbLine
 10
316.122987914558
 20
252.723825269068
 30
0.0
 11
316.1229879145575
 21
167.7238252690679
 31
0.0
  0
LINE
  5
140B
330
1F
100
AcDbEntity
  8
Kontur
100
AcDbLine
 10
315.3200549278599
 20
251.9238252690679
 30
0.0
 11
315.3200549278599
 21
167.7238252690679
 31
0.0
  0
LINE
  5
140C
330
1F
100
AcDbEntity
  8
Kontur
100
AcDbLine
 10
141.9259209012559
 20
251.9238252690679
 30
0.0
 11
141.9259209012559
 21
167.7238252690679
 31
0.0
  0
LINE
  5
1415
330
1F
100
AcDbEntity
  8
Kontur
100
AcDbLine
 10
132.2229879145579
 20
264.1238252690679
 30
0.0
 11
132.2229879145579
 21
167.7238252690679
 31
0.0
  0
LINE
  5
1416
330
1F
100
AcDbEntity
  8
Kontur
100
AcDbLine
 10
130.1229879145578
 20
266.2238252690679
 30
0.0
 11
130.1229879145578
 21
207.2061871788629
 31
0.0
  0
LINE
  5
1418
330
1F
100
AcDbEntity
  8
BEMASS
100
AcDbLine
 10
130.8431146087782
 20
158.2378163679621
 30
0.0
 11
130.8431146087782
 21
207.1213763763291
 31
0.0
  0
LINE
  5
1419
330
1F
100
AcDbEntity
  8
BEMASS
100
AcDbLine
 10
130.8431146087782
 20
167.7238252690679
 30
0.0
 11
130.8431146087782
 21
207.1213763763291
 31
0.0
  0
LINE
  5
142A
330
1F
100
AcDbEntity
  8
Kontur
100
AcDbLine
 10
143.623020901256
 20
255.2238252690679
 30
0.0
 11
313.6229879145578
 21
255.2238252690679
 31
0.0
  0
LINE
  5
142B
330
1F
100
AcDbEntity
  8
Kontur
100
AcDbLine
 10
144.4259209012559
 20
254.4238252690679
 30
0.0
 11
312.8200549278599
 21
254.4238252690679
 31
0.0
  0
LINE
  5
142C
330
1F
100
AcDbEntity
  8
0
100
AcDbLine
 10
228.6229879145578
 20
308.6276091239248
 30
0.0
 11
161.6902788595118
 21
308.6365969640166
 31
0.0
  0
LINE
  5
1432
330
1F
100
AcDbEntity
  8
Kontur
100
AcDbLine
 10
132.2229879145579
 20
264.1238252690679
 30
0.0
 11
130.1229879145578
 21
266.2238252690679
 31
0.0
  0
ARC
  5
1433
330
1F
100
AcDbEntity
  8
Kontur
100
AcDbCircle
 10
144.4259209012559
 20
251.9238252690679
 30
0.0
 40
2.5
100
AcDbArc
 50
90.0
 51
180.0
  0
ARC
  5
1434
330
1F
100
AcDbEntity
  8
Kontur
100
AcDbCircle
 10
143.623020901256
 20
252.7238252690679
 30
0.0
 40
2.5
100
AcDbArc
 50
90.0
 51
180.0
  0
ARC
  5
144E
330
1F
100
AcDbEntity
  8
Kontur
100
AcDbCircle
 10
312.8200549278599
 20
251.9238252690679
 30
0.0
 40
2.5
100
AcDbArc
 50
0.0
 51
90.0
  0
ARC
  5
144F
330
1F
100
AcDbEntity
  8
Kontur
100
AcDbCircle
 10
313.622987914558
 20
252.723825269068
 30
0.0
 40
2.5
100
AcDbArc
 50
0.0
 51
90.0
  0
LINE
  5
1450
330
1F
100
AcDbEntity
  8
0
100
AcDbLine
 10
228.6229879145578
 20
308.6276091239248
 30
0.0
 11
295.5556969696043
 21
308.6365969640166
 31
0.0
  0
LINE
  5
1456
330
1F
100
AcDbEntity
  8
0
100
AcDbLine
 10
101.0449948408181
 20
443.6276091239248
 30
0.0
 11
126.6032298931639
 21
443.6276091239248
 31
0.0
  0
LINE
  5
1457
330
1F
100
AcDbEntity
  8
0
100
AcDbLine
 10
98.62298791455783
 20
433.6276091239247
 30
0.0
 11
135.6403654855751
 21
433.6276091239248
 31
0.0
  0
LINE
  5
1459
330
1F
100
AcDbEntity
  8
0
100
AcDbLine
 10
98.62298791455783
 20
433.6276091239247
 30
0.0
 11
99.04773577130891
 21
441.7322810364106
 31
0.0
  0
LINE
  5
145A
330
1F
100
AcDbEntity
  8
0
100
AcDbLine
 10
109.1229879145578
 20
433.6276091239247
 30
0.0
 11
106.8729879145578
 21
443.6276091239248
 31
0.0
  0
ARC
  5
145B
330
1F
100
AcDbEntity
  8
0
100
AcDbCircle
 10
101.0449948408181
 20
441.6276091239248
 30
0.0
 40
2.0
100
AcDbArc
 50
90.0
 51
176.9999999999993
  0
LINE
  5
1461
330
1F
100
AcDbEntity
  8
0
100
AcDbLine
 10
130.1229879145578
 20
483.6276091239247
 30
0.0
 11
128.1011741952959
 21
445.0491051895603
 31
0.0
  0
LINE
  5
1462
330
1F
100
AcDbEntity
  8
0
100
AcDbLine
 10
141.1229879145578
 20
483.6276091239247
 30
0.0
 11
141.831593525032
 21
443.0316208885198
 31
0.0
  0
LINE
  5
1463
330
1F
100
AcDbEntity
  8
0
100
AcDbLine
 10
316.1229879145578
 20
483.6276091239247
 30
0.0
 11
315.4143823040838
 21
443.0316208885198
 31
0.0
  0
LINE
  5
1464
330
1F
100
AcDbEntity
  8
0
100
AcDbLine
 10
228.6229879145578
 20
445.0367828962371
 30
0.0
 11
141.7950079142945
 21
445.0367828962371
 31
0.0
  0
LINE
  5
1465
330
1F
100
AcDbEntity
  8
0
100
AcDbLine
 10
228.6229879145578
 20
437.6276091239247
 30
0.0
 11
147.3307558483923
 21
437.6276091239247
 31
0.0
  0
LINE
  5
1468
330
1F
100
AcDbEntity
  8
Kontur
100
AcDbLine
 10
146.6794750012139
 20
404.0620776381936
 30
0.0
 11
146.4667195901349
 21
408.1216927180451
 31
0.0
  0
LINE
  5
146B
330
1F
100
AcDbEntity
  8
0
100
AcDbLine
 10
153.9634172288782
 20
403.7654381045825
 30
0.0
 11
153.3723508351252
 21
437.6276091239247
 31
0.0
  0
LINE
  5
1475
330
1F
100
AcDbEntity
  8
0
100
AcDbLine
 10
183.4042662557431
 20
447.6276091239248
 30
0.0
 11
141.7513702519738
 21
447.6276091239248
 31
0.0
  0
LINE
  5
1478
330
1F
100
AcDbEntity
  8
Kontur
100
AcDbLine
 10
146.4667195901349
 20
408.1216927180451
 30
0.0
 11
145.6266608331209
 21
424.1509686863542
 31
0.0
  0
LINE
  5
1479
330
1F
100
AcDbEntity
  8
0
100
AcDbLine
 10
148.277745581141
 20
398.637795891463
 30
0.0
 11
148.277745581141
 21
398.637795891463
 31
0.0
  0
ARC
  5
147A
330
1F
100
AcDbEntity
  8
Kontur
100
AcDbCircle
 10
135.6403654855751
 20
423.6276091239249
 30
0.0
 40
10.0
100
AcDbArc
 50
3.000000000000716
 51
90.0
  0
LINE
  5
147B
330
1F
100
AcDbEntity
  8
MITTE
 48
10000000.0
100
AcDbLine
 10
113.6229879145578
 20
447.7040355853348
 30
0.0
 11
113.6229879145578
 21
428.5364583576011
 31
0.0
  0
LINE
  5
147C
330
1F
100
AcDbEntity
  8
0
100
AcDbLine
 10
118.1229879145578
 20
433.6276091239247
 30
0.0
 11
120.3729879145578
 21
443.6276091239248
 31
0.0
  0
ARC
  5
147D
330
1F
100
AcDbEntity
  8
0
100
AcDbCircle
 10
126.6032298931639
 20
445.1276091239248
 30
0.0
 40
1.5
100
AcDbArc
 50
270.0
 51
356.9999999999993
  0
ARC
  5
147E
330
1F
100
AcDbEntity
  8
0
100
AcDbCircle
 10
147.3307558483923
 20
443.1276091239247
 30
0.0
 40
5.5
100
AcDbArc
 50
181.0000000000001
 51
270.0
  0
LINE
  5
147F
330
1F
100
AcDbEntity
  8
Kontur
100
AcDbLine
 10
153.1229879145578
 20
445.1276091239248
 30
0.0
 11
152.9042662557431
 21
447.6276091239248
 31
0.0
  0
LINE
  5
1480
330
1F
100
AcDbEntity
  8
Kontur
100
AcDbLine
 10
183.6229879145578
 20
445.1276091239248
 30
0.0
 11
183.4042662557431
 21
447.6276091239248
 31
0.0
  0
LINE
  5
1481
330
1F
100
AcDbEntity
  8
Kontur
100
AcDbLine
 10
303.3519986245842
 20
407.7436544350368
 30
0.0
 11
303.2825586002376
 21
403.7654381045825
 31
0.0
  0
LINE
  5
1482
330
1F
100
AcDbEntity
  8
Kontur
100
AcDbLine
 10
310.5665008279018
 20
404.0620776381937
 30
0.0
 11
311.619314995995
 21
424.1509686863542
 31
0.0
  0
LINE
  5
1488
330
1F
100
AcDbEntity
  8
0
100
AcDbLine
 10
228.6229879145578
 20
445.0367828962371
 30
0.0
 11
315.4509679148216
 21
445.0367828962371
 31
0.0
  0
LINE
  5
1489
330
1F
100
AcDbEntity
  8
0
100
AcDbLine
 10
228.6229879145578
 20
437.6276091239247
 30
0.0
 11
309.9152199807236
 21
437.6276091239247
 31
0.0
  0
LINE
  5
148C
330
1F
100
AcDbEntity
  8
0
100
AcDbLine
 10
303.3519986245842
 20
407.7436544350368
 30
0.0
 11
303.8736249939905
 21
437.6276091239247
 31
0.0
  0
LINE
  5
148D
330
1F
100
AcDbEntity
  8
0
100
AcDbLine
 10
273.8417095733728
 20
447.5367828962371
 30
0.0
 11
315.494605577142
 21
447.5367828962371
 31
0.0
  0
LINE
  5
148E
330
1F
100
AcDbEntity
  8
Kontur
100
AcDbLine
 10
273.6229879145578
 20
445.0367828962371
 30
0.0
 11
273.8417095733728
 21
447.5367828962371
 31
0.0
  0
ARC
  5
148F
330
1F
100
AcDbEntity
  8
0
100
AcDbCircle
 10
309.9152199807236
 20
443.1276091239247
 30
0.0
 40
5.5
100
AcDbArc
 50
270.0
 51
358.9999999999998
  0
LINE
  5
1490
330
1F
100
AcDbEntity
  8
Kontur
100
AcDbLine
 10
304.1229879145578
 20
445.0367828962371
 30
0.0
 11
304.3417095733728
 21
447.5367828962371
 31
0.0
  0
LINE
  5
1493
330
1F
100
AcDbEntity
  8
0
100
AcDbLine
 10
228.6229879145578
 20
483.6276091239247
 30
0.0
 11
130.1229879145578
 21
483.6276091239247
 31
0.0
  0
LINE
  5
1494
330
1F
100
AcDbEntity
  8
0
100
AcDbLine
 10
138.1229879145578
 20
483.6276091239247
 30
0.0
 11
141.2741074020098
 21
474.9699794861474
 31
0.0
  0
LINE
  5
14B3
330
1F
100
AcDbEntity
  8
Kontur
100
AcDbLine
 10
325.0229879145579
 20
264.1238252690679
 30
0.0
 11
325.0229879145579
 21
158.3201362888036
 31
0.0
  0
LINE
  5
14B4
330
1F
100
AcDbEntity
  8
Kontur
100
AcDbLine
 10
327.1229879145578
 20
266.2238252690679
 30
0.0
 11
327.1229879145578
 21
207.2061871788629
 31
0.0
  0
LINE
  5
14BC
330
1F
100
AcDbEntity
  8
BEMASS
100
AcDbLine
 10
326.4028612203376
 20
158.2378163679621
 30
0.0
 11
326.4028612203376
 21
207.1213763763291
 31
0.0
  0
LINE
  5
14BD
330
1F
100
AcDbEntity
  8
Kontur
100
AcDbLine
 10
358.1229879145578
 20
194.6794637796138
 30
0.0
 11
358.1229879145578
 21
159.9665314078928
 31
0.0
  0
LINE
  5
14BE
330
1F
100
AcDbEntity
  8
Kontur
100
AcDbLine
 10
358.6229879145578
 20
194.6794637796138
 30
0.0
 11
358.6229879145578
 21
159.8430515266304
 31
0.0
  0
CIRCLE
  5
14C0
330
1F
100
AcDbEntity
  8
Kontur
100
AcDbCircle
 10
343.6229879145578
 20
167.7238252690679
 30
0.0
 40
4.5
  0
CIRCLE
  5
14C1
330
1F
100
AcDbEntity
  8
Kontur
100
AcDbCircle
 10
343.6229879145578
 20
167.7238252690679
 30
0.0
 40
6.75
  0
LINE
  5
14C5
330
1F
100
AcDbEntity
  8
Kontur
100
AcDbLine
 10
326.9935783920066
 20
207.2408623559234
 30
0.0
 11
354.0464926626216
 21
199.9920558242037
 31
0.0
  0
LINE
  5
14C6
330
1F
100
AcDbEntity
  8
Kontur
100
AcDbLine
 10
327.1229879145578
 20
207.7238252690679
 30
0.0
 11
354.1759021851731
 21
200.4750187373482
 31
0.0
  0
ARC
  5
14C8
330
1F
100
AcDbEntity
  8
Kontur
100
AcDbCircle
 10
352.6229879145578
 20
194.6794637796138
 30
0.0
 40
6.0
100
AcDbArc
 50
0.0
 51
74.99999999999885
  0
ARC
  5
14C9
330
1F
100
AcDbEntity
  8
Kontur
100
AcDbCircle
 10
352.6229879145578
 20
194.6794637796138
 30
0.0
 40
5.5
100
AcDbArc
 50
0.0
 51
74.99999999999885
  0
LINE
  5
14D0
330
1F
100
AcDbEntity
  8
Kontur
100
AcDbLine
 10
325.0229879145579
 20
264.1238252690679
 30
0.0
 11
327.1229879145578
 21
266.2238252690679
 31
0.0
  0
LINE
  5
151A
330
1F
100
AcDbEntity
  8
0
100
AcDbLine
 10
327.1229879145578
 20
483.6276091239247
 30
0.0
 11
329.14480163382
 21
445.0491051895603
 31
0.0
  0
LINE
  5
151C
330
1F
100
AcDbEntity
  8
0
100
AcDbLine
 10
356.2009809882977
 20
443.6276091239248
 30
0.0
 11
330.6427459359518
 21
443.6276091239248
 31
0.0
  0
LINE
  5
151D
330
1F
100
AcDbEntity
  8
0
100
AcDbLine
 10
358.6229879145578
 20
433.6276091239247
 30
0.0
 11
321.6056103435406
 21
433.6276091239248
 31
0.0
  0
LINE
  5
151E
330
1F
100
AcDbEntity
  8
MITTE
 48
10000000.0
100
AcDbLine
 10
343.6229879145578
 20
447.7040355853348
 30
0.0
 11
343.6229879145578
 21
428.5364583576011
 31
0.0
  0
LINE
  5
151F
330
1F
100
AcDbEntity
  8
0
100
AcDbLine
 10
339.1229879145578
 20
433.6276091239247
 30
0.0
 11
336.8729879145578
 21
443.6276091239248
 31
0.0
  0
ARC
  5
1520
330
1F
100
AcDbEntity
  8
0
100
AcDbCircle
 10
330.6427459359518
 20
445.1276091239248
 30
0.0
 40
1.5
100
AcDbArc
 50
183.0000000000007
 51
270.0
  0
LINE
  5
1521
330
1F
100
AcDbEntity
  8
BEMASS
100
AcDbLine
 10
358.6229879145578
 20
433.6276091239247
 30
0.0
 11
358.6229879145578
 21
439.6518044162442
 31
0.0
  0
LINE
  5
1522
330
1F
100
AcDbEntity
  8
0
100
AcDbLine
 10
348.1229879145578
 20
433.6276091239247
 30
0.0
 11
350.3729879145578
 21
443.6276091239248
 31
0.0
  0
LINE
  5
1523
330
1F
100
AcDbEntity
  8
0
100
AcDbLine
 10
358.6229879145578
 20
433.6276091239247
 30
0.0
 11
358.198240057807
 21
441.7322810364106
 31
0.0
  0
ARC
  5
1524
330
1F
100
AcDbEntity
  8
0
100
AcDbCircle
 10
356.2009809882977
 20
441.6276091239248
 30
0.0
 40
2.0
100
AcDbArc
 50
3.000000000000716
 51
90.0
  0
LINE
  5
1586
330
1F
100
AcDbEntity
  8
Kontur
100
AcDbLine
 10
305.5814618396569
 20
395.9259086436779
 30
0.0
 11
299.9318520722756
 21
392.6630119870206
 31
0.0
  0
LINE
  5
1588
330
1F
100
AcDbEntity
  8
Kontur
100
AcDbLine
 10
295.9526542525852
 20
397.2935726723521
 30
0.0
 11
301.2831678196119
 21
400.371146115194
 31
0.0
  0
LINE
  5
158D
330
1F
100
AcDbEntity
  8
Kontur
100
AcDbLine
 10
295.5556969696043
 20
308.6365969640166
 30
0.0
 11
296.9335197169178
 21
387.5720092914773
 31
0.0
  0
LINE
  5
158E
330
1F
100
AcDbEntity
  8
Kontur
100
AcDbLine
 10
289.9910027412145
 20
333.6276091239248
 30
0.0
 11
290.9541773010212
 21
388.8078426988809
 31
0.0
  0
LINE
  5
158F
330
1F
100
AcDbEntity
  8
Kontur
100
AcDbLine
 10
289.1229879145578
 20
308.635733168704
 30
0.0
 11
289.1229879145578
 21
328.6276091239248
 31
0.0
  0
LINE
  5
1590
330
1F
100
AcDbEntity
  8
Kontur
100
AcDbLine
 10
289.1229879145578
 20
328.6276091239248
 30
0.0
 11
289.9910027412145
 21
333.6276091239248
 31
0.0
  0
ARC
  5
1591
330
1F
100
AcDbEntity
  8
Kontur
100
AcDbCircle
 10
302.9326058878562
 20
387.4672948528535
 30
0.0
 40
6.0
100
AcDbArc
 50
120.0083123543814
 51
178.9999999999982
  0
ARC
  5
1594
330
1F
100
AcDbEntity
  8
Kontur
100
AcDbCircle
 10
300.9526542525853
 20
388.6333186345078
 30
0.0
 40
10.0
100
AcDbArc
 50
119.9999999999997
 51
178.9999999999982
  0
ARC
  5
1595
330
1F
100
AcDbEntity
  8
Kontur
100
AcDbCircle
 10
299.2831678196119
 20
403.8352477303317
 30
0.0
 40
4.0
100
AcDbArc
 50
299.9999999999997
 51
358.9999999999998
  0
ARC
  5
1596
330
1F
100
AcDbEntity
  8
Kontur
100
AcDbCircle
 10
300.580205480356
 20
404.5854372006231
 30
0.0
 40
10.0
100
AcDbArc
 50
300.0083123543814
 51
357.0000000000009
  0
LINE
  5
1598
330
1F
100
AcDbEntity
  8
0
100
AcDbLine
 10
151.6645139894588
 20
395.9259086436779
 30
0.0
 11
157.31412375684
 21
392.6630119870206
 31
0.0
  0
LINE
  5
1599
330
1F
100
AcDbEntity
  8
0
100
AcDbLine
 10
161.2933215765308
 20
397.293572672352
 30
0.0
 11
155.9628080095037
 21
400.371146115194
 31
0.0
  0
LINE
  5
159E
330
1F
100
AcDbEntity
  8
0
100
AcDbLine
 10
161.6902788595118
 20
308.6365969640166
 30
0.0
 11
160.3124561121979
 21
387.5720092914773
 31
0.0
  0
LINE
  5
159F
330
1F
100
AcDbEntity
  8
0
100
AcDbLine
 10
167.2549730879013
 20
333.6276091239248
 30
0.0
 11
166.2917985280946
 21
388.8078426988809
 31
0.0
  0
LINE
  5
15A0
330
1F
100
AcDbEntity
  8
0
100
AcDbLine
 10
168.1229879145578
 20
308.635733168704
 30
0.0
 11
168.1229879145578
 21
328.6276091239248
 31
0.0
  0
LINE
  5
15A1
330
1F
100
AcDbEntity
  8
0
100
AcDbLine
 10
168.1229879145578
 20
328.6276091239248
 30
0.0
 11
167.2549730879013
 21
333.6276091239248
 31
0.0
  0
ARC
  5
15A2
330
1F
100
AcDbEntity
  8
0
100
AcDbCircle
 10
154.3133699412594
 20
387.4672948528535
 30
0.0
 40
6.0
100
AcDbArc
 50
1.000000000001775
 51
59.99168764561855
  0
ARC
  5
15A5
330
1F
100
AcDbEntity
  8
0
100
AcDbCircle
 10
156.2933215765308
 20
388.6333186345078
 30
0.0
 40
10.0
100
AcDbArc
 50
1.000000000001775
 51
60.00000000000028
  0
ARC
  5
15A6
330
1F
100
AcDbEntity
  8
0
100
AcDbCircle
 10
157.9628080095037
 20
403.8352477303317
 30
0.0
 40
4.0
100
AcDbArc
 50
181.0000000000001
 51
240.0000000000003
  0
ARC
  5
15A7
330
1F
100
AcDbEntity
  8
0
100
AcDbCircle
 10
156.6657703487599
 20
404.5854372006231
 30
0.0
 40
10.0
100
AcDbArc
 50
182.9999999999991
 51
239.9916876456186
  0
LINE
  5
15B4
330
1F
100
AcDbEntity
  8
Kontur
 62
     0
100
AcDbLine
 10
146.9636360520283
 20
398.6399617862811
 30
0.0
 11
146.9636360520283
 21
398.6399617862811
 31
0.0
  0
LINE
  5
15B5
330
1F
100
AcDbEntity
  8
Kontur
 62
     0
100
AcDbLine
 10
146.9636360520283
 20
398.6399617862811
 30
0.0
 11
146.9636360520283
 21
398.6399617862811
 31
0.0
  0
LINE
  5
15B8
330
1F
100
AcDbEntity
  8
7A
100
AcDbLine
 10
140.2817781268723
 20
167.7238252690679
 30
0.0
 11
319.8353793781803
 21
167.7238252690679
 31
0.0
  0
LINE
  5
15BA
330
1F
100
AcDbEntity
  8
7A
100
AcDbLine
 10
228.6229879145578
 20
252.7238252690679
 30
0.0
 11
228.6229879145578
 21
267.2216078031429
 31
0.0
  0
LINE
  5
15BB
330
1F
100
AcDbEntity
  8
0
100
AcDbLine
 10
143.6229879145578
 20
250.2238252690679
 30
0.0
 11
143.6229879145578
 21
167.7238252690679
 31
0.0
  0
LINE
  5
15BE
330
1F
100
AcDbEntity
  8
0
100
AcDbLine
 10
311.1229879145578
 20
252.7238252690679
 30
0.0
 11
146.1229879145578
 21
252.7238252690679
 31
0.0
  0
LINE
  5
15BF
330
1F
100
AcDbEntity
  8
0
100
AcDbLine
 10
311.1404429794861
 20
482.6276091239248
 30
0.0
 11
141.1404429794861
 21
482.6276091239248
 31
0.0
  0
LINE
  5
15C1
330
1F
100
AcDbEntity
  8
0
100
AcDbLine
 10
296.1229879145578
 20
228.7238252690679
 30
0.0
 11
296.1229879145578
 21
167.7238252690679
 31
0.0
  0
LINE
  5
15C2
330
1F
100
AcDbEntity
  8
0
100
AcDbLine
 10
283.1229879145578
 20
228.7238252690679
 30
0.0
 11
283.1229879145578
 21
167.7238252690679
 31
0.0
  0
LINE
  5
15C3
330
1F
100
AcDbEntity
  8
0
100
AcDbLine
 10
265.6229879145578
 20
228.7238252690679
 30
0.0
 11
265.6229879145578
 21
167.7238252690679
 31
0.0
  0
LINE
  5
15C4
330
1F
100
AcDbEntity
  8
0
100
AcDbLine
 10
252.6229879145578
 20
228.7238252690679
 30
0.0
 11
252.6229879145578
 21
167.7238252690679
 31
0.0
  0
LINE
  5
15C5
330
1F
100
AcDbEntity
  8
0
100
AcDbLine
 10
235.1229879145578
 20
228.7238252690679
 30
0.0
 11
235.1229879145578
 21
167.7238252690679
 31
0.0
  0
ARC
  5
15C6
330
1F
100
AcDbEntity
  8
0
100
AcDbCircle
 10
228.6229879145578
 20
228.7238252690679
 30
0.0
 40
6.5
100
AcDbArc
 50
0.0
 51
90.0
  0
ARC
  5
15C7
330
1F
100
AcDbEntity
  8
0
100
AcDbCircle
 10
259.1229879145578
 20
228.7238252690679
 30
0.0
 40
6.499999999999992
100
AcDbArc
 50
0.0
 51
180.0
  0
ARC
  5
15C8
330
1F
100
AcDbEntity
  8
0
100
AcDbCircle
 10
289.6229879145579
 20
228.7238252690679
 30
0.0
 40
6.5
100
AcDbArc
 50
0.0
 51
180.0
  0
ARC
  5
15D9
330
1F
100
AcDbEntity
  8
0
100
AcDbCircle
 10
228.6229879145578
 20
228.7238252690679
 30
0.0
 40
6.5
100
AcDbArc
 50
90.0
 51
180.0
  0
LINE
  5
15DA
330
1F
100
AcDbEntity
  8
0
100
AcDbLine
 10
191.6229879145578
 20
228.7238252690679
 30
0.0
 11
191.6229879145578
 21
167.7238252690679
 31
0.0
  0
LINE
  5
15DB
330
1F
100
AcDbEntity
  8
0
100
AcDbLine
 10
204.6229879145578
 20
228.7238252690679
 30
0.0
 11
204.6229879145578
 21
167.7238252690679
 31
0.0
  0
LINE
  5
15DC
330
1F
100
AcDbEntity
  8
0
100
AcDbLine
 10
222.1229879145578
 20
228.7238252690679
 30
0.0
 11
222.1229879145578
 21
167.7238252690679
 31
0.0
  0
ARC
  5
15DD
330
1F
100
AcDbEntity
  8
0
100
AcDbCircle
 10
198.1229879145578
 20
228.7238252690679
 30
0.0
 40
6.499999999999992
100
AcDbArc
 50
0.0
 51
180.0
  0
LINE
  5
15DE
330
1F
100
AcDbEntity
  8
0
100
AcDbLine
 10
161.1229879145578
 20
211.2238252690679
 30
0.0
 11
161.1229879145578
 21
167.7238252690679
 31
0.0
  0
LINE
  5
15DF
330
1F
100
AcDbEntity
  8
0
100
AcDbLine
 10
174.1229879145578
 20
211.2238252690679
 30
0.0
 11
174.1229879145578
 21
167.7238252690679
 31
0.0
  0
ARC
  5
15E0
330
1F
100
AcDbEntity
  8
0
100
AcDbCircle
 10
167.6229879145578
 20
211.2238252690679
 30
0.0
 40
6.5
100
AcDbArc
 50
0.0
 51
180.0
  0
LINE
  5
15E1
330
1F
100
AcDbEntity
  8
0
100
AcDbLine
 10
226.1404429794861
 20
447.6276091239248
 30
0.0
 11
146.7705735212521
 21
447.6276091239248
 31
0.0
  0
LINE
  5
15E2
330
1F
100
AcDbEntity
  8
0
100
AcDbLine
 10
184.9830486586068
 20
448.6276091239248
 30
0.0
 11
180.7629271705091
 21
448.6276091239248
 31
0.0
  0
LINE
  5
15E4
330
1F
100
AcDbEntity
  8
0
100
AcDbLine
 10
161.1229879145578
 20
482.6276091239248
 30
0.0
 11
158.3803387874479
 21
451.2789861529341
 31
0.0
  0
LINE
  5
15E5
330
1F
100
AcDbEntity
  8
0
100
AcDbLine
 10
174.1229879145578
 20
482.6276091239248
 30
0.0
 11
176.778148378142
 21
452.2789861529341
 31
0.0
  0
LINE
  5
15E6
330
1F
100
AcDbEntity
  8
0
100
AcDbLine
 10
191.6229879145578
 20
482.6276091239248
 30
0.0
 11
188.9678274509738
 21
452.2789861529341
 31
0.0
  0
ARC
  5
15E7
330
1F
100
AcDbEntity
  8
0
100
AcDbCircle
 10
180.7629271705091
 20
452.6276091239248
 30
0.0
 40
4.0
100
AcDbArc
 50
184.9999999999998
 51
270.0
  0
ARC
  5
15E8
330
1F
100
AcDbEntity
  8
0
100
AcDbCircle
 10
184.9830486586068
 20
452.6276091239248
 30
0.0
 40
4.0
100
AcDbArc
 50
270.0
 51
355.0000000000002
  0
ARC
  5
15E9
330
1F
100
AcDbEntity
  8
0
100
AcDbCircle
 10
215.4830486586068
 20
452.6276091239248
 30
0.0
 40
4.0
100
AcDbArc
 50
270.0
 51
355.0000000000002
  0
LINE
  5
15EA
330
1F
100
AcDbEntity
  8
0
100
AcDbLine
 10
215.4830486586068
 20
448.6276091239248
 30
0.0
 11
211.2629271705091
 21
448.6276091239248
 31
0.0
  0
ARC
  5
15EB
330
1F
100
AcDbEntity
  8
0
100
AcDbCircle
 10
211.2629271705091
 20
452.6276091239248
 30
0.0
 40
4.0
100
AcDbArc
 50
184.9999999999998
 51
270.0
  0
LINE
  5
15EC
330
1F
100
AcDbEntity
  8
0
100
AcDbLine
 10
204.6229879145578
 20
482.6276091239248
 30
0.0
 11
207.2781483781421
 21
452.2789861529341
 31
0.0
  0
LINE
  5
15ED
330
1F
100
AcDbEntity
  8
0
100
AcDbLine
 10
222.1229879145578
 20
482.6276091239248
 30
0.0
 11
219.4678274509738
 21
452.2789861529341
 31
0.0
  0
ARC
  5
15EE
330
1F
100
AcDbEntity
  8
0
100
AcDbCircle
 10
149.2531184563238
 20
451.6276091239247
 30
0.0
 40
4.0
100
AcDbArc
 50
182.9999999999925
 51
270.0
  0
ARC
  5
15EF
330
1F
100
AcDbEntity
  8
0
100
AcDbCircle
 10
154.3955599950809
 20
451.6276091239247
 30
0.0
 40
4.0
100
AcDbArc
 50
270.0
 51
355.0000000000002
  0
LINE
  5
15F0
330
1F
100
AcDbEntity
  8
0
100
AcDbLine
 10
226.1404429794861
 20
447.6276091239248
 30
0.0
 11
305.5103124377201
 21
447.6276091239248
 31
0.0
  0
LINE
  5
15F1
330
1F
100
AcDbEntity
  8
0
100
AcDbLine
 10
283.1229879145578
 20
482.6276091239248
 30
0.0
 11
280.4678274509738
 21
452.2789861529341
 31
0.0
  0
ARC
  5
15F2
330
1F
100
AcDbEntity
  8
0
100
AcDbCircle
 10
307.9928573727918
 20
451.6276091239247
 30
0.0
 40
4.0
100
AcDbArc
 50
270.0
 51
357.0000000000074
  0
LINE
  5
15F3
330
1F
100
AcDbEntity
  8
0
100
AcDbLine
 10
313.6229879145578
 20
482.6276091239248
 30
0.0
 11
311.9873755118103
 21
451.418265298953
 31
0.0
  0
LINE
  5
15F4
330
1F
100
AcDbEntity
  8
0
100
AcDbLine
 10
296.1229879145578
 20
482.6276091239248
 30
0.0
 11
298.8656370416679
 21
451.2789861529341
 31
0.0
  0
ARC
  5
15F5
330
1F
100
AcDbEntity
  8
0
100
AcDbCircle
 10
302.850415834035
 20
451.6276091239247
 30
0.0
 40
4.0
100
AcDbArc
 50
184.9999999999998
 51
270.0
  0
LINE
  5
15F6
330
1F
100
AcDbEntity
  8
0
100
AcDbLine
 10
265.6229879145578
 20
482.6276091239248
 30
0.0
 11
268.2781483781421
 21
452.2789861529341
 31
0.0
  0
ARC
  5
15F7
330
1F
100
AcDbEntity
  8
0
100
AcDbCircle
 10
272.2629271705091
 20
452.6276091239248
 30
0.0
 40
4.0
100
AcDbArc
 50
184.9999999999998
 51
270.0
  0
ARC
  5
15F8
330
1F
100
AcDbEntity
  8
0
100
AcDbCircle
 10
276.4830486586068
 20
452.6276091239248
 30
0.0
 40
4.0
100
AcDbArc
 50
270.0
 51
355.0000000000002
  0
LINE
  5
15F9
330
1F
100
AcDbEntity
  8
0
100
AcDbLine
 10
272.2629271705091
 20
448.6276091239248
 30
0.0
 11
276.4830486586068
 21
448.6276091239248
 31
0.0
  0
LINE
  5
15FA
330
1F
100
AcDbEntity
  8
0
100
AcDbLine
 10
235.1229879145578
 20
482.6276091239248
 30
0.0
 11
237.7781483781421
 21
452.2789861529341
 31
0.0
  0
LINE
  5
15FB
330
1F
100
AcDbEntity
  8
0
100
AcDbLine
 10
252.6229879145578
 20
482.6276091239248
 30
0.0
 11
249.9678274509738
 21
452.2789861529341
 31
0.0
  0
LINE
  5
15FC
330
1F
100
AcDbEntity
  8
0
100
AcDbLine
 10
241.7629271705091
 20
448.6276091239248
 30
0.0
 11
245.9830486586068
 21
448.6276091239248
 31
0.0
  0
ARC
  5
15FD
330
1F
100
AcDbEntity
  8
0
100
AcDbCircle
 10
245.9830486586068
 20
452.6276091239248
 30
0.0
 40
4.0
100
AcDbArc
 50
270.0
 51
355.0000000000002
  0
ARC
  5
15FE
330
1F
100
AcDbEntity
  8
0
100
AcDbCircle
 10
241.7629271705091
 20
452.6276091239248
 30
0.0
 40
4.0
100
AcDbArc
 50
184.9999999999998
 51
270.0
  0
HATCH
  5
15FF
330
1F
100
AcDbEntity
  8
8
100
AcDbHatch
 10
0.0
 20
0.0
 30
0.0
210
0.0
220
0.0
230
1.0
  2
ANSI31
 70
     0
 71
     0
 91
        6
 92
        7
 72
     1
 73
     1
 93
        6
 10
298.8656370416679
 20
451.2789861529341
 42
0.3888787318529906
 10
302.850415834035
 20
447.6276091239248
 42
0.0
 10
307.9928573727918
 20
447.6276091239248
 42
0.3989595459737225
 10
311.9873755118103
 20
451.418265298953
 42
0.0
 10
313.622987914558
 20
482.6276091239248
 42
0.0
 10
296.1229879145578
 20
482.6276091239248
 42
0.0
 97
        0
 92
        7
 72
     1
 73
     1
 93
        6
 10
283.1229879145578
 20
482.6276091239248
 42
0.0
 10
265.6229879145578
 20
482.6276091239248
 42
0.0
 10
268.2781483781421
 20
452.2789861529341
 42
0.3888787318529896
 10
272.2629271705091
 20
448.6276091239248
 42
0.0
 10
276.4830486586068
 20
448.6276091239248
 42
0.3888787318529878
 10
280.4678274509738
 20
452.2789861529341
 42
0.0
 97
        0
 92
        7
 72
     1
 73
     1
 93
        6
 10
252.6229879145578
 20
482.6276091239248
 42
0.0
 10
235.1229879145578
 20
482.6276091239248
 42
0.0
 10
237.7781483781421
 20
452.2789861529341
 42
0.3888787318529896
 10
241.7629271705091
 20
448.6276091239248
 42
0.0
 10
245.9830486586068
 20
448.6276091239248
 42
0.3888787318529898
 10
249.9678274509738
 20
452.2789861529341
 42
0.0
 97
        0
 92
        7
 72
     1
 73
     1
 93
        6
 10
207.2781483781421
 20
452.2789861529341
 42
0.3888787318529907
 10
211.2629271705091
 20
448.6276091239248
 42
0.0
 10
215.4830486586068
 20
448.6276091239248
 42
0.3888787318529896
 10
219.4678274509738
 20
452.2789861529341
 42
0.0
 10
222.1229879145578
 20
482.6276091239248
 42
0.0
 10
204.6229879145578
 20
482.6276091239248
 42
0.0
 97
        0
 92
        7
 72
     1
 73
     1
 93
        6
 10
191.6229879145578
 20
482.6276091239248
 42
0.0
 10
174.1229879145578
 20
482.6276091239248
 42
0.0
 10
176.778148378142
 20
452.2789861529341
 42
0.3888787318529896
 10
180.7629271705091
 20
448.6276091239248
 42
0.0
 10
184.9830486586068
 20
448.6276091239248
 42
0.3888787318529876
 10
188.9678274509738
 20
452.2789861529341
 42
0.0
 97
        0
 92
        7
 72
     1
 73
     1
 93
        6
 10
161.1229879145578
 20
482.6276091239248
 42
0.0
 10
143.6229879145578
 20
482.6276091239248
 42
0.0
 10
145.2586003173055
 20
451.418265298953
 42
0.3989595459737195
 10
149.2531184563238
 20
447.6276091239248
 42
0.0
 10
154.3955599950809
 20
447.6276091239248
 42
0.3888787318529896
 10
158.3803387874479
 20
451.2789861529341
 42
0.0
 97
        0
 75
     0
 76
     1
 52
-90.00000000000001
 41
1.0
 77
     0
 78
     1
 53
315.0
 43
143.6229879145578
 44
372.3895122005266
 45
2.245064030267288
 46
2.245064030267287
 79
     0
 47
0.3332794630270903
 98
        6
 10
300.8978467144968
 20
457.9516490345062
 10
274.9020482894902
 20
465.9558493878677
 10
247.2398530319945
 20
461.6202406416506
 10
213.2453478914865
 20
460.9532235025775
 10
184.5833138946461
 20
462.2872577807235
 10
153.5883233725446
 20
461.953749211187
  0
ARC
  5
1601
330
1F
100
AcDbEntity
  8
0
100
AcDbCircle
 10
311.1229879145578
 20
250.2238252690679
 30
0.0
 40
2.5
100
AcDbArc
 50
0.0
 51
90.0
  0
ARC
  5
1604
330
1F
100
AcDbEntity
  8
0
100
AcDbCircle
 10
146.1229879145578
 20
250.2238252690679
 30
0.0
 40
2.5
100
AcDbArc
 50
90.0
 51
180.0
  0
LINE
  5
164B
330
1F
100
AcDbEntity
  8
0
100
AcDbLine
 10
143.6229879145578
 20
482.6276091239248
 30
0.0
 11
145.2586003173055
 21
451.418265298953
 31
0.0
  0
LINE
  5
1D7D
330
1F
100
AcDbEntity
  8
0
100
AcDbLine
 10
313.6229879145578
 20
167.7238252690679
 30
0.0
 11
313.6229879145578
 21
250.2238252690679
 31
0.0
  0
LINE
  5
1D7F
330
1F
100
AcDbEntity
  8
7A
100
AcDbLine
 10
228.6229879145579
 20
167.7238252690679
 30
0.0
 11
228.6229879145578
 21
252.7238252690679
 31
0.0
  0
ARC
  5
1D91
330
1F
100
AcDbEntity
  8
Kontur
100
AcDbCircle
 10
228.6229879145578
 20
166.026758255766
 30
0.0
 40
75.5
100
AcDbArc
 50
26.61464803832225
 51
43.7922117694565
  0
ARC
  5
1D94
330
1F
100
AcDbEntity
  8
Kontur
100
AcDbCircle
 10
228.6229879145578
 20
166.026758255766
 30
0.0
 40
73.0
100
AcDbArc
 50
22.38322938373169
 51
41.70541205852038
  0
ARC
  5
1D95
330
1F
100
AcDbEntity
  8
Kontur
100
AcDbCircle
 10
228.6229879145578
 20
166.026758255766
 30
0.0
 40
73.0
100
AcDbArc
 50
59.54964303015966
 51
68.56765160520748
  0
ARC
  5
1D98
330
1F
100
AcDbEntity
  8
Kontur
100
AcDbCircle
 10
228.6229879145578
 20
166.026758255766
 30
0.0
 40
75.5
100
AcDbArc
 50
61.70708169743874
 51
66.41021293792795
  0
ARC
  5
1D99
330
1F
100
AcDbEntity
  8
Kontur
100
AcDbCircle
 10
228.6229879145578
 20
166.026758255766
 30
0.0
 40
73.0
100
AcDbArc
 50
111.4323483947925
 51
120.4503569698403
  0
ARC
  5
1D9C
330
1F
100
AcDbEntity
  8
Kontur
100
AcDbCircle
 10
228.6229879145578
 20
166.026758255766
 30
0.0
 40
75.5
100
AcDbArc
 50
113.589787062072
 51
118.2929183025612
  0
ARC
  5
1D9D
330
1F
100
AcDbEntity
  8
Kontur
100
AcDbCircle
 10
228.6229879145578
 20
166.026758255766
 30
0.0
 40
73.0
100
AcDbArc
 50
138.9932001197613
 51
157.6167706162683
  0
ARC
  5
1DA0
330
1F
100
AcDbEntity
  8
Kontur
100
AcDbCircle
 10
228.6229879145578
 20
166.026758255766
 30
0.0
 40
75.5
100
AcDbArc
 50
138.5535918744306
 51
153.3853519616777
  0
INSERT
  5
1E1E
330
1F
100
AcDbEntity
  8
AM_0N
100
AcDbBlockReference
  2
*U8
 10
0.0
 20
0.0
 30
0.0
1001
GENIUS_GENOREF_13
1005
1E22
  0
LINE
  5
1E20
330
1F
100
AcDbEntity
  8
AM_INV
100
AcDbLine
 10
93.50653797121481
 20
117.4131223544151
 30
0.0
 11
82.89208241915435
 21
128.0275779064756
 31
0.0
1001
GENIUS_GENBH_13
1002
{
1000
OA
1000
0
1070
   256
1000
ByLayer
1005
10
1005
15
1071
       -1
1002
}
1001
GENIUS_GENOREF_13
1005
1E23
  0
POINT
  5
1E22
330
1F
100
AcDbEntity
  8
0
 60
     1
100
AcDbPoint
 10
0.0
 20
0.0
 30
0.0
1001
GENIUS_GENOENT_13
1002
{
1000
MYREF
1005
1E22
1002
}
1002
{
1000
GRP
1005
0
1002
}
1001
GENIUS_GENOLIS_13
1002
{
1000
ENT
1005
1E1E
1002
}
1001
GENIUS_GENODEF_13
1002
{
1000
HIER
1070
     1
1002
}
1002
{
1000
MANEDIT
1070
     0
1002
}
1002
{
1000
NOSEL
1070
     1
1002
}
1002
{
1000
BEHIND
1070
     0
1002
}
1002
{
1000
OTHER
1070
     0
1002
}
1002
{
1000
REACTOR
1002
}
1001
GENIUS_GENOBJ-NBEHI-BHF_13
1002
{
1000
OWNER
1000
genbehi
1002
}
1001
GENIUS_GENBH_13
1002
{
1000
BGZLEVEL
1070
    -1
1002
}
1002
{
1000
FGZLEVEL
1070
    -1
1002
}
1002
{
1000
OIUMAP
1000
OIU
1002
}
1002
{
1000
FLAGS
1070
    32
1002
}
1002
{
1000
BGO
1005
1E23
1002
}
  0
POINT
  5
1E23
330
1F
100
AcDbEntity
  8
0
 60
     1
100
AcDbPoint
 10
0.0
 20
0.0
 30
0.0
1001
GENIUS_GENOBJ-NBEHI-BHB_13
1002
{
1000
OWNER
1000
genbehi
1002
}
1001
GENIUS_GENOLIS_13
1002
{
1000
ENT
1005
1E21
1005
1E20
1005
1DBF
1002
}
1001
GENIUS_GENOENT_13
1002
{
1000
MYREF
1005
1E23
1002
}
1002
{
1000
GRP
1005
0
1002
}
1001
GENIUS_GENBH_13
1002
{
1000
FGO
1005
1E22
1002
}
1001
GENIUS_GENODEF_13
1002
{
1000
HIER
1070
     1
1002
}
1002
{
1000
MANEDIT
1070
     1
1002
}
1002
{
1000
NOSEL
1070
     1
1002
}
1002
{
1000
BEHIND
1070
     0
1002
}
1002
{
1000
OTHER
1070
     1
1002
}
1002
{
1000
REACTOR
1002
}
  0
INSERT
  5
1E25
102
{ACAD_REACTORS
330
1E24
102
}
330
1F
100
AcDbEntity
  8
AM_12N
100
AcDbBlockReference
  2
*S10
 10
0.0
 20
0.0
 30
0.0
  0
CIRCLE
  5
2047
330
1F
100
AcDbEntity
  8
0
100
AcDbCircle
 10
160.599310195184
 20
234.0504359751397
 30
0.0
 40
11.5
  0
DIMENSION
  5
204B
330
1F
100
AcDbEntity
  8
AM_5
100
AcDbDimension
  2
*D3
 10
327.1229879145578
 20
503.3918287715969
 30
0.0
 11
228.6229879145578
 21
512.3918287715969
 31
0.0
 70
    32
  1
{\Famgdt;o}<>
 71
     5
 42
197.0
  3
AM_DIN$0
100
AcDbAlignedDimension
 13
130.1229879145578
 23
483.6276091239247
 33
0.0
 14
327.1229879145578
 24
483.6276091239247
 34
0.0
100
AcDbRotatedDimension
1001
ACAD_DSTYLE_DIMINSPECT
1070
   396
1000
100%
1070
   395
1000

1070
   394
1070
    33
1070
   393
1070
     0
1001
ACAD
1000
DSTYLE
1002
{
1070
   140
1040
15.0
1002
}
  0
DIMENSION
  5
20AD
330
1F
100
AcDbEntity
  8
AM_5
100
AcDbDimension
  2
*D4
 10
406.4625083695807
 20
433.6276091239247
 30
0.0
 11
406.4625083695806
 21
458.6276091239248
 31
0.0
 70
   160
 71
     5
 42
50.0
  3
AM_DIN$0
100
AcDbAlignedDimension
 13
327.1229879145578
 23
483.6276091239247
 33
0.0
 14
358.6229879145578
 24
433.6276091239247
 34
0.0
 50
90.0
100
AcDbRotatedDimension
1001
ACAD_DSTYLE_DIMINSPECT
1070
   396
1000
100%
1070
   395
1000

1070
   394
1070
    33
1070
   393
1070
     0
1001
ACAD
1000
DSTYLE
1002
{
1070
   140
1040
15.0
1002
}
  0
DIMENSION
  5
20F4
330
1F
100
AcDbEntity
  8
AM_5
100
AcDbDimension
  2
*D5
 10
445.8653411636056
 20
308.6276091239247
 30
0.0
 11
445.8653411636056
 21
396.1276091239249
 31
0.0
 70
   160
 71
     5
 42
175.0
  3
AM_DIN$0
100
AcDbAlignedDimension
 13
327.1229879145578
 23
483.6276091239247
 33
0.0
 14
295.5556969696043
 24
308.6276091239248
 34
0.0
 50
90.0
100
AcDbRotatedDimension
1001
ACAD_DSTYLE_DIMINSPECT
1070
   396
1000
100%
1070
   395
1000

1070
   394
1070
    33
1070
   393
1070
     0
1001
ACAD
1000
DSTYLE
1002
{
1070
   140
1040
15.0
1002
}
  0
LINE
  5
2195
330
1F
100
AcDbEntity
  8
AM_7
100
AcDbLine
 10
228.6229879145578
 20
301.0373743046471
 30
0.0
 11
228.6229879145578
 21
489.4476600831005
 31
0.0
1001
GENIUS_GENOBJ-N-CEN_13
1002
{
1000
OWNER
1000
GEN
1002
}
1001
GENIUS_GENODEF_13
1002
{
1000
HIER
1070
     0
1002
}
1002
{
1000
MANEDIT
1070
     0
1002
}
1002
{
1000
NOSEL
1070
     0
1002
}
1002
{
1000
BEHIND
1070
     0
1002
}
1002
{
1000
OTHER
1070
     0
1002
}
1002
{
1000
REACTOR
1002
}
1001
GENIUS_GENCEN_19
1002
{
1040
3.0
1002
}
  0
LINE
  5
21AD
330
1F
100
AcDbEntity
  8
AM_7
  6
AM_DIN_G_W050x2
100
AcDbLine
 10
113.6229879145578
 20
167.7238252690679
 30
0.0
 11
123.3729879145578
 21
167.7238252690679
 31
0.0
1001
GENIUS_GENOREF_13
1005
21B1
  0
LINE
  5
21AE
330
1F
100
AcDbEntity
  8
AM_7
  6
AM_DIN_G_W050x2
100
AcDbLine
 10
113.6229879145578
 20
167.7238252690679
 30
0.0
 11
113.6229879145578
 21
177.4738252690679
 31
0.0
1001
GENIUS_GENOREF_13
1005
21B1
  0
LINE
  5
21AF
330
1F
100
AcDbEntity
  8
AM_7
  6
AM_DIN_G_W050x2
100
AcDbLine
 10
113.6229879145578
 20
167.7238252690679
 30
0.0
 11
103.8729879145578
 21
167.7238252690679
 31
0.0
1001
GENIUS_GENOREF_13
1005
21B1
  0
LINE
  5
21B0
330
1F
100
AcDbEntity
  8
AM_7
  6
AM_DIN_G_W050x2
100
AcDbLine
 10
113.6229879145578
 20
167.7238252690679
 30
0.0
 11
113.6229879145578
 21
157.9738252690679
 31
0.0
1001
GENIUS_GENOREF_13
1005
21B1
  0
POINT
  5
21B1
330
1F
100
AcDbEntity
  8
0
 60
     1
100
AcDbPoint
 10
0.0
 20
0.0
 30
0.0
1001
GENIUS_GENODEF_13
1002
{
1000
HIER
1070
    10
1002
}
1002
{
1000
MANEDIT
1070
     0
1002
}
1002
{
1000
NOSEL
1070
     0
1002
}
1002
{
1000
BEHIND
1070
     0
1002
}
1002
{
1000
OTHER
1070
     0
1002
}
1002
{
1000
REACTOR
1002
}
1001
GENIUS_GENOENT_13
1002
{
1000
MYREF
1005
21B1
1002
}
1002
{
1000
GRP
1005
0
1002
}
1001
GENIUS_GENOBJ-N-CRS_13
1002
{
1000
OWNER
1000
GEN
1002
}
1001
GENIUS_GENOLIS_13
1002
{
1000
ENT
1005
21B0
1005
21AF
1005
21AE
1005
21AD
1002
}
  0
LINE
  5
21B4
330
1F
100
AcDbEntity
  8
AM_7
  6
AM_DIN_G_W050x2
100
AcDbLine
 10
343.6229879145578
 20
167.7238252690679
 30
0.0
 11
353.3729879145578
 21
167.7238252690679
 31
0.0
1001
GENIUS_GENOREF_13
1005
21B8
  0
LINE
  5
21B5
330
1F
100
AcDbEntity
  8
AM_7
  6
AM_DIN_G_W050x2
100
AcDbLine
 10
343.6229879145578
 20
167.7238252690679
 30
0.0
 11
343.6229879145578
 21
177.4738252690679
 31
0.0
1001
GENIUS_GENOREF_13
1005
21B8
  0
LINE
  5
21B6
330
1F
100
AcDbEntity
  8
AM_7
  6
AM_DIN_G_W050x2
100
AcDbLine
 10
343.6229879145578
 20
167.7238252690679
 30
0.0
 11
123.3729879145578
 21
167.7238252690679
 31
0.0
1001
GENIUS_GENOREF_13
1005
21B8
  0
LINE
  5
21B7
330
1F
100
AcDbEntity
  8
AM_7
  6
AM_DIN_G_W050x2
100
AcDbLine
 10
343.6229879145578
 20
167.7238252690679
 30
0.0
 11
343.6229879145578
 21
157.9738252690679
 31
0.0
1001
GENIUS_GENOREF_13
1005
21B8
  0
POINT
  5
21B8
330
1F
100
AcDbEntity
  8
0
 60
     1
100
AcDbPoint
 10
0.0
 20
0.0
 30
0.0
1001
GENIUS_GENOLIS_13
1002
{
1000
ENT
1005
21B7
1005
21B6
1005
21B5
1005
21B4
1002
}
1001
GENIUS_GENOENT_13
1002
{
1000
MYREF
1005
21B8
1002
}
1002
{
1000
GRP
1005
0
1002
}
1001
GENIUS_GENODEF_13
1002
{
1000
HIER
1070
    10
1002
}
1002
{
1000
MANEDIT
1070
     0
1002
}
1002
{
1000
NOSEL
1070
     0
1002
}
1002
{
1000
BEHIND
1070
     0
1002
}
1002
{
1000
OTHER
1070
     0
1002
}
1002
{
1000
REACTOR
1002
}
1001
GENIUS_GENOBJ-N-CRS_13
1002
{
1000
OWNER
1000
GEN
1002
}
  0
DIMENSION
  5
22AB
330
1F
100
AcDbEntity
  8
AM_5
100
AcDbDimension
  2
*D6
 10
118.1229879145578
 20
397.266904229871
 30
0.0
 11
92.75425380133958
 21
409.7379027246663
 31
0.0
 70
   160
  1
%%c<>
 71
     5
 42
9.0
  3
AM_DIN$0
100
AcDbAlignedDimension
 13
109.1229879145578
 23
433.6276091239247
 33
0.0
 14
118.1229879145578
 24
433.6276091239247
 34
0.0
100
AcDbRotatedDimension
1001
ACAD_DSTYLE_DIMINSPECT
1070
   396
1000
100%
1070
   395
1000

1070
   394
1070
    33
1070
   393
1070
     0
1001
ACAD
1000
DSTYLE
1002
{
1070
   140
1040
15.0
1070
   279
1070
     2
1002
}
  0
DIMENSION
  5
2494
330
1F
100
AcDbEntity
  8
AM_5
100
AcDbDimension
  2
*D7
 10
358.6229879145578
 20
538.1367469660403
 30
0.0
 11
236.7753407011485
 21
538.1367469660403
 31
0.0
 70
   160
 71
     5
 42
260.0
  3
AM_DIN$0
100
AcDbAlignedDimension
 13
98.62298791455783
 23
433.6276091239247
 33
0.0
 14
358.6229879145578
 24
433.6276091239247
 34
0.0
100
AcDbRotatedDimension
1001
ACAD_DSTYLE_DIMINSPECT
1070
   396
1000
100%
1070
   395
1000

1070
   394
1070
    33
1070
   393
1070
     0
1001
ACAD
1000
DSTYLE
1002
{
1070
   140
1040
15.0
1002
}
  0
HATCH
  5
267B
330
1F
100
AcDbEntity
  8
AM_8
100
AcDbHatch
 10
0.0
 20
0.0
 30
0.0
210
0.0
220
0.0
230
1.0
  2
_U
 70
     0
 71
     0
 91
        1
 92
        1
 93
       24
 72
     1
 10
309.9152199807236
 20
437.6276091239247
 11
303.8736249939905
 21
437.6276091239247
 72
     1
 10
303.8736249939905
 20
437.6276091239247
 11
303.2825586002376
 21
403.7654381045825
 72
     2
 10
299.283167819612
 20
403.8352477303319
 40
4.000000000000111
 50
1.000000000002583
 51
60.00000000000288
 73
     0
 72
     1
 10
301.2831678196119
 20
400.3711461151939
 11
295.9526542525852
 21
397.2935726723521
 72
     2
 10
300.9526542525853
 20
388.6333186345078
 40
10.0
 50
120.0000000000009
 51
178.9999999999982
 73
     1
 72
     1
 10
290.9541773010213
 20
388.8078426988809
 11
289.9910027412145
 21
333.6276091239248
 72
     1
 10
289.9910027412145
 20
333.6276091239248
 11
289.1229879145578
 21
328.6276091239248
 72
     1
 10
289.1229879145578
 20
328.6276091239248
 11
289.1229879145578
 21
308.6357331687039
 72
     1
 10
289.1229879145578
 20
308.635733168704
 11
295.5556969696043
 21
308.6365969640166
 72
     1
 10
295.5556969696043
 20
308.6365969640166
 11
296.9335197169178
 21
387.5720092914774
 72
     2
 10
302.9326058878562
 20
387.4672948528535
 40
6.000000000000054
 50
181.0000000000023
 51
239.9916876456193
 73
     0
 72
     1
 10
299.9318520722757
 20
392.6630119870207
 11
305.5814618396569
 21
395.9259086436779
 72
     2
 10
300.580205480356
 20
404.5854372006232
 40
9.999999999999978
 50
300.0083123543811
 51
357.0000000000002
 73
     1
 72
     1
 10
310.5665008279017
 20
404.0620776381938
 11
311.619314995995
 21
424.1509686863542
 72
     2
 10
321.6056103435406
 20
423.627609123925
 40
9.999999999999934
 50
182.9999999999994
 51
269.9999999999995
 73
     0
 72
     1
 10
321.6056103435406
 20
433.6276091239248
 11
339.1229879145578
 21
433.6276091239248
 72
     1
 10
339.1229879145578
 20
433.6276091239248
 11
336.8729879145578
 21
443.6276091239248
 72
     1
 10
336.8729879145578
 20
443.6276091239248
 11
330.6427459359518
 21
443.6276091239248
 72
     2
 10
330.6427459359518
 20
445.1276091239248
 40
1.5
 50
90.0
 51
176.9999999999988
 73
     0
 72
     1
 10
329.1448016338199
 20
445.0491051895603
 11
327.1229879145578
 21
483.6276091239247
 72
     1
 10
327.1229879145578
 20
483.6276091239247
 11
319.1229879145578
 21
483.6276091239247
 72
     1
 10
319.1229879145578
 20
483.6276091239247
 11
315.9718684271061
 21
474.9699794861474
 72
     1
 10
315.9718684271061
 20
474.9699794861474
 11
315.4143823040838
 21
443.0316208885197
 72
     2
 10
309.9152199807236
 20
443.1276091239247
 40
5.500000000000043
 50
0.9999999999999886
 51
90.0000000000003
 73
     0
 97
        0
 75
     0
 76
     0
 52
45.0
 41
2.5
 77
     0
 78
     1
 53
45.0
 43
72.39999999999986
 44
113.0271528579959
 45
-1.767766952966368
 46
1.767766952966368
 79
     0
 98
        1
 10
72.39999999999986
 20
113.0271528579959
1001
GENIUS_GENODEF_13
1002
{
1000
HIER
1070
     0
1002
}
1002
{
1000
MANEDIT
1070
     0
1002
}
1002
{
1000
NOSEL
1070
     0
1002
}
1002
{
1000
BEHIND
1070
     0
1002
}
1002
{
1000
OTHER
1070
     0
1002
}
1002
{
1000
REACTOR
1002
}
1001
GENIUS_GENOBJ-N-HTC_13
1002
{
1000
OWNER
1000
GEN
1002
}
1001
GENIUS_GENHATCH_13
1002
{
1000
DATA
1040
45.0
1042
2.5
1000
_U
1070
     0
1011
322.611908379975
1021
444.2997184956111
1031
0.0
1002
}
1002
{
1000
UCS
1010
0.0
1020
0.0
1030
0.0
1010
1.0
1020
0.0
1030
0.0
1010
0.0
1020
1.0
1030
0.0
1002
}
  0
HATCH
  5
267E
330
1F
100
AcDbEntity
  8
AM_8
100
AcDbHatch
 10
0.0
 20
0.0
 30
0.0
210
0.0
220
0.0
230
1.0
  2
_U
 70
     0
 71
     0
 91
        1
 92
        1
 93
        5
 72
     1
 10
358.6229879145578
 20
433.6276091239247
 11
358.198240057807
 21
441.7322810364106
 72
     2
 10
356.2009809882978
 20
441.6276091239248
 40
2.000000000000051
 50
3.00000000000063
 51
90.00000000000161
 73
     1
 72
     1
 10
356.2009809882977
 20
443.6276091239248
 11
350.3729879145578
 21
443.6276091239248
 72
     1
 10
350.3729879145578
 20
443.6276091239248
 11
348.1229879145578
 21
433.6276091239247
 72
     1
 10
348.1229879145578
 20
433.6276091239247
 11
358.6229879145578
 21
433.6276091239247
 97
        0
 75
     0
 76
     0
 52
45.0
 41
2.5
 77
     0
 78
     1
 53
45.0
 43
72.39999999999986
 44
113.0271528579959
 45
-1.767766952966368
 46
1.767766952966368
 79
     0
 98
        1
 10
72.39999999999986
 20
113.0271528579959
1001
GENIUS_GENODEF_13
1002
{
1000
HIER
1070
     0
1002
}
1002
{
1000
MANEDIT
1070
     0
1002
}
1002
{
1000
NOSEL
1070
     0
1002
}
1002
{
1000
BEHIND
1070
     0
1002
}
1002
{
1000
OTHER
1070
     0
1002
}
1002
{
1000
REACTOR
1002
}
1001
GENIUS_GENOBJ-N-HTC_13
1002
{
1000
OWNER
1000
GEN
1002
}
1001
GENIUS_GENHATCH_13
1002
{
1000
DATA
1040
45.0
1042
2.5
1000
_U
1070
     0
1011
352.5584874575439
1021
438.0662275163188
1031
0.0
1002
}
1002
{
1000
UCS
1010
0.0
1020
0.0
1030
0.0
1010
1.0
1020
0.0
1030
0.0
1010
0.0
1020
1.0
1030
0.0
1002
}
  0
HATCH
  5
268C
330
1F
100
AcDbEntity
  8
AM_8
100
AcDbHatch
 10
0.0
 20
0.0
 30
0.0
210
0.0
220
0.0
230
1.0
  2
_U
 70
     0
 71
     0
 91
        1
 92
        1
 93
       24
 72
     1
 10
161.6902788595118
 20
308.6365969640166
 11
160.3124561121979
 21
387.5720092914774
 72
     2
 10
154.3133699412594
 20
387.4672948528533
 40
6.000000000000085
 50
1.000000000003389
 51
59.99168764561852
 73
     1
 72
     1
 10
157.31412375684
 20
392.6630119870206
 11
151.664513989459
 21
395.9259086436778
 72
     2
 10
156.6657703487599
 20
404.5854372006234
 40
10.00000000000024
 50
120.0083123543805
 51
176.999999999998
 73
     0
 72
     1
 10
146.6794750012139
 20
404.0620776381936
 11
145.6266608331208
 21
424.1509686863544
 72
     2
 10
135.6403654855751
 20
423.6276091239249
 40
9.99999999999996
 50
3.000000000000719
 51
90.00000000000024
 73
     1
 72
     1
 10
135.6403654855751
 20
433.6276091239248
 11
118.1229879145578
 21
433.6276091239248
 72
     1
 10
118.1229879145578
 20
433.6276091239247
 11
120.3729879145578
 21
443.6276091239248
 72
     1
 10
120.3729879145578
 20
443.6276091239248
 11
126.6032298931639
 21
443.6276091239248
 72
     2
 10
126.6032298931639
 20
445.1276091239249
 40
1.500000000000113
 50
269.9999999999965
 51
356.9999999999946
 73
     1
 72
     1
 10
128.1011741952959
 20
445.0491051895603
 11
130.1229879145578
 21
483.6276091239247
 72
     1
 10
130.1229879145578
 20
483.6276091239247
 11
138.1229879145578
 21
483.6276091239247
 72
     1
 10
138.1229879145578
 20
483.6276091239247
 11
141.2741074020097
 21
474.9699794861476
 72
     1
 10
141.2741074020097
 20
474.9699794861477
 11
141.8315935250321
 21
443.0316208885198
 72
     2
 10
147.3307558483923
 20
443.1276091239247
 40
5.499999999999985
 50
180.9999999999994
 51
270.0000000000002
 73
     1
 72
     1
 10
147.3307558483923
 20
437.6276091239247
 11
153.3723508351252
 21
437.6276091239247
 72
     1
 10
153.3723508351252
 20
437.6276091239247
 11
153.9634172288782
 21
403.7654381045825
 72
     2
 10
157.9628080095036
 20
403.8352477303317
 40
3.999999999999881
 50
181.0000000000002
 51
240.0000000000009
 73
     1
 72
     1
 10
155.9628080095037
 20
400.371146115194
 11
161.2933215765307
 21
397.2935726723522
 72
     2
 10
156.2933215765307
 20
388.6333186345079
 40
10.00000000000001
 50
300.0000000000003
 51
358.9999999999985
 73
     0
 72
     1
 10
166.2917985280946
 20
388.8078426988809
 11
167.2549730879013
 21
333.6276091239248
 72
     1
 10
167.2549730879013
 20
333.6276091239248
 11
168.1229879145578
 21
328.6276091239248
 72
     1
 10
168.1229879145578
 20
328.6276091239248
 11
168.1229879145578
 21
308.6357331687039
 72
     1
 10
168.1229879145578
 20
308.635733168704
 11
161.6902788595118
 21
308.6365969640166
 97
        0
 75
     0
 76
     0
 52
45.0
 41
2.5
 77
     0
 78
     1
 53
45.0
 43
72.39999999999986
 44
113.0271528579959
 45
-1.767766952966368
 46
1.767766952966368
 79
     0
 98
        1
 10
72.39999999999986
 20
113.0271528579959
1001
GENIUS_GENODEF_13
1002
{
1000
HIER
1070
     0
1002
}
1002
{
1000
MANEDIT
1070
     0
1002
}
1002
{
1000
NOSEL
1070
     0
1002
}
1002
{
1000
BEHIND
1070
     0
1002
}
1002
{
1000
OTHER
1070
     0
1002
}
1002
{
1000
REACTOR
1002
}
1001
GENIUS_GENOBJ-N-HTC_13
1002
{
1000
OWNER
1000
GEN
1002
}
1001
GENIUS_GENHATCH_13
1002
{
1000
DATA
1040
45.0
1042
2.5
1000
_U
1070
     0
1011
162.7190339497843
1021
369.7348624169809
1031
0.0
1002
}
1002
{
1000
UCS
1010
0.0
1020
0.0
1030
0.0
1010
1.0
1020
0.0
1030
0.0
1010
0.0
1020
1.0
1030
0.0
1002
}
  0
HATCH
  5
268E
330
1F
100
AcDbEntity
  8
AM_8
100
AcDbHatch
 10
0.0
 20
0.0
 30
0.0
210
0.0
220
0.0
230
1.0
  2
_U
 70
     0
 71
     0
 91
        1
 92
        1
 93
        5
 72
     1
 10
109.1229879145578
 20
433.6276091239247
 11
106.8729879145578
 21
443.6276091239248
 72
     1
 10
106.8729879145578
 20
443.6276091239248
 11
101.0449948408181
 21
443.6276091239248
 72
     2
 10
101.0449948408181
 20
441.6276091239248
 40
2.000000000000056
 50
89.99999999999836
 51
176.9999999999994
 73
     1
 72
     1
 10
99.04773577130891
 20
441.7322810364106
 11
98.62298791455783
 21
433.6276091239247
 72
     1
 10
98.62298791455783
 20
433.6276091239247
 11
109.1229879145578
 21
433.6276091239247
 97
        0
 75
     0
 76
     0
 52
45.0
 41
2.5
 77
     0
 78
     1
 53
45.0
 43
72.39999999999986
 44
113.0271528579959
 45
-1.767766952966368
 46
1.767766952966368
 79
     0
 98
        1
 10
72.39999999999986
 20
113.0271528579959
1001
GENIUS_GENODEF_13
1002
{
1000
HIER
1070
     0
1002
}
1002
{
1000
MANEDIT
1070
     0
1002
}
1002
{
1000
NOSEL
1070
     0
1002
}
1002
{
1000
BEHIND
1070
     0
1002
}
1002
{
1000
OTHER
1070
     0
1002
}
1002
{
1000
REACTOR
1002
}
1001
GENIUS_GENOBJ-N-HTC_13
1002
{
1000
OWNER
1000
GEN
1002
}
1001
GENIUS_GENHATCH_13
1002
{
1000
DATA
1040
45.0
1042
2.5
1000
_U
1070
     0
1011
102.5258378462464
1021
439.1002793998814
1031
0.0
1002
}
1002
{
1000
UCS
1010
0.0
1020
0.0
1030
0.0
1010
1.0
1020
0.0
1030
0.0
1010
0.0
1020
1.0
1030
0.0
1002
}
  0
LINE
  5
268F
330
1F
100
AcDbEntity
  8
Kontur
100
AcDbLine
 10
132.2229879145579
 20
71.32382526906795
 30
0.0
 11
325.0229879145579
 21
71.32382526906795
 31
0.0
  0
LINE
  5
2690
330
1F
100
AcDbEntity
  8
Kontur
100
AcDbLine
 10
130.1229879145578
 20
69.22382526906793
 30
0.0
 11
327.1229879145578
 21
69.22382526906793
 31
0.0
  0
CIRCLE
  5
2692
330
1F
100
AcDbEntity
  8
Kontur
100
AcDbCircle
 10
113.6229879145578
 20
167.7238252690679
 30
0.0
 40
4.5
  0
CIRCLE
  5
2693
330
1F
100
AcDbEntity
  8
Kontur
100
AcDbCircle
 10
113.6229879145578
 20
167.7238252690679
 30
0.0
 40
6.75
  0
LINE
  5
2694
330
1F
100
AcDbEntity
  8
Kontur
100
AcDbLine
 10
130.1229879145578
 20
127.7238252690679
 30
0.0
 11
103.0700736439428
 21
134.9726318007876
 31
0.0
  0
LINE
  5
2695
330
1F
100
AcDbEntity
  8
Kontur
100
AcDbLine
 10
130.2523974371093
 20
128.2067881822124
 30
0.0
 11
103.199483166494
 21
135.4555947139321
 31
0.0
  0
LINE
  5
2696
330
1F
100
AcDbEntity
  8
Kontur
100
AcDbLine
 10
99.12298791455805
 20
140.768186758522
 30
0.0
 11
99.12298791455782
 21
175.481119130243
 31
0.0
  0
LINE
  5
2697
330
1F
100
AcDbEntity
  8
Kontur
100
AcDbLine
 10
98.62298791455806
 20
140.768186758522
 30
0.0
 11
98.62298791455783
 21
175.6045990115055
 31
0.0
  0
LINE
  5
2698
330
1F
100
AcDbEntity
  8
Kontur
100
AcDbLine
 10
98.62298791455806
 20
140.768186758522
 30
0.0
 11
98.62298791455783
 21
167.7238252690679
 31
0.0
  0
LINE
  5
2699
330
1F
100
AcDbEntity
  8
Kontur
100
AcDbLine
 10
99.12298791455805
 20
140.768186758522
 30
0.0
 11
99.12298791455782
 21
167.7238252690679
 31
0.0
  0
ARC
  5
269A
330
1F
100
AcDbEntity
  8
Kontur
100
AcDbCircle
 10
104.622987914558
 20
140.768186758522
 30
0.0
 40
6.0
100
AcDbArc
 50
180.0
 51
254.9999999999988
  0
ARC
  5
269B
330
1F
100
AcDbEntity
  8
Kontur
100
AcDbCircle
 10
104.622987914558
 20
140.768186758522
 30
0.0
 40
5.5
100
AcDbArc
 50
180.0
 51
254.9999999999988
  0
LINE
  5
269C
330
1F
100
AcDbEntity
  8
Kontur
100
AcDbLine
 10
132.2229879145579
 20
71.32382526906795
 30
0.0
 11
132.2229879145579
 21
177.1275142493322
 31
0.0
  0
LINE
  5
269D
330
1F
100
AcDbEntity
  8
Kontur
100
AcDbLine
 10
141.123020901256
 20
82.72382526906794
 30
0.0
 11
141.123020901256
 21
167.7238252690679
 31
0.0
  0
LINE
  5
269E
330
1F
100
AcDbEntity
  8
Kontur
100
AcDbLine
 10
316.122987914558
 20
82.72382526906786
 30
0.0
 11
316.1229879145575
 21
167.7238252690679
 31
0.0
  0
LINE
  5
269F
330
1F
100
AcDbEntity
  8
Kontur
100
AcDbLine
 10
315.3200549278599
 20
83.52382526906794
 30
0.0
 11
315.3200549278599
 21
167.7238252690679
 31
0.0
  0
LINE
  5
26A0
330
1F
100
AcDbEntity
  8
Kontur
100
AcDbLine
 10
141.9259209012559
 20
83.52382526906794
 30
0.0
 11
141.9259209012559
 21
167.7238252690679
 31
0.0
  0
ARC
  5
26A2
330
1F
100
AcDbEntity
  8
Kontur
100
AcDbCircle
 10
228.6229879145578
 20
169.4208922823698
 30
0.0
 40
75.5
100
AcDbArc
 50
293.589787062072
 51
298.2929183025612
  0
ARC
  5
26A3
330
1F
100
AcDbEntity
  8
Kontur
100
AcDbCircle
 10
228.6229879145578
 20
169.4208922823698
 30
0.0
 40
75.5
100
AcDbArc
 50
241.7070816974387
 51
246.410212937928
  0
ARC
  5
26A4
330
1F
100
AcDbEntity
  8
Kontur
100
AcDbCircle
 10
228.6229879145578
 20
169.4208922823698
 30
0.0
 40
75.5
100
AcDbArc
 50
206.6146480383223
 51
221.4464081255694
  0
ARC
  5
26A6
330
1F
100
AcDbEntity
  8
Kontur
100
AcDbCircle
 10
228.6229879145578
 20
169.4208922823698
 30
0.0
 40
73.0
100
AcDbArc
 50
291.4323483947925
 51
300.4503569698404
  0
ARC
  5
26A7
330
1F
100
AcDbEntity
  8
Kontur
100
AcDbCircle
 10
228.6229879145578
 20
169.4208922823698
 30
0.0
 40
73.0
100
AcDbArc
 50
239.5496430301597
 51
248.5676516052075
  0
ARC
  5
26A8
330
1F
100
AcDbEntity
  8
Kontur
100
AcDbCircle
 10
228.6229879145578
 20
169.4208922823698
 30
0.0
 40
73.0
100
AcDbArc
 50
202.3832293837317
 51
221.0067998802392
  0
LINE
  5
26A9
330
1F
100
AcDbEntity
  8
Kontur
100
AcDbLine
 10
132.2229879145579
 20
71.32382526906795
 30
0.0
 11
132.2229879145579
 21
167.7238252690679
 31
0.0
  0
LINE
  5
26AA
330
1F
100
AcDbEntity
  8
Kontur
100
AcDbLine
 10
130.1229879145578
 20
69.22382526906793
 30
0.0
 11
130.1229879145578
 21
128.2414633592729
 31
0.0
  0
LINE
  5
26AB
330
1F
100
AcDbEntity
  8
BEMASS
100
AcDbLine
 10
130.8431146087782
 20
177.2098341701737
 30
0.0
 11
130.8431146087782
 21
128.3262741618067
 31
0.0
  0
LINE
  5
26AC
330
1F
100
AcDbEntity
  8
BEMASS
100
AcDbLine
 10
130.8431146087782
 20
167.7238252690679
 30
0.0
 11
130.8431146087782
 21
128.3262741618067
 31
0.0
  0
LINE
  5
26AD
330
1F
100
AcDbEntity
  8
Kontur
100
AcDbLine
 10
143.623020901256
 20
80.22382526906794
 30
0.0
 11
313.6229879145578
 21
80.22382526906794
 31
0.0
  0
LINE
  5
26AE
330
1F
100
AcDbEntity
  8
Kontur
100
AcDbLine
 10
144.4259209012559
 20
81.02382526906794
 30
0.0
 11
312.8200549278599
 21
81.02382526906794
 31
0.0
  0
LINE
  5
26AF
330
1F
100
AcDbEntity
  8
Kontur
100
AcDbLine
 10
132.2229879145579
 20
71.32382526906795
 30
0.0
 11
130.1229879145578
 21
69.22382526906793
 31
0.0
  0
ARC
  5
26B0
330
1F
100
AcDbEntity
  8
Kontur
100
AcDbCircle
 10
144.4259209012559
 20
83.52382526906794
 30
0.0
 40
2.5
100
AcDbArc
 50
180.0
 51
270.0
  0
ARC
  5
26B1
330
1F
100
AcDbEntity
  8
Kontur
100
AcDbCircle
 10
143.623020901256
 20
82.72382526906794
 30
0.0
 40
2.5
100
AcDbArc
 50
180.0
 51
270.0
  0
ARC
  5
26B2
330
1F
100
AcDbEntity
  8
Kontur
100
AcDbCircle
 10
312.8200549278599
 20
83.52382526906794
 30
0.0
 40
2.5
100
AcDbArc
 50
270.0
 51
0.0
  0
ARC
  5
26B3
330
1F
100
AcDbEntity
  8
Kontur
100
AcDbCircle
 10
313.622987914558
 20
82.72382526906786
 30
0.0
 40
2.5
100
AcDbArc
 50
270.0
 51
0.0
  0
LINE
  5
26B4
330
1F
100
AcDbEntity
  8
Kontur
100
AcDbLine
 10
325.0229879145579
 20
71.32382526906795
 30
0.0
 11
325.0229879145579
 21
177.1275142493322
 31
0.0
  0
LINE
  5
26B5
330
1F
100
AcDbEntity
  8
Kontur
100
AcDbLine
 10
327.1229879145578
 20
69.22382526906793
 30
0.0
 11
327.1229879145578
 21
128.2414633592729
 31
0.0
  0
LINE
  5
26B6
330
1F
100
AcDbEntity
  8
BEMASS
100
AcDbLine
 10
326.4028612203376
 20
177.2098341701737
 30
0.0
 11
326.4028612203376
 21
128.3262741618067
 31
0.0
  0
LINE
  5
26B7
330
1F
100
AcDbEntity
  8
Kontur
100
AcDbLine
 10
358.1229879145578
 20
140.768186758522
 30
0.0
 11
358.1229879145578
 21
175.481119130243
 31
0.0
  0
LINE
  5
26B8
330
1F
100
AcDbEntity
  8
Kontur
100
AcDbLine
 10
358.6229879145578
 20
140.768186758522
 30
0.0
 11
358.6229879145578
 21
175.6045990115055
 31
0.0
  0
CIRCLE
  5
26BA
330
1F
100
AcDbEntity
  8
Kontur
100
AcDbCircle
 10
343.6229879145578
 20
167.7238252690679
 30
0.0
 40
4.5
  0
CIRCLE
  5
26BB
330
1F
100
AcDbEntity
  8
Kontur
100
AcDbCircle
 10
343.6229879145578
 20
167.7238252690679
 30
0.0
 40
6.75
  0
LINE
  5
26BC
330
1F
100
AcDbEntity
  8
Kontur
100
AcDbLine
 10
326.9935783920066
 20
128.2067881822124
 30
0.0
 11
354.0464926626216
 21
135.4555947139321
 31
0.0
  0
LINE
  5
26BD
330
1F
100
AcDbEntity
  8
Kontur
100
AcDbLine
 10
327.1229879145578
 20
127.7238252690679
 30
0.0
 11
354.1759021851731
 21
134.9726318007876
 31
0.0
  0
ARC
  5
26BE
330
1F
100
AcDbEntity
  8
Kontur
100
AcDbCircle
 10
352.6229879145578
 20
140.768186758522
 30
0.0
 40
6.0
100
AcDbArc
 50
285.0000000000012
 51
0.0
  0
ARC
  5
26BF
330
1F
100
AcDbEntity
  8
Kontur
100
AcDbCircle
 10
352.6229879145578
 20
140.768186758522
 30
0.0
 40
5.5
100
AcDbArc
 50
285.0000000000012
 51
0.0
  0
LINE
  5
26C0
330
1F
100
AcDbEntity
  8
Kontur
100
AcDbLine
 10
325.0229879145579
 20
71.32382526906795
 30
0.0
 11
327.1229879145578
 21
69.22382526906793
 31
0.0
  0
LINE
  5
26C1
330
1F
100
AcDbEntity
  8
7A
100
AcDbLine
 10
140.2817781268723
 20
167.7238252690679
 30
0.0
 11
319.8353793781803
 21
167.7238252690679
 31
0.0
  0
LINE
  5
26C2
330
1F
100
AcDbEntity
  8
7A
100
AcDbLine
 10
228.6229879145579
 20
167.7238252690679
 30
0.0
 11
228.6229879145578
 21
82.72382526906794
 31
0.0
  0
LINE
  5
26C3
330
1F
100
AcDbEntity
  8
7A
100
AcDbLine
 10
228.6229879145578
 20
82.72382526906794
 30
0.0
 11
228.6229879145578
 21
68.22604273499294
 31
0.0
  0
LINE
  5
26C4
330
1F
100
AcDbEntity
  8
0
100
AcDbLine
 10
143.6229879145578
 20
85.22382526906794
 30
0.0
 11
143.6229879145578
 21
167.7238252690679
 31
0.0
  0
LINE
  5
26C5
330
1F
100
AcDbEntity
  8
0
100
AcDbLine
 10
313.6229879145578
 20
167.7238252690679
 30
0.0
 11
313.6229879145578
 21
85.22382526906794
 31
0.0
  0
LINE
  5
26C6
330
1F
100
AcDbEntity
  8
0
100
AcDbLine
 10
311.1229879145578
 20
82.72382526906794
 30
0.0
 11
146.1229879145578
 21
82.72382526906794
 31
0.0
  0
LINE
  5
26C9
330
1F
100
AcDbEntity
  8
0
100
AcDbLine
 10
265.6229879145578
 20
106.7238252690679
 30
0.0
 11
265.6229879145578
 21
167.7238252690679
 31
0.0
  0
LINE
  5
26CA
330
1F
100
AcDbEntity
  8
0
100
AcDbLine
 10
252.6229879145578
 20
106.7238252690679
 30
0.0
 11
252.6229879145578
 21
167.7238252690679
 31
0.0
  0
LINE
  5
26CB
330
1F
100
AcDbEntity
  8
0
100
AcDbLine
 10
235.1229879145578
 20
106.7238252690679
 30
0.0
 11
235.1229879145578
 21
167.7238252690679
 31
0.0
  0
ARC
  5
26CC
330
1F
100
AcDbEntity
  8
0
100
AcDbCircle
 10
228.6229879145578
 20
106.7238252690679
 30
0.0
 40
6.5
100
AcDbArc
 50
270.0
 51
0.0
  0
ARC
  5
26CD
330
1F
100
AcDbEntity
  8
0
100
AcDbCircle
 10
259.1229879145578
 20
106.7238252690679
 30
0.0
 40
6.499999999999992
100
AcDbArc
 50
180.0
 51
0.0
  0
ARC
  5
26CF
330
1F
100
AcDbEntity
  8
0
100
AcDbCircle
 10
228.6229879145578
 20
106.7238252690679
 30
0.0
 40
6.5
100
AcDbArc
 50
180.0
 51
270.0
  0
LINE
  5
26D0
330
1F
100
AcDbEntity
  8
0
100
AcDbLine
 10
191.6229879145578
 20
106.7238252690679
 30
0.0
 11
191.6229879145578
 21
167.7238252690679
 31
0.0
  0
LINE
  5
26D1
330
1F
100
AcDbEntity
  8
0
100
AcDbLine
 10
204.6229879145578
 20
106.7238252690679
 30
0.0
 11
204.6229879145578
 21
167.7238252690679
 31
0.0
  0
LINE
  5
26D2
330
1F
100
AcDbEntity
  8
0
100
AcDbLine
 10
222.1229879145578
 20
106.7238252690679
 30
0.0
 11
222.1229879145578
 21
167.7238252690679
 31
0.0
  0
ARC
  5
26D3
330
1F
100
AcDbEntity
  8
0
100
AcDbCircle
 10
198.1229879145578
 20
106.7238252690679
 30
0.0
 40
6.499999999999992
100
AcDbArc
 50
180.0
 51
0.0
  0
LINE
  5
26D4
330
1F
100
AcDbEntity
  8
0
100
AcDbLine
 10
161.1229879145578
 20
124.2238252690679
 30
0.0
 11
161.1229879145578
 21
167.7238252690679
 31
0.0
  0
LINE
  5
26D5
330
1F
100
AcDbEntity
  8
0
100
AcDbLine
 10
174.1229879145578
 20
124.2238252690679
 30
0.0
 11
174.1229879145578
 21
167.7238252690679
 31
0.0
  0
ARC
  5
26D6
330
1F
100
AcDbEntity
  8
0
100
AcDbCircle
 10
167.6229879145578
 20
124.2238252690679
 30
0.0
 40
6.5
100
AcDbArc
 50
180.0
 51
0.0
  0
ARC
  5
26D7
330
1F
100
AcDbEntity
  8
0
100
AcDbCircle
 10
311.1229879145578
 20
85.22382526906794
 30
0.0
 40
2.5
100
AcDbArc
 50
270.0
 51
0.0
  0
ARC
  5
26D8
330
1F
100
AcDbEntity
  8
0
100
AcDbCircle
 10
146.1229879145578
 20
85.22382526906794
 30
0.0
 40
2.5
100
AcDbArc
 50
180.0
 51
270.0
  0
LINE
  5
26DA
330
1F
100
AcDbEntity
  8
AM_INV
100
AcDbLine
 10
93.50653797121481
 20
-8.019777532271064
 30
0.0
 11
82.89208241915435
 21
-18.63423308433158
 31
0.0
1001
GENIUS_GENBH_13
1002
{
1000
OA
1000
0
1070
   256
1000
ByLayer
1005
10
1005
15
1071
       -1
1002
}
1001
GENIUS_GENOREF_13
1005
26E8
  0
LINE
  5
26DE
330
1F
100
AcDbEntity
  8
AM_7
  6
AM_DIN_G_W050x2
100
AcDbLine
 10
113.6229879145578
 20
167.7238252690679
 30
0.0
 11
123.3729879145578
 21
167.7238252690679
 31
0.0
1001
GENIUS_GENOREF_13
1005
26E7
  0
LINE
  5
26DF
330
1F
100
AcDbEntity
  8
AM_7
  6
AM_DIN_G_W050x2
100
AcDbLine
 10
113.6229879145578
 20
167.7238252690679
 30
0.0
 11
113.6229879145578
 21
157.9738252690679
 31
0.0
1001
GENIUS_GENOREF_13
1005
26E7
  0
LINE
  5
26E0
330
1F
100
AcDbEntity
  8
AM_7
  6
AM_DIN_G_W050x2
100
AcDbLine
 10
113.6229879145578
 20
167.7238252690679
 30
0.0
 11
97.88228002741028
 21
167.7238252690679
 31
0.0
1001
GENIUS_GENOREF_13
1005
26E7
  0
LINE
  5
26E1
330
1F
100
AcDbEntity
  8
AM_7
  6
AM_DIN_G_W050x2
100
AcDbLine
 10
113.6229879145578
 20
167.7238252690679
 30
0.0
 11
113.6229879145578
 21
177.4738252690679
 31
0.0
1001
GENIUS_GENOREF_13
1005
26E7
  0
LINE
  5
26E2
330
1F
100
AcDbEntity
  8
AM_7
  6
AM_DIN_G_W050x2
100
AcDbLine
 10
343.6229879145578
 20
167.7238252690679
 30
0.0
 11
361.2120460808902
 21
167.7238252690679
 31
0.0
1001
GENIUS_GENOREF_13
1005
26E6
  0
LINE
  5
26E3
330
1F
100
AcDbEntity
  8
AM_7
  6
AM_DIN_G_W050x2
100
AcDbLine
 10
343.6229879145578
 20
167.7238252690679
 30
0.0
 11
343.6229879145578
 21
157.9738252690679
 31
0.0
1001
GENIUS_GENOREF_13
1005
26E6
  0
LINE
  5
26E4
330
1F
100
AcDbEntity
  8
AM_7
  6
AM_DIN_G_W050x2
100
AcDbLine
 10
343.6229879145578
 20
167.7238252690679
 30
0.0
 11
123.3729879145578
 21
167.7238252690679
 31
0.0
1001
GENIUS_GENOREF_13
1005
26E6
  0
LINE
  5
26E5
330
1F
100
AcDbEntity
  8
AM_7
  6
AM_DIN_G_W050x2
100
AcDbLine
 10
343.6229879145578
 20
167.7238252690679
 30
0.0
 11
343.6229879145578
 21
177.4738252690679
 31
0.0
1001
GENIUS_GENOREF_13
1005
26E6
  0
POINT
  5
26E6
330
1F
100
AcDbEntity
  8
0
 60
     1
100
AcDbPoint
 10
0.0
 20
109.393344822144
 30
0.0
1001
GENIUS_GENOLIS_13
1002
{
1000
ENT
1005
26E5
1005
26E4
1005
26E3
1005
26E2
1002
}
1001
GENIUS_GENOENT_13
1002
{
1000
MYREF
1005
26E6
1002
}
1002
{
1000
GRP
1005
0
1002
}
1001
GENIUS_GENODEF_13
1002
{
1000
HIER
1070
    10
1002
}
1002
{
1000
MANEDIT
1070
     0
1002
}
1002
{
1000
NOSEL
1070
     0
1002
}
1002
{
1000
BEHIND
1070
     0
1002
}
1002
{
1000
OTHER
1070
     0
1002
}
1002
{
1000
REACTOR
1002
}
1001
GENIUS_GENOBJ-N-CRS_13
1002
{
1000
OWNER
1000
GEN
1002
}
  0
POINT
  5
26E7
330
1F
100
AcDbEntity
  8
0
 60
     1
100
AcDbPoint
 10
0.0
 20
109.393344822144
 30
0.0
1001
GENIUS_GENODEF_13
1002
{
1000
HIER
1070
    10
1002
}
1002
{
1000
MANEDIT
1070
     0
1002
}
1002
{
1000
NOSEL
1070
     0
1002
}
1002
{
1000
BEHIND
1070
     0
1002
}
1002
{
1000
OTHER
1070
     0
1002
}
1002
{
1000
REACTOR
1002
}
1001
GENIUS_GENOENT_13
1002
{
1000
MYREF
1005
26E7
1002
}
1002
{
1000
GRP
1005
0
1002
}
1001
GENIUS_GENOBJ-N-CRS_13
1002
{
1000
OWNER
1000
GEN
1002
}
1001
GENIUS_GENOLIS_13
1002
{
1000
ENT
1005
26E1
1005
26E0
1005
26DF
1005
26DE
1002
}
  0
POINT
  5
26E8
330
1F
100
AcDbEntity
  8
0
 60
     1
100
AcDbPoint
 10
0.0
 20
109.393344822144
 30
0.0
1001
GENIUS_GENOBJ-NBEHI-BHB_13
1002
{
1000
OWNER
1000
genbehi
1002
}
1001
GENIUS_GENOLIS_13
1002
{
1000
ENT
1005
0
1005
26DA
1005
0
1002
}
1001
GENIUS_GENOENT_13
1002
{
1000
MYREF
1005
26E8
1002
}
1002
{
1000
GRP
1005
0
1002
}
1001
GENIUS_GENBH_13
1002
{
1000
FGO
1005
26E9
1002
}
1001
GENIUS_GENODEF_13
1002
{
1000
HIER
1070
     1
1002
}
1002
{
1000
MANEDIT
1070
     1
1002
}
1002
{
1000
NOSEL
1070
     1
1002
}
1002
{
1000
BEHIND
1070
     0
1002
}
1002
{
1000
OTHER
1070
     1
1002
}
1002
{
1000
REACTOR
1002
}
  0
ARC
  5
26EB
330
1F
100
AcDbEntity
  8
Kontur
100
AcDbCircle
 10
228.6229879145579
 20
169.4208922823698
 30
0.0
 40
75.5
100
AcDbArc
 50
318.55359187443
 51
333.3853519616778
  0
ARC
  5
26EC
330
1F
100
AcDbEntity
  8
Kontur
100
AcDbCircle
 10
228.6229879145579
 20
169.4208922823698
 30
0.0
 40
73.0
100
AcDbArc
 50
318.9932001197602
 51
337.6167706162691
  0
LINE
  5
26ED
330
1F
100
AcDbEntity
  8
0
100
AcDbLine
 10
296.1229879145578
 20
124.2238252690679
 30
0.0
 11
296.1229879145578
 21
167.7238252690679
 31
0.0
  0
LINE
  5
26EE
330
1F
100
AcDbEntity
  8
0
100
AcDbLine
 10
283.1229879145578
 20
124.2238252690679
 30
0.0
 11
283.1229879145578
 21
167.7238252690679
 31
0.0
  0
ARC
  5
26EF
330
1F
100
AcDbEntity
  8
0
100
AcDbCircle
 10
289.6229879145579
 20
124.2238252690679
 30
0.0
 40
6.5
100
AcDbArc
 50
180.0
 51
0.0
  0
INSERT
  5
26F0
330
1F
100
AcDbEntity
  8
AM_0N
100
AcDbBlockReference
  2
*U9
 10
0.0
 20
0.0
 30
0.0
1001
GENIUS_GENOREF_13
1005
26F6
  0
LINE
  5
26F1
330
1F
100
AcDbEntity
  8
AM_INV
100
AcDbLine
 10
218.9394378579011
 20
-8.019777532271103
 30
0.0
 11
229.5538934099616
 21
-18.63423308433163
 31
0.0
1001
GENIUS_GENBH_13
1002
{
1000
OA
1000
0
1070
   256
1000
ByLayer
1005
10
1005
15
1071
       -1
1002
}
1001
GENIUS_GENOREF_13
1005
26F5
  0
INSERT
  5
26F2
102
{ACAD_REACTORS
330
1E24
102
}
330
1F
100
AcDbEntity
  8
AM_12N
100
AcDbBlockReference
  2
*S11
 10
0.0
 20
0.0
 30
0.0
  0
CIRCLE
  5
26F4
330
1F
100
AcDbEntity
  8
0
100
AcDbCircle
 10
296.6466656339317
 20
101.3972145629961
 30
0.0
 40
11.5
  0
POINT
  5
26F5
330
1F
100
AcDbEntity
  8
0
 60
     1
100
AcDbPoint
 10
312.445975829116
 20
109.393344822144
 30
0.0
 50
180.0
1001
GENIUS_GENOBJ-NBEHI-BHB_13
1002
{
1000
OWNER
1000
genbehi
1002
}
1001
GENIUS_GENOLIS_13
1002
{
1000
ENT
1005
0
1005
26F1
1005
0
1002
}
1001
GENIUS_GENOENT_13
1002
{
1000
MYREF
1005
26F5
1002
}
1002
{
1000
GRP
1005
0
1002
}
1001
GENIUS_GENBH_13
1002
{
1000
FGO
1005
26F6
1002
}
1001
GENIUS_GENODEF_13
1002
{
1000
HIER
1070
     1
1002
}
1002
{
1000
MANEDIT
1070
     1
1002
}
1002
{
1000
NOSEL
1070
     1
1002
}
1002
{
1000
BEHIND
1070
     0
1002
}
1002
{
1000
OTHER
1070
     1
1002
}
1002
{
1000
REACTOR
1002
}
  0
POINT
  5
26F6
330
1F
100
AcDbEntity
  8
0
 60
     1
100
AcDbPoint
 10
312.445975829116
 20
109.393344822144
 30
0.0
 50
180.0
1001
GENIUS_GENOENT_13
1002
{
1000
MYREF
1005
26F6
1002
}
1002
{
1000
GRP
1005
0
1002
}
1001
GENIUS_GENOLIS_13
1002
{
1000
ENT
1005
26F0
1002
}
1001
GENIUS_GENODEF_13
1002
{
1000
HIER
1070
     1
1002
}
1002
{
1000
MANEDIT
1070
     0
1002
}
1002
{
1000
NOSEL
1070
     1
1002
}
1002
{
1000
BEHIND
1070
     0
1002
}
1002
{
1000
OTHER
1070
     0
1002
}
1002
{
1000
REACTOR
1002
}
1001
GENIUS_GENOBJ-NBEHI-BHF_13
1002
{
1000
OWNER
1000
genbehi
1002
}
1001
GENIUS_GENBH_13
1002
{
1000
BGZLEVEL
1070
    -1
1002
}
1002
{
1000
FGZLEVEL
1070
    -1
1002
}
1002
{
1000
OIUMAP
1000
OIU
1002
}
1002
{
1000
FLAGS
1070
    32
1002
}
1002
{
1000
BGO
1005
26F5
1002
}
  0
LINE
  5
2763
330
1F
100
AcDbEntity
  8
0
100
AcDbLine
 10
164.909613180946
 20
393.708702264115
 30
0.0
 11
290.9541773010213
 21
393.708702264115
 31
0.0
  0
LINE
  5
2764
330
1F
100
AcDbEntity
  8
0
100
AcDbLine
 10
157.9628080095037
 20
403.8352477303317
 30
0.0
 11
299.2831678196119
 21
403.8352477303317
 31
0.0
  0
ENDSEC
  0
SECTION
  2
OBJECTS
  0
DICTIONARY
  5
C
330
0
100
AcDbDictionary
281
     1
  3
ACAD_2007HEADERVARS_RT
350
27DC
  3
ACAD_BACKGROUND
350
25C9
  3
ACAD_COLOR
350
9B
  3
ACAD_GROUP
350
D
  3
ACAD_IMAGE_DICT
350
752
  3
ACAD_IMAGE_VARS
350
763
  3
ACAD_LAYOUT
350
1A
  3
ACAD_MATERIAL
350
9A
  3
ACAD_MLEADERSTYLE
350
15D
  3
ACAD_MLINESTYLE
350
17
  3
ACAD_PLOTSETTINGS
350
19
  3
ACAD_PLOTSTYLENAME
350
E
  3
ACAD_SCALELIST
350
13B
  3
ACAD_TABLESTYLE
350
9C
  3
ACAD_VISUALSTYLE
350
12A
  3
ACDB_RECOMPOSE_DATA
350
169
  3
AcDbVariableDictionary
350
34
  3
AcmDictionary
350
47
  3
AEC_PROPERTY_SET_DEFS
350
21C7
  3
AMG
350
2B
  3
AMGSNAPSETTINGS
350
757
  0
DICTIONARY
  5
55B
330
2
100
AcDbDictionary
280
     1
281
     1
  3
ACAD_LAYERSTATES
360
55C
  3
AMLAYER_GROUPCOLORS
360
2677
  0
DICTIONARY
  5
165
330
10
100
AcDbDictionary
280
     1
281
     1
  3
ADSK_XREC_LAYER_RECONCILED
360
166
  0
DICTIONARY
  5
529
330
528
100
AcDbDictionary
280
     1
281
     1
  0
DICTIONARY
  5
52B
330
52A
100
AcDbDictionary
280
     1
281
     1
  0
DICTIONARY
  5
533
330
532
100
AcDbDictionary
280
     1
281
     1
  0
DICTIONARY
  5
10AD
330
10AC
100
AcDbDictionary
280
     1
281
     1
  0
DICTIONARY
  5
10AF
330
10AE
100
AcDbDictionary
280
     1
281
     1
  0
DICTIONARY
  5
81
330
1F
100
AcDbDictionary
280
     1
281
     1
  3
ACAD_SORTENTS
360
1D7E
  0
DICTIONARY
  5
27DC
102
{ACAD_REACTORS
330
C
102
}
330
C
100
AcDbDictionary
281
     1
  3
DIMJOGANG
350
27DD
  0
DICTIONARY
  5
25C9
102
{ACAD_REACTORS
330
C
102
}
330
C
100
AcDbDictionary
281
     1
  0
DICTIONARY
  5
9B
102
{ACAD_REACTORS
330
C
102
}
330
C
100
AcDbDictionary
281
     1
  0
DICTIONARY
  5
D
102
{ACAD_REACTORS
330
C
102
}
330
C
100
AcDbDictionary
281
     1
  0
DICTIONARY
  5
752
102
{ACAD_REACTORS
330
C
102
}
330
C
100
AcDbDictionary
281
     1
  3
ACO-Logo
350
753
  0
RASTERVARIABLES
  5
763
102
{ACAD_REACTORS
330
C
102
}
330
C
100
AcDbRasterVariables
 90
        0
 70
     1
 71
     1
 72
     1
  0
DICTIONARY
  5
1A
102
{ACAD_REACTORS
330
C
102
}
330
C
100
AcDbDictionary
281
     1
  3
Layout1
350
1E
  3
Layout2
350
26
  3
Model
350
22
  0
DICTIONARY
  5
9A
102
{ACAD_REACTORS
330
C
102
}
330
C
100
AcDbDictionary
281
     1
  3
ByBlock
350
11A
  3
ByLayer
350
112
  3
Global
350
122
  0
DICTIONARY
  5
15D
102
{ACAD_REACTORS
330
C
102
}
330
C
100
AcDbDictionary
281
     1
  3
Standard
350
15E
  0
DICTIONARY
  5
17
102
{ACAD_REACTORS
330
C
102
}
330
C
100
AcDbDictionary
281
     1
  3
Standard
350
18
  0
DICTIONARY
  5
19
102
{ACAD_REACTORS
330
C
102
}
330
C
100
AcDbDictionary
281
     1
  0
ACDBDICTIONARYWDFLT
  5
E
102
{ACAD_REACTORS
330
C
102
}
330
C
100
AcDbDictionary
281
     1
  3
Normal
350
F
100
AcDbDictionaryWithDefault
340
F
  0
DICTIONARY
  5
13B
102
{ACAD_REACTORS
330
C
102
}
330
C
100
AcDbDictionary
281
     1
  3
A0
350
13C
  3
A1
350
13D
  3
A2
350
13E
  3
A3
350
13F
  3
A4
350
140
  3
A5
350
141
  3
A6
350
142
  3
A7
350
143
  3
A8
350
144
  3
A9
350
145
  3
B0
350
146
  3
B1
350
147
  3
B2
350
148
  3
B3
350
149
  3
B4
350
14A
  3
B5
350
14B
  3
B6
350
14C
  3
B7
350
14D
  3
B8
350
14E
  3
B9
350
14F
  3
C0
350
150
  3
C1
350
151
  3
C2
350
152
  3
C3
350
153
  3
C4
350
154
  3
C5
350
155
  3
C6
350
156
  3
C7
350
157
  3
C8
350
158
  3
C9
350
159
  3
D0
350
15A
  3
D1
350
15B
  3
D2
350
15C
  0
DICTIONARY
  5
9C
102
{ACAD_REACTORS
330
C
102
}
330
C
100
AcDbDictionary
281
     1
  3
Standard
350
9D
  0
DICTIONARY
  5
12A
102
{ACAD_REACTORS
330
C
102
}
330
C
100
AcDbDictionary
281
     1
  3
2dWireframe
350
130
  3
3D Hidden
350
132
  3
3dWireframe
350
131
  3
Basic
350
12F
  3
Brighten
350
136
  3
ColorChange
350
13A
  3
Conceptual
350
133
  3
Dim
350
135
  3
Facepattern
350
139
  3
Flat
350
12B
  3
FlatWithEdges
350
12C
  3
Gouraud
350
12D
  3
GouraudWithEdges
350
12E
  3
Linepattern
350
138
  3
Realistic
350
134
  3
Thicken
350
137
  0
XRECORD
  5
169
102
{ACAD_REACTORS
330
C
102
}
330
C
100
AcDbXrecord
280
     1
 90
        1
330
9D
330
22AB
  0
DICTIONARY
  5
34
102
{ACAD_REACTORS
330
C
102
}
330
C
100
AcDbDictionary
281
     1
  3
CANNOSCALE
350
16C
  3
CMLEADERSTYLE
350
16A
  3
CTABLESTYLE
350
10F
  3
INDEXCTL
350
35
  3
LAYEREVAL
350
216F
  3
LAYERNOTIFY
350
2170
  3
LIGHTINGUNITS
350
16D
  3
MSLTSCALE
350
16B
  0
DICTIONARY
  5
47
102
{ACAD_REACTORS
330
C
102
}
330
C
100
AcDbDictionary
281
     1
  3
AcmStdDictionary
350
4C
  3
AMDTSECTSYM_ARROWCOLOR
350
F5
  0
DICTIONARY
  5
21C7
102
{ACAD_REACTORS
330
C
102
}
330
C
100
AcDbDictionary
281
     1
  0
DICTIONARY
  5
2B
102
{ACAD_REACTORS
330
C
102
}
330
C
100
AcDbDictionary
281
     1
  0
DICTIONARY
  5
757
102
{ACAD_REACTORS
330
C
102
}
330
C
100
AcDbDictionary
281
     1
  0
DICTIONARY
  5
55C
102
{ACAD_REACTORS
330
55B
102
}
330
55B
100
AcDbDictionary
281
     1
  0
DICTIONARY
  5
2677
102
{ACAD_REACTORS
330
55B
102
}
330
55B
100
AcDbDictionary
280
     1
281
     1
  0
XRECORD
  5
166
102
{ACAD_REACTORS
330
165
102
}
330
165
100
AcDbXrecord
280
     1
290
     1
  0
SORTENTSTABLE
  5
1D7E
102
{ACAD_REACTORS
330
81
102
}
330
81
100
AcDbSortentsTable
330
1F
331
1433
  5
145A
331
13DC
  5
13DC
331
147E
  5
14B3
331
22AB
  5
22AB
331
13D8
  5
13D8
331
142B
  5
1456
331
147A
  5
148F
331
15F6
  5
1D96
331
15A7
  5
15CE
331
15F2
  5
1D92
331
14D0
  5
158D
331
15EE
  5
1664
331
1D9D
  5
1447
331
14C8
  5
158B
331
15EA
  5
1602
331
1D99
  5
1446
331
20F4
  5
20F4
331
1E25
  5
1E25
331
268E
  5
268D
331
21B7
  5
21B7
331
159F
  5
15C5
331
15E6
  5
15FD
331
1D95
  5
1444
331
14C0
  5
1586
331
15E2
  5
15FA
331
1D91
  5
142C
331
14BC
  5
1523
331
15DE
  5
15F6
331
1D7D
  5
15D8
331
15DA
  5
15F2
331
1462
  5
1480
331
267E
  5
267D
331
21AF
  5
21AF
331
140B
  5
140B
331
1407
  5
1407
331
145A
  5
147D
331
158F
  5
15A3
331
14B4
  5
1522
331
15C6
  5
15E4
331
1494
  5
1520
331
15C2
  5
15DF
331
1490
  5
151E
331
1456
  5
147A
331
13FB
  5
13FB
331
144E
  5
1475
331
13F3
  5
13F3
331
15BE
  5
15D9
331
148C
  5
14D0
331
1523
  5
1596
331
151F
  5
1592
331
1601
  5
1DA0
331
15BA
  5
15D6
331
1488
  5
14C6
331
15FD
  5
1D9D
331
15F9
  5
1D99
331
1480
  5
14BC
331
1432
  5
1459
331
13DB
  5
13DB
331
147D
  5
1494
331
142A
  5
1450
331
1479
  5
148E
331
15F5
  5
1D95
331
15F1
  5
1D91
331
15A6
  5
15CD
331
15A2
  5
15C8
331
15ED
  5
164B
331
1D9C
  5
1433
331
15E9
  5
1601
331
1D98
  5
1432
331
1475
  5
148C
331
1416
  5
144A
331
21B6
  5
21B6
331
1E20
  5
1E20
331
159E
  5
15C4
331
15E5
  5
15FC
331
1D94
  5
1440
331
15E1
  5
15F9
331
1596
  5
15B8
331
15DD
  5
15F5
331
15D9
  5
15F1
331
1465
  5
1483
331
21AE
  5
21AE
331
1461
  5
147F
331
1406
  5
1406
331
1459
  5
147C
331
204B
  5
204B
331
1402
  5
1402
331
158E
  5
15A2
331
14B3
  5
1521
331
1586
  5
159A
331
15C5
  5
15E2
331
1493
  5
151F
331
15C1
  5
15DE
331
2047
  5
2047
331
13FE
  5
13FE
331
13F2
  5
13F2
331
1DA0
  5
1434
331
148F
  5
151D
331
1604
  5
1DA1
331
1522
  5
1595
331
151E
  5
1591
331
15B5
  5
15D1
331
15FC
  5
1D9C
331
151A
  5
158E
331
15F8
  5
1D98
331
147C
  5
1493
331
1478
  5
148D
331
15F4
  5
1D94
331
15F0
  5
1D7F
331
15A5
  5
15CB
331
15EC
  5
1604
331
15A1
  5
15C7
331
15E8
  5
15FF
331
1419
  5
144C
331
1415
  5
1449
331
1468
  5
1486
331
21B5
  5
21B5
331
268C
  5
268B
331
14C6
  5
158A
331
15E4
  5
15FB
331
1599
  5
15BC
331
1595
  5
15B5
331
14BE
  5
1544
331
15E0
  5
15F8
331
1D7F
  5
15D5
331
15DC
  5
15F4
331
1591
  5
15A5
331
1464
  5
1482
331
21AD
  5
21AD
331
1401
  5
1401
331
158D
  5
15A1
331
15C8
  5
15E6
331
15C4
  5
15E1
331
164B
  5
1DA2
331
13FD
  5
13FD
331
2195
  5
2195
331
1450
  5
1479
331
13F1
  5
13F1
331
2494
  5
2494
331
148E
  5
151C
331
1521
  5
1594
331
15B8
  5
15D2
331
15FF
  5
1D9F
331
151D
  5
1590
331
15B4
  5
15CF
331
15FB
  5
1D9B
331
1482
  5
14BE
331
1434
  5
145B
331
13DD
  5
13DD
331
147F
  5
14B4
331
13D9
  5
13D9
331
142C
  5
1457
331
147B
  5
1490
331
15F7
  5
1D97
331
15F3
  5
1D93
331
15EF
  5
1D7D
331
15A0
  5
15C6
331
15EB
  5
1603
331
14C9
  5
158C
331
1418
  5
144B
331
146B
  5
1487
331
21B4
  5
21B4
331
21B0
  5
21B0
331
15E7
  5
15FE
331
14C5
  5
1589
331
14C1
  5
1587
331
1598
  5
15BB
331
1594
  5
15B4
331
15DF
  5
15F7
331
14BD
  5
1524
331
15DB
  5
15F3
331
1590
  5
15A4
331
140C
  5
140C
331
1463
  5
1481
331
1E1E
  5
1E1E
331
20AD
  5
20AD
331
1408
  5
1408
331
267B
  5
2678
331
145B
  5
147E
331
1588
  5
159C
331
15C7
  5
15E5
331
15C3
  5
15E0
331
1457
  5
147B
331
13FC
  5
13FC
331
144F
  5
1478
331
13F0
  5
13F0
331
15BF
  5
15DC
331
148D
  5
151A
331
1524
  5
1597
331
15BB
  5
15D7
331
1489
  5
14C8
331
1520
  5
1593
331
15FE
  5
1D9E
331
151C
  5
158F
331
15FA
  5
1D9A
331
1481
  5
14BD
  0
XRECORD
  5
27DD
102
{ACAD_REACTORS
330
27DC
102
}
330
27DC
100
AcDbXrecord
280
     1
 40
1.570796326794896
  0
IMAGEDEF
  5
753
102
{ACAD_REACTORS
330
752
102
}
330
752
100
AcDbRasterImageDef
 90
        0
  1
L:\calink52\templates\ACO-Logo.jpg
 10
75.0
 20
57.0
 11
0.3527777777777778
 21
0.3527777777777778
280
     1
281
     5
  0
LAYOUT
  5
1E
102
{ACAD_REACTORS
330
1A
102
}
330
1A
100
AcDbPlotSettings
  1

  2
C:\Programme\Acadm 2000i\plotters\PH36.pc3
  4

  6

 40
0.0
 41
0.0
 42
0.0
 43
0.0
 44
0.0
 45
0.0
 46
0.0
 47
0.0
 48
0.0
 49
0.0
140
0.0
141
0.0
142
1.0
143
1.0
 70
   688
 72
     0
 73
     0
 74
     5
  7
monochrome.ctb
 75
    16
147
1.0
 76
     0
 77
     2
 78
   300
148
0.0
149
0.0
100
AcDbLayout
  1
Layout1
 70
     1
 71
     1
 10
0.0
 20
0.0
 11
420.0
 21
297.0
 12
0.0
 22
0.0
 32
0.0
 14
1.000000000000000E+20
 24
1.000000000000000E+20
 34
1.000000000000000E+20
 15
-1.000000000000000E+20
 25
-1.000000000000000E+20
 35
-1.000000000000000E+20
146
0.0
 13
0.0
 23
0.0
 33
0.0
 16
1.0
 26
0.0
 36
0.0
 17
0.0
 27
1.0
 37
0.0
 76
     0
330
1B
  0
LAYOUT
  5
26
102
{ACAD_REACTORS
330
1A
102
}
330
1A
100
AcDbPlotSettings
  1

  2
C:\Programme\Acadm 2000i\plotters\PH36.pc3
  4

  6

 40
0.0
 41
0.0
 42
0.0
 43
0.0
 44
0.0
 45
0.0
 46
0.0
 47
0.0
 48
0.0
 49
0.0
140
0.0
141
0.0
142
1.0
143
1.0
 70
   688
 72
     0
 73
     0
 74
     5
  7
monochrome.ctb
 75
    16
147
1.0
 76
     0
 77
     2
 78
   300
148
0.0
149
0.0
100
AcDbLayout
  1
Layout2
 70
     1
 71
     2
 10
0.0
 20
0.0
 11
12.0
 21
9.0
 12
0.0
 22
0.0
 32
0.0
 14
0.0
 24
0.0
 34
0.0
 15
0.0
 25
0.0
 35
0.0
146
0.0
 13
0.0
 23
0.0
 33
0.0
 16
1.0
 26
0.0
 36
0.0
 17
0.0
 27
1.0
 37
0.0
 76
     0
330
23
  0
LAYOUT
  5
22
102
{ACAD_REACTORS
330
1A
102
}
330
1A
100
AcDbPlotSettings
  1

  2
\\rd-sr-230\ST-PR-055
  4
A4
  6

 40
6.805083274841308
 41
5.619739055633544
 42
7.016738891601562
 43
7.14373779296875
 44
209.9733276367187
 45
296.9683227539062
 46
0.0
 47
3.395286941528354
 48
0.0000000000000257
 49
0.0
140
593.9999999999998
141
420.0
142
1.0
143
2.141202021330625
 70
 11956
 72
     1
 73
     1
 74
     4
  7
monochrome.ctb
 75
     0
147
0.4670273939768474
 76
     0
 77
     2
 78
   300
148
-0.0000000000000257
149
0.0
100
AcDbLayout
  1
Model
 70
     1
 71
     0
 10
0.0
 20
0.0
 11
12.0
 21
9.0
 12
0.0
 22
0.0
 32
0.0
 14
0.0
 24
0.0
 34
0.0
 15
0.0
 25
0.0
 35
0.0
146
0.0
 13
0.0
 23
0.0
 33
0.0
 16
1.0
 26
0.0
 36
0.0
 17
0.0
 27
1.0
 37
0.0
 76
     0
330
1F
331
110
1001
ACAD_PSEXT
1000
\\rd-sr-230\ST-PR-055
1000
Xerox Document Centre 440
1000
ST
1000
*** 
1070
     0
  0
MATERIAL
  5
11A
102
{ACAD_XDICTIONARY
360
11B
102
}
102
{ACAD_REACTORS
330
9A
102
}
330
9A
100
AcDbMaterial
  1
ByBlock
 72
     0
 43
0.0008202099737533
 43
0.0
 43
0.0
 43
0.0
 43
0.0
 43
0.0008202099737533
 43
0.0
 43
0.0
 43
0.0
 43
0.0
 43
1.0
 43
0.0
 43
0.0
 43
0.0
 43
0.0
 43
1.0
 77
     0
 47
0.0008202099737533
 47
0.0
 47
0.0
 47
0.0
 47
0.0
 47
0.0008202099737533
 47
0.0
 47
0.0
 47
0.0
 47
0.0
 47
1.0
 47
0.0
 47
0.0
 47
0.0
 47
0.0
 47
1.0
171
     0
 49
0.0008202099737533
 49
0.0
 49
0.0
 49
0.0
 49
0.0
 49
0.0008202099737533
 49
0.0
 49
0.0
 49
0.0
 49
0.0
 49
1.0
 49
0.0
 49
0.0
 49
0.0
 49
0.0
 49
1.0
175
     0
142
0.0008202099737533
142
0.0
142
0.0
142
0.0
142
0.0
142
0.0008202099737533
142
0.0
142
0.0
142
0.0
142
0.0
142
1.0
142
0.0
142
0.0
142
0.0
142
0.0
142
1.0
179
     0
144
0.0008202099737533
144
0.0
144
0.0
144
0.0
144
0.0
144
0.0008202099737533
144
0.0
144
0.0
144
0.0
144
0.0
144
1.0
144
0.0
144
0.0
144
0.0
144
0.0
144
1.0
147
0.0008202099737533
147
0.0
147
0.0
147
0.0
147
0.0
147
0.0008202099737533
147
0.0
147
0.0
147
0.0
147
0.0
147
1.0
147
0.0
147
0.0
147
0.0
147
0.0
147
1.0
  0
MATERIAL
  5
112
102
{ACAD_XDICTIONARY
360
113
102
}
102
{ACAD_REACTORS
330
9A
102
}
330
9A
100
AcDbMaterial
  1
ByLayer
 72
     0
 43
0.0008202099737533
 43
0.0
 43
0.0
 43
0.0
 43
0.0
 43
0.0008202099737533
 43
0.0
 43
0.0
 43
0.0
 43
0.0
 43
1.0
 43
0.0
 43
0.0
 43
0.0
 43
0.0
 43
1.0
 77
     0
 47
0.0008202099737533
 47
0.0
 47
0.0
 47
0.0
 47
0.0
 47
0.0008202099737533
 47
0.0
 47
0.0
 47
0.0
 47
0.0
 47
1.0
 47
0.0
 47
0.0
 47
0.0
 47
0.0
 47
1.0
171
     0
 49
0.0008202099737533
 49
0.0
 49
0.0
 49
0.0
 49
0.0
 49
0.0008202099737533
 49
0.0
 49
0.0
 49
0.0
 49
0.0
 49
1.0
 49
0.0
 49
0.0
 49
0.0
 49
0.0
 49
1.0
175
     0
142
0.0008202099737533
142
0.0
142
0.0
142
0.0
142
0.0
142
0.0008202099737533
142
0.0
142
0.0
142
0.0
142
0.0
142
1.0
142
0.0
142
0.0
142
0.0
142
0.0
142
1.0
179
     0
144
0.0008202099737533
144
0.0
144
0.0
144
0.0
144
0.0
144
0.0008202099737533
144
0.0
144
0.0
144
0.0
144
0.0
144
1.0
144
0.0
144
0.0
144
0.0
144
0.0
144
1.0
147
0.0008202099737533
147
0.0
147
0.0
147
0.0
147
0.0
147
0.0008202099737533
147
0.0
147
0.0
147
0.0
147
0.0
147
1.0
147
0.0
147
0.0
147
0.0
147
0.0
147
1.0
  0
MATERIAL
  5
122
102
{ACAD_XDICTIONARY
360
123
102
}
102
{ACAD_REACTORS
330
9A
102
}
330
9A
100
AcDbMaterial
  1
Global
 72
     0
 43
0.0008202099737533
 43
0.0
 43
0.0
 43
0.0
 43
0.0
 43
0.0008202099737533
 43
0.0
 43
0.0
 43
0.0
 43
0.0
 43
1.0
 43
0.0
 43
0.0
 43
0.0
 43
0.0
 43
1.0
 77
     0
 47
0.0008202099737533
 47
0.0
 47
0.0
 47
0.0
 47
0.0
 47
0.0008202099737533
 47
0.0
 47
0.0
 47
0.0
 47
0.0
 47
1.0
 47
0.0
 47
0.0
 47
0.0
 47
0.0
 47
1.0
171
     0
 49
0.0008202099737533
 49
0.0
 49
0.0
 49
0.0
 49
0.0
 49
0.0008202099737533
 49
0.0
 49
0.0
 49
0.0
 49
0.0
 49
1.0
 49
0.0
 49
0.0
 49
0.0
 49
0.0
 49
1.0
175
     0
142
0.0008202099737533
142
0.0
142
0.0
142
0.0
142
0.0
142
0.0008202099737533
142
0.0
142
0.0
142
0.0
142
0.0
142
1.0
142
0.0
142
0.0
142
0.0
142
0.0
142
1.0
179
     0
144
0.0008202099737533
144
0.0
144
0.0
144
0.0
144
0.0
144
0.0008202099737533
144
0.0
144
0.0
144
0.0
144
0.0
144
1.0
144
0.0
144
0.0
144
0.0
144
0.0
144
1.0
147
0.0008202099737533
147
0.0
147
0.0
147
0.0
147
0.0
147
0.0008202099737533
147
0.0
147
0.0
147
0.0
147
0.0
147
1.0
147
0.0
147
0.0
147
0.0
147
0.0
147
1.0
  0
MLEADERSTYLE
  5
15E
102
{ACAD_REACTORS
330
15D
102
}
330
15D
100
AcDbMLeaderStyle
170
     2
171
     1
172
     0
 90
        2
 40
0.0
 41
0.0
173
     1
 91
-1056964608
340
14
 92
       -2
290
     1
 42
2.0
291
     1
 43
0.36
  3
Standard
 44
4.0
300

342
11
174
     1
178
     6
175
     1
176
     0
 93
-1056964608
 45
4.0
292
     0
297
     0
 46
4.0
 94
-1056964608
 47
1.0
 49
1.0
140
1.0
293
     1
141
0.0
294
     1
177
     0
142
1.0
295
     0
296
     0
143
0.125
1001
ACAD_MLEADERVER
1070
     2
  0
MLINESTYLE
  5
18
102
{ACAD_REACTORS
330
17
102
}
330
17
100
AcDbMlineStyle
  2
STANDARD
 70
     0
  3

 62
   256
 51
90.0
 52
90.0
 71
     2
 49
0.5
 62
   256
  6
BYLAYER
 49
-0.5
 62
   256
  6
BYLAYER
  0
ACDBPLACEHOLDER
  5
F
102
{ACAD_REACTORS
330
E
102
}
330
E
  0
SCALE
  5
13C
102
{ACAD_REACTORS
330
13B
102
}
330
13B
100
AcDbScale
 70
     0
300
1:1
140
1.0
141
1.0
290
     1
  0
SCALE
  5
13D
102
{ACAD_REACTORS
330
13B
102
}
330
13B
100
AcDbScale
 70
     0
300
1:2
140
1.0
141
2.0
290
     0
  0
SCALE
  5
13E
102
{ACAD_REACTORS
330
13B
102
}
330
13B
100
AcDbScale
 70
     0
300
1:4
140
1.0
141
4.0
290
     0
  0
SCALE
  5
13F
102
{ACAD_REACTORS
330
13B
102
}
330
13B
100
AcDbScale
 70
     0
300
1:5
140
1.0
141
5.0
290
     0
  0
SCALE
  5
140
102
{ACAD_REACTORS
330
13B
102
}
330
13B
100
AcDbScale
 70
     0
300
1:8
140
1.0
141
8.0
290
     0
  0
SCALE
  5
141
102
{ACAD_REACTORS
330
13B
102
}
330
13B
100
AcDbScale
 70
     0
300
1:10
140
1.0
141
10.0
290
     0
  0
SCALE
  5
142
102
{ACAD_REACTORS
330
13B
102
}
330
13B
100
AcDbScale
 70
     0
300
1:16
140
1.0
141
16.0
290
     0
  0
SCALE
  5
143
102
{ACAD_REACTORS
330
13B
102
}
330
13B
100
AcDbScale
 70
     0
300
1:20
140
1.0
141
20.0
290
     0
  0
SCALE
  5
144
102
{ACAD_REACTORS
330
13B
102
}
330
13B
100
AcDbScale
 70
     0
300
1:30
140
1.0
141
30.0
290
     0
  0
SCALE
  5
145
102
{ACAD_REACTORS
330
13B
102
}
330
13B
100
AcDbScale
 70
     0
300
1:40
140
1.0
141
40.0
290
     0
  0
SCALE
  5
146
102
{ACAD_REACTORS
330
13B
102
}
330
13B
100
AcDbScale
 70
     0
300
1:50
140
1.0
141
50.0
290
     0
  0
SCALE
  5
147
102
{ACAD_REACTORS
330
13B
102
}
330
13B
100
AcDbScale
 70
     0
300
1:100
140
1.0
141
100.0
290
     0
  0
SCALE
  5
148
102
{ACAD_REACTORS
330
13B
102
}
330
13B
100
AcDbScale
 70
     0
300
2:1
140
2.0
141
1.0
290
     0
  0
SCALE
  5
149
102
{ACAD_REACTORS
330
13B
102
}
330
13B
100
AcDbScale
 70
     0
300
4:1
140
4.0
141
1.0
290
     0
  0
SCALE
  5
14A
102
{ACAD_REACTORS
330
13B
102
}
330
13B
100
AcDbScale
 70
     0
300
8:1
140
8.0
141
1.0
290
     0
  0
SCALE
  5
14B
102
{ACAD_REACTORS
330
13B
102
}
330
13B
100
AcDbScale
 70
     0
300
10:1
140
10.0
141
1.0
290
     0
  0
SCALE
  5
14C
102
{ACAD_REACTORS
330
13B
102
}
330
13B
100
AcDbScale
 70
     0
300
100:1
140
100.0
141
1.0
290
     0
  0
SCALE
  5
14D
102
{ACAD_REACTORS
330
13B
102
}
330
13B
100
AcDbScale
 70
     0
300
1/128" = 1'-0"
140
0.0078125
141
12.0
290
     0
  0
SCALE
  5
14E
102
{ACAD_REACTORS
330
13B
102
}
330
13B
100
AcDbScale
 70
     0
300
1/64" = 1'-0"
140
0.015625
141
12.0
290
     0
  0
SCALE
  5
14F
102
{ACAD_REACTORS
330
13B
102
}
330
13B
100
AcDbScale
 70
     0
300
1/32" = 1'-0"
140
0.03125
141
12.0
290
     0
  0
SCALE
  5
150
102
{ACAD_REACTORS
330
13B
102
}
330
13B
100
AcDbScale
 70
     0
300
1/16" = 1'-0"
140
0.0625
141
12.0
290
     0
  0
SCALE
  5
151
102
{ACAD_REACTORS
330
13B
102
}
330
13B
100
AcDbScale
 70
     0
300
3/32" = 1'-0"
140
0.09375
141
12.0
290
     0
  0
SCALE
  5
152
102
{ACAD_REACTORS
330
13B
102
}
330
13B
100
AcDbScale
 70
     0
300
1/8" = 1'-0"
140
0.125
141
12.0
290
     0
  0
SCALE
  5
153
102
{ACAD_REACTORS
330
13B
102
}
330
13B
100
AcDbScale
 70
     0
300
3/16" = 1'-0"
140
0.1875
141
12.0
290
     0
  0
SCALE
  5
154
102
{ACAD_REACTORS
330
13B
102
}
330
13B
100
AcDbScale
 70
     0
300
1/4" = 1'-0"
140
0.25
141
12.0
290
     0
  0
SCALE
  5
155
102
{ACAD_REACTORS
330
13B
102
}
330
13B
100
AcDbScale
 70
     0
300
3/8" = 1'-0"
140
0.375
141
12.0
290
     0
  0
SCALE
  5
156
102
{ACAD_REACTORS
330
13B
102
}
330
13B
100
AcDbScale
 70
     0
300
1/2" = 1'-0"
140
0.5
141
12.0
290
     0
  0
SCALE
  5
157
102
{ACAD_REACTORS
330
13B
102
}
330
13B
100
AcDbScale
 70
     0
300
3/4" = 1'-0"
140
0.75
141
12.0
290
     0
  0
SCALE
  5
158
102
{ACAD_REACTORS
330
13B
102
}
330
13B
100
AcDbScale
 70
     0
300
1" = 1'-0"
140
1.0
141
12.0
290
     0
  0
SCALE
  5
159
102
{ACAD_REACTORS
330
13B
102
}
330
13B
100
AcDbScale
 70
     0
300
1-1/2" = 1'-0"
140
1.5
141
12.0
290
     0
  0
SCALE
  5
15A
102
{ACAD_REACTORS
330
13B
102
}
330
13B
100
AcDbScale
 70
     0
300
3" = 1'-0"
140
3.0
141
12.0
290
     0
  0
SCALE
  5
15B
102
{ACAD_REACTORS
330
13B
102
}
330
13B
100
AcDbScale
 70
     0
300
6" = 1'-0"
140
6.0
141
12.0
290
     0
  0
SCALE
  5
15C
102
{ACAD_REACTORS
330
13B
102
}
330
13B
100
AcDbScale
 70
     0
300
1'-0" = 1'-0"
140
12.0
141
12.0
290
     0
  0
TABLESTYLE
  5
9D
102
{ACAD_XDICTIONARY
360
167
102
}
102
{ACAD_REACTORS
330
9C
102
}
330
9C
100
AcDbTableStyle
  3
Standard
 70
     0
 71
     0
 40
1.5
 41
1.5
280
     0
281
     0
  7
STANDARD
140
4.5
170
     2
 62
     0
 63
     7
283
     0
274
    -2
284
     1
 64
     0
275
    -2
285
     1
 65
     0
276
    -2
286
     1
 66
     0
277
    -2
287
     1
 67
     0
278
    -2
288
     1
 68
     0
279
    -2
289
     1
 69
     0
  7
STANDARD
140
6.0
170
     5
 62
     0
 63
     7
283
     0
274
    -2
284
     1
 64
     0
275
    -2
285
     1
 65
     0
276
    -2
286
     1
 66
     0
277
    -2
287
     1
 67
     0
278
    -2
288
     1
 68
     0
279
    -2
289
     1
 69
     0
  7
STANDARD
140
4.5
170
     5
 62
     0
 63
     7
283
     0
274
    -2
284
     1
 64
     0
275
    -2
285
     1
 65
     0
276
    -2
286
     1
 66
     0
277
    -2
287
     1
 67
     0
278
    -2
288
     1
 68
     0
279
    -2
289
     1
 69
     0
  0
VISUALSTYLE
  5
130
102
{ACAD_REACTORS
330
12A
102
}
330
12A
100
AcDbVisualStyle
  2
2dWireframe
 70
     4
 71
     0
 72
     2
 73
     0
 90
        0
 40
-0.6
 41
-30.0
 62
     5
 63
     7
421
 16777215
 74
     1
 91
        4
 64
     7
 65
   257
 75
     1
175
     1
 42
1.0
 92
        0
 66
   257
 43
1.0
 76
     1
 77
     6
 78
     2
 67
     7
 79
     5
170
     0
171
     0
290
     0
174
     0
 93
        1
 44
0.0
173
     0
291
     0
 45
0.0
1001
ACAD
1000
AcDbSavedByObjectVersion
1070
     0
  0
VISUALSTYLE
  5
132
102
{ACAD_REACTORS
330
12A
102
}
330
12A
100
AcDbVisualStyle
  2
3D Hidden
 70
     6
 71
     1
 72
     2
 73
     2
 90
        0
 40
-0.6
 41
-30.0
 62
     5
 63
     7
421
 16777215
 74
     2
 91
        2
 64
     7
 65
   257
 75
     2
175
     1
 42
40.0
 92
        0
 66
   257
 43
1.0
 76
     1
 77
     6
 78
     2
 67
     7
 79
     3
170
     0
171
     0
290
     0
174
     0
 93
        1
 44
0.0
173
     0
291
     0
 45
0.0
1001
ACAD
1000
AcDbSavedByObjectVersion
1070
     0
  0
VISUALSTYLE
  5
131
102
{ACAD_REACTORS
330
12A
102
}
330
12A
100
AcDbVisualStyle
  2
3dWireframe
 70
     5
 71
     0
 72
     2
 73
     0
 90
        0
 40
-0.6
 41
-30.0
 62
     5
 63
     7
421
 16777215
 74
     1
 91
        4
 64
     7
 65
   257
 75
     1
175
     1
 42
1.0
 92
        0
 66
   257
 43
1.0
 76
     1
 77
     6
 78
     2
 67
     7
 79
     5
170
     0
171
     0
290
     0
174
     0
 93
        1
 44
0.0
173
     0
291
     0
 45
0.0
1001
ACAD
1000
AcDbSavedByObjectVersion
1070
     0
  0
VISUALSTYLE
  5
12F
102
{ACAD_REACTORS
330
12A
102
}
330
12A
100
AcDbVisualStyle
  2
Basic
 70
     7
 71
     1
 72
     0
 73
     1
 90
        0
 40
-0.6
 41
-30.0
 62
     5
 63
     7
421
 16777215
 74
     0
 91
        4
 64
     7
 65
   257
 75
     1
175
     1
 42
1.0
 92
        8
 66
     7
 43
1.0
 76
     1
 77
     6
 78
     2
 67
     7
 79
     5
170
     0
171
     0
290
     0
174
     0
 93
        1
 44
0.0
173
     0
291
     1
 45
0.0
1001
ACAD
1000
AcDbSavedByObjectVersion
1070
     0
  0
VISUALSTYLE
  5
136
102
{ACAD_REACTORS
330
12A
102
}
330
12A
100
AcDbVisualStyle
  2
Brighten
 70
    12
 71
     2
 72
     2
 73
     0
 90
        0
 40
-0.6
 41
-30.0
 62
     5
 63
     7
421
 16777215
 74
     1
 91
        4
 64
     7
 65
   257
 75
     1
175
     1
 42
1.0
 92
        8
 66
     7
 43
1.0
 76
     1
 77
     6
 78
     2
 67
     7
 79
     5
170
     0
171
     0
290
     0
174
     0
 93
        1
 44
50.0
173
     0
291
     1
 45
0.0
1001
ACAD
1000
AcDbSavedByObjectVersion
1070
     0
  0
VISUALSTYLE
  5
13A
102
{ACAD_REACTORS
330
12A
102
}
330
12A
100
AcDbVisualStyle
  2
ColorChange
 70
    16
 71
     2
 72
     2
 73
     3
 90
        0
 40
-0.6
 41
-30.0
 62
     5
 63
     8
421
  8421504
 74
     1
 91
        4
 64
     7
 65
   257
 75
     1
175
     1
 42
1.0
 92
        8
 66
     8
424
  8421504
 43
1.0
 76
     1
 77
     6
 78
     2
 67
     7
 79
     5
170
     0
171
     0
290
     0
174
     0
 93
        1
 44
0.0
173
     0
291
     1
 45
0.0
1001
ACAD
1000
AcDbSavedByObjectVersion
1070
     0
  0
VISUALSTYLE
  5
133
102
{ACAD_REACTORS
330
12A
102
}
330
12A
100
AcDbVisualStyle
  2
Conceptual
 70
     9
 71
     3
 72
     2
 73
     0
 90
        0
 40
-0.6
 41
-30.0
 62
     5
 63
     7
421
 16777215
 74
     2
 91
        2
 64
     7
 65
   257
 75
     1
175
     1
 42
40.0
 92
        8
 66
     7
 43
1.0
 76
     1
 77
     6
 78
     2
 67
     7
 79
     3
170
     0
171
     0
290
     0
174
     0
 93
        1
 44
0.0
173
     0
291
     0
 45
0.0
1001
ACAD
1000
AcDbSavedByObjectVersion
1070
     0
  0
VISUALSTYLE
  5
135
102
{ACAD_REACTORS
330
12A
102
}
330
12A
100
AcDbVisualStyle
  2
Dim
 70
    11
 71
     2
 72
     2
 73
     0
 90
        0
 40
-0.6
 41
-30.0
 62
     5
 63
     7
421
 16777215
 74
     1
 91
        4
 64
     7
 65
   257
 75
     1
175
     1
 42
1.0
 92
        8
 66
     7
 43
1.0
 76
     1
 77
     6
 78
     2
 67
     7
 79
     5
170
     0
171
     0
290
     0
174
     0
 93
        1
 44
-50.0
173
     0
291
     1
 45
0.0
1001
ACAD
1000
AcDbSavedByObjectVersion
1070
     0
  0
VISUALSTYLE
  5
139
102
{ACAD_REACTORS
330
12A
102
}
330
12A
100
AcDbVisualStyle
  2
Facepattern
 70
    15
 71
     2
 72
     2
 73
     0
 90
        0
 40
-0.6
 41
-30.0
 62
     5
 63
     7
421
 16777215
 74
     1
 91
        4
 64
     7
 65
   257
 75
     1
175
     1
 42
1.0
 92
        8
 66
     7
 43
1.0
 76
     1
 77
     6
 78
     2
 67
     7
 79
     5
170
     0
171
     0
290
     0
174
     0
 93
        1
 44
0.0
173
     0
291
     1
 45
0.0
1001
ACAD
1000
AcDbSavedByObjectVersion
1070
     0
  0
VISUALSTYLE
  5
12B
102
{ACAD_REACTORS
330
12A
102
}
330
12A
100
AcDbVisualStyle
  2
Flat
 70
     0
 71
     2
 72
     1
 73
     1
 90
        2
 40
-0.6
 41
30.0
 62
     5
 63
     7
421
 16777215
 74
     0
 91
        4
 64
     7
 65
   257
 75
     1
175
     1
 42
1.0
 92
        8
 66
     7
 43
1.0
 76
     1
 77
     6
 78
     2
 67
     7
 79
     5
170
     0
171
     0
290
     0
174
     0
 93
       13
 44
0.0
173
     0
291
     1
 45
0.0
1001
ACAD
1000
AcDbSavedByObjectVersion
1070
     0
  0
VISUALSTYLE
  5
12C
102
{ACAD_REACTORS
330
12A
102
}
330
12A
100
AcDbVisualStyle
  2
FlatWithEdges
 70
     1
 71
     2
 72
     1
 73
     1
 90
        2
 40
-0.6
 41
30.0
 62
     5
 63
     7
421
 16777215
 74
     1
 91
        4
 64
     7
 65
   257
 75
     1
175
     1
 42
1.0
 92
        0
 66
   257
 43
1.0
 76
     1
 77
     6
 78
     2
 67
     7
 79
     5
170
     0
171
     0
290
     0
174
     0
 93
       13
 44
0.0
173
     0
291
     1
 45
0.0
1001
ACAD
1000
AcDbSavedByObjectVersion
1070
     0
  0
VISUALSTYLE
  5
12D
102
{ACAD_REACTORS
330
12A
102
}
330
12A
100
AcDbVisualStyle
  2
Gouraud
 70
     2
 71
     2
 72
     2
 73
     1
 90
        2
 40
-0.6
 41
30.0
 62
     5
 63
     7
421
 16777215
 74
     0
 91
        4
 64
     7
 65
   257
 75
     1
175
     1
 42
1.0
 92
        0
 66
     7
 43
1.0
 76
     1
 77
     6
 78
     2
 67
     7
 79
     5
170
     0
171
     0
290
     0
174
     0
 93
       13
 44
0.0
173
     0
291
     1
 45
0.0
1001
ACAD
1000
AcDbSavedByObjectVersion
1070
     0
  0
VISUALSTYLE
  5
12E
102
{ACAD_REACTORS
330
12A
102
}
330
12A
100
AcDbVisualStyle
  2
GouraudWithEdges
 70
     3
 71
     2
 72
     2
 73
     1
 90
        2
 40
-0.6
 41
30.0
 62
     5
 63
     7
421
 16777215
 74
     1
 91
        4
 64
     7
 65
   257
 75
     1
175
     1
 42
1.0
 92
        0
 66
   257
 43
1.0
 76
     1
 77
     6
 78
     2
 67
     7
 79
     5
170
     0
171
     0
290
     0
174
     0
 93
       13
 44
0.0
173
     0
291
     1
 45
0.0
1001
ACAD
1000
AcDbSavedByObjectVersion
1070
     0
  0
VISUALSTYLE
  5
138
102
{ACAD_REACTORS
330
12A
102
}
330
12A
100
AcDbVisualStyle
  2
Linepattern
 70
    14
 71
     2
 72
     2
 73
     0
 90
        0
 40
-0.6
 41
-30.0
 62
     5
 63
     7
421
 16777215
 74
     1
 91
        4
 64
     7
 65
   257
 75
     7
175
     7
 42
1.0
 92
        8
 66
     7
 43
1.0
 76
     1
 77
     6
 78
     2
 67
     7
 79
     5
170
     0
171
     0
290
     0
174
     0
 93
        1
 44
0.0
173
     0
291
     1
 45
0.0
1001
ACAD
1000
AcDbSavedByObjectVersion
1070
     0
  0
VISUALSTYLE
  5
134
102
{ACAD_REACTORS
330
12A
102
}
330
12A
100
AcDbVisualStyle
  2
Realistic
 70
     8
 71
     2
 72
     2
 73
     0
 90
        0
 40
-0.6
 41
-30.0
 62
     5
 63
     7
421
 16777215
 74
     1
 91
        0
 64
     7
 65
   257
 75
     1
175
     1
 42
1.0
 92
        8
 66
     8
424
  7895160
 43
1.0
 76
     1
 77
     6
 78
     2
 67
     7
 79
     5
170
     0
171
     0
290
     0
174
     0
 93
       13
 44
0.0
173
     0
291
     0
 45
0.0
1001
ACAD
1000
AcDbSavedByObjectVersion
1070
     0
  0
VISUALSTYLE
  5
137
102
{ACAD_REACTORS
330
12A
102
}
330
12A
100
AcDbVisualStyle
  2
Thicken
 70
    13
 71
     2
 72
     2
 73
     0
 90
        0
 40
-0.6
 41
-30.0
 62
     5
 63
     7
421
 16777215
 74
     1
 91
        4
 64
     7
 65
   257
 75
     1
175
     1
 42
1.0
 92
       12
 66
     7
 43
1.0
 76
     1
 77
     6
 78
     2
 67
     7
 79
     5
170
     0
171
     0
290
     0
174
     0
 93
        1
 44
0.0
173
     0
291
     1
 45
0.0
1001
ACAD
1000
AcDbSavedByObjectVersion
1070
     0
  0
DICTIONARYVAR
  5
16C
102
{ACAD_REACTORS
330
34
102
}
330
34
100
DictionaryVariables
280
     0
  1
1:1
  0
DICTIONARYVAR
  5
16A
102
{ACAD_REACTORS
330
34
102
}
330
34
100
DictionaryVariables
280
     0
  1
STANDARD
  0
DICTIONARYVAR
  5
10F
102
{ACAD_REACTORS
330
34
102
}
330
34
100
DictionaryVariables
280
     0
  1
STANDARD
  0
DICTIONARYVAR
  5
35
102
{ACAD_REACTORS
330
34
102
}
330
34
100
DictionaryVariables
280
     0
  1
1
  0
DICTIONARYVAR
  5
216F
102
{ACAD_REACTORS
330
34
102
}
330
34
100
DictionaryVariables
280
     0
  1
1
  0
DICTIONARYVAR
  5
2170
102
{ACAD_REACTORS
330
34
102
}
330
34
100
DictionaryVariables
280
     0
  1
15
  0
DICTIONARYVAR
  5
16D
102
{ACAD_REACTORS
330
34
102
}
330
34
100
DictionaryVariables
280
     0
  1
0
  0
DICTIONARYVAR
  5
16B
102
{ACAD_REACTORS
330
34
102
}
330
34
100
DictionaryVariables
280
     0
  1
0
  0
DICTIONARY
  5
4C
102
{ACAD_REACTORS
330
47
102
}
330
47
100
AcDbDictionary
281
     1
  0
XRECORD
  5
F5
102
{ACAD_REACTORS
330
47
102
}
330
47
100
AcDbXrecord
280
     1
 90
-1023410169
  0
DICTIONARY
  5
11B
330
11A
100
AcDbDictionary
280
     1
281
     1
  3
ACAD_XREC_ROUNDTRIP
360
27E0
  3
BUMPTILE
360
11D
  3
DIFFUSETILE
360
11C
  3
OPACITYTILE
360
120
  3
REFLECTIONTILE
360
11F
  3
REFRACTIONTILE
360
121
  3
SPECULARTILE
360
11E
  0
DICTIONARY
  5
113
330
112
100
AcDbDictionary
280
     1
281
     1
  3
ACAD_XREC_ROUNDTRIP
360
27DF
  3
BUMPTILE
360
115
  3
DIFFUSETILE
360
114
  3
OPACITYTILE
360
118
  3
REFLECTIONTILE
360
117
  3
REFRACTIONTILE
360
119
  3
SPECULARTILE
360
116
  0
DICTIONARY
  5
123
330
122
100
AcDbDictionary
280
     1
281
     1
  3
ACAD_XREC_ROUNDTRIP
360
27E1
  3
BUMPTILE
360
125
  3
DIFFUSETILE
360
124
  3
OPACITYTILE
360
128
  3
REFLECTIONTILE
360
127
  3
REFRACTIONTILE
360
129
  3
SPECULARTILE
360
126
  0
DICTIONARY
  5
167
330
9D
100
AcDbDictionary
280
     1
281
     1
  3
ACAD_ROUNDTRIP_2008_TABLESTYLE_CELLSTYLEMAP
360
27DB
  3
ACAD_XREC_ROUNDTRIP
360
27DE
  0
XRECORD
  5
27E0
102
{ACAD_REACTORS
330
11B
102
}
330
11B
100
AcDbXrecord
280
     1
102
MATERIAL
148
0.0
149
0.0
149
0.0
 93
        0
 94
      127
282
     0
 72
     0
 77
     0
171
     0
175
     0
179
     0
273
     0
  0
XRECORD
  5
11D
102
{ACAD_REACTORS
330
11B
102
}
330
11B
100
AcDbXrecord
280
     1
270
     1
271
     1
  0
XRECORD
  5
11C
102
{ACAD_REACTORS
330
11B
102
}
330
11B
100
AcDbXrecord
280
     1
270
     1
271
     1
  0
XRECORD
  5
120
102
{ACAD_REACTORS
330
11B
102
}
330
11B
100
AcDbXrecord
280
     1
270
     1
271
     1
  0
XRECORD
  5
11F
102
{ACAD_REACTORS
330
11B
102
}
330
11B
100
AcDbXrecord
280
     1
270
     1
271
     1
  0
XRECORD
  5
121
102
{ACAD_REACTORS
330
11B
102
}
330
11B
100
AcDbXrecord
280
     1
270
     1
271
     1
  0
XRECORD
  5
11E
102
{ACAD_REACTORS
330
11B
102
}
330
11B
100
AcDbXrecord
280
     1
270
     1
271
     1
  0
XRECORD
  5
27DF
102
{ACAD_REACTORS
330
113
102
}
330
113
100
AcDbXrecord
280
     1
102
MATERIAL
148
0.0
149
0.0
149
0.0
 93
        0
 94
      127
282
     0
 72
     0
 77
     0
171
     0
175
     0
179
     0
273
     0
  0
XRECORD
  5
115
102
{ACAD_REACTORS
330
113
102
}
330
113
100
AcDbXrecord
280
     1
270
     1
271
     1
  0
XRECORD
  5
114
102
{ACAD_REACTORS
330
113
102
}
330
113
100
AcDbXrecord
280
     1
270
     1
271
     1
  0
XRECORD
  5
118
102
{ACAD_REACTORS
330
113
102
}
330
113
100
AcDbXrecord
280
     1
270
     1
271
     1
  0
XRECORD
  5
117
102
{ACAD_REACTORS
330
113
102
}
330
113
100
AcDbXrecord
280
     1
270
     1
271
     1
  0
XRECORD
  5
119
102
{ACAD_REACTORS
330
113
102
}
330
113
100
AcDbXrecord
280
     1
270
     1
271
     1
  0
XRECORD
  5
116
102
{ACAD_REACTORS
330
113
102
}
330
113
100
AcDbXrecord
280
     1
270
     1
271
     1
  0
XRECORD
  5
27E1
102
{ACAD_REACTORS
330
123
102
}
330
123
100
AcDbXrecord
280
     1
102
MATERIAL
148
0.0
149
0.0
149
0.0
 93
        0
 94
      127
282
     0
 72
     0
 77
     0
171
     0
175
     0
179
     0
273
     0
  0
XRECORD
  5
125
102
{ACAD_REACTORS
330
123
102
}
330
123
100
AcDbXrecord
280
     1
270
     1
271
     1
  0
XRECORD
  5
124
102
{ACAD_REACTORS
330
123
102
}
330
123
100
AcDbXrecord
280
     1
270
     1
271
     1
  0
XRECORD
  5
128
102
{ACAD_REACTORS
330
123
102
}
330
123
100
AcDbXrecord
280
     1
270
     1
271
     1
  0
XRECORD
  5
127
102
{ACAD_REACTORS
330
123
102
}
330
123
100
AcDbXrecord
280
     1
270
     1
271
     1
  0
XRECORD
  5
129
102
{ACAD_REACTORS
330
123
102
}
330
123
100
AcDbXrecord
280
     1
270
     1
271
     1
  0
XRECORD
  5
126
102
{ACAD_REACTORS
330
123
102
}
330
123
100
AcDbXrecord
280
     1
270
     1
271
     1
  0
CELLSTYLEMAP
  5
27DB
102
{ACAD_REACTORS
330
167
102
}
330
167
100
AcDbCellStyleMap
 90
        3
300
CELLSTYLE
  1
TABLEFORMAT_BEGIN
 90
        5
170
     1
 91
        0
 92
    32768
 62
   257
 93
        1
300
CONTENTFORMAT
  1
CONTENTFORMAT_BEGIN
 90
        0
 91
        0
 92
        4
 93
        0
300

 40
0.0
140
1.0
 94
        5
 62
     0
340
11
144
6.0
309
CONTENTFORMAT_END
171
     1
301
MARGIN
  1
CELLMARGIN_BEGIN
 40
1.5
 40
1.5
 40
1.5
 40
1.5
 40
0.18
 40
0.18
309
CELLMARGIN_END
 94
        6
 95
        1
302
GRIDFORMAT
  1
GRIDFORMAT_BEGIN
 90
        0
 91
        1
 62
     0
 92
       -2
340
0
 93
        0
 40
0.045
309
GRIDFORMAT_END
 95
        2
302
GRIDFORMAT
  1
GRIDFORMAT_BEGIN
 90
        0
 91
        1
 62
     0
 92
       -2
340
0
 93
        0
 40
0.045
309
GRIDFORMAT_END
 95
        4
302
GRIDFORMAT
  1
GRIDFORMAT_BEGIN
 90
        0
 91
        1
 62
     0
 92
       -2
340
0
 93
        0
 40
0.045
309
GRIDFORMAT_END
 95
        8
302
GRIDFORMAT
  1
GRIDFORMAT_BEGIN
 90
        0
 91
        1
 62
     0
 92
       -2
340
0
 93
        0
 40
0.045
309
GRIDFORMAT_END
 95
       16
302
GRIDFORMAT
  1
GRIDFORMAT_BEGIN
 90
        0
 91
        1
 62
     0
 92
       -2
340
0
 93
        0
 40
0.045
309
GRIDFORMAT_END
 95
       32
302
GRIDFORMAT
  1
GRIDFORMAT_BEGIN
 90
        0
 91
        1
 62
     0
 92
       -2
340
0
 93
        0
 40
0.045
309
GRIDFORMAT_END
309
TABLEFORMAT_END
  1
CELLSTYLE_BEGIN
 90
        1
 91
        1
300
_TITLE
309
CELLSTYLE_END
300
CELLSTYLE
  1
TABLEFORMAT_BEGIN
 90
        5
170
     1
 91
        0
 92
        0
 62
   257
 93
        1
300
CONTENTFORMAT
  1
CONTENTFORMAT_BEGIN
 90
        0
 91
        0
 92
        4
 93
        0
300

 40
0.0
140
1.0
 94
        5
 62
     0
340
11
144
4.5
309
CONTENTFORMAT_END
171
     1
301
MARGIN
  1
CELLMARGIN_BEGIN
 40
1.5
 40
1.5
 40
1.5
 40
1.5
 40
0.18
 40
0.18
309
CELLMARGIN_END
 94
        6
 95
        1
302
GRIDFORMAT
  1
GRIDFORMAT_BEGIN
 90
        0
 91
        1
 62
     0
 92
       -2
340
0
 93
        0
 40
0.045
309
GRIDFORMAT_END
 95
        2
302
GRIDFORMAT
  1
GRIDFORMAT_BEGIN
 90
        0
 91
        1
 62
     0
 92
       -2
340
0
 93
        0
 40
0.045
309
GRIDFORMAT_END
 95
        4
302
GRIDFORMAT
  1
GRIDFORMAT_BEGIN
 90
        0
 91
        1
 62
     0
 92
       -2
340
0
 93
        0
 40
0.045
309
GRIDFORMAT_END
 95
        8
302
GRIDFORMAT
  1
GRIDFORMAT_BEGIN
 90
        0
 91
        1
 62
     0
 92
       -2
340
0
 93
        0
 40
0.045
309
GRIDFORMAT_END
 95
       16
302
GRIDFORMAT
  1
GRIDFORMAT_BEGIN
 90
        0
 91
        1
 62
     0
 92
       -2
340
0
 93
        0
 40
0.045
309
GRIDFORMAT_END
 95
       32
302
GRIDFORMAT
  1
GRIDFORMAT_BEGIN
 90
        0
 91
        1
 62
     0
 92
       -2
340
0
 93
        0
 40
0.045
309
GRIDFORMAT_END
309
TABLEFORMAT_END
  1
CELLSTYLE_BEGIN
 90
        2
 91
        1
300
_HEADER
309
CELLSTYLE_END
300
CELLSTYLE
  1
TABLEFORMAT_BEGIN
 90
        5
170
     1
 91
        0
 92
        0
 62
   257
 93
        1
300
CONTENTFORMAT
  1
CONTENTFORMAT_BEGIN
 90
        0
 91
        0
 92
        4
 93
        0
300

 40
0.0
140
1.0
 94
        2
 62
     0
340
11
144
4.5
309
CONTENTFORMAT_END
171
     1
301
MARGIN
  1
CELLMARGIN_BEGIN
 40
1.5
 40
1.5
 40
1.5
 40
1.5
 40
0.18
 40
0.18
309
CELLMARGIN_END
 94
        6
 95
        1
302
GRIDFORMAT
  1
GRIDFORMAT_BEGIN
 90
        0
 91
        1
 62
     0
 92
       -2
340
0
 93
        0
 40
0.045
309
GRIDFORMAT_END
 95
        2
302
GRIDFORMAT
  1
GRIDFORMAT_BEGIN
 90
        0
 91
        1
 62
     0
 92
       -2
340
0
 93
        0
 40
0.045
309
GRIDFORMAT_END
 95
        4
302
GRIDFORMAT
  1
GRIDFORMAT_BEGIN
 90
        0
 91
        1
 62
     0
 92
       -2
340
0
 93
        0
 40
0.045
309
GRIDFORMAT_END
 95
        8
302
GRIDFORMAT
  1
GRIDFORMAT_BEGIN
 90
        0
 91
        1
 62
     0
 92
       -2
340
0
 93
        0
 40
0.045
309
GRIDFORMAT_END
 95
       16
302
GRIDFORMAT
  1
GRIDFORMAT_BEGIN
 90
        0
 91
        1
 62
     0
 92
       -2
340
0
 93
        0
 40
0.045
309
GRIDFORMAT_END
 95
       32
302
GRIDFORMAT
  1
GRIDFORMAT_BEGIN
 90
        0
 91
        1
 62
     0
 92
       -2
340
0
 93
        0
 40
0.045
309
GRIDFORMAT_END
309
TABLEFORMAT_END
  1
CELLSTYLE_BEGIN
 90
        3
 91
        2
300
_DATA
309
CELLSTYLE_END
  0
XRECORD
  5
27DE
102
{ACAD_REACTORS
330
167
102
}
330
167
100
AcDbXrecord
280
     1
102
ACAD_ROUNDTRIP_PRE2007_TABLESTYLE
 90
        4
 91
        0
  1

 92
        4
 93
        0
  2

 94
        4
 95
        0
  3

  0
ENDSEC
  0
EOF
