  0
SECTION
  2
HEADER
  9
$ACADVER
  1
AC1015
  9
$ACADMAINTVER
 70
    20
  9
$DWGCODEPAGE
  3
ANSI_1252
  9
$INSBASE
 10
0.0
 20
0.0
 30
0.0
  9
$EXTMIN
 10
1129.939148757739
 20
669.7190129168362
 30
-0.0000000349181948
  9
$EXTMAX
 10
1975.404175097884
 20
1698.608288358339
 30
0.0000000814935746
  9
$LIMMIN
 10
0.0
 20
0.0
  9
$LIMMAX
 10
420.0
 20
297.0
  9
$ORTHOMODE
 70
     1
  9
$REGENMODE
 70
     1
  9
$FILLMODE
 70
     1
  9
$QTEXTMODE
 70
     0
  9
$MIRRTEXT
 70
     1
  9
$LTSCALE
 40
1.0
  9
$ATTMODE
 70
     1
  9
$TEXTSIZE
 40
2.5
  9
$TRACEWID
 40
1.0
  9
$TEXTSTYLE
  7
STANDARD
  9
$CLAYER
  8
0
  9
$CELTYPE
  6
ByLayer
  9
$CECOLOR
 62
   256
  9
$CELTSCALE
 40
1.0
  9
$DISPSILH
 70
     0
  9
$DIMSCALE
 40
1.0
  9
$DIMASZ
 40
2.5
  9
$DIMEXO
 40
1.0
  9
$DIMDLI
 40
10.0
  9
$DIMRND
 40
0.0
  9
$DIMDLE
 40
0.0
  9
$DIMEXE
 40
1.0
  9
$DIMTP
 40
0.1
  9
$DIMTM
 40
0.1
  9
$DIMTXT
 40
3.5
  9
$DIMCEN
 40
0.0
  9
$DIMTSZ
 40
0.0
  9
$DIMTOL
 70
     0
  9
$DIMLIM
 70
     0
  9
$DIMTIH
 70
     0
  9
$DIMTOH
 70
     0
  9
$DIMSE1
 70
     0
  9
$DIMSE2
 70
     0
  9
$DIMTAD
 70
     1
  9
$DIMZIN
 70
     8
  9
$DIMBLK
  1

  9
$DIMASO
 70
     1
  9
$DIMSHO
 70
     1
  9
$DIMPOST
  1

  9
$DIMAPOST
  1
"
  9
$DIMALT
 70
     0
  9
$DIMALTD
 70
     2
  9
$DIMALTF
 40
0.0393701
  9
$DIMLFAC
 40
1.0
  9
$DIMTOFL
 70
     1
  9
$DIMTVP
 40
0.0
  9
$DIMTIX
 70
     0
  9
$DIMSOXD
 70
     0
  9
$DIMSAH
 70
     0
  9
$DIMBLK1
  1

  9
$DIMBLK2
  1

  9
$DIMSTYLE
  2
AM_ISO
  9
$DIMCLRD
 70
   256
  9
$DIMCLRE
 70
   256
  9
$DIMCLRT
 70
     2
  9
$DIMTFAC
 40
0.71
  9
$DIMGAP
 40
1.5
  9
$DIMJUST
 70
     0
  9
$DIMSD1
 70
     0
  9
$DIMSD2
 70
     0
  9
$DIMTOLJ
 70
     0
  9
$DIMTZIN
 70
     8
  9
$DIMALTZ
 70
     0
  9
$DIMALTTZ
 70
     0
  9
$DIMUPT
 70
     0
  9
$DIMDEC
 70
     2
  9
$DIMTDEC
 70
     3
  9
$DIMALTU
 70
     2
  9
$DIMALTTD
 70
     4
  9
$DIMTXSTY
  7
STANDARD
  9
$DIMAUNIT
 70
     0
  9
$DIMADEC
 70
     0
  9
$DIMALTRND
 40
0.0
  9
$DIMAZIN
 70
     2
  9
$DIMDSEP
 70
    46
  9
$DIMATFIT
 70
     3
  9
$DIMFRAC
 70
     0
  9
$DIMLDRBLK
  1

  9
$DIMLUNIT
 70
     2
  9
$DIMLWD
 70
    -1
  9
$DIMLWE
 70
    -1
  9
$DIMTMOVE
 70
     0
  9
$LUNITS
 70
     2
  9
$LUPREC
 70
     2
  9
$SKETCHINC
 40
1.0
  9
$FILLETRAD
 40
2.5
  9
$AUNITS
 70
     0
  9
$AUPREC
 70
     0
  9
$MENU
  1
.
  9
$ELEVATION
 40
0.0
  9
$PELEVATION
 40
0.0
  9
$THICKNESS
 40
0.0
  9
$LIMCHECK
 70
     0
  9
$CHAMFERA
 40
2.5
  9
$CHAMFERB
 40
2.5
  9
$CHAMFERC
 40
20.0
  9
$CHAMFERD
 40
0.0
  9
$SKPOLY
 70
     0
  9
$TDCREATE
 40
2454061.393494051
  9
$TDUCREATE
 40
2454061.351827385
  9
$TDUPDATE
 40
2454081.800469734
  9
$TDUUPDATE
 40
2454081.758803067
  9
$TDINDWG
 40
0.1235434259
  9
$TDUSRTIMER
 40
0.1235434259
  9
$USRTIMER
 70
     1
  9
$ANGBASE
 50
0.0
  9
$ANGDIR
 70
     0
  9
$PDMODE
 70
     0
  9
$PDSIZE
 40
0.0
  9
$PLINEWID
 40
0.0
  9
$SPLFRAME
 70
     0
  9
$SPLINETYPE
 70
     6
  9
$SPLINESEGS
 70
     8
  9
$HANDSEED
  5
1364
  9
$SURFTAB1
 70
     6
  9
$SURFTAB2
 70
     6
  9
$SURFTYPE
 70
     6
  9
$SURFU
 70
     6
  9
$SURFV
 70
     6
  9
$UCSBASE
  2

  9
$UCSNAME
  2

  9
$UCSORG
 10
0.0
 20
0.0
 30
0.0
  9
$UCSXDIR
 10
1.0
 20
0.0
 30
0.0
  9
$UCSYDIR
 10
0.0
 20
1.0
 30
0.0
  9
$UCSORTHOREF
  2

  9
$UCSORTHOVIEW
 70
     0
  9
$UCSORGTOP
 10
0.0
 20
0.0
 30
0.0
  9
$UCSORGBOTTOM
 10
0.0
 20
0.0
 30
0.0
  9
$UCSORGLEFT
 10
0.0
 20
0.0
 30
0.0
  9
$UCSORGRIGHT
 10
0.0
 20
0.0
 30
0.0
  9
$UCSORGFRONT
 10
0.0
 20
0.0
 30
0.0
  9
$UCSORGBACK
 10
0.0
 20
0.0
 30
0.0
  9
$PUCSBASE
  2

  9
$PUCSNAME
  2

  9
$PUCSORG
 10
0.0
 20
0.0
 30
0.0
  9
$PUCSXDIR
 10
1.0
 20
0.0
 30
0.0
  9
$PUCSYDIR
 10
0.0
 20
1.0
 30
0.0
  9
$PUCSORTHOREF
  2

  9
$PUCSORTHOVIEW
 70
     0
  9
$PUCSORGTOP
 10
0.0
 20
0.0
 30
0.0
  9
$PUCSORGBOTTOM
 10
0.0
 20
0.0
 30
0.0
  9
$PUCSORGLEFT
 10
0.0
 20
0.0
 30
0.0
  9
$PUCSORGRIGHT
 10
0.0
 20
0.0
 30
0.0
  9
$PUCSORGFRONT
 10
0.0
 20
0.0
 30
0.0
  9
$PUCSORGBACK
 10
0.0
 20
0.0
 30
0.0
  9
$USERI1
 70
     0
  9
$USERI2
 70
     0
  9
$USERI3
 70
     0
  9
$USERI4
 70
     0
  9
$USERI5
 70
     0
  9
$USERR1
 40
0.0
  9
$USERR2
 40
0.0
  9
$USERR3
 40
0.0
  9
$USERR4
 40
0.0
  9
$USERR5
 40
0.0
  9
$WORLDVIEW
 70
     1
  9
$SHADEDGE
 70
     3
  9
$SHADEDIF
 70
    70
  9
$TILEMODE
 70
     1
  9
$MAXACTVP
 70
    64
  9
$PINSBASE
 10
0.0
 20
0.0
 30
0.0
  9
$PLIMCHECK
 70
     0
  9
$PEXTMIN
 10
1.000000000000000E+20
 20
1.000000000000000E+20
 30
1.000000000000000E+20
  9
$PEXTMAX
 10
-1.000000000000000E+20
 20
-1.000000000000000E+20
 30
-1.000000000000000E+20
  9
$PLIMMIN
 10
0.0
 20
0.0
  9
$PLIMMAX
 10
420.0
 20
297.0
  9
$UNITMODE
 70
     0
  9
$VISRETAIN
 70
     1
  9
$PLINEGEN
 70
     0
  9
$PSLTSCALE
 70
     1
  9
$TREEDEPTH
 70
  3020
  9
$CMLSTYLE
  2
Standard
  9
$CMLJUST
 70
     0
  9
$CMLSCALE
 40
20.0
  9
$PROXYGRAPHICS
 70
     1
  9
$MEASUREMENT
 70
     1
  9
$CELWEIGHT
370
    -1
  9
$ENDCAPS
280
     0
  9
$JOINSTYLE
280
     0
  9
$LWDISPLAY
290
     0
  9
$INSUNITS
 70
     4
  9
$HYPERLINKBASE
  1

  9
$STYLESHEET
  1

  9
$XEDIT
290
     1
  9
$CEPSNTYPE
380
     0
  9
$PSTYLEMODE
290
     1
  9
$FINGERPRINTGUID
  2
{5FC7BB29-8AB1-42D8-9FBB-61620DE4C0D9}
  9
$VERSIONGUID
  2
{93426731-E895-41A8-8B4B-D806A7567E13}
  9
$EXTNAMES
290
     1
  9
$PSVPSCALE
 40
0.0
  9
$OLESTARTUP
290
     0
  0
ENDSEC
  0
SECTION
  2
CLASSES
  0
CLASS
  1
ACDBDICTIONARYWDFLT
  2
AcDbDictionaryWithDefault
  3
ObjectDBX Classes
 90
        0
280
     0
281
     0
  0
CLASS
  1
ACDBPLACEHOLDER
  2
AcDbPlaceHolder
  3
ObjectDBX Classes
 90
        0
280
     0
281
     0
  0
CLASS
  1
LAYOUT
  2
AcDbLayout
  3
ObjectDBX Classes
 90
        0
280
     0
281
     0
  0
CLASS
  1
ACME_DOCUMENT
  2
AcMeDbDoc
  3
AcMeServices
 90
        0
280
     0
281
     0
  0
CLASS
  1
AMGSETTINGSOBJ
  2
AmgSettingsObj
  3
"AcadM|Product Description: AutoCAD Mechanical 2000|Company: Autodesk"
 90
        0
280
     0
281
     0
  0
CLASS
  1
ACMESCOPE
  2
AcMeScope
  3
AcMeServices
 90
        0
280
     0
281
     0
  0
CLASS
  1
ACMECOMMANDHISTORY
  2
AcMeCommandHistory
  3
AcMeServices
 90
        0
280
     0
281
     0
  0
CLASS
  1
ACIMSYSVARMAN
  2
AcImSysVarManager
  3
AcMeServices
 90
        0
280
     0
281
     0
  0
CLASS
  1
ACIMREALSYSVAR
  2
AcImRealSysVar
  3
AcMeServices
 90
        0
280
     0
281
     0
  0
CLASS
  1
ACIMINTSYSVAR
  2
AcImIntSysVar
  3
AcMeServices
 90
        0
280
     0
281
     0
  0
CLASS
  1
ACMEDRAWINGMAN
  2
AcMeDrawingMan
  3
AcMeServices
 90
        0
280
     0
281
     0
  0
CLASS
  1
ACMEVIEW
  2
AcMeView
  3
AcMeServices
 90
        0
280
     0
281
     0
  0
CLASS
  1
ACDBENTITYCACHE
  2
AcMeEntityCache
  3
AcMeServices
 90
        0
280
     0
281
     0
  0
CLASS
  1
GSMANAGER
  2
AcMeGSManager
  3
AcMeServices
 90
        0
280
     0
281
     0
  0
CLASS
  1
AMDTINTERNALREACTOR
  2
AmdtInternalReactor
  3
AcMeServices
 90
        0
280
     0
281
     0
  0
CLASS
  1
ACMESTATEMGR
  2
AcMeStateMgr
  3
AcMeServices
 90
        0
280
     0
281
     0
  0
CLASS
  1
ACGREFMASTER
  2
AcGrefMaster
  3
AcAttribServices
 90
        0
280
     0
281
     0
  0
CLASS
  1
ACME_DATABASE
  2
AcMeDbDatabase
  3
AcMeServices
 90
        0
280
     0
281
     0
  0
CLASS
  1
ACRFINSADJUSTERMGR
  2
AcRfInsAdjusterMgr
  3
AcMeServices
 90
        0
280
     0
281
     0
  0
CLASS
  1
ACGREFACADMASTER
  2
AcGrefacadMaster
  3
AcGrefServices
 90
        0
280
     0
281
     0
  0
CLASS
  1
AMIMASTER
  2
AmiMaster
  3
AmiServices
 90
        0
280
     0
281
     0
  0
CLASS
  1
ACMDATADICTIONARY
  2
AcmDataDictionary
  3
"AcmSymBB|Product Description: AutoCAD Mechanical 2004 DX|Company: Autodesk"
 90
        0
280
     0
281
     0
  0
CLASS
  1
ACMDATAENTRYBLOCK
  2
AcmDataEntryBlock
  3
"AcmSymBB|Product Description: AutoCAD Mechanical 2004 DX|Company: Autodesk"
 90
        0
280
     0
281
     0
  0
CLASS
  1
ACIMSTRSYSVAR
  2
AcImStrSysVar
  3
AcMeServices
 90
        0
280
     0
281
     0
  0
CLASS
  1
ACMSTANDARDISO
  2
AcmStandardISO
  3
"Amdt_StdImp|Product Description: AutoCAD Mechanical 2004 DX|Company: Autodesk"
 90
        0
280
     0
281
     0
  0
CLASS
  1
AMGOBJPROPCFG
  2
AmgObjPropCfg
  3
"AmgLay|Product Description: AutoCAD Mechanical 2000|Company: Autodesk"
 90
        1
280
     0
281
     0
  0
CLASS
  1
AMDTEDGESTANDARDISO
  2
AmdtEdgeStdISO
  3
"Amdt_StdImp|Product Description: AutoCAD Mechanical 2004 DX|Company: Autodesk"
 90
        0
280
     0
281
     0
  0
CLASS
  1
ACMSURFSTANDARDISO
  2
AcmSurfTextStdISO
  3
"Amdt_StdImp|Product Description: AutoCAD Mechanical 2004 DX|Company: Autodesk"
 90
        0
280
     0
281
     0
  0
CLASS
  1
ACMFCFSTANDARDISO
  2
AcmFCFStdISO
  3
"Amdt_StdImp|Product Description: AutoCAD Mechanical 2004 DX|Company: Autodesk"
 90
        0
280
     0
281
     0
  0
CLASS
  1
ACMWELDSTANDARDISO
  2
AcmWeldingStdISO
  3
"Amdt_StdImp|Product Description: AutoCAD Mechanical 2004 DX|Company: Autodesk"
 90
        0
280
     0
281
     0
  0
CLASS
  1
ACMIDSTANDARDISO
  2
AcmIdStdISO
  3
"Amdt_StdImp|Product Description: AutoCAD Mechanical 2004 DX|Company: Autodesk"
 90
        0
280
     0
281
     0
  0
CLASS
  1
ACMDATUMSTANDARDISO
  2
AcmDatumStdISO
  3
"Amdt_StdImp|Product Description: AutoCAD Mechanical 2004 DX|Company: Autodesk"
 90
        0
280
     0
281
     0
  0
CLASS
  1
ACMBOMSTANDARDISO
  2
AcmBOMStdISO
  3
"Amdt_StdImp|Product Description: AutoCAD Mechanical 2004 DX|Company: Autodesk"
 90
        0
280
     0
281
     0
  0
CLASS
  1
ACMDETAILSTANDARDISO
  2
AmdtDetailSymStdISO
  3
"Amdt_StdImp|Product Description: AutoCAD Mechanical 2004 DX|Company: Autodesk"
 90
        0
280
     0
281
     0
  0
CLASS
  1
ACMSECTIONSTANDARDISO
  2
AmdtSectionSymStdISO
  3
"Amdt_StdImp|Product Description: AutoCAD Mechanical 2004 DX|Company: Autodesk"
 90
        0
280
     0
281
     0
  0
CLASS
  1
ACMCENTERLINESTANDARDISO
  2
AmdtCenterLineStdISO
  3
"Amdt_StdImp|Product Description: AutoCAD Mechanical 2004 DX|Company: Autodesk"
 90
        0
280
     0
281
     0
  0
CLASS
  1
ACMNOTESTANDARDISO
  2
AmdtNoteStdISO
  3
"Amdt_StdImp|Product Description: AutoCAD Mechanical 2004 DX|Company: Autodesk"
 90
        0
280
     0
281
     0
  0
CLASS
  1
ACAMGLAYSTD
  2
AcAmgLayStd
  3
"AcAmgLayStd|Product Description: AutoCAD Mechanical 2000|Company: Autodesk"
 90
        0
280
     0
281
     0
  0
CLASS
  1
ACAMGDIMSTD
  2
AcAmgDimStd
  3
"AcAmgDimStd|Product Description: AutoCAD Mechanical 2000|Company: Autodesk"
 90
        0
280
     0
281
     0
  0
CLASS
  1
ACAMGHOLECHARTSTDISO
  2
AcAmgHoleChartStdISO
  3
ACMSYMBB_MODULE_NAME
 90
        0
280
     0
281
     0
  0
CLASS
  1
ACAMGTITLESTD
  2
AcAmgTitleStd
  3
"TITLEAPP"
 90
        0
280
     0
281
     0
  0
CLASS
  1
LAYER_INDEX
  2
AcDbLayerIndex
  3
ObjectDBX Classes
 90
    32768
280
     0
281
     0
  0
CLASS
  1
IDBUFFER
  2
AcDbIdBuffer
  3
ObjectDBX Classes
 90
    32768
280
     0
281
     0
  0
CLASS
  1
DICTIONARYVAR
  2
AcDbDictionaryVar
  3
ObjectDBX Classes
 90
        0
280
     0
281
     0
  0
CLASS
  1
AM_DRAWING_MGR
  2
AcDmDwgMgr
  3
AcMechDwgViewMgmt
 90
        0
280
     0
281
     0
  0
CLASS
  1
AM_DWG_DOCUMENT
  2
AcDmDwgDocument
  3
AcMechDwgViewMgmt
 90
        0
280
     0
281
     0
  0
CLASS
  1
AM_DWG_SHEET
  2
AcDmSheet
  3
AcMechDwgViewMgmt
 90
        0
280
     0
281
     0
  0
CLASS
  1
AM_VIEWDIMPARMAP
  2
AcDmViewDimParMap
  3
AcMechDwgViewMgmt
 90
        0
280
     0
281
     0
  0
CLASS
  1
AM_DWGMGR_NAME
  2
AcDmDwgMgrName
  3
AcMechDwgViewMgmt
 90
        0
280
     0
281
     0
  0
CLASS
  1
AMDTMENUSTATEMGR
  2
AmdtMenuStateMgr
  3
McadcomServices
 90
        0
280
     0
281
     0
  0
CLASS
  1
AMDTMCOMMENUSTATE
  2
AmdtMcomMenuState
  3
McadcomServices
 90
        0
280
     0
281
     0
  0
CLASS
  1
MAPIAMMOUDLE
  2
MApiAmModule
  3
MApiAmServices
 90
        0
280
     0
281
     0
  0
CLASS
  1
AMDTADMENUSTATE
  2
AmdtAdMenuState
  3
DesignerServices
 90
        0
280
     0
281
     0
  0
CLASS
  1
ADAPPL
  2
AcAdAppl
  3
DesignerServices
 90
        0
280
     0
281
     0
  0
CLASS
  1
DEPMGR
  2
AcAdDepMgr
  3
DesignerServices
 90
        0
280
     0
281
     0
  0
CLASS
  1
PARAMMGR
  2
AcAdParamMgr
  3
DesignerServices
 90
        0
280
     0
281
     0
  0
CLASS
  1
PARAMSCOPE
  2
AcAdParamScope
  3
DesignerServices
 90
        0
280
     0
281
     0
  0
CLASS
  1
NAMEDAPPL
  2
AcAdNamedAppl
  3
DesignerServices
 90
        0
280
     0
281
     0
  0
CLASS
  1
AMDTDMMENUSTATE
  2
AmdtDmMenuState
  3
AcMechDwgViewMgmt
 90
        0
280
     0
281
     0
  0
CLASS
  1
AMDTAMMENUSTATE
  2
AmdtAmMenuState
  3
DesignerAssemblies
 90
        0
280
     0
281
     0
  0
CLASS
  1
ACAMPROJECT
  2
AcAmProject
  3
DesignerAssemblies
 90
        0
280
     0
281
     0
  0
CLASS
  1
ACAMGRCOMPDEF
  2
AcAmGrCompDef
  3
DesignerAssemblies
 90
        0
280
     0
281
     0
  0
CLASS
  1
ACCMCONTEXT
  2
AcCmContext
  3
DesignerAssemblies
 90
        0
280
     0
281
     0
  0
CLASS
  1
ACAMCOMPDEF
  2
AcAmCompDef
  3
DesignerAssemblies
 90
        0
280
     0
281
     0
  0
CLASS
  1
ACAMCOMPDEFMGR
  2
AcAmCompDefMgr
  3
DesignerAssemblies
 90
        0
280
     0
281
     0
  0
CLASS
  1
AMCONTEXTMGR
  2
AcAmContextMgr
  3
DesignerAssemblies
 90
        0
280
     0
281
     0
  0
CLASS
  1
ACAMCONTEXTMODELER
  2
AcAmContextModeler
  3
DesignerAssemblies
 90
        0
280
     0
281
     0
  0
CLASS
  1
ACMTHREADLINESTANDARDISO
  2
AmdtThreadLineStdISO
  3
"Amdt_StdImp|Product Description: AutoCAD Mechanical 2004 DX|Company: Autodesk"
 90
        0
280
     0
281
     0
  0
CLASS
  1
CATALOGSTATE
  2
AcAmCatalogState
  3
DesignerAssemblies
 90
        0
280
     0
281
     0
  0
CLASS
  1
ACAMGRCOMPDEFSET
  2
AcAmGrCompDefSet
  3
DesignerAssemblies
 90
        0
280
     0
281
     0
  0
CLASS
  1
AMDTBROWSERDBTAB
  2
AmdtBrowserDbTab
  3
McadcomServices
 90
        0
280
     0
281
     0
  0
CLASS
  1
CBROWSERAPPOBJECT
  2
CBrowserAppObject
  3
McadcomServices
 90
        0
280
     0
281
     0
  0
CLASS
  1
DM_PLACEHOLDER
  2
AcDmSelsetPlaceholder
  3
AcMechDwgViewMgmt
 90
        0
280
     0
281
     0
  0
CLASS
  1
TABLESTYLE
  2
AcDbTableStyle
  3
ObjectDBX Classes
 90
     2047
280
     0
281
     0
  0
CLASS
  1
VAACXREFPANELOBJECT
  2
VaAcXREFPanelObject
  3
VAAC_ADDIN
 90
    32768
280
     0
281
     0
  0
CLASS
  1
VAACIMAGEINVENTORY
  2
VaAcImageInventory
  3
VAAC_ADDIN
 90
    32768
280
     0
281
     0
  0
CLASS
  1
AMDTNOTETEMPLATEDB
  2
AmdtNoteTemplateDB
  3
AMDT_STDIMP_MODULE_NAME
 90
        0
280
     0
281
     0
  0
CLASS
  1
ACAMGFILTERDAT
  2
AcAmgFilterDat
  3
"AcadM|Product Description: AutoCAD Mechanical 2000|Company: Autodesk"
 90
        0
280
     0
281
     0
  0
CLASS
  1
ACMBOM
  2
AcmBom
  3
"AcmSymBB|Product Description: AutoCAD Mechanical 2004 DX|Company: Autodesk"
 90
    32768
280
     0
281
     0
  0
CLASS
  1
AMDTFORMULAUPDATEDISPATCHER
  2
AmdtFormulaUpdateDispatcher
  3
AcMeServices
 90
    32768
280
     0
281
     0
  0
CLASS
  1
DIMASSOC
  2
AcDbDimAssoc
  3
"AcDbDimAssoc|Product Desc:     AcDim ARX App For Dimension|Company:          Autodesk, Inc.|WEB Address:      www.autodesk.com"
 90
        0
280
     0
281
     0
  0
CLASS
  1
ACMSTANDARDANSI
  2
AcmStandardANSI
  3
"Amdt_StdImp|Product Description: AutoCAD Mechanical 2004 DX|Company: Autodesk"
 90
        0
280
     0
281
     0
  0
CLASS
  1
ACMSURFSTANDARDANSI
  2
AcmSurfTextStdANSI
  3
"Amdt_StdImp|Product Description: AutoCAD Mechanical 2004 DX|Company: Autodesk"
 90
        0
280
     0
281
     0
  0
CLASS
  1
ACMFCFSTANDARDANSI
  2
AcmFCFStdANSI
  3
"Amdt_StdImp|Product Description: AutoCAD Mechanical 2004 DX|Company: Autodesk"
 90
        0
280
     0
281
     0
  0
CLASS
  1
ACMWELDSTANDARDANSI
  2
AcmWeldingStdANSI
  3
"Amdt_StdImp|Product Description: AutoCAD Mechanical 2004 DX|Company: Autodesk"
 90
        0
280
     0
281
     0
  0
CLASS
  1
ACMIDSTANDARDANSI
  2
AcmIdStdANSI
  3
"Amdt_StdImp|Product Description: AutoCAD Mechanical 2004 DX|Company: Autodesk"
 90
        0
280
     0
281
     0
  0
CLASS
  1
ACMDATUMSTANDARDANSI
  2
AcmDatumStdANSI
  3
"Amdt_StdImp|Product Description: AutoCAD Mechanical 2004 DX|Company: Autodesk"
 90
        0
280
     0
281
     0
  0
CLASS
  1
ACMBOMSTANDARDANSI
  2
AcmBOMStdANSI
  3
"Amdt_StdImp|Product Description: AutoCAD Mechanical 2004 DX|Company: Autodesk"
 90
        0
280
     0
281
     0
  0
CLASS
  1
ACMDETAILSTANDARDANSI
  2
AmdtDetailSymStdANSI
  3
"Amdt_StdImp|Product Description: AutoCAD Mechanical 2004 DX|Company: Autodesk"
 90
        0
280
     0
281
     0
  0
CLASS
  1
ACMSECTIONSTANDARDANSI
  2
AmdtSectionSymStdANSI
  3
"Amdt_StdImp|Product Description: AutoCAD Mechanical 2004 DX|Company: Autodesk"
 90
        0
280
     0
281
     0
  0
CLASS
  1
ACMCENTERLINESTANDARDANSI
  2
AmdtCenterLineStdANSI
  3
"Amdt_StdImp|Product Description: AutoCAD Mechanical 2004 DX|Company: Autodesk"
 90
        0
280
     0
281
     0
  0
CLASS
  1
ACMTHREADLINESTANDARDANSI
  2
AmdtThreadLineStdANSI
  3
"Amdt_StdImp|Product Description: AutoCAD Mechanical 2004 DX|Company: Autodesk"
 90
        0
280
     0
281
     0
  0
CLASS
  1
ACMNOTESTANDARDANSI
  2
AmdtNoteStdANSI
  3
"Amdt_StdImp|Product Description: AutoCAD Mechanical 2004 DX|Company: Autodesk"
 90
        0
280
     0
281
     0
  0
CLASS
  1
ACAMGHOLECHARTSTDANSI
  2
AcAmgHoleChartStdANSI
  3
ACMSYMBB_MODULE_NAME
 90
        0
280
     0
281
     0
  0
CLASS
  1
SORTENTSTABLE
  2
AcDbSortentsTable
  3
ObjectDBX Classes
 90
        0
280
     0
281
     0
  0
ENDSEC
  0
SECTION
  2
TABLES
  0
TABLE
  2
VPORT
  5
8
330
0
100
AcDbSymbolTable
 70
     4
  0
VPORT
  5
135B
330
8
100
AcDbSymbolTableRecord
100
AcDbViewportTableRecord
  2
*Active
 70
     0
 10
0.0
 20
0.0
 11
1.0
 21
1.0
 12
1552.671661927812
 22
1184.163650637588
 13
0.0
 23
0.0
 14
2.5
 24
2.5
 15
10.0
 25
10.0
 16
0.0
 26
0.0
 36
1.0
 17
0.0
 27
0.0
 37
0.0
 40
1036.363047418076
 41
1.494545454545454
 42
50.0
 43
0.0
 44
0.0
 50
0.0
 51
0.0
 71
     0
 72
   100
 73
     1
 74
     3
 75
     0
 76
     0
 77
     0
 78
     0
281
     0
 65
     1
110
0.0
120
0.0
130
0.0
111
1.0
121
0.0
131
0.0
112
0.0
122
1.0
132
0.0
 79
     0
146
0.0
  0
ENDTAB
  0
TABLE
  2
LTYPE
  5
5
330
0
100
AcDbSymbolTable
 70
    17
  0
LTYPE
  5
14
330
5
100
AcDbSymbolTableRecord
100
AcDbLinetypeTableRecord
  2
ByBlock
 70
     0
  3

 72
    65
 73
     0
 40
0.0
  0
LTYPE
  5
15
330
5
100
AcDbSymbolTableRecord
100
AcDbLinetypeTableRecord
  2
ByLayer
 70
     0
  3

 72
    65
 73
     0
 40
0.0
  0
LTYPE
  5
16
330
5
100
AcDbSymbolTableRecord
100
AcDbLinetypeTableRecord
  2
Continuous
 70
     0
  3
Solid line
 72
    65
 73
     0
 40
0.0
  0
LTYPE
  5
64
330
5
100
AcDbSymbolTableRecord
100
AcDbLinetypeTableRecord
  2
AM_ISO02W050
 70
     0
  3
__ __ __ __ __ __ __ __ __ __ __ __ __ __ __
 72
    65
 73
     2
 40
7.5
 49
6.0
 74
     0
 49
-1.5
 74
     0
  0
LTYPE
  5
65
330
5
100
AcDbSymbolTableRecord
100
AcDbLinetypeTableRecord
  2
AM_ISO08W050
 70
     0
  3
____ . ____ . ____ . ____ . ____ . ____ . ____
 72
    65
 73
     4
 40
18.0
 49
12.0
 74
     0
 49
-1.5
 74
     0
 49
3.0
 74
     0
 49
-1.5
 74
     0
  0
LTYPE
  5
66
330
5
100
AcDbSymbolTableRecord
100
AcDbLinetypeTableRecord
  2
AM_ISO09W050
 70
     0
  3
_____ . . _____ . . _____ . . ____ .. ____
 72
    65
 73
     6
 40
22.5
 49
12.0
 74
     0
 49
-1.5
 74
     0
 49
3.0
 74
     0
 49
-1.5
 74
     0
 49
3.0
 74
     0
 49
-1.5
 74
     0
  0
LTYPE
  5
67
330
5
100
AcDbSymbolTableRecord
100
AcDbLinetypeTableRecord
  2
Amconstr
 70
     0
  3
_______________________
 72
    65
 73
     2
 40
9999.0
 49
9999.0
 74
     0
 49
0.0
 74
     0
  0
LTYPE
  5
68
330
5
100
AcDbSymbolTableRecord
100
AcDbLinetypeTableRecord
  2
AM_ISO08W050x2
 70
     0
  3
__ . __ . __ . __ . __ . __
 72
    65
 73
     4
 40
9.0
 49
6.0
 74
     0
 49
-0.75
 74
     0
 49
1.5
 74
     0
 49
-0.75
 74
     0
  0
LTYPE
  5
69
330
5
100
AcDbSymbolTableRecord
100
AcDbLinetypeTableRecord
  2
AM_ISO02W050x2
 70
     0
  3
 _ _ _ _ _ _ _ _ _ _ _ _
 72
    65
 73
     2
 40
3.75
 49
3.0
 74
     0
 49
-0.75
 74
     0
  0
LTYPE
  5
6C
330
5
100
AcDbSymbolTableRecord
100
AcDbLinetypeTableRecord
  2
Amzigzag
 70
     0
  3
/\/-/\/-/\/-/\/-/\/-/\/
 72
    65
 73
     2
 40
11.0001
 49
0.0001
 74
     4
 75
   136
340
22C
 46
0.04
 50
0.0
 44
0.0
 45
0.0
 49
-11.0
 74
     0
  0
LTYPE
  5
7A
330
5
100
AcDbSymbolTableRecord
100
AcDbLinetypeTableRecord
  2
ACISOWELD
 70
     0
  3
_ _ _ _ _
 72
    65
 73
     2
 40
2.0
 49
2.0
 74
     0
 49
-1.0
 74
     0
  0
LTYPE
  5
7B
330
5
100
AcDbSymbolTableRecord
100
AcDbLinetypeTableRecord
  2
ACISOTGB
 70
     0
  3
__ . . __ . .
 72
    65
 73
     6
 40
9.0
 49
4.0
 74
     0
 49
-1.0
 74
     0
 49
1.0
 74
     0
 49
-1.0
 74
     0
 49
1.0
 74
     0
 49
-1.0
 74
     0
  0
LTYPE
  5
7C
330
5
100
AcDbSymbolTableRecord
100
AcDbLinetypeTableRecord
  2
ACISOTGL
 70
     0
  3
_ _ _ _ _
 72
    65
 73
     2
 40
3.0
 49
2.0
 74
     0
 49
-1.0
 74
     0
  0
LTYPE
  5
7E
330
5
100
AcDbSymbolTableRecord
100
AcDbLinetypeTableRecord
  2
CENTER
 70
     0
  3
__ . __
 72
    65
 73
     4
 40
7.0
 49
4.0
 74
     0
 49
-1.0
 74
     0
 49
1.0
 74
     0
 49
-1.0
 74
     0
  0
LTYPE
  5
D8
330
5
100
AcDbSymbolTableRecord
100
AcDbLinetypeTableRecord
  2
HIDDEN
 70
     0
  3
Hidden __ __ __ __ __ __ __ __ __ __ __ __ __ _
 72
    65
 73
     2
 40
9.524999999999998
 49
6.349999999999999
 74
     0
 49
-3.174999999999999
 74
     0
  0
LTYPE
  5
D9
330
5
100
AcDbSymbolTableRecord
100
AcDbLinetypeTableRecord
  2
PHANTOM2
 70
     0
  3
Phantom (.5x) ___ _ _ ___ _ _ ___ _ _ ___ _ _
 72
    65
 73
     6
 40
31.75
 49
15.875
 74
     0
 49
-3.174999999999999
 74
     0
 49
3.174999999999999
 74
     0
 49
-3.174999999999999
 74
     0
 49
3.174999999999999
 74
     0
 49
-3.174999999999999
 74
     0
  0
LTYPE
  5
490
330
5
100
AcDbSymbolTableRecord
100
AcDbLinetypeTableRecord
  2
GEN7A
 70
     0
  3
__ . __ . __
 72
    65
 73
     4
 40
6.875
 49
4.75
 74
     0
 49
-0.875
 74
     0
 49
0.375
 74
     0
 49
-0.875
 74
     0
  0
LTYPE
  5
494
330
5
100
AcDbSymbolTableRecord
100
AcDbLinetypeTableRecord
  2
ACANSTGB
 70
     0
  3
__ . . __ . .
 72
    65
 73
     6
 40
0.35433070866
 49
0.15748031496
 74
     0
 49
-0.03937007874
 74
     0
 49
0.03937007874
 74
     0
 49
-0.03937007874
 74
     0
 49
0.03937007874
 74
     0
 49
-0.03937007874
 74
     0
  0
LTYPE
  5
495
330
5
100
AcDbSymbolTableRecord
100
AcDbLinetypeTableRecord
  2
ACANSTGL
 70
     0
  3
_ _ _ _ _
 72
    65
 73
     2
 40
0.11811023622
 49
0.07874015748
 74
     0
 49
-0.03937007874
 74
     0
  0
ENDTAB
  0
TABLE
  2
LAYER
  5
2
330
0
100
AcDbSymbolTable
 70
     6
  0
LAYER
  5
10
330
2
100
AcDbSymbolTableRecord
100
AcDbLayerTableRecord
  2
0
 70
     0
 62
     7
  6
Continuous
370
    -3
390
F
  0
LAYER
  5
496
330
2
100
AcDbSymbolTableRecord
100
AcDbLayerTableRecord
  2
Defpoints
 70
     0
 62
     7
  6
Continuous
290
     0
370
    -3
390
F
  0
LAYER
  5
49A
330
2
100
AcDbSymbolTableRecord
100
AcDbLayerTableRecord
  2
7A
 70
     0
 62
     4
  6
GEN7A
370
    -3
390
F
  0
LAYER
  5
49B
330
2
100
AcDbSymbolTableRecord
100
AcDbLayerTableRecord
  2
8
 70
     0
 62
     1
  6
Continuous
370
    -3
390
F
  0
LAYER
  5
D0F
330
2
100
AcDbSymbolTableRecord
100
AcDbLayerTableRecord
  2
AM_5
 70
     0
 62
     3
  6
Continuous
370
    25
390
F
1001
AcAecLayerStandard
1000

1000

  0
ENDTAB
  0
TABLE
  2
STYLE
  5
3
330
0
100
AcDbSymbolTable
 70
     7
  0
STYLE
  5
11
330
3
100
AcDbSymbolTableRecord
100
AcDbTextStyleTableRecord
  2
STANDARD
 70
     0
 40
0.0
 41
1.0
 50
0.0
 71
     0
 42
2.5
  3
ISOCP.SHX
  4

  0
STYLE
  5
6D
330
3
100
AcDbSymbolTableRecord
100
AcDbTextStyleTableRecord
  2
ACISOTS
 70
     0
 40
1.0
 41
1.0
 50
0.0
 71
     0
 42
2.5
  3
isocp.shx
  4
bigfont.shx
  0
STYLE
  5
79
330
3
100
AcDbSymbolTableRecord
100
AcDbTextStyleTableRecord
  2
ACISOGDT
 70
     0
 40
0.0
 41
1.0
 50
0.0
 71
     0
 42
2.5
  3
AMGDT
  4
bigfont.shx
  0
STYLE
  5
22C
330
3
100
AcDbSymbolTableRecord
100
AcDbTextStyleTableRecord
  2

 70
     1
 40
0.0
 41
1.0
 50
0.0
 71
     0
 42
2.5
  3
genltshp.shx
  4

  0
STYLE
  5
49E
330
3
100
AcDbSymbolTableRecord
100
AcDbTextStyleTableRecord
  2
ACANSTS
 70
     0
 40
1.0
 41
1.0
 50
0.0
 71
     0
 42
0.2
  3
romans.shx
  4

  0
STYLE
  5
49F
330
3
100
AcDbSymbolTableRecord
100
AcDbTextStyleTableRecord
  2
ACANSGDT
 70
     0
 40
0.0
 41
1.0
 50
0.0
 71
     0
 42
0.2
  3
amgdt.shx
  4

  0
ENDTAB
  0
TABLE
  2
VIEW
  5
6
330
0
100
AcDbSymbolTable
 70
     0
  0
ENDTAB
  0
TABLE
  2
UCS
  5
7
330
0
100
AcDbSymbolTable
 70
     0
  0
ENDTAB
  0
TABLE
  2
APPID
  5
9
330
0
100
AcDbSymbolTable
 70
    23
  0
APPID
  5
12
330
9
100
AcDbSymbolTableRecord
100
AcDbRegAppTableRecord
  2
ACAD
 70
     0
  0
APPID
  5
46
330
9
100
AcDbSymbolTableRecord
100
AcDbRegAppTableRecord
  2
MCAD_NO_VIS
 70
     0
  0
APPID
  5
47
330
9
100
AcDbSymbolTableRecord
100
AcDbRegAppTableRecord
  2
ACAD_TEMP_GRAPHIC
 70
     0
  0
APPID
  5
58
330
9
100
AcDbSymbolTableRecord
100
AcDbRegAppTableRecord
  2
ACATTRIBSERVICES
 70
     0
  0
APPID
  5
EE
330
9
100
AcDbSymbolTableRecord
100
AcDbRegAppTableRecord
  2
AD_DRAW
 70
     0
  0
APPID
  5
10C
330
9
100
AcDbSymbolTableRecord
100
AcDbRegAppTableRecord
  2
DESIGNERASSEMBLIES
 70
     0
  0
APPID
  5
111
330
9
100
AcDbSymbolTableRecord
100
AcDbRegAppTableRecord
  2
ACADM_DIM_EDIT
 70
     0
  0
APPID
  5
112
330
9
100
AcDbSymbolTableRecord
100
AcDbRegAppTableRecord
  2
AMDT_DM_ADJ
 70
     0
  0
APPID
  5
1A3
330
9
100
AcDbSymbolTableRecord
100
AcDbRegAppTableRecord
  2
ACAD_DSTYLE_DIMARC_LENGTH_SYMBOL
 70
     0
  0
APPID
  5
1A4
330
9
100
AcDbSymbolTableRecord
100
AcDbRegAppTableRecord
  2
ACAD_DSTYLE_DIMJOGGED_JOGANGLE_SYMBOL
 70
     0
  0
APPID
  5
C10
330
9
100
AcDbSymbolTableRecord
100
AcDbRegAppTableRecord
  2
ACAD_EXEMPT_FROM_CAD_STANDARDS
 70
     0
  0
APPID
  5
CA5
330
9
100
AcDbSymbolTableRecord
100
AcDbRegAppTableRecord
  2
AcAecLayerStandard
 70
     0
  0
APPID
  5
D09
330
9
100
AcDbSymbolTableRecord
100
AcDbRegAppTableRecord
  2
GENIUS_GENOLIS_13
 70
     0
  0
APPID
  5
D0A
330
9
100
AcDbSymbolTableRecord
100
AcDbRegAppTableRecord
  2
GENIUS_GENODEF_13
 70
     0
  0
APPID
  5
D0B
330
9
100
AcDbSymbolTableRecord
100
AcDbRegAppTableRecord
  2
GENIUS_GENOENT_13
 70
     0
  0
APPID
  5
D0C
330
9
100
AcDbSymbolTableRecord
100
AcDbRegAppTableRecord
  2
GENIUS_GENOBJ-N-CRS_13
 70
     0
  0
APPID
  5
D0D
330
9
100
AcDbSymbolTableRecord
100
AcDbRegAppTableRecord
  2
GENIUS_GENOREF_13
 70
     0
  0
APPID
  5
DA1
330
9
100
AcDbSymbolTableRecord
100
AcDbRegAppTableRecord
  2
ACAD_DSTYLE_DIMTEXT_FILL
 70
     0
  0
APPID
  5
DA2
330
9
100
AcDbSymbolTableRecord
100
AcDbRegAppTableRecord
  2
ACAD_DSTYLE_DIMEXT_LENGTH
 70
     0
  0
APPID
  5
DA3
330
9
100
AcDbSymbolTableRecord
100
AcDbRegAppTableRecord
  2
ACAD_DSTYLE_DIMEXT_ENABLED
 70
     0
  0
APPID
  5
DA4
330
9
100
AcDbSymbolTableRecord
100
AcDbRegAppTableRecord
  2
ACAD_DSTYLE_DIM_LINETYPE
 70
     0
  0
APPID
  5
DA5
330
9
100
AcDbSymbolTableRecord
100
AcDbRegAppTableRecord
  2
ACAD_DSTYLE_DIM_EXT1_LINETYPE
 70
     0
  0
APPID
  5
DA6
330
9
100
AcDbSymbolTableRecord
100
AcDbRegAppTableRecord
  2
ACAD_DSTYLE_DIM_EXT2_LINETYPE
 70
     0
  0
ENDTAB
  0
TABLE
  2
DIMSTYLE
  5
A
330
0
100
AcDbSymbolTable
 70
    16
100
AcDbDimStyleTable
 71
     1
340
81
  0
DIMSTYLE
105
81
330
A
100
AcDbSymbolTableRecord
100
AcDbDimStyleTableRecord
  2
AM_ISO
 70
     0
  4
"
 41
2.5
 42
1.0
 43
10.0
 44
1.0
 47
0.1
 48
0.1
 73
     0
 74
     0
 77
     1
 78
     8
 79
     2
140
3.5
141
0.0
143
0.0393701
146
0.71
147
1.5
172
     1
176
   256
177
   256
178
     2
271
     2
272
     3
274
     4
283
     0
284
     8
340
11
371
    -1
372
    -1
1001
ACAD_DSTYLE_DIMARC_LENGTH_SYMBOL
1070
   379
1070
     1
1001
ACAD_DSTYLE_DIMJOGGED_JOGANGLE_SYMBOL
1070
   384
1040
0.7853981633974483
  0
DIMSTYLE
105
82
330
A
100
AcDbSymbolTableRecord
100
AcDbDimStyleTableRecord
  2
AM_ISO$3
 70
     0
  4
"
 41
2.5
 42
1.0
 43
10.0
 44
1.0
 47
0.1
 48
0.1
 73
     0
 77
     1
 78
     8
 79
     2
140
3.5
141
0.0
143
0.0393701
146
0.71
147
1.5
176
   256
177
   256
178
     2
271
     2
272
     3
274
     4
283
     0
284
     8
288
     1
289
     0
340
11
371
    -1
372
    -1
1001
ACAD_DSTYLE_DIMARC_LENGTH_SYMBOL
1070
   379
1070
     1
1001
ACAD_DSTYLE_DIMJOGGED_JOGANGLE_SYMBOL
1070
   384
1040
0.7853981633974483
  0
DIMSTYLE
105
83
330
A
100
AcDbSymbolTableRecord
100
AcDbDimStyleTableRecord
  2
AM_ISO$4
 70
     0
  4
"
 41
2.5
 42
1.0
 43
10.0
 44
1.0
 47
0.1
 48
0.1
 73
     0
 77
     1
 78
     8
 79
     2
140
3.5
141
0.0
143
0.0393701
146
0.71
147
1.5
176
   256
177
   256
178
     2
271
     2
272
     3
274
     4
283
     0
284
     8
288
     1
289
     0
340
11
371
    -1
372
    -1
1001
ACAD_DSTYLE_DIMARC_LENGTH_SYMBOL
1070
   379
1070
     1
1001
ACAD_DSTYLE_DIMJOGGED_JOGANGLE_SYMBOL
1070
   384
1040
0.7853981633974483
  0
DIMSTYLE
105
84
330
A
100
AcDbSymbolTableRecord
100
AcDbDimStyleTableRecord
  2
AM_ISO$6
 70
     0
  4
"
 41
2.5
 42
1.0
 43
10.0
 44
1.0
 47
0.1
 48
0.1
 73
     0
 74
     0
 78
     8
 79
     2
140
3.5
141
0.0
143
0.0393701
146
0.71
147
1.5
172
     1
176
   256
177
   256
178
     2
271
     2
272
     3
274
     4
283
     0
284
     8
340
11
371
    -1
372
    -1
1001
ACAD_DSTYLE_DIMARC_LENGTH_SYMBOL
1070
   379
1070
     1
1001
ACAD_DSTYLE_DIMJOGGED_JOGANGLE_SYMBOL
1070
   384
1040
0.7853981633974483
  0
DIMSTYLE
105
85
330
A
100
AcDbSymbolTableRecord
100
AcDbDimStyleTableRecord
  2
AM_ISO$7
 70
     0
  4
"
 41
2.5
 42
1.0
 43
10.0
 44
1.0
 47
0.1
 48
0.1
 73
     0
 74
     0
 77
     1
 78
     8
 79
     2
140
5.0
141
0.0
143
0.0393701
146
0.71
147
1.5
172
     1
176
   256
177
   256
178
     2
271
     2
272
     3
274
     4
283
     0
284
     8
340
11
371
    -1
372
    -1
1001
ACAD_DSTYLE_DIMARC_LENGTH_SYMBOL
1070
   379
1070
     1
1001
ACAD_DSTYLE_DIMJOGGED_JOGANGLE_SYMBOL
1070
   384
1040
0.7853981633974483
  0
DIMSTYLE
105
86
330
A
100
AcDbSymbolTableRecord
100
AcDbDimStyleTableRecord
  2
AM_ISO$SF
 70
     0
  4
"
 41
2.5
 42
1.0
 43
10.0
 44
1.0
 47
0.1
 48
0.1
 73
     0
 74
     0
 75
     1
 76
     1
 77
     1
 78
     8
 79
     2
140
3.5
141
0.0
143
0.0393701
146
0.71
147
1.5
172
     1
176
   256
177
   256
178
     2
271
     2
272
     3
274
     4
283
     0
284
     8
340
11
371
    -1
372
    -1
1001
ACAD_DSTYLE_DIMARC_LENGTH_SYMBOL
1070
   379
1070
     1
1001
ACAD_DSTYLE_DIMJOGGED_JOGANGLE_SYMBOL
1070
   384
1040
0.7853981633974483
  0
DIMSTYLE
105
8B
330
A
100
AcDbSymbolTableRecord
100
AcDbDimStyleTableRecord
  2
AM_ISO$SH
 70
     0
  4
"
 41
2.5
 42
1.0
 43
10.0
 44
1.0
 47
0.1
 48
0.1
 73
     0
 74
     0
 75
     1
 76
     1
 77
     1
 78
     8
 79
     2
140
3.5
141
0.0
143
0.0393701
144
2.0
146
0.71
147
1.5
172
     1
173
     1
176
   256
177
   256
178
     2
271
     2
272
     3
274
     4
283
     0
284
     8
340
11
343
87
371
    -1
372
    -1
1001
ACAD_DSTYLE_DIMARC_LENGTH_SYMBOL
1070
   379
1070
     1
1001
ACAD_DSTYLE_DIMJOGGED_JOGANGLE_SYMBOL
1070
   384
1040
0.7853981633974483
  0
DIMSTYLE
105
4A2
330
A
100
AcDbSymbolTableRecord
100
AcDbDimStyleTableRecord
  2
AM_ANSI
 70
     0
  4
mm
 41
0.1
 42
0.05
 43
0.5
 44
0.1
 47
0.1
 48
0.1
 78
     7
 79
     2
140
0.12
141
0.0
146
0.71
147
0.06
176
   256
177
   256
178
     2
274
     4
284
     7
340
11
371
    -1
372
    -1
1001
ACAD_DSTYLE_DIMARC_LENGTH_SYMBOL
1070
   379
1070
     1
1001
ACAD_DSTYLE_DIMJOGGED_JOGANGLE_SYMBOL
1070
   384
1040
0.7853981633974483
  0
DIMSTYLE
105
4A3
330
A
100
AcDbSymbolTableRecord
100
AcDbDimStyleTableRecord
  2
AM_ANSI$3
 70
     0
  4
mm
 41
0.1
 42
0.05
 43
0.5
 44
0.1
 47
0.1
 48
0.1
 78
     7
 79
     2
140
0.12
141
0.0
146
0.71
147
0.06
176
   256
177
   256
178
     2
274
     4
284
     7
288
     1
289
     0
340
11
371
    -1
372
    -1
1001
ACAD_DSTYLE_DIMARC_LENGTH_SYMBOL
1070
   379
1070
     1
1001
ACAD_DSTYLE_DIMJOGGED_JOGANGLE_SYMBOL
1070
   384
1040
0.7853981633974483
  0
DIMSTYLE
105
4A4
330
A
100
AcDbSymbolTableRecord
100
AcDbDimStyleTableRecord
  2
AM_ANSI$4
 70
     0
  4
mm
 41
0.1
 42
0.05
 43
0.5
 44
0.1
 47
0.1
 48
0.1
 78
     7
 79
     2
140
0.12
141
0.0
146
0.71
147
0.06
176
   256
177
   256
178
     2
274
     4
284
     7
288
     1
289
     0
340
11
371
    -1
372
    -1
1001
ACAD_DSTYLE_DIMARC_LENGTH_SYMBOL
1070
   379
1070
     1
1001
ACAD_DSTYLE_DIMJOGGED_JOGANGLE_SYMBOL
1070
   384
1040
0.7853981633974483
  0
DIMSTYLE
105
4A5
330
A
100
AcDbSymbolTableRecord
100
AcDbDimStyleTableRecord
  2
AM_ANSI$7
 70
     0
  4
mm
 41
0.1
 42
0.05
 43
0.5
 44
0.1
 47
0.1
 48
0.1
 78
     7
 79
     2
140
0.24
141
0.0
146
0.71
147
0.06
176
   256
177
   256
178
     2
274
     4
284
     7
340
11
371
    -1
372
    -1
1001
ACAD_DSTYLE_DIMARC_LENGTH_SYMBOL
1070
   379
1070
     1
1001
ACAD_DSTYLE_DIMJOGGED_JOGANGLE_SYMBOL
1070
   384
1040
0.7853981633974483
  0
DIMSTYLE
105
4A6
330
A
100
AcDbSymbolTableRecord
100
AcDbDimStyleTableRecord
  2
AM_ANSI$SF
 70
     0
  4
mm
 41
0.1
 42
0.05
 43
0.5
 44
0.1
 47
0.1
 48
0.1
 75
     1
 76
     1
 78
     7
 79
     2
140
0.12
141
0.0
146
0.71
147
0.06
176
   256
177
   256
178
     2
274
     4
284
     7
340
11
371
    -1
372
    -1
1001
ACAD_DSTYLE_DIMARC_LENGTH_SYMBOL
1070
   379
1070
     1
1001
ACAD_DSTYLE_DIMJOGGED_JOGANGLE_SYMBOL
1070
   384
1040
0.7853981633974483
  0
DIMSTYLE
105
4A7
330
A
100
AcDbSymbolTableRecord
100
AcDbDimStyleTableRecord
  2
AM_ANSI$SH
 70
     0
  4
mm
 41
0.1
 42
0.05
 43
0.5
 44
0.1
 47
0.1
 48
0.1
 75
     1
 76
     1
 78
     7
 79
     2
140
0.12
141
0.0
146
0.71
147
0.06
173
     1
176
   256
177
   256
178
     2
274
     4
284
     7
340
11
343
87
371
    -1
372
    -1
1001
ACAD_DSTYLE_DIMARC_LENGTH_SYMBOL
1070
   379
1070
     1
1001
ACAD_DSTYLE_DIMJOGGED_JOGANGLE_SYMBOL
1070
   384
1040
0.7853981633974483
  0
DIMSTYLE
105
D1B
102
{ACAD_REACTORS
330
FB7
330
EC8
330
E9E
330
DE3
330
E44
330
E16
330
FF7
330
1158
102
}
330
A
100
AcDbSymbolTableRecord
100
AcDbDimStyleTableRecord
  2
AM_ISO$0
 70
     0
  4
"
 41
2.5
 42
1.0
 43
10.0
 44
1.0
 47
0.1
 48
0.1
 73
     0
 74
     0
 77
     1
 78
     8
 79
     2
140
3.5
141
0.0
143
0.0393701
146
0.71
147
1.5
172
     1
176
   256
177
   256
178
     2
271
     2
272
     3
274
     4
283
     0
284
     8
340
11
371
    -1
372
    -1
1001
ACAD_DSTYLE_DIMARC_LENGTH_SYMBOL
1070
   379
1070
     1
1001
ACAD_DSTYLE_DIMJOGGED_JOGANGLE_SYMBOL
1070
   384
1040
0.7853981633974483
  0
ENDTAB
  0
TABLE
  2
BLOCK_RECORD
  5
1
330
0
100
AcDbSymbolTable
 70
    19
  0
BLOCK_RECORD
  5
1F
102
{ACAD_XDICTIONARY
360
8F
102
}
330
1
100
AcDbSymbolTableRecord
100
AcDbBlockTableRecord
  2
*Model_Space
340
22
  0
BLOCK_RECORD
  5
1B
330
1
100
AcDbSymbolTableRecord
100
AcDbBlockTableRecord
  2
*Paper_Space
340
1E
  0
BLOCK_RECORD
  5
23
330
1
100
AcDbSymbolTableRecord
100
AcDbBlockTableRecord
  2
*Paper_Space0
340
26
  0
BLOCK_RECORD
  5
87
330
1
100
AcDbSymbolTableRecord
100
AcDbBlockTableRecord
  2
GENAXEH
340
0
  0
BLOCK_RECORD
  5
DE4
330
1
100
AcDbSymbolTableRecord
100
AcDbBlockTableRecord
  2
*D3
340
0
  0
BLOCK_RECORD
  5
E17
330
1
100
AcDbSymbolTableRecord
100
AcDbBlockTableRecord
  2
*D4
340
0
  0
BLOCK_RECORD
  5
E45
330
1
100
AcDbSymbolTableRecord
100
AcDbBlockTableRecord
  2
*D5
340
0
  0
BLOCK_RECORD
  5
E9F
330
1
100
AcDbSymbolTableRecord
100
AcDbBlockTableRecord
  2
*D6
340
0
  0
BLOCK_RECORD
  5
EC9
330
1
100
AcDbSymbolTableRecord
100
AcDbBlockTableRecord
  2
*D7
340
0
  0
BLOCK_RECORD
  5
FB8
330
1
100
AcDbSymbolTableRecord
100
AcDbBlockTableRecord
  2
*D8
340
0
  0
BLOCK_RECORD
  5
FF8
330
1
100
AcDbSymbolTableRecord
100
AcDbBlockTableRecord
  2
*D9
340
0
  0
BLOCK_RECORD
  5
1159
330
1
100
AcDbSymbolTableRecord
100
AcDbBlockTableRecord
  2
*D10
340
0
  0
ENDTAB
  0
ENDSEC
  0
SECTION
  2
BLOCKS
  0
BLOCK
  5
20
330
1F
100
AcDbEntity
  8
0
100
AcDbBlockBegin
  2
*Model_Space
 70
     0
 10
0.0
 20
0.0
 30
0.0
  3
*Model_Space
  1

  0
ENDBLK
  5
21
330
1F
100
AcDbEntity
  8
0
100
AcDbBlockEnd
  0
BLOCK
  5
1C
330
1B
100
AcDbEntity
 67
     1
  8
0
100
AcDbBlockBegin
  2
*Paper_Space
 70
     0
 10
0.0
 20
0.0
 30
0.0
  3
*Paper_Space
  1

  0
ENDBLK
  5
1D
330
1B
100
AcDbEntity
 67
     1
  8
0
100
AcDbBlockEnd
  0
BLOCK
  5
24
330
23
100
AcDbEntity
 67
     1
  8
0
100
AcDbBlockBegin
  2
*Paper_Space0
 70
     0
 10
0.0
 20
0.0
 30
0.0
  3
*Paper_Space0
  1

  0
ENDBLK
  5
25
330
23
100
AcDbEntity
 67
     1
  8
0
100
AcDbBlockEnd
  0
BLOCK
  5
89
330
87
100
AcDbEntity
  8
0
100
AcDbBlockBegin
  2
GENAXEH
 70
     0
 10
0.0
 20
0.0
 30
0.0
  3
GENAXEH
  1

  0
LINE
  5
88
330
87
100
AcDbEntity
  8
0
100
AcDbLine
 10
-1.0
 20
0.0
 30
0.0
 11
1.0
 21
0.0
 31
0.0
  0
ENDBLK
  5
8A
330
87
100
AcDbEntity
  8
0
100
AcDbBlockEnd
  0
BLOCK
  5
DEE
330
DE4
100
AcDbEntity
  8
0
100
AcDbBlockBegin
  2
*D3
 70
     1
 10
0.0
 20
0.0
 30
0.0
  3
*D3
  1

  0
LINE
  5
12EC
330
DE4
100
AcDbEntity
  8
AM_5
100
AcDbLine
 10
1845.604885328934
 20
1451.108752969803
 30
0.0
 11
1845.604885328934
 21
1311.918172611148
 31
0.0
  0
LINE
  5
12ED
330
DE4
100
AcDbEntity
  8
AM_5
100
AcDbLine
 10
1484.604885328934
 20
1389.918173611148
 30
0.0
 11
1484.604885328934
 21
1311.918172611148
 31
0.0
  0
LINE
  5
12EE
330
DE4
100
AcDbEntity
  8
AM_5
100
AcDbLine
 10
1835.604885328935
 20
1312.918172611148
 30
0.0
 11
1494.604885328934
 21
1312.918172611148
 31
0.0
  0
SOLID
  5
12EF
330
DE4
100
AcDbEntity
  8
AM_5
100
AcDbTrace
 10
1835.604885328935
 20
1314.584839277815
 30
0.0
 11
1835.604885328935
 21
1311.251505944481
 31
0.0
 12
1845.604885328934
 22
1312.918172611148
 32
0.0
 13
1845.604885328934
 23
1312.918172611148
 33
0.0
  0
SOLID
  5
12F0
330
DE4
100
AcDbEntity
  8
AM_5
100
AcDbTrace
 10
1494.604885328934
 20
1314.584839277815
 30
0.0
 11
1494.604885328934
 21
1311.251505944481
 31
0.0
 12
1484.604885328934
 22
1312.918172611148
 32
0.0
 13
1484.604885328934
 23
1312.918172611148
 33
0.0
  0
MTEXT
  5
12F1
330
DE4
100
AcDbEntity
  8
AM_5
 62
     2
100
AcDbMText
 10
1665.104885328934
 20
1321.918172611148
 30
0.0
 40
15.0
 41
0.0
 71
     5
 72
     1
  1
361
 73
     1
 44
1.0
1001
ACAD
1000
MTEXTBEGIN
1070
    73
1070
     1
1070
    44
1040
1.0
1070
    74
1070
     0
1000
MTEXTEND
  0
POINT
  5
12F2
330
DE4
100
AcDbEntity
  8
Defpoints
 62
     0
100
AcDbPoint
 10
1845.604885328934
 20
1452.108752969803
 30
0.0
  0
POINT
  5
12F3
330
DE4
100
AcDbEntity
  8
Defpoints
 62
     0
100
AcDbPoint
 10
1484.604885328934
 20
1390.918173611148
 30
0.0
  0
POINT
  5
12F4
330
DE4
100
AcDbEntity
  8
Defpoints
 62
     0
100
AcDbPoint
 10
1484.604885328934
 20
1312.918172611148
 30
0.0
  0
ENDBLK
  5
DEF
330
DE4
100
AcDbEntity
  8
0
100
AcDbBlockEnd
  0
BLOCK
  5
E23
330
E17
100
AcDbEntity
  8
0
100
AcDbBlockBegin
  2
*D4
 70
     1
 10
0.0
 20
0.0
 30
0.0
  3
*D4
  1

  0
LINE
  5
131C
330
E17
100
AcDbEntity
  8
AM_5
100
AcDbLine
 10
1485.604885328934
 20
1634.418173611148
 30
0.0
 11
1725.76719144597
 21
1634.418173611148
 31
0.0
  0
LINE
  5
131D
330
E17
100
AcDbEntity
  8
AM_5
100
AcDbLine
 10
1485.604885328934
 20
1629.418173611148
 30
0.0
 11
1725.76719144597
 21
1629.418173611148
 31
0.0
  0
LINE
  5
131E
330
E17
100
AcDbEntity
  8
AM_5
100
AcDbLine
 10
1724.76719144597
 20
1644.418173611148
 30
0.0
 11
1724.76719144597
 21
1654.418173611147
 31
0.0
  0
LINE
  5
131F
330
E17
100
AcDbEntity
  8
AM_5
100
AcDbLine
 10
1724.76719144597
 20
1619.418173611148
 30
0.0
 11
1724.76719144597
 21
1599.796853267588
 31
0.0
  0
LINE
  5
1320
330
E17
100
AcDbEntity
  8
AM_5
100
AcDbLine
 10
1724.76719144597
 20
1634.418173611148
 30
0.0
 11
1724.76719144597
 21
1629.418173611148
 31
0.0
  0
SOLID
  5
1321
330
E17
100
AcDbEntity
  8
AM_5
100
AcDbTrace
 10
1723.100524779303
 20
1644.418173611148
 30
0.0
 11
1726.433858112636
 21
1644.418173611148
 31
0.0
 12
1724.76719144597
 22
1634.418173611148
 32
0.0
 13
1724.76719144597
 23
1634.418173611148
 33
0.0
  0
SOLID
  5
1322
330
E17
100
AcDbEntity
  8
AM_5
100
AcDbTrace
 10
1723.100524779303
 20
1619.418173611148
 30
0.0
 11
1726.433858112636
 21
1619.418173611148
 31
0.0
 12
1724.76719144597
 22
1629.418173611148
 32
0.0
 13
1724.76719144597
 23
1629.418173611148
 33
0.0
  0
MTEXT
  5
1323
330
E17
100
AcDbEntity
  8
AM_5
 62
     2
100
AcDbMText
 10
1715.767191445969
 20
1604.607513439368
 30
0.0
 40
15.0
 41
0.0
 71
     5
 72
     1
  1
5
 11
0.0000000000000001
 21
1.0
 31
0.0
 73
     1
 44
1.0
1001
ACAD
1000
MTEXTBEGIN
1070
    73
1070
     1
1070
    44
1040
1.0
1070
    74
1070
     0
1000
MTEXTEND
  0
POINT
  5
1324
330
E17
100
AcDbEntity
  8
Defpoints
 62
     0
100
AcDbPoint
 10
1484.604885328934
 20
1634.418173611148
 30
0.0
  0
POINT
  5
1325
330
E17
100
AcDbEntity
  8
Defpoints
 62
     0
100
AcDbPoint
 10
1484.604885328934
 20
1629.418173611148
 30
0.0
  0
POINT
  5
1326
330
E17
100
AcDbEntity
  8
Defpoints
 62
     0
100
AcDbPoint
 10
1724.76719144597
 20
1629.418173611148
 30
0.0
  0
ENDBLK
  5
E24
330
E17
100
AcDbEntity
  8
0
100
AcDbBlockEnd
  0
BLOCK
  5
E4F
330
E45
100
AcDbEntity
  8
0
100
AcDbBlockBegin
  2
*D5
 70
     1
 10
0.0
 20
0.0
 30
0.0
  3
*D5
  1

  0
LINE
  5
1304
330
E45
100
AcDbEntity
  8
AM_5
100
AcDbLine
 10
1683.604885328935
 20
1635.918173611148
 30
0.0
 11
1960.05790269378
 21
1635.918173611148
 31
0.0
  0
LINE
  5
1305
330
E45
100
AcDbEntity
  8
AM_5
100
AcDbLine
 10
1846.604885328934
 20
1452.108752969803
 30
0.0
 11
1960.057902693779
 21
1452.108752969803
 31
0.0
  0
LINE
  5
1306
330
E45
100
AcDbEntity
  8
AM_5
100
AcDbLine
 10
1959.057902693779
 20
1625.918173611148
 30
0.0
 11
1959.057902693779
 21
1462.108752969804
 31
0.0
  0
SOLID
  5
1307
330
E45
100
AcDbEntity
  8
AM_5
100
AcDbTrace
 10
1957.391236027113
 20
1625.918173611148
 30
0.0
 11
1960.724569360446
 21
1625.918173611148
 31
0.0
 12
1959.057902693779
 22
1635.918173611148
 32
0.0
 13
1959.057902693779
 23
1635.918173611148
 33
0.0
  0
SOLID
  5
1308
330
E45
100
AcDbEntity
  8
AM_5
100
AcDbTrace
 10
1957.391236027113
 20
1462.108752969804
 30
0.0
 11
1960.724569360446
 21
1462.108752969804
 31
0.0
 12
1959.057902693779
 22
1452.108752969803
 32
0.0
 13
1959.057902693779
 23
1452.108752969803
 33
0.0
  0
MTEXT
  5
1309
330
E45
100
AcDbEntity
  8
AM_5
 62
     2
100
AcDbMText
 10
1950.057902693779
 20
1544.013463290476
 30
0.0
 40
15.0
 41
0.0
 71
     5
 72
     1
  1
184
 11
0.0000000000000001
 21
1.0
 31
0.0
 73
     1
 44
1.0
1001
ACAD
1000
MTEXTBEGIN
1070
    73
1070
     1
1070
    44
1040
1.0
1070
    74
1070
     0
1000
MTEXTEND
  0
POINT
  5
130A
330
E45
100
AcDbEntity
  8
Defpoints
 62
     0
100
AcDbPoint
 10
1682.604885328935
 20
1635.918173611148
 30
0.0
  0
POINT
  5
130B
330
E45
100
AcDbEntity
  8
Defpoints
 62
     0
100
AcDbPoint
 10
1845.604885328934
 20
1452.108752969803
 30
0.0
  0
POINT
  5
130C
330
E45
100
AcDbEntity
  8
Defpoints
 62
     0
100
AcDbPoint
 10
1959.057902693779
 20
1452.108752969803
 30
0.0
  0
ENDBLK
  5
E50
330
E45
100
AcDbEntity
  8
0
100
AcDbBlockEnd
  0
BLOCK
  5
EA9
330
E9F
100
AcDbEntity
  8
0
100
AcDbBlockBegin
  2
*D6
 70
     1
 10
0.0
 20
0.0
 30
0.0
  3
*D6
  1

  0
LINE
  5
12D4
330
E9F
100
AcDbEntity
  8
AM_5
100
AcDbLine
 10
1300.604885328935
 20
1635.918173611148
 30
0.0
 11
1236.743043691495
 21
1635.918173611148
 31
0.0
  0
LINE
  5
12D5
330
E9F
100
AcDbEntity
  8
AM_5
100
AcDbLine
 10
1303.604885328934
 20
1580.918173611148
 30
0.0
 11
1236.743043691495
 21
1580.918173611148
 31
0.0
  0
LINE
  5
12D6
330
E9F
100
AcDbEntity
  8
AM_5
100
AcDbLine
 10
1237.743043691495
 20
1625.918173611148
 30
0.0
 11
1237.743043691495
 21
1590.918173611148
 31
0.0
  0
SOLID
  5
12D7
330
E9F
100
AcDbEntity
  8
AM_5
100
AcDbTrace
 10
1236.076377024828
 20
1625.918173611148
 30
0.0
 11
1239.409710358161
 21
1625.918173611148
 31
0.0
 12
1237.743043691495
 22
1635.918173611148
 32
0.0
 13
1237.743043691495
 23
1635.918173611148
 33
0.0
  0
SOLID
  5
12D8
330
E9F
100
AcDbEntity
  8
AM_5
100
AcDbTrace
 10
1236.076377024828
 20
1590.918173611148
 30
0.0
 11
1239.409710358161
 21
1590.918173611148
 31
0.0
 12
1237.743043691495
 22
1580.918173611148
 32
0.0
 13
1237.743043691495
 23
1580.918173611148
 33
0.0
  0
MTEXT
  5
12D9
330
E9F
100
AcDbEntity
  8
AM_5
 62
     2
100
AcDbMText
 10
1228.743043691494
 20
1608.418173611148
 30
0.0
 40
15.0
 41
0.0
 71
     5
 72
     1
  1
55
 11
0.0000000000000001
 21
1.0
 31
0.0
 73
     1
 44
1.0
1001
ACAD
1000
MTEXTBEGIN
1070
    73
1070
     1
1070
    44
1040
1.0
1070
    74
1070
     0
1000
MTEXTEND
  0
POINT
  5
12DA
330
E9F
100
AcDbEntity
  8
Defpoints
 62
     0
100
AcDbPoint
 10
1301.604885328935
 20
1635.918173611148
 30
0.0
  0
POINT
  5
12DB
330
E9F
100
AcDbEntity
  8
Defpoints
 62
     0
100
AcDbPoint
 10
1304.604885328935
 20
1580.918173611148
 30
0.0
  0
POINT
  5
12DC
330
E9F
100
AcDbEntity
  8
Defpoints
 62
     0
100
AcDbPoint
 10
1237.743043691495
 20
1580.918173611148
 30
0.0
  0
ENDBLK
  5
EAA
330
E9F
100
AcDbEntity
  8
0
100
AcDbBlockEnd
  0
BLOCK
  5
ED3
330
EC9
100
AcDbEntity
  8
0
100
AcDbBlockBegin
  2
*D7
 70
     1
 10
0.0
 20
0.0
 30
0.0
  3
*D7
  1

  0
LINE
  5
12BC
330
EC9
100
AcDbEntity
  8
AM_5
100
AcDbLine
 10
1285.604885328935
 20
1635.918173611148
 30
0.0
 11
1165.109863454214
 21
1635.918173611148
 31
0.0
  0
LINE
  5
12BD
330
EC9
100
AcDbEntity
  8
AM_5
100
AcDbLine
 10
1359.62492249819
 20
1390.918173611148
 30
0.0
 11
1165.109863454214
 21
1390.918173611148
 31
0.0
  0
LINE
  5
12BE
330
EC9
100
AcDbEntity
  8
AM_5
100
AcDbLine
 10
1166.109863454214
 20
1625.918173611148
 30
0.0
 11
1166.109863454214
 21
1400.918173611148
 31
0.0
  0
SOLID
  5
12BF
330
EC9
100
AcDbEntity
  8
AM_5
100
AcDbTrace
 10
1164.443196787547
 20
1625.918173611148
 30
0.0
 11
1167.776530120881
 21
1625.918173611148
 31
0.0
 12
1166.109863454214
 22
1635.918173611148
 32
0.0
 13
1166.109863454214
 23
1635.918173611148
 33
0.0
  0
SOLID
  5
12C0
330
EC9
100
AcDbEntity
  8
AM_5
100
AcDbTrace
 10
1164.443196787547
 20
1400.918173611148
 30
0.0
 11
1167.776530120881
 21
1400.918173611148
 31
0.0
 12
1166.109863454214
 22
1390.918173611148
 32
0.0
 13
1166.109863454214
 23
1390.918173611148
 33
0.0
  0
MTEXT
  5
12C1
330
EC9
100
AcDbEntity
  8
AM_5
 62
     2
100
AcDbMText
 10
1157.108387076261
 20
1513.418173611148
 30
0.0
 40
15.0
 41
0.0
 71
     5
 72
     1
  1
245
 11
0.0000000000000001
 21
1.0
 31
0.0
 73
     1
 44
1.0
1001
ACAD
1000
MTEXTBEGIN
1070
    73
1070
     1
1070
    44
1040
1.0
1070
    74
1070
     0
1000
MTEXTEND
  0
POINT
  5
12C2
330
EC9
100
AcDbEntity
  8
Defpoints
 62
     0
100
AcDbPoint
 10
1286.604885328934
 20
1635.918173611148
 30
0.0
  0
POINT
  5
12C3
330
EC9
100
AcDbEntity
  8
Defpoints
 62
     0
100
AcDbPoint
 10
1360.62492249819
 20
1390.918173611148
 30
0.0
  0
POINT
  5
12C4
330
EC9
100
AcDbEntity
  8
Defpoints
 62
     0
100
AcDbPoint
 10
1166.109863454214
 20
1390.918173611148
 30
0.0
  0
ENDBLK
  5
ED4
330
EC9
100
AcDbEntity
  8
0
100
AcDbBlockEnd
  0
BLOCK
  5
FC2
330
FB8
100
AcDbEntity
  8
0
100
AcDbBlockBegin
  2
*D8
 70
     1
 10
0.0
 20
0.0
 30
0.0
  3
*D8
  1

  0
LINE
  5
12A4
330
FB8
100
AcDbEntity
  8
AM_5
100
AcDbLine
 10
1304.604885328934
 20
1635.418173611148
 30
0.0
 11
1304.604885328934
 21
1682.982078000321
 31
0.0
  0
LINE
  5
12A5
330
FB8
100
AcDbEntity
  8
AM_5
100
AcDbLine
 10
1664.604885328933
 20
1635.418173611151
 30
0.0
 11
1664.604885328933
 21
1682.982078000321
 31
0.0
  0
LINE
  5
12A6
330
FB8
100
AcDbEntity
  8
AM_5
100
AcDbLine
 10
1314.604885328934
 20
1681.982078000321
 30
0.0
 11
1654.604885328933
 21
1681.982078000321
 31
0.0
  0
SOLID
  5
12A7
330
FB8
100
AcDbEntity
  8
AM_5
100
AcDbTrace
 10
1314.604885328934
 20
1683.648744666988
 30
0.0
 11
1314.604885328934
 21
1680.315411333654
 31
0.0
 12
1304.604885328934
 22
1681.982078000321
 32
0.0
 13
1304.604885328934
 23
1681.982078000321
 33
0.0
  0
SOLID
  5
12A8
330
FB8
100
AcDbEntity
  8
AM_5
100
AcDbTrace
 10
1654.604885328933
 20
1683.648744666988
 30
0.0
 11
1654.604885328933
 21
1680.315411333654
 31
0.0
 12
1664.604885328933
 22
1681.982078000321
 32
0.0
 13
1664.604885328933
 23
1681.982078000321
 33
0.0
  0
MTEXT
  5
12A9
330
FB8
100
AcDbEntity
  8
AM_5
 62
     2
100
AcDbMText
 10
1484.604885328933
 20
1690.982078000321
 30
0.0
 40
15.0
 41
0.0
 71
     5
 72
     1
  1
%%c360
 73
     1
 44
1.0
1001
ACAD
1000
MTEXTBEGIN
1070
    73
1070
     1
1070
    44
1040
1.0
1070
    74
1070
     0
1000
MTEXTEND
  0
POINT
  5
12AA
330
FB8
100
AcDbEntity
  8
Defpoints
 62
     0
100
AcDbPoint
 10
1304.604885328934
 20
1634.418173611148
 30
0.0
  0
POINT
  5
12AB
330
FB8
100
AcDbEntity
  8
Defpoints
 62
     0
100
AcDbPoint
 10
1664.604885328933
 20
1634.418173611151
 30
0.0
  0
POINT
  5
12AC
330
FB8
100
AcDbEntity
  8
Defpoints
 62
     0
100
AcDbPoint
 10
1664.604885328933
 20
1681.982078000321
 30
0.0
  0
ENDBLK
  5
FC3
330
FB8
100
AcDbEntity
  8
0
100
AcDbBlockEnd
  0
BLOCK
  5
1002
330
FF8
100
AcDbEntity
  8
0
100
AcDbBlockBegin
  2
*D9
 70
     1
 10
0.0
 20
0.0
 30
0.0
  3
*D9
  1

  0
LINE
  5
1336
330
FF8
100
AcDbEntity
  8
AM_5
100
AcDbLine
 10
1574.604885328934
 20
805.4023580877426
 30
0.0
 11
1574.604885328934
 21
670.5082097776974
 31
0.0
  0
LINE
  5
1337
330
FF8
100
AcDbEntity
  8
AM_5
100
AcDbLine
 10
1594.604885328934
 20
813.1344242238226
 30
0.0
 11
1594.604885328934
 21
670.5082097776974
 31
0.0
  0
LINE
  5
1338
330
FF8
100
AcDbEntity
  8
AM_5
100
AcDbLine
 10
1564.604885328934
 20
671.5082097776973
 30
0.0
 11
1554.604885328935
 21
671.5082097776973
 31
0.0
  0
LINE
  5
1339
330
FF8
100
AcDbEntity
  8
AM_5
100
AcDbLine
 10
1604.604885328934
 20
671.5082097776973
 30
0.0
 11
1614.604885328934
 21
671.5082097776973
 31
0.0
  0
LINE
  5
133A
330
FF8
100
AcDbEntity
  8
AM_5
100
AcDbLine
 10
1574.604885328934
 20
671.5082097776973
 30
0.0
 11
1594.604885328934
 21
671.5082097776973
 31
0.0
  0
SOLID
  5
133B
330
FF8
100
AcDbEntity
  8
AM_5
100
AcDbTrace
 10
1564.604885328934
 20
673.174876444364
 30
0.0
 11
1564.604885328934
 21
669.8415431110308
 31
0.0
 12
1574.604885328934
 22
671.5082097776973
 32
0.0
 13
1574.604885328934
 23
671.5082097776973
 33
0.0
  0
SOLID
  5
133C
330
FF8
100
AcDbEntity
  8
AM_5
100
AcDbTrace
 10
1604.604885328934
 20
673.174876444364
 30
0.0
 11
1604.604885328934
 21
669.8415431110308
 31
0.0
 12
1594.604885328934
 22
671.5082097776973
 32
0.0
 13
1594.604885328934
 23
671.5082097776973
 33
0.0
  0
MTEXT
  5
133D
330
FF8
100
AcDbEntity
  8
AM_5
 62
     2
100
AcDbMText
 10
1584.604885328934
 20
680.5096861556501
 30
0.0
 40
15.0
 41
0.0
 71
     5
 72
     1
  1
20
 73
     1
 44
1.0
1001
ACAD
1000
MTEXTBEGIN
1070
    73
1070
     1
1070
    44
1040
1.0
1070
    74
1070
     0
1000
MTEXTEND
  0
POINT
  5
133E
330
FF8
100
AcDbEntity
  8
Defpoints
 62
     0
100
AcDbPoint
 10
1574.604885328934
 20
806.4023580877426
 30
0.0
  0
POINT
  5
133F
330
FF8
100
AcDbEntity
  8
Defpoints
 62
     0
100
AcDbPoint
 10
1594.604885328934
 20
814.1344242238226
 30
0.0
  0
POINT
  5
1340
330
FF8
100
AcDbEntity
  8
Defpoints
 62
     0
100
AcDbPoint
 10
1594.604885328934
 20
671.5082097776973
 30
0.0
  0
ENDBLK
  5
1003
330
FF8
100
AcDbEntity
  8
0
100
AcDbBlockEnd
  0
BLOCK
  5
1163
330
1159
100
AcDbEntity
  8
0
100
AcDbBlockBegin
  2
*D10
 70
     1
 10
0.0
 20
0.0
 30
0.0
  3
*D10
  1

  0
LINE
  5
1350
330
1159
100
AcDbEntity
  8
AM_5
100
AcDbLine
 10
1483.604885328935
 20
1111.733621007733
 30
0.0
 11
1144.72330789253
 21
1111.733621007733
 31
0.0
  0
LINE
  5
1351
330
1159
100
AcDbEntity
  8
AM_5
100
AcDbLine
 10
1483.604885328935
 20
715.7336210077328
 30
0.0
 11
1144.72330789253
 21
715.7336210077329
 31
0.0
  0
LINE
  5
1352
330
1159
100
AcDbEntity
  8
AM_5
100
AcDbLine
 10
1145.72330789253
 20
1101.733621007733
 30
0.0
 11
1145.72330789253
 21
725.7336210077329
 31
0.0
  0
SOLID
  5
1353
330
1159
100
AcDbEntity
  8
AM_5
100
AcDbTrace
 10
1144.056641225863
 20
1101.733621007733
 30
0.0
 11
1147.389974559197
 21
1101.733621007733
 31
0.0
 12
1145.72330789253
 22
1111.733621007733
 32
0.0
 13
1145.72330789253
 23
1111.733621007733
 33
0.0
  0
SOLID
  5
1354
330
1159
100
AcDbEntity
  8
AM_5
100
AcDbTrace
 10
1144.056641225863
 20
725.7336210077329
 30
0.0
 11
1147.389974559197
 21
725.7336210077329
 31
0.0
 12
1145.72330789253
 22
715.7336210077329
 32
0.0
 13
1145.72330789253
 23
715.7336210077329
 33
0.0
  0
MTEXT
  5
1355
330
1159
100
AcDbEntity
  8
AM_5
 62
     2
100
AcDbMText
 10
1136.72330789253
 20
913.7336210077329
 30
0.0
 40
15.0
 41
0.0
 71
     5
 72
     1
  1
396
 11
0.0000000000000001
 21
1.0
 31
0.0
 73
     1
 44
1.0
1001
ACAD
1000
MTEXTBEGIN
1070
    73
1070
     1
1070
    44
1040
1.0
1070
    74
1070
     0
1000
MTEXTEND
  0
POINT
  5
1356
330
1159
100
AcDbEntity
  8
Defpoints
 62
     0
100
AcDbPoint
 10
1484.604885328934
 20
1111.733621007733
 30
0.0
  0
POINT
  5
1357
330
1159
100
AcDbEntity
  8
Defpoints
 62
     0
100
AcDbPoint
 10
1484.604885328934
 20
715.7336210077328
 30
0.0
  0
POINT
  5
1358
330
1159
100
AcDbEntity
  8
Defpoints
 62
     0
100
AcDbPoint
 10
1145.72330789253
 20
715.7336210077329
 30
0.0
  0
ENDBLK
  5
1164
330
1159
100
AcDbEntity
  8
0
100
AcDbBlockEnd
  0
ENDSEC
  0
SECTION
  2
ENTITIES
  0
HATCH
  5
5C1
330
1F
100
AcDbEntity
  8
8
100
AcDbHatch
 10
0.0
 20
0.0
 30
0.0
210
0.0
220
0.0
230
1.0
  2
ANSI31
 70
     0
 71
     1
 91
        1
 92
        7
 72
     1
 73
     1
 93
       14
 10
1682.604885328935
 20
1635.918173611148
 42
0.0
 10
1667.604885328934
 20
1635.918173611148
 42
0.0
 10
1664.604885328935
 20
1580.918173611148
 42
0.0
 10
1639.604885328935
 20
1580.918173611148
 42
0.0
 10
1639.604885328935
 20
1570.918173611148
 42
0.0
 10
1673.516507530017
 20
1568.520146386677
 42
-0.3686970055181523
 10
1682.773075697872
 20
1559.416612800529
 42
0.0
 10
1684.038560455141
 20
1544.952055836581
 42
0.3738846794848162
 10
1695.836794728251
 20
1533.558633436494
 42
0.0
 10
1829.478987417699
 20
1526.554742899124
 42
0.0
 10
1849.294570244062
 20
1522.512135170001
 42
0.0
 10
1849.79176182837
 20
1531.99911575017
 42
0.0
 10
1696.17697844383
 20
1540.049725412399
 42
-0.3738846794847999
 10
1690.513825992737
 20
1545.518568164441
 42
0.0
 97
       14
330
648
330
645
330
63F
330
639
330
63A
330
638
330
63B
330
634
330
64E
330
64B
330
64D
330
650
330
635
330
644
 75
     0
 76
     1
 52
180.0
 41
50.0
 77
     0
 78
     1
 53
225.0
 43
949.9317156728164
 44
725.8400663214501
 45
4.41941738241592
 46
-4.419417382415923
 79
     0
 47
0.9034446004681793
 98
        1
 10
1679.547356121305
 20
1586.578097590811
  0
HATCH
  5
5C2
330
1F
100
AcDbEntity
  8
8
100
AcDbHatch
 10
0.0
 20
0.0
 30
0.0
210
0.0
220
0.0
230
1.0
  2
ANSI31
 70
     0
 71
     0
 91
        5
 92
        7
 72
     1
 73
     1
 93
       21
 10
1292.77219560105
 20
1614.244960570107
 42
0.0
 10
1294.577956702813
 20
1581.139340371102
 42
0.3237052752347047
 10
1301.953063307007
 20
1572.030610943579
 42
0.0
 10
1317.651703239351
 20
1567.786059650966
 42
-0.3209633583510352
 10
1325.02090585392
 20
1558.776508071823
 42
0.0
 10
1325.60500515565
 20
1549.722968895003
 42
0.1432664676270294
 10
1350.778711544783
 20
1464.060412108218
 42
-0.1213793573980043
 10
1355.414331018828
 20
1450.475506748585
 42
0.0
 10
1360.624922498189
 20
1390.918173611148
 42
0.0
 10
1368.624922498189
 20
1390.918173611148
 42
0.0
 10
1375.339960461965
 20
1415.979036466716
 42
-0.5267563275629918
 10
1390.893045151133
 20
1421.469386110097
 42
0.1588908473285687
 10
1484.604885328934
 20
1390.918173611148
 42
0.0
 10
1484.604885328934
 20
1396.918173611148
 42
-0.4142135623730951
 10
1331.604885328935
 20
1549.918173611148
 42
0.0
 10
1329.604885328935
 20
1580.918173611148
 42
0.0
 10
1304.604885328935
 20
1580.918173611148
 42
0.0
 10
1301.604885328935
 20
1635.918173611148
 42
0.0
 10
1286.604885328934
 20
1635.918173611148
 42
0.0
 10
1285.20506671252
 20
1619.918173611148
 42
0.0
 10
1286.781101353464
 20
1619.918173611148
 42
-0.398341962383224
 97
        0
 92
        7
 72
     1
 73
     1
 93
        6
 10
1484.760491008302
 20
1396.918252739036
 42
-0.0002542576953362
 10
1484.604885328934
 20
1396.918173611148
 42
0.0
 10
1484.604885328934
 20
1390.918173611148
 42
0.0
 10
1841.418008829499
 20
1372.218390189438
 42
0.0
 10
1841.915200413807
 20
1381.705370769606
 42
0.0
 10
1821.759433871865
 20
1379.256886522824
 42
0.0
 97
        0
 92
       25
 93
        4
 72
     1
 10
1324.918938359793
 20
1555.239441257553
 11
1331.21851657457
 21
1555.585115669771
 72
     1
 10
1331.21851657457
 20
1555.585115669771
 11
1331.732174730012
 21
1546.224197963726
 72
     1
 10
1331.732174730012
 20
1546.224197963726
 11
1325.432596515235
 21
1545.878523551508
 72
     1
 10
1325.432596515235
 20
1545.878523551508
 11
1324.918938359793
 21
1555.239441257553
 97
        0
 92
       24
 93
        4
 72
     1
 10
1367.459624010506
 20
1429.949962677908
 11
1379.852684777679
 21
1428.318385275157
 72
     1
 10
1379.852684777679
 20
1428.318385275157
 11
1378.629001725616
 21
1419.023589699778
 72
     1
 10
1378.629001725616
 20
1419.023589699778
 11
1366.235940958444
 21
1420.655167102528
 72
     1
 10
1366.235940958444
 20
1420.655167102528
 11
1367.459624010506
 21
1429.949962677908
 97
        0
 92
       24
 93
        4
 72
     1
 10
1356.790104113611
 20
1450.339174104065
 11
1366.164137929182
 21
1450.20458203695
 72
     1
 10
1366.164137929182
 20
1450.204582036951
 11
1366.029545862067
 21
1440.83054822138
 72
     1
 10
1366.029545862067
 20
1440.830548221379
 11
1356.655512046496
 21
1440.965140288494
 72
     1
 10
1356.655512046496
 20
1440.965140288495
 11
1356.790104113611
 21
1450.339174104066
 97
        0
 75
     0
 76
     1
 52
180.0
 41
50.0
 77
     0
 78
     1
 53
225.0
 43
949.9317156728164
 44
725.8400663214501
 45
4.41941738241592
 46
-4.419417382415923
 79
     0
 47
0.9034446004681793
 98
        2
 10
1292.695348000352
 20
1623.619326976799
 10
1710.278594257965
 20
1383.30305785186
  0
LINE
  5
603
330
1F
100
AcDbEntity
  8
0
100
AcDbLine
 10
1301.604885328935
 20
1635.918173611148
 30
0.0
 11
1667.604885328934
 21
1635.918173611148
 31
0.0
  0
LWPOLYLINE
  5
626
330
1F
100
AcDbEntity
  8
0
100
AcDbPolyline
 90
        5
 70
     0
 43
0.0
 10
1474.838862689733
 20
1397.230175386629
 42
-0.08904088935838
 10
1489.147749833249
 20
1425.528179003524
 42
-0.0812869179364066
 10
1540.470139709967
 20
1466.490167582957
 42
0.1051367422586297
 10
1595.871727431132
 20
1524.178777520379
 42
0.1307147612114486
 10
1609.680989568693
 20
1570.918173611148
  0
ARC
  5
627
330
1F
100
AcDbEntity
  8
0
100
AcDbCircle
 10
1384.999218724856
 20
1413.390846015691
 30
0.0
 40
10.0
100
AcDbArc
 50
53.88678911991146
 51
164.9999999999992
  0
ARC
  5
628
330
1F
100
AcDbEntity
  8
0
100
AcDbCircle
 10
1325.528490076075
 20
1447.860834466156
 30
0.0
 40
30.0
100
AcDbArc
 50
4.999999999999459
 51
32.68268046031909
  0
LINE
  5
629
330
1F
100
AcDbEntity
  8
0
100
AcDbLine
 10
1368.624922498189
 20
1390.918173611148
 30
0.0
 11
1415.092296541004
 21
1406.918173611148
 31
0.0
  0
ARC
  5
62A
102
{ACAD_REACTORS
330
DF1
102
}
330
1F
100
AcDbEntity
  8
0
100
AcDbCircle
 10
1484.604885328934
 20
1549.918173611148
 30
0.0
 40
159.0
100
AcDbArc
 50
233.8867891199114
 51
270.0
  0
LINE
  5
62B
330
1F
100
AcDbEntity
  8
0
100
AcDbLine
 10
1368.624922498189
 20
1390.918173611148
 30
0.0
 11
1375.339960461965
 21
1415.979036466716
 31
0.0
  0
LINE
  5
62C
330
1F
100
AcDbEntity
  8
0
100
AcDbLine
 10
1360.624922498189
 20
1390.918173611148
 30
0.0
 11
1355.414331018828
 21
1450.475506748585
 31
0.0
  0
LINE
  5
62D
102
{ACAD_REACTORS
330
DF1
330
ED6
102
}
330
1F
100
AcDbEntity
  8
0
100
AcDbLine
 10
1484.604885328934
 20
1390.918173611148
 30
0.0
 11
1360.62492249819
 21
1390.918173611148
 31
0.0
  0
LINE
  5
62E
330
1F
100
AcDbEntity
  8
0
100
AcDbLine
 10
1329.604885328935
 20
1580.918173611148
 30
0.0
 11
1639.604885328935
 21
1580.918173611148
 31
0.0
  0
ARC
  5
62F
330
1F
100
AcDbEntity
  8
0
100
AcDbCircle
 10
1304.563113782122
 20
1581.683985302701
 30
0.0
 40
10.0
100
AcDbArc
 50
183.1221304621118
 51
254.8702935420473
  0
ARC
  5
630
330
1F
100
AcDbEntity
  8
0
100
AcDbCircle
 10
1315.041652764235
 20
1558.132685291844
 30
0.0
 40
10.0
100
AcDbArc
 50
3.691385986452953
 51
74.87029354204735
  0
LINE
  5
631
330
1F
100
AcDbEntity
  8
0
100
AcDbLine
 10
1301.953063307006
 20
1572.030610943579
 30
0.0
 11
1317.651703239351
 21
1567.786059650966
 31
0.0
  0
LINE
  5
632
330
1F
100
AcDbEntity
  8
0
100
AcDbLine
 10
1325.02090585392
 20
1558.776508071824
 30
0.0
 11
1325.60500515565
 21
1549.722968895003
 31
0.0
  0
LINE
  5
633
330
1F
100
AcDbEntity
  8
0
100
AcDbLine
 10
1329.604885328935
 20
1580.918173611148
 30
0.0
 11
1331.604885328935
 21
1549.918173611148
 31
0.0
  0
ARC
  5
634
102
{ACAD_REACTORS
330
5C1
102
}
330
1F
100
AcDbEntity
  8
0
100
AcDbCircle
 10
1696.490994181288
 20
1546.041502620927
 30
0.0
 40
12.5
100
AcDbArc
 50
184.9999999999994
 51
266.9999999999943
  0
ARC
  5
635
102
{ACAD_REACTORS
330
5C1
102
}
330
1F
100
AcDbEntity
  8
0
100
AcDbCircle
 10
1696.490994181288
 20
1546.041502620927
 30
0.0
 40
6.0
100
AcDbArc
 50
184.9999999999994
 51
266.9999999999943
  0
LINE
  5
636
330
1F
100
AcDbEntity
  8
0
100
AcDbLine
 10
1821.759433871864
 20
1379.256886522824
 30
0.0
 11
1484.760491008302
 21
1396.918252739036
 31
0.0
  0
LINE
  5
637
330
1F
100
AcDbEntity
  8
0
100
AcDbLine
 10
1639.604885328935
 20
1570.918173611148
 30
0.0
 11
1609.680989568693
 21
1570.918173611148
 31
0.0
  0
ARC
  5
638
102
{ACAD_REACTORS
330
5C1
102
}
330
1F
100
AcDbEntity
  8
0
100
AcDbCircle
 10
1672.811128716954
 20
1558.545055373053
 30
0.0
 40
10.0
100
AcDbArc
 50
4.999999999999459
 51
85.95511808369693
  0
LINE
  5
639
102
{ACAD_REACTORS
330
5C1
102
}
330
1F
100
AcDbEntity
  8
0
100
AcDbLine
 10
1639.604885328935
 20
1580.918173611148
 30
0.0
 11
1639.604885328935
 21
1570.918173611148
 31
0.0
  0
LINE
  5
63A
102
{ACAD_REACTORS
330
5C1
102
}
330
1F
100
AcDbEntity
  8
0
100
AcDbLine
 10
1639.604885328935
 20
1570.918173611148
 30
0.0
 11
1673.516507530017
 21
1568.520146386677
 31
0.0
  0
LINE
  5
63B
102
{ACAD_REACTORS
330
5C1
102
}
330
1F
100
AcDbEntity
  8
0
100
AcDbLine
 10
1691.454504097876
 20
1460.187432125758
 30
0.0
 11
1682.773075697872
 21
1559.416612800529
 31
0.0
  0
ARC
  5
63C
330
1F
100
AcDbEntity
  8
0
100
AcDbCircle
 10
1484.604885328934
 20
1549.918173611148
 30
0.0
 40
159.0
100
AcDbArc
 50
180.0703421961365
 51
212.6826804603191
  0
ARC
  5
63D
330
1F
100
AcDbEntity
  8
0
100
AcDbCircle
 10
1484.604885328934
 20
1549.918173611148
 30
0.0
 40
153.0
100
AcDbArc
 50
180.0
 51
270.0582715701491
  0
LINE
  5
63F
102
{ACAD_REACTORS
330
5C1
102
}
330
1F
100
AcDbEntity
  8
0
100
AcDbLine
 10
1639.604885328935
 20
1580.918173611148
 30
0.0
 11
1664.604885328935
 21
1580.918173611148
 31
0.0
  0
ARC
  5
640
330
1F
100
AcDbEntity
  8
0
100
AcDbCircle
 10
1286.781101353464
 20
1613.918173611148
 30
0.0
 40
6.0
100
AcDbArc
 50
3.122130462111805
 51
90.0
  0
LINE
  5
641
330
1F
100
AcDbEntity
  8
0
100
AcDbLine
 10
1285.20506671252
 20
1619.918173611148
 30
0.0
 11
1286.781101353464
 21
1619.918173611148
 31
0.0
  0
LINE
  5
642
330
1F
100
AcDbEntity
  8
0
100
AcDbLine
 10
1292.77219560105
 20
1614.244960570107
 30
0.0
 11
1294.577956702813
 21
1581.139340371102
 31
0.0
  0
LINE
  5
643
330
1F
100
AcDbEntity
  8
0
100
AcDbLine
 10
1285.20506671252
 20
1619.918173611148
 30
0.0
 11
1286.604885328934
 21
1635.918173611148
 31
0.0
  0
LINE
  5
644
102
{ACAD_REACTORS
330
5C1
102
}
330
1F
100
AcDbEntity
  8
0
100
AcDbLine
 10
1690.513825992737
 20
1545.518568164441
 30
0.0
 11
1682.604885328935
 21
1635.918173611148
 31
0.0
  0
LINE
  5
645
102
{ACAD_REACTORS
330
5C1
102
}
330
1F
100
AcDbEntity
  8
0
100
AcDbLine
 10
1667.604885328934
 20
1635.918173611148
 30
0.0
 11
1664.604885328935
 21
1580.918173611148
 31
0.0
  0
LINE
  5
646
330
1F
100
AcDbEntity
  8
0
100
AcDbLine
 10
1301.604885328935
 20
1635.918173611148
 30
0.0
 11
1304.604885328935
 21
1580.918173611148
 31
0.0
  0
LINE
  5
647
102
{ACAD_REACTORS
330
EAC
102
}
330
1F
100
AcDbEntity
  8
0
100
AcDbLine
 10
1304.604885328935
 20
1580.918173611148
 30
0.0
 11
1329.604885328935
 21
1580.918173611148
 31
0.0
  0
LINE
  5
648
102
{ACAD_REACTORS
330
5C1
330
E52
102
}
330
1F
100
AcDbEntity
  8
0
100
AcDbLine
 10
1667.604885328934
 20
1635.918173611148
 30
0.0
 11
1682.604885328935
 21
1635.918173611148
 31
0.0
  0
LINE
  5
649
102
{ACAD_REACTORS
330
EAC
330
ED6
102
}
330
1F
100
AcDbEntity
  8
0
100
AcDbLine
 10
1286.604885328934
 20
1635.918173611148
 30
0.0
 11
1301.604885328935
 21
1635.918173611148
 31
0.0
  0
LINE
  5
64A
330
1F
100
AcDbEntity
  8
0
100
AcDbLine
 10
1841.915200413808
 20
1381.705370769606
 30
0.0
 11
1821.759433871864
 21
1379.256886522824
 31
0.0
  0
LINE
  5
64B
102
{ACAD_REACTORS
330
5C1
102
}
330
1F
100
AcDbEntity
  8
0
100
AcDbLine
 10
1849.294570244063
 20
1522.512135170001
 30
0.0
 11
1829.478987417699
 21
1526.554742899124
 31
0.0
  0
LINE
  5
64C
330
1F
100
AcDbEntity
  8
0
100
AcDbLine
 10
1829.478987417699
 20
1526.554742899124
 30
0.0
 11
1821.759433871864
 21
1379.256886522824
 31
0.0
  0
LINE
  5
64D
102
{ACAD_REACTORS
330
5C1
102
}
330
1F
100
AcDbEntity
  8
0
100
AcDbLine
 10
1849.79176182837
 20
1531.99911575017
 30
0.0
 11
1841.418008829499
 21
1372.218390189438
 31
0.0
  0
LINE
  5
64E
102
{ACAD_REACTORS
330
5C1
102
}
330
1F
100
AcDbEntity
  8
0
100
AcDbLine
 10
1829.478987417699
 20
1526.554742899124
 30
0.0
 11
1695.836794728251
 21
1533.558633436494
 31
0.0
  0
LINE
  5
64F
330
1F
100
AcDbEntity
  8
0
100
AcDbLine
 10
1841.418008829499
 20
1372.218390189438
 30
0.0
 11
1484.604885328934
 21
1390.918173611148
 31
0.0
  0
LINE
  5
650
102
{ACAD_REACTORS
330
5C1
102
}
330
1F
100
AcDbEntity
  8
0
100
AcDbLine
 10
1849.79176182837
 20
1531.99911575017
 30
0.0
 11
1696.17697844383
 21
1540.049725412399
 31
0.0
  0
CIRCLE
  5
66F
330
1F
100
AcDbEntity
  8
7A
  6
CENTER
100
AcDbCircle
 10
1484.604885328934
 20
913.7336210077325
 30
0.0
 40
1.0
  0
CIRCLE
  5
68C
330
1F
100
AcDbEntity
  8
7A
  6
CENTER
100
AcDbCircle
 10
1484.604885328934
 20
913.7336210077325
 30
0.0
 40
1.0
  0
CIRCLE
  5
691
330
1F
100
AcDbEntity
  8
7A
  6
CENTER
100
AcDbCircle
 10
1484.604885328934
 20
913.7336210077325
 30
0.0
 40
1.0
  0
CIRCLE
  5
6B5
330
1F
100
AcDbEntity
  8
7A
  6
CENTER
100
AcDbCircle
 10
1484.604885328934
 20
913.7336210077325
 30
0.0
 40
1.0
  0
LINE
  5
B94
102
{ACAD_REACTORS
330
FA7
102
}
330
1F
100
AcDbEntity
  8
0
100
AcDbLine
 10
1304.604885328934
 20
1634.418173611148
 30
0.0
 11
1484.604885328933
 21
1634.418173611148
 31
0.0
  0
LINE
  5
B95
330
1F
100
AcDbEntity
  8
0
100
AcDbLine
 10
1315.442999979899
 20
1580.918173611148
 30
0.0
 11
1484.604885328933
 21
1580.918173611148
 31
0.0
  0
LINE
  5
B96
102
{ACAD_REACTORS
330
FA7
102
}
330
1F
100
AcDbEntity
  8
0
100
AcDbLine
 10
1360.879252944784
 20
1587.918173611148
 30
0.0
 11
1368.999435131696
 21
1587.918173611148
 31
0.0
  0
LINE
  5
B97
102
{ACAD_REACTORS
330
FA7
102
}
330
1F
100
AcDbEntity
  8
0
100
AcDbLine
 10
1353.589187823817
 20
1632.879971342541
 30
0.0
 11
1358.894160641501
 21
1589.674434924338
 31
0.0
  0
LINE
  5
B98
102
{ACAD_REACTORS
330
FA7
102
}
330
1F
100
AcDbEntity
  8
0
100
AcDbLine
 10
1374.604885328934
 20
1631.041336054753
 30
0.0
 11
1370.99182452788
 21
1589.743862125653
 31
0.0
  0
LINE
  5
B99
102
{ACAD_REACTORS
330
FA7
102
}
330
1F
100
AcDbEntity
  8
0
100
AcDbLine
 10
1353.589187823817
 20
1632.879971342541
 30
0.0
 11
1374.604885328934
 21
1631.041336054753
 31
0.0
  0
LINE
  5
B9A
102
{ACAD_REACTORS
330
FA7
102
}
330
1F
100
AcDbEntity
  8
0
100
AcDbLine
 10
1394.604885328934
 20
1630.363262426216
 30
0.0
 11
1397.832387644565
 21
1587.27866066366
 31
0.0
  0
LINE
  5
B9B
330
1F
100
AcDbEntity
  8
0
100
AcDbLine
 10
1394.001043274736
 20
1633.33511852674
 30
0.0
 11
1392.890151858414
 21
1634.418173611148
 31
0.0
  0
LINE
  5
B9C
102
{ACAD_REACTORS
330
FA7
102
}
330
1F
100
AcDbEntity
  8
0
100
AcDbLine
 10
1414.604885328934
 20
1629.035581081247
 30
0.0
 11
1410.886418287732
 21
1587.27866066366
 31
0.0
  0
LINE
  5
B9D
330
1F
100
AcDbEntity
  8
0
100
AcDbLine
 10
1415.208727383131
 20
1633.244604368661
 30
0.0
 11
1416.412459323184
 21
1634.418173611148
 31
0.0
  0
LINE
  5
B9E
102
{ACAD_REACTORS
330
FA7
102
}
330
1F
100
AcDbEntity
  8
0
100
AcDbLine
 10
1399.827515745085
 20
1585.418173611148
 30
0.0
 11
1408.891290187213
 21
1585.418173611148
 31
0.0
  0
ARC
  5
B9F
102
{ACAD_REACTORS
330
FA7
102
}
330
1F
100
AcDbEntity
  8
0
100
AcDbCircle
 10
1408.891290187213
 20
1587.418173611148
 30
0.0
 40
2.0
100
AcDbArc
 50
270.0
 51
356.0000000000035
  0
ARC
  5
BA0
102
{ACAD_REACTORS
330
FA7
102
}
330
1F
100
AcDbEntity
  8
0
100
AcDbCircle
 10
1399.827515745085
 20
1587.418173611148
 30
0.0
 40
2.0
100
AcDbArc
 50
183.9999999999965
 51
270.0
  0
ARC
  5
BA1
102
{ACAD_REACTORS
330
FA7
102
}
330
1F
100
AcDbEntity
  8
0
100
AcDbCircle
 10
1368.999435131696
 20
1589.918173611148
 30
0.0
 40
2.0
100
AcDbArc
 50
270.0
 51
355.0000000000006
  0
ARC
  5
BA2
102
{ACAD_REACTORS
330
FA7
102
}
330
1F
100
AcDbEntity
  8
0
100
AcDbCircle
 10
1360.879252944783
 20
1589.918173611148
 30
0.0
 40
2.0
100
AcDbArc
 50
187.0000000000056
 51
270.0
  0
LINE
  5
BA3
102
{ACAD_REACTORS
330
FA7
102
}
330
1F
100
AcDbEntity
  8
0
100
AcDbLine
 10
1394.604885328934
 20
1630.363262426216
 30
0.0
 11
1414.604885328934
 21
1629.035581081247
 31
0.0
  0
LINE
  5
BA4
102
{ACAD_REACTORS
330
FA7
102
}
330
1F
100
AcDbEntity
  8
0
100
AcDbLine
 10
1474.604885328934
 20
1629.418173611148
 30
0.0
 11
1478.621493938147
 21
1586.27866066366
 31
0.0
  0
LINE
  5
BA5
330
1F
100
AcDbEntity
  8
0
100
AcDbLine
 10
1474.604885328934
 20
1629.418173611148
 30
0.0
 11
1474.604885328934
 21
1634.418173611148
 31
0.0
  0
LINE
  5
BAA
330
1F
100
AcDbEntity
  8
0
100
AcDbLine
 10
1394.604885328934
 20
1630.363262426216
 30
0.0
 11
1394.604885328934
 21
1631.903076980424
 31
0.0
  0
LINE
  5
BAB
330
1F
100
AcDbEntity
  8
0
100
AcDbLine
 10
1374.604885328934
 20
1631.041336054753
 30
0.0
 11
1374.604885328934
 21
1632.298979435722
 31
0.0
  0
LINE
  5
BAC
102
{ACAD_REACTORS
330
FA7
102
}
330
1F
100
AcDbEntity
  8
0
100
AcDbLine
 10
1474.604885328934
 20
1629.418173611148
 30
0.0
 11
1484.604885328933
 21
1629.418173611148
 31
0.0
  0
ARC
  5
BAD
102
{ACAD_REACTORS
330
FA7
102
}
330
1F
100
AcDbEntity
  8
0
100
AcDbCircle
 10
1480.616622038667
 20
1586.418173611148
 30
0.0
 40
2.0
100
AcDbArc
 50
183.9999999999965
 51
270.0
  0
LINE
  5
BAE
330
1F
100
AcDbEntity
  8
0
100
AcDbLine
 10
1354.604885328934
 20
1634.418173611148
 30
0.0
 11
1354.604885328934
 21
1632.791109325272
 31
0.0
  0
LINE
  5
BAF
330
1F
100
AcDbEntity
  8
0
100
AcDbLine
 10
1375.19067176656
 20
1633.713192998095
 30
0.0
 11
1375.895652379613
 21
1634.418173611148
 31
0.0
  0
LINE
  5
BB1
330
1F
100
AcDbEntity
  8
0
100
AcDbLine
 10
1414.604885328934
 20
1629.035581081247
 30
0.0
 11
1414.604885328934
 21
1631.812562822345
 31
0.0
  0
ARC
  5
BB2
330
1F
100
AcDbEntity
  8
0
100
AcDbCircle
 10
1416.604885328934
 20
1631.812562822345
 30
0.0
 40
2.0
100
AcDbArc
 50
134.2730822009879
 51
180.0
  0
ARC
  5
BB3
330
1F
100
AcDbEntity
  8
0
100
AcDbCircle
 10
1392.604885328934
 20
1631.903076980424
 30
0.0
 40
2.0
100
AcDbArc
 50
0.0
 51
45.72691779902115
  0
ARC
  5
BB4
330
1F
100
AcDbEntity
  8
0
100
AcDbCircle
 10
1376.604885328934
 20
1632.298979435722
 30
0.0
 40
2.0
100
AcDbArc
 50
135.0000000000092
 51
180.0
  0
LINE
  5
BB5
330
1F
100
AcDbEntity
  8
0
100
AcDbLine
 10
1353.589187823817
 20
1632.879971342541
 30
0.0
 11
1352.05098555521
 21
1634.418173611148
 31
0.0
  0
LINE
  5
BB6
102
{ACAD_REACTORS
330
FA7
102
}
330
1F
100
AcDbEntity
  8
0
100
AcDbLine
 10
1325.604885328934
 20
1580.918173611148
 30
0.0
 11
1334.604885328934
 21
1634.418173611148
 31
0.0
  0
LINE
  5
BB7
102
{ACAD_REACTORS
330
FA7
102
}
330
1F
100
AcDbEntity
  8
0
100
AcDbLine
 10
1311.604885328933
 20
1616.418173611148
 30
0.0
 11
1313.604885328934
 21
1580.918173611148
 31
0.0
  0
LINE
  5
BB8
102
{ACAD_REACTORS
330
FA7
102
}
330
1F
100
AcDbEntity
  8
0
100
AcDbLine
 10
1311.604885328933
 20
1616.418173611148
 30
0.0
 11
1305.604885328934
 21
1622.418173611148
 31
0.0
  0
LINE
  5
BB9
102
{ACAD_REACTORS
330
FA7
102
}
330
1F
100
AcDbEntity
  8
0
100
AcDbLine
 10
1313.604885328934
 20
1580.918173611148
 30
0.0
 11
1323.91323194265
 21
1580.918173611148
 31
0.0
  0
ARC
  5
BBA
102
{ACAD_REACTORS
330
FA7
102
}
330
1F
100
AcDbEntity
  8
0
100
AcDbCircle
 10
1315.442999979899
 20
1582.918173611148
 30
0.0
 40
2.0
100
AcDbArc
 50
184.8304199582883
 51
270.0
  0
ARC
  5
BBB
102
{ACAD_REACTORS
330
FA7
102
}
330
1F
100
AcDbEntity
  8
0
100
AcDbCircle
 10
1323.91323194265
 20
1582.918173611148
 30
0.0
 40
2.0
100
AcDbArc
 50
270.0
 51
350.4508660712633
  0
LINE
  5
BBD
102
{ACAD_REACTORS
330
FA7
102
}
330
1F
100
AcDbEntity
  8
0
100
AcDbLine
 10
1480.616622038667
 20
1584.418173611148
 30
0.0
 11
1484.604885328933
 21
1584.418173611148
 31
0.0
  0
HATCH
  5
BBE
330
1F
100
AcDbEntity
  8
8
100
AcDbHatch
 10
0.0
 20
0.0
 30
0.0
210
0.0
220
0.0
230
1.0
  2
ANSI31
 70
     0
 71
     0
 91
        2
 92
        7
 72
     0
 73
     1
 93
        4
 10
1484.604885328933
 20
1629.418173611148
 10
1474.604885328934
 20
1629.418173611148
 10
1477.398107830613
 20
1599.418173611148
 10
1484.604885328933
 20
1599.418173611148
 97
        0
 92
        7
 72
     1
 73
     1
 93
        5
 10
1484.604885328933
 20
1599.418173611148
 42
0.0
 10
1477.398107830613
 20
1599.418173611148
 42
0.0
 10
1478.630032036458
 20
1586.186959071973
 42
0.380670178283289
 10
1480.616622038667
 20
1584.418173611148
 42
0.0
 10
1484.604885328933
 20
1584.418173611148
 42
0.0
 97
        0
 75
     0
 76
     1
 52
0.0
 41
40.0
 77
     0
 78
     1
 53
45.0
 43
0.0
 44
0.0
 45
-89.80256121069151
 46
89.80256121069153
 79
     0
 47
0.1419631691281845
 98
        2
 10
1481.285362035673
 20
1612.689924865367
 10
1481.285362035673
 20
1595.512376497064
1001
ACAD
1010
0.0
1020
0.0
1030
0.0
  0
ARC
  5
BC1
330
1F
100
AcDbEntity
  8
0
100
AcDbCircle
 10
1432.604885328934
 20
1631.903076980424
 30
0.0
 40
2.0
100
AcDbArc
 50
0.0
 51
45.72691779902115
  0
ARC
  5
BC2
330
1F
100
AcDbEntity
  8
0
100
AcDbCircle
 10
1456.604885328934
 20
1631.812562822345
 30
0.0
 40
2.0
100
AcDbArc
 50
134.2730822009879
 51
180.0
  0
LINE
  5
BC3
330
1F
100
AcDbEntity
  8
0
100
AcDbLine
 10
1454.604885328933
 20
1629.035581081247
 30
0.0
 11
1454.604885328933
 21
1631.812562822345
 31
0.0
  0
LINE
  5
BC4
330
1F
100
AcDbEntity
  8
0
100
AcDbLine
 10
1434.604885328934
 20
1630.363262426216
 30
0.0
 11
1434.604885328934
 21
1631.903076980424
 31
0.0
  0
LINE
  5
BC6
102
{ACAD_REACTORS
330
FA7
102
}
330
1F
100
AcDbEntity
  8
0
100
AcDbLine
 10
1434.604885328934
 20
1630.363262426216
 30
0.0
 11
1454.604885328933
 21
1629.035581081247
 31
0.0
  0
ARC
  5
BC7
102
{ACAD_REACTORS
330
FA7
102
}
330
1F
100
AcDbEntity
  8
0
100
AcDbCircle
 10
1439.827515745085
 20
1587.418173611148
 30
0.0
 40
2.0
100
AcDbArc
 50
183.9999999999965
 51
270.0
  0
ARC
  5
BC8
102
{ACAD_REACTORS
330
FA7
102
}
330
1F
100
AcDbEntity
  8
0
100
AcDbCircle
 10
1448.891290187213
 20
1587.418173611148
 30
0.0
 40
2.0
100
AcDbArc
 50
270.0
 51
356.0000000000035
  0
LINE
  5
BC9
102
{ACAD_REACTORS
330
FA7
102
}
330
1F
100
AcDbEntity
  8
0
100
AcDbLine
 10
1439.827515745085
 20
1585.418173611148
 30
0.0
 11
1448.891290187213
 21
1585.418173611148
 31
0.0
  0
LINE
  5
BCA
330
1F
100
AcDbEntity
  8
0
100
AcDbLine
 10
1455.208727383131
 20
1633.244604368661
 30
0.0
 11
1456.412459323184
 21
1634.418173611148
 31
0.0
  0
LINE
  5
BCB
102
{ACAD_REACTORS
330
FA7
102
}
330
1F
100
AcDbEntity
  8
0
100
AcDbLine
 10
1454.604885328933
 20
1629.035581081247
 30
0.0
 11
1450.886418287733
 21
1587.27866066366
 31
0.0
  0
LINE
  5
BCC
330
1F
100
AcDbEntity
  8
0
100
AcDbLine
 10
1434.001043274735
 20
1633.33511852674
 30
0.0
 11
1432.890151858414
 21
1634.418173611148
 31
0.0
  0
LINE
  5
BCD
102
{ACAD_REACTORS
330
FA7
102
}
330
1F
100
AcDbEntity
  8
0
100
AcDbLine
 10
1434.604885328934
 20
1630.363262426216
 30
0.0
 11
1437.832387644565
 21
1587.27866066366
 31
0.0
  0
LINE
  5
BD1
102
{ACAD_REACTORS
330
FA7
102
}
330
1F
100
AcDbEntity
  8
0
100
AcDbLine
 10
1664.604885328933
 20
1634.418173611151
 30
0.0
 11
1484.604885328933
 21
1634.418173611148
 31
0.0
  0
LINE
  5
BD2
330
1F
100
AcDbEntity
  8
0
100
AcDbLine
 10
1653.766770677968
 20
1580.918173611151
 30
0.0
 11
1484.604885328934
 21
1580.918173611148
 31
0.0
  0
LINE
  5
BD3
102
{ACAD_REACTORS
330
FA7
102
}
330
1F
100
AcDbEntity
  8
0
100
AcDbLine
 10
1608.330517713084
 20
1587.91817361115
 30
0.0
 11
1600.210335526171
 21
1587.91817361115
 31
0.0
  0
LINE
  5
BD4
102
{ACAD_REACTORS
330
FA7
102
}
330
1F
100
AcDbEntity
  8
0
100
AcDbLine
 10
1615.62058283405
 20
1632.879971342543
 30
0.0
 11
1610.315610016366
 21
1589.67443492434
 31
0.0
  0
LINE
  5
BD5
102
{ACAD_REACTORS
330
FA7
102
}
330
1F
100
AcDbEntity
  8
0
100
AcDbLine
 10
1594.604885328933
 20
1631.041336054755
 30
0.0
 11
1598.217946129988
 21
1589.743862125654
 31
0.0
  0
LINE
  5
BD6
102
{ACAD_REACTORS
330
FA7
102
}
330
1F
100
AcDbEntity
  8
0
100
AcDbLine
 10
1615.62058283405
 20
1632.879971342543
 30
0.0
 11
1594.604885328933
 21
1631.041336054755
 31
0.0
  0
LINE
  5
BD7
102
{ACAD_REACTORS
330
FA7
102
}
330
1F
100
AcDbEntity
  8
0
100
AcDbLine
 10
1574.604885328933
 20
1630.363262426217
 30
0.0
 11
1571.377383013303
 21
1587.278660663661
 31
0.0
  0
LINE
  5
BD8
330
1F
100
AcDbEntity
  8
0
100
AcDbLine
 10
1575.208727383131
 20
1633.335118526741
 30
0.0
 11
1576.319618799453
 21
1634.418173611149
 31
0.0
  0
LINE
  5
BD9
102
{ACAD_REACTORS
330
FA7
102
}
330
1F
100
AcDbEntity
  8
0
100
AcDbLine
 10
1554.604885328933
 20
1629.035581081248
 30
0.0
 11
1558.323352370135
 21
1587.278660663661
 31
0.0
  0
LINE
  5
BDA
330
1F
100
AcDbEntity
  8
0
100
AcDbLine
 10
1554.001043274736
 20
1633.244604368662
 30
0.0
 11
1552.797311334683
 21
1634.418173611149
 31
0.0
  0
LINE
  5
BDB
102
{ACAD_REACTORS
330
FA7
102
}
330
1F
100
AcDbEntity
  8
0
100
AcDbLine
 10
1569.382254912783
 20
1585.418173611149
 30
0.0
 11
1560.318480470655
 21
1585.418173611149
 31
0.0
  0
ARC
  5
BDC
102
{ACAD_REACTORS
330
FA7
102
}
330
1F
100
AcDbEntity
  8
0
100
AcDbCircle
 10
1560.318480470655
 20
1587.418173611149
 30
0.0
 40
1.999999999999999
100
AcDbArc
 50
183.9999999999965
 51
270.0
  0
ARC
  5
BDD
102
{ACAD_REACTORS
330
FA7
102
}
330
1F
100
AcDbEntity
  8
0
100
AcDbCircle
 10
1569.382254912783
 20
1587.418173611149
 30
0.0
 40
1.999999999999999
100
AcDbArc
 50
270.0
 51
356.0000000000035
  0
ARC
  5
BDE
102
{ACAD_REACTORS
330
FA7
102
}
330
1F
100
AcDbEntity
  8
0
100
AcDbCircle
 10
1600.210335526171
 20
1589.91817361115
 30
0.0
 40
1.999999999999999
100
AcDbArc
 50
184.9999999999994
 51
270.0
  0
ARC
  5
BDF
102
{ACAD_REACTORS
330
FA7
102
}
330
1F
100
AcDbEntity
  8
0
100
AcDbCircle
 10
1608.330517713084
 20
1589.91817361115
 30
0.0
 40
1.999999999999999
100
AcDbArc
 50
270.0
 51
352.9999999999944
  0
LINE
  5
BE0
102
{ACAD_REACTORS
330
FA7
102
}
330
1F
100
AcDbEntity
  8
0
100
AcDbLine
 10
1574.604885328933
 20
1630.363262426217
 30
0.0
 11
1554.604885328933
 21
1629.035581081248
 31
0.0
  0
LINE
  5
BE1
102
{ACAD_REACTORS
330
FA7
102
}
330
1F
100
AcDbEntity
  8
0
100
AcDbLine
 10
1494.604885328933
 20
1629.418173611148
 30
0.0
 11
1490.58827671972
 21
1586.27866066366
 31
0.0
  0
LINE
  5
BE2
330
1F
100
AcDbEntity
  8
0
100
AcDbLine
 10
1494.604885328933
 20
1629.418173611148
 30
0.0
 11
1494.604885328933
 21
1634.418173611148
 31
0.0
  0
LINE
  5
BE7
330
1F
100
AcDbEntity
  8
0
100
AcDbLine
 10
1574.604885328933
 20
1630.363262426217
 30
0.0
 11
1574.604885328933
 21
1631.903076980426
 31
0.0
  0
LINE
  5
BE8
330
1F
100
AcDbEntity
  8
0
100
AcDbLine
 10
1594.604885328933
 20
1631.041336054755
 30
0.0
 11
1594.604885328933
 21
1632.298979435724
 31
0.0
  0
LINE
  5
BE9
102
{ACAD_REACTORS
330
FA7
102
}
330
1F
100
AcDbEntity
  8
0
100
AcDbLine
 10
1494.604885328933
 20
1629.418173611148
 30
0.0
 11
1484.604885328933
 21
1629.418173611148
 31
0.0
  0
ARC
  5
BEA
102
{ACAD_REACTORS
330
FA7
102
}
330
1F
100
AcDbEntity
  8
0
100
AcDbCircle
 10
1488.593148619201
 20
1586.418173611148
 30
0.0
 40
1.999999999999999
100
AcDbArc
 50
270.0
 51
356.0000000000035
  0
LINE
  5
BEB
330
1F
100
AcDbEntity
  8
0
100
AcDbLine
 10
1614.604885328933
 20
1634.41817361115
 30
0.0
 11
1614.604885328933
 21
1632.791109325274
 31
0.0
  0
LINE
  5
BEC
330
1F
100
AcDbEntity
  8
0
100
AcDbLine
 10
1594.019098891306
 20
1633.713192998097
 30
0.0
 11
1593.314118278254
 21
1634.41817361115
 31
0.0
  0
LINE
  5
BEE
330
1F
100
AcDbEntity
  8
0
100
AcDbLine
 10
1554.604885328933
 20
1629.035581081248
 30
0.0
 11
1554.604885328933
 21
1631.812562822346
 31
0.0
  0
ARC
  5
BEF
330
1F
100
AcDbEntity
  8
0
100
AcDbCircle
 10
1552.604885328933
 20
1631.812562822346
 30
0.0
 40
1.999999999999999
100
AcDbArc
 50
0.0
 51
45.72691779899363
  0
ARC
  5
BF0
330
1F
100
AcDbEntity
  8
0
100
AcDbCircle
 10
1576.604885328933
 20
1631.903076980426
 30
0.0
 40
1.999999999999999
100
AcDbArc
 50
134.2730822010063
 51
180.0
  0
ARC
  5
BF1
330
1F
100
AcDbEntity
  8
0
100
AcDbCircle
 10
1592.604885328933
 20
1632.298979435724
 30
0.0
 40
1.999999999999999
100
AcDbArc
 50
0.0
 51
44.99999999999078
  0
LINE
  5
BF2
330
1F
100
AcDbEntity
  8
0
100
AcDbLine
 10
1615.62058283405
 20
1632.879971342543
 30
0.0
 11
1617.158785102656
 21
1634.41817361115
 31
0.0
  0
LINE
  5
BF3
102
{ACAD_REACTORS
330
FA7
102
}
330
1F
100
AcDbEntity
  8
0
100
AcDbLine
 10
1643.604885328934
 20
1580.91817361115
 30
0.0
 11
1634.604885328933
 21
1634.41817361115
 31
0.0
  0
LINE
  5
BF4
102
{ACAD_REACTORS
330
FA7
102
}
330
1F
100
AcDbEntity
  8
0
100
AcDbLine
 10
1657.604885328933
 20
1616.418173611151
 30
0.0
 11
1655.604885328934
 21
1580.918173611151
 31
0.0
  0
LINE
  5
BF5
102
{ACAD_REACTORS
330
FA7
102
}
330
1F
100
AcDbEntity
  8
0
100
AcDbLine
 10
1657.604885328933
 20
1616.418173611151
 30
0.0
 11
1663.604885328933
 21
1622.418173611151
 31
0.0
  0
LINE
  5
BF6
102
{ACAD_REACTORS
330
FA7
330
FC5
102
}
330
1F
100
AcDbEntity
  8
0
100
AcDbLine
 10
1663.604885328933
 20
1622.418173611151
 30
0.0
 11
1664.604885328933
 21
1634.418173611151
 31
0.0
  0
LINE
  5
BF7
102
{ACAD_REACTORS
330
FA7
102
}
330
1F
100
AcDbEntity
  8
0
100
AcDbLine
 10
1655.604885328934
 20
1580.918173611151
 30
0.0
 11
1645.296538715217
 21
1580.91817361115
 31
0.0
  0
ARC
  5
BF8
102
{ACAD_REACTORS
330
FA7
102
}
330
1F
100
AcDbEntity
  8
0
100
AcDbCircle
 10
1653.766770677968
 20
1582.918173611151
 30
0.0
 40
1.999999999999999
100
AcDbArc
 50
270.0
 51
355.1695800417117
  0
ARC
  5
BF9
102
{ACAD_REACTORS
330
FA7
102
}
330
1F
100
AcDbEntity
  8
0
100
AcDbCircle
 10
1645.296538715217
 20
1582.91817361115
 30
0.0
 40
1.999999999999999
100
AcDbArc
 50
189.5491339287367
 51
270.0
  0
HATCH
  5
BFA
330
1F
100
AcDbEntity
  8
8
100
AcDbHatch
 10
0.0
 20
0.0
 30
0.0
210
0.0
220
0.0
230
1.0
  2
ANSI31
 70
     0
 71
     0
 91
        1
 92
        7
 72
     1
 73
     1
 93
        8
 10
1657.604885328933
 20
1616.41817361115
 42
0.0
 10
1663.604885328933
 20
1622.418173611151
 42
0.0
 10
1664.604885328933
 20
1634.418173611151
 42
0.0
 10
1634.604885328932
 20
1634.41817361115
 42
0.0
 10
1643.324251310176
 20
1582.586386944881
 42
0.3661997212328845
 10
1645.296538715217
 20
1580.91817361115
 42
0.0
 10
1653.766770677968
 20
1580.918173611151
 42
0.332868709755324
 10
1655.685831180167
 20
1582.35496247055
 42
0.0
 97
        0
 75
     0
 76
     1
 52
0.0
 41
40.0
 77
     0
 78
     1
 53
45.0
 43
0.0
 44
0.0
 45
-89.80256121069151
 46
89.80256121069153
 79
     0
 47
0.1592617509259572
 98
        1
 10
1648.928479726154
 20
1609.73013710479
1001
ACAD
1010
0.0
1020
0.0
1030
0.0
  0
LINE
  5
BFB
102
{ACAD_REACTORS
330
FA7
102
}
330
1F
100
AcDbEntity
  8
0
100
AcDbLine
 10
1488.593148619201
 20
1584.418173611148
 30
0.0
 11
1484.604885328934
 21
1584.418173611148
 31
0.0
  0
HATCH
  5
BFC
330
1F
100
AcDbEntity
  8
8
100
AcDbHatch
 10
0.0
 20
0.0
 30
0.0
210
0.0
220
0.0
230
1.0
  2
ANSI31
 70
     0
 71
     0
 91
        2
 92
        7
 72
     0
 73
     1
 93
        4
 10
1484.604885328933
 20
1599.418173611148
 10
1491.811662827255
 20
1599.418173611148
 10
1494.604885328933
 20
1629.418173611148
 10
1484.604885328933
 20
1629.418173611149
 97
        0
 92
        7
 72
     1
 73
     1
 93
        5
 10
1484.604885328934
 20
1584.418173611148
 42
0.0
 10
1488.593148619201
 20
1584.418173611148
 42
0.3806701782833619
 10
1490.579738621409
 20
1586.186959071974
 42
0.0
 10
1491.811662827254
 20
1599.418173611148
 42
0.0
 10
1484.604885328934
 20
1599.418173611148
 42
0.0
 97
        0
 75
     0
 76
     1
 52
0.0
 41
40.0
 77
     0
 78
     1
 53
45.0
 43
0.0
 44
0.0
 45
-89.80256121069151
 46
89.80256121069153
 79
     0
 47
0.1419631691281845
 98
        2
 10
1487.924408622194
 20
1612.689924865367
 10
1487.924408622194
 20
1595.512376497064
1001
ACAD
1010
0.0
1020
0.0
1030
0.0
  0
HATCH
  5
BFD
330
1F
100
AcDbEntity
  8
8
100
AcDbHatch
 10
0.0
 20
0.0
 30
0.0
210
0.0
220
0.0
230
1.0
  2
ANSI31
 70
     0
 71
     0
 91
        1
 92
        7
 72
     1
 73
     1
 93
        6
 10
1558.330094132169
 20
1587.20295333115
 42
0.3829753422841681
 10
1560.318480470655
 20
1585.418173611149
 42
0.0
 10
1569.382254912783
 20
1585.418173611149
 42
0.3910496176751217
 10
1571.375901544079
 20
1587.258884221913
 42
0.0
 10
1574.604885328933
 20
1630.363262426217
 42
0.0
 10
1554.604885328933
 20
1629.035581081248
 42
0.0
 97
        0
 75
     0
 76
     1
 52
0.0
 41
40.0
 77
     0
 78
     1
 53
45.0
 43
0.0
 44
0.0
 45
-89.80256121069151
 46
89.80256121069153
 79
     0
 47
0.1813880983115531
 98
        1
 10
1564.542375377425
 20
1608.55143098338
1001
ACAD
1010
0.0
1020
0.0
1030
0.0
  0
HATCH
  5
BFE
330
1F
100
AcDbEntity
  8
8
100
AcDbHatch
 10
0.0
 20
0.0
 30
0.0
210
0.0
220
0.0
230
1.0
  2
ANSI31
 70
     0
 71
     0
 91
        1
 92
        7
 72
     1
 73
     1
 93
        6
 10
1518.330094132169
 20
1587.20295333115
 42
0.3829753422841681
 10
1520.318480470655
 20
1585.418173611149
 42
0.0
 10
1529.382254912783
 20
1585.418173611149
 42
0.3910496176756412
 10
1531.375901544079
 20
1587.258884221916
 42
0.0
 10
1534.604885328933
 20
1630.363262426216
 42
0.0
 10
1514.604885328934
 20
1629.035581081247
 42
0.0
 97
        0
 75
     0
 76
     1
 52
0.0
 41
40.0
 77
     0
 78
     1
 53
45.0
 43
0.0
 44
0.0
 45
-89.80256121069151
 46
89.80256121069153
 79
     0
 47
0.1813880983115531
 98
        1
 10
1524.542375377425
 20
1608.55143098338
1001
ACAD
1010
0.0
1020
0.0
1030
0.0
  0
ARC
  5
BFF
330
1F
100
AcDbEntity
  8
0
100
AcDbCircle
 10
1536.604885328933
 20
1631.903076980425
 30
0.0
 40
1.999999999999999
100
AcDbArc
 50
134.2730822010063
 51
180.0
  0
ARC
  5
C00
330
1F
100
AcDbEntity
  8
0
100
AcDbCircle
 10
1512.604885328933
 20
1631.812562822345
 30
0.0
 40
1.999999999999999
100
AcDbArc
 50
0.0
 51
45.72691779899363
  0
LINE
  5
C01
330
1F
100
AcDbEntity
  8
0
100
AcDbLine
 10
1514.604885328933
 20
1629.035581081247
 30
0.0
 11
1514.604885328933
 21
1631.812562822345
 31
0.0
  0
LINE
  5
C02
330
1F
100
AcDbEntity
  8
0
100
AcDbLine
 10
1534.604885328933
 20
1630.363262426216
 30
0.0
 11
1534.604885328933
 21
1631.903076980425
 31
0.0
  0
LINE
  5
C04
102
{ACAD_REACTORS
330
FA7
102
}
330
1F
100
AcDbEntity
  8
0
100
AcDbLine
 10
1534.604885328933
 20
1630.363262426216
 30
0.0
 11
1514.604885328933
 21
1629.035581081247
 31
0.0
  0
ARC
  5
C05
102
{ACAD_REACTORS
330
FA7
102
}
330
1F
100
AcDbEntity
  8
0
100
AcDbCircle
 10
1529.382254912783
 20
1587.418173611149
 30
0.0
 40
1.999999999999999
100
AcDbArc
 50
270.0
 51
356.0000000000035
  0
ARC
  5
C06
102
{ACAD_REACTORS
330
FA7
102
}
330
1F
100
AcDbEntity
  8
0
100
AcDbCircle
 10
1520.318480470655
 20
1587.418173611149
 30
0.0
 40
1.999999999999999
100
AcDbArc
 50
183.9999999999965
 51
270.0
  0
LINE
  5
C07
102
{ACAD_REACTORS
330
FA7
102
}
330
1F
100
AcDbEntity
  8
0
100
AcDbLine
 10
1529.382254912783
 20
1585.418173611149
 30
0.0
 11
1520.318480470655
 21
1585.418173611149
 31
0.0
  0
LINE
  5
C08
330
1F
100
AcDbEntity
  8
0
100
AcDbLine
 10
1514.001043274735
 20
1633.244604368661
 30
0.0
 11
1512.797311334683
 21
1634.418173611148
 31
0.0
  0
LINE
  5
C09
102
{ACAD_REACTORS
330
FA7
102
}
330
1F
100
AcDbEntity
  8
0
100
AcDbLine
 10
1514.604885328933
 20
1629.035581081247
 30
0.0
 11
1518.323352370135
 21
1587.27866066366
 31
0.0
  0
LINE
  5
C0A
330
1F
100
AcDbEntity
  8
0
100
AcDbLine
 10
1535.208727383131
 20
1633.33511852674
 30
0.0
 11
1536.319618799453
 21
1634.418173611148
 31
0.0
  0
LINE
  5
C0B
102
{ACAD_REACTORS
330
FA7
102
}
330
1F
100
AcDbEntity
  8
0
100
AcDbLine
 10
1534.604885328933
 20
1630.363262426216
 30
0.0
 11
1531.377383013303
 21
1587.278660663661
 31
0.0
  0
LINE
  5
C16
102
{ACAD_REACTORS
330
FA7
330
FC5
102
}
330
1F
100
AcDbEntity
  8
0
100
AcDbLine
 10
1305.604885328934
 20
1622.418173611148
 30
0.0
 11
1304.604885328934
 21
1634.418173611148
 31
0.0
  0
LINE
  5
C5D
330
1F
100
AcDbEntity
  8
0
100
AcDbLine
 10
1454.604885328935
 20
913.7336210077325
 30
0.0
 11
1454.604885328935
 21
1055.719535802123
 31
0.0
  0
LINE
  5
C5E
330
1F
100
AcDbEntity
  8
0
100
AcDbLine
 10
1474.604885328935
 20
913.7336210077325
 30
0.0
 11
1474.604885328935
 21
1056.841971567719
 31
0.0
  0
LINE
  5
C63
330
1F
100
AcDbEntity
  8
0
100
AcDbLine
 10
1354.604885328934
 20
961.0622592725297
 30
0.0
 11
1354.604885328934
 21
913.7336210077325
 31
0.0
  0
LINE
  5
C64
330
1F
100
AcDbEntity
  8
0
100
AcDbLine
 10
1374.604885328934
 20
1013.332817791642
 30
0.0
 11
1374.604885328934
 21
913.7336210077325
 31
0.0
  0
LINE
  5
C65
330
1F
100
AcDbEntity
  8
0
100
AcDbLine
 10
1394.604885328934
 20
1021.064883927722
 30
0.0
 11
1394.604885328934
 21
913.7336210077325
 31
0.0
  0
LINE
  5
C66
330
1F
100
AcDbEntity
  8
0
100
AcDbLine
 10
1434.604885328934
 20
913.7336210077325
 30
0.0
 11
1434.604885328934
 21
1046.398612621948
 31
0.0
  0
LINE
  5
C67
330
1F
100
AcDbEntity
  8
0
100
AcDbLine
 10
1414.604885328935
 20
913.7336210077325
 30
0.0
 11
1414.604885328935
 21
1042.729744980509
 31
0.0
  0
ARC
  5
C6A
330
1F
100
AcDbEntity
  8
0
100
AcDbCircle
 10
1484.604885328934
 20
913.7336210077329
 30
0.0
 40
150.0
100
AcDbArc
 50
96.37937020845452
 51
99.59406822685174
  0
ARC
  5
C6C
330
1F
100
AcDbEntity
  8
0
100
AcDbCircle
 10
1348.604885328934
 20
961.0622592725297
 30
0.0
 40
6.0
100
AcDbArc
 50
0.0
 51
160.8118635462821
  0
ARC
  5
C6D
330
1F
100
AcDbEntity
  8
0
100
AcDbCircle
 10
1484.604885328934
 20
913.7336210077329
 30
0.0
 40
150.0
100
AcDbArc
 50
160.8118635462821
 51
180.0
  0
ARC
  5
C6E
330
1F
100
AcDbEntity
  8
0
100
AcDbCircle
 10
1484.604885328934
 20
913.7336210077329
 30
0.0
 40
150.0
100
AcDbArc
 50
131.8103148957672
 51
136.2382573073156
  0
ARC
  5
C6F
330
1F
100
AcDbEntity
  8
0
100
AcDbCircle
 10
1484.604885328934
 20
913.7336210077329
 30
0.0
 40
150.0
100
AcDbArc
 50
112.8853804761525
 51
116.3877999612369
  0
ARC
  5
C70
330
1F
100
AcDbEntity
  8
0
100
AcDbCircle
 10
1380.604885328934
 20
1013.332817791642
 30
0.0
 40
6.0
100
AcDbArc
 50
136.2382573073156
 51
180.0
  0
ARC
  5
C71
330
1F
100
AcDbEntity
  8
0
100
AcDbCircle
 10
1388.604885328935
 20
1021.064883927722
 30
0.0
 40
6.0
100
AcDbArc
 50
0.0
 51
131.8103148957672
  0
ARC
  5
C72
330
1F
100
AcDbEntity
  8
0
100
AcDbCircle
 10
1420.604885328934
 20
1042.729744980509
 30
0.0
 40
6.0
100
AcDbArc
 50
116.3877999612369
 51
180.0
  0
ARC
  5
C73
330
1F
100
AcDbEntity
  8
0
100
AcDbCircle
 10
1428.604885328934
 20
1046.398612621948
 30
0.0
 40
6.0
100
AcDbArc
 50
0.0
 51
112.8853804761525
  0
ARC
  5
C74
330
1F
100
AcDbEntity
  8
0
100
AcDbCircle
 10
1460.604885328934
 20
1055.719535802123
 30
0.0
 40
6.0
100
AcDbArc
 50
99.59406822685174
 51
180.0
  0
ARC
  5
C75
330
1F
100
AcDbEntity
  8
0
100
AcDbCircle
 10
1468.604885328934
 20
1056.841971567719
 30
0.0
 40
6.0
100
AcDbArc
 50
0.0
 51
96.37937020845452
  0
ARC
  5
C76
330
1F
100
AcDbEntity
  8
0
100
AcDbCircle
 10
1540.604885328934
 20
1046.398612621948
 30
0.0
 40
6.0
100
AcDbArc
 50
67.11461952384741
 51
180.0
  0
ARC
  5
C77
330
1F
100
AcDbEntity
  8
0
100
AcDbCircle
 10
1548.604885328934
 20
1042.729744980509
 30
0.0
 40
6.0
100
AcDbArc
 50
0.0
 51
63.61220003876307
  0
ARC
  5
C78
330
1F
100
AcDbEntity
  8
0
100
AcDbCircle
 10
1580.604885328934
 20
1021.064883927722
 30
0.0
 40
6.0
100
AcDbArc
 50
48.18968510423222
 51
180.0
  0
ARC
  5
C79
330
1F
100
AcDbEntity
  8
0
100
AcDbCircle
 10
1588.604885328934
 20
1013.332817791642
 30
0.0
 40
6.0
100
AcDbArc
 50
0.0
 51
43.76174269268434
  0
ARC
  5
C7A
330
1F
100
AcDbEntity
  8
0
100
AcDbCircle
 10
1484.604885328934
 20
913.7336210077329
 30
0.0
 40
150.0
100
AcDbArc
 50
63.61220003876307
 51
67.11461952384741
  0
ARC
  5
C7B
330
1F
100
AcDbEntity
  8
0
100
AcDbCircle
 10
1484.604885328934
 20
913.7336210077329
 30
0.0
 40
150.0
100
AcDbArc
 50
43.76174269268434
 51
48.18968510423222
  0
ARC
  5
C7C
330
1F
100
AcDbEntity
  8
0
100
AcDbCircle
 10
1484.604885328934
 20
913.7336210077329
 30
0.0
 40
150.0
100
AcDbArc
 50
0.0
 51
19.18813645371791
  0
ARC
  5
C7D
330
1F
100
AcDbEntity
  8
0
100
AcDbCircle
 10
1620.604885328934
 20
961.0622592725297
 30
0.0
 40
6.0
100
AcDbArc
 50
19.18813645371791
 51
180.0
  0
LINE
  5
C7F
330
1F
100
AcDbEntity
  8
0
100
AcDbLine
 10
1554.604885328935
 20
913.7336210077325
 30
0.0
 11
1554.604885328935
 21
1042.729744980509
 31
0.0
  0
LINE
  5
C80
330
1F
100
AcDbEntity
  8
0
100
AcDbLine
 10
1534.604885328934
 20
913.7336210077325
 30
0.0
 11
1534.604885328934
 21
1046.398612621948
 31
0.0
  0
LINE
  5
C81
330
1F
100
AcDbEntity
  8
0
100
AcDbLine
 10
1574.604885328934
 20
1021.064883927722
 30
0.0
 11
1574.604885328934
 21
913.7336210077325
 31
0.0
  0
LINE
  5
C82
330
1F
100
AcDbEntity
  8
0
100
AcDbLine
 10
1594.604885328934
 20
1013.332817791642
 30
0.0
 11
1594.604885328934
 21
913.7336210077325
 31
0.0
  0
LINE
  5
C83
330
1F
100
AcDbEntity
  8
0
100
AcDbLine
 10
1614.604885328934
 20
961.0622592725297
 30
0.0
 11
1614.604885328934
 21
913.7336210077325
 31
0.0
  0
ARC
  5
C84
330
1F
100
AcDbEntity
  8
0
100
AcDbCircle
 10
1500.604885328934
 20
1056.841971567719
 30
0.0
 40
6.0
100
AcDbArc
 50
83.62062979154547
 51
180.0
  0
ARC
  5
C85
330
1F
100
AcDbEntity
  8
0
100
AcDbCircle
 10
1508.604885328934
 20
1055.719535802123
 30
0.0
 40
6.0
100
AcDbArc
 50
0.0
 51
80.40593177314823
  0
ARC
  5
C86
330
1F
100
AcDbEntity
  8
0
100
AcDbCircle
 10
1484.604885328934
 20
913.7336210077329
 30
0.0
 40
150.0
100
AcDbArc
 50
80.40593177314823
 51
83.62062979154547
  0
LINE
  5
C87
330
1F
100
AcDbEntity
  8
0
100
AcDbLine
 10
1494.604885328934
 20
913.7336210077325
 30
0.0
 11
1494.604885328934
 21
1056.841971567719
 31
0.0
  0
LINE
  5
C88
330
1F
100
AcDbEntity
  8
0
100
AcDbLine
 10
1514.604885328935
 20
913.7336210077325
 30
0.0
 11
1514.604885328935
 21
1055.719535802123
 31
0.0
  0
ARC
  5
C89
330
1F
100
AcDbEntity
  8
0
100
AcDbCircle
 10
1484.604885328934
 20
913.7336210077329
 30
0.0
 40
180.0
100
AcDbArc
 50
0.0
 51
180.0
  0
LINE
  5
CAC
330
1F
100
AcDbEntity
  8
0
100
AcDbLine
 10
1454.604885328935
 20
913.7336210077325
 30
0.0
 11
1454.604885328935
 21
771.7477062133416
 31
0.0
  0
LINE
  5
CAD
330
1F
100
AcDbEntity
  8
0
100
AcDbLine
 10
1474.604885328935
 20
913.7336210077325
 30
0.0
 11
1474.604885328935
 21
770.625270447746
 31
0.0
  0
LINE
  5
CB2
330
1F
100
AcDbEntity
  8
0
100
AcDbLine
 10
1354.604885328934
 20
866.4049827429355
 30
0.0
 11
1354.604885328934
 21
913.7336210077325
 31
0.0
  0
LINE
  5
CB3
330
1F
100
AcDbEntity
  8
0
100
AcDbLine
 10
1374.604885328934
 20
814.1344242238226
 30
0.0
 11
1374.604885328934
 21
913.7336210077325
 31
0.0
  0
LINE
  5
CB4
330
1F
100
AcDbEntity
  8
0
100
AcDbLine
 10
1394.604885328934
 20
806.4023580877426
 30
0.0
 11
1394.604885328934
 21
913.7336210077325
 31
0.0
  0
LINE
  5
CB5
330
1F
100
AcDbEntity
  8
0
100
AcDbLine
 10
1434.604885328934
 20
913.7336210077325
 30
0.0
 11
1434.604885328934
 21
781.0686293935166
 31
0.0
  0
LINE
  5
CB6
330
1F
100
AcDbEntity
  8
0
100
AcDbLine
 10
1414.604885328935
 20
913.7336210077325
 30
0.0
 11
1414.604885328935
 21
784.7374970349556
 31
0.0
  0
ARC
  5
CB9
330
1F
100
AcDbEntity
  8
0
100
AcDbCircle
 10
1484.604885328934
 20
913.7336210077323
 30
0.0
 40
150.0
100
AcDbArc
 50
260.4059317731483
 51
263.6206297915454
  0
ARC
  5
CBB
330
1F
100
AcDbEntity
  8
0
100
AcDbCircle
 10
1348.604885328934
 20
866.4049827429355
 30
0.0
 40
6.0
100
AcDbArc
 50
199.1881364537162
 51
0.0
  0
ARC
  5
CBC
330
1F
100
AcDbEntity
  8
0
100
AcDbCircle
 10
1484.604885328934
 20
913.7336210077323
 30
0.0
 40
150.0
100
AcDbArc
 50
180.0
 51
199.1881364537162
  0
ARC
  5
CBD
330
1F
100
AcDbEntity
  8
0
100
AcDbCircle
 10
1484.604885328934
 20
913.7336210077323
 30
0.0
 40
150.0
100
AcDbArc
 50
223.7617426926753
 51
228.1896851042334
  0
ARC
  5
CBE
330
1F
100
AcDbEntity
  8
0
100
AcDbCircle
 10
1484.604885328934
 20
913.7336210077323
 30
0.0
 40
150.0
100
AcDbArc
 50
243.6122000387631
 51
247.1146195238469
  0
ARC
  5
CBF
330
1F
100
AcDbEntity
  8
0
100
AcDbCircle
 10
1380.604885328934
 20
814.1344242238226
 30
0.0
 40
6.0
100
AcDbArc
 50
180.0
 51
223.7617426926753
  0
ARC
  5
CC0
330
1F
100
AcDbEntity
  8
0
100
AcDbCircle
 10
1388.604885328935
 20
806.4023580877426
 30
0.0
 40
6.0
100
AcDbArc
 50
228.1896851042334
 51
0.0
  0
ARC
  5
CC1
330
1F
100
AcDbEntity
  8
0
100
AcDbCircle
 10
1420.604885328934
 20
784.7374970349558
 30
0.0
 40
6.0
100
AcDbArc
 50
180.0
 51
243.6122000387631
  0
ARC
  5
CC2
330
1F
100
AcDbEntity
  8
0
100
AcDbCircle
 10
1428.604885328934
 20
781.0686293935166
 30
0.0
 40
6.0
100
AcDbArc
 50
247.1146195238469
 51
0.0
  0
ARC
  5
CC3
330
1F
100
AcDbEntity
  8
0
100
AcDbCircle
 10
1460.604885328934
 20
771.7477062133416
 30
0.0
 40
6.0
100
AcDbArc
 50
180.0
 51
260.4059317731483
  0
ARC
  5
CC4
330
1F
100
AcDbEntity
  8
0
100
AcDbCircle
 10
1468.604885328934
 20
770.6252704477458
 30
0.0
 40
6.0
100
AcDbArc
 50
263.6206297915454
 51
0.0
  0
ARC
  5
CC5
330
1F
100
AcDbEntity
  8
0
100
AcDbCircle
 10
1540.604885328934
 20
781.0686293935166
 30
0.0
 40
6.0
100
AcDbArc
 50
180.0
 51
292.885380476153
  0
ARC
  5
CC6
330
1F
100
AcDbEntity
  8
0
100
AcDbCircle
 10
1548.604885328934
 20
784.7374970349558
 30
0.0
 40
6.0
100
AcDbArc
 50
296.3877999612369
 51
0.0
  0
ARC
  5
CC7
330
1F
100
AcDbEntity
  8
0
100
AcDbCircle
 10
1580.604885328934
 20
806.4023580877426
 30
0.0
 40
6.0
100
AcDbArc
 50
180.0
 51
311.8103148957666
  0
ARC
  5
CC8
330
1F
100
AcDbEntity
  8
0
100
AcDbCircle
 10
1588.604885328934
 20
814.1344242238226
 30
0.0
 40
6.0
100
AcDbArc
 50
316.2382573073247
 51
0.0
  0
ARC
  5
CC9
330
1F
100
AcDbEntity
  8
0
100
AcDbCircle
 10
1484.604885328934
 20
913.7336210077323
 30
0.0
 40
150.0
100
AcDbArc
 50
292.885380476153
 51
296.3877999612369
  0
ARC
  5
CCA
330
1F
100
AcDbEntity
  8
0
100
AcDbCircle
 10
1484.604885328934
 20
913.7336210077323
 30
0.0
 40
150.0
100
AcDbArc
 50
311.8103148957666
 51
316.2382573073247
  0
ARC
  5
CCB
330
1F
100
AcDbEntity
  8
0
100
AcDbCircle
 10
1484.604885328934
 20
913.7336210077323
 30
0.0
 40
150.0
100
AcDbArc
 50
340.8118635462838
 51
0.0
  0
ARC
  5
CCC
330
1F
100
AcDbEntity
  8
0
100
AcDbCircle
 10
1620.604885328934
 20
866.4049827429355
 30
0.0
 40
6.0
100
AcDbArc
 50
180.0
 51
340.8118635462838
  0
LINE
  5
CCE
330
1F
100
AcDbEntity
  8
0
100
AcDbLine
 10
1554.604885328935
 20
913.7336210077325
 30
0.0
 11
1554.604885328935
 21
784.7374970349556
 31
0.0
  0
LINE
  5
CCF
330
1F
100
AcDbEntity
  8
0
100
AcDbLine
 10
1534.604885328934
 20
913.7336210077325
 30
0.0
 11
1534.604885328934
 21
781.0686293935166
 31
0.0
  0
LINE
  5
CD0
102
{ACAD_REACTORS
330
1005
102
}
330
1F
100
AcDbEntity
  8
0
100
AcDbLine
 10
1574.604885328934
 20
806.4023580877426
 30
0.0
 11
1574.604885328934
 21
913.7336210077325
 31
0.0
  0
LINE
  5
CD1
102
{ACAD_REACTORS
330
1005
102
}
330
1F
100
AcDbEntity
  8
0
100
AcDbLine
 10
1594.604885328934
 20
814.1344242238226
 30
0.0
 11
1594.604885328934
 21
913.7336210077325
 31
0.0
  0
LINE
  5
CD2
330
1F
100
AcDbEntity
  8
0
100
AcDbLine
 10
1614.604885328934
 20
866.4049827429355
 30
0.0
 11
1614.604885328934
 21
913.7336210077325
 31
0.0
  0
ARC
  5
CD3
330
1F
100
AcDbEntity
  8
0
100
AcDbCircle
 10
1500.604885328934
 20
770.6252704477458
 30
0.0
 40
6.0
100
AcDbArc
 50
180.0
 51
276.3793702084545
  0
ARC
  5
CD4
330
1F
100
AcDbEntity
  8
0
100
AcDbCircle
 10
1508.604885328934
 20
771.7477062133416
 30
0.0
 40
6.0
100
AcDbArc
 50
279.5940682268517
 51
0.0
  0
ARC
  5
CD5
330
1F
100
AcDbEntity
  8
0
100
AcDbCircle
 10
1484.604885328934
 20
913.7336210077323
 30
0.0
 40
150.0
100
AcDbArc
 50
276.3793702084545
 51
279.5940682268517
  0
LINE
  5
CD6
330
1F
100
AcDbEntity
  8
0
100
AcDbLine
 10
1494.604885328934
 20
913.7336210077325
 30
0.0
 11
1494.604885328934
 21
770.625270447746
 31
0.0
  0
LINE
  5
CD7
330
1F
100
AcDbEntity
  8
0
100
AcDbLine
 10
1514.604885328935
 20
913.7336210077325
 30
0.0
 11
1514.604885328935
 21
771.7477062133416
 31
0.0
  0
ARC
  5
CD8
330
1F
100
AcDbEntity
  8
0
100
AcDbCircle
 10
1484.604885328934
 20
913.7336210077323
 30
0.0
 40
180.0
100
AcDbArc
 50
180.0
 51
0.0
  0
DIMENSION
  5
DE3
102
{ACAD_XDICTIONARY
360
DF0
102
}
102
{ACAD_REACTORS
330
DF1
102
}
330
1F
100
AcDbEntity
  8
AM_5
100
AcDbDimension
  2
*D3
 10
1484.604885328934
 20
1312.918172611148
 30
0.0
 11
1665.104885328934
 21
1321.918172611148
 31
0.0
 70
    32
 71
     5
 42
361.0
  3
AM_ISO$0
100
AcDbAlignedDimension
 13
1845.604885328934
 23
1452.108752969803
 33
0.0
 14
1484.604885328934
 24
1390.918173611148
 34
0.0
 50
0.0000000000001132
100
AcDbRotatedDimension
1001
ACAD
1000
DSTYLE
1002
{
1070
    41
1040
10.0
1070
   140
1040
15.0
1070
   271
1070
     0
1002
}
  0
DIMENSION
  5
E16
330
1F
100
AcDbEntity
  8
AM_5
100
AcDbDimension
  2
*D4
 10
1724.76719144597
 20
1629.418173611148
 30
0.0
 11
1715.767191445969
 21
1604.607513439368
 31
0.0
 70
    32
 71
     5
 42
4.999999999999772
  3
AM_ISO$0
100
AcDbAlignedDimension
 13
1484.604885328934
 23
1634.418173611148
 33
0.0
 14
1484.604885328934
 24
1629.418173611148
 34
0.0
 50
90.0
100
AcDbRotatedDimension
1001
ACAD
1000
DSTYLE
1002
{
1070
    41
1040
10.0
1070
   140
1040
15.0
1070
   271
1070
     0
1002
}
  0
DIMENSION
  5
E44
102
{ACAD_XDICTIONARY
360
E51
102
}
102
{ACAD_REACTORS
330
E52
102
}
330
1F
100
AcDbEntity
  8
AM_5
100
AcDbDimension
  2
*D5
 10
1959.057902693779
 20
1452.108752969803
 30
0.0
 11
1950.057902693779
 21
1544.013463290476
 31
0.0
 70
    32
 71
     5
 42
183.8094206413441
  3
AM_ISO$0
100
AcDbAlignedDimension
 13
1682.604885328935
 23
1635.918173611148
 33
0.0
 14
1845.604885328934
 24
1452.108752969803
 34
0.0
 50
90.00000000000003
100
AcDbRotatedDimension
1001
ACAD
1000
DSTYLE
1002
{
1070
    41
1040
10.0
1070
   140
1040
15.0
1070
   271
1070
     0
1002
}
  0
DIMENSION
  5
E9E
102
{ACAD_XDICTIONARY
360
EAB
102
}
102
{ACAD_REACTORS
330
EAC
102
}
330
1F
100
AcDbEntity
  8
AM_5
100
AcDbDimension
  2
*D6
 10
1237.743043691495
 20
1580.918173611148
 30
0.0
 11
1228.743043691494
 21
1608.418173611148
 31
0.0
 70
    32
 71
     5
 42
55.0
  3
AM_ISO$0
100
AcDbAlignedDimension
 13
1301.604885328935
 23
1635.918173611148
 33
0.0
 14
1304.604885328935
 24
1580.918173611148
 34
0.0
 50
90.00000000000003
100
AcDbRotatedDimension
1001
ACAD
1000
DSTYLE
1002
{
1070
    41
1040
10.0
1070
   140
1040
15.0
1070
   271
1070
     0
1002
}
  0
DIMENSION
  5
EC8
102
{ACAD_XDICTIONARY
360
ED5
102
}
102
{ACAD_REACTORS
330
ED6
102
}
330
1F
100
AcDbEntity
  8
AM_5
100
AcDbDimension
  2
*D7
 10
1166.109863454214
 20
1390.918173611148
 30
0.0
 11
1157.108387076261
 21
1513.418173611148
 31
0.0
 70
    32
 71
     5
 42
244.9999999999998
  3
AM_ISO$0
100
AcDbAlignedDimension
 13
1286.604885328934
 23
1635.918173611148
 33
0.0
 14
1360.62492249819
 24
1390.918173611148
 34
0.0
 50
90.00000000000003
100
AcDbRotatedDimension
1001
ACAD
1000
DSTYLE
1002
{
1070
    41
1040
10.0
1070
   140
1040
15.0
1070
   271
1070
     0
1002
}
  0
MTEXT
  5
F2D
330
1F
100
AcDbEntity
  8
AM_5
100
AcDbMText
 10
1966.307274438957
 20
1453.937398401893
 30
0.0
 40
5.0
 41
65.50584585560319
 71
     1
 72
     5
  1
1,5
 73
     1
 44
1.0
1001
ACAD
1000
MTEXTBEGIN
1070
    73
1070
     1
1070
    44
1040
1.0
1070
    74
1070
     0
1000
MTEXTEND
  0
CIRCLE
  5
F2E
330
1F
100
AcDbEntity
  8
AM_5
100
AcDbCircle
 10
1974.649517423882
 20
1454.070430109245
 30
0.0
 40
0.6456931089196587
  0
LINE
  5
F2F
330
1F
100
AcDbEntity
  8
7A
100
AcDbLine
 10
1484.604885328935
 20
1390.918173611148
 30
0.0
 11
1484.604885328935
 21
1487.418173611148
 31
0.0
  0
LINE
  5
F3B
330
1F
100
AcDbEntity
  8
7A
100
AcDbLine
 10
1845.604885328934
 20
1452.108752969803
 30
0.0
 11
1768.502161956692
 21
1456.149535478417
 31
0.0
  0
HATCH
  5
FA7
330
1F
100
AcDbEntity
  8
8
100
AcDbHatch
 10
0.0
 20
0.0
 30
0.0
210
0.0
220
0.0
230
1.0
  2
ANSI31
 70
     0
 71
     1
 91
        9
 92
        7
 72
     1
 73
     1
 93
        8
 10
1663.604885328933
 20
1622.418173611151
 42
0.0
 10
1664.604885328933
 20
1634.41817361115
 42
0.0
 10
1634.604885328934
 20
1634.41817361115
 42
0.0
 10
1643.324251310176
 20
1582.586386944881
 42
0.3661997212328687
 10
1645.296538715217
 20
1580.91817361115
 42
0.0
 10
1653.766770677968
 20
1580.918173611151
 42
0.332868709755328
 10
1655.685831180168
 20
1582.354962470549
 42
0.0
 10
1657.604885328933
 20
1616.418173611151
 42
0.0
 97
        8
330
BF6
330
BD1
330
BF3
330
BF9
330
BF7
330
BF8
330
BF4
330
BF5
 92
        7
 72
     1
 73
     1
 93
        6
 10
1615.62058283405
 20
1632.879971342543
 42
0.0
 10
1594.604885328933
 20
1631.041336054755
 42
0.0
 10
1598.217946129988
 20
1589.743862125654
 42
0.3888787318529596
 10
1600.210335526171
 20
1587.91817361115
 42
0.0
 10
1608.330517713084
 20
1587.91817361115
 42
0.3788661086953435
 10
1610.315610016366
 20
1589.67443492434
 42
0.0
 97
        6
330
BD6
330
BD5
330
BDE
330
BD3
330
BDF
330
BD4
 92
        7
 72
     1
 73
     1
 93
        6
 10
1574.604885328933
 20
1630.363262426217
 42
0.0
 10
1554.604885328933
 20
1629.035581081248
 42
0.0
 10
1558.330094132169
 20
1587.202953331151
 42
0.3829753422843218
 10
1560.318480470655
 20
1585.418173611149
 42
0.0
 10
1569.382254912783
 20
1585.418173611149
 42
0.3910496176746614
 10
1571.375901544079
 20
1587.25888422191
 42
0.0
 97
        6
330
BE0
330
BD9
330
BDC
330
BDB
330
BDD
330
BD7
 92
        7
 72
     1
 73
     1
 93
        6
 10
1534.604885328933
 20
1630.363262426216
 42
0.0
 10
1514.604885328934
 20
1629.035581081248
 42
0.0
 10
1518.330094132169
 20
1587.202953331151
 42
0.3829753422843218
 10
1520.318480470655
 20
1585.418173611149
 42
0.0
 10
1529.382254912783
 20
1585.418173611149
 42
0.3910496176751481
 10
1531.375901544079
 20
1587.258884221913
 42
0.0
 97
        6
330
C04
330
C09
330
C06
330
C07
330
C05
330
C0B
 92
        7
 72
     1
 73
     1
 93
        8
 10
1494.604885328933
 20
1629.418173611148
 42
0.0
 10
1484.604885328933
 20
1629.418173611148
 42
0.0
 10
1474.604885328933
 20
1629.418173611148
 42
0.0
 10
1478.630032036458
 20
1586.186959071973
 42
0.3806701782833036
 10
1480.616622038667
 20
1584.418173611148
 42
0.0
 10
1484.604885328933
 20
1584.418173611148
 42
0.0
 10
1488.593148619201
 20
1584.418173611148
 42
0.3806701782833037
 10
1490.579738621409
 20
1586.186959071973
 42
0.0
 97
        8
330
BE9
330
BAC
330
BA4
330
BAD
330
BBD
330
BFB
330
BEA
330
BE1
 92
        7
 72
     1
 73
     1
 93
        6
 10
1454.604885328933
 20
1629.035581081247
 42
0.0
 10
1434.604885328934
 20
1630.363262426216
 42
0.0
 10
1437.833869113789
 20
1587.258884221912
 42
0.3910496176751177
 10
1439.827515745085
 20
1585.418173611148
 42
0.0
 10
1448.891290187213
 20
1585.418173611148
 42
0.3829753422843512
 10
1450.879676525699
 20
1587.20295333115
 42
0.0
 97
        6
330
BC6
330
BCD
330
BC7
330
BC9
330
BC8
330
BCB
 92
        7
 72
     1
 73
     1
 93
        6
 10
1414.604885328933
 20
1629.035581081247
 42
0.0
 10
1394.604885328933
 20
1630.363262426215
 42
0.0
 10
1397.833869113789
 20
1587.258884221912
 42
0.3910496176751177
 10
1399.827515745085
 20
1585.418173611148
 42
0.0
 10
1408.891290187213
 20
1585.418173611148
 42
0.3829753422843512
 10
1410.879676525699
 20
1587.20295333115
 42
0.0
 97
        6
330
BA3
330
B9A
330
BA0
330
B9E
330
B9F
330
B9C
 92
        7
 72
     1
 73
     1
 93
        6
 10
1374.604885328934
 20
1631.041336054754
 42
0.0
 10
1353.589187823817
 20
1632.879971342542
 42
0.0
 10
1358.894160641501
 20
1589.674434924338
 42
0.3788661086953436
 10
1360.879252944784
 20
1587.918173611148
 42
0.0
 10
1368.999435131696
 20
1587.918173611148
 42
0.3888787318529598
 10
1370.99182452788
 20
1589.743862125653
 42
0.0
 97
        6
330
B99
330
B97
330
BA2
330
B96
330
BA1
330
B98
 92
        7
 72
     1
 73
     1
 93
        8
 10
1334.604885328933
 20
1634.418173611148
 42
0.0
 10
1304.604885328933
 20
1634.418173611148
 42
0.0
 10
1305.604885328934
 20
1622.418173611148
 42
0.0
 10
1311.604885328933
 20
1616.418173611148
 42
0.0
 10
1313.5239394777
 20
1582.354962470547
 42
0.3328687097553202
 10
1315.442999979899
 20
1580.918173611148
 42
0.0
 10
1323.91323194265
 20
1580.918173611148
 42
0.3661997212328687
 10
1325.885519347692
 20
1582.586386944879
 42
0.0
 97
        8
330
B94
330
C16
330
BB8
330
BB7
330
BBA
330
BB9
330
BBB
330
BB6
 75
     0
 76
     1
 52
0.0
 41
1.0
 77
     0
 78
     1
 53
45.0
 43
0.0
 44
0.0
 45
-2.245064030267287
 46
2.245064030267288
 79
     0
 47
0.5096596236469601
 98
        9
 10
1645.95253117633
 20
1620.667278581491
 10
1603.122019918557
 20
1607.925785894023
 10
1566.920041906851
 20
1603.33884716053
 10
1528.168632533376
 20
1603.848508917034
 10
1481.768909565484
 20
1603.33884716053
 10
1443.527390366185
 20
1605.377488494866
 10
1404.266090818533
 20
1607.416124137517
 10
1365.004791270881
 20
1607.416124137517
 10
1324.723711374878
 20
1615.061022026672
1001
ACAD
1010
0.0
1020
0.0
1030
0.0
  0
DIMENSION
  5
FB7
102
{ACAD_XDICTIONARY
360
FC4
102
}
102
{ACAD_REACTORS
330
FC5
102
}
330
1F
100
AcDbEntity
  8
AM_5
100
AcDbDimension
  2
*D8
 10
1664.604885328933
 20
1681.982078000321
 30
0.0
 11
1484.604885328933
 21
1690.982078000321
 31
0.0
 70
    32
  1
%%c<>
 71
     5
 42
359.9999999999996
  3
AM_ISO$0
100
AcDbAlignedDimension
 13
1304.604885328934
 23
1634.418173611148
 33
0.0
 14
1664.604885328933
 24
1634.418173611151
 34
0.0
 50
359.9999999999999
100
AcDbRotatedDimension
1001
ACAD
1000
DSTYLE
1002
{
1070
    41
1040
10.0
1070
   140
1040
15.0
1070
   271
1070
     0
1002
}
  0
DIMENSION
  5
FF7
102
{ACAD_XDICTIONARY
360
1004
102
}
102
{ACAD_REACTORS
330
1005
102
}
330
1F
100
AcDbEntity
  8
AM_5
100
AcDbDimension
  2
*D9
 10
1594.604885328934
 20
671.5082097776973
 30
0.0
 11
1584.604885328934
 21
680.5096861556501
 31
0.0
 70
    32
 71
     5
 42
20.0
  3
AM_ISO$0
100
AcDbAlignedDimension
 13
1574.604885328934
 23
806.4023580877426
 33
0.0
 14
1594.604885328934
 24
814.1344242238226
 34
0.0
100
AcDbRotatedDimension
1001
ACAD
1000
DSTYLE
1002
{
1070
    41
1040
10.0
1070
   140
1040
15.0
1070
   271
1070
     0
1002
}
  0
LINE
  5
114B
330
1F
100
AcDbEntity
  8
0
100
AcDbLine
 10
1701.290976582106
 20
833.7336210077328
 30
0.0
 11
1659.404770912421
 21
820.7336210077327
 31
0.0
  0
LINE
  5
114C
330
1F
100
AcDbEntity
  8
0
100
AcDbLine
 10
1701.290976582106
 20
993.7336210077328
 30
0.0
 11
1659.404770912421
 21
1006.733621007733
 31
0.0
  0
ARC
  5
114D
330
1F
100
AcDbEntity
  8
0
100
AcDbCircle
 10
1458.977067835277
 20
913.7336210077329
 30
0.0
 40
395.0
100
AcDbArc
 50
348.3149580441581
 51
11.68504195584193
  0
ARC
  5
114E
330
1F
100
AcDbEntity
  8
0
100
AcDbCircle
 10
2088.104885328935
 20
913.7336210077329
 30
0.0
 40
395.0
100
AcDbArc
 50
168.314958044158
 51
191.6850419558419
  0
LINE
  5
114F
330
1F
100
AcDbEntity
  8
0
100
AcDbLine
 10
1845.790976582106
 20
993.7336210077328
 30
0.0
 11
1701.290976582106
 21
993.7336210077328
 31
0.0
  0
LINE
  5
1150
330
1F
100
AcDbEntity
  8
0
100
AcDbLine
 10
1845.790976582106
 20
833.7336210077328
 30
0.0
 11
1701.290976582106
 21
833.7336210077328
 31
0.0
  0
CIRCLE
  5
1151
330
1F
100
AcDbEntity
  8
7A
  6
CENTER
100
AcDbCircle
 10
1484.604885328934
 20
913.7336210077329
 30
0.0
 40
1.0
  0
CIRCLE
  5
1154
330
1F
100
AcDbEntity
  8
0
100
AcDbCircle
 10
1484.604885328934
 20
913.7336210077329
 30
0.0
 40
183.0
  0
CIRCLE
  5
1155
330
1F
100
AcDbEntity
  8
0
100
AcDbCircle
 10
1484.604885328934
 20
913.7336210077329
 30
0.0
 40
198.0
  0
DIMENSION
  5
1158
330
1F
100
AcDbEntity
  8
AM_5
100
AcDbDimension
  2
*D10
 10
1145.72330789253
 20
715.7336210077329
 30
0.0
 11
1136.72330789253
 21
913.7336210077329
 31
0.0
 70
    32
 71
     5
 42
395.9999999999999
  3
AM_ISO$0
100
AcDbAlignedDimension
 13
1484.604885328934
 23
1111.733621007733
 33
0.0
 14
1484.604885328934
 24
715.7336210077328
 34
0.0
 50
90.0
100
AcDbRotatedDimension
1001
ACAD
1000
DSTYLE
1002
{
1070
    41
1040
10.0
1070
   140
1040
15.0
1070
   271
1070
     0
1002
}
  0
ENDSEC
  0
SECTION
  2
OBJECTS
  0
DICTIONARY
  5
C
330
0
100
AcDbDictionary
281
     1
  3
ACAD_COLOR
350
BE
  3
ACAD_GROUP
350
D
  3
ACAD_LAYOUT
350
1A
  3
ACAD_MATERIAL
350
BD
  3
ACAD_MLINESTYLE
350
17
  3
ACAD_PLOTSETTINGS
350
19
  3
ACAD_PLOTSTYLENAME
350
E
  3
ACAD_TABLESTYLE
350
11A
  3
ACDBHEADERROUNDTRIPXREC
350
135D
  3
AcDbVariableDictionary
350
94
  3
AcmDictionary
350
5B
  3
AMG
350
41
  3
AMGSNAPSETTINGS
350
26B
  3
DWGPROPS
350
135C
  0
DICTIONARY
  5
8F
330
1F
100
AcDbDictionary
280
     1
281
     1
  3
ACAD_SORTENTS
360
F64
  0
DICTIONARY
  5
DF0
330
DE3
100
AcDbDictionary
280
     1
281
     1
  3
ACAD_DIMASSOC
360
DF1
  0
DICTIONARY
  5
E51
330
E44
100
AcDbDictionary
280
     1
281
     1
  3
ACAD_DIMASSOC
360
E52
  0
DICTIONARY
  5
EAB
330
E9E
100
AcDbDictionary
280
     1
281
     1
  3
ACAD_DIMASSOC
360
EAC
  0
DICTIONARY
  5
ED5
330
EC8
100
AcDbDictionary
280
     1
281
     1
  3
ACAD_DIMASSOC
360
ED6
  0
DICTIONARY
  5
FC4
330
FB7
100
AcDbDictionary
280
     1
281
     1
  3
ACAD_DIMASSOC
360
FC5
  0
DICTIONARY
  5
1004
330
FF7
100
AcDbDictionary
280
     1
281
     1
  3
ACAD_DIMASSOC
360
1005
  0
DICTIONARY
  5
BE
102
{ACAD_REACTORS
330
C
102
}
330
C
100
AcDbDictionary
281
     1
  0
DICTIONARY
  5
D
102
{ACAD_REACTORS
330
C
102
}
330
C
100
AcDbDictionary
281
     1
  0
DICTIONARY
  5
1A
102
{ACAD_REACTORS
330
C
102
}
330
C
100
AcDbDictionary
281
     1
  3
Layout1
350
1E
  3
Layout2
350
26
  3
Model
350
22
  0
DICTIONARY
  5
BD
102
{ACAD_REACTORS
330
C
102
}
330
C
100
AcDbDictionary
281
     1
  0
DICTIONARY
  5
17
102
{ACAD_REACTORS
330
C
102
}
330
C
100
AcDbDictionary
281
     1
  3
Standard
350
18
  0
DICTIONARY
  5
19
102
{ACAD_REACTORS
330
C
102
}
330
C
100
AcDbDictionary
281
     1
  0
ACDBDICTIONARYWDFLT
  5
E
102
{ACAD_REACTORS
330
C
102
}
330
C
100
AcDbDictionary
281
     1
  3
Normal
350
F
100
AcDbDictionaryWithDefault
340
F
  0
DICTIONARY
  5
11A
102
{ACAD_REACTORS
330
C
102
}
330
C
100
AcDbDictionary
281
     1
  3
Standard
350
11B
  0
DICTIONARY
  5
135D
102
{ACAD_REACTORS
330
C
102
}
330
C
100
AcDbDictionary
281
     1
  0
DICTIONARY
  5
94
102
{ACAD_REACTORS
330
C
102
}
330
C
100
AcDbDictionary
281
     1
  3
CTABLESTYLE
350
138
  3
DIMASSOC
350
96
  3
INDEXCTL
350
95
  3
PROJECTNAME
350
135A
  0
DICTIONARY
  5
5B
102
{ACAD_REACTORS
330
C
102
}
330
C
100
AcDbDictionary
281
     1
  3
AcmBOM
350
272
  3
AcmStdDictionary
350
61
  3
AMDTSECTSYM_ARROWCOLOR
350
123
  0
DICTIONARY
  5
41
102
{ACAD_REACTORS
330
C
102
}
330
C
100
AcDbDictionary
281
     1
  0
DICTIONARY
  5
26B
102
{ACAD_REACTORS
330
C
102
}
330
C
100
AcDbDictionary
281
     1
  0
XRECORD
  5
135C
102
{ACAD_REACTORS
330
C
102
}
330
C
100
AcDbXrecord
280
     1
  1
DWGPROPS COOKIE
  2

  3

  4

  6

  7

  8

  9

300
AmdtFileType=84
301
=
302
=
303
=
304
=
305
=
306
=
307
=
308
=
309
=
 40
0.1235430787037037
 41
2454061.393494051
 42
2454081.800469734
  1

 90
        1
  0
SORTENTSTABLE
  5
F64
102
{ACAD_REACTORS
330
8F
102
}
330
8F
100
AcDbSortentsTable
330
1F
331
C78
  5
C7D
331
C01
  5
C05
331
BC2
  5
BC4
331
634
  5
634
331
C80
  5
C85
331
CCF
  5
CD4
331
BCA
  5
BCC
331
C09
  5
C16
331
63C
  5
63C
331
C88
  5
CB3
331
CD7
  5
E9E
331
B9B
  5
B9D
331
BD2
  5
BD5
331
644
  5
644
331
BDA
  5
BDD
331
64C
  5
64C
331
BA3
  5
BA5
331
BE2
  5
BE9
331
E16
  5
F2E
331
BAB
  5
BAD
331
BEA
  5
BEE
331
BB3
  5
BB5
331
BF2
  5
BF5
331
68C
  5
68C
331
C71
  5
C76
331
CC0
  5
CC5
331
BFA
  5
BFD
331
BBB
  5
BBE
331
62D
  5
62D
331
C79
  5
C7E
331
CC8
  5
CCD
331
BC3
  5
BC6
331
C02
  5
C06
331
635
  5
635
331
C81
  5
C86
331
CD0
  5
CD5
331
B94
  5
B96
331
BCB
  5
BCD
331
C0A
  5
C5D
331
63D
  5
63D
331
C89
  5
CB4
331
CD8
  5
EC8
331
B9C
  5
B9E
331
BD3
  5
BD6
331
645
  5
645
331
BDB
  5
BDE
331
64D
  5
64D
331
114B
  5
114D
331
BA4
  5
BAA
331
F2D
  5
F65
331
E9E
  5
F3B
331
BAC
  5
BAE
331
BEB
  5
BEF
331
C6A
  5
C70
331
CB9
  5
CBF
331
BB4
  5
BB6
331
BF3
  5
BF6
331
626
  5
626
331
C72
  5
C77
331
CC1
  5
CC6
331
BFB
  5
BFE
331
62E
  5
62E
331
C7A
  5
C7F
331
CC9
  5
CCE
331
BC4
  5
BC7
331
6B5
  5
6B5
331
636
  5
636
331
C82
  5
C87
331
CD1
  5
CD6
331
B95
  5
B97
331
BCC
  5
BD2
331
C0B
  5
C5E
331
B9D
  5
B9F
331
BD4
  5
BD7
331
646
  5
646
331
BDC
  5
BDF
331
64E
  5
64E
331
114C
  5
114E
331
BA5
  5
BAB
331
F2E
  5
F66
331
CB2
  5
CB7
331
BAD
  5
BAF
331
BEC
  5
BF0
331
C63
  5
C68
331
1154
  5
1158
331
BB5
  5
BB7
331
BF4
  5
BF7
331
627
  5
627
331
C73
  5
C78
331
CC2
  5
CC7
331
BFC
  5
BFF
331
62F
  5
62F
331
BBD
  5
BC1
331
C7B
  5
C80
331
CCA
  5
CCF
331
637
  5
637
331
C04
  5
C07
331
C83
  5
C88
331
CD2
  5
CD7
331
63F
  5
63F
331
B96
  5
B98
331
BCD
  5
BD3
331
647
  5
647
331
B9E
  5
BA0
331
BD5
  5
BD8
331
64F
  5
64F
331
BDD
  5
BE0
331
114D
  5
114F
331
F2F
  5
FB7
331
CB3
  5
CB8
331
66F
  5
66F
331
BAE
  5
BB1
331
C64
  5
C69
331
1155
  5
11BB
331
EC8
  5
F3C
331
CBB
  5
CC0
331
C6C
  5
C71
331
628
  5
628
331
BB6
  5
BB8
331
BF5
  5
BF8
331
CC3
  5
CC8
331
C74
  5
C79
331
BBE
  5
BC2
331
BFD
  5
C00
331
630
  5
630
331
C7C
  5
C82
331
CCB
  5
CD1
331
C05
  5
C08
331
BC6
  5
BC8
331
638
  5
638
331
FA7
  5
B95
331
B97
  5
B99
331
C84
  5
C89
331
CD3
  5
CD8
331
640
  5
640
331
FB7
  5
114B
331
B9F
  5
BA1
331
BD6
  5
BD9
331
648
  5
648
331
BDE
  5
BE1
331
114E
  5
1150
331
5C1
  5
5C1
331
650
  5
650
331
CAC
  5
CB5
331
C5D
  5
C65
331
CB4
  5
CB9
331
BAF
  5
BB2
331
BEE
  5
BF1
331
C65
  5
C6A
331
C6D
  5
C72
331
CBC
  5
CC1
331
BB7
  5
BB9
331
BF6
  5
BF9
331
629
  5
629
331
DE3
  5
F2D
331
C75
  5
C7A
331
CC4
  5
CC9
331
BFE
  5
C01
331
FF7
  5
114C
331
631
  5
631
331
C7D
  5
C83
331
CCC
  5
CD2
331
BC7
  5
BC9
331
C06
  5
C09
331
639
  5
639
331
B98
  5
B9A
331
C85
  5
CAC
331
CD4
  5
D04
331
641
  5
641
331
BD7
  5
BDA
331
C16
  5
C63
331
649
  5
649
331
BDF
  5
BE2
331
114F
  5
1151
331
BA0
  5
BA2
331
5C2
  5
5C2
331
CAD
  5
CB6
331
BE7
  5
BEA
331
C5E
  5
C67
331
CB5
  5
CBC
331
BEF
  5
BF2
331
C66
  5
C6D
331
C6E
  5
C73
331
CBD
  5
CC2
331
BB8
  5
BBA
331
BF7
  5
BFA
331
62A
  5
62A
331
691
  5
691
331
C76
  5
C7B
331
CC5
  5
CCA
331
BFF
  5
C02
331
632
  5
632
331
C07
  5
C0A
331
BC8
  5
BCA
331
63A
  5
63A
331
B99
  5
B9B
331
C86
  5
CAD
331
CD5
  5
D05
331
642
  5
642
331
BD8
  5
BDB
331
64A
  5
64A
331
BA1
  5
BA3
331
BE0
  5
BE7
331
BE8
  5
BEB
331
1150
  5
1154
331
603
  5
603
331
1158
  5
11BC
331
CB6
  5
CBE
331
BB1
  5
BB3
331
BF0
  5
BF3
331
C67
  5
C6F
331
E44
  5
F2F
331
C6F
  5
C74
331
CBE
  5
CC3
331
BF8
  5
BFB
331
BB9
  5
BBB
331
62B
  5
62B
331
C77
  5
C7C
331
CC6
  5
CCB
331
C00
  5
C04
331
BC1
  5
BC3
331
633
  5
633
331
C7F
  5
C84
331
CCE
  5
CD3
331
BC9
  5
BCB
331
C08
  5
C0B
331
63B
  5
63B
331
C87
  5
CB2
331
CD6
  5
D06
331
B9A
  5
B9C
331
BD1
  5
BD4
331
643
  5
643
331
BD9
  5
BDC
331
64B
  5
64B
331
BA2
  5
BA4
331
BE1
  5
BE8
331
BAA
  5
BAC
331
BE9
  5
BEC
331
1151
  5
1155
331
BB2
  5
BB4
331
BF1
  5
BF4
331
F3B
  5
FF7
331
C70
  5
C75
331
CBF
  5
CC4
331
BBA
  5
BBD
331
BF9
  5
BFC
331
62C
  5
62C
331
CC7
  5
CCC
  0
DIMASSOC
  5
DF1
102
{ACAD_REACTORS
330
DF0
102
}
330
DF0
100
AcDbDimAssoc
330
DE3
 90
        2
 70
     0
 71
     0
  1
AcDbOsnapPointRef
 72
     6
331
62A
 73
     0
 91
        0
 40
4.712388980384689
 10
0.0
 20
0.0
 30
0.0
332
62D
 74
     0
 92
        0
 75
     0
  0
DIMASSOC
  5
E52
102
{ACAD_REACTORS
330
E51
102
}
330
E51
100
AcDbDimAssoc
330
E44
 90
        1
 70
     0
 71
     0
  1
AcDbOsnapPointRef
 72
     1
331
648
 73
     0
 91
        0
 40
0.0
 10
0.0
 20
0.0
 30
2.000000000000000E+50
 75
     0
  0
DIMASSOC
  5
EAC
102
{ACAD_REACTORS
330
EAB
102
}
330
EAB
100
AcDbDimAssoc
330
E9E
 90
        3
 70
     0
 71
     0
  1
AcDbOsnapPointRef
 72
     1
331
649
 73
     0
 91
        0
 40
0.0
 10
0.0
 20
0.0
 30
2.000000000000000E+50
 75
     0
  1
AcDbOsnapPointRef
 72
    13
331
647
 73
     0
 91
        0
 40
0.0
 10
0.0
 20
0.0
 30
2.000000000000000E+50
 75
     0
  0
DIMASSOC
  5
ED6
102
{ACAD_REACTORS
330
ED5
102
}
330
ED5
100
AcDbDimAssoc
330
EC8
 90
        3
 70
     0
 71
     0
  1
AcDbOsnapPointRef
 72
    13
331
649
 73
     0
 91
        0
 40
0.0
 10
0.0
 20
0.0
 30
2.000000000000000E+50
 75
     0
  1
AcDbOsnapPointRef
 72
     1
331
62D
 73
     0
 91
        0
 40
0.0
 10
0.0
 20
0.0
 30
2.000000000000000E+50
 75
     0
  0
DIMASSOC
  5
FC5
102
{ACAD_REACTORS
330
FC4
102
}
330
FC4
100
AcDbDimAssoc
330
FB7
 90
        3
 70
     0
 71
     0
  1
AcDbOsnapPointRef
 72
     1
331
C16
 73
     0
 91
        0
 40
0.0
 10
0.0
 20
0.0
 30
2.000000000000000E+50
 75
     0
  1
AcDbOsnapPointRef
 72
     1
331
BF6
 73
     0
 91
        0
 40
0.0
 10
0.0
 20
0.0
 30
2.000000000000000E+50
 75
     0
  0
DIMASSOC
  5
1005
102
{ACAD_REACTORS
330
1004
102
}
330
1004
100
AcDbDimAssoc
330
FF7
 90
        3
 70
     0
 71
     0
  1
AcDbOsnapPointRef
 72
    13
331
CD0
 73
     0
 91
        0
 40
0.0
 10
0.0
 20
0.0
 30
2.000000000000000E+50
 75
     0
  1
AcDbOsnapPointRef
 72
    13
331
CD1
 73
     0
 91
        0
 40
0.0
 10
0.0
 20
0.0
 30
2.000000000000000E+50
 75
     0
  0
LAYOUT
  5
1E
102
{ACAD_XDICTIONARY
360
135E
102
}
102
{ACAD_REACTORS
330
1A
102
}
330
1A
100
AcDbPlotSettings
  1

  2

  4

  6

 40
0.0
 41
0.0
 42
0.0
 43
0.0
 44
0.0
 45
0.0
 46
0.0
 47
0.0
 48
0.0
 49
0.0
140
0.0
141
0.0
142
1.0
143
1.0
 70
   688
 72
     0
 73
     0
 74
     5
  7

 75
    16
147
1.0
148
0.0
149
0.0
100
AcDbLayout
  1
Layout1
 70
     1
 71
     1
 10
0.0
 20
0.0
 11
420.0
 21
297.0
 12
0.0
 22
0.0
 32
0.0
 14
1.000000000000000E+20
 24
1.000000000000000E+20
 34
1.000000000000000E+20
 15
-1.000000000000000E+20
 25
-1.000000000000000E+20
 35
-1.000000000000000E+20
146
0.0
 13
0.0
 23
0.0
 33
0.0
 16
1.0
 26
0.0
 36
0.0
 17
0.0
 27
1.0
 37
0.0
 76
     0
330
1B
  0
LAYOUT
  5
26
102
{ACAD_XDICTIONARY
360
1362
102
}
102
{ACAD_REACTORS
330
1A
102
}
330
1A
100
AcDbPlotSettings
  1

  2

  4

  6

 40
0.0
 41
0.0
 42
0.0
 43
0.0
 44
0.0
 45
0.0
 46
0.0
 47
0.0
 48
0.0
 49
0.0
140
0.0
141
0.0
142
1.0
143
1.0
 70
   688
 72
     0
 73
     0
 74
     5
  7

 75
    16
147
1.0
148
0.0
149
0.0
100
AcDbLayout
  1
Layout2
 70
     1
 71
     2
 10
0.0
 20
0.0
 11
12.0
 21
9.0
 12
0.0
 22
0.0
 32
0.0
 14
0.0
 24
0.0
 34
0.0
 15
0.0
 25
0.0
 35
0.0
146
0.0
 13
0.0
 23
0.0
 33
0.0
 16
1.0
 26
0.0
 36
0.0
 17
0.0
 27
1.0
 37
0.0
 76
     0
330
23
  0
LAYOUT
  5
22
102
{ACAD_XDICTIONARY
360
1360
102
}
102
{ACAD_REACTORS
330
1A
102
}
330
1A
100
AcDbPlotSettings
  1

  2

  4

  6

 40
0.0
 41
0.0
 42
0.0
 43
0.0
 44
0.0
 45
0.0
 46
0.0
 47
0.0
 48
0.0
 49
0.0
140
0.0
141
0.0
142
1.0
143
1.0
 70
  1712
 72
     0
 73
     0
 74
     0
  7

 75
     0
147
1.0
148
0.0
149
0.0
100
AcDbLayout
  1
Model
 70
     1
 71
     0
 10
0.0
 20
0.0
 11
12.0
 21
9.0
 12
0.0
 22
0.0
 32
0.0
 14
0.0
 24
0.0
 34
0.0
 15
0.0
 25
0.0
 35
0.0
146
0.0
 13
0.0
 23
0.0
 33
0.0
 16
1.0
 26
0.0
 36
0.0
 17
0.0
 27
1.0
 37
0.0
 76
     0
330
1F
  0
MLINESTYLE
  5
18
102
{ACAD_REACTORS
330
17
102
}
330
17
100
AcDbMlineStyle
  2
STANDARD
 70
     0
  3

 62
   256
 51
90.0
 52
90.0
 71
     2
 49
0.5
 62
   256
  6
BYLAYER
 49
-0.5
 62
   256
  6
BYLAYER
  0
ACDBPLACEHOLDER
  5
F
102
{ACAD_REACTORS
330
E
102
}
330
E
  0
TABLESTYLE
  5
11B
102
{ACAD_REACTORS
330
11A
102
}
330
11A
100
AcDbTableStyle
  3
Standard
 70
     0
 71
     0
 40
1.5
 41
1.5
280
     0
281
     0
  7
STANDARD
140
4.5
170
     2
 62
     0
 63
     7
283
     0
274
    -2
284
     1
 64
     0
275
    -2
285
     1
 65
     0
276
    -2
286
     1
 66
     0
277
    -2
287
     1
 67
     0
278
    -2
288
     1
 68
     0
279
    -2
289
     1
 69
     0
  7
STANDARD
140
6.0
170
     5
 62
     0
 63
     7
283
     0
274
    -2
284
     1
 64
     0
275
    -2
285
     1
 65
     0
276
    -2
286
     1
 66
     0
277
    -2
287
     1
 67
     0
278
    -2
288
     1
 68
     0
279
    -2
289
     1
 69
     0
  7
STANDARD
140
4.5
170
     5
 62
     0
 63
     7
283
     0
274
    -2
284
     1
 64
     0
275
    -2
285
     1
 65
     0
276
    -2
286
     1
 66
     0
277
    -2
287
     1
 67
     0
278
    -2
288
     1
 68
     0
279
    -2
289
     1
 69
     0
  0
DICTIONARYVAR
  5
138
102
{ACAD_REACTORS
330
94
102
}
330
94
100
DictionaryVariables
280
     0
  1
STANDARD
  0
DICTIONARYVAR
  5
96
102
{ACAD_REACTORS
330
94
102
}
330
94
100
DictionaryVariables
280
     0
  1
2
  0
DICTIONARYVAR
  5
95
102
{ACAD_REACTORS
330
94
102
}
330
94
100
DictionaryVariables
280
     0
  1
0
  0
DICTIONARYVAR
  5
135A
102
{ACAD_REACTORS
330
94
102
}
330
94
100
DictionaryVariables
280
     0
  1

  0
DICTIONARY
  5
272
102
{ACAD_REACTORS
330
5B
102
}
330
5B
100
AcDbDictionary
281
     1
  0
DICTIONARY
  5
61
102
{ACAD_REACTORS
330
5B
102
}
330
5B
100
AcDbDictionary
281
     1
  0
XRECORD
  5
123
102
{ACAD_REACTORS
330
5B
102
}
330
5B
100
AcDbXrecord
280
     1
 90
-1023410169
  0
DICTIONARY
  5
135E
330
1E
100
AcDbDictionary
280
     1
281
     1
  3
ACAD_XREC_ROUNDTRIP
360
135F
  0
DICTIONARY
  5
1362
330
26
100
AcDbDictionary
280
     1
281
     1
  3
ACAD_XREC_ROUNDTRIP
360
1363
  0
DICTIONARY
  5
1360
330
22
100
AcDbDictionary
280
     1
281
     1
  3
ACAD_XREC_ROUNDTRIP
360
1361
  0
XRECORD
  5
135F
102
{ACAD_REACTORS
330
135E
102
}
330
135E
100
AcDbXrecord
280
     1
102
SHADEPLOT
 70
     0
102
SHADEPLOTRESLEVEL
 70
     2
102
SHADEPLOTCUSTOMDPI
 70
   300
  0
XRECORD
  5
1363
102
{ACAD_REACTORS
330
1362
102
}
330
1362
100
AcDbXrecord
280
     1
102
SHADEPLOT
 70
     0
102
SHADEPLOTRESLEVEL
 70
     2
102
SHADEPLOTCUSTOMDPI
 70
   300
  0
XRECORD
  5
1361
102
{ACAD_REACTORS
330
1360
102
}
330
1360
100
AcDbXrecord
280
     1
102
SHADEPLOT
 70
     0
102
SHADEPLOTRESLEVEL
 70
     2
102
SHADEPLOTCUSTOMDPI
 70
   300
  0
ENDSEC
  0
EOF
