  0
SECTION
  2
HEADER
  9
$ACADVER
  1
AC1015
  9
$ACADMAINTVER
 70
    20
  9
$DWGCODEPAGE
  3
ANSI_1252
  9
$INSBASE
 10
0.0
 20
0.0
 30
0.0
  9
$EXTMIN
 10
1618.973794901452
 20
730.6380203475946
 30
-0.0015258207003583
  9
$EXTMAX
 10
2010.960415194758
 20
1315.943564705036
 30
0.0000000349246037
  9
$LIMMIN
 10
0.0
 20
0.0
  9
$LIMMAX
 10
420.0
 20
297.0
  9
$ORTHOMODE
 70
     0
  9
$REGENMODE
 70
     1
  9
$FILLMODE
 70
     1
  9
$QTEXTMODE
 70
     0
  9
$MIRRTEXT
 70
     1
  9
$LTSCALE
 40
1.0
  9
$ATTMODE
 70
     1
  9
$TEXTSIZE
 40
2.5
  9
$TRACEWID
 40
1.0
  9
$TEXTSTYLE
  7
STANDARD
  9
$CLAYER
  8
0
  9
$CELTYPE
  6
ByLayer
  9
$CECOLOR
 62
   256
  9
$CELTSCALE
 40
1.0
  9
$DISPSILH
 70
     0
  9
$DIMSCALE
 40
1.0
  9
$DIMASZ
 40
2.5
  9
$DIMEXO
 40
1.0
  9
$DIMDLI
 40
10.0
  9
$DIMRND
 40
0.0
  9
$DIMDLE
 40
0.0
  9
$DIMEXE
 40
1.0
  9
$DIMTP
 40
0.1
  9
$DIMTM
 40
0.1
  9
$DIMTXT
 40
3.5
  9
$DIMCEN
 40
0.0
  9
$DIMTSZ
 40
0.0
  9
$DIMTOL
 70
     0
  9
$DIMLIM
 70
     0
  9
$DIMTIH
 70
     0
  9
$DIMTOH
 70
     0
  9
$DIMSE1
 70
     0
  9
$DIMSE2
 70
     0
  9
$DIMTAD
 70
     1
  9
$DIMZIN
 70
     8
  9
$DIMBLK
  1

  9
$DIMASO
 70
     1
  9
$DIMSHO
 70
     1
  9
$DIMPOST
  1

  9
$DIMAPOST
  1
"
  9
$DIMALT
 70
     0
  9
$DIMALTD
 70
     2
  9
$DIMALTF
 40
0.0393701
  9
$DIMLFAC
 40
1.0
  9
$DIMTOFL
 70
     1
  9
$DIMTVP
 40
0.0
  9
$DIMTIX
 70
     0
  9
$DIMSOXD
 70
     0
  9
$DIMSAH
 70
     0
  9
$DIMBLK1
  1

  9
$DIMBLK2
  1

  9
$DIMSTYLE
  2
AM_ISO
  9
$DIMCLRD
 70
   256
  9
$DIMCLRE
 70
   256
  9
$DIMCLRT
 70
     2
  9
$DIMTFAC
 40
0.71
  9
$DIMGAP
 40
1.5
  9
$DIMJUST
 70
     0
  9
$DIMSD1
 70
     0
  9
$DIMSD2
 70
     0
  9
$DIMTOLJ
 70
     0
  9
$DIMTZIN
 70
     8
  9
$DIMALTZ
 70
     0
  9
$DIMALTTZ
 70
     0
  9
$DIMUPT
 70
     0
  9
$DIMDEC
 70
     2
  9
$DIMTDEC
 70
     3
  9
$DIMALTU
 70
     2
  9
$DIMALTTD
 70
     4
  9
$DIMTXSTY
  7
STANDARD
  9
$DIMAUNIT
 70
     0
  9
$DIMADEC
 70
     0
  9
$DIMALTRND
 40
0.0
  9
$DIMAZIN
 70
     2
  9
$DIMDSEP
 70
    46
  9
$DIMATFIT
 70
     3
  9
$DIMFRAC
 70
     0
  9
$DIMLDRBLK
  1

  9
$DIMLUNIT
 70
     2
  9
$DIMLWD
 70
    -1
  9
$DIMLWE
 70
    -1
  9
$DIMTMOVE
 70
     0
  9
$LUNITS
 70
     2
  9
$LUPREC
 70
     2
  9
$SKETCHINC
 40
1.0
  9
$FILLETRAD
 40
2.5
  9
$AUNITS
 70
     0
  9
$AUPREC
 70
     0
  9
$MENU
  1
.
  9
$ELEVATION
 40
0.0
  9
$PELEVATION
 40
0.0
  9
$THICKNESS
 40
0.0
  9
$LIMCHECK
 70
     0
  9
$CHAMFERA
 40
2.5
  9
$CHAMFERB
 40
2.5
  9
$CHAMFERC
 40
20.0
  9
$CHAMFERD
 40
0.0
  9
$SKPOLY
 70
     0
  9
$TDCREATE
 40
2454067.407894502
  9
$TDUCREATE
 40
2454067.366227835
  9
$TDUPDATE
 40
2454087.927153635
  9
$TDUUPDATE
 40
2454087.885486968
  9
$TDINDWG
 40
0.0338671991
  9
$TDUSRTIMER
 40
0.0338671991
  9
$USRTIMER
 70
     1
  9
$ANGBASE
 50
0.0
  9
$ANGDIR
 70
     0
  9
$PDMODE
 70
     0
  9
$PDSIZE
 40
0.0
  9
$PLINEWID
 40
0.0
  9
$SPLFRAME
 70
     0
  9
$SPLINETYPE
 70
     6
  9
$SPLINESEGS
 70
     8
  9
$HANDSEED
  5
149E
  9
$SURFTAB1
 70
     6
  9
$SURFTAB2
 70
     6
  9
$SURFTYPE
 70
     6
  9
$SURFU
 70
     6
  9
$SURFV
 70
     6
  9
$UCSBASE
  2

  9
$UCSNAME
  2

  9
$UCSORG
 10
0.0
 20
0.0
 30
0.0
  9
$UCSXDIR
 10
1.0
 20
0.0
 30
0.0
  9
$UCSYDIR
 10
0.0
 20
1.0
 30
0.0
  9
$UCSORTHOREF
  2

  9
$UCSORTHOVIEW
 70
     0
  9
$UCSORGTOP
 10
0.0
 20
0.0
 30
0.0
  9
$UCSORGBOTTOM
 10
0.0
 20
0.0
 30
0.0
  9
$UCSORGLEFT
 10
0.0
 20
0.0
 30
0.0
  9
$UCSORGRIGHT
 10
0.0
 20
0.0
 30
0.0
  9
$UCSORGFRONT
 10
0.0
 20
0.0
 30
0.0
  9
$UCSORGBACK
 10
0.0
 20
0.0
 30
0.0
  9
$PUCSBASE
  2

  9
$PUCSNAME
  2

  9
$PUCSORG
 10
0.0
 20
0.0
 30
0.0
  9
$PUCSXDIR
 10
1.0
 20
0.0
 30
0.0
  9
$PUCSYDIR
 10
0.0
 20
1.0
 30
0.0
  9
$PUCSORTHOREF
  2

  9
$PUCSORTHOVIEW
 70
     0
  9
$PUCSORGTOP
 10
0.0
 20
0.0
 30
0.0
  9
$PUCSORGBOTTOM
 10
0.0
 20
0.0
 30
0.0
  9
$PUCSORGLEFT
 10
0.0
 20
0.0
 30
0.0
  9
$PUCSORGRIGHT
 10
0.0
 20
0.0
 30
0.0
  9
$PUCSORGFRONT
 10
0.0
 20
0.0
 30
0.0
  9
$PUCSORGBACK
 10
0.0
 20
0.0
 30
0.0
  9
$USERI1
 70
     0
  9
$USERI2
 70
     0
  9
$USERI3
 70
     0
  9
$USERI4
 70
     0
  9
$USERI5
 70
     0
  9
$USERR1
 40
0.0
  9
$USERR2
 40
0.0
  9
$USERR3
 40
0.0
  9
$USERR4
 40
0.0
  9
$USERR5
 40
0.0
  9
$WORLDVIEW
 70
     1
  9
$SHADEDGE
 70
     3
  9
$SHADEDIF
 70
    70
  9
$TILEMODE
 70
     1
  9
$MAXACTVP
 70
    64
  9
$PINSBASE
 10
0.0
 20
0.0
 30
0.0
  9
$PLIMCHECK
 70
     0
  9
$PEXTMIN
 10
1.000000000000000E+20
 20
1.000000000000000E+20
 30
1.000000000000000E+20
  9
$PEXTMAX
 10
-1.000000000000000E+20
 20
-1.000000000000000E+20
 30
-1.000000000000000E+20
  9
$PLIMMIN
 10
0.0
 20
0.0
  9
$PLIMMAX
 10
420.0
 20
297.0
  9
$UNITMODE
 70
     0
  9
$VISRETAIN
 70
     1
  9
$PLINEGEN
 70
     0
  9
$PSLTSCALE
 70
     1
  9
$TREEDEPTH
 70
  3020
  9
$CMLSTYLE
  2
Standard
  9
$CMLJUST
 70
     0
  9
$CMLSCALE
 40
20.0
  9
$PROXYGRAPHICS
 70
     1
  9
$MEASUREMENT
 70
     1
  9
$CELWEIGHT
370
    -1
  9
$ENDCAPS
280
     0
  9
$JOINSTYLE
280
     0
  9
$LWDISPLAY
290
     0
  9
$INSUNITS
 70
     4
  9
$HYPERLINKBASE
  1

  9
$STYLESHEET
  1
monochrome.ctb
  9
$XEDIT
290
     1
  9
$CEPSNTYPE
380
     0
  9
$PSTYLEMODE
290
     1
  9
$FINGERPRINTGUID
  2
{02B6E7C1-392B-4F8C-9FA8-A387819EB8FF}
  9
$VERSIONGUID
  2
{BE43D478-6FA3-4521-91BB-A5359531300A}
  9
$EXTNAMES
290
     1
  9
$PSVPSCALE
 40
0.0
  9
$OLESTARTUP
290
     0
  0
ENDSEC
  0
SECTION
  2
CLASSES
  0
CLASS
  1
ACDBDICTIONARYWDFLT
  2
AcDbDictionaryWithDefault
  3
ObjectDBX Classes
 90
        0
280
     0
281
     0
  0
CLASS
  1
ACDBPLACEHOLDER
  2
AcDbPlaceHolder
  3
ObjectDBX Classes
 90
        0
280
     0
281
     0
  0
CLASS
  1
LAYOUT
  2
AcDbLayout
  3
ObjectDBX Classes
 90
        0
280
     0
281
     0
  0
CLASS
  1
ACME_DOCUMENT
  2
AcMeDbDoc
  3
AcMeServices
 90
        0
280
     0
281
     0
  0
CLASS
  1
AMGSETTINGSOBJ
  2
AmgSettingsObj
  3
"AcadM|Product Description: AutoCAD Mechanical 2000|Company: Autodesk"
 90
        0
280
     0
281
     0
  0
CLASS
  1
ACMESCOPE
  2
AcMeScope
  3
AcMeServices
 90
        0
280
     0
281
     0
  0
CLASS
  1
ACMECOMMANDHISTORY
  2
AcMeCommandHistory
  3
AcMeServices
 90
        0
280
     0
281
     0
  0
CLASS
  1
ACIMSYSVARMAN
  2
AcImSysVarManager
  3
AcMeServices
 90
        0
280
     0
281
     0
  0
CLASS
  1
ACIMREALSYSVAR
  2
AcImRealSysVar
  3
AcMeServices
 90
        0
280
     0
281
     0
  0
CLASS
  1
ACIMINTSYSVAR
  2
AcImIntSysVar
  3
AcMeServices
 90
        0
280
     0
281
     0
  0
CLASS
  1
ACMEDRAWINGMAN
  2
AcMeDrawingMan
  3
AcMeServices
 90
        0
280
     0
281
     0
  0
CLASS
  1
ACMEVIEW
  2
AcMeView
  3
AcMeServices
 90
        0
280
     0
281
     0
  0
CLASS
  1
ACDBENTITYCACHE
  2
AcMeEntityCache
  3
AcMeServices
 90
        0
280
     0
281
     0
  0
CLASS
  1
GSMANAGER
  2
AcMeGSManager
  3
AcMeServices
 90
        0
280
     0
281
     0
  0
CLASS
  1
AMDTINTERNALREACTOR
  2
AmdtInternalReactor
  3
AcMeServices
 90
        0
280
     0
281
     0
  0
CLASS
  1
ACMESTATEMGR
  2
AcMeStateMgr
  3
AcMeServices
 90
        0
280
     0
281
     0
  0
CLASS
  1
ACGREFMASTER
  2
AcGrefMaster
  3
AcAttribServices
 90
        0
280
     0
281
     0
  0
CLASS
  1
ACME_DATABASE
  2
AcMeDbDatabase
  3
AcMeServices
 90
        0
280
     0
281
     0
  0
CLASS
  1
ACRFINSADJUSTERMGR
  2
AcRfInsAdjusterMgr
  3
AcMeServices
 90
        0
280
     0
281
     0
  0
CLASS
  1
ACGREFACADMASTER
  2
AcGrefacadMaster
  3
AcGrefServices
 90
        0
280
     0
281
     0
  0
CLASS
  1
AMIMASTER
  2
AmiMaster
  3
AmiServices
 90
        0
280
     0
281
     0
  0
CLASS
  1
ACMDATADICTIONARY
  2
AcmDataDictionary
  3
"AcmSymBB|Product Description: AutoCAD Mechanical 2004 DX|Company: Autodesk"
 90
        0
280
     0
281
     0
  0
CLASS
  1
ACMDATAENTRYBLOCK
  2
AcmDataEntryBlock
  3
"AcmSymBB|Product Description: AutoCAD Mechanical 2004 DX|Company: Autodesk"
 90
        0
280
     0
281
     0
  0
CLASS
  1
ACIMSTRSYSVAR
  2
AcImStrSysVar
  3
AcMeServices
 90
        0
280
     0
281
     0
  0
CLASS
  1
ACMSTANDARDISO
  2
AcmStandardISO
  3
"Amdt_StdImp|Product Description: AutoCAD Mechanical 2004 DX|Company: Autodesk"
 90
        0
280
     0
281
     0
  0
CLASS
  1
AMGOBJPROPCFG
  2
AmgObjPropCfg
  3
"AmgLay|Product Description: AutoCAD Mechanical 2000|Company: Autodesk"
 90
        1
280
     0
281
     0
  0
CLASS
  1
AMDTEDGESTANDARDISO
  2
AmdtEdgeStdISO
  3
"Amdt_StdImp|Product Description: AutoCAD Mechanical 2004 DX|Company: Autodesk"
 90
        0
280
     0
281
     0
  0
CLASS
  1
ACMSURFSTANDARDISO
  2
AcmSurfTextStdISO
  3
"Amdt_StdImp|Product Description: AutoCAD Mechanical 2004 DX|Company: Autodesk"
 90
        0
280
     0
281
     0
  0
CLASS
  1
ACMFCFSTANDARDISO
  2
AcmFCFStdISO
  3
"Amdt_StdImp|Product Description: AutoCAD Mechanical 2004 DX|Company: Autodesk"
 90
        0
280
     0
281
     0
  0
CLASS
  1
ACMWELDSTANDARDISO
  2
AcmWeldingStdISO
  3
"Amdt_StdImp|Product Description: AutoCAD Mechanical 2004 DX|Company: Autodesk"
 90
        0
280
     0
281
     0
  0
CLASS
  1
ACMIDSTANDARDISO
  2
AcmIdStdISO
  3
"Amdt_StdImp|Product Description: AutoCAD Mechanical 2004 DX|Company: Autodesk"
 90
        0
280
     0
281
     0
  0
CLASS
  1
ACMDATUMSTANDARDISO
  2
AcmDatumStdISO
  3
"Amdt_StdImp|Product Description: AutoCAD Mechanical 2004 DX|Company: Autodesk"
 90
        0
280
     0
281
     0
  0
CLASS
  1
ACMBOMSTANDARDISO
  2
AcmBOMStdISO
  3
"Amdt_StdImp|Product Description: AutoCAD Mechanical 2004 DX|Company: Autodesk"
 90
        0
280
     0
281
     0
  0
CLASS
  1
ACMDETAILSTANDARDISO
  2
AmdtDetailSymStdISO
  3
"Amdt_StdImp|Product Description: AutoCAD Mechanical 2004 DX|Company: Autodesk"
 90
        0
280
     0
281
     0
  0
CLASS
  1
ACMSECTIONSTANDARDISO
  2
AmdtSectionSymStdISO
  3
"Amdt_StdImp|Product Description: AutoCAD Mechanical 2004 DX|Company: Autodesk"
 90
        0
280
     0
281
     0
  0
CLASS
  1
ACMCENTERLINESTANDARDISO
  2
AmdtCenterLineStdISO
  3
"Amdt_StdImp|Product Description: AutoCAD Mechanical 2004 DX|Company: Autodesk"
 90
        0
280
     0
281
     0
  0
CLASS
  1
ACMNOTESTANDARDISO
  2
AmdtNoteStdISO
  3
"Amdt_StdImp|Product Description: AutoCAD Mechanical 2004 DX|Company: Autodesk"
 90
        0
280
     0
281
     0
  0
CLASS
  1
ACAMGLAYSTD
  2
AcAmgLayStd
  3
"AcAmgLayStd|Product Description: AutoCAD Mechanical 2000|Company: Autodesk"
 90
        0
280
     0
281
     0
  0
CLASS
  1
ACAMGDIMSTD
  2
AcAmgDimStd
  3
"AcAmgDimStd|Product Description: AutoCAD Mechanical 2000|Company: Autodesk"
 90
        0
280
     0
281
     0
  0
CLASS
  1
ACAMGHOLECHARTSTDISO
  2
AcAmgHoleChartStdISO
  3
ACMSYMBB_MODULE_NAME
 90
        0
280
     0
281
     0
  0
CLASS
  1
ACAMGTITLESTD
  2
AcAmgTitleStd
  3
"TITLEAPP"
 90
        0
280
     0
281
     0
  0
CLASS
  1
LAYER_INDEX
  2
AcDbLayerIndex
  3
ObjectDBX Classes
 90
    32768
280
     0
281
     0
  0
CLASS
  1
IDBUFFER
  2
AcDbIdBuffer
  3
ObjectDBX Classes
 90
    32768
280
     0
281
     0
  0
CLASS
  1
DICTIONARYVAR
  2
AcDbDictionaryVar
  3
ObjectDBX Classes
 90
        0
280
     0
281
     0
  0
CLASS
  1
AM_DRAWING_MGR
  2
AcDmDwgMgr
  3
AcMechDwgViewMgmt
 90
        0
280
     0
281
     0
  0
CLASS
  1
AM_DWG_DOCUMENT
  2
AcDmDwgDocument
  3
AcMechDwgViewMgmt
 90
        0
280
     0
281
     0
  0
CLASS
  1
AM_DWG_SHEET
  2
AcDmSheet
  3
AcMechDwgViewMgmt
 90
        0
280
     0
281
     0
  0
CLASS
  1
AM_VIEWDIMPARMAP
  2
AcDmViewDimParMap
  3
AcMechDwgViewMgmt
 90
        0
280
     0
281
     0
  0
CLASS
  1
AM_DWGMGR_NAME
  2
AcDmDwgMgrName
  3
AcMechDwgViewMgmt
 90
        0
280
     0
281
     0
  0
CLASS
  1
AMDTMENUSTATEMGR
  2
AmdtMenuStateMgr
  3
McadcomServices
 90
        0
280
     0
281
     0
  0
CLASS
  1
AMDTMCOMMENUSTATE
  2
AmdtMcomMenuState
  3
McadcomServices
 90
        0
280
     0
281
     0
  0
CLASS
  1
MAPIAMMOUDLE
  2
MApiAmModule
  3
MApiAmServices
 90
        0
280
     0
281
     0
  0
CLASS
  1
AMDTADMENUSTATE
  2
AmdtAdMenuState
  3
DesignerServices
 90
        0
280
     0
281
     0
  0
CLASS
  1
ADAPPL
  2
AcAdAppl
  3
DesignerServices
 90
        0
280
     0
281
     0
  0
CLASS
  1
DEPMGR
  2
AcAdDepMgr
  3
DesignerServices
 90
        0
280
     0
281
     0
  0
CLASS
  1
PARAMMGR
  2
AcAdParamMgr
  3
DesignerServices
 90
        0
280
     0
281
     0
  0
CLASS
  1
PARAMSCOPE
  2
AcAdParamScope
  3
DesignerServices
 90
        0
280
     0
281
     0
  0
CLASS
  1
NAMEDAPPL
  2
AcAdNamedAppl
  3
DesignerServices
 90
        0
280
     0
281
     0
  0
CLASS
  1
AMDTDMMENUSTATE
  2
AmdtDmMenuState
  3
AcMechDwgViewMgmt
 90
        0
280
     0
281
     0
  0
CLASS
  1
AMDTAMMENUSTATE
  2
AmdtAmMenuState
  3
DesignerAssemblies
 90
        0
280
     0
281
     0
  0
CLASS
  1
ACAMPROJECT
  2
AcAmProject
  3
DesignerAssemblies
 90
        0
280
     0
281
     0
  0
CLASS
  1
ACAMGRCOMPDEF
  2
AcAmGrCompDef
  3
DesignerAssemblies
 90
        0
280
     0
281
     0
  0
CLASS
  1
ACCMCONTEXT
  2
AcCmContext
  3
DesignerAssemblies
 90
        0
280
     0
281
     0
  0
CLASS
  1
ACAMCOMPDEF
  2
AcAmCompDef
  3
DesignerAssemblies
 90
        0
280
     0
281
     0
  0
CLASS
  1
ACAMCOMPDEFMGR
  2
AcAmCompDefMgr
  3
DesignerAssemblies
 90
        0
280
     0
281
     0
  0
CLASS
  1
AMCONTEXTMGR
  2
AcAmContextMgr
  3
DesignerAssemblies
 90
        0
280
     0
281
     0
  0
CLASS
  1
ACAMCONTEXTMODELER
  2
AcAmContextModeler
  3
DesignerAssemblies
 90
        0
280
     0
281
     0
  0
CLASS
  1
ACMTHREADLINESTANDARDISO
  2
AmdtThreadLineStdISO
  3
"Amdt_StdImp|Product Description: AutoCAD Mechanical 2004 DX|Company: Autodesk"
 90
        0
280
     0
281
     0
  0
CLASS
  1
CATALOGSTATE
  2
AcAmCatalogState
  3
DesignerAssemblies
 90
        0
280
     0
281
     0
  0
CLASS
  1
ACAMGRCOMPDEFSET
  2
AcAmGrCompDefSet
  3
DesignerAssemblies
 90
        0
280
     0
281
     0
  0
CLASS
  1
AMDTBROWSERDBTAB
  2
AmdtBrowserDbTab
  3
McadcomServices
 90
        0
280
     0
281
     0
  0
CLASS
  1
CBROWSERAPPOBJECT
  2
CBrowserAppObject
  3
McadcomServices
 90
        0
280
     0
281
     0
  0
CLASS
  1
DM_PLACEHOLDER
  2
AcDmSelsetPlaceholder
  3
AcMechDwgViewMgmt
 90
        0
280
     0
281
     0
  0
CLASS
  1
TABLESTYLE
  2
AcDbTableStyle
  3
ObjectDBX Classes
 90
     2047
280
     0
281
     0
  0
CLASS
  1
VAACXREFPANELOBJECT
  2
VaAcXREFPanelObject
  3
VAAC_ADDIN
 90
    32768
280
     0
281
     0
  0
CLASS
  1
VAACIMAGEINVENTORY
  2
VaAcImageInventory
  3
VAAC_ADDIN
 90
    32768
280
     0
281
     0
  0
CLASS
  1
AMDTNOTETEMPLATEDB
  2
AmdtNoteTemplateDB
  3
AMDT_STDIMP_MODULE_NAME
 90
        0
280
     0
281
     0
  0
CLASS
  1
ACAMGFILTERDAT
  2
AcAmgFilterDat
  3
"AcadM|Product Description: AutoCAD Mechanical 2000|Company: Autodesk"
 90
        0
280
     0
281
     0
  0
CLASS
  1
ACMBOM
  2
AcmBom
  3
"AcmSymBB|Product Description: AutoCAD Mechanical 2004 DX|Company: Autodesk"
 90
    32768
280
     0
281
     0
  0
CLASS
  1
AMDTFORMULAUPDATEDISPATCHER
  2
AmdtFormulaUpdateDispatcher
  3
AcMeServices
 90
    32768
280
     0
281
     0
  0
CLASS
  1
DIMASSOC
  2
AcDbDimAssoc
  3
"AcDbDimAssoc|Product Desc:     AcDim ARX App For Dimension|Company:          Autodesk, Inc.|WEB Address:      www.autodesk.com"
 90
        0
280
     0
281
     0
  0
CLASS
  1
ACMSTANDARDANSI
  2
AcmStandardANSI
  3
"Amdt_StdImp|Product Description: AutoCAD Mechanical 2004 DX|Company: Autodesk"
 90
        0
280
     0
281
     0
  0
CLASS
  1
ACMSURFSTANDARDANSI
  2
AcmSurfTextStdANSI
  3
"Amdt_StdImp|Product Description: AutoCAD Mechanical 2004 DX|Company: Autodesk"
 90
        0
280
     0
281
     0
  0
CLASS
  1
ACMFCFSTANDARDANSI
  2
AcmFCFStdANSI
  3
"Amdt_StdImp|Product Description: AutoCAD Mechanical 2004 DX|Company: Autodesk"
 90
        0
280
     0
281
     0
  0
CLASS
  1
ACMWELDSTANDARDANSI
  2
AcmWeldingStdANSI
  3
"Amdt_StdImp|Product Description: AutoCAD Mechanical 2004 DX|Company: Autodesk"
 90
        0
280
     0
281
     0
  0
CLASS
  1
ACMIDSTANDARDANSI
  2
AcmIdStdANSI
  3
"Amdt_StdImp|Product Description: AutoCAD Mechanical 2004 DX|Company: Autodesk"
 90
        0
280
     0
281
     0
  0
CLASS
  1
ACMDATUMSTANDARDANSI
  2
AcmDatumStdANSI
  3
"Amdt_StdImp|Product Description: AutoCAD Mechanical 2004 DX|Company: Autodesk"
 90
        0
280
     0
281
     0
  0
CLASS
  1
ACMBOMSTANDARDANSI
  2
AcmBOMStdANSI
  3
"Amdt_StdImp|Product Description: AutoCAD Mechanical 2004 DX|Company: Autodesk"
 90
        0
280
     0
281
     0
  0
CLASS
  1
ACMDETAILSTANDARDANSI
  2
AmdtDetailSymStdANSI
  3
"Amdt_StdImp|Product Description: AutoCAD Mechanical 2004 DX|Company: Autodesk"
 90
        0
280
     0
281
     0
  0
CLASS
  1
ACMSECTIONSTANDARDANSI
  2
AmdtSectionSymStdANSI
  3
"Amdt_StdImp|Product Description: AutoCAD Mechanical 2004 DX|Company: Autodesk"
 90
        0
280
     0
281
     0
  0
CLASS
  1
ACMCENTERLINESTANDARDANSI
  2
AmdtCenterLineStdANSI
  3
"Amdt_StdImp|Product Description: AutoCAD Mechanical 2004 DX|Company: Autodesk"
 90
        0
280
     0
281
     0
  0
CLASS
  1
ACMTHREADLINESTANDARDANSI
  2
AmdtThreadLineStdANSI
  3
"Amdt_StdImp|Product Description: AutoCAD Mechanical 2004 DX|Company: Autodesk"
 90
        0
280
     0
281
     0
  0
CLASS
  1
ACMNOTESTANDARDANSI
  2
AmdtNoteStdANSI
  3
"Amdt_StdImp|Product Description: AutoCAD Mechanical 2004 DX|Company: Autodesk"
 90
        0
280
     0
281
     0
  0
CLASS
  1
ACAMGHOLECHARTSTDANSI
  2
AcAmgHoleChartStdANSI
  3
ACMSYMBB_MODULE_NAME
 90
        0
280
     0
281
     0
  0
CLASS
  1
ACMSTANDARDDIN
  2
AcmStandardDIN
  3
"Amdt_StdImp|Product Description: AutoCAD Mechanical 2004 DX|Company: Autodesk"
 90
        0
280
     0
281
     0
  0
CLASS
  1
AMDTEDGESTANDARDDIN13715
  2
AmdtEdgeStdDIN13715
  3
"Amdt_StdImp|Product Description: AutoCAD Mechanical 2004 DX|Company: Autodesk"
 90
        0
280
     0
281
     0
  0
CLASS
  1
ACMSURFSTANDARDDIN
  2
AcmSurfTextStdDIN
  3
"Amdt_StdImp|Product Description: AutoCAD Mechanical 2004 DX|Company: Autodesk"
 90
        0
280
     0
281
     0
  0
CLASS
  1
ACMFCFSTANDARDDIN
  2
AcmFCFStdDIN
  3
"Amdt_StdImp|Product Description: AutoCAD Mechanical 2004 DX|Company: Autodesk"
 90
        0
280
     0
281
     0
  0
CLASS
  1
ACMWELDSTANDARDDIN
  2
AcmWeldingStdDIN
  3
"Amdt_StdImp|Product Description: AutoCAD Mechanical 2004 DX|Company: Autodesk"
 90
        0
280
     0
281
     0
  0
CLASS
  1
ACMIDSTANDARDDIN
  2
AcmIdStdDIN
  3
"Amdt_StdImp|Product Description: AutoCAD Mechanical 2004 DX|Company: Autodesk"
 90
        0
280
     0
281
     0
  0
CLASS
  1
ACMDATUMSTANDARDDIN
  2
AcmDatumStdDIN
  3
"Amdt_StdImp|Product Description: AutoCAD Mechanical 2004 DX|Company: Autodesk"
 90
        0
280
     0
281
     0
  0
CLASS
  1
ACMBOMSTANDARDDIN
  2
AcmBOMStdDIN
  3
"Amdt_StdImp|Product Description: AutoCAD Mechanical 2004 DX|Company: Autodesk"
 90
        0
280
     0
281
     0
  0
CLASS
  1
ACMDETAILSTANDARDDIN
  2
AmdtDetailSymStdDIN
  3
"Amdt_StdImp|Product Description: AutoCAD Mechanical 2004 DX|Company: Autodesk"
 90
        0
280
     0
281
     0
  0
CLASS
  1
ACMSECTIONSTANDARDDIN
  2
AmdtSectionSymStdDIN
  3
"Amdt_StdImp|Product Description: AutoCAD Mechanical 2004 DX|Company: Autodesk"
 90
        0
280
     0
281
     0
  0
CLASS
  1
ACMCENTERLINESTANDARDDIN
  2
AmdtCenterLineStdDIN
  3
"Amdt_StdImp|Product Description: AutoCAD Mechanical 2004 DX|Company: Autodesk"
 90
        0
280
     0
281
     0
  0
CLASS
  1
ACMTHREADLINESTANDARDDIN
  2
AmdtThreadLineStdDIN
  3
"Amdt_StdImp|Product Description: AutoCAD Mechanical 2004 DX|Company: Autodesk"
 90
        0
280
     0
281
     0
  0
CLASS
  1
ACMNOTESTANDARDDIN
  2
AmdtNoteStdDIN
  3
"Amdt_StdImp|Product Description: AutoCAD Mechanical 2004 DX|Company: Autodesk"
 90
        0
280
     0
281
     0
  0
CLASS
  1
ACAMGHOLECHARTSTDDIN
  2
AcAmgHoleChartStdDIN
  3
ACMSYMBB_MODULE_NAME
 90
        0
280
     0
281
     0
  0
ENDSEC
  0
SECTION
  2
TABLES
  0
TABLE
  2
VPORT
  5
8
330
0
100
AcDbSymbolTable
 70
     4
  0
VPORT
  5
1495
330
8
100
AcDbSymbolTableRecord
100
AcDbViewportTableRecord
  2
*Active
 70
     0
 10
0.0
 20
0.0
 11
1.0
 21
1.0
 12
1814.967105048105
 22
1023.290792526315
 13
0.0
 23
0.0
 14
2.5
 24
2.5
 15
10.0
 25
10.0
 16
0.0
 26
0.0
 36
1.0
 17
0.0
 27
0.0
 37
0.0
 40
589.5571584811035
 41
1.494545454545454
 42
50.0
 43
0.0
 44
0.0
 50
0.0
 51
0.0
 71
     0
 72
   100
 73
     1
 74
     3
 75
     0
 76
     0
 77
     0
 78
     0
281
     0
 65
     1
110
0.0
120
0.0
130
0.0
111
1.0
121
0.0
131
0.0
112
0.0
122
1.0
132
0.0
 79
     0
146
0.0
  0
ENDTAB
  0
TABLE
  2
LTYPE
  5
5
330
0
100
AcDbSymbolTable
 70
    21
  0
LTYPE
  5
14
330
5
100
AcDbSymbolTableRecord
100
AcDbLinetypeTableRecord
  2
ByBlock
 70
     0
  3

 72
    65
 73
     0
 40
0.0
  0
LTYPE
  5
15
330
5
100
AcDbSymbolTableRecord
100
AcDbLinetypeTableRecord
  2
ByLayer
 70
     0
  3

 72
    65
 73
     0
 40
0.0
  0
LTYPE
  5
16
330
5
100
AcDbSymbolTableRecord
100
AcDbLinetypeTableRecord
  2
Continuous
 70
     0
  3
Solid line
 72
    65
 73
     0
 40
0.0
  0
LTYPE
  5
64
330
5
100
AcDbSymbolTableRecord
100
AcDbLinetypeTableRecord
  2
AM_ISO02W050
 70
     0
  3
__ __ __ __ __ __ __ __ __ __ __ __ __ __ __
 72
    65
 73
     2
 40
7.5
 49
6.0
 74
     0
 49
-1.5
 74
     0
  0
LTYPE
  5
65
330
5
100
AcDbSymbolTableRecord
100
AcDbLinetypeTableRecord
  2
AM_ISO08W050
 70
     0
  3
____ . ____ . ____ . ____ . ____ . ____ . ____
 72
    65
 73
     4
 40
18.0
 49
12.0
 74
     0
 49
-1.5
 74
     0
 49
3.0
 74
     0
 49
-1.5
 74
     0
  0
LTYPE
  5
66
330
5
100
AcDbSymbolTableRecord
100
AcDbLinetypeTableRecord
  2
AM_ISO09W050
 70
     0
  3
_____ . . _____ . . _____ . . ____ .. ____
 72
    65
 73
     6
 40
22.5
 49
12.0
 74
     0
 49
-1.5
 74
     0
 49
3.0
 74
     0
 49
-1.5
 74
     0
 49
3.0
 74
     0
 49
-1.5
 74
     0
  0
LTYPE
  5
67
330
5
100
AcDbSymbolTableRecord
100
AcDbLinetypeTableRecord
  2
Amconstr
 70
     0
  3
_______________________
 72
    65
 73
     2
 40
9999.0
 49
9999.0
 74
     0
 49
0.0
 74
     0
  0
LTYPE
  5
68
330
5
100
AcDbSymbolTableRecord
100
AcDbLinetypeTableRecord
  2
AM_ISO08W050x2
 70
     0
  3
__ . __ . __ . __ . __ . __
 72
    65
 73
     4
 40
9.0
 49
6.0
 74
     0
 49
-0.75
 74
     0
 49
1.5
 74
     0
 49
-0.75
 74
     0
  0
LTYPE
  5
69
330
5
100
AcDbSymbolTableRecord
100
AcDbLinetypeTableRecord
  2
AM_ISO02W050x2
 70
     0
  3
 _ _ _ _ _ _ _ _ _ _ _ _
 72
    65
 73
     2
 40
3.75
 49
3.0
 74
     0
 49
-0.75
 74
     0
  0
LTYPE
  5
6C
330
5
100
AcDbSymbolTableRecord
100
AcDbLinetypeTableRecord
  2
Amzigzag
 70
     0
  3
/\/-/\/-/\/-/\/-/\/-/\/
 72
    65
 73
     2
 40
11.0001
 49
0.0001
 74
     4
 75
   136
340
22C
 46
0.04
 50
0.0
 44
0.0
 45
0.0
 49
-11.0
 74
     0
  0
LTYPE
  5
7A
330
5
100
AcDbSymbolTableRecord
100
AcDbLinetypeTableRecord
  2
ACISOWELD
 70
     0
  3
_ _ _ _ _
 72
    65
 73
     2
 40
2.0
 49
2.0
 74
     0
 49
-1.0
 74
     0
  0
LTYPE
  5
7B
330
5
100
AcDbSymbolTableRecord
100
AcDbLinetypeTableRecord
  2
ACISOTGB
 70
     0
  3
__ . . __ . .
 72
    65
 73
     6
 40
9.0
 49
4.0
 74
     0
 49
-1.0
 74
     0
 49
1.0
 74
     0
 49
-1.0
 74
     0
 49
1.0
 74
     0
 49
-1.0
 74
     0
  0
LTYPE
  5
7C
330
5
100
AcDbSymbolTableRecord
100
AcDbLinetypeTableRecord
  2
ACISOTGL
 70
     0
  3
_ _ _ _ _
 72
    65
 73
     2
 40
3.0
 49
2.0
 74
     0
 49
-1.0
 74
     0
  0
LTYPE
  5
7E
330
5
100
AcDbSymbolTableRecord
100
AcDbLinetypeTableRecord
  2
CENTER
 70
     0
  3
__ . __
 72
    65
 73
     4
 40
7.0
 49
4.0
 74
     0
 49
-1.0
 74
     0
 49
1.0
 74
     0
 49
-1.0
 74
     0
  0
LTYPE
  5
D8
330
5
100
AcDbSymbolTableRecord
100
AcDbLinetypeTableRecord
  2
HIDDEN
 70
     0
  3
Hidden __ __ __ __ __ __ __ __ __ __ __ __ __ _
 72
    65
 73
     2
 40
9.524999999999998
 49
6.349999999999999
 74
     0
 49
-3.174999999999999
 74
     0
  0
LTYPE
  5
D9
330
5
100
AcDbSymbolTableRecord
100
AcDbLinetypeTableRecord
  2
PHANTOM2
 70
     0
  3
Phantom (.5x) ___ _ _ ___ _ _ ___ _ _ ___ _ _
 72
    65
 73
     6
 40
31.75
 49
15.875
 74
     0
 49
-3.174999999999999
 74
     0
 49
3.174999999999999
 74
     0
 49
-3.174999999999999
 74
     0
 49
3.174999999999999
 74
     0
 49
-3.174999999999999
 74
     0
  0
LTYPE
  5
442
330
5
100
AcDbSymbolTableRecord
100
AcDbLinetypeTableRecord
  2
GEN7A
 70
     0
  3
__ . __ . __
 72
    65
 73
     4
 40
6.875
 49
4.75
 74
     0
 49
-0.875
 74
     0
 49
0.375
 74
     0
 49
-0.875
 74
     0
  0
LTYPE
  5
446
330
5
100
AcDbSymbolTableRecord
100
AcDbLinetypeTableRecord
  2
ACANSTGB
 70
     0
  3
__ . . __ . .
 72
    65
 73
     6
 40
0.35433070866
 49
0.15748031496
 74
     0
 49
-0.03937007874
 74
     0
 49
0.03937007874
 74
     0
 49
-0.03937007874
 74
     0
 49
0.03937007874
 74
     0
 49
-0.03937007874
 74
     0
  0
LTYPE
  5
447
330
5
100
AcDbSymbolTableRecord
100
AcDbLinetypeTableRecord
  2
ACANSTGL
 70
     0
  3
_ _ _ _ _
 72
    65
 73
     2
 40
0.11811023622
 49
0.07874015748
 74
     0
 49
-0.03937007874
 74
     0
  0
LTYPE
  5
87F
330
5
100
AcDbSymbolTableRecord
100
AcDbLinetypeTableRecord
  2
AM_DIN_G_W050
 70
     0
  3
____ . ____ . ____ . ____ . ____ . ____ . ____
 72
    65
 73
     4
 40
13.75
 49
9.75
 74
     0
 49
-1.5
 74
     0
 49
1.0
 74
     0
 49
-1.5
 74
     0
  0
LTYPE
  5
883
330
5
100
AcDbSymbolTableRecord
100
AcDbLinetypeTableRecord
  2
ACDINWELD
 70
     0
  3
_ _ _ _ _
 72
    65
 73
     2
 40
2.0
 49
2.0
 74
     0
 49
-1.0
 74
     0
  0
LTYPE
  5
884
330
5
100
AcDbSymbolTableRecord
100
AcDbLinetypeTableRecord
  2
ACDINTGB
 70
     0
  3
__ . . __ . .
 72
    65
 73
     6
 40
9.0
 49
4.0
 74
     0
 49
-1.0
 74
     0
 49
1.0
 74
     0
 49
-1.0
 74
     0
 49
1.0
 74
     0
 49
-1.0
 74
     0
  0
LTYPE
  5
885
330
5
100
AcDbSymbolTableRecord
100
AcDbLinetypeTableRecord
  2
ACDINTGL
 70
     0
  3
_ _ _ _ _
 72
    65
 73
     2
 40
3.0
 49
2.0
 74
     0
 49
-1.0
 74
     0
  0
ENDTAB
  0
TABLE
  2
LAYER
  5
2
330
0
100
AcDbSymbolTable
 70
     6
  0
LAYER
  5
10
330
2
100
AcDbSymbolTableRecord
100
AcDbLayerTableRecord
  2
0
 70
     0
 62
     7
  6
Continuous
370
    -3
390
F
  0
LAYER
  5
448
330
2
100
AcDbSymbolTableRecord
100
AcDbLayerTableRecord
  2
Defpoints
 70
     0
 62
     7
  6
Continuous
290
     0
370
    -3
390
F
  0
LAYER
  5
44A
330
2
100
AcDbSymbolTableRecord
100
AcDbLayerTableRecord
  2
7A
 70
     0
 62
     4
  6
GEN7A
370
    -3
390
F
  0
LAYER
  5
44B
330
2
100
AcDbSymbolTableRecord
100
AcDbLayerTableRecord
  2
8
 70
     0
 62
     1
  6
Continuous
370
    -3
390
F
  0
LAYER
  5
B98
330
2
100
AcDbSymbolTableRecord
100
AcDbLayerTableRecord
  2
AM_5
 70
     0
 62
     3
  6
Continuous
370
    25
390
F
1001
AcAecLayerStandard
1000

1000

  0
LAYER
  5
1290
330
2
100
AcDbSymbolTableRecord
100
AcDbLayerTableRecord
  2
AM_7
 70
     0
 62
     4
  6
AM_ISO08W050
370
    25
390
F
1001
AcAecLayerStandard
1000

1000

  0
ENDTAB
  0
TABLE
  2
STYLE
  5
3
330
0
100
AcDbSymbolTable
 70
     8
  0
STYLE
  5
11
330
3
100
AcDbSymbolTableRecord
100
AcDbTextStyleTableRecord
  2
STANDARD
 70
     0
 40
0.0
 41
1.0
 50
0.0
 71
     0
 42
2.5
  3
ISOCP.SHX
  4

  0
STYLE
  5
6D
330
3
100
AcDbSymbolTableRecord
100
AcDbTextStyleTableRecord
  2
ACISOTS
 70
     0
 40
1.0
 41
1.0
 50
0.0
 71
     0
 42
2.5
  3
isocp.shx
  4
bigfont.shx
  0
STYLE
  5
79
330
3
100
AcDbSymbolTableRecord
100
AcDbTextStyleTableRecord
  2
ACISOGDT
 70
     0
 40
0.0
 41
1.0
 50
0.0
 71
     0
 42
2.5
  3
AMGDT
  4
bigfont.shx
  0
STYLE
  5
22C
330
3
100
AcDbSymbolTableRecord
100
AcDbTextStyleTableRecord
  2

 70
     1
 40
0.0
 41
1.0
 50
0.0
 71
     0
 42
2.5
  3
genltshp.shx
  4

  0
STYLE
  5
44F
330
3
100
AcDbSymbolTableRecord
100
AcDbTextStyleTableRecord
  2
ACANSTS
 70
     0
 40
1.0
 41
1.0
 50
0.0
 71
     0
 42
2.5
  3
romans.shx
  4

  0
STYLE
  5
450
330
3
100
AcDbSymbolTableRecord
100
AcDbTextStyleTableRecord
  2
ACANSGDT
 70
     0
 40
0.0
 41
1.0
 50
0.0
 71
     0
 42
2.5
  3
amgdt.shx
  4

  0
STYLE
  5
888
330
3
100
AcDbSymbolTableRecord
100
AcDbTextStyleTableRecord
  2
ACDINTS
 70
     0
 40
1.0
 41
1.0
 50
0.0
 71
     0
 42
3.0
  3
isocp.shx
  4

  0
STYLE
  5
889
330
3
100
AcDbSymbolTableRecord
100
AcDbTextStyleTableRecord
  2
ACDINGDT
 70
     0
 40
0.0
 41
1.0
 50
0.0
 71
     0
 42
3.0
  3
amgdt.shx
  4

  0
ENDTAB
  0
TABLE
  2
VIEW
  5
6
330
0
100
AcDbSymbolTable
 70
     0
  0
ENDTAB
  0
TABLE
  2
UCS
  5
7
330
0
100
AcDbSymbolTable
 70
     0
  0
ENDTAB
  0
TABLE
  2
APPID
  5
9
330
0
100
AcDbSymbolTable
 70
    16
  0
APPID
  5
12
330
9
100
AcDbSymbolTableRecord
100
AcDbRegAppTableRecord
  2
ACAD
 70
     0
  0
APPID
  5
46
330
9
100
AcDbSymbolTableRecord
100
AcDbRegAppTableRecord
  2
MCAD_NO_VIS
 70
     0
  0
APPID
  5
47
330
9
100
AcDbSymbolTableRecord
100
AcDbRegAppTableRecord
  2
ACAD_TEMP_GRAPHIC
 70
     0
  0
APPID
  5
58
330
9
100
AcDbSymbolTableRecord
100
AcDbRegAppTableRecord
  2
ACATTRIBSERVICES
 70
     0
  0
APPID
  5
EE
330
9
100
AcDbSymbolTableRecord
100
AcDbRegAppTableRecord
  2
AD_DRAW
 70
     0
  0
APPID
  5
10C
330
9
100
AcDbSymbolTableRecord
100
AcDbRegAppTableRecord
  2
DESIGNERASSEMBLIES
 70
     0
  0
APPID
  5
111
330
9
100
AcDbSymbolTableRecord
100
AcDbRegAppTableRecord
  2
ACADM_DIM_EDIT
 70
     0
  0
APPID
  5
112
330
9
100
AcDbSymbolTableRecord
100
AcDbRegAppTableRecord
  2
AMDT_DM_ADJ
 70
     0
  0
APPID
  5
1A3
330
9
100
AcDbSymbolTableRecord
100
AcDbRegAppTableRecord
  2
ACAD_DSTYLE_DIMARC_LENGTH_SYMBOL
 70
     0
  0
APPID
  5
1A4
330
9
100
AcDbSymbolTableRecord
100
AcDbRegAppTableRecord
  2
ACAD_DSTYLE_DIMJOGGED_JOGANGLE_SYMBOL
 70
     0
  0
APPID
  5
B99
330
9
100
AcDbSymbolTableRecord
100
AcDbRegAppTableRecord
  2
AcAecLayerStandard
 70
     0
  0
APPID
  5
1292
330
9
100
AcDbSymbolTableRecord
100
AcDbRegAppTableRecord
  2
GENIUS_GENOBJ-N-CEN_13
 70
     0
  0
APPID
  5
1293
330
9
100
AcDbSymbolTableRecord
100
AcDbRegAppTableRecord
  2
GENIUS_GENODEF_13
 70
     0
  0
APPID
  5
1294
330
9
100
AcDbSymbolTableRecord
100
AcDbRegAppTableRecord
  2
GENIUS_GENCEN_19
 70
     0
  0
APPID
  5
1321
330
9
100
AcDbSymbolTableRecord
100
AcDbRegAppTableRecord
  2
ACAD_EXEMPT_FROM_CAD_STANDARDS
 70
     0
  0
APPID
  5
142C
330
9
100
AcDbSymbolTableRecord
100
AcDbRegAppTableRecord
  2
ACAD_PSEXT
 70
     0
  0
ENDTAB
  0
TABLE
  2
DIMSTYLE
  5
A
330
0
100
AcDbSymbolTable
 70
    21
100
AcDbDimStyleTable
 71
     1
340
81
  0
DIMSTYLE
105
81
330
A
100
AcDbSymbolTableRecord
100
AcDbDimStyleTableRecord
  2
AM_ISO
 70
     0
  4
"
 41
2.5
 42
1.0
 43
10.0
 44
1.0
 47
0.1
 48
0.1
 73
     0
 74
     0
 77
     1
 78
     8
 79
     2
140
3.5
141
0.0
143
0.0393701
146
0.71
147
1.5
172
     1
176
   256
177
   256
178
     2
271
     2
272
     3
274
     4
283
     0
284
     8
340
11
371
    -1
372
    -1
1001
ACAD_DSTYLE_DIMARC_LENGTH_SYMBOL
1070
   379
1070
     1
1001
ACAD_DSTYLE_DIMJOGGED_JOGANGLE_SYMBOL
1070
   384
1040
0.7853981633974483
  0
DIMSTYLE
105
82
330
A
100
AcDbSymbolTableRecord
100
AcDbDimStyleTableRecord
  2
AM_ISO$3
 70
     0
  4
"
 41
2.5
 42
1.0
 43
10.0
 44
1.0
 47
0.1
 48
0.1
 73
     0
 77
     1
 78
     8
 79
     2
140
3.5
141
0.0
143
0.0393701
146
0.71
147
1.5
176
   256
177
   256
178
     2
271
     2
272
     3
274
     4
283
     0
284
     8
288
     1
289
     0
340
11
371
    -1
372
    -1
1001
ACAD_DSTYLE_DIMARC_LENGTH_SYMBOL
1070
   379
1070
     1
1001
ACAD_DSTYLE_DIMJOGGED_JOGANGLE_SYMBOL
1070
   384
1040
0.7853981633974483
  0
DIMSTYLE
105
83
330
A
100
AcDbSymbolTableRecord
100
AcDbDimStyleTableRecord
  2
AM_ISO$4
 70
     0
  4
"
 41
2.5
 42
1.0
 43
10.0
 44
1.0
 47
0.1
 48
0.1
 73
     0
 77
     1
 78
     8
 79
     2
140
3.5
141
0.0
143
0.0393701
146
0.71
147
1.5
176
   256
177
   256
178
     2
271
     2
272
     3
274
     4
283
     0
284
     8
288
     1
289
     0
340
11
371
    -1
372
    -1
1001
ACAD_DSTYLE_DIMARC_LENGTH_SYMBOL
1070
   379
1070
     1
1001
ACAD_DSTYLE_DIMJOGGED_JOGANGLE_SYMBOL
1070
   384
1040
0.7853981633974483
  0
DIMSTYLE
105
84
330
A
100
AcDbSymbolTableRecord
100
AcDbDimStyleTableRecord
  2
AM_ISO$6
 70
     0
  4
"
 41
2.5
 42
1.0
 43
10.0
 44
1.0
 47
0.1
 48
0.1
 73
     0
 74
     0
 78
     8
 79
     2
140
3.5
141
0.0
143
0.0393701
146
0.71
147
1.5
172
     1
176
   256
177
   256
178
     2
271
     2
272
     3
274
     4
283
     0
284
     8
340
11
371
    -1
372
    -1
1001
ACAD_DSTYLE_DIMARC_LENGTH_SYMBOL
1070
   379
1070
     1
1001
ACAD_DSTYLE_DIMJOGGED_JOGANGLE_SYMBOL
1070
   384
1040
0.7853981633974483
  0
DIMSTYLE
105
85
330
A
100
AcDbSymbolTableRecord
100
AcDbDimStyleTableRecord
  2
AM_ISO$7
 70
     0
  4
"
 41
2.5
 42
1.0
 43
10.0
 44
1.0
 47
0.1
 48
0.1
 73
     0
 74
     0
 77
     1
 78
     8
 79
     2
140
5.0
141
0.0
143
0.0393701
146
0.71
147
1.5
172
     1
176
   256
177
   256
178
     2
271
     2
272
     3
274
     4
283
     0
284
     8
340
11
371
    -1
372
    -1
1001
ACAD_DSTYLE_DIMARC_LENGTH_SYMBOL
1070
   379
1070
     1
1001
ACAD_DSTYLE_DIMJOGGED_JOGANGLE_SYMBOL
1070
   384
1040
0.7853981633974483
  0
DIMSTYLE
105
86
330
A
100
AcDbSymbolTableRecord
100
AcDbDimStyleTableRecord
  2
AM_ISO$SF
 70
     0
  4
"
 41
2.5
 42
1.0
 43
10.0
 44
1.0
 47
0.1
 48
0.1
 73
     0
 74
     0
 75
     1
 76
     1
 77
     1
 78
     8
 79
     2
140
3.5
141
0.0
143
0.0393701
146
0.71
147
1.5
172
     1
176
   256
177
   256
178
     2
271
     2
272
     3
274
     4
283
     0
284
     8
340
11
371
    -1
372
    -1
1001
ACAD_DSTYLE_DIMARC_LENGTH_SYMBOL
1070
   379
1070
     1
1001
ACAD_DSTYLE_DIMJOGGED_JOGANGLE_SYMBOL
1070
   384
1040
0.7853981633974483
  0
DIMSTYLE
105
8B
330
A
100
AcDbSymbolTableRecord
100
AcDbDimStyleTableRecord
  2
AM_ISO$SH
 70
     0
  4
"
 41
2.5
 42
1.0
 43
10.0
 44
1.0
 47
0.1
 48
0.1
 73
     0
 74
     0
 75
     1
 76
     1
 77
     1
 78
     8
 79
     2
140
3.5
141
0.0
143
0.0393701
144
2.0
146
0.71
147
1.5
172
     1
173
     1
176
   256
177
   256
178
     2
271
     2
272
     3
274
     4
283
     0
284
     8
340
11
343
87
371
    -1
372
    -1
1001
ACAD_DSTYLE_DIMARC_LENGTH_SYMBOL
1070
   379
1070
     1
1001
ACAD_DSTYLE_DIMJOGGED_JOGANGLE_SYMBOL
1070
   384
1040
0.7853981633974483
  0
DIMSTYLE
105
453
330
A
100
AcDbSymbolTableRecord
100
AcDbDimStyleTableRecord
  2
AM_ANSI
 70
     0
  4
mm
 41
0.1
 42
0.05
 43
0.5
 44
0.1
 47
0.1
 48
0.1
 78
     7
 79
     2
140
0.12
141
0.0
146
0.71
147
0.06
176
   256
177
   256
178
     2
274
     4
284
     7
340
11
371
    -1
372
    -1
1001
ACAD_DSTYLE_DIMARC_LENGTH_SYMBOL
1070
   379
1070
     1
1001
ACAD_DSTYLE_DIMJOGGED_JOGANGLE_SYMBOL
1070
   384
1040
0.7853981633974483
  0
DIMSTYLE
105
454
330
A
100
AcDbSymbolTableRecord
100
AcDbDimStyleTableRecord
  2
AM_ANSI$3
 70
     0
  4
mm
 41
0.1
 42
0.05
 43
0.5
 44
0.1
 47
0.1
 48
0.1
 78
     7
 79
     2
140
0.12
141
0.0
146
0.71
147
0.06
176
   256
177
   256
178
     2
274
     4
284
     7
288
     1
289
     0
340
11
371
    -1
372
    -1
1001
ACAD_DSTYLE_DIMARC_LENGTH_SYMBOL
1070
   379
1070
     1
1001
ACAD_DSTYLE_DIMJOGGED_JOGANGLE_SYMBOL
1070
   384
1040
0.7853981633974483
  0
DIMSTYLE
105
455
330
A
100
AcDbSymbolTableRecord
100
AcDbDimStyleTableRecord
  2
AM_ANSI$4
 70
     0
  4
mm
 41
0.1
 42
0.05
 43
0.5
 44
0.1
 47
0.1
 48
0.1
 78
     7
 79
     2
140
0.12
141
0.0
146
0.71
147
0.06
176
   256
177
   256
178
     2
274
     4
284
     7
288
     1
289
     0
340
11
371
    -1
372
    -1
1001
ACAD_DSTYLE_DIMARC_LENGTH_SYMBOL
1070
   379
1070
     1
1001
ACAD_DSTYLE_DIMJOGGED_JOGANGLE_SYMBOL
1070
   384
1040
0.7853981633974483
  0
DIMSTYLE
105
456
330
A
100
AcDbSymbolTableRecord
100
AcDbDimStyleTableRecord
  2
AM_ANSI$7
 70
     0
  4
mm
 41
0.1
 42
0.05
 43
0.5
 44
0.1
 47
0.1
 48
0.1
 78
     7
 79
     2
140
0.24
141
0.0
146
0.71
147
0.06
176
   256
177
   256
178
     2
274
     4
284
     7
340
11
371
    -1
372
    -1
1001
ACAD_DSTYLE_DIMARC_LENGTH_SYMBOL
1070
   379
1070
     1
1001
ACAD_DSTYLE_DIMJOGGED_JOGANGLE_SYMBOL
1070
   384
1040
0.7853981633974483
  0
DIMSTYLE
105
457
330
A
100
AcDbSymbolTableRecord
100
AcDbDimStyleTableRecord
  2
AM_ANSI$SF
 70
     0
  4
mm
 41
0.1
 42
0.05
 43
0.5
 44
0.1
 47
0.1
 48
0.1
 75
     1
 76
     1
 78
     7
 79
     2
140
0.12
141
0.0
146
0.71
147
0.06
176
   256
177
   256
178
     2
274
     4
284
     7
340
11
371
    -1
372
    -1
1001
ACAD_DSTYLE_DIMARC_LENGTH_SYMBOL
1070
   379
1070
     1
1001
ACAD_DSTYLE_DIMJOGGED_JOGANGLE_SYMBOL
1070
   384
1040
0.7853981633974483
  0
DIMSTYLE
105
458
330
A
100
AcDbSymbolTableRecord
100
AcDbDimStyleTableRecord
  2
AM_ANSI$SH
 70
     0
  4
mm
 41
0.1
 42
0.05
 43
0.5
 44
0.1
 47
0.1
 48
0.1
 75
     1
 76
     1
 78
     7
 79
     2
140
0.12
141
0.0
146
0.71
147
0.06
173
     1
176
   256
177
   256
178
     2
274
     4
284
     7
340
11
343
87
371
    -1
372
    -1
1001
ACAD_DSTYLE_DIMARC_LENGTH_SYMBOL
1070
   379
1070
     1
1001
ACAD_DSTYLE_DIMJOGGED_JOGANGLE_SYMBOL
1070
   384
1040
0.7853981633974483
  0
DIMSTYLE
105
88A
330
A
100
AcDbSymbolTableRecord
100
AcDbDimStyleTableRecord
  2
AM_DIN
 70
     0
  4
"
 41
2.5
 42
1.0
 43
10.0
 44
1.0
 47
0.1
 48
0.1
 73
     0
 74
     0
 77
     1
 78
     8
 79
     2
140
3.5
141
0.0
143
0.0393701
146
0.71
147
1.5
172
     1
176
   256
177
   256
178
     2
271
     2
272
     3
274
     4
283
     0
284
     8
340
11
371
    -1
372
    -1
1001
ACAD_DSTYLE_DIMARC_LENGTH_SYMBOL
1070
   379
1070
     0
1001
ACAD_DSTYLE_DIMJOGGED_JOGANGLE_SYMBOL
1070
   384
1040
1.570796326794896
  0
DIMSTYLE
105
88B
330
A
100
AcDbSymbolTableRecord
100
AcDbDimStyleTableRecord
  2
AM_DIN$3
 70
     0
  4
"
 41
2.5
 42
1.0
 43
10.0
 44
1.0
 47
0.1
 48
0.1
 73
     0
 77
     1
 78
     8
 79
     2
140
3.5
141
0.0
143
0.0393701
146
0.71
147
1.5
176
   256
177
   256
178
     2
271
     2
272
     3
274
     4
283
     0
284
     8
288
     1
289
     0
340
11
371
    -1
372
    -1
1001
ACAD_DSTYLE_DIMARC_LENGTH_SYMBOL
1070
   379
1070
     0
1001
ACAD_DSTYLE_DIMJOGGED_JOGANGLE_SYMBOL
1070
   384
1040
1.570796326794896
  0
DIMSTYLE
105
88C
330
A
100
AcDbSymbolTableRecord
100
AcDbDimStyleTableRecord
  2
AM_DIN$4
 70
     0
  4
"
 41
2.5
 42
1.0
 43
10.0
 44
1.0
 47
0.1
 48
0.1
 73
     0
 77
     1
 78
     8
 79
     2
140
3.5
141
0.0
143
0.0393701
146
0.71
147
1.5
176
   256
177
   256
178
     2
271
     2
272
     3
274
     4
283
     0
284
     8
288
     1
289
     0
340
11
371
    -1
372
    -1
1001
ACAD_DSTYLE_DIMARC_LENGTH_SYMBOL
1070
   379
1070
     0
1001
ACAD_DSTYLE_DIMJOGGED_JOGANGLE_SYMBOL
1070
   384
1040
1.570796326794896
  0
DIMSTYLE
105
88D
330
A
100
AcDbSymbolTableRecord
100
AcDbDimStyleTableRecord
  2
AM_DIN$6
 70
     0
  4
"
 41
2.5
 42
1.0
 43
10.0
 44
1.0
 47
0.1
 48
0.1
 73
     0
 74
     0
 78
     8
 79
     2
140
3.5
141
0.0
143
0.0393701
146
0.71
147
1.5
172
     1
176
   256
177
   256
178
     2
271
     2
272
     3
274
     4
283
     0
284
     8
340
11
371
    -1
372
    -1
1001
ACAD_DSTYLE_DIMARC_LENGTH_SYMBOL
1070
   379
1070
     0
1001
ACAD_DSTYLE_DIMJOGGED_JOGANGLE_SYMBOL
1070
   384
1040
1.570796326794896
  0
DIMSTYLE
105
88E
330
A
100
AcDbSymbolTableRecord
100
AcDbDimStyleTableRecord
  2
AM_DIN$7
 70
     0
  4
"
 41
2.5
 42
1.0
 43
10.0
 44
1.0
 47
0.1
 48
0.1
 73
     0
 74
     0
 77
     1
 78
     8
 79
     2
140
5.0
141
0.0
143
0.0393701
146
0.71
147
1.5
172
     1
176
   256
177
   256
178
     2
271
     2
272
     3
274
     4
283
     0
284
     8
340
11
371
    -1
372
    -1
1001
ACAD_DSTYLE_DIMARC_LENGTH_SYMBOL
1070
   379
1070
     0
1001
ACAD_DSTYLE_DIMJOGGED_JOGANGLE_SYMBOL
1070
   384
1040
1.570796326794896
  0
DIMSTYLE
105
88F
330
A
100
AcDbSymbolTableRecord
100
AcDbDimStyleTableRecord
  2
AM_DIN$SF
 70
     0
  4
"
 41
2.5
 42
1.0
 43
10.0
 44
1.0
 47
0.1
 48
0.1
 73
     0
 74
     0
 75
     1
 76
     1
 77
     1
 78
     8
 79
     2
140
3.5
141
0.0
143
0.0393701
146
0.71
147
1.5
172
     1
176
   256
177
   256
178
     2
271
     2
272
     3
274
     4
283
     0
284
     8
340
11
371
    -1
372
    -1
1001
ACAD_DSTYLE_DIMARC_LENGTH_SYMBOL
1070
   379
1070
     0
1001
ACAD_DSTYLE_DIMJOGGED_JOGANGLE_SYMBOL
1070
   384
1040
1.570796326794896
  0
DIMSTYLE
105
890
330
A
100
AcDbSymbolTableRecord
100
AcDbDimStyleTableRecord
  2
AM_DIN$SH
 70
     0
  4
"
 41
2.5
 42
1.0
 43
10.0
 44
1.0
 47
0.1
 48
0.1
 73
     0
 74
     0
 75
     1
 76
     1
 77
     1
 78
     8
 79
     2
140
3.5
141
0.0
143
0.0393701
144
2.0
146
0.71
147
1.5
172
     1
173
     1
176
   256
177
   256
178
     2
271
     2
272
     3
274
     4
283
     0
284
     8
340
11
343
87
371
    -1
372
    -1
1001
ACAD_DSTYLE_DIMARC_LENGTH_SYMBOL
1070
   379
1070
     0
1001
ACAD_DSTYLE_DIMJOGGED_JOGANGLE_SYMBOL
1070
   384
1040
1.570796326794896
  0
DIMSTYLE
105
BA5
102
{ACAD_REACTORS
330
BFD
330
BD3
330
BA9
330
12F2
330
136B
330
1338
102
}
330
A
100
AcDbSymbolTableRecord
100
AcDbDimStyleTableRecord
  2
AM_ISO$0
 70
     0
  4
"
 41
2.5
 42
1.0
 43
10.0
 44
1.0
 47
0.1
 48
0.1
 73
     0
 74
     0
 77
     1
 78
     8
 79
     2
140
3.5
141
0.0
143
0.0393701
146
0.71
147
1.5
172
     1
176
   256
177
   256
178
     2
271
     2
272
     3
274
     4
283
     0
284
     8
340
11
371
    -1
372
    -1
1001
ACAD_DSTYLE_DIMARC_LENGTH_SYMBOL
1070
   379
1070
     1
1001
ACAD_DSTYLE_DIMJOGGED_JOGANGLE_SYMBOL
1070
   384
1040
0.7853981633974483
  0
ENDTAB
  0
TABLE
  2
BLOCK_RECORD
  5
1
330
0
100
AcDbSymbolTable
 70
     9
  0
BLOCK_RECORD
  5
1F
102
{ACAD_XDICTIONARY
360
8F
102
}
330
1
100
AcDbSymbolTableRecord
100
AcDbBlockTableRecord
  2
*Model_Space
340
22
  0
BLOCK_RECORD
  5
1B
330
1
100
AcDbSymbolTableRecord
100
AcDbBlockTableRecord
  2
*Paper_Space
340
1E
  0
BLOCK_RECORD
  5
23
330
1
100
AcDbSymbolTableRecord
100
AcDbBlockTableRecord
  2
*Paper_Space0
340
26
  0
BLOCK_RECORD
  5
87
330
1
100
AcDbSymbolTableRecord
100
AcDbBlockTableRecord
  2
GENAXEH
340
0
  0
BLOCK_RECORD
  5
BAA
330
1
100
AcDbSymbolTableRecord
100
AcDbBlockTableRecord
  2
*D3
340
0
  0
BLOCK_RECORD
  5
BD4
330
1
100
AcDbSymbolTableRecord
100
AcDbBlockTableRecord
  2
*D4
340
0
  0
BLOCK_RECORD
  5
BFE
330
1
100
AcDbSymbolTableRecord
100
AcDbBlockTableRecord
  2
*D5
340
0
  0
BLOCK_RECORD
  5
12F3
330
1
100
AcDbSymbolTableRecord
100
AcDbBlockTableRecord
  2
*D6
340
0
  0
BLOCK_RECORD
  5
1339
330
1
100
AcDbSymbolTableRecord
100
AcDbBlockTableRecord
  2
*D7
340
0
  0
BLOCK_RECORD
  5
136C
330
1
100
AcDbSymbolTableRecord
100
AcDbBlockTableRecord
  2
*D8
340
0
  0
ENDTAB
  0
ENDSEC
  0
SECTION
  2
BLOCKS
  0
BLOCK
  5
20
330
1F
100
AcDbEntity
  8
0
100
AcDbBlockBegin
  2
*Model_Space
 70
     0
 10
0.0
 20
0.0
 30
0.0
  3
*Model_Space
  1

  0
ENDBLK
  5
21
330
1F
100
AcDbEntity
  8
0
100
AcDbBlockEnd
  0
BLOCK
  5
1C
330
1B
100
AcDbEntity
 67
     1
  8
0
100
AcDbBlockBegin
  2
*Paper_Space
 70
     0
 10
0.0
 20
0.0
 30
0.0
  3
*Paper_Space
  1

  0
ENDBLK
  5
1D
330
1B
100
AcDbEntity
 67
     1
  8
0
100
AcDbBlockEnd
  0
BLOCK
  5
24
330
23
100
AcDbEntity
 67
     1
  8
0
100
AcDbBlockBegin
  2
*Paper_Space0
 70
     0
 10
0.0
 20
0.0
 30
0.0
  3
*Paper_Space0
  1

  0
ENDBLK
  5
25
330
23
100
AcDbEntity
 67
     1
  8
0
100
AcDbBlockEnd
  0
BLOCK
  5
89
330
87
100
AcDbEntity
  8
0
100
AcDbBlockBegin
  2
GENAXEH
 70
     0
 10
0.0
 20
0.0
 30
0.0
  3
GENAXEH
  1

  0
LINE
  5
88
330
87
100
AcDbEntity
  8
0
100
AcDbLine
 10
-1.0
 20
0.0
 30
0.0
 11
1.0
 21
0.0
 31
0.0
  0
ENDBLK
  5
8A
330
87
100
AcDbEntity
  8
0
100
AcDbBlockEnd
  0
BLOCK
  5
BB4
330
BAA
100
AcDbEntity
  8
0
100
AcDbBlockBegin
  2
*D3
 70
     1
 10
0.0
 20
0.0
 30
0.0
  3
*D3
  1

  0
LINE
  5
1408
330
BAA
100
AcDbEntity
  8
AM_5
100
AcDbLine
 10
1653.590048270541
 20
1299.203403456243
 30
0.0
 11
1626.067161091954
 21
1299.203403456243
 31
0.0
  0
LINE
  5
1409
330
BAA
100
AcDbEntity
  8
AM_5
100
AcDbLine
 10
1713.383115301019
 20
1086.203403456243
 30
0.0
 11
1626.067161091954
 21
1086.203403456243
 31
0.0
  0
LINE
  5
140A
330
BAA
100
AcDbEntity
  8
AM_5
100
AcDbLine
 10
1627.067161091954
 20
1296.703403456243
 30
0.0
 11
1627.067161091954
 21
1088.703403456243
 31
0.0
  0
SOLID
  5
140B
330
BAA
100
AcDbEntity
  8
AM_5
100
AcDbTrace
 10
1626.650494425287
 20
1296.703403456243
 30
0.0
 11
1627.483827758621
 21
1296.703403456243
 31
0.0
 12
1627.067161091954
 22
1299.203403456243
 32
0.0
 13
1627.067161091954
 23
1299.203403456243
 33
0.0
  0
SOLID
  5
140C
330
BAA
100
AcDbEntity
  8
AM_5
100
AcDbTrace
 10
1626.650494425287
 20
1088.703403456243
 30
0.0
 11
1627.483827758621
 21
1088.703403456243
 31
0.0
 12
1627.067161091954
 22
1086.203403456243
 32
0.0
 13
1627.067161091954
 23
1086.203403456243
 33
0.0
  0
MTEXT
  5
140D
330
BAA
100
AcDbEntity
  8
AM_5
 62
     2
100
AcDbMText
 10
1623.06666896597
 20
1192.703403456244
 30
0.0
 40
5.0
 41
0.0
 71
     5
 72
     1
  1
213
 11
0.0000000000000001
 21
1.0
 31
0.0
 73
     1
 44
1.0
1001
ACAD
1000
MTEXTBEGIN
1070
    73
1070
     1
1070
    44
1040
1.0
1070
    74
1070
     0
1000
MTEXTEND
  0
POINT
  5
140E
330
BAA
100
AcDbEntity
  8
Defpoints
 62
     0
100
AcDbPoint
 10
1654.590048270541
 20
1299.203403456243
 30
0.0
  0
POINT
  5
140F
330
BAA
100
AcDbEntity
  8
Defpoints
 62
     0
100
AcDbPoint
 10
1714.38311530102
 20
1086.203403456243
 30
0.0
  0
POINT
  5
1410
330
BAA
100
AcDbEntity
  8
Defpoints
 62
     0
100
AcDbPoint
 10
1627.067161091954
 20
1086.203403456243
 30
0.0
  0
ENDBLK
  5
BB5
330
BAA
100
AcDbEntity
  8
0
100
AcDbBlockEnd
  0
BLOCK
  5
BDE
330
BD4
100
AcDbEntity
  8
0
100
AcDbBlockBegin
  2
*D4
 70
     1
 10
0.0
 20
0.0
 30
0.0
  3
*D4
  1

  0
LINE
  5
13FF
330
BD4
100
AcDbEntity
  8
AM_5
100
AcDbLine
 10
1840.590048270541
 20
1299.203403456243
 30
0.0
 11
1998.081898222295
 21
1299.203403456243
 31
0.0
  0
LINE
  5
1400
330
BD4
100
AcDbEntity
  8
AM_5
100
AcDbLine
 10
1973.090048270541
 20
1129.203403456243
 30
0.0
 11
1998.081898222295
 21
1129.203403456243
 31
0.0
  0
LINE
  5
1401
330
BD4
100
AcDbEntity
  8
AM_5
100
AcDbLine
 10
1997.081898222295
 20
1296.703403456243
 30
0.0
 11
1997.081898222295
 21
1131.703403456243
 31
0.0
  0
SOLID
  5
1402
330
BD4
100
AcDbEntity
  8
AM_5
100
AcDbTrace
 10
1996.665231555629
 20
1296.703403456243
 30
0.0
 11
1997.498564888962
 21
1296.703403456243
 31
0.0
 12
1997.081898222295
 22
1299.203403456243
 32
0.0
 13
1997.081898222295
 23
1299.203403456243
 33
0.0
  0
SOLID
  5
1403
330
BD4
100
AcDbEntity
  8
AM_5
100
AcDbTrace
 10
1996.665231555629
 20
1131.703403456243
 30
0.0
 11
1997.498564888962
 21
1131.703403456243
 31
0.0
 12
1997.081898222295
 22
1129.203403456243
 32
0.0
 13
1997.081898222295
 23
1129.203403456243
 33
0.0
  0
MTEXT
  5
1404
330
BD4
100
AcDbEntity
  8
AM_5
 62
     2
100
AcDbMText
 10
1993.081898222295
 20
1214.203403456244
 30
0.0
 40
5.0
 41
0.0
 71
     5
 72
     1
  1
170
 11
0.0000000000000001
 21
1.0
 31
0.0
 73
     1
 44
1.0
1001
ACAD
1000
MTEXTBEGIN
1070
    73
1070
     1
1070
    44
1040
1.0
1070
    74
1070
     0
1000
MTEXTEND
  0
POINT
  5
1405
330
BD4
100
AcDbEntity
  8
Defpoints
 62
     0
100
AcDbPoint
 10
1839.590048270541
 20
1299.203403456243
 30
0.0
  0
POINT
  5
1406
330
BD4
100
AcDbEntity
  8
Defpoints
 62
     0
100
AcDbPoint
 10
1972.090048270541
 20
1129.203403456243
 30
0.0
  0
POINT
  5
1407
330
BD4
100
AcDbEntity
  8
Defpoints
 62
     0
100
AcDbPoint
 10
1997.081898222295
 20
1129.203403456243
 30
0.0
  0
ENDBLK
  5
BDF
330
BD4
100
AcDbEntity
  8
0
100
AcDbBlockEnd
  0
BLOCK
  5
C08
330
BFE
100
AcDbEntity
  8
0
100
AcDbBlockBegin
  2
*D5
 70
     1
 10
0.0
 20
0.0
 30
0.0
  3
*D5
  1

  0
LINE
  5
13F6
330
BFE
100
AcDbEntity
  8
AM_5
100
AcDbLine
 10
1747.090048270541
 20
1084.919674765042
 30
0.0
 11
1747.090048270541
 21
1024.983126894146
 31
0.0
  0
LINE
  5
13F7
330
BFE
100
AcDbEntity
  8
AM_5
100
AcDbLine
 10
1972.090048270541
 20
1128.203403456243
 30
0.0
 11
1972.090048270541
 21
1024.983126894146
 31
0.0
  0
LINE
  5
13F8
330
BFE
100
AcDbEntity
  8
AM_5
100
AcDbLine
 10
1749.590048270541
 20
1025.983126894146
 30
0.0
 11
1969.590048270541
 21
1025.983126894146
 31
0.0
  0
SOLID
  5
13F9
330
BFE
100
AcDbEntity
  8
AM_5
100
AcDbTrace
 10
1749.590048270541
 20
1026.399793560813
 30
0.0
 11
1749.590048270541
 21
1025.566460227479
 31
0.0
 12
1747.090048270541
 22
1025.983126894146
 32
0.0
 13
1747.090048270541
 23
1025.983126894146
 33
0.0
  0
SOLID
  5
13FA
330
BFE
100
AcDbEntity
  8
AM_5
100
AcDbTrace
 10
1969.590048270541
 20
1026.399793560813
 30
0.0
 11
1969.590048270541
 21
1025.566460227479
 31
0.0
 12
1972.090048270541
 22
1025.983126894146
 32
0.0
 13
1972.090048270541
 23
1025.983126894146
 33
0.0
  0
MTEXT
  5
13FB
330
BFE
100
AcDbEntity
  8
AM_5
 62
     2
100
AcDbMText
 10
1859.590048270541
 20
1029.98361902013
 30
0.0
 40
5.0
 41
0.0
 71
     5
 72
     1
  1
225
 73
     1
 44
1.0
1001
ACAD
1000
MTEXTBEGIN
1070
    73
1070
     1
1070
    44
1040
1.0
1070
    74
1070
     0
1000
MTEXTEND
  0
POINT
  5
13FC
330
BFE
100
AcDbEntity
  8
Defpoints
 62
     0
100
AcDbPoint
 10
1747.090048270541
 20
1085.919674765042
 30
0.0
  0
POINT
  5
13FD
330
BFE
100
AcDbEntity
  8
Defpoints
 62
     0
100
AcDbPoint
 10
1972.090048270541
 20
1129.203403456243
 30
0.0
  0
POINT
  5
13FE
330
BFE
100
AcDbEntity
  8
Defpoints
 62
     0
100
AcDbPoint
 10
1972.090048270541
 20
1025.983126894146
 30
0.0
  0
ENDBLK
  5
C09
330
BFE
100
AcDbEntity
  8
0
100
AcDbBlockEnd
  0
BLOCK
  5
12FD
330
12F3
100
AcDbEntity
  8
0
100
AcDbBlockBegin
  2
*D6
 70
     1
 10
0.0
 20
0.0
 30
0.0
  3
*D6
  1

  0
LINE
  5
1411
330
12F3
100
AcDbEntity
  8
AM_5
100
AcDbLine
 10
1653.590048270541
 20
1299.203403456243
 30
0.0
 11
1639.408607825058
 21
1299.203403456243
 31
0.0
  0
LINE
  5
1412
330
12F3
100
AcDbEntity
  8
AM_5
100
AcDbLine
 10
1671.090048270541
 20
1280.203403456243
 30
0.0
 11
1639.408607825058
 21
1280.203403456243
 31
0.0
  0
LINE
  5
1413
330
12F3
100
AcDbEntity
  8
AM_5
100
AcDbLine
 10
1640.408607825058
 20
1296.703403456243
 30
0.0
 11
1640.408607825058
 21
1282.703403456243
 31
0.0
  0
SOLID
  5
1414
330
12F3
100
AcDbEntity
  8
AM_5
100
AcDbTrace
 10
1639.991941158391
 20
1296.703403456243
 30
0.0
 11
1640.825274491725
 21
1296.703403456243
 31
0.0
 12
1640.408607825058
 22
1299.203403456243
 32
0.0
 13
1640.408607825058
 23
1299.203403456243
 33
0.0
  0
SOLID
  5
1415
330
12F3
100
AcDbEntity
  8
AM_5
100
AcDbTrace
 10
1639.991941158391
 20
1282.703403456243
 30
0.0
 11
1640.825274491725
 21
1282.703403456243
 31
0.0
 12
1640.408607825058
 22
1280.203403456243
 32
0.0
 13
1640.408607825058
 23
1280.203403456243
 33
0.0
  0
MTEXT
  5
1416
330
12F3
100
AcDbEntity
  8
AM_5
 62
     2
100
AcDbMText
 10
1636.408607825058
 20
1289.703403456244
 30
0.0
 40
5.0
 41
0.0
 71
     5
 72
     1
  1
19
 11
0.0000000000000001
 21
1.0
 31
0.0
 73
     1
 44
1.0
1001
ACAD
1000
MTEXTBEGIN
1070
    73
1070
     1
1070
    44
1040
1.0
1070
    74
1070
     0
1000
MTEXTEND
  0
POINT
  5
1417
330
12F3
100
AcDbEntity
  8
Defpoints
 62
     0
100
AcDbPoint
 10
1654.590048270542
 20
1299.203403456243
 30
0.0
  0
POINT
  5
1418
330
12F3
100
AcDbEntity
  8
Defpoints
 62
     0
100
AcDbPoint
 10
1672.090048270541
 20
1280.203403456243
 30
0.0
  0
POINT
  5
1419
330
12F3
100
AcDbEntity
  8
Defpoints
 62
     0
100
AcDbPoint
 10
1640.408607825058
 20
1280.203403456243
 30
0.0
  0
ENDBLK
  5
12FE
330
12F3
100
AcDbEntity
  8
0
100
AcDbBlockEnd
  0
BLOCK
  5
1343
330
1339
100
AcDbEntity
  8
0
100
AcDbBlockBegin
  2
*D7
 70
     1
 10
0.0
 20
0.0
 30
0.0
  3
*D7
  1

  0
LINE
  5
1423
330
1339
100
AcDbEntity
  8
AM_5
100
AcDbLine
 10
1746.090048270541
 20
927.3721178010839
 30
0.0
 11
1624.310357386636
 21
927.3721178010839
 31
0.0
  0
LINE
  5
1424
330
1339
100
AcDbEntity
  8
AM_5
100
AcDbLine
 10
1746.090048270541
 20
742.3721178010834
 30
0.0
 11
1624.310357386636
 21
742.3721178010834
 31
0.0
  0
LINE
  5
1425
330
1339
100
AcDbEntity
  8
AM_5
100
AcDbLine
 10
1625.310357386635
 20
924.8721178010839
 30
0.0
 11
1625.310357386635
 21
744.8721178010835
 31
0.0
  0
SOLID
  5
1426
330
1339
100
AcDbEntity
  8
AM_5
100
AcDbTrace
 10
1624.893690719969
 20
924.8721178010839
 30
0.0
 11
1625.727024053302
 21
924.8721178010839
 31
0.0
 12
1625.310357386635
 22
927.3721178010839
 32
0.0
 13
1625.310357386635
 23
927.3721178010839
 33
0.0
  0
SOLID
  5
1427
330
1339
100
AcDbEntity
  8
AM_5
100
AcDbTrace
 10
1624.893690719969
 20
744.8721178010835
 30
0.0
 11
1625.727024053302
 21
744.8721178010835
 31
0.0
 12
1625.310357386635
 22
742.3721178010834
 32
0.0
 13
1625.310357386635
 23
742.3721178010834
 33
0.0
  0
MTEXT
  5
1428
330
1339
100
AcDbEntity
  8
AM_5
 62
     2
100
AcDbMText
 10
1621.310357386635
 20
834.8721178010839
 30
0.0
 40
5.0
 41
0.0
 71
     5
 72
     1
  1
%%c185
 11
0.0000000000000001
 21
1.0
 31
0.0
 73
     1
 44
1.0
1001
ACAD
1000
MTEXTBEGIN
1070
    73
1070
     1
1070
    44
1040
1.0
1070
    74
1070
     0
1000
MTEXTEND
  0
POINT
  5
1429
330
1339
100
AcDbEntity
  8
Defpoints
 62
     0
100
AcDbPoint
 10
1747.090048270541
 20
927.3721178010839
 30
0.0
  0
POINT
  5
142A
330
1339
100
AcDbEntity
  8
Defpoints
 62
     0
100
AcDbPoint
 10
1747.090048270541
 20
742.3721178010834
 30
0.0
  0
POINT
  5
142B
330
1339
100
AcDbEntity
  8
Defpoints
 62
     0
100
AcDbPoint
 10
1625.310357386635
 20
742.3721178010834
 30
0.0
  0
ENDBLK
  5
1344
330
1339
100
AcDbEntity
  8
0
100
AcDbBlockEnd
  0
BLOCK
  5
1376
330
136C
100
AcDbEntity
  8
0
100
AcDbBlockBegin
  2
*D8
 70
     1
 10
0.0
 20
0.0
 30
0.0
  3
*D8
  1

  0
LINE
  5
141A
330
136C
100
AcDbEntity
  8
AM_5
100
AcDbLine
 10
1765.09004827054
 20
781.2223314767309
 30
0.0
 11
1765.09004827054
 21
730.7024479826832
 31
0.0
  0
LINE
  5
141B
330
136C
100
AcDbEntity
  8
AM_5
100
AcDbLine
 10
1777.09004827054
 20
784.5162670840712
 30
0.0
 11
1777.09004827054
 21
730.7024479826832
 31
0.0
  0
LINE
  5
141C
330
136C
100
AcDbEntity
  8
AM_5
100
AcDbLine
 10
1767.59004827054
 20
731.7024479826832
 30
0.0
 11
1774.59004827054
 21
731.7024479826832
 31
0.0
  0
SOLID
  5
141D
330
136C
100
AcDbEntity
  8
AM_5
100
AcDbTrace
 10
1767.59004827054
 20
732.1191146493498
 30
0.0
 11
1767.59004827054
 21
731.2857813160166
 31
0.0
 12
1765.09004827054
 22
731.7024479826832
 32
0.0
 13
1765.09004827054
 23
731.7024479826832
 33
0.0
  0
SOLID
  5
141E
330
136C
100
AcDbEntity
  8
AM_5
100
AcDbTrace
 10
1774.59004827054
 20
732.1191146493498
 30
0.0
 11
1774.59004827054
 21
731.2857813160166
 31
0.0
 12
1777.09004827054
 22
731.7024479826832
 32
0.0
 13
1777.09004827054
 23
731.7024479826832
 33
0.0
  0
MTEXT
  5
141F
330
136C
100
AcDbEntity
  8
AM_5
 62
     2
100
AcDbMText
 10
1771.09004827054
 20
735.7029401086674
 30
0.0
 40
5.0
 41
0.0
 71
     5
 72
     1
  1
12
 73
     1
 44
1.0
1001
ACAD
1000
MTEXTBEGIN
1070
    73
1070
     1
1070
    44
1040
1.0
1070
    74
1070
     0
1000
MTEXTEND
  0
POINT
  5
1420
330
136C
100
AcDbEntity
  8
Defpoints
 62
     0
100
AcDbPoint
 10
1765.09004827054
 20
782.2223314767309
 30
0.0
  0
POINT
  5
1421
330
136C
100
AcDbEntity
  8
Defpoints
 62
     0
100
AcDbPoint
 10
1777.09004827054
 20
785.5162670840711
 30
0.0
  0
POINT
  5
1422
330
136C
100
AcDbEntity
  8
Defpoints
 62
     0
100
AcDbPoint
 10
1777.09004827054
 20
731.7024479826832
 30
0.0
  0
ENDBLK
  5
1377
330
136C
100
AcDbEntity
  8
0
100
AcDbBlockEnd
  0
ENDSEC
  0
SECTION
  2
ENTITIES
  0
LINE
  5
504
102
{ACAD_REACTORS
330
C0B
102
}
330
1F
100
AcDbEntity
  8
7A
  6
CENTER
100
AcDbLine
 10
1747.090048270541
 20
1046.503403456243
 30
0.0
 11
1747.090048270541
 21
1315.903403456243
 31
0.0
  0
LINE
  5
505
330
1F
100
AcDbEntity
  8
0
100
AcDbLine
 10
1654.590048270542
 20
1299.203403456243
 30
0.0
 11
1839.590048270541
 21
1299.203403456243
 31
0.0
  0
LINE
  5
506
330
1F
100
AcDbEntity
  8
0
100
AcDbLine
 10
1661.134209075817
 20
1280.585989791351
 30
0.0
 11
1672.090048270541
 21
1280.203403456243
 31
0.0
  0
LINE
  5
507
330
1F
100
AcDbEntity
  8
0
100
AcDbLine
 10
1672.090048270541
 20
1280.203403456243
 30
0.0
 11
1672.090048270541
 21
1107.203403456243
 31
0.0
  0
LINE
  5
508
330
1F
100
AcDbEntity
  8
0
100
AcDbLine
 10
1822.090048270541
 20
1280.203403456243
 30
0.0
 11
1822.090048270541
 21
1215.602124650042
 31
0.0
  0
LINE
  5
509
330
1F
100
AcDbEntity
  8
0
100
AcDbLine
 10
1667.590048270541
 20
1269.203403456243
 30
0.0
 11
1667.590048270541
 21
1105.703403456243
 31
0.0
  0
LINE
  5
50A
330
1F
100
AcDbEntity
  8
0
100
AcDbLine
 10
1826.590048270541
 20
1269.203403456244
 30
0.0
 11
1826.590048270541
 21
1215.628328539684
 31
0.0
  0
LINE
  5
50B
330
1F
100
AcDbEntity
  8
0
100
AcDbLine
 10
1658.590048270541
 20
1275.203403456243
 30
0.0
 11
1661.590048270541
 21
1275.203403456243
 31
0.0
  0
LINE
  5
50C
330
1F
100
AcDbEntity
  8
0
100
AcDbLine
 10
1835.590048270541
 20
1275.203403456243
 30
0.0
 11
1832.590048270541
 21
1275.203403456244
 31
0.0
  0
LINE
  5
50D
330
1F
100
AcDbEntity
  8
0
100
AcDbLine
 10
1659.590048270542
 20
1282.185015114582
 30
0.0
 11
1659.590048270541
 21
1298.765960138614
 31
0.0
  0
LINE
  5
50E
330
1F
100
AcDbEntity
  8
0
100
AcDbLine
 10
1834.590048270541
 20
1282.185015114582
 30
0.0
 11
1834.590048270541
 21
1298.765960138614
 31
0.0
  0
LINE
  5
50F
102
{ACAD_REACTORS
330
BB7
102
}
330
1F
100
AcDbEntity
  8
0
100
AcDbLine
 10
1654.590048270542
 20
1279.203403456243
 30
0.0
 11
1654.590048270541
 21
1299.203403456243
 31
0.0
  0
LINE
  5
510
330
1F
100
AcDbEntity
  8
0
100
AcDbLine
 10
1839.590048270541
 20
1279.203403456243
 30
0.0
 11
1839.590048270541
 21
1299.203403456243
 31
0.0
  0
LINE
  5
511
102
{ACAD_REACTORS
330
BE1
102
}
330
1F
100
AcDbEntity
  8
0
100
AcDbLine
 10
1834.590048270541
 20
1298.765960138614
 30
0.0
 11
1839.590048270541
 21
1299.203403456243
 31
0.0
  0
LINE
  5
512
330
1F
100
AcDbEntity
  8
0
100
AcDbLine
 10
1834.590048270541
 20
1298.765960138614
 30
0.0
 11
1659.590048270541
 21
1298.765960138614
 31
0.0
  0
LINE
  5
513
102
{ACAD_REACTORS
330
1300
102
}
330
1F
100
AcDbEntity
  8
0
100
AcDbLine
 10
1659.590048270541
 20
1298.765960138614
 30
0.0
 11
1654.590048270542
 21
1299.203403456243
 31
0.0
  0
LINE
  5
516
330
1F
100
AcDbEntity
  8
0
100
AcDbLine
 10
1969.473250458394
 20
1079.271926718515
 30
0.0
 11
1974.706846082688
 21
1179.134880193972
 31
0.0
  0
LINE
  5
517
330
1F
100
AcDbEntity
  8
7A
  6
CENTER
100
AcDbLine
 10
1863.17804808993
 20
1134.911239522983
 30
0.0
 11
1987.618737535974
 21
1128.389579336665
 31
0.0
  0
LINE
  5
518
330
1F
100
AcDbEntity
  8
0
100
AcDbLine
 10
1850.519969583253
 20
1185.643238607404
 30
0.0
 11
1974.706846082688
 21
1179.134880193972
 31
0.0
  0
LINE
  5
519
330
1F
100
AcDbEntity
  8
0
100
AcDbLine
 10
1722.725975251616
 20
1092.203403456243
 30
0.0
 11
1969.473250458394
 21
1079.271926718515
 31
0.0
  0
LINE
  5
51A
330
1F
100
AcDbEntity
  8
0
100
AcDbLine
 10
1850.281649364468
 20
1190.662590170819
 30
0.0
 11
1973.630615977026
 21
1184.198144753797
 31
0.0
  0
LINE
  5
51B
102
{ACAD_REACTORS
330
C0B
102
}
330
1F
100
AcDbEntity
  8
0
100
AcDbLine
 10
1741.676182331498
 20
1086.203403456243
 30
0.0
 11
1967.873660790302
 21
1074.348895930794
 31
0.0
  0
LINE
  5
51C
330
1F
100
AcDbEntity
  8
0
100
AcDbLine
 10
1974.706846082687
 20
1179.134880193972
 30
0.0
 11
1973.630615977026
 21
1184.198144753797
 31
0.0
  0
LINE
  5
51D
330
1F
100
AcDbEntity
  8
0
100
AcDbLine
 10
1969.473250458393
 20
1079.271926718515
 30
0.0
 11
1967.873660790302
 21
1074.348895930794
 31
0.0
  0
LINE
  5
51F
330
1F
100
AcDbEntity
  8
0
100
AcDbLine
 10
1687.090048270541
 20
1086.203403456243
 30
0.0
 11
1741.676182331498
 21
1086.203403456243
 31
0.0
  0
LINE
  5
520
330
1F
100
AcDbEntity
  8
0
100
AcDbLine
 10
1687.090048270541
 20
1092.203403456243
 30
0.0
 11
1722.725975251615
 21
1092.203403456243
 31
0.0
  0
ARC
  5
521
330
1F
100
AcDbEntity
  8
0
100
AcDbCircle
 10
1851.590048270541
 20
1215.628328539684
 30
0.0
 40
25.0
100
AcDbArc
 50
180.0
 51
266.9999999999946
  0
ARC
  5
522
330
1F
100
AcDbEntity
  8
0
100
AcDbCircle
 10
1852.090048270541
 20
1215.602124650042
 30
0.0
 40
30.0
100
AcDbArc
 50
180.0
 51
266.9999999999946
  0
ARC
  5
523
330
1F
100
AcDbEntity
  8
0
100
AcDbCircle
 10
1687.090048270541
 20
1107.203403456243
 30
0.0
 40
15.0
100
AcDbArc
 50
180.0
 51
270.0
  0
ARC
  5
524
330
1F
100
AcDbEntity
  8
0
100
AcDbCircle
 10
1687.090048270541
 20
1105.703403456243
 30
0.0
 40
19.5
100
AcDbArc
 50
180.0
 51
270.0
  0
ARC
  5
525
330
1F
100
AcDbEntity
  8
0
100
AcDbCircle
 10
1661.590048270541
 20
1269.203403456243
 30
0.0
 40
6.0
100
AcDbArc
 50
0.0
 51
90.0
  0
ARC
  5
526
330
1F
100
AcDbEntity
  8
0
100
AcDbCircle
 10
1832.590048270541
 20
1269.203403456244
 30
0.0
 40
6.0
100
AcDbArc
 50
90.0
 51
180.0
  0
ARC
  5
527
330
1F
100
AcDbEntity
  8
0
100
AcDbCircle
 10
1835.590048270541
 20
1279.203403456243
 30
0.0
 40
4.0
100
AcDbArc
 50
270.0
 51
0.0
  0
ARC
  5
528
330
1F
100
AcDbEntity
  8
0
100
AcDbCircle
 10
1658.590048270541
 20
1279.203403456243
 30
0.0
 40
4.0
100
AcDbArc
 50
180.0
 51
270.0
  0
ARC
  5
529
330
1F
100
AcDbEntity
  8
0
100
AcDbCircle
 10
1661.190048270542
 20
1282.185015114582
 30
0.0
 40
1.6
100
AcDbArc
 50
180.0
 51
267.9999999999963
  0
ARC
  5
52A
330
1F
100
AcDbEntity
  8
0
100
AcDbCircle
 10
1832.990048270541
 20
1282.185015114582
 30
0.0
 40
1.6
100
AcDbArc
 50
272.0000000000037
 51
0.0
  0
LINE
  5
52B
330
1F
100
AcDbEntity
  8
0
100
AcDbLine
 10
1833.045887465264
 20
1280.585989791351
 30
0.0
 11
1822.090048270541
 21
1280.203403456243
 31
0.0
  0
LINE
  5
554
330
1F
100
AcDbEntity
  8
0
100
AcDbLine
 10
1969.514364415757
 20
1080.842005405803
 30
0.0
 11
1969.514364415757
 21
1085.842005405803
 31
0.0
  0
HATCH
  5
576
330
1F
100
AcDbEntity
  8
8
100
AcDbHatch
 10
0.0
 20
0.0
 30
0.0
210
0.0
220
0.0
230
1.0
  2
ANSI31
 70
     0
 71
     0
 91
        2
 92
        7
 72
     1
 73
     1
 93
       17
 10
1659.590048270541
 20
1298.765960138614
 42
0.0
 10
1654.590048270541
 20
1299.203403456243
 42
0.0
 10
1654.590048270542
 20
1279.203403456243
 42
0.4142135623730959
 10
1658.590048270541
 20
1275.203403456243
 42
0.0
 10
1661.590048270541
 20
1275.203403456243
 42
-0.4142135623730951
 10
1667.590048270541
 20
1269.203403456243
 42
0.0
 10
1667.590048270541
 20
1105.703403456243
 42
0.4142135623730951
 10
1687.090048270541
 20
1086.203403456243
 42
0.0
 10
1741.676182331499
 20
1086.203403456243
 42
0.0
 10
1747.090048270541
 20
1085.919674765042
 42
0.0
 10
1747.090048270541
 20
1090.926536495032
 42
0.0
 10
1722.725975251616
 20
1092.203403456243
 42
0.0
 10
1687.090048270541
 20
1092.203403456243
 42
-0.4142135623730953
 10
1672.090048270541
 20
1107.203403456243
 42
0.0
 10
1672.090048270541
 20
1280.203403456243
 42
0.0
 10
1661.134209075817
 20
1280.585989791351
 42
-0.404026225835117
 10
1659.590048270542
 20
1282.185015114582
 42
0.0
 97
        0
 92
        7
 72
     0
 73
     1
 93
        4
 10
1747.090048270541
 20
1090.926536495032
 10
1747.090048270541
 20
1085.919674765042
 10
1967.873660790302
 20
1074.348895930794
 10
1968.135340571517
 20
1079.342043604566
 97
        0
 75
     0
 76
     1
 52
180.0
 41
40.0
 77
     0
 78
     1
 53
225.0
 43
571.0900482705411
 44
793.4034034562435
 45
3.535533905932736
 46
-3.535533905932738
 79
     0
 47
0.5419962335216573
 98
        2
 10
1657.490048270541
 20
1294.203403456243
 10
1756.690048270541
 20
1088.203403456243
  0
HATCH
  5
577
330
1F
100
AcDbEntity
  8
8
100
AcDbHatch
 10
0.0
 20
0.0
 30
0.0
210
0.0
220
0.0
230
1.0
  2
ANSI31
 70
     0
 71
     0
 91
        1
 92
        7
 72
     1
 73
     1
 93
       15
 10
1834.590048270541
 20
1282.185015114582
 42
-0.4040262258351523
 10
1833.045887465265
 20
1280.585989791351
 42
0.0
 10
1822.090048270541
 20
1280.203403456243
 42
0.0
 10
1822.090048270541
 20
1215.602124650042
 42
0.3989595459737198
 10
1850.519969583253
 20
1185.643238607404
 42
0.0
 10
1973.368936195811
 20
1179.204997080024
 42
0.0
 10
1973.630615977026
 20
1184.198144753797
 42
0.0
 10
1850.281649364468
 20
1190.662590170819
 42
-0.39895954597372
 10
1826.590048270541
 20
1215.628328539684
 42
0.0
 10
1826.590048270541
 20
1269.203403456244
 42
-0.4142135623730964
 10
1832.590048270541
 20
1275.203403456244
 42
0.0
 10
1835.590048270541
 20
1275.203403456243
 42
0.4142135623730955
 10
1839.590048270541
 20
1279.203403456243
 42
0.0
 10
1839.590048270541
 20
1299.203403456243
 42
0.0
 10
1834.590048270541
 20
1298.765960138614
 42
0.0
 97
        0
 75
     0
 76
     1
 52
180.0
 41
40.0
 77
     0
 78
     1
 53
225.0
 43
571.0900482705411
 44
793.4034034562435
 45
3.535533905932736
 46
-3.535533905932738
 79
     0
 47
0.5419962335216573
 98
        1
 10
1836.990048270541
 20
1284.403403456243
  0
LINE
  5
57C
330
1F
100
AcDbEntity
  8
0
  6
Continuous
100
AcDbLine
 10
1972.090048270541
 20
779.8721178010837
 30
0.0
 11
1973.697743425128
 21
785.8721178010837
 31
0.0
  0
LINE
  5
57D
330
1F
100
AcDbEntity
  8
0
  6
Continuous
100
AcDbLine
 10
1973.697743425128
 20
785.8721178010837
 30
0.0
 11
1973.697743425128
 21
883.8721178010835
 31
0.0
  0
LINE
  5
57E
330
1F
100
AcDbEntity
  8
0
  6
Continuous
100
AcDbLine
 10
1972.090048270541
 20
889.8721178010838
 30
0.0
 11
1973.697743425128
 21
883.8721178010835
 31
0.0
  0
LINE
  5
57F
330
1F
100
AcDbEntity
  8
0
  6
Continuous
100
AcDbLine
 10
1972.090048270541
 20
779.8721178010837
 30
0.0
 11
1972.090048270541
 21
889.8721178010836
 31
0.0
  0
LINE
  5
580
330
1F
100
AcDbEntity
  8
0
  6
Continuous
100
AcDbLine
 10
1972.090048270541
 20
889.8721178010836
 30
0.0
 11
1821.462422173759
 21
889.8721178010838
 31
0.0
  0
LINE
  5
583
330
1F
100
AcDbEntity
  8
0
  6
Continuous
100
AcDbLine
 10
1972.090048270541
 20
779.8721178010837
 30
0.0
 11
1821.462422173759
 21
779.8721178010837
 31
0.0
  0
CIRCLE
  5
584
102
{ACAD_REACTORS
330
1346
102
}
330
1F
100
AcDbEntity
  8
0
  6
Continuous
100
AcDbCircle
 10
1747.090048270541
 20
834.8721178010837
 30
0.0
 40
92.50000000000023
  0
CIRCLE
  5
585
330
1F
100
AcDbEntity
  8
0
  6
Continuous
100
AcDbCircle
 10
1747.090048270541
 20
834.8721178010837
 30
0.0
 40
87.50000000000023
  0
LINE
  5
588
330
1F
100
AcDbEntity
  8
7A
  6
CENTER
100
AcDbLine
 10
1997.090048270541
 20
834.8721178010837
 30
0.0
 11
1647.090048270541
 21
834.8721178010837
 31
0.0
  0
LINE
  5
589
102
{ACAD_REACTORS
330
1346
102
}
330
1F
100
AcDbEntity
  8
7A
  6
CENTER
100
AcDbLine
 10
1747.090048270541
 20
934.8721178010837
 30
0.0
 11
1747.090048270541
 21
734.8721178010837
 31
0.0
  0
LINE
  5
992
330
1F
100
AcDbEntity
  8
7A
  6
CENTER
100
AcDbLine
 10
1747.090048270541
 20
744.8721178010837
 30
0.0
 11
1747.090048270541
 21
924.8721178010837
 31
0.0
  0
LINE
  5
993
330
1F
100
AcDbEntity
  8
0
  6
Continuous
100
AcDbLine
 10
1741.090048270541
 20
778.4806290815968
 30
0.0
 11
1741.090048270541
 21
891.2636065205704
 31
0.0
  0
LINE
  5
994
330
1F
100
AcDbEntity
  8
0
  6
Continuous
100
AcDbLine
 10
1729.090048270541
 20
782.2223314767309
 30
0.0
 11
1729.090048270541
 21
887.5219041254363
 31
0.0
  0
LINE
  5
995
330
1F
100
AcDbEntity
  8
0
  6
Continuous
100
AcDbLine
 10
1672.090048270541
 20
1280.765960138614
 30
0.0
 11
1672.090048270541
 21
1280.765960138614
 31
0.0
  0
LINE
  5
996
330
1F
100
AcDbEntity
  8
0
  6
Continuous
100
AcDbLine
 10
1717.090048270541
 20
785.5162670840713
 30
0.0
 11
1717.090048270541
 21
884.2279685180958
 31
0.0
  0
LINE
  5
997
330
1F
100
AcDbEntity
  8
0
  6
Continuous
100
AcDbLine
 10
1665.130974092436
 20
1280.765960138614
 30
0.0
 11
1705.999096825807
 21
1280.765960138614
 31
0.0
  0
LINE
  5
998
330
1F
100
AcDbEntity
  8
0
  6
Continuous
100
AcDbLine
 10
1662.090048270541
 20
1298.765960138614
 30
0.0
 11
1747.090048270541
 21
1298.765960138614
 31
0.0
  0
LINE
  5
999
330
1F
100
AcDbEntity
  8
7A
  6
CENTER
100
AcDbLine
 10
1657.09004827054
 20
834.8721178010835
 30
0.0
 11
1837.09004827054
 21
834.8721178010835
 31
0.0
  0
LINE
  5
99A
330
1F
100
AcDbEntity
  8
0
  6
Continuous
100
AcDbLine
 10
1741.090048270541
 20
1293.765960138614
 30
0.0
 11
1739.844665304904
 21
1275.956153985248
 31
0.0
  0
LINE
  5
99B
330
1F
100
AcDbEntity
  8
0
  6
Continuous
100
AcDbLine
 10
1717.090048270542
 20
1293.765960138614
 30
0.0
 11
1741.090048270541
 21
1293.765960138614
 31
0.0
  0
LINE
  5
99C
330
1F
100
AcDbEntity
  8
0
  6
Continuous
100
AcDbLine
 10
1729.076098760403
 20
1293.965447427542
 30
0.0
 11
1730.320328049968
 21
1276.172139610645
 31
0.0
  0
LINE
  5
99D
330
1F
100
AcDbEntity
  8
0
  6
Continuous
100
AcDbLine
 10
1705.090048270541
 20
1293.765960138614
 30
0.0
 11
1706.142618997713
 21
1278.713497457748
 31
0.0
  0
LINE
  5
99E
330
1F
100
AcDbEntity
  8
0
  6
Continuous
100
AcDbLine
 10
1717.103997780679
 20
1293.965447427542
 30
0.0
 11
1715.98850751727
 21
1278.013193457924
 31
0.0
  0
LINE
  5
99F
330
1F
100
AcDbEntity
  8
0
  6
Continuous
100
AcDbLine
 10
1675.090048270541
 20
1283.765960138613
 30
0.0
 11
1677.477240112567
 21
1283.765960138613
 31
0.0
  0
ARC
  5
9A0
330
1F
100
AcDbEntity
  8
0
  6
Continuous
100
AcDbCircle
 10
1708.636529123362
 20
1278.887888642109
 30
0.0
 40
2.5
100
AcDbArc
 50
183.9999999999965
 51
261.2402736602224
  0
ARC
  5
9A1
330
1F
100
AcDbEntity
  8
0
  6
Continuous
100
AcDbCircle
 10
1713.494597391621
 20
1278.187584642284
 30
0.0
 40
2.5
100
AcDbArc
 50
262.3540494722775
 51
356.0000000000035
  0
ARC
  5
9A2
330
1F
100
AcDbEntity
  8
0
  6
Continuous
100
AcDbCircle
 10
1732.814238175618
 20
1276.346530795005
 30
0.0
 40
2.5
100
AcDbArc
 50
183.9999999999965
 51
266.7588908549036
  0
ARC
  5
9A3
330
1F
100
AcDbEntity
  8
0
  6
Continuous
100
AcDbCircle
 10
1737.350755179255
 20
1276.130545169609
 30
0.0
 40
2.5
100
AcDbArc
 50
267.7894699058204
 51
356.0000000000035
  0
ARC
  5
9A4
330
1F
100
AcDbEntity
  8
0
  6
Continuous
100
AcDbCircle
 10
1747.090048270541
 20
1528.442645890288
 30
0.0
 40
255.0
100
AcDbArc
 50
261.2402736602224
 51
262.3540494722775
  0
ARC
  5
9A5
330
1F
100
AcDbEntity
  8
0
  6
Continuous
100
AcDbCircle
 10
1747.090048270541
 20
1528.442645890288
 30
0.0
 40
255.0
100
AcDbArc
 50
266.7588908549036
 51
267.7894699058204
  0
ARC
  5
9A6
330
1F
100
AcDbEntity
  8
0
  6
Continuous
100
AcDbCircle
 10
1784.92439222306
 20
2451.388643137911
 30
0.0
 40
1159.149397368062
100
AcDbArc
 50
263.9169803979157
 51
265.207975030523
  0
ARC
  5
9A7
330
1F
100
AcDbEntity
  8
0
  6
Continuous
100
AcDbCircle
 10
1747.090048270541
 20
2027.915960138614
 30
0.0
 40
734.0
100
AcDbArc
 50
266.6887364591764
 51
267.6617163882257
  0
ARC
  5
9A8
330
1F
100
AcDbEntity
  8
0
  6
Continuous
100
AcDbCircle
 10
1747.090048270541
 20
2027.915960138614
 30
0.0
 40
734.0
100
AcDbArc
 50
268.5922885098449
 51
269.531985658106
  0
LINE
  5
9A9
330
1F
100
AcDbEntity
  8
0
  6
Continuous
100
AcDbLine
 10
1688.090048270541
 20
1296.291056243182
 30
0.0
 11
1702.590048270541
 21
1296.291056243182
 31
0.0
  0
ARC
  5
9AA
330
1F
100
AcDbEntity
  8
0
  6
Continuous
100
AcDbCircle
 10
1702.590048270541
 20
1293.791056243182
 30
0.0
 40
2.5
100
AcDbArc
 50
0.0
 51
90.0
  0
LINE
  5
9AB
330
1F
100
AcDbEntity
  8
0
  6
Continuous
100
AcDbLine
 10
1663.537062575489
 20
1282.226510950217
 30
0.0
 11
1662.090048270541
 21
1298.765960138614
 31
0.0
  0
ARC
  5
9AC
330
1F
100
AcDbEntity
  8
0
  6
Continuous
100
AcDbCircle
 10
1675.090048270541
 20
1280.765960138614
 30
0.0
 40
3.0
100
AcDbArc
 50
90.0
 51
180.0
  0
ARC
  5
9AD
330
1F
100
AcDbEntity
  8
0
  6
Continuous
100
AcDbCircle
 10
1719.597907906329
 20
1293.791056243182
 30
0.0
 40
2.5
100
AcDbArc
 50
90.0
 51
176.0000000000034
  0
ARC
  5
9AE
330
1F
100
AcDbEntity
  8
0
  6
Continuous
100
AcDbCircle
 10
1726.582188634753
 20
1293.791056243182
 30
0.0
 40
2.5
100
AcDbArc
 50
3.999999999996512
 51
90.0
  0
ARC
  5
9AF
330
1F
100
AcDbEntity
  8
0
  6
Continuous
100
AcDbCircle
 10
1743.590048270541
 20
1293.791056243182
 30
0.0
 40
2.5
100
AcDbArc
 50
90.0
 51
180.0
  0
LINE
  5
9B0
330
1F
100
AcDbEntity
  8
0
  6
Continuous
100
AcDbLine
 10
1726.582188634753
 20
1296.291056243182
 30
0.0
 11
1719.597907906329
 21
1296.291056243182
 31
0.0
  0
LINE
  5
9B1
330
1F
100
AcDbEntity
  8
0
  6
Continuous
100
AcDbLine
 10
1767.597907906329
 20
1296.291056243182
 30
0.0
 11
1774.582188634754
 21
1296.291056243182
 31
0.0
  0
ARC
  5
9B2
330
1F
100
AcDbEntity
  8
0
  6
Continuous
100
AcDbCircle
 10
1750.590048270541
 20
1293.791056243182
 30
0.0
 40
2.5
100
AcDbArc
 50
0.0
 51
90.0
  0
ARC
  5
9B3
330
1F
100
AcDbEntity
  8
0
  6
Continuous
100
AcDbCircle
 10
1767.597907906329
 20
1293.791056243182
 30
0.0
 40
2.5
100
AcDbArc
 50
90.0
 51
176.0000000000034
  0
ARC
  5
9B4
330
1F
100
AcDbEntity
  8
0
  6
Continuous
100
AcDbCircle
 10
1774.582188634754
 20
1293.791056243182
 30
0.0
 40
2.5
100
AcDbArc
 50
3.999999999996512
 51
90.0
  0
LINE
  5
9B5
330
1F
100
AcDbEntity
  8
0
  6
Continuous
100
AcDbLine
 10
1809.225494323235
 20
1282.265960138613
 30
0.0
 11
1788.285889933191
 21
1282.265960138614
 31
0.0
  0
ARC
  5
9B6
330
1F
100
AcDbEntity
  8
0
  6
Continuous
100
AcDbCircle
 10
1791.590048270541
 20
1293.791056243182
 30
0.0
 40
2.5
100
AcDbArc
 50
90.0
 51
180.0
  0
LINE
  5
9B7
330
1F
100
AcDbEntity
  8
0
  6
Continuous
100
AcDbLine
 10
1806.090048270542
 20
1296.291056243182
 30
0.0
 11
1791.590048270541
 21
1296.291056243182
 31
0.0
  0
ARC
  5
9B8
330
1F
100
AcDbEntity
  8
0
  6
Continuous
100
AcDbCircle
 10
1707.35754010706
 20
2471.329728356356
 30
0.0
 40
1179.179371058425
100
AcDbArc
 50
274.8029900760134
 51
276.072054495529
  0
ARC
  5
9B9
330
1F
100
AcDbEntity
  8
0
  6
Continuous
100
AcDbCircle
 10
1747.090048270541
 20
1528.442645890288
 30
0.0
 40
255.0
100
AcDbArc
 50
272.2105300941795
 51
273.2411091450964
  0
ARC
  5
9BA
330
1F
100
AcDbEntity
  8
0
  6
Continuous
100
AcDbCircle
 10
1747.090048270541
 20
1528.442645890288
 30
0.0
 40
255.0
100
AcDbArc
 50
277.6459505277225
 51
278.7597263397775
  0
ARC
  5
9BB
330
1F
100
AcDbEntity
  8
0
  6
Continuous
100
AcDbCircle
 10
1756.829341361827
 20
1276.130545169609
 30
0.0
 40
2.5
100
AcDbArc
 50
183.9999999999965
 51
272.2105300941795
  0
ARC
  5
9BC
330
1F
100
AcDbEntity
  8
0
  6
Continuous
100
AcDbCircle
 10
1761.365858365464
 20
1276.346530795005
 30
0.0
 40
2.5
100
AcDbArc
 50
273.2411091450964
 51
356.0000000000035
  0
ARC
  5
9BD
330
1F
100
AcDbEntity
  8
0
  6
Continuous
100
AcDbCircle
 10
1780.685499149461
 20
1278.187584642284
 30
0.0
 40
2.5
100
AcDbArc
 50
183.9999999999965
 51
277.6459505277225
  0
ARC
  5
9BE
330
1F
100
AcDbEntity
  8
0
  6
Continuous
100
AcDbCircle
 10
1785.54356741772
 20
1278.887888642109
 30
0.0
 40
2.5
100
AcDbArc
 50
278.7597263397775
 51
356.0000000000035
  0
LINE
  5
9BF
330
1F
100
AcDbEntity
  8
0
  6
Continuous
100
AcDbLine
 10
1777.076098760403
 20
1293.965447427542
 30
0.0
 11
1778.191589023812
 21
1278.013193457924
 31
0.0
  0
LINE
  5
9C0
330
1F
100
AcDbEntity
  8
0
  6
Continuous
100
AcDbLine
 10
1789.090048270541
 20
1293.765960138614
 30
0.0
 11
1788.03747754337
 21
1278.713497457748
 31
0.0
  0
LINE
  5
9C1
330
1F
100
AcDbEntity
  8
0
  6
Continuous
100
AcDbLine
 10
1765.103997780679
 20
1293.965447427542
 30
0.0
 11
1763.859768491114
 21
1276.172139610645
 31
0.0
  0
LINE
  5
9C2
330
1F
100
AcDbEntity
  8
0
  6
Continuous
100
AcDbLine
 10
1765.090048270542
 20
1293.765960138614
 30
0.0
 11
1753.090048270541
 21
1293.765960138614
 31
0.0
  0
LINE
  5
9C3
330
1F
100
AcDbEntity
  8
0
  6
Continuous
100
AcDbLine
 10
1753.090048270541
 20
1293.765960138614
 30
0.0
 11
1754.335431236178
 21
1275.956153985248
 31
0.0
  0
LINE
  5
9C4
330
1F
100
AcDbEntity
  8
0
  6
Continuous
100
AcDbLine
 10
1832.090048270541
 20
1298.765960138614
 30
0.0
 11
1747.090048270541
 21
1298.765960138614
 31
0.0
  0
LINE
  5
9C5
330
1F
100
AcDbEntity
  8
0
  6
Continuous
100
AcDbLine
 10
1829.049122448647
 20
1280.765960138614
 30
0.0
 11
1788.180999715276
 21
1280.765960138614
 31
0.0
  0
LINE
  5
9C6
330
1F
100
AcDbEntity
  8
0
  6
Continuous
100
AcDbLine
 10
1753.090048270541
 20
778.4806290815968
 30
0.0
 11
1753.090048270541
 21
891.2636065205704
 31
0.0
  0
CIRCLE
  5
9C9
330
1F
100
AcDbEntity
  8
0
  6
Continuous
100
AcDbCircle
 10
1747.09004827054
 20
834.8721178010835
 30
0.0
 40
85.0
  0
LINE
  5
9CA
330
1F
100
AcDbEntity
  8
0
  6
Continuous
100
AcDbLine
 10
1705.090048270541
 20
800.0583274300252
 30
0.0
 11
1705.090048270541
 21
869.685908172142
 31
0.0
  0
LINE
  5
9CB
330
1F
100
AcDbEntity
  8
0
  6
Continuous
100
AcDbLine
 10
1684.954602217847
 20
1282.265960138614
 30
0.0
 11
1705.894206607891
 21
1282.265960138614
 31
0.0
  0
ARC
  5
9CC
330
1F
100
AcDbEntity
  8
0
  6
Continuous
100
AcDbCircle
 10
1684.954602217847
 20
1284.765960138614
 30
0.0
 40
2.5
100
AcDbArc
 50
270.0
 51
334.3637322635714
  0
LINE
  5
9CD
330
1F
100
AcDbEntity
  8
0
  6
Continuous
100
AcDbLine
 10
1684.954602217847
 20
1282.265960138614
 30
0.0
 11
1678.308886875838
 21
1283.678550541549
 31
0.0
  0
ARC
  5
9CE
330
1F
100
AcDbEntity
  8
0
  6
Continuous
100
AcDbCircle
 10
1677.477240112567
 20
1279.765960138614
 30
0.0
 40
4.0
100
AcDbArc
 50
78.00000000001036
 51
90.0
  0
ARC
  5
9CF
330
1F
100
AcDbEntity
  8
0
  6
Continuous
100
AcDbCircle
 10
1819.090048270541
 20
1280.765960138613
 30
0.0
 40
3.0
100
AcDbArc
 50
0.0
 51
90.0
  0
ARC
  5
9D0
330
1F
100
AcDbEntity
  8
0
  6
Continuous
100
AcDbCircle
 10
1816.702856428516
 20
1279.765960138613
 30
0.0
 40
4.0
100
AcDbArc
 50
90.0
 51
101.9999999999896
  0
LINE
  5
9D1
330
1F
100
AcDbEntity
  8
0
  6
Continuous
100
AcDbLine
 10
1809.225494323235
 20
1282.265960138613
 30
0.0
 11
1815.871209665244
 21
1283.678550541549
 31
0.0
  0
ARC
  5
9D2
330
1F
100
AcDbEntity
  8
0
  6
Continuous
100
AcDbCircle
 10
1809.225494323235
 20
1284.765960138614
 30
0.0
 40
2.5
100
AcDbArc
 50
183.9999999999965
 51
270.0
  0
LINE
  5
9D3
330
1F
100
AcDbEntity
  8
0
  6
Continuous
100
AcDbLine
 10
1819.090048270541
 20
1283.765960138613
 30
0.0
 11
1816.702856428516
 21
1283.765960138613
 31
0.0
  0
LINE
  5
9D4
330
1F
100
AcDbEntity
  8
0
  6
Continuous
100
AcDbLine
 10
1806.090048270542
 20
1296.291056243182
 30
0.0
 11
1806.731584197586
 21
1284.591568954253
 31
0.0
  0
LINE
  5
9D5
330
1F
100
AcDbEntity
  8
0
  6
Continuous
100
AcDbLine
 10
1822.090048270541
 20
1280.765960138614
 30
0.0
 11
1822.090048270541
 21
1280.765960138613
 31
0.0
  0
LINE
  5
9DC
102
{ACAD_REACTORS
330
1379
102
}
330
1F
100
AcDbEntity
  8
0
  6
Continuous
100
AcDbLine
 10
1777.09004827054
 20
785.5162670840711
 30
0.0
 11
1777.09004827054
 21
884.2279685180958
 31
0.0
  0
LINE
  5
9DD
102
{ACAD_REACTORS
330
1379
102
}
330
1F
100
AcDbEntity
  8
0
  6
Continuous
100
AcDbLine
 10
1765.09004827054
 20
782.2223314767309
 30
0.0
 11
1765.09004827054
 21
887.5219041254363
 31
0.0
  0
ARC
  5
9DE
330
1F
100
AcDbEntity
  8
0
  6
Continuous
100
AcDbCircle
 10
1665.130974092436
 20
1282.365960138614
 30
0.0
 40
1.6
100
AcDbArc
 50
185.0000000000008
 51
270.0
  0
LINE
  5
9E0
330
1F
100
AcDbEntity
  8
0
  6
Continuous
100
AcDbLine
 10
1750.590048270541
 20
1296.291056243182
 30
0.0
 11
1743.590048270541
 21
1296.291056243182
 31
0.0
  0
LINE
  5
9E2
330
1F
100
AcDbEntity
  8
0
  6
Continuous
100
AcDbLine
 10
1716.285889933191
 20
1282.265960138614
 30
0.0
 11
1729.894206607892
 21
1282.265960138614
 31
0.0
  0
LINE
  5
9E3
330
1F
100
AcDbEntity
  8
0
  6
Continuous
100
AcDbLine
 10
1716.180999715276
 20
1280.765960138614
 30
0.0
 11
1729.999096825807
 21
1280.765960138614
 31
0.0
  0
LINE
  5
9E4
330
1F
100
AcDbEntity
  8
0
  6
Continuous
100
AcDbLine
 10
1740.285889933191
 20
1282.265960138614
 30
0.0
 11
1747.090048270541
 21
1282.265960138614
 31
0.0
  0
LINE
  5
9E5
330
1F
100
AcDbEntity
  8
0
  6
Continuous
100
AcDbLine
 10
1740.180999715276
 20
1280.765960138614
 30
0.0
 11
1747.090048270541
 21
1280.765960138614
 31
0.0
  0
LINE
  5
9E6
330
1F
100
AcDbEntity
  8
0
  6
Continuous
100
AcDbLine
 10
1753.894206607891
 20
1282.265960138613
 30
0.0
 11
1747.090048270541
 21
1282.265960138614
 31
0.0
  0
LINE
  5
9E7
330
1F
100
AcDbEntity
  8
0
  6
Continuous
100
AcDbLine
 10
1753.999096825807
 20
1280.765960138614
 30
0.0
 11
1747.090048270541
 21
1280.765960138614
 31
0.0
  0
LINE
  5
9E8
330
1F
100
AcDbEntity
  8
0
  6
Continuous
100
AcDbLine
 10
1777.894206607891
 20
1282.265960138614
 30
0.0
 11
1764.285889933191
 21
1282.265960138614
 31
0.0
  0
LINE
  5
9E9
330
1F
100
AcDbEntity
  8
0
  6
Continuous
100
AcDbLine
 10
1777.999096825807
 20
1280.765960138614
 30
0.0
 11
1764.180999715276
 21
1280.765960138614
 31
0.0
  0
LINE
  5
9EA
330
1F
100
AcDbEntity
  8
0
  6
Continuous
100
AcDbLine
 10
1830.643033965593
 20
1282.226510950217
 30
0.0
 11
1832.090048270541
 21
1298.765960138614
 31
0.0
  0
ARC
  5
9EB
330
1F
100
AcDbEntity
  8
0
  6
Continuous
100
AcDbCircle
 10
1747.090048270541
 20
2027.915960138614
 30
0.0
 40
734.0
100
AcDbArc
 50
270.468014341894
 51
271.4052144819502
  0
LINE
  5
9EC
330
1F
100
AcDbEntity
  8
0
  6
Continuous
100
AcDbLine
 10
1688.090048270542
 20
1296.291056243182
 30
0.0
 11
1687.208499315803
 21
1283.6843188525
 31
0.0
  0
ARC
  5
9F9
330
1F
100
AcDbEntity
  8
0
  6
Continuous
100
AcDbCircle
 10
1747.090048270541
 20
2027.915960138614
 30
0.0
 40
734.0
100
AcDbArc
 50
272.333233841846
 51
273.3112635408236
  0
HATCH
  5
A13
330
1F
100
AcDbEntity
  8
8
100
AcDbHatch
 10
0.0
 20
0.0
 30
0.0
210
0.0
220
0.0
230
1.0
  2
ANSI31
 70
     0
 71
     0
 91
        1
 92
        7
 72
     1
 73
     1
 93
       10
 10
1688.090048270542
 20
1296.291056243182
 42
-0.0056330863224587
 10
1662.090048270541
 20
1298.765960138614
 42
0.0
 10
1663.537062575489
 20
1282.226510950217
 42
0.3888787318529982
 10
1665.130974092436
 20
1280.765960138614
 42
0.0
 10
1672.090048270541
 20
1280.765960138614
 42
-0.4142135623730758
 10
1675.090048270541
 20
1283.765960138613
 42
0.0
 10
1677.477240112567
 20
1283.765960138613
 42
-0.0524077792830406
 10
1678.308886875838
 20
1283.678550541549
 42
0.0
 10
1684.954602217847
 20
1282.265960138614
 42
0.288463745066409
 10
1687.208499315803
 20
1283.6843188525
 42
0.0
 97
        0
 75
     0
 76
     1
 52
0.0
 41
1.0
 77
     0
 78
     1
 53
45.0
 43
2144.860048270542
 44
968.8159601386137
 45
-2.245064030267287
 46
2.245064030267288
 79
     0
 47
0.1270245893208072
 98
        1
 10
1673.700048270541
 20
1288.885960138614
  0
HATCH
  5
A15
330
1F
100
AcDbEntity
  8
8
100
AcDbHatch
 10
0.0
 20
0.0
 30
0.0
210
0.0
220
0.0
230
1.0
  2
ANSI31
 70
     0
 71
     0
 91
        1
 92
        7
 72
     1
 73
     1
 93
        6
 10
1741.090048270541
 20
1293.765960138614
 42
0.0
 10
1729.090048270541
 20
1293.765960138614
 42
0.0
 10
1730.320328049968
 20
1276.172139610645
 42
0.377663541552172
 10
1732.672893521213
 20
1273.850529655448
 42
0.0044967797196382
 10
1737.254326534787
 20
1273.632405558513
 42
0.4050951851535105
 10
1739.844665304904
 20
1275.956153985248
 42
0.0
 97
        0
 75
     0
 76
     1
 52
0.0
 41
1.0
 77
     0
 78
     1
 53
45.0
 43
2144.860048270542
 44
968.8159601386137
 45
-2.245064030267287
 46
2.245064030267288
 79
     0
 47
0.1003621636502892
 98
        1
 10
1734.020048270541
 20
1285.485960138614
  0
HATCH
  5
A16
330
1F
100
AcDbEntity
  8
8
100
AcDbHatch
 10
0.0
 20
0.0
 30
0.0
210
0.0
220
0.0
230
1.0
  2
ANSI31
 70
     0
 71
     0
 91
        1
 92
        7
 72
     1
 73
     1
 93
        6
 10
1765.090048270542
 20
1293.765960138614
 42
0.0
 10
1753.090048270541
 20
1293.765960138614
 42
0.0
 10
1754.335431236178
 20
1275.956153985248
 42
0.4050951851535098
 10
1756.925770006296
 20
1273.632405558513
 42
0.0044967797196383
 10
1761.50720301987
 20
1273.850529655448
 42
0.3776635415521656
 10
1763.859768491114
 20
1276.172139610645
 42
0.0
 97
        0
 75
     0
 76
     1
 52
0.0
 41
1.0
 77
     0
 78
     1
 53
45.0
 43
2144.860048270542
 44
968.8159601386137
 45
-2.245064030267287
 46
2.245064030267288
 79
     0
 47
0.1605158917330981
 98
        1
 10
1759.930048270541
 20
1283.685960138614
  0
HATCH
  5
A17
330
1F
100
AcDbEntity
  8
8
100
AcDbHatch
 10
0.0
 20
0.0
 30
0.0
210
0.0
220
0.0
230
1.0
  2
ANSI31
 70
     0
 71
     0
 91
        1
 92
        7
 72
     1
 73
     1
 93
        8
 10
1789.090158860251
 20
1293.767541645151
 42
-0.1460249071894027
 10
1789.486098006125
 20
1295.141387048896
 42
-0.0042674855126889
 10
1776.97218535774
 20
1294.524483583901
 42
-0.0570462252883336
 10
1777.076098760403
 20
1293.965447427542
 42
0.0
 10
1778.191589023812
 20
1278.013193457924
 42
0.4329767055222154
 10
1781.018127375985
 20
1275.70981175864
 42
0.0048598020208911
 10
1785.924295330068
 20
1276.417049461433
 42
0.3503923092622442
 10
1788.03747754337
 20
1278.713497457748
 42
0.0
 97
        0
 75
     0
 76
     1
 52
0.0
 41
1.0
 77
     0
 78
     1
 53
45.0
 43
2144.860048270542
 44
968.8159601386137
 45
-2.245064030267287
 46
2.245064030267288
 79
     0
 47
0.089174198741912
 98
        1
 10
1782.140048270541
 20
1287.135960138614
  0
ARC
  5
A18
330
1F
100
AcDbEntity
  8
0
  6
Continuous
100
AcDbCircle
 10
1829.049122448647
 20
1282.365960138614
 30
0.0
 40
1.6
100
AcDbArc
 50
270.0
 51
354.9999999999991
  0
HATCH
  5
A19
330
1F
100
AcDbEntity
  8
8
100
AcDbHatch
 10
0.0
 20
0.0
 30
0.0
210
0.0
220
0.0
230
1.0
  2
ANSI31
 70
     0
 71
     0
 91
        1
 92
        7
 72
     1
 73
     1
 93
       11
 10
1832.090048270541
 20
1298.765960138614
 42
-0.0055373947313423
 10
1806.090048270542
 20
1296.291056243181
 42
0.0
 10
1806.090048270542
 20
1293.765960138613
 42
0.0
 10
1806.731584197586
 20
1284.591568954253
 42
0.3939104756149497
 10
1809.225494323236
 20
1282.265960138613
 42
0.0
 10
1815.871209665244
 20
1283.678550541549
 42
-0.0524077792830405
 10
1816.702856428516
 20
1283.765960138613
 42
0.0
 10
1819.090048270541
 20
1283.765960138613
 42
-0.4142135623730702
 10
1822.090048270541
 20
1280.765960138614
 42
0.0
 10
1829.049122448647
 20
1280.765960138614
 42
0.3888787318529793
 10
1830.643033965593
 20
1282.226510950217
 42
0.0
 97
        0
 75
     0
 76
     1
 52
0.0
 41
1.0
 77
     0
 78
     1
 53
45.0
 43
2144.860048270542
 44
968.8159601386137
 45
-2.245064030267287
 46
2.245064030267288
 79
     0
 47
0.1123730487481853
 98
        1
 10
1820.500048270541
 20
1289.485960138614
  0
ARC
  5
A2C
330
1F
100
AcDbEntity
  8
0
  6
Continuous
100
AcDbCircle
 10
1702.59004827054
 20
869.685908172142
 30
0.0
 40
2.5
100
AcDbArc
 50
0.0
 51
141.96277748065
  0
ARC
  5
A2D
330
1F
100
AcDbEntity
  8
0
  6
Continuous
100
AcDbCircle
 10
1719.590048270541
 20
884.2279685180958
 30
0.0
 40
2.5
100
AcDbArc
 50
119.125595190632
 51
180.0
  0
ARC
  5
A2F
330
1F
100
AcDbEntity
  8
0
  6
Continuous
100
AcDbCircle
 10
1726.590048270541
 20
887.5219041254363
 30
0.0
 40
2.5
100
AcDbArc
 50
0.0
 51
111.2742123339887
  0
ARC
  5
A32
330
1F
100
AcDbEntity
  8
0
  6
Continuous
100
AcDbCircle
 10
1743.59004827054
 20
891.2636065205704
 30
0.0
 40
2.5
100
AcDbArc
 50
93.55157002750994
 51
180.0
  0
ARC
  5
A33
330
1F
100
AcDbEntity
  8
0
  6
Continuous
100
AcDbCircle
 10
1750.590048270541
 20
891.2636065205704
 30
0.0
 40
2.5
100
AcDbArc
 50
0.0
 51
86.44842997249005
  0
ARC
  5
A36
330
1F
100
AcDbEntity
  8
0
  6
Continuous
100
AcDbCircle
 10
1747.09004827054
 20
834.8721178010835
 30
0.0
 40
58.99999999999995
100
AcDbArc
 50
111.2742123339887
 51
119.125595190632
  0
ARC
  5
A38
330
1F
100
AcDbEntity
  8
0
  6
Continuous
100
AcDbCircle
 10
1747.09004827054
 20
834.8721178010835
 30
0.0
 40
58.99999999999995
100
AcDbArc
 50
86.44842997249005
 51
93.55157002750994
  0
ARC
  5
A39
330
1F
100
AcDbEntity
  8
0
  6
Continuous
100
AcDbCircle
 10
1702.59004827054
 20
800.0583274300252
 30
0.0
 40
2.5
100
AcDbArc
 50
218.03722251935
 51
0.0
  0
ARC
  5
A3A
330
1F
100
AcDbEntity
  8
0
  6
Continuous
100
AcDbCircle
 10
1747.09004827054
 20
834.8721178010835
 30
0.0
 40
58.99999999999995
100
AcDbArc
 50
240.874404809368
 51
248.7257876660112
  0
ARC
  5
A3D
330
1F
100
AcDbEntity
  8
0
  6
Continuous
100
AcDbCircle
 10
1726.590048270541
 20
782.2223314767309
 30
0.0
 40
2.5
100
AcDbArc
 50
248.7257876660112
 51
0.0
  0
ARC
  5
A3F
330
1F
100
AcDbEntity
  8
0
  6
Continuous
100
AcDbCircle
 10
1719.590048270541
 20
785.5162670840713
 30
0.0
 40
2.5
100
AcDbArc
 50
180.0
 51
240.874404809368
  0
ARC
  5
A40
330
1F
100
AcDbEntity
  8
0
  6
Continuous
100
AcDbCircle
 10
1747.09004827054
 20
834.8721178010835
 30
0.0
 40
58.99999999999995
100
AcDbArc
 50
266.44842997249
 51
273.55157002751
  0
ARC
  5
A43
330
1F
100
AcDbEntity
  8
0
  6
Continuous
100
AcDbCircle
 10
1750.590048270541
 20
778.4806290815968
 30
0.0
 40
2.5
100
AcDbArc
 50
273.55157002751
 51
0.0
  0
ARC
  5
A44
330
1F
100
AcDbEntity
  8
0
  6
Continuous
100
AcDbCircle
 10
1743.59004827054
 20
778.4806290815968
 30
0.0
 40
2.5
100
AcDbArc
 50
180.0
 51
266.44842997249
  0
ARC
  5
A46
330
1F
100
AcDbEntity
  8
0
  6
Continuous
100
AcDbCircle
 10
1747.09004827054
 20
834.8721178010835
 30
0.0
 40
58.99999999999995
100
AcDbArc
 50
141.96277748065
 51
218.03722251935
  0
ARC
  5
A4C
330
1F
100
AcDbEntity
  8
0
  6
Continuous
100
AcDbCircle
 10
1747.090048270541
 20
834.8721178010835
 30
0.0
 40
58.99999999999995
100
AcDbArc
 50
321.9627774806501
 51
38.03722251934994
  0
ARC
  5
A4D
330
1F
100
AcDbEntity
  8
0
  6
Continuous
100
AcDbCircle
 10
1791.590048270541
 20
869.685908172142
 30
0.0
 40
2.5
100
AcDbArc
 50
38.03722251934994
 51
180.0
  0
LINE
  5
A4F
330
1F
100
AcDbEntity
  8
0
  6
Continuous
100
AcDbLine
 10
1789.09004827054
 20
800.0583274300252
 30
0.0
 11
1789.09004827054
 21
869.685908172142
 31
0.0
  0
ARC
  5
A51
330
1F
100
AcDbEntity
  8
0
  6
Continuous
100
AcDbCircle
 10
1791.590048270541
 20
800.0583274300252
 30
0.0
 40
2.5
100
AcDbArc
 50
180.0
 51
321.9627774806501
  0
ARC
  5
A52
330
1F
100
AcDbEntity
  8
0
  6
Continuous
100
AcDbCircle
 10
1747.090048270541
 20
834.8721178010835
 30
0.0
 40
58.99999999999995
100
AcDbArc
 50
60.87440480936794
 51
68.72578766601126
  0
ARC
  5
A55
330
1F
100
AcDbEntity
  8
0
  6
Continuous
100
AcDbCircle
 10
1767.59004827054
 20
887.5219041254363
 30
0.0
 40
2.5
100
AcDbArc
 50
68.72578766601126
 51
180.0
  0
ARC
  5
A57
330
1F
100
AcDbEntity
  8
0
  6
Continuous
100
AcDbCircle
 10
1774.59004827054
 20
884.2279685180958
 30
0.0
 40
2.5
100
AcDbArc
 50
0.0
 51
60.87440480936794
  0
ARC
  5
A58
330
1F
100
AcDbEntity
  8
0
  6
Continuous
100
AcDbCircle
 10
1774.59004827054
 20
785.5162670840711
 30
0.0
 40
2.5
100
AcDbArc
 50
299.1255951906266
 51
0.0
  0
ARC
  5
A5A
330
1F
100
AcDbEntity
  8
0
  6
Continuous
100
AcDbCircle
 10
1767.59004827054
 20
782.2223314767309
 30
0.0
 40
2.5
100
AcDbArc
 50
180.0
 51
291.2742123339887
  0
ARC
  5
A5D
330
1F
100
AcDbEntity
  8
0
  6
Continuous
100
AcDbCircle
 10
1747.090048270541
 20
834.8721178010835
 30
0.0
 40
58.99999999999995
100
AcDbArc
 50
291.2742123339887
 51
299.1255951906266
  0
LINE
  5
A64
330
1F
100
AcDbEntity
  8
7A
  6
CENTER
100
AcDbLine
 10
1747.090048270541
 20
1301.291056243182
 30
0.0
 11
1747.090048270541
 21
1272.041056243182
 31
0.0
  0
DIMENSION
  5
BA9
102
{ACAD_XDICTIONARY
360
BB6
102
}
102
{ACAD_REACTORS
330
BB7
102
}
330
1F
100
AcDbEntity
  8
AM_5
100
AcDbDimension
  2
*D3
 10
1627.067161091954
 20
1086.203403456243
 30
0.0
 11
1623.06666896597
 21
1192.703403456244
 31
0.0
 70
    32
 71
     5
 42
213.0
  3
AM_ISO$0
100
AcDbAlignedDimension
 13
1654.590048270541
 23
1299.203403456243
 33
0.0
 14
1714.38311530102
 24
1086.203403456243
 34
0.0
 50
90.0
100
AcDbRotatedDimension
1001
ACAD
1000
DSTYLE
1002
{
1070
   140
1040
5.0
1002
}
  0
DIMENSION
  5
BD3
102
{ACAD_XDICTIONARY
360
BE0
102
}
102
{ACAD_REACTORS
330
BE1
102
}
330
1F
100
AcDbEntity
  8
AM_5
100
AcDbDimension
  2
*D4
 10
1997.081898222295
 20
1129.203403456243
 30
0.0
 11
1993.081898222295
 21
1214.203403456244
 31
0.0
 70
    32
 71
     5
 42
170.0
  3
AM_ISO$0
100
AcDbAlignedDimension
 13
1839.590048270541
 23
1299.203403456243
 33
0.0
 14
1972.090048270541
 24
1129.203403456243
 34
0.0
 50
90.0
100
AcDbRotatedDimension
1001
ACAD
1000
DSTYLE
1002
{
1070
   140
1040
5.0
1002
}
  0
DIMENSION
  5
BFD
102
{ACAD_XDICTIONARY
360
C0A
102
}
102
{ACAD_REACTORS
330
C0B
102
}
330
1F
100
AcDbEntity
  8
AM_5
100
AcDbDimension
  2
*D5
 10
1972.090048270541
 20
1025.983126894146
 30
0.0
 11
1859.590048270541
 21
1029.98361902013
 31
0.0
 70
    32
 71
     5
 42
225.0000000000002
  3
AM_ISO$0
100
AcDbAlignedDimension
 13
1747.090048270541
 23
1085.919674765042
 33
0.0
 14
1972.090048270541
 24
1129.203403456243
 34
0.0
 50
0.0000000000001132
100
AcDbRotatedDimension
1001
ACAD
1000
DSTYLE
1002
{
1070
   140
1040
5.0
1002
}
  0
LINE
  5
E5D
330
1F
100
AcDbEntity
  8
0
100
AcDbLine
 10
1706.191682877688
 20
1097.280689194751
 30
0.0
 11
1787.191682877688
 21
1097.280689194751
 31
0.0
  0
LINE
  5
E60
330
1F
100
AcDbEntity
  8
0
100
AcDbLine
 10
1706.191682877688
 20
1099.280689194751
 30
0.0
 11
1788.191682877688
 21
1099.280689194751
 31
0.0
  0
ARC
  5
E61
330
1F
100
AcDbEntity
  8
0
100
AcDbCircle
 10
1706.191682877688
 20
1105.280689194751
 30
0.0
 40
6.0
100
AcDbArc
 50
180.0
 51
270.0
  0
ARC
  5
E62
330
1F
100
AcDbEntity
  8
0
100
AcDbCircle
 10
1706.191682877688
 20
1105.280689194751
 30
0.0
 40
8.0
100
AcDbArc
 50
180.0
 51
270.0
  0
LINE
  5
E64
330
1F
100
AcDbEntity
  8
0
100
AcDbLine
 10
1789.191682877688
 20
1097.343435261557
 30
0.0
 11
1789.191682877688
 21
1092.280689194751
 31
0.0
  0
LINE
  5
E65
330
1F
100
AcDbEntity
  8
0
100
AcDbLine
 10
1787.191682877688
 20
1097.280689194751
 30
0.0
 11
1787.191682877688
 21
1092.280689194751
 31
0.0
  0
LINE
  5
E67
330
1F
100
AcDbEntity
  8
0
100
AcDbLine
 10
1781.941682877688
 20
1092.280689194751
 30
0.0
 11
1789.191682877688
 21
1092.280689194751
 31
0.0
  0
LINE
  5
E68
330
1F
100
AcDbEntity
  8
0
100
AcDbLine
 10
1781.941682877688
 20
1097.280689194751
 30
0.0
 11
1781.941682877688
 21
1092.280689194751
 31
0.0
  0
ARC
  5
E69
330
1F
100
AcDbEntity
  8
0
100
AcDbCircle
 10
1788.191682877688
 20
1105.280689194751
 30
0.0
 40
6.0
100
AcDbArc
 50
270.0
 51
0.0
  0
ARC
  5
E6A
330
1F
100
AcDbEntity
  8
0
100
AcDbCircle
 10
1788.191682877688
 20
1105.280689194751
 30
0.0
 40
8.0
100
AcDbArc
 50
277.1807557814583
 51
0.0
  0
LINE
  5
E6B
330
1F
100
AcDbEntity
  8
0
100
AcDbLine
 10
1707.191682877688
 20
1097.280689194751
 30
0.0
 11
1707.191682877688
 21
1092.280689194751
 31
0.0
  0
LINE
  5
E6C
330
1F
100
AcDbEntity
  8
0
100
AcDbLine
 10
1705.191682877688
 20
1097.280689194751
 30
0.0
 11
1705.191682877688
 21
1092.280689194751
 31
0.0
  0
LINE
  5
E73
330
1F
100
AcDbEntity
  8
0
100
AcDbLine
 10
1698.191682877688
 20
1159.530689194751
 30
0.0
 11
1702.691682877688
 21
1159.530689194751
 31
0.0
  0
LINE
  5
E74
330
1F
100
AcDbEntity
  8
0
100
AcDbLine
 10
1754.691682877688
 20
1152.030689194751
 30
0.0
 11
1754.691682877688
 21
1159.530689194751
 31
0.0
  0
LINE
  5
E75
330
1F
100
AcDbEntity
  8
0
100
AcDbLine
 10
1741.691682877688
 20
1161.530689194751
 30
0.0
 11
1752.691682877688
 21
1161.530689194751
 31
0.0
  0
ARC
  5
E76
330
1F
100
AcDbEntity
  8
0
100
AcDbCircle
 10
1752.691682877688
 20
1159.530689194751
 30
0.0
 40
2.0
100
AcDbArc
 50
0.0
 51
90.0
  0
ARC
  5
E77
330
1F
100
AcDbEntity
  8
0
100
AcDbCircle
 10
1741.691682877688
 20
1159.530689194751
 30
0.0
 40
2.0
100
AcDbArc
 50
90.0
 51
180.0
  0
LINE
  5
E78
330
1F
100
AcDbEntity
  8
0
100
AcDbLine
 10
1794.191682877688
 20
1105.280689194751
 30
0.0
 11
1794.191682877688
 21
1144.530689194751
 31
0.0
  0
LINE
  5
E79
330
1F
100
AcDbEntity
  8
0
100
AcDbLine
 10
1796.191682877688
 20
1105.280689194751
 30
0.0
 11
1796.191682877688
 21
1144.530689194751
 31
0.0
  0
LINE
  5
E7A
330
1F
100
AcDbEntity
  8
0
100
AcDbLine
 10
1769.691682877688
 20
1152.030689194751
 30
0.0
 11
1769.691682877688
 21
1159.530689194751
 31
0.0
  0
ARC
  5
E7B
330
1F
100
AcDbEntity
  8
0
100
AcDbCircle
 10
1762.191682877688
 20
1152.030689194751
 30
0.0
 40
7.5
100
AcDbArc
 50
180.0
 51
0.0
  0
LINE
  5
E7C
330
1F
100
AcDbEntity
  8
0
100
AcDbLine
 10
1741.691682877688
 20
1159.530689194751
 30
0.0
 11
1752.691682877688
 21
1159.530689194751
 31
0.0
  0
ARC
  5
E7D
330
1F
100
AcDbEntity
  8
0
100
AcDbCircle
 10
1752.691682877688
 20
1157.530689194751
 30
0.0
 40
2.0
100
AcDbArc
 50
0.0
 51
90.0
  0
ARC
  5
E7E
330
1F
100
AcDbEntity
  8
0
100
AcDbCircle
 10
1741.691682877688
 20
1157.530689194751
 30
0.0
 40
2.0
100
AcDbArc
 50
90.0
 51
180.0
  0
ARC
  5
E7F
330
1F
100
AcDbEntity
  8
0
100
AcDbCircle
 10
1771.691682877688
 20
1157.530689194751
 30
0.0
 40
2.0
100
AcDbArc
 50
90.0
 51
180.0
  0
LINE
  5
E80
330
1F
100
AcDbEntity
  8
0
100
AcDbLine
 10
1771.691682877688
 20
1159.530689194751
 30
0.0
 11
1777.691682877688
 21
1159.530689194751
 31
0.0
  0
ARC
  5
E81
330
1F
100
AcDbEntity
  8
0
100
AcDbCircle
 10
1771.691682877688
 20
1159.530689194751
 30
0.0
 40
2.0
100
AcDbArc
 50
90.0
 51
180.0
  0
LINE
  5
E82
330
1F
100
AcDbEntity
  8
0
100
AcDbLine
 10
1771.691682877688
 20
1161.530689194751
 30
0.0
 11
1777.691682877688
 21
1161.530689194751
 31
0.0
  0
LINE
  5
E83
330
1F
100
AcDbEntity
  8
0
100
AcDbLine
 10
1779.691682877688
 20
1149.530689194751
 30
0.0
 11
1779.691682877688
 21
1159.530689194751
 31
0.0
  0
ARC
  5
E84
330
1F
100
AcDbEntity
  8
0
100
AcDbCircle
 10
1777.691682877688
 20
1157.530689194751
 30
0.0
 40
2.0
100
AcDbArc
 50
0.0
 51
90.0
  0
ARC
  5
E85
330
1F
100
AcDbEntity
  8
0
100
AcDbCircle
 10
1777.691682877688
 20
1159.530689194751
 30
0.0
 40
2.0
100
AcDbArc
 50
0.0
 51
90.0
  0
LINE
  5
E86
330
1F
100
AcDbEntity
  8
0
100
AcDbLine
 10
1789.691682877688
 20
1149.530689194751
 30
0.0
 11
1789.691682877688
 21
1159.530689194751
 31
0.0
  0
ARC
  5
E87
330
1F
100
AcDbEntity
  8
0
100
AcDbCircle
 10
1784.691682877688
 20
1149.530689194751
 30
0.0
 40
5.0
100
AcDbArc
 50
180.0
 51
0.0
  0
ARC
  5
E88
330
1F
100
AcDbEntity
  8
0
100
AcDbCircle
 10
1791.691682877688
 20
1159.530689194751
 30
0.0
 40
2.0
100
AcDbArc
 50
90.0
 51
180.0
  0
ARC
  5
E89
330
1F
100
AcDbEntity
  8
0
100
AcDbCircle
 10
1791.691682877688
 20
1157.530689194751
 30
0.0
 40
2.0
100
AcDbArc
 50
90.0
 51
180.0
  0
LINE
  5
E8A
330
1F
100
AcDbEntity
  8
0
100
AcDbLine
 10
1796.191682877688
 20
1161.530689194751
 30
0.0
 11
1791.691682877688
 21
1161.530689194751
 31
0.0
  0
LINE
  5
E8B
330
1F
100
AcDbEntity
  8
0
100
AcDbLine
 10
1794.191682877688
 20
1159.530689194751
 30
0.0
 11
1791.691682877688
 21
1159.530689194751
 31
0.0
  0
LINE
  5
E8E
330
1F
100
AcDbEntity
  8
0
100
AcDbLine
 10
1684.710357614788
 20
1247.280689194751
 30
0.0
 11
1809.673008140589
 21
1247.280689194751
 31
0.0
  0
LINE
  5
E90
330
1F
100
AcDbEntity
  8
0
100
AcDbLine
 10
1796.191682877688
 20
1161.530689194751
 30
0.0
 11
1798.717145908026
 21
1233.850488188156
 31
0.0
  0
LINE
  5
E91
330
1F
100
AcDbEntity
  8
0
100
AcDbLine
 10
1798.190464531726
 20
1161.460890201346
 30
0.0
 11
1801.012754102745
 21
1242.280689194751
 31
0.0
  0
LINE
  5
E92
330
1F
100
AcDbEntity
  8
0
100
AcDbLine
 10
1798.190464531726
 20
1161.460890201346
 30
0.0
 11
1796.191682877688
 21
1159.462108547308
 31
0.0
  0
LINE
  5
E93
330
1F
100
AcDbEntity
  8
0
100
AcDbLine
 10
1800.715927562065
 20
1235.780689194751
 30
0.0
 11
1802.786988189646
 21
1235.780689194751
 31
0.0
  0
LINE
  5
E94
330
1F
100
AcDbEntity
  8
0
100
AcDbLine
 10
1798.540104626009
 20
1228.780689194751
 30
0.0
 11
1802.542542803204
 21
1228.780689194751
 31
0.0
  0
LINE
  5
E95
330
1F
100
AcDbEntity
  8
0
100
AcDbLine
 10
1801.768126964988
 20
1206.604321105308
 30
0.0
 11
1802.972845542956
 21
1241.102947438635
 31
0.0
  0
LINE
  5
E98
330
1F
100
AcDbEntity
  8
0
100
AcDbLine
 10
1756.691682877688
 20
1206.530689194752
 30
0.0
 11
1767.691682877688
 21
1206.530689194751
 31
0.0
  0
ARC
  5
E99
330
1F
100
AcDbEntity
  8
0
100
AcDbCircle
 10
1756.691682877688
 20
1204.530689194751
 30
0.0
 40
2.0
100
AcDbArc
 50
90.0
 51
180.0
  0
LINE
  5
E9A
330
1F
100
AcDbEntity
  8
0
100
AcDbLine
 10
1756.691682877688
 20
1204.530689194752
 30
0.0
 11
1762.691682877688
 21
1204.530689194751
 31
0.0
  0
ARC
  5
E9B
330
1F
100
AcDbEntity
  8
0
100
AcDbCircle
 10
1756.691682877688
 20
1202.530689194752
 30
0.0
 40
2.0
100
AcDbArc
 50
90.0
 51
180.0
  0
ARC
  5
E9C
330
1F
100
AcDbEntity
  8
0
100
AcDbCircle
 10
1747.191682877688
 20
1197.030689194751
 30
0.0
 40
7.5
100
AcDbArc
 50
180.0
 51
0.0
  0
LINE
  5
E9D
330
1F
100
AcDbEntity
  8
0
100
AcDbLine
 10
1754.691682877688
 20
1197.030689194751
 30
0.0
 11
1754.691682877688
 21
1204.530689194751
 31
0.0
  0
LINE
  5
E9E
330
1F
100
AcDbEntity
  8
0
100
AcDbLine
 10
1739.691682877688
 20
1197.030689194751
 30
0.0
 11
1739.691682877688
 21
1204.530689194751
 31
0.0
  0
LINE
  5
E9F
330
1F
100
AcDbEntity
  8
0
100
AcDbLine
 10
1756.691682877688
 20
1204.530689194752
 30
0.0
 11
1767.691682877688
 21
1204.530689194752
 31
0.0
  0
LINE
  5
EA0
330
1F
100
AcDbEntity
  8
0
100
AcDbLine
 10
1769.691682877688
 20
1195.780689194751
 30
0.0
 11
1769.691682877688
 21
1204.530689194751
 31
0.0
  0
ARC
  5
EA1
330
1F
100
AcDbEntity
  8
0
100
AcDbCircle
 10
1767.691682877688
 20
1202.530689194752
 30
0.0
 40
2.0
100
AcDbArc
 50
0.0
 51
90.0
  0
ARC
  5
EA2
330
1F
100
AcDbEntity
  8
0
100
AcDbCircle
 10
1767.691682877688
 20
1204.530689194751
 30
0.0
 40
2.0
100
AcDbArc
 50
0.0
 51
90.0
  0
LINE
  5
EA3
330
1F
100
AcDbEntity
  8
0
100
AcDbLine
 10
1782.191682877688
 20
1195.780689194751
 30
0.0
 11
1782.191682877688
 21
1204.530689194751
 31
0.0
  0
ARC
  5
EA4
330
1F
100
AcDbEntity
  8
0
100
AcDbCircle
 10
1775.941682877688
 20
1195.780689194751
 30
0.0
 40
6.250000000000014
100
AcDbArc
 50
180.0
 51
0.0
  0
LINE
  5
EA5
330
1F
100
AcDbEntity
  8
0
100
AcDbLine
 10
1784.191682877688
 20
1204.530689194752
 30
0.0
 11
1787.691682877688
 21
1204.530689194752
 31
0.0
  0
LINE
  5
EA6
330
1F
100
AcDbEntity
  8
0
100
AcDbLine
 10
1784.191682877688
 20
1206.530689194751
 30
0.0
 11
1787.691682877688
 21
1206.530689194751
 31
0.0
  0
ARC
  5
EA7
330
1F
100
AcDbEntity
  8
0
100
AcDbCircle
 10
1784.191682877688
 20
1202.530689194752
 30
0.0
 40
2.0
100
AcDbArc
 50
90.0
 51
180.0
  0
ARC
  5
EA8
330
1F
100
AcDbEntity
  8
0
100
AcDbCircle
 10
1784.191682877688
 20
1204.530689194751
 30
0.0
 40
2.0
100
AcDbArc
 50
90.0
 51
180.0
  0
LINE
  5
EA9
330
1F
100
AcDbEntity
  8
0
100
AcDbLine
 10
1789.691682877688
 20
1191.780689194751
 30
0.0
 11
1789.691682877688
 21
1204.530689194751
 31
0.0
  0
ARC
  5
EAA
330
1F
100
AcDbEntity
  8
0
100
AcDbCircle
 10
1787.691682877688
 20
1202.530689194752
 30
0.0
 40
2.0
100
AcDbArc
 50
0.0
 51
90.0
  0
ARC
  5
EAB
330
1F
100
AcDbEntity
  8
0
100
AcDbCircle
 10
1787.691682877688
 20
1204.530689194751
 30
0.0
 40
2.0
100
AcDbArc
 50
0.0
 51
90.0
  0
LINE
  5
EAC
330
1F
100
AcDbEntity
  8
0
100
AcDbLine
 10
1794.191682877689
 20
1191.780689194751
 30
0.0
 11
1794.191682877688
 21
1204.530689194751
 31
0.0
  0
ARC
  5
EAD
330
1F
100
AcDbEntity
  8
0
100
AcDbCircle
 10
1791.941682877688
 20
1191.780689194751
 30
0.0
 40
2.25000000000021
100
AcDbArc
 50
180.0
 51
0.0
  0
LINE
  5
EAE
330
1F
100
AcDbEntity
  8
0
100
AcDbLine
 10
1796.191682877688
 20
1204.530689194751
 30
0.0
 11
1797.693275965834
 21
1204.530689194752
 31
0.0
  0
LINE
  5
EAF
330
1F
100
AcDbEntity
  8
0
100
AcDbLine
 10
1796.191682877688
 20
1206.530689194751
 30
0.0
 11
1797.763117504817
 21
1206.530689194751
 31
0.0
  0
ARC
  5
EB0
330
1F
100
AcDbEntity
  8
0
100
AcDbCircle
 10
1796.191682877688
 20
1202.530689194751
 30
0.0
 40
2.0
100
AcDbArc
 50
90.0
 51
180.0
  0
ARC
  5
EB1
330
1F
100
AcDbEntity
  8
0
100
AcDbCircle
 10
1796.191682877688
 20
1204.530689194751
 30
0.0
 40
2.0
100
AcDbArc
 50
90.0
 51
180.0
  0
LINE
  5
EB2
330
1F
100
AcDbEntity
  8
0
100
AcDbLine
 10
1801.768126964988
 20
1206.604321105308
 30
0.0
 11
1799.694495054431
 21
1204.530689194751
 31
0.0
  0
ARC
  5
EB3
330
1F
100
AcDbEntity
  8
0
100
AcDbCircle
 10
1800.715927562065
 20
1233.780689194751
 30
0.0
 40
2.0
100
AcDbArc
 50
90.0
 51
177.9999999999967
  0
LINE
  5
EB4
330
1F
100
AcDbEntity
  8
0
100
AcDbLine
 10
1693.370611652632
 20
1242.280689194751
 30
0.0
 11
1801.012754102745
 21
1242.280689194751
 31
0.0
  0
LINE
  5
EB5
330
1F
100
AcDbEntity
  8
0
100
AcDbLine
 10
1801.012754102745
 20
1242.280689194751
 30
0.0
 11
1809.673008140589
 21
1247.280689194751
 31
0.0
  0
LINE
  5
EB6
330
1F
100
AcDbEntity
  8
0
100
AcDbLine
 10
1802.972845542956
 20
1241.102947438635
 30
0.0
 11
1811.480676696472
 21
1246.014946045338
 31
0.0
  0
LINE
  5
EB7
330
1F
100
AcDbEntity
  8
0
100
AcDbLine
 10
1809.673008140589
 20
1247.280689194751
 30
0.0
 11
1811.480676696472
 21
1246.014946045338
 31
0.0
  0
LINE
  5
EC9
330
1F
100
AcDbEntity
  8
0
100
AcDbLine
 10
1794.191682877688
 20
1144.530689194751
 30
0.0
 11
1796.191682877688
 21
1144.530689194751
 31
0.0
  0
LINE
  5
ECA
330
1F
100
AcDbEntity
  8
0
100
AcDbLine
 10
1796.191682877688
 20
1144.530689194751
 30
0.0
 11
1796.191682877688
 21
1161.530689194751
 31
0.0
  0
LINE
  5
ECB
330
1F
100
AcDbEntity
  8
0
100
AcDbLine
 10
1794.191682877688
 20
1144.530689194751
 30
0.0
 11
1794.191682877688
 21
1159.530689194751
 31
0.0
  0
HATCH
  5
ECC
330
1F
100
AcDbEntity
  8
8
100
AcDbHatch
 10
0.0
 20
0.0
 30
0.0
210
0.0
220
0.0
230
1.0
  2
ANSI31
 70
     0
 71
     0
 91
        1
 92
        7
 72
     1
 73
     1
 93
       11
 10
1787.191682877688
 20
1097.280689194751
 42
0.0
 10
1787.191682877688
 20
1092.280689194751
 42
0.0
 10
1789.191682877688
 20
1092.280689194751
 42
0.0
 10
1789.191682877688
 20
1097.343435261557
 42
0.3779644730092272
 10
1796.191682877688
 20
1105.280689194751
 42
0.0
 10
1796.191682877688
 20
1144.530689194751
 42
0.0
 10
1794.191682877688
 20
1144.530689194751
 42
0.0
 10
1794.191682877688
 20
1105.280689194751
 42
-0.4142135623730951
 10
1788.191682877688
 20
1099.280689194751
 42
0.0
 10
1747.191682877688
 20
1099.280689194751
 42
0.0
 10
1747.191682877688
 20
1097.280689194751
 42
0.0
 97
        0
 75
     0
 76
     1
 52
-0.0000000000000127
 41
10.0
 77
     0
 78
     1
 53
44.99999999999999
 43
1514.191682877688
 44
830.0306891947512
 45
-0.8838834764831842
 46
0.8838834764831846
 79
     0
 47
0.1441552141067063
 98
        1
 10
1761.441682877688
 20
1097.780689194751
  0
LINE
  5
ECD
330
1F
100
AcDbEntity
  8
0
100
AcDbLine
 10
1700.191682877688
 20
1144.530689194751
 30
0.0
 11
1700.191682877688
 21
1159.530689194751
 31
0.0
  0
LINE
  5
ECE
330
1F
100
AcDbEntity
  8
0
100
AcDbLine
 10
1698.191682877688
 20
1144.530689194751
 30
0.0
 11
1698.191682877688
 21
1161.530689194751
 31
0.0
  0
LINE
  5
ECF
330
1F
100
AcDbEntity
  8
0
100
AcDbLine
 10
1700.191682877688
 20
1144.530689194751
 30
0.0
 11
1698.191682877688
 21
1144.530689194751
 31
0.0
  0
LINE
  5
ED5
330
1F
100
AcDbEntity
  8
0
100
AcDbLine
 10
1684.710357614787
 20
1247.280689194751
 30
0.0
 11
1682.902689058904
 21
1246.014946045338
 31
0.0
  0
LINE
  5
ED6
330
1F
100
AcDbEntity
  8
0
100
AcDbLine
 10
1691.410520212421
 20
1241.102947438635
 30
0.0
 11
1682.902689058904
 21
1246.014946045338
 31
0.0
  0
LINE
  5
ED7
330
1F
100
AcDbEntity
  8
0
100
AcDbLine
 10
1693.370611652632
 20
1242.280689194751
 30
0.0
 11
1684.710357614787
 21
1247.280689194751
 31
0.0
  0
ARC
  5
ED8
330
1F
100
AcDbEntity
  8
0
100
AcDbCircle
 10
1693.667438193311
 20
1233.780689194751
 30
0.0
 40
2.0
100
AcDbArc
 50
2.000000000003295
 51
90.0
  0
LINE
  5
ED9
330
1F
100
AcDbEntity
  8
0
100
AcDbLine
 10
1692.615238790389
 20
1206.604321105308
 30
0.0
 11
1694.688870700946
 21
1204.530689194751
 31
0.0
  0
ARC
  5
EDA
330
1F
100
AcDbEntity
  8
0
100
AcDbCircle
 10
1698.191682877688
 20
1204.530689194751
 30
0.0
 40
2.0
100
AcDbArc
 50
0.0
 51
90.0
  0
ARC
  5
EDB
330
1F
100
AcDbEntity
  8
0
100
AcDbCircle
 10
1698.191682877688
 20
1202.530689194751
 30
0.0
 40
2.0
100
AcDbArc
 50
0.0
 51
90.0
  0
LINE
  5
EDC
330
1F
100
AcDbEntity
  8
0
100
AcDbLine
 10
1698.191682877688
 20
1206.530689194751
 30
0.0
 11
1696.62024825056
 21
1206.530689194751
 31
0.0
  0
LINE
  5
EDD
330
1F
100
AcDbEntity
  8
0
100
AcDbLine
 10
1698.191682877688
 20
1204.530689194751
 30
0.0
 11
1696.690089789543
 21
1204.530689194752
 31
0.0
  0
ARC
  5
EDE
330
1F
100
AcDbEntity
  8
0
100
AcDbCircle
 10
1702.441682877688
 20
1191.780689194751
 30
0.0
 40
2.25000000000021
100
AcDbArc
 50
180.0
 51
0.0
  0
LINE
  5
EDF
330
1F
100
AcDbEntity
  8
0
100
AcDbLine
 10
1700.191682877688
 20
1191.780689194751
 30
0.0
 11
1700.191682877688
 21
1204.530689194751
 31
0.0
  0
ARC
  5
EE0
330
1F
100
AcDbEntity
  8
0
100
AcDbCircle
 10
1706.691682877688
 20
1204.530689194751
 30
0.0
 40
2.0
100
AcDbArc
 50
90.0
 51
180.0
  0
ARC
  5
EE1
330
1F
100
AcDbEntity
  8
0
100
AcDbCircle
 10
1706.691682877688
 20
1202.530689194752
 30
0.0
 40
2.0
100
AcDbArc
 50
90.0
 51
180.0
  0
LINE
  5
EE2
330
1F
100
AcDbEntity
  8
0
100
AcDbLine
 10
1704.691682877688
 20
1191.780689194751
 30
0.0
 11
1704.691682877688
 21
1204.530689194751
 31
0.0
  0
ARC
  5
EE3
330
1F
100
AcDbEntity
  8
0
100
AcDbCircle
 10
1710.191682877688
 20
1204.530689194751
 30
0.0
 40
2.0
100
AcDbArc
 50
0.0
 51
90.0
  0
ARC
  5
EE4
330
1F
100
AcDbEntity
  8
0
100
AcDbCircle
 10
1710.191682877688
 20
1202.530689194752
 30
0.0
 40
2.0
100
AcDbArc
 50
0.0
 51
90.0
  0
LINE
  5
EE5
330
1F
100
AcDbEntity
  8
0
100
AcDbLine
 10
1710.191682877688
 20
1206.530689194751
 30
0.0
 11
1706.691682877688
 21
1206.530689194751
 31
0.0
  0
LINE
  5
EE6
330
1F
100
AcDbEntity
  8
0
100
AcDbLine
 10
1710.191682877688
 20
1204.530689194752
 30
0.0
 11
1706.691682877688
 21
1204.530689194752
 31
0.0
  0
ARC
  5
EE7
330
1F
100
AcDbEntity
  8
0
100
AcDbCircle
 10
1718.441682877688
 20
1195.780689194751
 30
0.0
 40
6.250000000000014
100
AcDbArc
 50
180.0
 51
0.0
  0
LINE
  5
EE8
330
1F
100
AcDbEntity
  8
0
100
AcDbLine
 10
1712.191682877688
 20
1195.780689194751
 30
0.0
 11
1712.191682877688
 21
1204.530689194751
 31
0.0
  0
LINE
  5
EE9
330
1F
100
AcDbEntity
  8
0
100
AcDbLine
 10
1724.691682877688
 20
1195.780689194751
 30
0.0
 11
1724.691682877688
 21
1204.530689194751
 31
0.0
  0
LINE
  5
EEA
330
1F
100
AcDbEntity
  8
0
100
AcDbLine
 10
1692.615238790389
 20
1206.604321105308
 30
0.0
 11
1691.410520212421
 21
1241.102947438635
 31
0.0
  0
LINE
  5
EEB
330
1F
100
AcDbEntity
  8
0
100
AcDbLine
 10
1695.721038436147
 20
1228.780689194751
 30
0.0
 11
1691.840822952173
 21
1228.780689194751
 31
0.0
  0
LINE
  5
EEC
330
1F
100
AcDbEntity
  8
0
100
AcDbLine
 10
1693.667438193311
 20
1235.780689194751
 30
0.0
 11
1691.596377565731
 21
1235.780689194751
 31
0.0
  0
LINE
  5
EED
330
1F
100
AcDbEntity
  8
7A
  6
CENTER
100
AcDbLine
 10
1698.719819347549
 20
1232.280689194751
 30
0.0
 11
1688.71981934755
 21
1232.280689194751
 31
0.0
  0
LINE
  5
EEE
330
1F
100
AcDbEntity
  8
0
100
AcDbLine
 10
1696.192901223651
 20
1161.460890201346
 30
0.0
 11
1698.191682877688
 21
1159.462108547308
 31
0.0
  0
LINE
  5
EEF
330
1F
100
AcDbEntity
  8
0
100
AcDbLine
 10
1696.192901223651
 20
1161.460890201346
 30
0.0
 11
1693.370611652632
 21
1242.280689194751
 31
0.0
  0
LINE
  5
EF0
330
1F
100
AcDbEntity
  8
0
100
AcDbLine
 10
1698.191682877688
 20
1161.530689194751
 30
0.0
 11
1695.66621984735
 21
1233.850488188156
 31
0.0
  0
LINE
  5
EF1
330
1F
100
AcDbEntity
  8
0
100
AcDbLine
 10
1698.191682877688
 20
1161.530689194751
 30
0.0
 11
1702.691682877688
 21
1161.530689194751
 31
0.0
  0
ARC
  5
EF2
330
1F
100
AcDbEntity
  8
0
100
AcDbCircle
 10
1702.691682877688
 20
1157.530689194751
 30
0.0
 40
2.0
100
AcDbArc
 50
0.0
 51
90.0
  0
ARC
  5
EF3
330
1F
100
AcDbEntity
  8
0
100
AcDbCircle
 10
1702.691682877688
 20
1159.530689194751
 30
0.0
 40
2.0
100
AcDbArc
 50
0.0
 51
90.0
  0
ARC
  5
EF4
330
1F
100
AcDbEntity
  8
0
100
AcDbCircle
 10
1709.691682877688
 20
1149.530689194751
 30
0.0
 40
5.0
100
AcDbArc
 50
180.0
 51
0.0
  0
LINE
  5
EF5
330
1F
100
AcDbEntity
  8
0
100
AcDbLine
 10
1704.691682877688
 20
1149.530689194751
 30
0.0
 11
1704.691682877688
 21
1159.530689194751
 31
0.0
  0
ARC
  5
EF6
330
1F
100
AcDbEntity
  8
0
100
AcDbCircle
 10
1716.691682877688
 20
1159.530689194751
 30
0.0
 40
2.0
100
AcDbArc
 50
90.0
 51
180.0
  0
ARC
  5
EF7
330
1F
100
AcDbEntity
  8
0
100
AcDbCircle
 10
1716.691682877688
 20
1157.530689194751
 30
0.0
 40
2.0
100
AcDbArc
 50
90.0
 51
180.0
  0
LINE
  5
EF8
330
1F
100
AcDbEntity
  8
0
100
AcDbLine
 10
1714.691682877688
 20
1149.530689194751
 30
0.0
 11
1714.691682877688
 21
1159.530689194751
 31
0.0
  0
LINE
  5
EF9
330
1F
100
AcDbEntity
  8
0
100
AcDbLine
 10
1722.691682877688
 20
1161.530689194751
 30
0.0
 11
1716.691682877688
 21
1161.530689194751
 31
0.0
  0
ARC
  5
EFA
330
1F
100
AcDbEntity
  8
0
100
AcDbCircle
 10
1722.691682877688
 20
1159.530689194751
 30
0.0
 40
2.0
100
AcDbArc
 50
0.0
 51
90.0
  0
LINE
  5
EFB
330
1F
100
AcDbEntity
  8
0
100
AcDbLine
 10
1722.691682877688
 20
1159.530689194751
 30
0.0
 11
1716.691682877688
 21
1159.530689194751
 31
0.0
  0
ARC
  5
EFC
330
1F
100
AcDbEntity
  8
0
100
AcDbCircle
 10
1722.691682877688
 20
1157.530689194751
 30
0.0
 40
2.0
100
AcDbArc
 50
0.0
 51
90.0
  0
LINE
  5
EFD
330
1F
100
AcDbEntity
  8
0
100
AcDbLine
 10
1724.691682877688
 20
1152.030689194751
 30
0.0
 11
1724.691682877688
 21
1159.530689194751
 31
0.0
  0
LINE
  5
EFE
330
1F
100
AcDbEntity
  8
0
100
AcDbLine
 10
1698.191682877688
 20
1105.280689194751
 30
0.0
 11
1698.191682877688
 21
1144.530689194751
 31
0.0
  0
LINE
  5
EFF
330
1F
100
AcDbEntity
  8
0
100
AcDbLine
 10
1700.191682877688
 20
1105.280689194751
 30
0.0
 11
1700.191682877688
 21
1144.530689194751
 31
0.0
  0
ARC
  5
F00
330
1F
100
AcDbEntity
  8
0
100
AcDbCircle
 10
1706.191682877688
 20
1105.280689194751
 30
0.0
 40
8.0
100
AcDbArc
 50
180.0
 51
262.8192442185417
  0
ARC
  5
F01
330
1F
100
AcDbEntity
  8
0
100
AcDbCircle
 10
1706.191682877688
 20
1105.280689194751
 30
0.0
 40
6.0
100
AcDbArc
 50
180.0
 51
270.0
  0
LINE
  5
F02
330
1F
100
AcDbEntity
  8
0
100
AcDbLine
 10
1712.441682877688
 20
1097.280689194751
 30
0.0
 11
1712.441682877688
 21
1092.280689194751
 31
0.0
  0
LINE
  5
F03
330
1F
100
AcDbEntity
  8
0
100
AcDbLine
 10
1712.441682877688
 20
1092.280689194751
 30
0.0
 11
1705.191682877688
 21
1092.280689194751
 31
0.0
  0
LINE
  5
F04
330
1F
100
AcDbEntity
  8
0
100
AcDbLine
 10
1707.191682877688
 20
1097.280689194751
 30
0.0
 11
1707.191682877688
 21
1092.280689194751
 31
0.0
  0
LINE
  5
F05
330
1F
100
AcDbEntity
  8
0
100
AcDbLine
 10
1705.191682877688
 20
1097.343435261557
 30
0.0
 11
1705.191682877688
 21
1092.280689194751
 31
0.0
  0
ARC
  5
F06
330
1F
100
AcDbEntity
  8
0
100
AcDbCircle
 10
1726.691682877688
 20
1204.530689194751
 30
0.0
 40
2.0
100
AcDbArc
 50
90.0
 51
180.0
  0
ARC
  5
F07
330
1F
100
AcDbEntity
  8
0
100
AcDbCircle
 10
1726.691682877688
 20
1202.530689194752
 30
0.0
 40
2.0
100
AcDbArc
 50
90.0
 51
180.0
  0
LINE
  5
F08
330
1F
100
AcDbEntity
  8
0
100
AcDbLine
 10
1737.691682877688
 20
1204.530689194752
 30
0.0
 11
1726.691682877688
 21
1204.530689194752
 31
0.0
  0
LINE
  5
F09
330
1F
100
AcDbEntity
  8
0
100
AcDbLine
 10
1739.691682877688
 20
1197.030689194751
 30
0.0
 11
1739.691682877688
 21
1204.530689194751
 31
0.0
  0
ARC
  5
F0A
330
1F
100
AcDbEntity
  8
0
100
AcDbCircle
 10
1737.691682877688
 20
1202.530689194752
 30
0.0
 40
2.0
100
AcDbArc
 50
0.0
 51
90.0
  0
LINE
  5
F0B
330
1F
100
AcDbEntity
  8
0
100
AcDbLine
 10
1737.691682877688
 20
1204.530689194752
 30
0.0
 11
1731.691682877688
 21
1204.530689194751
 31
0.0
  0
ARC
  5
F0C
330
1F
100
AcDbEntity
  8
0
100
AcDbCircle
 10
1737.691682877688
 20
1204.530689194751
 30
0.0
 40
2.0
100
AcDbArc
 50
0.0
 51
90.0
  0
LINE
  5
F0D
330
1F
100
AcDbEntity
  8
0
100
AcDbLine
 10
1737.691682877688
 20
1206.530689194752
 30
0.0
 11
1726.691682877688
 21
1206.530689194751
 31
0.0
  0
ARC
  5
F0E
330
1F
100
AcDbEntity
  8
0
100
AcDbCircle
 10
1741.691682877688
 20
1157.530689194751
 30
0.0
 40
2.0
100
AcDbArc
 50
90.0
 51
180.0
  0
ARC
  5
F0F
330
1F
100
AcDbEntity
  8
0
100
AcDbCircle
 10
1732.191682877688
 20
1152.030689194751
 30
0.0
 40
7.5
100
AcDbArc
 50
180.0
 51
0.0
  0
ARC
  5
F10
330
1F
100
AcDbEntity
  8
0
100
AcDbCircle
 10
1741.691682877688
 20
1159.530689194751
 30
0.0
 40
2.0
100
AcDbArc
 50
90.0
 51
180.0
  0
LINE
  5
F11
330
1F
100
AcDbEntity
  8
0
100
AcDbLine
 10
1739.691682877688
 20
1152.030689194751
 30
0.0
 11
1739.691682877688
 21
1159.530689194751
 31
0.0
  0
HATCH
  5
F18
330
1F
100
AcDbEntity
  8
8
100
AcDbHatch
 10
0.0
 20
0.0
 30
0.0
210
0.0
220
0.0
230
1.0
  2
ANSI31
 70
     0
 71
     0
 91
        1
 92
        7
 72
     0
 73
     1
 93
        4
 10
1800.541323714606
 20
1228.780689194751
 10
1798.540104626009
 20
1228.780689194751
 10
1797.440100387018
 20
1197.280689194751
 10
1799.441319475616
 20
1197.280689194751
 97
        0
 75
     0
 76
     1
 52
-0.0000000000000127
 41
10.0
 77
     0
 78
     1
 53
44.99999999999999
 43
1514.191682877688
 44
830.0306891947512
 45
-0.8838834764831842
 46
0.8838834764831846
 79
     0
 47
0.1885863194732865
 98
        1
 10
1799.441682877688
 20
1209.030689194751
  0
HATCH
  5
F19
330
1F
100
AcDbEntity
  8
8
100
AcDbHatch
 10
0.0
 20
0.0
 30
0.0
210
0.0
220
0.0
230
1.0
  2
ANSI31
 70
     0
 71
     0
 91
        1
 92
        7
 72
     0
 73
     1
 93
        5
 10
1799.441319475616
 20
1197.280689194751
 10
1797.440100387018
 20
1197.280689194751
 10
1796.191682877688
 20
1161.530689194752
 10
1796.191682877688
 20
1159.462108547308
 10
1798.190464531726
 20
1161.460890201346
 97
        0
 75
     0
 76
     1
 52
-0.0000000000000127
 41
10.0
 77
     0
 78
     1
 53
44.99999999999999
 43
1514.191682877688
 44
830.0306891947512
 45
-0.8838834764831842
 46
0.8838834764831846
 79
     0
 47
0.1885863194732865
 98
        1
 10
1798.441682877688
 20
1192.030689194751
  0
HATCH
  5
F1A
330
1F
100
AcDbEntity
  8
8
100
AcDbHatch
 10
0.0
 20
0.0
 30
0.0
210
0.0
220
0.0
230
1.0
  2
ANSI31
 70
     0
 71
     0
 91
        1
 92
        7
 72
     0
 73
     1
 93
        4
 10
1693.842042040771
 20
1228.780689194751
 10
1695.843261129368
 20
1228.780689194751
 10
1696.943265368358
 20
1197.280689194751
 10
1694.942046279761
 20
1197.280689194751
 97
        0
 75
     0
 76
     1
 52
-0.0000000000000127
 41
10.0
 77
     0
 78
     1
 53
44.99999999999999
 43
1514.191682877688
 44
830.0306891947512
 45
-0.8838834764831842
 46
0.8838834764831846
 79
     0
 47
0.1885863194732865
 98
        1
 10
1694.941682877688
 20
1209.030689194751
  0
HATCH
  5
F1B
330
1F
100
AcDbEntity
  8
8
100
AcDbHatch
 10
0.0
 20
0.0
 30
0.0
210
0.0
220
0.0
230
1.0
  2
ANSI31
 70
     0
 71
     0
 91
        1
 92
        7
 72
     0
 73
     1
 93
        5
 10
1694.942046279761
 20
1197.280689194751
 10
1696.943265368358
 20
1197.280689194751
 10
1698.191682877688
 20
1161.530689194752
 10
1698.191682877688
 20
1159.462108547308
 10
1696.192901223651
 20
1161.460890201346
 97
        0
 75
     0
 76
     1
 52
-0.0000000000000127
 41
10.0
 77
     0
 78
     1
 53
44.99999999999999
 43
1514.191682877688
 44
830.0306891947512
 45
-0.8838834764831842
 46
0.8838834764831846
 79
     0
 47
0.1885863194732865
 98
        1
 10
1695.941682877688
 20
1192.030689194751
  0
LINE
  5
F1C
330
1F
100
AcDbEntity
  8
7A
  6
CENTER
100
AcDbLine
 10
1795.663546407827
 20
1232.280689194751
 30
0.0
 11
1805.663546407827
 21
1232.280689194751
 31
0.0
  0
HATCH
  5
F1D
330
1F
100
AcDbEntity
  8
8
100
AcDbHatch
 10
0.0
 20
0.0
 30
0.0
210
0.0
220
0.0
230
1.0
  2
ANSI31
 70
     0
 71
     0
 91
        1
 92
        7
 72
     1
 73
     1
 93
       11
 10
1707.191682877688
 20
1097.280689194751
 42
0.0
 10
1707.191682877688
 20
1092.280689194751
 42
0.0
 10
1705.191682877688
 20
1092.280689194751
 42
0.0
 10
1705.191682877688
 20
1097.343435261557
 42
-0.3779644730092272
 10
1698.191682877688
 20
1105.280689194751
 42
0.0
 10
1698.191682877688
 20
1144.530689194751
 42
0.0
 10
1700.191682877688
 20
1144.530689194751
 42
0.0
 10
1700.191682877688
 20
1105.280689194751
 42
0.4142135623730951
 10
1706.191682877688
 20
1099.280689194751
 42
0.0
 10
1747.191682877688
 20
1099.280689194751
 42
0.0
 10
1747.191682877688
 20
1097.280689194751
 42
0.0
 97
        0
 75
     0
 76
     1
 52
-0.0000000000000127
 41
10.0
 77
     0
 78
     1
 53
44.99999999999999
 43
1514.191682877688
 44
830.0306891947512
 45
-0.8838834764831842
 46
0.8838834764831846
 79
     0
 47
0.1441552141067063
 98
        1
 10
1732.941682877688
 20
1097.780689194751
  0
LINE
  5
F27
330
1F
100
AcDbEntity
  8
0
100
AcDbLine
 10
1712.191682877688
 20
1204.530689194751
 30
0.0
 11
1724.691682877688
 21
1204.530689194751
 31
0.0
  0
LINE
  5
F28
330
1F
100
AcDbEntity
  8
0
100
AcDbLine
 10
1739.691682877688
 20
1204.530689194751
 30
0.0
 11
1754.691682877688
 21
1204.530689194751
 31
0.0
  0
LINE
  5
F29
330
1F
100
AcDbEntity
  8
0
100
AcDbLine
 10
1769.691682877688
 20
1204.530689194751
 30
0.0
 11
1782.191682877688
 21
1204.530689194751
 31
0.0
  0
LINE
  5
F2A
330
1F
100
AcDbEntity
  8
0
100
AcDbLine
 10
1789.691682877688
 20
1204.530689194752
 30
0.0
 11
1794.191682877688
 21
1204.530689194751
 31
0.0
  0
LINE
  5
F2B
330
1F
100
AcDbEntity
  8
0
100
AcDbLine
 10
1704.691682877688
 20
1159.530689194751
 30
0.0
 11
1714.691682877688
 21
1159.530689194751
 31
0.0
  0
LINE
  5
F2C
330
1F
100
AcDbEntity
  8
0
100
AcDbLine
 10
1724.691682877688
 20
1159.530689194751
 30
0.0
 11
1739.691682877688
 21
1159.530689194751
 31
0.0
  0
LINE
  5
F2D
330
1F
100
AcDbEntity
  8
0
100
AcDbLine
 10
1754.691682877688
 20
1159.530689194751
 30
0.0
 11
1769.691682877688
 21
1159.530689194751
 31
0.0
  0
LINE
  5
F2E
330
1F
100
AcDbEntity
  8
0
100
AcDbLine
 10
1779.691682877688
 20
1159.530689194751
 30
0.0
 11
1789.691682877688
 21
1159.530689194751
 31
0.0
  0
LINE
  5
F2F
330
1F
100
AcDbEntity
  8
0
100
AcDbLine
 10
1791.691682877688
 20
1159.530689194751
 30
0.0
 11
1792.191682877688
 21
1159.530689194751
 31
0.0
  0
LINE
  5
F30
330
1F
100
AcDbEntity
  8
0
100
AcDbLine
 10
1796.191682877688
 20
1161.530689194751
 30
0.0
 11
1794.191682877688
 21
1159.530689194751
 31
0.0
  0
HATCH
  5
F31
330
1F
100
AcDbEntity
  8
8
100
AcDbHatch
 10
0.0
 20
0.0
 30
0.0
210
0.0
220
0.0
230
1.0
  2
ANSI31
 70
     0
 71
     0
 91
        1
 92
        7
 72
     0
 73
     1
 93
        6
 10
1691.41052021242
 20
1241.102947438635
 10
1691.596377565731
 20
1235.780689194751
 10
1693.597596654328
 20
1235.780689194751
 10
1693.370611652632
 20
1242.280689194751
 10
1684.710357614787
 20
1247.280689194751
 10
1682.902689058904
 20
1246.014946045338
 97
        0
 75
     0
 76
     1
 52
-0.0000000000000127
 41
10.0
 77
     0
 78
     1
 53
44.99999999999999
 43
1514.191682877688
 44
830.0306891947512
 45
-0.8838834764831842
 46
0.8838834764831846
 79
     0
 47
0.1515848031051669
 98
        1
 10
1689.691682877688
 20
1243.030689194751
  0
HATCH
  5
F50
330
1F
100
AcDbEntity
  8
8
100
AcDbHatch
 10
0.0
 20
0.0
 30
0.0
210
0.0
220
0.0
230
1.0
  2
ANSI31
 70
     0
 71
     0
 91
        1
 92
        7
 72
     0
 73
     1
 93
        6
 10
1800.785769101048
 20
1235.780689194752
 10
1802.786988189646
 20
1235.780689194752
 10
1802.972845542956
 20
1241.102947438635
 10
1811.480676696472
 20
1246.014946045338
 10
1809.673008140589
 20
1247.280689194751
 10
1801.012754102745
 20
1242.280689194751
 97
        0
 75
     0
 76
     1
 52
-0.0000000000000127
 41
10.0
 77
     0
 78
     1
 53
44.99999999999999
 43
1585.941682877688
 44
1373.280689194751
 45
-0.8838834764831842
 46
0.8838834764831846
 79
     0
 47
0.0930723340475824
 98
        1
 10
1801.794320915634
 20
1240.084813008837
  0
LINE
  5
12A7
330
1F
100
AcDbEntity
  8
AM_7
100
AcDbLine
 10
1747.191682877688
 20
1098.386028254078
 30
0.0
 11
1747.191682877688
 21
1147.530689194751
 31
0.0
1001
GENIUS_GENODEF_13
1002
{
1000
HIER
1070
     0
1002
}
1002
{
1000
MANEDIT
1070
     0
1002
}
1002
{
1000
NOSEL
1070
     0
1002
}
1002
{
1000
BEHIND
1070
     0
1002
}
1002
{
1000
OTHER
1070
     0
1002
}
1002
{
1000
REACTOR
1002
}
1001
GENIUS_GENOBJ-N-CEN_13
1002
{
1000
OWNER
1000
GEN
1002
}
1001
GENIUS_GENCEN_19
1002
{
1040
3.0
1002
}
  0
DIMENSION
  5
12F2
102
{ACAD_XDICTIONARY
360
12FF
102
}
102
{ACAD_REACTORS
330
1300
102
}
330
1F
100
AcDbEntity
  8
AM_5
100
AcDbDimension
  2
*D6
 10
1640.408607825058
 20
1280.203403456243
 30
0.0
 11
1636.408607825058
 21
1289.703403456244
 31
0.0
 70
    32
 71
     5
 42
19.0
  3
AM_ISO$0
100
AcDbAlignedDimension
 13
1654.590048270542
 23
1299.203403456243
 33
0.0
 14
1672.090048270541
 24
1280.203403456243
 34
0.0
 50
90.0
100
AcDbRotatedDimension
1001
ACAD
1000
DSTYLE
1002
{
1070
   140
1040
5.0
1002
}
  0
MTEXT
  5
131F
330
1F
100
AcDbEntity
  8
AM_5
100
AcDbMText
 10
2005.224538731281
 20
1133.831811949428
 30
0.0
 40
3.0
 41
30.92111715557621
 71
     1
 72
     5
  1
1.5
 73
     1
 44
1.0
1001
ACAD
1000
MTEXTBEGIN
1070
    73
1070
     1
1070
    44
1040
1.0
1070
    74
1070
     0
1000
MTEXTEND
  0
CIRCLE
  5
1328
330
1F
100
AcDbEntity
  8
AM_5
100
AcDbCircle
 10
2010.308806236142
 20
1133.885251161353
 30
0.0
 40
0.5902365079166848
  0
DIMENSION
  5
1338
102
{ACAD_XDICTIONARY
360
1345
102
}
102
{ACAD_REACTORS
330
1346
102
}
330
1F
100
AcDbEntity
  8
AM_5
100
AcDbDimension
  2
*D7
 10
1625.310357386635
 20
742.3721178010834
 30
0.0
 11
1621.310357386635
 21
834.8721178010839
 31
0.0
 70
    32
  1
%%c<>
 71
     5
 42
185.0000000000004
  3
AM_ISO$0
100
AcDbAlignedDimension
 13
1747.090048270541
 23
927.3721178010839
 33
0.0
 14
1747.090048270541
 24
742.3721178010834
 34
0.0
 50
90.0
100
AcDbRotatedDimension
1001
ACAD
1000
DSTYLE
1002
{
1070
   140
1040
5.0
1002
}
  0
DIMENSION
  5
136B
102
{ACAD_XDICTIONARY
360
1378
102
}
102
{ACAD_REACTORS
330
1379
102
}
330
1F
100
AcDbEntity
  8
AM_5
100
AcDbDimension
  2
*D8
 10
1777.09004827054
 20
731.7024479826832
 30
0.0
 11
1771.09004827054
 21
735.7029401086674
 31
0.0
 70
    32
 71
     5
 42
12.0
  3
AM_ISO$0
100
AcDbAlignedDimension
 13
1765.09004827054
 23
782.2223314767309
 33
0.0
 14
1777.09004827054
 24
785.5162670840711
 34
0.0
 50
0.0000000000001132
100
AcDbRotatedDimension
1001
ACAD
1000
DSTYLE
1002
{
1070
   140
1040
5.0
1002
}
  0
LINE
  5
1453
330
1F
100
AcDbEntity
  8
0
100
AcDbLine
 10
1672.090048270541
 20
1280.203403456243
 30
0.0
 11
1706.038434621143
 21
1280.203403456243
 31
0.0
  0
LINE
  5
1454
330
1F
100
AcDbEntity
  8
0
100
AcDbLine
 10
1716.14166191994
 20
1280.203403456243
 30
0.0
 11
1730.038434621142
 21
1280.203403456243
 31
0.0
  0
LINE
  5
1455
330
1F
100
AcDbEntity
  8
0
100
AcDbLine
 10
1740.14166191994
 20
1280.203403456243
 30
0.0
 11
1754.038434621142
 21
1280.203403456243
 31
0.0
  0
LINE
  5
1457
330
1F
100
AcDbEntity
  8
0
100
AcDbLine
 10
1764.14166191994
 20
1280.203403456243
 30
0.0
 11
1778.038434621143
 21
1280.203403456243
 31
0.0
  0
LINE
  5
1458
330
1F
100
AcDbEntity
  8
0
100
AcDbLine
 10
1788.14166191994
 20
1280.203403456243
 30
0.0
 11
1822.090048270541
 21
1280.203403456243
 31
0.0
  0
ENDSEC
  0
SECTION
  2
OBJECTS
  0
DICTIONARY
  5
C
330
0
100
AcDbDictionary
281
     1
  3
ACAD_COLOR
350
BE
  3
ACAD_GROUP
350
D
  3
ACAD_LAYOUT
350
1A
  3
ACAD_MATERIAL
350
BD
  3
ACAD_MLINESTYLE
350
17
  3
ACAD_PLOTSETTINGS
350
19
  3
ACAD_PLOTSTYLENAME
350
E
  3
ACAD_TABLESTYLE
350
11A
  3
ACDBHEADERROUNDTRIPXREC
350
1497
  3
AcDbVariableDictionary
350
94
  3
AcmDictionary
350
5B
  3
AMG
350
41
  3
AMGSNAPSETTINGS
350
26B
  3
DWGPROPS
350
1496
  0
DICTIONARY
  5
8F
330
1F
100
AcDbDictionary
280
     1
281
     1
  0
DICTIONARY
  5
BB6
330
BA9
100
AcDbDictionary
280
     1
281
     1
  3
ACAD_DIMASSOC
360
BB7
  0
DICTIONARY
  5
BE0
330
BD3
100
AcDbDictionary
280
     1
281
     1
  3
ACAD_DIMASSOC
360
BE1
  0
DICTIONARY
  5
C0A
330
BFD
100
AcDbDictionary
280
     1
281
     1
  3
ACAD_DIMASSOC
360
C0B
  0
DICTIONARY
  5
12FF
330
12F2
100
AcDbDictionary
280
     1
281
     1
  3
ACAD_DIMASSOC
360
1300
  0
DICTIONARY
  5
1345
330
1338
100
AcDbDictionary
280
     1
281
     1
  3
ACAD_DIMASSOC
360
1346
  0
DICTIONARY
  5
1378
330
136B
100
AcDbDictionary
280
     1
281
     1
  3
ACAD_DIMASSOC
360
1379
  0
DICTIONARY
  5
BE
102
{ACAD_REACTORS
330
C
102
}
330
C
100
AcDbDictionary
281
     1
  0
DICTIONARY
  5
D
102
{ACAD_REACTORS
330
C
102
}
330
C
100
AcDbDictionary
281
     1
  0
DICTIONARY
  5
1A
102
{ACAD_REACTORS
330
C
102
}
330
C
100
AcDbDictionary
281
     1
  3
Layout1
350
1E
  3
Layout2
350
26
  3
Model
350
22
  0
DICTIONARY
  5
BD
102
{ACAD_REACTORS
330
C
102
}
330
C
100
AcDbDictionary
281
     1
  0
DICTIONARY
  5
17
102
{ACAD_REACTORS
330
C
102
}
330
C
100
AcDbDictionary
281
     1
  3
Standard
350
18
  0
DICTIONARY
  5
19
102
{ACAD_REACTORS
330
C
102
}
330
C
100
AcDbDictionary
281
     1
  0
ACDBDICTIONARYWDFLT
  5
E
102
{ACAD_REACTORS
330
C
102
}
330
C
100
AcDbDictionary
281
     1
  3
Normal
350
F
100
AcDbDictionaryWithDefault
340
F
  0
DICTIONARY
  5
11A
102
{ACAD_REACTORS
330
C
102
}
330
C
100
AcDbDictionary
281
     1
  3
Standard
350
11B
  0
DICTIONARY
  5
1497
102
{ACAD_REACTORS
330
C
102
}
330
C
100
AcDbDictionary
281
     1
  0
DICTIONARY
  5
94
102
{ACAD_REACTORS
330
C
102
}
330
C
100
AcDbDictionary
281
     1
  3
CTABLESTYLE
350
138
  3
DIMASSOC
350
96
  3
INDEXCTL
350
95
  3
PROJECTNAME
350
1494
  0
DICTIONARY
  5
5B
102
{ACAD_REACTORS
330
C
102
}
330
C
100
AcDbDictionary
281
     1
  3
AcmBOM
350
272
  3
AcmStdDictionary
350
61
  3
AMDTSECTSYM_ARROWCOLOR
350
123
  0
DICTIONARY
  5
41
102
{ACAD_REACTORS
330
C
102
}
330
C
100
AcDbDictionary
281
     1
  0
DICTIONARY
  5
26B
102
{ACAD_REACTORS
330
C
102
}
330
C
100
AcDbDictionary
281
     1
  0
XRECORD
  5
1496
102
{ACAD_REACTORS
330
C
102
}
330
C
100
AcDbXrecord
280
     1
  1
DWGPROPS COOKIE
  2

  3

  4

  6

  7

  8

  9

300
AmdtFileType=84
301
=
302
=
303
=
304
=
305
=
306
=
307
=
308
=
309
=
 40
0.0338654513888889
 41
2454067.407894502
 42
2454087.927153635
  1

 90
        1
  0
DIMASSOC
  5
BB7
102
{ACAD_REACTORS
330
BB6
102
}
330
BB6
100
AcDbDimAssoc
330
BA9
 90
        1
 70
     0
 71
     0
  1
AcDbOsnapPointRef
 72
     1
331
50F
 73
     0
 91
        0
 40
0.0
 10
0.0
 20
0.0
 30
2.000000000000000E+50
 75
     0
  0
DIMASSOC
  5
BE1
102
{ACAD_REACTORS
330
BE0
102
}
330
BE0
100
AcDbDimAssoc
330
BD3
 90
        1
 70
     0
 71
     0
  1
AcDbOsnapPointRef
 72
     1
331
511
 73
     0
 91
        0
 40
0.0
 10
0.0
 20
0.0
 30
2.000000000000000E+50
 75
     0
  0
DIMASSOC
  5
C0B
102
{ACAD_REACTORS
330
C0A
102
}
330
C0A
100
AcDbDimAssoc
330
BFD
 90
        1
 70
     0
 71
     0
  1
AcDbOsnapPointRef
 72
     6
331
504
 73
     0
 91
        0
 40
0.1463113263132833
 10
0.0
 20
0.0
 30
0.0
332
51B
 74
     0
 92
        0
 75
     0
  0
DIMASSOC
  5
1300
102
{ACAD_REACTORS
330
12FF
102
}
330
12FF
100
AcDbDimAssoc
330
12F2
 90
        1
 70
     0
 71
     0
  1
AcDbOsnapPointRef
 72
     1
331
513
 73
     0
 91
        0
 40
0.0
 10
0.0
 20
0.0
 30
2.000000000000000E+50
 75
     0
  0
DIMASSOC
  5
1346
102
{ACAD_REACTORS
330
1345
102
}
330
1345
100
AcDbDimAssoc
330
1338
 90
        3
 70
     0
 71
     0
  1
AcDbOsnapPointRef
 72
     6
331
584
 73
     0
 91
        0
 40
1.570796326794896
 10
0.0
 20
0.0
 30
0.0
332
589
 74
     0
 92
        0
 75
     0
  1
AcDbOsnapPointRef
 72
     6
331
584
 73
     0
 91
        0
 40
4.712388980384689
 10
0.0
 20
0.0
 30
0.0
332
589
 74
     0
 92
        0
 75
     0
  0
DIMASSOC
  5
1379
102
{ACAD_REACTORS
330
1378
102
}
330
1378
100
AcDbDimAssoc
330
136B
 90
        3
 70
     0
 71
     0
  1
AcDbOsnapPointRef
 72
    13
331
9DD
 73
     0
 91
        0
 40
0.0
 10
0.0
 20
0.0
 30
2.000000000000000E+50
 75
     0
  1
AcDbOsnapPointRef
 72
    13
331
9DC
 73
     0
 91
        0
 40
0.0
 10
0.0
 20
0.0
 30
2.000000000000000E+50
 75
     0
  0
LAYOUT
  5
1E
102
{ACAD_XDICTIONARY
360
1498
102
}
102
{ACAD_REACTORS
330
1A
102
}
330
1A
100
AcDbPlotSettings
  1

  2

  4

  6

 40
0.0
 41
0.0
 42
0.0
 43
0.0
 44
0.0
 45
0.0
 46
0.0
 47
0.0
 48
0.0
 49
0.0
140
0.0
141
0.0
142
1.0
143
1.0
 70
   688
 72
     0
 73
     0
 74
     5
  7
monochrome.ctb
 75
    16
147
1.0
148
0.0
149
0.0
100
AcDbLayout
  1
Layout1
 70
     1
 71
     1
 10
0.0
 20
0.0
 11
420.0
 21
297.0
 12
0.0
 22
0.0
 32
0.0
 14
1.000000000000000E+20
 24
1.000000000000000E+20
 34
1.000000000000000E+20
 15
-1.000000000000000E+20
 25
-1.000000000000000E+20
 35
-1.000000000000000E+20
146
0.0
 13
0.0
 23
0.0
 33
0.0
 16
1.0
 26
0.0
 36
0.0
 17
0.0
 27
1.0
 37
0.0
 76
     0
330
1B
  0
LAYOUT
  5
26
102
{ACAD_XDICTIONARY
360
149C
102
}
102
{ACAD_REACTORS
330
1A
102
}
330
1A
100
AcDbPlotSettings
  1

  2

  4

  6

 40
0.0
 41
0.0
 42
0.0
 43
0.0
 44
0.0
 45
0.0
 46
0.0
 47
0.0
 48
0.0
 49
0.0
140
0.0
141
0.0
142
1.0
143
1.0
 70
   688
 72
     0
 73
     0
 74
     5
  7
monochrome.ctb
 75
    16
147
1.0
148
0.0
149
0.0
100
AcDbLayout
  1
Layout2
 70
     1
 71
     2
 10
0.0
 20
0.0
 11
12.0
 21
9.0
 12
0.0
 22
0.0
 32
0.0
 14
0.0
 24
0.0
 34
0.0
 15
0.0
 25
0.0
 35
0.0
146
0.0
 13
0.0
 23
0.0
 33
0.0
 16
1.0
 26
0.0
 36
0.0
 17
0.0
 27
1.0
 37
0.0
 76
     0
330
23
  0
LAYOUT
  5
22
102
{ACAD_XDICTIONARY
360
149A
102
}
102
{ACAD_REACTORS
330
1A
102
}
330
1A
100
AcDbPlotSettings
  1

  2
\\RD-SR-210\PH-PR-011
  4
A4
  6

 40
6.011333465576171
 41
4.233341693878173
 42
6.011322021484375
 43
4.23333740234375
 44
209.9733276367187
 45
296.9259948730469
 46
0.0
 47
0.0
 48
0.0
 49
0.0
140
0.0
141
0.0
142
1.0
143
3.453808074120969
 70
 11952
 72
     1
 73
     1
 74
     0
  7
monochrome.ctb
 75
     0
147
0.2895354862051826
148
-1316.929268235283
149
-727.2664898846167
100
AcDbLayout
  1
Model
 70
     1
 71
     0
 10
0.0
 20
0.0
 11
12.0
 21
9.0
 12
0.0
 22
0.0
 32
0.0
 14
0.0
 24
0.0
 34
0.0
 15
0.0
 25
0.0
 35
0.0
146
0.0
 13
0.0
 23
0.0
 33
0.0
 16
1.0
 26
0.0
 36
0.0
 17
0.0
 27
1.0
 37
0.0
 76
     0
330
1F
1001
ACAD_PSEXT
1000
\\RD-SR-210\PH-PR-011
1000
HP LaserJet 4000 Series PCL 5e
1000
Betriebsrat, R.Deiss
1000
HP LaserJet 4000 series; Treiber HP LaserJet 4000 PCL 5e englisch;  Printserver: JetDirect-Eingebaut; WebManagment :OK
1070
     0
  0
MLINESTYLE
  5
18
102
{ACAD_REACTORS
330
17
102
}
330
17
100
AcDbMlineStyle
  2
STANDARD
 70
     0
  3

 62
   256
 51
90.0
 52
90.0
 71
     2
 49
0.5
 62
   256
  6
BYLAYER
 49
-0.5
 62
   256
  6
BYLAYER
  0
ACDBPLACEHOLDER
  5
F
102
{ACAD_REACTORS
330
E
102
}
330
E
  0
TABLESTYLE
  5
11B
102
{ACAD_REACTORS
330
11A
102
}
330
11A
100
AcDbTableStyle
  3
Standard
 70
     0
 71
     0
 40
1.5
 41
1.5
280
     0
281
     0
  7
STANDARD
140
4.5
170
     2
 62
     0
 63
     7
283
     0
274
    -2
284
     1
 64
     0
275
    -2
285
     1
 65
     0
276
    -2
286
     1
 66
     0
277
    -2
287
     1
 67
     0
278
    -2
288
     1
 68
     0
279
    -2
289
     1
 69
     0
  7
STANDARD
140
6.0
170
     5
 62
     0
 63
     7
283
     0
274
    -2
284
     1
 64
     0
275
    -2
285
     1
 65
     0
276
    -2
286
     1
 66
     0
277
    -2
287
     1
 67
     0
278
    -2
288
     1
 68
     0
279
    -2
289
     1
 69
     0
  7
STANDARD
140
4.5
170
     5
 62
     0
 63
     7
283
     0
274
    -2
284
     1
 64
     0
275
    -2
285
     1
 65
     0
276
    -2
286
     1
 66
     0
277
    -2
287
     1
 67
     0
278
    -2
288
     1
 68
     0
279
    -2
289
     1
 69
     0
  0
DICTIONARYVAR
  5
138
102
{ACAD_REACTORS
330
94
102
}
330
94
100
DictionaryVariables
280
     0
  1
STANDARD
  0
DICTIONARYVAR
  5
96
102
{ACAD_REACTORS
330
94
102
}
330
94
100
DictionaryVariables
280
     0
  1
2
  0
DICTIONARYVAR
  5
95
102
{ACAD_REACTORS
330
94
102
}
330
94
100
DictionaryVariables
280
     0
  1
0
  0
DICTIONARYVAR
  5
1494
102
{ACAD_REACTORS
330
94
102
}
330
94
100
DictionaryVariables
280
     0
  1

  0
DICTIONARY
  5
272
102
{ACAD_REACTORS
330
5B
102
}
330
5B
100
AcDbDictionary
281
     1
  0
DICTIONARY
  5
61
102
{ACAD_REACTORS
330
5B
102
}
330
5B
100
AcDbDictionary
281
     1
  0
XRECORD
  5
123
102
{ACAD_REACTORS
330
5B
102
}
330
5B
100
AcDbXrecord
280
     1
 90
-1023410169
  0
DICTIONARY
  5
1498
330
1E
100
AcDbDictionary
280
     1
281
     1
  3
ACAD_XREC_ROUNDTRIP
360
1499
  0
DICTIONARY
  5
149C
330
26
100
AcDbDictionary
280
     1
281
     1
  3
ACAD_XREC_ROUNDTRIP
360
149D
  0
DICTIONARY
  5
149A
330
22
100
AcDbDictionary
280
     1
281
     1
  3
ACAD_XREC_ROUNDTRIP
360
149B
  0
XRECORD
  5
1499
102
{ACAD_REACTORS
330
1498
102
}
330
1498
100
AcDbXrecord
280
     1
102
SHADEPLOT
 70
     0
102
SHADEPLOTRESLEVEL
 70
     2
102
SHADEPLOTCUSTOMDPI
 70
   300
  0
XRECORD
  5
149D
102
{ACAD_REACTORS
330
149C
102
}
330
149C
100
AcDbXrecord
280
     1
102
SHADEPLOT
 70
     0
102
SHADEPLOTRESLEVEL
 70
     2
102
SHADEPLOTCUSTOMDPI
 70
   300
  0
XRECORD
  5
149B
102
{ACAD_REACTORS
330
149A
102
}
330
149A
100
AcDbXrecord
280
     1
102
SHADEPLOT
 70
     0
102
SHADEPLOTRESLEVEL
 70
     2
102
SHADEPLOTCUSTOMDPI
 70
   300
  0
ENDSEC
  0
EOF
