  0
SECTION
  2
HEADER
  9
$ACADVER
  1
AC1015
  9
$ACADMAINTVER
 70
    20
  9
$DWGCODEPAGE
  3
ANSI_1252
  9
$INSBASE
 10
0.0
 20
0.0
 30
0.0
  9
$EXTMIN
 10
182.1253376289565
 20
137.1969846393499
 30
0.0
  9
$EXTMAX
 10
432.568154014592
 20
278.3881939608434
 30
0.0
  9
$LIMMIN
 10
0.0
 20
0.0
  9
$LIMMAX
 10
420.0000000000001
 20
297.0
  9
$ORTHOMODE
 70
     1
  9
$REGENMODE
 70
     1
  9
$FILLMODE
 70
     1
  9
$QTEXTMODE
 70
     0
  9
$MIRRTEXT
 70
     1
  9
$LTSCALE
 40
0.000001
  9
$ATTMODE
 70
     1
  9
$TEXTSIZE
 40
3.5
  9
$TRACEWID
 40
1.0
  9
$TEXTSTYLE
  7
STANDARD
  9
$CLAYER
  8
0
  9
$CELTYPE
  6
BYLAYER
  9
$CECOLOR
 62
   256
  9
$CELTSCALE
 40
1.0
  9
$DISPSILH
 70
     0
  9
$DIMSCALE
 40
1.0
  9
$DIMASZ
 40
2.5
  9
$DIMEXO
 40
1.0
  9
$DIMDLI
 40
7.0
  9
$DIMRND
 40
0.0
  9
$DIMDLE
 40
0.0
  9
$DIMEXE
 40
1.0
  9
$DIMTP
 40
0.1
  9
$DIMTM
 40
0.1
  9
$DIMTXT
 40
3.5
  9
$DIMCEN
 40
0.0
  9
$DIMTSZ
 40
0.0
  9
$DIMTOL
 70
     0
  9
$DIMLIM
 70
     0
  9
$DIMTIH
 70
     0
  9
$DIMTOH
 70
     0
  9
$DIMSE1
 70
     0
  9
$DIMSE2
 70
     0
  9
$DIMTAD
 70
     1
  9
$DIMZIN
 70
     8
  9
$DIMBLK
  1

  9
$DIMASO
 70
     1
  9
$DIMSHO
 70
     1
  9
$DIMPOST
  1

  9
$DIMAPOST
  1
"
  9
$DIMALT
 70
     0
  9
$DIMALTD
 70
     2
  9
$DIMALTF
 40
0.0393701
  9
$DIMLFAC
 40
1.0
  9
$DIMTOFL
 70
     1
  9
$DIMTVP
 40
0.0
  9
$DIMTIX
 70
     0
  9
$DIMSOXD
 70
     0
  9
$DIMSAH
 70
     0
  9
$DIMBLK1
  1

  9
$DIMBLK2
  1

  9
$DIMSTYLE
  2
GEN-ISO
  9
$DIMCLRD
 70
   256
  9
$DIMCLRE
 70
   256
  9
$DIMCLRT
 70
     2
  9
$DIMTFAC
 40
0.71
  9
$DIMGAP
 40
0.6
  9
$DIMJUST
 70
     0
  9
$DIMSD1
 70
     0
  9
$DIMSD2
 70
     0
  9
$DIMTOLJ
 70
     0
  9
$DIMTZIN
 70
     0
  9
$DIMALTZ
 70
     0
  9
$DIMALTTZ
 70
     0
  9
$DIMUPT
 70
     0
  9
$DIMDEC
 70
     2
  9
$DIMTDEC
 70
     3
  9
$DIMALTU
 70
     2
  9
$DIMALTTD
 70
     4
  9
$DIMTXSTY
  7
STANDARD
  9
$DIMAUNIT
 70
     0
  9
$DIMADEC
 70
     0
  9
$DIMALTRND
 40
0.0
  9
$DIMAZIN
 70
     0
  9
$DIMDSEP
 70
    46
  9
$DIMATFIT
 70
     3
  9
$DIMFRAC
 70
     0
  9
$DIMLDRBLK
  1

  9
$DIMLUNIT
 70
     2
  9
$DIMLWD
 70
    -2
  9
$DIMLWE
 70
    -2
  9
$DIMTMOVE
 70
     0
  9
$LUNITS
 70
     2
  9
$LUPREC
 70
     2
  9
$SKETCHINC
 40
1.0
  9
$FILLETRAD
 40
0.000001
  9
$AUNITS
 70
     0
  9
$AUPREC
 70
     0
  9
$MENU
  1
.
  9
$ELEVATION
 40
0.0
  9
$PELEVATION
 40
0.0
  9
$THICKNESS
 40
0.0
  9
$LIMCHECK
 70
     0
  9
$CHAMFERA
 40
0.00001
  9
$CHAMFERB
 40
0.000001
  9
$CHAMFERC
 40
20.0
  9
$CHAMFERD
 40
0.0
  9
$SKPOLY
 70
     0
  9
$TDCREATE
 40
2452529.337524780
  9
$TDUCREATE
 40
2452529.295858114
  9
$TDUPDATE
 40
2454104.692753414
  9
$TDUUPDATE
 40
2454104.651086748
  9
$TDINDWG
 40
0.0878629051
  9
$TDUSRTIMER
 40
0.0878627894
  9
$USRTIMER
 70
     1
  9
$ANGBASE
 50
0.0
  9
$ANGDIR
 70
     0
  9
$PDMODE
 70
     0
  9
$PDSIZE
 40
0.0
  9
$PLINEWID
 40
0.0
  9
$SPLFRAME
 70
     0
  9
$SPLINETYPE
 70
     6
  9
$SPLINESEGS
 70
     8
  9
$HANDSEED
  5
1465
  9
$SURFTAB1
 70
     6
  9
$SURFTAB2
 70
     6
  9
$SURFTYPE
 70
     6
  9
$SURFU
 70
     6
  9
$SURFV
 70
     6
  9
$UCSBASE
  2

  9
$UCSNAME
  2

  9
$UCSORG
 10
0.0
 20
0.0
 30
0.0
  9
$UCSXDIR
 10
1.0
 20
0.0
 30
0.0
  9
$UCSYDIR
 10
0.0
 20
1.0
 30
0.0
  9
$UCSORTHOREF
  2

  9
$UCSORTHOVIEW
 70
     0
  9
$UCSORGTOP
 10
0.0
 20
0.0
 30
0.0
  9
$UCSORGBOTTOM
 10
0.0
 20
0.0
 30
0.0
  9
$UCSORGLEFT
 10
0.0
 20
0.0
 30
0.0
  9
$UCSORGRIGHT
 10
0.0
 20
0.0
 30
0.0
  9
$UCSORGFRONT
 10
0.0
 20
0.0
 30
0.0
  9
$UCSORGBACK
 10
0.0
 20
0.0
 30
0.0
  9
$PUCSBASE
  2

  9
$PUCSNAME
  2

  9
$PUCSORG
 10
0.0
 20
0.0
 30
0.0
  9
$PUCSXDIR
 10
1.0
 20
0.0
 30
0.0
  9
$PUCSYDIR
 10
0.0
 20
1.0
 30
0.0
  9
$PUCSORTHOREF
  2

  9
$PUCSORTHOVIEW
 70
     0
  9
$PUCSORGTOP
 10
0.0
 20
0.0
 30
0.0
  9
$PUCSORGBOTTOM
 10
0.0
 20
0.0
 30
0.0
  9
$PUCSORGLEFT
 10
0.0
 20
0.0
 30
0.0
  9
$PUCSORGRIGHT
 10
0.0
 20
0.0
 30
0.0
  9
$PUCSORGFRONT
 10
0.0
 20
0.0
 30
0.0
  9
$PUCSORGBACK
 10
0.0
 20
0.0
 30
0.0
  9
$USERI1
 70
     0
  9
$USERI2
 70
     0
  9
$USERI3
 70
     0
  9
$USERI4
 70
     0
  9
$USERI5
 70
     0
  9
$USERR1
 40
0.0
  9
$USERR2
 40
0.0
  9
$USERR3
 40
0.0
  9
$USERR4
 40
0.0
  9
$USERR5
 40
0.0
  9
$WORLDVIEW
 70
     1
  9
$SHADEDGE
 70
     3
  9
$SHADEDIF
 70
    70
  9
$TILEMODE
 70
     1
  9
$MAXACTVP
 70
    48
  9
$PINSBASE
 10
0.0
 20
0.0
 30
0.0
  9
$PLIMCHECK
 70
     0
  9
$PEXTMIN
 10
1.000000000000000E+20
 20
1.000000000000000E+20
 30
1.000000000000000E+20
  9
$PEXTMAX
 10
-1.000000000000000E+20
 20
-1.000000000000000E+20
 30
-1.000000000000000E+20
  9
$PLIMMIN
 10
-4.23333740234375
 20
-4.233333110809326
  9
$PLIMMAX
 10
415.7133178710936
 20
292.6926617622375
  9
$UNITMODE
 70
     0
  9
$VISRETAIN
 70
     1
  9
$PLINEGEN
 70
     0
  9
$PSLTSCALE
 70
     1
  9
$TREEDEPTH
 70
  3020
  9
$CMLSTYLE
  2
STANDARD
  9
$CMLJUST
 70
     0
  9
$CMLSCALE
 40
20.0
  9
$PROXYGRAPHICS
 70
     1
  9
$MEASUREMENT
 70
     1
  9
$CELWEIGHT
370
    -1
  9
$ENDCAPS
280
     0
  9
$JOINSTYLE
280
     0
  9
$LWDISPLAY
290
     0
  9
$INSUNITS
 70
     0
  9
$HYPERLINKBASE
  1

  9
$STYLESHEET
  1

  9
$XEDIT
290
     1
  9
$CEPSNTYPE
380
     0
  9
$PSTYLEMODE
290
     1
  9
$FINGERPRINTGUID
  2
{3C724BF0-DBFA-44B6-AE5B-B18D7F84E0A5}
  9
$VERSIONGUID
  2
{F04638D8-BEC5-4371-B0B9-2AED7BF84A5A}
  9
$EXTNAMES
290
     1
  9
$PSVPSCALE
 40
0.0
  9
$OLESTARTUP
290
     0
  0
ENDSEC
  0
SECTION
  2
CLASSES
  0
CLASS
  1
DICTIONARYVAR
  2
AcDbDictionaryVar
  3
ObjectDBX Classes
 90
        0
280
     0
281
     0
  0
CLASS
  1
ACDBDICTIONARYWDFLT
  2
AcDbDictionaryWithDefault
  3
ObjectDBX Classes
 90
        0
280
     0
281
     0
  0
CLASS
  1
TABLESTYLE
  2
AcDbTableStyle
  3
ObjectDBX Classes
 90
     2047
280
     0
281
     0
  0
CLASS
  1
ACME_DOCUMENT
  2
AcMeDbDoc
  3
AcMeServices
 90
        0
280
     0
281
     0
  0
CLASS
  1
AMGSETTINGSOBJ
  2
AmgSettingsObj
  3
"AcadM|Product Description: AutoCAD Mechanical 2000|Company: Autodesk"
 90
        0
280
     0
281
     0
  0
CLASS
  1
ACMESCOPE
  2
AcMeScope
  3
AcMeServices
 90
        0
280
     0
281
     0
  0
CLASS
  1
ACMECOMMANDHISTORY
  2
AcMeCommandHistory
  3
AcMeServices
 90
        0
280
     0
281
     0
  0
CLASS
  1
ACIMSYSVARMAN
  2
AcImSysVarManager
  3
AcMeServices
 90
        0
280
     0
281
     0
  0
CLASS
  1
ACIMINTSYSVAR
  2
AcImIntSysVar
  3
AcMeServices
 90
        0
280
     0
281
     0
  0
CLASS
  1
ACMEDRAWINGMAN
  2
AcMeDrawingMan
  3
AcMeServices
 90
        0
280
     0
281
     0
  0
CLASS
  1
ACMEVIEW
  2
AcMeView
  3
AcMeServices
 90
        0
280
     0
281
     0
  0
CLASS
  1
ACDBENTITYCACHE
  2
AcMeEntityCache
  3
AcMeServices
 90
        0
280
     0
281
     0
  0
CLASS
  1
GSMANAGER
  2
AcMeGSManager
  3
AcMeServices
 90
        0
280
     0
281
     0
  0
CLASS
  1
AMDTINTERNALREACTOR
  2
AmdtInternalReactor
  3
AcMeServices
 90
        0
280
     0
281
     0
  0
CLASS
  1
ACMESTATEMGR
  2
AcMeStateMgr
  3
AcMeServices
 90
        0
280
     0
281
     0
  0
CLASS
  1
ACGREFMASTER
  2
AcGrefMaster
  3
AcAttribServices
 90
        0
280
     0
281
     0
  0
CLASS
  1
AM_DRAWING_MGR
  2
AcDmDwgMgr
  3
AcMechDwgViewMgmt
 90
        0
280
     0
281
     0
  0
CLASS
  1
AM_DWG_DOCUMENT
  2
AcDmDwgDocument
  3
AcMechDwgViewMgmt
 90
        0
280
     0
281
     0
  0
CLASS
  1
AM_DWG_SHEET
  2
AcDmSheet
  3
AcMechDwgViewMgmt
 90
        0
280
     0
281
     0
  0
CLASS
  1
AM_VIEWDIMPARMAP
  2
AcDmViewDimParMap
  3
AcMechDwgViewMgmt
 90
        0
280
     0
281
     0
  0
CLASS
  1
ACIMREALSYSVAR
  2
AcImRealSysVar
  3
AcMeServices
 90
        0
280
     0
281
     0
  0
CLASS
  1
AM_DWGMGR_NAME
  2
AcDmDwgMgrName
  3
AcMechDwgViewMgmt
 90
        0
280
     0
281
     0
  0
CLASS
  1
ACME_DATABASE
  2
AcMeDbDatabase
  3
AcMeServices
 90
        0
280
     0
281
     0
  0
CLASS
  1
ACRFINSADJUSTERMGR
  2
AcRfInsAdjusterMgr
  3
AcMeServices
 90
        0
280
     0
281
     0
  0
CLASS
  1
ACGREFACADMASTER
  2
AcGrefacadMaster
  3
AcGrefServices
 90
        0
280
     0
281
     0
  0
CLASS
  1
AMDTMENUSTATEMGR
  2
AmdtMenuStateMgr
  3
McadcomServices
 90
        0
280
     0
281
     0
  0
CLASS
  1
AMDTMCOMMENUSTATE
  2
AmdtMcomMenuState
  3
McadcomServices
 90
        0
280
     0
281
     0
  0
CLASS
  1
AMIMASTER
  2
AmiMaster
  3
AmiServices
 90
        0
280
     0
281
     0
  0
CLASS
  1
MAPIAMMOUDLE
  2
MApiAmModule
  3
MApiAmServices
 90
        0
280
     0
281
     0
  0
CLASS
  1
ACIMSTRSYSVAR
  2
AcImStrSysVar
  3
AcMeServices
 90
        0
280
     0
281
     0
  0
CLASS
  1
AMDTADMENUSTATE
  2
AmdtAdMenuState
  3
DesignerServices
 90
        0
280
     0
281
     0
  0
CLASS
  1
ADAPPL
  2
AcAdAppl
  3
DesignerServices
 90
        0
280
     0
281
     0
  0
CLASS
  1
DEPMGR
  2
AcAdDepMgr
  3
DesignerServices
 90
        0
280
     0
281
     0
  0
CLASS
  1
PARAMMGR
  2
AcAdParamMgr
  3
DesignerServices
 90
        0
280
     0
281
     0
  0
CLASS
  1
PARAMSCOPE
  2
AcAdParamScope
  3
DesignerServices
 90
        0
280
     0
281
     0
  0
CLASS
  1
NAMEDAPPL
  2
AcAdNamedAppl
  3
DesignerServices
 90
        0
280
     0
281
     0
  0
CLASS
  1
AMDTDMMENUSTATE
  2
AmdtDmMenuState
  3
AcMechDwgViewMgmt
 90
        0
280
     0
281
     0
  0
CLASS
  1
AMDTAMMENUSTATE
  2
AmdtAmMenuState
  3
DesignerAssemblies
 90
        0
280
     0
281
     0
  0
CLASS
  1
ACAMPROJECT
  2
AcAmProject
  3
DesignerAssemblies
 90
        0
280
     0
281
     0
  0
CLASS
  1
ACAMGRCOMPDEF
  2
AcAmGrCompDef
  3
DesignerAssemblies
 90
        0
280
     0
281
     0
  0
CLASS
  1
ACCMCONTEXT
  2
AcCmContext
  3
DesignerAssemblies
 90
        0
280
     0
281
     0
  0
CLASS
  1
ACAMCOMPDEF
  2
AcAmCompDef
  3
DesignerAssemblies
 90
        0
280
     0
281
     0
  0
CLASS
  1
ACAMCOMPDEFMGR
  2
AcAmCompDefMgr
  3
DesignerAssemblies
 90
        0
280
     0
281
     0
  0
CLASS
  1
AMCONTEXTMGR
  2
AcAmContextMgr
  3
DesignerAssemblies
 90
        0
280
     0
281
     0
  0
CLASS
  1
ACAMCONTEXTMODELER
  2
AcAmContextModeler
  3
DesignerAssemblies
 90
        0
280
     0
281
     0
  0
CLASS
  1
ACMDATADICTIONARY
  2
AcmDataDictionary
  3
"AcmSymBB|Product Description: AutoCAD Mechanical 2004 DX|Company: Autodesk"
 90
        0
280
     0
281
     0
  0
CLASS
  1
CATALOGSTATE
  2
AcAmCatalogState
  3
DesignerAssemblies
 90
        0
280
     0
281
     0
  0
CLASS
  1
ACAMGRCOMPDEFSET
  2
AcAmGrCompDefSet
  3
DesignerAssemblies
 90
        0
280
     0
281
     0
  0
CLASS
  1
AMDTBROWSERDBTAB
  2
AmdtBrowserDbTab
  3
McadcomServices
 90
        0
280
     0
281
     0
  0
CLASS
  1
CBROWSERAPPOBJECT
  2
CBrowserAppObject
  3
McadcomServices
 90
        0
280
     0
281
     0
  0
CLASS
  1
DM_PLACEHOLDER
  2
AcDmSelsetPlaceholder
  3
AcMechDwgViewMgmt
 90
        0
280
     0
281
     0
  0
CLASS
  1
ACMSTANDARDDIN
  2
AcmStandardDIN
  3
"Amdt_StdImp|Product Description: AutoCAD Mechanical 2004 DX|Company: Autodesk"
 90
        0
280
     0
281
     0
  0
CLASS
  1
AMGOBJPROPCFG
  2
AmgObjPropCfg
  3
"AmgLay|Product Description: AutoCAD Mechanical 2000|Company: Autodesk"
 90
        1
280
     0
281
     0
  0
CLASS
  1
AMDTEDGESTANDARDDIN13715
  2
AmdtEdgeStdDIN13715
  3
"Amdt_StdImp|Product Description: AutoCAD Mechanical 2004 DX|Company: Autodesk"
 90
        0
280
     0
281
     0
  0
CLASS
  1
ACMSURFSTANDARDDIN
  2
AcmSurfTextStdDIN
  3
"Amdt_StdImp|Product Description: AutoCAD Mechanical 2004 DX|Company: Autodesk"
 90
        0
280
     0
281
     0
  0
CLASS
  1
ACMFCFSTANDARDDIN
  2
AcmFCFStdDIN
  3
"Amdt_StdImp|Product Description: AutoCAD Mechanical 2004 DX|Company: Autodesk"
 90
        0
280
     0
281
     0
  0
CLASS
  1
ACMWELDSTANDARDDIN
  2
AcmWeldingStdDIN
  3
"Amdt_StdImp|Product Description: AutoCAD Mechanical 2004 DX|Company: Autodesk"
 90
        0
280
     0
281
     0
  0
CLASS
  1
ACMIDSTANDARDDIN
  2
AcmIdStdDIN
  3
"Amdt_StdImp|Product Description: AutoCAD Mechanical 2004 DX|Company: Autodesk"
 90
        0
280
     0
281
     0
  0
CLASS
  1
ACMDATUMSTANDARDDIN
  2
AcmDatumStdDIN
  3
"Amdt_StdImp|Product Description: AutoCAD Mechanical 2004 DX|Company: Autodesk"
 90
        0
280
     0
281
     0
  0
CLASS
  1
ACMBOMSTANDARDDIN
  2
AcmBOMStdDIN
  3
"Amdt_StdImp|Product Description: AutoCAD Mechanical 2004 DX|Company: Autodesk"
 90
        0
280
     0
281
     0
  0
CLASS
  1
ACMDETAILSTANDARDDIN
  2
AmdtDetailSymStdDIN
  3
"Amdt_StdImp|Product Description: AutoCAD Mechanical 2004 DX|Company: Autodesk"
 90
        0
280
     0
281
     0
  0
CLASS
  1
ACMSECTIONSTANDARDDIN
  2
AmdtSectionSymStdDIN
  3
"Amdt_StdImp|Product Description: AutoCAD Mechanical 2004 DX|Company: Autodesk"
 90
        0
280
     0
281
     0
  0
CLASS
  1
ACMCENTERLINESTANDARDDIN
  2
AmdtCenterLineStdDIN
  3
"Amdt_StdImp|Product Description: AutoCAD Mechanical 2004 DX|Company: Autodesk"
 90
        0
280
     0
281
     0
  0
CLASS
  1
ACMTHREADLINESTANDARDDIN
  2
AmdtThreadLineStdDIN
  3
"Amdt_StdImp|Product Description: AutoCAD Mechanical 2004 DX|Company: Autodesk"
 90
        0
280
     0
281
     0
  0
CLASS
  1
ACMNOTESTANDARDDIN
  2
AmdtNoteStdDIN
  3
"Amdt_StdImp|Product Description: AutoCAD Mechanical 2004 DX|Company: Autodesk"
 90
        0
280
     0
281
     0
  0
CLASS
  1
AMDTNOTETEMPLATEDB
  2
AmdtNoteTemplateDB
  3
AMDT_STDIMP_MODULE_NAME
 90
        0
280
     0
281
     0
  0
CLASS
  1
ACAMGLAYSTD
  2
AcAmgLayStd
  3
"AcAmgLayStd|Product Description: AutoCAD Mechanical 2000|Company: Autodesk"
 90
        0
280
     0
281
     0
  0
CLASS
  1
ACAMGDIMSTD
  2
AcAmgDimStd
  3
"AcAmgDimStd|Product Description: AutoCAD Mechanical 2000|Company: Autodesk"
 90
        0
280
     0
281
     0
  0
CLASS
  1
ACAMGHOLECHARTSTDDIN
  2
AcAmgHoleChartStdDIN
  3
ACMSYMBB_MODULE_NAME
 90
        0
280
     0
281
     0
  0
CLASS
  1
ACAMGTITLESTD
  2
AcAmgTitleStd
  3
"TITLEAPP"
 90
        0
280
     0
281
     0
  0
CLASS
  1
ACAMGFILTERDAT
  2
AcAmgFilterDat
  3
"AcadM|Product Description: AutoCAD Mechanical 2000|Company: Autodesk"
 90
    32768
280
     0
281
     0
  0
CLASS
  1
ACMDATAENTRYBLOCK
  2
AcmDataEntryBlock
  3
"AcmSymBB|Product Description: AutoCAD Mechanical 2004 DX|Company: Autodesk"
 90
    32768
280
     0
281
     0
  0
CLASS
  1
SORTENTSTABLE
  2
AcDbSortentsTable
  3
ObjectDBX Classes
 90
        0
280
     0
281
     0
  0
CLASS
  1
STDPART2D
  2
AmgStdPart
  3
"AmgStdPart|Product Description: AutoCAD Mechanical 2000|Company: Autodesk"
 90
    33791
280
     0
281
     1
  0
CLASS
  1
ACAMSTDPCOMPDEF
  2
AcAmStdpCompDef
  3
DesignerAssemblies
 90
    32768
280
     0
281
     0
  0
CLASS
  1
ACRFATTGENMGR
  2
AcRfAttGeneralMgr
  3
AcAttribServices
 90
    32768
280
     0
281
     0
  0
CLASS
  1
ACRFOBJATTMGR
  2
AcRfObjAttGroupMgr
  3
AcAttribServices
 90
    32768
280
     0
281
     0
  0
CLASS
  1
ACRFMCADAPIATTHOLDER
  2
AcRfMCADAPIAttHolder
  3
AcAttribServices
 90
    32768
280
     0
281
     0
  0
CLASS
  1
AMDTSYSATTR
  2
AmdtSystemAttribute
  3
AcAttribServices
 90
    32768
280
     0
281
     0
  0
CLASS
  1
ACAMCOMP
  2
AcAmComp
  3
DesignerAssemblies
 90
    32768
280
     0
281
     0
  0
CLASS
  1
AC_AM_STDP_VIEW_DEF
  2
AcAmStdpViewDef
  3
DesignerAssemblies
 90
    32768
280
     0
281
     0
  0
CLASS
  1
AC_AM_MVD_DEP_MGR
  2
AcAmMVDdepMgr
  3
DesignerAssemblies
 90
    32768
280
     0
281
     0
  0
CLASS
  1
AC_AM_MASTER_VIEW_DEF
  2
AcAmMasterViewDef
  3
DesignerAssemblies
 90
    32768
280
     0
281
     0
  0
CLASS
  1
AC_AM_DIRTY_NODES
  2
AcAmDirtyNodes
  3
DesignerAssemblies
 90
    32768
280
     0
281
     0
  0
CLASS
  1
AC_AM_MAPPER_CACHE
  2
AcAmMapperCache
  3
DesignerAssemblies
 90
    32768
280
     0
281
     0
  0
CLASS
  1
ACAMMVDBACKUPOBJECT
  2
AcAmMVDBackupObject
  3
DesignerAssemblies
 90
    32768
280
     0
281
     0
  0
CLASS
  1
AC_AM_COMP_VIEW_INST
  2
AcAmCompView
  3
DesignerAssemblies
 90
    32768
280
     0
281
     0
  0
CLASS
  1
AC_AM_2D_XREF_MGR
  2
AcAmXrefMgr2d
  3
DesignerAssemblies
 90
    32768
280
     0
281
     0
  0
CLASS
  1
AC_AM_HIDE_SITUATION
  2
AcAmHideSituation
  3
DesignerAssemblies
 90
    32768
280
     0
281
     0
  0
CLASS
  1
ACDBPLACEHOLDER
  2
AcDbPlaceHolder
  3
ObjectDBX Classes
 90
        0
280
     0
281
     0
  0
CLASS
  1
LAYOUT
  2
AcDbLayout
  3
ObjectDBX Classes
 90
        0
280
     0
281
     0
  0
ENDSEC
  0
SECTION
  2
TABLES
  0
TABLE
  2
VPORT
  5
8
330
0
100
AcDbSymbolTable
 70
     4
  0
VPORT
  5
145D
330
8
100
AcDbSymbolTableRecord
100
AcDbViewportTableRecord
  2
*Active
 70
     0
 10
0.0
 20
0.0
 11
1.0
 21
1.0
 12
307.3522752314233
 22
207.8029671858643
 13
0.0
 23
0.0
 14
1.0
 24
1.0
 15
10.0
 25
10.0
 16
0.0
 26
0.0
 36
1.0
 17
0.0
 27
0.0
 37
0.0
 40
197.7758045526575
 41
1.501827040194884
 42
50.0
 43
0.0
 44
0.0
 50
0.0
 51
0.0
 71
     0
 72
   100
 73
     1
 74
     1
 75
     0
 76
     0
 77
     0
 78
     0
281
     0
 65
     0
110
0.0
120
0.0
130
0.0
111
1.0
121
0.0
131
0.0
112
0.0
122
1.0
132
0.0
 79
     0
146
0.0
  0
ENDTAB
  0
TABLE
  2
LTYPE
  5
5
330
0
100
AcDbSymbolTable
 70
    25
  0
LTYPE
  5
12
330
5
100
AcDbSymbolTableRecord
100
AcDbLinetypeTableRecord
  2
BYBLOCK
 70
     0
  3

 72
    65
 73
     0
 40
0.0
  0
LTYPE
  5
13
330
5
100
AcDbSymbolTableRecord
100
AcDbLinetypeTableRecord
  2
BYLAYER
 70
     0
  3

 72
    65
 73
     0
 40
0.0
  0
LTYPE
  5
14
330
5
100
AcDbSymbolTableRecord
100
AcDbLinetypeTableRecord
  2
CONTINUOUS
 70
     0
  3
Solid line
 72
    65
 73
     0
 40
0.0
  0
LTYPE
  5
4A8
330
5
100
AcDbSymbolTableRecord
100
AcDbLinetypeTableRecord
  2
GEN3A
 70
     0
  3
 - - - - -
 72
    65
 73
     2
 40
3.125
 49
2.25
 74
     0
 49
-0.875
 74
     0
  0
LTYPE
  5
4A9
330
5
100
AcDbSymbolTableRecord
100
AcDbLinetypeTableRecord
  2
GEN7A
 70
     0
  3
__ . __ . __
 72
    65
 73
     4
 40
6.875
 49
4.75
 74
     0
 49
-0.875
 74
     0
 49
0.375
 74
     0
 49
-0.875
 74
     0
  0
LTYPE
  5
C72
330
5
100
AcDbSymbolTableRecord
100
AcDbLinetypeTableRecord
  2
GEN3
 70
     0
  3
-- -- -- -- -- -- -- -- -- -- -- -- -- -- --
 72
    65
 73
     2
 40
6.25
 49
4.75
 74
     0
 49
-1.5
 74
     0
  0
LTYPE
  5
D53
330
5
100
AcDbSymbolTableRecord
100
AcDbLinetypeTableRecord
  2
HIDDEN
 70
     0
  3
Verdeckt
 72
    65
 73
     2
 40
9.525
 49
6.349999999999998
 74
     0
 49
-3.174999999999998
 74
     0
  0
LTYPE
  5
D54
330
5
100
AcDbSymbolTableRecord
100
AcDbLinetypeTableRecord
  2
PHANTOM2
 70
     0
  3
Phantom (.5x) ___ _ _ ___ _ _ ___ _ _ ___ _ _
 72
    65
 73
     6
 40
31.75
 49
15.875
 74
     0
 49
-3.174999999999998
 74
     0
 49
3.174999999999998
 74
     0
 49
-3.174999999999998
 74
     0
 49
3.174999999999998
 74
     0
 49
-3.174999999999998
 74
     0
  0
LTYPE
  5
D55
330
5
100
AcDbSymbolTableRecord
100
AcDbLinetypeTableRecord
  2
CENTER
 70
     0
  3
Mitte ____ _ ____ _ ____ _ ____ _ ____ _ ____
 72
    65
 73
     4
 40
50.8
 49
31.75
 74
     0
 49
-6.349999999999998
 74
     0
 49
6.349999999999998
 74
     0
 49
-6.349999999999998
 74
     0
  0
LTYPE
  5
D89
330
5
100
AcDbSymbolTableRecord
100
AcDbLinetypeTableRecord
  2
AM_ISO02W050
 70
     0
  3
__ __ __ __ __ __ __ __ __ __ __ __ __ __ __
 72
    65
 73
     2
 40
7.5
 49
6.0
 74
     0
 49
-1.5
 74
     0
  0
LTYPE
  5
D93
330
5
100
AcDbSymbolTableRecord
100
AcDbLinetypeTableRecord
  2
AM_DIN_G_W050
 70
     0
  3
____ . ____ . ____ . ____ . ____ . ____ . ____
 72
    65
 73
     4
 40
13.75
 49
9.75
 74
     0
 49
-1.5
 74
     0
 49
1.0
 74
     0
 49
-1.5
 74
     0
  0
LTYPE
  5
DA5
330
5
100
AcDbSymbolTableRecord
100
AcDbLinetypeTableRecord
  2
ACDINWELD
 70
     0
  3
_ _ _ _ _
 72
    65
 73
     2
 40
2.0
 49
2.0
 74
     0
 49
-1.0
 74
     0
  0
LTYPE
  5
DA6
330
5
100
AcDbSymbolTableRecord
100
AcDbLinetypeTableRecord
  2
ACDINTGB
 70
     0
  3
__ . . __ . .
 72
    65
 73
     6
 40
9.0
 49
4.0
 74
     0
 49
-1.0
 74
     0
 49
1.0
 74
     0
 49
-1.0
 74
     0
 49
1.0
 74
     0
 49
-1.0
 74
     0
  0
LTYPE
  5
DA7
330
5
100
AcDbSymbolTableRecord
100
AcDbLinetypeTableRecord
  2
ACDINTGL
 70
     0
  3
_ _ _ _ _
 72
    65
 73
     2
 40
3.0
 49
2.0
 74
     0
 49
-1.0
 74
     0
  0
LTYPE
  5
DE7
330
5
100
AcDbSymbolTableRecord
100
AcDbLinetypeTableRecord
  2
gen7
 70
     0
  3
____ . ____ . ____ . ____ . ____ . ____ . ____
 72
    65
 73
     4
 40
13.75
 49
9.75
 74
     0
 49
-1.5
 74
     0
 49
1.0
 74
     0
 49
-1.5
 74
     0
  0
LTYPE
  5
DE8
330
5
100
AcDbSymbolTableRecord
100
AcDbLinetypeTableRecord
  2
gen4a
 70
     0
  3
_____ . . _____ . . _____ . . ____ .. ____
 72
    65
 73
     6
 40
16.25
 49
9.75
 74
     0
 49
-1.5
 74
     0
 49
1.0
 74
     0
 49
-1.5
 74
     0
 49
1.0
 74
     0
 49
-1.5
 74
     0
  0
LTYPE
  5
DE9
330
5
100
AcDbSymbolTableRecord
100
AcDbLinetypeTableRecord
  2
genzigzag
 70
     0
  3
/\/-/\/-/\/-/\/-/\/-/\/
 72
    65
 73
     2
 40
12.0001
 49
0.0001
 74
     4
 75
   135
340
D90
 46
2.0
 50
0.0
 44
0.0
 45
0.0
 49
-12.0
 74
     0
  0
LTYPE
  5
1407
330
5
100
AcDbSymbolTableRecord
100
AcDbLinetypeTableRecord
  2
AM_ISO08W050
 70
     0
  3
____ . ____ . ____ . ____ . ____ . ____ . ____
 72
    65
 73
     4
 40
18.0
 49
12.0
 74
     0
 49
-1.5
 74
     0
 49
3.0
 74
     0
 49
-1.5
 74
     0
  0
LTYPE
  5
1408
330
5
100
AcDbSymbolTableRecord
100
AcDbLinetypeTableRecord
  2
AM_ISO09W050
 70
     0
  3
_____ . . _____ . . _____ . . ____ .. ____
 72
    65
 73
     6
 40
22.5
 49
12.0
 74
     0
 49
-1.5
 74
     0
 49
3.0
 74
     0
 49
-1.5
 74
     0
 49
3.0
 74
     0
 49
-1.5
 74
     0
  0
LTYPE
  5
1409
330
5
100
AcDbSymbolTableRecord
100
AcDbLinetypeTableRecord
  2
Amconstr
 70
     0
  3
_______________________
 72
    65
 73
     2
 40
9999.0
 49
9999.0
 74
     0
 49
0.0
 74
     0
  0
LTYPE
  5
140A
330
5
100
AcDbSymbolTableRecord
100
AcDbLinetypeTableRecord
  2
AM_ISO08W050x2
 70
     0
  3
__ . __ . __ . __ . __ . __
 72
    65
 73
     4
 40
9.0
 49
6.0
 74
     0
 49
-0.75
 74
     0
 49
1.5
 74
     0
 49
-0.75
 74
     0
  0
LTYPE
  5
140B
330
5
100
AcDbSymbolTableRecord
100
AcDbLinetypeTableRecord
  2
AM_ISO02W050x2
 70
     0
  3
 _ _ _ _ _ _ _ _ _ _ _ _
 72
    65
 73
     2
 40
3.75
 49
3.0
 74
     0
 49
-0.75
 74
     0
  0
LTYPE
  5
140C
330
5
100
AcDbSymbolTableRecord
100
AcDbLinetypeTableRecord
  2
Amzigzag
 70
     0
  3
/\/-/\/-/\/-/\/-/\/-/\/
 72
    65
 73
     2
 40
11.0001
 49
0.0001
 74
     4
 75
   136
340
D90
 46
0.04
 50
0.0
 44
0.0
 45
0.0
 49
-11.0
 74
     0
  0
LTYPE
  5
140D
330
5
100
AcDbSymbolTableRecord
100
AcDbLinetypeTableRecord
  2
AM_DIN_F_W050
 70
     0
  3
__ __ __ __ __ __ __ __ __ __ __ __ __ __ __
 72
    65
 73
     2
 40
6.25
 49
4.75
 74
     0
 49
-1.5
 74
     0
  0
LTYPE
  5
140E
330
5
100
AcDbSymbolTableRecord
100
AcDbLinetypeTableRecord
  2
AM_DIN_K_W050
 70
     0
  3
_____ . . _____ . . _____ . . ____ .. ____
 72
    65
 73
     6
 40
16.25
 49
9.75
 74
     0
 49
-1.5
 74
     0
 49
1.0
 74
     0
 49
-1.5
 74
     0
 49
1.0
 74
     0
 49
-1.5
 74
     0
  0
LTYPE
  5
140F
330
5
100
AcDbSymbolTableRecord
100
AcDbLinetypeTableRecord
  2
AM_DIN_G_W050x2
 70
     0
  3
__ . __ . __ . __ . __ . __
 72
    65
 73
     4
 40
6.875
 49
4.75
 74
     0
 49
-0.875
 74
     0
 49
0.375
 74
     0
 49
-0.875
 74
     0
  0
LTYPE
  5
1410
330
5
100
AcDbSymbolTableRecord
100
AcDbLinetypeTableRecord
  2
AM_DIN_F_W050x2
 70
     0
  3
 _ _ _ _ _ _ _ _ _ _ _ _
 72
    65
 73
     2
 40
3.125
 49
2.25
 74
     0
 49
-0.875
 74
     0
  0
ENDTAB
  0
TABLE
  2
LAYER
  5
2
330
0
100
AcDbSymbolTable
 70
    11
  0
LAYER
  5
E
330
2
100
AcDbSymbolTableRecord
100
AcDbLayerTableRecord
  2
0
 70
     0
 62
     7
  6
CONTINUOUS
370
    -3
390
D12
  0
LAYER
  5
24
330
2
100
AcDbSymbolTableRecord
100
AcDbLayerTableRecord
  2
5
 70
     0
 62
     3
  6
CONTINUOUS
370
    -3
390
D12
  0
LAYER
  5
7C
330
2
100
AcDbSymbolTableRecord
100
AcDbLayerTableRecord
  2
DEFPOINTS
 70
     0
 62
     7
  6
CONTINUOUS
290
     0
370
    -3
390
D12
  0
LAYER
  5
4AB
330
2
100
AcDbSymbolTableRecord
100
AcDbLayerTableRecord
  2
4
 70
     0
 62
     3
  6
CONTINUOUS
370
    -3
390
D12
  0
LAYER
  5
4AD
330
2
100
AcDbSymbolTableRecord
100
AcDbLayerTableRecord
  2
7A
 70
     0
 62
     4
  6
GEN7A
370
    -3
390
D12
  0
LAYER
  5
4AE
330
2
100
AcDbSymbolTableRecord
100
AcDbLayerTableRecord
  2
8
 70
     0
 62
     1
  6
CONTINUOUS
370
    -3
390
D12
  0
LAYER
  5
4B0
330
2
100
AcDbSymbolTableRecord
100
AcDbLayerTableRecord
  2
BEMASS
 70
     0
 62
     3
  6
CONTINUOUS
370
    -3
390
D12
  0
LAYER
  5
11F5
330
2
100
AcDbSymbolTableRecord
100
AcDbLayerTableRecord
  2
0N
 70
     0
 62
     7
  6
CONTINUOUS
370
    -3
390
D12
1001
AcAecLayerStandard
1000

1000

  0
LAYER
  5
11FE
330
2
100
AcDbSymbolTableRecord
100
AcDbLayerTableRecord
  2
4N
 70
     0
 62
     3
  6
CONTINUOUS
370
    -3
390
D12
1001
AcAecLayerStandard
1000

1000

  0
LAYER
  5
11FF
330
2
100
AcDbSymbolTableRecord
100
AcDbLayerTableRecord
  2
7AN
 70
     0
 62
     4
  6
GEN7A
370
    -3
390
D12
1001
AcAecLayerStandard
1000

1000

  0
LAYER
  5
1200
330
2
100
AcDbSymbolTableRecord
100
AcDbLayerTableRecord
  2
9
 70
     0
 62
  -253
  6
CONTINUOUS
370
    -3
390
D12
1001
AcAecLayerStandard
1000

1000

  0
ENDTAB
  0
TABLE
  2
STYLE
  5
3
330
0
100
AcDbSymbolTable
 70
     4
  0
STYLE
  5
F
330
3
100
AcDbSymbolTableRecord
100
AcDbTextStyleTableRecord
  2
STANDARD
 70
     0
 40
0.0
 41
1.0
 50
0.0
 71
     0
 42
3.5
  3
ISOCP.SHX
  4

  0
STYLE
  5
D90
330
3
100
AcDbSymbolTableRecord
100
AcDbTextStyleTableRecord
  2

 70
     1
 40
0.0
 41
1.0
 50
0.0
 71
     0
 42
3.5
  3
genltshp.shx
  4

  0
STYLE
  5
D97
330
3
100
AcDbSymbolTableRecord
100
AcDbTextStyleTableRecord
  2
ACDINTS
 70
     0
 40
1.0
 41
1.0
 50
0.0
 71
     0
 42
3.5
  3
isocp.shx
  4

  0
STYLE
  5
DA4
330
3
100
AcDbSymbolTableRecord
100
AcDbTextStyleTableRecord
  2
ACDINGDT
 70
     0
 40
0.0
 41
1.0
 50
0.0
 71
     0
 42
3.5
  3
AMGDT
  4

  0
ENDTAB
  0
TABLE
  2
VIEW
  5
6
330
0
100
AcDbSymbolTable
 70
     6
  0
VIEW
  5
2AC
330
6
100
AcDbSymbolTableRecord
100
AcDbViewTableRecord
  2
GEN1
 70
     0
 40
148.5
 10
114.7390776699029
 20
222.75
 41
229.4781553398058
 11
0.0
 21
0.0
 31
1.0
 12
0.0
 22
0.0
 32
0.0
 42
50.0
 43
0.0
 44
0.0
 50
0.0
 71
     0
281
     0
 72
     0
  0
VIEW
  5
2AD
330
6
100
AcDbSymbolTableRecord
100
AcDbViewTableRecord
  2
GEN2
 70
     0
 40
148.5
 10
305.2609223300972
 20
222.75
 41
229.4781553398058
 11
0.0
 21
0.0
 31
1.0
 12
0.0
 22
0.0
 32
0.0
 42
50.0
 43
0.0
 44
0.0
 50
0.0
 71
     0
281
     0
 72
     0
  0
VIEW
  5
2AE
330
6
100
AcDbSymbolTableRecord
100
AcDbViewTableRecord
  2
GEN3
 70
     0
 40
148.5
 10
114.7390776699029
 20
74.25
 41
229.4781553398058
 11
0.0
 21
0.0
 31
1.0
 12
0.0
 22
0.0
 32
0.0
 42
50.0
 43
0.0
 44
0.0
 50
0.0
 71
     0
281
     0
 72
     0
  0
VIEW
  5
2AF
330
6
100
AcDbSymbolTableRecord
100
AcDbViewTableRecord
  2
GEN4
 70
     0
 40
148.5
 10
305.2609223300972
 20
74.25
 41
229.4781553398058
 11
0.0
 21
0.0
 31
1.0
 12
0.0
 22
0.0
 32
0.0
 42
50.0
 43
0.0
 44
0.0
 50
0.0
 71
     0
281
     0
 72
     0
  0
VIEW
  5
2B0
330
6
100
AcDbSymbolTableRecord
100
AcDbViewTableRecord
  2
GEN5
 70
     0
 40
148.5
 10
210.0
 20
148.5
 41
229.4781553398058
 11
0.0
 21
0.0
 31
1.0
 12
0.0
 22
0.0
 32
0.0
 42
50.0
 43
0.0
 44
0.0
 50
0.0
 71
     0
281
     0
 72
     0
  0
VIEW
  5
2B1
330
6
100
AcDbSymbolTableRecord
100
AcDbViewTableRecord
  2
GEN6
 70
     0
 40
296.99703
 10
210.0
 20
148.5
 41
458.9517211165047
 11
0.0
 21
0.0
 31
1.0
 12
0.0
 22
0.0
 32
0.0
 42
50.0
 43
0.0
 44
0.0
 50
0.0
 71
     0
281
     0
 72
     0
  0
ENDTAB
  0
TABLE
  2
UCS
  5
7
330
0
100
AcDbSymbolTable
 70
     0
  0
ENDTAB
  0
TABLE
  2
APPID
  5
9
330
0
100
AcDbSymbolTable
 70
    55
  0
APPID
  5
10
330
9
100
AcDbSymbolTableRecord
100
AcDbRegAppTableRecord
  2
ACAD
 70
     0
  0
APPID
  5
22
330
9
100
AcDbSymbolTableRecord
100
AcDbRegAppTableRecord
  2
GENIUS_GENCFG_13
 70
     0
1001
GENIUS_DUMCFG0_13
1000
DUM
1001
GENIUS_GENCFG0_13
1000
GEN@INFO_POS@XLATE
1001
GENIUS_GENCFG1_13
1000
GEN@INFO_POS
1001
GENIUS_GENCFG2_13
1000
GEN@LAYER@DEFS
1001
GENIUS_GENCFG3_13
1000
GEN@LAYER@ENTSORT
1001
GENIUS_GENCFG4_13
1000
GEN
1001
GENIUS_GEVCFG0_13
1000
GEV
1001
GENIUS_GENCFG5_13
1000
GEN@DIMENSION@GEN-ANSI-POS@I
1001
GENIUS_GENCFG6_13
1000
GEN@DIMENSION@GEN-ANSI-POS
  0
APPID
  5
68
330
9
100
AcDbSymbolTableRecord
100
AcDbRegAppTableRecord
  2
GENIUS_DUMCFG0_13
 70
     0
1001
GENIUS_GENCFG_13
1071
894627378
1000
68
1000
DUM
1070
     0
  0
APPID
  5
69
330
9
100
AcDbSymbolTableRecord
100
AcDbRegAppTableRecord
  2
GENIUS_GENCFG0_13
 70
     0
1001
GENIUS_GENCFG_13
1071
1060338376
1000
69
1000
GEN@INFO_POS@XLATE
1070
     9
1000
GenCfgObject
1000
GenCfgShort
1000
GenCfgReal
1000
GenCfgBool
1000
GenCfgString
1000
GenCfgDim
1000
GenCfgLayer
1000
GenCfgPoint
1000
GenCfgAttrInf
1000
INFOPOINTS
1070
     0
1002
{
1000
GENINF14
1070
     0
1002
{
1000
2GENINF
1070
     4
1000
2
1002
{
1002
}
1000
5GENINF
1070
     4
1000
5
1002
{
1002
}
1000
7GENINF
1070
     4
1000
7
1002
{
1002
}
1000
9GENINF
1070
     4
1000
9
1002
{
1002
}
1000
11GENINF
1070
     4
1000
11
1002
{
1002
}
1000
14GENINF
1070
     4
1000
14
1002
{
1002
}
1002
}
1000
GENINF13
1070
     0
1002
{
1000
2GENINF
1070
     4
1000
2
1002
{
1002
}
1000
3GENINF
1070
     4
1000
3
1002
{
1002
}
1000
4GENINF
1070
     4
1000
4
1002
{
1002
}
1000
5GENINF
1070
     4
1000
5
1002
{
1002
}
1000
6GENINF
1070
     4
1000
6
1002
{
1002
}
1000
7GENINF
1070
     4
1000
7
1002
{
1002
}
1000
8GENINF
1070
     4
1000
8
1002
{
1002
}
1000
9GENINF
1070
     4
1000
9
1002
{
1002
}
1000
10GENINF
1070
     4
1000
10
1002
{
1002
}
1000
11GENINF
1070
     4
1000
11
1002
{
1002
}
1000
12GENINF
1070
     4
1000
12
1002
{
1002
}
1000
13GENINF
1070
     4
1000
13
1002
{
1002
}
1000
14GENINF
1070
     4
1000
14
1002
{
1002
}
1000
15GENINF
1070
     4
1000
15
1002
{
1002
}
1000
16GENINF
1070
     4
1000
16
1002
{
1002
}
1000
17GENINF
1070
     4
1000
17
1002
{
1002
}
1000
18GENINF
1070
     4
1000
18
1002
{
1002
}
1000
19GENINF
1070
     4
1000
19
1002
{
1002
}
1000
20GENINF
1070
     4
1000
20
1002
{
1002
}
1000
21GENINF
1070
     4
1000
21
1002
{
1002
}
1000
22GENINF
1070
     4
1000
22
1002
{
1002
}
1000
23GENINF
1070
     4
1000
23
1002
{
1002
}
1000
24GENINF
1070
     4
1000
24
1002
{
1002
}
1000
0GENINF
1070
     4
1000
0
1002
{
1002
}
1002
}
1000
GENINFO
1070
     0
1002
{
1000
3GENINF
1070
     4
1000
3
1002
{
1002
}
1000
4GENINF
1070
     4
1000
4
1002
{
1002
}
1000
5GENINF
1070
     4
1000
5
1002
{
1002
}
1000
6GENINF
1070
     4
1000
6
1002
{
1002
}
1000
7GENINF
1070
     4
1000
7
1002
{
1002
}
1000
8GENINF
1070
     4
1000
8
1002
{
1002
}
1000
9GENINF
1070
     4
1000
9
1002
{
1002
}
1000
10GENINF
1070
     4
1000
10
1002
{
1002
}
1000
11GENINF
1070
     4
1000
11
1002
{
1002
}
1000
12GENINF
1070
     4
1000
12
1002
{
1002
}
1000
13GENINF
1070
     4
1000
13
1002
{
1002
}
1000
14GENINF
1070
     4
1000
14
1002
{
1002
}
1000
15GENINF
1070
     4
1000
15
1002
{
1002
}
1000
16GENINF
1070
     4
1000
16
1002
{
1002
}
1000
17GENINF
1070
     4
1000
17
1002
{
1002
}
1000
18GENINF
1070
     4
1000
18
1002
{
1002
}
1000
19GENINF
1070
     4
1000
19
1002
{
1002
}
1000
20GENINF
1070
     4
1000
20
1002
{
1002
}
1000
21GENINF
1070
     4
1000
21
1002
{
1002
}
1000
22GENINF
1070
     4
1000
22
1002
{
1002
}
1002
}
1000
DININFO
1070
     0
1002
{
1000
ST-NAME1
1070
     4
1000
5
1002
{
1002
}
1000
ST-NAME2
1070
     4
1000
6
1002
{
1002
}
1000
ST-NORM1
1070
     4
1000
7
1002
{
1002
}
1000
ST-NORM2
1070
     4
1000
8
1002
{
1002
}
1000
ST-MAT1
1070
     4
1000
9
1002
{
1002
}
1000
ST-MAT2
1070
     4
1000
10
1002
{
1002
}
1002
}
1002
}
1000
POS_NUMBERS
1070
     0
1002
{
1000
GENPOS14
1070
     0
1002
{
1000
1GENPOS
1070
     4
1000
1
1002
{
1002
}
1000
2GENPOS
1070
     4
1000
2
1002
{
1002
}
1000
5GENPOS
1070
     4
1000
5
1002
{
1002
}
1000
7GENPOS
1070
     4
1000
7
1002
{
1002
}
1000
9GENPOS
1070
     4
1000
9
1002
{
1002
}
1000
11GENPOS
1070
     4
1000
11
1002
{
1002
}
1000
14GENPOS
1070
     4
1000
14
1002
{
1002
}
1002
}
1000
GENPOS13
1070
     0
1002
{
1000
1GENPOS
1070
     4
1000
1
1002
{
1002
}
1000
2GENPOS
1070
     4
1000
2
1002
{
1002
}
1000
3GENPOS
1070
     4
1000
3
1002
{
1002
}
1000
4GENPOS
1070
     4
1000
4
1002
{
1002
}
1000
5GENPOS
1070
     4
1000
5
1002
{
1002
}
1000
6GENPOS
1070
     4
1000
6
1002
{
1002
}
1000
7GENPOS
1070
     4
1000
7
1002
{
1002
}
1000
8GENPOS
1070
     4
1000
8
1002
{
1002
}
1000
9GENPOS
1070
     4
1000
9
1002
{
1002
}
1000
10GENPOS
1070
     4
1000
10
1002
{
1002
}
1000
11GENPOS
1070
     4
1000
11
1002
{
1002
}
1000
12GENPOS
1070
     4
1000
12
1002
{
1002
}
1000
13GENPOS
1070
     4
1000
13
1002
{
1002
}
1000
14GENPOS
1070
     4
1000
14
1002
{
1002
}
1000
15GENPOS
1070
     4
1000
15
1002
{
1002
}
1000
16GENPOS
1070
     4
1000
16
1002
{
1002
}
1000
17GENPOS
1070
     4
1000
17
1002
{
1002
}
1000
18GENPOS
1070
     4
1000
18
1002
{
1002
}
1000
19GENPOS
1070
     4
1000
19
1002
{
1002
}
1000
20GENPOS
1070
     4
1000
20
1002
{
1002
}
1000
21GENPOS
1070
     4
1000
21
1002
{
1002
}
1000
22GENPOS
1070
     4
1000
22
1002
{
1002
}
1000
23GENPOS
1070
     4
1000
23
1002
{
1002
}
1000
24GENPOS
1070
     4
1000
24
1002
{
1002
}
1000
0GENPOS
1070
     4
1000
0
1002
{
1002
}
1002
}
1000
GENPOS
1070
     0
1002
{
1000
1GENPOS
1070
     4
1000
1
1002
{
1002
}
1000
2GENPOS
1070
     4
1000
2
1002
{
1002
}
1000
3GENPOS
1070
     4
1000
3
1002
{
1002
}
1000
4GENPOS
1070
     4
1000
4
1002
{
1002
}
1000
5GENPOS
1070
     4
1000
5
1002
{
1002
}
1000
6GENPOS
1070
     4
1000
6
1002
{
1002
}
1000
7GENPOS
1070
     4
1000
7
1002
{
1002
}
1000
8GENPOS
1070
     4
1000
8
1002
{
1002
}
1000
9GENPOS
1070
     4
1000
9
1002
{
1002
}
1000
10GENPOS
1070
     4
1000
10
1002
{
1002
}
1000
11GENPOS
1070
     4
1000
11
1002
{
1002
}
1000
12GENPOS
1070
     4
1000
12
1002
{
1002
}
1000
13GENPOS
1070
     4
1000
13
1002
{
1002
}
1000
14GENPOS
1070
     4
1000
14
1002
{
1002
}
1000
15GENPOS
1070
     4
1000
15
1002
{
1002
}
1000
16GENPOS
1070
     4
1000
16
1002
{
1002
}
1000
17GENPOS
1070
     4
1000
17
1002
{
1002
}
1000
18GENPOS
1070
     4
1000
18
1002
{
1002
}
1000
19GENPOS
1070
     4
1000
19
1002
{
1002
}
1000
20GENPOS
1070
     4
1000
20
1002
{
1002
}
1000
21GENPOS
1070
     4
1000
21
1002
{
1002
}
1000
22GENPOS
1070
     4
1000
22
1002
{
1002
}
1000
23GENPOS
1070
     4
1000
23
1002
{
1002
}
1002
}
1000
DIN985
1070
     0
1002
{
1000
POSITION
1070
     4
1000
1
1002
{
1002
}
1000
MENGE
1070
     4
1000
2
1002
{
1002
}
1000
BLATT
1070
     4
1000
3
1002
{
1002
}
1000
BENENN
1070
     4
1000
5
1002
{
1002
}
1000
BENENN2
1070
     4
1000
6
1002
{
1002
}
1000
NORM
1070
     4
1000
7
1002
{
1002
}
1000
NORM2
1070
     4
1000
8
1002
{
1002
}
1000
WERKSTOFF
1070
     4
1000
9
1002
{
1002
}
1000
WERKSTOFF2
1070
     4
1000
10
1002
{
1002
}
1002
}
1000
DIN986
1070
     0
1002
{
1000
POSITION
1070
     4
1000
1
1002
{
1002
}
1000
MENGE
1070
     4
1000
2
1002
{
1002
}
1000
BLATT
1070
     4
1000
3
1002
{
1002
}
1000
BENENN
1070
     4
1000
5
1002
{
1002
}
1000
BENENN2
1070
     4
1000
6
1002
{
1002
}
1000
NORM
1070
     4
1000
7
1002
{
1002
}
1000
NORM2
1070
     4
1000
8
1002
{
1002
}
1000
WERKSTOFF
1070
     4
1000
9
1002
{
1002
}
1000
WERKSTOFF2
1070
     4
1000
10
1002
{
1002
}
1002
}
1000
DIN987
1070
     0
1002
{
1000
POSITION
1070
     4
1000
1
1002
{
1002
}
1000
MENGE
1070
     4
1000
2
1002
{
1002
}
1000
BLATT
1070
     4
1000
3
1002
{
1002
}
1000
BENENN
1070
     4
1000
5
1002
{
1002
}
1000
BENENN2
1070
     4
1000
6
1002
{
1002
}
1000
NORM
1070
     4
1000
7
1002
{
1002
}
1000
NORM2
1070
     4
1000
8
1002
{
1002
}
1000
WERKSTOFF
1070
     4
1000
9
1002
{
1002
}
1000
WERKSTOFF2
1070
     4
1000
10
1002
{
1002
}
1002
}
1002
}
  0
APPID
  5
6A
330
9
100
AcDbSymbolTableRecord
100
AcDbRegAppTableRecord
  2
GENIUS_GENCFG1_13
 70
     0
1001
GENIUS_GENCFG_13
1071
1060338376
1000
6A
1000
GEN@INFO_POS
1070
     9
1000
GenCfgObject
1000
GenCfgShort
1000
GenCfgReal
1000
GenCfgBool
1000
GenCfgString
1000
GenCfgDim
1000
GenCfgLayer
1000
GenCfgPoint
1000
GenCfgAttrInf
1000
DescrText
1070
     4
1000
5, ,6, ,7, ,8
1002
{
1002
}
1000
DescrText2
1070
     4
1000
26
1002
{
1002
}
1000
VisibleAttr1
1070
     4
1000
1
1002
{
1002
}
1000
VisibleAttr2
1070
     4
1000
26
1002
{
1002
}
1000
UpdateBlock
1070
     3
1070
     1
1002
{
1002
}
1000
Attrib
1070
     0
1002
{
1000
0
1070
     8
1002
{
1000
Prompt
1070
     4
1000
(genmsg gendwg 103)
1002
{
1002
}
1000
Value
1070
     4
1000

1002
{
1002
}
1000
EditFlag
1070
     1
1070
     0
1002
{
1002
}
1000
PosInDDATTE
1070
     1
1070
    27
1002
{
1002
}
1000
FieldLen
1070
     1
1070
    -1
1002
{
1002
}
1002
}
1000
1
1070
     8
1002
{
1000
Prompt
1070
     4
1000
(genmsg gendwg 31)
1002
{
1002
}
1000
Value
1070
     4
1000
1
1002
{
1002
}
1000
EditFlag
1070
     1
1070
     1
1002
{
1002
}
1000
PosInDDATTE
1070
     1
1070
     1
1002
{
1002
}
1000
FieldLen
1070
     1
1070
    -1
1002
{
1002
}
1002
}
1000
2
1070
     8
1002
{
1000
Prompt
1070
     4
1000
(genmsg gendwg 32)
1002
{
1002
}
1000
Value
1070
     4
1000
1
1002
{
1002
}
1000
EditFlag
1070
     1
1070
     1
1002
{
1002
}
1000
PosInDDATTE
1070
     1
1070
     2
1002
{
1002
}
1000
FieldLen
1070
     1
1070
    -1
1002
{
1002
}
1002
}
1000
3
1070
     8
1002
{
1000
Prompt
1070
     4
1000
(genmsg gendwg 33)
1002
{
1002
}
1000
Value
1070
     4
1000

1002
{
1002
}
1000
EditFlag
1070
     1
1070
     1
1002
{
1002
}
1000
PosInDDATTE
1070
     1
1070
     3
1002
{
1002
}
1000
FieldLen
1070
     1
1070
    -1
1002
{
1002
}
1002
}
1000
4
1070
     8
1002
{
1000
Prompt
1070
     4
1000
(genmsg gendwg 34)
1002
{
1002
}
1000
Value
1070
     4
1000

1002
{
1002
}
1000
EditFlag
1070
     1
1070
     1
1002
{
1002
}
1000
PosInDDATTE
1070
     1
1070
     4
1002
{
1002
}
1000
FieldLen
1070
     1
1070
    -1
1002
{
1002
}
1002
}
1000
5
1070
     8
1002
{
1000
Prompt
1070
     4
1000
(genmsg gendwg 35)
1002
{
1002
}
1000
Value
1070
     4
1000

1002
{
1002
}
1000
EditFlag
1070
     1
1070
     1
1002
{
1002
}
1000
PosInDDATTE
1070
     1
1070
     5
1002
{
1002
}
1000
FieldLen
1070
     1
1070
    -1
1002
{
1002
}
1002
}
1000
6
1070
     8
1002
{
1000
Prompt
1070
     4
1000
(genmsg gendwg 36)
1002
{
1002
}
1000
Value
1070
     4
1000

1002
{
1002
}
1000
EditFlag
1070
     1
1070
     1
1002
{
1002
}
1000
PosInDDATTE
1070
     1
1070
     6
1002
{
1002
}
1000
FieldLen
1070
     1
1070
    -1
1002
{
1002
}
1002
}
1000
7
1070
     8
1002
{
1000
Prompt
1070
     4
1000
(genmsg gendwg 37)
1002
{
1002
}
1000
Value
1070
     4
1000

1002
{
1002
}
1000
EditFlag
1070
     1
1070
     1
1002
{
1002
}
1000
PosInDDATTE
1070
     1
1070
     7
1002
{
1002
}
1000
FieldLen
1070
     1
1070
    -1
1002
{
1002
}
1002
}
1000
8
1070
     8
1002
{
1000
Prompt
1070
     4
1000
(genmsg gendwg 38)
1002
{
1002
}
1000
Value
1070
     4
1000

1002
{
1002
}
1000
EditFlag
1070
     1
1070
     1
1002
{
1002
}
1000
PosInDDATTE
1070
     1
1070
     8
1002
{
1002
}
1000
FieldLen
1070
     1
1070
    -1
1002
{
1002
}
1002
}
1000
9
1070
     8
1002
{
1000
Prompt
1070
     4
1000
(genmsg gendwg 39)
1002
{
1002
}
1000
Value
1070
     4
1000

1002
{
1002
}
1000
EditFlag
1070
     1
1070
     1
1002
{
1002
}
1000
PosInDDATTE
1070
     1
1070
     9
1002
{
1002
}
1000
FieldLen
1070
     1
1070
    -1
1002
{
1002
}
1002
}
1000
10
1070
     8
1002
{
1000
Prompt
1070
     4
1000
(genmsg gendwg 40)
1002
{
1002
}
1000
Value
1070
     4
1000

1002
{
1002
}
1000
EditFlag
1070
     1
1070
     1
1002
{
1002
}
1000
PosInDDATTE
1070
     1
1070
    10
1002
{
1002
}
1000
FieldLen
1070
     1
1070
    -1
1002
{
1002
}
1002
}
1000
11
1070
     8
1002
{
1000
Prompt
1070
     4
1000
(genmsg gendwg 41)
1002
{
1002
}
1000
Value
1070
     4
1000

1002
{
1002
}
1000
EditFlag
1070
     1
1070
     1
1002
{
1002
}
1000
PosInDDATTE
1070
     1
1070
    11
1002
{
1002
}
1000
FieldLen
1070
     1
1070
    -1
1002
{
1002
}
1002
}
1000
12
1070
     8
1002
{
1000
Prompt
1070
     4
1000
(genmsg gendwg 42)
1002
{
1002
}
1000
Value
1070
     4
1000

1002
{
1002
}
1000
EditFlag
1070
     1
1070
     1
1002
{
1002
}
1000
PosInDDATTE
1070
     1
1070
    12
1002
{
1002
}
1000
FieldLen
1070
     1
1070
    -1
1002
{
1002
}
1002
}
1000
13
1070
     8
1002
{
1000
Prompt
1070
     4
1000
(genmsg gendwg 43)
1002
{
1002
}
1000
Value
1070
     4
1000

1002
{
1002
}
1000
EditFlag
1070
     1
1070
     1
1002
{
1002
}
1000
PosInDDATTE
1070
     1
1070
    13
1002
{
1002
}
1000
FieldLen
1070
     1
1070
    -1
1002
{
1002
}
1002
}
1000
14
1070
     8
1002
{
1000
Prompt
1070
     4
1000
(genmsg gendwg 44)
1002
{
1002
}
1000
Value
1070
     4
1000

1002
{
1002
}
1000
EditFlag
1070
     1
1070
     1
1002
{
1002
}
1000
PosInDDATTE
1070
     1
1070
    14
1002
{
1002
}
1000
FieldLen
1070
     1
1070
    -1
1002
{
1002
}
1002
}
1000
15
1070
     8
1002
{
1000
Prompt
1070
     4
1000
(genmsg gendwg 45)
1002
{
1002
}
1000
Value
1070
     4
1000

1002
{
1002
}
1000
EditFlag
1070
     1
1070
     1
1002
{
1002
}
1000
PosInDDATTE
1070
     1
1070
    15
1002
{
1002
}
1000
FieldLen
1070
     1
1070
    -1
1002
{
1002
}
1002
}
1000
16
1070
     8
1002
{
1000
Prompt
1070
     4
1000
(genmsg gendwg 46)
1002
{
1002
}
1000
Value
1070
     4
1000

1002
{
1002
}
1000
EditFlag
1070
     1
1070
     1
1002
{
1002
}
1000
PosInDDATTE
1070
     1
1070
    16
1002
{
1002
}
1000
FieldLen
1070
     1
1070
    -1
1002
{
1002
}
1002
}
1000
17
1070
     8
1002
{
1000
Prompt
1070
     4
1000
(genmsg gendwg 47)
1002
{
1002
}
1000
Value
1070
     4
1000

1002
{
1002
}
1000
EditFlag
1070
     1
1070
     1
1002
{
1002
}
1000
PosInDDATTE
1070
     1
1070
    17
1002
{
1002
}
1000
FieldLen
1070
     1
1070
    -1
1002
{
1002
}
1002
}
1000
18
1070
     8
1002
{
1000
Prompt
1070
     4
1000
(genmsg gendwg 48)
1002
{
1002
}
1000
Value
1070
     4
1000

1002
{
1002
}
1000
EditFlag
1070
     1
1070
     1
1002
{
1002
}
1000
PosInDDATTE
1070
     1
1070
    18
1002
{
1002
}
1000
FieldLen
1070
     1
1070
    -1
1002
{
1002
}
1002
}
1000
19
1070
     8
1002
{
1000
Prompt
1070
     4
1000
(genmsg gendwg 99)
1002
{
1002
}
1000
Value
1070
     4
1000

1002
{
1002
}
1000
EditFlag
1070
     1
1070
     1
1002
{
1002
}
1000
PosInDDATTE
1070
     1
1070
    19
1002
{
1002
}
1000
FieldLen
1070
     1
1070
    -1
1002
{
1002
}
1002
}
1000
20
1070
     8
1002
{
1000
Prompt
1070
     4
1000
(genmsg gendwg 100)
1002
{
1002
}
1000
Value
1070
     4
1000

1002
{
1002
}
1000
EditFlag
1070
     1
1070
     1
1002
{
1002
}
1000
PosInDDATTE
1070
     1
1070
    20
1002
{
1002
}
1000
FieldLen
1070
     1
1070
    -1
1002
{
1002
}
1002
}
1000
21
1070
     8
1002
{
1000
Prompt
1070
     4
1000
(genmsg gendwg 101)
1002
{
1002
}
1000
Value
1070
     4
1000

1002
{
1002
}
1000
EditFlag
1070
     1
1070
     1
1002
{
1002
}
1000
PosInDDATTE
1070
     1
1070
    21
1002
{
1002
}
1000
FieldLen
1070
     1
1070
    -1
1002
{
1002
}
1002
}
1000
22
1070
     8
1002
{
1000
Prompt
1070
     4
1000
(genmsg gendwg 102)
1002
{
1002
}
1000
Value
1070
     4
1000

1002
{
1002
}
1000
EditFlag
1070
     1
1070
     1
1002
{
1002
}
1000
PosInDDATTE
1070
     1
1070
    22
1002
{
1002
}
1000
FieldLen
1070
     1
1070
    -1
1002
{
1002
}
1002
}
1000
23
1070
     8
1002
{
1000
Prompt
1070
     4
1000
(genmsg gendwg 30)
1002
{
1002
}
1000
Value
1070
     4
1000

1002
{
1002
}
1000
EditFlag
1070
     1
1070
     1
1002
{
1002
}
1000
PosInDDATTE
1070
     1
1070
    23
1002
{
1002
}
1000
FieldLen
1070
     1
1070
    -1
1002
{
1002
}
1002
}
1000
24
1070
     8
1002
{
1000
Prompt
1070
     4
1000
(genmsg gendwg 104)
1002
{
1002
}
1000
Value
1070
     4
1000

1002
{
1002
}
1000
EditFlag
1070
     1
1070
     1
1002
{
1002
}
1000
PosInDDATTE
1070
     1
1070
    24
1002
{
1002
}
1000
FieldLen
1070
     1
1070
    -1
1002
{
1002
}
1002
}
1000
25
1070
     8
1002
{
1000
Prompt
1070
     4
1000
(genmsg gendwg 105)
1002
{
1002
}
1000
Value
1070
     4
1000

1002
{
1002
}
1000
EditFlag
1070
     1
1070
     1
1002
{
1002
}
1000
PosInDDATTE
1070
     1
1070
    25
1002
{
1002
}
1000
FieldLen
1070
     1
1070
    -1
1002
{
1002
}
1002
}
1000
26
1070
     8
1002
{
1000
Prompt
1070
     4
1000
(genmsg gendwg 106)
1002
{
1002
}
1000
Value
1070
     4
1000

1002
{
1002
}
1000
EditFlag
1070
     1
1070
     1
1002
{
1002
}
1000
PosInDDATTE
1070
     1
1070
    26
1002
{
1002
}
1000
FieldLen
1070
     1
1070
    -1
1002
{
1002
}
1002
}
1000
27
1070
     8
1002
{
1000
Prompt
1070
     4
1000
(genmsg gendwg 109)
1002
{
1002
}
1000
Value
1070
     4
1000

1002
{
1002
}
1000
EditFlag
1070
     1
1070
     2
1002
{
1002
}
1000
PosInDDATTE
1070
     1
1070
    27
1002
{
1002
}
1000
FieldLen
1070
     1
1070
    -1
1002
{
1002
}
1002
}
1002
}
1000
Xlate
1070
     0
1002
{
1000
>
1002
}
  0
APPID
  5
6B
330
9
100
AcDbSymbolTableRecord
100
AcDbRegAppTableRecord
  2
GENIUS_GENCFG2_13
 70
     0
1001
GENIUS_GENCFG_13
1071
1060338376
1000
6B
1000
GEN@LAYER@DEFS
1070
    10
1000
GenCfgObject
1000
GenCfgShort
1000
GenCfgReal
1000
GenCfgBool
1000
GenCfgString
1000
GenCfgDim
1000
GenCfgLayer
1000
GenCfgPoint
1000
GenCfgAttrInf
1000
GenCfgLaySection
1000
Basic
1070
     0
1002
{
1000
0
1070
     6
1000
0
1002
{
1000
Color
1070
     1
1070
     7
1002
{
1002
}
1000
LType
1070
     4
1000
CONTINUOUS
1002
{
1002
}
1000
Base
1070
     3
1070
     0
1002
{
1002
}
1002
}
1000
1
1070
     6
1000
1
1002
{
1000
Color
1070
     1
1070
    14
1002
{
1002
}
1000
LType
1070
     4
1000
CONTINUOUS
1002
{
1002
}
1000
Base
1070
     3
1070
     0
1002
{
1002
}
1002
}
1000
2
1070
     6
1000
2
1002
{
1000
Color
1070
     1
1070
     5
1002
{
1002
}
1000
LType
1070
     4
1000
CONTINUOUS
1002
{
1002
}
1000
Base
1070
     3
1070
     0
1002
{
1002
}
1002
}
1000
3
1070
     6
1000
3
1002
{
1000
Color
1070
     1
1070
     6
1002
{
1002
}
1000
LType
1070
     4
1000
GEN3
1002
{
1002
}
1000
Base
1070
     3
1070
     0
1002
{
1002
}
1002
}
1000
4
1070
     6
1000
4
1002
{
1000
Color
1070
     1
1070
     3
1002
{
1002
}
1000
LType
1070
     4
1000
CONTINUOUS
1002
{
1002
}
1000
Base
1070
     3
1070
     0
1002
{
1002
}
1002
}
1000
5
1070
     6
1000
5
1002
{
1000
Color
1070
     1
1070
     3
1002
{
1002
}
1000
LType
1070
     4
1000
CONTINUOUS
1002
{
1002
}
1000
Base
1070
     3
1070
     0
1002
{
1002
}
1002
}
1000
6
1070
     6
1000
6
1002
{
1000
Color
1070
     1
1070
     2
1002
{
1002
}
1000
LType
1070
     4
1000
CONTINUOUS
1002
{
1002
}
1000
Base
1070
     3
1070
     0
1002
{
1002
}
1002
}
1000
7
1070
     6
1000
7
1002
{
1000
Color
1070
     1
1070
     4
1002
{
1002
}
1000
LType
1070
     4
1000
GEN7
1002
{
1002
}
1000
Base
1070
     3
1070
     0
1002
{
1002
}
1002
}
1000
8
1070
     6
1000
8
1002
{
1000
Color
1070
     1
1070
     1
1002
{
1002
}
1000
LType
1070
     4
1000
CONTINUOUS
1002
{
1002
}
1000
Base
1070
     3
1070
     0
1002
{
1002
}
1002
}
1000
3A
1070
     6
1000
3A
1002
{
1000
Color
1070
     1
1070
     6
1002
{
1002
}
1000
LType
1070
     4
1000
GEN3A
1002
{
1002
}
1000
Base
1070
     3
1070
     0
1002
{
1002
}
1002
}
1000
7A
1070
     6
1000
7A
1002
{
1000
Color
1070
     1
1070
     4
1002
{
1002
}
1000
LType
1070
     4
1000
GEN7A
1002
{
1002
}
1000
Base
1070
     3
1070
     0
1002
{
1002
}
1002
}
1000
2A
1070
     6
1000
2A
1002
{
1000
Color
1070
     1
1070
     7
1002
{
1002
}
1000
LType
1070
     4
1000
GEN7
1002
{
1002
}
1000
Base
1070
     3
1070
     0
1002
{
1002
}
1002
}
1000
4A
1070
     6
1000
4A
1002
{
1000
Color
1070
     1
1070
     3
1002
{
1002
}
1000
LType
1070
     4
1000
GEN4A
1002
{
1002
}
1000
Base
1070
     3
1070
     0
1002
{
1002
}
1002
}
1000
9
1070
     6
1000
9
1002
{
1000
Color
1070
     1
1070
   253
1002
{
1002
}
1000
LType
1070
     4
1000
CONTINUOUS
1002
{
1002
}
1000
Base
1070
     3
1070
     0
1002
{
1002
}
1002
}
1000
IP
1070
     6
1000
IP
1002
{
1000
Color
1070
     1
1070
     7
1002
{
1002
}
1000
LType
1070
     4
1000
CONTINUOUS
1002
{
1002
}
1000
Base
1070
     3
1070
     0
1002
{
1002
}
1002
}
1002
}
1000
Standard
1070
     0
1002
{
1000
0N
1070
     6
1000
0N
1002
{
1000
Color
1070
     1
1070
     7
1002
{
1002
}
1000
LType
1070
     4
1000
CONTINUOUS
1002
{
1002
}
1000
Base
1070
     3
1070
     0
1002
{
1002
}
1002
}
1000
1N
1070
     6
1000
1N
1002
{
1000
Color
1070
     1
1070
    14
1002
{
1002
}
1000
LType
1070
     4
1000
CONTINUOUS
1002
{
1002
}
1000
Base
1070
     3
1070
     0
1002
{
1002
}
1002
}
1000
2N
1070
     6
1000
2N
1002
{
1000
Color
1070
     1
1070
     5
1002
{
1002
}
1000
LType
1070
     4
1000
CONTINUOUS
1002
{
1002
}
1000
Base
1070
     3
1070
     0
1002
{
1002
}
1002
}
1000
3N
1070
     6
1000
3N
1002
{
1000
Color
1070
     1
1070
     6
1002
{
1002
}
1000
LType
1070
     4
1000
GEN3
1002
{
1002
}
1000
Base
1070
     3
1070
     0
1002
{
1002
}
1002
}
1000
4N
1070
     6
1000
4N
1002
{
1000
Color
1070
     1
1070
     3
1002
{
1002
}
1000
LType
1070
     4
1000
CONTINUOUS
1002
{
1002
}
1000
Base
1070
     3
1070
     0
1002
{
1002
}
1002
}
1000
5N
1070
     6
1000
5N
1002
{
1000
Color
1070
     1
1070
     3
1002
{
1002
}
1000
LType
1070
     4
1000
CONTINUOUS
1002
{
1002
}
1000
Base
1070
     3
1070
     0
1002
{
1002
}
1002
}
1000
6N
1070
     6
1000
6N
1002
{
1000
Color
1070
     1
1070
     2
1002
{
1002
}
1000
LType
1070
     4
1000
CONTINUOUS
1002
{
1002
}
1000
Base
1070
     3
1070
     0
1002
{
1002
}
1002
}
1000
7N
1070
     6
1000
7N
1002
{
1000
Color
1070
     1
1070
     4
1002
{
1002
}
1000
LType
1070
     4
1000
GEN7
1002
{
1002
}
1000
Base
1070
     3
1070
     0
1002
{
1002
}
1002
}
1000
8N
1070
     6
1000
8N
1002
{
1000
Color
1070
     1
1070
     1
1002
{
1002
}
1000
LType
1070
     4
1000
CONTINUOUS
1002
{
1002
}
1000
Base
1070
     3
1070
     0
1002
{
1002
}
1002
}
1000
3AN
1070
     6
1000
3AN
1002
{
1000
Color
1070
     1
1070
     6
1002
{
1002
}
1000
LType
1070
     4
1000
GEN3A
1002
{
1002
}
1000
Base
1070
     3
1070
     0
1002
{
1002
}
1002
}
1000
7AN
1070
     6
1000
7AN
1002
{
1000
Color
1070
     1
1070
     4
1002
{
1002
}
1000
LType
1070
     4
1000
GEN7A
1002
{
1002
}
1000
Base
1070
     3
1070
     0
1002
{
1002
}
1002
}
1000
2AN
1070
     6
1000
2AN
1002
{
1000
Color
1070
     1
1070
     7
1002
{
1002
}
1000
LType
1070
     4
1000
GEN7
1002
{
1002
}
1000
Base
1070
     3
1070
     0
1002
{
1002
}
1002
}
1000
4AN
1070
     6
1000
4AN
1002
{
1000
Color
1070
     1
1070
     3
1002
{
1002
}
1000
LType
1070
     4
1000
GEN4A
1002
{
1002
}
1000
Base
1070
     3
1070
     0
1002
{
1002
}
1002
}
1000
9N
1070
     6
1000
9N
1002
{
1000
Color
1070
     1
1070
   253
1002
{
1002
}
1000
LType
1070
     4
1000
CONTINUOUS
1002
{
1002
}
1000
Base
1070
     3
1070
     0
1002
{
1002
}
1002
}
1000
IPN
1070
     6
1000
IPN
1002
{
1000
Color
1070
     1
1070
     7
1002
{
1002
}
1000
LType
1070
     4
1000
CONTINUOUS
1002
{
1002
}
1000
Base
1070
     3
1070
     0
1002
{
1002
}
1002
}
1002
}
1000
Extra
1070
     0
1002
{
1000
Klin
1070
     6
1000
KLIN
1002
{
1000
Color
1070
     1
1070
     1
1002
{
1002
}
1000
LType
1070
     4
1000
CONTINUOUS
1002
{
1002
}
1000
Base
1070
     3
1070
     1
1002
{
1002
}
1002
}
1000
Info
1070
     6
1000
INFO
1002
{
1000
Color
1070
     1
1070
     4
1002
{
1002
}
1000
LType
1070
     4
1000
CONTINUOUS
1002
{
1002
}
1000
Base
1070
     3
1070
     1
1002
{
1002
}
1002
}
1000
Rahm2
1070
     6
1000
RAHM2
1002
{
1000
Color
1070
     1
1070
     1
1002
{
1002
}
1000
LType
1070
     4
1000
CONTINUOUS
1002
{
1002
}
1000
Base
1070
     3
1070
     1
1002
{
1002
}
1002
}
1000
Rahm3
1070
     6
1000
RAHM3
1002
{
1000
Color
1070
     1
1070
     2
1002
{
1002
}
1000
LType
1070
     4
1000
CONTINUOUS
1002
{
1002
}
1000
Base
1070
     3
1070
     1
1002
{
1002
}
1002
}
1000
Rahm5
1070
     6
1000
RAHM5
1002
{
1000
Color
1070
     1
1070
     7
1002
{
1002
}
1000
LType
1070
     4
1000
CONTINUOUS
1002
{
1002
}
1000
Base
1070
     3
1070
     1
1002
{
1002
}
1002
}
1000
View
1070
     6
1000
VIEW
1002
{
1000
Color
1070
     1
1070
     1
1002
{
1002
}
1000
LType
1070
     4
1000
CONTINUOUS
1002
{
1002
}
1000
Base
1070
     3
1070
     1
1002
{
1002
}
1002
}
1000
Behind
1070
     6
1000
BEHIND
1002
{
1000
Color
1070
     1
1070
   253
1002
{
1002
}
1000
LType
1070
     4
1000
CONTINUOUS
1002
{
1002
}
1000
Base
1070
     3
1070
     1
1002
{
1002
}
1002
}
1002
}
  0
APPID
  5
6C
330
9
100
AcDbSymbolTableRecord
100
AcDbRegAppTableRecord
  2
GENIUS_GENCFG3_13
 70
     0
1001
GENIUS_GENCFG_13
1071
1060338376
1000
6C
1000
GEN@LAYER@ENTSORT
1070
    11
1000
GenCfgObject
1000
GenCfgShort
1000
GenCfgReal
1000
GenCfgBool
1000
GenCfgString
1000
GenCfgDim
1000
GenCfgLayer
1000
GenCfgPoint
1000
GenCfgAttrInf
1000
GenCfgLaySection
1000
GenCfgEntSort
1000
ADDL
1070
    10
1000
5
1002
{
1000
Class
1070
     4
1000
SYM
1002
{
1002
}
1000
Color
1070
     1
1070
     1
1002
{
1002
}
1000
LType
1070
     4
1000
BYLAYER
1002
{
1002
}
1002
}
1000
ALTR
1070
    10
1000
4
1002
{
1000
Class
1070
     4
1000

1002
{
1002
}
1000
Color
1070
     1
1070
     7
1002
{
1002
}
1000
LType
1070
     4
1000
GEN3A
1002
{
1002
}
1002
}
1000
BELI
1070
    10
1000
4
1002
{
1000
Class
1070
     4
1000

1002
{
1002
}
1000
Color
1070
     1
1070
   256
1002
{
1002
}
1000
LType
1070
     4
1000
BYLAYER
1002
{
1002
}
1002
}
1000
BHNV
1070
    10
1000
9
1002
{
1000
Class
1070
     4
1000
INV
1002
{
1002
}
1000
Color
1070
     1
1070
   256
1002
{
1002
}
1000
LType
1070
     4
1000
BYLAYER
1002
{
1002
}
1002
}
1000
BHNVS
1070
    10
1000
BEHIND
1002
{
1000
Class
1070
     4
1000
INV
1002
{
1002
}
1000
Color
1070
     1
1070
   256
1002
{
1002
}
1000
LType
1070
     4
1000
BYLAYER
1002
{
1002
}
1002
}
1000
BLID
1070
    10
1000
4A
1002
{
1000
Class
1070
     4
1000

1002
{
1002
}
1000
Color
1070
     1
1070
   256
1002
{
1002
}
1000
LType
1070
     4
1000
BYLAYER
1002
{
1002
}
1002
}
1000
BOAP
1070
    10
1000
4A
1002
{
1000
Class
1070
     4
1000

1002
{
1002
}
1000
Color
1070
     1
1070
   256
1002
{
1002
}
1000
LType
1070
     4
1000
BYLAYER
1002
{
1002
}
1002
}
1000
BOR2
1070
    10
1000
RAHM2
1002
{
1000
Class
1070
     4
1000
SPZ,SYM
1002
{
1002
}
1000
Color
1070
     1
1070
   256
1002
{
1002
}
1000
LType
1070
     4
1000
BYLAYER
1002
{
1002
}
1002
}
1000
BOR3
1070
    10
1000
RAHM3
1002
{
1000
Class
1070
     4
1000
SPZ,SYM
1002
{
1002
}
1000
Color
1070
     1
1070
   256
1002
{
1002
}
1000
LType
1070
     4
1000
BYLAYER
1002
{
1002
}
1002
}
1000
BOR5
1070
    10
1000
RAHM5
1002
{
1000
Class
1070
     4
1000
SPZ,SYM
1002
{
1002
}
1000
Color
1070
     1
1070
   256
1002
{
1002
}
1000
LType
1070
     4
1000
BYLAYER
1002
{
1002
}
1002
}
1000
BOR7
1070
    10
1000
RAHM5
1002
{
1000
Class
1070
     4
1000
SPZ,SYM
1002
{
1002
}
1000
Color
1070
     1
1070
     7
1002
{
1002
}
1000
LType
1070
     4
1000
CONTINUOUS
1002
{
1002
}
1002
}
1000
BPAP
1070
    10
1000
4A
1002
{
1000
Class
1070
     4
1000

1002
{
1002
}
1000
Color
1070
     1
1070
   256
1002
{
1002
}
1000
LType
1070
     4
1000
BYLAYER
1002
{
1002
}
1002
}
1000
BPEX
1070
    10
1000
4A
1002
{
1000
Class
1070
     4
1000

1002
{
1002
}
1000
Color
1070
     1
1070
   256
1002
{
1002
}
1000
LType
1070
     4
1000
BYLAYER
1002
{
1002
}
1002
}
1000
BTDI
1070
    10
1000
5
1002
{
1000
Class
1070
     4
1000
DIM,SYM
1002
{
1002
}
1000
Color
1070
     1
1070
   256
1002
{
1002
}
1000
LType
1070
     4
1000
BYLAYER
1002
{
1002
}
1002
}
1000
CAL2
1070
    10
1000
4
1002
{
1000
Class
1070
     4
1000
SYM
1002
{
1002
}
1000
Color
1070
     1
1070
   256
1002
{
1002
}
1000
LType
1070
     4
1000
BYLAYER
1002
{
1002
}
1002
}
1000
CAL3
1070
    10
1000
4
1002
{
1000
Class
1070
     4
1000
SYM
1002
{
1002
}
1000
Color
1070
     1
1070
     2
1002
{
1002
}
1000
LType
1070
     4
1000
BYLAYER
1002
{
1002
}
1002
}
1000
CAL5
1070
    10
1000
4
1002
{
1000
Class
1070
     4
1000
SYM
1002
{
1002
}
1000
Color
1070
     1
1070
     7
1002
{
1002
}
1000
LType
1070
     4
1000
BYLAYER
1002
{
1002
}
1002
}
1000
CAL7
1070
    10
1000
4
1002
{
1000
Class
1070
     4
1000
SYM
1002
{
1002
}
1000
Color
1070
     1
1070
     5
1002
{
1002
}
1000
LType
1070
     4
1000
BYLAYER
1002
{
1002
}
1002
}
1000
CENN
1070
    10
1000
7A
1002
{
1000
Class
1070
     4
1000
CEN
1002
{
1002
}
1000
Color
1070
     1
1070
   256
1002
{
1002
}
1000
LType
1070
     4
1000
BYLAYER
1002
{
1002
}
1002
}
1000
CENW
1070
    10
1000
7
1002
{
1000
Class
1070
     4
1000
CEN
1002
{
1002
}
1000
Color
1070
     1
1070
   256
1002
{
1002
}
1000
LType
1070
     4
1000
BYLAYER
1002
{
1002
}
1002
}
1000
CLIN
1070
    10
1000
KLIN
1002
{
1000
Class
1070
     4
1000
SPZ
1002
{
1002
}
1000
Color
1070
     1
1070
   256
1002
{
1002
}
1000
LType
1070
     4
1000
BYLAYER
1002
{
1002
}
1002
}
1000
CON1
1070
    10
1000
0
1002
{
1000
Class
1070
     4
1000
CON,BGD
1002
{
1002
}
1000
Color
1070
     1
1070
   256
1002
{
1002
}
1000
LType
1070
     4
1000
BYLAYER
1002
{
1002
}
1002
}
1000
CON2
1070
    10
1000
1
1002
{
1000
Class
1070
     4
1000
CON,BGD
1002
{
1002
}
1000
Color
1070
     1
1070
   256
1002
{
1002
}
1000
LType
1070
     4
1000
BYLAYER
1002
{
1002
}
1002
}
1000
CON3
1070
    10
1000
2
1002
{
1000
Class
1070
     4
1000
CON,BGD
1002
{
1002
}
1000
Color
1070
     1
1070
   256
1002
{
1002
}
1000
LType
1070
     4
1000
BYLAYER
1002
{
1002
}
1002
}
1000
CON4
1070
    10
1000
2
1002
{
1000
Class
1070
     4
1000
CON,BGD
1002
{
1002
}
1000
Color
1070
     1
1070
   256
1002
{
1002
}
1000
LType
1070
     4
1000
BYLAYER
1002
{
1002
}
1002
}
1000
DERP
1070
    10
1000
4
1002
{
1000
Class
1070
     4
1000

1002
{
1002
}
1000
Color
1070
     1
1070
   256
1002
{
1002
}
1000
LType
1070
     4
1000
BYLAYER
1002
{
1002
}
1002
}
1000
DETA
1070
    10
1000
4
1002
{
1000
Class
1070
     4
1000

1002
{
1002
}
1000
Color
1070
     1
1070
   256
1002
{
1002
}
1000
LType
1070
     4
1000
BYLAYER
1002
{
1002
}
1002
}
1000
DIAG
1070
    10
1000
5
1002
{
1000
Class
1070
     4
1000
SYM
1002
{
1002
}
1000
Color
1070
     1
1070
   256
1002
{
1002
}
1000
LType
1070
     4
1000
BYLAYER
1002
{
1002
}
1002
}
1000
DILI
1070
    10
1000
5
1002
{
1000
Class
1070
     4
1000
DIM,SYM
1002
{
1002
}
1000
Color
1070
     1
1070
   256
1002
{
1002
}
1000
LType
1070
     4
1000
BYLAYER
1002
{
1002
}
1002
}
1000
DITO2
1070
    10
1000
5
1002
{
1000
Class
1070
     4
1000
DIM,SYM
1002
{
1002
}
1000
Color
1070
     1
1070
     3
1002
{
1002
}
1000
LType
1070
     4
1000
BYLAYER
1002
{
1002
}
1002
}
1000
DITO3
1070
    10
1000
5
1002
{
1000
Class
1070
     4
1000
DIM,SYM
1002
{
1002
}
1000
Color
1070
     1
1070
     2
1002
{
1002
}
1000
LType
1070
     4
1000
BYLAYER
1002
{
1002
}
1002
}
1000
DITX
1070
    10
1000
5
1002
{
1000
Class
1070
     4
1000
DIM,SYM
1002
{
1002
}
1000
Color
1070
     1
1070
     2
1002
{
1002
}
1000
LType
1070
     4
1000
CONTINUOUS
1002
{
1002
}
1002
}
1000
DIXL
1070
    10
1000
5
1002
{
1000
Class
1070
     4
1000
DIM,SYM
1002
{
1002
}
1000
Color
1070
     1
1070
   256
1002
{
1002
}
1000
LType
1070
     4
1000
BYLAYER
1002
{
1002
}
1002
}
1000
EXMP
1070
    10
1000
4A
1002
{
1000
Class
1070
     4
1000

1002
{
1002
}
1000
Color
1070
     1
1070
   256
1002
{
1002
}
1000
LType
1070
     4
1000
BYLAYER
1002
{
1002
}
1002
}
1000
FEMN
1070
    10
1000
8
1002
{
1000
Class
1070
     4
1000

1002
{
1002
}
1000
Color
1070
     1
1070
   256
1002
{
1002
}
1000
LType
1070
     4
1000
BYLAYER
1002
{
1002
}
1002
}
1000
FEMPN
1070
    10
1000
8
1002
{
1000
Class
1070
     4
1000
SYM
1002
{
1002
}
1000
Color
1070
     1
1070
     3
1002
{
1002
}
1000
LType
1070
     4
1000
BYLAYER
1002
{
1002
}
1002
}
1000
FEMSP
1070
    10
1000
4A
1002
{
1000
Class
1070
     4
1000

1002
{
1002
}
1000
Color
1070
     1
1070
   256
1002
{
1002
}
1000
LType
1070
     4
1000
CONTINUOUS
1002
{
1002
}
1002
}
1000
FEMST
1070
    10
1000
4A
1002
{
1000
Class
1070
     4
1000
SYM
1002
{
1002
}
1000
Color
1070
     1
1070
     3
1002
{
1002
}
1000
LType
1070
     4
1000
BYLAYER
1002
{
1002
}
1002
}
1000
FEMVN
1070
    10
1000
2
1002
{
1000
Class
1070
     4
1000
CON
1002
{
1002
}
1000
Color
1070
     1
1070
   256
1002
{
1002
}
1000
LType
1070
     4
1000
BYLAYER
1002
{
1002
}
1002
}
1000
FEMVT
1070
    10
1000
2
1002
{
1000
Class
1070
     4
1000
SYM
1002
{
1002
}
1000
Color
1070
     1
1070
     3
1002
{
1002
}
1000
LType
1070
     4
1000
BYLAYER
1002
{
1002
}
1002
}
1000
FLAT
1070
    10
1000
0
1002
{
1000
Class
1070
     4
1000

1002
{
1002
}
1000
Color
1070
     1
1070
   256
1002
{
1002
}
1000
LType
1070
     4
1000
BYLAYER
1002
{
1002
}
1002
}
1000
FRAR
1070
    10
1000
4A
1002
{
1000
Class
1070
     4
1000

1002
{
1002
}
1000
Color
1070
     1
1070
   256
1002
{
1002
}
1000
LType
1070
     4
1000
BYLAYER
1002
{
1002
}
1002
}
1000
GRLI
1070
    10
1000
5
1002
{
1000
Class
1070
     4
1000
SYM
1002
{
1002
}
1000
Color
1070
     1
1070
   256
1002
{
1002
}
1000
LType
1070
     4
1000
BYLAYER
1002
{
1002
}
1002
}
1000
GVLI
1070
    10
1000
4A
1002
{
1000
Class
1070
     4
1000

1002
{
1002
}
1000
Color
1070
     1
1070
   256
1002
{
1002
}
1000
LType
1070
     4
1000
BYLAYER
1002
{
1002
}
1002
}
1000
HATC
1070
    10
1000
8
1002
{
1000
Class
1070
     4
1000
HTC,BGD
1002
{
1002
}
1000
Color
1070
     1
1070
   256
1002
{
1002
}
1000
LType
1070
     4
1000
BYLAYER
1002
{
1002
}
1002
}
1000
HIDN
1070
    10
1000
3A
1002
{
1000
Class
1070
     4
1000
HID,BGD
1002
{
1002
}
1000
Color
1070
     1
1070
   256
1002
{
1002
}
1000
LType
1070
     4
1000
BYLAYER
1002
{
1002
}
1002
}
1000
HIDW
1070
    10
1000
3
1002
{
1000
Class
1070
     4
1000
HID,BGD
1002
{
1002
}
1000
Color
1070
     1
1070
   256
1002
{
1002
}
1000
LType
1070
     4
1000
BYLAYER
1002
{
1002
}
1002
}
1000
HLIN
1070
    10
1000
4
1002
{
1000
Class
1070
     4
1000
BGD
1002
{
1002
}
1000
Color
1070
     1
1070
   256
1002
{
1002
}
1000
LType
1070
     4
1000
BYLAYER
1002
{
1002
}
1002
}
1000
HOCN
1070
    10
1000
7A
1002
{
1000
Class
1070
     4
1000
CEN
1002
{
1002
}
1000
Color
1070
     1
1070
   256
1002
{
1002
}
1000
LType
1070
     4
1000
BYLAYER
1002
{
1002
}
1002
}
1000
HOCW
1070
    10
1000
7
1002
{
1000
Class
1070
     4
1000
CEN
1002
{
1002
}
1000
Color
1070
     1
1070
   256
1002
{
1002
}
1000
LType
1070
     4
1000
BYLAYER
1002
{
1002
}
1002
}
1000
INFO
1070
    10
1000
INFO
1002
{
1000
Class
1070
     4
1000
SPZ,SYM
1002
{
1002
}
1000
Color
1070
     1
1070
   256
1002
{
1002
}
1000
LType
1070
     4
1000
BYLAYER
1002
{
1002
}
1002
}
1000
LADI
1070
    10
1000
4
1002
{
1000
Class
1070
     4
1000
BGD
1002
{
1002
}
1000
Color
1070
     1
1070
   256
1002
{
1002
}
1000
LType
1070
     4
1000
BYLAYER
1002
{
1002
}
1002
}
1000
LEAD
1070
    10
1000
5
1002
{
1000
Class
1070
     4
1000
SYM
1002
{
1002
}
1000
Color
1070
     1
1070
   256
1002
{
1002
}
1000
LType
1070
     4
1000
BYLAYER
1002
{
1002
}
1002
}
1000
N_ADDL
1070
    10
1000
5N
1002
{
1000
Class
1070
     4
1000
SYM
1002
{
1002
}
1000
Color
1070
     1
1070
     1
1002
{
1002
}
1000
LType
1070
     4
1000
BYLAYER
1002
{
1002
}
1002
}
1000
N_BHNV
1070
    10
1000
9N
1002
{
1000
Class
1070
     4
1000
INV
1002
{
1002
}
1000
Color
1070
     1
1070
   256
1002
{
1002
}
1000
LType
1070
     4
1000
BYLAYER
1002
{
1002
}
1002
}
1000
N_CON1
1070
    10
1000
0N
1002
{
1000
Class
1070
     4
1000
CON,BGD
1002
{
1002
}
1000
Color
1070
     1
1070
   256
1002
{
1002
}
1000
LType
1070
     4
1000
BYLAYER
1002
{
1002
}
1002
}
1000
N_CON2
1070
    10
1000
1N
1002
{
1000
Class
1070
     4
1000
CON,BGD
1002
{
1002
}
1000
Color
1070
     1
1070
   256
1002
{
1002
}
1000
LType
1070
     4
1000
BYLAYER
1002
{
1002
}
1002
}
1000
N_CON3
1070
    10
1000
2N
1002
{
1000
Class
1070
     4
1000
CON,BGD
1002
{
1002
}
1000
Color
1070
     1
1070
   256
1002
{
1002
}
1000
LType
1070
     4
1000
BYLAYER
1002
{
1002
}
1002
}
1000
N_CON4
1070
    10
1000
2N
1002
{
1000
Class
1070
     4
1000
CON,BGD
1002
{
1002
}
1000
Color
1070
     1
1070
   256
1002
{
1002
}
1000
LType
1070
     4
1000
BYLAYER
1002
{
1002
}
1002
}
1000
N_CENN
1070
    10
1000
7AN
1002
{
1000
Class
1070
     4
1000
CEN
1002
{
1002
}
1000
Color
1070
     1
1070
   256
1002
{
1002
}
1000
LType
1070
     4
1000
BYLAYER
1002
{
1002
}
1002
}
1000
N_CENW
1070
    10
1000
7N
1002
{
1000
Class
1070
     4
1000
CEN
1002
{
1002
}
1000
Color
1070
     1
1070
   256
1002
{
1002
}
1000
LType
1070
     4
1000
BYLAYER
1002
{
1002
}
1002
}
1000
N_DILI
1070
    10
1000
5N
1002
{
1000
Class
1070
     4
1000
DIM,SYM
1002
{
1002
}
1000
Color
1070
     1
1070
   256
1002
{
1002
}
1000
LType
1070
     4
1000
BYLAYER
1002
{
1002
}
1002
}
1000
N_DITX
1070
    10
1000
5N
1002
{
1000
Class
1070
     4
1000
DIM,SYM
1002
{
1002
}
1000
Color
1070
     1
1070
     2
1002
{
1002
}
1000
LType
1070
     4
1000
CONTINUOUS
1002
{
1002
}
1002
}
1000
N_DIXL
1070
    10
1000
5N
1002
{
1000
Class
1070
     4
1000
DIM,SYM
1002
{
1002
}
1000
Color
1070
     1
1070
   256
1002
{
1002
}
1000
LType
1070
     4
1000
BYLAYER
1002
{
1002
}
1002
}
1000
N_HATC
1070
    10
1000
8N
1002
{
1000
Class
1070
     4
1000
HTC,BGD
1002
{
1002
}
1000
Color
1070
     1
1070
   256
1002
{
1002
}
1000
LType
1070
     4
1000
BYLAYER
1002
{
1002
}
1002
}
1000
N_HIDN
1070
    10
1000
3AN
1002
{
1000
Class
1070
     4
1000
HID,BGD
1002
{
1002
}
1000
Color
1070
     1
1070
   256
1002
{
1002
}
1000
LType
1070
     4
1000
BYLAYER
1002
{
1002
}
1002
}
1000
N_HIDW
1070
    10
1000
3N
1002
{
1000
Class
1070
     4
1000
HID,BGD
1002
{
1002
}
1000
Color
1070
     1
1070
   256
1002
{
1002
}
1000
LType
1070
     4
1000
BYLAYER
1002
{
1002
}
1002
}
1000
N_NGIP
1070
    10
1000
IPN
1002
{
1000
Class
1070
     4
1000

1002
{
1002
}
1000
Color
1070
     1
1070
   256
1002
{
1002
}
1000
LType
1070
     4
1000
BYLAYER
1002
{
1002
}
1002
}
1000
N_PHAN
1070
    10
1000
4AN
1002
{
1000
Class
1070
     4
1000

1002
{
1002
}
1000
Color
1070
     1
1070
   256
1002
{
1002
}
1000
LType
1070
     4
1000
BYLAYER
1002
{
1002
}
1002
}
1000
N_POSL
1070
    10
1000
5N
1002
{
1000
Class
1070
     4
1000
SYM
1002
{
1002
}
1000
Color
1070
     1
1070
   256
1002
{
1002
}
1000
LType
1070
     4
1000
BYLAYER
1002
{
1002
}
1002
}
1000
N_TCON
1070
    10
1000
0N
1002
{
1000
Class
1070
     4
1000
CON,BGD
1002
{
1002
}
1000
Color
1070
     1
1070
   256
1002
{
1002
}
1000
LType
1070
     4
1000
BYLAYER
1002
{
1002
}
1002
}
1000
N_THLI
1070
    10
1000
4N
1002
{
1000
Class
1070
     4
1000
BGD
1002
{
1002
}
1000
Color
1070
     1
1070
   256
1002
{
1002
}
1000
LType
1070
     4
1000
BYLAYER
1002
{
1002
}
1002
}
1000
N_TLEN
1070
    10
1000
0N
1002
{
1000
Class
1070
     4
1000
CON,BGD
1002
{
1002
}
1000
Color
1070
     1
1070
   256
1002
{
1002
}
1000
LType
1070
     4
1000
BYLAYER
1002
{
1002
}
1002
}
1000
N_TXT3
1070
    10
1000
6N
1002
{
1000
Class
1070
     4
1000
SYM
1002
{
1002
}
1000
Color
1070
     1
1070
   256
1002
{
1002
}
1000
LType
1070
     4
1000
BYLAYER
1002
{
1002
}
1002
}
1000
N_VPLI
1070
    10
1000
2AN
1002
{
1000
Class
1070
     4
1000

1002
{
1002
}
1000
Color
1070
     1
1070
   256
1002
{
1002
}
1000
LType
1070
     4
1000
BYLAYER
1002
{
1002
}
1002
}
1000
NGIP
1070
    10
1000
IP
1002
{
1000
Class
1070
     4
1000

1002
{
1002
}
1000
Color
1070
     1
1070
   256
1002
{
1002
}
1000
LType
1070
     4
1000
BYLAYER
1002
{
1002
}
1002
}
1000
PAL2
1070
    10
1000
RAHM2
1002
{
1000
Class
1070
     4
1000
SPZ,SYM
1002
{
1002
}
1000
Color
1070
     1
1070
   256
1002
{
1002
}
1000
LType
1070
     4
1000
BYLAYER
1002
{
1002
}
1002
}
1000
PAL3
1070
    10
1000
RAHM3
1002
{
1000
Class
1070
     4
1000
SPZ,SYM
1002
{
1002
}
1000
Color
1070
     1
1070
   256
1002
{
1002
}
1000
LType
1070
     4
1000
BYLAYER
1002
{
1002
}
1002
}
1000
PAL5
1070
    10
1000
RAHM5
1002
{
1000
Class
1070
     4
1000
SPZ,SYM
1002
{
1002
}
1000
Color
1070
     1
1070
   256
1002
{
1002
}
1000
LType
1070
     4
1000
BYLAYER
1002
{
1002
}
1002
}
1000
PAL7
1070
    10
1000
RAHM5
1002
{
1000
Class
1070
     4
1000
SPZ,SYM
1002
{
1002
}
1000
Color
1070
     1
1070
     7
1002
{
1002
}
1000
LType
1070
     4
1000
CONTINUOUS
1002
{
1002
}
1002
}
1000
PHAN
1070
    10
1000
4A
1002
{
1000
Class
1070
     4
1000

1002
{
1002
}
1000
Color
1070
     1
1070
   256
1002
{
1002
}
1000
LType
1070
     4
1000
BYLAYER
1002
{
1002
}
1002
}
1000
POSL
1070
    10
1000
5
1002
{
1000
Class
1070
     4
1000
SYM
1002
{
1002
}
1000
Color
1070
     1
1070
   256
1002
{
1002
}
1000
LType
1070
     4
1000
BYLAYER
1002
{
1002
}
1002
}
1000
POSN
1070
    10
1000
6
1002
{
1000
Class
1070
     4
1000
SYM
1002
{
1002
}
1000
Color
1070
     1
1070
     7
1002
{
1002
}
1000
LType
1070
     4
1000
BYLAYER
1002
{
1002
}
1002
}
1000
POSREF
1070
    10
1000
6
1002
{
1000
Class
1070
     4
1000
SYM
1002
{
1002
}
1000
Color
1070
     1
1070
     5
1002
{
1002
}
1000
LType
1070
     4
1000
BYLAYER
1002
{
1002
}
1002
}
1000
POSX
1070
    10
1000
5
1002
{
1000
Class
1070
     4
1000
SYM
1002
{
1002
}
1000
Color
1070
     1
1070
     2
1002
{
1002
}
1000
LType
1070
     4
1000
CONTINUOUS
1002
{
1002
}
1002
}
1000
PSEC
1070
    10
1000
4A
1002
{
1000
Class
1070
     4
1000

1002
{
1002
}
1000
Color
1070
     1
1070
   256
1002
{
1002
}
1000
LType
1070
     4
1000
BYLAYER
1002
{
1002
}
1002
}
1000
RCGN
1070
    10
1000
7A
1002
{
1000
Class
1070
     4
1000
CEN
1002
{
1002
}
1000
Color
1070
     1
1070
   256
1002
{
1002
}
1000
LType
1070
     4
1000
BYLAYER
1002
{
1002
}
1002
}
1000
RCGW
1070
    10
1000
7
1002
{
1000
Class
1070
     4
1000
CEN
1002
{
1002
}
1000
Color
1070
     1
1070
   256
1002
{
1002
}
1000
LType
1070
     4
1000
BYLAYER
1002
{
1002
}
1002
}
1000
RFDI
1070
    10
1000
4
1002
{
1000
Class
1070
     4
1000
BGD
1002
{
1002
}
1000
Color
1070
     1
1070
   256
1002
{
1002
}
1000
LType
1070
     4
1000
BYLAYER
1002
{
1002
}
1002
}
1000
RQTR
1070
    10
1000
4
1002
{
1000
Class
1070
     4
1000

1002
{
1002
}
1000
Color
1070
     1
1070
     7
1002
{
1002
}
1000
LType
1070
     4
1000
GEN7A
1002
{
1002
}
1002
}
1000
RSBO
1070
    10
1000
4
1002
{
1000
Class
1070
     4
1000
BGD
1002
{
1002
}
1000
Color
1070
     1
1070
   256
1002
{
1002
}
1000
LType
1070
     4
1000
BYLAYER
1002
{
1002
}
1002
}
1000
SBRK
1070
    10
1000
4
1002
{
1000
Class
1070
     4
1000
BGD
1002
{
1002
}
1000
Color
1070
     1
1070
   256
1002
{
1002
}
1000
LType
1070
     4
1000
BYLAYER
1002
{
1002
}
1002
}
1000
SCEN
1070
    10
1000
7
1002
{
1000
Class
1070
     4
1000

1002
{
1002
}
1000
Color
1070
     1
1070
   256
1002
{
1002
}
1000
LType
1070
     4
1000
CONTINUOUS
1002
{
1002
}
1002
}
1000
SECT
1070
    10
1000
4
1002
{
1000
Class
1070
     4
1000
BGD
1002
{
1002
}
1000
Color
1070
     1
1070
   256
1002
{
1002
}
1000
LType
1070
     4
1000
BYLAYER
1002
{
1002
}
1002
}
1000
SELN
1070
    10
1000
7A
1002
{
1000
Class
1070
     4
1000

1002
{
1002
}
1000
Color
1070
     1
1070
   256
1002
{
1002
}
1000
LType
1070
     4
1000
BYLAYER
1002
{
1002
}
1002
}
1000
SELW
1070
    10
1000
7
1002
{
1000
Class
1070
     4
1000

1002
{
1002
}
1000
Color
1070
     1
1070
   256
1002
{
1002
}
1000
LType
1070
     4
1000
BYLAYER
1002
{
1002
}
1002
}
1000
SSYS
1070
    10
1000
0
1002
{
1000
Class
1070
     4
1000

1002
{
1002
}
1000
Color
1070
     1
1070
   256
1002
{
1002
}
1000
LType
1070
     4
1000
BYLAYER
1002
{
1002
}
1002
}
1000
STLI
1070
    10
1000
4
1002
{
1000
Class
1070
     4
1000

1002
{
1002
}
1000
Color
1070
     1
1070
     7
1002
{
1002
}
1000
LType
1070
     4
1000
GEN3A
1002
{
1002
}
1002
}
1000
SYB1
1070
    10
1000
5
1002
{
1000
Class
1070
     4
1000
SYM
1002
{
1002
}
1000
Color
1070
     1
1070
   256
1002
{
1002
}
1000
LType
1070
     4
1000
BYLAYER
1002
{
1002
}
1002
}
1000
SYB2
1070
    10
1000
5
1002
{
1000
Class
1070
     4
1000
SYM
1002
{
1002
}
1000
Color
1070
     1
1070
   256
1002
{
1002
}
1000
LType
1070
     4
1000
BYLAYER
1002
{
1002
}
1002
}
1000
SYB3
1070
    10
1000
6
1002
{
1000
Class
1070
     4
1000
SYM
1002
{
1002
}
1000
Color
1070
     1
1070
   256
1002
{
1002
}
1000
LType
1070
     4
1000
CONTINUOUS
1002
{
1002
}
1002
}
1000
SYB5
1070
    10
1000
5
1002
{
1000
Class
1070
     4
1000
SYM
1002
{
1002
}
1000
Color
1070
     1
1070
     7
1002
{
1002
}
1000
LType
1070
     4
1000
BYLAYER
1002
{
1002
}
1002
}
1000
SYMN
1070
    10
1000
7A
1002
{
1000
Class
1070
     4
1000
CEN
1002
{
1002
}
1000
Color
1070
     1
1070
   256
1002
{
1002
}
1000
LType
1070
     4
1000
BYLAYER
1002
{
1002
}
1002
}
1000
SYMW
1070
    10
1000
7
1002
{
1000
Class
1070
     4
1000
CEN
1002
{
1002
}
1000
Color
1070
     1
1070
   256
1002
{
1002
}
1000
LType
1070
     4
1000
BYLAYER
1002
{
1002
}
1002
}
1000
TCON
1070
    10
1000
0
1002
{
1000
Class
1070
     4
1000
CON,BGD
1002
{
1002
}
1000
Color
1070
     1
1070
   256
1002
{
1002
}
1000
LType
1070
     4
1000
BYLAYER
1002
{
1002
}
1002
}
1000
THLI
1070
    10
1000
4
1002
{
1000
Class
1070
     4
1000
BGD
1002
{
1002
}
1000
Color
1070
     1
1070
   256
1002
{
1002
}
1000
LType
1070
     4
1000
BYLAYER
1002
{
1002
}
1002
}
1000
TIT2
1070
    10
1000
RAHM2
1002
{
1000
Class
1070
     4
1000
SPZ,SYM
1002
{
1002
}
1000
Color
1070
     1
1070
   256
1002
{
1002
}
1000
LType
1070
     4
1000
BYLAYER
1002
{
1002
}
1002
}
1000
TIT3
1070
    10
1000
RAHM3
1002
{
1000
Class
1070
     4
1000
SPZ,SYM
1002
{
1002
}
1000
Color
1070
     1
1070
   256
1002
{
1002
}
1000
LType
1070
     4
1000
BYLAYER
1002
{
1002
}
1002
}
1000
TIT5
1070
    10
1000
RAHM5
1002
{
1000
Class
1070
     4
1000
SPZ,SYM
1002
{
1002
}
1000
Color
1070
     1
1070
   256
1002
{
1002
}
1000
LType
1070
     4
1000
BYLAYER
1002
{
1002
}
1002
}
1000
TIT7
1070
    10
1000
RAHM5
1002
{
1000
Class
1070
     4
1000
SPZ,SYM
1002
{
1002
}
1000
Color
1070
     1
1070
     7
1002
{
1002
}
1000
LType
1070
     4
1000
CONTINUOUS
1002
{
1002
}
1002
}
1000
TLEN
1070
    10
1000
0
1002
{
1000
Class
1070
     4
1000
CON,BGD
1002
{
1002
}
1000
Color
1070
     1
1070
   256
1002
{
1002
}
1000
LType
1070
     4
1000
BYLAYER
1002
{
1002
}
1002
}
1000
TRKN
1070
    10
1000
7A
1002
{
1000
Class
1070
     4
1000

1002
{
1002
}
1000
Color
1070
     1
1070
   256
1002
{
1002
}
1000
LType
1070
     4
1000
BYLAYER
1002
{
1002
}
1002
}
1000
TRKW
1070
    10
1000
7
1002
{
1000
Class
1070
     4
1000

1002
{
1002
}
1000
Color
1070
     1
1070
   256
1002
{
1002
}
1000
LType
1070
     4
1000
BYLAYER
1002
{
1002
}
1002
}
1000
TRLI
1070
    10
1000
4
1002
{
1000
Class
1070
     4
1000
BGD
1002
{
1002
}
1000
Color
1070
     1
1070
   256
1002
{
1002
}
1000
LType
1070
     4
1000
BYLAYER
1002
{
1002
}
1002
}
1000
TXT1
1070
    10
1000
6
1002
{
1000
Class
1070
     4
1000
SYM
1002
{
1002
}
1000
Color
1070
     1
1070
     2
1002
{
1002
}
1000
LType
1070
     4
1000
BYLAYER
1002
{
1002
}
1002
}
1000
TXT2
1070
    10
1000
6
1002
{
1000
Class
1070
     4
1000
SYM
1002
{
1002
}
1000
Color
1070
     1
1070
     2
1002
{
1002
}
1000
LType
1070
     4
1000
BYLAYER
1002
{
1002
}
1002
}
1000
TXT3
1070
    10
1000
6
1002
{
1000
Class
1070
     4
1000
SYM
1002
{
1002
}
1000
Color
1070
     1
1070
   256
1002
{
1002
}
1000
LType
1070
     4
1000
BYLAYER
1002
{
1002
}
1002
}
1000
TXT5
1070
    10
1000
6
1002
{
1000
Class
1070
     4
1000
SYM
1002
{
1002
}
1000
Color
1070
     1
1070
     7
1002
{
1002
}
1000
LType
1070
     4
1000
BYLAYER
1002
{
1002
}
1002
}
1000
TXT7
1070
    10
1000
6
1002
{
1000
Class
1070
     4
1000
SYM
1002
{
1002
}
1000
Color
1070
     1
1070
     7
1002
{
1002
}
1000
LType
1070
     4
1000
BYLAYER
1002
{
1002
}
1002
}
1000
VIEW
1070
    10
1000
VIEW
1002
{
1000
Class
1070
     4
1000
SPZ
1002
{
1002
}
1000
Color
1070
     1
1070
   256
1002
{
1002
}
1000
LType
1070
     4
1000
BYLAYER
1002
{
1002
}
1002
}
1000
VPLI
1070
    10
1000
2A
1002
{
1000
Class
1070
     4
1000

1002
{
1002
}
1000
Color
1070
     1
1070
   256
1002
{
1002
}
1000
LType
1070
     4
1000
BYLAYER
1002
{
1002
}
1002
}
1000
ZIZA
1070
    10
1000
4
1002
{
1000
Class
1070
     4
1000
BGD
1002
{
1002
}
1000
Color
1070
     1
1070
   256
1002
{
1002
}
1000
LType
1070
     4
1000
GENZIGZAG
1002
{
1002
}
1002
}
  0
APPID
  5
6D
330
9
100
AcDbSymbolTableRecord
100
AcDbRegAppTableRecord
  2
GENIUS_GENCFG4_13
 70
     0
1001
GENIUS_GENCFG_13
1071
1060338376
1000
6D
1000
GEN
1070
    13
1000
GenCfgObject
1000
GenCfgShort
1000
GenCfgReal
1000
GenCfgBool
1000
GenCfgString
1000
GenCfgDim
1000
GenCfgLayer
1000
GenCfgPoint
1000
GenCfgAttrInf
1000
GenCfgLaySection
1000
GenCfgEntSort
1000
GenCfgLType
1000
GenCfgFilter
1000
Balloon
1070
     0
1002
{
1000
GenIF
1070
     1
1070
     0
1002
{
1002
}
1000
GenPosInc
1070
     1
1070
     1
1002
{
1002
}
1000
GenPosBlk
1070
     1
1070
     8
1002
{
1002
}
1000
GenPosVar
1070
     1
1070
     0
1002
{
1002
}
1000
GenZiCir
1070
     2
1040
1.5
1002
{
1002
}
1000
MaxCharForCenteredText
1070
     1
1070
    30
1002
{
1002
}
1000
Snap
1070
     0
1002
{
1000
ActivationRadius
1070
     2
1040
1.0
1002
{
1002
}
1000
M
1070
     0
1002
{
1000
SnapStepX
1070
     2
1040
20.0
1002
{
1002
}
1000
SnapStepY
1070
     2
1040
10.0
1002
{
1002
}
1002
}
1000
I
1070
     0
1002
{
1000
SnapStepX
1070
     2
1040
1.0
1002
{
1002
}
1000
SnapStepY
1070
     2
1040
0.5
1002
{
1002
}
1002
}
1002
}
1002
}
1000
Centerline
1070
     0
1002
{
1000
ScaleNot
1070
     3
1070
     0
1002
{
1002
}
1000
M
1070
     0
1002
{
1000
GenCenAng
1070
     4
1000
45|90|135
1002
{
1002
}
1000
GenCenDia
1070
     2
1040
10.0
1002
{
1002
}
1000
GenCenDias
1070
     4
1000
10|20|30
1002
{
1002
}
1000
GenCenDist
1070
     2
1040
3.0
1002
{
1002
}
1000
GenCenLen
1070
     2
1040
10.0
1002
{
1002
}
1000
GenCenOff
1070
     2
1040
10.0
1002
{
1002
}
1000
GENCENOFF1
1070
     2
1040
10.0
1002
{
1002
}
1000
GENCENOFF2
1070
     2
1040
10.0
1002
{
1002
}
1002
}
1000
I
1070
     0
1002
{
1000
GenCenAng
1070
     4
1000
45|90|135
1002
{
1002
}
1000
GenCenDia
1070
     2
1040
0.5
1002
{
1002
}
1000
GenCenDias
1070
     4
1000
0.5|1.0|1.5
1002
{
1002
}
1000
GenCenDist
1070
     2
1040
0.125
1002
{
1002
}
1000
GenCenLen
1070
     2
1040
0.5
1002
{
1002
}
1000
GenCenOff
1070
     2
1040
0.5
1002
{
1002
}
1002
}
1002
}
1000
CLine
1070
     0
1002
{
1000
CAngArray
1070
     4
1000
30|45|60
1002
{
1002
}
1000
Typ
1070
     4
1000
XLINE
1002
{
1002
}
1000
M
1070
     0
1002
{
1000
CLinArray
1070
     4
1000
10|20|30
1002
{
1002
}
1002
}
1000
I
1070
     0
1002
{
1000
CLinArray
1070
     4
1000
0.125|0.25|0.5
1002
{
1002
}
1002
}
1002
}
1000
Detail
1070
     0
1002
{
1002
}
1000
Dimension
1070
     5
1002
{
1000
DIMALT
1070
     1
1070
     0
1002
{
1002
}
1000
DIMALTD
1070
     1
1070
     2
1002
{
1000
DIMDEC
1070
     4
1000
4
1002
{
1002
}
1002
}
1000
DIMALTTD
1070
     1
1070
     4
1002
{
1002
}
1000
DIMALTTZ
1070
     1
1070
     0
1002
{
1002
}
1000
DIMALTU
1070
     1
1070
     2
1002
{
1002
}
1000
DIMALTZ
1070
     1
1070
     0
1002
{
1002
}
1000
DIMAUNIT
1070
     1
1070
     0
1002
{
1000
DIMASO
1070
     4
1000
1
1002
{
1002
}
1002
}
1000
DIMBLK
1070
     4
1000

1002
{
1002
}
1000
DIMBLK1
1070
     4
1000

1002
{
1002
}
1000
DIMBLK2
1070
     4
1000

1002
{
1002
}
1000
DIMCLRD
1070
     1
1070
   256
1002
{
1002
}
1000
DIMCLRE
1070
     1
1070
   256
1002
{
1002
}
1000
DIMCLRT
1070
     1
1070
     2
1002
{
1002
}
1000
DIMDLE
1070
     2
1040
0.0
1002
{
1002
}
1000
DIMFIT
1070
     1
1070
     3
1002
{
1002
}
1000
DIMJUST
1070
     1
1070
     0
1002
{
1002
}
1000
DIMLFAC
1070
     2
1040
1.0
1002
{
1000
gen-iso-05
1070
     4
1000

1002
{
1002
}
1002
}
1000
DIMLIM
1070
     1
1070
     0
1002
{
1002
}
1000
DIMPOST
1070
     4
1000

1002
{
1002
}
1000
DIMRND
1070
     2
1040
0.0
1002
{
1002
}
1000
DIMSAH
1070
     1
1070
     0
1002
{
1002
}
1000
DIMSCALE
1070
     2
1040
1.0
1002
{
1000
GEN-IS0-1
1070
     4
1000

1002
{
1002
}
1002
}
1000
DIMSD1
1070
     1
1070
     0
1002
{
1002
}
1000
DIMSD2
1070
     1
1070
     0
1002
{
1002
}
1000
DIMSE1
1070
     1
1070
     0
1002
{
1002
}
1000
DIMSE2
1070
     1
1070
     0
1002
{
1002
}
1000
DIMSOXD
1070
     1
1070
     0
1002
{
1002
}
1000
DIMTAD
1070
     1
1070
     0
1002
{
1002
}
1000
DIMTFAC
1070
     2
1040
0.71
1002
{
1002
}
1000
DIMTIH
1070
     1
1070
     0
1002
{
1002
}
1000
DIMTIX
1070
     1
1070
     0
1002
{
1002
}
1000
DIMTM
1070
     2
1040
0.1
1002
{
1002
}
1000
DIMTOFL
1070
     1
1070
     0
1002
{
1002
}
1000
DIMTOH
1070
     1
1070
     0
1002
{
1002
}
1000
DIMTOL
1070
     1
1070
     0
1002
{
1002
}
1000
DIMTOLJ
1070
     1
1070
     1
1002
{
1002
}
1000
DIMTP
1070
     2
1040
0.1
1002
{
1002
}
1000
DIMTSZ
1070
     2
1040
0.0
1002
{
1002
}
1000
DIMTVP
1070
     2
1040
0.0
1002
{
1000
DIMDEC
1070
     4
1000
4
1002
{
1002
}
1002
}
1000
DIMTXSTY
1070
     4
1000
STANDARD
1002
{
1000
Koordinate
1070
     4
1000
Koordinate
1002
{
1002
}
1002
}
1000
DIMTZIN
1070
     1
1070
     0
1002
{
1002
}
1000
DIMUNIT
1070
     1
1070
     2
1002
{
1002
}
1000
DIMUPT
1070
     1
1070
     0
1002
{
1000
DIMUPT
1070
     4
1000

1002
{
1002
}
1002
}
1000
M
1070
     0
1002
{
1000
DIMALTF
1070
     2
1040
0.0393701
1002
{
1002
}
1000
DIMAPOST
1070
     4
1000
"
1002
{
1002
}
1000
DIMASZ
1070
     2
1040
2.5
1002
{
1002
}
1000
DIMCEN
1070
     2
1040
0.0
1002
{
1002
}
1000
DIMDEC
1070
     1
1070
     2
1002
{
1002
}
1000
DIMDLI
1070
     2
1040
7.0
1002
{
1002
}
1000
DIMEXE
1070
     2
1040
1.0
1002
{
1002
}
1000
DIMEXO
1070
     2
1040
1.0
1002
{
1002
}
1000
DIMGAP
1070
     2
1040
0.6
1002
{
1000
DIMLFAC
1070
     4
1000
.5
1002
{
1002
}
1002
}
1000
DIMTDEC
1070
     1
1070
     3
1002
{
1002
}
1000
DIMTXT
1070
     2
1040
3.5
1002
{
1002
}
1000
DIMZIN
1070
     1
1070
     8
1002
{
1000
LUPREC
1070
     4
1000
3
1002
{
1002
}
1002
}
1002
}
1000
I
1070
     0
1002
{
1000
DIMALTF
1070
     2
1040
25.4
1002
{
1002
}
1000
DIMAPOST
1070
     4
1000
mm
1002
{
1002
}
1000
DIMASZ
1070
     2
1040
0.1
1002
{
1002
}
1000
DIMCEN
1070
     2
1040
0.0
1002
{
1002
}
1000
DIMDEC
1070
     1
1070
     4
1002
{
1002
}
1000
DIMDLI
1070
     2
1040
0.5
1002
{
1002
}
1000
DIMEXE
1070
     2
1040
0.1
1002
{
1002
}
1000
DIMEXO
1070
     2
1040
0.05
1002
{
1002
}
1000
DIMGAP
1070
     2
1040
0.06
1002
{
1002
}
1000
DIMTDEC
1070
     1
1070
     4
1002
{
1002
}
1000
DIMTXT
1070
     2
1040
0.12
1002
{
1000
DIMCLRT
1070
     4
1000
6
1002
{
1002
}
1002
}
1000
DIMZIN
1070
     1
1070
     7
1002
{
1002
}
1002
}
1000
GEN-ISO
1070
     5
1002
{
1000
NAME
1070
     4
1000
GEN-ISO
1002
{
1000
DIMTXSTY
1070
     4
1000
ROMANS
1002
{
1002
}
1000
DIMTOH
1070
     4
1000
0
1002
{
1002
}
1002
}
1000
DIMTAD
1070
     1
1070
     1
1002
{
1002
}
1000
DIMTOLJ
1070
     1
1070
     0
1002
{
1002
}
1000
DIMTOFL
1070
     1
1070
     1
1002
{
1002
}
1000
M
1070
     0
1002
{
1002
}
1000
I
1070
     0
1002
{
1002
}
1002
}
1000
GEN-ISO-POS
1070
     5
1002
{
1000
NAME
1070
     4
1000
GEN-ISO-POS
1002
{
1002
}
1000
DIMTOLJ
1070
     1
1070
     0
1002
{
1002
}
1000
DIMTXSTY
1070
     4
1000
STANDARD
1002
{
1002
}
1000
M
1070
     0
1002
{
1000
DIMASZ
1070
     2
1040
2.5
1002
{
1002
}
1000
DIMGAP
1070
     2
1040
1.5
1002
{
1002
}
1000
DIMTXT
1070
     2
1040
5.0
1002
{
1002
}
1002
}
1000
I
1070
     0
1002
{
1000
DIMASZ
1070
     2
1040
0.1
1002
{
1002
}
1000
DIMGAP
1070
     2
1040
0.06
1002
{
1002
}
1000
DIMTXT
1070
     2
1040
0.2
1002
{
1002
}
1002
}
1002
}
1000
GEN-ISO-CIR
1070
     5
1002
{
1000
NAME
1070
     4
1000
GEN-ISO$3
1002
{
1000
DIMDEC
1070
     4
1000
4
1002
{
1002
}
1002
}
1000
DIMFIT
1070
     1
1070
     0
1002
{
1002
}
1000
DIMTAD
1070
     1
1070
     1
1002
{
1002
}
1000
DIMTOH
1070
     1
1070
     1
1002
{
1002
}
1000
DIMTOLJ
1070
     1
1070
     0
1002
{
1002
}
1000
DIMUPT
1070
     1
1070
     1
1002
{
1002
}
1000
M
1070
     0
1002
{
1002
}
1000
I
1070
     0
1002
{
1002
}
1000
DIMTIH
1070
     1
1070
     0
1002
{
1002
}
1000
DIMTIX
1070
     1
1070
     0
1002
{
1002
}
1000
DIMTOFL
1070
     1
1070
     0
1002
{
1002
}
1002
}
1000
GEN-ISO-RAD
1070
     5
1002
{
1000
NAME
1070
     4
1000
GEN-ISO$4
1002
{
1000
DIMDEC
1070
     4
1000
4
1002
{
1002
}
1002
}
1000
DIMFIT
1070
     1
1070
     0
1002
{
1002
}
1000
DIMTAD
1070
     1
1070
     1
1002
{
1002
}
1000
DIMTIH
1070
     1
1070
     0
1002
{
1002
}
1000
DIMTIX
1070
     1
1070
     0
1002
{
1002
}
1000
DIMTOH
1070
     1
1070
     1
1002
{
1002
}
1000
DIMTOLJ
1070
     1
1070
     0
1002
{
1002
}
1000
DIMTOFL
1070
     1
1070
     0
1002
{
1002
}
1000
DIMUPT
1070
     1
1070
     1
1002
{
1002
}
1000
M
1070
     0
1002
{
1002
}
1000
I
1070
     0
1002
{
1002
}
1002
}
1000
GEN-ISO-ORD
1070
     5
1002
{
1000
NAME
1070
     4
1000
GEN-ISO$6
1002
{
1000
dimtxt
1070
     4
1000
2.5
1002
{
1002
}
1002
}
1000
DIMTOLJ
1070
     1
1070
     0
1002
{
1002
}
1000
M
1070
     0
1002
{
1002
}
1000
I
1070
     0
1002
{
1002
}
1002
}
1000
GEN-ISO-AXE-F
1070
     5
1002
{
1000
NAME
1070
     4
1000
GEN-ISO-AXE-F
1002
{
1002
}
1000
DIMSE1
1070
     1
1070
     1
1002
{
1002
}
1000
DIMSE2
1070
     1
1070
     1
1002
{
1002
}
1000
DIMTAD
1070
     1
1070
     1
1002
{
1002
}
1000
DIMTOLJ
1070
     1
1070
     0
1002
{
1002
}
1000
DIMTOFL
1070
     1
1070
     1
1002
{
1002
}
1000
M
1070
     0
1002
{
1002
}
1000
I
1070
     0
1002
{
1002
}
1002
}
1000
GEN-ISO-AXE-H
1070
     5
1002
{
1000
NAME
1070
     4
1000
GEN-ISO-AXE-H
1002
{
1002
}
1000
DIMBLK1
1070
     4
1000
GENAXEH
1002
{
1002
}
1000
DIMLFAC
1070
     2
1040
2.0
1002
{
1002
}
1000
DIMSAH
1070
     1
1070
     1
1002
{
1002
}
1000
DIMSE1
1070
     1
1070
     1
1002
{
1002
}
1000
DIMSE2
1070
     1
1070
     1
1002
{
1002
}
1000
DIMTAD
1070
     1
1070
     1
1002
{
1002
}
1000
DIMTOLJ
1070
     1
1070
     0
1002
{
1002
}
1000
DIMTOFL
1070
     1
1070
     1
1002
{
1002
}
1000
M
1070
     0
1002
{
1002
}
1000
I
1070
     0
1002
{
1002
}
1002
}
1000
GEN-ANSI
1070
     5
1002
{
1000
NAME
1070
     4
1000
GEN-ANSI
1002
{
1002
}
1000
DIMTIH
1070
     1
1070
     1
1002
{
1002
}
1000
DIMTOH
1070
     1
1070
     1
1002
{
1002
}
1000
DIMTAD
1070
     1
1070
     0
1002
{
1002
}
1000
DIMTOLJ
1070
     1
1070
     1
1002
{
1002
}
1000
M
1070
     0
1002
{
1002
}
1000
I
1070
     0
1002
{
1002
}
1002
}
1000
GEN-ANSI-POS
1070
     5
1002
{
1000
>
1002
}
1000
GEN-ANSI-CIR
1070
     5
1002
{
1000
NAME
1070
     4
1000
GEN-ANSI$3
1002
{
1002
}
1000
DIMFIT
1070
     1
1070
     0
1002
{
1002
}
1000
DIMTAD
1070
     1
1070
     0
1002
{
1002
}
1000
DIMTIH
1070
     1
1070
     1
1002
{
1002
}
1000
DIMTIX
1070
     1
1070
     0
1002
{
1002
}
1000
DIMTOFL
1070
     1
1070
     0
1002
{
1002
}
1000
DIMTOH
1070
     1
1070
     1
1002
{
1002
}
1000
DIMTOLJ
1070
     1
1070
     1
1002
{
1002
}
1000
DIMUPT
1070
     1
1070
     1
1002
{
1002
}
1000
M
1070
     0
1002
{
1002
}
1000
I
1070
     0
1002
{
1002
}
1002
}
1000
GEN-ANSI-RAD
1070
     5
1002
{
1000
NAME
1070
     4
1000
GEN-ANSI$4
1002
{
1002
}
1000
DIMFIT
1070
     1
1070
     0
1002
{
1002
}
1000
DIMTAD
1070
     1
1070
     0
1002
{
1002
}
1000
DIMTIH
1070
     1
1070
     1
1002
{
1002
}
1000
DIMTIX
1070
     1
1070
     0
1002
{
1002
}
1000
DIMTOFL
1070
     1
1070
     0
1002
{
1002
}
1000
DIMTOH
1070
     1
1070
     1
1002
{
1002
}
1000
DIMTOLJ
1070
     1
1070
     1
1002
{
1002
}
1000
DIMUPT
1070
     1
1070
     1
1002
{
1002
}
1000
M
1070
     0
1002
{
1002
}
1000
I
1070
     0
1002
{
1002
}
1002
}
1000
GEN-ANSI-ORD
1070
     5
1002
{
1000
NAME
1070
     4
1000
GEN-ANSI$6
1002
{
1002
}
1000
DIMTAD
1070
     1
1070
     0
1002
{
1002
}
1000
DIMTIH
1070
     1
1070
     1
1002
{
1002
}
1000
DIMTOH
1070
     1
1070
     1
1002
{
1002
}
1000
DIMTOLJ
1070
     1
1070
     1
1002
{
1002
}
1000
M
1070
     0
1002
{
1002
}
1000
I
1070
     0
1002
{
1002
}
1002
}
1000
GEN-ANSI-AXE-F
1070
     5
1002
{
1000
NAME
1070
     4
1000
GEN-ANSI-AXE-F
1002
{
1002
}
1000
DIMBLK1
1070
     4
1000
GENAXEH
1002
{
1002
}
1000
DIMSAH
1070
     1
1070
     1
1002
{
1002
}
1000
DIMSE1
1070
     1
1070
     1
1002
{
1002
}
1000
DIMSE2
1070
     1
1070
     1
1002
{
1002
}
1000
DIMTAD
1070
     1
1070
     0
1002
{
1002
}
1000
DIMTIH
1070
     1
1070
     1
1002
{
1002
}
1000
DIMTOH
1070
     1
1070
     1
1002
{
1002
}
1000
DIMTOLJ
1070
     1
1070
     1
1002
{
1002
}
1000
M
1070
     0
1002
{
1002
}
1000
I
1070
     0
1002
{
1002
}
1002
}
1000
GEN-ANSI-AXE-H
1070
     5
1002
{
1000
NAME
1070
     4
1000
GEN-ANSI-AXE-H
1002
{
1002
}
1000
DIMBLK1
1070
     4
1000
GENAXEH
1002
{
1002
}
1000
DIMLFAC
1070
     2
1040
2.0
1002
{
1002
}
1000
DIMSAH
1070
     1
1070
     1
1002
{
1002
}
1000
DIMSE1
1070
     1
1070
     1
1002
{
1002
}
1000
DIMSE2
1070
     1
1070
     1
1002
{
1002
}
1000
DIMTAD
1070
     1
1070
     0
1002
{
1002
}
1000
DIMTOFL
1070
     1
1070
     1
1002
{
1002
}
1000
DIMTOLJ
1070
     1
1070
     1
1002
{
1002
}
1000
M
1070
     0
1002
{
1002
}
1000
I
1070
     0
1002
{
1002
}
1002
}
1002
}
1000
DimSet
1070
     0
1002
{
1000
ChainSum
1070
     3
1070
     0
1002
{
1002
}
1000
DimDclTyp0
1070
     4
1000
dim23
1002
{
1002
}
1000
HorBra
1070
     3
1070
     0
1002
{
1002
}
1000
StrDia
1070
     4
1000
%%c<>
1002
{
1002
}
1000
StrRad
1070
     4
1000
R<>
1002
{
1002
}
1000
TextMinus
1070
     4
1000
<>
1002
{
1002
}
1000
TextPlus
1070
     4
1000
<>
1002
{
1002
}
1000
M
1070
     0
1002
{
1000
DimdliFirst
1070
     2
1040
10.0
1002
{
1002
}
1000
PointMakeDist
1070
     2
1040
10.0
1002
{
1002
}
1002
}
1000
I
1070
     0
1002
{
1000
DimdliFirst
1070
     2
1040
0.5
1002
{
1002
}
1000
PointMakeDist
1070
     2
1040
0.5
1002
{
1002
}
1002
}
1000
FitGrade
1070
     4
1000
h7
1002
{
1002
}
1002
}
1000
Drawing
1070
     0
1002
{
1000
ChamferDimMode
1070
     1
1070
     2
1002
{
1002
}
1000
Gen_Fiso
1070
    -3
1040
1.0
1002
{
1002
}
1000
GenDimStil
1070
     4
1000
ISO
1002
{
1002
}
1000
GenDwgUScale
1070
     2
1040
1.0
1002
{
1002
}
1000
GenInch
1070
     4
1000
M
1002
{
1002
}
1000
GenPlotScale
1070
     4
1000
1:1
1002
{
1002
}
1000
Revisi
1070
     4
1000
0
1002
{
1002
}
1000
Version
1070
    -5
1000
14.01/Apr  1 1998
1002
{
1002
}
1000
Platform
1070
    -5
1000
WINNT
1002
{
1002
}
1002
}
1000
DwgVar
1070
     0
1002
{
1000
M
1070
     0
1002
{
1000
CHAMFERA
1070
     2
1040
0.00001
1002
{
1002
}
1000
CHAMFERB
1070
     2
1040
0.000001
1002
{
1002
}
1000
FILLETRAD
1070
     2
1040
0.000001
1002
{
1002
}
1000
LIMMAX
1070
     7
1010
-1.000000000000000E+20
1020
0.0
1030
0.0
1002
{
1002
}
1000
LTSCALE
1070
     2
1040
0.000001
1002
{
1002
}
1002
}
1000
I
1070
     0
1002
{
1000
CHAMFERA
1070
     2
1040
0.00000000001
1002
{
1002
}
1000
CHAMFERB
1070
     2
1040
0.0000000001
1002
{
1002
}
1000
FILLETRAD
1070
     2
1040
0.00000000001
1002
{
1002
}
1000
LIMMAX
1070
     7
1010
-1.000000000000000E+20
1020
0.0
1030
0.0
1002
{
1002
}
1002
}
1002
}
1000
Hatch
1070
     0
1002
{
1000
GenHtcFlag
1070
     3
1070
     0
1002
{
1002
}
1002
}
1000
Info_Pos
1070
     0
1002
{
1000
>
1002
}
1000
Layer
1070
     9
1002
{
1000
Defs
1070
     0
1002
{
1000
>
1002
}
1000
EntSort
1070
     0
1002
{
1000
>
1002
}
1000
Match
1070
     0
1002
{
1002
}
1000
Settings
1070
     0
1002
{
1000
FocGrNC
1070
     3
1070
     0
1002
{
1002
}
1000
FocGrLo
1070
     3
1070
     0
1002
{
1002
}
1000
FocLoNC
1070
     3
1070
     0
1002
{
1002
}
1000
FocusCol
1070
     1
1070
   253
1002
{
1002
}
1000
GenStdLG
1070
     4
1000

1002
{
1002
}
1000
LayMatch
1070
     3
1070
     0
1002
{
1002
}
1000
LgOff
1070
     3
1070
     0
1002
{
1002
}
1000
CurLG
1070
    -5
1000

1002
{
1002
}
1002
}
1002
}
1000
LType
1070
     0
1002
{
1000
GEN3
1070
    11
1000
genius.lin
1002
{
1002
}
1000
GEN7
1070
    11
1000
genius.lin
1002
{
1002
}
1000
GEN4A
1070
    11
1000
genius.lin
1002
{
1002
}
1000
GEN3A
1070
    11
1000
genius.lin
1002
{
1002
}
1000
GEN7A
1070
    11
1000
genius.lin
1002
{
1002
}
1000
GENZIGZAG
1070
    11
1000
genius.lin
1002
{
1002
}
1002
}
1000
Objecter
1070
     0
1002
{
1000
CreateGroups
1070
     3
1070
     0
1002
{
1002
}
1000
LaySwitch
1070
     3
1070
     1
1002
{
1002
}
1000
LastObj
1070
    -5
1000
333
1002
{
1002
}
1000
TimeStamp
1070
    -5
1000
20030808.12235948
1002
{
1002
}
1002
}
1000
OSWiz
1070
     0
1002
{
1000
Filter
1070
     0
1002
{
1000
HATCH
1070
    12
1002
{
1000
EntityType
1070
     4
1000
LINE
1002
{
1002
}
1000
Layer
1070
     4
1000
8,8N,*-8,*-8N
1002
{
1002
}
1000
Linetype
1070
     4
1000
*
1002
{
1002
}
1000
Color
1070
     4
1000
*
1002
{
1002
}
1000
ApplyInDims
1070
     3
1070
     1
1002
{
1002
}
1002
}
1000
SYMBOLS
1070
    12
1002
{
1000
EntityType
1070
     4
1000
*
1002
{
1002
}
1000
Layer
1070
     4
1000
[5-6],[5-6]N,*-[5-6],*-[5-6]N
1002
{
1002
}
1000
Linetype
1070
     4
1000
*
1002
{
1002
}
1000
Color
1070
     4
1000
*
1002
{
1002
}
1000
ApplyInDims
1070
     3
1070
     1
1002
{
1002
}
1002
}
1000
FEM
1070
    12
1002
{
1000
EntityType
1070
     4
1000
*
1002
{
1002
}
1000
Layer
1070
     4
1000
4A,4AN,*-4A,*-4AN
1002
{
1002
}
1000
Linetype
1070
     4
1000
*
1002
{
1002
}
1000
Color
1070
     4
1000
*
1002
{
1002
}
1000
ApplyInDims
1070
     3
1070
     1
1002
{
1002
}
1002
}
1002
}
1002
}
1000
PaList
1070
     0
1002
{
1000
AutoUpdatePartList
1070
     1
1070
     0
1002
{
1002
}
1000
ReadInfoPoint
1070
     3
1070
     0
1002
{
1002
}
1000
ReadPosNr
1070
     3
1070
     1
1002
{
1002
}
1000
RevStr
1070
     4
1000
0
1002
{
1002
}
1002
}
1000
Paper
1070
     0
1002
{
1000
Layer
1070
    -5
1000
5
1002
{
1002
}
1002
}
1000
PartDB
1070
     0
1002
{
1000
GenDbOwner
1070
     4
1000

1002
{
1002
}
1002
}
1000
System
1070
     0
1002
{
1002
}
1000
Title
1070
     0
1002
{
1000
MakeView
1070
     1
1070
     2
1002
{
1002
}
1002
}
1000
Tools
1070
     0
1002
{
1000
Trans
1070
     0
1002
{
1000
Drawingtranslation
1070
    -4
1070
     1
1002
{
1002
}
1000
upreserve
1070
     3
1070
     0
1002
{
1002
}
1000
originally_on
1070
    -4
1070
     1
1002
{
1002
}
1000
sourcelang
1070
    -5
1000
D
1002
{
1002
}
1002
}
1002
}
  0
APPID
  5
6E
330
9
100
AcDbSymbolTableRecord
100
AcDbRegAppTableRecord
  2
GENIUS_GEVCFG0_13
 70
     0
1001
GENIUS_GENCFG_13
1071
1060338379
1000
6E
1000
GEV
1070
     2
1000
GenCfgObject
1000
GenCfgShort
1000
VED
1070
     0
1002
{
1002
}
1000
PartProto
1070
     1
1070
     1
1002
{
1002
}
  0
APPID
  5
99
330
9
100
AcDbSymbolTableRecord
100
AcDbRegAppTableRecord
  2
GEV_VCCNULL_SWITCH_OFF
 70
     0
  0
APPID
  5
A5
330
9
100
AcDbSymbolTableRecord
100
AcDbRegAppTableRecord
  2
GENIUS_GENDTOL_13
 70
     0
  0
APPID
  5
255
330
9
100
AcDbSymbolTableRecord
100
AcDbRegAppTableRecord
  2
GENIUS_GENOENT_13
 70
     0
  0
APPID
  5
260
330
9
100
AcDbSymbolTableRecord
100
AcDbRegAppTableRecord
  2
GENIUS_GENBLLY_14
 70
     0
  0
APPID
  5
261
330
9
100
AcDbSymbolTableRecord
100
AcDbRegAppTableRecord
  2
GENIUS_VERSION2
 70
     0
  0
APPID
  5
262
330
9
100
AcDbSymbolTableRecord
100
AcDbRegAppTableRecord
  2
GENIUS_GENCFG5_13
 70
     0
1001
GENIUS_GENCFG_13
1071
1060338376
1000
262
1000
GEN@DIMENSION@GEN-ANSI-POS@I
1070
     7
1000
GenCfgObject
1000
GenCfgShort
1000
GenCfgReal
1000
GenCfgBool
1000
GenCfgString
1000
GenCfgDim
1000
GenCfgLayer
1000
DIMASZ
1070
     2
1040
0.1
1002
{
1002
}
1000
DIMGAP
1070
     2
1040
0.06
1002
{
1002
}
1000
DIMTXT
1070
     2
1040
0.2
1002
{
1000
dimclrt
1070
     6
1000
6
1002
{
1000
Color
1070
     1
1070
     0
1002
{
1002
}
1000
LType
1070
     4
1000
CONTINUOUS
1002
{
1002
}
1000
Base
1070
     3
1070
     0
1002
{
1002
}
1002
}
1002
}
  0
APPID
  5
263
330
9
100
AcDbSymbolTableRecord
100
AcDbRegAppTableRecord
  2
GENIUS_GENREC_14
 70
     0
  0
APPID
  5
264
330
9
100
AcDbSymbolTableRecord
100
AcDbRegAppTableRecord
  2
GENIUS_GENODEF_13
 70
     0
  0
APPID
  5
265
330
9
100
AcDbSymbolTableRecord
100
AcDbRegAppTableRecord
  2
GENIUS_GENOBJ-N-REC_13
 70
     0
  0
APPID
  5
2B5
330
9
100
AcDbSymbolTableRecord
100
AcDbRegAppTableRecord
  2
GENIUS_GEFCFG0_13
 70
     0
  0
APPID
  5
2B6
330
9
100
AcDbSymbolTableRecord
100
AcDbRegAppTableRecord
  2
GENIUS_GENTRA_14
 70
     0
  0
APPID
  5
2B7
330
9
100
AcDbSymbolTableRecord
100
AcDbRegAppTableRecord
  2
GENIUS_GENOBJ-N-TIT_13
 70
     0
  0
APPID
  5
2B8
330
9
100
AcDbSymbolTableRecord
100
AcDbRegAppTableRecord
  2
GENIUS_GENTITLE_13
 70
     0
  0
APPID
  5
2B9
330
9
100
AcDbSymbolTableRecord
100
AcDbRegAppTableRecord
  2
GENIUS_GENOREF_13
 70
     0
  0
APPID
  5
2BA
330
9
100
AcDbSymbolTableRecord
100
AcDbRegAppTableRecord
  2
GENIUS_GENOLIS_13
 70
     0
  0
APPID
  5
2BB
330
9
100
AcDbSymbolTableRecord
100
AcDbRegAppTableRecord
  2
GENIUS_GENZVEED_13
 70
     0
  0
APPID
  5
2BC
330
9
100
AcDbSymbolTableRecord
100
AcDbRegAppTableRecord
  2
GENIUS_GENOBJ-N-SDF_13
 70
     0
  0
APPID
  5
2BD
330
9
100
AcDbSymbolTableRecord
100
AcDbRegAppTableRecord
  2
GENIUS_GENSCREG_13
 70
     0
  0
APPID
  5
2BE
330
9
100
AcDbSymbolTableRecord
100
AcDbRegAppTableRecord
  2
GENIUS_GENBLKED_14
 70
     0
  0
APPID
  5
4B4
330
9
100
AcDbSymbolTableRecord
100
AcDbRegAppTableRecord
  2
GENIUS_GENOBJ-N-HTC_13
 70
     0
  0
APPID
  5
4B5
330
9
100
AcDbSymbolTableRecord
100
AcDbRegAppTableRecord
  2
GENIUS_GENHATCH_13
 70
     0
  0
APPID
  5
4B6
330
9
100
AcDbSymbolTableRecord
100
AcDbRegAppTableRecord
  2
GENIUS_GENOBJ-N-FIL_13
 70
     0
  0
APPID
  5
977
330
9
100
AcDbSymbolTableRecord
100
AcDbRegAppTableRecord
  2
GENIUS_GENCFG6_13
 70
     0
1001
GENIUS_GENCFG_13
1071
1060338376
1000
977
1000
GEN@DIMENSION@GEN-ANSI-POS
1070
     7
1000
GenCfgObject
1000
GenCfgShort
1000
GenCfgReal
1000
GenCfgBool
1000
GenCfgString
1000
GenCfgDim
1000
GenCfgLayer
1000
NAME
1070
     4
1000
GEN-ANSI-POS
1002
{
1002
}
1000
DIMTOLJ
1070
     1
1070
     1
1002
{
1002
}
1000
DIMTXSTY
1070
     4
1000
STANDARD
1002
{
1002
}
1000
M
1070
     0
1002
{
1000
DIMASZ
1070
     2
1040
2.5
1002
{
1002
}
1000
DIMGAP
1070
     2
1040
1.5
1002
{
1002
}
1000
DIMTXT
1070
     2
1040
5.0
1002
{
1000
DIMCLRT
1070
     4
1000
6
1002
{
1002
}
1002
}
1002
}
1000
I
1070
     0
1002
{
1000
>
1002
}
  0
APPID
  5
CA5
330
9
100
AcDbSymbolTableRecord
100
AcDbRegAppTableRecord
  2
GENIUS_GENOBJ-F-SUF_13
 70
     0
  0
APPID
  5
D26
330
9
100
AcDbSymbolTableRecord
100
AcDbRegAppTableRecord
  2
MCAD_NO_VIS
 70
     0
  0
APPID
  5
D27
330
9
100
AcDbSymbolTableRecord
100
AcDbRegAppTableRecord
  2
ACAD_TEMP_GRAPHIC
 70
     0
  0
APPID
  5
D57
330
9
100
AcDbSymbolTableRecord
100
AcDbRegAppTableRecord
  2
AD_DRAW
 70
     0
  0
APPID
  5
D5A
330
9
100
AcDbSymbolTableRecord
100
AcDbRegAppTableRecord
  2
ACATTRIBSERVICES
 70
     0
  0
APPID
  5
D7A
330
9
100
AcDbSymbolTableRecord
100
AcDbRegAppTableRecord
  2
DESIGNERASSEMBLIES
 70
     0
  0
APPID
  5
D80
330
9
100
AcDbSymbolTableRecord
100
AcDbRegAppTableRecord
  2
ACADM_DIM_EDIT
 70
     0
  0
APPID
  5
D81
330
9
100
AcDbSymbolTableRecord
100
AcDbRegAppTableRecord
  2
AMDT_DM_ADJ
 70
     0
  0
APPID
  5
DB3
330
9
100
AcDbSymbolTableRecord
100
AcDbRegAppTableRecord
  2
ACAD_DSTYLE_DIMARC_LENGTH_SYMBOL
 70
     0
  0
APPID
  5
DB4
330
9
100
AcDbSymbolTableRecord
100
AcDbRegAppTableRecord
  2
ACAD_DSTYLE_DIMJOGGED_JOGANGLE_SYMBOL
 70
     0
  0
APPID
  5
DF6
330
9
100
AcDbSymbolTableRecord
100
AcDbRegAppTableRecord
  2
ACAD_PSEXT
 70
     0
  0
APPID
  5
E44
330
9
100
AcDbSymbolTableRecord
100
AcDbRegAppTableRecord
  2
GENIUS_GENDIMSH_14
 70
     0
  0
APPID
  5
1129
330
9
100
AcDbSymbolTableRecord
100
AcDbRegAppTableRecord
  2
GENIUS_GENOBJ-N-DIMBR_13
 70
     0
  0
APPID
  5
112A
330
9
100
AcDbSymbolTableRecord
100
AcDbRegAppTableRecord
  2
GENIUS_DIMBR_14
 70
     0
  0
APPID
  5
112B
330
9
100
AcDbSymbolTableRecord
100
AcDbRegAppTableRecord
  2
GENIUS_DIMBRX_14
 70
     0
  0
APPID
  5
112C
330
9
100
AcDbSymbolTableRecord
100
AcDbRegAppTableRecord
  2
GENIUS_GENOBJ-N-DIMBRX_13
 70
     0
  0
APPID
  5
11F1
330
9
100
AcDbSymbolTableRecord
100
AcDbRegAppTableRecord
  2
GEVID1167837410
 70
     0
  0
APPID
  5
11F2
330
9
100
AcDbSymbolTableRecord
100
AcDbRegAppTableRecord
  2
GEVDC
 70
     0
  0
APPID
  5
11F6
330
9
100
AcDbSymbolTableRecord
100
AcDbRegAppTableRecord
  2
AcAecLayerStandard
 70
     0
  0
APPID
  5
120D
330
9
100
AcDbSymbolTableRecord
100
AcDbRegAppTableRecord
  2
AMG_2DHIDE
 70
     0
  0
APPID
  5
120E
330
9
100
AcDbSymbolTableRecord
100
AcDbRegAppTableRecord
  2
AMG_2DSTRUCT_BTR
 70
     0
  0
APPID
  5
121F
330
9
100
AcDbSymbolTableRecord
100
AcDbRegAppTableRecord
  2
ACADM_2DVIEW_IGN_NOTIFY
 70
     0
  0
APPID
  5
145A
330
9
100
AcDbSymbolTableRecord
100
AcDbRegAppTableRecord
  2
GENIUS_GENSCREG_15
 70
     0
  0
ENDTAB
  0
TABLE
  2
DIMSTYLE
  5
A
330
0
100
AcDbSymbolTable
 70
     9
100
AcDbDimStyleTable
 71
     1
340
27
  0
DIMSTYLE
105
1D
330
A
100
AcDbSymbolTableRecord
100
AcDbDimStyleTableRecord
  2
STANDARD
 70
     0
340
F
  0
DIMSTYLE
105
27
102
{ACAD_REACTORS
330
C65
330
5BE
330
5C2
330
5CA
330
5CC
330
10A9
102
}
330
A
100
AcDbSymbolTableRecord
100
AcDbDimStyleTableRecord
  2
GEN-ISO
 70
     0
  4
"
 41
2.5
 42
1.0
 43
7.0
 44
1.0
 47
0.1
 48
0.1
 73
     0
 74
     0
 77
     1
 78
     8
140
3.5
141
0.0
143
0.0393701
146
0.71
147
0.6
172
     1
176
   256
177
   256
178
     2
271
     2
272
     3
274
     4
283
     0
340
F
  0
DIMSTYLE
105
1425
330
A
100
AcDbSymbolTableRecord
100
AcDbDimStyleTableRecord
  2
AM_DIN
 70
     0
  4
"
 41
2.5
 42
1.0
 43
10.0
 44
1.0
 47
0.1
 48
0.1
 73
     0
 74
     0
 77
     1
 78
     8
 79
     2
140
3.5
141
0.0
143
0.0393701
146
0.71
147
1.5
172
     1
176
   256
177
   256
178
     2
271
     2
272
     3
274
     4
283
     0
284
     8
340
F
371
    -1
372
    -1
1001
ACAD_DSTYLE_DIMARC_LENGTH_SYMBOL
1070
   379
1070
     0
1001
ACAD_DSTYLE_DIMJOGGED_JOGANGLE_SYMBOL
1070
   384
1040
1.570796326794896
  0
DIMSTYLE
105
1436
330
A
100
AcDbSymbolTableRecord
100
AcDbDimStyleTableRecord
  2
AM_DIN$3
 70
     0
  4
"
 41
2.5
 42
1.0
 43
10.0
 44
1.0
 47
0.1
 48
0.1
 73
     0
 77
     1
 78
     8
 79
     2
140
3.5
141
0.0
143
0.0393701
146
0.71
147
1.5
176
   256
177
   256
178
     2
271
     2
272
     3
274
     4
283
     0
284
     8
288
     1
289
     0
340
F
371
    -1
372
    -1
1001
ACAD_DSTYLE_DIMARC_LENGTH_SYMBOL
1070
   379
1070
     0
1001
ACAD_DSTYLE_DIMJOGGED_JOGANGLE_SYMBOL
1070
   384
1040
1.570796326794896
  0
DIMSTYLE
105
143B
330
A
100
AcDbSymbolTableRecord
100
AcDbDimStyleTableRecord
  2
AM_DIN$4
 70
     0
  4
"
 41
2.5
 42
1.0
 43
10.0
 44
1.0
 47
0.1
 48
0.1
 73
     0
 77
     1
 78
     8
 79
     2
140
3.5
141
0.0
143
0.0393701
146
0.71
147
1.5
176
   256
177
   256
178
     2
271
     2
272
     3
274
     4
283
     0
284
     8
288
     1
289
     0
340
F
371
    -1
372
    -1
1001
ACAD_DSTYLE_DIMARC_LENGTH_SYMBOL
1070
   379
1070
     0
1001
ACAD_DSTYLE_DIMJOGGED_JOGANGLE_SYMBOL
1070
   384
1040
1.570796326794896
  0
DIMSTYLE
105
1440
330
A
100
AcDbSymbolTableRecord
100
AcDbDimStyleTableRecord
  2
AM_DIN$6
 70
     0
  4
"
 41
2.5
 42
1.0
 43
10.0
 44
1.0
 47
0.1
 48
0.1
 73
     0
 74
     0
 78
     8
 79
     2
140
3.5
141
0.0
143
0.0393701
146
0.71
147
1.5
172
     1
176
   256
177
   256
178
     2
271
     2
272
     3
274
     4
283
     0
284
     8
340
F
371
    -1
372
    -1
1001
ACAD_DSTYLE_DIMARC_LENGTH_SYMBOL
1070
   379
1070
     0
1001
ACAD_DSTYLE_DIMJOGGED_JOGANGLE_SYMBOL
1070
   384
1040
1.570796326794896
  0
DIMSTYLE
105
1445
330
A
100
AcDbSymbolTableRecord
100
AcDbDimStyleTableRecord
  2
AM_DIN$7
 70
     0
  4
"
 41
2.5
 42
1.0
 43
10.0
 44
1.0
 47
0.1
 48
0.1
 73
     0
 74
     0
 77
     1
 78
     8
 79
     2
140
5.0
141
0.0
143
0.0393701
146
0.71
147
1.5
172
     1
176
   256
177
   256
178
     2
271
     2
272
     3
274
     4
283
     0
284
     8
340
F
371
    -1
372
    -1
1001
ACAD_DSTYLE_DIMARC_LENGTH_SYMBOL
1070
   379
1070
     0
1001
ACAD_DSTYLE_DIMJOGGED_JOGANGLE_SYMBOL
1070
   384
1040
1.570796326794896
  0
DIMSTYLE
105
144A
330
A
100
AcDbSymbolTableRecord
100
AcDbDimStyleTableRecord
  2
AM_DIN$SF
 70
     0
  4
"
 41
2.5
 42
1.0
 43
10.0
 44
1.0
 47
0.1
 48
0.1
 73
     0
 74
     0
 75
     1
 76
     1
 77
     1
 78
     8
 79
     2
140
3.5
141
0.0
143
0.0393701
146
0.71
147
1.5
172
     1
176
   256
177
   256
178
     2
271
     2
272
     3
274
     4
283
     0
284
     8
340
F
371
    -1
372
    -1
1001
ACAD_DSTYLE_DIMARC_LENGTH_SYMBOL
1070
   379
1070
     0
1001
ACAD_DSTYLE_DIMJOGGED_JOGANGLE_SYMBOL
1070
   384
1040
1.570796326794896
  0
DIMSTYLE
105
1453
330
A
100
AcDbSymbolTableRecord
100
AcDbDimStyleTableRecord
  2
AM_DIN$SH
 70
     0
  4
"
 41
2.5
 42
1.0
 43
10.0
 44
1.0
 47
0.1
 48
0.1
 73
     0
 74
     0
 75
     1
 76
     1
 77
     1
 78
     8
 79
     2
140
3.5
141
0.0
143
0.0393701
144
2.0
146
0.71
147
1.5
172
     1
173
     1
176
   256
177
   256
178
     2
271
     2
272
     3
274
     4
283
     0
284
     8
340
F
343
144B
371
    -1
372
    -1
1001
ACAD_DSTYLE_DIMARC_LENGTH_SYMBOL
1070
   379
1070
     0
1001
ACAD_DSTYLE_DIMJOGGED_JOGANGLE_SYMBOL
1070
   384
1040
1.570796326794896
  0
ENDTAB
  0
TABLE
  2
BLOCK_RECORD
  5
1
330
0
100
AcDbSymbolTable
 70
    11
  0
BLOCK_RECORD
  5
18
102
{ACAD_XDICTIONARY
360
10C5
102
}
330
1
100
AcDbSymbolTableRecord
100
AcDbBlockTableRecord
  2
*MODEL_SPACE
340
D19
  0
BLOCK_RECORD
  5
15
330
1
100
AcDbSymbolTableRecord
100
AcDbBlockTableRecord
  2
*PAPER_SPACE
340
D1A
  0
BLOCK_RECORD
  5
713
330
1
100
AcDbSymbolTableRecord
100
AcDbBlockTableRecord
  2
*D0
340
0
  0
BLOCK_RECORD
  5
743
330
1
100
AcDbSymbolTableRecord
100
AcDbBlockTableRecord
  2
*D1
340
0
  0
BLOCK_RECORD
  5
7A2
330
1
100
AcDbSymbolTableRecord
100
AcDbBlockTableRecord
  2
*D2
340
0
  0
BLOCK_RECORD
  5
7BA
330
1
100
AcDbSymbolTableRecord
100
AcDbBlockTableRecord
  2
*D3
340
0
  0
BLOCK_RECORD
  5
C59
330
1
100
AcDbSymbolTableRecord
100
AcDbBlockTableRecord
  2
*D4
340
0
  0
BLOCK_RECORD
  5
10AF
330
1
100
AcDbSymbolTableRecord
100
AcDbBlockTableRecord
  2
*D5
340
0
  0
BLOCK_RECORD
  5
10E4
330
1
100
AcDbSymbolTableRecord
100
AcDbBlockTableRecord
  2
*X6
340
0
102
{BLKREFS
331
11A3
331
11E0
102
}
  0
BLOCK_RECORD
  5
10F7
330
1
100
AcDbSymbolTableRecord
100
AcDbBlockTableRecord
  2
*X7
340
0
102
{BLKREFS
331
11A4
331
11E1
102
}
  0
BLOCK_RECORD
  5
1222
330
1
100
AcDbSymbolTableRecord
100
AcDbBlockTableRecord
  2
*U8
340
0
  0
BLOCK_RECORD
  5
144B
330
1
100
AcDbSymbolTableRecord
100
AcDbBlockTableRecord
  2
GENAXEH
340
0
  0
ENDTAB
  0
ENDSEC
  0
SECTION
  2
BLOCKS
  0
BLOCK
  5
19
330
18
100
AcDbEntity
  8
0
100
AcDbBlockBegin
  2
*MODEL_SPACE
 70
     0
 10
0.0
 20
0.0
 30
0.0
  3
*MODEL_SPACE
  1

  0
ENDBLK
  5
1A
330
18
100
AcDbEntity
  8
0
100
AcDbBlockEnd
  0
BLOCK
  5
16
330
15
100
AcDbEntity
 67
     1
  8
0
100
AcDbBlockBegin
  2
*PAPER_SPACE
 70
     0
 10
0.0
 20
0.0
 30
0.0
  3
*PAPER_SPACE
  1

  0
ENDBLK
  5
17
330
15
100
AcDbEntity
 67
     1
  8
0
100
AcDbBlockEnd
  0
BLOCK
  5
ABE
330
713
100
AcDbEntity
  8
0
100
AcDbBlockBegin
  2
*D0
 70
     1
 10
0.0
 20
0.0
 30
0.0
  3
*D0
  1

  0
LINE
  5
10D8
330
713
100
AcDbEntity
  8
BEMASS
370
    -2
100
AcDbLine
 10
408.0119954737105
 20
208.3361136715808
 30
0.0
 11
419.5888046674623
 21
208.3361136715808
 31
0.0
  0
LINE
  5
10D9
330
713
100
AcDbEntity
  8
BEMASS
370
    -2
100
AcDbLine
 10
405.1962355575112
 20
214.336113671581
 30
0.0
 11
419.5888046674623
 21
214.336113671581
 31
0.0
  0
LINE
  5
10DA
330
713
100
AcDbEntity
  8
BEMASS
370
    -2
100
AcDbLine
 10
418.5888046674621
 20
216.836113671581
 30
0.0
 11
418.5888046674621
 21
219.336113671581
 31
0.0
  0
LINE
  5
10DB
330
713
100
AcDbEntity
  8
BEMASS
370
    -2
100
AcDbLine
 10
418.5888046674621
 20
205.8361136715809
 30
0.0
 11
418.5888046674621
 21
197.4541020480337
 31
0.0
  0
LINE
  5
10DC
330
713
100
AcDbEntity
  8
BEMASS
370
    -2
100
AcDbLine
 10
418.5888046674621
 20
214.336113671581
 30
0.0
 11
418.5888046674621
 21
208.3361136715808
 31
0.0
  0
SOLID
  5
10DD
330
713
100
AcDbEntity
  8
BEMASS
100
AcDbTrace
 10
418.1721380007956
 20
216.836113671581
 30
0.0
 11
419.0054713341288
 21
216.836113671581
 31
0.0
 12
418.5888046674621
 22
214.336113671581
 32
0.0
 13
418.5888046674621
 23
214.336113671581
 33
0.0
  0
SOLID
  5
10DE
330
713
100
AcDbEntity
  8
BEMASS
100
AcDbTrace
 10
418.1721380007956
 20
205.8361136715809
 30
0.0
 11
419.0054713341288
 21
205.8361136715809
 31
0.0
 12
418.5888046674621
 22
208.3361136715808
 32
0.0
 13
418.5888046674621
 23
208.3361136715808
 33
0.0
  0
MTEXT
  5
10DF
330
713
100
AcDbEntity
  8
BEMASS
 62
     2
100
AcDbMText
 10
416.2388046674621
 20
198.9456374811046
 30
0.0
 40
3.5
 41
0.0
 71
     5
 72
     1
  1
6
 11
0.0000000000000001
 21
1.0
 31
0.0
 73
     1
 44
1.0
1001
ACAD
1000
MTEXTBEGIN
1070
    73
1070
     1
1070
    44
1040
1.0
1070
    74
1070
     0
1000
MTEXTEND
  0
POINT
  5
10E0
330
713
100
AcDbEntity
  8
DEFPOINTS
 62
     0
100
AcDbPoint
 10
407.0119954737105
 20
208.3361136715808
 30
0.0
  0
POINT
  5
10E1
330
713
100
AcDbEntity
  8
DEFPOINTS
 62
     0
100
AcDbPoint
 10
404.1962355575114
 20
214.336113671581
 30
0.0
  0
POINT
  5
10E2
330
713
100
AcDbEntity
  8
DEFPOINTS
 62
     0
100
AcDbPoint
 10
418.5888046674621
 20
214.336113671581
 30
0.0
  0
ENDBLK
  5
ACA
330
713
100
AcDbEntity
  8
0
100
AcDbBlockEnd
  0
BLOCK
  5
B22
330
743
100
AcDbEntity
  8
0
100
AcDbBlockBegin
  2
*D1
 70
     1
 10
0.0
 20
0.0
 30
0.0
  3
*D1
  1

  0
LINE
  5
F4E
330
743
100
AcDbEntity
  8
BEMASS
370
    -2
100
AcDbLine
 10
264.0119954737105
 20
236.3361136715809
 30
0.0
 11
264.0119954737105
 21
275.2881939608434
 31
0.0
  0
LINE
  5
F4F
330
743
100
AcDbEntity
  8
BEMASS
370
    -2
100
AcDbLine
 10
334.0119954737105
 20
236.3361136715809
 30
0.0
 11
334.0119954737105
 21
275.2881939608434
 31
0.0
  0
LINE
  5
F50
330
743
100
AcDbEntity
  8
BEMASS
370
    -2
100
AcDbLine
 10
266.5119954737105
 20
274.2881939608434
 30
0.0
 11
331.5119954737105
 21
274.2881939608434
 31
0.0
  0
SOLID
  5
F51
330
743
100
AcDbEntity
  8
BEMASS
100
AcDbTrace
 10
266.5119954737105
 20
274.7048606275101
 30
0.0
 11
266.5119954737105
 21
273.8715272941767
 31
0.0
 12
264.0119954737105
 22
274.2881939608434
 32
0.0
 13
264.0119954737105
 23
274.2881939608434
 33
0.0
  0
SOLID
  5
F52
330
743
100
AcDbEntity
  8
BEMASS
100
AcDbTrace
 10
331.5119954737105
 20
274.7048606275101
 30
0.0
 11
331.5119954737105
 21
273.8715272941767
 31
0.0
 12
334.0119954737105
 22
274.2881939608434
 32
0.0
 13
334.0119954737105
 23
274.2881939608434
 33
0.0
  0
MTEXT
  5
F53
330
743
100
AcDbEntity
  8
BEMASS
 62
     2
100
AcDbMText
 10
299.0119954737105
 20
276.6381939608434
 30
0.0
 40
3.5
 41
0.0
 71
     5
 72
     1
  1
%%c70
 73
     1
 44
1.0
1001
ACAD
1000
MTEXTBEGIN
1070
    73
1070
     1
1070
    44
1040
1.0
1070
    74
1070
     0
1000
MTEXTEND
  0
POINT
  5
F54
330
743
100
AcDbEntity
  8
DEFPOINTS
 62
     0
100
AcDbPoint
 10
264.0119954737105
 20
235.3361136715808
 30
0.0
  0
POINT
  5
F55
330
743
100
AcDbEntity
  8
DEFPOINTS
 62
     0
100
AcDbPoint
 10
334.0119954737105
 20
235.3361136715808
 30
0.0
  0
POINT
  5
F56
330
743
100
AcDbEntity
  8
DEFPOINTS
 62
     0
100
AcDbPoint
 10
334.0119954737105
 20
274.2881939608434
 30
0.0
  0
ENDBLK
  5
B2C
330
743
100
AcDbEntity
  8
0
100
AcDbBlockEnd
  0
BLOCK
  5
B01
330
7A2
100
AcDbEntity
  8
0
100
AcDbBlockBegin
  2
*D2
 70
     1
 10
0.0
 20
0.0
 30
0.0
  3
*D2
  1

  0
LINE
  5
F45
330
7A2
100
AcDbEntity
  8
BEMASS
370
    -2
100
AcDbLine
 10
264.0119954737105
 20
169.3361136715808
 30
0.0
 11
264.0119954737105
 21
137.1969846393499
 31
0.0
  0
LINE
  5
F46
330
7A2
100
AcDbEntity
  8
BEMASS
370
    -2
100
AcDbLine
 10
334.0119954737105
 20
169.3361136715808
 30
0.0
 11
334.0119954737105
 21
137.1969846393499
 31
0.0
  0
LINE
  5
F47
330
7A2
100
AcDbEntity
  8
BEMASS
370
    -2
100
AcDbLine
 10
266.5119954737105
 20
138.1969846393499
 30
0.0
 11
331.5119954737105
 21
138.1969846393499
 31
0.0
  0
SOLID
  5
F48
330
7A2
100
AcDbEntity
  8
BEMASS
100
AcDbTrace
 10
266.5119954737105
 20
138.6136513060165
 30
0.0
 11
266.5119954737105
 21
137.7803179726832
 31
0.0
 12
264.0119954737105
 22
138.1969846393499
 32
0.0
 13
264.0119954737105
 23
138.1969846393499
 33
0.0
  0
SOLID
  5
F49
330
7A2
100
AcDbEntity
  8
BEMASS
100
AcDbTrace
 10
331.5119954737105
 20
138.6136513060165
 30
0.0
 11
331.5119954737105
 21
137.7803179726832
 31
0.0
 12
334.0119954737105
 22
138.1969846393499
 32
0.0
 13
334.0119954737105
 23
138.1969846393499
 33
0.0
  0
MTEXT
  5
F4A
330
7A2
100
AcDbEntity
  8
BEMASS
 62
     2
100
AcDbMText
 10
299.0119954737105
 20
140.5469846393499
 30
0.0
 40
3.5
 41
0.0
 71
     5
 72
     1
  1
%%c70
 73
     1
 44
1.0
1001
ACAD
1000
MTEXTBEGIN
1070
    73
1070
     1
1070
    44
1040
1.0
1070
    74
1070
     0
1000
MTEXTEND
  0
POINT
  5
F4B
330
7A2
100
AcDbEntity
  8
DEFPOINTS
 62
     0
100
AcDbPoint
 10
264.0119954737105
 20
170.3361136715808
 30
0.0
  0
POINT
  5
F4C
330
7A2
100
AcDbEntity
  8
DEFPOINTS
 62
     0
100
AcDbPoint
 10
334.0119954737105
 20
170.3361136715808
 30
0.0
  0
POINT
  5
F4D
330
7A2
100
AcDbEntity
  8
DEFPOINTS
 62
     0
100
AcDbPoint
 10
334.0119954737105
 20
138.1969846393499
 30
0.0
  0
ENDBLK
  5
B0B
330
7A2
100
AcDbEntity
  8
0
100
AcDbBlockEnd
  0
BLOCK
  5
A00
330
7BA
100
AcDbEntity
  8
0
100
AcDbBlockBegin
  2
*D3
 70
     1
 10
0.0
 20
0.0
 30
0.0
  3
*D3
  1

  0
LINE
  5
10CE
330
7BA
100
AcDbEntity
  8
BEMASS
370
    -2
100
AcDbLine
 10
335.0119954737105
 20
170.3361136715808
 30
0.0
 11
432.568154014592
 21
170.3361136715808
 31
0.0
  0
LINE
  5
10CF
330
7BA
100
AcDbEntity
  8
BEMASS
370
    -2
100
AcDbLine
 10
335.0119954737105
 20
235.3361136715808
 30
0.0
 11
432.568154014592
 21
235.3361136715808
 31
0.0
  0
LINE
  5
10D0
330
7BA
100
AcDbEntity
  8
BEMASS
370
    -2
100
AcDbLine
 10
431.5681540145919
 20
172.8361136715808
 30
0.0
 11
431.5681540145919
 21
232.8361136715809
 31
0.0
  0
SOLID
  5
10D1
330
7BA
100
AcDbEntity
  8
BEMASS
100
AcDbTrace
 10
431.1514873479253
 20
172.8361136715808
 30
0.0
 11
431.9848206812586
 21
172.8361136715808
 31
0.0
 12
431.5681540145919
 22
170.3361136715808
 32
0.0
 13
431.5681540145919
 23
170.3361136715808
 33
0.0
  0
SOLID
  5
10D2
330
7BA
100
AcDbEntity
  8
BEMASS
100
AcDbTrace
 10
431.1514873479253
 20
232.8361136715809
 30
0.0
 11
431.9848206812586
 21
232.8361136715809
 31
0.0
 12
431.5681540145919
 22
235.3361136715808
 32
0.0
 13
431.5681540145919
 23
235.3361136715808
 33
0.0
  0
MTEXT
  5
10D3
330
7BA
100
AcDbEntity
  8
BEMASS
 62
     2
100
AcDbMText
 10
429.2181540145919
 20
195.9504877105497
 30
0.0
 40
3.5
 41
0.0
 71
     5
 72
     1
  1
65
 11
0.0000000000000001
 21
1.0
 31
0.0
 73
     1
 44
1.0
1001
ACAD
1000
MTEXTBEGIN
1070
    73
1070
     1
1070
    44
1040
1.0
1070
    74
1070
     0
1000
MTEXTEND
  0
POINT
  5
10D4
330
7BA
100
AcDbEntity
  8
DEFPOINTS
 62
     0
100
AcDbPoint
 10
334.0119954737105
 20
170.3361136715808
 30
0.0
  0
POINT
  5
10D5
330
7BA
100
AcDbEntity
  8
DEFPOINTS
 62
     0
100
AcDbPoint
 10
334.0119954737105
 20
235.3361136715808
 30
0.0
  0
POINT
  5
10D6
330
7BA
100
AcDbEntity
  8
DEFPOINTS
 62
     0
100
AcDbPoint
 10
431.5681540145919
 20
235.3361136715808
 30
0.0
  0
ENDBLK
  5
A0A
330
7BA
100
AcDbEntity
  8
0
100
AcDbBlockEnd
  0
BLOCK
  5
C5A
330
C59
100
AcDbEntity
  8
0
100
AcDbBlockBegin
  2
*D4
 70
     1
 10
0.0
 20
0.0
 30
0.0
  3
*D4
  1

  0
LINE
  5
F1C
330
C59
100
AcDbEntity
  8
4
370
    -2
100
AcDbLine
 10
193.2183646654894
 20
214.3361136715809
 30
0.0
 11
186.9980760174954
 21
214.3361136715809
 31
0.0
  0
LINE
  5
F1D
330
C59
100
AcDbEntity
  8
4
370
    -2
100
AcDbLine
 10
225.5119954737105
 20
190.3361136715809
 30
0.0
 11
186.9980760174953
 21
190.336113671581
 31
0.0
  0
LINE
  5
F1E
330
C59
100
AcDbEntity
  8
4
370
    -2
100
AcDbLine
 10
187.9980760174954
 20
211.8361136715809
 30
0.0
 11
187.9980760174954
 21
192.836113671581
 31
0.0
  0
SOLID
  5
F1F
330
C59
100
AcDbEntity
  8
4
100
AcDbTrace
 10
187.5814093508287
 20
211.8361136715809
 30
0.0
 11
188.414742684162
 21
211.8361136715809
 31
0.0
 12
187.9980760174954
 22
214.3361136715809
 32
0.0
 13
187.9980760174954
 23
214.3361136715809
 33
0.0
  0
SOLID
  5
F20
330
C59
100
AcDbEntity
  8
4
100
AcDbTrace
 10
187.5814093508287
 20
192.836113671581
 30
0.0
 11
188.414742684162
 21
192.836113671581
 31
0.0
 12
187.9980760174953
 22
190.336113671581
 32
0.0
 13
187.9980760174953
 23
190.336113671581
 33
0.0
  0
MTEXT
  5
F21
330
C59
100
AcDbEntity
  8
4
 62
     2
100
AcDbMText
 10
185.6477315293063
 20
202.336113671581
 30
0.0
 40
3.5
 41
0.0
 71
     5
 72
     1
  1
24
 11
0.0000000000000001
 21
1.0
 31
0.0
 73
     1
 44
1.0
1001
ACAD
1000
MTEXTBEGIN
1070
    73
1070
     1
1070
    44
1040
1.0
1070
    74
1070
     0
1000
MTEXTEND
  0
POINT
  5
F22
330
C59
100
AcDbEntity
  8
DEFPOINTS
 62
     0
100
AcDbPoint
 10
194.2183646654894
 20
214.3361136715809
 30
0.0
  0
POINT
  5
F23
330
C59
100
AcDbEntity
  8
DEFPOINTS
 62
     0
100
AcDbPoint
 10
226.5119954737105
 20
190.3361136715809
 30
0.0
  0
POINT
  5
F24
330
C59
100
AcDbEntity
  8
DEFPOINTS
 62
     0
100
AcDbPoint
 10
187.9980760174953
 20
190.336113671581
 30
0.0
  0
ENDBLK
  5
C64
330
C59
100
AcDbEntity
  8
0
100
AcDbBlockEnd
  0
BLOCK
  5
10B9
330
10AF
100
AcDbEntity
  8
0
100
AcDbBlockBegin
  2
*D5
 70
     1
 10
0.0
 20
0.0
 30
0.0
  3
*D5
  1

  0
LINE
  5
10BB
330
10AF
100
AcDbEntity
  8
5
370
    -2
100
AcDbLine
 10
196.511996565019
 20
222.336113671581
 30
0.0
 11
185.0503376289565
 21
222.336113671581
 31
0.0
  0
LINE
  5
10BC
330
10AF
100
AcDbEntity
  8
5
370
    -2
100
AcDbLine
 10
199.5027327169614
 20
214.336113671581
 30
0.0
 11
185.0503376289565
 21
214.336113671581
 31
0.0
  0
LINE
  5
10BD
330
10AF
100
AcDbEntity
  8
5
370
    -2
100
AcDbLine
 10
186.0503376289565
 20
219.836113671581
 30
0.0
 11
186.0503376289565
 21
216.8361136715811
 31
0.0
  0
SOLID
  5
10BE
330
10AF
100
AcDbEntity
  8
5
100
AcDbTrace
 10
185.6336709622898
 20
219.836113671581
 30
0.0
 11
186.4670042956231
 21
219.836113671581
 31
0.0
 12
186.0503376289565
 22
222.336113671581
 32
0.0
 13
186.0503376289565
 23
222.336113671581
 33
0.0
  0
SOLID
  5
10BF
330
10AF
100
AcDbEntity
  8
5
100
AcDbTrace
 10
185.6336709622898
 20
216.8361136715811
 30
0.0
 11
186.4670042956231
 21
216.8361136715811
 31
0.0
 12
186.0503376289565
 22
214.336113671581
 32
0.0
 13
186.0503376289565
 23
214.336113671581
 33
0.0
  0
MTEXT
  5
10C0
330
10AF
100
AcDbEntity
  8
5
 62
     2
100
AcDbMText
 10
183.7003376289565
 20
218.3361136715811
 30
0.0
 40
3.5
 41
0.0
 71
     5
 72
     1
  1
8
 11
0.0000000000000001
 21
1.0
 31
0.0
 73
     1
 44
1.0
1001
ACAD
1000
MTEXTBEGIN
1070
    73
1070
     1
1070
    44
1040
1.0
1070
    74
1070
     0
1000
MTEXTEND
  0
POINT
  5
10C1
330
10AF
100
AcDbEntity
  8
DEFPOINTS
 62
     0
100
AcDbPoint
 10
197.511996565019
 20
222.336113671581
 30
0.0
  0
POINT
  5
10C2
330
10AF
100
AcDbEntity
  8
DEFPOINTS
 62
     0
100
AcDbPoint
 10
200.5027327169614
 20
214.336113671581
 30
0.0
  0
POINT
  5
10C3
330
10AF
100
AcDbEntity
  8
DEFPOINTS
 62
     0
100
AcDbPoint
 10
186.0503376289565
 20
214.336113671581
 30
0.0
  0
ENDBLK
  5
10BA
330
10AF
100
AcDbEntity
  8
0
100
AcDbBlockEnd
  0
BLOCK
  5
10E5
330
10E4
100
AcDbEntity
  8
0
100
AcDbBlockBegin
  2
*X6
 70
     1
 10
0.0
 20
0.0
 30
0.0
  3
*X6
  1

  0
LINE
  5
10E6
330
10E4
100
AcDbEntity
  8
8
100
AcDbLine
 10
170.188
 20
468.402
 30
0.0
 11
174.771
 21
472.9849999999998
 31
0.0
  0
LINE
  5
10E7
330
10E4
100
AcDbEntity
  8
8
100
AcDbLine
 10
165.698
 20
468.402
 30
0.0
 11
167.698
 21
470.4019999999998
 31
0.0
  0
LINE
  5
10E8
330
10E4
100
AcDbEntity
  8
8
100
AcDbLine
 10
174.039
 20
476.743
 30
0.0
 11
175.22
 21
477.924
 31
0.0
  0
LINE
  5
10E9
330
10E4
100
AcDbEntity
  8
8
100
AcDbLine
 10
161.208
 20
468.402
 30
0.0
 11
163.208
 21
470.4019999999998
 31
0.0
  0
LINE
  5
10EA
330
10E4
100
AcDbEntity
  8
8
100
AcDbLine
 10
153.218
 20
464.902
 30
0.0
 11
156.309
 21
467.994
 31
0.0
  0
LINE
  5
10EB
330
10E4
100
AcDbEntity
  8
8
100
AcDbLine
 10
156.718
 20
468.402
 30
0.0
 11
162.219
 21
473.903
 31
0.0
  0
LINE
  5
10EC
330
10E4
100
AcDbEntity
  8
8
100
AcDbLine
 10
152.309
 20
468.484
 30
0.0
 11
154.228
 21
470.4019999999998
 31
0.0
  0
LINE
  5
10ED
330
10E4
100
AcDbEntity
  8
8
100
AcDbLine
 10
174.783
 20
473.114
 30
0.0
 11
172.97
 21
474.927
 31
0.0
  0
LINE
  5
10EE
330
10E4
100
AcDbEntity
  8
8
100
AcDbLine
 10
174.409
 20
468.998
 30
0.0
 11
171.307
 21
472.1
 31
0.0
  0
LINE
  5
10EF
330
10E4
100
AcDbEntity
  8
8
100
AcDbLine
 10
170.515
 20
468.402
 30
0.0
 11
168.514
 21
470.4019999999998
 31
0.0
  0
LINE
  5
10F0
330
10E4
100
AcDbEntity
  8
8
100
AcDbLine
 10
163.205
 20
475.7119999999998
 30
0.0
 11
163.014
 21
475.9019999999998
 31
0.0
  0
LINE
  5
10F1
330
10E4
100
AcDbEntity
  8
8
100
AcDbLine
 10
166.024
 20
468.402
 30
0.0
 11
164.024
 21
470.4019999999998
 31
0.0
  0
LINE
  5
10F2
330
10E4
100
AcDbEntity
  8
8
100
AcDbLine
 10
161.62
 20
472.806
 30
0.0
 11
160.167
 21
474.26
 31
0.0
  0
LINE
  5
10F3
330
10E4
100
AcDbEntity
  8
8
100
AcDbLine
 10
161.534
 20
468.402
 30
0.0
 11
157.922
 21
472.015
 31
0.0
  0
LINE
  5
10F4
330
10E4
100
AcDbEntity
  8
8
100
AcDbLine
 10
157.044
 20
468.402
 30
0.0
 11
155.044
 21
470.4019999999998
 31
0.0
  0
LINE
  5
10F5
330
10E4
100
AcDbEntity
  8
8
100
AcDbLine
 10
156.054
 20
464.902
 30
0.0
 11
152.309
 21
468.6469999999998
 31
0.0
  0
ENDBLK
  5
10F6
330
10E4
100
AcDbEntity
  8
0
100
AcDbBlockEnd
  0
BLOCK
  5
10F8
330
10F7
100
AcDbEntity
  8
0
100
AcDbBlockBegin
  2
*X7
 70
     1
 10
0.0
 20
0.0
 30
0.0
  3
*X7
  1

  0
LINE
  5
10F9
330
10F7
100
AcDbEntity
  8
8
100
AcDbLine
 10
173.8229999999999
 20
519.428
 30
0.0
 11
174.975
 21
520.58
 31
0.0
  0
LINE
  5
10FA
330
10F7
100
AcDbEntity
  8
8
100
AcDbLine
 10
172.16
 20
522.255
 30
0.0
 11
174.6
 21
524.695
 31
0.0
  0
LINE
  5
10FB
330
10F7
100
AcDbEntity
  8
8
100
AcDbLine
 10
170.497
 20
525.082
 30
0.0
 11
172.817
 21
527.4019999999998
 31
0.0
  0
LINE
  5
10FC
330
10F7
100
AcDbEntity
  8
8
100
AcDbLine
 10
161.318
 20
520.393
 30
0.0
 11
162.433
 21
521.508
 31
0.0
  0
LINE
  5
10FD
330
10F7
100
AcDbEntity
  8
8
100
AcDbLine
 10
166.327
 20
525.4019999999997
 30
0.0
 11
168.327
 21
527.4019999999998
 31
0.0
  0
LINE
  5
10FE
330
10F7
100
AcDbEntity
  8
8
100
AcDbLine
 10
159.0729999999999
 20
522.638
 30
0.0
 11
160.848
 21
524.4139999999998
 31
0.0
  0
LINE
  5
10FF
330
10F7
100
AcDbEntity
  8
8
100
AcDbLine
 10
161.837
 20
525.403
 30
0.0
 11
163.837
 21
527.4019999999998
 31
0.0
  0
LINE
  5
1100
330
10F7
100
AcDbEntity
  8
8
100
AcDbLine
 10
156.828
 20
524.883
 30
0.0
 11
159.347
 21
527.4019999999998
 31
0.0
  0
LINE
  5
1101
330
10F7
100
AcDbEntity
  8
8
100
AcDbLine
 10
152.857
 20
525.4019999999997
 30
0.0
 11
156.072
 21
528.6169999999998
 31
0.0
  0
LINE
  5
1102
330
10F7
100
AcDbEntity
  8
8
100
AcDbLine
 10
152.309
 20
529.3449999999998
 30
0.0
 11
153.867
 21
530.9019999999998
 31
0.0
  0
LINE
  5
1103
330
10F7
100
AcDbEntity
  8
8
100
AcDbLine
 10
175.013
 20
520.155
 30
0.0
 11
171.085
 21
524.082
 31
0.0
  0
LINE
  5
1104
330
10F7
100
AcDbEntity
  8
8
100
AcDbLine
 10
169.765
 20
525.4019999999997
 30
0.0
 11
167.765
 21
527.4019999999998
 31
0.0
  0
LINE
  5
1105
330
10F7
100
AcDbEntity
  8
8
100
AcDbLine
 10
165.275
 20
525.403
 30
0.0
 11
163.275
 21
527.4019999999998
 31
0.0
  0
LINE
  5
1106
330
10F7
100
AcDbEntity
  8
8
100
AcDbLine
 10
160.785
 20
525.403
 30
0.0
 11
158.785
 21
527.4019999999998
 31
0.0
  0
LINE
  5
1107
330
10F7
100
AcDbEntity
  8
8
100
AcDbLine
 10
156.122
 20
530.065
 30
0.0
 11
155.285
 21
530.9019999999998
 31
0.0
  0
LINE
  5
1108
330
10F7
100
AcDbEntity
  8
8
100
AcDbLine
 10
156.295
 20
525.4019999999997
 30
0.0
 11
152.309
 21
529.388
 31
0.0
  0
ENDBLK
  5
1109
330
10F7
100
AcDbEntity
  8
0
100
AcDbBlockEnd
  0
BLOCK
  5
1223
330
1222
100
AcDbEntity
  8
0
100
AcDbBlockBegin
  2
*U8
 70
     1
 10
0.0
 20
0.0
 30
0.0
  3
*U8
  1

  0
ENDBLK
  5
1224
330
1222
100
AcDbEntity
  8
0
100
AcDbBlockEnd
  0
BLOCK
  5
144D
330
144B
100
AcDbEntity
  8
0
100
AcDbBlockBegin
  2
GENAXEH
 70
     0
 10
0.0
 20
0.0
 30
0.0
  3
GENAXEH
  1

  0
LINE
  5
144C
330
144B
100
AcDbEntity
  8
0
100
AcDbLine
 10
-1.0
 20
0.0
 30
0.0
 11
1.0
 21
0.0
 31
0.0
  0
ENDBLK
  5
144E
330
144B
100
AcDbEntity
  8
0
100
AcDbBlockEnd
  0
ENDSEC
  0
SECTION
  2
ENTITIES
  0
HATCH
  5
5A8
330
18
100
AcDbEntity
  8
8
100
AcDbHatch
 10
0.0
 20
0.0
 30
0.0
210
0.0
220
0.0
230
1.0
  2
_USER
 70
     0
 71
     0
 91
        1
 92
        1
 93
       28
 72
     1
 10
328.5119954737105
 20
170.3361136715808
 11
327.5835482889799
 21
196.923362413337
 72
     2
 10
325.0850712214321
 20
196.8361136715808
 40
2.5
 50
362.0
 51
449.9999999999998
 73
     1
 72
     1
 10
325.0850712214321
 20
199.3361136715808
 11
324.2564408601527
 21
199.3361136715808
 72
     1
 10
324.2564408601527
 20
199.3361136715808
 11
324.0119954737105
 21
206.3361136715808
 72
     1
 10
324.0119954737105
 20
206.3361136715808
 11
325.0850712214321
 21
206.3361136715808
 72
     2
 10
325.0850712214321
 20
208.8361136715808
 40
2.5
 50
270.0000000000001
 51
358.0
 73
     1
 72
     1
 10
327.5835482889799
 20
208.7488649298247
 11
328.5119954737105
 21
235.3361136715808
 72
     1
 10
328.5119954737105
 20
235.3361136715808
 11
334.0119954737105
 21
235.3361136715808
 72
     1
 10
334.0119954737105
 20
235.3361136715808
 11
334.9883964185551
 21
216.7052737809736
 72
     2
 10
337.4849702554416
 20
216.836113671581
 40
2.5
 50
183.0
 51
270.0000000000001
 73
     1
 72
     1
 10
337.4849702554416
 20
214.336113671581
 11
368.3119954737104
 21
214.336113671581
 72
     1
 10
368.3119954737104
 20
214.336113671581
 11
368.3119954737104
 21
201.3361136715811
 72
     1
 10
368.3119954737104
 20
201.3361136715809
 11
371.5119954737105
 21
199.4885928101741
 72
     1
 10
371.5119954737105
 20
199.4885928101741
 11
374.7119954737105
 21
201.3361136715809
 72
     1
 10
374.7119954737105
 20
201.3361136715809
 11
374.7119954737105
 21
214.336113671581
 72
     1
 10
374.7119954737105
 20
214.3361136715811
 11
404.1962355575114
 21
214.336113671581
 72
     2
 10
404.1962355575114
 20
211.8361136715809
 40
2.5
 50
270.0
 51
355.0
 73
     0
 72
     1
 10
406.6867223027406
 20
212.0540030284501
 11
407.0119954737105
 21
208.3361136715808
 72
     1
 10
407.0119954737105
 20
208.3361136715808
 11
386.4332759629448
 21
208.336113671581
 72
     2
 10
386.4332759629448
 20
204.336113671581
 40
4.0
 50
90.0
 51
170.0
 73
     1
 72
     1
 10
382.4940449508958
 20
205.0307063822487
 11
381.3600730038325
 21
198.5996318949115
 72
     2
 10
371.5119954737105
 20
200.336113671581
 40
10.0
 50
9.999999999999886
 51
170.0000000000001
 73
     0
 72
     1
 10
361.6639179435884
 20
198.5996318949115
 11
360.5299459965251
 21
205.0307063822487
 72
     2
 10
356.5907149844762
 20
204.3361136715808
 40
4.0
 50
370.0
 51
450.0
 73
     1
 72
     1
 10
356.5907149844762
 20
208.3361136715808
 11
341.6972784867553
 21
208.3361136715808
 72
     2
 10
341.6972784867553
 20
202.3361136715808
 40
6.0
 50
90.0
 51
176.9999999999999
 73
     1
 72
     1
 10
335.705501278228
 20
202.6501294090386
 11
334.0119954737105
 21
170.3361136715808
 72
     1
 10
334.0119954737105
 20
170.3361136715808
 11
328.5119954737105
 21
170.3361136715808
 97
        0
 75
     0
 76
     0
 52
135.0
 41
3.0
 77
     0
 78
     1
 53
135.0
 43
469.2835809429538
 44
-285.5908338372341
 45
-2.121320343559641
 46
-2.121320343559641
 79
     0
 98
        1
 10
469.2835809429538
 20
-285.5908338372341
  0
LINE
  5
5B5
330
18
100
AcDbEntity
  8
0
100
AcDbLine
 10
328.5119954737105
 20
170.3361136715808
 30
0.0
 11
334.0119954737105
 21
170.3361136715808
 31
0.0
  0
LINE
  5
5B6
330
18
100
AcDbEntity
  8
0
100
AcDbLine
 10
328.5119954737105
 20
235.3361136715808
 30
0.0
 11
334.0119954737105
 21
235.3361136715808
 31
0.0
  0
LINE
  5
5B7
330
18
100
AcDbEntity
  8
0
100
AcDbLine
 10
324.0119954737105
 20
206.3361136715808
 30
0.0
 11
325.0850712214321
 21
206.3361136715808
 31
0.0
  0
LINE
  5
5B8
330
18
100
AcDbEntity
  8
0
100
AcDbLine
 10
324.2564408601527
 20
199.3361136715808
 30
0.0
 11
325.0850712214321
 21
199.3361136715808
 31
0.0
  0
LINE
  5
5B9
330
18
100
AcDbEntity
  8
0
100
AcDbLine
 10
274.0119954737105
 20
206.3361136715808
 30
0.0
 11
324.0119954737105
 21
206.3361136715808
 31
0.0
  0
LINE
  5
5BA
330
18
100
AcDbEntity
  8
0
100
AcDbLine
 10
273.7675500872683
 20
199.3361136715808
 30
0.0
 11
324.2564408601527
 21
199.3361136715808
 31
0.0
  0
DIMENSION
  5
5BE
330
18
100
AcDbEntity
  8
BEMASS
100
AcDbDimension
  2
*D0
 10
418.5888046674621
 20
214.336113671581
 30
0.0
 11
418.5888046674621
 21
198.9456374811046
 31
0.0
 70
   160
 71
     5
 42
6.000000000000111
  3
GEN-ISO
100
AcDbAlignedDimension
 13
407.0119954737105
 23
208.3361136715808
 33
0.0
 14
404.1962355575114
 24
214.336113671581
 34
0.0
 50
90.0
100
AcDbRotatedDimension
  0
DIMENSION
  5
5C2
330
18
100
AcDbEntity
  8
BEMASS
100
AcDbDimension
  2
*D1
 10
334.0119954737105
 20
274.2881939608434
 30
0.0
 11
299.0119954737105
 21
274.2881939608434
 31
0.0
 70
   160
  1
%%c<>
 71
     5
 42
70.0
  3
GEN-ISO
100
AcDbAlignedDimension
 13
264.0119954737105
 23
235.3361136715808
 33
0.0
 14
334.0119954737105
 24
235.3361136715808
 34
0.0
 50
180.0
100
AcDbRotatedDimension
  0
LINE
  5
5C5
330
18
100
AcDbEntity
  8
BEMASS
100
AcDbLine
 10
269.5119954737105
 20
170.3361136715808
 30
0.0
 11
269.5119954737105
 21
184.783365463854
 31
0.0
  0
DIMENSION
  5
5CA
330
18
100
AcDbEntity
  8
BEMASS
100
AcDbDimension
  2
*D2
 10
334.0119954737105
 20
138.1969846393499
 30
0.0
 11
299.0119954737105
 21
138.1969846393499
 31
0.0
 70
   160
  1
%%c<>
 71
     5
 42
70.0
  3
GEN-ISO
100
AcDbAlignedDimension
 13
264.0119954737105
 23
170.3361136715808
 33
0.0
 14
334.0119954737105
 24
170.3361136715808
 34
0.0
 50
180.0
100
AcDbRotatedDimension
  0
DIMENSION
  5
5CC
330
18
100
AcDbEntity
  8
BEMASS
100
AcDbDimension
  2
*D3
 10
431.5681540145919
 20
235.3361136715808
 30
0.0
 11
431.5681540145919
 21
195.9504877105497
 31
0.0
 70
   160
 71
     5
 42
65.0
  3
GEN-ISO
100
AcDbAlignedDimension
 13
334.0119954737105
 23
170.3361136715808
 33
0.0
 14
334.0119954737105
 24
235.3361136715808
 34
0.0
 50
90.0
100
AcDbRotatedDimension
  0
LINE
  5
5D9
330
18
100
AcDbEntity
  8
0
100
AcDbLine
 10
324.0119954737105
 20
206.3361136715808
 30
0.0
 11
324.2564408601527
 21
199.3361136715808
 31
0.0
  0
LINE
  5
5DA
102
{ACAD_REACTORS
330
C26
102
}
330
18
100
AcDbEntity
  8
0
100
AcDbLine
 10
274.0119954737105
 20
206.3361136715808
 30
0.0
 11
273.7675500872683
 21
199.3361136715808
 31
0.0
  0
ARC
  5
5E9
330
18
100
AcDbEntity
  8
0
100
AcDbCircle
 10
325.0850712214321
 20
196.8361136715808
 30
0.0
 40
2.5
100
AcDbArc
 50
2.000000000000357
 51
90.0
  0
LINE
  5
5EA
102
{ACAD_REACTORS
330
C26
102
}
330
18
100
AcDbEntity
  8
0
100
AcDbLine
 10
272.9389197259887
 20
206.3361136715808
 30
0.0
 11
274.0119954737105
 21
206.3361136715808
 31
0.0
  0
LINE
  5
5EB
102
{ACAD_REACTORS
330
C26
102
}
330
18
100
AcDbEntity
  8
0
100
AcDbLine
 10
269.5119954737105
 20
235.3361136715808
 30
0.0
 11
270.440442658441
 21
208.7488649298247
 31
0.0
  0
LINE
  5
5EC
330
18
100
AcDbEntity
  8
0
100
AcDbLine
 10
328.5119954737105
 20
235.3361136715808
 30
0.0
 11
327.5835482889799
 21
208.7488649298247
 31
0.0
  0
ARC
  5
5ED
102
{ACAD_REACTORS
330
C26
102
}
330
18
100
AcDbEntity
  8
0
100
AcDbCircle
 10
272.9389197259887
 20
208.8361136715808
 30
0.0
 40
2.5
100
AcDbArc
 50
182.0000000000004
 51
270.0
  0
ARC
  5
5EE
330
18
100
AcDbEntity
  8
0
100
AcDbCircle
 10
325.0850712214321
 20
208.8361136715808
 30
0.0
 40
2.5
100
AcDbArc
 50
270.0
 51
357.9999999999996
  0
ARC
  5
5EF
102
{ACAD_REACTORS
330
C26
102
}
330
18
100
AcDbEntity
  8
0
100
AcDbCircle
 10
272.9389197259887
 20
196.8361136715809
 30
0.0
 40
2.5
100
AcDbArc
 50
90.0
 51
177.9999999999996
  0
LINE
  5
5F0
330
18
100
AcDbEntity
  8
0
100
AcDbLine
 10
328.5119954737105
 20
170.3361136715808
 30
0.0
 11
327.5835482889799
 21
196.923362413337
 31
0.0
  0
LINE
  5
5F1
102
{ACAD_REACTORS
330
C26
102
}
330
18
100
AcDbEntity
  8
0
100
AcDbLine
 10
269.5119954737105
 20
170.3361136715808
 30
0.0
 11
270.440442658441
 21
196.9233624133372
 31
0.0
  0
LINE
  5
5F2
102
{ACAD_REACTORS
330
C26
102
}
330
18
100
AcDbEntity
  8
0
100
AcDbLine
 10
272.9389197259887
 20
199.3361136715808
 30
0.0
 11
273.7675500872683
 21
199.3361136715808
 31
0.0
  0
LINE
  5
5F3
102
{ACAD_REACTORS
330
C26
102
}
330
18
100
AcDbEntity
  8
0
100
AcDbLine
 10
260.5390206919794
 20
214.336113671581
 30
0.0
 11
229.7119954737105
 21
214.336113671581
 31
0.0
  0
LINE
  5
5F4
102
{ACAD_REACTORS
330
C26
102
}
330
18
100
AcDbEntity
  8
0
100
AcDbLine
 10
256.3267124606657
 20
208.3361136715808
 30
0.0
 11
241.4332759629448
 21
208.3361136715808
 31
0.0
  0
LINE
  5
5F5
102
{ACAD_REACTORS
330
C26
102
}
330
18
100
AcDbEntity
  8
0
100
AcDbLine
 10
264.0119954737105
 20
170.3361136715808
 30
0.0
 11
262.3184896691931
 21
202.6501294090386
 31
0.0
  0
ARC
  5
5F6
102
{ACAD_REACTORS
330
C26
102
}
330
18
100
AcDbEntity
  8
0
100
AcDbCircle
 10
256.3267124606657
 20
202.3361136715808
 30
0.0
 40
6.0
100
AcDbArc
 50
3.000000000000716
 51
90.0
  0
LINE
  5
5F7
102
{ACAD_REACTORS
330
C26
102
}
330
18
100
AcDbEntity
  8
0
100
AcDbLine
 10
191.0119954737105
 20
208.3361136715808
 30
0.0
 11
191.3372686446802
 21
212.0540030284501
 31
0.0
  0
ARC
  5
5F8
102
{ACAD_REACTORS
330
C26
102
}
330
18
100
AcDbEntity
  8
0
100
AcDbCircle
 10
193.8277553899096
 20
211.8361136715809
 30
0.0
 40
2.5
100
AcDbArc
 50
90.0
 51
175.0000000000002
  0
LINE
  5
5F9
330
18
100
AcDbEntity
  8
7A
 48
3000100.0
100
AcDbLine
 10
226.5119954737105
 20
190.3361136715809
 30
0.0
 11
226.5119954737105
 21
214.336113671581
 31
0.0
  0
ARC
  5
5FA
102
{ACAD_REACTORS
330
C26
102
}
330
18
100
AcDbEntity
  8
0
100
AcDbCircle
 10
226.5119954737105
 20
200.336113671581
 30
0.0
 40
10.0
100
AcDbArc
 50
190.0000000000002
 51
349.9999999999998
  0
LINE
  5
5FB
102
{ACAD_REACTORS
330
C26
102
}
330
18
100
AcDbEntity
  8
0
100
AcDbLine
 10
236.3600730038326
 20
198.5996318949115
 30
0.0
 11
237.494044950896
 21
205.0307063822487
 31
0.0
  0
LINE
  5
5FC
102
{ACAD_REACTORS
330
C26
102
}
330
18
100
AcDbEntity
  8
0
100
AcDbLine
 10
216.6639179435885
 20
198.5996318949115
 30
0.0
 11
215.5299459965251
 21
205.0307063822487
 31
0.0
  0
LINE
  5
5FD
102
{ACAD_REACTORS
330
C26
102
}
330
18
100
AcDbEntity
  8
0
100
AcDbLine
 10
211.5907149844762
 20
208.336113671581
 30
0.0
 11
191.0119954737105
 21
208.3361136715808
 31
0.0
  0
ARC
  5
5FE
102
{ACAD_REACTORS
330
C26
102
}
330
18
100
AcDbEntity
  8
0
100
AcDbCircle
 10
211.5907149844762
 20
204.336113671581
 30
0.0
 40
4.0
100
AcDbArc
 50
10.00000000000021
 51
90.0
  0
ARC
  5
5FF
102
{ACAD_REACTORS
330
C26
102
}
330
18
100
AcDbEntity
  8
0
100
AcDbCircle
 10
241.4332759629448
 20
204.3361136715808
 30
0.0
 40
4.0
100
AcDbArc
 50
90.0
 51
169.9999999999997
  0
LINE
  5
608
102
{ACAD_REACTORS
330
C26
102
}
330
18
100
AcDbEntity
  8
0
100
AcDbLine
 10
264.0119954737105
 20
235.3361136715808
 30
0.0
 11
263.0355945288659
 21
216.7052737809736
 31
0.0
  0
ARC
  5
609
102
{ACAD_REACTORS
330
C26
102
}
330
18
100
AcDbEntity
  8
0
100
AcDbCircle
 10
260.5390206919794
 20
216.836113671581
 30
0.0
 40
2.5
100
AcDbArc
 50
270.0
 51
356.9999999999993
  0
LINE
  5
60A
330
18
100
AcDbEntity
  8
0
100
AcDbLine
 10
229.7119954737105
 20
214.336113671581
 30
0.0
 11
223.3119954737105
 21
214.3361136715811
 31
0.0
  0
LINE
  5
60B
102
{ACAD_REACTORS
330
C26
102
}
330
18
100
AcDbEntity
  8
0
100
AcDbLine
 10
223.3119954737105
 20
214.3361136715811
 30
0.0
 11
193.8277553899096
 21
214.336113671581
 31
0.0
  0
LINE
  5
60C
330
18
100
AcDbEntity
  8
0
100
AcDbLine
 10
374.7119954737105
 20
214.3361136715811
 30
0.0
 11
404.1962355575114
 21
214.336113671581
 31
0.0
  0
LINE
  5
60D
330
18
100
AcDbEntity
  8
0
100
AcDbLine
 10
368.3119954737104
 20
214.336113671581
 30
0.0
 11
374.7119954737105
 21
214.3361136715811
 31
0.0
  0
ARC
  5
60E
330
18
100
AcDbEntity
  8
0
100
AcDbCircle
 10
337.4849702554416
 20
216.836113671581
 30
0.0
 40
2.5
100
AcDbArc
 50
183.0000000000007
 51
270.0
  0
LINE
  5
60F
330
18
100
AcDbEntity
  8
0
100
AcDbLine
 10
334.0119954737105
 20
235.3361136715808
 30
0.0
 11
334.9883964185552
 21
216.7052737809736
 31
0.0
  0
LINE
  5
610
330
18
100
AcDbEntity
  8
0
100
AcDbLine
 10
371.5119954737105
 20
199.4885928101741
 30
0.0
 11
374.7119954737105
 21
201.3361136715809
 31
0.0
  0
LINE
  5
611
330
18
100
AcDbEntity
  8
0
100
AcDbLine
 10
368.3119954737104
 20
201.3361136715809
 30
0.0
 11
371.5119954737105
 21
199.4885928101741
 31
0.0
  0
LINE
  5
612
330
18
100
AcDbEntity
  8
0
100
AcDbLine
 10
368.3119954737104
 20
201.3361136715811
 30
0.0
 11
374.7119954737105
 21
201.3361136715809
 31
0.0
  0
LINE
  5
613
330
18
100
AcDbEntity
  8
0
100
AcDbLine
 10
374.7119954737105
 20
201.3361136715809
 30
0.0
 11
374.7119954737105
 21
214.336113671581
 31
0.0
  0
LINE
  5
614
330
18
100
AcDbEntity
  8
0
100
AcDbLine
 10
368.3119954737104
 20
201.3361136715811
 30
0.0
 11
368.3119954737104
 21
214.336113671581
 31
0.0
  0
LINE
  5
615
330
18
100
AcDbEntity
  8
4
100
AcDbLine
 10
367.5119954737105
 20
204.3361136715808
 30
0.0
 11
375.5119954737105
 21
204.3361136715811
 31
0.0
  0
LINE
  5
616
330
18
100
AcDbEntity
  8
BEMASS
100
AcDbLine
 10
375.5119954737105
 20
204.3361136715811
 30
0.0
 11
375.5119954737105
 21
214.336113671581
 31
0.0
  0
LINE
  5
617
330
18
100
AcDbEntity
  8
BEMASS
100
AcDbLine
 10
367.5119954737105
 20
204.3361136715808
 30
0.0
 11
367.5119954737105
 21
214.336113671581
 31
0.0
  0
ARC
  5
618
330
18
100
AcDbEntity
  8
0
100
AcDbCircle
 10
356.5907149844762
 20
204.3361136715808
 30
0.0
 40
4.0
100
AcDbArc
 50
10.00000000000021
 51
90.0
  0
ARC
  5
619
330
18
100
AcDbEntity
  8
0
100
AcDbCircle
 10
386.4332759629448
 20
204.336113671581
 30
0.0
 40
4.0
100
AcDbArc
 50
90.0
 51
169.9999999999997
  0
LINE
  5
61A
330
18
100
AcDbEntity
  8
0
100
AcDbLine
 10
386.4332759629448
 20
208.336113671581
 30
0.0
 11
407.0119954737105
 21
208.3361136715808
 31
0.0
  0
LINE
  5
61B
330
18
100
AcDbEntity
  8
0
100
AcDbLine
 10
381.3600730038326
 20
198.5996318949115
 30
0.0
 11
382.4940449508958
 21
205.0307063822487
 31
0.0
  0
LINE
  5
61C
330
18
100
AcDbEntity
  8
0
100
AcDbLine
 10
361.6639179435884
 20
198.5996318949115
 30
0.0
 11
360.5299459965251
 21
205.0307063822487
 31
0.0
  0
ARC
  5
61D
330
18
100
AcDbEntity
  8
0
100
AcDbCircle
 10
371.5119954737105
 20
200.336113671581
 30
0.0
 40
10.0
100
AcDbArc
 50
190.0000000000002
 51
349.9999999999998
  0
LINE
  5
61E
330
18
100
AcDbEntity
  8
7A
 48
0.3
100
AcDbLine
 10
371.5119954737105
 20
190.3361136715809
 30
0.0
 11
371.5119954737105
 21
214.336113671581
 31
0.0
  0
ARC
  5
61F
330
18
100
AcDbEntity
  8
0
100
AcDbCircle
 10
404.1962355575114
 20
211.8361136715809
 30
0.0
 40
2.5
100
AcDbArc
 50
4.999999999999743
 51
90.0
  0
LINE
  5
620
330
18
100
AcDbEntity
  8
0
100
AcDbLine
 10
407.0119954737105
 20
208.3361136715808
 30
0.0
 11
406.6867223027406
 21
212.0540030284501
 31
0.0
  0
ARC
  5
621
330
18
100
AcDbEntity
  8
0
100
AcDbCircle
 10
341.6972784867553
 20
202.3361136715808
 30
0.0
 40
6.0
100
AcDbArc
 50
90.0
 51
176.9999999999993
  0
LINE
  5
622
330
18
100
AcDbEntity
  8
0
100
AcDbLine
 10
334.0119954737105
 20
170.3361136715808
 30
0.0
 11
335.705501278228
 21
202.6501294090386
 31
0.0
  0
LINE
  5
623
330
18
100
AcDbEntity
  8
0
100
AcDbLine
 10
341.6972784867553
 20
208.3361136715808
 30
0.0
 11
356.5907149844762
 21
208.3361136715808
 31
0.0
  0
LINE
  5
624
330
18
100
AcDbEntity
  8
0
100
AcDbLine
 10
337.4849702554416
 20
214.336113671581
 30
0.0
 11
368.3119954737104
 21
214.336113671581
 31
0.0
  0
LINE
  5
625
102
{ACAD_REACTORS
330
C26
102
}
330
18
100
AcDbEntity
  8
0
100
AcDbLine
 10
264.0119954737105
 20
235.3361136715808
 30
0.0
 11
269.5119954737105
 21
235.3361136715808
 31
0.0
  0
LINE
  5
626
102
{ACAD_REACTORS
330
C26
102
}
330
18
100
AcDbEntity
  8
0
100
AcDbLine
 10
264.0119954737105
 20
170.3361136715808
 30
0.0
 11
269.5119954737105
 21
170.3361136715808
 31
0.0
  0
ARC
  5
96F
330
18
100
AcDbEntity
  8
0
100
AcDbCircle
 10
223.3119964737106
 20
196.3361146715808
 30
0.0
 40
0.000001
100
AcDbArc
 50
180.0
 51
270.0
  0
ARC
  5
970
330
18
100
AcDbEntity
  8
0
100
AcDbCircle
 10
229.7119944737105
 20
196.336114671581
 30
0.0
 40
0.000001
100
AcDbArc
 50
270.0
 51
0.0
  0
ARC
  5
971
330
18
100
AcDbEntity
  8
0
100
AcDbCircle
 10
222.5119964737105
 20
201.223006898699
 30
0.0
 40
0.000001
100
AcDbArc
 50
180.0
 51
269.9999999999968
  0
ARC
  5
972
330
18
100
AcDbEntity
  8
0
100
AcDbCircle
 10
230.5119944737105
 20
201.2230068986986
 30
0.0
 40
0.000001
100
AcDbArc
 50
269.9999999999968
 51
0.0
  0
LINE
  5
C18
330
18
100
AcDbEntity
  8
7A
 48
0.3
100
AcDbLine
 10
226.5119954737105
 20
190.336113671581
 30
0.0
 11
226.5119954737105
 21
214.336113671581
 31
0.0
  0
LINE
  5
C19
330
18
100
AcDbEntity
  8
BEMASS
100
AcDbLine
 10
222.5119954737105
 20
204.3361136715809
 30
0.0
 11
222.5119954737105
 21
214.336113671581
 31
0.0
  0
LINE
  5
C1A
330
18
100
AcDbEntity
  8
BEMASS
100
AcDbLine
 10
230.5119954737106
 20
204.3361136715811
 30
0.0
 11
230.5119954737105
 21
214.336113671581
 31
0.0
  0
LINE
  5
C1B
102
{ACAD_REACTORS
330
C26
102
}
330
18
100
AcDbEntity
  8
0
100
AcDbLine
 10
223.3119954737105
 20
201.3361136715811
 30
0.0
 11
223.3119954737105
 21
214.336113671581
 31
0.0
  0
LINE
  5
C1C
102
{ACAD_REACTORS
330
C26
102
}
330
18
100
AcDbEntity
  8
0
100
AcDbLine
 10
229.7119954737105
 20
201.336113671581
 30
0.0
 11
229.7119954737105
 21
214.336113671581
 31
0.0
  0
LINE
  5
C1D
330
18
100
AcDbEntity
  8
4
100
AcDbLine
 10
222.5119954737105
 20
204.3361136715809
 30
0.0
 11
230.5119954737106
 21
204.3361136715811
 31
0.0
  0
LINE
  5
C1E
330
18
100
AcDbEntity
  8
0
100
AcDbLine
 10
223.3119954737105
 20
201.3361136715811
 30
0.0
 11
229.7119954737105
 21
201.336113671581
 31
0.0
  0
LINE
  5
C1F
102
{ACAD_REACTORS
330
C26
102
}
330
18
100
AcDbEntity
  8
0
100
AcDbLine
 10
226.5119954737105
 20
199.4885928101741
 30
0.0
 11
229.7119954737105
 21
201.3361136715809
 31
0.0
  0
LINE
  5
C20
102
{ACAD_REACTORS
330
C26
102
}
330
18
100
AcDbEntity
  8
0
100
AcDbLine
 10
223.3119954737105
 20
201.336113671581
 30
0.0
 11
226.5119954737105
 21
199.4885928101741
 31
0.0
  0
LINE
  5
C21
330
18
100
AcDbEntity
  8
0
100
AcDbLine
 10
223.3119954737105
 20
214.336113671581
 30
0.0
 11
229.7119954737105
 21
214.3361136715811
 31
0.0
  0
HATCH
  5
C26
330
18
100
AcDbEntity
  8
8
100
AcDbHatch
 10
0.0
 20
0.0
 30
0.0
210
0.0
220
0.0
230
1.0
  2
_U
 70
     0
 71
     1
 91
        1
 92
        1
 93
       28
 72
     1
 10
256.3267124606657
 20
208.3361136715808
 11
241.4332759629448
 21
208.3361136715808
 72
     2
 10
241.4332759629448
 20
204.3361136715808
 40
4.0
 50
90.0
 51
169.9999999999997
 73
     1
 72
     1
 10
237.494044950896
 20
205.0307063822487
 11
236.3600730038326
 21
198.5996318949115
 72
     2
 10
226.5119954737105
 20
200.336113671581
 40
10.0
 50
10.00000000000019
 51
169.9999999999997
 73
     0
 72
     1
 10
216.6639179435885
 20
198.5996318949115
 11
215.5299459965251
 21
205.0307063822487
 72
     2
 10
211.5907149844762
 20
204.336113671581
 40
4.0
 50
10.00000000000021
 51
90.0
 73
     1
 72
     1
 10
211.5907149844762
 20
208.336113671581
 11
191.0119954737105
 21
208.3361136715808
 72
     1
 10
191.0119954737105
 20
208.3361136715808
 11
191.3372686446802
 21
212.0540030284501
 72
     2
 10
193.8277553899096
 20
211.8361136715809
 40
2.5
 50
184.9999999999997
 51
270.0
 73
     0
 72
     1
 10
193.8277553899096
 20
214.336113671581
 11
223.3119954737105
 21
214.3361136715811
 72
     1
 10
223.3119954737105
 20
214.336113671581
 11
223.3119954737105
 21
201.3361136715811
 72
     1
 10
223.3119954737105
 20
201.336113671581
 11
226.5119954737105
 21
199.4885928101741
 72
     1
 10
226.5119954737105
 20
199.4885928101741
 11
229.7119954737105
 21
201.3361136715809
 72
     1
 10
229.7119954737105
 20
201.336113671581
 11
229.7119954737105
 21
214.336113671581
 72
     1
 10
229.7119954737105
 20
214.336113671581
 11
260.5390206919794
 21
214.336113671581
 72
     2
 10
260.5390206919794
 20
216.836113671581
 40
2.5
 50
270.0
 51
356.9999999999993
 73
     1
 72
     1
 10
263.0355945288659
 20
216.7052737809736
 11
264.0119954737105
 21
235.3361136715808
 72
     1
 10
264.0119954737105
 20
235.3361136715808
 11
269.5119954737105
 21
235.3361136715808
 72
     1
 10
269.5119954737105
 20
235.3361136715808
 11
270.440442658441
 21
208.7488649298247
 72
     2
 10
272.9389197259887
 20
208.8361136715808
 40
2.5
 50
182.0000000000004
 51
270.0
 73
     1
 72
     1
 10
272.9389197259887
 20
206.3361136715808
 11
274.0119954737105
 21
206.3361136715808
 72
     1
 10
274.0119954737105
 20
206.3361136715808
 11
273.7675500872683
 21
199.3361136715808
 72
     1
 10
273.7675500872683
 20
199.3361136715808
 11
272.9389197259887
 21
199.3361136715808
 72
     2
 10
272.9389197259887
 20
196.8361136715809
 40
2.5
 50
90.0
 51
177.9999999999996
 73
     1
 72
     1
 10
270.440442658441
 20
196.9233624133372
 11
269.5119954737105
 21
170.3361136715808
 72
     1
 10
269.5119954737105
 20
170.3361136715808
 11
264.0119954737105
 21
170.3361136715808
 72
     1
 10
264.0119954737105
 20
170.3361136715808
 11
262.3184896691931
 21
202.6501294090386
 72
     2
 10
256.3267124606657
 20
202.3361136715808
 40
6.0
 50
3.000000000000716
 51
90.0
 73
     1
 97
       28
330
5F4
330
5FF
330
5FB
330
5FA
330
5FC
330
5FE
330
5FD
330
5F7
330
5F8
330
60B
330
C1B
330
C20
330
C1F
330
C1C
330
5F3
330
609
330
608
330
625
330
5EB
330
5ED
330
5EA
330
5DA
330
5F2
330
5EF
330
5F1
330
626
330
5F5
330
5F6
 75
     0
 76
     0
 52
135.0
 41
3.0
 77
     0
 78
     1
 53
135.0
 43
469.3481091452913
 44
-128.6758818021296
 45
-2.121320343559641
 46
-2.121320343559641
 79
     0
 98
        1
 10
469.3481091452913
 20
-128.6758818021296
  0
DIMENSION
  5
C65
330
18
100
AcDbEntity
  8
4
100
AcDbDimension
  2
*D4
 10
187.9980760174953
 20
190.336113671581
 30
0.0
 11
185.6477315293063
 21
202.336113671581
 31
0.0
 70
    32
 71
     5
 42
23.99999999999995
  3
GEN-ISO
100
AcDbAlignedDimension
 13
194.2183646654894
 23
214.3361136715809
 33
0.0
 14
226.5119954737105
 24
190.3361136715809
 34
0.0
 50
90.0
100
AcDbRotatedDimension
  0
LINE
  5
1093
330
18
100
AcDbEntity
  8
7A
 48
2000100.0
100
AcDbLine
 10
299.0119954737105
 20
209.3713847696579
 30
0.0
 11
299.0119954737105
 21
226.1408873789799
 31
0.0
  0
LINE
  5
1094
330
18
100
AcDbEntity
  8
0
100
AcDbLine
 10
200.5027327169614
 20
214.336113671581
 30
0.0
 11
260.5390206919794
 21
214.336113671581
 31
0.0
  0
LINE
  5
1095
330
18
100
AcDbEntity
  8
0
100
AcDbLine
 10
197.511996565019
 20
222.336113671581
 30
0.0
 11
222.5149954737106
 21
222.336113671581
 31
0.0
  0
LINE
  5
1096
330
18
100
AcDbEntity
  8
0
100
AcDbLine
 10
197.5119955688242
 20
222.3361125844253
 30
0.0
 11
198.012245971732
 21
216.6182243147119
 31
0.0
  0
ARC
  5
1097
330
18
100
AcDbEntity
  8
0
100
AcDbCircle
 10
200.5027327169614
 20
216.836113671581
 30
0.0
 40
2.5
100
AcDbArc
 50
184.9999999999998
 51
270.0
  0
LINE
  5
1098
330
18
100
AcDbEntity
  8
7A
 48
2000100.0
100
AcDbLine
 10
226.5119954737105
 20
212.4745222584991
 30
0.0
 11
226.5119954737105
 21
225.0862961996254
 31
0.0
  0
LINE
  5
1099
330
18
100
AcDbEntity
  8
0
100
AcDbLine
 10
259.0119954737105
 20
222.336113671581
 30
0.0
 11
258.5117449756889
 21
216.6182243147119
 31
0.0
  0
ARC
  5
109A
330
18
100
AcDbEntity
  8
0
100
AcDbCircle
 10
256.0212582304596
 20
216.836113671581
 30
0.0
 40
2.5
100
AcDbArc
 50
270.0
 51
355.0000000000002
  0
LINE
  5
109B
330
18
100
AcDbEntity
  8
0
100
AcDbLine
 10
220.5119954737105
 20
222.336113671581
 30
0.0
 11
218.8648990300368
 21
216.1890660588247
 31
0.0
  0
ARC
  5
109C
330
18
100
AcDbEntity
  8
0
100
AcDbCircle
 10
216.4500844643141
 20
216.836113671581
 30
0.0
 40
2.5
100
AcDbArc
 50
270.0
 51
344.9999999999988
  0
ARC
  5
109D
330
18
100
AcDbEntity
  8
0
100
AcDbCircle
 10
236.5739064831069
 20
216.836113671581
 30
0.0
 40
2.5
100
AcDbArc
 50
194.9999999999978
 51
270.0
  0
LINE
  5
109E
330
18
100
AcDbEntity
  8
0
100
AcDbLine
 10
232.5119954737105
 20
222.336113671581
 30
0.0
 11
234.1590919173842
 21
216.1890660588247
 31
0.0
  0
ARC
  5
109F
330
18
100
AcDbEntity
  8
0
100
AcDbCircle
 10
397.5212582304596
 20
216.836113671581
 30
0.0
 40
2.5
100
AcDbArc
 50
270.0
 51
355.0000000000002
  0
LINE
  5
10A0
330
18
100
AcDbEntity
  8
0
100
AcDbLine
 10
400.5119953785967
 20
222.3361125844253
 30
0.0
 11
400.0117449756888
 21
216.6182243147119
 31
0.0
  0
LINE
  5
10A1
330
18
100
AcDbEntity
  8
0
100
AcDbLine
 10
365.5119954737105
 20
222.336113671581
 30
0.0
 11
363.8648990300368
 21
216.1890660588247
 31
0.0
  0
ARC
  5
10A2
330
18
100
AcDbEntity
  8
0
100
AcDbCircle
 10
381.5739064831068
 20
216.836113671581
 30
0.0
 40
2.5
100
AcDbArc
 50
194.9999999999978
 51
270.0
  0
LINE
  5
10A3
330
18
100
AcDbEntity
  8
0
100
AcDbLine
 10
377.5119954737105
 20
222.336113671581
 30
0.0
 11
379.1590919173842
 21
216.1890660588247
 31
0.0
  0
ARC
  5
10A4
330
18
100
AcDbEntity
  8
0
100
AcDbCircle
 10
361.4500844643141
 20
216.836113671581
 30
0.0
 40
2.5
100
AcDbArc
 50
270.0
 51
344.9999999999988
  0
LINE
  5
10A5
330
18
100
AcDbEntity
  8
0
100
AcDbLine
 10
339.0119954737105
 20
222.336113671581
 30
0.0
 11
339.5122459717321
 21
216.6182243147119
 31
0.0
  0
ARC
  5
10A6
330
18
100
AcDbEntity
  8
0
100
AcDbCircle
 10
342.0027327169614
 20
216.836113671581
 30
0.0
 40
2.5
100
AcDbArc
 50
184.9999999999998
 51
270.0
  0
LINE
  5
10A7
330
18
100
AcDbEntity
  8
0
100
AcDbLine
 10
216.4500844643141
 20
214.336113671581
 30
0.0
 11
200.5027327169614
 21
214.336113671581
 31
0.0
  0
HATCH
  5
10A8
330
18
100
AcDbEntity
  8
8
100
AcDbHatch
 10
0.0
 20
0.0
 30
0.0
210
0.0
220
0.0
230
1.0
  2
_U
 70
     0
 71
     0
 91
        1
 92
       33
 93
        6
 72
     1
 10
220.5119954737105
 20
222.336113671581
 11
197.511996565019
 21
222.336113671581
 72
     1
 10
220.5119954737105
 20
222.336113671581
 11
218.8648990300368
 21
216.1890660588247
 72
     2
 10
216.4500844643141
 20
216.836113671581
 40
2.5
 50
270.0
 51
345.0
 73
     1
 72
     1
 10
216.4500844643141
 20
214.336113671581
 11
200.5027327169614
 21
214.336113671581
 72
     2
 10
200.5027327169614
 20
216.836113671581
 40
2.5
 50
185.0
 51
270.0
 73
     1
 72
     1
 10
197.5119955688242
 20
222.3361125844253
 11
198.012245971732
 21
216.6182243147119
 97
        0
 75
     0
 76
     0
 52
45.0
 41
3.0
 77
     0
 78
     1
 53
45.0
 43
121.7099708059135
 44
-10.33545514207998
 45
-2.121320343559641
 46
2.121320343559641
 79
     0
 98
        1
 10
121.7099708059135
 20
-10.33545514207998
  0
DIMENSION
  5
10A9
330
18
100
AcDbEntity
  8
5
100
AcDbDimension
  2
*D5
 10
186.0503376289565
 20
214.336113671581
 30
0.0
 11
183.7003376289565
 21
218.3361136715811
 31
0.0
 70
    32
 71
     5
 42
8.0
  3
GEN-ISO
100
AcDbAlignedDimension
 13
197.511996565019
 23
222.336113671581
 33
0.0
 14
200.5027327169614
 24
214.336113671581
 34
0.0
 50
90.0
100
AcDbRotatedDimension
  0
HATCH
  5
10AA
330
18
100
AcDbEntity
  8
8
100
AcDbHatch
 10
0.0
 20
0.0
 30
0.0
210
0.0
220
0.0
230
1.0
  2
_U
 70
     0
 71
     0
 91
        1
 92
       33
 93
        6
 72
     1
 10
220.5119964699052
 20
222.3361147587368
 11
197.5119975612137
 21
222.3361147587368
 72
     1
 10
220.5119964699052
 20
222.3361147587368
 11
218.8649000262315
 21
216.1890671459805
 72
     2
 10
216.4500854605088
 20
216.8361147587368
 40
2.5
 50
270.0
 51
345.0
 73
     1
 72
     1
 10
216.4500854605088
 20
214.3361147587368
 11
200.5027337131561
 21
214.3361147587368
 72
     2
 10
200.5027337131561
 20
216.8361147587368
 40
2.5
 50
185.0
 51
270.0
 73
     1
 72
     1
 10
197.511996565019
 20
222.336113671581
 11
198.0122469679266
 21
216.6182254018676
 97
        0
 75
     0
 76
     0
 52
45.0
 41
3.0
 77
     0
 78
     1
 53
45.0
 43
121.7099718021082
 44
-10.33545405492424
 45
-2.121320343559641
 46
2.121320343559641
 79
     0
 98
        1
 10
121.7099718021082
 20
-10.33545405492424
  0
HATCH
  5
10AB
330
18
100
AcDbEntity
  8
8
100
AcDbHatch
 10
0.0
 20
0.0
 30
0.0
210
0.0
220
0.0
230
1.0
  2
_U
 70
     0
 71
     0
 91
        1
 92
        1
 93
        6
 72
     1
 10
232.5119954737105
 20
222.336113671581
 11
259.0119954737105
 21
222.336113671581
 72
     1
 10
259.0119954737105
 20
222.336113671581
 11
258.5117449756889
 21
216.6182243147119
 72
     2
 10
256.0212582304596
 20
216.836113671581
 40
2.5
 50
5.000000000000044
 51
90.0
 73
     0
 72
     1
 10
256.0212582304596
 20
214.336113671581
 11
236.5739064831069
 21
214.336113671581
 72
     2
 10
236.5739064831069
 20
216.836113671581
 40
2.5
 50
90.0
 51
165.0
 73
     0
 72
     1
 10
234.1590919173842
 20
216.1890660588247
 11
232.5119954737105
 21
222.336113671581
 97
        0
 75
     0
 76
     0
 52
45.0
 41
3.0
 77
     0
 78
     1
 53
45.0
 43
121.7099708059135
 44
-10.33545514207998
 45
-2.121320343559641
 46
2.121320343559641
 79
     0
 98
        1
 10
121.7099708059135
 20
-10.33545514207998
  0
HATCH
  5
10AC
330
18
100
AcDbEntity
  8
8
100
AcDbHatch
 10
0.0
 20
0.0
 30
0.0
210
0.0
220
0.0
230
1.0
  2
_U
 70
     0
 71
     0
 91
        1
 92
        1
 93
        6
 72
     1
 10
361.4500844643141
 20
214.336113671581
 11
342.0027327169614
 21
214.336113671581
 72
     2
 10
342.0027327169614
 20
216.836113671581
 40
2.5
 50
90.0
 51
174.9999999999999
 73
     0
 72
     1
 10
339.5122459717321
 20
216.6182243147119
 11
339.0119954737105
 21
222.336113671581
 72
     1
 10
339.0119954737105
 20
222.336113671581
 11
365.5119954737105
 21
222.336113671581
 72
     1
 10
365.5119954737105
 20
222.336113671581
 11
363.8648990300368
 21
216.1890660588247
 72
     2
 10
361.4500844643141
 20
216.836113671581
 40
2.5
 50
14.99999999999998
 51
90.0
 73
     0
 97
        0
 75
     0
 76
     0
 52
45.0
 41
3.0
 77
     0
 78
     1
 53
45.0
 43
121.7099708059135
 44
-10.33545514207998
 45
-2.121320343559641
 46
2.121320343559641
 79
     0
 98
        1
 10
121.7099708059135
 20
-10.33545514207998
  0
HATCH
  5
10AD
330
18
100
AcDbEntity
  8
8
100
AcDbHatch
 10
0.0
 20
0.0
 30
0.0
210
0.0
220
0.0
230
1.0
  2
_U
 70
     0
 71
     0
 91
        2
 92
        1
 93
        6
 72
     1
 10
397.5212582304596
 20
214.336113671581
 11
381.5739064831068
 21
214.336113671581
 72
     2
 10
381.5739064831068
 20
216.836113671581
 40
2.5
 50
90.0
 51
165.0
 73
     0
 72
     1
 10
379.1590919173842
 20
216.1890660588247
 11
377.5119954737105
 21
222.336113671581
 72
     1
 10
377.5119954737105
 20
222.336113671581
 11
400.5119953785967
 21
222.3361125844253
 72
     1
 10
400.5119953785967
 20
222.3361125844253
 11
400.0117449756888
 21
216.6182243147119
 72
     2
 10
397.5212582304596
 20
216.836113671581
 40
2.5
 50
5.000000000000044
 51
90.0
 73
     0
 97
        0
 92
       33
 93
        1
 72
     2
 10
400.5119943824019
 20
222.336112671581
 40
0.000001
 50
355.0
 51
450.0
 73
     1
 97
        0
 75
     0
 76
     0
 52
45.0
 41
3.0
 77
     0
 78
     1
 53
45.0
 43
121.7099708059135
 44
-10.33545514207998
 45
-2.121320343559641
 46
2.121320343559641
 79
     0
 98
        1
 10
121.7099708059135
 20
-10.33545514207998
  0
LINE
  5
10AE
330
18
100
AcDbEntity
  8
7A
 48
2000100.0
100
AcDbLine
 10
371.5119954737105
 20
212.4745222584991
 30
0.0
 11
371.5119954737105
 21
225.0862961996254
 31
0.0
  0
LINE
  5
10C4
330
18
100
AcDbEntity
  8
0
100
AcDbLine
 10
337.4849702554416
 20
214.336113671581
 30
0.0
 11
367.5119954737105
 21
214.336113671581
 31
0.0
  0
LINE
  5
10C7
330
18
100
AcDbEntity
  8
0
100
AcDbLine
 10
334.69329660439
 20
222.336113671581
 30
0.0
 11
367.5149954737106
 21
222.336113671581
 31
0.0
  0
LINE
  5
1189
330
18
100
AcDbEntity
  8
0
100
AcDbLine
 10
269.5089954737105
 20
235.3361136715808
 30
0.0
 11
269.5089954737105
 21
217.2913865287236
 31
0.0
  0
LINE
  5
118A
330
18
100
AcDbEntity
  8
0
100
AcDbLine
 10
332.0519954737104
 20
239.3361136715808
 30
0.0
 11
266.0119954737105
 21
239.3361136715808
 31
0.0
  0
LINE
  5
118C
330
18
100
AcDbEntity
  8
0
100
AcDbLine
 10
266.0119954737105
 20
239.3361136715808
 30
0.0
 11
266.0119954737105
 21
235.3361136715808
 31
0.0
  0
LINE
  5
118D
330
18
100
AcDbEntity
  8
0
100
AcDbLine
 10
326.5119954737105
 20
239.3361136715808
 30
0.0
 11
326.5119954737105
 21
235.3361136715808
 31
0.0
  0
LINE
  5
118E
330
18
100
AcDbEntity
  8
0
100
AcDbLine
 10
271.5119954737105
 20
239.3361136715808
 30
0.0
 11
271.5119954737105
 21
235.3361136715808
 31
0.0
  0
LINE
  5
118F
330
18
100
AcDbEntity
  8
0
100
AcDbLine
 10
318.0119954737105
 20
216.3361136715808
 30
0.0
 11
280.0119954737105
 21
216.3361136715808
 31
0.0
  0
LINE
  5
1190
330
18
100
AcDbEntity
  8
0
100
AcDbLine
 10
280.0119954737105
 20
216.3361136715808
 30
0.0
 11
269.5089954737105
 21
217.2913865287236
 31
0.0
  0
LINE
  5
1191
330
18
100
AcDbEntity
  8
0
100
AcDbLine
 10
318.0119954737105
 20
216.3361136715808
 30
0.0
 11
328.5149954737107
 21
217.2913865287235
 31
0.0
  0
LINE
  5
1192
330
18
100
AcDbEntity
  8
0
100
AcDbLine
 10
326.5119954737105
 20
221.3361136715808
 30
0.0
 11
271.5119954737105
 21
221.3361136715809
 31
0.0
  0
LINE
  5
1193
330
18
100
AcDbEntity
  8
0
100
AcDbLine
 10
271.5119954737105
 20
221.3361136715809
 30
0.0
 11
280.0119954737105
 21
216.3361136715808
 31
0.0
  0
LINE
  5
1194
330
18
100
AcDbEntity
  8
0
100
AcDbLine
 10
326.5119954737105
 20
221.3361136715808
 30
0.0
 11
318.0119954737105
 21
216.3361136715808
 31
0.0
  0
LINE
  5
1195
330
18
100
AcDbEntity
  8
0
100
AcDbLine
 10
321.0119954737105
 20
228.3361136715809
 30
0.0
 11
277.0119954737105
 21
228.3361136715809
 31
0.0
  0
LINE
  5
1196
330
18
100
AcDbEntity
  8
0
100
AcDbLine
 10
321.0119954737105
 20
229.8361136715808
 30
0.0
 11
321.0119954737105
 21
228.3361136715809
 31
0.0
  0
LINE
  5
1197
330
18
100
AcDbEntity
  8
0
100
AcDbLine
 10
277.0119954737105
 20
229.8361136715808
 30
0.0
 11
277.0119954737105
 21
228.3361136715809
 31
0.0
  0
LINE
  5
1198
330
18
100
AcDbEntity
  8
0
100
AcDbLine
 10
321.0119954737105
 20
229.8361136715808
 30
0.0
 11
277.0119954737105
 21
229.8361136715808
 31
0.0
  0
LINE
  5
1199
330
18
100
AcDbEntity
  8
0
100
AcDbLine
 10
271.5119954737105
 20
231.3361136715808
 30
0.0
 11
277.0119954737105
 21
228.3361136715809
 31
0.0
  0
LINE
  5
119A
330
18
100
AcDbEntity
  8
0
100
AcDbLine
 10
321.0129954737106
 20
228.3361136715809
 30
0.0
 11
326.5129954737105
 21
231.3361136715808
 31
0.0
  0
LINE
  5
119B
330
18
100
AcDbEntity
  8
0
100
AcDbLine
 10
321.0119954737105
 20
229.8361136715808
 30
0.0
 11
326.5119954737105
 21
235.3361136715808
 31
0.0
  0
LINE
  5
119C
330
18
100
AcDbEntity
  8
0
100
AcDbLine
 10
277.0119954737105
 20
229.8361136715808
 30
0.0
 11
271.5119954737105
 21
235.3361136715808
 31
0.0
  0
LINE
  5
119D
330
18
100
AcDbEntity
  8
0
100
AcDbLine
 10
326.5119954737105
 20
231.3361136715808
 30
0.0
 11
326.5119954737105
 21
221.3361136715808
 31
0.0
  0
LINE
  5
119E
330
18
100
AcDbEntity
  8
0
100
AcDbLine
 10
271.5119954737105
 20
231.3361136715808
 30
0.0
 11
271.5119954737105
 21
221.3361136715809
 31
0.0
  0
LINE
  5
119F
330
18
100
AcDbEntity
  8
0
100
AcDbLine
 10
326.5119954737105
 20
235.3361136715808
 30
0.0
 11
271.5119954737105
 21
235.3361136715808
 31
0.0
  0
LINE
  5
11A0
330
18
100
AcDbEntity
  8
0
100
AcDbLine
 10
268.0119954737105
 20
235.3361136715808
 30
0.0
 11
269.5119954737105
 21
235.3361136715808
 31
0.0
  0
LINE
  5
11A1
330
18
100
AcDbEntity
  8
0
100
AcDbLine
 10
266.0119954737105
 20
235.3361136715808
 30
0.0
 11
268.0119954737105
 21
235.3361136715808
 31
0.0
  0
LINE
  5
11A2
330
18
100
AcDbEntity
  8
0
100
AcDbLine
 10
328.5119954737105
 20
235.2461136715808
 30
0.0
 11
331.9469954737106
 21
235.3361136715808
 31
0.0
  0
INSERT
  5
11A3
330
18
100
AcDbEntity
  8
8
100
AcDbBlockReference
  2
*X6
 10
-198.8900045262894
 20
391.6451136715809
 30
0.0
 50
270.0
1001
ACAD
1000
HATCH
1002
{
1070
    19
1000
ANSI37,_I
1040
3.174999999999998
1040
3.926999999999998
1002
}
  0
INSERT
  5
11A4
330
18
100
AcDbEntity
  8
8
100
AcDbBlockReference
  2
*X7
 10
-198.8900045262894
 20
391.6451136715809
 30
0.0
 50
270.0
1001
ACAD
1000
HATCH
1002
{
1070
    19
1000
ANSI37,_I
1040
3.174999999999998
1040
3.926999999999998
1002
}
  0
LINE
  5
11A5
330
18
100
AcDbEntity
  8
0
100
AcDbLine
 10
328.5149954737107
 20
235.3361136715808
 30
0.0
 11
328.5149954737107
 21
217.2913865287234
 31
0.0
  0
LINE
  5
11A6
330
18
100
AcDbEntity
  8
0
100
AcDbLine
 10
332.0119954737105
 20
239.3361136715808
 30
0.0
 11
332.0119954737105
 21
235.3361136715808
 31
0.0
  0
LINE
  5
11A7
330
18
100
AcDbEntity
  8
0
100
AcDbLine
 10
332.0119954737105
 20
235.3361136715808
 30
0.0
 11
330.0119954737105
 21
235.3361136715808
 31
0.0
  0
LINE
  5
11C7
330
18
100
AcDbEntity
  8
0
100
AcDbLine
 10
269.5089954737105
 20
170.3361136715808
 30
0.0
 11
269.5089954737105
 21
188.380840814438
 31
0.0
  0
LINE
  5
11C8
330
18
100
AcDbEntity
  8
0
100
AcDbLine
 10
332.0519954737104
 20
166.3361136715808
 30
0.0
 11
266.0119954737105
 21
166.3361136715808
 31
0.0
  0
LINE
  5
11C9
330
18
100
AcDbEntity
  8
0
100
AcDbLine
 10
266.0119954737105
 20
166.3361136715808
 30
0.0
 11
266.0119954737105
 21
170.3361136715808
 31
0.0
  0
LINE
  5
11CA
330
18
100
AcDbEntity
  8
0
100
AcDbLine
 10
326.5119954737105
 20
166.3361136715808
 30
0.0
 11
326.5119954737105
 21
170.3361136715808
 31
0.0
  0
LINE
  5
11CB
330
18
100
AcDbEntity
  8
0
100
AcDbLine
 10
271.5119954737105
 20
166.3361136715808
 30
0.0
 11
271.5119954737105
 21
170.3361136715808
 31
0.0
  0
LINE
  5
11CC
330
18
100
AcDbEntity
  8
0
100
AcDbLine
 10
318.0119954737105
 20
189.3361136715809
 30
0.0
 11
280.0119954737105
 21
189.3361136715809
 31
0.0
  0
LINE
  5
11CD
330
18
100
AcDbEntity
  8
0
100
AcDbLine
 10
280.0119954737105
 20
189.3361136715809
 30
0.0
 11
269.5089954737105
 21
188.380840814438
 31
0.0
  0
LINE
  5
11CE
330
18
100
AcDbEntity
  8
0
100
AcDbLine
 10
318.0119954737105
 20
189.3361136715809
 30
0.0
 11
328.5149954737107
 21
188.3808408144381
 31
0.0
  0
LINE
  5
11CF
330
18
100
AcDbEntity
  8
0
100
AcDbLine
 10
326.5119954737105
 20
184.3361136715809
 30
0.0
 11
271.5119954737105
 21
184.3361136715808
 31
0.0
  0
LINE
  5
11D0
330
18
100
AcDbEntity
  8
0
100
AcDbLine
 10
271.5119954737105
 20
184.3361136715808
 30
0.0
 11
280.0119954737105
 21
189.3361136715809
 31
0.0
  0
LINE
  5
11D1
330
18
100
AcDbEntity
  8
0
100
AcDbLine
 10
326.5119954737105
 20
184.3361136715809
 30
0.0
 11
318.0119954737105
 21
189.3361136715809
 31
0.0
  0
LINE
  5
11D2
330
18
100
AcDbEntity
  8
0
100
AcDbLine
 10
321.0119954737105
 20
177.3361136715808
 30
0.0
 11
277.0119954737105
 21
177.3361136715808
 31
0.0
  0
LINE
  5
11D3
330
18
100
AcDbEntity
  8
0
100
AcDbLine
 10
321.0119954737105
 20
175.8361136715808
 30
0.0
 11
321.0119954737105
 21
177.3361136715808
 31
0.0
  0
LINE
  5
11D4
330
18
100
AcDbEntity
  8
0
100
AcDbLine
 10
277.0119954737105
 20
175.8361136715808
 30
0.0
 11
277.0119954737105
 21
177.3361136715808
 31
0.0
  0
LINE
  5
11D5
330
18
100
AcDbEntity
  8
0
100
AcDbLine
 10
321.0119954737105
 20
175.8361136715808
 30
0.0
 11
277.0119954737105
 21
175.8361136715808
 31
0.0
  0
LINE
  5
11D6
330
18
100
AcDbEntity
  8
0
100
AcDbLine
 10
271.5119954737105
 20
174.3361136715808
 30
0.0
 11
277.0119954737105
 21
177.3361136715808
 31
0.0
  0
LINE
  5
11D7
330
18
100
AcDbEntity
  8
0
100
AcDbLine
 10
321.0129954737106
 20
177.3361136715808
 30
0.0
 11
326.5129954737105
 21
174.3361136715808
 31
0.0
  0
LINE
  5
11D8
330
18
100
AcDbEntity
  8
0
100
AcDbLine
 10
321.0119954737105
 20
175.8361136715808
 30
0.0
 11
326.5119954737105
 21
170.3361136715808
 31
0.0
  0
LINE
  5
11D9
330
18
100
AcDbEntity
  8
0
100
AcDbLine
 10
277.0119954737105
 20
175.8361136715808
 30
0.0
 11
271.5119954737105
 21
170.3361136715808
 31
0.0
  0
LINE
  5
11DA
330
18
100
AcDbEntity
  8
0
100
AcDbLine
 10
326.5119954737105
 20
174.3361136715808
 30
0.0
 11
326.5119954737105
 21
184.3361136715809
 31
0.0
  0
LINE
  5
11DB
330
18
100
AcDbEntity
  8
0
100
AcDbLine
 10
271.5119954737105
 20
174.3361136715808
 30
0.0
 11
271.5119954737105
 21
184.3361136715808
 31
0.0
  0
LINE
  5
11DC
330
18
100
AcDbEntity
  8
0
100
AcDbLine
 10
326.5119954737105
 20
170.3361136715808
 30
0.0
 11
271.5119954737105
 21
170.3361136715808
 31
0.0
  0
LINE
  5
11DD
330
18
100
AcDbEntity
  8
0
100
AcDbLine
 10
268.0119954737105
 20
170.3361136715808
 30
0.0
 11
269.5119954737105
 21
170.3361136715808
 31
0.0
  0
LINE
  5
11DE
330
18
100
AcDbEntity
  8
0
100
AcDbLine
 10
266.0119954737105
 20
170.3361136715808
 30
0.0
 11
268.0119954737105
 21
170.3361136715808
 31
0.0
  0
LINE
  5
11DF
330
18
100
AcDbEntity
  8
0
100
AcDbLine
 10
328.5119954737105
 20
170.4261136715809
 30
0.0
 11
331.9469954737106
 21
170.3361136715808
 31
0.0
  0
INSERT
  5
11E0
330
18
100
AcDbEntity
  8
8
100
AcDbBlockReference
  2
*X6
 10
-198.8900045262894
 20
14.02711367158076
 30
0.0
 41
-1.0
 50
270.0
1001
ACAD
1000
HATCH
1002
{
1070
    19
1000
ANSI37,_I
1040
3.174999999999998
1040
3.926999999999998
1002
}
  0
INSERT
  5
11E1
330
18
100
AcDbEntity
  8
8
100
AcDbBlockReference
  2
*X7
 10
-198.8900045262894
 20
14.02711367158076
 30
0.0
 41
-1.0
 50
270.0
1001
ACAD
1000
HATCH
1002
{
1070
    19
1000
ANSI37,_I
1040
3.174999999999998
1040
3.926999999999998
1002
}
  0
LINE
  5
11E2
330
18
100
AcDbEntity
  8
0
100
AcDbLine
 10
328.5149954737107
 20
170.3361136715808
 30
0.0
 11
328.5149954737107
 21
188.3808408144381
 31
0.0
  0
LINE
  5
11E3
330
18
100
AcDbEntity
  8
0
100
AcDbLine
 10
332.0119954737105
 20
166.3361136715808
 30
0.0
 11
332.0119954737105
 21
170.3361136715808
 31
0.0
  0
LINE
  5
11E4
330
18
100
AcDbEntity
  8
0
100
AcDbLine
 10
332.0119954737105
 20
170.3361136715808
 30
0.0
 11
330.0119954737105
 21
170.3361136715808
 31
0.0
  0
LINE
  5
130D
330
18
100
AcDbEntity
  8
0
100
AcDbLine
 10
368.3149954737105
 20
205.334592810174
 30
0.0
 11
368.3149954737105
 21
201.334592810174
 31
0.0
  0
LINE
  5
130E
330
18
100
AcDbEntity
  8
0
100
AcDbLine
 10
374.7089954737105
 20
205.334592810174
 30
0.0
 11
374.7089954737105
 21
201.334592810174
 31
0.0
  0
LINE
  5
130F
330
18
100
AcDbEntity
  8
0
100
AcDbLine
 10
374.7089954737105
 20
201.334592810174
 30
0.0
 11
368.3149954737105
 21
201.334592810174
 31
0.0
  0
LINE
  5
1310
330
18
100
AcDbEntity
  8
0
100
AcDbLine
 10
374.7089954737105
 20
201.3355928101741
 30
0.0
 11
371.5119954737105
 21
199.4895928101741
 31
0.0
  0
LINE
  5
1311
330
18
100
AcDbEntity
  8
0
100
AcDbLine
 10
368.3149954737105
 20
201.334592810174
 30
0.0
 11
371.5119954737105
 21
199.4885928101741
 31
0.0
  0
LINE
  5
1312
330
18
100
AcDbEntity
  8
0
100
AcDbLine
 10
367.5149954737106
 20
218.3405928101741
 30
0.0
 11
367.5149954737106
 21
227.4295928101741
 31
0.0
  0
LINE
  5
1313
330
18
100
AcDbEntity
  8
4
100
AcDbLine
 10
368.3149954737105
 20
218.3365928101741
 30
0.0
 11
368.3149954737105
 21
227.4295928101741
 31
0.0
  0
LINE
  5
1314
330
18
100
AcDbEntity
  8
0
100
AcDbLine
 10
367.5149954737106
 20
215.1365928101741
 30
0.0
 11
367.9149954737105
 21
216.7365928101741
 31
0.0
  0
LINE
  5
1315
330
18
100
AcDbEntity
  8
4
100
AcDbLine
 10
367.9149954737105
 20
216.7365928101741
 30
0.0
 11
368.3149954737105
 21
218.3365928101741
 31
0.0
  0
LINE
  5
1316
330
18
100
AcDbEntity
  8
0
100
AcDbLine
 10
367.9149954737105
 20
216.7365928101741
 30
0.0
 11
367.5149954737106
 21
218.3365928101741
 31
0.0
  0
LINE
  5
1317
330
18
100
AcDbEntity
  8
0
100
AcDbLine
 10
367.5159954737105
 20
239.5385928101741
 30
0.0
 11
368.3139954737105
 21
240.3365928101741
 31
0.0
  0
LINE
  5
1318
330
18
100
AcDbEntity
  8
4
100
AcDbLine
 10
368.3149954737105
 20
212.1375928101742
 30
0.0
 11
367.9179954737106
 21
213.7245928101742
 31
0.0
  0
LINE
  5
1319
330
18
100
AcDbEntity
  8
0
100
AcDbLine
 10
367.5149954737106
 20
212.1375928101742
 30
0.0
 11
367.9119954737105
 21
213.7245928101742
 31
0.0
  0
LINE
  5
131A
330
18
100
AcDbEntity
  8
0
100
AcDbLine
 10
367.9149954737105
 20
213.7365928101741
 30
0.0
 11
367.5159954737105
 21
215.3325928101741
 31
0.0
  0
LINE
  5
131B
330
18
100
AcDbEntity
  8
0
100
AcDbLine
 10
375.5139954737106
 20
212.1375928101742
 30
0.0
 11
375.1169954737104
 21
213.7245928101742
 31
0.0
  0
LINE
  5
131C
330
18
100
AcDbEntity
  8
4
100
AcDbLine
 10
374.7139954737105
 20
212.1375928101742
 30
0.0
 11
375.1109954737105
 21
213.7245928101742
 31
0.0
  0
LINE
  5
131D
330
18
100
AcDbEntity
  8
0
100
AcDbLine
 10
375.1149954737106
 20
213.7365928101741
 30
0.0
 11
375.5129954737105
 21
215.3325928101741
 31
0.0
  0
LINE
  5
131E
330
18
100
AcDbEntity
  8
0
100
AcDbLine
 10
375.5139954737106
 20
212.1375928101742
 30
0.0
 11
367.5179954737105
 21
212.1365928101741
 31
0.0
  0
LINE
  5
131F
330
18
100
AcDbEntity
  8
4
100
AcDbLine
 10
374.7139954737105
 20
213.7365928101741
 30
0.0
 11
368.3179954737105
 21
213.7365928101741
 31
0.0
  0
LINE
  5
1320
330
18
100
AcDbEntity
  8
0
100
AcDbLine
 10
375.1149954737106
 20
216.7365928101741
 30
0.0
 11
375.5149954737106
 21
218.3365928101741
 31
0.0
  0
LINE
  5
1321
330
18
100
AcDbEntity
  8
0
100
AcDbLine
 10
375.5349954737105
 20
215.0565928101741
 30
0.0
 11
375.1149954737106
 21
216.7365928101741
 31
0.0
  0
LINE
  5
1322
330
18
100
AcDbEntity
  8
4
100
AcDbLine
 10
375.1149954737106
 20
216.7365928101741
 30
0.0
 11
374.7149954737105
 21
218.3365928101741
 31
0.0
  0
LINE
  5
1323
330
18
100
AcDbEntity
  8
4
100
AcDbLine
 10
374.7149954737105
 20
218.3365928101741
 30
0.0
 11
374.7149954737105
 21
227.4295928101741
 31
0.0
  0
LINE
  5
1324
330
18
100
AcDbEntity
  8
0
100
AcDbLine
 10
375.5149954737106
 20
218.3405928101741
 30
0.0
 11
375.5149954737106
 21
227.4295928101741
 31
0.0
  0
LINE
  5
1325
330
18
100
AcDbEntity
  8
0
100
AcDbLine
 10
375.5139954737106
 20
239.5385928101741
 30
0.0
 11
374.7149954737105
 21
240.3365928101741
 31
0.0
  0
LINE
  5
1326
330
18
100
AcDbEntity
  8
0
100
AcDbLine
 10
375.5149954737106
 20
215.1365928101741
 30
0.0
 11
367.5179954737105
 21
215.1365928101741
 31
0.0
  0
LINE
  5
1327
330
18
100
AcDbEntity
  8
4
100
AcDbLine
 10
374.7149954737105
 20
216.7365928101741
 30
0.0
 11
368.3169954737106
 21
216.7365928101741
 31
0.0
  0
LINE
  5
1328
330
18
100
AcDbEntity
  8
0
100
AcDbLine
 10
375.5149954737106
 20
218.3365928101741
 30
0.0
 11
367.5179954737105
 21
218.3365928101741
 31
0.0
  0
LINE
  5
1329
330
18
100
AcDbEntity
  8
0
100
AcDbLine
 10
375.5149954737106
 20
239.5375928101742
 30
0.0
 11
367.5179954737105
 21
239.5375928101742
 31
0.0
  0
LINE
  5
132A
330
18
100
AcDbEntity
  8
0
100
AcDbLine
 10
374.7149954737105
 20
240.3365928101741
 30
0.0
 11
368.3179954737105
 21
240.3365928101741
 31
0.0
  0
LINE
  5
132B
330
18
100
AcDbEntity
  8
4
100
AcDbLine
 10
368.3149954737105
 20
205.3405928101741
 30
0.0
 11
368.3149954737105
 21
212.1365928101741
 31
0.0
  0
LINE
  5
132C
330
18
100
AcDbEntity
  8
4
100
AcDbLine
 10
367.5149954737106
 20
205.3365928101741
 30
0.0
 11
367.5149954737106
 21
206.1365928101741
 31
0.0
  0
LINE
  5
132D
330
18
100
AcDbEntity
  8
0
100
AcDbLine
 10
368.3149954737105
 20
205.3365928101741
 30
0.0
 11
367.5159954737105
 21
206.1355928101741
 31
0.0
  0
LINE
  5
132E
330
18
100
AcDbEntity
  8
0
100
AcDbLine
 10
375.5149954737106
 20
206.1375928101742
 30
0.0
 11
367.5189954737106
 21
206.1365928101741
 31
0.0
  0
LINE
  5
132F
330
18
100
AcDbEntity
  8
4
100
AcDbLine
 10
375.5149954737106
 20
205.3365928101741
 30
0.0
 11
375.5149954737106
 21
206.1375928101742
 31
0.0
  0
LINE
  5
1330
330
18
100
AcDbEntity
  8
0
100
AcDbLine
 10
374.7139954737105
 20
205.3365928101741
 30
0.0
 11
375.5139954737106
 21
206.1365928101741
 31
0.0
  0
LINE
  5
1331
330
18
100
AcDbEntity
  8
4
100
AcDbLine
 10
374.7149954737105
 20
205.3405928101741
 30
0.0
 11
374.7139954737105
 21
212.1365928101741
 31
0.0
  0
LINE
  5
1332
330
18
100
AcDbEntity
  8
0
100
AcDbLine
 10
375.5089954737106
 20
205.3365928101741
 30
0.0
 11
367.5149954737106
 21
205.3365928101741
 31
0.0
  0
LINE
  5
1333
330
18
100
AcDbEntity
  8
0
100
AcDbLine
 10
367.5149954737106
 20
206.1365928101741
 30
0.0
 11
367.5149954737106
 21
212.1365928101741
 31
0.0
  0
LINE
  5
1334
330
18
100
AcDbEntity
  8
4
100
AcDbLine
 10
367.5149954737106
 20
212.1365928101741
 30
0.0
 11
367.5149954737106
 21
215.3375928101741
 31
0.0
  0
LINE
  5
1335
330
18
100
AcDbEntity
  8
4
100
AcDbLine
 10
375.5139954737106
 20
212.1375928101742
 30
0.0
 11
375.5139954737106
 21
215.3375928101741
 31
0.0
  0
LINE
  5
1336
330
18
100
AcDbEntity
  8
0
100
AcDbLine
 10
375.5149954737106
 20
206.1375928101742
 30
0.0
 11
375.5139954737106
 21
212.1375928101742
 31
0.0
  0
ARC
  5
1337
330
18
100
AcDbEntity
  8
0
100
AcDbCircle
 10
371.5149954737106
 20
223.1445928101741
 30
0.0
 40
10.785
100
AcDbArc
 50
70.53799999999863
 51
109.4609999999986
  0
ARC
  5
1338
330
18
100
AcDbEntity
  8
0
100
AcDbCircle
 10
371.5149954737106
 20
238.2145928101742
 30
0.0
 40
10.785
100
AcDbArc
 50
250.5390000000014
 51
289.4620000000013
  0
LINE
  5
1339
330
18
100
AcDbEntity
  8
0
100
AcDbLine
 10
375.1099954737106
 20
228.0475928101741
 30
0.0
 11
375.1099954737106
 21
233.3115928101741
 31
0.0
  0
LINE
  5
133A
330
18
100
AcDbEntity
  8
0
100
AcDbLine
 10
367.9199954737105
 20
228.0475928101741
 30
0.0
 11
367.9199954737105
 21
233.3105928101741
 31
0.0
  0
LINE
  5
133B
330
18
100
AcDbEntity
  8
0
100
AcDbLine
 10
376.7339954737105
 20
233.9295928101741
 30
0.0
 11
366.2949954737105
 21
233.9295928101741
 31
0.0
  0
LINE
  5
133C
330
18
100
AcDbEntity
  8
0
100
AcDbLine
 10
378.7039954737105
 20
228.0445928101741
 30
0.0
 11
378.0159954737105
 21
227.6475928101742
 31
0.0
  0
ARC
  5
133D
330
18
100
AcDbEntity
  8
0
100
AcDbCircle
 10
376.9069954737105
 20
230.3565928101741
 30
0.0
 40
2.927999999999998
100
AcDbArc
 50
232.1500000000012
 51
292.2579999999996
  0
LINE
  5
133E
330
18
100
AcDbEntity
  8
0
100
AcDbLine
 10
378.7049954737105
 20
228.0465928101742
 30
0.0
 11
378.7049954737105
 21
233.3115928101741
 31
0.0
  0
ARC
  5
133F
330
18
100
AcDbEntity
  8
0
100
AcDbCircle
 10
376.9069954737105
 20
231.0015928101741
 30
0.0
 40
2.926999999999998
100
AcDbArc
 50
67.74799999999823
 51
127.853000000002
  0
LINE
  5
1340
330
18
100
AcDbEntity
  8
0
100
AcDbLine
 10
378.7039954737105
 20
233.3145928101741
 30
0.0
 11
378.0159954737105
 21
233.7115928101741
 31
0.0
  0
ARC
  5
1341
330
18
100
AcDbEntity
  8
0
100
AcDbCircle
 10
366.1219954737104
 20
230.3565928101741
 30
0.0
 40
2.927999999999998
100
AcDbArc
 50
248.1329999999988
 51
307.8550000000023
  0
LINE
  5
1342
330
18
100
AcDbEntity
  8
0
100
AcDbLine
 10
365.0309954737105
 20
227.6395928101741
 30
0.0
 11
364.3259954737106
 21
228.0475928101741
 31
0.0
  0
LINE
  5
1343
330
18
100
AcDbEntity
  8
0
100
AcDbLine
 10
364.3249954737105
 20
228.0495928101741
 30
0.0
 11
364.3249954737105
 21
233.3095928101741
 31
0.0
  0
LINE
  5
1344
330
18
100
AcDbEntity
  8
0
100
AcDbLine
 10
365.0309954737105
 20
233.7185928101741
 30
0.0
 11
364.3259954737106
 21
233.3115928101741
 31
0.0
  0
ARC
  5
1345
330
18
100
AcDbEntity
  8
0
100
AcDbCircle
 10
366.1219954737104
 20
231.0015928101741
 30
0.0
 40
2.926999999999998
100
AcDbArc
 50
52.1419999999984
 51
111.8750000000023
  0
LINE
  5
1346
330
18
100
AcDbEntity
  8
0
100
AcDbLine
 10
366.1219954737104
 20
227.4295928101741
 30
0.0
 11
376.9069954737105
 21
227.4295928101741
 31
0.0
  0
LINE
  5
1347
330
18
100
AcDbEntity
  8
0
100
AcDbLine
 10
363.4349954737105
 20
227.4125928101741
 30
0.0
 11
363.4349954737105
 21
235.3335928101741
 31
0.0
  0
LINE
  5
1348
330
18
100
AcDbEntity
  8
0
100
AcDbLine
 10
363.4349954737105
 20
235.3335928101741
 30
0.0
 11
365.8489954737105
 21
235.3335928101741
 31
0.0
  0
LINE
  5
1349
330
18
100
AcDbEntity
  8
0
100
AcDbLine
 10
365.8489954737105
 20
235.3335928101741
 30
0.0
 11
365.8489954737105
 21
241.3365928101741
 31
0.0
  0
LINE
  5
134A
330
18
100
AcDbEntity
  8
0
100
AcDbLine
 10
365.8489954737105
 20
241.3365928101741
 30
0.0
 11
371.5149954737106
 21
241.3365928101741
 31
0.0
  0
LINE
  5
134B
330
18
100
AcDbEntity
  8
0
100
AcDbLine
 10
377.1809954737105
 20
235.3335928101741
 30
0.0
 11
377.1809954737105
 21
241.3365928101741
 31
0.0
  0
LINE
  5
134C
330
18
100
AcDbEntity
  8
0
100
AcDbLine
 10
377.1809954737105
 20
241.3365928101741
 30
0.0
 11
371.5149954737106
 21
241.3365928101741
 31
0.0
  0
LINE
  5
134D
330
18
100
AcDbEntity
  8
0
100
AcDbLine
 10
367.5149954737106
 20
233.9295928101741
 30
0.0
 11
367.5149954737106
 21
239.5365928101741
 31
0.0
  0
LINE
  5
134E
330
18
100
AcDbEntity
  8
4
100
AcDbLine
 10
368.3149954737105
 20
233.9295928101741
 30
0.0
 11
368.3149954737105
 21
240.3335928101741
 31
0.0
  0
LINE
  5
134F
330
18
100
AcDbEntity
  8
4
100
AcDbLine
 10
374.7149954737105
 20
233.9295928101741
 30
0.0
 11
374.7149954737105
 21
240.3335928101741
 31
0.0
  0
LINE
  5
1350
330
18
100
AcDbEntity
  8
0
100
AcDbLine
 10
375.5149954737106
 20
233.9295928101741
 30
0.0
 11
375.5149954737106
 21
239.5365928101741
 31
0.0
  0
LINE
  5
1351
330
18
100
AcDbEntity
  8
0
100
AcDbLine
 10
223.3149954737105
 20
205.3345928101741
 30
0.0
 11
223.3149954737105
 21
201.3345928101741
 31
0.0
  0
LINE
  5
1352
330
18
100
AcDbEntity
  8
0
100
AcDbLine
 10
229.7089954737105
 20
205.3345928101741
 30
0.0
 11
229.7089954737105
 21
201.3345928101741
 31
0.0
  0
LINE
  5
1353
330
18
100
AcDbEntity
  8
0
100
AcDbLine
 10
229.7089954737105
 20
201.3345928101741
 30
0.0
 11
223.3149954737105
 21
201.3345928101741
 31
0.0
  0
LINE
  5
1354
330
18
100
AcDbEntity
  8
0
100
AcDbLine
 10
229.7089954737105
 20
201.3355928101742
 30
0.0
 11
226.5119954737105
 21
199.4895928101741
 31
0.0
  0
LINE
  5
1355
330
18
100
AcDbEntity
  8
0
100
AcDbLine
 10
223.3149954737105
 20
201.3345928101741
 30
0.0
 11
226.5119954737105
 21
199.4885928101741
 31
0.0
  0
LINE
  5
1356
330
18
100
AcDbEntity
  8
0
100
AcDbLine
 10
222.5149954737106
 20
218.3405928101742
 30
0.0
 11
222.5149954737106
 21
227.4295928101742
 31
0.0
  0
LINE
  5
1357
330
18
100
AcDbEntity
  8
4
100
AcDbLine
 10
223.3149954737105
 20
218.3365928101742
 30
0.0
 11
223.3149954737105
 21
227.4295928101742
 31
0.0
  0
LINE
  5
1358
330
18
100
AcDbEntity
  8
0
100
AcDbLine
 10
222.5149954737106
 20
215.1365928101741
 30
0.0
 11
222.9149954737105
 21
216.7365928101741
 31
0.0
  0
LINE
  5
1359
330
18
100
AcDbEntity
  8
4
100
AcDbLine
 10
222.9149954737105
 20
216.7365928101741
 30
0.0
 11
223.3149954737105
 21
218.3365928101742
 31
0.0
  0
LINE
  5
135A
330
18
100
AcDbEntity
  8
0
100
AcDbLine
 10
222.9149954737105
 20
216.7365928101741
 30
0.0
 11
222.5149954737106
 21
218.3365928101742
 31
0.0
  0
LINE
  5
135B
330
18
100
AcDbEntity
  8
0
100
AcDbLine
 10
222.5159954737105
 20
239.5385928101742
 30
0.0
 11
223.3139954737105
 21
240.3365928101742
 31
0.0
  0
LINE
  5
135C
330
18
100
AcDbEntity
  8
4
100
AcDbLine
 10
223.3149954737105
 20
212.1375928101742
 30
0.0
 11
222.9179954737106
 21
213.7245928101742
 31
0.0
  0
LINE
  5
135D
330
18
100
AcDbEntity
  8
0
100
AcDbLine
 10
222.5149954737106
 20
212.1375928101742
 30
0.0
 11
222.9119954737105
 21
213.7245928101742
 31
0.0
  0
LINE
  5
135E
330
18
100
AcDbEntity
  8
0
100
AcDbLine
 10
222.9149954737105
 20
213.7365928101742
 30
0.0
 11
222.5159954737105
 21
215.3325928101742
 31
0.0
  0
LINE
  5
135F
330
18
100
AcDbEntity
  8
0
100
AcDbLine
 10
230.5139954737106
 20
212.1375928101742
 30
0.0
 11
230.1169954737106
 21
213.7245928101742
 31
0.0
  0
LINE
  5
1360
330
18
100
AcDbEntity
  8
4
100
AcDbLine
 10
229.7139954737105
 20
212.1375928101742
 30
0.0
 11
230.1109954737106
 21
213.7245928101742
 31
0.0
  0
LINE
  5
1361
330
18
100
AcDbEntity
  8
0
100
AcDbLine
 10
230.1149954737106
 20
213.7365928101742
 30
0.0
 11
230.5129954737105
 21
215.3325928101742
 31
0.0
  0
LINE
  5
1362
330
18
100
AcDbEntity
  8
0
100
AcDbLine
 10
230.5139954737106
 20
212.1375928101742
 30
0.0
 11
222.5179954737105
 21
212.1365928101741
 31
0.0
  0
LINE
  5
1363
330
18
100
AcDbEntity
  8
4
100
AcDbLine
 10
229.7139954737105
 20
213.7365928101742
 30
0.0
 11
223.3179954737106
 21
213.7365928101742
 31
0.0
  0
LINE
  5
1364
330
18
100
AcDbEntity
  8
0
100
AcDbLine
 10
230.1149954737106
 20
216.7365928101741
 30
0.0
 11
230.5149954737106
 21
218.3365928101742
 31
0.0
  0
LINE
  5
1365
330
18
100
AcDbEntity
  8
0
100
AcDbLine
 10
230.5349954737105
 20
215.0565928101742
 30
0.0
 11
230.1149954737106
 21
216.7365928101741
 31
0.0
  0
LINE
  5
1366
330
18
100
AcDbEntity
  8
4
100
AcDbLine
 10
230.1149954737106
 20
216.7365928101741
 30
0.0
 11
229.7149954737105
 21
218.3365928101742
 31
0.0
  0
LINE
  5
1367
330
18
100
AcDbEntity
  8
4
100
AcDbLine
 10
229.7149954737105
 20
218.3365928101742
 30
0.0
 11
229.7149954737105
 21
227.4295928101742
 31
0.0
  0
LINE
  5
1368
330
18
100
AcDbEntity
  8
0
100
AcDbLine
 10
230.5149954737106
 20
218.3405928101742
 30
0.0
 11
230.5149954737106
 21
227.4295928101742
 31
0.0
  0
LINE
  5
1369
330
18
100
AcDbEntity
  8
0
100
AcDbLine
 10
230.5139954737106
 20
239.5385928101742
 30
0.0
 11
229.7149954737105
 21
240.3365928101742
 31
0.0
  0
LINE
  5
136A
330
18
100
AcDbEntity
  8
0
100
AcDbLine
 10
230.5149954737106
 20
215.1365928101741
 30
0.0
 11
222.5179954737105
 21
215.1365928101741
 31
0.0
  0
LINE
  5
136B
330
18
100
AcDbEntity
  8
4
100
AcDbLine
 10
229.7149954737105
 20
216.7365928101741
 30
0.0
 11
223.3169954737106
 21
216.7365928101741
 31
0.0
  0
LINE
  5
136C
330
18
100
AcDbEntity
  8
0
100
AcDbLine
 10
230.5149954737106
 20
218.3365928101742
 30
0.0
 11
222.5179954737105
 21
218.3365928101742
 31
0.0
  0
LINE
  5
136D
330
18
100
AcDbEntity
  8
0
100
AcDbLine
 10
230.5149954737106
 20
239.5375928101742
 30
0.0
 11
222.5179954737105
 21
239.5375928101742
 31
0.0
  0
LINE
  5
136E
330
18
100
AcDbEntity
  8
0
100
AcDbLine
 10
229.7149954737105
 20
240.3365928101742
 30
0.0
 11
223.3179954737106
 21
240.3365928101742
 31
0.0
  0
LINE
  5
136F
330
18
100
AcDbEntity
  8
4
100
AcDbLine
 10
223.3149954737105
 20
205.3405928101742
 30
0.0
 11
223.3149954737105
 21
212.1365928101741
 31
0.0
  0
LINE
  5
1370
330
18
100
AcDbEntity
  8
4
100
AcDbLine
 10
222.5149954737106
 20
205.3365928101742
 30
0.0
 11
222.5149954737106
 21
206.1365928101742
 31
0.0
  0
LINE
  5
1371
330
18
100
AcDbEntity
  8
0
100
AcDbLine
 10
223.3149954737105
 20
205.3365928101742
 30
0.0
 11
222.5159954737105
 21
206.1355928101741
 31
0.0
  0
LINE
  5
1372
330
18
100
AcDbEntity
  8
0
100
AcDbLine
 10
230.5149954737106
 20
206.1375928101742
 30
0.0
 11
222.5189954737106
 21
206.1365928101742
 31
0.0
  0
LINE
  5
1373
330
18
100
AcDbEntity
  8
4
100
AcDbLine
 10
230.5149954737106
 20
205.3365928101742
 30
0.0
 11
230.5149954737106
 21
206.1375928101742
 31
0.0
  0
LINE
  5
1374
330
18
100
AcDbEntity
  8
0
100
AcDbLine
 10
229.7139954737105
 20
205.3365928101742
 30
0.0
 11
230.5139954737106
 21
206.1365928101742
 31
0.0
  0
LINE
  5
1375
330
18
100
AcDbEntity
  8
4
100
AcDbLine
 10
229.7149954737105
 20
205.3405928101742
 30
0.0
 11
229.7139954737105
 21
212.1365928101741
 31
0.0
  0
LINE
  5
1376
330
18
100
AcDbEntity
  8
0
100
AcDbLine
 10
230.5089954737106
 20
205.3365928101742
 30
0.0
 11
222.5149954737106
 21
205.3365928101742
 31
0.0
  0
LINE
  5
1377
330
18
100
AcDbEntity
  8
0
100
AcDbLine
 10
222.5149954737106
 20
206.1365928101742
 30
0.0
 11
222.5149954737106
 21
212.1365928101741
 31
0.0
  0
LINE
  5
1378
330
18
100
AcDbEntity
  8
4
100
AcDbLine
 10
222.5149954737106
 20
212.1365928101741
 30
0.0
 11
222.5149954737106
 21
215.3375928101742
 31
0.0
  0
LINE
  5
1379
330
18
100
AcDbEntity
  8
4
100
AcDbLine
 10
230.5139954737106
 20
212.1375928101742
 30
0.0
 11
230.5139954737106
 21
215.3375928101742
 31
0.0
  0
LINE
  5
137A
330
18
100
AcDbEntity
  8
0
100
AcDbLine
 10
230.5149954737106
 20
206.1375928101742
 30
0.0
 11
230.5139954737106
 21
212.1375928101742
 31
0.0
  0
ARC
  5
137B
330
18
100
AcDbEntity
  8
0
100
AcDbCircle
 10
226.5149954737106
 20
223.1445928101742
 30
0.0
 40
10.785
100
AcDbArc
 50
70.53799999999903
 51
109.4609999999982
  0
ARC
  5
137C
330
18
100
AcDbEntity
  8
0
100
AcDbCircle
 10
226.5149954737106
 20
238.2145928101742
 30
0.0
 40
10.785
100
AcDbArc
 50
250.5390000000017
 51
289.462000000001
  0
LINE
  5
137D
330
18
100
AcDbEntity
  8
0
100
AcDbLine
 10
230.1099954737106
 20
228.0475928101742
 30
0.0
 11
230.1099954737106
 21
233.3115928101742
 31
0.0
  0
LINE
  5
137E
330
18
100
AcDbEntity
  8
0
100
AcDbLine
 10
222.9199954737105
 20
228.0475928101742
 30
0.0
 11
222.9199954737105
 21
233.3105928101741
 31
0.0
  0
LINE
  5
137F
330
18
100
AcDbEntity
  8
0
100
AcDbLine
 10
231.7339954737105
 20
233.9295928101742
 30
0.0
 11
221.2949954737105
 21
233.9295928101742
 31
0.0
  0
LINE
  5
1380
330
18
100
AcDbEntity
  8
0
100
AcDbLine
 10
233.7039954737105
 20
228.0445928101741
 30
0.0
 11
233.0159954737105
 21
227.6475928101742
 31
0.0
  0
ARC
  5
1381
330
18
100
AcDbEntity
  8
0
100
AcDbCircle
 10
231.9069954737105
 20
230.3565928101741
 30
0.0
 40
2.927999999999998
100
AcDbArc
 50
232.1500000000009
 51
292.2579999999996
  0
LINE
  5
1382
330
18
100
AcDbEntity
  8
0
100
AcDbLine
 10
233.7049954737105
 20
228.0465928101742
 30
0.0
 11
233.7049954737105
 21
233.3115928101742
 31
0.0
  0
ARC
  5
1383
330
18
100
AcDbEntity
  8
0
100
AcDbCircle
 10
231.9069954737105
 20
231.0015928101742
 30
0.0
 40
2.926999999999998
100
AcDbArc
 50
67.74799999999898
 51
127.853000000002
  0
LINE
  5
1384
330
18
100
AcDbEntity
  8
0
100
AcDbLine
 10
233.7039954737105
 20
233.3145928101741
 30
0.0
 11
233.0159954737105
 21
233.7115928101742
 31
0.0
  0
ARC
  5
1385
330
18
100
AcDbEntity
  8
0
100
AcDbCircle
 10
221.1219954737106
 20
230.3565928101741
 30
0.0
 40
2.927999999999998
100
AcDbArc
 50
248.1329999999991
 51
307.855000000003
  0
LINE
  5
1386
330
18
100
AcDbEntity
  8
0
100
AcDbLine
 10
220.0309954737105
 20
227.6395928101742
 30
0.0
 11
219.3259954737106
 21
228.0475928101742
 31
0.0
  0
LINE
  5
1387
330
18
100
AcDbEntity
  8
0
100
AcDbLine
 10
219.3249954737105
 20
228.0495928101741
 30
0.0
 11
219.3249954737105
 21
233.3095928101741
 31
0.0
  0
LINE
  5
1388
330
18
100
AcDbEntity
  8
0
100
AcDbLine
 10
220.0309954737105
 20
233.7185928101741
 30
0.0
 11
219.3259954737106
 21
233.3115928101742
 31
0.0
  0
ARC
  5
1389
330
18
100
AcDbEntity
  8
0
100
AcDbCircle
 10
221.1219954737106
 20
231.0015928101742
 30
0.0
 40
2.926999999999998
100
AcDbArc
 50
52.14199999999872
 51
111.8750000000019
  0
LINE
  5
138A
330
18
100
AcDbEntity
  8
0
100
AcDbLine
 10
221.1219954737106
 20
227.4295928101742
 30
0.0
 11
231.9069954737105
 21
227.4295928101742
 31
0.0
  0
LINE
  5
138B
330
18
100
AcDbEntity
  8
0
100
AcDbLine
 10
218.4349954737105
 20
227.4125928101742
 30
0.0
 11
218.4349954737105
 21
235.3335928101742
 31
0.0
  0
LINE
  5
138C
330
18
100
AcDbEntity
  8
0
100
AcDbLine
 10
218.4349954737105
 20
235.3335928101742
 30
0.0
 11
220.8489954737105
 21
235.3335928101742
 31
0.0
  0
LINE
  5
138D
330
18
100
AcDbEntity
  8
0
100
AcDbLine
 10
220.8489954737105
 20
235.3335928101742
 30
0.0
 11
220.8489954737105
 21
241.3365928101742
 31
0.0
  0
LINE
  5
138E
330
18
100
AcDbEntity
  8
0
100
AcDbLine
 10
220.8489954737105
 20
241.3365928101742
 30
0.0
 11
226.5149954737106
 21
241.3365928101742
 31
0.0
  0
LINE
  5
138F
330
18
100
AcDbEntity
  8
0
100
AcDbLine
 10
232.1809954737105
 20
235.3335928101742
 30
0.0
 11
232.1809954737105
 21
241.3365928101742
 31
0.0
  0
LINE
  5
1390
330
18
100
AcDbEntity
  8
0
100
AcDbLine
 10
232.1809954737105
 20
241.3365928101742
 30
0.0
 11
226.5149954737106
 21
241.3365928101742
 31
0.0
  0
LINE
  5
1391
330
18
100
AcDbEntity
  8
0
100
AcDbLine
 10
222.5149954737106
 20
233.9295928101742
 30
0.0
 11
222.5149954737106
 21
239.5365928101741
 31
0.0
  0
LINE
  5
1392
330
18
100
AcDbEntity
  8
4
100
AcDbLine
 10
223.3149954737105
 20
233.9295928101742
 30
0.0
 11
223.3149954737105
 21
240.3335928101741
 31
0.0
  0
LINE
  5
1393
330
18
100
AcDbEntity
  8
4
100
AcDbLine
 10
229.7149954737105
 20
233.9295928101742
 30
0.0
 11
229.7149954737105
 21
240.3335928101741
 31
0.0
  0
LINE
  5
1394
330
18
100
AcDbEntity
  8
0
100
AcDbLine
 10
230.5149954737106
 20
233.9295928101742
 30
0.0
 11
230.5149954737106
 21
239.5365928101741
 31
0.0
  0
LINE
  5
1395
330
18
100
AcDbEntity
  8
0
100
AcDbLine
 10
230.5149954737106
 20
222.336113671581
 30
0.0
 11
263.330694343031
 21
222.336113671581
 31
0.0
  0
LINE
  5
1396
330
18
100
AcDbEntity
  8
0
100
AcDbLine
 10
375.5149954737106
 20
222.336113671581
 30
0.0
 11
400.5119953785966
 21
222.336113671581
 31
0.0
  0
LINE
  5
1397
330
18
100
AcDbEntity
  8
0
100
AcDbLine
 10
375.5119954737105
 20
214.336113671581
 30
0.0
 11
397.5212582304596
 21
214.336113671581
 31
0.0
  0
VIEWPORT
  5
DF5
102
{ACAD_XDICTIONARY
360
1463
102
}
330
15
100
AcDbEntity
 67
     1
  8
0
100
AcDbViewport
 10
206.8240600477246
 20
144.2296643257141
 30
0.0
 40
470.8082016232942
 41
314.1477025756836
 68
     1
 69
     1
 12
206.8240600477246
 22
144.2296643257141
 13
0.0
 23
0.0
 14
10.0
 24
10.0
 15
10.0
 25
10.0
 16
0.0
 26
0.0
 36
1.0
 17
0.0
 27
0.0
 37
0.0
 42
50.0
 43
0.0
 44
0.0
 45
314.1477025756836
 50
0.0
 51
0.0
 72
   100
 90
    32800
  1

281
     0
 71
     1
 74
     0
110
0.0
120
0.0
130
0.0
111
1.0
121
0.0
131
0.0
112
0.0
122
1.0
132
0.0
 79
     0
146
0.0
1001
GENIUS_GENSCREG_15
1000
PF
1040
1.0
1000
DF
1040
1.0
1000
MIN
1011
-28.58004076392251
1021
-12.84418696212776
1031
0.0
1000
MAX
1011
442.2281608593717
1021
301.3035156135559
1031
0.0
1000
FLAGS
1070
     4
1001
GENIUS_GENODEF_13
1002
{
1000
HIER
1070
     0
1002
}
1002
{
1000
MANEDIT
1070
     0
1002
}
1002
{
1000
NOSEL
1070
     0
1002
}
1002
{
1000
BEHIND
1070
     0
1002
}
1002
{
1000
OTHER
1070
     0
1002
}
1002
{
1000
REACTOR
1002
}
1001
GENIUS_GENOBJ-N-SDF_13
1002
{
1000
OWNER
1000
GEN
1002
}
  0
ENDSEC
  0
SECTION
  2
OBJECTS
  0
DICTIONARY
  5
C
330
0
100
AcDbDictionary
281
     1
  3
ACAD_COLOR
350
D14
  3
ACAD_GROUP
350
D
  3
ACAD_LAYOUT
350
D17
  3
ACAD_MATERIAL
350
D13
  3
ACAD_MLINESTYLE
350
1B
  3
ACAD_PLOTSETTINGS
350
D18
  3
ACAD_PLOTSTYLENAME
350
D11
  3
ACAD_TABLESTYLE
350
D15
  3
ACDBHEADERROUNDTRIPXREC
350
145E
  3
ACDBVARIABLEDICTIONARY
350
C24
  3
AcmDictionary
350
D7B
  3
AMG
350
D21
  3
AMGSNAPSETTINGS
350
DEB
  3
GENBLK
350
257
  0
DICTIONARY
  5
10C5
330
18
100
AcDbDictionary
280
     1
281
     1
  3
ACAD_SORTENTS
360
10C6
  0
DICTIONARY
  5
1463
330
DF5
100
AcDbDictionary
280
     1
281
     1
  3
ACAD_XREC_ROUNDTRIP
360
1464
  0
DICTIONARY
  5
D14
102
{ACAD_REACTORS
330
C
102
}
330
C
100
AcDbDictionary
281
     1
  0
DICTIONARY
  5
D
102
{ACAD_REACTORS
330
C
102
}
330
C
100
AcDbDictionary
281
     1
  0
DICTIONARY
  5
D17
102
{ACAD_REACTORS
330
C
102
}
330
C
100
AcDbDictionary
281
     1
  3
Layout1
350
D1A
  3
Model
350
D19
  0
DICTIONARY
  5
D13
102
{ACAD_REACTORS
330
C
102
}
330
C
100
AcDbDictionary
281
     1
  0
DICTIONARY
  5
1B
102
{ACAD_REACTORS
330
C
102
}
330
C
100
AcDbDictionary
281
     1
  3
STANDARD
350
1C
  0
DICTIONARY
  5
D18
102
{ACAD_REACTORS
330
C
102
}
330
C
100
AcDbDictionary
281
     1
  0
ACDBDICTIONARYWDFLT
  5
D11
102
{ACAD_REACTORS
330
C
102
}
330
C
100
AcDbDictionary
281
     1
  3
Normal
350
D12
100
AcDbDictionaryWithDefault
340
D12
  0
DICTIONARY
  5
D15
102
{ACAD_REACTORS
330
C
102
}
330
C
100
AcDbDictionary
281
     1
  3
Standard
350
D16
  0
DICTIONARY
  5
145E
102
{ACAD_REACTORS
330
C
102
}
330
C
100
AcDbDictionary
281
     1
  0
DICTIONARY
  5
C24
102
{ACAD_REACTORS
330
C
102
}
330
C
100
AcDbDictionary
281
     1
  3
CTABLESTYLE
350
E01
  3
DIMASSOC
350
139A
  3
PROJECTNAME
350
139B
  3
SORTENTS
350
C25
  0
DICTIONARY
  5
D7B
102
{ACAD_REACTORS
330
C
102
}
330
C
100
AcDbDictionary
281
     1
  3
AcmStdDictionary
350
D86
  3
AMDTSECTSYM_ARROWCOLOR
350
DA9
  0
DICTIONARY
  5
D21
102
{ACAD_REACTORS
330
C
102
}
330
C
100
AcDbDictionary
281
     1
  0
DICTIONARY
  5
DEB
102
{ACAD_REACTORS
330
C
102
}
330
C
100
AcDbDictionary
281
     1
  0
DICTIONARY
  5
257
102
{ACAD_REACTORS
330
C
102
}
330
C
100
AcDbDictionary
281
     1
  3
0
350
258
  0
SORTENTSTABLE
  5
10C6
102
{ACAD_REACTORS
330
10C5
102
}
330
10C5
100
AcDbSortentsTable
330
18
331
1364
  5
1367
331
136C
  5
136F
331
1374
  5
1377
331
137C
  5
137F
331
1312
  5
1315
331
C65
  5
FDD
331
131A
  5
131D
331
616
  5
61A
331
61E
  5
624
331
1322
  5
1325
331
5B7
  5
5B7
331
626
  5
C1B
331
132A
  5
132D
331
10A0
  5
1155
331
5C5
  5
5C5
331
1384
  5
1387
331
11E3
  5
12CA
331
138C
  5
138F
331
134D
  5
1350
331
1355
  5
1358
331
1394
  5
1397
331
135D
  5
1360
331
1332
  5
1335
331
11CB
  5
11DE
331
1190
  5
11A3
331
11D3
  5
1241
331
10AD
  5
1162
331
133A
  5
133D
331
5EF
  5
5EF
331
C1E
  5
FD8
331
1096
  5
10AB
331
1198
  5
11CA
331
11A4
  5
11D6
331
11DB
  5
126E
331
1342
  5
1345
331
5F7
  5
5F7
331
5FF
  5
5FF
331
109E
  5
1153
331
60F
  5
611
331
1365
  5
1368
331
136D
  5
1370
331
1375
  5
1378
331
137D
  5
1380
331
1313
  5
1316
331
5A8
  5
5A8
331
131B
  5
131E
331
617
  5
61B
331
5BE
  5
5BE
331
1323
  5
1326
331
61F
  5
625
331
10A1
  5
1156
331
132B
  5
132E
331
C20
  5
FDA
331
96F
  5
C1C
331
1385
  5
1388
331
11E4
  5
12CB
331
134E
  5
1351
331
138D
  5
1390
331
1395
  5
10A8
331
1356
  5
1359
331
135E
  5
1361
331
1189
  5
119D
331
11CC
  5
11DF
331
1333
  5
1336
331
5F0
  5
5F0
331
C1F
  5
FD9
331
133B
  5
133E
331
11D4
  5
124A
331
1191
  5
11A4
331
10AE
  5
1163
331
5F8
  5
5F8
331
1097
  5
10AC
331
1343
  5
1346
331
11A5
  5
11D7
331
11DC
  5
1270
331
1199
  5
11CB
331
608
  5
608
331
109F
  5
1154
331
1366
  5
1369
331
136E
  5
1371
331
1376
  5
1379
331
137E
  5
1381
331
1314
  5
1317
331
610
  5
612
331
618
  5
61C
331
131C
  5
131F
331
620
  5
626
331
1324
  5
1327
331
5D9
  5
5D9
331
C21
  5
FDB
331
132C
  5
132F
331
10A2
  5
1157
331
1386
  5
1389
331
970
  5
C1D
331
134F
  5
1352
331
138E
  5
1391
331
1357
  5
135A
331
1396
  5
10AA
331
135F
  5
1362
331
118A
  5
119E
331
1334
  5
1337
331
5E9
  5
5E9
331
C18
  5
C20
331
11CD
  5
11E0
331
1192
  5
11A5
331
11D5
  5
124B
331
133C
  5
133F
331
5F1
  5
5F1
331
1098
  5
10AD
331
119A
  5
11CC
331
11A6
  5
11D8
331
11DD
  5
1272
331
10C7
  5
10A9
331
1344
  5
1347
331
5F9
  5
5F9
331
609
  5
609
331
130D
  5
1310
331
1367
  5
136A
331
136F
  5
1372
331
1377
  5
137A
331
137F
  5
1382
331
611
  5
613
331
1315
  5
1318
331
5B8
  5
5B8
331
131D
  5
1320
331
619
  5
61D
331
1325
  5
1328
331
5DA
  5
5DA
331
621
  5
96F
331
10A3
  5
1158
331
132D
  5
1330
331
1348
  5
134B
331
1387
  5
138A
331
971
  5
C1E
331
1350
  5
1353
331
138F
  5
1392
331
1397
  5
10A4
331
1358
  5
135B
331
C19
  5
C21
331
11CE
  5
11E1
331
10A8
  5
115D
331
1335
  5
1338
331
5EA
  5
5EA
331
5F2
  5
5F2
331
133D
  5
1340
331
11D6
  5
124D
331
1193
  5
11A6
331
119B
  5
11CD
331
1345
  5
1348
331
5FA
  5
5FA
331
1099
  5
10AE
331
11A7
  5
11D9
331
11DE
  5
1275
331
130E
  5
1311
331
60A
  5
60A
331
1360
  5
1363
331
1368
  5
136B
331
1370
  5
1373
331
1378
  5
137B
331
1316
  5
1319
331
612
  5
614
331
61A
  5
61E
331
5B9
  5
5B9
331
131E
  5
1321
331
622
  5
971
331
1326
  5
1329
331
132E
  5
1331
331
11C7
  5
11DA
331
10A4
  5
1159
331
1380
  5
1383
331
1388
  5
138B
331
972
  5
C1F
331
1349
  5
134C
331
1351
  5
1354
331
1390
  5
1393
331
1359
  5
135C
331
118C
  5
119F
331
11CF
  5
11E2
331
10A9
  5
115E
331
1336
  5
1339
331
5EB
  5
5EB
331
C1A
  5
C26
331
1194
  5
11A7
331
11D7
  5
124E
331
133E
  5
1341
331
5F3
  5
5F3
331
11A0
  5
11D2
331
109A
  5
10C4
331
119C
  5
11CE
331
11DF
  5
1276
331
1346
  5
1349
331
5FB
  5
5FB
331
60B
  5
60B
331
130F
  5
1312
331
1361
  5
1364
331
1369
  5
136C
331
1371
  5
1374
331
1379
  5
137C
331
613
  5
615
331
1317
  5
131A
331
5BA
  5
5BA
331
131F
  5
1322
331
61B
  5
621
331
5C2
  5
5C2
331
1327
  5
132A
331
623
  5
972
331
10A5
  5
115A
331
132F
  5
1332
331
1381
  5
1384
331
11E0
  5
1278
331
134A
  5
134D
331
1389
  5
138C
331
1352
  5
1355
331
1391
  5
1394
331
135A
  5
135D
331
11C8
  5
11DB
331
5CA
  5
5CA
331
C1B
  5
C65
331
118D
  5
11A0
331
11D0
  5
11E3
331
10AA
  5
115F
331
1337
  5
133A
331
5EC
  5
5EC
331
5F4
  5
5F4
331
1093
  5
109D
331
133F
  5
1342
331
11A1
  5
11D3
331
11D8
  5
1250
331
1195
  5
11C7
331
119D
  5
11CF
331
1347
  5
134A
331
5FC
  5
5FC
331
109B
  5
10C7
331
60C
  5
60C
331
1362
  5
1365
331
136A
  5
136D
331
1372
  5
1375
331
137A
  5
137D
331
1310
  5
1313
331
1318
  5
131B
331
614
  5
617
331
61C
  5
622
331
1320
  5
1323
331
5B5
  5
5B5
331
624
  5
C18
331
1328
  5
132B
331
10A6
  5
115B
331
1382
  5
1385
331
11E1
  5
1279
331
138A
  5
138D
331
134B
  5
134E
331
1353
  5
1356
331
1392
  5
1395
331
135B
  5
135E
331
1330
  5
1333
331
11C9
  5
11DC
331
118E
  5
11A1
331
11D1
  5
11E4
331
10AB
  5
1160
331
1338
  5
133B
331
5ED
  5
5ED
331
C1C
  5
FD6
331
1094
  5
10A0
331
1196
  5
11C8
331
11D9
  5
1251
331
1340
  5
1343
331
5F5
  5
5F5
331
11A2
  5
11D4
331
109C
  5
1150
331
119E
  5
11D0
331
5FD
  5
5FD
331
60D
  5
60F
331
1363
  5
1366
331
136B
  5
136E
331
1373
  5
1376
331
137B
  5
137E
331
1311
  5
1314
331
1319
  5
131C
331
615
  5
619
331
1321
  5
1324
331
5B6
  5
5B6
331
61D
  5
623
331
1329
  5
132C
331
625
  5
C1A
331
10A7
  5
115C
331
C26
  5
FDC
331
1383
  5
1386
331
11E2
  5
12C9
331
134C
  5
134F
331
138B
  5
138E
331
1393
  5
1396
331
1354
  5
1357
331
135C
  5
135F
331
11CA
  5
11DD
331
5CC
  5
5CC
331
1331
  5
1334
331
5EE
  5
5EE
331
C1D
  5
FD7
331
118F
  5
11A2
331
11D2
  5
11F4
331
10AC
  5
1161
331
1339
  5
133C
331
5F6
  5
5F6
331
1095
  5
10A5
331
1341
  5
1344
331
10C4
  5
10A1
331
11A3
  5
11D5
331
11DA
  5
1253
331
1197
  5
11C9
331
119F
  5
11D1
331
5FE
  5
5FE
331
109D
  5
1152
331
60E
  5
610
  0
XRECORD
  5
1464
102
{ACAD_REACTORS
330
1463
102
}
330
1463
100
AcDbXrecord
280
     1
102
SHADEPLOT
 70
     0
  0
LAYOUT
  5
D1A
102
{ACAD_XDICTIONARY
360
1461
102
}
102
{ACAD_REACTORS
330
D17
102
}
330
D17
100
AcDbPlotSettings
  1

  2
KL-PR-051-A3
  4
A3
  6

 40
4.233333110809326
 41
4.233341693878172
 42
4.23333740234375
 43
4.23333740234375
 44
296.9259948730469
 45
419.9466552734373
 46
0.0
 47
0.0
 48
0.0
 49
0.0
140
0.0
141
0.0
142
1.0
143
1.0
 70
   688
 72
     1
 73
     1
 74
     5
  7
Standard-W- A4_24.11.00.ctb
 75
    16
147
1.0
148
0.0
149
0.0
100
AcDbLayout
  1
Layout1
 70
     1
 71
     1
 10
-4.23333740234375
 20
-4.233333110809326
 11
415.7133178710936
 21
292.6926617622375
 12
0.0
 22
0.0
 32
0.0
 14
1.000000000000000E+20
 24
1.000000000000000E+20
 34
1.000000000000000E+20
 15
-1.000000000000000E+20
 25
-1.000000000000000E+20
 35
-1.000000000000000E+20
146
0.0
 13
0.0
 23
0.0
 33
0.0
 16
1.0
 26
0.0
 36
0.0
 17
0.0
 27
1.0
 37
0.0
 76
     0
330
15
331
DF5
1001
ACAD_PSEXT
1000
KL-PR-051-A3
1000
HP LaserJet 5100 PCL 6
1000
KL Konstruktion
1000
HP LaserJet 5100dtn
1070
     0
  0
LAYOUT
  5
D19
102
{ACAD_XDICTIONARY
360
145F
102
}
102
{ACAD_REACTORS
330
D17
102
}
330
D17
100
AcDbPlotSettings
  1

  2
KL-PR-051-A3
  4
A3
  6

 40
4.233333110809326
 41
4.233341693878172
 42
4.23333740234375
 43
4.23333740234375
 44
296.9259948730469
 45
419.9466552734373
 46
0.2116705179215046
 47
0.0
 48
4.999999999999943
 49
5.000000000000049
140
415.0
141
292.0
142
1.0
143
0.996403285061487
 70
 11956
 72
     1
 73
     1
 74
     4
  7
Standard-W- A4_24.11.00.ctb
 75
     0
147
1.003609697993208
148
-4.999999999999943
149
-5.000000000000049
100
AcDbLayout
  1
Model
 70
     1
 71
     0
 10
0.0
 20
0.0
 11
12.0
 21
9.0
 12
0.0
 22
0.0
 32
0.0
 14
0.0
 24
0.0
 34
0.0
 15
0.0
 25
0.0
 35
0.0
146
0.0
 13
0.0
 23
0.0
 33
0.0
 16
1.0
 26
0.0
 36
0.0
 17
0.0
 27
1.0
 37
0.0
 76
     0
330
18
1001
ACAD_PSEXT
1000
KL-PR-051-A3
1000
HP LaserJet 5100 PCL 6
1000
KL Konstruktion
1000
HP LaserJet 5100dtn
1070
     0
  0
MLINESTYLE
  5
1C
102
{ACAD_REACTORS
330
1B
102
}
330
1B
100
AcDbMlineStyle
  2
STANDARD
 70
     0
  3

 62
   256
 51
90.0
 52
90.0
 71
     2
 49
0.5
 62
   256
  6
BYLAYER
 49
-0.5
 62
   256
  6
BYLAYER
  0
ACDBPLACEHOLDER
  5
D12
102
{ACAD_REACTORS
330
D11
102
}
330
D11
  0
TABLESTYLE
  5
D16
102
{ACAD_REACTORS
330
D15
102
}
330
D15
100
AcDbTableStyle
  3
Standard
 70
     0
 71
     0
 40
1.5
 41
1.5
280
     0
281
     0
  7
STANDARD
140
4.5
170
     2
 62
     0
 63
     7
283
     0
274
    -2
284
     1
 64
     0
275
    -2
285
     1
 65
     0
276
    -2
286
     1
 66
     0
277
    -2
287
     1
 67
     0
278
    -2
288
     1
 68
     0
279
    -2
289
     1
 69
     0
  7
STANDARD
140
6.0
170
     5
 62
     0
 63
     7
283
     0
274
    -2
284
     1
 64
     0
275
    -2
285
     1
 65
     0
276
    -2
286
     1
 66
     0
277
    -2
287
     1
 67
     0
278
    -2
288
     1
 68
     0
279
    -2
289
     1
 69
     0
  7
STANDARD
140
4.5
170
     5
 62
     0
 63
     7
283
     0
274
    -2
284
     1
 64
     0
275
    -2
285
     1
 65
     0
276
    -2
286
     1
 66
     0
277
    -2
287
     1
 67
     0
278
    -2
288
     1
 68
     0
279
    -2
289
     1
 69
     0
  0
DICTIONARYVAR
  5
E01
102
{ACAD_REACTORS
330
C24
102
}
330
C24
100
DictionaryVariables
280
     0
  1
STANDARD
  0
DICTIONARYVAR
  5
139A
102
{ACAD_REACTORS
330
C24
102
}
330
C24
100
DictionaryVariables
280
     0
  1
1
  0
DICTIONARYVAR
  5
139B
102
{ACAD_REACTORS
330
C24
102
}
330
C24
100
DictionaryVariables
280
     0
  1

  0
DICTIONARYVAR
  5
C25
102
{ACAD_REACTORS
330
C24
102
}
330
C24
100
DictionaryVariables
280
     0
  1
96
  0
DICTIONARY
  5
D86
102
{ACAD_REACTORS
330
D7B
102
}
330
D7B
100
AcDbDictionary
281
     1
  0
XRECORD
  5
DA9
102
{ACAD_REACTORS
330
D7B
102
}
330
D7B
100
AcDbXrecord
280
     1
 90
-1023410169
  0
XRECORD
  5
258
102
{ACAD_REACTORS
330
257
102
}
330
257
100
AcDbXrecord
280
     1
  1
Time
 90
1060338452
  1
Levels
 70
     0
  0
DICTIONARY
  5
1461
330
D1A
100
AcDbDictionary
280
     1
281
     1
  3
ACAD_XREC_ROUNDTRIP
360
1462
  0
DICTIONARY
  5
145F
330
D19
100
AcDbDictionary
280
     1
281
     1
  3
ACAD_XREC_ROUNDTRIP
360
1460
  0
XRECORD
  5
1462
102
{ACAD_REACTORS
330
1461
102
}
330
1461
100
AcDbXrecord
280
     1
102
SHADEPLOT
 70
     0
102
SHADEPLOTRESLEVEL
 70
     2
102
SHADEPLOTCUSTOMDPI
 70
   300
  0
XRECORD
  5
1460
102
{ACAD_REACTORS
330
145F
102
}
330
145F
100
AcDbXrecord
280
     1
102
SHADEPLOT
 70
     0
102
SHADEPLOTRESLEVEL
 70
     2
102
SHADEPLOTCUSTOMDPI
 70
   300
  0
ENDSEC
  0
EOF
