  0
SECTION
  2
HEADER
  9
$ACADVER
  1
AC1024
  9
$ACADMAINTVER
 70
    10
  9
$DWGCODEPAGE
  3
ANSI_1252
  9
$LASTSAVEDBY
  1
cschlotzhauer
  9
$CUSTOMPROPERTYTAG
  1
AmdtFileType
  9
$CUSTOMPROPERTY
  1
84
  9
$INSBASE
 10
0.0
 20
0.0
 30
0.0
  9
$EXTMIN
 10
660.8669882598662
 20
16.33028069136259
 30
0.0
  9
$EXTMAX
 10
1004.846988259866
 20
502.4886806913626
 30
0.0
  9
$LIMMIN
 10
0.0
 20
0.0
  9
$LIMMAX
 10
420.0
 20
297.0
  9
$ORTHOMODE
 70
     0
  9
$REGENMODE
 70
     1
  9
$FILLMODE
 70
     1
  9
$QTEXTMODE
 70
     0
  9
$MIRRTEXT
 70
     1
  9
$LTSCALE
 40
1.0
  9
$ATTMODE
 70
     1
  9
$TEXTSIZE
 40
2.5
  9
$TRACEWID
 40
1.0
  9
$TEXTSTYLE
  7
STANDARD
  9
$CLAYER
  8
0
  9
$CELTYPE
  6
ByLayer
  9
$CECOLOR
 62
   256
  9
$CELTSCALE
 40
1.0
  9
$DISPSILH
 70
     0
  9
$DIMSCALE
 40
1.0
  9
$DIMASZ
 40
2.5
  9
$DIMEXO
 40
1.0
  9
$DIMDLI
 40
10.0
  9
$DIMRND
 40
0.0
  9
$DIMDLE
 40
0.0
  9
$DIMEXE
 40
1.0
  9
$DIMTP
 40
0.1
  9
$DIMTM
 40
0.1
  9
$DIMTXT
 40
3.5
  9
$DIMCEN
 40
0.0
  9
$DIMTSZ
 40
0.0
  9
$DIMTOL
 70
     0
  9
$DIMLIM
 70
     0
  9
$DIMTIH
 70
     0
  9
$DIMTOH
 70
     0
  9
$DIMSE1
 70
     0
  9
$DIMSE2
 70
     0
  9
$DIMTAD
 70
     1
  9
$DIMZIN
 70
     8
  9
$DIMBLK
  1

  9
$DIMASO
 70
     1
  9
$DIMSHO
 70
     1
  9
$DIMPOST
  1

  9
$DIMAPOST
  1
"
  9
$DIMALT
 70
     0
  9
$DIMALTD
 70
     2
  9
$DIMALTF
 40
0.0393701
  9
$DIMLFAC
 40
1.0
  9
$DIMTOFL
 70
     1
  9
$DIMTVP
 40
0.0
  9
$DIMTIX
 70
     0
  9
$DIMSOXD
 70
     0
  9
$DIMSAH
 70
     0
  9
$DIMBLK1
  1

  9
$DIMBLK2
  1

  9
$DIMSTYLE
  2
AM_DIN
  9
$DIMCLRD
 70
   256
  9
$DIMCLRE
 70
   256
  9
$DIMCLRT
 70
     2
  9
$DIMTFAC
 40
0.71
  9
$DIMGAP
 40
1.5
  9
$DIMJUST
 70
     0
  9
$DIMSD1
 70
     0
  9
$DIMSD2
 70
     0
  9
$DIMTOLJ
 70
     0
  9
$DIMTZIN
 70
     8
  9
$DIMALTZ
 70
     0
  9
$DIMALTTZ
 70
     0
  9
$DIMUPT
 70
     0
  9
$DIMDEC
 70
     0
  9
$DIMTDEC
 70
     3
  9
$DIMALTU
 70
     2
  9
$DIMALTTD
 70
     4
  9
$DIMTXSTY
  7
STANDARD
  9
$DIMAUNIT
 70
     0
  9
$DIMADEC
 70
     0
  9
$DIMALTRND
 40
0.0
  9
$DIMAZIN
 70
     2
  9
$DIMDSEP
 70
    46
  9
$DIMATFIT
 70
     3
  9
$DIMFRAC
 70
     0
  9
$DIMLDRBLK
  1

  9
$DIMLUNIT
 70
     2
  9
$DIMLWD
 70
    -1
  9
$DIMLWE
 70
    -1
  9
$DIMTMOVE
 70
     0
  9
$DIMFXL
 40
1.0
  9
$DIMFXLON
 70
     0
  9
$DIMJOGANG
 40
1.570796326794896
  9
$DIMTFILL
 70
     0
  9
$DIMTFILLCLR
 70
     0
  9
$DIMARCSYM
 70
     1
  9
$DIMLTYPE
  6

  9
$DIMLTEX1
  6

  9
$DIMLTEX2
  6

  9
$DIMTXTDIRECTION
 70
     0
  9
$LUNITS
 70
     2
  9
$LUPREC
 70
     2
  9
$SKETCHINC
 40
1.0
  9
$FILLETRAD
 40
0.0
  9
$AUNITS
 70
     0
  9
$AUPREC
 70
     0
  9
$MENU
  1
.
  9
$ELEVATION
 40
0.0
  9
$PELEVATION
 40
0.0
  9
$THICKNESS
 40
0.0
  9
$LIMCHECK
 70
     0
  9
$CHAMFERA
 40
2.5
  9
$CHAMFERB
 40
2.5
  9
$CHAMFERC
 40
20.0
  9
$CHAMFERD
 40
0.0
  9
$SKPOLY
 70
     0
  9
$TDCREATE
 40
2456016.378263160
  9
$TDUCREATE
 40
2456016.336596493
  9
$TDUPDATE
 40
2456233.374709548
  9
$TDUUPDATE
 40
2456233.333042882
  9
$TDINDWG
 40
0.1023158333
  9
$TDUSRTIMER
 40
0.1023157176
  9
$USRTIMER
 70
     1
  9
$ANGBASE
 50
0.0
  9
$ANGDIR
 70
     0
  9
$PDMODE
 70
     0
  9
$PDSIZE
 40
0.0
  9
$PLINEWID
 40
0.0
  9
$SPLFRAME
 70
     0
  9
$SPLINETYPE
 70
     6
  9
$SPLINESEGS
 70
     8
  9
$HANDSEED
  5
1C74
  9
$SURFTAB1
 70
     6
  9
$SURFTAB2
 70
     6
  9
$SURFTYPE
 70
     6
  9
$SURFU
 70
     6
  9
$SURFV
 70
     6
  9
$UCSBASE
  2

  9
$UCSNAME
  2

  9
$UCSORG
 10
0.0
 20
0.0
 30
0.0
  9
$UCSXDIR
 10
1.0
 20
0.0
 30
0.0
  9
$UCSYDIR
 10
0.0
 20
1.0
 30
0.0
  9
$UCSORTHOREF
  2

  9
$UCSORTHOVIEW
 70
     0
  9
$UCSORGTOP
 10
0.0
 20
0.0
 30
0.0
  9
$UCSORGBOTTOM
 10
0.0
 20
0.0
 30
0.0
  9
$UCSORGLEFT
 10
0.0
 20
0.0
 30
0.0
  9
$UCSORGRIGHT
 10
0.0
 20
0.0
 30
0.0
  9
$UCSORGFRONT
 10
0.0
 20
0.0
 30
0.0
  9
$UCSORGBACK
 10
0.0
 20
0.0
 30
0.0
  9
$PUCSBASE
  2

  9
$PUCSNAME
  2

  9
$PUCSORG
 10
0.0
 20
0.0
 30
0.0
  9
$PUCSXDIR
 10
1.0
 20
0.0
 30
0.0
  9
$PUCSYDIR
 10
0.0
 20
1.0
 30
0.0
  9
$PUCSORTHOREF
  2

  9
$PUCSORTHOVIEW
 70
     0
  9
$PUCSORGTOP
 10
0.0
 20
0.0
 30
0.0
  9
$PUCSORGBOTTOM
 10
0.0
 20
0.0
 30
0.0
  9
$PUCSORGLEFT
 10
0.0
 20
0.0
 30
0.0
  9
$PUCSORGRIGHT
 10
0.0
 20
0.0
 30
0.0
  9
$PUCSORGFRONT
 10
0.0
 20
0.0
 30
0.0
  9
$PUCSORGBACK
 10
0.0
 20
0.0
 30
0.0
  9
$USERI1
 70
     0
  9
$USERI2
 70
     0
  9
$USERI3
 70
     0
  9
$USERI4
 70
     0
  9
$USERI5
 70
     0
  9
$USERR1
 40
0.0
  9
$USERR2
 40
0.0
  9
$USERR3
 40
0.0
  9
$USERR4
 40
0.0
  9
$USERR5
 40
0.0
  9
$WORLDVIEW
 70
     1
  9
$SHADEDGE
 70
     3
  9
$SHADEDIF
 70
    70
  9
$TILEMODE
 70
     1
  9
$MAXACTVP
 70
    64
  9
$PINSBASE
 10
0.0
 20
0.0
 30
0.0
  9
$PLIMCHECK
 70
     0
  9
$PEXTMIN
 10
1.000000000000000E+20
 20
1.000000000000000E+20
 30
1.000000000000000E+20
  9
$PEXTMAX
 10
-1.000000000000000E+20
 20
-1.000000000000000E+20
 30
-1.000000000000000E+20
  9
$PLIMMIN
 10
0.0
 20
0.0
  9
$PLIMMAX
 10
420.0
 20
297.0
  9
$UNITMODE
 70
     0
  9
$VISRETAIN
 70
     1
  9
$PLINEGEN
 70
     0
  9
$PSLTSCALE
 70
     1
  9
$TREEDEPTH
 70
  3020
  9
$CMLSTYLE
  2
Standard
  9
$CMLJUST
 70
     0
  9
$CMLSCALE
 40
20.0
  9
$PROXYGRAPHICS
 70
     1
  9
$MEASUREMENT
 70
     1
  9
$CELWEIGHT
370
    -1
  9
$ENDCAPS
280
     0
  9
$JOINSTYLE
280
     0
  9
$LWDISPLAY
290
     0
  9
$INSUNITS
 70
     4
  9
$HYPERLINKBASE
  1

  9
$STYLESHEET
  1
monochrome.ctb
  9
$XEDIT
290
     1
  9
$CEPSNTYPE
380
     0
  9
$PSTYLEMODE
290
     1
  9
$FINGERPRINTGUID
  2
{9A5E83FC-2832-4E85-A8B8-47F169BC0B75}
  9
$VERSIONGUID
  2
{340CD644-D058-4AE6-A052-7F7BE094257E}
  9
$EXTNAMES
290
     1
  9
$PSVPSCALE
 40
0.0
  9
$OLESTARTUP
290
     0
  9
$SORTENTS
280
   127
  9
$INDEXCTL
280
     0
  9
$HIDETEXT
280
     0
  9
$XCLIPFRAME
280
     0
  9
$HALOGAP
280
     0
  9
$OBSCOLOR
 70
   257
  9
$OBSLTYPE
280
     0
  9
$INTERSECTIONDISPLAY
280
     0
  9
$INTERSECTIONCOLOR
 70
   257
  9
$DIMASSOC
280
     2
  9
$PROJECTNAME
  1

  9
$CAMERADISPLAY
290
     0
  9
$LENSLENGTH
 40
50.0
  9
$CAMERAHEIGHT
 40
0.0
  9
$STEPSPERSEC
 40
2.0
  9
$STEPSIZE
 40
6.0
  9
$3DDWFPREC
 40
2.0
  9
$PSOLWIDTH
 40
0.25
  9
$PSOLHEIGHT
 40
4.0
  9
$LOFTANG1
 40
1.570796326794896
  9
$LOFTANG2
 40
1.570796326794896
  9
$LOFTMAG1
 40
0.0
  9
$LOFTMAG2
 40
0.0
  9
$LOFTPARAM
 70
     7
  9
$LOFTNORMALS
280
     1
  9
$LATITUDE
 40
37.795
  9
$LONGITUDE
 40
-122.394
  9
$NORTHDIRECTION
 40
0.0
  9
$TIMEZONE
 70
 -8000
  9
$LIGHTGLYPHDISPLAY
280
     1
  9
$TILEMODELIGHTSYNCH
280
     1
  9
$CMATERIAL
347
3B4
  9
$SOLIDHIST
280
     1
  9
$SHOWHIST
280
     1
  9
$DWFFRAME
280
     2
  9
$DGNFRAME
280
     0
  9
$REALWORLDSCALE
290
     1
  9
$INTERFERECOLOR
 62
     1
  9
$INTERFEREOBJVS
345
3D6
  9
$INTERFEREVPVS
346
3D3
  9
$CSHADOW
280
     0
  9
$SHADOWPLANELOCATION
 40
0.0
  0
ENDSEC
  0
SECTION
  2
CLASSES
  0
CLASS
  1
ACDBDICTIONARYWDFLT
  2
AcDbDictionaryWithDefault
  3
ObjectDBX Classes
 90
        0
 91
        1
280
     0
281
     0
  0
CLASS
  1
ACME_DOCUMENT
  2
AcMeDbDoc
  3
AcMeServices
 90
     1024
 91
        2
280
     0
281
     0
  0
CLASS
  1
AMGSETTINGSOBJ
  2
AmgSettingsObj
  3
"AcadM|Product Description: AutoCAD Mechanical|Company: Autodesk, Inc."
 90
     1024
 91
        2
280
     0
281
     0
  0
CLASS
  1
ACMESCOPE
  2
AcMeScope
  3
AcMeServices
 90
     1024
 91
        1
280
     0
281
     0
  0
CLASS
  1
ACMECOMMANDHISTORY
  2
AcMeCommandHistory
  3
AcMeServices
 90
     1024
 91
        1
280
     0
281
     0
  0
CLASS
  1
ACIMSYSVARMAN
  2
AcImSysVarManager
  3
AcMeServices
 90
     1024
 91
        5
280
     0
281
     0
  0
CLASS
  1
ACIMREALSYSVAR
  2
AcImRealSysVar
  3
AcMeServices
 90
     1024
 91
        1
280
     0
281
     0
  0
CLASS
  1
ACIMINTSYSVAR
  2
AcImIntSysVar
  3
AcMeServices
 90
     1024
 91
       28
280
     0
281
     0
  0
CLASS
  1
ACMEDRAWINGMAN
  2
AcMeDrawingMan
  3
AcMeServices
 90
     1024
 91
        1
280
     0
281
     0
  0
CLASS
  1
ACMEVIEW
  2
AcMeView
  3
AcMeServices
 90
     1024
 91
        1
280
     0
281
     0
  0
CLASS
  1
ACDBENTITYCACHE
  2
AcMeEntityCache
  3
AcMeServices
 90
     1024
 91
        1
280
     0
281
     0
  0
CLASS
  1
GSMANAGER
  2
AcMeGSManager
  3
AcMeServices
 90
     1024
 91
        0
280
     0
281
     0
  0
CLASS
  1
AMDTINTERNALREACTOR
  2
AmdtInternalReactor
  3
AcMeServices
 90
     1024
 91
        1
280
     0
281
     0
  0
CLASS
  1
ACMESTATEMGR
  2
AcMeStateMgr
  3
AcMeServices
 90
     1024
 91
        1
280
     0
281
     0
  0
CLASS
  1
ACGREFMASTER
  2
AcGrefMaster
  3
AcAttribServices
 90
     1024
 91
        1
280
     0
281
     0
  0
CLASS
  1
ACME_DATABASE
  2
AcMeDbDatabase
  3
AcMeServices
 90
     1024
 91
        1
280
     0
281
     0
  0
CLASS
  1
ACRFINSADJUSTERMGR
  2
AcRfInsAdjusterMgr
  3
AcMeServices
 90
     1024
 91
        1
280
     0
281
     0
  0
CLASS
  1
ACGREFACADMASTER
  2
AcGrefacadMaster
  3
AcGrefServices
 90
     1024
 91
        1
280
     0
281
     0
  0
CLASS
  1
AMIMASTER
  2
AmiMaster
  3
AmiServices
 90
     1024
 91
        1
280
     0
281
     0
  0
CLASS
  1
ACMDATADICTIONARY
  2
AcmDataDictionary
  3
"AcmSymBB|Product Description: AutoCAD Mechanical|Company: Autodesk, Inc."
 90
     1024
 91
        1
280
     0
281
     0
  0
CLASS
  1
ACMDATAENTRYBLOCK
  2
AcmDataEntryBlock
  3
AcmSymBB|Product Description: AutoCAD Mechanical|Company: Autodesk, Inc.
 90
     1024
 91
        0
280
     0
281
     0
  0
CLASS
  1
ACIMSTRSYSVAR
  2
AcImStrSysVar
  3
AcMeServices
 90
     1024
 91
        5
280
     0
281
     0
  0
CLASS
  1
ACMSTANDARDISO
  2
AcmStandardISO
  3
"Amdt_StdImp|Product Description: AutoCAD Mechanical|Company: Autodesk, Inc."
 90
     1024
 91
        1
280
     0
281
     0
  0
CLASS
  1
AMGOBJPROPCFG
  2
AmgObjPropCfg
  3
"AmgLay|Product Description: AutoCAD Mechanical|Company: Autodesk, Inc."
 90
     1025
 91
        1
280
     0
281
     0
  0
CLASS
  1
AMDTEDGESTANDARDISO
  2
AmdtEdgeStdISO
  3
"Amdt_StdImp|Product Description: AutoCAD Mechanical|Company: Autodesk, Inc."
 90
     1024
 91
        1
280
     0
281
     0
  0
CLASS
  1
ACMSURFSTANDARDISO
  2
AcmSurfTextStdISO
  3
"Amdt_StdImp|Product Description: AutoCAD Mechanical|Company: Autodesk, Inc."
 90
     1024
 91
        1
280
     0
281
     0
  0
CLASS
  1
ACMFCFSTANDARDISO
  2
AcmFCFStdISO
  3
"Amdt_StdImp|Product Description: AutoCAD Mechanical|Company: Autodesk, Inc."
 90
     1024
 91
        1
280
     0
281
     0
  0
CLASS
  1
ACMWELDSTANDARDISO
  2
AcmWeldingStdISO
  3
"Amdt_StdImp|Product Description: AutoCAD Mechanical|Company: Autodesk, Inc."
 90
     1024
 91
        1
280
     0
281
     0
  0
CLASS
  1
ACMIDSTANDARDISO
  2
AcmIdStdISO
  3
"Amdt_StdImp|Product Description: AutoCAD Mechanical|Company: Autodesk, Inc."
 90
     1024
 91
        1
280
     0
281
     0
  0
CLASS
  1
ACMDATUMSTANDARDISO
  2
AcmDatumStdISO
  3
"Amdt_StdImp|Product Description: AutoCAD Mechanical|Company: Autodesk, Inc."
 90
     1024
 91
        1
280
     0
281
     0
  0
CLASS
  1
ACMBOMSTANDARDISO
  2
AcmBOMStdISO
  3
"Amdt_StdImp|Product Description: AutoCAD Mechanical|Company: Autodesk, Inc."
 90
     1024
 91
        1
280
     0
281
     0
  0
CLASS
  1
ACMDETAILSTANDARDISO
  2
AmdtDetailSymStdISO
  3
"Amdt_StdImp|Product Description: AutoCAD Mechanical|Company: Autodesk, Inc."
 90
     1024
 91
        1
280
     0
281
     0
  0
CLASS
  1
ACMSECTIONSTANDARDISO
  2
AmdtSectionSymStdISO
  3
"Amdt_StdImp|Product Description: AutoCAD Mechanical|Company: Autodesk, Inc."
 90
     1024
 91
        1
280
     0
281
     0
  0
CLASS
  1
ACMCENTERLINESTANDARDISO
  2
AmdtCenterLineStdISO
  3
"Amdt_StdImp|Product Description: AutoCAD Mechanical|Company: Autodesk, Inc."
 90
     1024
 91
        1
280
     0
281
     0
  0
CLASS
  1
ACMNOTESTANDARDISO
  2
AmdtNoteStdISO
  3
"Amdt_StdImp|Product Description: AutoCAD Mechanical|Company: Autodesk, Inc."
 90
     1024
 91
        1
280
     0
281
     0
  0
CLASS
  1
ACAMGLAYSTD
  2
AcAmgLayStd
  3
"AmgLay|Product Description: AutoCAD Mechanical|Company: Autodesk, Inc."
 90
     1024
 91
        3
280
     0
281
     0
  0
CLASS
  1
ACAMGDIMSTD
  2
AcAmgDimStd
  3
"AmgDim|Product Description: AutoCAD Mechanical|Company: Autodesk, Inc."
 90
     1024
 91
        3
280
     0
281
     0
  0
CLASS
  1
ACAMGHOLECHARTSTDISO
  2
AcAmgHoleChartStdISO
  3
AmgDim|Product Description: AutoCAD Mechanical|Company: Autodesk, Inc.
 90
     1024
 91
        1
280
     0
281
     0
  0
CLASS
  1
ACAMGTITLESTD
  2
AcAmgTitleStd
  3
"AmgTitle|Product Description: AutoCAD Mechanical|Company: Autodesk, Inc."
 90
     4095
 91
        3
280
     0
281
     0
  0
CLASS
  1
LAYER_INDEX
  2
AcDbLayerIndex
  3
ObjectDBX Classes
 90
        0
 91
        0
280
     0
281
     0
  0
CLASS
  1
IDBUFFER
  2
AcDbIdBuffer
  3
ObjectDBX Classes
 90
        0
 91
        0
280
     0
281
     0
  0
CLASS
  1
DICTIONARYVAR
  2
AcDbDictionaryVar
  3
ObjectDBX Classes
 90
        0
 91
       10
280
     0
281
     0
  0
CLASS
  1
AM_DRAWING_MGR
  2
AcDmDwgMgr
  3
AcMechDwgViewMgmt
 90
     1024
 91
        1
280
     0
281
     0
  0
CLASS
  1
AM_DWG_DOCUMENT
  2
AcDmDwgDocument
  3
AcMechDwgViewMgmt
 90
     1024
 91
        1
280
     0
281
     0
  0
CLASS
  1
AM_DWG_SHEET
  2
AcDmSheet
  3
AcMechDwgViewMgmt
 90
     1024
 91
        2
280
     0
281
     0
  0
CLASS
  1
AM_VIEWDIMPARMAP
  2
AcDmViewDimParMap
  3
AcMechDwgViewMgmt
 90
     1024
 91
        2
280
     0
281
     0
  0
CLASS
  1
AM_DWGMGR_NAME
  2
AcDmDwgMgrName
  3
AcMechDwgViewMgmt
 90
     1024
 91
        1
280
     0
281
     0
  0
CLASS
  1
AMDTMENUSTATEMGR
  2
AmdtMenuStateMgr
  3
McadcomServices
 90
     1024
 91
        1
280
     0
281
     0
  0
CLASS
  1
AMDTMCOMMENUSTATE
  2
AmdtMcomMenuState
  3
McadcomServices
 90
     1024
 91
        1
280
     0
281
     0
  0
CLASS
  1
MAPIAMMOUDLE
  2
MApiAmModule
  3
MApiAmServices
 90
     1024
 91
        1
280
     0
281
     0
  0
CLASS
  1
AMDTADMENUSTATE
  2
AmdtAdMenuState
  3
DesignerServices
 90
     1024
 91
        1
280
     0
281
     0
  0
CLASS
  1
ADAPPL
  2
AcAdAppl
  3
DesignerServices
 90
     1024
 91
        1
280
     0
281
     0
  0
CLASS
  1
DEPMGR
  2
AcAdDepMgr
  3
DesignerServices
 90
     1024
 91
        1
280
     0
281
     0
  0
CLASS
  1
PARAMMGR
  2
AcAdParamMgr
  3
DesignerServices
 90
     1024
 91
        1
280
     0
281
     0
  0
CLASS
  1
PARAMSCOPE
  2
AcAdParamScope
  3
DesignerServices
 90
     1024
 91
        1
280
     0
281
     0
  0
CLASS
  1
NAMEDAPPL
  2
AcAdNamedAppl
  3
DesignerServices
 90
     1024
 91
        1
280
     0
281
     0
  0
CLASS
  1
AMDTDMMENUSTATE
  2
AmdtDmMenuState
  3
AcMechDwgViewMgmt
 90
     1024
 91
        1
280
     0
281
     0
  0
CLASS
  1
AMDTAMMENUSTATE
  2
AmdtAmMenuState
  3
DesignerAssemblies
 90
     1024
 91
        1
280
     0
281
     0
  0
CLASS
  1
ACAMPROJECT
  2
AcAmProject
  3
DesignerAssemblies
 90
     1024
 91
        1
280
     0
281
     0
  0
CLASS
  1
ACAMGRCOMPDEF
  2
AcAmGrCompDef
  3
DesignerAssemblies
 90
     1024
 91
        1
280
     0
281
     0
  0
CLASS
  1
ACCMCONTEXT
  2
AcCmContext
  3
DesignerAssemblies
 90
     1024
 91
        1
280
     0
281
     0
  0
CLASS
  1
ACAMCOMPDEF
  2
AcAmCompDef
  3
DesignerAssemblies
 90
     1024
 91
        1
280
     0
281
     0
  0
CLASS
  1
ACAMCOMPDEFMGR
  2
AcAmCompDefMgr
  3
DesignerAssemblies
 90
     1024
 91
        1
280
     0
281
     0
  0
CLASS
  1
AMCONTEXTMGR
  2
AcAmContextMgr
  3
DesignerAssemblies
 90
     1024
 91
        1
280
     0
281
     0
  0
CLASS
  1
ACAMCONTEXTMODELER
  2
AcAmContextModeler
  3
DesignerAssemblies
 90
     1024
 91
        1
280
     0
281
     0
  0
CLASS
  1
ACMTHREADLINESTANDARDISO
  2
AmdtThreadLineStdISO
  3
"Amdt_StdImp|Product Description: AutoCAD Mechanical|Company: Autodesk, Inc."
 90
     1024
 91
        1
280
     0
281
     0
  0
CLASS
  1
CATALOGSTATE
  2
AcAmCatalogState
  3
DesignerAssemblies
 90
     1024
 91
        1
280
     0
281
     0
  0
CLASS
  1
ACAMGRCOMPDEFSET
  2
AcAmGrCompDefSet
  3
DesignerAssemblies
 90
     1024
 91
        1
280
     0
281
     0
  0
CLASS
  1
AMDTBROWSERDBTAB
  2
AmdtBrowserDbTab
  3
McadcomServices
 90
     1024
 91
        1
280
     0
281
     0
  0
CLASS
  1
CBROWSERAPPOBJECT
  2
CBrowserAppObject
  3
McadcomServices
 90
     1024
 91
        2
280
     0
281
     0
  0
CLASS
  1
DM_PLACEHOLDER
  2
AcDmSelsetPlaceholder
  3
AcMechDwgViewMgmt
 90
     1024
 91
        1
280
     0
281
     0
  0
CLASS
  1
TABLESTYLE
  2
AcDbTableStyle
  3
ObjectDBX Classes
 90
     4095
 91
        1
280
     0
281
     0
  0
CLASS
  1
VAACXREFPANELOBJECT
  2
VaAcXREFPanelObject
  3
VAAC_ADDIN
 90
        0
 91
        0
280
     0
281
     0
  0
CLASS
  1
VAACIMAGEINVENTORY
  2
VaAcImageInventory
  3
VAAC_ADDIN
 90
        0
 91
        0
280
     0
281
     0
  0
CLASS
  1
AMDTNOTETEMPLATEDB
  2
AmdtNoteTemplateDB
  3
AcmSymBB|Product Description: AutoCAD Mechanical|Company: Autodesk, Inc.
 90
     1024
 91
       18
280
     0
281
     0
  0
CLASS
  1
ACAMGFILTERDAT
  2
AcAmgFilterDat
  3
"AcadM|Product Description: AutoCAD Mechanical|Company: Autodesk, Inc."
 90
     1024
 91
        0
280
     0
281
     0
  0
CLASS
  1
ACMBOM
  2
AcmBom
  3
"AcmSymBB|Product Description: AutoCAD Mechanical|Company: Autodesk, Inc."
 90
     1024
 91
        0
280
     0
281
     0
  0
CLASS
  1
AMDTFORMULAUPDATEDISPATCHER
  2
AmdtFormulaUpdateDispatcher
  3
AcMeServices
 90
     1024
 91
        0
280
     0
281
     0
  0
CLASS
  1
ACMSTANDARDDIN
  2
AcmStandardDIN
  3
"Amdt_StdImp|Product Description: AutoCAD Mechanical|Company: Autodesk, Inc."
 90
     1024
 91
        1
280
     0
281
     0
  0
CLASS
  1
AMDTEDGESTANDARDDIN13715
  2
AmdtEdgeStdDIN13715
  3
"Amdt_StdImp|Product Description: AutoCAD Mechanical|Company: Autodesk, Inc."
 90
     1024
 91
        1
280
     0
281
     0
  0
CLASS
  1
ACMSURFSTANDARDDIN
  2
AcmSurfTextStdDIN
  3
"Amdt_StdImp|Product Description: AutoCAD Mechanical|Company: Autodesk, Inc."
 90
     1024
 91
        0
280
     0
281
     0
  0
CLASS
  1
ACMFCFSTANDARDDIN
  2
AcmFCFStdDIN
  3
"Amdt_StdImp|Product Description: AutoCAD Mechanical|Company: Autodesk, Inc."
 90
     1024
 91
        1
280
     0
281
     0
  0
CLASS
  1
ACMWELDSTANDARDDIN
  2
AcmWeldingStdDIN
  3
"Amdt_StdImp|Product Description: AutoCAD Mechanical|Company: Autodesk, Inc."
 90
     1024
 91
        1
280
     0
281
     0
  0
CLASS
  1
ACMIDSTANDARDDIN
  2
AcmIdStdDIN
  3
"Amdt_StdImp|Product Description: AutoCAD Mechanical|Company: Autodesk, Inc."
 90
     1024
 91
        1
280
     0
281
     0
  0
CLASS
  1
ACMDATUMSTANDARDDIN
  2
AcmDatumStdDIN
  3
"Amdt_StdImp|Product Description: AutoCAD Mechanical|Company: Autodesk, Inc."
 90
     1024
 91
        1
280
     0
281
     0
  0
CLASS
  1
ACMBOMSTANDARDDIN
  2
AcmBOMStdDIN
  3
"Amdt_StdImp|Product Description: AutoCAD Mechanical|Company: Autodesk, Inc."
 90
     1024
 91
        1
280
     0
281
     0
  0
CLASS
  1
ACMDETAILSTANDARDDIN
  2
AmdtDetailSymStdDIN
  3
"Amdt_StdImp|Product Description: AutoCAD Mechanical|Company: Autodesk, Inc."
 90
     1024
 91
        1
280
     0
281
     0
  0
CLASS
  1
ACMSECTIONSTANDARDDIN
  2
AmdtSectionSymStdDIN
  3
"Amdt_StdImp|Product Description: AutoCAD Mechanical|Company: Autodesk, Inc."
 90
     1024
 91
        1
280
     0
281
     0
  0
CLASS
  1
ACMCENTERLINESTANDARDDIN
  2
AmdtCenterLineStdDIN
  3
"Amdt_StdImp|Product Description: AutoCAD Mechanical|Company: Autodesk, Inc."
 90
     1024
 91
        1
280
     0
281
     0
  0
CLASS
  1
ACMTHREADLINESTANDARDDIN
  2
AmdtThreadLineStdDIN
  3
"Amdt_StdImp|Product Description: AutoCAD Mechanical|Company: Autodesk, Inc."
 90
     1024
 91
        1
280
     0
281
     0
  0
CLASS
  1
ACMNOTESTANDARDDIN
  2
AmdtNoteStdDIN
  3
"Amdt_StdImp|Product Description: AutoCAD Mechanical|Company: Autodesk, Inc."
 90
     1024
 91
        1
280
     0
281
     0
  0
CLASS
  1
ACAMGHOLECHARTSTDDIN
  2
AcAmgHoleChartStdDIN
  3
AmgDim|Product Description: AutoCAD Mechanical|Company: Autodesk, Inc.
 90
     1024
 91
        1
280
     0
281
     0
  0
CLASS
  1
MATERIAL
  2
AcDbMaterial
  3
ObjectDBX Classes
 90
     1153
 91
        3
280
     0
281
     0
  0
CLASS
  1
VISUALSTYLE
  2
AcDbVisualStyle
  3
ObjectDBX Classes
 90
     4095
 91
       19
280
     0
281
     0
  0
CLASS
  1
SCALE
  2
AcDbScale
  3
ObjectDBX Classes
 90
     1153
 91
       17
280
     0
281
     0
  0
CLASS
  1
MLEADERSTYLE
  2
AcDbMLeaderStyle
  3
ACDB_MLEADERSTYLE_CLASS
 90
     4095
 91
        1
280
     0
281
     0
  0
CLASS
  1
ACRFATTGENMGR
  2
AcRfAttGeneralMgr
  3
AcAttribServices
 90
     1024
 91
        0
280
     0
281
     0
  0
CLASS
  1
ACRFOBJATTMGR
  2
AcRfObjAttGroupMgr
  3
AcAttribServices
 90
     1024
 91
        0
280
     0
281
     0
  0
CLASS
  1
ACRFMCADAPIATTHOLDER
  2
AcRfMCADAPIAttHolder
  3
AcAttribServices
 90
     1024
 91
        0
280
     0
281
     0
  0
CLASS
  1
AMDTSYSATTR
  2
AmdtSystemAttribute
  3
AcAttribServices
 90
     1024
 91
        0
280
     0
281
     0
  0
CLASS
  1
ACMTAPERSTANDARDISO
  2
AcmTaperStdISO
  3
"Amdt_StdImp|Product Description: AutoCAD Mechanical|Company: Autodesk, Inc."
 90
     1024
 91
        1
280
     0
281
     0
  0
CLASS
  1
ACMANOOTATIONVIEWSTANDARDISO
  2
AmdtAnViewStdISO
  3
"Amdt_StdImp|Product Description: AutoCAD Mechanical|Company: Autodesk, Inc."
 90
     1024
 91
        1
280
     0
281
     0
  0
CLASS
  1
ACMTAPERSTANDARDDIN
  2
AcmTaperStdDIN
  3
"Amdt_StdImp|Product Description: AutoCAD Mechanical|Company: Autodesk, Inc."
 90
     1024
 91
        1
280
     0
281
     0
  0
CLASS
  1
ACMANOOTATIONVIEWSTANDARDDIN
  2
AmdtAnViewStdDIN
  3
"Amdt_StdImp|Product Description: AutoCAD Mechanical|Company: Autodesk, Inc."
 90
     1024
 91
        1
280
     0
281
     0
  0
CLASS
  1
EXACXREFPANELOBJECT
  2
ExAcXREFPanelObject
  3
EXAC_ESW
 90
     1025
 91
        1
280
     0
281
     0
  0
CLASS
  1
NPOCOLLECTION
  2
AcDbImpNonPersistentObjectsCollection
  3
ObjectDBX Classes
 90
     1153
 91
        1
280
     0
281
     0
  0
CLASS
  1
CAMSSTRUCTBTNSTATE
  2
StructBtnState
  3
DesignerAssemblies
 90
     1024
 91
        1
280
     0
281
     0
  0
CLASS
  1
CELLSTYLEMAP
  2
AcDbCellStyleMap
  3
ObjectDBX Classes
 90
     1152
 91
        2
280
     0
281
     0
  0
CLASS
  1
AEC_REFEDIT_STATUS_TRACKER
  2
AecDbRefEditStatusTracker
  3
AecArchBase50|Product Desc: Autodesk Architectural Desktop 2007 |Company: Autodesk,Inc. |WEB Address: www.autodesk.com
 90
      129
 91
        0
280
     0
281
     0
  0
CLASS
  1
IMAGE
  2
AcDbRasterImage
  3
ISM
 90
     2175
 91
        1
280
     0
281
     1
  0
CLASS
  1
IMAGEDEF_REACTOR
  2
AcDbRasterImageDefReactor
  3
ISM
 90
        1
 91
        1
280
     0
281
     0
  0
CLASS
  1
IMAGEDEF
  2
AcDbRasterImageDef
  3
ISM
 90
        0
 91
        1
280
     0
281
     0
  0
CLASS
  1
RASTERVARIABLES
  2
AcDbRasterVariables
  3
ISM
 90
        0
 91
        1
280
     0
281
     0
  0
CLASS
  1
DIMASSOC
  2
AcDbDimAssoc
  3
"AcDbDimAssoc|Product Desc:     AcDim ARX App For Dimension|Company:          Autodesk, Inc.|WEB Address:      www.autodesk.com"
 90
        0
 91
        3
280
     0
281
     0
  0
CLASS
  1
ACMSURFSTANDARDDIN2002
  2
AcmSurfTextStdDIN2002
  3
"Amdt_StdImp|Product Description: AutoCAD Mechanical|Company: Autodesk, Inc."
 90
     1024
 91
        1
280
     0
281
     0
  0
CLASS
  1
AMDTSECTIONSYMLABEL
  2
AmdtSectionSymLabel
  3
"AcmSymBB|Product Description: AutoCAD Mechanical|Company: Autodesk, Inc."
 90
     4095
 91
        0
280
     0
281
     1
  0
CLASS
  1
AMDTSECTIONSYM
  2
AmdtSectionSym
  3
"AcmSymBB|Product Description: AutoCAD Mechanical|Company: Autodesk, Inc."
 90
     4095
 91
        0
280
     0
281
     1
  0
CLASS
  1
AMDTDETAILSYM
  2
AmdtDetailSym
  3
"AcmSymBB|Product Description: AutoCAD Mechanical|Company: Autodesk, Inc."
 90
     4095
 91
        0
280
     0
281
     1
  0
CLASS
  1
AMDTDETAILSYMLABEL
  2
AmdtDetailSymLabel
  3
"AcmSymBB|Product Description: AutoCAD Mechanical|Company: Autodesk, Inc."
 90
     4095
 91
        0
280
     0
281
     1
  0
CLASS
  1
SORTENTSTABLE
  2
AcDbSortentsTable
  3
ObjectDBX Classes
 90
        0
 91
        0
280
     0
281
     0
  0
CLASS
  1
ACMSTANDARDANSI
  2
AcmStandardANSI
  3
"Amdt_StdImp|Product Description: AutoCAD Mechanical|Company: Autodesk, Inc."
 90
     1024
 91
        1
280
     0
281
     0
  0
CLASS
  1
ACMSURFSTANDARDANSI
  2
AcmSurfTextStdANSI
  3
"Amdt_StdImp|Product Description: AutoCAD Mechanical|Company: Autodesk, Inc."
 90
     1024
 91
        1
280
     0
281
     0
  0
CLASS
  1
ACMFCFSTANDARDANSI
  2
AcmFCFStdANSI
  3
"Amdt_StdImp|Product Description: AutoCAD Mechanical|Company: Autodesk, Inc."
 90
     1024
 91
        1
280
     0
281
     0
  0
CLASS
  1
ACMWELDSTANDARDANSI
  2
AcmWeldingStdANSI
  3
"Amdt_StdImp|Product Description: AutoCAD Mechanical|Company: Autodesk, Inc."
 90
     1024
 91
        1
280
     0
281
     0
  0
CLASS
  1
ACMIDSTANDARDANSI
  2
AcmIdStdANSI
  3
"Amdt_StdImp|Product Description: AutoCAD Mechanical|Company: Autodesk, Inc."
 90
     1024
 91
        1
280
     0
281
     0
  0
CLASS
  1
ACMDATUMSTANDARDANSI
  2
AcmDatumStdANSI
  3
"Amdt_StdImp|Product Description: AutoCAD Mechanical|Company: Autodesk, Inc."
 90
     1024
 91
        1
280
     0
281
     0
  0
CLASS
  1
ACMBOMSTANDARDANSI
  2
AcmBOMStdANSI
  3
"Amdt_StdImp|Product Description: AutoCAD Mechanical|Company: Autodesk, Inc."
 90
     1024
 91
        1
280
     0
281
     0
  0
CLASS
  1
ACMDETAILSTANDARDANSI
  2
AmdtDetailSymStdANSI
  3
"Amdt_StdImp|Product Description: AutoCAD Mechanical|Company: Autodesk, Inc."
 90
     1024
 91
        1
280
     0
281
     0
  0
CLASS
  1
ACMSECTIONSTANDARDANSI
  2
AmdtSectionSymStdANSI
  3
"Amdt_StdImp|Product Description: AutoCAD Mechanical|Company: Autodesk, Inc."
 90
     1024
 91
        1
280
     0
281
     0
  0
CLASS
  1
ACMCENTERLINESTANDARDANSI
  2
AmdtCenterLineStdANSI
  3
"Amdt_StdImp|Product Description: AutoCAD Mechanical|Company: Autodesk, Inc."
 90
     1024
 91
        1
280
     0
281
     0
  0
CLASS
  1
ACMTHREADLINESTANDARDANSI
  2
AmdtThreadLineStdANSI
  3
"Amdt_StdImp|Product Description: AutoCAD Mechanical|Company: Autodesk, Inc."
 90
     1024
 91
        1
280
     0
281
     0
  0
CLASS
  1
ACMNOTESTANDARDANSI
  2
AmdtNoteStdANSI
  3
"Amdt_StdImp|Product Description: AutoCAD Mechanical|Company: Autodesk, Inc."
 90
     1024
 91
        1
280
     0
281
     0
  0
CLASS
  1
ACMTAPERSTANDARDANSI
  2
AcmTaperStdANSI
  3
"Amdt_StdImp|Product Description: AutoCAD Mechanical|Company: Autodesk, Inc."
 90
     1024
 91
        1
280
     0
281
     0
  0
CLASS
  1
ACMANOOTATIONVIEWSTANDARDANSI
  2
AmdtAnViewStdANSI
  3
"Amdt_StdImp|Product Description: AutoCAD Mechanical|Company: Autodesk, Inc."
 90
     1024
 91
        1
280
     0
281
     0
  0
CLASS
  1
ACAMGHOLECHARTSTDANSI
  2
AcAmgHoleChartStdANSI
  3
AmgDim|Product Description: AutoCAD Mechanical|Company: Autodesk, Inc.
 90
     1024
 91
        1
280
     0
281
     0
  0
ENDSEC
  0
SECTION
  2
TABLES
  0
TABLE
  2
VPORT
  5
8
330
0
100
AcDbSymbolTable
 70
     1
  0
VPORT
  5
3B2
330
8
100
AcDbSymbolTableRecord
100
AcDbViewportTableRecord
  2
*Active
 70
     0
 10
0.0
 20
0.0
 11
1.0
 21
1.0
 12
873.7491676623189
 22
268.1815825065519
 13
0.0
 23
0.0
 14
2.5
 24
2.5
 15
10.0
 25
10.0
 16
0.0
 26
0.0
 36
1.0
 17
0.0
 27
0.0
 37
0.0
 40
400.3136807589807
 41
1.850235849056603
 42
50.0
 43
0.0
 44
0.0
 50
0.0
 51
0.0
 71
     0
 72
   100
 73
     1
 74
     3
 75
     0
 76
     0
 77
     0
 78
     0
281
     0
 65
     0
110
0.0
120
0.0
130
0.0
111
1.0
121
0.0
131
0.0
112
0.0
122
1.0
132
0.0
 79
     0
146
0.0
348
3D2
 60
     3
 61
     5
292
     1
282
     1
141
0.0
142
0.0
 63
   250
421
  3355443
  0
ENDTAB
  0
TABLE
  2
LTYPE
  5
5
330
0
100
AcDbSymbolTable
 70
    35
  0
LTYPE
  5
14
330
5
100
AcDbSymbolTableRecord
100
AcDbLinetypeTableRecord
  2
ByBlock
 70
     0
  3

 72
    65
 73
     0
 40
0.0
  0
LTYPE
  5
15
330
5
100
AcDbSymbolTableRecord
100
AcDbLinetypeTableRecord
  2
ByLayer
 70
     0
  3

 72
    65
 73
     0
 40
0.0
  0
LTYPE
  5
16
330
5
100
AcDbSymbolTableRecord
100
AcDbLinetypeTableRecord
  2
Continuous
 70
     0
  3
Solid line
 72
    65
 73
     0
 40
0.0
  0
LTYPE
  5
64
330
5
100
AcDbSymbolTableRecord
100
AcDbLinetypeTableRecord
  2
AM_ISO02W050
 70
     0
  3
__ __ __ __ __ __ __ __ __ __ __ __ __ __ __
 72
    65
 73
     2
 40
7.5
 49
6.0
 74
     0
 49
-1.5
 74
     0
  0
LTYPE
  5
65
330
5
100
AcDbSymbolTableRecord
100
AcDbLinetypeTableRecord
  2
AM_ISO08W050
 70
     0
  3
____ . ____ . ____ . ____ . ____ . ____ . ____
 72
    65
 73
     4
 40
18.0
 49
12.0
 74
     0
 49
-1.5
 74
     0
 49
3.0
 74
     0
 49
-1.5
 74
     0
  0
LTYPE
  5
66
330
5
100
AcDbSymbolTableRecord
100
AcDbLinetypeTableRecord
  2
AM_ISO09W050
 70
     0
  3
_____ . . _____ . . _____ . . ____ .. ____
 72
    65
 73
     6
 40
22.5
 49
12.0
 74
     0
 49
-1.5
 74
     0
 49
3.0
 74
     0
 49
-1.5
 74
     0
 49
3.0
 74
     0
 49
-1.5
 74
     0
  0
LTYPE
  5
67
330
5
100
AcDbSymbolTableRecord
100
AcDbLinetypeTableRecord
  2
Amconstr
 70
     0
  3
_______________________
 72
    65
 73
     2
 40
9999.0
 49
9999.0
 74
     0
 49
0.0
 74
     0
  0
LTYPE
  5
68
330
5
100
AcDbSymbolTableRecord
100
AcDbLinetypeTableRecord
  2
AM_ISO08W050x2
 70
     0
  3
__ . __ . __ . __ . __ . __
 72
    65
 73
     4
 40
9.0
 49
6.0
 74
     0
 49
-0.75
 74
     0
 49
1.5
 74
     0
 49
-0.75
 74
     0
  0
LTYPE
  5
69
330
5
100
AcDbSymbolTableRecord
100
AcDbLinetypeTableRecord
  2
AM_ISO02W050x2
 70
     0
  3
 _ _ _ _ _ _ _ _ _ _ _ _
 72
    65
 73
     2
 40
3.75
 49
3.0
 74
     0
 49
-0.75
 74
     0
  0
LTYPE
  5
6C
330
5
100
AcDbSymbolTableRecord
100
AcDbLinetypeTableRecord
  2
Amzigzag
 70
     0
  3
/\/-/\/-/\/-/\/-/\/-/\/
 72
    65
 73
     2
 40
11.0001
 49
0.0001
 74
     4
 75
   136
340
22C
 46
0.04
 50
0.0
 44
0.0
 45
0.0
 49
-11.0
 74
     0
  0
LTYPE
  5
7A
330
5
100
AcDbSymbolTableRecord
100
AcDbLinetypeTableRecord
  2
ACISOWELD
 70
     0
  3
_ _ _ _ _
 72
    65
 73
     2
 40
2.0
 49
2.0
 74
     0
 49
-1.0
 74
     0
  0
LTYPE
  5
7B
330
5
100
AcDbSymbolTableRecord
100
AcDbLinetypeTableRecord
  2
ACISOTGB
 70
     0
  3
__ . . __ . .
 72
    65
 73
     6
 40
9.0
 49
4.0
 74
     0
 49
-1.0
 74
     0
 49
1.0
 74
     0
 49
-1.0
 74
     0
 49
1.0
 74
     0
 49
-1.0
 74
     0
  0
LTYPE
  5
7C
330
5
100
AcDbSymbolTableRecord
100
AcDbLinetypeTableRecord
  2
ACISOTGL
 70
     0
  3
_ _ _ _ _
 72
    65
 73
     2
 40
3.0
 49
2.0
 74
     0
 49
-1.0
 74
     0
  0
LTYPE
  5
7E
330
5
100
AcDbSymbolTableRecord
100
AcDbLinetypeTableRecord
  2
CENTER
 70
     0
  3
__ . __
 72
    65
 73
     4
 40
7.0
 49
4.0
 74
     0
 49
-1.0
 74
     0
 49
1.0
 74
     0
 49
-1.0
 74
     0
  0
LTYPE
  5
D8
330
5
100
AcDbSymbolTableRecord
100
AcDbLinetypeTableRecord
  2
HIDDEN
 70
     0
  3
Hidden __ __ __ __ __ __ __ __ __ __ __ __ __ _
 72
    65
 73
     2
 40
9.524999999999996
 49
6.349999999999998
 74
     0
 49
-3.174999999999998
 74
     0
  0
LTYPE
  5
D9
330
5
100
AcDbSymbolTableRecord
100
AcDbLinetypeTableRecord
  2
PHANTOM2
 70
     0
  3
Phantom (.5x) ___ _ _ ___ _ _ ___ _ _ ___ _ _
 72
    65
 73
     6
 40
31.75
 49
15.875
 74
     0
 49
-3.174999999999998
 74
     0
 49
3.174999999999998
 74
     0
 49
-3.174999999999998
 74
     0
 49
3.174999999999998
 74
     0
 49
-3.174999999999998
 74
     0
  0
LTYPE
  5
2E5
330
5
100
AcDbSymbolTableRecord
100
AcDbLinetypeTableRecord
  2
ACDINWELD
 70
     0
  3
_ _ _ _ _
 72
    65
 73
     2
 40
2.0
 49
2.0
 74
     0
 49
-1.0
 74
     0
  0
LTYPE
  5
2E6
330
5
100
AcDbSymbolTableRecord
100
AcDbLinetypeTableRecord
  2
ACDINTGB
 70
     0
  3
__ . . __ . .
 72
    65
 73
     6
 40
9.0
 49
4.0
 74
     0
 49
-1.0
 74
     0
 49
1.0
 74
     0
 49
-1.0
 74
     0
 49
1.0
 74
     0
 49
-1.0
 74
     0
  0
LTYPE
  5
2E7
330
5
100
AcDbSymbolTableRecord
100
AcDbLinetypeTableRecord
  2
ACDINTGL
 70
     0
  3
_ _ _ _ _
 72
    65
 73
     2
 40
3.0
 49
2.0
 74
     0
 49
-1.0
 74
     0
  0
LTYPE
  5
321
330
5
100
AcDbSymbolTableRecord
100
AcDbLinetypeTableRecord
  2
AM_DIN_F_W050
 70
     0
  3
__ __ __ __ __ __ __ __ __ __ __ __ __ __ __
 72
    65
 73
     2
 40
6.25
 49
4.75
 74
     0
 49
-1.5
 74
     0
  0
LTYPE
  5
322
330
5
100
AcDbSymbolTableRecord
100
AcDbLinetypeTableRecord
  2
AM_DIN_G_W050
 70
     0
  3
____ . ____ . ____ . ____ . ____ . ____ . ____
 72
    65
 73
     4
 40
13.75
 49
9.75
 74
     0
 49
-1.5
 74
     0
 49
1.0
 74
     0
 49
-1.5
 74
     0
  0
LTYPE
  5
323
330
5
100
AcDbSymbolTableRecord
100
AcDbLinetypeTableRecord
  2
AM_DIN_K_W050
 70
     0
  3
_____ . . _____ . . _____ . . ____ .. ____
 72
    65
 73
     6
 40
16.25
 49
9.75
 74
     0
 49
-1.5
 74
     0
 49
1.0
 74
     0
 49
-1.5
 74
     0
 49
1.0
 74
     0
 49
-1.5
 74
     0
  0
LTYPE
  5
324
330
5
100
AcDbSymbolTableRecord
100
AcDbLinetypeTableRecord
  2
AM_DIN_G_W050x2
 70
     0
  3
__ . __ . __ . __ . __ . __
 72
    65
 73
     4
 40
6.875
 49
4.75
 74
     0
 49
-0.875
 74
     0
 49
0.375
 74
     0
 49
-0.875
 74
     0
  0
LTYPE
  5
325
330
5
100
AcDbSymbolTableRecord
100
AcDbLinetypeTableRecord
  2
AM_DIN_F_W050x2
 70
     0
  3
 _ _ _ _ _ _ _ _ _ _ _ _
 72
    65
 73
     2
 40
3.125
 49
2.25
 74
     0
 49
-0.875
 74
     0
  0
LTYPE
  5
B9D
330
5
100
AcDbSymbolTableRecord
100
AcDbLinetypeTableRecord
  2
GEN7
 70
     0
  3
____ _ ____ _ ____ _ ____ _ ____ _ ____ _ ____ _ ____ _ ____ _
 72
    65
 73
     4
 40
22.0
 49
10.75
 74
     0
 49
-3.75
 74
     0
 49
3.75
 74
     0
 49
-3.75
 74
     0
  0
LTYPE
  5
B9E
330
5
100
AcDbSymbolTableRecord
100
AcDbLinetypeTableRecord
  2
GEN7A
 70
     0
  3
__ . __ . __
 72
    65
 73
     4
 40
6.875
 49
4.75
 74
     0
 49
-0.875
 74
     0
 49
0.375
 74
     0
 49
-0.875
 74
     0
  0
LTYPE
  5
B9F
330
5
100
AcDbSymbolTableRecord
100
AcDbLinetypeTableRecord
  2
gen3
 70
     0
  3
-- -- -- -- -- -- -- -- -- -- -- -- -- -- --
 72
    65
 73
     2
 40
6.25
 49
4.75
 74
     0
 49
-1.5
 74
     0
  0
LTYPE
  5
BA0
330
5
100
AcDbSymbolTableRecord
100
AcDbLinetypeTableRecord
  2
gen3a
 70
     0
  3
 - - - - -
 72
    65
 73
     2
 40
3.125
 49
2.25
 74
     0
 49
-0.875
 74
     0
  0
LTYPE
  5
BA1
330
5
100
AcDbSymbolTableRecord
100
AcDbLinetypeTableRecord
  2
gen4a
 70
     0
  3
_____ . . _____ . . _____ . . ____ .. ____
 72
    65
 73
     6
 40
16.25
 49
9.75
 74
     0
 49
-1.5
 74
     0
 49
1.0
 74
     0
 49
-1.5
 74
     0
 49
1.0
 74
     0
 49
-1.5
 74
     0
  0
LTYPE
  5
BA2
330
5
100
AcDbSymbolTableRecord
100
AcDbLinetypeTableRecord
  2
genzigzag
 70
     0
  3
/\/-/\/-/\/-/\/-/\/-/\/
 72
    65
 73
     2
 40
12.0001
 49
0.0001
 74
     4
 75
   135
340
22C
 46
2.0
 50
0.0
 44
0.0
 45
0.0
 49
-12.0
 74
     0
  0
LTYPE
  5
BA3
330
5
100
AcDbSymbolTableRecord
100
AcDbLinetypeTableRecord
  2
AUSGEZOGEN
 70
     0
  3
Ausgezogene Linie
 72
    65
 73
     0
 40
0.0
  0
LTYPE
  5
BA4
330
5
100
AcDbSymbolTableRecord
100
AcDbLinetypeTableRecord
  2
STRICHPUNKT
 70
     0
  3
__ . __ . __ . __ . __ . __ . __ . __ . __ . __
 72
    65
 73
     4
 40
1.0
 49
0.5
 74
     0
 49
-0.25
 74
     0
 49
0.0
 74
     0
 49
-0.25
 74
     0
  0
LTYPE
  5
1374
330
5
100
AcDbSymbolTableRecord
100
AcDbLinetypeTableRecord
  2
CENTER2
 70
     0
  3
Center (.5x) ___ _ ___ _ ___ _ ___ _ ___ _ ___
 72
    65
 73
     4
 40
1.125
 49
0.75
 74
     0
 49
-0.125
 74
     0
 49
0.125
 74
     0
 49
-0.125
 74
     0
  0
LTYPE
  5
1375
330
5
100
AcDbSymbolTableRecord
100
AcDbLinetypeTableRecord
  2
HIDDEN2
 70
     0
  3
Hidden (.5x) _ _ _ _ _ _ _ _ _ _ _ _ _ _ _ _ _
 72
    65
 73
     2
 40
0.1875
 49
0.125
 74
     0
 49
-0.0625
 74
     0
  0
LTYPE
  5
1376
330
5
100
AcDbSymbolTableRecord
100
AcDbLinetypeTableRecord
  2
Amzigzag2
 70
     0
  3
/\/-/\/-/\/-/\/-/\/-/\/
 72
    65
 73
     2
 40
0.4401
 49
0.0001
 74
     4
 75
   136
340
22C
 46
0.0016
 50
0.0
 44
0.0
 45
0.0
 49
-0.4400000000000001
 74
     0
  0
LTYPE
  5
1377
330
5
100
AcDbSymbolTableRecord
100
AcDbLinetypeTableRecord
  2
ACANSTGB
 70
     0
  3
__ . . __ . .
 72
    65
 73
     6
 40
0.35433070866
 49
0.15748031496
 74
     0
 49
-0.03937007874
 74
     0
 49
0.03937007874
 74
     0
 49
-0.03937007874
 74
     0
 49
0.03937007874
 74
     0
 49
-0.03937007874
 74
     0
  0
LTYPE
  5
1378
330
5
100
AcDbSymbolTableRecord
100
AcDbLinetypeTableRecord
  2
ACANSTGL
 70
     0
  3
_ _ _ _ _
 72
    65
 73
     2
 40
0.11811023622
 49
0.07874015748
 74
     0
 49
-0.03937007874
 74
     0
  0
ENDTAB
  0
TABLE
  2
LAYER
  5
2
102
{ACAD_XDICTIONARY
360
BDE
102
}
330
0
100
AcDbSymbolTable
 70
    32
  0
LAYER
  5
10
102
{ACAD_XDICTIONARY
360
977
102
}
330
2
100
AcDbSymbolTableRecord
100
AcDbLayerTableRecord
  2
0
 70
     0
 62
     7
  6
Continuous
370
    -3
390
F
347
3C4
  0
LAYER
  5
62B
102
{ACAD_XDICTIONARY
360
979
102
}
330
2
100
AcDbSymbolTableRecord
100
AcDbLayerTableRecord
  2
TEIL_STARTBEZUEGE
 70
     0
 62
     7
  6
Continuous
370
    -3
390
F
347
3C4
  0
LAYER
  5
62C
102
{ACAD_XDICTIONARY
360
97B
102
}
330
2
100
AcDbSymbolTableRecord
100
AcDbLayerTableRecord
  2
ZEICHNUNGSBEMASSUNGEN
 70
     0
 62
     7
  6
Continuous
370
    -3
390
F
347
3C4
  0
LAYER
  5
6EF
330
2
100
AcDbSymbolTableRecord
100
AcDbLayerTableRecord
  2
Defpoints
 70
     0
 62
     7
  6
Continuous
290
     0
370
    -3
390
F
347
3C4
  0
LAYER
  5
BA5
102
{ACAD_XDICTIONARY
360
BA6
102
}
330
2
100
AcDbSymbolTableRecord
100
AcDbLayerTableRecord
  2
4
 70
     0
 62
     3
  6
Continuous
370
    -3
390
F
347
3C4
  0
LAYER
  5
BA7
102
{ACAD_XDICTIONARY
360
BA8
102
}
330
2
100
AcDbSymbolTableRecord
100
AcDbLayerTableRecord
  2
5
 70
     0
 62
     3
  6
Continuous
370
    -3
390
F
347
3C4
  0
LAYER
  5
BA9
102
{ACAD_XDICTIONARY
360
BAA
102
}
330
2
100
AcDbSymbolTableRecord
100
AcDbLayerTableRecord
  2
6
 70
     0
 62
     2
  6
Continuous
370
    -3
390
F
347
3C4
  0
LAYER
  5
BAB
102
{ACAD_XDICTIONARY
360
BAC
102
}
330
2
100
AcDbSymbolTableRecord
100
AcDbLayerTableRecord
  2
7
 70
     0
 62
     4
  6
GEN7
370
    -3
390
F
347
3C4
  0
LAYER
  5
BAD
102
{ACAD_XDICTIONARY
360
BAE
102
}
330
2
100
AcDbSymbolTableRecord
100
AcDbLayerTableRecord
  2
8
 70
     0
 62
     1
  6
Continuous
370
    -3
390
F
347
3C4
  0
LAYER
  5
BAF
102
{ACAD_XDICTIONARY
360
BB0
102
}
330
2
100
AcDbSymbolTableRecord
100
AcDbLayerTableRecord
  2
SCHRAFFUR_RAND
 70
     0
 62
     1
  6
Continuous
370
    -3
390
F
347
3C4
  0
LAYER
  5
BB1
102
{ACAD_XDICTIONARY
360
BB2
102
}
330
2
100
AcDbSymbolTableRecord
100
AcDbLayerTableRecord
  2
1
 70
     0
 62
     3
  6
Continuous
370
    -3
390
F
347
3C4
  0
LAYER
  5
BB3
102
{ACAD_XDICTIONARY
360
BB4
102
}
330
2
100
AcDbSymbolTableRecord
100
AcDbLayerTableRecord
  2
7A
 70
     0
 62
     4
  6
GEN7A
370
    -3
390
F
347
3C4
  0
LAYER
  5
BB5
102
{ACAD_XDICTIONARY
360
BB6
102
}
330
2
100
AcDbSymbolTableRecord
100
AcDbLayerTableRecord
  2
RAHM2
 70
     0
 62
     1
  6
Continuous
370
    -3
390
F
347
3C4
  0
LAYER
  5
BB7
102
{ACAD_XDICTIONARY
360
BB8
102
}
330
2
100
AcDbSymbolTableRecord
100
AcDbLayerTableRecord
  2
MITTE
 70
     0
 62
     1
  6
STRICHPUNKT
370
    -3
390
F
347
3C4
  0
LAYER
  5
BB9
102
{ACAD_XDICTIONARY
360
BBA
102
}
330
2
100
AcDbSymbolTableRecord
100
AcDbLayerTableRecord
  2
TEXT50
 70
     0
 62
     7
  6
Continuous
370
    -3
390
F
347
3C4
  0
LAYER
  5
BBB
102
{ACAD_XDICTIONARY
360
BBC
102
}
330
2
100
AcDbSymbolTableRecord
100
AcDbLayerTableRecord
  2
TEXT35
 70
     0
 62
   132
  6
Continuous
370
    -3
390
F
347
3C4
  0
LAYER
  5
BBD
102
{ACAD_XDICTIONARY
360
BBE
102
}
330
2
100
AcDbSymbolTableRecord
100
AcDbLayerTableRecord
  2
TEXT25
 70
     0
 62
     3
  6
Continuous
370
    -3
390
F
347
3C4
  0
LAYER
  5
BBF
102
{ACAD_XDICTIONARY
360
BC0
102
}
330
2
100
AcDbSymbolTableRecord
100
AcDbLayerTableRecord
  2
KOPF
 70
     0
 62
     1
  6
AUSGEZOGEN
370
    -3
390
F
347
3C4
  0
LAYER
  5
BC1
102
{ACAD_XDICTIONARY
360
BC2
102
}
330
2
100
AcDbSymbolTableRecord
100
AcDbLayerTableRecord
  2
Sperrlayer
 70
     0
 62
    -7
  6
Continuous
370
    50
390
F
347
3C4
  0
LAYER
  5
BC3
102
{ACAD_XDICTIONARY
360
BC4
102
}
330
2
100
AcDbSymbolTableRecord
100
AcDbLayerTableRecord
  2
RAHM3
 70
     0
 62
     2
  6
Continuous
370
    -3
390
F
347
3C4
  0
LAYER
  5
BC5
102
{ACAD_XDICTIONARY
360
BC6
102
}
330
2
100
AcDbSymbolTableRecord
100
AcDbLayerTableRecord
  2
0N
 70
     0
 62
     7
  6
Continuous
370
    -3
390
F
347
3C4
  0
LAYER
  5
1111
102
{ACAD_XDICTIONARY
360
1112
102
}
330
2
100
AcDbSymbolTableRecord
100
AcDbLayerTableRecord
  2
AM_5
 70
     0
 62
     3
  6
Continuous
370
    25
390
F
347
3C4
1001
AcAecLayerStandard
1000

1000

  0
LAYER
  5
1113
102
{ACAD_XDICTIONARY
360
1114
102
}
330
2
100
AcDbSymbolTableRecord
100
AcDbLayerTableRecord
  2
AM_7
 70
     0
 62
     4
  6
AM_DIN_G_W050
370
    25
390
F
347
3C4
  0
LAYER
  5
1115
102
{ACAD_XDICTIONARY
360
1116
102
}
330
2
100
AcDbSymbolTableRecord
100
AcDbLayerTableRecord
  2
AM_4
 70
     0
 62
     3
  6
Continuous
370
    25
390
F
347
3C4
1001
AcAecLayerStandard
1000

1000

  0
LAYER
  5
1117
330
2
100
AcDbSymbolTableRecord
100
AcDbLayerTableRecord
  2
AM_10
 70
     0
 62
     7
  6
AM_DIN_G_W050
370
    50
390
F
347
3C4
1001
AcAecLayerStandard
1000

1000

  0
LAYER
  5
1379
330
2
100
AcDbSymbolTableRecord
100
AcDbLayerTableRecord
  2
AM_BOR
 70
     0
 62
     7
  6
Continuous
370
    50
390
F
347
3C4
1001
AcAecLayerStandard
1000

1000

  0
LAYER
  5
137A
102
{ACAD_XDICTIONARY
360
137B
102
}
330
2
100
AcDbSymbolTableRecord
100
AcDbLayerTableRecord
  2
AM_0
 70
     0
 62
     7
  6
Continuous
370
    50
390
F
347
3C4
  0
LAYER
  5
137C
102
{ACAD_XDICTIONARY
360
137D
102
}
330
2
100
AcDbSymbolTableRecord
100
AcDbLayerTableRecord
  2
AM_3
 70
     0
 62
     6
  6
AM_DIN_F_W050
370
    25
390
F
347
3C4
  0
LAYER
  5
1669
102
{ACAD_XDICTIONARY
360
166A
102
}
330
2
100
AcDbSymbolTableRecord
100
AcDbLayerTableRecord
  2
AM_CL
 70
     0
 62
     1
  6
Amconstr
370
    25
390
F
347
3C4
1001
AcAecLayerStandard
1000

1000

  0
LAYER
  5
166B
102
{ACAD_XDICTIONARY
360
166C
102
}
330
2
100
AcDbSymbolTableRecord
100
AcDbLayerTableRecord
  2
AM_8
 70
     0
 62
     1
  6
Continuous
370
    25
390
F
347
3C4
1001
AcAecLayerStandard
1000

1000

  0
LAYER
  5
166D
330
2
100
AcDbSymbolTableRecord
100
AcDbLayerTableRecord
  2
3
 70
     0
 62
     6
  6
gen3
370
    -3
390
F
347
3C4
  0
LAYER
  5
166E
102
{ACAD_XDICTIONARY
360
166F
102
}
330
2
100
AcDbSymbolTableRecord
100
AcDbLayerTableRecord
  2
3A
 70
     0
 62
     6
  6
gen3a
370
    -3
390
F
347
3C4
  0
ENDTAB
  0
TABLE
  2
STYLE
  5
3
330
0
100
AcDbSymbolTable
 70
    16
  0
STYLE
  5
11
330
3
100
AcDbSymbolTableRecord
100
AcDbTextStyleTableRecord
  2
STANDARD
 70
     0
 40
0.0
 41
1.0
 50
0.0
 71
     0
 42
2.5
  3
ISOCP.SHX
  4

  0
STYLE
  5
6B
330
3
100
AcDbSymbolTableRecord
100
AcDbTextStyleTableRecord
  2

 70
     1
 40
0.0
 41
1.0
 50
0.0
 71
     0
 42
2.5
  3
ltypeshp.shx
  4

  0
STYLE
  5
6D
330
3
100
AcDbSymbolTableRecord
100
AcDbTextStyleTableRecord
  2
ACISOTS
 70
     0
 40
1.0
 41
1.0
 50
0.0
 71
     0
 42
2.5
  3
isocp.shx
  4
bigfont.shx
  0
STYLE
  5
79
330
3
100
AcDbSymbolTableRecord
100
AcDbTextStyleTableRecord
  2
ACISOGDT
 70
     0
 40
0.0
 41
1.0
 50
0.0
 71
     0
 42
2.5
  3
AMGDT
  4
bigfont.shx
  0
STYLE
  5
1ED
330
3
100
AcDbSymbolTableRecord
100
AcDbTextStyleTableRecord
  2
USER1
 70
     0
 40
0.0
 41
1.0
 50
0.0
 71
     0
 42
2.5
  3
TXT.SHX
  4
bigfont.shx
  0
STYLE
  5
1EE
330
3
100
AcDbSymbolTableRecord
100
AcDbTextStyleTableRecord
  2
USER2
 70
     0
 40
0.0
 41
1.0
 50
0.0
 71
     0
 42
2.5
  3
SIMPLEX.SHX
  4
bigfont.shx
  0
STYLE
  5
1EF
330
3
100
AcDbSymbolTableRecord
100
AcDbTextStyleTableRecord
  2
USER3
 70
     0
 40
0.0
 41
1.0
 50
0.0
 71
     0
 42
2.5
  3
ITALIC.SHX
  4
bigfont.shx
  0
STYLE
  5
22C
330
3
100
AcDbSymbolTableRecord
100
AcDbTextStyleTableRecord
  2

 70
     1
 40
0.0
 41
1.0
 50
0.0
 71
     0
 42
2.5
  3
genltshp.shx
  4

  0
STYLE
  5
2D7
330
3
100
AcDbSymbolTableRecord
100
AcDbTextStyleTableRecord
  2
ACDINTS
 70
     0
 40
1.0
 41
1.0
 50
0.0
 71
     0
 42
2.5
  3
isocp.shx
  4

  0
STYLE
  5
2E4
330
3
100
AcDbSymbolTableRecord
100
AcDbTextStyleTableRecord
  2
ACDINGDT
 70
     0
 40
0.0
 41
1.0
 50
0.0
 71
     0
 42
2.5
  3
amgdt.shx
  4

  0
STYLE
  5
62D
330
3
100
AcDbSymbolTableRecord
100
AcDbTextStyleTableRecord
  2
TEXTSTYLE_3
 70
     0
 40
0.0
 41
0.6
 50
0.0
 71
     0
 42
0.2
  3
txt
  4

  0
STYLE
  5
BC7
330
3
100
AcDbSymbolTableRecord
100
AcDbTextStyleTableRecord
  2
TEXT20
 70
     0
 40
2.0
 41
0.8
 50
0.0
 71
     0
 42
2.0
  3
isocp3.shx
  4

  0
STYLE
  5
BC8
330
3
100
AcDbSymbolTableRecord
100
AcDbTextStyleTableRecord
  2
TEXT35
 70
     0
 40
3.5
 41
0.8
 50
0.0
 71
     0
 42
3.5
  3
isocp3.shx
  4

  0
STYLE
  5
BC9
330
3
100
AcDbSymbolTableRecord
100
AcDbTextStyleTableRecord
  2
TEXT50
 70
     0
 40
5.0
 41
0.8
 50
0.0
 71
     0
 42
5.0
  3
isocp3.shx
  4

  0
STYLE
  5
BCA
330
3
100
AcDbSymbolTableRecord
100
AcDbTextStyleTableRecord
  2
Anschrift
 70
     0
 40
0.0
 41
1.0
 50
0.0
 71
     0
 42
2.0
  3
C:\Programme\Autodesk\ACADM 2009\Fonts\isocp.shx
  4

  0
STYLE
  5
137E
330
3
100
AcDbSymbolTableRecord
100
AcDbTextStyleTableRecord
  2
ACANSGDT
 70
     0
 40
0.0
 41
1.0
 50
0.0
 71
     0
 42
0.2
  3
amgdt.shx
  4

  0
ENDTAB
  0
TABLE
  2
VIEW
  5
6
330
0
100
AcDbSymbolTable
 70
     0
  0
ENDTAB
  0
TABLE
  2
UCS
  5
7
330
0
100
AcDbSymbolTable
 70
     0
  0
ENDTAB
  0
TABLE
  2
APPID
  5
9
330
0
100
AcDbSymbolTable
 70
    43
  0
APPID
  5
12
330
9
100
AcDbSymbolTableRecord
100
AcDbRegAppTableRecord
  2
ACAD
 70
     0
  0
APPID
  5
46
330
9
100
AcDbSymbolTableRecord
100
AcDbRegAppTableRecord
  2
MCAD_NO_VIS
 70
     0
  0
APPID
  5
47
330
9
100
AcDbSymbolTableRecord
100
AcDbRegAppTableRecord
  2
ACAD_TEMP_GRAPHIC
 70
     0
  0
APPID
  5
58
330
9
100
AcDbSymbolTableRecord
100
AcDbRegAppTableRecord
  2
ACATTRIBSERVICES
 70
     0
  0
APPID
  5
EE
330
9
100
AcDbSymbolTableRecord
100
AcDbRegAppTableRecord
  2
AD_DRAW
 70
     0
  0
APPID
  5
10C
330
9
100
AcDbSymbolTableRecord
100
AcDbRegAppTableRecord
  2
DESIGNERASSEMBLIES
 70
     0
  0
APPID
  5
111
330
9
100
AcDbSymbolTableRecord
100
AcDbRegAppTableRecord
  2
ACADM_DIM_EDIT
 70
     0
  0
APPID
  5
112
330
9
100
AcDbSymbolTableRecord
100
AcDbRegAppTableRecord
  2
AMDT_DM_ADJ
 70
     0
  0
APPID
  5
1A3
330
9
100
AcDbSymbolTableRecord
100
AcDbRegAppTableRecord
  2
ACAD_DSTYLE_DIMARC_LENGTH_SYMBOL
 70
     0
  0
APPID
  5
1A4
330
9
100
AcDbSymbolTableRecord
100
AcDbRegAppTableRecord
  2
ACAD_DSTYLE_DIMJOGGED_JOGANGLE_SYMBOL
 70
     0
  0
APPID
  5
3F1
330
9
100
AcDbSymbolTableRecord
100
AcDbRegAppTableRecord
  2
ACAD_MLEADERVER
 70
     0
  0
APPID
  5
632
330
9
100
AcDbSymbolTableRecord
100
AcDbRegAppTableRecord
  2
DCO15
 70
     0
  0
APPID
  5
7D7
330
9
100
AcDbSymbolTableRecord
100
AcDbRegAppTableRecord
  2
ACAD_DSTYLE_DIMINSPECT
 70
     0
  0
APPID
  5
7E3
330
9
100
AcDbSymbolTableRecord
100
AcDbRegAppTableRecord
  2
GENIUS_GENDTOL_13
 70
     0
  0
APPID
  5
BCD
330
9
100
AcDbSymbolTableRecord
100
AcDbRegAppTableRecord
  2
GENIUS_GENOENT_13
 70
     0
  0
APPID
  5
BCE
330
9
100
AcDbSymbolTableRecord
100
AcDbRegAppTableRecord
  2
GENIUS_VERSION2
 70
     0
  0
APPID
  5
BCF
330
9
100
AcDbSymbolTableRecord
100
AcDbRegAppTableRecord
  2
GENIUS_GENREC_14
 70
     0
  0
APPID
  5
BD0
330
9
100
AcDbSymbolTableRecord
100
AcDbRegAppTableRecord
  2
GENIUS_GENODEF_13
 70
     0
  0
APPID
  5
BD1
330
9
100
AcDbSymbolTableRecord
100
AcDbRegAppTableRecord
  2
GENIUS_GENOBJ-N-REC_13
 70
     0
  0
APPID
  5
BD2
330
9
100
AcDbSymbolTableRecord
100
AcDbRegAppTableRecord
  2
GENIUS_GENTRA_14
 70
     0
  0
APPID
  5
BD3
330
9
100
AcDbSymbolTableRecord
100
AcDbRegAppTableRecord
  2
GENIUS_GENOBJ-N-TIT_13
 70
     0
  0
APPID
  5
BD4
330
9
100
AcDbSymbolTableRecord
100
AcDbRegAppTableRecord
  2
GENIUS_GENTITLE_13
 70
     0
  0
APPID
  5
BD5
330
9
100
AcDbSymbolTableRecord
100
AcDbRegAppTableRecord
  2
GENIUS_GENOREF_13
 70
     0
  0
APPID
  5
BD6
330
9
100
AcDbSymbolTableRecord
100
AcDbRegAppTableRecord
  2
GENIUS_GENOLIS_13
 70
     0
  0
APPID
  5
BD7
330
9
100
AcDbSymbolTableRecord
100
AcDbRegAppTableRecord
  2
GENIUS_GENOBJ-N-SDF_13
 70
     0
  0
APPID
  5
BD8
330
9
100
AcDbSymbolTableRecord
100
AcDbRegAppTableRecord
  2
GENIUS_GENOBJ-N-FIL_13
 70
     0
  0
APPID
  5
BD9
330
9
100
AcDbSymbolTableRecord
100
AcDbRegAppTableRecord
  2
GENIUS_GENOBJ-N-HTC_13
 70
     0
  0
APPID
  5
BDA
330
9
100
AcDbSymbolTableRecord
100
AcDbRegAppTableRecord
  2
GENIUS_GENHATCH_13
 70
     0
  0
APPID
  5
BDB
330
9
100
AcDbSymbolTableRecord
100
AcDbRegAppTableRecord
  2
GENIUS_GENFIL_13
 70
     0
  0
APPID
  5
BDC
330
9
100
AcDbSymbolTableRecord
100
AcDbRegAppTableRecord
  2
GENIUS_GENOBJ-N-CHA_13
 70
     0
  0
APPID
  5
BDD
330
9
100
AcDbSymbolTableRecord
100
AcDbRegAppTableRecord
  2
GENIUS_GENSCREG_15
 70
     0
  0
APPID
  5
111A
330
9
100
AcDbSymbolTableRecord
100
AcDbRegAppTableRecord
  2
AcAecLayerStandard
 70
     0
  0
APPID
  5
111B
330
9
100
AcDbSymbolTableRecord
100
AcDbRegAppTableRecord
  2
ACAD_PSEXT
 70
     0
  0
APPID
  5
111C
330
9
100
AcDbSymbolTableRecord
100
AcDbRegAppTableRecord
  2
GENIUS_GENOBJ-N-CEN_13
 70
     0
  0
APPID
  5
111D
330
9
100
AcDbSymbolTableRecord
100
AcDbRegAppTableRecord
  2
GENIUS_GENCEN_19
 70
     0
  0
APPID
  5
111E
330
9
100
AcDbSymbolTableRecord
100
AcDbRegAppTableRecord
  2
GENIUS_GENOBJ-N-CRS_13
 70
     0
  0
APPID
  5
111F
330
9
100
AcDbSymbolTableRecord
100
AcDbRegAppTableRecord
  2
GENIUS_GENOBJ-N-ZOO_13
 70
     0
  0
APPID
  5
1120
330
9
100
AcDbSymbolTableRecord
100
AcDbRegAppTableRecord
  2
GENIUS_GENZOO_17
 70
     0
  0
APPID
  5
12C0
330
9
100
AcDbSymbolTableRecord
100
AcDbRegAppTableRecord
  2
ACAD_EXEMPT_FROM_CAD_STANDARDS
 70
     0
  0
APPID
  5
1671
330
9
100
AcDbSymbolTableRecord
100
AcDbRegAppTableRecord
  2
GENIUS_GENOBJ-N-DIMBR_13
 70
     0
  0
APPID
  5
1672
330
9
100
AcDbSymbolTableRecord
100
AcDbRegAppTableRecord
  2
GENIUS_DIMBR_14
 70
     0
  0
APPID
  5
1673
330
9
100
AcDbSymbolTableRecord
100
AcDbRegAppTableRecord
  2
GENIUS_DIMBRX_14
 70
     0
  0
APPID
  5
1674
330
9
100
AcDbSymbolTableRecord
100
AcDbRegAppTableRecord
  2
GENIUS_GENOBJ-N-DIMBRX_13
 70
     0
  0
ENDTAB
  0
TABLE
  2
DIMSTYLE
  5
A
330
0
100
AcDbSymbolTable
 70
    30
100
AcDbDimStyleTable
 71
     2
340
2F0
340
81
  0
DIMSTYLE
105
27
330
A
100
AcDbSymbolTableRecord
100
AcDbDimStyleTableRecord
  2
ISO-25
 70
     0
 41
2.5
 42
0.625
 43
3.75
 44
1.25
 73
     0
 74
     0
 77
     1
 78
     8
140
2.5
141
2.5
143
0.03937007874016
147
0.625
171
     3
172
     1
271
     2
272
     2
274
     3
278
    44
283
     0
284
     8
340
11
  0
DIMSTYLE
105
81
330
A
100
AcDbSymbolTableRecord
100
AcDbDimStyleTableRecord
  2
AM_ISO
 70
     0
  4
"
 41
2.5
 42
1.0
 43
10.0
 44
1.0
 47
0.1
 48
0.1
 73
     0
 74
     0
 77
     1
 78
     8
 79
     2
 90
     1
140
3.5
141
0.0
143
0.0393701
146
0.71
147
1.5
172
     1
176
   256
177
   256
178
     2
271
     2
272
     3
274
     4
283
     0
284
     8
340
11
371
    -1
372
    -1
1001
ACAD_DSTYLE_DIMJOGGED_JOGANGLE_SYMBOL
1070
   384
1040
0.7853981633974483
  0
DIMSTYLE
105
82
330
A
100
AcDbSymbolTableRecord
100
AcDbDimStyleTableRecord
  2
AM_ISO$3
 70
     0
  4
"
 41
2.5
 42
1.0
 43
10.0
 44
1.0
 47
0.1
 48
0.1
 73
     0
 77
     1
 78
     8
 79
     2
 90
     1
140
3.5
141
0.0
143
0.0393701
146
0.71
147
1.5
176
   256
177
   256
178
     2
271
     2
272
     3
274
     4
283
     0
284
     8
288
     1
289
     0
340
11
371
    -1
372
    -1
1001
ACAD_DSTYLE_DIMJOGGED_JOGANGLE_SYMBOL
1070
   384
1040
0.7853981633974483
  0
DIMSTYLE
105
83
330
A
100
AcDbSymbolTableRecord
100
AcDbDimStyleTableRecord
  2
AM_ISO$4
 70
     0
  4
"
 41
2.5
 42
1.0
 43
10.0
 44
1.0
 47
0.1
 48
0.1
 73
     0
 77
     1
 78
     8
 79
     2
 90
     1
140
3.5
141
0.0
143
0.0393701
146
0.71
147
1.5
176
   256
177
   256
178
     2
271
     2
272
     3
274
     4
283
     0
284
     8
288
     1
289
     0
340
11
371
    -1
372
    -1
1001
ACAD_DSTYLE_DIMJOGGED_JOGANGLE_SYMBOL
1070
   384
1040
0.7853981633974483
  0
DIMSTYLE
105
84
330
A
100
AcDbSymbolTableRecord
100
AcDbDimStyleTableRecord
  2
AM_ISO$6
 70
     0
  4
"
 41
2.5
 42
1.0
 43
10.0
 44
1.0
 47
0.1
 48
0.1
 73
     0
 74
     0
 78
     8
 79
     2
 90
     1
140
3.5
141
0.0
143
0.0393701
146
0.71
147
1.5
172
     1
176
   256
177
   256
178
     2
271
     2
272
     3
274
     4
283
     0
284
     8
340
11
371
    -1
372
    -1
1001
ACAD_DSTYLE_DIMJOGGED_JOGANGLE_SYMBOL
1070
   384
1040
0.7853981633974483
  0
DIMSTYLE
105
85
330
A
100
AcDbSymbolTableRecord
100
AcDbDimStyleTableRecord
  2
AM_ISO$7
 70
     0
  4
"
 41
2.5
 42
1.0
 43
10.0
 44
1.0
 47
0.1
 48
0.1
 73
     0
 74
     0
 77
     1
 78
     8
 79
     2
 90
     1
140
5.0
141
0.0
143
0.0393701
146
0.71
147
1.5
172
     1
176
   256
177
   256
178
     2
271
     2
272
     3
274
     4
283
     0
284
     8
340
11
371
    -1
372
    -1
1001
ACAD_DSTYLE_DIMJOGGED_JOGANGLE_SYMBOL
1070
   384
1040
0.7853981633974483
  0
DIMSTYLE
105
86
330
A
100
AcDbSymbolTableRecord
100
AcDbDimStyleTableRecord
  2
AM_ISO$SF
 70
     0
  4
"
 41
2.5
 42
1.0
 43
10.0
 44
1.0
 47
0.1
 48
0.1
 73
     0
 74
     0
 75
     1
 76
     1
 77
     1
 78
     8
 79
     2
 90
     1
140
3.5
141
0.0
143
0.0393701
146
0.71
147
1.5
172
     1
176
   256
177
   256
178
     2
271
     2
272
     3
274
     4
283
     0
284
     8
340
11
371
    -1
372
    -1
1001
ACAD_DSTYLE_DIMJOGGED_JOGANGLE_SYMBOL
1070
   384
1040
0.7853981633974483
  0
DIMSTYLE
105
8B
330
A
100
AcDbSymbolTableRecord
100
AcDbDimStyleTableRecord
  2
AM_ISO$SH
 70
     0
  4
"
 41
2.5
 42
1.0
 43
10.0
 44
1.0
 47
0.1
 48
0.1
 73
     0
 74
     0
 75
     1
 76
     1
 77
     1
 78
     8
 79
     2
 90
     1
140
3.5
141
0.0
143
0.0393701
144
2.0
146
0.71
147
1.5
172
     1
173
     1
176
   256
177
   256
178
     2
271
     2
272
     3
274
     4
283
     0
284
     8
340
11
343
87
371
    -1
372
    -1
1001
ACAD_DSTYLE_DIMJOGGED_JOGANGLE_SYMBOL
1070
   384
1040
0.7853981633974483
  0
DIMSTYLE
105
2F0
102
{ACAD_REACTORS
330
9F2
102
}
330
A
100
AcDbSymbolTableRecord
100
AcDbDimStyleTableRecord
  2
AM_DIN
 70
     0
  4
"
 41
2.5
 42
1.0
 43
10.0
 44
1.0
 47
0.1
 48
0.1
 50
89.99999999999998
 73
     0
 74
     0
 77
     1
 78
     8
 79
     2
140
3.5
141
0.0
143
0.0393701
146
0.71
147
1.5
172
     1
176
   256
177
   256
178
     2
271
     2
272
     3
274
     4
283
     0
284
     8
340
11
371
    -1
372
    -1
1001
ACAD_DSTYLE_DIMJOGGED_JOGANGLE_SYMBOL
1070
   384
1040
1.570796326794896
  0
DIMSTYLE
105
301
330
A
100
AcDbSymbolTableRecord
100
AcDbDimStyleTableRecord
  2
AM_DIN$3
 70
     0
  4
"
 41
2.5
 42
1.0
 43
10.0
 44
1.0
 47
0.1
 48
0.1
 50
89.99999999999998
 73
     0
 77
     1
 78
     8
 79
     2
140
3.5
141
0.0
143
0.0393701
146
0.71
147
1.5
176
   256
177
   256
178
     2
271
     2
272
     3
274
     4
283
     0
284
     8
288
     1
289
     0
340
11
371
    -1
372
    -1
1001
ACAD_DSTYLE_DIMJOGGED_JOGANGLE_SYMBOL
1070
   384
1040
1.570796326794896
  0
DIMSTYLE
105
306
330
A
100
AcDbSymbolTableRecord
100
AcDbDimStyleTableRecord
  2
AM_DIN$4
 70
     0
  4
"
 41
2.5
 42
1.0
 43
10.0
 44
1.0
 47
0.1
 48
0.1
 50
89.99999999999998
 73
     0
 77
     1
 78
     8
 79
     2
140
3.5
141
0.0
143
0.0393701
146
0.71
147
1.5
176
   256
177
   256
178
     2
271
     2
272
     3
274
     4
283
     0
284
     8
288
     1
289
     0
340
11
371
    -1
372
    -1
1001
ACAD_DSTYLE_DIMJOGGED_JOGANGLE_SYMBOL
1070
   384
1040
1.570796326794896
  0
DIMSTYLE
105
30B
330
A
100
AcDbSymbolTableRecord
100
AcDbDimStyleTableRecord
  2
AM_DIN$6
 70
     0
  4
"
 41
2.5
 42
1.0
 43
10.0
 44
1.0
 47
0.1
 48
0.1
 50
89.99999999999998
 73
     0
 74
     0
 78
     8
 79
     2
140
3.5
141
0.0
143
0.0393701
146
0.71
147
1.5
172
     1
176
   256
177
   256
178
     2
271
     2
272
     3
274
     4
283
     0
284
     8
340
11
371
    -1
372
    -1
1001
ACAD_DSTYLE_DIMJOGGED_JOGANGLE_SYMBOL
1070
   384
1040
1.570796326794896
  0
DIMSTYLE
105
310
330
A
100
AcDbSymbolTableRecord
100
AcDbDimStyleTableRecord
  2
AM_DIN$7
 70
     0
  4
"
 41
2.5
 42
1.0
 43
10.0
 44
1.0
 47
0.1
 48
0.1
 50
89.99999999999998
 73
     0
 74
     0
 77
     1
 78
     8
 79
     2
140
5.0
141
0.0
143
0.0393701
146
0.71
147
1.5
172
     1
176
   256
177
   256
178
     2
271
     2
272
     3
274
     4
283
     0
284
     8
340
11
371
    -1
372
    -1
1001
ACAD_DSTYLE_DIMJOGGED_JOGANGLE_SYMBOL
1070
   384
1040
1.570796326794896
  0
DIMSTYLE
105
315
330
A
100
AcDbSymbolTableRecord
100
AcDbDimStyleTableRecord
  2
AM_DIN$SF
 70
     0
  4
"
 41
2.5
 42
1.0
 43
10.0
 44
1.0
 47
0.1
 48
0.1
 50
89.99999999999998
 73
     0
 74
     0
 75
     1
 76
     1
 77
     1
 78
     8
 79
     2
140
3.5
141
0.0
143
0.0393701
146
0.71
147
1.5
172
     1
176
   256
177
   256
178
     2
271
     2
272
     3
274
     4
283
     0
284
     8
340
11
371
    -1
372
    -1
1001
ACAD_DSTYLE_DIMJOGGED_JOGANGLE_SYMBOL
1070
   384
1040
1.570796326794896
  0
DIMSTYLE
105
31A
330
A
100
AcDbSymbolTableRecord
100
AcDbDimStyleTableRecord
  2
AM_DIN$SH
 70
     0
  4
"
 41
2.5
 42
1.0
 43
10.0
 44
1.0
 47
0.1
 48
0.1
 50
89.99999999999998
 73
     0
 74
     0
 75
     1
 76
     1
 77
     1
 78
     8
 79
     2
140
3.5
141
0.0
143
0.0393701
144
2.0
146
0.71
147
1.5
172
     1
173
     1
176
   256
177
   256
178
     2
271
     2
272
     3
274
     4
283
     0
284
     8
340
11
343
87
371
    -1
372
    -1
1001
ACAD_DSTYLE_DIMJOGGED_JOGANGLE_SYMBOL
1070
   384
1040
1.570796326794896
  0
DIMSTYLE
105
62E
330
A
100
AcDbSymbolTableRecord
100
AcDbDimStyleTableRecord
  2
STANDARD
 70
     0
 41
3.5
 47
0.005
 48
0.005
 71
     1
 73
     0
 74
     0
 77
     1
 78
     8
140
3.5
178
     5
271
     3
272
     3
284
     8
340
11
341
627
342
627
343
627
344
627
  0
DIMSTYLE
105
62F
330
A
100
AcDbSymbolTableRecord
100
AcDbDimStyleTableRecord
  2
DIMSTYLE_1
 70
     0
 41
3.5
 47
0.5
 48
0.5
 71
     1
 73
     0
 74
     0
 77
     1
 78
     8
140
3.5
178
     5
271
     3
272
     3
284
     8
340
11
341
627
342
627
343
627
344
627
  0
DIMSTYLE
105
630
330
A
100
AcDbSymbolTableRecord
100
AcDbDimStyleTableRecord
  2
DIMSTYLE_2
 70
     0
 41
3.5
 47
1.0
 48
1.0
 71
     1
 73
     0
 74
     0
 77
     1
 78
     8
140
3.5
178
     5
271
     3
272
     3
284
     8
340
11
341
627
342
627
343
627
344
627
  0
DIMSTYLE
105
631
330
A
100
AcDbSymbolTableRecord
100
AcDbDimStyleTableRecord
  2
DIMSTYLE_3
 70
     0
 41
3.5
 47
1.0
 48
0.3
 71
     1
 73
     0
 74
     0
 77
     1
 78
     8
140
3.5
146
0.6
178
     5
271
     3
272
     3
284
     8
340
11
341
627
342
627
343
627
344
627
  0
DIMSTYLE
105
BCB
330
A
100
AcDbSymbolTableRecord
100
AcDbDimStyleTableRecord
  2
GEN-ISO
 70
     0
  4
"
 41
2.5
 42
1.0
 43
7.0
 44
1.0
 47
0.1
 48
0.1
 73
     0
 74
     0
 77
     1
 78
     8
140
3.5
141
0.0
143
0.0393701
146
0.71
147
0.6
172
     1
176
   256
177
   256
178
     2
271
     2
272
     3
274
     4
283
     0
340
11
  0
DIMSTYLE
105
BCC
330
A
100
AcDbSymbolTableRecord
100
AcDbDimStyleTableRecord
  2
GEN-ISO$0
 70
     0
  4
"
 41
2.5
 42
1.0
 43
7.0
 44
1.0
 47
0.1
 48
0.1
 73
     0
 74
     0
 77
     1
 78
     8
140
3.5
141
0.0
143
0.0393701
146
0.71
147
0.6
172
     1
176
   256
177
   256
178
     2
271
     2
272
     3
274
     4
283
     0
340
11
  0
DIMSTYLE
105
1118
330
A
100
AcDbSymbolTableRecord
100
AcDbDimStyleTableRecord
  2
AM_ISO$0
 70
     0
  4
"
 41
2.5
 42
1.0
 43
10.0
 44
1.0
 47
0.1
 48
0.1
 73
     0
 74
     0
 77
     1
 78
     8
 79
     2
 90
     1
140
3.5
141
0.0
143
0.0393701
146
0.71
147
1.5
172
     1
176
   256
177
   256
178
     2
271
     2
272
     3
274
     4
283
     0
284
     8
340
11
371
    -1
372
    -1
1001
ACAD_DSTYLE_DIMJOGGED_JOGANGLE_SYMBOL
1070
   384
1040
0.7853981633974483
  0
DIMSTYLE
105
1119
330
A
100
AcDbSymbolTableRecord
100
AcDbDimStyleTableRecord
  2
AM_ISO$2
 70
     0
  4
"
 41
2.5
 42
1.0
 43
10.0
 44
1.0
 47
0.1
 48
0.1
 73
     0
 74
     0
 77
     1
 78
     8
 79
     2
 90
     1
140
3.5
141
0.0
143
0.0393701
146
0.71
147
1.5
172
     1
176
   256
177
   256
178
     2
271
     2
272
     3
274
     4
283
     0
284
     8
340
11
371
    -1
372
    -1
1001
ACAD_DSTYLE_DIMJOGGED_JOGANGLE_SYMBOL
1070
   384
1040
0.7853981633974483
  0
DIMSTYLE
105
137F
102
{ACAD_REACTORS
330
1484
102
}
330
A
100
AcDbSymbolTableRecord
100
AcDbDimStyleTableRecord
  2
AM_ANSI
 70
     0
  4
mm
 41
0.12
 42
0.05
 43
0.5
 44
0.1
 47
0.1
 48
0.1
 78
     7
 79
     2
 90
     1
140
0.12
141
0.0
146
0.71
147
0.06
176
   256
177
   256
178
     2
274
     4
284
     7
340
11
345
14
346
14
347
14
371
    -1
372
    -1
  0
DIMSTYLE
105
1380
330
A
100
AcDbSymbolTableRecord
100
AcDbDimStyleTableRecord
  2
AM_ANSI$3
 70
     0
  4
mm
 41
0.12
 42
0.05
 43
0.5
 44
0.1
 47
0.1
 48
0.1
 78
     7
 79
     2
 90
     1
140
0.12
141
0.0
146
0.71
147
0.06
176
   256
177
   256
178
     2
274
     4
284
     7
288
     1
289
     0
340
11
345
14
346
14
347
14
371
    -1
372
    -1
  0
DIMSTYLE
105
1381
330
A
100
AcDbSymbolTableRecord
100
AcDbDimStyleTableRecord
  2
AM_ANSI$4
 70
     0
  4
mm
 41
0.12
 42
0.05
 43
0.5
 44
0.1
 47
0.1
 48
0.1
 78
     7
 79
     2
 90
     1
140
0.12
141
0.0
146
0.71
147
0.06
176
   256
177
   256
178
     2
274
     4
284
     7
288
     1
289
     0
340
11
345
14
346
14
347
14
371
    -1
372
    -1
  0
DIMSTYLE
105
1382
330
A
100
AcDbSymbolTableRecord
100
AcDbDimStyleTableRecord
  2
AM_ANSI$7
 70
     0
  4
mm
 41
0.12
 42
0.05
 43
0.5
 44
0.1
 47
0.1
 48
0.1
 78
     7
 79
     2
 90
     1
140
0.12
141
0.0
146
0.71
147
0.06
176
   256
177
   256
178
     2
274
     4
284
     7
340
11
345
14
346
14
347
14
371
    -1
372
    -1
  0
DIMSTYLE
105
1383
330
A
100
AcDbSymbolTableRecord
100
AcDbDimStyleTableRecord
  2
AM_ANSI$SF
 70
     0
  4
mm
 41
0.12
 42
0.05
 43
0.5
 44
0.1
 47
0.1
 48
0.1
 75
     1
 76
     1
 78
     7
 79
     2
 90
     1
140
0.12
141
0.0
146
0.71
147
0.06
176
   256
177
   256
178
     2
274
     4
284
     7
340
11
345
14
346
14
347
14
371
    -1
372
    -1
  0
DIMSTYLE
105
1384
330
A
100
AcDbSymbolTableRecord
100
AcDbDimStyleTableRecord
  2
AM_ANSI$SH
 70
     0
  4
mm
 41
0.12
 42
0.05
 43
0.5
 44
0.1
 47
0.1
 48
0.1
 75
     1
 76
     1
 78
     7
 79
     2
 90
     1
140
0.12
141
0.0
146
0.71
147
0.06
173
     1
176
   256
177
   256
178
     2
274
     4
284
     7
340
11
343
87
345
14
346
14
347
14
371
    -1
372
    -1
  0
DIMSTYLE
105
1670
102
{ACAD_REACTORS
330
1AAC
330
1B60
330
1B03
330
1B2D
102
}
330
A
100
AcDbSymbolTableRecord
100
AcDbDimStyleTableRecord
  2
AM_DIN$0
 70
     0
  4
"
 41
2.5
 42
1.0
 43
10.0
 44
1.0
 47
0.1
 48
0.1
 50
89.99999999999998
 73
     0
 74
     0
 77
     1
 78
     8
 79
     2
140
3.5
141
0.0
143
0.0393701
146
0.71
147
1.5
172
     1
176
   256
177
   256
178
     2
271
     2
272
     3
274
     4
283
     0
284
     8
340
11
371
    -1
372
    -1
1001
ACAD_DSTYLE_DIMJOGGED_JOGANGLE_SYMBOL
1070
   384
1040
1.570796326794896
  0
ENDTAB
  0
TABLE
  2
BLOCK_RECORD
  5
1
330
0
100
AcDbSymbolTable
 70
    13
  0
BLOCK_RECORD
  5
1F
102
{ACAD_XDICTIONARY
360
8F
102
}
330
1
100
AcDbSymbolTableRecord
100
AcDbBlockTableRecord
  2
*Model_Space
340
22
 70
     0
280
     1
281
     0
  0
BLOCK_RECORD
  5
1B
330
1
100
AcDbSymbolTableRecord
100
AcDbBlockTableRecord
  2
*Paper_Space
340
1E
 70
     0
280
     1
281
     0
  0
BLOCK_RECORD
  5
23
330
1
100
AcDbSymbolTableRecord
100
AcDbBlockTableRecord
  2
*Paper_Space0
340
26
 70
     0
280
     1
281
     0
  0
BLOCK_RECORD
  5
87
330
1
100
AcDbSymbolTableRecord
100
AcDbBlockTableRecord
  2
GENAXEH
340
0
 70
     0
280
     1
281
     0
  0
BLOCK_RECORD
  5
627
330
1
100
AcDbSymbolTableRecord
100
AcDbBlockTableRecord
  2
_FILLED
340
0
 70
     0
280
     1
281
     0
  0
BLOCK_RECORD
  5
8B2
330
1
100
AcDbSymbolTableRecord
100
AcDbBlockTableRecord
  2
_None
340
0
 70
     0
280
     1
281
     0
  0
BLOCK_RECORD
  5
ACF
330
1
100
AcDbSymbolTableRecord
100
AcDbBlockTableRecord
  2
ACO_A3
340
0
 70
     0
280
     1
281
     0
  0
BLOCK_RECORD
  5
B12
102
{ACAD_XDICTIONARY
360
B13
102
}
330
1
100
AcDbSymbolTableRecord
100
AcDbBlockTableRecord
  2
ACO-SF02-GR
340
0
 70
     0
280
     1
281
     0
  0
BLOCK_RECORD
  5
1324
330
1
100
AcDbSymbolTableRecord
100
AcDbBlockTableRecord
  2
*X7
340
0
102
{BLKREFS
331
14DA
102
}
 70
     0
280
     1
281
     0
  0
BLOCK_RECORD
  5
15D3
330
1
100
AcDbSymbolTableRecord
100
AcDbBlockTableRecord
  2
ACO-logo
340
0
310
2800000020000000200000000100080000000000000400000000000000000000000000000000000000000000000080000080000000808000800000008000800080800000C0C0C000C0DCC000F0CAA6000020400000206000002080000020A0000020C0000020E00000400000004020000040400000406000004080000040A0
310
000040C0000040E00000600000006020000060400000606000006080000060A0000060C0000060E00000800000008020000080400000806000008080000080A0000080C0000080E00000A0000000A0200000A0400000A0600000A0800000A0A00000A0C00000A0E00000C0000000C0200000C0400000C0600000C0800000C0
310
A00000C0C00000C0E00000E0000000E0200000E0400000E0600000E0800000E0A00000E0C00000E0E00040000000400020004000400040006000400080004000A0004000C0004000E00040200000402020004020400040206000402080004020A0004020C0004020E000404000004040200040404000404060004040800040
310
40A0004040C0004040E00040600000406020004060400040606000406080004060A0004060C0004060E00040800000408020004080400040806000408080004080A0004080C0004080E00040A0000040A0200040A0400040A0600040A0800040A0A00040A0C00040A0E00040C0000040C0200040C0400040C0600040C08000
310
40C0A00040C0C00040C0E00040E0000040E0200040E0400040E0600040E0800040E0A00040E0C00040E0E00080000000800020008000400080006000800080008000A0008000C0008000E00080200000802020008020400080206000802080008020A0008020C0008020E00080400000804020008040400080406000804080
310
008040A0008040C0008040E00080600000806020008060400080606000806080008060A0008060C0008060E00080800000808020008080400080806000808080008080A0008080C0008080E00080A0000080A0200080A0400080A0600080A0800080A0A00080A0C00080A0E00080C0000080C0200080C0400080C0600080C0
310
800080C0A00080C0C00080C0E00080E0000080E0200080E0400080E0600080E0800080E0A00080E0C00080E0E000C0000000C0002000C0004000C0006000C0008000C000A000C000C000C000E000C0200000C0202000C0204000C0206000C0208000C020A000C020C000C020E000C0400000C0402000C0404000C0406000C0
310
408000C040A000C040C000C040E000C0600000C0602000C0604000C0606000C0608000C060A000C060C000C060E000C0800000C0802000C0804000C0806000C0808000C080A000C080C000C080E000C0A00000C0A02000C0A04000C0A06000C0A08000C0A0A000C0A0C000C0A0E000C0C00000C0C02000C0C04000C0C06000
310
C0C08000C0C0A000F0FBFF00A4A0A000808080000000FF0000FF000000FFFF00FF000000FF00FF00FFFF0000FFFFFF0000000000000000000000000000000000000000000000000000000000000000000000000000000000000000000000000000000000000000000000000000000000000000000000000000000000000000
310
00000000000000000000000000000000000000000000000000000000000000000000000000000000000000000000000000000000000000000000000000000000000000000000000000000000000000000000F9F9F9F9F9F9F9F9F9F9F9F9F9F9F9F9F9F9F9F9F9F9F9F9F9F9F9F9F9F90000F9F9F9F9F9F9F9F9F9F9F9F9F9
310
F9F9F9F9F9F9F9F9F9F9F9F9F9F9F9F9F90000F9F9F9F9F9F9F9F9F9F9F9F9F9F9F9F9F9F9F9F9F9F9F9F9F9F9F9F9F9F90000F9F9F9F9F9F9F9F9F9F9F9F9F9F9F9F9F9F9F9F9F9F9F9F9F9F9F9F9F9F90000F9F9F9F9F9F9F9F9F9F9F9F9F9F9F9F9F9F9F9F9F9F9F9F9F9F9F9F9F9F90000F9F9F9F9F9F9F9F9F9F9F9F9
310
F9F9F9F9F9F9F9F9F9F9F9F9F9F9F9F9F9F90000F9F9F9F9F9F9F9F9F9F9F9F9F9F9F9F9F9F9F9F9F9F9F9F9F9F9F9F9F9F90000F9F9F9F9F9F9F9F9F9F9F9F9F9F9F9F9F9F9F9F9F9F9F9F9F9F9F9F9F9F90000F9F9F9F9F9F9F9F9F9F9F9F9F9F9F9F9F9F9F9F9F9F9F9F9F9F9F9F9F9F90000F9F9F9F9F9F9F9F9F9F9F9
310
F9F9F9F9F9F9F9F9F9F9F9F9F9F9F9F9F9F9F90000F9F9F9F9F9F9F9F9F9F9F9F9F9F9F9F9F9F9F9F9F9F9F9F9F9F9F9F9F9F90000F9F9F9F9F9F9F9F9F9F9F9F9F9F9F9F9F9F9F9F9F9F9F9F9F9F9F9F9F9F90000F9F9F9F9F9F9F9F9F9F9F9F9F9F9F9F9F9F9F9F9F9F9F9F9F9F9F9F9F9F90000F9F9F9F9F9F9F9F9F9F9
310
F9F9F9F9F9F9F9F9F9F9F9F9F9F9F9F9F9F9F9F90000F9F9F9F9F9F9F9F9F9F9F9F9F9F9F9F9F9F9F9F9F9F9F9F9F9F9F9F9F9F90000F9F9F9F9F9F9F9F9F9F9F9F9F9F9F9F9F9F9F9F9F9F9F9F9F9F9F9F9F9F90000F9F9F9F9F9F9F9F9F9F9F9F9F9F9F9F9F9F9F9F9F9F9F9F9F9F9F9F9F9F90000F9F9F9F9F9F9F9F9F9
310
F9F9F9F9F9F9F9F9F9F9F9F9F9F9F9F9F9F9F9F9F90000F9F9F9F9F9F9F9F9F9F9F9F9F9F9F9F9F9F9F9F9F9F9F9F9F9F9F9F9F9F90000F9F9F9F9F9F9F9F9F9F9F9F9F9F9F9F9F9F9F9F9F9F9F9F9F9F9F9F9F9F90000F9F9F9F9F9F9F9F9F9F9F9F9F9F9F9F9F9F9F9F9F9F9F9F9F9F9F9F9F9F90000F9F9F9F9F9F9F9F9
310
F9F9F9F9F9F9F9F9F9F9F9F9F9F9F9F9F9F9F9F9F9F9000000000000000000000000000000000000000000000000000000000000000000000000000000000000000000000000000000000000000000000000000000000000000000000000000000000000000000000000000000000000000000000000000000000000000000
310
0000000000000000000000000000000000000000000000000000000000000000000000000000000000000000000000000000000000000000
 70
     0
280
     1
281
     0
  0
BLOCK_RECORD
  5
1AAD
330
1
100
AcDbSymbolTableRecord
100
AcDbBlockTableRecord
  2
*D9
340
0
 70
     0
280
     1
281
     0
  0
BLOCK_RECORD
  5
1B04
330
1
100
AcDbSymbolTableRecord
100
AcDbBlockTableRecord
  2
*D10
340
0
 70
     0
280
     1
281
     0
  0
BLOCK_RECORD
  5
1B2E
330
1
100
AcDbSymbolTableRecord
100
AcDbBlockTableRecord
  2
*D11
340
0
 70
     0
280
     1
281
     0
  0
BLOCK_RECORD
  5
1B61
330
1
100
AcDbSymbolTableRecord
100
AcDbBlockTableRecord
  2
*D12
340
0
 70
     0
280
     1
281
     0
  0
ENDTAB
  0
ENDSEC
  0
SECTION
  2
BLOCKS
  0
BLOCK
  5
20
330
1F
100
AcDbEntity
  8
0
100
AcDbBlockBegin
  2
*Model_Space
 70
     0
 10
0.0
 20
0.0
 30
0.0
  3
*Model_Space
  1

  0
ENDBLK
  5
21
330
1F
100
AcDbEntity
  8
0
100
AcDbBlockEnd
  0
BLOCK
  5
1C
330
1B
100
AcDbEntity
 67
     1
  8
0
100
AcDbBlockBegin
  2
*Paper_Space
 70
     0
 10
0.0
 20
0.0
 30
0.0
  3
*Paper_Space
  1

  0
ENDBLK
  5
1D
330
1B
100
AcDbEntity
 67
     1
  8
0
100
AcDbBlockEnd
  0
BLOCK
  5
24
330
23
100
AcDbEntity
 67
     1
  8
0
100
AcDbBlockBegin
  2
*Paper_Space0
 70
     0
 10
0.0
 20
0.0
 30
0.0
  3
*Paper_Space0
  1

  0
ENDBLK
  5
25
330
23
100
AcDbEntity
 67
     1
  8
0
100
AcDbBlockEnd
  0
BLOCK
  5
89
330
87
100
AcDbEntity
  8
0
100
AcDbBlockBegin
  2
GENAXEH
 70
     0
 10
0.0
 20
0.0
 30
0.0
  3
GENAXEH
  1

  0
LINE
  5
88
330
87
100
AcDbEntity
  8
0
100
AcDbLine
 10
-1.0
 20
0.0
 30
0.0
 11
1.0
 21
0.0
 31
0.0
  0
ENDBLK
  5
8A
330
87
100
AcDbEntity
  8
0
100
AcDbBlockEnd
  0
BLOCK
  5
628
330
627
100
AcDbEntity
  8
0
100
AcDbBlockBegin
  2
_FILLED
 70
     0
 10
0.0
 20
0.0
 30
0.0
  3
_FILLED
  1

  0
SOLID
  5
629
330
627
100
AcDbEntity
  8
0
  6
ByBlock
 62
     0
100
AcDbTrace
 10
0.0
 20
0.0
 30
0.0
 11
-1.0
 21
0.125
 31
0.0
 12
-1.0
 22
-0.125
 32
0.0
 13
-1.0
 23
-0.125
 33
0.0
  0
ENDBLK
  5
62A
330
627
100
AcDbEntity
  8
0
  6
ByBlock
 62
     0
100
AcDbBlockEnd
  0
BLOCK
  5
8B3
330
8B2
100
AcDbEntity
  8
0
100
AcDbBlockBegin
  2
_None
 70
     0
 10
0.0
 20
0.0
 30
0.0
  3
_None
  1

  0
ENDBLK
  5
8B4
330
8B2
100
AcDbEntity
  8
0
100
AcDbBlockEnd
  0
BLOCK
  5
AD0
330
ACF
100
AcDbEntity
  8
0
100
AcDbBlockBegin
  2
ACO_A3
 70
     0
 10
0.0
 20
0.0
 30
0.0
  3
ACO_A3
  1

  0
LINE
  5
AD1
330
ACF
100
AcDbEntity
  8
RAHM2
100
AcDbLine
 10
420.0
 20
297.0
 30
0.0
 11
419.9999999999999
 21
0.0
 31
0.0
  0
LINE
  5
AD2
330
ACF
100
AcDbEntity
  8
RAHM2
100
AcDbLine
 10
230.0
 20
5.00000000000005
 30
0.0
 11
230.0
 21
0.0000000000000233
 31
0.0
  0
LINE
  5
AD3
330
ACF
100
AcDbEntity
  8
RAHM2
100
AcDbLine
 10
157.12
 20
10.00000000000003
 30
0.0
 11
9.999999999999943
 21
10.00000000000005
 31
0.0
  0
TEXT
  5
AD4
330
ACF
100
AcDbEntity
  8
RAHM2
100
AcDbText
 10
411.0
 20
262.0
 30
0.0
 40
4.0
  1
A
100
AcDbText
  0
TEXT
  5
AD5
330
ACF
100
AcDbEntity
  8
RAHM2
100
AcDbText
 10
411.0
 20
216.0
 30
0.0
 40
4.0
  1
B
100
AcDbText
  0
TEXT
  5
AD6
330
ACF
100
AcDbEntity
  8
RAHM2
100
AcDbText
 10
411.0
 20
170.0
 30
0.0
 40
4.0
  1
C
100
AcDbText
  0
TEXT
  5
AD7
330
ACF
100
AcDbEntity
  8
RAHM2
100
AcDbText
 10
411.0
 20
123.0
 30
0.0
 40
4.0
  1
D
100
AcDbText
  0
TEXT
  5
AD8
330
ACF
100
AcDbEntity
  8
RAHM2
100
AcDbText
 10
411.0
 20
77.0
 30
0.0
 40
4.0
  1
E
100
AcDbText
  0
TEXT
  5
AD9
330
ACF
100
AcDbEntity
  8
RAHM2
100
AcDbText
 10
411.0
 20
31.0
 30
0.0
 40
4.0
  1
F
100
AcDbText
  0
LINE
  5
ADA
330
ACF
100
AcDbEntity
  8
RAHM2
100
AcDbLine
 10
415.0
 20
240.83
 30
0.0
 11
410.0
 21
240.83
 31
0.0
  0
LINE
  5
ADB
330
ACF
100
AcDbEntity
  8
RAHM2
100
AcDbLine
 10
415.0
 20
194.664
 30
0.0
 11
410.0
 21
194.664
 31
0.0
  0
LINE
  5
ADC
330
ACF
100
AcDbEntity
  8
RAHM2
100
AcDbLine
 10
415.0
 20
148.498
 30
0.0
 11
410.0
 21
148.498
 31
0.0
  0
LINE
  5
ADD
330
ACF
100
AcDbEntity
  8
RAHM2
100
AcDbLine
 10
415.0
 20
102.332
 30
0.0
 11
410.0
 21
102.332
 31
0.0
  0
LINE
  5
ADE
330
ACF
100
AcDbEntity
  8
RAHM2
100
AcDbLine
 10
415.0
 20
56.166
 30
0.0
 11
410.0
 21
56.166
 31
0.0
  0
LINE
  5
ADF
330
ACF
100
AcDbEntity
  8
RAHM2
100
AcDbLine
 10
60.0
 20
291.9999999999999
 30
0.0
 11
60.0
 21
287.0
 31
0.0
  0
LINE
  5
AE0
330
ACF
100
AcDbEntity
  8
RAHM2
100
AcDbLine
 10
110.0
 20
291.9999999999999
 30
0.0
 11
110.0
 21
287.0
 31
0.0
  0
LINE
  5
AE1
330
ACF
100
AcDbEntity
  8
RAHM2
100
AcDbLine
 10
160.0
 20
291.9999999999999
 30
0.0
 11
160.0
 21
287.0
 31
0.0
  0
LINE
  5
AE2
330
ACF
100
AcDbEntity
  8
RAHM2
100
AcDbLine
 10
210.0
 20
291.9999999999999
 30
0.0
 11
210.0
 21
287.0
 31
0.0
  0
LINE
  5
AE3
330
ACF
100
AcDbEntity
  8
RAHM2
100
AcDbLine
 10
260.0
 20
291.9999999999999
 30
0.0
 11
260.0
 21
287.0
 31
0.0
  0
LINE
  5
AE4
330
ACF
100
AcDbEntity
  8
RAHM2
100
AcDbLine
 10
310.0
 20
291.9999999999999
 30
0.0
 11
310.0
 21
287.0
 31
0.0
  0
LINE
  5
AE5
330
ACF
100
AcDbEntity
  8
RAHM2
100
AcDbLine
 10
360.0
 20
291.9999999999999
 30
0.0
 11
360.0
 21
287.0
 31
0.0
  0
TEXT
  5
AE6
330
ACF
100
AcDbEntity
  8
RAHM2
100
AcDbText
 10
384.0
 20
287.5
 30
0.0
 40
4.0
  1
8
100
AcDbText
  0
TEXT
  5
AE7
330
ACF
100
AcDbEntity
  8
RAHM2
100
AcDbText
 10
334.0
 20
287.5
 30
0.0
 40
4.0
  1
7
100
AcDbText
  0
TEXT
  5
AE8
330
ACF
100
AcDbEntity
  8
RAHM2
100
AcDbText
 10
284.0
 20
287.5
 30
0.0
 40
4.0
  1
6
100
AcDbText
  0
TEXT
  5
AE9
330
ACF
100
AcDbEntity
  8
RAHM2
100
AcDbText
 10
233.5
 20
287.5
 30
0.0
 40
4.0
  1
5
100
AcDbText
  0
TEXT
  5
AEA
330
ACF
100
AcDbEntity
  8
RAHM2
100
AcDbText
 10
183.5
 20
287.5
 30
0.0
 40
4.0
  1
4
100
AcDbText
  0
TEXT
  5
AEB
330
ACF
100
AcDbEntity
  8
RAHM2
100
AcDbText
 10
133.5
 20
287.5
 30
0.0
 40
4.0
  1
3
100
AcDbText
  0
TEXT
  5
AEC
330
ACF
100
AcDbEntity
  8
RAHM2
100
AcDbText
 10
83.49999999999999
 20
287.5
 30
0.0
 40
4.0
  1
2
100
AcDbText
  0
TEXT
  5
AED
330
ACF
100
AcDbEntity
  8
RAHM2
100
AcDbText
 10
33.5
 20
287.5
 30
0.0
 40
4.0
  1
1
100
AcDbText
  0
TEXT
  5
AEE
330
ACF
100
AcDbEntity
  8
RAHM2
100
AcDbText
 10
33.5
 20
5.5
 30
0.0
 40
4.0
  1
1
100
AcDbText
  0
TEXT
  5
AEF
330
ACF
100
AcDbEntity
  8
RAHM2
100
AcDbText
 10
83.49999999999999
 20
5.5
 30
0.0
 40
4.0
  1
2
100
AcDbText
  0
TEXT
  5
AF0
330
ACF
100
AcDbEntity
  8
RAHM2
100
AcDbText
 10
133.5
 20
5.5
 30
0.0
 40
4.0
  1
3
100
AcDbText
  0
TEXT
  5
AF1
330
ACF
100
AcDbEntity
  8
RAHM2
100
AcDbText
 10
6.0
 20
262.0
 30
0.0
 40
4.0
  1
A
100
AcDbText
  0
TEXT
  5
AF2
330
ACF
100
AcDbEntity
  8
RAHM2
100
AcDbText
 10
6.0
 20
216.0
 30
0.0
 40
4.0
  1
B
100
AcDbText
  0
TEXT
  5
AF3
330
ACF
100
AcDbEntity
  8
RAHM2
100
AcDbText
 10
6.0
 20
170.0
 30
0.0
 40
4.0
  1
C
100
AcDbText
  0
TEXT
  5
AF4
330
ACF
100
AcDbEntity
  8
RAHM2
100
AcDbText
 10
6.0
 20
123.0
 30
0.0
 40
4.0
  1
D
100
AcDbText
  0
TEXT
  5
AF5
330
ACF
100
AcDbEntity
  8
RAHM2
100
AcDbText
 10
6.0
 20
77.0
 30
0.0
 40
4.0
  1
E
100
AcDbText
  0
TEXT
  5
AF6
330
ACF
100
AcDbEntity
  8
RAHM2
100
AcDbText
 10
6.0
 20
31.0
 30
0.0
 40
4.0
  1
F
100
AcDbText
  0
LINE
  5
AF7
330
ACF
100
AcDbEntity
  8
RAHM2
100
AcDbLine
 10
110.0
 20
10.0
 30
0.0
 11
110.0
 21
5.0
 31
0.0
  0
LINE
  5
AF8
330
ACF
100
AcDbEntity
  8
RAHM2
100
AcDbLine
 10
60.0
 20
10.0
 30
0.0
 11
60.0
 21
5.0
 31
0.0
  0
LINE
  5
AF9
330
ACF
100
AcDbEntity
  8
RAHM2
100
AcDbLine
 10
10.0
 20
240.83
 30
0.0
 11
5.0
 21
240.83
 31
0.0
  0
LINE
  5
AFA
330
ACF
100
AcDbEntity
  8
RAHM2
100
AcDbLine
 10
10.0
 20
194.664
 30
0.0
 11
5.0
 21
194.664
 31
0.0
  0
LINE
  5
AFB
330
ACF
100
AcDbEntity
  8
RAHM2
100
AcDbLine
 10
10.0
 20
148.498
 30
0.0
 11
5.0
 21
148.498
 31
0.0
  0
LINE
  5
AFC
330
ACF
100
AcDbEntity
  8
RAHM2
100
AcDbLine
 10
10.0
 20
102.332
 30
0.0
 11
5.0
 21
102.332
 31
0.0
  0
LINE
  5
AFD
330
ACF
100
AcDbEntity
  8
RAHM2
100
AcDbLine
 10
10.0
 20
56.166
 30
0.0
 11
5.0
 21
56.166
 31
0.0
  0
LINE
  5
AFE
330
ACF
100
AcDbEntity
  8
RAHM2
100
AcDbLine
 10
410.0
 20
287.0
 30
0.0
 11
409.9999999999999
 21
5.0
 31
0.0
  0
LINE
  5
AFF
330
ACF
100
AcDbEntity
  8
RAHM2
100
AcDbLine
 10
10.00000000000001
 20
287.0
 30
0.0
 11
410.0
 21
287.0
 31
0.0
  0
LINE
  5
B00
330
ACF
100
AcDbEntity
  8
RAHM2
100
AcDbLine
 10
10.0
 20
10.0
 30
0.0
 11
10.00000000000001
 21
287.0
 31
0.0
  0
LINE
  5
B01
330
ACF
100
AcDbEntity
  8
0
100
AcDbLine
 10
414.9999999999999
 20
5.0
 30
0.0
 11
4.999999999999943
 21
5.00000000000005
 31
0.0
  0
LINE
  5
B02
330
ACF
100
AcDbEntity
  8
0
100
AcDbLine
 10
415.0
 20
292.0
 30
0.0
 11
414.9999999999999
 21
5.0
 31
0.0
  0
LINE
  5
B03
330
ACF
100
AcDbEntity
  8
0
100
AcDbLine
 10
5.000000000000017
 20
292.0
 30
0.0
 11
415.0
 21
292.0
 31
0.0
  0
LINE
  5
B04
330
ACF
100
AcDbEntity
  8
RAHM2
100
AcDbLine
 10
0.0000000000000182
 20
297.0
 30
0.0
 11
420.0
 21
297.0
 31
0.0
  0
LINE
  5
B05
330
ACF
100
AcDbEntity
  8
RAHM2
100
AcDbLine
 10
0.0
 20
0.0
 30
0.0
 11
0.0000000000000182
 21
297.0
 31
0.0
  0
LINE
  5
B06
330
ACF
100
AcDbEntity
  8
RAHM2
100
AcDbLine
 10
125.0
 20
0.0000000000000514
 30
0.0
 11
125.0
 21
5.000000000000035
 31
0.0
  0
TEXT
  5
B07
330
ACF
100
AcDbEntity
  8
0
 60
     1
100
AcDbText
 10
420.0
 20
297.0
 30
0.0
 40
2.0
  1
!GENTITLE-MAX
100
AcDbText
  0
TEXT
  5
B08
330
ACF
100
AcDbEntity
  8
0
 60
     1
100
AcDbText
 10
410.0
 20
287.0
 30
0.0
 40
2.0
  1
!GENTITLE-RU
100
AcDbText
  0
TEXT
  5
B09
330
ACF
100
AcDbEntity
  8
0
 60
     1
100
AcDbText
 10
409.9999999999999
 20
5.0
 30
0.0
 40
2.0
  1
!GENTITLE-INSERT
100
AcDbText
  0
TEXT
  5
B0A
330
ACF
100
AcDbEntity
  8
0
 60
     1
100
AcDbText
 10
10.0
 20
10.00000000000005
 30
0.0
 40
2.0
  1
!GENTITLE-LL
100
AcDbText
  0
LINE
  5
B0B
330
ACF
100
AcDbEntity
  8
0
100
AcDbLine
 10
5.0
 20
5.0
 30
0.0
 11
5.000000000000017
 21
292.0
 31
0.0
  0
LINE
  5
B0C
330
ACF
100
AcDbEntity
  8
RAHM2
100
AcDbLine
 10
419.9999999999999
 20
0.0
 30
0.0
 11
-0.0000000000000568
 21
0.0000000000000514
 31
0.0
1001
GENIUS_VERSION2
1070
     2
  0
MTEXT
  5
B0D
330
ACF
100
AcDbEntity
  8
RAHM2
100
AcDbMText
 10
200.9022607207866
 20
9.282855530033319
 30
0.0
 40
2.5
 41
51.25
 46
0.0
 71
     5
 72
     5
  1
{\f@Arial Unicode MS|b0|i0|c0|p34;\W0.9;ACO Passavant GmbH\f@Arial Unicode MS|b0|i1|c0|p34;\P\Fgeniso|c0;\H0.72x;\W1;Schutzvermerk nach DIN 34}
 73
     1
 44
1.0
  0
LWPOLYLINE
  5
B0E
330
ACF
100
AcDbEntity
  8
RAHM2
100
AcDbPolyline
 90
        4
 70
     1
 43
0.0
 10
227.1200012618346
 20
4.999999363303718
 10
157.1200012618346
 20
4.999999363303718
 10
157.1200012618346
 20
13.49999936330372
 10
227.1200012618346
 20
13.49999936330371
1001
GENIUS_GENREC_14
1002
{
1000
PXDIR
1011
157.1200012618346
1021
4.999999363303718
1031
0.0
1002
}
1002
{
1000
PORI
1011
227.1200012618346
1021
4.999999363303718
1031
0.0
1002
}
1002
{
1000
PINS
1011
227.1200012618346
1021
4.999999363303718
1031
0.0
1002
}
1002
{
1000
HVAL
1000
8.5
1002
}
1002
{
1000
H
1070
     2
1002
}
1002
{
1000
WVAL
1000
-70
1002
}
1002
{
1000
W
1070
     2
1002
}
1002
{
1000
C
1070
     1
1002
}
1001
GENIUS_GENODEF_13
1002
{
1000
HIER
1070
     0
1002
}
1002
{
1000
MANEDIT
1070
     0
1002
}
1002
{
1000
NOSEL
1070
     0
1002
}
1002
{
1000
BEHIND
1070
     0
1002
}
1002
{
1000
REACTOR
1002
}
1001
GENIUS_GENOBJ-N-REC_13
1002
{
1000
OWNER
1000
GEN
1002
}
  0
MTEXT
  5
B0F
330
ACF
100
AcDbEntity
  8
RAHM2
100
AcDbMText
 10
158.8183538069352
 20
12.32474664768888
 30
0.0
 40
3.5
 41
4.301759591192151
 46
0.0
 71
     1
 72
     5
  1
\fArial|b0|i0|c0|p32;©
 73
     1
 44
1.0
  0
MTEXT
  5
B10
330
ACF
100
AcDbEntity
  8
RAHM2
100
AcDbMText
 10
165.5515431528593
 20
11.24554752031341
 30
0.0
 40
2.0
 41
5.5175
 46
0.0
 71
     1
 72
     5
  1
2004
 73
     1
 44
1.0
  0
ENDBLK
  5
B11
330
ACF
100
AcDbEntity
  8
0
100
AcDbBlockEnd
  0
BLOCK
  5
B14
330
B12
100
AcDbEntity
  8
0
100
AcDbBlockBegin
  2
ACO-SF02-GR
 70
     2
 10
0.0
 20
0.0
 30
0.0
  3
ACO-SF02-GR
  1

  0
LINE
  5
B15
330
B12
100
AcDbEntity
  8
KOPF
 62
    12
100
AcDbLine
 10
0.0
 20
5.0
 30
0.0
 11
-83.0
 21
5.0
 31
0.0
  0
LWPOLYLINE
  5
B16
330
B12
100
AcDbEntity
  8
KOPF
 62
    12
100
AcDbPolyline
 90
        2
 70
     0
 43
0.5
 10
-83.0
 20
10.0
 10
0.0
 20
10.0
  0
LINE
  5
B17
330
B12
100
AcDbEntity
  8
KOPF
100
AcDbLine
 10
-83.0
 20
10.0
 30
0.0
 11
0.0
 21
10.0
 31
0.0
  0
LINE
  5
B18
330
B12
100
AcDbEntity
  8
KOPF
100
AcDbLine
 10
0.0
 20
5.0
 30
0.0
 11
-83.0
 21
5.0
 31
0.0
  0
LWPOLYLINE
  5
B19
330
B12
100
AcDbEntity
  8
KOPF
 62
    12
100
AcDbPolyline
 90
        2
 70
     0
 43
0.5
 10
0.0
 20
68.49999999999997
 10
-182.0
 20
68.49999999999997
  0
LWPOLYLINE
  5
B1A
330
B12
100
AcDbEntity
  8
KOPF
 62
    12
100
AcDbPolyline
 90
        2
 70
     0
 43
0.5
 10
0.0
 20
46.99999999999997
 10
-182.0
 20
46.99999999999997
  0
LWPOLYLINE
  5
B1B
330
B12
100
AcDbEntity
  8
KOPF
 62
    12
100
AcDbPolyline
 90
        2
 70
     0
 43
0.5
 10
-0.2154115848244373
 20
27.23910754630094
 10
-182.1882840408789
 20
27.23910754630094
  0
LINE
  5
B1C
330
B12
100
AcDbEntity
  8
KOPF
 62
    12
100
AcDbLine
 10
0.0
 20
88.49999999999996
 30
0.0
 11
-182.0
 21
88.49999999999996
 31
0.0
  0
LINE
  5
B1D
330
B12
100
AcDbEntity
  8
KOPF
 62
    12
100
AcDbLine
 10
-182.0
 20
83.49999999999997
 30
0.0
 11
0.0
 21
83.49999999999997
 31
0.0
  0
LINE
  5
B1E
330
B12
100
AcDbEntity
  8
KOPF
 62
    12
100
AcDbLine
 10
0.0
 20
73.49999999999997
 30
0.0
 11
-182.0
 21
73.49999999999997
 31
0.0
  0
LINE
  5
B1F
330
B12
100
AcDbEntity
  8
KOPF
 62
    12
100
AcDbLine
 10
-162.682677
 20
78.49999999999997
 30
0.0
 11
0.0
 21
78.49999999999997
 31
0.0
  0
LINE
  5
B20
330
B12
100
AcDbEntity
  8
KOPF
100
AcDbLine
 10
0.0
 20
68.49999999999997
 30
0.0
 11
-182.0
 21
68.49999999999997
 31
0.0
  0
LINE
  5
B21
330
B12
100
AcDbEntity
  8
KOPF
100
AcDbLine
 10
0.0
 20
88.49999999999996
 30
0.0
 11
-182.0
 21
88.49999999999996
 31
0.0
  0
LINE
  5
B22
330
B12
100
AcDbEntity
  8
KOPF
100
AcDbLine
 10
-182.0
 20
83.49999999999997
 30
0.0
 11
0.0
 21
83.49999999999997
 31
0.0
  0
LINE
  5
B23
330
B12
100
AcDbEntity
  8
KOPF
100
AcDbLine
 10
0.0
 20
73.49999999999997
 30
0.0
 11
-182.0
 21
73.49999999999997
 31
0.0
  0
LINE
  5
B24
330
B12
100
AcDbEntity
  8
KOPF
100
AcDbLine
 10
-162.682677
 20
78.49999999999997
 30
0.0
 11
0.0
 21
78.49999999999997
 31
0.0
  0
LINE
  5
B25
330
B12
100
AcDbEntity
  8
KOPF
 62
    12
100
AcDbLine
 10
-182.0
 20
57.74999999999997
 30
0.0
 11
-100.0
 21
57.74999999999997
 31
0.0
  0
LINE
  5
B26
330
B12
100
AcDbEntity
  8
KOPF
 62
    12
100
AcDbLine
 10
-182.0
 20
41.99999999999996
 30
0.0
 11
-113.4
 21
41.99999999999996
 31
0.0
  0
LINE
  5
B27
330
B12
100
AcDbEntity
  8
KOPF
100
AcDbLine
 10
-182.0
 20
57.74999999999997
 30
0.0
 11
-100.0
 21
57.74999999999997
 31
0.0
  0
LINE
  5
B28
330
B12
100
AcDbEntity
  8
KOPF
100
AcDbLine
 10
-182.0
 20
41.99999999999996
 30
0.0
 11
-113.4
 21
41.99999999999996
 31
0.0
  0
LINE
  5
B29
330
B12
100
AcDbEntity
  8
KOPF
 62
    12
100
AcDbLine
 10
-142.0
 20
68.49999999999997
 30
0.0
 11
-142.0
 21
46.99999999999997
 31
0.0
  0
LINE
  5
B2A
330
B12
100
AcDbEntity
  8
KOPF
 62
    12
100
AcDbLine
 10
-142.0
 20
68.49999999999997
 30
0.0
 11
-142.0
 21
46.99999999999997
 31
0.0
  0
ATTDEF
  5
B2B
330
B12
100
AcDbEntity
  8
TEXT35
100
AcDbText
 10
-140.2
 20
49.4
 30
0.0
 40
3.5
  1

 41
0.8
  7
TEXT35
100
AcDbAttributeDefinition
280
     0
  3
Oberfläche:
  2
F63
 70
     0
280
     0
  0
LWPOLYLINE
  5
B2C
330
B12
100
AcDbEntity
  8
KOPF
 62
    12
100
AcDbPolyline
 90
        2
 70
     0
 43
0.7
 10
-182.0
 20
103.4999999999999
 10
-182.0
 20
0.0
  0
LINE
  5
B2D
330
B12
100
AcDbEntity
  8
KOPF
100
AcDbLine
 10
-182.0
 20
103.4999999999999
 30
0.0
 11
-182.0
 21
0.0
 31
0.0
  0
TEXT
  5
B2E
330
B12
100
AcDbEntity
  8
KOPF
100
AcDbText
 10
-179.738589
 20
38.32439403633659
 30
0.0
 40
2.0
  1
Gezeichnet:
 41
0.8
  7
TEXT20
100
AcDbText
  0
ATTDEF
  5
B2F
330
B12
100
AcDbEntity
  8
TEXT35
100
AcDbText
 10
-176.6
 20
3.399999999999999
 30
0.0
 40
3.5
  1

 41
0.8
  7
TEXT35
100
AcDbAttributeDefinition
280
     0
  3
Z-Titel 3
  2
F13
 70
     0
280
     0
  0
ATTDEF
  5
B30
330
B12
100
AcDbEntity
  8
TEXT50
100
AcDbText
 10
-176.6
 20
10.63250279796295
 30
0.0
 40
5.0
  1

 41
0.8
  7
TEXT50
100
AcDbAttributeDefinition
280
     0
  3
Z-Titel 2
  2
F3
 70
     0
280
     0
  0
ATTDEF
  5
B31
330
B12
100
AcDbEntity
  8
TEXT50
100
AcDbText
 10
-176.6
 20
18.56318324460701
 30
0.0
 40
5.0
  1

 41
0.8
  7
TEXT50
100
AcDbAttributeDefinition
280
     0
  3
Z-Titel 1
  2
F2
 70
     0
280
     0
  0
TEXT
  5
B32
330
B12
100
AcDbEntity
  8
KOPF
100
AcDbText
 10
-179.738589
 20
28.52395361420514
 30
0.0
 40
2.0
  1
Update:
 41
0.8
  7
TEXT20
100
AcDbText
  0
TEXT
  5
B33
330
B12
100
AcDbEntity
  8
KOPF
100
AcDbText
 10
-179.738589
 20
33.43577642824449
 30
0.0
 40
2.0
  1
Geprüft
 41
0.8
  7
TEXT20
100
AcDbText
  0
LINE
  5
B34
330
B12
100
AcDbEntity
  8
KOPF
 62
    12
100
AcDbLine
 10
-163.0
 20
46.99999999999997
 30
0.0
 11
-163.0
 21
27.0
 31
0.0
  0
LINE
  5
B35
330
B12
100
AcDbEntity
  8
KOPF
100
AcDbLine
 10
-163.0
 20
46.99999999999997
 30
0.0
 11
-163.0
 21
27.0
 31
0.0
  0
ATTDEF
  5
B36
330
B12
100
AcDbEntity
  8
TEXT25
100
AcDbText
 10
-161.5009557098303
 20
28.32091209119023
 30
0.0
 40
2.0
  1

 41
0.8
  7
TEXT20
100
AcDbAttributeDefinition
280
     0
  3
Update am:
  2
F53
 70
     0
280
     0
  0
ATTDEF
  5
B37
330
B12
100
AcDbEntity
  8
TEXT25
100
AcDbText
 10
-161.5539333606331
 20
33.12227989587696
 30
0.0
 40
2.0
  1

 41
0.8
  7
TEXT20
100
AcDbAttributeDefinition
280
     0
  3
Geprüft am:
  2
F22
 70
     0
280
     0
  0
ATTDEF
  5
B38
330
B12
100
AcDbEntity
  8
TEXT25
100
AcDbText
 10
-161.5207141482394
 20
38.33983936444393
 30
0.0
 40
2.0
  1

 41
0.8
  7
TEXT20
100
AcDbAttributeDefinition
280
     0
  3
Gezeichnet am:
  2
F9
 70
     0
280
     0
  0
TEXT
  5
B39
330
B12
100
AcDbEntity
  8
KOPF
100
AcDbText
 10
-155.964455
 20
43.13467299999999
 30
0.0
 40
2.0
  1
Datum
 41
0.8
  7
TEXT20
100
AcDbText
  0
LINE
  5
B3A
330
B12
100
AcDbEntity
  8
KOPF
 62
    12
100
AcDbLine
 10
-138.4
 20
46.99999999999997
 30
0.0
 11
-138.4
 21
27.0
 31
0.0
  0
LINE
  5
B3B
330
B12
100
AcDbEntity
  8
KOPF
100
AcDbLine
 10
-138.4
 20
46.99999999999997
 30
0.0
 11
-138.4
 21
27.0
 31
0.0
  0
TEXT
  5
B3C
330
B12
100
AcDbEntity
  8
KOPF
100
AcDbText
 10
-130.065072
 20
43.14125800000002
 30
0.0
 40
2.0
  1
Name
 41
0.8
  7
TEXT20
100
AcDbText
  0
ATTDEF
  5
B3D
330
B12
100
AcDbEntity
  8
TEXT25
100
AcDbText
 10
-136.2746977811447
 20
33.28471223400234
 30
0.0
 40
2.0
  1

 41
0.8
  7
TEXT20
100
AcDbAttributeDefinition
280
     0
  3
Geprüft von:
  2
F21
 70
     0
280
     0
  0
ATTDEF
  5
B3E
330
B12
100
AcDbEntity
  8
TEXT25
100
AcDbText
 10
-136.3996291720711
 20
28.23101841142455
 30
0.0
 40
2.0
  1

 41
0.8
  7
TEXT20
100
AcDbAttributeDefinition
280
     0
  3
Update von:
  2
F52
 70
     0
280
     0
  0
ATTDEF
  5
B3F
330
B12
100
AcDbEntity
  8
TEXT25
100
AcDbText
 10
-136.1922113552417
 20
38.48172579575253
 30
0.0
 40
2.0
  1

 41
0.8
  7
TEXT20
100
AcDbAttributeDefinition
280
     0
  3
Gezeichnet von
  2
F8
 70
     0
280
     0
  0
TEXT
  5
B40
330
B12
100
AcDbEntity
  8
KOPF
100
AcDbText
 10
-174.6925639999999
 20
69.53813999999997
 30
0.0
 40
2.0
  1
Index
 41
0.8
  7
TEXT20
100
AcDbText
  0
LINE
  5
B41
330
B12
100
AcDbEntity
  8
KOPF
100
AcDbLine
 10
-182.0
 20
78.49999999999997
 30
0.0
 11
-162.682677
 21
78.49999999999997
 31
0.0
  0
LINE
  5
B42
330
B12
100
AcDbEntity
  8
KOPF
100
AcDbLine
 10
-182.0
 20
78.49999999999997
 30
0.0
 11
-162.682677
 21
78.49999999999997
 31
0.0
  0
TEXT
  5
B43
330
B12
100
AcDbEntity
  8
KOPF
100
AcDbText
 10
-180.0
 20
65.166273
 30
0.0
 40
2.0
  1
Werkstoff:
 41
0.8
  7
TEXT20
100
AcDbText
  0
TEXT
  5
B44
330
B12
100
AcDbEntity
  8
KOPF
100
AcDbText
 10
-181.0
 20
54.49999999999997
 30
0.0
 40
2.0
  1
zul. Abweich.:
 41
0.8
  7
TEXT20
100
AcDbText
  0
ATTDEF
  5
B45
330
B12
100
AcDbEntity
  8
TEXT35
100
AcDbText
 10
-179.7
 20
59.6
 30
0.0
 40
3.5
  1

 41
0.8
  7
TEXT35
100
AcDbAttributeDefinition
280
     0
  3
Werkstoff:
  2
F61
 70
     0
280
     0
  0
ATTDEF
  5
B46
330
B12
100
AcDbEntity
  8
TEXT35
100
AcDbText
 10
-179.7
 20
49.7
 30
0.0
 40
3.5
  1

 41
0.8
  7
TEXT35
100
AcDbAttributeDefinition
280
     0
  3
zul. Abweichung
  2
F62
 70
     0
280
     0
  0
ATTDEF
  5
B47
330
B12
100
AcDbEntity
  8
TEXT25
100
AcDbText
 10
-174.360415155955
 20
74.59999999999999
 30
0.0
 40
2.0
  1

 41
0.8
  7
TEXT20
100
AcDbAttributeDefinition
280
     0
  3
Index vv.:
  2
F72
 70
     0
280
     0
  0
ATTDEF
  5
B48
330
B12
100
AcDbEntity
  8
TEXT25
100
AcDbText
 10
-174.4435409453564
 20
79.47378932523601
 30
0.0
 40
2.0
  1

 41
0.8
  7
TEXT20
100
AcDbAttributeDefinition
280
     0
  3
Index v.:
  2
F68
 70
     0
280
     0
  0
ATTDEF
  5
B49
330
B12
100
AcDbEntity
  8
TEXT25
100
AcDbText
 10
-174.3700408782365
 20
84.63034186138365
 30
0.0
 40
2.0
  1

 41
0.8
  7
TEXT20
100
AcDbAttributeDefinition
280
     0
  3
Index l.:
  2
F64
 70
     0
280
     0
  0
LINE
  5
B4A
330
B12
100
AcDbEntity
  8
KOPF
100
AcDbLine
 10
-162.682677
 20
88.49999999999996
 30
0.0
 11
-162.682677
 21
68.49999999999997
 31
0.0
  0
LINE
  5
B4B
330
B12
100
AcDbEntity
  8
KOPF
100
AcDbLine
 10
-162.682677
 20
88.49999999999996
 30
0.0
 11
-162.682677
 21
68.49999999999997
 31
0.0
  0
TEXT
  5
B4C
330
B12
100
AcDbEntity
  8
KOPF
100
AcDbText
 10
-156.706568
 20
69.53813999999997
 30
0.0
 40
2.0
  1
Datum
 41
0.8
  7
TEXT20
100
AcDbText
  0
ATTDEF
  5
B4D
330
B12
100
AcDbEntity
  8
TEXT25
100
AcDbText
 10
-160.9
 20
75.09999999999999
 30
0.0
 40
2.0
  1

 41
0.8
  7
TEXT20
100
AcDbAttributeDefinition
280
     0
  3
Datum vv.:
  2
F73
 70
     0
280
     0
  0
ATTDEF
  5
B4E
330
B12
100
AcDbEntity
  8
TEXT25
100
AcDbText
 10
-160.9
 20
79.40000000000001
 30
0.0
 40
2.0
  1

 41
0.8
  7
TEXT20
100
AcDbAttributeDefinition
280
     0
  3
Datum v.:
  2
F69
 70
     0
280
     0
  0
ATTDEF
  5
B4F
330
B12
100
AcDbEntity
  8
TEXT25
100
AcDbText
 10
-160.6
 20
84.50000000000001
 30
0.0
 40
2.0
  1

 41
0.8
  7
TEXT20
100
AcDbAttributeDefinition
280
     0
  3
Datum l.:
  2
F65
 70
     0
280
     0
  0
LINE
  5
B50
330
B12
100
AcDbEntity
  8
KOPF
 62
    12
100
AcDbLine
 10
-142.0
 20
68.49999999999997
 30
0.0
 11
-142.0
 21
88.49999999999996
 31
0.0
  0
LINE
  5
B51
330
B12
100
AcDbEntity
  8
KOPF
100
AcDbLine
 10
-142.0
 20
68.49999999999997
 30
0.0
 11
-142.0
 21
88.49999999999996
 31
0.0
  0
ATTDEF
  5
B52
330
B12
100
AcDbEntity
  8
TEXT35
100
AcDbText
 10
-139.9
 20
59.29999999999999
 30
0.0
 40
3.5
  1

 41
0.8
  7
TEXT35
100
AcDbAttributeDefinition
280
     0
  3
Gewicht:
  2
F60
 70
     0
280
     0
  0
TEXT
  5
B53
330
B12
100
AcDbEntity
  8
KOPF
100
AcDbText
 10
-140.387393
 20
54.54752599999996
 30
0.0
 40
2.0
  1
Oberfläche
 41
0.8
  7
TEXT20
100
AcDbText
  0
TEXT
  5
B54
330
B12
100
AcDbEntity
  8
KOPF
100
AcDbText
 10
-140.1020469999999
 20
65.166273
 30
0.0
 40
2.0
  1
Gewicht:
 41
0.8
  7
TEXT20
100
AcDbText
  0
TEXT
  5
B55
330
B12
100
AcDbEntity
  8
KOPF
100
AcDbText
 10
-140.1020469999999
 20
65.166273
 30
0.0
 40
2.0
  1
Gewicht:
 41
0.8
  7
TEXT20
100
AcDbText
  0
ATTDEF
  5
B56
330
B12
100
AcDbEntity
  8
TEXT25
100
AcDbText
 10
-140.4
 20
74.59999999999999
 30
0.0
 40
2.0
  1

 41
0.8
  7
TEXT20
100
AcDbAttributeDefinition
280
     0
  3
Bennenung vv.:
  2
F74
 70
     0
280
     0
  0
ATTDEF
  5
B57
330
B12
100
AcDbEntity
  8
TEXT25
100
AcDbText
 10
-140.5063960262479
 20
79.64480359078786
 30
0.0
 40
2.0
  1

 41
0.8
  7
TEXT20
100
AcDbAttributeDefinition
280
     0
  3
Benennung v.:
  2
F70
 70
     0
280
     0
  0
ATTDEF
  5
B58
330
B12
100
AcDbEntity
  8
TEXT25
100
AcDbText
 10
-140.390233442385
 20
84.56120109651198
 30
0.0
 40
2.0
  1

 41
0.8
  7
TEXT20
100
AcDbAttributeDefinition
280
     0
  3
Bennenung l.:
  2
F66
 70
     0
280
     0
  0
LINE
  5
B59
330
B12
100
AcDbEntity
  8
KOPF
 62
    12
100
AcDbLine
 10
-100.0
 20
68.49999999999997
 30
0.0
 11
-100.0
 21
46.99999999999997
 31
0.0
  0
LWPOLYLINE
  5
B5A
330
B12
100
AcDbEntity
  8
KOPF
 62
    12
100
AcDbPolyline
 90
        2
 70
     0
 43
0.5
 10
-83.0
 20
46.99999999999997
 10
-83.0
 20
0.0
  0
LINE
  5
B5B
330
B12
100
AcDbEntity
  8
KOPF
100
AcDbLine
 10
-83.0
 20
46.99999999999997
 30
0.0
 11
-83.0
 21
0.0
 31
0.0
  0
TEXT
  5
B5C
330
B12
100
AcDbEntity
  8
KOPF
100
AcDbText
 10
-81.0
 20
1.714285999999985
 30
0.0
 40
2.0
  1
Ersetzt durch:
 41
0.8
  7
TEXT20
100
AcDbText
  0
LINE
  5
B5D
330
B12
100
AcDbEntity
  8
KOPF
 62
    12
100
AcDbLine
 10
-113.4
 20
27.0
 30
0.0
 11
-113.4
 21
46.99999999999997
 31
0.0
  0
LWPOLYLINE
  5
B5E
330
B12
100
AcDbEntity
  8
KOPF
100
AcDbPolyline
 90
        2
 70
     0
 43
0.5
 10
-113.4
 20
27.0
 10
-113.4
 20
46.99999999999997
  0
LINE
  5
B5F
330
B12
100
AcDbEntity
  8
KOPF
100
AcDbLine
 10
-113.4
 20
27.0
 30
0.0
 11
-113.4
 21
46.99999999999997
 31
0.0
  0
LINE
  5
B60
330
B12
100
AcDbEntity
  8
KOPF
100
AcDbLine
 10
-113.4
 20
27.0
 30
0.0
 11
-113.4
 21
46.99999999999997
 31
0.0
  0
ATTDEF
  5
B61
330
B12
100
AcDbEntity
  8
TEXT35
100
AcDbText
 10
-104.4935632823758
 20
33.13408015176805
 30
0.0
 40
3.5
  1

 41
0.8
  7
TEXT35
100
AcDbAttributeDefinition
280
     0
  3
Maßstab 2:
  2
F54
 70
     0
280
     0
  0
ATTDEF
  5
B62
330
B12
100
AcDbEntity
  8
TEXT35
100
AcDbText
 10
-104.487948258847
 20
28.6
 30
0.0
 40
3.5
  1

 41
0.8
  7
TEXT35
100
AcDbAttributeDefinition
280
     0
  3
Maßstab 3:
  2
F55
 70
     0
280
     0
  0
ATTDEF
  5
B63
330
B12
100
AcDbEntity
  8
TEXT50
100
AcDbText
 10
-106.6
 20
37.8
 30
0.0
 40
5.0
  1

 41
0.8
  7
TEXT50
100
AcDbAttributeDefinition
280
     0
  3
Maßstab 1:
  2
F25
 70
     0
280
     0
  0
TEXT
  5
B64
330
B12
100
AcDbEntity
  8
KOPF
100
AcDbText
 10
-112.263457
 20
43.88678899999999
 30
0.0
 40
2.0
  1
Massstab:
 41
0.8
  7
TEXT20
100
AcDbText
  0
LINE
  5
B65
330
B12
100
AcDbEntity
  8
KOPF
 62
    12
100
AcDbLine
 10
-57.80813400000011
 20
27.0
 30
0.0
 11
-57.80813400000011
 21
46.99999999999997
 31
0.0
  0
LINE
  5
B66
330
B12
100
AcDbEntity
  8
KOPF
100
AcDbLine
 10
-57.80813400000011
 20
27.0
 30
0.0
 11
-57.80813400000011
 21
46.99999999999997
 31
0.0
  0
TEXT
  5
B67
330
B12
100
AcDbEntity
  8
KOPF
100
AcDbText
 10
-81.59296000000006
 20
23.69783599999999
 30
0.0
 40
2.0
  1
Zeichnung Nr.:
 41
0.8
  7
TEXT20
100
AcDbText
  0
TEXT
  5
B68
330
B12
100
AcDbEntity
  8
KOPF
100
AcDbText
 10
-81.00375700000006
 20
5.924711999999997
 30
0.0
 40
2.0
  1
Ersatz für:
 41
0.8
  7
TEXT20
100
AcDbText
  0
TEXT
  5
B69
330
B12
100
AcDbEntity
  8
KOPF
100
AcDbText
 10
-81.59296000000006
 20
23.69783599999999
 30
0.0
 40
2.0
  1
Zeichnung Nr.:
 41
0.8
  7
TEXT20
100
AcDbText
  0
ATTDEF
  5
B6A
330
B12
100
AcDbEntity
  8
TEXT50
100
AcDbText
 10
-78.29193986361122
 20
14.50587824180555
 30
0.0
 40
5.0
  1

 41
0.8
  7
TEXT50
100
AcDbAttributeDefinition
280
     0
  3
Standart:
  2
F1
 70
     0
280
     0
  0
TEXT
  5
B6B
330
B12
100
AcDbEntity
  8
KOPF
100
AcDbText
 10
-81.48889200000008
 20
43.86057200000001
 30
0.0
 40
2.0
  1
Masseinheit:
 41
0.8
  7
TEXT20
100
AcDbText
  0
LINE
  5
B6C
330
B12
100
AcDbEntity
  8
KOPF
 62
    12
100
AcDbLine
 10
-57.80813400000011
 20
36.213444
 30
0.0
 11
-83.0
 21
36.213444
 31
0.0
  0
LINE
  5
B6D
330
B12
100
AcDbEntity
  8
KOPF
100
AcDbLine
 10
-57.80813400000011
 20
36.213444
 30
0.0
 11
-83.0
 21
36.213444
 31
0.0
  0
ATTDEF
  5
B6E
330
B12
100
AcDbEntity
  8
TEXT35
100
AcDbText
 10
-79.40896486611496
 20
38.08722024605356
 30
0.0
 40
3.5
  1

 41
0.8
  7
TEXT35
100
AcDbAttributeDefinition
280
     0
  3
Maßeinheit:
  2
F56
 70
     0
280
     0
  0
TEXT
  5
B6F
330
B12
100
AcDbEntity
  8
KOPF
100
AcDbText
 10
-33.57569784693112
 20
42.62823225872138
 30
0.0
 40
1.54
  1
Diese Zeichnung darf weder kopiert
 41
0.8
  7
TEXT20
100
AcDbText
  0
TEXT
  5
B70
330
B12
100
AcDbEntity
  8
KOPF
100
AcDbText
 10
-33.57569784693112
 20
40.26106040199917
 30
0.0
 40
1.54
  1
noch dritten Personen, insbesondere
 41
0.8
  7
TEXT20
100
AcDbText
1001
GENIUS_GENTRA_14
1002
{
1070
     1
1000
/
1000
noch dritten Personen, insbesondere
1000
DEU
1070
     0
1040
0.8
1070
     0
1002
}
  0
TEXT
  5
B71
330
B12
100
AcDbEntity
  8
KOPF
100
AcDbText
 10
-33.57569784693112
 20
35.63814072439632
 30
0.0
 40
1.54
  1
mitgeteilt werden und bleibt unser
 41
0.8
  7
TEXT20
100
AcDbText
  0
TEXT
  5
B72
330
B12
100
AcDbEntity
  8
KOPF
100
AcDbText
 10
-33.57569784693112
 20
33.37532604459598
 30
0.0
 40
1.54
  1
Eigentum.
 41
0.8
  7
TEXT20
100
AcDbText
  0
TEXT
  5
B73
330
B12
100
AcDbEntity
  8
KOPF
100
AcDbText
 10
-33.57569784693112
 20
37.97994933403727
 30
0.0
 40
1.54
  1
zum Zweck anderweitiger Benutzung
 41
0.8
  7
TEXT20
100
AcDbText
  0
TEXT
  5
B74
330
B12
100
AcDbEntity
  8
KOPF
100
AcDbText
 10
-33.7904806989385
 20
30.30982488917614
 30
0.0
 40
1.54
  1
Schutzvermerk nach DIN 34 beachten
 41
0.75
  7
TEXT20
100
AcDbText
  0
LINE
  5
B75
330
B12
100
AcDbEntity
  8
KOPF
100
AcDbLine
 10
-34.94281200000012
 20
47.01203199999999
 30
0.0
 11
-34.94281200000012
 21
27.0
 31
0.0
  0
LINE
  5
B76
330
B12
100
AcDbEntity
  8
KOPF
100
AcDbLine
 10
-34.94281200000012
 20
47.01203199999999
 30
0.0
 11
-34.94281200000012
 21
27.0
 31
0.0
  0
LINE
  5
B77
330
B12
100
AcDbEntity
  8
MITTE
100
AcDbLine
 10
-45.85521401410289
 20
36.04852954632858
 30
0.0
 11
-35.23444858652556
 21
36.04852954632858
 31
0.0
  0
LINE
  5
B78
330
B12
100
AcDbEntity
  8
TEXT50
100
AcDbLine
 10
-45.05865660703466
 20
32.02559619470341
 30
0.0
 11
-36.50894043783512
 21
34.06858135367652
 31
0.0
  0
LINE
  5
B79
330
B12
100
AcDbEntity
  8
TEXT50
100
AcDbLine
 10
-36.50894043783512
 20
38.02847773898061
 30
0.0
 11
-45.05865660703466
 21
40.07146289795374
 31
0.0
  0
TEXT
  5
B7A
330
B12
100
AcDbEntity
  8
KOPF
100
AcDbText
 10
-57.12244047883302
 20
43.82431699999997
 30
0.0
 40
2.0
  1
Projektion: ISO-E
 41
0.8
  7
TEXT20
100
AcDbText
  0
LINE
  5
B7B
330
B12
100
AcDbEntity
  8
TEXT50
100
AcDbLine
 10
-45.05865660703466
 20
40.07146289795374
 30
0.0
 11
-45.05865660703466
 21
32.02559619470346
 31
0.0
  0
LINE
  5
B7C
330
B12
100
AcDbEntity
  8
MITTE
100
AcDbLine
 10
-51.4945506424383
 20
40.07146289795374
 30
0.0
 11
-51.4945506424383
 21
30.76413131482123
 31
0.0
  0
CIRCLE
  5
B7D
330
B12
100
AcDbEntity
  8
TEXT50
100
AcDbCircle
 10
-51.4945506424383
 20
36.04852954632858
 30
0.0
 40
4.022933351625178
  0
CIRCLE
  5
B7E
330
B12
100
AcDbEntity
  8
TEXT50
100
AcDbCircle
 10
-51.4945506424383
 20
36.04852954632858
 30
0.0
 40
1.979948192651899
  0
LINE
  5
B7F
330
B12
100
AcDbEntity
  8
MITTE
100
AcDbLine
 10
-56.48631039339966
 20
36.04852954632858
 30
0.0
 11
-46.50279089147699
 21
36.04852954632858
 31
0.0
  0
LINE
  5
B80
330
B12
100
AcDbEntity
  8
TEXT50
100
AcDbLine
 10
-36.50894043783512
 20
38.02847773898061
 30
0.0
 11
-36.50894043783512
 21
34.06858135367652
 31
0.0
  0
LWPOLYLINE
  5
B81
330
B12
100
AcDbEntity
  8
KOPF
 62
    12
100
AcDbPolyline
 90
        2
 70
     0
 43
0.5
 10
-12.0
 20
27.0
 10
-12.0
 20
10.0
  0
LINE
  5
B82
330
B12
100
AcDbEntity
  8
KOPF
100
AcDbLine
 10
-12.0
 20
27.0
 30
0.0
 11
-12.0
 21
10.0
 31
0.0
  0
ATTDEF
  5
B83
330
B12
100
AcDbEntity
  8
TEXT50
100
AcDbText
 10
-5.58570360403041
 20
17.00587824180555
 30
0.0
 40
5.0
  1

 41
0.8
  7
TEXT50
 72
     4
 11
-5.58570360403041
 21
17.00587824180555
 31
0.0
100
AcDbAttributeDefinition
280
     0
  3
Index:
  2
F1B
 70
     0
280
     0
  0
TEXT
  5
B84
330
B12
100
AcDbEntity
  8
KOPF
100
AcDbText
 10
-8.353129999999964
 20
23.330072
 30
0.0
 40
2.0
  1
Index
 41
0.8
  7
TEXT20
100
AcDbText
  0
TEXT
  5
B85
330
B12
100
AcDbEntity
  8
KOPF
100
AcDbText
 10
-94.40535829344497
 20
70.39773773357916
 30
0.0
 40
2.0
  1
Benennung
 41
0.8
  7
TEXT20
100
AcDbText
  0
LINE
  5
B86
330
B12
100
AcDbEntity
  8
KOPF
100
AcDbLine
 10
-15.0
 20
88.49999999999996
 30
0.0
 11
-15.0
 21
68.49999999999997
 31
0.0
  0
LINE
  5
B87
330
B12
100
AcDbEntity
  8
KOPF
100
AcDbLine
 10
-15.0
 20
88.49999999999996
 30
0.0
 11
-15.0
 21
68.49999999999997
 31
0.0
  0
TEXT
  5
B88
330
B12
100
AcDbEntity
  8
KOPF
100
AcDbText
 10
-11.65833600000008
 20
69.53813999999997
 30
0.0
 40
2.0
  1
Name
 41
0.8
  7
TEXT20
100
AcDbText
  0
TEXT
  5
B89
330
B12
100
AcDbEntity
  8
KOPF
100
AcDbText
 10
-11.65833600000008
 20
69.53813999999997
 30
0.0
 40
2.0
  1
Name
 41
0.8
  7
TEXT20
100
AcDbText
  0
ATTDEF
  5
B8A
330
B12
100
AcDbEntity
  8
TEXT25
100
AcDbText
 10
-13.39999999999998
 20
74.90000000000001
 30
0.0
 40
2.0
  1

 41
0.8
  7
TEXT20
100
AcDbAttributeDefinition
280
     0
  3
Name vv.:
  2
F75
 70
     0
280
     0
  0
ATTDEF
  5
B8B
330
B12
100
AcDbEntity
  8
TEXT25
100
AcDbText
 10
-13.39999999999998
 20
79.7
 30
0.0
 40
2.0
  1

 41
0.8
  7
TEXT20
100
AcDbAttributeDefinition
280
     0
  3
Name v.:
  2
F71
 70
     0
280
     0
  0
ATTDEF
  5
B8C
330
B12
100
AcDbEntity
  8
TEXT25
100
AcDbText
 10
-13.31006638105163
 20
84.29999999999999
 30
0.0
 40
2.0
  1

 41
0.8
  7
TEXT20
100
AcDbAttributeDefinition
280
     0
  3
Name l.:
  2
F67
 70
     0
280
     0
  0
LINE
  5
B8D
330
B12
100
AcDbEntity
  8
KOPF
100
AcDbLine
 10
-182.0
 20
36.99999999999997
 30
0.0
 11
-113.4
 21
36.99999999999997
 31
0.0
  0
LINE
  5
B8E
330
B12
100
AcDbEntity
  8
KOPF
100
AcDbLine
 10
-182.0
 20
31.99999999999997
 30
0.0
 11
-113.4
 21
31.99999999999997
 31
0.0
  0
MTEXT
  5
B8F
330
B12
100
AcDbEntity
  8
Sperrlayer
 62
     1
100
AcDbMText
 10
-166.0749851709908
 20
9.027899370527848
 30
0.0
 40
10.0
 41
771.0
 46
0.0
 71
     1
 72
     5
  1
VORABZUG - nicht FREIGEGEBEN !
  7
TEXT20
 11
0.8660254037844387
 21
0.5
 31
0.0
 73
     1
 44
1.0
  0
ATTDEF
  5
B90
330
B12
100
AcDbEntity
  8
RAHM3
100
AcDbText
 10
-100.7395275842899
 20
38.58583043117892
 30
0.0
 40
3.0
  1
-
 72
     1
 11
-99.68952758428997
 21
38.58583043117892
 31
0.0
100
AcDbAttributeDefinition
280
     0
  3
Maßstab
  2
GEN-TITLE-SCA{5.42}
 70
     0
280
     0
1001
GENIUS_GENTRA_14
1002
{
1070
     3
1000
GENTRAPR,%s,(GENMSG gendwg 83)
1000
Maßstab
1000
DEU
1070
     0
1070
     0
1002
}
  0
TEXT
  5
B91
330
B12
100
AcDbEntity
  8
0N
100
AcDbText
 10
-180.0433753026868
 20
97.16012098886922
 30
0.0
 40
3.5
  1
Zeichnungen größer darstellenden Maßstabes bzw. Einzelteilzeichnungen
 41
0.9
100
AcDbText
  0
TEXT
  5
B92
330
B12
100
AcDbEntity
  8
0N
100
AcDbText
 10
-180.0433753026868
 20
91.14471067045299
 30
0.0
 40
3.5
  1
haben vorrangige Gültigkeit
 41
0.9
100
AcDbText
  0
LINE
  5
B93
330
B12
100
AcDbEntity
  8
KOPF
 62
    12
100
AcDbLine
 10
0.0
 20
103.4999999999999
 30
0.0
 11
-182.0
 21
103.4999999999999
 31
0.0
  0
LINE
  5
B94
330
B12
100
AcDbEntity
  8
KOPF
100
AcDbLine
 10
0.0
 20
103.4999999999999
 30
0.0
 11
-182.0
 21
103.4999999999999
 31
0.0
  0
TEXT
  5
B95
330
B12
100
AcDbEntity
  8
0N
100
AcDbText
 10
-50.10402338551751
 20
63.31558948216224
 30
0.0
 40
3.5
  1
ACO Haustechnik
  7
Anschrift
100
AcDbText
  0
TEXT
  5
B96
330
B12
100
AcDbEntity
  8
KOPF
100
AcDbText
 10
-49.87580542490343
 20
59.20935299973598
 30
0.0
 40
2.0
  1
ACO Passavant GmbH
  7
Anschrift
100
AcDbText
  0
TEXT
  5
B97
330
B12
100
AcDbEntity
  8
KOPF
100
AcDbText
 10
-49.87580542490343
 20
55.94457150873341
 30
0.0
 40
2.0
  1
Ulsterstrasse 3
  7
Anschrift
100
AcDbText
  0
TEXT
  5
B98
330
B12
100
AcDbEntity
  8
KOPF
100
AcDbText
 10
-49.87580542490343
 20
52.67979001773084
 30
0.0
 40
2.0
  1
36269 Philippsthal
  7
Anschrift
100
AcDbText
  0
TEXT
  5
B99
330
B12
100
AcDbEntity
  8
KOPF
100
AcDbText
 10
-49.87580542490343
 20
49.41500852672827
 30
0.0
 40
2.0
  1
www.aco-haustechnik.de
  7
Anschrift
100
AcDbText
  0
IMAGE
  5
B9A
330
B12
100
AcDbEntity
  8
0N
160
               140
310
8C00000001000000840000000600000005000000D8E09288BC7856C020EE296E8D3848400000000000000000D8E09288BC7856C05505A7591AA950400000000000000000701116DB117C50C05505A7591AA950400000000000000000701116DB117C50C020EE296E8D3848400000000000000000D8E09288BC7856C020EE29
310
6E8D3848400000000000000000
100
AcDbRasterImage
 90
        0
 10
-89.88650717109283
 20
48.44181611106273
 30
0.0
 11
0.3193055645228697
 21
0.0
 31
0.0
 12
0.0
 22
0.3193055645228696
 32
0.0
 13
75.0
 23
57.0
340
E07
 70
     7
280
     0
281
    50
282
    50
283
     0
290
     0
360
B9B
 71
     1
 91
        2
 14
-0.5
 24
-0.5
 14
74.5
 24
56.5
  0
ENDBLK
  5
B9C
330
B12
100
AcDbEntity
  8
0
100
AcDbBlockEnd
  0
BLOCK
  5
1325
330
1324
100
AcDbEntity
  8
0
100
AcDbBlockBegin
  2
*X7
 70
     1
 10
0.0
 20
0.0
 30
0.0
  3
*X7
  1

  0
LINE
  5
1326
330
1324
100
AcDbEntity
  8
8
100
AcDbLine
 10
180.047
 20
175.572
 30
0.0
 11
182.52
 21
178.046
 31
0.0
  0
LINE
  5
1327
330
1324
100
AcDbEntity
  8
8
100
AcDbLine
 10
180.02
 20
180.0359999999999
 30
0.0
 11
182.52
 21
182.536
 31
0.0
  0
LINE
  5
1328
330
1324
100
AcDbEntity
  8
8
100
AcDbLine
 10
180.02
 20
184.526
 30
0.0
 11
182.52
 21
187.026
 31
0.0
  0
LINE
  5
1329
330
1324
100
AcDbEntity
  8
8
100
AcDbLine
 10
180.02
 20
189.016
 30
0.0
 11
182.52
 21
191.516
 31
0.0
  0
LINE
  5
132A
330
1324
100
AcDbEntity
  8
8
100
AcDbLine
 10
180.02
 20
193.506
 30
0.0
 11
182.52
 21
196.006
 31
0.0
  0
LINE
  5
132B
330
1324
100
AcDbEntity
  8
8
100
AcDbLine
 10
180.02
 20
197.996
 30
0.0
 11
182.52
 21
200.496
 31
0.0
  0
LINE
  5
132C
330
1324
100
AcDbEntity
  8
8
100
AcDbLine
 10
180.02
 20
202.486
 30
0.0
 11
182.52
 21
204.986
 31
0.0
  0
LINE
  5
132D
330
1324
100
AcDbEntity
  8
8
100
AcDbLine
 10
180.02
 20
206.976
 30
0.0
 11
182.52
 21
209.476
 31
0.0
  0
LINE
  5
132E
330
1324
100
AcDbEntity
  8
8
100
AcDbLine
 10
180.02
 20
211.467
 30
0.0
 11
182.52
 21
213.967
 31
0.0
  0
LINE
  5
132F
330
1324
100
AcDbEntity
  8
8
100
AcDbLine
 10
180.02
 20
215.957
 30
0.0
 11
182.52
 21
218.457
 31
0.0
  0
LINE
  5
1330
330
1324
100
AcDbEntity
  8
8
100
AcDbLine
 10
180.02
 20
220.447
 30
0.0
 11
182.52
 21
222.947
 31
0.0
  0
LINE
  5
1331
330
1324
100
AcDbEntity
  8
8
100
AcDbLine
 10
180.02
 20
224.937
 30
0.0
 11
182.52
 21
227.437
 31
0.0
  0
LINE
  5
1332
330
1324
100
AcDbEntity
  8
8
100
AcDbLine
 10
180.02
 20
229.427
 30
0.0
 11
182.52
 21
231.927
 31
0.0
  0
LINE
  5
1333
330
1324
100
AcDbEntity
  8
8
100
AcDbLine
 10
180.02
 20
233.917
 30
0.0
 11
182.52
 21
236.417
 31
0.0
  0
LINE
  5
1334
330
1324
100
AcDbEntity
  8
8
100
AcDbLine
 10
180.02
 20
238.407
 30
0.0
 11
182.52
 21
240.907
 31
0.0
  0
LINE
  5
1335
330
1324
100
AcDbEntity
  8
8
100
AcDbLine
 10
180.02
 20
242.898
 30
0.0
 11
182.52
 21
245.398
 31
0.0
  0
LINE
  5
1336
330
1324
100
AcDbEntity
  8
8
100
AcDbLine
 10
180.02
 20
247.388
 30
0.0
 11
182.362
 21
249.729
 31
0.0
  0
LINE
  5
1337
330
1324
100
AcDbEntity
  8
8
100
AcDbLine
 10
179.605
 20
251.462
 30
0.0
 11
181.671
 21
253.528
 31
0.0
  0
LINE
  5
1338
330
1324
100
AcDbEntity
  8
8
100
AcDbLine
 10
178.414
 20
254.761
 30
0.0
 11
180.363
 21
256.71
 31
0.0
  0
LINE
  5
1339
330
1324
100
AcDbEntity
  8
8
100
AcDbLine
 10
176.684
 20
257.522
 30
0.0
 11
178.497
 21
259.334
 31
0.0
  0
LINE
  5
133A
330
1324
100
AcDbEntity
  8
8
100
AcDbLine
 10
174.537
 20
259.865
 30
0.0
 11
176.219
 21
261.547
 31
0.0
  0
LINE
  5
133B
330
1324
100
AcDbEntity
  8
8
100
AcDbLine
 10
171.714
 20
261.532
 30
0.0
 11
173.578
 21
263.396
 31
0.0
  0
LINE
  5
133C
330
1324
100
AcDbEntity
  8
8
100
AcDbLine
 10
168.336
 20
262.644
 30
0.0
 11
170.511
 21
264.819
 31
0.0
  0
LINE
  5
133D
330
1324
100
AcDbEntity
  8
8
100
AcDbLine
 10
164.4409999999999
 20
263.239
 30
0.0
 11
166.732
 21
265.53
 31
0.0
  0
LINE
  5
133E
330
1324
100
AcDbEntity
  8
8
100
AcDbLine
 10
160.312
 20
263.601
 30
0.0
 11
162.62
 21
265.908
 31
0.0
  0
LINE
  5
133F
330
1324
100
AcDbEntity
  8
8
100
AcDbLine
 10
156.184
 20
263.962
 30
0.0
 11
158.491
 21
266.27
 31
0.0
  0
LINE
  5
1340
330
1324
100
AcDbEntity
  8
8
100
AcDbLine
 10
152.055
 20
264.323
 30
0.0
 11
154.362
 21
266.631
 31
0.0
  0
LINE
  5
1341
330
1324
100
AcDbEntity
  8
8
100
AcDbLine
 10
57.877
 20
174.636
 30
0.0
 11
60.02
 21
176.779
 31
0.0
  0
LINE
  5
1342
330
1324
100
AcDbEntity
  8
8
100
AcDbLine
 10
147.926
 20
264.684
 30
0.0
 11
150.234
 21
266.992
 31
0.0
  0
LINE
  5
1343
330
1324
100
AcDbEntity
  8
8
100
AcDbLine
 10
57.52
 20
178.769
 30
0.0
 11
60.02
 21
181.269
 31
0.0
  0
LINE
  5
1344
330
1324
100
AcDbEntity
  8
8
100
AcDbLine
 10
143.797
 20
265.046
 30
0.0
 11
146.105
 21
267.353
 31
0.0
  0
LINE
  5
1345
330
1324
100
AcDbEntity
  8
8
100
AcDbLine
 10
57.52
 20
183.259
 30
0.0
 11
60.02
 21
185.759
 31
0.0
  0
LINE
  5
1346
330
1324
100
AcDbEntity
  8
8
100
AcDbLine
 10
139.668
 20
265.407
 30
0.0
 11
141.976
 21
267.715
 31
0.0
  0
LINE
  5
1347
330
1324
100
AcDbEntity
  8
8
100
AcDbLine
 10
57.52
 20
187.749
 30
0.0
 11
60.02
 21
190.249
 31
0.0
  0
LINE
  5
1348
330
1324
100
AcDbEntity
  8
8
100
AcDbLine
 10
135.539
 20
265.768
 30
0.0
 11
137.847
 21
268.076
 31
0.0
  0
LINE
  5
1349
330
1324
100
AcDbEntity
  8
8
100
AcDbLine
 10
57.52
 20
192.24
 30
0.0
 11
60.02
 21
194.74
 31
0.0
  0
LINE
  5
134A
330
1324
100
AcDbEntity
  8
8
100
AcDbLine
 10
121.583
 20
256.302
 30
0.0
 11
130.039
 21
264.758
 31
0.0
  0
LINE
  5
134B
330
1324
100
AcDbEntity
  8
8
100
AcDbLine
 10
130.608
 20
265.327
 30
0.0
 11
133.718
 21
268.437
 31
0.0
  0
LINE
  5
134C
330
1324
100
AcDbEntity
  8
8
100
AcDbLine
 10
57.52
 20
196.73
 30
0.0
 11
60.02
 21
199.23
 31
0.0
  0
LINE
  5
134D
330
1324
100
AcDbEntity
  8
8
100
AcDbLine
 10
117.298
 20
256.507
 30
0.0
 11
119.451
 21
258.66
 31
0.0
  0
LINE
  5
134E
330
1324
100
AcDbEntity
  8
8
100
AcDbLine
 10
57.52
 20
201.22
 30
0.0
 11
60.02
 21
203.72
 31
0.0
  0
LINE
  5
134F
330
1324
100
AcDbEntity
  8
8
100
AcDbLine
 10
114.423
 20
258.123
 30
0.0
 11
116.233
 21
259.932
 31
0.0
  0
LINE
  5
1350
330
1324
100
AcDbEntity
  8
8
100
AcDbLine
 10
57.52
 20
205.71
 30
0.0
 11
60.02
 21
208.21
 31
0.0
  0
LINE
  5
1351
330
1324
100
AcDbEntity
  8
8
100
AcDbLine
 10
112.49
 20
260.679
 30
0.0
 11
114.32
 21
262.509
 31
0.0
  0
LINE
  5
1352
330
1324
100
AcDbEntity
  8
8
100
AcDbLine
 10
57.52
 20
210.2
 30
0.0
 11
60.02
 21
212.7
 31
0.0
  0
LINE
  5
1353
330
1324
100
AcDbEntity
  8
8
100
AcDbLine
 10
110.846
 20
263.526
 30
0.0
 11
112.662
 21
265.341
 31
0.0
  0
LINE
  5
1354
330
1324
100
AcDbEntity
  8
8
100
AcDbLine
 10
57.52
 20
214.69
 30
0.0
 11
60.02
 21
217.19
 31
0.0
  0
LINE
  5
1355
330
1324
100
AcDbEntity
  8
8
100
AcDbLine
 10
108.594
 20
265.764
 30
0.0
 11
110.415
 21
267.584
 31
0.0
  0
LINE
  5
1356
330
1324
100
AcDbEntity
  8
8
100
AcDbLine
 10
57.52
 20
219.18
 30
0.0
 11
60.02
 21
221.68
 31
0.0
  0
LINE
  5
1357
330
1324
100
AcDbEntity
  8
8
100
AcDbLine
 10
104.071
 20
265.731
 30
0.0
 11
106.784
 21
268.444
 31
0.0
  0
LINE
  5
1358
330
1324
100
AcDbEntity
  8
8
100
AcDbLine
 10
57.52
 20
223.67
 30
0.0
 11
60.02
 21
226.17
 31
0.0
  0
LINE
  5
1359
330
1324
100
AcDbEntity
  8
8
100
AcDbLine
 10
99.15
 20
265.3
 30
0.0
 11
101.9
 21
268.051
 31
0.0
  0
LINE
  5
135A
330
1324
100
AcDbEntity
  8
8
100
AcDbLine
 10
57.52
 20
228.161
 30
0.0
 11
60.02
 21
230.661
 31
0.0
  0
LINE
  5
135B
330
1324
100
AcDbEntity
  8
8
100
AcDbLine
 10
94.23
 20
264.87
 30
0.0
 11
96.98
 21
267.62
 31
0.0
  0
LINE
  5
135C
330
1324
100
AcDbEntity
  8
8
100
AcDbLine
 10
57.52
 20
232.651
 30
0.0
 11
60.02
 21
235.151
 31
0.0
  0
LINE
  5
135D
330
1324
100
AcDbEntity
  8
8
100
AcDbLine
 10
89.30899999999999
 20
264.439
 30
0.0
 11
92.05899999999999
 21
267.189
 31
0.0
  0
LINE
  5
135E
330
1324
100
AcDbEntity
  8
8
100
AcDbLine
 10
57.52
 20
237.141
 30
0.0
 11
60.02
 21
239.641
 31
0.0
  0
LINE
  5
135F
330
1324
100
AcDbEntity
  8
8
100
AcDbLine
 10
84.38799999999998
 20
264.009
 30
0.0
 11
87.13799999999999
 21
266.759
 31
0.0
  0
LINE
  5
1360
330
1324
100
AcDbEntity
  8
8
100
AcDbLine
 10
57.52
 20
241.631
 30
0.0
 11
60.02
 21
244.131
 31
0.0
  0
LINE
  5
1361
330
1324
100
AcDbEntity
  8
8
100
AcDbLine
 10
79.468
 20
263.578
 30
0.0
 11
82.21799999999999
 21
266.328
 31
0.0
  0
LINE
  5
1362
330
1324
100
AcDbEntity
  8
8
100
AcDbLine
 10
57.52
 20
246.121
 30
0.0
 11
60.09
 21
248.691
 31
0.0
  0
LINE
  5
1363
330
1324
100
AcDbEntity
  8
8
100
AcDbLine
 10
74.54699999999999
 20
263.148
 30
0.0
 11
77.297
 21
265.898
 31
0.0
  0
LINE
  5
1364
330
1324
100
AcDbEntity
  8
8
100
AcDbLine
 10
57.793
 20
250.884
 30
0.0
 11
61.58699999999999
 21
254.678
 31
0.0
  0
LINE
  5
1365
330
1324
100
AcDbEntity
  8
8
100
AcDbLine
 10
68.604
 20
261.695
 30
0.0
 11
72.238
 21
265.329
 31
0.0
  0
LINE
  5
1366
330
1324
100
AcDbEntity
  8
8
100
AcDbLine
 10
61.03
 20
258.611
 30
0.0
 11
64.797
 21
262.378
 31
0.0
  0
ENDBLK
  5
1367
330
1324
100
AcDbEntity
  8
0
100
AcDbBlockEnd
  0
BLOCK
  5
15D4
330
15D3
100
AcDbEntity
  8
0
100
AcDbBlockBegin
  2
ACO-logo
 70
     0
 10
0.0
 20
0.0
 30
0.0
  3
ACO-logo
  1

  0
HATCH
  5
15D5
330
15D3
100
AcDbEntity
  8
AM_8
100
AcDbHatch
 10
0.0
 20
0.0
 30
0.0
210
0.0
220
0.0
230
1.0
  2
SOLID
 70
     1
 71
     1
 91
        8
 92
        7
 72
     0
 73
     1
 93
        4
 10
0.0
 20
0.0
 10
5.83484666800534
 20
0.0
 10
5.83484666800534
 20
13.81753928161228
 10
0.0
 20
13.81753928161228
 97
        1
330
15DC
 92
       22
 72
     1
 73
     1
 93
        7
 10
2.917423334002663
 20
5.899795014131328
 42
-0.2369604974400691
 10
5.299322278505158
 20
1.20776271103314
 42
0.0
 10
4.566404620696332
 20
1.20776271103314
 42
0.0323236910300515
 10
4.52028025854512
 20
1.868792671041205
 42
0.0
 10
1.31456640946034
 20
1.868792671041205
 42
0.0323236910300514
 10
1.268442047309008
 20
1.20776271103314
 42
0.0
 10
0.5355243895001536
 20
1.20776271103314
 42
-0.236960497440069
 97
        1
330
15DB
 92
        6
 72
     1
 73
     1
 93
        3
 10
2.917423334002755
 20
4.950343243528891
 42
-0.1369919174131033
 10
4.366098920254252
 20
2.601702187966736
 42
0.0
 10
1.468747747751102
 20
2.601702187966736
 42
-0.136991917413112
 97
        1
330
15DD
 92
        7
 72
     0
 73
     1
 93
        4
 10
6.74914265440612
 20
0.0
 10
12.58398932241152
 20
0.0
 10
12.58398932241152
 20
13.81753928161228
 10
6.749142654406122
 20
13.81753928161228
 97
        1
330
15D9
 92
       22
 72
     1
 73
     1
 93
        4
 10
11.71403969512569
 20
4.838973170255556
 42
0.0
 10
11.07924682436687
 20
4.472475335443292
 42
3.664441495333134
 10
11.09468207415784
 20
2.797254222346978
 42
0.0
 10
11.72940033449071
 20
2.430799463884227
 42
-3.685001202565794
 97
        1
330
15D8
 92
        7
 72
     0
 73
     1
 93
        4
 10
19.3331319768176
 20
13.81753928161228
 10
13.49828530881222
 20
13.81753928161228
 10
13.49828530881222
 20
0.0
 10
19.33313197681759
 20
0.0
 97
        1
330
15DA
 92
       22
 72
     1
 73
     1
 93
        2
 10
18.79766457282285
 20
3.621777428888222
 42
-1.0
 10
14.03375271280697
 20
3.621777428888222
 42
-1.0
 97
        1
330
15D6
 92
        6
 72
     1
 73
     1
 93
        2
 10
18.06475505589733
 20
3.621777428888222
 42
-1.0
 10
14.76666222973249
 20
3.621777428888222
 42
-1.0
 97
        1
330
15D7
 75
     0
 76
     1
 47
0.0392597581883742
 98
        8
 10
2.217340335895904
 20
8.88548731296629
 10
2.217340335895904
 20
8.88548731296629
 10
2.217340335895904
 20
8.88548731296629
 10
8.654998273965695
 20
10.48403451227921
 10
8.654998273965695
 20
10.48403451227921
 10
16.65081549283477
 20
10.52502310076878
 10
16.65081549283477
 20
10.52502310076878
 10
16.65081549283477
 20
10.52502310076878
450
        0
451
        0
460
0.0
461
0.0
452
        1
462
1.0
453
        2
463
0.0
 63
     5
421
      255
463
1.0
 63
     7
421
 16777215
470
LINEAR
1001
ACAD
1010
0.0
1020
0.0
1030
0.0
  0
CIRCLE
  5
15D6
102
{ACAD_REACTORS
330
15D5
102
}
330
15D3
100
AcDbEntity
  8
AM_8
100
AcDbCircle
 10
16.41570864281491
 20
3.621777428888222
 30
0.0
 40
2.381955930007939
  0
CIRCLE
  5
15D7
102
{ACAD_REACTORS
330
15D5
102
}
330
15D3
100
AcDbEntity
  8
AM_8
100
AcDbCircle
 10
16.41570864281491
 20
3.621777428888222
 30
0.0
 40
1.649046413082418
  0
LWPOLYLINE
  5
15D8
102
{ACAD_REACTORS
330
15D5
102
}
330
15D3
100
AcDbEntity
  8
AM_8
100
AcDbPolyline
 90
        4
 70
     1
 43
0.0
 10
11.09468207415784
 20
2.797254222346978
 42
-3.664441495333134
 10
11.07924682436687
 20
4.472475335443292
 10
11.71403969512569
 20
4.838973170255556
 42
3.685001202565794
 10
11.72940033449071
 20
2.430799463884227
  0
LWPOLYLINE
  5
15D9
102
{ACAD_REACTORS
330
15D5
102
}
330
15D3
100
AcDbEntity
  8
AM_8
100
AcDbPolyline
 90
        4
 70
     1
 43
0.0
 10
6.749142654406121
 20
13.81753928161228
 10
6.749142654406121
 20
0.0
 10
12.58398932241152
 20
0.0
 10
12.58398932241152
 20
13.81753928161228
  0
LWPOLYLINE
  5
15DA
102
{ACAD_REACTORS
330
15D5
102
}
330
15D3
100
AcDbEntity
  8
AM_8
100
AcDbPolyline
 90
        4
 70
     1
 43
0.0
 10
19.33313197681759
 20
13.81753928161228
 10
19.33313197681759
 20
0.0
 10
13.49828530881222
 20
0.0
 10
13.49828530881222
 20
13.81753928161228
  0
LWPOLYLINE
  5
15DB
102
{ACAD_REACTORS
330
15D5
102
}
330
15D3
100
AcDbEntity
  8
AM_8
100
AcDbPolyline
 90
        7
 70
     1
 43
0.0
 10
1.268442047309008
 20
1.20776271103314
 42
-0.0323236910300514
 10
1.31456640946034
 20
1.868792671041205
 10
4.52028025854512
 20
1.868792671041205
 42
-0.0323236910300515
 10
4.566404620696332
 20
1.20776271103314
 10
5.299322278505158
 20
1.20776271103314
 42
0.2369604974400691
 10
2.917423334002663
 20
5.899795014131328
 42
0.2369604974400691
 10
0.5355243895001536
 20
1.20776271103314
  0
LWPOLYLINE
  5
15DC
102
{ACAD_REACTORS
330
15D5
102
}
330
15D3
100
AcDbEntity
  8
AM_8
100
AcDbPolyline
 90
        4
 70
     1
 43
0.0
 10
0.0
 20
13.81753928161228
 10
0.0
 20
0.0
 10
5.83484666800534
 20
0.0
 10
5.83484666800534
 20
13.81753928161228
  0
LWPOLYLINE
  5
15DD
102
{ACAD_REACTORS
330
15D5
102
}
330
15D3
100
AcDbEntity
  8
AM_8
100
AcDbPolyline
 90
        3
 70
     1
 43
0.0
 10
2.917423334002755
 20
4.950343243528891
 42
-0.1369919174131033
 10
4.366098920254252
 20
2.601702187966736
 10
1.468747747751102
 20
2.601702187966736
 42
-0.136991917413112
  0
ENDBLK
  5
15DE
330
15D3
100
AcDbEntity
  8
0
100
AcDbBlockEnd
  0
BLOCK
  5
1AAE
330
1AAD
100
AcDbEntity
  8
0
100
AcDbBlockBegin
  2
*D9
 70
     1
 10
0.0
 20
0.0
 30
0.0
  3
*D9
  1

  0
LINE
  5
1C65
330
1AAD
100
AcDbEntity
  8
AM_5
100
AcDbLine
 10
855.5874903125527
 20
334.6908925760487
 30
0.0
 11
936.4453404988704
 21
334.6908925760486
 31
0.0
  0
LINE
  5
1C66
330
1AAD
100
AcDbEntity
  8
AM_5
100
AcDbLine
 10
891.7810043889653
 20
264.6978925760486
 30
0.0
 11
936.4453404988704
 21
264.6978925760485
 31
0.0
  0
LINE
  5
1C67
330
1AAD
100
AcDbEntity
  8
AM_5
100
AcDbLine
 10
935.4453404988705
 20
332.1908925760486
 30
0.0
 11
935.4453404988705
 21
267.1978925760486
 31
0.0
  0
SOLID
  5
1C68
330
1AAD
100
AcDbEntity
  8
AM_5
100
AcDbTrace
 10
935.0286738322038
 20
332.1908925760486
 30
0.0
 11
935.8620071655371
 21
332.1908925760486
 31
0.0
 12
935.4453404988705
 22
334.6908925760486
 32
0.0
 13
935.4453404988705
 23
334.6908925760486
 33
0.0
  0
SOLID
  5
1C69
330
1AAD
100
AcDbEntity
  8
AM_5
100
AcDbTrace
 10
935.0286738322038
 20
267.1978925760486
 30
0.0
 11
935.8620071655371
 21
267.1978925760486
 31
0.0
 12
935.4453404988705
 22
264.6978925760485
 32
0.0
 13
935.4453404988705
 23
264.6978925760485
 33
0.0
  0
MTEXT
  5
1C6A
330
1AAD
100
AcDbEntity
  8
AM_5
 62
     2
100
AcDbMText
 10
929.6953404988704
 20
299.6943925760488
 30
0.0
 40
6.0
 41
0.0
 46
0.0
 71
     5
 72
     1
  1
Sperrwasser 70mm
 11
0.0000000000000001
 21
1.0
 31
0.0
 73
     1
 44
1.0
  0
POINT
  5
1C6B
330
1AAD
100
AcDbEntity
  8
Defpoints
 62
     0
100
AcDbPoint
 10
854.5874903125527
 20
334.6908925760487
 30
0.0
  0
POINT
  5
1C6C
330
1AAD
100
AcDbEntity
  8
Defpoints
 62
     0
100
AcDbPoint
 10
890.7810043889654
 20
264.6978925760486
 30
0.0
  0
POINT
  5
1C6D
330
1AAD
100
AcDbEntity
  8
Defpoints
 62
     0
100
AcDbPoint
 10
935.4453404988705
 20
264.6978925760485
 30
0.0
  0
ENDBLK
  5
1AAF
330
1AAD
100
AcDbEntity
  8
0
100
AcDbBlockEnd
  0
BLOCK
  5
1B05
330
1B04
100
AcDbEntity
  8
0
100
AcDbBlockBegin
  2
*D10
 70
     1
 10
0.0
 20
0.0
 30
0.0
  3
*D10
  1

  0
LINE
  5
1B9C
330
1B04
100
AcDbEntity
  8
AM_5
100
AcDbLine
 10
789.2366977859446
 20
203.7039925760502
 30
0.0
 11
739.9629195279752
 21
203.7039925760502
 31
0.0
  0
LINE
  5
1B9D
330
1B04
100
AcDbEntity
  8
AM_5
100
AcDbLine
 10
822.5020213859473
 20
358.4965117760555
 30
0.0
 11
739.9629195279754
 21
358.4965117760555
 31
0.0
  0
LINE
  5
1B9E
330
1B04
100
AcDbEntity
  8
AM_5
100
AcDbLine
 10
740.9629195279753
 20
206.2039925760501
 30
0.0
 11
740.9629195279753
 21
355.9965117760555
 31
0.0
  0
SOLID
  5
1B9F
330
1B04
100
AcDbEntity
  8
AM_5
100
AcDbTrace
 10
740.5462528613086
 20
206.2039925760501
 30
0.0
 11
741.3795861946418
 21
206.2039925760501
 31
0.0
 12
740.9629195279753
 22
203.7039925760502
 32
0.0
 13
740.9629195279753
 23
203.7039925760502
 33
0.0
  0
SOLID
  5
1BA0
330
1B04
100
AcDbEntity
  8
AM_5
100
AcDbTrace
 10
740.5462528613087
 20
355.9965117760555
 30
0.0
 11
741.379586194642
 21
355.9965117760555
 31
0.0
 12
740.9629195279753
 22
358.4965117760555
 32
0.0
 13
740.9629195279753
 23
358.4965117760555
 33
0.0
  0
MTEXT
  5
1BA1
330
1B04
100
AcDbEntity
  8
AM_5
 62
     2
100
AcDbMText
 10
735.9629195279752
 20
281.100252176053
 30
0.0
 40
6.0
 41
0.0
 46
0.0
 71
     5
 72
     1
  1
155
 11
0.0000000000000001
 21
1.0
 31
0.0
 73
     1
 44
1.0
  0
POINT
  5
1BA2
330
1B04
100
AcDbEntity
  8
Defpoints
 62
     0
100
AcDbPoint
 10
790.2366977859446
 20
203.7039925760502
 30
0.0
  0
POINT
  5
1BA3
330
1B04
100
AcDbEntity
  8
Defpoints
 62
     0
100
AcDbPoint
 10
823.5020213859472
 20
358.4965117760555
 30
0.0
  0
POINT
  5
1BA4
330
1B04
100
AcDbEntity
  8
Defpoints
 62
     0
100
AcDbPoint
 10
740.9629195279753
 20
358.4965117760555
 30
0.0
  0
ENDBLK
  5
1B06
330
1B04
100
AcDbEntity
  8
0
100
AcDbBlockEnd
  0
BLOCK
  5
1B2F
330
1B2E
100
AcDbEntity
  8
0
100
AcDbBlockBegin
  2
*D11
 70
     1
 10
0.0
 20
0.0
 30
0.0
  3
*D11
  1

  0
LINE
  5
1BA5
330
1B2E
100
AcDbEntity
  8
AM_5
100
AcDbLine
 10
798.2366977859446
 20
154.7039925760485
 30
0.0
 11
718.4442900996681
 21
154.7039925760485
 31
0.0
  0
LINE
  5
1BA6
330
1B2E
100
AcDbEntity
  8
AM_5
100
AcDbLine
 10
823.5020213859472
 20
358.4965117760555
 30
0.0
 11
718.4442900996682
 21
358.4965117760555
 31
0.0
  0
LINE
  5
1BA7
330
1B2E
100
AcDbEntity
  8
AM_5
100
AcDbLine
 10
719.4442900996681
 20
157.2039925760485
 30
0.0
 11
719.4442900996683
 21
355.9965117760555
 31
0.0
  0
SOLID
  5
1BA8
330
1B2E
100
AcDbEntity
  8
AM_5
100
AcDbTrace
 10
719.0276234330014
 20
157.2039925760485
 30
0.0
 11
719.8609567663347
 21
157.2039925760485
 31
0.0
 12
719.4442900996681
 22
154.7039925760485
 32
0.0
 13
719.4442900996681
 23
154.7039925760485
 33
0.0
  0
SOLID
  5
1BA9
330
1B2E
100
AcDbEntity
  8
AM_5
100
AcDbTrace
 10
719.0276234330016
 20
355.9965117760555
 30
0.0
 11
719.8609567663348
 21
355.9965117760555
 31
0.0
 12
719.4442900996683
 22
358.4965117760555
 32
0.0
 13
719.4442900996683
 23
358.4965117760555
 33
0.0
  0
MTEXT
  5
1BAA
330
1B2E
100
AcDbEntity
  8
AM_5
 62
     2
100
AcDbMText
 10
714.4436995484871
 20
256.6002521760522
 30
0.0
 40
6.0
 41
0.0
 46
0.0
 71
     5
 72
     1
  1
204
 11
0.0000000000000001
 21
1.0
 31
0.0
 73
     1
 44
1.0
  0
POINT
  5
1BAB
330
1B2E
100
AcDbEntity
  8
Defpoints
 62
     0
100
AcDbPoint
 10
799.2366977859447
 20
154.7039925760485
 30
0.0
  0
POINT
  5
1BAC
330
1B2E
100
AcDbEntity
  8
Defpoints
 62
     0
100
AcDbPoint
 10
824.5020213859472
 20
358.4965117760555
 30
0.0
  0
POINT
  5
1BAD
330
1B2E
100
AcDbEntity
  8
Defpoints
 62
     0
100
AcDbPoint
 10
719.4442900996683
 20
358.4965117760555
 30
0.0
  0
ENDBLK
  5
1B30
330
1B2E
100
AcDbEntity
  8
0
100
AcDbBlockEnd
  0
BLOCK
  5
1B62
330
1B61
100
AcDbEntity
  8
0
100
AcDbBlockBegin
  2
*D12
 70
     1
 10
0.0
 20
0.0
 30
0.0
  3
*D12
  1

  0
LINE
  5
1BD2
330
1B61
100
AcDbEntity
  8
AM_5
100
AcDbLine
 10
775.2429477859445
 20
337.1757440760534
 30
0.0
 11
775.2429477859445
 21
385.6870935760487
 31
0.0
  0
LINE
  5
1BD3
330
1B61
100
AcDbEntity
  8
AM_5
100
AcDbLine
 10
900.2304477859448
 20
335.6908925760486
 30
0.0
 11
900.2304477859448
 21
385.6870935760487
 31
0.0
  0
LINE
  5
1BD4
330
1B61
100
AcDbEntity
  8
AM_5
100
AcDbLine
 10
777.7429477859445
 20
384.6870935760487
 30
0.0
 11
897.7304477859448
 21
384.6870935760487
 31
0.0
  0
SOLID
  5
1BD5
330
1B61
100
AcDbEntity
  8
AM_5
100
AcDbTrace
 10
777.7429477859445
 20
385.1037602427154
 30
0.0
 11
777.7429477859445
 21
384.270426909382
 31
0.0
 12
775.2429477859445
 22
384.6870935760487
 32
0.0
 13
775.2429477859445
 23
384.6870935760487
 33
0.0
  0
SOLID
  5
1BD6
330
1B61
100
AcDbEntity
  8
AM_5
100
AcDbTrace
 10
897.7304477859448
 20
385.1037602427154
 30
0.0
 11
897.7304477859448
 21
384.270426909382
 31
0.0
 12
900.2304477859448
 22
384.6870935760487
 32
0.0
 13
900.2304477859448
 23
384.6870935760487
 33
0.0
  0
MTEXT
  5
1BD7
330
1B61
100
AcDbEntity
  8
AM_5
 62
     2
100
AcDbMText
 10
837.7366977859447
 20
389.6876841272298
 30
0.0
 40
6.0
 41
0.0
 46
0.0
 71
     5
 72
     1
  1
%%c125
 73
     1
 44
1.0
  0
POINT
  5
1BD8
330
1B61
100
AcDbEntity
  8
Defpoints
 62
     0
100
AcDbPoint
 10
775.2429477859445
 20
336.1757440760534
 30
0.0
  0
POINT
  5
1BD9
330
1B61
100
AcDbEntity
  8
Defpoints
 62
     0
100
AcDbPoint
 10
900.2304477859448
 20
334.6908925760486
 30
0.0
  0
POINT
  5
1BDA
330
1B61
100
AcDbEntity
  8
Defpoints
 62
     0
100
AcDbPoint
 10
900.2304477859448
 20
384.6870935760487
 30
0.0
  0
ENDBLK
  5
1B63
330
1B61
100
AcDbEntity
  8
0
100
AcDbBlockEnd
  0
ENDSEC
  0
SECTION
  2
ENTITIES
  0
LINE
  5
149E
330
1F
100
AcDbEntity
  8
7
100
AcDbLine
 10
837.7366977859447
 20
372.6870925760487
 30
0.0
 11
837.7366977859447
 21
198.7044925760486
 31
0.0
  0
LINE
  5
149F
330
1F
100
AcDbEntity
  8
0
100
AcDbLine
 10
885.2319477859445
 20
203.7039925760486
 30
0.0
 11
837.7366977859447
 21
203.7039925760486
 31
0.0
  0
LINE
  5
14A0
330
1F
100
AcDbEntity
  8
0
100
AcDbLine
 10
898.7305977859445
 20
244.6998925760487
 30
0.0
 11
897.9276780859448
 21
241.7001925760486
 31
0.0
  0
LINE
  5
14A1
330
1F
100
AcDbEntity
  8
0
100
AcDbLine
 10
886.7317977859448
 20
244.6998925760487
 30
0.0
 11
898.7305977859445
 21
244.6998925760487
 31
0.0
  0
LINE
  5
14A2
330
1F
100
AcDbEntity
  8
0
100
AcDbLine
 10
886.7317977859448
 20
246.6996925760486
 30
0.0
 11
886.7317977859448
 21
244.6998925760487
 31
0.0
  0
LINE
  5
14A3
330
1F
100
AcDbEntity
  8
0
100
AcDbLine
 10
859.2345477859446
 20
334.6908925760487
 30
0.0
 11
859.2345477859446
 21
262.0381585760487
 31
0.0
  0
LINE
  5
14A4
330
1F
100
AcDbEntity
  8
0
100
AcDbLine
 10
861.7342977859449
 20
334.6908925760487
 30
0.0
 11
861.7342977859449
 21
271.6971925760487
 31
0.0
  0
ARC
  5
14A5
330
1F
100
AcDbEntity
  8
0
100
AcDbCircle
 10
886.7317977859448
 20
271.6971925760487
 30
0.0
 40
24.9975
100
AcDbArc
 50
180.0
 51
270.0
  0
ARC
  5
14A6
330
1F
100
AcDbEntity
  8
0
100
AcDbCircle
 10
886.7317977859448
 20
271.6971925760487
 30
0.0
 40
27.49725
100
AcDbArc
 50
200.5660000000029
 51
239.5729999999999
  0
ARC
  5
14A7
330
1F
100
AcDbEntity
  8
0
100
AcDbCircle
 10
867.7336977859447
 20
239.3704255760487
 30
0.0
 40
9.999
100
AcDbArc
 50
0.0
 51
59.55799999999655
  0
LINE
  5
14A8
102
{ACAD_REACTORS
330
1ABA
102
}
330
1F
100
AcDbEntity
  8
0
100
AcDbLine
 10
837.7366977859447
 20
334.6908925760487
 30
0.0
 11
861.7342977859449
 21
334.6908925760487
 31
0.0
  0
LINE
  5
14A9
102
{ACAD_REACTORS
330
1ABA
102
}
330
1F
100
AcDbEntity
  8
0
100
AcDbLine
 10
900.2304477859448
 20
264.6978925760486
 30
0.0
 11
862.7341977859446
 21
264.6978925760486
 31
0.0
  0
LINE
  5
14AA
330
1F
100
AcDbEntity
  8
0
100
AcDbLine
 10
851.2043508859447
 20
358.5095104760486
 30
0.0
 11
884.2580451859445
 21
355.6177996760486
 31
0.0
  0
LINE
  5
14AB
330
1F
100
AcDbEntity
  8
0
100
AcDbLine
 10
900.2304477859448
 20
264.6978925760486
 30
0.0
 11
900.2304477859448
 21
338.1865429760486
 31
0.0
  0
ARC
  5
14AC
330
1F
100
AcDbEntity
  8
0
100
AcDbCircle
 10
882.7321977859446
 20
338.1865429760486
 30
0.0
 40
17.49825
100
AcDbArc
 50
0.0
 51
85.00000000000019
  0
ARC
  5
14AD
330
1F
100
AcDbEntity
  8
0
100
AcDbCircle
 10
837.7366977859447
 20
354.6888925760485
 30
0.0
 40
4.9995
100
AcDbArc
 50
270.0
 51
90.0
  0
LINE
  5
14AE
330
1F
100
AcDbEntity
  8
0
100
AcDbLine
 10
850.9863726859446
 20
356.0197594760485
 30
0.0
 11
884.0400669859446
 21
353.1280486760485
 31
0.0
  0
LINE
  5
14AF
330
1F
100
AcDbEntity
  8
0
100
AcDbLine
 10
897.7306977859448
 20
264.6978925760486
 30
0.0
 11
897.7306977859448
 21
338.1865429760486
 31
0.0
  0
ARC
  5
14B0
330
1F
100
AcDbEntity
  8
0
100
AcDbCircle
 10
882.7321977859446
 20
338.1865429760486
 30
0.0
 40
14.9985
100
AcDbArc
 50
0.0
 51
85.00000000000019
  0
LINE
  5
14B1
330
1F
100
AcDbEntity
  8
0
100
AcDbLine
 10
837.7366977859447
 20
367.6875925760486
 30
0.0
 11
845.2359477859447
 21
367.6875925760486
 31
0.0
  0
LINE
  5
14B2
330
1F
100
AcDbEntity
  8
0
100
AcDbLine
 10
845.2369476859447
 20
367.6875925760486
 30
0.0
 11
860.7353976859446
 21
357.6765937760487
 31
0.0
  0
ARC
  5
14B3
330
1F
100
AcDbEntity
  8
0
100
AcDbCircle
 10
898.7305977859445
 20
265.6977925760486
 30
0.0
 40
0.9999
100
AcDbArc
 50
180.0
 51
270.0
  0
LINE
  5
14B4
330
1F
100
AcDbEntity
  8
0
100
AcDbLine
 10
790.2414477859447
 20
203.7039925760486
 30
0.0
 11
837.7366977859447
 21
203.7039925760486
 31
0.0
  0
HATCH
  5
14B5
330
1F
100
AcDbEntity
  8
8
100
AcDbHatch
 10
0.0
 20
0.0
 30
0.0
210
0.0
220
0.0
230
1.0
  2
ANSI31,_I
 70
     0
 71
     0
 91
        1
 92
        7
 72
     1
 73
     1
 93
       31
 10
802.7289787802846
 20
248.0233265951474
 42
0.171196667181274
 10
814.4865355359051
 20
262.0381585760487
 42
0.0
 10
816.2388477859447
 20
262.0381585760487
 42
0.0
 10
816.2388477859447
 20
334.6908925760487
 42
0.0
 10
813.7390977859444
 20
334.6908925760487
 42
0.0
 10
813.7390977859448
 20
271.6971925760487
 42
-0.4142135623730951
 10
788.7415977859445
 20
246.6996925760486
 42
0.0
 10
788.7415977859448
 20
244.6998925760487
 42
0.0
 10
777.5467173859447
 20
244.6998925760487
 42
0.0
 10
777.5467173859447
 20
241.7001925760486
 42
0.0
 10
778.0827977859446
 20
239.6998925760487
 42
0.0
 10
793.9727657634444
 20
239.7039925760487
 42
-0.6482315195103873
 10
791.7366977859447
 20
234.7039925760486
 42
0.0
 10
789.9866977859447
 20
234.7039925760486
 42
1.0
 10
789.9866977859447
 20
233.2039925760486
 42
0.0
 10
793.2366977859446
 20
233.2039925760486
 42
-0.4142135623730951
 10
794.7366977859446
 20
231.7039925760486
 42
0.0
 10
794.7366977859446
 20
231.2039925760486
 42
-0.4142135623731006
 10
793.2366977859446
 20
229.7039925760486
 42
0.0
 10
789.9866977859447
 20
229.7039925760486
 42
1.0
 10
789.9866977859447
 20
228.2039925760486
 42
0.0
 10
794.2366977859446
 20
228.2039925760486
 42
-0.4142135623730784
 10
794.7366977859446
 20
227.7039925760486
 42
0.0
 10
794.7366977859446
 20
224.7039925760486
 42
0.0
 10
792.7366977859446
 20
222.7039925760486
 42
0.0
 10
792.7366977859446
 20
215.7039925760486
 42
-0.6833752096446116
 10
790.2366977859446
 20
206.7290553905155
 42
0.0
 10
790.2366977859446
 20
203.7039925760486
 42
0.0
 10
795.2366977859447
 20
203.7039925760486
 42
0.4141429160298242
 10
797.7366977132183
 20
206.203389556735
 42
0.0
 10
797.7406977859446
 20
239.3704255759425
 42
-0.2676019405812645
 97
        0
 75
     2
 76
     1
 52
90.0
 41
10.0
 77
     0
 78
     1
 53
135.0
 43
351.7151479786134
 44
-219.3698527326617
 45
-0.8838834764831844
 46
-0.8838834764831842
 79
     0
 47
0.2857605785121139
 98
        1
 10
793.4858324428351
 20
243.7811483726358
1001
ACAD
1010
0.0
1020
0.0
1030
0.0
  0
LINE
  5
14B6
330
1F
100
AcDbEntity
  8
0
100
AcDbLine
 10
778.0827977859446
 20
239.6998925760487
 30
0.0
 11
793.9727657634444
 21
239.7039925760487
 31
0.0
  0
LINE
  5
14B7
330
1F
100
AcDbEntity
  8
0
100
AcDbLine
 10
776.7427977859447
 20
244.6998925760487
 30
0.0
 11
778.0827977859446
 21
239.6998925760487
 31
0.0
  0
LINE
  5
14B8
330
1F
100
AcDbEntity
  8
0
100
AcDbLine
 10
788.7415977859445
 20
244.6998925760487
 30
0.0
 11
776.7427977859447
 21
244.6998925760487
 31
0.0
  0
LINE
  5
14B9
330
1F
100
AcDbEntity
  8
0
100
AcDbLine
 10
788.7415977859445
 20
246.6996925760486
 30
0.0
 11
788.7415977859445
 21
244.6998925760487
 31
0.0
  0
LINE
  5
14BA
330
1F
100
AcDbEntity
  8
0
100
AcDbLine
 10
816.2388477859447
 20
334.6908925760487
 30
0.0
 11
816.2388477859447
 21
262.0381585760487
 31
0.0
  0
LINE
  5
14BB
330
1F
100
AcDbEntity
  8
0
100
AcDbLine
 10
813.7390977859444
 20
334.6908925760487
 30
0.0
 11
813.7390977859444
 21
271.6971925760487
 31
0.0
  0
ARC
  5
14BC
330
1F
100
AcDbEntity
  8
0
100
AcDbCircle
 10
788.7415977859445
 20
271.6971925760487
 30
0.0
 40
24.9975
100
AcDbArc
 50
270.0
 51
0.0
  0
ARC
  5
14BD
330
1F
100
AcDbEntity
  8
0
100
AcDbCircle
 10
788.7415977859445
 20
271.6971925760487
 30
0.0
 40
27.49725
100
AcDbArc
 50
300.4420000000035
 51
339.4339999999963
  0
ARC
  5
14BE
330
1F
100
AcDbEntity
  8
0
100
AcDbCircle
 10
807.7396977859446
 20
239.3704255760487
 30
0.0
 40
9.999
100
AcDbArc
 50
120.4420000000034
 51
180.0
  0
LINE
  5
14BF
330
1F
100
AcDbEntity
  8
0
100
AcDbLine
 10
837.7366977859447
 20
334.6908925760487
 30
0.0
 11
813.7390977859444
 21
334.6908925760487
 31
0.0
  0
LINE
  5
14C0
330
1F
100
AcDbEntity
  8
0
100
AcDbLine
 10
775.2429477859445
 20
264.6978925760486
 30
0.0
 11
812.7391977859447
 21
264.6978925760486
 31
0.0
  0
LINE
  5
14C1
330
1F
100
AcDbEntity
  8
0
100
AcDbLine
 10
824.2700445859446
 20
358.5105103760485
 30
0.0
 11
791.2163502859446
 21
355.6187995760487
 31
0.0
  0
LINE
  5
14C2
330
1F
100
AcDbEntity
  8
0
100
AcDbLine
 10
775.2429477859445
 20
264.6978925760486
 30
0.0
 11
775.2429477859445
 21
338.1865429760486
 31
0.0
  0
ARC
  5
14C3
330
1F
100
AcDbEntity
  8
0
100
AcDbCircle
 10
792.7411977859446
 20
338.1865429760486
 30
0.0
 40
17.49825
100
AcDbArc
 50
94.99999999999982
 51
180.0
  0
ARC
  5
14C4
330
1F
100
AcDbEntity
  8
0
100
AcDbCircle
 10
837.7366977859447
 20
354.6888925760485
 30
0.0
 40
4.9995
100
AcDbArc
 50
90.0
 51
270.0
  0
LINE
  5
14C5
330
1F
100
AcDbEntity
  8
0
100
AcDbLine
 10
824.4880227859447
 20
356.0197594760485
 30
0.0
 11
791.4343284859446
 21
353.1280486760485
 31
0.0
  0
LINE
  5
14C6
330
1F
100
AcDbEntity
  8
0
100
AcDbLine
 10
777.7426977859445
 20
264.6978925760486
 30
0.0
 11
777.7426977859445
 21
338.1865429760486
 31
0.0
  0
ARC
  5
14C7
330
1F
100
AcDbEntity
  8
0
100
AcDbCircle
 10
792.7411977859446
 20
338.1865429760486
 30
0.0
 40
14.9985
100
AcDbArc
 50
94.99999999999982
 51
180.0
  0
LINE
  5
14C8
330
1F
100
AcDbEntity
  8
0
100
AcDbLine
 10
837.7366977859447
 20
367.6875925760486
 30
0.0
 11
830.2374477859448
 21
367.6875925760486
 31
0.0
  0
LINE
  5
14C9
330
1F
100
AcDbEntity
  8
0
100
AcDbLine
 10
830.2374477859448
 20
367.6875925760486
 30
0.0
 11
814.7399976859446
 21
357.6765937760487
 31
0.0
  0
ARC
  5
14CA
330
1F
100
AcDbEntity
  8
0
100
AcDbCircle
 10
776.7427977859447
 20
265.6977925760486
 30
0.0
 40
0.9999
100
AcDbArc
 50
270.0
 51
0.0
  0
LINE
  5
14CB
330
1F
100
AcDbEntity
  8
0
100
AcDbLine
 10
814.4870229859447
 20
262.0381585760487
 30
0.0
 11
860.9873724859447
 21
262.0381585760487
 31
0.0
  0
LINE
  5
14CC
330
1F
100
AcDbEntity
  8
0
100
AcDbLine
 10
816.1688547859446
 20
272.1401482760486
 30
0.0
 11
859.2345477859446
 21
272.1401482760486
 31
0.0
  0
LINE
  5
14CE
330
1F
100
AcDbEntity
  8
4
100
AcDbLine
 10
802.7211996859445
 20
242.3091316760487
 30
0.0
 11
872.5142196859447
 21
242.3091316760487
 31
0.0
  0
ARC
  5
14CF
330
1F
100
AcDbEntity
  8
0
100
AcDbCircle
 10
837.7366977859447
 20
354.6888925760485
 30
0.0
 40
5.9994
100
AcDbArc
 50
209.9999999999968
 51
330.0000000000032
  0
ARC
  5
14D0
330
1F
100
AcDbEntity
  8
0
100
AcDbCircle
 10
837.7366977859447
 20
354.6888925760485
 30
0.0
 40
8.49915
100
AcDbArc
 50
209.9999999999968
 51
330.0000000000032
  0
LINE
  5
14D1
330
1F
100
AcDbEntity
  8
0
100
AcDbLine
 10
842.9331780859447
 20
351.6891925760486
 30
0.0
 11
845.0089704859447
 21
355.2848329760487
 31
0.0
  0
LINE
  5
14D2
330
1F
100
AcDbEntity
  8
0
100
AcDbLine
 10
845.0979615859447
 20
350.4393175760487
 30
0.0
 11
847.1737539859445
 21
354.0349579760488
 31
0.0
  0
LINE
  5
14D3
330
1F
100
AcDbEntity
  8
0
100
AcDbLine
 10
832.5412173859447
 20
351.6891925760486
 30
0.0
 11
830.4654249859446
 21
355.2858328760486
 31
0.0
  0
LINE
  5
14D4
330
1F
100
AcDbEntity
  8
0
100
AcDbLine
 10
830.3764338859446
 20
350.4393175760487
 30
0.0
 11
828.3006414859446
 21
354.0359578760487
 31
0.0
  0
ARC
  5
14D5
330
1F
100
AcDbEntity
  8
0
100
AcDbCircle
 10
824.8369878859445
 20
352.0351579760487
 30
0.0
 40
3.9996
100
AcDbArc
 50
29.9999999999968
 51
94.99999999999982
  0
ARC
  5
14D6
330
1F
100
AcDbEntity
  8
0
100
AcDbCircle
 10
850.6374075859445
 20
352.0351579760487
 30
0.0
 40
3.9996
100
AcDbArc
 50
85.00000000000019
 51
150.0000000000032
  0
ARC
  5
14D7
330
1F
100
AcDbEntity
  8
0
100
AcDbCircle
 10
824.8369878859445
 20
352.0351579760487
 30
0.0
 40
6.49935
100
AcDbArc
 50
29.9999999999968
 51
94.99999999999982
  0
ARC
  5
14D8
330
1F
100
AcDbEntity
  8
0
100
AcDbCircle
 10
850.6374075859445
 20
352.0351579760487
 30
0.0
 40
6.49935
100
AcDbArc
 50
85.00000000000019
 51
150.0000000000032
  0
INSERT
  5
14DA
102
{ACAD_REACTORS
330
1B3B
102
}
330
1F
100
AcDbEntity
  8
8
100
AcDbBlockReference
  2
*X7
 10
717.7286997859446
 20
90.0793561760487
 30
0.0
 41
0.9999000000000251
 42
0.9999000000000251
 43
0.9999
1001
ACAD
1000
HATCH
1002
{
1070
    19
1000
ANSI31,_I
1040
3.174999999999999
1040
0.7850000000000001
1002
}
  0
LINE
  5
14DD
330
1F
100
AcDbEntity
  8
AM_0
100
AcDbLine
 10
885.2366977859446
 20
203.7039925760486
 30
0.0
 11
885.2366977859446
 21
206.7039925760485
 31
0.0
  0
LINE
  5
14DE
330
1F
100
AcDbEntity
  8
AM_0
100
AcDbLine
 10
877.7326977859447
 20
239.3704255760487
 30
0.0
 11
877.7366977859447
 21
206.2039925760486
 31
0.0
  0
ARC
  5
14DF
330
1F
100
AcDbEntity
  8
AM_0
100
AcDbCircle
 10
885.7366977859447
 20
211.7039925760486
 30
0.0
 40
5.0
100
AcDbArc
 50
126.8699999999951
 51
264.2610000000063
  0
LINE
  5
14E0
330
1F
100
AcDbEntity
  8
AM_0
100
AcDbLine
 10
790.2366977859446
 20
203.7039925760486
 30
0.0
 11
885.2366977859446
 21
203.7039925760486
 31
0.0
  0
LINE
  5
14E1
330
1F
100
AcDbEntity
  8
AM_0
100
AcDbLine
 10
790.2366977859446
 20
203.7039925760486
 30
0.0
 11
790.2366977859446
 21
206.7039925760485
 31
0.0
  0
ARC
  5
14E2
330
1F
100
AcDbEntity
  8
AM_0
100
AcDbCircle
 10
795.2366977859447
 20
206.2039925760486
 30
0.0
 40
2.5
100
AcDbArc
 50
270.0
 51
0.0
  0
ARC
  5
14E3
330
1F
100
AcDbEntity
  8
AM_0
100
AcDbCircle
 10
880.2366977859447
 20
206.2039925760486
 30
0.0
 40
2.5
100
AcDbArc
 50
180.0
 51
270.0
  0
LINE
  5
14E5
330
1F
100
AcDbEntity
  8
AM_0
100
AcDbLine
 10
885.4866977859446
 20
234.7039925760486
 30
0.0
 11
883.7366977859446
 21
234.7039925760486
 31
0.0
  0
ARC
  5
14E6
330
1F
100
AcDbEntity
  8
AM_0
100
AcDbCircle
 10
883.7366977859446
 20
237.7039925760485
 30
0.0
 40
3.0
100
AcDbArc
 50
138.1896851042203
 51
270.0
  0
ARC
  5
14F7
330
1F
100
AcDbEntity
  8
AM_0
100
AcDbCircle
 10
885.4866977859446
 20
233.9539925760486
 30
0.0
 40
0.75
100
AcDbArc
 50
270.0
 51
90.0
  0
LINE
  5
14F8
330
1F
100
AcDbEntity
  8
AM_0
100
AcDbLine
 10
880.7366977859446
 20
231.7039925760486
 30
0.0
 11
880.7366977859446
 21
231.2039925760486
 31
0.0
  0
ARC
  5
14F9
330
1F
100
AcDbEntity
  8
AM_0
100
AcDbCircle
 10
882.2366977859447
 20
231.7039925760486
 30
0.0
 40
1.5
100
AcDbArc
 50
90.0
 51
180.0
  0
LINE
  5
14FA
330
1F
100
AcDbEntity
  8
AM_0
100
AcDbLine
 10
882.2366977859447
 20
233.2039925760486
 30
0.0
 11
885.4866977859446
 21
233.2039925760486
 31
0.0
  0
LINE
  5
14FB
330
1F
100
AcDbEntity
  8
AM_0
100
AcDbLine
 10
794.7366977859446
 20
231.2039925760486
 30
0.0
 11
794.7366977859446
 21
231.7039925760486
 31
0.0
  0
LINE
  5
14FC
330
1F
100
AcDbEntity
  8
AM_0
100
AcDbLine
 10
880.7366977859446
 20
231.2039925760486
 30
0.0
 11
880.7366977859446
 21
231.7039925760486
 31
0.0
  0
LINE
  5
14FD
330
1F
100
AcDbEntity
  8
AM_0
100
AcDbLine
 10
882.7366977859446
 20
222.7039925760486
 30
0.0
 11
882.7366977859446
 21
215.7039925760486
 31
0.0
  0
LINE
  5
14FE
330
1F
100
AcDbEntity
  8
AM_0
100
AcDbLine
 10
880.7366977859446
 20
226.7039925760487
 30
0.0
 11
880.7366977859446
 21
227.7039925760486
 31
0.0
  0
LINE
  5
14FF
330
1F
100
AcDbEntity
  8
AM_0
100
AcDbLine
 10
790.2366977859446
 20
203.7039925760486
 30
0.0
 11
885.2366977859446
 21
203.7039925760486
 31
0.0
  0
LINE
  5
1500
330
1F
100
AcDbEntity
  8
AM_0
100
AcDbLine
 10
790.2366977859446
 20
203.7039925760486
 30
0.0
 11
790.2366977859446
 21
206.7290553905155
 31
0.0
  0
LINE
  5
1501
330
1F
100
AcDbEntity
  8
AM_0
100
AcDbLine
 10
797.7406980768214
 20
239.3728374120009
 30
0.0
 11
797.7366977859446
 21
206.2039925760486
 31
0.0
  0
ARC
  5
1502
330
1F
100
AcDbEntity
  8
AM_0
100
AcDbCircle
 10
789.7366977859446
 20
211.7039925760486
 30
0.0
 40
5.0
100
AcDbArc
 50
275.7391704772747
 51
53.13010235415841
1001
GENIUS_GENODEF_13
1002
{
1000
HIER
1070
     0
1002
}
1002
{
1000
MANEDIT
1070
     0
1002
}
1002
{
1000
NOSEL
1070
     0
1002
}
1002
{
1000
BEHIND
1070
     0
1002
}
1002
{
1000
OTHER
1070
     0
1002
}
1002
{
1000
REACTOR
1002
}
1001
GENIUS_GENOBJ-N-FIL_13
1002
{
1000
OWNER
1000
GEN
1002
}
  0
ARC
  5
1503
330
1F
100
AcDbEntity
  8
AM_0
100
AcDbCircle
 10
795.2366977859447
 20
206.2039925760486
 30
0.0
 40
2.5
100
AcDbArc
 50
270.0
 51
0.0
  0
ARC
  5
1504
330
1F
100
AcDbEntity
  8
AM_0
100
AcDbCircle
 10
791.7366977859447
 20
237.7039925760485
 30
0.0
 40
3.0
100
AcDbArc
 50
270.0
 51
41.81031489577963
1001
GENIUS_GENOBJ-N-FIL_13
1002
{
1000
OWNER
1000
GEN
1002
}
1001
GENIUS_GENODEF_13
1002
{
1000
HIER
1070
     0
1002
}
1002
{
1000
MANEDIT
1070
     0
1002
}
1002
{
1000
NOSEL
1070
     0
1002
}
1002
{
1000
BEHIND
1070
     0
1002
}
1002
{
1000
OTHER
1070
     0
1002
}
1002
{
1000
REACTOR
1002
}
  0
ARC
  5
1505
330
1F
100
AcDbEntity
  8
AM_0
100
AcDbCircle
 10
789.9866977859447
 20
233.9539925760486
 30
0.0
 40
0.75
100
AcDbArc
 50
90.0
 51
270.0
1001
GENIUS_GENODEF_13
1002
{
1000
HIER
1070
     0
1002
}
1002
{
1000
MANEDIT
1070
     0
1002
}
1002
{
1000
NOSEL
1070
     0
1002
}
1002
{
1000
BEHIND
1070
     0
1002
}
1002
{
1000
OTHER
1070
     0
1002
}
1002
{
1000
REACTOR
1002
}
1001
GENIUS_GENOBJ-N-FIL_13
1002
{
1000
OWNER
1000
GEN
1002
}
  0
LINE
  5
1506
330
1F
100
AcDbEntity
  8
AM_0
100
AcDbLine
 10
793.2366977859446
 20
233.2039925760486
 30
0.0
 11
789.9866977859447
 21
233.2039925760486
 31
0.0
  0
ARC
  5
1507
330
1F
100
AcDbEntity
  8
AM_0
100
AcDbCircle
 10
793.2366977859446
 20
231.7039925760486
 30
0.0
 40
1.5
100
AcDbArc
 50
0.0
 51
90.0
  0
LINE
  5
1508
330
1F
100
AcDbEntity
  8
AM_0
100
AcDbLine
 10
792.7366977859446
 20
222.7039925760486
 30
0.0
 11
792.7366977859446
 21
215.7039925760486
 31
0.0
  0
LINE
  5
1509
330
1F
100
AcDbEntity
  8
AM_0
100
AcDbLine
 10
794.7366977859446
 20
231.2039925760486
 30
0.0
 11
794.7366977859446
 21
231.7039925760486
 31
0.0
  0
LINE
  5
150A
330
1F
100
AcDbEntity
  8
AM_0
100
AcDbLine
 10
792.7366977859446
 20
222.7039925760486
 30
0.0
 11
794.7366977859446
 21
224.7039925760486
 31
0.0
  0
ARC
  5
150B
330
1F
100
AcDbEntity
  8
AM_0
100
AcDbCircle
 10
789.9866977859447
 20
228.9539925760486
 30
0.0
 40
0.75
100
AcDbArc
 50
90.0
 51
270.0
  0
LINE
  5
150C
330
1F
100
AcDbEntity
  8
AM_0
100
AcDbLine
 10
794.2366977859446
 20
228.2039925760486
 30
0.0
 11
789.9866977859447
 21
228.2039925760486
 31
0.0
  0
LINE
  5
150D
330
1F
100
AcDbEntity
  8
AM_0
100
AcDbLine
 10
789.9866977859447
 20
229.7039925760486
 30
0.0
 11
793.2366977859446
 21
229.7039925760486
 31
0.0
  0
ARC
  5
150E
330
1F
100
AcDbEntity
  8
0
100
AcDbCircle
 10
793.2366977859446
 20
231.2039925760486
 30
0.0
 40
1.5
100
AcDbArc
 50
270.0
 51
359.9999999999935
1001
GENIUS_GENODEF_13
1002
{
1000
HIER
1070
     0
1002
}
1002
{
1000
MANEDIT
1070
     0
1002
}
1002
{
1000
NOSEL
1070
     0
1002
}
1002
{
1000
BEHIND
1070
     0
1002
}
1002
{
1000
OTHER
1070
     0
1002
}
1002
{
1000
REACTOR
1002
}
1001
GENIUS_GENOBJ-N-FIL_13
1002
{
1000
OWNER
1000
GEN
1002
}
  0
LINE
  5
150F
330
1F
100
AcDbEntity
  8
AM_0
100
AcDbLine
 10
794.7366977859446
 20
227.7039925760486
 30
0.0
 11
794.7366977859446
 21
224.7039925760486
 31
0.0
  0
ARC
  5
1510
330
1F
100
AcDbEntity
  8
AM_0
100
AcDbCircle
 10
794.2366977859446
 20
227.7039925760486
 30
0.0
 40
0.5
100
AcDbArc
 50
359.9999999999935
 51
90.0
1001
GENIUS_GENODEF_13
1002
{
1000
HIER
1070
     0
1002
}
1002
{
1000
MANEDIT
1070
     0
1002
}
1002
{
1000
NOSEL
1070
     0
1002
}
1002
{
1000
BEHIND
1070
     0
1002
}
1002
{
1000
OTHER
1070
     0
1002
}
1002
{
1000
REACTOR
1002
}
1001
GENIUS_GENOBJ-N-FIL_13
1002
{
1000
OWNER
1000
GEN
1002
}
  0
LINE
  5
1511
330
1F
100
AcDbEntity
  8
0
100
AcDbLine
 10
789.9866977859447
 20
234.7039925760486
 30
0.0
 11
791.7366977859447
 21
234.7039925760486
 31
0.0
  0
LINE
  5
1512
330
1F
100
AcDbEntity
  8
AM_0
100
AcDbLine
 10
880.7366977859446
 20
231.2039925760486
 30
0.0
 11
880.7366977859446
 21
231.7039925760486
 31
0.0
  0
LINE
  5
1513
330
1F
100
AcDbEntity
  8
AM_0
100
AcDbLine
 10
882.7366977859446
 20
222.7039925760486
 30
0.0
 11
880.7366977859446
 21
224.7039925760486
 31
0.0
  0
ARC
  5
1514
330
1F
100
AcDbEntity
  8
AM_0
100
AcDbCircle
 10
885.4866977859446
 20
228.9539925760486
 30
0.0
 40
0.75
100
AcDbArc
 50
270.0
 51
90.0
  0
LINE
  5
1515
330
1F
100
AcDbEntity
  8
AM_0
100
AcDbLine
 10
881.2366977859447
 20
228.2039925760486
 30
0.0
 11
885.4866977859446
 21
228.2039925760486
 31
0.0
  0
LINE
  5
1516
330
1F
100
AcDbEntity
  8
AM_0
100
AcDbLine
 10
885.4866977859446
 20
229.7039925760486
 30
0.0
 11
882.2366977859447
 21
229.7039925760486
 31
0.0
  0
ARC
  5
1517
330
1F
100
AcDbEntity
  8
0
100
AcDbCircle
 10
882.2366977859447
 20
231.2039925760486
 30
0.0
 40
1.5
100
AcDbArc
 50
180.0
 51
270.0
1001
GENIUS_GENODEF_13
1002
{
1000
HIER
1070
     0
1002
}
1002
{
1000
MANEDIT
1070
     0
1002
}
1002
{
1000
NOSEL
1070
     0
1002
}
1002
{
1000
BEHIND
1070
     0
1002
}
1002
{
1000
OTHER
1070
     0
1002
}
1002
{
1000
REACTOR
1002
}
1001
GENIUS_GENOBJ-N-FIL_13
1002
{
1000
OWNER
1000
GEN
1002
}
  0
LINE
  5
1518
330
1F
100
AcDbEntity
  8
AM_0
100
AcDbLine
 10
880.7366977859446
 20
227.7039925760486
 30
0.0
 11
880.7366977859446
 21
224.7039925760486
 31
0.0
  0
ARC
  5
1519
330
1F
100
AcDbEntity
  8
AM_0
100
AcDbCircle
 10
881.2366977859447
 20
227.7039925760486
 30
0.0
 40
0.5
100
AcDbArc
 50
90.0
 51
180.0
1001
GENIUS_GENODEF_13
1002
{
1000
HIER
1070
     0
1002
}
1002
{
1000
MANEDIT
1070
     0
1002
}
1002
{
1000
NOSEL
1070
     0
1002
}
1002
{
1000
BEHIND
1070
     0
1002
}
1002
{
1000
OTHER
1070
     0
1002
}
1002
{
1000
REACTOR
1002
}
1001
GENIUS_GENOBJ-N-FIL_13
1002
{
1000
OWNER
1000
GEN
1002
}
  0
LINE
  5
151A
330
1F
100
AcDbEntity
  8
0
100
AcDbLine
 10
897.3905977859446
 20
239.6998925760487
 30
0.0
 11
881.5006298084449
 21
239.7039925760487
 31
0.0
  0
LINE
  5
151B
330
1F
100
AcDbEntity
  8
0
100
AcDbLine
 10
898.7305977859445
 20
244.6998925760487
 30
0.0
 11
897.3905977859446
 21
239.6998925760487
 31
0.0
  0
LINE
  5
151C
330
1F
100
AcDbEntity
  8
AM_BOR
100
AcDbLine
 10
816.2388477859447
 20
334.6908925760487
 30
0.0
 11
813.7390977859444
 21
334.6908925760487
 31
0.0
  0
LINE
  5
151D
330
1F
100
AcDbEntity
  8
AM_BOR
100
AcDbLine
 10
813.7390977859444
 20
334.6908925760487
 30
0.0
 11
813.7390977859448
 21
271.6971925760487
 31
0.0
  0
LINE
  5
151E
330
1F
100
AcDbEntity
  8
AM_BOR
100
AcDbLine
 10
788.7415977859445
 20
246.6996925760486
 30
0.0
 11
788.7415977859445
 21
244.6998925760487
 31
0.0
  0
LINE
  5
151F
330
1F
100
AcDbEntity
  8
AM_BOR
100
AcDbLine
 10
788.7415977859445
 20
244.6998925760487
 30
0.0
 11
776.7427977859447
 21
244.6998925760487
 31
0.0
  0
LINE
  5
1520
330
1F
100
AcDbEntity
  8
AM_BOR
100
AcDbLine
 10
776.7427977859447
 20
244.6998925760487
 30
0.0
 11
778.0827977859446
 21
239.6998925760487
 31
0.0
  0
LINE
  5
1521
330
1F
100
AcDbEntity
  8
AM_BOR
100
AcDbLine
 10
778.0827977859446
 20
239.6998925760487
 30
0.0
 11
793.9764261601007
 21
239.6998925760487
 31
0.0
  0
LINE
  5
1522
330
1F
100
AcDbEntity
  8
AM_BOR
100
AcDbLine
 10
816.2388477859447
 20
334.6908925760487
 30
0.0
 11
816.2388477859447
 21
262.0381585760487
 31
0.0
  0
LINE
  5
1523
330
1F
100
AcDbEntity
  8
AM_BOR
100
AcDbLine
 10
816.2388477859447
 20
262.0381585760487
 30
0.0
 11
814.4863973922157
 21
262.0377903794611
 31
0.0
  0
LINE
  5
1524
330
1F
100
AcDbEntity
  8
AM_BOR
100
AcDbLine
 10
797.7406980768214
 20
239.3728374120009
 30
0.0
 11
797.7366977859446
 21
206.2039925760486
 31
0.0
  0
HATCH
  5
1525
330
1F
100
AcDbEntity
  8
8
100
AcDbHatch
 10
0.0
 20
0.0
 30
0.0
210
0.0
220
0.0
230
1.0
  2
ANSI31,_I
 70
     0
 71
     0
 91
        1
 92
        7
 72
     1
 73
     1
 93
       31
 10
872.7444167916045
 20
248.0233265951474
 42
-0.171196667181274
 10
860.9868600359842
 20
262.0381585760487
 42
0.0
 10
859.2345477859446
 20
262.0381585760487
 42
0.0
 10
859.2345477859446
 20
334.6908925760487
 42
0.0
 10
861.7342977859449
 20
334.6908925760487
 42
0.0
 10
861.7342977859445
 20
271.6971925760487
 42
0.4142135623730951
 10
886.7317977859448
 20
246.6996925760486
 42
0.0
 10
886.7317977859444
 20
244.6998925760487
 42
0.0
 10
897.9266781859447
 20
244.6998925760487
 42
0.0
 10
897.9266781859447
 20
241.7001925760486
 42
0.0
 10
897.3905977859446
 20
239.6998925760487
 42
0.0
 10
881.5006298084449
 20
239.7039925760487
 42
0.6482315195103873
 10
883.7366977859446
 20
234.7039925760486
 42
0.0
 10
885.4866977859446
 20
234.7039925760486
 42
-1.0
 10
885.4866977859446
 20
233.2039925760486
 42
0.0
 10
882.2366977859447
 20
233.2039925760486
 42
0.4142135623730951
 10
880.7366977859446
 20
231.7039925760486
 42
0.0
 10
880.7366977859446
 20
231.2039925760486
 42
0.4142135623731006
 10
882.2366977859447
 20
229.7039925760486
 42
0.0
 10
885.4866977859446
 20
229.7039925760486
 42
-1.0
 10
885.4866977859446
 20
228.2039925760486
 42
0.0
 10
881.2366977859447
 20
228.2039925760486
 42
0.4142135623730784
 10
880.7366977859446
 20
227.7039925760486
 42
0.0
 10
880.7366977859446
 20
224.7039925760486
 42
0.0
 10
882.7366977859446
 20
222.7039925760486
 42
0.0
 10
882.7366977859446
 20
215.7039925760486
 42
0.6833752096446116
 10
885.2366977859446
 20
206.7290553905155
 42
0.0
 10
885.2366977859446
 20
203.7039925760486
 42
0.0
 10
880.2366977859447
 20
203.7039925760486
 42
-0.4141429160298242
 10
877.736697858671
 20
206.203389556735
 42
0.0
 10
877.7326977859447
 20
239.3704255759425
 42
0.2676019405812645
 97
        0
 75
     2
 76
     1
 52
90.0
 41
10.0
 77
     0
 78
     1
 53
135.0
 43
351.7151479786134
 44
-219.3698527326617
 45
-0.8838834764831844
 46
-0.8838834764831842
 79
     0
 47
0.2857605785121139
 98
        1
 10
881.9875631290543
 20
243.7811483726358
1001
ACAD
1010
0.0
1020
0.0
1030
0.0
  0
HATCH
  5
1526
330
1F
100
AcDbEntity
  8
8
100
AcDbHatch
 10
0.0
 20
0.0
 30
0.0
210
0.0
220
0.0
230
1.0
  2
ANSI37
 70
     0
 71
     0
 91
        2
 92
        7
 72
     1
 73
     1
 93
       43
 10
885.7714417466427
 20
223.6810857066863
 42
0.0
 10
891.1649383816794
 20
226.4491398371061
 42
0.2716668584711962
 10
891.2673488078631
 20
226.6237143916161
 42
0.4142135623737611
 10
891.0673488078627
 20
226.8237143916161
 42
0.0
 10
885.7714417466436
 20
226.8237143916161
 42
0.0
 10
885.7714417466437
 20
228.3265944720811
 42
0.0
 10
885.3547381674211
 20
228.3265944720811
 42
-0.0801339345035949
 10
883.4117445227375
 20
226.8302888672764
 42
0.0484417223238465
 10
882.9629186516276
 20
226.5277392553836
 42
1.093653707245831
 10
882.3197106667201
 20
225.7672712748772
 42
0.1036315015779751
 10
881.9620600888194
 20
224.6760465724525
 42
0.0
 10
881.9280956233237
 20
224.6760465724525
 42
0.9831571377540281
 10
881.9450778560709
 20
223.6763350519019
 42
0.0
 10
881.9450778560709
 20
222.6763350519019
 42
1.0
 10
881.945092650581
 20
221.6763350521209
 42
0.0967879312693665
 10
882.1476292236871
 20
220.6216418774289
 42
1.052885881127892
 10
882.6469805465876
 20
219.7567736154502
 42
-0.0430586253744576
 10
883.196804572427
 20
218.6477982984002
 42
0.9658601896972792
 10
883.4966832789795
 20
217.6944530678355
 42
-0.0359040800559978
 10
883.6647992859003
 20
216.6755226539774
 42
0.9779609356961989
 10
883.6995128875823
 20
215.6763737739867
 42
0.0
 10
883.6870677141641
 20
215.6763737739867
 42
-0.0354467103561371
 10
883.5669968586199
 20
214.6638843202376
 42
0.9658601896965922
 10
883.3116550085955
 20
213.6976571694547
 42
-0.0413205729184045
 10
882.8376553577152
 20
212.6083096097367
 42
0.978129047178945
 10
882.3152251190604
 20
211.7559142843009
 42
0.1024979364073741
 10
881.9624539178432
 20
210.6760330331639
 42
0.0
 10
881.9277017942981
 20
210.6760330331639
 42
0.9827697323292557
 10
881.9450778560709
 20
209.6763350519019
 42
0.0
 10
881.9450778560709
 20
208.6761549274065
 42
1.010560995748457
 10
881.9824154374687
 20
207.6769074379795
 42
0.1210349122413357
 10
882.4312421413486
 20
206.675439292842
 42
0.0
 10
885.7714417466427
 20
206.675439292842
 42
0.0
 10
885.7714417466429
 20
208.1763350519019
 42
0.0
 10
891.1331450170287
 20
209.9874677469436
 42
0.3191073402239067
 10
891.2673488078635
 20
210.1763350518417
 42
0.3191065525252954
 10
891.1331455571135
 20
210.3652021685876
 42
0.0
 10
885.7714417466427
 20
212.1763350519016
 42
0.0
 10
885.7714417466432
 20
215.9030732773409
 42
0.0
 10
891.1331450170289
 20
217.7142059723826
 42
0.3191073402239067
 10
891.2673488078635
 20
217.9030732772807
 42
0.3191065525252954
 10
891.1331455571136
 20
218.0919403940267
 42
0.0
 10
885.7714417466436
 20
219.9030732773407
 42
0.0
 97
        0
 92
        7
 72
     1
 73
     1
 93
       44
 10
797.5450630615608
 20
221.6763350521209
 42
1.0
 10
797.5450778560707
 20
222.6763350519019
 42
0.0
 10
797.5450778560707
 20
223.6763350519019
 42
0.9831571377540761
 10
797.5620600888178
 20
224.6760465724525
 42
0.0
 10
797.5280956233221
 20
224.6760465724525
 42
0.1036315015779643
 10
797.1704450454215
 20
225.7672712748771
 42
1.093653707244843
 10
796.5272370605139
 20
226.5277392553836
 42
0.0484417223238004
 10
796.0784111894045
 20
226.8302888672762
 42
-0.080133934503613
 10
794.1354175447204
 20
228.3265944720811
 42
0.0
 10
793.7187139654975
 20
228.3265944720811
 42
0.0
 10
793.7187139654979
 20
226.8237143916161
 42
0.0
 10
788.4228069042787
 20
226.8237143916161
 42
0.414213562373761
 10
788.2228069042785
 20
226.6237143916161
 42
0.2716668584711958
 10
788.3252173304622
 20
226.4491398371061
 42
0.0
 10
793.7187139654988
 20
223.6810857066863
 42
0.0
 10
793.7187139654979
 20
219.9030732773406
 42
0.0
 10
788.3570101550285
 20
218.0919403940269
 42
0.319106552525654
 10
788.2228069042789
 20
217.9030732772806
 42
0.3191073402239918
 10
788.3570106951133
 20
217.7142059723824
 42
0.0
 10
793.7187139654984
 20
215.903073277341
 42
0.0
 10
793.7187139654988
 20
212.1763350519017
 42
0.0
 10
788.3570101550287
 20
210.3652021685879
 42
0.319106552525654
 10
788.2228069042792
 20
210.1763350518415
 42
0.3191073402239918
 10
788.3570106951135
 20
209.9874677469434
 42
0.0
 10
793.7187139654988
 20
208.1763350519019
 42
0.0
 10
793.7187139654988
 20
206.675439292842
 42
0.0
 10
797.058913570793
 20
206.675439292842
 42
0.1210349122413319
 10
797.5077402746729
 20
207.6769074379793
 42
1.038063553730226
 10
797.5182381801678
 20
208.6761549274065
 42
0.0
 10
797.5450778560707
 20
208.6761549274065
 42
0.0
 10
797.5450778560707
 20
209.6763350519019
 42
0.9827697323291898
 10
797.5624539178432
 20
210.6760330331639
 42
0.0
 10
797.5277017942983
 20
210.6760330331639
 42
0.1024979364073745
 10
797.1749305930812
 20
211.7559142843009
 42
0.9781290471834806
 10
796.6525003544263
 20
212.6083096097368
 42
-0.0413205729184139
 10
796.178500703546
 20
213.6976571694551
 42
0.9713813115582345
 10
795.9176109433156
 20
214.6625892429453
 42
-0.002848554877974
 10
795.9231588535217
 20
214.6638843202377
 42
-0.0354467103561371
 10
795.8030879979774
 20
215.6763737739867
 42
0.9658601896960938
 10
795.8253564262413
 20
216.6755226539773
 42
-0.0359040800559974
 10
795.993472433162
 20
217.6944530678355
 42
0.9658601896965249
 10
796.2933511397145
 20
218.6477982984001
 42
-0.043058625374447
 10
796.8431751655537
 20
219.7567736154499
 42
1.052885881119329
 10
797.3425264884547
 20
220.6216418774289
 42
0.0967879312693681
 97
        0
 75
     0
 76
     1
 52
0.0
 41
1.0
 77
     0
 78
     2
 53
45.0
 43
295.3370420663944
 44
-33.51529481539774
 45
-2.245064030267287
 46
2.245064030267288
 79
     0
 53
135.0
 43
295.3370420663944
 44
-33.51529481539774
 45
-2.245064030267288
 46
-2.245064030267287
 79
     0
 47
0.0703760402578945
 98
        2
 10
883.7431009290664
 20
221.5740970383299
 10
795.7323429506557
 20
221.433344656384
1001
ACAD
1010
0.0
1020
0.0
1030
0.0
  0
ARC
  5
1527
330
1F
100
AcDbEntity
  8
0
100
AcDbCircle
 10
879.7450778560708
 20
233.6012234819035
 30
0.0
 40
7.7
100
AcDbArc
 50
298.436890148852
 51
316.7630751886295
  0
ARC
  5
1528
330
1F
100
AcDbEntity
  8
0
100
AcDbCircle
 10
876.4950778560708
 20
216.0159056297534
 30
0.0
 40
7.2
100
AcDbArc
 50
331.7527605313005
 51
341.2173541394289
  0
ARC
  5
1529
330
1F
100
AcDbEntity
  8
0
100
AcDbCircle
 10
876.4950778560708
 20
216.0159056297534
 30
0.0
 40
7.2
100
AcDbArc
 50
349.176701182229
 51
357.2970889192315
  0
ARC
  5
152A
330
1F
100
AcDbEntity
  8
0
100
AcDbCircle
 10
876.4950778560708
 20
216.0159056297534
 30
0.0
 40
7.2
100
AcDbArc
 50
5.256435962027302
 51
13.48151187095866
  0
ARC
  5
152B
330
1F
100
AcDbEntity
  8
0
100
AcDbCircle
 10
876.4950778560708
 20
216.0159056297534
 30
0.0
 40
7.2
100
AcDbArc
 50
21.44085891375413
 51
31.3030769472372
  0
LINE
  5
152C
330
1F
100
AcDbEntity
  8
0
100
AcDbLine
 10
881.9450778560709
 20
209.6763350519019
 30
0.0
 11
881.9450778560709
 21
208.6761549274065
 31
0.0
  0
ARC
  5
152D
330
1F
100
AcDbEntity
  8
0
100
AcDbCircle
 10
884.2450778560699
 20
208.0896528552156
 30
0.0
 40
2.299999999999999
100
AcDbArc
 50
190.3379892964855
 51
217.9428716871601
1001
GENIUS_GENODEF_13
1002
{
1000
HIER
1070
     0
1002
}
1002
{
1000
MANEDIT
1070
     0
1002
}
1002
{
1000
NOSEL
1070
     0
1002
}
1002
{
1000
BEHIND
1070
     0
1002
}
1002
{
1000
REACTOR
1002
}
1001
GENIUS_GENOBJ-N-FIL_13
1002
{
1000
OWNER
1000
GEN
1002
}
  0
ARC
  5
152E
330
1F
100
AcDbEntity
  8
0
100
AcDbCircle
 10
884.7450778560707
 20
210.3645783520248
 30
0.0
 40
2.799999999999999
100
AcDbArc
 50
150.2045076097015
 51
173.6135555418399
1001
GENIUS_GENODEF_13
1002
{
1000
HIER
1070
     0
1002
}
1002
{
1000
MANEDIT
1070
     0
1002
}
1002
{
1000
NOSEL
1070
     0
1002
}
1002
{
1000
BEHIND
1070
     0
1002
}
1002
{
1000
REACTOR
1002
}
1001
GENIUS_GENOBJ-N-FIL_13
1002
{
1000
OWNER
1000
GEN
1002
}
  0
ARC
  5
152F
330
1F
100
AcDbEntity
  8
0
100
AcDbCircle
 10
884.7450778560707
 20
224.3681308255939
 30
0.0
 40
2.799999999999999
100
AcDbArc
 50
118.436890148852
 51
129.5302433154994
1001
GENIUS_GENODEF_13
1002
{
1000
HIER
1070
     0
1002
}
1002
{
1000
MANEDIT
1070
     0
1002
}
1002
{
1000
NOSEL
1070
     0
1002
}
1002
{
1000
BEHIND
1070
     0
1002
}
1002
{
1000
REACTOR
1002
}
1001
GENIUS_GENOBJ-N-FIL_13
1002
{
1000
OWNER
1000
GEN
1002
}
  0
ARC
  5
1530
330
1F
100
AcDbEntity
  8
0
100
AcDbCircle
 10
884.7450778560707
 20
224.3681308255939
 30
0.0
 40
2.799999999999999
100
AcDbArc
 50
150.0203077146248
 51
173.6864190072451
1001
GENIUS_GENODEF_13
1002
{
1000
HIER
1070
     0
1002
}
1002
{
1000
MANEDIT
1070
     0
1002
}
1002
{
1000
NOSEL
1070
     0
1002
}
1002
{
1000
BEHIND
1070
     0
1002
}
1002
{
1000
REACTOR
1002
}
1001
GENIUS_GENOBJ-N-FIL_13
1002
{
1000
OWNER
1000
GEN
1002
}
  0
ARC
  5
1531
330
1F
100
AcDbEntity
  8
0
100
AcDbCircle
 10
884.7450778560707
 20
221.667232907482
 30
0.0
 40
2.799999999999999
100
AcDbArc
 50
180.0
 51
201.9270243470616
1001
GENIUS_GENODEF_13
1002
{
1000
HIER
1070
     0
1002
}
1002
{
1000
MANEDIT
1070
     0
1002
}
1002
{
1000
NOSEL
1070
     0
1002
}
1002
{
1000
BEHIND
1070
     0
1002
}
1002
{
1000
REACTOR
1002
}
1001
GENIUS_GENOBJ-N-FIL_13
1002
{
1000
OWNER
1000
GEN
1002
}
  0
LINE
  5
1532
330
1F
100
AcDbEntity
  8
0
100
AcDbLine
 10
881.9450778560709
 20
223.6763350519019
 30
0.0
 11
881.9450778560709
 21
222.6763350519019
 31
0.0
  0
LINE
  5
1533
330
1F
100
AcDbEntity
  8
0
100
AcDbLine
 10
881.9450778560709
 20
221.6763350519019
 30
0.0
 11
881.9450778560709
 21
221.667232907482
 31
0.0
  0
LINE
  5
1534
330
1F
100
AcDbEntity
  8
0
100
AcDbLine
 10
891.1295566199473
 20
218.0931527030888
 30
0.0
 11
885.7714417466432
 21
219.9030732773407
 31
0.0
  0
LINE
  5
1535
330
1F
100
AcDbEntity
  8
0
100
AcDbLine
 10
891.1295571631063
 20
217.7129940292338
 30
0.0
 11
885.7714417466432
 21
215.9030732773409
 31
0.0
  0
LINE
  5
1536
330
1F
100
AcDbEntity
  8
0
100
AcDbLine
 10
885.7714417466427
 20
223.6810857066863
 30
0.0
 11
885.7714417466436
 21
219.9030732773407
 31
0.0
  0
LINE
  5
1537
330
1F
100
AcDbEntity
  8
0
100
AcDbLine
 10
885.7714417466432
 20
215.903073277341
 30
0.0
 11
885.7714417466427
 21
212.1763350519017
 31
0.0
  0
ARC
  5
1538
330
1F
100
AcDbEntity
  8
0
100
AcDbCircle
 10
891.0673488078638
 20
217.9030732772807
 30
0.0
 40
0.2000000000000001
100
AcDbArc
 50
288.1220239729226
 51
0.0
  0
ARC
  5
1539
330
1F
100
AcDbEntity
  8
0
100
AcDbCircle
 10
891.0673488078627
 20
217.9030732772805
 30
0.0
 40
0.2000000000000001
100
AcDbArc
 50
0.0000000000325689
 51
71.87813975151756
  0
LINE
  5
153A
330
1F
100
AcDbEntity
  8
0
100
AcDbLine
 10
885.7714417466441
 20
228.3265944720811
 30
0.0
 11
885.7714417466436
 21
226.8237143916161
 31
0.0
  0
LINE
  5
153B
330
1F
100
AcDbEntity
  8
0
100
AcDbLine
 10
885.7714417466441
 20
228.3265944720811
 30
0.0
 11
885.3547381674211
 21
228.3265944720811
 31
0.0
  0
LINE
  5
153C
330
1F
100
AcDbEntity
  8
0
100
AcDbLine
 10
885.7714417466427
 20
206.675439292842
 30
0.0
 11
882.4312421413486
 21
206.675439292842
 31
0.0
  0
LINE
  5
153D
330
1F
100
AcDbEntity
  8
0
100
AcDbLine
 10
885.7714417466427
 20
206.675439292842
 30
0.0
 11
885.7714417466427
 21
208.1763350519019
 31
0.0
  0
LINE
  5
153E
330
1F
100
AcDbEntity
  8
0
100
AcDbLine
 10
891.0673488078627
 20
226.8237143916161
 30
0.0
 11
885.7714417466427
 21
226.8237143916161
 31
0.0
  0
LINE
  5
153F
330
1F
100
AcDbEntity
  8
0
100
AcDbLine
 10
891.1649383816794
 20
226.4491398371061
 30
0.0
 11
885.7714417466427
 21
223.6810857066863
 31
0.0
  0
ARC
  5
1540
330
1F
100
AcDbEntity
  8
0
100
AcDbCircle
 10
891.0673488078632
 20
226.6237143916161
 30
0.0
 40
0.2000000000000001
100
AcDbArc
 50
0.0
 51
90.0
  0
ARC
  5
1541
330
1F
100
AcDbEntity
  8
0
100
AcDbCircle
 10
891.0673488078632
 20
226.6237143916161
 30
0.0
 40
0.2000000000000001
100
AcDbArc
 50
299.2057899785818
 51
0.0
  0
LINE
  5
1542
330
1F
100
AcDbEntity
  8
0
100
AcDbLine
 10
891.1295566199468
 20
210.3664144776498
 30
0.0
 11
885.7714417466427
 21
212.1763350519017
 31
0.0
  0
LINE
  5
1543
330
1F
100
AcDbEntity
  8
0
100
AcDbLine
 10
891.1295571631058
 20
209.9862558037947
 30
0.0
 11
885.7714417466427
 21
208.1763350519019
 31
0.0
  0
ARC
  5
1544
330
1F
100
AcDbEntity
  8
0
100
AcDbCircle
 10
891.0673488078632
 20
210.1763350518417
 30
0.0
 40
0.2000000000000001
100
AcDbArc
 50
288.1220239729226
 51
0.0
  0
ARC
  5
1545
330
1F
100
AcDbEntity
  8
0
100
AcDbCircle
 10
891.0673488078623
 20
210.1763350518414
 30
0.0
 40
0.2000000000000001
100
AcDbArc
 50
0.0000000000325689
 51
71.87813975151756
  0
ARC
  5
1546
330
1F
100
AcDbEntity
  8
0
100
AcDbCircle
 10
881.9450778560709
 20
224.1763350519019
 30
0.0
 40
0.5
100
AcDbArc
 50
88.05360512923845
 51
270.0
  0
ARC
  5
1547
330
1F
100
AcDbEntity
  8
0
100
AcDbCircle
 10
883.4561108317936
 20
214.1763350519019
 30
0.0
 40
0.5
100
AcDbArc
 50
77.18686442152217
 51
253.2071909001487
  0
ARC
  5
1548
330
1F
100
AcDbEntity
  8
0
100
AcDbCircle
 10
882.5858657999821
 20
212.1763350519019
 30
0.0
 40
0.5
100
AcDbArc
 50
59.7629237706077
 51
237.2290906329811
  0
ARC
  5
1549
330
1F
100
AcDbEntity
  8
0
100
AcDbCircle
 10
881.9450778560709
 20
210.1763350519019
 30
0.0
 40
0.5
100
AcDbArc
 50
88.05360512923845
 51
270.0
  0
ARC
  5
154A
330
1F
100
AcDbEntity
  8
0
100
AcDbCircle
 10
881.9584976940186
 20
208.1763350519019
 30
0.0
 40
0.5
100
AcDbArc
 50
91.53798484258443
 51
272.7418178424397
  0
ARC
  5
154B
330
1F
100
AcDbEntity
  8
0
100
AcDbCircle
 10
883.6932903008733
 20
216.1763350519019
 30
0.0
 40
0.5
100
AcDbArc
 50
93.26659920134442
 51
269.2869256799176
  0
ARC
  5
154C
330
1F
100
AcDbEntity
  8
0
100
AcDbCircle
 10
883.3633050445028
 20
218.1763350519019
 30
0.0
 40
0.5
100
AcDbArc
 50
109.4510221530744
 51
285.4713486316547
  0
ARC
  5
154D
330
1F
100
AcDbEntity
  8
0
100
AcDbCircle
 10
882.3750095903394
 20
220.1763350519019
 30
0.0
 40
0.5
100
AcDbArc
 50
117.0495404468487
 51
302.9523872547716
  0
ARC
  5
154E
330
1F
100
AcDbEntity
  8
0
100
AcDbCircle
 10
881.9450778560709
 20
222.1763350519019
 30
0.0
 40
0.5
100
AcDbArc
 50
90.0
 51
270.0
  0
ARC
  5
154F
330
1F
100
AcDbEntity
  8
0
100
AcDbCircle
 10
882.6072290597426
 20
226.1763350519019
 30
0.0
 40
0.5
100
AcDbArc
 50
44.65275941527607
 51
234.8977916148502
  0
LINE
  5
1550
330
1F
100
AcDbEntity
  8
AM_7
  6
AM_ISO08W050x2
100
AcDbLine
 10
891.0673488078632
 20
210.1763350518417
 30
0.0
 11
891.2920828084407
 21
210.1763350518417
 31
0.0
1001
GENIUS_GENOREF_13
1005
1597
  0
LINE
  5
1551
330
1F
100
AcDbEntity
  8
AM_7
  6
AM_ISO08W050x2
100
AcDbLine
 10
891.0673488078632
 20
210.1763350518417
 30
0.0
 11
891.0673488078632
 21
210.4010690524189
 31
0.0
1001
GENIUS_GENOREF_13
1005
1597
  0
LINE
  5
1552
330
1F
100
AcDbEntity
  8
AM_7
  6
AM_ISO08W050x2
100
AcDbLine
 10
891.0673488078632
 20
210.1763350518417
 30
0.0
 11
890.8426148072862
 21
210.1763350518417
 31
0.0
1001
GENIUS_GENOREF_13
1005
1597
  0
LINE
  5
1553
330
1F
100
AcDbEntity
  8
AM_7
  6
AM_ISO08W050x2
100
AcDbLine
 10
891.0673488078632
 20
210.1763350518417
 30
0.0
 11
891.0673488078632
 21
209.9516010512644
 31
0.0
1001
GENIUS_GENOREF_13
1005
1597
  0
LINE
  5
1554
330
1F
100
AcDbEntity
  8
AM_7
  6
AM_ISO08W050x2
100
AcDbLine
 10
891.0673488078627
 20
217.9030732772805
 30
0.0
 11
891.2920828084397
 21
217.9030732772805
 31
0.0
1001
GENIUS_GENOREF_13
1005
1596
  0
LINE
  5
1555
330
1F
100
AcDbEntity
  8
AM_7
  6
AM_ISO08W050x2
100
AcDbLine
 10
891.0673488078627
 20
217.9030732772805
 30
0.0
 11
891.0673488078627
 21
218.1278072778576
 31
0.0
1001
GENIUS_GENOREF_13
1005
1596
  0
LINE
  5
1556
330
1F
100
AcDbEntity
  8
AM_7
  6
AM_ISO08W050x2
100
AcDbLine
 10
891.0673488078627
 20
217.9030732772805
 30
0.0
 11
890.8426148072853
 21
217.9030732772805
 31
0.0
1001
GENIUS_GENOREF_13
1005
1596
  0
LINE
  5
1557
330
1F
100
AcDbEntity
  8
AM_7
  6
AM_ISO08W050x2
100
AcDbLine
 10
891.0673488078627
 20
217.9030732772805
 30
0.0
 11
891.0673488078627
 21
217.6783392767033
 31
0.0
1001
GENIUS_GENOREF_13
1005
1596
  0
LINE
  5
1558
330
1F
100
AcDbEntity
  8
AM_7
  6
AM_ISO08W050x2
100
AcDbLine
 10
891.0673488078632
 20
226.6237143916161
 30
0.0
 11
891.2920828084402
 21
226.6237143916161
 31
0.0
1001
GENIUS_GENOREF_13
1005
1595
  0
LINE
  5
1559
330
1F
100
AcDbEntity
  8
AM_7
  6
AM_ISO08W050x2
100
AcDbLine
 10
891.0673488078632
 20
226.6237143916161
 30
0.0
 11
891.0673488078632
 21
226.8484483921933
 31
0.0
1001
GENIUS_GENOREF_13
1005
1595
  0
LINE
  5
155A
330
1F
100
AcDbEntity
  8
AM_7
  6
AM_ISO08W050x2
100
AcDbLine
 10
891.0673488078632
 20
226.6237143916161
 30
0.0
 11
890.8426148072859
 21
226.6237143916161
 31
0.0
1001
GENIUS_GENOREF_13
1005
1595
  0
LINE
  5
155B
330
1F
100
AcDbEntity
  8
AM_7
  6
AM_ISO08W050x2
100
AcDbLine
 10
891.0673488078632
 20
226.6237143916161
 30
0.0
 11
891.0673488078632
 21
226.3989803910389
 31
0.0
1001
GENIUS_GENOREF_13
1005
1595
  0
LINE
  5
155C
102
{ACAD_REACTORS
330
1B11
102
}
330
1F
100
AcDbEntity
  8
AM_0
100
AcDbLine
 10
790.2366977859446
 20
203.7039925760502
 30
0.0
 11
790.2366977859446
 21
206.7039925760501
 31
0.0
  0
ARC
  5
155D
330
1F
100
AcDbEntity
  8
AM_0
100
AcDbCircle
 10
789.7366977859449
 20
211.7039925760502
 30
0.0
 40
5.0
100
AcDbArc
 50
275.7389999999936
 51
53.1300000000049
  0
HATCH
  5
155E
330
1F
100
AcDbEntity
  8
8
100
AcDbHatch
 10
0.0
 20
0.0
 30
0.0
210
0.0
220
0.0
230
1.0
  2
ANSI37
 70
     0
 71
     0
 91
        2
 92
        7
 72
     1
 73
     1
 93
       43
 10
789.7019538252471
 20
223.6810857066879
 42
0.0
 10
784.3084571902108
 20
226.4491398371077
 42
-0.2716668584711962
 10
784.2060467640266
 20
226.6237143916178
 42
-0.4142135623737611
 10
784.4060467640274
 20
226.8237143916177
 42
0.0
 10
789.7019538252461
 20
226.8237143916177
 42
0.0
 10
789.7019538252461
 20
228.3265944720826
 42
0.0
 10
790.118657404469
 20
228.3265944720826
 42
0.0801339345035949
 10
792.0616510491525
 20
226.830288867278
 42
-0.0484417223238465
 10
792.5104769202623
 20
226.5277392553851
 42
-1.093653707245831
 10
793.1536849051699
 20
225.7672712748787
 42
-0.1036315015779751
 10
793.5113354830705
 20
224.6760465724539
 42
0.0
 10
793.545299948566
 20
224.6760465724539
 42
-0.9831571377540281
 10
793.5283177158192
 20
223.6763350519033
 42
0.0
 10
793.5283177158189
 20
222.6763350519032
 42
-1.0
 10
793.5283029213089
 20
221.6763350521222
 42
-0.0967879312693665
 10
793.3257663482029
 20
220.6216418774303
 42
-1.052885881127892
 10
792.8264150253022
 20
219.7567736154516
 42
0.0430586253744576
 10
792.2765909994628
 20
218.6477982984016
 42
-0.9658601896972792
 10
791.9767122929101
 20
217.694453067837
 42
0.0359040800559978
 10
791.8085962859895
 20
216.6755226539789
 42
-0.9779609356961989
 10
791.7738826843073
 20
215.6763737739882
 42
0.0
 10
791.7863278577256
 20
215.6763737739882
 42
0.0354467103561371
 10
791.9063987132699
 20
214.6638843202392
 42
-0.9658601896965922
 10
792.1617405632941
 20
213.6976571694562
 42
0.0413205729184045
 10
792.6357402141743
 20
212.6083096097381
 42
-0.978129047178945
 10
793.1581704528292
 20
211.7559142843023
 42
-0.1024979364073741
 10
793.5109416540463
 20
210.6760330331653
 42
0.0
 10
793.5456937775911
 20
210.6760330331653
 42
-0.9827697323292557
 10
793.5283177158187
 20
209.6763350519033
 42
0.0
 10
793.5283177158185
 20
208.676154927408
 42
-1.010560995748457
 10
793.4909801344206
 20
207.6769074379809
 42
-0.1210349122413357
 10
793.042153430541
 20
206.6754392928434
 42
0.0
 10
789.7019538252465
 20
206.6754392928436
 42
0.0
 10
789.7019538252465
 20
208.1763350519035
 42
0.0
 10
784.3402505548608
 20
209.9874677469453
 42
-0.3191073402239067
 10
784.2060467640262
 20
210.1763350518433
 42
-0.3191065525252954
 10
784.340250014776
 20
210.3652021685892
 42
0.0
 10
789.7019538252465
 20
212.176335051903
 42
0.0
 10
789.7019538252464
 20
215.9030732773425
 42
0.0
 10
784.3402505548608
 20
217.7142059723843
 42
-0.3191073402239067
 10
784.2060467640262
 20
217.9030732772824
 42
-0.3191065525252954
 10
784.340250014776
 20
218.0919403940283
 42
0.0
 10
789.7019538252464
 20
219.9030732773422
 42
0.0
 97
        0
 92
        7
 72
     1
 73
     1
 93
       44
 10
877.9283325103293
 20
221.6763350521195
 42
-1.0
 10
877.9283177158193
 20
222.6763350519005
 42
0.0
 10
877.9283177158193
 20
223.6763350519005
 42
-0.9831571377540761
 10
877.9113354830721
 20
224.6760465724511
 42
0.0
 10
877.9452999485679
 20
224.6760465724511
 42
-0.1036315015779643
 10
878.3029505264686
 20
225.7672712748759
 42
-1.093653707244843
 10
878.9461585113761
 20
226.5277392553822
 42
-0.0484417223238004
 10
879.3949843824854
 20
226.8302888672748
 42
0.080133934503613
 10
881.3379780271699
 20
228.3265944720796
 42
0.0
 10
881.7546816063925
 20
228.3265944720796
 42
0.0
 10
881.754681606392
 20
226.8237143916148
 42
0.0
 10
887.0505886676111
 20
226.8237143916145
 42
-0.414213562373761
 10
887.2505886676115
 20
226.6237143916145
 42
-0.2716668584711958
 10
887.1481782414278
 20
226.4491398371045
 42
0.0
 10
881.7546816063911
 20
223.6810857066849
 42
0.0
 10
881.7546816063918
 20
219.9030732773391
 42
0.0
 10
887.1163854168612
 20
218.0919403940253
 42
-0.319106552525654
 10
887.2505886676108
 20
217.9030732772789
 42
-0.3191073402239918
 10
887.1163848767764
 20
217.7142059723808
 42
0.0
 10
881.7546816063913
 20
215.9030732773396
 42
0.0
 10
881.7546816063909
 20
212.1763350519003
 42
0.0
 10
887.1163854168608
 20
210.3652021685863
 42
-0.319106552525654
 10
887.2505886676103
 20
210.1763350518398
 42
-0.3191073402239918
 10
887.1163848767761
 20
209.9874677469418
 42
0.0
 10
881.7546816063904
 20
208.1763350519005
 42
0.0
 10
881.7546816063908
 20
206.6754392928407
 42
0.0
 10
878.4144820010963
 20
206.6754392928407
 42
-0.1210349122413319
 10
877.9656552972165
 20
207.676907437978
 42
-1.038063553730226
 10
877.9551573917217
 20
208.6761549274052
 42
0.0
 10
877.9283177158188
 20
208.6761549274052
 42
0.0
 10
877.9283177158188
 20
209.6763350519005
 42
-0.9827697323291898
 10
877.9109416540464
 20
210.6760330331625
 42
0.0
 10
877.9456937775913
 20
210.6760330331625
 42
-0.1024979364073745
 10
878.2984649788083
 20
211.7559142842996
 42
-0.9781290471834806
 10
878.8208952174631
 20
212.6083096097354
 42
0.0413205729184139
 10
879.2948948683436
 20
213.6976571694537
 42
-0.9713813115582345
 10
879.5557846285742
 20
214.6625892429439
 42
0.002848554877974
 10
879.5502367183681
 20
214.6638843202363
 42
0.0354467103561371
 10
879.6703075739124
 20
215.6763737739853
 42
-0.9658601896960938
 10
879.6480391456482
 20
216.6755226539759
 42
0.0359040800559974
 10
879.4799231387278
 20
217.6944530678341
 42
-0.9658601896965249
 10
879.1800444321753
 20
218.6477982983987
 42
0.043058625374447
 10
878.630220406336
 20
219.7567736154486
 42
-1.052885881119329
 10
878.130869083435
 20
220.6216418774276
 42
-0.0967879312693681
 97
        0
 75
     0
 76
     1
 52
0.0
 41
1.0
 77
     0
 78
     2
 53
134.9999999999981
 43
1380.136353505487
 44
-33.51529481541536
 45
2.24506403026736
 46
2.245064030267215
 79
     0
 53
44.99999999999814
 43
1380.136353505487
 44
-33.51529481541536
 45
2.245064030267215
 46
-2.24506403026736
 79
     0
 47
0.0703760402578945
 98
        2
 10
791.7302946428235
 20
221.5740970383314
 10
879.7410526212344
 20
221.4333446563826
1001
ACAD
1010
0.0
1020
0.0
1030
0.0
  0
ARC
  5
155F
330
1F
100
AcDbEntity
  8
0
100
AcDbCircle
 10
795.7283177158195
 20
233.6012234819049
 30
0.0
 40
7.7
100
AcDbArc
 50
223.2369248113705
 51
241.563109851148
  0
ARC
  5
1560
330
1F
100
AcDbEntity
  8
0
100
AcDbCircle
 10
798.9783177158187
 20
216.0159056297547
 30
0.0
 40
7.2
100
AcDbArc
 50
198.7826458605704
 51
208.2472394686929
  0
ARC
  5
1561
330
1F
100
AcDbEntity
  8
0
100
AcDbCircle
 10
798.9783177158187
 20
216.0159056297547
 30
0.0
 40
7.2
100
AcDbArc
 50
182.702911080762
 51
190.823298817771
  0
ARC
  5
1562
330
1F
100
AcDbEntity
  8
0
100
AcDbCircle
 10
798.9783177158187
 20
216.0159056297547
 30
0.0
 40
7.2
100
AcDbArc
 50
166.5184881290413
 51
174.7435640379727
  0
ARC
  5
1563
330
1F
100
AcDbEntity
  8
0
100
AcDbCircle
 10
798.9783177158187
 20
216.0159056297547
 30
0.0
 40
7.2
100
AcDbArc
 50
148.6969230527562
 51
158.5591410862401
  0
LINE
  5
1564
330
1F
100
AcDbEntity
  8
0
100
AcDbLine
 10
793.5283177158187
 20
209.6763350519033
 30
0.0
 11
793.5283177158185
 21
208.676154927408
 31
0.0
  0
ARC
  5
1565
330
1F
100
AcDbEntity
  8
0
100
AcDbCircle
 10
791.2283177158196
 20
208.0896528552171
 30
0.0
 40
2.299999999999999
100
AcDbArc
 50
322.0571283128392
 51
349.6620107035145
1001
GENIUS_GENODEF_13
1002
{
1000
HIER
1070
     0
1002
}
1002
{
1000
MANEDIT
1070
     0
1002
}
1002
{
1000
NOSEL
1070
     0
1002
}
1002
{
1000
BEHIND
1070
     0
1002
}
1002
{
1000
REACTOR
1002
}
1001
GENIUS_GENOBJ-N-FIL_13
1002
{
1000
OWNER
1000
GEN
1002
}
  0
ARC
  5
1566
330
1F
100
AcDbEntity
  8
0
100
AcDbCircle
 10
790.7283177158188
 20
210.3645783520263
 30
0.0
 40
2.799999999999999
100
AcDbArc
 50
6.38644445815364
 51
29.7954923902985
1001
GENIUS_GENODEF_13
1002
{
1000
HIER
1070
     0
1002
}
1002
{
1000
MANEDIT
1070
     0
1002
}
1002
{
1000
NOSEL
1070
     0
1002
}
1002
{
1000
BEHIND
1070
     0
1002
}
1002
{
1000
REACTOR
1002
}
1001
GENIUS_GENOBJ-N-FIL_13
1002
{
1000
OWNER
1000
GEN
1002
}
  0
ARC
  5
1567
330
1F
100
AcDbEntity
  8
0
100
AcDbCircle
 10
790.7283177158192
 20
224.3681308255954
 30
0.0
 40
2.799999999999999
100
AcDbArc
 50
6.313580992754875
 51
29.97969228537519
1001
GENIUS_GENODEF_13
1002
{
1000
HIER
1070
     0
1002
}
1002
{
1000
MANEDIT
1070
     0
1002
}
1002
{
1000
NOSEL
1070
     0
1002
}
1002
{
1000
BEHIND
1070
     0
1002
}
1002
{
1000
REACTOR
1002
}
1001
GENIUS_GENOBJ-N-FIL_13
1002
{
1000
OWNER
1000
GEN
1002
}
  0
ARC
  5
1568
330
1F
100
AcDbEntity
  8
0
100
AcDbCircle
 10
790.7283177158192
 20
221.6672329074835
 30
0.0
 40
2.799999999999999
100
AcDbArc
 50
338.0729756529385
 51
359.9999999999935
1001
GENIUS_GENODEF_13
1002
{
1000
HIER
1070
     0
1002
}
1002
{
1000
MANEDIT
1070
     0
1002
}
1002
{
1000
NOSEL
1070
     0
1002
}
1002
{
1000
BEHIND
1070
     0
1002
}
1002
{
1000
REACTOR
1002
}
1001
GENIUS_GENOBJ-N-FIL_13
1002
{
1000
OWNER
1000
GEN
1002
}
  0
LINE
  5
1569
330
1F
100
AcDbEntity
  8
0
100
AcDbLine
 10
793.5283177158192
 20
223.6763350519033
 30
0.0
 11
793.5283177158189
 21
222.6763350519032
 31
0.0
  0
LINE
  5
156A
330
1F
100
AcDbEntity
  8
0
100
AcDbLine
 10
784.3438389519424
 20
218.0931527030905
 30
0.0
 11
789.7019538252468
 21
219.9030732773423
 31
0.0
  0
LINE
  5
156B
330
1F
100
AcDbEntity
  8
0
100
AcDbLine
 10
784.3438384087835
 20
217.7129940292354
 30
0.0
 11
789.7019538252465
 21
215.9030732773425
 31
0.0
  0
LINE
  5
156C
330
1F
100
AcDbEntity
  8
0
100
AcDbLine
 10
789.7019538252471
 20
223.6810857066878
 30
0.0
 11
789.7019538252464
 21
219.9030732773422
 31
0.0
  0
LINE
  5
156D
330
1F
100
AcDbEntity
  8
0
100
AcDbLine
 10
789.7019538252464
 20
215.9030732773425
 30
0.0
 11
789.7019538252465
 21
212.1763350519032
 31
0.0
  0
ARC
  5
156E
330
1F
100
AcDbEntity
  8
0
100
AcDbCircle
 10
784.4060467640261
 20
217.9030732772824
 30
0.0
 40
0.2000000000000001
100
AcDbArc
 50
179.9999999999935
 51
251.8779760270775
  0
ARC
  5
156F
330
1F
100
AcDbEntity
  8
0
100
AcDbCircle
 10
784.406046764027
 20
217.9030732772821
 30
0.0
 40
0.2000000000000001
100
AcDbArc
 50
108.1218602484824
 51
179.9999999999609
  0
LINE
  5
1570
330
1F
100
AcDbEntity
  8
0
100
AcDbLine
 10
789.7019538252461
 20
228.3265944720826
 30
0.0
 11
789.7019538252461
 21
226.8237143916177
 31
0.0
  0
LINE
  5
1571
330
1F
100
AcDbEntity
  8
0
100
AcDbLine
 10
789.7019538252461
 20
228.3265944720826
 30
0.0
 11
790.118657404469
 21
228.3265944720826
 31
0.0
  0
LINE
  5
1572
330
1F
100
AcDbEntity
  8
0
100
AcDbLine
 10
789.7019538252465
 20
206.6754392928436
 30
0.0
 11
793.042153430541
 21
206.6754392928434
 31
0.0
  0
LINE
  5
1573
330
1F
100
AcDbEntity
  8
0
100
AcDbLine
 10
789.7019538252465
 20
206.6754392928436
 30
0.0
 11
789.7019538252465
 21
208.1763350519035
 31
0.0
  0
LINE
  5
1574
330
1F
100
AcDbEntity
  8
0
100
AcDbLine
 10
784.4060467640274
 20
226.8237143916177
 30
0.0
 11
789.7019538252471
 21
226.8237143916177
 31
0.0
  0
LINE
  5
1575
330
1F
100
AcDbEntity
  8
0
100
AcDbLine
 10
784.3084571902108
 20
226.4491398371077
 30
0.0
 11
789.7019538252471
 21
223.6810857066879
 31
0.0
  0
ARC
  5
1576
330
1F
100
AcDbEntity
  8
0
100
AcDbCircle
 10
784.406046764027
 20
226.6237143916178
 30
0.0
 40
0.2000000000000001
100
AcDbArc
 50
90.0
 51
179.9999999999935
  0
ARC
  5
1577
330
1F
100
AcDbEntity
  8
0
100
AcDbCircle
 10
784.406046764027
 20
226.6237143916178
 30
0.0
 40
0.2000000000000001
100
AcDbArc
 50
179.9999999999935
 51
240.7942100214182
  0
LINE
  5
1578
330
1F
100
AcDbEntity
  8
0
100
AcDbLine
 10
784.3438389519424
 20
210.3664144776514
 30
0.0
 11
789.7019538252465
 21
212.1763350519032
 31
0.0
  0
LINE
  5
1579
330
1F
100
AcDbEntity
  8
0
100
AcDbLine
 10
784.3438384087835
 20
209.9862558037965
 30
0.0
 11
789.7019538252465
 21
208.1763350519035
 31
0.0
  0
ARC
  5
157A
330
1F
100
AcDbEntity
  8
0
100
AcDbCircle
 10
784.4060467640261
 20
210.1763350518433
 30
0.0
 40
0.2000000000000001
100
AcDbArc
 50
179.9999999999935
 51
251.8779760270775
  0
ARC
  5
157B
330
1F
100
AcDbEntity
  8
0
100
AcDbCircle
 10
784.406046764027
 20
210.1763350518431
 30
0.0
 40
0.2000000000000001
100
AcDbArc
 50
108.1218602484824
 51
179.9999999999609
  0
ARC
  5
157C
330
1F
100
AcDbEntity
  8
0
100
AcDbCircle
 10
793.5283177158192
 20
224.1763350519033
 30
0.0
 40
0.5
100
AcDbArc
 50
270.0
 51
91.94639487076157
  0
ARC
  5
157D
330
1F
100
AcDbEntity
  8
0
100
AcDbCircle
 10
792.0172847400959
 20
214.1763350519034
 30
0.0
 40
0.5
100
AcDbArc
 50
286.7928090998512
 51
102.8131355784778
  0
ARC
  5
157E
330
1F
100
AcDbEntity
  8
0
100
AcDbCircle
 10
792.8875297719073
 20
212.1763350519032
 30
0.0
 40
0.5
100
AcDbArc
 50
302.7709093670189
 51
120.2370762293923
  0
ARC
  5
157F
330
1F
100
AcDbEntity
  8
0
100
AcDbCircle
 10
793.5283177158187
 20
210.1763350519032
 30
0.0
 40
0.5
100
AcDbArc
 50
270.0
 51
91.94639487076157
  0
ARC
  5
1580
330
1F
100
AcDbEntity
  8
0
100
AcDbCircle
 10
793.5148978778706
 20
208.1763350519032
 30
0.0
 40
0.5
100
AcDbArc
 50
267.2581821575603
 51
88.46201515741556
  0
ARC
  5
1581
330
1F
100
AcDbEntity
  8
0
100
AcDbCircle
 10
791.7801052710164
 20
216.1763350519034
 30
0.0
 40
0.5
100
AcDbArc
 50
270.7130743200825
 51
86.73340079865559
  0
ARC
  5
1582
330
1F
100
AcDbEntity
  8
0
100
AcDbCircle
 10
792.110090527387
 20
218.1763350519034
 30
0.0
 40
0.5
100
AcDbArc
 50
254.5286513683453
 51
70.54897784692551
  0
ARC
  5
1583
330
1F
100
AcDbEntity
  8
0
100
AcDbCircle
 10
793.0983859815506
 20
220.1763350519033
 30
0.0
 40
0.5
100
AcDbArc
 50
237.0476127452284
 51
62.95045955315129
  0
ARC
  5
1584
330
1F
100
AcDbEntity
  8
0
100
AcDbCircle
 10
793.5283177158189
 20
222.1763350519033
 30
0.0
 40
0.5
100
AcDbArc
 50
270.0
 51
90.0
  0
ARC
  5
1585
330
1F
100
AcDbEntity
  8
0
100
AcDbCircle
 10
792.8661665121474
 20
226.1763350519033
 30
0.0
 40
0.5
100
AcDbArc
 50
305.1022083851498
 51
135.3472405847239
  0
LINE
  5
1586
330
1F
100
AcDbEntity
  8
AM_7
  6
AM_ISO08W050x2
100
AcDbLine
 10
784.4060467640261
 20
210.1763350518433
 30
0.0
 11
784.1813127634491
 21
210.1763350518433
 31
0.0
1001
GENIUS_GENOREF_13
1005
1594
  0
LINE
  5
1587
330
1F
100
AcDbEntity
  8
AM_7
  6
AM_ISO08W050x2
100
AcDbLine
 10
784.4060467640261
 20
210.1763350518433
 30
0.0
 11
784.4060467640261
 21
210.4010690524205
 31
0.0
1001
GENIUS_GENOREF_13
1005
1594
  0
LINE
  5
1588
330
1F
100
AcDbEntity
  8
AM_7
  6
AM_ISO08W050x2
100
AcDbLine
 10
784.4060467640261
 20
210.1763350518433
 30
0.0
 11
784.6307807646035
 21
210.1763350518433
 31
0.0
1001
GENIUS_GENOREF_13
1005
1594
  0
LINE
  5
1589
330
1F
100
AcDbEntity
  8
AM_7
  6
AM_ISO08W050x2
100
AcDbLine
 10
784.4060467640261
 20
210.1763350518433
 30
0.0
 11
784.4060467640261
 21
209.9516010512661
 31
0.0
1001
GENIUS_GENOREF_13
1005
1594
  0
LINE
  5
158A
330
1F
100
AcDbEntity
  8
AM_7
  6
AM_ISO08W050x2
100
AcDbLine
 10
784.406046764027
 20
217.9030732772821
 30
0.0
 11
784.18131276345
 21
217.9030732772821
 31
0.0
1001
GENIUS_GENOREF_13
1005
1593
  0
LINE
  5
158B
330
1F
100
AcDbEntity
  8
AM_7
  6
AM_ISO08W050x2
100
AcDbLine
 10
784.406046764027
 20
217.9030732772821
 30
0.0
 11
784.406046764027
 21
218.1278072778594
 31
0.0
1001
GENIUS_GENOREF_13
1005
1593
  0
LINE
  5
158C
330
1F
100
AcDbEntity
  8
AM_7
  6
AM_ISO08W050x2
100
AcDbLine
 10
784.406046764027
 20
217.9030732772821
 30
0.0
 11
784.6307807646044
 21
217.9030732772821
 31
0.0
1001
GENIUS_GENOREF_13
1005
1593
  0
LINE
  5
158D
330
1F
100
AcDbEntity
  8
AM_7
  6
AM_ISO08W050x2
100
AcDbLine
 10
784.406046764027
 20
217.9030732772821
 30
0.0
 11
784.406046764027
 21
217.6783392767049
 31
0.0
1001
GENIUS_GENOREF_13
1005
1593
  0
LINE
  5
158E
330
1F
100
AcDbEntity
  8
AM_7
  6
AM_ISO08W050x2
100
AcDbLine
 10
784.406046764027
 20
226.6237143916178
 30
0.0
 11
784.1813127634496
 21
226.6237143916178
 31
0.0
1001
GENIUS_GENOREF_13
1005
1592
  0
LINE
  5
158F
330
1F
100
AcDbEntity
  8
AM_7
  6
AM_ISO08W050x2
100
AcDbLine
 10
784.406046764027
 20
226.6237143916178
 30
0.0
 11
784.406046764027
 21
226.848448392195
 31
0.0
1001
GENIUS_GENOREF_13
1005
1592
  0
LINE
  5
1590
330
1F
100
AcDbEntity
  8
AM_7
  6
AM_ISO08W050x2
100
AcDbLine
 10
784.406046764027
 20
226.6237143916178
 30
0.0
 11
784.630780764604
 21
226.6237143916178
 31
0.0
1001
GENIUS_GENOREF_13
1005
1592
  0
LINE
  5
1591
330
1F
100
AcDbEntity
  8
AM_7
  6
AM_ISO08W050x2
100
AcDbLine
 10
784.406046764027
 20
226.6237143916178
 30
0.0
 11
784.406046764027
 21
226.3989803910406
 31
0.0
1001
GENIUS_GENOREF_13
1005
1592
  0
POINT
  5
1592
330
1F
100
AcDbEntity
  8
0
 60
     1
100
AcDbPoint
 10
-237.0990390770814
 20
-477.9625302654705
 30
0.0
 50
179.9999999999981
1001
GENIUS_GENOLIS_13
1002
{
1000
ENT
1005
1591
1005
1590
1005
158F
1005
158E
1002
}
1001
GENIUS_GENOENT_13
1002
{
1000
MYREF
1005
1592
1002
}
1002
{
1000
GRP
1005
0
1002
}
1001
GENIUS_GENOBJ-N-CRS_13
1002
{
1000
OWNER
1000
GEN
1002
}
1001
GENIUS_GENODEF_13
1002
{
1000
HIER
1070
    10
1002
}
1002
{
1000
MANEDIT
1070
     0
1002
}
1002
{
1000
NOSEL
1070
     0
1002
}
1002
{
1000
BEHIND
1070
     0
1002
}
1002
{
1000
OTHER
1070
     0
1002
}
1002
{
1000
REACTOR
1002
}
  0
POINT
  5
1593
330
1F
100
AcDbEntity
  8
0
 60
     1
100
AcDbPoint
 10
-237.0990390770812
 20
-486.6831713798061
 30
0.0
 50
179.9999999999981
1001
GENIUS_GENOLIS_13
1002
{
1000
ENT
1005
158D
1005
158C
1005
158B
1005
158A
1002
}
1001
GENIUS_GENOENT_13
1002
{
1000
MYREF
1005
1593
1002
}
1002
{
1000
GRP
1005
0
1002
}
1001
GENIUS_GENOBJ-N-CRS_13
1002
{
1000
OWNER
1000
GEN
1002
}
1001
GENIUS_GENODEF_13
1002
{
1000
HIER
1070
    10
1002
}
1002
{
1000
MANEDIT
1070
     0
1002
}
1002
{
1000
NOSEL
1070
     0
1002
}
1002
{
1000
BEHIND
1070
     0
1002
}
1002
{
1000
OTHER
1070
     0
1002
}
1002
{
1000
REACTOR
1002
}
  0
POINT
  5
1594
330
1F
100
AcDbEntity
  8
0
 60
     1
100
AcDbPoint
 10
-237.0990390770821
 20
-494.4099096052449
 30
0.0
 50
179.9999999999981
1001
GENIUS_GENOLIS_13
1002
{
1000
ENT
1005
1589
1005
1588
1005
1587
1005
1586
1002
}
1001
GENIUS_GENOENT_13
1002
{
1000
MYREF
1005
1594
1002
}
1002
{
1000
GRP
1005
0
1002
}
1001
GENIUS_GENOBJ-N-CRS_13
1002
{
1000
OWNER
1000
GEN
1002
}
1001
GENIUS_GENODEF_13
1002
{
1000
HIER
1070
    10
1002
}
1002
{
1000
MANEDIT
1070
     0
1002
}
1002
{
1000
NOSEL
1070
     0
1002
}
1002
{
1000
BEHIND
1070
     0
1002
}
1002
{
1000
OTHER
1070
     0
1002
}
1002
{
1000
REACTOR
1002
}
  0
POINT
  5
1595
330
1F
100
AcDbEntity
  8
0
 60
     1
100
AcDbPoint
 10
-269.7885091262353
 20
-477.9625302654699
 30
0.0
1001
GENIUS_GENOLIS_13
1002
{
1000
ENT
1005
155B
1005
155A
1005
1559
1005
1558
1002
}
1001
GENIUS_GENOENT_13
1002
{
1000
MYREF
1005
1595
1002
}
1002
{
1000
GRP
1005
0
1002
}
1001
GENIUS_GENOBJ-N-CRS_13
1002
{
1000
OWNER
1000
GEN
1002
}
1001
GENIUS_GENODEF_13
1002
{
1000
HIER
1070
    10
1002
}
1002
{
1000
MANEDIT
1070
     0
1002
}
1002
{
1000
NOSEL
1070
     0
1002
}
1002
{
1000
BEHIND
1070
     0
1002
}
1002
{
1000
OTHER
1070
     0
1002
}
1002
{
1000
REACTOR
1002
}
  0
POINT
  5
1596
330
1F
100
AcDbEntity
  8
0
 60
     1
100
AcDbPoint
 10
-269.7885091262358
 20
-486.6831713798055
 30
0.0
1001
GENIUS_GENOLIS_13
1002
{
1000
ENT
1005
1557
1005
1556
1005
1555
1005
1554
1002
}
1001
GENIUS_GENOENT_13
1002
{
1000
MYREF
1005
1596
1002
}
1002
{
1000
GRP
1005
0
1002
}
1001
GENIUS_GENOBJ-N-CRS_13
1002
{
1000
OWNER
1000
GEN
1002
}
1001
GENIUS_GENODEF_13
1002
{
1000
HIER
1070
    10
1002
}
1002
{
1000
MANEDIT
1070
     0
1002
}
1002
{
1000
NOSEL
1070
     0
1002
}
1002
{
1000
BEHIND
1070
     0
1002
}
1002
{
1000
OTHER
1070
     0
1002
}
1002
{
1000
REACTOR
1002
}
  0
POINT
  5
1597
330
1F
100
AcDbEntity
  8
0
 60
     1
100
AcDbPoint
 10
-269.7885091262351
 20
-494.4099096052443
 30
0.0
1001
GENIUS_GENOLIS_13
1002
{
1000
ENT
1005
1553
1005
1552
1005
1551
1005
1550
1002
}
1001
GENIUS_GENOENT_13
1002
{
1000
MYREF
1005
1597
1002
}
1002
{
1000
GRP
1005
0
1002
}
1001
GENIUS_GENOBJ-N-CRS_13
1002
{
1000
OWNER
1000
GEN
1002
}
1001
GENIUS_GENODEF_13
1002
{
1000
HIER
1070
    10
1002
}
1002
{
1000
MANEDIT
1070
     0
1002
}
1002
{
1000
NOSEL
1070
     0
1002
}
1002
{
1000
BEHIND
1070
     0
1002
}
1002
{
1000
OTHER
1070
     0
1002
}
1002
{
1000
REACTOR
1002
}
  0
HATCH
  5
15AE
330
1F
100
AcDbEntity
  8
8
100
AcDbHatch
 10
0.0
 20
0.0
 30
0.0
210
0.0
220
0.0
230
1.0
  2
_U
 70
     0
 71
     0
 91
        1
 92
        1
 93
       12
 72
     1
 10
876.7366977859447
 20
201.7039925760486
 11
885.2366977859446
 21
201.7039925760486
 72
     1
 10
885.2366977859446
 20
201.7039925760486
 11
885.2366977859446
 21
203.7039925760486
 72
     1
 10
885.2366977859446
 20
203.7039925760486
 11
876.2366977859446
 21
203.7039925760486
 72
     2
 10
876.2366977859446
 20
201.7039925760486
 40
2.0
 50
90.0
 51
180.0
 73
     1
 72
     1
 10
874.2366977859447
 20
201.7039925760486
 11
874.2366977859447
 21
156.7039925760485
 72
     2
 10
876.2366977859446
 20
156.7039925760485
 40
2.0
 50
180.0
 51
270.0
 73
     1
 72
     1
 10
876.2366977859446
 20
154.7039925760485
 11
884.2366977859446
 21
154.7039925760485
 72
     1
 10
884.2366977859446
 20
154.7039925760485
 11
884.2366977859446
 21
156.7039925760485
 72
     1
 10
884.2366977859446
 20
156.7039925760485
 11
876.7366977859447
 21
156.7039925760485
 72
     2
 10
876.7366977859447
 20
157.2039925760485
 40
0.5
 50
90.0
 51
180.0
 73
     0
 72
     1
 10
876.2366977859446
 20
157.2039925760485
 11
876.2366977859446
 21
201.2039925760486
 72
     2
 10
876.7366977859447
 20
201.2039925760486
 40
0.5
 50
180.0
 51
270.0000000000002
 73
     0
 97
        0
 75
     0
 76
     0
 52
225.0
 41
2.7
 77
     0
 78
     1
 53
225.0
 43
862.5274051112928
 44
-15.1062545272959
 45
1.909188309203678
 46
-1.909188309203678
 79
     0
 98
        1
 10
862.5274051112928
 20
-15.1062545272959
1001
GENIUS_GENODEF_13
1002
{
1000
HIER
1070
     0
1002
}
1002
{
1000
MANEDIT
1070
     0
1002
}
1002
{
1000
NOSEL
1070
     0
1002
}
1002
{
1000
BEHIND
1070
     0
1002
}
1002
{
1000
REACTOR
1002
}
1001
GENIUS_GENOBJ-N-HTC_13
1002
{
1000
OWNER
1000
GEN
1002
}
1001
GENIUS_GENHATCH_13
1002
{
1000
DATA
1040
135.0
1042
2.7
1000
_U
1070
     0
1011
875.3146087389884
1021
178.720493210301
1031
0.0
1002
}
1002
{
1000
UCS
1010
0.0
1020
0.0
1030
0.0
1010
1.0
1020
0.0
1030
0.0
1010
0.0
1020
1.0
1030
0.0
1002
}
  0
HATCH
  5
15AF
330
1F
100
AcDbEntity
  8
8
100
AcDbHatch
 10
0.0
 20
0.0
 30
0.0
210
0.0
220
0.0
230
1.0
  2
_U
 70
     0
 71
     0
 91
        1
 92
        1
 93
       12
 72
     1
 10
798.7366977859446
 20
156.7039925760485
 11
791.2366977859447
 21
156.7039925760485
 72
     1
 10
791.2366977859447
 20
156.7039925760485
 11
791.2366977859447
 21
154.7039925760485
 72
     1
 10
791.2366977859447
 20
154.7039925760485
 11
799.2366977859447
 21
154.7039925760485
 72
     2
 10
799.2366977859447
 20
156.7039925760485
 40
2.0
 50
270.0
 51
360.0
 73
     1
 72
     1
 10
801.2366977859446
 20
156.7039925760485
 11
801.2366977859446
 21
201.7039925760486
 72
     2
 10
799.2366977859447
 20
201.7039925760486
 40
2.0
 50
360.0
 51
450.0
 73
     1
 72
     1
 10
799.2366977859447
 20
203.7039925760486
 11
790.2366977859446
 21
203.7039925760486
 72
     1
 10
790.2366977859446
 20
203.7039925760486
 11
790.2366977859446
 21
201.7039925760486
 72
     1
 10
790.2366977859446
 20
201.7039925760486
 11
798.7366977859446
 21
201.7039925760486
 72
     2
 10
798.7366977859446
 20
201.2039925760486
 40
0.5
 50
270.0
 51
360.0
 73
     0
 72
     1
 10
799.2366977859447
 20
201.2039925760486
 11
799.2366977859447
 21
157.2039925760485
 72
     2
 10
798.7366977859446
 20
157.2039925760485
 40
0.5
 50
0.0
 51
90.0
 73
     0
 97
        0
 75
     0
 76
     0
 52
225.0
 41
2.7
 77
     0
 78
     1
 53
225.0
 43
862.5274051112928
 44
-15.1062545272959
 45
1.909188309203678
 46
-1.909188309203678
 79
     0
 98
        1
 10
862.5274051112928
 20
-15.1062545272959
1001
GENIUS_GENODEF_13
1002
{
1000
HIER
1070
     0
1002
}
1002
{
1000
MANEDIT
1070
     0
1002
}
1002
{
1000
NOSEL
1070
     0
1002
}
1002
{
1000
BEHIND
1070
     0
1002
}
1002
{
1000
REACTOR
1002
}
1001
GENIUS_GENOBJ-N-HTC_13
1002
{
1000
OWNER
1000
GEN
1002
}
1001
GENIUS_GENHATCH_13
1002
{
1000
DATA
1040
135.0
1042
2.7
1000
_U
1070
     0
1011
800.0977378251111
1021
170.8666817202265
1031
0.0
1002
}
1002
{
1000
UCS
1010
0.0
1020
0.0
1030
0.0
1010
1.0
1020
0.0
1030
0.0
1010
0.0
1020
1.0
1030
0.0
1002
}
  0
LINE
  5
15B0
330
1F
100
AcDbEntity
  8
0
100
AcDbLine
 10
876.2366977859446
 20
157.2039925760485
 30
0.0
 11
876.2366977859446
 21
201.2039925760486
 31
0.0
  0
LINE
  5
15B1
330
1F
100
AcDbEntity
  8
0
100
AcDbLine
 10
799.2366977859447
 20
157.2039925760485
 30
0.0
 11
799.2366977859447
 21
201.2039925760486
 31
0.0
  0
LINE
  5
15B2
330
1F
100
AcDbEntity
  8
0
100
AcDbLine
 10
874.2366977859447
 20
156.7039925760485
 30
0.0
 11
874.2366977859447
 21
201.7039925760486
 31
0.0
  0
LINE
  5
15B3
330
1F
100
AcDbEntity
  8
0
100
AcDbLine
 10
801.2366977859446
 20
156.7039925760485
 30
0.0
 11
801.2366977859446
 21
201.7039925760486
 31
0.0
  0
LINE
  5
15B4
330
1F
100
AcDbEntity
  8
7
100
AcDbLine
 10
837.7366977859447
 20
153.662213729374
 30
0.0
 11
837.7366977859447
 21
205.3463427571204
 31
0.0
  0
LINE
  5
15B5
330
1F
100
AcDbEntity
  8
0
100
AcDbLine
 10
791.2366977859447
 20
154.7039925760485
 30
0.0
 11
884.2366977859446
 21
154.7039925760485
 31
0.0
  0
LINE
  5
15B6
330
1F
100
AcDbEntity
  8
0
100
AcDbLine
 10
876.7366977859447
 20
156.7039925760485
 30
0.0
 11
884.2366977859446
 21
156.7039925760485
 31
0.0
  0
LINE
  5
15B7
330
1F
100
AcDbEntity
  8
0
100
AcDbLine
 10
884.2366977859446
 20
154.7039925760485
 30
0.0
 11
884.2366977859446
 21
156.7039925760485
 31
0.0
  0
ARC
  5
15B8
330
1F
100
AcDbEntity
  8
0
100
AcDbCircle
 10
876.2366977859446
 20
156.7039925760485
 30
0.0
 40
2.0
100
AcDbArc
 50
180.0
 51
270.0
1001
GENIUS_GENODEF_13
1002
{
1000
HIER
1070
     0
1002
}
1002
{
1000
MANEDIT
1070
     0
1002
}
1002
{
1000
NOSEL
1070
     0
1002
}
1002
{
1000
BEHIND
1070
     0
1002
}
1002
{
1000
REACTOR
1002
}
1001
GENIUS_GENOBJ-N-FIL_13
1002
{
1000
OWNER
1000
GEN
1002
}
  0
ARC
  5
15B9
330
1F
100
AcDbEntity
  8
0
100
AcDbCircle
 10
876.7366977859447
 20
157.2039925760485
 30
0.0
 40
0.5
100
AcDbArc
 50
180.0
 51
270.0
1001
GENIUS_GENODEF_13
1002
{
1000
HIER
1070
     0
1002
}
1002
{
1000
MANEDIT
1070
     0
1002
}
1002
{
1000
NOSEL
1070
     0
1002
}
1002
{
1000
BEHIND
1070
     0
1002
}
1002
{
1000
REACTOR
1002
}
1001
GENIUS_GENOBJ-N-FIL_13
1002
{
1000
OWNER
1000
GEN
1002
}
  0
ARC
  5
15BA
102
{ACAD_REACTORS
330
1B3B
102
}
330
1F
100
AcDbEntity
  8
0
100
AcDbCircle
 10
799.2366977859447
 20
156.7039925760485
 30
0.0
 40
2.0
100
AcDbArc
 50
270.0
 51
0.0
1001
GENIUS_GENODEF_13
1002
{
1000
HIER
1070
     0
1002
}
1002
{
1000
MANEDIT
1070
     0
1002
}
1002
{
1000
NOSEL
1070
     0
1002
}
1002
{
1000
BEHIND
1070
     0
1002
}
1002
{
1000
REACTOR
1002
}
1001
GENIUS_GENOBJ-N-FIL_13
1002
{
1000
OWNER
1000
GEN
1002
}
  0
LINE
  5
15BB
330
1F
100
AcDbEntity
  8
0
100
AcDbLine
 10
791.2366977859447
 20
156.7039925760485
 30
0.0
 11
798.7366977859446
 21
156.7039925760485
 31
0.0
  0
ARC
  5
15BC
330
1F
100
AcDbEntity
  8
0
100
AcDbCircle
 10
798.7366977859446
 20
157.2039925760485
 30
0.0
 40
0.5
100
AcDbArc
 50
270.0
 51
0.0
1001
GENIUS_GENODEF_13
1002
{
1000
HIER
1070
     0
1002
}
1002
{
1000
MANEDIT
1070
     0
1002
}
1002
{
1000
NOSEL
1070
     0
1002
}
1002
{
1000
BEHIND
1070
     0
1002
}
1002
{
1000
REACTOR
1002
}
1001
GENIUS_GENOBJ-N-FIL_13
1002
{
1000
OWNER
1000
GEN
1002
}
  0
LINE
  5
15BD
330
1F
100
AcDbEntity
  8
0
100
AcDbLine
 10
791.2366977859447
 20
154.7039925760485
 30
0.0
 11
791.2366977859447
 21
156.7039925760485
 31
0.0
  0
LINE
  5
15BE
330
1F
100
AcDbEntity
  8
0
100
AcDbLine
 10
876.7366977859447
 20
201.7039925760486
 30
0.0
 11
885.2366977859446
 21
201.7039925760486
 31
0.0
  0
LINE
  5
15BF
330
1F
100
AcDbEntity
  8
0
100
AcDbLine
 10
885.2366977859446
 20
201.7039925760486
 30
0.0
 11
885.2366977859446
 21
203.7039925760486
 31
0.0
  0
ARC
  5
15C0
330
1F
100
AcDbEntity
  8
0
100
AcDbCircle
 10
876.2366977859446
 20
201.7039925760486
 30
0.0
 40
2.0
100
AcDbArc
 50
90.0
 51
180.0
1001
GENIUS_GENODEF_13
1002
{
1000
HIER
1070
     0
1002
}
1002
{
1000
MANEDIT
1070
     0
1002
}
1002
{
1000
NOSEL
1070
     0
1002
}
1002
{
1000
BEHIND
1070
     0
1002
}
1002
{
1000
REACTOR
1002
}
1001
GENIUS_GENOBJ-N-FIL_13
1002
{
1000
OWNER
1000
GEN
1002
}
  0
ARC
  5
15C1
330
1F
100
AcDbEntity
  8
0
100
AcDbCircle
 10
876.7366977859447
 20
201.2039925760486
 30
0.0
 40
0.5
100
AcDbArc
 50
90.0
 51
180.0
1001
GENIUS_GENODEF_13
1002
{
1000
HIER
1070
     0
1002
}
1002
{
1000
MANEDIT
1070
     0
1002
}
1002
{
1000
NOSEL
1070
     0
1002
}
1002
{
1000
BEHIND
1070
     0
1002
}
1002
{
1000
REACTOR
1002
}
1001
GENIUS_GENOBJ-N-FIL_13
1002
{
1000
OWNER
1000
GEN
1002
}
  0
ARC
  5
15C2
330
1F
100
AcDbEntity
  8
0
100
AcDbCircle
 10
799.2366977859447
 20
201.7039925760486
 30
0.0
 40
2.0
100
AcDbArc
 50
0.0
 51
90.0
1001
GENIUS_GENODEF_13
1002
{
1000
HIER
1070
     0
1002
}
1002
{
1000
MANEDIT
1070
     0
1002
}
1002
{
1000
NOSEL
1070
     0
1002
}
1002
{
1000
BEHIND
1070
     0
1002
}
1002
{
1000
REACTOR
1002
}
1001
GENIUS_GENOBJ-N-FIL_13
1002
{
1000
OWNER
1000
GEN
1002
}
  0
LINE
  5
15C3
330
1F
100
AcDbEntity
  8
0
100
AcDbLine
 10
790.2366977859446
 20
201.7039925760486
 30
0.0
 11
790.2366977859446
 21
203.7039925760486
 31
0.0
  0
LINE
  5
15C4
330
1F
100
AcDbEntity
  8
0
100
AcDbLine
 10
790.2366977859446
 20
201.7039925760486
 30
0.0
 11
798.7366977859446
 21
201.7039925760486
 31
0.0
  0
ARC
  5
15C5
330
1F
100
AcDbEntity
  8
0
100
AcDbCircle
 10
798.7366977859445
 20
201.2039925760486
 30
0.0
 40
0.5
100
AcDbArc
 50
0.0
 51
90.0
1001
GENIUS_GENODEF_13
1002
{
1000
HIER
1070
     0
1002
}
1002
{
1000
MANEDIT
1070
     0
1002
}
1002
{
1000
NOSEL
1070
     0
1002
}
1002
{
1000
BEHIND
1070
     0
1002
}
1002
{
1000
REACTOR
1002
}
1001
GENIUS_GENOBJ-N-FIL_13
1002
{
1000
OWNER
1000
GEN
1002
}
  0
LINE
  5
15C6
330
1F
100
AcDbEntity
  8
0
100
AcDbLine
 10
796.7366977859446
 20
156.7039925760485
 30
0.0
 11
796.7366977859446
 21
201.7039925760486
 31
0.0
  0
LINE
  5
15C7
330
1F
100
AcDbEntity
  8
0
100
AcDbLine
 10
794.2366977859446
 20
156.7039925760485
 30
0.0
 11
794.2366977859445
 21
201.7039925760486
 31
0.0
  0
LINE
  5
15C8
330
1F
100
AcDbEntity
  8
0
100
AcDbLine
 10
791.7366977859447
 20
156.7039925760485
 30
0.0
 11
791.7366977859445
 21
201.7039925760486
 31
0.0
  0
LINE
  5
15C9
330
1F
100
AcDbEntity
  8
0
100
AcDbLine
 10
883.7366977859446
 20
156.7039925760485
 30
0.0
 11
883.7366977859446
 21
201.7039925760486
 31
0.0
  0
LINE
  5
15CA
330
1F
100
AcDbEntity
  8
0
100
AcDbLine
 10
881.2366977859447
 20
156.7039925760485
 30
0.0
 11
881.2366977859447
 21
201.7039925760486
 31
0.0
  0
LINE
  5
15CB
330
1F
100
AcDbEntity
  8
0
100
AcDbLine
 10
878.7366977859447
 20
156.7039925760485
 30
0.0
 11
878.7366977859447
 21
201.7039925760486
 31
0.0
  0
HATCH
  5
15CC
330
1F
100
AcDbEntity
  8
8
100
AcDbHatch
 10
0.0
 20
0.0
 30
0.0
210
0.0
220
0.0
230
1.0
  2
_U
 70
     0
 71
     0
 91
        1
 92
        1
 93
        6
 72
     2
 10
798.7366977859446
 20
157.2039925760485
 40
0.5
 50
270.0000000000017
 51
360.0
 73
     1
 72
     1
 10
799.2366977859447
 20
157.2039925760485
 11
799.2366977859447
 21
201.2039925760486
 72
     2
 10
798.7366977859446
 20
201.2039925760486
 40
0.5
 50
0.0
 51
90.00000000000161
 73
     1
 72
     1
 10
798.7366977859445
 20
201.7039925760486
 11
796.7366977859446
 21
201.7039925760486
 72
     1
 10
796.7366977859446
 20
201.7039925760486
 11
796.7366977859446
 21
156.7039925760486
 72
     1
 10
796.7366977859446
 20
156.7039925760485
 11
798.7366977859446
 21
156.7039925760485
 97
        0
 75
     0
 76
     0
 52
135.0
 41
2.0
 77
     0
 78
     1
 53
135.0
 43
695.1456160424241
 44
-3.177007423951408
 45
-1.414213562373095
 46
-1.414213562373094
 79
     0
 98
        1
 10
695.1456160424241
 20
-3.177007423951408
1001
GENIUS_GENODEF_13
1002
{
1000
HIER
1070
     0
1002
}
1002
{
1000
MANEDIT
1070
     0
1002
}
1002
{
1000
NOSEL
1070
     0
1002
}
1002
{
1000
BEHIND
1070
     0
1002
}
1002
{
1000
REACTOR
1002
}
1001
GENIUS_GENOBJ-N-HTC_13
1002
{
1000
OWNER
1000
GEN
1002
}
1001
GENIUS_GENHATCH_13
1002
{
1000
DATA
1040
135.0
1042
2.5
1000
_U
1070
     0
1011
797.8547762653065
1021
186.9851287858346
1031
0.0
1002
}
1002
{
1000
UCS
1010
0.0
1020
0.0
1030
0.0
1010
1.0
1020
0.0
1030
0.0
1010
0.0
1020
1.0
1030
0.0
1002
}
  0
HATCH
  5
15CD
330
1F
100
AcDbEntity
  8
8
100
AcDbHatch
 10
0.0
 20
0.0
 30
0.0
210
0.0
220
0.0
230
1.0
  2
_U
 70
     0
 71
     0
 91
        1
 92
        1
 93
        4
 72
     1
 10
794.2366977859446
 20
156.7039925760485
 11
794.2366977859446
 21
201.7039925760486
 72
     1
 10
794.2366977859445
 20
201.7039925760486
 11
791.7366977859445
 21
201.7039925760486
 72
     1
 10
791.7366977859445
 20
201.7039925760486
 11
791.7366977859447
 21
156.7039925760486
 72
     1
 10
791.7366977859447
 20
156.7039925760485
 11
794.2366977859446
 21
156.7039925760485
 97
        0
 75
     0
 76
     0
 52
135.0
 41
2.0
 77
     0
 78
     1
 53
135.0
 43
695.1456160424241
 44
-3.177007423951408
 45
-1.414213562373095
 46
-1.414213562373094
 79
     0
 98
        1
 10
695.1456160424241
 20
-3.177007423951408
1001
GENIUS_GENODEF_13
1002
{
1000
HIER
1070
     0
1002
}
1002
{
1000
MANEDIT
1070
     0
1002
}
1002
{
1000
NOSEL
1070
     0
1002
}
1002
{
1000
BEHIND
1070
     0
1002
}
1002
{
1000
REACTOR
1002
}
1001
GENIUS_GENOBJ-N-HTC_13
1002
{
1000
OWNER
1000
GEN
1002
}
1001
GENIUS_GENHATCH_13
1002
{
1000
DATA
1040
135.0
1042
2.7
1000
_U
1070
     0
1011
792.6849157300571
1021
182.0698935944876
1031
0.0
1002
}
1002
{
1000
UCS
1010
0.0
1020
0.0
1030
0.0
1010
1.0
1020
0.0
1030
0.0
1010
0.0
1020
1.0
1030
0.0
1002
}
  0
HATCH
  5
15CE
330
1F
100
AcDbEntity
  8
8
100
AcDbHatch
 10
0.0
 20
0.0
 30
0.0
210
0.0
220
0.0
230
1.0
  2
_U
 70
     0
 71
     0
 91
        1
 92
        1
 93
        4
 72
     1
 10
881.2366977859447
 20
156.7039925760485
 11
881.2366977859447
 21
201.7039925760486
 72
     1
 10
881.2366977859447
 20
201.7039925760486
 11
878.7366977859447
 21
201.7039925760486
 72
     1
 10
878.7366977859447
 20
201.7039925760486
 11
878.7366977859447
 21
156.7039925760485
 72
     1
 10
878.7366977859447
 20
156.7039925760485
 11
881.2366977859447
 21
156.7039925760485
 97
        0
 75
     0
 76
     0
 52
45.0
 41
2.5
 77
     0
 78
     1
 53
45.0
 43
695.1456160424241
 44
-3.177007423951408
 45
-1.767766952966368
 46
1.767766952966368
 79
     0
 98
        1
 10
695.1456160424241
 20
-3.177007423951408
1001
GENIUS_GENODEF_13
1002
{
1000
HIER
1070
     0
1002
}
1002
{
1000
MANEDIT
1070
     0
1002
}
1002
{
1000
NOSEL
1070
     0
1002
}
1002
{
1000
BEHIND
1070
     0
1002
}
1002
{
1000
REACTOR
1002
}
1001
GENIUS_GENOBJ-N-HTC_13
1002
{
1000
OWNER
1000
GEN
1002
}
1001
GENIUS_GENHATCH_13
1002
{
1000
DATA
1040
45.0
1042
2.5
1000
_U
1070
     0
1011
879.6898757262219
1021
185.7248115779798
1031
0.0
1002
}
1002
{
1000
UCS
1010
0.0
1020
0.0
1030
0.0
1010
1.0
1020
0.0
1030
0.0
1010
0.0
1020
1.0
1030
0.0
1002
}
  0
HATCH
  5
15CF
330
1F
100
AcDbEntity
  8
8
100
AcDbHatch
 10
0.0
 20
0.0
 30
0.0
210
0.0
220
0.0
230
1.0
  2
_U
 70
     0
 71
     0
 91
        1
 92
        1
 93
        6
 72
     2
 10
876.7366977859447
 20
201.2039925760486
 40
0.5
 50
90.0
 51
180.0
 73
     1
 72
     1
 10
876.2366977859446
 20
201.2039925760486
 11
876.2366977859446
 21
157.2039925760485
 72
     2
 10
876.7366977859447
 20
157.2039925760485
 40
0.5
 50
180.0
 51
270.0
 73
     1
 72
     1
 10
876.7366977859447
 20
156.7039925760485
 11
878.7366977859447
 21
156.7039925760485
 72
     1
 10
878.7366977859447
 20
156.7039925760485
 11
878.7366977859447
 21
201.7039925760486
 72
     1
 10
878.7366977859447
 20
201.7039925760486
 11
876.7366977859447
 21
201.7039925760486
 97
        0
 75
     0
 76
     0
 52
135.0
 41
2.0
 77
     0
 78
     1
 53
135.0
 43
695.1456160424241
 44
-3.177007423951408
 45
-1.414213562373095
 46
-1.414213562373094
 79
     0
 98
        1
 10
695.1456160424241
 20
-3.177007423951408
1001
GENIUS_GENODEF_13
1002
{
1000
HIER
1070
     0
1002
}
1002
{
1000
MANEDIT
1070
     0
1002
}
1002
{
1000
NOSEL
1070
     0
1002
}
1002
{
1000
BEHIND
1070
     0
1002
}
1002
{
1000
REACTOR
1002
}
1001
GENIUS_GENOBJ-N-HTC_13
1002
{
1000
OWNER
1000
GEN
1002
}
1001
GENIUS_GENHATCH_13
1002
{
1000
DATA
1040
135.0
1042
2.7
1000
_U
1070
     0
1011
877.5462754092432
1021
181.3137035650497
1031
0.0
1002
}
1002
{
1000
UCS
1010
0.0
1020
0.0
1030
0.0
1010
1.0
1020
0.0
1030
0.0
1010
0.0
1020
1.0
1030
0.0
1002
}
  0
HATCH
  5
15D0
330
1F
100
AcDbEntity
  8
8
100
AcDbHatch
 10
0.0
 20
0.0
 30
0.0
210
0.0
220
0.0
230
1.0
  2
_U
 70
     0
 71
     0
 91
        1
 92
        1
 93
        4
 72
     1
 10
881.2366977859447
 20
201.7039925760486
 11
881.2366977859447
 21
156.7039925760485
 72
     1
 10
881.2366977859447
 20
156.7039925760485
 11
883.7366977859446
 21
156.7039925760485
 72
     1
 10
883.7366977859446
 20
156.7039925760485
 11
883.7366977859446
 21
201.7039925760486
 72
     1
 10
883.7366977859446
 20
201.7039925760486
 11
881.2366977859447
 21
201.7039925760486
 97
        0
 75
     0
 76
     0
 52
135.0
 41
2.0
 77
     0
 78
     1
 53
135.0
 43
695.1456160424241
 44
-3.177007423951408
 45
-1.414213562373095
 46
-1.414213562373094
 79
     0
 98
        1
 10
695.1456160424241
 20
-3.177007423951408
1001
GENIUS_GENODEF_13
1002
{
1000
HIER
1070
     0
1002
}
1002
{
1000
MANEDIT
1070
     0
1002
}
1002
{
1000
NOSEL
1070
     0
1002
}
1002
{
1000
BEHIND
1070
     0
1002
}
1002
{
1000
REACTOR
1002
}
1001
GENIUS_GENOBJ-N-HTC_13
1002
{
1000
OWNER
1000
GEN
1002
}
1001
GENIUS_GENHATCH_13
1002
{
1000
DATA
1040
135.0
1042
2.0
1000
_U
1070
     0
1011
882.8422302161056
1021
187.3632238005536
1031
0.0
1002
}
1002
{
1000
UCS
1010
0.0
1020
0.0
1030
0.0
1010
1.0
1020
0.0
1030
0.0
1010
0.0
1020
1.0
1030
0.0
1002
}
  0
HATCH
  5
15D1
330
1F
100
AcDbEntity
  8
8
100
AcDbHatch
 10
0.0
 20
0.0
 30
0.0
210
0.0
220
0.0
230
1.0
  2
_U
 70
     0
 71
     0
 91
        1
 92
        1
 93
        4
 72
     1
 10
794.2366977859445
 20
201.7039925760486
 11
794.2366977859445
 21
156.7039925760485
 72
     1
 10
794.2366977859446
 20
156.7039925760485
 11
796.7366977859446
 21
156.7039925760485
 72
     1
 10
796.7366977859446
 20
156.7039925760485
 11
796.7366977859446
 21
201.7039925760485
 72
     1
 10
796.7366977859446
 20
201.7039925760486
 11
794.2366977859446
 21
201.7039925760486
 97
        0
 75
     0
 76
     0
 52
45.0
 41
2.0
 77
     0
 78
     1
 53
45.0
 43
695.1456160424241
 44
-3.177007423951408
 45
-1.414213562373094
 46
1.414213562373095
 79
     0
 98
        1
 10
695.1456160424241
 20
-3.177007423951408
1001
GENIUS_GENODEF_13
1002
{
1000
HIER
1070
     0
1002
}
1002
{
1000
MANEDIT
1070
     0
1002
}
1002
{
1000
NOSEL
1070
     0
1002
}
1002
{
1000
BEHIND
1070
     0
1002
}
1002
{
1000
REACTOR
1002
}
1001
GENIUS_GENOBJ-N-HTC_13
1002
{
1000
OWNER
1000
GEN
1002
}
1001
GENIUS_GENHATCH_13
1002
{
1000
DATA
1040
45.0
1042
2.0
1000
_U
1070
     0
1011
795.5850793762701
1021
189.1276667104507
1031
0.0
1002
}
1002
{
1000
UCS
1010
0.0
1020
0.0
1030
0.0
1010
1.0
1020
0.0
1030
0.0
1010
0.0
1020
1.0
1030
0.0
1002
}
  0
DIMENSION
  5
1AAC
102
{ACAD_XDICTIONARY
360
1AB9
102
}
102
{ACAD_REACTORS
330
1ABA
102
}
330
1F
100
AcDbEntity
  8
AM_5
100
AcDbDimension
280
     0
  2
*D9
 10
935.4453404988705
 20
264.6978925760485
 30
0.0
 11
935.4453404988703
 21
299.6943925760488
 31
0.0
 70
   160
  1
Sperrwasser <>mm
 71
     5
 42
69.99300000000005
 73
     0
 74
     0
 75
     0
  3
AM_DIN$0
100
AcDbAlignedDimension
 13
854.5874903125527
 23
334.6908925760487
 33
0.0
 14
890.7810043889654
 24
264.6978925760486
 34
0.0
 50
90.00000000000003
100
AcDbRotatedDimension
1001
ACAD
1000
DSTYLE
1002
{
1070
   147
1040
2.0
1070
   140
1040
6.0
1070
    90
1070
     1
1070
   271
1070
     0
1002
}
1001
ACAD_DSTYLE_DIMINSPECT
1070
   396
1000
100%
1070
   395
1000

1070
   394
1070
    33
1070
   393
1070
     0
  0
DIMENSION
  5
1B03
102
{ACAD_XDICTIONARY
360
1B10
102
}
102
{ACAD_REACTORS
330
1B11
102
}
330
1F
100
AcDbEntity
  8
AM_5
100
AcDbDimension
280
     0
  2
*D10
 10
740.9629195279753
 20
358.4965117760555
 30
0.0
 11
735.9629195279752
 21
281.100252176053
 31
0.0
 70
    32
 71
     5
 42
154.7925192000053
 73
     0
 74
     0
 75
     0
  3
AM_DIN$0
100
AcDbAlignedDimension
 13
790.2366977859446
 23
203.7039925760502
 33
0.0
 14
823.5020213859472
 24
358.4965117760555
 34
0.0
 50
90.0
100
AcDbRotatedDimension
1001
ACAD_DSTYLE_DIMINSPECT
1070
   396
1000
100%
1070
   395
1000

1070
   394
1070
    33
1070
   393
1070
     0
1001
ACAD
1000
DSTYLE
1002
{
1070
    90
1070
     1
1070
   140
1040
6.0
1070
   147
1040
2.0
1070
   271
1070
     0
1002
}
  0
DIMENSION
  5
1B2D
102
{ACAD_XDICTIONARY
360
1B3A
102
}
102
{ACAD_REACTORS
330
1B3B
102
}
330
1F
100
AcDbEntity
  8
AM_5
100
AcDbDimension
280
     0
  2
*D11
 10
719.4442900996683
 20
358.4965117760555
 30
0.0
 11
714.4436995484871
 21
256.6002521760522
 31
0.0
 70
    32
 71
     5
 42
203.7925192000069
 73
     0
 74
     0
 75
     0
  3
AM_DIN$0
100
AcDbAlignedDimension
 13
799.2366977859447
 23
154.7039925760485
 33
0.0
 14
824.5020213859472
 24
358.4965117760555
 34
0.0
 50
90.00000000000003
100
AcDbRotatedDimension
1001
ACAD_DSTYLE_DIMINSPECT
1070
   396
1000
100%
1070
   395
1000

1070
   394
1070
    33
1070
   393
1070
     0
1001
ACAD
1000
DSTYLE
1002
{
1070
    90
1070
     1
1070
   140
1040
6.0
1070
   147
1040
2.0
1070
   271
1070
     0
1002
}
  0
DIMENSION
  5
1B60
330
1F
100
AcDbEntity
  8
AM_5
100
AcDbDimension
280
     0
  2
*D12
 10
900.2304477859448
 20
384.6870935760487
 30
0.0
 11
837.7366977859447
 21
389.6876841272298
 31
0.0
 70
    32
  1
%%c<>
 71
     5
 42
124.9875000000002
 73
     0
 74
     0
 75
     0
  3
AM_DIN$0
100
AcDbAlignedDimension
 13
775.2429477859445
 23
336.1757440760534
 33
0.0
 14
900.2304477859448
 24
334.6908925760486
 34
0.0
100
AcDbRotatedDimension
1001
ACAD
1000
DSTYLE
1002
{
1070
    90
1070
     1
1070
   140
1040
6.0
1070
   147
1040
2.0
1070
   271
1070
     0
1002
}
1001
ACAD_DSTYLE_DIMINSPECT
1070
   396
1000
100%
1070
   395
1000

1070
   394
1070
    33
1070
   393
1070
     0
  0
ENDSEC
  0
SECTION
  2
OBJECTS
  0
DICTIONARY
  5
C
330
0
100
AcDbDictionary
281
     1
  3
ACAD_COLOR
350
BE
  3
ACAD_GROUP
350
D
  3
ACAD_IMAGE_DICT
350
E06
  3
ACAD_IMAGE_VARS
350
E12
  3
ACAD_LAYOUT
350
1A
  3
ACAD_MATERIAL
350
BD
  3
ACAD_MLEADERSTYLE
350
3EF
  3
ACAD_MLINESTYLE
350
17
  3
ACAD_PLOTSETTINGS
350
19
  3
ACAD_PLOTSTYLENAME
350
E
  3
ACAD_SCALELIST
350
3DD
  3
ACAD_TABLESTYLE
350
11A
  3
ACAD_VISUALSTYLE
350
3CC
  3
ACDB_RECOMPOSE_DATA
350
1C73
  3
AcDbVariableDictionary
350
94
  3
AcmDictionary
350
5B
  3
AEC_PROPERTY_SET_DEFS
350
E09
  3
AMG
350
41
  3
AMGSNAPSETTINGS
350
26B
  3
ASE_INDEX_DICTIONARY
350
7B2
  0
DICTIONARY
  5
BDE
330
2
100
AcDbDictionary
280
     1
281
     1
  3
ACAD_LAYERSTATES
360
BDF
  0
DICTIONARY
  5
977
330
10
100
AcDbDictionary
280
     1
281
     1
  3
ADSK_XREC_LAYER_RECONCILED
360
978
  0
DICTIONARY
  5
979
330
62B
100
AcDbDictionary
280
     1
281
     1
  3
ADSK_XREC_LAYER_RECONCILED
360
97A
  0
DICTIONARY
  5
97B
330
62C
100
AcDbDictionary
280
     1
281
     1
  3
ADSK_XREC_LAYER_RECONCILED
360
97C
  0
DICTIONARY
  5
BA6
330
BA5
100
AcDbDictionary
280
     1
281
     1
  0
DICTIONARY
  5
BA8
330
BA7
100
AcDbDictionary
280
     1
281
     1
  0
DICTIONARY
  5
BAA
330
BA9
100
AcDbDictionary
280
     1
281
     1
  0
DICTIONARY
  5
BAC
330
BAB
100
AcDbDictionary
280
     1
281
     1
  0
DICTIONARY
  5
BAE
330
BAD
100
AcDbDictionary
280
     1
281
     1
  0
DICTIONARY
  5
BB0
330
BAF
100
AcDbDictionary
280
     1
281
     1
  0
DICTIONARY
  5
BB2
330
BB1
100
AcDbDictionary
280
     1
281
     1
  0
DICTIONARY
  5
BB4
330
BB3
100
AcDbDictionary
280
     1
281
     1
  0
DICTIONARY
  5
BB6
330
BB5
100
AcDbDictionary
280
     1
281
     1
  0
DICTIONARY
  5
BB8
330
BB7
100
AcDbDictionary
280
     1
281
     1
  0
DICTIONARY
  5
BBA
330
BB9
100
AcDbDictionary
280
     1
281
     1
  0
DICTIONARY
  5
BBC
330
BBB
100
AcDbDictionary
280
     1
281
     1
  0
DICTIONARY
  5
BBE
330
BBD
100
AcDbDictionary
280
     1
281
     1
  0
DICTIONARY
  5
BC0
330
BBF
100
AcDbDictionary
280
     1
281
     1
  0
DICTIONARY
  5
BC2
330
BC1
100
AcDbDictionary
280
     1
281
     1
  0
DICTIONARY
  5
BC4
330
BC3
100
AcDbDictionary
280
     1
281
     1
  0
DICTIONARY
  5
BC6
330
BC5
100
AcDbDictionary
280
     1
281
     1
  0
DICTIONARY
  5
1112
330
1111
100
AcDbDictionary
280
     1
281
     1
  0
DICTIONARY
  5
1114
330
1113
100
AcDbDictionary
280
     1
281
     1
  0
DICTIONARY
  5
1116
330
1115
100
AcDbDictionary
280
     1
281
     1
  0
DICTIONARY
  5
137B
330
137A
100
AcDbDictionary
280
     1
281
     1
  0
DICTIONARY
  5
137D
330
137C
100
AcDbDictionary
280
     1
281
     1
  0
DICTIONARY
  5
166A
330
1669
100
AcDbDictionary
280
     1
281
     1
  0
DICTIONARY
  5
166C
330
166B
100
AcDbDictionary
280
     1
281
     1
  0
DICTIONARY
  5
166F
330
166E
100
AcDbDictionary
280
     1
281
     1
  0
DICTIONARY
  5
8F
330
1F
100
AcDbDictionary
280
     1
281
     1
  0
DICTIONARY
  5
B13
330
B12
100
AcDbDictionary
280
     1
281
     1
  0
IMAGEDEF_REACTOR
  5
B9B
330
B9A
100
AcDbRasterImageDefReactor
 90
        2
330
B9A
  0
DICTIONARY
  5
1AB9
330
1AAC
100
AcDbDictionary
280
     1
281
     1
  3
ACAD_DIMASSOC
360
1ABA
  0
DICTIONARY
  5
1B10
330
1B03
100
AcDbDictionary
280
     1
281
     1
  3
ACAD_DIMASSOC
360
1B11
  0
DICTIONARY
  5
1B3A
330
1B2D
100
AcDbDictionary
280
     1
281
     1
  3
ACAD_DIMASSOC
360
1B3B
  0
DICTIONARY
  5
BE
102
{ACAD_REACTORS
330
C
102
}
330
C
100
AcDbDictionary
281
     1
  0
DICTIONARY
  5
D
102
{ACAD_REACTORS
330
C
102
}
330
C
100
AcDbDictionary
281
     1
  0
DICTIONARY
  5
E06
102
{ACAD_REACTORS
330
C
102
}
330
C
100
AcDbDictionary
281
     1
  3
ACO-Logo
350
E07
  0
RASTERVARIABLES
  5
E12
102
{ACAD_REACTORS
330
C
102
}
330
C
100
AcDbRasterVariables
 90
        0
 70
     1
 71
     1
 72
     1
  0
DICTIONARY
  5
1A
102
{ACAD_REACTORS
330
C
102
}
330
C
100
AcDbDictionary
281
     1
  3
Layout1
350
1E
  3
Layout2
350
26
  3
Model
350
22
  0
DICTIONARY
  5
BD
102
{ACAD_REACTORS
330
C
102
}
330
C
100
AcDbDictionary
281
     1
  3
ByBlock
350
3BC
  3
ByLayer
350
3B4
  3
Global
350
3C4
  0
DICTIONARY
  5
3EF
102
{ACAD_REACTORS
330
C
102
}
330
C
100
AcDbDictionary
281
     1
  3
Standard
350
3F0
  0
DICTIONARY
  5
17
102
{ACAD_REACTORS
330
C
102
}
330
C
100
AcDbDictionary
281
     1
  3
Standard
350
18
  0
DICTIONARY
  5
19
102
{ACAD_REACTORS
330
C
102
}
330
C
100
AcDbDictionary
281
     1
  0
ACDBDICTIONARYWDFLT
  5
E
102
{ACAD_REACTORS
330
C
102
}
330
C
100
AcDbDictionary
281
     1
  3
Normal
350
F
100
AcDbDictionaryWithDefault
340
F
  0
DICTIONARY
  5
3DD
102
{ACAD_REACTORS
330
C
102
}
330
C
100
AcDbDictionary
281
     1
  3
A0
350
3DE
  3
A1
350
3DF
  3
A2
350
3E0
  3
A3
350
3E1
  3
A4
350
3E2
  3
A5
350
3E3
  3
A6
350
3E4
  3
A7
350
3E5
  3
A8
350
3E6
  3
A9
350
3E7
  3
B0
350
3E8
  3
B1
350
3E9
  3
B2
350
3EA
  3
B3
350
3EB
  3
B4
350
3EC
  3
B5
350
3ED
  3
B6
350
3EE
  0
DICTIONARY
  5
11A
102
{ACAD_REACTORS
330
C
102
}
330
C
100
AcDbDictionary
281
     1
  3
Standard
350
11B
  0
DICTIONARY
  5
3CC
102
{ACAD_REACTORS
330
C
102
}
330
C
100
AcDbDictionary
281
     1
  3
2dWireframe
350
3D2
  3
3D Hidden
350
3D4
  3
3dWireframe
350
3D3
  3
Basic
350
3D1
  3
Brighten
350
3D8
  3
ColorChange
350
3DC
  3
Conceptual
350
3D5
  3
Dim
350
3D7
  3
EdgeColorOff
350
1C47
  3
Facepattern
350
3DB
  3
Flat
350
3CD
  3
FlatWithEdges
350
3CE
  3
Gouraud
350
3CF
  3
GouraudWithEdges
350
3D0
  3
JitterOff
350
1C45
  3
Linepattern
350
3DA
  3
OverhangOff
350
1C46
  3
Realistic
350
3D6
  3
Thicken
350
3D9
  0
XRECORD
  5
1C73
102
{ACAD_REACTORS
330
C
102
}
330
C
100
AcDbXrecord
280
     1
 90
        1
330
11B
  0
DICTIONARY
  5
94
102
{ACAD_REACTORS
330
C
102
}
330
C
100
AcDbDictionary
281
     1
  3
CANNOSCALE
350
420
  3
CMLEADERSTYLE
350
41E
  3
CTABLESTYLE
350
138
  3
DIMASSOC
350
96
  3
INDEXCTL
350
95
  3
LAYEREVAL
350
422
  3
LAYERNOTIFY
350
423
  3
LIGHTINGUNITS
350
421
  3
MSLTSCALE
350
41F
  3
SORTENTS
350
97D
  0
DICTIONARY
  5
5B
102
{ACAD_REACTORS
330
C
102
}
330
C
100
AcDbDictionary
281
     1
  3
AcmBOM
350
272
  3
AcmStdDictionary
350
61
  3
AMDTSECTSYM_ARROWCOLOR
350
123
  0
DICTIONARY
  5
E09
102
{ACAD_REACTORS
330
C
102
}
330
C
100
AcDbDictionary
281
     1
  0
DICTIONARY
  5
41
102
{ACAD_REACTORS
330
C
102
}
330
C
100
AcDbDictionary
281
     1
  0
DICTIONARY
  5
26B
102
{ACAD_REACTORS
330
C
102
}
330
C
100
AcDbDictionary
281
     1
  0
DICTIONARY
  5
7B2
102
{ACAD_REACTORS
330
C
102
}
330
C
100
AcDbDictionary
281
     1
  3
ASEBlockHierarchyIndexRecord
350
7B3
1001
DCO15
1040
1746438978.454
  0
DICTIONARY
  5
BDF
102
{ACAD_REACTORS
330
BDE
102
}
330
BDE
100
AcDbDictionary
281
     1
  0
XRECORD
  5
978
102
{ACAD_REACTORS
330
977
102
}
330
977
100
AcDbXrecord
280
     1
290
     1
  0
XRECORD
  5
97A
102
{ACAD_REACTORS
330
979
102
}
330
979
100
AcDbXrecord
280
     1
290
     1
  0
XRECORD
  5
97C
102
{ACAD_REACTORS
330
97B
102
}
330
97B
100
AcDbXrecord
280
     1
290
     1
  0
DIMASSOC
  5
1ABA
102
{ACAD_REACTORS
330
1AB9
102
}
330
1AB9
100
AcDbDimAssoc
330
1AAC
 90
        3
 70
     0
 71
     0
  1
AcDbOsnapPointRef
 72
    10
331
14A8
 73
     0
 91
        0
 40
0.7021865739327255
 10
0.0
 20
0.0
 30
0.0
 75
     0
  1
AcDbOsnapPointRef
 72
    10
331
14A9
 73
     0
 91
        0
 40
0.252010358288612
 10
0.0
 20
0.0
 30
0.0
 75
     0
  0
DIMASSOC
  5
1B11
102
{ACAD_REACTORS
330
1B10
102
}
330
1B10
100
AcDbDimAssoc
330
1B03
 90
        1
 70
     0
 71
     0
  1
AcDbOsnapPointRef
 72
    13
331
155C
 73
     0
 91
        0
 40
0.0
 10
0.0
 20
0.0
 30
2.000000000000000E+50
 75
     0
  0
DIMASSOC
  5
1B3B
102
{ACAD_REACTORS
330
1B3A
102
}
330
1B3A
100
AcDbDimAssoc
330
1B2D
 90
        3
 70
     0
 71
     0
  1
AcDbOsnapPointRef
 72
    13
331
15BA
 73
     0
 91
        0
 40
0.0
 10
0.0
 20
0.0
 30
2.000000000000000E+50
 75
     0
  1
AcDbOsnapPointRef
 72
     1
331
14DA
331
1357
 73
     0
 91
        0
 40
0.0
 10
0.0
 20
0.0
 30
2.000000000000000E+50
 75
     0
  0
IMAGEDEF
  5
E07
102
{ACAD_REACTORS
330
E06
330
B9B
102
}
330
E06
100
AcDbRasterImageDef
 90
        0
  1
L:\calink52\templates\ACO-Logo.jpg
 10
75.0
 20
57.0
 11
0.3527777777777778
 21
0.3527777777777778
280
     1
281
     5
  0
LAYOUT
  5
1E
102
{ACAD_REACTORS
330
1A
102
}
330
1A
100
AcDbPlotSettings
  1

  2

  4

  6

 40
0.0
 41
0.0
 42
0.0
 43
0.0
 44
0.0
 45
0.0
 46
0.0
 47
0.0
 48
0.0
 49
0.0
140
0.0
141
0.0
142
1.0
143
1.0
 70
   688
 72
     0
 73
     0
 74
     5
  7
monochrome.ctb
 75
    16
147
1.0
 76
     0
 77
     2
 78
   300
148
0.0
149
0.0
100
AcDbLayout
  1
Layout1
 70
     1
 71
     1
 10
0.0
 20
0.0
 11
420.0
 21
297.0
 12
0.0
 22
0.0
 32
0.0
 14
1.000000000000000E+20
 24
1.000000000000000E+20
 34
1.000000000000000E+20
 15
-1.000000000000000E+20
 25
-1.000000000000000E+20
 35
-1.000000000000000E+20
146
0.0
 13
0.0
 23
0.0
 33
0.0
 16
1.0
 26
0.0
 36
0.0
 17
0.0
 27
1.0
 37
0.0
 76
     0
330
1B
  0
LAYOUT
  5
26
102
{ACAD_REACTORS
330
1A
102
}
330
1A
100
AcDbPlotSettings
  1

  2

  4

  6

 40
0.0
 41
0.0
 42
0.0
 43
0.0
 44
0.0
 45
0.0
 46
0.0
 47
0.0
 48
0.0
 49
0.0
140
0.0
141
0.0
142
1.0
143
1.0
 70
   688
 72
     0
 73
     0
 74
     5
  7
monochrome.ctb
 75
    16
147
1.0
 76
     0
 77
     2
 78
   300
148
0.0
149
0.0
100
AcDbLayout
  1
Layout2
 70
     1
 71
     2
 10
0.0
 20
0.0
 11
12.0
 21
9.0
 12
0.0
 22
0.0
 32
0.0
 14
0.0
 24
0.0
 34
0.0
 15
0.0
 25
0.0
 35
0.0
146
0.0
 13
0.0
 23
0.0
 33
0.0
 16
1.0
 26
0.0
 36
0.0
 17
0.0
 27
1.0
 37
0.0
 76
     0
330
23
  0
LAYOUT
  5
22
102
{ACAD_REACTORS
330
1A
102
}
330
1A
100
AcDbPlotSettings
  1

  2
\\RD-SR-311.aco.local\ST-PR-002
  4
A4
  6

 40
6.805083274841308
 41
7.14373779296875
 42
6.805068969726562
 43
7.14373779296875
 44
209.9733276367187
 45
296.9683227539062
 46
0.0
 47
0.0
 48
0.0
 49
0.0
140
0.0
141
0.0
142
1.0
143
2.042057183044299
 70
 11952
 72
     1
 73
     1
 74
     0
  7
monochrome.ctb
 75
     0
147
0.489702251388083
 76
     0
 77
     2
 78
   300
148
50.04093582245451
149
-0.3009984424492416
100
AcDbLayout
  1
Model
 70
     1
 71
     0
 10
0.0
 20
0.0
 11
12.0
 21
9.0
 12
0.0
 22
0.0
 32
0.0
 14
0.0
 24
0.0
 34
0.0
 15
0.0
 25
0.0
 35
0.0
146
0.0
 13
0.0
 23
0.0
 33
0.0
 16
1.0
 26
0.0
 36
0.0
 17
0.0
 27
1.0
 37
0.0
 76
     0
330
1F
331
3B2
1001
ACAD_PSEXT
1000
\\RD-SR-311.aco.local\ST-PR-002
1000
Xerox WorkCentre 5230
1000
ST - Konstruktion
1000
Xereox WorkCentre 5230
1070
     0
  0
MATERIAL
  5
3BC
102
{ACAD_XDICTIONARY
360
3BD
102
}
102
{ACAD_REACTORS
330
BD
102
}
330
BD
100
AcDbMaterial
  1
ByBlock
 72
     0
 43
0.0008202099737533
 43
0.0
 43
0.0
 43
0.0
 43
0.0
 43
0.0008202099737533
 43
0.0
 43
0.0
 43
0.0
 43
0.0
 43
1.0
 43
0.0
 43
0.0
 43
0.0
 43
0.0
 43
1.0
 77
     0
 47
0.0008202099737533
 47
0.0
 47
0.0
 47
0.0
 47
0.0
 47
0.0008202099737533
 47
0.0
 47
0.0
 47
0.0
 47
0.0
 47
1.0
 47
0.0
 47
0.0
 47
0.0
 47
0.0
 47
1.0
171
     0
 49
0.0008202099737533
 49
0.0
 49
0.0
 49
0.0
 49
0.0
 49
0.0008202099737533
 49
0.0
 49
0.0
 49
0.0
 49
0.0
 49
1.0
 49
0.0
 49
0.0
 49
0.0
 49
0.0
 49
1.0
175
     0
142
0.0008202099737533
142
0.0
142
0.0
142
0.0
142
0.0
142
0.0008202099737533
142
0.0
142
0.0
142
0.0
142
0.0
142
1.0
142
0.0
142
0.0
142
0.0
142
0.0
142
1.0
179
     0
144
0.0008202099737533
144
0.0
144
0.0
144
0.0
144
0.0
144
0.0008202099737533
144
0.0
144
0.0
144
0.0
144
0.0
144
1.0
144
0.0
144
0.0
144
0.0
144
0.0
144
1.0
147
0.0008202099737533
147
0.0
147
0.0
147
0.0
147
0.0
147
0.0008202099737533
147
0.0
147
0.0
147
0.0
147
0.0
147
1.0
147
0.0
147
0.0
147
0.0
147
0.0
147
1.0
  0
MATERIAL
  5
3B4
102
{ACAD_XDICTIONARY
360
3B5
102
}
102
{ACAD_REACTORS
330
BD
102
}
330
BD
100
AcDbMaterial
  1
ByLayer
 72
     0
 43
0.0008202099737533
 43
0.0
 43
0.0
 43
0.0
 43
0.0
 43
0.0008202099737533
 43
0.0
 43
0.0
 43
0.0
 43
0.0
 43
1.0
 43
0.0
 43
0.0
 43
0.0
 43
0.0
 43
1.0
 77
     0
 47
0.0008202099737533
 47
0.0
 47
0.0
 47
0.0
 47
0.0
 47
0.0008202099737533
 47
0.0
 47
0.0
 47
0.0
 47
0.0
 47
1.0
 47
0.0
 47
0.0
 47
0.0
 47
0.0
 47
1.0
171
     0
 49
0.0008202099737533
 49
0.0
 49
0.0
 49
0.0
 49
0.0
 49
0.0008202099737533
 49
0.0
 49
0.0
 49
0.0
 49
0.0
 49
1.0
 49
0.0
 49
0.0
 49
0.0
 49
0.0
 49
1.0
175
     0
142
0.0008202099737533
142
0.0
142
0.0
142
0.0
142
0.0
142
0.0008202099737533
142
0.0
142
0.0
142
0.0
142
0.0
142
1.0
142
0.0
142
0.0
142
0.0
142
0.0
142
1.0
179
     0
144
0.0008202099737533
144
0.0
144
0.0
144
0.0
144
0.0
144
0.0008202099737533
144
0.0
144
0.0
144
0.0
144
0.0
144
1.0
144
0.0
144
0.0
144
0.0
144
0.0
144
1.0
147
0.0008202099737533
147
0.0
147
0.0
147
0.0
147
0.0
147
0.0008202099737533
147
0.0
147
0.0
147
0.0
147
0.0
147
1.0
147
0.0
147
0.0
147
0.0
147
0.0
147
1.0
  0
MATERIAL
  5
3C4
102
{ACAD_XDICTIONARY
360
3C5
102
}
102
{ACAD_REACTORS
330
BD
102
}
330
BD
100
AcDbMaterial
  1
Global
 72
     0
 43
0.0008202099737533
 43
0.0
 43
0.0
 43
0.0
 43
0.0
 43
0.0008202099737533
 43
0.0
 43
0.0
 43
0.0
 43
0.0
 43
1.0
 43
0.0
 43
0.0
 43
0.0
 43
0.0
 43
1.0
 77
     0
 47
0.0008202099737533
 47
0.0
 47
0.0
 47
0.0
 47
0.0
 47
0.0008202099737533
 47
0.0
 47
0.0
 47
0.0
 47
0.0
 47
1.0
 47
0.0
 47
0.0
 47
0.0
 47
0.0
 47
1.0
171
     0
 49
0.0008202099737533
 49
0.0
 49
0.0
 49
0.0
 49
0.0
 49
0.0008202099737533
 49
0.0
 49
0.0
 49
0.0
 49
0.0
 49
1.0
 49
0.0
 49
0.0
 49
0.0
 49
0.0
 49
1.0
175
     0
142
0.0008202099737533
142
0.0
142
0.0
142
0.0
142
0.0
142
0.0008202099737533
142
0.0
142
0.0
142
0.0
142
0.0
142
1.0
142
0.0
142
0.0
142
0.0
142
0.0
142
1.0
179
     0
144
0.0008202099737533
144
0.0
144
0.0
144
0.0
144
0.0
144
0.0008202099737533
144
0.0
144
0.0
144
0.0
144
0.0
144
1.0
144
0.0
144
0.0
144
0.0
144
0.0
144
1.0
147
0.0008202099737533
147
0.0
147
0.0
147
0.0
147
0.0
147
0.0008202099737533
147
0.0
147
0.0
147
0.0
147
0.0
147
1.0
147
0.0
147
0.0
147
0.0
147
0.0
147
1.0
  0
MLEADERSTYLE
  5
3F0
102
{ACAD_REACTORS
330
3EF
102
}
330
3EF
100
AcDbMLeaderStyle
179
     2
170
     2
171
     1
172
     0
 90
        2
 40
0.0
 41
0.0
173
     1
 91
-1056964608
340
14
 92
       -2
290
     1
 42
2.0
291
     1
 43
0.36
  3
Standard
 44
4.0
300

342
11
174
     1
178
     6
175
     1
176
     0
 93
-1056964608
 45
4.0
292
     0
297
     0
 46
4.0
 94
-1056964608
 47
1.0
 49
1.0
140
1.0
293
     1
141
0.0
294
     1
177
     0
142
1.0
295
     0
296
     0
143
0.125
271
     0
272
     9
273
     9
  0
MLINESTYLE
  5
18
102
{ACAD_REACTORS
330
17
102
}
330
17
100
AcDbMlineStyle
  2
STANDARD
 70
     0
  3

 62
   256
 51
90.0
 52
90.0
 71
     2
 49
0.5
 62
   256
  6
BYLAYER
 49
-0.5
 62
   256
  6
BYLAYER
  0
ACDBPLACEHOLDER
  5
F
102
{ACAD_REACTORS
330
E
102
}
330
E
  0
SCALE
  5
3DE
102
{ACAD_REACTORS
330
3DD
102
}
330
3DD
100
AcDbScale
 70
     0
300
1:1
140
1.0
141
1.0
290
     1
  0
SCALE
  5
3DF
102
{ACAD_REACTORS
330
3DD
102
}
330
3DD
100
AcDbScale
 70
     0
300
1:2
140
1.0
141
2.0
290
     0
  0
SCALE
  5
3E0
102
{ACAD_REACTORS
330
3DD
102
}
330
3DD
100
AcDbScale
 70
     0
300
1:4
140
1.0
141
4.0
290
     0
  0
SCALE
  5
3E1
102
{ACAD_REACTORS
330
3DD
102
}
330
3DD
100
AcDbScale
 70
     0
300
1:5
140
1.0
141
5.0
290
     0
  0
SCALE
  5
3E2
102
{ACAD_REACTORS
330
3DD
102
}
330
3DD
100
AcDbScale
 70
     0
300
1:8
140
1.0
141
8.0
290
     0
  0
SCALE
  5
3E3
102
{ACAD_REACTORS
330
3DD
102
}
330
3DD
100
AcDbScale
 70
     0
300
1:10
140
1.0
141
10.0
290
     0
  0
SCALE
  5
3E4
102
{ACAD_REACTORS
330
3DD
102
}
330
3DD
100
AcDbScale
 70
     0
300
1:16
140
1.0
141
16.0
290
     0
  0
SCALE
  5
3E5
102
{ACAD_REACTORS
330
3DD
102
}
330
3DD
100
AcDbScale
 70
     0
300
1:20
140
1.0
141
20.0
290
     0
  0
SCALE
  5
3E6
102
{ACAD_REACTORS
330
3DD
102
}
330
3DD
100
AcDbScale
 70
     0
300
1:30
140
1.0
141
30.0
290
     0
  0
SCALE
  5
3E7
102
{ACAD_REACTORS
330
3DD
102
}
330
3DD
100
AcDbScale
 70
     0
300
1:40
140
1.0
141
40.0
290
     0
  0
SCALE
  5
3E8
102
{ACAD_REACTORS
330
3DD
102
}
330
3DD
100
AcDbScale
 70
     0
300
1:50
140
1.0
141
50.0
290
     0
  0
SCALE
  5
3E9
102
{ACAD_REACTORS
330
3DD
102
}
330
3DD
100
AcDbScale
 70
     0
300
1:100
140
1.0
141
100.0
290
     0
  0
SCALE
  5
3EA
102
{ACAD_REACTORS
330
3DD
102
}
330
3DD
100
AcDbScale
 70
     0
300
2:1
140
2.0
141
1.0
290
     0
  0
SCALE
  5
3EB
102
{ACAD_REACTORS
330
3DD
102
}
330
3DD
100
AcDbScale
 70
     0
300
4:1
140
4.0
141
1.0
290
     0
  0
SCALE
  5
3EC
102
{ACAD_REACTORS
330
3DD
102
}
330
3DD
100
AcDbScale
 70
     0
300
8:1
140
8.0
141
1.0
290
     0
  0
SCALE
  5
3ED
102
{ACAD_REACTORS
330
3DD
102
}
330
3DD
100
AcDbScale
 70
     0
300
10:1
140
10.0
141
1.0
290
     0
  0
SCALE
  5
3EE
102
{ACAD_REACTORS
330
3DD
102
}
330
3DD
100
AcDbScale
 70
     0
300
100:1
140
100.0
141
1.0
290
     0
  0
TABLESTYLE
  5
11B
102
{ACAD_XDICTIONARY
360
41B
102
}
102
{ACAD_REACTORS
330
11A
102
}
330
11A
100
AcDbTableStyle
280
     0
  3
Standard
 70
     0
 71
     0
 40
1.5
 41
1.5
280
     0
281
     0
  7
STANDARD
140
4.5
170
     2
 62
     0
 63
     7
283
     0
 90
        4
 91
        0
  1

274
    -2
284
     1
 64
     0
275
    -2
285
     1
 65
     0
276
    -2
286
     1
 66
     0
277
    -2
287
     1
 67
     0
278
    -2
288
     1
 68
     0
279
    -2
289
     1
 69
     0
  7
STANDARD
140
6.0
170
     5
 62
     0
 63
     7
283
     0
 90
        4
 91
        0
  1

274
    -2
284
     1
 64
     0
275
    -2
285
     1
 65
     0
276
    -2
286
     1
 66
     0
277
    -2
287
     1
 67
     0
278
    -2
288
     1
 68
     0
279
    -2
289
     1
 69
     0
  7
STANDARD
140
4.5
170
     5
 62
     0
 63
     7
283
     0
 90
        4
 91
        0
  1

274
    -2
284
     1
 64
     0
275
    -2
285
     1
 65
     0
276
    -2
286
     1
 66
     0
277
    -2
287
     1
 67
     0
278
    -2
288
     1
 68
     0
279
    -2
289
     1
 69
     0
  0
VISUALSTYLE
  5
3D2
102
{ACAD_REACTORS
330
3CC
102
}
330
3CC
100
AcDbVisualStyle
  2
2dWireframe
 70
     4
177
     2
291
     0
 71
     0
176
     1
 72
     2
176
     1
 73
     0
176
     1
 90
        0
176
     1
 40
0.6
176
     1
 41
30.0
176
     1
 63
     7
176
     1
 74
     1
176
     1
 91
        4
176
     1
 64
     7
176
     1
 65
   257
176
     1
 75
     1
176
     1
175
     1
176
     1
 42
1.0
176
     1
 92
        0
176
     1
 66
   257
176
     1
 43
1.0
176
     1
 76
     1
176
     1
 77
     6
176
     1
 78
     2
176
     1
 67
     7
176
     1
 79
     5
176
     1
170
     0
176
     1
171
     0
176
     1
290
     0
176
     1
 93
        1
176
     1
 44
0.0
176
     1
173
     0
176
     1
  0
VISUALSTYLE
  5
3D4
102
{ACAD_REACTORS
330
3CC
102
}
330
3CC
100
AcDbVisualStyle
  2
3D Hidden
 70
     6
177
     2
291
     0
 71
     1
176
     1
 72
     2
176
     1
 73
     2
176
     1
 90
        0
176
     1
 40
0.6
176
     1
 41
30.0
176
     1
 63
     7
176
     1
 74
     2
176
     1
 91
        2
176
     1
 64
     7
176
     1
 65
   257
176
     1
 75
     2
176
     1
175
     1
176
     1
 42
40.0
176
     1
 92
        0
176
     1
 66
   257
176
     1
 43
1.0
176
     1
 76
     1
176
     1
 77
     6
176
     1
 78
     2
176
     1
 67
     7
176
     1
 79
     3
176
     1
170
     0
176
     1
171
     0
176
     1
290
     0
176
     1
 93
        1
176
     1
 44
0.0
176
     1
173
     0
176
     1
  0
VISUALSTYLE
  5
3D3
102
{ACAD_REACTORS
330
3CC
102
}
330
3CC
100
AcDbVisualStyle
  2
3dWireframe
 70
     5
177
     2
291
     0
 71
     0
176
     1
 72
     2
176
     1
 73
     0
176
     1
 90
        0
176
     1
 40
0.6
176
     1
 41
30.0
176
     1
 63
     7
176
     1
 74
     1
176
     1
 91
        4
176
     1
 64
     7
176
     1
 65
   257
176
     1
 75
     1
176
     1
175
     1
176
     1
 42
1.0
176
     1
 92
        0
176
     1
 66
   257
176
     1
 43
1.0
176
     1
 76
     1
176
     1
 77
     6
176
     1
 78
     2
176
     1
 67
     7
176
     1
 79
     5
176
     1
170
     0
176
     1
171
     0
176
     1
290
     0
176
     1
 93
        1
176
     1
 44
0.0
176
     1
173
     0
176
     1
  0
VISUALSTYLE
  5
3D1
102
{ACAD_REACTORS
330
3CC
102
}
330
3CC
100
AcDbVisualStyle
  2
Basic
 70
     7
177
     2
291
     1
 71
     1
176
     1
 72
     0
176
     1
 73
     1
176
     1
 90
        0
176
     1
 40
0.6
176
     1
 41
30.0
176
     1
 63
     7
176
     1
 74
     0
176
     1
 91
        4
176
     1
 64
     7
176
     1
 65
   257
176
     1
 75
     1
176
     1
175
     1
176
     1
 42
1.0
176
     1
 92
        8
176
     1
 66
     7
176
     1
 43
1.0
176
     1
 76
     1
176
     1
 77
     6
176
     1
 78
     2
176
     1
 67
     7
176
     1
 79
     5
176
     1
170
     0
176
     1
171
     0
176
     1
290
     0
176
     1
 93
        1
176
     1
 44
0.0
176
     1
173
     0
176
     1
  0
VISUALSTYLE
  5
3D8
102
{ACAD_REACTORS
330
3CC
102
}
330
3CC
100
AcDbVisualStyle
  2
Brighten
 70
    12
177
     2
291
     1
 71
     2
176
     1
 72
     2
176
     1
 73
     0
176
     1
 90
        0
176
     1
 40
0.6
176
     1
 41
30.0
176
     1
 63
     7
176
     1
 74
     1
176
     1
 91
        4
176
     1
 64
     7
176
     1
 65
   257
176
     1
 75
     1
176
     1
175
     1
176
     1
 42
1.0
176
     1
 92
        8
176
     1
 66
     7
176
     1
 43
1.0
176
     1
 76
     1
176
     1
 77
     6
176
     1
 78
     2
176
     1
 67
     7
176
     1
 79
     5
176
     1
170
     0
176
     1
171
     0
176
     1
290
     0
176
     1
 93
        1
176
     1
 44
50.0
176
     1
173
     0
176
     1
  0
VISUALSTYLE
  5
3DC
102
{ACAD_REACTORS
330
3CC
102
}
330
3CC
100
AcDbVisualStyle
  2
ColorChange
 70
    16
177
     2
291
     1
 71
     2
176
     1
 72
     2
176
     1
 73
     3
176
     1
 90
        0
176
     1
 40
0.6
176
     1
 41
30.0
176
     1
 63
     8
176
     1
 74
     1
176
     1
 91
        4
176
     1
 64
     7
176
     1
 65
   257
176
     1
 75
     1
176
     1
175
     1
176
     1
 42
1.0
176
     1
 92
        8
176
     1
 66
     8
176
     1
 43
1.0
176
     1
 76
     1
176
     1
 77
     6
176
     1
 78
     2
176
     1
 67
     7
176
     1
 79
     5
176
     1
170
     0
176
     1
171
     0
176
     1
290
     0
176
     1
 93
        1
176
     1
 44
0.0
176
     1
173
     0
176
     1
  0
VISUALSTYLE
  5
3D5
102
{ACAD_REACTORS
330
3CC
102
}
330
3CC
100
AcDbVisualStyle
  2
Conceptual
 70
     9
177
     2
291
     0
 71
     3
176
     1
 72
     2
176
     1
 73
     0
176
     1
 90
        0
176
     1
 40
0.6
176
     1
 41
30.0
176
     1
 63
     7
176
     1
 74
     2
176
     1
 91
        2
176
     1
 64
     7
176
     1
 65
   257
176
     1
 75
     1
176
     1
175
     1
176
     1
 42
40.0
176
     1
 92
        8
176
     1
 66
     7
176
     1
 43
1.0
176
     1
 76
     1
176
     1
 77
     6
176
     1
 78
     2
176
     1
 67
     7
176
     1
 79
     3
176
     1
170
     0
176
     1
171
     0
176
     1
290
     0
176
     1
 93
        1
176
     1
 44
0.0
176
     1
173
     0
176
     1
  0
VISUALSTYLE
  5
3D7
102
{ACAD_REACTORS
330
3CC
102
}
330
3CC
100
AcDbVisualStyle
  2
Dim
 70
    11
177
     2
291
     1
 71
     2
176
     1
 72
     2
176
     1
 73
     0
176
     1
 90
        0
176
     1
 40
0.6
176
     1
 41
30.0
176
     1
 63
     7
176
     1
 74
     1
176
     1
 91
        4
176
     1
 64
     7
176
     1
 65
   257
176
     1
 75
     1
176
     1
175
     1
176
     1
 42
1.0
176
     1
 92
        8
176
     1
 66
     7
176
     1
 43
1.0
176
     1
 76
     1
176
     1
 77
     6
176
     1
 78
     2
176
     1
 67
     7
176
     1
 79
     5
176
     1
170
     0
176
     1
171
     0
176
     1
290
     0
176
     1
 93
        1
176
     1
 44
-50.0
176
     1
173
     0
176
     1
  0
VISUALSTYLE
  5
1C47
102
{ACAD_REACTORS
330
3CC
102
}
330
3CC
100
AcDbVisualStyle
  2
EdgeColorOff
 70
    22
177
     2
291
     1
 71
     2
176
     0
 72
     2
176
     0
 73
     0
176
     0
 90
        0
176
     0
 40
0.6
176
     0
 41
30.0
176
     0
 63
     7
421
 16777215
176
     0
 74
     1
176
     0
 91
        4
176
     0
 64
     7
176
     0
 65
   257
176
     0
 75
     1
176
     0
175
     1
176
     0
 42
1.0
176
     0
 92
        8
176
     2
 66
     7
176
     0
 43
1.0
176
     0
 76
     1
176
     0
 77
     6
176
     0
 78
     2
176
     0
 67
     7
176
     0
 79
     5
176
     0
170
     0
176
     0
171
     0
176
     0
290
     0
176
     0
 93
        1
176
     0
 44
0.0
176
     0
173
     0
176
     0
  0
VISUALSTYLE
  5
3DB
102
{ACAD_REACTORS
330
3CC
102
}
330
3CC
100
AcDbVisualStyle
  2
Facepattern
 70
    15
177
     2
291
     1
 71
     2
176
     1
 72
     2
176
     1
 73
     0
176
     1
 90
        0
176
     1
 40
0.6
176
     1
 41
30.0
176
     1
 63
     7
176
     1
 74
     1
176
     1
 91
        4
176
     1
 64
     7
176
     1
 65
   257
176
     1
 75
     1
176
     1
175
     1
176
     1
 42
1.0
176
     1
 92
        8
176
     1
 66
     7
176
     1
 43
1.0
176
     1
 76
     1
176
     1
 77
     6
176
     1
 78
     2
176
     1
 67
     7
176
     1
 79
     5
176
     1
170
     0
176
     1
171
     0
176
     1
290
     0
176
     1
 93
        1
176
     1
 44
0.0
176
     1
173
     0
176
     1
  0
VISUALSTYLE
  5
3CD
102
{ACAD_REACTORS
330
3CC
102
}
330
3CC
100
AcDbVisualStyle
  2
Flat
 70
     0
177
     2
291
     1
 71
     2
176
     1
 72
     1
176
     1
 73
     1
176
     1
 90
        2
176
     1
 40
0.6
176
     1
 41
30.0
176
     1
 63
     7
176
     1
 74
     0
176
     1
 91
        4
176
     1
 64
     7
176
     1
 65
   257
176
     1
 75
     1
176
     1
175
     1
176
     1
 42
1.0
176
     1
 92
        8
176
     1
 66
     7
176
     1
 43
1.0
176
     1
 76
     1
176
     1
 77
     6
176
     1
 78
     2
176
     1
 67
     7
176
     1
 79
     5
176
     1
170
     0
176
     1
171
     0
176
     1
290
     0
176
     1
 93
       13
176
     1
 44
0.0
176
     1
173
     0
176
     1
  0
VISUALSTYLE
  5
3CE
102
{ACAD_REACTORS
330
3CC
102
}
330
3CC
100
AcDbVisualStyle
  2
FlatWithEdges
 70
     1
177
     2
291
     1
 71
     2
176
     1
 72
     1
176
     1
 73
     1
176
     1
 90
        2
176
     1
 40
0.6
176
     1
 41
30.0
176
     1
 63
     7
176
     1
 74
     1
176
     1
 91
        4
176
     1
 64
     7
176
     1
 65
   257
176
     1
 75
     1
176
     1
175
     1
176
     1
 42
1.0
176
     1
 92
        0
176
     1
 66
   257
176
     1
 43
1.0
176
     1
 76
     1
176
     1
 77
     6
176
     1
 78
     2
176
     1
 67
     7
176
     1
 79
     5
176
     1
170
     0
176
     1
171
     0
176
     1
290
     0
176
     1
 93
       13
176
     1
 44
0.0
176
     1
173
     0
176
     1
  0
VISUALSTYLE
  5
3CF
102
{ACAD_REACTORS
330
3CC
102
}
330
3CC
100
AcDbVisualStyle
  2
Gouraud
 70
     2
177
     2
291
     1
 71
     2
176
     1
 72
     2
176
     1
 73
     1
176
     1
 90
        2
176
     1
 40
0.6
176
     1
 41
30.0
176
     1
 63
     7
176
     1
 74
     0
176
     1
 91
        4
176
     1
 64
     7
176
     1
 65
   257
176
     1
 75
     1
176
     1
175
     1
176
     1
 42
1.0
176
     1
 92
        0
176
     1
 66
     7
176
     1
 43
1.0
176
     1
 76
     1
176
     1
 77
     6
176
     1
 78
     2
176
     1
 67
     7
176
     1
 79
     5
176
     1
170
     0
176
     1
171
     0
176
     1
290
     0
176
     1
 93
       13
176
     1
 44
0.0
176
     1
173
     0
176
     1
  0
VISUALSTYLE
  5
3D0
102
{ACAD_REACTORS
330
3CC
102
}
330
3CC
100
AcDbVisualStyle
  2
GouraudWithEdges
 70
     3
177
     2
291
     1
 71
     2
176
     1
 72
     2
176
     1
 73
     1
176
     1
 90
        2
176
     1
 40
0.6
176
     1
 41
30.0
176
     1
 63
     7
176
     1
 74
     1
176
     1
 91
        4
176
     1
 64
     7
176
     1
 65
   257
176
     1
 75
     1
176
     1
175
     1
176
     1
 42
1.0
176
     1
 92
        0
176
     1
 66
   257
176
     1
 43
1.0
176
     1
 76
     1
176
     1
 77
     6
176
     1
 78
     2
176
     1
 67
     7
176
     1
 79
     5
176
     1
170
     0
176
     1
171
     0
176
     1
290
     0
176
     1
 93
       13
176
     1
 44
0.0
176
     1
173
     0
176
     1
  0
VISUALSTYLE
  5
1C45
102
{ACAD_REACTORS
330
3CC
102
}
330
3CC
100
AcDbVisualStyle
  2
JitterOff
 70
    20
177
     2
291
     1
 71
     2
176
     0
 72
     2
176
     0
 73
     0
176
     0
 90
        0
176
     0
 40
0.6
176
     0
 41
30.0
176
     0
 63
     7
421
 16777215
176
     0
 74
     1
176
     0
 91
        4
176
     0
 64
     7
176
     0
 65
   257
176
     0
 75
     1
176
     0
175
     1
176
     0
 42
1.0
176
     0
 92
       10
176
     2
 66
     7
176
     0
 43
1.0
176
     0
 76
     1
176
     0
 77
     6
176
     0
 78
     2
176
     0
 67
     7
176
     0
 79
     5
176
     0
170
     0
176
     0
171
     0
176
     0
290
     0
176
     0
 93
        1
176
     0
 44
0.0
176
     0
173
     0
176
     0
  0
VISUALSTYLE
  5
3DA
102
{ACAD_REACTORS
330
3CC
102
}
330
3CC
100
AcDbVisualStyle
  2
Linepattern
 70
    14
177
     2
291
     1
 71
     2
176
     1
 72
     2
176
     1
 73
     0
176
     1
 90
        0
176
     1
 40
0.6
176
     1
 41
30.0
176
     1
 63
     7
176
     1
 74
     1
176
     1
 91
        4
176
     1
 64
     7
176
     1
 65
   257
176
     1
 75
     7
176
     1
175
     7
176
     1
 42
1.0
176
     1
 92
        8
176
     1
 66
     7
176
     1
 43
1.0
176
     1
 76
     1
176
     1
 77
     6
176
     1
 78
     2
176
     1
 67
     7
176
     1
 79
     5
176
     1
170
     0
176
     1
171
     0
176
     1
290
     0
176
     1
 93
        1
176
     1
 44
0.0
176
     1
173
     0
176
     1
  0
VISUALSTYLE
  5
1C46
102
{ACAD_REACTORS
330
3CC
102
}
330
3CC
100
AcDbVisualStyle
  2
OverhangOff
 70
    21
177
     2
291
     1
 71
     2
176
     0
 72
     2
176
     0
 73
     0
176
     0
 90
        0
176
     0
 40
0.6
176
     0
 41
30.0
176
     0
 63
     7
421
 16777215
176
     0
 74
     1
176
     0
 91
        4
176
     0
 64
     7
176
     0
 65
   257
176
     0
 75
     1
176
     0
175
     1
176
     0
 42
1.0
176
     0
 92
        9
176
     2
 66
     7
176
     0
 43
1.0
176
     0
 76
     1
176
     0
 77
     6
176
     0
 78
     2
176
     0
 67
     7
176
     0
 79
     5
176
     0
170
     0
176
     0
171
     0
176
     0
290
     0
176
     0
 93
        1
176
     0
 44
0.0
176
     0
173
     0
176
     0
  0
VISUALSTYLE
  5
3D6
102
{ACAD_REACTORS
330
3CC
102
}
330
3CC
100
AcDbVisualStyle
  2
Realistic
 70
     8
177
     2
291
     0
 71
     2
176
     1
 72
     2
176
     1
 73
     0
176
     1
 90
        0
176
     1
 40
0.6
176
     1
 41
30.0
176
     1
 63
     7
176
     1
 74
     1
176
     1
 91
        0
176
     1
 64
     7
176
     1
 65
   257
176
     1
 75
     1
176
     1
175
     1
176
     1
 42
1.0
176
     1
 92
        8
176
     1
 66
     8
176
     1
 43
1.0
176
     1
 76
     1
176
     1
 77
     6
176
     1
 78
     2
176
     1
 67
     7
176
     1
 79
     5
176
     1
170
     0
176
     1
171
     0
176
     1
290
     0
176
     1
 93
       13
176
     1
 44
0.0
176
     1
173
     0
176
     1
  0
VISUALSTYLE
  5
3D9
102
{ACAD_REACTORS
330
3CC
102
}
330
3CC
100
AcDbVisualStyle
  2
Thicken
 70
    13
177
     2
291
     1
 71
     2
176
     1
 72
     2
176
     1
 73
     0
176
     1
 90
        0
176
     1
 40
0.6
176
     1
 41
30.0
176
     1
 63
     7
176
     1
 74
     1
176
     1
 91
        4
176
     1
 64
     7
176
     1
 65
   257
176
     1
 75
     1
176
     1
175
     1
176
     1
 42
1.0
176
     1
 92
       12
176
     1
 66
     7
176
     1
 43
1.0
176
     1
 76
     1
176
     1
 77
     6
176
     1
 78
     2
176
     1
 67
     7
176
     1
 79
     5
176
     1
170
     0
176
     1
171
     0
176
     1
290
     0
176
     1
 93
        1
176
     1
 44
0.0
176
     1
173
     0
176
     1
  0
DICTIONARYVAR
  5
420
102
{ACAD_REACTORS
330
94
102
}
330
94
100
DictionaryVariables
280
     0
  1
1:1
  0
DICTIONARYVAR
  5
41E
102
{ACAD_REACTORS
330
94
102
}
330
94
100
DictionaryVariables
280
     0
  1
STANDARD
  0
DICTIONARYVAR
  5
138
102
{ACAD_REACTORS
330
94
102
}
330
94
100
DictionaryVariables
280
     0
  1
STANDARD
  0
DICTIONARYVAR
  5
96
102
{ACAD_REACTORS
330
94
102
}
330
94
100
DictionaryVariables
280
     0
  1
2
  0
DICTIONARYVAR
  5
95
102
{ACAD_REACTORS
330
94
102
}
330
94
100
DictionaryVariables
280
     0
  1
0
  0
DICTIONARYVAR
  5
422
102
{ACAD_REACTORS
330
94
102
}
330
94
100
DictionaryVariables
280
     0
  1
1
  0
DICTIONARYVAR
  5
423
102
{ACAD_REACTORS
330
94
102
}
330
94
100
DictionaryVariables
280
     0
  1
15
  0
DICTIONARYVAR
  5
421
102
{ACAD_REACTORS
330
94
102
}
330
94
100
DictionaryVariables
280
     0
  1
0
  0
DICTIONARYVAR
  5
41F
102
{ACAD_REACTORS
330
94
102
}
330
94
100
DictionaryVariables
280
     0
  1
0
  0
DICTIONARYVAR
  5
97D
102
{ACAD_REACTORS
330
94
102
}
330
94
100
DictionaryVariables
280
     0
  1
127
  0
DICTIONARY
  5
272
102
{ACAD_REACTORS
330
5B
102
}
330
5B
100
AcDbDictionary
281
     1
  0
DICTIONARY
  5
61
102
{ACAD_REACTORS
330
5B
102
}
330
5B
100
AcDbDictionary
281
     1
  0
XRECORD
  5
123
102
{ACAD_REACTORS
330
5B
102
}
330
5B
100
AcDbXrecord
280
     1
 90
-1023410169
  0
XRECORD
  5
7B3
102
{ACAD_REACTORS
330
7B2
102
}
330
7B2
100
AcDbXrecord
280
     1
330
0
330
0
330
0
330
0
330
0
  0
DICTIONARY
  5
3BD
330
3BC
100
AcDbDictionary
280
     1
281
     1
  3
ACAD_XREC_ROUNDTRIP
360
98A
  3
BUMPTILE
360
3BF
  3
DIFFUSETILE
360
3BE
  3
OPACITYTILE
360
3C2
  3
REFLECTIONTILE
360
3C1
  3
REFRACTIONTILE
360
3C3
  3
SPECULARTILE
360
3C0
  0
DICTIONARY
  5
3B5
330
3B4
100
AcDbDictionary
280
     1
281
     1
  3
ACAD_XREC_ROUNDTRIP
360
989
  3
BUMPTILE
360
3B7
  3
DIFFUSETILE
360
3B6
  3
OPACITYTILE
360
3BA
  3
REFLECTIONTILE
360
3B9
  3
REFRACTIONTILE
360
3BB
  3
SPECULARTILE
360
3B8
  0
DICTIONARY
  5
3C5
330
3C4
100
AcDbDictionary
280
     1
281
     1
  3
ACAD_XREC_ROUNDTRIP
360
98B
  3
BUMPTILE
360
3C7
  3
DIFFUSETILE
360
3C6
  3
OPACITYTILE
360
3CA
  3
REFLECTIONTILE
360
3C9
  3
REFRACTIONTILE
360
3CB
  3
SPECULARTILE
360
3C8
  0
DICTIONARY
  5
41B
330
11B
100
AcDbDictionary
280
     1
281
     1
  3
ACAD_ROUNDTRIP_2008_TABLESTYLE_CELLSTYLEMAP
360
1C6E
  0
XRECORD
  5
98A
102
{ACAD_REACTORS
330
3BD
102
}
330
3BD
100
AcDbXrecord
280
     1
102
MATERIAL
148
0.0
149
0.0
149
0.0
 93
        0
 94
      127
282
     0
 72
     0
 77
     0
171
     0
175
     0
179
     0
273
     0
  0
XRECORD
  5
3BF
102
{ACAD_REACTORS
330
3BD
102
}
330
3BD
100
AcDbXrecord
280
     1
270
     1
271
     1
  0
XRECORD
  5
3BE
102
{ACAD_REACTORS
330
3BD
102
}
330
3BD
100
AcDbXrecord
280
     1
270
     1
271
     1
  0
XRECORD
  5
3C2
102
{ACAD_REACTORS
330
3BD
102
}
330
3BD
100
AcDbXrecord
280
     1
270
     1
271
     1
  0
XRECORD
  5
3C1
102
{ACAD_REACTORS
330
3BD
102
}
330
3BD
100
AcDbXrecord
280
     1
270
     1
271
     1
  0
XRECORD
  5
3C3
102
{ACAD_REACTORS
330
3BD
102
}
330
3BD
100
AcDbXrecord
280
     1
270
     1
271
     1
  0
XRECORD
  5
3C0
102
{ACAD_REACTORS
330
3BD
102
}
330
3BD
100
AcDbXrecord
280
     1
270
     1
271
     1
  0
XRECORD
  5
989
102
{ACAD_REACTORS
330
3B5
102
}
330
3B5
100
AcDbXrecord
280
     1
102
MATERIAL
148
0.0
149
0.0
149
0.0
 93
        0
 94
      127
282
     0
 72
     0
 77
     0
171
     0
175
     0
179
     0
273
     0
  0
XRECORD
  5
3B7
102
{ACAD_REACTORS
330
3B5
102
}
330
3B5
100
AcDbXrecord
280
     1
270
     1
271
     1
  0
XRECORD
  5
3B6
102
{ACAD_REACTORS
330
3B5
102
}
330
3B5
100
AcDbXrecord
280
     1
270
     1
271
     1
  0
XRECORD
  5
3BA
102
{ACAD_REACTORS
330
3B5
102
}
330
3B5
100
AcDbXrecord
280
     1
270
     1
271
     1
  0
XRECORD
  5
3B9
102
{ACAD_REACTORS
330
3B5
102
}
330
3B5
100
AcDbXrecord
280
     1
270
     1
271
     1
  0
XRECORD
  5
3BB
102
{ACAD_REACTORS
330
3B5
102
}
330
3B5
100
AcDbXrecord
280
     1
270
     1
271
     1
  0
XRECORD
  5
3B8
102
{ACAD_REACTORS
330
3B5
102
}
330
3B5
100
AcDbXrecord
280
     1
270
     1
271
     1
  0
XRECORD
  5
98B
102
{ACAD_REACTORS
330
3C5
102
}
330
3C5
100
AcDbXrecord
280
     1
102
MATERIAL
148
0.0
149
0.0
149
0.0
 93
        0
 94
      127
282
     0
 72
     0
 77
     0
171
     0
175
     0
179
     0
273
     0
  0
XRECORD
  5
3C7
102
{ACAD_REACTORS
330
3C5
102
}
330
3C5
100
AcDbXrecord
280
     1
270
     1
271
     1
  0
XRECORD
  5
3C6
102
{ACAD_REACTORS
330
3C5
102
}
330
3C5
100
AcDbXrecord
280
     1
270
     1
271
     1
  0
XRECORD
  5
3CA
102
{ACAD_REACTORS
330
3C5
102
}
330
3C5
100
AcDbXrecord
280
     1
270
     1
271
     1
  0
XRECORD
  5
3C9
102
{ACAD_REACTORS
330
3C5
102
}
330
3C5
100
AcDbXrecord
280
     1
270
     1
271
     1
  0
XRECORD
  5
3CB
102
{ACAD_REACTORS
330
3C5
102
}
330
3C5
100
AcDbXrecord
280
     1
270
     1
271
     1
  0
XRECORD
  5
3C8
102
{ACAD_REACTORS
330
3C5
102
}
330
3C5
100
AcDbXrecord
280
     1
270
     1
271
     1
  0
CELLSTYLEMAP
  5
1C6E
102
{ACAD_REACTORS
330
41B
102
}
330
41B
100
AcDbCellStyleMap
 90
        3
300
CELLSTYLE
  1
TABLEFORMAT_BEGIN
 90
        5
170
     1
 91
        0
 92
    32768
 62
   257
 93
        1
300
CONTENTFORMAT
  1
CONTENTFORMAT_BEGIN
 90
        0
 91
        0
 92
        4
 93
        0
300

 40
0.0
140
1.0
 94
        5
 62
     0
340
11
144
6.0
309
CONTENTFORMAT_END
171
     1
301
MARGIN
  1
CELLMARGIN_BEGIN
 40
1.5
 40
1.5
 40
1.5
 40
1.5
 40
0.18
 40
0.18
309
CELLMARGIN_END
 94
        6
 95
        1
302
GRIDFORMAT
  1
GRIDFORMAT_BEGIN
 90
        0
 91
        1
 62
     0
 92
       -2
340
0
 93
        0
 40
0.045
309
GRIDFORMAT_END
 95
        2
302
GRIDFORMAT
  1
GRIDFORMAT_BEGIN
 90
        0
 91
        1
 62
     0
 92
       -2
340
0
 93
        0
 40
0.045
309
GRIDFORMAT_END
 95
        4
302
GRIDFORMAT
  1
GRIDFORMAT_BEGIN
 90
        0
 91
        1
 62
     0
 92
       -2
340
0
 93
        0
 40
0.045
309
GRIDFORMAT_END
 95
        8
302
GRIDFORMAT
  1
GRIDFORMAT_BEGIN
 90
        0
 91
        1
 62
     0
 92
       -2
340
0
 93
        0
 40
0.045
309
GRIDFORMAT_END
 95
       16
302
GRIDFORMAT
  1
GRIDFORMAT_BEGIN
 90
        0
 91
        1
 62
     0
 92
       -2
340
0
 93
        0
 40
0.045
309
GRIDFORMAT_END
 95
       32
302
GRIDFORMAT
  1
GRIDFORMAT_BEGIN
 90
        0
 91
        1
 62
     0
 92
       -2
340
0
 93
        0
 40
0.045
309
GRIDFORMAT_END
309
TABLEFORMAT_END
  1
CELLSTYLE_BEGIN
 90
        1
 91
        1
300
_TITLE
309
CELLSTYLE_END
300
CELLSTYLE
  1
TABLEFORMAT_BEGIN
 90
        5
170
     1
 91
        0
 92
        0
 62
   257
 93
        1
300
CONTENTFORMAT
  1
CONTENTFORMAT_BEGIN
 90
        0
 91
        0
 92
        4
 93
        0
300

 40
0.0
140
1.0
 94
        5
 62
     0
340
11
144
4.5
309
CONTENTFORMAT_END
171
     1
301
MARGIN
  1
CELLMARGIN_BEGIN
 40
1.5
 40
1.5
 40
1.5
 40
1.5
 40
0.18
 40
0.18
309
CELLMARGIN_END
 94
        6
 95
        1
302
GRIDFORMAT
  1
GRIDFORMAT_BEGIN
 90
        0
 91
        1
 62
     0
 92
       -2
340
0
 93
        0
 40
0.045
309
GRIDFORMAT_END
 95
        2
302
GRIDFORMAT
  1
GRIDFORMAT_BEGIN
 90
        0
 91
        1
 62
     0
 92
       -2
340
0
 93
        0
 40
0.045
309
GRIDFORMAT_END
 95
        4
302
GRIDFORMAT
  1
GRIDFORMAT_BEGIN
 90
        0
 91
        1
 62
     0
 92
       -2
340
0
 93
        0
 40
0.045
309
GRIDFORMAT_END
 95
        8
302
GRIDFORMAT
  1
GRIDFORMAT_BEGIN
 90
        0
 91
        1
 62
     0
 92
       -2
340
0
 93
        0
 40
0.045
309
GRIDFORMAT_END
 95
       16
302
GRIDFORMAT
  1
GRIDFORMAT_BEGIN
 90
        0
 91
        1
 62
     0
 92
       -2
340
0
 93
        0
 40
0.045
309
GRIDFORMAT_END
 95
       32
302
GRIDFORMAT
  1
GRIDFORMAT_BEGIN
 90
        0
 91
        1
 62
     0
 92
       -2
340
0
 93
        0
 40
0.045
309
GRIDFORMAT_END
309
TABLEFORMAT_END
  1
CELLSTYLE_BEGIN
 90
        2
 91
        1
300
_HEADER
309
CELLSTYLE_END
300
CELLSTYLE
  1
TABLEFORMAT_BEGIN
 90
        5
170
     1
 91
        0
 92
        0
 62
   257
 93
        1
300
CONTENTFORMAT
  1
CONTENTFORMAT_BEGIN
 90
        0
 91
        0
 92
        4
 93
        0
300

 40
0.0
140
1.0
 94
        2
 62
     0
340
11
144
4.5
309
CONTENTFORMAT_END
171
     1
301
MARGIN
  1
CELLMARGIN_BEGIN
 40
1.5
 40
1.5
 40
1.5
 40
1.5
 40
0.18
 40
0.18
309
CELLMARGIN_END
 94
        6
 95
        1
302
GRIDFORMAT
  1
GRIDFORMAT_BEGIN
 90
        0
 91
        1
 62
     0
 92
       -2
340
0
 93
        0
 40
0.045
309
GRIDFORMAT_END
 95
        2
302
GRIDFORMAT
  1
GRIDFORMAT_BEGIN
 90
        0
 91
        1
 62
     0
 92
       -2
340
0
 93
        0
 40
0.045
309
GRIDFORMAT_END
 95
        4
302
GRIDFORMAT
  1
GRIDFORMAT_BEGIN
 90
        0
 91
        1
 62
     0
 92
       -2
340
0
 93
        0
 40
0.045
309
GRIDFORMAT_END
 95
        8
302
GRIDFORMAT
  1
GRIDFORMAT_BEGIN
 90
        0
 91
        1
 62
     0
 92
       -2
340
0
 93
        0
 40
0.045
309
GRIDFORMAT_END
 95
       16
302
GRIDFORMAT
  1
GRIDFORMAT_BEGIN
 90
        0
 91
        1
 62
     0
 92
       -2
340
0
 93
        0
 40
0.045
309
GRIDFORMAT_END
 95
       32
302
GRIDFORMAT
  1
GRIDFORMAT_BEGIN
 90
        0
 91
        1
 62
     0
 92
       -2
340
0
 93
        0
 40
0.045
309
GRIDFORMAT_END
309
TABLEFORMAT_END
  1
CELLSTYLE_BEGIN
 90
        3
 91
        2
300
_DATA
309
CELLSTYLE_END
  0
ENDSEC
  0
EOF
