  0
SECTION
  2
HEADER
  9
$ACADVER
  1
AC1024
  9
$ACADMAINTVER
 70
    10
  9
$DWGCODEPAGE
  3
ANSI_1252
  9
$LASTSAVEDBY
  1
cschlotzhauer
  9
$INSBASE
 10
0.0
 20
0.0
 30
0.0
  9
$EXTMIN
 10
865.3078125943492
 20
490.8261311020023
 30
0.0
  9
$EXTMAX
 10
1209.287812594349
 20
976.9845311020024
 30
0.0
  9
$LIMMIN
 10
0.0
 20
0.0
  9
$LIMMAX
 10
12.0
 20
9.0
  9
$ORTHOMODE
 70
     1
  9
$REGENMODE
 70
     1
  9
$FILLMODE
 70
     1
  9
$QTEXTMODE
 70
     0
  9
$MIRRTEXT
 70
     0
  9
$LTSCALE
 40
1.0
  9
$ATTMODE
 70
     1
  9
$TEXTSIZE
 40
6.251
  9
$TRACEWID
 40
0.05
  9
$TEXTSTYLE
  7
STANDARD
  9
$CLAYER
  8
AM_BOR
  9
$CELTYPE
  6
BYLAYER
  9
$CECOLOR
 62
   256
  9
$CELTSCALE
 40
1.0
  9
$DISPSILH
 70
     0
  9
$DIMSCALE
 40
1.0
  9
$DIMASZ
 40
3.5
  9
$DIMEXO
 40
0.0
  9
$DIMDLI
 40
0.38
  9
$DIMRND
 40
0.0
  9
$DIMDLE
 40
0.0
  9
$DIMEXE
 40
3.5
  9
$DIMTP
 40
0.0
  9
$DIMTM
 40
0.0
  9
$DIMTXT
 40
3.5
  9
$DIMCEN
 40
1.75
  9
$DIMTSZ
 40
0.0
  9
$DIMTOL
 70
     0
  9
$DIMLIM
 70
     0
  9
$DIMTIH
 70
     0
  9
$DIMTOH
 70
     0
  9
$DIMSE1
 70
     0
  9
$DIMSE2
 70
     0
  9
$DIMTAD
 70
     1
  9
$DIMZIN
 70
    12
  9
$DIMBLK
  1

  9
$DIMASO
 70
     1
  9
$DIMSHO
 70
     1
  9
$DIMPOST
  1

  9
$DIMAPOST
  1

  9
$DIMALT
 70
     0
  9
$DIMALTD
 70
     2
  9
$DIMALTF
 40
25.4
  9
$DIMLFAC
 40
1.0
  9
$DIMTOFL
 70
     0
  9
$DIMTVP
 40
0.0
  9
$DIMTIX
 70
     0
  9
$DIMSOXD
 70
     0
  9
$DIMSAH
 70
     0
  9
$DIMBLK1
  1

  9
$DIMBLK2
  1

  9
$DIMSTYLE
  2
GEN-ISO
  9
$DIMCLRD
 70
   256
  9
$DIMCLRE
 70
   256
  9
$DIMCLRT
 70
   256
  9
$DIMTFAC
 40
1.0
  9
$DIMGAP
 40
0.0
  9
$DIMJUST
 70
     0
  9
$DIMSD1
 70
     0
  9
$DIMSD2
 70
     0
  9
$DIMTOLJ
 70
     1
  9
$DIMTZIN
 70
     0
  9
$DIMALTZ
 70
     0
  9
$DIMALTTZ
 70
     0
  9
$DIMUPT
 70
     0
  9
$DIMDEC
 70
     2
  9
$DIMTDEC
 70
     2
  9
$DIMALTU
 70
     2
  9
$DIMALTTD
 70
     2
  9
$DIMTXSTY
  7
STANDARD
  9
$DIMAUNIT
 70
     0
  9
$DIMADEC
 70
     0
  9
$DIMALTRND
 40
0.0
  9
$DIMAZIN
 70
     0
  9
$DIMDSEP
 70
    46
  9
$DIMATFIT
 70
     3
  9
$DIMFRAC
 70
     0
  9
$DIMLDRBLK
  1

  9
$DIMLUNIT
 70
     2
  9
$DIMLWD
 70
    -2
  9
$DIMLWE
 70
    -2
  9
$DIMTMOVE
 70
     0
  9
$DIMFXL
 40
1.0
  9
$DIMFXLON
 70
     0
  9
$DIMJOGANG
 40
0.7853981633974483
  9
$DIMTFILL
 70
     0
  9
$DIMTFILLCLR
 70
     0
  9
$DIMARCSYM
 70
     0
  9
$DIMLTYPE
  6

  9
$DIMLTEX1
  6

  9
$DIMLTEX2
  6

  9
$DIMTXTDIRECTION
 70
     0
  9
$LUNITS
 70
     2
  9
$LUPREC
 70
     2
  9
$SKETCHINC
 40
0.1
  9
$FILLETRAD
 40
0.0
  9
$AUNITS
 70
     0
  9
$AUPREC
 70
     2
  9
$MENU
  1
.
  9
$ELEVATION
 40
0.0
  9
$PELEVATION
 40
0.0
  9
$THICKNESS
 40
0.0
  9
$LIMCHECK
 70
     0
  9
$CHAMFERA
 40
0.0
  9
$CHAMFERB
 40
0.0
  9
$CHAMFERC
 40
0.0
  9
$CHAMFERD
 40
0.0
  9
$SKPOLY
 70
     0
  9
$TDCREATE
 40
2444972.041666667
  9
$TDUCREATE
 40
2444972.000000000
  9
$TDUPDATE
 40
2456233.373845903
  9
$TDUUPDATE
 40
2456233.332179236
  9
$TDINDWG
 40
0.0691130440
  9
$TDUSRTIMER
 40
0.0691130440
  9
$USRTIMER
 70
     1
  9
$ANGBASE
 50
0.0
  9
$ANGDIR
 70
     0
  9
$PDMODE
 70
     0
  9
$PDSIZE
 40
0.0
  9
$PLINEWID
 40
0.0
  9
$SPLFRAME
 70
     0
  9
$SPLINETYPE
 70
     6
  9
$SPLINESEGS
 70
     8
  9
$HANDSEED
  5
3368
  9
$SURFTAB1
 70
     6
  9
$SURFTAB2
 70
     6
  9
$SURFTYPE
 70
     6
  9
$SURFU
 70
     6
  9
$SURFV
 70
     6
  9
$UCSBASE
  2

  9
$UCSNAME
  2

  9
$UCSORG
 10
0.0
 20
0.0
 30
0.0
  9
$UCSXDIR
 10
1.0
 20
0.0
 30
0.0
  9
$UCSYDIR
 10
0.0
 20
1.0
 30
0.0
  9
$UCSORTHOREF
  2

  9
$UCSORTHOVIEW
 70
     0
  9
$UCSORGTOP
 10
0.0
 20
0.0
 30
0.0
  9
$UCSORGBOTTOM
 10
0.0
 20
0.0
 30
0.0
  9
$UCSORGLEFT
 10
0.0
 20
0.0
 30
0.0
  9
$UCSORGRIGHT
 10
0.0
 20
0.0
 30
0.0
  9
$UCSORGFRONT
 10
0.0
 20
0.0
 30
0.0
  9
$UCSORGBACK
 10
0.0
 20
0.0
 30
0.0
  9
$PUCSBASE
  2

  9
$PUCSNAME
  2

  9
$PUCSORG
 10
0.0
 20
0.0
 30
0.0
  9
$PUCSXDIR
 10
1.0
 20
0.0
 30
0.0
  9
$PUCSYDIR
 10
0.0
 20
1.0
 30
0.0
  9
$PUCSORTHOREF
  2

  9
$PUCSORTHOVIEW
 70
     0
  9
$PUCSORGTOP
 10
0.0
 20
0.0
 30
0.0
  9
$PUCSORGBOTTOM
 10
0.0
 20
0.0
 30
0.0
  9
$PUCSORGLEFT
 10
0.0
 20
0.0
 30
0.0
  9
$PUCSORGRIGHT
 10
0.0
 20
0.0
 30
0.0
  9
$PUCSORGFRONT
 10
0.0
 20
0.0
 30
0.0
  9
$PUCSORGBACK
 10
0.0
 20
0.0
 30
0.0
  9
$USERI1
 70
     0
  9
$USERI2
 70
     0
  9
$USERI3
 70
     0
  9
$USERI4
 70
     0
  9
$USERI5
 70
     0
  9
$USERR1
 40
0.0
  9
$USERR2
 40
0.0
  9
$USERR3
 40
0.0
  9
$USERR4
 40
0.0
  9
$USERR5
 40
0.0
  9
$WORLDVIEW
 70
     1
  9
$SHADEDGE
 70
     3
  9
$SHADEDIF
 70
    70
  9
$TILEMODE
 70
     1
  9
$MAXACTVP
 70
    48
  9
$PINSBASE
 10
0.0
 20
0.0
 30
0.0
  9
$PLIMCHECK
 70
     0
  9
$PEXTMIN
 10
0.0
 20
0.0
 30
0.0
  9
$PEXTMAX
 10
210.001
 20
297.001
 30
0.0
  9
$PLIMMIN
 10
0.0
 20
0.0
  9
$PLIMMAX
 10
210.001
 20
297.001
  9
$UNITMODE
 70
     0
  9
$VISRETAIN
 70
     1
  9
$PLINEGEN
 70
     1
  9
$PSLTSCALE
 70
     1
  9
$TREEDEPTH
 70
 -3020
  9
$CMLSTYLE
  2
STANDARD
  9
$CMLJUST
 70
     0
  9
$CMLSCALE
 40
1.0
  9
$PROXYGRAPHICS
 70
     1
  9
$MEASUREMENT
 70
     0
  9
$CELWEIGHT
370
    -1
  9
$ENDCAPS
280
     0
  9
$JOINSTYLE
280
     0
  9
$LWDISPLAY
290
     0
  9
$INSUNITS
 70
     0
  9
$HYPERLINKBASE
  1

  9
$STYLESHEET
  1
monochrome.ctb
  9
$XEDIT
290
     1
  9
$CEPSNTYPE
380
     0
  9
$PSTYLEMODE
290
     1
  9
$FINGERPRINTGUID
  2
{B91D2574-241A-4F76-A8DB-CADAD533656E}
  9
$VERSIONGUID
  2
{317C081D-A714-4294-A0AB-297D26487CAF}
  9
$EXTNAMES
290
     1
  9
$PSVPSCALE
 40
0.0
  9
$OLESTARTUP
290
     0
  9
$SORTENTS
280
   127
  9
$INDEXCTL
280
     0
  9
$HIDETEXT
280
     0
  9
$XCLIPFRAME
280
     0
  9
$HALOGAP
280
     0
  9
$OBSCOLOR
 70
   257
  9
$OBSLTYPE
280
     0
  9
$INTERSECTIONDISPLAY
280
     0
  9
$INTERSECTIONCOLOR
 70
   257
  9
$DIMASSOC
280
     1
  9
$PROJECTNAME
  1

  9
$CAMERADISPLAY
290
     0
  9
$LENSLENGTH
 40
50.0
  9
$CAMERAHEIGHT
 40
0.0
  9
$STEPSPERSEC
 40
2.0
  9
$STEPSIZE
 40
6.0
  9
$3DDWFPREC
 40
2.0
  9
$PSOLWIDTH
 40
0.25
  9
$PSOLHEIGHT
 40
4.0
  9
$LOFTANG1
 40
1.570796326794896
  9
$LOFTANG2
 40
1.570796326794896
  9
$LOFTMAG1
 40
0.0
  9
$LOFTMAG2
 40
0.0
  9
$LOFTPARAM
 70
     7
  9
$LOFTNORMALS
280
     1
  9
$LATITUDE
 40
37.795
  9
$LONGITUDE
 40
-122.394
  9
$NORTHDIRECTION
 40
0.0
  9
$TIMEZONE
 70
 -8000
  9
$LIGHTGLYPHDISPLAY
280
     1
  9
$TILEMODELIGHTSYNCH
280
     1
  9
$CMATERIAL
347
1378
  9
$SOLIDHIST
280
     1
  9
$SHOWHIST
280
     1
  9
$DWFFRAME
280
     2
  9
$DGNFRAME
280
     0
  9
$REALWORLDSCALE
290
     1
  9
$INTERFERECOLOR
 62
     1
  9
$INTERFEREOBJVS
345
139A
  9
$INTERFEREVPVS
346
1397
  9
$CSHADOW
280
     0
  9
$SHADOWPLANELOCATION
 40
0.0
  0
ENDSEC
  0
SECTION
  2
CLASSES
  0
CLASS
  1
ACDBDICTIONARYWDFLT
  2
AcDbDictionaryWithDefault
  3
ObjectDBX Classes
 90
        0
 91
        1
280
     0
281
     0
  0
CLASS
  1
MATERIAL
  2
AcDbMaterial
  3
ObjectDBX Classes
 90
     1153
 91
        3
280
     0
281
     0
  0
CLASS
  1
VISUALSTYLE
  2
AcDbVisualStyle
  3
ObjectDBX Classes
 90
     4095
 91
       19
280
     0
281
     0
  0
CLASS
  1
TABLESTYLE
  2
AcDbTableStyle
  3
ObjectDBX Classes
 90
     4095
 91
        1
280
     0
281
     0
  0
CLASS
  1
SCALE
  2
AcDbScale
  3
ObjectDBX Classes
 90
     1153
 91
       33
280
     0
281
     0
  0
CLASS
  1
MLEADERSTYLE
  2
AcDbMLeaderStyle
  3
ACDB_MLEADERSTYLE_CLASS
 90
     4095
 91
        1
280
     0
281
     0
  0
CLASS
  1
ACME_DOCUMENT
  2
AcMeDbDoc
  3
AcMeServices
 90
     1024
 91
        2
280
     0
281
     0
  0
CLASS
  1
AMGSETTINGSOBJ
  2
AmgSettingsObj
  3
"AcadM|Product Description: AutoCAD Mechanical|Company: Autodesk, Inc."
 90
     1024
 91
        2
280
     0
281
     0
  0
CLASS
  1
ACMESCOPE
  2
AcMeScope
  3
AcMeServices
 90
     1024
 91
        1
280
     0
281
     0
  0
CLASS
  1
ACMECOMMANDHISTORY
  2
AcMeCommandHistory
  3
AcMeServices
 90
     1024
 91
        1
280
     0
281
     0
  0
CLASS
  1
ACIMSYSVARMAN
  2
AcImSysVarManager
  3
AcMeServices
 90
     1024
 91
        5
280
     0
281
     0
  0
CLASS
  1
ACIMINTSYSVAR
  2
AcImIntSysVar
  3
AcMeServices
 90
     1024
 91
       28
280
     0
281
     0
  0
CLASS
  1
ACMEDRAWINGMAN
  2
AcMeDrawingMan
  3
AcMeServices
 90
     1024
 91
        1
280
     0
281
     0
  0
CLASS
  1
ACMEVIEW
  2
AcMeView
  3
AcMeServices
 90
     1024
 91
        1
280
     0
281
     0
  0
CLASS
  1
ACDBENTITYCACHE
  2
AcMeEntityCache
  3
AcMeServices
 90
     1024
 91
        1
280
     0
281
     0
  0
CLASS
  1
GSMANAGER
  2
AcMeGSManager
  3
AcMeServices
 90
     1024
 91
        0
280
     0
281
     0
  0
CLASS
  1
AMDTINTERNALREACTOR
  2
AmdtInternalReactor
  3
AcMeServices
 90
     1024
 91
        1
280
     0
281
     0
  0
CLASS
  1
ACMESTATEMGR
  2
AcMeStateMgr
  3
AcMeServices
 90
     1024
 91
        1
280
     0
281
     0
  0
CLASS
  1
ACGREFMASTER
  2
AcGrefMaster
  3
AcAttribServices
 90
     1024
 91
        1
280
     0
281
     0
  0
CLASS
  1
AM_DRAWING_MGR
  2
AcDmDwgMgr
  3
AcMechDwgViewMgmt
 90
     1024
 91
        1
280
     0
281
     0
  0
CLASS
  1
AM_DWG_DOCUMENT
  2
AcDmDwgDocument
  3
AcMechDwgViewMgmt
 90
     1024
 91
        1
280
     0
281
     0
  0
CLASS
  1
AM_DWG_SHEET
  2
AcDmSheet
  3
AcMechDwgViewMgmt
 90
     1024
 91
        1
280
     0
281
     0
  0
CLASS
  1
AM_VIEWDIMPARMAP
  2
AcDmViewDimParMap
  3
AcMechDwgViewMgmt
 90
     1024
 91
        1
280
     0
281
     0
  0
CLASS
  1
ACIMREALSYSVAR
  2
AcImRealSysVar
  3
AcMeServices
 90
     1024
 91
        1
280
     0
281
     0
  0
CLASS
  1
AM_DWGMGR_NAME
  2
AcDmDwgMgrName
  3
AcMechDwgViewMgmt
 90
     1024
 91
        1
280
     0
281
     0
  0
CLASS
  1
ACME_DATABASE
  2
AcMeDbDatabase
  3
AcMeServices
 90
     1024
 91
        1
280
     0
281
     0
  0
CLASS
  1
ACRFINSADJUSTERMGR
  2
AcRfInsAdjusterMgr
  3
AcMeServices
 90
     1024
 91
        1
280
     0
281
     0
  0
CLASS
  1
ACGREFACADMASTER
  2
AcGrefacadMaster
  3
AcGrefServices
 90
     1024
 91
        1
280
     0
281
     0
  0
CLASS
  1
AMDTMENUSTATEMGR
  2
AmdtMenuStateMgr
  3
McadcomServices
 90
     1024
 91
        1
280
     0
281
     0
  0
CLASS
  1
AMDTMCOMMENUSTATE
  2
AmdtMcomMenuState
  3
McadcomServices
 90
     1024
 91
        1
280
     0
281
     0
  0
CLASS
  1
AMIMASTER
  2
AmiMaster
  3
AmiServices
 90
     1024
 91
        1
280
     0
281
     0
  0
CLASS
  1
MAPIAMMOUDLE
  2
MApiAmModule
  3
MApiAmServices
 90
     1024
 91
        1
280
     0
281
     0
  0
CLASS
  1
ACIMSTRSYSVAR
  2
AcImStrSysVar
  3
AcMeServices
 90
     1024
 91
        5
280
     0
281
     0
  0
CLASS
  1
AMDTADMENUSTATE
  2
AmdtAdMenuState
  3
DesignerServices
 90
     1024
 91
        1
280
     0
281
     0
  0
CLASS
  1
ADAPPL
  2
AcAdAppl
  3
DesignerServices
 90
     1024
 91
        1
280
     0
281
     0
  0
CLASS
  1
DEPMGR
  2
AcAdDepMgr
  3
DesignerServices
 90
     1024
 91
        1
280
     0
281
     0
  0
CLASS
  1
PARAMMGR
  2
AcAdParamMgr
  3
DesignerServices
 90
     1024
 91
        1
280
     0
281
     0
  0
CLASS
  1
PARAMSCOPE
  2
AcAdParamScope
  3
DesignerServices
 90
     1024
 91
        1
280
     0
281
     0
  0
CLASS
  1
NAMEDAPPL
  2
AcAdNamedAppl
  3
DesignerServices
 90
     1024
 91
        1
280
     0
281
     0
  0
CLASS
  1
AMDTDMMENUSTATE
  2
AmdtDmMenuState
  3
AcMechDwgViewMgmt
 90
     1024
 91
        1
280
     0
281
     0
  0
CLASS
  1
AMDTAMMENUSTATE
  2
AmdtAmMenuState
  3
DesignerAssemblies
 90
     1024
 91
        1
280
     0
281
     0
  0
CLASS
  1
ACAMPROJECT
  2
AcAmProject
  3
DesignerAssemblies
 90
     1024
 91
        1
280
     0
281
     0
  0
CLASS
  1
ACAMGRCOMPDEF
  2
AcAmGrCompDef
  3
DesignerAssemblies
 90
     1024
 91
        1
280
     0
281
     0
  0
CLASS
  1
ACCMCONTEXT
  2
AcCmContext
  3
DesignerAssemblies
 90
     1024
 91
        1
280
     0
281
     0
  0
CLASS
  1
ACAMCOMPDEF
  2
AcAmCompDef
  3
DesignerAssemblies
 90
     1024
 91
        1
280
     0
281
     0
  0
CLASS
  1
ACAMCOMPDEFMGR
  2
AcAmCompDefMgr
  3
DesignerAssemblies
 90
     1024
 91
        1
280
     0
281
     0
  0
CLASS
  1
AMCONTEXTMGR
  2
AcAmContextMgr
  3
DesignerAssemblies
 90
     1024
 91
        1
280
     0
281
     0
  0
CLASS
  1
ACAMCONTEXTMODELER
  2
AcAmContextModeler
  3
DesignerAssemblies
 90
     1024
 91
        1
280
     0
281
     0
  0
CLASS
  1
ACMDATADICTIONARY
  2
AcmDataDictionary
  3
"AcmSymBB|Product Description: AutoCAD Mechanical|Company: Autodesk, Inc."
 90
     1024
 91
        1
280
     0
281
     0
  0
CLASS
  1
CATALOGSTATE
  2
AcAmCatalogState
  3
DesignerAssemblies
 90
     1024
 91
        1
280
     0
281
     0
  0
CLASS
  1
ACAMGRCOMPDEFSET
  2
AcAmGrCompDefSet
  3
DesignerAssemblies
 90
     1024
 91
        1
280
     0
281
     0
  0
CLASS
  1
AMDTBROWSERDBTAB
  2
AmdtBrowserDbTab
  3
McadcomServices
 90
     1024
 91
        1
280
     0
281
     0
  0
CLASS
  1
CBROWSERAPPOBJECT
  2
CBrowserAppObject
  3
McadcomServices
 90
     1024
 91
        2
280
     0
281
     0
  0
CLASS
  1
DM_PLACEHOLDER
  2
AcDmSelsetPlaceholder
  3
AcMechDwgViewMgmt
 90
     1024
 91
        1
280
     0
281
     0
  0
CLASS
  1
ACMSTANDARDANSI
  2
AcmStandardANSI
  3
"Amdt_StdImp|Product Description: AutoCAD Mechanical|Company: Autodesk, Inc."
 90
     1024
 91
        1
280
     0
281
     0
  0
CLASS
  1
ACMSURFSTANDARDANSI
  2
AcmSurfTextStdANSI
  3
"Amdt_StdImp|Product Description: AutoCAD Mechanical|Company: Autodesk, Inc."
 90
     1024
 91
        1
280
     0
281
     0
  0
CLASS
  1
ACMFCFSTANDARDANSI
  2
AcmFCFStdANSI
  3
"Amdt_StdImp|Product Description: AutoCAD Mechanical|Company: Autodesk, Inc."
 90
     1024
 91
        1
280
     0
281
     0
  0
CLASS
  1
ACMWELDSTANDARDANSI
  2
AcmWeldingStdANSI
  3
"Amdt_StdImp|Product Description: AutoCAD Mechanical|Company: Autodesk, Inc."
 90
     1024
 91
        1
280
     0
281
     0
  0
CLASS
  1
ACMIDSTANDARDANSI
  2
AcmIdStdANSI
  3
"Amdt_StdImp|Product Description: AutoCAD Mechanical|Company: Autodesk, Inc."
 90
     1024
 91
        1
280
     0
281
     0
  0
CLASS
  1
ACMDATUMSTANDARDANSI
  2
AcmDatumStdANSI
  3
"Amdt_StdImp|Product Description: AutoCAD Mechanical|Company: Autodesk, Inc."
 90
     1024
 91
        1
280
     0
281
     0
  0
CLASS
  1
ACMBOMSTANDARDANSI
  2
AcmBOMStdANSI
  3
"Amdt_StdImp|Product Description: AutoCAD Mechanical|Company: Autodesk, Inc."
 90
     1024
 91
        1
280
     0
281
     0
  0
CLASS
  1
ACMDETAILSTANDARDANSI
  2
AmdtDetailSymStdANSI
  3
"Amdt_StdImp|Product Description: AutoCAD Mechanical|Company: Autodesk, Inc."
 90
     1024
 91
        1
280
     0
281
     0
  0
CLASS
  1
ACMSECTIONSTANDARDANSI
  2
AmdtSectionSymStdANSI
  3
"Amdt_StdImp|Product Description: AutoCAD Mechanical|Company: Autodesk, Inc."
 90
     1024
 91
        1
280
     0
281
     0
  0
CLASS
  1
ACMCENTERLINESTANDARDANSI
  2
AmdtCenterLineStdANSI
  3
"Amdt_StdImp|Product Description: AutoCAD Mechanical|Company: Autodesk, Inc."
 90
     1024
 91
        1
280
     0
281
     0
  0
CLASS
  1
ACMTHREADLINESTANDARDANSI
  2
AmdtThreadLineStdANSI
  3
"Amdt_StdImp|Product Description: AutoCAD Mechanical|Company: Autodesk, Inc."
 90
     1024
 91
        1
280
     0
281
     0
  0
CLASS
  1
ACMNOTESTANDARDANSI
  2
AmdtNoteStdANSI
  3
"Amdt_StdImp|Product Description: AutoCAD Mechanical|Company: Autodesk, Inc."
 90
     1024
 91
        1
280
     0
281
     0
  0
CLASS
  1
ACMTAPERSTANDARDANSI
  2
AcmTaperStdANSI
  3
"Amdt_StdImp|Product Description: AutoCAD Mechanical|Company: Autodesk, Inc."
 90
     1024
 91
        1
280
     0
281
     0
  0
CLASS
  1
ACMANOOTATIONVIEWSTANDARDANSI
  2
AmdtAnViewStdANSI
  3
"Amdt_StdImp|Product Description: AutoCAD Mechanical|Company: Autodesk, Inc."
 90
     1024
 91
        1
280
     0
281
     0
  0
CLASS
  1
ACAMGLAYSTD
  2
AcAmgLayStd
  3
"AmgLay|Product Description: AutoCAD Mechanical|Company: Autodesk, Inc."
 90
     1024
 91
        3
280
     0
281
     0
  0
CLASS
  1
ACAMGDIMSTD
  2
AcAmgDimStd
  3
"AmgDim|Product Description: AutoCAD Mechanical|Company: Autodesk, Inc."
 90
     1024
 91
        3
280
     0
281
     0
  0
CLASS
  1
AMGOBJPROPCFG
  2
AmgObjPropCfg
  3
"AmgLay|Product Description: AutoCAD Mechanical|Company: Autodesk, Inc."
 90
     1025
 91
        1
280
     0
281
     0
  0
CLASS
  1
ACAMGHOLECHARTSTDANSI
  2
AcAmgHoleChartStdANSI
  3
AmgDim|Product Description: AutoCAD Mechanical|Company: Autodesk, Inc.
 90
     1024
 91
        1
280
     0
281
     0
  0
CLASS
  1
ACAMGTITLESTD
  2
AcAmgTitleStd
  3
"AmgTitle|Product Description: AutoCAD Mechanical|Company: Autodesk, Inc."
 90
     4095
 91
        3
280
     0
281
     0
  0
CLASS
  1
AMDTNOTETEMPLATEDB
  2
AmdtNoteTemplateDB
  3
AcmSymBB|Product Description: AutoCAD Mechanical|Company: Autodesk, Inc.
 90
     1024
 91
       18
280
     0
281
     0
  0
CLASS
  1
ACAMGFILTERDAT
  2
AcAmgFilterDat
  3
"AcadM|Product Description: AutoCAD Mechanical|Company: Autodesk, Inc."
 90
     1024
 91
        6
280
     0
281
     0
  0
CLASS
  1
CAMSSTRUCTBTNSTATE
  2
StructBtnState
  3
DesignerAssemblies
 90
     1024
 91
        1
280
     0
281
     0
  0
CLASS
  1
CELLSTYLEMAP
  2
AcDbCellStyleMap
  3
ObjectDBX Classes
 90
     1152
 91
        2
280
     0
281
     0
  0
CLASS
  1
DICTIONARYVAR
  2
AcDbDictionaryVar
  3
ObjectDBX Classes
 90
        0
 91
        7
280
     0
281
     0
  0
CLASS
  1
ACMSTANDARDDIN
  2
AcmStandardDIN
  3
"Amdt_StdImp|Product Description: AutoCAD Mechanical|Company: Autodesk, Inc."
 90
     1024
 91
        1
280
     0
281
     0
  0
CLASS
  1
AMDTEDGESTANDARDDIN13715
  2
AmdtEdgeStdDIN13715
  3
"Amdt_StdImp|Product Description: AutoCAD Mechanical|Company: Autodesk, Inc."
 90
     1024
 91
        1
280
     0
281
     0
  0
CLASS
  1
ACMSURFSTANDARDDIN
  2
AcmSurfTextStdDIN
  3
"Amdt_StdImp|Product Description: AutoCAD Mechanical|Company: Autodesk, Inc."
 90
     1024
 91
        1
280
     0
281
     0
  0
CLASS
  1
ACMFCFSTANDARDDIN
  2
AcmFCFStdDIN
  3
"Amdt_StdImp|Product Description: AutoCAD Mechanical|Company: Autodesk, Inc."
 90
     1024
 91
        1
280
     0
281
     0
  0
CLASS
  1
ACMWELDSTANDARDDIN
  2
AcmWeldingStdDIN
  3
"Amdt_StdImp|Product Description: AutoCAD Mechanical|Company: Autodesk, Inc."
 90
     1024
 91
        1
280
     0
281
     0
  0
CLASS
  1
ACMIDSTANDARDDIN
  2
AcmIdStdDIN
  3
"Amdt_StdImp|Product Description: AutoCAD Mechanical|Company: Autodesk, Inc."
 90
     1024
 91
        1
280
     0
281
     0
  0
CLASS
  1
ACMDATUMSTANDARDDIN
  2
AcmDatumStdDIN
  3
"Amdt_StdImp|Product Description: AutoCAD Mechanical|Company: Autodesk, Inc."
 90
     1024
 91
        1
280
     0
281
     0
  0
CLASS
  1
ACMBOMSTANDARDDIN
  2
AcmBOMStdDIN
  3
"Amdt_StdImp|Product Description: AutoCAD Mechanical|Company: Autodesk, Inc."
 90
     1024
 91
        1
280
     0
281
     0
  0
CLASS
  1
ACMDETAILSTANDARDDIN
  2
AmdtDetailSymStdDIN
  3
"Amdt_StdImp|Product Description: AutoCAD Mechanical|Company: Autodesk, Inc."
 90
     1024
 91
        1
280
     0
281
     0
  0
CLASS
  1
ACMSECTIONSTANDARDDIN
  2
AmdtSectionSymStdDIN
  3
"Amdt_StdImp|Product Description: AutoCAD Mechanical|Company: Autodesk, Inc."
 90
     1024
 91
        1
280
     0
281
     0
  0
CLASS
  1
ACMCENTERLINESTANDARDDIN
  2
AmdtCenterLineStdDIN
  3
"Amdt_StdImp|Product Description: AutoCAD Mechanical|Company: Autodesk, Inc."
 90
     1024
 91
        1
280
     0
281
     0
  0
CLASS
  1
ACMTHREADLINESTANDARDDIN
  2
AmdtThreadLineStdDIN
  3
"Amdt_StdImp|Product Description: AutoCAD Mechanical|Company: Autodesk, Inc."
 90
     1024
 91
        1
280
     0
281
     0
  0
CLASS
  1
ACMNOTESTANDARDDIN
  2
AmdtNoteStdDIN
  3
"Amdt_StdImp|Product Description: AutoCAD Mechanical|Company: Autodesk, Inc."
 90
     1024
 91
        1
280
     0
281
     0
  0
CLASS
  1
ACAMGHOLECHARTSTDDIN
  2
AcAmgHoleChartStdDIN
  3
AmgDim|Product Description: AutoCAD Mechanical|Company: Autodesk, Inc.
 90
     1024
 91
        1
280
     0
281
     0
  0
CLASS
  1
ACMTAPERSTANDARDDIN
  2
AcmTaperStdDIN
  3
"Amdt_StdImp|Product Description: AutoCAD Mechanical|Company: Autodesk, Inc."
 90
     1024
 91
        1
280
     0
281
     0
  0
CLASS
  1
ACMANOOTATIONVIEWSTANDARDDIN
  2
AmdtAnViewStdDIN
  3
"Amdt_StdImp|Product Description: AutoCAD Mechanical|Company: Autodesk, Inc."
 90
     1024
 91
        1
280
     0
281
     0
  0
CLASS
  1
ACMDATAENTRYBLOCK
  2
AcmDataEntryBlock
  3
AcmSymBB|Product Description: AutoCAD Mechanical|Company: Autodesk, Inc.
 90
     1024
 91
        0
280
     0
281
     0
  0
CLASS
  1
AEC_REFEDIT_STATUS_TRACKER
  2
AecDbRefEditStatusTracker
  3
AecArchBase50|Product Desc: Autodesk Architectural Desktop 2007 |Company: Autodesk,Inc. |WEB Address: www.autodesk.com
 90
      129
 91
        0
280
     0
281
     0
  0
CLASS
  1
NPOCOLLECTION
  2
AcDbImpNonPersistentObjectsCollection
  3
ObjectDBX Classes
 90
     1153
 91
        1
280
     0
281
     0
  0
CLASS
  1
DIMASSOC
  2
AcDbDimAssoc
  3
"AcDbDimAssoc|Product Desc:     AcDim ARX App For Dimension|Company:          Autodesk, Inc.|WEB Address:      www.autodesk.com"
 90
        0
 91
        2
280
     0
281
     0
  0
CLASS
  1
AMDTSECTIONSYMLABEL
  2
AmdtSectionSymLabel
  3
"AcmSymBB|Product Description: AutoCAD Mechanical|Company: Autodesk, Inc."
 90
     4095
 91
        0
280
     0
281
     1
  0
CLASS
  1
AMDTSECTIONSYM
  2
AmdtSectionSym
  3
"AcmSymBB|Product Description: AutoCAD Mechanical|Company: Autodesk, Inc."
 90
     4095
 91
        0
280
     0
281
     1
  0
CLASS
  1
AMDTDETAILSYM
  2
AmdtDetailSym
  3
"AcmSymBB|Product Description: AutoCAD Mechanical|Company: Autodesk, Inc."
 90
     4095
 91
        0
280
     0
281
     1
  0
CLASS
  1
AMDTDETAILSYMLABEL
  2
AmdtDetailSymLabel
  3
"AcmSymBB|Product Description: AutoCAD Mechanical|Company: Autodesk, Inc."
 90
     4095
 91
        0
280
     0
281
     1
  0
CLASS
  1
SORTENTSTABLE
  2
AcDbSortentsTable
  3
ObjectDBX Classes
 90
        0
 91
        1
280
     0
281
     0
  0
CLASS
  1
ACMSTANDARDISO
  2
AcmStandardISO
  3
"Amdt_StdImp|Product Description: AutoCAD Mechanical|Company: Autodesk, Inc."
 90
     1024
 91
        1
280
     0
281
     0
  0
CLASS
  1
AMDTEDGESTANDARDISO
  2
AmdtEdgeStdISO
  3
"Amdt_StdImp|Product Description: AutoCAD Mechanical|Company: Autodesk, Inc."
 90
     1024
 91
        1
280
     0
281
     0
  0
CLASS
  1
ACMSURFSTANDARDISO
  2
AcmSurfTextStdISO
  3
"Amdt_StdImp|Product Description: AutoCAD Mechanical|Company: Autodesk, Inc."
 90
     1024
 91
        1
280
     0
281
     0
  0
CLASS
  1
ACMFCFSTANDARDISO
  2
AcmFCFStdISO
  3
"Amdt_StdImp|Product Description: AutoCAD Mechanical|Company: Autodesk, Inc."
 90
     1024
 91
        1
280
     0
281
     0
  0
CLASS
  1
ACMWELDSTANDARDISO
  2
AcmWeldingStdISO
  3
"Amdt_StdImp|Product Description: AutoCAD Mechanical|Company: Autodesk, Inc."
 90
     1024
 91
        1
280
     0
281
     0
  0
CLASS
  1
ACMIDSTANDARDISO
  2
AcmIdStdISO
  3
"Amdt_StdImp|Product Description: AutoCAD Mechanical|Company: Autodesk, Inc."
 90
     1024
 91
        1
280
     0
281
     0
  0
CLASS
  1
ACMDATUMSTANDARDISO
  2
AcmDatumStdISO
  3
"Amdt_StdImp|Product Description: AutoCAD Mechanical|Company: Autodesk, Inc."
 90
     1024
 91
        1
280
     0
281
     0
  0
CLASS
  1
ACMBOMSTANDARDISO
  2
AcmBOMStdISO
  3
"Amdt_StdImp|Product Description: AutoCAD Mechanical|Company: Autodesk, Inc."
 90
     1024
 91
        1
280
     0
281
     0
  0
CLASS
  1
ACMDETAILSTANDARDISO
  2
AmdtDetailSymStdISO
  3
"Amdt_StdImp|Product Description: AutoCAD Mechanical|Company: Autodesk, Inc."
 90
     1024
 91
        1
280
     0
281
     0
  0
CLASS
  1
ACMSECTIONSTANDARDISO
  2
AmdtSectionSymStdISO
  3
"Amdt_StdImp|Product Description: AutoCAD Mechanical|Company: Autodesk, Inc."
 90
     1024
 91
        1
280
     0
281
     0
  0
CLASS
  1
ACMCENTERLINESTANDARDISO
  2
AmdtCenterLineStdISO
  3
"Amdt_StdImp|Product Description: AutoCAD Mechanical|Company: Autodesk, Inc."
 90
     1024
 91
        1
280
     0
281
     0
  0
CLASS
  1
ACMNOTESTANDARDISO
  2
AmdtNoteStdISO
  3
"Amdt_StdImp|Product Description: AutoCAD Mechanical|Company: Autodesk, Inc."
 90
     1024
 91
        1
280
     0
281
     0
  0
CLASS
  1
ACAMGHOLECHARTSTDISO
  2
AcAmgHoleChartStdISO
  3
AmgDim|Product Description: AutoCAD Mechanical|Company: Autodesk, Inc.
 90
     1024
 91
        1
280
     0
281
     0
  0
CLASS
  1
ACMTHREADLINESTANDARDISO
  2
AmdtThreadLineStdISO
  3
"Amdt_StdImp|Product Description: AutoCAD Mechanical|Company: Autodesk, Inc."
 90
     1024
 91
        1
280
     0
281
     0
  0
CLASS
  1
ACMTAPERSTANDARDISO
  2
AcmTaperStdISO
  3
"Amdt_StdImp|Product Description: AutoCAD Mechanical|Company: Autodesk, Inc."
 90
     1024
 91
        1
280
     0
281
     0
  0
CLASS
  1
ACMANOOTATIONVIEWSTANDARDISO
  2
AmdtAnViewStdISO
  3
"Amdt_StdImp|Product Description: AutoCAD Mechanical|Company: Autodesk, Inc."
 90
     1024
 91
        1
280
     0
281
     0
  0
CLASS
  1
EXACXREFPANELOBJECT
  2
ExAcXREFPanelObject
  3
EXAC_ESW
 90
     1025
 91
        1
280
     0
281
     0
  0
CLASS
  1
IMAGE
  2
AcDbRasterImage
  3
ISM
 90
     2175
 91
        1
280
     0
281
     1
  0
CLASS
  1
IMAGEDEF_REACTOR
  2
AcDbRasterImageDefReactor
  3
ISM
 90
        1
 91
        1
280
     0
281
     0
  0
CLASS
  1
IMAGEDEF
  2
AcDbRasterImageDef
  3
ISM
 90
        0
 91
        1
280
     0
281
     0
  0
CLASS
  1
RASTERVARIABLES
  2
AcDbRasterVariables
  3
ISM
 90
        0
 91
        1
280
     0
281
     0
  0
CLASS
  1
ACMDIMBREAKPERSREACTOR
  2
AcmDimBreakPersReactor
  3
AmgDim|Product Description: AutoCAD Mechanical|Company: Autodesk, Inc.
 90
     4095
 91
        0
280
     0
281
     0
  0
CLASS
  1
ACDBCIRCARCRES
  2
AcDbCircArcRes
  3
AcGrefServices
 90
     1024
 91
        0
280
     0
281
     0
  0
CLASS
  1
AMDTNOTE
  2
AmdtNote
  3
"AcmSymBB|Product Description: AutoCAD Mechanical|Company: Autodesk, Inc."
 90
     4095
 91
        0
280
     0
281
     1
  0
CLASS
  1
AMDTFORMULAUPDATEDISPATCHER
  2
AmdtFormulaUpdateDispatcher
  3
AcMeServices
 90
     1024
 91
        0
280
     0
281
     0
  0
ENDSEC
  0
SECTION
  2
TABLES
  0
TABLE
  2
VPORT
  5
133F
330
0
100
AcDbSymbolTable
 70
     1
  0
VPORT
  5
1373
330
133F
100
AcDbSymbolTableRecord
100
AcDbViewportTableRecord
  2
*ACTIVE
 70
     0
 10
0.0
 20
0.0
 11
1.0
 21
1.0
 12
1070.499440787108
 22
768.2412168277462
 13
0.0
 23
0.0
 14
1.0
 24
1.0
 15
0.0
 25
0.0
 16
0.0
 26
0.0
 36
1.0
 17
0.0
 27
0.0
 37
0.0
 40
251.2089116867395
 41
1.850235849056603
 42
50.0
 43
0.0
 44
0.0
 50
0.0
 51
0.0
 71
     0
 72
  1000
 73
     1
 74
     1
 75
     0
 76
     0
 77
     0
 78
     0
281
     0
 65
     1
110
0.0
120
0.0
130
0.0
111
1.0
121
0.0
131
0.0
112
0.0
122
1.0
132
0.0
 79
     0
146
0.0
348
1396
 60
     3
 61
     5
292
     1
282
     1
141
0.0
142
0.0
 63
   250
421
  3355443
  0
ENDTAB
  0
TABLE
  2
LTYPE
  5
133C
330
0
100
AcDbSymbolTable
 70
    34
  0
LTYPE
  5
1349
330
133C
100
AcDbSymbolTableRecord
100
AcDbLinetypeTableRecord
  2
BYBLOCK
 70
     0
  3

 72
    65
 73
     0
 40
0.0
  0
LTYPE
  5
134A
330
133C
100
AcDbSymbolTableRecord
100
AcDbLinetypeTableRecord
  2
BYLAYER
 70
     0
  3

 72
    65
 73
     0
 40
0.0
  0
LTYPE
  5
134B
330
133C
100
AcDbSymbolTableRecord
100
AcDbLinetypeTableRecord
  2
CONTINUOUS
 70
     0
  3
Solid line
 72
    65
 73
     0
 40
0.0
  0
LTYPE
  5
1356
330
133C
100
AcDbSymbolTableRecord
100
AcDbLinetypeTableRecord
  2
DOT
 70
     0
  3
. . . . . . . . . . . . . . . . . . . . . . . . . . . . . . . . .
 72
    65
 73
     2
 40
0.25
 49
0.0
 74
     0
 49
-0.25
 74
     0
  0
LTYPE
  5
1357
330
133C
100
AcDbSymbolTableRecord
100
AcDbLinetypeTableRecord
  2
GEN3
 70
     0
  3
_ _ _ _ _ _ _ _ _ _ _ _ _ _ _ _ _ _ _ _ _ _ _ _ _ _ _ _ _ _ _
 72
    65
 73
     3
 40
3.0
 49
0.0
 74
     0
 49
2.0
 74
     0
 49
-1.0
 74
     0
  0
LTYPE
  5
1358
330
133C
100
AcDbSymbolTableRecord
100
AcDbLinetypeTableRecord
  2
GEN3_
 70
     0
  3
_ _ _ _ _ _ _ _ _ _ _ _ _ _ _ _ _ _ _ _ _ _ _ _ _ _ _ _ _ _ _
 72
    65
 73
     4
 40
3.0
 49
0.0
 74
     0
 49
0.5
 74
     0
 49
-1.0
 74
     0
 49
1.5
 74
     0
  0
LTYPE
  5
1359
330
133C
100
AcDbSymbolTableRecord
100
AcDbLinetypeTableRecord
  2
GEN4A
 70
     0
  3
______  __  __  ______  __  __  ______  __  __  ______  __  __
 72
    65
 73
     6
 40
2.5
 49
1.25
 74
     0
 49
-0.25
 74
     0
 49
0.25
 74
     0
 49
-0.25
 74
     0
 49
0.25
 74
     0
 49
-0.25
 74
     0
  0
LTYPE
  5
135A
330
133C
100
AcDbSymbolTableRecord
100
AcDbLinetypeTableRecord
  2
GEN7
 70
     0
  3
____ _ ____ _ ____ _ ____ _ ____ _ ____ _ ____ _ ____ _ ____ _
 72
    65
 73
     4
 40
22.0
 49
10.75
 74
     0
 49
-3.75
 74
     0
 49
3.75
 74
     0
 49
-3.75
 74
     0
  0
LTYPE
  5
1403
330
133C
100
AcDbSymbolTableRecord
100
AcDbLinetypeTableRecord
  2
HIDDEN
 70
     0
  3
Verdeckt
 72
    65
 73
     2
 40
0.375
 49
0.25
 74
     0
 49
-0.125
 74
     0
  0
LTYPE
  5
1404
330
133C
100
AcDbSymbolTableRecord
100
AcDbLinetypeTableRecord
  2
PHANTOM2
 70
     0
  3
Phantom (.5x) ___ _ _ ___ _ _ ___ _ _ ___ _ _
 72
    65
 73
     6
 40
1.25
 49
0.625
 74
     0
 49
-0.125
 74
     0
 49
0.125
 74
     0
 49
-0.125
 74
     0
 49
0.125
 74
     0
 49
-0.125
 74
     0
  0
LTYPE
  5
1405
330
133C
100
AcDbSymbolTableRecord
100
AcDbLinetypeTableRecord
  2
CENTER
 70
     0
  3
Mitte ____ _ ____ _ ____ _ ____ _ ____ _ ____
 72
    65
 73
     4
 40
2.0
 49
1.25
 74
     0
 49
-0.25
 74
     0
 49
0.25
 74
     0
 49
-0.25
 74
     0
  0
LTYPE
  5
144A
330
133C
100
AcDbSymbolTableRecord
100
AcDbLinetypeTableRecord
  2
AM_ISO02W050
 70
     0
  3
__ __ __ __ __ __ __ __ __ __ __ __ __ __ __
 72
    65
 73
     2
 40
7.5
 49
6.0
 74
     0
 49
-1.5
 74
     0
  0
LTYPE
  5
144B
330
133C
100
AcDbSymbolTableRecord
100
AcDbLinetypeTableRecord
  2
AM_ISO08W050
 70
     0
  3
____ . ____ . ____ . ____ . ____ . ____ . ____
 72
    65
 73
     4
 40
18.0
 49
12.0
 74
     0
 49
-1.5
 74
     0
 49
3.0
 74
     0
 49
-1.5
 74
     0
  0
LTYPE
  5
144C
330
133C
100
AcDbSymbolTableRecord
100
AcDbLinetypeTableRecord
  2
AM_ISO09W050
 70
     0
  3
_____ . . _____ . . _____ . . ____ .. ____
 72
    65
 73
     6
 40
22.5
 49
12.0
 74
     0
 49
-1.5
 74
     0
 49
3.0
 74
     0
 49
-1.5
 74
     0
 49
3.0
 74
     0
 49
-1.5
 74
     0
  0
LTYPE
  5
144D
330
133C
100
AcDbSymbolTableRecord
100
AcDbLinetypeTableRecord
  2
Amconstr
 70
     0
  3
_______________________
 72
    65
 73
     2
 40
9999.0
 49
9999.0
 74
     0
 49
0.0
 74
     0
  0
LTYPE
  5
144E
330
133C
100
AcDbSymbolTableRecord
100
AcDbLinetypeTableRecord
  2
AM_ISO08W050x2
 70
     0
  3
__ . __ . __ . __ . __ . __
 72
    65
 73
     4
 40
9.0
 49
6.0
 74
     0
 49
-0.75
 74
     0
 49
1.5
 74
     0
 49
-0.75
 74
     0
  0
LTYPE
  5
144F
330
133C
100
AcDbSymbolTableRecord
100
AcDbLinetypeTableRecord
  2
AM_ISO02W050x2
 70
     0
  3
 _ _ _ _ _ _ _ _ _ _ _ _
 72
    65
 73
     2
 40
3.75
 49
3.0
 74
     0
 49
-0.75
 74
     0
  0
LTYPE
  5
1452
330
133C
100
AcDbSymbolTableRecord
100
AcDbLinetypeTableRecord
  2
Amzigzag
 70
     0
  3
/\/-/\/-/\/-/\/-/\/-/\/
 72
    65
 73
     2
 40
11.0001
 49
0.0001
 74
     4
 75
   136
340
1451
 46
0.04
 50
0.0
 44
0.0
 45
0.0
 49
-11.0
 74
     0
  0
LTYPE
  5
1453
330
133C
100
AcDbSymbolTableRecord
100
AcDbLinetypeTableRecord
  2
CENTER2
 70
     0
  3
Center (.5x) ___ _ ___ _ ___ _ ___ _ ___ _ ___
 72
    65
 73
     4
 40
1.125
 49
0.75
 74
     0
 49
-0.125
 74
     0
 49
0.125
 74
     0
 49
-0.125
 74
     0
  0
LTYPE
  5
1454
330
133C
100
AcDbSymbolTableRecord
100
AcDbLinetypeTableRecord
  2
HIDDEN2
 70
     0
  3
Hidden (.5x) _ _ _ _ _ _ _ _ _ _ _ _ _ _ _ _ _
 72
    65
 73
     2
 40
0.1875
 49
0.125
 74
     0
 49
-0.0625
 74
     0
  0
LTYPE
  5
1455
330
133C
100
AcDbSymbolTableRecord
100
AcDbLinetypeTableRecord
  2
Amzigzag2
 70
     0
  3
/\/-/\/-/\/-/\/-/\/-/\/
 72
    65
 73
     2
 40
0.4401
 49
0.0001
 74
     4
 75
   136
340
1451
 46
0.0016
 50
0.0
 44
0.0
 45
0.0
 49
-0.4400000000000001
 74
     0
  0
LTYPE
  5
1463
330
133C
100
AcDbSymbolTableRecord
100
AcDbLinetypeTableRecord
  2
ACANSTGB
 70
     0
  3
__ . . __ . .
 72
    65
 73
     6
 40
0.35433070866
 49
0.15748031496
 74
     0
 49
-0.03937007874
 74
     0
 49
0.03937007874
 74
     0
 49
-0.03937007874
 74
     0
 49
0.03937007874
 74
     0
 49
-0.03937007874
 74
     0
  0
LTYPE
  5
1464
330
133C
100
AcDbSymbolTableRecord
100
AcDbLinetypeTableRecord
  2
ACANSTGL
 70
     0
  3
_ _ _ _ _
 72
    65
 73
     2
 40
0.11811023622
 49
0.07874015748
 74
     0
 49
-0.03937007874
 74
     0
  0
LTYPE
  5
16BF
330
133C
100
AcDbSymbolTableRecord
100
AcDbLinetypeTableRecord
  2
ACDINWELD
 70
     0
  3
_ _ _ _ _
 72
    65
 73
     2
 40
2.0
 49
2.0
 74
     0
 49
-1.0
 74
     0
  0
LTYPE
  5
16C0
330
133C
100
AcDbSymbolTableRecord
100
AcDbLinetypeTableRecord
  2
ACDINTGB
 70
     0
  3
__ . . __ . .
 72
    65
 73
     6
 40
9.0
 49
4.0
 74
     0
 49
-1.0
 74
     0
 49
1.0
 74
     0
 49
-1.0
 74
     0
 49
1.0
 74
     0
 49
-1.0
 74
     0
  0
LTYPE
  5
16C1
330
133C
100
AcDbSymbolTableRecord
100
AcDbLinetypeTableRecord
  2
ACDINTGL
 70
     0
  3
_ _ _ _ _
 72
    65
 73
     2
 40
3.0
 49
2.0
 74
     0
 49
-1.0
 74
     0
  0
LTYPE
  5
16C2
330
133C
100
AcDbSymbolTableRecord
100
AcDbLinetypeTableRecord
  2
AM_DIN_F_W050
 70
     0
  3
__ __ __ __ __ __ __ __ __ __ __ __ __ __ __
 72
    65
 73
     2
 40
6.25
 49
4.75
 74
     0
 49
-1.5
 74
     0
  0
LTYPE
  5
16C3
330
133C
100
AcDbSymbolTableRecord
100
AcDbLinetypeTableRecord
  2
AM_DIN_G_W050
 70
     0
  3
____ . ____ . ____ . ____ . ____ . ____ . ____
 72
    65
 73
     4
 40
13.75
 49
9.75
 74
     0
 49
-1.5
 74
     0
 49
1.0
 74
     0
 49
-1.5
 74
     0
  0
LTYPE
  5
16C4
330
133C
100
AcDbSymbolTableRecord
100
AcDbLinetypeTableRecord
  2
AM_DIN_K_W050
 70
     0
  3
_____ . . _____ . . _____ . . ____ .. ____
 72
    65
 73
     6
 40
16.25
 49
9.75
 74
     0
 49
-1.5
 74
     0
 49
1.0
 74
     0
 49
-1.5
 74
     0
 49
1.0
 74
     0
 49
-1.5
 74
     0
  0
LTYPE
  5
16C5
330
133C
100
AcDbSymbolTableRecord
100
AcDbLinetypeTableRecord
  2
AM_DIN_G_W050x2
 70
     0
  3
__ . __ . __ . __ . __ . __
 72
    65
 73
     4
 40
6.875
 49
4.75
 74
     0
 49
-0.875
 74
     0
 49
0.375
 74
     0
 49
-0.875
 74
     0
  0
LTYPE
  5
16C6
330
133C
100
AcDbSymbolTableRecord
100
AcDbLinetypeTableRecord
  2
AM_DIN_F_W050x2
 70
     0
  3
 _ _ _ _ _ _ _ _ _ _ _ _
 72
    65
 73
     2
 40
3.125
 49
2.25
 74
     0
 49
-0.875
 74
     0
  0
LTYPE
  5
16C7
330
133C
100
AcDbSymbolTableRecord
100
AcDbLinetypeTableRecord
  2
AUSGEZOGEN
 70
     0
  3
Ausgezogene Linie
 72
    65
 73
     0
 40
0.0
  0
LTYPE
  5
17F6
330
133C
100
AcDbSymbolTableRecord
100
AcDbLinetypeTableRecord
  2
ACISOWELD
 70
     0
  3
_ _ _ _ _
 72
    65
 73
     2
 40
2.0
 49
2.0
 74
     0
 49
-1.0
 74
     0
  0
LTYPE
  5
17F7
330
133C
100
AcDbSymbolTableRecord
100
AcDbLinetypeTableRecord
  2
ACISOTGB
 70
     0
  3
__ . . __ . .
 72
    65
 73
     6
 40
9.0
 49
4.0
 74
     0
 49
-1.0
 74
     0
 49
1.0
 74
     0
 49
-1.0
 74
     0
 49
1.0
 74
     0
 49
-1.0
 74
     0
  0
LTYPE
  5
17F8
330
133C
100
AcDbSymbolTableRecord
100
AcDbLinetypeTableRecord
  2
ACISOTGL
 70
     0
  3
_ _ _ _ _
 72
    65
 73
     2
 40
3.0
 49
2.0
 74
     0
 49
-1.0
 74
     0
  0
LTYPE
  5
224A
330
133C
100
AcDbSymbolTableRecord
100
AcDbLinetypeTableRecord
  2
STRICHPUNKT
 70
     0
  3
__ . __ . __ . __ . __ . __ . __ . __ . __ . __
 72
    65
 73
     4
 40
1.0
 49
0.5
 74
     0
 49
-0.25
 74
     0
 49
0.0
 74
     0
 49
-0.25
 74
     0
  0
ENDTAB
  0
TABLE
  2
LAYER
  5
1339
102
{ACAD_XDICTIONARY
360
16F0
102
}
330
0
100
AcDbSymbolTable
 70
    34
  0
LAYER
  5
1345
102
{ACAD_XDICTIONARY
360
1472
102
}
330
1339
100
AcDbSymbolTableRecord
100
AcDbLayerTableRecord
  2
0
 70
     0
 62
     7
  6
CONTINUOUS
370
    -3
390
1376
347
1388
  0
LAYER
  5
135B
102
{ACAD_XDICTIONARY
360
1474
102
}
330
1339
100
AcDbSymbolTableRecord
100
AcDbLayerTableRecord
  2
1
 70
     0
 62
     3
  6
CONTINUOUS
370
    -3
390
1376
347
1388
  0
LAYER
  5
135C
102
{ACAD_XDICTIONARY
360
1476
102
}
330
1339
100
AcDbSymbolTableRecord
100
AcDbLayerTableRecord
  2
2
 70
     0
 62
     5
  6
CONTINUOUS
370
    -3
390
1376
347
1388
  0
LAYER
  5
135D
102
{ACAD_XDICTIONARY
360
1478
102
}
330
1339
100
AcDbSymbolTableRecord
100
AcDbLayerTableRecord
  2
2A
 70
     0
 62
     5
  6
GEN7
370
    -3
390
1376
347
1388
  0
LAYER
  5
135E
102
{ACAD_XDICTIONARY
360
147A
102
}
330
1339
100
AcDbSymbolTableRecord
100
AcDbLayerTableRecord
  2
3
 70
     0
 62
     6
  6
GEN3
370
    -3
390
1376
347
1388
  0
LAYER
  5
135F
102
{ACAD_XDICTIONARY
360
147C
102
}
330
1339
100
AcDbSymbolTableRecord
100
AcDbLayerTableRecord
  2
3A
 70
     0
 62
     6
  6
GEN3
370
    -3
390
1376
347
1388
  0
LAYER
  5
1360
102
{ACAD_XDICTIONARY
360
147E
102
}
330
1339
100
AcDbSymbolTableRecord
100
AcDbLayerTableRecord
  2
4
 70
     0
 62
     3
  6
CONTINUOUS
370
    -3
390
1376
347
1388
  0
LAYER
  5
1361
102
{ACAD_XDICTIONARY
360
1480
102
}
330
1339
100
AcDbSymbolTableRecord
100
AcDbLayerTableRecord
  2
4A
 70
     0
 62
     3
  6
GEN4A
370
    -3
390
1376
347
1388
  0
LAYER
  5
1362
102
{ACAD_XDICTIONARY
360
1482
102
}
330
1339
100
AcDbSymbolTableRecord
100
AcDbLayerTableRecord
  2
5
 70
     0
 62
     3
  6
CONTINUOUS
370
    -3
390
1376
347
1388
  0
LAYER
  5
1363
102
{ACAD_XDICTIONARY
360
1484
102
}
330
1339
100
AcDbSymbolTableRecord
100
AcDbLayerTableRecord
  2
6
 70
     0
 62
     2
  6
CONTINUOUS
370
    -3
390
1376
347
1388
  0
LAYER
  5
1364
102
{ACAD_XDICTIONARY
360
1486
102
}
330
1339
100
AcDbSymbolTableRecord
100
AcDbLayerTableRecord
  2
7
 70
     0
 62
     4
  6
GEN7
370
    -3
390
1376
347
1388
  0
LAYER
  5
1365
102
{ACAD_XDICTIONARY
360
1488
102
}
330
1339
100
AcDbSymbolTableRecord
100
AcDbLayerTableRecord
  2
8
 70
     0
 62
     1
  6
CONTINUOUS
370
    -3
390
1376
347
1388
  0
LAYER
  5
1366
102
{ACAD_XDICTIONARY
360
148A
102
}
330
1339
100
AcDbSymbolTableRecord
100
AcDbLayerTableRecord
  2
PUNKTE
 70
     0
 62
     1
  6
CONTINUOUS
370
    -3
390
1376
347
1388
  0
LAYER
  5
1367
102
{ACAD_XDICTIONARY
360
148C
102
}
330
1339
100
AcDbSymbolTableRecord
100
AcDbLayerTableRecord
  2
SCHRAFFUR_RAND
 70
     1
 62
    -1
  6
CONTINUOUS
370
    -3
390
1376
347
1388
  0
LAYER
  5
16C8
102
{ACAD_XDICTIONARY
360
16C9
102
}
330
1339
100
AcDbSymbolTableRecord
100
AcDbLayerTableRecord
  2
RAHM2
 70
     0
 62
     1
  6
CONTINUOUS
370
    -3
390
1376
347
1388
  0
LAYER
  5
16CA
330
1339
100
AcDbSymbolTableRecord
100
AcDbLayerTableRecord
  2
AM_BOR
 70
     0
 62
     7
  6
CONTINUOUS
370
    30
390
1376
347
1388
1001
AcAecLayerStandard
1000

1000

  0
LAYER
  5
16CB
102
{ACAD_XDICTIONARY
360
16CC
102
}
330
1339
100
AcDbSymbolTableRecord
100
AcDbLayerTableRecord
  2
TEXT25
 70
     0
 62
     3
  6
CONTINUOUS
370
    -3
390
1376
347
1388
  0
LAYER
  5
16CD
102
{ACAD_XDICTIONARY
360
16CE
102
}
330
1339
100
AcDbSymbolTableRecord
100
AcDbLayerTableRecord
  2
KOPF
 70
     0
 62
     1
  6
AUSGEZOGEN
370
    -3
390
1376
347
1388
  0
LAYER
  5
16CF
102
{ACAD_XDICTIONARY
360
16D0
102
}
330
1339
100
AcDbSymbolTableRecord
100
AcDbLayerTableRecord
  2
Sperrlayer
 70
     0
 62
    -7
  6
CONTINUOUS
370
    50
390
1376
347
1388
  0
LAYER
  5
16D1
102
{ACAD_XDICTIONARY
360
16D2
102
}
330
1339
100
AcDbSymbolTableRecord
100
AcDbLayerTableRecord
  2
0N
 70
     0
 62
     7
  6
CONTINUOUS
370
    -3
390
1376
347
1388
  0
LAYER
  5
16D3
330
1339
100
AcDbSymbolTableRecord
100
AcDbLayerTableRecord
  2
AM_8
 70
     0
 62
     1
  6
CONTINUOUS
370
    15
390
1376
347
1388
1001
AcAecLayerStandard
1000

1000

  0
LAYER
  5
16D4
102
{ACAD_XDICTIONARY
360
16D5
102
}
330
1339
100
AcDbSymbolTableRecord
100
AcDbLayerTableRecord
  2
RAHM3
 70
     0
 62
     2
  6
CONTINUOUS
370
    -3
390
1376
347
1388
  0
LAYER
  5
175E
330
1339
100
AcDbSymbolTableRecord
100
AcDbLayerTableRecord
  2
Defpoints
 70
     0
 62
     7
  6
CONTINUOUS
290
     0
370
    -3
390
1376
347
1388
  0
LAYER
  5
17F9
102
{ACAD_XDICTIONARY
360
17FA
102
}
330
1339
100
AcDbSymbolTableRecord
100
AcDbLayerTableRecord
  2
AM_5
 70
     0
 62
     3
  6
CONTINUOUS
370
    15
390
1376
347
1388
1001
AcAecLayerStandard
1000

1000

  0
LAYER
  5
17FB
102
{ACAD_XDICTIONARY
360
17FC
102
}
330
1339
100
AcDbSymbolTableRecord
100
AcDbLayerTableRecord
  2
AM_7
 70
     0
 62
     4
  6
CENTER
370
    15
390
1376
347
1388
  0
LAYER
  5
17FD
102
{ACAD_XDICTIONARY
360
17FE
102
}
330
1339
100
AcDbSymbolTableRecord
100
AcDbLayerTableRecord
  2
AM_4
 70
     0
 62
     3
  6
CONTINUOUS
370
    15
390
1376
347
1388
1001
AcAecLayerStandard
1000

1000

  0
LAYER
  5
17FF
330
1339
100
AcDbSymbolTableRecord
100
AcDbLayerTableRecord
  2
AM_10
 70
     0
 62
     7
  6
PHANTOM2
370
    30
390
1376
347
1388
1001
AcAecLayerStandard
1000

1000

  0
LAYER
  5
1C14
102
{ACAD_XDICTIONARY
360
1C15
102
}
330
1339
100
AcDbSymbolTableRecord
100
AcDbLayerTableRecord
  2
AM_0
 70
     0
 62
     7
  6
CONTINUOUS
370
    30
390
1376
347
1388
  0
LAYER
  5
1C16
102
{ACAD_XDICTIONARY
360
1C17
102
}
330
1339
100
AcDbSymbolTableRecord
100
AcDbLayerTableRecord
  2
AM_3
 70
     0
 62
     6
  6
HIDDEN
370
    15
390
1376
347
1388
  0
LAYER
  5
1C18
102
{ACAD_XDICTIONARY
360
1C19
102
}
330
1339
100
AcDbSymbolTableRecord
100
AcDbLayerTableRecord
  2
AM_6
 70
     0
 62
     2
  6
CONTINUOUS
370
    30
390
1376
347
1388
  0
LAYER
  5
208A
330
1339
100
AcDbSymbolTableRecord
100
AcDbLayerTableRecord
  2
AM_CL
 70
     0
 62
     1
  6
Amconstr
370
    15
390
1376
347
1388
1001
AcAecLayerStandard
1000

1000

  0
LAYER
  5
224B
102
{ACAD_XDICTIONARY
360
224C
102
}
330
1339
100
AcDbSymbolTableRecord
100
AcDbLayerTableRecord
  2
MITTE
 70
     0
 62
     1
  6
STRICHPUNKT
370
    -3
390
1376
347
1388
  0
LAYER
  5
224D
102
{ACAD_XDICTIONARY
360
224E
102
}
330
1339
100
AcDbSymbolTableRecord
100
AcDbLayerTableRecord
  2
TEXT50
 70
     0
 62
     7
  6
CONTINUOUS
370
    -3
390
1376
347
1388
  0
LAYER
  5
224F
102
{ACAD_XDICTIONARY
360
2250
102
}
330
1339
100
AcDbSymbolTableRecord
100
AcDbLayerTableRecord
  2
TEXT35
 70
     0
 62
   132
  6
CONTINUOUS
370
    -3
390
1376
347
1388
  0
ENDTAB
  0
TABLE
  2
STYLE
  5
133A
330
0
100
AcDbSymbolTable
 70
    14
  0
STYLE
  5
1346
330
133A
100
AcDbSymbolTableRecord
100
AcDbTextStyleTableRecord
  2
STANDARD
 70
     0
 40
0.0
 41
1.0
 50
0.0
 71
     0
 42
6.251
  3
isocp
  4

  0
STYLE
  5
1368
330
133A
100
AcDbSymbolTableRecord
100
AcDbTextStyleTableRecord
  2
IGES1002
 70
     0
 40
0.0
 41
1.0
 50
0.0
 71
     0
 42
3.5
  3
IGES1002
  4

  0
STYLE
  5
1451
330
133A
100
AcDbSymbolTableRecord
100
AcDbTextStyleTableRecord
  2

 70
     1
 40
0.0
 41
1.0
 50
0.0
 71
     0
 42
0.2
  3
genltshp.shx
  4

  0
STYLE
  5
1461
330
133A
100
AcDbSymbolTableRecord
100
AcDbTextStyleTableRecord
  2
ACANSTS
 70
     0
 40
1.0
 41
1.0
 50
0.0
 71
     0
 42
0.2
  3
romans.shx
  4

  0
STYLE
  5
1462
330
133A
100
AcDbSymbolTableRecord
100
AcDbTextStyleTableRecord
  2
ACANSGDT
 70
     0
 40
0.0
 41
1.0
 50
0.0
 71
     0
 42
0.2
  3
amgdt.shx
  4

  0
STYLE
  5
16D6
330
133A
100
AcDbSymbolTableRecord
100
AcDbTextStyleTableRecord
  2
ACDINTS
 70
     0
 40
1.0
 41
1.0
 50
0.0
 71
     0
 42
2.5
  3
isocp.shx
  4

  0
STYLE
  5
16D7
330
133A
100
AcDbSymbolTableRecord
100
AcDbTextStyleTableRecord
  2
ACDINGDT
 70
     0
 40
0.0
 41
1.0
 50
0.0
 71
     0
 42
2.5
  3
AMGDT
  4

  0
STYLE
  5
16D8
330
133A
100
AcDbSymbolTableRecord
100
AcDbTextStyleTableRecord
  2
TEXT20
 70
     0
 40
2.0
 41
0.8
 50
0.0
 71
     0
 42
2.0
  3
isocp3.shx
  4

  0
STYLE
  5
16D9
330
133A
100
AcDbSymbolTableRecord
100
AcDbTextStyleTableRecord
  2
Anschrift
 70
     0
 40
0.0
 41
1.0
 50
0.0
 71
     0
 42
2.0
  3
LT_50112.ttf
  4

1001
ACAD
1000
News Gothic
1071
 33554434
  0
STYLE
  5
1800
330
133A
100
AcDbSymbolTableRecord
100
AcDbTextStyleTableRecord
  2
ACISOTS
 70
     0
 40
1.0
 41
1.0
 50
0.0
 71
     0
 42
2.5
  3
isocp.shx
  4
bigfont.shx
  0
STYLE
  5
1801
330
133A
100
AcDbSymbolTableRecord
100
AcDbTextStyleTableRecord
  2
ACISOGDT
 70
     0
 40
0.0
 41
1.0
 50
0.0
 71
     0
 42
2.5
  3
AMGDT
  4
bigfont.shx
  0
STYLE
  5
1C1A
330
133A
100
AcDbSymbolTableRecord
100
AcDbTextStyleTableRecord
  2

 70
     1
 40
0.0
 41
1.0
 50
0.0
 71
     0
 42
3.5
  3
ltypeshp.shx
  4

  0
STYLE
  5
2251
330
133A
100
AcDbSymbolTableRecord
100
AcDbTextStyleTableRecord
  2
TEXT35
 70
     0
 40
3.5
 41
0.8
 50
0.0
 71
     0
 42
3.5
  3
isocp3.shx
  4

  0
STYLE
  5
2252
330
133A
100
AcDbSymbolTableRecord
100
AcDbTextStyleTableRecord
  2
TEXT50
 70
     0
 40
5.0
 41
0.8
 50
0.0
 71
     0
 42
5.0
  3
isocp3.shx
  4

  0
ENDTAB
  0
TABLE
  2
VIEW
  5
133D
330
0
100
AcDbSymbolTable
 70
     0
  0
ENDTAB
  0
TABLE
  2
UCS
  5
133E
330
0
100
AcDbSymbolTable
 70
     0
  0
ENDTAB
  0
TABLE
  2
APPID
  5
1340
330
0
100
AcDbSymbolTable
 70
    37
  0
APPID
  5
1347
330
1340
100
AcDbSymbolTableRecord
100
AcDbRegAppTableRecord
  2
ACAD
 70
     0
  0
APPID
  5
13C8
330
1340
100
AcDbSymbolTableRecord
100
AcDbRegAppTableRecord
  2
ACAD_MLEADERVER
 70
     0
  0
APPID
  5
13D6
330
1340
100
AcDbSymbolTableRecord
100
AcDbRegAppTableRecord
  2
MCAD_NO_VIS
 70
     0
  0
APPID
  5
13D7
330
1340
100
AcDbSymbolTableRecord
100
AcDbRegAppTableRecord
  2
ACAD_TEMP_GRAPHIC
 70
     0
  0
APPID
  5
1407
330
1340
100
AcDbSymbolTableRecord
100
AcDbRegAppTableRecord
  2
AD_DRAW
 70
     0
  0
APPID
  5
140A
330
1340
100
AcDbSymbolTableRecord
100
AcDbRegAppTableRecord
  2
ACATTRIBSERVICES
 70
     0
  0
APPID
  5
142B
330
1340
100
AcDbSymbolTableRecord
100
AcDbRegAppTableRecord
  2
DESIGNERASSEMBLIES
 70
     0
  0
APPID
  5
1431
330
1340
100
AcDbSymbolTableRecord
100
AcDbRegAppTableRecord
  2
ACADM_DIM_EDIT
 70
     0
  0
APPID
  5
1432
330
1340
100
AcDbSymbolTableRecord
100
AcDbRegAppTableRecord
  2
AMDT_DM_ADJ
 70
     0
  0
APPID
  5
16E2
330
1340
100
AcDbSymbolTableRecord
100
AcDbRegAppTableRecord
  2
ACAD_DSTYLE_DIMJOGGED_JOGANGLE_SYMBOL
 70
     0
  0
APPID
  5
16E3
330
1340
100
AcDbSymbolTableRecord
100
AcDbRegAppTableRecord
  2
GENIUS_VERSION2
 70
     0
  0
APPID
  5
16E4
330
1340
100
AcDbSymbolTableRecord
100
AcDbRegAppTableRecord
  2
GENIUS_GENREC_14
 70
     0
  0
APPID
  5
16E5
330
1340
100
AcDbSymbolTableRecord
100
AcDbRegAppTableRecord
  2
GENIUS_GENODEF_13
 70
     0
  0
APPID
  5
16E6
330
1340
100
AcDbSymbolTableRecord
100
AcDbRegAppTableRecord
  2
GENIUS_GENOBJ-N-REC_13
 70
     0
  0
APPID
  5
16E7
330
1340
100
AcDbSymbolTableRecord
100
AcDbRegAppTableRecord
  2
GENIUS_GENOENT_13
 70
     0
  0
APPID
  5
16E8
330
1340
100
AcDbSymbolTableRecord
100
AcDbRegAppTableRecord
  2
AcAecLayerStandard
 70
     0
  0
APPID
  5
16E9
330
1340
100
AcDbSymbolTableRecord
100
AcDbRegAppTableRecord
  2
GENIUS_GENTRA_14
 70
     0
  0
APPID
  5
16EA
330
1340
100
AcDbSymbolTableRecord
100
AcDbRegAppTableRecord
  2
GENIUS_GENOLIS_13
 70
     0
  0
APPID
  5
16EB
330
1340
100
AcDbSymbolTableRecord
100
AcDbRegAppTableRecord
  2
GENIUS_GENOBJ-N-TIT_13
 70
     0
  0
APPID
  5
16EC
330
1340
100
AcDbSymbolTableRecord
100
AcDbRegAppTableRecord
  2
GENIUS_GENTITLE_13
 70
     0
  0
APPID
  5
16ED
330
1340
100
AcDbSymbolTableRecord
100
AcDbRegAppTableRecord
  2
GENIUS_GENOREF_13
 70
     0
  0
APPID
  5
16EE
330
1340
100
AcDbSymbolTableRecord
100
AcDbRegAppTableRecord
  2
GENIUS_GENSCREG_15
 70
     0
  0
APPID
  5
16EF
330
1340
100
AcDbSymbolTableRecord
100
AcDbRegAppTableRecord
  2
GENIUS_GENOBJ-N-SDF_13
 70
     0
  0
APPID
  5
176C
330
1340
100
AcDbSymbolTableRecord
100
AcDbRegAppTableRecord
  2
ACAD_EXEMPT_FROM_CAD_STANDARDS
 70
     0
  0
APPID
  5
179A
330
1340
100
AcDbSymbolTableRecord
100
AcDbRegAppTableRecord
  2
DCO15
 70
     0
  0
APPID
  5
180A
330
1340
100
AcDbSymbolTableRecord
100
AcDbRegAppTableRecord
  2
GENIUS_GENOBJ-N-FIL_13
 70
     0
  0
APPID
  5
180B
330
1340
100
AcDbSymbolTableRecord
100
AcDbRegAppTableRecord
  2
ACAD_PSEXT
 70
     0
  0
APPID
  5
180C
330
1340
100
AcDbSymbolTableRecord
100
AcDbRegAppTableRecord
  2
GENIUS_GENOBJ-N-CEN_13
 70
     0
  0
APPID
  5
180D
330
1340
100
AcDbSymbolTableRecord
100
AcDbRegAppTableRecord
  2
GENIUS_GENDTOL_13
 70
     0
  0
APPID
  5
180E
330
1340
100
AcDbSymbolTableRecord
100
AcDbRegAppTableRecord
  2
GENIUS_GENCEN_19
 70
     0
  0
APPID
  5
180F
330
1340
100
AcDbSymbolTableRecord
100
AcDbRegAppTableRecord
  2
GENIUS_GENOBJ-N-CRS_13
 70
     0
  0
APPID
  5
1810
330
1340
100
AcDbSymbolTableRecord
100
AcDbRegAppTableRecord
  2
GENIUS_GENOBJ-N-ZOO_13
 70
     0
  0
APPID
  5
1811
330
1340
100
AcDbSymbolTableRecord
100
AcDbRegAppTableRecord
  2
GENIUS_GENZOO_17
 70
     0
  0
APPID
  5
1812
330
1340
100
AcDbSymbolTableRecord
100
AcDbRegAppTableRecord
  2
ACAD_DSTYLE_DIMINSPECT
 70
     0
  0
APPID
  5
1C1C
330
1340
100
AcDbSymbolTableRecord
100
AcDbRegAppTableRecord
  2
GENIUS_GENOBJ-N-HTC_13
 70
     0
  0
APPID
  5
1C1D
330
1340
100
AcDbSymbolTableRecord
100
AcDbRegAppTableRecord
  2
GENIUS_GENHATCH_13
 70
     0
  0
APPID
  5
1C1E
330
1340
100
AcDbSymbolTableRecord
100
AcDbRegAppTableRecord
  2
ACAD_DSTYLE_DIMRADIAL_EXTENSION
 70
     0
  0
ENDTAB
  0
TABLE
  2
DIMSTYLE
  5
1341
330
0
100
AcDbSymbolTable
 70
    25
100
AcDbDimStyleTable
 71
     1
340
1369
  0
DIMSTYLE
105
1369
330
1341
100
AcDbSymbolTableRecord
100
AcDbDimStyleTableRecord
  2
GEN-ISO
 70
     0
 41
3.5
 42
1.0
 43
8.0
 44
2.0
 47
0.1
 48
0.1
 73
     0
 74
     0
 77
     1
 78
     8
140
3.5
141
2.0
146
0.71
147
1.5
172
     1
176
   256
177
   256
178
     2
271
     2
272
     2
340
1346
  0
DIMSTYLE
105
1448
102
{ACAD_REACTORS
330
1438
102
}
330
1341
100
AcDbSymbolTableRecord
100
AcDbDimStyleTableRecord
  2
AM_ANSI
 70
     0
  4
mm
 41
0.12
 42
0.05
 43
0.5
 44
0.1
 47
0.1
 48
0.1
 78
     7
 79
     2
 90
     1
140
0.12
141
0.0
146
0.71
147
0.06
176
   256
177
   256
178
     2
274
     4
284
     7
340
1346
345
1349
346
1349
347
1349
371
    -1
372
    -1
  0
DIMSTYLE
105
1456
330
1341
100
AcDbSymbolTableRecord
100
AcDbDimStyleTableRecord
  2
AM_ANSI$3
 70
     0
  4
mm
 41
0.12
 42
0.05
 43
0.5
 44
0.1
 47
0.1
 48
0.1
 78
     7
 79
     2
 90
     1
140
0.12
141
0.0
146
0.71
147
0.06
176
   256
177
   256
178
     2
274
     4
284
     7
288
     1
289
     0
340
1346
345
1349
346
1349
347
1349
371
    -1
372
    -1
  0
DIMSTYLE
105
1457
330
1341
100
AcDbSymbolTableRecord
100
AcDbDimStyleTableRecord
  2
AM_ANSI$4
 70
     0
  4
mm
 41
0.12
 42
0.05
 43
0.5
 44
0.1
 47
0.1
 48
0.1
 78
     7
 79
     2
 90
     1
140
0.12
141
0.0
146
0.71
147
0.06
176
   256
177
   256
178
     2
274
     4
284
     7
288
     1
289
     0
340
1346
345
1349
346
1349
347
1349
371
    -1
372
    -1
  0
DIMSTYLE
105
1458
330
1341
100
AcDbSymbolTableRecord
100
AcDbDimStyleTableRecord
  2
AM_ANSI$7
 70
     0
  4
mm
 41
0.12
 42
0.05
 43
0.5
 44
0.1
 47
0.1
 48
0.1
 78
     7
 79
     2
 90
     1
140
0.12
141
0.0
146
0.71
147
0.06
176
   256
177
   256
178
     2
274
     4
284
     7
340
1346
345
1349
346
1349
347
1349
371
    -1
372
    -1
  0
DIMSTYLE
105
1459
330
1341
100
AcDbSymbolTableRecord
100
AcDbDimStyleTableRecord
  2
AM_ANSI$SF
 70
     0
  4
mm
 41
0.12
 42
0.05
 43
0.5
 44
0.1
 47
0.1
 48
0.1
 75
     1
 76
     1
 78
     7
 79
     2
 90
     1
140
0.12
141
0.0
146
0.71
147
0.06
176
   256
177
   256
178
     2
274
     4
284
     7
340
1346
345
1349
346
1349
347
1349
371
    -1
372
    -1
  0
DIMSTYLE
105
145E
330
1341
100
AcDbSymbolTableRecord
100
AcDbDimStyleTableRecord
  2
AM_ANSI$SH
 70
     0
  4
mm
 41
0.12
 42
0.05
 43
0.5
 44
0.1
 47
0.1
 48
0.1
 75
     1
 76
     1
 78
     7
 79
     2
 90
     1
140
0.12
141
0.0
146
0.71
147
0.06
173
     1
176
   256
177
   256
178
     2
274
     4
284
     7
340
1346
343
145A
345
1349
346
1349
347
1349
371
    -1
372
    -1
  0
DIMSTYLE
105
16DA
330
1341
100
AcDbSymbolTableRecord
100
AcDbDimStyleTableRecord
  2
AM_ISO
 70
     0
  4
"
 41
2.5
 42
1.0
 43
10.0
 44
1.0
 47
0.1
 48
0.1
 73
     0
 74
     0
 77
     1
 78
     8
 79
     2
 90
     1
140
3.5
141
0.0
143
0.0393701
146
0.71
147
1.5
172
     1
176
   256
177
   256
178
     2
271
     2
272
     3
274
     4
283
     0
284
     8
340
1346
371
    -1
372
    -1
1001
ACAD_DSTYLE_DIMJOGGED_JOGANGLE_SYMBOL
1070
   384
1040
0.7853981633974483
  0
DIMSTYLE
105
16DB
330
1341
100
AcDbSymbolTableRecord
100
AcDbDimStyleTableRecord
  2
AM_DIN
 70
     0
  4
"
 41
2.5
 42
1.0
 43
10.0
 44
1.0
 47
0.1
 48
0.1
 50
90.0
 73
     0
 74
     0
 77
     1
 78
     8
 79
     2
140
3.5
141
0.0
143
0.0393701
146
0.71
147
1.5
172
     1
176
   256
177
   256
178
     2
271
     2
272
     3
274
     4
283
     0
284
     8
340
1346
371
    -1
372
    -1
1001
ACAD_DSTYLE_DIMJOGGED_JOGANGLE_SYMBOL
1070
   384
1040
1.570796326794896
  0
DIMSTYLE
105
16DC
330
1341
100
AcDbSymbolTableRecord
100
AcDbDimStyleTableRecord
  2
AM_DIN$3
 70
     0
  4
"
 41
2.5
 42
1.0
 43
10.0
 44
1.0
 47
0.1
 48
0.1
 50
90.0
 73
     0
 77
     1
 78
     8
 79
     2
140
3.5
141
0.0
143
0.0393701
146
0.71
147
1.5
176
   256
177
   256
178
     2
271
     2
272
     3
274
     4
283
     0
284
     8
288
     1
289
     0
340
1346
371
    -1
372
    -1
1001
ACAD_DSTYLE_DIMJOGGED_JOGANGLE_SYMBOL
1070
   384
1040
1.570796326794896
  0
DIMSTYLE
105
16DD
330
1341
100
AcDbSymbolTableRecord
100
AcDbDimStyleTableRecord
  2
AM_DIN$4
 70
     0
  4
"
 41
2.5
 42
1.0
 43
10.0
 44
1.0
 47
0.1
 48
0.1
 50
90.0
 73
     0
 77
     1
 78
     8
 79
     2
140
3.5
141
0.0
143
0.0393701
146
0.71
147
1.5
176
   256
177
   256
178
     2
271
     2
272
     3
274
     4
283
     0
284
     8
288
     1
289
     0
340
1346
371
    -1
372
    -1
1001
ACAD_DSTYLE_DIMJOGGED_JOGANGLE_SYMBOL
1070
   384
1040
1.570796326794896
  0
DIMSTYLE
105
16DE
330
1341
100
AcDbSymbolTableRecord
100
AcDbDimStyleTableRecord
  2
AM_DIN$6
 70
     0
  4
"
 41
2.5
 42
1.0
 43
10.0
 44
1.0
 47
0.1
 48
0.1
 50
90.0
 73
     0
 74
     0
 78
     8
 79
     2
140
3.5
141
0.0
143
0.0393701
146
0.71
147
1.5
172
     1
176
   256
177
   256
178
     2
271
     2
272
     3
274
     4
283
     0
284
     8
340
1346
371
    -1
372
    -1
1001
ACAD_DSTYLE_DIMJOGGED_JOGANGLE_SYMBOL
1070
   384
1040
1.570796326794896
  0
DIMSTYLE
105
16DF
330
1341
100
AcDbSymbolTableRecord
100
AcDbDimStyleTableRecord
  2
AM_DIN$7
 70
     0
  4
"
 41
2.5
 42
1.0
 43
10.0
 44
1.0
 47
0.1
 48
0.1
 50
90.0
 73
     0
 74
     0
 77
     1
 78
     8
 79
     2
140
5.0
141
0.0
143
0.0393701
146
0.71
147
1.5
172
     1
176
   256
177
   256
178
     2
271
     2
272
     3
274
     4
283
     0
284
     8
340
1346
371
    -1
372
    -1
1001
ACAD_DSTYLE_DIMJOGGED_JOGANGLE_SYMBOL
1070
   384
1040
1.570796326794896
  0
DIMSTYLE
105
16E0
330
1341
100
AcDbSymbolTableRecord
100
AcDbDimStyleTableRecord
  2
AM_DIN$SF
 70
     0
  4
"
 41
2.5
 42
1.0
 43
10.0
 44
1.0
 47
0.1
 48
0.1
 50
90.0
 73
     0
 74
     0
 75
     1
 76
     1
 77
     1
 78
     8
 79
     2
140
3.5
141
0.0
143
0.0393701
146
0.71
147
1.5
172
     1
176
   256
177
   256
178
     2
271
     2
272
     3
274
     4
283
     0
284
     8
340
1346
371
    -1
372
    -1
1001
ACAD_DSTYLE_DIMJOGGED_JOGANGLE_SYMBOL
1070
   384
1040
1.570796326794896
  0
DIMSTYLE
105
16E1
330
1341
100
AcDbSymbolTableRecord
100
AcDbDimStyleTableRecord
  2
AM_DIN$SH
 70
     0
  4
"
 41
2.5
 42
1.0
 43
10.0
 44
1.0
 47
0.1
 48
0.1
 50
90.0
 73
     0
 74
     0
 75
     1
 76
     1
 77
     1
 78
     8
 79
     2
140
3.5
141
0.0
143
0.0393701
144
2.0
146
0.71
147
1.5
172
     1
173
     1
176
   256
177
   256
178
     2
271
     2
272
     3
274
     4
283
     0
284
     8
340
1346
343
145A
371
    -1
372
    -1
1001
ACAD_DSTYLE_DIMJOGGED_JOGANGLE_SYMBOL
1070
   384
1040
1.570796326794896
  0
DIMSTYLE
105
1802
330
1341
100
AcDbSymbolTableRecord
100
AcDbDimStyleTableRecord
  2
AM_ISO$3
 70
     0
  4
"
 41
2.5
 42
1.0
 43
10.0
 44
1.0
 47
0.1
 48
0.1
 73
     0
 77
     1
 78
     8
 79
     2
 90
     1
140
3.5
141
0.0
143
0.0393701
146
0.71
147
1.5
176
   256
177
   256
178
     2
271
     2
272
     3
274
     4
283
     0
284
     8
288
     1
289
     0
340
1346
371
    -1
372
    -1
1001
ACAD_DSTYLE_DIMJOGGED_JOGANGLE_SYMBOL
1070
   384
1040
0.7853981633974483
  0
DIMSTYLE
105
1803
330
1341
100
AcDbSymbolTableRecord
100
AcDbDimStyleTableRecord
  2
AM_ISO$4
 70
     0
  4
"
 41
2.5
 42
1.0
 43
10.0
 44
1.0
 47
0.1
 48
0.1
 73
     0
 77
     1
 78
     8
 79
     2
 90
     1
140
3.5
141
0.0
143
0.0393701
146
0.71
147
1.5
176
   256
177
   256
178
     2
271
     2
272
     3
274
     4
283
     0
284
     8
288
     1
289
     0
340
1346
371
    -1
372
    -1
1001
ACAD_DSTYLE_DIMJOGGED_JOGANGLE_SYMBOL
1070
   384
1040
0.7853981633974483
  0
DIMSTYLE
105
1804
330
1341
100
AcDbSymbolTableRecord
100
AcDbDimStyleTableRecord
  2
AM_ISO$6
 70
     0
  4
"
 41
2.5
 42
1.0
 43
10.0
 44
1.0
 47
0.1
 48
0.1
 73
     0
 74
     0
 78
     8
 79
     2
 90
     1
140
3.5
141
0.0
143
0.0393701
146
0.71
147
1.5
172
     1
176
   256
177
   256
178
     2
271
     2
272
     3
274
     4
283
     0
284
     8
340
1346
371
    -1
372
    -1
1001
ACAD_DSTYLE_DIMJOGGED_JOGANGLE_SYMBOL
1070
   384
1040
0.7853981633974483
  0
DIMSTYLE
105
1805
330
1341
100
AcDbSymbolTableRecord
100
AcDbDimStyleTableRecord
  2
AM_ISO$7
 70
     0
  4
"
 41
2.5
 42
1.0
 43
10.0
 44
1.0
 47
0.1
 48
0.1
 73
     0
 74
     0
 77
     1
 78
     8
 79
     2
 90
     1
140
5.0
141
0.0
143
0.0393701
146
0.71
147
1.5
172
     1
176
   256
177
   256
178
     2
271
     2
272
     3
274
     4
283
     0
284
     8
340
1346
371
    -1
372
    -1
1001
ACAD_DSTYLE_DIMJOGGED_JOGANGLE_SYMBOL
1070
   384
1040
0.7853981633974483
  0
DIMSTYLE
105
1806
330
1341
100
AcDbSymbolTableRecord
100
AcDbDimStyleTableRecord
  2
AM_ISO$SF
 70
     0
  4
"
 41
2.5
 42
1.0
 43
10.0
 44
1.0
 47
0.1
 48
0.1
 73
     0
 74
     0
 75
     1
 76
     1
 77
     1
 78
     8
 79
     2
 90
     1
140
3.5
141
0.0
143
0.0393701
146
0.71
147
1.5
172
     1
176
   256
177
   256
178
     2
271
     2
272
     3
274
     4
283
     0
284
     8
340
1346
371
    -1
372
    -1
1001
ACAD_DSTYLE_DIMJOGGED_JOGANGLE_SYMBOL
1070
   384
1040
0.7853981633974483
  0
DIMSTYLE
105
1807
330
1341
100
AcDbSymbolTableRecord
100
AcDbDimStyleTableRecord
  2
AM_ISO$SH
 70
     0
  4
"
 41
2.5
 42
1.0
 43
10.0
 44
1.0
 47
0.1
 48
0.1
 73
     0
 74
     0
 75
     1
 76
     1
 77
     1
 78
     8
 79
     2
 90
     1
140
3.5
141
0.0
143
0.0393701
144
2.0
146
0.71
147
1.5
172
     1
173
     1
176
   256
177
   256
178
     2
271
     2
272
     3
274
     4
283
     0
284
     8
340
1346
343
145A
371
    -1
372
    -1
1001
ACAD_DSTYLE_DIMJOGGED_JOGANGLE_SYMBOL
1070
   384
1040
0.7853981633974483
  0
DIMSTYLE
105
1808
330
1341
100
AcDbSymbolTableRecord
100
AcDbDimStyleTableRecord
  2
AM_ISO$0
 70
     0
  4
"
 41
2.5
 42
1.0
 43
10.0
 44
1.0
 47
0.1
 48
0.1
 73
     0
 74
     0
 77
     1
 78
     8
 79
     2
 90
     1
140
3.5
141
0.0
143
0.0393701
146
0.71
147
1.5
172
     1
176
   256
177
   256
178
     2
271
     2
272
     3
274
     4
283
     0
284
     8
340
1346
371
    -1
372
    -1
1001
ACAD_DSTYLE_DIMJOGGED_JOGANGLE_SYMBOL
1070
   384
1040
0.7853981633974483
  0
DIMSTYLE
105
1809
330
1341
100
AcDbSymbolTableRecord
100
AcDbDimStyleTableRecord
  2
AM_ISO$2
 70
     0
  4
"
 41
2.5
 42
1.0
 43
10.0
 44
1.0
 47
0.1
 48
0.1
 73
     0
 74
     0
 77
     1
 78
     8
 79
     2
 90
     1
140
3.5
141
0.0
143
0.0393701
146
0.71
147
1.5
172
     1
176
   256
177
   256
178
     2
271
     2
272
     3
274
     4
283
     0
284
     8
340
1346
371
    -1
372
    -1
1001
ACAD_DSTYLE_DIMJOGGED_JOGANGLE_SYMBOL
1070
   384
1040
0.7853981633974483
  0
DIMSTYLE
105
1C1B
102
{ACAD_REACTORS
330
328A
330
328F
330
3295
102
}
330
1341
100
AcDbSymbolTableRecord
100
AcDbDimStyleTableRecord
  2
AM_DIN$0
 70
     0
  4
"
 41
2.5
 42
1.0
 43
10.0
 44
1.0
 47
0.1
 48
0.1
 50
90.0
 73
     0
 74
     0
 77
     1
 78
     8
 79
     2
140
3.5
141
0.0
143
0.0393701
146
0.71
147
1.5
172
     1
176
   256
177
   256
178
     2
271
     2
272
     3
274
     4
283
     0
284
     8
340
1346
371
    -1
372
    -1
1001
ACAD_DSTYLE_DIMJOGGED_JOGANGLE_SYMBOL
1070
   384
1040
1.570796326794896
  0
DIMSTYLE
105
2139
330
1341
100
AcDbSymbolTableRecord
100
AcDbDimStyleTableRecord
  2
GEN-ISO$0
 70
     0
 41
3.5
 42
1.0
 43
8.0
 44
2.0
 47
0.1
 48
0.1
 73
     0
 74
     0
 77
     1
 78
     8
140
3.5
141
2.0
146
0.71
147
1.5
172
     1
176
   256
177
   256
178
     2
271
     2
272
     2
340
1346
  0
ENDTAB
  0
TABLE
  2
BLOCK_RECORD
  5
1338
330
0
100
AcDbSymbolTable
 70
    14
  0
BLOCK_RECORD
  5
134F
102
{ACAD_XDICTIONARY
360
2589
102
}
330
1338
100
AcDbSymbolTableRecord
100
AcDbBlockTableRecord
  2
*MODEL_SPACE
340
13CB
 70
     0
280
     1
281
     0
  0
BLOCK_RECORD
  5
134C
330
1338
100
AcDbSymbolTableRecord
100
AcDbBlockTableRecord
  2
*PAPER_SPACE
340
13CC
 70
     0
280
     1
281
     0
  0
BLOCK_RECORD
  5
1372
330
1338
100
AcDbSymbolTableRecord
100
AcDbBlockTableRecord
  2
FILLED_CIRC
340
0
 70
     0
280
     1
281
     0
  0
BLOCK_RECORD
  5
145A
330
1338
100
AcDbSymbolTableRecord
100
AcDbBlockTableRecord
  2
GENAXEH
340
0
 70
     0
280
     1
281
     0
  0
BLOCK_RECORD
  5
1615
330
1338
100
AcDbSymbolTableRecord
100
AcDbBlockTableRecord
  2
ACO_A4
340
0
 70
     0
280
     1
281
     0
  0
BLOCK_RECORD
  5
1639
330
1338
100
AcDbSymbolTableRecord
100
AcDbBlockTableRecord
  2
ACO-logo
340
0
310
2800000020000000200000000100080000000000000400000000000000000000000000000000000000000000000080000080000000808000800000008000800080800000C0C0C000C0DCC000F0CAA6000020400000206000002080000020A0000020C0000020E00000400000004020000040400000406000004080000040A0
310
000040C0000040E00000600000006020000060400000606000006080000060A0000060C0000060E00000800000008020000080400000806000008080000080A0000080C0000080E00000A0000000A0200000A0400000A0600000A0800000A0A00000A0C00000A0E00000C0000000C0200000C0400000C0600000C0800000C0
310
A00000C0C00000C0E00000E0000000E0200000E0400000E0600000E0800000E0A00000E0C00000E0E00040000000400020004000400040006000400080004000A0004000C0004000E00040200000402020004020400040206000402080004020A0004020C0004020E000404000004040200040404000404060004040800040
310
40A0004040C0004040E00040600000406020004060400040606000406080004060A0004060C0004060E00040800000408020004080400040806000408080004080A0004080C0004080E00040A0000040A0200040A0400040A0600040A0800040A0A00040A0C00040A0E00040C0000040C0200040C0400040C0600040C08000
310
40C0A00040C0C00040C0E00040E0000040E0200040E0400040E0600040E0800040E0A00040E0C00040E0E00080000000800020008000400080006000800080008000A0008000C0008000E00080200000802020008020400080206000802080008020A0008020C0008020E00080400000804020008040400080406000804080
310
008040A0008040C0008040E00080600000806020008060400080606000806080008060A0008060C0008060E00080800000808020008080400080806000808080008080A0008080C0008080E00080A0000080A0200080A0400080A0600080A0800080A0A00080A0C00080A0E00080C0000080C0200080C0400080C0600080C0
310
800080C0A00080C0C00080C0E00080E0000080E0200080E0400080E0600080E0800080E0A00080E0C00080E0E000C0000000C0002000C0004000C0006000C0008000C000A000C000C000C000E000C0200000C0202000C0204000C0206000C0208000C020A000C020C000C020E000C0400000C0402000C0404000C0406000C0
310
408000C040A000C040C000C040E000C0600000C0602000C0604000C0606000C0608000C060A000C060C000C060E000C0800000C0802000C0804000C0806000C0808000C080A000C080C000C080E000C0A00000C0A02000C0A04000C0A06000C0A08000C0A0A000C0A0C000C0A0E000C0C00000C0C02000C0C04000C0C06000
310
C0C08000C0C0A000F0FBFF00A4A0A000808080000000FF0000FF000000FFFF00FF000000FF00FF00FFFF0000FFFFFF0000000000000000000000000000000000000000000000000000000000000000000000000000000000000000000000000000000000000000000000000000000000000000000000000000000000000000
310
00000000000000000000000000000000000000000000000000000000000000000000000000000000000000000000000000000000000000000000000000000000000000000000000000000000000000000000F9F9F9F9F9F9F9F9F9F9F9F9F9F9F9F9F9F9F9F9F9F9F9F9F9F9F9F9F9F90000F9F9F9F9F9F9F9F9F9F9F9F9F9
310
F9F9F9F9F9F9F9F9F9F9F9F9F9F9F9F9F90000F9F9F9F9F9F9F9F9F9F9F9F9F9F9F9F9F9F9F9F9F9F9F9F9F9F9F9F9F9F90000F9F9F9F9F9F9F9F9F9F9F9F9F9F9F9F9F9F9F9F9F9F9F9F9F9F9F9F9F9F90000F9F9F9F9F9F9F9F9F9F9F9F9F9F9F9F9F9F9F9F9F9F9F9F9F9F9F9F9F9F90000F9F9F9F9F9F9F9F9F9F9F9F9
310
F9F9F9F9F9F9F9F9F9F9F9F9F9F9F9F9F9F90000F9F9F9F9F9F9F9F9F9F9F9F9F9F9F9F9F9F9F9F9F9F9F9F9F9F9F9F9F9F90000F9F9F9F9F9F9F9F9F9F9F9F9F9F9F9F9F9F9F9F9F9F9F9F9F9F9F9F9F9F90000F9F9F9F9F9F9F9F9F9F9F9F9F9F9F9F9F9F9F9F9F9F9F9F9F9F9F9F9F9F90000F9F9F9F9F9F9F9F9F9F9F9
310
F9F9F9F9F9F9F9F9F9F9F9F9F9F9F9F9F9F9F90000F9F9F9F9F9F9F9F9F9F9F9F9F9F9F9F9F9F9F9F9F9F9F9F9F9F9F9F9F9F90000F9F9F9F9F9F9F9F9F9F9F9F9F9F9F9F9F9F9F9F9F9F9F9F9F9F9F9F9F9F90000F9F9F9F9F9F9F9F9F9F9F9F9F9F9F9F9F9F9F9F9F9F9F9F9F9F9F9F9F9F90000F9F9F9F9F9F9F9F9F9F9
310
F9F9F9F9F9F9F9F9F9F9F9F9F9F9F9F9F9F9F9F90000F9F9F9F9F9F9F9F9F9F9F9F9F9F9F9F9F9F9F9F9F9F9F9F9F9F9F9F9F9F90000F9F9F9F9F9F9F9F9F9F9F9F9F9F9F9F9F9F9F9F9F9F9F9F9F9F9F9F9F9F90000F9F9F9F9F9F9F9F9F9F9F9F9F9F9F9F9F9F9F9F9F9F9F9F9F9F9F9F9F9F90000F9F9F9F9F9F9F9F9F9
310
F9F9F9F9F9F9F9F9F9F9F9F9F9F9F9F9F9F9F9F9F90000F9F9F9F9F9F9F9F9F9F9F9F9F9F9F9F9F9F9F9F9F9F9F9F9F9F9F9F9F9F90000F9F9F9F9F9F9F9F9F9F9F9F9F9F9F9F9F9F9F9F9F9F9F9F9F9F9F9F9F9F90000F9F9F9F9F9F9F9F9F9F9F9F9F9F9F9F9F9F9F9F9F9F9F9F9F9F9F9F9F9F90000F9F9F9F9F9F9F9F9
310
F9F9F9F9F9F9F9F9F9F9F9F9F9F9F9F9F9F9F9F9F9F9000000000000000000000000000000000000000000000000000000000000000000000000000000000000000000000000000000000000000000000000000000000000000000000000000000000000000000000000000000000000000000000000000000000000000000
310
0000000000000000000000000000000000000000000000000000000000000000000000000000000000000000000000000000000000000000
102
{BLKREFS
331
16B8
102
}
 70
     0
280
     1
281
     0
  0
BLOCK_RECORD
  5
1645
330
1338
100
AcDbSymbolTableRecord
100
AcDbBlockTableRecord
  2
aendzeil
340
0
102
{BLKREFS
331
169E
102
}
 70
     0
280
     1
281
     0
  0
BLOCK_RECORD
  5
164D
102
{ACAD_XDICTIONARY
360
164E
102
}
330
1338
100
AcDbSymbolTableRecord
100
AcDbBlockTableRecord
  2
ACO-SF02-KL
340
0
 70
     0
280
     1
281
     0
  0
BLOCK_RECORD
  5
2177
330
1338
100
AcDbSymbolTableRecord
100
AcDbBlockTableRecord
  2
ACO_A2
340
0
 70
     0
280
     1
281
     0
  0
BLOCK_RECORD
  5
21BF
102
{ACAD_XDICTIONARY
360
21C0
102
}
330
1338
100
AcDbSymbolTableRecord
100
AcDbBlockTableRecord
  2
ACO-SF02-GR
340
0
 70
     0
280
     1
281
     0
  0
BLOCK_RECORD
  5
2C86
330
1338
100
AcDbSymbolTableRecord
100
AcDbBlockTableRecord
  2
GENZOOI0XKNL3
340
0
 70
     0
280
     1
281
     0
  0
BLOCK_RECORD
  5
2FC9
330
1338
100
AcDbSymbolTableRecord
100
AcDbBlockTableRecord
  2
*X10
340
0
102
{BLKREFS
331
31AC
102
}
 70
     0
280
     1
281
     0
  0
BLOCK_RECORD
  5
329E
330
1338
100
AcDbSymbolTableRecord
100
AcDbBlockTableRecord
  2
*D11
340
0
 70
     0
280
     1
281
     0
  0
BLOCK_RECORD
  5
32AA
330
1338
100
AcDbSymbolTableRecord
100
AcDbBlockTableRecord
  2
*D12
340
0
 70
     0
280
     1
281
     0
  0
BLOCK_RECORD
  5
32B7
330
1338
100
AcDbSymbolTableRecord
100
AcDbBlockTableRecord
  2
*D13
340
0
 70
     0
280
     1
281
     0
  0
ENDTAB
  0
ENDSEC
  0
SECTION
  2
BLOCKS
  0
BLOCK
  5
1350
330
134F
100
AcDbEntity
  8
0
100
AcDbBlockBegin
  2
*MODEL_SPACE
 70
     0
 10
0.0
 20
0.0
 30
0.0
  3
*MODEL_SPACE
  1

  0
ENDBLK
  5
1351
330
134F
100
AcDbEntity
  8
0
100
AcDbBlockEnd
  0
BLOCK
  5
134D
330
134C
100
AcDbEntity
 67
     1
  8
0
100
AcDbBlockBegin
  2
*PAPER_SPACE
 70
     0
 10
0.0
 20
0.0
 30
0.0
  3
*PAPER_SPACE
  1

  0
ENDBLK
  5
134E
330
134C
100
AcDbEntity
 67
     1
  8
0
100
AcDbBlockEnd
  0
BLOCK
  5
1332
330
1372
100
AcDbEntity
  8
0
100
AcDbBlockBegin
  2
FILLED_CIRC
 70
     0
 10
0.0
 20
0.0
 30
0.0
  3
FILLED_CIRC
  1

  0
POLYLINE
  5
1333
330
1372
100
AcDbEntity
  8
0
100
AcDb2dPolyline
 66
     1
 10
0.0
 20
0.0
 30
0.0
 70
     1
 40
0.5
 41
0.5
  0
VERTEX
  5
1334
330
1333
100
AcDbEntity
  8
0
100
AcDbVertex
100
AcDb2dVertex
 10
-0.25
 20
0.0
 30
0.0
 42
-1.0
  0
VERTEX
  5
1335
330
1333
100
AcDbEntity
  8
0
100
AcDbVertex
100
AcDb2dVertex
 10
0.25
 20
0.0
 30
0.0
 42
-1.0
  0
SEQEND
  5
1336
330
1333
100
AcDbEntity
  8
0
  0
ENDBLK
  5
1337
330
1372
100
AcDbEntity
  8
0
100
AcDbBlockEnd
  0
BLOCK
  5
145C
330
145A
100
AcDbEntity
  8
0
100
AcDbBlockBegin
  2
GENAXEH
 70
     0
 10
0.0
 20
0.0
 30
0.0
  3
GENAXEH
  1

  0
LINE
  5
145B
330
145A
100
AcDbEntity
  8
0
100
AcDbLine
 10
-1.0
 20
0.0
 30
0.0
 11
1.0
 21
0.0
 31
0.0
  0
ENDBLK
  5
145D
330
145A
100
AcDbEntity
  8
0
100
AcDbBlockEnd
  0
BLOCK
  5
1616
330
1615
100
AcDbEntity
  8
0
100
AcDbBlockBegin
  2
ACO_A4
 70
     0
 10
0.0
 20
0.0
 30
0.0
  3
ACO_A4
  1

  0
LINE
  5
1617
330
1615
100
AcDbEntity
  8
AM_BOR
 62
     1
370
    25
100
AcDbLine
 10
205.0
 20
287.0
 30
0.0
 11
205.0
 21
292.0
 31
0.0
  0
LINE
  5
1618
330
1615
100
AcDbEntity
  8
AM_BOR
 62
     1
370
    25
100
AcDbLine
 10
0.0
 20
0.0
 30
0.0
 11
210.0
 21
0.0
 31
0.0
  0
LINE
  5
1619
330
1615
100
AcDbEntity
  8
AM_BOR
 62
     1
370
    25
100
AcDbLine
 10
210.0
 20
297.0
 30
0.0
 11
0.0
 21
297.0
 31
0.0
  0
LINE
  5
161A
330
1615
100
AcDbEntity
  8
AM_BOR
 62
     1
370
    25
100
AcDbLine
 10
0.0
 20
297.0
 30
0.0
 11
0.0
 21
0.0
 31
0.0
  0
LINE
  5
161B
330
1615
100
AcDbEntity
  8
0
100
AcDbLine
 10
15.0
 20
5.0
 30
0.0
 11
205.0
 21
5.0
 31
0.0
  0
LINE
  5
161C
330
1615
100
AcDbEntity
  8
0
100
AcDbLine
 10
205.0
 20
5.0
 30
0.0
 11
205.0
 21
287.0
 31
0.0
  0
LINE
  5
161D
330
1615
100
AcDbEntity
  8
AM_BOR
 62
     1
370
    25
100
AcDbLine
 10
205.0
 20
292.0
 30
0.0
 11
15.0
 21
292.0
 31
0.0
  0
LINE
  5
161E
330
1615
100
AcDbEntity
  8
AM_BOR
 62
     1
370
    25
100
AcDbLine
 10
15.0
 20
292.0
 30
0.0
 11
15.0
 21
287.0
 31
0.0
  0
LINE
  5
161F
330
1615
100
AcDbEntity
  8
AM_BOR
 62
     1
370
    25
100
AcDbLine
 10
62.5
 20
292.0
 30
0.0
 11
62.5
 21
287.0
 31
0.0
  0
TEXT
  5
1620
330
1615
100
AcDbEntity
  8
AM_BOR
 62
     1
370
    25
100
AcDbText
 10
37.4
 20
287.5
 30
0.0
 40
4.0
  1
1
100
AcDbText
  0
TEXT
  5
1621
330
1615
100
AcDbEntity
  8
AM_BOR
 62
     1
370
    25
100
AcDbText
 10
84.9
 20
287.5
 30
0.0
 40
4.0
  1
2
100
AcDbText
  0
LINE
  5
1622
330
1615
100
AcDbEntity
  8
AM_BOR
 62
     1
370
    25
100
AcDbLine
 10
110.0
 20
292.0
 30
0.0
 11
110.0
 21
287.0
 31
0.0
  0
TEXT
  5
1623
330
1615
100
AcDbEntity
  8
AM_BOR
 62
     1
370
    25
100
AcDbText
 10
132.4
 20
287.5
 30
0.0
 40
4.0
  1
3
100
AcDbText
  0
LINE
  5
1624
330
1615
100
AcDbEntity
  8
AM_BOR
 62
     1
370
    25
100
AcDbLine
 10
157.5
 20
292.0
 30
0.0
 11
157.5
 21
287.0
 31
0.0
  0
TEXT
  5
1625
330
1615
100
AcDbEntity
  8
AM_BOR
 62
     1
370
    25
100
AcDbText
 10
179.9
 20
287.5
 30
0.0
 40
4.0
  1
4
100
AcDbText
  0
LINE
  5
1626
330
1615
100
AcDbEntity
  8
AM_BOR
 62
     1
370
    25
100
AcDbLine
 10
15.0
 20
292.0
 30
0.0
 11
10.0
 21
292.0
 31
0.0
  0
LINE
  5
1627
330
1615
100
AcDbEntity
  8
0
100
AcDbLine
 10
15.0
 20
287.0
 30
0.0
 11
205.0
 21
287.0
 31
0.0
  0
LINE
  5
1628
330
1615
100
AcDbEntity
  8
AM_BOR
 62
     1
370
    25
100
AcDbLine
 10
10.0
 20
193.0
 30
0.0
 11
15.0
 21
193.0
 31
0.0
  0
TEXT
  5
1629
330
1615
100
AcDbEntity
  8
AM_BOR
 62
     1
370
    25
100
AcDbText
 10
11.15
 20
214.5
 30
0.0
 40
4.0
  1
B
100
AcDbText
  0
LINE
  5
162A
330
1615
100
AcDbEntity
  8
AM_BOR
 62
     1
370
    25
100
AcDbLine
 10
10.0
 20
240.0
 30
0.0
 11
15.0
 21
240.0
 31
0.0
  0
TEXT
  5
162B
330
1615
100
AcDbEntity
  8
AM_BOR
 62
     1
370
    25
100
AcDbText
 10
11.15
 20
261.5
 30
0.0
 40
4.0
  1
A
100
AcDbText
  0
LINE
  5
162C
330
1615
100
AcDbEntity
  8
AM_BOR
 62
     1
370
    25
100
AcDbLine
 10
10.0
 20
99.0
 30
0.0
 11
15.0
 21
99.0
 31
0.0
  0
LINE
  5
162D
330
1615
100
AcDbEntity
  8
AM_BOR
 62
     1
370
    25
100
AcDbLine
 10
10.0
 20
99.0
 30
0.0
 11
10.0
 21
292.0
 31
0.0
  0
TEXT
  5
162E
330
1615
100
AcDbEntity
  8
0
 60
     1
100
AcDbText
 10
210.0
 20
297.0
 30
0.0
 40
3.5
  1
!GENTITLE-MAX
100
AcDbText
  0
TEXT
  5
162F
330
1615
100
AcDbEntity
  8
0
 60
     1
100
AcDbText
 10
205.0
 20
287.0
 30
0.0
 40
3.5
  1
!GENTITLE-RU
100
AcDbText
  0
TEXT
  5
1630
330
1615
100
AcDbEntity
  8
0
 60
     1
100
AcDbText
 10
15.0
 20
59.99
 30
0.0
 40
3.5
  1
!GENTITLE-LL
100
AcDbText
  0
TEXT
  5
1631
330
1615
100
AcDbEntity
  8
0
 60
     1
100
AcDbText
 10
205.0
 20
5.0
 30
0.0
 40
3.5
  1
!GENTITLE-INSERT
100
AcDbText
  0
LINE
  5
1632
330
1615
100
AcDbEntity
  8
0
100
AcDbLine
 10
15.0
 20
287.0
 30
0.0
 11
15.0
 21
5.0
 31
0.0
  0
LINE
  5
1633
330
1615
100
AcDbEntity
  8
AM_BOR
 62
     1
370
    25
100
AcDbLine
 10
210.0
 20
0.0
 30
0.0
 11
210.0
 21
297.0
 31
0.0
1001
GENIUS_VERSION2
1070
     2
  0
MTEXT
  5
1634
330
1615
100
AcDbEntity
  8
RAHM2
100
AcDbMText
 10
4.941050903919332
 20
157.282259458952
 30
0.0
 40
2.5
 41
51.25
 46
0.0
 71
     5
 72
     5
  1
{\f@Arial Unicode MS|b0|i0|c0|p34;\W0.9;ACO Passavant GmbH\f@Arial Unicode MS|b0|i1|c0|p34;\P\Fgeniso|c0;\H0.72x;\W1;Schutzvermerk nach DIN 34}
 11
0.0000000000000001
 21
1.0
 31
0.0
 73
     1
 44
1.0
  0
LWPOLYLINE
  5
1635
330
1615
100
AcDbEntity
  8
RAHM2
100
AcDbPolyline
 90
        4
 70
     1
 43
0.0
 10
9.223907070648934
 20
183.5
 10
9.223907070648934
 20
113.5
 10
0.7239070706489344
 20
113.5
 10
0.7239070706489344
 20
183.5
1001
GENIUS_GENREC_14
1002
{
1000
PXDIR
1011
9.223907070648934
1021
113.5
1031
0.0
1002
}
1002
{
1000
PORI
1011
9.223907070648934
1021
183.5
1031
0.0
1002
}
1002
{
1000
PINS
1011
9.223907070648934
1021
183.5
1031
0.0
1002
}
1002
{
1000
HVAL
1000
8.5
1002
}
1002
{
1000
H
1070
     2
1002
}
1002
{
1000
WVAL
1000
-70
1002
}
1002
{
1000
W
1070
     2
1002
}
1002
{
1000
C
1070
     1
1002
}
1001
GENIUS_GENODEF_13
1002
{
1000
HIER
1070
     0
1002
}
1002
{
1000
MANEDIT
1070
     0
1002
}
1002
{
1000
NOSEL
1070
     0
1002
}
1002
{
1000
BEHIND
1070
     0
1002
}
1002
{
1000
REACTOR
1002
}
1001
GENIUS_GENOBJ-N-REC_13
1002
{
1000
OWNER
1000
GEN
1002
}
  0
MTEXT
  5
1636
330
1615
100
AcDbEntity
  8
RAHM2
100
AcDbMText
 10
1.89915978626378
 20
115.1983525451006
 30
0.0
 40
3.5
 41
4.301759591192151
 46
0.0
 71
     1
 72
     5
  1
\fArial|b0|i0|c0|p32;©
 11
0.0000000000000001
 21
1.0
 31
0.0
 73
     1
 44
1.0
  0
MTEXT
  5
1637
330
1615
100
AcDbEntity
  8
RAHM2
100
AcDbMText
 10
2.97835891363924
 20
121.9315418910247
 30
0.0
 40
2.0
 41
5.5175
 46
0.0
 71
     1
 72
     5
  1
2004
 11
0.0000000000000001
 21
1.0
 31
0.0
 73
     1
 44
1.0
  0
ENDBLK
  5
1638
330
1615
100
AcDbEntity
  8
0
100
AcDbBlockEnd
  0
BLOCK
  5
163A
330
1639
100
AcDbEntity
  8
0
100
AcDbBlockBegin
  2
ACO-logo
 70
     0
 10
0.0
 20
0.0
 30
0.0
  3
ACO-logo
  1

  0
HATCH
  5
163B
330
1639
100
AcDbEntity
  8
AM_8
100
AcDbHatch
 10
0.0
 20
0.0
 30
0.0
210
0.0
220
0.0
230
1.0
  2
SOLID
 70
     1
 71
     1
 91
        8
 92
        7
 72
     0
 73
     1
 93
        4
 10
0.0
 20
0.0
 10
5.83484666800534
 20
0.0
 10
5.83484666800534
 20
13.81753928161228
 10
0.0
 20
13.81753928161228
 97
        1
330
1642
 92
       22
 72
     1
 73
     1
 93
        7
 10
2.917423334002663
 20
5.899795014131328
 42
-0.2369604974400691
 10
5.299322278505158
 20
1.20776271103314
 42
0.0
 10
4.566404620696332
 20
1.20776271103314
 42
0.0323236910300515
 10
4.52028025854512
 20
1.868792671041205
 42
0.0
 10
1.31456640946034
 20
1.868792671041205
 42
0.0323236910300514
 10
1.268442047309008
 20
1.20776271103314
 42
0.0
 10
0.5355243895001536
 20
1.20776271103314
 42
-0.236960497440069
 97
        1
330
1641
 92
        6
 72
     1
 73
     1
 93
        3
 10
2.917423334002755
 20
4.950343243528891
 42
-0.1369919174131033
 10
4.366098920254252
 20
2.601702187966736
 42
0.0
 10
1.468747747751102
 20
2.601702187966736
 42
-0.136991917413112
 97
        1
330
1643
 92
        7
 72
     0
 73
     1
 93
        4
 10
6.74914265440612
 20
0.0
 10
12.58398932241152
 20
0.0
 10
12.58398932241152
 20
13.81753928161228
 10
6.749142654406122
 20
13.81753928161228
 97
        1
330
163F
 92
       22
 72
     1
 73
     1
 93
        4
 10
11.71403969512569
 20
4.838973170255556
 42
0.0
 10
11.07924682436687
 20
4.472475335443292
 42
3.664441495333134
 10
11.09468207415784
 20
2.797254222346978
 42
0.0
 10
11.72940033449071
 20
2.430799463884227
 42
-3.685001202565794
 97
        1
330
163E
 92
        7
 72
     0
 73
     1
 93
        4
 10
19.3331319768176
 20
13.81753928161228
 10
13.49828530881222
 20
13.81753928161228
 10
13.49828530881222
 20
0.0
 10
19.33313197681759
 20
0.0
 97
        1
330
1640
 92
       22
 72
     1
 73
     1
 93
        2
 10
18.79766457282285
 20
3.621777428888222
 42
-1.0
 10
14.03375271280697
 20
3.621777428888222
 42
-1.0
 97
        1
330
163C
 92
        6
 72
     1
 73
     1
 93
        2
 10
18.06475505589733
 20
3.621777428888222
 42
-1.0
 10
14.76666222973249
 20
3.621777428888222
 42
-1.0
 97
        1
330
163D
 75
     0
 76
     1
 47
0.0392597581883742
 98
        8
 10
2.217340335895904
 20
8.88548731296629
 10
2.217340335895904
 20
8.88548731296629
 10
2.217340335895904
 20
8.88548731296629
 10
8.654998273965695
 20
10.48403451227921
 10
8.654998273965695
 20
10.48403451227921
 10
16.65081549283477
 20
10.52502310076878
 10
16.65081549283477
 20
10.52502310076878
 10
16.65081549283477
 20
10.52502310076878
450
        0
451
        0
460
0.0
461
0.0
452
        1
462
1.0
453
        2
463
0.0
 63
     5
421
      255
463
1.0
 63
     7
421
 16777215
470
LINEAR
1001
ACAD
1010
0.0
1020
0.0
1030
0.0
  0
CIRCLE
  5
163C
102
{ACAD_REACTORS
330
163B
102
}
330
1639
100
AcDbEntity
  8
AM_8
100
AcDbCircle
 10
16.41570864281491
 20
3.621777428888222
 30
0.0
 40
2.381955930007939
  0
CIRCLE
  5
163D
102
{ACAD_REACTORS
330
163B
102
}
330
1639
100
AcDbEntity
  8
AM_8
100
AcDbCircle
 10
16.41570864281491
 20
3.621777428888222
 30
0.0
 40
1.649046413082418
  0
LWPOLYLINE
  5
163E
102
{ACAD_REACTORS
330
163B
102
}
330
1639
100
AcDbEntity
  8
AM_8
100
AcDbPolyline
 90
        4
 70
     1
 43
0.0
 10
11.09468207415784
 20
2.797254222346978
 42
-3.664441495333134
 10
11.07924682436687
 20
4.472475335443292
 10
11.71403969512569
 20
4.838973170255556
 42
3.685001202565794
 10
11.72940033449071
 20
2.430799463884227
  0
LWPOLYLINE
  5
163F
102
{ACAD_REACTORS
330
163B
102
}
330
1639
100
AcDbEntity
  8
AM_8
100
AcDbPolyline
 90
        4
 70
     1
 43
0.0
 10
6.749142654406121
 20
13.81753928161228
 10
6.749142654406121
 20
0.0
 10
12.58398932241152
 20
0.0
 10
12.58398932241152
 20
13.81753928161228
  0
LWPOLYLINE
  5
1640
102
{ACAD_REACTORS
330
163B
102
}
330
1639
100
AcDbEntity
  8
AM_8
100
AcDbPolyline
 90
        4
 70
     1
 43
0.0
 10
19.33313197681759
 20
13.81753928161228
 10
19.33313197681759
 20
0.0
 10
13.49828530881222
 20
0.0
 10
13.49828530881222
 20
13.81753928161228
  0
LWPOLYLINE
  5
1641
102
{ACAD_REACTORS
330
163B
102
}
330
1639
100
AcDbEntity
  8
AM_8
100
AcDbPolyline
 90
        7
 70
     1
 43
0.0
 10
1.268442047309008
 20
1.20776271103314
 42
-0.0323236910300514
 10
1.31456640946034
 20
1.868792671041205
 10
4.52028025854512
 20
1.868792671041205
 42
-0.0323236910300515
 10
4.566404620696332
 20
1.20776271103314
 10
5.299322278505158
 20
1.20776271103314
 42
0.2369604974400691
 10
2.917423334002663
 20
5.899795014131328
 42
0.2369604974400691
 10
0.5355243895001536
 20
1.20776271103314
  0
LWPOLYLINE
  5
1642
102
{ACAD_REACTORS
330
163B
102
}
330
1639
100
AcDbEntity
  8
AM_8
100
AcDbPolyline
 90
        4
 70
     1
 43
0.0
 10
0.0
 20
13.81753928161228
 10
0.0
 20
0.0
 10
5.83484666800534
 20
0.0
 10
5.83484666800534
 20
13.81753928161228
  0
LWPOLYLINE
  5
1643
102
{ACAD_REACTORS
330
163B
102
}
330
1639
100
AcDbEntity
  8
AM_8
100
AcDbPolyline
 90
        3
 70
     1
 43
0.0
 10
2.917423334002755
 20
4.950343243528891
 42
-0.1369919174131033
 10
4.366098920254252
 20
2.601702187966736
 10
1.468747747751102
 20
2.601702187966736
 42
-0.136991917413112
  0
ENDBLK
  5
1644
330
1639
100
AcDbEntity
  8
0
100
AcDbBlockEnd
  0
BLOCK
  5
1646
330
1645
100
AcDbEntity
  8
0
100
AcDbBlockBegin
  2
aendzeil
 70
     2
 10
0.0
 20
0.0
 30
0.0
  3
aendzeil
  1

  0
ATTDEF
  5
1647
330
1645
100
AcDbEntity
  8
RAHM2
100
AcDbText
 10
-53.17129684630285
 20
0.758766263726443
 30
0.0
 40
2.500000000000367
  1

 41
0.9
100
AcDbAttributeDefinition
280
     0
  3
Zustand
  2
REVI
 70
     0
280
     0
  0
ATTDEF
  5
1648
330
1645
100
AcDbEntity
  8
RAHM2
100
AcDbText
 10
-45.55129684630284
 20
0.758766263726443
 30
0.0
 40
2.500000000000367
  1

 41
0.9
100
AcDbAttributeDefinition
280
     0
  3
Änderung
  2
CHNR
 70
     0
280
     0
  0
ATTDEF
  5
1649
330
1645
100
AcDbEntity
  8
RAHM2
100
AcDbText
 10
-26.50129684630284
 20
0.758766263726443
 30
0.0
 40
2.500000000000367
  1

 41
0.9
100
AcDbAttributeDefinition
280
     0
  3
Datum
  2
CRDA
 70
     0
280
     0
  0
ATTDEF
  5
164A
330
1645
100
AcDbEntity
  8
RAHM2
100
AcDbText
 10
-13.13985549000503
 20
0.8127940719140269
 30
0.0
 40
2.500000000000367
  1

 41
0.7635062867386634
 72
     5
 11
-7.318120053621868
 21
0.8127940719140269
 31
0.0
100
AcDbAttributeDefinition
280
     0
  3
Name
  2
CRNA
 70
     0
280
     0
  0
ATTDEF
  5
164B
330
1645
100
AcDbEntity
  8
RAHM2
100
AcDbText
 10
-6.498796846302838
 20
0.758766263726443
 30
0.0
 40
2.500000000000367
  1

 41
0.9
100
AcDbAttributeDefinition
280
     0
  3
Norm
  2
NORM
 70
     0
280
     0
  0
ENDBLK
  5
164C
330
1645
100
AcDbEntity
  8
0
100
AcDbBlockEnd
  0
BLOCK
  5
164F
330
164D
100
AcDbEntity
  8
0
100
AcDbBlockBegin
  2
ACO-SF02-KL
 70
     2
 10
0.0
 20
0.0
 30
0.0
  3
ACO-SF02-KL
  1

  0
ATTDEF
  5
1650
330
164D
100
AcDbEntity
  8
AM_BOR
 62
     2
370
    35
100
AcDbText
 10
-64.85041433486502
 20
50.40908037512629
 30
0.0
 40
3.0
  1
-
 72
     1
 11
-63.80041433486502
 21
50.40908037512629
 31
0.0
100
AcDbAttributeDefinition
280
     0
  3
Maßstab
  2
GEN-TITLE-SCA{5.42}
 70
     0
280
     0
1001
GENIUS_GENTRA_14
1002
{
1070
     3
1000
GENTRAPR,%s,(GENMSG gendwg 83)
1000
Maßstab
1000
DEU
1070
     0
1070
     0
1002
}
  0
ATTDEF
  5
1651
330
164D
100
AcDbEntity
  8
AM_BOR
 62
     1
370
    25
100
AcDbText
 10
-77.18903296753727
 20
1.055184394999855
 30
0.0
 40
2.500000000000367
  1

 41
0.9
100
AcDbAttributeDefinition
280
     0
  3
Ersatz
  2
F11
 70
     0
280
     0
  0
MTEXT
  5
1652
330
164D
100
AcDbEntity
  8
RAHM2
100
AcDbMText
 10
-85.14759485471326
 20
14.46334508310382
 30
0.0
 40
2.0
 41
11.91257244082952
 46
0.0
 71
     4
 72
     5
  1
Zeichnungsnummer
 73
     1
 44
1.0
  0
LINE
  5
1653
330
164D
100
AcDbEntity
  8
AM_BOR
 62
     1
370
    25
100
AcDbLine
 10
-86.35999999999999
 20
48.66000000000008
 30
0.0
 11
0.0
 21
48.66000000000005
 31
0.0
  0
LINE
  5
1654
330
164D
100
AcDbEntity
  8
AM_BOR
 62
     2
370
    35
100
AcDbLine
 10
-182.88
 20
38.07000000000002
 30
0.0
 11
0.0
 21
38.07000000000003
 31
0.0
  0
LINE
  5
1655
330
164D
100
AcDbEntity
  8
AM_BOR
 62
     2
370
    35
100
AcDbLine
 10
-129.54
 20
16.92000000000003
 30
0.0
 11
0.0
 21
16.92000000000003
 31
0.0
  0
POLYLINE
  5
1656
330
164D
100
AcDbEntity
  8
0
100
AcDb2dPolyline
 66
     1
 10
0.0
 20
0.0
 30
0.0
 70
     1
  0
VERTEX
  5
1657
330
1656
100
AcDbEntity
  8
0
100
AcDbVertex
100
AcDb2dVertex
 10
-182.88
 20
0.0
 30
0.0
  0
VERTEX
  5
1658
330
1656
100
AcDbEntity
  8
0
100
AcDbVertex
100
AcDb2dVertex
 10
0.0
 20
0.0
 30
0.0
  0
VERTEX
  5
1659
330
1656
100
AcDbEntity
  8
0
100
AcDbVertex
100
AcDb2dVertex
 10
0.0
 20
54.99000000000001
 30
0.0
  0
VERTEX
  5
165A
330
1656
100
AcDbEntity
  8
0
100
AcDbVertex
100
AcDb2dVertex
 10
-182.88
 20
54.99000000000004
 30
0.0
  0
SEQEND
  5
165B
330
1656
100
AcDbEntity
  8
0
  0
LINE
  5
165C
330
164D
100
AcDbEntity
  8
AM_BOR
 62
     1
370
    25
100
AcDbLine
 10
-182.88
 20
4.230000000000018
 30
0.0
 11
0.0
 21
4.230000000000018
 31
0.0
  0
TEXT
  5
165D
330
164D
100
AcDbEntity
  8
0
100
AcDbText
 10
-182.8071414657317
 20
71.61199315718228
 30
0.0
 40
3.5
  1
Änderungen nur über CAD zulässig
100
AcDbText
  0
MTEXT
  5
165E
330
164D
100
AcDbEntity
  8
RAHM2
100
AcDbMText
 10
-174.537912928504
 20
2.115000000000023
 30
0.0
 40
2.0
 41
11.21910417767216
 46
0.0
 71
     4
 72
     5
  1
Änderung
 73
     1
 44
1.0
  0
LINE
  5
165F
330
164D
100
AcDbEntity
  8
AM_BOR
 62
     1
370
    25
100
AcDbLine
 10
-182.88
 20
12.69000000000003
 30
0.0
 11
-129.54
 21
12.69000000000004
 31
0.0
  0
LINE
  5
1660
330
164D
100
AcDbEntity
  8
AM_BOR
 62
     1
370
    25
100
AcDbLine
 10
-182.88
 20
16.92000000000001
 30
0.0
 11
-129.54
 21
16.92000000000003
 31
0.0
  0
LINE
  5
1661
330
164D
100
AcDbEntity
  8
AM_BOR
 62
     1
370
    25
100
AcDbLine
 10
-182.88
 20
21.15000000000003
 30
0.0
 11
-129.54
 21
21.15000000000003
 31
0.0
  0
LINE
  5
1662
330
164D
100
AcDbEntity
  8
AM_BOR
 62
     1
370
    25
100
AcDbLine
 10
-182.88
 20
8.460000000000022
 30
0.0
 11
-129.54
 21
8.460000000000036
 31
0.0
  0
LINE
  5
1663
330
164D
100
AcDbEntity
  8
AM_BOR
 62
     1
370
    25
100
AcDbLine
 10
-182.88
 20
25.38000000000002
 30
0.0
 11
-86.35999999999999
 21
25.38000000000002
 31
0.0
  0
LINE
  5
1664
330
164D
100
AcDbEntity
  8
AM_BOR
 62
     1
370
    25
100
AcDbLine
 10
-182.88
 20
29.61000000000002
 30
0.0
 11
-86.35999999999999
 21
29.61000000000002
 31
0.0
  0
LINE
  5
1665
330
164D
100
AcDbEntity
  8
AM_BOR
 62
     1
370
    25
100
AcDbLine
 10
-182.88
 20
33.84000000000003
 30
0.0
 11
-86.35999999999999
 21
33.84000000000003
 31
0.0
  0
LINE
  5
1666
330
164D
100
AcDbEntity
  8
AM_BOR
 62
     1
370
    25
100
AcDbLine
 10
-175.26
 20
38.07000000000002
 30
0.0
 11
-175.26
 21
0.0
 31
0.0
  0
MTEXT
  5
1667
330
164D
100
AcDbEntity
  8
RAHM2
100
AcDbMText
 10
-182.157912928504
 20
2.115000000000023
 30
0.0
 40
2.0
 41
11.21910417767216
 46
0.0
 71
     4
 72
     5
  1
Zust.
 73
     1
 44
1.0
  0
MTEXT
  5
1668
330
164D
100
AcDbEntity
  8
RAHM2
100
AcDbMText
 10
-181.4767878194093
 20
54.17857627136107
 30
0.0
 40
2.399999999999999
 41
24.57
 46
0.0
 71
     1
 72
     5
  1
Maße in (...)\Pgelten nicht\Pfür die\PFertigung
 73
     1
 44
1.0
  0
LINE
  5
1669
330
164D
100
AcDbEntity
  8
RAHM2
100
AcDbLine
 10
-142.875
 20
38.07000000000003
 30
0.0
 11
-142.875
 21
0.0
 31
0.0
  0
LINE
  5
166A
330
164D
100
AcDbEntity
  8
AM_BOR
 62
     2
370
    35
100
AcDbLine
 10
-86.35999999999999
 20
54.99000000000006
 30
0.0
 11
-86.35999999999999
 21
0.0
 31
0.0
  0
LINE
  5
166B
330
164D
100
AcDbEntity
  8
AM_BOR
 62
     1
370
    25
100
AcDbLine
 10
-156.21
 20
38.07000000000004
 30
0.0
 11
-156.21
 21
0.0000000000000142
 31
0.0
  0
LINE
  5
166C
330
164D
100
AcDbEntity
  8
AM_BOR
 62
     2
370
    35
100
AcDbLine
 10
-129.54
 20
21.15000000000003
 30
0.0
 11
-129.54
 21
0.0
 31
0.0
  0
ATTDEF
  5
166D
330
164D
100
AcDbEntity
  8
AM_BOR
 62
     1
370
    25
100
AcDbText
 10
-120.3690329675373
 20
1.055184394999855
 30
0.0
 40
2.500000000000367
  1

 41
0.9
100
AcDbAttributeDefinition
280
     0
  3
Ursprung
  2
URSPRUNG
 70
     0
280
     0
  0
MTEXT
  5
166E
330
164D
100
AcDbEntity
  8
RAHM2
100
AcDbMText
 10
-142.152912928504
 20
2.115000000000023
 30
0.0
 40
2.0
 41
11.21910417767216
 46
0.0
 71
     4
 72
     5
  1
Name
 73
     1
 44
1.0
  0
MTEXT
  5
166F
330
164D
100
AcDbEntity
  8
RAHM2
100
AcDbMText
 10
-155.487912928504
 20
2.115000000000023
 30
0.0
 40
2.0
 41
11.21910417767216
 46
0.0
 71
     4
 72
     5
  1
Datum
 73
     1
 44
1.0
  0
MTEXT
  5
1670
330
164D
100
AcDbEntity
  8
RAHM2
100
AcDbMText
 10
-128.817912928504
 20
2.115000000000023
 30
0.0
 40
2.0
 41
11.21910417767216
 46
0.0
 71
     4
 72
     5
  1
Urspr.
 73
     1
 44
1.0
  0
MTEXT
  5
1671
330
164D
100
AcDbEntity
  8
RAHM2
100
AcDbMText
 10
-85.63791292850398
 20
2.115000000000023
 30
0.0
 40
2.0
 41
11.21910417767216
 46
0.0
 71
     4
 72
     5
  1
Ers. f.
 73
     1
 44
1.0
  0
MTEXT
  5
1672
330
164D
100
AcDbEntity
  8
RAHM2
100
AcDbMText
 10
-128.1367878194093
 20
54.17857627136109
 30
0.0
 40
2.399999999999999
 41
22.38289646142594
 46
0.0
 71
     1
 72
     5
  1
Zul. Abw.\Pnach PW\P0-200.680
 73
     1
 44
1.0
  0
LINE
  5
1673
330
164D
100
AcDbEntity
  8
AM_BOR
 62
     1
370
    25
100
AcDbLine
 10
-129.54
 20
21.15000000000003
 30
0.0
 11
-86.35999999999999
 21
21.15000000000003
 31
0.0
  0
MTEXT
  5
1674
330
164D
100
AcDbEntity
  8
RAHM2
100
AcDbMText
 10
-128.817912928504
 20
31.72500000000004
 30
0.0
 40
2.0
 41
11.21910417767216
 46
0.0
 71
     4
 72
     5
  1
Gez.:
 73
     1
 44
1.0
  0
LINE
  5
1675
330
164D
100
AcDbEntity
  8
AM_BOR
 62
     2
370
    35
100
AcDbLine
 10
-129.54
 20
54.99000000000006
 30
0.0
 11
-129.54
 21
21.15000000000003
 31
0.0
  0
LINE
  5
1676
330
164D
100
AcDbEntity
  8
AM_BOR
 62
     1
370
    25
100
AcDbLine
 10
-119.38
 20
38.07000000000002
 30
0.0
 11
-119.3799999999999
 21
21.15000000000003
 31
0.0
  0
MTEXT
  5
1677
330
164D
100
AcDbEntity
  8
RAHM2
100
AcDbMText
 10
-128.817912928504
 20
23.26500000000003
 30
0.0
 40
2.0
 41
11.21910417767216
 46
0.0
 71
     4
 72
     5
  1
{\T0.8;Freigabe\W0.8;:}
 73
     1
 44
1.0
  0
MTEXT
  5
1678
330
164D
100
AcDbEntity
  8
RAHM2
100
AcDbMText
 10
-128.817912928504
 20
27.49500000000002
 30
0.0
 40
2.0
 41
11.21910417767216
 46
0.0
 71
     4
 72
     5
  1
Gepr.:
 73
     1
 44
1.0
  0
MTEXT
  5
1679
330
164D
100
AcDbEntity
  8
RAHM2
100
AcDbMText
 10
-154.8067878194093
 20
54.17857627136106
 30
0.0
 40
2.399999999999999
 41
24.57
 46
0.0
 71
     1
 72
     5
  1
Werkstück-\PKanten\Pnach PW\P0-200.750
 73
     1
 44
1.0
  0
LINE
  5
167A
330
164D
100
AcDbEntity
  8
RAHM2
100
AcDbLine
 10
-156.21
 20
38.07000000000004
 30
0.0
 11
-156.21
 21
54.99000000000003
 31
0.0
  0
LINE
  5
167B
330
164D
100
AcDbEntity
  8
AM_BOR
 62
     1
370
    25
100
AcDbLine
 10
-104.14
 20
54.99000000000006
 30
0.0
 11
-104.14
 21
16.92000000000003
 31
0.0
  0
ATTDEF
  5
167C
330
164D
100
AcDbEntity
  8
AM_BOR
 62
     1
370
    25
100
AcDbText
 10
-95.24999999999998
 20
30.47499999999984
 30
0.0
 40
2.500000000000367
  1

 41
0.8
 72
     1
 11
-95.24999999999998
 21
31.72500000000002
 31
0.0
100
AcDbAttributeDefinition
280
     0
  3
Bearbeitername
  2
F8
 70
     0
 74
     2
280
     0
  0
ATTDEF
  5
167D
330
164D
100
AcDbEntity
  8
AM_BOR
 62
     1
370
    25
100
AcDbText
 10
-111.76
 20
30.47499999999984
 30
0.0
 40
2.500000000000367
  1

 41
0.9
 72
     1
 11
-111.76
 21
31.72500000000002
 31
0.0
100
AcDbAttributeDefinition
280
     0
  3
Bearbeiterdatum
  2
F9
 70
     0
 74
     2
280
     0
  0
ATTDEF
  5
167E
330
164D
100
AcDbEntity
  8
AM_BOR
 62
     1
370
    25
100
AcDbText
 10
-95.24999999999998
 20
26.24499999999982
 30
0.0
 40
2.500000000000367
  1

 41
0.8
 72
     1
 11
-95.24999999999998
 21
27.49500000000001
 31
0.0
100
AcDbAttributeDefinition
280
     0
  3
Prüfname
  2
F21
 70
     0
 74
     2
280
     0
  0
ATTDEF
  5
167F
330
164D
100
AcDbEntity
  8
AM_BOR
 62
     1
370
    25
100
AcDbText
 10
-111.7599999999999
 20
26.24499999999982
 30
0.0
 40
2.500000000000367
  1

 41
0.9
 72
     1
 11
-111.7599999999999
 21
27.49500000000001
 31
0.0
100
AcDbAttributeDefinition
280
     0
  3
Prüfdatum
  2
F22
 70
     0
 74
     2
280
     0
  0
ATTDEF
  5
1680
330
164D
100
AcDbEntity
  8
AM_BOR
 62
     2
370
    35
100
AcDbText
 10
-83.93278926340224
 20
18.99958139598453
 30
0.0
 40
5.0
  1

 41
0.8
100
AcDbAttributeDefinition
280
     0
  3
Benenn2
  2
F3
 70
     0
280
     0
  0
ATTDEF
  5
1681
330
164D
100
AcDbEntity
  8
AM_BOR
100
AcDbText
 10
-83.95094248081989
 20
26.50208258201252
 30
0.0
 40
5.00000000000049
  1

 41
0.8
100
AcDbAttributeDefinition
280
     0
  3
Benenn1
  2
F2
 70
     0
280
     0
  0
MTEXT
  5
1682
330
164D
100
AcDbEntity
  8
RAHM2
100
AcDbMText
 10
-98.97179931943435
 20
35.95500000000003
 30
0.0
 40
2.0
 41
7.624463545517301
 46
0.0
 71
     4
 72
     5
  1
Name
 73
     1
 44
1.0
  0
MTEXT
  5
1683
330
164D
100
AcDbEntity
  8
RAHM2
100
AcDbMText
 10
-102.7367878194093
 20
54.17857627136109
 30
0.0
 40
2.2
 41
15.94221488455651
 46
0.0
 71
     1
 72
     5
  1
Oberflächen\P\H2.4;DIN ISO\P1302
 73
     1
 44
1.0
  0
MTEXT
  5
1684
330
164D
100
AcDbEntity
  8
RAHM2
100
AcDbMText
 10
-116.0330976821806
 20
35.95500000000003
 30
0.0
 40
2.0
 41
7.499471710434931
 46
0.0
 71
     4
 72
     5
  1
Datum
 73
     1
 44
1.0
  0
MTEXT
  5
1685
330
164D
100
AcDbEntity
  8
RAHM2
100
AcDbMText
 10
-84.77897137392389
 20
43.36500000000005
 30
0.0
 40
2.0
 41
11.22
 46
0.0
 71
     4
 72
     5
  1
Werkstoff\PRohteil-Nr.
 73
     1
 44
1.0
  0
MTEXT
  5
1686
330
164D
100
AcDbEntity
  8
RAHM2
100
AcDbMText
 10
-85.14759485471325
 20
35.61334508310381
 30
0.0
 40
2.0
 41
11.91257244082952
 46
0.0
 71
     4
 72
     5
  1
Benennung
 73
     1
 44
1.0
  0
MTEXT
  5
1687
330
164D
100
AcDbEntity
  8
RAHM2
100
AcDbMText
 10
-84.91456038966111
 20
51.82500000000008
 30
0.0
 40
2.0
 41
11.21910417767216
 46
0.0
 71
     4
 72
     5
  1
Maßstab
 73
     1
 44
1.0
  0
LINE
  5
1688
330
164D
100
AcDbEntity
  8
AM_BOR
 62
     1
370
    25
100
AcDbLine
 10
-10.16
 20
16.92000000000003
 30
0.0
 11
-10.16
 21
0.0
 31
0.0
  0
ATTDEF
  5
1689
330
164D
100
AcDbEntity
  8
AM_BOR
 62
     2
370
    35
100
AcDbText
 10
-16.65999999999999
 20
6.239436680117933
 30
0.0
 40
5.0
  1

 41
0.8
 72
     1
 11
-16.65999999999999
 21
6.239436680117933
 31
0.0
100
AcDbAttributeDefinition
280
     0
  3
Änderungsindex
  2
F1B
 70
     0
280
     0
  0
LINE
  5
168A
330
164D
100
AcDbEntity
  8
RAHM3
100
AcDbLine
 10
-23.16
 20
16.92000000000003
 30
0.0
 11
-23.16
 21
4.230000000000018
 31
0.0
  0
ATTDEF
  5
168B
330
164D
100
AcDbEntity
  8
AM_BOR
 62
     1
370
    25
100
AcDbText
 10
-34.9890329675373
 20
1.055184394999855
 30
0.0
 40
2.500000000000367
  1

 41
0.9
100
AcDbAttributeDefinition
280
     0
  3
Ersetzt
  2
F12
 70
     0
280
     0
  0
LINE
  5
168C
330
164D
100
AcDbEntity
  8
RAHM2
100
AcDbLine
 10
-44.15999999999999
 20
4.230000000000018
 30
0.0
 11
-44.15999999999999
 21
0.0
 31
0.0
  0
MTEXT
  5
168D
330
164D
100
AcDbEntity
  8
RAHM2
100
AcDbMText
 10
-43.437912928504
 20
2.115000000000023
 30
0.0
 40
2.0
 41
11.21910417767216
 46
0.0
 71
     4
 72
     5
  1
Ers. d.
 73
     1
 44
1.0
  0
ATTDEF
  5
168E
330
164D
100
AcDbEntity
  8
AM_BOR
 62
     1
370
    25
100
AcDbText
 10
-3.678679933904587
 20
5.0457767515923
 30
0.0
 40
2.500000000000367
  1
1
 41
0.9
 72
     1
 11
-3.116179933904504
 21
6.295776751592484
 31
0.0
100
AcDbAttributeDefinition
280
     0
  3
von Blatt
  2
VONBLATT
 70
     0
 74
     2
280
     0
  0
LINE
  5
168F
330
164D
100
AcDbEntity
  8
AM_BOR
 62
     1
370
    25
100
AcDbLine
 10
-10.15999999999997
 20
8.460000000000036
 30
0.0
 11
0.0
 21
8.460000000000022
 31
0.0
  0
MTEXT
  5
1690
330
164D
100
AcDbEntity
  8
RAHM2
100
AcDbMText
 10
-9.746833214585421
 20
6.154926572906106
 30
0.0
 40
2.0
 41
4.600541847406361
 46
0.0
 71
     4
 72
     5
  1
v.Bl.
 73
     1
 44
1.0
  0
ATTDEF
  5
1691
330
164D
100
AcDbEntity
  8
AM_BOR
 62
     2
370
    35
100
AcDbText
 10
-29.35453274468528
 20
50.40908037512628
 30
0.0
 40
3.0
  1
-
 41
0.8
 72
     1
 11
-28.51453274468528
 21
50.40908037512628
 31
0.0
100
AcDbAttributeDefinition
280
     0
  3
Gewicht
  2
F60
 70
     0
280
     0
  0
ATTDEF
  5
1692
330
164D
100
AcDbEntity
  8
AM_BOR
 62
     2
370
    35
100
AcDbText
 10
-62.67498919895991
 20
41.94908037512625
 30
0.0
 40
3.0
  1
-
 41
0.8
100
AcDbAttributeDefinition
280
     0
  3
Werkstoff/Rohrteil-Nr.
  2
ROHRTEILNR
 70
     0
280
     0
  0
MTEXT
  5
1693
330
164D
100
AcDbEntity
  8
RAHM2
100
AcDbMText
 10
-49.35456038966115
 20
51.82500000000006
 30
0.0
 40
2.0
 41
11.21910417767216
 46
0.0
 71
     4
 72
     5
  1
Gewicht
 73
     1
 44
1.0
  0
LINE
  5
1694
330
164D
100
AcDbEntity
  8
AM_BOR
 62
     1
370
    25
100
AcDbLine
 10
-50.80000000000001
 20
54.99000000000006
 30
0.0
 11
-50.80000000000001
 21
48.66000000000008
 31
0.0
  0
MTEXT
  5
1695
330
164D
100
AcDbEntity
  8
RAHM2
100
AcDbMText
 10
-21.94759485471327
 20
14.46334508310382
 30
0.0
 40
2.0
 41
11.91
 46
0.0
 71
     4
 72
     5
  1
Index
 73
     1
 44
1.0
  0
MTEXT
  5
1696
330
164D
100
AcDbEntity
  8
RAHM2
100
AcDbMText
 10
-7.856144535752036
 20
14.61821708041282
 30
0.0
 40
2.0
 41
5.723485139280796
 46
0.0
 71
     4
 72
     5
  1
Blatt
 73
     1
 44
1.0
  0
ATTDEF
  5
1697
330
164D
100
AcDbEntity
  8
AM_BOR
 62
     2
370
    35
100
AcDbText
 10
-5.919999999999998
 20
9.238696270187517
 30
0.0
 40
3.0
  1
-
 41
0.8
 72
     1
 11
-5.079999999999998
 21
9.238696270187517
 31
0.0
100
AcDbAttributeDefinition
280
     0
  3
Blatt
  2
SHNR
 70
     0
280
     0
  0
LINE
  5
1698
330
164D
100
AcDbEntity
  8
AM_BOR
 62
     1
370
    25
100
AcDbLine
 10
-10.15999999999999
 20
54.99000000000001
 30
0.0
 11
-10.15999999999999
 21
38.07000000000003
 31
0.0
  0
LINE
  5
1699
330
164D
100
AcDbEntity
  8
RAHM2
100
AcDbLine
 10
-5.080000000000012
 20
43.36000000000002
 30
0.0
 11
-5.080000000000012
 21
38.07000000000003
 31
0.0
  0
LINE
  5
169A
330
164D
100
AcDbEntity
  8
AM_BOR
 62
     2
370
    35
100
AcDbLine
 10
-10.16000000000002
 20
43.36000000000002
 30
0.0
 11
0.0
 21
43.36000000000002
 31
0.0
  0
MTEXT
  5
169B
330
164D
100
AcDbEntity
  8
RAHM2
100
AcDbMText
 10
-5.079999999999995
 20
51.82500000000003
 30
0.0
 40
1.8
 41
11.29
 46
0.0
 71
     5
 72
     5
  1
weitere\PSprachen
 73
     1
 44
1.0
  0
ATTDEF
  5
169C
330
164D
100
AcDbEntity
  8
AM_BOR
 62
     2
370
    35
100
AcDbText
 10
-5.972785295520449
 20
44.6097237062491
 30
0.0
 40
3.0
  1
-
 41
0.8
 72
     1
 11
-5.132785295520449
 21
44.6097237062491
 31
0.0
100
AcDbAttributeDefinition
280
     0
  3
Sprache
  2
LANG
 70
     0
280
     0
  0
ATTDEF
  5
169D
330
164D
100
AcDbEntity
  8
AM_BOR
 62
     2
370
    35
100
AcDbText
 10
-83.93278926340224
 20
6.072709825831793
 30
0.0
 40
5.0
  1
-
 41
0.8
100
AcDbAttributeDefinition
280
     0
  3
Zeichnungsnummer
  2
F1
 70
     0
280
     0
  0
INSERT
  5
169E
330
164D
100
AcDbEntity
  8
0
100
AcDbBlockReference
 66
     1
  2
aendzeil
 10
-129.54
 20
4.230000000000018
 30
0.0
  0
ATTRIB
  5
169F
330
169E
100
AcDbEntity
  8
RAHM2
100
AcDbText
 10
-182.7112968463028
 20
4.988766263726461
 30
0.0
 40
2.500000000000367
  1

 41
0.9
100
AcDbAttribute
280
     0
  2
REVI
 70
     0
280
     0
  0
ATTRIB
  5
16A0
330
169E
100
AcDbEntity
  8
RAHM2
100
AcDbText
 10
-175.0912968463028
 20
4.988766263726461
 30
0.0
 40
2.500000000000367
  1

 41
0.9
100
AcDbAttribute
280
     0
  2
CHNR
 70
     0
280
     0
  0
ATTRIB
  5
16A1
330
169E
100
AcDbEntity
  8
RAHM2
100
AcDbText
 10
-156.0412968463028
 20
4.988766263726461
 30
0.0
 40
2.500000000000367
  1

 41
0.9
100
AcDbAttribute
280
     0
  2
CRDA
 70
     0
280
     0
  0
ATTRIB
  5
16A2
330
169E
100
AcDbEntity
  8
RAHM2
100
AcDbText
 10
-142.679855490005
 20
5.042794071914045
 30
0.0
 40
2.500000000000367
  1

 41
0.7635062867386634
 72
     5
 11
-136.8581200536218
 21
5.042794071914045
 31
0.0
100
AcDbAttribute
280
     0
  2
CRNA
 70
     0
280
     0
  0
ATTRIB
  5
16A3
330
169E
100
AcDbEntity
  8
RAHM2
100
AcDbText
 10
-136.0387968463028
 20
4.988766263726461
 30
0.0
 40
2.500000000000367
  1

 41
0.9
100
AcDbAttribute
280
     0
  2
NORM
 70
     0
280
     0
  0
SEQEND
  5
16A4
330
169E
100
AcDbEntity
  8
0
  0
ATTDEF
  5
16A5
330
164D
100
AcDbEntity
  8
TEXT25
100
AcDbText
 10
-181.3350410344388
 20
4.838012658558938
 30
0.0
 40
2.0
  1

 41
0.8
  7
TEXT20
100
AcDbAttributeDefinition
280
     0
  3
Index vv.:
  2
F72
 70
     0
280
     0
  0
ATTDEF
  5
16A6
330
164D
100
AcDbEntity
  8
TEXT25
100
AcDbText
 10
-175.0794391370477
 20
4.838012658558939
 30
0.0
 40
2.0
  1

 41
0.8
  7
TEXT20
100
AcDbAttributeDefinition
280
     0
  3
Datum vv.:
  2
F74
 70
     0
280
     0
  0
ATTDEF
  5
16A7
330
164D
100
AcDbEntity
  8
TEXT25
100
AcDbText
 10
-142.1827679993665
 20
5.138012658558963
 30
0.0
 40
2.0
  1

 41
0.8
  7
TEXT20
100
AcDbAttributeDefinition
280
     0
  3
Name vv.:
  2
F75
 70
     0
280
     0
  0
ATTDEF
  5
16A8
330
164D
100
AcDbEntity
  8
TEXT25
100
AcDbText
 10
-181.4181668238402
 20
9.711801983794956
 30
0.0
 40
2.0
  1

 41
0.8
  7
TEXT20
100
AcDbAttributeDefinition
280
     0
  3
Index v.:
  2
F68
 70
     0
280
     0
  0
ATTDEF
  5
16A9
330
164D
100
AcDbEntity
  8
TEXT25
100
AcDbText
 10
-181.3446667567203
 20
14.00731874193574
 30
0.0
 40
2.0
  1

 41
0.8
  7
TEXT20
100
AcDbAttributeDefinition
280
     0
  3
Index l.:
  2
F64
 70
     0
280
     0
  0
ATTDEF
  5
16AA
330
164D
100
AcDbEntity
  8
TEXT25
100
AcDbText
 10
-175.0696725794327
 20
13.93817797706407
 30
0.0
 40
2.0
  1

 41
0.8
  7
TEXT20
100
AcDbAttributeDefinition
280
     0
  3
Datum l.:
  2
F66
 70
     0
280
     0
  0
ATTDEF
  5
16AB
330
164D
100
AcDbEntity
  8
TEXT25
100
AcDbText
 10
-175.1858351632956
 20
9.882816249346804
 30
0.0
 40
2.0
  1

 41
0.8
  7
TEXT20
100
AcDbAttributeDefinition
280
     0
  3
Datum v.:
  2
F70
 70
     0
280
     0
  0
ATTDEF
  5
16AC
330
164D
100
AcDbEntity
  8
TEXT25
100
AcDbText
 10
-142.1827679993665
 20
9.93801265855896
 30
0.0
 40
2.0
  1

 41
0.8
  7
TEXT20
100
AcDbAttributeDefinition
280
     0
  3
Name v.:
  2
F71
 70
     0
280
     0
  0
ATTDEF
  5
16AD
330
164D
100
AcDbEntity
  8
TEXT25
100
AcDbText
 10
-142.0928343804181
 20
13.6769768805521
 30
0.0
 40
2.0
  1

 41
0.8
  7
TEXT20
100
AcDbAttributeDefinition
280
     0
  3
Name l.:
  2
F67
 70
     0
280
     0
  0
TEXT
  5
16AE
330
164D
100
AcDbEntity
  8
0N
100
AcDbText
 10
-180.9233753026868
 20
63.6501209888693
 30
0.0
 40
3.5
  1
Zeichnungen größer darstellenden Maßstabes bzw. Einzelteilzeichnungen
 41
0.9
100
AcDbText
  0
LINE
  5
16AF
330
164D
100
AcDbEntity
  8
0
100
AcDbLine
 10
0.0
 20
69.98999999999999
 30
0.0
 11
-182.88
 21
69.98999999999999
 31
0.0
  0
TEXT
  5
16B0
330
164D
100
AcDbEntity
  8
0N
100
AcDbText
 10
-180.9233753026868
 20
57.63471067045306
 30
0.0
 40
3.5
  1
haben vorrangige Gültigkeit
 41
0.9
100
AcDbText
  0
LINE
  5
16B1
330
164D
100
AcDbEntity
  8
0
100
AcDbLine
 10
-182.88
 20
54.99000000000004
 30
0.0
 11
-182.88
 21
69.98999999999999
 31
0.0
  0
TEXT
  5
16B2
330
164D
100
AcDbEntity
  8
0N
100
AcDbText
 10
-109.6795815433127
 20
14.20496366599923
 30
0.0
 40
2.205
  1
ACO Haustechnik
 41
0.8
  7
Anschrift
100
AcDbText
  0
TEXT
  5
16B3
330
164D
100
AcDbEntity
  8
KOPF
100
AcDbText
 10
-109.5358042281258
 20
11.61803468207068
 30
0.0
 40
1.26
  1
ACO Passavant GmbH
  7
Anschrift
100
AcDbText
  0
TEXT
  5
16B4
330
164D
100
AcDbEntity
  8
KOPF
100
AcDbText
 10
-109.5358042281258
 20
9.561222342739062
 30
0.0
 40
1.26
  1
Ulsterstrasse 3
  7
Anschrift
100
AcDbText
  0
TEXT
  5
16B5
330
164D
100
AcDbEntity
  8
KOPF
100
AcDbText
 10
-109.5358042281258
 20
7.504410003407442
 30
0.0
 40
1.26
  1
36269 Philippsthal
  7
Anschrift
100
AcDbText
  0
TEXT
  5
16B6
330
164D
100
AcDbEntity
  8
KOPF
100
AcDbText
 10
-109.5358042281258
 20
5.447597664075821
 30
0.0
 40
1.26
  1
www.aco-haustechnik.de
  7
Anschrift
100
AcDbText
  0
MTEXT
  5
16B7
330
164D
100
AcDbEntity
  8
Sperrlayer
 62
     1
100
AcDbMText
 10
-165.5971743099973
 20
12.04562497477995
 30
0.0
 40
10.0
 41
771.0
 46
0.0
 71
     1
 72
     5
  1
VORABZUG - nicht FREIGEGEBEN !
  7
TEXT20
 11
0.9359123957970576
 21
0.3522328596162087
 31
0.0
 73
     1
 44
1.0
  0
INSERT
  5
16B8
330
164D
100
AcDbEntity
  8
AM_8
100
AcDbBlockReference
  2
ACO-logo
 10
-128.0078792361423
 20
4.722269700650571
 30
0.0
 41
0.8315999999999927
 42
0.8315999999999945
 43
0.8316
  0
ATTDEF
  5
16B9
330
164D
100
AcDbEntity
  8
AM_BOR
 62
     1
370
    25
100
AcDbText
 10
-95.24999999999998
 20
22.01499999999983
 30
0.0
 40
2.500000000000367
  1

 41
0.8
 72
     1
 11
-95.24999999999998
 21
23.26500000000002
 31
0.0
100
AcDbAttributeDefinition
280
     0
  3
Update von:
  2
F52
 70
     0
 74
     2
280
     0
  0
ATTDEF
  5
16BA
330
164D
100
AcDbEntity
  8
AM_BOR
 62
     1
370
    25
100
AcDbText
 10
-111.7599999999999
 20
22.01499999999983
 30
0.0
 40
2.500000000000367
  1

 41
0.9
 72
     1
 11
-111.7599999999999
 21
23.26500000000002
 31
0.0
100
AcDbAttributeDefinition
280
     0
  3
Update am:
  2
F53
 70
     0
 74
     2
280
     0
  0
ATTDEF
  5
16BB
330
164D
100
AcDbEntity
  8
TEXT25
100
AcDbText
 10
-155.7539958795371
 20
5.338012658558938
 30
0.0
 40
2.0
  1

 41
0.8
  7
TEXT20
100
AcDbAttributeDefinition
280
     0
  3
Benennung vv.:
  2
F73
 70
     0
280
     0
  0
ATTDEF
  5
16BC
330
164D
100
AcDbEntity
  8
TEXT25
100
AcDbText
 10
-155.4539958795371
 20
13.87697688055209
 30
0.0
 40
2.0
  1

 41
0.8
  7
TEXT20
100
AcDbAttributeDefinition
280
     0
  3
Bennenung l.:
  2
F65
 70
     0
280
     0
  0
ATTDEF
  5
16BD
330
164D
100
AcDbEntity
  8
TEXT25
100
AcDbText
 10
-155.7539958795371
 20
9.638012658558949
 30
0.0
 40
2.0
  1

 41
0.8
  7
TEXT20
100
AcDbAttributeDefinition
280
     0
  3
Benennung v.:
  2
F69
 70
     0
280
     0
  0
ENDBLK
  5
16BE
330
164D
100
AcDbEntity
  8
0
100
AcDbBlockEnd
  0
BLOCK
  5
2178
330
2177
100
AcDbEntity
  8
0
100
AcDbBlockBegin
  2
ACO_A2
 70
     0
 10
0.0
 20
0.0
 30
0.0
  3
ACO_A2
  1

  0
LINE
  5
2179
330
2177
100
AcDbEntity
  8
AM_BOR
 62
     1
370
    25
100
AcDbLine
 10
10.00000000000002
 20
410.0
 30
0.0
 11
584.0
 21
410.0
 31
0.0
  0
LINE
  5
217A
330
2177
100
AcDbEntity
  8
0
100
AcDbLine
 10
5.0
 20
5.0
 30
0.0
 11
5.000000000000024
 21
415.0
 31
0.0
  0
TEXT
  5
217B
330
2177
100
AcDbEntity
  8
0
 60
     1
100
AcDbText
 10
583.9999999999998
 20
5.0
 30
0.0
 40
3.5
  1
!GENTITLE-INSERT
100
AcDbText
  0
TEXT
  5
217C
330
2177
100
AcDbEntity
  8
0
 60
     1
100
AcDbText
 10
10.0
 20
10.00000000000005
 30
0.0
 40
3.5
  1
!GENTITLE-LL
100
AcDbText
  0
TEXT
  5
217D
330
2177
100
AcDbEntity
  8
0
 60
     1
100
AcDbText
 10
584.0
 20
410.0
 30
0.0
 40
3.5
  1
!GENTITLE-RU
100
AcDbText
  0
TEXT
  5
217E
330
2177
100
AcDbEntity
  8
0
 60
     1
100
AcDbText
 10
594.0
 20
420.0
 30
0.0
 40
3.5
  1
!GENTITLE-MAX
100
AcDbText
  0
LINE
  5
217F
330
2177
100
AcDbEntity
  8
AM_BOR
 62
     1
370
    25
100
AcDbLine
 10
593.9999999999998
 20
0.0
 30
0.0
 11
401.9999999999998
 21
0.0
 31
0.0
  0
LINE
  5
2180
330
2177
100
AcDbEntity
  8
AM_BOR
 62
     1
370
    25
100
AcDbLine
 10
331.1199999999999
 20
10.00000000000003
 30
0.0
 11
9.999999999999886
 21
10.00000000000007
 31
0.0
  0
LINE
  5
2181
330
2177
100
AcDbEntity
  8
AM_BOR
 62
     1
370
    25
100
AcDbLine
 10
444.2499999999999
 20
415.0
 30
0.0
 11
444.2499999999999
 21
410.0
 31
0.0
  0
LINE
  5
2182
330
2177
100
AcDbEntity
  8
AM_BOR
 62
     1
370
    25
100
AcDbLine
 10
516.6249999999998
 20
415.0
 30
0.0
 11
516.6249999999998
 21
410.0
 31
0.0
  0
TEXT
  5
2183
330
2177
100
AcDbEntity
  8
AM_BOR
 62
     1
370
    25
100
AcDbText
 10
480.0
 20
410.5
 30
0.0
 40
4.0
  1
7
100
AcDbText
  0
TEXT
  5
2184
330
2177
100
AcDbEntity
  8
AM_BOR
 62
     1
370
    25
100
AcDbText
 10
552.5
 20
410.5
 30
0.0
 40
4.0
  1
8
100
AcDbText
  0
TEXT
  5
2185
330
2177
100
AcDbEntity
  8
AM_BOR
 62
     1
370
    25
100
AcDbText
 10
407.5
 20
410.5
 30
0.0
 40
4.0
  1
6
100
AcDbText
  0
LINE
  5
2186
330
2177
100
AcDbEntity
  8
AM_BOR
 62
     1
370
    25
100
AcDbLine
 10
371.8749999999999
 20
415.0
 30
0.0
 11
371.8749999999999
 21
410.0
 31
0.0
  0
TEXT
  5
2187
330
2177
100
AcDbEntity
  8
AM_BOR
 62
     1
370
    25
100
AcDbText
 10
335.0
 20
410.5
 30
0.0
 40
4.0
  1
5
100
AcDbText
  0
LINE
  5
2188
330
2177
100
AcDbEntity
  8
AM_BOR
 62
     1
370
    25
100
AcDbLine
 10
82.37499999999991
 20
415.0
 30
0.0
 11
82.37499999999991
 21
410.0
 31
0.0
  0
LINE
  5
2189
330
2177
100
AcDbEntity
  8
AM_BOR
 62
     1
370
    25
100
AcDbLine
 10
154.7499999999999
 20
415.0
 30
0.0
 11
154.7499999999999
 21
410.0
 31
0.0
  0
LINE
  5
218A
330
2177
100
AcDbEntity
  8
AM_BOR
 62
     1
370
    25
100
AcDbLine
 10
227.1249999999999
 20
415.0
 30
0.0
 11
227.1249999999999
 21
410.0
 31
0.0
  0
LINE
  5
218B
330
2177
100
AcDbEntity
  8
AM_BOR
 62
     1
370
    25
100
AcDbLine
 10
299.4999999999999
 20
415.0
 30
0.0
 11
299.4999999999999
 21
410.0
 31
0.0
  0
TEXT
  5
218C
330
2177
100
AcDbEntity
  8
AM_BOR
 62
     1
370
    25
100
AcDbText
 10
45.50000000000002
 20
410.5
 30
0.0
 40
4.0
  1
1
100
AcDbText
  0
TEXT
  5
218D
330
2177
100
AcDbEntity
  8
AM_BOR
 62
     1
370
    25
100
AcDbText
 10
117.5
 20
410.5
 30
0.0
 40
4.0
  1
2
100
AcDbText
  0
TEXT
  5
218E
330
2177
100
AcDbEntity
  8
AM_BOR
 62
     1
370
    25
100
AcDbText
 10
190.5
 20
410.5
 30
0.0
 40
4.0
  1
3
100
AcDbText
  0
TEXT
  5
218F
330
2177
100
AcDbEntity
  8
AM_BOR
 62
     1
370
    25
100
AcDbText
 10
263.0
 20
410.5
 30
0.0
 40
4.0
  1
4
100
AcDbText
  0
LINE
  5
2190
330
2177
100
AcDbEntity
  8
AM_BOR
 62
     1
370
    25
100
AcDbLine
 10
588.9831138758759
 20
76.71791910685186
 30
0.0
 11
584.0
 21
76.71791910685186
 31
0.0
  0
LINE
  5
2191
330
2177
100
AcDbEntity
  8
AM_BOR
 62
     1
370
    25
100
AcDbLine
 10
588.9831138758759
 20
143.3779191068518
 30
0.0
 11
584.0
 21
143.3779191068518
 31
0.0
  0
LINE
  5
2192
330
2177
100
AcDbEntity
  8
AM_BOR
 62
     1
370
    25
100
AcDbLine
 10
588.9831138758759
 20
210.0379191068519
 30
0.0
 11
584.0
 21
210.0379191068519
 31
0.0
  0
LINE
  5
2193
330
2177
100
AcDbEntity
  8
AM_BOR
 62
     1
370
    25
100
AcDbLine
 10
588.9831138758759
 20
276.6979191068519
 30
0.0
 11
584.0
 21
276.6979191068519
 31
0.0
  0
LINE
  5
2194
330
2177
100
AcDbEntity
  8
AM_BOR
 62
     1
370
    25
100
AcDbLine
 10
588.9831138758759
 20
343.3579191068519
 30
0.0
 11
584.0
 21
343.3579191068519
 31
0.0
  0
TEXT
  5
2195
330
2177
100
AcDbEntity
  8
AM_BOR
 62
     1
370
    25
100
AcDbText
 10
585.0
 20
43.0
 30
0.0
 40
4.0
  1
F
100
AcDbText
  0
TEXT
  5
2196
330
2177
100
AcDbEntity
  8
AM_BOR
 62
     1
370
    25
100
AcDbText
 10
585.0
 20
109.0
 30
0.0
 40
4.0
  1
E
100
AcDbText
  0
TEXT
  5
2197
330
2177
100
AcDbEntity
  8
AM_BOR
 62
     1
370
    25
100
AcDbText
 10
585.0
 20
176.0
 30
0.0
 40
4.0
  1
D
100
AcDbText
  0
TEXT
  5
2198
330
2177
100
AcDbEntity
  8
AM_BOR
 62
     1
370
    25
100
AcDbText
 10
585.0
 20
243.0
 30
0.0
 40
4.0
  1
C
100
AcDbText
  0
TEXT
  5
2199
330
2177
100
AcDbEntity
  8
AM_BOR
 62
     1
370
    25
100
AcDbText
 10
585.0
 20
310.0
 30
0.0
 40
4.0
  1
B
100
AcDbText
  0
TEXT
  5
219A
330
2177
100
AcDbEntity
  8
AM_BOR
 62
     1
370
    25
100
AcDbText
 10
585.0
 20
376.0
 30
0.0
 40
4.0
  1
A
100
AcDbText
  0
TEXT
  5
219B
330
2177
100
AcDbEntity
  8
AM_BOR
 62
     1
370
    25
100
AcDbText
 10
263.0
 20
5.5
 30
0.0
 40
4.0
  1
4
100
AcDbText
  0
TEXT
  5
219C
330
2177
100
AcDbEntity
  8
AM_BOR
 62
     1
370
    25
100
AcDbText
 10
190.5
 20
5.5
 30
0.0
 40
4.0
  1
3
100
AcDbText
  0
TEXT
  5
219D
330
2177
100
AcDbEntity
  8
AM_BOR
 62
     1
370
    25
100
AcDbText
 10
117.5
 20
5.5
 30
0.0
 40
4.0
  1
2
100
AcDbText
  0
TEXT
  5
219E
330
2177
100
AcDbEntity
  8
AM_BOR
 62
     1
370
    25
100
AcDbText
 10
45.49999999999999
 20
5.5
 30
0.0
 40
4.0
  1
1
100
AcDbText
  0
TEXT
  5
219F
330
2177
100
AcDbEntity
  8
AM_BOR
 62
     1
370
    25
100
AcDbText
 10
6.0
 20
376.0
 30
0.0
 40
4.0
  1
A
100
AcDbText
  0
TEXT
  5
21A0
330
2177
100
AcDbEntity
  8
AM_BOR
 62
     1
370
    25
100
AcDbText
 10
6.0
 20
310.0
 30
0.0
 40
4.0
  1
B
100
AcDbText
  0
TEXT
  5
21A1
330
2177
100
AcDbEntity
  8
AM_BOR
 62
     1
370
    25
100
AcDbText
 10
6.0
 20
243.0
 30
0.0
 40
4.0
  1
C
100
AcDbText
  0
TEXT
  5
21A2
330
2177
100
AcDbEntity
  8
AM_BOR
 62
     1
370
    25
100
AcDbText
 10
6.0
 20
176.0
 30
0.0
 40
4.0
  1
D
100
AcDbText
  0
TEXT
  5
21A3
330
2177
100
AcDbEntity
  8
AM_BOR
 62
     1
370
    25
100
AcDbText
 10
6.0
 20
109.0
 30
0.0
 40
4.0
  1
E
100
AcDbText
  0
TEXT
  5
21A4
330
2177
100
AcDbEntity
  8
AM_BOR
 62
     1
370
    25
100
AcDbText
 10
6.0
 20
43.0
 30
0.0
 40
4.0
  1
F
100
AcDbText
  0
LINE
  5
21A5
330
2177
100
AcDbEntity
  8
AM_BOR
 62
     1
370
    25
100
AcDbLine
 10
9.983113875875869
 20
343.3579191068519
 30
0.0
 11
5.0
 21
343.3579191068519
 31
0.0
  0
LINE
  5
21A6
330
2177
100
AcDbEntity
  8
AM_BOR
 62
     1
370
    25
100
AcDbLine
 10
9.983113875875869
 20
276.6979191068519
 30
0.0
 11
5.0
 21
276.6979191068519
 31
0.0
  0
LINE
  5
21A7
330
2177
100
AcDbEntity
  8
AM_BOR
 62
     1
370
    25
100
AcDbLine
 10
9.983113875875869
 20
210.0379191068519
 30
0.0
 11
5.0
 21
210.0379191068519
 31
0.0
  0
LINE
  5
21A8
330
2177
100
AcDbEntity
  8
AM_BOR
 62
     1
370
    25
100
AcDbLine
 10
9.983113875875869
 20
143.3779191068518
 30
0.0
 11
5.0
 21
143.3779191068518
 31
0.0
  0
LINE
  5
21A9
330
2177
100
AcDbEntity
  8
AM_BOR
 62
     1
370
    25
100
AcDbLine
 10
9.983113875875869
 20
76.71791910685186
 30
0.0
 11
5.0
 21
76.71791910685186
 31
0.0
  0
LINE
  5
21AA
330
2177
100
AcDbEntity
  8
AM_BOR
 62
     1
370
    25
100
AcDbLine
 10
299.4999999999999
 20
10.00000000000007
 30
0.0
 11
299.4999999999999
 21
5.00000000000007
 31
0.0
  0
LINE
  5
21AB
330
2177
100
AcDbEntity
  8
AM_BOR
 62
     1
370
    25
100
AcDbLine
 10
227.1249999999999
 20
10.00000000000007
 30
0.0
 11
227.1249999999999
 21
5.00000000000007
 31
0.0
  0
LINE
  5
21AC
330
2177
100
AcDbEntity
  8
AM_BOR
 62
     1
370
    25
100
AcDbLine
 10
154.7499999999999
 20
10.00000000000007
 30
0.0
 11
154.7499999999999
 21
5.00000000000007
 31
0.0
  0
LINE
  5
21AD
330
2177
100
AcDbEntity
  8
AM_BOR
 62
     1
370
    25
100
AcDbLine
 10
82.37499999999988
 20
10.00000000000007
 30
0.0
 11
82.37499999999988
 21
5.00000000000007
 31
0.0
  0
LINE
  5
21AE
330
2177
100
AcDbEntity
  8
AM_BOR
 62
     1
370
    25
100
AcDbLine
 10
584.0
 20
410.0
 30
0.0
 11
583.9999999999998
 21
5.0
 31
0.0
  0
LINE
  5
21AF
330
2177
100
AcDbEntity
  8
AM_BOR
 62
     1
370
    25
100
AcDbLine
 10
10.0
 20
10.0
 30
0.0
 11
10.00000000000002
 21
410.0
 31
0.0
  0
LINE
  5
21B0
330
2177
100
AcDbEntity
  8
0
100
AcDbLine
 10
588.9999999999998
 20
5.0
 30
0.0
 11
4.999999999999886
 21
5.000000000000071
 31
0.0
  0
LINE
  5
21B1
330
2177
100
AcDbEntity
  8
0
100
AcDbLine
 10
589.0
 20
415.0
 30
0.0
 11
588.9999999999998
 21
5.0
 31
0.0
  0
LINE
  5
21B2
330
2177
100
AcDbEntity
  8
0
100
AcDbLine
 10
5.000000000000024
 20
415.0
 30
0.0
 11
589.0
 21
415.0
 31
0.0
  0
LINE
  5
21B3
330
2177
100
AcDbEntity
  8
AM_BOR
 62
     1
370
    25
100
AcDbLine
 10
593.9999999999998
 20
0.0
 30
0.0
 11
-0.0000000000001137
 21
0.0000000000000727
 31
0.0
  0
LINE
  5
21B4
330
2177
100
AcDbEntity
  8
AM_BOR
 62
     1
370
    25
100
AcDbLine
 10
0.0000000000000257
 20
420.0
 30
0.0
 11
594.0
 21
420.0
 31
0.0
  0
LINE
  5
21B5
330
2177
100
AcDbEntity
  8
AM_BOR
 62
     1
370
    25
100
AcDbLine
 10
0.0
 20
0.0
 30
0.0
 11
0.0000000000000257
 21
420.0
 31
0.0
  0
LINE
  5
21B6
330
2177
100
AcDbEntity
  8
AM_BOR
 62
     1
370
    25
100
AcDbLine
 10
210.0
 20
5.0
 30
0.0
 11
210.0
 21
0.0
 31
0.0
  0
LINE
  5
21B7
330
2177
100
AcDbEntity
  8
AM_BOR
 62
     1
370
    25
100
AcDbLine
 10
0.0
 20
297.0
 30
0.0
 11
5.0
 21
297.0
 31
0.0
  0
LINE
  5
21B8
330
2177
100
AcDbEntity
  8
AM_BOR
 62
     1
370
    25
100
AcDbLine
 10
105.0
 20
420.0
 30
0.0
 11
105.0
 21
415.0
 31
0.0
  0
LINE
  5
21B9
330
2177
100
AcDbEntity
  8
AM_BOR
 62
     1
370
    25
100
AcDbLine
 10
594.0
 20
420.0
 30
0.0
 11
593.9999999999998
 21
0.0
 31
0.0
1001
GENIUS_VERSION2
1070
     2
  0
MTEXT
  5
21BA
330
2177
100
AcDbEntity
  8
RAHM2
100
AcDbMText
 10
374.9022607207864
 20
9.282856166729633
 30
0.0
 40
2.5
 41
51.25
 46
0.0
 71
     5
 72
     5
  1
{\f@Arial Unicode MS|b0|i0|c0|p34;\W0.9;ACO Passavant GmbH\f@Arial Unicode MS|b0|i1|c0|p34;\P\Fgeniso|c0;\H0.72x;\W1;Schutzvermerk nach DIN 34}
 73
     1
 44
1.0
  0
LWPOLYLINE
  5
21BB
330
2177
100
AcDbEntity
  8
RAHM2
100
AcDbPolyline
 90
        4
 70
     1
 43
0.0
 10
401.1200012618344
 20
5.000000000000031
 10
331.1200012618344
 20
5.000000000000031
 10
331.1200012618344
 20
13.50000000000003
 10
401.1200012618344
 20
13.50000000000002
1001
GENIUS_GENREC_14
1002
{
1000
PXDIR
1011
331.1200012618344
1021
5.000000000000031
1031
0.0
1002
}
1002
{
1000
PORI
1011
401.1200012618344
1021
5.000000000000031
1031
0.0
1002
}
1002
{
1000
PINS
1011
401.1200012618344
1021
5.000000000000031
1031
0.0
1002
}
1002
{
1000
HVAL
1000
8.5
1002
}
1002
{
1000
H
1070
     2
1002
}
1002
{
1000
WVAL
1000
-70
1002
}
1002
{
1000
W
1070
     2
1002
}
1002
{
1000
C
1070
     1
1002
}
1001
GENIUS_GENODEF_13
1002
{
1000
HIER
1070
     0
1002
}
1002
{
1000
MANEDIT
1070
     0
1002
}
1002
{
1000
NOSEL
1070
     0
1002
}
1002
{
1000
BEHIND
1070
     0
1002
}
1002
{
1000
REACTOR
1002
}
1001
GENIUS_GENOBJ-N-REC_13
1002
{
1000
OWNER
1000
GEN
1002
}
  0
MTEXT
  5
21BC
330
2177
100
AcDbEntity
  8
RAHM2
100
AcDbMText
 10
332.8183538069351
 20
12.32474728438519
 30
0.0
 40
3.5
 41
4.301759591192151
 46
0.0
 71
     1
 72
     5
  1
\fArial|b0|i0|c0|p32;©
 73
     1
 44
1.0
  0
MTEXT
  5
21BD
330
2177
100
AcDbEntity
  8
RAHM2
100
AcDbMText
 10
339.5515431528592
 20
11.24554815700972
 30
0.0
 40
2.0
 41
5.5175
 46
0.0
 71
     1
 72
     5
  1
2004
 73
     1
 44
1.0
  0
ENDBLK
  5
21BE
330
2177
100
AcDbEntity
  8
0
100
AcDbBlockEnd
  0
BLOCK
  5
21C1
330
21BF
100
AcDbEntity
  8
0
100
AcDbBlockBegin
  2
ACO-SF02-GR
 70
     2
 10
0.0
 20
0.0
 30
0.0
  3
ACO-SF02-GR
  1

  0
LINE
  5
21C2
330
21BF
100
AcDbEntity
  8
KOPF
 62
    12
100
AcDbLine
 10
0.0
 20
5.0
 30
0.0
 11
-83.0
 21
5.0
 31
0.0
  0
LWPOLYLINE
  5
21C3
330
21BF
100
AcDbEntity
  8
KOPF
 62
    12
100
AcDbPolyline
 90
        2
 70
     0
 43
0.5
 10
-83.0
 20
10.0
 10
0.0
 20
10.0
  0
LINE
  5
21C4
330
21BF
100
AcDbEntity
  8
KOPF
100
AcDbLine
 10
-83.0
 20
10.0
 30
0.0
 11
0.0
 21
10.0
 31
0.0
  0
LINE
  5
21C5
330
21BF
100
AcDbEntity
  8
KOPF
100
AcDbLine
 10
0.0
 20
5.0
 30
0.0
 11
-83.0
 21
5.0
 31
0.0
  0
LWPOLYLINE
  5
21C6
330
21BF
100
AcDbEntity
  8
KOPF
 62
    12
100
AcDbPolyline
 90
        2
 70
     0
 43
0.5
 10
0.0
 20
68.49999999999997
 10
-182.0
 20
68.49999999999997
  0
LWPOLYLINE
  5
21C7
330
21BF
100
AcDbEntity
  8
KOPF
 62
    12
100
AcDbPolyline
 90
        2
 70
     0
 43
0.5
 10
0.0
 20
46.99999999999997
 10
-182.0
 20
46.99999999999997
  0
LWPOLYLINE
  5
21C8
330
21BF
100
AcDbEntity
  8
KOPF
 62
    12
100
AcDbPolyline
 90
        2
 70
     0
 43
0.5
 10
-0.2154115848244373
 20
27.23910754630094
 10
-182.1882840408789
 20
27.23910754630094
  0
LINE
  5
21C9
330
21BF
100
AcDbEntity
  8
KOPF
 62
    12
100
AcDbLine
 10
0.0
 20
88.49999999999996
 30
0.0
 11
-182.0
 21
88.49999999999996
 31
0.0
  0
LINE
  5
21CA
330
21BF
100
AcDbEntity
  8
KOPF
 62
    12
100
AcDbLine
 10
-182.0
 20
83.49999999999997
 30
0.0
 11
0.0
 21
83.49999999999997
 31
0.0
  0
LINE
  5
21CB
330
21BF
100
AcDbEntity
  8
KOPF
 62
    12
100
AcDbLine
 10
0.0
 20
73.49999999999997
 30
0.0
 11
-182.0
 21
73.49999999999997
 31
0.0
  0
LINE
  5
21CC
330
21BF
100
AcDbEntity
  8
KOPF
 62
    12
100
AcDbLine
 10
-162.682677
 20
78.49999999999997
 30
0.0
 11
0.0
 21
78.49999999999997
 31
0.0
  0
LINE
  5
21CD
330
21BF
100
AcDbEntity
  8
KOPF
100
AcDbLine
 10
0.0
 20
68.49999999999997
 30
0.0
 11
-182.0
 21
68.49999999999997
 31
0.0
  0
LINE
  5
21CE
330
21BF
100
AcDbEntity
  8
KOPF
100
AcDbLine
 10
0.0
 20
88.49999999999996
 30
0.0
 11
-182.0
 21
88.49999999999996
 31
0.0
  0
LINE
  5
21CF
330
21BF
100
AcDbEntity
  8
KOPF
100
AcDbLine
 10
-182.0
 20
83.49999999999997
 30
0.0
 11
0.0
 21
83.49999999999997
 31
0.0
  0
LINE
  5
21D0
330
21BF
100
AcDbEntity
  8
KOPF
100
AcDbLine
 10
0.0
 20
73.49999999999997
 30
0.0
 11
-182.0
 21
73.49999999999997
 31
0.0
  0
LINE
  5
21D1
330
21BF
100
AcDbEntity
  8
KOPF
100
AcDbLine
 10
-162.682677
 20
78.49999999999997
 30
0.0
 11
0.0
 21
78.49999999999997
 31
0.0
  0
LINE
  5
21D2
330
21BF
100
AcDbEntity
  8
KOPF
 62
    12
100
AcDbLine
 10
-182.0
 20
57.74999999999997
 30
0.0
 11
-100.0
 21
57.74999999999997
 31
0.0
  0
LINE
  5
21D3
330
21BF
100
AcDbEntity
  8
KOPF
 62
    12
100
AcDbLine
 10
-182.0
 20
41.99999999999996
 30
0.0
 11
-113.4
 21
41.99999999999996
 31
0.0
  0
LINE
  5
21D4
330
21BF
100
AcDbEntity
  8
KOPF
100
AcDbLine
 10
-182.0
 20
57.74999999999997
 30
0.0
 11
-100.0
 21
57.74999999999997
 31
0.0
  0
LINE
  5
21D5
330
21BF
100
AcDbEntity
  8
KOPF
100
AcDbLine
 10
-182.0
 20
41.99999999999996
 30
0.0
 11
-113.4
 21
41.99999999999996
 31
0.0
  0
LINE
  5
21D6
330
21BF
100
AcDbEntity
  8
KOPF
 62
    12
100
AcDbLine
 10
-142.0
 20
68.49999999999997
 30
0.0
 11
-142.0
 21
46.99999999999997
 31
0.0
  0
LINE
  5
21D7
330
21BF
100
AcDbEntity
  8
KOPF
 62
    12
100
AcDbLine
 10
-142.0
 20
68.49999999999997
 30
0.0
 11
-142.0
 21
46.99999999999997
 31
0.0
  0
ATTDEF
  5
21D8
330
21BF
100
AcDbEntity
  8
TEXT35
100
AcDbText
 10
-140.2
 20
49.4
 30
0.0
 40
3.5
  1

 41
0.8
  7
TEXT35
100
AcDbAttributeDefinition
280
     0
  3
Oberfläche:
  2
F63
 70
     0
280
     0
  0
LWPOLYLINE
  5
21D9
330
21BF
100
AcDbEntity
  8
KOPF
 62
    12
100
AcDbPolyline
 90
        2
 70
     0
 43
0.7
 10
-182.0
 20
103.4999999999999
 10
-182.0
 20
0.0
  0
LINE
  5
21DA
330
21BF
100
AcDbEntity
  8
KOPF
100
AcDbLine
 10
-182.0
 20
103.4999999999999
 30
0.0
 11
-182.0
 21
0.0
 31
0.0
  0
TEXT
  5
21DB
330
21BF
100
AcDbEntity
  8
KOPF
100
AcDbText
 10
-179.738589
 20
38.32439403633659
 30
0.0
 40
2.0
  1
Gezeichnet:
 41
0.8
  7
TEXT20
100
AcDbText
  0
ATTDEF
  5
21DC
330
21BF
100
AcDbEntity
  8
TEXT35
100
AcDbText
 10
-176.6
 20
3.399999999999999
 30
0.0
 40
3.5
  1

 41
0.8
  7
TEXT35
100
AcDbAttributeDefinition
280
     0
  3
Z-Titel 3
  2
F13
 70
     0
280
     0
  0
ATTDEF
  5
21DD
330
21BF
100
AcDbEntity
  8
TEXT50
100
AcDbText
 10
-176.6
 20
10.63250279796295
 30
0.0
 40
5.0
  1

 41
0.8
  7
TEXT50
100
AcDbAttributeDefinition
280
     0
  3
Z-Titel 2
  2
F3
 70
     0
280
     0
  0
ATTDEF
  5
21DE
330
21BF
100
AcDbEntity
  8
TEXT50
100
AcDbText
 10
-176.6
 20
18.56318324460701
 30
0.0
 40
5.0
  1

 41
0.8
  7
TEXT50
100
AcDbAttributeDefinition
280
     0
  3
Z-Titel 1
  2
F2
 70
     0
280
     0
  0
TEXT
  5
21DF
330
21BF
100
AcDbEntity
  8
KOPF
100
AcDbText
 10
-179.738589
 20
28.52395361420514
 30
0.0
 40
2.0
  1
Update:
 41
0.8
  7
TEXT20
100
AcDbText
  0
TEXT
  5
21E0
330
21BF
100
AcDbEntity
  8
KOPF
100
AcDbText
 10
-179.738589
 20
33.43577642824449
 30
0.0
 40
2.0
  1
Geprüft
 41
0.8
  7
TEXT20
100
AcDbText
  0
LINE
  5
21E1
330
21BF
100
AcDbEntity
  8
KOPF
 62
    12
100
AcDbLine
 10
-163.0
 20
46.99999999999997
 30
0.0
 11
-163.0
 21
27.0
 31
0.0
  0
LINE
  5
21E2
330
21BF
100
AcDbEntity
  8
KOPF
100
AcDbLine
 10
-163.0
 20
46.99999999999997
 30
0.0
 11
-163.0
 21
27.0
 31
0.0
  0
ATTDEF
  5
21E3
330
21BF
100
AcDbEntity
  8
TEXT25
100
AcDbText
 10
-161.5009557098303
 20
28.32091209119023
 30
0.0
 40
2.0
  1

 41
0.8
  7
TEXT20
100
AcDbAttributeDefinition
280
     0
  3
Update am:
  2
F53
 70
     0
280
     0
  0
ATTDEF
  5
21E4
330
21BF
100
AcDbEntity
  8
TEXT25
100
AcDbText
 10
-161.5539333606331
 20
33.12227989587696
 30
0.0
 40
2.0
  1

 41
0.8
  7
TEXT20
100
AcDbAttributeDefinition
280
     0
  3
Geprüft am:
  2
F22
 70
     0
280
     0
  0
ATTDEF
  5
21E5
330
21BF
100
AcDbEntity
  8
TEXT25
100
AcDbText
 10
-161.5207141482394
 20
38.33983936444393
 30
0.0
 40
2.0
  1

 41
0.8
  7
TEXT20
100
AcDbAttributeDefinition
280
     0
  3
Gezeichnet am:
  2
F9
 70
     0
280
     0
  0
TEXT
  5
21E6
330
21BF
100
AcDbEntity
  8
KOPF
100
AcDbText
 10
-155.964455
 20
43.13467299999999
 30
0.0
 40
2.0
  1
Datum
 41
0.8
  7
TEXT20
100
AcDbText
  0
LINE
  5
21E7
330
21BF
100
AcDbEntity
  8
KOPF
 62
    12
100
AcDbLine
 10
-138.4
 20
46.99999999999997
 30
0.0
 11
-138.4
 21
27.0
 31
0.0
  0
LINE
  5
21E8
330
21BF
100
AcDbEntity
  8
KOPF
100
AcDbLine
 10
-138.4
 20
46.99999999999997
 30
0.0
 11
-138.4
 21
27.0
 31
0.0
  0
TEXT
  5
21E9
330
21BF
100
AcDbEntity
  8
KOPF
100
AcDbText
 10
-130.065072
 20
43.14125800000002
 30
0.0
 40
2.0
  1
Name
 41
0.8
  7
TEXT20
100
AcDbText
  0
ATTDEF
  5
21EA
330
21BF
100
AcDbEntity
  8
TEXT25
100
AcDbText
 10
-136.2746977811447
 20
33.28471223400234
 30
0.0
 40
2.0
  1

 41
0.8
  7
TEXT20
100
AcDbAttributeDefinition
280
     0
  3
Geprüft von:
  2
F21
 70
     0
280
     0
  0
ATTDEF
  5
21EB
330
21BF
100
AcDbEntity
  8
TEXT25
100
AcDbText
 10
-136.3996291720711
 20
28.23101841142455
 30
0.0
 40
2.0
  1

 41
0.8
  7
TEXT20
100
AcDbAttributeDefinition
280
     0
  3
Update von:
  2
F52
 70
     0
280
     0
  0
ATTDEF
  5
21EC
330
21BF
100
AcDbEntity
  8
TEXT25
100
AcDbText
 10
-136.1922113552417
 20
38.48172579575253
 30
0.0
 40
2.0
  1

 41
0.8
  7
TEXT20
100
AcDbAttributeDefinition
280
     0
  3
Gezeichnet von
  2
F8
 70
     0
280
     0
  0
TEXT
  5
21ED
330
21BF
100
AcDbEntity
  8
KOPF
100
AcDbText
 10
-174.6925639999999
 20
69.53813999999997
 30
0.0
 40
2.0
  1
Index
 41
0.8
  7
TEXT20
100
AcDbText
  0
LINE
  5
21EE
330
21BF
100
AcDbEntity
  8
KOPF
100
AcDbLine
 10
-182.0
 20
78.49999999999997
 30
0.0
 11
-162.682677
 21
78.49999999999997
 31
0.0
  0
LINE
  5
21EF
330
21BF
100
AcDbEntity
  8
KOPF
100
AcDbLine
 10
-182.0
 20
78.49999999999997
 30
0.0
 11
-162.682677
 21
78.49999999999997
 31
0.0
  0
TEXT
  5
21F0
330
21BF
100
AcDbEntity
  8
KOPF
100
AcDbText
 10
-180.0
 20
65.166273
 30
0.0
 40
2.0
  1
Werkstoff:
 41
0.8
  7
TEXT20
100
AcDbText
  0
TEXT
  5
21F1
330
21BF
100
AcDbEntity
  8
KOPF
100
AcDbText
 10
-181.0
 20
54.49999999999997
 30
0.0
 40
2.0
  1
zul. Abweich.:
 41
0.8
  7
TEXT20
100
AcDbText
  0
ATTDEF
  5
21F2
330
21BF
100
AcDbEntity
  8
TEXT35
100
AcDbText
 10
-179.7
 20
59.6
 30
0.0
 40
3.5
  1

 41
0.8
  7
TEXT35
100
AcDbAttributeDefinition
280
     0
  3
Werkstoff:
  2
F61
 70
     0
280
     0
  0
ATTDEF
  5
21F3
330
21BF
100
AcDbEntity
  8
TEXT35
100
AcDbText
 10
-179.7
 20
49.7
 30
0.0
 40
3.5
  1

 41
0.8
  7
TEXT35
100
AcDbAttributeDefinition
280
     0
  3
zul. Abweichung
  2
F62
 70
     0
280
     0
  0
ATTDEF
  5
21F4
330
21BF
100
AcDbEntity
  8
TEXT25
100
AcDbText
 10
-174.360415155955
 20
74.59999999999999
 30
0.0
 40
2.0
  1

 41
0.8
  7
TEXT20
100
AcDbAttributeDefinition
280
     0
  3
Index vv.:
  2
F72
 70
     0
280
     0
  0
ATTDEF
  5
21F5
330
21BF
100
AcDbEntity
  8
TEXT25
100
AcDbText
 10
-174.4435409453564
 20
79.47378932523601
 30
0.0
 40
2.0
  1

 41
0.8
  7
TEXT20
100
AcDbAttributeDefinition
280
     0
  3
Index v.:
  2
F68
 70
     0
280
     0
  0
ATTDEF
  5
21F6
330
21BF
100
AcDbEntity
  8
TEXT25
100
AcDbText
 10
-174.3700408782365
 20
84.63034186138365
 30
0.0
 40
2.0
  1

 41
0.8
  7
TEXT20
100
AcDbAttributeDefinition
280
     0
  3
Index l.:
  2
F64
 70
     0
280
     0
  0
LINE
  5
21F7
330
21BF
100
AcDbEntity
  8
KOPF
100
AcDbLine
 10
-162.682677
 20
88.49999999999996
 30
0.0
 11
-162.682677
 21
68.49999999999997
 31
0.0
  0
LINE
  5
21F8
330
21BF
100
AcDbEntity
  8
KOPF
100
AcDbLine
 10
-162.682677
 20
88.49999999999996
 30
0.0
 11
-162.682677
 21
68.49999999999997
 31
0.0
  0
TEXT
  5
21F9
330
21BF
100
AcDbEntity
  8
KOPF
100
AcDbText
 10
-156.706568
 20
69.53813999999997
 30
0.0
 40
2.0
  1
Datum
 41
0.8
  7
TEXT20
100
AcDbText
  0
ATTDEF
  5
21FA
330
21BF
100
AcDbEntity
  8
TEXT25
100
AcDbText
 10
-160.9
 20
75.09999999999999
 30
0.0
 40
2.0
  1

 41
0.8
  7
TEXT20
100
AcDbAttributeDefinition
280
     0
  3
Datum vv.:
  2
F73
 70
     0
280
     0
  0
ATTDEF
  5
21FB
330
21BF
100
AcDbEntity
  8
TEXT25
100
AcDbText
 10
-160.9
 20
79.40000000000001
 30
0.0
 40
2.0
  1

 41
0.8
  7
TEXT20
100
AcDbAttributeDefinition
280
     0
  3
Datum v.:
  2
F69
 70
     0
280
     0
  0
ATTDEF
  5
21FC
330
21BF
100
AcDbEntity
  8
TEXT25
100
AcDbText
 10
-160.6
 20
84.50000000000001
 30
0.0
 40
2.0
  1

 41
0.8
  7
TEXT20
100
AcDbAttributeDefinition
280
     0
  3
Datum l.:
  2
F65
 70
     0
280
     0
  0
LINE
  5
21FD
330
21BF
100
AcDbEntity
  8
KOPF
 62
    12
100
AcDbLine
 10
-142.0
 20
68.49999999999997
 30
0.0
 11
-142.0
 21
88.49999999999996
 31
0.0
  0
LINE
  5
21FE
330
21BF
100
AcDbEntity
  8
KOPF
100
AcDbLine
 10
-142.0
 20
68.49999999999997
 30
0.0
 11
-142.0
 21
88.49999999999996
 31
0.0
  0
ATTDEF
  5
21FF
330
21BF
100
AcDbEntity
  8
TEXT35
100
AcDbText
 10
-139.9
 20
59.29999999999999
 30
0.0
 40
3.5
  1

 41
0.8
  7
TEXT35
100
AcDbAttributeDefinition
280
     0
  3
Gewicht:
  2
F60
 70
     0
280
     0
  0
TEXT
  5
2200
330
21BF
100
AcDbEntity
  8
KOPF
100
AcDbText
 10
-140.387393
 20
54.54752599999996
 30
0.0
 40
2.0
  1
Oberfläche
 41
0.8
  7
TEXT20
100
AcDbText
  0
TEXT
  5
2201
330
21BF
100
AcDbEntity
  8
KOPF
100
AcDbText
 10
-140.1020469999999
 20
65.166273
 30
0.0
 40
2.0
  1
Gewicht:
 41
0.8
  7
TEXT20
100
AcDbText
  0
TEXT
  5
2202
330
21BF
100
AcDbEntity
  8
KOPF
100
AcDbText
 10
-140.1020469999999
 20
65.166273
 30
0.0
 40
2.0
  1
Gewicht:
 41
0.8
  7
TEXT20
100
AcDbText
  0
ATTDEF
  5
2203
330
21BF
100
AcDbEntity
  8
TEXT25
100
AcDbText
 10
-140.4
 20
74.59999999999999
 30
0.0
 40
2.0
  1

 41
0.8
  7
TEXT20
100
AcDbAttributeDefinition
280
     0
  3
Bennenung vv.:
  2
F74
 70
     0
280
     0
  0
ATTDEF
  5
2204
330
21BF
100
AcDbEntity
  8
TEXT25
100
AcDbText
 10
-140.5063960262479
 20
79.64480359078786
 30
0.0
 40
2.0
  1

 41
0.8
  7
TEXT20
100
AcDbAttributeDefinition
280
     0
  3
Benennung v.:
  2
F70
 70
     0
280
     0
  0
ATTDEF
  5
2205
330
21BF
100
AcDbEntity
  8
TEXT25
100
AcDbText
 10
-140.390233442385
 20
84.56120109651198
 30
0.0
 40
2.0
  1

 41
0.8
  7
TEXT20
100
AcDbAttributeDefinition
280
     0
  3
Bennenung l.:
  2
F66
 70
     0
280
     0
  0
LINE
  5
2206
330
21BF
100
AcDbEntity
  8
KOPF
 62
    12
100
AcDbLine
 10
-100.0
 20
68.49999999999997
 30
0.0
 11
-100.0
 21
46.99999999999997
 31
0.0
  0
LWPOLYLINE
  5
2207
330
21BF
100
AcDbEntity
  8
KOPF
 62
    12
100
AcDbPolyline
 90
        2
 70
     0
 43
0.5
 10
-83.0
 20
46.99999999999997
 10
-83.0
 20
0.0
  0
LINE
  5
2208
330
21BF
100
AcDbEntity
  8
KOPF
100
AcDbLine
 10
-83.0
 20
46.99999999999997
 30
0.0
 11
-83.0
 21
0.0
 31
0.0
  0
TEXT
  5
2209
330
21BF
100
AcDbEntity
  8
KOPF
100
AcDbText
 10
-81.0
 20
1.714285999999985
 30
0.0
 40
2.0
  1
Ersetzt durch:
 41
0.8
  7
TEXT20
100
AcDbText
  0
LINE
  5
220A
330
21BF
100
AcDbEntity
  8
KOPF
 62
    12
100
AcDbLine
 10
-113.4
 20
27.0
 30
0.0
 11
-113.4
 21
46.99999999999997
 31
0.0
  0
LWPOLYLINE
  5
220B
330
21BF
100
AcDbEntity
  8
KOPF
100
AcDbPolyline
 90
        2
 70
     0
 43
0.5
 10
-113.4
 20
27.0
 10
-113.4
 20
46.99999999999997
  0
LINE
  5
220C
330
21BF
100
AcDbEntity
  8
KOPF
100
AcDbLine
 10
-113.4
 20
27.0
 30
0.0
 11
-113.4
 21
46.99999999999997
 31
0.0
  0
LINE
  5
220D
330
21BF
100
AcDbEntity
  8
KOPF
100
AcDbLine
 10
-113.4
 20
27.0
 30
0.0
 11
-113.4
 21
46.99999999999997
 31
0.0
  0
ATTDEF
  5
220E
330
21BF
100
AcDbEntity
  8
TEXT35
100
AcDbText
 10
-104.4935632823758
 20
33.13408015176805
 30
0.0
 40
3.5
  1

 41
0.8
  7
TEXT35
100
AcDbAttributeDefinition
280
     0
  3
Maßstab 2:
  2
F54
 70
     0
280
     0
  0
ATTDEF
  5
220F
330
21BF
100
AcDbEntity
  8
TEXT35
100
AcDbText
 10
-104.487948258847
 20
28.6
 30
0.0
 40
3.5
  1

 41
0.8
  7
TEXT35
100
AcDbAttributeDefinition
280
     0
  3
Maßstab 3:
  2
F55
 70
     0
280
     0
  0
ATTDEF
  5
2210
330
21BF
100
AcDbEntity
  8
TEXT50
100
AcDbText
 10
-106.6
 20
37.8
 30
0.0
 40
5.0
  1

 41
0.8
  7
TEXT50
100
AcDbAttributeDefinition
280
     0
  3
Maßstab 1:
  2
F25
 70
     0
280
     0
  0
TEXT
  5
2211
330
21BF
100
AcDbEntity
  8
KOPF
100
AcDbText
 10
-112.263457
 20
43.88678899999999
 30
0.0
 40
2.0
  1
Massstab:
 41
0.8
  7
TEXT20
100
AcDbText
  0
LINE
  5
2212
330
21BF
100
AcDbEntity
  8
KOPF
 62
    12
100
AcDbLine
 10
-57.80813400000011
 20
27.0
 30
0.0
 11
-57.80813400000011
 21
46.99999999999997
 31
0.0
  0
LINE
  5
2213
330
21BF
100
AcDbEntity
  8
KOPF
100
AcDbLine
 10
-57.80813400000011
 20
27.0
 30
0.0
 11
-57.80813400000011
 21
46.99999999999997
 31
0.0
  0
TEXT
  5
2214
330
21BF
100
AcDbEntity
  8
KOPF
100
AcDbText
 10
-81.59296000000006
 20
23.69783599999999
 30
0.0
 40
2.0
  1
Zeichnung Nr.:
 41
0.8
  7
TEXT20
100
AcDbText
  0
TEXT
  5
2215
330
21BF
100
AcDbEntity
  8
KOPF
100
AcDbText
 10
-81.00375700000006
 20
5.924711999999997
 30
0.0
 40
2.0
  1
Ersatz für:
 41
0.8
  7
TEXT20
100
AcDbText
  0
TEXT
  5
2216
330
21BF
100
AcDbEntity
  8
KOPF
100
AcDbText
 10
-81.59296000000006
 20
23.69783599999999
 30
0.0
 40
2.0
  1
Zeichnung Nr.:
 41
0.8
  7
TEXT20
100
AcDbText
  0
ATTDEF
  5
2217
330
21BF
100
AcDbEntity
  8
TEXT50
100
AcDbText
 10
-78.29193986361122
 20
14.50587824180555
 30
0.0
 40
5.0
  1

 41
0.8
  7
TEXT50
100
AcDbAttributeDefinition
280
     0
  3
Standart:
  2
F1
 70
     0
280
     0
  0
TEXT
  5
2218
330
21BF
100
AcDbEntity
  8
KOPF
100
AcDbText
 10
-81.48889200000008
 20
43.86057200000001
 30
0.0
 40
2.0
  1
Masseinheit:
 41
0.8
  7
TEXT20
100
AcDbText
  0
LINE
  5
2219
330
21BF
100
AcDbEntity
  8
KOPF
 62
    12
100
AcDbLine
 10
-57.80813400000011
 20
36.213444
 30
0.0
 11
-83.0
 21
36.213444
 31
0.0
  0
LINE
  5
221A
330
21BF
100
AcDbEntity
  8
KOPF
100
AcDbLine
 10
-57.80813400000011
 20
36.213444
 30
0.0
 11
-83.0
 21
36.213444
 31
0.0
  0
ATTDEF
  5
221B
330
21BF
100
AcDbEntity
  8
TEXT35
100
AcDbText
 10
-79.40896486611496
 20
38.08722024605356
 30
0.0
 40
3.5
  1

 41
0.8
  7
TEXT35
100
AcDbAttributeDefinition
280
     0
  3
Maßeinheit:
  2
F56
 70
     0
280
     0
  0
TEXT
  5
221C
330
21BF
100
AcDbEntity
  8
KOPF
100
AcDbText
 10
-33.57569784693112
 20
42.62823225872138
 30
0.0
 40
1.54
  1
Diese Zeichnung darf weder kopiert
 41
0.8
  7
TEXT20
100
AcDbText
  0
TEXT
  5
221D
330
21BF
100
AcDbEntity
  8
KOPF
100
AcDbText
 10
-33.57569784693112
 20
40.26106040199917
 30
0.0
 40
1.54
  1
noch dritten Personen, insbesondere
 41
0.8
  7
TEXT20
100
AcDbText
1001
GENIUS_GENTRA_14
1002
{
1070
     1
1000
/
1000
noch dritten Personen, insbesondere
1000
DEU
1070
     0
1040
0.8
1070
     0
1002
}
  0
TEXT
  5
221E
330
21BF
100
AcDbEntity
  8
KOPF
100
AcDbText
 10
-33.57569784693112
 20
35.63814072439632
 30
0.0
 40
1.54
  1
mitgeteilt werden und bleibt unser
 41
0.8
  7
TEXT20
100
AcDbText
  0
TEXT
  5
221F
330
21BF
100
AcDbEntity
  8
KOPF
100
AcDbText
 10
-33.57569784693112
 20
33.37532604459598
 30
0.0
 40
1.54
  1
Eigentum.
 41
0.8
  7
TEXT20
100
AcDbText
  0
TEXT
  5
2220
330
21BF
100
AcDbEntity
  8
KOPF
100
AcDbText
 10
-33.57569784693112
 20
37.97994933403727
 30
0.0
 40
1.54
  1
zum Zweck anderweitiger Benutzung
 41
0.8
  7
TEXT20
100
AcDbText
  0
TEXT
  5
2221
330
21BF
100
AcDbEntity
  8
KOPF
100
AcDbText
 10
-33.7904806989385
 20
30.30982488917614
 30
0.0
 40
1.54
  1
Schutzvermerk nach DIN 34 beachten
 41
0.75
  7
TEXT20
100
AcDbText
  0
LINE
  5
2222
330
21BF
100
AcDbEntity
  8
KOPF
100
AcDbLine
 10
-34.94281200000012
 20
47.01203199999999
 30
0.0
 11
-34.94281200000012
 21
27.0
 31
0.0
  0
LINE
  5
2223
330
21BF
100
AcDbEntity
  8
KOPF
100
AcDbLine
 10
-34.94281200000012
 20
47.01203199999999
 30
0.0
 11
-34.94281200000012
 21
27.0
 31
0.0
  0
LINE
  5
2224
330
21BF
100
AcDbEntity
  8
MITTE
100
AcDbLine
 10
-45.85521401410289
 20
36.04852954632858
 30
0.0
 11
-35.23444858652556
 21
36.04852954632858
 31
0.0
  0
LINE
  5
2225
330
21BF
100
AcDbEntity
  8
TEXT50
100
AcDbLine
 10
-45.05865660703466
 20
32.02559619470341
 30
0.0
 11
-36.50894043783512
 21
34.06858135367652
 31
0.0
  0
LINE
  5
2226
330
21BF
100
AcDbEntity
  8
TEXT50
100
AcDbLine
 10
-36.50894043783512
 20
38.02847773898061
 30
0.0
 11
-45.05865660703466
 21
40.07146289795374
 31
0.0
  0
TEXT
  5
2227
330
21BF
100
AcDbEntity
  8
KOPF
100
AcDbText
 10
-57.12244047883302
 20
43.82431699999997
 30
0.0
 40
2.0
  1
Projektion: ISO-E
 41
0.8
  7
TEXT20
100
AcDbText
  0
LINE
  5
2228
330
21BF
100
AcDbEntity
  8
TEXT50
100
AcDbLine
 10
-45.05865660703466
 20
40.07146289795374
 30
0.0
 11
-45.05865660703466
 21
32.02559619470346
 31
0.0
  0
LINE
  5
2229
330
21BF
100
AcDbEntity
  8
MITTE
100
AcDbLine
 10
-51.4945506424383
 20
40.07146289795374
 30
0.0
 11
-51.4945506424383
 21
30.76413131482123
 31
0.0
  0
CIRCLE
  5
222A
330
21BF
100
AcDbEntity
  8
TEXT50
100
AcDbCircle
 10
-51.4945506424383
 20
36.04852954632858
 30
0.0
 40
4.022933351625178
  0
CIRCLE
  5
222B
330
21BF
100
AcDbEntity
  8
TEXT50
100
AcDbCircle
 10
-51.4945506424383
 20
36.04852954632858
 30
0.0
 40
1.979948192651899
  0
LINE
  5
222C
330
21BF
100
AcDbEntity
  8
MITTE
100
AcDbLine
 10
-56.48631039339966
 20
36.04852954632858
 30
0.0
 11
-46.50279089147699
 21
36.04852954632858
 31
0.0
  0
LINE
  5
222D
330
21BF
100
AcDbEntity
  8
TEXT50
100
AcDbLine
 10
-36.50894043783512
 20
38.02847773898061
 30
0.0
 11
-36.50894043783512
 21
34.06858135367652
 31
0.0
  0
LWPOLYLINE
  5
222E
330
21BF
100
AcDbEntity
  8
KOPF
 62
    12
100
AcDbPolyline
 90
        2
 70
     0
 43
0.5
 10
-12.0
 20
27.0
 10
-12.0
 20
10.0
  0
LINE
  5
222F
330
21BF
100
AcDbEntity
  8
KOPF
100
AcDbLine
 10
-12.0
 20
27.0
 30
0.0
 11
-12.0
 21
10.0
 31
0.0
  0
ATTDEF
  5
2230
330
21BF
100
AcDbEntity
  8
TEXT50
100
AcDbText
 10
-5.58570360403041
 20
17.00587824180555
 30
0.0
 40
5.0
  1

 41
0.8
  7
TEXT50
 72
     4
 11
-5.58570360403041
 21
17.00587824180555
 31
0.0
100
AcDbAttributeDefinition
280
     0
  3
Index:
  2
F1B
 70
     0
280
     0
  0
TEXT
  5
2231
330
21BF
100
AcDbEntity
  8
KOPF
100
AcDbText
 10
-8.353129999999964
 20
23.330072
 30
0.0
 40
2.0
  1
Index
 41
0.8
  7
TEXT20
100
AcDbText
  0
TEXT
  5
2232
330
21BF
100
AcDbEntity
  8
KOPF
100
AcDbText
 10
-94.40535829344497
 20
70.39773773357916
 30
0.0
 40
2.0
  1
Benennung
 41
0.8
  7
TEXT20
100
AcDbText
  0
LINE
  5
2233
330
21BF
100
AcDbEntity
  8
KOPF
100
AcDbLine
 10
-15.0
 20
88.49999999999996
 30
0.0
 11
-15.0
 21
68.49999999999997
 31
0.0
  0
LINE
  5
2234
330
21BF
100
AcDbEntity
  8
KOPF
100
AcDbLine
 10
-15.0
 20
88.49999999999996
 30
0.0
 11
-15.0
 21
68.49999999999997
 31
0.0
  0
TEXT
  5
2235
330
21BF
100
AcDbEntity
  8
KOPF
100
AcDbText
 10
-11.65833600000008
 20
69.53813999999997
 30
0.0
 40
2.0
  1
Name
 41
0.8
  7
TEXT20
100
AcDbText
  0
TEXT
  5
2236
330
21BF
100
AcDbEntity
  8
KOPF
100
AcDbText
 10
-11.65833600000008
 20
69.53813999999997
 30
0.0
 40
2.0
  1
Name
 41
0.8
  7
TEXT20
100
AcDbText
  0
ATTDEF
  5
2237
330
21BF
100
AcDbEntity
  8
TEXT25
100
AcDbText
 10
-13.39999999999998
 20
74.90000000000001
 30
0.0
 40
2.0
  1

 41
0.8
  7
TEXT20
100
AcDbAttributeDefinition
280
     0
  3
Name vv.:
  2
F75
 70
     0
280
     0
  0
ATTDEF
  5
2238
330
21BF
100
AcDbEntity
  8
TEXT25
100
AcDbText
 10
-13.39999999999998
 20
79.7
 30
0.0
 40
2.0
  1

 41
0.8
  7
TEXT20
100
AcDbAttributeDefinition
280
     0
  3
Name v.:
  2
F71
 70
     0
280
     0
  0
ATTDEF
  5
2239
330
21BF
100
AcDbEntity
  8
TEXT25
100
AcDbText
 10
-13.31006638105163
 20
84.29999999999999
 30
0.0
 40
2.0
  1

 41
0.8
  7
TEXT20
100
AcDbAttributeDefinition
280
     0
  3
Name l.:
  2
F67
 70
     0
280
     0
  0
LINE
  5
223A
330
21BF
100
AcDbEntity
  8
KOPF
100
AcDbLine
 10
-182.0
 20
36.99999999999997
 30
0.0
 11
-113.4
 21
36.99999999999997
 31
0.0
  0
LINE
  5
223B
330
21BF
100
AcDbEntity
  8
KOPF
100
AcDbLine
 10
-182.0
 20
31.99999999999997
 30
0.0
 11
-113.4
 21
31.99999999999997
 31
0.0
  0
MTEXT
  5
223C
330
21BF
100
AcDbEntity
  8
Sperrlayer
 62
     1
100
AcDbMText
 10
-166.0749851709908
 20
9.027899370527848
 30
0.0
 40
10.0
 41
771.0
 46
0.0
 71
     1
 72
     5
  1
VORABZUG - nicht FREIGEGEBEN !
  7
TEXT20
 11
0.8660254037844387
 21
0.5
 31
0.0
 73
     1
 44
1.0
  0
ATTDEF
  5
223D
330
21BF
100
AcDbEntity
  8
AM_BOR
 62
     2
370
    35
100
AcDbText
 10
-100.7395275842899
 20
38.58583043117892
 30
0.0
 40
3.0
  1
-
 72
     1
 11
-99.68952758428997
 21
38.58583043117892
 31
0.0
100
AcDbAttributeDefinition
280
     0
  3
Maßstab
  2
GEN-TITLE-SCA{5.42}
 70
     0
280
     0
1001
GENIUS_GENTRA_14
1002
{
1070
     3
1000
GENTRAPR,%s,(GENMSG gendwg 83)
1000
Maßstab
1000
DEU
1070
     0
1070
     0
1002
}
  0
TEXT
  5
223E
330
21BF
100
AcDbEntity
  8
0N
100
AcDbText
 10
-180.0433753026868
 20
97.16012098886922
 30
0.0
 40
3.5
  1
Zeichnungen größer darstellenden Maßstabes bzw. Einzelteilzeichnungen
 41
0.9
100
AcDbText
  0
TEXT
  5
223F
330
21BF
100
AcDbEntity
  8
0N
100
AcDbText
 10
-180.0433753026868
 20
91.14471067045299
 30
0.0
 40
3.5
  1
haben vorrangige Gültigkeit
 41
0.9
100
AcDbText
  0
LINE
  5
2240
330
21BF
100
AcDbEntity
  8
KOPF
 62
    12
100
AcDbLine
 10
0.0
 20
103.4999999999999
 30
0.0
 11
-182.0
 21
103.4999999999999
 31
0.0
  0
LINE
  5
2241
330
21BF
100
AcDbEntity
  8
KOPF
100
AcDbLine
 10
0.0
 20
103.4999999999999
 30
0.0
 11
-182.0
 21
103.4999999999999
 31
0.0
  0
TEXT
  5
2242
330
21BF
100
AcDbEntity
  8
0N
100
AcDbText
 10
-50.10402338551751
 20
63.31558948216224
 30
0.0
 40
3.5
  1
ACO Haustechnik
  7
Anschrift
100
AcDbText
  0
TEXT
  5
2243
330
21BF
100
AcDbEntity
  8
KOPF
100
AcDbText
 10
-49.87580542490343
 20
59.20935299973598
 30
0.0
 40
2.0
  1
ACO Passavant GmbH
  7
Anschrift
100
AcDbText
  0
TEXT
  5
2244
330
21BF
100
AcDbEntity
  8
KOPF
100
AcDbText
 10
-49.87580542490343
 20
55.94457150873341
 30
0.0
 40
2.0
  1
Ulsterstrasse 3
  7
Anschrift
100
AcDbText
  0
TEXT
  5
2245
330
21BF
100
AcDbEntity
  8
KOPF
100
AcDbText
 10
-49.87580542490343
 20
52.67979001773084
 30
0.0
 40
2.0
  1
36269 Philippsthal
  7
Anschrift
100
AcDbText
  0
TEXT
  5
2246
330
21BF
100
AcDbEntity
  8
KOPF
100
AcDbText
 10
-49.87580542490343
 20
49.41500852672827
 30
0.0
 40
2.0
  1
www.aco-haustechnik.de
  7
Anschrift
100
AcDbText
  0
IMAGE
  5
2247
330
21BF
100
AcDbEntity
  8
0N
160
               140
310
8C00000001000000840000000600000005000000D8E09288BC7856C020EE296E8D3848400000000000000000D8E09288BC7856C05505A7591AA950400000000000000000701116DB117C50C05505A7591AA950400000000000000000701116DB117C50C020EE296E8D3848400000000000000000D8E09288BC7856C020EE29
310
6E8D3848400000000000000000
100
AcDbRasterImage
 90
        0
 10
-89.88650717109283
 20
48.44181611106273
 30
0.0
 11
0.3193055645228697
 21
0.0
 31
0.0
 12
0.0
 22
0.3193055645228696
 32
0.0
 13
75.0
 23
57.0
340
22A4
 70
     7
280
     0
281
    50
282
    50
283
     0
290
     0
360
2248
 71
     1
 91
        2
 14
-0.5
 24
-0.5
 14
74.5
 24
56.5
  0
ENDBLK
  5
2249
330
21BF
100
AcDbEntity
  8
0
100
AcDbBlockEnd
  0
BLOCK
  5
2C87
330
2C86
100
AcDbEntity
  8
0
100
AcDbBlockBegin
  2
GENZOOI0XKNL3
 70
     0
 10
0.0
 20
0.0
 30
0.0
  3
GENZOOI0XKNL3
  1

  0
HATCH
  5
2C88
330
2C86
100
AcDbEntity
  8
8
100
AcDbHatch
 10
0.0
 20
0.0
 30
0.0
210
0.0
220
0.0
230
1.0
  2
ANSI37
 70
     0
 71
     0
 91
        1
 92
        1
 93
       43
 72
     2
 10
9.216067529841637
 20
-8.063437563802892
 40
0.1999999999999602
 50
0.0000000001547022
 51
70.79289536154158
 73
     1
 72
     1
 10
9.281864279091678
 20
-7.874570447056441
 11
3.92016046862102
 21
-6.063437563742439
 72
     1
 10
3.92016046862102
 20
-6.063437563742439
 11
3.920160468621475
 21
-2.336699338303077
 72
     1
 10
3.920160468621475
 20
-2.336699338303077
 11
9.281863739007121
 21
-0.5255666432614135
 72
     2
 10
9.21606752984178
 20
-0.3366993383632746
 40
0.2000000000000398
 50
289.206940795434
 51
360.0000000000163
 73
     1
 72
     2
 10
9.216067529841865
 20
-0.3366993383638714
 40
0.1999999999999602
 50
0.0000000001547022
 51
70.79289536154158
 73
     1
 72
     1
 10
9.281864279091905
 20
-0.1478322216174206
 11
3.920160468621702
 21
1.663300661696609
 72
     1
 10
3.920160468621702
 20
1.663300661696609
 11
3.92016046862102
 21
5.441313091042275
 72
     1
 10
3.92016046862102
 20
5.441313091042275
 11
9.313657103657419
 21
8.209367221462059
 72
     2
 10
9.216067529841382
 20
8.383941775972175
 40
0.2000000000000031
 50
299.205789978533
 51
360.0000000000326
 73
     1
 72
     2
 10
9.21606752984141
 20
8.38394177597209
 40
0.1999999999999602
 50
0.0000000000081422
 51
90.0000000001547
 73
     1
 72
     1
 10
9.21606752984087
 20
8.58394177597205
 11
3.920160468621929
 21
8.583941775972164
 72
     1
 10
3.920160468621929
 20
8.583941775972164
 11
3.920160468622043
 21
10.08682185643704
 72
     1
 10
3.920160468622043
 20
10.08682185643704
 11
3.50345688939933
 21
10.08682185643704
 72
     2
 10
-2.106203421950738
 20
15.36145086625919
 40
7.69999999999958
 50
43.23692481137405
 51
61.56310985114474
 73
     0
 72
     2
 10
2.893796578048494
 20
6.128358209949851
 40
2.799999999999733
 50
118.4368901488453
 51
129.5302433154924
 73
     1
 72
     2
 10
0.7559477817208347
 20
7.936562436257872
 40
0.4999999999999379
 50
44.65275941528755
 51
234.8977916148452
 73
     1
 72
     2
 10
2.893796578049375
 20
6.128358209949652
 40
2.800000000000389
 50
150.0203077146229
 51
173.686419007241
 73
     1
 72
     1
 10
0.110778810797683
 20
6.436273956808406
 11
0.0768143453020684
 21
6.436273956808406
 72
     2
 10
0.0937965780490515
 20
5.936562436257872
 40
0.4999999999999993
 50
91.9463948705693
 51
269.9999999999968
 73
     1
 72
     1
 10
0.0937965780490231
 20
5.436562436257872
 11
0.0937965780490231
 21
4.436562436257872
 72
     2
 10
0.0938039753040414
 20
3.936562436367324
 40
0.4999999999452675
 50
90.00084766298519
 51
270.0008476629851
 73
     1
 72
     2
 10
2.893796578049887
 20
3.427460291837775
 40
2.800000000000753
 50
179.813744503267
 51
201.9270243470485
 73
     1
 72
     2
 10
0.5237283123174166
 20
1.936562436257759
 40
0.5000000000000111
 50
117.0495404468079
 51
302.9523872548014
 73
     1
 72
     2
 10
-5.356203421950823
 20
-2.223866985891078
 40
7.200000000000045
 50
328.6969230527589
 51
338.5591410862442
 73
     0
 72
     2
 10
1.512023766480467
 20
-0.0634375637422409
 40
0.5000000000000182
 50
109.4510221529977
 51
285.4713486317026
 73
     1
 72
     2
 10
-5.356203421955939
 20
-2.223866985891618
 40
7.200000000004998
 50
346.5184881290441
 51
354.7435640379681
 73
     0
 72
     2
 10
1.842009022850987
 20
-2.063437563742098
 40
0.4999999999999984
 50
93.26659920127591
 51
270.7130743201378
 73
     1
 72
     1
 10
1.848231609560571
 20
-2.563398841657345
 11
1.83578643614237
 21
-2.563398841657345
 72
     2
 10
-5.356203421951818
 20
-2.223866985890879
 40
7.200000000000686
 50
2.702911080764616
 51
10.82329881776992
 73
     0
 72
     2
 10
1.604829553771821
 20
-4.063437563742098
 40
0.4999999999999802
 50
77.18686442151491
 51
253.207190900142
 73
     1
 72
     2
 10
-5.35620342195358
 20
-2.223866985889685
 40
7.200000000002654
 50
18.78264586056796
 51
28.24723946869486
 73
     0
 72
     2
 10
0.7345845219608976
 20
-6.063437563742411
 40
0.4999999999999906
 50
59.76292377067111
 51
237.2290906329147
 73
     1
 72
     2
 10
2.89379657804892
 20
-7.875194263619476
 40
2.800000000000014
 50
150.204507609694
 51
173.6135555418377
 73
     1
 72
     1
 10
0.1111726398214614
 20
-7.563739582480138
 11
0.0764205162764711
 21
-7.563739582480138
 72
     2
 10
0.0937965780489947
 20
-8.063437563742098
 40
0.5000000000000007
 50
91.99155101488113
 51
270.0000000000033
 73
     1
 72
     1
 10
0.0937965780490231
 20
-8.563437563742098
 11
0.0937965780490231
 21
-9.563617688237485
 72
     2
 10
0.1072164159968452
 20
-10.0634375637421
 40
0.4999999999999929
 50
91.53798484258446
 51
272.7418178424396
 73
     1
 72
     2
 10
2.393796578047698
 20
-10.15011976042876
 40
2.299999999999467
 50
190.3379892964777
 51
217.9428716871592
 73
     1
 72
     1
 10
0.5799608633267326
 20
-11.56433332280196
 11
3.92016046862102
 21
-11.56433332280196
 72
     1
 10
3.92016046862102
 20
-11.56433332280196
 11
3.920160468621133
 21
-10.0634375637421
 72
     1
 10
3.920160468621133
 20
-10.0634375637421
 11
9.281863739006894
 21
-8.252304868700434
 72
     2
 10
9.216067529841552
 20
-8.063437563802295
 40
0.2000000000000398
 50
289.206940795434
 51
360.0000000000163
 73
     1
 97
        0
 75
     0
 76
     1
 52
0.0
 41
1.0
 77
     0
 78
     2
 53
45.0
 43
-586.5142392116275
 44
-251.7550674310418
 45
-2.245064030267287
 46
2.245064030267288
 79
     0
 53
135.0
 43
-586.5142392116275
 44
-251.7550674310418
 45
-2.245064030267288
 46
-2.245064030267287
 79
     0
 98
        2
 10
1.89181965104467
 20
3.334324422685881
 10
-86.1189383273661
 20
3.193572040739923
1001
ACAD
1010
0.0
1020
0.0
1030
0.0
  0
ARC
  5
2C89
330
2C86
100
AcDbEntity
  8
0
100
AcDbCircle
 10
-2.106203421951022
 20
15.36145086625947
 30
0.0
 40
7.7
100
AcDbArc
 50
298.4368901488561
 51
316.7630751886278
  0
ARC
  5
2C8A
330
2C86
100
AcDbEntity
  8
0
100
AcDbCircle
 10
-5.356203421951022
 20
-2.223866985890595
 30
0.0
 40
7.2
100
AcDbArc
 50
331.7527605313027
 51
341.2173541394332
  0
ARC
  5
2C8B
330
2C86
100
AcDbEntity
  8
0
100
AcDbCircle
 10
-5.356203421951022
 20
-2.223866985890595
 30
0.0
 40
7.2
100
AcDbArc
 50
349.176701182227
 51
357.2970889192331
  0
ARC
  5
2C8C
330
2C86
100
AcDbEntity
  8
0
100
AcDbCircle
 10
-5.356203421951022
 20
-2.223866985890595
 30
0.0
 40
7.2
100
AcDbArc
 50
5.256435962027302
 51
13.48151187095708
  0
ARC
  5
2C8D
330
2C86
100
AcDbEntity
  8
0
100
AcDbCircle
 10
-5.356203421951022
 20
-2.223866985890595
 30
0.0
 40
7.2
100
AcDbArc
 50
21.44085891375127
 51
31.3030769472372
  0
LINE
  5
2C8E
330
2C86
100
AcDbEntity
  8
0
100
AcDbLine
 10
0.0937965780490231
 20
-8.563437563742098
 30
0.0
 11
0.0937965780490231
 21
-9.563617688237485
 31
0.0
  0
ARC
  5
2C8F
330
2C86
100
AcDbEntity
  8
0
100
AcDbCircle
 10
2.393796578048068
 20
-10.15011976042842
 30
0.0
 40
2.299999999999999
100
AcDbArc
 50
190.3379892964847
 51
217.9428716871601
1001
GENIUS_GENODEF_13
1002
{
1000
HIER
1070
     0
1002
}
1002
{
1000
MANEDIT
1070
     0
1002
}
1002
{
1000
NOSEL
1070
     0
1002
}
1002
{
1000
BEHIND
1070
     0
1002
}
1002
{
1000
REACTOR
1002
}
1001
GENIUS_GENOBJ-N-FIL_13
1002
{
1000
OWNER
1000
GEN
1002
}
  0
ARC
  5
2C90
330
2C86
100
AcDbEntity
  8
0
100
AcDbCircle
 10
2.893796578048977
 20
-7.875194263619277
 30
0.0
 40
2.799999999999999
100
AcDbArc
 50
150.2045076096999
 51
173.6135555418415
1001
GENIUS_GENODEF_13
1002
{
1000
HIER
1070
     0
1002
}
1002
{
1000
MANEDIT
1070
     0
1002
}
1002
{
1000
NOSEL
1070
     0
1002
}
1002
{
1000
BEHIND
1070
     0
1002
}
1002
{
1000
REACTOR
1002
}
1001
GENIUS_GENOBJ-N-FIL_13
1002
{
1000
OWNER
1000
GEN
1002
}
  0
ARC
  5
2C91
330
2C86
100
AcDbEntity
  8
0
100
AcDbCircle
 10
2.893796578048977
 20
6.128358209949851
 30
0.0
 40
2.799999999999999
100
AcDbArc
 50
118.4368901488561
 51
129.5302433154999
1001
GENIUS_GENODEF_13
1002
{
1000
HIER
1070
     0
1002
}
1002
{
1000
MANEDIT
1070
     0
1002
}
1002
{
1000
NOSEL
1070
     0
1002
}
1002
{
1000
BEHIND
1070
     0
1002
}
1002
{
1000
REACTOR
1002
}
1001
GENIUS_GENOBJ-N-FIL_13
1002
{
1000
OWNER
1000
GEN
1002
}
  0
ARC
  5
2C92
330
2C86
100
AcDbEntity
  8
0
100
AcDbCircle
 10
2.893796578048977
 20
6.128358209949851
 30
0.0
 40
2.799999999999999
100
AcDbArc
 50
150.0203077146219
 51
173.6864190072445
1001
GENIUS_GENODEF_13
1002
{
1000
HIER
1070
     0
1002
}
1002
{
1000
MANEDIT
1070
     0
1002
}
1002
{
1000
NOSEL
1070
     0
1002
}
1002
{
1000
BEHIND
1070
     0
1002
}
1002
{
1000
REACTOR
1002
}
1001
GENIUS_GENOBJ-N-FIL_13
1002
{
1000
OWNER
1000
GEN
1002
}
  0
ARC
  5
2C93
330
2C86
100
AcDbEntity
  8
0
100
AcDbCircle
 10
2.893796578048977
 20
3.427460291837974
 30
0.0
 40
2.799999999999999
100
AcDbArc
 50
180.0
 51
201.9270243470593
1001
GENIUS_GENODEF_13
1002
{
1000
HIER
1070
     0
1002
}
1002
{
1000
MANEDIT
1070
     0
1002
}
1002
{
1000
NOSEL
1070
     0
1002
}
1002
{
1000
BEHIND
1070
     0
1002
}
1002
{
1000
REACTOR
1002
}
1001
GENIUS_GENOBJ-N-FIL_13
1002
{
1000
OWNER
1000
GEN
1002
}
  0
LINE
  5
2C94
330
2C86
100
AcDbEntity
  8
0
100
AcDbLine
 10
0.0937965780490231
 20
5.436562436257872
 30
0.0
 11
0.0937965780490231
 21
4.436562436257872
 31
0.0
  0
LINE
  5
2C95
330
2C86
100
AcDbEntity
  8
0
100
AcDbLine
 10
0.0937965780490231
 20
3.436562436257901
 30
0.0
 11
0.0937965780490231
 21
3.427460291837974
 31
0.0
  0
LINE
  5
2C96
330
2C86
100
AcDbEntity
  8
0
100
AcDbLine
 10
9.27827534192545
 20
-0.1466199125552237
 30
0.0
 11
3.920160468621247
 21
1.663300661696695
 31
0.0
  0
LINE
  5
2C97
330
2C86
100
AcDbEntity
  8
0
100
AcDbLine
 10
9.278275885084326
 20
-0.526778586410245
 30
0.0
 11
3.920160468621247
 21
-2.336699338303077
 31
0.0
  0
LINE
  5
2C98
330
2C86
100
AcDbEntity
  8
0
100
AcDbLine
 10
3.92016046862102
 20
5.441313091042218
 30
0.0
 11
3.920160468621702
 21
1.663300661696609
 31
0.0
  0
LINE
  5
2C99
330
2C86
100
AcDbEntity
  8
0
100
AcDbLine
 10
3.920160468621475
 20
-2.336699338302992
 30
0.0
 11
3.92016046862102
 21
-6.063437563742411
 31
0.0
  0
ARC
  5
2C9A
330
2C86
100
AcDbEntity
  8
0
100
AcDbCircle
 10
9.21606752984178
 20
-0.3366993383633314
 30
0.0
 40
0.2000000000000001
100
AcDbArc
 50
288.1220239729228
 51
0.0
  0
ARC
  5
2C9B
330
2C86
100
AcDbEntity
  8
0
100
AcDbCircle
 10
9.21606752984087
 20
-0.3366993383635588
 30
0.0
 40
0.2000000000000001
100
AcDbArc
 50
0.0000000000325689
 51
71.87813975151756
  0
LINE
  5
2C9C
330
2C86
100
AcDbEntity
  8
0
100
AcDbLine
 10
3.920160468622157
 20
10.08682185643704
 30
0.0
 11
3.920160468621929
 21
8.583941775972164
 31
0.0
  0
LINE
  5
2C9D
330
2C86
100
AcDbEntity
  8
0
100
AcDbLine
 10
3.920160468622157
 20
10.08682185643704
 30
0.0
 11
3.50345688939933
 21
10.08682185643704
 31
0.0
  0
LINE
  5
2C9E
330
2C86
100
AcDbEntity
  8
0
100
AcDbLine
 10
3.92016046862102
 20
-11.56433332280196
 30
0.0
 11
0.5799608633267326
 21
-11.56433332280196
 31
0.0
  0
LINE
  5
2C9F
330
2C86
100
AcDbEntity
  8
0
100
AcDbLine
 10
3.92016046862102
 20
-11.56433332280196
 30
0.0
 11
3.92016046862102
 21
-10.0634375637421
 31
0.0
  0
LINE
  5
2CA0
330
2C86
100
AcDbEntity
  8
0
100
AcDbLine
 10
9.21606752984087
 20
8.58394177597205
 30
0.0
 11
3.92016046862102
 21
8.583941775972164
 31
0.0
  0
LINE
  5
2CA1
330
2C86
100
AcDbEntity
  8
0
100
AcDbLine
 10
9.313657103657419
 20
8.209367221462059
 30
0.0
 11
3.92016046862102
 21
5.441313091042275
 31
0.0
  0
ARC
  5
2CA2
330
2C86
100
AcDbEntity
  8
0
100
AcDbCircle
 10
9.216067529841325
 20
8.383941775972061
 30
0.0
 40
0.2000000000000001
100
AcDbArc
 50
0.0
 51
90.0
  0
ARC
  5
2CA3
330
2C86
100
AcDbEntity
  8
0
100
AcDbCircle
 10
9.216067529841325
 20
8.383941775972061
 30
0.0
 40
0.2000000000000001
100
AcDbArc
 50
299.2057899785818
 51
0.0
  0
LINE
  5
2CA4
330
2C86
100
AcDbEntity
  8
0
100
AcDbLine
 10
9.278275341925223
 20
-7.873358137994244
 30
0.0
 11
3.92016046862102
 21
-6.063437563742326
 31
0.0
  0
LINE
  5
2CA5
330
2C86
100
AcDbEntity
  8
0
100
AcDbLine
 10
9.278275885084099
 20
-8.253516811849266
 30
0.0
 11
3.92016046862102
 21
-10.0634375637421
 31
0.0
  0
ARC
  5
2CA6
330
2C86
100
AcDbEntity
  8
0
100
AcDbCircle
 10
9.216067529841552
 20
-8.063437563802352
 30
0.0
 40
0.2000000000000001
100
AcDbArc
 50
288.1220239729228
 51
0.0
  0
ARC
  5
2CA7
330
2C86
100
AcDbEntity
  8
0
100
AcDbCircle
 10
9.216067529840643
 20
-8.06343756380258
 30
0.0
 40
0.2000000000000001
100
AcDbArc
 50
0.0000000000325689
 51
71.87813975151756
  0
ARC
  5
2CA8
330
2C86
100
AcDbEntity
  8
0
100
AcDbCircle
 10
0.0937965780490231
 20
5.936562436257872
 30
0.0
 40
0.5
100
AcDbArc
 50
88.05360512923845
 51
270.0
  0
ARC
  5
2CA9
330
2C86
100
AcDbEntity
  8
0
100
AcDbCircle
 10
1.604829553771878
 20
-4.063437563742098
 30
0.0
 40
0.5
100
AcDbArc
 50
77.18686442152199
 51
253.2071909001487
  0
ARC
  5
2CAA
330
2C86
100
AcDbEntity
  8
0
100
AcDbCircle
 10
0.7345845219604144
 20
-6.063437563742098
 30
0.0
 40
0.5
100
AcDbArc
 50
59.7629237706077
 51
237.2290906329816
  0
ARC
  5
2CAB
330
2C86
100
AcDbEntity
  8
0
100
AcDbCircle
 10
0.0937965780490231
 20
-8.063437563742098
 30
0.0
 40
0.5
100
AcDbArc
 50
88.05360512923845
 51
270.0
  0
ARC
  5
2CAC
330
2C86
100
AcDbEntity
  8
0
100
AcDbCircle
 10
0.1072164159968452
 20
-10.0634375637421
 30
0.0
 40
0.5
100
AcDbArc
 50
91.53798484258446
 51
272.7418178424397
  0
ARC
  5
2CAD
330
2C86
100
AcDbEntity
  8
0
100
AcDbCircle
 10
1.84200902285147
 20
-2.063437563742098
 30
0.0
 40
0.5
100
AcDbArc
 50
93.26659920134435
 51
269.2869256799176
  0
ARC
  5
2CAE
330
2C86
100
AcDbEntity
  8
0
100
AcDbCircle
 10
1.512023766480979
 20
-0.0634375637420988
 30
0.0
 40
0.5
100
AcDbArc
 50
109.4510221530744
 51
285.4713486316547
  0
ARC
  5
2CAF
330
2C86
100
AcDbEntity
  8
0
100
AcDbCircle
 10
0.523728312317644
 20
1.936562436257901
 30
0.0
 40
0.5
100
AcDbArc
 50
117.0495404468451
 51
302.9523872547716
  0
ARC
  5
2CB0
330
2C86
100
AcDbEntity
  8
0
100
AcDbCircle
 10
0.0937965780490231
 20
3.936562436257901
 30
0.0
 40
0.5
100
AcDbArc
 50
90.0
 51
270.0
  0
ARC
  5
2CB1
330
2C86
100
AcDbEntity
  8
0
100
AcDbCircle
 10
0.7559477817208063
 20
7.936562436257872
 30
0.0
 40
0.5
100
AcDbArc
 50
44.65275941528185
 51
234.8977916148484
  0
LINE
  5
2CB2
330
2C86
100
AcDbEntity
  8
0
100
AcDbLine
 10
-12.77584544698075
 20
10.08682185643698
 30
0.0
 11
3.50345688939933
 21
10.08682185643698
 31
0.0
  0
LINE
  5
2CB3
330
2C86
100
AcDbEntity
  8
0
100
AcDbLine
 10
-11.45567094707968
 20
-11.56433332280198
 30
0.0
 11
0.5799608633267326
 21
-11.56433332280198
 31
0.0
  0
LINE
  5
2CB4
330
2C86
100
AcDbEntity
  8
0
100
AcDbLine
 10
0.0937965780490231
 20
-9.563617688237485
 30
0.0
 11
-13.17206964610591
 21
-9.563617688237485
 31
0.0
  0
LINE
  5
2CB5
330
2C86
100
AcDbEntity
  8
0
100
AcDbLine
 10
0.131238646532438
 20
-10.5634375637421
 30
0.0
 11
-12.38466749192548
 21
-10.5634375637421
 31
0.0
  0
LINE
  5
2CB6
330
2C86
100
AcDbEntity
  8
0
100
AcDbLine
 10
0.0937965780490231
 20
-8.563437563742098
 30
0.0
 11
-13.84318385128668
 21
-8.563437563742098
 31
0.0
  0
LINE
  5
2CB7
330
2C86
100
AcDbEntity
  8
0
100
AcDbLine
 10
0.1111726398214614
 20
-7.563739582480138
 30
0.0
 11
-14.4137450226184
 21
-7.563739582480138
 31
0.0
  0
LINE
  5
2CB8
330
2C86
100
AcDbEntity
  8
0
100
AcDbLine
 10
0.4639438410385992
 20
-6.483858331343043
 30
0.0
 11
-14.93069935360387
 21
-6.483858331343043
 31
0.0
  0
LINE
  5
2CB9
330
2C86
100
AcDbEntity
  8
0
100
AcDbLine
 10
0.4827949642274234
 20
-5.631463005907278
 30
0.0
 11
-15.27261688322377
 21
-5.631463005907278
 31
0.0
  0
LINE
  5
2CBA
330
2C86
100
AcDbEntity
  8
0
100
AcDbLine
 10
1.460373730573792
 20
-4.542115446189285
 30
0.0
 11
-15.63123121581031
 21
-4.542115446189285
 31
0.0
  0
LINE
  5
2CBB
330
2C86
100
AcDbEntity
  8
0
100
AcDbLine
 10
1.493943526945713
 20
-3.575888295406372
 30
0.0
 11
-15.88015191827236
 21
-3.575888295406372
 31
0.0
  0
LINE
  5
2CBC
330
2C86
100
AcDbEntity
  8
0
100
AcDbLine
 10
1.83578643614237
 20
-2.563398841657345
 30
0.0
 11
-16.07467537548498
 21
-2.563398841657345
 31
0.0
  0
LINE
  5
2CBD
330
2C86
100
AcDbEntity
  8
0
100
AcDbLine
 10
1.813518007878201
 20
-1.564249961666689
 30
0.0
 11
-16.2024480899048
 21
-1.564249961666689
 31
0.0
  0
LINE
  5
2CBE
330
2C86
100
AcDbEntity
  8
0
100
AcDbLine
 10
1.378645532003929
 20
-0.5453195478085036
 30
0.0
 11
-16.26864556868247
 21
-0.5453195478085036
 31
0.0
  0
LINE
  5
2CBF
330
2C86
100
AcDbEntity
  8
0
100
AcDbLine
 10
1.345523294405211
 20
0.4080256827560334
 30
0.0
 11
-16.27266779267756
 21
0.4080256827560334
 31
0.0
  0
LINE
  5
2CC0
330
2C86
100
AcDbEntity
  8
0
100
AcDbLine
 10
0.2517573560694473
 20
1.517000999806185
 30
0.0
 11
-16.20694018052825
 21
1.517000999806185
 31
0.0
  0
LINE
  5
2CC1
330
2C86
100
AcDbEntity
  8
0
100
AcDbLine
 10
0.2963479456650475
 20
2.38186926178497
 30
0.0
 11
-16.10257435531343
 21
2.38186926178497
 31
0.0
  0
LINE
  5
2CC2
330
2C86
100
AcDbEntity
  8
0
100
AcDbLine
 10
0.0937965780490231
 20
3.427460291837974
 30
0.0
 11
-15.91284757661268
 21
3.427460291837974
 31
0.0
  0
LINE
  5
2CC3
330
2C86
100
AcDbEntity
  8
0
100
AcDbLine
 10
0.0937965780490231
 20
4.436562436257872
 30
0.0
 11
-15.66151703373015
 21
4.436562436257872
 31
0.0
  0
LINE
  5
2CC4
330
2C86
100
AcDbEntity
  8
0
100
AcDbLine
 10
0.0937965780490231
 20
5.436562436257872
 30
0.0
 11
-15.34307631882549
 21
5.436562436257872
 31
0.0
  0
LINE
  5
2CC5
330
2C86
100
AcDbEntity
  8
0
100
AcDbLine
 10
0.110778810797683
 20
6.436273956808406
 30
0.0
 11
-14.95127351102721
 21
6.436273956808406
 31
0.0
  0
LINE
  5
2CC6
330
2C86
100
AcDbEntity
  8
0
100
AcDbLine
 10
0.4684293886982687
 20
7.527498659233231
 30
0.0
 11
-14.43270473556069
 21
7.527498659233231
 31
0.0
  0
LINE
  5
2CC7
330
2C86
100
AcDbEntity
  8
0
100
AcDbLine
 10
0.4002581898355402
 20
8.287966639739579
 30
0.0
 11
-14.00984693089819
 21
8.287966639739579
 31
0.0
  0
LINE
  5
2CC8
330
2C86
100
AcDbEntity
  8
AM_7
  6
AM_ISO08W050x2
100
AcDbLine
 10
9.216067529841552
 20
-8.063437563802352
 30
0.0
 11
9.440801530418752
 21
-8.063437563802352
 31
0.0
1001
GENIUS_GENOREF_13
1005
2DDF
  0
LINE
  5
2CC9
330
2C86
100
AcDbEntity
  8
AM_7
  6
AM_ISO08W050x2
100
AcDbLine
 10
9.216067529841552
 20
-8.063437563802352
 30
0.0
 11
9.216067529841552
 21
-7.838703563225152
 31
0.0
1001
GENIUS_GENOREF_13
1005
2DDF
  0
LINE
  5
2CCA
330
2C86
100
AcDbEntity
  8
AM_7
  6
AM_ISO08W050x2
100
AcDbLine
 10
9.216067529841552
 20
-8.063437563802352
 30
0.0
 11
8.991333529264352
 21
-8.063437563802352
 31
0.0
1001
GENIUS_GENOREF_13
1005
2DDF
  0
LINE
  5
2CCB
330
2C86
100
AcDbEntity
  8
AM_7
  6
AM_ISO08W050x2
100
AcDbLine
 10
9.216067529841552
 20
-8.063437563802352
 30
0.0
 11
9.216067529841552
 21
-8.288171564379553
 31
0.0
1001
GENIUS_GENOREF_13
1005
2DDF
  0
LINE
  5
2CCC
330
2C86
100
AcDbEntity
  8
AM_7
  6
AM_ISO08W050x2
100
AcDbLine
 10
9.21606752984087
 20
-0.3366993383635588
 30
0.0
 11
9.44080153041807
 21
-0.3366993383635588
 31
0.0
1001
GENIUS_GENOREF_13
1005
2DDE
  0
LINE
  5
2CCD
330
2C86
100
AcDbEntity
  8
AM_7
  6
AM_ISO08W050x2
100
AcDbLine
 10
9.21606752984087
 20
-0.3366993383635588
 30
0.0
 11
9.21606752984087
 21
-0.1119653377863585
 31
0.0
1001
GENIUS_GENOREF_13
1005
2DDE
  0
LINE
  5
2CCE
330
2C86
100
AcDbEntity
  8
AM_7
  6
AM_ISO08W050x2
100
AcDbLine
 10
9.21606752984087
 20
-0.3366993383635588
 30
0.0
 11
8.99133352926367
 21
-0.3366993383635588
 31
0.0
1001
GENIUS_GENOREF_13
1005
2DDE
  0
LINE
  5
2CCF
330
2C86
100
AcDbEntity
  8
AM_7
  6
AM_ISO08W050x2
100
AcDbLine
 10
9.21606752984087
 20
-0.3366993383635588
 30
0.0
 11
9.21606752984087
 21
-0.5614333389407591
 31
0.0
1001
GENIUS_GENOREF_13
1005
2DDE
  0
LINE
  5
2CD0
330
2C86
100
AcDbEntity
  8
AM_7
  6
AM_ISO08W050x2
100
AcDbLine
 10
9.216067529841325
 20
8.383941775972061
 30
0.0
 11
9.440801530418525
 21
8.383941775972061
 31
0.0
1001
GENIUS_GENOREF_13
1005
2DDD
  0
LINE
  5
2CD1
330
2C86
100
AcDbEntity
  8
AM_7
  6
AM_ISO08W050x2
100
AcDbLine
 10
9.216067529841325
 20
8.383941775972061
 30
0.0
 11
9.216067529841325
 21
8.608675776549262
 31
0.0
1001
GENIUS_GENOREF_13
1005
2DDD
  0
LINE
  5
2CD2
330
2C86
100
AcDbEntity
  8
AM_7
  6
AM_ISO08W050x2
100
AcDbLine
 10
9.216067529841325
 20
8.383941775972061
 30
0.0
 11
8.991333529264124
 21
8.383941775972061
 31
0.0
1001
GENIUS_GENOREF_13
1005
2DDD
  0
LINE
  5
2CD3
330
2C86
100
AcDbEntity
  8
AM_7
  6
AM_ISO08W050x2
100
AcDbLine
 10
9.216067529841325
 20
8.383941775972061
 30
0.0
 11
9.216067529841325
 21
8.159207775394861
 31
0.0
1001
GENIUS_GENOREF_13
1005
2DDD
  0
ENDBLK
  5
2CD4
330
2C86
100
AcDbEntity
  8
0
100
AcDbBlockEnd
  0
BLOCK
  5
2FCA
330
2FC9
100
AcDbEntity
  8
0
100
AcDbBlockBegin
  2
*X10
 70
     1
 10
0.0
 20
0.0
 30
0.0
  3
*X10
  1

  0
LINE
  5
2FCB
330
2FC9
100
AcDbEntity
  8
8
100
AcDbLine
 10
180.047
 20
175.572
 30
0.0
 11
182.52
 21
178.046
 31
0.0
  0
LINE
  5
2FCC
330
2FC9
100
AcDbEntity
  8
8
100
AcDbLine
 10
180.02
 20
180.0359999999999
 30
0.0
 11
182.52
 21
182.536
 31
0.0
  0
LINE
  5
2FCD
330
2FC9
100
AcDbEntity
  8
8
100
AcDbLine
 10
180.02
 20
184.526
 30
0.0
 11
182.52
 21
187.026
 31
0.0
  0
LINE
  5
2FCE
330
2FC9
100
AcDbEntity
  8
8
100
AcDbLine
 10
180.02
 20
189.016
 30
0.0
 11
182.52
 21
191.516
 31
0.0
  0
LINE
  5
2FCF
330
2FC9
100
AcDbEntity
  8
8
100
AcDbLine
 10
180.02
 20
193.506
 30
0.0
 11
182.52
 21
196.006
 31
0.0
  0
LINE
  5
2FD0
330
2FC9
100
AcDbEntity
  8
8
100
AcDbLine
 10
180.02
 20
197.996
 30
0.0
 11
182.52
 21
200.496
 31
0.0
  0
LINE
  5
2FD1
330
2FC9
100
AcDbEntity
  8
8
100
AcDbLine
 10
180.02
 20
202.486
 30
0.0
 11
182.52
 21
204.986
 31
0.0
  0
LINE
  5
2FD2
330
2FC9
100
AcDbEntity
  8
8
100
AcDbLine
 10
180.02
 20
206.976
 30
0.0
 11
182.52
 21
209.476
 31
0.0
  0
LINE
  5
2FD3
330
2FC9
100
AcDbEntity
  8
8
100
AcDbLine
 10
180.02
 20
211.467
 30
0.0
 11
182.52
 21
213.967
 31
0.0
  0
LINE
  5
2FD4
330
2FC9
100
AcDbEntity
  8
8
100
AcDbLine
 10
180.02
 20
215.957
 30
0.0
 11
182.52
 21
218.457
 31
0.0
  0
LINE
  5
2FD5
330
2FC9
100
AcDbEntity
  8
8
100
AcDbLine
 10
180.02
 20
220.447
 30
0.0
 11
182.52
 21
222.947
 31
0.0
  0
LINE
  5
2FD6
330
2FC9
100
AcDbEntity
  8
8
100
AcDbLine
 10
180.02
 20
224.937
 30
0.0
 11
182.52
 21
227.437
 31
0.0
  0
LINE
  5
2FD7
330
2FC9
100
AcDbEntity
  8
8
100
AcDbLine
 10
180.02
 20
229.427
 30
0.0
 11
182.52
 21
231.927
 31
0.0
  0
LINE
  5
2FD8
330
2FC9
100
AcDbEntity
  8
8
100
AcDbLine
 10
180.02
 20
233.917
 30
0.0
 11
182.52
 21
236.417
 31
0.0
  0
LINE
  5
2FD9
330
2FC9
100
AcDbEntity
  8
8
100
AcDbLine
 10
180.02
 20
238.407
 30
0.0
 11
182.52
 21
240.907
 31
0.0
  0
LINE
  5
2FDA
330
2FC9
100
AcDbEntity
  8
8
100
AcDbLine
 10
180.02
 20
242.898
 30
0.0
 11
182.52
 21
245.398
 31
0.0
  0
LINE
  5
2FDB
330
2FC9
100
AcDbEntity
  8
8
100
AcDbLine
 10
180.02
 20
247.388
 30
0.0
 11
182.362
 21
249.729
 31
0.0
  0
LINE
  5
2FDC
330
2FC9
100
AcDbEntity
  8
8
100
AcDbLine
 10
179.605
 20
251.462
 30
0.0
 11
181.671
 21
253.528
 31
0.0
  0
LINE
  5
2FDD
330
2FC9
100
AcDbEntity
  8
8
100
AcDbLine
 10
178.414
 20
254.761
 30
0.0
 11
180.363
 21
256.71
 31
0.0
  0
LINE
  5
2FDE
330
2FC9
100
AcDbEntity
  8
8
100
AcDbLine
 10
176.684
 20
257.522
 30
0.0
 11
178.497
 21
259.334
 31
0.0
  0
LINE
  5
2FDF
330
2FC9
100
AcDbEntity
  8
8
100
AcDbLine
 10
174.537
 20
259.865
 30
0.0
 11
176.219
 21
261.547
 31
0.0
  0
LINE
  5
2FE0
330
2FC9
100
AcDbEntity
  8
8
100
AcDbLine
 10
171.714
 20
261.532
 30
0.0
 11
173.578
 21
263.396
 31
0.0
  0
LINE
  5
2FE1
330
2FC9
100
AcDbEntity
  8
8
100
AcDbLine
 10
168.336
 20
262.644
 30
0.0
 11
170.511
 21
264.819
 31
0.0
  0
LINE
  5
2FE2
330
2FC9
100
AcDbEntity
  8
8
100
AcDbLine
 10
164.4409999999999
 20
263.239
 30
0.0
 11
166.732
 21
265.53
 31
0.0
  0
LINE
  5
2FE3
330
2FC9
100
AcDbEntity
  8
8
100
AcDbLine
 10
160.312
 20
263.601
 30
0.0
 11
162.62
 21
265.908
 31
0.0
  0
LINE
  5
2FE4
330
2FC9
100
AcDbEntity
  8
8
100
AcDbLine
 10
156.184
 20
263.962
 30
0.0
 11
158.491
 21
266.27
 31
0.0
  0
LINE
  5
2FE5
330
2FC9
100
AcDbEntity
  8
8
100
AcDbLine
 10
152.055
 20
264.323
 30
0.0
 11
154.362
 21
266.631
 31
0.0
  0
LINE
  5
2FE6
330
2FC9
100
AcDbEntity
  8
8
100
AcDbLine
 10
57.877
 20
174.636
 30
0.0
 11
60.02
 21
176.779
 31
0.0
  0
LINE
  5
2FE7
330
2FC9
100
AcDbEntity
  8
8
100
AcDbLine
 10
147.926
 20
264.684
 30
0.0
 11
150.234
 21
266.992
 31
0.0
  0
LINE
  5
2FE8
330
2FC9
100
AcDbEntity
  8
8
100
AcDbLine
 10
57.52
 20
178.769
 30
0.0
 11
60.02
 21
181.269
 31
0.0
  0
LINE
  5
2FE9
330
2FC9
100
AcDbEntity
  8
8
100
AcDbLine
 10
143.797
 20
265.046
 30
0.0
 11
146.105
 21
267.353
 31
0.0
  0
LINE
  5
2FEA
330
2FC9
100
AcDbEntity
  8
8
100
AcDbLine
 10
57.52
 20
183.259
 30
0.0
 11
60.02
 21
185.759
 31
0.0
  0
LINE
  5
2FEB
330
2FC9
100
AcDbEntity
  8
8
100
AcDbLine
 10
139.668
 20
265.407
 30
0.0
 11
141.976
 21
267.715
 31
0.0
  0
LINE
  5
2FEC
330
2FC9
100
AcDbEntity
  8
8
100
AcDbLine
 10
57.52
 20
187.749
 30
0.0
 11
60.02
 21
190.249
 31
0.0
  0
LINE
  5
2FED
330
2FC9
100
AcDbEntity
  8
8
100
AcDbLine
 10
135.539
 20
265.768
 30
0.0
 11
137.847
 21
268.076
 31
0.0
  0
LINE
  5
2FEE
330
2FC9
100
AcDbEntity
  8
8
100
AcDbLine
 10
57.52
 20
192.24
 30
0.0
 11
60.02
 21
194.74
 31
0.0
  0
LINE
  5
2FEF
330
2FC9
100
AcDbEntity
  8
8
100
AcDbLine
 10
121.583
 20
256.302
 30
0.0
 11
130.039
 21
264.758
 31
0.0
  0
LINE
  5
2FF0
330
2FC9
100
AcDbEntity
  8
8
100
AcDbLine
 10
130.608
 20
265.327
 30
0.0
 11
133.718
 21
268.437
 31
0.0
  0
LINE
  5
2FF1
330
2FC9
100
AcDbEntity
  8
8
100
AcDbLine
 10
57.52
 20
196.73
 30
0.0
 11
60.02
 21
199.23
 31
0.0
  0
LINE
  5
2FF2
330
2FC9
100
AcDbEntity
  8
8
100
AcDbLine
 10
117.298
 20
256.507
 30
0.0
 11
119.451
 21
258.66
 31
0.0
  0
LINE
  5
2FF3
330
2FC9
100
AcDbEntity
  8
8
100
AcDbLine
 10
57.52
 20
201.22
 30
0.0
 11
60.02
 21
203.72
 31
0.0
  0
LINE
  5
2FF4
330
2FC9
100
AcDbEntity
  8
8
100
AcDbLine
 10
114.423
 20
258.123
 30
0.0
 11
116.233
 21
259.932
 31
0.0
  0
LINE
  5
2FF5
330
2FC9
100
AcDbEntity
  8
8
100
AcDbLine
 10
57.52
 20
205.71
 30
0.0
 11
60.02
 21
208.21
 31
0.0
  0
LINE
  5
2FF6
330
2FC9
100
AcDbEntity
  8
8
100
AcDbLine
 10
112.49
 20
260.679
 30
0.0
 11
114.32
 21
262.509
 31
0.0
  0
LINE
  5
2FF7
330
2FC9
100
AcDbEntity
  8
8
100
AcDbLine
 10
57.52
 20
210.2
 30
0.0
 11
60.02
 21
212.7
 31
0.0
  0
LINE
  5
2FF8
330
2FC9
100
AcDbEntity
  8
8
100
AcDbLine
 10
110.846
 20
263.526
 30
0.0
 11
112.662
 21
265.341
 31
0.0
  0
LINE
  5
2FF9
330
2FC9
100
AcDbEntity
  8
8
100
AcDbLine
 10
57.52
 20
214.69
 30
0.0
 11
60.02
 21
217.19
 31
0.0
  0
LINE
  5
2FFA
330
2FC9
100
AcDbEntity
  8
8
100
AcDbLine
 10
108.594
 20
265.764
 30
0.0
 11
110.415
 21
267.584
 31
0.0
  0
LINE
  5
2FFB
330
2FC9
100
AcDbEntity
  8
8
100
AcDbLine
 10
57.52
 20
219.18
 30
0.0
 11
60.02
 21
221.68
 31
0.0
  0
LINE
  5
2FFC
330
2FC9
100
AcDbEntity
  8
8
100
AcDbLine
 10
104.071
 20
265.731
 30
0.0
 11
106.784
 21
268.444
 31
0.0
  0
LINE
  5
2FFD
330
2FC9
100
AcDbEntity
  8
8
100
AcDbLine
 10
57.52
 20
223.67
 30
0.0
 11
60.02
 21
226.17
 31
0.0
  0
LINE
  5
2FFE
330
2FC9
100
AcDbEntity
  8
8
100
AcDbLine
 10
99.15
 20
265.3
 30
0.0
 11
101.9
 21
268.051
 31
0.0
  0
LINE
  5
2FFF
330
2FC9
100
AcDbEntity
  8
8
100
AcDbLine
 10
57.52
 20
228.161
 30
0.0
 11
60.02
 21
230.661
 31
0.0
  0
LINE
  5
3000
330
2FC9
100
AcDbEntity
  8
8
100
AcDbLine
 10
94.23
 20
264.87
 30
0.0
 11
96.98
 21
267.62
 31
0.0
  0
LINE
  5
3001
330
2FC9
100
AcDbEntity
  8
8
100
AcDbLine
 10
57.52
 20
232.651
 30
0.0
 11
60.02
 21
235.151
 31
0.0
  0
LINE
  5
3002
330
2FC9
100
AcDbEntity
  8
8
100
AcDbLine
 10
89.30899999999999
 20
264.439
 30
0.0
 11
92.05899999999999
 21
267.189
 31
0.0
  0
LINE
  5
3003
330
2FC9
100
AcDbEntity
  8
8
100
AcDbLine
 10
57.52
 20
237.141
 30
0.0
 11
60.02
 21
239.641
 31
0.0
  0
LINE
  5
3004
330
2FC9
100
AcDbEntity
  8
8
100
AcDbLine
 10
84.38799999999998
 20
264.009
 30
0.0
 11
87.13799999999999
 21
266.759
 31
0.0
  0
LINE
  5
3005
330
2FC9
100
AcDbEntity
  8
8
100
AcDbLine
 10
57.52
 20
241.631
 30
0.0
 11
60.02
 21
244.131
 31
0.0
  0
LINE
  5
3006
330
2FC9
100
AcDbEntity
  8
8
100
AcDbLine
 10
79.468
 20
263.578
 30
0.0
 11
82.21799999999999
 21
266.328
 31
0.0
  0
LINE
  5
3007
330
2FC9
100
AcDbEntity
  8
8
100
AcDbLine
 10
57.52
 20
246.121
 30
0.0
 11
60.09
 21
248.691
 31
0.0
  0
LINE
  5
3008
330
2FC9
100
AcDbEntity
  8
8
100
AcDbLine
 10
74.54699999999999
 20
263.148
 30
0.0
 11
77.297
 21
265.898
 31
0.0
  0
LINE
  5
3009
330
2FC9
100
AcDbEntity
  8
8
100
AcDbLine
 10
57.793
 20
250.884
 30
0.0
 11
61.58699999999999
 21
254.678
 31
0.0
  0
LINE
  5
300A
330
2FC9
100
AcDbEntity
  8
8
100
AcDbLine
 10
68.604
 20
261.695
 30
0.0
 11
72.238
 21
265.329
 31
0.0
  0
LINE
  5
300B
330
2FC9
100
AcDbEntity
  8
8
100
AcDbLine
 10
61.03
 20
258.611
 30
0.0
 11
64.797
 21
262.378
 31
0.0
  0
ENDBLK
  5
300C
330
2FC9
100
AcDbEntity
  8
0
100
AcDbBlockEnd
  0
BLOCK
  5
329F
330
329E
100
AcDbEntity
  8
0
100
AcDbBlockBegin
  2
*D11
 70
     1
 10
0.0
 20
0.0
 30
0.0
  3
*D11
  1

  0
LINE
  5
32EB
330
329E
100
AcDbEntity
  8
AM_5
100
AcDbLine
 10
979.6837721204274
 20
806.1436307128541
 30
0.0
 11
979.6837721204274
 21
854.6549802128495
 31
0.0
  0
LINE
  5
32EC
330
329E
100
AcDbEntity
  8
AM_5
100
AcDbLine
 10
1104.671272120427
 20
804.6587792128493
 30
0.0
 11
1104.671272120427
 21
854.6549802128495
 31
0.0
  0
LINE
  5
32ED
330
329E
100
AcDbEntity
  8
AM_5
100
AcDbLine
 10
982.1837721204275
 20
853.6549802128496
 30
0.0
 11
1102.171272120427
 21
853.6549802128496
 31
0.0
  0
SOLID
  5
32EE
330
329E
100
AcDbEntity
  8
AM_5
100
AcDbTrace
 10
982.1837721204275
 20
854.0716468795162
 30
0.0
 11
982.1837721204275
 21
853.2383135461829
 31
0.0
 12
979.6837721204274
 22
853.6549802128496
 32
0.0
 13
979.6837721204274
 23
853.6549802128496
 33
0.0
  0
SOLID
  5
32EF
330
329E
100
AcDbEntity
  8
AM_5
100
AcDbTrace
 10
1102.171272120427
 20
854.0716468795162
 30
0.0
 11
1102.171272120427
 21
853.2383135461829
 31
0.0
 12
1104.671272120427
 22
853.6549802128496
 32
0.0
 13
1104.671272120427
 23
853.6549802128496
 33
0.0
  0
MTEXT
  5
32F0
330
329E
100
AcDbEntity
  8
AM_5
 62
     2
100
AcDbMText
 10
1042.177522120427
 20
858.6555707640306
 30
0.0
 40
6.0
 41
0.0
 46
0.0
 71
     5
 72
     1
  1
%%c125
 73
     1
 44
1.0
  0
POINT
  5
32F1
330
329E
100
AcDbEntity
  8
Defpoints
 62
     0
100
AcDbPoint
 10
979.6837721204274
 20
805.1436307128541
 30
0.0
  0
POINT
  5
32F2
330
329E
100
AcDbEntity
  8
Defpoints
 62
     0
100
AcDbPoint
 10
1104.671272120427
 20
803.6587792128493
 30
0.0
  0
POINT
  5
32F3
330
329E
100
AcDbEntity
  8
Defpoints
 62
     0
100
AcDbPoint
 10
1104.671272120427
 20
853.6549802128496
 30
0.0
  0
ENDBLK
  5
32A0
330
329E
100
AcDbEntity
  8
0
100
AcDbBlockEnd
  0
BLOCK
  5
32AB
330
32AA
100
AcDbEntity
  8
0
100
AcDbBlockBegin
  2
*D12
 70
     1
 10
0.0
 20
0.0
 30
0.0
  3
*D12
  1

  0
LINE
  5
3359
330
32AA
100
AcDbEntity
  8
AM_5
100
AcDbLine
 10
1060.028314647035
 20
803.6587792128493
 30
0.0
 11
1135.136164833353
 21
803.6587792128493
 31
0.0
  0
LINE
  5
335A
330
32AA
100
AcDbEntity
  8
AM_5
100
AcDbLine
 10
1096.221828723448
 20
733.6657792128494
 30
0.0
 11
1135.136164833353
 21
733.6657792128494
 31
0.0
  0
LINE
  5
335B
330
32AA
100
AcDbEntity
  8
AM_5
100
AcDbLine
 10
1134.136164833353
 20
801.1587792128493
 30
0.0
 11
1134.136164833353
 21
736.1657792128494
 31
0.0
  0
SOLID
  5
335C
330
32AA
100
AcDbEntity
  8
AM_5
100
AcDbTrace
 10
1133.719498166686
 20
801.1587792128493
 30
0.0
 11
1134.55283150002
 21
801.1587792128493
 31
0.0
 12
1134.136164833353
 22
803.6587792128493
 32
0.0
 13
1134.136164833353
 23
803.6587792128493
 33
0.0
  0
SOLID
  5
335D
330
32AA
100
AcDbEntity
  8
AM_5
100
AcDbTrace
 10
1133.719498166686
 20
736.1657792128494
 30
0.0
 11
1134.55283150002
 21
736.1657792128494
 31
0.0
 12
1134.136164833353
 22
733.6657792128494
 32
0.0
 13
1134.136164833353
 23
733.6657792128494
 33
0.0
  0
MTEXT
  5
335E
330
32AA
100
AcDbEntity
  8
AM_5
 62
     2
100
AcDbMText
 10
1128.386164833353
 20
769.1845980290777
 30
0.0
 40
6.0
 41
0.0
 46
0.0
 71
     5
 72
     1
  1
Sperrwasser 70mm
 11
0.0000000000000001
 21
1.0
 31
0.0
 73
     1
 44
1.0
  0
POINT
  5
335F
330
32AA
100
AcDbEntity
  8
Defpoints
 62
     0
100
AcDbPoint
 10
1059.028314647035
 20
803.6587792128493
 30
0.0
  0
POINT
  5
3360
330
32AA
100
AcDbEntity
  8
Defpoints
 62
     0
100
AcDbPoint
 10
1095.221828723448
 20
733.6657792128494
 30
0.0
  0
POINT
  5
3361
330
32AA
100
AcDbEntity
  8
Defpoints
 62
     0
100
AcDbPoint
 10
1134.136164833353
 20
733.6657792128494
 30
0.0
  0
ENDBLK
  5
32AC
330
32AA
100
AcDbEntity
  8
0
100
AcDbBlockEnd
  0
BLOCK
  5
32B8
330
32B7
100
AcDbEntity
  8
0
100
AcDbBlockBegin
  2
*D13
 70
     1
 10
0.0
 20
0.0
 30
0.0
  3
*D13
  1

  0
LINE
  5
32E2
330
32B7
100
AcDbEntity
  8
AM_5
100
AcDbLine
 10
993.6775221204277
 20
672.6718792128508
 30
0.0
 11
944.4037438624581
 21
672.6718792128508
 31
0.0
  0
LINE
  5
32E3
330
32B7
100
AcDbEntity
  8
AM_5
100
AcDbLine
 10
1026.94284572043
 20
827.4643984128562
 30
0.0
 11
944.4037438624583
 21
827.4643984128562
 31
0.0
  0
LINE
  5
32E4
330
32B7
100
AcDbEntity
  8
AM_5
100
AcDbLine
 10
945.4037438624581
 20
675.1718792128508
 30
0.0
 11
945.4037438624583
 21
824.9643984128562
 31
0.0
  0
SOLID
  5
32E5
330
32B7
100
AcDbEntity
  8
AM_5
100
AcDbTrace
 10
944.9870771957916
 20
675.1718792128508
 30
0.0
 11
945.8204105291247
 21
675.1718792128508
 31
0.0
 12
945.4037438624581
 22
672.6718792128508
 32
0.0
 13
945.4037438624581
 23
672.6718792128508
 33
0.0
  0
SOLID
  5
32E6
330
32B7
100
AcDbEntity
  8
AM_5
100
AcDbTrace
 10
944.9870771957916
 20
824.9643984128562
 30
0.0
 11
945.8204105291249
 21
824.9643984128562
 31
0.0
 12
945.4037438624583
 22
827.4643984128562
 32
0.0
 13
945.4037438624583
 23
827.4643984128562
 33
0.0
  0
MTEXT
  5
32E7
330
32B7
100
AcDbEntity
  8
AM_5
 62
     2
100
AcDbMText
 10
940.403743862458
 20
750.0681388128535
 30
0.0
 40
6.0
 41
0.0
 46
0.0
 71
     5
 72
     1
  1
155
 11
0.0000000000000001
 21
1.0
 31
0.0
 73
     1
 44
1.0
  0
POINT
  5
32E8
330
32B7
100
AcDbEntity
  8
Defpoints
 62
     0
100
AcDbPoint
 10
994.6775221204276
 20
672.6718792128508
 30
0.0
  0
POINT
  5
32E9
330
32B7
100
AcDbEntity
  8
Defpoints
 62
     0
100
AcDbPoint
 10
1027.94284572043
 20
827.4643984128562
 30
0.0
  0
POINT
  5
32EA
330
32B7
100
AcDbEntity
  8
Defpoints
 62
     0
100
AcDbPoint
 10
945.4037438624583
 20
827.4643984128562
 30
0.0
  0
ENDBLK
  5
32B9
330
32B7
100
AcDbEntity
  8
0
100
AcDbBlockEnd
  0
ENDSEC
  0
SECTION
  2
ENTITIES
  0
POLYLINE
  5
1060
330
134F
100
AcDbEntity
  8
SCHRAFFUR_RAND
100
AcDb2dPolyline
 66
     1
 10
0.0
 20
0.0
 30
0.0
 70
     1
  0
VERTEX
  5
1061
330
1060
100
AcDbEntity
  8
SCHRAFFUR_RAND
100
AcDbVertex
100
AcDb2dVertex
 10
75.90899999999999
 20
124.779
 30
0.0
  0
VERTEX
  5
1062
330
1060
100
AcDbEntity
  8
SCHRAFFUR_RAND
100
AcDbVertex
100
AcDb2dVertex
 10
74.575
 20
126.06
 30
0.0
  0
VERTEX
  5
1063
330
1060
100
AcDbEntity
  8
SCHRAFFUR_RAND
100
AcDbVertex
100
AcDb2dVertex
 10
72.01999999999999
 20
126.745
 30
0.0
  0
VERTEX
  5
1064
330
1060
100
AcDbEntity
  8
SCHRAFFUR_RAND
100
AcDbVertex
100
AcDb2dVertex
 10
69.466
 20
126.06
 30
0.0
  0
VERTEX
  5
1065
330
1060
100
AcDbEntity
  8
SCHRAFFUR_RAND
100
AcDbVertex
100
AcDb2dVertex
 10
67.596
 20
124.19
 30
0.0
  0
VERTEX
  5
1066
330
1060
100
AcDbEntity
  8
SCHRAFFUR_RAND
100
AcDbVertex
100
AcDb2dVertex
 10
66.91199999999999
 20
121.636
 30
0.0
  0
VERTEX
  5
1067
330
1060
100
AcDbEntity
  8
SCHRAFFUR_RAND
100
AcDbVertex
100
AcDb2dVertex
 10
67.596
 20
119.081
 30
0.0
  0
VERTEX
  5
1068
330
1060
100
AcDbEntity
  8
SCHRAFFUR_RAND
100
AcDbVertex
100
AcDb2dVertex
 10
69.466
 20
117.211
 30
0.0
  0
VERTEX
  5
1069
330
1060
100
AcDbEntity
  8
SCHRAFFUR_RAND
100
AcDbVertex
100
AcDb2dVertex
 10
72.01999999999999
 20
116.527
 30
0.0
  0
VERTEX
  5
106A
330
1060
100
AcDbEntity
  8
SCHRAFFUR_RAND
100
AcDbVertex
100
AcDb2dVertex
 10
72.51999999999999
 20
116.636
 30
0.0
  0
VERTEX
  5
106B
330
1060
100
AcDbEntity
  8
SCHRAFFUR_RAND
100
AcDbVertex
100
AcDb2dVertex
 10
74.575
 20
117.211
 30
0.0
  0
VERTEX
  5
106C
330
1060
100
AcDbEntity
  8
SCHRAFFUR_RAND
100
AcDbVertex
100
AcDb2dVertex
 10
76.44499999999999
 20
119.081
 30
0.0
  0
VERTEX
  5
106D
330
1060
100
AcDbEntity
  8
SCHRAFFUR_RAND
100
AcDbVertex
100
AcDb2dVertex
 10
77.01999999999999
 20
121.636
 30
0.0
  0
VERTEX
  5
106E
330
1060
100
AcDbEntity
  8
SCHRAFFUR_RAND
100
AcDbVertex
100
AcDb2dVertex
 10
76.44499999999999
 20
124.19
 30
0.0
  0
VERTEX
  5
106F
330
1060
100
AcDbEntity
  8
SCHRAFFUR_RAND
100
AcDbVertex
100
AcDb2dVertex
 10
75.90899999999999
 20
124.779
 30
0.0
  0
SEQEND
  5
1070
330
1060
100
AcDbEntity
  8
SCHRAFFUR_RAND
  0
POLYLINE
  5
107A
330
134F
100
AcDbEntity
  8
SCHRAFFUR_RAND
100
AcDb2dPolyline
 66
     1
 10
0.0
 20
0.0
 30
0.0
 70
     1
  0
VERTEX
  5
107B
330
107A
100
AcDbEntity
  8
SCHRAFFUR_RAND
100
AcDbVertex
100
AcDb2dVertex
 10
167.52
 20
116.636
 30
0.0
  0
VERTEX
  5
107C
330
107A
100
AcDbEntity
  8
SCHRAFFUR_RAND
100
AcDbVertex
100
AcDb2dVertex
 10
168.02
 20
116.527
 30
0.0
  0
VERTEX
  5
107D
330
107A
100
AcDbEntity
  8
SCHRAFFUR_RAND
100
AcDbVertex
100
AcDb2dVertex
 10
170.575
 20
117.211
 30
0.0
  0
VERTEX
  5
107E
330
107A
100
AcDbEntity
  8
SCHRAFFUR_RAND
100
AcDbVertex
100
AcDb2dVertex
 10
172.445
 20
119.081
 30
0.0
  0
VERTEX
  5
107F
330
107A
100
AcDbEntity
  8
SCHRAFFUR_RAND
100
AcDbVertex
100
AcDb2dVertex
 10
173.02
 20
121.636
 30
0.0
  0
VERTEX
  5
1080
330
107A
100
AcDbEntity
  8
SCHRAFFUR_RAND
100
AcDbVertex
100
AcDb2dVertex
 10
172.445
 20
124.19
 30
0.0
  0
VERTEX
  5
1081
330
107A
100
AcDbEntity
  8
SCHRAFFUR_RAND
100
AcDbVertex
100
AcDb2dVertex
 10
170.575
 20
126.06
 30
0.0
  0
VERTEX
  5
1082
330
107A
100
AcDbEntity
  8
SCHRAFFUR_RAND
100
AcDbVertex
100
AcDb2dVertex
 10
168.02
 20
126.745
 30
0.0
  0
VERTEX
  5
1083
330
107A
100
AcDbEntity
  8
SCHRAFFUR_RAND
100
AcDbVertex
100
AcDb2dVertex
 10
165.4659999999999
 20
126.06
 30
0.0
  0
VERTEX
  5
1084
330
107A
100
AcDbEntity
  8
SCHRAFFUR_RAND
100
AcDbVertex
100
AcDb2dVertex
 10
164.132
 20
124.779
 30
0.0
  0
VERTEX
  5
1085
330
107A
100
AcDbEntity
  8
SCHRAFFUR_RAND
100
AcDbVertex
100
AcDb2dVertex
 10
163.596
 20
124.19
 30
0.0
  0
VERTEX
  5
1086
330
107A
100
AcDbEntity
  8
SCHRAFFUR_RAND
100
AcDbVertex
100
AcDb2dVertex
 10
162.912
 20
121.636
 30
0.0
  0
VERTEX
  5
1087
330
107A
100
AcDbEntity
  8
SCHRAFFUR_RAND
100
AcDbVertex
100
AcDb2dVertex
 10
163.596
 20
119.081
 30
0.0
  0
VERTEX
  5
1088
330
107A
100
AcDbEntity
  8
SCHRAFFUR_RAND
100
AcDbVertex
100
AcDb2dVertex
 10
165.4659999999999
 20
117.211
 30
0.0
  0
VERTEX
  5
1089
330
107A
100
AcDbEntity
  8
SCHRAFFUR_RAND
100
AcDbVertex
100
AcDb2dVertex
 10
167.52
 20
116.636
 30
0.0
  0
SEQEND
  5
108A
330
107A
100
AcDbEntity
  8
SCHRAFFUR_RAND
  0
POLYLINE
  5
109E
330
134F
100
AcDbEntity
  8
SCHRAFFUR_RAND
100
AcDb2dPolyline
 66
     1
 10
0.0
 20
0.0
 30
0.0
 70
     1
  0
VERTEX
  5
109F
330
109E
100
AcDbEntity
  8
SCHRAFFUR_RAND
100
AcDbVertex
100
AcDb2dVertex
 10
181.02
 20
174.636
 30
0.0
  0
VERTEX
  5
10A0
330
109E
100
AcDbEntity
  8
SCHRAFFUR_RAND
100
AcDbVertex
100
AcDb2dVertex
 10
182.52
 20
174.636
 30
0.0
  0
VERTEX
  5
10A1
330
109E
100
AcDbEntity
  8
SCHRAFFUR_RAND
100
AcDbVertex
100
AcDb2dVertex
 10
182.52
 20
248.132
 30
0.0
  0
VERTEX
  5
10A2
330
109E
100
AcDbEntity
  8
SCHRAFFUR_RAND
100
AcDbVertex
100
AcDb2dVertex
 10
182.094
 20
252.442
 30
0.0
  0
VERTEX
  5
10A3
330
109E
100
AcDbEntity
  8
SCHRAFFUR_RAND
100
AcDbVertex
100
AcDb2dVertex
 10
180.52
 20
256.4890000000001
 30
0.0
  0
VERTEX
  5
10A4
330
109E
100
AcDbEntity
  8
SCHRAFFUR_RAND
100
AcDbVertex
100
AcDb2dVertex
 10
178.003
 20
260.028
 30
0.0
  0
VERTEX
  5
10A5
330
109E
100
AcDbEntity
  8
SCHRAFFUR_RAND
100
AcDbVertex
100
AcDb2dVertex
 10
174.697
 20
262.844
 30
0.0
  0
VERTEX
  5
10A6
330
109E
100
AcDbEntity
  8
SCHRAFFUR_RAND
100
AcDbVertex
100
AcDb2dVertex
 10
170.802
 20
264.765
 30
0.0
  0
VERTEX
  5
10A7
330
109E
100
AcDbEntity
  8
SCHRAFFUR_RAND
100
AcDbVertex
100
AcDb2dVertex
 10
166.546
 20
265.565
 30
0.0
  0
VERTEX
  5
10A8
330
109E
100
AcDbEntity
  8
SCHRAFFUR_RAND
100
AcDbVertex
100
AcDb2dVertex
 10
143.021
 20
267.623
 30
0.0
  0
VERTEX
  5
10A9
330
109E
100
AcDbEntity
  8
SCHRAFFUR_RAND
100
AcDbVertex
100
AcDb2dVertex
 10
133.489
 20
268.457
 30
0.0
  0
VERTEX
  5
10AA
330
109E
100
AcDbEntity
  8
SCHRAFFUR_RAND
100
AcDbVertex
100
AcDb2dVertex
 10
131.027
 20
268.313
 30
0.0
  0
VERTEX
  5
10AB
330
109E
100
AcDbEntity
  8
SCHRAFFUR_RAND
100
AcDbVertex
100
AcDb2dVertex
 10
128.8229999999999
 20
267.166
 30
0.0
  0
VERTEX
  5
10AC
330
109E
100
AcDbEntity
  8
SCHRAFFUR_RAND
100
AcDbVertex
100
AcDb2dVertex
 10
127.293
 20
265.232
 30
0.0
  0
VERTEX
  5
10AD
330
109E
100
AcDbEntity
  8
SCHRAFFUR_RAND
100
AcDbVertex
100
AcDb2dVertex
 10
125.217
 20
261.636
 30
0.0
  0
VERTEX
  5
10AE
330
109E
100
AcDbEntity
  8
SCHRAFFUR_RAND
100
AcDbVertex
100
AcDb2dVertex
 10
123.611
 20
259.694
 30
0.0
  0
VERTEX
  5
10AF
330
109E
100
AcDbEntity
  8
SCHRAFFUR_RAND
100
AcDbVertex
100
AcDb2dVertex
 10
121.291
 20
258.66
 30
0.0
  0
VERTEX
  5
10B0
330
109E
100
AcDbEntity
  8
SCHRAFFUR_RAND
100
AcDbVertex
100
AcDb2dVertex
 10
118.75
 20
258.66
 30
0.0
  0
VERTEX
  5
10B1
330
109E
100
AcDbEntity
  8
SCHRAFFUR_RAND
100
AcDbVertex
100
AcDb2dVertex
 10
116.43
 20
259.694
 30
0.0
  0
VERTEX
  5
10B2
330
109E
100
AcDbEntity
  8
SCHRAFFUR_RAND
100
AcDbVertex
100
AcDb2dVertex
 10
114.824
 20
261.636
 30
0.0
  0
VERTEX
  5
10B3
330
109E
100
AcDbEntity
  8
SCHRAFFUR_RAND
100
AcDbVertex
100
AcDb2dVertex
 10
112.748
 20
265.232
 30
0.0
  0
VERTEX
  5
10B4
330
109E
100
AcDbEntity
  8
SCHRAFFUR_RAND
100
AcDbVertex
100
AcDb2dVertex
 10
111.218
 20
267.166
 30
0.0
  0
VERTEX
  5
10B5
330
109E
100
AcDbEntity
  8
SCHRAFFUR_RAND
100
AcDbVertex
100
AcDb2dVertex
 10
109.014
 20
268.313
 30
0.0
  0
VERTEX
  5
10B6
330
109E
100
AcDbEntity
  8
SCHRAFFUR_RAND
100
AcDbVertex
100
AcDb2dVertex
 10
106.552
 20
268.458
 30
0.0
  0
VERTEX
  5
10B7
330
109E
100
AcDbEntity
  8
SCHRAFFUR_RAND
100
AcDbVertex
100
AcDb2dVertex
 10
97.02100000000001
 20
267.623
 30
0.0
  0
VERTEX
  5
10B8
330
109E
100
AcDbEntity
  8
SCHRAFFUR_RAND
100
AcDbVertex
100
AcDb2dVertex
 10
73.495
 20
265.565
 30
0.0
  0
VERTEX
  5
10B9
330
109E
100
AcDbEntity
  8
SCHRAFFUR_RAND
100
AcDbVertex
100
AcDb2dVertex
 10
69.23899999999999
 20
264.765
 30
0.0
  0
VERTEX
  5
10BA
330
109E
100
AcDbEntity
  8
SCHRAFFUR_RAND
100
AcDbVertex
100
AcDb2dVertex
 10
65.34399999999999
 20
262.844
 30
0.0
  0
VERTEX
  5
10BB
330
109E
100
AcDbEntity
  8
SCHRAFFUR_RAND
100
AcDbVertex
100
AcDb2dVertex
 10
62.03800000000001
 20
260.028
 30
0.0
  0
VERTEX
  5
10BC
330
109E
100
AcDbEntity
  8
SCHRAFFUR_RAND
100
AcDbVertex
100
AcDb2dVertex
 10
59.521
 20
256.4890000000001
 30
0.0
  0
VERTEX
  5
10BD
330
109E
100
AcDbEntity
  8
SCHRAFFUR_RAND
100
AcDbVertex
100
AcDb2dVertex
 10
57.94699999999999
 20
252.442
 30
0.0
  0
VERTEX
  5
10BE
330
109E
100
AcDbEntity
  8
SCHRAFFUR_RAND
100
AcDbVertex
100
AcDb2dVertex
 10
57.52
 20
248.132
 30
0.0
  0
VERTEX
  5
10BF
330
109E
100
AcDbEntity
  8
SCHRAFFUR_RAND
100
AcDbVertex
100
AcDb2dVertex
 10
57.52
 20
174.636
 30
0.0
  0
VERTEX
  5
10C0
330
109E
100
AcDbEntity
  8
SCHRAFFUR_RAND
100
AcDbVertex
100
AcDb2dVertex
 10
59.02000000000001
 20
174.636
 30
0.0
  0
VERTEX
  5
10C1
330
109E
100
AcDbEntity
  8
SCHRAFFUR_RAND
100
AcDbVertex
100
AcDb2dVertex
 10
59.728
 20
174.929
 30
0.0
  0
VERTEX
  5
10C2
330
109E
100
AcDbEntity
  8
SCHRAFFUR_RAND
100
AcDbVertex
100
AcDb2dVertex
 10
60.02
 20
175.636
 30
0.0
  0
VERTEX
  5
10C3
330
109E
100
AcDbEntity
  8
SCHRAFFUR_RAND
100
AcDbVertex
100
AcDb2dVertex
 10
60.02
 20
248.132
 30
0.0
  0
VERTEX
  5
10C4
330
109E
100
AcDbEntity
  8
SCHRAFFUR_RAND
100
AcDbVertex
100
AcDb2dVertex
 10
60.57199999999999
 20
252.55
 30
0.0
  0
VERTEX
  5
10C5
330
109E
100
AcDbEntity
  8
SCHRAFFUR_RAND
100
AcDbVertex
100
AcDb2dVertex
 10
62.495
 20
256.5809999999999
 30
0.0
  0
VERTEX
  5
10C6
330
109E
100
AcDbEntity
  8
SCHRAFFUR_RAND
100
AcDbVertex
100
AcDb2dVertex
 10
65.512
 20
259.874
 30
0.0
  0
VERTEX
  5
10C7
330
109E
100
AcDbEntity
  8
SCHRAFFUR_RAND
100
AcDbVertex
100
AcDb2dVertex
 10
69.361
 20
262.141
 30
0.0
  0
VERTEX
  5
10C8
330
109E
100
AcDbEntity
  8
SCHRAFFUR_RAND
100
AcDbVertex
100
AcDb2dVertex
 10
73.71300000000001
 20
263.075
 30
0.0
  0
VERTEX
  5
10C9
330
109E
100
AcDbEntity
  8
SCHRAFFUR_RAND
100
AcDbVertex
100
AcDb2dVertex
 10
106.77
 20
265.967
 30
0.0
  0
VERTEX
  5
10CA
330
109E
100
AcDbEntity
  8
SCHRAFFUR_RAND
100
AcDbVertex
100
AcDb2dVertex
 10
108.297
 20
265.918
 30
0.0
  0
VERTEX
  5
10CB
330
109E
100
AcDbEntity
  8
SCHRAFFUR_RAND
100
AcDbVertex
100
AcDb2dVertex
 10
109.667
 20
265.205
 30
0.0
  0
VERTEX
  5
10CC
330
109E
100
AcDbEntity
  8
SCHRAFFUR_RAND
100
AcDbVertex
100
AcDb2dVertex
 10
110.583
 20
263.982
 30
0.0
  0
VERTEX
  5
10CD
330
109E
100
AcDbEntity
  8
SCHRAFFUR_RAND
100
AcDbVertex
100
AcDb2dVertex
 10
112.659
 20
260.386
 30
0.0
  0
VERTEX
  5
10CE
330
109E
100
AcDbEntity
  8
SCHRAFFUR_RAND
100
AcDbVertex
100
AcDb2dVertex
 10
114.487
 20
258.041
 30
0.0
  0
VERTEX
  5
10CF
330
109E
100
AcDbEntity
  8
SCHRAFFUR_RAND
100
AcDbVertex
100
AcDb2dVertex
 10
117.076
 20
256.546
 30
0.0
  0
VERTEX
  5
10D0
330
109E
100
AcDbEntity
  8
SCHRAFFUR_RAND
100
AcDbVertex
100
AcDb2dVertex
 10
120.02
 20
256.027
 30
0.0
  0
VERTEX
  5
10D1
330
109E
100
AcDbEntity
  8
SCHRAFFUR_RAND
100
AcDbVertex
100
AcDb2dVertex
 10
122.965
 20
256.546
 30
0.0
  0
VERTEX
  5
10D2
330
109E
100
AcDbEntity
  8
SCHRAFFUR_RAND
100
AcDbVertex
100
AcDb2dVertex
 10
125.554
 20
258.041
 30
0.0
  0
VERTEX
  5
10D3
330
109E
100
AcDbEntity
  8
SCHRAFFUR_RAND
100
AcDbVertex
100
AcDb2dVertex
 10
127.382
 20
260.386
 30
0.0
  0
VERTEX
  5
10D4
330
109E
100
AcDbEntity
  8
SCHRAFFUR_RAND
100
AcDbVertex
100
AcDb2dVertex
 10
129.458
 20
263.982
 30
0.0
  0
VERTEX
  5
10D5
330
109E
100
AcDbEntity
  8
SCHRAFFUR_RAND
100
AcDbVertex
100
AcDb2dVertex
 10
130.374
 20
265.205
 30
0.0
  0
VERTEX
  5
10D6
330
109E
100
AcDbEntity
  8
SCHRAFFUR_RAND
100
AcDbVertex
100
AcDb2dVertex
 10
131.744
 20
265.918
 30
0.0
  0
VERTEX
  5
10D7
330
109E
100
AcDbEntity
  8
SCHRAFFUR_RAND
100
AcDbVertex
100
AcDb2dVertex
 10
133.271
 20
265.967
 30
0.0
  0
VERTEX
  5
10D8
330
109E
100
AcDbEntity
  8
SCHRAFFUR_RAND
100
AcDbVertex
100
AcDb2dVertex
 10
166.328
 20
263.074
 30
0.0
  0
VERTEX
  5
10D9
330
109E
100
AcDbEntity
  8
SCHRAFFUR_RAND
100
AcDbVertex
100
AcDb2dVertex
 10
170.68
 20
262.141
 30
0.0
  0
VERTEX
  5
10DA
330
109E
100
AcDbEntity
  8
SCHRAFFUR_RAND
100
AcDbVertex
100
AcDb2dVertex
 10
174.529
 20
259.874
 30
0.0
  0
VERTEX
  5
10DB
330
109E
100
AcDbEntity
  8
SCHRAFFUR_RAND
100
AcDbVertex
100
AcDb2dVertex
 10
177.546
 20
256.5809999999999
 30
0.0
  0
VERTEX
  5
10DC
330
109E
100
AcDbEntity
  8
SCHRAFFUR_RAND
100
AcDbVertex
100
AcDb2dVertex
 10
179.469
 20
252.55
 30
0.0
  0
VERTEX
  5
10DD
330
109E
100
AcDbEntity
  8
SCHRAFFUR_RAND
100
AcDbVertex
100
AcDb2dVertex
 10
180.02
 20
248.132
 30
0.0
  0
VERTEX
  5
10DE
330
109E
100
AcDbEntity
  8
SCHRAFFUR_RAND
100
AcDbVertex
100
AcDb2dVertex
 10
180.02
 20
175.636
 30
0.0
  0
VERTEX
  5
10DF
330
109E
100
AcDbEntity
  8
SCHRAFFUR_RAND
100
AcDbVertex
100
AcDb2dVertex
 10
180.313
 20
174.929
 30
0.0
  0
VERTEX
  5
10E0
330
109E
100
AcDbEntity
  8
SCHRAFFUR_RAND
100
AcDbVertex
100
AcDb2dVertex
 10
181.02
 20
174.636
 30
0.0
  0
SEQEND
  5
10E1
330
109E
100
AcDbEntity
  8
SCHRAFFUR_RAND
  0
POLYLINE
  5
1126
330
134F
100
AcDbEntity
  8
SCHRAFFUR_RAND
100
AcDb2dPolyline
 66
     1
 10
0.0
 20
0.0
 30
0.0
 70
     1
  0
VERTEX
  5
1127
330
1126
100
AcDbEntity
  8
SCHRAFFUR_RAND
100
AcDbVertex
100
AcDb2dVertex
 10
95.02
 20
174.636
 30
0.0
  0
VERTEX
  5
1128
330
1126
100
AcDbEntity
  8
SCHRAFFUR_RAND
100
AcDbVertex
100
AcDb2dVertex
 10
93.64299999999998
 20
170.741
 30
0.0
  0
VERTEX
  5
1129
330
1126
100
AcDbEntity
  8
SCHRAFFUR_RAND
100
AcDbVertex
100
AcDb2dVertex
 10
90.652
 20
165.98
 30
0.0
  0
VERTEX
  5
112A
330
1126
100
AcDbEntity
  8
SCHRAFFUR_RAND
100
AcDbVertex
100
AcDb2dVertex
 10
86.676
 20
162.005
 30
0.0
  0
VERTEX
  5
112B
330
1126
100
AcDbEntity
  8
SCHRAFFUR_RAND
100
AcDbVertex
100
AcDb2dVertex
 10
81.91500000000001
 20
159.013
 30
0.0
  0
VERTEX
  5
112C
330
1126
100
AcDbEntity
  8
SCHRAFFUR_RAND
100
AcDbVertex
100
AcDb2dVertex
 10
76.608
 20
157.156
 30
0.0
  0
VERTEX
  5
112D
330
1126
100
AcDbEntity
  8
SCHRAFFUR_RAND
100
AcDbVertex
100
AcDb2dVertex
 10
71.02
 20
156.636
 30
0.0
  0
VERTEX
  5
112E
330
1126
100
AcDbEntity
  8
SCHRAFFUR_RAND
100
AcDbVertex
100
AcDb2dVertex
 10
71.02
 20
154.636
 30
0.0
  0
VERTEX
  5
112F
330
1126
100
AcDbEntity
  8
SCHRAFFUR_RAND
100
AcDbVertex
100
AcDb2dVertex
 10
59.02000000000001
 20
154.636
 30
0.0
  0
VERTEX
  5
1130
330
1126
100
AcDbEntity
  8
SCHRAFFUR_RAND
100
AcDbVertex
100
AcDb2dVertex
 10
59.824
 20
151.636
 30
0.0
  0
VERTEX
  5
1131
330
1126
100
AcDbEntity
  8
SCHRAFFUR_RAND
100
AcDbVertex
100
AcDb2dVertex
 10
73.01999999999999
 20
151.636
 30
0.0
  0
VERTEX
  5
1132
330
1126
100
AcDbEntity
  8
SCHRAFFUR_RAND
100
AcDbVertex
100
AcDb2dVertex
 10
75.075
 20
151.195
 30
0.0
  0
VERTEX
  5
1133
330
1126
100
AcDbEntity
  8
SCHRAFFUR_RAND
100
AcDbVertex
100
AcDb2dVertex
 10
76.57899999999999
 20
149.69
 30
0.0
  0
VERTEX
  5
1134
330
1126
100
AcDbEntity
  8
SCHRAFFUR_RAND
100
AcDbVertex
100
AcDb2dVertex
 10
77.01999999999999
 20
147.636
 30
0.0
  0
VERTEX
  5
1135
330
1126
100
AcDbEntity
  8
SCHRAFFUR_RAND
100
AcDbVertex
100
AcDb2dVertex
 10
76.71300000000001
 20
146.081
 30
0.0
  0
VERTEX
  5
1136
330
1126
100
AcDbEntity
  8
SCHRAFFUR_RAND
100
AcDbVertex
100
AcDb2dVertex
 10
75.575
 20
144.9429999999999
 30
0.0
  0
VERTEX
  5
1137
330
1126
100
AcDbEntity
  8
SCHRAFFUR_RAND
100
AcDbVertex
100
AcDb2dVertex
 10
74.02
 20
144.636
 30
0.0
  0
VERTEX
  5
1138
330
1126
100
AcDbEntity
  8
SCHRAFFUR_RAND
100
AcDbVertex
100
AcDb2dVertex
 10
73.01999999999999
 20
144.636
 30
0.0
  0
VERTEX
  5
1139
330
1126
100
AcDbEntity
  8
SCHRAFFUR_RAND
100
AcDbVertex
100
AcDb2dVertex
 10
71.95999999999999
 20
144.196
 30
0.0
  0
VERTEX
  5
113A
330
1126
100
AcDbEntity
  8
SCHRAFFUR_RAND
100
AcDbVertex
100
AcDb2dVertex
 10
71.52
 20
143.136
 30
0.0
  0
VERTEX
  5
113B
330
1126
100
AcDbEntity
  8
SCHRAFFUR_RAND
100
AcDbVertex
100
AcDb2dVertex
 10
71.95999999999999
 20
142.075
 30
0.0
  0
VERTEX
  5
113C
330
1126
100
AcDbEntity
  8
SCHRAFFUR_RAND
100
AcDbVertex
100
AcDb2dVertex
 10
73.01999999999999
 20
141.636
 30
0.0
  0
VERTEX
  5
113D
330
1126
100
AcDbEntity
  8
SCHRAFFUR_RAND
100
AcDbVertex
100
AcDb2dVertex
 10
74.02
 20
141.636
 30
0.0
  0
VERTEX
  5
113E
330
1126
100
AcDbEntity
  8
SCHRAFFUR_RAND
100
AcDbVertex
100
AcDb2dVertex
 10
75.575
 20
141.329
 30
0.0
  0
VERTEX
  5
113F
330
1126
100
AcDbEntity
  8
SCHRAFFUR_RAND
100
AcDbVertex
100
AcDb2dVertex
 10
76.71300000000001
 20
140.19
 30
0.0
  0
VERTEX
  5
1140
330
1126
100
AcDbEntity
  8
SCHRAFFUR_RAND
100
AcDbVertex
100
AcDb2dVertex
 10
77.01999999999999
 20
138.636
 30
0.0
  0
VERTEX
  5
1141
330
1126
100
AcDbEntity
  8
SCHRAFFUR_RAND
100
AcDbVertex
100
AcDb2dVertex
 10
77.01999999999999
 20
136.927
 30
0.0
  0
VERTEX
  5
1142
330
1126
100
AcDbEntity
  8
SCHRAFFUR_RAND
100
AcDbVertex
100
AcDb2dVertex
 10
76.762
 20
135.513
 30
0.0
  0
VERTEX
  5
1143
330
1126
100
AcDbEntity
  8
SCHRAFFUR_RAND
100
AcDbVertex
100
AcDb2dVertex
 10
76.02
 20
134.282
 30
0.0
  0
VERTEX
  5
1144
330
1126
100
AcDbEntity
  8
SCHRAFFUR_RAND
100
AcDbVertex
100
AcDb2dVertex
 10
75.27899999999999
 20
133.05
 30
0.0
  0
VERTEX
  5
1145
330
1126
100
AcDbEntity
  8
SCHRAFFUR_RAND
100
AcDbVertex
100
AcDb2dVertex
 10
75.01999999999999
 20
131.636
 30
0.0
  0
VERTEX
  5
1146
330
1126
100
AcDbEntity
  8
SCHRAFFUR_RAND
100
AcDbVertex
100
AcDb2dVertex
 10
75.01999999999999
 20
127.293
 30
0.0
  0
VERTEX
  5
1147
330
1126
100
AcDbEntity
  8
SCHRAFFUR_RAND
100
AcDbVertex
100
AcDb2dVertex
 10
75.24899999999999
 20
125.959
 30
0.0
  0
VERTEX
  5
1148
330
1126
100
AcDbEntity
  8
SCHRAFFUR_RAND
100
AcDbVertex
100
AcDb2dVertex
 10
75.90899999999999
 20
124.779
 30
0.0
  0
VERTEX
  5
1149
330
1126
100
AcDbEntity
  8
SCHRAFFUR_RAND
100
AcDbVertex
100
AcDb2dVertex
 10
76.44499999999999
 20
124.19
 30
0.0
  0
VERTEX
  5
114A
330
1126
100
AcDbEntity
  8
SCHRAFFUR_RAND
100
AcDbVertex
100
AcDb2dVertex
 10
77.01999999999999
 20
121.636
 30
0.0
  0
VERTEX
  5
114B
330
1126
100
AcDbEntity
  8
SCHRAFFUR_RAND
100
AcDbVertex
100
AcDb2dVertex
 10
76.44499999999999
 20
119.081
 30
0.0
  0
VERTEX
  5
114C
330
1126
100
AcDbEntity
  8
SCHRAFFUR_RAND
100
AcDbVertex
100
AcDb2dVertex
 10
74.575
 20
117.211
 30
0.0
  0
VERTEX
  5
114D
330
1126
100
AcDbEntity
  8
SCHRAFFUR_RAND
100
AcDbVertex
100
AcDb2dVertex
 10
72.51999999999999
 20
116.636
 30
0.0
  0
VERTEX
  5
114E
330
1126
100
AcDbEntity
  8
SCHRAFFUR_RAND
100
AcDbVertex
100
AcDb2dVertex
 10
72.51999999999999
 20
113.636
 30
0.0
  0
VERTEX
  5
114F
330
1126
100
AcDbEntity
  8
SCHRAFFUR_RAND
100
AcDbVertex
100
AcDb2dVertex
 10
80.02
 20
113.636
 30
0.0
  0
VERTEX
  5
1150
330
1126
100
AcDbEntity
  8
SCHRAFFUR_RAND
100
AcDbVertex
100
AcDb2dVertex
 10
80.02
 20
149.306
 30
0.0
  0
VERTEX
  5
1151
330
1126
100
AcDbEntity
  8
SCHRAFFUR_RAND
100
AcDbVertex
100
AcDb2dVertex
 10
80.51199999999999
 20
152.739
 30
0.0
  0
VERTEX
  5
1152
330
1126
100
AcDbEntity
  8
SCHRAFFUR_RAND
100
AcDbVertex
100
AcDb2dVertex
 10
82.24299999999999
 20
155.764
 30
0.0
  0
VERTEX
  5
1153
330
1126
100
AcDbEntity
  8
SCHRAFFUR_RAND
100
AcDbVertex
100
AcDb2dVertex
 10
84.954
 20
157.927
 30
0.0
  0
VERTEX
  5
1154
330
1126
100
AcDbEntity
  8
SCHRAFFUR_RAND
100
AcDbVertex
100
AcDb2dVertex
 10
88.83700000000001
 20
160.545
 30
0.0
  0
VERTEX
  5
1155
330
1126
100
AcDbEntity
  8
SCHRAFFUR_RAND
100
AcDbVertex
100
AcDb2dVertex
 10
92.15100000000001
 20
163.8659999999999
 30
0.0
  0
VERTEX
  5
1156
330
1126
100
AcDbEntity
  8
SCHRAFFUR_RAND
100
AcDbVertex
100
AcDb2dVertex
 10
94.855
 20
167.701
 30
0.0
  0
VERTEX
  5
1157
330
1126
100
AcDbEntity
  8
SCHRAFFUR_RAND
100
AcDbVertex
100
AcDb2dVertex
 10
96.768
 20
171.976
 30
0.0
  0
VERTEX
  5
1158
330
1126
100
AcDbEntity
  8
SCHRAFFUR_RAND
100
AcDbVertex
100
AcDb2dVertex
 10
98.52
 20
171.976
 30
0.0
  0
VERTEX
  5
1159
330
1126
100
AcDbEntity
  8
SCHRAFFUR_RAND
100
AcDbVertex
100
AcDb2dVertex
 10
98.45
 20
182.079
 30
0.0
  0
VERTEX
  5
115A
330
1126
100
AcDbEntity
  8
SCHRAFFUR_RAND
100
AcDbVertex
100
AcDb2dVertex
 10
98.52
 20
244.636
 30
0.0
  0
VERTEX
  5
115B
330
1126
100
AcDbEntity
  8
SCHRAFFUR_RAND
100
AcDbVertex
100
AcDb2dVertex
 10
96.02
 20
244.636
 30
0.0
  0
VERTEX
  5
115C
330
1126
100
AcDbEntity
  8
SCHRAFFUR_RAND
100
AcDbVertex
100
AcDb2dVertex
 10
96.02
 20
181.636
 30
0.0
  0
VERTEX
  5
115D
330
1126
100
AcDbEntity
  8
SCHRAFFUR_RAND
100
AcDbVertex
100
AcDb2dVertex
 10
95.5
 20
176.049
 30
0.0
  0
VERTEX
  5
115E
330
1126
100
AcDbEntity
  8
SCHRAFFUR_RAND
100
AcDbVertex
100
AcDb2dVertex
 10
95.02
 20
174.636
 30
0.0
  0
SEQEND
  5
115F
330
1126
100
AcDbEntity
  8
SCHRAFFUR_RAND
  0
POLYLINE
  5
1185
330
134F
100
AcDbEntity
  8
SCHRAFFUR_RAND
100
AcDb2dPolyline
 66
     1
 10
0.0
 20
0.0
 30
0.0
 70
     1
  0
VERTEX
  5
1186
330
1185
100
AcDbEntity
  8
SCHRAFFUR_RAND
100
AcDbVertex
100
AcDb2dVertex
 10
160.02
 20
113.636
 30
0.0
  0
VERTEX
  5
1187
330
1185
100
AcDbEntity
  8
SCHRAFFUR_RAND
100
AcDbVertex
100
AcDb2dVertex
 10
167.52
 20
113.636
 30
0.0
  0
VERTEX
  5
1188
330
1185
100
AcDbEntity
  8
SCHRAFFUR_RAND
100
AcDbVertex
100
AcDb2dVertex
 10
167.52
 20
116.661
 30
0.0
  0
VERTEX
  5
1189
330
1185
100
AcDbEntity
  8
SCHRAFFUR_RAND
100
AcDbVertex
100
AcDb2dVertex
 10
167.27
 20
116.69
 30
0.0
  0
VERTEX
  5
118A
330
1185
100
AcDbEntity
  8
SCHRAFFUR_RAND
100
AcDbVertex
100
AcDb2dVertex
 10
166.847
 20
116.773
 30
0.0
  0
VERTEX
  5
118B
330
1185
100
AcDbEntity
  8
SCHRAFFUR_RAND
100
AcDbVertex
100
AcDb2dVertex
 10
166.434
 20
116.892
 30
0.0
  0
VERTEX
  5
118C
330
1185
100
AcDbEntity
  8
SCHRAFFUR_RAND
100
AcDbVertex
100
AcDb2dVertex
 10
166.032
 20
117.046
 30
0.0
  0
VERTEX
  5
118D
330
1185
100
AcDbEntity
  8
SCHRAFFUR_RAND
100
AcDbVertex
100
AcDb2dVertex
 10
165.645
 20
117.234
 30
0.0
  0
VERTEX
  5
118E
330
1185
100
AcDbEntity
  8
SCHRAFFUR_RAND
100
AcDbVertex
100
AcDb2dVertex
 10
165.275
 20
117.454
 30
0.0
  0
VERTEX
  5
118F
330
1185
100
AcDbEntity
  8
SCHRAFFUR_RAND
100
AcDbVertex
100
AcDb2dVertex
 10
164.926
 20
117.706
 30
0.0
  0
VERTEX
  5
1190
330
1185
100
AcDbEntity
  8
SCHRAFFUR_RAND
100
AcDbVertex
100
AcDb2dVertex
 10
164.599
 20
117.986
 30
0.0
  0
VERTEX
  5
1191
330
1185
100
AcDbEntity
  8
SCHRAFFUR_RAND
100
AcDbVertex
100
AcDb2dVertex
 10
164.298
 20
118.294
 30
0.0
  0
VERTEX
  5
1192
330
1185
100
AcDbEntity
  8
SCHRAFFUR_RAND
100
AcDbVertex
100
AcDb2dVertex
 10
164.025
 20
118.626
 30
0.0
  0
VERTEX
  5
1193
330
1185
100
AcDbEntity
  8
SCHRAFFUR_RAND
100
AcDbVertex
100
AcDb2dVertex
 10
163.781
 20
118.981
 30
0.0
  0
VERTEX
  5
1194
330
1185
100
AcDbEntity
  8
SCHRAFFUR_RAND
100
AcDbVertex
100
AcDb2dVertex
 10
163.5679999999999
 20
119.355
 30
0.0
  0
VERTEX
  5
1195
330
1185
100
AcDbEntity
  8
SCHRAFFUR_RAND
100
AcDbVertex
100
AcDb2dVertex
 10
163.389
 20
119.746
 30
0.0
  0
VERTEX
  5
1196
330
1185
100
AcDbEntity
  8
SCHRAFFUR_RAND
100
AcDbVertex
100
AcDb2dVertex
 10
163.243
 20
120.152
 30
0.0
  0
VERTEX
  5
1197
330
1185
100
AcDbEntity
  8
SCHRAFFUR_RAND
100
AcDbVertex
100
AcDb2dVertex
 10
163.133
 20
120.568
 30
0.0
  0
VERTEX
  5
1198
330
1185
100
AcDbEntity
  8
SCHRAFFUR_RAND
100
AcDbVertex
100
AcDb2dVertex
 10
163.06
 20
120.992
 30
0.0
  0
VERTEX
  5
1199
330
1185
100
AcDbEntity
  8
SCHRAFFUR_RAND
100
AcDbVertex
100
AcDb2dVertex
 10
163.023
 20
121.421
 30
0.0
  0
VERTEX
  5
119A
330
1185
100
AcDbEntity
  8
SCHRAFFUR_RAND
100
AcDbVertex
100
AcDb2dVertex
 10
163.023
 20
121.851
 30
0.0
  0
VERTEX
  5
119B
330
1185
100
AcDbEntity
  8
SCHRAFFUR_RAND
100
AcDbVertex
100
AcDb2dVertex
 10
163.06
 20
122.28
 30
0.0
  0
VERTEX
  5
119C
330
1185
100
AcDbEntity
  8
SCHRAFFUR_RAND
100
AcDbVertex
100
AcDb2dVertex
 10
163.133
 20
122.704
 30
0.0
  0
VERTEX
  5
119D
330
1185
100
AcDbEntity
  8
SCHRAFFUR_RAND
100
AcDbVertex
100
AcDb2dVertex
 10
163.243
 20
123.12
 30
0.0
  0
VERTEX
  5
119E
330
1185
100
AcDbEntity
  8
SCHRAFFUR_RAND
100
AcDbVertex
100
AcDb2dVertex
 10
163.389
 20
123.525
 30
0.0
  0
VERTEX
  5
119F
330
1185
100
AcDbEntity
  8
SCHRAFFUR_RAND
100
AcDbVertex
100
AcDb2dVertex
 10
163.5679999999999
 20
123.916
 30
0.0
  0
VERTEX
  5
11A0
330
1185
100
AcDbEntity
  8
SCHRAFFUR_RAND
100
AcDbVertex
100
AcDb2dVertex
 10
163.781
 20
124.291
 30
0.0
  0
VERTEX
  5
11A1
330
1185
100
AcDbEntity
  8
SCHRAFFUR_RAND
100
AcDbVertex
100
AcDb2dVertex
 10
164.025
 20
124.645
 30
0.0
  0
VERTEX
  5
11A2
330
1185
100
AcDbEntity
  8
SCHRAFFUR_RAND
100
AcDbVertex
100
AcDb2dVertex
 10
164.132
 20
124.779
 30
0.0
  0
VERTEX
  5
11A3
330
1185
100
AcDbEntity
  8
SCHRAFFUR_RAND
100
AcDbVertex
100
AcDb2dVertex
 10
164.336
 20
125.05
 30
0.0
  0
VERTEX
  5
11A4
330
1185
100
AcDbEntity
  8
SCHRAFFUR_RAND
100
AcDbVertex
100
AcDb2dVertex
 10
164.514
 20
125.34
 30
0.0
  0
VERTEX
  5
11A5
330
1185
100
AcDbEntity
  8
SCHRAFFUR_RAND
100
AcDbVertex
100
AcDb2dVertex
 10
164.667
 20
125.643
 30
0.0
  0
VERTEX
  5
11A6
330
1185
100
AcDbEntity
  8
SCHRAFFUR_RAND
100
AcDbVertex
100
AcDb2dVertex
 10
164.794
 20
125.959
 30
0.0
  0
VERTEX
  5
11A7
330
1185
100
AcDbEntity
  8
SCHRAFFUR_RAND
100
AcDbVertex
100
AcDb2dVertex
 10
164.894
 20
126.284
 30
0.0
  0
VERTEX
  5
11A8
330
1185
100
AcDbEntity
  8
SCHRAFFUR_RAND
100
AcDbVertex
100
AcDb2dVertex
 10
164.965
 20
126.616
 30
0.0
  0
VERTEX
  5
11A9
330
1185
100
AcDbEntity
  8
SCHRAFFUR_RAND
100
AcDbVertex
100
AcDb2dVertex
 10
165.0079999999999
 20
126.953
 30
0.0
  0
VERTEX
  5
11AA
330
1185
100
AcDbEntity
  8
SCHRAFFUR_RAND
100
AcDbVertex
100
AcDb2dVertex
 10
165.02
 20
127.293
 30
0.0
  0
VERTEX
  5
11AB
330
1185
100
AcDbEntity
  8
SCHRAFFUR_RAND
100
AcDbVertex
100
AcDb2dVertex
 10
165.02
 20
131.636
 30
0.0
  0
VERTEX
  5
11AC
330
1185
100
AcDbEntity
  8
SCHRAFFUR_RAND
100
AcDbVertex
100
AcDb2dVertex
 10
165.006
 20
131.997
 30
0.0
  0
VERTEX
  5
11AD
330
1185
100
AcDbEntity
  8
SCHRAFFUR_RAND
100
AcDbVertex
100
AcDb2dVertex
 10
164.958
 20
132.355
 30
0.0
  0
VERTEX
  5
11AE
330
1185
100
AcDbEntity
  8
SCHRAFFUR_RAND
100
AcDbVertex
100
AcDb2dVertex
 10
164.877
 20
132.707
 30
0.0
  0
VERTEX
  5
11AF
330
1185
100
AcDbEntity
  8
SCHRAFFUR_RAND
100
AcDbVertex
100
AcDb2dVertex
 10
164.764
 20
133.051
 30
0.0
  0
VERTEX
  5
11B0
330
1185
100
AcDbEntity
  8
SCHRAFFUR_RAND
100
AcDbVertex
100
AcDb2dVertex
 10
164.621
 20
133.383
 30
0.0
  0
VERTEX
  5
11B1
330
1185
100
AcDbEntity
  8
SCHRAFFUR_RAND
100
AcDbVertex
100
AcDb2dVertex
 10
164.449
 20
133.701
 30
0.0
  0
VERTEX
  5
11B2
330
1185
100
AcDbEntity
  8
SCHRAFFUR_RAND
100
AcDbVertex
100
AcDb2dVertex
 10
164.249
 20
134.002
 30
0.0
  0
VERTEX
  5
11B3
330
1185
100
AcDbEntity
  8
SCHRAFFUR_RAND
100
AcDbVertex
100
AcDb2dVertex
 10
164.02
 20
134.282
 30
0.0
  0
VERTEX
  5
11B4
330
1185
100
AcDbEntity
  8
SCHRAFFUR_RAND
100
AcDbVertex
100
AcDb2dVertex
 10
163.792
 20
134.562
 30
0.0
  0
VERTEX
  5
11B5
330
1185
100
AcDbEntity
  8
SCHRAFFUR_RAND
100
AcDbVertex
100
AcDb2dVertex
 10
163.592
 20
134.863
 30
0.0
  0
VERTEX
  5
11B6
330
1185
100
AcDbEntity
  8
SCHRAFFUR_RAND
100
AcDbVertex
100
AcDb2dVertex
 10
163.419
 20
135.18
 30
0.0
  0
VERTEX
  5
11B7
330
1185
100
AcDbEntity
  8
SCHRAFFUR_RAND
100
AcDbVertex
100
AcDb2dVertex
 10
163.277
 20
135.512
 30
0.0
  0
VERTEX
  5
11B8
330
1185
100
AcDbEntity
  8
SCHRAFFUR_RAND
100
AcDbVertex
100
AcDb2dVertex
 10
163.164
 20
135.856
 30
0.0
  0
VERTEX
  5
11B9
330
1185
100
AcDbEntity
  8
SCHRAFFUR_RAND
100
AcDbVertex
100
AcDb2dVertex
 10
163.083
 20
136.208
 30
0.0
  0
VERTEX
  5
11BA
330
1185
100
AcDbEntity
  8
SCHRAFFUR_RAND
100
AcDbVertex
100
AcDb2dVertex
 10
163.034
 20
136.566
 30
0.0
  0
VERTEX
  5
11BB
330
1185
100
AcDbEntity
  8
SCHRAFFUR_RAND
100
AcDbVertex
100
AcDb2dVertex
 10
163.02
 20
136.927
 30
0.0
  0
VERTEX
  5
11BC
330
1185
100
AcDbEntity
  8
SCHRAFFUR_RAND
100
AcDbVertex
100
AcDb2dVertex
 10
163.02
 20
138.636
 30
0.0
  0
VERTEX
  5
11BD
330
1185
100
AcDbEntity
  8
SCHRAFFUR_RAND
100
AcDbVertex
100
AcDb2dVertex
 10
163.035
 20
138.95
 30
0.0
  0
VERTEX
  5
11BE
330
1185
100
AcDbEntity
  8
SCHRAFFUR_RAND
100
AcDbVertex
100
AcDb2dVertex
 10
163.084
 20
139.26
 30
0.0
  0
VERTEX
  5
11BF
330
1185
100
AcDbEntity
  8
SCHRAFFUR_RAND
100
AcDbVertex
100
AcDb2dVertex
 10
163.165
 20
139.564
 30
0.0
  0
VERTEX
  5
11C0
330
1185
100
AcDbEntity
  8
SCHRAFFUR_RAND
100
AcDbVertex
100
AcDb2dVertex
 10
163.278
 20
139.857
 30
0.0
  0
VERTEX
  5
11C1
330
1185
100
AcDbEntity
  8
SCHRAFFUR_RAND
100
AcDbVertex
100
AcDb2dVertex
 10
163.42
 20
140.137
 30
0.0
  0
VERTEX
  5
11C2
330
1185
100
AcDbEntity
  8
SCHRAFFUR_RAND
100
AcDbVertex
100
AcDb2dVertex
 10
163.591
 20
140.401
 30
0.0
  0
VERTEX
  5
11C3
330
1185
100
AcDbEntity
  8
SCHRAFFUR_RAND
100
AcDbVertex
100
AcDb2dVertex
 10
163.789
 20
140.645
 30
0.0
  0
VERTEX
  5
11C4
330
1185
100
AcDbEntity
  8
SCHRAFFUR_RAND
100
AcDbVertex
100
AcDb2dVertex
 10
164.011
 20
140.867
 30
0.0
  0
VERTEX
  5
11C5
330
1185
100
AcDbEntity
  8
SCHRAFFUR_RAND
100
AcDbVertex
100
AcDb2dVertex
 10
164.256
 20
141.065
 30
0.0
  0
VERTEX
  5
11C6
330
1185
100
AcDbEntity
  8
SCHRAFFUR_RAND
100
AcDbVertex
100
AcDb2dVertex
 10
164.519
 20
141.236
 30
0.0
  0
VERTEX
  5
11C7
330
1185
100
AcDbEntity
  8
SCHRAFFUR_RAND
100
AcDbVertex
100
AcDb2dVertex
 10
164.799
 20
141.379
 30
0.0
  0
VERTEX
  5
11C8
330
1185
100
AcDbEntity
  8
SCHRAFFUR_RAND
100
AcDbVertex
100
AcDb2dVertex
 10
165.093
 20
141.491
 30
0.0
  0
VERTEX
  5
11C9
330
1185
100
AcDbEntity
  8
SCHRAFFUR_RAND
100
AcDbVertex
100
AcDb2dVertex
 10
165.396
 20
141.5729999999999
 30
0.0
  0
VERTEX
  5
11CA
330
1185
100
AcDbEntity
  8
SCHRAFFUR_RAND
100
AcDbVertex
100
AcDb2dVertex
 10
165.707
 20
141.622
 30
0.0
  0
VERTEX
  5
11CB
330
1185
100
AcDbEntity
  8
SCHRAFFUR_RAND
100
AcDbVertex
100
AcDb2dVertex
 10
166.02
 20
141.636
 30
0.0
  0
VERTEX
  5
11CC
330
1185
100
AcDbEntity
  8
SCHRAFFUR_RAND
100
AcDbVertex
100
AcDb2dVertex
 10
167.02
 20
141.636
 30
0.0
  0
VERTEX
  5
11CD
330
1185
100
AcDbEntity
  8
SCHRAFFUR_RAND
100
AcDbVertex
100
AcDb2dVertex
 10
167.234
 20
141.649
 30
0.0
  0
VERTEX
  5
11CE
330
1185
100
AcDbEntity
  8
SCHRAFFUR_RAND
100
AcDbVertex
100
AcDb2dVertex
 10
167.444
 20
141.694
 30
0.0
  0
VERTEX
  5
11CF
330
1185
100
AcDbEntity
  8
SCHRAFFUR_RAND
100
AcDbVertex
100
AcDb2dVertex
 10
167.645
 20
141.769
 30
0.0
  0
VERTEX
  5
11D0
330
1185
100
AcDbEntity
  8
SCHRAFFUR_RAND
100
AcDbVertex
100
AcDb2dVertex
 10
167.833
 20
141.872
 30
0.0
  0
VERTEX
  5
11D1
330
1185
100
AcDbEntity
  8
SCHRAFFUR_RAND
100
AcDbVertex
100
AcDb2dVertex
 10
168.004
 20
142.0
 30
0.0
  0
VERTEX
  5
11D2
330
1185
100
AcDbEntity
  8
SCHRAFFUR_RAND
100
AcDbVertex
100
AcDb2dVertex
 10
168.1559999999999
 20
142.152
 30
0.0
  0
VERTEX
  5
11D3
330
1185
100
AcDbEntity
  8
SCHRAFFUR_RAND
100
AcDbVertex
100
AcDb2dVertex
 10
168.284
 20
142.324
 30
0.0
  0
VERTEX
  5
11D4
330
1185
100
AcDbEntity
  8
SCHRAFFUR_RAND
100
AcDbVertex
100
AcDb2dVertex
 10
168.387
 20
142.512
 30
0.0
  0
VERTEX
  5
11D5
330
1185
100
AcDbEntity
  8
SCHRAFFUR_RAND
100
AcDbVertex
100
AcDb2dVertex
 10
168.462
 20
142.713
 30
0.0
  0
VERTEX
  5
11D6
330
1185
100
AcDbEntity
  8
SCHRAFFUR_RAND
100
AcDbVertex
100
AcDb2dVertex
 10
168.508
 20
142.922
 30
0.0
  0
VERTEX
  5
11D7
330
1185
100
AcDbEntity
  8
SCHRAFFUR_RAND
100
AcDbVertex
100
AcDb2dVertex
 10
168.52
 20
143.136
 30
0.0
  0
VERTEX
  5
11D8
330
1185
100
AcDbEntity
  8
SCHRAFFUR_RAND
100
AcDbVertex
100
AcDb2dVertex
 10
168.508
 20
143.35
 30
0.0
  0
VERTEX
  5
11D9
330
1185
100
AcDbEntity
  8
SCHRAFFUR_RAND
100
AcDbVertex
100
AcDb2dVertex
 10
168.462
 20
143.559
 30
0.0
  0
VERTEX
  5
11DA
330
1185
100
AcDbEntity
  8
SCHRAFFUR_RAND
100
AcDbVertex
100
AcDb2dVertex
 10
168.387
 20
143.76
 30
0.0
  0
VERTEX
  5
11DB
330
1185
100
AcDbEntity
  8
SCHRAFFUR_RAND
100
AcDbVertex
100
AcDb2dVertex
 10
168.284
 20
143.948
 30
0.0
  0
VERTEX
  5
11DC
330
1185
100
AcDbEntity
  8
SCHRAFFUR_RAND
100
AcDbVertex
100
AcDb2dVertex
 10
168.1559999999999
 20
144.12
 30
0.0
  0
VERTEX
  5
11DD
330
1185
100
AcDbEntity
  8
SCHRAFFUR_RAND
100
AcDbVertex
100
AcDb2dVertex
 10
168.004
 20
144.271
 30
0.0
  0
VERTEX
  5
11DE
330
1185
100
AcDbEntity
  8
SCHRAFFUR_RAND
100
AcDbVertex
100
AcDb2dVertex
 10
167.833
 20
144.4
 30
0.0
  0
VERTEX
  5
11DF
330
1185
100
AcDbEntity
  8
SCHRAFFUR_RAND
100
AcDbVertex
100
AcDb2dVertex
 10
167.645
 20
144.502
 30
0.0
  0
VERTEX
  5
11E0
330
1185
100
AcDbEntity
  8
SCHRAFFUR_RAND
100
AcDbVertex
100
AcDb2dVertex
 10
167.444
 20
144.577
 30
0.0
  0
VERTEX
  5
11E1
330
1185
100
AcDbEntity
  8
SCHRAFFUR_RAND
100
AcDbVertex
100
AcDb2dVertex
 10
167.234
 20
144.623
 30
0.0
  0
VERTEX
  5
11E2
330
1185
100
AcDbEntity
  8
SCHRAFFUR_RAND
100
AcDbVertex
100
AcDb2dVertex
 10
167.02
 20
144.636
 30
0.0
  0
VERTEX
  5
11E3
330
1185
100
AcDbEntity
  8
SCHRAFFUR_RAND
100
AcDbVertex
100
AcDb2dVertex
 10
166.02
 20
144.636
 30
0.0
  0
VERTEX
  5
11E4
330
1185
100
AcDbEntity
  8
SCHRAFFUR_RAND
100
AcDbVertex
100
AcDb2dVertex
 10
165.707
 20
144.65
 30
0.0
  0
VERTEX
  5
11E5
330
1185
100
AcDbEntity
  8
SCHRAFFUR_RAND
100
AcDbVertex
100
AcDb2dVertex
 10
165.396
 20
144.6989999999999
 30
0.0
  0
VERTEX
  5
11E6
330
1185
100
AcDbEntity
  8
SCHRAFFUR_RAND
100
AcDbVertex
100
AcDb2dVertex
 10
165.093
 20
144.78
 30
0.0
  0
VERTEX
  5
11E7
330
1185
100
AcDbEntity
  8
SCHRAFFUR_RAND
100
AcDbVertex
100
AcDb2dVertex
 10
164.799
 20
144.893
 30
0.0
  0
VERTEX
  5
11E8
330
1185
100
AcDbEntity
  8
SCHRAFFUR_RAND
100
AcDbVertex
100
AcDb2dVertex
 10
164.519
 20
145.036
 30
0.0
  0
VERTEX
  5
11E9
330
1185
100
AcDbEntity
  8
SCHRAFFUR_RAND
100
AcDbVertex
100
AcDb2dVertex
 10
164.256
 20
145.207
 30
0.0
  0
VERTEX
  5
11EA
330
1185
100
AcDbEntity
  8
SCHRAFFUR_RAND
100
AcDbVertex
100
AcDb2dVertex
 10
164.011
 20
145.405
 30
0.0
  0
VERTEX
  5
11EB
330
1185
100
AcDbEntity
  8
SCHRAFFUR_RAND
100
AcDbVertex
100
AcDb2dVertex
 10
163.789
 20
145.627
 30
0.0
  0
VERTEX
  5
11EC
330
1185
100
AcDbEntity
  8
SCHRAFFUR_RAND
100
AcDbVertex
100
AcDb2dVertex
 10
163.591
 20
145.871
 30
0.0
  0
VERTEX
  5
11ED
330
1185
100
AcDbEntity
  8
SCHRAFFUR_RAND
100
AcDbVertex
100
AcDb2dVertex
 10
163.42
 20
146.135
 30
0.0
  0
VERTEX
  5
11EE
330
1185
100
AcDbEntity
  8
SCHRAFFUR_RAND
100
AcDbVertex
100
AcDb2dVertex
 10
163.278
 20
146.415
 30
0.0
  0
VERTEX
  5
11EF
330
1185
100
AcDbEntity
  8
SCHRAFFUR_RAND
100
AcDbVertex
100
AcDb2dVertex
 10
163.165
 20
146.708
 30
0.0
  0
VERTEX
  5
11F0
330
1185
100
AcDbEntity
  8
SCHRAFFUR_RAND
100
AcDbVertex
100
AcDb2dVertex
 10
163.084
 20
147.012
 30
0.0
  0
VERTEX
  5
11F1
330
1185
100
AcDbEntity
  8
SCHRAFFUR_RAND
100
AcDbVertex
100
AcDb2dVertex
 10
163.034
 20
147.322
 30
0.0
  0
VERTEX
  5
11F2
330
1185
100
AcDbEntity
  8
SCHRAFFUR_RAND
100
AcDbVertex
100
AcDb2dVertex
 10
163.02
 20
147.636
 30
0.0
  0
VERTEX
  5
11F3
330
1185
100
AcDbEntity
  8
SCHRAFFUR_RAND
100
AcDbVertex
100
AcDb2dVertex
 10
163.035
 20
148.005
 30
0.0
  0
VERTEX
  5
11F4
330
1185
100
AcDbEntity
  8
SCHRAFFUR_RAND
100
AcDbVertex
100
AcDb2dVertex
 10
163.086
 20
148.371
 30
0.0
  0
VERTEX
  5
11F5
330
1185
100
AcDbEntity
  8
SCHRAFFUR_RAND
100
AcDbVertex
100
AcDb2dVertex
 10
163.171
 20
148.731
 30
0.0
  0
VERTEX
  5
11F6
330
1185
100
AcDbEntity
  8
SCHRAFFUR_RAND
100
AcDbVertex
100
AcDb2dVertex
 10
163.288
 20
149.082
 30
0.0
  0
VERTEX
  5
11F7
330
1185
100
AcDbEntity
  8
SCHRAFFUR_RAND
100
AcDbVertex
100
AcDb2dVertex
 10
163.438
 20
149.42
 30
0.0
  0
VERTEX
  5
11F8
330
1185
100
AcDbEntity
  8
SCHRAFFUR_RAND
100
AcDbVertex
100
AcDb2dVertex
 10
163.618
 20
149.743
 30
0.0
  0
VERTEX
  5
11F9
330
1185
100
AcDbEntity
  8
SCHRAFFUR_RAND
100
AcDbVertex
100
AcDb2dVertex
 10
163.826
 20
150.048
 30
0.0
  0
VERTEX
  5
11FA
330
1185
100
AcDbEntity
  8
SCHRAFFUR_RAND
100
AcDbVertex
100
AcDb2dVertex
 10
164.0629999999999
 20
150.332
 30
0.0
  0
VERTEX
  5
11FB
330
1185
100
AcDbEntity
  8
SCHRAFFUR_RAND
100
AcDbVertex
100
AcDb2dVertex
 10
164.324
 20
150.594
 30
0.0
  0
VERTEX
  5
11FC
330
1185
100
AcDbEntity
  8
SCHRAFFUR_RAND
100
AcDbVertex
100
AcDb2dVertex
 10
164.608
 20
150.83
 30
0.0
  0
VERTEX
  5
11FD
330
1185
100
AcDbEntity
  8
SCHRAFFUR_RAND
100
AcDbVertex
100
AcDb2dVertex
 10
164.9129999999999
 20
151.039
 30
0.0
  0
VERTEX
  5
11FE
330
1185
100
AcDbEntity
  8
SCHRAFFUR_RAND
100
AcDbVertex
100
AcDb2dVertex
 10
165.236
 20
151.219
 30
0.0
  0
VERTEX
  5
11FF
330
1185
100
AcDbEntity
  8
SCHRAFFUR_RAND
100
AcDbVertex
100
AcDb2dVertex
 10
165.575
 20
151.368
 30
0.0
  0
VERTEX
  5
1200
330
1185
100
AcDbEntity
  8
SCHRAFFUR_RAND
100
AcDbVertex
100
AcDb2dVertex
 10
165.925
 20
151.485
 30
0.0
  0
VERTEX
  5
1201
330
1185
100
AcDbEntity
  8
SCHRAFFUR_RAND
100
AcDbVertex
100
AcDb2dVertex
 10
166.285
 20
151.57
 30
0.0
  0
VERTEX
  5
1202
330
1185
100
AcDbEntity
  8
SCHRAFFUR_RAND
100
AcDbVertex
100
AcDb2dVertex
 10
166.651
 20
151.621
 30
0.0
  0
VERTEX
  5
1203
330
1185
100
AcDbEntity
  8
SCHRAFFUR_RAND
100
AcDbVertex
100
AcDb2dVertex
 10
167.02
 20
151.636
 30
0.0
  0
VERTEX
  5
1204
330
1185
100
AcDbEntity
  8
SCHRAFFUR_RAND
100
AcDbVertex
100
AcDb2dVertex
 10
180.2159999999999
 20
151.636
 30
0.0
  0
VERTEX
  5
1205
330
1185
100
AcDbEntity
  8
SCHRAFFUR_RAND
100
AcDbVertex
100
AcDb2dVertex
 10
181.02
 20
154.636
 30
0.0
  0
VERTEX
  5
1206
330
1185
100
AcDbEntity
  8
SCHRAFFUR_RAND
100
AcDbVertex
100
AcDb2dVertex
 10
169.02
 20
154.636
 30
0.0
  0
VERTEX
  5
1207
330
1185
100
AcDbEntity
  8
SCHRAFFUR_RAND
100
AcDbVertex
100
AcDb2dVertex
 10
169.02
 20
156.636
 30
0.0
  0
VERTEX
  5
1208
330
1185
100
AcDbEntity
  8
SCHRAFFUR_RAND
100
AcDbVertex
100
AcDb2dVertex
 10
168.063
 20
156.653
 30
0.0
  0
VERTEX
  5
1209
330
1185
100
AcDbEntity
  8
SCHRAFFUR_RAND
100
AcDbVertex
100
AcDb2dVertex
 10
167.107
 20
156.708
 30
0.0
  0
VERTEX
  5
120A
330
1185
100
AcDbEntity
  8
SCHRAFFUR_RAND
100
AcDbVertex
100
AcDb2dVertex
 10
166.153
 20
156.799
 30
0.0
  0
VERTEX
  5
120B
330
1185
100
AcDbEntity
  8
SCHRAFFUR_RAND
100
AcDbVertex
100
AcDb2dVertex
 10
165.204
 20
156.927
 30
0.0
  0
VERTEX
  5
120C
330
1185
100
AcDbEntity
  8
SCHRAFFUR_RAND
100
AcDbVertex
100
AcDb2dVertex
 10
164.26
 20
157.091
 30
0.0
  0
VERTEX
  5
120D
330
1185
100
AcDbEntity
  8
SCHRAFFUR_RAND
100
AcDbVertex
100
AcDb2dVertex
 10
163.3239999999999
 20
157.292
 30
0.0
  0
VERTEX
  5
120E
330
1185
100
AcDbEntity
  8
SCHRAFFUR_RAND
100
AcDbVertex
100
AcDb2dVertex
 10
162.395
 20
157.528
 30
0.0
  0
VERTEX
  5
120F
330
1185
100
AcDbEntity
  8
SCHRAFFUR_RAND
100
AcDbVertex
100
AcDb2dVertex
 10
161.477
 20
157.799
 30
0.0
  0
VERTEX
  5
1210
330
1185
100
AcDbEntity
  8
SCHRAFFUR_RAND
100
AcDbVertex
100
AcDb2dVertex
 10
160.569
 20
158.106
 30
0.0
  0
VERTEX
  5
1211
330
1185
100
AcDbEntity
  8
SCHRAFFUR_RAND
100
AcDbVertex
100
AcDb2dVertex
 10
159.674
 20
158.447
 30
0.0
  0
VERTEX
  5
1212
330
1185
100
AcDbEntity
  8
SCHRAFFUR_RAND
100
AcDbVertex
100
AcDb2dVertex
 10
158.793
 20
158.822
 30
0.0
  0
VERTEX
  5
1213
330
1185
100
AcDbEntity
  8
SCHRAFFUR_RAND
100
AcDbVertex
100
AcDb2dVertex
 10
157.927
 20
159.23
 30
0.0
  0
VERTEX
  5
1214
330
1185
100
AcDbEntity
  8
SCHRAFFUR_RAND
100
AcDbVertex
100
AcDb2dVertex
 10
157.077
 20
159.671
 30
0.0
  0
VERTEX
  5
1215
330
1185
100
AcDbEntity
  8
SCHRAFFUR_RAND
100
AcDbVertex
100
AcDb2dVertex
 10
156.244
 20
160.145
 30
0.0
  0
VERTEX
  5
1216
330
1185
100
AcDbEntity
  8
SCHRAFFUR_RAND
100
AcDbVertex
100
AcDb2dVertex
 10
155.43
 20
160.65
 30
0.0
  0
VERTEX
  5
1217
330
1185
100
AcDbEntity
  8
SCHRAFFUR_RAND
100
AcDbVertex
100
AcDb2dVertex
 10
154.636
 20
161.186
 30
0.0
  0
VERTEX
  5
1218
330
1185
100
AcDbEntity
  8
SCHRAFFUR_RAND
100
AcDbVertex
100
AcDb2dVertex
 10
153.864
 20
161.752
 30
0.0
  0
VERTEX
  5
1219
330
1185
100
AcDbEntity
  8
SCHRAFFUR_RAND
100
AcDbVertex
100
AcDb2dVertex
 10
153.113
 20
162.347
 30
0.0
  0
VERTEX
  5
121A
330
1185
100
AcDbEntity
  8
SCHRAFFUR_RAND
100
AcDbVertex
100
AcDb2dVertex
 10
152.386
 20
162.97
 30
0.0
  0
VERTEX
  5
121B
330
1185
100
AcDbEntity
  8
SCHRAFFUR_RAND
100
AcDbVertex
100
AcDb2dVertex
 10
151.683
 20
163.621
 30
0.0
  0
VERTEX
  5
121C
330
1185
100
AcDbEntity
  8
SCHRAFFUR_RAND
100
AcDbVertex
100
AcDb2dVertex
 10
151.006
 20
164.299
 30
0.0
  0
VERTEX
  5
121D
330
1185
100
AcDbEntity
  8
SCHRAFFUR_RAND
100
AcDbVertex
100
AcDb2dVertex
 10
150.355
 20
165.0009999999999
 30
0.0
  0
VERTEX
  5
121E
330
1185
100
AcDbEntity
  8
SCHRAFFUR_RAND
100
AcDbVertex
100
AcDb2dVertex
 10
149.732
 20
165.728
 30
0.0
  0
VERTEX
  5
121F
330
1185
100
AcDbEntity
  8
SCHRAFFUR_RAND
100
AcDbVertex
100
AcDb2dVertex
 10
149.136
 20
166.479
 30
0.0
  0
VERTEX
  5
1220
330
1185
100
AcDbEntity
  8
SCHRAFFUR_RAND
100
AcDbVertex
100
AcDb2dVertex
 10
148.57
 20
167.252
 30
0.0
  0
VERTEX
  5
1221
330
1185
100
AcDbEntity
  8
SCHRAFFUR_RAND
100
AcDbVertex
100
AcDb2dVertex
 10
148.035
 20
168.045
 30
0.0
  0
VERTEX
  5
1222
330
1185
100
AcDbEntity
  8
SCHRAFFUR_RAND
100
AcDbVertex
100
AcDb2dVertex
 10
147.529
 20
168.859
 30
0.0
  0
VERTEX
  5
1223
330
1185
100
AcDbEntity
  8
SCHRAFFUR_RAND
100
AcDbVertex
100
AcDb2dVertex
 10
147.056
 20
169.692
 30
0.0
  0
VERTEX
  5
1224
330
1185
100
AcDbEntity
  8
SCHRAFFUR_RAND
100
AcDbVertex
100
AcDb2dVertex
 10
146.614
 20
170.542
 30
0.0
  0
VERTEX
  5
1225
330
1185
100
AcDbEntity
  8
SCHRAFFUR_RAND
100
AcDbVertex
100
AcDb2dVertex
 10
146.206
 20
171.408
 30
0.0
  0
VERTEX
  5
1226
330
1185
100
AcDbEntity
  8
SCHRAFFUR_RAND
100
AcDbVertex
100
AcDb2dVertex
 10
145.831
 20
172.29
 30
0.0
  0
VERTEX
  5
1227
330
1185
100
AcDbEntity
  8
SCHRAFFUR_RAND
100
AcDbVertex
100
AcDb2dVertex
 10
145.49
 20
173.185
 30
0.0
  0
VERTEX
  5
1228
330
1185
100
AcDbEntity
  8
SCHRAFFUR_RAND
100
AcDbVertex
100
AcDb2dVertex
 10
145.183
 20
174.092
 30
0.0
  0
VERTEX
  5
1229
330
1185
100
AcDbEntity
  8
SCHRAFFUR_RAND
100
AcDbVertex
100
AcDb2dVertex
 10
145.02
 20
174.636
 30
0.0
  0
VERTEX
  5
122A
330
1185
100
AcDbEntity
  8
SCHRAFFUR_RAND
100
AcDbVertex
100
AcDb2dVertex
 10
144.912
 20
175.011
 30
0.0
  0
VERTEX
  5
122B
330
1185
100
AcDbEntity
  8
SCHRAFFUR_RAND
100
AcDbVertex
100
AcDb2dVertex
 10
144.676
 20
175.939
 30
0.0
  0
VERTEX
  5
122C
330
1185
100
AcDbEntity
  8
SCHRAFFUR_RAND
100
AcDbVertex
100
AcDb2dVertex
 10
144.475
 20
176.876
 30
0.0
  0
VERTEX
  5
122D
330
1185
100
AcDbEntity
  8
SCHRAFFUR_RAND
100
AcDbVertex
100
AcDb2dVertex
 10
144.311
 20
177.819
 30
0.0
  0
VERTEX
  5
122E
330
1185
100
AcDbEntity
  8
SCHRAFFUR_RAND
100
AcDbVertex
100
AcDb2dVertex
 10
144.183
 20
178.769
 30
0.0
  0
VERTEX
  5
122F
330
1185
100
AcDbEntity
  8
SCHRAFFUR_RAND
100
AcDbVertex
100
AcDb2dVertex
 10
144.091
 20
179.722
 30
0.0
  0
VERTEX
  5
1230
330
1185
100
AcDbEntity
  8
SCHRAFFUR_RAND
100
AcDbVertex
100
AcDb2dVertex
 10
144.036
 20
180.678
 30
0.0
  0
VERTEX
  5
1231
330
1185
100
AcDbEntity
  8
SCHRAFFUR_RAND
100
AcDbVertex
100
AcDb2dVertex
 10
144.02
 20
181.636
 30
0.0
  0
VERTEX
  5
1232
330
1185
100
AcDbEntity
  8
SCHRAFFUR_RAND
100
AcDbVertex
100
AcDb2dVertex
 10
144.02
 20
244.636
 30
0.0
  0
VERTEX
  5
1233
330
1185
100
AcDbEntity
  8
SCHRAFFUR_RAND
100
AcDbVertex
100
AcDb2dVertex
 10
141.52
 20
244.636
 30
0.0
  0
VERTEX
  5
1234
330
1185
100
AcDbEntity
  8
SCHRAFFUR_RAND
100
AcDbVertex
100
AcDb2dVertex
 10
141.52
 20
182.079
 30
0.0
  0
VERTEX
  5
1235
330
1185
100
AcDbEntity
  8
SCHRAFFUR_RAND
100
AcDbVertex
100
AcDb2dVertex
 10
141.52
 20
171.976
 30
0.0
  0
VERTEX
  5
1236
330
1185
100
AcDbEntity
  8
SCHRAFFUR_RAND
100
AcDbVertex
100
AcDb2dVertex
 10
143.273
 20
171.976
 30
0.0
  0
VERTEX
  5
1237
330
1185
100
AcDbEntity
  8
SCHRAFFUR_RAND
100
AcDbVertex
100
AcDb2dVertex
 10
143.633
 20
171.059
 30
0.0
  0
VERTEX
  5
1238
330
1185
100
AcDbEntity
  8
SCHRAFFUR_RAND
100
AcDbVertex
100
AcDb2dVertex
 10
144.029
 20
170.1559999999999
 30
0.0
  0
VERTEX
  5
1239
330
1185
100
AcDbEntity
  8
SCHRAFFUR_RAND
100
AcDbVertex
100
AcDb2dVertex
 10
144.456
 20
169.268
 30
0.0
  0
VERTEX
  5
123A
330
1185
100
AcDbEntity
  8
SCHRAFFUR_RAND
100
AcDbVertex
100
AcDb2dVertex
 10
144.915
 20
168.396
 30
0.0
  0
VERTEX
  5
123B
330
1185
100
AcDbEntity
  8
SCHRAFFUR_RAND
100
AcDbVertex
100
AcDb2dVertex
 10
145.405
 20
167.541
 30
0.0
  0
VERTEX
  5
123C
330
1185
100
AcDbEntity
  8
SCHRAFFUR_RAND
100
AcDbVertex
100
AcDb2dVertex
 10
145.925
 20
166.704
 30
0.0
  0
VERTEX
  5
123D
330
1185
100
AcDbEntity
  8
SCHRAFFUR_RAND
100
AcDbVertex
100
AcDb2dVertex
 10
146.475
 20
165.886
 30
0.0
  0
VERTEX
  5
123E
330
1185
100
AcDbEntity
  8
SCHRAFFUR_RAND
100
AcDbVertex
100
AcDb2dVertex
 10
147.053
 20
165.089
 30
0.0
  0
VERTEX
  5
123F
330
1185
100
AcDbEntity
  8
SCHRAFFUR_RAND
100
AcDbVertex
100
AcDb2dVertex
 10
147.66
 20
164.312
 30
0.0
  0
VERTEX
  5
1240
330
1185
100
AcDbEntity
  8
SCHRAFFUR_RAND
100
AcDbVertex
100
AcDb2dVertex
 10
148.294
 20
163.558
 30
0.0
  0
VERTEX
  5
1241
330
1185
100
AcDbEntity
  8
SCHRAFFUR_RAND
100
AcDbVertex
100
AcDb2dVertex
 10
148.955
 20
162.827
 30
0.0
  0
VERTEX
  5
1242
330
1185
100
AcDbEntity
  8
SCHRAFFUR_RAND
100
AcDbVertex
100
AcDb2dVertex
 10
149.642
 20
162.121
 30
0.0
  0
VERTEX
  5
1243
330
1185
100
AcDbEntity
  8
SCHRAFFUR_RAND
100
AcDbVertex
100
AcDb2dVertex
 10
150.354
 20
161.439
 30
0.0
  0
VERTEX
  5
1244
330
1185
100
AcDbEntity
  8
SCHRAFFUR_RAND
100
AcDbVertex
100
AcDb2dVertex
 10
151.089
 20
160.783
 30
0.0
  0
VERTEX
  5
1245
330
1185
100
AcDbEntity
  8
SCHRAFFUR_RAND
100
AcDbVertex
100
AcDb2dVertex
 10
151.848
 20
160.154
 30
0.0
  0
VERTEX
  5
1246
330
1185
100
AcDbEntity
  8
SCHRAFFUR_RAND
100
AcDbVertex
100
AcDb2dVertex
 10
152.628
 20
159.553
 30
0.0
  0
VERTEX
  5
1247
330
1185
100
AcDbEntity
  8
SCHRAFFUR_RAND
100
AcDbVertex
100
AcDb2dVertex
 10
153.43
 20
158.98
 30
0.0
  0
VERTEX
  5
1248
330
1185
100
AcDbEntity
  8
SCHRAFFUR_RAND
100
AcDbVertex
100
AcDb2dVertex
 10
154.252
 20
158.436
 30
0.0
  0
VERTEX
  5
1249
330
1185
100
AcDbEntity
  8
SCHRAFFUR_RAND
100
AcDbVertex
100
AcDb2dVertex
 10
155.087
 20
157.927
 30
0.0
  0
VERTEX
  5
124A
330
1185
100
AcDbEntity
  8
SCHRAFFUR_RAND
100
AcDbVertex
100
AcDb2dVertex
 10
155.093
 20
157.923
 30
0.0
  0
VERTEX
  5
124B
330
1185
100
AcDbEntity
  8
SCHRAFFUR_RAND
100
AcDbVertex
100
AcDb2dVertex
 10
155.578
 20
157.622
 30
0.0
  0
VERTEX
  5
124C
330
1185
100
AcDbEntity
  8
SCHRAFFUR_RAND
100
AcDbVertex
100
AcDb2dVertex
 10
156.048
 20
157.288
 30
0.0
  0
VERTEX
  5
124D
330
1185
100
AcDbEntity
  8
SCHRAFFUR_RAND
100
AcDbVertex
100
AcDb2dVertex
 10
156.499
 20
156.926
 30
0.0
  0
VERTEX
  5
124E
330
1185
100
AcDbEntity
  8
SCHRAFFUR_RAND
100
AcDbVertex
100
AcDb2dVertex
 10
156.928
 20
156.54
 30
0.0
  0
VERTEX
  5
124F
330
1185
100
AcDbEntity
  8
SCHRAFFUR_RAND
100
AcDbVertex
100
AcDb2dVertex
 10
157.334
 20
156.129
 30
0.0
  0
VERTEX
  5
1250
330
1185
100
AcDbEntity
  8
SCHRAFFUR_RAND
100
AcDbVertex
100
AcDb2dVertex
 10
157.716
 20
155.695
 30
0.0
  0
VERTEX
  5
1251
330
1185
100
AcDbEntity
  8
SCHRAFFUR_RAND
100
AcDbVertex
100
AcDb2dVertex
 10
158.072
 20
155.241
 30
0.0
  0
VERTEX
  5
1252
330
1185
100
AcDbEntity
  8
SCHRAFFUR_RAND
100
AcDbVertex
100
AcDb2dVertex
 10
158.401
 20
154.766
 30
0.0
  0
VERTEX
  5
1253
330
1185
100
AcDbEntity
  8
SCHRAFFUR_RAND
100
AcDbVertex
100
AcDb2dVertex
 10
158.702
 20
154.273
 30
0.0
  0
VERTEX
  5
1254
330
1185
100
AcDbEntity
  8
SCHRAFFUR_RAND
100
AcDbVertex
100
AcDb2dVertex
 10
158.974
 20
153.764
 30
0.0
  0
VERTEX
  5
1255
330
1185
100
AcDbEntity
  8
SCHRAFFUR_RAND
100
AcDbVertex
100
AcDb2dVertex
 10
159.217
 20
153.24
 30
0.0
  0
VERTEX
  5
1256
330
1185
100
AcDbEntity
  8
SCHRAFFUR_RAND
100
AcDbVertex
100
AcDb2dVertex
 10
159.428
 20
152.702
 30
0.0
  0
VERTEX
  5
1257
330
1185
100
AcDbEntity
  8
SCHRAFFUR_RAND
100
AcDbVertex
100
AcDb2dVertex
 10
159.609
 20
152.154
 30
0.0
  0
VERTEX
  5
1258
330
1185
100
AcDbEntity
  8
SCHRAFFUR_RAND
100
AcDbVertex
100
AcDb2dVertex
 10
159.757
 20
151.596
 30
0.0
  0
VERTEX
  5
1259
330
1185
100
AcDbEntity
  8
SCHRAFFUR_RAND
100
AcDbVertex
100
AcDb2dVertex
 10
159.873
 20
151.03
 30
0.0
  0
VERTEX
  5
125A
330
1185
100
AcDbEntity
  8
SCHRAFFUR_RAND
100
AcDbVertex
100
AcDb2dVertex
 10
159.956
 20
150.458
 30
0.0
  0
VERTEX
  5
125B
330
1185
100
AcDbEntity
  8
SCHRAFFUR_RAND
100
AcDbVertex
100
AcDb2dVertex
 10
160.006
 20
149.883
 30
0.0
  0
VERTEX
  5
125C
330
1185
100
AcDbEntity
  8
SCHRAFFUR_RAND
100
AcDbVertex
100
AcDb2dVertex
 10
160.02
 20
149.306
 30
0.0
  0
VERTEX
  5
125D
330
1185
100
AcDbEntity
  8
SCHRAFFUR_RAND
100
AcDbVertex
100
AcDb2dVertex
 10
160.02
 20
113.636
 30
0.0
  0
SEQEND
  5
125E
330
1185
100
AcDbEntity
  8
SCHRAFFUR_RAND
  0
TEXT
  5
130C
330
134F
100
AcDbEntity
  8
6
 62
     3
100
AcDbText
 10
175.763
 20
76.75399999999999
 30
0.0
 40
2.5
  1
 
100
AcDbText
  0
TEXT
  5
1310
330
134F
100
AcDbEntity
  8
6
 62
     3
100
AcDbText
 10
191.383
 20
76.964
 30
0.0
 40
2.5
  1
 
100
AcDbText
  0
POINT
  5
2E2B
330
134F
100
AcDbEntity
  8
0
 60
     1
100
AcDbPoint
 10
1114.723036629012
 20
630.1428484587877
 30
0.0
1001
GENIUS_GENOLIS_13
1002
{
1000
ENT
1005
2CD3
1005
2CD2
1005
2CD1
1005
2CD0
1002
}
1001
GENIUS_GENOENT_13
1002
{
1000
MYREF
1005
2E2B
1002
}
1002
{
1000
GRP
1005
0
1002
}
1001
GENIUS_GENOBJ-N-CRS_13
1002
{
1000
OWNER
1000
GEN
1002
}
1001
GENIUS_GENODEF_13
1002
{
1000
HIER
1070
    10
1002
}
1002
{
1000
MANEDIT
1070
     0
1002
}
1002
{
1000
NOSEL
1070
     0
1002
}
1002
{
1000
BEHIND
1070
     0
1002
}
1002
{
1000
OTHER
1070
     0
1002
}
1002
{
1000
REACTOR
1002
}
  0
POINT
  5
2E2C
330
134F
100
AcDbEntity
  8
0
 60
     1
100
AcDbPoint
 10
1114.723036629011
 20
621.4222073444521
 30
0.0
1001
GENIUS_GENOLIS_13
1002
{
1000
ENT
1005
2CCF
1005
2CCE
1005
2CCD
1005
2CCC
1002
}
1001
GENIUS_GENOENT_13
1002
{
1000
MYREF
1005
2E2C
1002
}
1002
{
1000
GRP
1005
0
1002
}
1001
GENIUS_GENOBJ-N-CRS_13
1002
{
1000
OWNER
1000
GEN
1002
}
1001
GENIUS_GENODEF_13
1002
{
1000
HIER
1070
    10
1002
}
1002
{
1000
MANEDIT
1070
     0
1002
}
1002
{
1000
NOSEL
1070
     0
1002
}
1002
{
1000
BEHIND
1070
     0
1002
}
1002
{
1000
OTHER
1070
     0
1002
}
1002
{
1000
REACTOR
1002
}
  0
POINT
  5
2E2D
330
134F
100
AcDbEntity
  8
0
 60
     1
100
AcDbPoint
 10
1114.723036629012
 20
613.6954691190132
 30
0.0
1001
GENIUS_GENOLIS_13
1002
{
1000
ENT
1005
2CCB
1005
2CCA
1005
2CC9
1005
2CC8
1002
}
1001
GENIUS_GENOENT_13
1002
{
1000
MYREF
1005
2E2D
1002
}
1002
{
1000
GRP
1005
0
1002
}
1001
GENIUS_GENOBJ-N-CRS_13
1002
{
1000
OWNER
1000
GEN
1002
}
1001
GENIUS_GENODEF_13
1002
{
1000
HIER
1070
    10
1002
}
1002
{
1000
MANEDIT
1070
     0
1002
}
1002
{
1000
NOSEL
1070
     0
1002
}
1002
{
1000
BEHIND
1070
     0
1002
}
1002
{
1000
OTHER
1070
     0
1002
}
1002
{
1000
REACTOR
1002
}
  0
LINE
  5
3171
330
134F
100
AcDbEntity
  8
7
100
AcDbLine
 10
1042.177522120427
 20
841.6549792128494
 30
0.0
 11
1042.177522120427
 21
667.6723792128493
 31
0.0
  0
LINE
  5
3172
330
134F
100
AcDbEntity
  8
0
100
AcDbLine
 10
1089.672772120427
 20
672.6718792128492
 30
0.0
 11
1042.177522120427
 21
672.6718792128492
 31
0.0
  0
LINE
  5
3173
330
134F
100
AcDbEntity
  8
0
100
AcDbLine
 10
1103.171422120427
 20
713.6677792128494
 30
0.0
 11
1102.368502420428
 21
710.6680792128493
 31
0.0
  0
LINE
  5
3174
330
134F
100
AcDbEntity
  8
0
100
AcDbLine
 10
1091.172622120427
 20
713.6677792128494
 30
0.0
 11
1103.171422120427
 21
713.6677792128494
 31
0.0
  0
LINE
  5
3175
330
134F
100
AcDbEntity
  8
0
100
AcDbLine
 10
1091.172622120427
 20
715.6675792128494
 30
0.0
 11
1091.172622120427
 21
713.6677792128494
 31
0.0
  0
LINE
  5
3176
330
134F
100
AcDbEntity
  8
0
100
AcDbLine
 10
1063.675372120427
 20
803.6587792128493
 30
0.0
 11
1063.675372120427
 21
731.0060452128493
 31
0.0
  0
LINE
  5
3177
330
134F
100
AcDbEntity
  8
0
100
AcDbLine
 10
1066.175122120427
 20
803.6587792128493
 30
0.0
 11
1066.175122120427
 21
740.6650792128494
 31
0.0
  0
ARC
  5
3178
330
134F
100
AcDbEntity
  8
0
100
AcDbCircle
 10
1091.172622120427
 20
740.6650792128494
 30
0.0
 40
24.9975
100
AcDbArc
 50
180.0
 51
270.0
  0
ARC
  5
3179
330
134F
100
AcDbEntity
  8
0
100
AcDbCircle
 10
1091.172622120427
 20
740.6650792128494
 30
0.0
 40
27.49725
100
AcDbArc
 50
200.5660000000044
 51
239.5729999999991
  0
ARC
  5
317A
330
134F
100
AcDbEntity
  8
0
100
AcDbCircle
 10
1072.174522120428
 20
708.3383122128493
 30
0.0
 40
9.999
100
AcDbArc
 50
0.0
 51
59.55799999999736
  0
LINE
  5
317B
102
{ACAD_REACTORS
330
328C
102
}
330
134F
100
AcDbEntity
  8
0
100
AcDbLine
 10
1042.177522120427
 20
803.6587792128493
 30
0.0
 11
1066.175122120427
 21
803.6587792128493
 31
0.0
  0
LINE
  5
317C
102
{ACAD_REACTORS
330
328C
102
}
330
134F
100
AcDbEntity
  8
0
100
AcDbLine
 10
1104.671272120427
 20
733.6657792128494
 30
0.0
 11
1067.175022120427
 21
733.6657792128494
 31
0.0
  0
LINE
  5
317D
330
134F
100
AcDbEntity
  8
0
100
AcDbLine
 10
1055.645175220427
 20
827.4773971128492
 30
0.0
 11
1088.698869520428
 21
824.5856863128492
 31
0.0
  0
LINE
  5
317E
330
134F
100
AcDbEntity
  8
0
100
AcDbLine
 10
1104.671272120427
 20
733.6657792128494
 30
0.0
 11
1104.671272120427
 21
807.1544296128493
 31
0.0
  0
ARC
  5
317F
330
134F
100
AcDbEntity
  8
0
100
AcDbCircle
 10
1087.173022120427
 20
807.1544296128493
 30
0.0
 40
17.49825
100
AcDbArc
 50
0.0
 51
85.00000000000026
  0
ARC
  5
3180
330
134F
100
AcDbEntity
  8
0
100
AcDbCircle
 10
1042.177522120427
 20
823.6567792128491
 30
0.0
 40
4.9995
100
AcDbArc
 50
270.0
 51
90.0
  0
LINE
  5
3181
330
134F
100
AcDbEntity
  8
0
100
AcDbLine
 10
1055.427197020428
 20
824.9876461128492
 30
0.0
 11
1088.480891320427
 21
822.0959353128492
 31
0.0
  0
LINE
  5
3182
330
134F
100
AcDbEntity
  8
0
100
AcDbLine
 10
1102.171522120428
 20
733.6657792128494
 30
0.0
 11
1102.171522120428
 21
807.1544296128493
 31
0.0
  0
ARC
  5
3183
330
134F
100
AcDbEntity
  8
0
100
AcDbCircle
 10
1087.173022120427
 20
807.1544296128493
 30
0.0
 40
14.9985
100
AcDbArc
 50
0.0
 51
85.00000000000026
  0
LINE
  5
3184
330
134F
100
AcDbEntity
  8
0
100
AcDbLine
 10
1042.177522120427
 20
836.6554792128493
 30
0.0
 11
1049.676772120428
 21
836.6554792128493
 31
0.0
  0
LINE
  5
3185
330
134F
100
AcDbEntity
  8
0
100
AcDbLine
 10
1049.677772020428
 20
836.6554792128493
 30
0.0
 11
1065.176222020427
 21
826.6444804128493
 31
0.0
  0
ARC
  5
3186
330
134F
100
AcDbEntity
  8
0
100
AcDbCircle
 10
1103.171422120427
 20
734.6656792128494
 30
0.0
 40
0.9999
100
AcDbArc
 50
180.0
 51
270.0
  0
LINE
  5
3187
330
134F
100
AcDbEntity
  8
0
100
AcDbLine
 10
994.6822721204277
 20
672.6718792128492
 30
0.0
 11
1042.177522120427
 21
672.6718792128492
 31
0.0
  0
HATCH
  5
3188
330
134F
100
AcDbEntity
  8
8
100
AcDbHatch
 10
0.0
 20
0.0
 30
0.0
210
0.0
220
0.0
230
1.0
  2
ANSI31,_I
 70
     0
 71
     0
 91
        1
 92
        7
 72
     1
 73
     1
 93
       31
 10
1007.169803114767
 20
716.9912132319482
 42
0.171196667181274
 10
1018.927359870388
 20
731.0060452128493
 42
0.0
 10
1020.679672120428
 20
731.0060452128493
 42
0.0
 10
1020.679672120428
 20
803.6587792128493
 42
0.0
 10
1018.179922120427
 20
803.6587792128493
 42
0.0
 10
1018.179922120427
 20
740.6650792128494
 42
-0.4142135623730951
 10
993.1824221204275
 20
715.6675792128494
 42
0.0
 10
993.1824221204278
 20
713.6677792128494
 42
0.0
 10
981.9875417204276
 20
713.6677792128494
 42
0.0
 10
981.9875417204276
 20
710.6680792128493
 42
0.0
 10
982.5236221204276
 20
708.6677792128494
 42
0.0
 10
998.4135900979273
 20
708.6718792128494
 42
-0.6482315195103873
 10
996.1775221204275
 20
703.6718792128493
 42
0.0
 10
994.4275221204277
 20
703.6718792128493
 42
1.0
 10
994.4275221204277
 20
702.1718792128492
 42
0.0
 10
997.6775221204276
 20
702.1718792128492
 42
-0.4142135623730951
 10
999.1775221204276
 20
700.6718792128492
 42
0.0
 10
999.1775221204276
 20
700.1718792128492
 42
-0.4142135623731006
 10
997.6775221204276
 20
698.6718792128492
 42
0.0
 10
994.4275221204277
 20
698.6718792128492
 42
1.0
 10
994.4275221204277
 20
697.1718792128492
 42
0.0
 10
998.6775221204275
 20
697.1718792128492
 42
-0.4142135623730784
 10
999.1775221204276
 20
696.6718792128492
 42
0.0
 10
999.1775221204276
 20
693.6718792128492
 42
0.0
 10
997.1775221204277
 20
691.6718792128492
 42
0.0
 10
997.1775221204277
 20
684.6718792128492
 42
-0.6833752096446116
 10
994.6775221204276
 20
675.6969420273162
 42
0.0
 10
994.6775221204276
 20
672.6718792128492
 42
0.0
 10
999.6775221204275
 20
672.6718792128492
 42
0.4141429160298242
 10
1002.177522047701
 20
675.1712761935357
 42
0.0
 10
1002.181522120427
 20
708.3383122127432
 42
-0.2676019405812645
 97
        0
 75
     2
 76
     1
 52
90.0
 41
10.0
 77
     0
 78
     1
 53
135.0
 43
556.1559723130963
 44
249.598033904139
 45
-0.8838834764831844
 46
-0.8838834764831842
 79
     0
 47
0.2857605785121139
 98
        1
 10
997.926656777318
 20
712.7490350094364
1001
ACAD
1010
0.0
1020
0.0
1030
0.0
  0
LINE
  5
3189
330
134F
100
AcDbEntity
  8
0
100
AcDbLine
 10
982.5236221204276
 20
708.6677792128494
 30
0.0
 11
998.4135900979273
 21
708.6718792128494
 31
0.0
  0
LINE
  5
318A
330
134F
100
AcDbEntity
  8
0
100
AcDbLine
 10
981.1836221204277
 20
713.6677792128494
 30
0.0
 11
982.5236221204276
 21
708.6677792128494
 31
0.0
  0
LINE
  5
318B
330
134F
100
AcDbEntity
  8
0
100
AcDbLine
 10
993.1824221204275
 20
713.6677792128494
 30
0.0
 11
981.1836221204277
 21
713.6677792128494
 31
0.0
  0
LINE
  5
318C
330
134F
100
AcDbEntity
  8
0
100
AcDbLine
 10
993.1824221204275
 20
715.6675792128494
 30
0.0
 11
993.1824221204275
 21
713.6677792128494
 31
0.0
  0
LINE
  5
318D
330
134F
100
AcDbEntity
  8
0
100
AcDbLine
 10
1020.679672120428
 20
803.6587792128493
 30
0.0
 11
1020.679672120428
 21
731.0060452128493
 31
0.0
  0
LINE
  5
318E
330
134F
100
AcDbEntity
  8
0
100
AcDbLine
 10
1018.179922120427
 20
803.6587792128493
 30
0.0
 11
1018.179922120427
 21
740.6650792128494
 31
0.0
  0
ARC
  5
318F
330
134F
100
AcDbEntity
  8
0
100
AcDbCircle
 10
993.1824221204275
 20
740.6650792128494
 30
0.0
 40
24.9975
100
AcDbArc
 50
270.0
 51
0.0
  0
ARC
  5
3190
330
134F
100
AcDbEntity
  8
0
100
AcDbCircle
 10
993.1824221204275
 20
740.6650792128494
 30
0.0
 40
27.49725
100
AcDbArc
 50
300.4420000000027
 51
339.4339999999956
  0
ARC
  5
3191
330
134F
100
AcDbEntity
  8
0
100
AcDbCircle
 10
1012.180522120427
 20
708.3383122128493
 30
0.0
 40
9.999
100
AcDbArc
 50
120.4420000000026
 51
180.0
  0
LINE
  5
3192
330
134F
100
AcDbEntity
  8
0
100
AcDbLine
 10
1042.177522120427
 20
803.6587792128493
 30
0.0
 11
1018.179922120427
 21
803.6587792128493
 31
0.0
  0
LINE
  5
3193
330
134F
100
AcDbEntity
  8
0
100
AcDbLine
 10
979.6837721204274
 20
733.6657792128494
 30
0.0
 11
1017.180022120427
 21
733.6657792128494
 31
0.0
  0
LINE
  5
3194
330
134F
100
AcDbEntity
  8
0
100
AcDbLine
 10
1028.710868920427
 20
827.4783970128492
 30
0.0
 11
995.6571746204275
 21
824.5866862128494
 31
0.0
  0
LINE
  5
3195
330
134F
100
AcDbEntity
  8
0
100
AcDbLine
 10
979.6837721204274
 20
733.6657792128494
 30
0.0
 11
979.6837721204274
 21
807.1544296128493
 31
0.0
  0
ARC
  5
3196
330
134F
100
AcDbEntity
  8
0
100
AcDbCircle
 10
997.1820221204277
 20
807.1544296128493
 30
0.0
 40
17.49825
100
AcDbArc
 50
94.99999999999973
 51
180.0
  0
ARC
  5
3197
330
134F
100
AcDbEntity
  8
0
100
AcDbCircle
 10
1042.177522120427
 20
823.6567792128491
 30
0.0
 40
4.9995
100
AcDbArc
 50
90.0
 51
270.0
  0
LINE
  5
3198
330
134F
100
AcDbEntity
  8
0
100
AcDbLine
 10
1028.928847120427
 20
824.9876461128492
 30
0.0
 11
995.8751528204276
 21
822.0959353128492
 31
0.0
  0
LINE
  5
3199
330
134F
100
AcDbEntity
  8
0
100
AcDbLine
 10
982.1835221204274
 20
733.6657792128494
 30
0.0
 11
982.1835221204274
 21
807.1544296128493
 31
0.0
  0
ARC
  5
319A
330
134F
100
AcDbEntity
  8
0
100
AcDbCircle
 10
997.1820221204277
 20
807.1544296128493
 30
0.0
 40
14.9985
100
AcDbArc
 50
94.99999999999973
 51
180.0
  0
LINE
  5
319B
330
134F
100
AcDbEntity
  8
0
100
AcDbLine
 10
1042.177522120427
 20
836.6554792128493
 30
0.0
 11
1034.678272120427
 21
836.6554792128493
 31
0.0
  0
LINE
  5
319C
330
134F
100
AcDbEntity
  8
0
100
AcDbLine
 10
1034.678272120427
 20
836.6554792128493
 30
0.0
 11
1019.180822020427
 21
826.6444804128493
 31
0.0
  0
ARC
  5
319D
330
134F
100
AcDbEntity
  8
0
100
AcDbCircle
 10
981.1836221204277
 20
734.6656792128494
 30
0.0
 40
0.9999
100
AcDbArc
 50
270.0
 51
0.0
  0
LINE
  5
319E
330
134F
100
AcDbEntity
  8
0
100
AcDbLine
 10
1018.927847320427
 20
731.0060452128493
 30
0.0
 11
1065.428196820427
 21
731.0060452128493
 31
0.0
  0
LINE
  5
319F
330
134F
100
AcDbEntity
  8
0
100
AcDbLine
 10
1020.609679120427
 20
741.1080349128495
 30
0.0
 11
1063.675372120427
 21
741.1080349128495
 31
0.0
  0
LINE
  5
31A1
330
134F
100
AcDbEntity
  8
4
100
AcDbLine
 10
1007.162024020427
 20
711.2770183128493
 30
0.0
 11
1076.955044020427
 21
711.2770183128493
 31
0.0
  0
ARC
  5
31A2
330
134F
100
AcDbEntity
  8
0
100
AcDbCircle
 10
1042.177522120427
 20
823.6567792128491
 30
0.0
 40
5.9994
100
AcDbArc
 50
209.9999999999977
 51
330.0000000000022
  0
ARC
  5
31A3
330
134F
100
AcDbEntity
  8
0
100
AcDbCircle
 10
1042.177522120427
 20
823.6567792128491
 30
0.0
 40
8.49915
100
AcDbArc
 50
209.9999999999977
 51
330.0000000000022
  0
LINE
  5
31A4
330
134F
100
AcDbEntity
  8
0
100
AcDbLine
 10
1047.374002420427
 20
820.6570792128493
 30
0.0
 11
1049.449794820427
 21
824.2527196128493
 31
0.0
  0
LINE
  5
31A5
330
134F
100
AcDbEntity
  8
0
100
AcDbLine
 10
1049.538785920427
 20
819.4072042128492
 30
0.0
 11
1051.614578320427
 21
823.0028446128494
 31
0.0
  0
LINE
  5
31A6
330
134F
100
AcDbEntity
  8
0
100
AcDbLine
 10
1036.982041720428
 20
820.6570792128493
 30
0.0
 11
1034.906249320427
 21
824.2537195128493
 31
0.0
  0
LINE
  5
31A7
330
134F
100
AcDbEntity
  8
0
100
AcDbLine
 10
1034.817258220427
 20
819.4072042128492
 30
0.0
 11
1032.741465820427
 21
823.0038445128494
 31
0.0
  0
ARC
  5
31A8
330
134F
100
AcDbEntity
  8
0
100
AcDbCircle
 10
1029.277812220428
 20
821.0030446128493
 30
0.0
 40
3.9996
100
AcDbArc
 50
30.00000000000053
 51
94.99999999999973
  0
ARC
  5
31A9
330
134F
100
AcDbEntity
  8
0
100
AcDbCircle
 10
1055.078231920427
 20
821.0030446128493
 30
0.0
 40
3.9996
100
AcDbArc
 50
85.00000000000026
 51
149.9999999999994
  0
ARC
  5
31AA
330
134F
100
AcDbEntity
  8
0
100
AcDbCircle
 10
1029.277812220428
 20
821.0030446128493
 30
0.0
 40
6.49935
100
AcDbArc
 50
30.00000000000053
 51
94.99999999999973
  0
ARC
  5
31AB
330
134F
100
AcDbEntity
  8
0
100
AcDbCircle
 10
1055.078231920427
 20
821.0030446128493
 30
0.0
 40
6.49935
100
AcDbArc
 50
85.00000000000026
 51
149.9999999999994
  0
INSERT
  5
31AC
330
134F
100
AcDbEntity
  8
8
100
AcDbBlockReference
  2
*X10
 10
922.1695241204276
 20
559.0472428128493
 30
0.0
 41
0.9999000000000251
 42
0.9999000000000251
 43
0.9999
1001
ACAD
1000
HATCH
1002
{
1070
    19
1000
ANSI31,_I
1040
3.174999999999999
1040
0.7850000000000001
1002
}
  0
LINE
  5
31AF
330
134F
100
AcDbEntity
  8
AM_0
100
AcDbLine
 10
1089.677522120427
 20
672.6718792128492
 30
0.0
 11
1089.677522120427
 21
675.6718792128492
 31
0.0
  0
LINE
  5
31B0
330
134F
100
AcDbEntity
  8
AM_0
100
AcDbLine
 10
1082.173522120427
 20
708.3383122128493
 30
0.0
 11
1082.177522120427
 21
675.1718792128492
 31
0.0
  0
ARC
  5
31B1
330
134F
100
AcDbEntity
  8
AM_0
100
AcDbCircle
 10
1090.177522120427
 20
680.6718792128492
 30
0.0
 40
5.0
100
AcDbArc
 50
126.8699999999946
 51
264.2610000000065
  0
LINE
  5
31B2
330
134F
100
AcDbEntity
  8
AM_0
100
AcDbLine
 10
994.6775221204276
 20
672.6718792128492
 30
0.0
 11
1089.677522120427
 21
672.6718792128492
 31
0.0
  0
LINE
  5
31B3
330
134F
100
AcDbEntity
  8
AM_0
100
AcDbLine
 10
994.6775221204276
 20
672.6718792128492
 30
0.0
 11
994.6775221204276
 21
675.6718792128492
 31
0.0
  0
ARC
  5
31B4
330
134F
100
AcDbEntity
  8
AM_0
100
AcDbCircle
 10
999.6775221204275
 20
675.1718792128492
 30
0.0
 40
2.5
100
AcDbArc
 50
270.0
 51
0.0
  0
ARC
  5
31B5
330
134F
100
AcDbEntity
  8
AM_0
100
AcDbCircle
 10
1084.677522120427
 20
675.1718792128492
 30
0.0
 40
2.5
100
AcDbArc
 50
180.0
 51
270.0
  0
LINE
  5
31B7
330
134F
100
AcDbEntity
  8
AM_0
100
AcDbLine
 10
1089.927522120427
 20
703.6718792128493
 30
0.0
 11
1088.177522120427
 21
703.6718792128493
 31
0.0
  0
ARC
  5
31B8
330
134F
100
AcDbEntity
  8
AM_0
100
AcDbCircle
 10
1088.177522120427
 20
706.6718792128492
 30
0.0
 40
3.0
100
AcDbArc
 50
138.1896851042181
 51
270.0
  0
ARC
  5
31B9
330
134F
100
AcDbEntity
  8
AM_0
100
AcDbCircle
 10
1089.927522120427
 20
702.9218792128492
 30
0.0
 40
0.75
100
AcDbArc
 50
270.0
 51
90.0
  0
LINE
  5
31BA
330
134F
100
AcDbEntity
  8
AM_0
100
AcDbLine
 10
1085.177522120427
 20
700.6718792128492
 30
0.0
 11
1085.177522120427
 21
700.1718792128492
 31
0.0
  0
ARC
  5
31BB
330
134F
100
AcDbEntity
  8
AM_0
100
AcDbCircle
 10
1086.677522120427
 20
700.6718792128492
 30
0.0
 40
1.5
100
AcDbArc
 50
90.0
 51
180.0
  0
LINE
  5
31BC
330
134F
100
AcDbEntity
  8
AM_0
100
AcDbLine
 10
1086.677522120427
 20
702.1718792128492
 30
0.0
 11
1089.927522120427
 21
702.1718792128492
 31
0.0
  0
LINE
  5
31BD
330
134F
100
AcDbEntity
  8
AM_0
100
AcDbLine
 10
999.1775221204276
 20
700.1718792128492
 30
0.0
 11
999.1775221204276
 21
700.6718792128492
 31
0.0
  0
LINE
  5
31BE
330
134F
100
AcDbEntity
  8
AM_0
100
AcDbLine
 10
1085.177522120427
 20
700.1718792128492
 30
0.0
 11
1085.177522120427
 21
700.6718792128492
 31
0.0
  0
LINE
  5
31BF
330
134F
100
AcDbEntity
  8
AM_0
100
AcDbLine
 10
1087.177522120427
 20
691.6718792128492
 30
0.0
 11
1087.177522120427
 21
684.6718792128492
 31
0.0
  0
LINE
  5
31C0
330
134F
100
AcDbEntity
  8
AM_0
100
AcDbLine
 10
1085.177522120427
 20
695.6718792128494
 30
0.0
 11
1085.177522120427
 21
696.6718792128492
 31
0.0
  0
LINE
  5
31C1
330
134F
100
AcDbEntity
  8
AM_0
100
AcDbLine
 10
994.6775221204276
 20
672.6718792128492
 30
0.0
 11
1089.677522120427
 21
672.6718792128492
 31
0.0
  0
LINE
  5
31C2
330
134F
100
AcDbEntity
  8
AM_0
100
AcDbLine
 10
994.6775221204276
 20
672.6718792128492
 30
0.0
 11
994.6775221204276
 21
675.6969420273162
 31
0.0
  0
LINE
  5
31C3
330
134F
100
AcDbEntity
  8
AM_0
100
AcDbLine
 10
1002.181522411304
 20
708.3407240488015
 30
0.0
 11
1002.177522120427
 21
675.1718792128492
 31
0.0
  0
ARC
  5
31C4
330
134F
100
AcDbEntity
  8
AM_0
100
AcDbCircle
 10
994.1775221204276
 20
680.6718792128492
 30
0.0
 40
5.0
100
AcDbArc
 50
275.7391704772747
 51
53.1301023541625
1001
GENIUS_GENODEF_13
1002
{
1000
HIER
1070
     0
1002
}
1002
{
1000
MANEDIT
1070
     0
1002
}
1002
{
1000
NOSEL
1070
     0
1002
}
1002
{
1000
BEHIND
1070
     0
1002
}
1002
{
1000
OTHER
1070
     0
1002
}
1002
{
1000
REACTOR
1002
}
1001
GENIUS_GENOBJ-N-FIL_13
1002
{
1000
OWNER
1000
GEN
1002
}
  0
ARC
  5
31C5
330
134F
100
AcDbEntity
  8
AM_0
100
AcDbCircle
 10
999.6775221204275
 20
675.1718792128492
 30
0.0
 40
2.5
100
AcDbArc
 50
270.0
 51
0.0
  0
ARC
  5
31C6
330
134F
100
AcDbEntity
  8
AM_0
100
AcDbCircle
 10
996.1775221204275
 20
706.6718792128492
 30
0.0
 40
3.0
100
AcDbArc
 50
270.0
 51
41.81031489578181
1001
GENIUS_GENOBJ-N-FIL_13
1002
{
1000
OWNER
1000
GEN
1002
}
1001
GENIUS_GENODEF_13
1002
{
1000
HIER
1070
     0
1002
}
1002
{
1000
MANEDIT
1070
     0
1002
}
1002
{
1000
NOSEL
1070
     0
1002
}
1002
{
1000
BEHIND
1070
     0
1002
}
1002
{
1000
OTHER
1070
     0
1002
}
1002
{
1000
REACTOR
1002
}
  0
ARC
  5
31C7
330
134F
100
AcDbEntity
  8
AM_0
100
AcDbCircle
 10
994.4275221204277
 20
702.9218792128492
 30
0.0
 40
0.75
100
AcDbArc
 50
90.0
 51
270.0
1001
GENIUS_GENODEF_13
1002
{
1000
HIER
1070
     0
1002
}
1002
{
1000
MANEDIT
1070
     0
1002
}
1002
{
1000
NOSEL
1070
     0
1002
}
1002
{
1000
BEHIND
1070
     0
1002
}
1002
{
1000
OTHER
1070
     0
1002
}
1002
{
1000
REACTOR
1002
}
1001
GENIUS_GENOBJ-N-FIL_13
1002
{
1000
OWNER
1000
GEN
1002
}
  0
LINE
  5
31C8
330
134F
100
AcDbEntity
  8
AM_0
100
AcDbLine
 10
997.6775221204276
 20
702.1718792128492
 30
0.0
 11
994.4275221204277
 21
702.1718792128492
 31
0.0
  0
ARC
  5
31C9
330
134F
100
AcDbEntity
  8
AM_0
100
AcDbCircle
 10
997.6775221204276
 20
700.6718792128492
 30
0.0
 40
1.5
100
AcDbArc
 50
0.0
 51
90.0
  0
LINE
  5
31CA
330
134F
100
AcDbEntity
  8
AM_0
100
AcDbLine
 10
997.1775221204277
 20
691.6718792128492
 30
0.0
 11
997.1775221204277
 21
684.6718792128492
 31
0.0
  0
LINE
  5
31CB
330
134F
100
AcDbEntity
  8
AM_0
100
AcDbLine
 10
999.1775221204276
 20
700.1718792128492
 30
0.0
 11
999.1775221204276
 21
700.6718792128492
 31
0.0
  0
LINE
  5
31CC
330
134F
100
AcDbEntity
  8
AM_0
100
AcDbLine
 10
997.1775221204277
 20
691.6718792128492
 30
0.0
 11
999.1775221204276
 21
693.6718792128492
 31
0.0
  0
ARC
  5
31CD
330
134F
100
AcDbEntity
  8
AM_0
100
AcDbCircle
 10
994.4275221204277
 20
697.9218792128492
 30
0.0
 40
0.75
100
AcDbArc
 50
90.0
 51
270.0
  0
LINE
  5
31CE
330
134F
100
AcDbEntity
  8
AM_0
100
AcDbLine
 10
998.6775221204275
 20
697.1718792128492
 30
0.0
 11
994.4275221204277
 21
697.1718792128492
 31
0.0
  0
LINE
  5
31CF
330
134F
100
AcDbEntity
  8
AM_0
100
AcDbLine
 10
994.4275221204277
 20
698.6718792128492
 30
0.0
 11
997.6775221204276
 21
698.6718792128492
 31
0.0
  0
ARC
  5
31D0
330
134F
100
AcDbEntity
  8
0
100
AcDbCircle
 10
997.6775221204276
 20
700.1718792128492
 30
0.0
 40
1.5
100
AcDbArc
 50
270.0
 51
359.9999999999935
1001
GENIUS_GENODEF_13
1002
{
1000
HIER
1070
     0
1002
}
1002
{
1000
MANEDIT
1070
     0
1002
}
1002
{
1000
NOSEL
1070
     0
1002
}
1002
{
1000
BEHIND
1070
     0
1002
}
1002
{
1000
OTHER
1070
     0
1002
}
1002
{
1000
REACTOR
1002
}
1001
GENIUS_GENOBJ-N-FIL_13
1002
{
1000
OWNER
1000
GEN
1002
}
  0
LINE
  5
31D1
330
134F
100
AcDbEntity
  8
AM_0
100
AcDbLine
 10
999.1775221204276
 20
696.6718792128492
 30
0.0
 11
999.1775221204276
 21
693.6718792128492
 31
0.0
  0
ARC
  5
31D2
330
134F
100
AcDbEntity
  8
AM_0
100
AcDbCircle
 10
998.6775221204275
 20
696.6718792128492
 30
0.0
 40
0.5
100
AcDbArc
 50
359.9999999999935
 51
90.0
1001
GENIUS_GENODEF_13
1002
{
1000
HIER
1070
     0
1002
}
1002
{
1000
MANEDIT
1070
     0
1002
}
1002
{
1000
NOSEL
1070
     0
1002
}
1002
{
1000
BEHIND
1070
     0
1002
}
1002
{
1000
OTHER
1070
     0
1002
}
1002
{
1000
REACTOR
1002
}
1001
GENIUS_GENOBJ-N-FIL_13
1002
{
1000
OWNER
1000
GEN
1002
}
  0
LINE
  5
31D3
330
134F
100
AcDbEntity
  8
0
100
AcDbLine
 10
994.4275221204277
 20
703.6718792128493
 30
0.0
 11
996.1775221204275
 21
703.6718792128493
 31
0.0
  0
LINE
  5
31D4
330
134F
100
AcDbEntity
  8
AM_0
100
AcDbLine
 10
1085.177522120427
 20
700.1718792128492
 30
0.0
 11
1085.177522120427
 21
700.6718792128492
 31
0.0
  0
LINE
  5
31D5
330
134F
100
AcDbEntity
  8
AM_0
100
AcDbLine
 10
1087.177522120427
 20
691.6718792128492
 30
0.0
 11
1085.177522120427
 21
693.6718792128492
 31
0.0
  0
ARC
  5
31D6
330
134F
100
AcDbEntity
  8
AM_0
100
AcDbCircle
 10
1089.927522120427
 20
697.9218792128492
 30
0.0
 40
0.75
100
AcDbArc
 50
270.0
 51
90.0
  0
LINE
  5
31D7
330
134F
100
AcDbEntity
  8
AM_0
100
AcDbLine
 10
1085.677522120427
 20
697.1718792128492
 30
0.0
 11
1089.927522120427
 21
697.1718792128492
 31
0.0
  0
LINE
  5
31D8
330
134F
100
AcDbEntity
  8
AM_0
100
AcDbLine
 10
1089.927522120427
 20
698.6718792128492
 30
0.0
 11
1086.677522120427
 21
698.6718792128492
 31
0.0
  0
ARC
  5
31D9
330
134F
100
AcDbEntity
  8
0
100
AcDbCircle
 10
1086.677522120427
 20
700.1718792128492
 30
0.0
 40
1.5
100
AcDbArc
 50
180.0
 51
270.0
1001
GENIUS_GENODEF_13
1002
{
1000
HIER
1070
     0
1002
}
1002
{
1000
MANEDIT
1070
     0
1002
}
1002
{
1000
NOSEL
1070
     0
1002
}
1002
{
1000
BEHIND
1070
     0
1002
}
1002
{
1000
OTHER
1070
     0
1002
}
1002
{
1000
REACTOR
1002
}
1001
GENIUS_GENOBJ-N-FIL_13
1002
{
1000
OWNER
1000
GEN
1002
}
  0
LINE
  5
31DA
330
134F
100
AcDbEntity
  8
AM_0
100
AcDbLine
 10
1085.177522120427
 20
696.6718792128492
 30
0.0
 11
1085.177522120427
 21
693.6718792128492
 31
0.0
  0
ARC
  5
31DB
330
134F
100
AcDbEntity
  8
AM_0
100
AcDbCircle
 10
1085.677522120427
 20
696.6718792128492
 30
0.0
 40
0.5
100
AcDbArc
 50
90.0
 51
180.0
1001
GENIUS_GENODEF_13
1002
{
1000
HIER
1070
     0
1002
}
1002
{
1000
MANEDIT
1070
     0
1002
}
1002
{
1000
NOSEL
1070
     0
1002
}
1002
{
1000
BEHIND
1070
     0
1002
}
1002
{
1000
OTHER
1070
     0
1002
}
1002
{
1000
REACTOR
1002
}
1001
GENIUS_GENOBJ-N-FIL_13
1002
{
1000
OWNER
1000
GEN
1002
}
  0
LINE
  5
31DC
330
134F
100
AcDbEntity
  8
0
100
AcDbLine
 10
1101.831422120428
 20
708.6677792128494
 30
0.0
 11
1085.941454142927
 21
708.6718792128494
 31
0.0
  0
LINE
  5
31DD
330
134F
100
AcDbEntity
  8
0
100
AcDbLine
 10
1103.171422120427
 20
713.6677792128494
 30
0.0
 11
1101.831422120428
 21
708.6677792128494
 31
0.0
  0
LINE
  5
31DE
330
134F
100
AcDbEntity
  8
AM_BOR
100
AcDbLine
 10
1020.679672120428
 20
803.6587792128493
 30
0.0
 11
1018.179922120427
 21
803.6587792128493
 31
0.0
  0
LINE
  5
31DF
330
134F
100
AcDbEntity
  8
AM_BOR
100
AcDbLine
 10
1018.179922120427
 20
803.6587792128493
 30
0.0
 11
1018.179922120427
 21
740.6650792128494
 31
0.0
  0
LINE
  5
31E0
330
134F
100
AcDbEntity
  8
AM_BOR
100
AcDbLine
 10
993.1824221204275
 20
715.6675792128494
 30
0.0
 11
993.1824221204275
 21
713.6677792128494
 31
0.0
  0
LINE
  5
31E1
330
134F
100
AcDbEntity
  8
AM_BOR
100
AcDbLine
 10
993.1824221204275
 20
713.6677792128494
 30
0.0
 11
981.1836221204277
 21
713.6677792128494
 31
0.0
  0
LINE
  5
31E2
330
134F
100
AcDbEntity
  8
AM_BOR
100
AcDbLine
 10
981.1836221204277
 20
713.6677792128494
 30
0.0
 11
982.5236221204276
 21
708.6677792128494
 31
0.0
  0
LINE
  5
31E3
330
134F
100
AcDbEntity
  8
AM_BOR
100
AcDbLine
 10
982.5236221204276
 20
708.6677792128494
 30
0.0
 11
998.4172504945837
 21
708.6677792128494
 31
0.0
  0
LINE
  5
31E4
330
134F
100
AcDbEntity
  8
AM_BOR
100
AcDbLine
 10
1020.679672120428
 20
803.6587792128493
 30
0.0
 11
1020.679672120428
 21
731.0060452128493
 31
0.0
  0
LINE
  5
31E5
330
134F
100
AcDbEntity
  8
AM_BOR
100
AcDbLine
 10
1020.679672120428
 20
731.0060452128493
 30
0.0
 11
1018.927221726698
 21
731.0056770162618
 31
0.0
  0
LINE
  5
31E6
330
134F
100
AcDbEntity
  8
AM_BOR
100
AcDbLine
 10
1002.181522411304
 20
708.3407240488015
 30
0.0
 11
1002.177522120427
 21
675.1718792128492
 31
0.0
  0
HATCH
  5
31E7
330
134F
100
AcDbEntity
  8
8
100
AcDbHatch
 10
0.0
 20
0.0
 30
0.0
210
0.0
220
0.0
230
1.0
  2
ANSI31,_I
 70
     0
 71
     0
 91
        1
 92
        7
 72
     1
 73
     1
 93
       31
 10
1077.185241126087
 20
716.9912132319482
 42
-0.171196667181274
 10
1065.427684370467
 20
731.0060452128493
 42
0.0
 10
1063.675372120427
 20
731.0060452128493
 42
0.0
 10
1063.675372120427
 20
803.6587792128493
 42
0.0
 10
1066.175122120427
 20
803.6587792128493
 42
0.0
 10
1066.175122120427
 20
740.6650792128494
 42
0.4142135623730951
 10
1091.172622120427
 20
715.6675792128494
 42
0.0
 10
1091.172622120427
 20
713.6677792128494
 42
0.0
 10
1102.367502520427
 20
713.6677792128494
 42
0.0
 10
1102.367502520427
 20
710.6680792128493
 42
0.0
 10
1101.831422120428
 20
708.6677792128494
 42
0.0
 10
1085.941454142927
 20
708.6718792128494
 42
0.6482315195103873
 10
1088.177522120427
 20
703.6718792128493
 42
0.0
 10
1089.927522120427
 20
703.6718792128493
 42
-1.0
 10
1089.927522120427
 20
702.1718792128492
 42
0.0
 10
1086.677522120427
 20
702.1718792128492
 42
0.4142135623730951
 10
1085.177522120427
 20
700.6718792128492
 42
0.0
 10
1085.177522120427
 20
700.1718792128492
 42
0.4142135623731006
 10
1086.677522120427
 20
698.6718792128492
 42
0.0
 10
1089.927522120427
 20
698.6718792128492
 42
-1.0
 10
1089.927522120427
 20
697.1718792128492
 42
0.0
 10
1085.677522120427
 20
697.1718792128492
 42
0.4142135623730784
 10
1085.177522120427
 20
696.6718792128492
 42
0.0
 10
1085.177522120427
 20
693.6718792128492
 42
0.0
 10
1087.177522120427
 20
691.6718792128492
 42
0.0
 10
1087.177522120427
 20
684.6718792128492
 42
0.6833752096446116
 10
1089.677522120427
 20
675.6969420273162
 42
0.0
 10
1089.677522120427
 20
672.6718792128492
 42
0.0
 10
1084.677522120427
 20
672.6718792128492
 42
-0.4141429160298242
 10
1082.177522193154
 20
675.1712761935357
 42
0.0
 10
1082.173522120427
 20
708.3383122127432
 42
0.2676019405812645
 97
        0
 75
     2
 76
     1
 52
90.0
 41
10.0
 77
     0
 78
     1
 53
135.0
 43
556.1559723130963
 44
249.598033904139
 45
-0.8838834764831844
 46
-0.8838834764831842
 79
     0
 47
0.2857605785121139
 98
        1
 10
1086.428387463537
 20
712.7490350094364
1001
ACAD
1010
0.0
1020
0.0
1030
0.0
  0
HATCH
  5
31E8
330
134F
100
AcDbEntity
  8
8
100
AcDbHatch
 10
0.0
 20
0.0
 30
0.0
210
0.0
220
0.0
230
1.0
  2
ANSI37
 70
     0
 71
     0
 91
        2
 92
        7
 72
     1
 73
     1
 93
       43
 10
1090.212266081125
 20
692.648972343487
 42
0.0
 10
1095.605762716162
 20
695.4170264739068
 42
0.2716668584711962
 10
1095.708173142346
 20
695.5916010284168
 42
0.4142135623737611
 10
1095.508173142345
 20
695.7916010284168
 42
0.0
 10
1090.212266081126
 20
695.7916010284168
 42
0.0
 10
1090.212266081127
 20
697.2944811088819
 42
0.0
 10
1089.795562501904
 20
697.2944811088819
 42
-0.0801339345035949
 10
1087.85256885722
 20
695.7981755040771
 42
0.0484417223238465
 10
1087.40374298611
 20
695.4956258921843
 42
1.093653707245831
 10
1086.760535001203
 20
694.735157911678
 42
0.1036315015779751
 10
1086.402884423302
 20
693.6439332092532
 42
0.0
 10
1086.368919957807
 20
693.6439332092532
 42
0.9831571377540281
 10
1086.385902190553
 20
692.6442216887026
 42
0.0
 10
1086.385902190553
 20
691.6442216887026
 42
1.0
 10
1086.385916985064
 20
690.6442216889216
 42
0.0967879312693665
 10
1086.58845355817
 20
689.5895285142296
 42
1.052885881127892
 10
1087.08780488107
 20
688.7246602522509
 42
-0.0430586253744576
 10
1087.63762890691
 20
687.6156849352009
 42
0.9658601896972792
 10
1087.937507613462
 20
686.6623397046362
 42
-0.0359040800559978
 10
1088.105623620383
 20
685.6434092907782
 42
0.9779609356961989
 10
1088.140337222065
 20
684.6442604107874
 42
0.0
 10
1088.127892048647
 20
684.6442604107874
 42
-0.0354467103561371
 10
1088.007821193103
 20
683.6317709570383
 42
0.9658601896965922
 10
1087.752479343078
 20
682.6655438062555
 42
-0.0413205729184045
 10
1087.278479692198
 20
681.5761962465374
 42
0.978129047178945
 10
1086.756049453543
 20
680.7238009211016
 42
0.1024979364073741
 10
1086.403278252326
 20
679.6439196699646
 42
0.0
 10
1086.368526128781
 20
679.6439196699646
 42
0.9827697323292557
 10
1086.385902190553
 20
678.6442216887025
 42
0.0
 10
1086.385902190553
 20
677.6440415642073
 42
1.010560995748457
 10
1086.423239771951
 20
676.6447940747802
 42
0.1210349122413357
 10
1086.872066475831
 20
675.6433259296427
 42
0.0
 10
1090.212266081125
 20
675.6433259296427
 42
0.0
 10
1090.212266081126
 20
677.1442216887026
 42
0.0
 10
1095.573969351511
 20
678.9553543837444
 42
0.3191073402239067
 10
1095.708173142346
 20
679.1442216886423
 42
0.3191065525252954
 10
1095.573969891596
 20
679.3330888053883
 42
0.0
 10
1090.212266081125
 20
681.1442216887023
 42
0.0
 10
1090.212266081126
 20
684.8709599141415
 42
0.0
 10
1095.573969351512
 20
686.6820926091834
 42
0.3191073402239067
 10
1095.708173142346
 20
686.8709599140814
 42
0.3191065525252954
 10
1095.573969891597
 20
687.0598270308273
 42
0.0
 10
1090.212266081126
 20
688.8709599141414
 42
0.0
 97
        0
 92
        7
 72
     1
 73
     1
 93
       44
 10
1001.985887396044
 20
690.6442216889216
 42
1.0
 10
1001.985902190553
 20
691.6442216887026
 42
0.0
 10
1001.985902190553
 20
692.6442216887026
 42
0.9831571377540761
 10
1002.002884423301
 20
693.6439332092532
 42
0.0
 10
1001.968919957805
 20
693.6439332092532
 42
0.1036315015779643
 10
1001.611269379904
 20
694.7351579116777
 42
1.093653707244843
 10
1000.968061394997
 20
695.4956258921843
 42
0.0484417223238004
 10
1000.519235523887
 20
695.7981755040768
 42
-0.080133934503613
 10
998.5762418792033
 20
697.2944811088819
 42
0.0
 10
998.1595382999804
 20
697.2944811088819
 42
0.0
 10
998.159538299981
 20
695.7916010284168
 42
0.0
 10
992.8636312387617
 20
695.7916010284168
 42
0.414213562373761
 10
992.6636312387614
 20
695.5916010284168
 42
0.2716668584711958
 10
992.7660416649452
 20
695.4170264739068
 42
0.0
 10
998.1595382999818
 20
692.648972343487
 42
0.0
 10
998.159538299981
 20
688.8709599141414
 42
0.0
 10
992.7978344895114
 20
687.0598270308276
 42
0.319106552525654
 10
992.663631238762
 20
686.8709599140814
 42
0.3191073402239918
 10
992.7978350295962
 20
686.6820926091832
 42
0.0
 10
998.1595382999813
 20
684.8709599141418
 42
0.0
 10
998.1595382999818
 20
681.1442216887023
 42
0.0
 10
992.7978344895118
 20
679.3330888053885
 42
0.319106552525654
 10
992.6636312387621
 20
679.1442216886423
 42
0.3191073402239918
 10
992.7978350295965
 20
678.9553543837442
 42
0.0
 10
998.1595382999818
 20
677.1442216887026
 42
0.0
 10
998.1595382999818
 20
675.6433259296427
 42
0.0
 10
1001.499737905276
 20
675.6433259296427
 42
0.1210349122413319
 10
1001.948564609156
 20
676.64479407478
 42
1.038063553730226
 10
1001.959062514651
 20
677.6440415642073
 42
0.0
 10
1001.985902190553
 20
677.6440415642073
 42
0.0
 10
1001.985902190553
 20
678.6442216887025
 42
0.9827697323291898
 10
1002.003278252326
 20
679.6439196699646
 42
0.0
 10
1001.968526128781
 20
679.6439196699646
 42
0.1024979364073745
 10
1001.615754927564
 20
680.7238009211016
 42
0.9781290471834806
 10
1001.093324688909
 20
681.5761962465376
 42
-0.0413205729184139
 10
1000.619325038029
 20
682.6655438062557
 42
0.9713813115582345
 10
1000.358435277798
 20
683.6304758797459
 42
-0.002848554877974
 10
1000.363983188004
 20
683.6317709570384
 42
-0.0354467103561371
 10
1000.24391233246
 20
684.6442604107874
 42
0.9658601896960938
 10
1000.266180760724
 20
685.643409290778
 42
-0.0359040800559974
 10
1000.434296767645
 20
686.6623397046362
 42
0.9658601896965249
 10
1000.734175474197
 20
687.6156849352007
 42
-0.043058625374447
 10
1001.283999500036
 20
688.7246602522507
 42
1.052885881119329
 10
1001.783350822937
 20
689.5895285142296
 42
0.0967879312693681
 97
        0
 75
     0
 76
     1
 52
0.0
 41
1.0
 77
     0
 78
     2
 53
45.0
 43
499.7778664008773
 44
435.4525918214029
 45
-2.245064030267287
 46
2.245064030267288
 79
     0
 53
135.0
 43
499.7778664008773
 44
435.4525918214029
 45
-2.245064030267288
 46
-2.245064030267287
 79
     0
 47
0.0703760402578945
 98
        2
 10
1088.183925263549
 20
690.5419836751307
 10
1000.173167285138
 20
690.4012312931847
1001
ACAD
1010
0.0
1020
0.0
1030
0.0
  0
ARC
  5
31E9
330
134F
100
AcDbEntity
  8
0
100
AcDbCircle
 10
1084.185902190553
 20
702.5691101187041
 30
0.0
 40
7.7
100
AcDbArc
 50
298.4368901488481
 51
316.76307518863
  0
ARC
  5
31EA
330
134F
100
AcDbEntity
  8
0
100
AcDbCircle
 10
1080.935902190554
 20
684.9837922665543
 30
0.0
 40
7.2
100
AcDbArc
 50
331.7527605313021
 51
341.217354139428
  0
ARC
  5
31EB
330
134F
100
AcDbEntity
  8
0
100
AcDbCircle
 10
1080.935902190554
 20
684.9837922665543
 30
0.0
 40
7.2
100
AcDbArc
 50
349.1767011822283
 51
357.2970889192313
  0
ARC
  5
31EC
330
134F
100
AcDbEntity
  8
0
100
AcDbCircle
 10
1080.935902190554
 20
684.9837922665543
 30
0.0
 40
7.2
100
AcDbArc
 50
5.256435962027
 51
13.48151187095868
  0
ARC
  5
31ED
330
134F
100
AcDbEntity
  8
0
100
AcDbCircle
 10
1080.935902190554
 20
684.9837922665543
 30
0.0
 40
7.2
100
AcDbArc
 50
21.44085891375337
 51
31.30307694723722
  0
LINE
  5
31EE
330
134F
100
AcDbEntity
  8
0
100
AcDbLine
 10
1086.385902190553
 20
678.6442216887025
 30
0.0
 11
1086.385902190553
 21
677.6440415642073
 31
0.0
  0
ARC
  5
31EF
330
134F
100
AcDbEntity
  8
0
100
AcDbCircle
 10
1088.685902190553
 20
677.0575394920163
 30
0.0
 40
2.299999999999999
100
AcDbArc
 50
190.3379892964847
 51
217.9428716871601
1001
GENIUS_GENODEF_13
1002
{
1000
HIER
1070
     0
1002
}
1002
{
1000
MANEDIT
1070
     0
1002
}
1002
{
1000
NOSEL
1070
     0
1002
}
1002
{
1000
BEHIND
1070
     0
1002
}
1002
{
1000
REACTOR
1002
}
1001
GENIUS_GENOBJ-N-FIL_13
1002
{
1000
OWNER
1000
GEN
1002
}
  0
ARC
  5
31F0
330
134F
100
AcDbEntity
  8
0
100
AcDbCircle
 10
1089.185902190554
 20
679.3324649888254
 30
0.0
 40
2.799999999999999
100
AcDbArc
 50
150.2045076097008
 51
173.6135555418402
1001
GENIUS_GENODEF_13
1002
{
1000
HIER
1070
     0
1002
}
1002
{
1000
MANEDIT
1070
     0
1002
}
1002
{
1000
NOSEL
1070
     0
1002
}
1002
{
1000
BEHIND
1070
     0
1002
}
1002
{
1000
REACTOR
1002
}
1001
GENIUS_GENOBJ-N-FIL_13
1002
{
1000
OWNER
1000
GEN
1002
}
  0
ARC
  5
31F1
330
134F
100
AcDbEntity
  8
0
100
AcDbCircle
 10
1089.185902190554
 20
693.3360174623946
 30
0.0
 40
2.799999999999999
100
AcDbArc
 50
118.4368901488553
 51
129.5302433154999
1001
GENIUS_GENODEF_13
1002
{
1000
HIER
1070
     0
1002
}
1002
{
1000
MANEDIT
1070
     0
1002
}
1002
{
1000
NOSEL
1070
     0
1002
}
1002
{
1000
BEHIND
1070
     0
1002
}
1002
{
1000
REACTOR
1002
}
1001
GENIUS_GENOBJ-N-FIL_13
1002
{
1000
OWNER
1000
GEN
1002
}
  0
ARC
  5
31F2
330
134F
100
AcDbEntity
  8
0
100
AcDbCircle
 10
1089.185902190554
 20
693.3360174623946
 30
0.0
 40
2.799999999999999
100
AcDbArc
 50
150.0203077146211
 51
173.6864190072443
1001
GENIUS_GENODEF_13
1002
{
1000
HIER
1070
     0
1002
}
1002
{
1000
MANEDIT
1070
     0
1002
}
1002
{
1000
NOSEL
1070
     0
1002
}
1002
{
1000
BEHIND
1070
     0
1002
}
1002
{
1000
REACTOR
1002
}
1001
GENIUS_GENOBJ-N-FIL_13
1002
{
1000
OWNER
1000
GEN
1002
}
  0
ARC
  5
31F3
330
134F
100
AcDbEntity
  8
0
100
AcDbCircle
 10
1089.185902190554
 20
690.6351195442828
 30
0.0
 40
2.799999999999999
100
AcDbArc
 50
180.0
 51
201.9270243470608
1001
GENIUS_GENODEF_13
1002
{
1000
HIER
1070
     0
1002
}
1002
{
1000
MANEDIT
1070
     0
1002
}
1002
{
1000
NOSEL
1070
     0
1002
}
1002
{
1000
BEHIND
1070
     0
1002
}
1002
{
1000
REACTOR
1002
}
1001
GENIUS_GENOBJ-N-FIL_13
1002
{
1000
OWNER
1000
GEN
1002
}
  0
LINE
  5
31F4
330
134F
100
AcDbEntity
  8
0
100
AcDbLine
 10
1086.385902190553
 20
692.6442216887026
 30
0.0
 11
1086.385902190553
 21
691.6442216887026
 31
0.0
  0
LINE
  5
31F5
330
134F
100
AcDbEntity
  8
0
100
AcDbLine
 10
1086.385902190553
 20
690.6442216887025
 30
0.0
 11
1086.385902190553
 21
690.6351195442828
 31
0.0
  0
LINE
  5
31F6
330
134F
100
AcDbEntity
  8
0
100
AcDbLine
 10
1095.57038095443
 20
687.0610393398894
 30
0.0
 11
1090.212266081126
 21
688.8709599141414
 31
0.0
  0
LINE
  5
31F7
330
134F
100
AcDbEntity
  8
0
100
AcDbLine
 10
1095.570381497589
 20
686.6808806660344
 30
0.0
 11
1090.212266081126
 21
684.8709599141415
 31
0.0
  0
LINE
  5
31F8
330
134F
100
AcDbEntity
  8
0
100
AcDbLine
 10
1090.212266081125
 20
692.648972343487
 30
0.0
 11
1090.212266081126
 21
688.8709599141414
 31
0.0
  0
LINE
  5
31F9
330
134F
100
AcDbEntity
  8
0
100
AcDbLine
 10
1090.212266081126
 20
684.8709599141418
 30
0.0
 11
1090.212266081125
 21
681.1442216887023
 31
0.0
  0
ARC
  5
31FA
330
134F
100
AcDbEntity
  8
0
100
AcDbCircle
 10
1095.508173142346
 20
686.8709599140814
 30
0.0
 40
0.2000000000000001
100
AcDbArc
 50
288.1220239729223
 51
0.0
  0
ARC
  5
31FB
330
134F
100
AcDbEntity
  8
0
100
AcDbCircle
 10
1095.508173142345
 20
686.8709599140811
 30
0.0
 40
0.2000000000000001
100
AcDbArc
 50
0.0000000000325689
 51
71.87813975151808
  0
LINE
  5
31FC
330
134F
100
AcDbEntity
  8
0
100
AcDbLine
 10
1090.212266081127
 20
697.2944811088819
 30
0.0
 11
1090.212266081126
 21
695.7916010284168
 31
0.0
  0
LINE
  5
31FD
330
134F
100
AcDbEntity
  8
0
100
AcDbLine
 10
1090.212266081127
 20
697.2944811088819
 30
0.0
 11
1089.795562501904
 21
697.2944811088819
 31
0.0
  0
LINE
  5
31FE
330
134F
100
AcDbEntity
  8
0
100
AcDbLine
 10
1090.212266081125
 20
675.6433259296427
 30
0.0
 11
1086.872066475831
 21
675.6433259296427
 31
0.0
  0
LINE
  5
31FF
330
134F
100
AcDbEntity
  8
0
100
AcDbLine
 10
1090.212266081125
 20
675.6433259296427
 30
0.0
 11
1090.212266081125
 21
677.1442216887026
 31
0.0
  0
LINE
  5
3200
330
134F
100
AcDbEntity
  8
0
100
AcDbLine
 10
1095.508173142345
 20
695.7916010284168
 30
0.0
 11
1090.212266081125
 21
695.7916010284168
 31
0.0
  0
LINE
  5
3201
330
134F
100
AcDbEntity
  8
0
100
AcDbLine
 10
1095.605762716162
 20
695.4170264739068
 30
0.0
 11
1090.212266081125
 21
692.648972343487
 31
0.0
  0
ARC
  5
3202
330
134F
100
AcDbEntity
  8
0
100
AcDbCircle
 10
1095.508173142346
 20
695.5916010284168
 30
0.0
 40
0.2000000000000001
100
AcDbArc
 50
0.0
 51
90.0
  0
ARC
  5
3203
330
134F
100
AcDbEntity
  8
0
100
AcDbCircle
 10
1095.508173142346
 20
695.5916010284168
 30
0.0
 40
0.2000000000000001
100
AcDbArc
 50
299.2057899785827
 51
0.0
  0
LINE
  5
3204
330
134F
100
AcDbEntity
  8
0
100
AcDbLine
 10
1095.57038095443
 20
679.3343011144505
 30
0.0
 11
1090.212266081125
 21
681.1442216887023
 31
0.0
  0
LINE
  5
3205
330
134F
100
AcDbEntity
  8
0
100
AcDbLine
 10
1095.570381497589
 20
678.9541424405954
 30
0.0
 11
1090.212266081125
 21
677.1442216887026
 31
0.0
  0
ARC
  5
3206
330
134F
100
AcDbEntity
  8
0
100
AcDbCircle
 10
1095.508173142346
 20
679.1442216886423
 30
0.0
 40
0.2000000000000001
100
AcDbArc
 50
288.1220239729223
 51
0.0
  0
ARC
  5
3207
330
134F
100
AcDbEntity
  8
0
100
AcDbCircle
 10
1095.508173142345
 20
679.1442216886421
 30
0.0
 40
0.2000000000000001
100
AcDbArc
 50
0.0000000000325689
 51
71.87813975151808
  0
ARC
  5
3208
330
134F
100
AcDbEntity
  8
0
100
AcDbCircle
 10
1086.385902190553
 20
693.1442216887026
 30
0.0
 40
0.5
100
AcDbArc
 50
88.05360512923845
 51
270.0
  0
ARC
  5
3209
330
134F
100
AcDbEntity
  8
0
100
AcDbCircle
 10
1087.896935166277
 20
683.1442216887026
 30
0.0
 40
0.5
100
AcDbArc
 50
77.18686442152199
 51
253.2071909001483
  0
ARC
  5
320A
330
134F
100
AcDbEntity
  8
0
100
AcDbCircle
 10
1087.026690134465
 20
681.1442216887026
 30
0.0
 40
0.5
100
AcDbArc
 50
59.76292377060689
 51
237.2290906329807
  0
ARC
  5
320B
330
134F
100
AcDbEntity
  8
0
100
AcDbCircle
 10
1086.385902190553
 20
679.1442216887026
 30
0.0
 40
0.5
100
AcDbArc
 50
88.05360512923845
 51
270.0
  0
ARC
  5
320C
330
134F
100
AcDbEntity
  8
0
100
AcDbCircle
 10
1086.399322028501
 20
677.1442216887026
 30
0.0
 40
0.5
100
AcDbArc
 50
91.53798484258446
 51
272.7418178424396
  0
ARC
  5
320D
330
134F
100
AcDbEntity
  8
0
100
AcDbCircle
 10
1088.134114635356
 20
685.1442216887026
 30
0.0
 40
0.5
100
AcDbArc
 50
93.26659920134433
 51
269.2869256799176
  0
ARC
  5
320E
330
134F
100
AcDbEntity
  8
0
100
AcDbCircle
 10
1087.804129378985
 20
687.1442216887025
 30
0.0
 40
0.5
100
AcDbArc
 50
109.4510221530739
 51
285.4713486316551
  0
ARC
  5
320F
330
134F
100
AcDbEntity
  8
0
100
AcDbCircle
 10
1086.815833924822
 20
689.1442216887026
 30
0.0
 40
0.5
100
AcDbArc
 50
117.0495404468458
 51
302.9523872547707
  0
ARC
  5
3210
330
134F
100
AcDbEntity
  8
0
100
AcDbCircle
 10
1086.385902190553
 20
691.1442216887025
 30
0.0
 40
0.5
100
AcDbArc
 50
90.0
 51
270.0
  0
ARC
  5
3211
330
134F
100
AcDbEntity
  8
0
100
AcDbCircle
 10
1087.048053394225
 20
695.1442216887025
 30
0.0
 40
0.5
100
AcDbArc
 50
44.65275941527378
 51
234.8977916148498
  0
LINE
  5
3212
330
134F
100
AcDbEntity
  8
AM_7
  6
AM_ISO08W050x2
100
AcDbLine
 10
1095.508173142346
 20
679.1442216886423
 30
0.0
 11
1095.732907142923
 21
679.1442216886423
 31
0.0
1001
GENIUS_GENOREF_13
1005
329D
  0
LINE
  5
3213
330
134F
100
AcDbEntity
  8
AM_7
  6
AM_ISO08W050x2
100
AcDbLine
 10
1095.508173142346
 20
679.1442216886423
 30
0.0
 11
1095.508173142346
 21
679.3689556892196
 31
0.0
1001
GENIUS_GENOREF_13
1005
329D
  0
LINE
  5
3214
330
134F
100
AcDbEntity
  8
AM_7
  6
AM_ISO08W050x2
100
AcDbLine
 10
1095.508173142346
 20
679.1442216886423
 30
0.0
 11
1095.283439141769
 21
679.1442216886423
 31
0.0
1001
GENIUS_GENOREF_13
1005
329D
  0
LINE
  5
3215
330
134F
100
AcDbEntity
  8
AM_7
  6
AM_ISO08W050x2
100
AcDbLine
 10
1095.508173142346
 20
679.1442216886423
 30
0.0
 11
1095.508173142346
 21
678.9194876880651
 31
0.0
1001
GENIUS_GENOREF_13
1005
329D
  0
LINE
  5
3216
330
134F
100
AcDbEntity
  8
AM_7
  6
AM_ISO08W050x2
100
AcDbLine
 10
1095.508173142345
 20
686.8709599140811
 30
0.0
 11
1095.732907142922
 21
686.8709599140811
 31
0.0
1001
GENIUS_GENOREF_13
1005
329C
  0
LINE
  5
3217
330
134F
100
AcDbEntity
  8
AM_7
  6
AM_ISO08W050x2
100
AcDbLine
 10
1095.508173142345
 20
686.8709599140811
 30
0.0
 11
1095.508173142345
 21
687.0956939146583
 31
0.0
1001
GENIUS_GENOREF_13
1005
329C
  0
LINE
  5
3218
330
134F
100
AcDbEntity
  8
AM_7
  6
AM_ISO08W050x2
100
AcDbLine
 10
1095.508173142345
 20
686.8709599140811
 30
0.0
 11
1095.283439141768
 21
686.8709599140811
 31
0.0
1001
GENIUS_GENOREF_13
1005
329C
  0
LINE
  5
3219
330
134F
100
AcDbEntity
  8
AM_7
  6
AM_ISO08W050x2
100
AcDbLine
 10
1095.508173142345
 20
686.8709599140811
 30
0.0
 11
1095.508173142345
 21
686.6462259135039
 31
0.0
1001
GENIUS_GENOREF_13
1005
329C
  0
LINE
  5
321A
330
134F
100
AcDbEntity
  8
AM_7
  6
AM_ISO08W050x2
100
AcDbLine
 10
1095.508173142346
 20
695.5916010284168
 30
0.0
 11
1095.732907142923
 21
695.5916010284168
 31
0.0
1001
GENIUS_GENOREF_13
1005
329B
  0
LINE
  5
321B
330
134F
100
AcDbEntity
  8
AM_7
  6
AM_ISO08W050x2
100
AcDbLine
 10
1095.508173142346
 20
695.5916010284168
 30
0.0
 11
1095.508173142346
 21
695.816335028994
 31
0.0
1001
GENIUS_GENOREF_13
1005
329B
  0
LINE
  5
321C
330
134F
100
AcDbEntity
  8
AM_7
  6
AM_ISO08W050x2
100
AcDbLine
 10
1095.508173142346
 20
695.5916010284168
 30
0.0
 11
1095.283439141768
 21
695.5916010284168
 31
0.0
1001
GENIUS_GENOREF_13
1005
329B
  0
LINE
  5
321D
330
134F
100
AcDbEntity
  8
AM_7
  6
AM_ISO08W050x2
100
AcDbLine
 10
1095.508173142346
 20
695.5916010284168
 30
0.0
 11
1095.508173142346
 21
695.3668670278395
 31
0.0
1001
GENIUS_GENOREF_13
1005
329B
  0
LINE
  5
321E
102
{ACAD_REACTORS
330
3291
102
}
330
134F
100
AcDbEntity
  8
AM_0
100
AcDbLine
 10
994.6775221204276
 20
672.6718792128508
 30
0.0
 11
994.6775221204276
 21
675.6718792128508
 31
0.0
  0
ARC
  5
321F
330
134F
100
AcDbEntity
  8
AM_0
100
AcDbCircle
 10
994.1775221204279
 20
680.6718792128508
 30
0.0
 40
5.0
100
AcDbArc
 50
275.7389999999936
 51
53.13000000000538
  0
HATCH
  5
3220
330
134F
100
AcDbEntity
  8
8
100
AcDbHatch
 10
0.0
 20
0.0
 30
0.0
210
0.0
220
0.0
230
1.0
  2
ANSI37
 70
     0
 71
     0
 91
        2
 92
        7
 72
     1
 73
     1
 93
       43
 10
994.1427781597299
 20
692.6489723434886
 42
0.0
 10
988.7492815246938
 20
695.4170264739084
 42
-0.2716668584711962
 10
988.6468710985097
 20
695.5916010284186
 42
-0.4142135623737611
 10
988.8468710985105
 20
695.7916010284184
 42
0.0
 10
994.142778159729
 20
695.7916010284184
 42
0.0
 10
994.142778159729
 20
697.2944811088832
 42
0.0
 10
994.5594817389521
 20
697.2944811088832
 42
0.0801339345035949
 10
996.5024753836354
 20
695.7981755040787
 42
-0.0484417223238465
 10
996.9513012547453
 20
695.4956258921859
 42
-1.093653707245831
 10
997.5945092396528
 20
694.7351579116793
 42
-0.1036315015779751
 10
997.9521598175535
 20
693.6439332092545
 42
0.0
 10
997.9861242830489
 20
693.6439332092545
 42
-0.9831571377540281
 10
997.9691420503021
 20
692.6442216887039
 42
0.0
 10
997.9691420503019
 20
691.6442216887039
 42
-1.0
 10
997.969127255792
 20
690.6442216889229
 42
-0.0967879312693665
 10
997.7665906826858
 20
689.589528514231
 42
-1.052885881127892
 10
997.267239359785
 20
688.7246602522523
 42
0.0430586253744576
 10
996.7174153339456
 20
687.6156849352023
 42
-0.9658601896972792
 10
996.4175366273931
 20
686.6623397046378
 42
0.0359040800559978
 10
996.2494206204725
 20
685.6434092907796
 42
-0.9779609356961989
 10
996.2147070187903
 20
684.644260410789
 42
0.0
 10
996.2271521922085
 20
684.644260410789
 42
0.0354467103561371
 10
996.3472230477529
 20
683.6317709570399
 42
-0.9658601896965922
 10
996.6025648977771
 20
682.6655438062569
 42
0.0413205729184045
 10
997.0765645486572
 20
681.576196246539
 42
-0.978129047178945
 10
997.598994787312
 20
680.723800921103
 42
-0.1024979364073741
 10
997.9517659885292
 20
679.6439196699659
 42
0.0
 10
997.9865181120741
 20
679.6439196699659
 42
-0.9827697323292557
 10
997.9691420503016
 20
678.6442216887039
 42
0.0
 10
997.9691420503014
 20
677.6440415642086
 42
-1.010560995748457
 10
997.9318044689035
 20
676.6447940747816
 42
-0.1210349122413357
 10
997.482977765024
 20
675.6433259296441
 42
0.0
 10
994.1427781597296
 20
675.6433259296443
 42
0.0
 10
994.1427781597296
 20
677.1442216887042
 42
0.0
 10
988.7810748893437
 20
678.955354383746
 42
-0.3191073402239067
 10
988.6468710985091
 20
679.1442216886442
 42
-0.3191065525252954
 10
988.781074349259
 20
679.3330888053899
 42
0.0
 10
994.1427781597296
 20
681.1442216887037
 42
0.0
 10
994.1427781597294
 20
684.8709599141431
 42
0.0
 10
988.7810748893437
 20
686.682092609185
 42
-0.3191073402239067
 10
988.6468710985091
 20
686.8709599140832
 42
-0.3191065525252954
 10
988.781074349259
 20
687.0598270308289
 42
0.0
 10
994.1427781597294
 20
688.870959914143
 42
0.0
 97
        0
 92
        7
 72
     1
 73
     1
 93
       44
 10
1082.369156844812
 20
690.6442216889201
 42
-1.0
 10
1082.369142050302
 20
691.6442216887012
 42
0.0
 10
1082.369142050302
 20
692.6442216887012
 42
-0.9831571377540761
 10
1082.352159817555
 20
693.6439332092518
 42
0.0
 10
1082.386124283051
 20
693.6439332092518
 42
-0.1036315015779643
 10
1082.743774860951
 20
694.7351579116766
 42
-1.093653707244843
 10
1083.386982845859
 20
695.4956258921829
 42
-0.0484417223238004
 10
1083.835808716968
 20
695.7981755040755
 42
0.080133934503613
 10
1085.778802361653
 20
697.2944811088803
 42
0.0
 10
1086.195505940875
 20
697.2944811088803
 42
0.0
 10
1086.195505940875
 20
695.7916010284154
 42
0.0
 10
1091.491413002094
 20
695.7916010284152
 42
-0.414213562373761
 10
1091.691413002094
 20
695.5916010284152
 42
-0.2716668584711958
 10
1091.589002575911
 20
695.4170264739052
 42
0.0
 10
1086.195505940874
 20
692.6489723434856
 42
0.0
 10
1086.195505940874
 20
688.8709599141398
 42
0.0
 10
1091.557209751344
 20
687.059827030826
 42
-0.319106552525654
 10
1091.691413002093
 20
686.8709599140795
 42
-0.3191073402239918
 10
1091.557209211259
 20
686.6820926091816
 42
0.0
 10
1086.195505940874
 20
684.8709599141402
 42
0.0
 10
1086.195505940874
 20
681.144221688701
 42
0.0
 10
1091.557209751343
 20
679.3330888053869
 42
-0.319106552525654
 10
1091.691413002093
 20
679.1442216886405
 42
-0.3191073402239918
 10
1091.557209211259
 20
678.9553543837426
 42
0.0
 10
1086.195505940873
 20
677.1442216887012
 42
0.0
 10
1086.195505940874
 20
675.6433259296414
 42
0.0
 10
1082.855306335579
 20
675.6433259296414
 42
-0.1210349122413319
 10
1082.406479631699
 20
676.6447940747787
 42
-1.038063553730226
 10
1082.395981726205
 20
677.6440415642059
 42
0.0
 10
1082.369142050302
 20
677.6440415642059
 42
0.0
 10
1082.369142050302
 20
678.6442216887012
 42
-0.9827697323291898
 10
1082.351765988529
 20
679.6439196699632
 42
0.0
 10
1082.386518112074
 20
679.6439196699632
 42
-0.1024979364073745
 10
1082.739289313291
 20
680.7238009211003
 42
-0.9781290471834806
 10
1083.261719551946
 20
681.5761962465362
 42
0.0413205729184139
 10
1083.735719202826
 20
682.6655438062544
 42
-0.9713813115582345
 10
1083.996608963057
 20
683.6304758797446
 42
0.002848554877974
 10
1083.991061052851
 20
683.6317709570371
 42
0.0354467103561371
 10
1084.111131908395
 20
684.644260410786
 42
-0.9658601896960938
 10
1084.088863480131
 20
685.6434092907766
 42
0.0359040800559974
 10
1083.92074747321
 20
686.6623397046348
 42
-0.9658601896965249
 10
1083.620868766658
 20
687.6156849351994
 42
0.043058625374447
 10
1083.071044740819
 20
688.7246602522493
 42
-1.052885881119329
 10
1082.571693417918
 20
689.5895285142282
 42
-0.0967879312693681
 97
        0
 75
     0
 76
     1
 52
0.0
 41
1.0
 77
     0
 78
     2
 53
134.9999999999981
 43
1584.57717783997
 44
435.4525918213854
 45
2.24506403026736
 46
2.245064030267215
 79
     0
 53
44.99999999999814
 43
1584.57717783997
 44
435.4525918213854
 45
2.245064030267215
 46
-2.24506403026736
 79
     0
 47
0.0703760402578945
 98
        2
 10
996.1711189773065
 20
690.541983675132
 10
1084.181876955717
 20
690.4012312931834
1001
ACAD
1010
0.0
1020
0.0
1030
0.0
  0
ARC
  5
3221
330
134F
100
AcDbEntity
  8
0
100
AcDbCircle
 10
1000.169142050302
 20
702.5691101187056
 30
0.0
 40
7.7
100
AcDbArc
 50
223.2369248113699
 51
241.5631098511447
  0
ARC
  5
3222
330
134F
100
AcDbEntity
  8
0
100
AcDbCircle
 10
1003.419142050302
 20
684.9837922665553
 30
0.0
 40
7.2
100
AcDbArc
 50
198.7826458605719
 51
208.2472394686922
  0
ARC
  5
3223
330
134F
100
AcDbEntity
  8
0
100
AcDbCircle
 10
1003.419142050302
 20
684.9837922665553
 30
0.0
 40
7.2
100
AcDbArc
 50
182.7029110807618
 51
190.8232988177716
  0
ARC
  5
3224
330
134F
100
AcDbEntity
  8
0
100
AcDbCircle
 10
1003.419142050302
 20
684.9837922665553
 30
0.0
 40
7.2
100
AcDbArc
 50
166.5184881290413
 51
174.743564037973
  0
ARC
  5
3225
330
134F
100
AcDbEntity
  8
0
100
AcDbCircle
 10
1003.419142050302
 20
684.9837922665553
 30
0.0
 40
7.2
100
AcDbArc
 50
148.69692305276
 51
158.5591410862406
  0
LINE
  5
3226
330
134F
100
AcDbEntity
  8
0
100
AcDbLine
 10
997.9691420503016
 20
678.6442216887039
 30
0.0
 11
997.9691420503014
 21
677.6440415642086
 31
0.0
  0
ARC
  5
3227
330
134F
100
AcDbEntity
  8
0
100
AcDbCircle
 10
995.6691420503027
 20
677.0575394920179
 30
0.0
 40
2.299999999999999
100
AcDbArc
 50
322.0571283128399
 51
349.6620107035153
1001
GENIUS_GENODEF_13
1002
{
1000
HIER
1070
     0
1002
}
1002
{
1000
MANEDIT
1070
     0
1002
}
1002
{
1000
NOSEL
1070
     0
1002
}
1002
{
1000
BEHIND
1070
     0
1002
}
1002
{
1000
REACTOR
1002
}
1001
GENIUS_GENOBJ-N-FIL_13
1002
{
1000
OWNER
1000
GEN
1002
}
  0
ARC
  5
3228
330
134F
100
AcDbEntity
  8
0
100
AcDbCircle
 10
995.1691420503017
 20
679.332464988827
 30
0.0
 40
2.799999999999999
100
AcDbArc
 50
6.386444458153292
 51
29.79549239029923
1001
GENIUS_GENODEF_13
1002
{
1000
HIER
1070
     0
1002
}
1002
{
1000
MANEDIT
1070
     0
1002
}
1002
{
1000
NOSEL
1070
     0
1002
}
1002
{
1000
BEHIND
1070
     0
1002
}
1002
{
1000
REACTOR
1002
}
1001
GENIUS_GENOBJ-N-FIL_13
1002
{
1000
OWNER
1000
GEN
1002
}
  0
ARC
  5
3229
330
134F
100
AcDbEntity
  8
0
100
AcDbCircle
 10
995.1691420503022
 20
693.3360174623961
 30
0.0
 40
2.799999999999999
100
AcDbArc
 50
6.31358099275567
 51
29.97969228537892
1001
GENIUS_GENODEF_13
1002
{
1000
HIER
1070
     0
1002
}
1002
{
1000
MANEDIT
1070
     0
1002
}
1002
{
1000
NOSEL
1070
     0
1002
}
1002
{
1000
BEHIND
1070
     0
1002
}
1002
{
1000
REACTOR
1002
}
1001
GENIUS_GENOBJ-N-FIL_13
1002
{
1000
OWNER
1000
GEN
1002
}
  0
ARC
  5
322A
330
134F
100
AcDbEntity
  8
0
100
AcDbCircle
 10
995.1691420503022
 20
690.6351195442842
 30
0.0
 40
2.799999999999999
100
AcDbArc
 50
338.0729756529391
 51
359.9999999999935
1001
GENIUS_GENODEF_13
1002
{
1000
HIER
1070
     0
1002
}
1002
{
1000
MANEDIT
1070
     0
1002
}
1002
{
1000
NOSEL
1070
     0
1002
}
1002
{
1000
BEHIND
1070
     0
1002
}
1002
{
1000
REACTOR
1002
}
1001
GENIUS_GENOBJ-N-FIL_13
1002
{
1000
OWNER
1000
GEN
1002
}
  0
LINE
  5
322B
330
134F
100
AcDbEntity
  8
0
100
AcDbLine
 10
997.9691420503021
 20
692.6442216887039
 30
0.0
 11
997.9691420503019
 21
691.6442216887039
 31
0.0
  0
LINE
  5
322C
330
134F
100
AcDbEntity
  8
0
100
AcDbLine
 10
988.7846632864253
 20
687.0610393398912
 30
0.0
 11
994.1427781597298
 21
688.870959914143
 31
0.0
  0
LINE
  5
322D
330
134F
100
AcDbEntity
  8
0
100
AcDbLine
 10
988.7846627432665
 20
686.6808806660363
 30
0.0
 11
994.1427781597296
 21
684.8709599141431
 31
0.0
  0
LINE
  5
322E
330
134F
100
AcDbEntity
  8
0
100
AcDbLine
 10
994.1427781597299
 20
692.6489723434886
 30
0.0
 11
994.1427781597294
 21
688.870959914143
 31
0.0
  0
LINE
  5
322F
330
134F
100
AcDbEntity
  8
0
100
AcDbLine
 10
994.1427781597294
 20
684.8709599141431
 30
0.0
 11
994.1427781597296
 21
681.1442216887039
 31
0.0
  0
ARC
  5
3230
330
134F
100
AcDbEntity
  8
0
100
AcDbCircle
 10
988.846871098509
 20
686.8709599140832
 30
0.0
 40
0.2000000000000001
100
AcDbArc
 50
179.9999999999935
 51
251.8779760270777
  0
ARC
  5
3231
330
134F
100
AcDbEntity
  8
0
100
AcDbCircle
 10
988.8468710985099
 20
686.8709599140829
 30
0.0
 40
0.2000000000000001
100
AcDbArc
 50
108.1218602484819
 51
179.9999999999609
  0
LINE
  5
3232
330
134F
100
AcDbEntity
  8
0
100
AcDbLine
 10
994.142778159729
 20
697.2944811088832
 30
0.0
 11
994.142778159729
 21
695.7916010284184
 31
0.0
  0
LINE
  5
3233
330
134F
100
AcDbEntity
  8
0
100
AcDbLine
 10
994.142778159729
 20
697.2944811088832
 30
0.0
 11
994.5594817389521
 21
697.2944811088832
 31
0.0
  0
LINE
  5
3234
330
134F
100
AcDbEntity
  8
0
100
AcDbLine
 10
994.1427781597296
 20
675.6433259296443
 30
0.0
 11
997.482977765024
 21
675.6433259296441
 31
0.0
  0
LINE
  5
3235
330
134F
100
AcDbEntity
  8
0
100
AcDbLine
 10
994.1427781597296
 20
675.6433259296443
 30
0.0
 11
994.1427781597296
 21
677.1442216887042
 31
0.0
  0
LINE
  5
3236
330
134F
100
AcDbEntity
  8
0
100
AcDbLine
 10
988.8468710985105
 20
695.7916010284184
 30
0.0
 11
994.1427781597299
 21
695.7916010284184
 31
0.0
  0
LINE
  5
3237
330
134F
100
AcDbEntity
  8
0
100
AcDbLine
 10
988.7492815246938
 20
695.4170264739084
 30
0.0
 11
994.1427781597299
 21
692.6489723434886
 31
0.0
  0
ARC
  5
3238
330
134F
100
AcDbEntity
  8
0
100
AcDbCircle
 10
988.8468710985099
 20
695.5916010284186
 30
0.0
 40
0.2000000000000001
100
AcDbArc
 50
90.0
 51
179.9999999999935
  0
ARC
  5
3239
330
134F
100
AcDbEntity
  8
0
100
AcDbCircle
 10
988.8468710985099
 20
695.5916010284186
 30
0.0
 40
0.2000000000000001
100
AcDbArc
 50
179.9999999999935
 51
240.7942100214174
  0
LINE
  5
323A
330
134F
100
AcDbEntity
  8
0
100
AcDbLine
 10
988.7846632864253
 20
679.3343011144522
 30
0.0
 11
994.1427781597296
 21
681.1442216887039
 31
0.0
  0
LINE
  5
323B
330
134F
100
AcDbEntity
  8
0
100
AcDbLine
 10
988.7846627432665
 20
678.9541424405972
 30
0.0
 11
994.1427781597296
 21
677.1442216887042
 31
0.0
  0
ARC
  5
323C
330
134F
100
AcDbEntity
  8
0
100
AcDbCircle
 10
988.846871098509
 20
679.1442216886442
 30
0.0
 40
0.2000000000000001
100
AcDbArc
 50
179.9999999999935
 51
251.8779760270777
  0
ARC
  5
323D
330
134F
100
AcDbEntity
  8
0
100
AcDbCircle
 10
988.8468710985099
 20
679.1442216886439
 30
0.0
 40
0.2000000000000001
100
AcDbArc
 50
108.1218602484819
 51
179.9999999999609
  0
ARC
  5
323E
330
134F
100
AcDbEntity
  8
0
100
AcDbCircle
 10
997.9691420503021
 20
693.1442216887039
 30
0.0
 40
0.5
100
AcDbArc
 50
270.0
 51
91.94639487076157
  0
ARC
  5
323F
330
134F
100
AcDbEntity
  8
0
100
AcDbCircle
 10
996.4581090745788
 20
683.1442216887041
 30
0.0
 40
0.5
100
AcDbArc
 50
286.7928090998517
 51
102.813135578478
  0
ARC
  5
3240
330
134F
100
AcDbEntity
  8
0
100
AcDbCircle
 10
997.3283541063903
 20
681.1442216887039
 30
0.0
 40
0.5
100
AcDbArc
 50
302.7709093670193
 51
120.2370762293931
  0
ARC
  5
3241
330
134F
100
AcDbEntity
  8
0
100
AcDbCircle
 10
997.9691420503016
 20
679.1442216887039
 30
0.0
 40
0.5
100
AcDbArc
 50
270.0
 51
91.94639487076157
  0
ARC
  5
3242
330
134F
100
AcDbEntity
  8
0
100
AcDbCircle
 10
997.9557222123537
 20
677.1442216887039
 30
0.0
 40
0.5
100
AcDbArc
 50
267.2581821575604
 51
88.46201515741554
  0
ARC
  5
3243
330
134F
100
AcDbEntity
  8
0
100
AcDbCircle
 10
996.2209296054995
 20
685.1442216887042
 30
0.0
 40
0.5
100
AcDbArc
 50
270.7130743200825
 51
86.73340079865564
  0
ARC
  5
3244
330
134F
100
AcDbEntity
  8
0
100
AcDbCircle
 10
996.55091486187
 20
687.1442216887041
 30
0.0
 40
0.5
100
AcDbArc
 50
254.5286513683449
 51
70.54897784692603
  0
ARC
  5
3245
330
134F
100
AcDbEntity
  8
0
100
AcDbCircle
 10
997.5392103160334
 20
689.1442216887039
 30
0.0
 40
0.5
100
AcDbArc
 50
237.0476127452293
 51
62.95045955315419
  0
ARC
  5
3246
330
134F
100
AcDbEntity
  8
0
100
AcDbCircle
 10
997.9691420503019
 20
691.1442216887039
 30
0.0
 40
0.5
100
AcDbArc
 50
270.0
 51
90.0
  0
ARC
  5
3247
330
134F
100
AcDbEntity
  8
0
100
AcDbCircle
 10
997.3069908466303
 20
695.144221688704
 30
0.0
 40
0.5
100
AcDbArc
 50
305.1022083851502
 51
135.3472405847262
  0
LINE
  5
3248
330
134F
100
AcDbEntity
  8
AM_7
  6
AM_ISO08W050x2
100
AcDbLine
 10
988.846871098509
 20
679.1442216886442
 30
0.0
 11
988.622137097932
 21
679.1442216886442
 31
0.0
1001
GENIUS_GENOREF_13
1005
329A
  0
LINE
  5
3249
330
134F
100
AcDbEntity
  8
AM_7
  6
AM_ISO08W050x2
100
AcDbLine
 10
988.846871098509
 20
679.1442216886442
 30
0.0
 11
988.846871098509
 21
679.3689556892213
 31
0.0
1001
GENIUS_GENOREF_13
1005
329A
  0
LINE
  5
324A
330
134F
100
AcDbEntity
  8
AM_7
  6
AM_ISO08W050x2
100
AcDbLine
 10
988.846871098509
 20
679.1442216886442
 30
0.0
 11
989.0716050990864
 21
679.1442216886442
 31
0.0
1001
GENIUS_GENOREF_13
1005
329A
  0
LINE
  5
324B
330
134F
100
AcDbEntity
  8
AM_7
  6
AM_ISO08W050x2
100
AcDbLine
 10
988.846871098509
 20
679.1442216886442
 30
0.0
 11
988.846871098509
 21
678.9194876880669
 31
0.0
1001
GENIUS_GENOREF_13
1005
329A
  0
LINE
  5
324C
330
134F
100
AcDbEntity
  8
AM_7
  6
AM_ISO08W050x2
100
AcDbLine
 10
988.8468710985099
 20
686.8709599140829
 30
0.0
 11
988.6221370979329
 21
686.8709599140829
 31
0.0
1001
GENIUS_GENOREF_13
1005
3299
  0
LINE
  5
324D
330
134F
100
AcDbEntity
  8
AM_7
  6
AM_ISO08W050x2
100
AcDbLine
 10
988.8468710985099
 20
686.8709599140829
 30
0.0
 11
988.8468710985099
 21
687.0956939146601
 31
0.0
1001
GENIUS_GENOREF_13
1005
3299
  0
LINE
  5
324E
330
134F
100
AcDbEntity
  8
AM_7
  6
AM_ISO08W050x2
100
AcDbLine
 10
988.8468710985099
 20
686.8709599140829
 30
0.0
 11
989.0716050990873
 21
686.8709599140829
 31
0.0
1001
GENIUS_GENOREF_13
1005
3299
  0
LINE
  5
324F
330
134F
100
AcDbEntity
  8
AM_7
  6
AM_ISO08W050x2
100
AcDbLine
 10
988.8468710985099
 20
686.8709599140829
 30
0.0
 11
988.8468710985099
 21
686.6462259135057
 31
0.0
1001
GENIUS_GENOREF_13
1005
3299
  0
LINE
  5
3250
330
134F
100
AcDbEntity
  8
AM_7
  6
AM_ISO08W050x2
100
AcDbLine
 10
988.8468710985099
 20
695.5916010284186
 30
0.0
 11
988.6221370979326
 21
695.5916010284186
 31
0.0
1001
GENIUS_GENOREF_13
1005
3298
  0
LINE
  5
3251
330
134F
100
AcDbEntity
  8
AM_7
  6
AM_ISO08W050x2
100
AcDbLine
 10
988.8468710985099
 20
695.5916010284186
 30
0.0
 11
988.8468710985099
 21
695.8163350289957
 31
0.0
1001
GENIUS_GENOREF_13
1005
3298
  0
LINE
  5
3252
330
134F
100
AcDbEntity
  8
AM_7
  6
AM_ISO08W050x2
100
AcDbLine
 10
988.8468710985099
 20
695.5916010284186
 30
0.0
 11
989.0716050990869
 21
695.5916010284186
 31
0.0
1001
GENIUS_GENOREF_13
1005
3298
  0
LINE
  5
3253
330
134F
100
AcDbEntity
  8
AM_7
  6
AM_ISO08W050x2
100
AcDbLine
 10
988.8468710985099
 20
695.5916010284186
 30
0.0
 11
988.8468710985099
 21
695.3668670278414
 31
0.0
1001
GENIUS_GENOREF_13
1005
3298
  0
DIMENSION
  5
328A
102
{ACAD_XDICTIONARY
360
328B
102
}
102
{ACAD_REACTORS
330
328C
102
}
330
134F
100
AcDbEntity
  8
AM_5
100
AcDbDimension
280
     0
  2
*D12
 10
1134.136164833353
 20
733.6657792128494
 30
0.0
 11
1134.136164833353
 21
769.1845980290777
 31
0.0
 70
   160
  1
Sperrwasser <>mm
 71
     5
 42
69.99299999999994
 73
     0
 74
     0
 75
     0
  3
AM_DIN$0
100
AcDbAlignedDimension
 13
1059.028314647035
 23
803.6587792128493
 33
0.0
 14
1095.221828723448
 24
733.6657792128494
 34
0.0
 50
90.0
100
AcDbRotatedDimension
1001
ACAD
1000
DSTYLE
1002
{
1070
   147
1040
2.0
1070
   140
1040
6.0
1070
    90
1070
     1
1070
   271
1070
     0
1002
}
1001
ACAD_DSTYLE_DIMINSPECT
1070
   396
1000
100%
1070
   395
1000

1070
   394
1070
    33
1070
   393
1070
     0
  0
DIMENSION
  5
328F
102
{ACAD_XDICTIONARY
360
3290
102
}
102
{ACAD_REACTORS
330
3291
102
}
330
134F
100
AcDbEntity
  8
AM_5
100
AcDbDimension
280
     0
  2
*D13
 10
945.4037438624583
 20
827.4643984128562
 30
0.0
 11
940.403743862458
 21
750.0681388128535
 31
0.0
 70
    32
 71
     5
 42
154.7925192000053
 73
     0
 74
     0
 75
     0
  3
AM_DIN$0
100
AcDbAlignedDimension
 13
994.6775221204276
 23
672.6718792128508
 33
0.0
 14
1027.94284572043
 24
827.4643984128562
 34
0.0
 50
90.0
100
AcDbRotatedDimension
1001
ACAD_DSTYLE_DIMINSPECT
1070
   396
1000
100%
1070
   395
1000

1070
   394
1070
    33
1070
   393
1070
     0
1001
ACAD
1000
DSTYLE
1002
{
1070
    90
1070
     1
1070
   140
1040
6.0
1070
   147
1040
2.0
1070
   271
1070
     0
1002
}
  0
DIMENSION
  5
3295
330
134F
100
AcDbEntity
  8
AM_5
100
AcDbDimension
280
     0
  2
*D11
 10
1104.671272120427
 20
853.6549802128496
 30
0.0
 11
1042.177522120427
 21
858.6555707640306
 31
0.0
 70
    32
  1
%%c<>
 71
     5
 42
124.9875
 73
     0
 74
     0
 75
     0
  3
AM_DIN$0
100
AcDbAlignedDimension
 13
979.6837721204274
 23
805.1436307128541
 33
0.0
 14
1104.671272120427
 24
803.6587792128493
 34
0.0
100
AcDbRotatedDimension
1001
ACAD
1000
DSTYLE
1002
{
1070
    90
1070
     1
1070
   140
1040
6.0
1070
   147
1040
2.0
1070
   271
1070
     0
1002
}
1001
ACAD_DSTYLE_DIMINSPECT
1070
   396
1000
100%
1070
   395
1000

1070
   394
1070
    33
1070
   393
1070
     0
  0
POINT
  5
3298
330
134F
100
AcDbEntity
  8
0
 60
     1
100
AcDbPoint
 10
-32.65821474259849
 20
-3.466679854830715
 30
0.0
 50
179.9999999999981
1001
GENIUS_GENOLIS_13
1002
{
1000
ENT
1005
3253
1005
3252
1005
3251
1005
3250
1002
}
1001
GENIUS_GENOENT_13
1002
{
1000
MYREF
1005
3298
1002
}
1002
{
1000
GRP
1005
0
1002
}
1001
GENIUS_GENOBJ-N-CRS_13
1002
{
1000
OWNER
1000
GEN
1002
}
1001
GENIUS_GENODEF_13
1002
{
1000
HIER
1070
    10
1002
}
1002
{
1000
MANEDIT
1070
     0
1002
}
1002
{
1000
NOSEL
1070
     0
1002
}
1002
{
1000
BEHIND
1070
     0
1002
}
1002
{
1000
OTHER
1070
     0
1002
}
1002
{
1000
REACTOR
1002
}
  0
POINT
  5
3299
330
134F
100
AcDbEntity
  8
0
 60
     1
100
AcDbPoint
 10
-32.65821474259826
 20
-12.18732096916636
 30
0.0
 50
179.9999999999981
1001
GENIUS_GENOLIS_13
1002
{
1000
ENT
1005
324F
1005
324E
1005
324D
1005
324C
1002
}
1001
GENIUS_GENOENT_13
1002
{
1000
MYREF
1005
3299
1002
}
1002
{
1000
GRP
1005
0
1002
}
1001
GENIUS_GENOBJ-N-CRS_13
1002
{
1000
OWNER
1000
GEN
1002
}
1001
GENIUS_GENODEF_13
1002
{
1000
HIER
1070
    10
1002
}
1002
{
1000
MANEDIT
1070
     0
1002
}
1002
{
1000
NOSEL
1070
     0
1002
}
1002
{
1000
BEHIND
1070
     0
1002
}
1002
{
1000
OTHER
1070
     0
1002
}
1002
{
1000
REACTOR
1002
}
  0
POINT
  5
329A
330
134F
100
AcDbEntity
  8
0
 60
     1
100
AcDbPoint
 10
-32.65821474259917
 20
-19.91405919460516
 30
0.0
 50
179.9999999999981
1001
GENIUS_GENOLIS_13
1002
{
1000
ENT
1005
324B
1005
324A
1005
3249
1005
3248
1002
}
1001
GENIUS_GENOENT_13
1002
{
1000
MYREF
1005
329A
1002
}
1002
{
1000
GRP
1005
0
1002
}
1001
GENIUS_GENOBJ-N-CRS_13
1002
{
1000
OWNER
1000
GEN
1002
}
1001
GENIUS_GENODEF_13
1002
{
1000
HIER
1070
    10
1002
}
1002
{
1000
MANEDIT
1070
     0
1002
}
1002
{
1000
NOSEL
1070
     0
1002
}
1002
{
1000
BEHIND
1070
     0
1002
}
1002
{
1000
OTHER
1070
     0
1002
}
1002
{
1000
REACTOR
1002
}
  0
POINT
  5
329B
330
134F
100
AcDbEntity
  8
0
 60
     1
100
AcDbPoint
 10
-65.34768479175238
 20
-3.466679854830147
 30
0.0
1001
GENIUS_GENOLIS_13
1002
{
1000
ENT
1005
321D
1005
321C
1005
321B
1005
321A
1002
}
1001
GENIUS_GENOENT_13
1002
{
1000
MYREF
1005
329B
1002
}
1002
{
1000
GRP
1005
0
1002
}
1001
GENIUS_GENOBJ-N-CRS_13
1002
{
1000
OWNER
1000
GEN
1002
}
1001
GENIUS_GENODEF_13
1002
{
1000
HIER
1070
    10
1002
}
1002
{
1000
MANEDIT
1070
     0
1002
}
1002
{
1000
NOSEL
1070
     0
1002
}
1002
{
1000
BEHIND
1070
     0
1002
}
1002
{
1000
OTHER
1070
     0
1002
}
1002
{
1000
REACTOR
1002
}
  0
POINT
  5
329C
330
134F
100
AcDbEntity
  8
0
 60
     1
100
AcDbPoint
 10
-65.34768479175284
 20
-12.1873209691658
 30
0.0
1001
GENIUS_GENOLIS_13
1002
{
1000
ENT
1005
3219
1005
3218
1005
3217
1005
3216
1002
}
1001
GENIUS_GENOENT_13
1002
{
1000
MYREF
1005
329C
1002
}
1002
{
1000
GRP
1005
0
1002
}
1001
GENIUS_GENOBJ-N-CRS_13
1002
{
1000
OWNER
1000
GEN
1002
}
1001
GENIUS_GENODEF_13
1002
{
1000
HIER
1070
    10
1002
}
1002
{
1000
MANEDIT
1070
     0
1002
}
1002
{
1000
NOSEL
1070
     0
1002
}
1002
{
1000
BEHIND
1070
     0
1002
}
1002
{
1000
OTHER
1070
     0
1002
}
1002
{
1000
REACTOR
1002
}
  0
POINT
  5
329D
330
134F
100
AcDbEntity
  8
0
 60
     1
100
AcDbPoint
 10
-65.34768479175216
 20
-19.91405919460459
 30
0.0
1001
GENIUS_GENOLIS_13
1002
{
1000
ENT
1005
3215
1005
3214
1005
3213
1005
3212
1002
}
1001
GENIUS_GENOENT_13
1002
{
1000
MYREF
1005
329D
1002
}
1002
{
1000
GRP
1005
0
1002
}
1001
GENIUS_GENOBJ-N-CRS_13
1002
{
1000
OWNER
1000
GEN
1002
}
1001
GENIUS_GENODEF_13
1002
{
1000
HIER
1070
    10
1002
}
1002
{
1000
MANEDIT
1070
     0
1002
}
1002
{
1000
NOSEL
1070
     0
1002
}
1002
{
1000
BEHIND
1070
     0
1002
}
1002
{
1000
OTHER
1070
     0
1002
}
1002
{
1000
REACTOR
1002
}
  0
ENDSEC
  0
SECTION
  2
OBJECTS
  0
DICTIONARY
  5
1343
330
0
100
AcDbDictionary
281
     1
  3
ACAD_COLOR
350
13A1
  3
ACAD_GROUP
350
1344
  3
ACAD_IMAGE_DICT
350
22A3
  3
ACAD_IMAGE_VARS
350
22A6
  3
ACAD_LAYOUT
350
13C9
  3
ACAD_MATERIAL
350
1377
  3
ACAD_MLEADERSTYLE
350
13C6
  3
ACAD_MLINESTYLE
350
1352
  3
ACAD_PLOTSETTINGS
350
13CA
  3
ACAD_PLOTSTYLENAME
350
1375
  3
ACAD_SCALELIST
350
13A4
  3
ACAD_TABLESTYLE
350
13A2
  3
ACAD_VISUALSTYLE
350
1390
  3
ACDB_RECOMPOSE_DATA
350
3367
  3
AcDbVariableDictionary
350
1492
  3
AcmDictionary
350
142C
  3
AEC_PROPERTY_SET_DEFS
350
1734
  3
AMG
350
13D1
  3
AMGSNAPSETTINGS
350
146B
  3
ASE_INDEX_DICTIONARY
350
1799
  0
DICTIONARY
  5
16F0
330
1339
100
AcDbDictionary
280
     1
281
     1
  3
ACAD_LAYERSTATES
360
16F1
  0
DICTIONARY
  5
1472
330
1345
100
AcDbDictionary
280
     1
281
     1
  3
ADSK_XREC_LAYER_RECONCILED
360
1473
  0
DICTIONARY
  5
1474
330
135B
100
AcDbDictionary
280
     1
281
     1
  3
ADSK_XREC_LAYER_RECONCILED
360
1475
  0
DICTIONARY
  5
1476
330
135C
100
AcDbDictionary
280
     1
281
     1
  3
ADSK_XREC_LAYER_RECONCILED
360
1477
  0
DICTIONARY
  5
1478
330
135D
100
AcDbDictionary
280
     1
281
     1
  3
ADSK_XREC_LAYER_RECONCILED
360
1479
  0
DICTIONARY
  5
147A
330
135E
100
AcDbDictionary
280
     1
281
     1
  3
ADSK_XREC_LAYER_RECONCILED
360
147B
  0
DICTIONARY
  5
147C
330
135F
100
AcDbDictionary
280
     1
281
     1
  3
ADSK_XREC_LAYER_RECONCILED
360
147D
  0
DICTIONARY
  5
147E
330
1360
100
AcDbDictionary
280
     1
281
     1
  3
ADSK_XREC_LAYER_RECONCILED
360
147F
  0
DICTIONARY
  5
1480
330
1361
100
AcDbDictionary
280
     1
281
     1
  3
ADSK_XREC_LAYER_RECONCILED
360
1481
  0
DICTIONARY
  5
1482
330
1362
100
AcDbDictionary
280
     1
281
     1
  3
ADSK_XREC_LAYER_RECONCILED
360
1483
  0
DICTIONARY
  5
1484
330
1363
100
AcDbDictionary
280
     1
281
     1
  3
ADSK_XREC_LAYER_RECONCILED
360
1485
  0
DICTIONARY
  5
1486
330
1364
100
AcDbDictionary
280
     1
281
     1
  3
ADSK_XREC_LAYER_RECONCILED
360
1487
  0
DICTIONARY
  5
1488
330
1365
100
AcDbDictionary
280
     1
281
     1
  3
ADSK_XREC_LAYER_RECONCILED
360
1489
  0
DICTIONARY
  5
148A
330
1366
100
AcDbDictionary
280
     1
281
     1
  3
ADSK_XREC_LAYER_RECONCILED
360
148B
  0
DICTIONARY
  5
148C
330
1367
100
AcDbDictionary
280
     1
281
     1
  3
ADSK_XREC_LAYER_RECONCILED
360
148D
  0
DICTIONARY
  5
16C9
330
16C8
100
AcDbDictionary
280
     1
281
     1
  0
DICTIONARY
  5
16CC
330
16CB
100
AcDbDictionary
280
     1
281
     1
  0
DICTIONARY
  5
16CE
330
16CD
100
AcDbDictionary
280
     1
281
     1
  0
DICTIONARY
  5
16D0
330
16CF
100
AcDbDictionary
280
     1
281
     1
  0
DICTIONARY
  5
16D2
330
16D1
100
AcDbDictionary
280
     1
281
     1
  0
DICTIONARY
  5
16D5
330
16D4
100
AcDbDictionary
280
     1
281
     1
  0
DICTIONARY
  5
17FA
330
17F9
100
AcDbDictionary
280
     1
281
     1
  0
DICTIONARY
  5
17FC
330
17FB
100
AcDbDictionary
280
     1
281
     1
  0
DICTIONARY
  5
17FE
330
17FD
100
AcDbDictionary
280
     1
281
     1
  0
DICTIONARY
  5
1C15
330
1C14
100
AcDbDictionary
280
     1
281
     1
  0
DICTIONARY
  5
1C17
330
1C16
100
AcDbDictionary
280
     1
281
     1
  0
DICTIONARY
  5
1C19
330
1C18
100
AcDbDictionary
280
     1
281
     1
  0
DICTIONARY
  5
224C
330
224B
100
AcDbDictionary
280
     1
281
     1
  0
DICTIONARY
  5
224E
330
224D
100
AcDbDictionary
280
     1
281
     1
  0
DICTIONARY
  5
2250
330
224F
100
AcDbDictionary
280
     1
281
     1
  0
DICTIONARY
  5
2589
330
134F
100
AcDbDictionary
280
     1
281
     1
  3
ACAD_SORTENTS
360
258A
  0
DICTIONARY
  5
164E
330
164D
100
AcDbDictionary
280
     1
281
     1
  0
DICTIONARY
  5
21C0
330
21BF
100
AcDbDictionary
280
     1
281
     1
  0
IMAGEDEF_REACTOR
  5
2248
330
2247
100
AcDbRasterImageDefReactor
 90
        2
330
2247
  0
DICTIONARY
  5
328B
330
328A
100
AcDbDictionary
280
     1
281
     1
  3
ACAD_DIMASSOC
360
328C
  0
DICTIONARY
  5
3290
330
328F
100
AcDbDictionary
280
     1
281
     1
  3
ACAD_DIMASSOC
360
3291
  0
DICTIONARY
  5
13A1
102
{ACAD_REACTORS
330
1343
102
}
330
1343
100
AcDbDictionary
281
     1
  0
DICTIONARY
  5
1344
102
{ACAD_REACTORS
330
1343
102
}
330
1343
100
AcDbDictionary
281
     1
  0
DICTIONARY
  5
22A3
102
{ACAD_REACTORS
330
1343
102
}
330
1343
100
AcDbDictionary
281
     1
  3
ACO-Logo
350
22A4
  0
RASTERVARIABLES
  5
22A6
102
{ACAD_REACTORS
330
1343
102
}
330
1343
100
AcDbRasterVariables
 90
        0
 70
     1
 71
     1
 72
     0
  0
DICTIONARY
  5
13C9
102
{ACAD_REACTORS
330
1343
102
}
330
1343
100
AcDbDictionary
281
     1
  3
Layout1
350
13CC
  3
Model
350
13CB
  0
DICTIONARY
  5
1377
102
{ACAD_REACTORS
330
1343
102
}
330
1343
100
AcDbDictionary
281
     1
  3
ByBlock
350
1380
  3
ByLayer
350
1378
  3
Global
350
1388
  0
DICTIONARY
  5
13C6
102
{ACAD_REACTORS
330
1343
102
}
330
1343
100
AcDbDictionary
281
     1
  3
Standard
350
13C7
  0
DICTIONARY
  5
1352
102
{ACAD_REACTORS
330
1343
102
}
330
1343
100
AcDbDictionary
281
     1
  3
STANDARD
350
1353
  0
DICTIONARY
  5
13CA
102
{ACAD_REACTORS
330
1343
102
}
330
1343
100
AcDbDictionary
281
     1
  0
ACDBDICTIONARYWDFLT
  5
1375
102
{ACAD_REACTORS
330
1343
102
}
330
1343
100
AcDbDictionary
281
     1
  3
Normal
350
1376
100
AcDbDictionaryWithDefault
340
1376
  0
DICTIONARY
  5
13A4
102
{ACAD_REACTORS
330
1343
102
}
330
1343
100
AcDbDictionary
281
     1
  3
A0
350
13A5
  3
A1
350
13A6
  3
A2
350
13A7
  3
A3
350
13A8
  3
A4
350
13A9
  3
A5
350
13AA
  3
A6
350
13AB
  3
A7
350
13AC
  3
A8
350
13AD
  3
A9
350
13AE
  3
B0
350
13AF
  3
B1
350
13B0
  3
B2
350
13B1
  3
B3
350
13B2
  3
B4
350
13B3
  3
B5
350
13B4
  3
B6
350
13B5
  3
B7
350
13B6
  3
B8
350
13B7
  3
B9
350
13B8
  3
C0
350
13B9
  3
C1
350
13BA
  3
C2
350
13BB
  3
C3
350
13BC
  3
C4
350
13BD
  3
C5
350
13BE
  3
C6
350
13BF
  3
C7
350
13C0
  3
C8
350
13C1
  3
C9
350
13C2
  3
D0
350
13C3
  3
D1
350
13C4
  3
D2
350
13C5
  0
DICTIONARY
  5
13A2
102
{ACAD_REACTORS
330
1343
102
}
330
1343
100
AcDbDictionary
281
     1
  3
Standard
350
13A3
  0
DICTIONARY
  5
1390
102
{ACAD_REACTORS
330
1343
102
}
330
1343
100
AcDbDictionary
281
     1
  3
2dWireframe
350
1396
  3
3D Hidden
350
1398
  3
3dWireframe
350
1397
  3
Basic
350
1395
  3
Brighten
350
139C
  3
ColorChange
350
13A0
  3
Conceptual
350
1399
  3
Dim
350
139B
  3
EdgeColorOff
350
333B
  3
Facepattern
350
139F
  3
Flat
350
1391
  3
FlatWithEdges
350
1392
  3
Gouraud
350
1393
  3
GouraudWithEdges
350
1394
  3
JitterOff
350
3339
  3
Linepattern
350
139E
  3
OverhangOff
350
333A
  3
Realistic
350
139A
  3
Thicken
350
139D
  0
XRECORD
  5
3367
102
{ACAD_REACTORS
330
1343
102
}
330
1343
100
AcDbXrecord
280
     1
 90
        1
330
13A3
  0
DICTIONARY
  5
1492
102
{ACAD_REACTORS
330
1343
102
}
330
1343
100
AcDbDictionary
281
     1
  3
CANNOSCALE
350
1496
  3
CMLEADERSTYLE
350
1494
  3
CTABLESTYLE
350
1493
  3
LAYEREVAL
350
1498
  3
LAYERNOTIFY
350
1499
  3
LIGHTINGUNITS
350
1497
  3
MSLTSCALE
350
1495
  0
DICTIONARY
  5
142C
102
{ACAD_REACTORS
330
1343
102
}
330
1343
100
AcDbDictionary
281
     1
  3
AcmStdDictionary
350
1437
  0
DICTIONARY
  5
1734
102
{ACAD_REACTORS
330
1343
102
}
330
1343
100
AcDbDictionary
281
     1
  0
DICTIONARY
  5
13D1
102
{ACAD_REACTORS
330
1343
102
}
330
1343
100
AcDbDictionary
281
     1
  0
DICTIONARY
  5
146B
102
{ACAD_REACTORS
330
1343
102
}
330
1343
100
AcDbDictionary
281
     1
  0
DICTIONARY
  5
1799
102
{ACAD_REACTORS
330
1343
102
}
330
1343
100
AcDbDictionary
281
     1
  3
ASEBlockHierarchyIndexRecord
350
179B
1001
DCO15
1040
1746438729.294
  0
DICTIONARY
  5
16F1
102
{ACAD_REACTORS
330
16F0
102
}
330
16F0
100
AcDbDictionary
281
     1
  0
XRECORD
  5
1473
102
{ACAD_REACTORS
330
1472
102
}
330
1472
100
AcDbXrecord
280
     1
290
     1
  0
XRECORD
  5
1475
102
{ACAD_REACTORS
330
1474
102
}
330
1474
100
AcDbXrecord
280
     1
290
     1
  0
XRECORD
  5
1477
102
{ACAD_REACTORS
330
1476
102
}
330
1476
100
AcDbXrecord
280
     1
290
     1
  0
XRECORD
  5
1479
102
{ACAD_REACTORS
330
1478
102
}
330
1478
100
AcDbXrecord
280
     1
290
     1
  0
XRECORD
  5
147B
102
{ACAD_REACTORS
330
147A
102
}
330
147A
100
AcDbXrecord
280
     1
290
     1
  0
XRECORD
  5
147D
102
{ACAD_REACTORS
330
147C
102
}
330
147C
100
AcDbXrecord
280
     1
290
     1
  0
XRECORD
  5
147F
102
{ACAD_REACTORS
330
147E
102
}
330
147E
100
AcDbXrecord
280
     1
290
     1
  0
XRECORD
  5
1481
102
{ACAD_REACTORS
330
1480
102
}
330
1480
100
AcDbXrecord
280
     1
290
     1
  0
XRECORD
  5
1483
102
{ACAD_REACTORS
330
1482
102
}
330
1482
100
AcDbXrecord
280
     1
290
     1
  0
XRECORD
  5
1485
102
{ACAD_REACTORS
330
1484
102
}
330
1484
100
AcDbXrecord
280
     1
290
     1
  0
XRECORD
  5
1487
102
{ACAD_REACTORS
330
1486
102
}
330
1486
100
AcDbXrecord
280
     1
290
     1
  0
XRECORD
  5
1489
102
{ACAD_REACTORS
330
1488
102
}
330
1488
100
AcDbXrecord
280
     1
290
     1
  0
XRECORD
  5
148B
102
{ACAD_REACTORS
330
148A
102
}
330
148A
100
AcDbXrecord
280
     1
290
     1
  0
XRECORD
  5
148D
102
{ACAD_REACTORS
330
148C
102
}
330
148C
100
AcDbXrecord
280
     1
290
     1
  0
SORTENTSTABLE
  5
258A
102
{ACAD_REACTORS
330
2589
102
}
330
2589
100
AcDbSortentsTable
330
134F
331
107A
  5
109D
331
130C
  5
1310
331
1185
  5
12AA
331
1060
  5
107A
331
1310
  5
1772
331
109E
  5
1125
331
1126
  5
1185
  0
DIMASSOC
  5
328C
102
{ACAD_REACTORS
330
328B
102
}
330
328B
100
AcDbDimAssoc
330
328A
 90
        3
 70
     0
 71
     0
  1
AcDbOsnapPointRef
 72
    10
331
317B
 73
     0
 91
        0
 40
0.7021865739327255
 10
0.0
 20
0.0
 30
0.0
 75
     0
  1
AcDbOsnapPointRef
 72
    10
331
317C
 73
     0
 91
        0
 40
0.252010358288612
 10
0.0
 20
0.0
 30
0.0
 75
     0
  0
DIMASSOC
  5
3291
102
{ACAD_REACTORS
330
3290
102
}
330
3290
100
AcDbDimAssoc
330
328F
 90
        1
 70
     0
 71
     0
  1
AcDbOsnapPointRef
 72
    13
331
321E
 73
     0
 91
        0
 40
0.0
 10
0.0
 20
0.0
 30
2.000000000000000E+50
 75
     0
  0
IMAGEDEF
  5
22A4
102
{ACAD_REACTORS
330
22A3
330
2248
102
}
330
22A3
100
AcDbRasterImageDef
 90
        0
  1
L:\calink52\templates\ACO-Logo.jpg
 10
75.0
 20
57.0
 11
0.3527777777777778
 21
0.3527777777777778
280
     1
281
     5
  0
LAYOUT
  5
13CC
102
{ACAD_REACTORS
330
13C9
102
}
330
13C9
100
AcDbPlotSettings
  1

  2
\\RD-SR-311.aco.local\ST-PR-002
  4

  6

 40
0.0
 41
0.0
 42
0.0
 43
0.0
 44
0.0
 45
0.0
 46
0.0
 47
0.0
 48
0.0
 49
0.0
140
0.0
141
0.0
142
1.0
143
1.0
 70
   688
 72
     0
 73
     0
 74
     5
  7
monochrome.ctb
 75
    16
147
1.0
 76
     0
 77
     2
 78
   300
148
0.0
149
0.0
100
AcDbLayout
  1
Layout1
 70
     1
 71
     1
 10
0.0
 20
0.0
 11
210.001
 21
297.001
 12
0.0
 22
0.0
 32
0.0
 14
0.0
 24
0.0
 34
0.0
 15
210.001
 25
297.001
 35
0.0
146
0.0
 13
0.0
 23
0.0
 33
0.0
 16
1.0
 26
0.0
 36
0.0
 17
0.0
 27
1.0
 37
0.0
 76
     0
330
134C
  0
LAYOUT
  5
13CB
102
{ACAD_REACTORS
330
13C9
102
}
330
13C9
100
AcDbPlotSettings
  1

  2
\\RD-SR-311.aco.local\ST-PR-002
  4
A4
  6

 40
6.805083274841308
 41
7.14373779296875
 42
6.805068969726562
 43
7.14373779296875
 44
209.9733276367187
 45
296.9683227539062
 46
0.0
 47
0.0
 48
0.0
 49
0.0
140
0.0
141
0.0
142
1.0
143
54.8643315006531
 70
 11952
 72
     0
 73
     1
 74
     0
  7
monochrome.ctb
 75
     0
147
0.0182267781753268
 76
     0
 77
     2
 78
   300
148
3830.094565109027
149
419.8283166422457
100
AcDbLayout
  1
Model
 70
     1
 71
     0
 10
0.0
 20
0.0
 11
12.0
 21
9.0
 12
0.0
 22
0.0
 32
0.0
 14
0.0
 24
0.0
 34
0.0
 15
0.0
 25
0.0
 35
0.0
146
0.0
 13
0.0
 23
0.0
 33
0.0
 16
1.0
 26
0.0
 36
0.0
 17
0.0
 27
1.0
 37
0.0
 76
     0
330
134F
331
1373
1001
ACAD_PSEXT
1000
\\RD-SR-311.aco.local\ST-PR-002
1000
Xerox WorkCentre 5230
1000
ST - Konstruktion
1000
Xereox WorkCentre 5230
1070
     0
  0
MATERIAL
  5
1380
102
{ACAD_XDICTIONARY
360
1381
102
}
102
{ACAD_REACTORS
330
1377
102
}
330
1377
100
AcDbMaterial
  1
ByBlock
 72
     0
 43
0.0208333333333333
 43
0.0
 43
0.0
 43
0.0
 43
0.0
 43
0.0208333333333333
 43
0.0
 43
0.0
 43
0.0
 43
0.0
 43
1.0
 43
0.0
 43
0.0
 43
0.0
 43
0.0
 43
1.0
 77
     0
 47
0.0208333333333333
 47
0.0
 47
0.0
 47
0.0
 47
0.0
 47
0.0208333333333333
 47
0.0
 47
0.0
 47
0.0
 47
0.0
 47
1.0
 47
0.0
 47
0.0
 47
0.0
 47
0.0
 47
1.0
171
     0
 49
0.0208333333333333
 49
0.0
 49
0.0
 49
0.0
 49
0.0
 49
0.0208333333333333
 49
0.0
 49
0.0
 49
0.0
 49
0.0
 49
1.0
 49
0.0
 49
0.0
 49
0.0
 49
0.0
 49
1.0
175
     0
142
0.0208333333333333
142
0.0
142
0.0
142
0.0
142
0.0
142
0.0208333333333333
142
0.0
142
0.0
142
0.0
142
0.0
142
1.0
142
0.0
142
0.0
142
0.0
142
0.0
142
1.0
179
     0
144
0.0208333333333333
144
0.0
144
0.0
144
0.0
144
0.0
144
0.0208333333333333
144
0.0
144
0.0
144
0.0
144
0.0
144
1.0
144
0.0
144
0.0
144
0.0
144
0.0
144
1.0
147
0.0208333333333333
147
0.0
147
0.0
147
0.0
147
0.0
147
0.0208333333333333
147
0.0
147
0.0
147
0.0
147
0.0
147
1.0
147
0.0
147
0.0
147
0.0
147
0.0
147
1.0
  0
MATERIAL
  5
1378
102
{ACAD_XDICTIONARY
360
1379
102
}
102
{ACAD_REACTORS
330
1377
102
}
330
1377
100
AcDbMaterial
  1
ByLayer
 72
     0
 43
0.0208333333333333
 43
0.0
 43
0.0
 43
0.0
 43
0.0
 43
0.0208333333333333
 43
0.0
 43
0.0
 43
0.0
 43
0.0
 43
1.0
 43
0.0
 43
0.0
 43
0.0
 43
0.0
 43
1.0
 77
     0
 47
0.0208333333333333
 47
0.0
 47
0.0
 47
0.0
 47
0.0
 47
0.0208333333333333
 47
0.0
 47
0.0
 47
0.0
 47
0.0
 47
1.0
 47
0.0
 47
0.0
 47
0.0
 47
0.0
 47
1.0
171
     0
 49
0.0208333333333333
 49
0.0
 49
0.0
 49
0.0
 49
0.0
 49
0.0208333333333333
 49
0.0
 49
0.0
 49
0.0
 49
0.0
 49
1.0
 49
0.0
 49
0.0
 49
0.0
 49
0.0
 49
1.0
175
     0
142
0.0208333333333333
142
0.0
142
0.0
142
0.0
142
0.0
142
0.0208333333333333
142
0.0
142
0.0
142
0.0
142
0.0
142
1.0
142
0.0
142
0.0
142
0.0
142
0.0
142
1.0
179
     0
144
0.0208333333333333
144
0.0
144
0.0
144
0.0
144
0.0
144
0.0208333333333333
144
0.0
144
0.0
144
0.0
144
0.0
144
1.0
144
0.0
144
0.0
144
0.0
144
0.0
144
1.0
147
0.0208333333333333
147
0.0
147
0.0
147
0.0
147
0.0
147
0.0208333333333333
147
0.0
147
0.0
147
0.0
147
0.0
147
1.0
147
0.0
147
0.0
147
0.0
147
0.0
147
1.0
  0
MATERIAL
  5
1388
102
{ACAD_XDICTIONARY
360
1389
102
}
102
{ACAD_REACTORS
330
1377
102
}
330
1377
100
AcDbMaterial
  1
Global
 72
     0
 43
0.0208333333333333
 43
0.0
 43
0.0
 43
0.0
 43
0.0
 43
0.0208333333333333
 43
0.0
 43
0.0
 43
0.0
 43
0.0
 43
1.0
 43
0.0
 43
0.0
 43
0.0
 43
0.0
 43
1.0
 77
     0
 47
0.0208333333333333
 47
0.0
 47
0.0
 47
0.0
 47
0.0
 47
0.0208333333333333
 47
0.0
 47
0.0
 47
0.0
 47
0.0
 47
1.0
 47
0.0
 47
0.0
 47
0.0
 47
0.0
 47
1.0
171
     0
 49
0.0208333333333333
 49
0.0
 49
0.0
 49
0.0
 49
0.0
 49
0.0208333333333333
 49
0.0
 49
0.0
 49
0.0
 49
0.0
 49
1.0
 49
0.0
 49
0.0
 49
0.0
 49
0.0
 49
1.0
175
     0
142
0.0208333333333333
142
0.0
142
0.0
142
0.0
142
0.0
142
0.0208333333333333
142
0.0
142
0.0
142
0.0
142
0.0
142
1.0
142
0.0
142
0.0
142
0.0
142
0.0
142
1.0
179
     0
144
0.0208333333333333
144
0.0
144
0.0
144
0.0
144
0.0
144
0.0208333333333333
144
0.0
144
0.0
144
0.0
144
0.0
144
1.0
144
0.0
144
0.0
144
0.0
144
0.0
144
1.0
147
0.0208333333333333
147
0.0
147
0.0
147
0.0
147
0.0
147
0.0208333333333333
147
0.0
147
0.0
147
0.0
147
0.0
147
1.0
147
0.0
147
0.0
147
0.0
147
0.0
147
1.0
  0
MLEADERSTYLE
  5
13C7
102
{ACAD_REACTORS
330
13C6
102
}
330
13C6
100
AcDbMLeaderStyle
179
     2
170
     2
171
     1
172
     0
 90
        2
 40
0.0
 41
0.0
173
     1
 91
-1056964608
340
1349
 92
       -2
290
     1
 42
0.09
291
     1
 43
0.36
  3
Standard
 44
0.18
300

342
1346
174
     1
178
     6
175
     1
176
     0
 93
-1056964608
 45
0.18
292
     0
297
     0
 46
0.18
 94
-1056964608
 47
1.0
 49
1.0
140
1.0
293
     1
141
0.0
294
     1
177
     0
142
1.0
295
     0
296
     0
143
0.125
271
     0
272
     9
273
     9
  0
MLINESTYLE
  5
1353
102
{ACAD_REACTORS
330
1352
102
}
330
1352
100
AcDbMlineStyle
  2
STANDARD
 70
     0
  3

 62
   256
 51
90.0
 52
90.0
 71
     2
 49
0.5
 62
   256
  6
BYLAYER
 49
-0.5
 62
   256
  6
BYLAYER
  0
ACDBPLACEHOLDER
  5
1376
102
{ACAD_REACTORS
330
1375
102
}
330
1375
  0
SCALE
  5
13A5
102
{ACAD_REACTORS
330
13A4
102
}
330
13A4
100
AcDbScale
 70
     0
300
1:1
140
1.0
141
1.0
290
     1
  0
SCALE
  5
13A6
102
{ACAD_REACTORS
330
13A4
102
}
330
13A4
100
AcDbScale
 70
     0
300
1:2
140
1.0
141
2.0
290
     0
  0
SCALE
  5
13A7
102
{ACAD_REACTORS
330
13A4
102
}
330
13A4
100
AcDbScale
 70
     0
300
1:4
140
1.0
141
4.0
290
     0
  0
SCALE
  5
13A8
102
{ACAD_REACTORS
330
13A4
102
}
330
13A4
100
AcDbScale
 70
     0
300
1:5
140
1.0
141
5.0
290
     0
  0
SCALE
  5
13A9
102
{ACAD_REACTORS
330
13A4
102
}
330
13A4
100
AcDbScale
 70
     0
300
1:8
140
1.0
141
8.0
290
     0
  0
SCALE
  5
13AA
102
{ACAD_REACTORS
330
13A4
102
}
330
13A4
100
AcDbScale
 70
     0
300
1:10
140
1.0
141
10.0
290
     0
  0
SCALE
  5
13AB
102
{ACAD_REACTORS
330
13A4
102
}
330
13A4
100
AcDbScale
 70
     0
300
1:16
140
1.0
141
16.0
290
     0
  0
SCALE
  5
13AC
102
{ACAD_REACTORS
330
13A4
102
}
330
13A4
100
AcDbScale
 70
     0
300
1:20
140
1.0
141
20.0
290
     0
  0
SCALE
  5
13AD
102
{ACAD_REACTORS
330
13A4
102
}
330
13A4
100
AcDbScale
 70
     0
300
1:30
140
1.0
141
30.0
290
     0
  0
SCALE
  5
13AE
102
{ACAD_REACTORS
330
13A4
102
}
330
13A4
100
AcDbScale
 70
     0
300
1:40
140
1.0
141
40.0
290
     0
  0
SCALE
  5
13AF
102
{ACAD_REACTORS
330
13A4
102
}
330
13A4
100
AcDbScale
 70
     0
300
1:50
140
1.0
141
50.0
290
     0
  0
SCALE
  5
13B0
102
{ACAD_REACTORS
330
13A4
102
}
330
13A4
100
AcDbScale
 70
     0
300
1:100
140
1.0
141
100.0
290
     0
  0
SCALE
  5
13B1
102
{ACAD_REACTORS
330
13A4
102
}
330
13A4
100
AcDbScale
 70
     0
300
2:1
140
2.0
141
1.0
290
     0
  0
SCALE
  5
13B2
102
{ACAD_REACTORS
330
13A4
102
}
330
13A4
100
AcDbScale
 70
     0
300
4:1
140
4.0
141
1.0
290
     0
  0
SCALE
  5
13B3
102
{ACAD_REACTORS
330
13A4
102
}
330
13A4
100
AcDbScale
 70
     0
300
8:1
140
8.0
141
1.0
290
     0
  0
SCALE
  5
13B4
102
{ACAD_REACTORS
330
13A4
102
}
330
13A4
100
AcDbScale
 70
     0
300
10:1
140
10.0
141
1.0
290
     0
  0
SCALE
  5
13B5
102
{ACAD_REACTORS
330
13A4
102
}
330
13A4
100
AcDbScale
 70
     0
300
100:1
140
100.0
141
1.0
290
     0
  0
SCALE
  5
13B6
102
{ACAD_REACTORS
330
13A4
102
}
330
13A4
100
AcDbScale
 70
     0
300
1/128" = 1'-0"
140
0.0078125
141
12.0
290
     0
  0
SCALE
  5
13B7
102
{ACAD_REACTORS
330
13A4
102
}
330
13A4
100
AcDbScale
 70
     0
300
1/64" = 1'-0"
140
0.015625
141
12.0
290
     0
  0
SCALE
  5
13B8
102
{ACAD_REACTORS
330
13A4
102
}
330
13A4
100
AcDbScale
 70
     0
300
1/32" = 1'-0"
140
0.03125
141
12.0
290
     0
  0
SCALE
  5
13B9
102
{ACAD_REACTORS
330
13A4
102
}
330
13A4
100
AcDbScale
 70
     0
300
1/16" = 1'-0"
140
0.0625
141
12.0
290
     0
  0
SCALE
  5
13BA
102
{ACAD_REACTORS
330
13A4
102
}
330
13A4
100
AcDbScale
 70
     0
300
3/32" = 1'-0"
140
0.09375
141
12.0
290
     0
  0
SCALE
  5
13BB
102
{ACAD_REACTORS
330
13A4
102
}
330
13A4
100
AcDbScale
 70
     0
300
1/8" = 1'-0"
140
0.125
141
12.0
290
     0
  0
SCALE
  5
13BC
102
{ACAD_REACTORS
330
13A4
102
}
330
13A4
100
AcDbScale
 70
     0
300
3/16" = 1'-0"
140
0.1875
141
12.0
290
     0
  0
SCALE
  5
13BD
102
{ACAD_REACTORS
330
13A4
102
}
330
13A4
100
AcDbScale
 70
     0
300
1/4" = 1'-0"
140
0.25
141
12.0
290
     0
  0
SCALE
  5
13BE
102
{ACAD_REACTORS
330
13A4
102
}
330
13A4
100
AcDbScale
 70
     0
300
3/8" = 1'-0"
140
0.375
141
12.0
290
     0
  0
SCALE
  5
13BF
102
{ACAD_REACTORS
330
13A4
102
}
330
13A4
100
AcDbScale
 70
     0
300
1/2" = 1'-0"
140
0.5
141
12.0
290
     0
  0
SCALE
  5
13C0
102
{ACAD_REACTORS
330
13A4
102
}
330
13A4
100
AcDbScale
 70
     0
300
3/4" = 1'-0"
140
0.75
141
12.0
290
     0
  0
SCALE
  5
13C1
102
{ACAD_REACTORS
330
13A4
102
}
330
13A4
100
AcDbScale
 70
     0
300
1" = 1'-0"
140
1.0
141
12.0
290
     0
  0
SCALE
  5
13C2
102
{ACAD_REACTORS
330
13A4
102
}
330
13A4
100
AcDbScale
 70
     0
300
1-1/2" = 1'-0"
140
1.5
141
12.0
290
     0
  0
SCALE
  5
13C3
102
{ACAD_REACTORS
330
13A4
102
}
330
13A4
100
AcDbScale
 70
     0
300
3" = 1'-0"
140
3.0
141
12.0
290
     0
  0
SCALE
  5
13C4
102
{ACAD_REACTORS
330
13A4
102
}
330
13A4
100
AcDbScale
 70
     0
300
6" = 1'-0"
140
6.0
141
12.0
290
     0
  0
SCALE
  5
13C5
102
{ACAD_REACTORS
330
13A4
102
}
330
13A4
100
AcDbScale
 70
     0
300
1'-0" = 1'-0"
140
12.0
141
12.0
290
     0
  0
TABLESTYLE
  5
13A3
102
{ACAD_XDICTIONARY
360
148F
102
}
102
{ACAD_REACTORS
330
13A2
102
}
330
13A2
100
AcDbTableStyle
280
     0
  3
Standard
 70
     0
 71
     0
 40
0.06
 41
0.06
280
     0
281
     0
  7
STANDARD
140
0.18
170
     2
 62
     0
 63
     7
283
     0
 90
      512
 91
        0
  1

274
    -2
284
     1
 64
     0
275
    -2
285
     1
 65
     0
276
    -2
286
     1
 66
     0
277
    -2
287
     1
 67
     0
278
    -2
288
     1
 68
     0
279
    -2
289
     1
 69
     0
  7
STANDARD
140
0.25
170
     5
 62
     0
 63
     7
283
     0
 90
      512
 91
        0
  1

274
    -2
284
     1
 64
     0
275
    -2
285
     1
 65
     0
276
    -2
286
     1
 66
     0
277
    -2
287
     1
 67
     0
278
    -2
288
     1
 68
     0
279
    -2
289
     1
 69
     0
  7
STANDARD
140
0.18
170
     5
 62
     0
 63
     7
283
     0
 90
      512
 91
        0
  1

274
    -2
284
     1
 64
     0
275
    -2
285
     1
 65
     0
276
    -2
286
     1
 66
     0
277
    -2
287
     1
 67
     0
278
    -2
288
     1
 68
     0
279
    -2
289
     1
 69
     0
  0
VISUALSTYLE
  5
1396
102
{ACAD_REACTORS
330
1390
102
}
330
1390
100
AcDbVisualStyle
  2
2dWireframe
 70
     4
177
     2
291
     0
 71
     0
176
     1
 72
     2
176
     1
 73
     0
176
     1
 90
        0
176
     1
 40
0.6
176
     1
 41
30.0
176
     1
 63
     7
421
 16777215
176
     1
 74
     1
176
     1
 91
        4
176
     1
 64
     7
176
     1
 65
   257
176
     1
 75
     1
176
     1
175
     1
176
     1
 42
1.0
176
     1
 92
        0
176
     1
 66
   257
176
     1
 43
1.0
176
     1
 76
     1
176
     1
 77
     6
176
     1
 78
     2
176
     1
 67
     7
176
     1
 79
     5
176
     1
170
     0
176
     1
171
     0
176
     1
290
     0
176
     1
 93
        1
176
     1
 44
0.0
176
     1
173
     0
176
     1
  0
VISUALSTYLE
  5
1398
102
{ACAD_REACTORS
330
1390
102
}
330
1390
100
AcDbVisualStyle
  2
3D Hidden
 70
     6
177
     2
291
     0
 71
     1
176
     1
 72
     2
176
     1
 73
     2
176
     1
 90
        0
176
     1
 40
0.6
176
     1
 41
30.0
176
     1
 63
     7
421
 16777215
176
     1
 74
     2
176
     1
 91
        2
176
     1
 64
     7
176
     1
 65
   257
176
     1
 75
     2
176
     1
175
     1
176
     1
 42
40.0
176
     1
 92
        0
176
     1
 66
   257
176
     1
 43
1.0
176
     1
 76
     1
176
     1
 77
     6
176
     1
 78
     2
176
     1
 67
     7
176
     1
 79
     3
176
     1
170
     0
176
     1
171
     0
176
     1
290
     0
176
     1
 93
        1
176
     1
 44
0.0
176
     1
173
     0
176
     1
  0
VISUALSTYLE
  5
1397
102
{ACAD_REACTORS
330
1390
102
}
330
1390
100
AcDbVisualStyle
  2
3dWireframe
 70
     5
177
     2
291
     0
 71
     0
176
     1
 72
     2
176
     1
 73
     0
176
     1
 90
        0
176
     1
 40
0.6
176
     1
 41
30.0
176
     1
 63
     7
421
 16777215
176
     1
 74
     1
176
     1
 91
        4
176
     1
 64
     7
176
     1
 65
   257
176
     1
 75
     1
176
     1
175
     1
176
     1
 42
1.0
176
     1
 92
        0
176
     1
 66
   257
176
     1
 43
1.0
176
     1
 76
     1
176
     1
 77
     6
176
     1
 78
     2
176
     1
 67
     7
176
     1
 79
     5
176
     1
170
     0
176
     1
171
     0
176
     1
290
     0
176
     1
 93
        1
176
     1
 44
0.0
176
     1
173
     0
176
     1
  0
VISUALSTYLE
  5
1395
102
{ACAD_REACTORS
330
1390
102
}
330
1390
100
AcDbVisualStyle
  2
Basic
 70
     7
177
     2
291
     1
 71
     1
176
     1
 72
     0
176
     1
 73
     1
176
     1
 90
        0
176
     1
 40
0.6
176
     1
 41
30.0
176
     1
 63
     7
421
 16777215
176
     1
 74
     0
176
     1
 91
        4
176
     1
 64
     7
176
     1
 65
   257
176
     1
 75
     1
176
     1
175
     1
176
     1
 42
1.0
176
     1
 92
        8
176
     1
 66
     7
176
     1
 43
1.0
176
     1
 76
     1
176
     1
 77
     6
176
     1
 78
     2
176
     1
 67
     7
176
     1
 79
     5
176
     1
170
     0
176
     1
171
     0
176
     1
290
     0
176
     1
 93
        1
176
     1
 44
0.0
176
     1
173
     0
176
     1
  0
VISUALSTYLE
  5
139C
102
{ACAD_REACTORS
330
1390
102
}
330
1390
100
AcDbVisualStyle
  2
Brighten
 70
    12
177
     2
291
     1
 71
     2
176
     1
 72
     2
176
     1
 73
     0
176
     1
 90
        0
176
     1
 40
0.6
176
     1
 41
30.0
176
     1
 63
     7
421
 16777215
176
     1
 74
     1
176
     1
 91
        4
176
     1
 64
     7
176
     1
 65
   257
176
     1
 75
     1
176
     1
175
     1
176
     1
 42
1.0
176
     1
 92
        8
176
     1
 66
     7
176
     1
 43
1.0
176
     1
 76
     1
176
     1
 77
     6
176
     1
 78
     2
176
     1
 67
     7
176
     1
 79
     5
176
     1
170
     0
176
     1
171
     0
176
     1
290
     0
176
     1
 93
        1
176
     1
 44
50.0
176
     1
173
     0
176
     1
  0
VISUALSTYLE
  5
13A0
102
{ACAD_REACTORS
330
1390
102
}
330
1390
100
AcDbVisualStyle
  2
ColorChange
 70
    16
177
     2
291
     1
 71
     2
176
     1
 72
     2
176
     1
 73
     3
176
     1
 90
        0
176
     1
 40
0.6
176
     1
 41
30.0
176
     1
 63
     8
421
  8421504
176
     1
 74
     1
176
     1
 91
        4
176
     1
 64
     7
176
     1
 65
   257
176
     1
 75
     1
176
     1
175
     1
176
     1
 42
1.0
176
     1
 92
        8
176
     1
 66
     8
424
  8421504
176
     1
 43
1.0
176
     1
 76
     1
176
     1
 77
     6
176
     1
 78
     2
176
     1
 67
     7
176
     1
 79
     5
176
     1
170
     0
176
     1
171
     0
176
     1
290
     0
176
     1
 93
        1
176
     1
 44
0.0
176
     1
173
     0
176
     1
  0
VISUALSTYLE
  5
1399
102
{ACAD_REACTORS
330
1390
102
}
330
1390
100
AcDbVisualStyle
  2
Conceptual
 70
     9
177
     2
291
     0
 71
     3
176
     1
 72
     2
176
     1
 73
     0
176
     1
 90
        0
176
     1
 40
0.6
176
     1
 41
30.0
176
     1
 63
     7
421
 16777215
176
     1
 74
     2
176
     1
 91
        2
176
     1
 64
     7
176
     1
 65
   257
176
     1
 75
     1
176
     1
175
     1
176
     1
 42
40.0
176
     1
 92
        8
176
     1
 66
     7
176
     1
 43
1.0
176
     1
 76
     1
176
     1
 77
     6
176
     1
 78
     2
176
     1
 67
     7
176
     1
 79
     3
176
     1
170
     0
176
     1
171
     0
176
     1
290
     0
176
     1
 93
        1
176
     1
 44
0.0
176
     1
173
     0
176
     1
  0
VISUALSTYLE
  5
139B
102
{ACAD_REACTORS
330
1390
102
}
330
1390
100
AcDbVisualStyle
  2
Dim
 70
    11
177
     2
291
     1
 71
     2
176
     1
 72
     2
176
     1
 73
     0
176
     1
 90
        0
176
     1
 40
0.6
176
     1
 41
30.0
176
     1
 63
     7
421
 16777215
176
     1
 74
     1
176
     1
 91
        4
176
     1
 64
     7
176
     1
 65
   257
176
     1
 75
     1
176
     1
175
     1
176
     1
 42
1.0
176
     1
 92
        8
176
     1
 66
     7
176
     1
 43
1.0
176
     1
 76
     1
176
     1
 77
     6
176
     1
 78
     2
176
     1
 67
     7
176
     1
 79
     5
176
     1
170
     0
176
     1
171
     0
176
     1
290
     0
176
     1
 93
        1
176
     1
 44
-50.0
176
     1
173
     0
176
     1
  0
VISUALSTYLE
  5
333B
102
{ACAD_REACTORS
330
1390
102
}
330
1390
100
AcDbVisualStyle
  2
EdgeColorOff
 70
    22
177
     2
291
     1
 71
     2
176
     0
 72
     2
176
     0
 73
     0
176
     0
 90
        0
176
     0
 40
0.6
176
     0
 41
30.0
176
     0
 63
     7
421
 16777215
176
     0
 74
     1
176
     0
 91
        4
176
     0
 64
     7
176
     0
 65
   257
176
     0
 75
     1
176
     0
175
     1
176
     0
 42
1.0
176
     0
 92
        8
176
     2
 66
     7
176
     0
 43
1.0
176
     0
 76
     1
176
     0
 77
     6
176
     0
 78
     2
176
     0
 67
     7
176
     0
 79
     5
176
     0
170
     0
176
     0
171
     0
176
     0
290
     0
176
     0
 93
        1
176
     0
 44
0.0
176
     0
173
     0
176
     0
  0
VISUALSTYLE
  5
139F
102
{ACAD_REACTORS
330
1390
102
}
330
1390
100
AcDbVisualStyle
  2
Facepattern
 70
    15
177
     2
291
     1
 71
     2
176
     1
 72
     2
176
     1
 73
     0
176
     1
 90
        0
176
     1
 40
0.6
176
     1
 41
30.0
176
     1
 63
     7
421
 16777215
176
     1
 74
     1
176
     1
 91
        4
176
     1
 64
     7
176
     1
 65
   257
176
     1
 75
     1
176
     1
175
     1
176
     1
 42
1.0
176
     1
 92
        8
176
     1
 66
     7
176
     1
 43
1.0
176
     1
 76
     1
176
     1
 77
     6
176
     1
 78
     2
176
     1
 67
     7
176
     1
 79
     5
176
     1
170
     0
176
     1
171
     0
176
     1
290
     0
176
     1
 93
        1
176
     1
 44
0.0
176
     1
173
     0
176
     1
  0
VISUALSTYLE
  5
1391
102
{ACAD_REACTORS
330
1390
102
}
330
1390
100
AcDbVisualStyle
  2
Flat
 70
     0
177
     2
291
     1
 71
     2
176
     1
 72
     1
176
     1
 73
     1
176
     1
 90
        2
176
     1
 40
0.6
176
     1
 41
30.0
176
     1
 63
     7
421
 16777215
176
     1
 74
     0
176
     1
 91
        4
176
     1
 64
     7
176
     1
 65
   257
176
     1
 75
     1
176
     1
175
     1
176
     1
 42
1.0
176
     1
 92
        8
176
     1
 66
     7
176
     1
 43
1.0
176
     1
 76
     1
176
     1
 77
     6
176
     1
 78
     2
176
     1
 67
     7
176
     1
 79
     5
176
     1
170
     0
176
     1
171
     0
176
     1
290
     0
176
     1
 93
       13
176
     1
 44
0.0
176
     1
173
     0
176
     1
  0
VISUALSTYLE
  5
1392
102
{ACAD_REACTORS
330
1390
102
}
330
1390
100
AcDbVisualStyle
  2
FlatWithEdges
 70
     1
177
     2
291
     1
 71
     2
176
     1
 72
     1
176
     1
 73
     1
176
     1
 90
        2
176
     1
 40
0.6
176
     1
 41
30.0
176
     1
 63
     7
421
 16777215
176
     1
 74
     1
176
     1
 91
        4
176
     1
 64
     7
176
     1
 65
   257
176
     1
 75
     1
176
     1
175
     1
176
     1
 42
1.0
176
     1
 92
        0
176
     1
 66
   257
176
     1
 43
1.0
176
     1
 76
     1
176
     1
 77
     6
176
     1
 78
     2
176
     1
 67
     7
176
     1
 79
     5
176
     1
170
     0
176
     1
171
     0
176
     1
290
     0
176
     1
 93
       13
176
     1
 44
0.0
176
     1
173
     0
176
     1
  0
VISUALSTYLE
  5
1393
102
{ACAD_REACTORS
330
1390
102
}
330
1390
100
AcDbVisualStyle
  2
Gouraud
 70
     2
177
     2
291
     1
 71
     2
176
     1
 72
     2
176
     1
 73
     1
176
     1
 90
        2
176
     1
 40
0.6
176
     1
 41
30.0
176
     1
 63
     7
421
 16777215
176
     1
 74
     0
176
     1
 91
        4
176
     1
 64
     7
176
     1
 65
   257
176
     1
 75
     1
176
     1
175
     1
176
     1
 42
1.0
176
     1
 92
        0
176
     1
 66
     7
176
     1
 43
1.0
176
     1
 76
     1
176
     1
 77
     6
176
     1
 78
     2
176
     1
 67
     7
176
     1
 79
     5
176
     1
170
     0
176
     1
171
     0
176
     1
290
     0
176
     1
 93
       13
176
     1
 44
0.0
176
     1
173
     0
176
     1
  0
VISUALSTYLE
  5
1394
102
{ACAD_REACTORS
330
1390
102
}
330
1390
100
AcDbVisualStyle
  2
GouraudWithEdges
 70
     3
177
     2
291
     1
 71
     2
176
     1
 72
     2
176
     1
 73
     1
176
     1
 90
        2
176
     1
 40
0.6
176
     1
 41
30.0
176
     1
 63
     7
421
 16777215
176
     1
 74
     1
176
     1
 91
        4
176
     1
 64
     7
176
     1
 65
   257
176
     1
 75
     1
176
     1
175
     1
176
     1
 42
1.0
176
     1
 92
        0
176
     1
 66
   257
176
     1
 43
1.0
176
     1
 76
     1
176
     1
 77
     6
176
     1
 78
     2
176
     1
 67
     7
176
     1
 79
     5
176
     1
170
     0
176
     1
171
     0
176
     1
290
     0
176
     1
 93
       13
176
     1
 44
0.0
176
     1
173
     0
176
     1
  0
VISUALSTYLE
  5
3339
102
{ACAD_REACTORS
330
1390
102
}
330
1390
100
AcDbVisualStyle
  2
JitterOff
 70
    20
177
     2
291
     1
 71
     2
176
     0
 72
     2
176
     0
 73
     0
176
     0
 90
        0
176
     0
 40
0.6
176
     0
 41
30.0
176
     0
 63
     7
421
 16777215
176
     0
 74
     1
176
     0
 91
        4
176
     0
 64
     7
176
     0
 65
   257
176
     0
 75
     1
176
     0
175
     1
176
     0
 42
1.0
176
     0
 92
       10
176
     2
 66
     7
176
     0
 43
1.0
176
     0
 76
     1
176
     0
 77
     6
176
     0
 78
     2
176
     0
 67
     7
176
     0
 79
     5
176
     0
170
     0
176
     0
171
     0
176
     0
290
     0
176
     0
 93
        1
176
     0
 44
0.0
176
     0
173
     0
176
     0
  0
VISUALSTYLE
  5
139E
102
{ACAD_REACTORS
330
1390
102
}
330
1390
100
AcDbVisualStyle
  2
Linepattern
 70
    14
177
     2
291
     1
 71
     2
176
     1
 72
     2
176
     1
 73
     0
176
     1
 90
        0
176
     1
 40
0.6
176
     1
 41
30.0
176
     1
 63
     7
421
 16777215
176
     1
 74
     1
176
     1
 91
        4
176
     1
 64
     7
176
     1
 65
   257
176
     1
 75
     7
176
     1
175
     7
176
     1
 42
1.0
176
     1
 92
        8
176
     1
 66
     7
176
     1
 43
1.0
176
     1
 76
     1
176
     1
 77
     6
176
     1
 78
     2
176
     1
 67
     7
176
     1
 79
     5
176
     1
170
     0
176
     1
171
     0
176
     1
290
     0
176
     1
 93
        1
176
     1
 44
0.0
176
     1
173
     0
176
     1
  0
VISUALSTYLE
  5
333A
102
{ACAD_REACTORS
330
1390
102
}
330
1390
100
AcDbVisualStyle
  2
OverhangOff
 70
    21
177
     2
291
     1
 71
     2
176
     0
 72
     2
176
     0
 73
     0
176
     0
 90
        0
176
     0
 40
0.6
176
     0
 41
30.0
176
     0
 63
     7
421
 16777215
176
     0
 74
     1
176
     0
 91
        4
176
     0
 64
     7
176
     0
 65
   257
176
     0
 75
     1
176
     0
175
     1
176
     0
 42
1.0
176
     0
 92
        9
176
     2
 66
     7
176
     0
 43
1.0
176
     0
 76
     1
176
     0
 77
     6
176
     0
 78
     2
176
     0
 67
     7
176
     0
 79
     5
176
     0
170
     0
176
     0
171
     0
176
     0
290
     0
176
     0
 93
        1
176
     0
 44
0.0
176
     0
173
     0
176
     0
  0
VISUALSTYLE
  5
139A
102
{ACAD_REACTORS
330
1390
102
}
330
1390
100
AcDbVisualStyle
  2
Realistic
 70
     8
177
     2
291
     0
 71
     2
176
     1
 72
     2
176
     1
 73
     0
176
     1
 90
        0
176
     1
 40
0.6
176
     1
 41
30.0
176
     1
 63
     7
421
 16777215
176
     1
 74
     1
176
     1
 91
        0
176
     1
 64
     7
176
     1
 65
   257
176
     1
 75
     1
176
     1
175
     1
176
     1
 42
1.0
176
     1
 92
        8
176
     1
 66
     8
424
  7895160
176
     1
 43
1.0
176
     1
 76
     1
176
     1
 77
     6
176
     1
 78
     2
176
     1
 67
     7
176
     1
 79
     5
176
     1
170
     0
176
     1
171
     0
176
     1
290
     0
176
     1
 93
       13
176
     1
 44
0.0
176
     1
173
     0
176
     1
  0
VISUALSTYLE
  5
139D
102
{ACAD_REACTORS
330
1390
102
}
330
1390
100
AcDbVisualStyle
  2
Thicken
 70
    13
177
     2
291
     1
 71
     2
176
     1
 72
     2
176
     1
 73
     0
176
     1
 90
        0
176
     1
 40
0.6
176
     1
 41
30.0
176
     1
 63
     7
421
 16777215
176
     1
 74
     1
176
     1
 91
        4
176
     1
 64
     7
176
     1
 65
   257
176
     1
 75
     1
176
     1
175
     1
176
     1
 42
1.0
176
     1
 92
       12
176
     1
 66
     7
176
     1
 43
1.0
176
     1
 76
     1
176
     1
 77
     6
176
     1
 78
     2
176
     1
 67
     7
176
     1
 79
     5
176
     1
170
     0
176
     1
171
     0
176
     1
290
     0
176
     1
 93
        1
176
     1
 44
0.0
176
     1
173
     0
176
     1
  0
DICTIONARYVAR
  5
1496
102
{ACAD_REACTORS
330
1492
102
}
330
1492
100
DictionaryVariables
280
     0
  1
1:1
  0
DICTIONARYVAR
  5
1494
102
{ACAD_REACTORS
330
1492
102
}
330
1492
100
DictionaryVariables
280
     0
  1
STANDARD
  0
DICTIONARYVAR
  5
1493
102
{ACAD_REACTORS
330
1492
102
}
330
1492
100
DictionaryVariables
280
     0
  1
STANDARD
  0
DICTIONARYVAR
  5
1498
102
{ACAD_REACTORS
330
1492
102
}
330
1492
100
DictionaryVariables
280
     0
  1
1
  0
DICTIONARYVAR
  5
1499
102
{ACAD_REACTORS
330
1492
102
}
330
1492
100
DictionaryVariables
280
     0
  1
15
  0
DICTIONARYVAR
  5
1497
102
{ACAD_REACTORS
330
1492
102
}
330
1492
100
DictionaryVariables
280
     0
  1
0
  0
DICTIONARYVAR
  5
1495
102
{ACAD_REACTORS
330
1492
102
}
330
1492
100
DictionaryVariables
280
     0
  1
0
  0
DICTIONARY
  5
1437
102
{ACAD_REACTORS
330
142C
102
}
330
142C
100
AcDbDictionary
281
     1
  0
XRECORD
  5
179B
102
{ACAD_REACTORS
330
1799
102
}
330
1799
100
AcDbXrecord
280
     1
330
0
330
0
330
0
330
0
330
0
330
169E
330
16B8
  0
DICTIONARY
  5
1381
330
1380
100
AcDbDictionary
280
     1
281
     1
  3
BUMPTILE
360
1383
  3
DIFFUSETILE
360
1382
  3
OPACITYTILE
360
1386
  3
REFLECTIONTILE
360
1385
  3
REFRACTIONTILE
360
1387
  3
SPECULARTILE
360
1384
  0
DICTIONARY
  5
1379
330
1378
100
AcDbDictionary
280
     1
281
     1
  3
BUMPTILE
360
137B
  3
DIFFUSETILE
360
137A
  3
OPACITYTILE
360
137E
  3
REFLECTIONTILE
360
137D
  3
REFRACTIONTILE
360
137F
  3
SPECULARTILE
360
137C
  0
DICTIONARY
  5
1389
330
1388
100
AcDbDictionary
280
     1
281
     1
  3
BUMPTILE
360
138B
  3
DIFFUSETILE
360
138A
  3
OPACITYTILE
360
138E
  3
REFLECTIONTILE
360
138D
  3
REFRACTIONTILE
360
138F
  3
SPECULARTILE
360
138C
  0
DICTIONARY
  5
148F
330
13A3
100
AcDbDictionary
280
     1
281
     1
  3
ACAD_ROUNDTRIP_2008_TABLESTYLE_CELLSTYLEMAP
360
3362
  0
XRECORD
  5
1383
102
{ACAD_REACTORS
330
1381
102
}
330
1381
100
AcDbXrecord
280
     1
270
     1
271
     1
  0
XRECORD
  5
1382
102
{ACAD_REACTORS
330
1381
102
}
330
1381
100
AcDbXrecord
280
     1
270
     1
271
     1
  0
XRECORD
  5
1386
102
{ACAD_REACTORS
330
1381
102
}
330
1381
100
AcDbXrecord
280
     1
270
     1
271
     1
  0
XRECORD
  5
1385
102
{ACAD_REACTORS
330
1381
102
}
330
1381
100
AcDbXrecord
280
     1
270
     1
271
     1
  0
XRECORD
  5
1387
102
{ACAD_REACTORS
330
1381
102
}
330
1381
100
AcDbXrecord
280
     1
270
     1
271
     1
  0
XRECORD
  5
1384
102
{ACAD_REACTORS
330
1381
102
}
330
1381
100
AcDbXrecord
280
     1
270
     1
271
     1
  0
XRECORD
  5
137B
102
{ACAD_REACTORS
330
1379
102
}
330
1379
100
AcDbXrecord
280
     1
270
     1
271
     1
  0
XRECORD
  5
137A
102
{ACAD_REACTORS
330
1379
102
}
330
1379
100
AcDbXrecord
280
     1
270
     1
271
     1
  0
XRECORD
  5
137E
102
{ACAD_REACTORS
330
1379
102
}
330
1379
100
AcDbXrecord
280
     1
270
     1
271
     1
  0
XRECORD
  5
137D
102
{ACAD_REACTORS
330
1379
102
}
330
1379
100
AcDbXrecord
280
     1
270
     1
271
     1
  0
XRECORD
  5
137F
102
{ACAD_REACTORS
330
1379
102
}
330
1379
100
AcDbXrecord
280
     1
270
     1
271
     1
  0
XRECORD
  5
137C
102
{ACAD_REACTORS
330
1379
102
}
330
1379
100
AcDbXrecord
280
     1
270
     1
271
     1
  0
XRECORD
  5
138B
102
{ACAD_REACTORS
330
1389
102
}
330
1389
100
AcDbXrecord
280
     1
270
     1
271
     1
  0
XRECORD
  5
138A
102
{ACAD_REACTORS
330
1389
102
}
330
1389
100
AcDbXrecord
280
     1
270
     1
271
     1
  0
XRECORD
  5
138E
102
{ACAD_REACTORS
330
1389
102
}
330
1389
100
AcDbXrecord
280
     1
270
     1
271
     1
  0
XRECORD
  5
138D
102
{ACAD_REACTORS
330
1389
102
}
330
1389
100
AcDbXrecord
280
     1
270
     1
271
     1
  0
XRECORD
  5
138F
102
{ACAD_REACTORS
330
1389
102
}
330
1389
100
AcDbXrecord
280
     1
270
     1
271
     1
  0
XRECORD
  5
138C
102
{ACAD_REACTORS
330
1389
102
}
330
1389
100
AcDbXrecord
280
     1
270
     1
271
     1
  0
CELLSTYLEMAP
  5
3362
102
{ACAD_REACTORS
330
148F
102
}
330
148F
100
AcDbCellStyleMap
 90
        3
300
CELLSTYLE
  1
TABLEFORMAT_BEGIN
 90
        5
170
     1
 91
        0
 92
    32768
 62
   257
 93
        1
300
CONTENTFORMAT
  1
CONTENTFORMAT_BEGIN
 90
        0
 91
        0
 92
      512
 93
        0
300

 40
0.0
140
1.0
 94
        5
 62
     0
340
1346
144
0.25
309
CONTENTFORMAT_END
171
     0
 94
        0
309
TABLEFORMAT_END
  1
CELLSTYLE_BEGIN
 90
        1
 91
        1
300
_TITLE
309
CELLSTYLE_END
300
CELLSTYLE
  1
TABLEFORMAT_BEGIN
 90
        5
170
     1
 91
        0
 92
        0
 62
   257
 93
        1
300
CONTENTFORMAT
  1
CONTENTFORMAT_BEGIN
 90
        0
 91
        0
 92
      512
 93
        0
300

 40
0.0
140
1.0
 94
        5
 62
     0
340
1346
144
0.18
309
CONTENTFORMAT_END
171
     0
 94
        0
309
TABLEFORMAT_END
  1
CELLSTYLE_BEGIN
 90
        2
 91
        1
300
_HEADER
309
CELLSTYLE_END
300
CELLSTYLE
  1
TABLEFORMAT_BEGIN
 90
        5
170
     1
 91
        0
 92
        0
 62
   257
 93
        1
300
CONTENTFORMAT
  1
CONTENTFORMAT_BEGIN
 90
        0
 91
        0
 92
      512
 93
        0
300

 40
0.0
140
1.0
 94
        2
 62
     0
340
1346
144
0.18
309
CONTENTFORMAT_END
171
     0
 94
        0
309
TABLEFORMAT_END
  1
CELLSTYLE_BEGIN
 90
        3
 91
        2
300
_DATA
309
CELLSTYLE_END
  0
ENDSEC
  0
EOF
