  0
SECTION
  2
HEADER
  9
$ACADVER
  1
AC1015
  9
$ACADMAINTVER
 70
    20
  9
$DWGCODEPAGE
  3
ANSI_1252
  9
$INSBASE
 10
0.0
 20
0.0
 30
0.0
  9
$EXTMIN
 10
226.6754177476691
 20
185.2592494865634
 30
-0.0015258207003583
  9
$EXTMAX
 10
877.7984641583152
 20
511.1412066513917
 30
0.0000000349246037
  9
$LIMMIN
 10
0.0
 20
0.0
  9
$LIMMAX
 10
1050.0
 20
1050.0
  9
$ORTHOMODE
 70
     1
  9
$REGENMODE
 70
     1
  9
$FILLMODE
 70
     1
  9
$QTEXTMODE
 70
     0
  9
$MIRRTEXT
 70
     0
  9
$LTSCALE
 40
5.0
  9
$ATTMODE
 70
     1
  9
$TEXTSIZE
 40
25.0
  9
$TRACEWID
 40
0.05
  9
$TEXTSTYLE
  7
STANDARD
  9
$CLAYER
  8
0
  9
$CELTYPE
  6
BYLAYER
  9
$CECOLOR
 62
   256
  9
$CELTSCALE
 40
1.0
  9
$DISPSILH
 70
     0
  9
$DIMSCALE
 40
5.0
  9
$DIMASZ
 40
2.5
  9
$DIMEXO
 40
1.0
  9
$DIMDLI
 40
7.0
  9
$DIMRND
 40
0.0
  9
$DIMDLE
 40
0.0
  9
$DIMEXE
 40
1.0
  9
$DIMTP
 40
0.1
  9
$DIMTM
 40
0.1
  9
$DIMTXT
 40
3.5
  9
$DIMCEN
 40
0.0
  9
$DIMTSZ
 40
0.0
  9
$DIMTOL
 70
     0
  9
$DIMLIM
 70
     0
  9
$DIMTIH
 70
     0
  9
$DIMTOH
 70
     0
  9
$DIMSE1
 70
     0
  9
$DIMSE2
 70
     0
  9
$DIMTAD
 70
     1
  9
$DIMZIN
 70
    12
  9
$DIMBLK
  1

  9
$DIMASO
 70
     1
  9
$DIMSHO
 70
     1
  9
$DIMPOST
  1

  9
$DIMAPOST
  1
"
  9
$DIMALT
 70
     0
  9
$DIMALTD
 70
     2
  9
$DIMALTF
 40
0.03937
  9
$DIMLFAC
 40
1.0
  9
$DIMTOFL
 70
     1
  9
$DIMTVP
 40
0.0
  9
$DIMTIX
 70
     0
  9
$DIMSOXD
 70
     0
  9
$DIMSAH
 70
     0
  9
$DIMBLK1
  1

  9
$DIMBLK2
  1

  9
$DIMSTYLE
  2
GEN-ISO
  9
$DIMCLRD
 70
   256
  9
$DIMCLRE
 70
   256
  9
$DIMCLRT
 70
     2
  9
$DIMTFAC
 40
0.71
  9
$DIMGAP
 40
0.6
  9
$DIMJUST
 70
     0
  9
$DIMSD1
 70
     0
  9
$DIMSD2
 70
     0
  9
$DIMTOLJ
 70
     0
  9
$DIMTZIN
 70
     0
  9
$DIMALTZ
 70
     0
  9
$DIMALTTZ
 70
     0
  9
$DIMUPT
 70
     0
  9
$DIMDEC
 70
     2
  9
$DIMTDEC
 70
     3
  9
$DIMALTU
 70
     2
  9
$DIMALTTD
 70
     4
  9
$DIMTXSTY
  7
STANDARD
  9
$DIMAUNIT
 70
     0
  9
$DIMADEC
 70
     0
  9
$DIMALTRND
 40
0.0
  9
$DIMAZIN
 70
     0
  9
$DIMDSEP
 70
    46
  9
$DIMATFIT
 70
     3
  9
$DIMFRAC
 70
     0
  9
$DIMLDRBLK
  1

  9
$DIMLUNIT
 70
     2
  9
$DIMLWD
 70
    -2
  9
$DIMLWE
 70
    -2
  9
$DIMTMOVE
 70
     0
  9
$LUNITS
 70
     2
  9
$LUPREC
 70
     2
  9
$SKETCHINC
 40
0.1
  9
$FILLETRAD
 40
12.5
  9
$AUNITS
 70
     0
  9
$AUPREC
 70
     2
  9
$MENU
  1
.
  9
$ELEVATION
 40
0.0
  9
$PELEVATION
 40
0.0
  9
$THICKNESS
 40
0.0
  9
$LIMCHECK
 70
     0
  9
$CHAMFERA
 40
12.5
  9
$CHAMFERB
 40
12.5
  9
$CHAMFERC
 40
0.0
  9
$CHAMFERD
 40
0.0
  9
$SKPOLY
 70
     0
  9
$TDCREATE
 40
2451030.405817211
  9
$TDUCREATE
 40
2451030.364150544
  9
$TDUPDATE
 40
2454038.556296713
  9
$TDUUPDATE
 40
2454038.514630046
  9
$TDINDWG
 40
0.0255283912
  9
$TDUSRTIMER
 40
0.0255282755
  9
$USRTIMER
 70
     1
  9
$ANGBASE
 50
0.0
  9
$ANGDIR
 70
     0
  9
$PDMODE
 70
     0
  9
$PDSIZE
 40
0.0
  9
$PLINEWID
 40
0.0
  9
$SPLFRAME
 70
     0
  9
$SPLINETYPE
 70
     6
  9
$SPLINESEGS
 70
     8
  9
$HANDSEED
  5
1703
  9
$SURFTAB1
 70
     6
  9
$SURFTAB2
 70
     6
  9
$SURFTYPE
 70
     6
  9
$SURFU
 70
     6
  9
$SURFV
 70
     6
  9
$UCSBASE
  2

  9
$UCSNAME
  2

  9
$UCSORG
 10
0.0
 20
0.0
 30
0.0
  9
$UCSXDIR
 10
1.0
 20
0.0
 30
0.0
  9
$UCSYDIR
 10
0.0
 20
1.0
 30
0.0
  9
$UCSORTHOREF
  2

  9
$UCSORTHOVIEW
 70
     0
  9
$UCSORGTOP
 10
0.0
 20
0.0
 30
0.0
  9
$UCSORGBOTTOM
 10
0.0
 20
0.0
 30
0.0
  9
$UCSORGLEFT
 10
0.0
 20
0.0
 30
0.0
  9
$UCSORGRIGHT
 10
0.0
 20
0.0
 30
0.0
  9
$UCSORGFRONT
 10
0.0
 20
0.0
 30
0.0
  9
$UCSORGBACK
 10
0.0
 20
0.0
 30
0.0
  9
$PUCSBASE
  2

  9
$PUCSNAME
  2

  9
$PUCSORG
 10
0.0
 20
0.0
 30
0.0
  9
$PUCSXDIR
 10
1.0
 20
0.0
 30
0.0
  9
$PUCSYDIR
 10
0.0
 20
1.0
 30
0.0
  9
$PUCSORTHOREF
  2

  9
$PUCSORTHOVIEW
 70
     0
  9
$PUCSORGTOP
 10
0.0
 20
0.0
 30
0.0
  9
$PUCSORGBOTTOM
 10
0.0
 20
0.0
 30
0.0
  9
$PUCSORGLEFT
 10
0.0
 20
0.0
 30
0.0
  9
$PUCSORGRIGHT
 10
0.0
 20
0.0
 30
0.0
  9
$PUCSORGFRONT
 10
0.0
 20
0.0
 30
0.0
  9
$PUCSORGBACK
 10
0.0
 20
0.0
 30
0.0
  9
$USERI1
 70
     0
  9
$USERI2
 70
     0
  9
$USERI3
 70
     0
  9
$USERI4
 70
     0
  9
$USERI5
 70
     0
  9
$USERR1
 40
0.0
  9
$USERR2
 40
0.0
  9
$USERR3
 40
0.0
  9
$USERR4
 40
0.0
  9
$USERR5
 40
0.0
  9
$WORLDVIEW
 70
     1
  9
$SHADEDGE
 70
     3
  9
$SHADEDIF
 70
    70
  9
$TILEMODE
 70
     1
  9
$MAXACTVP
 70
    48
  9
$PINSBASE
 10
0.0
 20
0.0
 30
0.0
  9
$PLIMCHECK
 70
     0
  9
$PEXTMIN
 10
0.0
 20
0.0
 30
0.0
  9
$PEXTMAX
 10
209.9
 20
296.9
 30
0.0
  9
$PLIMMIN
 10
0.0
 20
0.0
  9
$PLIMMAX
 10
209.9
 20
296.9
  9
$UNITMODE
 70
     0
  9
$VISRETAIN
 70
     1
  9
$PLINEGEN
 70
     1
  9
$PSLTSCALE
 70
     1
  9
$TREEDEPTH
 70
 -3020
  9
$CMLSTYLE
  2
STANDARD
  9
$CMLJUST
 70
     0
  9
$CMLSCALE
 40
1.0
  9
$PROXYGRAPHICS
 70
     1
  9
$MEASUREMENT
 70
     1
  9
$CELWEIGHT
370
    -1
  9
$ENDCAPS
280
     0
  9
$JOINSTYLE
280
     0
  9
$LWDISPLAY
290
     0
  9
$INSUNITS
 70
     0
  9
$HYPERLINKBASE
  1

  9
$STYLESHEET
  1

  9
$XEDIT
290
     1
  9
$CEPSNTYPE
380
     0
  9
$PSTYLEMODE
290
     1
  9
$FINGERPRINTGUID
  2
{043154FA-1ED7-49A9-998A-361C9ACC4474}
  9
$VERSIONGUID
  2
{50A2C802-D3CC-491F-B47A-C369793830F1}
  9
$EXTNAMES
290
     1
  9
$PSVPSCALE
 40
0.0
  9
$OLESTARTUP
290
     0
  0
ENDSEC
  0
SECTION
  2
CLASSES
  0
CLASS
  1
ACDBDICTIONARYWDFLT
  2
AcDbDictionaryWithDefault
  3
ObjectDBX Classes
 90
        0
280
     0
281
     0
  0
CLASS
  1
TABLESTYLE
  2
AcDbTableStyle
  3
ObjectDBX Classes
 90
     2047
280
     0
281
     0
  0
CLASS
  1
AMGSETTINGSOBJ
  2
AmgSettingsObj
  3
"AcadM|Product Description: AutoCAD Mechanical 2000|Company: Autodesk"
 90
        0
280
     0
281
     0
  0
CLASS
  1
ACME_DOCUMENT
  2
AcMeDbDoc
  3
AcMeServices
 90
        0
280
     0
281
     0
  0
CLASS
  1
ACMESCOPE
  2
AcMeScope
  3
AcMeServices
 90
        0
280
     0
281
     0
  0
CLASS
  1
ACMECOMMANDHISTORY
  2
AcMeCommandHistory
  3
AcMeServices
 90
        0
280
     0
281
     0
  0
CLASS
  1
ACIMSYSVARMAN
  2
AcImSysVarManager
  3
AcMeServices
 90
        0
280
     0
281
     0
  0
CLASS
  1
ACIMINTSYSVAR
  2
AcImIntSysVar
  3
AcMeServices
 90
        0
280
     0
281
     0
  0
CLASS
  1
ACMEDRAWINGMAN
  2
AcMeDrawingMan
  3
AcMeServices
 90
        0
280
     0
281
     0
  0
CLASS
  1
ACMEVIEW
  2
AcMeView
  3
AcMeServices
 90
        0
280
     0
281
     0
  0
CLASS
  1
ACDBENTITYCACHE
  2
AcMeEntityCache
  3
AcMeServices
 90
        0
280
     0
281
     0
  0
CLASS
  1
GSMANAGER
  2
AcMeGSManager
  3
AcMeServices
 90
        0
280
     0
281
     0
  0
CLASS
  1
AMDTINTERNALREACTOR
  2
AmdtInternalReactor
  3
AcMeServices
 90
        0
280
     0
281
     0
  0
CLASS
  1
ACMESTATEMGR
  2
AcMeStateMgr
  3
AcMeServices
 90
        0
280
     0
281
     0
  0
CLASS
  1
ACGREFMASTER
  2
AcGrefMaster
  3
AcAttribServices
 90
        0
280
     0
281
     0
  0
CLASS
  1
AM_DRAWING_MGR
  2
AcDmDwgMgr
  3
AcMechDwgViewMgmt
 90
        0
280
     0
281
     0
  0
CLASS
  1
AM_DWG_DOCUMENT
  2
AcDmDwgDocument
  3
AcMechDwgViewMgmt
 90
        0
280
     0
281
     0
  0
CLASS
  1
AM_DWG_SHEET
  2
AcDmSheet
  3
AcMechDwgViewMgmt
 90
        0
280
     0
281
     0
  0
CLASS
  1
AM_VIEWDIMPARMAP
  2
AcDmViewDimParMap
  3
AcMechDwgViewMgmt
 90
        0
280
     0
281
     0
  0
CLASS
  1
ACIMREALSYSVAR
  2
AcImRealSysVar
  3
AcMeServices
 90
        0
280
     0
281
     0
  0
CLASS
  1
AM_DWGMGR_NAME
  2
AcDmDwgMgrName
  3
AcMechDwgViewMgmt
 90
        0
280
     0
281
     0
  0
CLASS
  1
ACME_DATABASE
  2
AcMeDbDatabase
  3
AcMeServices
 90
        0
280
     0
281
     0
  0
CLASS
  1
ACRFINSADJUSTERMGR
  2
AcRfInsAdjusterMgr
  3
AcMeServices
 90
        0
280
     0
281
     0
  0
CLASS
  1
ACGREFACADMASTER
  2
AcGrefacadMaster
  3
AcGrefServices
 90
        0
280
     0
281
     0
  0
CLASS
  1
AMDTMENUSTATEMGR
  2
AmdtMenuStateMgr
  3
McadcomServices
 90
        0
280
     0
281
     0
  0
CLASS
  1
AMDTMCOMMENUSTATE
  2
AmdtMcomMenuState
  3
McadcomServices
 90
        0
280
     0
281
     0
  0
CLASS
  1
AMIMASTER
  2
AmiMaster
  3
AmiServices
 90
        0
280
     0
281
     0
  0
CLASS
  1
MAPIAMMOUDLE
  2
MApiAmModule
  3
MApiAmServices
 90
        0
280
     0
281
     0
  0
CLASS
  1
ACIMSTRSYSVAR
  2
AcImStrSysVar
  3
AcMeServices
 90
        0
280
     0
281
     0
  0
CLASS
  1
AMDTADMENUSTATE
  2
AmdtAdMenuState
  3
DesignerServices
 90
        0
280
     0
281
     0
  0
CLASS
  1
ADAPPL
  2
AcAdAppl
  3
DesignerServices
 90
        0
280
     0
281
     0
  0
CLASS
  1
DEPMGR
  2
AcAdDepMgr
  3
DesignerServices
 90
        0
280
     0
281
     0
  0
CLASS
  1
PARAMMGR
  2
AcAdParamMgr
  3
DesignerServices
 90
        0
280
     0
281
     0
  0
CLASS
  1
PARAMSCOPE
  2
AcAdParamScope
  3
DesignerServices
 90
        0
280
     0
281
     0
  0
CLASS
  1
NAMEDAPPL
  2
AcAdNamedAppl
  3
DesignerServices
 90
        0
280
     0
281
     0
  0
CLASS
  1
AMDTDMMENUSTATE
  2
AmdtDmMenuState
  3
AcMechDwgViewMgmt
 90
        0
280
     0
281
     0
  0
CLASS
  1
AMDTAMMENUSTATE
  2
AmdtAmMenuState
  3
DesignerAssemblies
 90
        0
280
     0
281
     0
  0
CLASS
  1
ACAMPROJECT
  2
AcAmProject
  3
DesignerAssemblies
 90
        0
280
     0
281
     0
  0
CLASS
  1
ACAMGRCOMPDEF
  2
AcAmGrCompDef
  3
DesignerAssemblies
 90
        0
280
     0
281
     0
  0
CLASS
  1
ACCMCONTEXT
  2
AcCmContext
  3
DesignerAssemblies
 90
        0
280
     0
281
     0
  0
CLASS
  1
ACAMCOMPDEF
  2
AcAmCompDef
  3
DesignerAssemblies
 90
        0
280
     0
281
     0
  0
CLASS
  1
ACAMCOMPDEFMGR
  2
AcAmCompDefMgr
  3
DesignerAssemblies
 90
        0
280
     0
281
     0
  0
CLASS
  1
AMCONTEXTMGR
  2
AcAmContextMgr
  3
DesignerAssemblies
 90
        0
280
     0
281
     0
  0
CLASS
  1
ACAMCONTEXTMODELER
  2
AcAmContextModeler
  3
DesignerAssemblies
 90
        0
280
     0
281
     0
  0
CLASS
  1
ACMDATADICTIONARY
  2
AcmDataDictionary
  3
"AcmSymBB|Product Description: AutoCAD Mechanical 2004 DX|Company: Autodesk"
 90
        0
280
     0
281
     0
  0
CLASS
  1
CATALOGSTATE
  2
AcAmCatalogState
  3
DesignerAssemblies
 90
        0
280
     0
281
     0
  0
CLASS
  1
ACAMGRCOMPDEFSET
  2
AcAmGrCompDefSet
  3
DesignerAssemblies
 90
        0
280
     0
281
     0
  0
CLASS
  1
AMDTBROWSERDBTAB
  2
AmdtBrowserDbTab
  3
McadcomServices
 90
        0
280
     0
281
     0
  0
CLASS
  1
CBROWSERAPPOBJECT
  2
CBrowserAppObject
  3
McadcomServices
 90
        0
280
     0
281
     0
  0
CLASS
  1
DM_PLACEHOLDER
  2
AcDmSelsetPlaceholder
  3
AcMechDwgViewMgmt
 90
        0
280
     0
281
     0
  0
CLASS
  1
ACMSTANDARDDIN
  2
AcmStandardDIN
  3
"Amdt_StdImp|Product Description: AutoCAD Mechanical 2004 DX|Company: Autodesk"
 90
        0
280
     0
281
     0
  0
CLASS
  1
AMGOBJPROPCFG
  2
AmgObjPropCfg
  3
"AmgLay|Product Description: AutoCAD Mechanical 2000|Company: Autodesk"
 90
        1
280
     0
281
     0
  0
CLASS
  1
AMDTEDGESTANDARDDIN13715
  2
AmdtEdgeStdDIN13715
  3
"Amdt_StdImp|Product Description: AutoCAD Mechanical 2004 DX|Company: Autodesk"
 90
        0
280
     0
281
     0
  0
CLASS
  1
ACMSURFSTANDARDDIN
  2
AcmSurfTextStdDIN
  3
"Amdt_StdImp|Product Description: AutoCAD Mechanical 2004 DX|Company: Autodesk"
 90
        0
280
     0
281
     0
  0
CLASS
  1
ACMFCFSTANDARDDIN
  2
AcmFCFStdDIN
  3
"Amdt_StdImp|Product Description: AutoCAD Mechanical 2004 DX|Company: Autodesk"
 90
        0
280
     0
281
     0
  0
CLASS
  1
ACMWELDSTANDARDDIN
  2
AcmWeldingStdDIN
  3
"Amdt_StdImp|Product Description: AutoCAD Mechanical 2004 DX|Company: Autodesk"
 90
        0
280
     0
281
     0
  0
CLASS
  1
ACMIDSTANDARDDIN
  2
AcmIdStdDIN
  3
"Amdt_StdImp|Product Description: AutoCAD Mechanical 2004 DX|Company: Autodesk"
 90
        0
280
     0
281
     0
  0
CLASS
  1
ACMDATUMSTANDARDDIN
  2
AcmDatumStdDIN
  3
"Amdt_StdImp|Product Description: AutoCAD Mechanical 2004 DX|Company: Autodesk"
 90
        0
280
     0
281
     0
  0
CLASS
  1
ACMBOMSTANDARDDIN
  2
AcmBOMStdDIN
  3
"Amdt_StdImp|Product Description: AutoCAD Mechanical 2004 DX|Company: Autodesk"
 90
        0
280
     0
281
     0
  0
CLASS
  1
ACMDETAILSTANDARDDIN
  2
AmdtDetailSymStdDIN
  3
"Amdt_StdImp|Product Description: AutoCAD Mechanical 2004 DX|Company: Autodesk"
 90
        0
280
     0
281
     0
  0
CLASS
  1
ACMSECTIONSTANDARDDIN
  2
AmdtSectionSymStdDIN
  3
"Amdt_StdImp|Product Description: AutoCAD Mechanical 2004 DX|Company: Autodesk"
 90
        0
280
     0
281
     0
  0
CLASS
  1
ACMCENTERLINESTANDARDDIN
  2
AmdtCenterLineStdDIN
  3
"Amdt_StdImp|Product Description: AutoCAD Mechanical 2004 DX|Company: Autodesk"
 90
        0
280
     0
281
     0
  0
CLASS
  1
ACMTHREADLINESTANDARDDIN
  2
AmdtThreadLineStdDIN
  3
"Amdt_StdImp|Product Description: AutoCAD Mechanical 2004 DX|Company: Autodesk"
 90
        0
280
     0
281
     0
  0
CLASS
  1
ACMNOTESTANDARDDIN
  2
AmdtNoteStdDIN
  3
"Amdt_StdImp|Product Description: AutoCAD Mechanical 2004 DX|Company: Autodesk"
 90
        0
280
     0
281
     0
  0
CLASS
  1
AMDTNOTETEMPLATEDB
  2
AmdtNoteTemplateDB
  3
AMDT_STDIMP_MODULE_NAME
 90
        0
280
     0
281
     0
  0
CLASS
  1
ACAMGLAYSTD
  2
AcAmgLayStd
  3
"AcAmgLayStd|Product Description: AutoCAD Mechanical 2000|Company: Autodesk"
 90
        0
280
     0
281
     0
  0
CLASS
  1
ACAMGDIMSTD
  2
AcAmgDimStd
  3
"AcAmgDimStd|Product Description: AutoCAD Mechanical 2000|Company: Autodesk"
 90
        0
280
     0
281
     0
  0
CLASS
  1
ACAMGHOLECHARTSTDDIN
  2
AcAmgHoleChartStdDIN
  3
ACMSYMBB_MODULE_NAME
 90
        0
280
     0
281
     0
  0
CLASS
  1
ACAMGTITLESTD
  2
AcAmgTitleStd
  3
"TITLEAPP"
 90
        0
280
     0
281
     0
  0
CLASS
  1
ACAMGFILTERDAT
  2
AcAmgFilterDat
  3
"AcadM|Product Description: AutoCAD Mechanical 2000|Company: Autodesk"
 90
        0
280
     0
281
     0
  0
CLASS
  1
DICTIONARYVAR
  2
AcDbDictionaryVar
  3
ObjectDBX Classes
 90
        0
280
     0
281
     0
  0
CLASS
  1
ACDBPLACEHOLDER
  2
AcDbPlaceHolder
  3
ObjectDBX Classes
 90
        0
280
     0
281
     0
  0
CLASS
  1
LAYOUT
  2
AcDbLayout
  3
ObjectDBX Classes
 90
        0
280
     0
281
     0
  0
ENDSEC
  0
SECTION
  2
TABLES
  0
TABLE
  2
VPORT
  5
1230
330
0
100
AcDbSymbolTable
 70
     5
  0
VPORT
  5
16FD
330
1230
100
AcDbSymbolTableRecord
100
AcDbViewportTableRecord
  2
*Active
 70
     0
 10
0.0
 20
0.0
 11
1.0
 21
1.0
 12
552.2369409529922
 22
348.2002280689777
 13
0.0
 23
0.0
 14
5.0
 24
5.0
 15
50.0
 25
50.0
 16
0.0
 26
0.0
 36
1.0
 17
0.0
 27
0.0
 37
0.0
 40
437.7837358266955
 41
1.494545454545454
 42
50.0
 43
0.0
 44
0.0
 50
0.0
 51
0.0
 71
     0
 72
  1000
 73
     1
 74
     1
 75
     0
 76
     0
 77
     0
 78
     0
281
     0
 65
     0
110
0.0
120
0.0
130
0.0
111
1.0
121
0.0
131
0.0
112
0.0
122
1.0
132
0.0
 79
     0
146
0.0
  0
ENDTAB
  0
TABLE
  2
LTYPE
  5
122D
330
0
100
AcDbSymbolTable
 70
    21
  0
LTYPE
  5
123A
330
122D
100
AcDbSymbolTableRecord
100
AcDbLinetypeTableRecord
  2
BYBLOCK
 70
     0
  3

 72
    65
 73
     0
 40
0.0
  0
LTYPE
  5
123B
330
122D
100
AcDbSymbolTableRecord
100
AcDbLinetypeTableRecord
  2
BYLAYER
 70
     0
  3

 72
    65
 73
     0
 40
0.0
  0
LTYPE
  5
123C
330
122D
100
AcDbSymbolTableRecord
100
AcDbLinetypeTableRecord
  2
CONTINUOUS
 70
     0
  3
Solid line
 72
    65
 73
     0
 40
0.0
  0
LTYPE
  5
124B
330
122D
100
AcDbSymbolTableRecord
100
AcDbLinetypeTableRecord
  2
GEN7
 70
     0
  3
____ _ ____ _ ____ _ ____ _ ____ _ ____ _ ____ _ ____ _ ____ _
 72
    65
 73
     4
 40
22.0
 49
10.75
 74
     0
 49
-3.75
 74
     0
 49
3.75
 74
     0
 49
-3.75
 74
     0
  0
LTYPE
  5
1653
330
122D
100
AcDbSymbolTableRecord
100
AcDbLinetypeTableRecord
  2
HIDDEN
 70
     0
  3
Verdeckt
 72
    65
 73
     2
 40
9.525
 49
6.349999999999999
 74
     0
 49
-3.174999999999999
 74
     0
  0
LTYPE
  5
1654
330
122D
100
AcDbSymbolTableRecord
100
AcDbLinetypeTableRecord
  2
PHANTOM2
 70
     0
  3
Phantom (.5x) ___ _ _ ___ _ _ ___ _ _ ___ _ _
 72
    65
 73
     6
 40
31.75
 49
15.875
 74
     0
 49
-3.174999999999999
 74
     0
 49
3.174999999999999
 74
     0
 49
-3.174999999999999
 74
     0
 49
3.174999999999999
 74
     0
 49
-3.174999999999999
 74
     0
  0
LTYPE
  5
1655
330
122D
100
AcDbSymbolTableRecord
100
AcDbLinetypeTableRecord
  2
CENTER
 70
     0
  3
Mitte ____ _ ____ _ ____ _ ____ _ ____ _ ____
 72
    65
 73
     4
 40
50.8
 49
31.75
 74
     0
 49
-6.349999999999999
 74
     0
 49
6.349999999999999
 74
     0
 49
-6.349999999999999
 74
     0
  0
LTYPE
  5
168C
330
122D
100
AcDbSymbolTableRecord
100
AcDbLinetypeTableRecord
  2
Amconstr
 70
     0
  3
_______________________
 72
    65
 73
     2
 40
9999.0
 49
9999.0
 74
     0
 49
0.0
 74
     0
  0
LTYPE
  5
1691
330
122D
100
AcDbSymbolTableRecord
100
AcDbLinetypeTableRecord
  2
Amzigzag
 70
     0
  3
/\/-/\/-/\/-/\/-/\/-/\/
 72
    65
 73
     2
 40
11.0001
 49
0.0001
 74
     4
 75
   136
340
1690
 46
0.04
 50
0.0
 44
0.0
 45
0.0
 49
-11.0
 74
     0
  0
LTYPE
  5
1692
330
122D
100
AcDbSymbolTableRecord
100
AcDbLinetypeTableRecord
  2
AM_DIN_F_W050
 70
     0
  3
__ __ __ __ __ __ __ __ __ __ __ __ __ __ __
 72
    65
 73
     2
 40
6.25
 49
4.75
 74
     0
 49
-1.5
 74
     0
  0
LTYPE
  5
1693
330
122D
100
AcDbSymbolTableRecord
100
AcDbLinetypeTableRecord
  2
AM_DIN_G_W050
 70
     0
  3
____ . ____ . ____ . ____ . ____ . ____ . ____
 72
    65
 73
     4
 40
13.75
 49
9.75
 74
     0
 49
-1.5
 74
     0
 49
1.0
 74
     0
 49
-1.5
 74
     0
  0
LTYPE
  5
1694
330
122D
100
AcDbSymbolTableRecord
100
AcDbLinetypeTableRecord
  2
AM_DIN_K_W050
 70
     0
  3
_____ . . _____ . . _____ . . ____ .. ____
 72
    65
 73
     6
 40
16.25
 49
9.75
 74
     0
 49
-1.5
 74
     0
 49
1.0
 74
     0
 49
-1.5
 74
     0
 49
1.0
 74
     0
 49
-1.5
 74
     0
  0
LTYPE
  5
1695
330
122D
100
AcDbSymbolTableRecord
100
AcDbLinetypeTableRecord
  2
AM_DIN_G_W050x2
 70
     0
  3
__ . __ . __ . __ . __ . __
 72
    65
 73
     4
 40
6.875
 49
4.75
 74
     0
 49
-0.875
 74
     0
 49
0.375
 74
     0
 49
-0.875
 74
     0
  0
LTYPE
  5
1696
330
122D
100
AcDbSymbolTableRecord
100
AcDbLinetypeTableRecord
  2
AM_DIN_F_W050x2
 70
     0
  3
 _ _ _ _ _ _ _ _ _ _ _ _
 72
    65
 73
     2
 40
3.125
 49
2.25
 74
     0
 49
-0.875
 74
     0
  0
LTYPE
  5
16A5
330
122D
100
AcDbSymbolTableRecord
100
AcDbLinetypeTableRecord
  2
ACDINWELD
 70
     0
  3
_ _ _ _ _
 72
    65
 73
     2
 40
2.0
 49
2.0
 74
     0
 49
-1.0
 74
     0
  0
LTYPE
  5
16A6
330
122D
100
AcDbSymbolTableRecord
100
AcDbLinetypeTableRecord
  2
ACDINTGB
 70
     0
  3
__ . . __ . .
 72
    65
 73
     6
 40
9.0
 49
4.0
 74
     0
 49
-1.0
 74
     0
 49
1.0
 74
     0
 49
-1.0
 74
     0
 49
1.0
 74
     0
 49
-1.0
 74
     0
  0
LTYPE
  5
16A7
330
122D
100
AcDbSymbolTableRecord
100
AcDbLinetypeTableRecord
  2
ACDINTGL
 70
     0
  3
_ _ _ _ _
 72
    65
 73
     2
 40
3.0
 49
2.0
 74
     0
 49
-1.0
 74
     0
  0
ENDTAB
  0
TABLE
  2
LAYER
  5
122A
330
0
100
AcDbSymbolTable
 70
    14
  0
LAYER
  5
1236
330
122A
100
AcDbSymbolTableRecord
100
AcDbLayerTableRecord
  2
0
 70
     0
 62
     7
  6
CONTINUOUS
370
    -3
390
1617
  0
LAYER
  5
1251
330
122A
100
AcDbSymbolTableRecord
100
AcDbLayerTableRecord
  2
4
 70
     0
 62
     3
  6
CONTINUOUS
370
    -3
390
1617
  0
LAYER
  5
1253
330
122A
100
AcDbSymbolTableRecord
100
AcDbLayerTableRecord
  2
5
 70
     0
 62
     3
  6
CONTINUOUS
370
    -3
390
1617
  0
LAYER
  5
1256
330
122A
100
AcDbSymbolTableRecord
100
AcDbLayerTableRecord
  2
8
 70
     0
 62
     1
  6
CONTINUOUS
370
    -3
390
1617
  0
LAYER
  5
1257
330
122A
100
AcDbSymbolTableRecord
100
AcDbLayerTableRecord
  2
SCHRAFFUR_RAND
 70
     1
 62
   -36
  6
CONTINUOUS
370
    -3
390
1617
  0
LAYER
  5
1282
330
122A
100
AcDbSymbolTableRecord
100
AcDbLayerTableRecord
  2
DEFPOINTS
 70
     0
 62
     7
  6
CONTINUOUS
290
     0
370
    -3
390
1617
  0
ENDTAB
  0
TABLE
  2
STYLE
  5
122B
330
0
100
AcDbSymbolTable
 70
     4
  0
STYLE
  5
1237
330
122B
100
AcDbSymbolTableRecord
100
AcDbTextStyleTableRecord
  2
STANDARD
 70
     0
 40
0.0
 41
1.0
 50
0.0
 71
     0
 42
25.0
  3
ISOCP.SHX
  4

  0
STYLE
  5
1690
330
122B
100
AcDbSymbolTableRecord
100
AcDbTextStyleTableRecord
  2

 70
     1
 40
0.0
 41
1.0
 50
0.0
 71
     0
 42
0.2
  3
genltshp.shx
  4

  0
STYLE
  5
1697
330
122B
100
AcDbSymbolTableRecord
100
AcDbTextStyleTableRecord
  2
ACDINTS
 70
     0
 40
1.0
 41
1.0
 50
0.0
 71
     0
 42
0.2
  3
isocp.shx
  4

  0
STYLE
  5
16A4
330
122B
100
AcDbSymbolTableRecord
100
AcDbTextStyleTableRecord
  2
ACDINGDT
 70
     0
 40
0.0
 41
1.0
 50
0.0
 71
     0
 42
0.2
  3
AMGDT
  4

  0
ENDTAB
  0
TABLE
  2
VIEW
  5
122E
330
0
100
AcDbSymbolTable
 70
     6
  0
VIEW
  5
12C4
330
122E
100
AcDbSymbolTableRecord
100
AcDbViewTableRecord
  2
GEN1
 70
     0
 40
525.0
 10
394.960474
 20
787.5
 41
789.920949
 11
0.0
 21
0.0
 31
1.0
 12
0.0
 22
0.0
 32
0.0
 42
50.0
 43
0.0
 44
0.0
 50
0.0
 71
     0
281
     0
 72
     0
  0
VIEW
  5
12C5
330
122E
100
AcDbSymbolTableRecord
100
AcDbViewTableRecord
  2
GEN2
 70
     0
 40
525.0
 10
655.039526
 20
787.5
 41
789.920949
 11
0.0
 21
0.0
 31
1.0
 12
0.0
 22
0.0
 32
0.0
 42
50.0
 43
0.0
 44
0.0
 50
0.0
 71
     0
281
     0
 72
     0
  0
VIEW
  5
12C6
330
122E
100
AcDbSymbolTableRecord
100
AcDbViewTableRecord
  2
GEN3
 70
     0
 40
525.0
 10
394.960474
 20
262.5
 41
789.920949
 11
0.0
 21
0.0
 31
1.0
 12
0.0
 22
0.0
 32
0.0
 42
50.0
 43
0.0
 44
0.0
 50
0.0
 71
     0
281
     0
 72
     0
  0
VIEW
  5
12C7
330
122E
100
AcDbSymbolTableRecord
100
AcDbViewTableRecord
  2
GEN4
 70
     0
 40
525.0
 10
655.039526
 20
262.5
 41
789.920949
 11
0.0
 21
0.0
 31
1.0
 12
0.0
 22
0.0
 32
0.0
 42
50.0
 43
0.0
 44
0.0
 50
0.0
 71
     0
281
     0
 72
     0
  0
VIEW
  5
12C8
330
122E
100
AcDbSymbolTableRecord
100
AcDbViewTableRecord
  2
GEN5
 70
     0
 40
525.0
 10
525.0
 20
525.0
 41
789.920949
 11
0.0
 21
0.0
 31
1.0
 12
0.0
 22
0.0
 32
0.0
 42
50.0
 43
0.0
 44
0.0
 50
0.0
 71
     0
281
     0
 72
     0
  0
VIEW
  5
12C9
330
122E
100
AcDbSymbolTableRecord
100
AcDbViewTableRecord
  2
GEN6
 70
     0
 40
1049.9895
 10
525.0
 20
525.0
 41
1579.826099
 11
0.0
 21
0.0
 31
1.0
 12
0.0
 22
0.0
 32
0.0
 42
50.0
 43
0.0
 44
0.0
 50
0.0
 71
     0
281
     0
 72
     0
  0
ENDTAB
  0
TABLE
  2
UCS
  5
122F
330
0
100
AcDbSymbolTable
 70
     0
  0
ENDTAB
  0
TABLE
  2
APPID
  5
1231
330
0
100
AcDbSymbolTable
 70
    36
  0
APPID
  5
1238
330
1231
100
AcDbSymbolTableRecord
100
AcDbRegAppTableRecord
  2
ACAD
 70
     0
  0
APPID
  5
1292
330
1231
100
AcDbSymbolTableRecord
100
AcDbRegAppTableRecord
  2
GENIUS_GENCFG_13
 70
     0
1001
GENIUS_GENCFG0_13
1000
GEN@INFO_POS@XLATE
1001
GENIUS_GENCFG1_13
1000
GEN@INFO_POS
1001
GENIUS_GENCFG2_13
1000
GEN@LAYER@DEFS
1001
GENIUS_GENCFG3_13
1000
GEN@LAYER@ENTSORT
1001
GENIUS_GENCFG4_13
1000
GEN
1001
GENIUS_GEVCFG0_13
1000
GEV
1001
GENIUS_DUMCFG0_13
1000
DUM
  0
APPID
  5
1293
330
1231
100
AcDbSymbolTableRecord
100
AcDbRegAppTableRecord
  2
GENIUS_DUMCFG0_13
 70
     0
1001
GENIUS_GENCFG_13
1071
922111889
1000
1293
1000
DUM
1070
     0
  0
APPID
  5
1294
330
1231
100
AcDbSymbolTableRecord
100
AcDbRegAppTableRecord
  2
GENIUS_GENCFG0_13
 70
     0
1001
GENIUS_GENCFG_13
1071
1020868017
1000
1294
1000
GEN@INFO_POS@XLATE
1070
     7
1000
GenCfgObject
1000
GenCfgShort
1000
GenCfgReal
1000
GenCfgBool
1000
GenCfgString
1000
GenCfgDim
1000
GenCfgAttrInf
1000
INFOPOINTS
1070
     0
1002
{
1000
GENINF14
1070
     0
1002
{
1000
2GENINF
1070
     4
1000
2
1002
{
1002
}
1000
5GENINF
1070
     4
1000
5
1002
{
1002
}
1000
7GENINF
1070
     4
1000
7
1002
{
1002
}
1000
9GENINF
1070
     4
1000
9
1002
{
1002
}
1000
11GENINF
1070
     4
1000
11
1002
{
1002
}
1000
14GENINF
1070
     4
1000
14
1002
{
1002
}
1002
}
1000
GENINF13
1070
     0
1002
{
1000
2GENINF
1070
     4
1000
2
1002
{
1002
}
1000
3GENINF
1070
     4
1000
3
1002
{
1002
}
1000
4GENINF
1070
     4
1000
4
1002
{
1002
}
1000
5GENINF
1070
     4
1000
5
1002
{
1002
}
1000
6GENINF
1070
     4
1000
6
1002
{
1002
}
1000
7GENINF
1070
     4
1000
7
1002
{
1002
}
1000
8GENINF
1070
     4
1000
8
1002
{
1002
}
1000
9GENINF
1070
     4
1000
9
1002
{
1002
}
1000
10GENINF
1070
     4
1000
10
1002
{
1002
}
1000
11GENINF
1070
     4
1000
11
1002
{
1002
}
1000
12GENINF
1070
     4
1000
12
1002
{
1002
}
1000
13GENINF
1070
     4
1000
13
1002
{
1002
}
1000
14GENINF
1070
     4
1000
14
1002
{
1002
}
1000
15GENINF
1070
     4
1000
15
1002
{
1002
}
1000
16GENINF
1070
     4
1000
16
1002
{
1002
}
1000
17GENINF
1070
     4
1000
17
1002
{
1002
}
1000
18GENINF
1070
     4
1000
18
1002
{
1002
}
1000
19GENINF
1070
     4
1000
19
1002
{
1002
}
1000
20GENINF
1070
     4
1000
20
1002
{
1002
}
1000
21GENINF
1070
     4
1000
21
1002
{
1002
}
1000
22GENINF
1070
     4
1000
22
1002
{
1002
}
1000
23GENINF
1070
     4
1000
23
1002
{
1002
}
1000
24GENINF
1070
     4
1000
24
1002
{
1002
}
1000
0GENINF
1070
     4
1000
0
1002
{
1002
}
1002
}
1000
GENINFO
1070
     0
1002
{
1000
3GENINF
1070
     4
1000
3
1002
{
1002
}
1000
4GENINF
1070
     4
1000
4
1002
{
1002
}
1000
5GENINF
1070
     4
1000
5
1002
{
1002
}
1000
6GENINF
1070
     4
1000
6
1002
{
1002
}
1000
7GENINF
1070
     4
1000
7
1002
{
1002
}
1000
8GENINF
1070
     4
1000
8
1002
{
1002
}
1000
9GENINF
1070
     4
1000
9
1002
{
1002
}
1000
10GENINF
1070
     4
1000
10
1002
{
1002
}
1000
11GENINF
1070
     4
1000
11
1002
{
1002
}
1000
12GENINF
1070
     4
1000
12
1002
{
1002
}
1000
13GENINF
1070
     4
1000
13
1002
{
1002
}
1000
14GENINF
1070
     4
1000
14
1002
{
1002
}
1000
15GENINF
1070
     4
1000
15
1002
{
1002
}
1000
16GENINF
1070
     4
1000
16
1002
{
1002
}
1000
17GENINF
1070
     4
1000
17
1002
{
1002
}
1000
18GENINF
1070
     4
1000
18
1002
{
1002
}
1000
19GENINF
1070
     4
1000
19
1002
{
1002
}
1000
20GENINF
1070
     4
1000
20
1002
{
1002
}
1000
21GENINF
1070
     4
1000
21
1002
{
1002
}
1000
22GENINF
1070
     4
1000
22
1002
{
1002
}
1002
}
1000
DININFO
1070
     0
1002
{
1000
ST-NAME1
1070
     4
1000
5
1002
{
1002
}
1000
ST-NAME2
1070
     4
1000
6
1002
{
1002
}
1000
ST-NORM1
1070
     4
1000
7
1002
{
1002
}
1000
ST-NORM2
1070
     4
1000
8
1002
{
1002
}
1000
ST-MAT1
1070
     4
1000
9
1002
{
1002
}
1000
ST-MAT2
1070
     4
1000
10
1002
{
1002
}
1002
}
1002
}
1000
POS_NUMBERS
1070
     0
1002
{
1000
GENPOS14
1070
     0
1002
{
1000
1GENPOS
1070
     4
1000
1
1002
{
1002
}
1000
2GENPOS
1070
     4
1000
2
1002
{
1002
}
1000
5GENPOS
1070
     4
1000
5
1002
{
1002
}
1000
7GENPOS
1070
     4
1000
7
1002
{
1002
}
1000
9GENPOS
1070
     4
1000
9
1002
{
1002
}
1000
11GENPOS
1070
     4
1000
11
1002
{
1002
}
1000
14GENPOS
1070
     4
1000
14
1002
{
1002
}
1002
}
1000
GENPOS13
1070
     0
1002
{
1000
1GENPOS
1070
     4
1000
1
1002
{
1002
}
1000
2GENPOS
1070
     4
1000
2
1002
{
1002
}
1000
3GENPOS
1070
     4
1000
3
1002
{
1002
}
1000
4GENPOS
1070
     4
1000
4
1002
{
1002
}
1000
5GENPOS
1070
     4
1000
5
1002
{
1002
}
1000
6GENPOS
1070
     4
1000
6
1002
{
1002
}
1000
7GENPOS
1070
     4
1000
7
1002
{
1002
}
1000
8GENPOS
1070
     4
1000
8
1002
{
1002
}
1000
9GENPOS
1070
     4
1000
9
1002
{
1002
}
1000
10GENPOS
1070
     4
1000
10
1002
{
1002
}
1000
11GENPOS
1070
     4
1000
11
1002
{
1002
}
1000
12GENPOS
1070
     4
1000
12
1002
{
1002
}
1000
13GENPOS
1070
     4
1000
13
1002
{
1002
}
1000
14GENPOS
1070
     4
1000
14
1002
{
1002
}
1000
15GENPOS
1070
     4
1000
15
1002
{
1002
}
1000
16GENPOS
1070
     4
1000
16
1002
{
1002
}
1000
17GENPOS
1070
     4
1000
17
1002
{
1002
}
1000
18GENPOS
1070
     4
1000
18
1002
{
1002
}
1000
19GENPOS
1070
     4
1000
19
1002
{
1002
}
1000
20GENPOS
1070
     4
1000
20
1002
{
1002
}
1000
21GENPOS
1070
     4
1000
21
1002
{
1002
}
1000
22GENPOS
1070
     4
1000
22
1002
{
1002
}
1000
23GENPOS
1070
     4
1000
23
1002
{
1002
}
1000
24GENPOS
1070
     4
1000
24
1002
{
1002
}
1000
0GENPOS
1070
     4
1000
0
1002
{
1002
}
1002
}
1000
GENPOS
1070
     0
1002
{
1000
1GENPOS
1070
     4
1000
1
1002
{
1002
}
1000
2GENPOS
1070
     4
1000
2
1002
{
1002
}
1000
3GENPOS
1070
     4
1000
3
1002
{
1002
}
1000
4GENPOS
1070
     4
1000
4
1002
{
1002
}
1000
5GENPOS
1070
     4
1000
5
1002
{
1002
}
1000
6GENPOS
1070
     4
1000
6
1002
{
1002
}
1000
7GENPOS
1070
     4
1000
7
1002
{
1002
}
1000
8GENPOS
1070
     4
1000
8
1002
{
1002
}
1000
9GENPOS
1070
     4
1000
9
1002
{
1002
}
1000
10GENPOS
1070
     4
1000
10
1002
{
1002
}
1000
11GENPOS
1070
     4
1000
11
1002
{
1002
}
1000
12GENPOS
1070
     4
1000
12
1002
{
1002
}
1000
13GENPOS
1070
     4
1000
13
1002
{
1002
}
1000
14GENPOS
1070
     4
1000
14
1002
{
1002
}
1000
15GENPOS
1070
     4
1000
15
1002
{
1002
}
1000
16GENPOS
1070
     4
1000
16
1002
{
1002
}
1000
17GENPOS
1070
     4
1000
17
1002
{
1002
}
1000
18GENPOS
1070
     4
1000
18
1002
{
1002
}
1000
19GENPOS
1070
     4
1000
19
1002
{
1002
}
1000
20GENPOS
1070
     4
1000
20
1002
{
1002
}
1000
21GENPOS
1070
     4
1000
21
1002
{
1002
}
1000
22GENPOS
1070
     4
1000
22
1002
{
1002
}
1000
23GENPOS
1070
     4
1000
23
1002
{
1002
}
1002
}
1000
DIN985
1070
     0
1002
{
1000
POSITION
1070
     4
1000
1
1002
{
1002
}
1000
MENGE
1070
     4
1000
2
1002
{
1002
}
1000
BLATT
1070
     4
1000
3
1002
{
1002
}
1000
BENENN
1070
     4
1000
5
1002
{
1002
}
1000
BENENN2
1070
     4
1000
6
1002
{
1002
}
1000
NORM
1070
     4
1000
7
1002
{
1002
}
1000
NORM2
1070
     4
1000
8
1002
{
1002
}
1000
WERKSTOFF
1070
     4
1000
9
1002
{
1002
}
1000
WERKSTOFF2
1070
     4
1000
10
1002
{
1002
}
1002
}
1000
DIN986
1070
     0
1002
{
1000
POSITION
1070
     4
1000
1
1002
{
1002
}
1000
MENGE
1070
     4
1000
2
1002
{
1002
}
1000
BLATT
1070
     4
1000
3
1002
{
1002
}
1000
BENENN
1070
     4
1000
5
1002
{
1002
}
1000
BENENN2
1070
     4
1000
6
1002
{
1002
}
1000
NORM
1070
     4
1000
7
1002
{
1002
}
1000
NORM2
1070
     4
1000
8
1002
{
1002
}
1000
WERKSTOFF
1070
     4
1000
9
1002
{
1002
}
1000
WERKSTOFF2
1070
     4
1000
10
1002
{
1002
}
1002
}
1000
DIN987
1070
     0
1002
{
1000
POSITION
1070
     4
1000
1
1002
{
1002
}
1000
MENGE
1070
     4
1000
2
1002
{
1002
}
1000
BLATT
1070
     4
1000
3
1002
{
1002
}
1000
BENENN
1070
     4
1000
5
1002
{
1002
}
1000
BENENN2
1070
     4
1000
6
1002
{
1002
}
1000
NORM
1070
     4
1000
7
1002
{
1002
}
1000
NORM2
1070
     4
1000
8
1002
{
1002
}
1000
WERKSTOFF
1070
     4
1000
9
1002
{
1002
}
1000
WERKSTOFF2
1070
     4
1000
10
1002
{
1002
}
1002
}
1002
}
  0
APPID
  5
1295
330
1231
100
AcDbSymbolTableRecord
100
AcDbRegAppTableRecord
  2
GENIUS_GENCFG1_13
 70
     0
1001
GENIUS_GENCFG_13
1071
1020868017
1000
1295
1000
GEN@INFO_POS
1070
     7
1000
GenCfgObject
1000
GenCfgShort
1000
GenCfgReal
1000
GenCfgBool
1000
GenCfgString
1000
GenCfgDim
1000
GenCfgAttrInf
1000
DescrText
1070
     4
1000
5, ,6, ,7, ,8
1002
{
1002
}
1000
DescrText2
1070
     4
1000
26
1002
{
1002
}
1000
VisibleAttr1
1070
     4
1000
1
1002
{
1002
}
1000
VisibleAttr2
1070
     4
1000
26
1002
{
1002
}
1000
UpdateBlock
1070
     3
1070
     1
1002
{
1002
}
1000
Attrib
1070
     0
1002
{
1000
0
1070
     6
1002
{
1000
Prompt
1070
     4
1000
(genmsg gendwg 103)
1002
{
1002
}
1000
Value
1070
     4
1000

1002
{
1002
}
1000
EditFlag
1070
     1
1070
     0
1002
{
1002
}
1000
PosInDDATTE
1070
     1
1070
    27
1002
{
1002
}
1000
FieldLen
1070
     1
1070
    -1
1002
{
1002
}
1002
}
1000
1
1070
     6
1002
{
1000
Prompt
1070
     4
1000
(genmsg gendwg 31)
1002
{
1002
}
1000
Value
1070
     4
1000
1
1002
{
1002
}
1000
EditFlag
1070
     1
1070
     1
1002
{
1002
}
1000
PosInDDATTE
1070
     1
1070
     1
1002
{
1002
}
1000
FieldLen
1070
     1
1070
    -1
1002
{
1002
}
1002
}
1000
2
1070
     6
1002
{
1000
Prompt
1070
     4
1000
(genmsg gendwg 32)
1002
{
1002
}
1000
Value
1070
     4
1000
1
1002
{
1002
}
1000
EditFlag
1070
     1
1070
     1
1002
{
1002
}
1000
PosInDDATTE
1070
     1
1070
     2
1002
{
1002
}
1000
FieldLen
1070
     1
1070
    -1
1002
{
1002
}
1002
}
1000
3
1070
     6
1002
{
1000
Prompt
1070
     4
1000
(genmsg gendwg 33)
1002
{
1002
}
1000
Value
1070
     4
1000

1002
{
1002
}
1000
EditFlag
1070
     1
1070
     1
1002
{
1002
}
1000
PosInDDATTE
1070
     1
1070
     3
1002
{
1002
}
1000
FieldLen
1070
     1
1070
    -1
1002
{
1002
}
1002
}
1000
4
1070
     6
1002
{
1000
Prompt
1070
     4
1000
(genmsg gendwg 34)
1002
{
1002
}
1000
Value
1070
     4
1000

1002
{
1002
}
1000
EditFlag
1070
     1
1070
     1
1002
{
1002
}
1000
PosInDDATTE
1070
     1
1070
     4
1002
{
1002
}
1000
FieldLen
1070
     1
1070
    -1
1002
{
1002
}
1002
}
1000
5
1070
     6
1002
{
1000
Prompt
1070
     4
1000
(genmsg gendwg 35)
1002
{
1002
}
1000
Value
1070
     4
1000

1002
{
1002
}
1000
EditFlag
1070
     1
1070
     1
1002
{
1002
}
1000
PosInDDATTE
1070
     1
1070
     5
1002
{
1002
}
1000
FieldLen
1070
     1
1070
    -1
1002
{
1002
}
1002
}
1000
6
1070
     6
1002
{
1000
Prompt
1070
     4
1000
(genmsg gendwg 36)
1002
{
1002
}
1000
Value
1070
     4
1000

1002
{
1002
}
1000
EditFlag
1070
     1
1070
     1
1002
{
1002
}
1000
PosInDDATTE
1070
     1
1070
     6
1002
{
1002
}
1000
FieldLen
1070
     1
1070
    -1
1002
{
1002
}
1002
}
1000
7
1070
     6
1002
{
1000
Prompt
1070
     4
1000
(genmsg gendwg 37)
1002
{
1002
}
1000
Value
1070
     4
1000

1002
{
1002
}
1000
EditFlag
1070
     1
1070
     1
1002
{
1002
}
1000
PosInDDATTE
1070
     1
1070
     7
1002
{
1002
}
1000
FieldLen
1070
     1
1070
    -1
1002
{
1002
}
1002
}
1000
8
1070
     6
1002
{
1000
Prompt
1070
     4
1000
(genmsg gendwg 38)
1002
{
1002
}
1000
Value
1070
     4
1000

1002
{
1002
}
1000
EditFlag
1070
     1
1070
     1
1002
{
1002
}
1000
PosInDDATTE
1070
     1
1070
     8
1002
{
1002
}
1000
FieldLen
1070
     1
1070
    -1
1002
{
1002
}
1002
}
1000
9
1070
     6
1002
{
1000
Prompt
1070
     4
1000
(genmsg gendwg 39)
1002
{
1002
}
1000
Value
1070
     4
1000

1002
{
1002
}
1000
EditFlag
1070
     1
1070
     1
1002
{
1002
}
1000
PosInDDATTE
1070
     1
1070
     9
1002
{
1002
}
1000
FieldLen
1070
     1
1070
    -1
1002
{
1002
}
1002
}
1000
10
1070
     6
1002
{
1000
Prompt
1070
     4
1000
(genmsg gendwg 40)
1002
{
1002
}
1000
Value
1070
     4
1000

1002
{
1002
}
1000
EditFlag
1070
     1
1070
     1
1002
{
1002
}
1000
PosInDDATTE
1070
     1
1070
    10
1002
{
1002
}
1000
FieldLen
1070
     1
1070
    -1
1002
{
1002
}
1002
}
1000
11
1070
     6
1002
{
1000
Prompt
1070
     4
1000
(genmsg gendwg 41)
1002
{
1002
}
1000
Value
1070
     4
1000

1002
{
1002
}
1000
EditFlag
1070
     1
1070
     1
1002
{
1002
}
1000
PosInDDATTE
1070
     1
1070
    11
1002
{
1002
}
1000
FieldLen
1070
     1
1070
    -1
1002
{
1002
}
1002
}
1000
12
1070
     6
1002
{
1000
Prompt
1070
     4
1000
(genmsg gendwg 42)
1002
{
1002
}
1000
Value
1070
     4
1000

1002
{
1002
}
1000
EditFlag
1070
     1
1070
     1
1002
{
1002
}
1000
PosInDDATTE
1070
     1
1070
    12
1002
{
1002
}
1000
FieldLen
1070
     1
1070
    -1
1002
{
1002
}
1002
}
1000
13
1070
     6
1002
{
1000
Prompt
1070
     4
1000
(genmsg gendwg 43)
1002
{
1002
}
1000
Value
1070
     4
1000

1002
{
1002
}
1000
EditFlag
1070
     1
1070
     1
1002
{
1002
}
1000
PosInDDATTE
1070
     1
1070
    13
1002
{
1002
}
1000
FieldLen
1070
     1
1070
    -1
1002
{
1002
}
1002
}
1000
14
1070
     6
1002
{
1000
Prompt
1070
     4
1000
(genmsg gendwg 44)
1002
{
1002
}
1000
Value
1070
     4
1000

1002
{
1002
}
1000
EditFlag
1070
     1
1070
     1
1002
{
1002
}
1000
PosInDDATTE
1070
     1
1070
    14
1002
{
1002
}
1000
FieldLen
1070
     1
1070
    -1
1002
{
1002
}
1002
}
1000
15
1070
     6
1002
{
1000
Prompt
1070
     4
1000
(genmsg gendwg 45)
1002
{
1002
}
1000
Value
1070
     4
1000

1002
{
1002
}
1000
EditFlag
1070
     1
1070
     1
1002
{
1002
}
1000
PosInDDATTE
1070
     1
1070
    15
1002
{
1002
}
1000
FieldLen
1070
     1
1070
    -1
1002
{
1002
}
1002
}
1000
16
1070
     6
1002
{
1000
Prompt
1070
     4
1000
(genmsg gendwg 46)
1002
{
1002
}
1000
Value
1070
     4
1000

1002
{
1002
}
1000
EditFlag
1070
     1
1070
     1
1002
{
1002
}
1000
PosInDDATTE
1070
     1
1070
    16
1002
{
1002
}
1000
FieldLen
1070
     1
1070
    -1
1002
{
1002
}
1002
}
1000
17
1070
     6
1002
{
1000
Prompt
1070
     4
1000
(genmsg gendwg 47)
1002
{
1002
}
1000
Value
1070
     4
1000

1002
{
1002
}
1000
EditFlag
1070
     1
1070
     1
1002
{
1002
}
1000
PosInDDATTE
1070
     1
1070
    17
1002
{
1002
}
1000
FieldLen
1070
     1
1070
    -1
1002
{
1002
}
1002
}
1000
18
1070
     6
1002
{
1000
Prompt
1070
     4
1000
(genmsg gendwg 48)
1002
{
1002
}
1000
Value
1070
     4
1000

1002
{
1002
}
1000
EditFlag
1070
     1
1070
     1
1002
{
1002
}
1000
PosInDDATTE
1070
     1
1070
    18
1002
{
1002
}
1000
FieldLen
1070
     1
1070
    -1
1002
{
1002
}
1002
}
1000
19
1070
     6
1002
{
1000
Prompt
1070
     4
1000
(genmsg gendwg 99)
1002
{
1002
}
1000
Value
1070
     4
1000

1002
{
1002
}
1000
EditFlag
1070
     1
1070
     1
1002
{
1002
}
1000
PosInDDATTE
1070
     1
1070
    19
1002
{
1002
}
1000
FieldLen
1070
     1
1070
    -1
1002
{
1002
}
1002
}
1000
20
1070
     6
1002
{
1000
Prompt
1070
     4
1000
(genmsg gendwg 100)
1002
{
1002
}
1000
Value
1070
     4
1000

1002
{
1002
}
1000
EditFlag
1070
     1
1070
     1
1002
{
1002
}
1000
PosInDDATTE
1070
     1
1070
    20
1002
{
1002
}
1000
FieldLen
1070
     1
1070
    -1
1002
{
1002
}
1002
}
1000
21
1070
     6
1002
{
1000
Prompt
1070
     4
1000
(genmsg gendwg 101)
1002
{
1002
}
1000
Value
1070
     4
1000

1002
{
1002
}
1000
EditFlag
1070
     1
1070
     1
1002
{
1002
}
1000
PosInDDATTE
1070
     1
1070
    21
1002
{
1002
}
1000
FieldLen
1070
     1
1070
    -1
1002
{
1002
}
1002
}
1000
22
1070
     6
1002
{
1000
Prompt
1070
     4
1000
(genmsg gendwg 102)
1002
{
1002
}
1000
Value
1070
     4
1000

1002
{
1002
}
1000
EditFlag
1070
     1
1070
     1
1002
{
1002
}
1000
PosInDDATTE
1070
     1
1070
    22
1002
{
1002
}
1000
FieldLen
1070
     1
1070
    -1
1002
{
1002
}
1002
}
1000
23
1070
     6
1002
{
1000
Prompt
1070
     4
1000
(genmsg gendwg 30)
1002
{
1002
}
1000
Value
1070
     4
1000

1002
{
1002
}
1000
EditFlag
1070
     1
1070
     1
1002
{
1002
}
1000
PosInDDATTE
1070
     1
1070
    23
1002
{
1002
}
1000
FieldLen
1070
     1
1070
    -1
1002
{
1002
}
1002
}
1000
24
1070
     6
1002
{
1000
Prompt
1070
     4
1000
(genmsg gendwg 104)
1002
{
1002
}
1000
Value
1070
     4
1000

1002
{
1002
}
1000
EditFlag
1070
     1
1070
     1
1002
{
1002
}
1000
PosInDDATTE
1070
     1
1070
    24
1002
{
1002
}
1000
FieldLen
1070
     1
1070
    -1
1002
{
1002
}
1002
}
1000
25
1070
     6
1002
{
1000
Prompt
1070
     4
1000
(genmsg gendwg 105)
1002
{
1002
}
1000
Value
1070
     4
1000

1002
{
1002
}
1000
EditFlag
1070
     1
1070
     1
1002
{
1002
}
1000
PosInDDATTE
1070
     1
1070
    25
1002
{
1002
}
1000
FieldLen
1070
     1
1070
    -1
1002
{
1002
}
1002
}
1000
26
1070
     6
1002
{
1000
Prompt
1070
     4
1000
(genmsg gendwg 106)
1002
{
1002
}
1000
Value
1070
     4
1000

1002
{
1002
}
1000
EditFlag
1070
     1
1070
     1
1002
{
1002
}
1000
PosInDDATTE
1070
     1
1070
    26
1002
{
1002
}
1000
FieldLen
1070
     1
1070
    -1
1002
{
1002
}
1002
}
1000
27
1070
     6
1002
{
1000
Prompt
1070
     4
1000
(genmsg gendwg 109)
1002
{
1002
}
1000
Value
1070
     4
1000

1002
{
1002
}
1000
EditFlag
1070
     1
1070
     2
1002
{
1002
}
1000
PosInDDATTE
1070
     1
1070
    27
1002
{
1002
}
1000
FieldLen
1070
     1
1070
    -1
1002
{
1002
}
1002
}
1002
}
1000
Xlate
1070
     0
1002
{
1000
>
1002
}
  0
APPID
  5
1296
330
1231
100
AcDbSymbolTableRecord
100
AcDbRegAppTableRecord
  2
GENIUS_GENCFG2_13
 70
     0
1001
GENIUS_GENCFG_13
1071
1020868017
1000
1296
1000
GEN@LAYER@DEFS
1070
     9
1000
GenCfgObject
1000
GenCfgShort
1000
GenCfgReal
1000
GenCfgBool
1000
GenCfgString
1000
GenCfgDim
1000
GenCfgAttrInf
1000
GenCfgLaySection
1000
GenCfgLayer
1000
Basic
1070
     0
1002
{
1000
0
1070
     8
1000
0
1002
{
1000
Color
1070
     1
1070
     7
1002
{
1002
}
1000
LType
1070
     4
1000
CONTINUOUS
1002
{
1002
}
1000
Base
1070
     3
1070
     0
1002
{
1002
}
1002
}
1000
1
1070
     8
1000
1
1002
{
1000
Color
1070
     1
1070
    14
1002
{
1002
}
1000
LType
1070
     4
1000
CONTINUOUS
1002
{
1002
}
1000
Base
1070
     3
1070
     0
1002
{
1002
}
1002
}
1000
2
1070
     8
1000
2
1002
{
1000
Color
1070
     1
1070
     5
1002
{
1002
}
1000
LType
1070
     4
1000
CONTINUOUS
1002
{
1002
}
1000
Base
1070
     3
1070
     0
1002
{
1002
}
1002
}
1000
3
1070
     8
1000
3
1002
{
1000
Color
1070
     1
1070
     6
1002
{
1002
}
1000
LType
1070
     4
1000
GEN3
1002
{
1002
}
1000
Base
1070
     3
1070
     0
1002
{
1002
}
1002
}
1000
4
1070
     8
1000
4
1002
{
1000
Color
1070
     1
1070
     3
1002
{
1002
}
1000
LType
1070
     4
1000
CONTINUOUS
1002
{
1002
}
1000
Base
1070
     3
1070
     0
1002
{
1002
}
1002
}
1000
5
1070
     8
1000
5
1002
{
1000
Color
1070
     1
1070
     3
1002
{
1002
}
1000
LType
1070
     4
1000
CONTINUOUS
1002
{
1002
}
1000
Base
1070
     3
1070
     0
1002
{
1002
}
1002
}
1000
6
1070
     8
1000
6
1002
{
1000
Color
1070
     1
1070
     2
1002
{
1002
}
1000
LType
1070
     4
1000
CONTINUOUS
1002
{
1002
}
1000
Base
1070
     3
1070
     0
1002
{
1002
}
1002
}
1000
7
1070
     8
1000
7
1002
{
1000
Color
1070
     1
1070
     4
1002
{
1002
}
1000
LType
1070
     4
1000
GEN7
1002
{
1002
}
1000
Base
1070
     3
1070
     0
1002
{
1002
}
1002
}
1000
8
1070
     8
1000
8
1002
{
1000
Color
1070
     1
1070
     1
1002
{
1002
}
1000
LType
1070
     4
1000
CONTINUOUS
1002
{
1002
}
1000
Base
1070
     3
1070
     0
1002
{
1002
}
1002
}
1000
3A
1070
     8
1000
3A
1002
{
1000
Color
1070
     1
1070
     6
1002
{
1002
}
1000
LType
1070
     4
1000
GEN3A
1002
{
1002
}
1000
Base
1070
     3
1070
     0
1002
{
1002
}
1002
}
1000
7A
1070
     8
1000
7A
1002
{
1000
Color
1070
     1
1070
     4
1002
{
1002
}
1000
LType
1070
     4
1000
GEN7A
1002
{
1002
}
1000
Base
1070
     3
1070
     0
1002
{
1002
}
1002
}
1000
2A
1070
     8
1000
2A
1002
{
1000
Color
1070
     1
1070
     7
1002
{
1002
}
1000
LType
1070
     4
1000
GEN7
1002
{
1002
}
1000
Base
1070
     3
1070
     0
1002
{
1002
}
1002
}
1000
4A
1070
     8
1000
4A
1002
{
1000
Color
1070
     1
1070
     3
1002
{
1002
}
1000
LType
1070
     4
1000
GEN4A
1002
{
1002
}
1000
Base
1070
     3
1070
     0
1002
{
1002
}
1002
}
1000
9
1070
     8
1000
9
1002
{
1000
Color
1070
     1
1070
   253
1002
{
1002
}
1000
LType
1070
     4
1000
CONTINUOUS
1002
{
1002
}
1000
Base
1070
     3
1070
     0
1002
{
1002
}
1002
}
1000
IP
1070
     8
1000
IP
1002
{
1000
Color
1070
     1
1070
     7
1002
{
1002
}
1000
LType
1070
     4
1000
CONTINUOUS
1002
{
1002
}
1000
Base
1070
     3
1070
     0
1002
{
1002
}
1002
}
1002
}
1000
Standard
1070
     0
1002
{
1000
0N
1070
     8
1000
0N
1002
{
1000
Color
1070
     1
1070
     7
1002
{
1002
}
1000
LType
1070
     4
1000
CONTINUOUS
1002
{
1002
}
1000
Base
1070
     3
1070
     0
1002
{
1002
}
1002
}
1000
1N
1070
     8
1000
1N
1002
{
1000
Color
1070
     1
1070
    14
1002
{
1002
}
1000
LType
1070
     4
1000
CONTINUOUS
1002
{
1002
}
1000
Base
1070
     3
1070
     0
1002
{
1002
}
1002
}
1000
2N
1070
     8
1000
2N
1002
{
1000
Color
1070
     1
1070
     5
1002
{
1002
}
1000
LType
1070
     4
1000
CONTINUOUS
1002
{
1002
}
1000
Base
1070
     3
1070
     0
1002
{
1002
}
1002
}
1000
3N
1070
     8
1000
3N
1002
{
1000
Color
1070
     1
1070
     6
1002
{
1002
}
1000
LType
1070
     4
1000
GEN3
1002
{
1002
}
1000
Base
1070
     3
1070
     0
1002
{
1002
}
1002
}
1000
4N
1070
     8
1000
4N
1002
{
1000
Color
1070
     1
1070
     3
1002
{
1002
}
1000
LType
1070
     4
1000
CONTINUOUS
1002
{
1002
}
1000
Base
1070
     3
1070
     0
1002
{
1002
}
1002
}
1000
5N
1070
     8
1000
5N
1002
{
1000
Color
1070
     1
1070
     3
1002
{
1002
}
1000
LType
1070
     4
1000
CONTINUOUS
1002
{
1002
}
1000
Base
1070
     3
1070
     0
1002
{
1002
}
1002
}
1000
6N
1070
     8
1000
6N
1002
{
1000
Color
1070
     1
1070
     2
1002
{
1002
}
1000
LType
1070
     4
1000
CONTINUOUS
1002
{
1002
}
1000
Base
1070
     3
1070
     0
1002
{
1002
}
1002
}
1000
7N
1070
     8
1000
7N
1002
{
1000
Color
1070
     1
1070
     4
1002
{
1002
}
1000
LType
1070
     4
1000
GEN7
1002
{
1002
}
1000
Base
1070
     3
1070
     0
1002
{
1002
}
1002
}
1000
8N
1070
     8
1000
8N
1002
{
1000
Color
1070
     1
1070
     1
1002
{
1002
}
1000
LType
1070
     4
1000
CONTINUOUS
1002
{
1002
}
1000
Base
1070
     3
1070
     0
1002
{
1002
}
1002
}
1000
3AN
1070
     8
1000
3AN
1002
{
1000
Color
1070
     1
1070
     6
1002
{
1002
}
1000
LType
1070
     4
1000
GEN3A
1002
{
1002
}
1000
Base
1070
     3
1070
     0
1002
{
1002
}
1002
}
1000
7AN
1070
     8
1000
7AN
1002
{
1000
Color
1070
     1
1070
     4
1002
{
1002
}
1000
LType
1070
     4
1000
GEN7A
1002
{
1002
}
1000
Base
1070
     3
1070
     0
1002
{
1002
}
1002
}
1000
2AN
1070
     8
1000
2AN
1002
{
1000
Color
1070
     1
1070
     7
1002
{
1002
}
1000
LType
1070
     4
1000
GEN7
1002
{
1002
}
1000
Base
1070
     3
1070
     0
1002
{
1002
}
1002
}
1000
4AN
1070
     8
1000
4AN
1002
{
1000
Color
1070
     1
1070
     3
1002
{
1002
}
1000
LType
1070
     4
1000
GEN4A
1002
{
1002
}
1000
Base
1070
     3
1070
     0
1002
{
1002
}
1002
}
1000
9N
1070
     8
1000
9N
1002
{
1000
Color
1070
     1
1070
   253
1002
{
1002
}
1000
LType
1070
     4
1000
CONTINUOUS
1002
{
1002
}
1000
Base
1070
     3
1070
     0
1002
{
1002
}
1002
}
1000
IPN
1070
     8
1000
IPN
1002
{
1000
Color
1070
     1
1070
     7
1002
{
1002
}
1000
LType
1070
     4
1000
CONTINUOUS
1002
{
1002
}
1000
Base
1070
     3
1070
     0
1002
{
1002
}
1002
}
1002
}
1000
Extra
1070
     0
1002
{
1000
Klin
1070
     8
1000
KLIN
1002
{
1000
Color
1070
     1
1070
     1
1002
{
1002
}
1000
LType
1070
     4
1000
CONTINUOUS
1002
{
1002
}
1000
Base
1070
     3
1070
     1
1002
{
1002
}
1002
}
1000
Info
1070
     8
1000
INFO
1002
{
1000
Color
1070
     1
1070
     4
1002
{
1002
}
1000
LType
1070
     4
1000
CONTINUOUS
1002
{
1002
}
1000
Base
1070
     3
1070
     1
1002
{
1002
}
1002
}
1000
Rahm2
1070
     8
1000
RAHM2
1002
{
1000
Color
1070
     1
1070
     1
1002
{
1002
}
1000
LType
1070
     4
1000
CONTINUOUS
1002
{
1002
}
1000
Base
1070
     3
1070
     1
1002
{
1002
}
1002
}
1000
Rahm3
1070
     8
1000
RAHM3
1002
{
1000
Color
1070
     1
1070
     2
1002
{
1002
}
1000
LType
1070
     4
1000
CONTINUOUS
1002
{
1002
}
1000
Base
1070
     3
1070
     1
1002
{
1002
}
1002
}
1000
Rahm5
1070
     8
1000
RAHM5
1002
{
1000
Color
1070
     1
1070
     7
1002
{
1002
}
1000
LType
1070
     4
1000
CONTINUOUS
1002
{
1002
}
1000
Base
1070
     3
1070
     1
1002
{
1002
}
1002
}
1000
View
1070
     8
1000
VIEW
1002
{
1000
Color
1070
     1
1070
     1
1002
{
1002
}
1000
LType
1070
     4
1000
CONTINUOUS
1002
{
1002
}
1000
Base
1070
     3
1070
     1
1002
{
1002
}
1002
}
1000
Behind
1070
     8
1000
BEHIND
1002
{
1000
Color
1070
     1
1070
   253
1002
{
1002
}
1000
LType
1070
     4
1000
CONTINUOUS
1002
{
1002
}
1000
Base
1070
     3
1070
     1
1002
{
1002
}
1002
}
1002
}
  0
APPID
  5
1297
330
1231
100
AcDbSymbolTableRecord
100
AcDbRegAppTableRecord
  2
GENIUS_GENCFG3_13
 70
     0
1001
GENIUS_GENCFG_13
1071
1020868017
1000
1297
1000
GEN@LAYER@ENTSORT
1070
    10
1000
GenCfgObject
1000
GenCfgShort
1000
GenCfgReal
1000
GenCfgBool
1000
GenCfgString
1000
GenCfgDim
1000
GenCfgAttrInf
1000
GenCfgLaySection
1000
GenCfgLayer
1000
GenCfgEntSort
1000
ADDL
1070
     9
1000
5
1002
{
1000
Class
1070
     4
1000
SYM
1002
{
1002
}
1000
Color
1070
     1
1070
     1
1002
{
1002
}
1000
LType
1070
     4
1000
BYLAYER
1002
{
1002
}
1002
}
1000
ALTR
1070
     9
1000
4
1002
{
1000
Class
1070
     4
1000

1002
{
1002
}
1000
Color
1070
     1
1070
     7
1002
{
1002
}
1000
LType
1070
     4
1000
GEN3A
1002
{
1002
}
1002
}
1000
BELI
1070
     9
1000
4
1002
{
1000
Class
1070
     4
1000

1002
{
1002
}
1000
Color
1070
     1
1070
   256
1002
{
1002
}
1000
LType
1070
     4
1000
BYLAYER
1002
{
1002
}
1002
}
1000
BHNV
1070
     9
1000
9
1002
{
1000
Class
1070
     4
1000
INV
1002
{
1002
}
1000
Color
1070
     1
1070
   256
1002
{
1002
}
1000
LType
1070
     4
1000
BYLAYER
1002
{
1002
}
1002
}
1000
BHNVS
1070
     9
1000
BEHIND
1002
{
1000
Class
1070
     4
1000
INV
1002
{
1002
}
1000
Color
1070
     1
1070
   256
1002
{
1002
}
1000
LType
1070
     4
1000
BYLAYER
1002
{
1002
}
1002
}
1000
BLID
1070
     9
1000
4A
1002
{
1000
Class
1070
     4
1000

1002
{
1002
}
1000
Color
1070
     1
1070
   256
1002
{
1002
}
1000
LType
1070
     4
1000
BYLAYER
1002
{
1002
}
1002
}
1000
BOAP
1070
     9
1000
4A
1002
{
1000
Class
1070
     4
1000

1002
{
1002
}
1000
Color
1070
     1
1070
   256
1002
{
1002
}
1000
LType
1070
     4
1000
BYLAYER
1002
{
1002
}
1002
}
1000
BOR2
1070
     9
1000
RAHM2
1002
{
1000
Class
1070
     4
1000
SPZ,SYM
1002
{
1002
}
1000
Color
1070
     1
1070
   256
1002
{
1002
}
1000
LType
1070
     4
1000
BYLAYER
1002
{
1002
}
1002
}
1000
BOR3
1070
     9
1000
RAHM3
1002
{
1000
Class
1070
     4
1000
SPZ,SYM
1002
{
1002
}
1000
Color
1070
     1
1070
   256
1002
{
1002
}
1000
LType
1070
     4
1000
BYLAYER
1002
{
1002
}
1002
}
1000
BOR5
1070
     9
1000
RAHM5
1002
{
1000
Class
1070
     4
1000
SPZ,SYM
1002
{
1002
}
1000
Color
1070
     1
1070
   256
1002
{
1002
}
1000
LType
1070
     4
1000
BYLAYER
1002
{
1002
}
1002
}
1000
BOR7
1070
     9
1000
RAHM5
1002
{
1000
Class
1070
     4
1000
SPZ,SYM
1002
{
1002
}
1000
Color
1070
     1
1070
     7
1002
{
1002
}
1000
LType
1070
     4
1000
CONTINUOUS
1002
{
1002
}
1002
}
1000
BPAP
1070
     9
1000
4A
1002
{
1000
Class
1070
     4
1000

1002
{
1002
}
1000
Color
1070
     1
1070
   256
1002
{
1002
}
1000
LType
1070
     4
1000
BYLAYER
1002
{
1002
}
1002
}
1000
BPEX
1070
     9
1000
4A
1002
{
1000
Class
1070
     4
1000

1002
{
1002
}
1000
Color
1070
     1
1070
   256
1002
{
1002
}
1000
LType
1070
     4
1000
BYLAYER
1002
{
1002
}
1002
}
1000
BTDI
1070
     9
1000
5
1002
{
1000
Class
1070
     4
1000
DIM,SYM
1002
{
1002
}
1000
Color
1070
     1
1070
   256
1002
{
1002
}
1000
LType
1070
     4
1000
BYLAYER
1002
{
1002
}
1002
}
1000
CAL2
1070
     9
1000
4
1002
{
1000
Class
1070
     4
1000
SYM
1002
{
1002
}
1000
Color
1070
     1
1070
   256
1002
{
1002
}
1000
LType
1070
     4
1000
BYLAYER
1002
{
1002
}
1002
}
1000
CAL3
1070
     9
1000
4
1002
{
1000
Class
1070
     4
1000
SYM
1002
{
1002
}
1000
Color
1070
     1
1070
     2
1002
{
1002
}
1000
LType
1070
     4
1000
BYLAYER
1002
{
1002
}
1002
}
1000
CAL5
1070
     9
1000
4
1002
{
1000
Class
1070
     4
1000
SYM
1002
{
1002
}
1000
Color
1070
     1
1070
     7
1002
{
1002
}
1000
LType
1070
     4
1000
BYLAYER
1002
{
1002
}
1002
}
1000
CAL7
1070
     9
1000
4
1002
{
1000
Class
1070
     4
1000
SYM
1002
{
1002
}
1000
Color
1070
     1
1070
     5
1002
{
1002
}
1000
LType
1070
     4
1000
BYLAYER
1002
{
1002
}
1002
}
1000
CENN
1070
     9
1000
7A
1002
{
1000
Class
1070
     4
1000
CEN
1002
{
1002
}
1000
Color
1070
     1
1070
   256
1002
{
1002
}
1000
LType
1070
     4
1000
BYLAYER
1002
{
1002
}
1002
}
1000
CENW
1070
     9
1000
7
1002
{
1000
Class
1070
     4
1000
CEN
1002
{
1002
}
1000
Color
1070
     1
1070
   256
1002
{
1002
}
1000
LType
1070
     4
1000
BYLAYER
1002
{
1002
}
1002
}
1000
CLIN
1070
     9
1000
KLIN
1002
{
1000
Class
1070
     4
1000
SPZ
1002
{
1002
}
1000
Color
1070
     1
1070
   256
1002
{
1002
}
1000
LType
1070
     4
1000
BYLAYER
1002
{
1002
}
1002
}
1000
CON1
1070
     9
1000
0
1002
{
1000
Class
1070
     4
1000
CON,BGD
1002
{
1002
}
1000
Color
1070
     1
1070
   256
1002
{
1002
}
1000
LType
1070
     4
1000
BYLAYER
1002
{
1002
}
1002
}
1000
CON2
1070
     9
1000
1
1002
{
1000
Class
1070
     4
1000
CON,BGD
1002
{
1002
}
1000
Color
1070
     1
1070
   256
1002
{
1002
}
1000
LType
1070
     4
1000
BYLAYER
1002
{
1002
}
1002
}
1000
CON3
1070
     9
1000
2
1002
{
1000
Class
1070
     4
1000
CON,BGD
1002
{
1002
}
1000
Color
1070
     1
1070
   256
1002
{
1002
}
1000
LType
1070
     4
1000
BYLAYER
1002
{
1002
}
1002
}
1000
CON4
1070
     9
1000
2
1002
{
1000
Class
1070
     4
1000
CON,BGD
1002
{
1002
}
1000
Color
1070
     1
1070
   256
1002
{
1002
}
1000
LType
1070
     4
1000
BYLAYER
1002
{
1002
}
1002
}
1000
DERP
1070
     9
1000
4
1002
{
1000
Class
1070
     4
1000

1002
{
1002
}
1000
Color
1070
     1
1070
   256
1002
{
1002
}
1000
LType
1070
     4
1000
BYLAYER
1002
{
1002
}
1002
}
1000
DETA
1070
     9
1000
4
1002
{
1000
Class
1070
     4
1000

1002
{
1002
}
1000
Color
1070
     1
1070
   256
1002
{
1002
}
1000
LType
1070
     4
1000
BYLAYER
1002
{
1002
}
1002
}
1000
DIAG
1070
     9
1000
5
1002
{
1000
Class
1070
     4
1000
SYM
1002
{
1002
}
1000
Color
1070
     1
1070
   256
1002
{
1002
}
1000
LType
1070
     4
1000
BYLAYER
1002
{
1002
}
1002
}
1000
DILI
1070
     9
1000
5
1002
{
1000
Class
1070
     4
1000
DIM,SYM
1002
{
1002
}
1000
Color
1070
     1
1070
   256
1002
{
1002
}
1000
LType
1070
     4
1000
BYLAYER
1002
{
1002
}
1002
}
1000
DITO2
1070
     9
1000
5
1002
{
1000
Class
1070
     4
1000
DIM,SYM
1002
{
1002
}
1000
Color
1070
     1
1070
     3
1002
{
1002
}
1000
LType
1070
     4
1000
BYLAYER
1002
{
1002
}
1002
}
1000
DITO3
1070
     9
1000
5
1002
{
1000
Class
1070
     4
1000
DIM,SYM
1002
{
1002
}
1000
Color
1070
     1
1070
     2
1002
{
1002
}
1000
LType
1070
     4
1000
BYLAYER
1002
{
1002
}
1002
}
1000
DITX
1070
     9
1000
5
1002
{
1000
Class
1070
     4
1000
DIM,SYM
1002
{
1002
}
1000
Color
1070
     1
1070
     2
1002
{
1002
}
1000
LType
1070
     4
1000
CONTINUOUS
1002
{
1002
}
1002
}
1000
DIXL
1070
     9
1000
5
1002
{
1000
Class
1070
     4
1000
DIM,SYM
1002
{
1002
}
1000
Color
1070
     1
1070
   256
1002
{
1002
}
1000
LType
1070
     4
1000
BYLAYER
1002
{
1002
}
1002
}
1000
EXMP
1070
     9
1000
4A
1002
{
1000
Class
1070
     4
1000

1002
{
1002
}
1000
Color
1070
     1
1070
   256
1002
{
1002
}
1000
LType
1070
     4
1000
BYLAYER
1002
{
1002
}
1002
}
1000
FEMN
1070
     9
1000
8
1002
{
1000
Class
1070
     4
1000

1002
{
1002
}
1000
Color
1070
     1
1070
   256
1002
{
1002
}
1000
LType
1070
     4
1000
BYLAYER
1002
{
1002
}
1002
}
1000
FEMPN
1070
     9
1000
8
1002
{
1000
Class
1070
     4
1000
SYM
1002
{
1002
}
1000
Color
1070
     1
1070
     3
1002
{
1002
}
1000
LType
1070
     4
1000
BYLAYER
1002
{
1002
}
1002
}
1000
FEMSP
1070
     9
1000
4A
1002
{
1000
Class
1070
     4
1000

1002
{
1002
}
1000
Color
1070
     1
1070
   256
1002
{
1002
}
1000
LType
1070
     4
1000
CONTINUOUS
1002
{
1002
}
1002
}
1000
FEMST
1070
     9
1000
4A
1002
{
1000
Class
1070
     4
1000
SYM
1002
{
1002
}
1000
Color
1070
     1
1070
     3
1002
{
1002
}
1000
LType
1070
     4
1000
BYLAYER
1002
{
1002
}
1002
}
1000
FEMVN
1070
     9
1000
2
1002
{
1000
Class
1070
     4
1000
CON
1002
{
1002
}
1000
Color
1070
     1
1070
   256
1002
{
1002
}
1000
LType
1070
     4
1000
BYLAYER
1002
{
1002
}
1002
}
1000
FEMVT
1070
     9
1000
2
1002
{
1000
Class
1070
     4
1000
SYM
1002
{
1002
}
1000
Color
1070
     1
1070
     3
1002
{
1002
}
1000
LType
1070
     4
1000
BYLAYER
1002
{
1002
}
1002
}
1000
FLAT
1070
     9
1000
0
1002
{
1000
Class
1070
     4
1000

1002
{
1002
}
1000
Color
1070
     1
1070
   256
1002
{
1002
}
1000
LType
1070
     4
1000
BYLAYER
1002
{
1002
}
1002
}
1000
FRAR
1070
     9
1000
4A
1002
{
1000
Class
1070
     4
1000

1002
{
1002
}
1000
Color
1070
     1
1070
   256
1002
{
1002
}
1000
LType
1070
     4
1000
BYLAYER
1002
{
1002
}
1002
}
1000
GRLI
1070
     9
1000
5
1002
{
1000
Class
1070
     4
1000
SYM
1002
{
1002
}
1000
Color
1070
     1
1070
   256
1002
{
1002
}
1000
LType
1070
     4
1000
BYLAYER
1002
{
1002
}
1002
}
1000
GVLI
1070
     9
1000
4A
1002
{
1000
Class
1070
     4
1000

1002
{
1002
}
1000
Color
1070
     1
1070
   256
1002
{
1002
}
1000
LType
1070
     4
1000
BYLAYER
1002
{
1002
}
1002
}
1000
HATC
1070
     9
1000
8
1002
{
1000
Class
1070
     4
1000
HTC,BGD
1002
{
1002
}
1000
Color
1070
     1
1070
   256
1002
{
1002
}
1000
LType
1070
     4
1000
BYLAYER
1002
{
1002
}
1002
}
1000
HIDN
1070
     9
1000
3A
1002
{
1000
Class
1070
     4
1000
HID,BGD
1002
{
1002
}
1000
Color
1070
     1
1070
   256
1002
{
1002
}
1000
LType
1070
     4
1000
BYLAYER
1002
{
1002
}
1002
}
1000
HIDW
1070
     9
1000
3
1002
{
1000
Class
1070
     4
1000
HID,BGD
1002
{
1002
}
1000
Color
1070
     1
1070
   256
1002
{
1002
}
1000
LType
1070
     4
1000
BYLAYER
1002
{
1002
}
1002
}
1000
HLIN
1070
     9
1000
4
1002
{
1000
Class
1070
     4
1000
BGD
1002
{
1002
}
1000
Color
1070
     1
1070
   256
1002
{
1002
}
1000
LType
1070
     4
1000
BYLAYER
1002
{
1002
}
1002
}
1000
HOCN
1070
     9
1000
7A
1002
{
1000
Class
1070
     4
1000
CEN
1002
{
1002
}
1000
Color
1070
     1
1070
   256
1002
{
1002
}
1000
LType
1070
     4
1000
BYLAYER
1002
{
1002
}
1002
}
1000
HOCW
1070
     9
1000
7
1002
{
1000
Class
1070
     4
1000
CEN
1002
{
1002
}
1000
Color
1070
     1
1070
   256
1002
{
1002
}
1000
LType
1070
     4
1000
BYLAYER
1002
{
1002
}
1002
}
1000
INFO
1070
     9
1000
INFO
1002
{
1000
Class
1070
     4
1000
SPZ,SYM
1002
{
1002
}
1000
Color
1070
     1
1070
   256
1002
{
1002
}
1000
LType
1070
     4
1000
BYLAYER
1002
{
1002
}
1002
}
1000
LADI
1070
     9
1000
4
1002
{
1000
Class
1070
     4
1000
BGD
1002
{
1002
}
1000
Color
1070
     1
1070
   256
1002
{
1002
}
1000
LType
1070
     4
1000
BYLAYER
1002
{
1002
}
1002
}
1000
LEAD
1070
     9
1000
5
1002
{
1000
Class
1070
     4
1000
SYM
1002
{
1002
}
1000
Color
1070
     1
1070
   256
1002
{
1002
}
1000
LType
1070
     4
1000
BYLAYER
1002
{
1002
}
1002
}
1000
N_ADDL
1070
     9
1000
5N
1002
{
1000
Class
1070
     4
1000
SYM
1002
{
1002
}
1000
Color
1070
     1
1070
     1
1002
{
1002
}
1000
LType
1070
     4
1000
BYLAYER
1002
{
1002
}
1002
}
1000
N_BHNV
1070
     9
1000
9N
1002
{
1000
Class
1070
     4
1000
INV
1002
{
1002
}
1000
Color
1070
     1
1070
   256
1002
{
1002
}
1000
LType
1070
     4
1000
BYLAYER
1002
{
1002
}
1002
}
1000
N_CON1
1070
     9
1000
0N
1002
{
1000
Class
1070
     4
1000
CON,BGD
1002
{
1002
}
1000
Color
1070
     1
1070
   256
1002
{
1002
}
1000
LType
1070
     4
1000
BYLAYER
1002
{
1002
}
1002
}
1000
N_CON2
1070
     9
1000
1N
1002
{
1000
Class
1070
     4
1000
CON,BGD
1002
{
1002
}
1000
Color
1070
     1
1070
   256
1002
{
1002
}
1000
LType
1070
     4
1000
BYLAYER
1002
{
1002
}
1002
}
1000
N_CON3
1070
     9
1000
2N
1002
{
1000
Class
1070
     4
1000
CON,BGD
1002
{
1002
}
1000
Color
1070
     1
1070
   256
1002
{
1002
}
1000
LType
1070
     4
1000
BYLAYER
1002
{
1002
}
1002
}
1000
N_CON4
1070
     9
1000
2N
1002
{
1000
Class
1070
     4
1000
CON,BGD
1002
{
1002
}
1000
Color
1070
     1
1070
   256
1002
{
1002
}
1000
LType
1070
     4
1000
BYLAYER
1002
{
1002
}
1002
}
1000
N_CENN
1070
     9
1000
7AN
1002
{
1000
Class
1070
     4
1000
CEN
1002
{
1002
}
1000
Color
1070
     1
1070
   256
1002
{
1002
}
1000
LType
1070
     4
1000
BYLAYER
1002
{
1002
}
1002
}
1000
N_CENW
1070
     9
1000
7N
1002
{
1000
Class
1070
     4
1000
CEN
1002
{
1002
}
1000
Color
1070
     1
1070
   256
1002
{
1002
}
1000
LType
1070
     4
1000
BYLAYER
1002
{
1002
}
1002
}
1000
N_DILI
1070
     9
1000
5N
1002
{
1000
Class
1070
     4
1000
DIM,SYM
1002
{
1002
}
1000
Color
1070
     1
1070
   256
1002
{
1002
}
1000
LType
1070
     4
1000
BYLAYER
1002
{
1002
}
1002
}
1000
N_DITX
1070
     9
1000
5N
1002
{
1000
Class
1070
     4
1000
DIM,SYM
1002
{
1002
}
1000
Color
1070
     1
1070
     2
1002
{
1002
}
1000
LType
1070
     4
1000
CONTINUOUS
1002
{
1002
}
1002
}
1000
N_DIXL
1070
     9
1000
5N
1002
{
1000
Class
1070
     4
1000
DIM,SYM
1002
{
1002
}
1000
Color
1070
     1
1070
   256
1002
{
1002
}
1000
LType
1070
     4
1000
BYLAYER
1002
{
1002
}
1002
}
1000
N_HATC
1070
     9
1000
8N
1002
{
1000
Class
1070
     4
1000
HTC,BGD
1002
{
1002
}
1000
Color
1070
     1
1070
   256
1002
{
1002
}
1000
LType
1070
     4
1000
BYLAYER
1002
{
1002
}
1002
}
1000
N_HIDN
1070
     9
1000
3AN
1002
{
1000
Class
1070
     4
1000
HID,BGD
1002
{
1002
}
1000
Color
1070
     1
1070
   256
1002
{
1002
}
1000
LType
1070
     4
1000
BYLAYER
1002
{
1002
}
1002
}
1000
N_HIDW
1070
     9
1000
3N
1002
{
1000
Class
1070
     4
1000
HID,BGD
1002
{
1002
}
1000
Color
1070
     1
1070
   256
1002
{
1002
}
1000
LType
1070
     4
1000
BYLAYER
1002
{
1002
}
1002
}
1000
N_NGIP
1070
     9
1000
IPN
1002
{
1000
Class
1070
     4
1000

1002
{
1002
}
1000
Color
1070
     1
1070
   256
1002
{
1002
}
1000
LType
1070
     4
1000
BYLAYER
1002
{
1002
}
1002
}
1000
N_PHAN
1070
     9
1000
4AN
1002
{
1000
Class
1070
     4
1000

1002
{
1002
}
1000
Color
1070
     1
1070
   256
1002
{
1002
}
1000
LType
1070
     4
1000
BYLAYER
1002
{
1002
}
1002
}
1000
N_POSL
1070
     9
1000
5N
1002
{
1000
Class
1070
     4
1000
SYM
1002
{
1002
}
1000
Color
1070
     1
1070
   256
1002
{
1002
}
1000
LType
1070
     4
1000
BYLAYER
1002
{
1002
}
1002
}
1000
N_TCON
1070
     9
1000
0N
1002
{
1000
Class
1070
     4
1000
CON,BGD
1002
{
1002
}
1000
Color
1070
     1
1070
   256
1002
{
1002
}
1000
LType
1070
     4
1000
BYLAYER
1002
{
1002
}
1002
}
1000
N_THLI
1070
     9
1000
4N
1002
{
1000
Class
1070
     4
1000
BGD
1002
{
1002
}
1000
Color
1070
     1
1070
   256
1002
{
1002
}
1000
LType
1070
     4
1000
BYLAYER
1002
{
1002
}
1002
}
1000
N_TLEN
1070
     9
1000
0N
1002
{
1000
Class
1070
     4
1000
CON,BGD
1002
{
1002
}
1000
Color
1070
     1
1070
   256
1002
{
1002
}
1000
LType
1070
     4
1000
BYLAYER
1002
{
1002
}
1002
}
1000
N_TXT3
1070
     9
1000
6N
1002
{
1000
Class
1070
     4
1000
SYM
1002
{
1002
}
1000
Color
1070
     1
1070
   256
1002
{
1002
}
1000
LType
1070
     4
1000
BYLAYER
1002
{
1002
}
1002
}
1000
N_VPLI
1070
     9
1000
2AN
1002
{
1000
Class
1070
     4
1000

1002
{
1002
}
1000
Color
1070
     1
1070
   256
1002
{
1002
}
1000
LType
1070
     4
1000
BYLAYER
1002
{
1002
}
1002
}
1000
NGIP
1070
     9
1000
IP
1002
{
1000
Class
1070
     4
1000

1002
{
1002
}
1000
Color
1070
     1
1070
   256
1002
{
1002
}
1000
LType
1070
     4
1000
BYLAYER
1002
{
1002
}
1002
}
1000
PAL2
1070
     9
1000
RAHM2
1002
{
1000
Class
1070
     4
1000
SPZ,SYM
1002
{
1002
}
1000
Color
1070
     1
1070
   256
1002
{
1002
}
1000
LType
1070
     4
1000
BYLAYER
1002
{
1002
}
1002
}
1000
PAL3
1070
     9
1000
RAHM3
1002
{
1000
Class
1070
     4
1000
SPZ,SYM
1002
{
1002
}
1000
Color
1070
     1
1070
   256
1002
{
1002
}
1000
LType
1070
     4
1000
BYLAYER
1002
{
1002
}
1002
}
1000
PAL5
1070
     9
1000
RAHM5
1002
{
1000
Class
1070
     4
1000
SPZ,SYM
1002
{
1002
}
1000
Color
1070
     1
1070
   256
1002
{
1002
}
1000
LType
1070
     4
1000
BYLAYER
1002
{
1002
}
1002
}
1000
PAL7
1070
     9
1000
RAHM5
1002
{
1000
Class
1070
     4
1000
SPZ,SYM
1002
{
1002
}
1000
Color
1070
     1
1070
     7
1002
{
1002
}
1000
LType
1070
     4
1000
CONTINUOUS
1002
{
1002
}
1002
}
1000
PHAN
1070
     9
1000
4A
1002
{
1000
Class
1070
     4
1000

1002
{
1002
}
1000
Color
1070
     1
1070
   256
1002
{
1002
}
1000
LType
1070
     4
1000
BYLAYER
1002
{
1002
}
1002
}
1000
POSL
1070
     9
1000
5
1002
{
1000
Class
1070
     4
1000
SYM
1002
{
1002
}
1000
Color
1070
     1
1070
   256
1002
{
1002
}
1000
LType
1070
     4
1000
BYLAYER
1002
{
1002
}
1002
}
1000
POSN
1070
     9
1000
6
1002
{
1000
Class
1070
     4
1000
SYM
1002
{
1002
}
1000
Color
1070
     1
1070
     7
1002
{
1002
}
1000
LType
1070
     4
1000
BYLAYER
1002
{
1002
}
1002
}
1000
POSREF
1070
     9
1000
6
1002
{
1000
Class
1070
     4
1000
SYM
1002
{
1002
}
1000
Color
1070
     1
1070
     5
1002
{
1002
}
1000
LType
1070
     4
1000
BYLAYER
1002
{
1002
}
1002
}
1000
POSX
1070
     9
1000
5
1002
{
1000
Class
1070
     4
1000
SYM
1002
{
1002
}
1000
Color
1070
     1
1070
     2
1002
{
1002
}
1000
LType
1070
     4
1000
CONTINUOUS
1002
{
1002
}
1002
}
1000
PSEC
1070
     9
1000
4A
1002
{
1000
Class
1070
     4
1000

1002
{
1002
}
1000
Color
1070
     1
1070
   256
1002
{
1002
}
1000
LType
1070
     4
1000
BYLAYER
1002
{
1002
}
1002
}
1000
RCGN
1070
     9
1000
7A
1002
{
1000
Class
1070
     4
1000
CEN
1002
{
1002
}
1000
Color
1070
     1
1070
   256
1002
{
1002
}
1000
LType
1070
     4
1000
BYLAYER
1002
{
1002
}
1002
}
1000
RCGW
1070
     9
1000
7
1002
{
1000
Class
1070
     4
1000
CEN
1002
{
1002
}
1000
Color
1070
     1
1070
   256
1002
{
1002
}
1000
LType
1070
     4
1000
BYLAYER
1002
{
1002
}
1002
}
1000
RFDI
1070
     9
1000
4
1002
{
1000
Class
1070
     4
1000
BGD
1002
{
1002
}
1000
Color
1070
     1
1070
   256
1002
{
1002
}
1000
LType
1070
     4
1000
BYLAYER
1002
{
1002
}
1002
}
1000
RQTR
1070
     9
1000
4
1002
{
1000
Class
1070
     4
1000

1002
{
1002
}
1000
Color
1070
     1
1070
     7
1002
{
1002
}
1000
LType
1070
     4
1000
GEN7A
1002
{
1002
}
1002
}
1000
RSBO
1070
     9
1000
4
1002
{
1000
Class
1070
     4
1000
BGD
1002
{
1002
}
1000
Color
1070
     1
1070
   256
1002
{
1002
}
1000
LType
1070
     4
1000
BYLAYER
1002
{
1002
}
1002
}
1000
SBRK
1070
     9
1000
4
1002
{
1000
Class
1070
     4
1000
BGD
1002
{
1002
}
1000
Color
1070
     1
1070
   256
1002
{
1002
}
1000
LType
1070
     4
1000
BYLAYER
1002
{
1002
}
1002
}
1000
SCEN
1070
     9
1000
7
1002
{
1000
Class
1070
     4
1000

1002
{
1002
}
1000
Color
1070
     1
1070
   256
1002
{
1002
}
1000
LType
1070
     4
1000
CONTINUOUS
1002
{
1002
}
1002
}
1000
SECT
1070
     9
1000
4
1002
{
1000
Class
1070
     4
1000
BGD
1002
{
1002
}
1000
Color
1070
     1
1070
   256
1002
{
1002
}
1000
LType
1070
     4
1000
BYLAYER
1002
{
1002
}
1002
}
1000
SELN
1070
     9
1000
7A
1002
{
1000
Class
1070
     4
1000

1002
{
1002
}
1000
Color
1070
     1
1070
   256
1002
{
1002
}
1000
LType
1070
     4
1000
BYLAYER
1002
{
1002
}
1002
}
1000
SELW
1070
     9
1000
7
1002
{
1000
Class
1070
     4
1000

1002
{
1002
}
1000
Color
1070
     1
1070
   256
1002
{
1002
}
1000
LType
1070
     4
1000
BYLAYER
1002
{
1002
}
1002
}
1000
SSYS
1070
     9
1000
0
1002
{
1000
Class
1070
     4
1000

1002
{
1002
}
1000
Color
1070
     1
1070
   256
1002
{
1002
}
1000
LType
1070
     4
1000
BYLAYER
1002
{
1002
}
1002
}
1000
STLI
1070
     9
1000
4
1002
{
1000
Class
1070
     4
1000

1002
{
1002
}
1000
Color
1070
     1
1070
     7
1002
{
1002
}
1000
LType
1070
     4
1000
GEN3A
1002
{
1002
}
1002
}
1000
SYB1
1070
     9
1000
5
1002
{
1000
Class
1070
     4
1000
SYM
1002
{
1002
}
1000
Color
1070
     1
1070
   256
1002
{
1002
}
1000
LType
1070
     4
1000
BYLAYER
1002
{
1002
}
1002
}
1000
SYB2
1070
     9
1000
5
1002
{
1000
Class
1070
     4
1000
SYM
1002
{
1002
}
1000
Color
1070
     1
1070
   256
1002
{
1002
}
1000
LType
1070
     4
1000
BYLAYER
1002
{
1002
}
1002
}
1000
SYB3
1070
     9
1000
6
1002
{
1000
Class
1070
     4
1000
SYM
1002
{
1002
}
1000
Color
1070
     1
1070
   256
1002
{
1002
}
1000
LType
1070
     4
1000
CONTINUOUS
1002
{
1002
}
1002
}
1000
SYB5
1070
     9
1000
5
1002
{
1000
Class
1070
     4
1000
SYM
1002
{
1002
}
1000
Color
1070
     1
1070
     7
1002
{
1002
}
1000
LType
1070
     4
1000
BYLAYER
1002
{
1002
}
1002
}
1000
SYMN
1070
     9
1000
7A
1002
{
1000
Class
1070
     4
1000
CEN
1002
{
1002
}
1000
Color
1070
     1
1070
   256
1002
{
1002
}
1000
LType
1070
     4
1000
BYLAYER
1002
{
1002
}
1002
}
1000
SYMW
1070
     9
1000
7
1002
{
1000
Class
1070
     4
1000
CEN
1002
{
1002
}
1000
Color
1070
     1
1070
   256
1002
{
1002
}
1000
LType
1070
     4
1000
BYLAYER
1002
{
1002
}
1002
}
1000
TCON
1070
     9
1000
0
1002
{
1000
Class
1070
     4
1000
CON,BGD
1002
{
1002
}
1000
Color
1070
     1
1070
   256
1002
{
1002
}
1000
LType
1070
     4
1000
BYLAYER
1002
{
1002
}
1002
}
1000
THLI
1070
     9
1000
4
1002
{
1000
Class
1070
     4
1000
BGD
1002
{
1002
}
1000
Color
1070
     1
1070
   256
1002
{
1002
}
1000
LType
1070
     4
1000
BYLAYER
1002
{
1002
}
1002
}
1000
TIT2
1070
     9
1000
RAHM2
1002
{
1000
Class
1070
     4
1000
SPZ,SYM
1002
{
1002
}
1000
Color
1070
     1
1070
   256
1002
{
1002
}
1000
LType
1070
     4
1000
BYLAYER
1002
{
1002
}
1002
}
1000
TIT3
1070
     9
1000
RAHM3
1002
{
1000
Class
1070
     4
1000
SPZ,SYM
1002
{
1002
}
1000
Color
1070
     1
1070
   256
1002
{
1002
}
1000
LType
1070
     4
1000
BYLAYER
1002
{
1002
}
1002
}
1000
TIT5
1070
     9
1000
RAHM5
1002
{
1000
Class
1070
     4
1000
SPZ,SYM
1002
{
1002
}
1000
Color
1070
     1
1070
   256
1002
{
1002
}
1000
LType
1070
     4
1000
BYLAYER
1002
{
1002
}
1002
}
1000
TIT7
1070
     9
1000
RAHM5
1002
{
1000
Class
1070
     4
1000
SPZ,SYM
1002
{
1002
}
1000
Color
1070
     1
1070
     7
1002
{
1002
}
1000
LType
1070
     4
1000
CONTINUOUS
1002
{
1002
}
1002
}
1000
TLEN
1070
     9
1000
0
1002
{
1000
Class
1070
     4
1000
CON,BGD
1002
{
1002
}
1000
Color
1070
     1
1070
   256
1002
{
1002
}
1000
LType
1070
     4
1000
BYLAYER
1002
{
1002
}
1002
}
1000
TRKN
1070
     9
1000
7A
1002
{
1000
Class
1070
     4
1000

1002
{
1002
}
1000
Color
1070
     1
1070
   256
1002
{
1002
}
1000
LType
1070
     4
1000
BYLAYER
1002
{
1002
}
1002
}
1000
TRKW
1070
     9
1000
7
1002
{
1000
Class
1070
     4
1000

1002
{
1002
}
1000
Color
1070
     1
1070
   256
1002
{
1002
}
1000
LType
1070
     4
1000
BYLAYER
1002
{
1002
}
1002
}
1000
TRLI
1070
     9
1000
4
1002
{
1000
Class
1070
     4
1000
BGD
1002
{
1002
}
1000
Color
1070
     1
1070
   256
1002
{
1002
}
1000
LType
1070
     4
1000
BYLAYER
1002
{
1002
}
1002
}
1000
TXT1
1070
     9
1000
6
1002
{
1000
Class
1070
     4
1000
SYM
1002
{
1002
}
1000
Color
1070
     1
1070
     2
1002
{
1002
}
1000
LType
1070
     4
1000
BYLAYER
1002
{
1002
}
1002
}
1000
TXT2
1070
     9
1000
6
1002
{
1000
Class
1070
     4
1000
SYM
1002
{
1002
}
1000
Color
1070
     1
1070
     2
1002
{
1002
}
1000
LType
1070
     4
1000
BYLAYER
1002
{
1002
}
1002
}
1000
TXT3
1070
     9
1000
6
1002
{
1000
Class
1070
     4
1000
SYM
1002
{
1002
}
1000
Color
1070
     1
1070
   256
1002
{
1002
}
1000
LType
1070
     4
1000
BYLAYER
1002
{
1002
}
1002
}
1000
TXT5
1070
     9
1000
6
1002
{
1000
Class
1070
     4
1000
SYM
1002
{
1002
}
1000
Color
1070
     1
1070
     7
1002
{
1002
}
1000
LType
1070
     4
1000
BYLAYER
1002
{
1002
}
1002
}
1000
TXT7
1070
     9
1000
6
1002
{
1000
Class
1070
     4
1000
SYM
1002
{
1002
}
1000
Color
1070
     1
1070
     7
1002
{
1002
}
1000
LType
1070
     4
1000
BYLAYER
1002
{
1002
}
1002
}
1000
VIEW
1070
     9
1000
VIEW
1002
{
1000
Class
1070
     4
1000
SPZ
1002
{
1002
}
1000
Color
1070
     1
1070
   256
1002
{
1002
}
1000
LType
1070
     4
1000
BYLAYER
1002
{
1002
}
1002
}
1000
VPLI
1070
     9
1000
2A
1002
{
1000
Class
1070
     4
1000

1002
{
1002
}
1000
Color
1070
     1
1070
   256
1002
{
1002
}
1000
LType
1070
     4
1000
BYLAYER
1002
{
1002
}
1002
}
1000
ZIZA
1070
     9
1000
4
1002
{
1000
Class
1070
     4
1000
BGD
1002
{
1002
}
1000
Color
1070
     1
1070
   256
1002
{
1002
}
1000
LType
1070
     4
1000
GENZIGZAG
1002
{
1002
}
1002
}
  0
APPID
  5
1298
330
1231
100
AcDbSymbolTableRecord
100
AcDbRegAppTableRecord
  2
GENIUS_GENCFG4_13
 70
     0
1001
GENIUS_GENCFG_13
1071
1020868054
1000
1298
1000
GEN
1070
     9
1000
GenCfgObject
1000
GenCfgShort
1000
GenCfgReal
1000
GenCfgBool
1000
GenCfgString
1000
GenCfgDim
1000
GenCfgLaySection
1000
GenCfgLType
1000
GenCfgFilter
1000
Balloon
1070
     0
1002
{
1000
GenIF
1070
     1
1070
     0
1002
{
1002
}
1000
GenPosInc
1070
     1
1070
     1
1002
{
1002
}
1000
GenPosBlk
1070
     1
1070
     8
1002
{
1002
}
1000
GenPosVar
1070
     1
1070
     0
1002
{
1002
}
1000
GenZiCir
1070
     2
1040
1.5
1002
{
1002
}
1000
MaxCharForCenteredText
1070
     1
1070
    30
1002
{
1002
}
1000
Snap
1070
     0
1002
{
1000
ActivationRadius
1070
     2
1040
1.0
1002
{
1002
}
1000
M
1070
     0
1002
{
1000
SnapStepX
1070
     2
1040
20.0
1002
{
1002
}
1000
SnapStepY
1070
     2
1040
10.0
1002
{
1002
}
1002
}
1000
I
1070
     0
1002
{
1000
SnapStepX
1070
     2
1040
1.0
1002
{
1002
}
1000
SnapStepY
1070
     2
1040
0.5
1002
{
1002
}
1002
}
1002
}
1002
}
1000
Centerline
1070
     0
1002
{
1000
ScaleNot
1070
     3
1070
     0
1002
{
1002
}
1000
M
1070
     0
1002
{
1000
GenCenAng
1070
     4
1000
45|90|135
1002
{
1002
}
1000
GenCenDia
1070
     2
1040
10.0
1002
{
1002
}
1000
GenCenDias
1070
     4
1000
10|20|30
1002
{
1002
}
1000
GenCenDist
1070
     2
1040
3.0
1002
{
1002
}
1000
GenCenLen
1070
     2
1040
10.0
1002
{
1002
}
1000
GenCenOff
1070
     2
1040
10.0
1002
{
1002
}
1002
}
1000
I
1070
     0
1002
{
1000
GenCenAng
1070
     4
1000
45|90|135
1002
{
1002
}
1000
GenCenDia
1070
     2
1040
0.5
1002
{
1002
}
1000
GenCenDias
1070
     4
1000
0.5|1.0|1.5
1002
{
1002
}
1000
GenCenDist
1070
     2
1040
0.125
1002
{
1002
}
1000
GenCenLen
1070
     2
1040
0.5
1002
{
1002
}
1000
GenCenOff
1070
     2
1040
0.5
1002
{
1002
}
1002
}
1002
}
1000
CLine
1070
     0
1002
{
1000
CAngArray
1070
     4
1000
30|45|60
1002
{
1002
}
1000
Typ
1070
     4
1000
XLINE
1002
{
1002
}
1000
M
1070
     0
1002
{
1000
CLinArray
1070
     4
1000
10|20|30
1002
{
1002
}
1002
}
1000
I
1070
     0
1002
{
1000
CLinArray
1070
     4
1000
0.125|0.25|0.5
1002
{
1002
}
1002
}
1002
}
1000
Detail
1070
     0
1002
{
1002
}
1000
Dimension
1070
     5
1002
{
1000
DIMALT
1070
     1
1070
     0
1002
{
1002
}
1000
DIMALTD
1070
     1
1070
     2
1002
{
1002
}
1000
DIMALTTD
1070
     1
1070
     4
1002
{
1002
}
1000
DIMALTTZ
1070
     1
1070
     0
1002
{
1002
}
1000
DIMALTU
1070
     1
1070
     2
1002
{
1002
}
1000
DIMALTZ
1070
     1
1070
     0
1002
{
1002
}
1000
DIMAUNIT
1070
     1
1070
     0
1002
{
1002
}
1000
DIMBLK
1070
     4
1000

1002
{
1002
}
1000
DIMBLK1
1070
     4
1000

1002
{
1002
}
1000
DIMBLK2
1070
     4
1000

1002
{
1002
}
1000
DIMCLRD
1070
     1
1070
   256
1002
{
1002
}
1000
DIMCLRE
1070
     1
1070
   256
1002
{
1002
}
1000
DIMCLRT
1070
     1
1070
     2
1002
{
1002
}
1000
DIMDLE
1070
     2
1040
0.0
1002
{
1002
}
1000
DIMFIT
1070
     1
1070
     3
1002
{
1002
}
1000
DIMJUST
1070
     1
1070
     0
1002
{
1002
}
1000
DIMLFAC
1070
     2
1040
1.0
1002
{
1002
}
1000
DIMLIM
1070
     1
1070
     0
1002
{
1002
}
1000
DIMPOST
1070
     4
1000

1002
{
1002
}
1000
DIMRND
1070
     2
1040
0.0
1002
{
1002
}
1000
DIMSAH
1070
     1
1070
     0
1002
{
1002
}
1000
DIMSCALE
1070
     2
1040
1.0
1002
{
1002
}
1000
DIMSD1
1070
     1
1070
     0
1002
{
1002
}
1000
DIMSD2
1070
     1
1070
     0
1002
{
1002
}
1000
DIMSE1
1070
     1
1070
     0
1002
{
1002
}
1000
DIMSE2
1070
     1
1070
     0
1002
{
1002
}
1000
DIMSOXD
1070
     1
1070
     0
1002
{
1002
}
1000
DIMTAD
1070
     1
1070
     0
1002
{
1002
}
1000
DIMTFAC
1070
     2
1040
0.71
1002
{
1002
}
1000
DIMTIH
1070
     1
1070
     0
1002
{
1002
}
1000
DIMTIX
1070
     1
1070
     0
1002
{
1002
}
1000
DIMTM
1070
     2
1040
0.1
1002
{
1002
}
1000
DIMTOFL
1070
     1
1070
     0
1002
{
1002
}
1000
DIMTOH
1070
     1
1070
     0
1002
{
1002
}
1000
DIMTOL
1070
     1
1070
     0
1002
{
1002
}
1000
DIMTOLJ
1070
     1
1070
     1
1002
{
1002
}
1000
DIMTP
1070
     2
1040
0.1
1002
{
1002
}
1000
DIMTSZ
1070
     2
1040
0.0
1002
{
1002
}
1000
DIMTVP
1070
     2
1040
0.0
1002
{
1002
}
1000
DIMTXSTY
1070
     4
1000
STANDARD
1002
{
1002
}
1000
DIMTZIN
1070
     1
1070
     0
1002
{
1002
}
1000
DIMUNIT
1070
     1
1070
     2
1002
{
1002
}
1000
DIMUPT
1070
     1
1070
     0
1002
{
1002
}
1000
M
1070
     0
1002
{
1000
DIMALTF
1070
     2
1040
0.03937
1002
{
1002
}
1000
DIMAPOST
1070
     4
1000
"
1002
{
1002
}
1000
DIMASZ
1070
     2
1040
2.5
1002
{
1002
}
1000
DIMCEN
1070
     2
1040
0.0
1002
{
1002
}
1000
DIMDEC
1070
     1
1070
     2
1002
{
1002
}
1000
DIMDLI
1070
     2
1040
7.0
1002
{
1002
}
1000
DIMEXE
1070
     2
1040
1.0
1002
{
1002
}
1000
DIMEXO
1070
     2
1040
1.0
1002
{
1002
}
1000
DIMGAP
1070
     2
1040
0.6
1002
{
1002
}
1000
DIMTDEC
1070
     1
1070
     3
1002
{
1002
}
1000
DIMTXT
1070
     2
1040
3.5
1002
{
1002
}
1000
DIMZIN
1070
     1
1070
     8
1002
{
1002
}
1002
}
1000
I
1070
     0
1002
{
1000
DIMALTF
1070
     2
1040
25.4
1002
{
1002
}
1000
DIMAPOST
1070
     4
1000
mm
1002
{
1002
}
1000
DIMASZ
1070
     2
1040
0.1
1002
{
1002
}
1000
DIMCEN
1070
     2
1040
0.0
1002
{
1002
}
1000
DIMDEC
1070
     1
1070
     4
1002
{
1002
}
1000
DIMDLI
1070
     2
1040
0.5
1002
{
1002
}
1000
DIMEXE
1070
     2
1040
0.1
1002
{
1002
}
1000
DIMEXO
1070
     2
1040
0.05
1002
{
1002
}
1000
DIMGAP
1070
     2
1040
0.06
1002
{
1002
}
1000
DIMTDEC
1070
     1
1070
     4
1002
{
1002
}
1000
DIMTXT
1070
     2
1040
0.12
1002
{
1002
}
1000
DIMZIN
1070
     1
1070
     7
1002
{
1002
}
1002
}
1000
GEN-ISO
1070
     5
1002
{
1000
NAME
1070
     4
1000
GEN-ISO
1002
{
1002
}
1000
DIMTAD
1070
     1
1070
     1
1002
{
1002
}
1000
DIMTOLJ
1070
     1
1070
     0
1002
{
1002
}
1000
DIMTOFL
1070
     1
1070
     1
1002
{
1002
}
1000
M
1070
     0
1002
{
1002
}
1000
I
1070
     0
1002
{
1002
}
1002
}
1000
GEN-ISO-POS
1070
     5
1002
{
1000
NAME
1070
     4
1000
GEN-ISO-POS
1002
{
1002
}
1000
DIMTOLJ
1070
     1
1070
     0
1002
{
1002
}
1000
DIMTXSTY
1070
     4
1000
STANDARD
1002
{
1002
}
1000
M
1070
     0
1002
{
1000
DIMASZ
1070
     2
1040
2.5
1002
{
1002
}
1000
DIMGAP
1070
     2
1040
1.5
1002
{
1002
}
1000
DIMTXT
1070
     2
1040
5.0
1002
{
1002
}
1002
}
1000
I
1070
     0
1002
{
1000
DIMASZ
1070
     2
1040
0.1
1002
{
1002
}
1000
DIMGAP
1070
     2
1040
0.06
1002
{
1002
}
1000
DIMTXT
1070
     2
1040
0.2
1002
{
1002
}
1002
}
1002
}
1000
GEN-ISO-CIR
1070
     5
1002
{
1000
NAME
1070
     4
1000
GEN-ISO$3
1002
{
1002
}
1000
DIMFIT
1070
     1
1070
     0
1002
{
1002
}
1000
DIMTAD
1070
     1
1070
     1
1002
{
1002
}
1000
DIMTOH
1070
     1
1070
     1
1002
{
1002
}
1000
DIMTOLJ
1070
     1
1070
     0
1002
{
1002
}
1000
DIMUPT
1070
     1
1070
     1
1002
{
1002
}
1000
M
1070
     0
1002
{
1002
}
1000
I
1070
     0
1002
{
1002
}
1000
DIMTIH
1070
     1
1070
     0
1002
{
1002
}
1000
DIMTIX
1070
     1
1070
     0
1002
{
1002
}
1000
DIMTOFL
1070
     1
1070
     0
1002
{
1002
}
1002
}
1000
GEN-ISO-RAD
1070
     5
1002
{
1000
NAME
1070
     4
1000
GEN-ISO$4
1002
{
1002
}
1000
DIMFIT
1070
     1
1070
     0
1002
{
1002
}
1000
DIMTAD
1070
     1
1070
     1
1002
{
1002
}
1000
DIMTIH
1070
     1
1070
     0
1002
{
1002
}
1000
DIMTIX
1070
     1
1070
     0
1002
{
1002
}
1000
DIMTOH
1070
     1
1070
     1
1002
{
1002
}
1000
DIMTOLJ
1070
     1
1070
     0
1002
{
1002
}
1000
DIMTOFL
1070
     1
1070
     0
1002
{
1002
}
1000
DIMUPT
1070
     1
1070
     1
1002
{
1002
}
1000
M
1070
     0
1002
{
1002
}
1000
I
1070
     0
1002
{
1002
}
1002
}
1000
GEN-ISO-ORD
1070
     5
1002
{
1000
NAME
1070
     4
1000
GEN-ISO$6
1002
{
1002
}
1000
DIMTOLJ
1070
     1
1070
     0
1002
{
1002
}
1000
M
1070
     0
1002
{
1002
}
1000
I
1070
     0
1002
{
1002
}
1002
}
1000
GEN-ISO-AXE-F
1070
     5
1002
{
1000
NAME
1070
     4
1000
GEN-ISO-AXE-F
1002
{
1002
}
1000
DIMSE1
1070
     1
1070
     1
1002
{
1002
}
1000
DIMSE2
1070
     1
1070
     1
1002
{
1002
}
1000
DIMTAD
1070
     1
1070
     1
1002
{
1002
}
1000
DIMTOLJ
1070
     1
1070
     0
1002
{
1002
}
1000
DIMTOFL
1070
     1
1070
     1
1002
{
1002
}
1000
M
1070
     0
1002
{
1002
}
1000
I
1070
     0
1002
{
1002
}
1002
}
1000
GEN-ISO-AXE-H
1070
     5
1002
{
1000
NAME
1070
     4
1000
GEN-ISO-AXE-H
1002
{
1002
}
1000
DIMBLK1
1070
     4
1000
GENAXEH
1002
{
1002
}
1000
DIMLFAC
1070
     2
1040
2.0
1002
{
1002
}
1000
DIMSAH
1070
     1
1070
     1
1002
{
1002
}
1000
DIMSE1
1070
     1
1070
     1
1002
{
1002
}
1000
DIMSE2
1070
     1
1070
     1
1002
{
1002
}
1000
DIMTAD
1070
     1
1070
     1
1002
{
1002
}
1000
DIMTOLJ
1070
     1
1070
     0
1002
{
1002
}
1000
DIMTOFL
1070
     1
1070
     1
1002
{
1002
}
1000
M
1070
     0
1002
{
1002
}
1000
I
1070
     0
1002
{
1002
}
1002
}
1000
GEN-ANSI
1070
     5
1002
{
1000
NAME
1070
     4
1000
GEN-ANSI
1002
{
1002
}
1000
DIMTIH
1070
     1
1070
     1
1002
{
1002
}
1000
DIMTOH
1070
     1
1070
     1
1002
{
1002
}
1000
DIMTAD
1070
     1
1070
     0
1002
{
1002
}
1000
DIMTOLJ
1070
     1
1070
     1
1002
{
1002
}
1000
M
1070
     0
1002
{
1002
}
1000
I
1070
     0
1002
{
1002
}
1002
}
1000
GEN-ANSI-POS
1070
     5
1002
{
1000
NAME
1070
     4
1000
GEN-ANSI-POS
1002
{
1002
}
1000
DIMTOLJ
1070
     1
1070
     1
1002
{
1002
}
1000
DIMTXSTY
1070
     4
1000
STANDARD
1002
{
1002
}
1000
M
1070
     0
1002
{
1000
DIMASZ
1070
     2
1040
2.5
1002
{
1002
}
1000
DIMGAP
1070
     2
1040
1.5
1002
{
1002
}
1000
DIMTXT
1070
     2
1040
5.0
1002
{
1002
}
1002
}
1000
I
1070
     0
1002
{
1000
DIMASZ
1070
     2
1040
0.1
1002
{
1002
}
1000
DIMGAP
1070
     2
1040
0.06
1002
{
1002
}
1000
DIMTXT
1070
     2
1040
0.2
1002
{
1002
}
1002
}
1002
}
1000
GEN-ANSI-CIR
1070
     5
1002
{
1000
NAME
1070
     4
1000
GEN-ANSI$3
1002
{
1002
}
1000
DIMFIT
1070
     1
1070
     0
1002
{
1002
}
1000
DIMTAD
1070
     1
1070
     0
1002
{
1002
}
1000
DIMTIH
1070
     1
1070
     1
1002
{
1002
}
1000
DIMTIX
1070
     1
1070
     0
1002
{
1002
}
1000
DIMTOFL
1070
     1
1070
     0
1002
{
1002
}
1000
DIMTOH
1070
     1
1070
     1
1002
{
1002
}
1000
DIMTOLJ
1070
     1
1070
     1
1002
{
1002
}
1000
DIMUPT
1070
     1
1070
     1
1002
{
1002
}
1000
M
1070
     0
1002
{
1002
}
1000
I
1070
     0
1002
{
1002
}
1002
}
1000
GEN-ANSI-RAD
1070
     5
1002
{
1000
NAME
1070
     4
1000
GEN-ANSI$4
1002
{
1002
}
1000
DIMFIT
1070
     1
1070
     0
1002
{
1002
}
1000
DIMTAD
1070
     1
1070
     0
1002
{
1002
}
1000
DIMTIH
1070
     1
1070
     1
1002
{
1002
}
1000
DIMTIX
1070
     1
1070
     0
1002
{
1002
}
1000
DIMTOFL
1070
     1
1070
     0
1002
{
1002
}
1000
DIMTOH
1070
     1
1070
     1
1002
{
1002
}
1000
DIMTOLJ
1070
     1
1070
     1
1002
{
1002
}
1000
DIMUPT
1070
     1
1070
     1
1002
{
1002
}
1000
M
1070
     0
1002
{
1002
}
1000
I
1070
     0
1002
{
1002
}
1002
}
1000
GEN-ANSI-ORD
1070
     5
1002
{
1000
NAME
1070
     4
1000
GEN-ANSI$6
1002
{
1002
}
1000
DIMTAD
1070
     1
1070
     0
1002
{
1002
}
1000
DIMTIH
1070
     1
1070
     1
1002
{
1002
}
1000
DIMTOH
1070
     1
1070
     1
1002
{
1002
}
1000
DIMTOLJ
1070
     1
1070
     1
1002
{
1002
}
1000
M
1070
     0
1002
{
1002
}
1000
I
1070
     0
1002
{
1002
}
1002
}
1000
GEN-ANSI-AXE-F
1070
     5
1002
{
1000
NAME
1070
     4
1000
GEN-ANSI-AXE-F
1002
{
1002
}
1000
DIMBLK1
1070
     4
1000
GENAXEH
1002
{
1002
}
1000
DIMSAH
1070
     1
1070
     1
1002
{
1002
}
1000
DIMSE1
1070
     1
1070
     1
1002
{
1002
}
1000
DIMSE2
1070
     1
1070
     1
1002
{
1002
}
1000
DIMTAD
1070
     1
1070
     0
1002
{
1002
}
1000
DIMTIH
1070
     1
1070
     1
1002
{
1002
}
1000
DIMTOH
1070
     1
1070
     1
1002
{
1002
}
1000
DIMTOLJ
1070
     1
1070
     1
1002
{
1002
}
1000
M
1070
     0
1002
{
1002
}
1000
I
1070
     0
1002
{
1002
}
1002
}
1000
GEN-ANSI-AXE-H
1070
     5
1002
{
1000
NAME
1070
     4
1000
GEN-ANSI-AXE-H
1002
{
1002
}
1000
DIMBLK1
1070
     4
1000
GENAXEH
1002
{
1002
}
1000
DIMLFAC
1070
     2
1040
2.0
1002
{
1002
}
1000
DIMSAH
1070
     1
1070
     1
1002
{
1002
}
1000
DIMSE1
1070
     1
1070
     1
1002
{
1002
}
1000
DIMSE2
1070
     1
1070
     1
1002
{
1002
}
1000
DIMTAD
1070
     1
1070
     0
1002
{
1002
}
1000
DIMTOFL
1070
     1
1070
     1
1002
{
1002
}
1000
DIMTOLJ
1070
     1
1070
     1
1002
{
1002
}
1000
M
1070
     0
1002
{
1002
}
1000
I
1070
     0
1002
{
1002
}
1002
}
1002
}
1000
DimSet
1070
     0
1002
{
1000
ChainSum
1070
     3
1070
     0
1002
{
1002
}
1000
DimDclTyp0
1070
     4
1000
dim23
1002
{
1002
}
1000
HorBra
1070
     3
1070
     0
1002
{
1002
}
1000
StrDia
1070
     4
1000
%%c<>
1002
{
1002
}
1000
StrRad
1070
     4
1000
R<>
1002
{
1002
}
1000
TextMinus
1070
     4
1000
<>
1002
{
1002
}
1000
TextPlus
1070
     4
1000
<>
1002
{
1002
}
1000
M
1070
     0
1002
{
1000
DimdliFirst
1070
     2
1040
10.0
1002
{
1002
}
1000
PointMakeDist
1070
     2
1040
10.0
1002
{
1002
}
1002
}
1000
I
1070
     0
1002
{
1000
DimdliFirst
1070
     2
1040
0.5
1002
{
1002
}
1000
PointMakeDist
1070
     2
1040
0.5
1002
{
1002
}
1002
}
1000
FitGrade
1070
     4
1000
h7
1002
{
1002
}
1002
}
1000
Drawing
1070
     0
1002
{
1000
ChamferDimMode
1070
     1
1070
     2
1002
{
1002
}
1000
Gen_Fiso
1070
    -3
1040
1.0
1002
{
1002
}
1000
GenDimStil
1070
     4
1000
ISO
1002
{
1002
}
1000
GenDwgUScale
1070
     2
1040
1.0
1002
{
1002
}
1000
GenInch
1070
     4
1000
M
1002
{
1002
}
1000
GenPlotScale
1070
     4
1000
1:5
1002
{
1002
}
1000
Revisi
1070
     4
1000
0
1002
{
1002
}
1000
Version
1070
    -5
1000
14.01/Apr  1 1998
1002
{
1002
}
1000
Platform
1070
    -5
1000
WINNT
1002
{
1002
}
1002
}
1000
DwgVar
1070
     0
1002
{
1000
M
1070
     0
1002
{
1002
}
1000
I
1070
     0
1002
{
1002
}
1002
}
1000
Hatch
1070
     0
1002
{
1000
GenHtcFlag
1070
     3
1070
     0
1002
{
1002
}
1002
}
1000
Info_Pos
1070
     0
1002
{
1000
>
1002
}
1000
Layer
1070
     6
1002
{
1000
Defs
1070
     0
1002
{
1000
>
1002
}
1000
EntSort
1070
     0
1002
{
1000
>
1002
}
1000
Match
1070
     0
1002
{
1002
}
1000
Settings
1070
     0
1002
{
1000
FocGrNC
1070
     3
1070
     0
1002
{
1002
}
1000
FocGrLo
1070
     3
1070
     0
1002
{
1002
}
1000
FocLoNC
1070
     3
1070
     0
1002
{
1002
}
1000
FocusCol
1070
     1
1070
   253
1002
{
1002
}
1000
GenStdLG
1070
     4
1000

1002
{
1002
}
1000
LayMatch
1070
     3
1070
     0
1002
{
1002
}
1000
LgOff
1070
     3
1070
     0
1002
{
1002
}
1000
CurLG
1070
    -5
1000

1002
{
1002
}
1002
}
1002
}
1000
LType
1070
     0
1002
{
1000
GEN3
1070
     7
1000
genius.lin
1002
{
1002
}
1000
GEN7
1070
     7
1000
genius.lin
1002
{
1002
}
1000
GEN4A
1070
     7
1000
genius.lin
1002
{
1002
}
1000
GEN3A
1070
     7
1000
genius.lin
1002
{
1002
}
1000
GEN7A
1070
     7
1000
genius.lin
1002
{
1002
}
1000
GENZIGZAG
1070
     7
1000
genius.lin
1002
{
1002
}
1002
}
1000
Objecter
1070
     0
1002
{
1000
CreateGroups
1070
     3
1070
     0
1002
{
1002
}
1000
LaySwitch
1070
     3
1070
     1
1002
{
1002
}
1000
LastObj
1070
    -5
1000
12CB
1002
{
1002
}
1000
TimeStamp
1070
    -5
1000
20020508.16265351
1002
{
1002
}
1002
}
1000
OSWiz
1070
     0
1002
{
1000
Filter
1070
     0
1002
{
1000
HATCH
1070
     8
1002
{
1000
EntityType
1070
     4
1000
LINE
1002
{
1002
}
1000
Layer
1070
     4
1000
8,8N,*-8,*-8N
1002
{
1002
}
1000
Linetype
1070
     4
1000
*
1002
{
1002
}
1000
Color
1070
     4
1000
*
1002
{
1002
}
1000
ApplyInDims
1070
     3
1070
     1
1002
{
1002
}
1002
}
1000
SYMBOLS
1070
     8
1002
{
1000
EntityType
1070
     4
1000
*
1002
{
1002
}
1000
Layer
1070
     4
1000
[5-6],[5-6]N,*-[5-6],*-[5-6]N
1002
{
1002
}
1000
Linetype
1070
     4
1000
*
1002
{
1002
}
1000
Color
1070
     4
1000
*
1002
{
1002
}
1000
ApplyInDims
1070
     3
1070
     1
1002
{
1002
}
1002
}
1000
FEM
1070
     8
1002
{
1000
EntityType
1070
     4
1000
*
1002
{
1002
}
1000
Layer
1070
     4
1000
4A,4AN,*-4A,*-4AN
1002
{
1002
}
1000
Linetype
1070
     4
1000
*
1002
{
1002
}
1000
Color
1070
     4
1000
*
1002
{
1002
}
1000
ApplyInDims
1070
     3
1070
     1
1002
{
1002
}
1002
}
1002
}
1002
}
1000
PaList
1070
     0
1002
{
1000
AutoUpdatePartList
1070
     1
1070
     0
1002
{
1002
}
1000
ReadInfoPoint
1070
     3
1070
     0
1002
{
1002
}
1000
ReadPosNr
1070
     3
1070
     1
1002
{
1002
}
1000
RevStr
1070
     4
1000
0
1002
{
1002
}
1002
}
1000
Paper
1070
     0
1002
{
1002
}
1000
PartDB
1070
     0
1002
{
1000
GenDbOwner
1070
     4
1000

1002
{
1002
}
1002
}
1000
System
1070
     0
1002
{
1000
Menu
1070
     4
1000
GEV
1002
{
1002
}
1002
}
1000
Title
1070
     0
1002
{
1000
MakeView
1070
     1
1070
     2
1002
{
1002
}
1002
}
1000
Tools
1070
     0
1002
{
1000
Trans
1070
     0
1002
{
1000
Drawingtranslation
1070
    -4
1070
     1
1002
{
1002
}
1000
upreserve
1070
     3
1070
     0
1002
{
1002
}
1000
originally_on
1070
    -4
1070
     0
1002
{
1002
}
1000
sourcelang
1070
    -5
1000
D
1002
{
1002
}
1002
}
1002
}
  0
APPID
  5
1299
330
1231
100
AcDbSymbolTableRecord
100
AcDbRegAppTableRecord
  2
GENIUS_GEVCFG0_13
 70
     0
1001
GENIUS_GENCFG_13
1071
1020868017
1000
1299
1000
GEV
1070
     1
1000
GenCfgObject
1000
VED
1070
     0
1002
{
1002
}
  0
APPID
  5
129A
330
1231
100
AcDbSymbolTableRecord
100
AcDbRegAppTableRecord
  2
GEV_VCCNULL_SWITCH_OFF
 70
     0
  0
APPID
  5
129B
330
1231
100
AcDbSymbolTableRecord
100
AcDbRegAppTableRecord
  2
GENIUS_GENDTOL_13
 70
     0
  0
APPID
  5
129C
330
1231
100
AcDbSymbolTableRecord
100
AcDbRegAppTableRecord
  2
GENIUS_GENOENT_13
 70
     0
  0
APPID
  5
129D
330
1231
100
AcDbSymbolTableRecord
100
AcDbRegAppTableRecord
  2
GENIUS_GENBLLY_14
 70
     0
  0
APPID
  5
129E
330
1231
100
AcDbSymbolTableRecord
100
AcDbRegAppTableRecord
  2
GENIUS_GENODEF_13
 70
     0
  0
APPID
  5
129F
330
1231
100
AcDbSymbolTableRecord
100
AcDbRegAppTableRecord
  2
GENIUS_GENOBJ-N-CRS_13
 70
     0
  0
APPID
  5
12A0
330
1231
100
AcDbSymbolTableRecord
100
AcDbRegAppTableRecord
  2
GENIUS_GENOREF_13
 70
     0
  0
APPID
  5
12A1
330
1231
100
AcDbSymbolTableRecord
100
AcDbRegAppTableRecord
  2
GENIUS_GENOLIS_13
 70
     0
  0
APPID
  5
12A2
330
1231
100
AcDbSymbolTableRecord
100
AcDbRegAppTableRecord
  2
GENIUS_GEFCFG0_13
 70
     0
  0
APPID
  5
12A3
330
1231
100
AcDbSymbolTableRecord
100
AcDbRegAppTableRecord
  2
GENIUS_VERSION2
 70
     0
  0
APPID
  5
12A4
330
1231
100
AcDbSymbolTableRecord
100
AcDbRegAppTableRecord
  2
GENIUS_GENREC_14
 70
     0
  0
APPID
  5
12A5
330
1231
100
AcDbSymbolTableRecord
100
AcDbRegAppTableRecord
  2
GENIUS_GENOBJ-N-REC_13
 70
     0
  0
APPID
  5
12A6
330
1231
100
AcDbSymbolTableRecord
100
AcDbRegAppTableRecord
  2
GENIUS_GENOBJ-N-TIT_13
 70
     0
  0
APPID
  5
12A7
330
1231
100
AcDbSymbolTableRecord
100
AcDbRegAppTableRecord
  2
GENIUS_GENTITLE_13
 70
     0
  0
APPID
  5
12A8
330
1231
100
AcDbSymbolTableRecord
100
AcDbRegAppTableRecord
  2
GENIUS_GENZVEED_13
 70
     0
  0
APPID
  5
12A9
330
1231
100
AcDbSymbolTableRecord
100
AcDbRegAppTableRecord
  2
GENIUS_GENOBJ-N-SDF_13
 70
     0
  0
APPID
  5
12AA
330
1231
100
AcDbSymbolTableRecord
100
AcDbRegAppTableRecord
  2
GENIUS_GENSCREG_13
 70
     0
  0
APPID
  5
12AB
330
1231
100
AcDbSymbolTableRecord
100
AcDbRegAppTableRecord
  2
GENIUS_GENBLKED_14
 70
     0
  0
APPID
  5
1626
330
1231
100
AcDbSymbolTableRecord
100
AcDbRegAppTableRecord
  2
MCAD_NO_VIS
 70
     0
  0
APPID
  5
1627
330
1231
100
AcDbSymbolTableRecord
100
AcDbRegAppTableRecord
  2
ACAD_TEMP_GRAPHIC
 70
     0
  0
APPID
  5
1657
330
1231
100
AcDbSymbolTableRecord
100
AcDbRegAppTableRecord
  2
AD_DRAW
 70
     0
  0
APPID
  5
165A
330
1231
100
AcDbSymbolTableRecord
100
AcDbRegAppTableRecord
  2
ACATTRIBSERVICES
 70
     0
  0
APPID
  5
167A
330
1231
100
AcDbSymbolTableRecord
100
AcDbRegAppTableRecord
  2
DESIGNERASSEMBLIES
 70
     0
  0
APPID
  5
1680
330
1231
100
AcDbSymbolTableRecord
100
AcDbRegAppTableRecord
  2
ACADM_DIM_EDIT
 70
     0
  0
APPID
  5
1681
330
1231
100
AcDbSymbolTableRecord
100
AcDbRegAppTableRecord
  2
AMDT_DM_ADJ
 70
     0
  0
APPID
  5
16B3
330
1231
100
AcDbSymbolTableRecord
100
AcDbRegAppTableRecord
  2
ACAD_DSTYLE_DIMARC_LENGTH_SYMBOL
 70
     0
  0
APPID
  5
16B4
330
1231
100
AcDbSymbolTableRecord
100
AcDbRegAppTableRecord
  2
ACAD_DSTYLE_DIMJOGGED_JOGANGLE_SYMBOL
 70
     0
  0
ENDTAB
  0
TABLE
  2
DIMSTYLE
  5
1232
330
0
100
AcDbSymbolTable
 70
    11
100
AcDbDimStyleTable
 71
     0
  0
DIMSTYLE
105
1258
102
{ACAD_REACTORS
330
10EF
330
10F9
330
1103
330
110D
330
11FA
330
1594
102
}
330
1232
100
AcDbSymbolTableRecord
100
AcDbDimStyleTableRecord
  2
GEN-ISO
 70
     0
  4
"
 40
5.0
 41
2.5
 42
1.0
 43
7.0
 44
1.0
 47
0.1
 48
0.1
 73
     0
 74
     0
 77
     1
 78
     8
140
3.5
141
0.0
143
0.03937
146
0.71
147
0.6
172
     1
176
   256
177
   256
178
     2
271
     2
272
     3
274
     4
283
     0
340
1237
  0
DIMSTYLE
105
16B2
330
1232
100
AcDbSymbolTableRecord
100
AcDbDimStyleTableRecord
  2
AM_DIN
 70
     0
  4
"
 41
2.5
 42
1.0
 43
10.0
 44
1.0
 47
0.1
 48
0.1
 73
     0
 74
     0
 77
     1
 78
     8
 79
     2
140
3.5
141
0.0
143
0.0393701
146
0.71
147
1.5
172
     1
176
   256
177
   256
178
     2
271
     2
272
     3
274
     4
283
     0
284
     8
340
1237
371
    -1
372
    -1
1001
ACAD_DSTYLE_DIMARC_LENGTH_SYMBOL
1070
   379
1070
     0
1001
ACAD_DSTYLE_DIMJOGGED_JOGANGLE_SYMBOL
1070
   384
1040
1.570796326794896
  0
DIMSTYLE
105
16C3
330
1232
100
AcDbSymbolTableRecord
100
AcDbDimStyleTableRecord
  2
AM_DIN$3
 70
     0
  4
"
 41
2.5
 42
1.0
 43
10.0
 44
1.0
 47
0.1
 48
0.1
 73
     0
 77
     1
 78
     8
 79
     2
140
3.5
141
0.0
143
0.0393701
146
0.71
147
1.5
176
   256
177
   256
178
     2
271
     2
272
     3
274
     4
283
     0
284
     8
288
     1
289
     0
340
1237
371
    -1
372
    -1
1001
ACAD_DSTYLE_DIMARC_LENGTH_SYMBOL
1070
   379
1070
     0
1001
ACAD_DSTYLE_DIMJOGGED_JOGANGLE_SYMBOL
1070
   384
1040
1.570796326794896
  0
DIMSTYLE
105
16C8
330
1232
100
AcDbSymbolTableRecord
100
AcDbDimStyleTableRecord
  2
AM_DIN$4
 70
     0
  4
"
 41
2.5
 42
1.0
 43
10.0
 44
1.0
 47
0.1
 48
0.1
 73
     0
 77
     1
 78
     8
 79
     2
140
3.5
141
0.0
143
0.0393701
146
0.71
147
1.5
176
   256
177
   256
178
     2
271
     2
272
     3
274
     4
283
     0
284
     8
288
     1
289
     0
340
1237
371
    -1
372
    -1
1001
ACAD_DSTYLE_DIMARC_LENGTH_SYMBOL
1070
   379
1070
     0
1001
ACAD_DSTYLE_DIMJOGGED_JOGANGLE_SYMBOL
1070
   384
1040
1.570796326794896
  0
DIMSTYLE
105
16CD
330
1232
100
AcDbSymbolTableRecord
100
AcDbDimStyleTableRecord
  2
AM_DIN$6
 70
     0
  4
"
 41
2.5
 42
1.0
 43
10.0
 44
1.0
 47
0.1
 48
0.1
 73
     0
 74
     0
 78
     8
 79
     2
140
3.5
141
0.0
143
0.0393701
146
0.71
147
1.5
172
     1
176
   256
177
   256
178
     2
271
     2
272
     3
274
     4
283
     0
284
     8
340
1237
371
    -1
372
    -1
1001
ACAD_DSTYLE_DIMARC_LENGTH_SYMBOL
1070
   379
1070
     0
1001
ACAD_DSTYLE_DIMJOGGED_JOGANGLE_SYMBOL
1070
   384
1040
1.570796326794896
  0
DIMSTYLE
105
16D2
330
1232
100
AcDbSymbolTableRecord
100
AcDbDimStyleTableRecord
  2
AM_DIN$7
 70
     0
  4
"
 41
2.5
 42
1.0
 43
10.0
 44
1.0
 47
0.1
 48
0.1
 73
     0
 74
     0
 77
     1
 78
     8
 79
     2
140
5.0
141
0.0
143
0.0393701
146
0.71
147
1.5
172
     1
176
   256
177
   256
178
     2
271
     2
272
     3
274
     4
283
     0
284
     8
340
1237
371
    -1
372
    -1
1001
ACAD_DSTYLE_DIMARC_LENGTH_SYMBOL
1070
   379
1070
     0
1001
ACAD_DSTYLE_DIMJOGGED_JOGANGLE_SYMBOL
1070
   384
1040
1.570796326794896
  0
DIMSTYLE
105
16D7
330
1232
100
AcDbSymbolTableRecord
100
AcDbDimStyleTableRecord
  2
AM_DIN$SF
 70
     0
  4
"
 41
2.5
 42
1.0
 43
10.0
 44
1.0
 47
0.1
 48
0.1
 73
     0
 74
     0
 75
     1
 76
     1
 77
     1
 78
     8
 79
     2
140
3.5
141
0.0
143
0.0393701
146
0.71
147
1.5
172
     1
176
   256
177
   256
178
     2
271
     2
272
     3
274
     4
283
     0
284
     8
340
1237
371
    -1
372
    -1
1001
ACAD_DSTYLE_DIMARC_LENGTH_SYMBOL
1070
   379
1070
     0
1001
ACAD_DSTYLE_DIMJOGGED_JOGANGLE_SYMBOL
1070
   384
1040
1.570796326794896
  0
DIMSTYLE
105
16E0
330
1232
100
AcDbSymbolTableRecord
100
AcDbDimStyleTableRecord
  2
AM_DIN$SH
 70
     0
  4
"
 41
2.5
 42
1.0
 43
10.0
 44
1.0
 47
0.1
 48
0.1
 73
     0
 74
     0
 75
     1
 76
     1
 77
     1
 78
     8
 79
     2
140
3.5
141
0.0
143
0.0393701
144
2.0
146
0.71
147
1.5
172
     1
173
     1
176
   256
177
   256
178
     2
271
     2
272
     3
274
     4
283
     0
284
     8
340
1237
343
16D8
371
    -1
372
    -1
1001
ACAD_DSTYLE_DIMARC_LENGTH_SYMBOL
1070
   379
1070
     0
1001
ACAD_DSTYLE_DIMJOGGED_JOGANGLE_SYMBOL
1070
   384
1040
1.570796326794896
  0
ENDTAB
  0
TABLE
  2
BLOCK_RECORD
  5
1229
330
0
100
AcDbSymbolTable
 70
    16
  0
BLOCK_RECORD
  5
1240
330
1229
100
AcDbSymbolTableRecord
100
AcDbBlockTableRecord
  2
*MODEL_SPACE
340
161E
  0
BLOCK_RECORD
  5
123D
330
1229
100
AcDbSymbolTableRecord
100
AcDbBlockTableRecord
  2
*PAPER_SPACE
340
161F
  0
BLOCK_RECORD
  5
1261
330
1229
100
AcDbSymbolTableRecord
100
AcDbBlockTableRecord
  2
*X0
340
0
102
{BLKREFS
331
1175
102
}
  0
BLOCK_RECORD
  5
1262
330
1229
100
AcDbSymbolTableRecord
100
AcDbBlockTableRecord
  2
*X1
340
0
102
{BLKREFS
331
11E5
102
}
  0
BLOCK_RECORD
  5
126C
330
1229
100
AcDbSymbolTableRecord
100
AcDbBlockTableRecord
  2
KATALOG_LEER
340
0
102
{BLKREFS
331
12AD
331
130E
102
}
  0
BLOCK_RECORD
  5
1337
330
1229
100
AcDbSymbolTableRecord
100
AcDbBlockTableRecord
  2
*D4
340
0
  0
BLOCK_RECORD
  5
1350
330
1229
100
AcDbSymbolTableRecord
100
AcDbBlockTableRecord
  2
*D5
340
0
  0
BLOCK_RECORD
  5
1369
330
1229
100
AcDbSymbolTableRecord
100
AcDbBlockTableRecord
  2
*D6
340
0
  0
BLOCK_RECORD
  5
1382
330
1229
100
AcDbSymbolTableRecord
100
AcDbBlockTableRecord
  2
*D7
340
0
  0
BLOCK_RECORD
  5
139B
330
1229
100
AcDbSymbolTableRecord
100
AcDbBlockTableRecord
  2
*D8
340
0
  0
BLOCK_RECORD
  5
1586
330
1229
100
AcDbSymbolTableRecord
100
AcDbBlockTableRecord
  2
*D13
340
0
  0
BLOCK_RECORD
  5
16D8
330
1229
100
AcDbSymbolTableRecord
100
AcDbBlockTableRecord
  2
GENAXEH
340
0
  0
ENDTAB
  0
ENDSEC
  0
SECTION
  2
BLOCKS
  0
BLOCK
  5
1241
330
1240
100
AcDbEntity
  8
0
100
AcDbBlockBegin
  2
*MODEL_SPACE
 70
     0
 10
0.0
 20
0.0
 30
0.0
  3
*MODEL_SPACE
  1

  0
ENDBLK
  5
1242
330
1240
100
AcDbEntity
  8
0
100
AcDbBlockEnd
  0
BLOCK
  5
123E
330
123D
100
AcDbEntity
 67
     1
  8
0
100
AcDbBlockBegin
  2
*PAPER_SPACE
 70
     0
 10
0.0
 20
0.0
 30
0.0
  3
*PAPER_SPACE
  1

  0
ENDBLK
  5
123F
330
123D
100
AcDbEntity
 67
     1
  8
0
100
AcDbBlockEnd
  0
BLOCK
  5
1159
330
1261
100
AcDbEntity
  8
0
100
AcDbBlockBegin
  2
*X0
 70
     1
 10
0.0
 20
0.0
 30
0.0
  3
*X0
  1

  0
LINE
  5
115A
330
1261
100
AcDbEntity
  8
8
100
AcDbLine
 10
851.171
 20
645.8099999999999
 30
0.0
 11
855.9309999999999
 21
650.57
 31
0.0
  0
LINE
  5
115B
330
1261
100
AcDbEntity
  8
8
100
AcDbLine
 10
840.2319999999999
 20
646.0969999999999
 30
0.0
 11
845.837
 21
651.702
 31
0.0
  0
LINE
  5
115C
330
1261
100
AcDbEntity
  8
8
100
AcDbLine
 10
830.268
 20
647.3580000000001
 30
0.0
 11
834.898
 21
651.989
 31
0.0
  0
LINE
  5
115D
330
1261
100
AcDbEntity
  8
8
100
AcDbLine
 10
819.3289999999999
 20
647.6449999999999
 30
0.0
 11
823.9600000000001
 21
652.275
 31
0.0
  0
LINE
  5
115E
330
1261
100
AcDbEntity
  8
8
100
AcDbLine
 10
808.3899999999999
 20
647.931
 30
0.0
 11
813.0210000000001
 21
652.561
 31
0.0
  0
LINE
  5
115F
330
1261
100
AcDbEntity
  8
8
100
AcDbLine
 10
797.451
 20
648.218
 30
0.0
 11
802.082
 21
652.848
 31
0.0
  0
LINE
  5
1160
330
1261
100
AcDbEntity
  8
8
100
AcDbLine
 10
786.513
 20
648.504
 30
0.0
 11
791.143
 21
653.134
 31
0.0
  0
LINE
  5
1161
330
1261
100
AcDbEntity
  8
8
100
AcDbLine
 10
775.5739999999999
 20
648.7899999999999
 30
0.0
 11
780.2039999999999
 21
653.4209999999999
 31
0.0
  0
LINE
  5
1162
330
1261
100
AcDbEntity
  8
8
100
AcDbLine
 10
765.3469999999999
 20
649.7889999999999
 30
0.0
 11
769.276
 21
653.7180000000001
 31
0.0
  0
LINE
  5
1163
330
1261
100
AcDbEntity
  8
8
100
AcDbLine
 10
759.5869999999999
 20
655.255
 30
0.0
 11
763.566
 21
659.2339999999999
 31
0.0
  0
LINE
  5
1164
330
1261
100
AcDbEntity
  8
8
100
AcDbLine
 10
757.568
 20
664.46
 30
0.0
 11
761.8839999999998
 21
668.776
 31
0.0
  0
LINE
  5
1165
330
1261
100
AcDbEntity
  8
8
100
AcDbLine
 10
753.4760000000001
 20
671.5939999999999
 30
0.0
 11
758.34
 21
676.4580000000001
 31
0.0
  0
LINE
  5
1166
330
1261
100
AcDbEntity
  8
8
100
AcDbLine
 10
742.3
 20
671.6439999999998
 30
0.0
 11
747.2999999999999
 21
676.6439999999999
 31
0.0
  0
LINE
  5
1167
330
1261
100
AcDbEntity
  8
8
100
AcDbLine
 10
731.075
 20
671.6439999999998
 30
0.0
 11
736.075
 21
676.6439999999999
 31
0.0
  0
LINE
  5
1168
330
1261
100
AcDbEntity
  8
8
100
AcDbLine
 10
719.85
 20
671.6439999999998
 30
0.0
 11
724.8499999999999
 21
676.6439999999999
 31
0.0
  0
LINE
  5
1169
330
1261
100
AcDbEntity
  8
8
100
AcDbLine
 10
708.6239999999999
 20
671.6439999999998
 30
0.0
 11
713.6239999999999
 21
676.6439999999999
 31
0.0
  0
LINE
  5
116A
330
1261
100
AcDbEntity
  8
8
100
AcDbLine
 10
666.3989999999999
 20
640.6439999999999
 30
0.0
 11
671.3989999999999
 21
645.644
 31
0.0
  0
LINE
  5
116B
330
1261
100
AcDbEntity
  8
8
100
AcDbLine
 10
697.3989999999998
 20
671.6439999999998
 30
0.0
 11
702.3989999999998
 21
676.6439999999999
 31
0.0
  0
LINE
  5
116C
330
1261
100
AcDbEntity
  8
8
100
AcDbLine
 10
655.1739999999999
 20
640.6439999999999
 30
0.0
 11
660.753
 21
646.223
 31
0.0
  0
LINE
  5
116D
330
1261
100
AcDbEntity
  8
8
100
AcDbLine
 10
686.174
 20
671.6439999999998
 30
0.0
 11
691.1739999999999
 21
676.6439999999999
 31
0.0
  0
LINE
  5
116E
330
1261
100
AcDbEntity
  8
8
100
AcDbLine
 10
643.9479999999999
 20
640.6439999999999
 30
0.0
 11
658.9539999999999
 21
655.6489999999999
 31
0.0
  0
LINE
  5
116F
330
1261
100
AcDbEntity
  8
8
100
AcDbLine
 10
674.948
 20
671.6439999999998
 30
0.0
 11
679.9479999999999
 21
676.6439999999999
 31
0.0
  0
LINE
  5
1170
330
1261
100
AcDbEntity
  8
8
100
AcDbLine
 10
634.9069999999999
 20
642.8279999999999
 30
0.0
 11
643.543
 21
651.4630000000001
 31
0.0
  0
LINE
  5
1171
330
1261
100
AcDbEntity
  8
8
100
AcDbLine
 10
654.0639999999999
 20
661.985
 30
0.0
 11
659.3530000000001
 21
667.2739999999999
 31
0.0
  0
LINE
  5
1172
330
1261
100
AcDbEntity
  8
8
100
AcDbLine
 10
663.488
 20
671.4089999999999
 30
0.0
 11
668.723
 21
676.6439999999999
 31
0.0
  0
LINE
  5
1173
330
1261
100
AcDbEntity
  8
8
100
AcDbLine
 10
654.263
 20
673.409
 30
0.0
 11
657.498
 21
676.6439999999999
 31
0.0
  0
ENDBLK
  5
1174
330
1261
100
AcDbEntity
  8
0
100
AcDbBlockEnd
  0
BLOCK
  5
11AA
330
1262
100
AcDbEntity
  8
0
100
AcDbBlockBegin
  2
*X1
 70
     1
 10
0.0
 20
0.0
 30
0.0
  3
*X1
  1

  0
LINE
  5
11AB
330
1262
100
AcDbEntity
  8
8
100
AcDbLine
 10
837.5449999999998
 20
542.3819999999999
 30
0.0
 11
843.1499999999999
 21
547.987
 31
0.0
  0
LINE
  5
11AC
330
1262
100
AcDbEntity
  8
8
100
AcDbLine
 10
826.6060000000001
 20
542.668
 30
0.0
 11
831.3880000000001
 21
547.45
 31
0.0
  0
LINE
  5
11AD
330
1262
100
AcDbEntity
  8
8
100
AcDbLine
 10
815.667
 20
542.955
 30
0.0
 11
820.297
 21
547.585
 31
0.0
  0
LINE
  5
11AE
330
1262
100
AcDbEntity
  8
8
100
AcDbLine
 10
804.728
 20
543.2409999999999
 30
0.0
 11
809.3589999999998
 21
547.8709999999999
 31
0.0
  0
LINE
  5
11AF
330
1262
100
AcDbEntity
  8
8
100
AcDbLine
 10
793.789
 20
543.528
 30
0.0
 11
798.4199999999999
 21
548.158
 31
0.0
  0
LINE
  5
11B0
330
1262
100
AcDbEntity
  8
8
100
AcDbLine
 10
782.85
 20
543.8139999999999
 30
0.0
 11
787.481
 21
548.4439999999999
 31
0.0
  0
LINE
  5
11B1
330
1262
100
AcDbEntity
  8
8
100
AcDbLine
 10
771.706
 20
543.895
 30
0.0
 11
776.455
 21
548.6439999999999
 31
0.0
  0
LINE
  5
11B2
330
1262
100
AcDbEntity
  8
8
100
AcDbLine
 10
760.4810000000001
 20
543.895
 30
0.0
 11
765.2289999999999
 21
548.6439999999999
 31
0.0
  0
LINE
  5
11B3
330
1262
100
AcDbEntity
  8
8
100
AcDbLine
 10
749.256
 20
543.895
 30
0.0
 11
754.0039999999999
 21
548.6439999999999
 31
0.0
  0
LINE
  5
11B4
330
1262
100
AcDbEntity
  8
8
100
AcDbLine
 10
738.03
 20
543.895
 30
0.0
 11
742.7789999999999
 21
548.6439999999999
 31
0.0
  0
LINE
  5
11B5
330
1262
100
AcDbEntity
  8
8
100
AcDbLine
 10
726.8049999999999
 20
543.895
 30
0.0
 11
731.5539999999999
 21
548.6439999999999
 31
0.0
  0
LINE
  5
11B6
330
1262
100
AcDbEntity
  8
8
100
AcDbLine
 10
715.58
 20
543.895
 30
0.0
 11
720.3279999999999
 21
548.6439999999999
 31
0.0
  0
LINE
  5
11B7
330
1262
100
AcDbEntity
  8
8
100
AcDbLine
 10
704.3539999999999
 20
543.895
 30
0.0
 11
709.103
 21
548.6439999999999
 31
0.0
  0
LINE
  5
11B8
330
1262
100
AcDbEntity
  8
8
100
AcDbLine
 10
693.1289999999998
 20
543.895
 30
0.0
 11
697.878
 21
548.6439999999999
 31
0.0
  0
LINE
  5
11B9
330
1262
100
AcDbEntity
  8
8
100
AcDbLine
 10
681.904
 20
543.895
 30
0.0
 11
686.6519999999999
 21
548.6439999999999
 31
0.0
  0
LINE
  5
11BA
330
1262
100
AcDbEntity
  8
8
100
AcDbLine
 10
670.6789999999999
 20
543.895
 30
0.0
 11
675.4269999999999
 21
548.6439999999999
 31
0.0
  0
LINE
  5
11BB
330
1262
100
AcDbEntity
  8
8
100
AcDbLine
 10
659.4529999999999
 20
543.895
 30
0.0
 11
664.202
 21
548.6439999999999
 31
0.0
  0
LINE
  5
11BC
330
1262
100
AcDbEntity
  8
8
100
AcDbLine
 10
648.2280000000001
 20
543.895
 30
0.0
 11
652.976
 21
548.6439999999999
 31
0.0
  0
LINE
  5
11BD
330
1262
100
AcDbEntity
  8
8
100
AcDbLine
 10
634.7509999999999
 20
541.644
 30
0.0
 11
641.751
 21
548.6439999999999
 31
0.0
  0
LINE
  5
11BE
330
1262
100
AcDbEntity
  8
8
100
AcDbLine
 10
623.5259999999999
 20
541.644
 30
0.0
 11
628.526
 21
546.644
 31
0.0
  0
LINE
  5
11BF
330
1262
100
AcDbEntity
  8
8
100
AcDbLine
 10
612.2999999999999
 20
541.644
 30
0.0
 11
617.3
 21
546.644
 31
0.0
  0
LINE
  5
11C0
330
1262
100
AcDbEntity
  8
8
100
AcDbLine
 10
601.075
 20
541.644
 30
0.0
 11
606.075
 21
546.644
 31
0.0
  0
LINE
  5
11C1
330
1262
100
AcDbEntity
  8
8
100
AcDbLine
 10
589.85
 20
541.644
 30
0.0
 11
594.85
 21
546.644
 31
0.0
  0
LINE
  5
11C2
330
1262
100
AcDbEntity
  8
8
100
AcDbLine
 10
578.624
 20
541.644
 30
0.0
 11
583.624
 21
546.644
 31
0.0
  0
LINE
  5
11C3
330
1262
100
AcDbEntity
  8
8
100
AcDbLine
 10
567.3989999999999
 20
541.644
 30
0.0
 11
572.3989999999999
 21
546.644
 31
0.0
  0
LINE
  5
11C4
330
1262
100
AcDbEntity
  8
8
100
AcDbLine
 10
556.1739999999999
 20
541.644
 30
0.0
 11
561.174
 21
546.644
 31
0.0
  0
LINE
  5
11C5
330
1262
100
AcDbEntity
  8
8
100
AcDbLine
 10
545.106
 20
541.8009999999999
 30
0.0
 11
549.948
 21
546.644
 31
0.0
  0
LINE
  5
11C6
330
1262
100
AcDbEntity
  8
8
100
AcDbLine
 10
534.7839999999999
 20
542.704
 30
0.0
 11
539.381
 21
547.3019999999999
 31
0.0
  0
LINE
  5
11C7
330
1262
100
AcDbEntity
  8
8
100
AcDbLine
 10
524.461
 20
543.6069999999999
 30
0.0
 11
529.0589999999999
 21
548.205
 31
0.0
  0
LINE
  5
11C8
330
1262
100
AcDbEntity
  8
8
100
AcDbLine
 10
513.524
 20
543.895
 30
0.0
 11
518.2719999999999
 21
548.6439999999999
 31
0.0
  0
LINE
  5
11C9
330
1262
100
AcDbEntity
  8
8
100
AcDbLine
 10
502.299
 20
543.895
 30
0.0
 11
507.0469999999999
 21
548.6439999999999
 31
0.0
  0
LINE
  5
11CA
330
1262
100
AcDbEntity
  8
8
100
AcDbLine
 10
491.073
 20
543.895
 30
0.0
 11
495.8219999999999
 21
548.6439999999999
 31
0.0
  0
LINE
  5
11CB
330
1262
100
AcDbEntity
  8
8
100
AcDbLine
 10
479.848
 20
543.895
 30
0.0
 11
484.597
 21
548.6439999999999
 31
0.0
  0
LINE
  5
11CC
330
1262
100
AcDbEntity
  8
8
100
AcDbLine
 10
468.6230000000001
 20
543.895
 30
0.0
 11
473.371
 21
548.6439999999999
 31
0.0
  0
LINE
  5
11CD
330
1262
100
AcDbEntity
  8
8
100
AcDbLine
 10
457.7919999999999
 20
544.289
 30
0.0
 11
462.1459999999999
 21
548.6439999999999
 31
0.0
  0
LINE
  5
11CE
330
1262
100
AcDbEntity
  8
8
100
AcDbLine
 10
449.221
 20
546.9439999999999
 30
0.0
 11
452.845
 21
550.5679999999999
 31
0.0
  0
LINE
  5
11CF
330
1262
100
AcDbEntity
  8
8
100
AcDbLine
 10
442.999
 20
551.947
 30
0.0
 11
446.422
 21
555.3709999999999
 31
0.0
  0
LINE
  5
11D0
330
1262
100
AcDbEntity
  8
8
100
AcDbLine
 10
438.6029999999999
 20
558.7759999999999
 30
0.0
 11
442.3049999999999
 21
562.479
 31
0.0
  0
LINE
  5
11D1
330
1262
100
AcDbEntity
  8
8
100
AcDbLine
 10
436.4589999999999
 20
567.8580000000001
 30
0.0
 11
441.309
 21
572.708
 31
0.0
  0
LINE
  5
11D2
330
1262
100
AcDbEntity
  8
8
100
AcDbLine
 10
436.2009999999999
 20
578.825
 30
0.0
 11
441.1159999999999
 21
583.74
 31
0.0
  0
LINE
  5
11D3
330
1262
100
AcDbEntity
  8
8
100
AcDbLine
 10
436.009
 20
589.858
 30
0.0
 11
440.9229999999999
 21
594.7729999999999
 31
0.0
  0
LINE
  5
11D4
330
1262
100
AcDbEntity
  8
8
100
AcDbLine
 10
435.8159999999999
 20
600.891
 30
0.0
 11
440.7309999999999
 21
605.806
 31
0.0
  0
LINE
  5
11D5
330
1262
100
AcDbEntity
  8
8
100
AcDbLine
 10
435.623
 20
611.9239999999999
 30
0.0
 11
440.538
 21
616.839
 31
0.0
  0
LINE
  5
11D6
330
1262
100
AcDbEntity
  8
8
100
AcDbLine
 10
435.4309999999999
 20
622.956
 30
0.0
 11
440.3459999999999
 21
627.871
 31
0.0
  0
LINE
  5
11D7
330
1262
100
AcDbEntity
  8
8
100
AcDbLine
 10
435.2380000000001
 20
633.989
 30
0.0
 11
440.153
 21
638.904
 31
0.0
  0
LINE
  5
11D8
330
1262
100
AcDbEntity
  8
8
100
AcDbLine
 10
435.0459999999999
 20
645.0219999999999
 30
0.0
 11
439.961
 21
649.9369999999999
 31
0.0
  0
LINE
  5
11D9
330
1262
100
AcDbEntity
  8
8
100
AcDbLine
 10
434.853
 20
656.0549999999999
 30
0.0
 11
439.768
 21
660.97
 31
0.0
  0
LINE
  5
11DA
330
1262
100
AcDbEntity
  8
8
100
AcDbLine
 10
433.749
 20
666.1760000000001
 30
0.0
 11
439.5749999999999
 21
672.0019999999999
 31
0.0
  0
LINE
  5
11DB
330
1262
100
AcDbEntity
  8
8
100
AcDbLine
 10
425.3169999999999
 20
668.9689999999999
 30
0.0
 11
433.105
 21
676.7569999999999
 31
0.0
  0
LINE
  5
11DC
330
1262
100
AcDbEntity
  8
8
100
AcDbLine
 10
414.47
 20
669.348
 30
0.0
 11
421.7659999999999
 21
676.6439999999999
 31
0.0
  0
LINE
  5
11DD
330
1262
100
AcDbEntity
  8
8
100
AcDbLine
 10
403.623
 20
669.726
 30
0.0
 11
410.541
 21
676.6439999999999
 31
0.0
  0
LINE
  5
11DE
330
1262
100
AcDbEntity
  8
8
100
AcDbLine
 10
392.777
 20
670.105
 30
0.0
 11
399.315
 21
676.6439999999999
 31
0.0
  0
LINE
  5
11DF
330
1262
100
AcDbEntity
  8
8
100
AcDbLine
 10
381.93
 20
670.4839999999999
 30
0.0
 11
388.09
 21
676.6439999999999
 31
0.0
  0
LINE
  5
11E0
330
1262
100
AcDbEntity
  8
8
100
AcDbLine
 10
371.022
 20
670.801
 30
0.0
 11
376.865
 21
676.6439999999999
 31
0.0
  0
LINE
  5
11E1
330
1262
100
AcDbEntity
  8
8
100
AcDbLine
 10
357.639
 20
668.6439999999999
 30
0.0
 11
365.639
 21
676.6439999999999
 31
0.0
  0
LINE
  5
11E2
330
1262
100
AcDbEntity
  8
8
100
AcDbLine
 10
346.414
 20
668.6439999999999
 30
0.0
 11
354.414
 21
676.6439999999999
 31
0.0
  0
LINE
  5
11E3
330
1262
100
AcDbEntity
  8
8
100
AcDbLine
 10
335.189
 20
668.6439999999999
 30
0.0
 11
343.189
 21
676.6439999999999
 31
0.0
  0
ENDBLK
  5
11E4
330
1262
100
AcDbEntity
  8
0
100
AcDbBlockEnd
  0
BLOCK
  5
126D
330
126C
100
AcDbEntity
  8
0
100
AcDbBlockBegin
  2
KATALOG_LEER
 70
     0
 10
0.0
 20
0.0
 30
0.0
  3
KATALOG_LEER
  1

  0
ENDBLK
  5
126E
330
126C
100
AcDbEntity
  8
0
100
AcDbBlockEnd
  0
BLOCK
  5
13F0
330
1337
100
AcDbEntity
  8
0
100
AcDbBlockBegin
  2
*D4
 70
     1
 10
0.0
 20
0.0
 30
0.0
  3
*D4
  1
GEVFRAME
  0
LINE
  5
13F1
330
1337
100
AcDbEntity
  8
0
  6
ByBlock
100
AcDbLine
 10
296.341386
 20
372.331731
 30
0.0
 11
296.341386
 21
490.3307309999999
 31
0.0
  0
LINE
  5
13F2
330
1337
100
AcDbEntity
  8
0
  6
ByBlock
100
AcDbLine
 10
726.341386
 20
372.331731
 30
0.0
 11
726.341386
 21
490.3307309999999
 31
0.0
  0
LINE
  5
13F3
330
1337
100
AcDbEntity
  8
0
  6
ByBlock
100
AcDbLine
 10
308.841386
 20
485.3307309999999
 30
0.0
 11
713.841386
 21
485.3307309999999
 31
0.0
  0
SOLID
  5
13F4
330
1337
100
AcDbEntity
  8
0
  6
ByBlock
100
AcDbTrace
 10
308.841386
 20
487.4140639999999
 30
0.0
 11
308.841386
 21
483.247398
 31
0.0
 12
296.341386
 22
485.3307309999999
 32
0.0
 13
296.341386
 23
485.3307309999999
 33
0.0
  0
SOLID
  5
13F5
330
1337
100
AcDbEntity
  8
0
  6
ByBlock
100
AcDbTrace
 10
713.841386
 20
487.4140639999999
 30
0.0
 11
713.841386
 21
483.247398
 31
0.0
 12
726.341386
 22
485.3307309999999
 32
0.0
 13
726.341386
 23
485.3307309999999
 33
0.0
  0
MTEXT
  5
13F6
330
1337
100
AcDbEntity
  8
0
  6
ByBlock
 62
     2
100
AcDbMText
 10
511.341386
 20
497.0807309999999
 30
0.0
 40
17.5
 41
0.0
 71
     5
 72
     1
  1
\U+2205 430
 73
     1
 44
1.0
1001
ACAD
1000
MTEXTBEGIN
1070
    73
1070
     1
1070
    44
1040
1.0
1070
    74
1070
     0
1000
MTEXTEND
  0
POINT
  5
13F7
330
1337
100
AcDbEntity
  8
DEFPOINTS
  6
ByBlock
 62
     0
100
AcDbPoint
 10
296.341386
 20
367.331731
 30
0.0
  0
POINT
  5
13F8
330
1337
100
AcDbEntity
  8
DEFPOINTS
  6
ByBlock
 62
     0
100
AcDbPoint
 10
726.341386
 20
367.331731
 30
0.0
  0
POINT
  5
13F9
330
1337
100
AcDbEntity
  8
DEFPOINTS
  6
ByBlock
 62
     0
100
AcDbPoint
 10
726.341386
 20
485.3307309999999
 30
0.0
  0
ENDBLK
  5
13FA
330
1337
100
AcDbEntity
  8
0
100
AcDbBlockEnd
  0
BLOCK
  5
13E5
330
1350
100
AcDbEntity
  8
0
100
AcDbBlockBegin
  2
*D5
 70
     1
 10
0.0
 20
0.0
 30
0.0
  3
*D5
  1
GEVFRAME
  0
LINE
  5
13E6
330
1350
100
AcDbEntity
  8
0
  6
ByBlock
100
AcDbLine
 10
397.341386
 20
385.331731
 30
0.0
 11
397.341386
 21
455.330731
 31
0.0
  0
LINE
  5
13E7
330
1350
100
AcDbEntity
  8
0
  6
ByBlock
100
AcDbLine
 10
625.3413860000001
 20
385.331731
 30
0.0
 11
625.3413860000001
 21
455.330731
 31
0.0
  0
LINE
  5
13E8
330
1350
100
AcDbEntity
  8
0
  6
ByBlock
100
AcDbLine
 10
409.8413859999999
 20
450.3307309999999
 30
0.0
 11
612.8413860000001
 21
450.3307309999999
 31
0.0
  0
SOLID
  5
13E9
330
1350
100
AcDbEntity
  8
0
  6
ByBlock
100
AcDbTrace
 10
409.8413859999999
 20
452.4140639999999
 30
0.0
 11
409.8413859999999
 21
448.247398
 31
0.0
 12
397.341386
 22
450.3307309999999
 32
0.0
 13
397.341386
 23
450.3307309999999
 33
0.0
  0
SOLID
  5
13EA
330
1350
100
AcDbEntity
  8
0
  6
ByBlock
100
AcDbTrace
 10
612.8413860000001
 20
452.4140639999999
 30
0.0
 11
612.8413860000001
 21
448.247398
 31
0.0
 12
625.3413860000001
 22
450.3307309999999
 32
0.0
 13
625.3413860000001
 23
450.3307309999999
 33
0.0
  0
MTEXT
  5
13EB
330
1350
100
AcDbEntity
  8
0
  6
ByBlock
 62
     2
100
AcDbMText
 10
511.341386
 20
462.082454
 30
0.0
 40
17.5
 41
0.0
 71
     5
 72
     1
  1
\U+2205 228
 73
     1
 44
1.0
1001
ACAD
1000
MTEXTBEGIN
1070
    73
1070
     1
1070
    44
1040
1.0
1070
    74
1070
     0
1000
MTEXTEND
  0
POINT
  5
13EC
330
1350
100
AcDbEntity
  8
DEFPOINTS
  6
ByBlock
 62
     0
100
AcDbPoint
 10
397.341386
 20
380.331731
 30
0.0
  0
POINT
  5
13ED
330
1350
100
AcDbEntity
  8
DEFPOINTS
  6
ByBlock
 62
     0
100
AcDbPoint
 10
625.3413860000001
 20
380.331731
 30
0.0
  0
POINT
  5
13EE
330
1350
100
AcDbEntity
  8
DEFPOINTS
  6
ByBlock
 62
     0
100
AcDbPoint
 10
625.3413860000001
 20
450.3307309999999
 30
0.0
  0
ENDBLK
  5
13EF
330
1350
100
AcDbEntity
  8
0
100
AcDbBlockEnd
  0
BLOCK
  5
15D7
330
1369
100
AcDbEntity
  8
0
100
AcDbBlockBegin
  2
*D6
 70
     1
 10
0.0
 20
0.0
 30
0.0
  3
*D6
  1

  0
LINE
  5
15D8
330
1369
100
AcDbEntity
  8
0
  6
ByBlock
100
AcDbLine
 10
506.341386
 20
240.331731
 30
0.0
 11
241.341386
 21
240.331731
 31
0.0
  0
LINE
  5
15D9
330
1369
100
AcDbEntity
  8
0
  6
ByBlock
100
AcDbLine
 10
296.108386
 20
375.331731
 30
0.0
 11
241.341386
 21
375.331731
 31
0.0
  0
LINE
  5
15DA
330
1369
100
AcDbEntity
  8
0
  6
ByBlock
100
AcDbLine
 10
246.341386
 20
252.831731
 30
0.0
 11
246.341386
 21
362.831731
 31
0.0
  0
SOLID
  5
15DB
330
1369
100
AcDbEntity
  8
0
  6
ByBlock
100
AcDbTrace
 10
244.258053
 20
252.831731
 30
0.0
 11
248.424719
 21
252.831731
 31
0.0
 12
246.341386
 22
240.331731
 32
0.0
 13
246.341386
 23
240.331731
 33
0.0
  0
SOLID
  5
15DC
330
1369
100
AcDbEntity
  8
0
  6
ByBlock
100
AcDbTrace
 10
244.258053
 20
362.831731
 30
0.0
 11
248.424719
 21
362.831731
 31
0.0
 12
246.341386
 22
375.331731
 32
0.0
 13
246.341386
 23
375.331731
 33
0.0
  0
MTEXT
  5
15DD
330
1369
100
AcDbEntity
  8
0
  6
ByBlock
 62
     2
100
AcDbMText
 10
234.591386
 20
307.831731
 30
0.0
 40
17.5
 41
0.0
 71
     5
 72
     1
  1
135
 11
0.0
 21
1.0
 31
0.0
 73
     1
 44
1.0
1001
ACAD
1000
MTEXTBEGIN
1070
    73
1070
     1
1070
    44
1040
1.0
1070
    74
1070
     0
1000
MTEXTEND
  0
POINT
  5
15DE
330
1369
100
AcDbEntity
  8
DEFPOINTS
  6
ByBlock
 62
     0
100
AcDbPoint
 10
511.341386
 20
240.331731
 30
0.0
  0
POINT
  5
15DF
330
1369
100
AcDbEntity
  8
DEFPOINTS
  6
ByBlock
 62
     0
100
AcDbPoint
 10
301.108386
 20
375.331731
 30
0.0
  0
POINT
  5
15E0
330
1369
100
AcDbEntity
  8
DEFPOINTS
  6
ByBlock
 62
     0
100
AcDbPoint
 10
246.341386
 20
375.331731
 30
0.0
  0
ENDBLK
  5
15E1
330
1369
100
AcDbEntity
  8
0
100
AcDbBlockEnd
  0
BLOCK
  5
14C8
330
1382
100
AcDbEntity
  8
0
100
AcDbBlockBegin
  2
*D7
 70
     1
 10
0.0
 20
0.0
 30
0.0
  3
*D7
  1

  0
LINE
  5
14C9
330
1382
100
AcDbEntity
  8
0
  6
ByBlock
100
AcDbLine
 10
511.341386
 20
217.146417
 30
0.0
 11
511.341386
 21
185.331731
 31
0.0
  0
LINE
  5
14CA
330
1382
100
AcDbEntity
  8
0
  6
ByBlock
100
AcDbLine
 10
821.3413860000001
 20
290.331731
 30
0.0
 11
821.3413860000001
 21
185.331731
 31
0.0
  0
LINE
  5
14CB
330
1382
100
AcDbEntity
  8
0
  6
ByBlock
100
AcDbLine
 10
523.841386
 20
190.331731
 30
0.0
 11
808.8413860000001
 21
190.331731
 31
0.0
  0
SOLID
  5
14CC
330
1382
100
AcDbEntity
  8
0
  6
ByBlock
100
AcDbTrace
 10
523.841386
 20
192.415064
 30
0.0
 11
523.841386
 21
188.248398
 31
0.0
 12
511.341386
 22
190.331731
 32
0.0
 13
511.341386
 23
190.331731
 33
0.0
  0
SOLID
  5
14CD
330
1382
100
AcDbEntity
  8
0
  6
ByBlock
100
AcDbTrace
 10
808.8413860000001
 20
192.415064
 30
0.0
 11
808.8413860000001
 21
188.248398
 31
0.0
 12
821.3413860000001
 22
190.331731
 32
0.0
 13
821.3413860000001
 23
190.331731
 33
0.0
  0
MTEXT
  5
14CE
330
1382
100
AcDbEntity
  8
0
  6
ByBlock
 62
     2
100
AcDbMText
 10
666.341386
 20
202.081731
 30
0.0
 40
17.5
 41
0.0
 71
     5
 72
     1
  1
310
 73
     1
 44
1.0
1001
ACAD
1000
MTEXTBEGIN
1070
    73
1070
     1
1070
    44
1040
1.0
1070
    74
1070
     0
1000
MTEXTEND
  0
POINT
  5
14CF
330
1382
100
AcDbEntity
  8
DEFPOINTS
  6
ByBlock
 62
     0
100
AcDbPoint
 10
511.341386
 20
222.146417
 30
0.0
  0
POINT
  5
14D0
330
1382
100
AcDbEntity
  8
DEFPOINTS
  6
ByBlock
 62
     0
100
AcDbPoint
 10
821.3413860000001
 20
295.331731
 30
0.0
  0
POINT
  5
14D1
330
1382
100
AcDbEntity
  8
DEFPOINTS
  6
ByBlock
 62
     0
100
AcDbPoint
 10
821.3413860000001
 20
190.331731
 30
0.0
  0
ENDBLK
  5
14D2
330
1382
100
AcDbEntity
  8
0
100
AcDbBlockEnd
  0
BLOCK
  5
14EB
330
139B
100
AcDbEntity
  8
0
100
AcDbBlockBegin
  2
*D8
 70
     1
 10
0.0
 20
0.0
 30
0.0
  3
*D8
  1

  0
LINE
  5
14EC
330
139B
100
AcDbEntity
  8
0
  6
ByBlock
100
AcDbLine
 10
826.3413859999999
 20
295.331731
 30
0.0
 11
877.725584
 21
295.331731
 31
0.0
  0
LINE
  5
14ED
330
139B
100
AcDbEntity
  8
0
  6
ByBlock
100
AcDbLine
 10
729.931386
 20
375.331731
 30
0.0
 11
877.725584
 21
375.331731
 31
0.0
  0
LINE
  5
14EE
330
139B
100
AcDbEntity
  8
0
  6
ByBlock
100
AcDbLine
 10
872.7255839999999
 20
307.831731
 30
0.0
 11
872.7255839999999
 21
362.831731
 31
0.0
  0
SOLID
  5
14EF
330
139B
100
AcDbEntity
  8
0
  6
ByBlock
100
AcDbTrace
 10
870.6422509999999
 20
307.831731
 30
0.0
 11
874.8089179999999
 21
307.831731
 31
0.0
 12
872.7255839999999
 22
295.331731
 32
0.0
 13
872.7255839999999
 23
295.331731
 33
0.0
  0
SOLID
  5
14F0
330
139B
100
AcDbEntity
  8
0
  6
ByBlock
100
AcDbTrace
 10
870.6422509999999
 20
362.831731
 30
0.0
 11
874.8089179999999
 21
362.831731
 31
0.0
 12
872.7255839999999
 22
375.331731
 32
0.0
 13
872.7255839999999
 23
375.331731
 33
0.0
  0
MTEXT
  5
14F1
330
139B
100
AcDbEntity
  8
0
  6
ByBlock
 62
     2
100
AcDbMText
 10
860.975584
 20
335.331731
 30
0.0
 40
17.5
 41
0.0
 71
     5
 72
     1
  1
80
 11
0.0
 21
1.0
 31
0.0
 73
     1
 44
1.0
1001
ACAD
1000
MTEXTBEGIN
1070
    73
1070
     1
1070
    44
1040
1.0
1070
    74
1070
     0
1000
MTEXTEND
  0
POINT
  5
14F2
330
139B
100
AcDbEntity
  8
DEFPOINTS
  6
ByBlock
 62
     0
100
AcDbPoint
 10
821.3413860000001
 20
295.331731
 30
0.0
  0
POINT
  5
14F3
330
139B
100
AcDbEntity
  8
DEFPOINTS
  6
ByBlock
 62
     0
100
AcDbPoint
 10
724.931386
 20
375.331731
 30
0.0
  0
POINT
  5
14F4
330
139B
100
AcDbEntity
  8
DEFPOINTS
  6
ByBlock
 62
     0
100
AcDbPoint
 10
872.7255839999999
 20
375.331731
 30
0.0
  0
ENDBLK
  5
14F5
330
139B
100
AcDbEntity
  8
0
100
AcDbBlockEnd
  0
BLOCK
  5
15EF
330
1586
100
AcDbEntity
  8
0
100
AcDbBlockBegin
  2
*D13
 70
     1
 10
0.0
 20
0.0
 30
0.0
  3
*D13
  1

  0
LINE
  5
15F0
330
1586
100
AcDbEntity
  8
0
  6
ByBlock
100
AcDbLine
 10
392.341386
 20
380.331731
 30
0.0
 11
241.341386
 21
380.331731
 31
0.0
  0
LINE
  5
15F1
330
1586
100
AcDbEntity
  8
0
  6
ByBlock
100
AcDbLine
 10
296.108386
 20
375.331731
 30
0.0
 11
241.341386
 21
375.331731
 31
0.0
  0
LINE
  5
15F2
330
1586
100
AcDbEntity
  8
0
  6
ByBlock
100
AcDbLine
 10
246.341386
 20
362.831731
 30
0.0
 11
246.341386
 21
350.331731
 31
0.0
  0
LINE
  5
15F3
330
1586
100
AcDbEntity
  8
0
  6
ByBlock
100
AcDbLine
 10
246.341386
 20
392.831731
 30
0.0
 11
246.341386
 21
419.056605
 31
0.0
  0
LINE
  5
15F4
330
1586
100
AcDbEntity
  8
0
  6
ByBlock
100
AcDbLine
 10
246.341386
 20
375.331731
 30
0.0
 11
246.341386
 21
380.331731
 31
0.0
  0
SOLID
  5
15F5
330
1586
100
AcDbEntity
  8
0
  6
ByBlock
100
AcDbTrace
 10
244.258053
 20
362.831731
 30
0.0
 11
248.424719
 21
362.831731
 31
0.0
 12
246.341386
 22
375.331731
 32
0.0
 13
246.341386
 23
375.331731
 33
0.0
  0
SOLID
  5
15F6
330
1586
100
AcDbEntity
  8
0
  6
ByBlock
100
AcDbTrace
 10
244.258053
 20
392.831731
 30
0.0
 11
248.424719
 21
392.831731
 31
0.0
 12
246.341386
 22
380.331731
 32
0.0
 13
246.341386
 23
380.331731
 33
0.0
  0
MTEXT
  5
15F7
330
1586
100
AcDbEntity
  8
0
  6
ByBlock
 62
     2
100
AcDbMText
 10
234.591386
 20
412.1941679999999
 30
0.0
 40
17.5
 41
0.0
 71
     5
 72
     1
  1
5
 11
0.0
 21
1.0
 31
0.0
 73
     1
 44
1.0
1001
ACAD
1000
MTEXTBEGIN
1070
    73
1070
     1
1070
    44
1040
1.0
1070
    74
1070
     0
1000
MTEXTEND
  0
POINT
  5
15F8
330
1586
100
AcDbEntity
  8
DEFPOINTS
  6
ByBlock
 62
     0
100
AcDbPoint
 10
397.341386
 20
380.331731
 30
0.0
  0
POINT
  5
15F9
330
1586
100
AcDbEntity
  8
DEFPOINTS
  6
ByBlock
 62
     0
100
AcDbPoint
 10
301.108386
 20
375.331731
 30
0.0
  0
POINT
  5
15FA
330
1586
100
AcDbEntity
  8
DEFPOINTS
  6
ByBlock
 62
     0
100
AcDbPoint
 10
246.341386
 20
375.331731
 30
0.0
  0
ENDBLK
  5
15FB
330
1586
100
AcDbEntity
  8
0
100
AcDbBlockEnd
  0
BLOCK
  5
16DA
330
16D8
100
AcDbEntity
  8
0
100
AcDbBlockBegin
  2
GENAXEH
 70
     0
 10
0.0
 20
0.0
 30
0.0
  3
GENAXEH
  1

  0
LINE
  5
16D9
330
16D8
100
AcDbEntity
  8
0
100
AcDbLine
 10
-1.0
 20
0.0
 30
0.0
 11
1.0
 21
0.0
 31
0.0
  0
ENDBLK
  5
16DB
330
16D8
100
AcDbEntity
  8
0
100
AcDbBlockEnd
  0
ENDSEC
  0
SECTION
  2
ENTITIES
  0
LINE
  5
100E
330
1240
100
AcDbEntity
  8
0
100
AcDbLine
 10
637.341386
 20
247.660194
 30
0.0
 11
637.341386
 21
342.277589
 31
0.0
  0
LINE
  5
1030
330
1240
100
AcDbEntity
  8
0
100
AcDbLine
 10
398.684386
 20
380.331731
 30
0.0
 11
449.164386
 21
380.331731
 31
0.0
  0
LINE
  5
1031
330
1240
100
AcDbEntity
  8
4
  6
GEN7
 62
     4
 48
0.451
100
AcDbLine
 10
748.395386
 20
297.241731
 30
0.0
 11
847.5643859999999
 21
294.644731
 31
0.0
  0
LINE
  5
1032
330
1240
100
AcDbEntity
  8
0
100
AcDbLine
 10
819.954386
 20
242.376731
 30
0.0
 11
822.737386
 21
348.622731
 31
0.0
  0
LINE
  5
1033
330
1240
100
AcDbEntity
  8
0
100
AcDbLine
 10
733.853386
 20
352.390731
 30
0.0
 11
816.776386
 21
350.219731
 31
0.0
  0
LINE
  5
1034
330
1240
100
AcDbEntity
  8
0
100
AcDbLine
 10
744.182386
 20
242.582731
 30
0.0
 11
813.910386
 21
240.756731
 31
0.0
  0
LINE
  5
1035
330
1240
100
AcDbEntity
  8
0
100
AcDbLine
 10
733.678386
 20
347.643731
 30
0.0
 11
797.659386
 21
345.968731
 31
0.0
  0
LINE
  5
1036
330
1240
100
AcDbEntity
  8
0
100
AcDbLine
 10
744.3073860000001
 20
247.331731
 30
0.0
 11
795.041386
 21
246.002731
 31
0.0
  0
LINE
  5
1037
330
1240
100
AcDbEntity
  8
0
100
AcDbLine
 10
425.817386
 20
247.331731
 30
0.0
 11
744.3073860000001
 21
247.331731
 31
0.0
  0
LINE
  5
1038
330
1240
100
AcDbEntity
  8
0
100
AcDbLine
 10
403.841386
 20
380.331731
 30
0.0
 11
405.8203859999999
 21
266.982731
 31
0.0
  0
LINE
  5
1039
330
1240
100
AcDbEntity
  8
0
100
AcDbLine
 10
813.910386
 20
240.756731
 30
0.0
 11
819.954386
 21
242.376731
 31
0.0
  0
LINE
  5
103A
330
1240
100
AcDbEntity
  8
0
100
AcDbLine
 10
816.776386
 20
350.219731
 30
0.0
 11
822.737386
 21
348.622731
 31
0.0
  0
LINE
  5
103B
330
1240
100
AcDbEntity
  8
0
100
AcDbLine
 10
802.631386
 20
344.837731
 30
0.0
 11
822.624386
 21
344.314731
 31
0.0
  0
LINE
  5
103C
330
1240
100
AcDbEntity
  8
0
100
AcDbLine
 10
800.0653859999999
 20
246.871731
 30
0.0
 11
820.058386
 21
246.347731
 31
0.0
  0
LINE
  5
103D
330
1240
100
AcDbEntity
  8
0
100
AcDbLine
 10
795.041386
 20
246.002731
 30
0.0
 11
800.0653859999999
 21
246.871731
 31
0.0
  0
LINE
  5
103E
330
1240
100
AcDbEntity
  8
0
100
AcDbLine
 10
797.659386
 20
345.968731
 30
0.0
 11
802.631386
 21
344.837731
 31
0.0
  0
LINE
  5
103F
330
1240
100
AcDbEntity
  8
0
100
AcDbLine
 10
618.754386
 20
375.331731
 30
0.0
 11
721.5743859999999
 21
375.331731
 31
0.0
  0
LINE
  5
1040
330
1240
100
AcDbEntity
  8
0
100
AcDbLine
 10
629.564386
 20
370.331731
 30
0.0
 11
717.379386
 21
370.331731
 31
0.0
  0
LINE
  5
1041
330
1240
100
AcDbEntity
  8
0
100
AcDbLine
 10
618.3443859999999
 20
351.875731
 30
0.0
 11
618.841386
 21
380.331731
 31
0.0
  0
LINE
  5
1042
330
1240
100
AcDbEntity
  8
0
100
AcDbLine
 10
599.341386
 20
349.999731
 30
0.0
 11
616.7733860000001
 21
350.304731
 31
0.0
  0
LINE
  5
1043
330
1240
100
AcDbEntity
  8
0
100
AcDbLine
 10
599.341386
 20
349.999731
 30
0.0
 11
599.341386
 21
346.331731
 31
0.0
  0
ARC
  5
1044
330
1240
100
AcDbEntity
  8
0
100
AcDbCircle
 10
616.7453860000001
 20
351.903731
 30
0.0
 40
1.6
100
AcDbArc
 50
270.9990000000001
 51
358.999
  0
LINE
  5
1045
330
1240
100
AcDbEntity
  8
0
100
AcDbLine
 10
599.341386
 20
339.331731
 30
0.0
 11
637.341386
 21
339.331731
 31
0.0
  0
LINE
  5
1046
330
1240
100
AcDbEntity
  8
0
100
AcDbLine
 10
623.285386
 20
348.400731
 30
0.0
 11
623.564386
 21
364.435731
 31
0.0
  0
ARC
  5
1047
330
1240
100
AcDbEntity
  8
0
100
AcDbCircle
 10
629.564386
 20
364.331731
 30
0.0
 40
6.0
100
AcDbArc
 50
90.0
 51
179.0
  0
LINE
  5
1048
330
1240
100
AcDbEntity
  8
0
100
AcDbLine
 10
627.284386
 20
344.331731
 30
0.0
 11
637.341386
 21
344.331731
 31
0.0
  0
ARC
  5
104A
330
1240
100
AcDbEntity
  8
0
100
AcDbCircle
 10
627.284386
 20
348.331731
 30
0.0
 40
4.0
100
AcDbArc
 50
179.0
 51
270.0
  0
LINE
  5
104C
330
1240
100
AcDbEntity
  8
0
100
AcDbLine
 10
301.108386
 20
375.331731
 30
0.0
 11
403.928386
 21
375.331731
 31
0.0
  0
ARC
  5
104D
330
1240
100
AcDbEntity
  8
0
100
AcDbCircle
 10
383.602386
 20
357.331731
 30
0.0
 40
10.0
100
AcDbArc
 50
190.0
 51
0.0
  0
LINE
  5
104E
330
1240
100
AcDbEntity
  8
0
100
AcDbLine
 10
296.341386
 20
367.331731
 30
0.0
 11
370.870386
 21
367.331731
 31
0.0
  0
LINE
  5
104F
330
1240
100
AcDbEntity
  8
0
100
AcDbLine
 10
296.341386
 20
367.331731
 30
0.0
 11
297.169386
 21
372.025731
 31
0.0
  0
ARC
  5
1050
330
1240
100
AcDbEntity
  8
0
100
AcDbCircle
 10
301.108386
 20
371.331731
 30
0.0
 40
4.0
100
AcDbArc
 50
90.0
 51
170.0
  0
LINE
  5
1051
330
1240
100
AcDbEntity
  8
0
100
AcDbLine
 10
372.078386
 20
365.103731
 30
0.0
 11
373.754386
 21
355.594731
 31
0.0
  0
LINE
  5
1052
330
1240
100
AcDbEntity
  8
0
100
AcDbLine
 10
393.450386
 20
355.594731
 30
0.0
 11
395.441386
 21
366.884731
 31
0.0
  0
LINE
  5
1053
330
1240
100
AcDbEntity
  8
0
100
AcDbLine
 10
399.167386
 20
361.638731
 30
0.0
 11
400.8163859999999
 21
267.146731
 31
0.0
  0
LINE
  5
1054
330
1240
100
AcDbEntity
  8
0
100
AcDbLine
 10
336.055386
 20
369.531731
 30
0.0
 11
393.377386
 21
367.529731
 31
0.0
  0
ARC
  5
1055
330
1240
100
AcDbEntity
  8
0
100
AcDbCircle
 10
335.915386
 20
365.533731
 30
0.0
 40
4.0
100
AcDbArc
 50
88.0
 51
153.302
  0
ARC
  5
1056
330
1240
100
AcDbEntity
  8
0
100
AcDbCircle
 10
393.168386
 20
361.533731
 30
0.0
 40
6.0
100
AcDbArc
 50
1.0
 51
88.0
  0
ARC
  5
1057
330
1240
100
AcDbEntity
  8
0
100
AcDbCircle
 10
368.138386
 20
364.408731
 30
0.0
 40
4.0
100
AcDbArc
 50
10.0
 51
88.0
  0
LINE
  5
1058
330
1240
100
AcDbEntity
  8
0
100
AcDbLine
 10
425.812386
 20
242.582731
 30
0.0
 11
485.605386
 21
242.582731
 31
0.0
  0
LINE
  5
1059
330
1240
100
AcDbEntity
  8
0
100
AcDbLine
 10
599.341386
 20
247.331731
 30
0.0
 11
599.341386
 21
245.331731
 31
0.0
  0
LINE
  5
105A
330
1240
100
AcDbEntity
  8
0
100
AcDbLine
 10
599.341386
 20
245.331731
 30
0.0
 11
511.341386
 21
245.331731
 31
0.0
  0
LINE
  5
105B
330
1240
100
AcDbEntity
  8
0
100
AcDbLine
 10
603.241386
 20
242.582731
 30
0.0
 11
744.182386
 21
242.582731
 31
0.0
  0
LINE
  5
105C
330
1240
100
AcDbEntity
  8
0
100
AcDbLine
 10
599.341386
 20
240.331731
 30
0.0
 11
511.341386
 21
240.331731
 31
0.0
  0
LINE
  5
105D
330
1240
100
AcDbEntity
  8
0
100
AcDbLine
 10
488.4803859999999
 20
247.331731
 30
0.0
 11
511.341386
 21
245.331731
 31
0.0
  0
LINE
  5
105E
330
1240
100
AcDbEntity
  8
0
100
AcDbLine
 10
485.604386
 20
242.582731
 30
0.0
 11
511.341386
 21
240.331731
 31
0.0
  0
LINE
  5
105F
330
1240
100
AcDbEntity
  8
0
100
AcDbLine
 10
599.341386
 20
240.331731
 30
0.0
 11
603.241386
 21
242.582731
 31
0.0
  0
ARC
  5
1060
330
1240
100
AcDbEntity
  8
0
100
AcDbCircle
 10
425.812386
 20
267.582731
 30
0.0
 40
25.0
100
AcDbArc
 50
181.0
 51
270.0
  0
ARC
  5
1061
330
1240
100
AcDbEntity
  8
0
100
AcDbCircle
 10
425.817386
 20
267.331731
 30
0.0
 40
20.0
100
AcDbArc
 50
181.0
 51
270.0
  0
LINE
  5
1067
330
1240
100
AcDbEntity
  8
0
100
AcDbLine
 10
634.082386
 20
399.337731
 30
0.0
 11
635.075386
 21
400.330731
 31
0.0
  0
LINE
  5
1069
330
1240
100
AcDbEntity
  8
0
100
AcDbLine
 10
644.079386
 20
399.337731
 30
0.0
 11
643.085386
 21
400.330731
 31
0.0
  0
LINE
  5
106A
330
1240
100
AcDbEntity
  8
0
100
AcDbLine
 10
644.081386
 20
399.335731
 30
0.0
 11
634.087386
 21
399.335731
 31
0.0
  0
LINE
  5
106B
330
1240
100
AcDbEntity
  8
0
100
AcDbLine
 10
643.081386
 20
400.330731
 30
0.0
 11
635.086386
 21
400.330731
 31
0.0
  0
ARC
  5
106C
330
1240
100
AcDbEntity
  8
0
100
AcDbCircle
 10
639.0803860000001
 20
393.505731
 30
0.0
 40
14.175
100
AcDbArc
 50
250.548
 51
289.454
  0
ARC
  5
106D
330
1240
100
AcDbEntity
  8
0
100
AcDbCircle
 10
639.0803860000001
 20
373.155731
 30
0.0
 40
14.175
100
AcDbArc
 50
70.546
 51
109.452
  0
LINE
  5
106E
330
1240
100
AcDbEntity
  8
0
100
AcDbLine
 10
634.355386
 20
386.516731
 30
0.0
 11
634.355386
 21
380.144731
 31
0.0
  0
LINE
  5
106F
330
1240
100
AcDbEntity
  8
0
100
AcDbLine
 10
643.805386
 20
386.517731
 30
0.0
 11
643.805386
 21
380.144731
 31
0.0
  0
LINE
  5
1070
330
1240
100
AcDbEntity
  8
0
100
AcDbLine
 10
632.308386
 20
387.330731
 30
0.0
 11
645.8553860000001
 21
387.330731
 31
0.0
  0
LINE
  5
1071
330
1240
100
AcDbEntity
  8
0
100
AcDbLine
 10
632.303386
 20
379.330731
 30
0.0
 11
645.8553860000001
 21
379.330731
 31
0.0
  0
LINE
  5
1072
330
1240
100
AcDbEntity
  8
0
100
AcDbLine
 10
629.634386
 20
386.527731
 30
0.0
 11
630.512386
 21
387.034731
 31
0.0
  0
ARC
  5
1073
330
1240
100
AcDbEntity
  8
0
100
AcDbCircle
 10
631.9933859999999
 20
383.482731
 30
0.0
 40
3.848
100
AcDbArc
 50
52.17100000000001
 51
112.621
  0
LINE
  5
1074
330
1240
100
AcDbEntity
  8
0
100
AcDbLine
 10
629.630386
 20
386.522731
 30
0.0
 11
629.630386
 21
380.143731
 31
0.0
  0
ARC
  5
1075
330
1240
100
AcDbEntity
  8
0
100
AcDbCircle
 10
631.9933859999999
 20
383.178731
 30
0.0
 40
3.848
100
AcDbArc
 50
247.767
 51
307.835
  0
LINE
  5
1076
330
1240
100
AcDbEntity
  8
0
100
AcDbLine
 10
629.634386
 20
380.138731
 30
0.0
 11
630.5363859999999
 21
379.617731
 31
0.0
  0
ARC
  5
1077
330
1240
100
AcDbEntity
  8
0
100
AcDbCircle
 10
646.1673860000001
 20
383.482731
 30
0.0
 40
3.848
100
AcDbArc
 50
68.09699999999999
 51
127.818
  0
LINE
  5
1078
330
1240
100
AcDbEntity
  8
0
100
AcDbLine
 10
647.6043859999999
 20
387.052731
 30
0.0
 11
648.5273859999999
 21
386.519731
 31
0.0
  0
LINE
  5
1079
330
1240
100
AcDbEntity
  8
0
100
AcDbLine
 10
648.530386
 20
386.514731
 30
0.0
 11
648.530386
 21
380.138731
 31
0.0
  0
ARC
  5
107B
330
1240
100
AcDbEntity
  8
0
100
AcDbCircle
 10
646.168386
 20
383.178731
 30
0.0
 40
3.848
100
AcDbArc
 50
232.176
 51
292.796
  0
LINE
  5
107C
330
1240
100
AcDbEntity
  8
0
100
AcDbLine
 10
634.0803860000001
 20
387.330731
 30
0.0
 11
634.0803860000001
 21
399.335731
 31
0.0
  0
LINE
  5
107D
330
1240
100
AcDbEntity
  8
4
100
AcDbLine
 10
635.080386
 20
387.330731
 30
0.0
 11
635.080386
 21
400.3247309999999
 31
0.0
  0
LINE
  5
107E
330
1240
100
AcDbEntity
  8
4
100
AcDbLine
 10
643.0803860000001
 20
387.330731
 30
0.0
 11
643.081386
 21
400.3247309999999
 31
0.0
  0
LINE
  5
107F
330
1240
100
AcDbEntity
  8
0
100
AcDbLine
 10
644.080386
 20
387.330731
 30
0.0
 11
644.080386
 21
399.332731
 31
0.0
  0
LINE
  5
1080
330
1240
100
AcDbEntity
  8
0
100
AcDbLine
 10
634.0803860000001
 20
375.331731
 30
0.0
 11
634.0803860000001
 21
379.330731
 31
0.0
  0
LINE
  5
1081
330
1240
100
AcDbEntity
  8
4
100
AcDbLine
 10
635.080386
 20
375.331731
 30
0.0
 11
635.080386
 21
379.330731
 31
0.0
  0
LINE
  5
1082
330
1240
100
AcDbEntity
  8
4
100
AcDbLine
 10
643.0803860000001
 20
375.331731
 30
0.0
 11
643.0803860000001
 21
379.330731
 31
0.0
  0
LINE
  5
1083
330
1240
100
AcDbEntity
  8
0
100
AcDbLine
 10
644.080386
 20
375.331731
 30
0.0
 11
644.080386
 21
379.330731
 31
0.0
  0
LINE
  5
1084
330
1240
100
AcDbEntity
  8
0
100
AcDbLine
 10
463.221386
 20
380.331731
 30
0.0
 11
461.861386
 21
375.331731
 31
0.0
  0
LINE
  5
1085
330
1240
100
AcDbEntity
  8
0
100
AcDbLine
 10
466.485386
 20
380.331731
 30
0.0
 11
465.121386
 21
375.331731
 31
0.0
  0
LINE
  5
1086
330
1240
100
AcDbEntity
  8
0
100
AcDbLine
 10
450.3983859999999
 20
375.331731
 30
0.0
 11
465.121386
 21
375.331731
 31
0.0
  0
LINE
  5
1087
330
1240
100
AcDbEntity
  8
4
  6
GEN7
 62
     4
 48
0.451
100
AcDbLine
 10
511.341386
 20
393.331731
 30
0.0
 11
511.341386
 21
222.146417
 31
0.0
  0
LINE
  5
1088
330
1240
100
AcDbEntity
  8
0
100
AcDbLine
 10
573.5183860000001
 20
380.331731
 30
0.0
 11
572.284386
 21
375.331731
 31
0.0
  0
LINE
  5
1089
330
1240
100
AcDbEntity
  8
0
100
AcDbLine
 10
559.461386
 20
380.331731
 30
0.0
 11
560.8213860000001
 21
375.331731
 31
0.0
  0
LINE
  5
108A
330
1240
100
AcDbEntity
  8
0
100
AcDbLine
 10
556.198386
 20
380.331731
 30
0.0
 11
557.562386
 21
375.331731
 31
0.0
  0
LINE
  5
108B
330
1240
100
AcDbEntity
  8
0
100
AcDbLine
 10
572.284386
 20
375.331731
 30
0.0
 11
557.562386
 21
375.331731
 31
0.0
  0
LINE
  5
108C
330
1240
100
AcDbEntity
  8
0
100
AcDbLine
 10
573.5183860000001
 20
380.331731
 30
0.0
 11
623.9993860000001
 21
380.331731
 31
0.0
  0
LINE
  5
108D
330
1240
100
AcDbEntity
  8
0
100
AcDbLine
 10
449.164386
 20
380.331731
 30
0.0
 11
450.3983859999999
 21
375.331731
 31
0.0
  0
LINE
  5
108E
330
1240
100
AcDbEntity
  8
0
100
AcDbLine
 10
463.221386
 20
380.331731
 30
0.0
 11
559.461386
 21
380.331731
 31
0.0
  0
LINE
  5
108F
330
1240
100
AcDbEntity
  8
0
100
AcDbLine
 10
440.462386
 20
350.331731
 30
0.0
 11
473.895386
 21
350.331731
 31
0.0
  0
LINE
  5
1090
330
1240
100
AcDbEntity
  8
0
100
AcDbLine
 10
440.462386
 20
340.331731
 30
0.0
 11
473.895386
 21
340.331731
 31
0.0
  0
LINE
  5
1091
330
1240
100
AcDbEntity
  8
0
100
AcDbLine
 10
440.462386
 20
350.331731
 30
0.0
 11
440.462386
 21
340.331731
 31
0.0
  0
LINE
  5
1092
330
1240
100
AcDbEntity
  8
0
100
AcDbLine
 10
473.895386
 20
350.331731
 30
0.0
 11
473.895386
 21
340.331731
 31
0.0
  0
ARC
  5
1093
330
1240
100
AcDbEntity
  8
0
100
AcDbCircle
 10
457.178386
 20
419.1947309999999
 30
0.0
 40
70.86399999999999
100
AcDbArc
 50
256.355
 51
283.645
  0
ARC
  5
1094
330
1240
100
AcDbEntity
  8
0
100
AcDbCircle
 10
457.178386
 20
271.467731
 30
0.0
 40
70.86399999999999
100
AcDbArc
 50
76.355
 51
103.645
  0
LINE
  5
1095
330
1240
100
AcDbEntity
  8
0
100
AcDbLine
 10
725.513386
 20
372.025731
 30
0.0
 11
728.102386
 21
357.346731
 31
0.0
  0
LINE
  5
1096
330
1240
100
AcDbEntity
  8
0
100
AcDbLine
 10
721.318386
 20
367.025731
 30
0.0
 11
733.572386
 21
297.526731
 31
0.0
  0
ARC
  5
1097
330
1240
100
AcDbEntity
  8
0
100
AcDbCircle
 10
734.010386
 20
358.388731
 30
0.0
 40
6.0
100
AcDbArc
 50
190.0
 51
268.5
  0
ARC
  5
1098
330
1240
100
AcDbEntity
  8
0
100
AcDbCircle
 10
717.379386
 20
366.331731
 30
0.0
 40
4.0
100
AcDbArc
 50
10.0
 51
90.0
  0
ARC
  5
1099
330
1240
100
AcDbEntity
  8
0
100
AcDbCircle
 10
721.5743859999999
 20
371.331731
 30
0.0
 40
4.0
100
AcDbArc
 50
10.0
 51
90.00100000000001
  0
ARC
  5
109A
330
1240
100
AcDbEntity
  8
0
100
AcDbCircle
 10
733.966386
 20
358.639731
 30
0.0
 40
11.0
100
AcDbArc
 50
190.0
 51
268.5
  0
LINE
  5
109B
330
1240
100
AcDbEntity
  8
0
100
AcDbLine
 10
821.3413860000001
 20
295.331731
 30
0.0
 11
831.934386
 21
295.331731
 31
0.0
  0
LINE
  5
109D
330
1240
100
AcDbEntity
  8
0
100
AcDbLine
 10
396.824386
 20
377.396731
 30
0.0
 11
397.108386
 21
379.008731
 31
0.0
  0
ARC
  5
109E
330
1240
100
AcDbEntity
  8
0
100
AcDbCircle
 10
398.684386
 20
378.731731
 30
0.0
 40
1.6
100
AcDbArc
 50
90.0
 51
170.0
  0
ARC
  5
109F
330
1240
100
AcDbEntity
  8
0
100
AcDbCircle
 10
394.362386
 20
377.831731
 30
0.0
 40
2.5
100
AcDbArc
 50
270.0
 51
350.0
  0
LINE
  5
10A0
330
1240
100
AcDbEntity
  8
0
100
AcDbLine
 10
625.5743859999999
 20
379.008731
 30
0.0
 11
625.8593860000001
 21
377.396731
 31
0.0
  0
ARC
  5
10A1
330
1240
100
AcDbEntity
  8
0
100
AcDbCircle
 10
628.320386
 20
377.831731
 30
0.0
 40
2.5
100
AcDbArc
 50
190.0
 51
269.999
  0
ARC
  5
10A2
330
1240
100
AcDbEntity
  8
0
100
AcDbCircle
 10
623.9993860000001
 20
378.731731
 30
0.0
 40
1.6
100
AcDbArc
 50
10.0
 51
90.00100000000001
  0
DIMENSION
  5
10EF
330
1240
100
AcDbEntity
  8
5
100
AcDbDimension
  2
*D4
 10
726.341386
 20
485.3307309999999
 30
0.0
 11
511.341386
 21
497.0807309999999
 31
0.0
 70
    32
  1
%%c 430
 71
     5
 42
-1.0
  3
GEN-ISO
100
AcDbAlignedDimension
 13
296.341386
 23
367.331731
 33
0.0
 14
726.341386
 24
367.331731
 34
0.0
100
AcDbRotatedDimension
1001
GENIUS_GENDTOL_13
1000

1000
h7
1000

1040
0.0
1000
%%c 430
  0
DIMENSION
  5
10F9
330
1240
100
AcDbEntity
  8
5
100
AcDbDimension
  2
*D6
 10
246.341386
 20
375.331731
 30
0.0
 11
234.591386
 21
307.831731
 31
0.0
 70
    32
  1
135
 71
     5
 42
-1.0
  3
GEN-ISO
100
AcDbAlignedDimension
 13
511.341386
 23
240.331731
 33
0.0
 14
301.108386
 24
375.331731
 34
0.0
 50
90.0
100
AcDbRotatedDimension
1001
GENIUS_GENDTOL_13
1000

1000
h7
1000

1040
0.0
1000

  0
DIMENSION
  5
1103
330
1240
100
AcDbEntity
  8
5
100
AcDbDimension
  2
*D8
 10
872.7255839999999
 20
375.331731
 30
0.0
 11
860.975584
 21
335.331731
 31
0.0
 70
    32
  1
80
 71
     5
 42
-1.0
  3
GEN-ISO
100
AcDbAlignedDimension
 13
821.3413860000001
 23
295.331731
 33
0.0
 14
724.931386
 24
375.331731
 34
0.0
 50
90.0
100
AcDbRotatedDimension
1001
GENIUS_GENDTOL_13
1000

1000
h7
1000

1040
0.0
1000

  0
DIMENSION
  5
110D
330
1240
100
AcDbEntity
  8
5
100
AcDbDimension
  2
*D7
 10
821.3413860000001
 20
190.331731
 30
0.0
 11
666.341386
 21
202.081731
 31
0.0
 70
    32
  1
310
 71
     5
 42
-1.0
  3
GEN-ISO
100
AcDbAlignedDimension
 13
511.341386
 23
222.146417
 33
0.0
 14
821.3413860000001
 24
295.331731
 34
0.0
100
AcDbRotatedDimension
1001
GENIUS_GENDTOL_13
1000

1000
h7
1000

1040
0.0
1000

  0
POLYLINE
  5
110E
330
1240
100
AcDbEntity
  8
SCHRAFFUR_RAND
100
AcDb2dPolyline
 66
     1
 10
0.0
 20
0.0
 30
0.0
 70
     1
  0
VERTEX
  5
110F
330
110E
100
AcDbEntity
  8
SCHRAFFUR_RAND
100
AcDbVertex
100
AcDb2dVertex
 10
618.754386
 20
375.331731
 30
0.0
  0
VERTEX
  5
1110
330
110E
100
AcDbEntity
  8
SCHRAFFUR_RAND
100
AcDbVertex
100
AcDb2dVertex
 10
618.3453860000001
 20
351.875731
 30
0.0
  0
VERTEX
  5
1111
330
110E
100
AcDbEntity
  8
SCHRAFFUR_RAND
100
AcDbVertex
100
AcDb2dVertex
 10
618.2383859999999
 20
351.269731
 30
0.0
  0
VERTEX
  5
1112
330
110E
100
AcDbEntity
  8
SCHRAFFUR_RAND
100
AcDbVertex
100
AcDb2dVertex
 10
617.892386
 20
350.756731
 30
0.0
  0
VERTEX
  5
1113
330
110E
100
AcDbEntity
  8
SCHRAFFUR_RAND
100
AcDbVertex
100
AcDb2dVertex
 10
617.378386
 20
350.410731
 30
0.0
  0
VERTEX
  5
1114
330
110E
100
AcDbEntity
  8
SCHRAFFUR_RAND
100
AcDbVertex
100
AcDb2dVertex
 10
616.7733860000001
 20
350.304731
 30
0.0
  0
VERTEX
  5
1115
330
110E
100
AcDbEntity
  8
SCHRAFFUR_RAND
100
AcDbVertex
100
AcDb2dVertex
 10
599.341386
 20
349.999731
 30
0.0
  0
VERTEX
  5
1116
330
110E
100
AcDbEntity
  8
SCHRAFFUR_RAND
100
AcDbVertex
100
AcDb2dVertex
 10
599.341386
 20
346.331731
 30
0.0
  0
VERTEX
  5
1117
330
110E
100
AcDbEntity
  8
SCHRAFFUR_RAND
100
AcDbVertex
100
AcDb2dVertex
 10
599.341386
 20
339.331731
 30
0.0
  0
VERTEX
  5
1118
330
110E
100
AcDbEntity
  8
SCHRAFFUR_RAND
100
AcDbVertex
100
AcDb2dVertex
 10
626.090386
 20
339.331731
 30
0.0
  0
VERTEX
  5
1119
330
110E
100
AcDbEntity
  8
SCHRAFFUR_RAND
100
AcDbVertex
100
AcDb2dVertex
 10
632.7053860000001
 20
339.331731
 30
0.0
  0
VERTEX
  5
111A
330
110E
100
AcDbEntity
  8
SCHRAFFUR_RAND
100
AcDbVertex
100
AcDb2dVertex
 10
637.341386
 20
339.331731
 30
0.0
  0
VERTEX
  5
111B
330
110E
100
AcDbEntity
  8
SCHRAFFUR_RAND
100
AcDbVertex
100
AcDb2dVertex
 10
637.341386
 20
344.331731
 30
0.0
  0
VERTEX
  5
111C
330
110E
100
AcDbEntity
  8
SCHRAFFUR_RAND
100
AcDbVertex
100
AcDb2dVertex
 10
627.284386
 20
344.331731
 30
0.0
  0
VERTEX
  5
111D
330
110E
100
AcDbEntity
  8
SCHRAFFUR_RAND
100
AcDbVertex
100
AcDb2dVertex
 10
626.232386
 20
344.448731
 30
0.0
  0
VERTEX
  5
111E
330
110E
100
AcDbEntity
  8
SCHRAFFUR_RAND
100
AcDbVertex
100
AcDb2dVertex
 10
625.2533859999999
 20
344.859731
 30
0.0
  0
VERTEX
  5
111F
330
110E
100
AcDbEntity
  8
SCHRAFFUR_RAND
100
AcDbVertex
100
AcDb2dVertex
 10
624.4153859999999
 20
345.511731
 30
0.0
  0
VERTEX
  5
1120
330
110E
100
AcDbEntity
  8
SCHRAFFUR_RAND
100
AcDbVertex
100
AcDb2dVertex
 10
623.7773859999999
 20
346.360731
 30
0.0
  0
VERTEX
  5
1121
330
110E
100
AcDbEntity
  8
SCHRAFFUR_RAND
100
AcDbVertex
100
AcDb2dVertex
 10
623.384386
 20
347.346731
 30
0.0
  0
VERTEX
  5
1122
330
110E
100
AcDbEntity
  8
SCHRAFFUR_RAND
100
AcDbVertex
100
AcDb2dVertex
 10
623.285386
 20
348.400731
 30
0.0
  0
VERTEX
  5
1123
330
110E
100
AcDbEntity
  8
SCHRAFFUR_RAND
100
AcDbVertex
100
AcDb2dVertex
 10
623.564386
 20
364.435731
 30
0.0
  0
VERTEX
  5
1124
330
110E
100
AcDbEntity
  8
SCHRAFFUR_RAND
100
AcDbVertex
100
AcDb2dVertex
 10
623.713386
 20
365.758731
 30
0.0
  0
VERTEX
  5
1125
330
110E
100
AcDbEntity
  8
SCHRAFFUR_RAND
100
AcDbVertex
100
AcDb2dVertex
 10
624.1713859999999
 20
367.011731
 30
0.0
  0
VERTEX
  5
1126
330
110E
100
AcDbEntity
  8
SCHRAFFUR_RAND
100
AcDbVertex
100
AcDb2dVertex
 10
624.8933860000001
 20
368.132731
 30
0.0
  0
VERTEX
  5
1127
330
110E
100
AcDbEntity
  8
SCHRAFFUR_RAND
100
AcDbVertex
100
AcDb2dVertex
 10
625.8443859999999
 20
369.067731
 30
0.0
  0
VERTEX
  5
1128
330
110E
100
AcDbEntity
  8
SCHRAFFUR_RAND
100
AcDbVertex
100
AcDb2dVertex
 10
626.0613860000001
 20
369.202731
 30
0.0
  0
VERTEX
  5
1129
330
110E
100
AcDbEntity
  8
SCHRAFFUR_RAND
100
AcDbVertex
100
AcDb2dVertex
 10
626.978386
 20
369.769731
 30
0.0
  0
VERTEX
  5
112A
330
110E
100
AcDbEntity
  8
SCHRAFFUR_RAND
100
AcDbVertex
100
AcDb2dVertex
 10
628.238386
 20
370.205731
 30
0.0
  0
VERTEX
  5
112B
330
110E
100
AcDbEntity
  8
SCHRAFFUR_RAND
100
AcDbVertex
100
AcDb2dVertex
 10
629.564386
 20
370.331731
 30
0.0
  0
VERTEX
  5
112C
330
110E
100
AcDbEntity
  8
SCHRAFFUR_RAND
100
AcDbVertex
100
AcDb2dVertex
 10
654.8833860000001
 20
370.331731
 30
0.0
  0
VERTEX
  5
112D
330
110E
100
AcDbEntity
  8
SCHRAFFUR_RAND
100
AcDbVertex
100
AcDb2dVertex
 10
717.379386
 20
370.331731
 30
0.0
  0
VERTEX
  5
112E
330
110E
100
AcDbEntity
  8
SCHRAFFUR_RAND
100
AcDbVertex
100
AcDb2dVertex
 10
718.306386
 20
370.244731
 30
0.0
  0
VERTEX
  5
112F
330
110E
100
AcDbEntity
  8
SCHRAFFUR_RAND
100
AcDbVertex
100
AcDb2dVertex
 10
719.184386
 20
369.925731
 30
0.0
  0
VERTEX
  5
1130
330
110E
100
AcDbEntity
  8
SCHRAFFUR_RAND
100
AcDbVertex
100
AcDb2dVertex
 10
719.964386
 20
369.412731
 30
0.0
  0
VERTEX
  5
1131
330
110E
100
AcDbEntity
  8
SCHRAFFUR_RAND
100
AcDbVertex
100
AcDb2dVertex
 10
720.605386
 20
368.732731
 30
0.0
  0
VERTEX
  5
1132
330
110E
100
AcDbEntity
  8
SCHRAFFUR_RAND
100
AcDbVertex
100
AcDb2dVertex
 10
721.072386
 20
367.924731
 30
0.0
  0
VERTEX
  5
1133
330
110E
100
AcDbEntity
  8
SCHRAFFUR_RAND
100
AcDbVertex
100
AcDb2dVertex
 10
721.318386
 20
367.025731
 30
0.0
  0
VERTEX
  5
1134
330
110E
100
AcDbEntity
  8
SCHRAFFUR_RAND
100
AcDbVertex
100
AcDb2dVertex
 10
723.1333860000001
 20
356.729731
 30
0.0
  0
VERTEX
  5
1135
330
110E
100
AcDbEntity
  8
SCHRAFFUR_RAND
100
AcDbVertex
100
AcDb2dVertex
 10
723.5273859999999
 20
355.101731
 30
0.0
  0
VERTEX
  5
1136
330
110E
100
AcDbEntity
  8
SCHRAFFUR_RAND
100
AcDbVertex
100
AcDb2dVertex
 10
724.184386
 20
353.559731
 30
0.0
  0
VERTEX
  5
1137
330
110E
100
AcDbEntity
  8
SCHRAFFUR_RAND
100
AcDbVertex
100
AcDb2dVertex
 10
725.068386
 20
352.135731
 30
0.0
  0
VERTEX
  5
1138
330
110E
100
AcDbEntity
  8
SCHRAFFUR_RAND
100
AcDbVertex
100
AcDb2dVertex
 10
726.1573860000001
 20
350.861731
 30
0.0
  0
VERTEX
  5
1139
330
110E
100
AcDbEntity
  8
SCHRAFFUR_RAND
100
AcDbVertex
100
AcDb2dVertex
 10
727.427386
 20
349.766731
 30
0.0
  0
VERTEX
  5
113A
330
110E
100
AcDbEntity
  8
SCHRAFFUR_RAND
100
AcDbVertex
100
AcDb2dVertex
 10
728.848386
 20
348.877731
 30
0.0
  0
VERTEX
  5
113B
330
110E
100
AcDbEntity
  8
SCHRAFFUR_RAND
100
AcDbVertex
100
AcDb2dVertex
 10
730.388386
 20
348.214731
 30
0.0
  0
VERTEX
  5
113C
330
110E
100
AcDbEntity
  8
SCHRAFFUR_RAND
100
AcDbVertex
100
AcDb2dVertex
 10
732.010386
 20
347.792731
 30
0.0
  0
VERTEX
  5
113D
330
110E
100
AcDbEntity
  8
SCHRAFFUR_RAND
100
AcDbVertex
100
AcDb2dVertex
 10
733.678386
 20
347.643731
 30
0.0
  0
VERTEX
  5
113E
330
110E
100
AcDbEntity
  8
SCHRAFFUR_RAND
100
AcDbVertex
100
AcDb2dVertex
 10
797.659386
 20
345.968731
 30
0.0
  0
VERTEX
  5
113F
330
110E
100
AcDbEntity
  8
SCHRAFFUR_RAND
100
AcDbVertex
100
AcDb2dVertex
 10
802.631386
 20
344.837731
 30
0.0
  0
VERTEX
  5
1140
330
110E
100
AcDbEntity
  8
SCHRAFFUR_RAND
100
AcDbVertex
100
AcDb2dVertex
 10
822.624386
 20
344.314731
 30
0.0
  0
VERTEX
  5
1141
330
110E
100
AcDbEntity
  8
SCHRAFFUR_RAND
100
AcDbVertex
100
AcDb2dVertex
 10
822.737386
 20
348.622731
 30
0.0
  0
VERTEX
  5
1142
330
110E
100
AcDbEntity
  8
SCHRAFFUR_RAND
100
AcDbVertex
100
AcDb2dVertex
 10
816.777386
 20
350.219731
 30
0.0
  0
VERTEX
  5
1143
330
110E
100
AcDbEntity
  8
SCHRAFFUR_RAND
100
AcDbVertex
100
AcDb2dVertex
 10
733.853386
 20
352.390731
 30
0.0
  0
VERTEX
  5
1144
330
110E
100
AcDbEntity
  8
SCHRAFFUR_RAND
100
AcDbVertex
100
AcDb2dVertex
 10
732.6853859999999
 20
352.514731
 30
0.0
  0
VERTEX
  5
1145
330
110E
100
AcDbEntity
  8
SCHRAFFUR_RAND
100
AcDbVertex
100
AcDb2dVertex
 10
731.568386
 20
352.883731
 30
0.0
  0
VERTEX
  5
1146
330
110E
100
AcDbEntity
  8
SCHRAFFUR_RAND
100
AcDbVertex
100
AcDb2dVertex
 10
730.544386
 20
353.464731
 30
0.0
  0
VERTEX
  5
1147
330
110E
100
AcDbEntity
  8
SCHRAFFUR_RAND
100
AcDbVertex
100
AcDb2dVertex
 10
729.6523859999999
 20
354.232731
 30
0.0
  0
VERTEX
  5
1148
330
110E
100
AcDbEntity
  8
SCHRAFFUR_RAND
100
AcDbVertex
100
AcDb2dVertex
 10
728.927386
 20
355.159731
 30
0.0
  0
VERTEX
  5
1149
330
110E
100
AcDbEntity
  8
SCHRAFFUR_RAND
100
AcDbVertex
100
AcDb2dVertex
 10
728.396386
 20
356.209731
 30
0.0
  0
VERTEX
  5
114A
330
110E
100
AcDbEntity
  8
SCHRAFFUR_RAND
100
AcDbVertex
100
AcDb2dVertex
 10
728.102386
 20
357.346731
 30
0.0
  0
VERTEX
  5
114B
330
110E
100
AcDbEntity
  8
SCHRAFFUR_RAND
100
AcDbVertex
100
AcDb2dVertex
 10
725.513386
 20
372.025731
 30
0.0
  0
VERTEX
  5
114C
330
110E
100
AcDbEntity
  8
SCHRAFFUR_RAND
100
AcDbVertex
100
AcDb2dVertex
 10
725.2673859999999
 20
372.924731
 30
0.0
  0
VERTEX
  5
114D
330
110E
100
AcDbEntity
  8
SCHRAFFUR_RAND
100
AcDbVertex
100
AcDb2dVertex
 10
724.8003859999999
 20
373.732731
 30
0.0
  0
VERTEX
  5
114E
330
110E
100
AcDbEntity
  8
SCHRAFFUR_RAND
100
AcDbVertex
100
AcDb2dVertex
 10
724.159386
 20
374.412731
 30
0.0
  0
VERTEX
  5
114F
330
110E
100
AcDbEntity
  8
SCHRAFFUR_RAND
100
AcDbVertex
100
AcDb2dVertex
 10
723.379386
 20
374.925731
 30
0.0
  0
VERTEX
  5
1150
330
110E
100
AcDbEntity
  8
SCHRAFFUR_RAND
100
AcDbVertex
100
AcDb2dVertex
 10
722.502386
 20
375.244731
 30
0.0
  0
VERTEX
  5
1151
330
110E
100
AcDbEntity
  8
SCHRAFFUR_RAND
100
AcDbVertex
100
AcDb2dVertex
 10
721.5743859999999
 20
375.331731
 30
0.0
  0
VERTEX
  5
1152
330
110E
100
AcDbEntity
  8
SCHRAFFUR_RAND
100
AcDbVertex
100
AcDb2dVertex
 10
644.080386
 20
375.331731
 30
0.0
  0
VERTEX
  5
1153
330
110E
100
AcDbEntity
  8
SCHRAFFUR_RAND
100
AcDbVertex
100
AcDb2dVertex
 10
643.0803860000001
 20
375.331731
 30
0.0
  0
VERTEX
  5
1154
330
110E
100
AcDbEntity
  8
SCHRAFFUR_RAND
100
AcDbVertex
100
AcDb2dVertex
 10
635.080386
 20
375.331731
 30
0.0
  0
VERTEX
  5
1155
330
110E
100
AcDbEntity
  8
SCHRAFFUR_RAND
100
AcDbVertex
100
AcDb2dVertex
 10
634.0803860000001
 20
375.331731
 30
0.0
  0
VERTEX
  5
1156
330
110E
100
AcDbEntity
  8
SCHRAFFUR_RAND
100
AcDbVertex
100
AcDb2dVertex
 10
628.320386
 20
375.331731
 30
0.0
  0
VERTEX
  5
1157
330
110E
100
AcDbEntity
  8
SCHRAFFUR_RAND
100
AcDbVertex
100
AcDb2dVertex
 10
618.754386
 20
375.331731
 30
0.0
  0
SEQEND
  5
1158
330
110E
100
AcDbEntity
  8
SCHRAFFUR_RAND
  0
INSERT
  5
1175
330
1240
100
AcDbEntity
  8
8
100
AcDbBlockReference
  2
*X0
 10
-35.565614
 20
-301.312269
 30
0.0
1001
ACAD
1000
HATCH
1002
{
1070
    19
1000
ANSI31,_I
1040
7.937
1040
0.7850000000000001
1002
}
  0
POLYLINE
  5
1176
330
1240
100
AcDbEntity
  8
SCHRAFFUR_RAND
100
AcDb2dPolyline
 66
     1
 10
0.0
 20
0.0
 30
0.0
 70
     1
  0
VERTEX
  5
1177
330
1176
100
AcDbEntity
  8
SCHRAFFUR_RAND
100
AcDbVertex
100
AcDb2dVertex
 10
488.4803859999999
 20
247.331731
 30
0.0
  0
VERTEX
  5
1178
330
1176
100
AcDbEntity
  8
SCHRAFFUR_RAND
100
AcDbVertex
100
AcDb2dVertex
 10
425.817386
 20
247.331731
 30
0.0
  0
VERTEX
  5
1179
330
1176
100
AcDbEntity
  8
SCHRAFFUR_RAND
100
AcDbVertex
100
AcDb2dVertex
 10
420.6633860000001
 20
247.871731
 30
0.0
  0
VERTEX
  5
117A
330
1176
100
AcDbEntity
  8
SCHRAFFUR_RAND
100
AcDbVertex
100
AcDb2dVertex
 10
415.853386
 20
249.839731
 30
0.0
  0
VERTEX
  5
117B
330
1176
100
AcDbEntity
  8
SCHRAFFUR_RAND
100
AcDbVertex
100
AcDb2dVertex
 10
411.7073859999999
 20
252.973731
 30
0.0
  0
VERTEX
  5
117C
330
1176
100
AcDbEntity
  8
SCHRAFFUR_RAND
100
AcDbVertex
100
AcDb2dVertex
 10
408.501386
 20
257.063731
 30
0.0
  0
VERTEX
  5
117D
330
1176
100
AcDbEntity
  8
SCHRAFFUR_RAND
100
AcDbVertex
100
AcDb2dVertex
 10
406.450386
 20
261.838731
 30
0.0
  0
VERTEX
  5
117E
330
1176
100
AcDbEntity
  8
SCHRAFFUR_RAND
100
AcDbVertex
100
AcDb2dVertex
 10
405.8203859999999
 20
266.982731
 30
0.0
  0
VERTEX
  5
117F
330
1176
100
AcDbEntity
  8
SCHRAFFUR_RAND
100
AcDbVertex
100
AcDb2dVertex
 10
403.928386
 20
375.331731
 30
0.0
  0
VERTEX
  5
1180
330
1176
100
AcDbEntity
  8
SCHRAFFUR_RAND
100
AcDbVertex
100
AcDb2dVertex
 10
395.542386
 20
375.480731
 30
0.0
  0
VERTEX
  5
1181
330
1176
100
AcDbEntity
  8
SCHRAFFUR_RAND
100
AcDbVertex
100
AcDb2dVertex
 10
394.362386
 20
375.331731
 30
0.0
  0
VERTEX
  5
1182
330
1176
100
AcDbEntity
  8
SCHRAFFUR_RAND
100
AcDbVertex
100
AcDb2dVertex
 10
301.108386
 20
375.331731
 30
0.0
  0
VERTEX
  5
1183
330
1176
100
AcDbEntity
  8
SCHRAFFUR_RAND
100
AcDbVertex
100
AcDb2dVertex
 10
299.254386
 20
375.022731
 30
0.0
  0
VERTEX
  5
1184
330
1176
100
AcDbEntity
  8
SCHRAFFUR_RAND
100
AcDbVertex
100
AcDb2dVertex
 10
297.795386
 20
373.797731
 30
0.0
  0
VERTEX
  5
1185
330
1176
100
AcDbEntity
  8
SCHRAFFUR_RAND
100
AcDbVertex
100
AcDb2dVertex
 10
297.169386
 20
372.025731
 30
0.0
  0
VERTEX
  5
1186
330
1176
100
AcDbEntity
  8
SCHRAFFUR_RAND
100
AcDbVertex
100
AcDb2dVertex
 10
296.341386
 20
367.331731
 30
0.0
  0
VERTEX
  5
1187
330
1176
100
AcDbEntity
  8
SCHRAFFUR_RAND
100
AcDbVertex
100
AcDb2dVertex
 10
332.342386
 20
367.331731
 30
0.0
  0
VERTEX
  5
1188
330
1176
100
AcDbEntity
  8
SCHRAFFUR_RAND
100
AcDbVertex
100
AcDb2dVertex
 10
333.176386
 20
368.625731
 30
0.0
  0
VERTEX
  5
1189
330
1176
100
AcDbEntity
  8
SCHRAFFUR_RAND
100
AcDbVertex
100
AcDb2dVertex
 10
334.518386
 20
369.420731
 30
0.0
  0
VERTEX
  5
118A
330
1176
100
AcDbEntity
  8
SCHRAFFUR_RAND
100
AcDbVertex
100
AcDb2dVertex
 10
336.055386
 20
369.531731
 30
0.0
  0
VERTEX
  5
118B
330
1176
100
AcDbEntity
  8
SCHRAFFUR_RAND
100
AcDbVertex
100
AcDb2dVertex
 10
368.278386
 20
368.406731
 30
0.0
  0
VERTEX
  5
118C
330
1176
100
AcDbEntity
  8
SCHRAFFUR_RAND
100
AcDbVertex
100
AcDb2dVertex
 10
393.377386
 20
367.529731
 30
0.0
  0
VERTEX
  5
118D
330
1176
100
AcDbEntity
  8
SCHRAFFUR_RAND
100
AcDbVertex
100
AcDb2dVertex
 10
395.441386
 20
366.884731
 30
0.0
  0
VERTEX
  5
118E
330
1176
100
AcDbEntity
  8
SCHRAFFUR_RAND
100
AcDbVertex
100
AcDb2dVertex
 10
397.540386
 20
365.830731
 30
0.0
  0
VERTEX
  5
118F
330
1176
100
AcDbEntity
  8
SCHRAFFUR_RAND
100
AcDbVertex
100
AcDb2dVertex
 10
398.821386
 20
363.904731
 30
0.0
  0
VERTEX
  5
1190
330
1176
100
AcDbEntity
  8
SCHRAFFUR_RAND
100
AcDbVertex
100
AcDb2dVertex
 10
399.167386
 20
361.638731
 30
0.0
  0
VERTEX
  5
1191
330
1176
100
AcDbEntity
  8
SCHRAFFUR_RAND
100
AcDbVertex
100
AcDb2dVertex
 10
400.8163859999999
 20
267.146731
 30
0.0
  0
VERTEX
  5
1192
330
1176
100
AcDbEntity
  8
SCHRAFFUR_RAND
100
AcDbVertex
100
AcDb2dVertex
 10
401.6353859999999
 20
260.7267310000001
 30
0.0
  0
VERTEX
  5
1193
330
1176
100
AcDbEntity
  8
SCHRAFFUR_RAND
100
AcDbVertex
100
AcDb2dVertex
 10
404.196386
 20
254.765731
 30
0.0
  0
VERTEX
  5
1194
330
1176
100
AcDbEntity
  8
SCHRAFFUR_RAND
100
AcDbVertex
100
AcDb2dVertex
 10
408.1983859999999
 20
249.658731
 30
0.0
  0
VERTEX
  5
1195
330
1176
100
AcDbEntity
  8
SCHRAFFUR_RAND
100
AcDbVertex
100
AcDb2dVertex
 10
413.374386
 20
245.746731
 30
0.0
  0
VERTEX
  5
1196
330
1176
100
AcDbEntity
  8
SCHRAFFUR_RAND
100
AcDbVertex
100
AcDb2dVertex
 10
419.379386
 20
243.289731
 30
0.0
  0
VERTEX
  5
1197
330
1176
100
AcDbEntity
  8
SCHRAFFUR_RAND
100
AcDbVertex
100
AcDb2dVertex
 10
425.812386
 20
242.582731
 30
0.0
  0
VERTEX
  5
1198
330
1176
100
AcDbEntity
  8
SCHRAFFUR_RAND
100
AcDbVertex
100
AcDb2dVertex
 10
485.605386
 20
242.582731
 30
0.0
  0
VERTEX
  5
1199
330
1176
100
AcDbEntity
  8
SCHRAFFUR_RAND
100
AcDbVertex
100
AcDb2dVertex
 10
511.341386
 20
240.331731
 30
0.0
  0
VERTEX
  5
119A
330
1176
100
AcDbEntity
  8
SCHRAFFUR_RAND
100
AcDbVertex
100
AcDb2dVertex
 10
599.341386
 20
240.331731
 30
0.0
  0
VERTEX
  5
119B
330
1176
100
AcDbEntity
  8
SCHRAFFUR_RAND
100
AcDbVertex
100
AcDb2dVertex
 10
603.241386
 20
242.582731
 30
0.0
  0
VERTEX
  5
119C
330
1176
100
AcDbEntity
  8
SCHRAFFUR_RAND
100
AcDbVertex
100
AcDb2dVertex
 10
744.182386
 20
242.582731
 30
0.0
  0
VERTEX
  5
119D
330
1176
100
AcDbEntity
  8
SCHRAFFUR_RAND
100
AcDbVertex
100
AcDb2dVertex
 10
813.910386
 20
240.756731
 30
0.0
  0
VERTEX
  5
119E
330
1176
100
AcDbEntity
  8
SCHRAFFUR_RAND
100
AcDbVertex
100
AcDb2dVertex
 10
819.9553860000001
 20
242.376731
 30
0.0
  0
VERTEX
  5
119F
330
1176
100
AcDbEntity
  8
SCHRAFFUR_RAND
100
AcDbVertex
100
AcDb2dVertex
 10
820.0593859999999
 20
246.347731
 30
0.0
  0
VERTEX
  5
11A0
330
1176
100
AcDbEntity
  8
SCHRAFFUR_RAND
100
AcDbVertex
100
AcDb2dVertex
 10
800.0653859999999
 20
246.871731
 30
0.0
  0
VERTEX
  5
11A1
330
1176
100
AcDbEntity
  8
SCHRAFFUR_RAND
100
AcDbVertex
100
AcDb2dVertex
 10
795.041386
 20
246.002731
 30
0.0
  0
VERTEX
  5
11A2
330
1176
100
AcDbEntity
  8
SCHRAFFUR_RAND
100
AcDbVertex
100
AcDb2dVertex
 10
744.3073860000001
 20
247.331731
 30
0.0
  0
VERTEX
  5
11A3
330
1176
100
AcDbEntity
  8
SCHRAFFUR_RAND
100
AcDbVertex
100
AcDb2dVertex
 10
632.7053860000001
 20
247.331731
 30
0.0
  0
VERTEX
  5
11A4
330
1176
100
AcDbEntity
  8
SCHRAFFUR_RAND
100
AcDbVertex
100
AcDb2dVertex
 10
626.091386
 20
247.331731
 30
0.0
  0
VERTEX
  5
11A5
330
1176
100
AcDbEntity
  8
SCHRAFFUR_RAND
100
AcDbVertex
100
AcDb2dVertex
 10
599.341386
 20
247.331731
 30
0.0
  0
VERTEX
  5
11A6
330
1176
100
AcDbEntity
  8
SCHRAFFUR_RAND
100
AcDbVertex
100
AcDb2dVertex
 10
599.341386
 20
245.331731
 30
0.0
  0
VERTEX
  5
11A7
330
1176
100
AcDbEntity
  8
SCHRAFFUR_RAND
100
AcDbVertex
100
AcDb2dVertex
 10
511.341386
 20
245.331731
 30
0.0
  0
VERTEX
  5
11A8
330
1176
100
AcDbEntity
  8
SCHRAFFUR_RAND
100
AcDbVertex
100
AcDb2dVertex
 10
488.4803859999999
 20
247.331731
 30
0.0
  0
SEQEND
  5
11A9
330
1176
100
AcDbEntity
  8
SCHRAFFUR_RAND
  0
INSERT
  5
11E5
330
1240
100
AcDbEntity
  8
8
100
AcDbBlockReference
  2
*X1
 10
-35.565614
 20
-301.312269
 30
0.0
1001
ACAD
1000
HATCH
1002
{
1070
    19
1000
ANSI31,_I
1040
7.937
1040
0.7850000000000001
1002
}
  0
DIMENSION
  5
11FA
330
1240
100
AcDbEntity
  8
5
100
AcDbDimension
  2
*D5
 10
625.3413860000001
 20
450.3307309999999
 30
0.0
 11
511.341386
 21
462.082454
 31
0.0
 70
    32
  1
%%c 228
 71
     5
 42
-1.0
  3
GEN-ISO
100
AcDbAlignedDimension
 13
397.341386
 23
380.331731
 33
0.0
 14
625.3413860000001
 24
380.331731
 34
0.0
100
AcDbRotatedDimension
1001
GENIUS_GENDTOL_13
1000

1000
h7
1000

1040
0.0
1000
%%c 228
  0
POINT
  5
12CB
330
1240
100
AcDbEntity
  8
0
 60
     1
100
AcDbPoint
 10
0.0
 20
0.0
 30
0.0
1001
GENIUS_GENOBJ-N-TIT_13
1002
{
1000
OWNER
1000
GEN
1002
}
1001
GENIUS_GENOENT_13
1002
{
1000
MYREF
1005
12CB
1002
}
1002
{
1000
GRP
1005
0
1002
}
1001
GENIUS_GENOLIS_13
1002
{
1000
ENT
1005
130E
1002
}
1001
GENIUS_GENTITLE_13
1002
{
1000
SCALE
1000
1:5
1002
}
1002
{
1000
BORDER
1000
KATALOG
1002
}
1002
{
1000
TITLE
1000
KATALOG_LEER
1002
}
1002
{
1000
UNCHG
1002
{
1000
GEN-TITLE-SCA
1000
GEN-TITLE-SIZ
1002
}
1002
}
1002
{
1000
HRA
1005
12C3
1002
}
1002
{
1000
HTIT
1005
130E
1002
}
1002
{
1000
GENIUSID
1005
12CB
1002
}
1001
GENIUS_GENODEF_13
1002
{
1000
HIER
1070
     1
1002
}
1002
{
1000
MANEDIT
1070
     1
1002
}
1002
{
1000
NOSEL
1070
     0
1002
}
1002
{
1000
BEHIND
1070
     0
1002
}
1002
{
1000
REACTOR
1002
}
  0
INSERT
  5
130E
330
1240
100
AcDbEntity
  8
0
100
AcDbBlockReference
  2
KATALOG_LEER
 10
251.839706
 20
11.304483
 30
0.0
 41
5.0
 42
5.0
 43
5.0
1001
GENIUS_GENOREF_13
1005
12CB
  0
LINE
  5
151F
330
1240
100
AcDbEntity
  8
5
100
AcDbLine
 10
647.7318259999999
 20
396.033673
 30
0.0
 11
716.6473099999999
 21
443.409997
 31
0.0
  0
LINE
  5
1520
330
1240
100
AcDbEntity
  8
5
100
AcDbLine
 10
790.408653
 20
497.968679
 30
0.0
 11
802.4990330000001
 21
497.968679
 31
0.0
  0
LINE
  5
1521
330
1240
100
AcDbEntity
  8
5
100
AcDbLine
 10
787.55715
 20
502.522563
 30
0.0
 11
805.350535
 21
502.522563
 31
0.0
  0
LINE
  5
1522
330
1240
100
AcDbEntity
  8
5
100
AcDbLine
 10
793.1460969999999
 20
493.5969499999999
 30
0.0
 11
799.7615889999999
 21
493.5969499999999
 31
0.0
  0
LINE
  5
1523
330
1240
100
AcDbEntity
  8
5
100
AcDbLine
 10
796.453843
 20
502.522563
 30
0.0
 11
796.453843
 21
511.0838679999999
 31
0.0
  0
LINE
  5
1524
330
1240
100
AcDbEntity
  8
5
100
AcDbLine
 10
735.5720660000001
 20
456.419924
 30
0.0
 11
787.032963
 21
491.796998
 31
0.0
  0
DIMENSION
  5
1594
330
1240
100
AcDbEntity
  8
5
100
AcDbDimension
  2
*D13
 10
246.341386
 20
375.331731
 30
0.0
 11
246.341386
 21
412.1941679999999
 31
0.0
 70
   160
  1
<>
 71
     5
 42
-1.0
  3
GEN-ISO
100
AcDbAlignedDimension
 13
397.341386
 23
380.331731
 33
0.0
 14
301.108386
 24
375.331731
 34
0.0
 50
90.0
100
AcDbRotatedDimension
1001
ACAD
1000
DSTYLE
1002
{
1070
    40
1040
5.0
1002
}
1001
GENIUS_GENDTOL_13
1000

1000
h7
1000

1040
0.0
1000
<>
  0
ENDSEC
  0
SECTION
  2
OBJECTS
  0
DICTIONARY
  5
1234
330
0
100
AcDbDictionary
281
     1
  3
ACAD_COLOR
350
1619
  3
ACAD_GROUP
350
1235
  3
ACAD_LAYOUT
350
161C
  3
ACAD_MATERIAL
350
1618
  3
ACAD_MLINESTYLE
350
1243
  3
ACAD_PLOTSETTINGS
350
161D
  3
ACAD_PLOTSTYLENAME
350
1616
  3
ACAD_TABLESTYLE
350
161A
  3
ACDBHEADERROUNDTRIPXREC
350
16FE
  3
AcDbVariableDictionary
350
16F1
  3
AcmDictionary
350
167B
  3
AMG
350
1621
  3
AMGSNAPSETTINGS
350
16E8
  0
DICTIONARY
  5
1619
102
{ACAD_REACTORS
330
1234
102
}
330
1234
100
AcDbDictionary
281
     1
  0
DICTIONARY
  5
1235
102
{ACAD_REACTORS
330
1234
102
}
330
1234
100
AcDbDictionary
281
     1
  0
DICTIONARY
  5
161C
102
{ACAD_REACTORS
330
1234
102
}
330
1234
100
AcDbDictionary
281
     1
  3
Layout1
350
161F
  3
Model
350
161E
  0
DICTIONARY
  5
1618
102
{ACAD_REACTORS
330
1234
102
}
330
1234
100
AcDbDictionary
281
     1
  0
DICTIONARY
  5
1243
102
{ACAD_REACTORS
330
1234
102
}
330
1234
100
AcDbDictionary
281
     1
  3
STANDARD
350
1244
  0
DICTIONARY
  5
161D
102
{ACAD_REACTORS
330
1234
102
}
330
1234
100
AcDbDictionary
281
     1
  0
ACDBDICTIONARYWDFLT
  5
1616
102
{ACAD_REACTORS
330
1234
102
}
330
1234
100
AcDbDictionary
281
     1
  3
Normal
350
1617
100
AcDbDictionaryWithDefault
340
1617
  0
DICTIONARY
  5
161A
102
{ACAD_REACTORS
330
1234
102
}
330
1234
100
AcDbDictionary
281
     1
  3
Standard
350
161B
  0
DICTIONARY
  5
16FE
102
{ACAD_REACTORS
330
1234
102
}
330
1234
100
AcDbDictionary
281
     1
  0
DICTIONARY
  5
16F1
102
{ACAD_REACTORS
330
1234
102
}
330
1234
100
AcDbDictionary
281
     1
  3
CTABLESTYLE
350
16F2
  3
DIMASSOC
350
16FB
  3
PROJECTNAME
350
16FC
  0
DICTIONARY
  5
167B
102
{ACAD_REACTORS
330
1234
102
}
330
1234
100
AcDbDictionary
281
     1
  3
AcmStdDictionary
350
1686
  3
AMDTSECTSYM_ARROWCOLOR
350
16A9
  0
DICTIONARY
  5
1621
102
{ACAD_REACTORS
330
1234
102
}
330
1234
100
AcDbDictionary
281
     1
  0
DICTIONARY
  5
16E8
102
{ACAD_REACTORS
330
1234
102
}
330
1234
100
AcDbDictionary
281
     1
  0
LAYOUT
  5
161F
102
{ACAD_XDICTIONARY
360
1701
102
}
102
{ACAD_REACTORS
330
161C
102
}
330
161C
100
AcDbPlotSettings
  1

  2
Xerox Document Centre CS50 PS
  4

  6

 40
0.0
 41
0.0
 42
0.0
 43
0.0
 44
0.0
 45
0.0
 46
0.0
 47
0.0
 48
0.0
 49
0.0
140
0.0
141
0.0
142
1.0
143
1.0
 70
   688
 72
     0
 73
     0
 74
     5
  7

 75
    16
147
1.0
148
0.0
149
0.0
100
AcDbLayout
  1
Layout1
 70
     1
 71
     1
 10
0.0
 20
0.0
 11
209.9
 21
296.9
 12
0.0
 22
0.0
 32
0.0
 14
0.0
 24
0.0
 34
0.0
 15
209.9
 25
296.9
 35
0.0
146
0.0
 13
0.0
 23
0.0
 33
0.0
 16
1.0
 26
0.0
 36
0.0
 17
0.0
 27
1.0
 37
0.0
 76
     0
330
123D
  0
LAYOUT
  5
161E
102
{ACAD_XDICTIONARY
360
16FF
102
}
102
{ACAD_REACTORS
330
161C
102
}
330
161C
100
AcDbPlotSettings
  1

  2
Xerox Document Centre CS50 PS
  4

  6

 40
0.0
 41
0.0
 42
0.0
 43
0.0
 44
0.0
 45
0.0
 46
0.0
 47
0.0
 48
0.0
 49
0.0
140
0.0
141
0.0
142
1.0
143
1.0
 70
  1712
 72
     0
 73
     0
 74
     0
  7

 75
     0
147
1.0
148
0.0
149
0.0
100
AcDbLayout
  1
Model
 70
     1
 71
     0
 10
0.0
 20
0.0
 11
12.0
 21
9.0
 12
0.0
 22
0.0
 32
0.0
 14
0.0
 24
0.0
 34
0.0
 15
0.0
 25
0.0
 35
0.0
146
0.0
 13
0.0
 23
0.0
 33
0.0
 16
1.0
 26
0.0
 36
0.0
 17
0.0
 27
1.0
 37
0.0
 76
     0
330
1240
  0
MLINESTYLE
  5
1244
102
{ACAD_REACTORS
330
1243
102
}
330
1243
100
AcDbMlineStyle
  2
STANDARD
 70
     0
  3

 62
   256
 51
90.0
 52
90.0
 71
     2
 49
0.5
 62
   256
  6
BYLAYER
 49
-0.5
 62
   256
  6
BYLAYER
  0
ACDBPLACEHOLDER
  5
1617
102
{ACAD_REACTORS
330
1616
102
}
330
1616
  0
TABLESTYLE
  5
161B
102
{ACAD_REACTORS
330
161A
102
}
330
161A
100
AcDbTableStyle
  3
Standard
 70
     0
 71
     0
 40
1.5
 41
1.5
280
     0
281
     0
  7
STANDARD
140
4.5
170
     2
 62
     0
 63
     7
283
     0
274
    -2
284
     1
 64
     0
275
    -2
285
     1
 65
     0
276
    -2
286
     1
 66
     0
277
    -2
287
     1
 67
     0
278
    -2
288
     1
 68
     0
279
    -2
289
     1
 69
     0
  7
STANDARD
140
6.0
170
     5
 62
     0
 63
     7
283
     0
274
    -2
284
     1
 64
     0
275
    -2
285
     1
 65
     0
276
    -2
286
     1
 66
     0
277
    -2
287
     1
 67
     0
278
    -2
288
     1
 68
     0
279
    -2
289
     1
 69
     0
  7
STANDARD
140
4.5
170
     5
 62
     0
 63
     7
283
     0
274
    -2
284
     1
 64
     0
275
    -2
285
     1
 65
     0
276
    -2
286
     1
 66
     0
277
    -2
287
     1
 67
     0
278
    -2
288
     1
 68
     0
279
    -2
289
     1
 69
     0
  0
DICTIONARYVAR
  5
16F2
102
{ACAD_REACTORS
330
16F1
102
}
330
16F1
100
DictionaryVariables
280
     0
  1
STANDARD
  0
DICTIONARYVAR
  5
16FB
102
{ACAD_REACTORS
330
16F1
102
}
330
16F1
100
DictionaryVariables
280
     0
  1
1
  0
DICTIONARYVAR
  5
16FC
102
{ACAD_REACTORS
330
16F1
102
}
330
16F1
100
DictionaryVariables
280
     0
  1

  0
DICTIONARY
  5
1686
102
{ACAD_REACTORS
330
167B
102
}
330
167B
100
AcDbDictionary
281
     1
  0
XRECORD
  5
16A9
102
{ACAD_REACTORS
330
167B
102
}
330
167B
100
AcDbXrecord
280
     1
 90
-1023410169
  0
DICTIONARY
  5
1701
330
161F
100
AcDbDictionary
280
     1
281
     1
  3
ACAD_XREC_ROUNDTRIP
360
1702
  0
DICTIONARY
  5
16FF
330
161E
100
AcDbDictionary
280
     1
281
     1
  3
ACAD_XREC_ROUNDTRIP
360
1700
  0
XRECORD
  5
1702
102
{ACAD_REACTORS
330
1701
102
}
330
1701
100
AcDbXrecord
280
     1
102
SHADEPLOT
 70
     0
102
SHADEPLOTRESLEVEL
 70
     2
102
SHADEPLOTCUSTOMDPI
 70
   300
  0
XRECORD
  5
1700
102
{ACAD_REACTORS
330
16FF
102
}
330
16FF
100
AcDbXrecord
280
     1
102
SHADEPLOT
 70
     0
102
SHADEPLOTRESLEVEL
 70
     2
102
SHADEPLOTCUSTOMDPI
 70
   300
  0
ENDSEC
  0
EOF
