  0
SECTION
  2
HEADER
  9
$ACADVER
  1
AC1015
  9
$ACADMAINTVER
 70
    20
  9
$DWGCODEPAGE
  3
ANSI_1252
  9
$INSBASE
 10
0.0
 20
0.0
 30
0.0
  9
$EXTMIN
 10
-0.016010501853998
 20
182.2952297077227
 30
-0.0015258207003583
  9
$EXTMAX
 10
1050.016025391894
 20
510.0997942966637
 30
0.0000000349246037
  9
$LIMMIN
 10
0.0
 20
0.0
  9
$LIMMAX
 10
1050.0
 20
1050.0
  9
$ORTHOMODE
 70
     1
  9
$REGENMODE
 70
     1
  9
$FILLMODE
 70
     1
  9
$QTEXTMODE
 70
     0
  9
$MIRRTEXT
 70
     0
  9
$LTSCALE
 40
5.0
  9
$ATTMODE
 70
     1
  9
$TEXTSIZE
 40
17.5
  9
$TRACEWID
 40
0.05
  9
$TEXTSTYLE
  7
STANDARD
  9
$CLAYER
  8
0
  9
$CELTYPE
  6
BYLAYER
  9
$CECOLOR
 62
   256
  9
$CELTSCALE
 40
1.0
  9
$DISPSILH
 70
     0
  9
$DIMSCALE
 40
5.0
  9
$DIMASZ
 40
2.5
  9
$DIMEXO
 40
1.0
  9
$DIMDLI
 40
7.0
  9
$DIMRND
 40
0.0
  9
$DIMDLE
 40
0.0
  9
$DIMEXE
 40
1.0
  9
$DIMTP
 40
0.1
  9
$DIMTM
 40
0.1
  9
$DIMTXT
 40
3.5
  9
$DIMCEN
 40
0.0
  9
$DIMTSZ
 40
0.0
  9
$DIMTOL
 70
     0
  9
$DIMLIM
 70
     0
  9
$DIMTIH
 70
     0
  9
$DIMTOH
 70
     0
  9
$DIMSE1
 70
     0
  9
$DIMSE2
 70
     0
  9
$DIMTAD
 70
     1
  9
$DIMZIN
 70
    12
  9
$DIMBLK
  1

  9
$DIMASO
 70
     1
  9
$DIMSHO
 70
     1
  9
$DIMPOST
  1

  9
$DIMAPOST
  1
"
  9
$DIMALT
 70
     0
  9
$DIMALTD
 70
     2
  9
$DIMALTF
 40
0.03937
  9
$DIMLFAC
 40
1.0
  9
$DIMTOFL
 70
     1
  9
$DIMTVP
 40
0.0
  9
$DIMTIX
 70
     0
  9
$DIMSOXD
 70
     0
  9
$DIMSAH
 70
     0
  9
$DIMBLK1
  1

  9
$DIMBLK2
  1

  9
$DIMSTYLE
  2
GEN-ISO
  9
$DIMCLRD
 70
   256
  9
$DIMCLRE
 70
   256
  9
$DIMCLRT
 70
     2
  9
$DIMTFAC
 40
0.71
  9
$DIMGAP
 40
0.6
  9
$DIMJUST
 70
     0
  9
$DIMSD1
 70
     0
  9
$DIMSD2
 70
     0
  9
$DIMTOLJ
 70
     0
  9
$DIMTZIN
 70
     0
  9
$DIMALTZ
 70
     0
  9
$DIMALTTZ
 70
     0
  9
$DIMUPT
 70
     0
  9
$DIMDEC
 70
     2
  9
$DIMTDEC
 70
     3
  9
$DIMALTU
 70
     2
  9
$DIMALTTD
 70
     4
  9
$DIMTXSTY
  7
STANDARD
  9
$DIMAUNIT
 70
     0
  9
$DIMADEC
 70
     0
  9
$DIMALTRND
 40
0.0
  9
$DIMAZIN
 70
     0
  9
$DIMDSEP
 70
    46
  9
$DIMATFIT
 70
     3
  9
$DIMFRAC
 70
     0
  9
$DIMLDRBLK
  1

  9
$DIMLUNIT
 70
     2
  9
$DIMLWD
 70
    -2
  9
$DIMLWE
 70
    -2
  9
$DIMTMOVE
 70
     0
  9
$LUNITS
 70
     2
  9
$LUPREC
 70
     2
  9
$SKETCHINC
 40
0.1
  9
$FILLETRAD
 40
0.000005
  9
$AUNITS
 70
     0
  9
$AUPREC
 70
     2
  9
$MENU
  1
.
  9
$ELEVATION
 40
0.0
  9
$PELEVATION
 40
0.0
  9
$THICKNESS
 40
0.0
  9
$LIMCHECK
 70
     0
  9
$CHAMFERA
 40
12.5
  9
$CHAMFERB
 40
12.5
  9
$CHAMFERC
 40
0.0
  9
$CHAMFERD
 40
0.0
  9
$SKPOLY
 70
     0
  9
$TDCREATE
 40
2451351.356435498
  9
$TDUCREATE
 40
2451351.314768832
  9
$TDUPDATE
 40
2454038.557645984
  9
$TDUUPDATE
 40
2454038.515979317
  9
$TDINDWG
 40
0.0098995486
  9
$TDUSRTIMER
 40
0.0098995486
  9
$USRTIMER
 70
     1
  9
$ANGBASE
 50
0.0
  9
$ANGDIR
 70
     0
  9
$PDMODE
 70
     0
  9
$PDSIZE
 40
0.0
  9
$PLINEWID
 40
0.0
  9
$SPLFRAME
 70
     0
  9
$SPLINETYPE
 70
     6
  9
$SPLINESEGS
 70
     8
  9
$HANDSEED
  5
16CA
  9
$SURFTAB1
 70
     6
  9
$SURFTAB2
 70
     6
  9
$SURFTYPE
 70
     6
  9
$SURFU
 70
     6
  9
$SURFV
 70
     6
  9
$UCSBASE
  2

  9
$UCSNAME
  2

  9
$UCSORG
 10
0.0
 20
0.0
 30
0.0
  9
$UCSXDIR
 10
1.0
 20
0.0
 30
0.0
  9
$UCSYDIR
 10
0.0
 20
1.0
 30
0.0
  9
$UCSORTHOREF
  2

  9
$UCSORTHOVIEW
 70
     0
  9
$UCSORGTOP
 10
0.0
 20
0.0
 30
0.0
  9
$UCSORGBOTTOM
 10
0.0
 20
0.0
 30
0.0
  9
$UCSORGLEFT
 10
0.0
 20
0.0
 30
0.0
  9
$UCSORGRIGHT
 10
0.0
 20
0.0
 30
0.0
  9
$UCSORGFRONT
 10
0.0
 20
0.0
 30
0.0
  9
$UCSORGBACK
 10
0.0
 20
0.0
 30
0.0
  9
$PUCSBASE
  2

  9
$PUCSNAME
  2

  9
$PUCSORG
 10
0.0
 20
0.0
 30
0.0
  9
$PUCSXDIR
 10
1.0
 20
0.0
 30
0.0
  9
$PUCSYDIR
 10
0.0
 20
1.0
 30
0.0
  9
$PUCSORTHOREF
  2

  9
$PUCSORTHOVIEW
 70
     0
  9
$PUCSORGTOP
 10
0.0
 20
0.0
 30
0.0
  9
$PUCSORGBOTTOM
 10
0.0
 20
0.0
 30
0.0
  9
$PUCSORGLEFT
 10
0.0
 20
0.0
 30
0.0
  9
$PUCSORGRIGHT
 10
0.0
 20
0.0
 30
0.0
  9
$PUCSORGFRONT
 10
0.0
 20
0.0
 30
0.0
  9
$PUCSORGBACK
 10
0.0
 20
0.0
 30
0.0
  9
$USERI1
 70
     0
  9
$USERI2
 70
     0
  9
$USERI3
 70
     0
  9
$USERI4
 70
     0
  9
$USERI5
 70
     0
  9
$USERR1
 40
0.0
  9
$USERR2
 40
0.0
  9
$USERR3
 40
0.0
  9
$USERR4
 40
0.0
  9
$USERR5
 40
0.0
  9
$WORLDVIEW
 70
     1
  9
$SHADEDGE
 70
     3
  9
$SHADEDIF
 70
    70
  9
$TILEMODE
 70
     1
  9
$MAXACTVP
 70
    48
  9
$PINSBASE
 10
0.0
 20
0.0
 30
0.0
  9
$PLIMCHECK
 70
     0
  9
$PEXTMIN
 10
0.0
 20
0.0
 30
0.0
  9
$PEXTMAX
 10
210.001
 20
297.001
 30
0.0
  9
$PLIMMIN
 10
0.0
 20
0.0
  9
$PLIMMAX
 10
210.001
 20
297.001
  9
$UNITMODE
 70
     0
  9
$VISRETAIN
 70
     1
  9
$PLINEGEN
 70
     1
  9
$PSLTSCALE
 70
     1
  9
$TREEDEPTH
 70
 -3020
  9
$CMLSTYLE
  2
STANDARD
  9
$CMLJUST
 70
     0
  9
$CMLSCALE
 40
1.0
  9
$PROXYGRAPHICS
 70
     1
  9
$MEASUREMENT
 70
     1
  9
$CELWEIGHT
370
    -1
  9
$ENDCAPS
280
     0
  9
$JOINSTYLE
280
     0
  9
$LWDISPLAY
290
     0
  9
$INSUNITS
 70
     0
  9
$HYPERLINKBASE
  1

  9
$STYLESHEET
  1

  9
$XEDIT
290
     1
  9
$CEPSNTYPE
380
     0
  9
$PSTYLEMODE
290
     1
  9
$FINGERPRINTGUID
  2
{484E1874-5AF3-47E0-921E-005DDFAD8608}
  9
$VERSIONGUID
  2
{60D4BD3C-4CD6-43F2-9E4F-D69C2BD4A818}
  9
$EXTNAMES
290
     1
  9
$PSVPSCALE
 40
0.0
  9
$OLESTARTUP
290
     0
  0
ENDSEC
  0
SECTION
  2
CLASSES
  0
CLASS
  1
ACDBDICTIONARYWDFLT
  2
AcDbDictionaryWithDefault
  3
ObjectDBX Classes
 90
        0
280
     0
281
     0
  0
CLASS
  1
TABLESTYLE
  2
AcDbTableStyle
  3
ObjectDBX Classes
 90
     2047
280
     0
281
     0
  0
CLASS
  1
AMGSETTINGSOBJ
  2
AmgSettingsObj
  3
"AcadM|Product Description: AutoCAD Mechanical 2000|Company: Autodesk"
 90
        0
280
     0
281
     0
  0
CLASS
  1
ACME_DOCUMENT
  2
AcMeDbDoc
  3
AcMeServices
 90
        0
280
     0
281
     0
  0
CLASS
  1
ACMESCOPE
  2
AcMeScope
  3
AcMeServices
 90
        0
280
     0
281
     0
  0
CLASS
  1
ACMECOMMANDHISTORY
  2
AcMeCommandHistory
  3
AcMeServices
 90
        0
280
     0
281
     0
  0
CLASS
  1
ACIMSYSVARMAN
  2
AcImSysVarManager
  3
AcMeServices
 90
        0
280
     0
281
     0
  0
CLASS
  1
ACIMINTSYSVAR
  2
AcImIntSysVar
  3
AcMeServices
 90
        0
280
     0
281
     0
  0
CLASS
  1
ACMEDRAWINGMAN
  2
AcMeDrawingMan
  3
AcMeServices
 90
        0
280
     0
281
     0
  0
CLASS
  1
ACMEVIEW
  2
AcMeView
  3
AcMeServices
 90
        0
280
     0
281
     0
  0
CLASS
  1
ACDBENTITYCACHE
  2
AcMeEntityCache
  3
AcMeServices
 90
        0
280
     0
281
     0
  0
CLASS
  1
GSMANAGER
  2
AcMeGSManager
  3
AcMeServices
 90
        0
280
     0
281
     0
  0
CLASS
  1
AMDTINTERNALREACTOR
  2
AmdtInternalReactor
  3
AcMeServices
 90
        0
280
     0
281
     0
  0
CLASS
  1
ACMESTATEMGR
  2
AcMeStateMgr
  3
AcMeServices
 90
        0
280
     0
281
     0
  0
CLASS
  1
ACGREFMASTER
  2
AcGrefMaster
  3
AcAttribServices
 90
        0
280
     0
281
     0
  0
CLASS
  1
AM_DRAWING_MGR
  2
AcDmDwgMgr
  3
AcMechDwgViewMgmt
 90
        0
280
     0
281
     0
  0
CLASS
  1
AM_DWG_DOCUMENT
  2
AcDmDwgDocument
  3
AcMechDwgViewMgmt
 90
        0
280
     0
281
     0
  0
CLASS
  1
AM_DWG_SHEET
  2
AcDmSheet
  3
AcMechDwgViewMgmt
 90
        0
280
     0
281
     0
  0
CLASS
  1
AM_VIEWDIMPARMAP
  2
AcDmViewDimParMap
  3
AcMechDwgViewMgmt
 90
        0
280
     0
281
     0
  0
CLASS
  1
ACIMREALSYSVAR
  2
AcImRealSysVar
  3
AcMeServices
 90
        0
280
     0
281
     0
  0
CLASS
  1
AM_DWGMGR_NAME
  2
AcDmDwgMgrName
  3
AcMechDwgViewMgmt
 90
        0
280
     0
281
     0
  0
CLASS
  1
ACME_DATABASE
  2
AcMeDbDatabase
  3
AcMeServices
 90
        0
280
     0
281
     0
  0
CLASS
  1
ACRFINSADJUSTERMGR
  2
AcRfInsAdjusterMgr
  3
AcMeServices
 90
        0
280
     0
281
     0
  0
CLASS
  1
ACGREFACADMASTER
  2
AcGrefacadMaster
  3
AcGrefServices
 90
        0
280
     0
281
     0
  0
CLASS
  1
AMDTMENUSTATEMGR
  2
AmdtMenuStateMgr
  3
McadcomServices
 90
        0
280
     0
281
     0
  0
CLASS
  1
AMDTMCOMMENUSTATE
  2
AmdtMcomMenuState
  3
McadcomServices
 90
        0
280
     0
281
     0
  0
CLASS
  1
AMIMASTER
  2
AmiMaster
  3
AmiServices
 90
        0
280
     0
281
     0
  0
CLASS
  1
MAPIAMMOUDLE
  2
MApiAmModule
  3
MApiAmServices
 90
        0
280
     0
281
     0
  0
CLASS
  1
ACIMSTRSYSVAR
  2
AcImStrSysVar
  3
AcMeServices
 90
        0
280
     0
281
     0
  0
CLASS
  1
AMDTADMENUSTATE
  2
AmdtAdMenuState
  3
DesignerServices
 90
        0
280
     0
281
     0
  0
CLASS
  1
ADAPPL
  2
AcAdAppl
  3
DesignerServices
 90
        0
280
     0
281
     0
  0
CLASS
  1
DEPMGR
  2
AcAdDepMgr
  3
DesignerServices
 90
        0
280
     0
281
     0
  0
CLASS
  1
PARAMMGR
  2
AcAdParamMgr
  3
DesignerServices
 90
        0
280
     0
281
     0
  0
CLASS
  1
PARAMSCOPE
  2
AcAdParamScope
  3
DesignerServices
 90
        0
280
     0
281
     0
  0
CLASS
  1
NAMEDAPPL
  2
AcAdNamedAppl
  3
DesignerServices
 90
        0
280
     0
281
     0
  0
CLASS
  1
AMDTDMMENUSTATE
  2
AmdtDmMenuState
  3
AcMechDwgViewMgmt
 90
        0
280
     0
281
     0
  0
CLASS
  1
AMDTAMMENUSTATE
  2
AmdtAmMenuState
  3
DesignerAssemblies
 90
        0
280
     0
281
     0
  0
CLASS
  1
ACAMPROJECT
  2
AcAmProject
  3
DesignerAssemblies
 90
        0
280
     0
281
     0
  0
CLASS
  1
ACAMGRCOMPDEF
  2
AcAmGrCompDef
  3
DesignerAssemblies
 90
        0
280
     0
281
     0
  0
CLASS
  1
ACCMCONTEXT
  2
AcCmContext
  3
DesignerAssemblies
 90
        0
280
     0
281
     0
  0
CLASS
  1
ACAMCOMPDEF
  2
AcAmCompDef
  3
DesignerAssemblies
 90
        0
280
     0
281
     0
  0
CLASS
  1
ACAMCOMPDEFMGR
  2
AcAmCompDefMgr
  3
DesignerAssemblies
 90
        0
280
     0
281
     0
  0
CLASS
  1
AMCONTEXTMGR
  2
AcAmContextMgr
  3
DesignerAssemblies
 90
        0
280
     0
281
     0
  0
CLASS
  1
ACAMCONTEXTMODELER
  2
AcAmContextModeler
  3
DesignerAssemblies
 90
        0
280
     0
281
     0
  0
CLASS
  1
ACMDATADICTIONARY
  2
AcmDataDictionary
  3
"AcmSymBB|Product Description: AutoCAD Mechanical 2004 DX|Company: Autodesk"
 90
        0
280
     0
281
     0
  0
CLASS
  1
CATALOGSTATE
  2
AcAmCatalogState
  3
DesignerAssemblies
 90
        0
280
     0
281
     0
  0
CLASS
  1
ACAMGRCOMPDEFSET
  2
AcAmGrCompDefSet
  3
DesignerAssemblies
 90
        0
280
     0
281
     0
  0
CLASS
  1
AMDTBROWSERDBTAB
  2
AmdtBrowserDbTab
  3
McadcomServices
 90
        0
280
     0
281
     0
  0
CLASS
  1
CBROWSERAPPOBJECT
  2
CBrowserAppObject
  3
McadcomServices
 90
        0
280
     0
281
     0
  0
CLASS
  1
DM_PLACEHOLDER
  2
AcDmSelsetPlaceholder
  3
AcMechDwgViewMgmt
 90
        0
280
     0
281
     0
  0
CLASS
  1
ACMSTANDARDDIN
  2
AcmStandardDIN
  3
"Amdt_StdImp|Product Description: AutoCAD Mechanical 2004 DX|Company: Autodesk"
 90
        0
280
     0
281
     0
  0
CLASS
  1
AMGOBJPROPCFG
  2
AmgObjPropCfg
  3
"AmgLay|Product Description: AutoCAD Mechanical 2000|Company: Autodesk"
 90
        1
280
     0
281
     0
  0
CLASS
  1
AMDTEDGESTANDARDDIN13715
  2
AmdtEdgeStdDIN13715
  3
"Amdt_StdImp|Product Description: AutoCAD Mechanical 2004 DX|Company: Autodesk"
 90
        0
280
     0
281
     0
  0
CLASS
  1
ACMSURFSTANDARDDIN
  2
AcmSurfTextStdDIN
  3
"Amdt_StdImp|Product Description: AutoCAD Mechanical 2004 DX|Company: Autodesk"
 90
        0
280
     0
281
     0
  0
CLASS
  1
ACMFCFSTANDARDDIN
  2
AcmFCFStdDIN
  3
"Amdt_StdImp|Product Description: AutoCAD Mechanical 2004 DX|Company: Autodesk"
 90
        0
280
     0
281
     0
  0
CLASS
  1
ACMWELDSTANDARDDIN
  2
AcmWeldingStdDIN
  3
"Amdt_StdImp|Product Description: AutoCAD Mechanical 2004 DX|Company: Autodesk"
 90
        0
280
     0
281
     0
  0
CLASS
  1
ACMIDSTANDARDDIN
  2
AcmIdStdDIN
  3
"Amdt_StdImp|Product Description: AutoCAD Mechanical 2004 DX|Company: Autodesk"
 90
        0
280
     0
281
     0
  0
CLASS
  1
ACMDATUMSTANDARDDIN
  2
AcmDatumStdDIN
  3
"Amdt_StdImp|Product Description: AutoCAD Mechanical 2004 DX|Company: Autodesk"
 90
        0
280
     0
281
     0
  0
CLASS
  1
ACMBOMSTANDARDDIN
  2
AcmBOMStdDIN
  3
"Amdt_StdImp|Product Description: AutoCAD Mechanical 2004 DX|Company: Autodesk"
 90
        0
280
     0
281
     0
  0
CLASS
  1
ACMDETAILSTANDARDDIN
  2
AmdtDetailSymStdDIN
  3
"Amdt_StdImp|Product Description: AutoCAD Mechanical 2004 DX|Company: Autodesk"
 90
        0
280
     0
281
     0
  0
CLASS
  1
ACMSECTIONSTANDARDDIN
  2
AmdtSectionSymStdDIN
  3
"Amdt_StdImp|Product Description: AutoCAD Mechanical 2004 DX|Company: Autodesk"
 90
        0
280
     0
281
     0
  0
CLASS
  1
ACMCENTERLINESTANDARDDIN
  2
AmdtCenterLineStdDIN
  3
"Amdt_StdImp|Product Description: AutoCAD Mechanical 2004 DX|Company: Autodesk"
 90
        0
280
     0
281
     0
  0
CLASS
  1
ACMTHREADLINESTANDARDDIN
  2
AmdtThreadLineStdDIN
  3
"Amdt_StdImp|Product Description: AutoCAD Mechanical 2004 DX|Company: Autodesk"
 90
        0
280
     0
281
     0
  0
CLASS
  1
ACMNOTESTANDARDDIN
  2
AmdtNoteStdDIN
  3
"Amdt_StdImp|Product Description: AutoCAD Mechanical 2004 DX|Company: Autodesk"
 90
        0
280
     0
281
     0
  0
CLASS
  1
AMDTNOTETEMPLATEDB
  2
AmdtNoteTemplateDB
  3
AMDT_STDIMP_MODULE_NAME
 90
        0
280
     0
281
     0
  0
CLASS
  1
ACAMGLAYSTD
  2
AcAmgLayStd
  3
"AcAmgLayStd|Product Description: AutoCAD Mechanical 2000|Company: Autodesk"
 90
        0
280
     0
281
     0
  0
CLASS
  1
ACAMGDIMSTD
  2
AcAmgDimStd
  3
"AcAmgDimStd|Product Description: AutoCAD Mechanical 2000|Company: Autodesk"
 90
        0
280
     0
281
     0
  0
CLASS
  1
ACAMGHOLECHARTSTDDIN
  2
AcAmgHoleChartStdDIN
  3
ACMSYMBB_MODULE_NAME
 90
        0
280
     0
281
     0
  0
CLASS
  1
ACAMGTITLESTD
  2
AcAmgTitleStd
  3
"TITLEAPP"
 90
        0
280
     0
281
     0
  0
CLASS
  1
ACAMGFILTERDAT
  2
AcAmgFilterDat
  3
"AcadM|Product Description: AutoCAD Mechanical 2000|Company: Autodesk"
 90
        0
280
     0
281
     0
  0
CLASS
  1
DICTIONARYVAR
  2
AcDbDictionaryVar
  3
ObjectDBX Classes
 90
        0
280
     0
281
     0
  0
CLASS
  1
ACDBPLACEHOLDER
  2
AcDbPlaceHolder
  3
ObjectDBX Classes
 90
        0
280
     0
281
     0
  0
CLASS
  1
LAYOUT
  2
AcDbLayout
  3
ObjectDBX Classes
 90
        0
280
     0
281
     0
  0
ENDSEC
  0
SECTION
  2
TABLES
  0
TABLE
  2
VPORT
  5
136A
330
0
100
AcDbSymbolTable
 70
     5
  0
VPORT
  5
16C4
330
136A
100
AcDbSymbolTableRecord
100
AcDbViewportTableRecord
  2
*Active
 70
     0
 10
0.0
 20
0.0
 11
1.0
 21
1.0
 12
525.00000744502
 22
346.1975120021933
 13
0.0
 23
0.0
 14
5.0
 24
5.0
 15
50.0
 25
50.0
 16
0.0
 26
0.0
 36
1.0
 17
0.0
 27
0.0
 37
0.0
 40
705.990902864408
 41
1.494545454545454
 42
50.0
 43
0.0
 44
0.0
 50
0.0
 51
0.0
 71
     0
 72
  1000
 73
     1
 74
     1
 75
     0
 76
     0
 77
     0
 78
     0
281
     0
 65
     0
110
0.0
120
0.0
130
0.0
111
1.0
121
0.0
131
0.0
112
0.0
122
1.0
132
0.0
 79
     0
146
0.0
  0
ENDTAB
  0
TABLE
  2
LTYPE
  5
1367
330
0
100
AcDbSymbolTable
 70
    21
  0
LTYPE
  5
1374
330
1367
100
AcDbSymbolTableRecord
100
AcDbLinetypeTableRecord
  2
BYBLOCK
 70
     0
  3

 72
    65
 73
     0
 40
0.0
  0
LTYPE
  5
1375
330
1367
100
AcDbSymbolTableRecord
100
AcDbLinetypeTableRecord
  2
BYLAYER
 70
     0
  3

 72
    65
 73
     0
 40
0.0
  0
LTYPE
  5
1376
330
1367
100
AcDbSymbolTableRecord
100
AcDbLinetypeTableRecord
  2
CONTINUOUS
 70
     0
  3
Solid line
 72
    65
 73
     0
 40
0.0
  0
LTYPE
  5
1385
330
1367
100
AcDbSymbolTableRecord
100
AcDbLinetypeTableRecord
  2
GEN7
 70
     0
  3
____ _ ____ _ ____ _ ____ _ ____ _ ____ _ ____ _ ____ _ ____ _
 72
    65
 73
     4
 40
22.0
 49
10.75
 74
     0
 49
-3.75
 74
     0
 49
3.75
 74
     0
 49
-3.75
 74
     0
  0
LTYPE
  5
13BA
330
1367
100
AcDbSymbolTableRecord
100
AcDbLinetypeTableRecord
  2
GEN3A
 70
     0
  3
 - - - - -
 72
    65
 73
     2
 40
3.125
 49
2.25
 74
     0
 49
-0.875
 74
     0
  0
LTYPE
  5
1622
330
1367
100
AcDbSymbolTableRecord
100
AcDbLinetypeTableRecord
  2
HIDDEN
 70
     0
  3
Verdeckt
 72
    65
 73
     2
 40
9.525
 49
6.349999999999999
 74
     0
 49
-3.174999999999999
 74
     0
  0
LTYPE
  5
1623
330
1367
100
AcDbSymbolTableRecord
100
AcDbLinetypeTableRecord
  2
PHANTOM2
 70
     0
  3
Phantom (.5x) ___ _ _ ___ _ _ ___ _ _ ___ _ _
 72
    65
 73
     6
 40
31.75
 49
15.875
 74
     0
 49
-3.174999999999999
 74
     0
 49
3.174999999999999
 74
     0
 49
-3.174999999999999
 74
     0
 49
3.174999999999999
 74
     0
 49
-3.174999999999999
 74
     0
  0
LTYPE
  5
1624
330
1367
100
AcDbSymbolTableRecord
100
AcDbLinetypeTableRecord
  2
CENTER
 70
     0
  3
Mitte ____ _ ____ _ ____ _ ____ _ ____ _ ____
 72
    65
 73
     4
 40
50.8
 49
31.75
 74
     0
 49
-6.349999999999999
 74
     0
 49
6.349999999999999
 74
     0
 49
-6.349999999999999
 74
     0
  0
LTYPE
  5
1658
330
1367
100
AcDbSymbolTableRecord
100
AcDbLinetypeTableRecord
  2
AM_ISO02W050
 70
     0
  3
__ __ __ __ __ __ __ __ __ __ __ __ __ __ __
 72
    65
 73
     2
 40
7.5
 49
6.0
 74
     0
 49
-1.5
 74
     0
  0
LTYPE
  5
1659
330
1367
100
AcDbSymbolTableRecord
100
AcDbLinetypeTableRecord
  2
AM_ISO08W050
 70
     0
  3
____ . ____ . ____ . ____ . ____ . ____ . ____
 72
    65
 73
     4
 40
18.0
 49
12.0
 74
     0
 49
-1.5
 74
     0
 49
3.0
 74
     0
 49
-1.5
 74
     0
  0
LTYPE
  5
165A
330
1367
100
AcDbSymbolTableRecord
100
AcDbLinetypeTableRecord
  2
AM_ISO09W050
 70
     0
  3
_____ . . _____ . . _____ . . ____ .. ____
 72
    65
 73
     6
 40
22.5
 49
12.0
 74
     0
 49
-1.5
 74
     0
 49
3.0
 74
     0
 49
-1.5
 74
     0
 49
3.0
 74
     0
 49
-1.5
 74
     0
  0
LTYPE
  5
165B
330
1367
100
AcDbSymbolTableRecord
100
AcDbLinetypeTableRecord
  2
Amconstr
 70
     0
  3
_______________________
 72
    65
 73
     2
 40
9999.0
 49
9999.0
 74
     0
 49
0.0
 74
     0
  0
LTYPE
  5
165C
330
1367
100
AcDbSymbolTableRecord
100
AcDbLinetypeTableRecord
  2
AM_ISO08W050x2
 70
     0
  3
__ . __ . __ . __ . __ . __
 72
    65
 73
     4
 40
9.0
 49
6.0
 74
     0
 49
-0.75
 74
     0
 49
1.5
 74
     0
 49
-0.75
 74
     0
  0
LTYPE
  5
165D
330
1367
100
AcDbSymbolTableRecord
100
AcDbLinetypeTableRecord
  2
AM_ISO02W050x2
 70
     0
  3
 _ _ _ _ _ _ _ _ _ _ _ _
 72
    65
 73
     2
 40
3.75
 49
3.0
 74
     0
 49
-0.75
 74
     0
  0
LTYPE
  5
1660
330
1367
100
AcDbSymbolTableRecord
100
AcDbLinetypeTableRecord
  2
Amzigzag
 70
     0
  3
/\/-/\/-/\/-/\/-/\/-/\/
 72
    65
 73
     2
 40
11.0001
 49
0.0001
 74
     4
 75
   136
340
165F
 46
0.04
 50
0.0
 44
0.0
 45
0.0
 49
-11.0
 74
     0
  0
LTYPE
  5
1661
330
1367
100
AcDbSymbolTableRecord
100
AcDbLinetypeTableRecord
  2
AM_DIN_F_W050
 70
     0
  3
__ __ __ __ __ __ __ __ __ __ __ __ __ __ __
 72
    65
 73
     2
 40
6.25
 49
4.75
 74
     0
 49
-1.5
 74
     0
  0
LTYPE
  5
1662
330
1367
100
AcDbSymbolTableRecord
100
AcDbLinetypeTableRecord
  2
AM_DIN_G_W050
 70
     0
  3
____ . ____ . ____ . ____ . ____ . ____ . ____
 72
    65
 73
     4
 40
13.75
 49
9.75
 74
     0
 49
-1.5
 74
     0
 49
1.0
 74
     0
 49
-1.5
 74
     0
  0
LTYPE
  5
1663
330
1367
100
AcDbSymbolTableRecord
100
AcDbLinetypeTableRecord
  2
AM_DIN_K_W050
 70
     0
  3
_____ . . _____ . . _____ . . ____ .. ____
 72
    65
 73
     6
 40
16.25
 49
9.75
 74
     0
 49
-1.5
 74
     0
 49
1.0
 74
     0
 49
-1.5
 74
     0
 49
1.0
 74
     0
 49
-1.5
 74
     0
  0
LTYPE
  5
1664
330
1367
100
AcDbSymbolTableRecord
100
AcDbLinetypeTableRecord
  2
AM_DIN_G_W050x2
 70
     0
  3
__ . __ . __ . __ . __ . __
 72
    65
 73
     4
 40
6.875
 49
4.75
 74
     0
 49
-0.875
 74
     0
 49
0.375
 74
     0
 49
-0.875
 74
     0
  0
LTYPE
  5
1665
330
1367
100
AcDbSymbolTableRecord
100
AcDbLinetypeTableRecord
  2
AM_DIN_F_W050x2
 70
     0
  3
 _ _ _ _ _ _ _ _ _ _ _ _
 72
    65
 73
     2
 40
3.125
 49
2.25
 74
     0
 49
-0.875
 74
     0
  0
LTYPE
  5
1674
330
1367
100
AcDbSymbolTableRecord
100
AcDbLinetypeTableRecord
  2
ACDINWELD
 70
     0
  3
_ _ _ _ _
 72
    65
 73
     2
 40
2.0
 49
2.0
 74
     0
 49
-1.0
 74
     0
  0
LTYPE
  5
1675
330
1367
100
AcDbSymbolTableRecord
100
AcDbLinetypeTableRecord
  2
ACDINTGB
 70
     0
  3
__ . . __ . .
 72
    65
 73
     6
 40
9.0
 49
4.0
 74
     0
 49
-1.0
 74
     0
 49
1.0
 74
     0
 49
-1.0
 74
     0
 49
1.0
 74
     0
 49
-1.0
 74
     0
  0
LTYPE
  5
1676
330
1367
100
AcDbSymbolTableRecord
100
AcDbLinetypeTableRecord
  2
ACDINTGL
 70
     0
  3
_ _ _ _ _
 72
    65
 73
     2
 40
3.0
 49
2.0
 74
     0
 49
-1.0
 74
     0
  0
ENDTAB
  0
TABLE
  2
LAYER
  5
1364
330
0
100
AcDbSymbolTable
 70
    14
  0
LAYER
  5
1370
330
1364
100
AcDbSymbolTableRecord
100
AcDbLayerTableRecord
  2
0
 70
     0
 62
     7
  6
CONTINUOUS
370
    -3
390
15E6
  0
LAYER
  5
138A
330
1364
100
AcDbSymbolTableRecord
100
AcDbLayerTableRecord
  2
3A
 70
     0
 62
     6
  6
GEN3A
370
    -3
390
15E6
  0
LAYER
  5
138B
330
1364
100
AcDbSymbolTableRecord
100
AcDbLayerTableRecord
  2
4
 70
     0
 62
     3
  6
CONTINUOUS
370
    -3
390
15E6
  0
LAYER
  5
138D
330
1364
100
AcDbSymbolTableRecord
100
AcDbLayerTableRecord
  2
5
 70
     0
 62
     3
  6
CONTINUOUS
370
    -3
390
15E6
  0
LAYER
  5
138E
330
1364
100
AcDbSymbolTableRecord
100
AcDbLayerTableRecord
  2
6
 70
     0
 62
     2
  6
CONTINUOUS
370
    -3
390
15E6
  0
LAYER
  5
138F
330
1364
100
AcDbSymbolTableRecord
100
AcDbLayerTableRecord
  2
7
 70
     0
 62
     4
  6
GEN7
370
    -3
390
15E6
  0
LAYER
  5
1390
330
1364
100
AcDbSymbolTableRecord
100
AcDbLayerTableRecord
  2
8
 70
     0
 62
     1
  6
CONTINUOUS
370
    -3
390
15E6
  0
LAYER
  5
1391
330
1364
100
AcDbSymbolTableRecord
100
AcDbLayerTableRecord
  2
ND_7
 70
     0
 62
     3
  6
GEN7
370
    -3
390
15E6
  0
LAYER
  5
1392
330
1364
100
AcDbSymbolTableRecord
100
AcDbLayerTableRecord
  2
PUNKTE
 70
     0
 62
    -1
  6
CONTINUOUS
370
    -3
390
15E6
  0
LAYER
  5
1393
330
1364
100
AcDbSymbolTableRecord
100
AcDbLayerTableRecord
  2
SCHRAFFUR_RAND
 70
     1
 62
   -36
  6
CONTINUOUS
370
    -3
390
15E6
  0
LAYER
  5
13B4
330
1364
100
AcDbSymbolTableRecord
100
AcDbLayerTableRecord
  2
MAßLINIEN
 70
     0
 62
    30
  6
GEN7
370
    -3
390
15E6
  0
LAYER
  5
13C3
330
1364
100
AcDbSymbolTableRecord
100
AcDbLayerTableRecord
  2
DEFPOINTS
 70
     0
 62
     7
  6
CONTINUOUS
290
     0
370
    -3
390
15E6
  0
LAYER
  5
1436
330
1364
100
AcDbSymbolTableRecord
100
AcDbLayerTableRecord
  2
RAHM2
 70
     0
 62
     1
  6
CONTINUOUS
370
    -3
390
15E6
  0
LAYER
  5
1437
330
1364
100
AcDbSymbolTableRecord
100
AcDbLayerTableRecord
  2
RAHM3
 70
     0
 62
     2
  6
CONTINUOUS
370
    -3
390
15E6
  0
ENDTAB
  0
TABLE
  2
STYLE
  5
1365
330
0
100
AcDbSymbolTable
 70
     4
  0
STYLE
  5
1371
330
1365
100
AcDbSymbolTableRecord
100
AcDbTextStyleTableRecord
  2
STANDARD
 70
     0
 40
0.0
 41
1.0
 50
0.0
 71
     0
 42
17.5
  3
ISOCP.SHX
  4

  0
STYLE
  5
165F
330
1365
100
AcDbSymbolTableRecord
100
AcDbTextStyleTableRecord
  2

 70
     1
 40
0.0
 41
1.0
 50
0.0
 71
     0
 42
0.2
  3
genltshp.shx
  4

  0
STYLE
  5
1666
330
1365
100
AcDbSymbolTableRecord
100
AcDbTextStyleTableRecord
  2
ACDINTS
 70
     0
 40
1.0
 41
1.0
 50
0.0
 71
     0
 42
0.2
  3
isocp.shx
  4

  0
STYLE
  5
1673
330
1365
100
AcDbSymbolTableRecord
100
AcDbTextStyleTableRecord
  2
ACDINGDT
 70
     0
 40
0.0
 41
1.0
 50
0.0
 71
     0
 42
0.2
  3
AMGDT
  4

  0
ENDTAB
  0
TABLE
  2
VIEW
  5
1368
330
0
100
AcDbSymbolTable
 70
     6
  0
VIEW
  5
146E
330
1368
100
AcDbSymbolTableRecord
100
AcDbViewTableRecord
  2
GEN1
 70
     0
 40
525.0
 10
403.491903
 20
787.5
 41
806.983806
 11
0.0
 21
0.0
 31
1.0
 12
0.0
 22
0.0
 32
0.0
 42
50.0
 43
0.0
 44
0.0
 50
0.0
 71
     0
281
     0
 72
     0
  0
VIEW
  5
146F
330
1368
100
AcDbSymbolTableRecord
100
AcDbViewTableRecord
  2
GEN2
 70
     0
 40
525.0
 10
646.508097
 20
787.5
 41
806.983806
 11
0.0
 21
0.0
 31
1.0
 12
0.0
 22
0.0
 32
0.0
 42
50.0
 43
0.0
 44
0.0
 50
0.0
 71
     0
281
     0
 72
     0
  0
VIEW
  5
1470
330
1368
100
AcDbSymbolTableRecord
100
AcDbViewTableRecord
  2
GEN3
 70
     0
 40
525.0
 10
403.491903
 20
262.5
 41
806.983806
 11
0.0
 21
0.0
 31
1.0
 12
0.0
 22
0.0
 32
0.0
 42
50.0
 43
0.0
 44
0.0
 50
0.0
 71
     0
281
     0
 72
     0
  0
VIEW
  5
1471
330
1368
100
AcDbSymbolTableRecord
100
AcDbViewTableRecord
  2
GEN4
 70
     0
 40
525.0
 10
646.508097
 20
262.5
 41
806.983806
 11
0.0
 21
0.0
 31
1.0
 12
0.0
 22
0.0
 32
0.0
 42
50.0
 43
0.0
 44
0.0
 50
0.0
 71
     0
281
     0
 72
     0
  0
VIEW
  5
1472
330
1368
100
AcDbSymbolTableRecord
100
AcDbViewTableRecord
  2
GEN5
 70
     0
 40
525.0
 10
525.0
 20
525.0
 41
806.983806
 11
0.0
 21
0.0
 31
1.0
 12
0.0
 22
0.0
 32
0.0
 42
50.0
 43
0.0
 44
0.0
 50
0.0
 71
     0
281
     0
 72
     0
  0
VIEW
  5
1473
330
1368
100
AcDbSymbolTableRecord
100
AcDbViewTableRecord
  2
GEN6
 70
     0
 40
1049.9895
 10
525.0
 20
525.0
 41
1613.951472
 11
0.0
 21
0.0
 31
1.0
 12
0.0
 22
0.0
 32
0.0
 42
50.0
 43
0.0
 44
0.0
 50
0.0
 71
     0
281
     0
 72
     0
  0
ENDTAB
  0
TABLE
  2
UCS
  5
1369
330
0
100
AcDbSymbolTable
 70
     0
  0
ENDTAB
  0
TABLE
  2
APPID
  5
136B
330
0
100
AcDbSymbolTable
 70
    36
  0
APPID
  5
1372
330
136B
100
AcDbSymbolTableRecord
100
AcDbRegAppTableRecord
  2
ACAD
 70
     0
  0
APPID
  5
13AA
330
136B
100
AcDbSymbolTableRecord
100
AcDbRegAppTableRecord
  2
GENIUS_GENOENT_13
 70
     0
  0
APPID
  5
13AB
330
136B
100
AcDbSymbolTableRecord
100
AcDbRegAppTableRecord
  2
GENIUS_GENCFG_13
 70
     0
1001
GENIUS_DUMCFG0_13
1000
DUM
1001
GENIUS_GENCFG0_13
1000
GEN@INFO_POS@XLATE
1001
GENIUS_GENCFG1_13
1000
GEN@INFO_POS
1001
GENIUS_GENCFG2_13
1000
GEN@LAYER@DEFS
1001
GENIUS_GENCFG3_13
1000
GEN@LAYER@ENTSORT
1001
GENIUS_GENCFG4_13
1000
GEN
1001
GENIUS_GEVCFG0_13
1000
GEV
  0
APPID
  5
13AC
330
136B
100
AcDbSymbolTableRecord
100
AcDbRegAppTableRecord
  2
GENIUS_DUMCFG0_13
 70
     0
1001
GENIUS_GENCFG_13
1071
929947255
1000
13AC
1000
DUM
1070
     0
  0
APPID
  5
13AD
330
136B
100
AcDbSymbolTableRecord
100
AcDbRegAppTableRecord
  2
GENIUS_GENCFG0_13
 70
     0
1001
GENIUS_GENCFG_13
1071
1020868306
1000
13AD
1000
GEN@INFO_POS@XLATE
1070
     7
1000
GenCfgObject
1000
GenCfgShort
1000
GenCfgReal
1000
GenCfgBool
1000
GenCfgString
1000
GenCfgDim
1000
GenCfgAttrInf
1000
INFOPOINTS
1070
     0
1002
{
1000
GENINF14
1070
     0
1002
{
1000
2GENINF
1070
     4
1000
2
1002
{
1002
}
1000
5GENINF
1070
     4
1000
5
1002
{
1002
}
1000
7GENINF
1070
     4
1000
7
1002
{
1002
}
1000
9GENINF
1070
     4
1000
9
1002
{
1002
}
1000
11GENINF
1070
     4
1000
11
1002
{
1002
}
1000
14GENINF
1070
     4
1000
14
1002
{
1002
}
1002
}
1000
GENINF13
1070
     0
1002
{
1000
2GENINF
1070
     4
1000
2
1002
{
1002
}
1000
3GENINF
1070
     4
1000
3
1002
{
1002
}
1000
4GENINF
1070
     4
1000
4
1002
{
1002
}
1000
5GENINF
1070
     4
1000
5
1002
{
1002
}
1000
6GENINF
1070
     4
1000
6
1002
{
1002
}
1000
7GENINF
1070
     4
1000
7
1002
{
1002
}
1000
8GENINF
1070
     4
1000
8
1002
{
1002
}
1000
9GENINF
1070
     4
1000
9
1002
{
1002
}
1000
10GENINF
1070
     4
1000
10
1002
{
1002
}
1000
11GENINF
1070
     4
1000
11
1002
{
1002
}
1000
12GENINF
1070
     4
1000
12
1002
{
1002
}
1000
13GENINF
1070
     4
1000
13
1002
{
1002
}
1000
14GENINF
1070
     4
1000
14
1002
{
1002
}
1000
15GENINF
1070
     4
1000
15
1002
{
1002
}
1000
16GENINF
1070
     4
1000
16
1002
{
1002
}
1000
17GENINF
1070
     4
1000
17
1002
{
1002
}
1000
18GENINF
1070
     4
1000
18
1002
{
1002
}
1000
19GENINF
1070
     4
1000
19
1002
{
1002
}
1000
20GENINF
1070
     4
1000
20
1002
{
1002
}
1000
21GENINF
1070
     4
1000
21
1002
{
1002
}
1000
22GENINF
1070
     4
1000
22
1002
{
1002
}
1000
23GENINF
1070
     4
1000
23
1002
{
1002
}
1000
24GENINF
1070
     4
1000
24
1002
{
1002
}
1000
0GENINF
1070
     4
1000
0
1002
{
1002
}
1002
}
1000
GENINFO
1070
     0
1002
{
1000
3GENINF
1070
     4
1000
3
1002
{
1002
}
1000
4GENINF
1070
     4
1000
4
1002
{
1002
}
1000
5GENINF
1070
     4
1000
5
1002
{
1002
}
1000
6GENINF
1070
     4
1000
6
1002
{
1002
}
1000
7GENINF
1070
     4
1000
7
1002
{
1002
}
1000
8GENINF
1070
     4
1000
8
1002
{
1002
}
1000
9GENINF
1070
     4
1000
9
1002
{
1002
}
1000
10GENINF
1070
     4
1000
10
1002
{
1002
}
1000
11GENINF
1070
     4
1000
11
1002
{
1002
}
1000
12GENINF
1070
     4
1000
12
1002
{
1002
}
1000
13GENINF
1070
     4
1000
13
1002
{
1002
}
1000
14GENINF
1070
     4
1000
14
1002
{
1002
}
1000
15GENINF
1070
     4
1000
15
1002
{
1002
}
1000
16GENINF
1070
     4
1000
16
1002
{
1002
}
1000
17GENINF
1070
     4
1000
17
1002
{
1002
}
1000
18GENINF
1070
     4
1000
18
1002
{
1002
}
1000
19GENINF
1070
     4
1000
19
1002
{
1002
}
1000
20GENINF
1070
     4
1000
20
1002
{
1002
}
1000
21GENINF
1070
     4
1000
21
1002
{
1002
}
1000
22GENINF
1070
     4
1000
22
1002
{
1002
}
1002
}
1000
DININFO
1070
     0
1002
{
1000
ST-NAME1
1070
     4
1000
5
1002
{
1002
}
1000
ST-NAME2
1070
     4
1000
6
1002
{
1002
}
1000
ST-NORM1
1070
     4
1000
7
1002
{
1002
}
1000
ST-NORM2
1070
     4
1000
8
1002
{
1002
}
1000
ST-MAT1
1070
     4
1000
9
1002
{
1002
}
1000
ST-MAT2
1070
     4
1000
10
1002
{
1002
}
1002
}
1002
}
1000
POS_NUMBERS
1070
     0
1002
{
1000
GENPOS14
1070
     0
1002
{
1000
1GENPOS
1070
     4
1000
1
1002
{
1002
}
1000
2GENPOS
1070
     4
1000
2
1002
{
1002
}
1000
5GENPOS
1070
     4
1000
5
1002
{
1002
}
1000
7GENPOS
1070
     4
1000
7
1002
{
1002
}
1000
9GENPOS
1070
     4
1000
9
1002
{
1002
}
1000
11GENPOS
1070
     4
1000
11
1002
{
1002
}
1000
14GENPOS
1070
     4
1000
14
1002
{
1002
}
1002
}
1000
GENPOS13
1070
     0
1002
{
1000
1GENPOS
1070
     4
1000
1
1002
{
1002
}
1000
2GENPOS
1070
     4
1000
2
1002
{
1002
}
1000
3GENPOS
1070
     4
1000
3
1002
{
1002
}
1000
4GENPOS
1070
     4
1000
4
1002
{
1002
}
1000
5GENPOS
1070
     4
1000
5
1002
{
1002
}
1000
6GENPOS
1070
     4
1000
6
1002
{
1002
}
1000
7GENPOS
1070
     4
1000
7
1002
{
1002
}
1000
8GENPOS
1070
     4
1000
8
1002
{
1002
}
1000
9GENPOS
1070
     4
1000
9
1002
{
1002
}
1000
10GENPOS
1070
     4
1000
10
1002
{
1002
}
1000
11GENPOS
1070
     4
1000
11
1002
{
1002
}
1000
12GENPOS
1070
     4
1000
12
1002
{
1002
}
1000
13GENPOS
1070
     4
1000
13
1002
{
1002
}
1000
14GENPOS
1070
     4
1000
14
1002
{
1002
}
1000
15GENPOS
1070
     4
1000
15
1002
{
1002
}
1000
16GENPOS
1070
     4
1000
16
1002
{
1002
}
1000
17GENPOS
1070
     4
1000
17
1002
{
1002
}
1000
18GENPOS
1070
     4
1000
18
1002
{
1002
}
1000
19GENPOS
1070
     4
1000
19
1002
{
1002
}
1000
20GENPOS
1070
     4
1000
20
1002
{
1002
}
1000
21GENPOS
1070
     4
1000
21
1002
{
1002
}
1000
22GENPOS
1070
     4
1000
22
1002
{
1002
}
1000
23GENPOS
1070
     4
1000
23
1002
{
1002
}
1000
24GENPOS
1070
     4
1000
24
1002
{
1002
}
1000
0GENPOS
1070
     4
1000
0
1002
{
1002
}
1002
}
1000
GENPOS
1070
     0
1002
{
1000
1GENPOS
1070
     4
1000
1
1002
{
1002
}
1000
2GENPOS
1070
     4
1000
2
1002
{
1002
}
1000
3GENPOS
1070
     4
1000
3
1002
{
1002
}
1000
4GENPOS
1070
     4
1000
4
1002
{
1002
}
1000
5GENPOS
1070
     4
1000
5
1002
{
1002
}
1000
6GENPOS
1070
     4
1000
6
1002
{
1002
}
1000
7GENPOS
1070
     4
1000
7
1002
{
1002
}
1000
8GENPOS
1070
     4
1000
8
1002
{
1002
}
1000
9GENPOS
1070
     4
1000
9
1002
{
1002
}
1000
10GENPOS
1070
     4
1000
10
1002
{
1002
}
1000
11GENPOS
1070
     4
1000
11
1002
{
1002
}
1000
12GENPOS
1070
     4
1000
12
1002
{
1002
}
1000
13GENPOS
1070
     4
1000
13
1002
{
1002
}
1000
14GENPOS
1070
     4
1000
14
1002
{
1002
}
1000
15GENPOS
1070
     4
1000
15
1002
{
1002
}
1000
16GENPOS
1070
     4
1000
16
1002
{
1002
}
1000
17GENPOS
1070
     4
1000
17
1002
{
1002
}
1000
18GENPOS
1070
     4
1000
18
1002
{
1002
}
1000
19GENPOS
1070
     4
1000
19
1002
{
1002
}
1000
20GENPOS
1070
     4
1000
20
1002
{
1002
}
1000
21GENPOS
1070
     4
1000
21
1002
{
1002
}
1000
22GENPOS
1070
     4
1000
22
1002
{
1002
}
1000
23GENPOS
1070
     4
1000
23
1002
{
1002
}
1002
}
1000
DIN985
1070
     0
1002
{
1000
POSITION
1070
     4
1000
1
1002
{
1002
}
1000
MENGE
1070
     4
1000
2
1002
{
1002
}
1000
BLATT
1070
     4
1000
3
1002
{
1002
}
1000
BENENN
1070
     4
1000
5
1002
{
1002
}
1000
BENENN2
1070
     4
1000
6
1002
{
1002
}
1000
NORM
1070
     4
1000
7
1002
{
1002
}
1000
NORM2
1070
     4
1000
8
1002
{
1002
}
1000
WERKSTOFF
1070
     4
1000
9
1002
{
1002
}
1000
WERKSTOFF2
1070
     4
1000
10
1002
{
1002
}
1002
}
1000
DIN986
1070
     0
1002
{
1000
POSITION
1070
     4
1000
1
1002
{
1002
}
1000
MENGE
1070
     4
1000
2
1002
{
1002
}
1000
BLATT
1070
     4
1000
3
1002
{
1002
}
1000
BENENN
1070
     4
1000
5
1002
{
1002
}
1000
BENENN2
1070
     4
1000
6
1002
{
1002
}
1000
NORM
1070
     4
1000
7
1002
{
1002
}
1000
NORM2
1070
     4
1000
8
1002
{
1002
}
1000
WERKSTOFF
1070
     4
1000
9
1002
{
1002
}
1000
WERKSTOFF2
1070
     4
1000
10
1002
{
1002
}
1002
}
1000
DIN987
1070
     0
1002
{
1000
POSITION
1070
     4
1000
1
1002
{
1002
}
1000
MENGE
1070
     4
1000
2
1002
{
1002
}
1000
BLATT
1070
     4
1000
3
1002
{
1002
}
1000
BENENN
1070
     4
1000
5
1002
{
1002
}
1000
BENENN2
1070
     4
1000
6
1002
{
1002
}
1000
NORM
1070
     4
1000
7
1002
{
1002
}
1000
NORM2
1070
     4
1000
8
1002
{
1002
}
1000
WERKSTOFF
1070
     4
1000
9
1002
{
1002
}
1000
WERKSTOFF2
1070
     4
1000
10
1002
{
1002
}
1002
}
1002
}
  0
APPID
  5
13AE
330
136B
100
AcDbSymbolTableRecord
100
AcDbRegAppTableRecord
  2
GENIUS_GENCFG1_13
 70
     0
1001
GENIUS_GENCFG_13
1071
1020868306
1000
13AE
1000
GEN@INFO_POS
1070
     7
1000
GenCfgObject
1000
GenCfgShort
1000
GenCfgReal
1000
GenCfgBool
1000
GenCfgString
1000
GenCfgDim
1000
GenCfgAttrInf
1000
DescrText
1070
     4
1000
5, ,6, ,7, ,8
1002
{
1002
}
1000
DescrText2
1070
     4
1000
26
1002
{
1002
}
1000
VisibleAttr1
1070
     4
1000
1
1002
{
1002
}
1000
VisibleAttr2
1070
     4
1000
26
1002
{
1002
}
1000
UpdateBlock
1070
     3
1070
     1
1002
{
1002
}
1000
Attrib
1070
     0
1002
{
1000
0
1070
     6
1002
{
1000
Prompt
1070
     4
1000
(genmsg gendwg 103)
1002
{
1002
}
1000
Value
1070
     4
1000

1002
{
1002
}
1000
EditFlag
1070
     1
1070
     0
1002
{
1002
}
1000
PosInDDATTE
1070
     1
1070
    27
1002
{
1002
}
1000
FieldLen
1070
     1
1070
    -1
1002
{
1002
}
1002
}
1000
1
1070
     6
1002
{
1000
Prompt
1070
     4
1000
(genmsg gendwg 31)
1002
{
1002
}
1000
Value
1070
     4
1000
1
1002
{
1002
}
1000
EditFlag
1070
     1
1070
     1
1002
{
1002
}
1000
PosInDDATTE
1070
     1
1070
     1
1002
{
1002
}
1000
FieldLen
1070
     1
1070
    -1
1002
{
1002
}
1002
}
1000
2
1070
     6
1002
{
1000
Prompt
1070
     4
1000
(genmsg gendwg 32)
1002
{
1002
}
1000
Value
1070
     4
1000
1
1002
{
1002
}
1000
EditFlag
1070
     1
1070
     1
1002
{
1002
}
1000
PosInDDATTE
1070
     1
1070
     2
1002
{
1002
}
1000
FieldLen
1070
     1
1070
    -1
1002
{
1002
}
1002
}
1000
3
1070
     6
1002
{
1000
Prompt
1070
     4
1000
(genmsg gendwg 33)
1002
{
1002
}
1000
Value
1070
     4
1000

1002
{
1002
}
1000
EditFlag
1070
     1
1070
     1
1002
{
1002
}
1000
PosInDDATTE
1070
     1
1070
     3
1002
{
1002
}
1000
FieldLen
1070
     1
1070
    -1
1002
{
1002
}
1002
}
1000
4
1070
     6
1002
{
1000
Prompt
1070
     4
1000
(genmsg gendwg 34)
1002
{
1002
}
1000
Value
1070
     4
1000

1002
{
1002
}
1000
EditFlag
1070
     1
1070
     1
1002
{
1002
}
1000
PosInDDATTE
1070
     1
1070
     4
1002
{
1002
}
1000
FieldLen
1070
     1
1070
    -1
1002
{
1002
}
1002
}
1000
5
1070
     6
1002
{
1000
Prompt
1070
     4
1000
(genmsg gendwg 35)
1002
{
1002
}
1000
Value
1070
     4
1000

1002
{
1002
}
1000
EditFlag
1070
     1
1070
     1
1002
{
1002
}
1000
PosInDDATTE
1070
     1
1070
     5
1002
{
1002
}
1000
FieldLen
1070
     1
1070
    -1
1002
{
1002
}
1002
}
1000
6
1070
     6
1002
{
1000
Prompt
1070
     4
1000
(genmsg gendwg 36)
1002
{
1002
}
1000
Value
1070
     4
1000

1002
{
1002
}
1000
EditFlag
1070
     1
1070
     1
1002
{
1002
}
1000
PosInDDATTE
1070
     1
1070
     6
1002
{
1002
}
1000
FieldLen
1070
     1
1070
    -1
1002
{
1002
}
1002
}
1000
7
1070
     6
1002
{
1000
Prompt
1070
     4
1000
(genmsg gendwg 37)
1002
{
1002
}
1000
Value
1070
     4
1000

1002
{
1002
}
1000
EditFlag
1070
     1
1070
     1
1002
{
1002
}
1000
PosInDDATTE
1070
     1
1070
     7
1002
{
1002
}
1000
FieldLen
1070
     1
1070
    -1
1002
{
1002
}
1002
}
1000
8
1070
     6
1002
{
1000
Prompt
1070
     4
1000
(genmsg gendwg 38)
1002
{
1002
}
1000
Value
1070
     4
1000

1002
{
1002
}
1000
EditFlag
1070
     1
1070
     1
1002
{
1002
}
1000
PosInDDATTE
1070
     1
1070
     8
1002
{
1002
}
1000
FieldLen
1070
     1
1070
    -1
1002
{
1002
}
1002
}
1000
9
1070
     6
1002
{
1000
Prompt
1070
     4
1000
(genmsg gendwg 39)
1002
{
1002
}
1000
Value
1070
     4
1000

1002
{
1002
}
1000
EditFlag
1070
     1
1070
     1
1002
{
1002
}
1000
PosInDDATTE
1070
     1
1070
     9
1002
{
1002
}
1000
FieldLen
1070
     1
1070
    -1
1002
{
1002
}
1002
}
1000
10
1070
     6
1002
{
1000
Prompt
1070
     4
1000
(genmsg gendwg 40)
1002
{
1002
}
1000
Value
1070
     4
1000

1002
{
1002
}
1000
EditFlag
1070
     1
1070
     1
1002
{
1002
}
1000
PosInDDATTE
1070
     1
1070
    10
1002
{
1002
}
1000
FieldLen
1070
     1
1070
    -1
1002
{
1002
}
1002
}
1000
11
1070
     6
1002
{
1000
Prompt
1070
     4
1000
(genmsg gendwg 41)
1002
{
1002
}
1000
Value
1070
     4
1000

1002
{
1002
}
1000
EditFlag
1070
     1
1070
     1
1002
{
1002
}
1000
PosInDDATTE
1070
     1
1070
    11
1002
{
1002
}
1000
FieldLen
1070
     1
1070
    -1
1002
{
1002
}
1002
}
1000
12
1070
     6
1002
{
1000
Prompt
1070
     4
1000
(genmsg gendwg 42)
1002
{
1002
}
1000
Value
1070
     4
1000

1002
{
1002
}
1000
EditFlag
1070
     1
1070
     1
1002
{
1002
}
1000
PosInDDATTE
1070
     1
1070
    12
1002
{
1002
}
1000
FieldLen
1070
     1
1070
    -1
1002
{
1002
}
1002
}
1000
13
1070
     6
1002
{
1000
Prompt
1070
     4
1000
(genmsg gendwg 43)
1002
{
1002
}
1000
Value
1070
     4
1000

1002
{
1002
}
1000
EditFlag
1070
     1
1070
     1
1002
{
1002
}
1000
PosInDDATTE
1070
     1
1070
    13
1002
{
1002
}
1000
FieldLen
1070
     1
1070
    -1
1002
{
1002
}
1002
}
1000
14
1070
     6
1002
{
1000
Prompt
1070
     4
1000
(genmsg gendwg 44)
1002
{
1002
}
1000
Value
1070
     4
1000

1002
{
1002
}
1000
EditFlag
1070
     1
1070
     1
1002
{
1002
}
1000
PosInDDATTE
1070
     1
1070
    14
1002
{
1002
}
1000
FieldLen
1070
     1
1070
    -1
1002
{
1002
}
1002
}
1000
15
1070
     6
1002
{
1000
Prompt
1070
     4
1000
(genmsg gendwg 45)
1002
{
1002
}
1000
Value
1070
     4
1000

1002
{
1002
}
1000
EditFlag
1070
     1
1070
     1
1002
{
1002
}
1000
PosInDDATTE
1070
     1
1070
    15
1002
{
1002
}
1000
FieldLen
1070
     1
1070
    -1
1002
{
1002
}
1002
}
1000
16
1070
     6
1002
{
1000
Prompt
1070
     4
1000
(genmsg gendwg 46)
1002
{
1002
}
1000
Value
1070
     4
1000

1002
{
1002
}
1000
EditFlag
1070
     1
1070
     1
1002
{
1002
}
1000
PosInDDATTE
1070
     1
1070
    16
1002
{
1002
}
1000
FieldLen
1070
     1
1070
    -1
1002
{
1002
}
1002
}
1000
17
1070
     6
1002
{
1000
Prompt
1070
     4
1000
(genmsg gendwg 47)
1002
{
1002
}
1000
Value
1070
     4
1000

1002
{
1002
}
1000
EditFlag
1070
     1
1070
     1
1002
{
1002
}
1000
PosInDDATTE
1070
     1
1070
    17
1002
{
1002
}
1000
FieldLen
1070
     1
1070
    -1
1002
{
1002
}
1002
}
1000
18
1070
     6
1002
{
1000
Prompt
1070
     4
1000
(genmsg gendwg 48)
1002
{
1002
}
1000
Value
1070
     4
1000

1002
{
1002
}
1000
EditFlag
1070
     1
1070
     1
1002
{
1002
}
1000
PosInDDATTE
1070
     1
1070
    18
1002
{
1002
}
1000
FieldLen
1070
     1
1070
    -1
1002
{
1002
}
1002
}
1000
19
1070
     6
1002
{
1000
Prompt
1070
     4
1000
(genmsg gendwg 99)
1002
{
1002
}
1000
Value
1070
     4
1000

1002
{
1002
}
1000
EditFlag
1070
     1
1070
     1
1002
{
1002
}
1000
PosInDDATTE
1070
     1
1070
    19
1002
{
1002
}
1000
FieldLen
1070
     1
1070
    -1
1002
{
1002
}
1002
}
1000
20
1070
     6
1002
{
1000
Prompt
1070
     4
1000
(genmsg gendwg 100)
1002
{
1002
}
1000
Value
1070
     4
1000

1002
{
1002
}
1000
EditFlag
1070
     1
1070
     1
1002
{
1002
}
1000
PosInDDATTE
1070
     1
1070
    20
1002
{
1002
}
1000
FieldLen
1070
     1
1070
    -1
1002
{
1002
}
1002
}
1000
21
1070
     6
1002
{
1000
Prompt
1070
     4
1000
(genmsg gendwg 101)
1002
{
1002
}
1000
Value
1070
     4
1000

1002
{
1002
}
1000
EditFlag
1070
     1
1070
     1
1002
{
1002
}
1000
PosInDDATTE
1070
     1
1070
    21
1002
{
1002
}
1000
FieldLen
1070
     1
1070
    -1
1002
{
1002
}
1002
}
1000
22
1070
     6
1002
{
1000
Prompt
1070
     4
1000
(genmsg gendwg 102)
1002
{
1002
}
1000
Value
1070
     4
1000

1002
{
1002
}
1000
EditFlag
1070
     1
1070
     1
1002
{
1002
}
1000
PosInDDATTE
1070
     1
1070
    22
1002
{
1002
}
1000
FieldLen
1070
     1
1070
    -1
1002
{
1002
}
1002
}
1000
23
1070
     6
1002
{
1000
Prompt
1070
     4
1000
(genmsg gendwg 30)
1002
{
1002
}
1000
Value
1070
     4
1000

1002
{
1002
}
1000
EditFlag
1070
     1
1070
     1
1002
{
1002
}
1000
PosInDDATTE
1070
     1
1070
    23
1002
{
1002
}
1000
FieldLen
1070
     1
1070
    -1
1002
{
1002
}
1002
}
1000
24
1070
     6
1002
{
1000
Prompt
1070
     4
1000
(genmsg gendwg 104)
1002
{
1002
}
1000
Value
1070
     4
1000

1002
{
1002
}
1000
EditFlag
1070
     1
1070
     1
1002
{
1002
}
1000
PosInDDATTE
1070
     1
1070
    24
1002
{
1002
}
1000
FieldLen
1070
     1
1070
    -1
1002
{
1002
}
1002
}
1000
25
1070
     6
1002
{
1000
Prompt
1070
     4
1000
(genmsg gendwg 105)
1002
{
1002
}
1000
Value
1070
     4
1000

1002
{
1002
}
1000
EditFlag
1070
     1
1070
     1
1002
{
1002
}
1000
PosInDDATTE
1070
     1
1070
    25
1002
{
1002
}
1000
FieldLen
1070
     1
1070
    -1
1002
{
1002
}
1002
}
1000
26
1070
     6
1002
{
1000
Prompt
1070
     4
1000
(genmsg gendwg 106)
1002
{
1002
}
1000
Value
1070
     4
1000

1002
{
1002
}
1000
EditFlag
1070
     1
1070
     1
1002
{
1002
}
1000
PosInDDATTE
1070
     1
1070
    26
1002
{
1002
}
1000
FieldLen
1070
     1
1070
    -1
1002
{
1002
}
1002
}
1000
27
1070
     6
1002
{
1000
Prompt
1070
     4
1000
(genmsg gendwg 109)
1002
{
1002
}
1000
Value
1070
     4
1000

1002
{
1002
}
1000
EditFlag
1070
     1
1070
     2
1002
{
1002
}
1000
PosInDDATTE
1070
     1
1070
    27
1002
{
1002
}
1000
FieldLen
1070
     1
1070
    -1
1002
{
1002
}
1002
}
1002
}
1000
Xlate
1070
     0
1002
{
1000
>
1002
}
  0
APPID
  5
13AF
330
136B
100
AcDbSymbolTableRecord
100
AcDbRegAppTableRecord
  2
GENIUS_GENCFG2_13
 70
     0
1001
GENIUS_GENCFG_13
1071
1020868306
1000
13AF
1000
GEN@LAYER@DEFS
1070
     9
1000
GenCfgObject
1000
GenCfgShort
1000
GenCfgReal
1000
GenCfgBool
1000
GenCfgString
1000
GenCfgDim
1000
GenCfgAttrInf
1000
GenCfgLaySection
1000
GenCfgLayer
1000
Basic
1070
     0
1002
{
1000
0
1070
     8
1000
0
1002
{
1000
Color
1070
     1
1070
     7
1002
{
1002
}
1000
LType
1070
     4
1000
CONTINUOUS
1002
{
1002
}
1000
Base
1070
     3
1070
     0
1002
{
1002
}
1002
}
1000
1
1070
     8
1000
1
1002
{
1000
Color
1070
     1
1070
    14
1002
{
1002
}
1000
LType
1070
     4
1000
CONTINUOUS
1002
{
1002
}
1000
Base
1070
     3
1070
     0
1002
{
1002
}
1002
}
1000
2
1070
     8
1000
2
1002
{
1000
Color
1070
     1
1070
     5
1002
{
1002
}
1000
LType
1070
     4
1000
CONTINUOUS
1002
{
1002
}
1000
Base
1070
     3
1070
     0
1002
{
1002
}
1002
}
1000
3
1070
     8
1000
3
1002
{
1000
Color
1070
     1
1070
     6
1002
{
1002
}
1000
LType
1070
     4
1000
GEN3
1002
{
1002
}
1000
Base
1070
     3
1070
     0
1002
{
1002
}
1002
}
1000
4
1070
     8
1000
4
1002
{
1000
Color
1070
     1
1070
     3
1002
{
1002
}
1000
LType
1070
     4
1000
CONTINUOUS
1002
{
1002
}
1000
Base
1070
     3
1070
     0
1002
{
1002
}
1002
}
1000
5
1070
     8
1000
5
1002
{
1000
Color
1070
     1
1070
     3
1002
{
1002
}
1000
LType
1070
     4
1000
CONTINUOUS
1002
{
1002
}
1000
Base
1070
     3
1070
     0
1002
{
1002
}
1002
}
1000
6
1070
     8
1000
6
1002
{
1000
Color
1070
     1
1070
     2
1002
{
1002
}
1000
LType
1070
     4
1000
CONTINUOUS
1002
{
1002
}
1000
Base
1070
     3
1070
     0
1002
{
1002
}
1002
}
1000
7
1070
     8
1000
7
1002
{
1000
Color
1070
     1
1070
     4
1002
{
1002
}
1000
LType
1070
     4
1000
GEN7
1002
{
1002
}
1000
Base
1070
     3
1070
     0
1002
{
1002
}
1002
}
1000
8
1070
     8
1000
8
1002
{
1000
Color
1070
     1
1070
     1
1002
{
1002
}
1000
LType
1070
     4
1000
CONTINUOUS
1002
{
1002
}
1000
Base
1070
     3
1070
     0
1002
{
1002
}
1002
}
1000
3A
1070
     8
1000
3A
1002
{
1000
Color
1070
     1
1070
     6
1002
{
1002
}
1000
LType
1070
     4
1000
GEN3A
1002
{
1002
}
1000
Base
1070
     3
1070
     0
1002
{
1002
}
1002
}
1000
7A
1070
     8
1000
7A
1002
{
1000
Color
1070
     1
1070
     4
1002
{
1002
}
1000
LType
1070
     4
1000
GEN7A
1002
{
1002
}
1000
Base
1070
     3
1070
     0
1002
{
1002
}
1002
}
1000
2A
1070
     8
1000
2A
1002
{
1000
Color
1070
     1
1070
     7
1002
{
1002
}
1000
LType
1070
     4
1000
GEN7
1002
{
1002
}
1000
Base
1070
     3
1070
     0
1002
{
1002
}
1002
}
1000
4A
1070
     8
1000
4A
1002
{
1000
Color
1070
     1
1070
     3
1002
{
1002
}
1000
LType
1070
     4
1000
GEN4A
1002
{
1002
}
1000
Base
1070
     3
1070
     0
1002
{
1002
}
1002
}
1000
9
1070
     8
1000
9
1002
{
1000
Color
1070
     1
1070
   253
1002
{
1002
}
1000
LType
1070
     4
1000
CONTINUOUS
1002
{
1002
}
1000
Base
1070
     3
1070
     0
1002
{
1002
}
1002
}
1000
IP
1070
     8
1000
IP
1002
{
1000
Color
1070
     1
1070
     7
1002
{
1002
}
1000
LType
1070
     4
1000
CONTINUOUS
1002
{
1002
}
1000
Base
1070
     3
1070
     0
1002
{
1002
}
1002
}
1002
}
1000
Standard
1070
     0
1002
{
1000
0N
1070
     8
1000
0N
1002
{
1000
Color
1070
     1
1070
     7
1002
{
1002
}
1000
LType
1070
     4
1000
CONTINUOUS
1002
{
1002
}
1000
Base
1070
     3
1070
     0
1002
{
1002
}
1002
}
1000
1N
1070
     8
1000
1N
1002
{
1000
Color
1070
     1
1070
    14
1002
{
1002
}
1000
LType
1070
     4
1000
CONTINUOUS
1002
{
1002
}
1000
Base
1070
     3
1070
     0
1002
{
1002
}
1002
}
1000
2N
1070
     8
1000
2N
1002
{
1000
Color
1070
     1
1070
     5
1002
{
1002
}
1000
LType
1070
     4
1000
CONTINUOUS
1002
{
1002
}
1000
Base
1070
     3
1070
     0
1002
{
1002
}
1002
}
1000
3N
1070
     8
1000
3N
1002
{
1000
Color
1070
     1
1070
     6
1002
{
1002
}
1000
LType
1070
     4
1000
GEN3
1002
{
1002
}
1000
Base
1070
     3
1070
     0
1002
{
1002
}
1002
}
1000
4N
1070
     8
1000
4N
1002
{
1000
Color
1070
     1
1070
     3
1002
{
1002
}
1000
LType
1070
     4
1000
CONTINUOUS
1002
{
1002
}
1000
Base
1070
     3
1070
     0
1002
{
1002
}
1002
}
1000
5N
1070
     8
1000
5N
1002
{
1000
Color
1070
     1
1070
     3
1002
{
1002
}
1000
LType
1070
     4
1000
CONTINUOUS
1002
{
1002
}
1000
Base
1070
     3
1070
     0
1002
{
1002
}
1002
}
1000
6N
1070
     8
1000
6N
1002
{
1000
Color
1070
     1
1070
     2
1002
{
1002
}
1000
LType
1070
     4
1000
CONTINUOUS
1002
{
1002
}
1000
Base
1070
     3
1070
     0
1002
{
1002
}
1002
}
1000
7N
1070
     8
1000
7N
1002
{
1000
Color
1070
     1
1070
     4
1002
{
1002
}
1000
LType
1070
     4
1000
GEN7
1002
{
1002
}
1000
Base
1070
     3
1070
     0
1002
{
1002
}
1002
}
1000
8N
1070
     8
1000
8N
1002
{
1000
Color
1070
     1
1070
     1
1002
{
1002
}
1000
LType
1070
     4
1000
CONTINUOUS
1002
{
1002
}
1000
Base
1070
     3
1070
     0
1002
{
1002
}
1002
}
1000
3AN
1070
     8
1000
3AN
1002
{
1000
Color
1070
     1
1070
     6
1002
{
1002
}
1000
LType
1070
     4
1000
GEN3A
1002
{
1002
}
1000
Base
1070
     3
1070
     0
1002
{
1002
}
1002
}
1000
7AN
1070
     8
1000
7AN
1002
{
1000
Color
1070
     1
1070
     4
1002
{
1002
}
1000
LType
1070
     4
1000
GEN7A
1002
{
1002
}
1000
Base
1070
     3
1070
     0
1002
{
1002
}
1002
}
1000
2AN
1070
     8
1000
2AN
1002
{
1000
Color
1070
     1
1070
     7
1002
{
1002
}
1000
LType
1070
     4
1000
GEN7
1002
{
1002
}
1000
Base
1070
     3
1070
     0
1002
{
1002
}
1002
}
1000
4AN
1070
     8
1000
4AN
1002
{
1000
Color
1070
     1
1070
     3
1002
{
1002
}
1000
LType
1070
     4
1000
GEN4A
1002
{
1002
}
1000
Base
1070
     3
1070
     0
1002
{
1002
}
1002
}
1000
9N
1070
     8
1000
9N
1002
{
1000
Color
1070
     1
1070
   253
1002
{
1002
}
1000
LType
1070
     4
1000
CONTINUOUS
1002
{
1002
}
1000
Base
1070
     3
1070
     0
1002
{
1002
}
1002
}
1000
IPN
1070
     8
1000
IPN
1002
{
1000
Color
1070
     1
1070
     7
1002
{
1002
}
1000
LType
1070
     4
1000
CONTINUOUS
1002
{
1002
}
1000
Base
1070
     3
1070
     0
1002
{
1002
}
1002
}
1002
}
1000
Extra
1070
     0
1002
{
1000
Klin
1070
     8
1000
KLIN
1002
{
1000
Color
1070
     1
1070
     1
1002
{
1002
}
1000
LType
1070
     4
1000
CONTINUOUS
1002
{
1002
}
1000
Base
1070
     3
1070
     1
1002
{
1002
}
1002
}
1000
Info
1070
     8
1000
INFO
1002
{
1000
Color
1070
     1
1070
     4
1002
{
1002
}
1000
LType
1070
     4
1000
CONTINUOUS
1002
{
1002
}
1000
Base
1070
     3
1070
     1
1002
{
1002
}
1002
}
1000
Rahm2
1070
     8
1000
RAHM2
1002
{
1000
Color
1070
     1
1070
     1
1002
{
1002
}
1000
LType
1070
     4
1000
CONTINUOUS
1002
{
1002
}
1000
Base
1070
     3
1070
     1
1002
{
1002
}
1002
}
1000
Rahm3
1070
     8
1000
RAHM3
1002
{
1000
Color
1070
     1
1070
     2
1002
{
1002
}
1000
LType
1070
     4
1000
CONTINUOUS
1002
{
1002
}
1000
Base
1070
     3
1070
     1
1002
{
1002
}
1002
}
1000
Rahm5
1070
     8
1000
RAHM5
1002
{
1000
Color
1070
     1
1070
     7
1002
{
1002
}
1000
LType
1070
     4
1000
CONTINUOUS
1002
{
1002
}
1000
Base
1070
     3
1070
     1
1002
{
1002
}
1002
}
1000
View
1070
     8
1000
VIEW
1002
{
1000
Color
1070
     1
1070
     1
1002
{
1002
}
1000
LType
1070
     4
1000
CONTINUOUS
1002
{
1002
}
1000
Base
1070
     3
1070
     1
1002
{
1002
}
1002
}
1000
Behind
1070
     8
1000
BEHIND
1002
{
1000
Color
1070
     1
1070
   253
1002
{
1002
}
1000
LType
1070
     4
1000
CONTINUOUS
1002
{
1002
}
1000
Base
1070
     3
1070
     1
1002
{
1002
}
1002
}
1002
}
  0
APPID
  5
13B0
330
136B
100
AcDbSymbolTableRecord
100
AcDbRegAppTableRecord
  2
GENIUS_GENCFG3_13
 70
     0
1001
GENIUS_GENCFG_13
1071
1020868306
1000
13B0
1000
GEN@LAYER@ENTSORT
1070
    10
1000
GenCfgObject
1000
GenCfgShort
1000
GenCfgReal
1000
GenCfgBool
1000
GenCfgString
1000
GenCfgDim
1000
GenCfgAttrInf
1000
GenCfgLaySection
1000
GenCfgLayer
1000
GenCfgEntSort
1000
ADDL
1070
     9
1000
5
1002
{
1000
Class
1070
     4
1000
SYM
1002
{
1002
}
1000
Color
1070
     1
1070
     1
1002
{
1002
}
1000
LType
1070
     4
1000
BYLAYER
1002
{
1002
}
1002
}
1000
ALTR
1070
     9
1000
4
1002
{
1000
Class
1070
     4
1000

1002
{
1002
}
1000
Color
1070
     1
1070
     7
1002
{
1002
}
1000
LType
1070
     4
1000
GEN3A
1002
{
1002
}
1002
}
1000
BELI
1070
     9
1000
4
1002
{
1000
Class
1070
     4
1000

1002
{
1002
}
1000
Color
1070
     1
1070
   256
1002
{
1002
}
1000
LType
1070
     4
1000
BYLAYER
1002
{
1002
}
1002
}
1000
BHNV
1070
     9
1000
9
1002
{
1000
Class
1070
     4
1000
INV
1002
{
1002
}
1000
Color
1070
     1
1070
   256
1002
{
1002
}
1000
LType
1070
     4
1000
BYLAYER
1002
{
1002
}
1002
}
1000
BHNVS
1070
     9
1000
BEHIND
1002
{
1000
Class
1070
     4
1000
INV
1002
{
1002
}
1000
Color
1070
     1
1070
   256
1002
{
1002
}
1000
LType
1070
     4
1000
BYLAYER
1002
{
1002
}
1002
}
1000
BLID
1070
     9
1000
4A
1002
{
1000
Class
1070
     4
1000

1002
{
1002
}
1000
Color
1070
     1
1070
   256
1002
{
1002
}
1000
LType
1070
     4
1000
BYLAYER
1002
{
1002
}
1002
}
1000
BOAP
1070
     9
1000
4A
1002
{
1000
Class
1070
     4
1000

1002
{
1002
}
1000
Color
1070
     1
1070
   256
1002
{
1002
}
1000
LType
1070
     4
1000
BYLAYER
1002
{
1002
}
1002
}
1000
BOR2
1070
     9
1000
RAHM2
1002
{
1000
Class
1070
     4
1000
SPZ,SYM
1002
{
1002
}
1000
Color
1070
     1
1070
   256
1002
{
1002
}
1000
LType
1070
     4
1000
BYLAYER
1002
{
1002
}
1002
}
1000
BOR3
1070
     9
1000
RAHM3
1002
{
1000
Class
1070
     4
1000
SPZ,SYM
1002
{
1002
}
1000
Color
1070
     1
1070
   256
1002
{
1002
}
1000
LType
1070
     4
1000
BYLAYER
1002
{
1002
}
1002
}
1000
BOR5
1070
     9
1000
RAHM5
1002
{
1000
Class
1070
     4
1000
SPZ,SYM
1002
{
1002
}
1000
Color
1070
     1
1070
   256
1002
{
1002
}
1000
LType
1070
     4
1000
BYLAYER
1002
{
1002
}
1002
}
1000
BOR7
1070
     9
1000
RAHM5
1002
{
1000
Class
1070
     4
1000
SPZ,SYM
1002
{
1002
}
1000
Color
1070
     1
1070
     7
1002
{
1002
}
1000
LType
1070
     4
1000
CONTINUOUS
1002
{
1002
}
1002
}
1000
BPAP
1070
     9
1000
4A
1002
{
1000
Class
1070
     4
1000

1002
{
1002
}
1000
Color
1070
     1
1070
   256
1002
{
1002
}
1000
LType
1070
     4
1000
BYLAYER
1002
{
1002
}
1002
}
1000
BPEX
1070
     9
1000
4A
1002
{
1000
Class
1070
     4
1000

1002
{
1002
}
1000
Color
1070
     1
1070
   256
1002
{
1002
}
1000
LType
1070
     4
1000
BYLAYER
1002
{
1002
}
1002
}
1000
BTDI
1070
     9
1000
5
1002
{
1000
Class
1070
     4
1000
DIM,SYM
1002
{
1002
}
1000
Color
1070
     1
1070
   256
1002
{
1002
}
1000
LType
1070
     4
1000
BYLAYER
1002
{
1002
}
1002
}
1000
CAL2
1070
     9
1000
4
1002
{
1000
Class
1070
     4
1000
SYM
1002
{
1002
}
1000
Color
1070
     1
1070
   256
1002
{
1002
}
1000
LType
1070
     4
1000
BYLAYER
1002
{
1002
}
1002
}
1000
CAL3
1070
     9
1000
4
1002
{
1000
Class
1070
     4
1000
SYM
1002
{
1002
}
1000
Color
1070
     1
1070
     2
1002
{
1002
}
1000
LType
1070
     4
1000
BYLAYER
1002
{
1002
}
1002
}
1000
CAL5
1070
     9
1000
4
1002
{
1000
Class
1070
     4
1000
SYM
1002
{
1002
}
1000
Color
1070
     1
1070
     7
1002
{
1002
}
1000
LType
1070
     4
1000
BYLAYER
1002
{
1002
}
1002
}
1000
CAL7
1070
     9
1000
4
1002
{
1000
Class
1070
     4
1000
SYM
1002
{
1002
}
1000
Color
1070
     1
1070
     5
1002
{
1002
}
1000
LType
1070
     4
1000
BYLAYER
1002
{
1002
}
1002
}
1000
CENN
1070
     9
1000
7A
1002
{
1000
Class
1070
     4
1000
CEN
1002
{
1002
}
1000
Color
1070
     1
1070
   256
1002
{
1002
}
1000
LType
1070
     4
1000
BYLAYER
1002
{
1002
}
1002
}
1000
CENW
1070
     9
1000
7
1002
{
1000
Class
1070
     4
1000
CEN
1002
{
1002
}
1000
Color
1070
     1
1070
   256
1002
{
1002
}
1000
LType
1070
     4
1000
BYLAYER
1002
{
1002
}
1002
}
1000
CLIN
1070
     9
1000
KLIN
1002
{
1000
Class
1070
     4
1000
SPZ
1002
{
1002
}
1000
Color
1070
     1
1070
   256
1002
{
1002
}
1000
LType
1070
     4
1000
BYLAYER
1002
{
1002
}
1002
}
1000
CON1
1070
     9
1000
0
1002
{
1000
Class
1070
     4
1000
CON,BGD
1002
{
1002
}
1000
Color
1070
     1
1070
   256
1002
{
1002
}
1000
LType
1070
     4
1000
BYLAYER
1002
{
1002
}
1002
}
1000
CON2
1070
     9
1000
1
1002
{
1000
Class
1070
     4
1000
CON,BGD
1002
{
1002
}
1000
Color
1070
     1
1070
   256
1002
{
1002
}
1000
LType
1070
     4
1000
BYLAYER
1002
{
1002
}
1002
}
1000
CON3
1070
     9
1000
2
1002
{
1000
Class
1070
     4
1000
CON,BGD
1002
{
1002
}
1000
Color
1070
     1
1070
   256
1002
{
1002
}
1000
LType
1070
     4
1000
BYLAYER
1002
{
1002
}
1002
}
1000
CON4
1070
     9
1000
2
1002
{
1000
Class
1070
     4
1000
CON,BGD
1002
{
1002
}
1000
Color
1070
     1
1070
   256
1002
{
1002
}
1000
LType
1070
     4
1000
BYLAYER
1002
{
1002
}
1002
}
1000
DERP
1070
     9
1000
4
1002
{
1000
Class
1070
     4
1000

1002
{
1002
}
1000
Color
1070
     1
1070
   256
1002
{
1002
}
1000
LType
1070
     4
1000
BYLAYER
1002
{
1002
}
1002
}
1000
DETA
1070
     9
1000
4
1002
{
1000
Class
1070
     4
1000

1002
{
1002
}
1000
Color
1070
     1
1070
   256
1002
{
1002
}
1000
LType
1070
     4
1000
BYLAYER
1002
{
1002
}
1002
}
1000
DIAG
1070
     9
1000
5
1002
{
1000
Class
1070
     4
1000
SYM
1002
{
1002
}
1000
Color
1070
     1
1070
   256
1002
{
1002
}
1000
LType
1070
     4
1000
BYLAYER
1002
{
1002
}
1002
}
1000
DILI
1070
     9
1000
5
1002
{
1000
Class
1070
     4
1000
DIM,SYM
1002
{
1002
}
1000
Color
1070
     1
1070
   256
1002
{
1002
}
1000
LType
1070
     4
1000
BYLAYER
1002
{
1002
}
1002
}
1000
DITO2
1070
     9
1000
5
1002
{
1000
Class
1070
     4
1000
DIM,SYM
1002
{
1002
}
1000
Color
1070
     1
1070
     3
1002
{
1002
}
1000
LType
1070
     4
1000
BYLAYER
1002
{
1002
}
1002
}
1000
DITO3
1070
     9
1000
5
1002
{
1000
Class
1070
     4
1000
DIM,SYM
1002
{
1002
}
1000
Color
1070
     1
1070
     2
1002
{
1002
}
1000
LType
1070
     4
1000
BYLAYER
1002
{
1002
}
1002
}
1000
DITX
1070
     9
1000
5
1002
{
1000
Class
1070
     4
1000
DIM,SYM
1002
{
1002
}
1000
Color
1070
     1
1070
     2
1002
{
1002
}
1000
LType
1070
     4
1000
CONTINUOUS
1002
{
1002
}
1002
}
1000
DIXL
1070
     9
1000
5
1002
{
1000
Class
1070
     4
1000
DIM,SYM
1002
{
1002
}
1000
Color
1070
     1
1070
   256
1002
{
1002
}
1000
LType
1070
     4
1000
BYLAYER
1002
{
1002
}
1002
}
1000
EXMP
1070
     9
1000
4A
1002
{
1000
Class
1070
     4
1000

1002
{
1002
}
1000
Color
1070
     1
1070
   256
1002
{
1002
}
1000
LType
1070
     4
1000
BYLAYER
1002
{
1002
}
1002
}
1000
FEMN
1070
     9
1000
8
1002
{
1000
Class
1070
     4
1000

1002
{
1002
}
1000
Color
1070
     1
1070
   256
1002
{
1002
}
1000
LType
1070
     4
1000
BYLAYER
1002
{
1002
}
1002
}
1000
FEMPN
1070
     9
1000
8
1002
{
1000
Class
1070
     4
1000
SYM
1002
{
1002
}
1000
Color
1070
     1
1070
     3
1002
{
1002
}
1000
LType
1070
     4
1000
BYLAYER
1002
{
1002
}
1002
}
1000
FEMSP
1070
     9
1000
4A
1002
{
1000
Class
1070
     4
1000

1002
{
1002
}
1000
Color
1070
     1
1070
   256
1002
{
1002
}
1000
LType
1070
     4
1000
CONTINUOUS
1002
{
1002
}
1002
}
1000
FEMST
1070
     9
1000
4A
1002
{
1000
Class
1070
     4
1000
SYM
1002
{
1002
}
1000
Color
1070
     1
1070
     3
1002
{
1002
}
1000
LType
1070
     4
1000
BYLAYER
1002
{
1002
}
1002
}
1000
FEMVN
1070
     9
1000
2
1002
{
1000
Class
1070
     4
1000
CON
1002
{
1002
}
1000
Color
1070
     1
1070
   256
1002
{
1002
}
1000
LType
1070
     4
1000
BYLAYER
1002
{
1002
}
1002
}
1000
FEMVT
1070
     9
1000
2
1002
{
1000
Class
1070
     4
1000
SYM
1002
{
1002
}
1000
Color
1070
     1
1070
     3
1002
{
1002
}
1000
LType
1070
     4
1000
BYLAYER
1002
{
1002
}
1002
}
1000
FLAT
1070
     9
1000
0
1002
{
1000
Class
1070
     4
1000

1002
{
1002
}
1000
Color
1070
     1
1070
   256
1002
{
1002
}
1000
LType
1070
     4
1000
BYLAYER
1002
{
1002
}
1002
}
1000
FRAR
1070
     9
1000
4A
1002
{
1000
Class
1070
     4
1000

1002
{
1002
}
1000
Color
1070
     1
1070
   256
1002
{
1002
}
1000
LType
1070
     4
1000
BYLAYER
1002
{
1002
}
1002
}
1000
GRLI
1070
     9
1000
5
1002
{
1000
Class
1070
     4
1000
SYM
1002
{
1002
}
1000
Color
1070
     1
1070
   256
1002
{
1002
}
1000
LType
1070
     4
1000
BYLAYER
1002
{
1002
}
1002
}
1000
GVLI
1070
     9
1000
4A
1002
{
1000
Class
1070
     4
1000

1002
{
1002
}
1000
Color
1070
     1
1070
   256
1002
{
1002
}
1000
LType
1070
     4
1000
BYLAYER
1002
{
1002
}
1002
}
1000
HATC
1070
     9
1000
8
1002
{
1000
Class
1070
     4
1000
HTC,BGD
1002
{
1002
}
1000
Color
1070
     1
1070
   256
1002
{
1002
}
1000
LType
1070
     4
1000
BYLAYER
1002
{
1002
}
1002
}
1000
HIDN
1070
     9
1000
3A
1002
{
1000
Class
1070
     4
1000
HID,BGD
1002
{
1002
}
1000
Color
1070
     1
1070
   256
1002
{
1002
}
1000
LType
1070
     4
1000
BYLAYER
1002
{
1002
}
1002
}
1000
HIDW
1070
     9
1000
3
1002
{
1000
Class
1070
     4
1000
HID,BGD
1002
{
1002
}
1000
Color
1070
     1
1070
   256
1002
{
1002
}
1000
LType
1070
     4
1000
BYLAYER
1002
{
1002
}
1002
}
1000
HLIN
1070
     9
1000
4
1002
{
1000
Class
1070
     4
1000
BGD
1002
{
1002
}
1000
Color
1070
     1
1070
   256
1002
{
1002
}
1000
LType
1070
     4
1000
BYLAYER
1002
{
1002
}
1002
}
1000
HOCN
1070
     9
1000
7A
1002
{
1000
Class
1070
     4
1000
CEN
1002
{
1002
}
1000
Color
1070
     1
1070
   256
1002
{
1002
}
1000
LType
1070
     4
1000
BYLAYER
1002
{
1002
}
1002
}
1000
HOCW
1070
     9
1000
7
1002
{
1000
Class
1070
     4
1000
CEN
1002
{
1002
}
1000
Color
1070
     1
1070
   256
1002
{
1002
}
1000
LType
1070
     4
1000
BYLAYER
1002
{
1002
}
1002
}
1000
INFO
1070
     9
1000
INFO
1002
{
1000
Class
1070
     4
1000
SPZ,SYM
1002
{
1002
}
1000
Color
1070
     1
1070
   256
1002
{
1002
}
1000
LType
1070
     4
1000
BYLAYER
1002
{
1002
}
1002
}
1000
LADI
1070
     9
1000
4
1002
{
1000
Class
1070
     4
1000
BGD
1002
{
1002
}
1000
Color
1070
     1
1070
   256
1002
{
1002
}
1000
LType
1070
     4
1000
BYLAYER
1002
{
1002
}
1002
}
1000
LEAD
1070
     9
1000
5
1002
{
1000
Class
1070
     4
1000
SYM
1002
{
1002
}
1000
Color
1070
     1
1070
   256
1002
{
1002
}
1000
LType
1070
     4
1000
BYLAYER
1002
{
1002
}
1002
}
1000
N_ADDL
1070
     9
1000
5N
1002
{
1000
Class
1070
     4
1000
SYM
1002
{
1002
}
1000
Color
1070
     1
1070
     1
1002
{
1002
}
1000
LType
1070
     4
1000
BYLAYER
1002
{
1002
}
1002
}
1000
N_BHNV
1070
     9
1000
9N
1002
{
1000
Class
1070
     4
1000
INV
1002
{
1002
}
1000
Color
1070
     1
1070
   256
1002
{
1002
}
1000
LType
1070
     4
1000
BYLAYER
1002
{
1002
}
1002
}
1000
N_CON1
1070
     9
1000
0N
1002
{
1000
Class
1070
     4
1000
CON,BGD
1002
{
1002
}
1000
Color
1070
     1
1070
   256
1002
{
1002
}
1000
LType
1070
     4
1000
BYLAYER
1002
{
1002
}
1002
}
1000
N_CON2
1070
     9
1000
1N
1002
{
1000
Class
1070
     4
1000
CON,BGD
1002
{
1002
}
1000
Color
1070
     1
1070
   256
1002
{
1002
}
1000
LType
1070
     4
1000
BYLAYER
1002
{
1002
}
1002
}
1000
N_CON3
1070
     9
1000
2N
1002
{
1000
Class
1070
     4
1000
CON,BGD
1002
{
1002
}
1000
Color
1070
     1
1070
   256
1002
{
1002
}
1000
LType
1070
     4
1000
BYLAYER
1002
{
1002
}
1002
}
1000
N_CON4
1070
     9
1000
2N
1002
{
1000
Class
1070
     4
1000
CON,BGD
1002
{
1002
}
1000
Color
1070
     1
1070
   256
1002
{
1002
}
1000
LType
1070
     4
1000
BYLAYER
1002
{
1002
}
1002
}
1000
N_CENN
1070
     9
1000
7AN
1002
{
1000
Class
1070
     4
1000
CEN
1002
{
1002
}
1000
Color
1070
     1
1070
   256
1002
{
1002
}
1000
LType
1070
     4
1000
BYLAYER
1002
{
1002
}
1002
}
1000
N_CENW
1070
     9
1000
7N
1002
{
1000
Class
1070
     4
1000
CEN
1002
{
1002
}
1000
Color
1070
     1
1070
   256
1002
{
1002
}
1000
LType
1070
     4
1000
BYLAYER
1002
{
1002
}
1002
}
1000
N_DILI
1070
     9
1000
5N
1002
{
1000
Class
1070
     4
1000
DIM,SYM
1002
{
1002
}
1000
Color
1070
     1
1070
   256
1002
{
1002
}
1000
LType
1070
     4
1000
BYLAYER
1002
{
1002
}
1002
}
1000
N_DITX
1070
     9
1000
5N
1002
{
1000
Class
1070
     4
1000
DIM,SYM
1002
{
1002
}
1000
Color
1070
     1
1070
     2
1002
{
1002
}
1000
LType
1070
     4
1000
CONTINUOUS
1002
{
1002
}
1002
}
1000
N_DIXL
1070
     9
1000
5N
1002
{
1000
Class
1070
     4
1000
DIM,SYM
1002
{
1002
}
1000
Color
1070
     1
1070
   256
1002
{
1002
}
1000
LType
1070
     4
1000
BYLAYER
1002
{
1002
}
1002
}
1000
N_HATC
1070
     9
1000
8N
1002
{
1000
Class
1070
     4
1000
HTC,BGD
1002
{
1002
}
1000
Color
1070
     1
1070
   256
1002
{
1002
}
1000
LType
1070
     4
1000
BYLAYER
1002
{
1002
}
1002
}
1000
N_HIDN
1070
     9
1000
3AN
1002
{
1000
Class
1070
     4
1000
HID,BGD
1002
{
1002
}
1000
Color
1070
     1
1070
   256
1002
{
1002
}
1000
LType
1070
     4
1000
BYLAYER
1002
{
1002
}
1002
}
1000
N_HIDW
1070
     9
1000
3N
1002
{
1000
Class
1070
     4
1000
HID,BGD
1002
{
1002
}
1000
Color
1070
     1
1070
   256
1002
{
1002
}
1000
LType
1070
     4
1000
BYLAYER
1002
{
1002
}
1002
}
1000
N_NGIP
1070
     9
1000
IPN
1002
{
1000
Class
1070
     4
1000

1002
{
1002
}
1000
Color
1070
     1
1070
   256
1002
{
1002
}
1000
LType
1070
     4
1000
BYLAYER
1002
{
1002
}
1002
}
1000
N_PHAN
1070
     9
1000
4AN
1002
{
1000
Class
1070
     4
1000

1002
{
1002
}
1000
Color
1070
     1
1070
   256
1002
{
1002
}
1000
LType
1070
     4
1000
BYLAYER
1002
{
1002
}
1002
}
1000
N_POSL
1070
     9
1000
5N
1002
{
1000
Class
1070
     4
1000
SYM
1002
{
1002
}
1000
Color
1070
     1
1070
   256
1002
{
1002
}
1000
LType
1070
     4
1000
BYLAYER
1002
{
1002
}
1002
}
1000
N_TCON
1070
     9
1000
0N
1002
{
1000
Class
1070
     4
1000
CON,BGD
1002
{
1002
}
1000
Color
1070
     1
1070
   256
1002
{
1002
}
1000
LType
1070
     4
1000
BYLAYER
1002
{
1002
}
1002
}
1000
N_THLI
1070
     9
1000
4N
1002
{
1000
Class
1070
     4
1000
BGD
1002
{
1002
}
1000
Color
1070
     1
1070
   256
1002
{
1002
}
1000
LType
1070
     4
1000
BYLAYER
1002
{
1002
}
1002
}
1000
N_TLEN
1070
     9
1000
0N
1002
{
1000
Class
1070
     4
1000
CON,BGD
1002
{
1002
}
1000
Color
1070
     1
1070
   256
1002
{
1002
}
1000
LType
1070
     4
1000
BYLAYER
1002
{
1002
}
1002
}
1000
N_TXT3
1070
     9
1000
6N
1002
{
1000
Class
1070
     4
1000
SYM
1002
{
1002
}
1000
Color
1070
     1
1070
   256
1002
{
1002
}
1000
LType
1070
     4
1000
BYLAYER
1002
{
1002
}
1002
}
1000
N_VPLI
1070
     9
1000
2AN
1002
{
1000
Class
1070
     4
1000

1002
{
1002
}
1000
Color
1070
     1
1070
   256
1002
{
1002
}
1000
LType
1070
     4
1000
BYLAYER
1002
{
1002
}
1002
}
1000
NGIP
1070
     9
1000
IP
1002
{
1000
Class
1070
     4
1000

1002
{
1002
}
1000
Color
1070
     1
1070
   256
1002
{
1002
}
1000
LType
1070
     4
1000
BYLAYER
1002
{
1002
}
1002
}
1000
PAL2
1070
     9
1000
RAHM2
1002
{
1000
Class
1070
     4
1000
SPZ,SYM
1002
{
1002
}
1000
Color
1070
     1
1070
   256
1002
{
1002
}
1000
LType
1070
     4
1000
BYLAYER
1002
{
1002
}
1002
}
1000
PAL3
1070
     9
1000
RAHM3
1002
{
1000
Class
1070
     4
1000
SPZ,SYM
1002
{
1002
}
1000
Color
1070
     1
1070
   256
1002
{
1002
}
1000
LType
1070
     4
1000
BYLAYER
1002
{
1002
}
1002
}
1000
PAL5
1070
     9
1000
RAHM5
1002
{
1000
Class
1070
     4
1000
SPZ,SYM
1002
{
1002
}
1000
Color
1070
     1
1070
   256
1002
{
1002
}
1000
LType
1070
     4
1000
BYLAYER
1002
{
1002
}
1002
}
1000
PAL7
1070
     9
1000
RAHM5
1002
{
1000
Class
1070
     4
1000
SPZ,SYM
1002
{
1002
}
1000
Color
1070
     1
1070
     7
1002
{
1002
}
1000
LType
1070
     4
1000
CONTINUOUS
1002
{
1002
}
1002
}
1000
PHAN
1070
     9
1000
4A
1002
{
1000
Class
1070
     4
1000

1002
{
1002
}
1000
Color
1070
     1
1070
   256
1002
{
1002
}
1000
LType
1070
     4
1000
BYLAYER
1002
{
1002
}
1002
}
1000
POSL
1070
     9
1000
5
1002
{
1000
Class
1070
     4
1000
SYM
1002
{
1002
}
1000
Color
1070
     1
1070
   256
1002
{
1002
}
1000
LType
1070
     4
1000
BYLAYER
1002
{
1002
}
1002
}
1000
POSN
1070
     9
1000
6
1002
{
1000
Class
1070
     4
1000
SYM
1002
{
1002
}
1000
Color
1070
     1
1070
     7
1002
{
1002
}
1000
LType
1070
     4
1000
BYLAYER
1002
{
1002
}
1002
}
1000
POSREF
1070
     9
1000
6
1002
{
1000
Class
1070
     4
1000
SYM
1002
{
1002
}
1000
Color
1070
     1
1070
     5
1002
{
1002
}
1000
LType
1070
     4
1000
BYLAYER
1002
{
1002
}
1002
}
1000
POSX
1070
     9
1000
5
1002
{
1000
Class
1070
     4
1000
SYM
1002
{
1002
}
1000
Color
1070
     1
1070
     2
1002
{
1002
}
1000
LType
1070
     4
1000
CONTINUOUS
1002
{
1002
}
1002
}
1000
PSEC
1070
     9
1000
4A
1002
{
1000
Class
1070
     4
1000

1002
{
1002
}
1000
Color
1070
     1
1070
   256
1002
{
1002
}
1000
LType
1070
     4
1000
BYLAYER
1002
{
1002
}
1002
}
1000
RCGN
1070
     9
1000
7A
1002
{
1000
Class
1070
     4
1000
CEN
1002
{
1002
}
1000
Color
1070
     1
1070
   256
1002
{
1002
}
1000
LType
1070
     4
1000
BYLAYER
1002
{
1002
}
1002
}
1000
RCGW
1070
     9
1000
7
1002
{
1000
Class
1070
     4
1000
CEN
1002
{
1002
}
1000
Color
1070
     1
1070
   256
1002
{
1002
}
1000
LType
1070
     4
1000
BYLAYER
1002
{
1002
}
1002
}
1000
RFDI
1070
     9
1000
4
1002
{
1000
Class
1070
     4
1000
BGD
1002
{
1002
}
1000
Color
1070
     1
1070
   256
1002
{
1002
}
1000
LType
1070
     4
1000
BYLAYER
1002
{
1002
}
1002
}
1000
RQTR
1070
     9
1000
4
1002
{
1000
Class
1070
     4
1000

1002
{
1002
}
1000
Color
1070
     1
1070
     7
1002
{
1002
}
1000
LType
1070
     4
1000
GEN7A
1002
{
1002
}
1002
}
1000
RSBO
1070
     9
1000
4
1002
{
1000
Class
1070
     4
1000
BGD
1002
{
1002
}
1000
Color
1070
     1
1070
   256
1002
{
1002
}
1000
LType
1070
     4
1000
BYLAYER
1002
{
1002
}
1002
}
1000
SBRK
1070
     9
1000
4
1002
{
1000
Class
1070
     4
1000
BGD
1002
{
1002
}
1000
Color
1070
     1
1070
   256
1002
{
1002
}
1000
LType
1070
     4
1000
BYLAYER
1002
{
1002
}
1002
}
1000
SCEN
1070
     9
1000
7
1002
{
1000
Class
1070
     4
1000

1002
{
1002
}
1000
Color
1070
     1
1070
   256
1002
{
1002
}
1000
LType
1070
     4
1000
CONTINUOUS
1002
{
1002
}
1002
}
1000
SECT
1070
     9
1000
4
1002
{
1000
Class
1070
     4
1000
BGD
1002
{
1002
}
1000
Color
1070
     1
1070
   256
1002
{
1002
}
1000
LType
1070
     4
1000
BYLAYER
1002
{
1002
}
1002
}
1000
SELN
1070
     9
1000
7A
1002
{
1000
Class
1070
     4
1000

1002
{
1002
}
1000
Color
1070
     1
1070
   256
1002
{
1002
}
1000
LType
1070
     4
1000
BYLAYER
1002
{
1002
}
1002
}
1000
SELW
1070
     9
1000
7
1002
{
1000
Class
1070
     4
1000

1002
{
1002
}
1000
Color
1070
     1
1070
   256
1002
{
1002
}
1000
LType
1070
     4
1000
BYLAYER
1002
{
1002
}
1002
}
1000
SSYS
1070
     9
1000
0
1002
{
1000
Class
1070
     4
1000

1002
{
1002
}
1000
Color
1070
     1
1070
   256
1002
{
1002
}
1000
LType
1070
     4
1000
BYLAYER
1002
{
1002
}
1002
}
1000
STLI
1070
     9
1000
4
1002
{
1000
Class
1070
     4
1000

1002
{
1002
}
1000
Color
1070
     1
1070
     7
1002
{
1002
}
1000
LType
1070
     4
1000
GEN3A
1002
{
1002
}
1002
}
1000
SYB1
1070
     9
1000
5
1002
{
1000
Class
1070
     4
1000
SYM
1002
{
1002
}
1000
Color
1070
     1
1070
   256
1002
{
1002
}
1000
LType
1070
     4
1000
BYLAYER
1002
{
1002
}
1002
}
1000
SYB2
1070
     9
1000
5
1002
{
1000
Class
1070
     4
1000
SYM
1002
{
1002
}
1000
Color
1070
     1
1070
   256
1002
{
1002
}
1000
LType
1070
     4
1000
BYLAYER
1002
{
1002
}
1002
}
1000
SYB3
1070
     9
1000
6
1002
{
1000
Class
1070
     4
1000
SYM
1002
{
1002
}
1000
Color
1070
     1
1070
   256
1002
{
1002
}
1000
LType
1070
     4
1000
CONTINUOUS
1002
{
1002
}
1002
}
1000
SYB5
1070
     9
1000
5
1002
{
1000
Class
1070
     4
1000
SYM
1002
{
1002
}
1000
Color
1070
     1
1070
     7
1002
{
1002
}
1000
LType
1070
     4
1000
BYLAYER
1002
{
1002
}
1002
}
1000
SYMN
1070
     9
1000
7A
1002
{
1000
Class
1070
     4
1000
CEN
1002
{
1002
}
1000
Color
1070
     1
1070
   256
1002
{
1002
}
1000
LType
1070
     4
1000
BYLAYER
1002
{
1002
}
1002
}
1000
SYMW
1070
     9
1000
7
1002
{
1000
Class
1070
     4
1000
CEN
1002
{
1002
}
1000
Color
1070
     1
1070
   256
1002
{
1002
}
1000
LType
1070
     4
1000
BYLAYER
1002
{
1002
}
1002
}
1000
TCON
1070
     9
1000
0
1002
{
1000
Class
1070
     4
1000
CON,BGD
1002
{
1002
}
1000
Color
1070
     1
1070
   256
1002
{
1002
}
1000
LType
1070
     4
1000
BYLAYER
1002
{
1002
}
1002
}
1000
THLI
1070
     9
1000
4
1002
{
1000
Class
1070
     4
1000
BGD
1002
{
1002
}
1000
Color
1070
     1
1070
   256
1002
{
1002
}
1000
LType
1070
     4
1000
BYLAYER
1002
{
1002
}
1002
}
1000
TIT2
1070
     9
1000
RAHM2
1002
{
1000
Class
1070
     4
1000
SPZ,SYM
1002
{
1002
}
1000
Color
1070
     1
1070
   256
1002
{
1002
}
1000
LType
1070
     4
1000
BYLAYER
1002
{
1002
}
1002
}
1000
TIT3
1070
     9
1000
RAHM3
1002
{
1000
Class
1070
     4
1000
SPZ,SYM
1002
{
1002
}
1000
Color
1070
     1
1070
   256
1002
{
1002
}
1000
LType
1070
     4
1000
BYLAYER
1002
{
1002
}
1002
}
1000
TIT5
1070
     9
1000
RAHM5
1002
{
1000
Class
1070
     4
1000
SPZ,SYM
1002
{
1002
}
1000
Color
1070
     1
1070
   256
1002
{
1002
}
1000
LType
1070
     4
1000
BYLAYER
1002
{
1002
}
1002
}
1000
TIT7
1070
     9
1000
RAHM5
1002
{
1000
Class
1070
     4
1000
SPZ,SYM
1002
{
1002
}
1000
Color
1070
     1
1070
     7
1002
{
1002
}
1000
LType
1070
     4
1000
CONTINUOUS
1002
{
1002
}
1002
}
1000
TLEN
1070
     9
1000
0
1002
{
1000
Class
1070
     4
1000
CON,BGD
1002
{
1002
}
1000
Color
1070
     1
1070
   256
1002
{
1002
}
1000
LType
1070
     4
1000
BYLAYER
1002
{
1002
}
1002
}
1000
TRKN
1070
     9
1000
7A
1002
{
1000
Class
1070
     4
1000

1002
{
1002
}
1000
Color
1070
     1
1070
   256
1002
{
1002
}
1000
LType
1070
     4
1000
BYLAYER
1002
{
1002
}
1002
}
1000
TRKW
1070
     9
1000
7
1002
{
1000
Class
1070
     4
1000

1002
{
1002
}
1000
Color
1070
     1
1070
   256
1002
{
1002
}
1000
LType
1070
     4
1000
BYLAYER
1002
{
1002
}
1002
}
1000
TRLI
1070
     9
1000
4
1002
{
1000
Class
1070
     4
1000
BGD
1002
{
1002
}
1000
Color
1070
     1
1070
   256
1002
{
1002
}
1000
LType
1070
     4
1000
BYLAYER
1002
{
1002
}
1002
}
1000
TXT1
1070
     9
1000
6
1002
{
1000
Class
1070
     4
1000
SYM
1002
{
1002
}
1000
Color
1070
     1
1070
     2
1002
{
1002
}
1000
LType
1070
     4
1000
BYLAYER
1002
{
1002
}
1002
}
1000
TXT2
1070
     9
1000
6
1002
{
1000
Class
1070
     4
1000
SYM
1002
{
1002
}
1000
Color
1070
     1
1070
     2
1002
{
1002
}
1000
LType
1070
     4
1000
BYLAYER
1002
{
1002
}
1002
}
1000
TXT3
1070
     9
1000
6
1002
{
1000
Class
1070
     4
1000
SYM
1002
{
1002
}
1000
Color
1070
     1
1070
   256
1002
{
1002
}
1000
LType
1070
     4
1000
BYLAYER
1002
{
1002
}
1002
}
1000
TXT5
1070
     9
1000
6
1002
{
1000
Class
1070
     4
1000
SYM
1002
{
1002
}
1000
Color
1070
     1
1070
     7
1002
{
1002
}
1000
LType
1070
     4
1000
BYLAYER
1002
{
1002
}
1002
}
1000
TXT7
1070
     9
1000
6
1002
{
1000
Class
1070
     4
1000
SYM
1002
{
1002
}
1000
Color
1070
     1
1070
     7
1002
{
1002
}
1000
LType
1070
     4
1000
BYLAYER
1002
{
1002
}
1002
}
1000
VIEW
1070
     9
1000
VIEW
1002
{
1000
Class
1070
     4
1000
SPZ
1002
{
1002
}
1000
Color
1070
     1
1070
   256
1002
{
1002
}
1000
LType
1070
     4
1000
BYLAYER
1002
{
1002
}
1002
}
1000
VPLI
1070
     9
1000
2A
1002
{
1000
Class
1070
     4
1000

1002
{
1002
}
1000
Color
1070
     1
1070
   256
1002
{
1002
}
1000
LType
1070
     4
1000
BYLAYER
1002
{
1002
}
1002
}
1000
ZIZA
1070
     9
1000
4
1002
{
1000
Class
1070
     4
1000
BGD
1002
{
1002
}
1000
Color
1070
     1
1070
   256
1002
{
1002
}
1000
LType
1070
     4
1000
GENZIGZAG
1002
{
1002
}
1002
}
  0
APPID
  5
13B1
330
136B
100
AcDbSymbolTableRecord
100
AcDbRegAppTableRecord
  2
GENIUS_GENCFG4_13
 70
     0
1001
GENIUS_GENCFG_13
1071
1020868338
1000
13B1
1000
GEN
1070
     9
1000
GenCfgObject
1000
GenCfgShort
1000
GenCfgReal
1000
GenCfgBool
1000
GenCfgString
1000
GenCfgDim
1000
GenCfgLaySection
1000
GenCfgLType
1000
GenCfgFilter
1000
Balloon
1070
     0
1002
{
1000
GenIF
1070
     1
1070
     0
1002
{
1002
}
1000
GenPosInc
1070
     1
1070
     1
1002
{
1002
}
1000
GenPosBlk
1070
     1
1070
     8
1002
{
1002
}
1000
GenPosVar
1070
     1
1070
     0
1002
{
1002
}
1000
GenZiCir
1070
     2
1040
1.5
1002
{
1002
}
1000
MaxCharForCenteredText
1070
     1
1070
    30
1002
{
1002
}
1000
Snap
1070
     0
1002
{
1000
ActivationRadius
1070
     2
1040
1.0
1002
{
1002
}
1000
M
1070
     0
1002
{
1000
SnapStepX
1070
     2
1040
20.0
1002
{
1002
}
1000
SnapStepY
1070
     2
1040
10.0
1002
{
1002
}
1002
}
1000
I
1070
     0
1002
{
1000
SnapStepX
1070
     2
1040
1.0
1002
{
1002
}
1000
SnapStepY
1070
     2
1040
0.5
1002
{
1002
}
1002
}
1002
}
1002
}
1000
Centerline
1070
     0
1002
{
1000
ScaleNot
1070
     3
1070
     0
1002
{
1002
}
1000
M
1070
     0
1002
{
1000
GenCenAng
1070
     4
1000
45|90|135
1002
{
1002
}
1000
GenCenDia
1070
     2
1040
10.0
1002
{
1002
}
1000
GenCenDias
1070
     4
1000
10|20|30
1002
{
1002
}
1000
GenCenDist
1070
     2
1040
3.0
1002
{
1002
}
1000
GenCenLen
1070
     2
1040
10.0
1002
{
1002
}
1000
GenCenOff
1070
     2
1040
10.0
1002
{
1002
}
1002
}
1000
I
1070
     0
1002
{
1000
GenCenAng
1070
     4
1000
45|90|135
1002
{
1002
}
1000
GenCenDia
1070
     2
1040
0.5
1002
{
1002
}
1000
GenCenDias
1070
     4
1000
0.5|1.0|1.5
1002
{
1002
}
1000
GenCenDist
1070
     2
1040
0.125
1002
{
1002
}
1000
GenCenLen
1070
     2
1040
0.5
1002
{
1002
}
1000
GenCenOff
1070
     2
1040
0.5
1002
{
1002
}
1002
}
1002
}
1000
CLine
1070
     0
1002
{
1000
CAngArray
1070
     4
1000
30|45|60
1002
{
1002
}
1000
Typ
1070
     4
1000
XLINE
1002
{
1002
}
1000
M
1070
     0
1002
{
1000
CLinArray
1070
     4
1000
10|20|30
1002
{
1002
}
1002
}
1000
I
1070
     0
1002
{
1000
CLinArray
1070
     4
1000
0.125|0.25|0.5
1002
{
1002
}
1002
}
1002
}
1000
Detail
1070
     0
1002
{
1002
}
1000
Dimension
1070
     5
1002
{
1000
DIMALT
1070
     1
1070
     0
1002
{
1002
}
1000
DIMALTD
1070
     1
1070
     2
1002
{
1002
}
1000
DIMALTTD
1070
     1
1070
     4
1002
{
1002
}
1000
DIMALTTZ
1070
     1
1070
     0
1002
{
1002
}
1000
DIMALTU
1070
     1
1070
     2
1002
{
1002
}
1000
DIMALTZ
1070
     1
1070
     0
1002
{
1002
}
1000
DIMAUNIT
1070
     1
1070
     0
1002
{
1002
}
1000
DIMBLK
1070
     4
1000

1002
{
1002
}
1000
DIMBLK1
1070
     4
1000

1002
{
1002
}
1000
DIMBLK2
1070
     4
1000

1002
{
1002
}
1000
DIMCLRD
1070
     1
1070
   256
1002
{
1002
}
1000
DIMCLRE
1070
     1
1070
   256
1002
{
1002
}
1000
DIMCLRT
1070
     1
1070
     2
1002
{
1002
}
1000
DIMDLE
1070
     2
1040
0.0
1002
{
1002
}
1000
DIMFIT
1070
     1
1070
     3
1002
{
1002
}
1000
DIMJUST
1070
     1
1070
     0
1002
{
1002
}
1000
DIMLFAC
1070
     2
1040
1.0
1002
{
1002
}
1000
DIMLIM
1070
     1
1070
     0
1002
{
1002
}
1000
DIMPOST
1070
     4
1000

1002
{
1002
}
1000
DIMRND
1070
     2
1040
0.0
1002
{
1002
}
1000
DIMSAH
1070
     1
1070
     0
1002
{
1002
}
1000
DIMSCALE
1070
     2
1040
1.0
1002
{
1002
}
1000
DIMSD1
1070
     1
1070
     0
1002
{
1002
}
1000
DIMSD2
1070
     1
1070
     0
1002
{
1002
}
1000
DIMSE1
1070
     1
1070
     0
1002
{
1002
}
1000
DIMSE2
1070
     1
1070
     0
1002
{
1002
}
1000
DIMSOXD
1070
     1
1070
     0
1002
{
1002
}
1000
DIMTAD
1070
     1
1070
     0
1002
{
1002
}
1000
DIMTFAC
1070
     2
1040
0.71
1002
{
1002
}
1000
DIMTIH
1070
     1
1070
     0
1002
{
1002
}
1000
DIMTIX
1070
     1
1070
     0
1002
{
1002
}
1000
DIMTM
1070
     2
1040
0.1
1002
{
1002
}
1000
DIMTOFL
1070
     1
1070
     0
1002
{
1002
}
1000
DIMTOH
1070
     1
1070
     0
1002
{
1002
}
1000
DIMTOL
1070
     1
1070
     0
1002
{
1002
}
1000
DIMTOLJ
1070
     1
1070
     1
1002
{
1002
}
1000
DIMTP
1070
     2
1040
0.1
1002
{
1002
}
1000
DIMTSZ
1070
     2
1040
0.0
1002
{
1002
}
1000
DIMTVP
1070
     2
1040
0.0
1002
{
1002
}
1000
DIMTXSTY
1070
     4
1000
STANDARD
1002
{
1002
}
1000
DIMTZIN
1070
     1
1070
     0
1002
{
1002
}
1000
DIMUNIT
1070
     1
1070
     2
1002
{
1002
}
1000
DIMUPT
1070
     1
1070
     0
1002
{
1002
}
1000
M
1070
     0
1002
{
1000
DIMALTF
1070
     2
1040
0.03937
1002
{
1002
}
1000
DIMAPOST
1070
     4
1000
"
1002
{
1002
}
1000
DIMASZ
1070
     2
1040
2.5
1002
{
1002
}
1000
DIMCEN
1070
     2
1040
0.0
1002
{
1002
}
1000
DIMDEC
1070
     1
1070
     2
1002
{
1002
}
1000
DIMDLI
1070
     2
1040
7.0
1002
{
1002
}
1000
DIMEXE
1070
     2
1040
1.0
1002
{
1002
}
1000
DIMEXO
1070
     2
1040
1.0
1002
{
1002
}
1000
DIMGAP
1070
     2
1040
0.6
1002
{
1002
}
1000
DIMTDEC
1070
     1
1070
     3
1002
{
1002
}
1000
DIMTXT
1070
     2
1040
3.5
1002
{
1002
}
1000
DIMZIN
1070
     1
1070
     8
1002
{
1002
}
1002
}
1000
I
1070
     0
1002
{
1000
DIMALTF
1070
     2
1040
25.4
1002
{
1002
}
1000
DIMAPOST
1070
     4
1000
mm
1002
{
1002
}
1000
DIMASZ
1070
     2
1040
0.1
1002
{
1002
}
1000
DIMCEN
1070
     2
1040
0.0
1002
{
1002
}
1000
DIMDEC
1070
     1
1070
     4
1002
{
1002
}
1000
DIMDLI
1070
     2
1040
0.5
1002
{
1002
}
1000
DIMEXE
1070
     2
1040
0.1
1002
{
1002
}
1000
DIMEXO
1070
     2
1040
0.05
1002
{
1002
}
1000
DIMGAP
1070
     2
1040
0.06
1002
{
1002
}
1000
DIMTDEC
1070
     1
1070
     4
1002
{
1002
}
1000
DIMTXT
1070
     2
1040
0.12
1002
{
1002
}
1000
DIMZIN
1070
     1
1070
     7
1002
{
1002
}
1002
}
1000
GEN-ISO
1070
     5
1002
{
1000
NAME
1070
     4
1000
GEN-ISO
1002
{
1002
}
1000
DIMTAD
1070
     1
1070
     1
1002
{
1002
}
1000
DIMTOLJ
1070
     1
1070
     0
1002
{
1002
}
1000
DIMTOFL
1070
     1
1070
     1
1002
{
1002
}
1000
M
1070
     0
1002
{
1002
}
1000
I
1070
     0
1002
{
1002
}
1002
}
1000
GEN-ISO-POS
1070
     5
1002
{
1000
NAME
1070
     4
1000
GEN-ISO-POS
1002
{
1002
}
1000
DIMTOLJ
1070
     1
1070
     0
1002
{
1002
}
1000
DIMTXSTY
1070
     4
1000
STANDARD
1002
{
1002
}
1000
M
1070
     0
1002
{
1000
DIMASZ
1070
     2
1040
2.5
1002
{
1002
}
1000
DIMGAP
1070
     2
1040
1.5
1002
{
1002
}
1000
DIMTXT
1070
     2
1040
5.0
1002
{
1002
}
1002
}
1000
I
1070
     0
1002
{
1000
DIMASZ
1070
     2
1040
0.1
1002
{
1002
}
1000
DIMGAP
1070
     2
1040
0.06
1002
{
1002
}
1000
DIMTXT
1070
     2
1040
0.2
1002
{
1002
}
1002
}
1002
}
1000
GEN-ISO-CIR
1070
     5
1002
{
1000
NAME
1070
     4
1000
GEN-ISO$3
1002
{
1002
}
1000
DIMFIT
1070
     1
1070
     0
1002
{
1002
}
1000
DIMTAD
1070
     1
1070
     1
1002
{
1002
}
1000
DIMTOH
1070
     1
1070
     1
1002
{
1002
}
1000
DIMTOLJ
1070
     1
1070
     0
1002
{
1002
}
1000
DIMUPT
1070
     1
1070
     1
1002
{
1002
}
1000
M
1070
     0
1002
{
1002
}
1000
I
1070
     0
1002
{
1002
}
1002
}
1000
GEN-ISO-RAD
1070
     5
1002
{
1000
NAME
1070
     4
1000
GEN-ISO$4
1002
{
1002
}
1000
DIMFIT
1070
     1
1070
     0
1002
{
1002
}
1000
DIMTAD
1070
     1
1070
     1
1002
{
1002
}
1000
DIMTIH
1070
     1
1070
     0
1002
{
1002
}
1000
DIMTIX
1070
     1
1070
     0
1002
{
1002
}
1000
DIMTOH
1070
     1
1070
     1
1002
{
1002
}
1000
DIMTOLJ
1070
     1
1070
     0
1002
{
1002
}
1000
DIMTOFL
1070
     1
1070
     0
1002
{
1002
}
1000
DIMUPT
1070
     1
1070
     1
1002
{
1002
}
1000
M
1070
     0
1002
{
1002
}
1000
I
1070
     0
1002
{
1002
}
1002
}
1000
GEN-ISO-ORD
1070
     5
1002
{
1000
NAME
1070
     4
1000
GEN-ISO$6
1002
{
1002
}
1000
DIMTOLJ
1070
     1
1070
     0
1002
{
1002
}
1000
M
1070
     0
1002
{
1002
}
1000
I
1070
     0
1002
{
1002
}
1002
}
1000
GEN-ISO-AXE-F
1070
     5
1002
{
1000
NAME
1070
     4
1000
GEN-ISO-AXE-F
1002
{
1002
}
1000
DIMSE1
1070
     1
1070
     1
1002
{
1002
}
1000
DIMSE2
1070
     1
1070
     1
1002
{
1002
}
1000
DIMTAD
1070
     1
1070
     1
1002
{
1002
}
1000
DIMTOLJ
1070
     1
1070
     0
1002
{
1002
}
1000
DIMTOFL
1070
     1
1070
     1
1002
{
1002
}
1000
M
1070
     0
1002
{
1002
}
1000
I
1070
     0
1002
{
1002
}
1002
}
1000
GEN-ISO-AXE-H
1070
     5
1002
{
1000
NAME
1070
     4
1000
GEN-ISO-AXE-H
1002
{
1002
}
1000
DIMBLK1
1070
     4
1000
GENAXEH
1002
{
1002
}
1000
DIMLFAC
1070
     2
1040
2.0
1002
{
1002
}
1000
DIMSAH
1070
     1
1070
     1
1002
{
1002
}
1000
DIMSE1
1070
     1
1070
     1
1002
{
1002
}
1000
DIMSE2
1070
     1
1070
     1
1002
{
1002
}
1000
DIMTAD
1070
     1
1070
     1
1002
{
1002
}
1000
DIMTOLJ
1070
     1
1070
     0
1002
{
1002
}
1000
DIMTOFL
1070
     1
1070
     1
1002
{
1002
}
1000
M
1070
     0
1002
{
1002
}
1000
I
1070
     0
1002
{
1002
}
1002
}
1000
GEN-ANSI
1070
     5
1002
{
1000
NAME
1070
     4
1000
GEN-ANSI
1002
{
1002
}
1000
DIMTIH
1070
     1
1070
     1
1002
{
1002
}
1000
DIMTOH
1070
     1
1070
     1
1002
{
1002
}
1000
DIMTAD
1070
     1
1070
     0
1002
{
1002
}
1000
DIMTOLJ
1070
     1
1070
     1
1002
{
1002
}
1000
M
1070
     0
1002
{
1002
}
1000
I
1070
     0
1002
{
1002
}
1002
}
1000
GEN-ANSI-POS
1070
     5
1002
{
1000
NAME
1070
     4
1000
GEN-ANSI-POS
1002
{
1002
}
1000
DIMTOLJ
1070
     1
1070
     1
1002
{
1002
}
1000
DIMTXSTY
1070
     4
1000
STANDARD
1002
{
1002
}
1000
M
1070
     0
1002
{
1000
DIMASZ
1070
     2
1040
2.5
1002
{
1002
}
1000
DIMGAP
1070
     2
1040
1.5
1002
{
1002
}
1000
DIMTXT
1070
     2
1040
5.0
1002
{
1002
}
1002
}
1000
I
1070
     0
1002
{
1000
DIMASZ
1070
     2
1040
0.1
1002
{
1002
}
1000
DIMGAP
1070
     2
1040
0.06
1002
{
1002
}
1000
DIMTXT
1070
     2
1040
0.2
1002
{
1002
}
1002
}
1002
}
1000
GEN-ANSI-CIR
1070
     5
1002
{
1000
NAME
1070
     4
1000
GEN-ANSI$3
1002
{
1002
}
1000
DIMFIT
1070
     1
1070
     0
1002
{
1002
}
1000
DIMTAD
1070
     1
1070
     0
1002
{
1002
}
1000
DIMTIH
1070
     1
1070
     1
1002
{
1002
}
1000
DIMTIX
1070
     1
1070
     0
1002
{
1002
}
1000
DIMTOFL
1070
     1
1070
     0
1002
{
1002
}
1000
DIMTOH
1070
     1
1070
     1
1002
{
1002
}
1000
DIMTOLJ
1070
     1
1070
     1
1002
{
1002
}
1000
DIMUPT
1070
     1
1070
     1
1002
{
1002
}
1000
M
1070
     0
1002
{
1002
}
1000
I
1070
     0
1002
{
1002
}
1002
}
1000
GEN-ANSI-RAD
1070
     5
1002
{
1000
NAME
1070
     4
1000
GEN-ANSI$4
1002
{
1002
}
1000
DIMFIT
1070
     1
1070
     0
1002
{
1002
}
1000
DIMTAD
1070
     1
1070
     0
1002
{
1002
}
1000
DIMTIH
1070
     1
1070
     1
1002
{
1002
}
1000
DIMTIX
1070
     1
1070
     0
1002
{
1002
}
1000
DIMTOFL
1070
     1
1070
     0
1002
{
1002
}
1000
DIMTOH
1070
     1
1070
     1
1002
{
1002
}
1000
DIMTOLJ
1070
     1
1070
     1
1002
{
1002
}
1000
DIMUPT
1070
     1
1070
     1
1002
{
1002
}
1000
M
1070
     0
1002
{
1002
}
1000
I
1070
     0
1002
{
1002
}
1002
}
1000
GEN-ANSI-ORD
1070
     5
1002
{
1000
NAME
1070
     4
1000
GEN-ANSI$6
1002
{
1002
}
1000
DIMTAD
1070
     1
1070
     0
1002
{
1002
}
1000
DIMTIH
1070
     1
1070
     1
1002
{
1002
}
1000
DIMTOH
1070
     1
1070
     1
1002
{
1002
}
1000
DIMTOLJ
1070
     1
1070
     1
1002
{
1002
}
1000
M
1070
     0
1002
{
1002
}
1000
I
1070
     0
1002
{
1002
}
1002
}
1000
GEN-ANSI-AXE-F
1070
     5
1002
{
1000
NAME
1070
     4
1000
GEN-ANSI-AXE-F
1002
{
1002
}
1000
DIMBLK1
1070
     4
1000
GENAXEH
1002
{
1002
}
1000
DIMSAH
1070
     1
1070
     1
1002
{
1002
}
1000
DIMSE1
1070
     1
1070
     1
1002
{
1002
}
1000
DIMSE2
1070
     1
1070
     1
1002
{
1002
}
1000
DIMTAD
1070
     1
1070
     0
1002
{
1002
}
1000
DIMTIH
1070
     1
1070
     1
1002
{
1002
}
1000
DIMTOH
1070
     1
1070
     1
1002
{
1002
}
1000
DIMTOLJ
1070
     1
1070
     1
1002
{
1002
}
1000
M
1070
     0
1002
{
1002
}
1000
I
1070
     0
1002
{
1002
}
1002
}
1000
GEN-ANSI-AXE-H
1070
     5
1002
{
1000
NAME
1070
     4
1000
GEN-ANSI-AXE-H
1002
{
1002
}
1000
DIMBLK1
1070
     4
1000
GENAXEH
1002
{
1002
}
1000
DIMLFAC
1070
     2
1040
2.0
1002
{
1002
}
1000
DIMSAH
1070
     1
1070
     1
1002
{
1002
}
1000
DIMSE1
1070
     1
1070
     1
1002
{
1002
}
1000
DIMSE2
1070
     1
1070
     1
1002
{
1002
}
1000
DIMTAD
1070
     1
1070
     0
1002
{
1002
}
1000
DIMTOFL
1070
     1
1070
     1
1002
{
1002
}
1000
DIMTOLJ
1070
     1
1070
     1
1002
{
1002
}
1000
M
1070
     0
1002
{
1002
}
1000
I
1070
     0
1002
{
1002
}
1002
}
1002
}
1000
DimSet
1070
     0
1002
{
1000
ChainSum
1070
     3
1070
     0
1002
{
1002
}
1000
DimDclTyp0
1070
     4
1000
dim23
1002
{
1002
}
1000
HorBra
1070
     3
1070
     0
1002
{
1002
}
1000
StrDia
1070
     4
1000
%%c<>
1002
{
1002
}
1000
StrRad
1070
     4
1000
R<>
1002
{
1002
}
1000
TextMinus
1070
     4
1000
<>
1002
{
1002
}
1000
TextPlus
1070
     4
1000
<>
1002
{
1002
}
1000
M
1070
     0
1002
{
1000
DimdliFirst
1070
     2
1040
10.0
1002
{
1002
}
1000
PointMakeDist
1070
     2
1040
10.0
1002
{
1002
}
1002
}
1000
I
1070
     0
1002
{
1000
DimdliFirst
1070
     2
1040
0.5
1002
{
1002
}
1000
PointMakeDist
1070
     2
1040
0.5
1002
{
1002
}
1002
}
1000
FitGrade
1070
     4
1000
h7
1002
{
1002
}
1002
}
1000
Drawing
1070
     0
1002
{
1000
ChamferDimMode
1070
     1
1070
     2
1002
{
1002
}
1000
Gen_Fiso
1070
    -3
1040
1.0
1002
{
1002
}
1000
GenDimStil
1070
     4
1000
ISO
1002
{
1002
}
1000
GenDwgUScale
1070
     2
1040
1.0
1002
{
1002
}
1000
GenInch
1070
     4
1000
M
1002
{
1002
}
1000
GenPlotScale
1070
     4
1000
1:5
1002
{
1002
}
1000
Revisi
1070
     4
1000
0
1002
{
1002
}
1000
Version
1070
    -5
1000
14.01/Apr  1 1998
1002
{
1002
}
1000
Platform
1070
    -5
1000
WINNT
1002
{
1002
}
1002
}
1000
DwgVar
1070
     0
1002
{
1000
M
1070
     0
1002
{
1002
}
1000
I
1070
     0
1002
{
1002
}
1002
}
1000
Hatch
1070
     0
1002
{
1000
GenHtcFlag
1070
     3
1070
     0
1002
{
1002
}
1002
}
1000
Info_Pos
1070
     0
1002
{
1000
>
1002
}
1000
Layer
1070
     6
1002
{
1000
Defs
1070
     0
1002
{
1000
>
1002
}
1000
EntSort
1070
     0
1002
{
1000
>
1002
}
1000
Match
1070
     0
1002
{
1002
}
1000
Settings
1070
     0
1002
{
1000
FocGrNC
1070
     3
1070
     0
1002
{
1002
}
1000
FocGrLo
1070
     3
1070
     0
1002
{
1002
}
1000
FocLoNC
1070
     3
1070
     0
1002
{
1002
}
1000
FocusCol
1070
     1
1070
   253
1002
{
1002
}
1000
GenStdLG
1070
     4
1000

1002
{
1002
}
1000
LayMatch
1070
     3
1070
     0
1002
{
1002
}
1000
LgOff
1070
     3
1070
     0
1002
{
1002
}
1000
CurLG
1070
    -5
1000

1002
{
1002
}
1002
}
1002
}
1000
LType
1070
     0
1002
{
1000
GEN3
1070
     7
1000
genius.lin
1002
{
1002
}
1000
GEN7
1070
     7
1000
genius.lin
1002
{
1002
}
1000
GEN4A
1070
     7
1000
genius.lin
1002
{
1002
}
1000
GEN3A
1070
     7
1000
genius.lin
1002
{
1002
}
1000
GEN7A
1070
     7
1000
genius.lin
1002
{
1002
}
1000
GENZIGZAG
1070
     7
1000
genius.lin
1002
{
1002
}
1002
}
1000
Objecter
1070
     0
1002
{
1000
CreateGroups
1070
     3
1070
     0
1002
{
1002
}
1000
LaySwitch
1070
     3
1070
     1
1002
{
1002
}
1000
LastObj
1070
    -5
1000
1475
1002
{
1002
}
1000
TimeStamp
1070
    -5
1000
20020508.16314361
1002
{
1002
}
1002
}
1000
OSWiz
1070
     0
1002
{
1000
Filter
1070
     0
1002
{
1000
HATCH
1070
     8
1002
{
1000
EntityType
1070
     4
1000
LINE
1002
{
1002
}
1000
Layer
1070
     4
1000
8,8N,*-8,*-8N
1002
{
1002
}
1000
Linetype
1070
     4
1000
*
1002
{
1002
}
1000
Color
1070
     4
1000
*
1002
{
1002
}
1000
ApplyInDims
1070
     3
1070
     1
1002
{
1002
}
1002
}
1000
SYMBOLS
1070
     8
1002
{
1000
EntityType
1070
     4
1000
*
1002
{
1002
}
1000
Layer
1070
     4
1000
[5-6],[5-6]N,*-[5-6],*-[5-6]N
1002
{
1002
}
1000
Linetype
1070
     4
1000
*
1002
{
1002
}
1000
Color
1070
     4
1000
*
1002
{
1002
}
1000
ApplyInDims
1070
     3
1070
     1
1002
{
1002
}
1002
}
1000
FEM
1070
     8
1002
{
1000
EntityType
1070
     4
1000
*
1002
{
1002
}
1000
Layer
1070
     4
1000
4A,4AN,*-4A,*-4AN
1002
{
1002
}
1000
Linetype
1070
     4
1000
*
1002
{
1002
}
1000
Color
1070
     4
1000
*
1002
{
1002
}
1000
ApplyInDims
1070
     3
1070
     1
1002
{
1002
}
1002
}
1002
}
1002
}
1000
PaList
1070
     0
1002
{
1000
AutoUpdatePartList
1070
     1
1070
     0
1002
{
1002
}
1000
ReadInfoPoint
1070
     3
1070
     0
1002
{
1002
}
1000
ReadPosNr
1070
     3
1070
     1
1002
{
1002
}
1000
RevStr
1070
     4
1000
0
1002
{
1002
}
1002
}
1000
Paper
1070
     0
1002
{
1002
}
1000
PartDB
1070
     0
1002
{
1000
GenDbOwner
1070
     4
1000

1002
{
1002
}
1002
}
1000
System
1070
     0
1002
{
1000
Menu
1070
     4
1000
GEV
1002
{
1002
}
1002
}
1000
Title
1070
     0
1002
{
1000
MakeView
1070
     1
1070
     2
1002
{
1002
}
1002
}
1000
Tools
1070
     0
1002
{
1000
Trans
1070
     0
1002
{
1000
Drawingtranslation
1070
    -4
1070
     1
1002
{
1002
}
1000
upreserve
1070
     3
1070
     0
1002
{
1002
}
1000
originally_on
1070
    -4
1070
     0
1002
{
1002
}
1000
sourcelang
1070
    -5
1000
D
1002
{
1002
}
1002
}
1002
}
  0
APPID
  5
13B2
330
136B
100
AcDbSymbolTableRecord
100
AcDbRegAppTableRecord
  2
GENIUS_GEVCFG0_13
 70
     0
1001
GENIUS_GENCFG_13
1071
1020868307
1000
13B2
1000
GEV
1070
     1
1000
GenCfgObject
1000
VED
1070
     0
1002
{
1002
}
  0
APPID
  5
13E6
330
136B
100
AcDbSymbolTableRecord
100
AcDbRegAppTableRecord
  2
GEV_VCCNULL_SWITCH_OFF
 70
     0
  0
APPID
  5
1446
330
136B
100
AcDbSymbolTableRecord
100
AcDbRegAppTableRecord
  2
GENIUS_GENDTOL_13
 70
     0
  0
APPID
  5
1447
330
136B
100
AcDbSymbolTableRecord
100
AcDbRegAppTableRecord
  2
GENIUS_GENBLLY_14
 70
     0
  0
APPID
  5
1448
330
136B
100
AcDbSymbolTableRecord
100
AcDbRegAppTableRecord
  2
GENIUS_GENODEF_13
 70
     0
  0
APPID
  5
1449
330
136B
100
AcDbSymbolTableRecord
100
AcDbRegAppTableRecord
  2
GENIUS_GENOBJ-N-CRS_13
 70
     0
  0
APPID
  5
144A
330
136B
100
AcDbSymbolTableRecord
100
AcDbRegAppTableRecord
  2
GENIUS_GENOREF_13
 70
     0
  0
APPID
  5
144B
330
136B
100
AcDbSymbolTableRecord
100
AcDbRegAppTableRecord
  2
GENIUS_GENOLIS_13
 70
     0
  0
APPID
  5
144C
330
136B
100
AcDbSymbolTableRecord
100
AcDbRegAppTableRecord
  2
GENIUS_GEFCFG0_13
 70
     0
  0
APPID
  5
144D
330
136B
100
AcDbSymbolTableRecord
100
AcDbRegAppTableRecord
  2
GENIUS_VERSION2
 70
     0
  0
APPID
  5
144E
330
136B
100
AcDbSymbolTableRecord
100
AcDbRegAppTableRecord
  2
GENIUS_GENREC_14
 70
     0
  0
APPID
  5
144F
330
136B
100
AcDbSymbolTableRecord
100
AcDbRegAppTableRecord
  2
GENIUS_GENOBJ-N-REC_13
 70
     0
  0
APPID
  5
1450
330
136B
100
AcDbSymbolTableRecord
100
AcDbRegAppTableRecord
  2
GENIUS_GENOBJ-N-TIT_13
 70
     0
  0
APPID
  5
1451
330
136B
100
AcDbSymbolTableRecord
100
AcDbRegAppTableRecord
  2
GENIUS_GENTITLE_13
 70
     0
  0
APPID
  5
1452
330
136B
100
AcDbSymbolTableRecord
100
AcDbRegAppTableRecord
  2
GENIUS_GENZVEED_13
 70
     0
  0
APPID
  5
1453
330
136B
100
AcDbSymbolTableRecord
100
AcDbRegAppTableRecord
  2
GENIUS_GENOBJ-N-SDF_13
 70
     0
  0
APPID
  5
1454
330
136B
100
AcDbSymbolTableRecord
100
AcDbRegAppTableRecord
  2
GENIUS_GENSCREG_13
 70
     0
  0
APPID
  5
1455
330
136B
100
AcDbSymbolTableRecord
100
AcDbRegAppTableRecord
  2
GENIUS_GENBLKED_14
 70
     0
  0
APPID
  5
15F5
330
136B
100
AcDbSymbolTableRecord
100
AcDbRegAppTableRecord
  2
MCAD_NO_VIS
 70
     0
  0
APPID
  5
15F6
330
136B
100
AcDbSymbolTableRecord
100
AcDbRegAppTableRecord
  2
ACAD_TEMP_GRAPHIC
 70
     0
  0
APPID
  5
1626
330
136B
100
AcDbSymbolTableRecord
100
AcDbRegAppTableRecord
  2
AD_DRAW
 70
     0
  0
APPID
  5
1629
330
136B
100
AcDbSymbolTableRecord
100
AcDbRegAppTableRecord
  2
ACATTRIBSERVICES
 70
     0
  0
APPID
  5
1649
330
136B
100
AcDbSymbolTableRecord
100
AcDbRegAppTableRecord
  2
DESIGNERASSEMBLIES
 70
     0
  0
APPID
  5
164F
330
136B
100
AcDbSymbolTableRecord
100
AcDbRegAppTableRecord
  2
ACADM_DIM_EDIT
 70
     0
  0
APPID
  5
1650
330
136B
100
AcDbSymbolTableRecord
100
AcDbRegAppTableRecord
  2
AMDT_DM_ADJ
 70
     0
  0
APPID
  5
1682
330
136B
100
AcDbSymbolTableRecord
100
AcDbRegAppTableRecord
  2
ACAD_DSTYLE_DIMARC_LENGTH_SYMBOL
 70
     0
  0
APPID
  5
1683
330
136B
100
AcDbSymbolTableRecord
100
AcDbRegAppTableRecord
  2
ACAD_DSTYLE_DIMJOGGED_JOGANGLE_SYMBOL
 70
     0
  0
ENDTAB
  0
TABLE
  2
DIMSTYLE
  5
136C
330
0
100
AcDbSymbolTable
 70
     8
100
AcDbDimStyleTable
 71
     0
  0
DIMSTYLE
105
1394
102
{ACAD_REACTORS
330
1180
330
118A
330
1194
330
11A9
330
1224
330
1556
102
}
330
136C
100
AcDbSymbolTableRecord
100
AcDbDimStyleTableRecord
  2
GEN-ISO
 70
     0
  4
"
 40
5.0
 41
2.5
 42
1.0
 43
7.0
 44
1.0
 47
0.1
 48
0.1
 73
     0
 74
     0
 77
     1
 78
     8
140
3.5
141
0.0
143
0.03937
146
0.71
147
0.6
172
     1
176
   256
177
   256
178
     2
271
     2
272
     3
274
     4
283
     0
340
1371
  0
DIMSTYLE
105
1681
330
136C
100
AcDbSymbolTableRecord
100
AcDbDimStyleTableRecord
  2
AM_DIN
 70
     0
  4
"
 41
2.5
 42
1.0
 43
10.0
 44
1.0
 47
0.1
 48
0.1
 73
     0
 74
     0
 77
     1
 78
     8
 79
     2
140
3.5
141
0.0
143
0.0393701
146
0.71
147
1.5
172
     1
176
   256
177
   256
178
     2
271
     2
272
     3
274
     4
283
     0
284
     8
340
1371
371
    -1
372
    -1
1001
ACAD_DSTYLE_DIMARC_LENGTH_SYMBOL
1070
   379
1070
     0
1001
ACAD_DSTYLE_DIMJOGGED_JOGANGLE_SYMBOL
1070
   384
1040
1.570796326794896
  0
DIMSTYLE
105
1692
330
136C
100
AcDbSymbolTableRecord
100
AcDbDimStyleTableRecord
  2
AM_DIN$3
 70
     0
  4
"
 41
2.5
 42
1.0
 43
10.0
 44
1.0
 47
0.1
 48
0.1
 73
     0
 77
     1
 78
     8
 79
     2
140
3.5
141
0.0
143
0.0393701
146
0.71
147
1.5
176
   256
177
   256
178
     2
271
     2
272
     3
274
     4
283
     0
284
     8
288
     1
289
     0
340
1371
371
    -1
372
    -1
1001
ACAD_DSTYLE_DIMARC_LENGTH_SYMBOL
1070
   379
1070
     0
1001
ACAD_DSTYLE_DIMJOGGED_JOGANGLE_SYMBOL
1070
   384
1040
1.570796326794896
  0
DIMSTYLE
105
1697
330
136C
100
AcDbSymbolTableRecord
100
AcDbDimStyleTableRecord
  2
AM_DIN$4
 70
     0
  4
"
 41
2.5
 42
1.0
 43
10.0
 44
1.0
 47
0.1
 48
0.1
 73
     0
 77
     1
 78
     8
 79
     2
140
3.5
141
0.0
143
0.0393701
146
0.71
147
1.5
176
   256
177
   256
178
     2
271
     2
272
     3
274
     4
283
     0
284
     8
288
     1
289
     0
340
1371
371
    -1
372
    -1
1001
ACAD_DSTYLE_DIMARC_LENGTH_SYMBOL
1070
   379
1070
     0
1001
ACAD_DSTYLE_DIMJOGGED_JOGANGLE_SYMBOL
1070
   384
1040
1.570796326794896
  0
DIMSTYLE
105
169C
330
136C
100
AcDbSymbolTableRecord
100
AcDbDimStyleTableRecord
  2
AM_DIN$6
 70
     0
  4
"
 41
2.5
 42
1.0
 43
10.0
 44
1.0
 47
0.1
 48
0.1
 73
     0
 74
     0
 78
     8
 79
     2
140
3.5
141
0.0
143
0.0393701
146
0.71
147
1.5
172
     1
176
   256
177
   256
178
     2
271
     2
272
     3
274
     4
283
     0
284
     8
340
1371
371
    -1
372
    -1
1001
ACAD_DSTYLE_DIMARC_LENGTH_SYMBOL
1070
   379
1070
     0
1001
ACAD_DSTYLE_DIMJOGGED_JOGANGLE_SYMBOL
1070
   384
1040
1.570796326794896
  0
DIMSTYLE
105
16A1
330
136C
100
AcDbSymbolTableRecord
100
AcDbDimStyleTableRecord
  2
AM_DIN$7
 70
     0
  4
"
 41
2.5
 42
1.0
 43
10.0
 44
1.0
 47
0.1
 48
0.1
 73
     0
 74
     0
 77
     1
 78
     8
 79
     2
140
5.0
141
0.0
143
0.0393701
146
0.71
147
1.5
172
     1
176
   256
177
   256
178
     2
271
     2
272
     3
274
     4
283
     0
284
     8
340
1371
371
    -1
372
    -1
1001
ACAD_DSTYLE_DIMARC_LENGTH_SYMBOL
1070
   379
1070
     0
1001
ACAD_DSTYLE_DIMJOGGED_JOGANGLE_SYMBOL
1070
   384
1040
1.570796326794896
  0
DIMSTYLE
105
16A6
330
136C
100
AcDbSymbolTableRecord
100
AcDbDimStyleTableRecord
  2
AM_DIN$SF
 70
     0
  4
"
 41
2.5
 42
1.0
 43
10.0
 44
1.0
 47
0.1
 48
0.1
 73
     0
 74
     0
 75
     1
 76
     1
 77
     1
 78
     8
 79
     2
140
3.5
141
0.0
143
0.0393701
146
0.71
147
1.5
172
     1
176
   256
177
   256
178
     2
271
     2
272
     3
274
     4
283
     0
284
     8
340
1371
371
    -1
372
    -1
1001
ACAD_DSTYLE_DIMARC_LENGTH_SYMBOL
1070
   379
1070
     0
1001
ACAD_DSTYLE_DIMJOGGED_JOGANGLE_SYMBOL
1070
   384
1040
1.570796326794896
  0
DIMSTYLE
105
16AF
330
136C
100
AcDbSymbolTableRecord
100
AcDbDimStyleTableRecord
  2
AM_DIN$SH
 70
     0
  4
"
 41
2.5
 42
1.0
 43
10.0
 44
1.0
 47
0.1
 48
0.1
 73
     0
 74
     0
 75
     1
 76
     1
 77
     1
 78
     8
 79
     2
140
3.5
141
0.0
143
0.0393701
144
2.0
146
0.71
147
1.5
172
     1
173
     1
176
   256
177
   256
178
     2
271
     2
272
     3
274
     4
283
     0
284
     8
340
1371
343
16A7
371
    -1
372
    -1
1001
ACAD_DSTYLE_DIMARC_LENGTH_SYMBOL
1070
   379
1070
     0
1001
ACAD_DSTYLE_DIMJOGGED_JOGANGLE_SYMBOL
1070
   384
1040
1.570796326794896
  0
ENDTAB
  0
TABLE
  2
BLOCK_RECORD
  5
1363
330
0
100
AcDbSymbolTable
 70
    14
  0
BLOCK_RECORD
  5
137A
330
1363
100
AcDbSymbolTableRecord
100
AcDbBlockTableRecord
  2
*MODEL_SPACE
340
15ED
  0
BLOCK_RECORD
  5
1377
330
1363
100
AcDbSymbolTableRecord
100
AcDbBlockTableRecord
  2
*PAPER_SPACE
340
15EE
  0
BLOCK_RECORD
  5
139E
330
1363
100
AcDbSymbolTableRecord
100
AcDbBlockTableRecord
  2
*X0
340
0
102
{BLKREFS
331
1219
102
}
  0
BLOCK_RECORD
  5
13A0
330
1363
100
AcDbSymbolTableRecord
100
AcDbBlockTableRecord
  2
*X1
340
0
102
{BLKREFS
331
1279
102
}
  0
BLOCK_RECORD
  5
13A1
330
1363
100
AcDbSymbolTableRecord
100
AcDbBlockTableRecord
  2
*X2
340
0
102
{BLKREFS
331
1299
102
}
  0
BLOCK_RECORD
  5
13A2
330
1363
100
AcDbSymbolTableRecord
100
AcDbBlockTableRecord
  2
*X3
340
0
102
{BLKREFS
331
12B9
102
}
  0
BLOCK_RECORD
  5
1432
330
1363
100
AcDbSymbolTableRecord
100
AcDbBlockTableRecord
  2
KATALOG_LEER
340
0
102
{BLKREFS
331
1457
331
1474
102
}
  0
BLOCK_RECORD
  5
1456
330
1363
100
AcDbSymbolTableRecord
100
AcDbBlockTableRecord
  2
KATALOG
340
0
  0
BLOCK_RECORD
  5
1476
330
1363
100
AcDbSymbolTableRecord
100
AcDbBlockTableRecord
  2
*D6
340
0
  0
BLOCK_RECORD
  5
1484
330
1363
100
AcDbSymbolTableRecord
100
AcDbBlockTableRecord
  2
*D7
340
0
  0
BLOCK_RECORD
  5
14B3
330
1363
100
AcDbSymbolTableRecord
100
AcDbBlockTableRecord
  2
*D8
340
0
  0
BLOCK_RECORD
  5
14CC
330
1363
100
AcDbSymbolTableRecord
100
AcDbBlockTableRecord
  2
*D9
340
0
  0
BLOCK_RECORD
  5
14F0
330
1363
100
AcDbSymbolTableRecord
100
AcDbBlockTableRecord
  2
*D10
340
0
  0
BLOCK_RECORD
  5
1545
330
1363
100
AcDbSymbolTableRecord
100
AcDbBlockTableRecord
  2
*D11
340
0
  0
BLOCK_RECORD
  5
16A7
330
1363
100
AcDbSymbolTableRecord
100
AcDbBlockTableRecord
  2
GENAXEH
340
0
  0
ENDTAB
  0
ENDSEC
  0
SECTION
  2
BLOCKS
  0
BLOCK
  5
137B
330
137A
100
AcDbEntity
  8
0
100
AcDbBlockBegin
  2
*MODEL_SPACE
 70
     0
 10
0.0
 20
0.0
 30
0.0
  3
*MODEL_SPACE
  1

  0
ENDBLK
  5
137C
330
137A
100
AcDbEntity
  8
0
100
AcDbBlockEnd
  0
BLOCK
  5
1378
330
1377
100
AcDbEntity
 67
     1
  8
0
100
AcDbBlockBegin
  2
*PAPER_SPACE
 70
     0
 10
0.0
 20
0.0
 30
0.0
  3
*PAPER_SPACE
  1

  0
ENDBLK
  5
1379
330
1377
100
AcDbEntity
 67
     1
  8
0
100
AcDbBlockEnd
  0
BLOCK
  5
11DE
330
139E
100
AcDbEntity
  8
0
100
AcDbBlockBegin
  2
*X0
 70
     1
 10
0.0
 20
0.0
 30
0.0
  3
*X0
  1

  0
LINE
  5
11DF
330
139E
100
AcDbEntity
  8
8
100
AcDbLine
 10
724.3969999999999
 20
920.4030000000001
 30
0.0
 11
730.0019999999999
 21
926.008
 31
0.0
  0
LINE
  5
11E0
330
139E
100
AcDbEntity
  8
8
100
AcDbLine
 10
713.458
 20
920.6889999999999
 30
0.0
 11
718.24
 21
925.4710000000001
 31
0.0
  0
LINE
  5
11E1
330
139E
100
AcDbEntity
  8
8
100
AcDbLine
 10
702.5199999999999
 20
920.9760000000001
 30
0.0
 11
707.15
 21
925.6060000000001
 31
0.0
  0
LINE
  5
11E2
330
139E
100
AcDbEntity
  8
8
100
AcDbLine
 10
691.581
 20
921.2619999999999
 30
0.0
 11
696.211
 21
925.8930000000001
 31
0.0
  0
LINE
  5
11E3
330
139E
100
AcDbEntity
  8
8
100
AcDbLine
 10
680.6419999999999
 20
921.549
 30
0.0
 11
685.2719999999999
 21
926.1789999999999
 31
0.0
  0
LINE
  5
11E4
330
139E
100
AcDbEntity
  8
8
100
AcDbLine
 10
669.7029999999999
 20
921.835
 30
0.0
 11
674.3330000000001
 21
926.4660000000001
 31
0.0
  0
LINE
  5
11E5
330
139E
100
AcDbEntity
  8
8
100
AcDbLine
 10
658.5589999999999
 20
921.916
 30
0.0
 11
663.307
 21
926.665
 31
0.0
  0
LINE
  5
11E6
330
139E
100
AcDbEntity
  8
8
100
AcDbLine
 10
647.333
 20
921.916
 30
0.0
 11
652.082
 21
926.665
 31
0.0
  0
LINE
  5
11E7
330
139E
100
AcDbEntity
  8
8
100
AcDbLine
 10
636.1080000000001
 20
921.916
 30
0.0
 11
640.857
 21
926.665
 31
0.0
  0
LINE
  5
11E8
330
139E
100
AcDbEntity
  8
8
100
AcDbLine
 10
624.883
 20
921.916
 30
0.0
 11
629.631
 21
926.665
 31
0.0
  0
LINE
  5
11E9
330
139E
100
AcDbEntity
  8
8
100
AcDbLine
 10
613.658
 20
921.916
 30
0.0
 11
618.4059999999999
 21
926.665
 31
0.0
  0
LINE
  5
11EA
330
139E
100
AcDbEntity
  8
8
100
AcDbLine
 10
602.432
 20
921.916
 30
0.0
 11
607.181
 21
926.665
 31
0.0
  0
LINE
  5
11EB
330
139E
100
AcDbEntity
  8
8
100
AcDbLine
 10
591.2069999999999
 20
921.916
 30
0.0
 11
595.955
 21
926.665
 31
0.0
  0
LINE
  5
11EC
330
139E
100
AcDbEntity
  8
8
100
AcDbLine
 10
579.9819999999999
 20
921.916
 30
0.0
 11
584.73
 21
926.665
 31
0.0
  0
LINE
  5
11ED
330
139E
100
AcDbEntity
  8
8
100
AcDbLine
 10
568.7559999999999
 20
921.916
 30
0.0
 11
573.505
 21
926.665
 31
0.0
  0
LINE
  5
11EE
330
139E
100
AcDbEntity
  8
8
100
AcDbLine
 10
557.5309999999999
 20
921.916
 30
0.0
 11
562.279
 21
926.665
 31
0.0
  0
LINE
  5
11EF
330
139E
100
AcDbEntity
  8
8
100
AcDbLine
 10
546.306
 20
921.916
 30
0.0
 11
551.0539999999999
 21
926.665
 31
0.0
  0
LINE
  5
11F0
330
139E
100
AcDbEntity
  8
8
100
AcDbLine
 10
535.08
 20
921.916
 30
0.0
 11
539.8290000000001
 21
926.665
 31
0.0
  0
LINE
  5
11F1
330
139E
100
AcDbEntity
  8
8
100
AcDbLine
 10
521.603
 20
919.6649999999999
 30
0.0
 11
528.6030000000001
 21
926.665
 31
0.0
  0
LINE
  5
11F2
330
139E
100
AcDbEntity
  8
8
100
AcDbLine
 10
510.378
 20
919.6649999999999
 30
0.0
 11
515.378
 21
924.665
 31
0.0
  0
LINE
  5
11F3
330
139E
100
AcDbEntity
  8
8
100
AcDbLine
 10
499.153
 20
919.6649999999999
 30
0.0
 11
504.153
 21
924.665
 31
0.0
  0
LINE
  5
11F4
330
139E
100
AcDbEntity
  8
8
100
AcDbLine
 10
487.9269999999999
 20
919.6649999999999
 30
0.0
 11
492.9269999999999
 21
924.665
 31
0.0
  0
LINE
  5
11F5
330
139E
100
AcDbEntity
  8
8
100
AcDbLine
 10
476.702
 20
919.6649999999999
 30
0.0
 11
481.702
 21
924.665
 31
0.0
  0
LINE
  5
11F6
330
139E
100
AcDbEntity
  8
8
100
AcDbLine
 10
465.477
 20
919.6649999999999
 30
0.0
 11
470.4769999999999
 21
924.665
 31
0.0
  0
LINE
  5
11F7
330
139E
100
AcDbEntity
  8
8
100
AcDbLine
 10
454.251
 20
919.6649999999999
 30
0.0
 11
459.2509999999999
 21
924.665
 31
0.0
  0
LINE
  5
11F8
330
139E
100
AcDbEntity
  8
8
100
AcDbLine
 10
443.026
 20
919.6649999999999
 30
0.0
 11
448.026
 21
924.665
 31
0.0
  0
LINE
  5
11F9
330
139E
100
AcDbEntity
  8
8
100
AcDbLine
 10
431.958
 20
919.822
 30
0.0
 11
436.8009999999999
 21
924.665
 31
0.0
  0
LINE
  5
11FA
330
139E
100
AcDbEntity
  8
8
100
AcDbLine
 10
421.6359999999999
 20
920.725
 30
0.0
 11
426.234
 21
925.323
 31
0.0
  0
LINE
  5
11FB
330
139E
100
AcDbEntity
  8
8
100
AcDbLine
 10
411.314
 20
921.6289999999998
 30
0.0
 11
415.9119999999999
 21
926.2260000000001
 31
0.0
  0
LINE
  5
11FC
330
139E
100
AcDbEntity
  8
8
100
AcDbLine
 10
400.3769999999999
 20
921.916
 30
0.0
 11
405.125
 21
926.665
 31
0.0
  0
LINE
  5
11FD
330
139E
100
AcDbEntity
  8
8
100
AcDbLine
 10
389.151
 20
921.916
 30
0.0
 11
393.9
 21
926.665
 31
0.0
  0
LINE
  5
11FE
330
139E
100
AcDbEntity
  8
8
100
AcDbLine
 10
377.926
 20
921.916
 30
0.0
 11
382.674
 21
926.665
 31
0.0
  0
LINE
  5
11FF
330
139E
100
AcDbEntity
  8
8
100
AcDbLine
 10
366.701
 20
921.916
 30
0.0
 11
371.449
 21
926.665
 31
0.0
  0
LINE
  5
1200
330
139E
100
AcDbEntity
  8
8
100
AcDbLine
 10
355.475
 20
921.916
 30
0.0
 11
360.224
 21
926.665
 31
0.0
  0
LINE
  5
1201
330
139E
100
AcDbEntity
  8
8
100
AcDbLine
 10
344.644
 20
922.311
 30
0.0
 11
348.998
 21
926.665
 31
0.0
  0
LINE
  5
1202
330
139E
100
AcDbEntity
  8
8
100
AcDbLine
 10
336.073
 20
924.965
 30
0.0
 11
339.698
 21
928.589
 31
0.0
  0
LINE
  5
1203
330
139E
100
AcDbEntity
  8
8
100
AcDbLine
 10
329.851
 20
929.968
 30
0.0
 11
333.275
 21
933.3919999999999
 31
0.0
  0
LINE
  5
1204
330
139E
100
AcDbEntity
  8
8
100
AcDbLine
 10
325.455
 20
936.7980000000001
 30
0.0
 11
329.157
 21
940.4999999999999
 31
0.0
  0
LINE
  5
1205
330
139E
100
AcDbEntity
  8
8
100
AcDbLine
 10
323.311
 20
945.8789999999998
 30
0.0
 11
328.161
 21
950.7289999999999
 31
0.0
  0
LINE
  5
1206
330
139E
100
AcDbEntity
  8
8
100
AcDbLine
 10
323.054
 20
956.8469999999999
 30
0.0
 11
327.968
 21
961.762
 31
0.0
  0
LINE
  5
1207
330
139E
100
AcDbEntity
  8
8
100
AcDbLine
 10
322.861
 20
967.8789999999999
 30
0.0
 11
327.776
 21
972.794
 31
0.0
  0
LINE
  5
1208
330
139E
100
AcDbEntity
  8
8
100
AcDbLine
 10
322.668
 20
978.9119999999998
 30
0.0
 11
327.583
 21
983.8269999999999
 31
0.0
  0
LINE
  5
1209
330
139E
100
AcDbEntity
  8
8
100
AcDbLine
 10
322.476
 20
989.9449999999999
 30
0.0
 11
327.391
 21
994.86
 31
0.0
  0
LINE
  5
120A
330
139E
100
AcDbEntity
  8
8
100
AcDbLine
 10
322.283
 20
1000.978
 30
0.0
 11
327.198
 21
1005.893
 31
0.0
  0
LINE
  5
120B
330
139E
100
AcDbEntity
  8
8
100
AcDbLine
 10
322.091
 20
1012.01
 30
0.0
 11
327.006
 21
1016.925
 31
0.0
  0
LINE
  5
120C
330
139E
100
AcDbEntity
  8
8
100
AcDbLine
 10
321.898
 20
1023.043
 30
0.0
 11
326.813
 21
1027.958
 31
0.0
  0
LINE
  5
120D
330
139E
100
AcDbEntity
  8
8
100
AcDbLine
 10
321.705
 20
1034.076
 30
0.0
 11
326.62
 21
1038.991
 31
0.0
  0
LINE
  5
120E
330
139E
100
AcDbEntity
  8
8
100
AcDbLine
 10
320.602
 20
1044.197
 30
0.0
 11
326.428
 21
1050.024
 31
0.0
  0
LINE
  5
120F
330
139E
100
AcDbEntity
  8
8
100
AcDbLine
 10
312.169
 20
1046.99
 30
0.0
 11
319.957
 21
1054.778
 31
0.0
  0
LINE
  5
1210
330
139E
100
AcDbEntity
  8
8
100
AcDbLine
 10
301.322
 20
1047.369
 30
0.0
 11
308.618
 21
1054.665
 31
0.0
  0
LINE
  5
1211
330
139E
100
AcDbEntity
  8
8
100
AcDbLine
 10
290.476
 20
1047.747
 30
0.0
 11
297.393
 21
1054.665
 31
0.0
  0
LINE
  5
1212
330
139E
100
AcDbEntity
  8
8
100
AcDbLine
 10
279.629
 20
1048.126
 30
0.0
 11
286.168
 21
1054.665
 31
0.0
  0
LINE
  5
1213
330
139E
100
AcDbEntity
  8
8
100
AcDbLine
 10
268.783
 20
1048.505
 30
0.0
 11
274.942
 21
1054.665
 31
0.0
  0
LINE
  5
1214
330
139E
100
AcDbEntity
  8
8
100
AcDbLine
 10
257.874
 20
1048.822
 30
0.0
 11
263.717
 21
1054.665
 31
0.0
  0
LINE
  5
1215
330
139E
100
AcDbEntity
  8
8
100
AcDbLine
 10
244.492
 20
1046.665
 30
0.0
 11
252.492
 21
1054.665
 31
0.0
  0
LINE
  5
1216
330
139E
100
AcDbEntity
  8
8
100
AcDbLine
 10
233.266
 20
1046.665
 30
0.0
 11
241.267
 21
1054.665
 31
0.0
  0
LINE
  5
1217
330
139E
100
AcDbEntity
  8
8
100
AcDbLine
 10
222.041
 20
1046.665
 30
0.0
 11
230.041
 21
1054.665
 31
0.0
  0
ENDBLK
  5
1218
330
139E
100
AcDbEntity
  8
0
100
AcDbBlockEnd
  0
BLOCK
  5
125D
330
13A0
100
AcDbEntity
  8
0
100
AcDbBlockBegin
  2
*X1
 70
     1
 10
0.0
 20
0.0
 30
0.0
  3
*X1
  1

  0
LINE
  5
125E
330
13A0
100
AcDbEntity
  8
8
100
AcDbLine
 10
738.023
 20
1023.832
 30
0.0
 11
742.783
 21
1028.591
 31
0.0
  0
LINE
  5
125F
330
13A0
100
AcDbEntity
  8
8
100
AcDbLine
 10
727.085
 20
1024.118
 30
0.0
 11
732.6900000000001
 21
1029.723
 31
0.0
  0
LINE
  5
1260
330
13A0
100
AcDbEntity
  8
8
100
AcDbLine
 10
717.1210000000001
 20
1025.379
 30
0.0
 11
721.751
 21
1030.01
 31
0.0
  0
LINE
  5
1261
330
13A0
100
AcDbEntity
  8
8
100
AcDbLine
 10
706.1819999999999
 20
1025.666
 30
0.0
 11
710.812
 21
1030.296
 31
0.0
  0
LINE
  5
1262
330
13A0
100
AcDbEntity
  8
8
100
AcDbLine
 10
695.243
 20
1025.952
 30
0.0
 11
699.8730000000001
 21
1030.583
 31
0.0
  0
LINE
  5
1263
330
13A0
100
AcDbEntity
  8
8
100
AcDbLine
 10
684.304
 20
1026.239
 30
0.0
 11
688.9339999999999
 21
1030.869
 31
0.0
  0
LINE
  5
1264
330
13A0
100
AcDbEntity
  8
8
100
AcDbLine
 10
673.3649999999999
 20
1026.525
 30
0.0
 11
677.995
 21
1031.155
 31
0.0
  0
LINE
  5
1265
330
13A0
100
AcDbEntity
  8
8
100
AcDbLine
 10
662.426
 20
1026.812
 30
0.0
 11
667.056
 21
1031.442
 31
0.0
  0
LINE
  5
1266
330
13A0
100
AcDbEntity
  8
8
100
AcDbLine
 10
652.202
 20
1027.813
 30
0.0
 11
656.135
 21
1031.746
 31
0.0
  0
LINE
  5
1267
330
13A0
100
AcDbEntity
  8
8
100
AcDbLine
 10
646.3859999999999
 20
1033.222
 30
0.0
 11
650.419
 21
1037.255
 31
0.0
  0
LINE
  5
1268
330
13A0
100
AcDbEntity
  8
8
100
AcDbLine
 10
644.4199999999999
 20
1042.481
 30
0.0
 11
648.7359999999999
 21
1046.798
 31
0.0
  0
LINE
  5
1269
330
13A0
100
AcDbEntity
  8
8
100
AcDbLine
 10
640.284
 20
1049.57
 30
0.0
 11
645.1529999999999
 21
1054.44
 31
0.0
  0
LINE
  5
126A
330
13A0
100
AcDbEntity
  8
8
100
AcDbLine
 10
629.153
 20
1049.665
 30
0.0
 11
634.153
 21
1054.665
 31
0.0
  0
LINE
  5
126B
330
13A0
100
AcDbEntity
  8
8
100
AcDbLine
 10
617.927
 20
1049.665
 30
0.0
 11
622.927
 21
1054.665
 31
0.0
  0
LINE
  5
126C
330
13A0
100
AcDbEntity
  8
8
100
AcDbLine
 10
606.702
 20
1049.665
 30
0.0
 11
611.702
 21
1054.665
 31
0.0
  0
LINE
  5
126D
330
13A0
100
AcDbEntity
  8
8
100
AcDbLine
 10
595.4769999999999
 20
1049.665
 30
0.0
 11
600.4769999999999
 21
1054.665
 31
0.0
  0
LINE
  5
126E
330
13A0
100
AcDbEntity
  8
8
100
AcDbLine
 10
553.251
 20
1018.665
 30
0.0
 11
558.251
 21
1023.665
 31
0.0
  0
LINE
  5
126F
330
13A0
100
AcDbEntity
  8
8
100
AcDbLine
 10
584.2509999999999
 20
1049.665
 30
0.0
 11
589.2509999999999
 21
1054.665
 31
0.0
  0
LINE
  5
1270
330
13A0
100
AcDbEntity
  8
8
100
AcDbLine
 10
542.0259999999999
 20
1018.665
 30
0.0
 11
547.6119999999999
 21
1024.25
 31
0.0
  0
LINE
  5
1271
330
13A0
100
AcDbEntity
  8
8
100
AcDbLine
 10
573.0259999999999
 20
1049.665
 30
0.0
 11
578.0259999999999
 21
1054.665
 31
0.0
  0
LINE
  5
1272
330
13A0
100
AcDbEntity
  8
8
100
AcDbLine
 10
530.8009999999999
 20
1018.665
 30
0.0
 11
545.807
 21
1033.671
 31
0.0
  0
LINE
  5
1273
330
13A0
100
AcDbEntity
  8
8
100
AcDbLine
 10
561.8009999999999
 20
1049.665
 30
0.0
 11
566.8009999999999
 21
1054.665
 31
0.0
  0
LINE
  5
1274
330
13A0
100
AcDbEntity
  8
8
100
AcDbLine
 10
521.76
 20
1020.849
 30
0.0
 11
530.3949999999999
 21
1029.484
 31
0.0
  0
LINE
  5
1275
330
13A0
100
AcDbEntity
  8
8
100
AcDbLine
 10
540.9159999999999
 20
1040.006
 30
0.0
 11
546.269
 21
1045.358
 31
0.0
  0
LINE
  5
1276
330
13A0
100
AcDbEntity
  8
8
100
AcDbLine
 10
550.3029999999999
 20
1049.393
 30
0.0
 11
555.575
 21
1054.665
 31
0.0
  0
LINE
  5
1277
330
13A0
100
AcDbEntity
  8
8
100
AcDbLine
 10
541.1159999999999
 20
1051.43
 30
0.0
 11
544.35
 21
1054.665
 31
0.0
  0
ENDBLK
  5
1278
330
13A0
100
AcDbEntity
  8
0
100
AcDbBlockEnd
  0
BLOCK
  5
1289
330
13A1
100
AcDbEntity
  8
0
100
AcDbBlockBegin
  2
*X2
 70
     1
 10
0.0
 20
0.0
 30
0.0
  3
*X2
  1

  0
LINE
  5
128A
330
13A1
100
AcDbEntity
  8
8
100
AcDbLine
 10
602.243
 20
1059.665
 30
0.0
 11
608.76
 21
1066.181
 31
0.0
  0
LINE
  5
128B
330
13A1
100
AcDbEntity
  8
8
100
AcDbLine
 10
597.753
 20
1059.665
 30
0.0
 11
605.753
 21
1067.665
 31
0.0
  0
LINE
  5
128C
330
13A1
100
AcDbEntity
  8
8
100
AcDbLine
 10
593.263
 20
1059.665
 30
0.0
 11
601.263
 21
1067.665
 31
0.0
  0
LINE
  5
128D
330
13A1
100
AcDbEntity
  8
8
100
AcDbLine
 10
588.773
 20
1059.665
 30
0.0
 11
596.773
 21
1067.665
 31
0.0
  0
LINE
  5
128E
330
13A1
100
AcDbEntity
  8
8
100
AcDbLine
 10
584.283
 20
1059.665
 30
0.0
 11
592.283
 21
1067.665
 31
0.0
  0
LINE
  5
128F
330
13A1
100
AcDbEntity
  8
8
100
AcDbLine
 10
579.793
 20
1059.665
 30
0.0
 11
587.793
 21
1067.665
 31
0.0
  0
LINE
  5
1290
330
13A1
100
AcDbEntity
  8
8
100
AcDbLine
 10
575.302
 20
1059.665
 30
0.0
 11
583.3029999999999
 21
1067.665
 31
0.0
  0
LINE
  5
1291
330
13A1
100
AcDbEntity
  8
8
100
AcDbLine
 10
570.812
 20
1059.665
 30
0.0
 11
578.812
 21
1067.665
 31
0.0
  0
LINE
  5
1292
330
13A1
100
AcDbEntity
  8
8
100
AcDbLine
 10
566.3219999999999
 20
1059.665
 30
0.0
 11
574.3219999999999
 21
1067.665
 31
0.0
  0
LINE
  5
1293
330
13A1
100
AcDbEntity
  8
8
100
AcDbLine
 10
561.8319999999999
 20
1059.665
 30
0.0
 11
569.8319999999999
 21
1067.665
 31
0.0
  0
LINE
  5
1294
330
13A1
100
AcDbEntity
  8
8
100
AcDbLine
 10
557.3419999999999
 20
1059.665
 30
0.0
 11
565.3419999999999
 21
1067.665
 31
0.0
  0
LINE
  5
1295
330
13A1
100
AcDbEntity
  8
8
100
AcDbLine
 10
552.98
 20
1059.793
 30
0.0
 11
560.8519999999999
 21
1067.665
 31
0.0
  0
LINE
  5
1296
330
13A1
100
AcDbEntity
  8
8
100
AcDbLine
 10
551.2599999999999
 20
1062.563
 30
0.0
 11
556.3619999999999
 21
1067.665
 31
0.0
  0
LINE
  5
1297
330
13A1
100
AcDbEntity
  8
8
100
AcDbLine
 10
551.2599999999999
 20
1067.053
 30
0.0
 11
551.872
 21
1067.665
 31
0.0
  0
ENDBLK
  5
1298
330
13A1
100
AcDbEntity
  8
0
100
AcDbBlockEnd
  0
BLOCK
  5
12A9
330
13A2
100
AcDbEntity
  8
0
100
AcDbBlockBegin
  2
*X3
 70
     1
 10
0.0
 20
0.0
 30
0.0
  3
*X3
  1

  0
LINE
  5
12AA
330
13A2
100
AcDbEntity
  8
8
100
AcDbLine
 10
310.385
 20
1059.665
 30
0.0
 11
316.26
 21
1065.539
 31
0.0
  0
LINE
  5
12AB
330
13A2
100
AcDbEntity
  8
8
100
AcDbLine
 10
305.895
 20
1059.665
 30
0.0
 11
313.895
 21
1067.665
 31
0.0
  0
LINE
  5
12AC
330
13A2
100
AcDbEntity
  8
8
100
AcDbLine
 10
301.405
 20
1059.665
 30
0.0
 11
309.405
 21
1067.665
 31
0.0
  0
LINE
  5
12AD
330
13A2
100
AcDbEntity
  8
8
100
AcDbLine
 10
296.915
 20
1059.665
 30
0.0
 11
304.915
 21
1067.665
 31
0.0
  0
LINE
  5
12AE
330
13A2
100
AcDbEntity
  8
8
100
AcDbLine
 10
292.4240000000001
 20
1059.665
 30
0.0
 11
300.424
 21
1067.665
 31
0.0
  0
LINE
  5
12AF
330
13A2
100
AcDbEntity
  8
8
100
AcDbLine
 10
287.934
 20
1059.665
 30
0.0
 11
295.934
 21
1067.665
 31
0.0
  0
LINE
  5
12B0
330
13A2
100
AcDbEntity
  8
8
100
AcDbLine
 10
283.444
 20
1059.665
 30
0.0
 11
291.444
 21
1067.665
 31
0.0
  0
LINE
  5
12B1
330
13A2
100
AcDbEntity
  8
8
100
AcDbLine
 10
278.954
 20
1059.665
 30
0.0
 11
286.954
 21
1067.665
 31
0.0
  0
LINE
  5
12B2
330
13A2
100
AcDbEntity
  8
8
100
AcDbLine
 10
274.464
 20
1059.665
 30
0.0
 11
282.464
 21
1067.665
 31
0.0
  0
LINE
  5
12B3
330
13A2
100
AcDbEntity
  8
8
100
AcDbLine
 10
269.974
 20
1059.665
 30
0.0
 11
277.974
 21
1067.665
 31
0.0
  0
LINE
  5
12B4
330
13A2
100
AcDbEntity
  8
8
100
AcDbLine
 10
265.484
 20
1059.665
 30
0.0
 11
273.4840000000001
 21
1067.665
 31
0.0
  0
LINE
  5
12B5
330
13A2
100
AcDbEntity
  8
8
100
AcDbLine
 10
261.03
 20
1059.702
 30
0.0
 11
268.994
 21
1067.665
 31
0.0
  0
LINE
  5
12B6
330
13A2
100
AcDbEntity
  8
8
100
AcDbLine
 10
258.793
 20
1061.955
 30
0.0
 11
264.503
 21
1067.665
 31
0.0
  0
LINE
  5
12B7
330
13A2
100
AcDbEntity
  8
8
100
AcDbLine
 10
258.759
 20
1066.411
 30
0.0
 11
260.013
 21
1067.665
 31
0.0
  0
ENDBLK
  5
12B8
330
13A2
100
AcDbEntity
  8
0
100
AcDbBlockEnd
  0
BLOCK
  5
1433
330
1432
100
AcDbEntity
  8
0
100
AcDbBlockBegin
  2
KATALOG_LEER
 70
     0
 10
0.0
 20
0.0
 30
0.0
  3
KATALOG_LEER
  1

  0
ENDBLK
  5
1434
330
1432
100
AcDbEntity
  8
0
100
AcDbBlockEnd
  0
BLOCK
  5
1468
330
1456
100
AcDbEntity
  8
0
100
AcDbBlockBegin
  2
KATALOG
 70
     0
 10
0.0
 20
0.0
 30
0.0
  3
KATALOG
  1

  0
INSERT
  5
1457
330
1456
100
AcDbEntity
  8
0
100
AcDbBlockReference
  2
KATALOG_LEER
 10
205.0
 20
5.0
 30
0.0
1001
GENIUS_GENOREF_13
1005
1458
  0
POINT
  5
1458
330
1456
100
AcDbEntity
  8
0
 60
     1
100
AcDbPoint
 10
0.0
 20
0.0
 30
0.0
1001
GENIUS_GENOBJ-N-TIT_13
1002
{
1000
OWNER
1000
GEN
1002
}
1001
GENIUS_GENOENT_13
1002
{
1000
MYREF
1005
1458
1002
}
1002
{
1000
GRP
1005
0
1002
}
1001
GENIUS_GENOLIS_13
1002
{
1000
ENT
1005
1457
1005
0
1002
}
1001
GENIUS_GENTITLE_13
1002
{
1000
SCALE
1000
1:1
1002
}
1002
{
1000
BORDER
1000
KATALOG
1002
}
1002
{
1000
TITLE
1000
KATALOG_LEER
1002
}
1002
{
1000
UNCHG
1002
{
1000
GEN-TITLE-SCA
1000
GEN-TITLE-SIZ
1002
}
1002
}
1002
{
1000
HRA
1005
0
1002
}
1002
{
1000
HTIT
1005
1457
1002
}
1002
{
1000
GENIUSID
1005
1458
1002
}
1001
GENIUS_GENODEF_13
1002
{
1000
HIER
1070
     1
1002
}
1002
{
1000
MANEDIT
1070
     0
1002
}
1002
{
1000
NOSEL
1070
     0
1002
}
1002
{
1000
BEHIND
1070
     0
1002
}
1002
{
1000
REACTOR
1002
}
  0
TEXT
  5
1459
330
1456
100
AcDbEntity
  8
RAHM3
 60
     1
100
AcDbText
 10
29.391383
 20
162.283165
 30
0.0
 40
3.5
  1
!GENTITLE-MAX
100
AcDbText
  0
TEXT
  5
145A
330
1456
100
AcDbEntity
  8
RAHM3
 60
     1
100
AcDbText
 10
30.988432
 20
153.503279
 30
0.0
 40
3.5
  1
!GENTITLE-RU
100
AcDbText
  0
TEXT
  5
145B
330
1456
100
AcDbEntity
  8
RAHM3
 60
     1
100
AcDbText
 10
-85.995418
 20
56.924537
 30
0.0
 40
3.5
  1
!GENTITLE-LL
100
AcDbText
  0
TEXT
  5
145C
330
1456
100
AcDbEntity
  8
RAHM3
 60
     1
100
AcDbText
 10
50.36794099999999
 20
2.260896999999999
 30
0.0
 40
3.5
  1
!GENTITLE-INSERT
100
AcDbText
  0
LINE
  5
145D
330
1456
100
AcDbEntity
  8
RAHM2
100
AcDbLine
 10
0.0
 20
0.0
 30
0.0
 11
148.5
 21
0.0
 31
0.0
  0
LINE
  5
145E
330
1456
100
AcDbEntity
  8
RAHM2
100
AcDbLine
 10
148.5
 20
210.0
 30
0.0
 11
0.0
 21
210.0
 31
0.0
  0
LINE
  5
145F
330
1456
100
AcDbEntity
  8
RAHM2
100
AcDbLine
 10
0.0
 20
210.0
 30
0.0
 11
0.0
 21
0.0
 31
0.0
  0
TEXT
  5
1460
330
1456
100
AcDbEntity
  8
RAHM3
 60
     1
100
AcDbText
 10
184.023441
 20
165.022268
 30
0.0
 40
3.5
  1
!GENTITLE-MAX
100
AcDbText
  0
TEXT
  5
1461
330
1456
100
AcDbEntity
  8
RAHM3
 60
     1
100
AcDbText
 10
185.620491
 20
156.242382
 30
0.0
 40
3.5
  1
!GENTITLE-RU
100
AcDbText
  0
TEXT
  5
1462
330
1456
100
AcDbEntity
  8
RAHM3
 60
     1
100
AcDbText
 10
68.636641
 20
59.663641
 30
0.0
 40
3.5
  1
!GENTITLE-LL
100
AcDbText
  0
TEXT
  5
1463
330
1456
100
AcDbEntity
  8
RAHM3
 60
     1
100
AcDbText
 10
205.0
 20
5.0
 30
0.0
 40
3.5
  1
!GENTITLE-INSERT
100
AcDbText
  0
LINE
  5
1464
330
1456
100
AcDbEntity
  8
RAHM2
100
AcDbLine
 10
148.5
 20
0.0
 30
0.0
 11
148.5
 21
210.0
 31
0.0
  0
LINE
  5
1465
330
1456
100
AcDbEntity
  8
RAHM2
100
AcDbLine
 10
210.0
 20
148.5
 30
0.0
 11
0.0
 21
148.5
 31
0.0
  0
LINE
  5
1466
330
1456
100
AcDbEntity
  8
RAHM2
100
AcDbLine
 10
210.0
 20
0.0
 30
0.0
 11
210.0
 21
148.5
 31
0.0
  0
LINE
  5
1467
330
1456
100
AcDbEntity
  8
RAHM2
100
AcDbLine
 10
0.0
 20
0.0
 30
0.0
 11
210.0
 21
0.0
 31
0.0
  0
ENDBLK
  5
1469
330
1456
100
AcDbEntity
  8
0
100
AcDbBlockEnd
  0
BLOCK
  5
15A7
330
1476
100
AcDbEntity
  8
0
100
AcDbBlockBegin
  2
*D6
 70
     1
 10
0.0
 20
0.0
 30
0.0
  3
*D6
  1
GEVFRAME
  0
LINE
  5
15A8
330
1476
100
AcDbEntity
  8
0
  6
ByBlock
100
AcDbLine
 10
189.020523
 20
367.11293
 30
0.0
 11
189.020523
 21
494.5558599999999
 31
0.0
  0
LINE
  5
15A9
330
1476
100
AcDbEntity
  8
0
  6
ByBlock
100
AcDbLine
 10
619.020523
 20
367.11293
 30
0.0
 11
619.020523
 21
494.5558599999999
 31
0.0
  0
LINE
  5
15AA
330
1476
100
AcDbEntity
  8
0
  6
ByBlock
100
AcDbLine
 10
201.520523
 20
489.5558599999999
 30
0.0
 11
606.520523
 21
489.5558599999999
 31
0.0
  0
SOLID
  5
15AB
330
1476
100
AcDbEntity
  8
0
  6
ByBlock
100
AcDbTrace
 10
201.520523
 20
491.639194
 30
0.0
 11
201.520523
 21
487.4725269999999
 31
0.0
 12
189.020523
 22
489.5558599999999
 32
0.0
 13
189.020523
 23
489.5558599999999
 33
0.0
  0
SOLID
  5
15AC
330
1476
100
AcDbEntity
  8
0
  6
ByBlock
100
AcDbTrace
 10
606.520523
 20
491.639194
 30
0.0
 11
606.520523
 21
487.4725269999999
 31
0.0
 12
619.020523
 22
489.5558599999999
 32
0.0
 13
619.020523
 23
489.5558599999999
 33
0.0
  0
MTEXT
  5
15AD
330
1476
100
AcDbEntity
  8
0
  6
ByBlock
 62
     2
100
AcDbMText
 10
404.020523
 20
501.3058599999999
 30
0.0
 40
17.5
 41
0.0
 71
     5
 72
     1
  1
\U+2205 430
 73
     1
 44
1.0
1001
ACAD
1000
MTEXTBEGIN
1070
    73
1070
     1
1070
    44
1040
1.0
1070
    74
1070
     0
1000
MTEXTEND
  0
POINT
  5
15AE
330
1476
100
AcDbEntity
  8
DEFPOINTS
  6
ByBlock
 62
     0
100
AcDbPoint
 10
189.020523
 20
362.11293
 30
0.0
  0
POINT
  5
15AF
330
1476
100
AcDbEntity
  8
DEFPOINTS
  6
ByBlock
 62
     0
100
AcDbPoint
 10
619.020523
 20
362.11293
 30
0.0
  0
POINT
  5
15B0
330
1476
100
AcDbEntity
  8
DEFPOINTS
  6
ByBlock
 62
     0
100
AcDbPoint
 10
619.020523
 20
489.5558599999999
 30
0.0
  0
ENDBLK
  5
15B1
330
1476
100
AcDbEntity
  8
0
100
AcDbBlockEnd
  0
BLOCK
  5
14A6
330
1484
100
AcDbEntity
  8
0
100
AcDbBlockBegin
  2
*D7
 70
     1
 10
0.0
 20
0.0
 30
0.0
  3
*D7
  1

  0
LINE
  5
14A7
330
1484
100
AcDbEntity
  8
0
  6
ByBlock
100
AcDbLine
 10
290.019523
 20
380.11293
 30
0.0
 11
290.019523
 21
459.5558599999999
 31
0.0
  0
LINE
  5
14A8
330
1484
100
AcDbEntity
  8
0
  6
ByBlock
100
AcDbLine
 10
518.020523
 20
380.11293
 30
0.0
 11
518.020523
 21
459.5558599999999
 31
0.0
  0
LINE
  5
14A9
330
1484
100
AcDbEntity
  8
0
  6
ByBlock
100
AcDbLine
 10
302.519523
 20
454.5558599999999
 30
0.0
 11
505.520523
 21
454.5558599999999
 31
0.0
  0
SOLID
  5
14AA
330
1484
100
AcDbEntity
  8
0
  6
ByBlock
100
AcDbTrace
 10
302.519523
 20
456.639194
 30
0.0
 11
302.519523
 21
452.4725269999999
 31
0.0
 12
290.019523
 22
454.5558599999999
 32
0.0
 13
290.019523
 23
454.5558599999999
 33
0.0
  0
SOLID
  5
14AB
330
1484
100
AcDbEntity
  8
0
  6
ByBlock
100
AcDbTrace
 10
505.520523
 20
456.639194
 30
0.0
 11
505.520523
 21
452.4725269999999
 31
0.0
 12
518.020523
 22
454.5558599999999
 32
0.0
 13
518.020523
 23
454.5558599999999
 33
0.0
  0
MTEXT
  5
14AC
330
1484
100
AcDbEntity
  8
0
  6
ByBlock
 62
     2
100
AcDbMText
 10
404.0200229999999
 20
466.307583
 30
0.0
 40
17.5
 41
0.0
 71
     5
 72
     1
  1
\U+2205 228
 73
     1
 44
1.0
1001
ACAD
1000
MTEXTBEGIN
1070
    73
1070
     1
1070
    44
1040
1.0
1070
    74
1070
     0
1000
MTEXTEND
  0
POINT
  5
14AD
330
1484
100
AcDbEntity
  8
DEFPOINTS
  6
ByBlock
 62
     0
100
AcDbPoint
 10
290.019523
 20
375.11293
 30
0.0
  0
POINT
  5
14AE
330
1484
100
AcDbEntity
  8
DEFPOINTS
  6
ByBlock
 62
     0
100
AcDbPoint
 10
518.020523
 20
375.11293
 30
0.0
  0
POINT
  5
14AF
330
1484
100
AcDbEntity
  8
DEFPOINTS
  6
ByBlock
 62
     0
100
AcDbPoint
 10
518.020523
 20
454.5558599999999
 30
0.0
  0
ENDBLK
  5
14B0
330
1484
100
AcDbEntity
  8
0
100
AcDbBlockEnd
  0
BLOCK
  5
14BF
330
14B3
100
AcDbEntity
  8
0
100
AcDbBlockBegin
  2
*D8
 70
     1
 10
0.0
 20
0.0
 30
0.0
  3
*D8
  1

  0
LINE
  5
14C0
330
14B3
100
AcDbEntity
  8
0
  6
ByBlock
100
AcDbLine
 10
399.020523
 20
235.11293
 30
0.0
 11
134.014818
 21
235.11293
 31
0.0
  0
LINE
  5
14C1
330
14B3
100
AcDbEntity
  8
0
  6
ByBlock
100
AcDbLine
 10
188.787523
 20
370.11293
 30
0.0
 11
134.014818
 21
370.11293
 31
0.0
  0
LINE
  5
14C2
330
14B3
100
AcDbEntity
  8
0
  6
ByBlock
100
AcDbLine
 10
139.014818
 20
247.61293
 30
0.0
 11
139.014818
 21
357.61293
 31
0.0
  0
SOLID
  5
14C3
330
14B3
100
AcDbEntity
  8
0
  6
ByBlock
100
AcDbTrace
 10
136.931485
 20
247.61293
 30
0.0
 11
141.098152
 21
247.61293
 31
0.0
 12
139.014818
 22
235.11293
 32
0.0
 13
139.014818
 23
235.11293
 33
0.0
  0
SOLID
  5
14C4
330
14B3
100
AcDbEntity
  8
0
  6
ByBlock
100
AcDbTrace
 10
136.931485
 20
357.61293
 30
0.0
 11
141.098152
 21
357.61293
 31
0.0
 12
139.014818
 22
370.11293
 32
0.0
 13
139.014818
 23
370.11293
 33
0.0
  0
MTEXT
  5
14C5
330
14B3
100
AcDbEntity
  8
0
  6
ByBlock
 62
     2
100
AcDbMText
 10
127.264818
 20
302.61293
 30
0.0
 40
17.5
 41
0.0
 71
     5
 72
     1
  1
135
 11
0.0
 21
1.0
 31
0.0
 73
     1
 44
1.0
1001
ACAD
1000
MTEXTBEGIN
1070
    73
1070
     1
1070
    44
1040
1.0
1070
    74
1070
     0
1000
MTEXTEND
  0
POINT
  5
14C6
330
14B3
100
AcDbEntity
  8
DEFPOINTS
  6
ByBlock
 62
     0
100
AcDbPoint
 10
404.020523
 20
235.11293
 30
0.0
  0
POINT
  5
14C7
330
14B3
100
AcDbEntity
  8
DEFPOINTS
  6
ByBlock
 62
     0
100
AcDbPoint
 10
193.787523
 20
370.11293
 30
0.0
  0
POINT
  5
14C8
330
14B3
100
AcDbEntity
  8
DEFPOINTS
  6
ByBlock
 62
     0
100
AcDbPoint
 10
139.014818
 20
370.11293
 30
0.0
  0
ENDBLK
  5
14C9
330
14B3
100
AcDbEntity
  8
0
100
AcDbBlockEnd
  0
BLOCK
  5
14E3
330
14CC
100
AcDbEntity
  8
0
100
AcDbBlockBegin
  2
*D9
 70
     1
 10
0.0
 20
0.0
 30
0.0
  3
*D9
  1

  0
LINE
  5
14E4
330
14CC
100
AcDbEntity
  8
0
  6
ByBlock
100
AcDbLine
 10
404.020523
 20
222.432125
 30
0.0
 11
404.020523
 21
182.36393
 31
0.0
  0
LINE
  5
14E5
330
14CC
100
AcDbEntity
  8
0
  6
ByBlock
100
AcDbLine
 10
714.020523
 20
285.11293
 30
0.0
 11
714.020523
 21
182.36393
 31
0.0
  0
LINE
  5
14E6
330
14CC
100
AcDbEntity
  8
0
  6
ByBlock
100
AcDbLine
 10
416.520523
 20
187.36393
 30
0.0
 11
701.520523
 21
187.36393
 31
0.0
  0
SOLID
  5
14E7
330
14CC
100
AcDbEntity
  8
0
  6
ByBlock
100
AcDbTrace
 10
416.520523
 20
189.447264
 30
0.0
 11
416.520523
 21
185.280597
 31
0.0
 12
404.020523
 22
187.36393
 32
0.0
 13
404.020523
 23
187.36393
 33
0.0
  0
SOLID
  5
14E8
330
14CC
100
AcDbEntity
  8
0
  6
ByBlock
100
AcDbTrace
 10
701.520523
 20
189.447264
 30
0.0
 11
701.520523
 21
185.280597
 31
0.0
 12
714.020523
 22
187.36393
 32
0.0
 13
714.020523
 23
187.36393
 33
0.0
  0
MTEXT
  5
14E9
330
14CC
100
AcDbEntity
  8
0
  6
ByBlock
 62
     2
100
AcDbMText
 10
559.020523
 20
199.11393
 30
0.0
 40
17.5
 41
0.0
 71
     5
 72
     1
  1
310
 73
     1
 44
1.0
1001
ACAD
1000
MTEXTBEGIN
1070
    73
1070
     1
1070
    44
1040
1.0
1070
    74
1070
     0
1000
MTEXTEND
  0
POINT
  5
14EA
330
14CC
100
AcDbEntity
  8
DEFPOINTS
  6
ByBlock
 62
     0
100
AcDbPoint
 10
404.020523
 20
227.432125
 30
0.0
  0
POINT
  5
14EB
330
14CC
100
AcDbEntity
  8
DEFPOINTS
  6
ByBlock
 62
     0
100
AcDbPoint
 10
714.020523
 20
290.11293
 30
0.0
  0
POINT
  5
14EC
330
14CC
100
AcDbEntity
  8
DEFPOINTS
  6
ByBlock
 62
     0
100
AcDbPoint
 10
714.020523
 20
187.36393
 30
0.0
  0
ENDBLK
  5
14ED
330
14CC
100
AcDbEntity
  8
0
100
AcDbBlockEnd
  0
BLOCK
  5
14FC
330
14F0
100
AcDbEntity
  8
0
100
AcDbBlockBegin
  2
*D10
 70
     1
 10
0.0
 20
0.0
 30
0.0
  3
*D10
  1

  0
LINE
  5
14FD
330
14F0
100
AcDbEntity
  8
0
  6
ByBlock
100
AcDbLine
 10
719.020523
 20
290.11293
 30
0.0
 11
770.052173
 21
290.11293
 31
0.0
  0
LINE
  5
14FE
330
14F0
100
AcDbEntity
  8
0
  6
ByBlock
100
AcDbLine
 10
622.6095230000001
 20
370.11293
 30
0.0
 11
770.052173
 21
370.11293
 31
0.0
  0
LINE
  5
14FF
330
14F0
100
AcDbEntity
  8
0
  6
ByBlock
100
AcDbLine
 10
765.052173
 20
302.61293
 30
0.0
 11
765.052173
 21
357.61293
 31
0.0
  0
SOLID
  5
1500
330
14F0
100
AcDbEntity
  8
0
  6
ByBlock
100
AcDbTrace
 10
762.96884
 20
302.61293
 30
0.0
 11
767.1355059999999
 21
302.61293
 31
0.0
 12
765.052173
 22
290.11293
 32
0.0
 13
765.052173
 23
290.11293
 33
0.0
  0
SOLID
  5
1501
330
14F0
100
AcDbEntity
  8
0
  6
ByBlock
100
AcDbTrace
 10
762.96884
 20
357.61293
 30
0.0
 11
767.1355059999999
 21
357.61293
 31
0.0
 12
765.052173
 22
370.11293
 32
0.0
 13
765.052173
 23
370.11293
 33
0.0
  0
MTEXT
  5
1502
330
14F0
100
AcDbEntity
  8
0
  6
ByBlock
 62
     2
100
AcDbMText
 10
753.302173
 20
330.11293
 30
0.0
 40
17.5
 41
0.0
 71
     5
 72
     1
  1
80
 11
0.0
 21
1.0
 31
0.0
 73
     1
 44
1.0
1001
ACAD
1000
MTEXTBEGIN
1070
    73
1070
     1
1070
    44
1040
1.0
1070
    74
1070
     0
1000
MTEXTEND
  0
POINT
  5
1503
330
14F0
100
AcDbEntity
  8
DEFPOINTS
  6
ByBlock
 62
     0
100
AcDbPoint
 10
714.020523
 20
290.11293
 30
0.0
  0
POINT
  5
1504
330
14F0
100
AcDbEntity
  8
DEFPOINTS
  6
ByBlock
 62
     0
100
AcDbPoint
 10
617.6095230000001
 20
370.11293
 30
0.0
  0
POINT
  5
1505
330
14F0
100
AcDbEntity
  8
DEFPOINTS
  6
ByBlock
 62
     0
100
AcDbPoint
 10
765.052173
 20
370.11293
 30
0.0
  0
ENDBLK
  5
1506
330
14F0
100
AcDbEntity
  8
0
100
AcDbBlockEnd
  0
BLOCK
  5
1587
330
1545
100
AcDbEntity
  8
0
100
AcDbBlockBegin
  2
*D11
 70
     1
 10
0.0
 20
0.0
 30
0.0
  3
*D11
  1
GEVFRAME
  0
LINE
  5
1588
330
1545
100
AcDbEntity
  8
0
  6
ByBlock
100
AcDbLine
 10
724.016911
 20
289.85095
 30
0.0
 11
810.8403219999999
 21
287.577487
 31
0.0
  0
ARC
  5
1589
330
1545
100
AcDbEntity
  8
0
  6
ByBlock
100
AcDbCircle
 10
714.0201189999999
 20
290.112715
 30
0.0
 40
91.85339
100
AcDbArc
 50
342.857163
 51
358.500058
  0
LINE
  5
158A
330
1545
100
AcDbEntity
  8
0
  6
ByBlock
100
AcDbLine
 10
801.7927289999999
 20
263.038483
 30
0.0
 11
790.739423
 21
227.204499
 31
0.0
  0
ARC
  5
158B
330
1545
100
AcDbEntity
  8
0
  6
ByBlock
100
AcDbCircle
 10
714.0201189999999
 20
290.112715
 30
0.0
 40
91.85339
100
AcDbArc
 50
342.893643
 51
350.696851
  0
ARC
  5
158C
330
1545
100
AcDbEntity
  8
0
  6
ByBlock
100
AcDbCircle
 10
714.0201189999999
 20
290.112715
 30
0.0
 40
91.85339
100
AcDbArc
 50
7.803207000000001
 51
15.606415
  0
ARC
  5
158D
330
1545
100
AcDbEntity
  8
0
  6
ByBlock
100
AcDbCircle
 10
714.0201189999999
 20
290.112715
 30
0.0
 40
91.85339
100
AcDbArc
 50
358.500058
 51
0.0
  0
SOLID
  5
158E
330
1545
100
AcDbEntity
  8
0
  6
ByBlock
100
AcDbTrace
 10
802.591263
 20
275.459988
 30
0.0
 11
806.739428
 21
275.067759
 31
0.0
 12
805.842035
 22
287.708366
 32
0.0
 13
805.842035
 23
287.708366
 33
0.0
  0
SOLID
  5
158F
330
1545
100
AcDbEntity
  8
0
  6
ByBlock
100
AcDbTrace
 10
807.1014729999999
 20
302.725501
 30
0.0
 11
802.944463
 21
302.441988
 31
0.0
 12
805.8735079999999
 22
290.112715
 32
0.0
 13
805.8735079999999
 23
290.112715
 33
0.0
  0
MTEXT
  5
1590
330
1545
100
AcDbEntity
  8
0
  6
ByBlock
 62
     2
100
AcDbMText
 10
785.0380939999999
 20
248.584861
 30
0.0
 40
17.5
 41
0.0
 71
     5
 72
     1
  1
1.5°
 11
0.2947549604506663
 21
0.9555728717841073
 31
0.0
 73
     1
 44
1.0
1001
ACAD
1000
MTEXTBEGIN
1070
    73
1070
     1
1070
    44
1040
1.0
1070
    74
1070
     0
1000
MTEXTEND
  0
POINT
  5
1591
330
1545
100
AcDbEntity
  8
DEFPOINTS
  6
ByBlock
 62
     0
100
AcDbPoint
 10
805.870011
 20
289.3111839999999
 30
0.0
  0
POINT
  5
1592
330
1545
100
AcDbEntity
  8
DEFPOINTS
  6
ByBlock
 62
     0
100
AcDbPoint
 10
596.310523
 20
293.19493
 30
0.0
  0
POINT
  5
1593
330
1545
100
AcDbEntity
  8
DEFPOINTS
  6
ByBlock
 62
     0
100
AcDbPoint
 10
0.0
 20
290.112715
 30
0.0
  0
POINT
  5
1594
330
1545
100
AcDbEntity
  8
DEFPOINTS
  6
ByBlock
 62
     0
100
AcDbPoint
 10
1050.0
 20
290.112715
 30
0.0
  0
POINT
  5
1595
330
1545
100
AcDbEntity
  8
DEFPOINTS
  6
ByBlock
 62
     0
100
AcDbPoint
 10
719.018625
 20
289.98183
 30
0.0
  0
ENDBLK
  5
1596
330
1545
100
AcDbEntity
  8
0
100
AcDbBlockEnd
  0
BLOCK
  5
16A9
330
16A7
100
AcDbEntity
  8
0
100
AcDbBlockBegin
  2
GENAXEH
 70
     0
 10
0.0
 20
0.0
 30
0.0
  3
GENAXEH
  1

  0
LINE
  5
16A8
330
16A7
100
AcDbEntity
  8
0
100
AcDbLine
 10
-1.0
 20
0.0
 30
0.0
 11
1.0
 21
0.0
 31
0.0
  0
ENDBLK
  5
16AA
330
16A7
100
AcDbEntity
  8
0
100
AcDbBlockEnd
  0
ENDSEC
  0
SECTION
  2
ENTITIES
  0
LINE
  5
1002
330
137A
100
AcDbEntity
  8
0
100
AcDbLine
 10
404.020523
 20
257.11293
 30
0.0
 11
404.020523
 21
248.11293
 31
0.0
  0
LINE
  5
100E
330
137A
100
AcDbEntity
  8
0
100
AcDbLine
 10
530.020523
 20
242.11293
 30
0.0
 11
530.020523
 21
329.61293
 31
0.0
  0
LINE
  5
1036
330
137A
100
AcDbEntity
  8
0
100
AcDbLine
 10
291.362523
 20
375.11293
 30
0.0
 11
341.842523
 21
375.11293
 31
0.0
  0
LINE
  5
1037
330
137A
100
AcDbEntity
  8
MAßLINIEN
 62
     4
 48
0.762
100
AcDbLine
 10
596.310523
 20
293.19493
 30
0.0
 11
719.018625
 21
289.98183
 31
0.0
  0
LINE
  5
1038
330
137A
100
AcDbEntity
  8
0
100
AcDbLine
 10
712.6335230000001
 20
237.15793
 30
0.0
 11
715.415523
 21
343.40393
 31
0.0
  0
LINE
  5
1039
330
137A
100
AcDbEntity
  8
0
100
AcDbLine
 10
626.5325230000001
 20
347.17193
 30
0.0
 11
709.455523
 21
345.00093
 31
0.0
  0
LINE
  5
103A
330
137A
100
AcDbEntity
  8
0
100
AcDbLine
 10
636.861523
 20
237.36393
 30
0.0
 11
706.588523
 21
235.53893
 31
0.0
  0
LINE
  5
103B
330
137A
100
AcDbEntity
  8
0
100
AcDbLine
 10
626.357523
 20
342.42493
 30
0.0
 11
690.337523
 21
340.74993
 31
0.0
  0
LINE
  5
103C
330
137A
100
AcDbEntity
  8
0
100
AcDbLine
 10
636.985523
 20
242.11293
 30
0.0
 11
687.719523
 21
240.78393
 31
0.0
  0
LINE
  5
103D
330
137A
100
AcDbEntity
  8
0
100
AcDbLine
 10
318.495523
 20
242.11293
 30
0.0
 11
636.985523
 21
242.11293
 31
0.0
  0
LINE
  5
103E
330
137A
100
AcDbEntity
  8
0
100
AcDbLine
 10
296.519523
 20
375.11293
 30
0.0
 11
298.498523
 21
261.76393
 31
0.0
  0
LINE
  5
103F
330
137A
100
AcDbEntity
  8
0
100
AcDbLine
 10
692.744523
 20
241.65293
 30
0.0
 11
695.309523
 21
339.61893
 31
0.0
  0
LINE
  5
1040
330
137A
100
AcDbEntity
  8
0
100
AcDbLine
 10
687.719523
 20
240.78393
 30
0.0
 11
690.337523
 21
340.74993
 31
0.0
  0
LINE
  5
1041
330
137A
100
AcDbEntity
  8
0
100
AcDbLine
 10
706.588523
 20
235.53893
 30
0.0
 11
712.6335230000001
 21
237.15793
 31
0.0
  0
LINE
  5
1042
330
137A
100
AcDbEntity
  8
0
100
AcDbLine
 10
709.455523
 20
345.00093
 30
0.0
 11
715.415523
 21
343.40393
 31
0.0
  0
LINE
  5
1043
330
137A
100
AcDbEntity
  8
0
100
AcDbLine
 10
695.309523
 20
339.61893
 30
0.0
 11
715.302523
 21
339.09593
 31
0.0
  0
LINE
  5
1044
330
137A
100
AcDbEntity
  8
0
100
AcDbLine
 10
692.744523
 20
241.65293
 30
0.0
 11
712.737523
 21
241.12993
 31
0.0
  0
LINE
  5
1045
330
137A
100
AcDbEntity
  8
0
100
AcDbLine
 10
687.719523
 20
240.78393
 30
0.0
 11
692.744523
 21
241.65293
 31
0.0
  0
LINE
  5
1046
330
137A
100
AcDbEntity
  8
0
100
AcDbLine
 10
690.337523
 20
340.74993
 30
0.0
 11
695.309523
 21
339.61893
 31
0.0
  0
LINE
  5
1047
330
137A
100
AcDbEntity
  8
0
100
AcDbLine
 10
511.432523
 20
370.11293
 30
0.0
 11
614.252523
 21
370.11293
 31
0.0
  0
LINE
  5
1048
330
137A
100
AcDbEntity
  8
0
100
AcDbLine
 10
522.2425229999999
 20
365.11293
 30
0.0
 11
610.057523
 21
365.11293
 31
0.0
  0
LINE
  5
1049
330
137A
100
AcDbEntity
  8
0
100
AcDbLine
 10
511.023523
 20
346.65793
 30
0.0
 11
511.5205229999999
 21
375.11293
 31
0.0
  0
LINE
  5
104A
330
137A
100
AcDbEntity
  8
0
100
AcDbLine
 10
492.020523
 20
344.78193
 30
0.0
 11
509.451523
 21
345.08593
 31
0.0
  0
LINE
  5
104B
330
137A
100
AcDbEntity
  8
0
100
AcDbLine
 10
492.020523
 20
344.7809299999999
 30
0.0
 11
492.020523
 21
341.11293
 31
0.0
  0
ARC
  5
104C
330
137A
100
AcDbEntity
  8
0
100
AcDbCircle
 10
509.423523
 20
346.68593
 30
0.0
 40
1.6
100
AcDbArc
 50
270.9990000000001
 51
358.999
  0
LINE
  5
104D
330
137A
100
AcDbEntity
  8
0
100
AcDbLine
 10
492.020523
 20
334.11293
 30
0.0
 11
530.020523
 21
334.11293
 31
0.0
  0
LINE
  5
104E
330
137A
100
AcDbEntity
  8
0
100
AcDbLine
 10
515.963523
 20
343.18293
 30
0.0
 11
516.243523
 21
359.21793
 31
0.0
  0
ARC
  5
104F
330
137A
100
AcDbEntity
  8
0
100
AcDbCircle
 10
522.2425229999999
 20
359.11293
 30
0.0
 40
6.0
100
AcDbArc
 50
90.0
 51
179.0
  0
LINE
  5
1050
330
137A
100
AcDbEntity
  8
0
100
AcDbLine
 10
519.962523
 20
339.11293
 30
0.0
 11
530.020523
 21
339.11293
 31
0.0
  0
LINE
  5
1051
330
137A
100
AcDbEntity
  8
0
100
AcDbLine
 10
530.020523
 20
329.61293
 30
0.0
 11
530.020523
 21
339.11293
 31
0.0
  0
ARC
  5
1052
330
137A
100
AcDbEntity
  8
0
100
AcDbCircle
 10
519.962523
 20
343.11293
 30
0.0
 40
4.0
100
AcDbArc
 50
179.0
 51
270.0
  0
LINE
  5
1054
330
137A
100
AcDbEntity
  8
0
100
AcDbLine
 10
193.787523
 20
370.11293
 30
0.0
 11
296.607523
 21
370.11293
 31
0.0
  0
ARC
  5
1055
330
137A
100
AcDbEntity
  8
0
100
AcDbCircle
 10
276.281523
 20
352.11293
 30
0.0
 40
10.0
100
AcDbArc
 50
190.0
 51
0.0
  0
LINE
  5
1056
330
137A
100
AcDbEntity
  8
0
100
AcDbLine
 10
189.019523
 20
362.11293
 30
0.0
 11
263.548523
 21
362.11293
 31
0.0
  0
LINE
  5
1057
330
137A
100
AcDbEntity
  8
0
100
AcDbLine
 10
189.019523
 20
362.11293
 30
0.0
 11
189.847523
 21
366.8069299999999
 31
0.0
  0
ARC
  5
1058
330
137A
100
AcDbEntity
  8
0
100
AcDbCircle
 10
193.787523
 20
366.11293
 30
0.0
 40
4.0
100
AcDbArc
 50
90.0
 51
170.0
  0
LINE
  5
1059
330
137A
100
AcDbEntity
  8
0
100
AcDbLine
 10
264.756523
 20
359.88493
 30
0.0
 11
266.433523
 21
350.37593
 31
0.0
  0
LINE
  5
105A
330
137A
100
AcDbEntity
  8
0
100
AcDbLine
 10
286.129523
 20
350.37593
 30
0.0
 11
288.120523
 21
361.66693
 31
0.0
  0
LINE
  5
105B
330
137A
100
AcDbEntity
  8
0
100
AcDbLine
 10
291.845523
 20
356.41993
 30
0.0
 11
293.494523
 21
261.92793
 31
0.0
  0
LINE
  5
105C
330
137A
100
AcDbEntity
  8
0
100
AcDbLine
 10
228.733523
 20
364.31293
 30
0.0
 11
286.055523
 21
362.31093
 31
0.0
  0
ARC
  5
105D
330
137A
100
AcDbEntity
  8
0
100
AcDbCircle
 10
228.594523
 20
360.31593
 30
0.0
 40
4.0
100
AcDbArc
 50
88.0
 51
153.302
  0
ARC
  5
105E
330
137A
100
AcDbEntity
  8
0
100
AcDbCircle
 10
285.846523
 20
356.31493
 30
0.0
 40
6.0
100
AcDbArc
 50
1.0
 51
88.0
  0
ARC
  5
105F
330
137A
100
AcDbEntity
  8
0
100
AcDbCircle
 10
260.817523
 20
359.18993
 30
0.0
 40
4.0
100
AcDbArc
 50
10.0
 51
88.0
  0
LINE
  5
1060
330
137A
100
AcDbEntity
  8
0
100
AcDbLine
 10
318.491523
 20
237.36393
 30
0.0
 11
378.283523
 21
237.36393
 31
0.0
  0
LINE
  5
1061
330
137A
100
AcDbEntity
  8
0
100
AcDbLine
 10
492.020523
 20
242.11293
 30
0.0
 11
492.020523
 21
240.11293
 31
0.0
  0
LINE
  5
1062
330
137A
100
AcDbEntity
  8
0
100
AcDbLine
 10
492.020523
 20
240.11293
 30
0.0
 11
404.020523
 21
240.11293
 31
0.0
  0
LINE
  5
1063
330
137A
100
AcDbEntity
  8
0
100
AcDbLine
 10
495.919523
 20
237.36393
 30
0.0
 11
636.861523
 21
237.36393
 31
0.0
  0
LINE
  5
1064
330
137A
100
AcDbEntity
  8
0
100
AcDbLine
 10
492.020523
 20
235.11293
 30
0.0
 11
404.020523
 21
235.11293
 31
0.0
  0
LINE
  5
1065
330
137A
100
AcDbEntity
  8
0
100
AcDbLine
 10
381.158523
 20
242.11293
 30
0.0
 11
404.019523
 21
240.11293
 31
0.0
  0
LINE
  5
1066
330
137A
100
AcDbEntity
  8
0
100
AcDbLine
 10
378.283523
 20
237.36393
 30
0.0
 11
404.019523
 21
235.11293
 31
0.0
  0
LINE
  5
1067
330
137A
100
AcDbEntity
  8
3A
100
AcDbLine
 10
378.283523
 20
237.36393
 30
0.0
 11
492.020523
 21
237.36393
 31
0.0
  0
LINE
  5
1068
330
137A
100
AcDbEntity
  8
0
100
AcDbLine
 10
492.020523
 20
235.11293
 30
0.0
 11
495.9205230000001
 21
237.36393
 31
0.0
  0
ARC
  5
1069
330
137A
100
AcDbEntity
  8
0
100
AcDbCircle
 10
318.491523
 20
262.36393
 30
0.0
 40
25.0
100
AcDbArc
 50
181.0
 51
270.0
  0
ARC
  5
106A
330
137A
100
AcDbEntity
  8
0
100
AcDbCircle
 10
318.495523
 20
262.11293
 30
0.0
 40
20.0
100
AcDbArc
 50
181.0
 51
270.0
  0
LINE
  5
1071
330
137A
100
AcDbEntity
  8
0
100
AcDbLine
 10
526.758523
 20
370.11293
 30
0.0
 11
526.758523
 21
375.11293
 31
0.0
  0
LINE
  5
1072
330
137A
100
AcDbEntity
  8
4
100
AcDbLine
 10
527.758523
 20
370.11293
 30
0.0
 11
527.758523
 21
375.11293
 31
0.0
  0
LINE
  5
1073
330
137A
100
AcDbEntity
  8
4
100
AcDbLine
 10
535.758523
 20
370.11293
 30
0.0
 11
535.758523
 21
375.11293
 31
0.0
  0
LINE
  5
1074
330
137A
100
AcDbEntity
  8
0
100
AcDbLine
 10
536.7585230000001
 20
370.11293
 30
0.0
 11
536.7585230000001
 21
375.11293
 31
0.0
  0
LINE
  5
1075
330
137A
100
AcDbEntity
  8
0
100
AcDbLine
 10
355.900523
 20
375.11293
 30
0.0
 11
354.539523
 21
370.11293
 31
0.0
  0
LINE
  5
1076
330
137A
100
AcDbEntity
  8
0
100
AcDbLine
 10
359.163523
 20
375.11293
 30
0.0
 11
357.799523
 21
370.11293
 31
0.0
  0
LINE
  5
1077
330
137A
100
AcDbEntity
  8
0
100
AcDbLine
 10
343.077523
 20
370.11293
 30
0.0
 11
357.799523
 21
370.11293
 31
0.0
  0
LINE
  5
1078
330
137A
100
AcDbEntity
  8
0
100
AcDbLine
 10
466.197523
 20
375.11293
 30
0.0
 11
464.962523
 21
370.11293
 31
0.0
  0
LINE
  5
1079
330
137A
100
AcDbEntity
  8
0
100
AcDbLine
 10
452.139523
 20
375.11293
 30
0.0
 11
453.500523
 21
370.11293
 31
0.0
  0
LINE
  5
107A
330
137A
100
AcDbEntity
  8
0
100
AcDbLine
 10
448.876523
 20
375.11293
 30
0.0
 11
450.240523
 21
370.11293
 31
0.0
  0
LINE
  5
107B
330
137A
100
AcDbEntity
  8
0
100
AcDbLine
 10
464.962523
 20
370.11293
 30
0.0
 11
450.240523
 21
370.11293
 31
0.0
  0
LINE
  5
107C
330
137A
100
AcDbEntity
  8
0
100
AcDbLine
 10
466.197523
 20
375.11293
 30
0.0
 11
516.677523
 21
375.11293
 31
0.0
  0
LINE
  5
107D
330
137A
100
AcDbEntity
  8
0
100
AcDbLine
 10
341.842523
 20
375.11293
 30
0.0
 11
343.077523
 21
370.11293
 31
0.0
  0
LINE
  5
107E
330
137A
100
AcDbEntity
  8
0
100
AcDbLine
 10
355.899523
 20
375.11293
 30
0.0
 11
452.140523
 21
375.11293
 31
0.0
  0
LINE
  5
107F
330
137A
100
AcDbEntity
  8
0
100
AcDbLine
 10
333.140523
 20
345.11293
 30
0.0
 11
366.574523
 21
345.11293
 31
0.0
  0
LINE
  5
1080
330
137A
100
AcDbEntity
  8
0
100
AcDbLine
 10
333.140523
 20
335.11293
 30
0.0
 11
366.574523
 21
335.11293
 31
0.0
  0
LINE
  5
1081
330
137A
100
AcDbEntity
  8
0
100
AcDbLine
 10
333.140523
 20
345.11293
 30
0.0
 11
333.140523
 21
335.11293
 31
0.0
  0
LINE
  5
1082
330
137A
100
AcDbEntity
  8
0
100
AcDbLine
 10
366.574523
 20
345.11293
 30
0.0
 11
366.574523
 21
335.11293
 31
0.0
  0
ARC
  5
1083
330
137A
100
AcDbEntity
  8
0
100
AcDbCircle
 10
349.857523
 20
413.9759299999999
 30
0.0
 40
70.86399999999999
100
AcDbArc
 50
256.355
 51
283.645
  0
ARC
  5
1084
330
137A
100
AcDbEntity
  8
0
100
AcDbCircle
 10
349.857523
 20
266.24893
 30
0.0
 40
70.86399999999999
100
AcDbArc
 50
76.355
 51
103.645
  0
LINE
  5
1085
330
137A
100
AcDbEntity
  8
0
100
AcDbLine
 10
618.192523
 20
366.8069299999999
 30
0.0
 11
620.7805229999999
 21
352.12793
 31
0.0
  0
LINE
  5
1086
330
137A
100
AcDbEntity
  8
0
100
AcDbLine
 10
613.996523
 20
361.80693
 30
0.0
 11
626.2515229999999
 21
292.30893
 31
0.0
  0
ARC
  5
1087
330
137A
100
AcDbEntity
  8
0
100
AcDbCircle
 10
626.689523
 20
353.16993
 30
0.0
 40
6.0
100
AcDbArc
 50
190.0
 51
268.5
  0
ARC
  5
1088
330
137A
100
AcDbEntity
  8
0
100
AcDbCircle
 10
610.057523
 20
361.11293
 30
0.0
 40
4.0
100
AcDbArc
 50
10.0
 51
90.0
  0
ARC
  5
1089
330
137A
100
AcDbEntity
  8
0
100
AcDbCircle
 10
614.252523
 20
366.11293
 30
0.0
 40
4.0
100
AcDbArc
 50
10.0
 51
90.00100000000001
  0
ARC
  5
108A
330
137A
100
AcDbEntity
  8
0
100
AcDbCircle
 10
626.645523
 20
353.42193
 30
0.0
 40
11.0
100
AcDbArc
 50
190.0
 51
268.5
  0
LINE
  5
108B
330
137A
100
AcDbEntity
  8
0
100
AcDbLine
 10
714.020523
 20
290.11293
 30
0.0
 11
724.612523
 21
290.11293
 31
0.0
  0
LINE
  5
108F
330
137A
100
AcDbEntity
  8
0
100
AcDbLine
 10
289.502523
 20
372.17893
 30
0.0
 11
289.786523
 21
373.79093
 31
0.0
  0
ARC
  5
1090
330
137A
100
AcDbEntity
  8
0
100
AcDbCircle
 10
291.362523
 20
373.51293
 30
0.0
 40
1.6
100
AcDbArc
 50
90.0
 51
170.0
  0
ARC
  5
1091
330
137A
100
AcDbEntity
  8
0
100
AcDbCircle
 10
287.040523
 20
372.61293
 30
0.0
 40
2.5
100
AcDbArc
 50
270.0
 51
350.0
  0
LINE
  5
1092
330
137A
100
AcDbEntity
  8
0
100
AcDbLine
 10
518.253523
 20
373.79093
 30
0.0
 11
518.537523
 21
372.17893
 31
0.0
  0
ARC
  5
1093
330
137A
100
AcDbEntity
  8
0
100
AcDbCircle
 10
520.999523
 20
372.61293
 30
0.0
 40
2.5
100
AcDbArc
 50
190.0
 51
269.999
  0
ARC
  5
1094
330
137A
100
AcDbEntity
  8
0
100
AcDbCircle
 10
516.677523
 20
373.51293
 30
0.0
 40
1.6
100
AcDbArc
 50
10.0
 51
90.00100000000001
  0
LINE
  5
10A9
330
137A
100
AcDbEntity
  8
0
100
AcDbLine
 10
558.411523
 20
387.11193
 30
0.0
 11
544.630523
 21
387.11293
 31
0.0
  0
LINE
  5
10AA
330
137A
100
AcDbEntity
  8
MAßLINIEN
 62
     4
100
AcDbLine
 10
404.020523
 20
396.09493
 30
0.0
 11
404.020523
 21
218.930185
 31
0.0
  0
LINE
  5
10AB
330
137A
100
AcDbEntity
  8
0
100
AcDbLine
 10
556.519523
 20
387.11293
 30
0.0
 11
576.520523
 21
387.11293
 31
0.0
  0
LINE
  5
10AC
330
137A
100
AcDbEntity
  8
0
100
AcDbLine
 10
404.020523
 20
387.11293
 30
0.0
 11
546.520523
 21
387.11293
 31
0.0
  0
LINE
  5
10AD
330
137A
100
AcDbEntity
  8
0
100
AcDbLine
 10
579.020523
 20
384.61293
 30
0.0
 11
579.020523
 21
377.61293
 31
0.0
  0
LINE
  5
10AE
330
137A
100
AcDbEntity
  8
0
100
AcDbLine
 10
404.020523
 20
375.11293
 30
0.0
 11
576.520523
 21
375.11293
 31
0.0
  0
ARC
  5
10AF
330
137A
100
AcDbEntity
  8
0
100
AcDbCircle
 10
576.520523
 20
384.61293
 30
0.0
 40
2.5
100
AcDbArc
 50
0.0
 51
90.0
  0
ARC
  5
10B0
330
137A
100
AcDbEntity
  8
0
100
AcDbCircle
 10
576.520523
 20
377.61293
 30
0.0
 40
2.5
100
AcDbArc
 50
270.0
 51
0.0
  0
LINE
  5
10B1
330
137A
100
AcDbEntity
  8
0
100
AcDbLine
 10
525.520523
 20
387.38093
 30
0.0
 11
525.520523
 21
387.11293
 31
0.0
  0
LINE
  5
10B2
330
137A
100
AcDbEntity
  8
0
100
AcDbLine
 10
404.020523
 20
383.11293
 30
0.0
 11
406.020523
 21
383.11293
 31
0.0
  0
ARC
  5
10B3
330
137A
100
AcDbEntity
  8
0
100
AcDbCircle
 10
521.520523
 20
387.11293
 30
0.0
 40
4.0
100
AcDbArc
 50
270.0
 51
0.0
  0
LINE
  5
10B4
330
137A
100
AcDbEntity
  8
0
100
AcDbLine
 10
404.020523
 20
383.11293
 30
0.0
 11
579.020523
 21
383.11293
 31
0.0
  0
ARC
  5
10B5
330
137A
100
AcDbEntity
  8
0
100
AcDbCircle
 10
348.438523
 20
387.11293
 30
0.0
 40
4.0
100
AcDbArc
 50
196.602
 51
270.0
  0
ARC
  5
10B6
330
137A
100
AcDbEntity
  8
0
100
AcDbCircle
 10
343.071523
 20
385.51293
 30
0.0
 40
1.6
100
AcDbArc
 50
16.602
 51
89.999
  0
LINE
  5
10B7
330
137A
100
AcDbEntity
  8
0
100
AcDbLine
 10
404.020523
 20
387.11293
 30
0.0
 11
231.519523
 21
387.11293
 31
0.0
  0
LINE
  5
10B8
330
137A
100
AcDbEntity
  8
0
100
AcDbLine
 10
229.019523
 20
384.61293
 30
0.0
 11
229.019523
 21
377.61293
 31
0.0
  0
LINE
  5
10B9
330
137A
100
AcDbEntity
  8
0
100
AcDbLine
 10
404.020523
 20
375.11293
 30
0.0
 11
231.519523
 21
375.11293
 31
0.0
  0
ARC
  5
10BA
330
137A
100
AcDbEntity
  8
0
100
AcDbCircle
 10
231.519523
 20
384.61293
 30
0.0
 40
2.5
100
AcDbArc
 50
90.0
 51
180.0
  0
ARC
  5
10BB
330
137A
100
AcDbEntity
  8
0
100
AcDbCircle
 10
231.519523
 20
377.61293
 30
0.0
 40
2.5
100
AcDbArc
 50
180.0
 51
270.0
  0
ARC
  5
10BC
330
137A
100
AcDbEntity
  8
0
100
AcDbCircle
 10
286.520523
 20
387.11293
 30
0.0
 40
4.0
100
AcDbArc
 50
180.0
 51
270.0
  0
LINE
  5
10BD
330
137A
100
AcDbEntity
  8
0
100
AcDbLine
 10
404.020523
 20
383.11293
 30
0.0
 11
229.019523
 21
383.11293
 31
0.0
  0
ARC
  5
10BE
330
137A
100
AcDbEntity
  8
0
100
AcDbCircle
 10
352.438523
 20
387.11293
 30
0.0
 40
4.0
100
AcDbArc
 50
270.0
 51
343.398
  0
ARC
  5
10BF
330
137A
100
AcDbEntity
  8
0
100
AcDbCircle
 10
357.804523
 20
385.51293
 30
0.0
 40
1.6
100
AcDbArc
 50
90.00100000000001
 51
163.398
  0
LINE
  5
10C0
330
137A
100
AcDbEntity
  8
0
100
AcDbLine
 10
286.520523
 20
383.11293
 30
0.0
 11
286.520523
 21
377.61293
 31
0.0
  0
ARC
  5
10C1
330
137A
100
AcDbEntity
  8
0
100
AcDbCircle
 10
284.020523
 20
377.61293
 30
0.0
 40
2.5
100
AcDbArc
 50
270.0
 51
0.0
  0
LINE
  5
10C2
330
137A
100
AcDbEntity
  8
0
100
AcDbLine
 10
521.520523
 20
383.11293
 30
0.0
 11
521.520523
 21
377.61293
 31
0.0
  0
ARC
  5
10C3
330
137A
100
AcDbEntity
  8
0
100
AcDbCircle
 10
524.0205229999999
 20
377.61293
 30
0.0
 40
2.5
100
AcDbArc
 50
180.0
 51
270.0
  0
LINE
  5
10C5
330
137A
100
AcDbEntity
  8
0
100
AcDbLine
 10
526.759523
 20
398.61293
 30
0.0
 11
527.7595230000001
 21
399.61293
 31
0.0
  0
LINE
  5
10C6
330
137A
100
AcDbEntity
  8
0
100
AcDbLine
 10
536.7575229999999
 20
398.61193
 30
0.0
 11
535.757523
 21
399.61193
 31
0.0
  0
LINE
  5
10C7
330
137A
100
AcDbEntity
  8
0
100
AcDbLine
 10
536.7585230000001
 20
398.61193
 30
0.0
 11
526.761523
 21
398.61193
 31
0.0
  0
LINE
  5
10C8
330
137A
100
AcDbEntity
  8
0
100
AcDbLine
 10
535.758523
 20
399.61193
 30
0.0
 11
527.761523
 21
399.61293
 31
0.0
  0
ARC
  5
10C9
330
137A
100
AcDbEntity
  8
0
100
AcDbCircle
 10
531.757523
 20
380.93793
 30
0.0
 40
14.175
100
AcDbArc
 50
70.533
 51
109.461
  0
ARC
  5
10CA
330
137A
100
AcDbEntity
  8
0
100
AcDbCircle
 10
531.758523
 20
401.2879299999999
 30
0.0
 40
14.175
100
AcDbArc
 50
250.525
 51
289.46
  0
LINE
  5
10CB
330
137A
100
AcDbEntity
  8
0
100
AcDbLine
 10
536.482523
 20
387.92393
 30
0.0
 11
536.4835229999999
 21
394.29993
 31
0.0
  0
LINE
  5
10CC
330
137A
100
AcDbEntity
  8
0
100
AcDbLine
 10
527.032523
 20
387.92493
 30
0.0
 11
527.033523
 21
394.30093
 31
0.0
  0
LINE
  5
10CD
330
137A
100
AcDbEntity
  8
0
100
AcDbLine
 10
538.649523
 20
387.11193
 30
0.0
 11
524.8675229999999
 21
387.11293
 31
0.0
  0
LINE
  5
10CE
330
137A
100
AcDbEntity
  8
0
100
AcDbLine
 10
538.846523
 20
395.11193
 30
0.0
 11
524.8685230000001
 21
395.11293
 31
0.0
  0
LINE
  5
10CF
330
137A
100
AcDbEntity
  8
0
100
AcDbLine
 10
541.206523
 20
387.92293
 30
0.0
 11
540.293523
 21
387.39593
 31
0.0
  0
ARC
  5
10D0
330
137A
100
AcDbEntity
  8
0
100
AcDbCircle
 10
538.845523
 20
390.95993
 30
0.0
 40
3.846999999999999
100
AcDbArc
 50
232.13
 51
292.11
  0
LINE
  5
10D1
330
137A
100
AcDbEntity
  8
0
100
AcDbLine
 10
541.207523
 20
387.92393
 30
0.0
 11
541.208523
 21
394.29993
 31
0.0
  0
ARC
  5
10D2
330
137A
100
AcDbEntity
  8
0
100
AcDbCircle
 10
538.845523
 20
391.26393
 30
0.0
 40
3.848
100
AcDbArc
 50
60.0
 51
127.859
  0
LINE
  5
10D3
330
137A
100
AcDbEntity
  8
0
100
AcDbLine
 10
541.206523
 20
394.30193
 30
0.0
 11
540.2965230000001
 21
394.82793
 31
0.0
  0
ARC
  5
10D4
330
137A
100
AcDbEntity
  8
0
100
AcDbCircle
 10
524.6705229999999
 20
390.9609299999999
 30
0.0
 40
3.848
100
AcDbArc
 50
247.969
 51
307.857
  0
LINE
  5
10D5
330
137A
100
AcDbEntity
  8
0
100
AcDbLine
 10
523.2275229999999
 20
387.3939299999999
 30
0.0
 11
522.309523
 21
387.92393
 31
0.0
  0
LINE
  5
10D6
330
137A
100
AcDbEntity
  8
0
100
AcDbLine
 10
522.307523
 20
387.92593
 30
0.0
 11
522.308523
 21
394.29993
 31
0.0
  0
LINE
  5
10D7
330
137A
100
AcDbEntity
  8
0
100
AcDbLine
 10
523.225523
 20
394.83093
 30
0.0
 11
522.309523
 21
394.30193
 31
0.0
  0
ARC
  5
10D8
330
137A
100
AcDbEntity
  8
0
100
AcDbCircle
 10
524.6705229999999
 20
391.26493
 30
0.0
 40
3.848
100
AcDbArc
 50
52.138
 51
112.063
  0
LINE
  5
10D9
330
137A
100
AcDbEntity
  8
0
100
AcDbLine
 10
526.758523
 20
395.11293
 30
0.0
 11
526.758523
 21
398.61093
 31
0.0
  0
LINE
  5
10DA
330
137A
100
AcDbEntity
  8
4
100
AcDbLine
 10
527.758523
 20
394.53693
 30
0.0
 11
527.758523
 21
399.60993
 31
0.0
  0
LINE
  5
10DB
330
137A
100
AcDbEntity
  8
4
100
AcDbLine
 10
535.757523
 20
395.11193
 30
0.0
 11
535.758523
 21
399.60993
 31
0.0
  0
LINE
  5
10DC
330
137A
100
AcDbEntity
  8
0
100
AcDbLine
 10
536.7575229999999
 20
395.11193
 30
0.0
 11
536.7585230000001
 21
398.60993
 31
0.0
  0
LINE
  5
10DD
330
137A
100
AcDbEntity
  8
0
100
AcDbLine
 10
521.503523
 20
387.88293
 30
0.0
 11
521.503523
 21
395.92893
 31
0.0
  0
LINE
  5
10DE
330
137A
100
AcDbEntity
  8
0
100
AcDbLine
 10
521.503523
 20
395.92893
 30
0.0
 11
525.782523
 21
395.92893
 31
0.0
  0
LINE
  5
10DF
330
137A
100
AcDbEntity
  8
0
100
AcDbLine
 10
525.782523
 20
395.92893
 30
0.0
 11
525.782523
 21
400.2629299999999
 31
0.0
  0
LINE
  5
10E0
330
137A
100
AcDbEntity
  8
0
100
AcDbLine
 10
525.782523
 20
400.2629299999999
 30
0.0
 11
531.758523
 21
400.2629299999999
 31
0.0
  0
LINE
  5
10E1
330
137A
100
AcDbEntity
  8
0
100
AcDbLine
 10
542.013523
 20
387.8819299999999
 30
0.0
 11
542.0145230000001
 21
395.92793
 31
0.0
  0
LINE
  5
10E2
330
137A
100
AcDbEntity
  8
0
100
AcDbLine
 10
542.0145230000001
 20
395.92793
 30
0.0
 11
537.735523
 21
395.92793
 31
0.0
  0
LINE
  5
10E3
330
137A
100
AcDbEntity
  8
0
100
AcDbLine
 10
537.735523
 20
395.92793
 30
0.0
 11
537.735523
 21
400.26193
 31
0.0
  0
LINE
  5
10E4
330
137A
100
AcDbEntity
  8
0
100
AcDbLine
 10
537.735523
 20
400.26193
 30
0.0
 11
531.758523
 21
400.2629299999999
 31
0.0
  0
LINE
  5
10E5
330
137A
100
AcDbEntity
  8
0
100
AcDbLine
 10
281.281523
 20
398.61193
 30
0.0
 11
280.280523
 21
399.61293
 31
0.0
  0
LINE
  5
10E6
330
137A
100
AcDbEntity
  8
0
100
AcDbLine
 10
271.282523
 20
398.61193
 30
0.0
 11
272.282523
 21
399.61293
 31
0.0
  0
LINE
  5
10E7
330
137A
100
AcDbEntity
  8
0
100
AcDbLine
 10
271.282523
 20
398.61093
 30
0.0
 11
281.279523
 21
398.61193
 31
0.0
  0
LINE
  5
10E8
330
137A
100
AcDbEntity
  8
0
100
AcDbLine
 10
272.282523
 20
399.61193
 30
0.0
 11
280.279523
 21
399.61293
 31
0.0
  0
ARC
  5
10E9
330
137A
100
AcDbEntity
  8
0
100
AcDbCircle
 10
276.282523
 20
380.93793
 30
0.0
 40
14.175
100
AcDbArc
 50
70.539
 51
109.467
  0
ARC
  5
10EA
330
137A
100
AcDbEntity
  8
0
100
AcDbCircle
 10
276.281523
 20
401.2879299999999
 30
0.0
 40
14.175
100
AcDbArc
 50
250.54
 51
289.475
  0
LINE
  5
10EB
330
137A
100
AcDbEntity
  8
0
100
AcDbLine
 10
271.557523
 20
387.92493
 30
0.0
 11
271.556523
 21
394.29993
 31
0.0
  0
LINE
  5
10EC
330
137A
100
AcDbEntity
  8
0
100
AcDbLine
 10
281.007523
 20
387.92493
 30
0.0
 11
281.006523
 21
394.30093
 31
0.0
  0
LINE
  5
10ED
330
137A
100
AcDbEntity
  8
0
100
AcDbLine
 10
269.391523
 20
387.11193
 30
0.0
 11
283.172523
 21
387.11293
 31
0.0
  0
LINE
  5
10EE
330
137A
100
AcDbEntity
  8
0
100
AcDbLine
 10
269.194523
 20
395.11193
 30
0.0
 11
283.171523
 21
395.11293
 31
0.0
  0
LINE
  5
10EF
330
137A
100
AcDbEntity
  8
0
100
AcDbLine
 10
266.833523
 20
387.92293
 30
0.0
 11
267.746523
 21
387.39593
 31
0.0
  0
ARC
  5
10F0
330
137A
100
AcDbEntity
  8
0
100
AcDbCircle
 10
269.194523
 20
390.95993
 30
0.0
 40
3.846999999999999
100
AcDbArc
 50
247.89
 51
307.869
  0
LINE
  5
10F1
330
137A
100
AcDbEntity
  8
0
100
AcDbLine
 10
266.832523
 20
387.92393
 30
0.0
 11
266.831523
 21
394.29993
 31
0.0
  0
ARC
  5
10F2
330
137A
100
AcDbEntity
  8
0
100
AcDbCircle
 10
269.194523
 20
391.26393
 30
0.0
 40
3.848
100
AcDbArc
 50
52.14100000000001
 51
120.0
  0
LINE
  5
10F3
330
137A
100
AcDbEntity
  8
0
100
AcDbLine
 10
266.833523
 20
394.30193
 30
0.0
 11
267.744523
 21
394.82793
 31
0.0
  0
ARC
  5
10F4
330
137A
100
AcDbEntity
  8
0
100
AcDbCircle
 10
283.369523
 20
390.9609299999999
 30
0.0
 40
3.848
100
AcDbArc
 50
232.143
 51
292.031
  0
LINE
  5
10F5
330
137A
100
AcDbEntity
  8
0
100
AcDbLine
 10
284.813523
 20
387.3939299999999
 30
0.0
 11
285.731523
 21
387.92393
 31
0.0
  0
LINE
  5
10F6
330
137A
100
AcDbEntity
  8
0
100
AcDbLine
 10
285.732523
 20
387.92593
 30
0.0
 11
285.732523
 21
394.29993
 31
0.0
  0
LINE
  5
10F7
330
137A
100
AcDbEntity
  8
0
100
AcDbLine
 10
284.814523
 20
394.83093
 30
0.0
 11
285.730523
 21
394.30193
 31
0.0
  0
ARC
  5
10F8
330
137A
100
AcDbEntity
  8
0
100
AcDbCircle
 10
283.369523
 20
391.26493
 30
0.0
 40
3.848
100
AcDbArc
 50
67.937
 51
127.862
  0
LINE
  5
10F9
330
137A
100
AcDbEntity
  8
0
100
AcDbLine
 10
281.281523
 20
395.11293
 30
0.0
 11
281.281523
 21
398.61093
 31
0.0
  0
LINE
  5
10FA
330
137A
100
AcDbEntity
  8
4
100
AcDbLine
 10
280.281523
 20
394.53693
 30
0.0
 11
280.281523
 21
399.60993
 31
0.0
  0
LINE
  5
10FB
330
137A
100
AcDbEntity
  8
4
100
AcDbLine
 10
272.282523
 20
395.11193
 30
0.0
 11
272.282523
 21
399.60993
 31
0.0
  0
LINE
  5
10FC
330
137A
100
AcDbEntity
  8
0
100
AcDbLine
 10
271.282523
 20
395.11193
 30
0.0
 11
271.282523
 21
398.60993
 31
0.0
  0
LINE
  5
10FD
330
137A
100
AcDbEntity
  8
0
100
AcDbLine
 10
286.537523
 20
387.88293
 30
0.0
 11
286.537523
 21
395.92893
 31
0.0
  0
LINE
  5
10FE
330
137A
100
AcDbEntity
  8
0
100
AcDbLine
 10
286.537523
 20
395.92893
 30
0.0
 11
282.2585230000001
 21
395.92893
 31
0.0
  0
LINE
  5
10FF
330
137A
100
AcDbEntity
  8
0
100
AcDbLine
 10
282.2585230000001
 20
395.92893
 30
0.0
 11
282.2585230000001
 21
400.2629299999999
 31
0.0
  0
LINE
  5
1100
330
137A
100
AcDbEntity
  8
0
100
AcDbLine
 10
282.2585230000001
 20
400.2629299999999
 30
0.0
 11
276.281523
 21
400.2629299999999
 31
0.0
  0
LINE
  5
1101
330
137A
100
AcDbEntity
  8
0
100
AcDbLine
 10
266.026523
 20
387.8819299999999
 30
0.0
 11
266.025523
 21
395.92793
 31
0.0
  0
LINE
  5
1102
330
137A
100
AcDbEntity
  8
0
100
AcDbLine
 10
266.025523
 20
395.92793
 30
0.0
 11
270.304523
 21
395.92793
 31
0.0
  0
LINE
  5
1103
330
137A
100
AcDbEntity
  8
0
100
AcDbLine
 10
270.304523
 20
395.92793
 30
0.0
 11
270.304523
 21
400.26193
 31
0.0
  0
LINE
  5
1104
330
137A
100
AcDbEntity
  8
0
100
AcDbLine
 10
270.304523
 20
400.26193
 30
0.0
 11
276.281523
 21
400.2629299999999
 31
0.0
  0
LINE
  5
1105
330
137A
100
AcDbEntity
  8
0
100
AcDbLine
 10
430.672523
 20
387.11193
 30
0.0
 11
416.891523
 21
387.11293
 31
0.0
  0
LINE
  5
1106
330
137A
100
AcDbEntity
  8
0
100
AcDbLine
 10
397.781523
 20
387.38093
 30
0.0
 11
397.781523
 21
387.11293
 31
0.0
  0
LINE
  5
1108
330
137A
100
AcDbEntity
  8
0
100
AcDbLine
 10
399.020523
 20
398.61293
 30
0.0
 11
400.020523
 21
399.61293
 31
0.0
  0
LINE
  5
1109
330
137A
100
AcDbEntity
  8
0
100
AcDbLine
 10
409.018523
 20
398.61193
 30
0.0
 11
408.018523
 21
399.61293
 31
0.0
  0
LINE
  5
110A
330
137A
100
AcDbEntity
  8
0
100
AcDbLine
 10
409.0195229999999
 20
398.61193
 30
0.0
 11
399.022523
 21
398.61193
 31
0.0
  0
LINE
  5
110B
330
137A
100
AcDbEntity
  8
0
100
AcDbLine
 10
408.019523
 20
399.61193
 30
0.0
 11
400.0225229999999
 21
399.61293
 31
0.0
  0
ARC
  5
110C
330
137A
100
AcDbEntity
  8
0
100
AcDbCircle
 10
404.018523
 20
380.93793
 30
0.0
 40
14.175
100
AcDbArc
 50
70.533
 51
109.461
  0
ARC
  5
110D
330
137A
100
AcDbEntity
  8
0
100
AcDbCircle
 10
404.020523
 20
401.2879299999999
 30
0.0
 40
14.175
100
AcDbArc
 50
250.525
 51
289.46
  0
LINE
  5
110E
330
137A
100
AcDbEntity
  8
0
100
AcDbLine
 10
408.744523
 20
387.92393
 30
0.0
 11
408.744523
 21
394.29993
 31
0.0
  0
LINE
  5
110F
330
137A
100
AcDbEntity
  8
0
100
AcDbLine
 10
399.2945230000001
 20
387.92493
 30
0.0
 11
399.2945230000001
 21
394.30093
 31
0.0
  0
LINE
  5
1110
330
137A
100
AcDbEntity
  8
0
100
AcDbLine
 10
410.9105229999999
 20
387.11193
 30
0.0
 11
397.129523
 21
387.11293
 31
0.0
  0
LINE
  5
1111
330
137A
100
AcDbEntity
  8
0
100
AcDbLine
 10
411.1075229999999
 20
395.11193
 30
0.0
 11
397.129523
 21
395.11293
 31
0.0
  0
LINE
  5
1112
330
137A
100
AcDbEntity
  8
0
100
AcDbLine
 10
413.467523
 20
387.92293
 30
0.0
 11
412.5555229999999
 21
387.39593
 31
0.0
  0
ARC
  5
1113
330
137A
100
AcDbEntity
  8
0
100
AcDbCircle
 10
411.1065229999999
 20
390.95993
 30
0.0
 40
3.846999999999999
100
AcDbArc
 50
232.13
 51
292.11
  0
LINE
  5
1114
330
137A
100
AcDbEntity
  8
0
100
AcDbLine
 10
413.469523
 20
387.92393
 30
0.0
 11
413.469523
 21
394.29993
 31
0.0
  0
ARC
  5
1115
330
137A
100
AcDbEntity
  8
0
100
AcDbCircle
 10
411.1065229999999
 20
391.26393
 30
0.0
 40
3.848
100
AcDbArc
 50
60.0
 51
127.859
  0
LINE
  5
1116
330
137A
100
AcDbEntity
  8
0
100
AcDbLine
 10
413.468523
 20
394.30193
 30
0.0
 11
412.5575229999999
 21
394.82793
 31
0.0
  0
ARC
  5
1117
330
137A
100
AcDbEntity
  8
0
100
AcDbCircle
 10
396.931523
 20
390.9609299999999
 30
0.0
 40
3.848
100
AcDbArc
 50
247.969
 51
307.857
  0
LINE
  5
1118
330
137A
100
AcDbEntity
  8
0
100
AcDbLine
 10
395.488523
 20
387.3939299999999
 30
0.0
 11
394.570523
 21
387.92393
 31
0.0
  0
LINE
  5
1119
330
137A
100
AcDbEntity
  8
0
100
AcDbLine
 10
394.568523
 20
387.92593
 30
0.0
 11
394.569523
 21
394.29993
 31
0.0
  0
LINE
  5
111A
330
137A
100
AcDbEntity
  8
0
100
AcDbLine
 10
395.486523
 20
394.83093
 30
0.0
 11
394.570523
 21
394.30193
 31
0.0
  0
ARC
  5
111B
330
137A
100
AcDbEntity
  8
0
100
AcDbCircle
 10
396.931523
 20
391.26493
 30
0.0
 40
3.848
100
AcDbArc
 50
52.138
 51
112.063
  0
LINE
  5
111C
330
137A
100
AcDbEntity
  8
0
100
AcDbLine
 10
399.019523
 20
395.11293
 30
0.0
 11
399.019523
 21
398.61093
 31
0.0
  0
LINE
  5
111D
330
137A
100
AcDbEntity
  8
4
100
AcDbLine
 10
400.019523
 20
394.53693
 30
0.0
 11
400.019523
 21
399.60993
 31
0.0
  0
LINE
  5
111E
330
137A
100
AcDbEntity
  8
4
100
AcDbLine
 10
408.019523
 20
395.11193
 30
0.0
 11
408.019523
 21
399.60993
 31
0.0
  0
LINE
  5
111F
330
137A
100
AcDbEntity
  8
0
100
AcDbLine
 10
409.0195229999999
 20
395.11193
 30
0.0
 11
409.0195229999999
 21
398.60993
 31
0.0
  0
LINE
  5
1120
330
137A
100
AcDbEntity
  8
0
100
AcDbLine
 10
393.764523
 20
387.88293
 30
0.0
 11
393.764523
 21
395.92893
 31
0.0
  0
LINE
  5
1121
330
137A
100
AcDbEntity
  8
0
100
AcDbLine
 10
393.764523
 20
395.92893
 30
0.0
 11
398.043523
 21
395.92893
 31
0.0
  0
LINE
  5
1122
330
137A
100
AcDbEntity
  8
0
100
AcDbLine
 10
398.043523
 20
395.92893
 30
0.0
 11
398.043523
 21
400.2629299999999
 31
0.0
  0
LINE
  5
1123
330
137A
100
AcDbEntity
  8
0
100
AcDbLine
 10
398.043523
 20
400.2629299999999
 30
0.0
 11
404.020523
 21
400.2629299999999
 31
0.0
  0
LINE
  5
1124
330
137A
100
AcDbEntity
  8
0
100
AcDbLine
 10
414.274523
 20
387.8819299999999
 30
0.0
 11
414.275523
 21
395.92793
 31
0.0
  0
LINE
  5
1125
330
137A
100
AcDbEntity
  8
0
100
AcDbLine
 10
414.275523
 20
395.92793
 30
0.0
 11
409.996523
 21
395.92793
 31
0.0
  0
LINE
  5
1126
330
137A
100
AcDbEntity
  8
0
100
AcDbLine
 10
409.996523
 20
395.92793
 30
0.0
 11
409.996523
 21
400.26193
 31
0.0
  0
LINE
  5
1127
330
137A
100
AcDbEntity
  8
0
100
AcDbLine
 10
409.996523
 20
400.26193
 30
0.0
 11
404.020523
 21
400.2629299999999
 31
0.0
  0
ARC
  5
1128
330
137A
100
AcDbEntity
  8
0
100
AcDbCircle
 10
459.601523
 20
387.11293
 30
0.0
 40
4.0
100
AcDbArc
 50
270.0
 51
343.398
  0
ARC
  5
1129
330
137A
100
AcDbEntity
  8
0
100
AcDbCircle
 10
464.9685230000001
 20
385.51293
 30
0.0
 40
1.6
100
AcDbArc
 50
90.00100000000001
 51
163.398
  0
ARC
  5
112A
330
137A
100
AcDbEntity
  8
0
100
AcDbCircle
 10
455.601523
 20
387.11293
 30
0.0
 40
4.0
100
AcDbArc
 50
196.602
 51
270.0
  0
ARC
  5
112B
330
137A
100
AcDbEntity
  8
0
100
AcDbCircle
 10
450.235523
 20
385.51293
 30
0.0
 40
1.6
100
AcDbArc
 50
16.602
 51
89.999
  0
DIMENSION
  5
1180
330
137A
100
AcDbEntity
  8
5
100
AcDbDimension
  2
*D6
 10
619.020523
 20
489.5558599999999
 30
0.0
 11
404.020523
 21
501.3058599999999
 31
0.0
 70
    32
  1
%%c 430
 71
     5
 42
-1.0
  3
GEN-ISO
100
AcDbAlignedDimension
 13
189.020523
 23
362.11293
 33
0.0
 14
619.020523
 24
362.11293
 34
0.0
100
AcDbRotatedDimension
  0
DIMENSION
  5
118A
330
137A
100
AcDbEntity
  8
5
100
AcDbDimension
  2
*D8
 10
139.014818
 20
370.11293
 30
0.0
 11
127.264818
 21
302.61293
 31
0.0
 70
    32
  1
135
 71
     5
 42
-1.0
  3
GEN-ISO
100
AcDbAlignedDimension
 13
404.020523
 23
235.11293
 33
0.0
 14
193.787523
 24
370.11293
 34
0.0
 50
90.0
100
AcDbRotatedDimension
  0
DIMENSION
  5
1194
330
137A
100
AcDbEntity
  8
5
100
AcDbDimension
  2
*D10
 10
765.052173
 20
370.11293
 30
0.0
 11
753.302173
 21
330.11293
 31
0.0
 70
    32
  1
80
 71
     5
 42
-1.0
  3
GEN-ISO
100
AcDbAlignedDimension
 13
714.020523
 23
290.11293
 33
0.0
 14
617.6095230000001
 24
370.11293
 34
0.0
 50
90.0
100
AcDbRotatedDimension
  0
DIMENSION
  5
11A9
330
137A
100
AcDbEntity
  8
5
100
AcDbDimension
  2
*D9
 10
714.020523
 20
187.36393
 30
0.0
 11
559.020523
 21
199.11393
 31
0.0
 70
    32
  1
310
 71
     5
 42
-1.0
  3
GEN-ISO
100
AcDbAlignedDimension
 13
404.020523
 23
227.432125
 33
0.0
 14
714.020523
 24
290.11293
 34
0.0
100
AcDbRotatedDimension
  0
POLYLINE
  5
11AA
330
137A
100
AcDbEntity
  8
SCHRAFFUR_RAND
100
AcDb2dPolyline
 66
     1
 10
0.0
 20
0.0
 30
0.0
 70
     1
  0
VERTEX
  5
11AB
330
11AA
100
AcDbEntity
  8
SCHRAFFUR_RAND
100
AcDbVertex
100
AcDb2dVertex
 10
381.158523
 20
242.11293
 30
0.0
  0
VERTEX
  5
11AC
330
11AA
100
AcDbEntity
  8
SCHRAFFUR_RAND
100
AcDbVertex
100
AcDb2dVertex
 10
318.495523
 20
242.11293
 30
0.0
  0
VERTEX
  5
11AD
330
11AA
100
AcDbEntity
  8
SCHRAFFUR_RAND
100
AcDbVertex
100
AcDb2dVertex
 10
313.342523
 20
242.65293
 30
0.0
  0
VERTEX
  5
11AE
330
11AA
100
AcDbEntity
  8
SCHRAFFUR_RAND
100
AcDbVertex
100
AcDb2dVertex
 10
308.531523
 20
244.62093
 30
0.0
  0
VERTEX
  5
11AF
330
11AA
100
AcDbEntity
  8
SCHRAFFUR_RAND
100
AcDbVertex
100
AcDb2dVertex
 10
304.385523
 20
247.75493
 30
0.0
  0
VERTEX
  5
11B0
330
11AA
100
AcDbEntity
  8
SCHRAFFUR_RAND
100
AcDbVertex
100
AcDb2dVertex
 10
301.180523
 20
251.84493
 30
0.0
  0
VERTEX
  5
11B1
330
11AA
100
AcDbEntity
  8
SCHRAFFUR_RAND
100
AcDbVertex
100
AcDb2dVertex
 10
299.128523
 20
256.61993
 30
0.0
  0
VERTEX
  5
11B2
330
11AA
100
AcDbEntity
  8
SCHRAFFUR_RAND
100
AcDbVertex
100
AcDb2dVertex
 10
298.498523
 20
261.76393
 30
0.0
  0
VERTEX
  5
11B3
330
11AA
100
AcDbEntity
  8
SCHRAFFUR_RAND
100
AcDbVertex
100
AcDb2dVertex
 10
296.607523
 20
370.11293
 30
0.0
  0
VERTEX
  5
11B4
330
11AA
100
AcDbEntity
  8
SCHRAFFUR_RAND
100
AcDbVertex
100
AcDb2dVertex
 10
288.221523
 20
370.26193
 30
0.0
  0
VERTEX
  5
11B5
330
11AA
100
AcDbEntity
  8
SCHRAFFUR_RAND
100
AcDbVertex
100
AcDb2dVertex
 10
287.040523
 20
370.11293
 30
0.0
  0
VERTEX
  5
11B6
330
11AA
100
AcDbEntity
  8
SCHRAFFUR_RAND
100
AcDbVertex
100
AcDb2dVertex
 10
193.787523
 20
370.11293
 30
0.0
  0
VERTEX
  5
11B7
330
11AA
100
AcDbEntity
  8
SCHRAFFUR_RAND
100
AcDbVertex
100
AcDb2dVertex
 10
191.933523
 20
369.80393
 30
0.0
  0
VERTEX
  5
11B8
330
11AA
100
AcDbEntity
  8
SCHRAFFUR_RAND
100
AcDbVertex
100
AcDb2dVertex
 10
190.473523
 20
368.57893
 30
0.0
  0
VERTEX
  5
11B9
330
11AA
100
AcDbEntity
  8
SCHRAFFUR_RAND
100
AcDbVertex
100
AcDb2dVertex
 10
189.847523
 20
366.8069299999999
 30
0.0
  0
VERTEX
  5
11BA
330
11AA
100
AcDbEntity
  8
SCHRAFFUR_RAND
100
AcDbVertex
100
AcDb2dVertex
 10
189.019523
 20
362.11293
 30
0.0
  0
VERTEX
  5
11BB
330
11AA
100
AcDbEntity
  8
SCHRAFFUR_RAND
100
AcDbVertex
100
AcDb2dVertex
 10
225.020523
 20
362.11293
 30
0.0
  0
VERTEX
  5
11BC
330
11AA
100
AcDbEntity
  8
SCHRAFFUR_RAND
100
AcDbVertex
100
AcDb2dVertex
 10
225.855523
 20
363.40693
 30
0.0
  0
VERTEX
  5
11BD
330
11AA
100
AcDbEntity
  8
SCHRAFFUR_RAND
100
AcDbVertex
100
AcDb2dVertex
 10
227.197523
 20
364.20293
 30
0.0
  0
VERTEX
  5
11BE
330
11AA
100
AcDbEntity
  8
SCHRAFFUR_RAND
100
AcDbVertex
100
AcDb2dVertex
 10
228.733523
 20
364.31293
 30
0.0
  0
VERTEX
  5
11BF
330
11AA
100
AcDbEntity
  8
SCHRAFFUR_RAND
100
AcDbVertex
100
AcDb2dVertex
 10
260.956523
 20
363.18793
 30
0.0
  0
VERTEX
  5
11C0
330
11AA
100
AcDbEntity
  8
SCHRAFFUR_RAND
100
AcDbVertex
100
AcDb2dVertex
 10
286.055523
 20
362.31093
 30
0.0
  0
VERTEX
  5
11C1
330
11AA
100
AcDbEntity
  8
SCHRAFFUR_RAND
100
AcDbVertex
100
AcDb2dVertex
 10
288.120523
 20
361.66593
 30
0.0
  0
VERTEX
  5
11C2
330
11AA
100
AcDbEntity
  8
SCHRAFFUR_RAND
100
AcDbVertex
100
AcDb2dVertex
 10
290.219523
 20
360.61193
 30
0.0
  0
VERTEX
  5
11C3
330
11AA
100
AcDbEntity
  8
SCHRAFFUR_RAND
100
AcDbVertex
100
AcDb2dVertex
 10
291.500523
 20
358.68593
 30
0.0
  0
VERTEX
  5
11C4
330
11AA
100
AcDbEntity
  8
SCHRAFFUR_RAND
100
AcDbVertex
100
AcDb2dVertex
 10
291.845523
 20
356.41993
 30
0.0
  0
VERTEX
  5
11C5
330
11AA
100
AcDbEntity
  8
SCHRAFFUR_RAND
100
AcDbVertex
100
AcDb2dVertex
 10
293.494523
 20
261.92793
 30
0.0
  0
VERTEX
  5
11C6
330
11AA
100
AcDbEntity
  8
SCHRAFFUR_RAND
100
AcDbVertex
100
AcDb2dVertex
 10
294.314523
 20
255.50793
 30
0.0
  0
VERTEX
  5
11C7
330
11AA
100
AcDbEntity
  8
SCHRAFFUR_RAND
100
AcDbVertex
100
AcDb2dVertex
 10
296.875523
 20
249.54693
 30
0.0
  0
VERTEX
  5
11C8
330
11AA
100
AcDbEntity
  8
SCHRAFFUR_RAND
100
AcDbVertex
100
AcDb2dVertex
 10
300.876523
 20
244.43993
 30
0.0
  0
VERTEX
  5
11C9
330
11AA
100
AcDbEntity
  8
SCHRAFFUR_RAND
100
AcDbVertex
100
AcDb2dVertex
 10
306.052523
 20
240.52793
 30
0.0
  0
VERTEX
  5
11CA
330
11AA
100
AcDbEntity
  8
SCHRAFFUR_RAND
100
AcDbVertex
100
AcDb2dVertex
 10
312.057523
 20
238.07093
 30
0.0
  0
VERTEX
  5
11CB
330
11AA
100
AcDbEntity
  8
SCHRAFFUR_RAND
100
AcDbVertex
100
AcDb2dVertex
 10
318.491523
 20
237.36393
 30
0.0
  0
VERTEX
  5
11CC
330
11AA
100
AcDbEntity
  8
SCHRAFFUR_RAND
100
AcDbVertex
100
AcDb2dVertex
 10
378.283523
 20
237.36393
 30
0.0
  0
VERTEX
  5
11CD
330
11AA
100
AcDbEntity
  8
SCHRAFFUR_RAND
100
AcDbVertex
100
AcDb2dVertex
 10
404.020523
 20
235.11293
 30
0.0
  0
VERTEX
  5
11CE
330
11AA
100
AcDbEntity
  8
SCHRAFFUR_RAND
100
AcDbVertex
100
AcDb2dVertex
 10
492.020523
 20
235.11293
 30
0.0
  0
VERTEX
  5
11CF
330
11AA
100
AcDbEntity
  8
SCHRAFFUR_RAND
100
AcDbVertex
100
AcDb2dVertex
 10
495.919523
 20
237.36393
 30
0.0
  0
VERTEX
  5
11D0
330
11AA
100
AcDbEntity
  8
SCHRAFFUR_RAND
100
AcDbVertex
100
AcDb2dVertex
 10
636.861523
 20
237.36393
 30
0.0
  0
VERTEX
  5
11D1
330
11AA
100
AcDbEntity
  8
SCHRAFFUR_RAND
100
AcDbVertex
100
AcDb2dVertex
 10
706.5895230000001
 20
235.53793
 30
0.0
  0
VERTEX
  5
11D2
330
11AA
100
AcDbEntity
  8
SCHRAFFUR_RAND
100
AcDbVertex
100
AcDb2dVertex
 10
712.6335230000001
 20
237.15793
 30
0.0
  0
VERTEX
  5
11D3
330
11AA
100
AcDbEntity
  8
SCHRAFFUR_RAND
100
AcDbVertex
100
AcDb2dVertex
 10
712.737523
 20
241.1289299999999
 30
0.0
  0
VERTEX
  5
11D4
330
11AA
100
AcDbEntity
  8
SCHRAFFUR_RAND
100
AcDbVertex
100
AcDb2dVertex
 10
692.744523
 20
241.65293
 30
0.0
  0
VERTEX
  5
11D5
330
11AA
100
AcDbEntity
  8
SCHRAFFUR_RAND
100
AcDbVertex
100
AcDb2dVertex
 10
687.719523
 20
240.78393
 30
0.0
  0
VERTEX
  5
11D6
330
11AA
100
AcDbEntity
  8
SCHRAFFUR_RAND
100
AcDbVertex
100
AcDb2dVertex
 10
636.985523
 20
242.11293
 30
0.0
  0
VERTEX
  5
11D7
330
11AA
100
AcDbEntity
  8
SCHRAFFUR_RAND
100
AcDbVertex
100
AcDb2dVertex
 10
525.383523
 20
242.11293
 30
0.0
  0
VERTEX
  5
11D8
330
11AA
100
AcDbEntity
  8
SCHRAFFUR_RAND
100
AcDbVertex
100
AcDb2dVertex
 10
518.769523
 20
242.11293
 30
0.0
  0
VERTEX
  5
11D9
330
11AA
100
AcDbEntity
  8
SCHRAFFUR_RAND
100
AcDbVertex
100
AcDb2dVertex
 10
492.020523
 20
242.11293
 30
0.0
  0
VERTEX
  5
11DA
330
11AA
100
AcDbEntity
  8
SCHRAFFUR_RAND
100
AcDbVertex
100
AcDb2dVertex
 10
492.020523
 20
240.11293
 30
0.0
  0
VERTEX
  5
11DB
330
11AA
100
AcDbEntity
  8
SCHRAFFUR_RAND
100
AcDbVertex
100
AcDb2dVertex
 10
404.020523
 20
240.11293
 30
0.0
  0
VERTEX
  5
11DC
330
11AA
100
AcDbEntity
  8
SCHRAFFUR_RAND
100
AcDbVertex
100
AcDb2dVertex
 10
381.158523
 20
242.11293
 30
0.0
  0
SEQEND
  5
11DD
330
11AA
100
AcDbEntity
  8
SCHRAFFUR_RAND
  0
INSERT
  5
1219
330
137A
100
AcDbEntity
  8
8
100
AcDbBlockReference
  2
*X0
 10
-29.739477
 20
-684.55207
 30
0.0
1001
ACAD
1000
HATCH
1002
{
1070
    19
1000
ANSI31,_I
1040
7.937
1040
0.7850000000000001
1002
}
  0
DIMENSION
  5
1224
330
137A
100
AcDbEntity
  8
5
100
AcDbDimension
  2
*D7
 10
518.020523
 20
454.5558599999999
 30
0.0
 11
404.0200229999999
 21
466.307583
 31
0.0
 70
    32
  1
%%c 228
 71
     5
 42
-1.0
  3
GEN-ISO
100
AcDbAlignedDimension
 13
290.019523
 23
375.11293
 33
0.0
 14
518.020523
 24
375.11293
 34
0.0
100
AcDbRotatedDimension
  0
POLYLINE
  5
1225
330
137A
100
AcDbEntity
  8
SCHRAFFUR_RAND
100
AcDb2dPolyline
 66
     1
 10
0.0
 20
0.0
 30
0.0
 70
     1
  0
VERTEX
  5
1226
330
1225
100
AcDbEntity
  8
SCHRAFFUR_RAND
100
AcDbVertex
100
AcDb2dVertex
 10
511.432523
 20
370.11293
 30
0.0
  0
VERTEX
  5
1227
330
1225
100
AcDbEntity
  8
SCHRAFFUR_RAND
100
AcDbVertex
100
AcDb2dVertex
 10
511.023523
 20
346.65793
 30
0.0
  0
VERTEX
  5
1228
330
1225
100
AcDbEntity
  8
SCHRAFFUR_RAND
100
AcDbVertex
100
AcDb2dVertex
 10
510.873523
 20
345.83693
 30
0.0
  0
VERTEX
  5
1229
330
1225
100
AcDbEntity
  8
SCHRAFFUR_RAND
100
AcDbVertex
100
AcDb2dVertex
 10
510.271523
 20
345.23593
 30
0.0
  0
VERTEX
  5
122A
330
1225
100
AcDbEntity
  8
SCHRAFFUR_RAND
100
AcDbVertex
100
AcDb2dVertex
 10
509.451523
 20
345.08593
 30
0.0
  0
VERTEX
  5
122B
330
1225
100
AcDbEntity
  8
SCHRAFFUR_RAND
100
AcDbVertex
100
AcDb2dVertex
 10
492.020523
 20
344.7809299999999
 30
0.0
  0
VERTEX
  5
122C
330
1225
100
AcDbEntity
  8
SCHRAFFUR_RAND
100
AcDbVertex
100
AcDb2dVertex
 10
492.020523
 20
341.11293
 30
0.0
  0
VERTEX
  5
122D
330
1225
100
AcDbEntity
  8
SCHRAFFUR_RAND
100
AcDbVertex
100
AcDb2dVertex
 10
492.020523
 20
334.11293
 30
0.0
  0
VERTEX
  5
122E
330
1225
100
AcDbEntity
  8
SCHRAFFUR_RAND
100
AcDbVertex
100
AcDb2dVertex
 10
518.769523
 20
334.11293
 30
0.0
  0
VERTEX
  5
122F
330
1225
100
AcDbEntity
  8
SCHRAFFUR_RAND
100
AcDbVertex
100
AcDb2dVertex
 10
525.384523
 20
334.11293
 30
0.0
  0
VERTEX
  5
1230
330
1225
100
AcDbEntity
  8
SCHRAFFUR_RAND
100
AcDbVertex
100
AcDb2dVertex
 10
530.020523
 20
334.11293
 30
0.0
  0
VERTEX
  5
1231
330
1225
100
AcDbEntity
  8
SCHRAFFUR_RAND
100
AcDbVertex
100
AcDb2dVertex
 10
530.020523
 20
339.11293
 30
0.0
  0
VERTEX
  5
1232
330
1225
100
AcDbEntity
  8
SCHRAFFUR_RAND
100
AcDbVertex
100
AcDb2dVertex
 10
519.962523
 20
339.11293
 30
0.0
  0
VERTEX
  5
1233
330
1225
100
AcDbEntity
  8
SCHRAFFUR_RAND
100
AcDbVertex
100
AcDb2dVertex
 10
518.385523
 20
339.35093
 30
0.0
  0
VERTEX
  5
1234
330
1225
100
AcDbEntity
  8
SCHRAFFUR_RAND
100
AcDbVertex
100
AcDb2dVertex
 10
517.053523
 20
340.25393
 30
0.0
  0
VERTEX
  5
1235
330
1225
100
AcDbEntity
  8
SCHRAFFUR_RAND
100
AcDbVertex
100
AcDb2dVertex
 10
516.173523
 20
341.60093
 30
0.0
  0
VERTEX
  5
1236
330
1225
100
AcDbEntity
  8
SCHRAFFUR_RAND
100
AcDbVertex
100
AcDb2dVertex
 10
515.963523
 20
343.18293
 30
0.0
  0
VERTEX
  5
1237
330
1225
100
AcDbEntity
  8
SCHRAFFUR_RAND
100
AcDbVertex
100
AcDb2dVertex
 10
516.243523
 20
359.21693
 30
0.0
  0
VERTEX
  5
1238
330
1225
100
AcDbEntity
  8
SCHRAFFUR_RAND
100
AcDbVertex
100
AcDb2dVertex
 10
516.6565229999999
 20
361.51293
 30
0.0
  0
VERTEX
  5
1239
330
1225
100
AcDbEntity
  8
SCHRAFFUR_RAND
100
AcDbVertex
100
AcDb2dVertex
 10
517.981523
 20
363.44893
 30
0.0
  0
VERTEX
  5
123A
330
1225
100
AcDbEntity
  8
SCHRAFFUR_RAND
100
AcDbVertex
100
AcDb2dVertex
 10
518.740523
 20
363.98393
 30
0.0
  0
VERTEX
  5
123B
330
1225
100
AcDbEntity
  8
SCHRAFFUR_RAND
100
AcDbVertex
100
AcDb2dVertex
 10
519.940523
 20
364.73893
 30
0.0
  0
VERTEX
  5
123C
330
1225
100
AcDbEntity
  8
SCHRAFFUR_RAND
100
AcDbVertex
100
AcDb2dVertex
 10
522.2425229999999
 20
365.11293
 30
0.0
  0
VERTEX
  5
123D
330
1225
100
AcDbEntity
  8
SCHRAFFUR_RAND
100
AcDbVertex
100
AcDb2dVertex
 10
547.561523
 20
365.11293
 30
0.0
  0
VERTEX
  5
123E
330
1225
100
AcDbEntity
  8
SCHRAFFUR_RAND
100
AcDbVertex
100
AcDb2dVertex
 10
610.057523
 20
365.11293
 30
0.0
  0
VERTEX
  5
123F
330
1225
100
AcDbEntity
  8
SCHRAFFUR_RAND
100
AcDbVertex
100
AcDb2dVertex
 10
611.888523
 20
364.75793
 30
0.0
  0
VERTEX
  5
1240
330
1225
100
AcDbEntity
  8
SCHRAFFUR_RAND
100
AcDbVertex
100
AcDb2dVertex
 10
613.3295229999999
 20
363.54893
 30
0.0
  0
VERTEX
  5
1241
330
1225
100
AcDbEntity
  8
SCHRAFFUR_RAND
100
AcDbVertex
100
AcDb2dVertex
 10
613.996523
 20
361.80693
 30
0.0
  0
VERTEX
  5
1242
330
1225
100
AcDbEntity
  8
SCHRAFFUR_RAND
100
AcDbVertex
100
AcDb2dVertex
 10
615.812523
 20
351.51093
 30
0.0
  0
VERTEX
  5
1243
330
1225
100
AcDbEntity
  8
SCHRAFFUR_RAND
100
AcDbVertex
100
AcDb2dVertex
 10
616.6615229999999
 20
348.61693
 30
0.0
  0
VERTEX
  5
1244
330
1225
100
AcDbEntity
  8
SCHRAFFUR_RAND
100
AcDbVertex
100
AcDb2dVertex
 10
618.334523
 20
346.09493
 30
0.0
  0
VERTEX
  5
1245
330
1225
100
AcDbEntity
  8
SCHRAFFUR_RAND
100
AcDbVertex
100
AcDb2dVertex
 10
620.627523
 20
344.11893
 30
0.0
  0
VERTEX
  5
1246
330
1225
100
AcDbEntity
  8
SCHRAFFUR_RAND
100
AcDbVertex
100
AcDb2dVertex
 10
623.368523
 20
342.83793
 30
0.0
  0
VERTEX
  5
1247
330
1225
100
AcDbEntity
  8
SCHRAFFUR_RAND
100
AcDbVertex
100
AcDb2dVertex
 10
626.357523
 20
342.42493
 30
0.0
  0
VERTEX
  5
1248
330
1225
100
AcDbEntity
  8
SCHRAFFUR_RAND
100
AcDbVertex
100
AcDb2dVertex
 10
690.337523
 20
340.74993
 30
0.0
  0
VERTEX
  5
1249
330
1225
100
AcDbEntity
  8
SCHRAFFUR_RAND
100
AcDbVertex
100
AcDb2dVertex
 10
695.309523
 20
339.61893
 30
0.0
  0
VERTEX
  5
124A
330
1225
100
AcDbEntity
  8
SCHRAFFUR_RAND
100
AcDbVertex
100
AcDb2dVertex
 10
715.302523
 20
339.09593
 30
0.0
  0
VERTEX
  5
124B
330
1225
100
AcDbEntity
  8
SCHRAFFUR_RAND
100
AcDbVertex
100
AcDb2dVertex
 10
715.415523
 20
343.40393
 30
0.0
  0
VERTEX
  5
124C
330
1225
100
AcDbEntity
  8
SCHRAFFUR_RAND
100
AcDbVertex
100
AcDb2dVertex
 10
709.455523
 20
345.00093
 30
0.0
  0
VERTEX
  5
124D
330
1225
100
AcDbEntity
  8
SCHRAFFUR_RAND
100
AcDbVertex
100
AcDb2dVertex
 10
626.5325230000001
 20
347.17193
 30
0.0
  0
VERTEX
  5
124E
330
1225
100
AcDbEntity
  8
SCHRAFFUR_RAND
100
AcDbVertex
100
AcDb2dVertex
 10
624.4985230000001
 20
347.49893
 30
0.0
  0
VERTEX
  5
124F
330
1225
100
AcDbEntity
  8
SCHRAFFUR_RAND
100
AcDbVertex
100
AcDb2dVertex
 10
622.720523
 20
348.56493
 30
0.0
  0
VERTEX
  5
1250
330
1225
100
AcDbEntity
  8
SCHRAFFUR_RAND
100
AcDbVertex
100
AcDb2dVertex
 10
621.404523
 20
350.16493
 30
0.0
  0
VERTEX
  5
1251
330
1225
100
AcDbEntity
  8
SCHRAFFUR_RAND
100
AcDbVertex
100
AcDb2dVertex
 10
620.7805229999999
 20
352.12793
 30
0.0
  0
VERTEX
  5
1252
330
1225
100
AcDbEntity
  8
SCHRAFFUR_RAND
100
AcDbVertex
100
AcDb2dVertex
 10
618.192523
 20
366.8069299999999
 30
0.0
  0
VERTEX
  5
1253
330
1225
100
AcDbEntity
  8
SCHRAFFUR_RAND
100
AcDbVertex
100
AcDb2dVertex
 10
617.525523
 20
368.54893
 30
0.0
  0
VERTEX
  5
1254
330
1225
100
AcDbEntity
  8
SCHRAFFUR_RAND
100
AcDbVertex
100
AcDb2dVertex
 10
616.0835229999999
 20
369.75793
 30
0.0
  0
VERTEX
  5
1255
330
1225
100
AcDbEntity
  8
SCHRAFFUR_RAND
100
AcDbVertex
100
AcDb2dVertex
 10
614.252523
 20
370.11293
 30
0.0
  0
VERTEX
  5
1256
330
1225
100
AcDbEntity
  8
SCHRAFFUR_RAND
100
AcDbVertex
100
AcDb2dVertex
 10
536.7585230000001
 20
370.11293
 30
0.0
  0
VERTEX
  5
1257
330
1225
100
AcDbEntity
  8
SCHRAFFUR_RAND
100
AcDbVertex
100
AcDb2dVertex
 10
535.758523
 20
370.11293
 30
0.0
  0
VERTEX
  5
1258
330
1225
100
AcDbEntity
  8
SCHRAFFUR_RAND
100
AcDbVertex
100
AcDb2dVertex
 10
527.758523
 20
370.11293
 30
0.0
  0
VERTEX
  5
1259
330
1225
100
AcDbEntity
  8
SCHRAFFUR_RAND
100
AcDbVertex
100
AcDb2dVertex
 10
526.758523
 20
370.11293
 30
0.0
  0
VERTEX
  5
125A
330
1225
100
AcDbEntity
  8
SCHRAFFUR_RAND
100
AcDbVertex
100
AcDb2dVertex
 10
520.999523
 20
370.11293
 30
0.0
  0
VERTEX
  5
125B
330
1225
100
AcDbEntity
  8
SCHRAFFUR_RAND
100
AcDbVertex
100
AcDb2dVertex
 10
511.432523
 20
370.11293
 30
0.0
  0
SEQEND
  5
125C
330
1225
100
AcDbEntity
  8
SCHRAFFUR_RAND
  0
INSERT
  5
1279
330
137A
100
AcDbEntity
  8
8
100
AcDbBlockReference
  2
*X1
 10
-29.739477
 20
-684.55207
 30
0.0
1001
ACAD
1000
HATCH
1002
{
1070
    19
1000
ANSI31,_I
1040
7.937
1040
0.7850000000000001
1002
}
  0
POLYLINE
  5
127A
330
137A
100
AcDbEntity
  8
SCHRAFFUR_RAND
100
AcDb2dPolyline
 66
     1
 10
0.0
 20
0.0
 30
0.0
 70
     1
  0
VERTEX
  5
127B
330
127A
100
AcDbEntity
  8
SCHRAFFUR_RAND
100
AcDbVertex
100
AcDb2dVertex
 10
579.020523
 20
383.11293
 30
0.0
  0
VERTEX
  5
127C
330
127A
100
AcDbEntity
  8
SCHRAFFUR_RAND
100
AcDbVertex
100
AcDb2dVertex
 10
521.520523
 20
383.11293
 30
0.0
  0
VERTEX
  5
127D
330
127A
100
AcDbEntity
  8
SCHRAFFUR_RAND
100
AcDbVertex
100
AcDb2dVertex
 10
521.520523
 20
377.61293
 30
0.0
  0
VERTEX
  5
127E
330
127A
100
AcDbEntity
  8
SCHRAFFUR_RAND
100
AcDbVertex
100
AcDb2dVertex
 10
521.679523
 20
376.64293
 30
0.0
  0
VERTEX
  5
127F
330
127A
100
AcDbEntity
  8
SCHRAFFUR_RAND
100
AcDbVertex
100
AcDb2dVertex
 10
522.2285229999999
 20
375.82193
 30
0.0
  0
VERTEX
  5
1280
330
127A
100
AcDbEntity
  8
SCHRAFFUR_RAND
100
AcDbVertex
100
AcDb2dVertex
 10
523.050523
 20
375.27193
 30
0.0
  0
VERTEX
  5
1281
330
127A
100
AcDbEntity
  8
SCHRAFFUR_RAND
100
AcDbVertex
100
AcDb2dVertex
 10
524.0205229999999
 20
375.11293
 30
0.0
  0
VERTEX
  5
1282
330
127A
100
AcDbEntity
  8
SCHRAFFUR_RAND
100
AcDbVertex
100
AcDb2dVertex
 10
576.520523
 20
375.11293
 30
0.0
  0
VERTEX
  5
1283
330
127A
100
AcDbEntity
  8
SCHRAFFUR_RAND
100
AcDbVertex
100
AcDb2dVertex
 10
577.4895230000001
 20
375.27193
 30
0.0
  0
VERTEX
  5
1284
330
127A
100
AcDbEntity
  8
SCHRAFFUR_RAND
100
AcDbVertex
100
AcDb2dVertex
 10
578.311523
 20
375.82193
 30
0.0
  0
VERTEX
  5
1285
330
127A
100
AcDbEntity
  8
SCHRAFFUR_RAND
100
AcDbVertex
100
AcDb2dVertex
 10
578.860523
 20
376.64293
 30
0.0
  0
VERTEX
  5
1286
330
127A
100
AcDbEntity
  8
SCHRAFFUR_RAND
100
AcDbVertex
100
AcDb2dVertex
 10
579.020523
 20
377.61293
 30
0.0
  0
VERTEX
  5
1287
330
127A
100
AcDbEntity
  8
SCHRAFFUR_RAND
100
AcDbVertex
100
AcDb2dVertex
 10
579.020523
 20
383.11293
 30
0.0
  0
SEQEND
  5
1288
330
127A
100
AcDbEntity
  8
SCHRAFFUR_RAND
  0
INSERT
  5
1299
330
137A
100
AcDbEntity
  8
8
100
AcDbBlockReference
  2
*X2
 10
-29.739477
 20
-684.55207
 30
0.0
1001
ACAD
1000
HATCH
1002
{
1070
    19
1000
ANSI31,_I
1040
3.174999999999999
1040
0.7850000000000001
1002
}
  0
POLYLINE
  5
129A
330
137A
100
AcDbEntity
  8
SCHRAFFUR_RAND
100
AcDb2dPolyline
 66
     1
 10
0.0
 20
0.0
 30
0.0
 70
     1
  0
VERTEX
  5
129B
330
129A
100
AcDbEntity
  8
SCHRAFFUR_RAND
100
AcDbVertex
100
AcDb2dVertex
 10
284.020523
 20
375.11293
 30
0.0
  0
VERTEX
  5
129C
330
129A
100
AcDbEntity
  8
SCHRAFFUR_RAND
100
AcDbVertex
100
AcDb2dVertex
 10
284.990523
 20
375.26893
 30
0.0
  0
VERTEX
  5
129D
330
129A
100
AcDbEntity
  8
SCHRAFFUR_RAND
100
AcDbVertex
100
AcDb2dVertex
 10
285.813523
 20
375.81893
 30
0.0
  0
VERTEX
  5
129E
330
129A
100
AcDbEntity
  8
SCHRAFFUR_RAND
100
AcDbVertex
100
AcDb2dVertex
 10
286.363523
 20
376.64193
 30
0.0
  0
VERTEX
  5
129F
330
129A
100
AcDbEntity
  8
SCHRAFFUR_RAND
100
AcDbVertex
100
AcDb2dVertex
 10
286.520523
 20
377.61293
 30
0.0
  0
VERTEX
  5
12A0
330
129A
100
AcDbEntity
  8
SCHRAFFUR_RAND
100
AcDbVertex
100
AcDb2dVertex
 10
286.520523
 20
383.11293
 30
0.0
  0
VERTEX
  5
12A1
330
129A
100
AcDbEntity
  8
SCHRAFFUR_RAND
100
AcDbVertex
100
AcDb2dVertex
 10
229.019523
 20
383.11293
 30
0.0
  0
VERTEX
  5
12A2
330
129A
100
AcDbEntity
  8
SCHRAFFUR_RAND
100
AcDbVertex
100
AcDb2dVertex
 10
229.019523
 20
377.61293
 30
0.0
  0
VERTEX
  5
12A3
330
129A
100
AcDbEntity
  8
SCHRAFFUR_RAND
100
AcDbVertex
100
AcDb2dVertex
 10
229.176523
 20
376.64193
 30
0.0
  0
VERTEX
  5
12A4
330
129A
100
AcDbEntity
  8
SCHRAFFUR_RAND
100
AcDbVertex
100
AcDb2dVertex
 10
229.726523
 20
375.81893
 30
0.0
  0
VERTEX
  5
12A5
330
129A
100
AcDbEntity
  8
SCHRAFFUR_RAND
100
AcDbVertex
100
AcDb2dVertex
 10
230.549523
 20
375.26893
 30
0.0
  0
VERTEX
  5
12A6
330
129A
100
AcDbEntity
  8
SCHRAFFUR_RAND
100
AcDbVertex
100
AcDb2dVertex
 10
231.519523
 20
375.11293
 30
0.0
  0
VERTEX
  5
12A7
330
129A
100
AcDbEntity
  8
SCHRAFFUR_RAND
100
AcDbVertex
100
AcDb2dVertex
 10
284.020523
 20
375.11293
 30
0.0
  0
SEQEND
  5
12A8
330
129A
100
AcDbEntity
  8
SCHRAFFUR_RAND
  0
INSERT
  5
12B9
330
137A
100
AcDbEntity
  8
8
100
AcDbBlockReference
  2
*X3
 10
-29.739477
 20
-684.55207
 30
0.0
1001
ACAD
1000
HATCH
1002
{
1070
    19
1000
ANSI31,_I
1040
3.174999999999999
1040
0.7850000000000001
1002
}
  0
INSERT
  5
1474
330
137A
100
AcDbEntity
  8
0
100
AcDbBlockReference
  2
KATALOG_LEER
 10
251.839706
 20
11.304483
 30
0.0
 41
5.0
 42
5.0
 43
5.0
1001
GENIUS_GENOREF_13
1005
1475
  0
POINT
  5
1475
330
137A
100
AcDbEntity
  8
0
 60
     1
100
AcDbPoint
 10
0.0
 20
0.0
 30
0.0
1001
GENIUS_GENOBJ-N-TIT_13
1002
{
1000
OWNER
1000
GEN
1002
}
1001
GENIUS_GENOENT_13
1002
{
1000
MYREF
1005
1475
1002
}
1002
{
1000
GRP
1005
0
1002
}
1001
GENIUS_GENOLIS_13
1002
{
1000
ENT
1005
1474
1002
}
1001
GENIUS_GENTITLE_13
1002
{
1000
SCALE
1000
1:5
1002
}
1002
{
1000
BORDER
1000
KATALOG
1002
}
1002
{
1000
TITLE
1000
KATALOG_LEER
1002
}
1002
{
1000
UNCHG
1002
{
1000
GEN-TITLE-SCA
1000
GEN-TITLE-SIZ
1002
}
1002
}
1002
{
1000
HRA
1005
146D
1002
}
1002
{
1000
HTIT
1005
1474
1002
}
1002
{
1000
GENIUSID
1005
1475
1002
}
1001
GENIUS_GENODEF_13
1002
{
1000
HIER
1070
     1
1002
}
1002
{
1000
MANEDIT
1070
     1
1002
}
1002
{
1000
NOSEL
1070
     0
1002
}
1002
{
1000
BEHIND
1070
     0
1002
}
1002
{
1000
REACTOR
1002
}
  0
DIMENSION
  5
1556
330
137A
100
AcDbEntity
  8
5
100
AcDbDimension
  2
*D11
 10
719.018625
 20
289.98183
 30
0.0
 11
785.0380939999999
 21
248.584861
 31
0.0
 70
    34
  1
<>
 71
     5
 42
-1.0
  3
GEN-ISO
100
AcDb2LineAngularDimension
 13
0.0
 23
290.112715
 33
0.0
 14
1050.0
 24
290.112715
 34
0.0
 15
596.310523
 25
293.19493
 35
0.0
 16
805.870011
 26
289.3111839999999
 36
0.0
1001
ACAD
1000
DSTYLE
1002
{
1070
    40
1040
5.0
1002
}
1001
GENIUS_GENDTOL_13
1000

1000
/max
1000

1040
0.0
1000
<>
  0
LINE
  5
15B7
330
137A
100
AcDbEntity
  8
0
100
AcDbLine
 10
492.020523
 20
246.61293
 30
0.0
 11
492.020523
 21
334.11293
 31
0.0
  0
ENDSEC
  0
SECTION
  2
OBJECTS
  0
DICTIONARY
  5
136E
330
0
100
AcDbDictionary
281
     1
  3
ACAD_COLOR
350
15E8
  3
ACAD_GROUP
350
136F
  3
ACAD_LAYOUT
350
15EB
  3
ACAD_MATERIAL
350
15E7
  3
ACAD_MLINESTYLE
350
137D
  3
ACAD_PLOTSETTINGS
350
15EC
  3
ACAD_PLOTSTYLENAME
350
15E5
  3
ACAD_TABLESTYLE
350
15E9
  3
ACDBHEADERROUNDTRIPXREC
350
16C5
  3
AcDbVariableDictionary
350
16C0
  3
AcmDictionary
350
164A
  3
AMG
350
15F0
  3
AMGSNAPSETTINGS
350
16B8
  0
DICTIONARY
  5
15E8
102
{ACAD_REACTORS
330
136E
102
}
330
136E
100
AcDbDictionary
281
     1
  0
DICTIONARY
  5
136F
102
{ACAD_REACTORS
330
136E
102
}
330
136E
100
AcDbDictionary
281
     1
  0
DICTIONARY
  5
15EB
102
{ACAD_REACTORS
330
136E
102
}
330
136E
100
AcDbDictionary
281
     1
  3
Layout1
350
15EE
  3
Model
350
15ED
  0
DICTIONARY
  5
15E7
102
{ACAD_REACTORS
330
136E
102
}
330
136E
100
AcDbDictionary
281
     1
  0
DICTIONARY
  5
137D
102
{ACAD_REACTORS
330
136E
102
}
330
136E
100
AcDbDictionary
281
     1
  3
STANDARD
350
137E
  0
DICTIONARY
  5
15EC
102
{ACAD_REACTORS
330
136E
102
}
330
136E
100
AcDbDictionary
281
     1
  0
ACDBDICTIONARYWDFLT
  5
15E5
102
{ACAD_REACTORS
330
136E
102
}
330
136E
100
AcDbDictionary
281
     1
  3
Normal
350
15E6
100
AcDbDictionaryWithDefault
340
15E6
  0
DICTIONARY
  5
15E9
102
{ACAD_REACTORS
330
136E
102
}
330
136E
100
AcDbDictionary
281
     1
  3
Standard
350
15EA
  0
DICTIONARY
  5
16C5
102
{ACAD_REACTORS
330
136E
102
}
330
136E
100
AcDbDictionary
281
     1
  0
DICTIONARY
  5
16C0
102
{ACAD_REACTORS
330
136E
102
}
330
136E
100
AcDbDictionary
281
     1
  3
CTABLESTYLE
350
16C1
  3
DIMASSOC
350
16C2
  3
PROJECTNAME
350
16C3
  0
DICTIONARY
  5
164A
102
{ACAD_REACTORS
330
136E
102
}
330
136E
100
AcDbDictionary
281
     1
  3
AcmStdDictionary
350
1655
  3
AMDTSECTSYM_ARROWCOLOR
350
1678
  0
DICTIONARY
  5
15F0
102
{ACAD_REACTORS
330
136E
102
}
330
136E
100
AcDbDictionary
281
     1
  0
DICTIONARY
  5
16B8
102
{ACAD_REACTORS
330
136E
102
}
330
136E
100
AcDbDictionary
281
     1
  0
LAYOUT
  5
15EE
102
{ACAD_XDICTIONARY
360
16C8
102
}
102
{ACAD_REACTORS
330
15EB
102
}
330
15EB
100
AcDbPlotSettings
  1

  2
Xerox Document Centre CS50 PS
  4

  6

 40
0.0
 41
0.0
 42
0.0
 43
0.0
 44
0.0
 45
0.0
 46
0.0
 47
0.0
 48
0.0
 49
0.0
140
0.0
141
0.0
142
1.0
143
1.0
 70
   688
 72
     0
 73
     0
 74
     5
  7

 75
    16
147
1.0
148
0.0
149
0.0
100
AcDbLayout
  1
Layout1
 70
     1
 71
     1
 10
0.0
 20
0.0
 11
210.001
 21
297.001
 12
0.0
 22
0.0
 32
0.0
 14
0.0
 24
0.0
 34
0.0
 15
210.001
 25
297.001
 35
0.0
146
0.0
 13
0.0
 23
0.0
 33
0.0
 16
1.0
 26
0.0
 36
0.0
 17
0.0
 27
1.0
 37
0.0
 76
     0
330
1377
  0
LAYOUT
  5
15ED
102
{ACAD_XDICTIONARY
360
16C6
102
}
102
{ACAD_REACTORS
330
15EB
102
}
330
15EB
100
AcDbPlotSettings
  1

  2
Xerox Document Centre CS50 PS
  4

  6

 40
0.0
 41
0.0
 42
0.0
 43
0.0
 44
0.0
 45
0.0
 46
0.0
 47
0.0
 48
0.0
 49
0.0
140
0.0
141
0.0
142
1.0
143
1.0
 70
  1712
 72
     0
 73
     0
 74
     0
  7

 75
     0
147
1.0
148
0.0
149
0.0
100
AcDbLayout
  1
Model
 70
     1
 71
     0
 10
0.0
 20
0.0
 11
12.0
 21
9.0
 12
0.0
 22
0.0
 32
0.0
 14
0.0
 24
0.0
 34
0.0
 15
0.0
 25
0.0
 35
0.0
146
0.0
 13
0.0
 23
0.0
 33
0.0
 16
1.0
 26
0.0
 36
0.0
 17
0.0
 27
1.0
 37
0.0
 76
     0
330
137A
  0
MLINESTYLE
  5
137E
102
{ACAD_REACTORS
330
137D
102
}
330
137D
100
AcDbMlineStyle
  2
STANDARD
 70
     0
  3

 62
   256
 51
90.0
 52
90.0
 71
     2
 49
0.5
 62
   256
  6
BYLAYER
 49
-0.5
 62
   256
  6
BYLAYER
  0
ACDBPLACEHOLDER
  5
15E6
102
{ACAD_REACTORS
330
15E5
102
}
330
15E5
  0
TABLESTYLE
  5
15EA
102
{ACAD_REACTORS
330
15E9
102
}
330
15E9
100
AcDbTableStyle
  3
Standard
 70
     0
 71
     0
 40
1.5
 41
1.5
280
     0
281
     0
  7
STANDARD
140
4.5
170
     2
 62
     0
 63
     7
283
     0
274
    -2
284
     1
 64
     0
275
    -2
285
     1
 65
     0
276
    -2
286
     1
 66
     0
277
    -2
287
     1
 67
     0
278
    -2
288
     1
 68
     0
279
    -2
289
     1
 69
     0
  7
STANDARD
140
6.0
170
     5
 62
     0
 63
     7
283
     0
274
    -2
284
     1
 64
     0
275
    -2
285
     1
 65
     0
276
    -2
286
     1
 66
     0
277
    -2
287
     1
 67
     0
278
    -2
288
     1
 68
     0
279
    -2
289
     1
 69
     0
  7
STANDARD
140
4.5
170
     5
 62
     0
 63
     7
283
     0
274
    -2
284
     1
 64
     0
275
    -2
285
     1
 65
     0
276
    -2
286
     1
 66
     0
277
    -2
287
     1
 67
     0
278
    -2
288
     1
 68
     0
279
    -2
289
     1
 69
     0
  0
DICTIONARYVAR
  5
16C1
102
{ACAD_REACTORS
330
16C0
102
}
330
16C0
100
DictionaryVariables
280
     0
  1
STANDARD
  0
DICTIONARYVAR
  5
16C2
102
{ACAD_REACTORS
330
16C0
102
}
330
16C0
100
DictionaryVariables
280
     0
  1
1
  0
DICTIONARYVAR
  5
16C3
102
{ACAD_REACTORS
330
16C0
102
}
330
16C0
100
DictionaryVariables
280
     0
  1

  0
DICTIONARY
  5
1655
102
{ACAD_REACTORS
330
164A
102
}
330
164A
100
AcDbDictionary
281
     1
  0
XRECORD
  5
1678
102
{ACAD_REACTORS
330
164A
102
}
330
164A
100
AcDbXrecord
280
     1
 90
-1023410169
  0
DICTIONARY
  5
16C8
330
15EE
100
AcDbDictionary
280
     1
281
     1
  3
ACAD_XREC_ROUNDTRIP
360
16C9
  0
DICTIONARY
  5
16C6
330
15ED
100
AcDbDictionary
280
     1
281
     1
  3
ACAD_XREC_ROUNDTRIP
360
16C7
  0
XRECORD
  5
16C9
102
{ACAD_REACTORS
330
16C8
102
}
330
16C8
100
AcDbXrecord
280
     1
102
SHADEPLOT
 70
     0
102
SHADEPLOTRESLEVEL
 70
     2
102
SHADEPLOTCUSTOMDPI
 70
   300
  0
XRECORD
  5
16C7
102
{ACAD_REACTORS
330
16C6
102
}
330
16C6
100
AcDbXrecord
280
     1
102
SHADEPLOT
 70
     0
102
SHADEPLOTRESLEVEL
 70
     2
102
SHADEPLOTCUSTOMDPI
 70
   300
  0
ENDSEC
  0
EOF
